  0
SECTION
  2
HEADER
  9
$ACADVER
  1
AC1014
  9
$ACADMAINTVER
 70
     9
  9
$DWGCODEPAGE
  3
ANSI_932
  9
$INSBASE
 10
0.0
 20
0.0
 30
0.0
  9
$EXTMIN
 10
15.0
 20
30.0
 30
0.0
  9
$EXTMAX
 10
1155.0
 20
840.0
 30
0.0
  9
$LIMMIN
 10
0.0
 20
0.0
  9
$LIMMAX
 10
420.0
 20
297.0
  9
$ORTHOMODE
 70
     0
  9
$REGENMODE
 70
     1
  9
$FILLMODE
 70
     1
  9
$QTEXTMODE
 70
     0
  9
$MIRRTEXT
 70
     1
  9
$DRAGMODE
 70
     2
  9
$LTSCALE
 40
0.2
  9
$OSMODE
 70
    37
  9
$ATTMODE
 70
     1
  9
$TEXTSIZE
 40
2.5
  9
$TRACEWID
 40
1.0
  9
$TEXTSTYLE
  7
STANDARD
  9
$CLAYER
  8
LAY-20
  9
$CELTYPE
  6
BYLAYER
  9
$CECOLOR
 62
   256
  9
$CELTSCALE
 40
1.0
  9
$DELOBJ
 70
     1
  9
$DISPSILH
 70
     0
  9
$DIMSCALE
 40
1.0
  9
$DIMASZ
 40
2.5
  9
$DIMEXO
 40
0.625
  9
$DIMDLI
 40
3.75
  9
$DIMRND
 40
0.0
  9
$DIMDLE
 40
0.0
  9
$DIMEXE
 40
1.25
  9
$DIMTP
 40
0.0
  9
$DIMTM
 40
0.0
  9
$DIMTXT
 40
2.5
  9
$DIMCEN
 40
2.5
  9
$DIMTSZ
 40
0.0
  9
$DIMTOL
 70
     0
  9
$DIMLIM
 70
     0
  9
$DIMTIH
 70
     0
  9
$DIMTOH
 70
     0
  9
$DIMSE1
 70
     0
  9
$DIMSE2
 70
     0
  9
$DIMTAD
 70
     1
  9
$DIMZIN
 70
     8
  9
$DIMBLK
  1

  9
$DIMASO
 70
     1
  9
$DIMSHO
 70
     1
  9
$DIMPOST
  1

  9
$DIMAPOST
  1

  9
$DIMALT
 70
     0
  9
$DIMALTD
 70
     3
  9
$DIMALTF
 40
0.03937007874016
  9
$DIMLFAC
 40
1.0
  9
$DIMTOFL
 70
     1
  9
$DIMTVP
 40
0.0
  9
$DIMTIX
 70
     0
  9
$DIMSOXD
 70
     0
  9
$DIMSAH
 70
     0
  9
$DIMBLK1
  1

  9
$DIMBLK2
  1

  9
$DIMSTYLE
  2
ISO-25
  9
$DIMCLRD
 70
     0
  9
$DIMCLRE
 70
     0
  9
$DIMCLRT
 70
     0
  9
$DIMTFAC
 40
1.0
  9
$DIMGAP
 40
0.625
  9
$DIMJUST
 70
     0
  9
$DIMSD1
 70
     0
  9
$DIMSD2
 70
     0
  9
$DIMTOLJ
 70
     0
  9
$DIMTZIN
 70
     8
  9
$DIMALTZ
 70
     0
  9
$DIMALTTZ
 70
     0
  9
$DIMFIT
 70
     3
  9
$DIMUPT
 70
     0
  9
$DIMUNIT
 70
     2
  9
$DIMDEC
 70
     2
  9
$DIMTDEC
 70
     2
  9
$DIMALTU
 70
     2
  9
$DIMALTTD
 70
     3
  9
$DIMTXSTY
  7
STANDARD
  9
$DIMAUNIT
 70
     0
  9
$LUNITS
 70
     2
  9
$LUPREC
 70
     4
  9
$SKETCHINC
 40
1.0
  9
$FILLETRAD
 40
10.0
  9
$AUNITS
 70
     0
  9
$AUPREC
 70
     0
  9
$MENU
  1
.
  9
$ELEVATION
 40
0.0
  9
$PELEVATION
 40
0.0
  9
$THICKNESS
 40
0.0
  9
$LIMCHECK
 70
     0
  9
$CHAMFERA
 40
0.0
  9
$CHAMFERB
 40
0.0
  9
$CHAMFERC
 40
0.0
  9
$CHAMFERD
 40
0.0
  9
$SKPOLY
 70
     0
  9
$TDCREATE
 40
2460011.654432176
  9
$TDUPDATE
 40
2460011.654432546
  9
$TDINDWG
 40
0.0000000116
  9
$TDUSRTIMER
 40
0.0000000116
  9
$USRTIMER
 70
     1
  9
$ANGBASE
 50
0.0
  9
$ANGDIR
 70
     0
  9
$PDMODE
 70
     0
  9
$PDSIZE
 40
0.0
  9
$PLINEWID
 40
0.0
  9
$COORDS
 70
     1
  9
$SPLFRAME
 70
     0
  9
$SPLINETYPE
 70
     6
  9
$SPLINESEGS
 70
     8
  9
$ATTDIA
 70
     0
  9
$ATTREQ
 70
     1
  9
$HANDLING
 70
     1
  9
$HANDSEED
  5
571
  9
$SURFTAB1
 70
     6
  9
$SURFTAB2
 70
     6
  9
$SURFTYPE
 70
     6
  9
$SURFU
 70
     6
  9
$SURFV
 70
     6
  9
$UCSNAME
  2

  9
$UCSORG
 10
0.0
 20
0.0
 30
0.0
  9
$UCSXDIR
 10
1.0
 20
0.0
 30
0.0
  9
$UCSYDIR
 10
0.0
 20
1.0
 30
0.0
  9
$PUCSNAME
  2

  9
$PUCSORG
 10
0.0
 20
0.0
 30
0.0
  9
$PUCSXDIR
 10
1.0
 20
0.0
 30
0.0
  9
$PUCSYDIR
 10
0.0
 20
1.0
 30
0.0
  9
$USERI1
 70
     0
  9
$USERI2
 70
     0
  9
$USERI3
 70
     0
  9
$USERI4
 70
     0
  9
$USERI5
 70
     0
  9
$USERR1
 40
0.0
  9
$USERR2
 40
0.0
  9
$USERR3
 40
0.0
  9
$USERR4
 40
0.0
  9
$USERR5
 40
0.0
  9
$WORLDVIEW
 70
     1
  9
$SHADEDGE
 70
     3
  9
$SHADEDIF
 70
    70
  9
$TILEMODE
 70
     1
  9
$MAXACTVP
 70
    64
  9
$PINSBASE
 10
0.0
 20
0.0
 30
0.0
  9
$PLIMCHECK
 70
     0
  9
$PEXTMIN
 10
1.000000000000000E+20
 20
1.000000000000000E+20
 30
1.000000000000000E+20
  9
$PEXTMAX
 10
-1.000000000000000E+20
 20
-1.000000000000000E+20
 30
-1.000000000000000E+20
  9
$PLIMMIN
 10
0.0
 20
0.0
  9
$PLIMMAX
 10
420.0
 20
297.0
  9
$UNITMODE
 70
     0
  9
$VISRETAIN
 70
     1
  9
$PLINEGEN
 70
     0
  9
$PSLTSCALE
 70
     1
  9
$TREEDEPTH
 70
  3020
  9
$PICKSTYLE
 70
     1
  9
$CMLSTYLE
  2
STANDARD
  9
$CMLJUST
 70
     0
  9
$CMLSCALE
 40
20.0
  9
$PROXYGRAPHICS
 70
     1
  9
$MEASUREMENT
 70
     1
  0
ENDSEC
  0
SECTION
  2
CLASSES
  0
CLASS
  1
ACDBDICTIONARYWDFLT
  2
AcDbDictionaryWithDefault
  3
ObjectDBX Classes
 90
        0
280
     0
281
     0
  0
CLASS
  1
VISUALSTYLE
  2
AcDbVisualStyle
  3
ObjectDBX Classes
 90
     4095
280
     0
281
     0
  0
CLASS
  1
MATERIAL
  2
AcDbMaterial
  3
ObjectDBX Classes
 90
     1153
280
     0
281
     0
  0
CLASS
  1
SCALE
  2
AcDbScale
  3
ObjectDBX Classes
 90
     1153
280
     0
281
     0
  0
CLASS
  1
TABLESTYLE
  2
AcDbTableStyle
  3
ObjectDBX Classes
 90
     4095
280
     0
281
     0
  0
CLASS
  1
MLEADERSTYLE
  2
AcDbMLeaderStyle
  3
ACDB_MLEADERSTYLE_CLASS
 90
     4095
280
     0
281
     0
  0
CLASS
  1
SUN
  2
AcDbSun
  3
SCENEOE
 90
     1153
280
     0
281
     0
  0
CLASS
  1
DICTIONARYVAR
  2
AcDbDictionaryVar
  3
ObjectDBX Classes
 90
        0
280
     0
281
     0
  0
CLASS
  1
XRECORD
  2
AcDbXrecord
  3
ObjectDBX Classes
 90
        0
280
     0
281
     0
  0
CLASS
  1
LWPOLYLINE
  2
AcDbPolyline
  3
ObjectDBX Classes
 90
        0
280
     0
281
     1
  0
CLASS
  1
HATCH
  2
AcDbHatch
  3
ObjectDBX Classes
 90
        0
280
     0
281
     1
  0
CLASS
  1
ACDBPLACEHOLDER
  2
AcDbPlaceHolder
  3
ObjectDBX Classes
 90
        0
280
     0
281
     0
  0
CLASS
  1
LAYOUT
  2
AcDbLayout
  3
ObjectDBX Classes
 90
        0
280
     0
281
     0
  0
ENDSEC
  0
SECTION
  2
TABLES
  0
TABLE
  2
VPORT
  5
8
102
{ACAD_XDICTIONARY
360
566
102
}
330
0
100
AcDbSymbolTable
 70
     1
  0
VPORT
  5
29
330
8
100
AcDbSymbolTableRecord
100
AcDbViewportTableRecord
  2
*ACTIVE
 70
     0
 10
0.0
 20
0.0
 11
1.0
 21
1.0
 12
585.0000000000001
 22
435.0
 13
0.0
 23
0.0
 14
10.0
 24
10.0
 15
10.0
 25
10.0
 16
0.0
 26
0.0
 36
1.0
 17
0.0
 27
0.0
 37
0.0
 40
810.0
 41
1.407407407407408
 42
50.0
 43
0.0
 44
0.0
 50
0.0
 51
0.0
 71
     0
 72
  1000
 73
     1
 74
     3
 75
     0
 76
     0
 77
     0
 78
     0
  0
ENDTAB
  0
TABLE
  2
LTYPE
  5
5
330
0
100
AcDbSymbolTable
 70
     6
  0
LTYPE
  5
14
330
5
100
AcDbSymbolTableRecord
100
AcDbLinetypeTableRecord
  2
BYBLOCK
 70
     0
  3

 72
    65
 73
     0
 40
0.0
  0
LTYPE
  5
15
330
5
100
AcDbSymbolTableRecord
100
AcDbLinetypeTableRecord
  2
BYLAYER
 70
     0
  3

 72
    65
 73
     0
 40
0.0
  0
LTYPE
  5
16
330
5
100
AcDbSymbolTableRecord
100
AcDbLinetypeTableRecord
  2
CONTINUOUS
 70
     0
  3
Solid line
 72
    65
 73
     0
 40
0.0
  0
LTYPE
  5
6E
330
5
100
AcDbSymbolTableRecord
100
AcDbLinetypeTableRecord
  2
HIDDEN
 70
     0
  3
Hidden __ __ __ __ __ __ __ __ __ __ __ __ __ __
 72
    65
 73
     2
 40
9.524999999999999
 49
6.35
 74
     0
 49
-3.175
 74
     0
  0
LTYPE
  5
6F
330
5
100
AcDbSymbolTableRecord
100
AcDbLinetypeTableRecord
  2
CENTER
 70
     0
  3
Center ____ _ ____ _ ____ _ ____ _ ____ _ ____
 72
    65
 73
     4
 40
50.8
 49
31.75
 74
     0
 49
-6.35
 74
     0
 49
6.35
 74
     0
 49
-6.35
 74
     0
  0
LTYPE
  5
70
330
5
100
AcDbSymbolTableRecord
100
AcDbLinetypeTableRecord
  2
PHANTOM
 70
     0
  3
Phantom ______  __  __  ______  __  __  ______ 
 72
    65
 73
     6
 40
63.50000000000001
 49
31.75
 74
     0
 49
-6.35
 74
     0
 49
6.35
 74
     0
 49
-6.35
 74
     0
 49
6.35
 74
     0
 49
-6.35
 74
     0
  0
LTYPE
  5
71
330
5
100
AcDbSymbolTableRecord
100
AcDbLinetypeTableRecord
  2
ACAD_ISO06W100
 70
     0
  3
ISO long-dash triple-dot ____ ... ____ ... ____
 72
    65
 73
     8
 40
36.0
 49
24.0
 74
     0
 49
-3.0
 74
     0
 49
0.0
 74
     0
 49
-3.0
 74
     0
 49
0.0
 74
     0
 49
-3.0
 74
     0
 49
0.0
 74
     0
 49
-3.0
 74
     0
  0
LTYPE
  5
72
330
5
100
AcDbSymbolTableRecord
100
AcDbLinetypeTableRecord
  2
ACAD_ISO15W100
 70
     0
  3
ISO double-dash triple-dot __ __ . . . __ __ . .
 72
    65
 73
    10
 40
39.0
 49
12.0
 74
     0
 49
-3.0
 74
     0
 49
12.0
 74
     0
 49
-3.0
 74
     0
 49
0.0
 74
     0
 49
-3.0
 74
     0
 49
0.0
 74
     0
 49
-3.0
 74
     0
 49
0.0
 74
     0
 49
-3.0
 74
     0
  0
ENDTAB
  0
TABLE
  2
LAYER
  5
2
330
0
100
AcDbSymbolTable
 70
     5
  0
LAYER
  5
10
330
2
100
AcDbSymbolTableRecord
100
AcDbLayerTableRecord
  2
0
 70
     0
 62
     7
  6
CONTINUOUS
  0
LAYER
  5
75
330
2
100
AcDbSymbolTableRecord
100
AcDbLayerTableRecord
  2
LAY-10
 70
     0
 62
     7
  6
CONTINUOUS
  0
LAYER
  5
76
330
2
100
AcDbSymbolTableRecord
100
AcDbLayerTableRecord
  2
LAY-20
 70
     0
 62
     7
  6
CONTINUOUS
  0
LAYER
  5
77
330
2
100
AcDbSymbolTableRecord
100
AcDbLayerTableRecord
  2
LAY-255
 70
     0
 62
     7
  6
CONTINUOUS
  0
LAYER
  5
45A
330
2
100
AcDbSymbolTableRecord
100
AcDbLayerTableRecord
  2
DEFPOINTS
 70
     0
 62
     7
  6
CONTINUOUS
  0
ENDTAB
  0
TABLE
  2
STYLE
  5
3
330
0
100
AcDbSymbolTable
 70
     4
  0
STYLE
  5
11
330
3
100
AcDbSymbolTableRecord
100
AcDbTextStyleTableRecord
  2
STANDARD
 70
     0
 40
0.0
 41
1.0
 50
0.0
 71
     0
 42
2.5
  3
simplex
  4
bigfont
  0
STYLE
  5
73
330
3
100
AcDbSymbolTableRecord
100
AcDbTextStyleTableRecord
  2
EXCADSTD
 70
     0
 40
0.0
 41
1.0
 50
0.0
 71
     0
 42
2.5
  3
simplex
  4
bigfont
  0
STYLE
  5
74
330
3
100
AcDbSymbolTableRecord
100
AcDbTextStyleTableRecord
  2
EXCADVERT
 70
     4
 40
0.0
 41
1.0
 50
0.0
 71
     0
 42
2.5
  3
simplex
  4
bigfont
  0
STYLE
  5
458
330
3
100
AcDbSymbolTableRecord
100
AcDbTextStyleTableRecord
  2
EXCADDIM1
 70
     0
 40
0.0
 41
0.84
 50
0.0
 71
     0
 42
2.5
  3
simplex
  4
bigfont
  0
ENDTAB
  0
TABLE
  2
VIEW
  5
6
330
0
100
AcDbSymbolTable
 70
     0
  0
ENDTAB
  0
TABLE
  2
UCS
  5
7
330
0
100
AcDbSymbolTable
 70
     0
  0
ENDTAB
  0
TABLE
  2
APPID
  5
9
330
0
100
AcDbSymbolTable
 70
     2
  0
APPID
  5
12
330
9
100
AcDbSymbolTableRecord
100
AcDbRegAppTableRecord
  2
ACAD
 70
     0
  0
APPID
  5
570
330
9
100
AcDbSymbolTableRecord
100
AcDbRegAppTableRecord
  2
ACAD_MLEADERVER
 70
     0
  0
ENDTAB
  0
TABLE
  2
DIMSTYLE
  5
A
330
0
100
AcDbSymbolTable
 70
     1
  0
DIMSTYLE
105
27
102
{ACAD_REACTORS
330
459
330
467
330
477
330
484
330
491
330
49E
330
4AB
330
4B7
330
4C3
330
4D1
330
4DD
330
4EB
330
4F7
330
503
102
}
330
A
100
AcDbSymbolTableRecord
100
AcDbDimStyleTableRecord
  2
ISO-25
 70
     0
  3

  4

  5

  6

  7

 40
1.0
 41
2.5
 42
0.625
 43
3.75
 44
1.25
 45
0.0
 46
0.0
 47
0.0
 48
0.0
140
2.5
141
2.5
142
0.0
143
0.03937007874016
144
1.0
145
0.0
146
1.0
147
0.625
 71
     0
 72
     0
 73
     0
 74
     0
 75
     0
 76
     0
 77
     1
 78
     8
170
     0
171
     3
172
     1
173
     0
174
     0
175
     0
176
     0
177
     0
178
     0
270
     2
271
     2
272
     2
273
     2
274
     3
340
11
275
     0
280
     0
281
     0
282
     0
283
     0
284
     8
285
     0
286
     0
287
     5
288
     0
  0
ENDTAB
  0
TABLE
  2
BLOCK_RECORD
  5
1
330
0
100
AcDbSymbolTable
 70
    28
  0
BLOCK_RECORD
  5
1F
330
1
100
AcDbSymbolTableRecord
100
AcDbBlockTableRecord
  2
*MODEL_SPACE
  0
BLOCK_RECORD
  5
1B
330
1
100
AcDbSymbolTableRecord
100
AcDbBlockTableRecord
  2
*PAPER_SPACE
  0
BLOCK_RECORD
  5
78
330
1
100
AcDbSymbolTableRecord
100
AcDbBlockTableRecord
  2
EX_NORM
  0
BLOCK_RECORD
  5
7B
330
1
100
AcDbSymbolTableRecord
100
AcDbBlockTableRecord
  2
EX_BNORM
  0
BLOCK_RECORD
  5
7E
330
1
100
AcDbSymbolTableRecord
100
AcDbBlockTableRecord
  2
EX_BCIR
  0
BLOCK_RECORD
  5
81
330
1
100
AcDbSymbolTableRecord
100
AcDbBlockTableRecord
  2
EX_RCIVIL
  0
BLOCK_RECORD
  5
84
330
1
100
AcDbSymbolTableRecord
100
AcDbBlockTableRecord
  2
EX_SLANT
  0
BLOCK_RECORD
  5
87
330
1
100
AcDbSymbolTableRecord
100
AcDbBlockTableRecord
  2
EX_NONE
  0
BLOCK_RECORD
  5
8A
330
1
100
AcDbSymbolTableRecord
100
AcDbBlockTableRecord
  2
EX_CIVIL
  0
BLOCK_RECORD
  5
8D
330
1
100
AcDbSymbolTableRecord
100
AcDbBlockTableRecord
  2
EX_WCIR
  0
BLOCK_RECORD
  5
90
330
1
100
AcDbSymbolTableRecord
100
AcDbBlockTableRecord
  2
EX_WCIR2
  0
BLOCK_RECORD
  5
93
330
1
100
AcDbSymbolTableRecord
100
AcDbBlockTableRecord
  2
EX_WNORM
  0
BLOCK_RECORD
  5
96
330
1
100
AcDbSymbolTableRecord
100
AcDbBlockTableRecord
  2
EX_NNORM
  0
BLOCK_RECORD
  5
99
330
1
100
AcDbSymbolTableRecord
100
AcDbBlockTableRecord
  2
EX_BBOX
  0
BLOCK_RECORD
  5
9C
330
1
100
AcDbSymbolTableRecord
100
AcDbBlockTableRecord
  2
EX_WBOX
  0
BLOCK_RECORD
  5
9F
330
1
100
AcDbSymbolTableRecord
100
AcDbBlockTableRecord
  2
EX_INTEGRAL
  0
BLOCK_RECORD
  5
45B
330
1
100
AcDbSymbolTableRecord
100
AcDbBlockTableRecord
  2
*D15
  0
BLOCK_RECORD
  5
468
330
1
100
AcDbSymbolTableRecord
100
AcDbBlockTableRecord
  2
*D16
  0
BLOCK_RECORD
  5
478
330
1
100
AcDbSymbolTableRecord
100
AcDbBlockTableRecord
  2
*D17
  0
BLOCK_RECORD
  5
485
330
1
100
AcDbSymbolTableRecord
100
AcDbBlockTableRecord
  2
*D18
  0
BLOCK_RECORD
  5
492
330
1
100
AcDbSymbolTableRecord
100
AcDbBlockTableRecord
  2
*D19
  0
BLOCK_RECORD
  5
49F
330
1
100
AcDbSymbolTableRecord
100
AcDbBlockTableRecord
  2
*D20
  0
BLOCK_RECORD
  5
4AC
330
1
100
AcDbSymbolTableRecord
100
AcDbBlockTableRecord
  2
*D21
  0
BLOCK_RECORD
  5
4B8
330
1
100
AcDbSymbolTableRecord
100
AcDbBlockTableRecord
  2
*D22
  0
BLOCK_RECORD
  5
4C4
330
1
100
AcDbSymbolTableRecord
100
AcDbBlockTableRecord
  2
*D23
  0
BLOCK_RECORD
  5
4D2
330
1
100
AcDbSymbolTableRecord
100
AcDbBlockTableRecord
  2
*D24
  0
BLOCK_RECORD
  5
4DE
330
1
100
AcDbSymbolTableRecord
100
AcDbBlockTableRecord
  2
*D25
  0
BLOCK_RECORD
  5
4EC
330
1
100
AcDbSymbolTableRecord
100
AcDbBlockTableRecord
  2
*D26
  0
BLOCK_RECORD
  5
4F8
330
1
100
AcDbSymbolTableRecord
100
AcDbBlockTableRecord
  2
*D27
  0
BLOCK_RECORD
  5
504
330
1
100
AcDbSymbolTableRecord
100
AcDbBlockTableRecord
  2
*D28
  0
ENDTAB
  0
ENDSEC
  0
SECTION
  2
BLOCKS
  0
BLOCK
  5
20
330
1F
100
AcDbEntity
  8
0
100
AcDbBlockBegin
  2
*MODEL_SPACE
 70
     0
 10
0.0
 20
0.0
 30
0.0
  3
*MODEL_SPACE
  1

  0
ENDBLK
  5
21
330
1F
100
AcDbEntity
  8
0
100
AcDbBlockEnd
  0
BLOCK
  5
1C
330
1B
100
AcDbEntity
 67
     1
  8
0
100
AcDbBlockBegin
  2
*PAPER_SPACE
 70
     0
 10
0.0
 20
0.0
 30
0.0
  3
*PAPER_SPACE
  1

  0
ENDBLK
  5
1D
330
1B
100
AcDbEntity
 67
     1
  8
0
100
AcDbBlockEnd
  0
BLOCK
  5
79
330
78
100
AcDbEntity
  8
0
100
AcDbBlockBegin
  2
EX_NORM
 70
     0
 10
0.0
 20
0.0
 30
0.0
  3
EX_NORM
  1

  0
LINE
  5
A2
330
78
100
AcDbEntity
  8
0
  6
CONTINUOUS
 62
     0
100
AcDbLine
 10
0.0
 20
0.0
 30
0.0
 11
-1.0
 21
0.0
 31
0.0
  0
LINE
  5
A3
330
78
100
AcDbEntity
  8
0
  6
CONTINUOUS
 62
     0
100
AcDbLine
 10
0.0
 20
0.0
 30
0.0
 11
-1.0
 21
0.166666667
 31
0.0
  0
LINE
  5
A4
330
78
100
AcDbEntity
  8
0
  6
CONTINUOUS
 62
     0
100
AcDbLine
 10
0.0
 20
0.0
 30
0.0
 11
-1.0
 21
-0.166666667
 31
0.0
  0
ENDBLK
  5
7A
330
78
100
AcDbEntity
  8
0
100
AcDbBlockEnd
  0
BLOCK
  5
7C
330
7B
100
AcDbEntity
  8
0
100
AcDbBlockBegin
  2
EX_BNORM
 70
     0
 10
0.0
 20
0.0
 30
0.0
  3
EX_BNORM
  1

  0
LINE
  5
A5
330
7B
100
AcDbEntity
  8
0
  6
CONTINUOUS
 62
     0
100
AcDbLine
 10
0.0
 20
0.0
 30
0.0
 11
-1.0
 21
0.0
 31
0.0
  0
LINE
  5
A6
330
7B
100
AcDbEntity
  8
0
  6
CONTINUOUS
 62
     0
100
AcDbLine
 10
0.0
 20
0.0
 30
0.0
 11
-1.0
 21
0.166666667
 31
0.0
  0
LINE
  5
A7
330
7B
100
AcDbEntity
  8
0
  6
CONTINUOUS
 62
     0
100
AcDbLine
 10
0.0
 20
0.0
 30
0.0
 11
-1.0
 21
-0.166666667
 31
0.0
  0
LINE
  5
A8
330
7B
100
AcDbEntity
  8
0
  6
CONTINUOUS
 62
     0
100
AcDbLine
 10
0.0
 20
0.0
 30
0.0
 11
-1.0
 21
0.083333333
 31
0.0
  0
LINE
  5
A9
330
7B
100
AcDbEntity
  8
0
  6
CONTINUOUS
 62
     0
100
AcDbLine
 10
0.0
 20
0.0
 30
0.0
 11
-1.0
 21
-0.083333333
 31
0.0
  0
LINE
  5
AA
330
7B
100
AcDbEntity
  8
0
  6
CONTINUOUS
 62
     0
100
AcDbLine
 10
-1.0
 20
0.166666667
 30
0.0
 11
-1.0
 21
-0.166666667
 31
0.0
  0
ENDBLK
  5
7D
330
7B
100
AcDbEntity
  8
0
100
AcDbBlockEnd
  0
BLOCK
  5
7F
330
7E
100
AcDbEntity
  8
0
100
AcDbBlockBegin
  2
EX_BCIR
 70
     0
 10
0.0
 20
0.0
 30
0.0
  3
EX_BCIR
  1

  0
LINE
  5
AB
330
7E
100
AcDbEntity
  8
0
  6
CONTINUOUS
 62
     0
100
AcDbLine
 10
0.0
 20
0.0
 30
0.0
 11
-1.0
 21
0.0
 31
0.0
  0
CIRCLE
  5
AC
330
7E
100
AcDbEntity
  8
0
  6
CONTINUOUS
 62
     0
100
AcDbCircle
 10
0.0
 20
0.0
 30
0.0
 40
0.5
  0
CIRCLE
  5
AD
330
7E
100
AcDbEntity
  8
0
  6
CONTINUOUS
 62
     0
100
AcDbCircle
 10
0.0
 20
0.0
 30
0.0
 40
0.25
  0
ENDBLK
  5
80
330
7E
100
AcDbEntity
  8
0
100
AcDbBlockEnd
  0
BLOCK
  5
82
330
81
100
AcDbEntity
  8
0
100
AcDbBlockBegin
  2
EX_RCIVIL
 70
     0
 10
0.0
 20
0.0
 30
0.0
  3
EX_RCIVIL
  1

  0
LINE
  5
AE
330
81
100
AcDbEntity
  8
0
  6
CONTINUOUS
 62
     0
100
AcDbLine
 10
0.0
 20
0.0
 30
0.0
 11
-1.0
 21
0.0
 31
0.0
  0
LINE
  5
AF
330
81
100
AcDbEntity
  8
0
  6
CONTINUOUS
 62
     0
100
AcDbLine
 10
-1.0
 20
-0.25
 30
0.0
 11
0.0
 21
-0.25
 31
0.0
  0
LINE
  5
B0
330
81
100
AcDbEntity
  8
0
  6
CONTINUOUS
 62
     0
100
AcDbLine
 10
-1.0
 20
-0.125
 30
0.0
 11
0.0
 21
-0.125
 31
0.0
  0
ENDBLK
  5
83
330
81
100
AcDbEntity
  8
0
100
AcDbBlockEnd
  0
BLOCK
  5
85
330
84
100
AcDbEntity
  8
0
100
AcDbBlockBegin
  2
EX_SLANT
 70
     0
 10
0.0
 20
0.0
 30
0.0
  3
EX_SLANT
  1

  0
LINE
  5
B1
330
84
100
AcDbEntity
  8
0
  6
CONTINUOUS
 62
     0
100
AcDbLine
 10
0.0
 20
0.0
 30
0.0
 11
-1.0
 21
0.0
 31
0.0
  0
LINE
  5
B2
330
84
100
AcDbEntity
  8
0
  6
CONTINUOUS
 62
     0
100
AcDbLine
 10
0.707106781
 20
0.707106781
 30
0.0
 11
-0.707106781
 21
-0.707106781
 31
0.0
  0
ENDBLK
  5
86
330
84
100
AcDbEntity
  8
0
100
AcDbBlockEnd
  0
BLOCK
  5
88
330
87
100
AcDbEntity
  8
0
100
AcDbBlockBegin
  2
EX_NONE
 70
     0
 10
0.0
 20
0.0
 30
0.0
  3
EX_NONE
  1

  0
LINE
  5
B3
330
87
100
AcDbEntity
  8
0
  6
CONTINUOUS
 62
     0
100
AcDbLine
 10
0.0
 20
0.0
 30
0.0
 11
-1.0
 21
0.0
 31
0.0
  0
ENDBLK
  5
89
330
87
100
AcDbEntity
  8
0
100
AcDbBlockEnd
  0
BLOCK
  5
8B
330
8A
100
AcDbEntity
  8
0
100
AcDbBlockBegin
  2
EX_CIVIL
 70
     0
 10
0.0
 20
0.0
 30
0.0
  3
EX_CIVIL
  1

  0
LINE
  5
B4
330
8A
100
AcDbEntity
  8
0
  6
CONTINUOUS
 62
     0
100
AcDbLine
 10
0.0
 20
0.0
 30
0.0
 11
-1.0
 21
0.0
 31
0.0
  0
LINE
  5
B5
330
8A
100
AcDbEntity
  8
0
  6
CONTINUOUS
 62
     0
100
AcDbLine
 10
-1.0
 20
0.25
 30
0.0
 11
0.0
 21
0.25
 31
0.0
  0
LINE
  5
B6
330
8A
100
AcDbEntity
  8
0
  6
CONTINUOUS
 62
     0
100
AcDbLine
 10
-1.0
 20
0.125
 30
0.0
 11
0.0
 21
0.125
 31
0.0
  0
ENDBLK
  5
8C
330
8A
100
AcDbEntity
  8
0
100
AcDbBlockEnd
  0
BLOCK
  5
8E
330
8D
100
AcDbEntity
  8
0
100
AcDbBlockBegin
  2
EX_WCIR
 70
     0
 10
0.0
 20
0.0
 30
0.0
  3
EX_WCIR
  1

  0
LINE
  5
B7
330
8D
100
AcDbEntity
  8
0
  6
CONTINUOUS
 62
     0
100
AcDbLine
 10
0.0
 20
0.0
 30
0.0
 11
-1.0
 21
0.0
 31
0.0
  0
CIRCLE
  5
B8
330
8D
100
AcDbEntity
  8
0
  6
CONTINUOUS
 62
     0
100
AcDbCircle
 10
0.0
 20
0.0
 30
0.0
 40
0.5
  0
ENDBLK
  5
8F
330
8D
100
AcDbEntity
  8
0
100
AcDbBlockEnd
  0
BLOCK
  5
91
330
90
100
AcDbEntity
  8
0
100
AcDbBlockBegin
  2
EX_WCIR2
 70
     0
 10
0.0
 20
0.0
 30
0.0
  3
EX_WCIR2
  1

  0
LINE
  5
B9
330
90
100
AcDbEntity
  8
0
  6
CONTINUOUS
 62
     0
100
AcDbLine
 10
-0.5
 20
0.0
 30
0.0
 11
-1.0
 21
0.0
 31
0.0
  0
CIRCLE
  5
BA
330
90
100
AcDbEntity
  8
0
  6
CONTINUOUS
 62
     0
100
AcDbCircle
 10
0.0
 20
0.0
 30
0.0
 40
0.5
  0
ENDBLK
  5
92
330
90
100
AcDbEntity
  8
0
100
AcDbBlockEnd
  0
BLOCK
  5
94
330
93
100
AcDbEntity
  8
0
100
AcDbBlockBegin
  2
EX_WNORM
 70
     0
 10
0.0
 20
0.0
 30
0.0
  3
EX_WNORM
  1

  0
LINE
  5
BB
330
93
100
AcDbEntity
  8
0
  6
CONTINUOUS
 62
     0
100
AcDbLine
 10
-1.0
 20
0.0
 30
0.0
 11
-1.0
 21
0.0
 31
0.0
  0
LINE
  5
BC
330
93
100
AcDbEntity
  8
0
  6
CONTINUOUS
 62
     0
100
AcDbLine
 10
0.0
 20
0.0
 30
0.0
 11
-1.0
 21
0.166666667
 31
0.0
  0
LINE
  5
BD
330
93
100
AcDbEntity
  8
0
  6
CONTINUOUS
 62
     0
100
AcDbLine
 10
0.0
 20
0.0
 30
0.0
 11
-1.0
 21
-0.166666667
 31
0.0
  0
LINE
  5
BE
330
93
100
AcDbEntity
  8
0
  6
CONTINUOUS
 62
     0
100
AcDbLine
 10
-1.0
 20
0.166666667
 30
0.0
 11
-1.0
 21
-0.166666667
 31
0.0
  0
ENDBLK
  5
95
330
93
100
AcDbEntity
  8
0
100
AcDbBlockEnd
  0
BLOCK
  5
97
330
96
100
AcDbEntity
  8
0
100
AcDbBlockBegin
  2
EX_NNORM
 70
     0
 10
0.0
 20
0.0
 30
0.0
  3
EX_NNORM
  1

  0
LINE
  5
BF
330
96
100
AcDbEntity
  8
0
  6
CONTINUOUS
 62
     0
100
AcDbLine
 10
0.0
 20
0.0
 30
0.0
 11
-1.0
 21
0.0
 31
0.0
  0
LINE
  5
C0
330
96
100
AcDbEntity
  8
0
  6
CONTINUOUS
 62
     0
100
AcDbLine
 10
0.0
 20
0.0
 30
0.0
 11
-1.0
 21
0.166666667
 31
0.0
  0
LINE
  5
C1
330
96
100
AcDbEntity
  8
0
  6
CONTINUOUS
 62
     0
100
AcDbLine
 10
0.0
 20
0.0
 30
0.0
 11
-1.0
 21
-0.166666667
 31
0.0
  0
LINE
  5
C2
330
96
100
AcDbEntity
  8
0
  6
CONTINUOUS
 62
     0
100
AcDbLine
 10
-1.0
 20
0.166666667
 30
0.0
 11
-1.0
 21
-0.166666667
 31
0.0
  0
ENDBLK
  5
98
330
96
100
AcDbEntity
  8
0
100
AcDbBlockEnd
  0
BLOCK
  5
9A
330
99
100
AcDbEntity
  8
0
100
AcDbBlockBegin
  2
EX_BBOX
 70
     0
 10
0.0
 20
0.0
 30
0.0
  3
EX_BBOX
  1

  0
LINE
  5
C3
330
99
100
AcDbEntity
  8
0
  6
CONTINUOUS
 62
     0
100
AcDbLine
 10
0.0
 20
0.0
 30
0.0
 11
-1.0
 21
0.0
 31
0.0
  0
LINE
  5
C4
330
99
100
AcDbEntity
  8
0
  6
CONTINUOUS
 62
     0
100
AcDbLine
 10
-0.5
 20
0.5
 30
0.0
 11
0.5
 21
0.5
 31
0.0
  0
LINE
  5
C5
330
99
100
AcDbEntity
  8
0
  6
CONTINUOUS
 62
     0
100
AcDbLine
 10
0.5
 20
0.5
 30
0.0
 11
0.5
 21
-0.5
 31
0.0
  0
LINE
  5
C6
330
99
100
AcDbEntity
  8
0
  6
CONTINUOUS
 62
     0
100
AcDbLine
 10
0.5
 20
-0.5
 30
0.0
 11
-0.5
 21
-0.5
 31
0.0
  0
LINE
  5
C7
330
99
100
AcDbEntity
  8
0
  6
CONTINUOUS
 62
     0
100
AcDbLine
 10
-0.5
 20
-0.5
 30
0.0
 11
-0.5
 21
0.5
 31
0.0
  0
LINE
  5
C8
330
99
100
AcDbEntity
  8
0
  6
CONTINUOUS
 62
     0
100
AcDbLine
 10
-0.25
 20
0.25
 30
0.0
 11
0.25
 21
0.25
 31
0.0
  0
LINE
  5
C9
330
99
100
AcDbEntity
  8
0
  6
CONTINUOUS
 62
     0
100
AcDbLine
 10
0.25
 20
0.25
 30
0.0
 11
0.25
 21
-0.25
 31
0.0
  0
LINE
  5
CA
330
99
100
AcDbEntity
  8
0
  6
CONTINUOUS
 62
     0
100
AcDbLine
 10
0.25
 20
-0.25
 30
0.0
 11
-0.25
 21
-0.25
 31
0.0
  0
LINE
  5
CB
330
99
100
AcDbEntity
  8
0
  6
CONTINUOUS
 62
     0
100
AcDbLine
 10
-0.25
 20
-0.25
 30
0.0
 11
-0.25
 21
0.25
 31
0.0
  0
ENDBLK
  5
9B
330
99
100
AcDbEntity
  8
0
100
AcDbBlockEnd
  0
BLOCK
  5
9D
330
9C
100
AcDbEntity
  8
0
100
AcDbBlockBegin
  2
EX_WBOX
 70
     0
 10
0.0
 20
0.0
 30
0.0
  3
EX_WBOX
  1

  0
LINE
  5
CC
330
9C
100
AcDbEntity
  8
0
  6
CONTINUOUS
 62
     0
100
AcDbLine
 10
-0.5
 20
0.0
 30
0.0
 11
-1.0
 21
0.0
 31
0.0
  0
LINE
  5
CD
330
9C
100
AcDbEntity
  8
0
  6
CONTINUOUS
 62
     0
100
AcDbLine
 10
-0.5
 20
0.5
 30
0.0
 11
0.5
 21
0.5
 31
0.0
  0
LINE
  5
CE
330
9C
100
AcDbEntity
  8
0
  6
CONTINUOUS
 62
     0
100
AcDbLine
 10
0.5
 20
0.5
 30
0.0
 11
0.5
 21
-0.5
 31
0.0
  0
LINE
  5
CF
330
9C
100
AcDbEntity
  8
0
  6
CONTINUOUS
 62
     0
100
AcDbLine
 10
0.5
 20
-0.5
 30
0.0
 11
-0.5
 21
-0.5
 31
0.0
  0
LINE
  5
D0
330
9C
100
AcDbEntity
  8
0
  6
CONTINUOUS
 62
     0
100
AcDbLine
 10
-0.5
 20
-0.5
 30
0.0
 11
-0.5
 21
0.5
 31
0.0
  0
ENDBLK
  5
9E
330
9C
100
AcDbEntity
  8
0
100
AcDbBlockEnd
  0
BLOCK
  5
A0
330
9F
100
AcDbEntity
  8
0
100
AcDbBlockBegin
  2
EX_INTEGRAL
 70
     0
 10
0.0
 20
0.0
 30
0.0
  3
EX_INTEGRAL
  1

  0
LINE
  5
D1
330
9F
100
AcDbEntity
  8
0
  6
CONTINUOUS
 62
     0
100
AcDbLine
 10
0.0
 20
0.0
 30
0.0
 11
-1.0
 21
0.0
 31
0.0
  0
ARC
  5
D2
330
9F
100
AcDbEntity
  8
0
  6
CONTINUOUS
 62
     0
100
AcDbCircle
 10
0.542115
 20
0.164992
 30
0.0
 40
0.56667
100
AcDbArc
 50
73.07249033629006
 51
196.9275130221199
  0
ARC
  5
D3
330
9F
100
AcDbEntity
  8
0
  6
CONTINUOUS
 62
     0
100
AcDbCircle
 10
-0.542115
 20
-0.164992
 30
0.0
 40
0.56667
100
AcDbArc
 50
253.0724869220464
 51
16.9275130559125
  0
ENDBLK
  5
A1
330
9F
100
AcDbEntity
  8
0
100
AcDbBlockEnd
  0
BLOCK
  5
45C
330
45B
100
AcDbEntity
  8
0
100
AcDbBlockBegin
  2
*D15
 70
     1
 10
0.0
 20
0.0
 30
0.0
  3
*D15
  1

  0
LINE
  5
45E
330
45B
100
AcDbEntity
  8
LAY-20
  6
CONTINUOUS
 62
     4
100
AcDbLine
 10
148.0583218681259
 20
253.492793604445
 30
0.0
 11
108.3814365369281
 21
252.6847742612394
 31
0.0
  0
LINE
  5
45F
330
45B
100
AcDbEntity
  8
LAY-20
  6
CONTINUOUS
 62
     4
100
AcDbLine
 10
150.8768629197658
 20
115.091490408485
 30
0.0
 11
111.1999775885682
 21
114.2834710652794
 31
0.0
  0
LINE
  5
460
330
45B
100
AcDbEntity
  8
LAY-20
  6
CONTINUOUS
 62
     4
100
AcDbLine
 10
113.0332094349208
 20
245.277952479564
 30
0.0
 11
115.546338973344
 21
121.8735397548849
 31
0.0
  0
INSERT
  5
461
330
45B
100
AcDbEntity
  8
LAY-20
 62
     4
100
AcDbBlockReference
  2
EX_BNORM
 10
112.8805036783124
 20
252.7763977152045
 30
0.0
 41
7.5
 42
7.5
 43
7.5
 50
91.16666666666055
  0
INSERT
  5
462
330
45B
100
AcDbEntity
  8
LAY-20
 62
     4
100
AcDbBlockReference
  2
EX_BNORM
 10
115.6990447299524
 20
114.3750945192445
 30
0.0
 41
7.5
 42
7.5
 43
7.5
 50
271.1666666666605
  0
MTEXT
  5
463
330
45B
100
AcDbEntity
  8
LAY-20
 62
     7
100
AcDbMText
 10
107.2912253175311
 20
183.4332207443903
 30
0.0
 40
9.3543312
 41
0.0
 71
     5
 72
     1
  1
Rｃ5（138.4）
  7
EXCADDIM1
 11
0.02036076754778647
 21
-0.9997926980853906
 31
0.0
  0
POINT
  5
464
330
45B
100
AcDbEntity
  8
DEFPOINTS
 62
     0
100
AcDbPoint
 10
152.5573890095102
 20
253.5844170584101
 30
0.0
  0
POINT
  5
465
330
45B
100
AcDbEntity
  8
DEFPOINTS
 62
     0
100
AcDbPoint
 10
155.37593006115
 20
115.1831138624501
 30
0.0
  0
POINT
  5
466
330
45B
100
AcDbEntity
  8
DEFPOINTS
 62
     0
100
AcDbPoint
 10
115.6990447299524
 20
114.3750945192445
 30
0.0
  0
ENDBLK
  5
45D
330
45B
100
AcDbEntity
  8
0
100
AcDbBlockEnd
  0
BLOCK
  5
469
330
468
100
AcDbEntity
  8
0
100
AcDbBlockBegin
  2
*D16
 70
     1
 10
0.0
 20
0.0
 30
0.0
  3
*D16
  1

  0
LINE
  5
46B
330
468
100
AcDbEntity
  8
LAY-20
  6
CONTINUOUS
 62
     4
100
AcDbLine
 10
129.44385353083
 20
185.30000000008
 30
0.0
 11
129.3134042013726
 21
185.30000000008
 31
0.0
  0
LINE
  5
46C
330
468
100
AcDbEntity
  8
LAY-20
  6
CONTINUOUS
 62
     4
100
AcDbLine
 10
129.4717384322358
 20
183.8849266555049
 30
0.0
 11
129.3278415207284
 21
183.8819961964491
 31
0.0
  0
ARC
  5
46D
330
468
100
AcDbEntity
  8
LAY-20
  6
CONTINUOUS
 62
     4
100
AcDbCircle
 10
198.95733094921
 20
185.30000000008
 30
0.0
 40
65.14392674783743
100
AcDbArc
 50
166.7998123694012
 51
173.3999061847006
  0
ARC
  5
46E
330
468
100
AcDbEntity
  8
LAY-20
  6
CONTINUOUS
 62
     4
100
AcDbCircle
 10
198.95733094921
 20
185.30000000008
 30
0.0
 40
65.14392674783743
100
AcDbArc
 50
187.7667604819627
 51
194.3668542972621
  0
ARC
  5
46F
330
468
100
AcDbEntity
  8
LAY-20
  6
CONTINUOUS
 62
     4
100
AcDbCircle
 10
198.95733094921
 20
185.30000000008
 30
0.0
 40
65.14392674783743
100
AcDbArc
 50
180.0
 51
181.1666666666633
  0
INSERT
  5
470
330
468
100
AcDbEntity
  8
LAY-20
 62
     4
100
AcDbBlockReference
  2
EX_BNORM
 10
133.8134042013726
 20
185.30000000008
 30
0.0
 41
7.5
 42
7.5
 43
7.5
 50
266.6999530923503
  0
INSERT
  5
471
330
468
100
AcDbEntity
  8
LAY-20
 62
     4
100
AcDbBlockReference
  2
EX_BNORM
 10
133.8269086621127
 20
183.9736196504141
 30
0.0
 41
7.5
 42
7.5
 43
7.5
 50
94.466713574313
  0
MTEXT
  5
472
330
468
100
AcDbEntity
  8
LAY-20
 62
     7
100
AcDbMText
 10
131.8081711562936
 20
213.0151661090996
 30
0.0
 40
9.3543312
 41
0.0
 71
     5
 72
     1
  1
1%%d10'
  7
EXCADDIM1
 11
0.3815207595429814
 21
0.9243602706941415
 31
0.0
  0
POINT
  5
473
330
468
100
AcDbEntity
  8
DEFPOINTS
 62
     0
100
AcDbPoint
 10
198.95733094921
 20
185.30000000008
 30
0.0
  0
POINT
  5
474
330
468
100
AcDbEntity
  8
DEFPOINTS
 62
     0
100
AcDbPoint
 10
133.94385353083
 20
185.30000000008
 30
0.0
  0
POINT
  5
475
330
468
100
AcDbEntity
  8
DEFPOINTS
 62
     0
100
AcDbPoint
 10
133.9708055736201
 20
183.9765501094699
 30
0.0
  0
POINT
  5
476
330
468
100
AcDbEntity
  8
DEFPOINTS
 62
     0
100
AcDbPoint
 10
133.8194062991352
 20
184.4157124853084
 30
0.0
  0
ENDBLK
  5
46A
330
468
100
AcDbEntity
  8
0
100
AcDbBlockEnd
  0
BLOCK
  5
479
330
478
100
AcDbEntity
  8
0
100
AcDbBlockBegin
  2
*D17
 70
     1
 10
0.0
 20
0.0
 30
0.0
  3
*D17
  1

  0
LINE
  5
47B
330
478
100
AcDbEntity
  8
LAY-20
  6
CONTINUOUS
 62
     4
100
AcDbLine
 10
208.9573309493101
 20
326.80000000008
 30
0.0
 11
208.9573309493101
 21
398.80000000008
 31
0.0
  0
LINE
  5
47C
330
478
100
AcDbEntity
  8
LAY-20
  6
CONTINUOUS
 62
     4
100
AcDbLine
 10
378.9573309492101
 20
141.80000000005
 30
0.0
 11
378.9573309492101
 21
398.80000000008
 31
0.0
  0
LINE
  5
47D
330
478
100
AcDbEntity
  8
LAY-20
  6
CONTINUOUS
 62
     4
100
AcDbLine
 10
216.4573309493101
 20
394.30000000008
 30
0.0
 11
371.4573309492101
 21
394.30000000008
 31
0.0
  0
INSERT
  5
47E
330
478
100
AcDbEntity
  8
LAY-20
 62
     4
100
AcDbBlockReference
  2
EX_BNORM
 10
208.9573309493101
 20
394.30000000008
 30
0.0
 41
7.5
 42
7.5
 43
7.5
 50
180.0
  0
INSERT
  5
47F
330
478
100
AcDbEntity
  8
LAY-20
 62
     4
100
AcDbBlockReference
  2
EX_BNORM
 10
378.9573309492101
 20
394.30000000008
 30
0.0
 41
7.5
 42
7.5
 43
7.5
  0
MTEXT
  5
480
330
478
100
AcDbEntity
  8
LAY-20
 62
     7
100
AcDbMText
 10
293.9573309492601
 20
401.80000000008
 30
0.0
 40
9.3543312
 41
0.0
 71
     5
 72
     1
  1
170
  7
EXCADDIM1
  0
POINT
  5
481
330
478
100
AcDbEntity
  8
DEFPOINTS
 62
     0
100
AcDbPoint
 10
208.9573309493101
 20
322.30000000008
 30
0.0
  0
POINT
  5
482
330
478
100
AcDbEntity
  8
DEFPOINTS
 62
     0
100
AcDbPoint
 10
378.9573309492101
 20
137.30000000005
 30
0.0
  0
POINT
  5
483
330
478
100
AcDbEntity
  8
DEFPOINTS
 62
     0
100
AcDbPoint
 10
378.9573309492101
 20
394.30000000008
 30
0.0
  0
ENDBLK
  5
47A
330
478
100
AcDbEntity
  8
0
100
AcDbBlockEnd
  0
BLOCK
  5
486
330
485
100
AcDbEntity
  8
0
100
AcDbBlockBegin
  2
*D18
 70
     1
 10
0.0
 20
0.0
 30
0.0
  3
*D18
  1

  0
LINE
  5
488
330
485
100
AcDbEntity
  8
LAY-20
  6
CONTINUOUS
 62
     4
100
AcDbLine
 10
515.7999999999993
 20
311.80000000008
 30
0.0
 11
515.7999999999993
 21
377.80000000008
 31
0.0
  0
LINE
  5
489
330
485
100
AcDbEntity
  8
LAY-20
  6
CONTINUOUS
 62
     4
100
AcDbLine
 10
815.8000000000495
 20
311.80000000008
 30
0.0
 11
815.8000000000495
 21
377.80000000008
 31
0.0
  0
LINE
  5
48A
330
485
100
AcDbEntity
  8
LAY-20
  6
CONTINUOUS
 62
     4
100
AcDbLine
 10
523.2999999999993
 20
373.30000000008
 30
0.0
 11
808.3000000000495
 21
373.30000000008
 31
0.0
  0
INSERT
  5
48B
330
485
100
AcDbEntity
  8
LAY-20
 62
     4
100
AcDbBlockReference
  2
EX_BNORM
 10
515.7999999999993
 20
373.30000000008
 30
0.0
 41
7.5
 42
7.5
 43
7.5
 50
180.0
  0
INSERT
  5
48C
330
485
100
AcDbEntity
  8
LAY-20
 62
     4
100
AcDbBlockReference
  2
EX_BNORM
 10
815.8000000000495
 20
373.30000000008
 30
0.0
 41
7.5
 42
7.5
 43
7.5
  0
MTEXT
  5
48D
330
485
100
AcDbEntity
  8
LAY-20
 62
     7
100
AcDbMText
 10
665.8000000000244
 20
380.80000000008
 30
0.0
 40
9.3543312
 41
0.0
 71
     5
 72
     1
  1
300
  7
EXCADDIM1
  0
POINT
  5
48E
330
485
100
AcDbEntity
  8
DEFPOINTS
 62
     0
100
AcDbPoint
 10
515.7999999999993
 20
307.30000000008
 30
0.0
  0
POINT
  5
48F
330
485
100
AcDbEntity
  8
DEFPOINTS
 62
     0
100
AcDbPoint
 10
815.8000000000495
 20
307.30000000008
 30
0.0
  0
POINT
  5
490
330
485
100
AcDbEntity
  8
DEFPOINTS
 62
     0
100
AcDbPoint
 10
815.8000000000495
 20
373.30000000008
 30
0.0
  0
ENDBLK
  5
487
330
485
100
AcDbEntity
  8
0
100
AcDbBlockEnd
  0
BLOCK
  5
493
330
492
100
AcDbEntity
  8
0
100
AcDbBlockBegin
  2
*D19
 70
     1
 10
0.0
 20
0.0
 30
0.0
  3
*D19
  1

  0
LINE
  5
495
330
492
100
AcDbEntity
  8
LAY-20
  6
CONTINUOUS
 62
     4
100
AcDbLine
 10
567.8000000001496
 20
271.8000000001801
 30
0.0
 11
567.8000000001496
 21
356.80000000008
 31
0.0
  0
LINE
  5
496
330
492
100
AcDbEntity
  8
LAY-20
  6
CONTINUOUS
 62
     4
100
AcDbLine
 10
763.7999999998494
 20
271.8000000001801
 30
0.0
 11
763.7999999998494
 21
356.80000000008
 31
0.0
  0
LINE
  5
497
330
492
100
AcDbEntity
  8
LAY-20
  6
CONTINUOUS
 62
     4
100
AcDbLine
 10
575.3000000001496
 20
352.30000000008
 30
0.0
 11
756.2999999998494
 21
352.30000000008
 31
0.0
  0
INSERT
  5
498
330
492
100
AcDbEntity
  8
LAY-20
 62
     4
100
AcDbBlockReference
  2
EX_BNORM
 10
567.8000000001496
 20
352.30000000008
 30
0.0
 41
7.5
 42
7.5
 43
7.5
 50
180.0
  0
INSERT
  5
499
330
492
100
AcDbEntity
  8
LAY-20
 62
     4
100
AcDbBlockReference
  2
EX_BNORM
 10
763.7999999998494
 20
352.30000000008
 30
0.0
 41
7.5
 42
7.5
 43
7.5
  0
MTEXT
  5
49A
330
492
100
AcDbEntity
  8
LAY-20
 62
     7
100
AcDbMText
 10
665.7999999999995
 20
359.80000000008
 30
0.0
 40
9.3543312
 41
0.0
 71
     5
 72
     1
  1
196
  7
EXCADDIM1
  0
POINT
  5
49B
330
492
100
AcDbEntity
  8
DEFPOINTS
 62
     0
100
AcDbPoint
 10
567.8000000001496
 20
267.3000000001801
 30
0.0
  0
POINT
  5
49C
330
492
100
AcDbEntity
  8
DEFPOINTS
 62
     0
100
AcDbPoint
 10
763.7999999998494
 20
267.3000000001801
 30
0.0
  0
POINT
  5
49D
330
492
100
AcDbEntity
  8
DEFPOINTS
 62
     0
100
AcDbPoint
 10
763.7999999998494
 20
352.30000000008
 30
0.0
  0
ENDBLK
  5
494
330
492
100
AcDbEntity
  8
0
100
AcDbBlockEnd
  0
BLOCK
  5
4A0
330
49F
100
AcDbEntity
  8
0
100
AcDbBlockBegin
  2
*D20
 70
     1
 10
0.0
 20
0.0
 30
0.0
  3
*D20
  1

  0
LINE
  5
4A2
330
49F
100
AcDbEntity
  8
LAY-20
  6
CONTINUOUS
 62
     4
100
AcDbLine
 10
213.4573309493101
 20
322.30000000008
 30
0.0
 11
455.45733094921
 21
322.30000000008
 31
0.0
  0
LINE
  5
4A3
330
49F
100
AcDbEntity
  8
LAY-20
  6
CONTINUOUS
 62
     4
100
AcDbLine
 10
383.4573309492101
 20
137.30000000005
 30
0.0
 11
455.45733094921
 21
137.30000000005
 31
0.0
  0
LINE
  5
4A4
330
49F
100
AcDbEntity
  8
LAY-20
  6
CONTINUOUS
 62
     4
100
AcDbLine
 10
450.95733094921
 20
314.80000000008
 30
0.0
 11
450.95733094921
 21
144.80000000005
 31
0.0
  0
INSERT
  5
4A5
330
49F
100
AcDbEntity
  8
LAY-20
 62
     4
100
AcDbBlockReference
  2
EX_BNORM
 10
450.95733094921
 20
322.30000000008
 30
0.0
 41
7.5
 42
7.5
 43
7.5
 50
90.0
  0
INSERT
  5
4A6
330
49F
100
AcDbEntity
  8
LAY-20
 62
     4
100
AcDbBlockReference
  2
EX_BNORM
 10
450.95733094921
 20
137.30000000005
 30
0.0
 41
7.5
 42
7.5
 43
7.5
 50
270.0
  0
MTEXT
  5
4A7
330
49F
100
AcDbEntity
  8
LAY-20
 62
     7
100
AcDbMText
 10
443.45733094921
 20
229.8000000000648
 30
0.0
 40
9.3543312
 41
0.0
 71
     5
 72
     1
  1
185
  7
EXCADDIM1
 11
0.0
 21
1.0
 31
0.0
  0
POINT
  5
4A8
330
49F
100
AcDbEntity
  8
DEFPOINTS
 62
     0
100
AcDbPoint
 10
208.9573309493101
 20
322.30000000008
 30
0.0
  0
POINT
  5
4A9
330
49F
100
AcDbEntity
  8
DEFPOINTS
 62
     0
100
AcDbPoint
 10
378.9573309492101
 20
137.30000000005
 30
0.0
  0
POINT
  5
4AA
330
49F
100
AcDbEntity
  8
DEFPOINTS
 62
     0
100
AcDbPoint
 10
450.95733094921
 20
137.30000000005
 30
0.0
  0
ENDBLK
  5
4A1
330
49F
100
AcDbEntity
  8
0
100
AcDbBlockEnd
  0
BLOCK
  5
4AD
330
4AC
100
AcDbEntity
  8
0
100
AcDbBlockBegin
  2
*D21
 70
     1
 10
0.0
 20
0.0
 30
0.0
  3
*D21
  1

  0
LINE
  5
4AF
330
4AC
100
AcDbEntity
  8
LAY-20
  6
CONTINUOUS
 62
     4
100
AcDbLine
 10
203.45733094931
 20
101.3000000000801
 30
0.0
 11
455.45733094921
 21
101.3000000000801
 31
0.0
  0
LINE
  5
4B0
330
4AC
100
AcDbEntity
  8
LAY-20
  6
CONTINUOUS
 62
     4
100
AcDbLine
 10
450.95733094921
 20
108.8000000000801
 30
0.0
 11
450.95733094921
 21
129.80000000005
 31
0.0
  0
INSERT
  5
4B1
330
4AC
100
AcDbEntity
  8
LAY-20
 62
     4
100
AcDbBlockReference
  2
EX_BNORM
 10
450.95733094921
 20
101.3000000000801
 30
0.0
 41
7.5
 42
7.5
 43
7.5
 50
270.0
  0
INSERT
  5
4B2
330
4AC
100
AcDbEntity
  8
LAY-20
 62
     4
100
AcDbBlockReference
  2
EX_BNORM
 10
450.95733094921
 20
137.30000000005
 30
0.0
 41
7.5
 42
7.5
 43
7.5
 50
90.0
  0
MTEXT
  5
4B3
330
4AC
100
AcDbEntity
  8
LAY-20
 62
     7
100
AcDbMText
 10
443.45733094921
 20
119.3000000000648
 30
0.0
 40
9.3543312
 41
0.0
 71
     5
 72
     1
  1
36
  7
EXCADDIM1
 11
0.0
 21
1.0
 31
0.0
  0
POINT
  5
4B4
330
4AC
100
AcDbEntity
  8
DEFPOINTS
 62
     0
100
AcDbPoint
 10
198.95733094931
 20
101.3000000000801
 30
0.0
  0
POINT
  5
4B5
330
4AC
100
AcDbEntity
  8
DEFPOINTS
 62
     0
100
AcDbPoint
 10
426.95733094921
 20
137.30000000005
 30
0.0
  0
POINT
  5
4B6
330
4AC
100
AcDbEntity
  8
DEFPOINTS
 62
     0
100
AcDbPoint
 10
450.95733094921
 20
137.30000000005
 30
0.0
  0
ENDBLK
  5
4AE
330
4AC
100
AcDbEntity
  8
0
100
AcDbBlockEnd
  0
BLOCK
  5
4B9
330
4B8
100
AcDbEntity
  8
0
100
AcDbBlockBegin
  2
*D22
 70
     1
 10
0.0
 20
0.0
 30
0.0
  3
*D22
  1

  0
LINE
  5
4BB
330
4B8
100
AcDbEntity
  8
LAY-20
  6
CONTINUOUS
 62
     4
100
AcDbLine
 10
226.95733094924
 20
292.80000000012
 30
0.0
 11
226.95733094924
 21
356.80000000008
 31
0.0
  0
LINE
  5
4BC
330
4B8
100
AcDbEntity
  8
LAY-20
  6
CONTINUOUS
 62
     4
100
AcDbLine
 10
219.45733094924
 20
352.30000000008
 30
0.0
 11
216.4573309493101
 21
352.30000000008
 31
0.0
  0
INSERT
  5
4BD
330
4B8
100
AcDbEntity
  8
LAY-20
 62
     4
100
AcDbBlockReference
  2
EX_BNORM
 10
226.95733094924
 20
352.30000000008
 30
0.0
 41
7.5
 42
7.5
 43
7.5
  0
INSERT
  5
4BE
330
4B8
100
AcDbEntity
  8
LAY-20
 62
     4
100
AcDbBlockReference
  2
EX_BNORM
 10
208.9573309493101
 20
352.30000000008
 30
0.0
 41
7.5
 42
7.5
 43
7.5
 50
180.0
  0
MTEXT
  5
4BF
330
4B8
100
AcDbEntity
  8
LAY-20
 62
     7
100
AcDbMText
 10
217.9573309492751
 20
359.8000000000798
 30
0.0
 40
9.3543312
 41
0.0
 71
     5
 72
     1
  1
18
  7
EXCADDIM1
  0
POINT
  5
4C0
330
4B8
100
AcDbEntity
  8
DEFPOINTS
 62
     0
100
AcDbPoint
 10
226.95733094924
 20
288.30000000012
 30
0.0
  0
POINT
  5
4C1
330
4B8
100
AcDbEntity
  8
DEFPOINTS
 62
     0
100
AcDbPoint
 10
208.9573309493101
 20
342.30000000008
 30
0.0
  0
POINT
  5
4C2
330
4B8
100
AcDbEntity
  8
DEFPOINTS
 62
     0
100
AcDbPoint
 10
208.9573309493101
 20
352.30000000008
 30
0.0
  0
ENDBLK
  5
4BA
330
4B8
100
AcDbEntity
  8
0
100
AcDbBlockEnd
  0
BLOCK
  5
4C5
330
4C4
100
AcDbEntity
  8
0
100
AcDbBlockBegin
  2
*D23
 70
     1
 10
0.0
 20
0.0
 30
0.0
  3
*D23
  1

  0
LINE
  5
4C7
330
4C4
100
AcDbEntity
  8
LAY-20
  6
CONTINUOUS
 62
     4
100
AcDbLine
 10
200.95733094926
 20
325.80000000008
 30
0.0
 11
200.95733094926
 21
356.8000000000799
 31
0.0
  0
LINE
  5
4C8
330
4C4
100
AcDbEntity
  8
LAY-20
  6
CONTINUOUS
 62
     4
100
AcDbLine
 10
200.95733094926
 20
352.3000000000799
 30
0.0
 11
208.9573309493101
 21
352.3000000000799
 31
0.0
  0
LINE
  5
4C9
330
4C4
100
AcDbEntity
  8
LAY-20
  6
CONTINUOUS
 62
     4
100
AcDbLine
 10
193.45733094926
 20
352.3000000000799
 30
0.0
 11
185.95733094926
 21
352.3000000000799
 31
0.0
  0
LINE
  5
4CA
330
4C4
100
AcDbEntity
  8
LAY-20
  6
CONTINUOUS
 62
     4
100
AcDbLine
 10
216.4573309493101
 20
352.3000000000799
 30
0.0
 11
223.9573309493101
 21
352.3000000000799
 31
0.0
  0
INSERT
  5
4CB
330
4C4
100
AcDbEntity
  8
LAY-20
 62
     4
100
AcDbBlockReference
  2
EX_BNORM
 10
200.95733094926
 20
352.3000000000799
 30
0.0
 41
7.5
 42
7.5
 43
7.5
  0
INSERT
  5
4CC
330
4C4
100
AcDbEntity
  8
LAY-20
 62
     4
100
AcDbBlockReference
  2
EX_BNORM
 10
208.9573309493101
 20
352.3000000000799
 30
0.0
 41
7.5
 42
7.5
 43
7.5
 50
180.0
  0
MTEXT
  5
4CD
330
4C4
100
AcDbEntity
  8
LAY-20
 62
     7
100
AcDbMText
 10
187.4573309492447
 20
359.8000000000877
 30
0.0
 40
9.3543312
 41
0.0
 71
     5
 72
     1
  1
8
  7
EXCADDIM1
  0
POINT
  5
4CE
330
4C4
100
AcDbEntity
  8
DEFPOINTS
 62
     0
100
AcDbPoint
 10
200.95733094926
 20
321.30000000008
 30
0.0
  0
POINT
  5
4CF
330
4C4
100
AcDbEntity
  8
DEFPOINTS
 62
     0
100
AcDbPoint
 10
208.9573309493101
 20
342.30000000008
 30
0.0
  0
POINT
  5
4D0
330
4C4
100
AcDbEntity
  8
DEFPOINTS
 62
     0
100
AcDbPoint
 10
208.9573309493101
 20
352.3000000000799
 30
0.0
  0
ENDBLK
  5
4C6
330
4C4
100
AcDbEntity
  8
0
100
AcDbBlockEnd
  0
BLOCK
  5
4D3
330
4D2
100
AcDbEntity
  8
0
100
AcDbBlockBegin
  2
*D24
 70
     1
 10
0.0
 20
0.0
 30
0.0
  3
*D24
  1

  0
LINE
  5
4D5
330
4D2
100
AcDbEntity
  8
LAY-20
  6
CONTINUOUS
 62
     4
100
AcDbLine
 10
364.4573309492699
 20
155.30000000007
 30
0.0
 11
434.45733094921
 21
155.30000000007
 31
0.0
  0
LINE
  5
4D6
330
4D2
100
AcDbEntity
  8
LAY-20
  6
CONTINUOUS
 62
     4
100
AcDbLine
 10
429.95733094921
 20
147.80000000007
 30
0.0
 11
429.95733094921
 21
144.80000000005
 31
0.0
  0
INSERT
  5
4D7
330
4D2
100
AcDbEntity
  8
LAY-20
 62
     4
100
AcDbBlockReference
  2
EX_BNORM
 10
429.95733094921
 20
155.30000000007
 30
0.0
 41
7.5
 42
7.5
 43
7.5
 50
90.0
  0
INSERT
  5
4D8
330
4D2
100
AcDbEntity
  8
LAY-20
 62
     4
100
AcDbBlockReference
  2
EX_BNORM
 10
429.95733094921
 20
137.30000000005
 30
0.0
 41
7.5
 42
7.5
 43
7.5
 50
270.0
  0
MTEXT
  5
4D9
330
4D2
100
AcDbEntity
  8
LAY-20
 62
     7
100
AcDbMText
 10
422.45733094921
 20
146.3000000000599
 30
0.0
 40
9.3543312
 41
0.0
 71
     5
 72
     1
  1
18
  7
EXCADDIM1
 11
0.0
 21
1.0
 31
0.0
  0
POINT
  5
4DA
330
4D2
100
AcDbEntity
  8
DEFPOINTS
 62
     0
100
AcDbPoint
 10
359.9573309492699
 20
155.30000000007
 30
0.0
  0
POINT
  5
4DB
330
4D2
100
AcDbEntity
  8
DEFPOINTS
 62
     0
100
AcDbPoint
 10
412.9573309492101
 20
137.30000000005
 30
0.0
  0
POINT
  5
4DC
330
4D2
100
AcDbEntity
  8
DEFPOINTS
 62
     0
100
AcDbPoint
 10
429.95733094921
 20
137.30000000005
 30
0.0
  0
ENDBLK
  5
4D4
330
4D2
100
AcDbEntity
  8
0
100
AcDbBlockEnd
  0
BLOCK
  5
4DF
330
4DE
100
AcDbEntity
  8
0
100
AcDbBlockBegin
  2
*D25
 70
     1
 10
0.0
 20
0.0
 30
0.0
  3
*D25
  1

  0
LINE
  5
4E1
330
4DE
100
AcDbEntity
  8
LAY-20
  6
CONTINUOUS
 62
     4
100
AcDbLine
 10
382.4573309492098
 20
129.30000000005
 30
0.0
 11
434.45733094921
 21
129.30000000005
 31
0.0
  0
LINE
  5
4E2
330
4DE
100
AcDbEntity
  8
LAY-20
  6
CONTINUOUS
 62
     4
100
AcDbLine
 10
429.95733094921
 20
129.30000000005
 30
0.0
 11
429.95733094921
 21
137.30000000005
 31
0.0
  0
LINE
  5
4E3
330
4DE
100
AcDbEntity
  8
LAY-20
  6
CONTINUOUS
 62
     4
100
AcDbLine
 10
429.95733094921
 20
121.80000000005
 30
0.0
 11
429.95733094921
 21
114.30000000005
 31
0.0
  0
LINE
  5
4E4
330
4DE
100
AcDbEntity
  8
LAY-20
  6
CONTINUOUS
 62
     4
100
AcDbLine
 10
429.95733094921
 20
144.80000000005
 30
0.0
 11
429.95733094921
 21
152.30000000005
 31
0.0
  0
INSERT
  5
4E5
330
4DE
100
AcDbEntity
  8
LAY-20
 62
     4
100
AcDbBlockReference
  2
EX_BNORM
 10
429.95733094921
 20
129.30000000005
 30
0.0
 41
7.5
 42
7.5
 43
7.5
 50
90.0
  0
INSERT
  5
4E6
330
4DE
100
AcDbEntity
  8
LAY-20
 62
     4
100
AcDbBlockReference
  2
EX_BNORM
 10
429.95733094921
 20
137.30000000005
 30
0.0
 41
7.5
 42
7.5
 43
7.5
 50
270.0
  0
MTEXT
  5
4E7
330
4DE
100
AcDbEntity
  8
LAY-20
 62
     7
100
AcDbMText
 10
422.45733094921
 20
115.8000000000496
 30
0.0
 40
9.3543312
 41
0.0
 71
     5
 72
     1
  1
8
  7
EXCADDIM1
 11
0.0
 21
1.0
 31
0.0
  0
POINT
  5
4E8
330
4DE
100
AcDbEntity
  8
DEFPOINTS
 62
     0
100
AcDbPoint
 10
377.9573309492098
 20
129.30000000005
 30
0.0
  0
POINT
  5
4E9
330
4DE
100
AcDbEntity
  8
DEFPOINTS
 62
     0
100
AcDbPoint
 10
412.9573309492101
 20
137.30000000005
 30
0.0
  0
POINT
  5
4EA
330
4DE
100
AcDbEntity
  8
DEFPOINTS
 62
     0
100
AcDbPoint
 10
429.95733094921
 20
137.30000000005
 30
0.0
  0
ENDBLK
  5
4E0
330
4DE
100
AcDbEntity
  8
0
100
AcDbBlockEnd
  0
BLOCK
  5
4ED
330
4EC
100
AcDbEntity
  8
0
100
AcDbBlockBegin
  2
*D26
 70
     1
 10
0.0
 20
0.0
 30
0.0
  3
*D26
  1

  0
LINE
  5
4EF
330
4EC
100
AcDbEntity
  8
LAY-20
  6
CONTINUOUS
 62
     4
100
AcDbLine
 10
203.45733094921
 20
185.30000000008
 30
0.0
 11
413.45733094921
 21
185.30000000008
 31
0.0
  0
LINE
  5
4F0
330
4EC
100
AcDbEntity
  8
LAY-20
  6
CONTINUOUS
 62
     4
100
AcDbLine
 10
408.95733094921
 20
177.80000000008
 30
0.0
 11
408.95733094921
 21
144.80000000005
 31
0.0
  0
INSERT
  5
4F1
330
4EC
100
AcDbEntity
  8
LAY-20
 62
     4
100
AcDbBlockReference
  2
EX_BNORM
 10
408.95733094921
 20
185.30000000008
 30
0.0
 41
7.5
 42
7.5
 43
7.5
 50
90.0
  0
INSERT
  5
4F2
330
4EC
100
AcDbEntity
  8
LAY-20
 62
     4
100
AcDbBlockReference
  2
EX_BNORM
 10
408.95733094921
 20
137.30000000005
 30
0.0
 41
7.5
 42
7.5
 43
7.5
 50
270.0
  0
MTEXT
  5
4F3
330
4EC
100
AcDbEntity
  8
LAY-20
 62
     7
100
AcDbMText
 10
401.45733094921
 20
163.7000000000651
 30
0.0
 40
9.3543312
 41
0.0
 71
     5
 72
     1
  1
48
  7
EXCADDIM1
 11
0.0
 21
1.0
 31
0.0
  0
POINT
  5
4F4
330
4EC
100
AcDbEntity
  8
DEFPOINTS
 62
     0
100
AcDbPoint
 10
198.95733094921
 20
185.30000000008
 30
0.0
  0
POINT
  5
4F5
330
4EC
100
AcDbEntity
  8
DEFPOINTS
 62
     0
100
AcDbPoint
 10
398.9573309492098
 20
137.30000000005
 30
0.0
  0
POINT
  5
4F6
330
4EC
100
AcDbEntity
  8
DEFPOINTS
 62
     0
100
AcDbPoint
 10
408.95733094921
 20
137.30000000005
 30
0.0
  0
ENDBLK
  5
4EE
330
4EC
100
AcDbEntity
  8
0
100
AcDbBlockEnd
  0
BLOCK
  5
4F9
330
4F8
100
AcDbEntity
  8
0
100
AcDbBlockBegin
  2
*D27
 70
     1
 10
0.0
 20
0.0
 30
0.0
  3
*D27
  1

  0
LINE
  5
4FB
330
4F8
100
AcDbEntity
  8
LAY-20
  6
CONTINUOUS
 62
     4
100
AcDbLine
 10
143.9573309493101
 20
271.8000000001
 30
0.0
 11
143.9573309493101
 21
398.80000000008
 31
0.0
  0
LINE
  5
4FC
330
4F8
100
AcDbEntity
  8
LAY-20
  6
CONTINUOUS
 62
     4
100
AcDbLine
 10
152.9573309493101
 20
394.30000000008
 30
0.0
 11
199.9573309493101
 21
394.30000000008
 31
0.0
  0
INSERT
  5
4FD
330
4F8
100
AcDbEntity
  8
LAY-20
 62
     4
100
AcDbBlockReference
  2
EX_BNORM
 10
143.9573309493101
 20
394.30000000008
 30
0.0
 41
9.0
 42
9.0
 43
9.0
 50
180.0
  0
INSERT
  5
4FE
330
4F8
100
AcDbEntity
  8
LAY-20
 62
     4
100
AcDbBlockReference
  2
EX_BNORM
 10
208.9573309493101
 20
394.30000000008
 30
0.0
 41
9.0
 42
9.0
 43
9.0
  0
MTEXT
  5
4FF
330
4F8
100
AcDbEntity
  8
LAY-20
 62
     7
100
AcDbMText
 10
176.4573309493101
 20
401.80000000008
 30
0.0
 40
9.3543312
 41
0.0
 71
     5
 72
     1
  1
65以上
  7
EXCADDIM1
  0
POINT
  5
500
330
4F8
100
AcDbEntity
  8
DEFPOINTS
 62
     0
100
AcDbPoint
 10
143.9573309493101
 20
267.3000000001
 30
0.0
  0
POINT
  5
501
330
4F8
100
AcDbEntity
  8
DEFPOINTS
 62
     0
100
AcDbPoint
 10
208.9573309493101
 20
370.30000000008
 30
0.0
  0
POINT
  5
502
330
4F8
100
AcDbEntity
  8
DEFPOINTS
 62
     0
100
AcDbPoint
 10
208.9573309493101
 20
394.30000000008
 30
0.0
  0
ENDBLK
  5
4FA
330
4F8
100
AcDbEntity
  8
0
100
AcDbBlockEnd
  0
BLOCK
  5
505
330
504
100
AcDbEntity
  8
0
100
AcDbBlockBegin
  2
*D28
 70
     1
 10
0.0
 20
0.0
 30
0.0
  3
*D28
  1

  0
LINE
  5
507
330
504
100
AcDbEntity
  8
LAY-20
  6
CONTINUOUS
 62
     4
100
AcDbLine
 10
193.95733094921
 20
273.80000000008
 30
0.0
 11
193.95733094921
 21
377.8000000000799
 31
0.0
  0
LINE
  5
508
330
504
100
AcDbEntity
  8
LAY-20
  6
CONTINUOUS
 62
     4
100
AcDbLine
 10
193.95733094921
 20
373.3000000000799
 30
0.0
 11
208.9573309493101
 21
373.3000000000799
 31
0.0
  0
LINE
  5
509
330
504
100
AcDbEntity
  8
LAY-20
  6
CONTINUOUS
 62
     4
100
AcDbLine
 10
184.95733094921
 20
373.3000000000799
 30
0.0
 11
175.95733094921
 21
373.3000000000799
 31
0.0
  0
LINE
  5
50A
330
504
100
AcDbEntity
  8
LAY-20
  6
CONTINUOUS
 62
     4
100
AcDbLine
 10
217.9573309493101
 20
373.3000000000799
 30
0.0
 11
226.9573309493101
 21
373.3000000000799
 31
0.0
  0
INSERT
  5
50B
330
504
100
AcDbEntity
  8
LAY-20
 62
     4
100
AcDbBlockReference
  2
EX_BNORM
 10
193.95733094921
 20
373.3000000000799
 30
0.0
 41
9.0
 42
9.0
 43
9.0
  0
INSERT
  5
50C
330
504
100
AcDbEntity
  8
LAY-20
 62
     4
100
AcDbBlockReference
  2
EX_BNORM
 10
208.9573309493101
 20
373.3000000000799
 30
0.0
 41
9.0
 42
9.0
 43
9.0
 50
180.0
  0
MTEXT
  5
50D
330
504
100
AcDbEntity
  8
LAY-20
 62
     7
100
AcDbMText
 10
228.4573309493101
 20
380.8000000000799
 30
0.0
 40
9.3543312
 41
0.0
 71
     5
 72
     1
  1
15
  7
EXCADDIM1
  0
POINT
  5
50E
330
504
100
AcDbEntity
  8
DEFPOINTS
 62
     0
100
AcDbPoint
 10
193.95733094921
 20
269.30000000008
 30
0.0
  0
POINT
  5
50F
330
504
100
AcDbEntity
  8
DEFPOINTS
 62
     0
100
AcDbPoint
 10
208.9573309493101
 20
356.30000000008
 30
0.0
  0
POINT
  5
510
330
504
100
AcDbEntity
  8
DEFPOINTS
 62
     0
100
AcDbPoint
 10
208.9573309493101
 20
373.3000000000799
 30
0.0
  0
ENDBLK
  5
506
330
504
100
AcDbEntity
  8
0
100
AcDbBlockEnd
  0
ENDSEC
  0
SECTION
  2
ENTITIES
  0
LINE
  5
D4
330
1F
100
AcDbEntity
  8
LAY-10
  6
CONTINUOUS
 62
     7
100
AcDbLine
 10
144.6141851987993
 20
262.3000000000969
 30
0.0
 11
150.1141851987991
 21
267.8000000000967
 31
0.0
  0
LINE
  5
D5
330
1F
100
AcDbEntity
  8
LAY-10
  6
CONTINUOUS
 62
     7
100
AcDbLine
 10
147.4426123235455
 20
262.300000000097
 30
0.0
 11
152.9426123235453
 21
267.8000000000967
 31
0.0
  0
LINE
  5
D6
330
1F
100
AcDbEntity
  8
LAY-10
  6
CONTINUOUS
 62
     7
100
AcDbLine
 10
150.2710394482917
 20
262.300000000097
 30
0.0
 11
155.7710394482913
 21
267.8000000000967
 31
0.0
  0
LINE
  5
D7
330
1F
100
AcDbEntity
  8
LAY-10
  6
CONTINUOUS
 62
     7
100
AcDbLine
 10
153.0994665730379
 20
262.300000000097
 30
0.0
 11
158.5994665730375
 21
267.8000000000967
 31
0.0
  0
LINE
  5
D8
330
1F
100
AcDbEntity
  8
LAY-10
  6
CONTINUOUS
 62
     7
100
AcDbLine
 10
155.9278936977842
 20
262.300000000097
 30
0.0
 11
161.4278936977837
 21
267.8000000000967
 31
0.0
  0
LINE
  5
D9
330
1F
100
AcDbEntity
  8
LAY-10
  6
CONTINUOUS
 62
     7
100
AcDbLine
 10
158.7563208225304
 20
262.3000000000969
 30
0.0
 11
164.2563208225299
 21
267.8000000000967
 31
0.0
  0
LINE
  5
DA
330
1F
100
AcDbEntity
  8
LAY-10
  6
CONTINUOUS
 62
     7
100
AcDbLine
 10
161.5847479472764
 20
262.300000000097
 30
0.0
 11
167.0847479472761
 21
267.8000000000967
 31
0.0
  0
LINE
  5
DB
330
1F
100
AcDbEntity
  8
LAY-10
  6
CONTINUOUS
 62
     7
100
AcDbLine
 10
164.4131750720226
 20
262.300000000097
 30
0.0
 11
169.9131750720223
 21
267.8000000000967
 31
0.0
  0
LINE
  5
DC
330
1F
100
AcDbEntity
  8
LAY-10
  6
CONTINUOUS
 62
     7
100
AcDbLine
 10
167.2416021967688
 20
262.300000000097
 30
0.0
 11
172.7416021967686
 21
267.8000000000967
 31
0.0
  0
LINE
  5
DD
330
1F
100
AcDbEntity
  8
LAY-10
  6
CONTINUOUS
 62
     7
100
AcDbLine
 10
170.070029321515
 20
262.300000000097
 30
0.0
 11
175.5700293215145
 21
267.8000000000967
 31
0.0
  0
LINE
  5
DE
330
1F
100
AcDbEntity
  8
LAY-10
  6
CONTINUOUS
 62
     7
100
AcDbLine
 10
172.8984564462612
 20
262.3000000000969
 30
0.0
 11
178.3984564462608
 21
267.8000000000967
 31
0.0
  0
LINE
  5
DF
330
1F
100
AcDbEntity
  8
LAY-10
  6
CONTINUOUS
 62
     7
100
AcDbLine
 10
175.7268835710074
 20
262.300000000097
 30
0.0
 11
181.226883571007
 21
267.8000000000967
 31
0.0
  0
LINE
  5
E0
330
1F
100
AcDbEntity
  8
LAY-10
  6
CONTINUOUS
 62
     7
100
AcDbLine
 10
178.5553106957536
 20
262.300000000097
 30
0.0
 11
184.0553106957532
 21
267.8000000000967
 31
0.0
  0
LINE
  5
E1
330
1F
100
AcDbEntity
  8
LAY-10
  6
CONTINUOUS
 62
     7
100
AcDbLine
 10
181.3837378204998
 20
262.300000000097
 30
0.0
 11
186.8837378204994
 21
267.8000000000967
 31
0.0
  0
LINE
  5
E2
330
1F
100
AcDbEntity
  8
LAY-10
  6
CONTINUOUS
 62
     7
100
AcDbLine
 10
184.2121649452461
 20
262.300000000097
 30
0.0
 11
189.7121649452456
 21
267.8000000000967
 31
0.0
  0
LINE
  5
E3
330
1F
100
AcDbEntity
  8
LAY-10
  6
CONTINUOUS
 62
     7
100
AcDbLine
 10
187.0405920699923
 20
262.3000000000969
 30
0.0
 11
192.5405920699918
 21
267.8000000000967
 31
0.0
  0
LINE
  5
E4
330
1F
100
AcDbEntity
  8
LAY-10
  6
CONTINUOUS
 62
     7
100
AcDbLine
 10
189.8690191947385
 20
262.300000000097
 30
0.0
 11
193.9573309492082
 21
266.3883117545669
 31
0.0
  0
LINE
  5
E5
330
1F
100
AcDbEntity
  8
LAY-10
  6
CONTINUOUS
 62
     7
100
AcDbLine
 10
192.6974463194847
 20
262.300000000097
 30
0.0
 11
193.9573309492107
 21
263.5598846298232
 31
0.0
  0
LINE
  5
E6
330
1F
100
AcDbEntity
  8
LAY-10
  6
CONTINUOUS
 62
     7
100
AcDbLine
 10
143.9573309493092
 20
267.3000000000992
 30
0.0
 11
144.4573309493067
 21
267.8000000000967
 31
0.0
  0
LINE
  5
E7
330
1F
100
AcDbEntity
  8
LAY-10
  6
CONTINUOUS
 62
     7
100
AcDbLine
 10
143.9573309493092
 20
264.471572875353
 30
0.0
 11
147.2857580740529
 21
267.8000000000967
 31
0.0
  0
LINE
  5
E8
330
1F
100
AcDbEntity
  8
LAY-10
  6
CONTINUOUS
 62
     7
100
AcDbLine
 10
144.6141851987982
 20
102.800000000106
 30
0.0
 11
150.1141851988004
 21
108.3000000001081
 31
0.0
  0
LINE
  5
E9
330
1F
100
AcDbEntity
  8
LAY-10
  6
CONTINUOUS
 62
     7
100
AcDbLine
 10
147.4426123235444
 20
102.8000000001059
 30
0.0
 11
152.9426123235467
 21
108.3000000001081
 31
0.0
  0
LINE
  5
EA
330
1F
100
AcDbEntity
  8
LAY-10
  6
CONTINUOUS
 62
     7
100
AcDbLine
 10
150.2710394482906
 20
102.8000000001059
 30
0.0
 11
155.7710394482929
 21
108.3000000001081
 31
0.0
  0
LINE
  5
EB
330
1F
100
AcDbEntity
  8
LAY-10
  6
CONTINUOUS
 62
     7
100
AcDbLine
 10
153.0994665730368
 20
102.8000000001059
 30
0.0
 11
158.5994665730391
 21
108.300000000108
 31
0.0
  0
LINE
  5
EC
330
1F
100
AcDbEntity
  8
LAY-10
  6
CONTINUOUS
 62
     7
100
AcDbLine
 10
155.927893697783
 20
102.8000000001059
 30
0.0
 11
161.4278936977853
 21
108.300000000108
 31
0.0
  0
LINE
  5
ED
330
1F
100
AcDbEntity
  8
LAY-10
  6
CONTINUOUS
 62
     7
100
AcDbLine
 10
158.7563208225292
 20
102.800000000106
 30
0.0
 11
164.2563208225315
 21
108.3000000001081
 31
0.0
  0
LINE
  5
EE
330
1F
100
AcDbEntity
  8
LAY-10
  6
CONTINUOUS
 62
     7
100
AcDbLine
 10
161.5847479472754
 20
102.8000000001059
 30
0.0
 11
167.0847479472775
 21
108.3000000001081
 31
0.0
  0
LINE
  5
EF
330
1F
100
AcDbEntity
  8
LAY-10
  6
CONTINUOUS
 62
     7
100
AcDbLine
 10
164.4131750720217
 20
102.8000000001059
 30
0.0
 11
169.9131750720237
 21
108.3000000001081
 31
0.0
  0
LINE
  5
F0
330
1F
100
AcDbEntity
  8
LAY-10
  6
CONTINUOUS
 62
     7
100
AcDbLine
 10
167.2416021967676
 20
102.8000000001059
 30
0.0
 11
172.7416021967699
 21
108.300000000108
 31
0.0
  0
LINE
  5
F1
330
1F
100
AcDbEntity
  8
LAY-10
  6
CONTINUOUS
 62
     7
100
AcDbLine
 10
170.0700293215139
 20
102.8000000001059
 30
0.0
 11
175.5700293215161
 21
108.300000000108
 31
0.0
  0
LINE
  5
F2
330
1F
100
AcDbEntity
  8
LAY-10
  6
CONTINUOUS
 62
     7
100
AcDbLine
 10
172.8984564462601
 20
102.800000000106
 30
0.0
 11
178.3984564462623
 21
108.3000000001081
 31
0.0
  0
LINE
  5
F3
330
1F
100
AcDbEntity
  8
LAY-10
  6
CONTINUOUS
 62
     7
100
AcDbLine
 10
175.7268835710063
 20
102.8000000001059
 30
0.0
 11
181.2268835710086
 21
108.3000000001081
 31
0.0
  0
LINE
  5
F4
330
1F
100
AcDbEntity
  8
LAY-10
  6
CONTINUOUS
 62
     7
100
AcDbLine
 10
178.5553106957525
 20
102.8000000001059
 30
0.0
 11
184.0553106957548
 21
108.3000000001081
 31
0.0
  0
LINE
  5
F5
330
1F
100
AcDbEntity
  8
LAY-10
  6
CONTINUOUS
 62
     7
100
AcDbLine
 10
181.3837378204985
 20
102.8000000001059
 30
0.0
 11
186.8837378205008
 21
108.300000000108
 31
0.0
  0
LINE
  5
F6
330
1F
100
AcDbEntity
  8
LAY-10
  6
CONTINUOUS
 62
     7
100
AcDbLine
 10
184.2121649452447
 20
102.8000000001059
 30
0.0
 11
189.712164945247
 21
108.300000000108
 31
0.0
  0
LINE
  5
F7
330
1F
100
AcDbEntity
  8
LAY-10
  6
CONTINUOUS
 62
     7
100
AcDbLine
 10
187.0405920699909
 20
102.800000000106
 30
0.0
 11
192.5405920699932
 21
108.3000000001081
 31
0.0
  0
LINE
  5
F8
330
1F
100
AcDbEntity
  8
LAY-10
  6
CONTINUOUS
 62
     7
100
AcDbLine
 10
189.8690191947371
 20
102.8000000001059
 30
0.0
 11
193.9573309492612
 21
106.8883117546298
 31
0.0
  0
LINE
  5
F9
330
1F
100
AcDbEntity
  8
LAY-10
  6
CONTINUOUS
 62
     7
100
AcDbLine
 10
192.6974463194833
 20
102.8000000001059
 30
0.0
 11
193.9573309492612
 21
104.0598846298836
 31
0.0
  0
LINE
  5
FA
330
1F
100
AcDbEntity
  8
LAY-10
  6
CONTINUOUS
 62
     7
100
AcDbLine
 10
143.9573309493092
 20
107.8000000001092
 30
0.0
 11
144.457330949308
 21
108.300000000108
 31
0.0
  0
LINE
  5
FB
330
1F
100
AcDbEntity
  8
LAY-10
  6
CONTINUOUS
 62
     7
100
AcDbLine
 10
143.9573309493092
 20
104.9715728753629
 30
0.0
 11
147.2857580740542
 21
108.300000000108
 31
0.0
  0
LINE
  5
FC
330
1F
100
AcDbEntity
  8
LAY-10
  6
CONTINUOUS
 62
     7
100
AcDbLine
 10
195.9573309492582
 20
299.80000000008
 30
0.0
 11
195.9573309492582
 21
284.80000000008
 31
0.0
  0
LINE
  5
FD
330
1F
100
AcDbEntity
  8
LAY-10
  6
CONTINUOUS
 62
     7
100
AcDbLine
 10
202.4424021993115
 20
283.1787321875665
 30
0.0
 11
195.9573309492582
 21
284.80000000008
 31
0.0
  0
LINE
  5
FE
330
1F
100
AcDbEntity
  8
LAY-10
  6
CONTINUOUS
 62
     7
100
AcDbLine
 10
203.5190685681321
 20
309.2521720236718
 30
0.0
 11
195.9573309492582
 21
299.80000000008
 31
0.0
  0
ARC
  5
FF
330
1F
100
AcDbEntity
  8
LAY-10
  6
CONTINUOUS
 62
     7
100
AcDbCircle
 10
201.9573309492582
 20
281.238447187271
 30
0.0
 40
2.0
100
AcDbArc
 50
0.0
 51
75.96375653209012
  0
LINE
  5
100
330
1F
100
AcDbEntity
  8
LAY-10
  6
CONTINUOUS
 62
     7
100
AcDbLine
 10
200.95733094921
 20
321.30000000008
 30
0.0
 11
208.9573309493101
 21
322.30000000008
 31
0.0
  0
LINE
  5
101
330
1F
100
AcDbEntity
  8
LAY-10
  6
CONTINUOUS
 62
     7
100
AcDbLine
 10
200.95733094921
 20
316.30000000008
 30
0.0
 11
202.6214315379336
 21
315.1905996075977
 31
0.0
  0
ARC
  5
102
330
1F
100
AcDbEntity
  8
LAY-10
  6
CONTINUOUS
 62
     7
100
AcDbCircle
 10
200.9573309492582
 20
312.6944487245842
 30
0.0
 40
3.0
100
AcDbArc
 50
0.0
 51
56.30993247402021
  0
ARC
  5
103
330
1F
100
AcDbEntity
  8
LAY-10
  6
CONTINUOUS
 62
     7
100
AcDbCircle
 10
201.9573309492582
 20
310.5015621187961
 30
0.0
 40
2.0
100
AcDbArc
 50
321.3401917459109
 51
0.0
  0
LINE
  5
104
330
1F
100
AcDbEntity
  8
LAY-10
  6
CONTINUOUS
 62
     7
100
AcDbLine
 10
200.9573309492582
 20
321.30000000008
 30
0.0
 11
200.9573309492582
 21
306.05000000008
 31
0.0
  0
ARC
  5
105
330
1F
100
AcDbEntity
  8
LAY-10
  6
CONTINUOUS
 62
     7
100
AcDbCircle
 10
207.9573309492582
 20
265.5792407800126
 30
0.0
 40
1.0
100
AcDbArc
 50
0.0
 51
71.56505117689255
  0
ARC
  5
106
330
1F
100
AcDbEntity
  8
LAY-10
  6
CONTINUOUS
 62
     7
100
AcDbCircle
 10
207.9573309492582
 20
272.7142135625621
 30
0.0
 40
1.0
100
AcDbArc
 50
315.0000000000047
 51
0.0
  0
ARC
  5
107
330
1F
100
AcDbEntity
  8
LAY-10
  6
CONTINUOUS
 62
     7
100
AcDbCircle
 10
206.9573309492277
 20
268.0207592201408
 30
0.0
 40
1.0
100
AcDbArc
 50
180.0
 51
251.5650511768977
  0
ARC
  5
108
330
1F
100
AcDbEntity
  8
LAY-10
  6
CONTINUOUS
 62
     7
100
AcDbCircle
 10
206.9573309492277
 20
268.885786437785
 30
0.0
 40
1.0
100
AcDbArc
 50
135.000000000007
 51
180.0
  0
LINE
  5
109
330
1F
100
AcDbEntity
  8
LAY-10
  6
CONTINUOUS
 62
     7
100
AcDbLine
 10
206.2502241680397
 20
269.5928932189703
 30
0.0
 11
208.6644377304444
 21
272.0071067813755
 31
0.0
  0
LINE
  5
10A
330
1F
100
AcDbEntity
  8
LAY-10
  6
CONTINUOUS
 62
     7
100
AcDbLine
 10
205.9573309492273
 20
268.88578643779
 30
0.0
 11
205.9573309492273
 21
268.0207592201401
 31
0.0
  0
LINE
  5
10B
330
1F
100
AcDbEntity
  8
LAY-10
  6
CONTINUOUS
 62
     7
100
AcDbLine
 10
208.2735587152804
 20
266.5279240780613
 30
0.0
 11
206.6411031832101
 21
267.0720759220909
 31
0.0
  0
LINE
  5
10C
330
1F
100
AcDbEntity
  8
LAY-10
  6
CONTINUOUS
 62
     7
100
AcDbLine
 10
200.9573309493101
 20
271.3000000000801
 30
0.0
 11
203.95733094921
 21
274.3000000000801
 31
0.0
  0
LINE
  5
10D
330
1F
100
AcDbEntity
  8
LAY-10
  6
CONTINUOUS
 62
     7
100
AcDbLine
 10
203.9573309492582
 20
274.3000000000801
 30
0.0
 11
203.9573309492582
 21
312.6944487245842
 31
0.0
  0
LINE
  5
10E
330
1F
100
AcDbEntity
  8
LAY-10
  6
CONTINUOUS
 62
     7
100
AcDbLine
 10
200.9573309492755
 20
271.3000000000801
 30
0.0
 11
200.9573309492755
 21
283.5500000000754
 31
0.0
  0
LINE
  5
10F
330
1F
100
AcDbEntity
  8
LAY-10
  6
CONTINUOUS
 62
     7
100
AcDbLine
 10
198.9573309492582
 20
247.8000000001815
 30
0.0
 11
188.6716753027479
 21
248.3390483710849
 31
0.0
  0
LINE
  5
110
330
1F
100
AcDbEntity
  8
LAY-10
  6
CONTINUOUS
 62
     7
100
AcDbLine
 10
152.4294215854723
 20
259.8681141658775
 30
0.0
 11
155.5038974851848
 21
108.8994167549834
 31
0.0
  0
LINE
  5
111
330
1F
100
AcDbEntity
  8
LAY-10
  6
CONTINUOUS
 62
     7
100
AcDbLine
 10
155.5038974852098
 20
108.89941675498
 30
0.0
 11
193.95733094926
 21
108.89941675498
 31
0.0
  0
LINE
  5
112
330
1F
100
AcDbEntity
  8
LAY-10
  6
CONTINUOUS
 62
     7
100
AcDbLine
 10
154.0195000228089
 20
252.09014626398
 30
0.0
 11
156.7759924199788
 21
116.7356727868294
 31
0.0
  0
LINE
  5
113
330
1F
100
AcDbEntity
  8
LAY-10
  6
CONTINUOUS
 62
     7
100
AcDbLine
 10
155.375930061148
 20
115.1831138624491
 30
0.0
 11
156.7759924200229
 21
116.7356727868324
 31
0.0
  0
LINE
  5
114
330
1F
100
AcDbEntity
  8
LAY-10
  6
CONTINUOUS
 62
     7
100
AcDbLine
 10
152.5573890095095
 20
253.5844170584099
 30
0.0
 11
154.0195000228516
 21
252.0901462639809
 31
0.0
  0
LINE
  5
115
330
1F
100
AcDbEntity
  8
LAY-10
  6
CONTINUOUS
 62
     7
100
AcDbLine
 10
179.8568369167667
 20
117.9277489717272
 30
0.0
 11
156.7759924199811
 21
116.7356727868301
 31
0.0
  0
LINE
  5
116
330
1F
100
AcDbEntity
  8
LAY-10
  6
CONTINUOUS
 62
     7
100
AcDbLine
 10
177.1297407994391
 20
251.8387510340786
 30
0.0
 11
154.0195000228098
 21
252.0901462639816
 31
0.0
  0
ARC
  5
117
330
1F
100
AcDbEntity
  8
LAY-10
  6
CONTINUOUS
 62
     7
100
AcDbCircle
 10
182.6471709710593
 20
249.4812175133605
 30
0.0
 40
6.0
100
AcDbArc
 50
91.16666666665957
 51
181.1666666666598
  0
ARC
  5
118
330
1F
100
AcDbEntity
  8
LAY-10
  6
CONTINUOUS
 62
     7
100
AcDbCircle
 10
185.5854667626716
 20
252.54167791026
 30
0.0
 40
3.0
100
AcDbArc
 50
1.166666666699984
 51
91.16666666665957
  0
LINE
  5
119
330
1F
100
AcDbEntity
  8
LAY-10
  6
CONTINUOUS
 62
     7
100
AcDbLine
 10
182.5250063657725
 20
255.4799737018728
 30
0.0
 11
185.5243844600284
 21
255.5410560045162
 31
0.0
  0
LINE
  5
11A
330
1F
100
AcDbEntity
  8
LAY-10
  6
CONTINUOUS
 62
     7
100
AcDbLine
 10
188.5848448569279
 20
252.6027602129032
 30
0.0
 11
191.333548475877
 21
117.6307459713753
 31
0.0
  0
LINE
  5
11B
330
1F
100
AcDbEntity
  8
LAY-10
  6
CONTINUOUS
 62
     7
100
AcDbLine
 10
179.2749537962088
 20
120.3857948550584
 30
0.0
 11
176.648414782547
 21
249.3590529080739
 31
0.0
  0
ARC
  5
11C
330
1F
100
AcDbEntity
  8
LAY-10
  6
CONTINUOUS
 62
     7
100
AcDbCircle
 10
185.2737099847211
 20
120.5079594603449
 30
0.0
 40
6.0
100
AcDbArc
 50
181.1666666666604
 51
271.1666666666596
  0
LINE
  5
11D
330
1F
100
AcDbEntity
  8
LAY-10
  6
CONTINUOUS
 62
     7
100
AcDbLine
 10
185.3958745900079
 20
114.5092032718326
 30
0.0
 11
188.3952526842643
 21
114.570285574476
 31
0.0
  0
ARC
  5
11E
330
1F
100
AcDbEntity
  8
LAY-10
  6
CONTINUOUS
 62
     7
100
AcDbCircle
 10
188.3341703816207
 20
117.5696636687319
 30
0.0
 40
3.0
100
AcDbArc
 50
271.1666666666595
 51
1.166666666699984
  0
LINE
  5
11F
330
1F
100
AcDbEntity
  8
LAY-10
  6
CONTINUOUS
 62
     7
100
AcDbLine
 10
198.95733094921
 20
247.8000000001801
 30
0.0
 11
208.95733094921
 21
264.3000000000801
 31
0.0
  0
LINE
  5
120
330
1F
100
AcDbEntity
  8
LAY-10
  6
CONTINUOUS
 62
     7
100
AcDbLine
 10
152.42942158551
 20
259.8681141658793
 30
0.0
 11
193.95733094921
 21
260.713829593606
 31
0.0
  0
LINE
  5
121
330
1F
100
AcDbEntity
  8
LAY-10
  6
CONTINUOUS
 62
     7
100
AcDbLine
 10
377.9573309492101
 20
129.30000000005
 30
0.0
 11
378.9573309492101
 21
137.30000000005
 31
0.0
  0
LINE
  5
122
330
1F
100
AcDbEntity
  8
LAY-10
  6
CONTINUOUS
 62
     7
100
AcDbLine
 10
371.8479305567592
 20
130.9641005887259
 30
0.0
 11
372.9573309492101
 21
129.30000000005
 31
0.0
  0
ARC
  5
123
330
1F
100
AcDbEntity
  8
LAY-10
  6
CONTINUOUS
 62
     7
100
AcDbCircle
 10
369.3517796737459
 20
129.30000000005
 30
0.0
 40
3.0
100
AcDbArc
 50
33.69006752597861
 51
90.00000000000001
  0
ARC
  5
124
330
1F
100
AcDbEntity
  8
LAY-10
  6
CONTINUOUS
 62
     7
100
AcDbCircle
 10
329.3715445115138
 20
136.3000000000496
 30
0.0
 40
1.0
100
AcDbArc
 50
89.99999999999996
 51
135.0
  0
ARC
  5
125
330
1F
100
AcDbEntity
  8
LAY-10
  6
CONTINUOUS
 62
     7
100
AcDbCircle
 10
322.2365717292139
 20
136.3000000000496
 30
0.0
 40
1.0
100
AcDbArc
 50
18.43494882292097
 51
89.99999999999996
  0
ARC
  5
126
330
1F
100
AcDbEntity
  8
LAY-10
  6
CONTINUOUS
 62
     7
100
AcDbCircle
 10
325.5431173868649
 20
135.3000000001473
 30
0.0
 40
1.0
100
AcDbArc
 50
270.0000000000002
 51
315.0000000000001
  0
ARC
  5
127
330
1F
100
AcDbEntity
  8
LAY-10
  6
CONTINUOUS
 62
     7
100
AcDbCircle
 10
324.6780901692939
 20
135.3000000001473
 30
0.0
 40
1.0
100
AcDbArc
 50
198.434948822921
 51
270.0000000000002
  0
LINE
  5
128
330
1F
100
AcDbEntity
  8
LAY-10
  6
CONTINUOUS
 62
     7
100
AcDbLine
 10
328.6644377303303
 20
137.0071067812392
 30
0.0
 11
326.2502241680506
 21
134.5928932189593
 31
0.0
  0
LINE
  5
129
330
1F
100
AcDbEntity
  8
LAY-10
  6
CONTINUOUS
 62
     7
100
AcDbLine
 10
324.6780901692939
 20
134.3000000001473
 30
0.0
 11
325.5431173868699
 21
134.3000000001473
 31
0.0
  0
LINE
  5
12A
330
1F
100
AcDbEntity
  8
LAY-10
  6
CONTINUOUS
 62
     7
100
AcDbLine
 10
323.7294068712429
 20
134.9837722341304
 30
0.0
 11
323.1852550272645
 21
136.6162277660665
 31
0.0
  0
LINE
  5
12B
330
1F
100
AcDbEntity
  8
LAY-10
  6
CONTINUOUS
 62
     7
100
AcDbLine
 10
327.95733094921
 20
129.30000000005
 30
0.0
 11
330.95733094921
 21
132.30000000005
 31
0.0
  0
LINE
  5
12C
330
1F
100
AcDbEntity
  8
LAY-10
  6
CONTINUOUS
 62
     7
100
AcDbLine
 10
369.3517796737459
 20
132.30000000005
 30
0.0
 11
330.95733094921
 21
132.30000000005
 31
0.0
  0
LINE
  5
12D
330
1F
100
AcDbEntity
  8
LAY-10
  6
CONTINUOUS
 62
     7
100
AcDbLine
 10
305.5151614099138
 20
128.3844592596368
 30
0.0
 11
191.236516973315
 21
122.3953692852422
 31
0.0
  0
LINE
  5
12E
330
1F
100
AcDbEntity
  8
LAY-10
  6
CONTINUOUS
 62
     7
100
AcDbLine
 10
305.5151614099138
 20
128.3844592596368
 30
0.0
 11
320.95733094926
 21
137.3000000000496
 31
0.0
  0
LINE
  5
12F
330
1F
100
AcDbEntity
  8
LAY-10
  6
CONTINUOUS
 62
     7
100
AcDbLine
 10
317.1009244887102
 20
129.3000000000489
 30
0.0
 11
306.9755898885539
 21
123.4541353430141
 31
0.0
  0
LINE
  5
130
330
1F
100
AcDbEntity
  8
LAY-10
  6
CONTINUOUS
 62
     7
100
AcDbLine
 10
198.9573309492582
 20
247.8000000001801
 30
0.0
 11
198.9573309492582
 21
138.38445925964
 31
0.0
  0
ARC
  5
131
330
1F
100
AcDbEntity
  8
LAY-10
  6
CONTINUOUS
 62
     7
100
AcDbCircle
 10
208.9573309492582
 20
138.38445925964
 30
0.0
 40
10.0
100
AcDbArc
 50
180.0
 51
270.0
  0
LINE
  5
132
330
1F
100
AcDbEntity
  8
LAY-10
  6
CONTINUOUS
 62
     7
100
AcDbLine
 10
305.5151614099098
 20
128.38445925964
 30
0.0
 11
208.9573309492582
 21
128.38445925964
 31
0.0
  0
LINE
  5
133
330
1F
100
AcDbEntity
  8
LAY-10
  6
CONTINUOUS
 62
     7
100
AcDbLine
 10
200.9573309493101
 20
271.3000000000801
 30
0.0
 11
193.95733094921
 21
269.3000000000801
 31
0.0
  0
LINE
  5
134
330
1F
100
AcDbEntity
  8
LAY-10
  6
CONTINUOUS
 62
     7
100
AcDbLine
 10
193.95733094921
 20
260.713829593606
 30
0.0
 11
193.95733094921
 21
269.3000000000801
 31
0.0
  0
LINE
  5
135
330
1F
100
AcDbEntity
  8
LAY-10
  6
CONTINUOUS
 62
     7
100
AcDbLine
 10
193.9573309493101
 20
101.3000000000787
 30
0.0
 11
198.95733094931
 21
101.3000000000787
 31
0.0
  0
LINE
  5
136
330
1F
100
AcDbEntity
  8
LAY-10
  6
CONTINUOUS
 62
     7
100
AcDbLine
 10
193.95733094926
 20
108.89941675498
 30
0.0
 11
193.95733094926
 21
101.3000000000787
 31
0.0
  0
LINE
  5
137
330
1F
100
AcDbEntity
  8
LAY-10
  6
CONTINUOUS
 62
     7
100
AcDbLine
 10
198.95733094931
 20
101.30000000008
 30
0.0
 11
216.9573309494101
 21
118.7364782970902
 31
0.0
  0
LINE
  5
138
330
1F
100
AcDbEntity
  8
LAY-10
  6
CONTINUOUS
 62
     7
100
AcDbLine
 10
216.9573309494101
 20
118.7364782970906
 30
0.0
 11
306.9755898885539
 21
123.4541353430141
 31
0.0
  0
LINE
  5
139
330
1F
100
AcDbEntity
  8
LAY-10
  6
CONTINUOUS
 62
     7
100
AcDbLine
 10
340.4645342455133
 20
142.3000000000629
 30
0.0
 11
355.9573309492371
 21
155.3000000000633
 31
0.0
  0
LINE
  5
13A
330
1F
100
AcDbEntity
  8
LAY-10
  6
CONTINUOUS
 62
     7
100
AcDbLine
 10
333.9573309492357
 20
145.3000000000674
 30
0.0
 11
344.039795023301
 21
145.3000000000674
 31
0.0
  0
LINE
  5
13B
330
1F
100
AcDbEntity
  8
LAY-10
  6
CONTINUOUS
 62
     7
100
AcDbLine
 10
333.9573309492339
 20
145.300000000067
 30
0.0
 11
330.9573309492339
 21
142.300000000067
 31
0.0
  0
LINE
  5
13C
330
1F
100
AcDbEntity
  8
LAY-10
  6
CONTINUOUS
 62
     7
100
AcDbLine
 10
213.9573309491725
 20
268.8072032963814
 30
0.0
 11
226.9573309491698
 21
284.3000000001073
 31
0.0
  0
LINE
  5
13D
330
1F
100
AcDbEntity
  8
LAY-10
  6
CONTINUOUS
 62
     7
100
AcDbLine
 10
216.957330949178
 20
256.3000000000948
 30
0.0
 11
216.9573309491761
 21
272.3824640741695
 31
0.0
  0
ARC
  5
13E
330
1F
100
AcDbEntity
  8
LAY-10
  6
CONTINUOUS
 62
     7
100
AcDbCircle
 10
353.3380495849793
 20
144.3000000000674
 30
0.0
 40
2.0
100
AcDbArc
 50
139.9999999999974
 51
270.0000000000002
  0
ARC
  5
13F
330
1F
100
AcDbEntity
  8
LAY-10
  6
CONTINUOUS
 62
     7
100
AcDbCircle
 10
215.9573309492384
 20
281.6807186359008
 30
0.0
 40
2.0
100
AcDbArc
 50
179.9999999999999
 51
310.0000000000139
  0
LINE
  5
140
330
1F
100
AcDbEntity
  8
LAY-10
  6
CONTINUOUS
 62
     7
100
AcDbLine
 10
213.9573309492384
 20
281.6807186359003
 30
0.0
 11
213.9573309492384
 21
313.3000000001173
 31
0.0
  0
ARC
  5
141
330
1F
100
AcDbEntity
  8
LAY-10
  6
CONTINUOUS
 62
     7
100
AcDbCircle
 10
210.9573309492384
 20
313.3000000001173
 30
0.0
 40
3.0
100
AcDbArc
 50
0.0
 51
90.00000000000001
  0
ARC
  5
142
330
1F
100
AcDbEntity
  8
LAY-10
  6
CONTINUOUS
 62
     7
100
AcDbCircle
 10
366.9573309492499
 20
139.3000000000674
 30
0.0
 40
3.0
100
AcDbArc
 50
0.0
 51
90.00000000000001
  0
ARC
  5
143
330
1F
100
AcDbEntity
  8
LAY-10
  6
CONTINUOUS
 62
     7
100
AcDbCircle
 10
291.9573309492625
 20
144.3000000000674
 30
0.0
 40
2.0
100
AcDbArc
 50
179.9999999999999
 51
270.0000000000002
  0
LINE
  5
144
330
1F
100
AcDbEntity
  8
LAY-10
  6
CONTINUOUS
 62
     7
100
AcDbLine
 10
309.9573309492512
 20
155.3000000000674
 30
0.0
 11
359.9573309492658
 21
155.3000000000674
 31
0.0
  0
ARC
  5
145
330
1F
100
AcDbEntity
  8
LAY-10
  6
CONTINUOUS
 62
     7
100
AcDbCircle
 10
251.9573309492575
 20
144.3000000000674
 30
0.0
 40
2.0
100
AcDbArc
 50
179.9999999999999
 51
270.0000000000002
  0
LINE
  5
146
330
1F
100
AcDbEntity
  8
LAY-10
  6
CONTINUOUS
 62
     7
100
AcDbLine
 10
269.9573309492562
 20
155.3000000000674
 30
0.0
 11
289.9573309492625
 21
155.3000000000674
 31
0.0
  0
LINE
  5
147
330
1F
100
AcDbEntity
  8
LAY-10
  6
CONTINUOUS
 62
     7
100
AcDbLine
 10
213.9573309492384
 20
261.3000000001171
 30
0.0
 11
213.9573309492384
 21
268.8072032964601
 31
0.0
  0
LINE
  5
148
330
1F
100
AcDbEntity
  8
LAY-10
  6
CONTINUOUS
 62
     7
100
AcDbLine
 10
351.8059606987527
 20
145.5855752194547
 30
0.0
 11
359.957330949248
 21
155.3000000000465
 31
0.0
  0
LINE
  5
149
330
1F
100
AcDbEntity
  8
LAY-10
  6
CONTINUOUS
 62
     7
100
AcDbLine
 10
217.2429061686153
 20
280.1486297496656
 30
0.0
 11
226.9573309491525
 21
288.3000000001182
 31
0.0
  0
LINE
  5
14A
330
1F
100
AcDbEntity
  8
LAY-10
  6
CONTINUOUS
 62
     7
100
AcDbLine
 10
208.9573309492398
 20
316.3000000001164
 30
0.0
 11
210.9573309492384
 21
316.3000000001173
 31
0.0
  0
LINE
  5
14B
330
1F
100
AcDbEntity
  8
LAY-10
  6
CONTINUOUS
 62
     7
100
AcDbLine
 10
213.9573309492339
 20
261.3000000001171
 30
0.0
 11
208.9573309492398
 21
256.3000000001136
 31
0.0
  0
LINE
  5
14C
330
1F
100
AcDbEntity
  8
LAY-10
  6
CONTINUOUS
 62
     7
100
AcDbLine
 10
216.9573309491775
 20
256.3000000000925
 30
0.0
 11
208.9573309492398
 21
249.3000000000936
 31
0.0
  0
LINE
  5
14D
330
1F
100
AcDbEntity
  8
LAY-10
  6
CONTINUOUS
 62
     7
100
AcDbLine
 10
207.6573309492542
 20
157.2132034356468
 30
0.0
 11
207.6573309492537
 21
180.7303262142099
 31
0.0
  0
LINE
  5
14E
330
1F
100
AcDbEntity
  8
LAY-10
  6
CONTINUOUS
 62
     7
100
AcDbLine
 10
208.9573309492439
 20
182.5340187158671
 30
0.0
 11
201.6573309492537
 21
172.4055915911139
 31
0.0
  0
LINE
  5
14F
330
1F
100
AcDbEntity
  8
LAY-10
  6
CONTINUOUS
 62
     7
100
AcDbLine
 10
228.8705343848542
 20
136.0000000000468
 30
0.0
 11
252.3876571633423
 21
136.0000000000468
 31
0.0
  0
LINE
  5
150
330
1F
100
AcDbEntity
  8
LAY-10
  6
CONTINUOUS
 62
     7
100
AcDbLine
 10
244.0629225403259
 20
130.0000000000472
 30
0.0
 11
254.1913496650241
 21
137.300000000067
 31
0.0
  0
LINE
  5
151
330
1F
100
AcDbEntity
  8
LAY-10
  6
CONTINUOUS
 62
     7
100
AcDbLine
 10
201.6573309492537
 20
154.7279220614541
 30
0.0
 11
201.6573309492537
 21
172.4055915911139
 31
0.0
  0
LINE
  5
152
330
1F
100
AcDbEntity
  8
LAY-10
  6
CONTINUOUS
 62
     7
100
AcDbLine
 10
226.3852530106651
 20
130.0000000000468
 30
0.0
 11
244.0629225403259
 21
130.0000000000468
 31
0.0
  0
LINE
  5
153
330
1F
100
AcDbEntity
  8
LAY-10
  6
CONTINUOUS
 62
     7
100
AcDbLine
 10
207.6573309492742
 20
157.2132034356468
 30
0.0
 11
201.6573309492542
 21
154.7279220614468
 31
0.0
  0
LINE
  5
154
330
1F
100
AcDbEntity
  8
LAY-10
  6
CONTINUOUS
 62
     7
100
AcDbLine
 10
228.8705343848542
 20
136.0000000000468
 30
0.0
 11
226.3852530106637
 21
130.0000000000468
 31
0.0
  0
LINE
  5
155
330
1F
100
AcDbEntity
  8
LAY-10
  6
CONTINUOUS
 62
     7
100
AcDbLine
 10
226.3852530106647
 20
130.0000000000472
 30
0.0
 11
201.6573309492574
 21
154.7279220614504
 31
0.0
  0
LINE
  5
156
330
1F
100
AcDbEntity
  8
LAY-10
  6
CONTINUOUS
 62
     7
100
AcDbLine
 10
207.6573309492769
 20
157.21320343567
 30
0.0
 11
228.8705343848787
 21
136.0000000000718
 31
0.0
  0
LINE
  5
157
330
1F
100
AcDbEntity
  8
LAY-10
  6
CONTINUOUS
 62
     7
100
AcDbLine
 10
369.9573309492503
 20
139.3000000000674
 30
0.0
 11
369.9573309492503
 21
137.3000000000679
 31
0.0
  0
LINE
  5
158
330
1F
100
AcDbEntity
  8
LAY-10
  6
CONTINUOUS
 62
     7
100
AcDbLine
 10
314.9573309492489
 20
142.3000000000633
 30
0.0
 11
309.9573309492503
 21
137.3000000000696
 31
0.0
  0
LINE
  5
159
330
1F
100
AcDbEntity
  8
LAY-10
  6
CONTINUOUS
 62
     7
100
AcDbLine
 10
219.0852530106413
 20
137.3000000000696
 30
0.0
 11
218.9573309492384
 21
137.3000000000696
 31
0.0
  0
LINE
  5
15A
330
1F
100
AcDbEntity
  8
LAY-10
  6
CONTINUOUS
 62
     7
100
AcDbLine
 10
208.9573309492384
 20
147.3000000000696
 30
0.0
 11
208.9573309492384
 21
147.4279220614706
 31
0.0
  0
LINE
  5
15B
330
1F
100
AcDbEntity
  8
LAY-10
  6
CONTINUOUS
 62
     7
100
AcDbLine
 10
350.9573309491316
 20
154.3000000000614
 30
0.0
 11
263.2416021965942
 21
154.3000000000614
 31
0.0
  0
LINE
  5
15C
330
1F
100
AcDbEntity
  8
LAY-10
  6
CONTINUOUS
 62
     7
100
AcDbLine
 10
340.9573309491307
 20
145.3000000000614
 30
0.0
 11
350.9573309491316
 21
153.3000000000614
 31
0.0
  0
ARC
  5
15D
330
1F
100
AcDbEntity
  8
LAY-10
  6
CONTINUOUS
 62
     7
100
AcDbCircle
 10
263.2416021965932
 20
168.3000000000614
 30
0.0
 40
20.0
100
AcDbArc
 50
225.0000000000001
 51
270.0
  0
ARC
  5
15E
330
1F
100
AcDbEntity
  8
LAY-10
  6
CONTINUOUS
 62
     7
100
AcDbCircle
 10
239.9573309491311
 20
191.5842712475233
 30
0.0
 40
20.0
100
AcDbArc
 50
180.0
 51
225.0000000000001
  0
ARC
  5
15F
330
1F
100
AcDbEntity
  8
LAY-10
  6
CONTINUOUS
 62
     7
100
AcDbCircle
 10
239.9573309491311
 20
191.5842712475238
 30
0.0
 40
14.00000000000001
100
AcDbArc
 50
180.0
 51
224.9999999999983
  0
ARC
  5
160
330
1F
100
AcDbEntity
  8
LAY-10
  6
CONTINUOUS
 62
     7
100
AcDbCircle
 10
263.2416021965937
 20
168.3000000000614
 30
0.0
 40
14.00000000000001
100
AcDbArc
 50
224.9999999999974
 51
270.0
  0
LINE
  5
161
330
1F
100
AcDbEntity
  8
LAY-10
  6
CONTINUOUS
 62
     7
100
AcDbLine
 10
216.9573309491311
 20
269.3000000000612
 30
0.0
 11
224.9573309491311
 21
279.3000000000611
 31
0.0
  0
LINE
  5
162
330
1F
100
AcDbEntity
  8
LAY-10
  6
CONTINUOUS
 62
     7
100
AcDbLine
 10
225.9573309491311
 20
279.3000000000611
 30
0.0
 11
225.9573309491311
 21
191.5842712475238
 31
0.0
  0
LINE
  5
163
330
1F
100
AcDbEntity
  8
LAY-10
  6
CONTINUOUS
 62
     7
100
AcDbLine
 10
224.9573309491311
 20
279.3000000000611
 30
0.0
 11
225.9573309491311
 21
279.3000000000611
 31
0.0
  0
LINE
  5
164
330
1F
100
AcDbEntity
  8
LAY-10
  6
CONTINUOUS
 62
     7
100
AcDbLine
 10
350.9573309491316
 20
154.3000000000614
 30
0.0
 11
350.9573309491316
 21
153.3000000000614
 31
0.0
  0
LINE
  5
165
330
1F
100
AcDbEntity
  8
LAY-10
  6
CONTINUOUS
 62
     7
100
AcDbLine
 10
219.957330949127
 20
267.3000000000612
 30
0.0
 11
216.9573309491311
 21
267.3000000000612
 31
0.0
  0
LINE
  5
166
330
1F
100
AcDbEntity
  8
LAY-10
  6
CONTINUOUS
 62
     7
100
AcDbLine
 10
338.9573309491316
 20
148.3000000000664
 30
0.0
 11
338.9573309491316
 21
145.3000000000614
 31
0.0
  0
LINE
  5
167
330
1F
100
AcDbEntity
  8
LAY-10
  6
CONTINUOUS
 62
     7
100
AcDbLine
 10
253.3421072599808
 20
158.4005050634499
 30
0.0
 11
230.0578360125191
 21
181.6847763109125
 31
0.0
  0
ARC
  5
168
330
1F
100
AcDbEntity
  8
LAY-10
  6
CONTINUOUS
 62
     7
100
AcDbCircle
 10
244.0994665728522
 20
158.3000000000614
 30
0.0
 40
10.0
100
AcDbArc
 50
225.0000000000001
 51
270.0
  0
ARC
  5
169
330
1F
100
AcDbEntity
  8
LAY-10
  6
CONTINUOUS
 62
     7
100
AcDbCircle
 10
229.9573309491215
 20
172.4421356237925
 30
0.0
 40
10.0
100
AcDbArc
 50
180.0
 51
225.0000000000001
  0
LINE
  5
16A
330
1F
100
AcDbEntity
  8
LAY-10
  6
CONTINUOUS
 62
     7
100
AcDbLine
 10
338.9573309491316
 20
148.3000000000614
 30
0.0
 11
244.0994665728167
 21
148.3000000000614
 31
0.0
  0
LINE
  5
16B
330
1F
100
AcDbEntity
  8
LAY-10
  6
CONTINUOUS
 62
     7
100
AcDbLine
 10
219.9573309491311
 20
172.4421356237966
 30
0.0
 11
219.9573309491311
 21
267.3000000000612
 31
0.0
  0
LINE
  5
16C
330
1F
100
AcDbEntity
  8
LAY-10
  6
CONTINUOUS
 62
     7
100
AcDbLine
 10
222.886263137234
 20
165.371067811944
 30
0.0
 11
226.4217970432837
 21
161.8355339058954
 31
0.0
  0
LINE
  5
16D
330
1F
100
AcDbEntity
  8
LAY-10
  6
CONTINUOUS
 62
     7
100
AcDbLine
 10
233.4928648551504
 20
154.7644660940312
 30
0.0
 11
237.0283987609868
 21
151.2289321881961
 31
0.0
  0
LINE
  5
16E
330
1F
100
AcDbEntity
  8
LAY-10
  6
CONTINUOUS
 62
     7
100
AcDbLine
 10
216.9573309490779
 20
265.3000000000233
 30
0.0
 11
219.9573309490806
 21
265.3000000000233
 31
0.0
  0
LINE
  5
16F
330
1F
100
AcDbEntity
  8
LAY-10
  6
CONTINUOUS
 62
     7
100
AcDbLine
 10
249.0994665728267
 20
154.157864376366
 30
0.0
 11
225.8151953254001
 21
177.4421356237925
 31
0.0
  0
LINE
  5
170
330
1F
100
AcDbEntity
  8
LAY-10
  6
CONTINUOUS
 62
     7
100
AcDbLine
 10
216.9573309490779
 20
259.3000000001813
 30
0.0
 11
219.9573309490806
 21
259.3000000001808
 31
0.0
  0
LINE
  5
171
330
1F
100
AcDbEntity
  8
LAY-10
  6
CONTINUOUS
 62
     7
100
AcDbLine
 10
294.4645342455347
 20
142.3000000000733
 30
0.0
 11
301.615055801085
 21
148.3000000000614
 31
0.0
  0
LINE
  5
172
330
1F
100
AcDbEntity
  8
LAY-10
  6
CONTINUOUS
 62
     7
100
AcDbLine
 10
308.7655773566498
 20
154.3000000000614
 30
0.0
 11
309.9573309492584
 21
155.3000000000738
 31
0.0
  0
LINE
  5
173
330
1F
100
AcDbEntity
  8
LAY-10
  6
CONTINUOUS
 62
     7
100
AcDbLine
 10
289.9573309492625
 20
155.3000000000675
 30
0.0
 11
289.9573309492625
 21
154.3000000000614
 31
0.0
  0
LINE
  5
174
330
1F
100
AcDbEntity
  8
LAY-10
  6
CONTINUOUS
 62
     7
100
AcDbLine
 10
289.9573309492625
 20
148.3000000000614
 30
0.0
 11
289.9573309492625
 21
144.3000000000674
 31
0.0
  0
LINE
  5
175
330
1F
100
AcDbEntity
  8
LAY-10
  6
CONTINUOUS
 62
     7
100
AcDbLine
 10
254.4645342455328
 20
142.3000000000674
 30
0.0
 11
261.6871558120074
 21
148.3604990926302
 31
0.0
  0
LINE
  5
176
330
1F
100
AcDbEntity
  8
LAY-10
  6
CONTINUOUS
 62
     7
100
AcDbLine
 10
268.7655773566544
 20
154.3000000000614
 30
0.0
 11
269.9573309492548
 21
155.3000000000665
 31
0.0
  0
LINE
  5
177
330
1F
100
AcDbEntity
  8
LAY-10
  6
CONTINUOUS
 62
     7
100
AcDbLine
 10
249.9573309492571
 20
144.3000000000674
 30
0.0
 11
249.9573309492571
 21
148.3000000000614
 31
0.0
  0
LINE
  5
178
330
1F
100
AcDbEntity
  8
LAY-10
  6
CONTINUOUS
 62
     7
100
AcDbLine
 10
226.957330949238
 20
288.3000000001168
 30
0.0
 11
226.957330949238
 21
186.3881188245497
 31
0.0
  0
LINE
  5
179
330
1F
100
AcDbEntity
  8
LAY-10
  6
CONTINUOUS
 62
     7
100
AcDbLine
 10
223.9207869165984
 20
140.9497474683232
 30
0.0
 11
228.2001971563391
 21
145.2291577080641
 31
0.0
  0
LINE
  5
17A
330
1F
100
AcDbEntity
  8
LAY-10
  6
CONTINUOUS
 62
     7
100
AcDbLine
 10
221.0923597918522
 20
143.7781745930697
 30
0.0
 11
225.3717700315928
 21
148.0575848328105
 31
0.0
  0
LINE
  5
17B
330
1F
100
AcDbEntity
  8
LAY-10
  6
CONTINUOUS
 62
     7
100
AcDbLine
 10
215.4355055423598
 20
149.4350288425616
 30
0.0
 11
219.7149157821009
 21
153.7144390823027
 31
0.0
  0
LINE
  5
17C
330
1F
100
AcDbEntity
  8
LAY-10
  6
CONTINUOUS
 62
     7
100
AcDbLine
 10
212.6070784176131
 20
152.2634559673083
 30
0.0
 11
216.8864886573542
 21
156.5428662070491
 31
0.0
  0
ARC
  5
17D
330
1F
100
AcDbEntity
  8
LAY-10
  6
CONTINUOUS
 62
     7
100
AcDbCircle
 10
225.159781687385
 20
145.0171693638565
 30
0.0
 40
3.047796791443853
100
AcDbArc
 50
3.988406407699867
 51
86.01159359229058
  0
ARC
  5
17E
330
1F
100
AcDbEntity
  8
LAY-10
  6
CONTINUOUS
 62
     7
100
AcDbCircle
 10
215.2451614720317
 20
143.5878305227411
 30
0.0
 40
11.06918716577541
100
AcDbArc
 50
23.81604434177246
 51
66.18395565822665
  0
ARC
  5
17F
330
1F
100
AcDbEntity
  8
LAY-10
  6
CONTINUOUS
 62
     7
100
AcDbCircle
 10
216.6745003131468
 20
153.5024507380949
 30
0.0
 40
3.047796791443853
100
AcDbArc
 50
3.988406407709435
 51
86.01159359229695
  0
LINE
  5
180
330
1F
100
AcDbEntity
  8
LAY-10
  6
CONTINUOUS
 62
     7
100
AcDbLine
 10
227.3148994662938
 20
147.172287142765
 30
0.0
 11
218.8296180920551
 21
155.6575685170034
 31
0.0
  0
ARC
  5
181
330
1F
100
AcDbEntity
  8
LAY-10
  6
CONTINUOUS
 62
     7
100
AcDbCircle
 10
219.957330949248
 20
148.300000000048
 30
0.0
 40
11.0
100
AcDbArc
 50
252.0356917891438
 51
265.2558873389388
  0
ARC
  5
182
330
1F
100
AcDbEntity
  8
LAY-10
  6
CONTINUOUS
 62
     7
100
AcDbCircle
 10
219.957330949248
 20
148.300000000048
 30
0.0
 40
11.0
100
AcDbArc
 50
184.7441126610709
 51
197.9643082103195
  0
LINE
  5
183
330
1F
100
AcDbEntity
  8
LAY-10
  6
CONTINUOUS
 62
     7
100
AcDbLine
 10
225.2710394483424
 20
142.3000000000674
 30
0.0
 11
366.9573309492503
 21
142.3000000000674
 31
0.0
  0
LINE
  5
184
330
1F
100
AcDbEntity
  8
LAY-10
  6
CONTINUOUS
 62
     7
100
AcDbLine
 10
213.9573309492384
 20
153.6137084989332
 30
0.0
 11
213.9573309492384
 21
253.6750000001255
 31
0.0
  0
LINE
  5
185
330
1F
100
AcDbEntity
  8
LAY-10
  6
CONTINUOUS
 62
     7
100
AcDbLine
 10
219.5367248732045
 20
154.950461735854
 30
0.0
 11
233.9217970432714
 21
169.3355339059212
 31
0.0
  0
LINE
  5
186
330
1F
100
AcDbEntity
  8
LAY-10
  6
CONTINUOUS
 62
     7
100
AcDbLine
 10
226.6077926850703
 20
147.8793939239887
 30
0.0
 11
240.9928648551372
 21
162.2644660940558
 31
0.0
  0
ARC
  5
187
330
1F
100
AcDbEntity
  8
LAY-10
  6
CONTINUOUS
 62
     7
100
AcDbCircle
 10
218.9573309492582
 20
147.30000000005
 30
0.0
 40
10.0
100
AcDbArc
 50
180.0
 51
194.999999999659
  0
ARC
  5
188
330
1F
100
AcDbEntity
  8
LAY-10
  6
CONTINUOUS
 62
     7
100
AcDbCircle
 10
218.9573309492582
 20
147.30000000005
 30
0.0
 40
10.0
100
AcDbArc
 50
254.9999999996596
 51
270.0
  0
LINE
  5
189
330
1F
100
AcDbEntity
  8
LAY-10
  6
CONTINUOUS
 62
     7
100
AcDbLine
 10
219.0852530106606
 20
137.30000000005
 30
0.0
 11
218.9573309492582
 21
137.30000000005
 31
0.0
  0
LINE
  5
18A
330
1F
100
AcDbEntity
  8
LAY-10
  6
CONTINUOUS
 62
     7
100
AcDbLine
 10
378.9573309492101
 20
137.30000000005
 30
0.0
 11
254.1913496650004
 21
137.30000000005
 31
0.0
  0
LINE
  5
18B
330
1F
100
AcDbEntity
  8
LAY-10
  6
CONTINUOUS
 62
     7
100
AcDbLine
 10
208.9573309492582
 20
147.30000000005
 30
0.0
 11
208.9573309492582
 21
147.4279220614508
 31
0.0
  0
LINE
  5
18C
330
1F
100
AcDbEntity
  8
LAY-10
  6
CONTINUOUS
 62
     7
100
AcDbLine
 10
208.9573309493101
 20
322.30000000008
 30
0.0
 11
208.9573309493101
 21
182.5340187158701
 31
0.0
  0
LINE
  5
18D
330
1F
100
AcDbEntity
  8
LAY-10
  6
CONTINUOUS
 62
     7
100
AcDbLine
 10
363.4573309492653
 20
102.3000000000539
 30
0.0
 11
363.4573309492653
 21
107.3000000000539
 31
0.0
  0
LINE
  5
18E
330
1F
100
AcDbEntity
  8
LAY-10
  6
CONTINUOUS
 62
     7
100
AcDbLine
 10
353.4573309492644
 20
107.3000000000539
 30
0.0
 11
363.4573309492653
 21
107.3000000000539
 31
0.0
  0
ARC
  5
18F
330
1F
100
AcDbEntity
  8
LAY-10
  6
CONTINUOUS
 62
     7
100
AcDbCircle
 10
353.4573309492644
 20
109.3000000000539
 30
0.0
 40
2.0
100
AcDbArc
 50
180.0
 51
270.0
  0
LINE
  5
190
330
1F
100
AcDbEntity
  8
LAY-10
  6
CONTINUOUS
 62
     7
100
AcDbLine
 10
353.4573309492644
 20
102.3000000000539
 30
0.0
 11
363.4573309492653
 21
102.3000000000539
 31
0.0
  0
ARC
  5
191
330
1F
100
AcDbEntity
  8
LAY-10
  6
CONTINUOUS
 62
     7
100
AcDbCircle
 10
353.4573309492644
 20
109.3000000000539
 30
0.0
 40
7.000000000000004
100
AcDbArc
 50
180.0
 51
270.0
  0
LINE
  5
192
330
1F
100
AcDbEntity
  8
LAY-10
  6
CONTINUOUS
 62
     7
100
AcDbLine
 10
351.4573309492653
 20
109.3000000000496
 30
0.0
 11
351.4573309492653
 21
124.3000000000491
 31
0.0
  0
LINE
  5
193
330
1F
100
AcDbEntity
  8
LAY-10
  6
CONTINUOUS
 62
     7
100
AcDbLine
 10
346.4573309492653
 20
109.3000000000496
 30
0.0
 11
346.4573309492653
 21
124.3000000000491
 31
0.0
  0
LINE
  5
194
330
1F
100
AcDbEntity
  8
LAY-10
  6
CONTINUOUS
 62
     7
100
AcDbLine
 10
173.9573309491661
 20
306.8000000000829
 30
0.0
 11
178.9573309491661
 21
306.8000000000829
 31
0.0
  0
LINE
  5
195
330
1F
100
AcDbEntity
  8
LAY-10
  6
CONTINUOUS
 62
     7
100
AcDbLine
 10
178.9573309491661
 20
296.8000000000825
 30
0.0
 11
178.9573309491661
 21
306.8000000000829
 31
0.0
  0
ARC
  5
196
330
1F
100
AcDbEntity
  8
LAY-10
  6
CONTINUOUS
 62
     7
100
AcDbCircle
 10
180.9573309491666
 20
296.8000000000825
 30
0.0
 40
2.0
100
AcDbArc
 50
180.0
 51
270.0
  0
LINE
  5
197
330
1F
100
AcDbEntity
  8
LAY-10
  6
CONTINUOUS
 62
     7
100
AcDbLine
 10
173.9573309491666
 20
296.8000000000825
 30
0.0
 11
173.9573309491661
 21
306.8000000000829
 31
0.0
  0
ARC
  5
198
330
1F
100
AcDbEntity
  8
LAY-10
  6
CONTINUOUS
 62
     7
100
AcDbCircle
 10
180.9573309491666
 20
296.8000000000825
 30
0.0
 40
7.000000000000004
100
AcDbArc
 50
180.0
 51
270.0
  0
LINE
  5
199
330
1F
100
AcDbEntity
  8
LAY-10
  6
CONTINUOUS
 62
     7
100
AcDbLine
 10
180.957330949162
 20
294.8000000000834
 30
0.0
 11
195.9573309491611
 21
294.8000000000834
 31
0.0
  0
LINE
  5
19A
330
1F
100
AcDbEntity
  8
LAY-10
  6
CONTINUOUS
 62
     7
100
AcDbLine
 10
180.957330949162
 20
289.8000000000834
 30
0.0
 11
195.9573309491611
 21
289.8000000000834
 31
0.0
  0
ARC
  5
19B
330
1F
100
AcDbEntity
  8
LAY-10
  6
CONTINUOUS
 62
     7
100
AcDbCircle
 10
220.0178851391265
 20
130.3844592596379
 30
0.0
 40
2.0
100
AcDbArc
 50
196.6467056388655
 51
270.0
  0
LINE
  5
19C
330
1F
100
AcDbEntity
  8
LAY-10
  6
CONTINUOUS
 62
     7
100
AcDbLine
 10
218.1017063945078
 20
129.8115203286239
 30
0.0
 11
217.5283987611501
 21
131.72893218825
 31
0.0
  0
LINE
  5
19D
330
1F
100
AcDbEntity
  8
LAY-10
  6
CONTINUOUS
 62
     7
100
AcDbLine
 10
203.3862631374152
 20
145.8710678119826
 30
0.0
 11
217.5283987611522
 21
131.7289321882491
 31
0.0
  0
LINE
  5
19E
330
1F
100
AcDbEntity
  8
LAY-10
  6
CONTINUOUS
 62
     7
100
AcDbLine
 10
203.3862631374199
 20
145.87106781198
 30
0.0
 11
200.5168433485333
 21
146.5189485351389
 31
0.0
  0
ARC
  5
19F
330
1F
100
AcDbEntity
  8
LAY-10
  6
CONTINUOUS
 62
     7
100
AcDbCircle
 10
200.9573309492584
 20
148.4698382484767
 30
0.0
 40
2.0
100
AcDbArc
 50
180.0
 51
257.2766470389271
  0
LINE
  5
1A0
330
1F
100
AcDbEntity
  8
LAY-10
  6
CONTINUOUS
 62
     7
100
AcDbLine
 10
206.9217970433342
 20
142.3355339060643
 30
0.0
 11
210.485758073979
 21
145.8994949367093
 31
0.0
  0
LINE
  5
1A1
330
1F
100
AcDbEntity
  8
LAY-10
  6
CONTINUOUS
 62
     7
100
AcDbLine
 10
213.9928648552008
 20
135.2644660941996
 30
0.0
 11
217.5568258858448
 21
138.8284271248443
 31
0.0
  0
ARC
  5
1A2
330
1F
100
AcDbEntity
  8
LAY-10
  6
CONTINUOUS
 62
     7
100
AcDbCircle
 10
337.8957781364493
 20
130.3000000000473
 30
0.0
 40
2.0
100
AcDbArc
 50
14.03624346792687
 51
89.99999999999991
  0
LINE
  5
1A3
330
1F
100
AcDbEntity
  8
LAY-10
  6
CONTINUOUS
 62
     7
100
AcDbLine
 10
339.8360631367382
 20
130.7850712501271
 30
0.0
 11
341.4573309492575
 21
124.3000000000473
 31
0.0
  0
LINE
  5
1A4
330
1F
100
AcDbEntity
  8
LAY-10
  6
CONTINUOUS
 62
     7
100
AcDbLine
 10
365.9095029728911
 20
131.8617376189538
 30
0.0
 11
356.4573309492581
 21
124.3000000000473
 31
0.0
  0
ARC
  5
1A5
330
1F
100
AcDbEntity
  8
LAY-10
  6
CONTINUOUS
 62
     7
100
AcDbCircle
 10
367.1588930679732
 20
130.3000000000464
 30
0.0
 40
2.0
100
AcDbArc
 50
89.99999999999996
 51
128.659808254091
  0
LINE
  5
1A6
330
1F
100
AcDbEntity
  8
LAY-10
  6
CONTINUOUS
 62
     7
100
AcDbLine
 10
340.2073309492571
 20
129.30000000005
 30
0.0
 11
317.1009244887098
 21
129.30000000005
 31
0.0
  0
LINE
  5
1A7
330
1F
100
AcDbEntity
  8
LAY-10
  6
CONTINUOUS
 62
     7
100
AcDbLine
 10
377.9573309492101
 20
129.30000000005
 30
0.0
 11
362.7073309492612
 21
129.30000000005
 31
0.0
  0
LINE
  5
1A8
330
1F
100
AcDbEntity
  8
LAY-10
  6
CONTINUOUS
 62
     7
100
AcDbLine
 10
341.45733094926
 20
124.3000000000473
 30
0.0
 11
356.4573309492601
 21
124.3000000000473
 31
0.0
  0
LINE
  5
1A9
330
1F
100
AcDbEntity
  8
LAY-10
  6
CONTINUOUS
 62
     7
100
AcDbLine
 10
143.9573309493092
 20
102.80000000011
 30
0.0
 11
143.9573309493092
 21
267.8000000000972
 31
0.0
  0
LINE
  5
1AA
330
1F
100
AcDbEntity
  8
LAY-10
  6
CONTINUOUS
 62
     7
100
AcDbLine
 10
815.7999999999995
 20
137.30000000005
 30
0.0
 11
515.7999999999499
 21
137.30000000005
 31
0.0
  0
LINE
  5
1AB
330
1F
100
AcDbEntity
  8
LAY-10
  6
CONTINUOUS
 62
     7
100
AcDbLine
 10
515.8
 20
137.30000000005
 30
0.0
 11
515.8
 21
307.3000000000798
 31
0.0
  0
ARC
  5
1AC
330
1F
100
AcDbEntity
  8
LAY-10
  6
CONTINUOUS
 62
     7
100
AcDbCircle
 10
530.8
 20
307.3000000000798
 30
0.0
 40
15.0
100
AcDbArc
 50
90.00000000000001
 51
180.0
  0
LINE
  5
1AD
330
1F
100
AcDbEntity
  8
LAY-10
  6
CONTINUOUS
 62
     7
100
AcDbLine
 10
815.7999999999995
 20
137.30000000005
 30
0.0
 11
815.7999999999995
 21
307.3000000000798
 31
0.0
  0
ARC
  5
1AE
330
1F
100
AcDbEntity
  8
LAY-10
  6
CONTINUOUS
 62
     7
100
AcDbCircle
 10
800.7999999999995
 20
307.3000000000798
 30
0.0
 40
15.0
100
AcDbArc
 50
0.0
 51
90.00000000000001
  0
LINE
  5
1AF
330
1F
100
AcDbEntity
  8
LAY-10
  6
CONTINUOUS
 62
     7
100
AcDbLine
 10
800.7999999999995
 20
322.3000000000798
 30
0.0
 11
530.8
 21
322.30000000008
 31
0.0
  0
LINE
  5
1B0
330
1F
100
AcDbEntity
  8
LAY-10
  6
CONTINUOUS
 62
     7
100
AcDbLine
 10
516.7999999999499
 20
129.30000000005
 30
0.0
 11
515.8000000000495
 21
137.30000000005
 31
0.0
  0
LINE
  5
1B1
330
1F
100
AcDbEntity
  8
LAY-10
  6
CONTINUOUS
 62
     7
100
AcDbLine
 10
553.3000000000204
 20
124.3000000000482
 30
0.0
 11
538.3000000000204
 21
124.3000000000482
 31
0.0
  0
LINE
  5
1B2
330
1F
100
AcDbEntity
  8
LAY-10
  6
CONTINUOUS
 62
     7
100
AcDbLine
 10
538.3000000000222
 20
124.3000000000505
 30
0.0
 11
537.0500000000213
 21
129.30000000005
 31
0.0
  0
LINE
  5
1B3
330
1F
100
AcDbEntity
  8
LAY-10
  6
CONTINUOUS
 62
     7
100
AcDbLine
 10
553.2999999999868
 20
124.3000000000505
 30
0.0
 11
554.5499999999868
 21
129.30000000005
 31
0.0
  0
LINE
  5
1B4
330
1F
100
AcDbEntity
  8
LAY-10
  6
CONTINUOUS
 62
     7
100
AcDbLine
 10
814.8000000000499
 20
129.30000000005
 30
0.0
 11
815.7999999999499
 21
137.30000000005
 31
0.0
  0
LINE
  5
1B5
330
1F
100
AcDbEntity
  8
LAY-10
  6
CONTINUOUS
 62
     7
100
AcDbLine
 10
778.2999999999794
 20
124.3000000000482
 30
0.0
 11
793.2999999999794
 21
124.3000000000482
 31
0.0
  0
LINE
  5
1B6
330
1F
100
AcDbEntity
  8
LAY-10
  6
CONTINUOUS
 62
     7
100
AcDbLine
 10
793.2999999999777
 20
124.3000000000505
 30
0.0
 11
794.5499999999781
 21
129.30000000005
 31
0.0
  0
LINE
  5
1B7
330
1F
100
AcDbEntity
  8
LAY-10
  6
CONTINUOUS
 62
     7
100
AcDbLine
 10
778.3000000000131
 20
124.3000000000505
 30
0.0
 11
777.0500000000131
 21
129.30000000005
 31
0.0
  0
LINE
  5
1B8
330
1F
100
AcDbEntity
  8
LAY-10
  6
CONTINUOUS
 62
     7
100
AcDbLine
 10
516.7999999999499
 20
129.30000000005
 30
0.0
 11
814.8000000000495
 21
129.30000000005
 31
0.0
  0
LINE
  5
1B9
330
1F
100
AcDbEntity
  8
LAY-10
  6
CONTINUOUS
 62
     7
100
AcDbLine
 10
573.7999999999499
 20
129.30000000005
 30
0.0
 11
577.8000000000495
 21
123.45413534301
 31
0.0
  0
LINE
  5
1BA
330
1F
100
AcDbEntity
  8
LAY-10
  6
CONTINUOUS
 62
     7
100
AcDbLine
 10
757.80000000005
 20
129.30000000005
 30
0.0
 11
753.7999999999499
 21
123.45413534301
 31
0.0
  0
LINE
  5
1BB
330
1F
100
AcDbEntity
  8
LAY-10
  6
CONTINUOUS
 62
     7
100
AcDbLine
 10
577.8000000000495
 20
123.4541353430103
 30
0.0
 11
753.7999999999504
 21
123.4541353430103
 31
0.0
  0
ARC
  5
1BC
330
1F
100
AcDbEntity
  8
LAY-10
  6
CONTINUOUS
 62
     7
100
AcDbCircle
 10
665.7999999999499
 20
184.80000000005
 30
0.0
 40
66.22074504081002
100
AcDbArc
 50
247.8780440535422
 51
292.1219559464578
  0
ARC
  5
1BD
330
1F
100
AcDbEntity
  8
LAY-10
  6
CONTINUOUS
 62
     7
100
AcDbCircle
 10
665.8000000000495
 20
185.30000000008
 30
0.0
 40
84.0
100
AcDbArc
 50
227.4138168079317
 51
312.5861831920684
  0
LINE
  5
1BE
330
1F
100
AcDbEntity
  8
LAY-10
  6
CONTINUOUS
 62
     7
100
AcDbLine
 10
595.800000000019
 20
165.1820851633392
 30
0.0
 11
595.800000000019
 21
166.1406204335235
 31
0.0
  0
ELLIPSE
  5
1BF
330
1F
100
AcDbEntity
  8
LAY-10
  6
CONTINUOUS
 62
     7
100
AcDbEllipse
 10
600.8000000000186
 20
166.1406204335235
 30
0.0
 11
5.0
 21
0.0
 31
0.0
210
0.0
220
0.0
230
1.0
 40
0.7071067811866106
 41
5.973861590320968
 42
9.734101677609829
  0
LINE
  5
1C0
330
1F
100
AcDbEntity
  8
LAY-10
  6
CONTINUOUS
 62
     7
100
AcDbLine
 10
605.8000000000186
 20
165.182085163288
 30
0.0
 11
605.8000000000186
 21
166.1406204335235
 31
0.0
  0
LINE
  5
1C1
330
1F
100
AcDbEntity
  8
LAY-10
  6
CONTINUOUS
 62
     7
100
AcDbLine
 10
725.8000000001141
 20
165.182085163288
 30
0.0
 11
725.8000000001141
 21
166.1406204335233
 31
0.0
  0
ELLIPSE
  5
1C2
330
1F
100
AcDbEntity
  8
LAY-10
  6
CONTINUOUS
 62
     7
100
AcDbEllipse
 10
730.8000000001146
 20
166.1406204335233
 30
0.0
 11
5.0
 21
0.0
 31
0.0
210
0.0
220
0.0
230
1.0
 40
0.7071067811866106
 41
5.973861590339203
 42
9.734101677628043
  0
LINE
  5
1C3
330
1F
100
AcDbEntity
  8
LAY-10
  6
CONTINUOUS
 62
     7
100
AcDbLine
 10
735.8000000001141
 20
165.1820851633394
 30
0.0
 11
735.8000000001141
 21
166.1406204335233
 31
0.0
  0
LINE
  5
1C4
330
1F
100
AcDbEntity
  8
LAY-10
  6
CONTINUOUS
 62
     7
100
AcDbLine
 10
735.7434299834356
 20
165.6102903476333
 30
0.0
 11
725.8565700167931
 21
165.6102903476333
 31
0.0
  0
LINE
  5
1C5
330
1F
100
AcDbEntity
  8
LAY-10
  6
CONTINUOUS
 62
     7
100
AcDbLine
 10
735.7434299834356
 20
166.6709505194133
 30
0.0
 11
725.8565700167931
 21
166.6709505194133
 31
0.0
  0
LINE
  5
1C6
330
1F
100
AcDbEntity
  8
LAY-10
  6
CONTINUOUS
 62
     7
100
AcDbLine
 10
595.8565700166976
 20
165.6102903476335
 30
0.0
 11
605.7434299833401
 21
165.6102903476335
 31
0.0
  0
LINE
  5
1C7
330
1F
100
AcDbEntity
  8
LAY-10
  6
CONTINUOUS
 62
     7
100
AcDbLine
 10
595.8565700166976
 20
166.6709505194135
 30
0.0
 11
605.7434299833401
 21
166.6709505194135
 31
0.0
  0
LINE
  5
1C8
330
1F
100
AcDbEntity
  8
LAY-10
  6
CONTINUOUS
 62
     7
100
AcDbLine
 10
745.8000000000686
 20
245.3000000000016
 30
0.0
 11
745.8000000000686
 21
177.9923881554251
 31
0.0
  0
ELLIPSE
  5
1C9
330
1F
100
AcDbEntity
  8
LAY-10
  6
CONTINUOUS
 62
     7
100
AcDbEllipse
 10
730.8000000000641
 20
170.0426406871202
 30
0.0
 11
-8.499999999999774
 21
-2.733808504450210E-15
 31
0.0
210
0.0
220
0.0
230
1.0
 40
0.7071067811866731
 41
0.0
 42
6.283185307179586
  0
ELLIPSE
  5
1CA
330
1F
100
AcDbEntity
  8
LAY-10
  6
CONTINUOUS
 62
     7
100
AcDbEllipse
 10
730.8000000000641
 20
166.5480920225917
 30
0.0
 11
-8.499999999999774
 21
-2.733808504450210E-15
 31
0.0
210
0.0
220
0.0
230
1.0
 40
0.7071067811866731
 41
3.436559495733374
 42
5.98821846503597
  0
ELLIPSE
  5
1CB
330
1F
100
AcDbEntity
  8
LAY-10
  6
CONTINUOUS
 62
     7
100
AcDbEllipse
 10
600.8000000000686
 20
170.0426406871202
 30
0.0
 11
-8.499999999999774
 21
-2.733808504450210E-15
 31
0.0
210
0.0
220
0.0
230
1.0
 40
0.7071067811866731
 41
0.0
 42
6.283185307179586
  0
ELLIPSE
  5
1CC
330
1F
100
AcDbEntity
  8
LAY-10
  6
CONTINUOUS
 62
     7
100
AcDbEllipse
 10
600.8000000000686
 20
166.5480920225917
 30
0.0
 11
-8.499999999999774
 21
-2.733808504450210E-15
 31
0.0
210
0.0
220
0.0
230
1.0
 40
0.7071067811866731
 41
3.436559495733409
 42
5.988218465036006
  0
LINE
  5
1CD
330
1F
100
AcDbEntity
  8
LAY-10
  6
CONTINUOUS
 62
     7
100
AcDbLine
 10
745.8000000000686
 20
154.3000000000011
 30
0.0
 11
745.8000000000686
 21
162.0928932188152
 31
0.0
  0
LINE
  5
1CE
330
1F
100
AcDbEntity
  8
LAY-10
  6
CONTINUOUS
 62
     7
100
AcDbLine
 10
707.8000000000686
 20
154.3000000000011
 30
0.0
 11
707.8000000000686
 21
162.0928932188156
 31
0.0
  0
LINE
  5
1CF
330
1F
100
AcDbEntity
  8
LAY-10
  6
CONTINUOUS
 62
     7
100
AcDbLine
 10
669.8000000000686
 20
154.3000000000011
 30
0.0
 11
669.8000000000686
 21
162.0928932188156
 31
0.0
  0
LINE
  5
1D0
330
1F
100
AcDbEntity
  8
LAY-10
  6
CONTINUOUS
 62
     7
100
AcDbLine
 10
661.8000000000686
 20
154.3000000000011
 30
0.0
 11
661.8000000000686
 21
162.0928932188156
 31
0.0
  0
LINE
  5
1D1
330
1F
100
AcDbEntity
  8
LAY-10
  6
CONTINUOUS
 62
     7
100
AcDbLine
 10
623.8000000000686
 20
154.3000000000011
 30
0.0
 11
623.8000000000686
 21
162.0928932188156
 31
0.0
  0
LINE
  5
1D2
330
1F
100
AcDbEntity
  8
LAY-10
  6
CONTINUOUS
 62
     7
100
AcDbLine
 10
585.8000000000686
 20
154.3000000000011
 30
0.0
 11
585.8000000000686
 21
162.0928932188152
 31
0.0
  0
LINE
  5
1D3
330
1F
100
AcDbEntity
  8
LAY-10
  6
CONTINUOUS
 62
     7
100
AcDbLine
 10
567.8000000000686
 20
155.3000000000414
 30
0.0
 11
567.8000000000686
 21
279.3000000000018
 31
0.0
  0
LINE
  5
1D4
330
1F
100
AcDbEntity
  8
LAY-10
  6
CONTINUOUS
 62
     7
100
AcDbLine
 10
590.5367301929484
 20
145.3000000000011
 30
0.0
 11
581.0632698071861
 21
145.3000000000011
 31
0.0
  0
LINE
  5
1D5
330
1F
100
AcDbEntity
  8
LAY-10
  6
CONTINUOUS
 62
     7
100
AcDbLine
 10
579.6526539615172
 20
153.3000000000011
 30
0.0
 11
591.9473460386168
 21
153.3000000000011
 31
0.0
  0
LINE
  5
1D6
330
1F
100
AcDbEntity
  8
LAY-10
  6
CONTINUOUS
 62
     7
100
AcDbLine
 10
579.4763269808084
 20
154.3000000000011
 30
0.0
 11
592.1236730193252
 21
154.3000000000011
 31
0.0
  0
LINE
  5
1D7
330
1F
100
AcDbEntity
  8
LAY-10
  6
CONTINUOUS
 62
     7
100
AcDbLine
 10
593.8000000000686
 20
155.3000000000414
 30
0.0
 11
593.8000000000686
 21
157.0490012811049
 31
0.0
  0
LINE
  5
1D8
330
1F
100
AcDbEntity
  8
LAY-10
  6
CONTINUOUS
 62
     7
100
AcDbLine
 10
630.536730192948
 20
145.3000000000011
 30
0.0
 11
621.0632698071856
 21
145.3000000000011
 31
0.0
  0
LINE
  5
1D9
330
1F
100
AcDbEntity
  8
LAY-10
  6
CONTINUOUS
 62
     7
100
AcDbLine
 10
619.6526539615172
 20
153.3000000000011
 30
0.0
 11
631.9473460386173
 21
153.3000000000011
 31
0.0
  0
LINE
  5
1DA
330
1F
100
AcDbEntity
  8
LAY-10
  6
CONTINUOUS
 62
     7
100
AcDbLine
 10
619.4763269808084
 20
154.3000000000011
 30
0.0
 11
632.1236730193252
 21
154.3000000000011
 31
0.0
  0
LINE
  5
1DB
330
1F
100
AcDbEntity
  8
LAY-10
  6
CONTINUOUS
 62
     7
100
AcDbLine
 10
670.5367301929471
 20
145.3000000000011
 30
0.0
 11
661.0632698071861
 21
145.3000000000011
 31
0.0
  0
LINE
  5
1DC
330
1F
100
AcDbEntity
  8
LAY-10
  6
CONTINUOUS
 62
     7
100
AcDbLine
 10
659.6526539615168
 20
153.3000000000011
 30
0.0
 11
671.9473460386164
 21
153.3000000000011
 31
0.0
  0
LINE
  5
1DD
330
1F
100
AcDbEntity
  8
LAY-10
  6
CONTINUOUS
 62
     7
100
AcDbLine
 10
659.4763269808084
 20
154.3000000000011
 30
0.0
 11
672.1236730193243
 21
154.3000000000011
 31
0.0
  0
LINE
  5
1DE
330
1F
100
AcDbEntity
  8
LAY-10
  6
CONTINUOUS
 62
     7
100
AcDbLine
 10
710.5367301929475
 20
145.3000000000011
 30
0.0
 11
701.0632698071852
 21
145.3000000000011
 31
0.0
  0
LINE
  5
1DF
330
1F
100
AcDbEntity
  8
LAY-10
  6
CONTINUOUS
 62
     7
100
AcDbLine
 10
699.6526539615159
 20
153.3000000000011
 30
0.0
 11
711.9473460386164
 21
153.3000000000011
 31
0.0
  0
LINE
  5
1E0
330
1F
100
AcDbEntity
  8
LAY-10
  6
CONTINUOUS
 62
     7
100
AcDbLine
 10
699.4763269808075
 20
154.3000000000011
 30
0.0
 11
712.1236730193243
 21
154.3000000000011
 31
0.0
  0
LINE
  5
1E1
330
1F
100
AcDbEntity
  8
LAY-10
  6
CONTINUOUS
 62
     7
100
AcDbLine
 10
750.5367301929475
 20
145.3000000000011
 30
0.0
 11
741.0632698071852
 21
145.3000000000011
 31
0.0
  0
LINE
  5
1E2
330
1F
100
AcDbEntity
  8
LAY-10
  6
CONTINUOUS
 62
     7
100
AcDbLine
 10
739.6526539615163
 20
153.3000000000011
 30
0.0
 11
751.9473460386159
 21
153.3000000000011
 31
0.0
  0
LINE
  5
1E3
330
1F
100
AcDbEntity
  8
LAY-10
  6
CONTINUOUS
 62
     7
100
AcDbLine
 10
739.4763269808075
 20
154.3000000000011
 30
0.0
 11
752.1236730193243
 21
154.3000000000011
 31
0.0
  0
LINE
  5
1E4
330
1F
100
AcDbEntity
  8
LAY-10
  6
CONTINUOUS
 62
     7
100
AcDbLine
 10
737.8000000000686
 20
155.3000000000414
 30
0.0
 11
737.8000000000686
 21
157.0490012811049
 31
0.0
  0
LINE
  5
1E5
330
1F
100
AcDbEntity
  8
LAY-10
  6
CONTINUOUS
 62
     7
100
AcDbLine
 10
763.8000000000686
 20
155.3000000000414
 30
0.0
 11
763.8000000000686
 21
279.3000000000018
 31
0.0
  0
LINE
  5
1E6
330
1F
100
AcDbEntity
  8
LAY-10
  6
CONTINUOUS
 62
     7
100
AcDbLine
 10
567.8000000000686
 20
272.3824640741417
 30
0.0
 11
566.1144466758662
 21
272.3824640741417
 31
0.0
  0
ARC
  5
1E7
330
1F
100
AcDbEntity
  8
LAY-10
  6
CONTINUOUS
 62
     7
100
AcDbCircle
 10
568.1144466758662
 20
254.3000000000919
 30
0.0
 40
2.0
100
AcDbArc
 50
99.04576539741234
 51
180.0
  0
ARC
  5
1E8
330
1F
100
AcDbEntity
  8
LAY-10
  6
CONTINUOUS
 62
     7
100
AcDbCircle
 10
568.4813011308672
 20
251.3000000001024
 30
0.0
 40
2.0
100
AcDbArc
 50
109.9165149769157
 51
180.0
  0
ARC
  5
1E9
330
1F
100
AcDbEntity
  8
LAY-10
  6
CONTINUOUS
 62
     7
100
AcDbCircle
 10
763.1186988692664
 20
251.3000000001024
 30
0.0
 40
2.0
100
AcDbArc
 50
0.0
 51
70.08348502334808
  0
ARC
  5
1EA
330
1F
100
AcDbEntity
  8
LAY-10
  6
CONTINUOUS
 62
     7
100
AcDbCircle
 10
763.4855533242669
 20
254.3000000000919
 30
0.0
 40
2.0
100
AcDbArc
 50
0.0
 51
80.95423460245595
  0
LINE
  5
1EB
330
1F
100
AcDbEntity
  8
LAY-10
  6
CONTINUOUS
 62
     7
100
AcDbLine
 10
763.8000000000686
 20
272.3824640741417
 30
0.0
 11
765.4855533242664
 21
272.3824640741417
 31
0.0
  0
LINE
  5
1EC
330
1F
100
AcDbEntity
  8
LAY-10
  6
CONTINUOUS
 62
     7
100
AcDbLine
 10
755.8000000000686
 20
155.2999999999891
 30
0.0
 11
755.8000000000686
 21
162.0928932188156
 31
0.0
  0
LINE
  5
1ED
330
1F
100
AcDbEntity
  8
LAY-10
  6
CONTINUOUS
 62
     7
100
AcDbLine
 10
726.8000000000686
 20
155.2999999999891
 30
0.0
 11
726.8000000000686
 21
156.6265030514642
 31
0.0
  0
LINE
  5
1EE
330
1F
100
AcDbEntity
  8
LAY-10
  6
CONTINUOUS
 62
     7
100
AcDbLine
 10
718.8000000000686
 20
155.2999999999891
 30
0.0
 11
718.8000000000686
 21
161.6689152124644
 31
0.0
  0
LINE
  5
1EF
330
1F
100
AcDbEntity
  8
LAY-10
  6
CONTINUOUS
 62
     7
100
AcDbLine
 10
688.8000000000686
 20
155.2999999999891
 30
0.0
 11
688.8000000000686
 21
162.0928932188156
 31
0.0
  0
LINE
  5
1F0
330
1F
100
AcDbEntity
  8
LAY-10
  6
CONTINUOUS
 62
     7
100
AcDbLine
 10
680.8000000000686
 20
155.2999999999891
 30
0.0
 11
680.8000000000686
 21
162.0928932188156
 31
0.0
  0
LINE
  5
1F1
330
1F
100
AcDbEntity
  8
LAY-10
  6
CONTINUOUS
 62
     7
100
AcDbLine
 10
650.8000000000686
 20
155.2999999999891
 30
0.0
 11
650.8000000000686
 21
162.0928932188156
 31
0.0
  0
LINE
  5
1F2
330
1F
100
AcDbEntity
  8
LAY-10
  6
CONTINUOUS
 62
     7
100
AcDbLine
 10
642.8000000000686
 20
155.2999999999891
 30
0.0
 11
642.8000000000686
 21
162.0928932188156
 31
0.0
  0
LINE
  5
1F3
330
1F
100
AcDbEntity
  8
LAY-10
  6
CONTINUOUS
 62
     7
100
AcDbLine
 10
612.8000000000686
 20
155.2999999999891
 30
0.0
 11
612.8000000000686
 21
161.6689152124644
 31
0.0
  0
LINE
  5
1F4
330
1F
100
AcDbEntity
  8
LAY-10
  6
CONTINUOUS
 62
     7
100
AcDbLine
 10
604.8000000000686
 20
155.2999999999891
 30
0.0
 11
604.8000000000686
 21
156.6265030514642
 31
0.0
  0
LINE
  5
1F5
330
1F
100
AcDbEntity
  8
LAY-10
  6
CONTINUOUS
 62
     7
100
AcDbLine
 10
718.8000000000686
 20
264.3000000000019
 30
0.0
 11
718.8000000000686
 21
178.4163661617761
 31
0.0
  0
LINE
  5
1F6
330
1F
100
AcDbEntity
  8
LAY-10
  6
CONTINUOUS
 62
     7
100
AcDbLine
 10
575.8000000000686
 20
155.2999999999891
 30
0.0
 11
575.8000000000686
 21
162.0928932188156
 31
0.0
  0
ARC
  5
1F7
330
1F
100
AcDbEntity
  8
LAY-10
  6
CONTINUOUS
 62
     7
100
AcDbCircle
 10
750.8000000000723
 20
262.3000000000019
 30
0.0
 40
6.000000000000004
100
AcDbArc
 50
5.739170477269606
 51
174.2608295227303
  0
ARC
  5
1F8
330
1F
100
AcDbEntity
  8
LAY-10
  6
CONTINUOUS
 62
     7
100
AcDbCircle
 10
750.8000000000723
 20
262.3000000000019
 30
0.0
 40
6.000000000000004
100
AcDbArc
 50
185.7391704772666
 51
354.2608295227336
  0
ARC
  5
1F9
330
1F
100
AcDbEntity
  8
LAY-10
  6
CONTINUOUS
 62
     7
100
AcDbCircle
 10
750.8000000000723
 20
262.3000000000019
 30
0.0
 40
5.0
100
AcDbArc
 50
173.1078974206501
 51
186.8921025793461
  0
ARC
  5
1FA
330
1F
100
AcDbEntity
  8
LAY-10
  6
CONTINUOUS
 62
     7
100
AcDbCircle
 10
750.8000000000723
 20
262.3000000000019
 30
0.0
 40
5.0
100
AcDbArc
 50
353.1078974206544
 51
6.892102579349928
  0
LINE
  5
1FB
330
1F
100
AcDbEntity
  8
LAY-10
  6
CONTINUOUS
 62
     7
100
AcDbLine
 10
744.8300753774331
 20
261.700000000002
 30
0.0
 11
756.7699246227123
 21
261.700000000002
 31
0.0
  0
LINE
  5
1FC
330
1F
100
AcDbEntity
  8
LAY-10
  6
CONTINUOUS
 62
     7
100
AcDbLine
 10
744.8300753774331
 20
262.9000000000023
 30
0.0
 11
756.7699246227123
 21
262.9000000000023
 31
0.0
  0
ARC
  5
1FD
330
1F
100
AcDbEntity
  8
LAY-10
  6
CONTINUOUS
 62
     7
100
AcDbCircle
 10
580.8000000000723
 20
262.3000000000019
 30
0.0
 40
6.000000000000004
100
AcDbArc
 50
5.739170477269719
 51
174.2608295227305
  0
ARC
  5
1FE
330
1F
100
AcDbEntity
  8
LAY-10
  6
CONTINUOUS
 62
     7
100
AcDbCircle
 10
580.8000000000723
 20
262.3000000000019
 30
0.0
 40
6.000000000000004
100
AcDbArc
 50
185.7391704772664
 51
354.2608295227336
  0
ARC
  5
1FF
330
1F
100
AcDbEntity
  8
LAY-10
  6
CONTINUOUS
 62
     7
100
AcDbCircle
 10
580.8000000000723
 20
262.3000000000019
 30
0.0
 40
5.0
100
AcDbArc
 50
173.1078974206501
 51
186.8921025793458
  0
ARC
  5
200
330
1F
100
AcDbEntity
  8
LAY-10
  6
CONTINUOUS
 62
     7
100
AcDbCircle
 10
580.8000000000723
 20
262.3000000000019
 30
0.0
 40
5.0
100
AcDbArc
 50
353.1078974206541
 51
6.892102579349928
  0
LINE
  5
201
330
1F
100
AcDbEntity
  8
LAY-10
  6
CONTINUOUS
 62
     7
100
AcDbLine
 10
574.8300753774331
 20
261.700000000002
 30
0.0
 11
586.7699246227123
 21
261.700000000002
 31
0.0
  0
LINE
  5
202
330
1F
100
AcDbEntity
  8
LAY-10
  6
CONTINUOUS
 62
     7
100
AcDbLine
 10
574.8300753774331
 20
262.9000000000023
 30
0.0
 11
586.7699246227123
 21
262.9000000000023
 31
0.0
  0
LINE
  5
203
330
1F
100
AcDbEntity
  8
LAY-10
  6
CONTINUOUS
 62
     7
100
AcDbLine
 10
715.4526043301573
 20
160.5376843825073
 30
0.0
 11
710.8000000000686
 21
160.5376843825073
 31
0.0
  0
ARC
  5
204
330
1F
100
AcDbEntity
  8
LAY-10
  6
CONTINUOUS
 62
     7
100
AcDbCircle
 10
715.4526043301573
 20
158.5376843825073
 30
0.0
 40
2.0
100
AcDbArc
 50
40.29550266807583
 51
90.00000000000001
  0
ARC
  5
205
330
1F
100
AcDbEntity
  8
LAY-10
  6
CONTINUOUS
 62
     7
100
AcDbCircle
 10
729.1815480577582
 20
170.1788228201499
 30
0.0
 40
16.0
100
AcDbArc
 50
220.2955026680712
 51
226.5387543961328
  0
ARC
  5
206
330
1F
100
AcDbEntity
  8
LAY-10
  6
CONTINUOUS
 62
     7
100
AcDbCircle
 10
716.8000000000686
 20
157.113706376156
 30
0.0
 40
2.0
100
AcDbArc
 50
0.0
 51
46.53875439612382
  0
ARC
  5
207
330
1F
100
AcDbEntity
  8
LAY-10
  6
CONTINUOUS
 62
     7
100
AcDbCircle
 10
716.8000000000686
 20
178.4163661617761
 30
0.0
 40
2.0
100
AcDbArc
 50
313.4612456038763
 51
0.0
  0
ARC
  5
208
330
1F
100
AcDbEntity
  8
LAY-10
  6
CONTINUOUS
 62
     7
100
AcDbCircle
 10
729.1815480577582
 20
165.351249717782
 30
0.0
 40
16.0
100
AcDbArc
 50
133.4612456038672
 51
139.7044973319188
  0
ARC
  5
209
330
1F
100
AcDbEntity
  8
LAY-10
  6
CONTINUOUS
 62
     7
100
AcDbCircle
 10
715.4526043301596
 20
176.9923881554271
 30
0.0
 40
2.0
100
AcDbArc
 50
270.0
 51
319.7044973319105
  0
LINE
  5
20A
330
1F
100
AcDbEntity
  8
LAY-10
  6
CONTINUOUS
 62
     7
100
AcDbLine
 10
710.8000000000686
 20
174.9923881554271
 30
0.0
 11
715.4526043301596
 21
174.9923881554271
 31
0.0
  0
ARC
  5
20B
330
1F
100
AcDbEntity
  8
LAY-10
  6
CONTINUOUS
 62
     7
100
AcDbCircle
 10
715.4526043301573
 20
163.0928932188156
 30
0.0
 40
2.0
100
AcDbArc
 50
40.29550266807583
 51
90.00000000000001
  0
ARC
  5
20C
330
1F
100
AcDbEntity
  8
LAY-10
  6
CONTINUOUS
 62
     7
100
AcDbCircle
 10
729.1815480577582
 20
174.7340316564583
 30
0.0
 40
16.0
100
AcDbArc
 50
220.2955026680712
 51
226.5387543961328
  0
LINE
  5
20D
330
1F
100
AcDbEntity
  8
LAY-10
  6
CONTINUOUS
 62
     7
100
AcDbLine
 10
710.8000000000686
 20
165.0928932188156
 30
0.0
 11
715.4526043301573
 21
165.0928932188156
 31
0.0
  0
ARC
  5
20E
330
1F
100
AcDbEntity
  8
LAY-10
  6
CONTINUOUS
 62
     7
100
AcDbCircle
 10
716.8000000000686
 20
161.6689152124644
 30
0.0
 40
2.0
100
AcDbArc
 50
0.0
 51
46.53875439612382
  0
ARC
  5
20F
330
1F
100
AcDbEntity
  8
LAY-10
  6
CONTINUOUS
 62
     7
100
AcDbCircle
 10
728.8000000000686
 20
156.6265030514642
 30
0.0
 40
2.0
100
AcDbArc
 50
82.22106386469355
 51
180.0
  0
ARC
  5
210
330
1F
100
AcDbEntity
  8
LAY-10
  6
CONTINUOUS
 62
     7
100
AcDbCircle
 10
731.2363239560084
 20
174.4608610601427
 30
0.0
 40
16.0
100
AcDbArc
 50
262.2210638646977
 51
284.6869458651072
  0
ARC
  5
211
330
1F
100
AcDbEntity
  8
LAY-10
  6
CONTINUOUS
 62
     7
100
AcDbCircle
 10
735.8000000000686
 20
157.0490012811049
 30
0.0
 40
2.0
100
AcDbArc
 50
0.0
 51
104.6869458651083
  0
ARC
  5
212
330
1F
100
AcDbEntity
  8
LAY-10
  6
CONTINUOUS
 62
     7
100
AcDbCircle
 10
735.8000000000686
 20
183.0362800931355
 30
0.0
 40
2.0
100
AcDbArc
 50
255.3130541348919
 51
0.0
  0
ARC
  5
213
330
1F
100
AcDbEntity
  8
LAY-10
  6
CONTINUOUS
 62
     7
100
AcDbCircle
 10
731.2363239560093
 20
165.6244203140978
 30
0.0
 40
16.0
100
AcDbArc
 50
75.31305413489419
 51
97.77893613530357
  0
ARC
  5
214
330
1F
100
AcDbEntity
  8
LAY-10
  6
CONTINUOUS
 62
     7
100
AcDbCircle
 10
728.8000000000686
 20
183.4587783227763
 30
0.0
 40
2.0
100
AcDbArc
 50
180.0
 51
277.7789361353064
  0
ARC
  5
215
330
1F
100
AcDbEntity
  8
LAY-10
  6
CONTINUOUS
 62
     7
100
AcDbCircle
 10
710.8000000000686
 20
157.5376843825068
 30
0.0
 40
3.000000000000003
100
AcDbArc
 50
90.00000000000001
 51
180.0
  0
ARC
  5
216
330
1F
100
AcDbEntity
  8
LAY-10
  6
CONTINUOUS
 62
     7
100
AcDbCircle
 10
710.8000000000686
 20
162.0928932188156
 30
0.0
 40
3.000000000000003
100
AcDbArc
 50
90.00000000000001
 51
180.0
  0
ARC
  5
217
330
1F
100
AcDbEntity
  8
LAY-10
  6
CONTINUOUS
 62
     7
100
AcDbCircle
 10
710.8000000000686
 20
177.9923881554276
 30
0.0
 40
3.000000000000003
100
AcDbArc
 50
180.0
 51
270.0
  0
LINE
  5
218
330
1F
100
AcDbEntity
  8
LAY-10
  6
CONTINUOUS
 62
     7
100
AcDbLine
 10
718.8000000000686
 20
185.7852813742405
 30
0.0
 11
726.8000000000686
 21
185.7852813742405
 31
0.0
  0
ARC
  5
219
330
1F
100
AcDbEntity
  8
LAY-10
  6
CONTINUOUS
 62
     7
100
AcDbCircle
 10
616.1473956699799
 20
158.5376843825073
 30
0.0
 40
2.0
100
AcDbArc
 50
90.00000000000001
 51
139.7044973319242
  0
ARC
  5
21A
330
1F
100
AcDbEntity
  8
LAY-10
  6
CONTINUOUS
 62
     7
100
AcDbCircle
 10
602.4184519423791
 20
170.1788228201499
 30
0.0
 40
16.0
100
AcDbArc
 50
313.4612456038708
 51
319.704497331931
  0
ARC
  5
21B
330
1F
100
AcDbEntity
  8
LAY-10
  6
CONTINUOUS
 62
     7
100
AcDbCircle
 10
614.8000000000686
 20
157.113706376156
 30
0.0
 40
2.0
100
AcDbArc
 50
133.4612456038711
 51
180.0
  0
ARC
  5
21C
330
1F
100
AcDbEntity
  8
LAY-10
  6
CONTINUOUS
 62
     7
100
AcDbCircle
 10
614.8000000000686
 20
178.4163661617761
 30
0.0
 40
2.0
100
AcDbArc
 50
180.0
 51
226.5387543961296
  0
ARC
  5
21D
330
1F
100
AcDbEntity
  8
LAY-10
  6
CONTINUOUS
 62
     7
100
AcDbCircle
 10
616.1473956699786
 20
176.9923881554271
 30
0.0
 40
2.0
100
AcDbArc
 50
220.2955026680897
 51
270.0
  0
ARC
  5
21E
330
1F
100
AcDbEntity
  8
LAY-10
  6
CONTINUOUS
 62
     7
100
AcDbCircle
 10
616.1473956699799
 20
163.0928932188156
 30
0.0
 40
2.0
100
AcDbArc
 50
90.00000000000001
 51
139.7044973319242
  0
ARC
  5
21F
330
1F
100
AcDbEntity
  8
LAY-10
  6
CONTINUOUS
 62
     7
100
AcDbCircle
 10
614.8000000000686
 20
161.6689152124644
 30
0.0
 40
2.0
100
AcDbArc
 50
133.4612456038641
 51
180.0
  0
ARC
  5
220
330
1F
100
AcDbEntity
  8
LAY-10
  6
CONTINUOUS
 62
     7
100
AcDbCircle
 10
602.8000000000686
 20
156.6265030514642
 30
0.0
 40
2.0
100
AcDbArc
 50
0.0
 51
97.77893613530975
  0
ARC
  5
221
330
1F
100
AcDbEntity
  8
LAY-10
  6
CONTINUOUS
 62
     7
100
AcDbCircle
 10
595.8000000000682
 20
157.0490012811049
 30
0.0
 40
2.0
100
AcDbArc
 50
75.31305413488163
 51
180.0
  0
ARC
  5
222
330
1F
100
AcDbEntity
  8
LAY-10
  6
CONTINUOUS
 62
     7
100
AcDbCircle
 10
595.8000000000682
 20
183.0362800931355
 30
0.0
 40
2.0
100
AcDbArc
 50
180.0
 51
284.6869458651188
  0
ARC
  5
223
330
1F
100
AcDbEntity
  8
LAY-10
  6
CONTINUOUS
 62
     7
100
AcDbCircle
 10
602.8000000000686
 20
183.4587783227763
 30
0.0
 40
2.0
100
AcDbArc
 50
262.2210638646904
 51
0.0
  0
ARC
  5
224
330
1F
100
AcDbEntity
  8
LAY-10
  6
CONTINUOUS
 62
     7
100
AcDbCircle
 10
602.4184519423791
 20
165.351249717782
 30
0.0
 40
16.0
100
AcDbArc
 50
40.29550266808019
 51
46.5387543961327
  0
ARC
  5
225
330
1F
100
AcDbEntity
  8
LAY-10
  6
CONTINUOUS
 62
     7
100
AcDbCircle
 10
602.4184519423791
 20
174.7340316564583
 30
0.0
 40
16.0
100
AcDbArc
 50
313.4612456038699
 51
319.704497331931
  0
ARC
  5
226
330
1F
100
AcDbEntity
  8
LAY-10
  6
CONTINUOUS
 62
     7
100
AcDbCircle
 10
600.3636760441289
 20
174.4608610601427
 30
0.0
 40
16.0
100
AcDbArc
 50
255.3130541348942
 51
277.7789361353036
  0
ARC
  5
227
330
1F
100
AcDbEntity
  8
LAY-10
  6
CONTINUOUS
 62
     7
100
AcDbCircle
 10
600.3636760441289
 20
165.6244203140978
 30
0.0
 40
16.0
100
AcDbArc
 50
82.22106386469648
 51
104.6869458651058
  0
LINE
  5
228
330
1F
100
AcDbEntity
  8
LAY-10
  6
CONTINUOUS
 62
     7
100
AcDbLine
 10
575.8000000000686
 20
185.7852813742405
 30
0.0
 11
567.8000000000686
 21
185.7852813742405
 31
0.0
  0
LINE
  5
229
330
1F
100
AcDbEntity
  8
LAY-10
  6
CONTINUOUS
 62
     7
100
AcDbLine
 10
578.8000000000686
 20
160.5376843825073
 30
0.0
 11
582.8000000000686
 21
160.5376843825068
 31
0.0
  0
ARC
  5
22A
330
1F
100
AcDbEntity
  8
LAY-10
  6
CONTINUOUS
 62
     7
100
AcDbCircle
 10
578.8000000000686
 20
157.5376843825071
 30
0.0
 40
3.000000000000003
100
AcDbArc
 50
90.00000000000001
 51
180.0
  0
LINE
  5
22B
330
1F
100
AcDbEntity
  8
LAY-10
  6
CONTINUOUS
 62
     7
100
AcDbLine
 10
582.8000000000686
 20
165.0928932188154
 30
0.0
 11
578.8000000000686
 21
165.0928932188156
 31
0.0
  0
ARC
  5
22C
330
1F
100
AcDbEntity
  8
LAY-10
  6
CONTINUOUS
 62
     7
100
AcDbCircle
 10
578.8000000000686
 20
162.0928932188156
 30
0.0
 40
3.000000000000003
100
AcDbArc
 50
90.00000000000001
 51
180.0
  0
LINE
  5
22D
330
1F
100
AcDbEntity
  8
LAY-10
  6
CONTINUOUS
 62
     7
100
AcDbLine
 10
593.8000000000686
 20
264.3000000000014
 30
0.0
 11
593.8000000000686
 21
183.0362800931355
 31
0.0
  0
LINE
  5
22E
330
1F
100
AcDbEntity
  8
LAY-10
  6
CONTINUOUS
 62
     7
100
AcDbLine
 10
604.8000000000686
 20
264.3000000000014
 30
0.0
 11
604.8000000000686
 21
183.4587783227763
 31
0.0
  0
ARC
  5
22F
330
1F
100
AcDbEntity
  8
LAY-10
  6
CONTINUOUS
 62
     7
100
AcDbCircle
 10
582.8000000000686
 20
157.5376843825066
 30
0.0
 40
3.000000000000003
100
AcDbArc
 50
0.0
 51
90.00000000000001
  0
ARC
  5
230
330
1F
100
AcDbEntity
  8
LAY-10
  6
CONTINUOUS
 62
     7
100
AcDbCircle
 10
582.8000000000686
 20
162.0928932188152
 30
0.0
 40
3.000000000000003
100
AcDbArc
 50
0.0
 51
90.00000000000001
  0
ARC
  5
231
330
1F
100
AcDbEntity
  8
LAY-10
  6
CONTINUOUS
 62
     7
100
AcDbCircle
 10
578.8000000000686
 20
177.9923881554267
 30
0.0
 40
3.000000000000003
100
AcDbArc
 50
180.0
 51
270.0
  0
LINE
  5
232
330
1F
100
AcDbEntity
  8
LAY-10
  6
CONTINUOUS
 62
     7
100
AcDbLine
 10
575.8000000000686
 20
245.3000000000016
 30
0.0
 11
575.8000000000686
 21
177.9923881554267
 31
0.0
  0
LINE
  5
233
330
1F
100
AcDbEntity
  8
LAY-10
  6
CONTINUOUS
 62
     7
100
AcDbLine
 10
582.8000000000686
 20
174.9923881554267
 30
0.0
 11
578.8000000000686
 21
174.9923881554267
 31
0.0
  0
ARC
  5
234
330
1F
100
AcDbEntity
  8
LAY-10
  6
CONTINUOUS
 62
     7
100
AcDbCircle
 10
582.8000000000686
 20
177.9923881554269
 30
0.0
 40
3.000000000000003
100
AcDbArc
 50
270.0
 51
0.0
  0
LINE
  5
235
330
1F
100
AcDbEntity
  8
LAY-10
  6
CONTINUOUS
 62
     7
100
AcDbLine
 10
593.8000000000695
 20
185.7852813742405
 30
0.0
 11
585.8000000000686
 21
185.7852813742405
 31
0.0
  0
LINE
  5
236
330
1F
100
AcDbEntity
  8
LAY-10
  6
CONTINUOUS
 62
     7
100
AcDbLine
 10
585.8000000000686
 20
245.3000000000016
 30
0.0
 11
585.8000000000686
 21
177.9923881554269
 31
0.0
  0
ARC
  5
237
330
1F
100
AcDbEntity
  8
LAY-10
  6
CONTINUOUS
 62
     7
100
AcDbCircle
 10
577.8000000000686
 20
245.3000000000016
 30
0.0
 40
2.0
100
AcDbArc
 50
90.00000000000001
 51
180.0
  0
LINE
  5
238
330
1F
100
AcDbEntity
  8
LAY-10
  6
CONTINUOUS
 62
     7
100
AcDbLine
 10
577.8000000000686
 20
247.3000000000016
 30
0.0
 11
583.8000000000686
 21
247.3000000000016
 31
0.0
  0
ARC
  5
239
330
1F
100
AcDbEntity
  8
LAY-10
  6
CONTINUOUS
 62
     7
100
AcDbCircle
 10
583.8000000000686
 20
245.3000000000016
 30
0.0
 40
2.0
100
AcDbArc
 50
0.0
 51
90.00000000000001
  0
LINE
  5
23A
330
1F
100
AcDbEntity
  8
LAY-10
  6
CONTINUOUS
 62
     7
100
AcDbLine
 10
601.8000000000686
 20
267.3000000000014
 30
0.0
 11
596.8000000000686
 21
267.3000000000014
 31
0.0
  0
ARC
  5
23B
330
1F
100
AcDbEntity
  8
LAY-10
  6
CONTINUOUS
 62
     7
100
AcDbCircle
 10
596.8000000000686
 20
264.3000000000014
 30
0.0
 40
3.000000000000003
100
AcDbArc
 50
90.00000000000001
 51
180.0
  0
ARC
  5
23C
330
1F
100
AcDbEntity
  8
LAY-10
  6
CONTINUOUS
 62
     7
100
AcDbCircle
 10
601.8000000000686
 20
264.3000000000014
 30
0.0
 40
3.000000000000003
100
AcDbArc
 50
0.0
 51
90.00000000000001
  0
LINE
  5
23D
330
1F
100
AcDbEntity
  8
LAY-10
  6
CONTINUOUS
 62
     7
100
AcDbLine
 10
612.8000000000686
 20
185.7852813742405
 30
0.0
 11
604.8000000000686
 21
185.7852813742405
 31
0.0
  0
LINE
  5
23E
330
1F
100
AcDbEntity
  8
LAY-10
  6
CONTINUOUS
 62
     7
100
AcDbLine
 10
631.8000000000686
 20
185.7852813742407
 30
0.0
 11
623.8000000000686
 21
185.7852813742407
 31
0.0
  0
LINE
  5
23F
330
1F
100
AcDbEntity
  8
LAY-10
  6
CONTINUOUS
 62
     7
100
AcDbLine
 10
620.8000000000686
 20
267.3000000000019
 30
0.0
 11
615.8000000000686
 21
267.3000000000019
 31
0.0
  0
LINE
  5
240
330
1F
100
AcDbEntity
  8
LAY-10
  6
CONTINUOUS
 62
     7
100
AcDbLine
 10
612.8000000000686
 20
264.3000000000019
 30
0.0
 11
612.8000000000686
 21
178.4163661617761
 31
0.0
  0
ARC
  5
241
330
1F
100
AcDbEntity
  8
LAY-10
  6
CONTINUOUS
 62
     7
100
AcDbCircle
 10
615.8000000000686
 20
264.3000000000019
 30
0.0
 40
3.000000000000003
100
AcDbArc
 50
90.00000000000001
 51
180.0
  0
LINE
  5
242
330
1F
100
AcDbEntity
  8
LAY-10
  6
CONTINUOUS
 62
     7
100
AcDbLine
 10
623.8000000000686
 20
264.3000000000019
 30
0.0
 11
623.8000000000686
 21
177.9923881554276
 31
0.0
  0
ARC
  5
243
330
1F
100
AcDbEntity
  8
LAY-10
  6
CONTINUOUS
 62
     7
100
AcDbCircle
 10
620.8000000000686
 20
264.3000000000019
 30
0.0
 40
3.000000000000003
100
AcDbArc
 50
0.0
 51
90.00000000000001
  0
LINE
  5
244
330
1F
100
AcDbEntity
  8
LAY-10
  6
CONTINUOUS
 62
     7
100
AcDbLine
 10
616.1473956699799
 20
160.5376843825073
 30
0.0
 11
620.8000000000686
 21
160.5376843825073
 31
0.0
  0
ARC
  5
245
330
1F
100
AcDbEntity
  8
LAY-10
  6
CONTINUOUS
 62
     7
100
AcDbCircle
 10
620.8000000000686
 20
157.5376843825068
 30
0.0
 40
3.000000000000003
100
AcDbArc
 50
0.0
 51
90.00000000000001
  0
LINE
  5
246
330
1F
100
AcDbEntity
  8
LAY-10
  6
CONTINUOUS
 62
     7
100
AcDbLine
 10
620.8000000000686
 20
165.0928932188156
 30
0.0
 11
616.1473956699799
 21
165.0928932188156
 31
0.0
  0
ARC
  5
247
330
1F
100
AcDbEntity
  8
LAY-10
  6
CONTINUOUS
 62
     7
100
AcDbCircle
 10
620.8000000000686
 20
162.0928932188156
 30
0.0
 40
3.000000000000003
100
AcDbArc
 50
0.0
 51
90.00000000000001
  0
LINE
  5
248
330
1F
100
AcDbEntity
  8
LAY-10
  6
CONTINUOUS
 62
     7
100
AcDbLine
 10
620.8000000000686
 20
174.9923881554271
 30
0.0
 11
616.1473956699786
 21
174.9923881554271
 31
0.0
  0
ARC
  5
249
330
1F
100
AcDbEntity
  8
LAY-10
  6
CONTINUOUS
 62
     7
100
AcDbCircle
 10
620.8000000000686
 20
177.9923881554276
 30
0.0
 40
3.000000000000003
100
AcDbArc
 50
270.0
 51
0.0
  0
LINE
  5
24A
330
1F
100
AcDbEntity
  8
LAY-10
  6
CONTINUOUS
 62
     7
100
AcDbLine
 10
639.8000000000686
 20
267.3000000000019
 30
0.0
 11
634.8000000000686
 21
267.3000000000019
 31
0.0
  0
LINE
  5
24B
330
1F
100
AcDbEntity
  8
LAY-10
  6
CONTINUOUS
 62
     7
100
AcDbLine
 10
631.8000000000686
 20
264.3000000000019
 30
0.0
 11
631.8000000000686
 21
177.9923881554276
 31
0.0
  0
ARC
  5
24C
330
1F
100
AcDbEntity
  8
LAY-10
  6
CONTINUOUS
 62
     7
100
AcDbCircle
 10
634.8000000000686
 20
264.3000000000019
 30
0.0
 40
3.000000000000003
100
AcDbArc
 50
90.00000000000001
 51
180.0
  0
LINE
  5
24D
330
1F
100
AcDbEntity
  8
LAY-10
  6
CONTINUOUS
 62
     7
100
AcDbLine
 10
642.8000000000686
 20
264.3000000000019
 30
0.0
 11
642.8000000000686
 21
177.9923881554276
 31
0.0
  0
ARC
  5
24E
330
1F
100
AcDbEntity
  8
LAY-10
  6
CONTINUOUS
 62
     7
100
AcDbCircle
 10
639.8000000000686
 20
264.3000000000019
 30
0.0
 40
3.000000000000003
100
AcDbArc
 50
0.0
 51
90.00000000000001
  0
LINE
  5
24F
330
1F
100
AcDbEntity
  8
LAY-10
  6
CONTINUOUS
 62
     7
100
AcDbLine
 10
634.8000000000686
 20
160.5376843825073
 30
0.0
 11
639.8000000000686
 21
160.5376843825073
 31
0.0
  0
ARC
  5
250
330
1F
100
AcDbEntity
  8
LAY-10
  6
CONTINUOUS
 62
     7
100
AcDbCircle
 10
639.8000000000686
 20
157.5376843825071
 30
0.0
 40
3.000000000000003
100
AcDbArc
 50
0.0
 51
90.00000000000001
  0
ARC
  5
251
330
1F
100
AcDbEntity
  8
LAY-10
  6
CONTINUOUS
 62
     7
100
AcDbCircle
 10
634.8000000000686
 20
157.5376843825071
 30
0.0
 40
3.000000000000003
100
AcDbArc
 50
90.00000000000001
 51
180.0
  0
LINE
  5
252
330
1F
100
AcDbEntity
  8
LAY-10
  6
CONTINUOUS
 62
     7
100
AcDbLine
 10
639.8000000000686
 20
165.0928932188156
 30
0.0
 11
634.8000000000686
 21
165.0928932188156
 31
0.0
  0
LINE
  5
253
330
1F
100
AcDbEntity
  8
LAY-10
  6
CONTINUOUS
 62
     7
100
AcDbLine
 10
631.8000000000686
 20
154.3000000000011
 30
0.0
 11
631.8000000000686
 21
162.0928932188156
 31
0.0
  0
ARC
  5
254
330
1F
100
AcDbEntity
  8
LAY-10
  6
CONTINUOUS
 62
     7
100
AcDbCircle
 10
634.8000000000686
 20
162.0928932188156
 30
0.0
 40
3.000000000000003
100
AcDbArc
 50
90.00000000000001
 51
180.0
  0
ARC
  5
255
330
1F
100
AcDbEntity
  8
LAY-10
  6
CONTINUOUS
 62
     7
100
AcDbCircle
 10
639.8000000000686
 20
162.0928932188156
 30
0.0
 40
3.000000000000003
100
AcDbArc
 50
0.0
 51
90.00000000000001
  0
LINE
  5
256
330
1F
100
AcDbEntity
  8
LAY-10
  6
CONTINUOUS
 62
     7
100
AcDbLine
 10
650.8000000000686
 20
185.7852813742407
 30
0.0
 11
642.8000000000686
 21
185.7852813742407
 31
0.0
  0
LINE
  5
257
330
1F
100
AcDbEntity
  8
LAY-10
  6
CONTINUOUS
 62
     7
100
AcDbLine
 10
639.8000000000686
 20
174.9923881554274
 30
0.0
 11
634.8000000000686
 21
174.9923881554274
 31
0.0
  0
ARC
  5
258
330
1F
100
AcDbEntity
  8
LAY-10
  6
CONTINUOUS
 62
     7
100
AcDbCircle
 10
634.8000000000686
 20
177.9923881554276
 30
0.0
 40
3.000000000000003
100
AcDbArc
 50
180.0
 51
270.0
  0
ARC
  5
259
330
1F
100
AcDbEntity
  8
LAY-10
  6
CONTINUOUS
 62
     7
100
AcDbCircle
 10
639.8000000000686
 20
177.9923881554276
 30
0.0
 40
3.000000000000003
100
AcDbArc
 50
270.0
 51
0.0
  0
LINE
  5
25A
330
1F
100
AcDbEntity
  8
LAY-10
  6
CONTINUOUS
 62
     7
100
AcDbLine
 10
658.8000000000682
 20
267.3000000000019
 30
0.0
 11
653.8000000000686
 21
267.3000000000019
 31
0.0
  0
LINE
  5
25B
330
1F
100
AcDbEntity
  8
LAY-10
  6
CONTINUOUS
 62
     7
100
AcDbLine
 10
650.8000000000686
 20
264.3000000000019
 30
0.0
 11
650.8000000000686
 21
177.9923881554276
 31
0.0
  0
ARC
  5
25C
330
1F
100
AcDbEntity
  8
LAY-10
  6
CONTINUOUS
 62
     7
100
AcDbCircle
 10
653.8000000000686
 20
264.3000000000019
 30
0.0
 40
3.000000000000003
100
AcDbArc
 50
90.00000000000001
 51
180.0
  0
LINE
  5
25D
330
1F
100
AcDbEntity
  8
LAY-10
  6
CONTINUOUS
 62
     7
100
AcDbLine
 10
661.8000000000686
 20
264.3000000000019
 30
0.0
 11
661.8000000000686
 21
177.9923881554276
 31
0.0
  0
ARC
  5
25E
330
1F
100
AcDbEntity
  8
LAY-10
  6
CONTINUOUS
 62
     7
100
AcDbCircle
 10
658.8000000000682
 20
264.3000000000019
 30
0.0
 40
3.000000000000003
100
AcDbArc
 50
0.0
 51
90.00000000000001
  0
LINE
  5
25F
330
1F
100
AcDbEntity
  8
LAY-10
  6
CONTINUOUS
 62
     7
100
AcDbLine
 10
653.8000000000686
 20
160.5376843825073
 30
0.0
 11
658.8000000000682
 21
160.5376843825073
 31
0.0
  0
ARC
  5
260
330
1F
100
AcDbEntity
  8
LAY-10
  6
CONTINUOUS
 62
     7
100
AcDbCircle
 10
658.8000000000682
 20
157.5376843825071
 30
0.0
 40
3.000000000000003
100
AcDbArc
 50
0.0
 51
90.00000000000001
  0
ARC
  5
261
330
1F
100
AcDbEntity
  8
LAY-10
  6
CONTINUOUS
 62
     7
100
AcDbCircle
 10
653.8000000000686
 20
157.5376843825071
 30
0.0
 40
3.000000000000003
100
AcDbArc
 50
90.00000000000001
 51
180.0
  0
LINE
  5
262
330
1F
100
AcDbEntity
  8
LAY-10
  6
CONTINUOUS
 62
     7
100
AcDbLine
 10
658.8000000000682
 20
165.0928932188156
 30
0.0
 11
653.8000000000686
 21
165.0928932188156
 31
0.0
  0
ARC
  5
263
330
1F
100
AcDbEntity
  8
LAY-10
  6
CONTINUOUS
 62
     7
100
AcDbCircle
 10
653.8000000000686
 20
162.0928932188156
 30
0.0
 40
3.000000000000003
100
AcDbArc
 50
90.00000000000001
 51
180.0
  0
ARC
  5
264
330
1F
100
AcDbEntity
  8
LAY-10
  6
CONTINUOUS
 62
     7
100
AcDbCircle
 10
658.8000000000682
 20
162.0928932188156
 30
0.0
 40
3.000000000000003
100
AcDbArc
 50
0.0
 51
90.00000000000001
  0
LINE
  5
265
330
1F
100
AcDbEntity
  8
LAY-10
  6
CONTINUOUS
 62
     7
100
AcDbLine
 10
658.8000000000682
 20
174.9923881554274
 30
0.0
 11
653.8000000000686
 21
174.9923881554274
 31
0.0
  0
ARC
  5
266
330
1F
100
AcDbEntity
  8
LAY-10
  6
CONTINUOUS
 62
     7
100
AcDbCircle
 10
653.8000000000686
 20
177.9923881554276
 30
0.0
 40
3.000000000000003
100
AcDbArc
 50
180.0
 51
270.0
  0
ARC
  5
267
330
1F
100
AcDbEntity
  8
LAY-10
  6
CONTINUOUS
 62
     7
100
AcDbCircle
 10
658.8000000000682
 20
177.9923881554276
 30
0.0
 40
3.000000000000003
100
AcDbArc
 50
270.0
 51
0.0
  0
LINE
  5
268
330
1F
100
AcDbEntity
  8
LAY-10
  6
CONTINUOUS
 62
     7
100
AcDbLine
 10
573.8000000000686
 20
266.3000000000017
 30
0.0
 11
573.8000000000686
 21
261.3000000000019
 31
0.0
  0
ARC
  5
269
330
1F
100
AcDbEntity
  8
LAY-10
  6
CONTINUOUS
 62
     7
100
AcDbCircle
 10
580.8000000000686
 20
266.3000000000017
 30
0.0
 40
7.000000000000004
100
AcDbArc
 50
0.0
 51
180.0
  0
LINE
  5
26A
330
1F
100
AcDbEntity
  8
LAY-10
  6
CONTINUOUS
 62
     7
100
AcDbLine
 10
587.8000000000686
 20
261.3000000000019
 30
0.0
 11
587.8000000000686
 21
266.3000000000017
 31
0.0
  0
ARC
  5
26B
330
1F
100
AcDbEntity
  8
LAY-10
  6
CONTINUOUS
 62
     7
100
AcDbCircle
 10
580.8000000000686
 20
261.3000000000019
 30
0.0
 40
7.000000000000004
100
AcDbArc
 50
180.0
 51
0.0
  0
LINE
  5
26C
330
1F
100
AcDbEntity
  8
LAY-10
  6
CONTINUOUS
 62
     7
100
AcDbLine
 10
755.8000000000686
 20
185.7852813742405
 30
0.0
 11
763.8000000000686
 21
185.7852813742405
 31
0.0
  0
LINE
  5
26D
330
1F
100
AcDbEntity
  8
LAY-10
  6
CONTINUOUS
 62
     7
100
AcDbLine
 10
752.8000000000686
 20
160.5376843825073
 30
0.0
 11
748.8000000000686
 21
160.5376843825068
 31
0.0
  0
ARC
  5
26E
330
1F
100
AcDbEntity
  8
LAY-10
  6
CONTINUOUS
 62
     7
100
AcDbCircle
 10
748.8000000000686
 20
157.5376843825066
 30
0.0
 40
3.000000000000003
100
AcDbArc
 50
90.00000000000001
 51
180.0
  0
ARC
  5
26F
330
1F
100
AcDbEntity
  8
LAY-10
  6
CONTINUOUS
 62
     7
100
AcDbCircle
 10
752.8000000000686
 20
157.5376843825071
 30
0.0
 40
3.000000000000003
100
AcDbArc
 50
0.0
 51
90.00000000000001
  0
LINE
  5
270
330
1F
100
AcDbEntity
  8
LAY-10
  6
CONTINUOUS
 62
     7
100
AcDbLine
 10
748.8000000000686
 20
165.0928932188154
 30
0.0
 11
752.8000000000686
 21
165.0928932188156
 31
0.0
  0
ARC
  5
271
330
1F
100
AcDbEntity
  8
LAY-10
  6
CONTINUOUS
 62
     7
100
AcDbCircle
 10
752.8000000000686
 20
162.0928932188156
 30
0.0
 40
3.000000000000003
100
AcDbArc
 50
0.0
 51
90.00000000000001
  0
ARC
  5
272
330
1F
100
AcDbEntity
  8
LAY-10
  6
CONTINUOUS
 62
     7
100
AcDbCircle
 10
748.8000000000686
 20
162.0928932188152
 30
0.0
 40
3.000000000000003
100
AcDbArc
 50
90.00000000000001
 51
180.0
  0
ARC
  5
273
330
1F
100
AcDbEntity
  8
LAY-10
  6
CONTINUOUS
 62
     7
100
AcDbCircle
 10
752.8000000000686
 20
177.9923881554267
 30
0.0
 40
3.000000000000003
100
AcDbArc
 50
270.0
 51
0.0
  0
LINE
  5
274
330
1F
100
AcDbEntity
  8
LAY-10
  6
CONTINUOUS
 62
     7
100
AcDbLine
 10
748.8000000000682
 20
174.9923881554267
 30
0.0
 11
752.8000000000686
 21
174.9923881554267
 31
0.0
  0
ARC
  5
275
330
1F
100
AcDbEntity
  8
LAY-10
  6
CONTINUOUS
 62
     7
100
AcDbCircle
 10
748.8000000000682
 20
177.9923881554269
 30
0.0
 40
3.000000000000003
100
AcDbArc
 50
180.0
 51
270.0
  0
LINE
  5
276
330
1F
100
AcDbEntity
  8
LAY-10
  6
CONTINUOUS
 62
     7
100
AcDbLine
 10
737.8000000000686
 20
185.7852813742405
 30
0.0
 11
745.8000000000682
 21
185.7852813742405
 31
0.0
  0
ARC
  5
277
330
1F
100
AcDbEntity
  8
LAY-10
  6
CONTINUOUS
 62
     7
100
AcDbCircle
 10
747.8000000000686
 20
245.3000000000016
 30
0.0
 40
2.0
100
AcDbArc
 50
90.00000000000001
 51
180.0
  0
ARC
  5
278
330
1F
100
AcDbEntity
  8
LAY-10
  6
CONTINUOUS
 62
     7
100
AcDbCircle
 10
753.8000000000686
 20
245.3000000000016
 30
0.0
 40
2.0
100
AcDbArc
 50
0.0
 51
90.00000000000001
  0
LINE
  5
279
330
1F
100
AcDbEntity
  8
LAY-10
  6
CONTINUOUS
 62
     7
100
AcDbLine
 10
755.8000000000686
 20
245.3000000000016
 30
0.0
 11
755.8000000000686
 21
177.9923881554267
 31
0.0
  0
LINE
  5
27A
330
1F
100
AcDbEntity
  8
LAY-10
  6
CONTINUOUS
 62
     7
100
AcDbLine
 10
753.8000000000686
 20
247.3000000000016
 30
0.0
 11
747.8000000000686
 21
247.3000000000016
 31
0.0
  0
LINE
  5
27B
330
1F
100
AcDbEntity
  8
LAY-10
  6
CONTINUOUS
 62
     7
100
AcDbLine
 10
729.8000000000686
 20
267.3000000000014
 30
0.0
 11
734.8000000000686
 21
267.3000000000014
 31
0.0
  0
LINE
  5
27C
330
1F
100
AcDbEntity
  8
LAY-10
  6
CONTINUOUS
 62
     7
100
AcDbLine
 10
737.8000000000686
 20
264.3000000000014
 30
0.0
 11
737.8000000000686
 21
183.0362800931355
 31
0.0
  0
ARC
  5
27D
330
1F
100
AcDbEntity
  8
LAY-10
  6
CONTINUOUS
 62
     7
100
AcDbCircle
 10
734.8000000000686
 20
264.3000000000014
 30
0.0
 40
3.000000000000003
100
AcDbArc
 50
0.0
 51
90.00000000000001
  0
LINE
  5
27E
330
1F
100
AcDbEntity
  8
LAY-10
  6
CONTINUOUS
 62
     7
100
AcDbLine
 10
726.8000000000686
 20
264.3000000000014
 30
0.0
 11
726.8000000000686
 21
183.4587783227763
 31
0.0
  0
ARC
  5
27F
330
1F
100
AcDbEntity
  8
LAY-10
  6
CONTINUOUS
 62
     7
100
AcDbCircle
 10
729.8000000000686
 20
264.3000000000014
 30
0.0
 40
3.000000000000003
100
AcDbArc
 50
90.00000000000001
 51
180.0
  0
LINE
  5
280
330
1F
100
AcDbEntity
  8
LAY-10
  6
CONTINUOUS
 62
     7
100
AcDbLine
 10
699.8000000000686
 20
185.7852813742407
 30
0.0
 11
707.8000000000686
 21
185.7852813742407
 31
0.0
  0
LINE
  5
281
330
1F
100
AcDbEntity
  8
LAY-10
  6
CONTINUOUS
 62
     7
100
AcDbLine
 10
710.8000000000686
 20
267.3000000000019
 30
0.0
 11
715.8000000000686
 21
267.3000000000019
 31
0.0
  0
ARC
  5
282
330
1F
100
AcDbEntity
  8
LAY-10
  6
CONTINUOUS
 62
     7
100
AcDbCircle
 10
715.8000000000686
 20
264.3000000000019
 30
0.0
 40
3.000000000000003
100
AcDbArc
 50
0.0
 51
90.00000000000001
  0
LINE
  5
283
330
1F
100
AcDbEntity
  8
LAY-10
  6
CONTINUOUS
 62
     7
100
AcDbLine
 10
707.8000000000686
 20
264.3000000000019
 30
0.0
 11
707.8000000000686
 21
177.9923881554276
 31
0.0
  0
ARC
  5
284
330
1F
100
AcDbEntity
  8
LAY-10
  6
CONTINUOUS
 62
     7
100
AcDbCircle
 10
710.8000000000686
 20
264.3000000000019
 30
0.0
 40
3.000000000000003
100
AcDbArc
 50
90.00000000000001
 51
180.0
  0
LINE
  5
285
330
1F
100
AcDbEntity
  8
LAY-10
  6
CONTINUOUS
 62
     7
100
AcDbLine
 10
669.8000000000686
 20
185.7852813742409
 30
0.0
 11
661.8000000000686
 21
185.7852813742409
 31
0.0
  0
LINE
  5
286
330
1F
100
AcDbEntity
  8
LAY-10
  6
CONTINUOUS
 62
     7
100
AcDbLine
 10
691.8000000000686
 20
267.3000000000019
 30
0.0
 11
696.8000000000686
 21
267.3000000000019
 31
0.0
  0
LINE
  5
287
330
1F
100
AcDbEntity
  8
LAY-10
  6
CONTINUOUS
 62
     7
100
AcDbLine
 10
699.8000000000686
 20
264.3000000000019
 30
0.0
 11
699.8000000000686
 21
177.9923881554276
 31
0.0
  0
ARC
  5
288
330
1F
100
AcDbEntity
  8
LAY-10
  6
CONTINUOUS
 62
     7
100
AcDbCircle
 10
696.8000000000686
 20
264.3000000000019
 30
0.0
 40
3.000000000000003
100
AcDbArc
 50
0.0
 51
90.00000000000001
  0
LINE
  5
289
330
1F
100
AcDbEntity
  8
LAY-10
  6
CONTINUOUS
 62
     7
100
AcDbLine
 10
688.8000000000686
 20
264.3000000000019
 30
0.0
 11
688.8000000000686
 21
177.9923881554276
 31
0.0
  0
ARC
  5
28A
330
1F
100
AcDbEntity
  8
LAY-10
  6
CONTINUOUS
 62
     7
100
AcDbCircle
 10
691.8000000000686
 20
264.3000000000019
 30
0.0
 40
3.000000000000003
100
AcDbArc
 50
90.00000000000001
 51
180.0
  0
LINE
  5
28B
330
1F
100
AcDbEntity
  8
LAY-10
  6
CONTINUOUS
 62
     7
100
AcDbLine
 10
696.8000000000686
 20
160.5376843825073
 30
0.0
 11
691.8000000000686
 21
160.5376843825073
 31
0.0
  0
ARC
  5
28C
330
1F
100
AcDbEntity
  8
LAY-10
  6
CONTINUOUS
 62
     7
100
AcDbCircle
 10
691.8000000000686
 20
157.5376843825071
 30
0.0
 40
3.000000000000003
100
AcDbArc
 50
90.00000000000001
 51
180.0
  0
ARC
  5
28D
330
1F
100
AcDbEntity
  8
LAY-10
  6
CONTINUOUS
 62
     7
100
AcDbCircle
 10
696.8000000000686
 20
157.5376843825071
 30
0.0
 40
3.000000000000003
100
AcDbArc
 50
0.0
 51
90.00000000000001
  0
LINE
  5
28E
330
1F
100
AcDbEntity
  8
LAY-10
  6
CONTINUOUS
 62
     7
100
AcDbLine
 10
691.8000000000686
 20
165.0928932188156
 30
0.0
 11
696.8000000000686
 21
165.0928932188156
 31
0.0
  0
LINE
  5
28F
330
1F
100
AcDbEntity
  8
LAY-10
  6
CONTINUOUS
 62
     7
100
AcDbLine
 10
699.8000000000686
 20
154.3000000000011
 30
0.0
 11
699.8000000000686
 21
162.0928932188156
 31
0.0
  0
ARC
  5
290
330
1F
100
AcDbEntity
  8
LAY-10
  6
CONTINUOUS
 62
     7
100
AcDbCircle
 10
696.8000000000686
 20
162.0928932188156
 30
0.0
 40
3.000000000000003
100
AcDbArc
 50
0.0
 51
90.00000000000001
  0
ARC
  5
291
330
1F
100
AcDbEntity
  8
LAY-10
  6
CONTINUOUS
 62
     7
100
AcDbCircle
 10
691.8000000000686
 20
162.0928932188156
 30
0.0
 40
3.000000000000003
100
AcDbArc
 50
90.00000000000001
 51
180.0
  0
LINE
  5
292
330
1F
100
AcDbEntity
  8
LAY-10
  6
CONTINUOUS
 62
     7
100
AcDbLine
 10
680.8000000000686
 20
185.7852813742407
 30
0.0
 11
688.8000000000686
 21
185.7852813742407
 31
0.0
  0
LINE
  5
293
330
1F
100
AcDbEntity
  8
LAY-10
  6
CONTINUOUS
 62
     7
100
AcDbLine
 10
691.8000000000686
 20
174.9923881554274
 30
0.0
 11
696.8000000000686
 21
174.9923881554274
 31
0.0
  0
ARC
  5
294
330
1F
100
AcDbEntity
  8
LAY-10
  6
CONTINUOUS
 62
     7
100
AcDbCircle
 10
696.8000000000686
 20
177.9923881554276
 30
0.0
 40
3.000000000000003
100
AcDbArc
 50
270.0
 51
0.0
  0
ARC
  5
295
330
1F
100
AcDbEntity
  8
LAY-10
  6
CONTINUOUS
 62
     7
100
AcDbCircle
 10
691.8000000000686
 20
177.9923881554276
 30
0.0
 40
3.000000000000003
100
AcDbArc
 50
180.0
 51
270.0
  0
LINE
  5
296
330
1F
100
AcDbEntity
  8
LAY-10
  6
CONTINUOUS
 62
     7
100
AcDbLine
 10
672.8000000000686
 20
267.3000000000019
 30
0.0
 11
677.8000000000695
 21
267.3000000000019
 31
0.0
  0
LINE
  5
297
330
1F
100
AcDbEntity
  8
LAY-10
  6
CONTINUOUS
 62
     7
100
AcDbLine
 10
680.8000000000686
 20
264.3000000000019
 30
0.0
 11
680.8000000000686
 21
177.9923881554276
 31
0.0
  0
ARC
  5
298
330
1F
100
AcDbEntity
  8
LAY-10
  6
CONTINUOUS
 62
     7
100
AcDbCircle
 10
677.8000000000695
 20
264.3000000000019
 30
0.0
 40
3.000000000000003
100
AcDbArc
 50
0.0
 51
90.00000000000001
  0
LINE
  5
299
330
1F
100
AcDbEntity
  8
LAY-10
  6
CONTINUOUS
 62
     7
100
AcDbLine
 10
669.8000000000686
 20
264.3000000000019
 30
0.0
 11
669.8000000000686
 21
177.9923881554276
 31
0.0
  0
ARC
  5
29A
330
1F
100
AcDbEntity
  8
LAY-10
  6
CONTINUOUS
 62
     7
100
AcDbCircle
 10
672.8000000000686
 20
264.3000000000019
 30
0.0
 40
3.000000000000003
100
AcDbArc
 50
90.00000000000001
 51
180.0
  0
LINE
  5
29B
330
1F
100
AcDbEntity
  8
LAY-10
  6
CONTINUOUS
 62
     7
100
AcDbLine
 10
677.8000000000695
 20
160.5376843825073
 30
0.0
 11
672.8000000000686
 21
160.5376843825073
 31
0.0
  0
ARC
  5
29C
330
1F
100
AcDbEntity
  8
LAY-10
  6
CONTINUOUS
 62
     7
100
AcDbCircle
 10
672.8000000000686
 20
157.5376843825071
 30
0.0
 40
3.000000000000003
100
AcDbArc
 50
90.00000000000001
 51
180.0
  0
ARC
  5
29D
330
1F
100
AcDbEntity
  8
LAY-10
  6
CONTINUOUS
 62
     7
100
AcDbCircle
 10
677.8000000000695
 20
157.5376843825071
 30
0.0
 40
3.000000000000003
100
AcDbArc
 50
0.0
 51
90.00000000000001
  0
LINE
  5
29E
330
1F
100
AcDbEntity
  8
LAY-10
  6
CONTINUOUS
 62
     7
100
AcDbLine
 10
672.8000000000686
 20
165.0928932188156
 30
0.0
 11
677.8000000000695
 21
165.0928932188156
 31
0.0
  0
ARC
  5
29F
330
1F
100
AcDbEntity
  8
LAY-10
  6
CONTINUOUS
 62
     7
100
AcDbCircle
 10
677.8000000000695
 20
162.0928932188156
 30
0.0
 40
3.000000000000003
100
AcDbArc
 50
0.0
 51
90.00000000000001
  0
ARC
  5
2A0
330
1F
100
AcDbEntity
  8
LAY-10
  6
CONTINUOUS
 62
     7
100
AcDbCircle
 10
672.8000000000686
 20
162.0928932188156
 30
0.0
 40
3.000000000000003
100
AcDbArc
 50
90.00000000000001
 51
180.0
  0
LINE
  5
2A1
330
1F
100
AcDbEntity
  8
LAY-10
  6
CONTINUOUS
 62
     7
100
AcDbLine
 10
672.8000000000686
 20
174.9923881554274
 30
0.0
 11
677.8000000000695
 21
174.9923881554274
 31
0.0
  0
ARC
  5
2A2
330
1F
100
AcDbEntity
  8
LAY-10
  6
CONTINUOUS
 62
     7
100
AcDbCircle
 10
677.8000000000695
 20
177.9923881554276
 30
0.0
 40
3.000000000000003
100
AcDbArc
 50
270.0
 51
0.0
  0
ARC
  5
2A3
330
1F
100
AcDbEntity
  8
LAY-10
  6
CONTINUOUS
 62
     7
100
AcDbCircle
 10
672.8000000000686
 20
177.9923881554276
 30
0.0
 40
3.000000000000003
100
AcDbArc
 50
180.0
 51
270.0
  0
LINE
  5
2A4
330
1F
100
AcDbEntity
  8
LAY-10
  6
CONTINUOUS
 62
     7
100
AcDbLine
 10
757.8000000000686
 20
266.3000000000017
 30
0.0
 11
757.8000000000686
 21
261.3000000000019
 31
0.0
  0
ARC
  5
2A5
330
1F
100
AcDbEntity
  8
LAY-10
  6
CONTINUOUS
 62
     7
100
AcDbCircle
 10
750.8000000000686
 20
266.3000000000017
 30
0.0
 40
7.000000000000004
100
AcDbArc
 50
0.0
 51
180.0
  0
LINE
  5
2A6
330
1F
100
AcDbEntity
  8
LAY-10
  6
CONTINUOUS
 62
     7
100
AcDbLine
 10
743.8000000000686
 20
261.3000000000019
 30
0.0
 11
743.8000000000686
 21
266.3000000000017
 31
0.0
  0
ARC
  5
2A7
330
1F
100
AcDbEntity
  8
LAY-10
  6
CONTINUOUS
 62
     7
100
AcDbCircle
 10
750.8000000000686
 20
261.3000000000019
 30
0.0
 40
7.000000000000004
100
AcDbArc
 50
180.0
 51
0.0
  0
LINE
  5
2A8
330
1F
100
AcDbEntity
  8
LAY-10
  6
CONTINUOUS
 62
     7
100
AcDbLine
 10
763.8000000000695
 20
279.3000000000018
 30
0.0
 11
567.8000000000686
 21
279.3000000000018
 31
0.0
  0
LINE
  5
2A9
330
1F
100
AcDbEntity
  8
LAY-10
  6
CONTINUOUS
 62
     7
100
AcDbLine
 10
565.8420112076003
 20
282.7077743109182
 30
0.0
 11
566.1144466758662
 21
272.3824640741417
 31
0.0
  0
LINE
  5
2AA
330
1F
100
AcDbEntity
  8
LAY-10
  6
CONTINUOUS
 62
     7
100
AcDbLine
 10
561.849097644412
 20
283.0660033639681
 30
0.0
 11
561.1186988692664
 21
277.3917047948519
 31
0.0
  0
ARC
  5
2AB
330
1F
100
AcDbEntity
  8
LAY-10
  6
CONTINUOUS
 62
     7
100
AcDbCircle
 10
567.8000000000668
 20
282.3000000000916
 30
0.0
 40
6.0
100
AcDbArc
 50
90.00000000000001
 51
180.0
  0
LINE
  5
2AC
330
1F
100
AcDbEntity
  8
LAY-10
  6
CONTINUOUS
 62
     7
100
AcDbLine
 10
561.8000000000668
 20
282.3000000000916
 30
0.0
 11
561.8000000000668
 21
155.3000000000414
 31
0.0
  0
ARC
  5
2AD
330
1F
100
AcDbEntity
  8
LAY-10
  6
CONTINUOUS
 62
     7
100
AcDbCircle
 10
567.8000000000668
 20
282.3000000000818
 30
0.0
 40
2.0
100
AcDbArc
 50
90.00000000000001
 51
180.0
  0
LINE
  5
2AE
330
1F
100
AcDbEntity
  8
LAY-10
  6
CONTINUOUS
 62
     7
100
AcDbLine
 10
565.8000000000668
 20
282.3000000000818
 30
0.0
 11
565.8000000000668
 21
155.3000000000414
 31
0.0
  0
LINE
  5
2AF
330
1F
100
AcDbEntity
  8
LAY-10
  6
CONTINUOUS
 62
     7
100
AcDbLine
 10
566.1144466758662
 20
272.3824640741417
 30
0.0
 11
566.1144466758662
 21
254.3000000000919
 31
0.0
  0
LINE
  5
2B0
330
1F
100
AcDbEntity
  8
LAY-10
  6
CONTINUOUS
 62
     7
100
AcDbLine
 10
566.4813011308672
 20
155.3000000000414
 30
0.0
 11
566.4813011308672
 21
251.3000000001024
 31
0.0
  0
LINE
  5
2B1
330
1F
100
AcDbEntity
  8
LAY-10
  6
CONTINUOUS
 62
     7
100
AcDbLine
 10
520.8000000000668
 20
311.3000000000918
 30
0.0
 11
520.8000000000668
 21
137.3000000000428
 31
0.0
  0
ARC
  5
2B2
330
1F
100
AcDbEntity
  8
LAY-10
  6
CONTINUOUS
 62
     7
100
AcDbCircle
 10
523.8000000000668
 20
139.3000000000416
 30
0.0
 40
3.0
100
AcDbArc
 50
90.00000000000001
 51
180.0
  0
ARC
  5
2B3
330
1F
100
AcDbEntity
  8
LAY-10
  6
CONTINUOUS
 62
     7
100
AcDbCircle
 10
525.8000000000668
 20
311.3000000000902
 30
0.0
 40
5.0
100
AcDbArc
 50
90.00000000000001
 51
180.0
  0
LINE
  5
2B4
330
1F
100
AcDbEntity
  8
LAY-10
  6
CONTINUOUS
 62
     7
100
AcDbLine
 10
659.3000000000932
 20
155.3000000000414
 30
0.0
 11
632.3000000000413
 21
155.3000000000414
 31
0.0
  0
LINE
  5
2B5
330
1F
100
AcDbEntity
  8
LAY-10
  6
CONTINUOUS
 62
     7
100
AcDbLine
 10
619.3000000000932
 20
155.3000000000414
 30
0.0
 11
592.3000000000668
 21
155.3000000000414
 31
0.0
  0
LINE
  5
2B6
330
1F
100
AcDbEntity
  8
LAY-10
  6
CONTINUOUS
 62
     7
100
AcDbLine
 10
579.3000000000932
 20
155.3000000000414
 30
0.0
 11
561.8000000000668
 21
155.3000000000414
 31
0.0
  0
LINE
  5
2B7
330
1F
100
AcDbEntity
  8
LAY-10
  6
CONTINUOUS
 62
     7
100
AcDbLine
 10
581.4465426274694
 20
143.1263518223746
 30
0.0
 11
579.3000000000923
 21
155.3000000000464
 31
0.0
  0
ARC
  5
2B8
330
1F
100
AcDbEntity
  8
LAY-10
  6
CONTINUOUS
 62
     7
100
AcDbCircle
 10
582.4313503804808
 20
143.3000000000416
 30
0.0
 40
1.0
100
AcDbArc
 50
190.0000000000039
 51
270.0
  0
LINE
  5
2B9
330
1F
100
AcDbEntity
  8
LAY-10
  6
CONTINUOUS
 62
     7
100
AcDbLine
 10
590.1534573726647
 20
143.1263518223746
 30
0.0
 11
592.3000000000422
 21
155.3000000000464
 31
0.0
  0
ARC
  5
2BA
330
1F
100
AcDbEntity
  8
LAY-10
  6
CONTINUOUS
 62
     7
100
AcDbCircle
 10
589.1686496196528
 20
143.3000000000416
 30
0.0
 40
1.0
100
AcDbArc
 50
270.0
 51
349.9999999999939
  0
LINE
  5
2BB
330
1F
100
AcDbEntity
  8
LAY-10
  6
CONTINUOUS
 62
     7
100
AcDbLine
 10
621.4465426274694
 20
143.1263518223746
 30
0.0
 11
619.3000000000918
 21
155.3000000000464
 31
0.0
  0
ARC
  5
2BC
330
1F
100
AcDbEntity
  8
LAY-10
  6
CONTINUOUS
 62
     7
100
AcDbCircle
 10
622.4313503804808
 20
143.3000000000416
 30
0.0
 40
1.0
100
AcDbArc
 50
190.0000000000062
 51
270.0
  0
LINE
  5
2BD
330
1F
100
AcDbEntity
  8
LAY-10
  6
CONTINUOUS
 62
     7
100
AcDbLine
 10
630.1534573726651
 20
143.1263518223746
 30
0.0
 11
632.3000000000418
 21
155.3000000000464
 31
0.0
  0
ARC
  5
2BE
330
1F
100
AcDbEntity
  8
LAY-10
  6
CONTINUOUS
 62
     7
100
AcDbCircle
 10
629.1686496196523
 20
143.3000000000416
 30
0.0
 40
1.0
100
AcDbArc
 50
270.0
 51
349.9999999999939
  0
LINE
  5
2BF
330
1F
100
AcDbEntity
  8
LAY-10
  6
CONTINUOUS
 62
     7
100
AcDbLine
 10
661.446542627469
 20
143.1263518223746
 30
0.0
 11
659.3000000000923
 21
155.3000000000464
 31
0.0
  0
ARC
  5
2C0
330
1F
100
AcDbEntity
  8
LAY-10
  6
CONTINUOUS
 62
     7
100
AcDbCircle
 10
662.4313503804808
 20
143.3000000000416
 30
0.0
 40
1.0
100
AcDbArc
 50
190.0000000000062
 51
270.0
  0
LINE
  5
2C1
330
1F
100
AcDbEntity
  8
LAY-10
  6
CONTINUOUS
 62
     7
100
AcDbLine
 10
561.1186988692673
 20
277.3917047948519
 30
0.0
 11
561.1186988692673
 21
142.3000000000418
 31
0.0
  0
LINE
  5
2C2
330
1F
100
AcDbEntity
  8
LAY-10
  6
CONTINUOUS
 62
     7
100
AcDbLine
 10
561.1186988692882
 20
142.3000000000466
 30
0.0
 11
561.7999999999695
 21
155.3000000000469
 31
0.0
  0
LINE
  5
2C3
330
1F
100
AcDbEntity
  8
LAY-10
  6
CONTINUOUS
 62
     7
100
AcDbLine
 10
523.8000000000668
 20
142.3000000000416
 30
0.0
 11
807.8000000000663
 21
142.3000000000416
 31
0.0
  0
LINE
  5
2C4
330
1F
100
AcDbEntity
  8
LAY-10
  6
CONTINUOUS
 62
     7
100
AcDbLine
 10
525.8000000000668
 20
316.3000000000902
 30
0.0
 11
805.8000000000668
 21
316.3000000000902
 31
0.0
  0
LINE
  5
2C5
330
1F
100
AcDbEntity
  8
LAY-10
  6
CONTINUOUS
 62
     7
100
AcDbLine
 10
567.8000000000668
 20
288.3000000000916
 30
0.0
 11
763.8000000000668
 21
288.3000000000916
 31
0.0
  0
LINE
  5
2C6
330
1F
100
AcDbEntity
  8
LAY-10
  6
CONTINUOUS
 62
     7
100
AcDbLine
 10
567.8000000000668
 20
284.3000000000818
 30
0.0
 11
763.8000000000668
 21
284.3000000000818
 31
0.0
  0
LINE
  5
2C7
330
1F
100
AcDbEntity
  8
LAY-10
  6
CONTINUOUS
 62
     7
100
AcDbLine
 10
765.7579887925324
 20
282.7077743109182
 30
0.0
 11
765.4855533242664
 21
272.3824640741417
 31
0.0
  0
LINE
  5
2C8
330
1F
100
AcDbEntity
  8
LAY-10
  6
CONTINUOUS
 62
     7
100
AcDbLine
 10
769.7509023557205
 20
283.0660033639681
 30
0.0
 11
770.4813011308662
 21
277.3917047948519
 31
0.0
  0
ARC
  5
2C9
330
1F
100
AcDbEntity
  8
LAY-10
  6
CONTINUOUS
 62
     7
100
AcDbCircle
 10
763.8000000000668
 20
282.3000000000916
 30
0.0
 40
6.0
100
AcDbArc
 50
0.0
 51
90.00000000000001
  0
LINE
  5
2CA
330
1F
100
AcDbEntity
  8
LAY-10
  6
CONTINUOUS
 62
     7
100
AcDbLine
 10
769.8000000000668
 20
282.3000000000916
 30
0.0
 11
769.8000000000668
 21
155.3000000000414
 31
0.0
  0
ARC
  5
2CB
330
1F
100
AcDbEntity
  8
LAY-10
  6
CONTINUOUS
 62
     7
100
AcDbCircle
 10
763.8000000000668
 20
282.3000000000818
 30
0.0
 40
2.0
100
AcDbArc
 50
0.0
 51
90.00000000000001
  0
LINE
  5
2CC
330
1F
100
AcDbEntity
  8
LAY-10
  6
CONTINUOUS
 62
     7
100
AcDbLine
 10
765.8000000000663
 20
282.3000000000818
 30
0.0
 11
765.8000000000663
 21
155.3000000000414
 31
0.0
  0
LINE
  5
2CD
330
1F
100
AcDbEntity
  8
LAY-10
  6
CONTINUOUS
 62
     7
100
AcDbLine
 10
765.4855533242674
 20
272.3824640741417
 30
0.0
 11
765.4855533242674
 21
254.3000000000919
 31
0.0
  0
LINE
  5
2CE
330
1F
100
AcDbEntity
  8
LAY-10
  6
CONTINUOUS
 62
     7
100
AcDbLine
 10
765.1186988692664
 20
155.3000000000414
 30
0.0
 11
765.1186988692664
 21
251.3000000001024
 31
0.0
  0
LINE
  5
2CF
330
1F
100
AcDbEntity
  8
LAY-10
  6
CONTINUOUS
 62
     7
100
AcDbLine
 10
810.8000000000663
 20
311.3000000000918
 30
0.0
 11
810.8000000000663
 21
137.3000000000428
 31
0.0
  0
ARC
  5
2D0
330
1F
100
AcDbEntity
  8
LAY-10
  6
CONTINUOUS
 62
     7
100
AcDbCircle
 10
807.8000000000663
 20
139.3000000000416
 30
0.0
 40
3.0
100
AcDbArc
 50
0.0
 51
90.00000000000001
  0
ARC
  5
2D1
330
1F
100
AcDbEntity
  8
LAY-10
  6
CONTINUOUS
 62
     7
100
AcDbCircle
 10
805.8000000000668
 20
311.3000000000902
 30
0.0
 40
5.0
100
AcDbArc
 50
0.0
 51
90.00000000000001
  0
LINE
  5
2D2
330
1F
100
AcDbEntity
  8
LAY-10
  6
CONTINUOUS
 62
     7
100
AcDbLine
 10
672.3000000000404
 20
155.3000000000414
 30
0.0
 11
699.3000000000923
 21
155.3000000000414
 31
0.0
  0
LINE
  5
2D3
330
1F
100
AcDbEntity
  8
LAY-10
  6
CONTINUOUS
 62
     7
100
AcDbLine
 10
712.30000000004
 20
155.3000000000414
 30
0.0
 11
739.3000000000668
 21
155.3000000000414
 31
0.0
  0
LINE
  5
2D4
330
1F
100
AcDbEntity
  8
LAY-10
  6
CONTINUOUS
 62
     7
100
AcDbLine
 10
752.3000000000404
 20
155.3000000000414
 30
0.0
 11
769.8000000000668
 21
155.3000000000414
 31
0.0
  0
LINE
  5
2D5
330
1F
100
AcDbEntity
  8
LAY-10
  6
CONTINUOUS
 62
     7
100
AcDbLine
 10
750.1534573726638
 20
143.1263518223746
 30
0.0
 11
752.3000000000413
 21
155.3000000000464
 31
0.0
  0
ARC
  5
2D6
330
1F
100
AcDbEntity
  8
LAY-10
  6
CONTINUOUS
 62
     7
100
AcDbCircle
 10
749.1686496196519
 20
143.3000000000416
 30
0.0
 40
1.0
100
AcDbArc
 50
270.0
 51
349.9999999999939
  0
LINE
  5
2D7
330
1F
100
AcDbEntity
  8
LAY-10
  6
CONTINUOUS
 62
     7
100
AcDbLine
 10
741.4465426274685
 20
143.1263518223746
 30
0.0
 11
739.3000000000914
 21
155.3000000000464
 31
0.0
  0
ARC
  5
2D8
330
1F
100
AcDbEntity
  8
LAY-10
  6
CONTINUOUS
 62
     7
100
AcDbCircle
 10
742.4313503804808
 20
143.3000000000416
 30
0.0
 40
1.0
100
AcDbArc
 50
190.0000000000062
 51
270.0
  0
LINE
  5
2D9
330
1F
100
AcDbEntity
  8
LAY-10
  6
CONTINUOUS
 62
     7
100
AcDbLine
 10
710.1534573726642
 20
143.1263518223746
 30
0.0
 11
712.3000000000413
 21
155.3000000000464
 31
0.0
  0
ARC
  5
2DA
330
1F
100
AcDbEntity
  8
LAY-10
  6
CONTINUOUS
 62
     7
100
AcDbCircle
 10
709.1686496196519
 20
143.3000000000416
 30
0.0
 40
1.0
100
AcDbArc
 50
270.0
 51
349.9999999999939
  0
LINE
  5
2DB
330
1F
100
AcDbEntity
  8
LAY-10
  6
CONTINUOUS
 62
     7
100
AcDbLine
 10
701.446542627468
 20
143.1263518223746
 30
0.0
 11
699.3000000000914
 21
155.3000000000464
 31
0.0
  0
ARC
  5
2DC
330
1F
100
AcDbEntity
  8
LAY-10
  6
CONTINUOUS
 62
     7
100
AcDbCircle
 10
702.4313503804808
 20
143.3000000000416
 30
0.0
 40
1.0
100
AcDbArc
 50
190.0000000000062
 51
270.0
  0
LINE
  5
2DD
330
1F
100
AcDbEntity
  8
LAY-10
  6
CONTINUOUS
 62
     7
100
AcDbLine
 10
670.1534573726642
 20
143.1263518223746
 30
0.0
 11
672.3000000000409
 21
155.3000000000464
 31
0.0
  0
ARC
  5
2DE
330
1F
100
AcDbEntity
  8
LAY-10
  6
CONTINUOUS
 62
     7
100
AcDbCircle
 10
669.1686496196519
 20
143.3000000000416
 30
0.0
 40
1.0
100
AcDbArc
 50
270.0
 51
349.9999999999939
  0
LINE
  5
2DF
330
1F
100
AcDbEntity
  8
LAY-10
  6
CONTINUOUS
 62
     7
100
AcDbLine
 10
770.4813011308662
 20
277.3917047948519
 30
0.0
 11
770.4813011308662
 21
142.3000000000418
 31
0.0
  0
LINE
  5
2E0
330
1F
100
AcDbEntity
  8
LAY-10
  6
CONTINUOUS
 62
     7
100
AcDbLine
 10
770.4813011308444
 20
142.3000000000466
 30
0.0
 11
769.8000000001637
 21
155.3000000000469
 31
0.0
  0
CIRCLE
  5
2E1
330
1F
100
AcDbEntity
  8
LAY-10
  6
CONTINUOUS
 62
     7
100
AcDbCircle
 10
785.7999999999364
 20
104.8000000001051
 30
0.0
 40
2.5
  0
LINE
  5
2E2
330
1F
100
AcDbEntity
  8
LAY-10
  6
CONTINUOUS
 62
     7
100
AcDbLine
 10
783.2999999999346
 20
104.8000000001051
 30
0.0
 11
783.2999999999356
 21
124.3000000000546
 31
0.0
  0
LINE
  5
2E3
330
1F
100
AcDbEntity
  8
LAY-10
  6
CONTINUOUS
 62
     7
100
AcDbLine
 10
788.2999999999347
 20
104.8000000001051
 30
0.0
 11
788.2999999999355
 21
124.3000000000546
 31
0.0
  0
CIRCLE
  5
2E4
330
1F
100
AcDbEntity
  8
LAY-10
  6
CONTINUOUS
 62
     7
100
AcDbCircle
 10
545.8000000000366
 20
104.8000000001051
 30
0.0
 40
2.5
  0
LINE
  5
2E5
330
1F
100
AcDbEntity
  8
LAY-10
  6
CONTINUOUS
 62
     7
100
AcDbLine
 10
543.3000000000347
 20
104.8000000001051
 30
0.0
 11
543.3000000000357
 21
124.3000000000546
 31
0.0
  0
LINE
  5
2E6
330
1F
100
AcDbEntity
  8
LAY-10
  6
CONTINUOUS
 62
     7
100
AcDbLine
 10
548.3000000000347
 20
104.8000000001051
 30
0.0
 11
548.3000000000357
 21
124.3000000000546
 31
0.0
  0
ARC
  5
2E7
330
1F
100
AcDbEntity
  8
LAY-10
  6
CONTINUOUS
 62
     7
100
AcDbCircle
 10
363.9573309492101
 20
751.6000000000499
 30
0.0
 40
15.0
100
AcDbArc
 50
0.0
 51
90.00000000000001
  0
ARC
  5
2E8
330
1F
100
AcDbEntity
  8
LAY-10
  6
CONTINUOUS
 62
     7
100
AcDbCircle
 10
363.9573309492101
 20
481.6000000000505
 30
0.0
 40
15.0
100
AcDbArc
 50
270.0
 51
0.0
  0
LINE
  5
2E9
330
1F
100
AcDbEntity
  8
LAY-10
  6
CONTINUOUS
 62
     7
100
AcDbLine
 10
378.9573309492101
 20
481.6000000000505
 30
0.0
 11
378.9573309492103
 21
751.6000000000499
 31
0.0
  0
ARC
  5
2EA
330
1F
100
AcDbEntity
  8
LAY-10
  6
CONTINUOUS
 62
     7
100
AcDbCircle
 10
367.9573309492205
 20
756.5999999999831
 30
0.0
 40
5.0
100
AcDbArc
 50
0.0
 51
90.00000000000001
  0
LINE
  5
2EB
330
1F
100
AcDbEntity
  8
LAY-10
  6
CONTINUOUS
 62
     7
100
AcDbLine
 10
372.9573309492205
 20
756.5999999999831
 30
0.0
 11
372.9573309492205
 21
476.5999999999831
 31
0.0
  0
ARC
  5
2EC
330
1F
100
AcDbEntity
  8
LAY-10
  6
CONTINUOUS
 62
     7
100
AcDbCircle
 10
367.9573309492205
 20
476.5999999999831
 30
0.0
 40
5.0
100
AcDbArc
 50
270.0
 51
0.0
  0
TEXT
  5
2ED
330
1F
100
AcDbEntity
  8
LAY-10
  6
CONTINUOUS
 62
     7
100
AcDbText
 10
611.8000000000687
 20
166.9670501976122
 30
0.0
 40
6.548032286049271
  1
ＦＵＫＵＮＩＳＨＩ
 41
1.598553236495991
  7
EXCADSTD
100
AcDbText
  0
LINE
  5
2EE
330
1F
100
AcDbEntity
  8
LAY-10
  6
CONTINUOUS
 62
     7
100
AcDbLine
 10
236.8394161125195
 20
686.600000000031
 30
0.0
 11
237.7979513827038
 21
686.600000000031
 31
0.0
  0
ELLIPSE
  5
2EF
330
1F
100
AcDbEntity
  8
LAY-10
  6
CONTINUOUS
 62
     7
100
AcDbEllipse
 10
237.7979513827038
 20
681.6000000000314
 30
0.0
 11
-9.184850993605148E-16
 21
-5.0
 31
0.0
210
0.0
220
0.0
230
1.0
 40
0.7071067811866106
 41
5.973861590320968
 42
9.734101677609829
  0
LINE
  5
2F0
330
1F
100
AcDbEntity
  8
LAY-10
  6
CONTINUOUS
 62
     7
100
AcDbLine
 10
236.8394161124684
 20
676.6000000000314
 30
0.0
 11
237.7979513827038
 21
676.6000000000314
 31
0.0
  0
LINE
  5
2F1
330
1F
100
AcDbEntity
  8
LAY-10
  6
CONTINUOUS
 62
     7
100
AcDbLine
 10
236.8394161124684
 20
556.5999999999359
 30
0.0
 11
237.7979513827036
 21
556.5999999999359
 31
0.0
  0
ELLIPSE
  5
2F2
330
1F
100
AcDbEntity
  8
LAY-10
  6
CONTINUOUS
 62
     7
100
AcDbEllipse
 10
237.7979513827036
 20
551.5999999999354
 30
0.0
 11
-9.184850993605148E-16
 21
-5.0
 31
0.0
210
0.0
220
0.0
230
1.0
 40
0.7071067811866106
 41
5.973861590339203
 42
9.734101677628043
  0
LINE
  5
2F3
330
1F
100
AcDbEntity
  8
LAY-10
  6
CONTINUOUS
 62
     7
100
AcDbLine
 10
236.8394161125198
 20
546.5999999999359
 30
0.0
 11
237.7979513827036
 21
546.5999999999359
 31
0.0
  0
LINE
  5
2F4
330
1F
100
AcDbEntity
  8
LAY-10
  6
CONTINUOUS
 62
     7
100
AcDbLine
 10
237.2676212968136
 20
546.6565700166144
 30
0.0
 11
237.2676212968136
 21
556.5434299832569
 31
0.0
  0
LINE
  5
2F5
330
1F
100
AcDbEntity
  8
LAY-10
  6
CONTINUOUS
 62
     7
100
AcDbLine
 10
238.3282814685936
 20
546.6565700166144
 30
0.0
 11
238.3282814685936
 21
556.5434299832569
 31
0.0
  0
LINE
  5
2F6
330
1F
100
AcDbEntity
  8
LAY-10
  6
CONTINUOUS
 62
     7
100
AcDbLine
 10
237.2676212968138
 20
686.5434299833524
 30
0.0
 11
237.2676212968138
 21
676.6565700167099
 31
0.0
  0
LINE
  5
2F7
330
1F
100
AcDbEntity
  8
LAY-10
  6
CONTINUOUS
 62
     7
100
AcDbLine
 10
238.3282814685938
 20
686.5434299833524
 30
0.0
 11
238.3282814685938
 21
676.6565700167099
 31
0.0
  0
ELLIPSE
  5
2F8
330
1F
100
AcDbEntity
  8
LAY-10
  6
CONTINUOUS
 62
     7
100
AcDbEllipse
 10
241.6999716363005
 20
551.5999999999859
 30
0.0
 11
5.204748896376113E-16
 21
8.499999999999774
 31
0.0
210
0.0
220
0.0
230
1.0
 40
0.7071067811866731
 41
0.0
 42
6.283185307179586
  0
ELLIPSE
  5
2F9
330
1F
100
AcDbEntity
  8
LAY-10
  6
CONTINUOUS
 62
     7
100
AcDbEllipse
 10
238.2054229717719
 20
551.5999999999859
 30
0.0
 11
5.204748896376113E-16
 21
8.499999999999774
 31
0.0
210
0.0
220
0.0
230
1.0
 40
0.7071067811866731
 41
3.436559495733374
 42
5.98821846503597
  0
ELLIPSE
  5
2FA
330
1F
100
AcDbEntity
  8
LAY-10
  6
CONTINUOUS
 62
     7
100
AcDbEllipse
 10
241.6999716363005
 20
681.5999999999814
 30
0.0
 11
5.204748896376113E-16
 21
8.499999999999774
 31
0.0
210
0.0
220
0.0
230
1.0
 40
0.7071067811866731
 41
0.0
 42
6.283185307179586
  0
ELLIPSE
  5
2FB
330
1F
100
AcDbEntity
  8
LAY-10
  6
CONTINUOUS
 62
     7
100
AcDbEllipse
 10
238.2054229717719
 20
681.5999999999814
 30
0.0
 11
5.204748896376113E-16
 21
8.499999999999774
 31
0.0
210
0.0
220
0.0
230
1.0
 40
0.7071067811866731
 41
3.436559495733409
 42
5.988218465036006
  0
LINE
  5
2FC
330
1F
100
AcDbEntity
  8
LAY-10
  6
CONTINUOUS
 62
     7
100
AcDbLine
 10
226.9573309492216
 20
714.5999999999814
 30
0.0
 11
350.9573309491821
 21
714.5999999999814
 31
0.0
  0
LINE
  5
2FD
330
1F
100
AcDbEntity
  8
LAY-10
  6
CONTINUOUS
 62
     7
100
AcDbLine
 10
226.9573309492216
 20
688.5999999999814
 30
0.0
 11
228.7063322302852
 21
688.5999999999814
 31
0.0
  0
LINE
  5
2FE
330
1F
100
AcDbEntity
  8
LAY-10
  6
CONTINUOUS
 62
     7
100
AcDbLine
 10
226.9573309492216
 20
544.5999999999814
 30
0.0
 11
228.7063322302852
 21
544.5999999999814
 31
0.0
  0
LINE
  5
2FF
330
1F
100
AcDbEntity
  8
LAY-10
  6
CONTINUOUS
 62
     7
100
AcDbLine
 10
226.9573309492216
 20
518.5999999999814
 30
0.0
 11
350.9573309491821
 21
518.5999999999814
 31
0.0
  0
LINE
  5
300
330
1F
100
AcDbEntity
  8
LAY-10
  6
CONTINUOUS
 62
     7
100
AcDbLine
 10
344.0397950233219
 20
714.5999999999814
 30
0.0
 11
344.0397950233219
 21
716.2855533241838
 31
0.0
  0
ARC
  5
301
330
1F
100
AcDbEntity
  8
LAY-10
  6
CONTINUOUS
 62
     7
100
AcDbCircle
 10
325.9573309492721
 20
714.2855533241838
 30
0.0
 40
2.0
100
AcDbArc
 50
9.0457653974123
 51
90.00000000000001
  0
ARC
  5
302
330
1F
100
AcDbEntity
  8
LAY-10
  6
CONTINUOUS
 62
     7
100
AcDbCircle
 10
322.9573309492826
 20
713.9186988691828
 30
0.0
 40
2.0
100
AcDbArc
 50
19.91651497691574
 51
90.00000000000001
  0
ARC
  5
303
330
1F
100
AcDbEntity
  8
LAY-10
  6
CONTINUOUS
 62
     7
100
AcDbCircle
 10
322.9573309492826
 20
519.2813011307836
 30
0.0
 40
2.0
100
AcDbArc
 50
270.0
 51
340.083485023348
  0
ARC
  5
304
330
1F
100
AcDbEntity
  8
LAY-10
  6
CONTINUOUS
 62
     7
100
AcDbCircle
 10
325.9573309492721
 20
518.9144466757831
 30
0.0
 40
2.0
100
AcDbArc
 50
270.0
 51
350.954234602456
  0
LINE
  5
305
330
1F
100
AcDbEntity
  8
LAY-10
  6
CONTINUOUS
 62
     7
100
AcDbLine
 10
344.0397950233219
 20
518.5999999999814
 30
0.0
 11
344.0397950233219
 21
516.9144466757836
 31
0.0
  0
LINE
  5
306
330
1F
100
AcDbEntity
  8
LAY-10
  6
CONTINUOUS
 62
     7
100
AcDbLine
 10
226.9573309491693
 20
526.5999999999814
 30
0.0
 11
233.7502241679958
 21
526.5999999999814
 31
0.0
  0
LINE
  5
307
330
1F
100
AcDbEntity
  8
LAY-10
  6
CONTINUOUS
 62
     7
100
AcDbLine
 10
226.9573309491693
 20
555.5999999999814
 30
0.0
 11
228.2838340006444
 21
555.5999999999814
 31
0.0
  0
LINE
  5
308
330
1F
100
AcDbEntity
  8
LAY-10
  6
CONTINUOUS
 62
     7
100
AcDbLine
 10
226.9573309491693
 20
563.5999999999814
 30
0.0
 11
233.3262461616445
 21
563.5999999999814
 31
0.0
  0
LINE
  5
309
330
1F
100
AcDbEntity
  8
LAY-10
  6
CONTINUOUS
 62
     7
100
AcDbLine
 10
226.9573309491693
 20
593.5999999999814
 30
0.0
 11
233.7502241679958
 21
593.5999999999814
 31
0.0
  0
LINE
  5
30A
330
1F
100
AcDbEntity
  8
LAY-10
  6
CONTINUOUS
 62
     7
100
AcDbLine
 10
226.9573309491693
 20
601.5999999999814
 30
0.0
 11
233.7502241679958
 21
601.5999999999814
 31
0.0
  0
LINE
  5
30B
330
1F
100
AcDbEntity
  8
LAY-10
  6
CONTINUOUS
 62
     7
100
AcDbLine
 10
226.9573309491693
 20
631.5999999999814
 30
0.0
 11
233.7502241679958
 21
631.5999999999814
 31
0.0
  0
LINE
  5
30C
330
1F
100
AcDbEntity
  8
LAY-10
  6
CONTINUOUS
 62
     7
100
AcDbLine
 10
226.9573309491693
 20
639.5999999999814
 30
0.0
 11
233.7502241679958
 21
639.5999999999814
 31
0.0
  0
LINE
  5
30D
330
1F
100
AcDbEntity
  8
LAY-10
  6
CONTINUOUS
 62
     7
100
AcDbLine
 10
226.9573309491693
 20
669.5999999999814
 30
0.0
 11
233.3262461616445
 21
669.5999999999814
 31
0.0
  0
LINE
  5
30E
330
1F
100
AcDbEntity
  8
LAY-10
  6
CONTINUOUS
 62
     7
100
AcDbLine
 10
226.9573309491693
 20
677.5999999999814
 30
0.0
 11
228.2838340006444
 21
677.5999999999814
 31
0.0
  0
LINE
  5
30F
330
1F
100
AcDbEntity
  8
LAY-10
  6
CONTINUOUS
 62
     7
100
AcDbLine
 10
335.9573309491821
 20
563.5999999999814
 30
0.0
 11
250.0736971109563
 21
563.5999999999814
 31
0.0
  0
LINE
  5
310
330
1F
100
AcDbEntity
  8
LAY-10
  6
CONTINUOUS
 62
     7
100
AcDbLine
 10
226.9573309491693
 20
706.5999999999814
 30
0.0
 11
233.7502241679958
 21
706.5999999999814
 31
0.0
  0
LINE
  5
311
330
1F
100
AcDbEntity
  8
LAY-10
  6
CONTINUOUS
 62
     7
100
AcDbLine
 10
232.1950153316875
 20
566.9473956698927
 30
0.0
 11
232.1950153316875
 21
571.5999999999814
 31
0.0
  0
ARC
  5
312
330
1F
100
AcDbEntity
  8
LAY-10
  6
CONTINUOUS
 62
     7
100
AcDbCircle
 10
230.1950153316875
 20
566.9473956698927
 30
0.0
 40
2.0
100
AcDbArc
 50
310.2955026680759
 51
0.0
  0
ARC
  5
313
330
1F
100
AcDbEntity
  8
LAY-10
  6
CONTINUOUS
 62
     7
100
AcDbCircle
 10
241.8361537693301
 20
553.2184519422918
 30
0.0
 40
16.0
100
AcDbArc
 50
130.2955026680713
 51
136.5387543961329
  0
ARC
  5
314
330
1F
100
AcDbEntity
  8
LAY-10
  6
CONTINUOUS
 62
     7
100
AcDbCircle
 10
228.7710373253362
 20
565.5999999999814
 30
0.0
 40
2.0
100
AcDbArc
 50
270.0
 51
316.5387543961239
  0
ARC
  5
315
330
1F
100
AcDbEntity
  8
LAY-10
  6
CONTINUOUS
 62
     7
100
AcDbCircle
 10
250.0736971109563
 20
565.5999999999814
 30
0.0
 40
2.0
100
AcDbArc
 50
223.4612456038763
 51
270.0
  0
ARC
  5
316
330
1F
100
AcDbEntity
  8
LAY-10
  6
CONTINUOUS
 62
     7
100
AcDbCircle
 10
237.0085806669622
 20
553.2184519422918
 30
0.0
 40
16.0
100
AcDbArc
 50
43.46124560386721
 51
49.70449733191881
  0
ARC
  5
317
330
1F
100
AcDbEntity
  8
LAY-10
  6
CONTINUOUS
 62
     7
100
AcDbCircle
 10
248.6497191046074
 20
566.9473956698904
 30
0.0
 40
2.0
100
AcDbArc
 50
180.0
 51
229.7044973319105
  0
LINE
  5
318
330
1F
100
AcDbEntity
  8
LAY-10
  6
CONTINUOUS
 62
     7
100
AcDbLine
 10
246.6497191046074
 20
571.5999999999814
 30
0.0
 11
246.6497191046074
 21
566.9473956698904
 31
0.0
  0
ARC
  5
319
330
1F
100
AcDbEntity
  8
LAY-10
  6
CONTINUOUS
 62
     7
100
AcDbCircle
 10
234.7502241679958
 20
566.9473956698927
 30
0.0
 40
2.0
100
AcDbArc
 50
310.2955026680759
 51
0.0
  0
ARC
  5
31A
330
1F
100
AcDbEntity
  8
LAY-10
  6
CONTINUOUS
 62
     7
100
AcDbCircle
 10
246.3913626056385
 20
553.2184519422918
 30
0.0
 40
16.0
100
AcDbArc
 50
130.2955026680713
 51
136.5387543961329
  0
LINE
  5
31B
330
1F
100
AcDbEntity
  8
LAY-10
  6
CONTINUOUS
 62
     7
100
AcDbLine
 10
236.7502241679958
 20
571.5999999999814
 30
0.0
 11
236.7502241679958
 21
566.9473956698927
 31
0.0
  0
ARC
  5
31C
330
1F
100
AcDbEntity
  8
LAY-10
  6
CONTINUOUS
 62
     7
100
AcDbCircle
 10
233.3262461616445
 20
565.5999999999814
 30
0.0
 40
2.0
100
AcDbArc
 50
270.0
 51
316.5387543961239
  0
ARC
  5
31D
330
1F
100
AcDbEntity
  8
LAY-10
  6
CONTINUOUS
 62
     7
100
AcDbCircle
 10
228.2838340006444
 20
553.5999999999814
 30
0.0
 40
2.0
100
AcDbArc
 50
352.2210638646936
 51
90.00000000000001
  0
ARC
  5
31E
330
1F
100
AcDbEntity
  8
LAY-10
  6
CONTINUOUS
 62
     7
100
AcDbCircle
 10
246.1181920093229
 20
551.1636760440416
 30
0.0
 40
16.0
100
AcDbArc
 50
172.2210638646976
 51
194.6869458651073
  0
ARC
  5
31F
330
1F
100
AcDbEntity
  8
LAY-10
  6
CONTINUOUS
 62
     7
100
AcDbCircle
 10
228.7063322302852
 20
546.5999999999814
 30
0.0
 40
2.0
100
AcDbArc
 50
270.0
 51
14.68694586510831
  0
ARC
  5
320
330
1F
100
AcDbEntity
  8
LAY-10
  6
CONTINUOUS
 62
     7
100
AcDbCircle
 10
254.6936110423158
 20
546.5999999999814
 30
0.0
 40
2.0
100
AcDbArc
 50
165.3130541348919
 51
270.0
  0
ARC
  5
321
330
1F
100
AcDbEntity
  8
LAY-10
  6
CONTINUOUS
 62
     7
100
AcDbCircle
 10
237.281751263278
 20
551.1636760440407
 30
0.0
 40
16.0
100
AcDbArc
 50
345.3130541348942
 51
7.778936135303605
  0
ARC
  5
322
330
1F
100
AcDbEntity
  8
LAY-10
  6
CONTINUOUS
 62
     7
100
AcDbCircle
 10
255.1161092719564
 20
553.5999999999814
 30
0.0
 40
2.0
100
AcDbArc
 50
90.00000000000001
 51
187.7789361353065
  0
ARC
  5
323
330
1F
100
AcDbEntity
  8
LAY-10
  6
CONTINUOUS
 62
     7
100
AcDbCircle
 10
229.195015331687
 20
571.5999999999814
 30
0.0
 40
3.000000000000003
100
AcDbArc
 50
0.0
 51
90.00000000000001
  0
ARC
  5
324
330
1F
100
AcDbEntity
  8
LAY-10
  6
CONTINUOUS
 62
     7
100
AcDbCircle
 10
233.7502241679958
 20
571.5999999999814
 30
0.0
 40
3.000000000000003
100
AcDbArc
 50
0.0
 51
90.00000000000001
  0
ARC
  5
325
330
1F
100
AcDbEntity
  8
LAY-10
  6
CONTINUOUS
 62
     7
100
AcDbCircle
 10
249.6497191046078
 20
571.5999999999814
 30
0.0
 40
3.000000000000003
100
AcDbArc
 50
90.00000000000001
 51
180.0
  0
LINE
  5
326
330
1F
100
AcDbEntity
  8
LAY-10
  6
CONTINUOUS
 62
     7
100
AcDbLine
 10
257.4426123234207
 20
563.5999999999814
 30
0.0
 11
257.4426123234207
 21
555.5999999999814
 31
0.0
  0
ARC
  5
327
330
1F
100
AcDbEntity
  8
LAY-10
  6
CONTINUOUS
 62
     7
100
AcDbCircle
 10
230.1950153316875
 20
666.2526043300701
 30
0.0
 40
2.0
100
AcDbArc
 50
0.0
 51
49.70449733192419
  0
ARC
  5
328
330
1F
100
AcDbEntity
  8
LAY-10
  6
CONTINUOUS
 62
     7
100
AcDbCircle
 10
241.8361537693301
 20
679.9815480576709
 30
0.0
 40
16.0
100
AcDbArc
 50
223.4612456038707
 51
229.7044973319309
  0
ARC
  5
329
330
1F
100
AcDbEntity
  8
LAY-10
  6
CONTINUOUS
 62
     7
100
AcDbCircle
 10
228.7710373253362
 20
667.5999999999814
 30
0.0
 40
2.0
100
AcDbArc
 50
43.46124560387104
 51
90.00000000000001
  0
ARC
  5
32A
330
1F
100
AcDbEntity
  8
LAY-10
  6
CONTINUOUS
 62
     7
100
AcDbCircle
 10
250.0736971109563
 20
667.5999999999814
 30
0.0
 40
2.0
100
AcDbArc
 50
90.00000000000001
 51
136.5387543961296
  0
ARC
  5
32B
330
1F
100
AcDbEntity
  8
LAY-10
  6
CONTINUOUS
 62
     7
100
AcDbCircle
 10
248.6497191046074
 20
666.2526043300714
 30
0.0
 40
2.0
100
AcDbArc
 50
130.2955026680896
 51
180.0
  0
ARC
  5
32C
330
1F
100
AcDbEntity
  8
LAY-10
  6
CONTINUOUS
 62
     7
100
AcDbCircle
 10
234.7502241679958
 20
666.2526043300701
 30
0.0
 40
2.0
100
AcDbArc
 50
0.0
 51
49.70449733192419
  0
ARC
  5
32D
330
1F
100
AcDbEntity
  8
LAY-10
  6
CONTINUOUS
 62
     7
100
AcDbCircle
 10
233.3262461616445
 20
667.5999999999814
 30
0.0
 40
2.0
100
AcDbArc
 50
43.46124560386412
 51
90.00000000000001
  0
ARC
  5
32E
330
1F
100
AcDbEntity
  8
LAY-10
  6
CONTINUOUS
 62
     7
100
AcDbCircle
 10
228.2838340006444
 20
679.5999999999814
 30
0.0
 40
2.0
100
AcDbArc
 50
270.0
 51
7.778936135309735
  0
ARC
  5
32F
330
1F
100
AcDbEntity
  8
LAY-10
  6
CONTINUOUS
 62
     7
100
AcDbCircle
 10
228.7063322302852
 20
686.5999999999818
 30
0.0
 40
2.0
100
AcDbArc
 50
345.3130541348817
 51
90.00000000000001
  0
ARC
  5
330
330
1F
100
AcDbEntity
  8
LAY-10
  6
CONTINUOUS
 62
     7
100
AcDbCircle
 10
254.6936110423158
 20
686.5999999999818
 30
0.0
 40
2.0
100
AcDbArc
 50
90.00000000000001
 51
194.6869458651189
  0
ARC
  5
331
330
1F
100
AcDbEntity
  8
LAY-10
  6
CONTINUOUS
 62
     7
100
AcDbCircle
 10
255.1161092719564
 20
679.5999999999814
 30
0.0
 40
2.0
100
AcDbArc
 50
172.2210638646905
 51
270.0
  0
ARC
  5
332
330
1F
100
AcDbEntity
  8
LAY-10
  6
CONTINUOUS
 62
     7
100
AcDbCircle
 10
237.0085806669622
 20
679.9815480576709
 30
0.0
 40
16.0
100
AcDbArc
 50
310.2955026680802
 51
316.5387543961328
  0
ARC
  5
333
330
1F
100
AcDbEntity
  8
LAY-10
  6
CONTINUOUS
 62
     7
100
AcDbCircle
 10
246.3913626056385
 20
679.9815480576709
 30
0.0
 40
16.0
100
AcDbArc
 50
223.4612456038699
 51
229.7044973319309
  0
ARC
  5
334
330
1F
100
AcDbEntity
  8
LAY-10
  6
CONTINUOUS
 62
     7
100
AcDbCircle
 10
246.1181920093229
 20
682.0363239559211
 30
0.0
 40
16.0
100
AcDbArc
 50
165.3130541348941
 51
187.7789361353037
  0
ARC
  5
335
330
1F
100
AcDbEntity
  8
LAY-10
  6
CONTINUOUS
 62
     7
100
AcDbCircle
 10
237.281751263278
 20
682.0363239559211
 30
0.0
 40
16.0
100
AcDbArc
 50
352.2210638646965
 51
14.68694586510585
  0
LINE
  5
336
330
1F
100
AcDbEntity
  8
LAY-10
  6
CONTINUOUS
 62
     7
100
AcDbLine
 10
257.4426123234207
 20
706.5999999999814
 30
0.0
 11
257.4426123234207
 21
714.5999999999814
 31
0.0
  0
LINE
  5
337
330
1F
100
AcDbEntity
  8
LAY-10
  6
CONTINUOUS
 62
     7
100
AcDbLine
 10
232.1950153316875
 20
703.5999999999814
 30
0.0
 11
232.195015331687
 21
699.5999999999814
 31
0.0
  0
ARC
  5
338
330
1F
100
AcDbEntity
  8
LAY-10
  6
CONTINUOUS
 62
     7
100
AcDbCircle
 10
229.1950153316873
 20
703.5999999999814
 30
0.0
 40
3.000000000000003
100
AcDbArc
 50
0.0
 51
90.00000000000001
  0
LINE
  5
339
330
1F
100
AcDbEntity
  8
LAY-10
  6
CONTINUOUS
 62
     7
100
AcDbLine
 10
236.7502241679956
 20
699.5999999999814
 30
0.0
 11
236.7502241679958
 21
703.5999999999814
 31
0.0
  0
ARC
  5
33A
330
1F
100
AcDbEntity
  8
LAY-10
  6
CONTINUOUS
 62
     7
100
AcDbCircle
 10
233.7502241679958
 20
703.5999999999814
 30
0.0
 40
3.000000000000003
100
AcDbArc
 50
0.0
 51
90.00000000000001
  0
LINE
  5
33B
330
1F
100
AcDbEntity
  8
LAY-10
  6
CONTINUOUS
 62
     7
100
AcDbLine
 10
335.9573309491816
 20
688.5999999999814
 30
0.0
 11
254.6936110423158
 21
688.5999999999814
 31
0.0
  0
LINE
  5
33C
330
1F
100
AcDbEntity
  8
LAY-10
  6
CONTINUOUS
 62
     7
100
AcDbLine
 10
335.9573309491816
 20
677.5999999999814
 30
0.0
 11
255.1161092719564
 21
677.5999999999814
 31
0.0
  0
ARC
  5
33D
330
1F
100
AcDbEntity
  8
LAY-10
  6
CONTINUOUS
 62
     7
100
AcDbCircle
 10
229.1950153316868
 20
699.5999999999814
 30
0.0
 40
3.000000000000003
100
AcDbArc
 50
270.0
 51
0.0
  0
ARC
  5
33E
330
1F
100
AcDbEntity
  8
LAY-10
  6
CONTINUOUS
 62
     7
100
AcDbCircle
 10
233.7502241679954
 20
699.5999999999814
 30
0.0
 40
3.000000000000003
100
AcDbArc
 50
270.0
 51
0.0
  0
ARC
  5
33F
330
1F
100
AcDbEntity
  8
LAY-10
  6
CONTINUOUS
 62
     7
100
AcDbCircle
 10
249.6497191046069
 20
703.5999999999814
 30
0.0
 40
3.000000000000003
100
AcDbArc
 50
90.00000000000001
 51
180.0
  0
LINE
  5
340
330
1F
100
AcDbEntity
  8
LAY-10
  6
CONTINUOUS
 62
     7
100
AcDbLine
 10
246.6497191046069
 20
699.5999999999814
 30
0.0
 11
246.6497191046069
 21
703.5999999999814
 31
0.0
  0
ARC
  5
341
330
1F
100
AcDbEntity
  8
LAY-10
  6
CONTINUOUS
 62
     7
100
AcDbCircle
 10
249.6497191046071
 20
699.5999999999814
 30
0.0
 40
3.000000000000003
100
AcDbArc
 50
180.0
 51
270.0
  0
LINE
  5
342
330
1F
100
AcDbEntity
  8
LAY-10
  6
CONTINUOUS
 62
     7
100
AcDbLine
 10
257.4426123234207
 20
688.5999999999805
 30
0.0
 11
257.4426123234207
 21
696.5999999999814
 31
0.0
  0
ARC
  5
343
330
1F
100
AcDbEntity
  8
LAY-10
  6
CONTINUOUS
 62
     7
100
AcDbCircle
 10
335.9573309491816
 20
685.5999999999814
 30
0.0
 40
3.000000000000003
100
AcDbArc
 50
0.0
 51
90.00000000000001
  0
ARC
  5
344
330
1F
100
AcDbEntity
  8
LAY-10
  6
CONTINUOUS
 62
     7
100
AcDbCircle
 10
335.9573309491816
 20
680.5999999999814
 30
0.0
 40
3.000000000000003
100
AcDbArc
 50
270.0
 51
0.0
  0
LINE
  5
345
330
1F
100
AcDbEntity
  8
LAY-10
  6
CONTINUOUS
 62
     7
100
AcDbLine
 10
257.4426123234207
 20
669.5999999999814
 30
0.0
 11
257.4426123234207
 21
677.5999999999814
 31
0.0
  0
LINE
  5
346
330
1F
100
AcDbEntity
  8
LAY-10
  6
CONTINUOUS
 62
     7
100
AcDbLine
 10
257.4426123234209
 20
650.5999999999814
 30
0.0
 11
257.4426123234209
 21
658.5999999999814
 31
0.0
  0
LINE
  5
347
330
1F
100
AcDbEntity
  8
LAY-10
  6
CONTINUOUS
 62
     7
100
AcDbLine
 10
338.9573309491821
 20
661.5999999999814
 30
0.0
 11
338.9573309491821
 21
666.5999999999814
 31
0.0
  0
LINE
  5
348
330
1F
100
AcDbEntity
  8
LAY-10
  6
CONTINUOUS
 62
     7
100
AcDbLine
 10
335.9573309491821
 20
669.5999999999814
 30
0.0
 11
250.0736971109563
 21
669.5999999999814
 31
0.0
  0
ARC
  5
349
330
1F
100
AcDbEntity
  8
LAY-10
  6
CONTINUOUS
 62
     7
100
AcDbCircle
 10
335.9573309491821
 20
666.5999999999814
 30
0.0
 40
3.000000000000003
100
AcDbArc
 50
0.0
 51
90.00000000000001
  0
LINE
  5
34A
330
1F
100
AcDbEntity
  8
LAY-10
  6
CONTINUOUS
 62
     7
100
AcDbLine
 10
335.9573309491821
 20
658.5999999999814
 30
0.0
 11
249.6497191046078
 21
658.5999999999814
 31
0.0
  0
ARC
  5
34B
330
1F
100
AcDbEntity
  8
LAY-10
  6
CONTINUOUS
 62
     7
100
AcDbCircle
 10
335.9573309491821
 20
661.5999999999814
 30
0.0
 40
3.000000000000003
100
AcDbArc
 50
270.0
 51
0.0
  0
LINE
  5
34C
330
1F
100
AcDbEntity
  8
LAY-10
  6
CONTINUOUS
 62
     7
100
AcDbLine
 10
232.1950153316875
 20
666.2526043300701
 30
0.0
 11
232.1950153316875
 21
661.5999999999814
 31
0.0
  0
ARC
  5
34D
330
1F
100
AcDbEntity
  8
LAY-10
  6
CONTINUOUS
 62
     7
100
AcDbCircle
 10
229.195015331687
 20
661.5999999999814
 30
0.0
 40
3.000000000000003
100
AcDbArc
 50
270.0
 51
0.0
  0
LINE
  5
34E
330
1F
100
AcDbEntity
  8
LAY-10
  6
CONTINUOUS
 62
     7
100
AcDbLine
 10
236.7502241679958
 20
661.5999999999814
 30
0.0
 11
236.7502241679958
 21
666.2526043300701
 31
0.0
  0
ARC
  5
34F
330
1F
100
AcDbEntity
  8
LAY-10
  6
CONTINUOUS
 62
     7
100
AcDbCircle
 10
233.7502241679958
 20
661.5999999999814
 30
0.0
 40
3.000000000000003
100
AcDbArc
 50
270.0
 51
0.0
  0
LINE
  5
350
330
1F
100
AcDbEntity
  8
LAY-10
  6
CONTINUOUS
 62
     7
100
AcDbLine
 10
246.6497191046074
 20
661.5999999999814
 30
0.0
 11
246.6497191046074
 21
666.2526043300714
 31
0.0
  0
ARC
  5
351
330
1F
100
AcDbEntity
  8
LAY-10
  6
CONTINUOUS
 62
     7
100
AcDbCircle
 10
249.6497191046078
 20
661.5999999999814
 30
0.0
 40
3.000000000000003
100
AcDbArc
 50
180.0
 51
270.0
  0
LINE
  5
352
330
1F
100
AcDbEntity
  8
LAY-10
  6
CONTINUOUS
 62
     7
100
AcDbLine
 10
338.9573309491821
 20
642.5999999999814
 30
0.0
 11
338.9573309491821
 21
647.5999999999814
 31
0.0
  0
LINE
  5
353
330
1F
100
AcDbEntity
  8
LAY-10
  6
CONTINUOUS
 62
     7
100
AcDbLine
 10
335.9573309491821
 20
650.5999999999814
 30
0.0
 11
249.6497191046078
 21
650.5999999999814
 31
0.0
  0
ARC
  5
354
330
1F
100
AcDbEntity
  8
LAY-10
  6
CONTINUOUS
 62
     7
100
AcDbCircle
 10
335.9573309491821
 20
647.5999999999814
 30
0.0
 40
3.000000000000003
100
AcDbArc
 50
0.0
 51
90.00000000000001
  0
LINE
  5
355
330
1F
100
AcDbEntity
  8
LAY-10
  6
CONTINUOUS
 62
     7
100
AcDbLine
 10
335.9573309491821
 20
639.5999999999814
 30
0.0
 11
249.6497191046078
 21
639.5999999999814
 31
0.0
  0
ARC
  5
356
330
1F
100
AcDbEntity
  8
LAY-10
  6
CONTINUOUS
 62
     7
100
AcDbCircle
 10
335.9573309491821
 20
642.5999999999814
 30
0.0
 40
3.000000000000003
100
AcDbArc
 50
270.0
 51
0.0
  0
LINE
  5
357
330
1F
100
AcDbEntity
  8
LAY-10
  6
CONTINUOUS
 62
     7
100
AcDbLine
 10
232.1950153316875
 20
647.5999999999814
 30
0.0
 11
232.1950153316875
 21
642.5999999999814
 31
0.0
  0
ARC
  5
358
330
1F
100
AcDbEntity
  8
LAY-10
  6
CONTINUOUS
 62
     7
100
AcDbCircle
 10
229.1950153316873
 20
642.5999999999814
 30
0.0
 40
3.000000000000003
100
AcDbArc
 50
270.0
 51
0.0
  0
ARC
  5
359
330
1F
100
AcDbEntity
  8
LAY-10
  6
CONTINUOUS
 62
     7
100
AcDbCircle
 10
229.1950153316873
 20
647.5999999999814
 30
0.0
 40
3.000000000000003
100
AcDbArc
 50
0.0
 51
90.00000000000001
  0
LINE
  5
35A
330
1F
100
AcDbEntity
  8
LAY-10
  6
CONTINUOUS
 62
     7
100
AcDbLine
 10
236.7502241679958
 20
642.5999999999814
 30
0.0
 11
236.7502241679958
 21
647.5999999999814
 31
0.0
  0
ARC
  5
35B
330
1F
100
AcDbEntity
  8
LAY-10
  6
CONTINUOUS
 62
     7
100
AcDbCircle
 10
233.7502241679958
 20
647.5999999999814
 30
0.0
 40
3.000000000000003
100
AcDbArc
 50
0.0
 51
90.00000000000001
  0
ARC
  5
35C
330
1F
100
AcDbEntity
  8
LAY-10
  6
CONTINUOUS
 62
     7
100
AcDbCircle
 10
233.7502241679958
 20
642.5999999999814
 30
0.0
 40
3.000000000000003
100
AcDbArc
 50
270.0
 51
0.0
  0
LINE
  5
35D
330
1F
100
AcDbEntity
  8
LAY-10
  6
CONTINUOUS
 62
     7
100
AcDbLine
 10
257.4426123234209
 20
631.5999999999814
 30
0.0
 11
257.4426123234209
 21
639.5999999999814
 31
0.0
  0
LINE
  5
35E
330
1F
100
AcDbEntity
  8
LAY-10
  6
CONTINUOUS
 62
     7
100
AcDbLine
 10
246.6497191046076
 20
642.5999999999814
 30
0.0
 11
246.6497191046076
 21
647.5999999999814
 31
0.0
  0
ARC
  5
35F
330
1F
100
AcDbEntity
  8
LAY-10
  6
CONTINUOUS
 62
     7
100
AcDbCircle
 10
249.6497191046078
 20
647.5999999999814
 30
0.0
 40
3.000000000000003
100
AcDbArc
 50
90.00000000000001
 51
180.0
  0
ARC
  5
360
330
1F
100
AcDbEntity
  8
LAY-10
  6
CONTINUOUS
 62
     7
100
AcDbCircle
 10
249.6497191046078
 20
642.5999999999814
 30
0.0
 40
3.000000000000003
100
AcDbArc
 50
180.0
 51
270.0
  0
LINE
  5
361
330
1F
100
AcDbEntity
  8
LAY-10
  6
CONTINUOUS
 62
     7
100
AcDbLine
 10
338.9573309491821
 20
623.5999999999818
 30
0.0
 11
338.9573309491821
 21
628.5999999999814
 31
0.0
  0
LINE
  5
362
330
1F
100
AcDbEntity
  8
LAY-10
  6
CONTINUOUS
 62
     7
100
AcDbLine
 10
335.9573309491821
 20
631.5999999999814
 30
0.0
 11
249.6497191046078
 21
631.5999999999814
 31
0.0
  0
ARC
  5
363
330
1F
100
AcDbEntity
  8
LAY-10
  6
CONTINUOUS
 62
     7
100
AcDbCircle
 10
335.9573309491821
 20
628.5999999999814
 30
0.0
 40
3.000000000000003
100
AcDbArc
 50
0.0
 51
90.00000000000001
  0
LINE
  5
364
330
1F
100
AcDbEntity
  8
LAY-10
  6
CONTINUOUS
 62
     7
100
AcDbLine
 10
335.9573309491821
 20
620.5999999999814
 30
0.0
 11
249.6497191046078
 21
620.5999999999814
 31
0.0
  0
ARC
  5
365
330
1F
100
AcDbEntity
  8
LAY-10
  6
CONTINUOUS
 62
     7
100
AcDbCircle
 10
335.9573309491821
 20
623.5999999999818
 30
0.0
 40
3.000000000000003
100
AcDbArc
 50
270.0
 51
0.0
  0
LINE
  5
366
330
1F
100
AcDbEntity
  8
LAY-10
  6
CONTINUOUS
 62
     7
100
AcDbLine
 10
232.1950153316875
 20
628.5999999999814
 30
0.0
 11
232.1950153316875
 21
623.5999999999818
 31
0.0
  0
ARC
  5
367
330
1F
100
AcDbEntity
  8
LAY-10
  6
CONTINUOUS
 62
     7
100
AcDbCircle
 10
229.1950153316873
 20
623.5999999999818
 30
0.0
 40
3.000000000000003
100
AcDbArc
 50
270.0
 51
0.0
  0
ARC
  5
368
330
1F
100
AcDbEntity
  8
LAY-10
  6
CONTINUOUS
 62
     7
100
AcDbCircle
 10
229.1950153316873
 20
628.5999999999814
 30
0.0
 40
3.000000000000003
100
AcDbArc
 50
0.0
 51
90.00000000000001
  0
LINE
  5
369
330
1F
100
AcDbEntity
  8
LAY-10
  6
CONTINUOUS
 62
     7
100
AcDbLine
 10
236.7502241679958
 20
623.5999999999818
 30
0.0
 11
236.7502241679958
 21
628.5999999999814
 31
0.0
  0
ARC
  5
36A
330
1F
100
AcDbEntity
  8
LAY-10
  6
CONTINUOUS
 62
     7
100
AcDbCircle
 10
233.7502241679958
 20
628.5999999999814
 30
0.0
 40
3.000000000000003
100
AcDbArc
 50
0.0
 51
90.00000000000001
  0
ARC
  5
36B
330
1F
100
AcDbEntity
  8
LAY-10
  6
CONTINUOUS
 62
     7
100
AcDbCircle
 10
233.7502241679958
 20
623.5999999999818
 30
0.0
 40
3.000000000000003
100
AcDbArc
 50
270.0
 51
0.0
  0
LINE
  5
36C
330
1F
100
AcDbEntity
  8
LAY-10
  6
CONTINUOUS
 62
     7
100
AcDbLine
 10
246.6497191046076
 20
623.5999999999818
 30
0.0
 11
246.6497191046076
 21
628.5999999999814
 31
0.0
  0
ARC
  5
36D
330
1F
100
AcDbEntity
  8
LAY-10
  6
CONTINUOUS
 62
     7
100
AcDbCircle
 10
249.6497191046078
 20
628.5999999999814
 30
0.0
 40
3.000000000000003
100
AcDbArc
 50
90.00000000000001
 51
180.0
  0
ARC
  5
36E
330
1F
100
AcDbEntity
  8
LAY-10
  6
CONTINUOUS
 62
     7
100
AcDbCircle
 10
249.6497191046078
 20
623.5999999999818
 30
0.0
 40
3.000000000000003
100
AcDbArc
 50
180.0
 51
270.0
  0
LINE
  5
36F
330
1F
100
AcDbEntity
  8
LAY-10
  6
CONTINUOUS
 62
     7
100
AcDbLine
 10
257.4426123234207
 20
526.5999999999814
 30
0.0
 11
257.4426123234207
 21
518.5999999999814
 31
0.0
  0
LINE
  5
370
330
1F
100
AcDbEntity
  8
LAY-10
  6
CONTINUOUS
 62
     7
100
AcDbLine
 10
232.1950153316875
 20
529.5999999999814
 30
0.0
 11
232.195015331687
 21
533.5999999999814
 31
0.0
  0
ARC
  5
371
330
1F
100
AcDbEntity
  8
LAY-10
  6
CONTINUOUS
 62
     7
100
AcDbCircle
 10
229.1950153316868
 20
533.5999999999814
 30
0.0
 40
3.000000000000003
100
AcDbArc
 50
0.0
 51
90.00000000000001
  0
ARC
  5
372
330
1F
100
AcDbEntity
  8
LAY-10
  6
CONTINUOUS
 62
     7
100
AcDbCircle
 10
229.1950153316873
 20
529.5999999999814
 30
0.0
 40
3.000000000000003
100
AcDbArc
 50
270.0
 51
0.0
  0
LINE
  5
373
330
1F
100
AcDbEntity
  8
LAY-10
  6
CONTINUOUS
 62
     7
100
AcDbLine
 10
236.7502241679956
 20
533.5999999999814
 30
0.0
 11
236.7502241679958
 21
529.5999999999814
 31
0.0
  0
ARC
  5
374
330
1F
100
AcDbEntity
  8
LAY-10
  6
CONTINUOUS
 62
     7
100
AcDbCircle
 10
233.7502241679958
 20
529.5999999999814
 30
0.0
 40
3.000000000000003
100
AcDbArc
 50
270.0
 51
0.0
  0
ARC
  5
375
330
1F
100
AcDbEntity
  8
LAY-10
  6
CONTINUOUS
 62
     7
100
AcDbCircle
 10
233.7502241679954
 20
533.5999999999814
 30
0.0
 40
3.000000000000003
100
AcDbArc
 50
0.0
 51
90.00000000000001
  0
ARC
  5
376
330
1F
100
AcDbEntity
  8
LAY-10
  6
CONTINUOUS
 62
     7
100
AcDbCircle
 10
249.6497191046069
 20
529.5999999999814
 30
0.0
 40
3.000000000000003
100
AcDbArc
 50
180.0
 51
270.0
  0
LINE
  5
377
330
1F
100
AcDbEntity
  8
LAY-10
  6
CONTINUOUS
 62
     7
100
AcDbLine
 10
246.6497191046069
 20
533.5999999999818
 30
0.0
 11
246.6497191046069
 21
529.5999999999814
 31
0.0
  0
ARC
  5
378
330
1F
100
AcDbEntity
  8
LAY-10
  6
CONTINUOUS
 62
     7
100
AcDbCircle
 10
249.6497191046071
 20
533.5999999999818
 30
0.0
 40
3.000000000000003
100
AcDbArc
 50
90.00000000000001
 51
180.0
  0
LINE
  5
379
330
1F
100
AcDbEntity
  8
LAY-10
  6
CONTINUOUS
 62
     7
100
AcDbLine
 10
257.4426123234207
 20
544.5999999999814
 30
0.0
 11
257.4426123234207
 21
536.5999999999818
 31
0.0
  0
LINE
  5
37A
330
1F
100
AcDbEntity
  8
LAY-10
  6
CONTINUOUS
 62
     7
100
AcDbLine
 10
335.9573309491816
 20
544.5999999999814
 30
0.0
 11
254.6936110423158
 21
544.5999999999814
 31
0.0
  0
ARC
  5
37B
330
1F
100
AcDbEntity
  8
LAY-10
  6
CONTINUOUS
 62
     7
100
AcDbCircle
 10
335.9573309491816
 20
547.5999999999814
 30
0.0
 40
3.000000000000003
100
AcDbArc
 50
270.0
 51
0.0
  0
LINE
  5
37C
330
1F
100
AcDbEntity
  8
LAY-10
  6
CONTINUOUS
 62
     7
100
AcDbLine
 10
335.9573309491816
 20
555.5999999999814
 30
0.0
 11
255.1161092719564
 21
555.5999999999814
 31
0.0
  0
ARC
  5
37D
330
1F
100
AcDbEntity
  8
LAY-10
  6
CONTINUOUS
 62
     7
100
AcDbCircle
 10
335.9573309491816
 20
552.5999999999814
 30
0.0
 40
3.000000000000003
100
AcDbArc
 50
0.0
 51
90.00000000000001
  0
LINE
  5
37E
330
1F
100
AcDbEntity
  8
LAY-10
  6
CONTINUOUS
 62
     7
100
AcDbLine
 10
257.4426123234209
 20
582.5999999999814
 30
0.0
 11
257.4426123234209
 21
574.5999999999814
 31
0.0
  0
LINE
  5
37F
330
1F
100
AcDbEntity
  8
LAY-10
  6
CONTINUOUS
 62
     7
100
AcDbLine
 10
338.9573309491821
 20
571.5999999999814
 30
0.0
 11
338.9573309491821
 21
566.5999999999814
 31
0.0
  0
ARC
  5
380
330
1F
100
AcDbEntity
  8
LAY-10
  6
CONTINUOUS
 62
     7
100
AcDbCircle
 10
335.9573309491821
 20
566.5999999999814
 30
0.0
 40
3.000000000000003
100
AcDbArc
 50
270.0
 51
0.0
  0
LINE
  5
381
330
1F
100
AcDbEntity
  8
LAY-10
  6
CONTINUOUS
 62
     7
100
AcDbLine
 10
335.9573309491821
 20
574.5999999999814
 30
0.0
 11
249.6497191046078
 21
574.5999999999814
 31
0.0
  0
ARC
  5
382
330
1F
100
AcDbEntity
  8
LAY-10
  6
CONTINUOUS
 62
     7
100
AcDbCircle
 10
335.9573309491821
 20
571.5999999999814
 30
0.0
 40
3.000000000000003
100
AcDbArc
 50
0.0
 51
90.00000000000001
  0
LINE
  5
383
330
1F
100
AcDbEntity
  8
LAY-10
  6
CONTINUOUS
 62
     7
100
AcDbLine
 10
257.4426123234211
 20
612.5999999999814
 30
0.0
 11
257.4426123234211
 21
620.5999999999814
 31
0.0
  0
LINE
  5
384
330
1F
100
AcDbEntity
  8
LAY-10
  6
CONTINUOUS
 62
     7
100
AcDbLine
 10
338.9573309491821
 20
590.5999999999814
 30
0.0
 11
338.9573309491821
 21
585.5999999999814
 31
0.0
  0
LINE
  5
385
330
1F
100
AcDbEntity
  8
LAY-10
  6
CONTINUOUS
 62
     7
100
AcDbLine
 10
335.9573309491821
 20
582.5999999999814
 30
0.0
 11
249.6497191046078
 21
582.5999999999814
 31
0.0
  0
ARC
  5
386
330
1F
100
AcDbEntity
  8
LAY-10
  6
CONTINUOUS
 62
     7
100
AcDbCircle
 10
335.9573309491821
 20
585.5999999999814
 30
0.0
 40
3.000000000000003
100
AcDbArc
 50
270.0
 51
0.0
  0
LINE
  5
387
330
1F
100
AcDbEntity
  8
LAY-10
  6
CONTINUOUS
 62
     7
100
AcDbLine
 10
335.9573309491821
 20
593.5999999999814
 30
0.0
 11
249.6497191046078
 21
593.5999999999814
 31
0.0
  0
ARC
  5
388
330
1F
100
AcDbEntity
  8
LAY-10
  6
CONTINUOUS
 62
     7
100
AcDbCircle
 10
335.9573309491821
 20
590.5999999999814
 30
0.0
 40
3.000000000000003
100
AcDbArc
 50
0.0
 51
90.00000000000001
  0
LINE
  5
389
330
1F
100
AcDbEntity
  8
LAY-10
  6
CONTINUOUS
 62
     7
100
AcDbLine
 10
232.1950153316875
 20
585.5999999999814
 30
0.0
 11
232.1950153316875
 21
590.5999999999814
 31
0.0
  0
ARC
  5
38A
330
1F
100
AcDbEntity
  8
LAY-10
  6
CONTINUOUS
 62
     7
100
AcDbCircle
 10
229.1950153316873
 20
590.5999999999814
 30
0.0
 40
3.000000000000003
100
AcDbArc
 50
0.0
 51
90.00000000000001
  0
ARC
  5
38B
330
1F
100
AcDbEntity
  8
LAY-10
  6
CONTINUOUS
 62
     7
100
AcDbCircle
 10
229.1950153316873
 20
585.5999999999814
 30
0.0
 40
3.000000000000003
100
AcDbArc
 50
270.0
 51
0.0
  0
LINE
  5
38C
330
1F
100
AcDbEntity
  8
LAY-10
  6
CONTINUOUS
 62
     7
100
AcDbLine
 10
236.7502241679958
 20
590.5999999999814
 30
0.0
 11
236.7502241679958
 21
585.5999999999814
 31
0.0
  0
ARC
  5
38D
330
1F
100
AcDbEntity
  8
LAY-10
  6
CONTINUOUS
 62
     7
100
AcDbCircle
 10
233.7502241679958
 20
585.5999999999814
 30
0.0
 40
3.000000000000003
100
AcDbArc
 50
270.0
 51
0.0
  0
ARC
  5
38E
330
1F
100
AcDbEntity
  8
LAY-10
  6
CONTINUOUS
 62
     7
100
AcDbCircle
 10
233.7502241679958
 20
590.5999999999814
 30
0.0
 40
3.000000000000003
100
AcDbArc
 50
0.0
 51
90.00000000000001
  0
LINE
  5
38F
330
1F
100
AcDbEntity
  8
LAY-10
  6
CONTINUOUS
 62
     7
100
AcDbLine
 10
257.4426123234209
 20
601.5999999999814
 30
0.0
 11
257.4426123234209
 21
593.5999999999814
 31
0.0
  0
LINE
  5
390
330
1F
100
AcDbEntity
  8
LAY-10
  6
CONTINUOUS
 62
     7
100
AcDbLine
 10
246.6497191046076
 20
590.5999999999814
 30
0.0
 11
246.6497191046076
 21
585.5999999999814
 31
0.0
  0
ARC
  5
391
330
1F
100
AcDbEntity
  8
LAY-10
  6
CONTINUOUS
 62
     7
100
AcDbCircle
 10
249.6497191046078
 20
585.5999999999814
 30
0.0
 40
3.000000000000003
100
AcDbArc
 50
180.0
 51
270.0
  0
ARC
  5
392
330
1F
100
AcDbEntity
  8
LAY-10
  6
CONTINUOUS
 62
     7
100
AcDbCircle
 10
249.6497191046078
 20
590.5999999999814
 30
0.0
 40
3.000000000000003
100
AcDbArc
 50
90.00000000000001
 51
180.0
  0
LINE
  5
393
330
1F
100
AcDbEntity
  8
LAY-10
  6
CONTINUOUS
 62
     7
100
AcDbLine
 10
338.9573309491821
 20
609.5999999999814
 30
0.0
 11
338.9573309491821
 21
604.5999999999805
 31
0.0
  0
LINE
  5
394
330
1F
100
AcDbEntity
  8
LAY-10
  6
CONTINUOUS
 62
     7
100
AcDbLine
 10
335.9573309491821
 20
601.5999999999814
 30
0.0
 11
249.6497191046078
 21
601.5999999999814
 31
0.0
  0
ARC
  5
395
330
1F
100
AcDbEntity
  8
LAY-10
  6
CONTINUOUS
 62
     7
100
AcDbCircle
 10
335.9573309491821
 20
604.5999999999805
 30
0.0
 40
3.000000000000003
100
AcDbArc
 50
270.0
 51
0.0
  0
LINE
  5
396
330
1F
100
AcDbEntity
  8
LAY-10
  6
CONTINUOUS
 62
     7
100
AcDbLine
 10
335.9573309491821
 20
612.5999999999814
 30
0.0
 11
249.6497191046078
 21
612.5999999999814
 31
0.0
  0
ARC
  5
397
330
1F
100
AcDbEntity
  8
LAY-10
  6
CONTINUOUS
 62
     7
100
AcDbCircle
 10
335.9573309491821
 20
609.5999999999814
 30
0.0
 40
3.000000000000003
100
AcDbArc
 50
0.0
 51
90.00000000000001
  0
LINE
  5
398
330
1F
100
AcDbEntity
  8
LAY-10
  6
CONTINUOUS
 62
     7
100
AcDbLine
 10
232.1950153316875
 20
604.5999999999805
 30
0.0
 11
232.1950153316875
 21
609.5999999999814
 31
0.0
  0
ARC
  5
399
330
1F
100
AcDbEntity
  8
LAY-10
  6
CONTINUOUS
 62
     7
100
AcDbCircle
 10
229.1950153316873
 20
609.5999999999814
 30
0.0
 40
3.000000000000003
100
AcDbArc
 50
0.0
 51
90.00000000000001
  0
ARC
  5
39A
330
1F
100
AcDbEntity
  8
LAY-10
  6
CONTINUOUS
 62
     7
100
AcDbCircle
 10
229.1950153316873
 20
604.5999999999805
 30
0.0
 40
3.000000000000003
100
AcDbArc
 50
270.0
 51
0.0
  0
LINE
  5
39B
330
1F
100
AcDbEntity
  8
LAY-10
  6
CONTINUOUS
 62
     7
100
AcDbLine
 10
236.7502241679958
 20
609.5999999999814
 30
0.0
 11
236.7502241679958
 21
604.5999999999805
 31
0.0
  0
ARC
  5
39C
330
1F
100
AcDbEntity
  8
LAY-10
  6
CONTINUOUS
 62
     7
100
AcDbCircle
 10
233.7502241679958
 20
604.5999999999805
 30
0.0
 40
3.000000000000003
100
AcDbArc
 50
270.0
 51
0.0
  0
ARC
  5
39D
330
1F
100
AcDbEntity
  8
LAY-10
  6
CONTINUOUS
 62
     7
100
AcDbCircle
 10
233.7502241679958
 20
609.5999999999814
 30
0.0
 40
3.000000000000003
100
AcDbArc
 50
0.0
 51
90.00000000000001
  0
LINE
  5
39E
330
1F
100
AcDbEntity
  8
LAY-10
  6
CONTINUOUS
 62
     7
100
AcDbLine
 10
246.6497191046076
 20
609.5999999999814
 30
0.0
 11
246.6497191046076
 21
604.5999999999805
 31
0.0
  0
ARC
  5
39F
330
1F
100
AcDbEntity
  8
LAY-10
  6
CONTINUOUS
 62
     7
100
AcDbCircle
 10
249.6497191046078
 20
604.5999999999805
 30
0.0
 40
3.000000000000003
100
AcDbArc
 50
180.0
 51
270.0
  0
ARC
  5
3A0
330
1F
100
AcDbEntity
  8
LAY-10
  6
CONTINUOUS
 62
     7
100
AcDbCircle
 10
249.6497191046078
 20
609.5999999999814
 30
0.0
 40
3.000000000000003
100
AcDbArc
 50
90.00000000000001
 51
180.0
  0
LINE
  5
3A1
330
1F
100
AcDbEntity
  8
LAY-10
  6
CONTINUOUS
 62
     7
100
AcDbLine
 10
350.9573309491821
 20
518.5999999999805
 30
0.0
 11
350.9573309491821
 21
714.5999999999814
 31
0.0
  0
LINE
  5
3A2
330
1F
100
AcDbEntity
  8
LAY-10
  6
CONTINUOUS
 62
     7
100
AcDbLine
 10
354.3651052600985
 20
716.5579887924497
 30
0.0
 11
344.0397950233219
 21
716.2855533241838
 31
0.0
  0
LINE
  5
3A3
330
1F
100
AcDbEntity
  8
LAY-10
  6
CONTINUOUS
 62
     7
100
AcDbLine
 10
354.7233343131484
 20
720.550902355638
 30
0.0
 11
349.0490357440322
 21
721.2813011307836
 31
0.0
  0
ARC
  5
3A4
330
1F
100
AcDbEntity
  8
LAY-10
  6
CONTINUOUS
 62
     7
100
AcDbCircle
 10
353.9573309492719
 20
714.5999999999832
 30
0.0
 40
6.0
100
AcDbArc
 50
0.0
 51
90.00000000000001
  0
LINE
  5
3A5
330
1F
100
AcDbEntity
  8
LAY-10
  6
CONTINUOUS
 62
     7
100
AcDbLine
 10
353.9573309492719
 20
720.5999999999832
 30
0.0
 11
226.9573309492216
 21
720.5999999999832
 31
0.0
  0
ARC
  5
3A6
330
1F
100
AcDbEntity
  8
LAY-10
  6
CONTINUOUS
 62
     7
100
AcDbCircle
 10
353.9573309492621
 20
714.5999999999832
 30
0.0
 40
2.0
100
AcDbArc
 50
0.0
 51
90.00000000000001
  0
LINE
  5
3A7
330
1F
100
AcDbEntity
  8
LAY-10
  6
CONTINUOUS
 62
     7
100
AcDbLine
 10
353.9573309492621
 20
716.5999999999832
 30
0.0
 11
226.9573309492216
 21
716.5999999999832
 31
0.0
  0
LINE
  5
3A8
330
1F
100
AcDbEntity
  8
LAY-10
  6
CONTINUOUS
 62
     7
100
AcDbLine
 10
344.0397950233219
 20
716.2855533241838
 30
0.0
 11
325.9573309492721
 21
716.2855533241838
 31
0.0
  0
LINE
  5
3A9
330
1F
100
AcDbEntity
  8
LAY-10
  6
CONTINUOUS
 62
     7
100
AcDbLine
 10
226.9573309492216
 20
715.9186988691828
 30
0.0
 11
322.9573309492826
 21
715.9186988691828
 31
0.0
  0
LINE
  5
3AA
330
1F
100
AcDbEntity
  8
LAY-10
  6
CONTINUOUS
 62
     7
100
AcDbLine
 10
354.3651052600985
 20
516.6420112075176
 30
0.0
 11
344.0397950233219
 21
516.9144466757836
 31
0.0
  0
LINE
  5
3AB
330
1F
100
AcDbEntity
  8
LAY-10
  6
CONTINUOUS
 62
     7
100
AcDbLine
 10
354.7233343131484
 20
512.6490976443293
 30
0.0
 11
349.0490357440322
 21
511.9186988691837
 31
0.0
  0
ARC
  5
3AC
330
1F
100
AcDbEntity
  8
LAY-10
  6
CONTINUOUS
 62
     7
100
AcDbCircle
 10
353.9573309492719
 20
518.5999999999832
 30
0.0
 40
6.0
100
AcDbArc
 50
270.0
 51
0.0
  0
ARC
  5
3AD
330
1F
100
AcDbEntity
  8
LAY-10
  6
CONTINUOUS
 62
     7
100
AcDbCircle
 10
353.9573309492621
 20
518.5999999999832
 30
0.0
 40
2.0
100
AcDbArc
 50
270.0
 51
0.0
  0
LINE
  5
3AE
330
1F
100
AcDbEntity
  8
LAY-10
  6
CONTINUOUS
 62
     7
100
AcDbLine
 10
344.0397950233219
 20
516.9144466757826
 30
0.0
 11
325.9573309492721
 21
516.9144466757826
 31
0.0
  0
ARC
  5
3AF
330
1F
100
AcDbEntity
  8
LAY-10
  6
CONTINUOUS
 62
     7
100
AcDbCircle
 10
336.9573309491818
 20
534.5999999999814
 30
0.0
 40
2.0
100
AcDbArc
 50
0.0
 51
90.00000000000001
  0
ARC
  5
3B0
330
1F
100
AcDbEntity
  8
LAY-10
  6
CONTINUOUS
 62
     7
100
AcDbCircle
 10
336.9573309491818
 20
528.5999999999814
 30
0.0
 40
2.0
100
AcDbArc
 50
270.0
 51
0.0
  0
LINE
  5
3B1
330
1F
100
AcDbEntity
  8
LAY-10
  6
CONTINUOUS
 62
     7
100
AcDbLine
 10
336.9573309491818
 20
526.5999999999814
 30
0.0
 11
249.6497191046069
 21
526.5999999999814
 31
0.0
  0
LINE
  5
3B2
330
1F
100
AcDbEntity
  8
LAY-10
  6
CONTINUOUS
 62
     7
100
AcDbLine
 10
338.9573309491818
 20
528.5999999999814
 30
0.0
 11
338.9573309491818
 21
534.5999999999814
 31
0.0
  0
LINE
  5
3B3
330
1F
100
AcDbEntity
  8
LAY-10
  6
CONTINUOUS
 62
     7
100
AcDbLine
 10
336.9573309491799
 20
536.5999999999814
 30
0.0
 11
249.6497191046053
 21
536.5999999999814
 31
0.0
  0
ARC
  5
3B4
330
1F
100
AcDbEntity
  8
LAY-10
  6
CONTINUOUS
 62
     7
100
AcDbCircle
 10
336.9573309491818
 20
698.5999999999814
 30
0.0
 40
2.0
100
AcDbArc
 50
270.0
 51
0.0
  0
LINE
  5
3B5
330
1F
100
AcDbEntity
  8
LAY-10
  6
CONTINUOUS
 62
     7
100
AcDbLine
 10
338.9573309491818
 20
704.5999999999814
 30
0.0
 11
338.9573309491818
 21
698.5999999999814
 31
0.0
  0
ARC
  5
3B6
330
1F
100
AcDbEntity
  8
LAY-10
  6
CONTINUOUS
 62
     7
100
AcDbCircle
 10
336.9573309491818
 20
704.5999999999814
 30
0.0
 40
2.0
100
AcDbArc
 50
0.0
 51
90.00000000000001
  0
LINE
  5
3B7
330
1F
100
AcDbEntity
  8
LAY-10
  6
CONTINUOUS
 62
     7
100
AcDbLine
 10
336.9573309491818
 20
706.5999999999814
 30
0.0
 11
249.6497191046069
 21
706.5999999999814
 31
0.0
  0
LINE
  5
3B8
330
1F
100
AcDbEntity
  8
LAY-10
  6
CONTINUOUS
 62
     7
100
AcDbLine
 10
336.9573309491799
 20
696.5999999999814
 30
0.0
 11
249.6497191046071
 21
696.5999999999814
 31
0.0
  0
LINE
  5
3B9
330
1F
100
AcDbEntity
  8
LAY-10
  6
CONTINUOUS
 62
     7
100
AcDbLine
 10
338.9573309491816
 20
552.5999999999814
 30
0.0
 11
338.9573309491816
 21
547.59999999998
 31
0.0
  0
LINE
  5
3BA
330
1F
100
AcDbEntity
  8
LAY-10
  6
CONTINUOUS
 62
     7
100
AcDbLine
 10
338.9573309491816
 20
680.5999999999814
 30
0.0
 11
338.9573309491816
 21
685.59999999998
 31
0.0
  0
LINE
  5
3BB
330
1F
100
AcDbEntity
  8
LAY-10
  6
CONTINUOUS
 62
     7
100
AcDbLine
 10
359.9573309492699
 20
702.7473460385299
 30
0.0
 11
350.9573309491799
 21
699.96864961957
 31
0.0
  0
LINE
  5
3BC
330
1F
100
AcDbEntity
  8
LAY-10
  6
CONTINUOUS
 62
     7
100
AcDbLine
 10
359.9573309492699
 20
703.09999999996
 30
0.0
 11
350.9573309491799
 21
701.33673019286
 31
0.0
  0
LINE
  5
3BD
330
1F
100
AcDbEntity
  8
LAY-10
  6
CONTINUOUS
 62
     7
100
AcDbLine
 10
359.9573309492699
 20
690.09999999998
 30
0.0
 11
350.9573309491799
 21
691.8632698071
 31
0.0
  0
LINE
  5
3BE
330
1F
100
AcDbEntity
  8
LAY-10
  6
CONTINUOUS
 62
     7
100
AcDbLine
 10
359.9573309492699
 20
690.27632698072
 30
0.0
 11
350.9573309491799
 21
693.2313503804
 31
0.0
  0
LINE
  5
3BF
330
1F
100
AcDbEntity
  8
LAY-10
  6
CONTINUOUS
 62
     7
100
AcDbLine
 10
359.9573309492719
 20
714.5999999999832
 30
0.0
 11
359.9573309492719
 21
702.7473460385306
 31
0.0
  0
LINE
  5
3C0
330
1F
100
AcDbEntity
  8
LAY-10
  6
CONTINUOUS
 62
     7
100
AcDbLine
 10
355.9573309492621
 20
714.5999999999832
 30
0.0
 11
355.9573309492621
 21
702.3163245301441
 31
0.0
  0
LINE
  5
3C1
330
1F
100
AcDbEntity
  8
LAY-10
  6
CONTINUOUS
 62
     7
100
AcDbLine
 10
359.9573309492699
 20
662.7473460385299
 30
0.0
 11
350.9573309491799
 21
659.96864961957
 31
0.0
  0
LINE
  5
3C2
330
1F
100
AcDbEntity
  8
LAY-10
  6
CONTINUOUS
 62
     7
100
AcDbLine
 10
359.9573309492699
 20
662.92367301924
 30
0.0
 11
350.9573309491799
 21
661.33673019286
 31
0.0
  0
LINE
  5
3C3
330
1F
100
AcDbEntity
  8
LAY-10
  6
CONTINUOUS
 62
     7
100
AcDbLine
 10
359.9573309492699
 20
650.27632698072
 30
0.0
 11
350.9573309491799
 21
651.8632698071
 31
0.0
  0
LINE
  5
3C4
330
1F
100
AcDbEntity
  8
LAY-10
  6
CONTINUOUS
 62
     7
100
AcDbLine
 10
350.9573309491799
 20
653.2313503804
 30
0.0
 11
359.9573309492699
 21
650.45265396143
 31
0.0
  0
LINE
  5
3C5
330
1F
100
AcDbEntity
  8
LAY-10
  6
CONTINUOUS
 62
     7
100
AcDbLine
 10
359.9573309492719
 20
690.2763269807194
 30
0.0
 11
359.9573309492719
 21
662.7473460385305
 31
0.0
  0
LINE
  5
3C6
330
1F
100
AcDbEntity
  8
LAY-10
  6
CONTINUOUS
 62
     7
100
AcDbLine
 10
355.9573309492621
 20
690.8836754698049
 30
0.0
 11
355.9573309492621
 21
662.2183650964101
 31
0.0
  0
LINE
  5
3C7
330
1F
100
AcDbEntity
  8
LAY-10
  6
CONTINUOUS
 62
     7
100
AcDbLine
 10
359.9573309492699
 20
622.92367301924
 30
0.0
 11
350.9573309491799
 21
621.33673019286
 31
0.0
  0
LINE
  5
3C8
330
1F
100
AcDbEntity
  8
LAY-10
  6
CONTINUOUS
 62
     7
100
AcDbLine
 10
350.9573309491799
 20
619.96864961957
 30
0.0
 11
359.9573309492699
 21
622.7473460385299
 31
0.0
  0
LINE
  5
3C9
330
1F
100
AcDbEntity
  8
LAY-10
  6
CONTINUOUS
 62
     7
100
AcDbLine
 10
359.9573309492699
 20
610.45265396143
 30
0.0
 11
350.9573309491799
 21
613.2313503804
 31
0.0
  0
LINE
  5
3CA
330
1F
100
AcDbEntity
  8
LAY-10
  6
CONTINUOUS
 62
     7
100
AcDbLine
 10
350.9573309491799
 20
611.8632698071
 30
0.0
 11
359.9573309492699
 21
610.27632698073
 31
0.0
  0
LINE
  5
3CB
330
1F
100
AcDbEntity
  8
LAY-10
  6
CONTINUOUS
 62
     7
100
AcDbLine
 10
359.9573309492719
 20
650.4526539614294
 30
0.0
 11
359.9573309492719
 21
622.7473460385305
 31
0.0
  0
LINE
  5
3CC
330
1F
100
AcDbEntity
  8
LAY-10
  6
CONTINUOUS
 62
     7
100
AcDbLine
 10
355.9573309492621
 20
650.9816349035499
 30
0.0
 11
355.9573309492621
 21
622.2183650964101
 31
0.0
  0
LINE
  5
3CD
330
1F
100
AcDbEntity
  8
LAY-10
  6
CONTINUOUS
 62
     7
100
AcDbLine
 10
359.9573309492699
 20
530.4526539615701
 30
0.0
 11
350.9573309491799
 21
533.2313503805301
 31
0.0
  0
LINE
  5
3CE
330
1F
100
AcDbEntity
  8
LAY-10
  6
CONTINUOUS
 62
     7
100
AcDbLine
 10
359.9573309492699
 20
530.1000000001401
 30
0.0
 11
350.9573309491799
 21
531.86326980724
 31
0.0
  0
LINE
  5
3CF
330
1F
100
AcDbEntity
  8
LAY-10
  6
CONTINUOUS
 62
     7
100
AcDbLine
 10
359.9573309492699
 20
543.1000000001201
 30
0.0
 11
350.9573309491799
 21
541.3367301930001
 31
0.0
  0
LINE
  5
3D0
330
1F
100
AcDbEntity
  8
LAY-10
  6
CONTINUOUS
 62
     7
100
AcDbLine
 10
359.9573309492699
 20
542.9236730193801
 30
0.0
 11
350.9573309491799
 21
539.9686496197
 31
0.0
  0
LINE
  5
3D1
330
1F
100
AcDbEntity
  8
LAY-10
  6
CONTINUOUS
 62
     7
100
AcDbLine
 10
359.9573309492699
 20
570.4526539615701
 30
0.0
 11
350.9573309491799
 21
573.2313503805301
 31
0.0
  0
LINE
  5
3D2
330
1F
100
AcDbEntity
  8
LAY-10
  6
CONTINUOUS
 62
     7
100
AcDbLine
 10
359.9573309492699
 20
570.2763269808601
 30
0.0
 11
350.9573309491799
 21
571.86326980724
 31
0.0
  0
LINE
  5
3D3
330
1F
100
AcDbEntity
  8
LAY-10
  6
CONTINUOUS
 62
     7
100
AcDbLine
 10
359.9573309492699
 20
582.9236730193801
 30
0.0
 11
350.9573309491799
 21
581.3367301930001
 31
0.0
  0
LINE
  5
3D4
330
1F
100
AcDbEntity
  8
LAY-10
  6
CONTINUOUS
 62
     7
100
AcDbLine
 10
350.9573309491799
 20
579.9686496197
 30
0.0
 11
359.9573309492699
 21
582.7473460386701
 31
0.0
  0
LINE
  5
3D5
330
1F
100
AcDbEntity
  8
LAY-10
  6
CONTINUOUS
 62
     7
100
AcDbLine
 10
359.9573309492719
 20
610.4526539614294
 30
0.0
 11
359.9573309492719
 21
582.7473460386708
 31
0.0
  0
LINE
  5
3D6
330
1F
100
AcDbEntity
  8
LAY-10
  6
CONTINUOUS
 62
     7
100
AcDbLine
 10
359.9573309492719
 20
570.4526539615696
 30
0.0
 11
359.9573309492719
 21
542.9236730193807
 31
0.0
  0
LINE
  5
3D7
330
1F
100
AcDbEntity
  8
LAY-10
  6
CONTINUOUS
 62
     7
100
AcDbLine
 10
359.9573309492719
 20
530.4526539615696
 30
0.0
 11
359.9573309492719
 21
518.5999999999832
 31
0.0
  0
LINE
  5
3D8
330
1F
100
AcDbEntity
  8
LAY-10
  6
CONTINUOUS
 62
     7
100
AcDbLine
 10
355.9573309492621
 20
530.883675469956
 30
0.0
 11
355.9573309492621
 21
518.5999999999832
 31
0.0
  0
LINE
  5
3D9
330
1F
100
AcDbEntity
  8
LAY-10
  6
CONTINUOUS
 62
     7
100
AcDbLine
 10
226.9573309492216
 20
512.5999999999832
 30
0.0
 11
226.9573309492216
 21
720.5999999999832
 31
0.0
  0
LINE
  5
3DA
330
1F
100
AcDbEntity
  8
LAY-10
  6
CONTINUOUS
 62
     7
100
AcDbLine
 10
226.9573309492216
 20
536.5999999999814
 30
0.0
 11
233.7502241679954
 21
536.5999999999814
 31
0.0
  0
LINE
  5
3DB
330
1F
100
AcDbEntity
  8
LAY-10
  6
CONTINUOUS
 62
     7
100
AcDbLine
 10
226.9573309492216
 20
574.5999999999814
 30
0.0
 11
233.7502241679958
 21
574.5999999999814
 31
0.0
  0
LINE
  5
3DC
330
1F
100
AcDbEntity
  8
LAY-10
  6
CONTINUOUS
 62
     7
100
AcDbLine
 10
226.9573309492216
 20
582.5999999999814
 30
0.0
 11
233.7502241679958
 21
582.5999999999814
 31
0.0
  0
LINE
  5
3DD
330
1F
100
AcDbEntity
  8
LAY-10
  6
CONTINUOUS
 62
     7
100
AcDbLine
 10
226.9573309492216
 20
650.5999999999814
 30
0.0
 11
233.7502241679958
 21
650.5999999999814
 31
0.0
  0
LINE
  5
3DE
330
1F
100
AcDbEntity
  8
LAY-10
  6
CONTINUOUS
 62
     7
100
AcDbLine
 10
226.9573309492216
 20
658.5999999999814
 30
0.0
 11
233.7502241679958
 21
658.5999999999814
 31
0.0
  0
LINE
  5
3DF
330
1F
100
AcDbEntity
  8
LAY-10
  6
CONTINUOUS
 62
     7
100
AcDbLine
 10
226.9573309492216
 20
620.5999999999814
 30
0.0
 11
233.7502241679958
 21
620.5999999999814
 31
0.0
  0
LINE
  5
3E0
330
1F
100
AcDbEntity
  8
LAY-10
  6
CONTINUOUS
 62
     7
100
AcDbLine
 10
226.9573309492216
 20
612.5999999999814
 30
0.0
 11
233.7502241679958
 21
612.5999999999814
 31
0.0
  0
LINE
  5
3E1
330
1F
100
AcDbEntity
  8
LAY-10
  6
CONTINUOUS
 62
     7
100
AcDbLine
 10
226.9573309492216
 20
696.5999999999814
 30
0.0
 11
233.7502241679954
 21
696.5999999999814
 31
0.0
  0
TEXT
  5
3E2
330
1F
100
AcDbEntity
  8
LAY-10
  6
CONTINUOUS
 62
     7
100
AcDbText
 10
244.7755617766278
 20
562.5999999999788
 30
0.0
 40
6.54803154263382
  1
ＦＵＫＵＮＩＳＨＩ
 50
89.99999999999996
 41
1.598553417983995
  7
EXCADSTD
100
AcDbText
  0
LINE
  5
3E3
330
1F
100
AcDbEntity
  8
LAY-10
  6
CONTINUOUS
 62
     7
100
AcDbLine
 10
355.9573309492621
 20
570.98163490369
 30
0.0
 11
355.9573309492621
 21
542.3163245302953
 31
0.0
  0
LINE
  5
3E4
330
1F
100
AcDbEntity
  8
LAY-10
  6
CONTINUOUS
 62
     7
100
AcDbLine
 10
355.9573309492621
 20
610.9816349035555
 30
0.0
 11
355.9573309492621
 21
582.2183650965502
 31
0.0
  0
LINE
  5
3E5
330
1F
100
AcDbEntity
  8
LAY-10
  6
CONTINUOUS
 62
     7
100
AcDbLine
 10
294.4645342455699
 20
517.2813011307836
 30
0.0
 11
322.9573309492826
 21
517.2813011307836
 31
0.0
  0
LINE
  5
3E6
330
1F
100
AcDbEntity
  8
LAY-10
  6
CONTINUOUS
 62
     7
100
AcDbLine
 10
349.0490357440322
 20
511.9186988691837
 30
0.0
 11
294.4645342455699
 21
511.9186988691837
 31
0.0
  0
LINE
  5
3E7
330
1F
100
AcDbEntity
  8
LAY-10
  6
CONTINUOUS
 62
     7
100
AcDbLine
 10
353.9573309492621
 20
516.5999999999837
 30
0.0
 11
301.6150558010914
 21
516.5999999999837
 31
0.0
  0
LINE
  5
3E8
330
1F
100
AcDbEntity
  8
LAY-10
  6
CONTINUOUS
 62
     7
100
AcDbLine
 10
353.9573309492719
 20
512.5999999999832
 30
0.0
 11
301.6150558011299
 21
512.5999999999832
 31
0.0
  0
LINE
  5
3E9
330
1F
100
AcDbEntity
  8
LAY-10
  6
CONTINUOUS
 62
     7
100
AcDbLine
 10
301.61505580113
 20
512.59999999998
 30
0.0
 11
294.4645342455699
 21
511.91869886918
 31
0.0
  0
LINE
  5
3EA
330
1F
100
AcDbEntity
  8
LAY-10
  6
CONTINUOUS
 62
     7
100
AcDbLine
 10
294.4645342455699
 20
517.28130113078
 30
0.0
 11
301.61505580113
 21
516.59999999998
 31
0.0
  0
LINE
  5
3EB
330
1F
100
AcDbEntity
  8
LAY-10
  6
CONTINUOUS
 62
     7
100
AcDbLine
 10
294.4645342455699
 20
511.9186988691837
 30
0.0
 11
294.4645342455699
 21
517.2813011307836
 31
0.0
  0
LINE
  5
3EC
330
1F
100
AcDbEntity
  8
LAY-10
  6
CONTINUOUS
 62
     7
100
AcDbLine
 10
301.6150558011299
 20
512.5999999999832
 30
0.0
 11
301.6150558011299
 21
516.5999999999837
 31
0.0
  0
LINE
  5
3ED
330
1F
100
AcDbEntity
  8
LAY-10
  6
CONTINUOUS
 62
     7
100
AcDbLine
 10
254.4645342455298
 20
511.9186988691837
 30
0.0
 11
254.4645342455298
 21
517.2813011307836
 31
0.0
  0
LINE
  5
3EE
330
1F
100
AcDbEntity
  8
LAY-10
  6
CONTINUOUS
 62
     7
100
AcDbLine
 10
289.95733094926
 20
516.5999999999837
 30
0.0
 11
261.6150558010515
 21
516.5999999999837
 31
0.0
  0
LINE
  5
3EF
330
1F
100
AcDbEntity
  8
LAY-10
  6
CONTINUOUS
 62
     7
100
AcDbLine
 10
254.4645342455298
 20
517.2813011307836
 30
0.0
 11
291.95733094926
 21
517.2813011307836
 31
0.0
  0
LINE
  5
3F0
330
1F
100
AcDbEntity
  8
LAY-10
  6
CONTINUOUS
 62
     7
100
AcDbLine
 10
289.9573309492599
 20
512.5999999999832
 30
0.0
 11
261.61505580109
 21
512.5999999999832
 31
0.0
  0
LINE
  5
3F1
330
1F
100
AcDbEntity
  8
LAY-10
  6
CONTINUOUS
 62
     7
100
AcDbLine
 10
291.95733094926
 20
511.9186988691837
 30
0.0
 11
254.4645342455298
 21
511.9186988691837
 31
0.0
  0
LINE
  5
3F2
330
1F
100
AcDbEntity
  8
LAY-10
  6
CONTINUOUS
 62
     7
100
AcDbLine
 10
261.68715581201
 20
516.59999999998
 30
0.0
 11
254.46453424553
 21
517.28130113078
 31
0.0
  0
LINE
  5
3F3
330
1F
100
AcDbEntity
  8
LAY-10
  6
CONTINUOUS
 62
     7
100
AcDbLine
 10
261.68715581201
 20
512.59999999998
 30
0.0
 11
254.46453424553
 21
511.9186988691799
 31
0.0
  0
LINE
  5
3F4
330
1F
100
AcDbEntity
  8
LAY-10
  6
CONTINUOUS
 62
     7
100
AcDbLine
 10
249.9573309492599
 20
516.5999999999837
 30
0.0
 11
226.9573309492216
 21
516.5999999999837
 31
0.0
  0
LINE
  5
3F5
330
1F
100
AcDbEntity
  8
LAY-10
  6
CONTINUOUS
 62
     7
100
AcDbLine
 10
226.9573309492216
 20
517.2813011307836
 30
0.0
 11
251.95733094926
 21
517.2813011307836
 31
0.0
  0
LINE
  5
3F6
330
1F
100
AcDbEntity
  8
LAY-10
  6
CONTINUOUS
 62
     7
100
AcDbLine
 10
249.9573309492599
 20
512.5999999999832
 30
0.0
 11
226.9573309492216
 21
512.5999999999832
 31
0.0
  0
LINE
  5
3F7
330
1F
100
AcDbEntity
  8
LAY-10
  6
CONTINUOUS
 62
     7
100
AcDbLine
 10
251.95733094926
 20
511.9186988691837
 30
0.0
 11
251.95733094926
 21
517.2813011307836
 31
0.0
  0
LINE
  5
3F8
330
1F
100
AcDbEntity
  8
LAY-10
  6
CONTINUOUS
 62
     7
100
AcDbLine
 10
249.95733094926
 20
516.59999999998
 30
0.0
 11
251.95733094926
 21
517.28130113078
 31
0.0
  0
LINE
  5
3F9
330
1F
100
AcDbEntity
  8
LAY-10
  6
CONTINUOUS
 62
     7
100
AcDbLine
 10
249.95733094926
 20
512.59999999998
 30
0.0
 11
251.95733094926
 21
511.9186988691799
 31
0.0
  0
LINE
  5
3FA
330
1F
100
AcDbEntity
  8
LAY-10
  6
CONTINUOUS
 62
     7
100
AcDbLine
 10
208.9573309492603
 20
466.6000000000505
 30
0.0
 11
208.9573309492603
 21
766.6000000001
 31
0.0
  0
LINE
  5
3FB
330
1F
100
AcDbEntity
  8
LAY-10
  6
CONTINUOUS
 62
     7
100
AcDbLine
 10
208.9573309492603
 20
766.6000000000499
 30
0.0
 11
363.9573309492101
 21
766.6000000000499
 31
0.0
  0
LINE
  5
3FC
330
1F
100
AcDbEntity
  8
LAY-10
  6
CONTINUOUS
 62
     7
100
AcDbLine
 10
208.9573309492603
 20
466.6000000000505
 30
0.0
 11
363.9573309492101
 21
466.6000000000505
 31
0.0
  0
LINE
  5
3FD
330
1F
100
AcDbEntity
  8
LAY-10
  6
CONTINUOUS
 62
     7
100
AcDbLine
 10
200.9573309492603
 20
765.6000000001
 30
0.0
 11
208.9573309492603
 21
766.6000000000004
 31
0.0
  0
LINE
  5
3FE
330
1F
100
AcDbEntity
  8
LAY-10
  6
CONTINUOUS
 62
     7
100
AcDbLine
 10
195.9573309492584
 20
729.1000000000295
 30
0.0
 11
195.9573309492584
 21
744.1000000000295
 31
0.0
  0
LINE
  5
3FF
330
1F
100
AcDbEntity
  8
LAY-10
  6
CONTINUOUS
 62
     7
100
AcDbLine
 10
195.9573309492607
 20
744.1000000000276
 30
0.0
 11
200.9573309492603
 21
745.3500000000286
 31
0.0
  0
LINE
  5
400
330
1F
100
AcDbEntity
  8
LAY-10
  6
CONTINUOUS
 62
     7
100
AcDbLine
 10
195.9573309492607
 20
729.1000000000631
 30
0.0
 11
200.9573309492603
 21
727.8500000000631
 31
0.0
  0
LINE
  5
401
330
1F
100
AcDbEntity
  8
LAY-10
  6
CONTINUOUS
 62
     7
100
AcDbLine
 10
200.9573309492603
 20
467.6
 30
0.0
 11
208.9573309492603
 21
466.6000000001
 31
0.0
  0
LINE
  5
402
330
1F
100
AcDbEntity
  8
LAY-10
  6
CONTINUOUS
 62
     7
100
AcDbLine
 10
195.9573309492584
 20
504.1000000000705
 30
0.0
 11
195.9573309492584
 21
489.1000000000705
 31
0.0
  0
LINE
  5
403
330
1F
100
AcDbEntity
  8
LAY-10
  6
CONTINUOUS
 62
     7
100
AcDbLine
 10
195.9573309492607
 20
489.1000000000723
 30
0.0
 11
200.9573309492603
 21
487.8500000000718
 31
0.0
  0
LINE
  5
404
330
1F
100
AcDbEntity
  8
LAY-10
  6
CONTINUOUS
 62
     7
100
AcDbLine
 10
195.9573309492607
 20
504.1000000000369
 30
0.0
 11
200.9573309492603
 21
505.3500000000368
 31
0.0
  0
LINE
  5
405
330
1F
100
AcDbEntity
  8
LAY-10
  6
CONTINUOUS
 62
     7
100
AcDbLine
 10
200.9573309492603
 20
708.6000000001001
 30
0.0
 11
195.1114662922203
 21
704.6000000000005
 31
0.0
  0
LINE
  5
406
330
1F
100
AcDbEntity
  8
LAY-10
  6
CONTINUOUS
 62
     7
100
AcDbLine
 10
200.9573309492603
 20
524.6
 30
0.0
 11
195.1114662922203
 21
528.6000000001001
 31
0.0
  0
LINE
  5
407
330
1F
100
AcDbEntity
  8
LAY-10
  6
CONTINUOUS
 62
     7
100
AcDbLine
 10
195.1114662922205
 20
704.6000000000005
 30
0.0
 11
195.1114662922205
 21
528.6000000000996
 31
0.0
  0
LINE
  5
408
330
1F
100
AcDbEntity
  8
LAY-10
  6
CONTINUOUS
 62
     7
100
AcDbLine
 10
367.9573309492221
 20
761.5999999999831
 30
0.0
 11
208.957330949253
 21
761.5999999999831
 31
0.0
  0
ARC
  5
409
330
1F
100
AcDbEntity
  8
LAY-10
  6
CONTINUOUS
 62
     7
100
AcDbCircle
 10
210.9573309492521
 20
758.5999999999831
 30
0.0
 40
3.0
100
AcDbArc
 50
0.0
 51
90.00000000000001
  0
LINE
  5
40A
330
1F
100
AcDbEntity
  8
LAY-10
  6
CONTINUOUS
 62
     7
100
AcDbLine
 10
367.9573309492221
 20
471.5999999999836
 30
0.0
 11
208.957330949253
 21
471.5999999999836
 31
0.0
  0
ARC
  5
40B
330
1F
100
AcDbEntity
  8
LAY-10
  6
CONTINUOUS
 62
     7
100
AcDbCircle
 10
210.9573309492519
 20
474.5999999999836
 30
0.0
 40
3.0
100
AcDbArc
 50
270.0
 51
0.0
  0
CIRCLE
  5
40C
330
1F
100
AcDbEntity
  8
LAY-10
  6
CONTINUOUS
 62
     7
100
AcDbCircle
 10
176.4573309493153
 20
496.6000000001135
 30
0.0
 40
2.5
  0
LINE
  5
40D
330
1F
100
AcDbEntity
  8
LAY-10
  6
CONTINUOUS
 62
     7
100
AcDbLine
 10
176.4573309493153
 20
499.1000000001153
 30
0.0
 11
195.9573309492648
 21
499.1000000001144
 31
0.0
  0
LINE
  5
40E
330
1F
100
AcDbEntity
  8
LAY-10
  6
CONTINUOUS
 62
     7
100
AcDbLine
 10
176.4573309493153
 20
494.1000000001152
 30
0.0
 11
195.9573309492648
 21
494.1000000001144
 31
0.0
  0
CIRCLE
  5
40F
330
1F
100
AcDbEntity
  8
LAY-10
  6
CONTINUOUS
 62
     7
100
AcDbCircle
 10
176.4573309493153
 20
736.6000000000133
 30
0.0
 40
2.5
  0
LINE
  5
410
330
1F
100
AcDbEntity
  8
LAY-10
  6
CONTINUOUS
 62
     7
100
AcDbLine
 10
176.4573309493153
 20
739.1000000000151
 30
0.0
 11
195.9573309492648
 21
739.1000000000142
 31
0.0
  0
LINE
  5
411
330
1F
100
AcDbEntity
  8
LAY-10
  6
CONTINUOUS
 62
     7
100
AcDbLine
 10
176.4573309493153
 20
734.1000000000151
 30
0.0
 11
195.9573309492648
 21
734.1000000000142
 31
0.0
  0
LINE
  5
412
330
1F
100
AcDbEntity
  8
LAY-10
  6
CONTINUOUS
 62
     7
100
AcDbLine
 10
200.9573309492599
 20
765.6000000001
 30
0.0
 11
200.9573309492599
 21
467.6
 31
0.0
  0
LINE
  5
413
330
1F
100
AcDbEntity
  8
LAY-10
  6
CONTINUOUS
 62
     7
100
AcDbLine
 10
213.9573309492521
 20
758.5999999999831
 30
0.0
 11
213.9573309492519
 21
474.5999999999836
 31
0.0
  0
LINE
  5
414
330
1F
100
AcDbEntity
  8
LAY-10
  6
CONTINUOUS
 62
     7
100
AcDbLine
 10
349.0490357440322
 20
721.2813011307827
 30
0.0
 11
213.9573309492521
 21
721.2813011307828
 31
0.0
  0
LINE
  5
415
330
1F
100
AcDbEntity
  8
LAY-10
  6
CONTINUOUS
 62
     7
100
AcDbLine
 10
251.95733094926
 20
511.9186988691837
 30
0.0
 11
213.9573309492519
 21
511.9186988691837
 31
0.0
  0
LINE
  5
416
330
1F
100
AcDbEntity
  8
LAY-10
  6
CONTINUOUS
 62
     7
100
AcDbLine
 10
143.9573309493101
 20
541.1000000000503
 30
0.0
 11
143.9573309493101
 21
692.1000000000504
 31
0.0
  0
LINE
  5
417
330
1F
100
AcDbEntity
  8
LAY-10
  6
CONTINUOUS
 62
     7
100
AcDbLine
 10
195.1114662922191
 20
692.1000000000504
 30
0.0
 11
143.9573309493101
 21
692.1000000000504
 31
0.0
  0
LINE
  5
418
330
1F
100
AcDbEntity
  8
LAY-10
  6
CONTINUOUS
 62
     7
100
AcDbLine
 10
195.1114662922191
 20
541.1000000000503
 30
0.0
 11
143.9573309493101
 21
541.1000000000503
 31
0.0
  0
LINE
  5
419
330
1F
100
AcDbEntity
  8
LAY-10
  6
CONTINUOUS
 62
     7
100
AcDbLine
 10
289.9573309492599
 20
512.5999999999832
 30
0.0
 11
289.9573309492599
 21
516.5999999999837
 31
0.0
  0
LINE
  5
41A
330
1F
100
AcDbEntity
  8
LAY-10
  6
CONTINUOUS
 62
     7
100
AcDbLine
 10
289.95733094926
 20
516.59999999998
 30
0.0
 11
291.95733094926
 21
517.28130113078
 31
0.0
  0
LINE
  5
41B
330
1F
100
AcDbEntity
  8
LAY-10
  6
CONTINUOUS
 62
     7
100
AcDbLine
 10
289.95733094926
 20
512.59999999998
 30
0.0
 11
291.95733094926
 21
511.9186988691799
 31
0.0
  0
LINE
  5
41C
330
1F
100
AcDbEntity
  8
LAY-10
  6
CONTINUOUS
 62
     7
100
AcDbLine
 10
291.95733094926
 20
517.28130113078
 30
0.0
 11
291.95733094926
 21
511.91869886918
 31
0.0
  0
LINE
  5
41D
330
1F
100
AcDbEntity
  8
LAY-10
  6
CONTINUOUS
 62
     7
100
AcDbLine
 10
261.6871558120099
 20
512.5999999999832
 30
0.0
 11
261.6871558120099
 21
516.5999999999837
 31
0.0
  0
LINE
  5
41E
330
1F
100
AcDbEntity
  8
LAY-10
  6
CONTINUOUS
 62
     7
100
AcDbLine
 10
249.9573309492599
 20
512.5999999999832
 30
0.0
 11
249.9573309492599
 21
516.5999999999837
 31
0.0
  0
LINE
  5
41F
330
1F
100
AcDbEntity
  8
LAY-10
  6
CONTINUOUS
 62
     7
100
AcDbLine
 10
226.95733094922
 20
512.59999999998
 30
0.0
 11
213.95733094925
 21
511.9186988691799
 31
0.0
  0
LINE
  5
420
330
1F
100
AcDbEntity
  8
LAY-10
  6
CONTINUOUS
 62
     7
100
AcDbLine
 10
226.95733094922
 20
720.59999999998
 30
0.0
 11
213.95733094925
 21
721.28130113078
 31
0.0
  0
LINE
  5
421
330
1F
100
AcDbEntity
  8
LAY-10
  6
CENTER
 62
     2
100
AcDbLine
 10
131.9666595353099
 20
185.30000000008
 30
0.0
 11
198.95733094921
 21
185.30000000008
 31
0.0
  0
LINE
  5
422
330
1F
100
AcDbEntity
  8
LAY-10
  6
CENTER
 62
     2
100
AcDbLine
 10
198.95733094921
 20
185.30000000008
 30
0.0
 11
131.967074139139
 21
183.9357441403529
 31
0.0
  0
LINE
  5
423
330
1F
100
AcDbEntity
  8
LAY-10
  6
CENTER
 62
     2
100
AcDbLine
 10
208.1474765396501
 20
262.3000000001168
 30
0.0
 11
228.9973309491902
 21
262.3000000001158
 31
0.0
  0
LINE
  5
424
330
1F
100
AcDbEntity
  8
LAY-10
  6
CENTER
 62
     2
100
AcDbLine
 10
201.7355055422445
 20
130.0781745930798
 30
0.0
 11
239.9192717263154
 21
168.2619407771509
 31
0.0
  0
ARC
  5
425
330
1F
100
AcDbEntity
  8
LAY-10
  6
CENTER
 62
     2
100
AcDbCircle
 10
353.4573309492653
 20
109.300000000055
 30
0.0
 40
4.5
100
AcDbArc
 50
180.0
 51
270.0
  0
LINE
  5
426
330
1F
100
AcDbEntity
  8
LAY-10
  6
CENTER
 62
     2
100
AcDbLine
 10
365.4573309492653
 20
104.800000000055
 30
0.0
 11
353.4573309492653
 21
104.800000000055
 31
0.0
  0
LINE
  5
427
330
1F
100
AcDbEntity
  8
LAY-10
  6
CENTER
 62
     2
100
AcDbLine
 10
348.9573309492626
 20
137.2433756731396
 30
0.0
 11
348.9573309492626
 21
109.3000000000596
 31
0.0
  0
ARC
  5
428
330
1F
100
AcDbEntity
  8
LAY-10
  6
CENTER
 62
     2
100
AcDbCircle
 10
180.9573309491675
 20
296.8000000000834
 30
0.0
 40
4.5
100
AcDbArc
 50
180.0
 51
270.0
  0
LINE
  5
429
330
1F
100
AcDbEntity
  8
LAY-10
  6
CENTER
 62
     2
100
AcDbLine
 10
176.4573309491675
 20
308.8000000000834
 30
0.0
 11
176.4573309491675
 21
296.8000000000834
 31
0.0
  0
LINE
  5
42A
330
1F
100
AcDbEntity
  8
LAY-10
  6
CENTER
 62
     2
100
AcDbLine
 10
208.9007066222525
 20
292.3000000000802
 30
0.0
 11
180.957330949172
 21
292.3000000000802
 31
0.0
  0
LINE
  5
42B
330
1F
100
AcDbEntity
  8
LAY-10
  6
CENTER
 62
     2
100
AcDbLine
 10
665.8
 20
327.30000000008
 30
0.0
 11
665.8
 21
96.30000000008005
 31
0.0
  0
LINE
  5
42C
330
1F
100
AcDbEntity
  8
LAY-10
  6
CENTER
 62
     2
100
AcDbLine
 10
730.3000000001496
 20
185.30000000008
 30
0.0
 11
601.2999999999495
 21
185.30000000008
 31
0.0
  0
LINE
  5
42D
330
1F
100
AcDbEntity
  8
LAY-10
  6
CENTER
 62
     2
100
AcDbLine
 10
750.8000000000304
 20
271.3000000000019
 30
0.0
 11
750.8000000000304
 21
253.3000000000019
 31
0.0
  0
LINE
  5
42E
330
1F
100
AcDbEntity
  8
LAY-10
  6
CENTER
 62
     2
100
AcDbLine
 10
741.8000000000268
 20
262.3000000000019
 30
0.0
 11
759.8000000000268
 21
262.3000000000019
 31
0.0
  0
LINE
  5
42F
330
1F
100
AcDbEntity
  8
LAY-10
  6
CENTER
 62
     2
100
AcDbLine
 10
580.8000000000686
 20
271.3000000000019
 30
0.0
 11
580.8000000000686
 21
253.3000000000019
 31
0.0
  0
LINE
  5
430
330
1F
100
AcDbEntity
  8
LAY-10
  6
CENTER
 62
     2
100
AcDbLine
 10
589.8000000000723
 20
262.3000000000019
 30
0.0
 11
571.8000000000723
 21
262.3000000000019
 31
0.0
  0
LINE
  5
431
330
1F
100
AcDbEntity
  8
LAY-10
  6
CENTER
 62
     2
100
AcDbLine
 10
785.799999999932
 20
137.2433756731851
 30
0.0
 11
785.799999999932
 21
100.3000000001051
 31
0.0
  0
LINE
  5
432
330
1F
100
AcDbEntity
  8
LAY-10
  6
CENTER
 62
     2
100
AcDbLine
 10
790.2999999999364
 20
104.8000000001028
 30
0.0
 11
781.2999999999364
 21
104.8000000001028
 31
0.0
  0
LINE
  5
433
330
1F
100
AcDbEntity
  8
LAY-10
  6
CENTER
 62
     2
100
AcDbLine
 10
545.800000000032
 20
137.2433756731851
 30
0.0
 11
545.800000000032
 21
100.3000000001051
 31
0.0
  0
LINE
  5
434
330
1F
100
AcDbEntity
  8
LAY-10
  6
CENTER
 62
     2
100
AcDbLine
 10
550.3000000000366
 20
104.8000000001028
 30
0.0
 11
541.3000000000366
 21
104.8000000001028
 31
0.0
  0
LINE
  5
435
330
1F
100
AcDbEntity
  8
LAY-10
  6
CENTER
 62
     2
100
AcDbLine
 10
208.9007066223953
 20
496.600000000118
 30
0.0
 11
171.9573309493153
 21
496.600000000118
 31
0.0
  0
LINE
  5
436
330
1F
100
AcDbEntity
  8
LAY-10
  6
CENTER
 62
     2
100
AcDbLine
 10
176.457330949313
 20
492.1000000001135
 30
0.0
 11
176.457330949313
 21
501.1000000001135
 31
0.0
  0
LINE
  5
437
330
1F
100
AcDbEntity
  8
LAY-10
  6
CENTER
 62
     2
100
AcDbLine
 10
208.9007066223953
 20
736.6000000000179
 30
0.0
 11
171.9573309493153
 21
736.6000000000179
 31
0.0
  0
LINE
  5
438
330
1F
100
AcDbEntity
  8
LAY-10
  6
CENTER
 62
     2
100
AcDbLine
 10
176.457330949313
 20
732.1000000000133
 30
0.0
 11
176.457330949313
 21
741.1000000000133
 31
0.0
  0
LINE
  5
439
330
1F
100
AcDbEntity
  8
LAY-10
  6
CENTER
 62
     2
100
AcDbLine
 10
383.9573309492102
 20
616.60000000005
 30
0.0
 11
135.89999999988
 21
616.60000000005
 31
0.0
  0
CIRCLE
  5
43A
330
1F
100
AcDbEntity
  8
LAY-10
  6
HIDDEN
 62
     7
100
AcDbCircle
 10
665.8000000000495
 20
185.30000000008
 30
0.0
 40
62.50000000009993
  0
LINE
  5
43B
330
1F
100
AcDbEntity
  8
LAY-10
  6
HIDDEN
 62
     7
100
AcDbLine
 10
763.7999999998799
 20
267.3000000001801
 30
0.0
 11
763.7999999998799
 21
137.30000000005
 31
0.0
  0
ARC
  5
43C
330
1F
100
AcDbEntity
  8
LAY-10
  6
HIDDEN
 62
     7
100
AcDbCircle
 10
758.7999999998799
 20
267.3000000001792
 30
0.0
 40
5.0
100
AcDbArc
 50
0.0
 51
90.00000000000001
  0
LINE
  5
43D
330
1F
100
AcDbEntity
  8
LAY-10
  6
HIDDEN
 62
     7
100
AcDbLine
 10
572.80000000012
 20
272.3000000001792
 30
0.0
 11
758.7999999998799
 21
272.3000000001792
 31
0.0
  0
ARC
  5
43E
330
1F
100
AcDbEntity
  8
LAY-10
  6
HIDDEN
 62
     7
100
AcDbCircle
 10
572.80000000012
 20
267.3000000001792
 30
0.0
 40
5.0
100
AcDbArc
 50
90.00000000000001
 51
180.0
  0
LINE
  5
43F
330
1F
100
AcDbEntity
  8
LAY-10
  6
HIDDEN
 62
     7
100
AcDbLine
 10
567.80000000012
 20
267.3000000001792
 30
0.0
 11
567.80000000012
 21
137.30000000005
 31
0.0
  0
LINE
  5
440
330
1F
100
AcDbEntity
  8
LAY-10
  6
CONTINUOUS
 62
     7
100
AcDbLine
 10
155.375930061148
 20
115.1831138624491
 30
0.0
 11
180.8115712554365
 21
116.4968102533904
 31
0.0
  0
LINE
  5
441
330
1F
100
AcDbEntity
  8
LAY-10
  6
CONTINUOUS
 62
     7
100
AcDbLine
 10
152.5573890095095
 20
253.5844170584099
 30
0.0
 11
178.0254256053897
 21
253.3073735184019
 31
0.0
  0
LINE
  5
442
330
1F
100
AcDbEntity
  8
LAY-10
  6
CONTINUOUS
 62
     7
100
AcDbLine
 10
219.9573309490761
 20
264.8000000000344
 30
0.0
 11
216.9573309490761
 21
264.8000000000344
 31
0.0
  0
LINE
  5
443
330
1F
100
AcDbEntity
  8
LAY-10
  6
CONTINUOUS
 62
     7
100
AcDbLine
 10
219.9573309490761
 20
259.8000000001697
 30
0.0
 11
216.9573309490761
 21
259.8000000001701
 31
0.0
  0
LINE
  5
444
330
1F
100
AcDbEntity
  8
LAY-10
  6
CONTINUOUS
 62
     7
100
AcDbLine
 10
234.6289038244586
 20
168.6284271247342
 30
0.0
 11
220.2438316543916
 21
154.2433549546669
 31
0.0
  0
LINE
  5
445
330
1F
100
AcDbEntity
  8
LAY-10
  6
CONTINUOUS
 62
     7
100
AcDbLine
 10
240.2857580739505
 20
162.9715728752421
 30
0.0
 11
225.9006859038836
 21
148.586500705175
 31
0.0
  0
LINE
  5
446
330
1F
100
AcDbEntity
  8
LAY-10
  6
CONTINUOUS
 62
     7
100
AcDbLine
 10
346.4573309492471
 20
123.4339745962546
 30
0.0
 11
345.9573309492471
 21
124.3000000000391
 31
0.0
  0
LINE
  5
447
330
1F
100
AcDbEntity
  8
LAY-10
  6
CONTINUOUS
 62
     7
100
AcDbLine
 10
351.4573309492781
 20
123.433974596258
 30
0.0
 11
351.9573309492781
 21
124.3000000000425
 31
0.0
  0
LINE
  5
448
330
1F
100
AcDbEntity
  8
LAY-10
  6
CONTINUOUS
 62
     7
100
AcDbLine
 10
195.091305545367
 20
289.8000000000652
 30
0.0
 11
195.9573309491511
 21
289.3000000000652
 31
0.0
  0
LINE
  5
449
330
1F
100
AcDbEntity
  8
LAY-10
  6
CONTINUOUS
 62
     7
100
AcDbLine
 10
195.0913055453707
 20
294.8000000000955
 30
0.0
 11
195.9573309491548
 21
295.3000000000955
 31
0.0
  0
LINE
  5
44A
330
1F
100
AcDbEntity
  8
LAY-10
  6
CONTINUOUS
 62
     7
100
AcDbLine
 10
211.1928648551657
 20
145.1923881555229
 30
0.0
 11
207.6289038245213
 21
141.6284271248775
 31
0.0
  0
LINE
  5
44B
330
1F
100
AcDbEntity
  8
LAY-10
  6
CONTINUOUS
 62
     7
100
AcDbLine
 10
216.8497191046585
 20
139.5355339060305
 30
0.0
 11
213.2857580740147
 21
135.9715728753856
 31
0.0
  0
LINE
  5
44C
330
1F
100
AcDbEntity
  8
LAY-10
  6
CONTINUOUS
 62
     7
100
AcDbLine
 10
193.9573309492118
 20
262.3000000000967
 30
0.0
 11
143.9573309493092
 21
262.3000000000967
 31
0.0
  0
LINE
  5
44D
330
1F
100
AcDbEntity
  8
LAY-10
  6
CONTINUOUS
 62
     7
100
AcDbLine
 10
193.9573309492118
 20
267.8000000000972
 30
0.0
 11
143.9573309493092
 21
267.8000000000972
 31
0.0
  0
LINE
  5
44E
330
1F
100
AcDbEntity
  8
LAY-10
  6
CONTINUOUS
 62
     7
100
AcDbLine
 10
193.9573309492616
 20
102.8000000001069
 30
0.0
 11
143.9573309493092
 21
102.8000000001069
 31
0.0
  0
LINE
  5
44F
330
1F
100
AcDbEntity
  8
LAY-10
  6
CONTINUOUS
 62
     7
100
AcDbLine
 10
193.9573309492616
 20
108.3000000001073
 30
0.0
 11
143.9573309493092
 21
108.3000000001073
 31
0.0
  0
LINE
  5
450
330
1F
100
AcDbEntity
  8
LAY-10
  6
CONTINUOUS
 62
     7
100
AcDbLine
 10
783.2999999999174
 20
123.43397459626
 30
0.0
 11
782.7999999999173
 21
124.3000000000446
 31
0.0
  0
LINE
  5
451
330
1F
100
AcDbEntity
  8
LAY-10
  6
CONTINUOUS
 62
     7
100
AcDbLine
 10
788.2999999999474
 20
123.4339745962635
 30
0.0
 11
788.7999999999473
 21
124.300000000048
 31
0.0
  0
LINE
  5
452
330
1F
100
AcDbEntity
  8
LAY-10
  6
CONTINUOUS
 62
     7
100
AcDbLine
 10
543.3000000000175
 20
123.43397459626
 30
0.0
 11
542.8000000000175
 21
124.3000000000446
 31
0.0
  0
LINE
  5
453
330
1F
100
AcDbEntity
  8
LAY-10
  6
CONTINUOUS
 62
     7
100
AcDbLine
 10
548.3000000000475
 20
123.4339745962635
 30
0.0
 11
548.8000000000475
 21
124.300000000048
 31
0.0
  0
LINE
  5
454
330
1F
100
AcDbEntity
  8
LAY-10
  6
CONTINUOUS
 62
     7
100
AcDbLine
 10
195.0913055454703
 20
499.1000000001325
 30
0.0
 11
195.9573309492548
 21
499.6000000001326
 31
0.0
  0
LINE
  5
455
330
1F
100
AcDbEntity
  8
LAY-10
  6
CONTINUOUS
 62
     7
100
AcDbLine
 10
195.0913055454737
 20
494.1000000001026
 30
0.0
 11
195.9573309492582
 21
493.6000000001026
 31
0.0
  0
LINE
  5
456
330
1F
100
AcDbEntity
  8
LAY-10
  6
CONTINUOUS
 62
     7
100
AcDbLine
 10
195.0913055454703
 20
739.1000000000324
 30
0.0
 11
195.9573309492548
 21
739.6000000000324
 31
0.0
  0
LINE
  5
457
330
1F
100
AcDbEntity
  8
LAY-10
  6
CONTINUOUS
 62
     7
100
AcDbLine
 10
195.0913055454739
 20
734.1000000000024
 30
0.0
 11
195.9573309492584
 21
733.6000000000024
 31
0.0
  0
DIMENSION
  5
459
330
1F
100
AcDbEntity
  8
LAY-20
  6
CONTINUOUS
 62
     4
100
AcDbDimension
  2
*D15
 10
115.6990447299524
 20
114.3750945192445
 30
0.0
 11
107.2912253175311
 21
183.4332207443903
 31
0.0
 70
   160
  1
Rｃ5（138.4）
  3
ISO-25
100
AcDbAlignedDimension
 13
152.5573890095102
 23
253.5844170584101
 33
0.0
 14
155.37593006115
 24
115.1831138624501
 34
0.0
 50
91.16666666666055
100
AcDbRotatedDimension
1001
ACAD
1000
DSTYLE
1002
{
1070
   270
1070
     2
1070
     6
1000
EX_BNORM
1070
     7
1000
EX_BNORM
1070
    41
1040
7.5
1070
    42
1040
4.500000000000017
1070
    44
1040
4.500000000000002
1070
    73
1070
     0
1070
    74
1070
     0
1070
    75
1070
     0
1070
    76
1070
     0
1070
    77
1070
     1
1070
    78
1070
     8
1070
   140
1040
9.3543312
1070
   147
1040
0.0
1070
   173
1070
     1
1070
   176
1070
     4
1070
   177
1070
     4
1070
   178
1070
     7
1070
   271
1070
     1
1070
   277
1070
     2
1070
   279
1070
     2
1070
   280
1070
     0
1070
   287
1070
     5
1070
   340
1005
458
1002
}
  0
DIMENSION
  5
467
330
1F
100
AcDbEntity
  8
LAY-20
  6
CONTINUOUS
 62
     4
100
AcDbDimension
  2
*D16
 10
133.8194062991352
 20
184.4157124853084
 30
0.0
 11
131.8081711562936
 21
213.0151661090996
 31
0.0
 70
   165
  1
1%%d10'
  3
ISO-25
100
AcDb3PointAngularDimension
 13
133.94385353083
 23
185.30000000008
 33
0.0
 14
133.9708055736201
 24
183.9765501094699
 34
0.0
 15
198.95733094921
 25
185.30000000008
 35
0.0
1001
ACAD
1000
DSTYLE
1002
{
1070
   270
1070
     2
1070
     6
1000
EX_BNORM
1070
     7
1000
EX_BNORM
1070
    41
1040
7.5
1070
    42
1040
4.5
1070
    44
1040
4.5
1070
    73
1070
     0
1070
    74
1070
     0
1070
    75
1070
     0
1070
    76
1070
     0
1070
    77
1070
     1
1070
    78
1070
     8
1070
    79
1070
     2
1070
   140
1040
9.3543312
1070
   147
1040
0.0
1070
   173
1070
     1
1070
   176
1070
     4
1070
   177
1070
     4
1070
   178
1070
     7
1070
   179
1070
     1
1070
   271
1070
     1
1070
   277
1070
     2
1070
   279
1070
     2
1070
   280
1070
     1
1070
   287
1070
     5
1070
   340
1005
458
1002
}
  0
DIMENSION
  5
477
330
1F
100
AcDbEntity
  8
LAY-20
  6
CONTINUOUS
 62
     4
100
AcDbDimension
  2
*D17
 10
378.9573309492101
 20
394.30000000008
 30
0.0
 11
293.9573309492601
 21
401.80000000008
 31
0.0
 70
   160
  3
ISO-25
100
AcDbAlignedDimension
 13
208.9573309493101
 23
322.30000000008
 33
0.0
 14
378.9573309492101
 24
137.30000000005
 34
0.0
100
AcDbRotatedDimension
1001
ACAD
1000
DSTYLE
1002
{
1070
   270
1070
     2
1070
     6
1000
EX_BNORM
1070
     7
1000
EX_BNORM
1070
    41
1040
7.5
1070
    42
1040
4.5
1070
    44
1040
4.5
1070
    73
1070
     0
1070
    74
1070
     0
1070
    75
1070
     0
1070
    76
1070
     0
1070
    77
1070
     1
1070
    78
1070
     8
1070
   140
1040
9.3543312
1070
   147
1040
0.0
1070
   173
1070
     1
1070
   176
1070
     4
1070
   177
1070
     4
1070
   178
1070
     7
1070
   271
1070
     1
1070
   277
1070
     2
1070
   279
1070
     2
1070
   280
1070
     0
1070
   287
1070
     5
1070
   340
1005
458
1002
}
  0
DIMENSION
  5
484
330
1F
100
AcDbEntity
  8
LAY-20
  6
CONTINUOUS
 62
     4
100
AcDbDimension
  2
*D18
 10
815.8000000000495
 20
373.30000000008
 30
0.0
 11
665.8000000000244
 21
380.80000000008
 31
0.0
 70
   160
  3
ISO-25
100
AcDbAlignedDimension
 13
515.7999999999993
 23
307.30000000008
 33
0.0
 14
815.8000000000495
 24
307.30000000008
 34
0.0
100
AcDbRotatedDimension
1001
ACAD
1000
DSTYLE
1002
{
1070
   270
1070
     2
1070
     6
1000
EX_BNORM
1070
     7
1000
EX_BNORM
1070
    41
1040
7.5
1070
    42
1040
4.5
1070
    44
1040
4.5
1070
    73
1070
     0
1070
    74
1070
     0
1070
    75
1070
     0
1070
    76
1070
     0
1070
    77
1070
     1
1070
    78
1070
     8
1070
   140
1040
9.3543312
1070
   147
1040
0.0
1070
   173
1070
     1
1070
   176
1070
     4
1070
   177
1070
     4
1070
   178
1070
     7
1070
   271
1070
     1
1070
   277
1070
     2
1070
   279
1070
     2
1070
   280
1070
     0
1070
   287
1070
     5
1070
   340
1005
458
1002
}
  0
DIMENSION
  5
491
330
1F
100
AcDbEntity
  8
LAY-20
  6
CONTINUOUS
 62
     4
100
AcDbDimension
  2
*D19
 10
763.7999999998494
 20
352.30000000008
 30
0.0
 11
665.7999999999995
 21
359.80000000008
 31
0.0
 70
   160
  3
ISO-25
100
AcDbAlignedDimension
 13
567.8000000001496
 23
267.3000000001801
 33
0.0
 14
763.7999999998494
 24
267.3000000001801
 34
0.0
100
AcDbRotatedDimension
1001
ACAD
1000
DSTYLE
1002
{
1070
   270
1070
     2
1070
     6
1000
EX_BNORM
1070
     7
1000
EX_BNORM
1070
    41
1040
7.5
1070
    42
1040
4.5
1070
    44
1040
4.5
1070
    73
1070
     0
1070
    74
1070
     0
1070
    75
1070
     0
1070
    76
1070
     0
1070
    77
1070
     1
1070
    78
1070
     8
1070
   140
1040
9.3543312
1070
   147
1040
0.0
1070
   173
1070
     1
1070
   176
1070
     4
1070
   177
1070
     4
1070
   178
1070
     7
1070
   271
1070
     1
1070
   277
1070
     2
1070
   279
1070
     2
1070
   280
1070
     0
1070
   287
1070
     5
1070
   340
1005
458
1002
}
  0
DIMENSION
  5
49E
330
1F
100
AcDbEntity
  8
LAY-20
  6
CONTINUOUS
 62
     4
100
AcDbDimension
  2
*D20
 10
450.95733094921
 20
137.30000000005
 30
0.0
 11
443.45733094921
 21
229.8000000000648
 31
0.0
 70
   160
  3
ISO-25
100
AcDbAlignedDimension
 13
208.9573309493101
 23
322.30000000008
 33
0.0
 14
378.9573309492101
 24
137.30000000005
 34
0.0
 50
90.0
100
AcDbRotatedDimension
1001
ACAD
1000
DSTYLE
1002
{
1070
   270
1070
     2
1070
     6
1000
EX_BNORM
1070
     7
1000
EX_BNORM
1070
    41
1040
7.5
1070
    42
1040
4.5
1070
    44
1040
4.5
1070
    73
1070
     0
1070
    74
1070
     0
1070
    75
1070
     0
1070
    76
1070
     0
1070
    77
1070
     1
1070
    78
1070
     8
1070
   140
1040
9.3543312
1070
   147
1040
0.0
1070
   173
1070
     1
1070
   176
1070
     4
1070
   177
1070
     4
1070
   178
1070
     7
1070
   271
1070
     1
1070
   277
1070
     2
1070
   279
1070
     2
1070
   280
1070
     0
1070
   287
1070
     5
1070
   340
1005
458
1002
}
  0
DIMENSION
  5
4AB
330
1F
100
AcDbEntity
  8
LAY-20
  6
CONTINUOUS
 62
     4
100
AcDbDimension
  2
*D21
 10
450.95733094921
 20
137.30000000005
 30
0.0
 11
443.45733094921
 21
119.3000000000648
 31
0.0
 70
   160
  3
ISO-25
100
AcDbAlignedDimension
 13
198.95733094931
 23
101.3000000000801
 33
0.0
 14
426.95733094921
 24
137.30000000005
 34
0.0
 50
90.0
100
AcDbRotatedDimension
1001
ACAD
1000
DSTYLE
1002
{
1070
   270
1070
     2
1070
     6
1000
EX_BNORM
1070
     7
1000
EX_BNORM
1070
    41
1040
7.5
1070
    42
1040
4.5
1070
    44
1040
4.5
1070
    73
1070
     0
1070
    74
1070
     0
1070
    75
1070
     0
1070
    76
1070
     1
1070
    77
1070
     1
1070
    78
1070
     8
1070
   140
1040
9.3543312
1070
   147
1040
0.0
1070
   173
1070
     1
1070
   176
1070
     4
1070
   177
1070
     4
1070
   178
1070
     7
1070
   271
1070
     1
1070
   277
1070
     2
1070
   279
1070
     2
1070
   280
1070
     0
1070
   287
1070
     5
1070
   340
1005
458
1002
}
  0
DIMENSION
  5
4B7
330
1F
100
AcDbEntity
  8
LAY-20
  6
CONTINUOUS
 62
     4
100
AcDbDimension
  2
*D22
 10
208.9573309493101
 20
352.30000000008
 30
0.0
 11
217.9573309492751
 21
359.8000000000798
 31
0.0
 70
   160
  3
ISO-25
100
AcDbAlignedDimension
 13
226.95733094924
 23
288.30000000012
 33
0.0
 14
208.9573309493101
 24
342.30000000008
 34
0.0
100
AcDbRotatedDimension
1001
ACAD
1000
DSTYLE
1002
{
1070
   270
1070
     2
1070
     6
1000
EX_BNORM
1070
     7
1000
EX_BNORM
1070
    41
1040
7.5
1070
    42
1040
4.5
1070
    44
1040
4.5
1070
    73
1070
     0
1070
    74
1070
     0
1070
    75
1070
     0
1070
    76
1070
     1
1070
    77
1070
     1
1070
    78
1070
     8
1070
   140
1040
9.3543312
1070
   147
1040
0.0
1070
   173
1070
     1
1070
   176
1070
     4
1070
   177
1070
     4
1070
   178
1070
     7
1070
   271
1070
     1
1070
   277
1070
     2
1070
   279
1070
     2
1070
   280
1070
     0
1070
   287
1070
     5
1070
   340
1005
458
1002
}
  0
DIMENSION
  5
4C3
330
1F
100
AcDbEntity
  8
LAY-20
  6
CONTINUOUS
 62
     4
100
AcDbDimension
  2
*D23
 10
208.9573309493101
 20
352.3000000000799
 30
0.0
 11
187.4573309492447
 21
359.8000000000877
 31
0.0
 70
   160
  3
ISO-25
100
AcDbAlignedDimension
 13
200.95733094926
 23
321.30000000008
 33
0.0
 14
208.9573309493101
 24
342.30000000008
 34
0.0
100
AcDbRotatedDimension
1001
ACAD
1000
DSTYLE
1002
{
1070
   270
1070
     2
1070
     6
1000
EX_BNORM
1070
     7
1000
EX_BNORM
1070
    41
1040
7.5
1070
    42
1040
4.5
1070
    44
1040
4.5
1070
    73
1070
     0
1070
    74
1070
     0
1070
    75
1070
     0
1070
    76
1070
     1
1070
    77
1070
     1
1070
    78
1070
     8
1070
   140
1040
9.3543312
1070
   147
1040
0.0
1070
   173
1070
     1
1070
   176
1070
     4
1070
   177
1070
     4
1070
   178
1070
     7
1070
   271
1070
     1
1070
   277
1070
     2
1070
   279
1070
     2
1070
   280
1070
     1
1070
   287
1070
     5
1070
   340
1005
458
1002
}
  0
DIMENSION
  5
4D1
330
1F
100
AcDbEntity
  8
LAY-20
  6
CONTINUOUS
 62
     4
100
AcDbDimension
  2
*D24
 10
429.95733094921
 20
137.30000000005
 30
0.0
 11
422.45733094921
 21
146.3000000000599
 31
0.0
 70
   160
  3
ISO-25
100
AcDbAlignedDimension
 13
359.9573309492699
 23
155.30000000007
 33
0.0
 14
412.9573309492101
 24
137.30000000005
 34
0.0
 50
90.0
100
AcDbRotatedDimension
1001
ACAD
1000
DSTYLE
1002
{
1070
   270
1070
     2
1070
     6
1000
EX_BNORM
1070
     7
1000
EX_BNORM
1070
    41
1040
7.5
1070
    42
1040
4.5
1070
    44
1040
4.5
1070
    73
1070
     0
1070
    74
1070
     0
1070
    75
1070
     0
1070
    76
1070
     1
1070
    77
1070
     1
1070
    78
1070
     8
1070
   140
1040
9.3543312
1070
   147
1040
0.0
1070
   173
1070
     1
1070
   176
1070
     4
1070
   177
1070
     4
1070
   178
1070
     7
1070
   271
1070
     1
1070
   277
1070
     2
1070
   279
1070
     2
1070
   280
1070
     0
1070
   287
1070
     5
1070
   340
1005
458
1002
}
  0
DIMENSION
  5
4DD
330
1F
100
AcDbEntity
  8
LAY-20
  6
CONTINUOUS
 62
     4
100
AcDbDimension
  2
*D25
 10
429.95733094921
 20
137.30000000005
 30
0.0
 11
422.45733094921
 21
115.8000000000496
 31
0.0
 70
   160
  3
ISO-25
100
AcDbAlignedDimension
 13
377.9573309492098
 23
129.30000000005
 33
0.0
 14
412.9573309492101
 24
137.30000000005
 34
0.0
 50
90.0
100
AcDbRotatedDimension
1001
ACAD
1000
DSTYLE
1002
{
1070
   270
1070
     2
1070
     6
1000
EX_BNORM
1070
     7
1000
EX_BNORM
1070
    41
1040
7.5
1070
    42
1040
4.5
1070
    44
1040
4.5
1070
    73
1070
     0
1070
    74
1070
     0
1070
    75
1070
     0
1070
    76
1070
     1
1070
    77
1070
     1
1070
    78
1070
     8
1070
   140
1040
9.3543312
1070
   147
1040
0.0
1070
   173
1070
     1
1070
   176
1070
     4
1070
   177
1070
     4
1070
   178
1070
     7
1070
   271
1070
     1
1070
   277
1070
     2
1070
   279
1070
     2
1070
   280
1070
     1
1070
   287
1070
     5
1070
   340
1005
458
1002
}
  0
DIMENSION
  5
4EB
330
1F
100
AcDbEntity
  8
LAY-20
  6
CONTINUOUS
 62
     4
100
AcDbDimension
  2
*D26
 10
408.95733094921
 20
137.30000000005
 30
0.0
 11
401.45733094921
 21
163.7000000000651
 31
0.0
 70
   160
  1
48
  3
ISO-25
100
AcDbAlignedDimension
 13
198.95733094921
 23
185.30000000008
 33
0.0
 14
398.9573309492098
 24
137.30000000005
 34
0.0
 50
90.0
100
AcDbRotatedDimension
1001
ACAD
1000
DSTYLE
1002
{
1070
   270
1070
     2
1070
     6
1000
EX_BNORM
1070
     7
1000
EX_BNORM
1070
    41
1040
7.5
1070
    42
1040
4.5
1070
    44
1040
4.5
1070
    73
1070
     0
1070
    74
1070
     0
1070
    75
1070
     0
1070
    76
1070
     1
1070
    77
1070
     1
1070
    78
1070
     8
1070
   140
1040
9.3543312
1070
   147
1040
0.0
1070
   173
1070
     1
1070
   176
1070
     4
1070
   177
1070
     4
1070
   178
1070
     7
1070
   271
1070
     1
1070
   277
1070
     2
1070
   279
1070
     2
1070
   280
1070
     0
1070
   287
1070
     5
1070
   340
1005
458
1002
}
  0
DIMENSION
  5
4F7
330
1F
100
AcDbEntity
  8
LAY-20
  6
CONTINUOUS
 62
     4
100
AcDbDimension
  2
*D27
 10
208.9573309493101
 20
394.30000000008
 30
0.0
 11
176.4573309493101
 21
401.80000000008
 31
0.0
 70
   160
  1
65以上
  3
ISO-25
100
AcDbAlignedDimension
 13
143.9573309493101
 23
267.3000000001
 33
0.0
 14
208.9573309493101
 24
370.30000000008
 34
0.0
100
AcDbRotatedDimension
1001
ACAD
1000
DSTYLE
1002
{
1070
   270
1070
     2
1070
     6
1000
EX_BNORM
1070
     7
1000
EX_BNORM
1070
    41
1040
9.0
1070
    42
1040
4.5
1070
    44
1040
4.5
1070
    73
1070
     0
1070
    74
1070
     0
1070
    75
1070
     0
1070
    76
1070
     1
1070
    77
1070
     1
1070
    78
1070
     8
1070
   140
1040
9.3543312
1070
   147
1040
0.0
1070
   173
1070
     1
1070
   176
1070
     4
1070
   177
1070
     4
1070
   178
1070
     7
1070
   271
1070
     1
1070
   277
1070
     2
1070
   279
1070
     2
1070
   280
1070
     0
1070
   287
1070
     5
1070
   340
1005
458
1002
}
  0
DIMENSION
  5
503
330
1F
100
AcDbEntity
  8
LAY-20
  6
CONTINUOUS
 62
     4
100
AcDbDimension
  2
*D28
 10
208.9573309493101
 20
373.3000000000799
 30
0.0
 11
228.4573309493101
 21
380.8000000000799
 31
0.0
 70
   160
  3
ISO-25
100
AcDbAlignedDimension
 13
193.95733094921
 23
269.30000000008
 33
0.0
 14
208.9573309493101
 24
356.30000000008
 34
0.0
100
AcDbRotatedDimension
1001
ACAD
1000
DSTYLE
1002
{
1070
   270
1070
     2
1070
     6
1000
EX_BNORM
1070
     7
1000
EX_BNORM
1070
    41
1040
9.0
1070
    42
1040
4.5
1070
    44
1040
4.5
1070
    73
1070
     0
1070
    74
1070
     0
1070
    75
1070
     0
1070
    76
1070
     1
1070
    77
1070
     1
1070
    78
1070
     8
1070
   140
1040
9.3543312
1070
   147
1040
0.0
1070
   173
1070
     1
1070
   176
1070
     4
1070
   177
1070
     4
1070
   178
1070
     7
1070
   271
1070
     1
1070
   277
1070
     2
1070
   279
1070
     2
1070
   280
1070
     2
1070
   287
1070
     5
1070
   340
1005
458
1002
}
  0
LINE
  5
511
330
1F
100
AcDbEntity
  8
LAY-255
  6
CONTINUOUS
 62
     7
100
AcDbLine
 10
1155.0
 20
66.0
 30
0.0
 11
855.0
 21
66.0
 31
0.0
  0
LINE
  5
512
330
1F
100
AcDbEntity
  8
LAY-255
  6
CONTINUOUS
 62
     7
100
AcDbLine
 10
866.4000000000001
 20
48.0
 30
0.0
 11
890.4000000000001
 21
63.0
 31
0.0
  0
LINE
  5
513
330
1F
100
AcDbEntity
  8
LAY-255
  6
CONTINUOUS
 62
     7
100
AcDbLine
 10
890.4000000000001
 20
63.0
 30
0.0
 11
914.4000000000001
 21
48.0
 31
0.0
  0
LINE
  5
514
330
1F
100
AcDbEntity
  8
LAY-255
  6
CONTINUOUS
 62
     7
100
AcDbLine
 10
914.4000000000001
 20
48.0
 30
0.0
 11
890.4000000000001
 21
33.0
 31
0.0
  0
LINE
  5
515
330
1F
100
AcDbEntity
  8
LAY-255
  6
CONTINUOUS
 62
     7
100
AcDbLine
 10
890.4000000000001
 20
33.0
 30
0.0
 11
866.4000000000001
 21
48.0
 31
0.0
  0
LINE
  5
516
330
1F
100
AcDbEntity
  8
LAY-255
  6
CONTINUOUS
 62
     7
100
AcDbLine
 10
15.0
 20
30.0
 30
0.0
 11
1155.0
 21
30.0
 31
0.0
  0
LINE
  5
517
330
1F
100
AcDbEntity
  8
LAY-255
  6
CONTINUOUS
 62
     7
100
AcDbLine
 10
15.0
 20
840.0
 30
0.0
 11
1155.0
 21
840.0
 31
0.0
  0
LINE
  5
518
330
1F
100
AcDbEntity
  8
LAY-255
  6
CONTINUOUS
 62
     7
100
AcDbLine
 10
15.0
 20
30.0
 30
0.0
 11
15.0
 21
840.0
 31
0.0
  0
LINE
  5
519
330
1F
100
AcDbEntity
  8
LAY-255
  6
CONTINUOUS
 62
     7
100
AcDbLine
 10
1155.0
 20
30.0
 30
0.0
 11
1155.0
 21
840.0
 31
0.0
  0
LINE
  5
51A
330
1F
100
AcDbEntity
  8
LAY-255
  6
CONTINUOUS
 62
     4
100
AcDbLine
 10
855.0
 20
84.0
 30
0.0
 11
1155.0
 21
84.0
 31
0.0
  0
LINE
  5
51B
330
1F
100
AcDbEntity
  8
LAY-255
  6
CONTINUOUS
 62
     7
100
AcDbLine
 10
855.0
 20
30.0
 30
0.0
 11
855.0
 21
201.0
 31
0.0
  0
LINE
  5
51C
330
1F
100
AcDbEntity
  8
LAY-255
  6
CONTINUOUS
 62
     4
100
AcDbLine
 10
1005.0
 20
84.0
 30
0.0
 11
1005.0
 21
66.0
 31
0.0
  0
LINE
  5
51D
330
1F
100
AcDbEntity
  8
LAY-255
  6
CONTINUOUS
 62
     7
100
AcDbLine
 10
1155.0
 20
201.0
 30
0.0
 11
855.0
 21
201.0
 31
0.0
  0
LINE
  5
51E
330
1F
100
AcDbEntity
  8
LAY-255
  6
CONTINUOUS
 62
     4
100
AcDbLine
 10
1149.0
 20
165.0
 30
0.0
 11
861.0
 21
165.0
 31
0.0
  0
LINE
  5
51F
330
1F
100
AcDbEntity
  8
LAY-255
  6
CONTINUOUS
 62
     4
100
AcDbLine
 10
1149.0
 20
183.0
 30
0.0
 11
861.0
 21
183.0
 31
0.0
  0
POINT
  5
520
330
1F
100
AcDbEntity
  8
LAY-255
  6
CONTINUOUS
 62
     7
100
AcDbPoint
 10
867.0
 20
150.0
 30
0.0
  0
POINT
  5
521
330
1F
100
AcDbEntity
  8
LAY-255
  6
CONTINUOUS
 62
     7
100
AcDbPoint
 10
900.0
 20
168.0
 30
0.0
  0
POINT
  5
522
330
1F
100
AcDbEntity
  8
LAY-255
  6
CONTINUOUS
 62
     7
100
AcDbPoint
 10
900.0
 20
186.0
 30
0.0
  0
POINT
  5
523
330
1F
100
AcDbEntity
  8
LAY-255
  6
CONTINUOUS
 62
     7
100
AcDbPoint
 10
867.0
 20
120.0
 30
0.0
  0
POINT
  5
524
330
1F
100
AcDbEntity
  8
LAY-255
  6
CONTINUOUS
 62
     7
100
AcDbPoint
 10
867.0
 20
135.0
 30
0.0
  0
POINT
  5
525
330
1F
100
AcDbEntity
  8
LAY-255
  6
CONTINUOUS
 62
     7
100
AcDbPoint
 10
867.0
 20
105.0
 30
0.0
  0
POINT
  5
526
330
1F
100
AcDbEntity
  8
LAY-255
  6
CONTINUOUS
 62
     7
100
AcDbPoint
 10
867.0
 20
89.99999999999996
 30
0.0
  0
TEXT
  5
527
330
1F
100
AcDbEntity
  8
LAY-255
  6
CONTINUOUS
 62
     7
100
AcDbText
 10
924.415136826172
 20
46.63125
 30
0.0
 40
15.46875
  1
福西鋳物株式会社
 41
1.342692141742901
  7
EXCADSTD
100
AcDbText
  0
TEXT
  5
528
330
1F
100
AcDbEntity
  8
LAY-255
  6
CONTINUOUS
 62
     7
100
AcDbText
 10
925.528125
 20
35.94375
 30
0.0
 40
5.15625
  1
ＦＵＫＵＮＩＳＨＩ
 41
1.204799226045263
  7
EXCADSTD
100
AcDbText
  0
TEXT
  5
529
330
1F
100
AcDbEntity
  8
LAY-255
  6
CONTINUOUS
 62
     7
100
AcDbText
 10
998.1575892857143
 20
35.94375
 30
0.0
 40
5.15625
  1
ＦＯＵＮＤＲＹ
 41
1.243252752978497
  7
EXCADSTD
100
AcDbText
  0
TEXT
  5
52A
330
1F
100
AcDbEntity
  8
LAY-255
  6
CONTINUOUS
 62
     7
100
AcDbText
 10
1055.983774651442
 20
35.94375
 30
0.0
 40
5.15625
  1
ＣＯ.,ＬＴＤ.
 41
1.243831271314936
  7
EXCADSTD
100
AcDbText
  0
TEXT
  5
52B
330
1F
100
AcDbEntity
  8
LAY-255
  6
CONTINUOUS
 62
     7
100
AcDbText
 10
882.1031250000001
 20
41.15625
 30
0.0
 40
15.46875
  1
S
 41
0.7582677563636363
  7
EXCADSTD
100
AcDbText
  0
TEXT
  5
52C
330
1F
100
AcDbEntity
  8
LAY-255
  6
CONTINUOUS
 62
     7
100
AcDbText
 10
891.3140625000001
 20
41.24823113208
 30
0.0
 40
15.46875
  1
F
 41
0.7440945272727273
  7
EXCADSTD
100
AcDbText
  0
TEXT
  5
52D
330
1F
100
AcDbEntity
  8
LAY-255
  6
CONTINUOUS
 62
     7
100
AcDbText
 10
1011.31640625
 20
73.26562499999997
 30
0.0
 40
7.734375
  1
縮尺
 41
1.080708718181818
  7
EXCADSTD
100
AcDbText
  0
TEXT
  5
52E
330
1F
100
AcDbEntity
  8
LAY-255
  6
CONTINUOUS
 62
     7
100
AcDbText
 10
861.796875
 20
169.6875
 30
0.0
 40
10.3125
  1
型式
 41
1.056348480681818
  7
EXCADSTD
100
AcDbText
  0
TEXT
  5
52F
330
1F
100
AcDbEntity
  8
LAY-255
  6
CONTINUOUS
 62
     7
100
AcDbText
 10
862.265625
 20
187.6875
 30
0.0
 40
10.3125
  1
品名
 41
0.978838634090909
  7
EXCADSTD
100
AcDbText
  0
TEXT
  5
530
330
1F
100
AcDbEntity
  8
LAY-255
  6
CONTINUOUS
 62
     7
100
AcDbText
 10
861.45703125
 20
73.26562499999997
 30
0.0
 40
7.734375
  1
作成日
 41
1.000629973818182
  7
EXCADSTD
100
AcDbText
  0
TEXT
  5
531
330
1F
100
AcDbEntity
  8
LAY-255
  6
CONTINUOUS
 62
     7
100
AcDbText
 10
900.75
 20
187.6875
 30
0.0
 40
10.3125
  1
ルーフドレイン
 41
1.021169538599106
  7
EXCADSTD
100
AcDbText
  0
TEXT
  5
532
330
1F
100
AcDbEntity
  8
LAY-255
  6
CONTINUOUS
 62
     7
100
AcDbText
 10
868.125
 20
151.6875000000001
 30
0.0
 40
10.3125
  1
防水：アスファルト・シート・
 41
0.9866967752199413
  7
EXCADSTD
100
AcDbText
  0
TEXT
  5
533
330
1F
100
AcDbEntity
  8
LAY-255
  6
CONTINUOUS
 62
     7
100
AcDbText
 10
867.0
 20
136.6875
 30
0.0
 40
10.3125
  1
      露出アスファルト防水兼用
 41
0.894274438169777
  7
EXCADSTD
100
AcDbText
  0
TEXT
  5
534
330
1F
100
AcDbEntity
  8
LAY-255
  6
CONTINUOUS
 62
     7
100
AcDbText
 10
867.65625
 20
106.6875
 30
0.0
 40
10.3125
  1
接続：管用テーパねじ
 41
1.013063761157025
  7
EXCADSTD
100
AcDbText
  0
TEXT
  5
535
330
1F
100
AcDbEntity
  8
LAY-255
  6
CONTINUOUS
 62
     7
100
AcDbText
 10
867.703125
 20
121.6875
 30
0.0
 40
10.3125
  1
用途：屋上用・横引型
 41
1.017090246694215
  7
EXCADSTD
100
AcDbText
  0
TEXT
  5
536
330
1F
100
AcDbEntity
  8
LAY-255
  6
CONTINUOUS
 62
     7
100
AcDbText
 10
868.125
 20
91.68750000000004
 30
0.0
 40
10.3125
  1
※防水層張り掛け幅５０ｍｍ対応型
 41
1.01133974481434
  7
EXCADSTD
100
AcDbText
  0
TEXT
  5
537
330
1F
100
AcDbEntity
  8
LAY-255
  6
CONTINUOUS
 62
     7
100
AcDbText
 10
1044.84375
 20
70.68749999999997
 30
0.0
 40
10.3125
  1
１：３
 41
0.8844094952727272
  7
EXCADSTD
100
AcDbText
  0
TEXT
  5
538
330
1F
100
AcDbEntity
  8
LAY-255
  6
CONTINUOUS
 62
     7
100
AcDbText
 10
898.1208984375
 20
70.68749999999997
 30
0.0
 40
10.3125
  1
２０２３／０２／０６
 41
0.871220741895661
  7
EXCADSTD
100
AcDbText
  0
TEXT
  5
539
330
1F
100
AcDbEntity
  8
LAY-255
  6
CONTINUOUS
 62
     7
100
AcDbText
 10
902.625
 20
169.6875
 30
0.0
 40
10.3125
  1
ＲＡＳＮ－８１２５型
 41
1.000581655991735
  7
EXCADSTD
100
AcDbText
  0
ENDSEC
  0
SECTION
  2
OBJECTS
  0
DICTIONARY
  5
C
330
0
100
AcDbDictionary
  3
ACAD_GROUP
350
D
  3
ACAD_LAYOUT
350
1A
  3
ACAD_MATERIAL
350
43
  3
ACAD_MLEADERSTYLE
350
6B
  3
ACAD_MLINESTYLE
350
17
  3
ACAD_PLOTSETTINGS
350
19
  3
ACAD_SCALELIST
350
47
  3
ACAD_VISUALSTYLE
350
2A
  3
ACDBHEADERROUNDTRIPXREC
350
53A
  3
ACDBVARIABLEDICTIONARY
350
55B
  0
DICTIONARY
  5
566
330
8
100
AcDbDictionary
280
     1
  3
ACAD_XREC_ROUNDTRIP
360
567
  0
DICTIONARY
  5
D
102
{ACAD_REACTORS
330
C
102
}
330
C
100
AcDbDictionary
  0
DICTIONARY
  5
1A
102
{ACAD_REACTORS
330
C
102
}
330
C
100
AcDbDictionary
  0
DICTIONARY
  5
43
102
{ACAD_REACTORS
330
C
102
}
330
C
100
AcDbDictionary
  3
BYBLOCK
350
45
  3
BYLAYER
350
44
  3
GLOBAL
350
46
  0
DICTIONARY
  5
6B
102
{ACAD_REACTORS
330
C
102
}
330
C
100
AcDbDictionary
  3
STANDARD
350
6C
  0
DICTIONARY
  5
17
102
{ACAD_REACTORS
330
C
102
}
330
C
100
AcDbDictionary
  3
STANDARD
350
18
  0
DICTIONARY
  5
19
102
{ACAD_REACTORS
330
C
102
}
330
C
100
AcDbDictionary
  0
DICTIONARY
  5
47
102
{ACAD_REACTORS
330
C
102
}
330
C
100
AcDbDictionary
  3
A0
350
48
  3
A1
350
49
  3
A2
350
4A
  3
A3
350
4B
  3
A4
350
4C
  3
A5
350
4D
  3
A6
350
4E
  3
A7
350
4F
  3
A8
350
50
  3
A9
350
51
  3
B0
350
52
  3
B1
350
53
  3
B2
350
54
  3
B3
350
55
  3
B4
350
56
  3
B5
350
57
  3
B6
350
58
  3
B7
350
59
  3
B8
350
5A
  3
B9
350
5B
  3
C0
350
5C
  3
C1
350
5D
  3
C2
350
5E
  3
C3
350
5F
  3
C4
350
60
  3
C5
350
61
  3
C6
350
62
  3
C7
350
63
  3
C8
350
64
  3
C9
350
65
  3
D0
350
66
  3
D1
350
67
  3
D2
350
68
  0
DICTIONARY
  5
2A
102
{ACAD_REACTORS
330
C
102
}
330
C
100
AcDbDictionary
  3
2DWIREFRAME
350
2F
  3
BASIC
350
32
  3
BRIGHTEN
350
36
  3
COLORCHANGE
350
3A
  3
CONCEPTUAL
350
34
  3
DIM
350
35
  3
EDGECOLOROFF
350
3D
  3
FACEPATTERN
350
39
  3
FLAT
350
2B
  3
FLATWITHEDGES
350
2C
  3
GOURAUD
350
2D
  3
GOURAUDWITHEDGES
350
2E
  3
HIDDEN
350
31
  3
JITTEROFF
350
3B
  3
LINEPATTERN
350
38
  3
OVERHANGOFF
350
3C
  3
REALISTIC
350
33
  3
SHADED
350
42
  3
SHADED_WITH_EDGES
350
41
  3
SHADES_OF_GRAY
350
3E
  3
SKETCHY
350
3F
  3
THICKEN
350
37
  3
WIREFRAME
350
30
  3
X-RAY
350
40
  0
DICTIONARY
  5
53A
102
{ACAD_REACTORS
330
C
102
}
330
C
100
AcDbDictionary
  3
CEPSNID
350
544
  3
CEPSNTYPE
350
543
  3
DIMSTYLEDATA
350
55A
  3
FINGERPRINTGUID
350
545
  3
HYPERLINKBASE
350
53D
  3
INSUNITS
350
542
  3
LAYOUTDICT
350
53F
  3
LWETCUNION
350
541
  3
PLOTSETDICT
350
540
  3
PSVPSCALE
350
547
  3
PUCSBASE
350
54A
  3
PUCSORGBACK
350
550
  3
PUCSORGBOTTOM
350
54C
  3
PUCSORGFRONT
350
54F
  3
PUCSORGLEFT
350
54D
  3
PUCSORGRIGHT
350
54E
  3
PUCSORGTOP
350
54B
  3
PUCSORTHOREF
350
548
  3
PUCSORTHOVIEW
350
549
  3
STYLESHEET
350
53E
  3
TSTACKALIGN
350
53B
  3
TSTACKSIZE
350
53C
  3
UCSBASE
350
553
  3
UCSORGBACK
350
559
  3
UCSORGBOTTOM
350
555
  3
UCSORGFRONT
350
558
  3
UCSORGLEFT
350
556
  3
UCSORGRIGHT
350
557
  3
UCSORGTOP
350
554
  3
UCSORTHOREF
350
551
  3
UCSORTHOVIEW
350
552
  3
VERSIONGUID
350
546
  0
DICTIONARY
  5
55B
102
{ACAD_REACTORS
330
C
102
}
330
C
100
AcDbDictionary
  3
CANNOSCALE
350
568
  3
CENTEREXE
350
562
  3
CENTERLTYPEFILE
350
563
  3
CMLEADERSTYLE
350
55D
  3
CTABLESTYLE
350
55C
  3
DIMASSOC
350
564
  3
HIDETEXT
350
565
  3
MSLTSCALE
350
569
  3
PSOLHEIGHT
350
55F
  3
PSOLWIDTH
350
55E
  0
XRECORD
  5
567
102
{ACAD_REACTORS
330
566
102
}
330
566
100
AcDbXrecord
102
VTR_0.000_0.000_1.000_1.000_VISUALSTYLE
340
2F
102
VTR_0.000_0.000_1.000_1.000_GRIDDISPLAY
 70
     3
102
VTR_0.000_0.000_1.000_1.000_GRIDMAJOR
 70
     5
102
VTR_0.000_0.000_1.000_1.000_DEFAULTLIGHTING
280
     1
102
VTR_0.000_0.000_1.000_1.000_DEFAULTLIGHTINGTYPE
 70
     1
102
VTR_0.000_0.000_1.000_1.000_BRIGHTNESS
141
0.0
102
VTR_0.000_0.000_1.000_1.000_CONTRAST
142
0.0
  0
MATERIAL
  5
45
102
{ACAD_REACTORS
330
43
102
}
102
{ACAD_XDICTIONARY
360
56C
102
}
330
43
100
AcDbMaterial
  1
BYBLOCK
  0
MATERIAL
  5
44
102
{ACAD_REACTORS
330
43
102
}
102
{ACAD_XDICTIONARY
360
56A
102
}
330
43
100
AcDbMaterial
  1
BYLAYER
  0
MATERIAL
  5
46
102
{ACAD_REACTORS
330
43
102
}
102
{ACAD_XDICTIONARY
360
56E
102
}
330
43
100
AcDbMaterial
  1
GLOBAL
  0
ACAD_PROXY_OBJECT
  5
6C
102
{ACAD_REACTORS
330
6B
102
}
330
6B
100
AcDbProxyObject
 90
      499
 91
      505
 93
      610
310
40901902A4063FBFFFFFE0000000000000020400000000000020404214DD185B99185C990000000000000104090141901A00000000000004100000000000000041025764000000000000039000
340
14
340
0
340
11
340
0
 94
        0
1001
ACAD_MLEADERVER
1070
     2
  0
MLINESTYLE
  5
18
102
{ACAD_REACTORS
330
17
102
}
330
17
100
AcDbMlineStyle
  2
Standard
 70
     0
  3

 62
   256
 51
90.0
 52
90.0
 71
     2
 49
0.5
 62
   256
  6
BYLAYER
 49
-0.5
 62
   256
  6
BYLAYER
  0
ACAD_PROXY_OBJECT
  5
48
102
{ACAD_REACTORS
330
47
102
}
330
47
100
AcDbProxyObject
 90
      499
 91
      503
 93
       41
310
903313A31580
  0
ACAD_PROXY_OBJECT
  5
49
102
{ACAD_REACTORS
330
47
102
}
330
47
100
AcDbProxyObject
 90
      499
 91
      503
 93
      105
310
903313A324000000000000004000
  0
ACAD_PROXY_OBJECT
  5
4A
102
{ACAD_REACTORS
330
47
102
}
330
47
100
AcDbProxyObject
 90
      499
 91
      503
 93
      105
310
903313A344000000000000104000
  0
ACAD_PROXY_OBJECT
  5
4B
102
{ACAD_REACTORS
330
47
102
}
330
47
100
AcDbProxyObject
 90
      499
 91
      503
 93
      105
310
903313A354000000000000144000
  0
ACAD_PROXY_OBJECT
  5
4C
102
{ACAD_REACTORS
330
47
102
}
330
47
100
AcDbProxyObject
 90
      499
 91
      503
 93
      105
310
903313A384000000000000204000
  0
ACAD_PROXY_OBJECT
  5
4D
102
{ACAD_REACTORS
330
47
102
}
330
47
100
AcDbProxyObject
 90
      499
 91
      503
 93
      113
310
904313A31304000000000000244000
  0
ACAD_PROXY_OBJECT
  5
4E
102
{ACAD_REACTORS
330
47
102
}
330
47
100
AcDbProxyObject
 90
      499
 91
      503
 93
      113
310
904313A31364000000000000304000
  0
ACAD_PROXY_OBJECT
  5
4F
102
{ACAD_REACTORS
330
47
102
}
330
47
100
AcDbProxyObject
 90
      499
 91
      503
 93
      113
310
904313A32304000000000000344000
  0
ACAD_PROXY_OBJECT
  5
50
102
{ACAD_REACTORS
330
47
102
}
330
47
100
AcDbProxyObject
 90
      499
 91
      503
 93
      113
310
904313A333040000000000003E4000
  0
ACAD_PROXY_OBJECT
  5
51
102
{ACAD_REACTORS
330
47
102
}
330
47
100
AcDbProxyObject
 90
      499
 91
      503
 93
      113
310
904313A34304000000000000444000
  0
ACAD_PROXY_OBJECT
  5
52
102
{ACAD_REACTORS
330
47
102
}
330
47
100
AcDbProxyObject
 90
      499
 91
      503
 93
      113
310
904313A35304000000000000494000
  0
ACAD_PROXY_OBJECT
  5
53
102
{ACAD_REACTORS
330
47
102
}
330
47
100
AcDbProxyObject
 90
      499
 91
      503
 93
      121
310
905313A3130304000000000000594000
  0
ACAD_PROXY_OBJECT
  5
54
102
{ACAD_REACTORS
330
47
102
}
330
47
100
AcDbProxyObject
 90
      499
 91
      503
 93
      105
310
903323A310000000000000010100
  0
ACAD_PROXY_OBJECT
  5
55
102
{ACAD_REACTORS
330
47
102
}
330
47
100
AcDbProxyObject
 90
      499
 91
      503
 93
      105
310
903343A310000000000000410100
  0
ACAD_PROXY_OBJECT
  5
56
102
{ACAD_REACTORS
330
47
102
}
330
47
100
AcDbProxyObject
 90
      499
 91
      503
 93
      105
310
903383A310000000000000810100
  0
ACAD_PROXY_OBJECT
  5
57
102
{ACAD_REACTORS
330
47
102
}
330
47
100
AcDbProxyObject
 90
      499
 91
      503
 93
      113
310
90431303A310000000000000910100
  0
ACAD_PROXY_OBJECT
  5
58
102
{ACAD_REACTORS
330
47
102
}
330
47
100
AcDbProxyObject
 90
      499
 91
      503
 93
      121
310
9053130303A310000000000001650100
  0
ACAD_PROXY_OBJECT
  5
59
102
{ACAD_REACTORS
330
47
102
}
330
47
100
AcDbProxyObject
 90
      499
 91
      503
 93
      257
310
90E312F31323822203D2031272D3022000000000000200FC000000000000284000
  0
ACAD_PROXY_OBJECT
  5
5A
102
{ACAD_REACTORS
330
47
102
}
330
47
100
AcDbProxyObject
 90
      499
 91
      503
 93
      249
310
90D312F363422203D2031272D3022000000000000240FC000000000000284000
  0
ACAD_PROXY_OBJECT
  5
5B
102
{ACAD_REACTORS
330
47
102
}
330
47
100
AcDbProxyObject
 90
      499
 91
      503
 93
      249
310
90D312F333222203D2031272D3022000000000000280FC000000000000284000
  0
ACAD_PROXY_OBJECT
  5
5C
102
{ACAD_REACTORS
330
47
102
}
330
47
100
AcDbProxyObject
 90
      499
 91
      503
 93
      249
310
90D312F313622203D2031272D30220000000000002C0FC000000000000284000
  0
ACAD_PROXY_OBJECT
  5
5D
102
{ACAD_REACTORS
330
47
102
}
330
47
100
AcDbProxyObject
 90
      499
 91
      503
 93
      249
310
90D332F333222203D2031272D30220000000000002E0FC000000000000284000
  0
ACAD_PROXY_OBJECT
  5
5E
102
{ACAD_REACTORS
330
47
102
}
330
47
100
AcDbProxyObject
 90
      499
 91
      503
 93
      241
310
90C312F3822203D2031272D3022000000000000300FC000000000000284000
  0
ACAD_PROXY_OBJECT
  5
5F
102
{ACAD_REACTORS
330
47
102
}
330
47
100
AcDbProxyObject
 90
      499
 91
      503
 93
      249
310
90D332F313622203D2031272D3022000000000000320FC000000000000284000
  0
ACAD_PROXY_OBJECT
  5
60
102
{ACAD_REACTORS
330
47
102
}
330
47
100
AcDbProxyObject
 90
      499
 91
      503
 93
      241
310
90C312F3422203D2031272D3022000000000000340FC000000000000284000
  0
ACAD_PROXY_OBJECT
  5
61
102
{ACAD_REACTORS
330
47
102
}
330
47
100
AcDbProxyObject
 90
      499
 91
      503
 93
      241
310
90C332F3822203D2031272D3022000000000000360FC000000000000284000
  0
ACAD_PROXY_OBJECT
  5
62
102
{ACAD_REACTORS
330
47
102
}
330
47
100
AcDbProxyObject
 90
      499
 91
      503
 93
      241
310
90C312F3222203D2031272D3022000000000000380FC000000000000284000
  0
ACAD_PROXY_OBJECT
  5
63
102
{ACAD_REACTORS
330
47
102
}
330
47
100
AcDbProxyObject
 90
      499
 91
      503
 93
      241
310
90C332F3422203D2031272D30220000000000003A0FC000000000000284000
  0
ACAD_PROXY_OBJECT
  5
64
102
{ACAD_REACTORS
330
47
102
}
330
47
100
AcDbProxyObject
 90
      499
 91
      503
 93
      161
310
90A3122203D2031272D30224000000000000284000
  0
ACAD_PROXY_OBJECT
  5
65
102
{ACAD_REACTORS
330
47
102
}
330
47
100
AcDbProxyObject
 90
      499
 91
      503
 93
      257
310
90E312D312F3222203D2031272D30220000000000003E0FC000000000000284000
  0
ACAD_PROXY_OBJECT
  5
66
102
{ACAD_REACTORS
330
47
102
}
330
47
100
AcDbProxyObject
 90
      499
 91
      503
 93
      225
310
90A3322203D2031272D302200000000000002100000000000000284000
  0
ACAD_PROXY_OBJECT
  5
67
102
{ACAD_REACTORS
330
47
102
}
330
47
100
AcDbProxyObject
 90
      499
 91
      503
 93
      225
310
90A3622203D2031272D302200000000000006100000000000000284000
  0
ACAD_PROXY_OBJECT
  5
68
102
{ACAD_REACTORS
330
47
102
}
330
47
100
AcDbProxyObject
 90
      499
 91
      503
 93
      249
310
90D31272D3022203D2031272D30220000000000000A100000000000000284000
  0
ACAD_PROXY_OBJECT
  5
2F
102
{ACAD_REACTORS
330
2A
102
}
330
2A
100
AcDbProxyObject
 90
      499
 91
      501
 93
      436
310
42CC9915DA5C99599C985B595049028333333333333E33F0000000000000F90107901411070040501600405405064090741402480A0340
1001
ACAD
1000
AcDbSavedByObjectVersion
1070
     0
  0
ACAD_PROXY_OBJECT
  5
32
102
{ACAD_REACTORS
330
2A
102
}
330
2A
100
AcDbProxyObject
 90
      499
 91
      501
 93
      388
310
4150985CDA58D07406404333333333333E33F0000000000000F90107A41107004050150841D405064090741402480A0350
1001
ACAD
1000
AcDbSavedByObjectVersion
1070
     0
  0
ACAD_PROXY_OBJECT
  5
36
102
{ACAD_REACTORS
330
2A
102
}
330
2A
100
AcDbProxyObject
 90
      499
 91
      501
 93
      428
310
42109C9A59DA1D195B90C409028333333333333E33F0000000000000F9010790141107004050150841D405064090741402480A029950
1001
ACAD
1000
AcDbSavedByObjectVersion
1070
     0
  0
ACAD_PROXY_OBJECT
  5
3A
102
{ACAD_REACTORS
330
2A
102
}
330
2A
100
AcDbProxyObject
 90
      499
 91
      501
 93
      452
310
42D0DBDB1BDC90DA185B99D95104090240C333333333333E33F0000000000000F90108901411070040501508421405064090741402480A0350
1001
ACAD
1000
AcDbSavedByObjectVersion
1070
     0
  0
ACAD_PROXY_OBJECT
  5
34
102
{ACAD_REACTORS
330
2A
102
}
330
2A
100
AcDbProxyObject
 90
      499
 91
      501
 93
      500
310
4290DBDB98D95C1D1D585B10940D028333333333333E33F0000000000000F90107902409070040501000000000018199010841D405064090740C02480A0340
1001
ACAD
1000
AcDbSavedByObjectVersion
1070
     0
  0
ACAD_PROXY_OBJECT
  5
35
102
{ACAD_REACTORS
330
2A
102
}
330
2A
100
AcDbProxyObject
 90
      499
 91
      501
 93
      412
310
40D11A5B50B409028333333333333E33F0000000000000F9010790141107004050150841D405064090741402480A02677FFFFFD0
1001
ACAD
1000
AcDbSavedByObjectVersion
1070
     0
  0
ACAD_PROXY_OBJECT
  5
3D
102
{ACAD_REACTORS
330
2A
102
}
330
2A
100
AcDbProxyObject
 90
      499
 91
      501
 93
      452
310
43115919D950DBDB1BDC93D999916409028333333333333E33F0000000000000F9010790141107004050150841D405064090741402480A0350
1001
ACAD
1000
AcDbSavedByObjectVersion
1070
     0
  0
ACAD_PROXY_OBJECT
  5
39
102
{ACAD_REACTORS
330
2A
102
}
330
2A
100
AcDbProxyObject
 90
      499
 91
      501
 93
      444
310
42D19858D95C185D1D195C9B90F409028333333333333E33F0000000000000F9010790141107004050150841D405064090741402480A0350
1001
ACAD
1000
AcDbSavedByObjectVersion
1070
     0
  0
ACAD_PROXY_OBJECT
  5
2B
102
{ACAD_REACTORS
330
2A
102
}
330
2A
100
AcDbProxyObject
 90
      499
 91
      501
 93
      380
310
41119B185D240901404333333333333E33F0000000000000F9010740A907004050150841D405064090741402480A1B50
1001
ACAD
1000
AcDbSavedByObjectVersion
1070
     0
  0
ACAD_PROXY_OBJECT
  5
2C
102
{ACAD_REACTORS
330
2A
102
}
330
2A
100
AcDbProxyObject
 90
      499
 91
      501
 93
      468
310
43519B185D15DA5D1A115919D95CD0140901404333333333333E33F0000000000000F90107409019070040501600405405064090741402480A1B50
1001
ACAD
1000
AcDbSavedByObjectVersion
1070
     0
  0
ACAD_PROXY_OBJECT
  5
2D
102
{ACAD_REACTORS
330
2A
102
}
330
2A
100
AcDbProxyObject
 90
      499
 91
      501
 93
      404
310
41D1DBDD5C985D5910240902404333333333333E33F0000000000000F9010740A9070040501641D405064090741402480A1B50
1001
ACAD
1000
AcDbSavedByObjectVersion
1070
     0
  0
ACAD_PROXY_OBJECT
  5
2E
102
{ACAD_REACTORS
330
2A
102
}
330
2A
100
AcDbProxyObject
 90
      499
 91
      501
 93
      492
310
4411DBDD5C985D5915DA5D1A115919D95CD0340902404333333333333E33F0000000000000F90107409019070040501600405405064090741402480A1B50
1001
ACAD
1000
AcDbSavedByObjectVersion
1070
     0
  0
ACAD_PROXY_OBJECT
  5
31
102
{ACAD_REACTORS
330
2A
102
}
330
2A
100
AcDbProxyObject
 90
      499
 91
      501
 93
      476
310
41921A5919195B90640502408333333333333E33F0000000000000F901079024090700405020000000000001110200405405064090740C02480A0340
1001
ACAD
1000
AcDbSavedByObjectVersion
1070
     0
  0
ACAD_PROXY_OBJECT
  5
3B
102
{ACAD_REACTORS
330
2A
102
}
330
2A
100
AcDbProxyObject
 90
      499
 91
      501
 93
      428
310
42529A5D1D195C93D999914409028333333333333E33F0000000000000F9010790141107004050150A41D405064090741402480A0350
1001
ACAD
1000
AcDbSavedByObjectVersion
1070
     0
  0
ACAD_PROXY_OBJECT
  5
38
102
{ACAD_REACTORS
330
2A
102
}
330
2A
100
AcDbProxyObject
 90
      499
 91
      501
 93
      444
310
42D31A5B995C185D1D195C9B90E409028333333333333E33F0000000000000F9010790141107004050750841D405064090741402483A0350
1001
ACAD
1000
AcDbSavedByObjectVersion
1070
     0
  0
ACAD_PROXY_OBJECT
  5
3C
102
{ACAD_REACTORS
330
2A
102
}
330
2A
100
AcDbProxyObject
 90
      499
 91
      501
 93
      444
310
42D3DD995C9A185B99D3D999915409028333333333333E33F0000000000000F9010790141107004050150941D405064090741402480A0350
1001
ACAD
1000
AcDbSavedByObjectVersion
1070
     0
  0
ACAD_PROXY_OBJECT
  5
33
102
{ACAD_REACTORS
330
2A
102
}
330
2A
100
AcDbProxyObject
 90
      499
 91
      501
 93
      428
310
425499585B1A5CDD1A58D08409038333333333333E33F0000000000000F9010740A907004050150800405405064090740C02480A1B40
1001
ACAD
1000
AcDbSavedByObjectVersion
1070
     0
  0
ACAD_PROXY_OBJECT
  5
42
102
{ACAD_REACTORS
330
2A
102
}
330
2A
100
AcDbProxyObject
 90
      499
 91
      501
 93
      420
310
4194DA1859195911B40902404333333333333E33F0000000000000F9010740A41107004050150800405405064090840C02480A0B40
1001
ACAD
1000
AcDbSavedByObjectVersion
1070
     0
  0
ACAD_PROXY_OBJECT
  5
41
102
{ACAD_REACTORS
330
2A
102
}
330
2A
100
AcDbProxyObject
 90
      499
 91
      501
 93
      516
310
4454DA18591959081DDA5D1A08195919D95CD1A40902404333333333333E33F0000000000000F901074090142907004050250800405405064090740C02480A0B40
1001
ACAD
1000
AcDbSavedByObjectVersion
1070
     0
  0
ACAD_PROXY_OBJECT
  5
3E
102
{ACAD_REACTORS
330
2A
102
}
330
2A
100
AcDbProxyObject
 90
      499
 91
      501
 93
      532
310
4394DA1859195CC81BD98811DC985E5174090240C333333333333E33F0000000000000F901079024090741D01000000000000111010841D405064090740C02480A0340
1001
ACAD
1000
AcDbSavedByObjectVersion
1070
     0
  0
ACAD_PROXY_OBJECT
  5
3F
102
{ACAD_REACTORS
330
2A
102
}
330
2A
100
AcDbProxyObject
 90
      499
 91
      501
 93
      476
310
41D4DAD95D18DA1E51840502408333333333333E33F0000000000000F901079024090741D01000000000000111010B41D405064090741802480A0340
1001
ACAD
1000
AcDbSavedByObjectVersion
1070
     0
  0
ACAD_PROXY_OBJECT
  5
37
102
{ACAD_REACTORS
330
2A
102
}
330
2A
100
AcDbProxyObject
 90
      499
 91
      501
 93
      412
310
41D51A1A58DAD95B90D409028333333333333E33F0000000000000F9010790141107004050150C41D405064090741402480A0350
1001
ACAD
1000
AcDbSavedByObjectVersion
1070
     0
  0
ACAD_PROXY_OBJECT
  5
30
102
{ACAD_REACTORS
330
2A
102
}
330
2A
100
AcDbProxyObject
 90
      499
 91
      501
 93
      420
310
4255DA5C99599C985B595059028333333333333E33F0000000000000F90107901411070040501600405405064090740C02480A0340
1001
ACAD
1000
AcDbSavedByObjectVersion
1070
     0
  0
ACAD_PROXY_OBJECT
  5
40
102
{ACAD_REACTORS
330
2A
102
}
330
2A
100
AcDbProxyObject
 90
      499
 91
      501
 93
      404
310
41560B54985E51940902404000000000000E03F0000000000000F9010740501907004050150841D405064090740C02480A1B40
1001
ACAD
1000
AcDbSavedByObjectVersion
1070
     0
  0
XRECORD
  5
544
102
{ACAD_REACTORS
330
53A
102
}
330
53A
100
AcDbXrecord
340
0
  0
XRECORD
  5
543
102
{ACAD_REACTORS
330
53A
102
}
330
53A
100
AcDbXrecord
 90
        0
  0
XRECORD
  5
55A
102
{ACAD_REACTORS
330
53A
102
}
330
53A
100
AcDbXrecord
1000
DSTYLE
1002
{
1070
   340
340
11
1002
}
  0
XRECORD
  5
545
102
{ACAD_REACTORS
330
53A
102
}
330
53A
100
AcDbXrecord
  1
{60dac58c-d4a3-4a3a-8d95-dc3546159de0}
  0
XRECORD
  5
53D
102
{ACAD_REACTORS
330
53A
102
}
330
53A
100
AcDbXrecord
  1

  0
XRECORD
  5
542
102
{ACAD_REACTORS
330
53A
102
}
330
53A
100
AcDbXrecord
 90
        4
  0
XRECORD
  5
53F
102
{ACAD_REACTORS
330
53A
102
}
330
53A
100
AcDbXrecord
340
1A
  0
XRECORD
  5
541
102
{ACAD_REACTORS
330
53A
102
}
330
53A
100
AcDbXrecord
 90
    10781
  0
XRECORD
  5
540
102
{ACAD_REACTORS
330
53A
102
}
330
53A
100
AcDbXrecord
340
19
  0
XRECORD
  5
547
102
{ACAD_REACTORS
330
53A
102
}
330
53A
100
AcDbXrecord
 40
0.0
  0
XRECORD
  5
54A
102
{ACAD_REACTORS
330
53A
102
}
330
53A
100
AcDbXrecord
340
0
  0
XRECORD
  5
550
102
{ACAD_REACTORS
330
53A
102
}
330
53A
100
AcDbXrecord
 10
0.0
 20
0.0
 30
0.0
  0
XRECORD
  5
54C
102
{ACAD_REACTORS
330
53A
102
}
330
53A
100
AcDbXrecord
 10
0.0
 20
0.0
 30
0.0
  0
XRECORD
  5
54F
102
{ACAD_REACTORS
330
53A
102
}
330
53A
100
AcDbXrecord
 10
0.0
 20
0.0
 30
0.0
  0
XRECORD
  5
54D
102
{ACAD_REACTORS
330
53A
102
}
330
53A
100
AcDbXrecord
 10
0.0
 20
0.0
 30
0.0
  0
XRECORD
  5
54E
102
{ACAD_REACTORS
330
53A
102
}
330
53A
100
AcDbXrecord
 10
0.0
 20
0.0
 30
0.0
  0
XRECORD
  5
54B
102
{ACAD_REACTORS
330
53A
102
}
330
53A
100
AcDbXrecord
 10
0.0
 20
0.0
 30
0.0
  0
XRECORD
  5
548
102
{ACAD_REACTORS
330
53A
102
}
330
53A
100
AcDbXrecord
340
0
  0
XRECORD
  5
549
102
{ACAD_REACTORS
330
53A
102
}
330
53A
100
AcDbXrecord
 70
     0
  0
XRECORD
  5
53E
102
{ACAD_REACTORS
330
53A
102
}
330
53A
100
AcDbXrecord
  1

  0
XRECORD
  5
53B
102
{ACAD_REACTORS
330
53A
102
}
330
53A
100
AcDbXrecord
 90
        1
  0
XRECORD
  5
53C
102
{ACAD_REACTORS
330
53A
102
}
330
53A
100
AcDbXrecord
 90
       70
  0
XRECORD
  5
553
102
{ACAD_REACTORS
330
53A
102
}
330
53A
100
AcDbXrecord
340
0
  0
XRECORD
  5
559
102
{ACAD_REACTORS
330
53A
102
}
330
53A
100
AcDbXrecord
 10
0.0
 20
0.0
 30
0.0
  0
XRECORD
  5
555
102
{ACAD_REACTORS
330
53A
102
}
330
53A
100
AcDbXrecord
 10
0.0
 20
0.0
 30
0.0
  0
XRECORD
  5
558
102
{ACAD_REACTORS
330
53A
102
}
330
53A
100
AcDbXrecord
 10
0.0
 20
0.0
 30
0.0
  0
XRECORD
  5
556
102
{ACAD_REACTORS
330
53A
102
}
330
53A
100
AcDbXrecord
 10
0.0
 20
0.0
 30
0.0
  0
XRECORD
  5
557
102
{ACAD_REACTORS
330
53A
102
}
330
53A
100
AcDbXrecord
 10
0.0
 20
0.0
 30
0.0
  0
XRECORD
  5
554
102
{ACAD_REACTORS
330
53A
102
}
330
53A
100
AcDbXrecord
 10
0.0
 20
0.0
 30
0.0
  0
XRECORD
  5
551
102
{ACAD_REACTORS
330
53A
102
}
330
53A
100
AcDbXrecord
340
0
  0
XRECORD
  5
552
102
{ACAD_REACTORS
330
53A
102
}
330
53A
100
AcDbXrecord
 70
     0
  0
XRECORD
  5
546
102
{ACAD_REACTORS
330
53A
102
}
330
53A
100
AcDbXrecord
  1
{FAEB1C32-E019-11D5-929B-00C0DF256EC4}
  0
DICTIONARYVAR
  5
568
102
{ACAD_REACTORS
330
55B
102
}
330
55B
100
DictionaryVariables
280
     0
  1
1:1
  0
DICTIONARYVAR
  5
562
102
{ACAD_REACTORS
330
55B
102
}
330
55B
100
DictionaryVariables
280
     0
  1
3.500000
  0
DICTIONARYVAR
  5
563
102
{ACAD_REACTORS
330
55B
102
}
330
55B
100
DictionaryVariables
280
     0
  1
acadiso.lin
  0
DICTIONARYVAR
  5
55D
102
{ACAD_REACTORS
330
55B
102
}
330
55B
100
DictionaryVariables
280
     0
  1
Standard
  0
DICTIONARYVAR
  5
55C
102
{ACAD_REACTORS
330
55B
102
}
330
55B
100
DictionaryVariables
280
     0
  1
Standard
  0
DICTIONARYVAR
  5
564
102
{ACAD_REACTORS
330
55B
102
}
330
55B
100
DictionaryVariables
280
     0
  1
2
  0
DICTIONARYVAR
  5
565
102
{ACAD_REACTORS
330
55B
102
}
330
55B
100
DictionaryVariables
280
     0
  1
1
  0
DICTIONARYVAR
  5
569
102
{ACAD_REACTORS
330
55B
102
}
330
55B
100
DictionaryVariables
280
     0
  1
1
  0
DICTIONARYVAR
  5
55F
102
{ACAD_REACTORS
330
55B
102
}
330
55B
100
DictionaryVariables
280
     0
  1
80.000000
  0
DICTIONARYVAR
  5
55E
102
{ACAD_REACTORS
330
55B
102
}
330
55B
100
DictionaryVariables
280
     0
  1
5.000000
  0
DICTIONARY
  5
56C
330
45
100
AcDbDictionary
280
     1
  3
ACAD_XREC_ROUNDTRIP
360
56D
  0
DICTIONARY
  5
56A
330
44
100
AcDbDictionary
280
     1
  3
ACAD_XREC_ROUNDTRIP
360
56B
  0
DICTIONARY
  5
56E
330
46
100
AcDbDictionary
280
     1
  3
ACAD_XREC_ROUNDTRIP
360
56F
  0
XRECORD
  5
56D
102
{ACAD_REACTORS
330
56C
102
}
330
56C
100
AcDbXrecord
102
MATERIAL
148
0.0
149
0.0
149
0.0
 93
        0
 94
      127
282
     0
 72
     1
 77
     1
171
     1
175
     1
179
     1
273
     0
  0
XRECORD
  5
56B
102
{ACAD_REACTORS
330
56A
102
}
330
56A
100
AcDbXrecord
102
MATERIAL
148
0.0
149
0.0
149
0.0
 93
        0
 94
      127
282
     0
 72
     1
 77
     1
171
     1
175
     1
179
     1
273
     0
  0
XRECORD
  5
56F
102
{ACAD_REACTORS
330
56E
102
}
330
56E
100
AcDbXrecord
102
MATERIAL
148
0.0
149
0.0
149
0.0
 93
        0
 94
      127
282
     0
 72
     1
 77
     1
171
     1
175
     1
179
     1
273
     0
  0
ENDSEC
  0
EOF
