  0
SECTION
  2
HEADER
  9
$ACADVER
  1
AC1014
  9
$ACADMAINTVER
 70
     9
  9
$DWGCODEPAGE
  3
ANSI_932
  9
$INSBASE
 10
0.0
 20
0.0
 30
0.0
  9
$EXTMIN
 10
10.0
 20
20.0
 30
0.0
  9
$EXTMAX
 10
770.0000000000001
 20
560.0
 30
0.0
  9
$LIMMIN
 10
0.0
 20
0.0
  9
$LIMMAX
 10
420.0
 20
297.0
  9
$ORTHOMODE
 70
     0
  9
$REGENMODE
 70
     1
  9
$FILLMODE
 70
     1
  9
$QTEXTMODE
 70
     0
  9
$MIRRTEXT
 70
     1
  9
$DRAGMODE
 70
     2
  9
$LTSCALE
 40
0.2
  9
$OSMODE
 70
    37
  9
$ATTMODE
 70
     1
  9
$TEXTSIZE
 40
2.5
  9
$TRACEWID
 40
1.0
  9
$TEXTSTYLE
  7
STANDARD
  9
$CLAYER
  8
LAY-10
  9
$CELTYPE
  6
BYLAYER
  9
$CECOLOR
 62
   256
  9
$CELTSCALE
 40
1.0
  9
$DELOBJ
 70
     1
  9
$DISPSILH
 70
     0
  9
$DIMSCALE
 40
1.0
  9
$DIMASZ
 40
2.5
  9
$DIMEXO
 40
0.625
  9
$DIMDLI
 40
3.75
  9
$DIMRND
 40
0.0
  9
$DIMDLE
 40
0.0
  9
$DIMEXE
 40
1.25
  9
$DIMTP
 40
0.0
  9
$DIMTM
 40
0.0
  9
$DIMTXT
 40
2.5
  9
$DIMCEN
 40
2.5
  9
$DIMTSZ
 40
0.0
  9
$DIMTOL
 70
     0
  9
$DIMLIM
 70
     0
  9
$DIMTIH
 70
     0
  9
$DIMTOH
 70
     0
  9
$DIMSE1
 70
     0
  9
$DIMSE2
 70
     0
  9
$DIMTAD
 70
     1
  9
$DIMZIN
 70
     8
  9
$DIMBLK
  1

  9
$DIMASO
 70
     1
  9
$DIMSHO
 70
     1
  9
$DIMPOST
  1

  9
$DIMAPOST
  1

  9
$DIMALT
 70
     0
  9
$DIMALTD
 70
     3
  9
$DIMALTF
 40
0.03937007874016
  9
$DIMLFAC
 40
1.0
  9
$DIMTOFL
 70
     1
  9
$DIMTVP
 40
0.0
  9
$DIMTIX
 70
     0
  9
$DIMSOXD
 70
     0
  9
$DIMSAH
 70
     0
  9
$DIMBLK1
  1

  9
$DIMBLK2
  1

  9
$DIMSTYLE
  2
ISO-25
  9
$DIMCLRD
 70
     0
  9
$DIMCLRE
 70
     0
  9
$DIMCLRT
 70
     0
  9
$DIMTFAC
 40
1.0
  9
$DIMGAP
 40
0.625
  9
$DIMJUST
 70
     0
  9
$DIMSD1
 70
     0
  9
$DIMSD2
 70
     0
  9
$DIMTOLJ
 70
     0
  9
$DIMTZIN
 70
     8
  9
$DIMALTZ
 70
     0
  9
$DIMALTTZ
 70
     0
  9
$DIMFIT
 70
     3
  9
$DIMUPT
 70
     0
  9
$DIMUNIT
 70
     2
  9
$DIMDEC
 70
     2
  9
$DIMTDEC
 70
     2
  9
$DIMALTU
 70
     2
  9
$DIMALTTD
 70
     3
  9
$DIMTXSTY
  7
STANDARD
  9
$DIMAUNIT
 70
     0
  9
$LUNITS
 70
     2
  9
$LUPREC
 70
     4
  9
$SKETCHINC
 40
1.0
  9
$FILLETRAD
 40
10.0
  9
$AUNITS
 70
     0
  9
$AUPREC
 70
     0
  9
$MENU
  1
.
  9
$ELEVATION
 40
0.0
  9
$PELEVATION
 40
0.0
  9
$THICKNESS
 40
0.0
  9
$LIMCHECK
 70
     0
  9
$CHAMFERA
 40
0.0
  9
$CHAMFERB
 40
0.0
  9
$CHAMFERC
 40
0.0
  9
$CHAMFERD
 40
0.0
  9
$SKPOLY
 70
     0
  9
$TDCREATE
 40
2459229.337273692
  9
$TDUPDATE
 40
2459229.337274213
  9
$TDINDWG
 40
0.0000000116
  9
$TDUSRTIMER
 40
0.0000000116
  9
$USRTIMER
 70
     1
  9
$ANGBASE
 50
0.0
  9
$ANGDIR
 70
     0
  9
$PDMODE
 70
     0
  9
$PDSIZE
 40
0.0
  9
$PLINEWID
 40
0.0
  9
$COORDS
 70
     1
  9
$SPLFRAME
 70
     0
  9
$SPLINETYPE
 70
     6
  9
$SPLINESEGS
 70
     8
  9
$ATTDIA
 70
     0
  9
$ATTREQ
 70
     1
  9
$HANDLING
 70
     1
  9
$HANDSEED
  5
499
  9
$SURFTAB1
 70
     6
  9
$SURFTAB2
 70
     6
  9
$SURFTYPE
 70
     6
  9
$SURFU
 70
     6
  9
$SURFV
 70
     6
  9
$UCSNAME
  2

  9
$UCSORG
 10
0.0
 20
0.0
 30
0.0
  9
$UCSXDIR
 10
1.0
 20
0.0
 30
0.0
  9
$UCSYDIR
 10
0.0
 20
1.0
 30
0.0
  9
$PUCSNAME
  2

  9
$PUCSORG
 10
0.0
 20
0.0
 30
0.0
  9
$PUCSXDIR
 10
1.0
 20
0.0
 30
0.0
  9
$PUCSYDIR
 10
0.0
 20
1.0
 30
0.0
  9
$USERI1
 70
     0
  9
$USERI2
 70
     0
  9
$USERI3
 70
     0
  9
$USERI4
 70
     0
  9
$USERI5
 70
     0
  9
$USERR1
 40
0.0
  9
$USERR2
 40
0.0
  9
$USERR3
 40
0.0
  9
$USERR4
 40
0.0
  9
$USERR5
 40
0.0
  9
$WORLDVIEW
 70
     1
  9
$SHADEDGE
 70
     3
  9
$SHADEDIF
 70
    70
  9
$TILEMODE
 70
     1
  9
$MAXACTVP
 70
    64
  9
$PINSBASE
 10
0.0
 20
0.0
 30
0.0
  9
$PLIMCHECK
 70
     0
  9
$PEXTMIN
 10
1.000000000000000E+20
 20
1.000000000000000E+20
 30
1.000000000000000E+20
  9
$PEXTMAX
 10
-1.000000000000000E+20
 20
-1.000000000000000E+20
 30
-1.000000000000000E+20
  9
$PLIMMIN
 10
0.0
 20
0.0
  9
$PLIMMAX
 10
420.0
 20
297.0
  9
$UNITMODE
 70
     0
  9
$VISRETAIN
 70
     1
  9
$PLINEGEN
 70
     0
  9
$PSLTSCALE
 70
     1
  9
$TREEDEPTH
 70
  3020
  9
$PICKSTYLE
 70
     1
  9
$CMLSTYLE
  2
STANDARD
  9
$CMLJUST
 70
     0
  9
$CMLSCALE
 40
20.0
  9
$PROXYGRAPHICS
 70
     1
  9
$MEASUREMENT
 70
     1
  0
ENDSEC
  0
SECTION
  2
CLASSES
  0
CLASS
  1
ACDBDICTIONARYWDFLT
  2
AcDbDictionaryWithDefault
  3
ObjectDBX Classes
 90
        0
280
     0
281
     0
  0
CLASS
  1
VISUALSTYLE
  2
AcDbVisualStyle
  3
ObjectDBX Classes
 90
     4095
280
     0
281
     0
  0
CLASS
  1
MATERIAL
  2
AcDbMaterial
  3
ObjectDBX Classes
 90
     1153
280
     0
281
     0
  0
CLASS
  1
SCALE
  2
AcDbScale
  3
ObjectDBX Classes
 90
     1153
280
     0
281
     0
  0
CLASS
  1
TABLESTYLE
  2
AcDbTableStyle
  3
ObjectDBX Classes
 90
     4095
280
     0
281
     0
  0
CLASS
  1
MLEADERSTYLE
  2
AcDbMLeaderStyle
  3
ACDB_MLEADERSTYLE_CLASS
 90
     4095
280
     0
281
     0
  0
CLASS
  1
SUN
  2
AcDbSun
  3
SCENEOE
 90
     1153
280
     0
281
     0
  0
CLASS
  1
DICTIONARYVAR
  2
AcDbDictionaryVar
  3
ObjectDBX Classes
 90
        0
280
     0
281
     0
  0
CLASS
  1
XRECORD
  2
AcDbXrecord
  3
ObjectDBX Classes
 90
        0
280
     0
281
     0
  0
CLASS
  1
LWPOLYLINE
  2
AcDbPolyline
  3
ObjectDBX Classes
 90
        0
280
     0
281
     1
  0
CLASS
  1
HATCH
  2
AcDbHatch
  3
ObjectDBX Classes
 90
        0
280
     0
281
     1
  0
CLASS
  1
ACDBPLACEHOLDER
  2
AcDbPlaceHolder
  3
ObjectDBX Classes
 90
        0
280
     0
281
     0
  0
CLASS
  1
LAYOUT
  2
AcDbLayout
  3
ObjectDBX Classes
 90
        0
280
     0
281
     0
  0
ENDSEC
  0
SECTION
  2
TABLES
  0
TABLE
  2
VPORT
  5
8
102
{ACAD_XDICTIONARY
360
48E
102
}
330
0
100
AcDbSymbolTable
 70
     1
  0
VPORT
  5
29
330
8
100
AcDbSymbolTableRecord
100
AcDbViewportTableRecord
  2
*ACTIVE
 70
     0
 10
0.0
 20
0.0
 11
1.0
 21
1.0
 12
390.0000000000001
 22
290.0
 13
0.0
 23
0.0
 14
10.0
 24
10.0
 15
10.0
 25
10.0
 16
0.0
 26
0.0
 36
1.0
 17
0.0
 27
0.0
 37
0.0
 40
540.0
 41
1.407407407407408
 42
50.0
 43
0.0
 44
0.0
 50
0.0
 51
0.0
 71
     0
 72
  1000
 73
     1
 74
     3
 75
     0
 76
     0
 77
     0
 78
     0
  0
ENDTAB
  0
TABLE
  2
LTYPE
  5
5
330
0
100
AcDbSymbolTable
 70
     6
  0
LTYPE
  5
14
330
5
100
AcDbSymbolTableRecord
100
AcDbLinetypeTableRecord
  2
BYBLOCK
 70
     0
  3

 72
    65
 73
     0
 40
0.0
  0
LTYPE
  5
15
330
5
100
AcDbSymbolTableRecord
100
AcDbLinetypeTableRecord
  2
BYLAYER
 70
     0
  3

 72
    65
 73
     0
 40
0.0
  0
LTYPE
  5
16
330
5
100
AcDbSymbolTableRecord
100
AcDbLinetypeTableRecord
  2
CONTINUOUS
 70
     0
  3
Solid line
 72
    65
 73
     0
 40
0.0
  0
LTYPE
  5
6E
330
5
100
AcDbSymbolTableRecord
100
AcDbLinetypeTableRecord
  2
HIDDEN
 70
     0
  3
Hidden __ __ __ __ __ __ __ __ __ __ __ __ __ __
 72
    65
 73
     2
 40
9.524999999999999
 49
6.35
 74
     0
 49
-3.175
 74
     0
  0
LTYPE
  5
6F
330
5
100
AcDbSymbolTableRecord
100
AcDbLinetypeTableRecord
  2
CENTER
 70
     0
  3
Center ____ _ ____ _ ____ _ ____ _ ____ _ ____
 72
    65
 73
     4
 40
50.8
 49
31.75
 74
     0
 49
-6.35
 74
     0
 49
6.35
 74
     0
 49
-6.35
 74
     0
  0
LTYPE
  5
70
330
5
100
AcDbSymbolTableRecord
100
AcDbLinetypeTableRecord
  2
PHANTOM
 70
     0
  3
Phantom ______  __  __  ______  __  __  ______ 
 72
    65
 73
     6
 40
63.50000000000001
 49
31.75
 74
     0
 49
-6.35
 74
     0
 49
6.35
 74
     0
 49
-6.35
 74
     0
 49
6.35
 74
     0
 49
-6.35
 74
     0
  0
LTYPE
  5
71
330
5
100
AcDbSymbolTableRecord
100
AcDbLinetypeTableRecord
  2
ACAD_ISO06W100
 70
     0
  3
ISO long-dash triple-dot ____ ... ____ ... ____
 72
    65
 73
     8
 40
36.0
 49
24.0
 74
     0
 49
-3.0
 74
     0
 49
0.0
 74
     0
 49
-3.0
 74
     0
 49
0.0
 74
     0
 49
-3.0
 74
     0
 49
0.0
 74
     0
 49
-3.0
 74
     0
  0
LTYPE
  5
72
330
5
100
AcDbSymbolTableRecord
100
AcDbLinetypeTableRecord
  2
ACAD_ISO15W100
 70
     0
  3
ISO double-dash triple-dot __ __ . . . __ __ . .
 72
    65
 73
    10
 40
39.0
 49
12.0
 74
     0
 49
-3.0
 74
     0
 49
12.0
 74
     0
 49
-3.0
 74
     0
 49
0.0
 74
     0
 49
-3.0
 74
     0
 49
0.0
 74
     0
 49
-3.0
 74
     0
 49
0.0
 74
     0
 49
-3.0
 74
     0
  0
ENDTAB
  0
TABLE
  2
LAYER
  5
2
330
0
100
AcDbSymbolTable
 70
     5
  0
LAYER
  5
10
330
2
100
AcDbSymbolTableRecord
100
AcDbLayerTableRecord
  2
0
 70
     0
 62
     7
  6
CONTINUOUS
  0
LAYER
  5
75
330
2
100
AcDbSymbolTableRecord
100
AcDbLayerTableRecord
  2
LAY-10
 70
     0
 62
     7
  6
CONTINUOUS
  0
LAYER
  5
76
330
2
100
AcDbSymbolTableRecord
100
AcDbLayerTableRecord
  2
LAY-20
 70
     0
 62
     7
  6
CONTINUOUS
  0
LAYER
  5
77
330
2
100
AcDbSymbolTableRecord
100
AcDbLayerTableRecord
  2
LAY-255
 70
     0
 62
     7
  6
CONTINUOUS
  0
LAYER
  5
3B9
330
2
100
AcDbSymbolTableRecord
100
AcDbLayerTableRecord
  2
DEFPOINTS
 70
     0
 62
     7
  6
CONTINUOUS
  0
ENDTAB
  0
TABLE
  2
STYLE
  5
3
330
0
100
AcDbSymbolTable
 70
     4
  0
STYLE
  5
11
330
3
100
AcDbSymbolTableRecord
100
AcDbTextStyleTableRecord
  2
STANDARD
 70
     0
 40
0.0
 41
1.0
 50
0.0
 71
     0
 42
2.5
  3
simplex
  4
bigfont
  0
STYLE
  5
73
330
3
100
AcDbSymbolTableRecord
100
AcDbTextStyleTableRecord
  2
EXCADSTD
 70
     0
 40
0.0
 41
1.0
 50
0.0
 71
     0
 42
2.5
  3
simplex
  4
bigfont
  0
STYLE
  5
74
330
3
100
AcDbSymbolTableRecord
100
AcDbTextStyleTableRecord
  2
EXCADVERT
 70
     4
 40
0.0
 41
1.0
 50
0.0
 71
     0
 42
2.5
  3
simplex
  4
bigfont
  0
STYLE
  5
3B7
330
3
100
AcDbSymbolTableRecord
100
AcDbTextStyleTableRecord
  2
EXCADDIM1
 70
     0
 40
0.0
 41
0.84
 50
0.0
 71
     0
 42
2.5
  3
simplex
  4
bigfont
  0
ENDTAB
  0
TABLE
  2
VIEW
  5
6
330
0
100
AcDbSymbolTable
 70
     0
  0
ENDTAB
  0
TABLE
  2
UCS
  5
7
330
0
100
AcDbSymbolTable
 70
     0
  0
ENDTAB
  0
TABLE
  2
APPID
  5
9
330
0
100
AcDbSymbolTable
 70
     2
  0
APPID
  5
12
330
9
100
AcDbSymbolTableRecord
100
AcDbRegAppTableRecord
  2
ACAD
 70
     0
  0
APPID
  5
498
330
9
100
AcDbSymbolTableRecord
100
AcDbRegAppTableRecord
  2
ACAD_MLEADERVER
 70
     0
  0
ENDTAB
  0
TABLE
  2
DIMSTYLE
  5
A
330
0
100
AcDbSymbolTable
 70
     1
  0
DIMSTYLE
105
27
102
{ACAD_REACTORS
330
3B8
330
3C6
330
3D3
330
3E0
330
3EC
330
3F9
330
406
330
413
330
420
330
42D
102
}
330
A
100
AcDbSymbolTableRecord
100
AcDbDimStyleTableRecord
  2
ISO-25
 70
     0
  3

  4

  5

  6

  7

 40
1.0
 41
2.5
 42
0.625
 43
3.75
 44
1.25
 45
0.0
 46
0.0
 47
0.0
 48
0.0
140
2.5
141
2.5
142
0.0
143
0.03937007874016
144
1.0
145
0.0
146
1.0
147
0.625
 71
     0
 72
     0
 73
     0
 74
     0
 75
     0
 76
     0
 77
     1
 78
     8
170
     0
171
     3
172
     1
173
     0
174
     0
175
     0
176
     0
177
     0
178
     0
270
     2
271
     2
272
     2
273
     2
274
     3
340
11
275
     0
280
     0
281
     0
282
     0
283
     0
284
     8
285
     0
286
     0
287
     5
288
     0
  0
ENDTAB
  0
TABLE
  2
BLOCK_RECORD
  5
1
330
0
100
AcDbSymbolTable
 70
    24
  0
BLOCK_RECORD
  5
1F
330
1
100
AcDbSymbolTableRecord
100
AcDbBlockTableRecord
  2
*MODEL_SPACE
  0
BLOCK_RECORD
  5
1B
330
1
100
AcDbSymbolTableRecord
100
AcDbBlockTableRecord
  2
*PAPER_SPACE
  0
BLOCK_RECORD
  5
78
330
1
100
AcDbSymbolTableRecord
100
AcDbBlockTableRecord
  2
EX_NORM
  0
BLOCK_RECORD
  5
7B
330
1
100
AcDbSymbolTableRecord
100
AcDbBlockTableRecord
  2
EX_BNORM
  0
BLOCK_RECORD
  5
7E
330
1
100
AcDbSymbolTableRecord
100
AcDbBlockTableRecord
  2
EX_BCIR
  0
BLOCK_RECORD
  5
81
330
1
100
AcDbSymbolTableRecord
100
AcDbBlockTableRecord
  2
EX_RCIVIL
  0
BLOCK_RECORD
  5
84
330
1
100
AcDbSymbolTableRecord
100
AcDbBlockTableRecord
  2
EX_SLANT
  0
BLOCK_RECORD
  5
87
330
1
100
AcDbSymbolTableRecord
100
AcDbBlockTableRecord
  2
EX_NONE
  0
BLOCK_RECORD
  5
8A
330
1
100
AcDbSymbolTableRecord
100
AcDbBlockTableRecord
  2
EX_CIVIL
  0
BLOCK_RECORD
  5
8D
330
1
100
AcDbSymbolTableRecord
100
AcDbBlockTableRecord
  2
EX_WCIR
  0
BLOCK_RECORD
  5
90
330
1
100
AcDbSymbolTableRecord
100
AcDbBlockTableRecord
  2
EX_WCIR2
  0
BLOCK_RECORD
  5
93
330
1
100
AcDbSymbolTableRecord
100
AcDbBlockTableRecord
  2
EX_WNORM
  0
BLOCK_RECORD
  5
96
330
1
100
AcDbSymbolTableRecord
100
AcDbBlockTableRecord
  2
EX_NNORM
  0
BLOCK_RECORD
  5
99
330
1
100
AcDbSymbolTableRecord
100
AcDbBlockTableRecord
  2
EX_BBOX
  0
BLOCK_RECORD
  5
9C
330
1
100
AcDbSymbolTableRecord
100
AcDbBlockTableRecord
  2
EX_WBOX
  0
BLOCK_RECORD
  5
9F
330
1
100
AcDbSymbolTableRecord
100
AcDbBlockTableRecord
  2
EX_INTEGRAL
  0
BLOCK_RECORD
  5
3BA
330
1
100
AcDbSymbolTableRecord
100
AcDbBlockTableRecord
  2
*D15
  0
BLOCK_RECORD
  5
3C7
330
1
100
AcDbSymbolTableRecord
100
AcDbBlockTableRecord
  2
*D16
  0
BLOCK_RECORD
  5
3D4
330
1
100
AcDbSymbolTableRecord
100
AcDbBlockTableRecord
  2
*D17
  0
BLOCK_RECORD
  5
3E1
330
1
100
AcDbSymbolTableRecord
100
AcDbBlockTableRecord
  2
*D18
  0
BLOCK_RECORD
  5
3ED
330
1
100
AcDbSymbolTableRecord
100
AcDbBlockTableRecord
  2
*D19
  0
BLOCK_RECORD
  5
3FA
330
1
100
AcDbSymbolTableRecord
100
AcDbBlockTableRecord
  2
*D20
  0
BLOCK_RECORD
  5
407
330
1
100
AcDbSymbolTableRecord
100
AcDbBlockTableRecord
  2
*D21
  0
BLOCK_RECORD
  5
414
330
1
100
AcDbSymbolTableRecord
100
AcDbBlockTableRecord
  2
*D22
  0
BLOCK_RECORD
  5
421
330
1
100
AcDbSymbolTableRecord
100
AcDbBlockTableRecord
  2
*D23
  0
BLOCK_RECORD
  5
42E
330
1
100
AcDbSymbolTableRecord
100
AcDbBlockTableRecord
  2
*D24
  0
ENDTAB
  0
ENDSEC
  0
SECTION
  2
BLOCKS
  0
BLOCK
  5
20
330
1F
100
AcDbEntity
  8
0
100
AcDbBlockBegin
  2
*MODEL_SPACE
 70
     0
 10
0.0
 20
0.0
 30
0.0
  3
*MODEL_SPACE
  1

  0
ENDBLK
  5
21
330
1F
100
AcDbEntity
  8
0
100
AcDbBlockEnd
  0
BLOCK
  5
1C
330
1B
100
AcDbEntity
 67
     1
  8
0
100
AcDbBlockBegin
  2
*PAPER_SPACE
 70
     0
 10
0.0
 20
0.0
 30
0.0
  3
*PAPER_SPACE
  1

  0
ENDBLK
  5
1D
330
1B
100
AcDbEntity
 67
     1
  8
0
100
AcDbBlockEnd
  0
BLOCK
  5
79
330
78
100
AcDbEntity
  8
0
100
AcDbBlockBegin
  2
EX_NORM
 70
     0
 10
0.0
 20
0.0
 30
0.0
  3
EX_NORM
  1

  0
LINE
  5
A2
330
78
100
AcDbEntity
  8
0
  6
CONTINUOUS
 62
     0
100
AcDbLine
 10
0.0
 20
0.0
 30
0.0
 11
-1.0
 21
0.0
 31
0.0
  0
LINE
  5
A3
330
78
100
AcDbEntity
  8
0
  6
CONTINUOUS
 62
     0
100
AcDbLine
 10
0.0
 20
0.0
 30
0.0
 11
-1.0
 21
0.166666667
 31
0.0
  0
LINE
  5
A4
330
78
100
AcDbEntity
  8
0
  6
CONTINUOUS
 62
     0
100
AcDbLine
 10
0.0
 20
0.0
 30
0.0
 11
-1.0
 21
-0.166666667
 31
0.0
  0
ENDBLK
  5
7A
330
78
100
AcDbEntity
  8
0
100
AcDbBlockEnd
  0
BLOCK
  5
7C
330
7B
100
AcDbEntity
  8
0
100
AcDbBlockBegin
  2
EX_BNORM
 70
     0
 10
0.0
 20
0.0
 30
0.0
  3
EX_BNORM
  1

  0
LINE
  5
A5
330
7B
100
AcDbEntity
  8
0
  6
CONTINUOUS
 62
     0
100
AcDbLine
 10
0.0
 20
0.0
 30
0.0
 11
-1.0
 21
0.0
 31
0.0
  0
LINE
  5
A6
330
7B
100
AcDbEntity
  8
0
  6
CONTINUOUS
 62
     0
100
AcDbLine
 10
0.0
 20
0.0
 30
0.0
 11
-1.0
 21
0.166666667
 31
0.0
  0
LINE
  5
A7
330
7B
100
AcDbEntity
  8
0
  6
CONTINUOUS
 62
     0
100
AcDbLine
 10
0.0
 20
0.0
 30
0.0
 11
-1.0
 21
-0.166666667
 31
0.0
  0
LINE
  5
A8
330
7B
100
AcDbEntity
  8
0
  6
CONTINUOUS
 62
     0
100
AcDbLine
 10
0.0
 20
0.0
 30
0.0
 11
-1.0
 21
0.083333333
 31
0.0
  0
LINE
  5
A9
330
7B
100
AcDbEntity
  8
0
  6
CONTINUOUS
 62
     0
100
AcDbLine
 10
0.0
 20
0.0
 30
0.0
 11
-1.0
 21
-0.083333333
 31
0.0
  0
LINE
  5
AA
330
7B
100
AcDbEntity
  8
0
  6
CONTINUOUS
 62
     0
100
AcDbLine
 10
-1.0
 20
0.166666667
 30
0.0
 11
-1.0
 21
-0.166666667
 31
0.0
  0
ENDBLK
  5
7D
330
7B
100
AcDbEntity
  8
0
100
AcDbBlockEnd
  0
BLOCK
  5
7F
330
7E
100
AcDbEntity
  8
0
100
AcDbBlockBegin
  2
EX_BCIR
 70
     0
 10
0.0
 20
0.0
 30
0.0
  3
EX_BCIR
  1

  0
LINE
  5
AB
330
7E
100
AcDbEntity
  8
0
  6
CONTINUOUS
 62
     0
100
AcDbLine
 10
0.0
 20
0.0
 30
0.0
 11
-1.0
 21
0.0
 31
0.0
  0
CIRCLE
  5
AC
330
7E
100
AcDbEntity
  8
0
  6
CONTINUOUS
 62
     0
100
AcDbCircle
 10
0.0
 20
0.0
 30
0.0
 40
0.5
  0
CIRCLE
  5
AD
330
7E
100
AcDbEntity
  8
0
  6
CONTINUOUS
 62
     0
100
AcDbCircle
 10
0.0
 20
0.0
 30
0.0
 40
0.25
  0
ENDBLK
  5
80
330
7E
100
AcDbEntity
  8
0
100
AcDbBlockEnd
  0
BLOCK
  5
82
330
81
100
AcDbEntity
  8
0
100
AcDbBlockBegin
  2
EX_RCIVIL
 70
     0
 10
0.0
 20
0.0
 30
0.0
  3
EX_RCIVIL
  1

  0
LINE
  5
AE
330
81
100
AcDbEntity
  8
0
  6
CONTINUOUS
 62
     0
100
AcDbLine
 10
0.0
 20
0.0
 30
0.0
 11
-1.0
 21
0.0
 31
0.0
  0
LINE
  5
AF
330
81
100
AcDbEntity
  8
0
  6
CONTINUOUS
 62
     0
100
AcDbLine
 10
-1.0
 20
-0.25
 30
0.0
 11
0.0
 21
-0.25
 31
0.0
  0
LINE
  5
B0
330
81
100
AcDbEntity
  8
0
  6
CONTINUOUS
 62
     0
100
AcDbLine
 10
-1.0
 20
-0.125
 30
0.0
 11
0.0
 21
-0.125
 31
0.0
  0
ENDBLK
  5
83
330
81
100
AcDbEntity
  8
0
100
AcDbBlockEnd
  0
BLOCK
  5
85
330
84
100
AcDbEntity
  8
0
100
AcDbBlockBegin
  2
EX_SLANT
 70
     0
 10
0.0
 20
0.0
 30
0.0
  3
EX_SLANT
  1

  0
LINE
  5
B1
330
84
100
AcDbEntity
  8
0
  6
CONTINUOUS
 62
     0
100
AcDbLine
 10
0.0
 20
0.0
 30
0.0
 11
-1.0
 21
0.0
 31
0.0
  0
LINE
  5
B2
330
84
100
AcDbEntity
  8
0
  6
CONTINUOUS
 62
     0
100
AcDbLine
 10
0.707106781
 20
0.707106781
 30
0.0
 11
-0.707106781
 21
-0.707106781
 31
0.0
  0
ENDBLK
  5
86
330
84
100
AcDbEntity
  8
0
100
AcDbBlockEnd
  0
BLOCK
  5
88
330
87
100
AcDbEntity
  8
0
100
AcDbBlockBegin
  2
EX_NONE
 70
     0
 10
0.0
 20
0.0
 30
0.0
  3
EX_NONE
  1

  0
LINE
  5
B3
330
87
100
AcDbEntity
  8
0
  6
CONTINUOUS
 62
     0
100
AcDbLine
 10
0.0
 20
0.0
 30
0.0
 11
-1.0
 21
0.0
 31
0.0
  0
ENDBLK
  5
89
330
87
100
AcDbEntity
  8
0
100
AcDbBlockEnd
  0
BLOCK
  5
8B
330
8A
100
AcDbEntity
  8
0
100
AcDbBlockBegin
  2
EX_CIVIL
 70
     0
 10
0.0
 20
0.0
 30
0.0
  3
EX_CIVIL
  1

  0
LINE
  5
B4
330
8A
100
AcDbEntity
  8
0
  6
CONTINUOUS
 62
     0
100
AcDbLine
 10
0.0
 20
0.0
 30
0.0
 11
-1.0
 21
0.0
 31
0.0
  0
LINE
  5
B5
330
8A
100
AcDbEntity
  8
0
  6
CONTINUOUS
 62
     0
100
AcDbLine
 10
-1.0
 20
0.25
 30
0.0
 11
0.0
 21
0.25
 31
0.0
  0
LINE
  5
B6
330
8A
100
AcDbEntity
  8
0
  6
CONTINUOUS
 62
     0
100
AcDbLine
 10
-1.0
 20
0.125
 30
0.0
 11
0.0
 21
0.125
 31
0.0
  0
ENDBLK
  5
8C
330
8A
100
AcDbEntity
  8
0
100
AcDbBlockEnd
  0
BLOCK
  5
8E
330
8D
100
AcDbEntity
  8
0
100
AcDbBlockBegin
  2
EX_WCIR
 70
     0
 10
0.0
 20
0.0
 30
0.0
  3
EX_WCIR
  1

  0
LINE
  5
B7
330
8D
100
AcDbEntity
  8
0
  6
CONTINUOUS
 62
     0
100
AcDbLine
 10
0.0
 20
0.0
 30
0.0
 11
-1.0
 21
0.0
 31
0.0
  0
CIRCLE
  5
B8
330
8D
100
AcDbEntity
  8
0
  6
CONTINUOUS
 62
     0
100
AcDbCircle
 10
0.0
 20
0.0
 30
0.0
 40
0.5
  0
ENDBLK
  5
8F
330
8D
100
AcDbEntity
  8
0
100
AcDbBlockEnd
  0
BLOCK
  5
91
330
90
100
AcDbEntity
  8
0
100
AcDbBlockBegin
  2
EX_WCIR2
 70
     0
 10
0.0
 20
0.0
 30
0.0
  3
EX_WCIR2
  1

  0
LINE
  5
B9
330
90
100
AcDbEntity
  8
0
  6
CONTINUOUS
 62
     0
100
AcDbLine
 10
-0.5
 20
0.0
 30
0.0
 11
-1.0
 21
0.0
 31
0.0
  0
CIRCLE
  5
BA
330
90
100
AcDbEntity
  8
0
  6
CONTINUOUS
 62
     0
100
AcDbCircle
 10
0.0
 20
0.0
 30
0.0
 40
0.5
  0
ENDBLK
  5
92
330
90
100
AcDbEntity
  8
0
100
AcDbBlockEnd
  0
BLOCK
  5
94
330
93
100
AcDbEntity
  8
0
100
AcDbBlockBegin
  2
EX_WNORM
 70
     0
 10
0.0
 20
0.0
 30
0.0
  3
EX_WNORM
  1

  0
LINE
  5
BB
330
93
100
AcDbEntity
  8
0
  6
CONTINUOUS
 62
     0
100
AcDbLine
 10
-1.0
 20
0.0
 30
0.0
 11
-1.0
 21
0.0
 31
0.0
  0
LINE
  5
BC
330
93
100
AcDbEntity
  8
0
  6
CONTINUOUS
 62
     0
100
AcDbLine
 10
0.0
 20
0.0
 30
0.0
 11
-1.0
 21
0.166666667
 31
0.0
  0
LINE
  5
BD
330
93
100
AcDbEntity
  8
0
  6
CONTINUOUS
 62
     0
100
AcDbLine
 10
0.0
 20
0.0
 30
0.0
 11
-1.0
 21
-0.166666667
 31
0.0
  0
LINE
  5
BE
330
93
100
AcDbEntity
  8
0
  6
CONTINUOUS
 62
     0
100
AcDbLine
 10
-1.0
 20
0.166666667
 30
0.0
 11
-1.0
 21
-0.166666667
 31
0.0
  0
ENDBLK
  5
95
330
93
100
AcDbEntity
  8
0
100
AcDbBlockEnd
  0
BLOCK
  5
97
330
96
100
AcDbEntity
  8
0
100
AcDbBlockBegin
  2
EX_NNORM
 70
     0
 10
0.0
 20
0.0
 30
0.0
  3
EX_NNORM
  1

  0
LINE
  5
BF
330
96
100
AcDbEntity
  8
0
  6
CONTINUOUS
 62
     0
100
AcDbLine
 10
0.0
 20
0.0
 30
0.0
 11
-1.0
 21
0.0
 31
0.0
  0
LINE
  5
C0
330
96
100
AcDbEntity
  8
0
  6
CONTINUOUS
 62
     0
100
AcDbLine
 10
0.0
 20
0.0
 30
0.0
 11
-1.0
 21
0.166666667
 31
0.0
  0
LINE
  5
C1
330
96
100
AcDbEntity
  8
0
  6
CONTINUOUS
 62
     0
100
AcDbLine
 10
0.0
 20
0.0
 30
0.0
 11
-1.0
 21
-0.166666667
 31
0.0
  0
LINE
  5
C2
330
96
100
AcDbEntity
  8
0
  6
CONTINUOUS
 62
     0
100
AcDbLine
 10
-1.0
 20
0.166666667
 30
0.0
 11
-1.0
 21
-0.166666667
 31
0.0
  0
ENDBLK
  5
98
330
96
100
AcDbEntity
  8
0
100
AcDbBlockEnd
  0
BLOCK
  5
9A
330
99
100
AcDbEntity
  8
0
100
AcDbBlockBegin
  2
EX_BBOX
 70
     0
 10
0.0
 20
0.0
 30
0.0
  3
EX_BBOX
  1

  0
LINE
  5
C3
330
99
100
AcDbEntity
  8
0
  6
CONTINUOUS
 62
     0
100
AcDbLine
 10
0.0
 20
0.0
 30
0.0
 11
-1.0
 21
0.0
 31
0.0
  0
LINE
  5
C4
330
99
100
AcDbEntity
  8
0
  6
CONTINUOUS
 62
     0
100
AcDbLine
 10
-0.5
 20
0.5
 30
0.0
 11
0.5
 21
0.5
 31
0.0
  0
LINE
  5
C5
330
99
100
AcDbEntity
  8
0
  6
CONTINUOUS
 62
     0
100
AcDbLine
 10
0.5
 20
0.5
 30
0.0
 11
0.5
 21
-0.5
 31
0.0
  0
LINE
  5
C6
330
99
100
AcDbEntity
  8
0
  6
CONTINUOUS
 62
     0
100
AcDbLine
 10
0.5
 20
-0.5
 30
0.0
 11
-0.5
 21
-0.5
 31
0.0
  0
LINE
  5
C7
330
99
100
AcDbEntity
  8
0
  6
CONTINUOUS
 62
     0
100
AcDbLine
 10
-0.5
 20
-0.5
 30
0.0
 11
-0.5
 21
0.5
 31
0.0
  0
LINE
  5
C8
330
99
100
AcDbEntity
  8
0
  6
CONTINUOUS
 62
     0
100
AcDbLine
 10
-0.25
 20
0.25
 30
0.0
 11
0.25
 21
0.25
 31
0.0
  0
LINE
  5
C9
330
99
100
AcDbEntity
  8
0
  6
CONTINUOUS
 62
     0
100
AcDbLine
 10
0.25
 20
0.25
 30
0.0
 11
0.25
 21
-0.25
 31
0.0
  0
LINE
  5
CA
330
99
100
AcDbEntity
  8
0
  6
CONTINUOUS
 62
     0
100
AcDbLine
 10
0.25
 20
-0.25
 30
0.0
 11
-0.25
 21
-0.25
 31
0.0
  0
LINE
  5
CB
330
99
100
AcDbEntity
  8
0
  6
CONTINUOUS
 62
     0
100
AcDbLine
 10
-0.25
 20
-0.25
 30
0.0
 11
-0.25
 21
0.25
 31
0.0
  0
ENDBLK
  5
9B
330
99
100
AcDbEntity
  8
0
100
AcDbBlockEnd
  0
BLOCK
  5
9D
330
9C
100
AcDbEntity
  8
0
100
AcDbBlockBegin
  2
EX_WBOX
 70
     0
 10
0.0
 20
0.0
 30
0.0
  3
EX_WBOX
  1

  0
LINE
  5
CC
330
9C
100
AcDbEntity
  8
0
  6
CONTINUOUS
 62
     0
100
AcDbLine
 10
-0.5
 20
0.0
 30
0.0
 11
-1.0
 21
0.0
 31
0.0
  0
LINE
  5
CD
330
9C
100
AcDbEntity
  8
0
  6
CONTINUOUS
 62
     0
100
AcDbLine
 10
-0.5
 20
0.5
 30
0.0
 11
0.5
 21
0.5
 31
0.0
  0
LINE
  5
CE
330
9C
100
AcDbEntity
  8
0
  6
CONTINUOUS
 62
     0
100
AcDbLine
 10
0.5
 20
0.5
 30
0.0
 11
0.5
 21
-0.5
 31
0.0
  0
LINE
  5
CF
330
9C
100
AcDbEntity
  8
0
  6
CONTINUOUS
 62
     0
100
AcDbLine
 10
0.5
 20
-0.5
 30
0.0
 11
-0.5
 21
-0.5
 31
0.0
  0
LINE
  5
D0
330
9C
100
AcDbEntity
  8
0
  6
CONTINUOUS
 62
     0
100
AcDbLine
 10
-0.5
 20
-0.5
 30
0.0
 11
-0.5
 21
0.5
 31
0.0
  0
ENDBLK
  5
9E
330
9C
100
AcDbEntity
  8
0
100
AcDbBlockEnd
  0
BLOCK
  5
A0
330
9F
100
AcDbEntity
  8
0
100
AcDbBlockBegin
  2
EX_INTEGRAL
 70
     0
 10
0.0
 20
0.0
 30
0.0
  3
EX_INTEGRAL
  1

  0
LINE
  5
D1
330
9F
100
AcDbEntity
  8
0
  6
CONTINUOUS
 62
     0
100
AcDbLine
 10
0.0
 20
0.0
 30
0.0
 11
-1.0
 21
0.0
 31
0.0
  0
ARC
  5
D2
330
9F
100
AcDbEntity
  8
0
  6
CONTINUOUS
 62
     0
100
AcDbCircle
 10
0.542115
 20
0.164992
 30
0.0
 40
0.56667
100
AcDbArc
 50
73.07249033629006
 51
196.9275130221199
  0
ARC
  5
D3
330
9F
100
AcDbEntity
  8
0
  6
CONTINUOUS
 62
     0
100
AcDbCircle
 10
-0.542115
 20
-0.164992
 30
0.0
 40
0.56667
100
AcDbArc
 50
253.0724869220464
 51
16.9275130559125
  0
ENDBLK
  5
A1
330
9F
100
AcDbEntity
  8
0
100
AcDbBlockEnd
  0
BLOCK
  5
3BB
330
3BA
100
AcDbEntity
  8
0
100
AcDbBlockBegin
  2
*D15
 70
     1
 10
0.0
 20
0.0
 30
0.0
  3
*D15
  1

  0
LINE
  5
3BD
330
3BA
100
AcDbEntity
  8
LAY-20
  6
CONTINUOUS
 62
     4
100
AcDbLine
 10
171.5035699700788
 20
210.9239014827927
 30
0.0
 11
171.5035699700788
 21
137.9965262093179
 31
0.0
  0
LINE
  5
3BE
330
3BA
100
AcDbEntity
  8
LAY-20
  6
CONTINUOUS
 62
     4
100
AcDbLine
 10
248.4964300299212
 20
210.9239014827927
 30
0.0
 11
248.4964300299212
 21
137.9965262093179
 31
0.0
  0
LINE
  5
3BF
330
3BA
100
AcDbEntity
  8
LAY-20
  6
CONTINUOUS
 62
     4
100
AcDbLine
 10
176.5035699700788
 20
140.9965262093179
 30
0.0
 11
243.4964300299212
 21
140.9965262093179
 31
0.0
  0
INSERT
  5
3C0
330
3BA
100
AcDbEntity
  8
LAY-20
 62
     4
100
AcDbBlockReference
  2
EX_BNORM
 10
171.5035699700788
 20
140.9965262093179
 30
0.0
 41
5.0
 42
5.0
 43
5.0
 50
180.0
  0
INSERT
  5
3C1
330
3BA
100
AcDbEntity
  8
LAY-20
 62
     4
100
AcDbBlockReference
  2
EX_BNORM
 10
248.4964300299212
 20
140.9965262093179
 30
0.0
 41
5.0
 42
5.0
 43
5.0
  0
MTEXT
  5
3C2
330
3BA
100
AcDbEntity
  8
LAY-20
 62
     7
100
AcDbMText
 10
210.0000000000001
 20
145.9965262093179
 30
0.0
 40
6.2362208
 41
0.0
 71
     5
 72
     1
  1
%%c77
  7
EXCADDIM1
  0
POINT
  5
3C3
330
3BA
100
AcDbEntity
  8
DEFPOINTS
 62
     0
100
AcDbPoint
 10
171.5035699700788
 20
213.9239014827927
 30
0.0
  0
POINT
  5
3C4
330
3BA
100
AcDbEntity
  8
DEFPOINTS
 62
     0
100
AcDbPoint
 10
248.4964300299212
 20
213.9239014827927
 30
0.0
  0
POINT
  5
3C5
330
3BA
100
AcDbEntity
  8
DEFPOINTS
 62
     0
100
AcDbPoint
 10
248.4964300299212
 20
140.9965262093179
 30
0.0
  0
ENDBLK
  5
3BC
330
3BA
100
AcDbEntity
  8
0
100
AcDbBlockEnd
  0
BLOCK
  5
3C8
330
3C7
100
AcDbEntity
  8
0
100
AcDbBlockBegin
  2
*D16
 70
     1
 10
0.0
 20
0.0
 30
0.0
  3
*D16
  1

  0
LINE
  5
3CA
330
3C7
100
AcDbEntity
  8
LAY-20
  6
CONTINUOUS
 62
     4
100
AcDbLine
 10
245.0
 20
180.9544982093189
 30
0.0
 11
245.0
 21
151.9965262093179
 31
0.0
  0
LINE
  5
3CB
330
3C7
100
AcDbEntity
  8
LAY-20
  6
CONTINUOUS
 62
     4
100
AcDbLine
 10
175.0
 20
180.9544982093189
 30
0.0
 11
175.0
 21
151.9965262093179
 31
0.0
  0
LINE
  5
3CC
330
3C7
100
AcDbEntity
  8
LAY-20
  6
CONTINUOUS
 62
     4
100
AcDbLine
 10
240.0
 20
154.9965262093179
 30
0.0
 11
180.0
 21
154.9965262093179
 31
0.0
  0
INSERT
  5
3CD
330
3C7
100
AcDbEntity
  8
LAY-20
 62
     4
100
AcDbBlockReference
  2
EX_BNORM
 10
245.0
 20
154.9965262093179
 30
0.0
 41
5.0
 42
5.0
 43
5.0
  0
INSERT
  5
3CE
330
3C7
100
AcDbEntity
  8
LAY-20
 62
     4
100
AcDbBlockReference
  2
EX_BNORM
 10
175.0
 20
154.9965262093179
 30
0.0
 41
5.0
 42
5.0
 43
5.0
 50
180.0
  0
MTEXT
  5
3CF
330
3C7
100
AcDbEntity
  8
LAY-20
 62
     7
100
AcDbMText
 10
210.0
 20
159.9965262093179
 30
0.0
 40
6.2362208
 41
0.0
 71
     5
 72
     1
  1
%%c70
  7
EXCADDIM1
  0
POINT
  5
3D0
330
3C7
100
AcDbEntity
  8
DEFPOINTS
 62
     0
100
AcDbPoint
 10
245.0
 20
183.9544982093189
 30
0.0
  0
POINT
  5
3D1
330
3C7
100
AcDbEntity
  8
DEFPOINTS
 62
     0
100
AcDbPoint
 10
175.0
 20
183.9544982093189
 30
0.0
  0
POINT
  5
3D2
330
3C7
100
AcDbEntity
  8
DEFPOINTS
 62
     0
100
AcDbPoint
 10
175.0
 20
154.9965262093179
 30
0.0
  0
ENDBLK
  5
3C9
330
3C7
100
AcDbEntity
  8
0
100
AcDbBlockEnd
  0
BLOCK
  5
3D5
330
3D4
100
AcDbEntity
  8
0
100
AcDbBlockBegin
  2
*D17
 70
     1
 10
0.0
 20
0.0
 30
0.0
  3
*D17
  1

  0
LINE
  5
3D7
330
3D4
100
AcDbEntity
  8
LAY-20
  6
CONTINUOUS
 62
     4
100
AcDbLine
 10
268.5
 20
174.99652620932
 30
0.0
 11
311.0
 21
174.99652620932
 31
0.0
  0
LINE
  5
3D8
330
3D4
100
AcDbEntity
  8
LAY-20
  6
CONTINUOUS
 62
     4
100
AcDbLine
 10
283.0
 20
234.99652620932
 30
0.0
 11
311.0
 21
234.99652620932
 31
0.0
  0
LINE
  5
3D9
330
3D4
100
AcDbEntity
  8
LAY-20
  6
CONTINUOUS
 62
     4
100
AcDbLine
 10
308.0
 20
179.99652620932
 30
0.0
 11
308.0
 21
229.99652620932
 31
0.0
  0
INSERT
  5
3DA
330
3D4
100
AcDbEntity
  8
LAY-20
 62
     4
100
AcDbBlockReference
  2
EX_BNORM
 10
308.0
 20
174.99652620932
 30
0.0
 41
5.0
 42
5.0
 43
5.0
 50
270.0
  0
INSERT
  5
3DB
330
3D4
100
AcDbEntity
  8
LAY-20
 62
     4
100
AcDbBlockReference
  2
EX_BNORM
 10
308.0
 20
234.99652620932
 30
0.0
 41
5.0
 42
5.0
 43
5.0
 50
90.0
  0
MTEXT
  5
3DC
330
3D4
100
AcDbEntity
  8
LAY-20
 62
     7
100
AcDbMText
 10
303.0
 20
204.99652620932
 30
0.0
 40
6.2362208
 41
0.0
 71
     5
 72
     1
  1
60
  7
EXCADDIM1
 11
0.0
 21
1.0
 31
0.0
  0
POINT
  5
3DD
330
3D4
100
AcDbEntity
  8
DEFPOINTS
 62
     0
100
AcDbPoint
 10
265.5
 20
174.99652620932
 30
0.0
  0
POINT
  5
3DE
330
3D4
100
AcDbEntity
  8
DEFPOINTS
 62
     0
100
AcDbPoint
 10
280.0
 20
234.99652620932
 30
0.0
  0
POINT
  5
3DF
330
3D4
100
AcDbEntity
  8
DEFPOINTS
 62
     0
100
AcDbPoint
 10
308.0
 20
234.99652620932
 30
0.0
  0
ENDBLK
  5
3D6
330
3D4
100
AcDbEntity
  8
0
100
AcDbBlockEnd
  0
BLOCK
  5
3E2
330
3E1
100
AcDbEntity
  8
0
100
AcDbBlockBegin
  2
*D18
 70
     1
 10
0.0
 20
0.0
 30
0.0
  3
*D18
  1

  0
LINE
  5
3E4
330
3E1
100
AcDbEntity
  8
LAY-20
  6
CONTINUOUS
 62
     4
100
AcDbLine
 10
260.93928730293
 20
260.0
 30
0.0
 11
311.0
 21
260.0
 31
0.0
  0
LINE
  5
3E5
330
3E1
100
AcDbEntity
  8
LAY-20
  6
CONTINUOUS
 62
     4
100
AcDbLine
 10
308.0
 20
255.0
 30
0.0
 11
308.0
 21
239.99652620932
 31
0.0
  0
INSERT
  5
3E6
330
3E1
100
AcDbEntity
  8
LAY-20
 62
     4
100
AcDbBlockReference
  2
EX_BNORM
 10
308.0
 20
260.0
 30
0.0
 41
5.0
 42
5.0
 43
5.0
 50
90.0
  0
INSERT
  5
3E7
330
3E1
100
AcDbEntity
  8
LAY-20
 62
     4
100
AcDbBlockReference
  2
EX_BNORM
 10
308.0
 20
234.99652620932
 30
0.0
 41
5.0
 42
5.0
 43
5.0
 50
270.0
  0
MTEXT
  5
3E8
330
3E1
100
AcDbEntity
  8
LAY-20
 62
     7
100
AcDbMText
 10
303.0
 20
247.49826310466
 30
0.0
 40
6.2362208
 41
0.0
 71
     5
 72
     1
  1
25
  7
EXCADDIM1
 11
0.0
 21
1.0
 31
0.0
  0
POINT
  5
3E9
330
3E1
100
AcDbEntity
  8
DEFPOINTS
 62
     0
100
AcDbPoint
 10
257.93928730293
 20
260.0
 30
0.0
  0
POINT
  5
3EA
330
3E1
100
AcDbEntity
  8
DEFPOINTS
 62
     0
100
AcDbPoint
 10
308.0
 20
234.99652620932
 30
0.0
  0
POINT
  5
3EB
330
3E1
100
AcDbEntity
  8
DEFPOINTS
 62
     0
100
AcDbPoint
 10
308.0
 20
234.99652620932
 30
0.0
  0
ENDBLK
  5
3E3
330
3E1
100
AcDbEntity
  8
0
100
AcDbBlockEnd
  0
BLOCK
  5
3EE
330
3ED
100
AcDbEntity
  8
0
100
AcDbBlockBegin
  2
*D19
 70
     1
 10
0.0
 20
0.0
 30
0.0
  3
*D19
  1

  0
LINE
  5
3F0
330
3ED
100
AcDbEntity
  8
LAY-20
  6
CONTINUOUS
 62
     4
100
AcDbLine
 10
140.0
 20
237.99652620932
 30
0.0
 11
140.0
 21
311.0
 31
0.0
  0
LINE
  5
3F1
330
3ED
100
AcDbEntity
  8
LAY-20
  6
CONTINUOUS
 62
     4
100
AcDbLine
 10
280.0
 20
237.99652620932
 30
0.0
 11
280.0
 21
311.0
 31
0.0
  0
LINE
  5
3F2
330
3ED
100
AcDbEntity
  8
LAY-20
  6
CONTINUOUS
 62
     4
100
AcDbLine
 10
145.0
 20
308.0
 30
0.0
 11
275.0
 21
308.0
 31
0.0
  0
INSERT
  5
3F3
330
3ED
100
AcDbEntity
  8
LAY-20
 62
     4
100
AcDbBlockReference
  2
EX_BNORM
 10
140.0
 20
308.0
 30
0.0
 41
5.0
 42
5.0
 43
5.0
 50
180.0
  0
INSERT
  5
3F4
330
3ED
100
AcDbEntity
  8
LAY-20
 62
     4
100
AcDbBlockReference
  2
EX_BNORM
 10
280.0
 20
308.0
 30
0.0
 41
5.0
 42
5.0
 43
5.0
  0
MTEXT
  5
3F5
330
3ED
100
AcDbEntity
  8
LAY-20
 62
     7
100
AcDbMText
 10
210.0
 20
313.0
 30
0.0
 40
6.2362208
 41
0.0
 71
     5
 72
     1
  1
140
  7
EXCADDIM1
  0
POINT
  5
3F6
330
3ED
100
AcDbEntity
  8
DEFPOINTS
 62
     0
100
AcDbPoint
 10
140.0
 20
234.99652620932
 30
0.0
  0
POINT
  5
3F7
330
3ED
100
AcDbEntity
  8
DEFPOINTS
 62
     0
100
AcDbPoint
 10
280.0
 20
234.99652620932
 30
0.0
  0
POINT
  5
3F8
330
3ED
100
AcDbEntity
  8
DEFPOINTS
 62
     0
100
AcDbPoint
 10
280.0
 20
308.0
 30
0.0
  0
ENDBLK
  5
3EF
330
3ED
100
AcDbEntity
  8
0
100
AcDbBlockEnd
  0
BLOCK
  5
3FB
330
3FA
100
AcDbEntity
  8
0
100
AcDbBlockBegin
  2
*D20
 70
     1
 10
0.0
 20
0.0
 30
0.0
  3
*D20
  1

  0
LINE
  5
3FD
330
3FA
100
AcDbEntity
  8
LAY-20
  6
CONTINUOUS
 62
     4
100
AcDbLine
 10
144.0
 20
237.99652620932
 30
0.0
 11
144.0
 21
297.0
 31
0.0
  0
LINE
  5
3FE
330
3FA
100
AcDbEntity
  8
LAY-20
  6
CONTINUOUS
 62
     4
100
AcDbLine
 10
276.0
 20
237.99652620932
 30
0.0
 11
276.0
 21
297.0
 31
0.0
  0
LINE
  5
3FF
330
3FA
100
AcDbEntity
  8
LAY-20
  6
CONTINUOUS
 62
     4
100
AcDbLine
 10
149.0
 20
294.0
 30
0.0
 11
271.0
 21
294.0
 31
0.0
  0
INSERT
  5
400
330
3FA
100
AcDbEntity
  8
LAY-20
 62
     4
100
AcDbBlockReference
  2
EX_BNORM
 10
144.0
 20
294.0
 30
0.0
 41
5.0
 42
5.0
 43
5.0
 50
180.0
  0
INSERT
  5
401
330
3FA
100
AcDbEntity
  8
LAY-20
 62
     4
100
AcDbBlockReference
  2
EX_BNORM
 10
276.0
 20
294.0
 30
0.0
 41
5.0
 42
5.0
 43
5.0
  0
MTEXT
  5
402
330
3FA
100
AcDbEntity
  8
LAY-20
 62
     7
100
AcDbMText
 10
210.0
 20
299.0
 30
0.0
 40
6.2362208
 41
0.0
 71
     5
 72
     1
  1
132
  7
EXCADDIM1
  0
POINT
  5
403
330
3FA
100
AcDbEntity
  8
DEFPOINTS
 62
     0
100
AcDbPoint
 10
144.0
 20
234.99652620932
 30
0.0
  0
POINT
  5
404
330
3FA
100
AcDbEntity
  8
DEFPOINTS
 62
     0
100
AcDbPoint
 10
276.0
 20
234.99652620932
 30
0.0
  0
POINT
  5
405
330
3FA
100
AcDbEntity
  8
DEFPOINTS
 62
     0
100
AcDbPoint
 10
276.0
 20
294.0
 30
0.0
  0
ENDBLK
  5
3FC
330
3FA
100
AcDbEntity
  8
0
100
AcDbBlockEnd
  0
BLOCK
  5
408
330
407
100
AcDbEntity
  8
0
100
AcDbBlockBegin
  2
*D21
 70
     1
 10
0.0
 20
0.0
 30
0.0
  3
*D21
  1

  0
LINE
  5
40A
330
407
100
AcDbEntity
  8
LAY-20
  6
CONTINUOUS
 62
     4
100
AcDbLine
 10
145.5
 20
237.99328534923
 30
0.0
 11
145.5
 21
283.0
 31
0.0
  0
LINE
  5
40B
330
407
100
AcDbEntity
  8
LAY-20
  6
CONTINUOUS
 62
     4
100
AcDbLine
 10
274.5
 20
237.99328534923
 30
0.0
 11
274.5
 21
283.0
 31
0.0
  0
LINE
  5
40C
330
407
100
AcDbEntity
  8
LAY-20
  6
CONTINUOUS
 62
     4
100
AcDbLine
 10
150.5
 20
280.0
 30
0.0
 11
269.5
 21
280.0
 31
0.0
  0
INSERT
  5
40D
330
407
100
AcDbEntity
  8
LAY-20
 62
     4
100
AcDbBlockReference
  2
EX_BNORM
 10
145.5
 20
280.0
 30
0.0
 41
5.0
 42
5.0
 43
5.0
 50
180.0
  0
INSERT
  5
40E
330
407
100
AcDbEntity
  8
LAY-20
 62
     4
100
AcDbBlockReference
  2
EX_BNORM
 10
274.5
 20
280.0
 30
0.0
 41
5.0
 42
5.0
 43
5.0
  0
MTEXT
  5
40F
330
407
100
AcDbEntity
  8
LAY-20
 62
     7
100
AcDbMText
 10
210.0
 20
285.0
 30
0.0
 40
6.2362208
 41
0.0
 71
     5
 72
     1
  1
129
  7
EXCADDIM1
  0
POINT
  5
410
330
407
100
AcDbEntity
  8
DEFPOINTS
 62
     0
100
AcDbPoint
 10
145.5
 20
234.99328534923
 30
0.0
  0
POINT
  5
411
330
407
100
AcDbEntity
  8
DEFPOINTS
 62
     0
100
AcDbPoint
 10
274.5
 20
234.99328534923
 30
0.0
  0
POINT
  5
412
330
407
100
AcDbEntity
  8
DEFPOINTS
 62
     0
100
AcDbPoint
 10
274.5
 20
280.0
 30
0.0
  0
ENDBLK
  5
409
330
407
100
AcDbEntity
  8
0
100
AcDbBlockEnd
  0
BLOCK
  5
415
330
414
100
AcDbEntity
  8
0
100
AcDbBlockBegin
  2
*D22
 70
     1
 10
0.0
 20
0.0
 30
0.0
  3
*D22
  1

  0
LINE
  5
417
330
414
100
AcDbEntity
  8
LAY-20
  6
CONTINUOUS
 62
     4
100
AcDbLine
 10
405.997713238981
 20
450.0000000000002
 30
0.0
 11
332.9942394483
 21
450.0000000000002
 31
0.0
  0
LINE
  5
418
330
414
100
AcDbEntity
  8
LAY-20
  6
CONTINUOUS
 62
     4
100
AcDbLine
 10
405.997713238981
 20
349.9578620000002
 30
0.0
 11
332.9942394483
 21
349.9578620000002
 31
0.0
  0
LINE
  5
419
330
414
100
AcDbEntity
  8
LAY-20
  6
CONTINUOUS
 62
     4
100
AcDbLine
 10
335.9942394483
 20
445.0000000000002
 30
0.0
 11
335.9942394483
 21
354.9578620000002
 31
0.0
  0
INSERT
  5
41A
330
414
100
AcDbEntity
  8
LAY-20
 62
     4
100
AcDbBlockReference
  2
EX_BNORM
 10
335.9942394483
 20
450.0000000000002
 30
0.0
 41
5.0
 42
5.0
 43
5.0
 50
90.0
  0
INSERT
  5
41B
330
414
100
AcDbEntity
  8
LAY-20
 62
     4
100
AcDbBlockReference
  2
EX_BNORM
 10
335.9942394483
 20
349.9578620000002
 30
0.0
 41
5.0
 42
5.0
 43
5.0
 50
270.0
  0
MTEXT
  5
41C
330
414
100
AcDbEntity
  8
LAY-20
 62
     7
100
AcDbMText
 10
330.9942394483
 20
399.9789310000002
 30
0.0
 40
6.2362208
 41
0.0
 71
     5
 72
     1
  1
100
  7
EXCADDIM1
 11
0.0
 21
1.0
 31
0.0
  0
POINT
  5
41D
330
414
100
AcDbEntity
  8
DEFPOINTS
 62
     0
100
AcDbPoint
 10
408.997713238981
 20
450.0000000000002
 30
0.0
  0
POINT
  5
41E
330
414
100
AcDbEntity
  8
DEFPOINTS
 62
     0
100
AcDbPoint
 10
408.997713238981
 20
349.9578620000002
 30
0.0
  0
POINT
  5
41F
330
414
100
AcDbEntity
  8
DEFPOINTS
 62
     0
100
AcDbPoint
 10
335.9942394483
 20
349.9578620000002
 30
0.0
  0
ENDBLK
  5
416
330
414
100
AcDbEntity
  8
0
100
AcDbBlockEnd
  0
BLOCK
  5
422
330
421
100
AcDbEntity
  8
0
100
AcDbBlockBegin
  2
*D23
 70
     1
 10
0.0
 20
0.0
 30
0.0
  3
*D23
  1

  0
LINE
  5
424
330
421
100
AcDbEntity
  8
LAY-20
  6
CONTINUOUS
 62
     4
100
AcDbLine
 10
405.99771323898
 20
354.0
 30
0.0
 11
346.9942394483
 21
354.0
 31
0.0
  0
LINE
  5
425
330
421
100
AcDbEntity
  8
LAY-20
  6
CONTINUOUS
 62
     4
100
AcDbLine
 10
405.99771323898
 20
446.0
 30
0.0
 11
346.9942394483
 21
446.0
 31
0.0
  0
LINE
  5
426
330
421
100
AcDbEntity
  8
LAY-20
  6
CONTINUOUS
 62
     4
100
AcDbLine
 10
349.9942394483
 20
359.0
 30
0.0
 11
349.9942394483
 21
441.0
 31
0.0
  0
INSERT
  5
427
330
421
100
AcDbEntity
  8
LAY-20
 62
     4
100
AcDbBlockReference
  2
EX_BNORM
 10
349.9942394483
 20
354.0
 30
0.0
 41
5.0
 42
5.0
 43
5.0
 50
270.0
  0
INSERT
  5
428
330
421
100
AcDbEntity
  8
LAY-20
 62
     4
100
AcDbBlockReference
  2
EX_BNORM
 10
349.9942394483
 20
446.0
 30
0.0
 41
5.0
 42
5.0
 43
5.0
 50
90.0
  0
MTEXT
  5
429
330
421
100
AcDbEntity
  8
LAY-20
 62
     7
100
AcDbMText
 10
344.9942394483
 20
400.0
 30
0.0
 40
6.2362208
 41
0.0
 71
     5
 72
     1
  1
92
  7
EXCADDIM1
 11
0.0
 21
1.0
 31
0.0
  0
POINT
  5
42A
330
421
100
AcDbEntity
  8
DEFPOINTS
 62
     0
100
AcDbPoint
 10
408.99771323898
 20
354.0
 30
0.0
  0
POINT
  5
42B
330
421
100
AcDbEntity
  8
DEFPOINTS
 62
     0
100
AcDbPoint
 10
408.99771323898
 20
446.0
 30
0.0
  0
POINT
  5
42C
330
421
100
AcDbEntity
  8
DEFPOINTS
 62
     0
100
AcDbPoint
 10
349.9942394483
 20
446.0
 30
0.0
  0
ENDBLK
  5
423
330
421
100
AcDbEntity
  8
0
100
AcDbBlockEnd
  0
BLOCK
  5
42F
330
42E
100
AcDbEntity
  8
0
100
AcDbBlockBegin
  2
*D24
 70
     1
 10
0.0
 20
0.0
 30
0.0
  3
*D24
  1

  0
LINE
  5
431
330
42E
100
AcDbEntity
  8
LAY-20
  6
CONTINUOUS
 62
     4
100
AcDbLine
 10
405.99771323898
 20
444.5
 30
0.0
 11
360.9942394483
 21
444.5
 31
0.0
  0
LINE
  5
432
330
42E
100
AcDbEntity
  8
LAY-20
  6
CONTINUOUS
 62
     4
100
AcDbLine
 10
405.99771323898
 20
355.5
 30
0.0
 11
360.9942394483
 21
355.5
 31
0.0
  0
LINE
  5
433
330
42E
100
AcDbEntity
  8
LAY-20
  6
CONTINUOUS
 62
     4
100
AcDbLine
 10
363.9942394483
 20
439.5
 30
0.0
 11
363.9942394483
 21
360.5
 31
0.0
  0
INSERT
  5
434
330
42E
100
AcDbEntity
  8
LAY-20
 62
     4
100
AcDbBlockReference
  2
EX_BNORM
 10
363.9942394483
 20
444.5
 30
0.0
 41
5.0
 42
5.0
 43
5.0
 50
90.0
  0
INSERT
  5
435
330
42E
100
AcDbEntity
  8
LAY-20
 62
     4
100
AcDbBlockReference
  2
EX_BNORM
 10
363.9942394483
 20
355.5
 30
0.0
 41
5.0
 42
5.0
 43
5.0
 50
270.0
  0
MTEXT
  5
436
330
42E
100
AcDbEntity
  8
LAY-20
 62
     7
100
AcDbMText
 10
358.9942394483
 20
400.0
 30
0.0
 40
6.2362208
 41
0.0
 71
     5
 72
     1
  1
89
  7
EXCADDIM1
 11
0.0
 21
1.0
 31
0.0
  0
POINT
  5
437
330
42E
100
AcDbEntity
  8
DEFPOINTS
 62
     0
100
AcDbPoint
 10
408.99771323898
 20
444.5
 30
0.0
  0
POINT
  5
438
330
42E
100
AcDbEntity
  8
DEFPOINTS
 62
     0
100
AcDbPoint
 10
408.99771323898
 20
355.5
 30
0.0
  0
POINT
  5
439
330
42E
100
AcDbEntity
  8
DEFPOINTS
 62
     0
100
AcDbPoint
 10
363.9942394483
 20
355.5
 30
0.0
  0
ENDBLK
  5
430
330
42E
100
AcDbEntity
  8
0
100
AcDbBlockEnd
  0
ENDSEC
  0
SECTION
  2
ENTITIES
  0
LINE
  5
D4
330
1F
100
AcDbEntity
  8
LAY-10
  6
CONTINUOUS
 62
     7
100
AcDbLine
 10
138.2049768888152
 20
219.0836819520666
 30
0.0
 11
138.9201364759258
 21
210.9093704665713
 31
0.0
  0
LINE
  5
D5
330
1F
100
AcDbEntity
  8
LAY-10
  6
CONTINUOUS
 62
     7
100
AcDbLine
 10
139.9163311740176
 20
209.9965262093189
 30
0.0
 11
153.0836688259827
 21
209.9965262093189
 31
0.0
  0
LINE
  5
D6
330
1F
100
AcDbEntity
  8
LAY-10
  6
CONTINUOUS
 62
     7
100
AcDbLine
 10
154.0798635240745
 20
210.9093704665713
 30
0.0
 11
154.7950231111851
 21
219.0836819520666
 31
0.0
  0
LINE
  5
D7
330
1F
100
AcDbEntity
  8
LAY-10
  6
CONTINUOUS
 62
     7
100
AcDbLine
 10
137.2087821907235
 20
219.9965262093189
 30
0.0
 11
136.9374433176297
 21
219.9965262093189
 31
0.0
  0
ARC
  5
D8
330
1F
100
AcDbEntity
  8
LAY-10
  6
CONTINUOUS
 62
     7
100
AcDbCircle
 10
137.2087821907235
 20
218.9965262093189
 30
0.0
 40
1.0
100
AcDbArc
 50
5.000000000003124
 51
90.0
  0
ARC
  5
D9
330
1F
100
AcDbEntity
  8
LAY-10
  6
CONTINUOUS
 62
     7
100
AcDbCircle
 10
153.0836688259827
 20
210.9965262093189
 30
0.0
 40
1.0
100
AcDbArc
 50
270.0
 51
355.0000000000019
  0
ARC
  5
DA
330
1F
100
AcDbEntity
  8
LAY-10
  6
CONTINUOUS
 62
     7
100
AcDbCircle
 10
139.9163311740176
 20
210.9965262093189
 30
0.0
 40
1.0
100
AcDbArc
 50
184.9999999999981
 51
270.0
  0
ARC
  5
DB
330
1F
100
AcDbEntity
  8
LAY-10
  6
CONTINUOUS
 62
     7
100
AcDbCircle
 10
155.7912178092768
 20
218.9965262093189
 30
0.0
 40
1.0
100
AcDbArc
 50
90.0
 51
174.9999999999969
  0
LINE
  5
DC
330
1F
100
AcDbEntity
  8
LAY-10
  6
CONTINUOUS
 62
     7
100
AcDbLine
 10
169.8801918421952
 20
214.0659285940964
 30
0.0
 11
163.126179869949
 21
214.6568277775045
 31
0.0
  0
LINE
  5
DD
330
1F
100
AcDbEntity
  8
LAY-10
  6
CONTINUOUS
 62
     7
100
AcDbLine
 10
171.6924067246483
 20
212.305300566396
 30
0.0
 11
175.0
 21
183.9544982093189
 31
0.0
  0
LINE
  5
DE
330
1F
100
AcDbEntity
  8
LAY-10
  6
CONTINUOUS
 62
     7
100
AcDbLine
 10
280.0000000000001
 20
234.996526209319
 30
0.0
 11
276.0
 21
234.996526209319
 31
0.0
  0
LINE
  5
DF
330
1F
100
AcDbEntity
  8
LAY-10
  6
CONTINUOUS
 62
     7
100
AcDbLine
 10
245.0
 20
183.9544982093189
 30
0.0
 11
175.0
 21
183.9544982093189
 31
0.0
  0
LINE
  5
E0
330
1F
100
AcDbEntity
  8
LAY-10
  6
CONTINUOUS
 62
     7
100
AcDbLine
 10
144.0
 20
234.996526209319
 30
0.0
 11
144.7477773868072
 21
226.4493940695188
 31
0.0
  0
LINE
  5
E1
330
1F
100
AcDbEntity
  8
LAY-10
  6
CONTINUOUS
 62
     7
100
AcDbLine
 10
140.0
 20
234.996526209319
 30
0.0
 11
139.20497747768
 21
225.9093705300323
 31
0.0
  0
LINE
  5
E2
330
1F
100
AcDbEntity
  8
LAY-10
  6
CONTINUOUS
 62
     7
100
AcDbLine
 10
179.0
 20
183.9544982093189
 30
0.0
 11
175.2568060725207
 21
216.0390208176481
 31
0.0
  0
LINE
  5
E3
330
1F
100
AcDbEntity
  8
LAY-10
  6
CONTINUOUS
 62
     7
100
AcDbLine
 10
173.4445911900674
 20
217.7996488453484
 30
0.0
 11
167.1684131457284
 21
218.3487429980629
 31
0.0
  0
LINE
  5
E4
330
1F
100
AcDbEntity
  8
LAY-10
  6
CONTINUOUS
 62
     7
100
AcDbLine
 10
138.2087827740362
 20
224.996526209319
 30
0.0
 11
136.5
 21
224.996526209319
 31
0.0
  0
LINE
  5
E5
330
1F
100
AcDbEntity
  8
LAY-10
  6
CONTINUOUS
 62
     7
100
AcDbLine
 10
155.7912178092768
 20
219.996526209319
 30
0.0
 11
159.1673376519652
 21
219.996526209319
 31
0.0
  0
LINE
  5
E6
330
1F
100
AcDbEntity
  8
LAY-10
  6
CONTINUOUS
 62
     7
100
AcDbLine
 10
136.5
 20
224.996526209319
 30
0.0
 11
136.9374433176297
 21
219.9965262093189
 31
0.0
  0
LINE
  5
E7
330
1F
100
AcDbEntity
  8
LAY-10
  6
CONTINUOUS
 62
     7
100
AcDbLine
 10
161.1597270481487
 20
218.1708376948143
 30
0.0
 11
161.3081018721722
 21
216.474905695812
 31
0.0
  0
LINE
  5
E8
330
1F
100
AcDbEntity
  8
LAY-10
  6
CONTINUOUS
 62
     7
100
AcDbLine
 10
165.3503351479516
 20
220.1668209163703
 30
0.0
 11
165.1705695732746
 21
222.2215508371648
 31
0.0
  0
LINE
  5
E9
330
1F
100
AcDbEntity
  8
LAY-10
  6
CONTINUOUS
 62
     7
100
AcDbLine
 10
163.2479791704961
 20
224.0460210057078
 30
0.0
 11
146.670367785155
 21
224.6249239516191
 31
0.0
  0
LINE
  5
EA
330
1F
100
AcDbEntity
  8
LAY-10
  6
CONTINUOUS
 62
     7
100
AcDbLine
 10
145.3537745963309
 20
229.996526209319
 30
0.0
 11
158.1258068259826
 21
229.996526209319
 31
0.0
  0
LINE
  5
EB
330
1F
100
AcDbEntity
  8
LAY-10
  6
CONTINUOUS
 62
     7
100
AcDbLine
 10
175.0953793024886
 20
217.6552236723375
 30
0.0
 11
244.7431939274794
 21
217.6552236723375
 31
0.0
  0
LINE
  5
EC
330
1F
100
AcDbEntity
  8
LAY-10
  6
CONTINUOUS
 62
     7
100
AcDbLine
 10
165.0163517981547
 20
223.9842680728017
 30
0.0
 11
254.8294304267253
 21
223.9842680728017
 31
0.0
  0
LINE
  5
ED
330
1F
100
AcDbEntity
  8
LAY-10
  6
CONTINUOUS
 62
     7
100
AcDbLine
 10
159.1220015240742
 20
229.0836819520667
 30
0.0
 11
159.5066896210886
 21
224.6866768829437
 31
0.0
  0
LINE
  5
EE
330
1F
100
AcDbEntity
  8
LAY-10
  6
CONTINUOUS
 62
     7
100
AcDbLine
 10
149.2000000000001
 20
224.6866768829437
 30
0.0
 11
273.3296322148451
 21
224.6866768829437
 31
0.0
  0
ARC
  5
EF
330
1F
100
AcDbEntity
  8
LAY-10
  6
CONTINUOUS
 62
     7
100
AcDbCircle
 10
138.2087827740362
 20
225.996526209319
 30
0.0
 40
1.0
100
AcDbArc
 50
270.0
 51
355.0000036499312
  0
ARC
  5
F0
330
1F
100
AcDbEntity
  8
LAY-10
  6
CONTINUOUS
 62
     7
100
AcDbCircle
 10
159.1673376519652
 20
217.996526209319
 30
0.0
 40
2.0
100
AcDbArc
 50
5.000000000000602
 51
90.0
  0
ARC
  5
F1
330
1F
100
AcDbEntity
  8
LAY-10
  6
CONTINUOUS
 62
     7
100
AcDbCircle
 10
163.3004912683557
 20
216.6492171813072
 30
0.0
 40
2.0
100
AcDbArc
 50
184.9999999999982
 51
265.0000025044353
  0
ARC
  5
F2
330
1F
100
AcDbEntity
  8
LAY-10
  6
CONTINUOUS
 62
     7
100
AcDbCircle
 10
167.3427245441351
 20
220.3411324018657
 30
0.0
 40
2.0
100
AcDbArc
 50
185.0000000000006
 51
265.0000025044353
  0
ARC
  5
F3
330
1F
100
AcDbEntity
  8
LAY-10
  6
CONTINUOUS
 62
     7
100
AcDbCircle
 10
169.7058804437885
 20
212.0735391902936
 30
0.0
 40
2.0
100
AcDbArc
 50
6.654424382115229
 51
85.00000250443352
  0
ARC
  5
F4
330
1F
100
AcDbEntity
  8
LAY-10
  6
CONTINUOUS
 62
     7
100
AcDbCircle
 10
173.2702797916607
 20
215.8072594415457
 30
0.0
 40
2.0
100
AcDbArc
 50
6.654424382117693
 51
85.00000250443513
  0
ARC
  5
F5
330
1F
100
AcDbEntity
  8
LAY-10
  6
CONTINUOUS
 62
     7
100
AcDbCircle
 10
163.1781801770911
 20
222.0472393516695
 30
0.0
 40
2.0
100
AcDbArc
 50
5.000000000000602
 51
87.9999999999996
  0
ARC
  5
F6
330
1F
100
AcDbEntity
  8
LAY-10
  6
CONTINUOUS
 62
     7
100
AcDbCircle
 10
146.74016677856
 20
226.6237056056573
 30
0.0
 40
2.0
100
AcDbArc
 50
185.0000014563639
 51
267.9999999999996
  0
ARC
  5
F7
330
1F
100
AcDbEntity
  8
LAY-10
  6
CONTINUOUS
 62
     7
100
AcDbCircle
 10
158.1258068259826
 20
228.996526209319
 30
0.0
 40
1.0
100
AcDbArc
 50
4.999999999998082
 51
90.0
  0
ARC
  5
F8
330
1F
100
AcDbEntity
  8
LAY-10
  6
CONTINUOUS
 62
     7
100
AcDbCircle
 10
145.3537745963309
 20
230.996526209319
 30
0.0
 40
1.0
100
AcDbArc
 50
185.0000014563664
 51
270.0
  0
LINE
  5
F9
330
1F
100
AcDbEntity
  8
LAY-10
  6
CONTINUOUS
 62
     7
100
AcDbLine
 10
281.7950231111848
 20
219.0836819520666
 30
0.0
 11
281.0798635240742
 21
210.9093704665713
 31
0.0
  0
LINE
  5
FA
330
1F
100
AcDbEntity
  8
LAY-10
  6
CONTINUOUS
 62
     7
100
AcDbLine
 10
280.0836688259824
 20
209.9965262093189
 30
0.0
 11
266.9163311740173
 21
209.9965262093189
 31
0.0
  0
LINE
  5
FB
330
1F
100
AcDbEntity
  8
LAY-10
  6
CONTINUOUS
 62
     7
100
AcDbLine
 10
265.9201364759256
 20
210.9093704665713
 30
0.0
 11
265.2049768888149
 21
219.0836819520666
 31
0.0
  0
LINE
  5
FC
330
1F
100
AcDbEntity
  8
LAY-10
  6
CONTINUOUS
 62
     7
100
AcDbLine
 10
282.7912178092765
 20
219.9965262093189
 30
0.0
 11
283.0625566823704
 21
219.9965262093189
 31
0.0
  0
ARC
  5
FD
330
1F
100
AcDbEntity
  8
LAY-10
  6
CONTINUOUS
 62
     7
100
AcDbCircle
 10
282.7912178092765
 20
218.9965262093189
 30
0.0
 40
1.0
100
AcDbArc
 50
90.0
 51
174.999999999997
  0
ARC
  5
FE
330
1F
100
AcDbEntity
  8
LAY-10
  6
CONTINUOUS
 62
     7
100
AcDbCircle
 10
266.9163311740173
 20
210.9965262093189
 30
0.0
 40
1.0
100
AcDbArc
 50
184.9999999999981
 51
270.0
  0
ARC
  5
FF
330
1F
100
AcDbEntity
  8
LAY-10
  6
CONTINUOUS
 62
     7
100
AcDbCircle
 10
280.0836688259824
 20
210.9965262093189
 30
0.0
 40
1.0
100
AcDbArc
 50
270.0
 51
355.0000000000019
  0
ARC
  5
100
330
1F
100
AcDbEntity
  8
LAY-10
  6
CONTINUOUS
 62
     7
100
AcDbCircle
 10
264.2087821907232
 20
218.9965262093189
 30
0.0
 40
1.0
100
AcDbArc
 50
5.000000000002952
 51
90.0
  0
LINE
  5
101
330
1F
100
AcDbEntity
  8
LAY-10
  6
CONTINUOUS
 62
     7
100
AcDbLine
 10
250.1198081578049
 20
214.0659285940964
 30
0.0
 11
256.8738201300511
 21
214.6568277775045
 31
0.0
  0
LINE
  5
102
330
1F
100
AcDbEntity
  8
LAY-10
  6
CONTINUOUS
 62
     7
100
AcDbLine
 10
248.3075932753517
 20
212.305300566396
 30
0.0
 11
245.0
 21
183.9544982093189
 31
0.0
  0
LINE
  5
103
330
1F
100
AcDbEntity
  8
LAY-10
  6
CONTINUOUS
 62
     7
100
AcDbLine
 10
276.0
 20
234.996526209319
 30
0.0
 11
275.2522226131928
 21
226.4493940695188
 31
0.0
  0
LINE
  5
104
330
1F
100
AcDbEntity
  8
LAY-10
  6
CONTINUOUS
 62
     7
100
AcDbLine
 10
280.0
 20
234.996526209319
 30
0.0
 11
280.79502252232
 21
225.9093705300323
 31
0.0
  0
LINE
  5
105
330
1F
100
AcDbEntity
  8
LAY-10
  6
CONTINUOUS
 62
     7
100
AcDbLine
 10
241.0
 20
183.9544982093189
 30
0.0
 11
244.7431939274794
 21
216.0390208176481
 31
0.0
  0
LINE
  5
106
330
1F
100
AcDbEntity
  8
LAY-10
  6
CONTINUOUS
 62
     7
100
AcDbLine
 10
246.5554088099326
 20
217.7996488453484
 30
0.0
 11
252.8315868542716
 21
218.3487429980629
 31
0.0
  0
LINE
  5
107
330
1F
100
AcDbEntity
  8
LAY-10
  6
CONTINUOUS
 62
     7
100
AcDbLine
 10
281.7912172259639
 20
224.996526209319
 30
0.0
 11
283.5
 21
224.996526209319
 31
0.0
  0
LINE
  5
108
330
1F
100
AcDbEntity
  8
LAY-10
  6
CONTINUOUS
 62
     7
100
AcDbLine
 10
264.2087821907232
 20
219.996526209319
 30
0.0
 11
260.8326623480349
 21
219.996526209319
 31
0.0
  0
LINE
  5
109
330
1F
100
AcDbEntity
  8
LAY-10
  6
CONTINUOUS
 62
     7
100
AcDbLine
 10
283.5
 20
224.996526209319
 30
0.0
 11
283.0625566823704
 21
219.9965262093189
 31
0.0
  0
LINE
  5
10A
330
1F
100
AcDbEntity
  8
LAY-10
  6
CONTINUOUS
 62
     7
100
AcDbLine
 10
258.8402729518514
 20
218.1708376948143
 30
0.0
 11
258.6918981278278
 21
216.474905695812
 31
0.0
  0
LINE
  5
10B
330
1F
100
AcDbEntity
  8
LAY-10
  6
CONTINUOUS
 62
     7
100
AcDbLine
 10
254.6496648520484
 20
220.1668209163703
 30
0.0
 11
254.8294304267253
 21
222.2215508371648
 31
0.0
  0
LINE
  5
10C
330
1F
100
AcDbEntity
  8
LAY-10
  6
CONTINUOUS
 62
     7
100
AcDbLine
 10
256.7520208295039
 20
224.0460210057078
 30
0.0
 11
273.329632214845
 21
224.6249239516191
 31
0.0
  0
LINE
  5
10D
330
1F
100
AcDbEntity
  8
LAY-10
  6
CONTINUOUS
 62
     7
100
AcDbLine
 10
274.6462254036692
 20
229.996526209319
 30
0.0
 11
261.8741931740175
 21
229.996526209319
 31
0.0
  0
LINE
  5
10E
330
1F
100
AcDbEntity
  8
LAY-10
  6
CONTINUOUS
 62
     7
100
AcDbLine
 10
260.8779984759258
 20
229.0836819520667
 30
0.0
 11
260.4933103789115
 21
224.6866768829437
 31
0.0
  0
ARC
  5
10F
330
1F
100
AcDbEntity
  8
LAY-10
  6
CONTINUOUS
 62
     7
100
AcDbCircle
 10
281.7912172259639
 20
225.996526209319
 30
0.0
 40
1.0
100
AcDbArc
 50
184.9999963500687
 51
270.0
  0
ARC
  5
110
330
1F
100
AcDbEntity
  8
LAY-10
  6
CONTINUOUS
 62
     7
100
AcDbCircle
 10
260.8326623480349
 20
217.996526209319
 30
0.0
 40
2.0
100
AcDbArc
 50
90.0
 51
174.9999999999994
  0
ARC
  5
111
330
1F
100
AcDbEntity
  8
LAY-10
  6
CONTINUOUS
 62
     7
100
AcDbCircle
 10
256.6995087316443
 20
216.6492171813072
 30
0.0
 40
2.0
100
AcDbArc
 50
274.9999974955665
 51
355.0000000000019
  0
ARC
  5
112
330
1F
100
AcDbEntity
  8
LAY-10
  6
CONTINUOUS
 62
     7
100
AcDbCircle
 10
252.6572754558649
 20
220.3411324018657
 30
0.0
 40
2.0
100
AcDbArc
 50
274.9999974955665
 51
354.9999999999994
  0
ARC
  5
113
330
1F
100
AcDbEntity
  8
LAY-10
  6
CONTINUOUS
 62
     7
100
AcDbCircle
 10
250.2941195562116
 20
212.0735391902936
 30
0.0
 40
2.0
100
AcDbArc
 50
94.99999749556646
 51
173.3455756178847
  0
ARC
  5
114
330
1F
100
AcDbEntity
  8
LAY-10
  6
CONTINUOUS
 62
     7
100
AcDbCircle
 10
246.7297202083393
 20
215.8072594415457
 30
0.0
 40
2.0
100
AcDbArc
 50
94.9999974955648
 51
173.3455756178823
  0
ARC
  5
115
330
1F
100
AcDbEntity
  8
LAY-10
  6
CONTINUOUS
 62
     7
100
AcDbCircle
 10
256.8218198229089
 20
222.0472393516695
 30
0.0
 40
2.0
100
AcDbArc
 50
92.00000000000033
 51
174.9999999999993
  0
ARC
  5
116
330
1F
100
AcDbEntity
  8
LAY-10
  6
CONTINUOUS
 62
     7
100
AcDbCircle
 10
273.25983322144
 20
226.6237056056573
 30
0.0
 40
2.0
100
AcDbArc
 50
272.0000000000005
 51
354.9999985436361
  0
ARC
  5
117
330
1F
100
AcDbEntity
  8
LAY-10
  6
CONTINUOUS
 62
     7
100
AcDbCircle
 10
261.8741931740175
 20
228.996526209319
 30
0.0
 40
1.0
100
AcDbArc
 50
90.0
 51
175.0000000000018
  0
ARC
  5
118
330
1F
100
AcDbEntity
  8
LAY-10
  6
CONTINUOUS
 62
     7
100
AcDbCircle
 10
274.6462254036692
 20
230.996526209319
 30
0.0
 40
1.0
100
AcDbArc
 50
270.0
 51
354.9999985436336
  0
LINE
  5
119
330
1F
100
AcDbEntity
  8
LAY-10
  6
CONTINUOUS
 62
     7
100
AcDbLine
 10
145.5
 20
234.9932853492301
 30
0.0
 11
145.9374439999999
 21
229.9932853492301
 31
0.0
  0
LINE
  5
11A
330
1F
100
AcDbEntity
  8
LAY-10
  6
CONTINUOUS
 62
     7
100
AcDbLine
 10
166.9999999999999
 20
259.9942394482965
 30
0.0
 11
166.562557
 21
254.9942394482964
 31
0.0
  0
LINE
  5
11B
330
1F
100
AcDbEntity
  8
LAY-10
  6
CONTINUOUS
 62
     7
100
AcDbLine
 10
177.0
 20
259.9942394482965
 30
0.0
 11
177.4374429999999
 21
254.9942394482964
 31
0.0
  0
LINE
  5
11C
330
1F
100
AcDbEntity
  8
LAY-10
  6
CONTINUOUS
 62
     7
100
AcDbLine
 10
186.0
 20
259.9971802094534
 30
0.0
 11
185.5625559999998
 21
254.9971802094534
 31
0.0
  0
LINE
  5
11D
330
1F
100
AcDbEntity
  8
LAY-10
  6
CONTINUOUS
 62
     7
100
AcDbLine
 10
195.9999999999998
 20
259.9971802094534
 30
0.0
 11
196.4374429999997
 21
254.9971802094534
 31
0.0
  0
LINE
  5
11E
330
1F
100
AcDbEntity
  8
LAY-10
  6
CONTINUOUS
 62
     7
100
AcDbLine
 10
204.9999999999998
 20
260.0000198678611
 30
0.0
 11
204.5625569999999
 21
255.0000198678609
 31
0.0
  0
LINE
  5
11F
330
1F
100
AcDbEntity
  8
LAY-10
  6
CONTINUOUS
 62
     7
100
AcDbLine
 10
160.7066469126446
 20
235.8780984508496
 30
0.0
 11
163.4941529126446
 21
253.3000124508498
 31
0.0
  0
ARC
  5
120
330
1F
100
AcDbEntity
  8
LAY-10
  6
CONTINUOUS
 62
     7
100
AcDbCircle
 10
153.7945619126446
 20
236.9840314508497
 30
0.0
 40
7.0
100
AcDbArc
 50
270.0
 51
350.9097230000011
  0
ARC
  5
121
330
1F
100
AcDbEntity
  8
LAY-10
  6
CONTINUOUS
 62
     7
100
AcDbCircle
 10
153.7945619126446
 20
236.9840314508497
 30
0.0
 40
2.0
100
AcDbArc
 50
270.0
 51
350.9097230000053
  0
ARC
  5
122
330
1F
100
AcDbEntity
  8
LAY-10
  6
CONTINUOUS
 62
     7
100
AcDbCircle
 10
165.4690339126445
 20
252.9840314508498
 30
0.0
 40
2.0
100
AcDbArc
 50
90.0
 51
170.9097230000029
  0
LINE
  5
123
330
1F
100
AcDbEntity
  8
LAY-10
  6
CONTINUOUS
 62
     7
100
AcDbLine
 10
274.0625570000002
 20
229.9997670694585
 30
0.0
 11
145.9374439999999
 21
229.9932853492301
 31
0.0
  0
LINE
  5
124
330
1F
100
AcDbEntity
  8
LAY-10
  6
CONTINUOUS
 62
     7
100
AcDbLine
 10
145.5
 20
234.9932853492301
 30
0.0
 11
153.7945635342383
 21
234.9858373635427
 31
0.0
  0
ARC
  5
125
330
1F
100
AcDbEntity
  8
LAY-10
  6
CONTINUOUS
 62
     7
100
AcDbCircle
 10
207.8099970291538
 20
252.999315259169
 30
0.0
 40
2.0
100
AcDbArc
 50
90.00982805542183
 51
174.2891189362777
  0
ARC
  5
126
330
1F
100
AcDbEntity
  8
LAY-10
  6
CONTINUOUS
 62
     7
100
AcDbCircle
 10
207.1073109752287
 20
252.9991947260385
 30
0.0
 40
2.0
100
AcDbArc
 50
90.0098280554039
 51
174.2891189362777
  0
ARC
  5
127
330
1F
100
AcDbEntity
  8
LAY-10
  6
CONTINUOUS
 62
     7
100
AcDbCircle
 10
188.8099970291537
 20
252.9964756007613
 30
0.0
 40
2.0
100
AcDbArc
 50
90.00982805513844
 51
174.2891189362777
  0
ARC
  5
128
330
1F
100
AcDbEntity
  8
LAY-10
  6
CONTINUOUS
 62
     7
100
AcDbCircle
 10
188.1073109752286
 20
252.9963550676308
 30
0.0
 40
2.0
100
AcDbArc
 50
90.00982805511892
 51
174.2891189362777
  0
ARC
  5
129
330
1F
100
AcDbEntity
  8
LAY-10
  6
CONTINUOUS
 62
     7
100
AcDbCircle
 10
193.1900029708465
 20
252.9964756007613
 30
0.0
 40
2.0
100
AcDbArc
 50
5.71088106372223
 51
89.99017194502112
  0
ARC
  5
12A
330
1F
100
AcDbEntity
  8
LAY-10
  6
CONTINUOUS
 62
     7
100
AcDbCircle
 10
193.8926890247713
 20
252.9963550676308
 30
0.0
 40
2.0
100
AcDbArc
 50
5.71088106372223
 51
89.99017194502599
  0
LINE
  5
12B
330
1F
100
AcDbEntity
  8
LAY-10
  6
CONTINUOUS
 62
     7
100
AcDbLine
 10
166.0000000000005
 20
234.9942394482965
 30
0.0
 11
178.0000000000001
 21
234.9942394482965
 31
0.0
  0
LINE
  5
12C
330
1F
100
AcDbEntity
  8
LAY-10
  6
CONTINUOUS
 62
     7
100
AcDbLine
 10
167.819923648823
 20
253.1925522782863
 30
0.0
 11
165.4999746224214
 21
229.9942394482966
 31
0.0
  0
ARC
  5
12D
330
1F
100
AcDbEntity
  8
LAY-10
  6
CONTINUOUS
 62
     7
100
AcDbCircle
 10
169.8099970291536
 20
252.9935348396045
 30
0.0
 40
2.0
100
AcDbArc
 50
90.00982805513844
 51
174.2891189362777
  0
LINE
  5
12E
330
1F
100
AcDbEntity
  8
LAY-10
  6
CONTINUOUS
 62
     7
100
AcDbLine
 10
167.1172375948982
 20
253.1924317451558
 30
0.0
 11
164.7973006224217
 21
229.9942394482979
 31
0.0
  0
ARC
  5
12F
330
1F
100
AcDbEntity
  8
LAY-10
  6
CONTINUOUS
 62
     7
100
AcDbCircle
 10
169.1073109752288
 20
252.993414306474
 30
0.0
 40
2.0
100
AcDbArc
 50
90.00982805513844
 51
174.2891189362777
  0
LINE
  5
130
330
1F
100
AcDbEntity
  8
LAY-10
  6
CONTINUOUS
 62
     7
100
AcDbLine
 10
176.180076351177
 20
253.1925522782863
 30
0.0
 11
178.5000253775785
 21
229.9942394482966
 31
0.0
  0
ARC
  5
131
330
1F
100
AcDbEntity
  8
LAY-10
  6
CONTINUOUS
 62
     7
100
AcDbCircle
 10
174.1900029708463
 20
252.9935348396045
 30
0.0
 40
2.0
100
AcDbArc
 50
5.71088106372223
 51
89.99017194501619
  0
LINE
  5
132
330
1F
100
AcDbEntity
  8
LAY-10
  6
CONTINUOUS
 62
     7
100
AcDbLine
 10
176.8827624051021
 20
253.1924317451558
 30
0.0
 11
179.2026993775786
 21
229.9942394482979
 31
0.0
  0
ARC
  5
133
330
1F
100
AcDbEntity
  8
LAY-10
  6
CONTINUOUS
 62
     7
100
AcDbCircle
 10
174.8926890247715
 20
252.993414306474
 30
0.0
 40
2.0
100
AcDbArc
 50
5.71088106372223
 51
89.99017194502599
  0
LINE
  5
134
330
1F
100
AcDbEntity
  8
LAY-10
  6
CONTINUOUS
 62
     7
100
AcDbLine
 10
274.5000000000001
 20
234.9932853492301
 30
0.0
 11
274.0625560000002
 21
229.9932853492301
 31
0.0
  0
LINE
  5
135
330
1F
100
AcDbEntity
  8
LAY-10
  6
CONTINUOUS
 62
     7
100
AcDbLine
 10
253.0000000000001
 20
259.9942394482965
 30
0.0
 11
253.4374430000001
 21
254.9942394482964
 31
0.0
  0
LINE
  5
136
330
1F
100
AcDbEntity
  8
LAY-10
  6
CONTINUOUS
 62
     7
100
AcDbLine
 10
243.0
 20
259.9942394482965
 30
0.0
 11
242.5625570000001
 21
254.9942394482964
 31
0.0
  0
LINE
  5
137
330
1F
100
AcDbEntity
  8
LAY-10
  6
CONTINUOUS
 62
     7
100
AcDbLine
 10
234.0
 20
259.9971802094534
 30
0.0
 11
234.4374440000003
 21
254.9971802094534
 31
0.0
  0
LINE
  5
138
330
1F
100
AcDbEntity
  8
LAY-10
  6
CONTINUOUS
 62
     7
100
AcDbLine
 10
224.0000000000003
 20
259.9971802094534
 30
0.0
 11
223.5625570000003
 21
254.9971802094534
 31
0.0
  0
LINE
  5
139
330
1F
100
AcDbEntity
  8
LAY-10
  6
CONTINUOUS
 62
     7
100
AcDbLine
 10
215.0000000000003
 20
260.0000198678611
 30
0.0
 11
215.4374430000002
 21
255.0000198678609
 31
0.0
  0
LINE
  5
13A
330
1F
100
AcDbEntity
  8
LAY-10
  6
CONTINUOUS
 62
     7
100
AcDbLine
 10
259.2908990708041
 20
235.8934360556166
 30
0.0
 11
256.5058470978399
 21
253.3000123853218
 31
0.0
  0
ARC
  5
13B
330
1F
100
AcDbEntity
  8
LAY-10
  6
CONTINUOUS
 62
     7
100
AcDbCircle
 10
266.2054380873554
 20
236.9840314508497
 30
0.0
 40
2.0
100
AcDbArc
 50
189.0902769999945
 51
270.0
  0
ARC
  5
13C
330
1F
100
AcDbEntity
  8
LAY-10
  6
CONTINUOUS
 62
     7
100
AcDbCircle
 10
254.5309660873556
 20
252.9840314508498
 30
0.0
 40
2.0
100
AcDbArc
 50
9.090276999997103
 51
90.0
  0
LINE
  5
13D
330
1F
100
AcDbEntity
  8
LAY-10
  6
CONTINUOUS
 62
     7
100
AcDbLine
 10
274.5000000000001
 20
234.9932853492301
 30
0.0
 11
266.2054364657617
 21
234.9858373635427
 31
0.0
  0
ARC
  5
13E
330
1F
100
AcDbEntity
  8
LAY-10
  6
CONTINUOUS
 62
     7
100
AcDbCircle
 10
212.1900029708462
 20
252.999315259169
 30
0.0
 40
2.0
100
AcDbArc
 50
5.71088106372223
 51
89.990171944728
  0
ARC
  5
13F
330
1F
100
AcDbEntity
  8
LAY-10
  6
CONTINUOUS
 62
     7
100
AcDbCircle
 10
212.8926890247714
 20
252.9991947260385
 30
0.0
 40
2.0
100
AcDbArc
 50
5.71088106372223
 51
89.990171944728
  0
LINE
  5
140
330
1F
100
AcDbEntity
  8
LAY-10
  6
CONTINUOUS
 62
     7
100
AcDbLine
 10
234.9999999999998
 20
234.9971802094535
 30
0.0
 11
223.0000000000001
 21
234.9971802094535
 31
0.0
  0
LINE
  5
141
330
1F
100
AcDbEntity
  8
LAY-10
  6
CONTINUOUS
 62
     7
100
AcDbLine
 10
233.180076351177
 20
253.1954930394431
 30
0.0
 11
235.5000253775785
 21
229.9971802094534
 31
0.0
  0
ARC
  5
142
330
1F
100
AcDbEntity
  8
LAY-10
  6
CONTINUOUS
 62
     7
100
AcDbCircle
 10
231.1900029708463
 20
252.9964756007613
 30
0.0
 40
2.0
100
AcDbArc
 50
5.71088106372223
 51
89.99017194500645
  0
LINE
  5
143
330
1F
100
AcDbEntity
  8
LAY-10
  6
CONTINUOUS
 62
     7
100
AcDbLine
 10
233.8827624051021
 20
253.1953725063127
 30
0.0
 11
236.2026993775786
 21
229.9971802094548
 31
0.0
  0
ARC
  5
144
330
1F
100
AcDbEntity
  8
LAY-10
  6
CONTINUOUS
 62
     7
100
AcDbCircle
 10
231.8926890247715
 20
252.9963550676308
 30
0.0
 40
2.0
100
AcDbArc
 50
5.71088106372223
 51
89.99017194501133
  0
LINE
  5
145
330
1F
100
AcDbEntity
  8
LAY-10
  6
CONTINUOUS
 62
     7
100
AcDbLine
 10
224.819923648823
 20
253.1954930394431
 30
0.0
 11
222.4999746224214
 21
229.9971802094534
 31
0.0
  0
ARC
  5
146
330
1F
100
AcDbEntity
  8
LAY-10
  6
CONTINUOUS
 62
     7
100
AcDbCircle
 10
226.8099970291536
 20
252.9964756007613
 30
0.0
 40
2.0
100
AcDbArc
 50
90.00982805483717
 51
174.2891189362777
  0
LINE
  5
147
330
1F
100
AcDbEntity
  8
LAY-10
  6
CONTINUOUS
 62
     7
100
AcDbLine
 10
224.1172375948982
 20
253.1953725063127
 30
0.0
 11
221.7973006224213
 21
229.9971802094548
 31
0.0
  0
ARC
  5
148
330
1F
100
AcDbEntity
  8
LAY-10
  6
CONTINUOUS
 62
     7
100
AcDbCircle
 10
226.1073109752288
 20
252.9963550676308
 30
0.0
 40
2.0
100
AcDbArc
 50
90.00982805484533
 51
174.2891189362777
  0
LINE
  5
149
330
1F
100
AcDbEntity
  8
LAY-10
  6
CONTINUOUS
 62
     7
100
AcDbLine
 10
253.9999999999996
 20
234.9942394482965
 30
0.0
 11
241.9999999999999
 21
234.9942394482965
 31
0.0
  0
LINE
  5
14A
330
1F
100
AcDbEntity
  8
LAY-10
  6
CONTINUOUS
 62
     7
100
AcDbLine
 10
252.1800763511771
 20
253.1925522782863
 30
0.0
 11
254.5000253775786
 21
229.9942394482966
 31
0.0
  0
ARC
  5
14B
330
1F
100
AcDbEntity
  8
LAY-10
  6
CONTINUOUS
 62
     7
100
AcDbCircle
 10
250.1900029708465
 20
252.9935348396045
 30
0.0
 40
2.0
100
AcDbArc
 50
5.71088106372223
 51
89.99017194501619
  0
LINE
  5
14C
330
1F
100
AcDbEntity
  8
LAY-10
  6
CONTINUOUS
 62
     7
100
AcDbLine
 10
252.8827624051019
 20
253.1924317451558
 30
0.0
 11
255.2026993775784
 21
229.9942394482979
 31
0.0
  0
ARC
  5
14D
330
1F
100
AcDbEntity
  8
LAY-10
  6
CONTINUOUS
 62
     7
100
AcDbCircle
 10
250.8926890247713
 20
252.993414306474
 30
0.0
 40
2.0
100
AcDbArc
 50
5.71088106372223
 51
89.99017194501133
  0
LINE
  5
14E
330
1F
100
AcDbEntity
  8
LAY-10
  6
CONTINUOUS
 62
     7
100
AcDbLine
 10
243.8199236488231
 20
253.1925522782863
 30
0.0
 11
241.4999746224215
 21
229.9942394482966
 31
0.0
  0
ARC
  5
14F
330
1F
100
AcDbEntity
  8
LAY-10
  6
CONTINUOUS
 62
     7
100
AcDbCircle
 10
245.8099970291537
 20
252.9935348396045
 30
0.0
 40
2.0
100
AcDbArc
 50
90.00982805484533
 51
174.2891189362777
  0
LINE
  5
150
330
1F
100
AcDbEntity
  8
LAY-10
  6
CONTINUOUS
 62
     7
100
AcDbLine
 10
243.1172375948979
 20
253.1924317451558
 30
0.0
 11
240.7973006224214
 21
229.9942394482979
 31
0.0
  0
ARC
  5
151
330
1F
100
AcDbEntity
  8
LAY-10
  6
CONTINUOUS
 62
     7
100
AcDbCircle
 10
245.1073109752286
 20
252.993414306474
 30
0.0
 40
2.0
100
AcDbArc
 50
90.00982805484533
 51
174.2891189362777
  0
LINE
  5
152
330
1F
100
AcDbEntity
  8
LAY-10
  6
CONTINUOUS
 62
     7
100
AcDbLine
 10
186.1172375948979
 20
253.1953725063127
 30
0.0
 11
183.7971026545457
 21
229.9952006311728
 31
0.0
  0
LINE
  5
153
330
1F
100
AcDbEntity
  8
LAY-10
  6
CONTINUOUS
 62
     7
100
AcDbLine
 10
186.8199236488231
 20
253.1954930394431
 30
0.0
 11
184.4997802095014
 21
229.9952361789215
 31
0.0
  0
LINE
  5
154
330
1F
100
AcDbEntity
  8
LAY-10
  6
CONTINUOUS
 62
     7
100
AcDbLine
 10
195.1800763511771
 20
253.1954930394431
 30
0.0
 11
197.5001540195811
 21
229.9958938547193
 31
0.0
  0
LINE
  5
155
330
1F
100
AcDbEntity
  8
LAY-10
  6
CONTINUOUS
 62
     7
100
AcDbLine
 10
195.8827624051019
 20
253.1953725063127
 30
0.0
 11
198.2028244646617
 21
229.9959294021083
 31
0.0
  0
LINE
  5
156
330
1F
100
AcDbEntity
  8
LAY-10
  6
CONTINUOUS
 62
     7
100
AcDbLine
 10
205.8199236488232
 20
253.1983326978508
 30
0.0
 11
203.4995923522597
 21
229.996197360253
 31
0.0
  0
LINE
  5
157
330
1F
100
AcDbEntity
  8
LAY-10
  6
CONTINUOUS
 62
     7
100
AcDbLine
 10
205.1172375948981
 20
253.1982121647203
 30
0.0
 11
202.796914797304
 21
229.9961618125042
 31
0.0
  0
LINE
  5
158
330
1F
100
AcDbEntity
  8
LAY-10
  6
CONTINUOUS
 62
     7
100
AcDbLine
 10
214.1800763511768
 20
253.1983326978508
 30
0.0
 11
216.5003418749219
 21
229.9968550550575
 31
0.0
  0
LINE
  5
159
330
1F
100
AcDbEntity
  8
LAY-10
  6
CONTINUOUS
 62
     7
100
AcDbLine
 10
214.882762405102
 20
253.1982121647203
 30
0.0
 11
217.203012320003
 21
229.9968906024466
 31
0.0
  0
LINE
  5
15A
330
1F
100
AcDbEntity
  8
LAY-10
  6
CONTINUOUS
 62
     7
100
AcDbLine
 10
204.0001878553411
 20
234.9981414097918
 30
0.0
 11
216.0001878553408
 21
234.9981414097918
 31
0.0
  0
LINE
  5
15B
330
1F
100
AcDbEntity
  8
LAY-10
  6
CONTINUOUS
 62
     7
100
AcDbLine
 10
158.6997044546712
 20
254.9821821088611
 30
0.0
 11
261.2958108733923
 21
255.0102113054053
 31
0.0
  0
LINE
  5
15C
330
1F
100
AcDbEntity
  8
LAY-10
  6
CONTINUOUS
 62
     7
100
AcDbLine
 10
255.0022491368752
 20
253.1580011747847
 30
0.0
 11
256.2575371655828
 21
236.4740297644677
 31
0.0
  0
ARC
  5
15D
330
1F
100
AcDbEntity
  8
LAY-10
  6
CONTINUOUS
 62
     7
100
AcDbCircle
 10
266.2029835090758
 20
236.9993694705209
 30
0.0
 40
7.0
100
AcDbArc
 50
189.0902761512309
 51
270.0028985356901
  0
ARC
  5
15E
330
1F
100
AcDbEntity
  8
LAY-10
  6
CONTINUOUS
 62
     7
100
AcDbCircle
 10
253.0078861465963
 20
253.0079469745572
 30
0.0
 40
2.0
100
AcDbArc
 50
4.302779413944927
 51
90.01565316796365
  0
ARC
  5
15F
330
1F
100
AcDbEntity
  8
LAY-10
  6
CONTINUOUS
 62
     7
100
AcDbCircle
 10
263.2378076315588
 20
236.9992194652641
 30
0.0
 40
7.0
100
AcDbArc
 50
184.302779413947
 51
270.0028985356882
  0
LINE
  5
160
330
1F
100
AcDbEntity
  8
LAY-10
  6
CONTINUOUS
 62
     7
100
AcDbLine
 10
144.0
 20
234.996526209319
 30
0.0
 11
140.0
 21
234.996526209319
 31
0.0
  0
LINE
  5
161
330
1F
100
AcDbEntity
  8
LAY-10
  6
CONTINUOUS
 62
     7
100
AcDbLine
 10
185.0000000000003
 20
234.9971802094535
 30
0.0
 11
196.9999999999999
 21
234.9971802094535
 31
0.0
  0
ARC
  5
162
330
1F
100
AcDbEntity
  8
LAY-10
  6
CONTINUOUS
 62
     7
100
AcDbCircle
 10
269.7289309999996
 20
234.8731791472069
 30
0.0
 40
3.5
100
AcDbArc
 50
1.870641730600759
 51
51.31781254650083
  0
LINE
  5
163
330
1F
100
AcDbEntity
  8
LAY-10
  6
CONTINUOUS
 62
     7
100
AcDbLine
 10
268.5789309999996
 20
238.958793335907
 30
0.0
 11
268.5789309999996
 21
236.487429847807
 31
0.0
  0
LINE
  5
164
330
1F
100
AcDbEntity
  8
LAY-10
  6
CONTINUOUS
 62
     7
100
AcDbLine
 10
268.5789309999996
 20
236.487429847807
 30
0.0
 11
267.3789309999997
 21
236.487429847807
 31
0.0
  0
LINE
  5
165
330
1F
100
AcDbEntity
  8
LAY-10
  6
CONTINUOUS
 62
     7
100
AcDbLine
 10
267.3789309999997
 20
238.958793335907
 30
0.0
 11
267.3789309999997
 21
236.487429847807
 31
0.0
  0
ARC
  5
166
330
1F
100
AcDbEntity
  8
LAY-10
  6
CONTINUOUS
 62
     7
100
AcDbCircle
 10
267.9789309999998
 20
232.6874298478069
 30
0.0
 40
6.3
100
AcDbArc
 50
51.31781254649997
 51
84.53497620010116
  0
ARC
  5
167
330
1F
100
AcDbEntity
  8
LAY-10
  6
CONTINUOUS
 62
     7
100
AcDbCircle
 10
267.9789309999998
 20
232.6874298478069
 30
0.0
 40
6.3
100
AcDbArc
 50
95.46502379991023
 51
128.6821874534921
  0
LINE
  5
168
330
1F
100
AcDbEntity
  8
LAY-10
  6
CONTINUOUS
 62
     7
100
AcDbLine
 10
154.5
 20
209.3149522909
 30
0.0
 11
156.9999999999977
 21
209.3149522909
 31
0.0
  0
LINE
  5
169
330
1F
100
AcDbEntity
  8
LAY-10
  6
CONTINUOUS
 62
     7
100
AcDbLine
 10
156.5000000000001
 20
217.3149522909
 30
0.0
 11
156.5000000000001
 21
209.3149522909
 31
0.0
  0
LINE
  5
16A
330
1F
100
AcDbEntity
  8
LAY-10
  6
CONTINUOUS
 62
     7
100
AcDbLine
 10
154.4999999999999
 20
215.711552360697
 30
0.0
 11
154.4999999999999
 21
209.3149522909
 31
0.0
  0
LINE
  5
16B
330
1F
100
AcDbEntity
  8
LAY-10
  6
CONTINUOUS
 62
     7
100
AcDbLine
 10
156.5
 20
217.3149522909
 30
0.0
 11
161.2346073182685
 21
217.3149522909
 31
0.0
  0
LINE
  5
16C
330
1F
100
AcDbEntity
  8
LAY-10
  6
CONTINUOUS
 62
     7
100
AcDbLine
 10
160.0000000000002
 20
174.9965262093179
 30
0.0
 11
160.0000000000002
 21
219.8149522908974
 31
0.0
  0
LINE
  5
16D
330
1F
100
AcDbEntity
  8
LAY-10
  6
CONTINUOUS
 62
     7
100
AcDbLine
 10
160.0000000000002
 20
219.8149522908974
 30
0.0
 11
155.2166059846577
 21
219.8149522908974
 31
0.0
  0
LINE
  5
16E
330
1F
100
AcDbEntity
  8
LAY-10
  6
CONTINUOUS
 62
     7
100
AcDbLine
 10
154.5
 20
185.49652620932
 30
0.0
 11
156.9999999999977
 21
185.49652620932
 31
0.0
  0
LINE
  5
16F
330
1F
100
AcDbEntity
  8
LAY-10
  6
CONTINUOUS
 62
     7
100
AcDbLine
 10
154.4999999999999
 20
174.99652620932
 30
0.0
 11
154.4999999999999
 21
185.49652620932
 31
0.0
  0
LINE
  5
170
330
1F
100
AcDbEntity
  8
LAY-10
  6
CONTINUOUS
 62
     7
100
AcDbLine
 10
156.5000000000001
 20
177.49652620932
 30
0.0
 11
156.5000000000001
 21
185.49652620932
 31
0.0
  0
LINE
  5
171
330
1F
100
AcDbEntity
  8
LAY-10
  6
CONTINUOUS
 62
     7
100
AcDbLine
 10
157.0000000000001
 20
177.49652620932
 30
0.0
 11
157.0000000000001
 21
217.3149522909
 31
0.0
  0
LINE
  5
172
330
1F
100
AcDbEntity
  8
LAY-10
  6
CONTINUOUS
 62
     7
100
AcDbLine
 10
265.5000000000001
 20
209.3149522909
 30
0.0
 11
263.0000000000023
 21
209.3149522909
 31
0.0
  0
LINE
  5
173
330
1F
100
AcDbEntity
  8
LAY-10
  6
CONTINUOUS
 62
     7
100
AcDbLine
 10
263.5
 20
217.3149522909
 30
0.0
 11
263.5
 21
209.3149522909
 31
0.0
  0
LINE
  5
174
330
1F
100
AcDbEntity
  8
LAY-10
  6
CONTINUOUS
 62
     7
100
AcDbLine
 10
265.5000000000001
 20
215.7115523606969
 30
0.0
 11
265.5000000000001
 21
209.3149522909
 31
0.0
  0
LINE
  5
175
330
1F
100
AcDbEntity
  8
LAY-10
  6
CONTINUOUS
 62
     7
100
AcDbLine
 10
263.5000000000001
 20
217.3149522909
 30
0.0
 11
258.7653926817316
 21
217.3149522909
 31
0.0
  0
LINE
  5
176
330
1F
100
AcDbEntity
  8
LAY-10
  6
CONTINUOUS
 62
     7
100
AcDbLine
 10
265.5000000000001
 20
185.49652620932
 30
0.0
 11
263.0000000000023
 21
185.49652620932
 31
0.0
  0
LINE
  5
177
330
1F
100
AcDbEntity
  8
LAY-10
  6
CONTINUOUS
 62
     7
100
AcDbLine
 10
265.5000000000001
 20
174.99652620932
 30
0.0
 11
265.5000000000001
 21
185.49652620932
 31
0.0
  0
LINE
  5
178
330
1F
100
AcDbEntity
  8
LAY-10
  6
CONTINUOUS
 62
     7
100
AcDbLine
 10
263.5
 20
177.49652620932
 30
0.0
 11
263.5
 21
185.49652620932
 31
0.0
  0
LINE
  5
179
330
1F
100
AcDbEntity
  8
LAY-10
  6
CONTINUOUS
 62
     7
100
AcDbLine
 10
265.5000000000001
 20
174.9965262093179
 30
0.0
 11
154.4999999999999
 21
174.9965262093179
 31
0.0
  0
LINE
  5
17A
330
1F
100
AcDbEntity
  8
LAY-10
  6
CONTINUOUS
 62
     7
100
AcDbLine
 10
156.5
 20
177.49652620932
 30
0.0
 11
263.5
 21
177.49652620932
 31
0.0
  0
LINE
  5
17B
330
1F
100
AcDbEntity
  8
LAY-10
  6
CONTINUOUS
 62
     7
100
AcDbLine
 10
259.9999999999999
 20
174.9965262093179
 30
0.0
 11
259.9999999999999
 21
217.3149522909
 31
0.0
  0
LINE
  5
17C
330
1F
100
AcDbEntity
  8
LAY-10
  6
CONTINUOUS
 62
     7
100
AcDbLine
 10
262.9999999999999
 20
177.49652620932
 30
0.0
 11
262.9999999999999
 21
217.3149522909
 31
0.0
  0
LINE
  5
17D
330
1F
100
AcDbEntity
  8
LAY-10
  6
CONTINUOUS
 62
     7
100
AcDbLine
 10
260.0000000000072
 20
219.814952290902
 30
0.0
 11
264.7833940153358
 21
219.814952290902
 31
0.0
  0
LINE
  5
17E
330
1F
100
AcDbEntity
  8
LAY-10
  6
CONTINUOUS
 62
     7
100
AcDbLine
 10
156.9999999999994
 20
217.0945059557661
 30
0.0
 11
157.220446335132
 21
217.3149522908987
 31
0.0
  0
LINE
  5
17F
330
1F
100
AcDbEntity
  8
LAY-10
  6
CONTINUOUS
 62
     7
100
AcDbLine
 10
156.9999999999994
 20
214.2660788310199
 30
0.0
 11
159.9999999999999
 21
217.2660788310204
 31
0.0
  0
LINE
  5
180
330
1F
100
AcDbEntity
  8
LAY-10
  6
CONTINUOUS
 62
     7
100
AcDbLine
 10
156.9999999999994
 20
211.4376517062737
 30
0.0
 11
159.9999999999999
 21
214.4376517062742
 31
0.0
  0
LINE
  5
181
330
1F
100
AcDbEntity
  8
LAY-10
  6
CONTINUOUS
 62
     7
100
AcDbLine
 10
156.9999999999994
 20
208.6092245815275
 30
0.0
 11
159.9999999999999
 21
211.609224581528
 31
0.0
  0
LINE
  5
182
330
1F
100
AcDbEntity
  8
LAY-10
  6
CONTINUOUS
 62
     7
100
AcDbLine
 10
156.9999999999994
 20
205.7807974567813
 30
0.0
 11
159.9999999999999
 21
208.7807974567818
 31
0.0
  0
LINE
  5
183
330
1F
100
AcDbEntity
  8
LAY-10
  6
CONTINUOUS
 62
     7
100
AcDbLine
 10
156.9999999999994
 20
202.9523703320351
 30
0.0
 11
159.9999999999999
 21
205.9523703320356
 31
0.0
  0
LINE
  5
184
330
1F
100
AcDbEntity
  8
LAY-10
  6
CONTINUOUS
 62
     7
100
AcDbLine
 10
156.9999999999994
 20
200.1239432072889
 30
0.0
 11
159.9999999999999
 21
203.1239432072894
 31
0.0
  0
LINE
  5
185
330
1F
100
AcDbEntity
  8
LAY-10
  6
CONTINUOUS
 62
     7
100
AcDbLine
 10
156.9999999999994
 20
197.2955160825427
 30
0.0
 11
159.9999999999999
 21
200.2955160825433
 31
0.0
  0
LINE
  5
186
330
1F
100
AcDbEntity
  8
LAY-10
  6
CONTINUOUS
 62
     7
100
AcDbLine
 10
156.9999999999994
 20
194.4670889577966
 30
0.0
 11
159.9999999999999
 21
197.4670889577971
 31
0.0
  0
LINE
  5
187
330
1F
100
AcDbEntity
  8
LAY-10
  6
CONTINUOUS
 62
     7
100
AcDbLine
 10
156.9999999999994
 20
191.6386618330504
 30
0.0
 11
159.9999999999999
 21
194.6386618330509
 31
0.0
  0
LINE
  5
188
330
1F
100
AcDbEntity
  8
LAY-10
  6
CONTINUOUS
 62
     7
100
AcDbLine
 10
156.9999999999994
 20
188.8102347083042
 30
0.0
 11
159.9999999999999
 21
191.8102347083047
 31
0.0
  0
LINE
  5
189
330
1F
100
AcDbEntity
  8
LAY-10
  6
CONTINUOUS
 62
     7
100
AcDbLine
 10
156.9999999999994
 20
185.981807583558
 30
0.0
 11
159.9999999999999
 21
188.9818075835585
 31
0.0
  0
LINE
  5
18A
330
1F
100
AcDbEntity
  8
LAY-10
  6
CONTINUOUS
 62
     7
100
AcDbLine
 10
156.9999999999994
 20
183.1533804588118
 30
0.0
 11
159.9999999999999
 21
186.1533804588123
 31
0.0
  0
LINE
  5
18B
330
1F
100
AcDbEntity
  8
LAY-10
  6
CONTINUOUS
 62
     7
100
AcDbLine
 10
156.9999999999994
 20
180.3249533340656
 30
0.0
 11
159.9999999999999
 21
183.3249533340661
 31
0.0
  0
LINE
  5
18C
330
1F
100
AcDbEntity
  8
LAY-10
  6
CONTINUOUS
 62
     7
100
AcDbLine
 10
156.9999999999994
 20
177.4965262093194
 30
0.0
 11
159.9999999999999
 21
180.4965262093199
 31
0.0
  0
LINE
  5
18D
330
1F
100
AcDbEntity
  8
LAY-10
  6
CONTINUOUS
 62
     7
100
AcDbLine
 10
159.8284271247482
 20
177.496526209322
 30
0.0
 11
159.9999999999999
 21
177.6680990845737
 31
0.0
  0
LINE
  5
18E
330
1F
100
AcDbEntity
  8
LAY-10
  6
CONTINUOUS
 62
     7
100
AcDbLine
 10
259.9999999999991
 20
217.0945059557658
 30
0.0
 11
260.2204463351317
 21
217.3149522908984
 31
0.0
  0
LINE
  5
18F
330
1F
100
AcDbEntity
  8
LAY-10
  6
CONTINUOUS
 62
     7
100
AcDbLine
 10
259.9999999999991
 20
214.2660788310196
 30
0.0
 11
262.9999999999996
 21
217.2660788310201
 31
0.0
  0
LINE
  5
190
330
1F
100
AcDbEntity
  8
LAY-10
  6
CONTINUOUS
 62
     7
100
AcDbLine
 10
259.9999999999991
 20
211.4376517062734
 30
0.0
 11
262.9999999999996
 21
214.4376517062739
 31
0.0
  0
LINE
  5
191
330
1F
100
AcDbEntity
  8
LAY-10
  6
CONTINUOUS
 62
     7
100
AcDbLine
 10
259.9999999999991
 20
208.6092245815272
 30
0.0
 11
262.9999999999996
 21
211.6092245815277
 31
0.0
  0
LINE
  5
192
330
1F
100
AcDbEntity
  8
LAY-10
  6
CONTINUOUS
 62
     7
100
AcDbLine
 10
259.9999999999991
 20
205.780797456781
 30
0.0
 11
262.9999999999996
 21
208.7807974567815
 31
0.0
  0
LINE
  5
193
330
1F
100
AcDbEntity
  8
LAY-10
  6
CONTINUOUS
 62
     7
100
AcDbLine
 10
259.9999999999991
 20
202.9523703320348
 30
0.0
 11
262.9999999999996
 21
205.9523703320353
 31
0.0
  0
LINE
  5
194
330
1F
100
AcDbEntity
  8
LAY-10
  6
CONTINUOUS
 62
     7
100
AcDbLine
 10
259.9999999999991
 20
200.1239432072886
 30
0.0
 11
262.9999999999996
 21
203.1239432072891
 31
0.0
  0
LINE
  5
195
330
1F
100
AcDbEntity
  8
LAY-10
  6
CONTINUOUS
 62
     7
100
AcDbLine
 10
259.9999999999991
 20
197.2955160825424
 30
0.0
 11
262.9999999999996
 21
200.2955160825429
 31
0.0
  0
LINE
  5
196
330
1F
100
AcDbEntity
  8
LAY-10
  6
CONTINUOUS
 62
     7
100
AcDbLine
 10
259.9999999999991
 20
194.4670889577962
 30
0.0
 11
262.9999999999996
 21
197.4670889577968
 31
0.0
  0
LINE
  5
197
330
1F
100
AcDbEntity
  8
LAY-10
  6
CONTINUOUS
 62
     7
100
AcDbLine
 10
259.9999999999991
 20
191.63866183305
 30
0.0
 11
262.9999999999996
 21
194.6386618330505
 31
0.0
  0
LINE
  5
198
330
1F
100
AcDbEntity
  8
LAY-10
  6
CONTINUOUS
 62
     7
100
AcDbLine
 10
259.9999999999991
 20
188.8102347083039
 30
0.0
 11
262.9999999999996
 21
191.8102347083044
 31
0.0
  0
LINE
  5
199
330
1F
100
AcDbEntity
  8
LAY-10
  6
CONTINUOUS
 62
     7
100
AcDbLine
 10
259.9999999999991
 20
185.9818075835577
 30
0.0
 11
262.9999999999996
 21
188.9818075835582
 31
0.0
  0
LINE
  5
19A
330
1F
100
AcDbEntity
  8
LAY-10
  6
CONTINUOUS
 62
     7
100
AcDbLine
 10
259.9999999999991
 20
183.1533804588115
 30
0.0
 11
262.9999999999996
 21
186.153380458812
 31
0.0
  0
LINE
  5
19B
330
1F
100
AcDbEntity
  8
LAY-10
  6
CONTINUOUS
 62
     7
100
AcDbLine
 10
259.9999999999991
 20
180.3249533340653
 30
0.0
 11
262.9999999999996
 21
183.3249533340658
 31
0.0
  0
LINE
  5
19C
330
1F
100
AcDbEntity
  8
LAY-10
  6
CONTINUOUS
 62
     7
100
AcDbLine
 10
259.9999999999991
 20
177.4965262093191
 30
0.0
 11
262.9999999999996
 21
180.4965262093196
 31
0.0
  0
LINE
  5
19D
330
1F
100
AcDbEntity
  8
LAY-10
  6
CONTINUOUS
 62
     7
100
AcDbLine
 10
262.8284271247479
 20
177.4965262093217
 30
0.0
 11
262.9999999999996
 21
177.6680990845734
 31
0.0
  0
LINE
  5
19E
330
1F
100
AcDbEntity
  8
LAY-10
  6
CONTINUOUS
 62
     7
100
AcDbLine
 10
263.8284271247443
 20
219.8149522909019
 30
0.0
 11
265.266844212824
 21
218.3765352028223
 31
0.0
  0
LINE
  5
19F
330
1F
100
AcDbEntity
  8
LAY-10
  6
CONTINUOUS
 62
     7
100
AcDbLine
 10
262.4142135623712
 20
219.8149522909019
 30
0.0
 11
265.4024344784634
 21
216.8267313748096
 31
0.0
  0
LINE
  5
1A0
330
1F
100
AcDbEntity
  8
LAY-10
  6
CONTINUOUS
 62
     7
100
AcDbLine
 10
260.9999999999981
 20
219.8149522909019
 30
0.0
 11
263.4999999999998
 21
217.3149522909002
 31
0.0
  0
LINE
  5
1A1
330
1F
100
AcDbEntity
  8
LAY-10
  6
CONTINUOUS
 62
     7
100
AcDbLine
 10
263.4999999999998
 20
217.3149522909002
 30
0.0
 11
265.5000000000002
 21
215.3149522908998
 31
0.0
  0
LINE
  5
1A2
330
1F
100
AcDbEntity
  8
LAY-10
  6
CONTINUOUS
 62
     7
100
AcDbLine
 10
263.4999999999998
 20
215.900738728527
 30
0.0
 11
265.5000000000002
 21
213.9007387285267
 31
0.0
  0
LINE
  5
1A3
330
1F
100
AcDbEntity
  8
LAY-10
  6
CONTINUOUS
 62
     7
100
AcDbLine
 10
263.4999999999998
 20
214.486525166154
 30
0.0
 11
265.5000000000002
 21
212.4865251661536
 31
0.0
  0
LINE
  5
1A4
330
1F
100
AcDbEntity
  8
LAY-10
  6
CONTINUOUS
 62
     7
100
AcDbLine
 10
263.4999999999998
 20
213.0723116037809
 30
0.0
 11
265.5000000000002
 21
211.0723116037805
 31
0.0
  0
LINE
  5
1A5
330
1F
100
AcDbEntity
  8
LAY-10
  6
CONTINUOUS
 62
     7
100
AcDbLine
 10
263.4999999999998
 20
211.6580980414078
 30
0.0
 11
265.5000000000002
 21
209.6580980414074
 31
0.0
  0
LINE
  5
1A6
330
1F
100
AcDbEntity
  8
LAY-10
  6
CONTINUOUS
 62
     7
100
AcDbLine
 10
263.4999999999998
 20
210.2438844790347
 30
0.0
 11
264.4289321881357
 21
209.3149522908988
 31
0.0
  0
LINE
  5
1A7
330
1F
100
AcDbEntity
  8
LAY-10
  6
CONTINUOUS
 62
     7
100
AcDbLine
 10
259.9999999999999
 20
217.9865251661539
 30
0.0
 11
260.6715728752537
 21
217.3149522909002
 31
0.0
  0
LINE
  5
1A8
330
1F
100
AcDbEntity
  8
LAY-10
  6
CONTINUOUS
 62
     7
100
AcDbLine
 10
259.9999999999999
 20
219.400738728527
 30
0.0
 11
262.0857864376267
 21
217.3149522909002
 31
0.0
  0
LINE
  5
1A9
330
1F
100
AcDbEntity
  8
LAY-10
  6
CONTINUOUS
 62
     7
100
AcDbLine
 10
265.3994949366098
 20
185.4965262093219
 30
0.0
 11
265.4999999999998
 21
185.3960211459319
 31
0.0
  0
LINE
  5
1AA
330
1F
100
AcDbEntity
  8
LAY-10
  6
CONTINUOUS
 62
     7
100
AcDbLine
 10
263.9852813742367
 20
185.4965262093219
 30
0.0
 11
265.4999999999998
 21
183.9818075835587
 31
0.0
  0
LINE
  5
1AB
330
1F
100
AcDbEntity
  8
LAY-10
  6
CONTINUOUS
 62
     7
100
AcDbLine
 10
263.4999999999995
 20
184.567594021186
 30
0.0
 11
265.4999999999998
 21
182.5675940211857
 31
0.0
  0
LINE
  5
1AC
330
1F
100
AcDbEntity
  8
LAY-10
  6
CONTINUOUS
 62
     7
100
AcDbLine
 10
263.4999999999995
 20
183.1533804588129
 30
0.0
 11
265.4999999999998
 21
181.1533804588126
 31
0.0
  0
LINE
  5
1AD
330
1F
100
AcDbEntity
  8
LAY-10
  6
CONTINUOUS
 62
     7
100
AcDbLine
 10
263.4999999999995
 20
181.7391668964398
 30
0.0
 11
265.4999999999998
 21
179.7391668964395
 31
0.0
  0
LINE
  5
1AE
330
1F
100
AcDbEntity
  8
LAY-10
  6
CONTINUOUS
 62
     7
100
AcDbLine
 10
263.4999999999995
 20
180.3249533340667
 30
0.0
 11
265.4999999999998
 21
178.3249533340664
 31
0.0
  0
LINE
  5
1AF
330
1F
100
AcDbEntity
  8
LAY-10
  6
CONTINUOUS
 62
     7
100
AcDbLine
 10
263.4999999999995
 20
178.9107397716936
 30
0.0
 11
265.4999999999998
 21
176.9107397716933
 31
0.0
  0
LINE
  5
1B0
330
1F
100
AcDbEntity
  8
LAY-10
  6
CONTINUOUS
 62
     7
100
AcDbLine
 10
263.4999999999995
 20
177.4965262093205
 30
0.0
 11
265.4999999999998
 21
175.4965262093202
 31
0.0
  0
LINE
  5
1B1
330
1F
100
AcDbEntity
  8
LAY-10
  6
CONTINUOUS
 62
     7
100
AcDbLine
 10
262.0857864376264
 20
177.4965262093205
 30
0.0
 11
264.5857864376306
 21
174.9965262093162
 31
0.0
  0
LINE
  5
1B2
330
1F
100
AcDbEntity
  8
LAY-10
  6
CONTINUOUS
 62
     7
100
AcDbLine
 10
260.6715728752559
 20
177.4965262093179
 30
0.0
 11
263.171572875255
 21
174.9965262093188
 31
0.0
  0
LINE
  5
1B3
330
1F
100
AcDbEntity
  8
LAY-10
  6
CONTINUOUS
 62
     7
100
AcDbLine
 10
260.0000000000002
 20
176.7538855222005
 30
0.0
 11
261.7573593128819
 21
174.9965262093188
 31
0.0
  0
LINE
  5
1B4
330
1F
100
AcDbEntity
  8
LAY-10
  6
CONTINUOUS
 62
     7
100
AcDbLine
 10
260.0000000000002
 20
175.3396719598274
 30
0.0
 11
260.3431457505088
 21
174.9965262093188
 31
0.0
  0
LINE
  5
1B5
330
1F
100
AcDbEntity
  8
LAY-10
  6
CONTINUOUS
 62
     7
100
AcDbLine
 10
155.5710678118661
 20
185.4965262093193
 30
0.0
 11
156.4999999999994
 21
184.567594021186
 31
0.0
  0
LINE
  5
1B6
330
1F
100
AcDbEntity
  8
LAY-10
  6
CONTINUOUS
 62
     7
100
AcDbLine
 10
154.5000000000016
 20
185.1533804588107
 30
0.0
 11
156.4999999999994
 21
183.1533804588129
 31
0.0
  0
LINE
  5
1B7
330
1F
100
AcDbEntity
  8
LAY-10
  6
CONTINUOUS
 62
     7
100
AcDbLine
 10
154.5000000000016
 20
183.7391668964376
 30
0.0
 11
156.4999999999994
 21
181.7391668964398
 31
0.0
  0
LINE
  5
1B8
330
1F
100
AcDbEntity
  8
LAY-10
  6
CONTINUOUS
 62
     7
100
AcDbLine
 10
154.5000000000016
 20
182.3249533340645
 30
0.0
 11
156.4999999999994
 21
180.3249533340667
 31
0.0
  0
LINE
  5
1B9
330
1F
100
AcDbEntity
  8
LAY-10
  6
CONTINUOUS
 62
     7
100
AcDbLine
 10
159.3284271247456
 20
177.4965262093206
 30
0.0
 11
160.0000000000013
 21
176.8249533340649
 31
0.0
  0
LINE
  5
1BA
330
1F
100
AcDbEntity
  8
LAY-10
  6
CONTINUOUS
 62
     7
100
AcDbLine
 10
154.5000000000017
 20
180.9107397716914
 30
0.0
 11
156.4999999999994
 21
178.9107397716936
 31
0.0
  0
LINE
  5
1BB
330
1F
100
AcDbEntity
  8
LAY-10
  6
CONTINUOUS
 62
     7
100
AcDbLine
 10
157.9142135623725
 20
177.4965262093206
 30
0.0
 11
159.9999999999987
 21
175.4107397716944
 31
0.0
  0
LINE
  5
1BC
330
1F
100
AcDbEntity
  8
LAY-10
  6
CONTINUOUS
 62
     7
100
AcDbLine
 10
154.5000000000016
 20
179.4965262093183
 30
0.0
 11
159.0000000000011
 21
174.9965262093188
 31
0.0
  0
LINE
  5
1BD
330
1F
100
AcDbEntity
  8
LAY-10
  6
CONTINUOUS
 62
     7
100
AcDbLine
 10
154.5000000000016
 20
178.0823126469452
 30
0.0
 11
157.585786437628
 21
174.9965262093188
 31
0.0
  0
LINE
  5
1BE
330
1F
100
AcDbEntity
  8
LAY-10
  6
CONTINUOUS
 62
     7
100
AcDbLine
 10
154.5000000000016
 20
176.6680990845721
 30
0.0
 11
156.1715728752549
 21
174.9965262093188
 31
0.0
  0
LINE
  5
1BF
330
1F
100
AcDbEntity
  8
LAY-10
  6
CONTINUOUS
 62
     7
100
AcDbLine
 10
154.4999999999991
 20
175.2538855222016
 30
0.0
 11
154.7573593128818
 21
174.9965262093189
 31
0.0
  0
LINE
  5
1C0
330
1F
100
AcDbEntity
  8
LAY-10
  6
CONTINUOUS
 62
     7
100
AcDbLine
 10
159.6568542494956
 20
219.8149522908968
 30
0.0
 11
159.9999999999991
 21
219.4718065403933
 31
0.0
  0
LINE
  5
1C1
330
1F
100
AcDbEntity
  8
LAY-10
  6
CONTINUOUS
 62
     7
100
AcDbLine
 10
158.2426406871225
 20
219.8149522908967
 30
0.0
 11
160.0000000000017
 21
218.0575929780176
 31
0.0
  0
LINE
  5
1C2
330
1F
100
AcDbEntity
  8
LAY-10
  6
CONTINUOUS
 62
     7
100
AcDbLine
 10
156.8284271247494
 20
219.8149522908967
 30
0.0
 11
159.328427124746
 21
217.3149522909002
 31
0.0
  0
LINE
  5
1C3
330
1F
100
AcDbEntity
  8
LAY-10
  6
CONTINUOUS
 62
     7
100
AcDbLine
 10
155.4142135623763
 20
219.8149522908967
 30
0.0
 11
157.9142135623729
 21
217.3149522909002
 31
0.0
  0
LINE
  5
1C4
330
1F
100
AcDbEntity
  8
LAY-10
  6
CONTINUOUS
 62
     7
100
AcDbLine
 10
154.7898941888928
 20
219.0250581020071
 30
0.0
 11
156.4999999999998
 21
217.3149522909002
 31
0.0
  0
LINE
  5
1C5
330
1F
100
AcDbEntity
  8
LAY-10
  6
CONTINUOUS
 62
     7
100
AcDbLine
 10
154.6761204470016
 20
217.7246182815253
 30
0.0
 11
156.4999999999998
 21
215.9007387285271
 31
0.0
  0
LINE
  5
1C6
330
1F
100
AcDbEntity
  8
LAY-10
  6
CONTINUOUS
 62
     7
100
AcDbLine
 10
154.562346705113
 20
216.4241784610408
 30
0.0
 11
156.4999999999998
 21
214.486525166154
 31
0.0
  0
LINE
  5
1C7
330
1F
100
AcDbEntity
  8
LAY-10
  6
CONTINUOUS
 62
     7
100
AcDbLine
 10
154.4999999999994
 20
215.0723116037812
 30
0.0
 11
156.4999999999998
 21
213.0723116037809
 31
0.0
  0
LINE
  5
1C8
330
1F
100
AcDbEntity
  8
LAY-10
  6
CONTINUOUS
 62
     7
100
AcDbLine
 10
154.4999999999994
 20
213.6580980414081
 30
0.0
 11
156.4999999999998
 21
211.6580980414078
 31
0.0
  0
LINE
  5
1C9
330
1F
100
AcDbEntity
  8
LAY-10
  6
CONTINUOUS
 62
     7
100
AcDbLine
 10
154.4999999999995
 20
212.243884479035
 30
0.0
 11
156.4999999999998
 21
210.2438844790347
 31
0.0
  0
LINE
  5
1CA
330
1F
100
AcDbEntity
  8
LAY-10
  6
CONTINUOUS
 62
     7
100
AcDbLine
 10
154.4999999999995
 20
210.829670916662
 30
0.0
 11
156.0147186257626
 21
209.3149522908988
 31
0.0
  0
LINE
  5
1CB
330
1F
100
AcDbEntity
  8
LAY-10
  6
CONTINUOUS
 62
     7
100
AcDbLine
 10
154.4999999999995
 20
209.4154573542889
 30
0.0
 11
154.6005050633895
 21
209.3149522908988
 31
0.0
  0
LINE
  5
1CC
330
1F
100
AcDbEntity
  8
LAY-10
  6
CONTINUOUS
 62
     7
100
AcDbLine
 10
265.2984485246681
 20
229.993728716587
 30
0.0
 11
260.9016091906074
 21
257.473971553783
 31
0.0
  0
ARC
  5
1CD
330
1F
100
AcDbEntity
  8
LAY-10
  6
CONTINUOUS
 62
     7
100
AcDbCircle
 10
257.9392873029314
 20
256.9999999999999
 30
0.0
 40
3.0
100
AcDbArc
 50
9.090277896854356
 51
90.00000000000004
  0
LINE
  5
1CE
330
1F
100
AcDbEntity
  8
LAY-10
  6
CONTINUOUS
 62
     7
100
AcDbLine
 10
154.701551475332
 20
229.993728716587
 30
0.0
 11
159.0983908093926
 21
257.473971553783
 31
0.0
  0
LINE
  5
1CF
330
1F
100
AcDbEntity
  8
LAY-10
  6
CONTINUOUS
 62
     7
100
AcDbLine
 10
257.9392873029314
 20
259.9999999999999
 30
0.0
 11
162.0607126970686
 21
259.9999999999999
 31
0.0
  0
ARC
  5
1D0
330
1F
100
AcDbEntity
  8
LAY-10
  6
CONTINUOUS
 62
     7
100
AcDbCircle
 10
162.0607126970686
 20
256.9999999999999
 30
0.0
 40
3.0
100
AcDbArc
 50
90.00000000000004
 51
170.9097221031457
  0
LINE
  5
1D1
330
1F
100
AcDbEntity
  8
LAY-10
  6
CONTINUOUS
 62
     7
100
AcDbLine
 10
210.0
 20
452.9999999999998
 30
0.0
 11
141.5
 21
452.9999999999998
 31
0.0
  0
LINE
  5
1D2
330
1F
100
AcDbEntity
  8
LAY-10
  6
CONTINUOUS
 62
     7
100
AcDbLine
 10
136.5
 20
447.9999999999998
 30
0.0
 11
136.5
 21
351.9999999999998
 31
0.0
  0
LINE
  5
1D3
330
1F
100
AcDbEntity
  8
LAY-10
  6
CONTINUOUS
 62
     7
100
AcDbLine
 10
141.5
 20
346.9999999999999
 30
0.0
 11
210.0
 21
346.9999999999999
 31
0.0
  0
LINE
  5
1D4
330
1F
100
AcDbEntity
  8
LAY-10
  6
CONTINUOUS
 62
     7
100
AcDbLine
 10
210.0
 20
449.9999999999998
 30
0.0
 11
145.0
 21
449.9999999999998
 31
0.0
  0
LINE
  5
1D5
330
1F
100
AcDbEntity
  8
LAY-10
  6
CONTINUOUS
 62
     7
100
AcDbLine
 10
140.0
 20
444.9999999999998
 30
0.0
 11
140.0
 21
354.9999999999998
 31
0.0
  0
LINE
  5
1D6
330
1F
100
AcDbEntity
  8
LAY-10
  6
CONTINUOUS
 62
     7
100
AcDbLine
 10
145.0
 20
349.9999999999999
 30
0.0
 11
210.0
 21
349.9999999999999
 31
0.0
  0
LINE
  5
1D7
330
1F
100
AcDbEntity
  8
LAY-10
  6
CONTINUOUS
 62
     7
100
AcDbLine
 10
210.0
 20
445.9999999999999
 30
0.0
 11
144.0421380000001
 21
445.9999999999999
 31
0.0
  0
LINE
  5
1D8
330
1F
100
AcDbEntity
  8
LAY-10
  6
CONTINUOUS
 62
     7
100
AcDbLine
 10
144.0421380000001
 20
445.9999999999999
 30
0.0
 11
144.0421380000001
 21
354.0000000000001
 31
0.0
  0
LINE
  5
1D9
330
1F
100
AcDbEntity
  8
LAY-10
  6
CONTINUOUS
 62
     7
100
AcDbLine
 10
144.0421380000001
 20
354.0000000000001
 30
0.0
 11
210.0
 21
354.0000000000001
 31
0.0
  0
LINE
  5
1DA
330
1F
100
AcDbEntity
  8
LAY-10
  6
CONTINUOUS
 62
     7
100
AcDbLine
 10
275.0
 20
449.9999999999998
 30
0.0
 11
210.0
 21
449.9999999999998
 31
0.0
  0
LINE
  5
1DB
330
1F
100
AcDbEntity
  8
LAY-10
  6
CONTINUOUS
 62
     7
100
AcDbLine
 10
278.5000000000001
 20
452.9999999999998
 30
0.0
 11
210.0
 21
452.9999999999998
 31
0.0
  0
LINE
  5
1DC
330
1F
100
AcDbEntity
  8
LAY-10
  6
CONTINUOUS
 62
     7
100
AcDbLine
 10
210.0
 20
349.9999999999999
 30
0.0
 11
275.0
 21
349.9999999999999
 31
0.0
  0
LINE
  5
1DD
330
1F
100
AcDbEntity
  8
LAY-10
  6
CONTINUOUS
 62
     7
100
AcDbLine
 10
210.0
 20
346.9999999999999
 30
0.0
 11
278.5000000000001
 21
346.9999999999999
 31
0.0
  0
LINE
  5
1DE
330
1F
100
AcDbEntity
  8
LAY-10
  6
CONTINUOUS
 62
     7
100
AcDbLine
 10
275.957862
 20
445.9999999999999
 30
0.0
 11
210.0
 21
445.9999999999999
 31
0.0
  0
LINE
  5
1DF
330
1F
100
AcDbEntity
  8
LAY-10
  6
CONTINUOUS
 62
     7
100
AcDbLine
 10
210.0
 20
354.0000000000001
 30
0.0
 11
275.957862
 21
354.0000000000001
 31
0.0
  0
LINE
  5
1E0
330
1F
100
AcDbEntity
  8
LAY-10
  6
CONTINUOUS
 62
     7
100
AcDbLine
 10
280.0
 20
354.9999999999998
 30
0.0
 11
280.0
 21
444.9999999999998
 31
0.0
  0
LINE
  5
1E1
330
1F
100
AcDbEntity
  8
LAY-10
  6
CONTINUOUS
 62
     7
100
AcDbLine
 10
283.5
 20
351.9999999999998
 30
0.0
 11
283.5
 21
447.9999999999998
 31
0.0
  0
LINE
  5
1E2
330
1F
100
AcDbEntity
  8
LAY-10
  6
CONTINUOUS
 62
     7
100
AcDbLine
 10
275.957862
 20
354.0000000000001
 30
0.0
 11
275.957862
 21
445.9999999999999
 31
0.0
  0
LINE
  5
1E3
330
1F
100
AcDbEntity
  8
LAY-10
  6
CONTINUOUS
 62
     7
100
AcDbLine
 10
144.9427300686455
 20
369.4631486229515
 30
0.0
 11
144.9427300686455
 21
430.7560418417649
 31
0.0
  0
LINE
  5
1E4
330
1F
100
AcDbEntity
  8
LAY-10
  6
CONTINUOUS
 62
     7
100
AcDbLine
 10
144.479581445694
 20
430.9999999999999
 30
0.0
 11
144.479581445694
 21
445.562556554306
 31
0.0
  0
LINE
  5
1E5
330
1F
100
AcDbEntity
  8
LAY-10
  6
CONTINUOUS
 62
     7
100
AcDbLine
 10
159.0421380000001
 20
445.562556554306
 30
0.0
 11
157.979581445694
 21
444.5
 31
0.0
  0
LINE
  5
1E6
330
1F
100
AcDbEntity
  8
LAY-10
  6
CONTINUOUS
 62
     7
100
AcDbLine
 10
144.479581445694
 20
445.562556554306
 30
0.0
 11
159.0421380000001
 21
445.562556554306
 31
0.0
  0
LINE
  5
1E7
330
1F
100
AcDbEntity
  8
LAY-10
  6
CONTINUOUS
 62
     7
100
AcDbLine
 10
144.9427300686455
 20
430.7560418417649
 30
0.0
 11
145.5
 21
431.3133117731193
 31
0.0
  0
LINE
  5
1E8
330
1F
100
AcDbEntity
  8
LAY-10
  6
CONTINUOUS
 62
     7
100
AcDbLine
 10
144.9427300686455
 20
430.7560418417649
 30
0.0
 11
144.4795814456939
 21
430.9999999999999
 31
0.0
  0
LINE
  5
1E9
330
1F
100
AcDbEntity
  8
LAY-10
  6
CONTINUOUS
 62
     7
100
AcDbLine
 10
159.0421380000001
 20
445.562556554306
 30
0.0
 11
159.3036767761623
 21
445.1095581058473
 31
0.0
  0
LINE
  5
1EA
330
1F
100
AcDbEntity
  8
LAY-10
  6
CONTINUOUS
 62
     7
100
AcDbLine
 10
159.021069
 20
355.4999999999998
 30
0.0
 11
159.021069
 21
354.4374434456939
 31
0.0
  0
LINE
  5
1EB
330
1F
100
AcDbEntity
  8
LAY-10
  6
CONTINUOUS
 62
     7
100
AcDbLine
 10
145.5
 20
368.9999999999998
 30
0.0
 11
144.479581445694
 21
368.9999999999998
 31
0.0
  0
LINE
  5
1EC
330
1F
100
AcDbEntity
  8
LAY-10
  6
CONTINUOUS
 62
     7
100
AcDbLine
 10
144.479581445694
 20
368.9999999999998
 30
0.0
 11
144.479581445694
 21
354.4374434456939
 31
0.0
  0
LINE
  5
1ED
330
1F
100
AcDbEntity
  8
LAY-10
  6
CONTINUOUS
 62
     7
100
AcDbLine
 10
144.479581445694
 20
354.4374434456939
 30
0.0
 11
159.021069
 21
354.4374434456939
 31
0.0
  0
LINE
  5
1EE
330
1F
100
AcDbEntity
  8
LAY-10
  6
CONTINUOUS
 62
     7
100
AcDbLine
 10
159.4842176229516
 20
354.9005920686457
 30
0.0
 11
260.6963232238377
 21
354.9005920686467
 31
0.0
  0
LINE
  5
1EF
330
1F
100
AcDbEntity
  8
LAY-10
  6
CONTINUOUS
 62
     7
100
AcDbLine
 10
144.9427300686455
 20
369.4631486229515
 30
0.0
 11
145.5
 21
369.4631486229515
 31
0.0
  0
LINE
  5
1F0
330
1F
100
AcDbEntity
  8
LAY-10
  6
CONTINUOUS
 62
     7
100
AcDbLine
 10
159.4842176229516
 20
355.4999999999998
 30
0.0
 11
159.4842176229516
 21
354.9005920686457
 31
0.0
  0
LINE
  5
1F1
330
1F
100
AcDbEntity
  8
LAY-10
  6
CONTINUOUS
 62
     7
100
AcDbLine
 10
159.021069
 20
354.4374434456939
 30
0.0
 11
159.4842176229516
 21
354.9005920686457
 31
0.0
  0
LINE
  5
1F2
330
1F
100
AcDbEntity
  8
LAY-10
  6
CONTINUOUS
 62
     7
100
AcDbLine
 10
144.479581445694
 20
368.9999999999998
 30
0.0
 11
144.9427300686455
 21
369.4631486229515
 31
0.0
  0
LINE
  5
1F3
330
1F
100
AcDbEntity
  8
LAY-10
  6
CONTINUOUS
 62
     7
100
AcDbLine
 10
159.3036767761623
 20
445.1095581058473
 30
0.0
 11
260.5157823770484
 21
445.1095581058473
 31
0.0
  0
LINE
  5
1F4
330
1F
100
AcDbEntity
  8
LAY-10
  6
CONTINUOUS
 62
     7
100
AcDbLine
 10
275.520418554306
 20
445.562556554306
 30
0.0
 11
260.978931
 21
445.562556554306
 31
0.0
  0
LINE
  5
1F5
330
1F
100
AcDbEntity
  8
LAY-10
  6
CONTINUOUS
 62
     7
100
AcDbLine
 10
260.978931
 20
444.5
 30
0.0
 11
260.978931
 21
445.562556554306
 31
0.0
  0
LINE
  5
1F6
330
1F
100
AcDbEntity
  8
LAY-10
  6
CONTINUOUS
 62
     7
100
AcDbLine
 10
274.5000000000001
 20
431.0000000000001
 30
0.0
 11
275.520418554306
 21
431.0000000000001
 31
0.0
  0
LINE
  5
1F7
330
1F
100
AcDbEntity
  8
LAY-10
  6
CONTINUOUS
 62
     7
100
AcDbLine
 10
260.5157823770484
 20
444.5
 30
0.0
 11
260.5157823770484
 21
445.0994079313543
 31
0.0
  0
LINE
  5
1F8
330
1F
100
AcDbEntity
  8
LAY-10
  6
CONTINUOUS
 62
     7
100
AcDbLine
 10
275.0572699313544
 20
430.5368513770484
 30
0.0
 11
274.5000000000001
 21
430.5368513770484
 31
0.0
  0
LINE
  5
1F9
330
1F
100
AcDbEntity
  8
LAY-10
  6
CONTINUOUS
 62
     7
100
AcDbLine
 10
260.978931
 20
445.562556554306
 30
0.0
 11
260.5157823770484
 21
445.0994079313543
 31
0.0
  0
LINE
  5
1FA
330
1F
100
AcDbEntity
  8
LAY-10
  6
CONTINUOUS
 62
     7
100
AcDbLine
 10
275.520418554306
 20
431.0000000000001
 30
0.0
 11
275.0572699313544
 21
430.5368513770484
 31
0.0
  0
LINE
  5
1FB
330
1F
100
AcDbEntity
  8
LAY-10
  6
CONTINUOUS
 62
     7
100
AcDbLine
 10
275.520418554306
 20
431.0000000000001
 30
0.0
 11
275.520418554306
 21
445.562556554306
 31
0.0
  0
LINE
  5
1FC
330
1F
100
AcDbEntity
  8
LAY-10
  6
CONTINUOUS
 62
     7
100
AcDbLine
 10
275.0572699313544
 20
430.5368513770484
 30
0.0
 11
275.0572699313544
 21
369.2439581582351
 31
0.0
  0
ARC
  5
1FD
330
1F
100
AcDbEntity
  8
LAY-10
  6
CONTINUOUS
 62
     7
100
AcDbCircle
 10
145.0
 20
354.9999999999998
 30
0.0
 40
5.0
100
AcDbArc
 50
180.0
 51
270.0000000000001
  0
ARC
  5
1FE
330
1F
100
AcDbEntity
  8
LAY-10
  6
CONTINUOUS
 62
     7
100
AcDbCircle
 10
141.5
 20
351.9999999999998
 30
0.0
 40
5.0
100
AcDbArc
 50
180.0
 51
270.0000000000001
  0
ARC
  5
1FF
330
1F
100
AcDbEntity
  8
LAY-10
  6
CONTINUOUS
 62
     7
100
AcDbCircle
 10
141.5
 20
447.9999999999998
 30
0.0
 40
5.0
100
AcDbArc
 50
90.00000000000004
 51
180.0
  0
ARC
  5
200
330
1F
100
AcDbEntity
  8
LAY-10
  6
CONTINUOUS
 62
     7
100
AcDbCircle
 10
145.0
 20
444.9999999999998
 30
0.0
 40
5.0
100
AcDbArc
 50
90.00000000000004
 51
180.0
  0
ARC
  5
201
330
1F
100
AcDbEntity
  8
LAY-10
  6
CONTINUOUS
 62
     7
100
AcDbCircle
 10
275.0
 20
444.9999999999998
 30
0.0
 40
5.0
100
AcDbArc
 50
0.0
 51
90.00000000000004
  0
ARC
  5
202
330
1F
100
AcDbEntity
  8
LAY-10
  6
CONTINUOUS
 62
     7
100
AcDbCircle
 10
278.5000000000001
 20
447.9999999999998
 30
0.0
 40
5.0
100
AcDbArc
 50
0.0
 51
90.00000000000004
  0
ARC
  5
203
330
1F
100
AcDbEntity
  8
LAY-10
  6
CONTINUOUS
 62
     7
100
AcDbCircle
 10
275.0
 20
354.9999999999998
 30
0.0
 40
5.0
100
AcDbArc
 50
270.0000000000001
 51
0.0
  0
ARC
  5
204
330
1F
100
AcDbEntity
  8
LAY-10
  6
CONTINUOUS
 62
     7
100
AcDbCircle
 10
278.5000000000001
 20
351.9999999999998
 30
0.0
 40
5.0
100
AcDbArc
 50
270.0000000000001
 51
0.0
  0
LINE
  5
205
330
1F
100
AcDbEntity
  8
LAY-10
  6
CONTINUOUS
 62
     7
100
AcDbLine
 10
260.957862
 20
354.4374434456939
 30
0.0
 11
260.6963232238377
 21
354.8904418941527
 31
0.0
  0
LINE
  5
206
330
1F
100
AcDbEntity
  8
LAY-10
  6
CONTINUOUS
 62
     7
100
AcDbLine
 10
275.520418554306
 20
369.0000000000001
 30
0.0
 11
275.520418554306
 21
354.4374434456939
 31
0.0
  0
LINE
  5
207
330
1F
100
AcDbEntity
  8
LAY-10
  6
CONTINUOUS
 62
     7
100
AcDbLine
 10
260.957862
 20
354.4374434456939
 30
0.0
 11
262.0204185543059
 21
355.4999999999998
 31
0.0
  0
LINE
  5
208
330
1F
100
AcDbEntity
  8
LAY-10
  6
CONTINUOUS
 62
     7
100
AcDbLine
 10
275.0572699313544
 20
369.2439581582351
 30
0.0
 11
274.5000000000001
 21
368.6866882268808
 31
0.0
  0
LINE
  5
209
330
1F
100
AcDbEntity
  8
LAY-10
  6
CONTINUOUS
 62
     7
100
AcDbLine
 10
275.0572699313545
 20
369.2439581582351
 30
0.0
 11
275.520418554306
 21
369.0000000000001
 31
0.0
  0
LINE
  5
20A
330
1F
100
AcDbEntity
  8
LAY-10
  6
CONTINUOUS
 62
     7
100
AcDbLine
 10
275.520418554306
 20
354.4374434456939
 30
0.0
 11
260.957862
 21
354.4374434456939
 31
0.0
  0
LINE
  5
20B
330
1F
100
AcDbEntity
  8
LAY-10
  6
CONTINUOUS
 62
     7
100
AcDbLine
 10
145.5
 20
441.5
 30
0.0
 11
145.5
 21
358.4999999999998
 31
0.0
  0
LINE
  5
20C
330
1F
100
AcDbEntity
  8
LAY-10
  6
CONTINUOUS
 62
     7
100
AcDbLine
 10
210.0
 20
420.9999999999999
 30
0.0
 11
207.0
 21
420.9999999999999
 31
0.0
  0
LINE
  5
20D
330
1F
100
AcDbEntity
  8
LAY-10
  6
CONTINUOUS
 62
     7
100
AcDbLine
 10
204.9999999999998
 20
419.0
 30
0.0
 11
204.9999999999998
 21
381.0000000000001
 31
0.0
  0
LINE
  5
20E
330
1F
100
AcDbEntity
  8
LAY-10
  6
CONTINUOUS
 62
     7
100
AcDbLine
 10
207.0
 20
378.9999999999999
 30
0.0
 11
210.0
 21
378.9999999999999
 31
0.0
  0
LINE
  5
20F
330
1F
100
AcDbEntity
  8
LAY-10
  6
CONTINUOUS
 62
     7
100
AcDbLine
 10
193.9999999999999
 20
420.9999999999999
 30
0.0
 11
187.9999999999999
 21
420.9999999999999
 31
0.0
  0
LINE
  5
210
330
1F
100
AcDbEntity
  8
LAY-10
  6
CONTINUOUS
 62
     7
100
AcDbLine
 10
186.0
 20
419.0
 30
0.0
 11
186.0
 21
381.0000000000001
 31
0.0
  0
LINE
  5
211
330
1F
100
AcDbEntity
  8
LAY-10
  6
CONTINUOUS
 62
     7
100
AcDbLine
 10
187.9999999999999
 20
378.9999999999999
 30
0.0
 11
193.9999999999999
 21
378.9999999999999
 31
0.0
  0
LINE
  5
212
330
1F
100
AcDbEntity
  8
LAY-10
  6
CONTINUOUS
 62
     7
100
AcDbLine
 10
195.9999999999998
 20
381.0000000000001
 30
0.0
 11
195.9999999999998
 21
419.0
 31
0.0
  0
ARC
  5
213
330
1F
100
AcDbEntity
  8
LAY-10
  6
CONTINUOUS
 62
     7
100
AcDbCircle
 10
207.0
 20
419.0
 30
0.0
 40
2.0
100
AcDbArc
 50
90.00000000000004
 51
180.0
  0
ARC
  5
214
330
1F
100
AcDbEntity
  8
LAY-10
  6
CONTINUOUS
 62
     7
100
AcDbCircle
 10
207.0
 20
381.0000000000001
 30
0.0
 40
2.0
100
AcDbArc
 50
180.0
 51
270.0000000000001
  0
ARC
  5
215
330
1F
100
AcDbEntity
  8
LAY-10
  6
CONTINUOUS
 62
     7
100
AcDbCircle
 10
193.9999999999999
 20
381.0000000000001
 30
0.0
 40
2.0
100
AcDbArc
 50
270.0000000000001
 51
0.0
  0
ARC
  5
216
330
1F
100
AcDbEntity
  8
LAY-10
  6
CONTINUOUS
 62
     7
100
AcDbCircle
 10
193.9999999999999
 20
419.0
 30
0.0
 40
2.0
100
AcDbArc
 50
0.0
 51
90.00000000000004
  0
ARC
  5
217
330
1F
100
AcDbEntity
  8
LAY-10
  6
CONTINUOUS
 62
     7
100
AcDbCircle
 10
187.9999999999999
 20
419.0
 30
0.0
 40
2.0
100
AcDbArc
 50
90.00000000000004
 51
180.0
  0
ARC
  5
218
330
1F
100
AcDbEntity
  8
LAY-10
  6
CONTINUOUS
 62
     7
100
AcDbCircle
 10
187.9999999999999
 20
381.0000000000001
 30
0.0
 40
2.0
100
AcDbArc
 50
180.0
 51
270.0000000000001
  0
ARC
  5
219
330
1F
100
AcDbEntity
  8
LAY-10
  6
CONTINUOUS
 62
     7
100
AcDbCircle
 10
148.5
 20
441.5
 30
0.0
 40
3.0
100
AcDbArc
 50
90.00000000000004
 51
180.0
  0
ARC
  5
21A
330
1F
100
AcDbEntity
  8
LAY-10
  6
CONTINUOUS
 62
     7
100
AcDbCircle
 10
148.5
 20
358.4999999999998
 30
0.0
 40
3.0
100
AcDbArc
 50
180.0
 51
270.0000000000001
  0
LINE
  5
21B
330
1F
100
AcDbEntity
  8
LAY-10
  6
CONTINUOUS
 62
     7
100
AcDbLine
 10
274.5000000000001
 20
358.4999999999998
 30
0.0
 11
274.5000000000001
 21
441.5
 31
0.0
  0
ARC
  5
21C
330
1F
100
AcDbEntity
  8
LAY-10
  6
CONTINUOUS
 62
     7
100
AcDbCircle
 10
271.5
 20
441.5
 30
0.0
 40
3.0
100
AcDbArc
 50
0.0
 51
90.00000000000004
  0
ARC
  5
21D
330
1F
100
AcDbEntity
  8
LAY-10
  6
CONTINUOUS
 62
     7
100
AcDbCircle
 10
271.5
 20
358.4999999999998
 30
0.0
 40
3.0
100
AcDbArc
 50
270.0000000000001
 51
0.0
  0
LINE
  5
21E
330
1F
100
AcDbEntity
  8
LAY-10
  6
CONTINUOUS
 62
     7
100
AcDbLine
 10
223.9999999999999
 20
419.0
 30
0.0
 11
223.9999999999999
 21
381.0000000000001
 31
0.0
  0
LINE
  5
21F
330
1F
100
AcDbEntity
  8
LAY-10
  6
CONTINUOUS
 62
     7
100
AcDbLine
 10
233.9999999999997
 20
381.0000000000001
 30
0.0
 11
233.9999999999997
 21
419.0
 31
0.0
  0
LINE
  5
220
330
1F
100
AcDbEntity
  8
LAY-10
  6
CONTINUOUS
 62
     7
100
AcDbLine
 10
214.9999999999999
 20
381.0000000000001
 30
0.0
 11
214.9999999999999
 21
419.0
 31
0.0
  0
LINE
  5
221
330
1F
100
AcDbEntity
  8
LAY-10
  6
CONTINUOUS
 62
     7
100
AcDbLine
 10
231.9999999999998
 20
420.9999999999999
 30
0.0
 11
225.9999999999998
 21
420.9999999999999
 31
0.0
  0
ARC
  5
222
330
1F
100
AcDbEntity
  8
LAY-10
  6
CONTINUOUS
 62
     7
100
AcDbCircle
 10
231.9999999999998
 20
419.0
 30
0.0
 40
2.0
100
AcDbArc
 50
0.0
 51
90.00000000000004
  0
ARC
  5
223
330
1F
100
AcDbEntity
  8
LAY-10
  6
CONTINUOUS
 62
     7
100
AcDbCircle
 10
225.9999999999998
 20
419.0
 30
0.0
 40
2.0
100
AcDbArc
 50
90.00000000000004
 51
180.0
  0
ARC
  5
224
330
1F
100
AcDbEntity
  8
LAY-10
  6
CONTINUOUS
 62
     7
100
AcDbCircle
 10
213.0
 20
419.0
 30
0.0
 40
2.0
100
AcDbArc
 50
0.0
 51
90.00000000000004
  0
LINE
  5
225
330
1F
100
AcDbEntity
  8
LAY-10
  6
CONTINUOUS
 62
     7
100
AcDbLine
 10
213.0
 20
420.9999999999999
 30
0.0
 11
210.0
 21
420.9999999999999
 31
0.0
  0
ARC
  5
226
330
1F
100
AcDbEntity
  8
LAY-10
  6
CONTINUOUS
 62
     7
100
AcDbCircle
 10
231.9999999999998
 20
381.0000000000001
 30
0.0
 40
2.0
100
AcDbArc
 50
270.0000000000001
 51
0.0
  0
ARC
  5
227
330
1F
100
AcDbEntity
  8
LAY-10
  6
CONTINUOUS
 62
     7
100
AcDbCircle
 10
225.9999999999998
 20
381.0000000000001
 30
0.0
 40
2.0
100
AcDbArc
 50
180.0
 51
270.0000000000001
  0
LINE
  5
228
330
1F
100
AcDbEntity
  8
LAY-10
  6
CONTINUOUS
 62
     7
100
AcDbLine
 10
225.9999999999998
 20
378.9999999999999
 30
0.0
 11
231.9999999999998
 21
378.9999999999999
 31
0.0
  0
ARC
  5
229
330
1F
100
AcDbEntity
  8
LAY-10
  6
CONTINUOUS
 62
     7
100
AcDbCircle
 10
213.0
 20
381.0000000000001
 30
0.0
 40
2.0
100
AcDbArc
 50
270.0000000000001
 51
0.0
  0
LINE
  5
22A
330
1F
100
AcDbEntity
  8
LAY-10
  6
CONTINUOUS
 62
     7
100
AcDbLine
 10
210.0
 20
378.9999999999999
 30
0.0
 11
213.0
 21
378.9999999999999
 31
0.0
  0
LINE
  5
22B
330
1F
100
AcDbEntity
  8
LAY-10
  6
CONTINUOUS
 62
     7
100
AcDbLine
 10
148.5
 20
355.4999999999998
 30
0.0
 11
271.5
 21
355.4999999999998
 31
0.0
  0
LINE
  5
22C
330
1F
100
AcDbEntity
  8
LAY-10
  6
CONTINUOUS
 62
     7
100
AcDbLine
 10
155.5000000000001
 20
389.4999999999999
 30
0.0
 11
157.2604730000001
 21
389.8104189999999
 31
0.0
  0
LINE
  5
22D
330
1F
100
AcDbEntity
  8
LAY-10
  6
CONTINUOUS
 62
     7
100
AcDbLine
 10
155.5000000000001
 20
400.4999999999998
 30
0.0
 11
157.2604730000001
 21
400.1895819999998
 31
0.0
  0
LINE
  5
22E
330
1F
100
AcDbEntity
  8
LAY-10
  6
CONTINUOUS
 62
     7
100
AcDbLine
 10
155.5000000000001
 20
411.4999999999997
 30
0.0
 11
157.2604730000001
 21
411.8104189999997
 31
0.0
  0
LINE
  5
22F
330
1F
100
AcDbEntity
  8
LAY-10
  6
CONTINUOUS
 62
     7
100
AcDbLine
 10
155.5000000000001
 20
422.4999999999999
 30
0.0
 11
157.2604730000001
 21
422.1895819999999
 31
0.0
  0
LINE
  5
230
330
1F
100
AcDbEntity
  8
LAY-10
  6
CONTINUOUS
 62
     7
100
AcDbLine
 10
158.5000000000001
 20
420.7123699999997
 30
0.0
 11
158.5000000000001
 21
413.2876309999999
 31
0.0
  0
LINE
  5
231
330
1F
100
AcDbEntity
  8
LAY-10
  6
CONTINUOUS
 62
     7
100
AcDbLine
 10
158.5000000000001
 20
391.2876309999998
 30
0.0
 11
158.5000000000001
 21
398.7123699999999
 31
0.0
  0
ARC
  5
232
330
1F
100
AcDbEntity
  8
LAY-10
  6
CONTINUOUS
 62
     7
100
AcDbCircle
 10
157.0000000000001
 20
398.7123699999999
 30
0.0
 40
1.5
100
AcDbArc
 50
0.0
 51
79.99999999999498
  0
ARC
  5
233
330
1F
100
AcDbEntity
  8
LAY-10
  6
CONTINUOUS
 62
     7
100
AcDbCircle
 10
157.0000000000001
 20
391.2876309999998
 30
0.0
 40
1.5
100
AcDbArc
 50
280.0000000000051
 51
0.0
  0
ARC
  5
234
330
1F
100
AcDbEntity
  8
LAY-10
  6
CONTINUOUS
 62
     7
100
AcDbCircle
 10
157.0000000000001
 20
420.7123699999997
 30
0.0
 40
1.5
100
AcDbArc
 50
0.0
 51
79.99999999999498
  0
ARC
  5
235
330
1F
100
AcDbEntity
  8
LAY-10
  6
CONTINUOUS
 62
     7
100
AcDbCircle
 10
157.0000000000001
 20
413.2876309999999
 30
0.0
 40
1.5
100
AcDbArc
 50
280.0000000000051
 51
0.0
  0
LINE
  5
236
330
1F
100
AcDbEntity
  8
LAY-10
  6
CONTINUOUS
 62
     7
100
AcDbLine
 10
271.5
 20
444.5
 30
0.0
 11
148.5
 21
444.5
 31
0.0
  0
LINE
  5
237
330
1F
100
AcDbEntity
  8
LAY-10
  6
CONTINUOUS
 62
     7
100
AcDbLine
 10
261.4999999999999
 20
408.7123699999997
 30
0.0
 11
261.4999999999999
 21
401.2876309999999
 31
0.0
  0
ARC
  5
238
330
1F
100
AcDbEntity
  8
LAY-10
  6
CONTINUOUS
 62
     7
100
AcDbCircle
 10
262.9999999999999
 20
408.7123699999997
 30
0.0
 40
1.5
100
AcDbArc
 50
99.99999999999179
 51
180.0
  0
LINE
  5
239
330
1F
100
AcDbEntity
  8
LAY-10
  6
CONTINUOUS
 62
     7
100
AcDbLine
 10
264.4999999999999
 20
410.4999999999999
 30
0.0
 11
262.739528
 21
410.1895819999999
 31
0.0
  0
LINE
  5
23A
330
1F
100
AcDbEntity
  8
LAY-10
  6
CONTINUOUS
 62
     7
100
AcDbLine
 10
261.4999999999999
 20
379.2876309999998
 30
0.0
 11
261.4999999999999
 21
386.7123699999999
 31
0.0
  0
ARC
  5
23B
330
1F
100
AcDbEntity
  8
LAY-10
  6
CONTINUOUS
 62
     7
100
AcDbCircle
 10
262.9999999999999
 20
401.2876309999999
 30
0.0
 40
1.5
100
AcDbArc
 50
180.0
 51
260.0000000000082
  0
LINE
  5
23C
330
1F
100
AcDbEntity
  8
LAY-10
  6
CONTINUOUS
 62
     7
100
AcDbLine
 10
264.4999999999999
 20
399.4999999999997
 30
0.0
 11
262.739528
 21
399.8104189999997
 31
0.0
  0
ARC
  5
23D
330
1F
100
AcDbEntity
  8
LAY-10
  6
CONTINUOUS
 62
     7
100
AcDbCircle
 10
262.9999999999999
 20
386.7123699999999
 30
0.0
 40
1.5
100
AcDbArc
 50
99.99999999999179
 51
180.0
  0
LINE
  5
23E
330
1F
100
AcDbEntity
  8
LAY-10
  6
CONTINUOUS
 62
     7
100
AcDbLine
 10
264.4999999999999
 20
388.4999999999998
 30
0.0
 11
262.739528
 21
388.1895819999998
 31
0.0
  0
ARC
  5
23F
330
1F
100
AcDbEntity
  8
LAY-10
  6
CONTINUOUS
 62
     7
100
AcDbCircle
 10
262.9999999999999
 20
379.2876309999998
 30
0.0
 40
1.5
100
AcDbArc
 50
180.0
 51
260.0000000000082
  0
LINE
  5
240
330
1F
100
AcDbEntity
  8
LAY-10
  6
CONTINUOUS
 62
     7
100
AcDbLine
 10
264.4999999999999
 20
377.4999999999999
 30
0.0
 11
262.739528
 21
377.8104189999999
 31
0.0
  0
LINE
  5
241
330
1F
100
AcDbEntity
  8
LAY-10
  6
CONTINUOUS
 62
     7
100
AcDbLine
 10
206.2876309999998
 20
368.4999999999999
 30
0.0
 11
210.0
 21
368.4999999999999
 31
0.0
  0
LINE
  5
242
330
1F
100
AcDbEntity
  8
LAY-10
  6
CONTINUOUS
 62
     7
100
AcDbLine
 10
204.4999999999999
 20
365.4999999999999
 30
0.0
 11
204.8104189999999
 21
367.2604729999999
 31
0.0
  0
ARC
  5
243
330
1F
100
AcDbEntity
  8
LAY-10
  6
CONTINUOUS
 62
     7
100
AcDbCircle
 10
206.2876309999998
 20
366.9999999999999
 30
0.0
 40
1.5
100
AcDbArc
 50
90.00000000000004
 51
169.9999999999948
  0
LINE
  5
244
330
1F
100
AcDbEntity
  8
LAY-10
  6
CONTINUOUS
 62
     7
100
AcDbLine
 10
187.2876310000001
 20
368.4999999999999
 30
0.0
 11
194.7123700000001
 21
368.4999999999999
 31
0.0
  0
LINE
  5
245
330
1F
100
AcDbEntity
  8
LAY-10
  6
CONTINUOUS
 62
     7
100
AcDbLine
 10
185.4999999999998
 20
365.4999999999999
 30
0.0
 11
185.8104189999998
 21
367.2604729999999
 31
0.0
  0
ARC
  5
246
330
1F
100
AcDbEntity
  8
LAY-10
  6
CONTINUOUS
 62
     7
100
AcDbCircle
 10
187.2876310000001
 20
366.9999999999999
 30
0.0
 40
1.5
100
AcDbArc
 50
90.00000000000004
 51
170.0000000000058
  0
LINE
  5
247
330
1F
100
AcDbEntity
  8
LAY-10
  6
CONTINUOUS
 62
     7
100
AcDbLine
 10
196.5
 20
365.4999999999999
 30
0.0
 11
196.189582
 21
367.2604729999999
 31
0.0
  0
ARC
  5
248
330
1F
100
AcDbEntity
  8
LAY-10
  6
CONTINUOUS
 62
     7
100
AcDbCircle
 10
194.7123700000001
 20
366.9999999999999
 30
0.0
 40
1.5
100
AcDbArc
 50
10.00000000000516
 51
90.00000000000004
  0
ARC
  5
249
330
1F
100
AcDbEntity
  8
LAY-10
  6
CONTINUOUS
 62
     7
100
AcDbCircle
 10
225.2876309999999
 20
366.9999999999999
 30
0.0
 40
1.5
100
AcDbArc
 50
90.00000000000004
 51
169.9999999999948
  0
ARC
  5
24A
330
1F
100
AcDbEntity
  8
LAY-10
  6
CONTINUOUS
 62
     7
100
AcDbCircle
 10
232.71237
 20
366.9999999999999
 30
0.0
 40
1.5
100
AcDbArc
 50
10.00000000000516
 51
90.00000000000004
  0
ARC
  5
24B
330
1F
100
AcDbEntity
  8
LAY-10
  6
CONTINUOUS
 62
     7
100
AcDbCircle
 10
213.7123699999999
 20
366.9999999999999
 30
0.0
 40
1.5
100
AcDbArc
 50
9.999999999994102
 51
90.00000000000004
  0
LINE
  5
24C
330
1F
100
AcDbEntity
  8
LAY-10
  6
CONTINUOUS
 62
     7
100
AcDbLine
 10
225.2876309999999
 20
368.4999999999999
 30
0.0
 11
232.71237
 21
368.4999999999999
 31
0.0
  0
LINE
  5
24D
330
1F
100
AcDbEntity
  8
LAY-10
  6
CONTINUOUS
 62
     7
100
AcDbLine
 10
210.0
 20
368.4999999999999
 30
0.0
 11
213.7123699999999
 21
368.4999999999999
 31
0.0
  0
LINE
  5
24E
330
1F
100
AcDbEntity
  8
LAY-10
  6
CONTINUOUS
 62
     7
100
AcDbLine
 10
234.4999999999999
 20
365.4999999999999
 30
0.0
 11
234.1895819999999
 21
367.2604729999999
 31
0.0
  0
LINE
  5
24F
330
1F
100
AcDbEntity
  8
LAY-10
  6
CONTINUOUS
 62
     7
100
AcDbLine
 10
223.5
 20
365.4999999999999
 30
0.0
 11
223.8104190000001
 21
367.2604729999999
 31
0.0
  0
LINE
  5
250
330
1F
100
AcDbEntity
  8
LAY-10
  6
CONTINUOUS
 62
     7
100
AcDbLine
 10
215.4999999999998
 20
365.4999999999999
 30
0.0
 11
215.1895820000001
 21
367.2604729999999
 31
0.0
  0
LINE
  5
251
330
1F
100
AcDbEntity
  8
LAY-10
  6
CONTINUOUS
 62
     7
100
AcDbLine
 10
210.0
 20
365.4999999999999
 30
0.0
 11
160.7915619758883
 21
365.4999999999999
 31
0.0
  0
LINE
  5
252
330
1F
100
AcDbEntity
  8
LAY-10
  6
CONTINUOUS
 62
     7
100
AcDbLine
 10
210.0
 20
369.5
 30
0.0
 11
163.1183802907974
 21
369.5
 31
0.0
  0
LINE
  5
253
330
1F
100
AcDbEntity
  8
LAY-10
  6
CONTINUOUS
 62
     7
100
AcDbLine
 10
210.0
 20
369.5
 30
0.0
 11
257.5000000000001
 21
369.5
 31
0.0
  0
LINE
  5
254
330
1F
100
AcDbEntity
  8
LAY-10
  6
CONTINUOUS
 62
     7
100
AcDbLine
 10
210.0
 20
365.4999999999999
 30
0.0
 11
261.4999999999999
 21
365.4999999999999
 31
0.0
  0
LINE
  5
255
330
1F
100
AcDbEntity
  8
LAY-10
  6
CONTINUOUS
 62
     7
100
AcDbLine
 10
264.4999999999999
 20
368.4999999999999
 30
0.0
 11
264.4999999999999
 21
429.5147186257615
 31
0.0
  0
ARC
  5
256
330
1F
100
AcDbEntity
  8
LAY-10
  6
CONTINUOUS
 62
     7
100
AcDbCircle
 10
257.5000000000001
 20
372.5
 30
0.0
 40
3.0
100
AcDbArc
 50
270.0000000000001
 51
0.0
  0
ARC
  5
257
330
1F
100
AcDbEntity
  8
LAY-10
  6
CONTINUOUS
 62
     7
100
AcDbCircle
 10
261.4999999999999
 20
368.4999999999999
 30
0.0
 40
3.0
100
AcDbArc
 50
270.0000000000001
 51
0.0
  0
LINE
  5
258
330
1F
100
AcDbEntity
  8
LAY-10
  6
CONTINUOUS
 62
     7
100
AcDbLine
 10
210.0
 20
431.4999999999999
 30
0.0
 11
206.2876309999998
 21
431.4999999999999
 31
0.0
  0
ARC
  5
259
330
1F
100
AcDbEntity
  8
LAY-10
  6
CONTINUOUS
 62
     7
100
AcDbCircle
 10
206.2876309999998
 20
432.9999999999999
 30
0.0
 40
1.5
100
AcDbArc
 50
190.0000000000052
 51
270.0000000000001
  0
LINE
  5
25A
330
1F
100
AcDbEntity
  8
LAY-10
  6
CONTINUOUS
 62
     7
100
AcDbLine
 10
204.4999999999999
 20
434.4999999999999
 30
0.0
 11
204.8104189999999
 21
432.739528
 31
0.0
  0
LINE
  5
25B
330
1F
100
AcDbEntity
  8
LAY-10
  6
CONTINUOUS
 62
     7
100
AcDbLine
 10
194.7123700000001
 20
431.4999999999999
 30
0.0
 11
187.2876310000001
 21
431.4999999999999
 31
0.0
  0
ARC
  5
25C
330
1F
100
AcDbEntity
  8
LAY-10
  6
CONTINUOUS
 62
     7
100
AcDbCircle
 10
187.2876310000001
 20
432.9999999999999
 30
0.0
 40
1.5
100
AcDbArc
 50
190.0000000000052
 51
270.0000000000001
  0
LINE
  5
25D
330
1F
100
AcDbEntity
  8
LAY-10
  6
CONTINUOUS
 62
     7
100
AcDbLine
 10
185.4999999999998
 20
434.4999999999999
 30
0.0
 11
185.8104189999998
 21
432.739528
 31
0.0
  0
ARC
  5
25E
330
1F
100
AcDbEntity
  8
LAY-10
  6
CONTINUOUS
 62
     7
100
AcDbCircle
 10
194.7123700000001
 20
432.9999999999999
 30
0.0
 40
1.5
100
AcDbArc
 50
270.0000000000001
 51
349.9999999999948
  0
LINE
  5
25F
330
1F
100
AcDbEntity
  8
LAY-10
  6
CONTINUOUS
 62
     7
100
AcDbLine
 10
196.5
 20
434.4999999999999
 30
0.0
 11
196.189582
 21
432.739528
 31
0.0
  0
LINE
  5
260
330
1F
100
AcDbEntity
  8
LAY-10
  6
CONTINUOUS
 62
     7
100
AcDbLine
 10
232.71237
 20
431.4999999999999
 30
0.0
 11
225.2876309999999
 21
431.4999999999999
 31
0.0
  0
ARC
  5
261
330
1F
100
AcDbEntity
  8
LAY-10
  6
CONTINUOUS
 62
     7
100
AcDbCircle
 10
232.71237
 20
432.9999999999999
 30
0.0
 40
1.5
100
AcDbArc
 50
270.0000000000001
 51
349.9999999999948
  0
LINE
  5
262
330
1F
100
AcDbEntity
  8
LAY-10
  6
CONTINUOUS
 62
     7
100
AcDbLine
 10
234.4999999999999
 20
434.4999999999999
 30
0.0
 11
234.1895819999999
 21
432.739528
 31
0.0
  0
ARC
  5
263
330
1F
100
AcDbEntity
  8
LAY-10
  6
CONTINUOUS
 62
     7
100
AcDbCircle
 10
225.2876309999999
 20
432.9999999999999
 30
0.0
 40
1.5
100
AcDbArc
 50
190.0000000000052
 51
270.0000000000001
  0
LINE
  5
264
330
1F
100
AcDbEntity
  8
LAY-10
  6
CONTINUOUS
 62
     7
100
AcDbLine
 10
223.5
 20
434.4999999999999
 30
0.0
 11
223.8104190000001
 21
432.739528
 31
0.0
  0
LINE
  5
265
330
1F
100
AcDbEntity
  8
LAY-10
  6
CONTINUOUS
 62
     7
100
AcDbLine
 10
213.7123699999999
 20
431.4999999999999
 30
0.0
 11
210.0
 21
431.4999999999999
 31
0.0
  0
ARC
  5
266
330
1F
100
AcDbEntity
  8
LAY-10
  6
CONTINUOUS
 62
     7
100
AcDbCircle
 10
213.7123699999999
 20
432.9999999999999
 30
0.0
 40
1.5
100
AcDbArc
 50
270.0000000000001
 51
349.9999999999948
  0
LINE
  5
267
330
1F
100
AcDbEntity
  8
LAY-10
  6
CONTINUOUS
 62
     7
100
AcDbLine
 10
215.4999999999998
 20
434.4999999999999
 30
0.0
 11
215.1895820000001
 21
432.739528
 31
0.0
  0
LINE
  5
268
330
1F
100
AcDbEntity
  8
LAY-10
  6
CONTINUOUS
 62
     7
100
AcDbLine
 10
210.0
 20
434.4999999999999
 30
0.0
 11
158.5000000000001
 21
434.4999999999999
 31
0.0
  0
LINE
  5
269
330
1F
100
AcDbEntity
  8
LAY-10
  6
CONTINUOUS
 62
     7
100
AcDbLine
 10
210.0
 20
430.4999999999998
 30
0.0
 11
162.5000000000003
 21
430.4999999999998
 31
0.0
  0
ARC
  5
26A
330
1F
100
AcDbEntity
  8
LAY-10
  6
CONTINUOUS
 62
     7
100
AcDbCircle
 10
158.5000000000001
 20
431.4999999999999
 30
0.0
 40
3.0
100
AcDbArc
 50
90.00000000000004
 51
180.0
  0
ARC
  5
26B
330
1F
100
AcDbEntity
  8
LAY-10
  6
CONTINUOUS
 62
     7
100
AcDbCircle
 10
162.5000000000003
 20
427.4999999999998
 30
0.0
 40
3.0
100
AcDbArc
 50
90.00000000000004
 51
180.0
  0
LINE
  5
26C
330
1F
100
AcDbEntity
  8
LAY-10
  6
CONTINUOUS
 62
     7
100
AcDbLine
 10
210.0
 20
430.4999999999998
 30
0.0
 11
256.8816197092026
 21
430.4999999999998
 31
0.0
  0
LINE
  5
26D
330
1F
100
AcDbEntity
  8
LAY-10
  6
CONTINUOUS
 62
     7
100
AcDbLine
 10
210.0
 20
434.4999999999999
 30
0.0
 11
259.2084380241117
 21
434.4999999999999
 31
0.0
  0
LINE
  5
26E
330
1F
100
AcDbEntity
  8
LAY-10
  6
CONTINUOUS
 62
     7
100
AcDbLine
 10
155.5000000000001
 20
370.4852813742384
 30
0.0
 11
155.5000000000001
 21
431.4999999999999
 31
0.0
  0
LINE
  5
26F
330
1F
100
AcDbEntity
  8
LAY-10
  6
CONTINUOUS
 62
     7
100
AcDbLine
 10
159.5000000000003
 20
427.4999999999998
 30
0.0
 11
159.5000000000003
 21
372.9544511501031
 31
0.0
  0
LINE
  5
270
330
1F
100
AcDbEntity
  8
LAY-10
  6
CONTINUOUS
 62
     7
100
AcDbLine
 10
260.5000000000001
 20
372.5
 30
0.0
 11
260.5000000000001
 21
427.0455488498968
 31
0.0
  0
LINE
  5
271
330
1F
100
AcDbEntity
  8
LAY-10
  6
CONTINUOUS
 62
     7
100
AcDbLine
 10
250.9999999999996
 20
420.9999999999999
 30
0.0
 11
244.9999999999996
 21
420.9999999999999
 31
0.0
  0
ARC
  5
272
330
1F
100
AcDbEntity
  8
LAY-10
  6
CONTINUOUS
 62
     7
100
AcDbCircle
 10
250.9999999999996
 20
419.0
 30
0.0
 40
2.0
100
AcDbArc
 50
0.0
 51
90.00000000000004
  0
ARC
  5
273
330
1F
100
AcDbEntity
  8
LAY-10
  6
CONTINUOUS
 62
     7
100
AcDbCircle
 10
244.9999999999996
 20
419.0
 30
0.0
 40
2.0
100
AcDbArc
 50
90.00000000000004
 51
180.0
  0
LINE
  5
274
330
1F
100
AcDbEntity
  8
LAY-10
  6
CONTINUOUS
 62
     7
100
AcDbLine
 10
242.9999999999997
 20
419.0
 30
0.0
 11
242.9999999999997
 21
381.0000000000001
 31
0.0
  0
LINE
  5
275
330
1F
100
AcDbEntity
  8
LAY-10
  6
CONTINUOUS
 62
     7
100
AcDbLine
 10
252.9999999999995
 20
381.0000000000001
 30
0.0
 11
252.9999999999995
 21
419.0
 31
0.0
  0
ARC
  5
276
330
1F
100
AcDbEntity
  8
LAY-10
  6
CONTINUOUS
 62
     7
100
AcDbCircle
 10
250.9999999999996
 20
381.0000000000001
 30
0.0
 40
2.0
100
AcDbArc
 50
270.0000000000001
 51
0.0
  0
ARC
  5
277
330
1F
100
AcDbEntity
  8
LAY-10
  6
CONTINUOUS
 62
     7
100
AcDbCircle
 10
244.9999999999996
 20
381.0000000000001
 30
0.0
 40
2.0
100
AcDbArc
 50
180.0
 51
270.0000000000001
  0
LINE
  5
278
330
1F
100
AcDbEntity
  8
LAY-10
  6
CONTINUOUS
 62
     7
100
AcDbLine
 10
244.9999999999996
 20
378.9999999999999
 30
0.0
 11
250.9999999999996
 21
378.9999999999999
 31
0.0
  0
ARC
  5
279
330
1F
100
AcDbEntity
  8
LAY-10
  6
CONTINUOUS
 62
     7
100
AcDbCircle
 10
244.2876309999997
 20
366.9999999999999
 30
0.0
 40
1.5
100
AcDbArc
 50
90.00000000000004
 51
169.9999999999948
  0
ARC
  5
27A
330
1F
100
AcDbEntity
  8
LAY-10
  6
CONTINUOUS
 62
     7
100
AcDbCircle
 10
251.7123699999998
 20
366.9999999999999
 30
0.0
 40
1.5
100
AcDbArc
 50
10.00000000000516
 51
90.00000000000004
  0
LINE
  5
27B
330
1F
100
AcDbEntity
  8
LAY-10
  6
CONTINUOUS
 62
     7
100
AcDbLine
 10
244.2876309999997
 20
368.4999999999999
 30
0.0
 11
251.7123699999998
 21
368.4999999999999
 31
0.0
  0
LINE
  5
27C
330
1F
100
AcDbEntity
  8
LAY-10
  6
CONTINUOUS
 62
     7
100
AcDbLine
 10
253.4999999999997
 20
365.4999999999999
 30
0.0
 11
253.1895819999997
 21
367.2604729999999
 31
0.0
  0
LINE
  5
27D
330
1F
100
AcDbEntity
  8
LAY-10
  6
CONTINUOUS
 62
     7
100
AcDbLine
 10
242.4999999999998
 20
365.4999999999999
 30
0.0
 11
242.8104189999998
 21
367.2604729999999
 31
0.0
  0
LINE
  5
27E
330
1F
100
AcDbEntity
  8
LAY-10
  6
CONTINUOUS
 62
     7
100
AcDbLine
 10
175.0000000000001
 20
420.9999999999999
 30
0.0
 11
169.0000000000001
 21
420.9999999999999
 31
0.0
  0
ARC
  5
27F
330
1F
100
AcDbEntity
  8
LAY-10
  6
CONTINUOUS
 62
     7
100
AcDbCircle
 10
175.0000000000001
 20
419.0
 30
0.0
 40
2.0
100
AcDbArc
 50
0.0
 51
90.00000000000004
  0
ARC
  5
280
330
1F
100
AcDbEntity
  8
LAY-10
  6
CONTINUOUS
 62
     7
100
AcDbCircle
 10
169.0000000000001
 20
419.0
 30
0.0
 40
2.0
100
AcDbArc
 50
90.00000000000004
 51
180.0
  0
LINE
  5
281
330
1F
100
AcDbEntity
  8
LAY-10
  6
CONTINUOUS
 62
     7
100
AcDbLine
 10
167.0000000000003
 20
419.0
 30
0.0
 11
167.0000000000003
 21
381.0000000000001
 31
0.0
  0
LINE
  5
282
330
1F
100
AcDbEntity
  8
LAY-10
  6
CONTINUOUS
 62
     7
100
AcDbLine
 10
169.0000000000001
 20
378.9999999999999
 30
0.0
 11
175.0000000000001
 21
378.9999999999999
 31
0.0
  0
LINE
  5
283
330
1F
100
AcDbEntity
  8
LAY-10
  6
CONTINUOUS
 62
     7
100
AcDbLine
 10
177.0
 20
381.0000000000001
 30
0.0
 11
177.0
 21
419.0
 31
0.0
  0
ARC
  5
284
330
1F
100
AcDbEntity
  8
LAY-10
  6
CONTINUOUS
 62
     7
100
AcDbCircle
 10
175.0000000000001
 20
381.0000000000001
 30
0.0
 40
2.0
100
AcDbArc
 50
270.0000000000001
 51
0.0
  0
ARC
  5
285
330
1F
100
AcDbEntity
  8
LAY-10
  6
CONTINUOUS
 62
     7
100
AcDbCircle
 10
169.0000000000001
 20
381.0000000000001
 30
0.0
 40
2.0
100
AcDbArc
 50
180.0
 51
270.0000000000001
  0
LINE
  5
286
330
1F
100
AcDbEntity
  8
LAY-10
  6
CONTINUOUS
 62
     7
100
AcDbLine
 10
175.7123700000003
 20
431.4999999999999
 30
0.0
 11
168.2876310000003
 21
431.4999999999999
 31
0.0
  0
ARC
  5
287
330
1F
100
AcDbEntity
  8
LAY-10
  6
CONTINUOUS
 62
     7
100
AcDbCircle
 10
168.2876310000003
 20
432.9999999999999
 30
0.0
 40
1.5
100
AcDbArc
 50
190.0000000000052
 51
270.0000000000001
  0
LINE
  5
288
330
1F
100
AcDbEntity
  8
LAY-10
  6
CONTINUOUS
 62
     7
100
AcDbLine
 10
166.5
 20
434.4999999999999
 30
0.0
 11
166.8104190000001
 21
432.739528
 31
0.0
  0
ARC
  5
289
330
1F
100
AcDbEntity
  8
LAY-10
  6
CONTINUOUS
 62
     7
100
AcDbCircle
 10
175.7123700000003
 20
432.9999999999999
 30
0.0
 40
1.5
100
AcDbArc
 50
270.0000000000001
 51
349.9999999999948
  0
LINE
  5
28A
330
1F
100
AcDbEntity
  8
LAY-10
  6
CONTINUOUS
 62
     7
100
AcDbLine
 10
177.5000000000003
 20
434.4999999999999
 30
0.0
 11
177.1895820000002
 21
432.739528
 31
0.0
  0
ARC
  5
28B
330
1F
100
AcDbEntity
  8
LAY-10
  6
CONTINUOUS
 62
     7
100
AcDbCircle
 10
152.4999999999998
 20
362.0
 30
0.0
 40
9.0
100
AcDbArc
 50
22.88538047615773
 51
70.52877936550658
  0
ARC
  5
28C
330
1F
100
AcDbEntity
  8
LAY-10
  6
CONTINUOUS
 62
     7
100
AcDbCircle
 10
152.4999999999998
 20
362.0
 30
0.0
 40
13.0
100
AcDbArc
 50
35.23441798458123
 51
57.4210296071934
  0
ARC
  5
28D
330
1F
100
AcDbEntity
  8
LAY-10
  6
CONTINUOUS
 62
     7
100
AcDbCircle
 10
267.5000000000002
 20
437.9999999999998
 30
0.0
 40
9.0
100
AcDbArc
 50
202.8853804761578
 51
250.5287793655094
  0
ARC
  5
28E
330
1F
100
AcDbEntity
  8
LAY-10
  6
CONTINUOUS
 62
     7
100
AcDbCircle
 10
267.5000000000002
 20
437.9999999999998
 30
0.0
 40
13.0
100
AcDbArc
 50
215.2344179845812
 51
237.4210296071952
  0
LINE
  5
28F
330
1F
100
AcDbEntity
  8
LAY-10
  6
CONTINUOUS
 62
     7
100
AcDbLine
 10
175.7123700000003
 20
368.4999999999999
 30
0.0
 11
168.2876310000003
 21
368.4999999999999
 31
0.0
  0
ARC
  5
290
330
1F
100
AcDbEntity
  8
LAY-10
  6
CONTINUOUS
 62
     7
100
AcDbCircle
 10
168.2876310000003
 20
366.9999999999999
 30
0.0
 40
1.5
100
AcDbArc
 50
90.00000000000004
 51
169.9999999999948
  0
LINE
  5
291
330
1F
100
AcDbEntity
  8
LAY-10
  6
CONTINUOUS
 62
     7
100
AcDbLine
 10
166.5
 20
365.4999999999999
 30
0.0
 11
166.8104190000001
 21
367.2604719999999
 31
0.0
  0
ARC
  5
292
330
1F
100
AcDbEntity
  8
LAY-10
  6
CONTINUOUS
 62
     7
100
AcDbCircle
 10
175.7123700000003
 20
366.9999999999999
 30
0.0
 40
1.5
100
AcDbArc
 50
10.00000000000516
 51
90.00000000000004
  0
LINE
  5
293
330
1F
100
AcDbEntity
  8
LAY-10
  6
CONTINUOUS
 62
     7
100
AcDbLine
 10
177.5000000000003
 20
365.4999999999999
 30
0.0
 11
177.1895820000002
 21
367.2604719999999
 31
0.0
  0
ARC
  5
294
330
1F
100
AcDbEntity
  8
LAY-10
  6
CONTINUOUS
 62
     7
100
AcDbCircle
 10
244.2876309999997
 20
432.9999999999999
 30
0.0
 40
1.5
100
AcDbArc
 50
190.0000000000052
 51
270.0000000000001
  0
ARC
  5
295
330
1F
100
AcDbEntity
  8
LAY-10
  6
CONTINUOUS
 62
     7
100
AcDbCircle
 10
251.7123699999998
 20
432.9999999999999
 30
0.0
 40
1.5
100
AcDbArc
 50
270.0000000000001
 51
349.9999999999948
  0
LINE
  5
296
330
1F
100
AcDbEntity
  8
LAY-10
  6
CONTINUOUS
 62
     7
100
AcDbLine
 10
244.2876309999997
 20
431.4999999999999
 30
0.0
 11
251.7123699999998
 21
431.4999999999999
 31
0.0
  0
LINE
  5
297
330
1F
100
AcDbEntity
  8
LAY-10
  6
CONTINUOUS
 62
     7
100
AcDbLine
 10
253.4999999999997
 20
434.4999999999999
 30
0.0
 11
253.1895819999997
 21
432.739527
 31
0.0
  0
LINE
  5
298
330
1F
100
AcDbEntity
  8
LAY-10
  6
CONTINUOUS
 62
     7
100
AcDbLine
 10
242.4999999999998
 20
434.4999999999999
 30
0.0
 11
242.8104189999998
 21
432.739527
 31
0.0
  0
ARC
  5
299
330
1F
100
AcDbEntity
  8
LAY-10
  6
CONTINUOUS
 62
     7
100
AcDbCircle
 10
210.0
 20
399.9999999999999
 30
0.0
 40
44.98364820184536
100
AcDbArc
 50
261.5906008586296
 51
278.4093991413703
  0
ARC
  5
29A
330
1F
100
AcDbEntity
  8
LAY-10
  6
CONTINUOUS
 62
     7
100
AcDbCircle
 10
210.0
 20
399.9999999999999
 30
0.0
 40
44.98364820184536
100
AcDbArc
 50
81.59060085862892
 51
98.40939914137108
  0
LINE
  5
29B
330
1F
100
AcDbEntity
  8
LAY-10
  6
CONTINUOUS
 62
     7
100
AcDbLine
 10
261.3133117731193
 20
355.4999999999998
 30
0.0
 11
260.7000384455548
 21
354.8867266724354
 31
0.0
  0
LINE
  5
29C
330
1F
100
AcDbEntity
  8
LAY-10
  6
CONTINUOUS
 62
     7
100
AcDbLine
 10
274.5000000000001
 20
367.9795814456941
 30
0.0
 11
275.520418554306
 21
369.0000000000001
 31
0.0
  0
LINE
  5
29D
330
1F
100
AcDbEntity
  8
LAY-10
  6
CONTINUOUS
 62
     7
100
AcDbLine
 10
158.6866882268807
 20
444.5
 30
0.0
 11
159.2999615544452
 21
445.1132733275645
 31
0.0
  0
LINE
  5
29E
330
1F
100
AcDbEntity
  8
LAY-10
  6
CONTINUOUS
 62
     7
100
AcDbLine
 10
145.5
 20
432.0204185543059
 30
0.0
 11
144.479581445694
 21
430.9999999999999
 31
0.0
  0
CIRCLE
  5
29F
330
1F
100
AcDbEntity
  8
LAY-10
  6
CONTINUOUS
 62
     7
100
AcDbCircle
 10
267.9789309999999
 20
437.9999999999999
 30
0.0
 40
5.25
  0
LINE
  5
2A0
330
1F
100
AcDbEntity
  8
LAY-10
  6
CONTINUOUS
 62
     7
100
AcDbLine
 10
264.0155382321378
 20
434.5570335802307
 30
0.0
 11
272.9423237678307
 21
439.7109156122512
 31
0.0
  0
LINE
  5
2A1
330
1F
100
AcDbEntity
  8
LAY-10
  6
CONTINUOUS
 62
     7
100
AcDbLine
 10
263.0155382321402
 20
436.2890843878322
 30
0.0
 11
271.9423237678039
 21
441.4429664198358
 31
0.0
  0
CIRCLE
  5
2A2
330
1F
100
AcDbEntity
  8
LAY-10
  6
CONTINUOUS
 62
     7
100
AcDbCircle
 10
152.0210689999999
 20
361.9999999999998
 30
0.0
 40
5.25
  0
LINE
  5
2A3
330
1F
100
AcDbEntity
  8
LAY-10
  6
CONTINUOUS
 62
     7
100
AcDbLine
 10
148.0576762321379
 20
358.5570335802306
 30
0.0
 11
156.9844617678307
 21
363.7109156122511
 31
0.0
  0
LINE
  5
2A4
330
1F
100
AcDbEntity
  8
LAY-10
  6
CONTINUOUS
 62
     7
100
AcDbLine
 10
147.0576762321402
 20
360.2890843878321
 30
0.0
 11
155.984461767804
 21
365.4429664198357
 31
0.0
  0
LINE
  5
2A5
330
1F
100
AcDbEntity
  8
LAY-10
  6
CONTINUOUS
 62
     7
100
AcDbLine
 10
275.9999999999923
 20
217.9965262093086
 30
0.0
 11
275.9999999999923
 21
218.9965262093068
 31
0.0
  0
LINE
  5
2A6
330
1F
100
AcDbEntity
  8
LAY-10
  6
CONTINUOUS
 62
     7
100
AcDbLine
 10
270.999999999993
 20
217.9965262093086
 30
0.0
 11
270.999999999993
 21
218.9965262093079
 31
0.0
  0
LINE
  5
2A7
330
1F
100
AcDbEntity
  8
LAY-10
  6
CONTINUOUS
 62
     7
100
AcDbLine
 10
270.999999999993
 20
218.9965262093079
 30
0.0
 11
275.9999999999923
 21
218.9965262093079
 31
0.0
  0
LINE
  5
2A8
330
1F
100
AcDbEntity
  8
LAY-10
  6
CONTINUOUS
 62
     7
100
AcDbLine
 10
270.4999999999898
 20
217.4965262093079
 30
0.0
 11
276.4999999999898
 21
217.4965262093079
 31
0.0
  0
LINE
  5
2A9
330
1F
100
AcDbEntity
  8
LAY-10
  6
CONTINUOUS
 62
     7
100
AcDbLine
 10
270.9999999999898
 20
217.9965262093086
 30
0.0
 11
275.9999999999898
 21
217.9965262093086
 31
0.0
  0
LINE
  5
2AA
330
1F
100
AcDbEntity
  8
LAY-10
  6
CONTINUOUS
 62
     7
100
AcDbLine
 10
273.4999999999901
 20
220.4399018822836
 30
0.0
 11
275.999999999991
 21
218.996526209309
 31
0.0
  0
LINE
  5
2AB
330
1F
100
AcDbEntity
  8
LAY-10
  6
CONTINUOUS
 62
     7
100
AcDbLine
 10
273.4999999999896
 20
220.4399018822834
 30
0.0
 11
270.9999999999891
 21
218.996526209309
 31
0.0
  0
LINE
  5
2AC
330
1F
100
AcDbEntity
  8
LAY-10
  6
CONTINUOUS
 62
     7
100
AcDbLine
 10
287.9999999999893
 20
187.9965262093173
 30
0.0
 11
287.9999999999893
 21
192.9965262093172
 31
0.0
  0
LINE
  5
2AD
330
1F
100
AcDbEntity
  8
LAY-10
  6
CONTINUOUS
 62
     7
100
AcDbLine
 10
277.9999999999889
 20
192.9965262093172
 30
0.0
 11
287.9999999999893
 21
192.9965262093172
 31
0.0
  0
ARC
  5
2AE
330
1F
100
AcDbEntity
  8
LAY-10
  6
CONTINUOUS
 62
     7
100
AcDbCircle
 10
277.9999999999889
 20
194.9965262093172
 30
0.0
 40
2.0
100
AcDbArc
 50
180.0
 51
270.0000000000002
  0
LINE
  5
2AF
330
1F
100
AcDbEntity
  8
LAY-10
  6
CONTINUOUS
 62
     7
100
AcDbLine
 10
277.9999999999889
 20
187.9965262093173
 30
0.0
 11
287.9999999999893
 21
187.9965262093173
 31
0.0
  0
ARC
  5
2B0
330
1F
100
AcDbEntity
  8
LAY-10
  6
CONTINUOUS
 62
     7
100
AcDbCircle
 10
277.9999999999889
 20
194.9965262093172
 30
0.0
 40
7.000000000000004
100
AcDbArc
 50
180.0
 51
270.0000000000002
  0
LINE
  5
2B1
330
1F
100
AcDbEntity
  8
LAY-10
  6
CONTINUOUS
 62
     7
100
AcDbLine
 10
275.9999999999898
 20
194.9965262093128
 30
0.0
 11
275.9999999999898
 21
209.9965262093125
 31
0.0
  0
LINE
  5
2B2
330
1F
100
AcDbEntity
  8
LAY-10
  6
CONTINUOUS
 62
     7
100
AcDbLine
 10
270.9999999999898
 20
194.9965262093128
 30
0.0
 11
270.9999999999898
 21
209.9965262093125
 31
0.0
  0
LINE
  5
2B3
330
1F
100
AcDbEntity
  8
LAY-10
  6
CONTINUOUS
 62
     7
100
AcDbLine
 10
270.999999999993
 20
215.9965262093174
 30
0.0
 11
275.9999999999923
 21
215.9965262093174
 31
0.0
  0
LINE
  5
2B4
330
1F
100
AcDbEntity
  8
LAY-10
  6
CONTINUOUS
 62
     7
100
AcDbLine
 10
270.4999999999916
 20
215.4965262093189
 30
0.0
 11
276.4999999999907
 21
215.4965262093189
 31
0.0
  0
LINE
  5
2B5
330
1F
100
AcDbEntity
  8
LAY-10
  6
CONTINUOUS
 62
     7
100
AcDbLine
 10
275.9999999999923
 20
217.9965262093086
 30
0.0
 11
275.9999999999923
 21
215.9965262093174
 31
0.0
  0
LINE
  5
2B6
330
1F
100
AcDbEntity
  8
LAY-10
  6
CONTINUOUS
 62
     7
100
AcDbLine
 10
270.999999999993
 20
217.9965262093086
 30
0.0
 11
270.999999999993
 21
215.9965262093174
 31
0.0
  0
LINE
  5
2B7
330
1F
100
AcDbEntity
  8
LAY-10
  6
CONTINUOUS
 62
     7
100
AcDbLine
 10
276.4999999999898
 20
215.4965262093228
 30
0.0
 11
275.9999999999898
 21
215.9965262093128
 31
0.0
  0
LINE
  5
2B8
330
1F
100
AcDbEntity
  8
LAY-10
  6
CONTINUOUS
 62
     7
100
AcDbLine
 10
270.9999999999898
 20
215.9965262093128
 30
0.0
 11
270.4999999999898
 21
215.4965262093228
 31
0.0
  0
LINE
  5
2B9
330
1F
100
AcDbEntity
  8
LAY-10
  6
CONTINUOUS
 62
     7
100
AcDbLine
 10
270.4999999999898
 20
215.4965262093228
 30
0.0
 11
270.4999999999898
 21
209.9965262093128
 31
0.0
  0
LINE
  5
2BA
330
1F
100
AcDbEntity
  8
LAY-10
  6
CONTINUOUS
 62
     7
100
AcDbLine
 10
276.4999999999898
 20
215.4965262093228
 30
0.0
 11
276.4999999999898
 21
209.9965262093128
 31
0.0
  0
LINE
  5
2BB
330
1F
100
AcDbEntity
  8
LAY-10
  6
CONTINUOUS
 62
     7
100
AcDbLine
 10
144.0000000000077
 20
217.9965262093086
 30
0.0
 11
144.0000000000077
 21
218.9965262093068
 31
0.0
  0
LINE
  5
2BC
330
1F
100
AcDbEntity
  8
LAY-10
  6
CONTINUOUS
 62
     7
100
AcDbLine
 10
149.000000000007
 20
217.9965262093086
 30
0.0
 11
149.000000000007
 21
218.9965262093079
 31
0.0
  0
LINE
  5
2BD
330
1F
100
AcDbEntity
  8
LAY-10
  6
CONTINUOUS
 62
     7
100
AcDbLine
 10
149.000000000007
 20
218.9965262093079
 30
0.0
 11
144.0000000000077
 21
218.9965262093079
 31
0.0
  0
LINE
  5
2BE
330
1F
100
AcDbEntity
  8
LAY-10
  6
CONTINUOUS
 62
     7
100
AcDbLine
 10
149.5000000000102
 20
217.4965262093079
 30
0.0
 11
143.5000000000102
 21
217.4965262093079
 31
0.0
  0
LINE
  5
2BF
330
1F
100
AcDbEntity
  8
LAY-10
  6
CONTINUOUS
 62
     7
100
AcDbLine
 10
149.0000000000102
 20
217.9965262093086
 30
0.0
 11
144.0000000000102
 21
217.9965262093086
 31
0.0
  0
LINE
  5
2C0
330
1F
100
AcDbEntity
  8
LAY-10
  6
CONTINUOUS
 62
     7
100
AcDbLine
 10
146.50000000001
 20
220.4399018822836
 30
0.0
 11
144.0000000000091
 21
218.996526209309
 31
0.0
  0
LINE
  5
2C1
330
1F
100
AcDbEntity
  8
LAY-10
  6
CONTINUOUS
 62
     7
100
AcDbLine
 10
146.5000000000105
 20
220.4399018822834
 30
0.0
 11
149.0000000000109
 21
218.996526209309
 31
0.0
  0
LINE
  5
2C2
330
1F
100
AcDbEntity
  8
LAY-10
  6
CONTINUOUS
 62
     7
100
AcDbLine
 10
132.0000000000107
 20
187.9965262093173
 30
0.0
 11
132.0000000000107
 21
192.9965262093172
 31
0.0
  0
LINE
  5
2C3
330
1F
100
AcDbEntity
  8
LAY-10
  6
CONTINUOUS
 62
     7
100
AcDbLine
 10
142.0000000000111
 20
192.9965262093172
 30
0.0
 11
132.0000000000107
 21
192.9965262093172
 31
0.0
  0
ARC
  5
2C4
330
1F
100
AcDbEntity
  8
LAY-10
  6
CONTINUOUS
 62
     7
100
AcDbCircle
 10
142.0000000000111
 20
194.9965262093172
 30
0.0
 40
2.0
100
AcDbArc
 50
270.0000000000001
 51
0.0
  0
LINE
  5
2C5
330
1F
100
AcDbEntity
  8
LAY-10
  6
CONTINUOUS
 62
     7
100
AcDbLine
 10
142.0000000000111
 20
187.9965262093173
 30
0.0
 11
132.0000000000107
 21
187.9965262093173
 31
0.0
  0
ARC
  5
2C6
330
1F
100
AcDbEntity
  8
LAY-10
  6
CONTINUOUS
 62
     7
100
AcDbCircle
 10
142.0000000000111
 20
194.9965262093172
 30
0.0
 40
7.000000000000004
100
AcDbArc
 50
270.0000000000001
 51
0.0
  0
LINE
  5
2C7
330
1F
100
AcDbEntity
  8
LAY-10
  6
CONTINUOUS
 62
     7
100
AcDbLine
 10
144.0000000000102
 20
194.9965262093128
 30
0.0
 11
144.0000000000102
 21
209.9965262093125
 31
0.0
  0
LINE
  5
2C8
330
1F
100
AcDbEntity
  8
LAY-10
  6
CONTINUOUS
 62
     7
100
AcDbLine
 10
149.0000000000102
 20
194.9965262093128
 30
0.0
 11
149.0000000000102
 21
209.9965262093125
 31
0.0
  0
LINE
  5
2C9
330
1F
100
AcDbEntity
  8
LAY-10
  6
CONTINUOUS
 62
     7
100
AcDbLine
 10
149.000000000007
 20
215.9965262093174
 30
0.0
 11
144.0000000000077
 21
215.9965262093174
 31
0.0
  0
LINE
  5
2CA
330
1F
100
AcDbEntity
  8
LAY-10
  6
CONTINUOUS
 62
     7
100
AcDbLine
 10
149.5000000000084
 20
215.4965262093189
 30
0.0
 11
143.5000000000093
 21
215.4965262093189
 31
0.0
  0
LINE
  5
2CB
330
1F
100
AcDbEntity
  8
LAY-10
  6
CONTINUOUS
 62
     7
100
AcDbLine
 10
144.0000000000077
 20
217.9965262093086
 30
0.0
 11
144.0000000000077
 21
215.9965262093174
 31
0.0
  0
LINE
  5
2CC
330
1F
100
AcDbEntity
  8
LAY-10
  6
CONTINUOUS
 62
     7
100
AcDbLine
 10
149.000000000007
 20
217.9965262093086
 30
0.0
 11
149.000000000007
 21
215.9965262093174
 31
0.0
  0
LINE
  5
2CD
330
1F
100
AcDbEntity
  8
LAY-10
  6
CONTINUOUS
 62
     7
100
AcDbLine
 10
143.5000000000102
 20
215.4965262093228
 30
0.0
 11
144.0000000000102
 21
215.9965262093128
 31
0.0
  0
LINE
  5
2CE
330
1F
100
AcDbEntity
  8
LAY-10
  6
CONTINUOUS
 62
     7
100
AcDbLine
 10
149.0000000000102
 20
215.9965262093128
 30
0.0
 11
149.5000000000102
 21
215.4965262093228
 31
0.0
  0
LINE
  5
2CF
330
1F
100
AcDbEntity
  8
LAY-10
  6
CONTINUOUS
 62
     7
100
AcDbLine
 10
149.5000000000102
 20
215.4965262093228
 30
0.0
 11
149.5000000000102
 21
209.9965262093128
 31
0.0
  0
LINE
  5
2D0
330
1F
100
AcDbEntity
  8
LAY-10
  6
CONTINUOUS
 62
     7
100
AcDbLine
 10
143.5000000000102
 20
215.4965262093228
 30
0.0
 11
143.5000000000102
 21
209.9965262093128
 31
0.0
  0
LINE
  5
2D1
330
1F
100
AcDbEntity
  8
LAY-10
  6
CONTINUOUS
 62
     7
100
AcDbLine
 10
426.8997334925329
 20
346.9999999999994
 30
0.0
 11
426.6792871574003
 21
347.220446335132
 31
0.0
  0
LINE
  5
2D2
330
1F
100
AcDbEntity
  8
LAY-10
  6
CONTINUOUS
 62
     7
100
AcDbLine
 10
429.7281606172791
 20
346.9999999999994
 30
0.0
 11
426.7281606172786
 21
349.9999999999999
 31
0.0
  0
LINE
  5
2D3
330
1F
100
AcDbEntity
  8
LAY-10
  6
CONTINUOUS
 62
     7
100
AcDbLine
 10
432.5565877420253
 20
346.9999999999994
 30
0.0
 11
429.5565877420248
 21
349.9999999999999
 31
0.0
  0
LINE
  5
2D4
330
1F
100
AcDbEntity
  8
LAY-10
  6
CONTINUOUS
 62
     7
100
AcDbLine
 10
435.3850148667715
 20
346.9999999999994
 30
0.0
 11
432.385014866771
 21
349.9999999999999
 31
0.0
  0
LINE
  5
2D5
330
1F
100
AcDbEntity
  8
LAY-10
  6
CONTINUOUS
 62
     7
100
AcDbLine
 10
438.2134419915176
 20
346.9999999999994
 30
0.0
 11
435.2134419915171
 21
349.9999999999999
 31
0.0
  0
LINE
  5
2D6
330
1F
100
AcDbEntity
  8
LAY-10
  6
CONTINUOUS
 62
     7
100
AcDbLine
 10
441.0418691162639
 20
346.9999999999994
 30
0.0
 11
438.0418691162633
 21
349.9999999999999
 31
0.0
  0
LINE
  5
2D7
330
1F
100
AcDbEntity
  8
LAY-10
  6
CONTINUOUS
 62
     7
100
AcDbLine
 10
443.8702962410101
 20
346.9999999999994
 30
0.0
 11
440.8702962410096
 21
349.9999999999999
 31
0.0
  0
LINE
  5
2D8
330
1F
100
AcDbEntity
  8
LAY-10
  6
CONTINUOUS
 62
     7
100
AcDbLine
 10
446.6987233657562
 20
346.9999999999994
 30
0.0
 11
443.6987233657557
 21
349.9999999999999
 31
0.0
  0
LINE
  5
2D9
330
1F
100
AcDbEntity
  8
LAY-10
  6
CONTINUOUS
 62
     7
100
AcDbLine
 10
449.5271504905024
 20
346.9999999999994
 30
0.0
 11
446.5271504905019
 21
349.9999999999999
 31
0.0
  0
LINE
  5
2DA
330
1F
100
AcDbEntity
  8
LAY-10
  6
CONTINUOUS
 62
     7
100
AcDbLine
 10
452.3555776152486
 20
346.9999999999994
 30
0.0
 11
449.3555776152481
 21
349.9999999999999
 31
0.0
  0
LINE
  5
2DB
330
1F
100
AcDbEntity
  8
LAY-10
  6
CONTINUOUS
 62
     7
100
AcDbLine
 10
455.1840047399948
 20
346.9999999999994
 30
0.0
 11
452.1840047399943
 21
349.9999999999999
 31
0.0
  0
LINE
  5
2DC
330
1F
100
AcDbEntity
  8
LAY-10
  6
CONTINUOUS
 62
     7
100
AcDbLine
 10
458.012431864741
 20
346.9999999999994
 30
0.0
 11
455.0124318647405
 21
349.9999999999999
 31
0.0
  0
LINE
  5
2DD
330
1F
100
AcDbEntity
  8
LAY-10
  6
CONTINUOUS
 62
     7
100
AcDbLine
 10
460.8408589894872
 20
346.9999999999994
 30
0.0
 11
457.8408589894867
 21
349.9999999999999
 31
0.0
  0
LINE
  5
2DE
330
1F
100
AcDbEntity
  8
LAY-10
  6
CONTINUOUS
 62
     7
100
AcDbLine
 10
463.6692861142334
 20
346.9999999999994
 30
0.0
 11
460.6692861142329
 21
349.9999999999999
 31
0.0
  0
LINE
  5
2DF
330
1F
100
AcDbEntity
  8
LAY-10
  6
CONTINUOUS
 62
     7
100
AcDbLine
 10
466.4977132389795
 20
346.9999999999994
 30
0.0
 11
463.497713238979
 21
349.9999999999999
 31
0.0
  0
LINE
  5
2E0
330
1F
100
AcDbEntity
  8
LAY-10
  6
CONTINUOUS
 62
     7
100
AcDbLine
 10
466.497713238977
 20
349.8284271247481
 30
0.0
 11
466.3261403637252
 21
349.9999999999999
 31
0.0
  0
LINE
  5
2E1
330
1F
100
AcDbEntity
  8
LAY-10
  6
CONTINUOUS
 62
     7
100
AcDbLine
 10
426.8997334925332
 20
449.9999999999991
 30
0.0
 11
426.6792871574006
 21
450.2204463351317
 31
0.0
  0
LINE
  5
2E2
330
1F
100
AcDbEntity
  8
LAY-10
  6
CONTINUOUS
 62
     7
100
AcDbLine
 10
429.7281606172794
 20
449.9999999999991
 30
0.0
 11
426.7281606172789
 21
452.9999999999995
 31
0.0
  0
LINE
  5
2E3
330
1F
100
AcDbEntity
  8
LAY-10
  6
CONTINUOUS
 62
     7
100
AcDbLine
 10
432.5565877420256
 20
449.9999999999991
 30
0.0
 11
429.5565877420251
 21
452.9999999999995
 31
0.0
  0
LINE
  5
2E4
330
1F
100
AcDbEntity
  8
LAY-10
  6
CONTINUOUS
 62
     7
100
AcDbLine
 10
435.3850148667718
 20
449.9999999999991
 30
0.0
 11
432.3850148667713
 21
452.9999999999995
 31
0.0
  0
LINE
  5
2E5
330
1F
100
AcDbEntity
  8
LAY-10
  6
CONTINUOUS
 62
     7
100
AcDbLine
 10
438.213441991518
 20
449.999999999999
 30
0.0
 11
435.2134419915175
 21
452.9999999999995
 31
0.0
  0
LINE
  5
2E6
330
1F
100
AcDbEntity
  8
LAY-10
  6
CONTINUOUS
 62
     7
100
AcDbLine
 10
441.0418691162641
 20
449.999999999999
 30
0.0
 11
438.0418691162637
 21
452.9999999999995
 31
0.0
  0
LINE
  5
2E7
330
1F
100
AcDbEntity
  8
LAY-10
  6
CONTINUOUS
 62
     7
100
AcDbLine
 10
443.8702962410104
 20
449.999999999999
 30
0.0
 11
440.8702962410098
 21
452.9999999999995
 31
0.0
  0
LINE
  5
2E8
330
1F
100
AcDbEntity
  8
LAY-10
  6
CONTINUOUS
 62
     7
100
AcDbLine
 10
446.6987233657566
 20
449.999999999999
 30
0.0
 11
443.6987233657561
 21
452.9999999999995
 31
0.0
  0
LINE
  5
2E9
330
1F
100
AcDbEntity
  8
LAY-10
  6
CONTINUOUS
 62
     7
100
AcDbLine
 10
449.5271504905027
 20
449.999999999999
 30
0.0
 11
446.5271504905022
 21
452.9999999999995
 31
0.0
  0
LINE
  5
2EA
330
1F
100
AcDbEntity
  8
LAY-10
  6
CONTINUOUS
 62
     7
100
AcDbLine
 10
452.3555776152489
 20
449.999999999999
 30
0.0
 11
449.3555776152484
 21
452.9999999999995
 31
0.0
  0
LINE
  5
2EB
330
1F
100
AcDbEntity
  8
LAY-10
  6
CONTINUOUS
 62
     7
100
AcDbLine
 10
455.1840047399951
 20
449.999999999999
 30
0.0
 11
452.1840047399946
 21
452.9999999999995
 31
0.0
  0
LINE
  5
2EC
330
1F
100
AcDbEntity
  8
LAY-10
  6
CONTINUOUS
 62
     7
100
AcDbLine
 10
458.0124318647413
 20
449.999999999999
 30
0.0
 11
455.0124318647408
 21
452.9999999999995
 31
0.0
  0
LINE
  5
2ED
330
1F
100
AcDbEntity
  8
LAY-10
  6
CONTINUOUS
 62
     7
100
AcDbLine
 10
460.8408589894875
 20
449.999999999999
 30
0.0
 11
457.840858989487
 21
452.9999999999995
 31
0.0
  0
LINE
  5
2EE
330
1F
100
AcDbEntity
  8
LAY-10
  6
CONTINUOUS
 62
     7
100
AcDbLine
 10
463.6692861142337
 20
449.999999999999
 30
0.0
 11
460.6692861142332
 21
452.9999999999995
 31
0.0
  0
LINE
  5
2EF
330
1F
100
AcDbEntity
  8
LAY-10
  6
CONTINUOUS
 62
     7
100
AcDbLine
 10
466.4977132389799
 20
449.999999999999
 30
0.0
 11
463.4977132389794
 21
452.9999999999995
 31
0.0
  0
LINE
  5
2F0
330
1F
100
AcDbEntity
  8
LAY-10
  6
CONTINUOUS
 62
     7
100
AcDbLine
 10
466.4977132389773
 20
452.8284271247478
 30
0.0
 11
466.3261403637256
 21
452.9999999999995
 31
0.0
  0
LINE
  5
2F1
330
1F
100
AcDbEntity
  8
LAY-10
  6
CONTINUOUS
 62
     7
100
AcDbLine
 10
424.1792871573971
 20
450.9999999999981
 30
0.0
 11
426.6792871573988
 21
453.4999999999998
 31
0.0
  0
LINE
  5
2F2
330
1F
100
AcDbEntity
  8
LAY-10
  6
CONTINUOUS
 62
     7
100
AcDbLine
 10
426.6792871573988
 20
453.4999999999998
 30
0.0
 11
428.6792871573992
 21
455.5000000000001
 31
0.0
  0
LINE
  5
2F3
330
1F
100
AcDbEntity
  8
LAY-10
  6
CONTINUOUS
 62
     7
100
AcDbLine
 10
428.093500719772
 20
453.4999999999998
 30
0.0
 11
430.0935007197723
 21
455.5000000000001
 31
0.0
  0
LINE
  5
2F4
330
1F
100
AcDbEntity
  8
LAY-10
  6
CONTINUOUS
 62
     7
100
AcDbLine
 10
429.507714282145
 20
453.4999999999998
 30
0.0
 11
431.5077142821453
 21
455.5000000000001
 31
0.0
  0
LINE
  5
2F5
330
1F
100
AcDbEntity
  8
LAY-10
  6
CONTINUOUS
 62
     7
100
AcDbLine
 10
430.9219278445181
 20
453.4999999999998
 30
0.0
 11
432.9219278445185
 21
455.5000000000001
 31
0.0
  0
LINE
  5
2F6
330
1F
100
AcDbEntity
  8
LAY-10
  6
CONTINUOUS
 62
     7
100
AcDbLine
 10
432.3361414068912
 20
453.4999999999998
 30
0.0
 11
434.3361414068916
 21
455.5000000000001
 31
0.0
  0
LINE
  5
2F7
330
1F
100
AcDbEntity
  8
LAY-10
  6
CONTINUOUS
 62
     7
100
AcDbLine
 10
433.7503549692643
 20
453.4999999999998
 30
0.0
 11
434.6792871574002
 21
454.4289321881357
 31
0.0
  0
LINE
  5
2F8
330
1F
100
AcDbEntity
  8
LAY-10
  6
CONTINUOUS
 62
     7
100
AcDbLine
 10
424.593500719772
 20
449.9999999999998
 30
0.0
 11
426.6792871573988
 21
452.0857864376267
 31
0.0
  0
LINE
  5
2F9
330
1F
100
AcDbEntity
  8
LAY-10
  6
CONTINUOUS
 62
     7
100
AcDbLine
 10
426.0077142821451
 20
449.9999999999998
 30
0.0
 11
426.6792871573988
 21
450.6715728752537
 31
0.0
  0
LINE
  5
2FA
330
1F
100
AcDbEntity
  8
LAY-10
  6
CONTINUOUS
 62
     7
100
AcDbLine
 10
424.1792871573971
 20
453.8284271247443
 30
0.0
 11
425.8508600326529
 21
455.5000000000001
 31
0.0
  0
LINE
  5
2FB
330
1F
100
AcDbEntity
  8
LAY-10
  6
CONTINUOUS
 62
     7
100
AcDbLine
 10
424.1792871573971
 20
452.4142135623712
 30
0.0
 11
427.265073595026
 21
455.5000000000001
 31
0.0
  0
LINE
  5
2FC
330
1F
100
AcDbEntity
  8
LAY-10
  6
CONTINUOUS
 62
     7
100
AcDbLine
 10
458.4977132389771
 20
455.3994949366098
 30
0.0
 11
458.5982183023671
 21
455.4999999999998
 31
0.0
  0
LINE
  5
2FD
330
1F
100
AcDbEntity
  8
LAY-10
  6
CONTINUOUS
 62
     7
100
AcDbLine
 10
458.4977132389771
 20
453.9852813742366
 30
0.0
 11
460.0124318647402
 21
455.4999999999998
 31
0.0
  0
LINE
  5
2FE
330
1F
100
AcDbEntity
  8
LAY-10
  6
CONTINUOUS
 62
     7
100
AcDbLine
 10
459.426645427113
 20
453.4999999999994
 30
0.0
 11
461.4266454271133
 21
455.4999999999998
 31
0.0
  0
LINE
  5
2FF
330
1F
100
AcDbEntity
  8
LAY-10
  6
CONTINUOUS
 62
     7
100
AcDbLine
 10
460.8408589894861
 20
453.4999999999994
 30
0.0
 11
462.8408589894864
 21
455.4999999999997
 31
0.0
  0
LINE
  5
300
330
1F
100
AcDbEntity
  8
LAY-10
  6
CONTINUOUS
 62
     7
100
AcDbLine
 10
462.2550725518591
 20
453.4999999999994
 30
0.0
 11
464.2550725518595
 21
455.4999999999998
 31
0.0
  0
LINE
  5
301
330
1F
100
AcDbEntity
  8
LAY-10
  6
CONTINUOUS
 62
     7
100
AcDbLine
 10
463.6692861142322
 20
453.4999999999994
 30
0.0
 11
465.6692861142326
 21
455.4999999999998
 31
0.0
  0
LINE
  5
302
330
1F
100
AcDbEntity
  8
LAY-10
  6
CONTINUOUS
 62
     7
100
AcDbLine
 10
465.0834996766054
 20
453.4999999999994
 30
0.0
 11
467.0834996766057
 21
455.4999999999998
 31
0.0
  0
LINE
  5
303
330
1F
100
AcDbEntity
  8
LAY-10
  6
CONTINUOUS
 62
     7
100
AcDbLine
 10
466.4977132389785
 20
453.4999999999994
 30
0.0
 11
468.4977132389788
 21
455.4999999999998
 31
0.0
  0
LINE
  5
304
330
1F
100
AcDbEntity
  8
LAY-10
  6
CONTINUOUS
 62
     7
100
AcDbLine
 10
466.4977132389785
 20
452.0857864376263
 30
0.0
 11
468.9977132389827
 21
454.5857864376306
 31
0.0
  0
LINE
  5
305
330
1F
100
AcDbEntity
  8
LAY-10
  6
CONTINUOUS
 62
     7
100
AcDbLine
 10
466.497713238981
 20
450.6715728752558
 30
0.0
 11
468.9977132389802
 21
453.1715728752549
 31
0.0
  0
LINE
  5
306
330
1F
100
AcDbEntity
  8
LAY-10
  6
CONTINUOUS
 62
     7
100
AcDbLine
 10
467.2403539260985
 20
450.0000000000001
 30
0.0
 11
468.9977132389802
 21
451.7573593128819
 31
0.0
  0
LINE
  5
307
330
1F
100
AcDbEntity
  8
LAY-10
  6
CONTINUOUS
 62
     7
100
AcDbLine
 10
468.6545674884716
 20
450.0000000000001
 30
0.0
 11
468.9977132389802
 21
450.3431457505088
 31
0.0
  0
LINE
  5
308
330
1F
100
AcDbEntity
  8
LAY-10
  6
CONTINUOUS
 62
     7
100
AcDbLine
 10
458.4977132389797
 20
345.5710678118661
 30
0.0
 11
459.4266454271129
 21
346.4999999999994
 31
0.0
  0
LINE
  5
309
330
1F
100
AcDbEntity
  8
LAY-10
  6
CONTINUOUS
 62
     7
100
AcDbLine
 10
458.8408589894883
 20
344.5000000000016
 30
0.0
 11
460.840858989486
 21
346.4999999999994
 31
0.0
  0
LINE
  5
30A
330
1F
100
AcDbEntity
  8
LAY-10
  6
CONTINUOUS
 62
     7
100
AcDbLine
 10
460.2550725518614
 20
344.5000000000016
 30
0.0
 11
462.2550725518591
 21
346.4999999999994
 31
0.0
  0
LINE
  5
30B
330
1F
100
AcDbEntity
  8
LAY-10
  6
CONTINUOUS
 62
     7
100
AcDbLine
 10
461.6692861142345
 20
344.5000000000016
 30
0.0
 11
463.6692861142322
 21
346.4999999999994
 31
0.0
  0
LINE
  5
30C
330
1F
100
AcDbEntity
  8
LAY-10
  6
CONTINUOUS
 62
     7
100
AcDbLine
 10
466.4977132389784
 20
349.3284271247455
 30
0.0
 11
467.1692861142341
 21
350.0000000000013
 31
0.0
  0
LINE
  5
30D
330
1F
100
AcDbEntity
  8
LAY-10
  6
CONTINUOUS
 62
     7
100
AcDbLine
 10
463.0834996766076
 20
344.5000000000016
 30
0.0
 11
465.0834996766054
 21
346.4999999999994
 31
0.0
  0
LINE
  5
30E
330
1F
100
AcDbEntity
  8
LAY-10
  6
CONTINUOUS
 62
     7
100
AcDbLine
 10
466.4977132389784
 20
347.9142135623725
 30
0.0
 11
468.5834996766046
 21
349.9999999999987
 31
0.0
  0
LINE
  5
30F
330
1F
100
AcDbEntity
  8
LAY-10
  6
CONTINUOUS
 62
     7
100
AcDbLine
 10
464.4977132389807
 20
344.5000000000016
 30
0.0
 11
468.9977132389802
 21
349.0000000000011
 31
0.0
  0
LINE
  5
310
330
1F
100
AcDbEntity
  8
LAY-10
  6
CONTINUOUS
 62
     7
100
AcDbLine
 10
465.9119268013538
 20
344.5000000000016
 30
0.0
 11
468.9977132389802
 21
347.585786437628
 31
0.0
  0
LINE
  5
311
330
1F
100
AcDbEntity
  8
LAY-10
  6
CONTINUOUS
 62
     7
100
AcDbLine
 10
467.3261403637269
 20
344.5000000000016
 30
0.0
 11
468.9977132389802
 21
346.1715728752549
 31
0.0
  0
LINE
  5
312
330
1F
100
AcDbEntity
  8
LAY-10
  6
CONTINUOUS
 62
     7
100
AcDbLine
 10
468.7403539260974
 20
344.499999999999
 30
0.0
 11
468.9977132389801
 21
344.7573593128818
 31
0.0
  0
LINE
  5
313
330
1F
100
AcDbEntity
  8
LAY-10
  6
CONTINUOUS
 62
     7
100
AcDbLine
 10
424.1792871574022
 20
349.6568542494956
 30
0.0
 11
424.5224329079057
 21
349.9999999999991
 31
0.0
  0
LINE
  5
314
330
1F
100
AcDbEntity
  8
LAY-10
  6
CONTINUOUS
 62
     7
100
AcDbLine
 10
424.1792871574023
 20
348.2426406871225
 30
0.0
 11
425.9366464702814
 21
350.0000000000016
 31
0.0
  0
LINE
  5
315
330
1F
100
AcDbEntity
  8
LAY-10
  6
CONTINUOUS
 62
     7
100
AcDbLine
 10
424.1792871574023
 20
346.8284271247494
 30
0.0
 11
426.6792871573988
 21
349.328427124746
 31
0.0
  0
LINE
  5
316
330
1F
100
AcDbEntity
  8
LAY-10
  6
CONTINUOUS
 62
     7
100
AcDbLine
 10
424.1792871574023
 20
345.4142135623763
 30
0.0
 11
426.6792871573988
 21
347.9142135623729
 31
0.0
  0
LINE
  5
317
330
1F
100
AcDbEntity
  8
LAY-10
  6
CONTINUOUS
 62
     7
100
AcDbLine
 10
427.5700609872582
 20
344.5623467051129
 30
0.0
 11
429.507714282145
 21
346.4999999999998
 31
0.0
  0
LINE
  5
318
330
1F
100
AcDbEntity
  8
LAY-10
  6
CONTINUOUS
 62
     7
100
AcDbLine
 10
428.9219278445178
 20
344.4999999999994
 30
0.0
 11
430.9219278445181
 21
346.4999999999998
 31
0.0
  0
LINE
  5
319
330
1F
100
AcDbEntity
  8
LAY-10
  6
CONTINUOUS
 62
     7
100
AcDbLine
 10
430.3361414068909
 20
344.4999999999994
 30
0.0
 11
432.3361414068912
 21
346.4999999999998
 31
0.0
  0
LINE
  5
31A
330
1F
100
AcDbEntity
  8
LAY-10
  6
CONTINUOUS
 62
     7
100
AcDbLine
 10
431.7503549692639
 20
344.4999999999994
 30
0.0
 11
433.7503549692643
 21
346.4999999999998
 31
0.0
  0
LINE
  5
31B
330
1F
100
AcDbEntity
  8
LAY-10
  6
CONTINUOUS
 62
     7
100
AcDbLine
 10
433.164568531637
 20
344.4999999999994
 30
0.0
 11
434.6792871574002
 21
346.0147186257626
 31
0.0
  0
LINE
  5
31C
330
1F
100
AcDbEntity
  8
LAY-10
  6
CONTINUOUS
 62
     7
100
AcDbLine
 10
434.5787820940101
 20
344.4999999999994
 30
0.0
 11
434.6792871574002
 21
344.6005050633894
 31
0.0
  0
LINE
  5
31D
330
1F
100
AcDbEntity
  8
LAY-10
  6
CONTINUOUS
 62
     7
100
AcDbLine
 10
424.679287157399
 20
344.4999999999999
 30
0.0
 11
426.6792871573988
 21
346.4999999999998
 31
0.0
  0
LINE
  5
31E
330
1F
100
AcDbEntity
  8
LAY-10
  6
CONTINUOUS
 62
     7
100
AcDbLine
 10
426.0935007197721
 20
344.4999999999999
 30
0.0
 11
428.0935007197719
 21
346.4999999999998
 31
0.0
  0
LINE
  5
31F
330
1F
100
AcDbEntity
  8
LAY-10
  6
CONTINUOUS
 62
     7
100
AcDbLine
 10
259.9999999999998
 20
174.9965262093178
 30
0.0
 11
259.9999999999999
 21
219.8149522908973
 31
0.0
  0
LINE
  5
320
330
1F
100
AcDbEntity
  8
LAY-10
  6
CONTINUOUS
 62
     7
100
AcDbLine
 10
429.8977132496559
 20
359.8766221220239
 30
0.0
 11
429.3377459846316
 21
353.4761637727235
 31
0.0
  0
LINE
  5
321
330
1F
100
AcDbEntity
  8
LAY-10
  6
CONTINUOUS
 62
     7
100
AcDbLine
 10
431.6583412773563
 20
361.6888370044771
 30
0.0
 11
460.0397412389801
 21
364.9999999999999
 31
0.0
  0
LINE
  5
322
330
1F
100
AcDbEntity
  8
LAY-10
  6
CONTINUOUS
 62
     7
100
AcDbLine
 10
408.9977132389801
 20
349.957862
 30
0.0
 11
418.0848689182669
 21
349.16283947768
 31
0.0
  0
LINE
  5
323
330
1F
100
AcDbEntity
  8
LAY-10
  6
CONTINUOUS
 62
     7
100
AcDbLine
 10
460.0397412389801
 20
369.0271302106997
 30
0.0
 11
427.9576166923582
 21
365.2842160570581
 31
0.0
  0
LINE
  5
324
330
1F
100
AcDbEntity
  8
LAY-10
  6
CONTINUOUS
 62
     7
100
AcDbLine
 10
426.1969886646579
 20
363.4720011746049
 30
0.0
 11
425.6408322467781
 21
357.1151010294132
 31
0.0
  0
LINE
  5
325
330
1F
100
AcDbEntity
  8
LAY-10
  6
CONTINUOUS
 62
     7
100
AcDbLine
 10
418.9977132389801
 20
348.1666447740361
 30
0.0
 11
418.9977132389801
 21
347.0
 31
0.0
  0
LINE
  5
326
330
1F
100
AcDbEntity
  8
LAY-10
  6
CONTINUOUS
 62
     7
100
AcDbLine
 10
424.9105574962325
 20
351.4298181781779
 30
0.0
 11
427.5196680663242
 21
351.6580857749467
 31
0.0
  0
LINE
  5
327
330
1F
100
AcDbEntity
  8
LAY-10
  6
CONTINUOUS
 62
     7
100
AcDbLine
 10
423.9977132389801
 20
347.4374433176296
 30
0.0
 11
423.9977132389801
 21
350.4336234800862
 31
0.0
  0
LINE
  5
328
330
1F
100
AcDbEntity
  8
LAY-10
  6
CONTINUOUS
 62
     7
100
AcDbLine
 10
418.9977132389801
 20
347.0
 30
0.0
 11
423.9977132389802
 21
347.4374433176296
 31
0.0
  0
LINE
  5
329
330
1F
100
AcDbEntity
  8
LAY-10
  6
CONTINUOUS
 62
     7
100
AcDbLine
 10
408.9977132389801
 20
354.0
 30
0.0
 11
423.8227543284708
 21
355.2970230316364
 31
0.0
  0
LINE
  5
32A
330
1F
100
AcDbEntity
  8
LAY-10
  6
CONTINUOUS
 62
     7
100
AcDbLine
 10
413.9977132389801
 20
355.353774491647
 30
0.0
 11
413.9977132389801
 21
368.0836688259825
 31
0.0
  0
LINE
  5
32B
330
1F
100
AcDbEntity
  8
LAY-10
  6
CONTINUOUS
 62
     7
100
AcDbLine
 10
414.9105574962325
 20
369.0798635240743
 30
0.0
 11
419.0099713754973
 21
369.4385157656108
 31
0.0
  0
LINE
  5
32C
330
1F
100
AcDbEntity
  8
LAY-10
  6
CONTINUOUS
 62
     7
100
AcDbLine
 10
419.5099713754973
 20
354.9005918049913
 30
0.0
 11
419.5099713754973
 21
369.4631484873618
 31
0.0
  0
ARC
  5
32D
330
1F
100
AcDbEntity
  8
LAY-10
  6
CONTINUOUS
 62
     7
100
AcDbCircle
 10
418.9663935041235
 20
369.9366131146566
 30
0.0
 40
0.5
100
AcDbArc
 50
275.0
 51
0.0
  0
ARC
  5
32E
330
1F
100
AcDbEntity
  8
LAY-10
  6
CONTINUOUS
 62
     7
100
AcDbCircle
 10
414.9977132389801
 20
368.0836688259825
 30
0.0
 40
1.0
100
AcDbArc
 50
94.99999999999972
 51
180.0
  0
ARC
  5
32F
330
1F
100
AcDbEntity
  8
LAY-10
  6
CONTINUOUS
 62
     7
100
AcDbCircle
 10
417.9977132389801
 20
348.1666447740361
 30
0.0
 40
1.0
100
AcDbArc
 50
0.0
 51
85.00000364993045
  0
ARC
  5
330
330
1F
100
AcDbEntity
  8
LAY-10
  6
CONTINUOUS
 62
     7
100
AcDbCircle
 10
424.9977132389801
 20
350.4336234800862
 30
0.0
 40
1.0
100
AcDbArc
 50
95.00000000000057
 51
180.0
  0
ARC
  5
331
330
1F
100
AcDbEntity
  8
LAY-10
  6
CONTINUOUS
 62
     7
100
AcDbCircle
 10
427.3453565808289
 20
353.6504751711302
 30
0.0
 40
2.0
100
AcDbArc
 50
275.0000000000002
 51
355.0000025044338
  0
ARC
  5
332
330
1F
100
AcDbEntity
  8
LAY-10
  6
CONTINUOUS
 62
     7
100
AcDbCircle
 10
423.6484428429754
 20
357.2894124278199
 30
0.0
 40
2.0
100
AcDbArc
 50
274.9999999999997
 51
355.0000025044338
  0
ARC
  5
333
330
1F
100
AcDbEntity
  8
LAY-10
  6
CONTINUOUS
 62
     7
100
AcDbCircle
 10
431.8901026534586
 20
359.7023107236172
 30
0.0
 40
2.0
100
AcDbArc
 50
96.65442438211639
 51
175.0000025044335
  0
ARC
  5
334
330
1F
100
AcDbEntity
  8
LAY-10
  6
CONTINUOUS
 62
     7
100
AcDbCircle
 10
428.1893780684605
 20
363.2976897761981
 30
0.0
 40
2.0
100
AcDbArc
 50
96.65442438211639
 51
175.0000025044335
  0
ARC
  5
335
330
1F
100
AcDbEntity
  8
LAY-10
  6
CONTINUOUS
 62
     7
100
AcDbCircle
 10
412.9977132389801
 20
355.353774491647
 30
0.0
 40
1.0
100
AcDbArc
 50
274.9999999999997
 51
0.0
  0
LINE
  5
336
330
1F
100
AcDbEntity
  8
LAY-10
  6
CONTINUOUS
 62
     7
100
AcDbLine
 10
429.8977132496559
 20
440.1233778779761
 30
0.0
 11
429.3377459846316
 21
446.5238362272767
 31
0.0
  0
LINE
  5
337
330
1F
100
AcDbEntity
  8
LAY-10
  6
CONTINUOUS
 62
     7
100
AcDbLine
 10
431.6583412773563
 20
438.3111629955229
 30
0.0
 11
460.0397412389801
 21
435.0000000000001
 31
0.0
  0
LINE
  5
338
330
1F
100
AcDbEntity
  8
LAY-10
  6
CONTINUOUS
 62
     7
100
AcDbLine
 10
408.9977132389801
 20
450.042138
 30
0.0
 11
418.0848689182669
 21
450.8371605223201
 31
0.0
  0
LINE
  5
339
330
1F
100
AcDbEntity
  8
LAY-10
  6
CONTINUOUS
 62
     7
100
AcDbLine
 10
460.0397412389801
 20
430.9728697893003
 30
0.0
 11
427.9576166923582
 21
434.715783942942
 31
0.0
  0
LINE
  5
33A
330
1F
100
AcDbEntity
  8
LAY-10
  6
CONTINUOUS
 62
     7
100
AcDbLine
 10
426.1969886646579
 20
436.5279988253952
 30
0.0
 11
425.6408322467781
 21
442.884898970587
 31
0.0
  0
LINE
  5
33B
330
1F
100
AcDbEntity
  8
LAY-10
  6
CONTINUOUS
 62
     7
100
AcDbLine
 10
418.9977132389801
 20
451.8333552259639
 30
0.0
 11
418.9977132389801
 21
453.0000000000001
 31
0.0
  0
LINE
  5
33C
330
1F
100
AcDbEntity
  8
LAY-10
  6
CONTINUOUS
 62
     7
100
AcDbLine
 10
424.9105574962325
 20
448.5701818218221
 30
0.0
 11
427.5196680663242
 21
448.3419142250534
 31
0.0
  0
LINE
  5
33D
330
1F
100
AcDbEntity
  8
LAY-10
  6
CONTINUOUS
 62
     7
100
AcDbLine
 10
423.9977132389801
 20
452.5625566823704
 30
0.0
 11
423.9977132389801
 21
449.5663765199139
 31
0.0
  0
LINE
  5
33E
330
1F
100
AcDbEntity
  8
LAY-10
  6
CONTINUOUS
 62
     7
100
AcDbLine
 10
418.9977132389801
 20
453.0
 30
0.0
 11
423.9977132389802
 21
452.5625566823704
 31
0.0
  0
LINE
  5
33F
330
1F
100
AcDbEntity
  8
LAY-10
  6
CONTINUOUS
 62
     7
100
AcDbLine
 10
408.9977132389801
 20
446.0000000000001
 30
0.0
 11
423.8227543284708
 21
444.7029769683637
 31
0.0
  0
LINE
  5
340
330
1F
100
AcDbEntity
  8
LAY-10
  6
CONTINUOUS
 62
     7
100
AcDbLine
 10
413.9977132389801
 20
444.646225508353
 30
0.0
 11
413.9977132389801
 21
431.9163311740175
 31
0.0
  0
LINE
  5
341
330
1F
100
AcDbEntity
  8
LAY-10
  6
CONTINUOUS
 62
     7
100
AcDbLine
 10
414.9105574962325
 20
430.9201364759257
 30
0.0
 11
419.0099713754973
 21
430.5614842343892
 31
0.0
  0
LINE
  5
342
330
1F
100
AcDbEntity
  8
LAY-10
  6
CONTINUOUS
 62
     7
100
AcDbLine
 10
419.5099713754973
 20
445.0994081950087
 30
0.0
 11
419.5099713754973
 21
430.5368515126382
 31
0.0
  0
ARC
  5
343
330
1F
100
AcDbEntity
  8
LAY-10
  6
CONTINUOUS
 62
     7
100
AcDbCircle
 10
418.9663935041235
 20
430.0633868853434
 30
0.0
 40
0.5
100
AcDbArc
 50
0.0
 51
85.00000000000028
  0
ARC
  5
344
330
1F
100
AcDbEntity
  8
LAY-10
  6
CONTINUOUS
 62
     7
100
AcDbCircle
 10
414.9977132389801
 20
431.9163311740175
 30
0.0
 40
1.0
100
AcDbArc
 50
180.0
 51
265.0000000000003
  0
ARC
  5
345
330
1F
100
AcDbEntity
  8
LAY-10
  6
CONTINUOUS
 62
     7
100
AcDbCircle
 10
417.9977132389801
 20
451.8333552259639
 30
0.0
 40
1.0
100
AcDbArc
 50
274.999996350069
 51
0.0
  0
ARC
  5
346
330
1F
100
AcDbEntity
  8
LAY-10
  6
CONTINUOUS
 62
     7
100
AcDbCircle
 10
424.9977132389801
 20
449.5663765199139
 30
0.0
 40
1.0
100
AcDbArc
 50
180.0
 51
265.0000000000003
  0
ARC
  5
347
330
1F
100
AcDbEntity
  8
LAY-10
  6
CONTINUOUS
 62
     7
100
AcDbCircle
 10
427.3453565808289
 20
446.3495248288699
 30
0.0
 40
2.0
100
AcDbArc
 50
4.999997495566499
 51
85.00000000000028
  0
ARC
  5
348
330
1F
100
AcDbEntity
  8
LAY-10
  6
CONTINUOUS
 62
     7
100
AcDbCircle
 10
423.6484428429754
 20
442.7105875721802
 30
0.0
 40
2.0
100
AcDbArc
 50
4.999997495566499
 51
85.00000000000028
  0
ARC
  5
349
330
1F
100
AcDbEntity
  8
LAY-10
  6
CONTINUOUS
 62
     7
100
AcDbCircle
 10
431.8901026534586
 20
440.2976892763828
 30
0.0
 40
2.0
100
AcDbArc
 50
184.9999974955665
 51
263.345575617884
  0
ARC
  5
34A
330
1F
100
AcDbEntity
  8
LAY-10
  6
CONTINUOUS
 62
     7
100
AcDbCircle
 10
428.1893780684605
 20
436.702310223802
 30
0.0
 40
2.0
100
AcDbArc
 50
184.9999974955665
 51
263.345575617884
  0
ARC
  5
34B
330
1F
100
AcDbEntity
  8
LAY-10
  6
CONTINUOUS
 62
     7
100
AcDbCircle
 10
412.9977132389801
 20
444.646225508353
 30
0.0
 40
1.0
100
AcDbArc
 50
0.0
 51
85.00000000000028
  0
LINE
  5
34C
330
1F
100
AcDbEntity
  8
LAY-10
  6
CONTINUOUS
 62
     7
100
AcDbLine
 10
460.0397412389801
 20
434.9999999999999
 30
0.0
 11
460.0397412389801
 21
364.9999999999999
 31
0.0
  0
LINE
  5
34D
330
1F
100
AcDbEntity
  8
LAY-10
  6
CONTINUOUS
 62
     7
100
AcDbLine
 10
419.2915246734706
 20
369.786964
 30
0.0
 11
419.2915246734706
 21
430.213036
 31
0.0
  0
LINE
  5
34E
330
1F
100
AcDbEntity
  8
LAY-10
  6
CONTINUOUS
 62
     7
100
AcDbLine
 10
420.0099713754973
 20
354.9634477467663
 30
0.0
 11
420.0099713754973
 21
445.0365522532337
 31
0.0
  0
LINE
  5
34F
330
1F
100
AcDbEntity
  8
LAY-10
  6
CONTINUOUS
 62
     7
100
AcDbLine
 10
426.3390157759616
 20
365.0953793024886
 30
0.0
 11
426.3390157759616
 21
434.90462069751
 31
0.0
  0
LINE
  5
350
330
1F
100
AcDbEntity
  8
LAY-10
  6
CONTINUOUS
 62
     7
100
AcDbLine
 10
434.679287157399
 20
344.5
 30
0.0
 11
434.679287157399
 21
346.9999999999977
 31
0.0
  0
LINE
  5
351
330
1F
100
AcDbEntity
  8
LAY-10
  6
CONTINUOUS
 62
     7
100
AcDbLine
 10
426.679287157399
 20
346.5
 30
0.0
 11
434.679287157399
 21
346.5
 31
0.0
  0
LINE
  5
352
330
1F
100
AcDbEntity
  8
LAY-10
  6
CONTINUOUS
 62
     7
100
AcDbLine
 10
468.9977132389811
 20
350.0000000000002
 30
0.0
 11
424.1792871574016
 21
350.0000000000002
 31
0.0
  0
LINE
  5
353
330
1F
100
AcDbEntity
  8
LAY-10
  6
CONTINUOUS
 62
     7
100
AcDbLine
 10
458.497713238979
 20
344.4999999999999
 30
0.0
 11
458.497713238979
 21
346.9999999999977
 31
0.0
  0
LINE
  5
354
330
1F
100
AcDbEntity
  8
LAY-10
  6
CONTINUOUS
 62
     7
100
AcDbLine
 10
468.997713238979
 20
344.4999999999999
 30
0.0
 11
458.497713238979
 21
344.4999999999999
 31
0.0
  0
LINE
  5
355
330
1F
100
AcDbEntity
  8
LAY-10
  6
CONTINUOUS
 62
     7
100
AcDbLine
 10
466.497713238979
 20
346.5
 30
0.0
 11
458.497713238979
 21
346.5
 31
0.0
  0
LINE
  5
356
330
1F
100
AcDbEntity
  8
LAY-10
  6
CONTINUOUS
 62
     7
100
AcDbLine
 10
466.497713238979
 20
347.0000000000001
 30
0.0
 11
426.679287157399
 21
347.0000000000001
 31
0.0
  0
LINE
  5
357
330
1F
100
AcDbEntity
  8
LAY-10
  6
CONTINUOUS
 62
     7
100
AcDbLine
 10
434.679287157399
 20
455.5
 30
0.0
 11
434.679287157399
 21
453.0000000000023
 31
0.0
  0
LINE
  5
358
330
1F
100
AcDbEntity
  8
LAY-10
  6
CONTINUOUS
 62
     7
100
AcDbLine
 10
426.679287157399
 20
453.5
 30
0.0
 11
434.679287157399
 21
453.5
 31
0.0
  0
LINE
  5
359
330
1F
100
AcDbEntity
  8
LAY-10
  6
CONTINUOUS
 62
     7
100
AcDbLine
 10
458.497713238979
 20
455.5
 30
0.0
 11
458.497713238979
 21
453.0000000000023
 31
0.0
  0
LINE
  5
35A
330
1F
100
AcDbEntity
  8
LAY-10
  6
CONTINUOUS
 62
     7
100
AcDbLine
 10
468.997713238979
 20
455.5000000000001
 30
0.0
 11
458.497713238979
 21
455.5000000000001
 31
0.0
  0
LINE
  5
35B
330
1F
100
AcDbEntity
  8
LAY-10
  6
CONTINUOUS
 62
     7
100
AcDbLine
 10
466.497713238979
 20
453.4999999999999
 30
0.0
 11
458.497713238979
 21
453.4999999999999
 31
0.0
  0
LINE
  5
35C
330
1F
100
AcDbEntity
  8
LAY-10
  6
CONTINUOUS
 62
     7
100
AcDbLine
 10
468.9977132389811
 20
455.5000000000001
 30
0.0
 11
468.9977132389811
 21
344.4999999999999
 31
0.0
  0
LINE
  5
35D
330
1F
100
AcDbEntity
  8
LAY-10
  6
CONTINUOUS
 62
     7
100
AcDbLine
 10
466.497713238979
 20
346.4999999999999
 30
0.0
 11
466.497713238979
 21
453.4999999999999
 31
0.0
  0
LINE
  5
35E
330
1F
100
AcDbEntity
  8
LAY-10
  6
CONTINUOUS
 62
     7
100
AcDbLine
 10
468.9977132389811
 20
449.9999999999998
 30
0.0
 11
426.679287157399
 21
449.9999999999999
 31
0.0
  0
LINE
  5
35F
330
1F
100
AcDbEntity
  8
LAY-10
  6
CONTINUOUS
 62
     7
100
AcDbLine
 10
466.497713238979
 20
452.9999999999998
 30
0.0
 11
426.679287157399
 21
452.9999999999999
 31
0.0
  0
LINE
  5
360
330
1F
100
AcDbEntity
  8
LAY-10
  6
CONTINUOUS
 62
     7
100
AcDbLine
 10
426.679287157399
 20
346.5
 30
0.0
 11
426.679287157399
 21
351.5845619723721
 31
0.0
  0
LINE
  5
361
330
1F
100
AcDbEntity
  8
LAY-10
  6
CONTINUOUS
 62
     7
100
AcDbLine
 10
424.1792871574
 20
344.4999999999999
 30
0.0
 11
434.679287157399
 21
344.4999999999999
 31
0.0
  0
LINE
  5
362
330
1F
100
AcDbEntity
  8
LAY-10
  6
CONTINUOUS
 62
     7
100
AcDbLine
 10
424.1792871574016
 20
351.0082353047052
 30
0.0
 11
424.1792871574016
 21
344.4999999999999
 31
0.0
  0
LINE
  5
363
330
1F
100
AcDbEntity
  8
LAY-10
  6
CONTINUOUS
 62
     7
100
AcDbLine
 10
468.9977132389811
 20
449.9999999999998
 30
0.0
 11
424.1792871574016
 21
449.9999999999998
 31
0.0
  0
LINE
  5
364
330
1F
100
AcDbEntity
  8
LAY-10
  6
CONTINUOUS
 62
     7
100
AcDbLine
 10
426.679287157399
 20
453.5
 30
0.0
 11
426.679287157399
 21
448.4154380276279
 31
0.0
  0
LINE
  5
365
330
1F
100
AcDbEntity
  8
LAY-10
  6
CONTINUOUS
 62
     7
100
AcDbLine
 10
424.179287157397
 20
455.5000000000001
 30
0.0
 11
434.679287157399
 21
455.5000000000001
 31
0.0
  0
LINE
  5
366
330
1F
100
AcDbEntity
  8
LAY-10
  6
CONTINUOUS
 62
     7
100
AcDbLine
 10
424.179287157397
 20
448.9917646953013
 30
0.0
 11
424.179287157397
 21
455.5000000000001
 31
0.0
  0
LINE
  5
367
330
1F
100
AcDbEntity
  8
LAY-10
  6
CONTINUOUS
 62
     7
100
AcDbLine
 10
390.8007312064579
 20
399.1800992561978
 30
0.0
 11
413.9997386444999
 21
401.5000000000019
 31
0.0
  0
LINE
  5
368
330
1F
100
AcDbEntity
  8
LAY-10
  6
CONTINUOUS
 62
     7
100
AcDbLine
 10
413.9997386444999
 20
388.5000000000013
 30
0.0
 11
390.8007312064579
 21
390.8199007438054
 31
0.0
  0
LINE
  5
369
330
1F
100
AcDbEntity
  8
LAY-10
  6
CONTINUOUS
 62
     7
100
AcDbLine
 10
390.8007312064579
 20
421.1800992561975
 30
0.0
 11
413.9997386444999
 21
423.5000000000017
 31
0.0
  0
ARC
  5
36A
330
1F
100
AcDbEntity
  8
LAY-10
  6
CONTINUOUS
 62
     7
100
AcDbCircle
 10
390.9997386444999
 20
419.1900248757776
 30
0.0
 40
2.0
100
AcDbArc
 50
95.71059313750064
 51
180.0
  0
LINE
  5
36B
330
1F
100
AcDbEntity
  8
LAY-10
  6
CONTINUOUS
 62
     7
100
AcDbLine
 10
413.9997386444999
 20
410.500000000001
 30
0.0
 11
390.8007312064579
 21
412.8199007438052
 31
0.0
  0
ARC
  5
36C
330
1F
100
AcDbEntity
  8
LAY-10
  6
CONTINUOUS
 62
     7
100
AcDbCircle
 10
390.9997386444999
 20
414.8099751242252
 30
0.0
 40
2.0
100
AcDbArc
 50
180.0
 51
264.2894068624994
  0
ARC
  5
36D
330
1F
100
AcDbEntity
  8
LAY-10
  6
CONTINUOUS
 62
     7
100
AcDbCircle
 10
390.9997386444998
 20
397.1900248757779
 30
0.0
 40
2.0
100
AcDbArc
 50
95.71059313750064
 51
180.0
  0
ARC
  5
36E
330
1F
100
AcDbEntity
  8
LAY-10
  6
CONTINUOUS
 62
     7
100
AcDbCircle
 10
390.9997386444998
 20
392.8099751242255
 30
0.0
 40
2.0
100
AcDbArc
 50
180.0
 51
264.2894068624994
  0
LINE
  5
36F
330
1F
100
AcDbEntity
  8
LAY-10
  6
CONTINUOUS
 62
     7
100
AcDbLine
 10
408.9997386444999
 20
389.0000000000013
 30
0.0
 11
408.9997386444999
 21
401.0000000000019
 31
0.0
  0
LINE
  5
370
330
1F
100
AcDbEntity
  8
LAY-10
  6
CONTINUOUS
 62
     7
100
AcDbLine
 10
408.9997386444999
 20
411.000000000001
 30
0.0
 11
408.9997386444999
 21
423.0000000000017
 31
0.0
  0
LINE
  5
371
330
1F
100
AcDbEntity
  8
LAY-10
  6
CONTINUOUS
 62
     7
100
AcDbLine
 10
390.8015463476408
 20
399.8827624051039
 30
0.0
 11
413.9997386444987
 21
402.2026993775808
 31
0.0
  0
ARC
  5
372
330
1F
100
AcDbEntity
  8
LAY-10
  6
CONTINUOUS
 62
     7
100
AcDbCircle
 10
391.0005637863226
 20
397.8926890247733
 30
0.0
 40
2.0
100
AcDbArc
 50
95.71088106372225
 51
179.9901719435754
  0
ARC
  5
373
330
1F
100
AcDbEntity
  8
LAY-10
  6
CONTINUOUS
 62
     7
100
AcDbCircle
 10
391.0005637863226
 20
392.1073109752306
 30
0.0
 40
2.0
100
AcDbArc
 50
180.0098280565647
 51
264.2891189362777
  0
LINE
  5
374
330
1F
100
AcDbEntity
  8
LAY-10
  6
CONTINUOUS
 62
     7
100
AcDbLine
 10
390.8015463476408
 20
390.1172375949
 30
0.0
 11
413.9997386444987
 21
387.7973006224234
 31
0.0
  0
LINE
  5
375
330
1F
100
AcDbEntity
  8
LAY-10
  6
CONTINUOUS
 62
     7
100
AcDbLine
 10
390.8015463476408
 20
421.8827624051037
 30
0.0
 11
413.9997386444987
 21
424.2026993775805
 31
0.0
  0
ARC
  5
376
330
1F
100
AcDbEntity
  8
LAY-10
  6
CONTINUOUS
 62
     7
100
AcDbCircle
 10
391.0005637863226
 20
419.8926890247731
 30
0.0
 40
2.0
100
AcDbArc
 50
95.71088106372225
 51
179.9901719435754
  0
ARC
  5
377
330
1F
100
AcDbEntity
  8
LAY-10
  6
CONTINUOUS
 62
     7
100
AcDbCircle
 10
391.0005637863226
 20
414.1073109752303
 30
0.0
 40
2.0
100
AcDbArc
 50
180.0098280565647
 51
264.2891189362777
  0
LINE
  5
378
330
1F
100
AcDbEntity
  8
LAY-10
  6
CONTINUOUS
 62
     7
100
AcDbLine
 10
390.8015463476408
 20
412.1172375948997
 30
0.0
 11
413.9997386444987
 21
409.7973006224232
 31
0.0
  0
LINE
  5
379
330
1F
100
AcDbEntity
  8
LAY-10
  6
CONTINUOUS
 62
     7
100
AcDbLine
 10
383.9999999999998
 20
421.9999999999999
 30
0.0
 11
388.9999999999998
 21
422.4374433176295
 31
0.0
  0
LINE
  5
37A
330
1F
100
AcDbEntity
  8
LAY-10
  6
CONTINUOUS
 62
     7
100
AcDbLine
 10
408.9997386444999
 20
444.4999999999994
 30
0.0
 11
413.9997386444999
 21
444.0625559999995
 31
0.0
  0
ARC
  5
37B
330
1F
100
AcDbEntity
  8
LAY-10
  6
CONTINUOUS
 62
     7
100
AcDbCircle
 10
407.0089925428804
 20
436.2054380873549
 30
0.0
 40
2.0
100
AcDbArc
 50
279.0902769999994
 51
0.0
  0
ARC
  5
37C
330
1F
100
AcDbEntity
  8
LAY-10
  6
CONTINUOUS
 62
     7
100
AcDbCircle
 10
386.9999999999998
 20
427.940403464056
 30
0.0
 40
3.0
100
AcDbArc
 50
99.09027789685862
 51
180.0
  0
LINE
  5
37D
330
1F
100
AcDbEntity
  8
LAY-10
  6
CONTINUOUS
 62
     7
100
AcDbLine
 10
413.9997386444999
 20
435.2985194634526
 30
0.0
 11
386.5260284462166
 21
430.9027253517318
 31
0.0
  0
LINE
  5
37E
330
1F
100
AcDbEntity
  8
LAY-10
  6
CONTINUOUS
 62
     7
100
AcDbLine
 10
390.6840189641444
 20
426.5044083329745
 30
0.0
 11
408.1056722699939
 21
429.2918731662857
 31
0.0
  0
LINE
  5
37F
330
1F
100
AcDbEntity
  8
LAY-10
  6
CONTINUOUS
 62
     7
100
AcDbLine
 10
408.9997386444999
 20
436.2054380873549
 30
0.0
 11
408.9997386444999
 21
444.4999999999994
 31
0.0
  0
ARC
  5
380
330
1F
100
AcDbEntity
  8
LAY-10
  6
CONTINUOUS
 62
     7
100
AcDbCircle
 10
406.9997386444999
 20
436.2039575708631
 30
0.0
 40
7.0
100
AcDbArc
 50
279.0902778968553
 51
0.0
  0
ARC
  5
381
330
1F
100
AcDbEntity
  8
LAY-10
  6
CONTINUOUS
 62
     7
100
AcDbCircle
 10
390.9999999999998
 20
424.5295270745239
 30
0.0
 40
2.0
100
AcDbArc
 50
99.09027789685558
 51
180.0
  0
LINE
  5
382
330
1F
100
AcDbEntity
  8
LAY-10
  6
CONTINUOUS
 62
     7
100
AcDbLine
 10
408.9997386444999
 20
355.4999999999998
 30
0.0
 11
413.9997386444999
 21
355.9374439999997
 31
0.0
  0
ARC
  5
383
330
1F
100
AcDbEntity
  8
LAY-10
  6
CONTINUOUS
 62
     7
100
AcDbCircle
 10
407.0089925428803
 20
363.7945619126443
 30
0.0
 40
2.0
100
AcDbArc
 50
0.0
 51
80.90972300000034
  0
LINE
  5
384
330
1F
100
AcDbEntity
  8
LAY-10
  6
CONTINUOUS
 62
     7
100
AcDbLine
 10
413.9997386444999
 20
364.701480536547
 30
0.0
 11
386.5260284462166
 21
369.0972746482674
 31
0.0
  0
ARC
  5
385
330
1F
100
AcDbEntity
  8
LAY-10
  6
CONTINUOUS
 62
     7
100
AcDbCircle
 10
386.9999999999998
 20
372.0595965359436
 30
0.0
 40
3.0
100
AcDbArc
 50
180.0
 51
260.9097221031446
  0
LINE
  5
386
330
1F
100
AcDbEntity
  8
LAY-10
  6
CONTINUOUS
 62
     7
100
AcDbLine
 10
408.9997386444999
 20
355.4999999999998
 30
0.0
 11
408.9997386444999
 21
363.7945619126443
 31
0.0
  0
LINE
  5
387
330
1F
100
AcDbEntity
  8
LAY-10
  6
CONTINUOUS
 62
     7
100
AcDbLine
 10
408.1056722699938
 20
370.7081268337138
 30
0.0
 11
390.6840189641444
 21
373.4955916670247
 31
0.0
  0
LINE
  5
388
330
1F
100
AcDbEntity
  8
LAY-10
  6
CONTINUOUS
 62
     7
100
AcDbLine
 10
390.6840189641445
 20
377.6850080864182
 30
0.0
 11
408.1056722699938
 21
374.8975432531073
 31
0.0
  0
ARC
  5
389
330
1F
100
AcDbEntity
  8
LAY-10
  6
CONTINUOUS
 62
     7
100
AcDbCircle
 10
406.9997386444999
 20
363.7960424291364
 30
0.0
 40
7.0
100
AcDbArc
 50
0.0
 51
80.90972210314561
  0
ARC
  5
38A
330
1F
100
AcDbEntity
  8
LAY-10
  6
CONTINUOUS
 62
     7
100
AcDbCircle
 10
406.9997386444999
 20
367.9854588485299
 30
0.0
 40
7.0
100
AcDbArc
 50
0.0
 51
80.90972210314561
  0
ARC
  5
38B
330
1F
100
AcDbEntity
  8
LAY-10
  6
CONTINUOUS
 62
     7
100
AcDbCircle
 10
390.9999999999998
 20
379.6598893448688
 30
0.0
 40
2.0
100
AcDbArc
 50
180.0
 51
260.9097221031463
  0
ARC
  5
38C
330
1F
100
AcDbEntity
  8
LAY-10
  6
CONTINUOUS
 62
     7
100
AcDbCircle
 10
390.9999999999998
 20
375.4704729254754
 30
0.0
 40
2.0
100
AcDbArc
 50
180.0
 51
260.9097221031446
  0
LINE
  5
38D
330
1F
100
AcDbEntity
  8
LAY-10
  6
CONTINUOUS
 62
     7
100
AcDbLine
 10
383.9999999999998
 20
379.9999999999998
 30
0.0
 11
388.9999999999998
 21
379.5625566823701
 31
0.0
  0
LINE
  5
38E
330
1F
100
AcDbEntity
  8
LAY-10
  6
CONTINUOUS
 62
     7
100
AcDbLine
 10
413.9997386444999
 20
355.9374439999997
 30
0.0
 11
413.9997386444999
 21
444.0625559999995
 31
0.0
  0
LINE
  5
38F
330
1F
100
AcDbEntity
  8
LAY-10
  6
CONTINUOUS
 62
     7
100
AcDbLine
 10
383.9999999999998
 20
372.0595965359436
 30
0.0
 11
383.9999999999998
 21
427.940403464056
 31
0.0
  0
LINE
  5
390
330
1F
100
AcDbEntity
  8
LAY-10
  6
CONTINUOUS
 62
     7
100
AcDbLine
 10
388.9999999999998
 20
431.29856084356
 30
0.0
 11
388.9999999999998
 21
368.7014391564393
 31
0.0
  0
LINE
  5
391
330
1F
100
AcDbEntity
  8
LAY-10
  6
CONTINUOUS
 62
     7
100
AcDbLine
 10
408.9977132389801
 20
450.0
 30
0.0
 11
408.9977132389801
 21
446.0
 31
0.0
  0
LINE
  5
392
330
1F
100
AcDbEntity
  8
LAY-10
  6
CONTINUOUS
 62
     7
100
AcDbLine
 10
408.9977132389801
 20
354.0
 30
0.0
 11
408.9977132389801
 21
349.957862
 31
0.0
  0
ARC
  5
393
330
1F
100
AcDbEntity
  8
LAY-10
  6
CONTINUOUS
 62
     7
100
AcDbCircle
 10
411.3034737906811
 20
362.0000000000001
 30
0.0
 40
6.3
100
AcDbArc
 50
141.3178125465012
 51
174.5349762001022
  0
LINE
  5
394
330
1F
100
AcDbEntity
  8
LAY-10
  6
CONTINUOUS
 62
     7
100
AcDbLine
 10
405.032110302581
 20
362.5999999999999
 30
0.0
 11
407.503473790681
 21
362.5999999999999
 31
0.0
  0
LINE
  5
395
330
1F
100
AcDbEntity
  8
LAY-10
  6
CONTINUOUS
 62
     7
100
AcDbLine
 10
407.503473790681
 20
362.5999999999999
 30
0.0
 11
407.503473790681
 21
361.3999999999999
 31
0.0
  0
LINE
  5
396
330
1F
100
AcDbEntity
  8
LAY-10
  6
CONTINUOUS
 62
     7
100
AcDbLine
 10
405.032110302581
 20
361.3999999999999
 30
0.0
 11
407.503473790681
 21
361.3999999999999
 31
0.0
  0
ARC
  5
397
330
1F
100
AcDbEntity
  8
LAY-10
  6
CONTINUOUS
 62
     7
100
AcDbCircle
 10
411.3034737906811
 20
362.0000000000001
 30
0.0
 40
6.3
100
AcDbArc
 50
185.4650237999102
 51
218.6821874534921
  0
ARC
  5
398
330
1F
100
AcDbEntity
  8
LAY-10
  6
CONTINUOUS
 62
     7
100
AcDbCircle
 10
409.1177244912811
 20
360.2499999999999
 30
0.0
 40
3.5
100
AcDbArc
 50
218.6821874534872
 51
268.1293582694076
  0
LINE
  5
399
330
1F
100
AcDbEntity
  8
LAY-10
  6
CENTER
 62
     2
100
AcDbLine
 10
210.0
 20
263.0042162093192
 30
0.0
 11
210.0
 21
170.8000000000006
 31
0.0
  0
LINE
  5
39A
330
1F
100
AcDbEntity
  8
LAY-10
  6
CENTER
 62
     2
100
AcDbLine
 10
146.0
 20
361.9999999999999
 30
0.0
 11
158.7
 21
361.9999999999999
 31
0.0
  0
LINE
  5
39B
330
1F
100
AcDbEntity
  8
LAY-10
  6
CENTER
 62
     2
100
AcDbLine
 10
152.021069
 20
356.1000000000001
 30
0.0
 11
152.021069
 21
368.7
 31
0.0
  0
LINE
  5
39C
330
1F
100
AcDbEntity
  8
LAY-10
  6
CENTER
 62
     2
100
AcDbLine
 10
290.6125030000001
 20
399.9999999999999
 30
0.0
 11
130.012503
 21
399.9999999999999
 31
0.0
  0
LINE
  5
39D
330
1F
100
AcDbEntity
  8
LAY-10
  6
CENTER
 62
     2
100
AcDbLine
 10
273.8999999999999
 20
438.0000000000001
 30
0.0
 11
261.5
 21
438.0000000000001
 31
0.0
  0
LINE
  5
39E
330
1F
100
AcDbEntity
  8
LAY-10
  6
CENTER
 62
     2
100
AcDbLine
 10
267.978931
 20
443.9
 30
0.0
 11
267.978931
 21
431.1000000000001
 31
0.0
  0
LINE
  5
39F
330
1F
100
AcDbEntity
  8
LAY-10
  6
CENTER
 62
     2
100
AcDbLine
 10
210.0
 20
458.3
 30
0.0
 11
210.0
 21
341.8829809999999
 31
0.0
  0
LINE
  5
3A0
330
1F
100
AcDbEntity
  8
LAY-10
  6
CENTER
 62
     2
100
AcDbLine
 10
289.1999999999887
 20
190.4965262093184
 30
0.0
 11
277.9999999999898
 21
190.4965262093184
 31
0.0
  0
ARC
  5
3A1
330
1F
100
AcDbEntity
  8
LAY-10
  6
CENTER
 62
     2
100
AcDbCircle
 10
277.9999999999898
 20
194.9965262093184
 30
0.0
 40
4.5
100
AcDbArc
 50
180.0
 51
270.0000000000002
  0
LINE
  5
3A2
330
1F
100
AcDbEntity
  8
LAY-10
  6
CENTER
 62
     2
100
AcDbLine
 10
273.4999999999901
 20
221.1978849688027
 30
0.0
 11
273.4999999999901
 21
194.9965262093184
 31
0.0
  0
LINE
  5
3A3
330
1F
100
AcDbEntity
  8
LAY-10
  6
CENTER
 62
     2
100
AcDbLine
 10
130.8000000000114
 20
190.4965262093184
 30
0.0
 11
142.0000000000102
 21
190.4965262093184
 31
0.0
  0
ARC
  5
3A4
330
1F
100
AcDbEntity
  8
LAY-10
  6
CENTER
 62
     2
100
AcDbCircle
 10
142.0000000000102
 20
194.9965262093184
 30
0.0
 40
4.5
100
AcDbArc
 50
270.0000000000002
 51
0.0
  0
LINE
  5
3A5
330
1F
100
AcDbEntity
  8
LAY-10
  6
CENTER
 62
     2
100
AcDbLine
 10
146.50000000001
 20
221.1978849688027
 30
0.0
 11
146.50000000001
 21
194.9965262093184
 31
0.0
  0
LINE
  5
3A6
330
1F
100
AcDbEntity
  8
LAY-10
  6
CENTER
 62
     2
100
AcDbLine
 10
379.0
 20
400.0
 30
0.0
 11
473.99771323898
 21
399.9999999999999
 31
0.0
  0
LINE
  5
3A7
330
1F
100
AcDbEntity
  8
LAY-10
  6
CONTINUOUS
 62
     7
100
AcDbLine
 10
276.4999999999907
 20
217.4965262093079
 30
0.0
 11
275.9999999999923
 21
217.9965262093086
 31
0.0
  0
LINE
  5
3A8
330
1F
100
AcDbEntity
  8
LAY-10
  6
CONTINUOUS
 62
     7
100
AcDbLine
 10
270.4999999999916
 20
217.4965262093079
 30
0.0
 11
270.999999999993
 21
217.9965262093086
 31
0.0
  0
LINE
  5
3A9
330
1F
100
AcDbEntity
  8
LAY-10
  6
CONTINUOUS
 62
     7
100
AcDbLine
 10
276.4999999999907
 20
217.4965262093079
 30
0.0
 11
276.4999999999907
 21
215.4965262093189
 31
0.0
  0
LINE
  5
3AA
330
1F
100
AcDbEntity
  8
LAY-10
  6
CONTINUOUS
 62
     7
100
AcDbLine
 10
270.4999999999916
 20
217.4965262093079
 30
0.0
 11
270.4999999999916
 21
215.4965262093189
 31
0.0
  0
LINE
  5
3AB
330
1F
100
AcDbEntity
  8
LAY-10
  6
CONTINUOUS
 62
     7
100
AcDbLine
 10
275.9999999999898
 20
215.9965262093128
 30
0.0
 11
275.9999999999898
 21
209.9965262093128
 31
0.0
  0
LINE
  5
3AC
330
1F
100
AcDbEntity
  8
LAY-10
  6
CONTINUOUS
 62
     7
100
AcDbLine
 10
270.9999999999898
 20
215.9965262093128
 30
0.0
 11
270.9999999999898
 21
209.9965262093128
 31
0.0
  0
LINE
  5
3AD
330
1F
100
AcDbEntity
  8
LAY-10
  6
CONTINUOUS
 62
     7
100
AcDbLine
 10
270.9999999999716
 20
209.1305008055178
 30
0.0
 11
270.4999999999716
 21
209.9965262093024
 31
0.0
  0
LINE
  5
3AE
330
1F
100
AcDbEntity
  8
LAY-10
  6
CONTINUOUS
 62
     7
100
AcDbLine
 10
276.0000000000019
 20
209.1305008055214
 30
0.0
 11
276.5000000000019
 21
209.9965262093059
 31
0.0
  0
LINE
  5
3AF
330
1F
100
AcDbEntity
  8
LAY-10
  6
CONTINUOUS
 62
     7
100
AcDbLine
 10
143.5000000000093
 20
217.4965262093079
 30
0.0
 11
144.0000000000077
 21
217.9965262093086
 31
0.0
  0
LINE
  5
3B0
330
1F
100
AcDbEntity
  8
LAY-10
  6
CONTINUOUS
 62
     7
100
AcDbLine
 10
149.5000000000084
 20
217.4965262093079
 30
0.0
 11
149.000000000007
 21
217.9965262093086
 31
0.0
  0
LINE
  5
3B1
330
1F
100
AcDbEntity
  8
LAY-10
  6
CONTINUOUS
 62
     7
100
AcDbLine
 10
143.5000000000093
 20
217.4965262093079
 30
0.0
 11
143.5000000000093
 21
215.4965262093189
 31
0.0
  0
LINE
  5
3B2
330
1F
100
AcDbEntity
  8
LAY-10
  6
CONTINUOUS
 62
     7
100
AcDbLine
 10
149.5000000000084
 20
217.4965262093079
 30
0.0
 11
149.5000000000084
 21
215.4965262093189
 31
0.0
  0
LINE
  5
3B3
330
1F
100
AcDbEntity
  8
LAY-10
  6
CONTINUOUS
 62
     7
100
AcDbLine
 10
144.0000000000102
 20
215.9965262093128
 30
0.0
 11
144.0000000000102
 21
209.9965262093128
 31
0.0
  0
LINE
  5
3B4
330
1F
100
AcDbEntity
  8
LAY-10
  6
CONTINUOUS
 62
     7
100
AcDbLine
 10
149.0000000000102
 20
215.9965262093128
 30
0.0
 11
149.0000000000102
 21
209.9965262093128
 31
0.0
  0
LINE
  5
3B5
330
1F
100
AcDbEntity
  8
LAY-10
  6
CONTINUOUS
 62
     7
100
AcDbLine
 10
149.0000000000284
 20
209.1305008055178
 30
0.0
 11
149.5000000000284
 21
209.9965262093024
 31
0.0
  0
LINE
  5
3B6
330
1F
100
AcDbEntity
  8
LAY-10
  6
CONTINUOUS
 62
     7
100
AcDbLine
 10
143.9999999999982
 20
209.1305008055214
 30
0.0
 11
143.4999999999982
 21
209.9965262093059
 31
0.0
  0
DIMENSION
  5
3B8
330
1F
100
AcDbEntity
  8
LAY-20
  6
CONTINUOUS
 62
     4
100
AcDbDimension
  2
*D15
 10
248.4964300299212
 20
140.9965262093179
 30
0.0
 11
210.0000000000001
 21
145.9965262093179
 31
0.0
 70
   160
  1
%%c<>
  3
ISO-25
100
AcDbAlignedDimension
 13
171.5035699700788
 23
213.9239014827927
 33
0.0
 14
248.4964300299212
 24
213.9239014827927
 34
0.0
100
AcDbRotatedDimension
1001
ACAD
1000
DSTYLE
1002
{
1070
   270
1070
     2
1070
     6
1000
EX_BNORM
1070
     7
1000
EX_BNORM
1070
    41
1040
5.0
1070
    42
1040
3.0
1070
    44
1040
3.0
1070
    73
1070
     0
1070
    74
1070
     0
1070
    75
1070
     0
1070
    76
1070
     0
1070
    77
1070
     1
1070
    78
1070
     8
1070
   140
1040
6.2362208
1070
   147
1040
0.0
1070
   173
1070
     1
1070
   176
1070
     4
1070
   177
1070
     4
1070
   178
1070
     7
1070
   271
1070
     1
1070
   277
1070
     2
1070
   279
1070
     2
1070
   280
1070
     0
1070
   287
1070
     5
1070
   340
1005
3B7
1002
}
  0
DIMENSION
  5
3C6
330
1F
100
AcDbEntity
  8
LAY-20
  6
CONTINUOUS
 62
     4
100
AcDbDimension
  2
*D16
 10
175.0
 20
154.9965262093179
 30
0.0
 11
210.0
 21
159.9965262093179
 31
0.0
 70
   160
  1
%%c<>
  3
ISO-25
100
AcDbAlignedDimension
 13
245.0
 23
183.9544982093189
 33
0.0
 14
175.0
 24
183.9544982093189
 34
0.0
100
AcDbRotatedDimension
1001
ACAD
1000
DSTYLE
1002
{
1070
   270
1070
     2
1070
     6
1000
EX_BNORM
1070
     7
1000
EX_BNORM
1070
    41
1040
5.0
1070
    42
1040
3.0
1070
    44
1040
3.0
1070
    73
1070
     0
1070
    74
1070
     0
1070
    75
1070
     0
1070
    76
1070
     0
1070
    77
1070
     1
1070
    78
1070
     8
1070
   140
1040
6.2362208
1070
   147
1040
0.0
1070
   173
1070
     1
1070
   176
1070
     4
1070
   177
1070
     4
1070
   178
1070
     7
1070
   271
1070
     1
1070
   277
1070
     2
1070
   279
1070
     2
1070
   280
1070
     0
1070
   287
1070
     5
1070
   340
1005
3B7
1002
}
  0
DIMENSION
  5
3D3
330
1F
100
AcDbEntity
  8
LAY-20
  6
CONTINUOUS
 62
     4
100
AcDbDimension
  2
*D17
 10
308.0
 20
234.99652620932
 30
0.0
 11
303.0
 21
204.99652620932
 31
0.0
 70
   160
  3
ISO-25
100
AcDbAlignedDimension
 13
265.5
 23
174.99652620932
 33
0.0
 14
280.0
 24
234.99652620932
 34
0.0
 50
90.0
100
AcDbRotatedDimension
1001
ACAD
1000
DSTYLE
1002
{
1070
   270
1070
     2
1070
     6
1000
EX_BNORM
1070
     7
1000
EX_BNORM
1070
    41
1040
5.0
1070
    42
1040
3.0
1070
    44
1040
3.0
1070
    73
1070
     0
1070
    74
1070
     0
1070
    75
1070
     0
1070
    76
1070
     0
1070
    77
1070
     1
1070
    78
1070
     8
1070
   140
1040
6.2362208
1070
   147
1040
0.0
1070
   173
1070
     1
1070
   176
1070
     4
1070
   177
1070
     4
1070
   178
1070
     7
1070
   271
1070
     1
1070
   277
1070
     2
1070
   279
1070
     2
1070
   280
1070
     0
1070
   287
1070
     5
1070
   340
1005
3B7
1002
}
  0
DIMENSION
  5
3E0
330
1F
100
AcDbEntity
  8
LAY-20
  6
CONTINUOUS
 62
     4
100
AcDbDimension
  2
*D18
 10
308.0
 20
234.99652620932
 30
0.0
 11
303.0
 21
247.49826310466
 31
0.0
 70
   160
  3
ISO-25
100
AcDbAlignedDimension
 13
257.93928730293
 23
260.0
 33
0.0
 14
308.0
 24
234.99652620932
 34
0.0
 50
90.0
100
AcDbRotatedDimension
1001
ACAD
1000
DSTYLE
1002
{
1070
   270
1070
     2
1070
     6
1000
EX_BNORM
1070
     7
1000
EX_BNORM
1070
    41
1040
5.0
1070
    42
1040
3.0
1070
    44
1040
3.0
1070
    73
1070
     0
1070
    74
1070
     0
1070
    75
1070
     0
1070
    76
1070
     1
1070
    77
1070
     1
1070
    78
1070
     8
1070
   140
1040
6.2362208
1070
   147
1040
0.0
1070
   173
1070
     1
1070
   176
1070
     4
1070
   177
1070
     4
1070
   178
1070
     7
1070
   271
1070
     1
1070
   277
1070
     2
1070
   279
1070
     2
1070
   280
1070
     0
1070
   287
1070
     5
1070
   340
1005
3B7
1002
}
  0
DIMENSION
  5
3EC
330
1F
100
AcDbEntity
  8
LAY-20
  6
CONTINUOUS
 62
     4
100
AcDbDimension
  2
*D19
 10
280.0
 20
308.0
 30
0.0
 11
210.0
 21
313.0
 31
0.0
 70
   160
  3
ISO-25
100
AcDbAlignedDimension
 13
140.0
 23
234.99652620932
 33
0.0
 14
280.0
 24
234.99652620932
 34
0.0
100
AcDbRotatedDimension
1001
ACAD
1000
DSTYLE
1002
{
1070
   270
1070
     2
1070
     6
1000
EX_BNORM
1070
     7
1000
EX_BNORM
1070
    41
1040
5.0
1070
    42
1040
3.0
1070
    44
1040
3.0
1070
    73
1070
     0
1070
    74
1070
     0
1070
    75
1070
     0
1070
    76
1070
     0
1070
    77
1070
     1
1070
    78
1070
     8
1070
   140
1040
6.2362208
1070
   147
1040
0.0
1070
   173
1070
     1
1070
   176
1070
     4
1070
   177
1070
     4
1070
   178
1070
     7
1070
   271
1070
     1
1070
   277
1070
     2
1070
   279
1070
     2
1070
   280
1070
     0
1070
   287
1070
     5
1070
   340
1005
3B7
1002
}
  0
DIMENSION
  5
3F9
330
1F
100
AcDbEntity
  8
LAY-20
  6
CONTINUOUS
 62
     4
100
AcDbDimension
  2
*D20
 10
276.0
 20
294.0
 30
0.0
 11
210.0
 21
299.0
 31
0.0
 70
   160
  3
ISO-25
100
AcDbAlignedDimension
 13
144.0
 23
234.99652620932
 33
0.0
 14
276.0
 24
234.99652620932
 34
0.0
100
AcDbRotatedDimension
1001
ACAD
1000
DSTYLE
1002
{
1070
   270
1070
     2
1070
     6
1000
EX_BNORM
1070
     7
1000
EX_BNORM
1070
    41
1040
5.0
1070
    42
1040
3.0
1070
    44
1040
3.0
1070
    73
1070
     0
1070
    74
1070
     0
1070
    75
1070
     0
1070
    76
1070
     0
1070
    77
1070
     1
1070
    78
1070
     8
1070
   140
1040
6.2362208
1070
   147
1040
0.0
1070
   173
1070
     1
1070
   176
1070
     4
1070
   177
1070
     4
1070
   178
1070
     7
1070
   271
1070
     1
1070
   277
1070
     2
1070
   279
1070
     2
1070
   280
1070
     0
1070
   287
1070
     5
1070
   340
1005
3B7
1002
}
  0
DIMENSION
  5
406
330
1F
100
AcDbEntity
  8
LAY-20
  6
CONTINUOUS
 62
     4
100
AcDbDimension
  2
*D21
 10
274.5
 20
280.0
 30
0.0
 11
210.0
 21
285.0
 31
0.0
 70
   160
  3
ISO-25
100
AcDbAlignedDimension
 13
145.5
 23
234.99328534923
 33
0.0
 14
274.5
 24
234.99328534923
 34
0.0
100
AcDbRotatedDimension
1001
ACAD
1000
DSTYLE
1002
{
1070
   270
1070
     2
1070
     6
1000
EX_BNORM
1070
     7
1000
EX_BNORM
1070
    41
1040
5.0
1070
    42
1040
3.0
1070
    44
1040
3.0
1070
    73
1070
     0
1070
    74
1070
     0
1070
    75
1070
     0
1070
    76
1070
     0
1070
    77
1070
     1
1070
    78
1070
     8
1070
   140
1040
6.2362208
1070
   147
1040
0.0
1070
   173
1070
     1
1070
   176
1070
     4
1070
   177
1070
     4
1070
   178
1070
     7
1070
   271
1070
     1
1070
   277
1070
     2
1070
   279
1070
     2
1070
   280
1070
     0
1070
   287
1070
     5
1070
   340
1005
3B7
1002
}
  0
DIMENSION
  5
413
330
1F
100
AcDbEntity
  8
LAY-20
  6
CONTINUOUS
 62
     4
100
AcDbDimension
  2
*D22
 10
335.9942394483
 20
349.9578620000002
 30
0.0
 11
330.9942394483
 21
399.9789310000002
 31
0.0
 70
   160
  3
ISO-25
100
AcDbAlignedDimension
 13
408.997713238981
 23
450.0000000000002
 33
0.0
 14
408.997713238981
 24
349.9578620000002
 34
0.0
 50
90.0
100
AcDbRotatedDimension
1001
ACAD
1000
DSTYLE
1002
{
1070
   270
1070
     2
1070
     6
1000
EX_BNORM
1070
     7
1000
EX_BNORM
1070
    41
1040
5.0
1070
    42
1040
3.0
1070
    44
1040
3.0
1070
    73
1070
     0
1070
    74
1070
     0
1070
    75
1070
     0
1070
    76
1070
     0
1070
    77
1070
     1
1070
    78
1070
     8
1070
   140
1040
6.2362208
1070
   147
1040
0.0
1070
   173
1070
     1
1070
   176
1070
     4
1070
   177
1070
     4
1070
   178
1070
     7
1070
   271
1070
     1
1070
   277
1070
     2
1070
   279
1070
     2
1070
   280
1070
     0
1070
   287
1070
     5
1070
   340
1005
3B7
1002
}
  0
DIMENSION
  5
420
330
1F
100
AcDbEntity
  8
LAY-20
  6
CONTINUOUS
 62
     4
100
AcDbDimension
  2
*D23
 10
349.9942394483
 20
446.0
 30
0.0
 11
344.9942394483
 21
400.0
 31
0.0
 70
   160
  3
ISO-25
100
AcDbAlignedDimension
 13
408.99771323898
 23
354.0
 33
0.0
 14
408.99771323898
 24
446.0
 34
0.0
 50
90.0
100
AcDbRotatedDimension
1001
ACAD
1000
DSTYLE
1002
{
1070
   270
1070
     2
1070
     6
1000
EX_BNORM
1070
     7
1000
EX_BNORM
1070
    41
1040
5.0
1070
    42
1040
3.0
1070
    44
1040
3.0
1070
    73
1070
     0
1070
    74
1070
     0
1070
    75
1070
     0
1070
    76
1070
     0
1070
    77
1070
     1
1070
    78
1070
     8
1070
   140
1040
6.2362208
1070
   147
1040
0.0
1070
   173
1070
     1
1070
   176
1070
     4
1070
   177
1070
     4
1070
   178
1070
     7
1070
   271
1070
     1
1070
   277
1070
     2
1070
   279
1070
     2
1070
   280
1070
     0
1070
   287
1070
     5
1070
   340
1005
3B7
1002
}
  0
DIMENSION
  5
42D
330
1F
100
AcDbEntity
  8
LAY-20
  6
CONTINUOUS
 62
     4
100
AcDbDimension
  2
*D24
 10
363.9942394483
 20
355.5
 30
0.0
 11
358.9942394483
 21
400.0
 31
0.0
 70
   160
  3
ISO-25
100
AcDbAlignedDimension
 13
408.99771323898
 23
444.5
 33
0.0
 14
408.99771323898
 24
355.5
 34
0.0
 50
90.0
100
AcDbRotatedDimension
1001
ACAD
1000
DSTYLE
1002
{
1070
   270
1070
     2
1070
     6
1000
EX_BNORM
1070
     7
1000
EX_BNORM
1070
    41
1040
5.0
1070
    42
1040
3.0
1070
    44
1040
3.0
1070
    73
1070
     0
1070
    74
1070
     0
1070
    75
1070
     0
1070
    76
1070
     0
1070
    77
1070
     1
1070
    78
1070
     8
1070
   140
1040
6.2362208
1070
   147
1040
0.0
1070
   173
1070
     1
1070
   176
1070
     4
1070
   177
1070
     4
1070
   178
1070
     7
1070
   271
1070
     1
1070
   277
1070
     2
1070
   279
1070
     2
1070
   280
1070
     0
1070
   287
1070
     5
1070
   340
1005
3B7
1002
}
  0
LINE
  5
43A
330
1F
100
AcDbEntity
  8
LAY-255
  6
CONTINUOUS
 62
     7
100
AcDbLine
 10
770.0
 20
43.99999999999999
 30
0.0
 11
570.0
 21
43.99999999999999
 31
0.0
  0
LINE
  5
43B
330
1F
100
AcDbEntity
  8
LAY-255
  6
CONTINUOUS
 62
     7
100
AcDbLine
 10
577.6
 20
32.0
 30
0.0
 11
593.6
 21
42.0
 31
0.0
  0
LINE
  5
43C
330
1F
100
AcDbEntity
  8
LAY-255
  6
CONTINUOUS
 62
     7
100
AcDbLine
 10
593.6
 20
42.0
 30
0.0
 11
609.6
 21
32.0
 31
0.0
  0
LINE
  5
43D
330
1F
100
AcDbEntity
  8
LAY-255
  6
CONTINUOUS
 62
     7
100
AcDbLine
 10
609.6
 20
32.0
 30
0.0
 11
593.6
 21
22.0
 31
0.0
  0
LINE
  5
43E
330
1F
100
AcDbEntity
  8
LAY-255
  6
CONTINUOUS
 62
     7
100
AcDbLine
 10
593.6
 20
22.0
 30
0.0
 11
577.6
 21
32.0
 31
0.0
  0
LINE
  5
43F
330
1F
100
AcDbEntity
  8
LAY-255
  6
CONTINUOUS
 62
     7
100
AcDbLine
 10
10.0
 20
20.0
 30
0.0
 11
770.0000000000001
 21
20.0
 31
0.0
  0
LINE
  5
440
330
1F
100
AcDbEntity
  8
LAY-255
  6
CONTINUOUS
 62
     7
100
AcDbLine
 10
10.0
 20
560.0
 30
0.0
 11
770.0000000000001
 21
560.0
 31
0.0
  0
LINE
  5
441
330
1F
100
AcDbEntity
  8
LAY-255
  6
CONTINUOUS
 62
     7
100
AcDbLine
 10
10.0
 20
20.0
 30
0.0
 11
10.0
 21
560.0
 31
0.0
  0
LINE
  5
442
330
1F
100
AcDbEntity
  8
LAY-255
  6
CONTINUOUS
 62
     7
100
AcDbLine
 10
770.0
 20
20.0
 30
0.0
 11
770.0
 21
560.0
 31
0.0
  0
LINE
  5
443
330
1F
100
AcDbEntity
  8
LAY-255
  6
CONTINUOUS
 62
     4
100
AcDbLine
 10
570.0
 20
55.99999999999999
 30
0.0
 11
770.0000000000001
 21
55.99999999999999
 31
0.0
  0
LINE
  5
444
330
1F
100
AcDbEntity
  8
LAY-255
  6
CONTINUOUS
 62
     7
100
AcDbLine
 10
570.0
 20
20.0
 30
0.0
 11
570.0
 21
134.0
 31
0.0
  0
LINE
  5
445
330
1F
100
AcDbEntity
  8
LAY-255
  6
CONTINUOUS
 62
     4
100
AcDbLine
 10
670.0
 20
55.99999999999999
 30
0.0
 11
670.0
 21
44.0
 31
0.0
  0
LINE
  5
446
330
1F
100
AcDbEntity
  8
LAY-255
  6
CONTINUOUS
 62
     7
100
AcDbLine
 10
770.0000000000001
 20
134.0
 30
0.0
 11
570.0
 21
134.0
 31
0.0
  0
LINE
  5
447
330
1F
100
AcDbEntity
  8
LAY-255
  6
CONTINUOUS
 62
     4
100
AcDbLine
 10
766.0
 20
110.0
 30
0.0
 11
574.0
 21
110.0
 31
0.0
  0
LINE
  5
448
330
1F
100
AcDbEntity
  8
LAY-255
  6
CONTINUOUS
 62
     4
100
AcDbLine
 10
766.0
 20
122.0
 30
0.0
 11
574.0
 21
122.0
 31
0.0
  0
POINT
  5
449
330
1F
100
AcDbEntity
  8
LAY-255
  6
CONTINUOUS
 62
     7
100
AcDbPoint
 10
578.0
 20
100.0
 30
0.0
  0
POINT
  5
44A
330
1F
100
AcDbEntity
  8
LAY-255
  6
CONTINUOUS
 62
     7
100
AcDbPoint
 10
600.0
 20
112.0
 30
0.0
  0
POINT
  5
44B
330
1F
100
AcDbEntity
  8
LAY-255
  6
CONTINUOUS
 62
     7
100
AcDbPoint
 10
600.0
 20
124.0
 30
0.0
  0
POINT
  5
44C
330
1F
100
AcDbEntity
  8
LAY-255
  6
CONTINUOUS
 62
     7
100
AcDbPoint
 10
578.0
 20
80.0
 30
0.0
  0
POINT
  5
44D
330
1F
100
AcDbEntity
  8
LAY-255
  6
CONTINUOUS
 62
     7
100
AcDbPoint
 10
578.0
 20
90.0
 30
0.0
  0
POINT
  5
44E
330
1F
100
AcDbEntity
  8
LAY-255
  6
CONTINUOUS
 62
     7
100
AcDbPoint
 10
578.0
 20
69.99999999999999
 30
0.0
  0
POINT
  5
44F
330
1F
100
AcDbEntity
  8
LAY-255
  6
CONTINUOUS
 62
     7
100
AcDbPoint
 10
578.0
 20
59.99999999999997
 30
0.0
  0
TEXT
  5
450
330
1F
100
AcDbEntity
  8
LAY-255
  6
CONTINUOUS
 62
     7
100
AcDbText
 10
616.2767579736328
 20
31.0875
 30
0.0
 40
10.3125
  1
福西鋳物株式会社
 41
1.342692319347662
  7
EXCADSTD
100
AcDbText
  0
TEXT
  5
451
330
1F
100
AcDbEntity
  8
LAY-255
  6
CONTINUOUS
 62
     7
100
AcDbText
 10
617.0187500000001
 20
23.9625
 30
0.0
 40
3.4375
  1
ＦＵＫＵＮＩＳＨＩ
 41
1.204799226045263
  7
EXCADSTD
100
AcDbText
  0
TEXT
  5
452
330
1F
100
AcDbEntity
  8
LAY-255
  6
CONTINUOUS
 62
     7
100
AcDbText
 10
665.4383928571428
 20
23.9625
 30
0.0
 40
3.4375
  1
ＦＯＵＮＤＲＹ
 41
1.243252752978497
  7
EXCADSTD
100
AcDbText
  0
TEXT
  5
453
330
1F
100
AcDbEntity
  8
LAY-255
  6
CONTINUOUS
 62
     7
100
AcDbText
 10
703.9891823858172
 20
23.9625
 30
0.0
 40
3.4375
  1
ＣＯ.,ＬＴＤ.
 41
1.243830523306697
  7
EXCADSTD
100
AcDbText
  0
TEXT
  5
454
330
1F
100
AcDbEntity
  8
LAY-255
  6
CONTINUOUS
 62
     7
100
AcDbText
 10
588.06875
 20
27.4375
 30
0.0
 40
10.3125
  1
S
 41
0.7582677563636363
  7
EXCADSTD
100
AcDbText
  0
TEXT
  5
455
330
1F
100
AcDbEntity
  8
LAY-255
  6
CONTINUOUS
 62
     7
100
AcDbText
 10
594.209375
 20
27.49882075472
 30
0.0
 40
10.3125
  1
F
 41
0.7440945272727272
  7
EXCADSTD
100
AcDbText
  0
TEXT
  5
456
330
1F
100
AcDbEntity
  8
LAY-255
  6
CONTINUOUS
 62
     7
100
AcDbText
 10
674.2109375
 20
48.84374999999998
 30
0.0
 40
5.15625
  1
縮尺
 41
1.080708718181818
  7
EXCADSTD
100
AcDbText
  0
TEXT
  5
457
330
1F
100
AcDbEntity
  8
LAY-255
  6
CONTINUOUS
 62
     7
100
AcDbText
 10
574.53125
 20
113.125
 30
0.0
 40
6.875
  1
型式
 41
1.056348480681818
  7
EXCADSTD
100
AcDbText
  0
TEXT
  5
458
330
1F
100
AcDbEntity
  8
LAY-255
  6
CONTINUOUS
 62
     7
100
AcDbText
 10
574.84375
 20
125.125
 30
0.0
 40
6.875
  1
品名
 41
0.978838634090909
  7
EXCADSTD
100
AcDbText
  0
TEXT
  5
459
330
1F
100
AcDbEntity
  8
LAY-255
  6
CONTINUOUS
 62
     7
100
AcDbText
 10
574.3046875
 20
48.84374999999998
 30
0.0
 40
5.15625
  1
作成日
 41
1.000629973818182
  7
EXCADSTD
100
AcDbText
  0
TEXT
  5
45A
330
1F
100
AcDbEntity
  8
LAY-255
  6
CONTINUOUS
 62
     7
100
AcDbText
 10
696.5625
 20
47.12499999999998
 30
0.0
 40
6.875
  1
１：２
 41
0.888661464
  7
EXCADSTD
100
AcDbText
  0
TEXT
  5
45B
330
1F
100
AcDbEntity
  8
LAY-255
  6
CONTINUOUS
 62
     7
100
AcDbText
 10
578.375
 20
81.12500000000001
 30
0.0
 40
6.875
  1
施工：打込用
 41
1.018700840909091
  7
EXCADSTD
100
AcDbText
  0
TEXT
  5
45C
330
1F
100
AcDbEntity
  8
LAY-255
  6
CONTINUOUS
 62
     7
100
AcDbText
 10
600.5
 20
125.125
 30
0.0
 40
6.875
  1
ルーフドレイン
 41
1.021169538599106
  7
EXCADSTD
100
AcDbText
  0
TEXT
  5
45D
330
1F
100
AcDbEntity
  8
LAY-255
  6
CONTINUOUS
 62
     7
100
AcDbText
 10
578.4375
 20
71.12500000000001
 30
0.0
 40
6.875
  1
接続：差込用
 41
1.01733803041958
  7
EXCADSTD
100
AcDbText
  0
TEXT
  5
45E
330
1F
100
AcDbEntity
  8
LAY-255
  6
CONTINUOUS
 62
     7
100
AcDbText
 10
601.75
 20
113.125
 30
0.0
 40
6.875
  1
ＲＣＫ－３０７５型
 41
0.999750874798619
  7
EXCADSTD
100
AcDbText
  0
TEXT
  5
45F
330
1F
100
AcDbEntity
  8
LAY-255
  6
CONTINUOUS
 62
     7
100
AcDbText
 10
578.75
 20
101.125
 30
0.0
 40
6.875
  1
防水：モルタル・塗膜防水兼用
 41
1.008985320967742
  7
EXCADSTD
100
AcDbText
  0
TEXT
  5
460
330
1F
100
AcDbEntity
  8
LAY-255
  6
CONTINUOUS
 62
     7
100
AcDbText
 10
578.46875
 20
91.12500000000001
 30
0.0
 40
6.875
  1
用途：廊下・踊場用
 41
1.013654991944764
  7
EXCADSTD
100
AcDbText
  0
TEXT
  5
461
330
1F
100
AcDbEntity
  8
LAY-255
  6
CONTINUOUS
 62
     7
100
AcDbText
 10
601.78125
 20
47.12499999999998
 30
0.0
 40
6.875
  1
０７／０１／０５
 41
0.9779528072727272
  7
EXCADSTD
100
AcDbText
  0
ENDSEC
  0
SECTION
  2
OBJECTS
  0
DICTIONARY
  5
C
330
0
100
AcDbDictionary
  3
ACAD_GROUP
350
D
  3
ACAD_LAYOUT
350
1A
  3
ACAD_MATERIAL
350
43
  3
ACAD_MLEADERSTYLE
350
6B
  3
ACAD_MLINESTYLE
350
17
  3
ACAD_PLOTSETTINGS
350
19
  3
ACAD_SCALELIST
350
47
  3
ACAD_VISUALSTYLE
350
2A
  3
ACDBHEADERROUNDTRIPXREC
350
462
  3
ACDBVARIABLEDICTIONARY
350
483
  0
DICTIONARY
  5
48E
330
8
100
AcDbDictionary
280
     1
  3
ACAD_XREC_ROUNDTRIP
360
48F
  0
DICTIONARY
  5
D
102
{ACAD_REACTORS
330
C
102
}
330
C
100
AcDbDictionary
  0
DICTIONARY
  5
1A
102
{ACAD_REACTORS
330
C
102
}
330
C
100
AcDbDictionary
  0
DICTIONARY
  5
43
102
{ACAD_REACTORS
330
C
102
}
330
C
100
AcDbDictionary
  3
BYBLOCK
350
45
  3
BYLAYER
350
44
  3
GLOBAL
350
46
  0
DICTIONARY
  5
6B
102
{ACAD_REACTORS
330
C
102
}
330
C
100
AcDbDictionary
  3
STANDARD
350
6C
  0
DICTIONARY
  5
17
102
{ACAD_REACTORS
330
C
102
}
330
C
100
AcDbDictionary
  3
STANDARD
350
18
  0
DICTIONARY
  5
19
102
{ACAD_REACTORS
330
C
102
}
330
C
100
AcDbDictionary
  0
DICTIONARY
  5
47
102
{ACAD_REACTORS
330
C
102
}
330
C
100
AcDbDictionary
  3
A0
350
48
  3
A1
350
49
  3
A2
350
4A
  3
A3
350
4B
  3
A4
350
4C
  3
A5
350
4D
  3
A6
350
4E
  3
A7
350
4F
  3
A8
350
50
  3
A9
350
51
  3
B0
350
52
  3
B1
350
53
  3
B2
350
54
  3
B3
350
55
  3
B4
350
56
  3
B5
350
57
  3
B6
350
58
  3
B7
350
59
  3
B8
350
5A
  3
B9
350
5B
  3
C0
350
5C
  3
C1
350
5D
  3
C2
350
5E
  3
C3
350
5F
  3
C4
350
60
  3
C5
350
61
  3
C6
350
62
  3
C7
350
63
  3
C8
350
64
  3
C9
350
65
  3
D0
350
66
  3
D1
350
67
  3
D2
350
68
  0
DICTIONARY
  5
2A
102
{ACAD_REACTORS
330
C
102
}
330
C
100
AcDbDictionary
  3
2DWIREFRAME
350
2F
  3
BASIC
350
32
  3
BRIGHTEN
350
36
  3
COLORCHANGE
350
3A
  3
CONCEPTUAL
350
34
  3
DIM
350
35
  3
EDGECOLOROFF
350
3D
  3
FACEPATTERN
350
39
  3
FLAT
350
2B
  3
FLATWITHEDGES
350
2C
  3
GOURAUD
350
2D
  3
GOURAUDWITHEDGES
350
2E
  3
HIDDEN
350
31
  3
JITTEROFF
350
3B
  3
LINEPATTERN
350
38
  3
OVERHANGOFF
350
3C
  3
REALISTIC
350
33
  3
SHADED
350
42
  3
SHADED_WITH_EDGES
350
41
  3
SHADES_OF_GRAY
350
3E
  3
SKETCHY
350
3F
  3
THICKEN
350
37
  3
WIREFRAME
350
30
  3
X-RAY
350
40
  0
DICTIONARY
  5
462
102
{ACAD_REACTORS
330
C
102
}
330
C
100
AcDbDictionary
  3
CEPSNID
350
46C
  3
CEPSNTYPE
350
46B
  3
DIMSTYLEDATA
350
482
  3
FINGERPRINTGUID
350
46D
  3
HYPERLINKBASE
350
465
  3
INSUNITS
350
46A
  3
LAYOUTDICT
350
467
  3
LWETCUNION
350
469
  3
PLOTSETDICT
350
468
  3
PSVPSCALE
350
46F
  3
PUCSBASE
350
472
  3
PUCSORGBACK
350
478
  3
PUCSORGBOTTOM
350
474
  3
PUCSORGFRONT
350
477
  3
PUCSORGLEFT
350
475
  3
PUCSORGRIGHT
350
476
  3
PUCSORGTOP
350
473
  3
PUCSORTHOREF
350
470
  3
PUCSORTHOVIEW
350
471
  3
STYLESHEET
350
466
  3
TSTACKALIGN
350
463
  3
TSTACKSIZE
350
464
  3
UCSBASE
350
47B
  3
UCSORGBACK
350
481
  3
UCSORGBOTTOM
350
47D
  3
UCSORGFRONT
350
480
  3
UCSORGLEFT
350
47E
  3
UCSORGRIGHT
350
47F
  3
UCSORGTOP
350
47C
  3
UCSORTHOREF
350
479
  3
UCSORTHOVIEW
350
47A
  3
VERSIONGUID
350
46E
  0
DICTIONARY
  5
483
102
{ACAD_REACTORS
330
C
102
}
330
C
100
AcDbDictionary
  3
CANNOSCALE
350
490
  3
CENTEREXE
350
48A
  3
CENTERLTYPEFILE
350
48B
  3
CMLEADERSTYLE
350
485
  3
CTABLESTYLE
350
484
  3
DIMASSOC
350
48C
  3
HIDETEXT
350
48D
  3
MSLTSCALE
350
491
  3
PSOLHEIGHT
350
487
  3
PSOLWIDTH
350
486
  0
XRECORD
  5
48F
102
{ACAD_REACTORS
330
48E
102
}
330
48E
100
AcDbXrecord
102
VTR_0.000_0.000_1.000_1.000_VISUALSTYLE
340
2F
102
VTR_0.000_0.000_1.000_1.000_GRIDDISPLAY
 70
     3
102
VTR_0.000_0.000_1.000_1.000_GRIDMAJOR
 70
     5
102
VTR_0.000_0.000_1.000_1.000_DEFAULTLIGHTING
280
     1
102
VTR_0.000_0.000_1.000_1.000_DEFAULTLIGHTINGTYPE
 70
     1
102
VTR_0.000_0.000_1.000_1.000_BRIGHTNESS
141
0.0
102
VTR_0.000_0.000_1.000_1.000_CONTRAST
142
0.0
  0
MATERIAL
  5
45
102
{ACAD_REACTORS
330
43
102
}
102
{ACAD_XDICTIONARY
360
494
102
}
330
43
100
AcDbMaterial
  1
BYBLOCK
  0
MATERIAL
  5
44
102
{ACAD_REACTORS
330
43
102
}
102
{ACAD_XDICTIONARY
360
492
102
}
330
43
100
AcDbMaterial
  1
BYLAYER
  0
MATERIAL
  5
46
102
{ACAD_REACTORS
330
43
102
}
102
{ACAD_XDICTIONARY
360
496
102
}
330
43
100
AcDbMaterial
  1
GLOBAL
  0
ACAD_PROXY_OBJECT
  5
6C
102
{ACAD_REACTORS
330
6B
102
}
330
6B
100
AcDbProxyObject
 90
      499
 91
      505
 93
      610
310
40901902A4063FBFFFFFE0000000000000020400000000000020404214DD185B99185C990000000000000104090141901A00000000000004100000000000000041025764000000000000039000
340
14
340
0
340
11
340
0
 94
        0
1001
ACAD_MLEADERVER
1070
     2
  0
MLINESTYLE
  5
18
102
{ACAD_REACTORS
330
17
102
}
330
17
100
AcDbMlineStyle
  2
Standard
 70
     0
  3

 62
   256
 51
90.0
 52
90.0
 71
     2
 49
0.5
 62
   256
  6
BYLAYER
 49
-0.5
 62
   256
  6
BYLAYER
  0
ACAD_PROXY_OBJECT
  5
48
102
{ACAD_REACTORS
330
47
102
}
330
47
100
AcDbProxyObject
 90
      499
 91
      503
 93
       41
310
903313A31580
  0
ACAD_PROXY_OBJECT
  5
49
102
{ACAD_REACTORS
330
47
102
}
330
47
100
AcDbProxyObject
 90
      499
 91
      503
 93
      105
310
903313A324000000000000004000
  0
ACAD_PROXY_OBJECT
  5
4A
102
{ACAD_REACTORS
330
47
102
}
330
47
100
AcDbProxyObject
 90
      499
 91
      503
 93
      105
310
903313A344000000000000104000
  0
ACAD_PROXY_OBJECT
  5
4B
102
{ACAD_REACTORS
330
47
102
}
330
47
100
AcDbProxyObject
 90
      499
 91
      503
 93
      105
310
903313A354000000000000144000
  0
ACAD_PROXY_OBJECT
  5
4C
102
{ACAD_REACTORS
330
47
102
}
330
47
100
AcDbProxyObject
 90
      499
 91
      503
 93
      105
310
903313A384000000000000204000
  0
ACAD_PROXY_OBJECT
  5
4D
102
{ACAD_REACTORS
330
47
102
}
330
47
100
AcDbProxyObject
 90
      499
 91
      503
 93
      113
310
904313A31304000000000000244000
  0
ACAD_PROXY_OBJECT
  5
4E
102
{ACAD_REACTORS
330
47
102
}
330
47
100
AcDbProxyObject
 90
      499
 91
      503
 93
      113
310
904313A31364000000000000304000
  0
ACAD_PROXY_OBJECT
  5
4F
102
{ACAD_REACTORS
330
47
102
}
330
47
100
AcDbProxyObject
 90
      499
 91
      503
 93
      113
310
904313A32304000000000000344000
  0
ACAD_PROXY_OBJECT
  5
50
102
{ACAD_REACTORS
330
47
102
}
330
47
100
AcDbProxyObject
 90
      499
 91
      503
 93
      113
310
904313A333040000000000003E4000
  0
ACAD_PROXY_OBJECT
  5
51
102
{ACAD_REACTORS
330
47
102
}
330
47
100
AcDbProxyObject
 90
      499
 91
      503
 93
      113
310
904313A34304000000000000444000
  0
ACAD_PROXY_OBJECT
  5
52
102
{ACAD_REACTORS
330
47
102
}
330
47
100
AcDbProxyObject
 90
      499
 91
      503
 93
      113
310
904313A35304000000000000494000
  0
ACAD_PROXY_OBJECT
  5
53
102
{ACAD_REACTORS
330
47
102
}
330
47
100
AcDbProxyObject
 90
      499
 91
      503
 93
      121
310
905313A3130304000000000000594000
  0
ACAD_PROXY_OBJECT
  5
54
102
{ACAD_REACTORS
330
47
102
}
330
47
100
AcDbProxyObject
 90
      499
 91
      503
 93
      105
310
903323A310000000000000010100
  0
ACAD_PROXY_OBJECT
  5
55
102
{ACAD_REACTORS
330
47
102
}
330
47
100
AcDbProxyObject
 90
      499
 91
      503
 93
      105
310
903343A310000000000000410100
  0
ACAD_PROXY_OBJECT
  5
56
102
{ACAD_REACTORS
330
47
102
}
330
47
100
AcDbProxyObject
 90
      499
 91
      503
 93
      105
310
903383A310000000000000810100
  0
ACAD_PROXY_OBJECT
  5
57
102
{ACAD_REACTORS
330
47
102
}
330
47
100
AcDbProxyObject
 90
      499
 91
      503
 93
      113
310
90431303A310000000000000910100
  0
ACAD_PROXY_OBJECT
  5
58
102
{ACAD_REACTORS
330
47
102
}
330
47
100
AcDbProxyObject
 90
      499
 91
      503
 93
      121
310
9053130303A310000000000001650100
  0
ACAD_PROXY_OBJECT
  5
59
102
{ACAD_REACTORS
330
47
102
}
330
47
100
AcDbProxyObject
 90
      499
 91
      503
 93
      257
310
90E312F31323822203D2031272D3022000000000000200FC000000000000284000
  0
ACAD_PROXY_OBJECT
  5
5A
102
{ACAD_REACTORS
330
47
102
}
330
47
100
AcDbProxyObject
 90
      499
 91
      503
 93
      249
310
90D312F363422203D2031272D3022000000000000240FC000000000000284000
  0
ACAD_PROXY_OBJECT
  5
5B
102
{ACAD_REACTORS
330
47
102
}
330
47
100
AcDbProxyObject
 90
      499
 91
      503
 93
      249
310
90D312F333222203D2031272D3022000000000000280FC000000000000284000
  0
ACAD_PROXY_OBJECT
  5
5C
102
{ACAD_REACTORS
330
47
102
}
330
47
100
AcDbProxyObject
 90
      499
 91
      503
 93
      249
310
90D312F313622203D2031272D30220000000000002C0FC000000000000284000
  0
ACAD_PROXY_OBJECT
  5
5D
102
{ACAD_REACTORS
330
47
102
}
330
47
100
AcDbProxyObject
 90
      499
 91
      503
 93
      249
310
90D332F333222203D2031272D30220000000000002E0FC000000000000284000
  0
ACAD_PROXY_OBJECT
  5
5E
102
{ACAD_REACTORS
330
47
102
}
330
47
100
AcDbProxyObject
 90
      499
 91
      503
 93
      241
310
90C312F3822203D2031272D3022000000000000300FC000000000000284000
  0
ACAD_PROXY_OBJECT
  5
5F
102
{ACAD_REACTORS
330
47
102
}
330
47
100
AcDbProxyObject
 90
      499
 91
      503
 93
      249
310
90D332F313622203D2031272D3022000000000000320FC000000000000284000
  0
ACAD_PROXY_OBJECT
  5
60
102
{ACAD_REACTORS
330
47
102
}
330
47
100
AcDbProxyObject
 90
      499
 91
      503
 93
      241
310
90C312F3422203D2031272D3022000000000000340FC000000000000284000
  0
ACAD_PROXY_OBJECT
  5
61
102
{ACAD_REACTORS
330
47
102
}
330
47
100
AcDbProxyObject
 90
      499
 91
      503
 93
      241
310
90C332F3822203D2031272D3022000000000000360FC000000000000284000
  0
ACAD_PROXY_OBJECT
  5
62
102
{ACAD_REACTORS
330
47
102
}
330
47
100
AcDbProxyObject
 90
      499
 91
      503
 93
      241
310
90C312F3222203D2031272D3022000000000000380FC000000000000284000
  0
ACAD_PROXY_OBJECT
  5
63
102
{ACAD_REACTORS
330
47
102
}
330
47
100
AcDbProxyObject
 90
      499
 91
      503
 93
      241
310
90C332F3422203D2031272D30220000000000003A0FC000000000000284000
  0
ACAD_PROXY_OBJECT
  5
64
102
{ACAD_REACTORS
330
47
102
}
330
47
100
AcDbProxyObject
 90
      499
 91
      503
 93
      161
310
90A3122203D2031272D30224000000000000284000
  0
ACAD_PROXY_OBJECT
  5
65
102
{ACAD_REACTORS
330
47
102
}
330
47
100
AcDbProxyObject
 90
      499
 91
      503
 93
      257
310
90E312D312F3222203D2031272D30220000000000003E0FC000000000000284000
  0
ACAD_PROXY_OBJECT
  5
66
102
{ACAD_REACTORS
330
47
102
}
330
47
100
AcDbProxyObject
 90
      499
 91
      503
 93
      225
310
90A3322203D2031272D302200000000000002100000000000000284000
  0
ACAD_PROXY_OBJECT
  5
67
102
{ACAD_REACTORS
330
47
102
}
330
47
100
AcDbProxyObject
 90
      499
 91
      503
 93
      225
310
90A3622203D2031272D302200000000000006100000000000000284000
  0
ACAD_PROXY_OBJECT
  5
68
102
{ACAD_REACTORS
330
47
102
}
330
47
100
AcDbProxyObject
 90
      499
 91
      503
 93
      249
310
90D31272D3022203D2031272D30220000000000000A100000000000000284000
  0
ACAD_PROXY_OBJECT
  5
2F
102
{ACAD_REACTORS
330
2A
102
}
330
2A
100
AcDbProxyObject
 90
      499
 91
      501
 93
      436
310
42CC9915DA5C99599C985B595049028333333333333E33F0000000000000F90107901411070040501600405405064090741402480A0340
1001
ACAD
1000
AcDbSavedByObjectVersion
1070
     0
  0
ACAD_PROXY_OBJECT
  5
32
102
{ACAD_REACTORS
330
2A
102
}
330
2A
100
AcDbProxyObject
 90
      499
 91
      501
 93
      388
310
4150985CDA58D07406404333333333333E33F0000000000000F90107A41107004050150841D405064090741402480A0350
1001
ACAD
1000
AcDbSavedByObjectVersion
1070
     0
  0
ACAD_PROXY_OBJECT
  5
36
102
{ACAD_REACTORS
330
2A
102
}
330
2A
100
AcDbProxyObject
 90
      499
 91
      501
 93
      428
310
42109C9A59DA1D195B90C409028333333333333E33F0000000000000F9010790141107004050150841D405064090741402480A029950
1001
ACAD
1000
AcDbSavedByObjectVersion
1070
     0
  0
ACAD_PROXY_OBJECT
  5
3A
102
{ACAD_REACTORS
330
2A
102
}
330
2A
100
AcDbProxyObject
 90
      499
 91
      501
 93
      452
310
42D0DBDB1BDC90DA185B99D95104090240C333333333333E33F0000000000000F90108901411070040501508421405064090741402480A0350
1001
ACAD
1000
AcDbSavedByObjectVersion
1070
     0
  0
ACAD_PROXY_OBJECT
  5
34
102
{ACAD_REACTORS
330
2A
102
}
330
2A
100
AcDbProxyObject
 90
      499
 91
      501
 93
      500
310
4290DBDB98D95C1D1D585B10940D028333333333333E33F0000000000000F90107902409070040501000000000018199010841D405064090740C02480A0340
1001
ACAD
1000
AcDbSavedByObjectVersion
1070
     0
  0
ACAD_PROXY_OBJECT
  5
35
102
{ACAD_REACTORS
330
2A
102
}
330
2A
100
AcDbProxyObject
 90
      499
 91
      501
 93
      412
310
40D11A5B50B409028333333333333E33F0000000000000F9010790141107004050150841D405064090741402480A02677FFFFFD0
1001
ACAD
1000
AcDbSavedByObjectVersion
1070
     0
  0
ACAD_PROXY_OBJECT
  5
3D
102
{ACAD_REACTORS
330
2A
102
}
330
2A
100
AcDbProxyObject
 90
      499
 91
      501
 93
      452
310
43115919D950DBDB1BDC93D999916409028333333333333E33F0000000000000F9010790141107004050150841D405064090741402480A0350
1001
ACAD
1000
AcDbSavedByObjectVersion
1070
     0
  0
ACAD_PROXY_OBJECT
  5
39
102
{ACAD_REACTORS
330
2A
102
}
330
2A
100
AcDbProxyObject
 90
      499
 91
      501
 93
      444
310
42D19858D95C185D1D195C9B90F409028333333333333E33F0000000000000F9010790141107004050150841D405064090741402480A0350
1001
ACAD
1000
AcDbSavedByObjectVersion
1070
     0
  0
ACAD_PROXY_OBJECT
  5
2B
102
{ACAD_REACTORS
330
2A
102
}
330
2A
100
AcDbProxyObject
 90
      499
 91
      501
 93
      380
310
41119B185D240901404333333333333E33F0000000000000F9010740A907004050150841D405064090741402480A1B50
1001
ACAD
1000
AcDbSavedByObjectVersion
1070
     0
  0
ACAD_PROXY_OBJECT
  5
2C
102
{ACAD_REACTORS
330
2A
102
}
330
2A
100
AcDbProxyObject
 90
      499
 91
      501
 93
      468
310
43519B185D15DA5D1A115919D95CD0140901404333333333333E33F0000000000000F90107409019070040501600405405064090741402480A1B50
1001
ACAD
1000
AcDbSavedByObjectVersion
1070
     0
  0
ACAD_PROXY_OBJECT
  5
2D
102
{ACAD_REACTORS
330
2A
102
}
330
2A
100
AcDbProxyObject
 90
      499
 91
      501
 93
      404
310
41D1DBDD5C985D5910240902404333333333333E33F0000000000000F9010740A9070040501641D405064090741402480A1B50
1001
ACAD
1000
AcDbSavedByObjectVersion
1070
     0
  0
ACAD_PROXY_OBJECT
  5
2E
102
{ACAD_REACTORS
330
2A
102
}
330
2A
100
AcDbProxyObject
 90
      499
 91
      501
 93
      492
310
4411DBDD5C985D5915DA5D1A115919D95CD0340902404333333333333E33F0000000000000F90107409019070040501600405405064090741402480A1B50
1001
ACAD
1000
AcDbSavedByObjectVersion
1070
     0
  0
ACAD_PROXY_OBJECT
  5
31
102
{ACAD_REACTORS
330
2A
102
}
330
2A
100
AcDbProxyObject
 90
      499
 91
      501
 93
      476
310
41921A5919195B90640502408333333333333E33F0000000000000F901079024090700405020000000000001110200405405064090740C02480A0340
1001
ACAD
1000
AcDbSavedByObjectVersion
1070
     0
  0
ACAD_PROXY_OBJECT
  5
3B
102
{ACAD_REACTORS
330
2A
102
}
330
2A
100
AcDbProxyObject
 90
      499
 91
      501
 93
      428
310
42529A5D1D195C93D999914409028333333333333E33F0000000000000F9010790141107004050150A41D405064090741402480A0350
1001
ACAD
1000
AcDbSavedByObjectVersion
1070
     0
  0
ACAD_PROXY_OBJECT
  5
38
102
{ACAD_REACTORS
330
2A
102
}
330
2A
100
AcDbProxyObject
 90
      499
 91
      501
 93
      444
310
42D31A5B995C185D1D195C9B90E409028333333333333E33F0000000000000F9010790141107004050750841D405064090741402483A0350
1001
ACAD
1000
AcDbSavedByObjectVersion
1070
     0
  0
ACAD_PROXY_OBJECT
  5
3C
102
{ACAD_REACTORS
330
2A
102
}
330
2A
100
AcDbProxyObject
 90
      499
 91
      501
 93
      444
310
42D3DD995C9A185B99D3D999915409028333333333333E33F0000000000000F9010790141107004050150941D405064090741402480A0350
1001
ACAD
1000
AcDbSavedByObjectVersion
1070
     0
  0
ACAD_PROXY_OBJECT
  5
33
102
{ACAD_REACTORS
330
2A
102
}
330
2A
100
AcDbProxyObject
 90
      499
 91
      501
 93
      428
310
425499585B1A5CDD1A58D08409038333333333333E33F0000000000000F9010740A907004050150800405405064090740C02480A1B40
1001
ACAD
1000
AcDbSavedByObjectVersion
1070
     0
  0
ACAD_PROXY_OBJECT
  5
42
102
{ACAD_REACTORS
330
2A
102
}
330
2A
100
AcDbProxyObject
 90
      499
 91
      501
 93
      420
310
4194DA1859195911B40902404333333333333E33F0000000000000F9010740A41107004050150800405405064090840C02480A0B40
1001
ACAD
1000
AcDbSavedByObjectVersion
1070
     0
  0
ACAD_PROXY_OBJECT
  5
41
102
{ACAD_REACTORS
330
2A
102
}
330
2A
100
AcDbProxyObject
 90
      499
 91
      501
 93
      516
310
4454DA18591959081DDA5D1A08195919D95CD1A40902404333333333333E33F0000000000000F901074090142907004050250800405405064090740C02480A0B40
1001
ACAD
1000
AcDbSavedByObjectVersion
1070
     0
  0
ACAD_PROXY_OBJECT
  5
3E
102
{ACAD_REACTORS
330
2A
102
}
330
2A
100
AcDbProxyObject
 90
      499
 91
      501
 93
      532
310
4394DA1859195CC81BD98811DC985E5174090240C333333333333E33F0000000000000F901079024090741D01000000000000111010841D405064090740C02480A0340
1001
ACAD
1000
AcDbSavedByObjectVersion
1070
     0
  0
ACAD_PROXY_OBJECT
  5
3F
102
{ACAD_REACTORS
330
2A
102
}
330
2A
100
AcDbProxyObject
 90
      499
 91
      501
 93
      476
310
41D4DAD95D18DA1E51840502408333333333333E33F0000000000000F901079024090741D01000000000000111010B41D405064090741802480A0340
1001
ACAD
1000
AcDbSavedByObjectVersion
1070
     0
  0
ACAD_PROXY_OBJECT
  5
37
102
{ACAD_REACTORS
330
2A
102
}
330
2A
100
AcDbProxyObject
 90
      499
 91
      501
 93
      412
310
41D51A1A58DAD95B90D409028333333333333E33F0000000000000F9010790141107004050150C41D405064090741402480A0350
1001
ACAD
1000
AcDbSavedByObjectVersion
1070
     0
  0
ACAD_PROXY_OBJECT
  5
30
102
{ACAD_REACTORS
330
2A
102
}
330
2A
100
AcDbProxyObject
 90
      499
 91
      501
 93
      420
310
4255DA5C99599C985B595059028333333333333E33F0000000000000F90107901411070040501600405405064090740C02480A0340
1001
ACAD
1000
AcDbSavedByObjectVersion
1070
     0
  0
ACAD_PROXY_OBJECT
  5
40
102
{ACAD_REACTORS
330
2A
102
}
330
2A
100
AcDbProxyObject
 90
      499
 91
      501
 93
      404
310
41560B54985E51940902404000000000000E03F0000000000000F9010740501907004050150841D405064090740C02480A1B40
1001
ACAD
1000
AcDbSavedByObjectVersion
1070
     0
  0
XRECORD
  5
46C
102
{ACAD_REACTORS
330
462
102
}
330
462
100
AcDbXrecord
340
0
  0
XRECORD
  5
46B
102
{ACAD_REACTORS
330
462
102
}
330
462
100
AcDbXrecord
 90
        0
  0
XRECORD
  5
482
102
{ACAD_REACTORS
330
462
102
}
330
462
100
AcDbXrecord
1000
DSTYLE
1002
{
1070
   340
340
11
1002
}
  0
XRECORD
  5
46D
102
{ACAD_REACTORS
330
462
102
}
330
462
100
AcDbXrecord
  1
{bedccfb5-7c23-4971-9ccb-24aab9001480}
  0
XRECORD
  5
465
102
{ACAD_REACTORS
330
462
102
}
330
462
100
AcDbXrecord
  1

  0
XRECORD
  5
46A
102
{ACAD_REACTORS
330
462
102
}
330
462
100
AcDbXrecord
 90
        4
  0
XRECORD
  5
467
102
{ACAD_REACTORS
330
462
102
}
330
462
100
AcDbXrecord
340
1A
  0
XRECORD
  5
469
102
{ACAD_REACTORS
330
462
102
}
330
462
100
AcDbXrecord
 90
    10781
  0
XRECORD
  5
468
102
{ACAD_REACTORS
330
462
102
}
330
462
100
AcDbXrecord
340
19
  0
XRECORD
  5
46F
102
{ACAD_REACTORS
330
462
102
}
330
462
100
AcDbXrecord
 40
0.0
  0
XRECORD
  5
472
102
{ACAD_REACTORS
330
462
102
}
330
462
100
AcDbXrecord
340
0
  0
XRECORD
  5
478
102
{ACAD_REACTORS
330
462
102
}
330
462
100
AcDbXrecord
 10
0.0
 20
0.0
 30
0.0
  0
XRECORD
  5
474
102
{ACAD_REACTORS
330
462
102
}
330
462
100
AcDbXrecord
 10
0.0
 20
0.0
 30
0.0
  0
XRECORD
  5
477
102
{ACAD_REACTORS
330
462
102
}
330
462
100
AcDbXrecord
 10
0.0
 20
0.0
 30
0.0
  0
XRECORD
  5
475
102
{ACAD_REACTORS
330
462
102
}
330
462
100
AcDbXrecord
 10
0.0
 20
0.0
 30
0.0
  0
XRECORD
  5
476
102
{ACAD_REACTORS
330
462
102
}
330
462
100
AcDbXrecord
 10
0.0
 20
0.0
 30
0.0
  0
XRECORD
  5
473
102
{ACAD_REACTORS
330
462
102
}
330
462
100
AcDbXrecord
 10
0.0
 20
0.0
 30
0.0
  0
XRECORD
  5
470
102
{ACAD_REACTORS
330
462
102
}
330
462
100
AcDbXrecord
340
0
  0
XRECORD
  5
471
102
{ACAD_REACTORS
330
462
102
}
330
462
100
AcDbXrecord
 70
     0
  0
XRECORD
  5
466
102
{ACAD_REACTORS
330
462
102
}
330
462
100
AcDbXrecord
  1

  0
XRECORD
  5
463
102
{ACAD_REACTORS
330
462
102
}
330
462
100
AcDbXrecord
 90
        1
  0
XRECORD
  5
464
102
{ACAD_REACTORS
330
462
102
}
330
462
100
AcDbXrecord
 90
       70
  0
XRECORD
  5
47B
102
{ACAD_REACTORS
330
462
102
}
330
462
100
AcDbXrecord
340
0
  0
XRECORD
  5
481
102
{ACAD_REACTORS
330
462
102
}
330
462
100
AcDbXrecord
 10
0.0
 20
0.0
 30
0.0
  0
XRECORD
  5
47D
102
{ACAD_REACTORS
330
462
102
}
330
462
100
AcDbXrecord
 10
0.0
 20
0.0
 30
0.0
  0
XRECORD
  5
480
102
{ACAD_REACTORS
330
462
102
}
330
462
100
AcDbXrecord
 10
0.0
 20
0.0
 30
0.0
  0
XRECORD
  5
47E
102
{ACAD_REACTORS
330
462
102
}
330
462
100
AcDbXrecord
 10
0.0
 20
0.0
 30
0.0
  0
XRECORD
  5
47F
102
{ACAD_REACTORS
330
462
102
}
330
462
100
AcDbXrecord
 10
0.0
 20
0.0
 30
0.0
  0
XRECORD
  5
47C
102
{ACAD_REACTORS
330
462
102
}
330
462
100
AcDbXrecord
 10
0.0
 20
0.0
 30
0.0
  0
XRECORD
  5
479
102
{ACAD_REACTORS
330
462
102
}
330
462
100
AcDbXrecord
340
0
  0
XRECORD
  5
47A
102
{ACAD_REACTORS
330
462
102
}
330
462
100
AcDbXrecord
 70
     0
  0
XRECORD
  5
46E
102
{ACAD_REACTORS
330
462
102
}
330
462
100
AcDbXrecord
  1
{FAEB1C32-E019-11D5-929B-00C0DF256EC4}
  0
DICTIONARYVAR
  5
490
102
{ACAD_REACTORS
330
483
102
}
330
483
100
DictionaryVariables
280
     0
  1
1:1
  0
DICTIONARYVAR
  5
48A
102
{ACAD_REACTORS
330
483
102
}
330
483
100
DictionaryVariables
280
     0
  1
3.500000
  0
DICTIONARYVAR
  5
48B
102
{ACAD_REACTORS
330
483
102
}
330
483
100
DictionaryVariables
280
     0
  1
acadiso.lin
  0
DICTIONARYVAR
  5
485
102
{ACAD_REACTORS
330
483
102
}
330
483
100
DictionaryVariables
280
     0
  1
Standard
  0
DICTIONARYVAR
  5
484
102
{ACAD_REACTORS
330
483
102
}
330
483
100
DictionaryVariables
280
     0
  1
Standard
  0
DICTIONARYVAR
  5
48C
102
{ACAD_REACTORS
330
483
102
}
330
483
100
DictionaryVariables
280
     0
  1
2
  0
DICTIONARYVAR
  5
48D
102
{ACAD_REACTORS
330
483
102
}
330
483
100
DictionaryVariables
280
     0
  1
1
  0
DICTIONARYVAR
  5
491
102
{ACAD_REACTORS
330
483
102
}
330
483
100
DictionaryVariables
280
     0
  1
1
  0
DICTIONARYVAR
  5
487
102
{ACAD_REACTORS
330
483
102
}
330
483
100
DictionaryVariables
280
     0
  1
80.000000
  0
DICTIONARYVAR
  5
486
102
{ACAD_REACTORS
330
483
102
}
330
483
100
DictionaryVariables
280
     0
  1
5.000000
  0
DICTIONARY
  5
494
330
45
100
AcDbDictionary
280
     1
  3
ACAD_XREC_ROUNDTRIP
360
495
  0
DICTIONARY
  5
492
330
44
100
AcDbDictionary
280
     1
  3
ACAD_XREC_ROUNDTRIP
360
493
  0
DICTIONARY
  5
496
330
46
100
AcDbDictionary
280
     1
  3
ACAD_XREC_ROUNDTRIP
360
497
  0
XRECORD
  5
495
102
{ACAD_REACTORS
330
494
102
}
330
494
100
AcDbXrecord
102
MATERIAL
148
0.0
149
0.0
149
0.0
 93
        0
 94
      127
282
     0
 72
     1
 77
     1
171
     1
175
     1
179
     1
273
     0
  0
XRECORD
  5
493
102
{ACAD_REACTORS
330
492
102
}
330
492
100
AcDbXrecord
102
MATERIAL
148
0.0
149
0.0
149
0.0
 93
        0
 94
      127
282
     0
 72
     1
 77
     1
171
     1
175
     1
179
     1
273
     0
  0
XRECORD
  5
497
102
{ACAD_REACTORS
330
496
102
}
330
496
100
AcDbXrecord
102
MATERIAL
148
0.0
149
0.0
149
0.0
 93
        0
 94
      127
282
     0
 72
     1
 77
     1
171
     1
175
     1
179
     1
273
     0
  0
ENDSEC
  0
EOF
