  0
SECTION
  2
HEADER
  9
$ACADVER
  1
AC1014
  9
$ACADMAINTVER
 70
     9
  9
$DWGCODEPAGE
  3
ANSI_932
  9
$INSBASE
 10
0.0
 20
0.0
 30
0.0
  9
$EXTMIN
 10
10.0
 20
20.0
 30
0.0
  9
$EXTMAX
 10
770.0000000000001
 20
560.0
 30
0.0
  9
$LIMMIN
 10
0.0
 20
0.0
  9
$LIMMAX
 10
420.0
 20
297.0
  9
$ORTHOMODE
 70
     0
  9
$REGENMODE
 70
     1
  9
$FILLMODE
 70
     1
  9
$QTEXTMODE
 70
     0
  9
$MIRRTEXT
 70
     1
  9
$DRAGMODE
 70
     2
  9
$LTSCALE
 40
0.2
  9
$OSMODE
 70
    37
  9
$ATTMODE
 70
     1
  9
$TEXTSIZE
 40
2.5
  9
$TRACEWID
 40
1.0
  9
$TEXTSTYLE
  7
STANDARD
  9
$CLAYER
  8
LAY-10
  9
$CELTYPE
  6
BYLAYER
  9
$CECOLOR
 62
   256
  9
$CELTSCALE
 40
1.0
  9
$DELOBJ
 70
     1
  9
$DISPSILH
 70
     0
  9
$DIMSCALE
 40
1.0
  9
$DIMASZ
 40
2.5
  9
$DIMEXO
 40
0.625
  9
$DIMDLI
 40
3.75
  9
$DIMRND
 40
0.0
  9
$DIMDLE
 40
0.0
  9
$DIMEXE
 40
1.25
  9
$DIMTP
 40
0.0
  9
$DIMTM
 40
0.0
  9
$DIMTXT
 40
2.5
  9
$DIMCEN
 40
2.5
  9
$DIMTSZ
 40
0.0
  9
$DIMTOL
 70
     0
  9
$DIMLIM
 70
     0
  9
$DIMTIH
 70
     0
  9
$DIMTOH
 70
     0
  9
$DIMSE1
 70
     0
  9
$DIMSE2
 70
     0
  9
$DIMTAD
 70
     1
  9
$DIMZIN
 70
     8
  9
$DIMBLK
  1

  9
$DIMASO
 70
     1
  9
$DIMSHO
 70
     1
  9
$DIMPOST
  1

  9
$DIMAPOST
  1

  9
$DIMALT
 70
     0
  9
$DIMALTD
 70
     3
  9
$DIMALTF
 40
0.03937007874016
  9
$DIMLFAC
 40
1.0
  9
$DIMTOFL
 70
     1
  9
$DIMTVP
 40
0.0
  9
$DIMTIX
 70
     0
  9
$DIMSOXD
 70
     0
  9
$DIMSAH
 70
     0
  9
$DIMBLK1
  1

  9
$DIMBLK2
  1

  9
$DIMSTYLE
  2
ISO-25
  9
$DIMCLRD
 70
     0
  9
$DIMCLRE
 70
     0
  9
$DIMCLRT
 70
     0
  9
$DIMTFAC
 40
1.0
  9
$DIMGAP
 40
0.625
  9
$DIMJUST
 70
     0
  9
$DIMSD1
 70
     0
  9
$DIMSD2
 70
     0
  9
$DIMTOLJ
 70
     0
  9
$DIMTZIN
 70
     8
  9
$DIMALTZ
 70
     0
  9
$DIMALTTZ
 70
     0
  9
$DIMFIT
 70
     3
  9
$DIMUPT
 70
     0
  9
$DIMUNIT
 70
     2
  9
$DIMDEC
 70
     2
  9
$DIMTDEC
 70
     2
  9
$DIMALTU
 70
     2
  9
$DIMALTTD
 70
     3
  9
$DIMTXSTY
  7
STANDARD
  9
$DIMAUNIT
 70
     0
  9
$LUNITS
 70
     2
  9
$LUPREC
 70
     4
  9
$SKETCHINC
 40
1.0
  9
$FILLETRAD
 40
10.0
  9
$AUNITS
 70
     0
  9
$AUPREC
 70
     0
  9
$MENU
  1
.
  9
$ELEVATION
 40
0.0
  9
$PELEVATION
 40
0.0
  9
$THICKNESS
 40
0.0
  9
$LIMCHECK
 70
     0
  9
$CHAMFERA
 40
0.0
  9
$CHAMFERB
 40
0.0
  9
$CHAMFERC
 40
0.0
  9
$CHAMFERD
 40
0.0
  9
$SKPOLY
 70
     0
  9
$TDCREATE
 40
2459229.337275579
  9
$TDUPDATE
 40
2459229.33727603
  9
$TDINDWG
 40
0.0000000116
  9
$TDUSRTIMER
 40
0.0000000116
  9
$USRTIMER
 70
     1
  9
$ANGBASE
 50
0.0
  9
$ANGDIR
 70
     0
  9
$PDMODE
 70
     0
  9
$PDSIZE
 40
0.0
  9
$PLINEWID
 40
0.0
  9
$COORDS
 70
     1
  9
$SPLFRAME
 70
     0
  9
$SPLINETYPE
 70
     6
  9
$SPLINESEGS
 70
     8
  9
$ATTDIA
 70
     0
  9
$ATTREQ
 70
     1
  9
$HANDLING
 70
     1
  9
$HANDSEED
  5
428
  9
$SURFTAB1
 70
     6
  9
$SURFTAB2
 70
     6
  9
$SURFTYPE
 70
     6
  9
$SURFU
 70
     6
  9
$SURFV
 70
     6
  9
$UCSNAME
  2

  9
$UCSORG
 10
0.0
 20
0.0
 30
0.0
  9
$UCSXDIR
 10
1.0
 20
0.0
 30
0.0
  9
$UCSYDIR
 10
0.0
 20
1.0
 30
0.0
  9
$PUCSNAME
  2

  9
$PUCSORG
 10
0.0
 20
0.0
 30
0.0
  9
$PUCSXDIR
 10
1.0
 20
0.0
 30
0.0
  9
$PUCSYDIR
 10
0.0
 20
1.0
 30
0.0
  9
$USERI1
 70
     0
  9
$USERI2
 70
     0
  9
$USERI3
 70
     0
  9
$USERI4
 70
     0
  9
$USERI5
 70
     0
  9
$USERR1
 40
0.0
  9
$USERR2
 40
0.0
  9
$USERR3
 40
0.0
  9
$USERR4
 40
0.0
  9
$USERR5
 40
0.0
  9
$WORLDVIEW
 70
     1
  9
$SHADEDGE
 70
     3
  9
$SHADEDIF
 70
    70
  9
$TILEMODE
 70
     1
  9
$MAXACTVP
 70
    64
  9
$PINSBASE
 10
0.0
 20
0.0
 30
0.0
  9
$PLIMCHECK
 70
     0
  9
$PEXTMIN
 10
1.000000000000000E+20
 20
1.000000000000000E+20
 30
1.000000000000000E+20
  9
$PEXTMAX
 10
-1.000000000000000E+20
 20
-1.000000000000000E+20
 30
-1.000000000000000E+20
  9
$PLIMMIN
 10
0.0
 20
0.0
  9
$PLIMMAX
 10
420.0
 20
297.0
  9
$UNITMODE
 70
     0
  9
$VISRETAIN
 70
     1
  9
$PLINEGEN
 70
     0
  9
$PSLTSCALE
 70
     1
  9
$TREEDEPTH
 70
  3020
  9
$PICKSTYLE
 70
     1
  9
$CMLSTYLE
  2
STANDARD
  9
$CMLJUST
 70
     0
  9
$CMLSCALE
 40
20.0
  9
$PROXYGRAPHICS
 70
     1
  9
$MEASUREMENT
 70
     1
  0
ENDSEC
  0
SECTION
  2
CLASSES
  0
CLASS
  1
ACDBDICTIONARYWDFLT
  2
AcDbDictionaryWithDefault
  3
ObjectDBX Classes
 90
        0
280
     0
281
     0
  0
CLASS
  1
VISUALSTYLE
  2
AcDbVisualStyle
  3
ObjectDBX Classes
 90
     4095
280
     0
281
     0
  0
CLASS
  1
MATERIAL
  2
AcDbMaterial
  3
ObjectDBX Classes
 90
     1153
280
     0
281
     0
  0
CLASS
  1
SCALE
  2
AcDbScale
  3
ObjectDBX Classes
 90
     1153
280
     0
281
     0
  0
CLASS
  1
TABLESTYLE
  2
AcDbTableStyle
  3
ObjectDBX Classes
 90
     4095
280
     0
281
     0
  0
CLASS
  1
MLEADERSTYLE
  2
AcDbMLeaderStyle
  3
ACDB_MLEADERSTYLE_CLASS
 90
     4095
280
     0
281
     0
  0
CLASS
  1
SUN
  2
AcDbSun
  3
SCENEOE
 90
     1153
280
     0
281
     0
  0
CLASS
  1
DICTIONARYVAR
  2
AcDbDictionaryVar
  3
ObjectDBX Classes
 90
        0
280
     0
281
     0
  0
CLASS
  1
XRECORD
  2
AcDbXrecord
  3
ObjectDBX Classes
 90
        0
280
     0
281
     0
  0
CLASS
  1
LWPOLYLINE
  2
AcDbPolyline
  3
ObjectDBX Classes
 90
        0
280
     0
281
     1
  0
CLASS
  1
HATCH
  2
AcDbHatch
  3
ObjectDBX Classes
 90
        0
280
     0
281
     1
  0
CLASS
  1
ACDBPLACEHOLDER
  2
AcDbPlaceHolder
  3
ObjectDBX Classes
 90
        0
280
     0
281
     0
  0
CLASS
  1
LAYOUT
  2
AcDbLayout
  3
ObjectDBX Classes
 90
        0
280
     0
281
     0
  0
ENDSEC
  0
SECTION
  2
TABLES
  0
TABLE
  2
VPORT
  5
8
102
{ACAD_XDICTIONARY
360
41D
102
}
330
0
100
AcDbSymbolTable
 70
     1
  0
VPORT
  5
29
330
8
100
AcDbSymbolTableRecord
100
AcDbViewportTableRecord
  2
*ACTIVE
 70
     0
 10
0.0
 20
0.0
 11
1.0
 21
1.0
 12
390.0000000000001
 22
290.0
 13
0.0
 23
0.0
 14
10.0
 24
10.0
 15
10.0
 25
10.0
 16
0.0
 26
0.0
 36
1.0
 17
0.0
 27
0.0
 37
0.0
 40
540.0
 41
1.407407407407408
 42
50.0
 43
0.0
 44
0.0
 50
0.0
 51
0.0
 71
     0
 72
  1000
 73
     1
 74
     3
 75
     0
 76
     0
 77
     0
 78
     0
  0
ENDTAB
  0
TABLE
  2
LTYPE
  5
5
330
0
100
AcDbSymbolTable
 70
     6
  0
LTYPE
  5
14
330
5
100
AcDbSymbolTableRecord
100
AcDbLinetypeTableRecord
  2
BYBLOCK
 70
     0
  3

 72
    65
 73
     0
 40
0.0
  0
LTYPE
  5
15
330
5
100
AcDbSymbolTableRecord
100
AcDbLinetypeTableRecord
  2
BYLAYER
 70
     0
  3

 72
    65
 73
     0
 40
0.0
  0
LTYPE
  5
16
330
5
100
AcDbSymbolTableRecord
100
AcDbLinetypeTableRecord
  2
CONTINUOUS
 70
     0
  3
Solid line
 72
    65
 73
     0
 40
0.0
  0
LTYPE
  5
6E
330
5
100
AcDbSymbolTableRecord
100
AcDbLinetypeTableRecord
  2
HIDDEN
 70
     0
  3
Hidden __ __ __ __ __ __ __ __ __ __ __ __ __ __
 72
    65
 73
     2
 40
9.524999999999999
 49
6.35
 74
     0
 49
-3.175
 74
     0
  0
LTYPE
  5
6F
330
5
100
AcDbSymbolTableRecord
100
AcDbLinetypeTableRecord
  2
CENTER
 70
     0
  3
Center ____ _ ____ _ ____ _ ____ _ ____ _ ____
 72
    65
 73
     4
 40
50.8
 49
31.75
 74
     0
 49
-6.35
 74
     0
 49
6.35
 74
     0
 49
-6.35
 74
     0
  0
LTYPE
  5
70
330
5
100
AcDbSymbolTableRecord
100
AcDbLinetypeTableRecord
  2
PHANTOM
 70
     0
  3
Phantom ______  __  __  ______  __  __  ______ 
 72
    65
 73
     6
 40
63.50000000000001
 49
31.75
 74
     0
 49
-6.35
 74
     0
 49
6.35
 74
     0
 49
-6.35
 74
     0
 49
6.35
 74
     0
 49
-6.35
 74
     0
  0
LTYPE
  5
71
330
5
100
AcDbSymbolTableRecord
100
AcDbLinetypeTableRecord
  2
ACAD_ISO06W100
 70
     0
  3
ISO long-dash triple-dot ____ ... ____ ... ____
 72
    65
 73
     8
 40
36.0
 49
24.0
 74
     0
 49
-3.0
 74
     0
 49
0.0
 74
     0
 49
-3.0
 74
     0
 49
0.0
 74
     0
 49
-3.0
 74
     0
 49
0.0
 74
     0
 49
-3.0
 74
     0
  0
LTYPE
  5
72
330
5
100
AcDbSymbolTableRecord
100
AcDbLinetypeTableRecord
  2
ACAD_ISO15W100
 70
     0
  3
ISO double-dash triple-dot __ __ . . . __ __ . .
 72
    65
 73
    10
 40
39.0
 49
12.0
 74
     0
 49
-3.0
 74
     0
 49
12.0
 74
     0
 49
-3.0
 74
     0
 49
0.0
 74
     0
 49
-3.0
 74
     0
 49
0.0
 74
     0
 49
-3.0
 74
     0
 49
0.0
 74
     0
 49
-3.0
 74
     0
  0
ENDTAB
  0
TABLE
  2
LAYER
  5
2
330
0
100
AcDbSymbolTable
 70
     5
  0
LAYER
  5
10
330
2
100
AcDbSymbolTableRecord
100
AcDbLayerTableRecord
  2
0
 70
     0
 62
     7
  6
CONTINUOUS
  0
LAYER
  5
75
330
2
100
AcDbSymbolTableRecord
100
AcDbLayerTableRecord
  2
LAY-10
 70
     0
 62
     7
  6
CONTINUOUS
  0
LAYER
  5
76
330
2
100
AcDbSymbolTableRecord
100
AcDbLayerTableRecord
  2
LAY-20
 70
     0
 62
     7
  6
CONTINUOUS
  0
LAYER
  5
77
330
2
100
AcDbSymbolTableRecord
100
AcDbLayerTableRecord
  2
LAY-255
 70
     0
 62
     7
  6
CONTINUOUS
  0
LAYER
  5
305
330
2
100
AcDbSymbolTableRecord
100
AcDbLayerTableRecord
  2
DEFPOINTS
 70
     0
 62
     7
  6
CONTINUOUS
  0
ENDTAB
  0
TABLE
  2
STYLE
  5
3
330
0
100
AcDbSymbolTable
 70
     4
  0
STYLE
  5
11
330
3
100
AcDbSymbolTableRecord
100
AcDbTextStyleTableRecord
  2
STANDARD
 70
     0
 40
0.0
 41
1.0
 50
0.0
 71
     0
 42
2.5
  3
simplex
  4
bigfont
  0
STYLE
  5
73
330
3
100
AcDbSymbolTableRecord
100
AcDbTextStyleTableRecord
  2
EXCADSTD
 70
     0
 40
0.0
 41
1.0
 50
0.0
 71
     0
 42
2.5
  3
simplex
  4
bigfont
  0
STYLE
  5
74
330
3
100
AcDbSymbolTableRecord
100
AcDbTextStyleTableRecord
  2
EXCADVERT
 70
     4
 40
0.0
 41
1.0
 50
0.0
 71
     0
 42
2.5
  3
simplex
  4
bigfont
  0
STYLE
  5
303
330
3
100
AcDbSymbolTableRecord
100
AcDbTextStyleTableRecord
  2
EXCADDIM1
 70
     0
 40
0.0
 41
0.84
 50
0.0
 71
     0
 42
2.5
  3
simplex
  4
bigfont
  0
ENDTAB
  0
TABLE
  2
VIEW
  5
6
330
0
100
AcDbSymbolTable
 70
     0
  0
ENDTAB
  0
TABLE
  2
UCS
  5
7
330
0
100
AcDbSymbolTable
 70
     0
  0
ENDTAB
  0
TABLE
  2
APPID
  5
9
330
0
100
AcDbSymbolTable
 70
     2
  0
APPID
  5
12
330
9
100
AcDbSymbolTableRecord
100
AcDbRegAppTableRecord
  2
ACAD
 70
     0
  0
APPID
  5
427
330
9
100
AcDbSymbolTableRecord
100
AcDbRegAppTableRecord
  2
ACAD_MLEADERVER
 70
     0
  0
ENDTAB
  0
TABLE
  2
DIMSTYLE
  5
A
330
0
100
AcDbSymbolTable
 70
     1
  0
DIMSTYLE
105
27
102
{ACAD_REACTORS
330
304
330
312
330
32D
330
33A
330
347
330
354
330
391
330
39E
330
3AA
102
}
330
A
100
AcDbSymbolTableRecord
100
AcDbDimStyleTableRecord
  2
ISO-25
 70
     0
  3

  4

  5

  6

  7

 40
1.0
 41
2.5
 42
0.625
 43
3.75
 44
1.25
 45
0.0
 46
0.0
 47
0.0
 48
0.0
140
2.5
141
2.5
142
0.0
143
0.03937007874016
144
1.0
145
0.0
146
1.0
147
0.625
 71
     0
 72
     0
 73
     0
 74
     0
 75
     0
 76
     0
 77
     1
 78
     8
170
     0
171
     3
172
     1
173
     0
174
     0
175
     0
176
     0
177
     0
178
     0
270
     2
271
     2
272
     2
273
     2
274
     3
340
11
275
     0
280
     0
281
     0
282
     0
283
     0
284
     8
285
     0
286
     0
287
     5
288
     0
  0
ENDTAB
  0
TABLE
  2
BLOCK_RECORD
  5
1
330
0
100
AcDbSymbolTable
 70
    23
  0
BLOCK_RECORD
  5
1F
330
1
100
AcDbSymbolTableRecord
100
AcDbBlockTableRecord
  2
*MODEL_SPACE
  0
BLOCK_RECORD
  5
1B
330
1
100
AcDbSymbolTableRecord
100
AcDbBlockTableRecord
  2
*PAPER_SPACE
  0
BLOCK_RECORD
  5
78
330
1
100
AcDbSymbolTableRecord
100
AcDbBlockTableRecord
  2
EX_NORM
  0
BLOCK_RECORD
  5
7B
330
1
100
AcDbSymbolTableRecord
100
AcDbBlockTableRecord
  2
EX_BNORM
  0
BLOCK_RECORD
  5
7E
330
1
100
AcDbSymbolTableRecord
100
AcDbBlockTableRecord
  2
EX_BCIR
  0
BLOCK_RECORD
  5
81
330
1
100
AcDbSymbolTableRecord
100
AcDbBlockTableRecord
  2
EX_RCIVIL
  0
BLOCK_RECORD
  5
84
330
1
100
AcDbSymbolTableRecord
100
AcDbBlockTableRecord
  2
EX_SLANT
  0
BLOCK_RECORD
  5
87
330
1
100
AcDbSymbolTableRecord
100
AcDbBlockTableRecord
  2
EX_NONE
  0
BLOCK_RECORD
  5
8A
330
1
100
AcDbSymbolTableRecord
100
AcDbBlockTableRecord
  2
EX_CIVIL
  0
BLOCK_RECORD
  5
8D
330
1
100
AcDbSymbolTableRecord
100
AcDbBlockTableRecord
  2
EX_WCIR
  0
BLOCK_RECORD
  5
90
330
1
100
AcDbSymbolTableRecord
100
AcDbBlockTableRecord
  2
EX_WCIR2
  0
BLOCK_RECORD
  5
93
330
1
100
AcDbSymbolTableRecord
100
AcDbBlockTableRecord
  2
EX_WNORM
  0
BLOCK_RECORD
  5
96
330
1
100
AcDbSymbolTableRecord
100
AcDbBlockTableRecord
  2
EX_NNORM
  0
BLOCK_RECORD
  5
99
330
1
100
AcDbSymbolTableRecord
100
AcDbBlockTableRecord
  2
EX_BBOX
  0
BLOCK_RECORD
  5
9C
330
1
100
AcDbSymbolTableRecord
100
AcDbBlockTableRecord
  2
EX_WBOX
  0
BLOCK_RECORD
  5
9F
330
1
100
AcDbSymbolTableRecord
100
AcDbBlockTableRecord
  2
EX_INTEGRAL
  0
BLOCK_RECORD
  5
306
330
1
100
AcDbSymbolTableRecord
100
AcDbBlockTableRecord
  2
*D15
  0
BLOCK_RECORD
  5
313
330
1
100
AcDbSymbolTableRecord
100
AcDbBlockTableRecord
  2
*D16
  0
BLOCK_RECORD
  5
32E
330
1
100
AcDbSymbolTableRecord
100
AcDbBlockTableRecord
  2
*D17
  0
BLOCK_RECORD
  5
33B
330
1
100
AcDbSymbolTableRecord
100
AcDbBlockTableRecord
  2
*D18
  0
BLOCK_RECORD
  5
348
330
1
100
AcDbSymbolTableRecord
100
AcDbBlockTableRecord
  2
*D19
  0
BLOCK_RECORD
  5
355
330
1
100
AcDbSymbolTableRecord
100
AcDbBlockTableRecord
  2
*D20
  0
BLOCK_RECORD
  5
392
330
1
100
AcDbSymbolTableRecord
100
AcDbBlockTableRecord
  2
*D21
  0
BLOCK_RECORD
  5
39F
330
1
100
AcDbSymbolTableRecord
100
AcDbBlockTableRecord
  2
*D22
  0
BLOCK_RECORD
  5
3AB
330
1
100
AcDbSymbolTableRecord
100
AcDbBlockTableRecord
  2
*D23
  0
ENDTAB
  0
ENDSEC
  0
SECTION
  2
BLOCKS
  0
BLOCK
  5
20
330
1F
100
AcDbEntity
  8
0
100
AcDbBlockBegin
  2
*MODEL_SPACE
 70
     0
 10
0.0
 20
0.0
 30
0.0
  3
*MODEL_SPACE
  1

  0
ENDBLK
  5
21
330
1F
100
AcDbEntity
  8
0
100
AcDbBlockEnd
  0
BLOCK
  5
1C
330
1B
100
AcDbEntity
 67
     1
  8
0
100
AcDbBlockBegin
  2
*PAPER_SPACE
 70
     0
 10
0.0
 20
0.0
 30
0.0
  3
*PAPER_SPACE
  1

  0
ENDBLK
  5
1D
330
1B
100
AcDbEntity
 67
     1
  8
0
100
AcDbBlockEnd
  0
BLOCK
  5
79
330
78
100
AcDbEntity
  8
0
100
AcDbBlockBegin
  2
EX_NORM
 70
     0
 10
0.0
 20
0.0
 30
0.0
  3
EX_NORM
  1

  0
LINE
  5
A2
330
78
100
AcDbEntity
  8
0
  6
CONTINUOUS
 62
     0
100
AcDbLine
 10
0.0
 20
0.0
 30
0.0
 11
-1.0
 21
0.0
 31
0.0
  0
LINE
  5
A3
330
78
100
AcDbEntity
  8
0
  6
CONTINUOUS
 62
     0
100
AcDbLine
 10
0.0
 20
0.0
 30
0.0
 11
-1.0
 21
0.166666667
 31
0.0
  0
LINE
  5
A4
330
78
100
AcDbEntity
  8
0
  6
CONTINUOUS
 62
     0
100
AcDbLine
 10
0.0
 20
0.0
 30
0.0
 11
-1.0
 21
-0.166666667
 31
0.0
  0
ENDBLK
  5
7A
330
78
100
AcDbEntity
  8
0
100
AcDbBlockEnd
  0
BLOCK
  5
7C
330
7B
100
AcDbEntity
  8
0
100
AcDbBlockBegin
  2
EX_BNORM
 70
     0
 10
0.0
 20
0.0
 30
0.0
  3
EX_BNORM
  1

  0
LINE
  5
A5
330
7B
100
AcDbEntity
  8
0
  6
CONTINUOUS
 62
     0
100
AcDbLine
 10
0.0
 20
0.0
 30
0.0
 11
-1.0
 21
0.0
 31
0.0
  0
LINE
  5
A6
330
7B
100
AcDbEntity
  8
0
  6
CONTINUOUS
 62
     0
100
AcDbLine
 10
0.0
 20
0.0
 30
0.0
 11
-1.0
 21
0.166666667
 31
0.0
  0
LINE
  5
A7
330
7B
100
AcDbEntity
  8
0
  6
CONTINUOUS
 62
     0
100
AcDbLine
 10
0.0
 20
0.0
 30
0.0
 11
-1.0
 21
-0.166666667
 31
0.0
  0
LINE
  5
A8
330
7B
100
AcDbEntity
  8
0
  6
CONTINUOUS
 62
     0
100
AcDbLine
 10
0.0
 20
0.0
 30
0.0
 11
-1.0
 21
0.083333333
 31
0.0
  0
LINE
  5
A9
330
7B
100
AcDbEntity
  8
0
  6
CONTINUOUS
 62
     0
100
AcDbLine
 10
0.0
 20
0.0
 30
0.0
 11
-1.0
 21
-0.083333333
 31
0.0
  0
LINE
  5
AA
330
7B
100
AcDbEntity
  8
0
  6
CONTINUOUS
 62
     0
100
AcDbLine
 10
-1.0
 20
0.166666667
 30
0.0
 11
-1.0
 21
-0.166666667
 31
0.0
  0
ENDBLK
  5
7D
330
7B
100
AcDbEntity
  8
0
100
AcDbBlockEnd
  0
BLOCK
  5
7F
330
7E
100
AcDbEntity
  8
0
100
AcDbBlockBegin
  2
EX_BCIR
 70
     0
 10
0.0
 20
0.0
 30
0.0
  3
EX_BCIR
  1

  0
LINE
  5
AB
330
7E
100
AcDbEntity
  8
0
  6
CONTINUOUS
 62
     0
100
AcDbLine
 10
0.0
 20
0.0
 30
0.0
 11
-1.0
 21
0.0
 31
0.0
  0
CIRCLE
  5
AC
330
7E
100
AcDbEntity
  8
0
  6
CONTINUOUS
 62
     0
100
AcDbCircle
 10
0.0
 20
0.0
 30
0.0
 40
0.5
  0
CIRCLE
  5
AD
330
7E
100
AcDbEntity
  8
0
  6
CONTINUOUS
 62
     0
100
AcDbCircle
 10
0.0
 20
0.0
 30
0.0
 40
0.25
  0
ENDBLK
  5
80
330
7E
100
AcDbEntity
  8
0
100
AcDbBlockEnd
  0
BLOCK
  5
82
330
81
100
AcDbEntity
  8
0
100
AcDbBlockBegin
  2
EX_RCIVIL
 70
     0
 10
0.0
 20
0.0
 30
0.0
  3
EX_RCIVIL
  1

  0
LINE
  5
AE
330
81
100
AcDbEntity
  8
0
  6
CONTINUOUS
 62
     0
100
AcDbLine
 10
0.0
 20
0.0
 30
0.0
 11
-1.0
 21
0.0
 31
0.0
  0
LINE
  5
AF
330
81
100
AcDbEntity
  8
0
  6
CONTINUOUS
 62
     0
100
AcDbLine
 10
-1.0
 20
-0.25
 30
0.0
 11
0.0
 21
-0.25
 31
0.0
  0
LINE
  5
B0
330
81
100
AcDbEntity
  8
0
  6
CONTINUOUS
 62
     0
100
AcDbLine
 10
-1.0
 20
-0.125
 30
0.0
 11
0.0
 21
-0.125
 31
0.0
  0
ENDBLK
  5
83
330
81
100
AcDbEntity
  8
0
100
AcDbBlockEnd
  0
BLOCK
  5
85
330
84
100
AcDbEntity
  8
0
100
AcDbBlockBegin
  2
EX_SLANT
 70
     0
 10
0.0
 20
0.0
 30
0.0
  3
EX_SLANT
  1

  0
LINE
  5
B1
330
84
100
AcDbEntity
  8
0
  6
CONTINUOUS
 62
     0
100
AcDbLine
 10
0.0
 20
0.0
 30
0.0
 11
-1.0
 21
0.0
 31
0.0
  0
LINE
  5
B2
330
84
100
AcDbEntity
  8
0
  6
CONTINUOUS
 62
     0
100
AcDbLine
 10
0.707106781
 20
0.707106781
 30
0.0
 11
-0.707106781
 21
-0.707106781
 31
0.0
  0
ENDBLK
  5
86
330
84
100
AcDbEntity
  8
0
100
AcDbBlockEnd
  0
BLOCK
  5
88
330
87
100
AcDbEntity
  8
0
100
AcDbBlockBegin
  2
EX_NONE
 70
     0
 10
0.0
 20
0.0
 30
0.0
  3
EX_NONE
  1

  0
LINE
  5
B3
330
87
100
AcDbEntity
  8
0
  6
CONTINUOUS
 62
     0
100
AcDbLine
 10
0.0
 20
0.0
 30
0.0
 11
-1.0
 21
0.0
 31
0.0
  0
ENDBLK
  5
89
330
87
100
AcDbEntity
  8
0
100
AcDbBlockEnd
  0
BLOCK
  5
8B
330
8A
100
AcDbEntity
  8
0
100
AcDbBlockBegin
  2
EX_CIVIL
 70
     0
 10
0.0
 20
0.0
 30
0.0
  3
EX_CIVIL
  1

  0
LINE
  5
B4
330
8A
100
AcDbEntity
  8
0
  6
CONTINUOUS
 62
     0
100
AcDbLine
 10
0.0
 20
0.0
 30
0.0
 11
-1.0
 21
0.0
 31
0.0
  0
LINE
  5
B5
330
8A
100
AcDbEntity
  8
0
  6
CONTINUOUS
 62
     0
100
AcDbLine
 10
-1.0
 20
0.25
 30
0.0
 11
0.0
 21
0.25
 31
0.0
  0
LINE
  5
B6
330
8A
100
AcDbEntity
  8
0
  6
CONTINUOUS
 62
     0
100
AcDbLine
 10
-1.0
 20
0.125
 30
0.0
 11
0.0
 21
0.125
 31
0.0
  0
ENDBLK
  5
8C
330
8A
100
AcDbEntity
  8
0
100
AcDbBlockEnd
  0
BLOCK
  5
8E
330
8D
100
AcDbEntity
  8
0
100
AcDbBlockBegin
  2
EX_WCIR
 70
     0
 10
0.0
 20
0.0
 30
0.0
  3
EX_WCIR
  1

  0
LINE
  5
B7
330
8D
100
AcDbEntity
  8
0
  6
CONTINUOUS
 62
     0
100
AcDbLine
 10
0.0
 20
0.0
 30
0.0
 11
-1.0
 21
0.0
 31
0.0
  0
CIRCLE
  5
B8
330
8D
100
AcDbEntity
  8
0
  6
CONTINUOUS
 62
     0
100
AcDbCircle
 10
0.0
 20
0.0
 30
0.0
 40
0.5
  0
ENDBLK
  5
8F
330
8D
100
AcDbEntity
  8
0
100
AcDbBlockEnd
  0
BLOCK
  5
91
330
90
100
AcDbEntity
  8
0
100
AcDbBlockBegin
  2
EX_WCIR2
 70
     0
 10
0.0
 20
0.0
 30
0.0
  3
EX_WCIR2
  1

  0
LINE
  5
B9
330
90
100
AcDbEntity
  8
0
  6
CONTINUOUS
 62
     0
100
AcDbLine
 10
-0.5
 20
0.0
 30
0.0
 11
-1.0
 21
0.0
 31
0.0
  0
CIRCLE
  5
BA
330
90
100
AcDbEntity
  8
0
  6
CONTINUOUS
 62
     0
100
AcDbCircle
 10
0.0
 20
0.0
 30
0.0
 40
0.5
  0
ENDBLK
  5
92
330
90
100
AcDbEntity
  8
0
100
AcDbBlockEnd
  0
BLOCK
  5
94
330
93
100
AcDbEntity
  8
0
100
AcDbBlockBegin
  2
EX_WNORM
 70
     0
 10
0.0
 20
0.0
 30
0.0
  3
EX_WNORM
  1

  0
LINE
  5
BB
330
93
100
AcDbEntity
  8
0
  6
CONTINUOUS
 62
     0
100
AcDbLine
 10
-1.0
 20
0.0
 30
0.0
 11
-1.0
 21
0.0
 31
0.0
  0
LINE
  5
BC
330
93
100
AcDbEntity
  8
0
  6
CONTINUOUS
 62
     0
100
AcDbLine
 10
0.0
 20
0.0
 30
0.0
 11
-1.0
 21
0.166666667
 31
0.0
  0
LINE
  5
BD
330
93
100
AcDbEntity
  8
0
  6
CONTINUOUS
 62
     0
100
AcDbLine
 10
0.0
 20
0.0
 30
0.0
 11
-1.0
 21
-0.166666667
 31
0.0
  0
LINE
  5
BE
330
93
100
AcDbEntity
  8
0
  6
CONTINUOUS
 62
     0
100
AcDbLine
 10
-1.0
 20
0.166666667
 30
0.0
 11
-1.0
 21
-0.166666667
 31
0.0
  0
ENDBLK
  5
95
330
93
100
AcDbEntity
  8
0
100
AcDbBlockEnd
  0
BLOCK
  5
97
330
96
100
AcDbEntity
  8
0
100
AcDbBlockBegin
  2
EX_NNORM
 70
     0
 10
0.0
 20
0.0
 30
0.0
  3
EX_NNORM
  1

  0
LINE
  5
BF
330
96
100
AcDbEntity
  8
0
  6
CONTINUOUS
 62
     0
100
AcDbLine
 10
0.0
 20
0.0
 30
0.0
 11
-1.0
 21
0.0
 31
0.0
  0
LINE
  5
C0
330
96
100
AcDbEntity
  8
0
  6
CONTINUOUS
 62
     0
100
AcDbLine
 10
0.0
 20
0.0
 30
0.0
 11
-1.0
 21
0.166666667
 31
0.0
  0
LINE
  5
C1
330
96
100
AcDbEntity
  8
0
  6
CONTINUOUS
 62
     0
100
AcDbLine
 10
0.0
 20
0.0
 30
0.0
 11
-1.0
 21
-0.166666667
 31
0.0
  0
LINE
  5
C2
330
96
100
AcDbEntity
  8
0
  6
CONTINUOUS
 62
     0
100
AcDbLine
 10
-1.0
 20
0.166666667
 30
0.0
 11
-1.0
 21
-0.166666667
 31
0.0
  0
ENDBLK
  5
98
330
96
100
AcDbEntity
  8
0
100
AcDbBlockEnd
  0
BLOCK
  5
9A
330
99
100
AcDbEntity
  8
0
100
AcDbBlockBegin
  2
EX_BBOX
 70
     0
 10
0.0
 20
0.0
 30
0.0
  3
EX_BBOX
  1

  0
LINE
  5
C3
330
99
100
AcDbEntity
  8
0
  6
CONTINUOUS
 62
     0
100
AcDbLine
 10
0.0
 20
0.0
 30
0.0
 11
-1.0
 21
0.0
 31
0.0
  0
LINE
  5
C4
330
99
100
AcDbEntity
  8
0
  6
CONTINUOUS
 62
     0
100
AcDbLine
 10
-0.5
 20
0.5
 30
0.0
 11
0.5
 21
0.5
 31
0.0
  0
LINE
  5
C5
330
99
100
AcDbEntity
  8
0
  6
CONTINUOUS
 62
     0
100
AcDbLine
 10
0.5
 20
0.5
 30
0.0
 11
0.5
 21
-0.5
 31
0.0
  0
LINE
  5
C6
330
99
100
AcDbEntity
  8
0
  6
CONTINUOUS
 62
     0
100
AcDbLine
 10
0.5
 20
-0.5
 30
0.0
 11
-0.5
 21
-0.5
 31
0.0
  0
LINE
  5
C7
330
99
100
AcDbEntity
  8
0
  6
CONTINUOUS
 62
     0
100
AcDbLine
 10
-0.5
 20
-0.5
 30
0.0
 11
-0.5
 21
0.5
 31
0.0
  0
LINE
  5
C8
330
99
100
AcDbEntity
  8
0
  6
CONTINUOUS
 62
     0
100
AcDbLine
 10
-0.25
 20
0.25
 30
0.0
 11
0.25
 21
0.25
 31
0.0
  0
LINE
  5
C9
330
99
100
AcDbEntity
  8
0
  6
CONTINUOUS
 62
     0
100
AcDbLine
 10
0.25
 20
0.25
 30
0.0
 11
0.25
 21
-0.25
 31
0.0
  0
LINE
  5
CA
330
99
100
AcDbEntity
  8
0
  6
CONTINUOUS
 62
     0
100
AcDbLine
 10
0.25
 20
-0.25
 30
0.0
 11
-0.25
 21
-0.25
 31
0.0
  0
LINE
  5
CB
330
99
100
AcDbEntity
  8
0
  6
CONTINUOUS
 62
     0
100
AcDbLine
 10
-0.25
 20
-0.25
 30
0.0
 11
-0.25
 21
0.25
 31
0.0
  0
ENDBLK
  5
9B
330
99
100
AcDbEntity
  8
0
100
AcDbBlockEnd
  0
BLOCK
  5
9D
330
9C
100
AcDbEntity
  8
0
100
AcDbBlockBegin
  2
EX_WBOX
 70
     0
 10
0.0
 20
0.0
 30
0.0
  3
EX_WBOX
  1

  0
LINE
  5
CC
330
9C
100
AcDbEntity
  8
0
  6
CONTINUOUS
 62
     0
100
AcDbLine
 10
-0.5
 20
0.0
 30
0.0
 11
-1.0
 21
0.0
 31
0.0
  0
LINE
  5
CD
330
9C
100
AcDbEntity
  8
0
  6
CONTINUOUS
 62
     0
100
AcDbLine
 10
-0.5
 20
0.5
 30
0.0
 11
0.5
 21
0.5
 31
0.0
  0
LINE
  5
CE
330
9C
100
AcDbEntity
  8
0
  6
CONTINUOUS
 62
     0
100
AcDbLine
 10
0.5
 20
0.5
 30
0.0
 11
0.5
 21
-0.5
 31
0.0
  0
LINE
  5
CF
330
9C
100
AcDbEntity
  8
0
  6
CONTINUOUS
 62
     0
100
AcDbLine
 10
0.5
 20
-0.5
 30
0.0
 11
-0.5
 21
-0.5
 31
0.0
  0
LINE
  5
D0
330
9C
100
AcDbEntity
  8
0
  6
CONTINUOUS
 62
     0
100
AcDbLine
 10
-0.5
 20
-0.5
 30
0.0
 11
-0.5
 21
0.5
 31
0.0
  0
ENDBLK
  5
9E
330
9C
100
AcDbEntity
  8
0
100
AcDbBlockEnd
  0
BLOCK
  5
A0
330
9F
100
AcDbEntity
  8
0
100
AcDbBlockBegin
  2
EX_INTEGRAL
 70
     0
 10
0.0
 20
0.0
 30
0.0
  3
EX_INTEGRAL
  1

  0
LINE
  5
D1
330
9F
100
AcDbEntity
  8
0
  6
CONTINUOUS
 62
     0
100
AcDbLine
 10
0.0
 20
0.0
 30
0.0
 11
-1.0
 21
0.0
 31
0.0
  0
ARC
  5
D2
330
9F
100
AcDbEntity
  8
0
  6
CONTINUOUS
 62
     0
100
AcDbCircle
 10
0.542115
 20
0.164992
 30
0.0
 40
0.56667
100
AcDbArc
 50
73.07249033629006
 51
196.9275130221199
  0
ARC
  5
D3
330
9F
100
AcDbEntity
  8
0
  6
CONTINUOUS
 62
     0
100
AcDbCircle
 10
-0.542115
 20
-0.164992
 30
0.0
 40
0.56667
100
AcDbArc
 50
253.0724869220464
 51
16.9275130559125
  0
ENDBLK
  5
A1
330
9F
100
AcDbEntity
  8
0
100
AcDbBlockEnd
  0
BLOCK
  5
307
330
306
100
AcDbEntity
  8
0
100
AcDbBlockBegin
  2
*D15
 70
     1
 10
0.0
 20
0.0
 30
0.0
  3
*D15
  1

  0
LINE
  5
309
330
306
100
AcDbEntity
  8
LAY-20
  6
CONTINUOUS
 62
     4
100
AcDbLine
 10
318.1
 20
179.89864124054
 30
0.0
 11
318.1
 21
90.898641240538
 31
0.0
  0
LINE
  5
30A
330
306
100
AcDbEntity
  8
LAY-20
  6
CONTINUOUS
 62
     4
100
AcDbLine
 10
366.1
 20
179.89864124054
 30
0.0
 11
366.1
 21
90.898641240538
 31
0.0
  0
LINE
  5
30B
330
306
100
AcDbEntity
  8
LAY-20
  6
CONTINUOUS
 62
     4
100
AcDbLine
 10
323.1
 20
93.898641240538
 30
0.0
 11
361.1
 21
93.898641240538
 31
0.0
  0
INSERT
  5
30C
330
306
100
AcDbEntity
  8
LAY-20
 62
     4
100
AcDbBlockReference
  2
EX_BNORM
 10
318.1
 20
93.898641240538
 30
0.0
 41
5.0
 42
5.0
 43
5.0
 50
180.0
  0
INSERT
  5
30D
330
306
100
AcDbEntity
  8
LAY-20
 62
     4
100
AcDbBlockReference
  2
EX_BNORM
 10
366.1
 20
93.898641240538
 30
0.0
 41
5.0
 42
5.0
 43
5.0
  0
MTEXT
  5
30E
330
306
100
AcDbEntity
  8
LAY-20
 62
     7
100
AcDbMText
 10
342.1
 20
98.898641240538
 30
0.0
 40
6.2362208
 41
0.0
 71
     5
 72
     1
  1
%%c48
  7
EXCADDIM1
  0
POINT
  5
30F
330
306
100
AcDbEntity
  8
DEFPOINTS
 62
     0
100
AcDbPoint
 10
318.1
 20
182.89864124054
 30
0.0
  0
POINT
  5
310
330
306
100
AcDbEntity
  8
DEFPOINTS
 62
     0
100
AcDbPoint
 10
366.1
 20
182.89864124054
 30
0.0
  0
POINT
  5
311
330
306
100
AcDbEntity
  8
DEFPOINTS
 62
     0
100
AcDbPoint
 10
366.1
 20
93.898641240538
 30
0.0
  0
ENDBLK
  5
308
330
306
100
AcDbEntity
  8
0
100
AcDbBlockEnd
  0
BLOCK
  5
314
330
313
100
AcDbEntity
  8
0
100
AcDbBlockBegin
  2
*D16
 70
     1
 10
0.0
 20
0.0
 30
0.0
  3
*D16
  1

  0
LINE
  5
316
330
313
100
AcDbEntity
  8
LAY-20
  6
CONTINUOUS
 62
     4
100
AcDbLine
 10
319.6
 20
139.89864124054
 30
0.0
 11
319.6
 21
104.89864124054
 31
0.0
  0
LINE
  5
317
330
313
100
AcDbEntity
  8
LAY-20
  6
CONTINUOUS
 62
     4
100
AcDbLine
 10
364.6
 20
139.89864124054
 30
0.0
 11
364.6
 21
104.89864124054
 31
0.0
  0
LINE
  5
318
330
313
100
AcDbEntity
  8
LAY-20
  6
CONTINUOUS
 62
     4
100
AcDbLine
 10
324.6
 20
107.89864124054
 30
0.0
 11
359.6
 21
107.89864124054
 31
0.0
  0
INSERT
  5
319
330
313
100
AcDbEntity
  8
LAY-20
 62
     4
100
AcDbBlockReference
  2
EX_BNORM
 10
319.6
 20
107.89864124054
 30
0.0
 41
5.0
 42
5.0
 43
5.0
 50
180.0
  0
INSERT
  5
31A
330
313
100
AcDbEntity
  8
LAY-20
 62
     4
100
AcDbBlockReference
  2
EX_BNORM
 10
364.6
 20
107.89864124054
 30
0.0
 41
5.0
 42
5.0
 43
5.0
  0
MTEXT
  5
31B
330
313
100
AcDbEntity
  8
LAY-20
 62
     7
100
AcDbMText
 10
342.1
 20
112.89864124054
 30
0.0
 40
6.2362208
 41
0.0
 71
     5
 72
     1
  1
%%c45
  7
EXCADDIM1
  0
POINT
  5
31C
330
313
100
AcDbEntity
  8
DEFPOINTS
 62
     0
100
AcDbPoint
 10
319.6
 20
142.89864124054
 30
0.0
  0
POINT
  5
31D
330
313
100
AcDbEntity
  8
DEFPOINTS
 62
     0
100
AcDbPoint
 10
364.6
 20
142.89864124054
 30
0.0
  0
POINT
  5
31E
330
313
100
AcDbEntity
  8
DEFPOINTS
 62
     0
100
AcDbPoint
 10
364.6
 20
107.89864124054
 30
0.0
  0
ENDBLK
  5
315
330
313
100
AcDbEntity
  8
0
100
AcDbBlockEnd
  0
BLOCK
  5
32F
330
32E
100
AcDbEntity
  8
0
100
AcDbBlockBegin
  2
*D17
 70
     1
 10
0.0
 20
0.0
 30
0.0
  3
*D17
  1

  0
LINE
  5
331
330
32E
100
AcDbEntity
  8
LAY-20
  6
CONTINUOUS
 62
     4
100
AcDbLine
 10
267.1
 20
203.89864124054
 30
0.0
 11
267.1
 21
329.89864124054
 31
0.0
  0
LINE
  5
332
330
32E
100
AcDbEntity
  8
LAY-20
  6
CONTINUOUS
 62
     4
100
AcDbLine
 10
417.1
 20
203.89864124054
 30
0.0
 11
417.1
 21
329.89864124054
 31
0.0
  0
LINE
  5
333
330
32E
100
AcDbEntity
  8
LAY-20
  6
CONTINUOUS
 62
     4
100
AcDbLine
 10
272.1
 20
326.89864124054
 30
0.0
 11
412.1
 21
326.89864124054
 31
0.0
  0
INSERT
  5
334
330
32E
100
AcDbEntity
  8
LAY-20
 62
     4
100
AcDbBlockReference
  2
EX_BNORM
 10
267.1
 20
326.89864124054
 30
0.0
 41
5.0
 42
5.0
 43
5.0
 50
180.0
  0
INSERT
  5
335
330
32E
100
AcDbEntity
  8
LAY-20
 62
     4
100
AcDbBlockReference
  2
EX_BNORM
 10
417.1
 20
326.89864124054
 30
0.0
 41
5.0
 42
5.0
 43
5.0
  0
MTEXT
  5
336
330
32E
100
AcDbEntity
  8
LAY-20
 62
     7
100
AcDbMText
 10
342.1
 20
331.89864124054
 30
0.0
 40
6.2362208
 41
0.0
 71
     5
 72
     1
  1
%%c150
  7
EXCADDIM1
  0
POINT
  5
337
330
32E
100
AcDbEntity
  8
DEFPOINTS
 62
     0
100
AcDbPoint
 10
267.1
 20
200.89864124054
 30
0.0
  0
POINT
  5
338
330
32E
100
AcDbEntity
  8
DEFPOINTS
 62
     0
100
AcDbPoint
 10
417.1
 20
200.89864124054
 30
0.0
  0
POINT
  5
339
330
32E
100
AcDbEntity
  8
DEFPOINTS
 62
     0
100
AcDbPoint
 10
417.1
 20
326.89864124054
 30
0.0
  0
ENDBLK
  5
330
330
32E
100
AcDbEntity
  8
0
100
AcDbBlockEnd
  0
BLOCK
  5
33C
330
33B
100
AcDbEntity
  8
0
100
AcDbBlockBegin
  2
*D18
 70
     1
 10
0.0
 20
0.0
 30
0.0
  3
*D18
  1

  0
LINE
  5
33E
330
33B
100
AcDbEntity
  8
LAY-20
  6
CONTINUOUS
 62
     4
100
AcDbLine
 10
286.1
 20
210.89864124054
 30
0.0
 11
286.1
 21
315.89864124054
 31
0.0
  0
LINE
  5
33F
330
33B
100
AcDbEntity
  8
LAY-20
  6
CONTINUOUS
 62
     4
100
AcDbLine
 10
398.1
 20
210.89864124054
 30
0.0
 11
398.1
 21
315.89864124054
 31
0.0
  0
LINE
  5
340
330
33B
100
AcDbEntity
  8
LAY-20
  6
CONTINUOUS
 62
     4
100
AcDbLine
 10
291.1
 20
312.89864124054
 30
0.0
 11
393.1
 21
312.89864124054
 31
0.0
  0
INSERT
  5
341
330
33B
100
AcDbEntity
  8
LAY-20
 62
     4
100
AcDbBlockReference
  2
EX_BNORM
 10
286.1
 20
312.89864124054
 30
0.0
 41
5.0
 42
5.0
 43
5.0
 50
180.0
  0
INSERT
  5
342
330
33B
100
AcDbEntity
  8
LAY-20
 62
     4
100
AcDbBlockReference
  2
EX_BNORM
 10
398.1
 20
312.89864124054
 30
0.0
 41
5.0
 42
5.0
 43
5.0
  0
MTEXT
  5
343
330
33B
100
AcDbEntity
  8
LAY-20
 62
     7
100
AcDbMText
 10
342.1
 20
317.89864124054
 30
0.0
 40
6.2362208
 41
0.0
 71
     5
 72
     1
  1
%%c112
  7
EXCADDIM1
  0
POINT
  5
344
330
33B
100
AcDbEntity
  8
DEFPOINTS
 62
     0
100
AcDbPoint
 10
286.1
 20
207.89864124054
 30
0.0
  0
POINT
  5
345
330
33B
100
AcDbEntity
  8
DEFPOINTS
 62
     0
100
AcDbPoint
 10
398.1
 20
207.89864124054
 30
0.0
  0
POINT
  5
346
330
33B
100
AcDbEntity
  8
DEFPOINTS
 62
     0
100
AcDbPoint
 10
398.1
 20
312.89864124054
 30
0.0
  0
ENDBLK
  5
33D
330
33B
100
AcDbEntity
  8
0
100
AcDbBlockEnd
  0
BLOCK
  5
349
330
348
100
AcDbEntity
  8
0
100
AcDbBlockBegin
  2
*D19
 70
     1
 10
0.0
 20
0.0
 30
0.0
  3
*D19
  1

  0
LINE
  5
34B
330
348
100
AcDbEntity
  8
LAY-20
  6
CONTINUOUS
 62
     4
100
AcDbLine
 10
310.12203311829
 20
267.89864124054
 30
0.0
 11
310.12203311829
 21
287.89864124054
 31
0.0
  0
LINE
  5
34C
330
348
100
AcDbEntity
  8
LAY-20
  6
CONTINUOUS
 62
     4
100
AcDbLine
 10
374.07796688179
 20
267.89864124054
 30
0.0
 11
374.07796688179
 21
287.89864124054
 31
0.0
  0
LINE
  5
34D
330
348
100
AcDbEntity
  8
LAY-20
  6
CONTINUOUS
 62
     4
100
AcDbLine
 10
315.12203311829
 20
284.89864124054
 30
0.0
 11
369.07796688179
 21
284.89864124054
 31
0.0
  0
INSERT
  5
34E
330
348
100
AcDbEntity
  8
LAY-20
 62
     4
100
AcDbBlockReference
  2
EX_BNORM
 10
310.12203311829
 20
284.89864124054
 30
0.0
 41
5.0
 42
5.0
 43
5.0
 50
180.0
  0
INSERT
  5
34F
330
348
100
AcDbEntity
  8
LAY-20
 62
     4
100
AcDbBlockReference
  2
EX_BNORM
 10
374.07796688179
 20
284.89864124054
 30
0.0
 41
5.0
 42
5.0
 43
5.0
  0
MTEXT
  5
350
330
348
100
AcDbEntity
  8
LAY-20
 62
     7
100
AcDbMText
 10
342.10000000004
 20
289.89864124054
 30
0.0
 40
6.2362208
 41
0.0
 71
     5
 72
     1
  1
%%c64
  7
EXCADDIM1
  0
POINT
  5
351
330
348
100
AcDbEntity
  8
DEFPOINTS
 62
     0
100
AcDbPoint
 10
310.12203311829
 20
264.89864124054
 30
0.0
  0
POINT
  5
352
330
348
100
AcDbEntity
  8
DEFPOINTS
 62
     0
100
AcDbPoint
 10
374.07796688179
 20
264.89864124054
 30
0.0
  0
POINT
  5
353
330
348
100
AcDbEntity
  8
DEFPOINTS
 62
     0
100
AcDbPoint
 10
374.07796688179
 20
284.89864124054
 30
0.0
  0
ENDBLK
  5
34A
330
348
100
AcDbEntity
  8
0
100
AcDbBlockEnd
  0
BLOCK
  5
356
330
355
100
AcDbEntity
  8
0
100
AcDbBlockBegin
  2
*D20
 70
     1
 10
0.0
 20
0.0
 30
0.0
  3
*D20
  1

  0
LINE
  5
358
330
355
100
AcDbEntity
  8
LAY-20
  6
CONTINUOUS
 62
     4
100
AcDbLine
 10
265.9672954017
 20
207.89864124054
 30
0.0
 11
250.1
 21
207.89864124054
 31
0.0
  0
LINE
  5
359
330
355
100
AcDbEntity
  8
LAY-20
  6
CONTINUOUS
 62
     4
100
AcDbLine
 10
301.10000000004
 20
183.89864124054
 30
0.0
 11
250.1
 21
183.89864124054
 31
0.0
  0
LINE
  5
35A
330
355
100
AcDbEntity
  8
LAY-20
  6
CONTINUOUS
 62
     4
100
AcDbLine
 10
253.1
 20
202.89864124054
 30
0.0
 11
253.1
 21
188.89864124054
 31
0.0
  0
INSERT
  5
35B
330
355
100
AcDbEntity
  8
LAY-20
 62
     4
100
AcDbBlockReference
  2
EX_BNORM
 10
253.1
 20
207.89864124054
 30
0.0
 41
5.0
 42
5.0
 43
5.0
 50
90.0
  0
INSERT
  5
35C
330
355
100
AcDbEntity
  8
LAY-20
 62
     4
100
AcDbBlockReference
  2
EX_BNORM
 10
253.1
 20
183.89864124054
 30
0.0
 41
5.0
 42
5.0
 43
5.0
 50
270.0
  0
MTEXT
  5
35D
330
355
100
AcDbEntity
  8
LAY-20
 62
     7
100
AcDbMText
 10
248.1
 20
195.89864124054
 30
0.0
 40
6.2362208
 41
0.0
 71
     5
 72
     1
  1
24
  7
EXCADDIM1
 11
0.0
 21
1.0
 31
0.0
  0
POINT
  5
35E
330
355
100
AcDbEntity
  8
DEFPOINTS
 62
     0
100
AcDbPoint
 10
268.9672954017
 20
207.89864124054
 30
0.0
  0
POINT
  5
35F
330
355
100
AcDbEntity
  8
DEFPOINTS
 62
     0
100
AcDbPoint
 10
304.10000000004
 20
183.89864124054
 30
0.0
  0
POINT
  5
360
330
355
100
AcDbEntity
  8
DEFPOINTS
 62
     0
100
AcDbPoint
 10
253.1
 20
183.89864124054
 30
0.0
  0
ENDBLK
  5
357
330
355
100
AcDbEntity
  8
0
100
AcDbBlockEnd
  0
BLOCK
  5
393
330
392
100
AcDbEntity
  8
0
100
AcDbBlockBegin
  2
*D21
 70
     1
 10
0.0
 20
0.0
 30
0.0
  3
*D21
  1

  0
LINE
  5
395
330
392
100
AcDbEntity
  8
LAY-20
  6
CONTINUOUS
 62
     4
100
AcDbLine
 10
418.2327045983
 20
207.89864124054
 30
0.0
 11
440.1
 21
207.89864124054
 31
0.0
  0
LINE
  5
396
330
392
100
AcDbEntity
  8
LAY-20
  6
CONTINUOUS
 62
     4
100
AcDbLine
 10
383.10000000004
 20
127.89864124054
 30
0.0
 11
440.1
 21
127.89864124054
 31
0.0
  0
LINE
  5
397
330
392
100
AcDbEntity
  8
LAY-20
  6
CONTINUOUS
 62
     4
100
AcDbLine
 10
437.1
 20
202.89864124054
 30
0.0
 11
437.1
 21
132.89864124054
 31
0.0
  0
INSERT
  5
398
330
392
100
AcDbEntity
  8
LAY-20
 62
     4
100
AcDbBlockReference
  2
EX_BNORM
 10
437.1
 20
207.89864124054
 30
0.0
 41
5.0
 42
5.0
 43
5.0
 50
90.0
  0
INSERT
  5
399
330
392
100
AcDbEntity
  8
LAY-20
 62
     4
100
AcDbBlockReference
  2
EX_BNORM
 10
437.1
 20
127.89864124054
 30
0.0
 41
5.0
 42
5.0
 43
5.0
 50
270.0
  0
MTEXT
  5
39A
330
392
100
AcDbEntity
  8
LAY-20
 62
     7
100
AcDbMText
 10
432.1
 20
167.89864124054
 30
0.0
 40
6.2362208
 41
0.0
 71
     5
 72
     1
  1
80
  7
EXCADDIM1
 11
0.0
 21
1.0
 31
0.0
  0
POINT
  5
39B
330
392
100
AcDbEntity
  8
DEFPOINTS
 62
     0
100
AcDbPoint
 10
415.2327045983
 20
207.89864124054
 30
0.0
  0
POINT
  5
39C
330
392
100
AcDbEntity
  8
DEFPOINTS
 62
     0
100
AcDbPoint
 10
380.10000000004
 20
127.89864124054
 30
0.0
  0
POINT
  5
39D
330
392
100
AcDbEntity
  8
DEFPOINTS
 62
     0
100
AcDbPoint
 10
437.1
 20
127.89864124054
 30
0.0
  0
ENDBLK
  5
394
330
392
100
AcDbEntity
  8
0
100
AcDbBlockEnd
  0
BLOCK
  5
3A0
330
39F
100
AcDbEntity
  8
0
100
AcDbBlockBegin
  2
*D22
 70
     1
 10
0.0
 20
0.0
 30
0.0
  3
*D22
  1

  0
LINE
  5
3A2
330
39F
100
AcDbEntity
  8
LAY-20
  6
CONTINUOUS
 62
     4
100
AcDbLine
 10
381.10000000004
 20
264.89864124054
 30
0.0
 11
440.1
 21
264.89864124054
 31
0.0
  0
LINE
  5
3A3
330
39F
100
AcDbEntity
  8
LAY-20
  6
CONTINUOUS
 62
     4
100
AcDbLine
 10
437.1
 20
212.89864124054
 30
0.0
 11
437.1
 21
259.89864124054
 31
0.0
  0
INSERT
  5
3A4
330
39F
100
AcDbEntity
  8
LAY-20
 62
     4
100
AcDbBlockReference
  2
EX_BNORM
 10
437.1
 20
207.89864124054
 30
0.0
 41
5.0
 42
5.0
 43
5.0
 50
270.0
  0
INSERT
  5
3A5
330
39F
100
AcDbEntity
  8
LAY-20
 62
     4
100
AcDbBlockReference
  2
EX_BNORM
 10
437.1
 20
264.89864124054
 30
0.0
 41
5.0
 42
5.0
 43
5.0
 50
90.0
  0
MTEXT
  5
3A6
330
39F
100
AcDbEntity
  8
LAY-20
 62
     7
100
AcDbMText
 10
432.1
 20
236.39864124054
 30
0.0
 40
6.2362208
 41
0.0
 71
     5
 72
     1
  1
57
  7
EXCADDIM1
 11
0.0
 21
1.0
 31
0.0
  0
POINT
  5
3A7
330
39F
100
AcDbEntity
  8
DEFPOINTS
 62
     0
100
AcDbPoint
 10
437.1
 20
207.89864124054
 30
0.0
  0
POINT
  5
3A8
330
39F
100
AcDbEntity
  8
DEFPOINTS
 62
     0
100
AcDbPoint
 10
378.10000000004
 20
264.89864124054
 30
0.0
  0
POINT
  5
3A9
330
39F
100
AcDbEntity
  8
DEFPOINTS
 62
     0
100
AcDbPoint
 10
437.1
 20
264.89864124054
 30
0.0
  0
ENDBLK
  5
3A1
330
39F
100
AcDbEntity
  8
0
100
AcDbBlockEnd
  0
BLOCK
  5
3AC
330
3AB
100
AcDbEntity
  8
0
100
AcDbBlockBegin
  2
*D23
 70
     1
 10
0.0
 20
0.0
 30
0.0
  3
*D23
  1

  0
LINE
  5
3AE
330
3AB
100
AcDbEntity
  8
LAY-20
  6
CONTINUOUS
 62
     4
100
AcDbLine
 10
395.60000000004
 20
207.89864124054
 30
0.0
 11
395.60000000004
 21
301.89864124054
 31
0.0
  0
LINE
  5
3AF
330
3AB
100
AcDbEntity
  8
LAY-20
  6
CONTINUOUS
 62
     4
100
AcDbLine
 10
288.6
 20
207.89864124054
 30
0.0
 11
288.6
 21
301.89864124054
 31
0.0
  0
LINE
  5
3B0
330
3AB
100
AcDbEntity
  8
LAY-20
  6
CONTINUOUS
 62
     4
100
AcDbLine
 10
390.60000000004
 20
298.89864124054
 30
0.0
 11
293.6
 21
298.89864124054
 31
0.0
  0
INSERT
  5
3B1
330
3AB
100
AcDbEntity
  8
LAY-20
 62
     4
100
AcDbBlockReference
  2
EX_BNORM
 10
395.60000000004
 20
298.89864124054
 30
0.0
 41
5.0
 42
5.0
 43
5.0
  0
INSERT
  5
3B2
330
3AB
100
AcDbEntity
  8
LAY-20
 62
     4
100
AcDbBlockReference
  2
EX_BNORM
 10
288.6
 20
298.89864124054
 30
0.0
 41
5.0
 42
5.0
 43
5.0
 50
180.0
  0
MTEXT
  5
3B3
330
3AB
100
AcDbEntity
  8
LAY-20
 62
     7
100
AcDbMText
 10
342.10000000002
 20
303.89864124054
 30
0.0
 40
6.2362208
 41
0.0
 71
     5
 72
     1
  1
%%c107
  7
EXCADDIM1
  0
POINT
  5
3B4
330
3AB
100
AcDbEntity
  8
DEFPOINTS
 62
     0
100
AcDbPoint
 10
395.60000000004
 20
204.89864124054
 30
0.0
  0
POINT
  5
3B5
330
3AB
100
AcDbEntity
  8
DEFPOINTS
 62
     0
100
AcDbPoint
 10
288.6
 20
204.89864124054
 30
0.0
  0
POINT
  5
3B6
330
3AB
100
AcDbEntity
  8
DEFPOINTS
 62
     0
100
AcDbPoint
 10
288.6
 20
298.89864124054
 30
0.0
  0
ENDBLK
  5
3AD
330
3AB
100
AcDbEntity
  8
0
100
AcDbBlockEnd
  0
ENDSEC
  0
SECTION
  2
ENTITIES
  0
LINE
  5
D4
330
1F
100
AcDbEntity
  8
LAY-10
  6
CONTINUOUS
 62
     7
100
AcDbLine
 10
304.0999999999999
 20
183.3705627484773
 30
0.0
 11
304.7923472461657
 21
184.0629099946431
 31
0.0
  0
LINE
  5
D5
330
1F
100
AcDbEntity
  8
LAY-10
  6
CONTINUOUS
 62
     7
100
AcDbLine
 10
304.0999999999999
 20
180.5421356237311
 30
0.0
 11
306.5999999999999
 21
183.042135623731
 31
0.0
  0
LINE
  5
D6
330
1F
100
AcDbEntity
  8
LAY-10
  6
CONTINUOUS
 62
     7
100
AcDbLine
 10
304.0999999999999
 20
177.7137084989848
 30
0.0
 11
306.6000000000001
 21
180.2137084989847
 31
0.0
  0
LINE
  5
D7
330
1F
100
AcDbEntity
  8
LAY-10
  6
CONTINUOUS
 62
     7
100
AcDbLine
 10
304.0999999999999
 20
174.8852813742385
 30
0.0
 11
306.6000000000001
 21
177.3852813742384
 31
0.0
  0
LINE
  5
D8
330
1F
100
AcDbEntity
  8
LAY-10
  6
CONTINUOUS
 62
     7
100
AcDbLine
 10
304.0999999999999
 20
172.0568542494923
 30
0.0
 11
306.5999999999999
 21
174.5568542494922
 31
0.0
  0
LINE
  5
D9
330
1F
100
AcDbEntity
  8
LAY-10
  6
CONTINUOUS
 62
     7
100
AcDbLine
 10
304.0999999999999
 20
169.228427124746
 30
0.0
 11
306.6000000000001
 21
171.7284271247459
 31
0.0
  0
LINE
  5
DA
330
1F
100
AcDbEntity
  8
LAY-10
  6
CONTINUOUS
 62
     7
100
AcDbLine
 10
304.0999999999999
 20
166.3999999999997
 30
0.0
 11
306.6000000000001
 21
168.8999999999996
 31
0.0
  0
LINE
  5
DB
330
1F
100
AcDbEntity
  8
LAY-10
  6
CONTINUOUS
 62
     7
100
AcDbLine
 10
304.0999999999999
 20
163.5715728752535
 30
0.0
 11
306.5999999999999
 21
166.0715728752534
 31
0.0
  0
LINE
  5
DC
330
1F
100
AcDbEntity
  8
LAY-10
  6
CONTINUOUS
 62
     7
100
AcDbLine
 10
304.0999999999999
 20
160.7431457505072
 30
0.0
 11
306.6000000000001
 21
163.2431457505071
 31
0.0
  0
LINE
  5
DD
330
1F
100
AcDbEntity
  8
LAY-10
  6
CONTINUOUS
 62
     7
100
AcDbLine
 10
304.0999999999999
 20
157.9147186257609
 30
0.0
 11
306.6000000000001
 21
160.4147186257608
 31
0.0
  0
LINE
  5
DE
330
1F
100
AcDbEntity
  8
LAY-10
  6
CONTINUOUS
 62
     7
100
AcDbLine
 10
304.0999999999999
 20
155.0862915010147
 30
0.0
 11
306.5999999999999
 21
157.5862915010146
 31
0.0
  0
LINE
  5
DF
330
1F
100
AcDbEntity
  8
LAY-10
  6
CONTINUOUS
 62
     7
100
AcDbLine
 10
304.0999999999999
 20
152.2578643762684
 30
0.0
 11
306.6000000000001
 21
154.7578643762683
 31
0.0
  0
LINE
  5
E0
330
1F
100
AcDbEntity
  8
LAY-10
  6
CONTINUOUS
 62
     7
100
AcDbLine
 10
304.0999999999999
 20
149.4294372515221
 30
0.0
 11
306.6000000000001
 21
151.929437251522
 31
0.0
  0
LINE
  5
E1
330
1F
100
AcDbEntity
  8
LAY-10
  6
CONTINUOUS
 62
     7
100
AcDbLine
 10
304.0999999999999
 20
146.6010101267759
 30
0.0
 11
306.5999999999999
 21
149.1010101267758
 31
0.0
  0
LINE
  5
E2
330
1F
100
AcDbEntity
  8
LAY-10
  6
CONTINUOUS
 62
     7
100
AcDbLine
 10
304.0999999999999
 20
143.7725830020296
 30
0.0
 11
306.6000000000001
 21
146.2725830020295
 31
0.0
  0
LINE
  5
E3
330
1F
100
AcDbEntity
  8
LAY-10
  6
CONTINUOUS
 62
     7
100
AcDbLine
 10
304.0999999999999
 20
140.9441558772833
 30
0.0
 11
306.6000000000001
 21
143.4441558772832
 31
0.0
  0
LINE
  5
E4
330
1F
100
AcDbEntity
  8
LAY-10
  6
CONTINUOUS
 62
     7
100
AcDbLine
 10
304.0999999999999
 20
138.1157287525369
 30
0.0
 11
306.5999999999999
 21
140.6157287525369
 31
0.0
  0
LINE
  5
E5
330
1F
100
AcDbEntity
  8
LAY-10
  6
CONTINUOUS
 62
     7
100
AcDbLine
 10
304.0999999999999
 20
135.2873016277907
 30
0.0
 11
306.6000000000001
 21
137.7873016277907
 31
0.0
  0
LINE
  5
E6
330
1F
100
AcDbEntity
  8
LAY-10
  6
CONTINUOUS
 62
     7
100
AcDbLine
 10
304.0999999999999
 20
132.4588745030445
 30
0.0
 11
306.6000000000001
 21
134.9588745030444
 31
0.0
  0
LINE
  5
E7
330
1F
100
AcDbEntity
  8
LAY-10
  6
CONTINUOUS
 62
     7
100
AcDbLine
 10
304.0999999999999
 20
129.6304473782981
 30
0.0
 11
306.5999999999999
 21
132.1304473782981
 31
0.0
  0
LINE
  5
E8
330
1F
100
AcDbEntity
  8
LAY-10
  6
CONTINUOUS
 62
     7
100
AcDbLine
 10
305.1966209869861
 20
127.8986412405381
 30
0.0
 11
306.6000000000001
 21
129.3020202535519
 31
0.0
  0
LINE
  5
E9
330
1F
100
AcDbEntity
  8
LAY-10
  6
CONTINUOUS
 62
     7
100
AcDbLine
 10
377.5999999999999
 20
180.5421356237311
 30
0.0
 11
380.0999999999999
 21
183.042135623731
 31
0.0
  0
LINE
  5
EA
330
1F
100
AcDbEntity
  8
LAY-10
  6
CONTINUOUS
 62
     7
100
AcDbLine
 10
377.5999999999999
 20
177.7137084989848
 30
0.0
 11
380.1000000000001
 21
180.2137084989847
 31
0.0
  0
LINE
  5
EB
330
1F
100
AcDbEntity
  8
LAY-10
  6
CONTINUOUS
 62
     7
100
AcDbLine
 10
377.5999999999999
 20
174.8852813742385
 30
0.0
 11
380.1000000000001
 21
177.3852813742384
 31
0.0
  0
LINE
  5
EC
330
1F
100
AcDbEntity
  8
LAY-10
  6
CONTINUOUS
 62
     7
100
AcDbLine
 10
377.5999999999999
 20
172.0568542494923
 30
0.0
 11
380.0999999999999
 21
174.5568542494922
 31
0.0
  0
LINE
  5
ED
330
1F
100
AcDbEntity
  8
LAY-10
  6
CONTINUOUS
 62
     7
100
AcDbLine
 10
377.5999999999999
 20
169.228427124746
 30
0.0
 11
380.1000000000001
 21
171.7284271247459
 31
0.0
  0
LINE
  5
EE
330
1F
100
AcDbEntity
  8
LAY-10
  6
CONTINUOUS
 62
     7
100
AcDbLine
 10
377.5999999999999
 20
166.3999999999997
 30
0.0
 11
380.1000000000001
 21
168.8999999999996
 31
0.0
  0
LINE
  5
EF
330
1F
100
AcDbEntity
  8
LAY-10
  6
CONTINUOUS
 62
     7
100
AcDbLine
 10
377.5999999999999
 20
163.5715728752535
 30
0.0
 11
380.0999999999999
 21
166.0715728752534
 31
0.0
  0
LINE
  5
F0
330
1F
100
AcDbEntity
  8
LAY-10
  6
CONTINUOUS
 62
     7
100
AcDbLine
 10
377.5999999999999
 20
160.7431457505072
 30
0.0
 11
380.1000000000001
 21
163.2431457505071
 31
0.0
  0
LINE
  5
F1
330
1F
100
AcDbEntity
  8
LAY-10
  6
CONTINUOUS
 62
     7
100
AcDbLine
 10
377.5999999999999
 20
157.9147186257609
 30
0.0
 11
380.1000000000001
 21
160.4147186257608
 31
0.0
  0
LINE
  5
F2
330
1F
100
AcDbEntity
  8
LAY-10
  6
CONTINUOUS
 62
     7
100
AcDbLine
 10
377.5999999999999
 20
155.0862915010147
 30
0.0
 11
380.0999999999999
 21
157.5862915010146
 31
0.0
  0
LINE
  5
F3
330
1F
100
AcDbEntity
  8
LAY-10
  6
CONTINUOUS
 62
     7
100
AcDbLine
 10
377.5999999999999
 20
152.2578643762684
 30
0.0
 11
380.1000000000001
 21
154.7578643762683
 31
0.0
  0
LINE
  5
F4
330
1F
100
AcDbEntity
  8
LAY-10
  6
CONTINUOUS
 62
     7
100
AcDbLine
 10
377.5999999999999
 20
149.4294372515221
 30
0.0
 11
380.1000000000001
 21
151.929437251522
 31
0.0
  0
LINE
  5
F5
330
1F
100
AcDbEntity
  8
LAY-10
  6
CONTINUOUS
 62
     7
100
AcDbLine
 10
377.5999999999999
 20
146.6010101267759
 30
0.0
 11
380.0999999999999
 21
149.1010101267758
 31
0.0
  0
LINE
  5
F6
330
1F
100
AcDbEntity
  8
LAY-10
  6
CONTINUOUS
 62
     7
100
AcDbLine
 10
377.5999999999999
 20
143.7725830020296
 30
0.0
 11
380.1000000000001
 21
146.2725830020295
 31
0.0
  0
LINE
  5
F7
330
1F
100
AcDbEntity
  8
LAY-10
  6
CONTINUOUS
 62
     7
100
AcDbLine
 10
377.5999999999999
 20
140.9441558772833
 30
0.0
 11
380.1000000000001
 21
143.4441558772832
 31
0.0
  0
LINE
  5
F8
330
1F
100
AcDbEntity
  8
LAY-10
  6
CONTINUOUS
 62
     7
100
AcDbLine
 10
377.5999999999999
 20
138.1157287525369
 30
0.0
 11
380.0999999999999
 21
140.6157287525369
 31
0.0
  0
LINE
  5
F9
330
1F
100
AcDbEntity
  8
LAY-10
  6
CONTINUOUS
 62
     7
100
AcDbLine
 10
377.5999999999999
 20
135.2873016277907
 30
0.0
 11
380.1000000000001
 21
137.7873016277907
 31
0.0
  0
LINE
  5
FA
330
1F
100
AcDbEntity
  8
LAY-10
  6
CONTINUOUS
 62
     7
100
AcDbLine
 10
377.5999999999999
 20
132.4588745030445
 30
0.0
 11
380.1000000000001
 21
134.9588745030444
 31
0.0
  0
LINE
  5
FB
330
1F
100
AcDbEntity
  8
LAY-10
  6
CONTINUOUS
 62
     7
100
AcDbLine
 10
377.5999999999999
 20
129.6304473782981
 30
0.0
 11
380.0999999999999
 21
132.1304473782981
 31
0.0
  0
LINE
  5
FC
330
1F
100
AcDbEntity
  8
LAY-10
  6
CONTINUOUS
 62
     7
100
AcDbLine
 10
378.6966209869861
 20
127.8986412405381
 30
0.0
 11
380.1000000000001
 21
129.3020202535519
 31
0.0
  0
LINE
  5
FD
330
1F
100
AcDbEntity
  8
LAY-10
  6
CONTINUOUS
 62
     7
100
AcDbLine
 10
377.5999999999999
 20
183.3705627484773
 30
0.0
 11
378.1854153271945
 21
183.9559780756716
 31
0.0
  0
LINE
  5
FE
330
1F
100
AcDbEntity
  8
LAY-10
  6
CONTINUOUS
 62
     7
100
AcDbLine
 10
280.2896262955996
 20
205.9721866807511
 30
0.0
 11
273.100000000002
 21
207.898641240538
 31
0.0
  0
LINE
  5
FF
330
1F
100
AcDbEntity
  8
LAY-10
  6
CONTINUOUS
 62
     7
100
AcDbLine
 10
267.1000000000001
 20
200.898641240538
 30
0.0
 11
282.4613650709919
 21
200.898641240538
 31
0.0
  0
LINE
  5
100
330
1F
100
AcDbEntity
  8
LAY-10
  6
CONTINUOUS
 62
     7
100
AcDbLine
 10
267.1000000000001
 20
200.898641240538
 30
0.0
 11
267.9773459080341
 21
207.0400625967753
 31
0.0
  0
LINE
  5
101
330
1F
100
AcDbEntity
  8
LAY-10
  6
CONTINUOUS
 62
     7
100
AcDbLine
 10
271.140610178209
 20
200.898641240538
 30
0.0
 11
271.2872389158981
 21
201.9250424043601
 31
0.0
  0
LINE
  5
102
330
1F
100
AcDbEntity
  8
LAY-10
  6
CONTINUOUS
 62
     7
100
AcDbLine
 10
273.7847759934255
 20
203.5740513444636
 30
0.0
 11
281.0391608067616
 21
201.6302447921456
 31
0.0
  0
ARC
  5
103
330
1F
100
AcDbEntity
  8
LAY-10
  6
CONTINUOUS
 62
     7
100
AcDbCircle
 10
273.2671379032204
 20
201.6421996918855
 30
0.0
 40
2.0
100
AcDbArc
 50
74.99999999999885
 51
171.8698976458433
  0
LINE
  5
104
330
1F
100
AcDbEntity
  8
LAY-10
  6
CONTINUOUS
 62
     7
100
AcDbLine
 10
286.4695972662266
 20
200.8463052842951
 30
0.0
 11
286.1496649680416
 21
206.9509771967809
 31
0.0
  0
ARC
  5
105
330
1F
100
AcDbEntity
  8
LAY-10
  6
CONTINUOUS
 62
     7
100
AcDbCircle
 10
280.5215227165568
 20
199.6983931395674
 30
0.0
 40
2.0
100
AcDbArc
 50
3.000000000002184
 51
75.00000000000554
  0
LINE
  5
106
330
1F
100
AcDbEntity
  8
LAY-10
  6
CONTINUOUS
 62
     7
100
AcDbLine
 10
397.7304027337734
 20
200.8463052842951
 30
0.0
 11
398.0503350319584
 21
206.9509771967809
 31
0.0
  0
LINE
  5
107
330
1F
100
AcDbEntity
  8
LAY-10
  6
CONTINUOUS
 62
     7
100
AcDbLine
 10
417.0999999999999
 20
200.898641240538
 30
0.0
 11
416.2226540919664
 21
207.0400625967753
 31
0.0
  0
LINE
  5
108
330
1F
100
AcDbEntity
  8
LAY-10
  6
CONTINUOUS
 62
     7
100
AcDbLine
 10
403.9103737044009
 20
205.9721866807511
 30
0.0
 11
411.0999999999981
 21
207.898641240538
 31
0.0
  0
LINE
  5
109
330
1F
100
AcDbEntity
  8
LAY-10
  6
CONTINUOUS
 62
     7
100
AcDbLine
 10
395.7592355561358
 20
185.4934881205465
 30
0.0
 11
386.4659788393415
 21
184.6804335105909
 31
0.0
  0
ARC
  5
10A
330
1F
100
AcDbEntity
  8
LAY-10
  6
CONTINUOUS
 62
     7
100
AcDbCircle
 10
395.2363010996498
 20
191.4706563090969
 30
0.0
 40
6.000000000000004
100
AcDbArc
 50
274.9999999999998
 51
344.8110826733599
  0
LINE
  5
10B
330
1F
100
AcDbEntity
  8
LAY-10
  6
CONTINUOUS
 62
     7
100
AcDbLine
 10
319.6000000000004
 20
142.8986412405397
 30
0.0
 11
364.5999999999999
 21
142.8986412405397
 31
0.0
  0
LINE
  5
10C
330
1F
100
AcDbEntity
  8
LAY-10
  6
CONTINUOUS
 62
     7
100
AcDbLine
 10
282.5187817860658
 20
199.8030650520534
 30
0.0
 11
282.9719216918229
 21
191.1566405716393
 31
0.0
  0
ARC
  5
10D
330
1F
100
AcDbEntity
  8
LAY-10
  6
CONTINUOUS
 62
     7
100
AcDbCircle
 10
288.9636989003502
 20
191.4706563090969
 30
0.0
 40
6.000000000000004
100
AcDbArc
 50
182.9999999999998
 51
265.0000000000003
  0
LINE
  5
10E
330
1F
100
AcDbEntity
  8
LAY-10
  6
CONTINUOUS
 62
     7
100
AcDbLine
 10
416.1826785685419
 20
190.8081054944954
 30
0.0
 11
417.1000000000004
 21
200.898641240538
 31
0.0
  0
LINE
  5
10F
330
1F
100
AcDbEntity
  8
LAY-10
  6
CONTINUOUS
 62
     7
100
AcDbLine
 10
401.0267042483285
 20
189.898641240538
 30
0.0
 11
415.1867853620738
 21
189.898641240538
 31
0.0
  0
LINE
  5
110
330
1F
100
AcDbEntity
  8
LAY-10
  6
CONTINUOUS
 62
     7
100
AcDbLine
 10
350.5478450644898
 20
191.3532483500941
 30
0.0
 11
384.6521549355107
 21
191.3532483500941
 31
0.0
  0
LINE
  5
111
330
1F
100
AcDbEntity
  8
LAY-10
  6
CONTINUOUS
 62
     7
100
AcDbLine
 10
301.5478450644907
 20
191.3532483500941
 30
0.0
 11
337.6521549355111
 21
191.3532483500941
 31
0.0
  0
ARC
  5
112
330
1F
100
AcDbEntity
  8
LAY-10
  6
CONTINUOUS
 62
     7
100
AcDbCircle
 10
282.7369555539149
 20
206.898641240538
 30
0.0
 40
1.0
100
AcDbArc
 50
90.0
 51
154.990649752428
  0
ARC
  5
113
330
1F
100
AcDbEntity
  8
LAY-10
  6
CONTINUOUS
 62
     7
100
AcDbCircle
 10
285.1510354332872
 20
206.898641240538
 30
0.0
 40
1.0
100
AcDbArc
 50
2.999999999997314
 51
90.0
  0
ARC
  5
114
330
1F
100
AcDbEntity
  8
LAY-10
  6
CONTINUOUS
 62
     7
100
AcDbCircle
 10
286.1067757426549
 20
206.898641240538
 30
0.0
 40
1.0
100
AcDbArc
 50
2.999999999997314
 51
90.0
  0
LINE
  5
115
330
1F
100
AcDbEntity
  8
LAY-10
  6
CONTINUOUS
 62
     7
100
AcDbLine
 10
287.282407068469
 20
205.2614933276538
 30
0.0
 11
287.0945682913784
 21
207.054416337027
 31
0.0
  0
ARC
  5
116
330
1F
100
AcDbEntity
  8
LAY-10
  6
CONTINUOUS
 62
     7
100
AcDbCircle
 10
288.276963797553
 20
205.3656898373541
 30
0.0
 40
1.0
100
AcDbArc
 50
185.9808760317549
 51
270.0
  0
ARC
  5
117
330
1F
100
AcDbEntity
  8
LAY-10
  6
CONTINUOUS
 62
     7
100
AcDbCircle
 10
331.5748403345237
 20
207.5213730875444
 30
0.0
 40
0.3772681529984681
100
AcDbArc
 50
344.9638463877196
 51
151.5487802265628
  0
LINE
  5
118
330
1F
100
AcDbEntity
  8
LAY-10
  6
CONTINUOUS
 62
     7
100
AcDbLine
 10
330.4723665143858
 20
206.2786373170852
 30
0.0
 11
331.2431374838818
 21
207.7011075531844
 31
0.0
  0
ARC
  5
119
330
1F
100
AcDbEntity
  8
LAY-10
  6
CONTINUOUS
 62
     7
100
AcDbCircle
 10
329.5931434789652
 20
206.7550477010889
 30
0.0
 40
1.0
100
AcDbArc
 50
270.0
 51
331.5487802265585
  0
LINE
  5
11A
330
1F
100
AcDbEntity
  8
LAY-10
  6
CONTINUOUS
 62
     7
100
AcDbLine
 10
331.3167223274681
 20
205.1062613450356
 30
0.0
 11
331.9391917009557
 21
207.4234989794135
 31
0.0
  0
ARC
  5
11B
330
1F
100
AcDbEntity
  8
LAY-10
  6
CONTINUOUS
 62
     7
100
AcDbCircle
 10
352.6251596654765
 20
207.5213730875444
 30
0.0
 40
0.3772681529984681
100
AcDbArc
 50
28.45121977351058
 51
195.036153612302
  0
LINE
  5
11C
330
1F
100
AcDbEntity
  8
LAY-10
  6
CONTINUOUS
 62
     7
100
AcDbLine
 10
353.7276334856147
 20
206.2786373170852
 30
0.0
 11
352.9568625161187
 21
207.7011075531844
 31
0.0
  0
ARC
  5
11D
330
1F
100
AcDbEntity
  8
LAY-10
  6
CONTINUOUS
 62
     7
100
AcDbCircle
 10
354.6068565210346
 20
206.7550477010889
 30
0.0
 40
1.0
100
AcDbArc
 50
208.4512197734416
 51
270.0
  0
LINE
  5
11E
330
1F
100
AcDbEntity
  8
LAY-10
  6
CONTINUOUS
 62
     7
100
AcDbLine
 10
352.8832776725321
 20
205.1062613450356
 30
0.0
 11
352.2608082990448
 21
207.4234989794135
 31
0.0
  0
ARC
  5
11F
330
1F
100
AcDbEntity
  8
LAY-10
  6
CONTINUOUS
 62
     7
100
AcDbCircle
 10
385.596077908076
 20
206.898641240538
 30
0.0
 40
1.0
100
AcDbArc
 50
90.0
 51
167.3172441926778
  0
ARC
  5
120
330
1F
100
AcDbEntity
  8
LAY-10
  6
CONTINUOUS
 62
     7
100
AcDbCircle
 10
401.4630444460856
 20
206.898641240538
 30
0.0
 40
1.0
100
AcDbArc
 50
25.00935024758189
 51
90.0
  0
ARC
  5
121
330
1F
100
AcDbEntity
  8
LAY-10
  6
CONTINUOUS
 62
     7
100
AcDbCircle
 10
399.048964566713
 20
206.898641240538
 30
0.0
 40
1.0
100
AcDbArc
 50
90.0
 51
177.0000000000028
  0
ARC
  5
122
330
1F
100
AcDbEntity
  8
LAY-10
  6
CONTINUOUS
 62
     7
100
AcDbCircle
 10
395.8738161371207
 20
206.898641240538
 30
0.0
 40
1.0
100
AcDbArc
 50
90.0
 51
182.4954917247356
  0
ARC
  5
123
330
1F
100
AcDbEntity
  8
LAY-10
  6
CONTINUOUS
 62
     7
100
AcDbCircle
 10
398.0932242573454
 20
206.898641240538
 30
0.0
 40
1.0
100
AcDbArc
 50
90.0
 51
177.0000000000044
  0
LINE
  5
124
330
1F
100
AcDbEntity
  8
LAY-10
  6
CONTINUOUS
 62
     7
100
AcDbLine
 10
396.9175929315315
 20
205.2614933276538
 30
0.0
 11
397.1054317086221
 21
207.054416337027
 31
0.0
  0
ARC
  5
125
330
1F
100
AcDbEntity
  8
LAY-10
  6
CONTINUOUS
 62
     7
100
AcDbCircle
 10
395.9230362024473
 20
205.3656898373541
 30
0.0
 40
1.0
100
AcDbArc
 50
270.0
 51
354.0191239682451
  0
LINE
  5
126
330
1F
100
AcDbEntity
  8
LAY-10
  6
CONTINUOUS
 62
     7
100
AcDbLine
 10
394.9415737415234
 20
205.3221490594807
 30
0.0
 11
394.8747644864725
 21
206.8551004626646
 31
0.0
  0
LINE
  5
127
330
1F
100
AcDbEntity
  8
LAY-10
  6
CONTINUOUS
 62
     7
100
AcDbLine
 10
402.7453158525052
 20
206.5153463481979
 30
0.0
 11
402.3692832528786
 21
207.3214073993801
 31
0.0
  0
ARC
  5
128
330
1F
100
AcDbEntity
  8
LAY-10
  6
CONTINUOUS
 62
     7
100
AcDbCircle
 10
403.651554659298
 20
206.9381125070401
 30
0.0
 40
1.0
100
AcDbArc
 50
205.0093502475879
 51
285.0000000000214
  0
LINE
  5
129
330
1F
100
AcDbEntity
  8
LAY-10
  6
CONTINUOUS
 62
     7
100
AcDbLine
 10
281.4546841474953
 20
206.5153463481979
 30
0.0
 11
281.8307167471216
 21
207.3214073993801
 31
0.0
  0
ARC
  5
12A
330
1F
100
AcDbEntity
  8
LAY-10
  6
CONTINUOUS
 62
     7
100
AcDbCircle
 10
280.5484453407021
 20
206.9381125070401
 30
0.0
 40
1.0
100
AcDbArc
 50
255.0000000000056
 51
334.9906497524252
  0
ARC
  5
12B
330
1F
100
AcDbEntity
  8
LAY-10
  6
CONTINUOUS
 62
     7
100
AcDbCircle
 10
396.731773199019
 20
200.898641240538
 30
0.0
 40
1.0
100
AcDbArc
 50
270.0
 51
357.0000000000028
  0
ARC
  5
12C
330
1F
100
AcDbEntity
  8
LAY-10
  6
CONTINUOUS
 62
     7
100
AcDbCircle
 10
386.0489645667151
 20
198.898641240538
 30
0.0
 40
1.0
100
AcDbArc
 50
90.0
 51
176.9999999999979
  0
ARC
  5
12D
330
1F
100
AcDbEntity
  8
LAY-10
  6
CONTINUOUS
 62
     7
100
AcDbCircle
 10
415.1867853620738
 20
190.8986412405379
 30
0.0
 40
1.0
100
AcDbArc
 50
270.0
 51
354.8055710922648
  0
ARC
  5
12E
330
1F
100
AcDbEntity
  8
LAY-10
  6
CONTINUOUS
 62
     7
100
AcDbCircle
 10
415.232704598305
 20
206.898641240538
 30
0.0
 40
1.0
100
AcDbArc
 50
8.130102354157358
 51
90.0
  0
ARC
  5
12F
330
1F
100
AcDbEntity
  8
LAY-10
  6
CONTINUOUS
 62
     7
100
AcDbCircle
 10
268.9672954016951
 20
206.898641240538
 30
0.0
 40
1.0
100
AcDbArc
 50
90.0
 51
171.8698976458427
  0
ARC
  5
130
330
1F
100
AcDbEntity
  8
LAY-10
  6
CONTINUOUS
 62
     7
100
AcDbCircle
 10
300.1510354332863
 20
198.898641240538
 30
0.0
 40
1.0
100
AcDbArc
 50
3.000000000002184
 51
90.0
  0
ARC
  5
131
330
1F
100
AcDbEntity
  8
LAY-10
  6
CONTINUOUS
 62
     7
100
AcDbCircle
 10
287.4682268009815
 20
200.898641240538
 30
0.0
 40
1.0
100
AcDbArc
 50
182.9999999999957
 51
270.0
  0
LINE
  5
132
330
1F
100
AcDbEntity
  8
LAY-10
  6
CONTINUOUS
 62
     7
100
AcDbLine
 10
289.1000000000006
 20
193.3986412405656
 30
0.0
 11
289.1000000000006
 21
192.3986412405662
 31
0.0
  0
LINE
  5
133
330
1F
100
AcDbEntity
  8
LAY-10
  6
CONTINUOUS
 62
     7
100
AcDbLine
 10
294.0999999999999
 20
193.3986412405656
 30
0.0
 11
294.0999999999999
 21
192.3986412405673
 31
0.0
  0
LINE
  5
134
330
1F
100
AcDbEntity
  8
LAY-10
  6
CONTINUOUS
 62
     7
100
AcDbLine
 10
289.1000000000006
 20
192.3986412405662
 30
0.0
 11
294.0999999999999
 21
192.3986412405662
 31
0.0
  0
LINE
  5
135
330
1F
100
AcDbEntity
  8
LAY-10
  6
CONTINUOUS
 62
     7
100
AcDbLine
 10
291.5999999999995
 20
190.9552655675926
 30
0.0
 11
289.1000000000004
 21
192.3986412405662
 31
0.0
  0
LINE
  5
136
330
1F
100
AcDbEntity
  8
LAY-10
  6
CONTINUOUS
 62
     7
100
AcDbLine
 10
291.5999999999995
 20
190.9552655675928
 30
0.0
 11
294.0999999999985
 21
192.3986412405662
 31
0.0
  0
LINE
  5
137
330
1F
100
AcDbEntity
  8
LAY-10
  6
CONTINUOUS
 62
     7
100
AcDbLine
 10
289.1000000000006
 20
193.3986412405656
 30
0.0
 11
294.0999999999999
 21
193.3986412405656
 31
0.0
  0
LINE
  5
138
330
1F
100
AcDbEntity
  8
LAY-10
  6
CONTINUOUS
 62
     7
100
AcDbLine
 10
288.5999999999995
 20
193.8986412405662
 30
0.0
 11
294.5999999999988
 21
193.8986412405662
 31
0.0
  0
LINE
  5
139
330
1F
100
AcDbEntity
  8
LAY-10
  6
CONTINUOUS
 62
     7
100
AcDbLine
 10
288.5999999999995
 20
195.8986412405407
 30
0.0
 11
294.5999999999988
 21
195.8986412405407
 31
0.0
  0
LINE
  5
13A
330
1F
100
AcDbEntity
  8
LAY-10
  6
CONTINUOUS
 62
     7
100
AcDbLine
 10
288.6000000000001
 20
195.8986412405399
 30
0.0
 11
289.0999999999999
 21
195.39864124054
 31
0.0
  0
LINE
  5
13B
330
1F
100
AcDbEntity
  8
LAY-10
  6
CONTINUOUS
 62
     7
100
AcDbLine
 10
294.0999999999999
 20
195.39864124054
 30
0.0
 11
294.6000000000001
 21
195.8986412405399
 31
0.0
  0
LINE
  5
13C
330
1F
100
AcDbEntity
  8
LAY-10
  6
CONTINUOUS
 62
     7
100
AcDbLine
 10
289.1000000000006
 20
195.3986412405395
 30
0.0
 11
294.0999999999999
 21
195.3986412405395
 31
0.0
  0
LINE
  5
13D
330
1F
100
AcDbEntity
  8
LAY-10
  6
CONTINUOUS
 62
     7
100
AcDbLine
 10
289.1000000000006
 20
193.3986412405656
 30
0.0
 11
289.1000000000006
 21
195.3986412405395
 31
0.0
  0
LINE
  5
13E
330
1F
100
AcDbEntity
  8
LAY-10
  6
CONTINUOUS
 62
     7
100
AcDbLine
 10
294.0999999999999
 20
193.3986412405656
 30
0.0
 11
294.0999999999999
 21
195.3986412405401
 31
0.0
  0
ARC
  5
13F
330
1F
100
AcDbEntity
  8
LAY-10
  6
CONTINUOUS
 62
     7
100
AcDbCircle
 10
288.2593746078294
 20
205.3656898373541
 30
0.0
 40
1.0
100
AcDbArc
 50
270.0
 51
289.914980911694
  0
LINE
  5
140
330
1F
100
AcDbEntity
  8
LAY-10
  6
CONTINUOUS
 62
     7
100
AcDbLine
 10
306.1000000000388
 20
264.8986412405403
 30
0.0
 11
378.1000000000415
 21
264.8986412405403
 31
0.0
  0
ARC
  5
141
330
1F
100
AcDbEntity
  8
LAY-10
  6
CONTINUOUS
 62
     7
100
AcDbCircle
 10
393.4400319701917
 20
201.8986412405403
 30
0.0
 40
2.0
100
AcDbArc
 50
270.0
 51
357.0000000000028
  0
LINE
  5
142
330
1F
100
AcDbEntity
  8
LAY-10
  6
CONTINUOUS
 62
     7
100
AcDbLine
 10
346.1000000000399
 20
249.8986412405403
 30
0.0
 11
346.1000000000399
 21
199.8986412405404
 31
0.0
  0
LINE
  5
143
330
1F
100
AcDbEntity
  8
LAY-10
  6
CONTINUOUS
 62
     7
100
AcDbLine
 10
347.1000000000399
 20
204.8986412405403
 30
0.0
 11
357.6730374604099
 21
204.8986412405403
 31
0.0
  0
LINE
  5
144
330
1F
100
AcDbEntity
  8
LAY-10
  6
CONTINUOUS
 62
     7
100
AcDbLine
 10
347.1000000000399
 20
249.8986412405403
 30
0.0
 11
347.1000000000399
 21
199.8986412405404
 31
0.0
  0
LINE
  5
145
330
1F
100
AcDbEntity
  8
LAY-10
  6
CONTINUOUS
 62
     7
100
AcDbLine
 10
346.1000000000399
 20
249.8986412405403
 30
0.0
 11
355.2935281013777
 21
249.8986412405403
 31
0.0
  0
LINE
  5
146
330
1F
100
AcDbEntity
  8
LAY-10
  6
CONTINUOUS
 62
     7
100
AcDbLine
 10
355.2935281013777
 20
249.8986412405403
 30
0.0
 11
357.9374273891908
 21
199.8986412405404
 31
0.0
  0
LINE
  5
147
330
1F
100
AcDbEntity
  8
LAY-10
  6
CONTINUOUS
 62
     7
100
AcDbLine
 10
362.2217313316535
 20
249.8986412405403
 30
0.0
 11
364.8656306194666
 21
199.8986412405404
 31
0.0
  0
LINE
  5
148
330
1F
100
AcDbEntity
  8
LAY-10
  6
CONTINUOUS
 62
     7
100
AcDbLine
 10
365.0513388931122
 20
249.8986412405403
 30
0.0
 11
367.69959442348
 21
199.8986412405404
 31
0.0
  0
LINE
  5
149
330
1F
100
AcDbEntity
  8
LAY-10
  6
CONTINUOUS
 62
     7
100
AcDbLine
 10
362.2217313316535
 20
249.8986412405403
 30
0.0
 11
368.9518610026439
 21
249.8986412405403
 31
0.0
  0
LINE
  5
14A
330
1F
100
AcDbEntity
  8
LAY-10
  6
CONTINUOUS
 62
     7
100
AcDbLine
 10
367.4347688704433
 20
204.8986412405403
 30
0.0
 11
373.0732921095728
 21
204.8986412405403
 31
0.0
  0
LINE
  5
14B
330
1F
100
AcDbEntity
  8
LAY-10
  6
CONTINUOUS
 62
     7
100
AcDbLine
 10
373.5312288992316
 20
199.8986412405404
 30
0.0
 11
368.9518610026439
 21
249.8986412405403
 31
0.0
  0
LINE
  5
14C
330
1F
100
AcDbEntity
  8
LAY-10
  6
CONTINUOUS
 62
     7
100
AcDbLine
 10
377.5312288992318
 20
199.8986412405404
 30
0.0
 11
372.9518610026441
 21
249.8986412405403
 31
0.0
  0
LINE
  5
14D
330
1F
100
AcDbEntity
  8
LAY-10
  6
CONTINUOUS
 62
     7
100
AcDbLine
 10
372.9518610026441
 20
249.8986412405403
 30
0.0
 11
375.6545304107722
 21
249.8986412405403
 31
0.0
  0
LINE
  5
14E
330
1F
100
AcDbEntity
  8
LAY-10
  6
CONTINUOUS
 62
     7
100
AcDbLine
 10
380.7030580086162
 20
199.8986412405404
 30
0.0
 11
375.4152594329896
 21
249.8986412405403
 31
0.0
  0
ARC
  5
14F
330
1F
100
AcDbEntity
  8
LAY-10
  6
CONTINUOUS
 62
     7
100
AcDbCircle
 10
385.7020708666089
 20
201.8986412405403
 30
0.0
 40
2.0
100
AcDbArc
 50
270.0
 51
357.0000000000028
  0
LINE
  5
150
330
1F
100
AcDbEntity
  8
LAY-10
  6
CONTINUOUS
 62
     7
100
AcDbLine
 10
300.1090585898969
 20
207.89864124054
 30
0.0
 11
306.1000000000388
 21
264.8986412405403
 31
0.0
  0
LINE
  5
151
330
1F
100
AcDbEntity
  8
LAY-10
  6
CONTINUOUS
 62
     7
100
AcDbLine
 10
310.1220331182931
 20
264.8986412405403
 30
0.0
 11
303.2902578260255
 21
199.8986412405404
 31
0.0
  0
LINE
  5
152
330
1F
100
AcDbEntity
  8
LAY-10
  6
CONTINUOUS
 62
     7
100
AcDbLine
 10
338.1000000000404
 20
249.8986412405403
 30
0.0
 11
338.1000000000404
 21
199.8986412405404
 31
0.0
  0
LINE
  5
153
330
1F
100
AcDbEntity
  8
LAY-10
  6
CONTINUOUS
 62
     7
100
AcDbLine
 10
337.1000000000404
 20
204.8986412405403
 30
0.0
 11
326.5269625396704
 21
204.8986412405403
 31
0.0
  0
LINE
  5
154
330
1F
100
AcDbEntity
  8
LAY-10
  6
CONTINUOUS
 62
     7
100
AcDbLine
 10
337.1000000000404
 20
249.8986412405403
 30
0.0
 11
337.1000000000404
 21
199.8986412405404
 31
0.0
  0
LINE
  5
155
330
1F
100
AcDbEntity
  8
LAY-10
  6
CONTINUOUS
 62
     7
100
AcDbLine
 10
338.1000000000404
 20
249.8986412405403
 30
0.0
 11
328.9064718987026
 21
249.8986412405403
 31
0.0
  0
LINE
  5
156
330
1F
100
AcDbEntity
  8
LAY-10
  6
CONTINUOUS
 62
     7
100
AcDbLine
 10
328.9064718987026
 20
249.8986412405403
 30
0.0
 11
326.2625726108895
 21
199.8986412405404
 31
0.0
  0
LINE
  5
157
330
1F
100
AcDbEntity
  8
LAY-10
  6
CONTINUOUS
 62
     7
100
AcDbLine
 10
321.9782686684268
 20
249.8986412405403
 30
0.0
 11
319.3343693806137
 21
199.8986412405404
 31
0.0
  0
LINE
  5
158
330
1F
100
AcDbEntity
  8
LAY-10
  6
CONTINUOUS
 62
     7
100
AcDbLine
 10
319.1486611069681
 20
249.8986412405403
 30
0.0
 11
316.5004055766003
 21
199.8986412405404
 31
0.0
  0
LINE
  5
159
330
1F
100
AcDbEntity
  8
LAY-10
  6
CONTINUOUS
 62
     7
100
AcDbLine
 10
321.9782686684268
 20
249.8986412405403
 30
0.0
 11
315.2481389974364
 21
249.8986412405403
 31
0.0
  0
LINE
  5
15A
330
1F
100
AcDbEntity
  8
LAY-10
  6
CONTINUOUS
 62
     7
100
AcDbLine
 10
316.765231129637
 20
204.8986412405403
 30
0.0
 11
311.1267078905075
 21
204.8986412405403
 31
0.0
  0
LINE
  5
15B
330
1F
100
AcDbEntity
  8
LAY-10
  6
CONTINUOUS
 62
     7
100
AcDbLine
 10
310.6687711008487
 20
199.8986412405404
 30
0.0
 11
315.2481389974364
 21
249.8986412405403
 31
0.0
  0
LINE
  5
15C
330
1F
100
AcDbEntity
  8
LAY-10
  6
CONTINUOUS
 62
     7
100
AcDbLine
 10
306.6687711008485
 20
199.8986412405404
 30
0.0
 11
311.2481389974362
 21
249.8986412405403
 31
0.0
  0
LINE
  5
15D
330
1F
100
AcDbEntity
  8
LAY-10
  6
CONTINUOUS
 62
     7
100
AcDbLine
 10
311.2481389974362
 20
249.8986412405403
 30
0.0
 11
308.5454695893081
 21
249.8986412405403
 31
0.0
  0
LINE
  5
15E
330
1F
100
AcDbEntity
  8
LAY-10
  6
CONTINUOUS
 62
     7
100
AcDbLine
 10
303.4969419914642
 20
199.8986412405404
 30
0.0
 11
308.7847405670907
 21
249.8986412405403
 31
0.0
  0
ARC
  5
15F
330
1F
100
AcDbEntity
  8
LAY-10
  6
CONTINUOUS
 62
     7
100
AcDbCircle
 10
298.4979291334714
 20
201.8986412405403
 30
0.0
 40
2.0
100
AcDbArc
 50
182.9999999999965
 51
270.0
  0
LINE
  5
160
330
1F
100
AcDbEntity
  8
LAY-10
  6
CONTINUOUS
 62
     7
100
AcDbLine
 10
296.5006700639624
 20
201.7939693280545
 30
0.0
 11
296.1807377657776
 21
207.89864124054
 31
0.0
  0
LINE
  5
161
330
1F
100
AcDbEntity
  8
LAY-10
  6
CONTINUOUS
 62
     7
100
AcDbLine
 10
387.6993299361179
 20
201.7939693280545
 30
0.0
 11
387.8620388964537
 21
204.89864124054
 31
0.0
  0
LINE
  5
162
330
1F
100
AcDbEntity
  8
LAY-10
  6
CONTINUOUS
 62
     7
100
AcDbLine
 10
395.437291039701
 20
201.7939693280545
 30
0.0
 11
395.6000000000365
 21
204.89864124054
 31
0.0
  0
LINE
  5
163
330
1F
100
AcDbEntity
  8
LAY-10
  6
CONTINUOUS
 62
     7
100
AcDbLine
 10
384.4062541159806
 20
204.89864124054
 30
0.0
 11
395.6000000000365
 21
204.89864124054
 31
0.0
  0
ARC
  5
164
330
1F
100
AcDbEntity
  8
LAY-10
  6
CONTINUOUS
 62
     7
100
AcDbCircle
 10
342.1000000000402
 20
257.3986412405403
 30
0.0
 40
3.000000000000002
100
AcDbArc
 50
90.0
 51
270.0
  0
LINE
  5
165
330
1F
100
AcDbEntity
  8
LAY-10
  6
CONTINUOUS
 62
     7
100
AcDbLine
 10
384.315436060913
 20
205.7627173154769
 30
0.0
 11
384.620477241655
 21
207.118193830317
 31
0.0
  0
LINE
  5
166
330
1F
100
AcDbEntity
  8
LAY-10
  6
CONTINUOUS
 62
     7
100
AcDbLine
 10
384.0909414101839
 20
207.898641240538
 30
0.0
 11
415.232704598305
 21
207.898641240538
 31
0.0
  0
LINE
  5
167
330
1F
100
AcDbEntity
  8
LAY-10
  6
CONTINUOUS
 62
     7
100
AcDbLine
 10
367.2758735386212
 20
207.898641240538
 30
0.0
 11
372.7985300357777
 21
207.898641240538
 31
0.0
  0
LINE
  5
168
330
1F
100
AcDbEntity
  8
LAY-10
  6
CONTINUOUS
 62
     7
100
AcDbLine
 10
357.6277524117868
 20
205.755047701089
 30
0.0
 11
354.6068565210346
 21
205.755047701089
 31
0.0
  0
ARC
  5
169
330
1F
100
AcDbEntity
  8
LAY-10
  6
CONTINUOUS
 62
     7
100
AcDbCircle
 10
353.8490399918287
 20
205.3656898373541
 30
0.0
 40
1.0
100
AcDbArc
 50
195.0361536122973
 51
207.8428844863467
  0
LINE
  5
16A
330
1F
100
AcDbEntity
  8
LAY-10
  6
CONTINUOUS
 62
     7
100
AcDbLine
 10
347.1000000000399
 20
207.898641240538
 30
0.0
 11
357.5144035031408
 21
207.898641240538
 31
0.0
  0
ARC
  5
16B
330
1F
100
AcDbEntity
  8
LAY-10
  6
CONTINUOUS
 62
     7
100
AcDbCircle
 10
330.3509600081718
 20
205.3656898373541
 30
0.0
 40
1.0
100
AcDbArc
 50
332.1571155136447
 51
344.9638463876868
  0
LINE
  5
16C
330
1F
100
AcDbEntity
  8
LAY-10
  6
CONTINUOUS
 62
     7
100
AcDbLine
 10
326.5722475882935
 20
205.755047701089
 30
0.0
 11
329.5931434789652
 21
205.755047701089
 31
0.0
  0
LINE
  5
16D
330
1F
100
AcDbEntity
  8
LAY-10
  6
CONTINUOUS
 62
     7
100
AcDbLine
 10
326.6855964969393
 20
207.898641240538
 30
0.0
 11
337.1000000000404
 21
207.898641240538
 31
0.0
  0
LINE
  5
16E
330
1F
100
AcDbEntity
  8
LAY-10
  6
CONTINUOUS
 62
     7
100
AcDbLine
 10
311.4014699643026
 20
207.898641240538
 30
0.0
 11
316.9241264614591
 21
207.898641240538
 31
0.0
  0
LINE
  5
16F
330
1F
100
AcDbEntity
  8
LAY-10
  6
CONTINUOUS
 62
     7
100
AcDbLine
 10
268.9672954016951
 20
207.898641240538
 30
0.0
 11
300.1090585898964
 21
207.898641240538
 31
0.0
  0
LINE
  5
170
330
1F
100
AcDbEntity
  8
LAY-10
  6
CONTINUOUS
 62
     7
100
AcDbLine
 10
288.6000000000001
 20
204.8986412413703
 30
0.0
 11
288.4427766621948
 21
207.89864124054
 31
0.0
  0
LINE
  5
171
330
1F
100
AcDbEntity
  8
LAY-10
  6
CONTINUOUS
 62
     7
100
AcDbLine
 10
288.6000000000001
 20
195.8986412405399
 30
0.0
 11
288.6000000000001
 21
207.89864124054
 31
0.0
  0
LINE
  5
172
330
1F
100
AcDbEntity
  8
LAY-10
  6
CONTINUOUS
 62
     7
100
AcDbLine
 10
294.6000000000001
 20
195.8986412405399
 30
0.0
 11
294.6000000000001
 21
207.89864124054
 31
0.0
  0
LINE
  5
173
330
1F
100
AcDbEntity
  8
LAY-10
  6
CONTINUOUS
 62
     7
100
AcDbLine
 10
287.4682268009815
 20
199.8986412405379
 30
0.0
 11
289.0999999999999
 21
199.8986412405379
 31
0.0
  0
ARC
  5
174
330
1F
100
AcDbEntity
  8
LAY-10
  6
CONTINUOUS
 62
     7
100
AcDbCircle
 10
291.599999999996
 20
205.5986412405406
 30
0.0
 40
6.300000000000002
100
AcDbArc
 50
95.46502379990716
 51
128.6821874534897
  0
LINE
  5
175
330
1F
100
AcDbEntity
  8
LAY-10
  6
CONTINUOUS
 62
     7
100
AcDbLine
 10
290.9999999999966
 20
211.8700047286405
 30
0.0
 11
290.9999999999966
 21
209.3986412405405
 31
0.0
  0
LINE
  5
176
330
1F
100
AcDbEntity
  8
LAY-10
  6
CONTINUOUS
 62
     7
100
AcDbLine
 10
292.1999999999962
 20
209.3986412405405
 30
0.0
 11
290.9999999999966
 21
209.3986412405405
 31
0.0
  0
ARC
  5
177
330
1F
100
AcDbEntity
  8
LAY-10
  6
CONTINUOUS
 62
     7
100
AcDbCircle
 10
289.8499999999965
 20
207.7843905399403
 30
0.0
 40
3.500000000000002
100
AcDbArc
 50
128.6821874534942
 51
178.1293582694076
  0
LINE
  5
178
330
1F
100
AcDbEntity
  8
LAY-10
  6
CONTINUOUS
 62
     7
100
AcDbLine
 10
292.1999999999962
 20
211.8700047286405
 30
0.0
 11
292.1999999999962
 21
209.3986412405405
 31
0.0
  0
ARC
  5
179
330
1F
100
AcDbEntity
  8
LAY-10
  6
CONTINUOUS
 62
     7
100
AcDbCircle
 10
291.599999999996
 20
205.5986412405406
 30
0.0
 40
6.300000000000002
100
AcDbArc
 50
51.31781254649481
 51
84.53497620009915
  0
ARC
  5
17A
330
1F
100
AcDbEntity
  8
LAY-10
  6
CONTINUOUS
 62
     7
100
AcDbCircle
 10
293.3499999999965
 20
207.7843905399403
 30
0.0
 40
3.500000000000002
100
AcDbArc
 50
1.870641730603566
 51
51.31781254650524
  0
ARC
  5
17B
330
1F
100
AcDbEntity
  8
LAY-10
  6
CONTINUOUS
 62
     7
100
AcDbCircle
 10
286.3323692011686
 20
207.3986412405381
 30
0.0
 40
1.0
100
AcDbArc
 50
85.89998709599179
 51
90.0
  0
LINE
  5
17C
330
1F
100
AcDbEntity
  8
LAY-10
  6
CONTINUOUS
 62
     7
100
AcDbLine
 10
304.1000000000404
 20
127.8986412405381
 30
0.0
 11
380.1000000000399
 21
127.8986412405381
 31
0.0
  0
LINE
  5
17D
330
1F
100
AcDbEntity
  8
LAY-10
  6
CONTINUOUS
 62
     7
100
AcDbLine
 10
306.6000000000404
 20
183.9047608710913
 30
0.0
 11
306.6000000000404
 21
127.8986412405381
 31
0.0
  0
LINE
  5
17E
330
1F
100
AcDbEntity
  8
LAY-10
  6
CONTINUOUS
 62
     7
100
AcDbLine
 10
377.6000000000399
 20
183.9047608710913
 30
0.0
 11
377.6000000000399
 21
127.8986412405381
 31
0.0
  0
LINE
  5
17F
330
1F
100
AcDbEntity
  8
LAY-10
  6
CONTINUOUS
 62
     7
100
AcDbLine
 10
380.1000000000399
 20
183.9765913156864
 30
0.0
 11
380.1000000000399
 21
127.8986412405381
 31
0.0
  0
LINE
  5
180
330
1F
100
AcDbEntity
  8
LAY-10
  6
CONTINUOUS
 62
     7
100
AcDbLine
 10
378.6255211763698
 20
259.8986412405396
 30
0.0
 11
378.1000000000415
 21
264.8986412405403
 31
0.0
  0
LINE
  5
181
330
1F
100
AcDbEntity
  8
LAY-10
  6
CONTINUOUS
 62
     7
100
AcDbLine
 10
384.4062541159806
 20
204.89864124054
 30
0.0
 11
379.1510423526981
 21
254.8986412405397
 31
0.0
  0
LINE
  5
182
330
1F
100
AcDbEntity
  8
LAY-10
  6
CONTINUOUS
 62
     7
100
AcDbLine
 10
375.1290092344439
 20
254.8986412405397
 30
0.0
 11
380.9097421740548
 21
199.8986412405404
 31
0.0
  0
LINE
  5
183
330
1F
100
AcDbEntity
  8
LAY-10
  6
CONTINUOUS
 62
     7
100
AcDbLine
 10
374.0779668817872
 20
264.8986412405403
 30
0.0
 11
374.6034880581156
 21
259.8986412405396
 31
0.0
  0
CIRCLE
  5
184
330
1F
100
AcDbEntity
  8
LAY-10
  6
CONTINUOUS
 62
     7
100
AcDbCircle
 10
342.0999999999999
 20
429.0000000000501
 30
0.0
 40
75.0
  0
LINE
  5
185
330
1F
100
AcDbEntity
  8
LAY-10
  6
CONTINUOUS
 62
     7
100
AcDbLine
 10
282.2742537108354
 20
440.9113425332849
 30
0.0
 11
287.376257518963
 21
439.9822141456253
 31
0.0
  0
LINE
  5
186
330
1F
100
AcDbEntity
  8
LAY-10
  6
CONTINUOUS
 62
     7
100
AcDbLine
 10
282.2742537108345
 20
417.0886574668195
 30
0.0
 11
287.3762575189564
 21
418.0177858544749
 31
0.0
  0
LINE
  5
187
330
1F
100
AcDbEntity
  8
LAY-10
  6
CONTINUOUS
 62
     7
100
AcDbLine
 10
282.2742537108345
 20
417.0886574668195
 30
0.0
 11
283.0708445323526
 21
418.250171872307
 31
0.0
  0
LINE
  5
188
330
1F
100
AcDbEntity
  8
LAY-10
  6
CONTINUOUS
 62
     7
100
AcDbLine
 10
287.0061215635289
 20
418.9668270808221
 30
0.0
 11
287.3762575189564
 21
418.0177858544749
 31
0.0
  0
LINE
  5
189
330
1F
100
AcDbEntity
  8
LAY-10
  6
CONTINUOUS
 62
     7
100
AcDbLine
 10
287.0061215635292
 20
439.0331729192793
 30
0.0
 11
287.376257518963
 21
439.9822141456253
 31
0.0
  0
LINE
  5
18A
330
1F
100
AcDbEntity
  8
LAY-10
  6
CONTINUOUS
 62
     7
100
AcDbLine
 10
283.070844532353
 20
439.7498281277968
 30
0.0
 11
282.2742537108354
 21
440.9113425332849
 31
0.0
  0
LINE
  5
18B
330
1F
100
AcDbEntity
  8
LAY-10
  6
CONTINUOUS
 62
     7
100
AcDbLine
 10
286.0309329633769
 20
439.2107649881602
 30
0.0
 11
284.0630018403538
 21
439.569145879301
 31
0.0
  0
ARC
  5
18C
330
1F
100
AcDbEntity
  8
LAY-10
  6
CONTINUOUS
 62
     7
100
AcDbCircle
 10
342.0999999999999
 20
429.0000000000501
 30
0.0
 40
55.9999999999982
100
AcDbArc
 50
170.6841832434495
 51
189.3158167565485
  0
ARC
  5
18D
330
1F
100
AcDbEntity
  8
LAY-10
  6
CONTINUOUS
 62
     7
100
AcDbCircle
 10
342.0999999999999
 20
429.0000000000501
 30
0.0
 40
59.99999999999788
100
AcDbArc
 50
170.6501039670026
 51
189.3498960329946
  0
ARC
  5
18E
330
1F
100
AcDbEntity
  8
LAY-10
  6
CONTINUOUS
 62
     7
100
AcDbCircle
 10
342.0999999999999
 20
429.0000000000501
 30
0.0
 40
60.99999999999648
100
AcDbArc
 50
168.7396254080342
 51
191.2603745919615
  0
LINE
  5
18F
330
1F
100
AcDbEntity
  8
LAY-10
  6
CONTINUOUS
 62
     7
100
AcDbLine
 10
284.0630018403524
 20
418.4308541208022
 30
0.0
 11
286.030932963376
 21
418.7892350119417
 31
0.0
  0
LINE
  5
190
330
1F
100
AcDbEntity
  8
LAY-10
  6
CONTINUOUS
 62
     7
100
AcDbLine
 10
296.2450551798383
 20
469.228398371592
 30
0.0
 11
300.198955894052
 21
465.8727476804377
 31
0.0
  0
LINE
  5
191
330
1F
100
AcDbEntity
  8
LAY-10
  6
CONTINUOUS
 62
     7
100
AcDbLine
 10
284.3337126466049
 20
448.5973479176772
 30
0.0
 11
289.2167417484709
 21
446.8509948007032
 31
0.0
  0
LINE
  5
192
330
1F
100
AcDbEntity
  8
LAY-10
  6
CONTINUOUS
 62
     7
100
AcDbLine
 10
284.3337126466049
 20
448.5973479176772
 30
0.0
 11
285.6043377372048
 21
449.2049534889319
 31
0.0
  0
LINE
  5
193
330
1F
100
AcDbEntity
  8
LAY-10
  6
CONTINUOUS
 62
     7
100
AcDbLine
 10
289.3707152213906
 20
447.8579565896723
 30
0.0
 11
289.2167417484709
 21
446.8509948007032
 31
0.0
  0
LINE
  5
194
330
1F
100
AcDbEntity
  8
LAY-10
  6
CONTINUOUS
 62
     7
100
AcDbLine
 10
299.4038881406191
 20
465.2359218469002
 30
0.0
 11
300.198955894052
 21
465.8727476804377
 31
0.0
  0
LINE
  5
195
330
1F
100
AcDbEntity
  8
LAY-10
  6
CONTINUOUS
 62
     7
100
AcDbLine
 10
296.3541658649499
 20
467.8242019788189
 30
0.0
 11
296.2450551798383
 21
469.228398371592
 31
0.0
  0
LINE
  5
196
330
1F
100
AcDbEntity
  8
LAY-10
  6
CONTINUOUS
 62
     7
100
AcDbLine
 10
298.6481460738469
 20
465.8773153901378
 30
0.0
 11
297.1230581739808
 21
467.1716479076083
 31
0.0
  0
ARC
  5
197
330
1F
100
AcDbEntity
  8
LAY-10
  6
CONTINUOUS
 62
     7
100
AcDbCircle
 10
342.0999999999999
 20
429.0000000000501
 30
0.0
 40
55.9999999999982
100
AcDbArc
 50
140.6841832434495
 51
159.3158167565487
  0
ARC
  5
198
330
1F
100
AcDbEntity
  8
LAY-10
  6
CONTINUOUS
 62
     7
100
AcDbCircle
 10
342.0999999999999
 20
429.0000000000501
 30
0.0
 40
59.99999999999788
100
AcDbArc
 50
140.6501039670026
 51
159.3498960329947
  0
ARC
  5
199
330
1F
100
AcDbEntity
  8
LAY-10
  6
CONTINUOUS
 62
     7
100
AcDbCircle
 10
342.0999999999999
 20
429.0000000000501
 30
0.0
 40
60.99999999999648
100
AcDbArc
 50
138.739625408034
 51
161.2603745919619
  0
LINE
  5
19A
330
1F
100
AcDbEntity
  8
LAY-10
  6
CONTINUOUS
 62
     7
100
AcDbLine
 10
286.5539122947305
 20
448.8653502521418
 30
0.0
 11
288.4373810857369
 21
448.1917516465876
 31
0.0
  0
LINE
  5
19B
330
1F
100
AcDbEntity
  8
LAY-10
  6
CONTINUOUS
 62
     7
100
AcDbLine
 10
322.5026520823772
 20
486.7662873534303
 30
0.0
 11
324.2490051993504
 21
481.883258251557
 31
0.0
  0
LINE
  5
19C
330
1F
100
AcDbEntity
  8
LAY-10
  6
CONTINUOUS
 62
     7
100
AcDbLine
 10
301.8716016284613
 20
474.8549448201983
 30
0.0
 11
305.2272523196093
 21
470.9010441059877
 31
0.0
  0
LINE
  5
19D
330
1F
100
AcDbEntity
  8
LAY-10
  6
CONTINUOUS
 62
     7
100
AcDbLine
 10
301.8716016284613
 20
474.8549448201983
 30
0.0
 11
303.2757980212341
 21
474.7458341350861
 31
0.0
  0
LINE
  5
19E
330
1F
100
AcDbEntity
  8
LAY-10
  6
CONTINUOUS
 62
     7
100
AcDbLine
 10
305.8640781531512
 20
471.6961118594152
 30
0.0
 11
305.2272523196093
 21
470.9010441059877
 31
0.0
  0
LINE
  5
19F
330
1F
100
AcDbEntity
  8
LAY-10
  6
CONTINUOUS
 62
     7
100
AcDbLine
 10
323.242043410379
 20
481.7292847786437
 30
0.0
 11
324.2490051993504
 21
481.883258251557
 31
0.0
  0
LINE
  5
1A0
330
1F
100
AcDbEntity
  8
LAY-10
  6
CONTINUOUS
 62
     7
100
AcDbLine
 10
321.8950465111216
 20
485.4956622628303
 30
0.0
 11
322.5026520823772
 21
486.7662873534303
 31
0.0
  0
LINE
  5
1A1
330
1F
100
AcDbEntity
  8
LAY-10
  6
CONTINUOUS
 62
     7
100
AcDbLine
 10
322.9082483534648
 20
482.662618914297
 30
0.0
 11
322.2346497479114
 21
484.5460877053036
 31
0.0
  0
ARC
  5
1A2
330
1F
100
AcDbEntity
  8
LAY-10
  6
CONTINUOUS
 62
     7
100
AcDbCircle
 10
342.0999999999999
 20
429.0000000000335
 30
0.0
 40
55.9999999999982
100
AcDbArc
 50
110.6841832434495
 51
129.3158167565485
  0
ARC
  5
1A3
330
1F
100
AcDbEntity
  8
LAY-10
  6
CONTINUOUS
 62
     7
100
AcDbCircle
 10
342.0999999999999
 20
429.0000000000335
 30
0.0
 40
59.99999999999788
100
AcDbArc
 50
110.6501039670024
 51
129.3498960329945
  0
ARC
  5
1A4
330
1F
100
AcDbEntity
  8
LAY-10
  6
CONTINUOUS
 62
     7
100
AcDbCircle
 10
342.0999999999999
 20
429.0000000000335
 30
0.0
 40
60.99999999999648
100
AcDbArc
 50
108.739625408034
 51
131.2603745919618
  0
LINE
  5
1A5
330
1F
100
AcDbEntity
  8
LAY-10
  6
CONTINUOUS
 62
     7
100
AcDbLine
 10
303.9283520924441
 20
473.9769418260552
 30
0.0
 11
305.2226846099138
 21
472.4518539261884
 31
0.0
  0
LINE
  5
1A6
330
1F
100
AcDbEntity
  8
LAY-10
  6
CONTINUOUS
 62
     7
100
AcDbLine
 10
354.0113425332393
 20
488.8257462892149
 30
0.0
 11
353.0822141455797
 21
483.7237424810874
 31
0.0
  0
LINE
  5
1A7
330
1F
100
AcDbEntity
  8
LAY-10
  6
CONTINUOUS
 62
     7
100
AcDbLine
 10
330.1886574667742
 20
488.8257462892158
 30
0.0
 11
331.1177858544293
 21
483.723742481094
 31
0.0
  0
LINE
  5
1A8
330
1F
100
AcDbEntity
  8
LAY-10
  6
CONTINUOUS
 62
     7
100
AcDbLine
 10
330.1886574667742
 20
488.8257462892158
 30
0.0
 11
331.3501718722616
 21
488.0291554676978
 31
0.0
  0
LINE
  5
1A9
330
1F
100
AcDbEntity
  8
LAY-10
  6
CONTINUOUS
 62
     7
100
AcDbLine
 10
332.0668270807764
 20
484.0938784365213
 30
0.0
 11
331.1177858544293
 21
483.723742481094
 31
0.0
  0
LINE
  5
1AA
330
1F
100
AcDbEntity
  8
LAY-10
  6
CONTINUOUS
 62
     7
100
AcDbLine
 10
352.1331729192336
 20
484.0938784365211
 30
0.0
 11
353.0822141455797
 21
483.7237424810874
 31
0.0
  0
LINE
  5
1AB
330
1F
100
AcDbEntity
  8
LAY-10
  6
CONTINUOUS
 62
     7
100
AcDbLine
 10
352.8498281277512
 20
488.0291554676971
 30
0.0
 11
354.0113425332393
 21
488.8257462892149
 31
0.0
  0
LINE
  5
1AC
330
1F
100
AcDbEntity
  8
LAY-10
  6
CONTINUOUS
 62
     7
100
AcDbLine
 10
352.3107649881147
 20
485.0690670366733
 30
0.0
 11
352.6691458792552
 21
487.0369981596969
 31
0.0
  0
ARC
  5
1AD
330
1F
100
AcDbEntity
  8
LAY-10
  6
CONTINUOUS
 62
     7
100
AcDbCircle
 10
342.1000000000047
 20
429.0000000000501
 30
0.0
 40
55.9999999999982
100
AcDbArc
 50
80.68418324344948
 51
99.3158167565484
  0
ARC
  5
1AE
330
1F
100
AcDbEntity
  8
LAY-10
  6
CONTINUOUS
 62
     7
100
AcDbCircle
 10
342.1000000000047
 20
429.0000000000501
 30
0.0
 40
59.99999999999788
100
AcDbArc
 50
80.65010396700222
 51
99.34989603299445
  0
ARC
  5
1AF
330
1F
100
AcDbEntity
  8
LAY-10
  6
CONTINUOUS
 62
     7
100
AcDbCircle
 10
342.1000000000047
 20
429.0000000000501
 30
0.0
 40
60.99999999999648
100
AcDbArc
 50
78.73962540803397
 51
101.2603745919617
  0
LINE
  5
1B0
330
1F
100
AcDbEntity
  8
LAY-10
  6
CONTINUOUS
 62
     7
100
AcDbLine
 10
331.5308541207569
 20
487.0369981596979
 30
0.0
 11
331.8892350118961
 21
485.0690670366743
 31
0.0
  0
LINE
  5
1B1
330
1F
100
AcDbEntity
  8
LAY-10
  6
CONTINUOUS
 62
     7
100
AcDbLine
 10
284.3337126466033
 20
409.4026520824273
 30
0.0
 11
289.2167417484766
 21
411.1490051994004
 31
0.0
  0
LINE
  5
1B2
330
1F
100
AcDbEntity
  8
LAY-10
  6
CONTINUOUS
 62
     7
100
AcDbLine
 10
296.2450551798356
 20
388.7716016285116
 30
0.0
 11
300.1989558940459
 21
392.1272523196592
 31
0.0
  0
LINE
  5
1B3
330
1F
100
AcDbEntity
  8
LAY-10
  6
CONTINUOUS
 62
     7
100
AcDbLine
 10
296.2450551798352
 20
388.7716016285116
 30
0.0
 11
296.3541658649478
 21
390.1757980212843
 31
0.0
  0
LINE
  5
1B4
330
1F
100
AcDbEntity
  8
LAY-10
  6
CONTINUOUS
 62
     7
100
AcDbLine
 10
299.4038881406182
 20
392.764078153201
 30
0.0
 11
300.1989558940459
 21
392.1272523196592
 31
0.0
  0
LINE
  5
1B5
330
1F
100
AcDbEntity
  8
LAY-10
  6
CONTINUOUS
 62
     7
100
AcDbLine
 10
289.3707152213901
 20
410.1420434104293
 30
0.0
 11
289.2167417484766
 21
411.1490051994004
 31
0.0
  0
LINE
  5
1B6
330
1F
100
AcDbEntity
  8
LAY-10
  6
CONTINUOUS
 62
     7
100
AcDbLine
 10
285.6043377372034
 20
408.7950465111718
 30
0.0
 11
284.3337126466035
 21
409.4026520824273
 31
0.0
  0
LINE
  5
1B7
330
1F
100
AcDbEntity
  8
LAY-10
  6
CONTINUOUS
 62
     7
100
AcDbLine
 10
288.4373810857369
 20
409.8082483535146
 30
0.0
 11
286.55391229473
 21
409.1346497479616
 31
0.0
  0
ARC
  5
1B8
330
1F
100
AcDbEntity
  8
LAY-10
  6
CONTINUOUS
 62
     7
100
AcDbCircle
 10
342.0999999999999
 20
429.0000000000501
 30
0.0
 40
55.9999999999982
100
AcDbArc
 50
200.6841832434496
 51
219.3158167565488
  0
ARC
  5
1B9
330
1F
100
AcDbEntity
  8
LAY-10
  6
CONTINUOUS
 62
     7
100
AcDbCircle
 10
342.0999999999999
 20
429.0000000000501
 30
0.0
 40
59.99999999999788
100
AcDbArc
 50
200.6501039670023
 51
219.3498960329948
  0
ARC
  5
1BA
330
1F
100
AcDbEntity
  8
LAY-10
  6
CONTINUOUS
 62
     7
100
AcDbCircle
 10
342.0999999999999
 20
429.0000000000501
 30
0.0
 40
60.99999999999648
100
AcDbArc
 50
198.7396254080341
 51
221.2603745919618
  0
LINE
  5
1BB
330
1F
100
AcDbEntity
  8
LAY-10
  6
CONTINUOUS
 62
     7
100
AcDbLine
 10
297.1230581739783
 20
390.828352092494
 30
0.0
 11
298.6481460738451
 21
392.1226846099634
 31
0.0
  0
LINE
  5
1BC
330
1F
100
AcDbEntity
  8
LAY-10
  6
CONTINUOUS
 62
     7
100
AcDbLine
 10
301.8716016284627
 20
383.1450551798881
 30
0.0
 11
305.2272523196168
 21
387.0989558941018
 31
0.0
  0
LINE
  5
1BD
330
1F
100
AcDbEntity
  8
LAY-10
  6
CONTINUOUS
 62
     7
100
AcDbLine
 10
322.5026520823776
 20
371.2337126466547
 30
0.0
 11
324.2490051993514
 21
376.1167417485208
 31
0.0
  0
LINE
  5
1BE
330
1F
100
AcDbEntity
  8
LAY-10
  6
CONTINUOUS
 62
     7
100
AcDbLine
 10
322.5026520823776
 20
371.2337126466547
 30
0.0
 11
321.8950465111229
 21
372.5043377372546
 31
0.0
  0
LINE
  5
1BF
330
1F
100
AcDbEntity
  8
LAY-10
  6
CONTINUOUS
 62
     7
100
AcDbLine
 10
323.2420434103824
 20
376.2707152214404
 30
0.0
 11
324.2490051993514
 21
376.1167417485208
 31
0.0
  0
LINE
  5
1C0
330
1F
100
AcDbEntity
  8
LAY-10
  6
CONTINUOUS
 62
     7
100
AcDbLine
 10
305.8640781531547
 20
386.3038881406693
 30
0.0
 11
305.2272523196168
 21
387.0989558941018
 31
0.0
  0
LINE
  5
1C1
330
1F
100
AcDbEntity
  8
LAY-10
  6
CONTINUOUS
 62
     7
100
AcDbLine
 10
303.2757980212359
 20
383.254165865
 30
0.0
 11
301.8716016284627
 21
383.1450551798882
 31
0.0
  0
LINE
  5
1C2
330
1F
100
AcDbEntity
  8
LAY-10
  6
CONTINUOUS
 62
     7
100
AcDbLine
 10
305.222684609917
 20
385.5481460738968
 30
0.0
 11
303.9283520924464
 21
384.0230581740309
 31
0.0
  0
ARC
  5
1C3
330
1F
100
AcDbEntity
  8
LAY-10
  6
CONTINUOUS
 62
     7
100
AcDbCircle
 10
342.1000000000047
 20
429.0000000000501
 30
0.0
 40
55.9999999999982
100
AcDbArc
 50
230.6841832434491
 51
249.3158167565485
  0
ARC
  5
1C4
330
1F
100
AcDbEntity
  8
LAY-10
  6
CONTINUOUS
 62
     7
100
AcDbCircle
 10
342.1000000000047
 20
429.0000000000501
 30
0.0
 40
59.99999999999788
100
AcDbArc
 50
230.6501039670023
 51
249.3498960329943
  0
ARC
  5
1C5
330
1F
100
AcDbEntity
  8
LAY-10
  6
CONTINUOUS
 62
     7
100
AcDbCircle
 10
342.1000000000047
 20
429.0000000000501
 30
0.0
 40
60.99999999999648
100
AcDbArc
 50
228.7396254080341
 51
251.2603745919618
  0
LINE
  5
1C6
330
1F
100
AcDbEntity
  8
LAY-10
  6
CONTINUOUS
 62
     7
100
AcDbLine
 10
322.2346497479127
 20
373.4539122947804
 30
0.0
 11
322.9082483534669
 21
375.3373810857868
 31
0.0
  0
ARC
  5
1C7
330
1F
100
AcDbEntity
  8
LAY-10
  6
CONTINUOUS
 62
     7
100
AcDbCircle
 10
342.0999999999999
 20
429.0000000000335
 30
0.0
 40
55.81484586264231
100
AcDbArc
 50
101.3476453392066
 51
108.652354660804
  0
ARC
  5
1C8
330
1F
100
AcDbEntity
  8
LAY-10
  6
CONTINUOUS
 62
     7
100
AcDbCircle
 10
342.0999999999999
 20
429.0000000000335
 30
0.0
 40
55.81484586264231
100
AcDbArc
 50
131.3476453392138
 51
138.6523546607718
  0
ARC
  5
1C9
330
1F
100
AcDbEntity
  8
LAY-10
  6
CONTINUOUS
 62
     7
100
AcDbCircle
 10
342.0999999999999
 20
429.0000000000335
 30
0.0
 40
55.81484586264231
100
AcDbArc
 50
161.3476453391981
 51
168.6523546607681
  0
ARC
  5
1CA
330
1F
100
AcDbEntity
  8
LAY-10
  6
CONTINUOUS
 62
     7
100
AcDbCircle
 10
342.0999999999999
 20
429.0000000000335
 30
0.0
 40
55.81484586264231
100
AcDbArc
 50
191.3476453391972
 51
198.6523546608188
  0
ARC
  5
1CB
330
1F
100
AcDbEntity
  8
LAY-10
  6
CONTINUOUS
 62
     7
100
AcDbCircle
 10
342.0999999999999
 20
429.0000000000335
 30
0.0
 40
55.81484586264231
100
AcDbArc
 50
221.3476453391566
 51
228.6523546608861
  0
LINE
  5
1CC
330
1F
100
AcDbEntity
  8
LAY-10
  6
CONTINUOUS
 62
     7
100
AcDbLine
 10
287.3533969819448
 20
422.4849930476104
 30
0.0
 11
286.8440644764435
 21
423.0000000000501
 31
0.0
  0
LINE
  5
1CD
330
1F
100
AcDbEntity
  8
LAY-10
  6
CONTINUOUS
 62
     7
100
AcDbLine
 10
286.8440644764471
 20
435.0000000000501
 30
0.0
 11
287.3533969819448
 21
435.51500695249
 31
0.0
  0
LINE
  5
1CE
330
1F
100
AcDbEntity
  8
LAY-10
  6
CONTINUOUS
 62
     7
100
AcDbLine
 10
346.6150069524379
 20
483.9477075939648
 30
0.0
 11
346.1000000000004
 21
484.4366161538447
 31
0.0
  0
LINE
  5
1CF
330
1F
100
AcDbEntity
  8
LAY-10
  6
CONTINUOUS
 62
     7
100
AcDbLine
 10
337.5849930475622
 20
483.9477075939648
 30
0.0
 11
338.1000000000001
 21
484.4366161538464
 31
0.0
  0
ARC
  5
1D0
330
1F
100
AcDbEntity
  8
LAY-10
  6
CONTINUOUS
 62
     7
100
AcDbCircle
 10
342.0999999999999
 20
429.0000000000501
 30
0.0
 40
55.13289270124415
100
AcDbArc
 50
94.69739310882838
 51
173.2135493406983
  0
ARC
  5
1D1
330
1F
100
AcDbEntity
  8
LAY-10
  6
CONTINUOUS
 62
     7
100
AcDbCircle
 10
342.0999999999881
 20
429.0000000000501
 30
0.0
 40
55.58073776573366
100
AcDbArc
 50
85.87300520619823
 51
94.12699479377663
  0
ARC
  5
1D2
330
1F
100
AcDbEntity
  8
LAY-10
  6
CONTINUOUS
 62
     7
100
AcDbCircle
 10
304.690782661364
 20
383.3759881410512
 30
0.0
 40
1.0
100
AcDbArc
 50
139.678942558017
 51
230.6501039669883
  0
ARC
  5
1D3
330
1F
100
AcDbEntity
  8
LAY-10
  6
CONTINUOUS
 62
     7
100
AcDbCircle
 10
305.9851151788341
 20
384.9010760409171
 30
0.0
 40
1.0
100
AcDbArc
 50
50.68418324345681
 51
139.6789425580029
  0
ARC
  5
1D4
330
1F
100
AcDbEntity
  8
LAY-10
  6
CONTINUOUS
 62
     7
100
AcDbCircle
 10
321.9666539824204
 20
375.6741303106017
 30
0.0
 40
1.0
100
AcDbArc
 50
340.3210574419612
 51
69.31581675654941
  0
ARC
  5
1D5
330
1F
100
AcDbEntity
  8
LAY-10
  6
CONTINUOUS
 62
     7
100
AcDbCircle
 10
321.2930553768663
 20
373.7906615195955
 30
0.0
 40
1.0
100
AcDbArc
 50
249.3498960329852
 51
340.3210574419583
  0
ARC
  5
1D6
330
1F
100
AcDbEntity
  8
LAY-10
  6
CONTINUOUS
 62
     7
100
AcDbCircle
 10
286.8906615195447
 20
408.1930553769149
 30
0.0
 40
1.0
100
AcDbArc
 50
109.6789425580141
 51
200.6501039669973
  0
ARC
  5
1D7
330
1F
100
AcDbEntity
  8
LAY-10
  6
CONTINUOUS
 62
     7
100
AcDbCircle
 10
288.7741303105511
 20
408.8666539824678
 30
0.0
 40
1.0
100
AcDbArc
 50
20.68418324344637
 51
109.6789425579873
  0
ARC
  5
1D8
330
1F
100
AcDbEntity
  8
LAY-10
  6
CONTINUOUS
 62
     7
100
AcDbCircle
 10
296.4759881409989
 20
391.5907826614117
 30
0.0
 40
1.0
100
AcDbArc
 50
219.3498960330026
 51
310.3210574419738
  0
ARC
  5
1D9
330
1F
100
AcDbEntity
  8
LAY-10
  6
CONTINUOUS
 62
     7
100
AcDbCircle
 10
298.0010760408657
 20
392.8851151788813
 30
0.0
 40
1.0
100
AcDbArc
 50
310.3210574419738
 51
39.31581675654323
  0
ARC
  5
1DA
330
1F
100
AcDbEntity
  8
LAY-10
  6
CONTINUOUS
 62
     7
100
AcDbCircle
 10
283.8838380382238
 20
419.4146733785965
 30
0.0
 40
1.0
100
AcDbArc
 50
189.3498960329933
 51
280.3210574419567
  0
ARC
  5
1DB
330
1F
100
AcDbEntity
  8
LAY-10
  6
CONTINUOUS
 62
     7
100
AcDbCircle
 10
285.8517691612474
 20
419.773054269736
 30
0.0
 40
1.0
100
AcDbArc
 50
280.3210574419567
 51
9.315816756554383
  0
ARC
  5
1DC
330
1F
100
AcDbEntity
  8
LAY-10
  6
CONTINUOUS
 62
     7
100
AcDbCircle
 10
283.8838380382242
 20
438.5853266215068
 30
0.0
 40
1.0
100
AcDbArc
 50
79.67894255799027
 51
170.6501039669998
  0
ARC
  5
1DD
330
1F
100
AcDbEntity
  8
LAY-10
  6
CONTINUOUS
 62
     7
100
AcDbCircle
 10
285.8517691612478
 20
438.2269457303661
 30
0.0
 40
1.0
100
AcDbArc
 50
350.6841832434489
 51
79.67894255801652
  0
ARC
  5
1DE
330
1F
100
AcDbEntity
  8
LAY-10
  6
CONTINUOUS
 62
     7
100
AcDbCircle
 10
286.8906615195456
 20
449.8069446231883
 30
0.0
 40
1.0
100
AcDbArc
 50
159.3498960329997
 51
250.3210574419582
  0
ARC
  5
1DF
330
1F
100
AcDbEntity
  8
LAY-10
  6
CONTINUOUS
 62
     7
100
AcDbCircle
 10
288.7741303105518
 20
449.1333460176341
 30
0.0
 40
1.0
100
AcDbArc
 50
250.3210574419715
 51
339.3158167565537
  0
ARC
  5
1E0
330
1F
100
AcDbEntity
  8
LAY-10
  6
CONTINUOUS
 62
     7
100
AcDbCircle
 10
296.4759881410009
 20
466.4092173386909
 30
0.0
 40
1.0
100
AcDbArc
 50
49.67894255798912
 51
140.6501039669975
  0
ARC
  5
1E1
330
1F
100
AcDbEntity
  8
LAY-10
  6
CONTINUOUS
 62
     7
100
AcDbCircle
 10
298.001076040867
 20
465.1148848212204
 30
0.0
 40
1.0
100
AcDbArc
 50
320.6841832434544
 51
49.67894255799158
  0
ARC
  5
1E2
330
1F
100
AcDbEntity
  8
LAY-10
  6
CONTINUOUS
 62
     7
100
AcDbCircle
 10
304.6907826613619
 20
474.6240118590345
 30
0.0
 40
1.0
100
AcDbArc
 50
129.3498960330142
 51
220.3210574419626
  0
ARC
  5
1E3
330
1F
100
AcDbEntity
  8
LAY-10
  6
CONTINUOUS
 62
     7
100
AcDbCircle
 10
305.9851151788314
 20
473.0989239591677
 30
0.0
 40
1.0
100
AcDbArc
 50
220.3210574419785
 51
309.3158167565433
  0
ARC
  5
1E4
330
1F
100
AcDbEntity
  8
LAY-10
  6
CONTINUOUS
 62
     7
100
AcDbCircle
 10
321.2930553768649
 20
484.2093384804892
 30
0.0
 40
1.0
100
AcDbArc
 50
19.6789425580079
 51
110.6501039670148
  0
ARC
  5
1E5
330
1F
100
AcDbEntity
  8
LAY-10
  6
CONTINUOUS
 62
     7
100
AcDbCircle
 10
321.9666539824177
 20
482.3258696894825
 30
0.0
 40
1.0
100
AcDbArc
 50
290.6841832434507
 51
19.6789425580079
  0
ARC
  5
1E6
330
1F
100
AcDbEntity
  8
LAY-10
  6
CONTINUOUS
 62
     7
100
AcDbCircle
 10
332.5146733785512
 20
487.2161619618267
 30
0.0
 40
1.0
100
AcDbArc
 50
99.3498960329933
 51
190.3210574419669
  0
ARC
  5
1E7
330
1F
100
AcDbEntity
  8
LAY-10
  6
CONTINUOUS
 62
     7
100
AcDbCircle
 10
332.8730542696908
 20
485.248230838803
 30
0.0
 40
1.0
100
AcDbArc
 50
190.3210574419535
 51
279.3158167565506
  0
ARC
  5
1E8
330
1F
100
AcDbEntity
  8
LAY-10
  6
CONTINUOUS
 62
     7
100
AcDbCircle
 10
351.3269457303206
 20
485.2482308388028
 30
0.0
 40
1.0
100
AcDbArc
 50
260.6841832434494
 51
349.6789425579936
  0
ARC
  5
1E9
330
1F
100
AcDbEntity
  8
LAY-10
  6
CONTINUOUS
 62
     7
100
AcDbCircle
 10
351.6853266214609
 20
487.2161619618262
 30
0.0
 40
1.0
100
AcDbArc
 50
349.6789425580032
 51
80.65010396698
  0
LINE
  5
1EA
330
1F
100
AcDbEntity
  8
LAY-10
  6
CONTINUOUS
 62
     7
100
AcDbLine
 10
401.9257462891646
 20
440.9113425332849
 30
0.0
 11
396.8237424810372
 21
439.9822141456253
 31
0.0
  0
LINE
  5
1EB
330
1F
100
AcDbEntity
  8
LAY-10
  6
CONTINUOUS
 62
     7
100
AcDbLine
 10
401.9257462891655
 20
417.0886574668195
 30
0.0
 11
396.8237424810441
 21
418.0177858544749
 31
0.0
  0
LINE
  5
1EC
330
1F
100
AcDbEntity
  8
LAY-10
  6
CONTINUOUS
 62
     7
100
AcDbLine
 10
401.9257462891655
 20
417.0886574668195
 30
0.0
 11
401.1291554676477
 21
418.250171872307
 31
0.0
  0
LINE
  5
1ED
330
1F
100
AcDbEntity
  8
LAY-10
  6
CONTINUOUS
 62
     7
100
AcDbLine
 10
397.1938784364711
 20
418.9668270808221
 30
0.0
 11
396.8237424810441
 21
418.0177858544749
 31
0.0
  0
LINE
  5
1EE
330
1F
100
AcDbEntity
  8
LAY-10
  6
CONTINUOUS
 62
     7
100
AcDbLine
 10
397.1938784364709
 20
439.0331729192793
 30
0.0
 11
396.8237424810372
 21
439.9822141456253
 31
0.0
  0
LINE
  5
1EF
330
1F
100
AcDbEntity
  8
LAY-10
  6
CONTINUOUS
 62
     7
100
AcDbLine
 10
401.129155467647
 20
439.7498281277968
 30
0.0
 11
401.9257462891646
 21
440.9113425332849
 31
0.0
  0
LINE
  5
1F0
330
1F
100
AcDbEntity
  8
LAY-10
  6
CONTINUOUS
 62
     7
100
AcDbLine
 10
398.1690670366231
 20
439.2107649881602
 30
0.0
 11
400.1369981596467
 21
439.569145879301
 31
0.0
  0
ARC
  5
1F1
330
1F
100
AcDbEntity
  8
LAY-10
  6
CONTINUOUS
 62
     7
100
AcDbCircle
 10
342.0999999999999
 20
429.0000000000501
 30
0.0
 40
55.9999999999982
100
AcDbArc
 50
350.6841832434518
 51
9.315816756550658
  0
ARC
  5
1F2
330
1F
100
AcDbEntity
  8
LAY-10
  6
CONTINUOUS
 62
     7
100
AcDbCircle
 10
342.0999999999999
 20
429.0000000000501
 30
0.0
 40
59.99999999999788
100
AcDbArc
 50
350.6501039670058
 51
9.349896032997629
  0
ARC
  5
1F3
330
1F
100
AcDbEntity
  8
LAY-10
  6
CONTINUOUS
 62
     7
100
AcDbCircle
 10
342.0999999999999
 20
429.0000000000501
 30
0.0
 40
60.99999999999648
100
AcDbArc
 50
348.7396254080388
 51
11.26037459196602
  0
LINE
  5
1F4
330
1F
100
AcDbEntity
  8
LAY-10
  6
CONTINUOUS
 62
     7
100
AcDbLine
 10
400.1369981596476
 20
418.4308541208022
 30
0.0
 11
398.1690670366243
 21
418.7892350119417
 31
0.0
  0
LINE
  5
1F5
330
1F
100
AcDbEntity
  8
LAY-10
  6
CONTINUOUS
 62
     7
100
AcDbLine
 10
387.9549448201622
 20
469.228398371592
 30
0.0
 11
384.0010441059485
 21
465.8727476804377
 31
0.0
  0
LINE
  5
1F6
330
1F
100
AcDbEntity
  8
LAY-10
  6
CONTINUOUS
 62
     7
100
AcDbLine
 10
399.8662873533954
 20
448.5973479176772
 30
0.0
 11
394.9832582515296
 21
446.8509948007032
 31
0.0
  0
LINE
  5
1F7
330
1F
100
AcDbEntity
  8
LAY-10
  6
CONTINUOUS
 62
     7
100
AcDbLine
 10
399.8662873533954
 20
448.5973479176772
 30
0.0
 11
398.5956622627957
 21
449.2049534889319
 31
0.0
  0
LINE
  5
1F8
330
1F
100
AcDbEntity
  8
LAY-10
  6
CONTINUOUS
 62
     7
100
AcDbLine
 10
394.8292847786099
 20
447.8579565896723
 30
0.0
 11
394.9832582515296
 21
446.8509948007032
 31
0.0
  0
LINE
  5
1F9
330
1F
100
AcDbEntity
  8
LAY-10
  6
CONTINUOUS
 62
     7
100
AcDbLine
 10
384.796111859381
 20
465.2359218469002
 30
0.0
 11
384.0010441059485
 21
465.8727476804377
 31
0.0
  0
LINE
  5
1FA
330
1F
100
AcDbEntity
  8
LAY-10
  6
CONTINUOUS
 62
     7
100
AcDbLine
 10
387.8458341350499
 20
467.8242019788189
 30
0.0
 11
387.9549448201622
 21
469.228398371592
 31
0.0
  0
LINE
  5
1FB
330
1F
100
AcDbEntity
  8
LAY-10
  6
CONTINUOUS
 62
     7
100
AcDbLine
 10
385.5518539261534
 20
465.8773153901378
 30
0.0
 11
387.076941826019
 21
467.1716479076083
 31
0.0
  0
ARC
  5
1FC
330
1F
100
AcDbEntity
  8
LAY-10
  6
CONTINUOUS
 62
     7
100
AcDbCircle
 10
342.0999999999999
 20
429.0000000000501
 30
0.0
 40
55.9999999999982
100
AcDbArc
 50
20.68418324345124
 51
39.31581675655056
  0
ARC
  5
1FD
330
1F
100
AcDbEntity
  8
LAY-10
  6
CONTINUOUS
 62
     7
100
AcDbCircle
 10
342.0999999999999
 20
429.0000000000501
 30
0.0
 40
59.99999999999788
100
AcDbArc
 50
20.65010396700536
 51
39.34989603299747
  0
ARC
  5
1FE
330
1F
100
AcDbEntity
  8
LAY-10
  6
CONTINUOUS
 62
     7
100
AcDbCircle
 10
342.0999999999999
 20
429.0000000000501
 30
0.0
 40
60.99999999999648
100
AcDbArc
 50
18.73962540803823
 51
41.26037459196574
  0
LINE
  5
1FF
330
1F
100
AcDbEntity
  8
LAY-10
  6
CONTINUOUS
 62
     7
100
AcDbLine
 10
397.6460877052696
 20
448.8653502521418
 30
0.0
 11
395.7626189142636
 21
448.1917516465876
 31
0.0
  0
LINE
  5
200
330
1F
100
AcDbEntity
  8
LAY-10
  6
CONTINUOUS
 62
     7
100
AcDbLine
 10
361.6973479176231
 20
486.7662873534303
 30
0.0
 11
359.9509948006498
 21
481.883258251557
 31
0.0
  0
LINE
  5
201
330
1F
100
AcDbEntity
  8
LAY-10
  6
CONTINUOUS
 62
     7
100
AcDbLine
 10
382.3283983715385
 20
474.8549448201983
 30
0.0
 11
378.9727476803912
 21
470.9010441059877
 31
0.0
  0
LINE
  5
202
330
1F
100
AcDbEntity
  8
LAY-10
  6
CONTINUOUS
 62
     7
100
AcDbLine
 10
382.3283983715385
 20
474.8549448201983
 30
0.0
 11
380.924201978766
 21
474.7458341350861
 31
0.0
  0
LINE
  5
203
330
1F
100
AcDbEntity
  8
LAY-10
  6
CONTINUOUS
 62
     7
100
AcDbLine
 10
378.3359218468493
 20
471.6961118594152
 30
0.0
 11
378.9727476803912
 21
470.9010441059877
 31
0.0
  0
LINE
  5
204
330
1F
100
AcDbEntity
  8
LAY-10
  6
CONTINUOUS
 62
     7
100
AcDbLine
 10
360.9579565896208
 20
481.7292847786437
 30
0.0
 11
359.9509948006498
 21
481.883258251557
 31
0.0
  0
LINE
  5
205
330
1F
100
AcDbEntity
  8
LAY-10
  6
CONTINUOUS
 62
     7
100
AcDbLine
 10
362.3049534888783
 20
485.4956622628303
 30
0.0
 11
361.6973479176227
 21
486.7662873534303
 31
0.0
  0
LINE
  5
206
330
1F
100
AcDbEntity
  8
LAY-10
  6
CONTINUOUS
 62
     7
100
AcDbLine
 10
361.2917516465357
 20
482.662618914297
 30
0.0
 11
361.9653502520885
 21
484.5460877053036
 31
0.0
  0
ARC
  5
207
330
1F
100
AcDbEntity
  8
LAY-10
  6
CONTINUOUS
 62
     7
100
AcDbCircle
 10
342.0999999999999
 20
429.0000000000335
 30
0.0
 40
55.9999999999982
100
AcDbArc
 50
50.68418324345166
 51
69.31581675655067
  0
ARC
  5
208
330
1F
100
AcDbEntity
  8
LAY-10
  6
CONTINUOUS
 62
     7
100
AcDbCircle
 10
342.0999999999999
 20
429.0000000000335
 30
0.0
 40
59.99999999999788
100
AcDbArc
 50
50.65010396700509
 51
69.34989603299742
  0
ARC
  5
209
330
1F
100
AcDbEntity
  8
LAY-10
  6
CONTINUOUS
 62
     7
100
AcDbCircle
 10
342.0999999999999
 20
429.0000000000335
 30
0.0
 40
60.99999999999648
100
AcDbArc
 50
48.7396254080383
 51
71.2603745919661
  0
LINE
  5
20A
330
1F
100
AcDbEntity
  8
LAY-10
  6
CONTINUOUS
 62
     7
100
AcDbLine
 10
380.2716479075561
 20
473.9769418260552
 30
0.0
 11
378.9773153900867
 21
472.4518539261884
 31
0.0
  0
LINE
  5
20B
330
1F
100
AcDbEntity
  8
LAY-10
  6
CONTINUOUS
 62
     7
100
AcDbLine
 10
399.8662873533967
 20
409.4026520824273
 30
0.0
 11
394.9832582515235
 21
411.1490051994004
 31
0.0
  0
LINE
  5
20C
330
1F
100
AcDbEntity
  8
LAY-10
  6
CONTINUOUS
 62
     7
100
AcDbLine
 10
387.9549448201649
 20
388.7716016285116
 30
0.0
 11
384.001044105954
 21
392.1272523196592
 31
0.0
  0
LINE
  5
20D
330
1F
100
AcDbEntity
  8
LAY-10
  6
CONTINUOUS
 62
     7
100
AcDbLine
 10
387.9549448201649
 20
388.7716016285116
 30
0.0
 11
387.8458341350527
 21
390.1757980212843
 31
0.0
  0
LINE
  5
20E
330
1F
100
AcDbEntity
  8
LAY-10
  6
CONTINUOUS
 62
     7
100
AcDbLine
 10
384.7961118593817
 20
392.764078153201
 30
0.0
 11
384.001044105954
 21
392.1272523196592
 31
0.0
  0
LINE
  5
20F
330
1F
100
AcDbEntity
  8
LAY-10
  6
CONTINUOUS
 62
     7
100
AcDbLine
 10
394.8292847786099
 20
410.1420434104293
 30
0.0
 11
394.9832582515235
 21
411.1490051994004
 31
0.0
  0
LINE
  5
210
330
1F
100
AcDbEntity
  8
LAY-10
  6
CONTINUOUS
 62
     7
100
AcDbLine
 10
398.5956622627971
 20
408.7950465111718
 30
0.0
 11
399.8662873533967
 21
409.4026520824273
 31
0.0
  0
LINE
  5
211
330
1F
100
AcDbEntity
  8
LAY-10
  6
CONTINUOUS
 62
     7
100
AcDbLine
 10
395.7626189142636
 20
409.8082483535146
 30
0.0
 11
397.64608770527
 21
409.1346497479616
 31
0.0
  0
ARC
  5
212
330
1F
100
AcDbEntity
  8
LAY-10
  6
CONTINUOUS
 62
     7
100
AcDbCircle
 10
342.0999999999999
 20
429.0000000000501
 30
0.0
 40
55.9999999999982
100
AcDbArc
 50
320.6841832434513
 51
339.3158167565508
  0
ARC
  5
213
330
1F
100
AcDbEntity
  8
LAY-10
  6
CONTINUOUS
 62
     7
100
AcDbCircle
 10
342.0999999999999
 20
429.0000000000501
 30
0.0
 40
59.99999999999788
100
AcDbArc
 50
320.6501039670054
 51
339.3498960329981
  0
ARC
  5
214
330
1F
100
AcDbEntity
  8
LAY-10
  6
CONTINUOUS
 62
     7
100
AcDbCircle
 10
342.0999999999999
 20
429.0000000000501
 30
0.0
 40
60.99999999999648
100
AcDbArc
 50
318.7396254080384
 51
341.2603745919663
  0
LINE
  5
215
330
1F
100
AcDbEntity
  8
LAY-10
  6
CONTINUOUS
 62
     7
100
AcDbLine
 10
387.0769418260218
 20
390.828352092494
 30
0.0
 11
385.551853926155
 21
392.1226846099634
 31
0.0
  0
LINE
  5
216
330
1F
100
AcDbEntity
  8
LAY-10
  6
CONTINUOUS
 62
     7
100
AcDbLine
 10
382.3283983715378
 20
383.1450551798881
 30
0.0
 11
378.972747680383
 21
387.0989558941018
 31
0.0
  0
LINE
  5
217
330
1F
100
AcDbEntity
  8
LAY-10
  6
CONTINUOUS
 62
     7
100
AcDbLine
 10
361.6973479176227
 20
371.2337126466547
 30
0.0
 11
359.9509948006487
 21
376.1167417485208
 31
0.0
  0
LINE
  5
218
330
1F
100
AcDbEntity
  8
LAY-10
  6
CONTINUOUS
 62
     7
100
AcDbLine
 10
361.6973479176227
 20
371.2337126466547
 30
0.0
 11
362.3049534888776
 21
372.5043377372546
 31
0.0
  0
LINE
  5
219
330
1F
100
AcDbEntity
  8
LAY-10
  6
CONTINUOUS
 62
     7
100
AcDbLine
 10
360.9579565896174
 20
376.2707152214404
 30
0.0
 11
359.9509948006487
 21
376.1167417485208
 31
0.0
  0
LINE
  5
21A
330
1F
100
AcDbEntity
  8
LAY-10
  6
CONTINUOUS
 62
     7
100
AcDbLine
 10
378.3359218468458
 20
386.3038881406693
 30
0.0
 11
378.972747680383
 21
387.0989558941018
 31
0.0
  0
LINE
  5
21B
330
1F
100
AcDbEntity
  8
LAY-10
  6
CONTINUOUS
 62
     7
100
AcDbLine
 10
380.9242019787646
 20
383.254165865
 30
0.0
 11
382.3283983715378
 21
383.1450551798882
 31
0.0
  0
LINE
  5
21C
330
1F
100
AcDbEntity
  8
LAY-10
  6
CONTINUOUS
 62
     7
100
AcDbLine
 10
378.9773153900833
 20
385.5481460738968
 30
0.0
 11
380.2716479075539
 21
384.0230581740309
 31
0.0
  0
ARC
  5
21D
330
1F
100
AcDbEntity
  8
LAY-10
  6
CONTINUOUS
 62
     7
100
AcDbCircle
 10
342.0999999999958
 20
429.0000000000501
 30
0.0
 40
55.9999999999982
100
AcDbArc
 50
290.6841832434508
 51
309.3158167565502
  0
ARC
  5
21E
330
1F
100
AcDbEntity
  8
LAY-10
  6
CONTINUOUS
 62
     7
100
AcDbCircle
 10
342.0999999999958
 20
429.0000000000501
 30
0.0
 40
59.99999999999788
100
AcDbArc
 50
290.6501039670052
 51
309.349896032998
  0
ARC
  5
21F
330
1F
100
AcDbEntity
  8
LAY-10
  6
CONTINUOUS
 62
     7
100
AcDbCircle
 10
342.0999999999958
 20
429.0000000000501
 30
0.0
 40
60.99999999999648
100
AcDbArc
 50
288.7396254080382
 51
311.260374591966
  0
LINE
  5
220
330
1F
100
AcDbEntity
  8
LAY-10
  6
CONTINUOUS
 62
     7
100
AcDbLine
 10
361.9653502520871
 20
373.4539122947804
 30
0.0
 11
361.2917516465329
 21
375.3373810857868
 31
0.0
  0
ARC
  5
221
330
1F
100
AcDbEntity
  8
LAY-10
  6
CONTINUOUS
 62
     7
100
AcDbCircle
 10
342.0999999999999
 20
429.0000000000335
 30
0.0
 40
55.81484586264231
100
AcDbArc
 50
41.34764533922839
 51
48.65235466078625
  0
ARC
  5
222
330
1F
100
AcDbEntity
  8
LAY-10
  6
CONTINUOUS
 62
     7
100
AcDbCircle
 10
342.0999999999999
 20
429.0000000000335
 30
0.0
 40
55.81484586264231
100
AcDbArc
 50
11.34764533923187
 51
18.652354660802
  0
ARC
  5
223
330
1F
100
AcDbEntity
  8
LAY-10
  6
CONTINUOUS
 62
     7
100
AcDbCircle
 10
342.0999999999999
 20
429.0000000000335
 30
0.0
 40
55.81484586264231
100
AcDbArc
 50
341.3476453391814
 51
348.652354660803
  0
ARC
  5
224
330
1F
100
AcDbEntity
  8
LAY-10
  6
CONTINUOUS
 62
     7
100
AcDbCircle
 10
342.0999999999999
 20
429.0000000000335
 30
0.0
 40
55.81484586264231
100
AcDbArc
 50
311.3476453391145
 51
318.6523546608439
  0
LINE
  5
225
330
1F
100
AcDbEntity
  8
LAY-10
  6
CONTINUOUS
 62
     7
100
AcDbLine
 10
396.8466030180557
 20
422.4849930476104
 30
0.0
 11
397.3559355235566
 21
423.0000000000501
 31
0.0
  0
LINE
  5
226
330
1F
100
AcDbEntity
  8
LAY-10
  6
CONTINUOUS
 62
     7
100
AcDbLine
 10
397.3559355235529
 20
435.0000000000501
 30
0.0
 11
396.8466030180557
 21
435.51500695249
 31
0.0
  0
ARC
  5
227
330
1F
100
AcDbEntity
  8
LAY-10
  6
CONTINUOUS
 62
     7
100
AcDbCircle
 10
342.0999999999999
 20
429.0000000000501
 30
0.0
 40
55.13289270124415
100
AcDbArc
 50
284.9999999999952
 51
353.2135493406984
  0
ARC
  5
228
330
1F
100
AcDbEntity
  8
LAY-10
  6
CONTINUOUS
 62
     7
100
AcDbCircle
 10
379.5092173386365
 20
383.3759881410512
 30
0.0
 40
1.0
100
AcDbArc
 50
309.3498960329655
 51
40.32105744202008
  0
ARC
  5
229
330
1F
100
AcDbEntity
  8
LAY-10
  6
CONTINUOUS
 62
     7
100
AcDbCircle
 10
378.2148848211657
 20
384.9010760409171
 30
0.0
 40
1.0
100
AcDbArc
 50
40.32105744198302
 51
129.3158167565433
  0
ARC
  5
22A
330
1F
100
AcDbEntity
  8
LAY-10
  6
CONTINUOUS
 62
     7
100
AcDbCircle
 10
362.2333460175794
 20
375.6741303106017
 30
0.0
 40
1.0
100
AcDbArc
 50
110.6841832434506
 51
199.6789425580388
  0
ARC
  5
22B
330
1F
100
AcDbEntity
  8
LAY-10
  6
CONTINUOUS
 62
     7
100
AcDbCircle
 10
362.9069446231335
 20
373.7906615195955
 30
0.0
 40
1.0
100
AcDbArc
 50
199.6789425580419
 51
290.6501039670149
  0
ARC
  5
22C
330
1F
100
AcDbEntity
  8
LAY-10
  6
CONTINUOUS
 62
     7
100
AcDbCircle
 10
397.3093384804558
 20
408.1930553769149
 30
0.0
 40
1.0
100
AcDbArc
 50
339.3498960329894
 51
70.3210574420127
  0
ARC
  5
22D
330
1F
100
AcDbEntity
  8
LAY-10
  6
CONTINUOUS
 62
     7
100
AcDbCircle
 10
395.425869689449
 20
408.8666539824678
 30
0.0
 40
1.0
100
AcDbArc
 50
70.321057441986
 51
159.3158167565391
  0
ARC
  5
22E
330
1F
100
AcDbEntity
  8
LAY-10
  6
CONTINUOUS
 62
     7
100
AcDbCircle
 10
387.7240118590009
 20
391.5907826614117
 30
0.0
 40
1.0
100
AcDbArc
 50
229.67894255804
 51
320.6501039669997
  0
ARC
  5
22F
330
1F
100
AcDbEntity
  8
LAY-10
  6
CONTINUOUS
 62
     7
100
AcDbCircle
 10
386.1989239591342
 20
392.8851151788813
 30
0.0
 40
1.0
100
AcDbArc
 50
140.6841832434568
 51
229.67894255804
  0
ARC
  5
230
330
1F
100
AcDbEntity
  8
LAY-10
  6
CONTINUOUS
 62
     7
100
AcDbCircle
 10
400.3161619617763
 20
419.4146733785965
 30
0.0
 40
1.0
100
AcDbArc
 50
259.6789425580433
 51
350.6501039670068
  0
ARC
  5
231
330
1F
100
AcDbEntity
  8
LAY-10
  6
CONTINUOUS
 62
     7
100
AcDbCircle
 10
398.3482308387527
 20
419.773054269736
 30
0.0
 40
1.0
100
AcDbArc
 50
170.6841832434456
 51
259.6789425580562
  0
ARC
  5
232
330
1F
100
AcDbEntity
  8
LAY-10
  6
CONTINUOUS
 62
     7
100
AcDbCircle
 10
400.3161619617763
 20
438.5853266215068
 30
0.0
 40
1.0
100
AcDbArc
 50
9.349896033006624
 51
100.3210574420097
  0
ARC
  5
233
330
1F
100
AcDbEntity
  8
LAY-10
  6
CONTINUOUS
 62
     7
100
AcDbCircle
 10
398.3482308387527
 20
438.2269457303661
 30
0.0
 40
1.0
100
AcDbArc
 50
100.3210574420097
 51
189.3158167565512
  0
ARC
  5
234
330
1F
100
AcDbEntity
  8
LAY-10
  6
CONTINUOUS
 62
     7
100
AcDbCircle
 10
397.3093384804545
 20
449.8069446231883
 30
0.0
 40
1.0
100
AcDbArc
 50
289.6789425580419
 51
20.65010396701178
  0
ARC
  5
235
330
1F
100
AcDbEntity
  8
LAY-10
  6
CONTINUOUS
 62
     7
100
AcDbCircle
 10
395.4258696894485
 20
449.1333460176341
 30
0.0
 40
1.0
100
AcDbArc
 50
200.6841832434464
 51
289.6789425580419
  0
ARC
  5
236
330
1F
100
AcDbEntity
  8
LAY-10
  6
CONTINUOUS
 62
     7
100
AcDbCircle
 10
387.7240118589989
 20
466.4092173386909
 30
0.0
 40
1.0
100
AcDbArc
 50
39.3498960330005
 51
130.3210574420109
  0
ARC
  5
237
330
1F
100
AcDbEntity
  8
LAY-10
  6
CONTINUOUS
 62
     7
100
AcDbCircle
 10
386.1989239591328
 20
465.1148848212204
 30
0.0
 40
1.0
100
AcDbArc
 50
130.3210574419785
 51
219.3158167565595
  0
ARC
  5
238
330
1F
100
AcDbEntity
  8
LAY-10
  6
CONTINUOUS
 62
     7
100
AcDbCircle
 10
379.5092173386386
 20
474.6240118590345
 30
0.0
 40
1.0
100
AcDbArc
 50
319.6789425580217
 51
50.65010396703207
  0
ARC
  5
239
330
1F
100
AcDbEntity
  8
LAY-10
  6
CONTINUOUS
 62
     7
100
AcDbCircle
 10
378.2148848211691
 20
473.0989239591677
 30
0.0
 40
1.0
100
AcDbArc
 50
230.684183243443
 51
319.6789425580217
  0
ARC
  5
23A
330
1F
100
AcDbEntity
  8
LAY-10
  6
CONTINUOUS
 62
     7
100
AcDbCircle
 10
362.9069446231356
 20
484.2093384804892
 30
0.0
 40
1.0
100
AcDbArc
 50
69.3498960330275
 51
160.3210574420169
  0
ARC
  5
23B
330
1F
100
AcDbEntity
  8
LAY-10
  6
CONTINUOUS
 62
     7
100
AcDbCircle
 10
362.2333460175821
 20
482.3258696894825
 30
0.0
 40
1.0
100
AcDbArc
 50
160.321057441986
 51
249.3158167565495
  0
CIRCLE
  5
23C
330
1F
100
AcDbEntity
  8
LAY-10
  6
CONTINUOUS
 62
     7
100
AcDbCircle
 10
342.0999999999999
 20
429.0000000000501
 30
0.0
 40
74.0
  0
CIRCLE
  5
23D
330
1F
100
AcDbEntity
  8
LAY-10
  6
CONTINUOUS
 62
     7
100
AcDbCircle
 10
342.0999999999999
 20
429.0000000000501
 30
0.0
 40
68.9999999999982
  0
LINE
  5
23E
330
1F
100
AcDbEntity
  8
LAY-10
  6
CONTINUOUS
 62
     7
100
AcDbLine
 10
354.0113425332393
 20
369.174253710852
 30
0.0
 11
353.0822141455797
 21
374.2762575189796
 31
0.0
  0
LINE
  5
23F
330
1F
100
AcDbEntity
  8
LAY-10
  6
CONTINUOUS
 62
     7
100
AcDbLine
 10
330.1886574667742
 20
369.1742537108512
 30
0.0
 11
331.1177858544293
 21
374.276257518973
 31
0.0
  0
LINE
  5
240
330
1F
100
AcDbEntity
  8
LAY-10
  6
CONTINUOUS
 62
     7
100
AcDbLine
 10
330.1886574667742
 20
369.1742537108512
 30
0.0
 11
331.3501718722616
 21
369.9708445323691
 31
0.0
  0
LINE
  5
241
330
1F
100
AcDbEntity
  8
LAY-10
  6
CONTINUOUS
 62
     7
100
AcDbLine
 10
332.0668270807764
 20
373.9061215635456
 30
0.0
 11
331.1177858544293
 21
374.276257518973
 31
0.0
  0
LINE
  5
242
330
1F
100
AcDbEntity
  8
LAY-10
  6
CONTINUOUS
 62
     7
100
AcDbLine
 10
352.1331729192336
 20
373.906121563546
 30
0.0
 11
353.0822141455797
 21
374.2762575189796
 31
0.0
  0
LINE
  5
243
330
1F
100
AcDbEntity
  8
LAY-10
  6
CONTINUOUS
 62
     7
100
AcDbLine
 10
352.8498281277512
 20
369.9708445323698
 30
0.0
 11
354.0113425332393
 21
369.174253710852
 31
0.0
  0
LINE
  5
244
330
1F
100
AcDbEntity
  8
LAY-10
  6
CONTINUOUS
 62
     7
100
AcDbLine
 10
352.3107649881147
 20
372.9309329633937
 30
0.0
 11
352.6691458792552
 21
370.9630018403701
 31
0.0
  0
ARC
  5
245
330
1F
100
AcDbEntity
  8
LAY-10
  6
CONTINUOUS
 62
     7
100
AcDbCircle
 10
342.1000000000047
 20
429.0000000000169
 30
0.0
 40
55.9999999999982
100
AcDbArc
 50
260.6841832434516
 51
279.3158167565506
  0
ARC
  5
246
330
1F
100
AcDbEntity
  8
LAY-10
  6
CONTINUOUS
 62
     7
100
AcDbCircle
 10
342.1000000000047
 20
429.0000000000169
 30
0.0
 40
59.99999999999788
100
AcDbArc
 50
260.6501039670056
 51
279.3498960329978
  0
ARC
  5
247
330
1F
100
AcDbEntity
  8
LAY-10
  6
CONTINUOUS
 62
     7
100
AcDbCircle
 10
342.1000000000047
 20
429.0000000000169
 30
0.0
 40
60.99999999999648
100
AcDbArc
 50
258.7396254080384
 51
281.2603745919662
  0
LINE
  5
248
330
1F
100
AcDbEntity
  8
LAY-10
  6
CONTINUOUS
 62
     7
100
AcDbLine
 10
331.5308541207569
 20
370.9630018403691
 30
0.0
 11
331.8892350118961
 21
372.9309329633927
 31
0.0
  0
ARC
  5
249
330
1F
100
AcDbEntity
  8
LAY-10
  6
CONTINUOUS
 62
     7
100
AcDbCircle
 10
342.0999999999999
 20
429.0000000000335
 30
0.0
 40
55.81484586264231
100
AcDbArc
 50
281.3476453392172
 51
285.0000000000006
  0
LINE
  5
24A
330
1F
100
AcDbEntity
  8
LAY-10
  6
CONTINUOUS
 62
     7
100
AcDbLine
 10
346.6150069524379
 20
374.0522924061022
 30
0.0
 11
346.1000000000004
 21
373.5633838462223
 31
0.0
  0
LINE
  5
24B
330
1F
100
AcDbEntity
  8
LAY-10
  6
CONTINUOUS
 62
     7
100
AcDbLine
 10
337.5849930475622
 20
374.0522924061022
 30
0.0
 11
338.1000000000001
 21
373.5633838462206
 31
0.0
  0
ARC
  5
24C
330
1F
100
AcDbEntity
  8
LAY-10
  6
CONTINUOUS
 62
     7
100
AcDbCircle
 10
342.0999999999999
 20
429.0000000000169
 30
0.0
 40
55.13289270124415
100
AcDbArc
 50
274.6973931088294
 51
285.0000000000048
  0
ARC
  5
24D
330
1F
100
AcDbEntity
  8
LAY-10
  6
CONTINUOUS
 62
     7
100
AcDbCircle
 10
342.0999999999881
 20
429.0000000000169
 30
0.0
 40
55.58073776573366
100
AcDbArc
 50
265.8730052062236
 51
274.1269947938018
  0
ARC
  5
24E
330
1F
100
AcDbEntity
  8
LAY-10
  6
CONTINUOUS
 62
     7
100
AcDbCircle
 10
332.5146733785512
 20
370.7838380382402
 30
0.0
 40
1.0
100
AcDbArc
 50
169.6789425580299
 51
260.6501039670068
  0
ARC
  5
24F
330
1F
100
AcDbEntity
  8
LAY-10
  6
CONTINUOUS
 62
     7
100
AcDbCircle
 10
332.8730542696908
 20
372.751769161264
 30
0.0
 40
1.0
100
AcDbArc
 50
80.68418324344937
 51
169.6789425580465
  0
ARC
  5
250
330
1F
100
AcDbEntity
  8
LAY-10
  6
CONTINUOUS
 62
     7
100
AcDbCircle
 10
351.3269457303206
 20
372.7517691612642
 30
0.0
 40
1.0
100
AcDbArc
 50
10.3210574420097
 51
99.31581675655069
  0
ARC
  5
251
330
1F
100
AcDbEntity
  8
LAY-10
  6
CONTINUOUS
 62
     7
100
AcDbCircle
 10
351.6853266214609
 20
370.7838380382409
 30
0.0
 40
1.0
100
AcDbArc
 50
279.3498960330201
 51
10.32105744199372
  0
ARC
  5
252
330
1F
100
AcDbEntity
  8
LAY-10
  6
CONTINUOUS
 62
     7
100
AcDbCircle
 10
342.0999999999999
 20
429.0000000000501
 30
0.0
 40
55.13289270124415
100
AcDbArc
 50
186.7864506593017
 51
265.3026068911716
  0
ARC
  5
253
330
1F
100
AcDbEntity
  8
LAY-10
  6
CONTINUOUS
 62
     7
100
AcDbCircle
 10
342.0999999999999
 20
429.0000000000501
 30
0.0
 40
55.13289270124415
100
AcDbArc
 50
6.786450659301666
 51
85.30260689117117
  0
ARC
  5
254
330
1F
100
AcDbEntity
  8
LAY-10
  6
CONTINUOUS
 62
     7
100
AcDbCircle
 10
342.0999999999999
 20
429.0000000000335
 30
0.0
 40
55.81484586264231
100
AcDbArc
 50
71.34764533921602
 51
78.6523546607834
  0
CIRCLE
  5
255
330
1F
100
AcDbEntity
  8
LAY-10
  6
CONTINUOUS
 62
     7
100
AcDbCircle
 10
342.1000000000399
 20
429.0000000000334
 30
0.0
 40
31.97796688174738
  0
ARC
  5
256
330
1F
100
AcDbEntity
  8
LAY-10
  6
CONTINUOUS
 62
     7
100
AcDbCircle
 10
342.1000000000399
 20
429.0000000000334
 30
0.0
 40
37.5765635289861
100
AcDbArc
 50
75.00000000000085
 51
82.35344989725027
  0
LINE
  5
257
330
1F
100
AcDbEntity
  8
LAY-10
  6
CONTINUOUS
 62
     7
100
AcDbLine
 10
300.0902494970612
 20
434.0000000000334
 30
0.0
 11
304.8575762517403
 21
434.0000000000334
 31
0.0
  0
LINE
  5
258
330
1F
100
AcDbEntity
  8
LAY-10
  6
CONTINUOUS
 62
     7
100
AcDbLine
 10
300.0902494970612
 20
424.0000000000334
 30
0.0
 11
304.8575762517403
 21
424.0000000000334
 31
0.0
  0
LINE
  5
259
330
1F
100
AcDbEntity
  8
LAY-10
  6
CONTINUOUS
 62
     7
100
AcDbLine
 10
303.218488857814
 20
412.3252517674664
 30
0.0
 11
307.3471149355073
 21
414.7089151448057
 31
0.0
  0
LINE
  5
25A
330
1F
100
AcDbEntity
  8
LAY-10
  6
CONTINUOUS
 62
     7
100
AcDbLine
 10
308.2184888578145
 20
403.664997729622
 30
0.0
 11
312.3471149355073
 21
406.0486611069614
 31
0.0
  0
LINE
  5
25B
330
1F
100
AcDbEntity
  8
LAY-10
  6
CONTINUOUS
 62
     7
100
AcDbLine
 10
316.7649977296285
 20
395.1184888578078
 30
0.0
 11
319.1486611069677
 21
399.247114935501
 31
0.0
  0
LINE
  5
25C
330
1F
100
AcDbEntity
  8
LAY-10
  6
CONTINUOUS
 62
     7
100
AcDbLine
 10
325.4252517674729
 20
390.118488857808
 30
0.0
 11
327.8089151448121
 21
394.2471149355009
 31
0.0
  0
LINE
  5
25D
330
1F
100
AcDbEntity
  8
LAY-10
  6
CONTINUOUS
 62
     7
100
AcDbLine
 10
347.1000000000397
 20
471.0097505030121
 30
0.0
 11
347.1000000000397
 21
466.2424237483333
 31
0.0
  0
LINE
  5
25E
330
1F
100
AcDbEntity
  8
LAY-10
  6
CONTINUOUS
 62
     7
100
AcDbLine
 10
337.1000000000399
 20
471.0097505030121
 30
0.0
 11
337.1000000000399
 21
466.2424237483333
 31
0.0
  0
LINE
  5
25F
330
1F
100
AcDbEntity
  8
LAY-10
  6
CONTINUOUS
 62
     7
100
AcDbLine
 10
325.4252517674729
 20
467.881511142259
 30
0.0
 11
327.8089151448121
 21
463.7528850645659
 31
0.0
  0
LINE
  5
260
330
1F
100
AcDbEntity
  8
LAY-10
  6
CONTINUOUS
 62
     7
100
AcDbLine
 10
316.7649977296285
 20
462.881511142259
 30
0.0
 11
319.1486611069677
 21
458.7528850645659
 31
0.0
  0
LINE
  5
261
330
1F
100
AcDbEntity
  8
LAY-10
  6
CONTINUOUS
 62
     7
100
AcDbLine
 10
308.2184888578145
 20
454.335002270445
 30
0.0
 11
312.3471149355073
 21
451.9513388931056
 31
0.0
  0
LINE
  5
262
330
1F
100
AcDbEntity
  8
LAY-10
  6
CONTINUOUS
 62
     7
100
AcDbLine
 10
303.218488857814
 20
445.6747482326006
 30
0.0
 11
307.3471149355073
 21
443.2910848552611
 31
0.0
  0
ARC
  5
263
330
1F
100
AcDbEntity
  8
LAY-10
  6
CONTINUOUS
 62
     7
100
AcDbCircle
 10
342.1000000000399
 20
429.0000000000334
 30
0.0
 40
37.5765635289861
100
AcDbArc
 50
97.64655010275014
 51
112.3534498972501
  0
ARC
  5
264
330
1F
100
AcDbEntity
  8
LAY-10
  6
CONTINUOUS
 62
     7
100
AcDbCircle
 10
342.1000000000399
 20
429.0000000000334
 30
0.0
 40
37.5765635289861
100
AcDbArc
 50
127.6465501027503
 51
142.3534498972502
  0
ARC
  5
265
330
1F
100
AcDbEntity
  8
LAY-10
  6
CONTINUOUS
 62
     7
100
AcDbCircle
 10
342.1000000000399
 20
429.0000000000334
 30
0.0
 40
37.5765635289861
100
AcDbArc
 50
157.6465501027501
 51
172.3534498972502
  0
ARC
  5
266
330
1F
100
AcDbEntity
  8
LAY-10
  6
CONTINUOUS
 62
     7
100
AcDbCircle
 10
342.1000000000399
 20
429.0000000000334
 30
0.0
 40
37.5765635289861
100
AcDbArc
 50
187.6465501027499
 51
202.3534498972492
  0
ARC
  5
267
330
1F
100
AcDbEntity
  8
LAY-10
  6
CONTINUOUS
 62
     7
100
AcDbCircle
 10
342.1000000000399
 20
429.0000000000334
 30
0.0
 40
37.5765635289861
100
AcDbArc
 50
217.6465501027499
 51
232.3534498972498
  0
LINE
  5
268
330
1F
100
AcDbEntity
  8
LAY-10
  6
CONTINUOUS
 62
     7
100
AcDbLine
 10
300.9925902382643
 20
439.0000000000334
 30
0.0
 11
289.5428882072483
 21
439.0000000000334
 31
0.0
  0
LINE
  5
269
330
1F
100
AcDbEntity
  8
LAY-10
  6
CONTINUOUS
 62
     7
100
AcDbLine
 10
300.9925902382643
 20
419.0000000000335
 30
0.0
 11
289.5428882072483
 21
419.0000000000335
 31
0.0
  0
ARC
  5
26A
330
1F
100
AcDbEntity
  8
LAY-10
  6
CONTINUOUS
 62
     7
100
AcDbCircle
 10
342.1000000000399
 20
429.0000000000334
 30
0.0
 40
37.5765635289861
100
AcDbArc
 50
247.64655010275
 51
255.0000000000005
  0
ARC
  5
26B
330
1F
100
AcDbEntity
  8
LAY-10
  6
CONTINUOUS
 62
     7
100
AcDbCircle
 10
342.0999999999599
 20
429.0000000000326
 30
0.0
 40
37.5765635289861
100
AcDbArc
 50
37.64655010275006
 51
52.3534498972497
  0
ARC
  5
26C
330
1F
100
AcDbEntity
  8
LAY-10
  6
CONTINUOUS
 62
     7
100
AcDbCircle
 10
342.0999999999599
 20
429.0000000000326
 30
0.0
 40
37.5765635289861
100
AcDbArc
 50
7.64655010274993
 51
22.35344989724933
  0
ARC
  5
26D
330
1F
100
AcDbEntity
  8
LAY-10
  6
CONTINUOUS
 62
     7
100
AcDbCircle
 10
342.0999999999599
 20
429.0000000000326
 30
0.0
 40
37.5765635289861
100
AcDbArc
 50
337.64655010275
 51
352.3534498972502
  0
ARC
  5
26E
330
1F
100
AcDbEntity
  8
LAY-10
  6
CONTINUOUS
 62
     7
100
AcDbCircle
 10
342.0999999999599
 20
429.0000000000326
 30
0.0
 40
37.5765635289861
100
AcDbArc
 50
307.6465501027504
 51
322.3534498972501
  0
ARC
  5
26F
330
1F
100
AcDbEntity
  8
LAY-10
  6
CONTINUOUS
 62
     7
100
AcDbCircle
 10
342.0999999999599
 20
429.0000000000326
 30
0.0
 40
37.5765635289861
100
AcDbArc
 50
277.6465501027503
 51
292.3534498972501
  0
LINE
  5
270
330
1F
100
AcDbEntity
  8
LAY-10
  6
CONTINUOUS
 62
     7
100
AcDbLine
 10
380.9815111421858
 20
412.3252517674654
 30
0.0
 11
376.8528850644925
 21
414.7089151448049
 31
0.0
  0
LINE
  5
271
330
1F
100
AcDbEntity
  8
LAY-10
  6
CONTINUOUS
 62
     7
100
AcDbLine
 10
375.9815111421854
 20
403.6649977296209
 30
0.0
 11
371.8528850644925
 21
406.0486611069605
 31
0.0
  0
LINE
  5
272
330
1F
100
AcDbEntity
  8
LAY-10
  6
CONTINUOUS
 62
     7
100
AcDbLine
 10
367.4350022703713
 20
395.1184888578071
 30
0.0
 11
365.0513388930322
 21
399.2471149355001
 31
0.0
  0
LINE
  5
273
330
1F
100
AcDbEntity
  8
LAY-10
  6
CONTINUOUS
 62
     7
100
AcDbLine
 10
358.7747482325269
 20
390.1184888578069
 30
0.0
 11
356.3910848551877
 21
394.2471149355001
 31
0.0
  0
LINE
  5
274
330
1F
100
AcDbEntity
  8
LAY-10
  6
CONTINUOUS
 62
     7
100
AcDbLine
 10
347.0999999999599
 20
386.9902494970539
 30
0.0
 11
347.0999999999599
 21
391.7575762517326
 31
0.0
  0
LINE
  5
275
330
1F
100
AcDbEntity
  8
LAY-10
  6
CONTINUOUS
 62
     7
100
AcDbLine
 10
337.0999999999601
 20
386.9902494970539
 30
0.0
 11
337.0999999999601
 21
391.7575762517326
 31
0.0
  0
LINE
  5
276
330
1F
100
AcDbEntity
  8
LAY-10
  6
CONTINUOUS
 62
     7
100
AcDbLine
 10
358.7747482325269
 20
467.881511142258
 30
0.0
 11
356.3910848551877
 21
463.752885064565
 31
0.0
  0
LINE
  5
277
330
1F
100
AcDbEntity
  8
LAY-10
  6
CONTINUOUS
 62
     7
100
AcDbLine
 10
367.4350022703713
 20
462.8815111422581
 30
0.0
 11
365.0513388930322
 21
458.752885064565
 31
0.0
  0
LINE
  5
278
330
1F
100
AcDbEntity
  8
LAY-10
  6
CONTINUOUS
 62
     7
100
AcDbLine
 10
375.9815111421854
 20
454.335002270444
 30
0.0
 11
371.8528850644925
 21
451.9513388931047
 31
0.0
  0
LINE
  5
279
330
1F
100
AcDbEntity
  8
LAY-10
  6
CONTINUOUS
 62
     7
100
AcDbLine
 10
380.9815111421858
 20
445.6747482325995
 30
0.0
 11
376.8528850644925
 21
443.2910848552602
 31
0.0
  0
LINE
  5
27A
330
1F
100
AcDbEntity
  8
LAY-10
  6
CONTINUOUS
 62
     7
100
AcDbLine
 10
384.1097505029386
 20
434.0000000000325
 30
0.0
 11
379.3424237482595
 21
434.0000000000325
 31
0.0
  0
LINE
  5
27B
330
1F
100
AcDbEntity
  8
LAY-10
  6
CONTINUOUS
 62
     7
100
AcDbLine
 10
384.1097505029386
 20
424.0000000000326
 30
0.0
 11
379.3424237482595
 21
424.0000000000326
 31
0.0
  0
ARC
  5
27C
330
1F
100
AcDbEntity
  8
LAY-10
  6
CONTINUOUS
 62
     7
100
AcDbCircle
 10
342.0999999999599
 20
429.0000000000326
 30
0.0
 40
37.5765635289861
100
AcDbArc
 50
255.0000000000009
 51
262.3534498972503
  0
ARC
  5
27D
330
1F
100
AcDbEntity
  8
LAY-10
  6
CONTINUOUS
 62
     7
100
AcDbCircle
 10
342.0999999999599
 20
429.0000000000326
 30
0.0
 40
37.5765635289861
100
AcDbArc
 50
67.64655010274996
 51
75.00000000000051
  0
CIRCLE
  5
27E
330
1F
100
AcDbEntity
  8
LAY-10
  6
CONTINUOUS
 62
     7
100
AcDbCircle
 10
342.1000000000399
 20
429.0000000000334
 30
0.0
 40
36.00000000000126
  0
LINE
  5
27F
330
1F
100
AcDbEntity
  8
LAY-10
  6
CONTINUOUS
 62
     7
100
AcDbLine
 10
342.1000000000472
 20
376.6090902367509
 30
0.0
 11
350.1000000000477
 21
381.2278923902682
 31
0.0
  0
LINE
  5
280
330
1F
100
AcDbEntity
  8
LAY-10
  6
CONTINUOUS
 62
     7
100
AcDbLine
 10
342.1000000000463
 20
385.8466945437872
 30
0.0
 11
350.1000000000463
 21
381.22789239027
 31
0.0
  0
LINE
  5
281
330
1F
100
AcDbEntity
  8
LAY-10
  6
CONTINUOUS
 62
     7
100
AcDbLine
 10
342.1000000000449
 20
376.6090902367509
 30
0.0
 11
334.1000000000449
 21
381.2278923902682
 31
0.0
  0
LINE
  5
282
330
1F
100
AcDbEntity
  8
LAY-10
  6
CONTINUOUS
 62
     7
100
AcDbLine
 10
342.1000000000458
 20
385.8466945437872
 30
0.0
 11
334.1000000000463
 21
381.22789239027
 31
0.0
  0
TEXT
  5
283
330
1F
100
AcDbEntity
  8
LAY-10
  6
CONTINUOUS
 62
     7
100
AcDbText
 10
330.7429760526973
 20
478.6792753069372
 30
0.0
 40
3.637795714471817
  1
０
 50
196.2836265077413
 41
1.2
  7
EXCADSTD
100
AcDbText
  0
TEXT
  5
284
330
1F
100
AcDbEntity
  8
LAY-10
  6
CONTINUOUS
 62
     7
100
AcDbText
 10
335.2567135076097
 20
479.5420174577512
 30
0.0
 40
3.637795714471817
  1
５
 50
190.8557510051622
 41
1.2
  7
EXCADSTD
100
AcDbText
  0
TEXT
  5
285
330
1F
100
AcDbEntity
  8
LAY-10
  6
CONTINUOUS
 62
     7
100
AcDbText
 10
339.8318207172256
 20
479.9739246829614
 30
0.0
 40
3.637795714471817
  1
０
 50
185.4278755025825
 41
1.2
  7
EXCADSTD
100
AcDbText
  0
TEXT
  5
286
330
1F
100
AcDbEntity
  8
LAY-10
  6
CONTINUOUS
 62
     7
100
AcDbText
 10
344.4272686807124
 20
479.9711236914968
 30
0.0
 40
3.637795714471817
  1
０
 50
180.0
 41
1.2
  7
EXCADSTD
100
AcDbText
  0
TEXT
  5
287
330
1F
100
AcDbEntity
  8
LAY-10
  6
CONTINUOUS
 62
     7
100
AcDbText
 10
349.0018459838489
 20
479.5336396023058
 30
0.0
 40
3.637795714471817
  1
１
 50
174.572124497424
 41
1.2
  7
EXCADSTD
100
AcDbText
  0
TEXT
  5
288
330
1F
100
AcDbEntity
  8
LAY-10
  6
CONTINUOUS
 62
     7
100
AcDbText
 10
353.5145283779389
 20
478.665395719092
 30
0.0
 40
3.637795714471817
  1
－
 50
169.1442489948449
 41
1.2
  7
EXCADSTD
100
AcDbText
  0
TEXT
  5
289
330
1F
100
AcDbEntity
  8
LAY-10
  6
CONTINUOUS
 62
     7
100
AcDbText
 10
357.9248466802458
 20
477.3741783466072
 30
0.0
 40
3.637795714471817
  1
Ｘ
 50
163.7163734922652
 41
1.2
  7
EXCADSTD
100
AcDbText
  0
LINE
  5
28A
330
1F
100
AcDbEntity
  8
LAY-10
  6
CONTINUOUS
 62
     7
100
AcDbLine
 10
395.2018331549307
 20
422.4849930476104
 30
0.0
 11
396.8466030180557
 21
422.4849930476104
 31
0.0
  0
LINE
  5
28B
330
1F
100
AcDbEntity
  8
LAY-10
  6
CONTINUOUS
 62
     7
100
AcDbLine
 10
395.2624867740819
 20
423.0000000000501
 30
0.0
 11
397.3559355235566
 21
423.0000000000501
 31
0.0
  0
LINE
  5
28C
330
1F
100
AcDbEntity
  8
LAY-10
  6
CONTINUOUS
 62
     7
100
AcDbLine
 10
288.9981668451489
 20
422.4849930476104
 30
0.0
 11
287.3533969819448
 21
422.4849930476104
 31
0.0
  0
LINE
  5
28D
330
1F
100
AcDbEntity
  8
LAY-10
  6
CONTINUOUS
 62
     7
100
AcDbLine
 10
288.9375132259979
 20
423.0000000000501
 30
0.0
 11
286.8440644764435
 21
423.0000000000501
 31
0.0
  0
LINE
  5
28E
330
1F
100
AcDbEntity
  8
LAY-10
  6
CONTINUOUS
 62
     7
100
AcDbLine
 10
288.9375132260016
 20
435.0000000000501
 30
0.0
 11
286.8440644764471
 21
435.0000000000501
 31
0.0
  0
LINE
  5
28F
330
1F
100
AcDbEntity
  8
LAY-10
  6
CONTINUOUS
 62
     7
100
AcDbLine
 10
288.998166845153
 20
435.51500695249
 30
0.0
 11
287.3533969819448
 21
435.51500695249
 31
0.0
  0
LINE
  5
290
330
1F
100
AcDbEntity
  8
LAY-10
  6
CONTINUOUS
 62
     7
100
AcDbLine
 10
395.2624867740783
 20
435.0000000000501
 30
0.0
 11
397.3559355235529
 21
435.0000000000501
 31
0.0
  0
LINE
  5
291
330
1F
100
AcDbEntity
  8
LAY-10
  6
CONTINUOUS
 62
     7
100
AcDbLine
 10
395.2018331549266
 20
435.51500695249
 30
0.0
 11
396.8466030180557
 21
435.51500695249
 31
0.0
  0
LINE
  5
292
330
1F
100
AcDbEntity
  8
LAY-10
  6
CONTINUOUS
 62
     7
100
AcDbLine
 10
346.6150069524379
 20
375.6908571423603
 30
0.0
 11
346.6150069524379
 21
374.0522924061022
 31
0.0
  0
LINE
  5
293
330
1F
100
AcDbEntity
  8
LAY-10
  6
CONTINUOUS
 62
     7
100
AcDbLine
 10
346.1000000000004
 20
375.6497422686942
 30
0.0
 11
346.1000000000004
 21
373.5633838462223
 31
0.0
  0
LINE
  5
294
330
1F
100
AcDbEntity
  8
LAY-10
  6
CONTINUOUS
 62
     7
100
AcDbLine
 10
338.1000000000001
 20
375.6497422687002
 30
0.0
 11
338.1000000000001
 21
373.5633838462206
 31
0.0
  0
LINE
  5
295
330
1F
100
AcDbEntity
  8
LAY-10
  6
CONTINUOUS
 62
     7
100
AcDbLine
 10
337.5849930475622
 20
375.690857142367
 30
0.0
 11
337.5849930475622
 21
374.0522924061022
 31
0.0
  0
LINE
  5
296
330
1F
100
AcDbEntity
  8
LAY-10
  6
CONTINUOUS
 62
     7
100
AcDbLine
 10
346.6150069524379
 20
482.3091428577065
 30
0.0
 11
346.6150069524379
 21
483.9477075939648
 31
0.0
  0
LINE
  5
297
330
1F
100
AcDbEntity
  8
LAY-10
  6
CONTINUOUS
 62
     7
100
AcDbLine
 10
346.1000000000004
 20
482.3502577313726
 30
0.0
 11
346.1000000000004
 21
484.4366161538447
 31
0.0
  0
LINE
  5
298
330
1F
100
AcDbEntity
  8
LAY-10
  6
CONTINUOUS
 62
     7
100
AcDbLine
 10
337.5849930475622
 20
482.3091428576998
 30
0.0
 11
337.5849930475622
 21
483.9477075939648
 31
0.0
  0
LINE
  5
299
330
1F
100
AcDbEntity
  8
LAY-10
  6
CONTINUOUS
 62
     7
100
AcDbLine
 10
338.1000000000001
 20
482.3502577313667
 30
0.0
 11
338.1000000000001
 21
484.4366161538464
 31
0.0
  0
CIRCLE
  5
29A
330
1F
100
AcDbEntity
  8
LAY-10
  6
CONTINUOUS
 62
     7
100
AcDbCircle
 10
342.0999999999999
 20
429.000000000033
 30
0.0
 40
18.49718848810006
  0
CIRCLE
  5
29B
330
1F
100
AcDbEntity
  8
LAY-10
  6
CONTINUOUS
 62
     7
100
AcDbCircle
 10
342.0999999999999
 20
429.000000000033
 30
0.0
 40
20.13508134240011
  0
CIRCLE
  5
29C
330
1F
100
AcDbEntity
  8
LAY-10
  6
CONTINUOUS
 62
     7
100
AcDbCircle
 10
291.599999999996
 20
429.000000000034
 30
0.0
 40
5.25
  0
LINE
  5
29D
330
1F
100
AcDbEntity
  8
LAY-10
  6
CONTINUOUS
 62
     7
100
AcDbLine
 10
287.6366072321339
 20
425.5570335802646
 30
0.0
 11
296.5633927678268
 21
430.7109156122852
 31
0.0
  0
LINE
  5
29E
330
1F
100
AcDbEntity
  8
LAY-10
  6
CONTINUOUS
 62
     7
100
AcDbLine
 10
286.6366072321362
 20
427.2890843878663
 30
0.0
 11
295.5633927678
 21
432.4429664198699
 31
0.0
  0
CIRCLE
  5
29F
330
1F
100
AcDbEntity
  8
LAY-10
  6
CONTINUOUS
 62
     7
100
AcDbCircle
 10
392.5999999999963
 20
429.000000000034
 30
0.0
 40
5.25
  0
LINE
  5
2A0
330
1F
100
AcDbEntity
  8
LAY-10
  6
CONTINUOUS
 62
     7
100
AcDbLine
 10
388.6366072321339
 20
425.5570335802646
 30
0.0
 11
397.5633927678271
 21
430.7109156122852
 31
0.0
  0
LINE
  5
2A1
330
1F
100
AcDbEntity
  8
LAY-10
  6
CONTINUOUS
 62
     7
100
AcDbLine
 10
387.6366072321362
 20
427.2890843878663
 30
0.0
 11
396.5633927678
 21
432.4429664198699
 31
0.0
  0
ARC
  5
2A2
330
1F
100
AcDbEntity
  8
LAY-10
  6
CONTINUOUS
 62
     7
100
AcDbCircle
 10
342.0999999999999
 20
429.0000000000335
 30
0.0
 40
55.58073776573366
100
AcDbArc
 50
353.8027829541778
 51
358.5698823484146
  0
ARC
  5
2A3
330
1F
100
AcDbEntity
  8
LAY-10
  6
CONTINUOUS
 62
     7
100
AcDbCircle
 10
342.0999999999999
 20
429.0000000000335
 30
0.0
 40
55.58073776573366
100
AcDbArc
 50
1.430117651586756
 51
6.197217045857055
  0
ARC
  5
2A4
330
1F
100
AcDbEntity
  8
LAY-10
  6
CONTINUOUS
 62
     7
100
AcDbCircle
 10
342.0999999999999
 20
429.0000000000335
 30
0.0
 40
55.58073776573366
100
AcDbArc
 50
173.802782954143
 51
178.5698823483824
  0
ARC
  5
2A5
330
1F
100
AcDbEntity
  8
LAY-10
  6
CONTINUOUS
 62
     7
100
AcDbCircle
 10
342.0999999999999
 20
429.0000000000335
 30
0.0
 40
55.58073776573366
100
AcDbArc
 50
181.4301176516167
 51
186.1972170458226
  0
ARC
  5
2A6
330
1F
100
AcDbEntity
  8
LAY-10
  6
CONTINUOUS
 62
     7
100
AcDbCircle
 10
342.1000000000399
 20
429.0000000000334
 30
0.0
 40
53.50000000000004
100
AcDbArc
 50
4.750536844123861
 51
175.2494631558133
  0
ARC
  5
2A7
330
1F
100
AcDbEntity
  8
LAY-10
  6
CONTINUOUS
 62
     7
100
AcDbCircle
 10
342.1000000000399
 20
429.0000000000334
 30
0.0
 40
53.50000000000004
100
AcDbArc
 50
184.7505368441855
 51
355.2494631558776
  0
ARC
  5
2A8
330
1F
100
AcDbEntity
  8
LAY-10
  6
CONTINUOUS
 62
     7
100
AcDbCircle
 10
342.1000000000399
 20
429.0000000000334
 30
0.0
 40
42.30625411594031
100
AcDbArc
 50
336.7874135491902
 51
203.2125864507541
  0
ARC
  5
2A9
330
1F
100
AcDbEntity
  8
LAY-10
  6
CONTINUOUS
 62
     7
100
AcDbCircle
 10
342.1000000000399
 20
429.0000000000334
 30
0.0
 40
42.30625411594031
100
AcDbArc
 50
216.7874135492457
 51
323.2125864506986
  0
TEXT
  5
2AA
330
1F
100
AcDbEntity
  8
LAY-10
  6
CONTINUOUS
 62
     7
100
AcDbText
 10
337.6800000000461
 20
378.9310421902702
 30
0.0
 40
4.6771656
  1
ＳＦ
 41
0.9583333333333331
  7
EXCADSTD
100
AcDbText
  0
LINE
  5
2AB
330
1F
100
AcDbEntity
  8
LAY-10
  6
CONTINUOUS
 62
     7
100
AcDbLine
 10
396.731773199019
 20
199.8986412405379
 30
0.0
 11
294.0999999999979
 21
199.8986412405379
 31
0.0
  0
LINE
  5
2AC
330
1F
100
AcDbEntity
  8
LAY-10
  6
CONTINUOUS
 62
     7
100
AcDbLine
 10
410.5999999999924
 20
197.8986412405457
 30
0.0
 11
410.5999999999924
 21
198.8986412405439
 31
0.0
  0
LINE
  5
2AD
330
1F
100
AcDbEntity
  8
LAY-10
  6
CONTINUOUS
 62
     7
100
AcDbLine
 10
405.5999999999931
 20
197.8986412405457
 30
0.0
 11
405.5999999999931
 21
198.8986412405451
 31
0.0
  0
LINE
  5
2AE
330
1F
100
AcDbEntity
  8
LAY-10
  6
CONTINUOUS
 62
     7
100
AcDbLine
 10
405.5999999999931
 20
198.8986412405451
 30
0.0
 11
410.5999999999924
 21
198.8986412405451
 31
0.0
  0
LINE
  5
2AF
330
1F
100
AcDbEntity
  8
LAY-10
  6
CONTINUOUS
 62
     7
100
AcDbLine
 10
405.0999999999899
 20
197.3986412405451
 30
0.0
 11
411.0999999999899
 21
197.3986412405451
 31
0.0
  0
LINE
  5
2B0
330
1F
100
AcDbEntity
  8
LAY-10
  6
CONTINUOUS
 62
     7
100
AcDbLine
 10
405.5999999999899
 20
197.8986412405457
 30
0.0
 11
410.5999999999899
 21
197.8986412405457
 31
0.0
  0
LINE
  5
2B1
330
1F
100
AcDbEntity
  8
LAY-10
  6
CONTINUOUS
 62
     7
100
AcDbLine
 10
408.0999999999901
 20
200.3420169135207
 30
0.0
 11
410.599999999991
 21
198.8986412405461
 31
0.0
  0
LINE
  5
2B2
330
1F
100
AcDbEntity
  8
LAY-10
  6
CONTINUOUS
 62
     7
100
AcDbLine
 10
408.0999999999897
 20
200.3420169135205
 30
0.0
 11
405.5999999999892
 21
198.8986412405461
 31
0.0
  0
LINE
  5
2B3
330
1F
100
AcDbEntity
  8
LAY-10
  6
CONTINUOUS
 62
     7
100
AcDbLine
 10
422.5999999999894
 20
167.8986412405544
 30
0.0
 11
422.5999999999894
 21
172.8986412405543
 31
0.0
  0
LINE
  5
2B4
330
1F
100
AcDbEntity
  8
LAY-10
  6
CONTINUOUS
 62
     7
100
AcDbLine
 10
412.599999999989
 20
172.8986412405543
 30
0.0
 11
422.5999999999894
 21
172.8986412405543
 31
0.0
  0
ARC
  5
2B5
330
1F
100
AcDbEntity
  8
LAY-10
  6
CONTINUOUS
 62
     7
100
AcDbCircle
 10
412.599999999989
 20
174.8986412405543
 30
0.0
 40
2.0
100
AcDbArc
 50
180.0
 51
270.0000000000002
  0
LINE
  5
2B6
330
1F
100
AcDbEntity
  8
LAY-10
  6
CONTINUOUS
 62
     7
100
AcDbLine
 10
412.599999999989
 20
167.8986412405544
 30
0.0
 11
422.5999999999894
 21
167.8986412405544
 31
0.0
  0
ARC
  5
2B7
330
1F
100
AcDbEntity
  8
LAY-10
  6
CONTINUOUS
 62
     7
100
AcDbCircle
 10
412.599999999989
 20
174.8986412405543
 30
0.0
 40
7.000000000000004
100
AcDbArc
 50
180.0
 51
270.0000000000002
  0
LINE
  5
2B8
330
1F
100
AcDbEntity
  8
LAY-10
  6
CONTINUOUS
 62
     7
100
AcDbLine
 10
410.5999999999899
 20
174.8986412405499
 30
0.0
 11
410.5999999999899
 21
189.8986412405496
 31
0.0
  0
LINE
  5
2B9
330
1F
100
AcDbEntity
  8
LAY-10
  6
CONTINUOUS
 62
     7
100
AcDbLine
 10
405.5999999999899
 20
174.8986412405499
 30
0.0
 11
405.5999999999899
 21
189.8986412405496
 31
0.0
  0
LINE
  5
2BA
330
1F
100
AcDbEntity
  8
LAY-10
  6
CONTINUOUS
 62
     7
100
AcDbLine
 10
405.5999999999931
 20
195.8986412405545
 30
0.0
 11
410.5999999999924
 21
195.8986412405545
 31
0.0
  0
LINE
  5
2BB
330
1F
100
AcDbEntity
  8
LAY-10
  6
CONTINUOUS
 62
     7
100
AcDbLine
 10
405.0999999999917
 20
195.398641240556
 30
0.0
 11
411.0999999999908
 21
195.398641240556
 31
0.0
  0
LINE
  5
2BC
330
1F
100
AcDbEntity
  8
LAY-10
  6
CONTINUOUS
 62
     7
100
AcDbLine
 10
410.5999999999924
 20
197.8986412405457
 30
0.0
 11
410.5999999999924
 21
195.8986412405545
 31
0.0
  0
LINE
  5
2BD
330
1F
100
AcDbEntity
  8
LAY-10
  6
CONTINUOUS
 62
     7
100
AcDbLine
 10
405.5999999999931
 20
197.8986412405457
 30
0.0
 11
405.5999999999931
 21
195.8986412405545
 31
0.0
  0
LINE
  5
2BE
330
1F
100
AcDbEntity
  8
LAY-10
  6
CONTINUOUS
 62
     7
100
AcDbLine
 10
411.0999999999899
 20
195.39864124056
 30
0.0
 11
410.5999999999899
 21
195.8986412405499
 31
0.0
  0
LINE
  5
2BF
330
1F
100
AcDbEntity
  8
LAY-10
  6
CONTINUOUS
 62
     7
100
AcDbLine
 10
405.5999999999899
 20
195.8986412405499
 30
0.0
 11
405.0999999999899
 21
195.39864124056
 31
0.0
  0
LINE
  5
2C0
330
1F
100
AcDbEntity
  8
LAY-10
  6
CONTINUOUS
 62
     7
100
AcDbLine
 10
405.0999999999899
 20
195.39864124056
 30
0.0
 11
405.0999999999899
 21
189.8986412405499
 31
0.0
  0
LINE
  5
2C1
330
1F
100
AcDbEntity
  8
LAY-10
  6
CONTINUOUS
 62
     7
100
AcDbLine
 10
411.0999999999899
 20
195.39864124056
 30
0.0
 11
411.0999999999899
 21
189.8986412405499
 31
0.0
  0
ARC
  5
2C2
330
1F
100
AcDbEntity
  8
LAY-10
  6
CONTINUOUS
 62
     7
100
AcDbCircle
 10
395.9406253921711
 20
205.3656898373541
 30
0.0
 40
1.0
100
AcDbArc
 50
182.4954917247341
 51
207.842884486367
  0
ARC
  5
2C3
330
1F
100
AcDbEntity
  8
LAY-10
  6
CONTINUOUS
 62
     7
100
AcDbCircle
 10
395.9406253921711
 20
205.3656898373541
 30
0.0
 40
1.0
100
AcDbArc
 50
248.596008349533
 51
270.0000000000001
  0
LINE
  5
2C4
330
1F
100
AcDbEntity
  8
LAY-10
  6
CONTINUOUS
 62
     7
100
AcDbLine
 10
322.09249126283
 20
183.1738478830765
 30
0.0
 11
323.6028115119254
 21
142.8986412405397
 31
0.0
  0
LINE
  5
2C5
330
1F
100
AcDbEntity
  8
LAY-10
  6
CONTINUOUS
 62
     7
100
AcDbLine
 10
319.6000000000004
 20
142.8986412405397
 30
0.0
 11
318.199203853933
 21
180.2532051356689
 31
0.0
  0
LINE
  5
2C6
330
1F
100
AcDbEntity
  8
LAY-10
  6
CONTINUOUS
 62
     7
100
AcDbLine
 10
301.60698414555
 20
190.2248074608213
 30
0.0
 11
301.1496649680412
 21
198.950977196781
 31
0.0
  0
LINE
  5
2C7
330
1F
100
AcDbEntity
  8
LAY-10
  6
CONTINUOUS
 62
     7
100
AcDbLine
 10
321.9649186575934
 20
187.575784022724
 30
0.0
 11
362.2350813424068
 21
187.575784022724
 31
0.0
  0
LINE
  5
2C8
330
1F
100
AcDbEntity
  8
LAY-10
  6
CONTINUOUS
 62
     7
100
AcDbLine
 10
337.492246424702
 20
189.3020121978124
 30
0.0
 11
350.707753575299
 21
189.3020121978124
 31
0.0
  0
LINE
  5
2C9
330
1F
100
AcDbEntity
  8
LAY-10
  6
CONTINUOUS
 62
     7
100
AcDbLine
 10
350.6553457960159
 20
189.3020121978124
 30
0.0
 11
350.1000000000008
 21
199.8986412405379
 31
0.0
  0
LINE
  5
2CA
330
1F
100
AcDbEntity
  8
LAY-10
  6
CONTINUOUS
 62
     7
100
AcDbLine
 10
337.544654203985
 20
189.3020121978124
 30
0.0
 11
338.1000000000001
 21
199.8986412405379
 31
0.0
  0
LINE
  5
2CB
330
1F
100
AcDbEntity
  8
LAY-10
  6
CONTINUOUS
 62
     7
100
AcDbLine
 10
384.6022282672976
 20
190.400590769561
 30
0.0
 11
385.0503350319605
 21
198.950977196781
 31
0.0
  0
LINE
  5
2CC
330
1F
100
AcDbEntity
  8
LAY-10
  6
CONTINUOUS
 62
     7
100
AcDbLine
 10
364.5999999999999
 20
142.8986412405397
 30
0.0
 11
366.0007961460675
 21
180.2532051356689
 31
0.0
  0
LINE
  5
2CD
330
1F
100
AcDbEntity
  8
LAY-10
  6
CONTINUOUS
 62
     7
100
AcDbLine
 10
362.1075087371701
 20
183.1738478830765
 30
0.0
 11
360.5971884880751
 21
142.8986412405397
 31
0.0
  0
ARC
  5
2CE
330
1F
100
AcDbEntity
  8
LAY-10
  6
CONTINUOUS
 62
     7
100
AcDbCircle
 10
367.1039968157157
 20
182.986479580131
 30
0.0
 40
5.0
100
AcDbArc
 50
94.99999999999983
 51
177.8524145717011
  0
ARC
  5
2CF
330
1F
100
AcDbEntity
  8
LAY-10
  6
CONTINUOUS
 62
     7
100
AcDbCircle
 10
383.603598732543
 20
190.452926725804
 30
0.0
 40
1.0
100
AcDbArc
 50
274.9999999999998
 51
356.9999999999977
  0
LINE
  5
2D0
330
1F
100
AcDbEntity
  8
LAY-10
  6
CONTINUOUS
 62
     7
100
AcDbLine
 10
366.6682181019775
 20
187.9674530705898
 30
0.0
 11
383.6907544752907
 21
189.4567320277122
 31
0.0
  0
LINE
  5
2D1
330
1F
100
AcDbEntity
  8
LAY-10
  6
CONTINUOUS
 62
     7
100
AcDbLine
 10
379.5684101916868
 20
184.0769744480293
 30
0.0
 11
368.7372217649514
 21
183.1293682481768
 31
0.0
  0
ARC
  5
2D2
330
1F
100
AcDbEntity
  8
LAY-10
  6
CONTINUOUS
 62
     7
100
AcDbCircle
 10
368.9986889931944
 20
180.1407841539016
 30
0.0
 40
3.000000000000002
100
AcDbArc
 50
94.99999999999983
 51
177.8524145717015
  0
ARC
  5
2D3
330
1F
100
AcDbEntity
  8
LAY-10
  6
CONTINUOUS
 62
     7
100
AcDbCircle
 10
302.6056136803045
 20
190.2771434170643
 30
0.0
 40
1.0
100
AcDbArc
 50
183.0000000000024
 51
265.0000000000004
  0
ARC
  5
2D4
330
1F
100
AcDbEntity
  8
LAY-10
  6
CONTINUOUS
 62
     7
100
AcDbCircle
 10
317.0960031842841
 20
182.986479580131
 30
0.0
 40
5.0
100
AcDbArc
 50
2.147585428298991
 51
85.00000000000024
  0
ARC
  5
2D5
330
1F
100
AcDbEntity
  8
LAY-10
  6
CONTINUOUS
 62
     7
100
AcDbCircle
 10
315.2013110068054
 20
180.1407841539016
 30
0.0
 40
3.000000000000001
100
AcDbArc
 50
2.147585428298533
 51
85.00000000000024
  0
LINE
  5
2D6
330
1F
100
AcDbEntity
  8
LAY-10
  6
CONTINUOUS
 62
     7
100
AcDbLine
 10
317.5317818980224
 20
187.9674530705898
 30
0.0
 11
302.5184579375569
 21
189.2809487189725
 31
0.0
  0
LINE
  5
2D7
330
1F
100
AcDbEntity
  8
LAY-10
  6
CONTINUOUS
 62
     7
100
AcDbLine
 10
303.2687345371099
 20
177.846305284297
 30
0.0
 11
303.5458045308112
 21
183.1331157061806
 31
0.0
  0
ARC
  5
2D8
330
1F
100
AcDbEntity
  8
LAY-10
  6
CONTINUOUS
 62
     7
100
AcDbCircle
 10
297.6468654179113
 20
183.6842388124993
 30
0.0
 40
1.0
100
AcDbArc
 50
2.999999999998918
 51
85.00000000000028
  0
LINE
  5
2D9
330
1F
100
AcDbEntity
  8
LAY-10
  6
CONTINUOUS
 62
     7
100
AcDbLine
 10
298.9541908957242
 20
177.846305284297
 30
0.0
 11
298.6454949526659
 21
183.7365747687422
 31
0.0
  0
ARC
  5
2DA
330
1F
100
AcDbEntity
  8
LAY-10
  6
CONTINUOUS
 62
     7
100
AcDbCircle
 10
299.9528204304788
 20
177.8986412405399
 30
0.0
 40
1.0
100
AcDbArc
 50
182.9999999999989
 51
270.0000000000002
  0
ARC
  5
2DB
330
1F
100
AcDbEntity
  8
LAY-10
  6
CONTINUOUS
 62
     7
100
AcDbCircle
 10
302.2701050023553
 20
177.8986412405399
 30
0.0
 40
1.0
100
AcDbArc
 50
270.0000000000002
 51
357.0000000000012
  0
LINE
  5
2DC
330
1F
100
AcDbEntity
  8
LAY-10
  6
CONTINUOUS
 62
     7
100
AcDbLine
 10
299.9528204304788
 20
176.8986412405399
 30
0.0
 11
304.1000000000404
 21
176.8986412405399
 31
0.0
  0
ARC
  5
2DD
330
1F
100
AcDbEntity
  8
LAY-10
  6
CONTINUOUS
 62
     7
100
AcDbCircle
 10
304.5444340655658
 20
183.0807797499377
 30
0.0
 40
1.0
100
AcDbArc
 50
85.00000000000028
 51
177.0000000000011
  0
LINE
  5
2DE
330
1F
100
AcDbEntity
  8
LAY-10
  6
CONTINUOUS
 62
     7
100
AcDbLine
 10
288.4407644438643
 20
185.4934881205465
 30
0.0
 11
297.7340211606589
 21
184.6804335105909
 31
0.0
  0
LINE
  5
2DF
330
1F
100
AcDbEntity
  8
LAY-10
  6
CONTINUOUS
 62
     7
100
AcDbLine
 10
304.6315898083135
 20
184.0769744480293
 30
0.0
 11
315.4627782350484
 21
183.1293682481769
 31
0.0
  0
LINE
  5
2E0
330
1F
100
AcDbEntity
  8
LAY-10
  6
CONTINUOUS
 62
     7
100
AcDbLine
 10
304.1000000000404
 20
183.9765913157262
 30
0.0
 11
304.1000000000404
 21
127.8986412405381
 31
0.0
  0
ARC
  5
2E1
330
1F
100
AcDbEntity
  8
LAY-10
  6
CONTINUOUS
 62
     7
100
AcDbCircle
 10
386.5531345820885
 20
183.6842388124992
 30
0.0
 40
1.0
100
AcDbArc
 50
94.99999999999979
 51
177.000000000001
  0
ARC
  5
2E2
330
1F
100
AcDbEntity
  8
LAY-10
  6
CONTINUOUS
 62
     7
100
AcDbCircle
 10
379.655565934434
 20
183.0807797499377
 30
0.0
 40
1.0
100
AcDbArc
 50
2.99999999999909
 51
94.99999999999979
  0
LINE
  5
2E3
330
1F
100
AcDbEntity
  8
LAY-10
  6
CONTINUOUS
 62
     7
100
AcDbLine
 10
380.9312654628899
 20
177.8463052842969
 30
0.0
 11
380.6541954691886
 21
183.1331157061806
 31
0.0
  0
LINE
  5
2E4
330
1F
100
AcDbEntity
  8
LAY-10
  6
CONTINUOUS
 62
     7
100
AcDbLine
 10
385.2458091042756
 20
177.846305284297
 30
0.0
 11
385.5545050473339
 21
183.7365747687422
 31
0.0
  0
ARC
  5
2E5
330
1F
100
AcDbEntity
  8
LAY-10
  6
CONTINUOUS
 62
     7
100
AcDbCircle
 10
384.247179569521
 20
177.8986412405399
 30
0.0
 40
1.0
100
AcDbArc
 50
270.0000000000001
 51
357.000000000001
  0
ARC
  5
2E6
330
1F
100
AcDbEntity
  8
LAY-10
  6
CONTINUOUS
 62
     7
100
AcDbCircle
 10
381.9298949976445
 20
177.8986412405399
 30
0.0
 40
1.0
100
AcDbArc
 50
182.9999999999991
 51
270.0000000000001
  0
LINE
  5
2E7
330
1F
100
AcDbEntity
  8
LAY-10
  6
CONTINUOUS
 62
     7
100
AcDbLine
 10
384.2471795695217
 20
176.8986412405397
 30
0.0
 11
380.1000000000399
 21
176.8986412405397
 31
0.0
  0
LINE
  5
2E8
330
1F
100
AcDbEntity
  8
LAY-10
  6
CENTER
 62
     2
100
AcDbLine
 10
342.0999999999999
 20
351.7
 30
0.0
 11
342.0999999999999
 21
510.0000000000333
 31
0.0
  0
LINE
  5
2E9
330
1F
100
AcDbEntity
  8
LAY-10
  6
CENTER
 62
     2
100
AcDbLine
 10
291.6000000000001
 20
440.2
 30
0.0
 11
291.6000000000001
 21
416.0000000000001
 31
0.0
  0
LINE
  5
2EA
330
1F
100
AcDbEntity
  8
LAY-10
  6
CENTER
 62
     2
100
AcDbLine
 10
392.6000000000004
 20
440.2
 30
0.0
 11
392.6000000000004
 21
416.0000000000001
 31
0.0
  0
LINE
  5
2EB
330
1F
100
AcDbEntity
  8
LAY-10
  6
CENTER
 62
     2
100
AcDbLine
 10
259.6
 20
429.0000000000335
 30
0.0
 11
419.1000000000001
 21
429.0000000000335
 31
0.0
  0
LINE
  5
2EC
330
1F
100
AcDbEntity
  8
LAY-10
  6
CENTER
 62
     2
100
AcDbLine
 10
291.6000000000001
 20
189.1
 30
0.0
 11
291.6000000000001
 21
210.4986412405379
 31
0.0
  0
LINE
  5
2ED
330
1F
100
AcDbEntity
  8
LAY-10
  6
CENTER
 62
     2
100
AcDbLine
 10
423.7999999999888
 20
170.3986412405555
 30
0.0
 11
412.5999999999899
 21
170.3986412405555
 31
0.0
  0
ARC
  5
2EE
330
1F
100
AcDbEntity
  8
LAY-10
  6
CENTER
 62
     2
100
AcDbCircle
 10
412.5999999999899
 20
174.8986412405555
 30
0.0
 40
4.5
100
AcDbArc
 50
180.0
 51
270.0000000000002
  0
LINE
  5
2EF
330
1F
100
AcDbEntity
  8
LAY-10
  6
CENTER
 62
     2
100
AcDbLine
 10
408.0999999999901
 20
201.1000000000398
 30
0.0
 11
408.0999999999901
 21
174.8986412405555
 31
0.0
  0
LINE
  5
2F0
330
1F
100
AcDbEntity
  8
LAY-10
  6
CONTINUOUS
 62
     7
100
AcDbLine
 10
288.276963797553
 20
204.3656898373541
 30
0.0
 11
288.2593746078294
 21
204.3656898373541
 31
0.0
  0
LINE
  5
2F1
330
1F
100
AcDbEntity
  8
LAY-10
  6
CONTINUOUS
 62
     7
100
AcDbLine
 10
395.9230362024473
 20
204.3656898373541
 30
0.0
 11
395.9406253921711
 21
204.3656898373541
 31
0.0
  0
LINE
  5
2F2
330
1F
100
AcDbEntity
  8
LAY-10
  6
CONTINUOUS
 62
     7
100
AcDbLine
 10
294.5999999999988
 20
193.8986412405662
 30
0.0
 11
294.0999999999999
 21
193.3986412405656
 31
0.0
  0
LINE
  5
2F3
330
1F
100
AcDbEntity
  8
LAY-10
  6
CONTINUOUS
 62
     7
100
AcDbLine
 10
288.5999999999995
 20
193.8986412405662
 30
0.0
 11
289.1000000000006
 21
193.3986412405656
 31
0.0
  0
LINE
  5
2F4
330
1F
100
AcDbEntity
  8
LAY-10
  6
CONTINUOUS
 62
     7
100
AcDbLine
 10
288.5999999999995
 20
193.8986412405662
 30
0.0
 11
288.5999999999995
 21
195.8986412405407
 31
0.0
  0
LINE
  5
2F5
330
1F
100
AcDbEntity
  8
LAY-10
  6
CONTINUOUS
 62
     7
100
AcDbLine
 10
294.5999999999988
 20
193.8986412405662
 30
0.0
 11
294.5999999999988
 21
195.8986412405407
 31
0.0
  0
LINE
  5
2F6
330
1F
100
AcDbEntity
  8
LAY-10
  6
HIDDEN
 62
     7
100
AcDbLine
 10
308.5454695893081
 20
249.8986412405403
 30
0.0
 11
304.5234364710541
 21
249.8986412405403
 31
0.0
  0
ARC
  5
2F7
330
1F
100
AcDbEntity
  8
LAY-10
  6
CONTINUOUS
 62
     7
100
AcDbCircle
 10
342.1000000000402
 20
257.3986412405403
 30
0.0
 40
2.5
100
AcDbArc
 50
90.00000000000001
 51
270.0
  0
LINE
  5
2F8
330
1F
100
AcDbEntity
  8
LAY-10
  6
CONTINUOUS
 62
     7
100
AcDbLine
 10
289.0999999999999
 20
195.39864124054
 30
0.0
 11
289.0999999999999
 21
207.89864124054
 31
0.0
  0
LINE
  5
2F9
330
1F
100
AcDbEntity
  8
LAY-10
  6
CONTINUOUS
 62
     7
100
AcDbLine
 10
294.0999999999979
 20
195.39864124054
 30
0.0
 11
294.0999999999979
 21
207.89864124054
 31
0.0
  0
LINE
  5
2FA
330
1F
100
AcDbEntity
  8
LAY-10
  6
CONTINUOUS
 62
     7
100
AcDbLine
 10
411.0999999999908
 20
197.3986412405451
 30
0.0
 11
410.5999999999924
 21
197.8986412405457
 31
0.0
  0
LINE
  5
2FB
330
1F
100
AcDbEntity
  8
LAY-10
  6
CONTINUOUS
 62
     7
100
AcDbLine
 10
405.0999999999917
 20
197.3986412405451
 30
0.0
 11
405.5999999999931
 21
197.8986412405457
 31
0.0
  0
LINE
  5
2FC
330
1F
100
AcDbEntity
  8
LAY-10
  6
CONTINUOUS
 62
     7
100
AcDbLine
 10
411.0999999999908
 20
197.3986412405451
 30
0.0
 11
411.0999999999908
 21
195.398641240556
 31
0.0
  0
LINE
  5
2FD
330
1F
100
AcDbEntity
  8
LAY-10
  6
CONTINUOUS
 62
     7
100
AcDbLine
 10
405.0999999999917
 20
197.3986412405451
 30
0.0
 11
405.0999999999917
 21
195.398641240556
 31
0.0
  0
LINE
  5
2FE
330
1F
100
AcDbEntity
  8
LAY-10
  6
CONTINUOUS
 62
     7
100
AcDbLine
 10
410.5999999999899
 20
195.8986412405499
 30
0.0
 11
410.5999999999899
 21
189.8986412405499
 31
0.0
  0
LINE
  5
2FF
330
1F
100
AcDbEntity
  8
LAY-10
  6
CONTINUOUS
 62
     7
100
AcDbLine
 10
405.5999999999899
 20
195.8986412405499
 30
0.0
 11
405.5999999999899
 21
189.8986412405499
 31
0.0
  0
LINE
  5
300
330
1F
100
AcDbEntity
  8
LAY-10
  6
CONTINUOUS
 62
     7
100
AcDbLine
 10
405.5999999999717
 20
189.032615836755
 30
0.0
 11
405.0999999999717
 21
189.8986412405395
 31
0.0
  0
LINE
  5
301
330
1F
100
AcDbEntity
  8
LAY-10
  6
CONTINUOUS
 62
     7
100
AcDbLine
 10
410.600000000002
 20
189.0326158367585
 30
0.0
 11
411.100000000002
 21
189.898641240543
 31
0.0
  0
LINE
  5
302
330
1F
100
AcDbEntity
  8
LAY-10
  6
CENTER
 62
     2
100
AcDbLine
 10
342.0999999999999
 20
270.4
 30
0.0
 11
342.0999999999999
 21
140.9
 31
0.0
  0
DIMENSION
  5
304
330
1F
100
AcDbEntity
  8
LAY-20
  6
CONTINUOUS
 62
     4
100
AcDbDimension
  2
*D15
 10
366.1
 20
93.898641240538
 30
0.0
 11
342.1
 21
98.898641240538
 31
0.0
 70
   160
  1
%%c<>
  3
ISO-25
100
AcDbAlignedDimension
 13
318.1
 23
182.89864124054
 33
0.0
 14
366.1
 24
182.89864124054
 34
0.0
100
AcDbRotatedDimension
1001
ACAD
1000
DSTYLE
1002
{
1070
   270
1070
     2
1070
     6
1000
EX_BNORM
1070
     7
1000
EX_BNORM
1070
    41
1040
5.0
1070
    42
1040
3.0
1070
    44
1040
3.0
1070
    73
1070
     0
1070
    74
1070
     0
1070
    75
1070
     0
1070
    76
1070
     0
1070
    77
1070
     1
1070
    78
1070
     8
1070
   140
1040
6.2362208
1070
   147
1040
0.0
1070
   173
1070
     1
1070
   176
1070
     4
1070
   177
1070
     4
1070
   178
1070
     7
1070
   271
1070
     1
1070
   277
1070
     2
1070
   279
1070
     2
1070
   280
1070
     0
1070
   287
1070
     5
1070
   340
1005
303
1002
}
  0
DIMENSION
  5
312
330
1F
100
AcDbEntity
  8
LAY-20
  6
CONTINUOUS
 62
     4
100
AcDbDimension
  2
*D16
 10
364.6
 20
107.89864124054
 30
0.0
 11
342.1
 21
112.89864124054
 31
0.0
 70
   160
  1
%%c<>
  3
ISO-25
100
AcDbAlignedDimension
 13
319.6
 23
142.89864124054
 33
0.0
 14
364.6
 24
142.89864124054
 34
0.0
100
AcDbRotatedDimension
1001
ACAD
1000
DSTYLE
1002
{
1070
   270
1070
     2
1070
     6
1000
EX_BNORM
1070
     7
1000
EX_BNORM
1070
    41
1040
5.0
1070
    42
1040
3.0
1070
    44
1040
3.0
1070
    73
1070
     0
1070
    74
1070
     0
1070
    75
1070
     0
1070
    76
1070
     0
1070
    77
1070
     1
1070
    78
1070
     8
1070
   140
1040
6.2362208
1070
   147
1040
0.0
1070
   173
1070
     1
1070
   176
1070
     4
1070
   177
1070
     4
1070
   178
1070
     7
1070
   271
1070
     1
1070
   277
1070
     2
1070
   279
1070
     2
1070
   280
1070
     0
1070
   287
1070
     5
1070
   340
1005
303
1002
}
  0
ARC
  5
31F
330
1F
100
AcDbEntity
  8
LAY-20
  6
CONTINUOUS
 62
     7
100
AcDbCircle
 10
383.9857492994475
 20
259.1486412405396
 30
0.0
 40
3.5
100
AcDbArc
 50
38.6821874534929
 51
88.12935826940759
  0
ARC
  5
320
330
1F
100
AcDbEntity
  8
LAY-20
  6
CONTINUOUS
 62
     7
100
AcDbCircle
 10
383.9857492994475
 20
255.6486412405397
 30
0.0
 40
3.5
100
AcDbArc
 50
271.8706417306037
 51
321.3178125465014
  0
LINE
  5
321
330
1F
100
AcDbEntity
  8
LAY-20
  6
CONTINUOUS
 62
     7
100
AcDbLine
 10
384.1000000000478
 20
252.1505064836396
 30
0.0
 11
384.1000000000478
 21
262.6467759974396
 31
0.0
  0
LINE
  5
322
330
1F
100
AcDbEntity
  8
LAY-20
  6
CONTINUOUS
 62
     7
100
AcDbLine
 10
388.0713634881478
 20
256.7986412405397
 30
0.0
 11
385.6000000000478
 21
256.7986412405397
 31
0.0
  0
LINE
  5
323
330
1F
100
AcDbEntity
  8
LAY-20
  6
CONTINUOUS
 62
     7
100
AcDbLine
 10
385.6000000000478
 20
256.7986412405397
 30
0.0
 11
385.6000000000478
 21
257.9986412405396
 31
0.0
  0
LINE
  5
324
330
1F
100
AcDbEntity
  8
LAY-20
  6
CONTINUOUS
 62
     7
100
AcDbLine
 10
388.0713634881478
 20
257.9986412405396
 30
0.0
 11
385.6000000000478
 21
257.9986412405396
 31
0.0
  0
ARC
  5
325
330
1F
100
AcDbEntity
  8
LAY-20
  6
CONTINUOUS
 62
     7
100
AcDbCircle
 10
381.8000000000478
 20
257.3986412405398
 30
0.0
 40
6.300000000000002
100
AcDbArc
 50
321.3178125464967
 51
354.5349762000992
  0
ARC
  5
326
330
1F
100
AcDbEntity
  8
LAY-20
  6
CONTINUOUS
 62
     7
100
AcDbCircle
 10
381.8000000000478
 20
257.3986412405398
 30
0.0
 40
6.300000000000002
100
AcDbArc
 50
5.465023799910213
 51
38.6821874534941
  0
LINE
  5
327
330
1F
100
AcDbEntity
  8
LAY-20
  6
CONTINUOUS
 62
     7
100
AcDbLine
 10
372.1000000000498
 20
259.8986412405396
 30
0.0
 11
372.6000000000499
 21
260.3986412405398
 31
0.0
  0
LINE
  5
328
330
1F
100
AcDbEntity
  8
LAY-20
  6
CONTINUOUS
 62
     7
100
AcDbLine
 10
372.1000000000497
 20
254.8986412405397
 30
0.0
 11
372.6000000000499
 21
254.3986412405398
 31
0.0
  0
LINE
  5
329
330
1F
100
AcDbEntity
  8
LAY-20
  6
CONTINUOUS
 62
     7
100
AcDbLine
 10
384.1000000000478
 20
260.3986412405398
 30
0.0
 11
372.6000000000499
 21
260.3986412405398
 31
0.0
  0
LINE
  5
32A
330
1F
100
AcDbEntity
  8
LAY-20
  6
CONTINUOUS
 62
     7
100
AcDbLine
 10
372.1000000000498
 20
259.8986412405396
 30
0.0
 11
372.1000000000497
 21
254.8986412405397
 31
0.0
  0
LINE
  5
32B
330
1F
100
AcDbEntity
  8
LAY-20
  6
CONTINUOUS
 62
     7
100
AcDbLine
 10
384.1000000000478
 20
254.3986412405398
 30
0.0
 11
372.6000000000499
 21
254.3986412405398
 31
0.0
  0
LINE
  5
32C
330
1F
100
AcDbEntity
  8
LAY-20
  6
CONTINUOUS
 62
     7
100
AcDbLine
 10
372.6000000000499
 20
254.3986412405398
 30
0.0
 11
372.6000000000499
 21
260.3986412405398
 31
0.0
  0
DIMENSION
  5
32D
330
1F
100
AcDbEntity
  8
LAY-20
  6
CONTINUOUS
 62
     4
100
AcDbDimension
  2
*D17
 10
417.1
 20
326.89864124054
 30
0.0
 11
342.1
 21
331.89864124054
 31
0.0
 70
   160
  1
%%c<>
  3
ISO-25
100
AcDbAlignedDimension
 13
267.1
 23
200.89864124054
 33
0.0
 14
417.1
 24
200.89864124054
 34
0.0
100
AcDbRotatedDimension
1001
ACAD
1000
DSTYLE
1002
{
1070
   270
1070
     2
1070
     6
1000
EX_BNORM
1070
     7
1000
EX_BNORM
1070
    41
1040
5.0
1070
    42
1040
2.999999999999972
1070
    44
1040
3.0
1070
    73
1070
     0
1070
    74
1070
     0
1070
    75
1070
     0
1070
    76
1070
     0
1070
    77
1070
     1
1070
    78
1070
     8
1070
   140
1040
6.2362208
1070
   147
1040
0.0
1070
   173
1070
     1
1070
   176
1070
     4
1070
   177
1070
     4
1070
   178
1070
     7
1070
   271
1070
     1
1070
   277
1070
     2
1070
   279
1070
     2
1070
   280
1070
     0
1070
   287
1070
     5
1070
   340
1005
303
1002
}
  0
DIMENSION
  5
33A
330
1F
100
AcDbEntity
  8
LAY-20
  6
CONTINUOUS
 62
     4
100
AcDbDimension
  2
*D18
 10
398.1
 20
312.89864124054
 30
0.0
 11
342.1
 21
317.89864124054
 31
0.0
 70
   160
  1
%%c<>
  3
ISO-25
100
AcDbAlignedDimension
 13
286.1
 23
207.89864124054
 33
0.0
 14
398.1
 24
207.89864124054
 34
0.0
100
AcDbRotatedDimension
1001
ACAD
1000
DSTYLE
1002
{
1070
   270
1070
     2
1070
     6
1000
EX_BNORM
1070
     7
1000
EX_BNORM
1070
    41
1040
5.0
1070
    42
1040
3.0
1070
    44
1040
3.0
1070
    73
1070
     0
1070
    74
1070
     0
1070
    75
1070
     0
1070
    76
1070
     0
1070
    77
1070
     1
1070
    78
1070
     8
1070
   140
1040
6.2362208
1070
   147
1040
0.0
1070
   173
1070
     1
1070
   176
1070
     4
1070
   177
1070
     4
1070
   178
1070
     7
1070
   271
1070
     1
1070
   277
1070
     2
1070
   279
1070
     2
1070
   280
1070
     0
1070
   287
1070
     5
1070
   340
1005
303
1002
}
  0
DIMENSION
  5
347
330
1F
100
AcDbEntity
  8
LAY-20
  6
CONTINUOUS
 62
     4
100
AcDbDimension
  2
*D19
 10
374.07796688179
 20
284.89864124054
 30
0.0
 11
342.10000000004
 21
289.89864124054
 31
0.0
 70
   160
  1
%%c<>
  3
ISO-25
100
AcDbAlignedDimension
 13
310.12203311829
 23
264.89864124054
 33
0.0
 14
374.07796688179
 24
264.89864124054
 34
0.0
100
AcDbRotatedDimension
1001
ACAD
1000
DSTYLE
1002
{
1070
   270
1070
     2
1070
     6
1000
EX_BNORM
1070
     7
1000
EX_BNORM
1070
    41
1040
5.0
1070
    42
1040
3.0
1070
    44
1040
3.0
1070
    73
1070
     0
1070
    74
1070
     0
1070
    75
1070
     0
1070
    76
1070
     0
1070
    77
1070
     1
1070
    78
1070
     8
1070
   140
1040
6.2362208
1070
   147
1040
0.0
1070
   173
1070
     1
1070
   176
1070
     4
1070
   177
1070
     4
1070
   178
1070
     7
1070
   271
1070
     1
1070
   277
1070
     2
1070
   279
1070
     2
1070
   280
1070
     0
1070
   287
1070
     5
1070
   340
1005
303
1002
}
  0
DIMENSION
  5
354
330
1F
100
AcDbEntity
  8
LAY-20
  6
CONTINUOUS
 62
     4
100
AcDbDimension
  2
*D20
 10
253.1
 20
183.89864124054
 30
0.0
 11
248.1
 21
195.89864124054
 31
0.0
 70
   160
  3
ISO-25
100
AcDbAlignedDimension
 13
268.9672954017
 23
207.89864124054
 33
0.0
 14
304.10000000004
 24
183.89864124054
 34
0.0
 50
90.0
100
AcDbRotatedDimension
1001
ACAD
1000
DSTYLE
1002
{
1070
   270
1070
     2
1070
     6
1000
EX_BNORM
1070
     7
1000
EX_BNORM
1070
    41
1040
5.0
1070
    42
1040
3.0
1070
    44
1040
3.0
1070
    73
1070
     0
1070
    74
1070
     0
1070
    75
1070
     0
1070
    76
1070
     0
1070
    77
1070
     1
1070
    78
1070
     8
1070
   140
1040
6.2362208
1070
   147
1040
0.0
1070
   173
1070
     1
1070
   176
1070
     4
1070
   177
1070
     4
1070
   178
1070
     7
1070
   271
1070
     1
1070
   277
1070
     2
1070
   279
1070
     2
1070
   280
1070
     0
1070
   287
1070
     5
1070
   340
1005
303
1002
}
  0
ARC
  5
361
330
1F
100
AcDbEntity
  8
LAY-20
  6
CONTINUOUS
 62
     7
100
AcDbCircle
 10
340.3500000000402
 20
470.8857492994279
 30
0.0
 40
3.5
100
AcDbArc
 50
128.6821874534968
 51
178.1293582694076
  0
ARC
  5
362
330
1F
100
AcDbEntity
  8
LAY-20
  6
CONTINUOUS
 62
     7
100
AcDbCircle
 10
343.85000000004
 20
470.8857492994279
 30
0.0
 40
3.5
100
AcDbArc
 50
1.870641730603623
 51
51.31781254650117
  0
LINE
  5
363
330
1F
100
AcDbEntity
  8
LAY-20
  6
CONTINUOUS
 62
     7
100
AcDbLine
 10
347.3481347569401
 20
471.0000000000281
 30
0.0
 11
336.8518652431401
 21
471.0000000000281
 31
0.0
  0
LINE
  5
364
330
1F
100
AcDbEntity
  8
LAY-20
  6
CONTINUOUS
 62
     7
100
AcDbLine
 10
342.7000000000401
 20
474.9713634881281
 30
0.0
 11
342.7000000000401
 21
472.5000000000281
 31
0.0
  0
LINE
  5
365
330
1F
100
AcDbEntity
  8
LAY-20
  6
CONTINUOUS
 62
     7
100
AcDbLine
 10
342.7000000000401
 20
472.5000000000281
 30
0.0
 11
341.5000000000401
 21
472.5000000000281
 31
0.0
  0
LINE
  5
366
330
1F
100
AcDbEntity
  8
LAY-20
  6
CONTINUOUS
 62
     7
100
AcDbLine
 10
341.5000000000401
 20
474.9713634881281
 30
0.0
 11
341.5000000000401
 21
472.5000000000281
 31
0.0
  0
ARC
  5
367
330
1F
100
AcDbEntity
  8
LAY-20
  6
CONTINUOUS
 62
     7
100
AcDbCircle
 10
342.1000000000399
 20
468.7000000000281
 30
0.0
 40
6.300000000000002
100
AcDbArc
 50
51.3178125464971
 51
84.53497620009911
  0
ARC
  5
368
330
1F
100
AcDbEntity
  8
LAY-20
  6
CONTINUOUS
 62
     7
100
AcDbCircle
 10
342.1000000000399
 20
468.7000000000281
 30
0.0
 40
6.300000000000002
100
AcDbArc
 50
95.46502379991017
 51
128.6821874534952
  0
LINE
  5
369
330
1F
100
AcDbEntity
  8
LAY-20
  6
CONTINUOUS
 62
     7
100
AcDbLine
 10
339.6000000000402
 20
459.00000000003
 30
0.0
 11
339.1000000000399
 21
459.5000000000301
 31
0.0
  0
LINE
  5
36A
330
1F
100
AcDbEntity
  8
LAY-20
  6
CONTINUOUS
 62
     7
100
AcDbLine
 10
344.60000000004
 20
459.00000000003
 30
0.0
 11
345.1000000000399
 21
459.5000000000301
 31
0.0
  0
LINE
  5
36B
330
1F
100
AcDbEntity
  8
LAY-20
  6
CONTINUOUS
 62
     7
100
AcDbLine
 10
339.1000000000399
 20
471.0000000000281
 30
0.0
 11
339.1000000000399
 21
464.9285308902418
 31
0.0
  0
LINE
  5
36C
330
1F
100
AcDbEntity
  8
LAY-20
  6
CONTINUOUS
 62
     7
100
AcDbLine
 10
339.6000000000402
 20
459.00000000003
 30
0.0
 11
344.60000000004
 21
459.00000000003
 31
0.0
  0
LINE
  5
36D
330
1F
100
AcDbEntity
  8
LAY-20
  6
CONTINUOUS
 62
     7
100
AcDbLine
 10
345.1000000000399
 20
471.0000000000281
 30
0.0
 11
345.1000000000399
 21
464.9285308902418
 31
0.0
  0
LINE
  5
36E
330
1F
100
AcDbEntity
  8
LAY-20
  6
CONTINUOUS
 62
     7
100
AcDbLine
 10
345.1000000000399
 20
459.5000000000301
 30
0.0
 11
339.1000000000399
 21
459.5000000000301
 31
0.0
  0
LINE
  5
36F
330
1F
100
AcDbEntity
  8
LAY-20
  6
CONTINUOUS
 62
     7
100
AcDbLine
 10
339.1000000000399
 20
460.9016177834276
 30
0.0
 11
339.1000000000399
 21
459.5000000000301
 31
0.0
  0
LINE
  5
370
330
1F
100
AcDbEntity
  8
LAY-20
  6
CONTINUOUS
 62
     7
100
AcDbLine
 10
345.1000000000399
 20
460.9016177834276
 30
0.0
 11
345.1000000000399
 21
459.5000000000301
 31
0.0
  0
ARC
  5
371
330
1F
100
AcDbEntity
  8
LAY-20
  6
CONTINUOUS
 62
     7
100
AcDbCircle
 10
306.700877050215
 20
406.5415808937084
 30
0.0
 40
3.5
100
AcDbArc
 50
248.6821874534962
 51
298.1293582694074
  0
ARC
  5
372
330
1F
100
AcDbEntity
  8
LAY-20
  6
CONTINUOUS
 62
     7
100
AcDbCircle
 10
304.950877050215
 20
409.5726698069539
 30
0.0
 40
3.5
100
AcDbArc
 50
121.8706417306043
 51
171.3178125465009
  0
LINE
  5
373
330
1F
100
AcDbEntity
  8
LAY-20
  6
CONTINUOUS
 62
     7
100
AcDbLine
 10
303.1028656626451
 20
412.5450180219905
 30
0.0
 11
308.3510004195451
 21
403.4549819780716
 31
0.0
  0
LINE
  5
374
330
1F
100
AcDbEntity
  8
LAY-20
  6
CONTINUOUS
 62
     7
100
AcDbLine
 10
301.9876313727385
 20
406.5339334982517
 30
0.0
 11
304.1278949354184
 21
407.7696152423017
 31
0.0
  0
LINE
  5
375
330
1F
100
AcDbEntity
  8
LAY-20
  6
CONTINUOUS
 62
     7
100
AcDbLine
 10
304.1278949354184
 20
407.7696152423017
 30
0.0
 11
304.7278949354184
 21
406.7303847577604
 31
0.0
  0
LINE
  5
376
330
1F
100
AcDbEntity
  8
LAY-20
  6
CONTINUOUS
 62
     7
100
AcDbLine
 10
302.5876313727384
 20
405.4947030137104
 30
0.0
 11
304.7278949354184
 21
406.7303847577604
 31
0.0
  0
ARC
  5
377
330
1F
100
AcDbEntity
  8
LAY-20
  6
CONTINUOUS
 62
     7
100
AcDbCircle
 10
307.7187914697993
 20
409.1500000000309
 30
0.0
 40
6.300000000000002
100
AcDbArc
 50
171.3178125464968
 51
204.5349762000994
  0
ARC
  5
378
330
1F
100
AcDbEntity
  8
LAY-20
  6
CONTINUOUS
 62
     7
100
AcDbCircle
 10
307.7187914697993
 20
409.1500000000309
 30
0.0
 40
6.300000000000002
100
AcDbArc
 50
215.4650237999103
 51
248.6821874534949
  0
LINE
  5
379
330
1F
100
AcDbEntity
  8
LAY-20
  6
CONTINUOUS
 62
     7
100
AcDbLine
 10
317.3692378865066
 20
411.834936490569
 30
0.0
 11
317.1862251846144
 21
411.1519237886766
 31
0.0
  0
LINE
  5
37A
330
1F
100
AcDbEntity
  8
LAY-20
  6
CONTINUOUS
 62
     7
100
AcDbLine
 10
314.8692378865067
 20
416.1650635094911
 30
0.0
 11
314.1862251846144
 21
416.3480762113832
 31
0.0
  0
LINE
  5
37B
330
1F
100
AcDbEntity
  8
LAY-20
  6
CONTINUOUS
 62
     7
100
AcDbLine
 10
307.2269330410952
 20
405.4019237886776
 30
0.0
 11
312.4849795284625
 21
408.4376583435707
 31
0.0
  0
LINE
  5
37C
330
1F
100
AcDbEntity
  8
LAY-20
  6
CONTINUOUS
 62
     7
100
AcDbLine
 10
317.3692378865066
 20
411.834936490569
 30
0.0
 11
314.8692378865067
 21
416.1650635094911
 31
0.0
  0
LINE
  5
37D
330
1F
100
AcDbEntity
  8
LAY-20
  6
CONTINUOUS
 62
     7
100
AcDbLine
 10
304.2269330410952
 20
410.5980762113842
 30
0.0
 11
309.4849795284625
 21
413.6338107662773
 31
0.0
  0
LINE
  5
37E
330
1F
100
AcDbEntity
  8
LAY-20
  6
CONTINUOUS
 62
     7
100
AcDbLine
 10
314.1862251846144
 20
416.3480762113832
 30
0.0
 11
317.1862251846144
 21
411.1519237886766
 31
0.0
  0
LINE
  5
37F
330
1F
100
AcDbEntity
  8
LAY-20
  6
CONTINUOUS
 62
     7
100
AcDbLine
 10
315.9723885777962
 20
410.4511148969779
 30
0.0
 11
317.1862251846144
 21
411.1519237886766
 31
0.0
  0
LINE
  5
380
330
1F
100
AcDbEntity
  8
LAY-20
  6
CONTINUOUS
 62
     7
100
AcDbLine
 10
312.9723885777962
 20
415.6472673196845
 30
0.0
 11
314.1862251846144
 21
416.3480762113832
 31
0.0
  0
ARC
  5
381
330
1F
100
AcDbEntity
  8
LAY-20
  6
CONTINUOUS
 62
     7
100
AcDbCircle
 10
379.249122949865
 20
409.5726698069537
 30
0.0
 40
3.5
100
AcDbArc
 50
8.682187453496388
 51
58.12935826940779
  0
ARC
  5
382
330
1F
100
AcDbEntity
  8
LAY-20
  6
CONTINUOUS
 62
     7
100
AcDbCircle
 10
377.499122949865
 20
406.5415808937083
 30
0.0
 40
3.5
100
AcDbArc
 50
241.8706417306035
 51
291.3178125465005
  0
LINE
  5
383
330
1F
100
AcDbEntity
  8
LAY-20
  6
CONTINUOUS
 62
     7
100
AcDbLine
 10
375.8489995805349
 20
403.4549819780714
 30
0.0
 11
381.0971343374349
 21
412.5450180219904
 31
0.0
  0
LINE
  5
384
330
1F
100
AcDbEntity
  8
LAY-20
  6
CONTINUOUS
 62
     7
100
AcDbLine
 10
381.6123686273415
 20
405.4947030137103
 30
0.0
 11
379.4721050646615
 21
406.7303847577603
 31
0.0
  0
LINE
  5
385
330
1F
100
AcDbEntity
  8
LAY-20
  6
CONTINUOUS
 62
     7
100
AcDbLine
 10
379.4721050646615
 20
406.7303847577603
 30
0.0
 11
380.0721050646615
 21
407.7696152423015
 31
0.0
  0
LINE
  5
386
330
1F
100
AcDbEntity
  8
LAY-20
  6
CONTINUOUS
 62
     7
100
AcDbLine
 10
382.2123686273414
 20
406.5339334982515
 30
0.0
 11
380.0721050646615
 21
407.7696152423015
 31
0.0
  0
ARC
  5
387
330
1F
100
AcDbEntity
  8
LAY-20
  6
CONTINUOUS
 62
     7
100
AcDbCircle
 10
376.4812085302808
 20
409.1500000000311
 30
0.0
 40
6.300000000000002
100
AcDbArc
 50
291.317812546497
 51
324.534976200099
  0
ARC
  5
388
330
1F
100
AcDbEntity
  8
LAY-20
  6
CONTINUOUS
 62
     7
100
AcDbCircle
 10
376.4812085302808
 20
409.1500000000311
 30
0.0
 40
6.300000000000002
100
AcDbArc
 50
335.4650237999099
 51
8.68218745349444
  0
LINE
  5
389
330
1F
100
AcDbEntity
  8
LAY-20
  6
CONTINUOUS
 62
     7
100
AcDbLine
 10
369.3307621135733
 20
416.165063509491
 30
0.0
 11
370.0137748154657
 21
416.3480762113834
 31
0.0
  0
LINE
  5
38A
330
1F
100
AcDbEntity
  8
LAY-20
  6
CONTINUOUS
 62
     7
100
AcDbLine
 10
366.8307621135734
 20
411.8349364905689
 30
0.0
 11
367.0137748154657
 21
411.1519237886768
 31
0.0
  0
LINE
  5
38B
330
1F
100
AcDbEntity
  8
LAY-20
  6
CONTINUOUS
 62
     7
100
AcDbLine
 10
379.973066958985
 20
410.5980762113844
 30
0.0
 11
374.7150204716176
 21
413.6338107662775
 31
0.0
  0
LINE
  5
38C
330
1F
100
AcDbEntity
  8
LAY-20
  6
CONTINUOUS
 62
     7
100
AcDbLine
 10
369.3307621135733
 20
416.165063509491
 30
0.0
 11
366.8307621135734
 21
411.8349364905689
 31
0.0
  0
LINE
  5
38D
330
1F
100
AcDbEntity
  8
LAY-20
  6
CONTINUOUS
 62
     7
100
AcDbLine
 10
376.973066958985
 20
405.4019237886778
 30
0.0
 11
371.7150204716176
 21
408.4376583435709
 31
0.0
  0
LINE
  5
38E
330
1F
100
AcDbEntity
  8
LAY-20
  6
CONTINUOUS
 62
     7
100
AcDbLine
 10
367.0137748154657
 20
411.1519237886768
 30
0.0
 11
370.0137748154657
 21
416.3480762113834
 31
0.0
  0
LINE
  5
38F
330
1F
100
AcDbEntity
  8
LAY-20
  6
CONTINUOUS
 62
     7
100
AcDbLine
 10
371.227611422284
 20
415.6472673196846
 30
0.0
 11
370.0137748154657
 21
416.3480762113834
 31
0.0
  0
LINE
  5
390
330
1F
100
AcDbEntity
  8
LAY-20
  6
CONTINUOUS
 62
     7
100
AcDbLine
 10
368.227611422284
 20
410.451114896978
 30
0.0
 11
367.0137748154657
 21
411.1519237886768
 31
0.0
  0
DIMENSION
  5
391
330
1F
100
AcDbEntity
  8
LAY-20
  6
CONTINUOUS
 62
     4
100
AcDbDimension
  2
*D21
 10
437.1
 20
127.89864124054
 30
0.0
 11
432.1
 21
167.89864124054
 31
0.0
 70
   160
  3
ISO-25
100
AcDbAlignedDimension
 13
415.2327045983
 23
207.89864124054
 33
0.0
 14
380.10000000004
 24
127.89864124054
 34
0.0
 50
90.0
100
AcDbRotatedDimension
1001
ACAD
1000
DSTYLE
1002
{
1070
   270
1070
     2
1070
     6
1000
EX_BNORM
1070
     7
1000
EX_BNORM
1070
    41
1040
5.0
1070
    42
1040
3.0
1070
    44
1040
3.0
1070
    73
1070
     0
1070
    74
1070
     0
1070
    75
1070
     0
1070
    76
1070
     0
1070
    77
1070
     1
1070
    78
1070
     8
1070
   140
1040
6.2362208
1070
   147
1040
0.0
1070
   173
1070
     1
1070
   176
1070
     4
1070
   177
1070
     4
1070
   178
1070
     7
1070
   271
1070
     1
1070
   277
1070
     2
1070
   279
1070
     2
1070
   280
1070
     0
1070
   287
1070
     5
1070
   340
1005
303
1002
}
  0
DIMENSION
  5
39E
330
1F
100
AcDbEntity
  8
LAY-20
  6
CONTINUOUS
 62
     4
100
AcDbDimension
  2
*D22
 10
437.1
 20
264.89864124054
 30
0.0
 11
432.1
 21
236.39864124054
 31
0.0
 70
   160
  3
ISO-25
100
AcDbAlignedDimension
 13
437.1
 23
207.89864124054
 33
0.0
 14
378.10000000004
 24
264.89864124054
 34
0.0
 50
90.0
100
AcDbRotatedDimension
1001
ACAD
1000
DSTYLE
1002
{
1070
   270
1070
     2
1070
     6
1000
EX_BNORM
1070
     7
1000
EX_BNORM
1070
    41
1040
5.0
1070
    42
1040
3.0
1070
    44
1040
3.0
1070
    73
1070
     0
1070
    74
1070
     0
1070
    75
1070
     1
1070
    76
1070
     0
1070
    77
1070
     1
1070
    78
1070
     8
1070
   140
1040
6.2362208
1070
   147
1040
0.0
1070
   173
1070
     1
1070
   176
1070
     4
1070
   177
1070
     4
1070
   178
1070
     7
1070
   271
1070
     1
1070
   277
1070
     2
1070
   279
1070
     2
1070
   280
1070
     0
1070
   287
1070
     5
1070
   340
1005
303
1002
}
  0
DIMENSION
  5
3AA
330
1F
100
AcDbEntity
  8
LAY-20
  6
CONTINUOUS
 62
     4
100
AcDbDimension
  2
*D23
 10
288.6
 20
298.89864124054
 30
0.0
 11
342.10000000002
 21
303.89864124054
 31
0.0
 70
   160
  1
%%c<>
  3
ISO-25
100
AcDbAlignedDimension
 13
395.60000000004
 23
204.89864124054
 33
0.0
 14
288.6
 24
204.89864124054
 34
0.0
100
AcDbRotatedDimension
1001
ACAD
1000
DSTYLE
1002
{
1070
   270
1070
     2
1070
     6
1000
EX_BNORM
1070
     7
1000
EX_BNORM
1070
    41
1040
5.0
1070
    42
1040
3.0
1070
    44
1040
3.0
1070
    73
1070
     0
1070
    74
1070
     0
1070
    75
1070
     0
1070
    76
1070
     0
1070
    77
1070
     1
1070
    78
1070
     8
1070
   140
1040
6.2362208
1070
   147
1040
0.0
1070
   173
1070
     1
1070
   176
1070
     4
1070
   177
1070
     4
1070
   178
1070
     7
1070
   271
1070
     1
1070
   277
1070
     2
1070
   279
1070
     2
1070
   280
1070
     0
1070
   287
1070
     5
1070
   340
1005
303
1002
}
  0
LINE
  5
3B7
330
1F
100
AcDbEntity
  8
LAY-20
  6
CENTER
 62
     2
100
AcDbLine
 10
370.7000000000501
 20
257.3986412405398
 30
0.0
 11
389.4000000000499
 21
257.3986412405398
 31
0.0
  0
LINE
  5
3B8
330
1F
100
AcDbEntity
  8
LAY-20
  6
CENTER
 62
     2
100
AcDbLine
 10
383.523874705837
 20
405.0839147877462
 30
0.0
 11
365.1701905283998
 21
415.6804192882108
 31
0.0
  0
LINE
  5
3B9
330
1F
100
AcDbEntity
  8
LAY-20
  6
CENTER
 62
     2
100
AcDbLine
 10
300.6761252941628
 20
405.0839147877462
 30
0.0
 11
319.0298094716001
 21
415.6804192882108
 31
0.0
  0
LINE
  5
3BA
330
1F
100
AcDbEntity
  8
LAY-20
  6
CENTER
 62
     2
100
AcDbLine
 10
337.9
 20
257.3986412405398
 30
0.0
 11
342.0999999999999
 21
257.3986412405398
 31
0.0
  0
LINE
  5
3BB
330
1F
100
AcDbEntity
  8
LAY-20
  6
CONTINUOUS
 62
     7
100
AcDbLine
 10
339.6000000000402
 20
471.0000000000281
 30
0.0
 11
339.6000000000402
 21
464.9503772824605
 31
0.0
  0
LINE
  5
3BC
330
1F
100
AcDbEntity
  8
LAY-20
  6
CONTINUOUS
 62
     7
100
AcDbLine
 10
344.60000000004
 20
471.0000000000281
 30
0.0
 11
344.60000000004
 21
464.9503772824605
 31
0.0
  0
LINE
  5
3BD
330
1F
100
AcDbEntity
  8
LAY-20
  6
CONTINUOUS
 62
     7
100
AcDbLine
 10
339.6000000000402
 20
460.9249571701583
 30
0.0
 11
339.6000000000402
 21
459.00000000003
 31
0.0
  0
LINE
  5
3BE
330
1F
100
AcDbEntity
  8
LAY-20
  6
CONTINUOUS
 62
     7
100
AcDbLine
 10
344.60000000004
 20
460.9249571701583
 30
0.0
 11
344.60000000004
 21
459.00000000003
 31
0.0
  0
LINE
  5
3BF
330
1F
100
AcDbEntity
  8
LAY-20
  6
CONTINUOUS
 62
     7
100
AcDbLine
 10
306.976933041095
 20
405.83493649057
 30
0.0
 11
312.21605999782
 21
408.8597478493538
 31
0.0
  0
LINE
  5
3C0
330
1F
100
AcDbEntity
  8
LAY-20
  6
CONTINUOUS
 62
     7
100
AcDbLine
 10
304.4769330410951
 20
410.1650635094921
 30
0.0
 11
309.7160599978201
 21
413.1898748682759
 31
0.0
  0
LINE
  5
3C1
330
1F
100
AcDbEntity
  8
LAY-20
  6
CONTINUOUS
 62
     7
100
AcDbLine
 10
315.7021760759785
 20
410.8724579055049
 30
0.0
 11
317.3692378865066
 21
411.834936490569
 31
0.0
  0
LINE
  5
3C2
330
1F
100
AcDbEntity
  8
LAY-20
  6
CONTINUOUS
 62
     7
100
AcDbLine
 10
313.2021760759785
 20
415.202584924427
 30
0.0
 11
314.8692378865067
 21
416.1650635094911
 31
0.0
  0
LINE
  5
3C3
330
1F
100
AcDbEntity
  8
LAY-20
  6
CONTINUOUS
 62
     7
100
AcDbLine
 10
379.7230669589849
 20
410.165063509492
 30
0.0
 11
374.4839400022599
 21
413.1898748682758
 31
0.0
  0
LINE
  5
3C4
330
1F
100
AcDbEntity
  8
LAY-20
  6
CONTINUOUS
 62
     7
100
AcDbLine
 10
377.2230669589849
 20
405.8349364905699
 30
0.0
 11
371.9839400022599
 21
408.8597478493537
 31
0.0
  0
LINE
  5
3C5
330
1F
100
AcDbEntity
  8
LAY-20
  6
CONTINUOUS
 62
     7
100
AcDbLine
 10
370.9978239241014
 20
415.2025849244268
 30
0.0
 11
369.3307621135733
 21
416.165063509491
 31
0.0
  0
LINE
  5
3C6
330
1F
100
AcDbEntity
  8
LAY-20
  6
CONTINUOUS
 62
     7
100
AcDbLine
 10
368.4978239241015
 20
410.8724579055047
 30
0.0
 11
366.8307621135734
 21
411.8349364905689
 31
0.0
  0
LINE
  5
3C7
330
1F
100
AcDbEntity
  8
LAY-20
  6
CONTINUOUS
 62
     7
100
AcDbLine
 10
384.1000000000478
 20
259.8986412405396
 30
0.0
 11
372.1000000000498
 21
259.8986412405396
 31
0.0
  0
LINE
  5
3C8
330
1F
100
AcDbEntity
  8
LAY-20
  6
CONTINUOUS
 62
     7
100
AcDbLine
 10
384.1000000000478
 20
254.8986412405397
 30
0.0
 11
372.1000000000497
 21
254.8986412405397
 31
0.0
  0
LINE
  5
3C9
330
1F
100
AcDbEntity
  8
LAY-255
  6
CONTINUOUS
 62
     7
100
AcDbLine
 10
770.0
 20
43.99999999999999
 30
0.0
 11
570.0
 21
43.99999999999999
 31
0.0
  0
LINE
  5
3CA
330
1F
100
AcDbEntity
  8
LAY-255
  6
CONTINUOUS
 62
     7
100
AcDbLine
 10
577.6
 20
32.0
 30
0.0
 11
593.6
 21
42.0
 31
0.0
  0
LINE
  5
3CB
330
1F
100
AcDbEntity
  8
LAY-255
  6
CONTINUOUS
 62
     7
100
AcDbLine
 10
593.6
 20
42.0
 30
0.0
 11
609.6
 21
32.0
 31
0.0
  0
LINE
  5
3CC
330
1F
100
AcDbEntity
  8
LAY-255
  6
CONTINUOUS
 62
     7
100
AcDbLine
 10
609.6
 20
32.0
 30
0.0
 11
593.6
 21
22.0
 31
0.0
  0
LINE
  5
3CD
330
1F
100
AcDbEntity
  8
LAY-255
  6
CONTINUOUS
 62
     7
100
AcDbLine
 10
593.6
 20
22.0
 30
0.0
 11
577.6
 21
32.0
 31
0.0
  0
LINE
  5
3CE
330
1F
100
AcDbEntity
  8
LAY-255
  6
CONTINUOUS
 62
     7
100
AcDbLine
 10
10.0
 20
20.0
 30
0.0
 11
770.0000000000001
 21
20.0
 31
0.0
  0
LINE
  5
3CF
330
1F
100
AcDbEntity
  8
LAY-255
  6
CONTINUOUS
 62
     7
100
AcDbLine
 10
10.0
 20
560.0
 30
0.0
 11
770.0000000000001
 21
560.0
 31
0.0
  0
LINE
  5
3D0
330
1F
100
AcDbEntity
  8
LAY-255
  6
CONTINUOUS
 62
     7
100
AcDbLine
 10
10.0
 20
20.0
 30
0.0
 11
10.0
 21
560.0
 31
0.0
  0
LINE
  5
3D1
330
1F
100
AcDbEntity
  8
LAY-255
  6
CONTINUOUS
 62
     7
100
AcDbLine
 10
770.0
 20
20.0
 30
0.0
 11
770.0
 21
560.0
 31
0.0
  0
LINE
  5
3D2
330
1F
100
AcDbEntity
  8
LAY-255
  6
CONTINUOUS
 62
     4
100
AcDbLine
 10
570.0
 20
55.99999999999999
 30
0.0
 11
770.0000000000001
 21
55.99999999999999
 31
0.0
  0
LINE
  5
3D3
330
1F
100
AcDbEntity
  8
LAY-255
  6
CONTINUOUS
 62
     7
100
AcDbLine
 10
570.0
 20
20.0
 30
0.0
 11
570.0
 21
134.0
 31
0.0
  0
LINE
  5
3D4
330
1F
100
AcDbEntity
  8
LAY-255
  6
CONTINUOUS
 62
     4
100
AcDbLine
 10
670.0
 20
55.99999999999999
 30
0.0
 11
670.0
 21
44.0
 31
0.0
  0
LINE
  5
3D5
330
1F
100
AcDbEntity
  8
LAY-255
  6
CONTINUOUS
 62
     7
100
AcDbLine
 10
770.0000000000001
 20
134.0
 30
0.0
 11
570.0
 21
134.0
 31
0.0
  0
LINE
  5
3D6
330
1F
100
AcDbEntity
  8
LAY-255
  6
CONTINUOUS
 62
     4
100
AcDbLine
 10
766.0
 20
110.0
 30
0.0
 11
574.0
 21
110.0
 31
0.0
  0
LINE
  5
3D7
330
1F
100
AcDbEntity
  8
LAY-255
  6
CONTINUOUS
 62
     4
100
AcDbLine
 10
766.0
 20
122.0
 30
0.0
 11
574.0
 21
122.0
 31
0.0
  0
POINT
  5
3D8
330
1F
100
AcDbEntity
  8
LAY-255
  6
CONTINUOUS
 62
     7
100
AcDbPoint
 10
600.0
 20
112.0
 30
0.0
  0
POINT
  5
3D9
330
1F
100
AcDbEntity
  8
LAY-255
  6
CONTINUOUS
 62
     7
100
AcDbPoint
 10
600.0
 20
124.0
 30
0.0
  0
POINT
  5
3DA
330
1F
100
AcDbEntity
  8
LAY-255
  6
CONTINUOUS
 62
     7
100
AcDbPoint
 10
578.0
 20
59.99999999999997
 30
0.0
  0
POINT
  5
3DB
330
1F
100
AcDbEntity
  8
LAY-255
  6
CONTINUOUS
 62
     7
100
AcDbPoint
 10
578.0
 20
100.0
 30
0.0
  0
POINT
  5
3DC
330
1F
100
AcDbEntity
  8
LAY-255
  6
CONTINUOUS
 62
     7
100
AcDbPoint
 10
578.0
 20
80.0
 30
0.0
  0
POINT
  5
3DD
330
1F
100
AcDbEntity
  8
LAY-255
  6
CONTINUOUS
 62
     7
100
AcDbPoint
 10
578.0
 20
90.0
 30
0.0
  0
POINT
  5
3DE
330
1F
100
AcDbEntity
  8
LAY-255
  6
CONTINUOUS
 62
     7
100
AcDbPoint
 10
578.0
 20
69.99999999999999
 30
0.0
  0
TEXT
  5
3DF
330
1F
100
AcDbEntity
  8
LAY-255
  6
CONTINUOUS
 62
     7
100
AcDbText
 10
616.2767579736328
 20
31.0875
 30
0.0
 40
10.3125
  1
福西鋳物株式会社
 41
1.342692319347662
  7
EXCADSTD
100
AcDbText
  0
TEXT
  5
3E0
330
1F
100
AcDbEntity
  8
LAY-255
  6
CONTINUOUS
 62
     7
100
AcDbText
 10
617.0187500000001
 20
23.9625
 30
0.0
 40
3.4375
  1
ＦＵＫＵＮＩＳＨＩ
 41
1.204799226045263
  7
EXCADSTD
100
AcDbText
  0
TEXT
  5
3E1
330
1F
100
AcDbEntity
  8
LAY-255
  6
CONTINUOUS
 62
     7
100
AcDbText
 10
665.4383928571428
 20
23.9625
 30
0.0
 40
3.4375
  1
ＦＯＵＮＤＲＹ
 41
1.243252752978497
  7
EXCADSTD
100
AcDbText
  0
TEXT
  5
3E2
330
1F
100
AcDbEntity
  8
LAY-255
  6
CONTINUOUS
 62
     7
100
AcDbText
 10
703.9891823858172
 20
23.9625
 30
0.0
 40
3.4375
  1
ＣＯ.,ＬＴＤ.
 41
1.243830523306697
  7
EXCADSTD
100
AcDbText
  0
TEXT
  5
3E3
330
1F
100
AcDbEntity
  8
LAY-255
  6
CONTINUOUS
 62
     7
100
AcDbText
 10
588.06875
 20
27.4375
 30
0.0
 40
10.3125
  1
S
 41
0.7582677563636363
  7
EXCADSTD
100
AcDbText
  0
TEXT
  5
3E4
330
1F
100
AcDbEntity
  8
LAY-255
  6
CONTINUOUS
 62
     7
100
AcDbText
 10
594.209375
 20
27.49882075472
 30
0.0
 40
10.3125
  1
F
 41
0.7440945272727272
  7
EXCADSTD
100
AcDbText
  0
TEXT
  5
3E5
330
1F
100
AcDbEntity
  8
LAY-255
  6
CONTINUOUS
 62
     7
100
AcDbText
 10
674.2109375
 20
48.84374999999998
 30
0.0
 40
5.15625
  1
縮尺
 41
1.080708718181818
  7
EXCADSTD
100
AcDbText
  0
TEXT
  5
3E6
330
1F
100
AcDbEntity
  8
LAY-255
  6
CONTINUOUS
 62
     7
100
AcDbText
 10
574.53125
 20
113.125
 30
0.0
 40
6.875
  1
型式
 41
1.056348480681818
  7
EXCADSTD
100
AcDbText
  0
TEXT
  5
3E7
330
1F
100
AcDbEntity
  8
LAY-255
  6
CONTINUOUS
 62
     7
100
AcDbText
 10
574.84375
 20
125.125
 30
0.0
 40
6.875
  1
品名
 41
0.978838634090909
  7
EXCADSTD
100
AcDbText
  0
TEXT
  5
3E8
330
1F
100
AcDbEntity
  8
LAY-255
  6
CONTINUOUS
 62
     7
100
AcDbText
 10
574.3046875
 20
48.84374999999998
 30
0.0
 40
5.15625
  1
作成日
 41
1.000629973818182
  7
EXCADSTD
100
AcDbText
  0
TEXT
  5
3E9
330
1F
100
AcDbEntity
  8
LAY-255
  6
CONTINUOUS
 62
     7
100
AcDbText
 10
600.5
 20
125.125
 30
0.0
 40
6.875
  1
ルーフドレイン
 41
1.021169538599106
  7
EXCADSTD
100
AcDbText
  0
TEXT
  5
3EA
330
1F
100
AcDbEntity
  8
LAY-255
  6
CONTINUOUS
 62
     7
100
AcDbText
 10
696.5625
 20
47.12499999999998
 30
0.0
 40
6.875
  1
１：２
 41
0.888661464
  7
EXCADSTD
100
AcDbText
  0
TEXT
  5
3EB
330
1F
100
AcDbEntity
  8
LAY-255
  6
CONTINUOUS
 62
     7
100
AcDbText
 10
601.75
 20
113.125
 30
0.0
 40
6.875
  1
ＲＣＸ－１００５０型
 41
1.000581655991735
  7
EXCADSTD
100
AcDbText
  0
TEXT
  5
3EC
330
1F
100
AcDbEntity
  8
LAY-255
  6
CONTINUOUS
 62
     7
100
AcDbText
 10
578.375
 20
81.12500000000001
 30
0.0
 40
6.875
  1
施工：打込用
 41
1.018700840909091
  7
EXCADSTD
100
AcDbText
  0
TEXT
  5
3ED
330
1F
100
AcDbEntity
  8
LAY-255
  6
CONTINUOUS
 62
     7
100
AcDbText
 10
578.4375
 20
71.12500000000001
 30
0.0
 40
6.875
  1
接続：差込用
 41
1.01733803041958
  7
EXCADSTD
100
AcDbText
  0
TEXT
  5
3EE
330
1F
100
AcDbEntity
  8
LAY-255
  6
CONTINUOUS
 62
     7
100
AcDbText
 10
578.75
 20
101.125
 30
0.0
 40
6.875
  1
防水：モルタル・塗膜防水兼用
 41
1.008985320967742
  7
EXCADSTD
100
AcDbText
  0
TEXT
  5
3EF
330
1F
100
AcDbEntity
  8
LAY-255
  6
CONTINUOUS
 62
     7
100
AcDbText
 10
578.46875
 20
91.12500000000001
 30
0.0
 40
6.875
  1
用途：中継用
 41
1.016656625174825
  7
EXCADSTD
100
AcDbText
  0
TEXT
  5
3F0
330
1F
100
AcDbEntity
  8
LAY-255
  6
CONTINUOUS
 62
     7
100
AcDbText
 10
601.78125
 20
47.12499999999998
 30
0.0
 40
6.875
  1
０８／０８／２３
 41
0.9764342470129869
  7
EXCADSTD
100
AcDbText
  0
ENDSEC
  0
SECTION
  2
OBJECTS
  0
DICTIONARY
  5
C
330
0
100
AcDbDictionary
  3
ACAD_GROUP
350
D
  3
ACAD_LAYOUT
350
1A
  3
ACAD_MATERIAL
350
43
  3
ACAD_MLEADERSTYLE
350
6B
  3
ACAD_MLINESTYLE
350
17
  3
ACAD_PLOTSETTINGS
350
19
  3
ACAD_SCALELIST
350
47
  3
ACAD_VISUALSTYLE
350
2A
  3
ACDBHEADERROUNDTRIPXREC
350
3F1
  3
ACDBVARIABLEDICTIONARY
350
412
  0
DICTIONARY
  5
41D
330
8
100
AcDbDictionary
280
     1
  3
ACAD_XREC_ROUNDTRIP
360
41E
  0
DICTIONARY
  5
D
102
{ACAD_REACTORS
330
C
102
}
330
C
100
AcDbDictionary
  0
DICTIONARY
  5
1A
102
{ACAD_REACTORS
330
C
102
}
330
C
100
AcDbDictionary
  0
DICTIONARY
  5
43
102
{ACAD_REACTORS
330
C
102
}
330
C
100
AcDbDictionary
  3
BYBLOCK
350
45
  3
BYLAYER
350
44
  3
GLOBAL
350
46
  0
DICTIONARY
  5
6B
102
{ACAD_REACTORS
330
C
102
}
330
C
100
AcDbDictionary
  3
STANDARD
350
6C
  0
DICTIONARY
  5
17
102
{ACAD_REACTORS
330
C
102
}
330
C
100
AcDbDictionary
  3
STANDARD
350
18
  0
DICTIONARY
  5
19
102
{ACAD_REACTORS
330
C
102
}
330
C
100
AcDbDictionary
  0
DICTIONARY
  5
47
102
{ACAD_REACTORS
330
C
102
}
330
C
100
AcDbDictionary
  3
A0
350
48
  3
A1
350
49
  3
A2
350
4A
  3
A3
350
4B
  3
A4
350
4C
  3
A5
350
4D
  3
A6
350
4E
  3
A7
350
4F
  3
A8
350
50
  3
A9
350
51
  3
B0
350
52
  3
B1
350
53
  3
B2
350
54
  3
B3
350
55
  3
B4
350
56
  3
B5
350
57
  3
B6
350
58
  3
B7
350
59
  3
B8
350
5A
  3
B9
350
5B
  3
C0
350
5C
  3
C1
350
5D
  3
C2
350
5E
  3
C3
350
5F
  3
C4
350
60
  3
C5
350
61
  3
C6
350
62
  3
C7
350
63
  3
C8
350
64
  3
C9
350
65
  3
D0
350
66
  3
D1
350
67
  3
D2
350
68
  0
DICTIONARY
  5
2A
102
{ACAD_REACTORS
330
C
102
}
330
C
100
AcDbDictionary
  3
2DWIREFRAME
350
2F
  3
BASIC
350
32
  3
BRIGHTEN
350
36
  3
COLORCHANGE
350
3A
  3
CONCEPTUAL
350
34
  3
DIM
350
35
  3
EDGECOLOROFF
350
3D
  3
FACEPATTERN
350
39
  3
FLAT
350
2B
  3
FLATWITHEDGES
350
2C
  3
GOURAUD
350
2D
  3
GOURAUDWITHEDGES
350
2E
  3
HIDDEN
350
31
  3
JITTEROFF
350
3B
  3
LINEPATTERN
350
38
  3
OVERHANGOFF
350
3C
  3
REALISTIC
350
33
  3
SHADED
350
42
  3
SHADED_WITH_EDGES
350
41
  3
SHADES_OF_GRAY
350
3E
  3
SKETCHY
350
3F
  3
THICKEN
350
37
  3
WIREFRAME
350
30
  3
X-RAY
350
40
  0
DICTIONARY
  5
3F1
102
{ACAD_REACTORS
330
C
102
}
330
C
100
AcDbDictionary
  3
CEPSNID
350
3FB
  3
CEPSNTYPE
350
3FA
  3
DIMSTYLEDATA
350
411
  3
FINGERPRINTGUID
350
3FC
  3
HYPERLINKBASE
350
3F4
  3
INSUNITS
350
3F9
  3
LAYOUTDICT
350
3F6
  3
LWETCUNION
350
3F8
  3
PLOTSETDICT
350
3F7
  3
PSVPSCALE
350
3FE
  3
PUCSBASE
350
401
  3
PUCSORGBACK
350
407
  3
PUCSORGBOTTOM
350
403
  3
PUCSORGFRONT
350
406
  3
PUCSORGLEFT
350
404
  3
PUCSORGRIGHT
350
405
  3
PUCSORGTOP
350
402
  3
PUCSORTHOREF
350
3FF
  3
PUCSORTHOVIEW
350
400
  3
STYLESHEET
350
3F5
  3
TSTACKALIGN
350
3F2
  3
TSTACKSIZE
350
3F3
  3
UCSBASE
350
40A
  3
UCSORGBACK
350
410
  3
UCSORGBOTTOM
350
40C
  3
UCSORGFRONT
350
40F
  3
UCSORGLEFT
350
40D
  3
UCSORGRIGHT
350
40E
  3
UCSORGTOP
350
40B
  3
UCSORTHOREF
350
408
  3
UCSORTHOVIEW
350
409
  3
VERSIONGUID
350
3FD
  0
DICTIONARY
  5
412
102
{ACAD_REACTORS
330
C
102
}
330
C
100
AcDbDictionary
  3
CANNOSCALE
350
41F
  3
CENTEREXE
350
419
  3
CENTERLTYPEFILE
350
41A
  3
CMLEADERSTYLE
350
414
  3
CTABLESTYLE
350
413
  3
DIMASSOC
350
41B
  3
HIDETEXT
350
41C
  3
MSLTSCALE
350
420
  3
PSOLHEIGHT
350
416
  3
PSOLWIDTH
350
415
  0
XRECORD
  5
41E
102
{ACAD_REACTORS
330
41D
102
}
330
41D
100
AcDbXrecord
102
VTR_0.000_0.000_1.000_1.000_VISUALSTYLE
340
2F
102
VTR_0.000_0.000_1.000_1.000_GRIDDISPLAY
 70
     3
102
VTR_0.000_0.000_1.000_1.000_GRIDMAJOR
 70
     5
102
VTR_0.000_0.000_1.000_1.000_DEFAULTLIGHTING
280
     1
102
VTR_0.000_0.000_1.000_1.000_DEFAULTLIGHTINGTYPE
 70
     1
102
VTR_0.000_0.000_1.000_1.000_BRIGHTNESS
141
0.0
102
VTR_0.000_0.000_1.000_1.000_CONTRAST
142
0.0
  0
MATERIAL
  5
45
102
{ACAD_REACTORS
330
43
102
}
102
{ACAD_XDICTIONARY
360
423
102
}
330
43
100
AcDbMaterial
  1
BYBLOCK
  0
MATERIAL
  5
44
102
{ACAD_REACTORS
330
43
102
}
102
{ACAD_XDICTIONARY
360
421
102
}
330
43
100
AcDbMaterial
  1
BYLAYER
  0
MATERIAL
  5
46
102
{ACAD_REACTORS
330
43
102
}
102
{ACAD_XDICTIONARY
360
425
102
}
330
43
100
AcDbMaterial
  1
GLOBAL
  0
ACAD_PROXY_OBJECT
  5
6C
102
{ACAD_REACTORS
330
6B
102
}
330
6B
100
AcDbProxyObject
 90
      499
 91
      505
 93
      610
310
40901902A4063FBFFFFFE0000000000000020400000000000020404214DD185B99185C990000000000000104090141901A00000000000004100000000000000041025764000000000000039000
340
14
340
0
340
11
340
0
 94
        0
1001
ACAD_MLEADERVER
1070
     2
  0
MLINESTYLE
  5
18
102
{ACAD_REACTORS
330
17
102
}
330
17
100
AcDbMlineStyle
  2
Standard
 70
     0
  3

 62
   256
 51
90.0
 52
90.0
 71
     2
 49
0.5
 62
   256
  6
BYLAYER
 49
-0.5
 62
   256
  6
BYLAYER
  0
ACAD_PROXY_OBJECT
  5
48
102
{ACAD_REACTORS
330
47
102
}
330
47
100
AcDbProxyObject
 90
      499
 91
      503
 93
       41
310
903313A31580
  0
ACAD_PROXY_OBJECT
  5
49
102
{ACAD_REACTORS
330
47
102
}
330
47
100
AcDbProxyObject
 90
      499
 91
      503
 93
      105
310
903313A324000000000000004000
  0
ACAD_PROXY_OBJECT
  5
4A
102
{ACAD_REACTORS
330
47
102
}
330
47
100
AcDbProxyObject
 90
      499
 91
      503
 93
      105
310
903313A344000000000000104000
  0
ACAD_PROXY_OBJECT
  5
4B
102
{ACAD_REACTORS
330
47
102
}
330
47
100
AcDbProxyObject
 90
      499
 91
      503
 93
      105
310
903313A354000000000000144000
  0
ACAD_PROXY_OBJECT
  5
4C
102
{ACAD_REACTORS
330
47
102
}
330
47
100
AcDbProxyObject
 90
      499
 91
      503
 93
      105
310
903313A384000000000000204000
  0
ACAD_PROXY_OBJECT
  5
4D
102
{ACAD_REACTORS
330
47
102
}
330
47
100
AcDbProxyObject
 90
      499
 91
      503
 93
      113
310
904313A31304000000000000244000
  0
ACAD_PROXY_OBJECT
  5
4E
102
{ACAD_REACTORS
330
47
102
}
330
47
100
AcDbProxyObject
 90
      499
 91
      503
 93
      113
310
904313A31364000000000000304000
  0
ACAD_PROXY_OBJECT
  5
4F
102
{ACAD_REACTORS
330
47
102
}
330
47
100
AcDbProxyObject
 90
      499
 91
      503
 93
      113
310
904313A32304000000000000344000
  0
ACAD_PROXY_OBJECT
  5
50
102
{ACAD_REACTORS
330
47
102
}
330
47
100
AcDbProxyObject
 90
      499
 91
      503
 93
      113
310
904313A333040000000000003E4000
  0
ACAD_PROXY_OBJECT
  5
51
102
{ACAD_REACTORS
330
47
102
}
330
47
100
AcDbProxyObject
 90
      499
 91
      503
 93
      113
310
904313A34304000000000000444000
  0
ACAD_PROXY_OBJECT
  5
52
102
{ACAD_REACTORS
330
47
102
}
330
47
100
AcDbProxyObject
 90
      499
 91
      503
 93
      113
310
904313A35304000000000000494000
  0
ACAD_PROXY_OBJECT
  5
53
102
{ACAD_REACTORS
330
47
102
}
330
47
100
AcDbProxyObject
 90
      499
 91
      503
 93
      121
310
905313A3130304000000000000594000
  0
ACAD_PROXY_OBJECT
  5
54
102
{ACAD_REACTORS
330
47
102
}
330
47
100
AcDbProxyObject
 90
      499
 91
      503
 93
      105
310
903323A310000000000000010100
  0
ACAD_PROXY_OBJECT
  5
55
102
{ACAD_REACTORS
330
47
102
}
330
47
100
AcDbProxyObject
 90
      499
 91
      503
 93
      105
310
903343A310000000000000410100
  0
ACAD_PROXY_OBJECT
  5
56
102
{ACAD_REACTORS
330
47
102
}
330
47
100
AcDbProxyObject
 90
      499
 91
      503
 93
      105
310
903383A310000000000000810100
  0
ACAD_PROXY_OBJECT
  5
57
102
{ACAD_REACTORS
330
47
102
}
330
47
100
AcDbProxyObject
 90
      499
 91
      503
 93
      113
310
90431303A310000000000000910100
  0
ACAD_PROXY_OBJECT
  5
58
102
{ACAD_REACTORS
330
47
102
}
330
47
100
AcDbProxyObject
 90
      499
 91
      503
 93
      121
310
9053130303A310000000000001650100
  0
ACAD_PROXY_OBJECT
  5
59
102
{ACAD_REACTORS
330
47
102
}
330
47
100
AcDbProxyObject
 90
      499
 91
      503
 93
      257
310
90E312F31323822203D2031272D3022000000000000200FC000000000000284000
  0
ACAD_PROXY_OBJECT
  5
5A
102
{ACAD_REACTORS
330
47
102
}
330
47
100
AcDbProxyObject
 90
      499
 91
      503
 93
      249
310
90D312F363422203D2031272D3022000000000000240FC000000000000284000
  0
ACAD_PROXY_OBJECT
  5
5B
102
{ACAD_REACTORS
330
47
102
}
330
47
100
AcDbProxyObject
 90
      499
 91
      503
 93
      249
310
90D312F333222203D2031272D3022000000000000280FC000000000000284000
  0
ACAD_PROXY_OBJECT
  5
5C
102
{ACAD_REACTORS
330
47
102
}
330
47
100
AcDbProxyObject
 90
      499
 91
      503
 93
      249
310
90D312F313622203D2031272D30220000000000002C0FC000000000000284000
  0
ACAD_PROXY_OBJECT
  5
5D
102
{ACAD_REACTORS
330
47
102
}
330
47
100
AcDbProxyObject
 90
      499
 91
      503
 93
      249
310
90D332F333222203D2031272D30220000000000002E0FC000000000000284000
  0
ACAD_PROXY_OBJECT
  5
5E
102
{ACAD_REACTORS
330
47
102
}
330
47
100
AcDbProxyObject
 90
      499
 91
      503
 93
      241
310
90C312F3822203D2031272D3022000000000000300FC000000000000284000
  0
ACAD_PROXY_OBJECT
  5
5F
102
{ACAD_REACTORS
330
47
102
}
330
47
100
AcDbProxyObject
 90
      499
 91
      503
 93
      249
310
90D332F313622203D2031272D3022000000000000320FC000000000000284000
  0
ACAD_PROXY_OBJECT
  5
60
102
{ACAD_REACTORS
330
47
102
}
330
47
100
AcDbProxyObject
 90
      499
 91
      503
 93
      241
310
90C312F3422203D2031272D3022000000000000340FC000000000000284000
  0
ACAD_PROXY_OBJECT
  5
61
102
{ACAD_REACTORS
330
47
102
}
330
47
100
AcDbProxyObject
 90
      499
 91
      503
 93
      241
310
90C332F3822203D2031272D3022000000000000360FC000000000000284000
  0
ACAD_PROXY_OBJECT
  5
62
102
{ACAD_REACTORS
330
47
102
}
330
47
100
AcDbProxyObject
 90
      499
 91
      503
 93
      241
310
90C312F3222203D2031272D3022000000000000380FC000000000000284000
  0
ACAD_PROXY_OBJECT
  5
63
102
{ACAD_REACTORS
330
47
102
}
330
47
100
AcDbProxyObject
 90
      499
 91
      503
 93
      241
310
90C332F3422203D2031272D30220000000000003A0FC000000000000284000
  0
ACAD_PROXY_OBJECT
  5
64
102
{ACAD_REACTORS
330
47
102
}
330
47
100
AcDbProxyObject
 90
      499
 91
      503
 93
      161
310
90A3122203D2031272D30224000000000000284000
  0
ACAD_PROXY_OBJECT
  5
65
102
{ACAD_REACTORS
330
47
102
}
330
47
100
AcDbProxyObject
 90
      499
 91
      503
 93
      257
310
90E312D312F3222203D2031272D30220000000000003E0FC000000000000284000
  0
ACAD_PROXY_OBJECT
  5
66
102
{ACAD_REACTORS
330
47
102
}
330
47
100
AcDbProxyObject
 90
      499
 91
      503
 93
      225
310
90A3322203D2031272D302200000000000002100000000000000284000
  0
ACAD_PROXY_OBJECT
  5
67
102
{ACAD_REACTORS
330
47
102
}
330
47
100
AcDbProxyObject
 90
      499
 91
      503
 93
      225
310
90A3622203D2031272D302200000000000006100000000000000284000
  0
ACAD_PROXY_OBJECT
  5
68
102
{ACAD_REACTORS
330
47
102
}
330
47
100
AcDbProxyObject
 90
      499
 91
      503
 93
      249
310
90D31272D3022203D2031272D30220000000000000A100000000000000284000
  0
ACAD_PROXY_OBJECT
  5
2F
102
{ACAD_REACTORS
330
2A
102
}
330
2A
100
AcDbProxyObject
 90
      499
 91
      501
 93
      436
310
42CC9915DA5C99599C985B595049028333333333333E33F0000000000000F90107901411070040501600405405064090741402480A0340
1001
ACAD
1000
AcDbSavedByObjectVersion
1070
     0
  0
ACAD_PROXY_OBJECT
  5
32
102
{ACAD_REACTORS
330
2A
102
}
330
2A
100
AcDbProxyObject
 90
      499
 91
      501
 93
      388
310
4150985CDA58D07406404333333333333E33F0000000000000F90107A41107004050150841D405064090741402480A0350
1001
ACAD
1000
AcDbSavedByObjectVersion
1070
     0
  0
ACAD_PROXY_OBJECT
  5
36
102
{ACAD_REACTORS
330
2A
102
}
330
2A
100
AcDbProxyObject
 90
      499
 91
      501
 93
      428
310
42109C9A59DA1D195B90C409028333333333333E33F0000000000000F9010790141107004050150841D405064090741402480A029950
1001
ACAD
1000
AcDbSavedByObjectVersion
1070
     0
  0
ACAD_PROXY_OBJECT
  5
3A
102
{ACAD_REACTORS
330
2A
102
}
330
2A
100
AcDbProxyObject
 90
      499
 91
      501
 93
      452
310
42D0DBDB1BDC90DA185B99D95104090240C333333333333E33F0000000000000F90108901411070040501508421405064090741402480A0350
1001
ACAD
1000
AcDbSavedByObjectVersion
1070
     0
  0
ACAD_PROXY_OBJECT
  5
34
102
{ACAD_REACTORS
330
2A
102
}
330
2A
100
AcDbProxyObject
 90
      499
 91
      501
 93
      500
310
4290DBDB98D95C1D1D585B10940D028333333333333E33F0000000000000F90107902409070040501000000000018199010841D405064090740C02480A0340
1001
ACAD
1000
AcDbSavedByObjectVersion
1070
     0
  0
ACAD_PROXY_OBJECT
  5
35
102
{ACAD_REACTORS
330
2A
102
}
330
2A
100
AcDbProxyObject
 90
      499
 91
      501
 93
      412
310
40D11A5B50B409028333333333333E33F0000000000000F9010790141107004050150841D405064090741402480A02677FFFFFD0
1001
ACAD
1000
AcDbSavedByObjectVersion
1070
     0
  0
ACAD_PROXY_OBJECT
  5
3D
102
{ACAD_REACTORS
330
2A
102
}
330
2A
100
AcDbProxyObject
 90
      499
 91
      501
 93
      452
310
43115919D950DBDB1BDC93D999916409028333333333333E33F0000000000000F9010790141107004050150841D405064090741402480A0350
1001
ACAD
1000
AcDbSavedByObjectVersion
1070
     0
  0
ACAD_PROXY_OBJECT
  5
39
102
{ACAD_REACTORS
330
2A
102
}
330
2A
100
AcDbProxyObject
 90
      499
 91
      501
 93
      444
310
42D19858D95C185D1D195C9B90F409028333333333333E33F0000000000000F9010790141107004050150841D405064090741402480A0350
1001
ACAD
1000
AcDbSavedByObjectVersion
1070
     0
  0
ACAD_PROXY_OBJECT
  5
2B
102
{ACAD_REACTORS
330
2A
102
}
330
2A
100
AcDbProxyObject
 90
      499
 91
      501
 93
      380
310
41119B185D240901404333333333333E33F0000000000000F9010740A907004050150841D405064090741402480A1B50
1001
ACAD
1000
AcDbSavedByObjectVersion
1070
     0
  0
ACAD_PROXY_OBJECT
  5
2C
102
{ACAD_REACTORS
330
2A
102
}
330
2A
100
AcDbProxyObject
 90
      499
 91
      501
 93
      468
310
43519B185D15DA5D1A115919D95CD0140901404333333333333E33F0000000000000F90107409019070040501600405405064090741402480A1B50
1001
ACAD
1000
AcDbSavedByObjectVersion
1070
     0
  0
ACAD_PROXY_OBJECT
  5
2D
102
{ACAD_REACTORS
330
2A
102
}
330
2A
100
AcDbProxyObject
 90
      499
 91
      501
 93
      404
310
41D1DBDD5C985D5910240902404333333333333E33F0000000000000F9010740A9070040501641D405064090741402480A1B50
1001
ACAD
1000
AcDbSavedByObjectVersion
1070
     0
  0
ACAD_PROXY_OBJECT
  5
2E
102
{ACAD_REACTORS
330
2A
102
}
330
2A
100
AcDbProxyObject
 90
      499
 91
      501
 93
      492
310
4411DBDD5C985D5915DA5D1A115919D95CD0340902404333333333333E33F0000000000000F90107409019070040501600405405064090741402480A1B50
1001
ACAD
1000
AcDbSavedByObjectVersion
1070
     0
  0
ACAD_PROXY_OBJECT
  5
31
102
{ACAD_REACTORS
330
2A
102
}
330
2A
100
AcDbProxyObject
 90
      499
 91
      501
 93
      476
310
41921A5919195B90640502408333333333333E33F0000000000000F901079024090700405020000000000001110200405405064090740C02480A0340
1001
ACAD
1000
AcDbSavedByObjectVersion
1070
     0
  0
ACAD_PROXY_OBJECT
  5
3B
102
{ACAD_REACTORS
330
2A
102
}
330
2A
100
AcDbProxyObject
 90
      499
 91
      501
 93
      428
310
42529A5D1D195C93D999914409028333333333333E33F0000000000000F9010790141107004050150A41D405064090741402480A0350
1001
ACAD
1000
AcDbSavedByObjectVersion
1070
     0
  0
ACAD_PROXY_OBJECT
  5
38
102
{ACAD_REACTORS
330
2A
102
}
330
2A
100
AcDbProxyObject
 90
      499
 91
      501
 93
      444
310
42D31A5B995C185D1D195C9B90E409028333333333333E33F0000000000000F9010790141107004050750841D405064090741402483A0350
1001
ACAD
1000
AcDbSavedByObjectVersion
1070
     0
  0
ACAD_PROXY_OBJECT
  5
3C
102
{ACAD_REACTORS
330
2A
102
}
330
2A
100
AcDbProxyObject
 90
      499
 91
      501
 93
      444
310
42D3DD995C9A185B99D3D999915409028333333333333E33F0000000000000F9010790141107004050150941D405064090741402480A0350
1001
ACAD
1000
AcDbSavedByObjectVersion
1070
     0
  0
ACAD_PROXY_OBJECT
  5
33
102
{ACAD_REACTORS
330
2A
102
}
330
2A
100
AcDbProxyObject
 90
      499
 91
      501
 93
      428
310
425499585B1A5CDD1A58D08409038333333333333E33F0000000000000F9010740A907004050150800405405064090740C02480A1B40
1001
ACAD
1000
AcDbSavedByObjectVersion
1070
     0
  0
ACAD_PROXY_OBJECT
  5
42
102
{ACAD_REACTORS
330
2A
102
}
330
2A
100
AcDbProxyObject
 90
      499
 91
      501
 93
      420
310
4194DA1859195911B40902404333333333333E33F0000000000000F9010740A41107004050150800405405064090840C02480A0B40
1001
ACAD
1000
AcDbSavedByObjectVersion
1070
     0
  0
ACAD_PROXY_OBJECT
  5
41
102
{ACAD_REACTORS
330
2A
102
}
330
2A
100
AcDbProxyObject
 90
      499
 91
      501
 93
      516
310
4454DA18591959081DDA5D1A08195919D95CD1A40902404333333333333E33F0000000000000F901074090142907004050250800405405064090740C02480A0B40
1001
ACAD
1000
AcDbSavedByObjectVersion
1070
     0
  0
ACAD_PROXY_OBJECT
  5
3E
102
{ACAD_REACTORS
330
2A
102
}
330
2A
100
AcDbProxyObject
 90
      499
 91
      501
 93
      532
310
4394DA1859195CC81BD98811DC985E5174090240C333333333333E33F0000000000000F901079024090741D01000000000000111010841D405064090740C02480A0340
1001
ACAD
1000
AcDbSavedByObjectVersion
1070
     0
  0
ACAD_PROXY_OBJECT
  5
3F
102
{ACAD_REACTORS
330
2A
102
}
330
2A
100
AcDbProxyObject
 90
      499
 91
      501
 93
      476
310
41D4DAD95D18DA1E51840502408333333333333E33F0000000000000F901079024090741D01000000000000111010B41D405064090741802480A0340
1001
ACAD
1000
AcDbSavedByObjectVersion
1070
     0
  0
ACAD_PROXY_OBJECT
  5
37
102
{ACAD_REACTORS
330
2A
102
}
330
2A
100
AcDbProxyObject
 90
      499
 91
      501
 93
      412
310
41D51A1A58DAD95B90D409028333333333333E33F0000000000000F9010790141107004050150C41D405064090741402480A0350
1001
ACAD
1000
AcDbSavedByObjectVersion
1070
     0
  0
ACAD_PROXY_OBJECT
  5
30
102
{ACAD_REACTORS
330
2A
102
}
330
2A
100
AcDbProxyObject
 90
      499
 91
      501
 93
      420
310
4255DA5C99599C985B595059028333333333333E33F0000000000000F90107901411070040501600405405064090740C02480A0340
1001
ACAD
1000
AcDbSavedByObjectVersion
1070
     0
  0
ACAD_PROXY_OBJECT
  5
40
102
{ACAD_REACTORS
330
2A
102
}
330
2A
100
AcDbProxyObject
 90
      499
 91
      501
 93
      404
310
41560B54985E51940902404000000000000E03F0000000000000F9010740501907004050150841D405064090740C02480A1B40
1001
ACAD
1000
AcDbSavedByObjectVersion
1070
     0
  0
XRECORD
  5
3FB
102
{ACAD_REACTORS
330
3F1
102
}
330
3F1
100
AcDbXrecord
340
0
  0
XRECORD
  5
3FA
102
{ACAD_REACTORS
330
3F1
102
}
330
3F1
100
AcDbXrecord
 90
        0
  0
XRECORD
  5
411
102
{ACAD_REACTORS
330
3F1
102
}
330
3F1
100
AcDbXrecord
1000
DSTYLE
1002
{
1070
   340
340
11
1002
}
  0
XRECORD
  5
3FC
102
{ACAD_REACTORS
330
3F1
102
}
330
3F1
100
AcDbXrecord
  1
{1453cb3d-3c63-48ba-b32d-77080ae8d285}
  0
XRECORD
  5
3F4
102
{ACAD_REACTORS
330
3F1
102
}
330
3F1
100
AcDbXrecord
  1

  0
XRECORD
  5
3F9
102
{ACAD_REACTORS
330
3F1
102
}
330
3F1
100
AcDbXrecord
 90
        4
  0
XRECORD
  5
3F6
102
{ACAD_REACTORS
330
3F1
102
}
330
3F1
100
AcDbXrecord
340
1A
  0
XRECORD
  5
3F8
102
{ACAD_REACTORS
330
3F1
102
}
330
3F1
100
AcDbXrecord
 90
    10781
  0
XRECORD
  5
3F7
102
{ACAD_REACTORS
330
3F1
102
}
330
3F1
100
AcDbXrecord
340
19
  0
XRECORD
  5
3FE
102
{ACAD_REACTORS
330
3F1
102
}
330
3F1
100
AcDbXrecord
 40
0.0
  0
XRECORD
  5
401
102
{ACAD_REACTORS
330
3F1
102
}
330
3F1
100
AcDbXrecord
340
0
  0
XRECORD
  5
407
102
{ACAD_REACTORS
330
3F1
102
}
330
3F1
100
AcDbXrecord
 10
0.0
 20
0.0
 30
0.0
  0
XRECORD
  5
403
102
{ACAD_REACTORS
330
3F1
102
}
330
3F1
100
AcDbXrecord
 10
0.0
 20
0.0
 30
0.0
  0
XRECORD
  5
406
102
{ACAD_REACTORS
330
3F1
102
}
330
3F1
100
AcDbXrecord
 10
0.0
 20
0.0
 30
0.0
  0
XRECORD
  5
404
102
{ACAD_REACTORS
330
3F1
102
}
330
3F1
100
AcDbXrecord
 10
0.0
 20
0.0
 30
0.0
  0
XRECORD
  5
405
102
{ACAD_REACTORS
330
3F1
102
}
330
3F1
100
AcDbXrecord
 10
0.0
 20
0.0
 30
0.0
  0
XRECORD
  5
402
102
{ACAD_REACTORS
330
3F1
102
}
330
3F1
100
AcDbXrecord
 10
0.0
 20
0.0
 30
0.0
  0
XRECORD
  5
3FF
102
{ACAD_REACTORS
330
3F1
102
}
330
3F1
100
AcDbXrecord
340
0
  0
XRECORD
  5
400
102
{ACAD_REACTORS
330
3F1
102
}
330
3F1
100
AcDbXrecord
 70
     0
  0
XRECORD
  5
3F5
102
{ACAD_REACTORS
330
3F1
102
}
330
3F1
100
AcDbXrecord
  1

  0
XRECORD
  5
3F2
102
{ACAD_REACTORS
330
3F1
102
}
330
3F1
100
AcDbXrecord
 90
        1
  0
XRECORD
  5
3F3
102
{ACAD_REACTORS
330
3F1
102
}
330
3F1
100
AcDbXrecord
 90
       70
  0
XRECORD
  5
40A
102
{ACAD_REACTORS
330
3F1
102
}
330
3F1
100
AcDbXrecord
340
0
  0
XRECORD
  5
410
102
{ACAD_REACTORS
330
3F1
102
}
330
3F1
100
AcDbXrecord
 10
0.0
 20
0.0
 30
0.0
  0
XRECORD
  5
40C
102
{ACAD_REACTORS
330
3F1
102
}
330
3F1
100
AcDbXrecord
 10
0.0
 20
0.0
 30
0.0
  0
XRECORD
  5
40F
102
{ACAD_REACTORS
330
3F1
102
}
330
3F1
100
AcDbXrecord
 10
0.0
 20
0.0
 30
0.0
  0
XRECORD
  5
40D
102
{ACAD_REACTORS
330
3F1
102
}
330
3F1
100
AcDbXrecord
 10
0.0
 20
0.0
 30
0.0
  0
XRECORD
  5
40E
102
{ACAD_REACTORS
330
3F1
102
}
330
3F1
100
AcDbXrecord
 10
0.0
 20
0.0
 30
0.0
  0
XRECORD
  5
40B
102
{ACAD_REACTORS
330
3F1
102
}
330
3F1
100
AcDbXrecord
 10
0.0
 20
0.0
 30
0.0
  0
XRECORD
  5
408
102
{ACAD_REACTORS
330
3F1
102
}
330
3F1
100
AcDbXrecord
340
0
  0
XRECORD
  5
409
102
{ACAD_REACTORS
330
3F1
102
}
330
3F1
100
AcDbXrecord
 70
     0
  0
XRECORD
  5
3FD
102
{ACAD_REACTORS
330
3F1
102
}
330
3F1
100
AcDbXrecord
  1
{FAEB1C32-E019-11D5-929B-00C0DF256EC4}
  0
DICTIONARYVAR
  5
41F
102
{ACAD_REACTORS
330
412
102
}
330
412
100
DictionaryVariables
280
     0
  1
1:1
  0
DICTIONARYVAR
  5
419
102
{ACAD_REACTORS
330
412
102
}
330
412
100
DictionaryVariables
280
     0
  1
3.500000
  0
DICTIONARYVAR
  5
41A
102
{ACAD_REACTORS
330
412
102
}
330
412
100
DictionaryVariables
280
     0
  1
acadiso.lin
  0
DICTIONARYVAR
  5
414
102
{ACAD_REACTORS
330
412
102
}
330
412
100
DictionaryVariables
280
     0
  1
Standard
  0
DICTIONARYVAR
  5
413
102
{ACAD_REACTORS
330
412
102
}
330
412
100
DictionaryVariables
280
     0
  1
Standard
  0
DICTIONARYVAR
  5
41B
102
{ACAD_REACTORS
330
412
102
}
330
412
100
DictionaryVariables
280
     0
  1
2
  0
DICTIONARYVAR
  5
41C
102
{ACAD_REACTORS
330
412
102
}
330
412
100
DictionaryVariables
280
     0
  1
1
  0
DICTIONARYVAR
  5
420
102
{ACAD_REACTORS
330
412
102
}
330
412
100
DictionaryVariables
280
     0
  1
1
  0
DICTIONARYVAR
  5
416
102
{ACAD_REACTORS
330
412
102
}
330
412
100
DictionaryVariables
280
     0
  1
80.000000
  0
DICTIONARYVAR
  5
415
102
{ACAD_REACTORS
330
412
102
}
330
412
100
DictionaryVariables
280
     0
  1
5.000000
  0
DICTIONARY
  5
423
330
45
100
AcDbDictionary
280
     1
  3
ACAD_XREC_ROUNDTRIP
360
424
  0
DICTIONARY
  5
421
330
44
100
AcDbDictionary
280
     1
  3
ACAD_XREC_ROUNDTRIP
360
422
  0
DICTIONARY
  5
425
330
46
100
AcDbDictionary
280
     1
  3
ACAD_XREC_ROUNDTRIP
360
426
  0
XRECORD
  5
424
102
{ACAD_REACTORS
330
423
102
}
330
423
100
AcDbXrecord
102
MATERIAL
148
0.0
149
0.0
149
0.0
 93
        0
 94
      127
282
     0
 72
     1
 77
     1
171
     1
175
     1
179
     1
273
     0
  0
XRECORD
  5
422
102
{ACAD_REACTORS
330
421
102
}
330
421
100
AcDbXrecord
102
MATERIAL
148
0.0
149
0.0
149
0.0
 93
        0
 94
      127
282
     0
 72
     1
 77
     1
171
     1
175
     1
179
     1
273
     0
  0
XRECORD
  5
426
102
{ACAD_REACTORS
330
425
102
}
330
425
100
AcDbXrecord
102
MATERIAL
148
0.0
149
0.0
149
0.0
 93
        0
 94
      127
282
     0
 72
     1
 77
     1
171
     1
175
     1
179
     1
273
     0
  0
ENDSEC
  0
EOF
