  0
SECTION
  2
HEADER
  9
$ACADVER
  1
AC1014
  9
$ACADMAINTVER
 70
     9
  9
$DWGCODEPAGE
  3
ANSI_932
  9
$INSBASE
 10
0.0
 20
0.0
 30
0.0
  9
$EXTMIN
 10
10.0
 20
20.0
 30
0.0
  9
$EXTMAX
 10
770.0000000000001
 20
560.0
 30
0.0
  9
$LIMMIN
 10
0.0
 20
0.0
  9
$LIMMAX
 10
420.0
 20
297.0
  9
$ORTHOMODE
 70
     0
  9
$REGENMODE
 70
     1
  9
$FILLMODE
 70
     1
  9
$QTEXTMODE
 70
     0
  9
$MIRRTEXT
 70
     1
  9
$DRAGMODE
 70
     2
  9
$LTSCALE
 40
0.2
  9
$OSMODE
 70
    37
  9
$ATTMODE
 70
     1
  9
$TEXTSIZE
 40
2.5
  9
$TRACEWID
 40
1.0
  9
$TEXTSTYLE
  7
STANDARD
  9
$CLAYER
  8
LAY-10
  9
$CELTYPE
  6
BYLAYER
  9
$CECOLOR
 62
   256
  9
$CELTSCALE
 40
1.0
  9
$DELOBJ
 70
     1
  9
$DISPSILH
 70
     0
  9
$DIMSCALE
 40
1.0
  9
$DIMASZ
 40
2.5
  9
$DIMEXO
 40
0.625
  9
$DIMDLI
 40
3.75
  9
$DIMRND
 40
0.0
  9
$DIMDLE
 40
0.0
  9
$DIMEXE
 40
1.25
  9
$DIMTP
 40
0.0
  9
$DIMTM
 40
0.0
  9
$DIMTXT
 40
2.5
  9
$DIMCEN
 40
2.5
  9
$DIMTSZ
 40
0.0
  9
$DIMTOL
 70
     0
  9
$DIMLIM
 70
     0
  9
$DIMTIH
 70
     0
  9
$DIMTOH
 70
     0
  9
$DIMSE1
 70
     0
  9
$DIMSE2
 70
     0
  9
$DIMTAD
 70
     1
  9
$DIMZIN
 70
     8
  9
$DIMBLK
  1

  9
$DIMASO
 70
     1
  9
$DIMSHO
 70
     1
  9
$DIMPOST
  1

  9
$DIMAPOST
  1

  9
$DIMALT
 70
     0
  9
$DIMALTD
 70
     3
  9
$DIMALTF
 40
0.03937007874016
  9
$DIMLFAC
 40
1.0
  9
$DIMTOFL
 70
     1
  9
$DIMTVP
 40
0.0
  9
$DIMTIX
 70
     0
  9
$DIMSOXD
 70
     0
  9
$DIMSAH
 70
     0
  9
$DIMBLK1
  1

  9
$DIMBLK2
  1

  9
$DIMSTYLE
  2
ISO-25
  9
$DIMCLRD
 70
     0
  9
$DIMCLRE
 70
     0
  9
$DIMCLRT
 70
     0
  9
$DIMTFAC
 40
1.0
  9
$DIMGAP
 40
0.625
  9
$DIMJUST
 70
     0
  9
$DIMSD1
 70
     0
  9
$DIMSD2
 70
     0
  9
$DIMTOLJ
 70
     0
  9
$DIMTZIN
 70
     8
  9
$DIMALTZ
 70
     0
  9
$DIMALTTZ
 70
     0
  9
$DIMFIT
 70
     3
  9
$DIMUPT
 70
     0
  9
$DIMUNIT
 70
     2
  9
$DIMDEC
 70
     2
  9
$DIMTDEC
 70
     2
  9
$DIMALTU
 70
     2
  9
$DIMALTTD
 70
     3
  9
$DIMTXSTY
  7
STANDARD
  9
$DIMAUNIT
 70
     0
  9
$LUNITS
 70
     2
  9
$LUPREC
 70
     4
  9
$SKETCHINC
 40
1.0
  9
$FILLETRAD
 40
10.0
  9
$AUNITS
 70
     0
  9
$AUPREC
 70
     0
  9
$MENU
  1
.
  9
$ELEVATION
 40
0.0
  9
$PELEVATION
 40
0.0
  9
$THICKNESS
 40
0.0
  9
$LIMCHECK
 70
     0
  9
$CHAMFERA
 40
0.0
  9
$CHAMFERB
 40
0.0
  9
$CHAMFERC
 40
0.0
  9
$CHAMFERD
 40
0.0
  9
$SKPOLY
 70
     0
  9
$TDCREATE
 40
2459229.337277315
  9
$TDUPDATE
 40
2459229.337277766
  9
$TDINDWG
 40
0.0000000116
  9
$TDUSRTIMER
 40
0.0000000116
  9
$USRTIMER
 70
     1
  9
$ANGBASE
 50
0.0
  9
$ANGDIR
 70
     0
  9
$PDMODE
 70
     0
  9
$PDSIZE
 40
0.0
  9
$PLINEWID
 40
0.0
  9
$COORDS
 70
     1
  9
$SPLFRAME
 70
     0
  9
$SPLINETYPE
 70
     6
  9
$SPLINESEGS
 70
     8
  9
$ATTDIA
 70
     0
  9
$ATTREQ
 70
     1
  9
$HANDLING
 70
     1
  9
$HANDSEED
  5
43F
  9
$SURFTAB1
 70
     6
  9
$SURFTAB2
 70
     6
  9
$SURFTYPE
 70
     6
  9
$SURFU
 70
     6
  9
$SURFV
 70
     6
  9
$UCSNAME
  2

  9
$UCSORG
 10
0.0
 20
0.0
 30
0.0
  9
$UCSXDIR
 10
1.0
 20
0.0
 30
0.0
  9
$UCSYDIR
 10
0.0
 20
1.0
 30
0.0
  9
$PUCSNAME
  2

  9
$PUCSORG
 10
0.0
 20
0.0
 30
0.0
  9
$PUCSXDIR
 10
1.0
 20
0.0
 30
0.0
  9
$PUCSYDIR
 10
0.0
 20
1.0
 30
0.0
  9
$USERI1
 70
     0
  9
$USERI2
 70
     0
  9
$USERI3
 70
     0
  9
$USERI4
 70
     0
  9
$USERI5
 70
     0
  9
$USERR1
 40
0.0
  9
$USERR2
 40
0.0
  9
$USERR3
 40
0.0
  9
$USERR4
 40
0.0
  9
$USERR5
 40
0.0
  9
$WORLDVIEW
 70
     1
  9
$SHADEDGE
 70
     3
  9
$SHADEDIF
 70
    70
  9
$TILEMODE
 70
     1
  9
$MAXACTVP
 70
    64
  9
$PINSBASE
 10
0.0
 20
0.0
 30
0.0
  9
$PLIMCHECK
 70
     0
  9
$PEXTMIN
 10
1.000000000000000E+20
 20
1.000000000000000E+20
 30
1.000000000000000E+20
  9
$PEXTMAX
 10
-1.000000000000000E+20
 20
-1.000000000000000E+20
 30
-1.000000000000000E+20
  9
$PLIMMIN
 10
0.0
 20
0.0
  9
$PLIMMAX
 10
420.0
 20
297.0
  9
$UNITMODE
 70
     0
  9
$VISRETAIN
 70
     1
  9
$PLINEGEN
 70
     0
  9
$PSLTSCALE
 70
     1
  9
$TREEDEPTH
 70
  3020
  9
$PICKSTYLE
 70
     1
  9
$CMLSTYLE
  2
STANDARD
  9
$CMLJUST
 70
     0
  9
$CMLSCALE
 40
20.0
  9
$PROXYGRAPHICS
 70
     1
  9
$MEASUREMENT
 70
     1
  0
ENDSEC
  0
SECTION
  2
CLASSES
  0
CLASS
  1
ACDBDICTIONARYWDFLT
  2
AcDbDictionaryWithDefault
  3
ObjectDBX Classes
 90
        0
280
     0
281
     0
  0
CLASS
  1
VISUALSTYLE
  2
AcDbVisualStyle
  3
ObjectDBX Classes
 90
     4095
280
     0
281
     0
  0
CLASS
  1
MATERIAL
  2
AcDbMaterial
  3
ObjectDBX Classes
 90
     1153
280
     0
281
     0
  0
CLASS
  1
SCALE
  2
AcDbScale
  3
ObjectDBX Classes
 90
     1153
280
     0
281
     0
  0
CLASS
  1
TABLESTYLE
  2
AcDbTableStyle
  3
ObjectDBX Classes
 90
     4095
280
     0
281
     0
  0
CLASS
  1
MLEADERSTYLE
  2
AcDbMLeaderStyle
  3
ACDB_MLEADERSTYLE_CLASS
 90
     4095
280
     0
281
     0
  0
CLASS
  1
SUN
  2
AcDbSun
  3
SCENEOE
 90
     1153
280
     0
281
     0
  0
CLASS
  1
DICTIONARYVAR
  2
AcDbDictionaryVar
  3
ObjectDBX Classes
 90
        0
280
     0
281
     0
  0
CLASS
  1
XRECORD
  2
AcDbXrecord
  3
ObjectDBX Classes
 90
        0
280
     0
281
     0
  0
CLASS
  1
LWPOLYLINE
  2
AcDbPolyline
  3
ObjectDBX Classes
 90
        0
280
     0
281
     1
  0
CLASS
  1
HATCH
  2
AcDbHatch
  3
ObjectDBX Classes
 90
        0
280
     0
281
     1
  0
CLASS
  1
ACDBPLACEHOLDER
  2
AcDbPlaceHolder
  3
ObjectDBX Classes
 90
        0
280
     0
281
     0
  0
CLASS
  1
LAYOUT
  2
AcDbLayout
  3
ObjectDBX Classes
 90
        0
280
     0
281
     0
  0
ENDSEC
  0
SECTION
  2
TABLES
  0
TABLE
  2
VPORT
  5
8
102
{ACAD_XDICTIONARY
360
434
102
}
330
0
100
AcDbSymbolTable
 70
     1
  0
VPORT
  5
29
330
8
100
AcDbSymbolTableRecord
100
AcDbViewportTableRecord
  2
*ACTIVE
 70
     0
 10
0.0
 20
0.0
 11
1.0
 21
1.0
 12
390.0000000000001
 22
290.0
 13
0.0
 23
0.0
 14
10.0
 24
10.0
 15
10.0
 25
10.0
 16
0.0
 26
0.0
 36
1.0
 17
0.0
 27
0.0
 37
0.0
 40
540.0
 41
1.407407407407408
 42
50.0
 43
0.0
 44
0.0
 50
0.0
 51
0.0
 71
     0
 72
  1000
 73
     1
 74
     3
 75
     0
 76
     0
 77
     0
 78
     0
  0
ENDTAB
  0
TABLE
  2
LTYPE
  5
5
330
0
100
AcDbSymbolTable
 70
     6
  0
LTYPE
  5
14
330
5
100
AcDbSymbolTableRecord
100
AcDbLinetypeTableRecord
  2
BYBLOCK
 70
     0
  3

 72
    65
 73
     0
 40
0.0
  0
LTYPE
  5
15
330
5
100
AcDbSymbolTableRecord
100
AcDbLinetypeTableRecord
  2
BYLAYER
 70
     0
  3

 72
    65
 73
     0
 40
0.0
  0
LTYPE
  5
16
330
5
100
AcDbSymbolTableRecord
100
AcDbLinetypeTableRecord
  2
CONTINUOUS
 70
     0
  3
Solid line
 72
    65
 73
     0
 40
0.0
  0
LTYPE
  5
6E
330
5
100
AcDbSymbolTableRecord
100
AcDbLinetypeTableRecord
  2
HIDDEN
 70
     0
  3
Hidden __ __ __ __ __ __ __ __ __ __ __ __ __ __
 72
    65
 73
     2
 40
9.524999999999999
 49
6.35
 74
     0
 49
-3.175
 74
     0
  0
LTYPE
  5
6F
330
5
100
AcDbSymbolTableRecord
100
AcDbLinetypeTableRecord
  2
CENTER
 70
     0
  3
Center ____ _ ____ _ ____ _ ____ _ ____ _ ____
 72
    65
 73
     4
 40
50.8
 49
31.75
 74
     0
 49
-6.35
 74
     0
 49
6.35
 74
     0
 49
-6.35
 74
     0
  0
LTYPE
  5
70
330
5
100
AcDbSymbolTableRecord
100
AcDbLinetypeTableRecord
  2
PHANTOM
 70
     0
  3
Phantom ______  __  __  ______  __  __  ______ 
 72
    65
 73
     6
 40
63.50000000000001
 49
31.75
 74
     0
 49
-6.35
 74
     0
 49
6.35
 74
     0
 49
-6.35
 74
     0
 49
6.35
 74
     0
 49
-6.35
 74
     0
  0
LTYPE
  5
71
330
5
100
AcDbSymbolTableRecord
100
AcDbLinetypeTableRecord
  2
ACAD_ISO06W100
 70
     0
  3
ISO long-dash triple-dot ____ ... ____ ... ____
 72
    65
 73
     8
 40
36.0
 49
24.0
 74
     0
 49
-3.0
 74
     0
 49
0.0
 74
     0
 49
-3.0
 74
     0
 49
0.0
 74
     0
 49
-3.0
 74
     0
 49
0.0
 74
     0
 49
-3.0
 74
     0
  0
LTYPE
  5
72
330
5
100
AcDbSymbolTableRecord
100
AcDbLinetypeTableRecord
  2
ACAD_ISO15W100
 70
     0
  3
ISO double-dash triple-dot __ __ . . . __ __ . .
 72
    65
 73
    10
 40
39.0
 49
12.0
 74
     0
 49
-3.0
 74
     0
 49
12.0
 74
     0
 49
-3.0
 74
     0
 49
0.0
 74
     0
 49
-3.0
 74
     0
 49
0.0
 74
     0
 49
-3.0
 74
     0
 49
0.0
 74
     0
 49
-3.0
 74
     0
  0
ENDTAB
  0
TABLE
  2
LAYER
  5
2
330
0
100
AcDbSymbolTable
 70
     5
  0
LAYER
  5
10
330
2
100
AcDbSymbolTableRecord
100
AcDbLayerTableRecord
  2
0
 70
     0
 62
     7
  6
CONTINUOUS
  0
LAYER
  5
75
330
2
100
AcDbSymbolTableRecord
100
AcDbLayerTableRecord
  2
LAY-10
 70
     0
 62
     7
  6
CONTINUOUS
  0
LAYER
  5
76
330
2
100
AcDbSymbolTableRecord
100
AcDbLayerTableRecord
  2
LAY-20
 70
     0
 62
     7
  6
CONTINUOUS
  0
LAYER
  5
77
330
2
100
AcDbSymbolTableRecord
100
AcDbLayerTableRecord
  2
LAY-255
 70
     0
 62
     7
  6
CONTINUOUS
  0
LAYER
  5
36C
330
2
100
AcDbSymbolTableRecord
100
AcDbLayerTableRecord
  2
DEFPOINTS
 70
     0
 62
     7
  6
CONTINUOUS
  0
ENDTAB
  0
TABLE
  2
STYLE
  5
3
330
0
100
AcDbSymbolTable
 70
     4
  0
STYLE
  5
11
330
3
100
AcDbSymbolTableRecord
100
AcDbTextStyleTableRecord
  2
STANDARD
 70
     0
 40
0.0
 41
1.0
 50
0.0
 71
     0
 42
2.5
  3
simplex
  4
bigfont
  0
STYLE
  5
73
330
3
100
AcDbSymbolTableRecord
100
AcDbTextStyleTableRecord
  2
EXCADSTD
 70
     0
 40
0.0
 41
1.0
 50
0.0
 71
     0
 42
2.5
  3
simplex
  4
bigfont
  0
STYLE
  5
74
330
3
100
AcDbSymbolTableRecord
100
AcDbTextStyleTableRecord
  2
EXCADVERT
 70
     4
 40
0.0
 41
1.0
 50
0.0
 71
     0
 42
2.5
  3
simplex
  4
bigfont
  0
STYLE
  5
36A
330
3
100
AcDbSymbolTableRecord
100
AcDbTextStyleTableRecord
  2
EXCADDIM1
 70
     0
 40
0.0
 41
0.84
 50
0.0
 71
     0
 42
2.5
  3
simplex
  4
bigfont
  0
ENDTAB
  0
TABLE
  2
VIEW
  5
6
330
0
100
AcDbSymbolTable
 70
     0
  0
ENDTAB
  0
TABLE
  2
UCS
  5
7
330
0
100
AcDbSymbolTable
 70
     0
  0
ENDTAB
  0
TABLE
  2
APPID
  5
9
330
0
100
AcDbSymbolTable
 70
     2
  0
APPID
  5
12
330
9
100
AcDbSymbolTableRecord
100
AcDbRegAppTableRecord
  2
ACAD
 70
     0
  0
APPID
  5
43E
330
9
100
AcDbSymbolTableRecord
100
AcDbRegAppTableRecord
  2
ACAD_MLEADERVER
 70
     0
  0
ENDTAB
  0
TABLE
  2
DIMSTYLE
  5
A
330
0
100
AcDbSymbolTable
 70
     1
  0
DIMSTYLE
105
27
102
{ACAD_REACTORS
330
36B
330
379
330
386
330
393
330
3A0
330
3AD
330
3BA
330
3C7
330
3D4
102
}
330
A
100
AcDbSymbolTableRecord
100
AcDbDimStyleTableRecord
  2
ISO-25
 70
     0
  3

  4

  5

  6

  7

 40
1.0
 41
2.5
 42
0.625
 43
3.75
 44
1.25
 45
0.0
 46
0.0
 47
0.0
 48
0.0
140
2.5
141
2.5
142
0.0
143
0.03937007874016
144
1.0
145
0.0
146
1.0
147
0.625
 71
     0
 72
     0
 73
     0
 74
     0
 75
     0
 76
     0
 77
     1
 78
     8
170
     0
171
     3
172
     1
173
     0
174
     0
175
     0
176
     0
177
     0
178
     0
270
     2
271
     2
272
     2
273
     2
274
     3
340
11
275
     0
280
     0
281
     0
282
     0
283
     0
284
     8
285
     0
286
     0
287
     5
288
     0
  0
ENDTAB
  0
TABLE
  2
BLOCK_RECORD
  5
1
330
0
100
AcDbSymbolTable
 70
    23
  0
BLOCK_RECORD
  5
1F
330
1
100
AcDbSymbolTableRecord
100
AcDbBlockTableRecord
  2
*MODEL_SPACE
  0
BLOCK_RECORD
  5
1B
330
1
100
AcDbSymbolTableRecord
100
AcDbBlockTableRecord
  2
*PAPER_SPACE
  0
BLOCK_RECORD
  5
78
330
1
100
AcDbSymbolTableRecord
100
AcDbBlockTableRecord
  2
EX_NORM
  0
BLOCK_RECORD
  5
7B
330
1
100
AcDbSymbolTableRecord
100
AcDbBlockTableRecord
  2
EX_BNORM
  0
BLOCK_RECORD
  5
7E
330
1
100
AcDbSymbolTableRecord
100
AcDbBlockTableRecord
  2
EX_BCIR
  0
BLOCK_RECORD
  5
81
330
1
100
AcDbSymbolTableRecord
100
AcDbBlockTableRecord
  2
EX_RCIVIL
  0
BLOCK_RECORD
  5
84
330
1
100
AcDbSymbolTableRecord
100
AcDbBlockTableRecord
  2
EX_SLANT
  0
BLOCK_RECORD
  5
87
330
1
100
AcDbSymbolTableRecord
100
AcDbBlockTableRecord
  2
EX_NONE
  0
BLOCK_RECORD
  5
8A
330
1
100
AcDbSymbolTableRecord
100
AcDbBlockTableRecord
  2
EX_CIVIL
  0
BLOCK_RECORD
  5
8D
330
1
100
AcDbSymbolTableRecord
100
AcDbBlockTableRecord
  2
EX_WCIR
  0
BLOCK_RECORD
  5
90
330
1
100
AcDbSymbolTableRecord
100
AcDbBlockTableRecord
  2
EX_WCIR2
  0
BLOCK_RECORD
  5
93
330
1
100
AcDbSymbolTableRecord
100
AcDbBlockTableRecord
  2
EX_WNORM
  0
BLOCK_RECORD
  5
96
330
1
100
AcDbSymbolTableRecord
100
AcDbBlockTableRecord
  2
EX_NNORM
  0
BLOCK_RECORD
  5
99
330
1
100
AcDbSymbolTableRecord
100
AcDbBlockTableRecord
  2
EX_BBOX
  0
BLOCK_RECORD
  5
9C
330
1
100
AcDbSymbolTableRecord
100
AcDbBlockTableRecord
  2
EX_WBOX
  0
BLOCK_RECORD
  5
9F
330
1
100
AcDbSymbolTableRecord
100
AcDbBlockTableRecord
  2
EX_INTEGRAL
  0
BLOCK_RECORD
  5
36D
330
1
100
AcDbSymbolTableRecord
100
AcDbBlockTableRecord
  2
*D15
  0
BLOCK_RECORD
  5
37A
330
1
100
AcDbSymbolTableRecord
100
AcDbBlockTableRecord
  2
*D16
  0
BLOCK_RECORD
  5
387
330
1
100
AcDbSymbolTableRecord
100
AcDbBlockTableRecord
  2
*D17
  0
BLOCK_RECORD
  5
394
330
1
100
AcDbSymbolTableRecord
100
AcDbBlockTableRecord
  2
*D18
  0
BLOCK_RECORD
  5
3A1
330
1
100
AcDbSymbolTableRecord
100
AcDbBlockTableRecord
  2
*D19
  0
BLOCK_RECORD
  5
3AE
330
1
100
AcDbSymbolTableRecord
100
AcDbBlockTableRecord
  2
*D20
  0
BLOCK_RECORD
  5
3BB
330
1
100
AcDbSymbolTableRecord
100
AcDbBlockTableRecord
  2
*D21
  0
BLOCK_RECORD
  5
3C8
330
1
100
AcDbSymbolTableRecord
100
AcDbBlockTableRecord
  2
*D22
  0
BLOCK_RECORD
  5
3D5
330
1
100
AcDbSymbolTableRecord
100
AcDbBlockTableRecord
  2
*D23
  0
ENDTAB
  0
ENDSEC
  0
SECTION
  2
BLOCKS
  0
BLOCK
  5
20
330
1F
100
AcDbEntity
  8
0
100
AcDbBlockBegin
  2
*MODEL_SPACE
 70
     0
 10
0.0
 20
0.0
 30
0.0
  3
*MODEL_SPACE
  1

  0
ENDBLK
  5
21
330
1F
100
AcDbEntity
  8
0
100
AcDbBlockEnd
  0
BLOCK
  5
1C
330
1B
100
AcDbEntity
 67
     1
  8
0
100
AcDbBlockBegin
  2
*PAPER_SPACE
 70
     0
 10
0.0
 20
0.0
 30
0.0
  3
*PAPER_SPACE
  1

  0
ENDBLK
  5
1D
330
1B
100
AcDbEntity
 67
     1
  8
0
100
AcDbBlockEnd
  0
BLOCK
  5
79
330
78
100
AcDbEntity
  8
0
100
AcDbBlockBegin
  2
EX_NORM
 70
     0
 10
0.0
 20
0.0
 30
0.0
  3
EX_NORM
  1

  0
LINE
  5
A2
330
78
100
AcDbEntity
  8
0
  6
CONTINUOUS
 62
     0
100
AcDbLine
 10
0.0
 20
0.0
 30
0.0
 11
-1.0
 21
0.0
 31
0.0
  0
LINE
  5
A3
330
78
100
AcDbEntity
  8
0
  6
CONTINUOUS
 62
     0
100
AcDbLine
 10
0.0
 20
0.0
 30
0.0
 11
-1.0
 21
0.166666667
 31
0.0
  0
LINE
  5
A4
330
78
100
AcDbEntity
  8
0
  6
CONTINUOUS
 62
     0
100
AcDbLine
 10
0.0
 20
0.0
 30
0.0
 11
-1.0
 21
-0.166666667
 31
0.0
  0
ENDBLK
  5
7A
330
78
100
AcDbEntity
  8
0
100
AcDbBlockEnd
  0
BLOCK
  5
7C
330
7B
100
AcDbEntity
  8
0
100
AcDbBlockBegin
  2
EX_BNORM
 70
     0
 10
0.0
 20
0.0
 30
0.0
  3
EX_BNORM
  1

  0
LINE
  5
A5
330
7B
100
AcDbEntity
  8
0
  6
CONTINUOUS
 62
     0
100
AcDbLine
 10
0.0
 20
0.0
 30
0.0
 11
-1.0
 21
0.0
 31
0.0
  0
LINE
  5
A6
330
7B
100
AcDbEntity
  8
0
  6
CONTINUOUS
 62
     0
100
AcDbLine
 10
0.0
 20
0.0
 30
0.0
 11
-1.0
 21
0.166666667
 31
0.0
  0
LINE
  5
A7
330
7B
100
AcDbEntity
  8
0
  6
CONTINUOUS
 62
     0
100
AcDbLine
 10
0.0
 20
0.0
 30
0.0
 11
-1.0
 21
-0.166666667
 31
0.0
  0
LINE
  5
A8
330
7B
100
AcDbEntity
  8
0
  6
CONTINUOUS
 62
     0
100
AcDbLine
 10
0.0
 20
0.0
 30
0.0
 11
-1.0
 21
0.083333333
 31
0.0
  0
LINE
  5
A9
330
7B
100
AcDbEntity
  8
0
  6
CONTINUOUS
 62
     0
100
AcDbLine
 10
0.0
 20
0.0
 30
0.0
 11
-1.0
 21
-0.083333333
 31
0.0
  0
LINE
  5
AA
330
7B
100
AcDbEntity
  8
0
  6
CONTINUOUS
 62
     0
100
AcDbLine
 10
-1.0
 20
0.166666667
 30
0.0
 11
-1.0
 21
-0.166666667
 31
0.0
  0
ENDBLK
  5
7D
330
7B
100
AcDbEntity
  8
0
100
AcDbBlockEnd
  0
BLOCK
  5
7F
330
7E
100
AcDbEntity
  8
0
100
AcDbBlockBegin
  2
EX_BCIR
 70
     0
 10
0.0
 20
0.0
 30
0.0
  3
EX_BCIR
  1

  0
LINE
  5
AB
330
7E
100
AcDbEntity
  8
0
  6
CONTINUOUS
 62
     0
100
AcDbLine
 10
0.0
 20
0.0
 30
0.0
 11
-1.0
 21
0.0
 31
0.0
  0
CIRCLE
  5
AC
330
7E
100
AcDbEntity
  8
0
  6
CONTINUOUS
 62
     0
100
AcDbCircle
 10
0.0
 20
0.0
 30
0.0
 40
0.5
  0
CIRCLE
  5
AD
330
7E
100
AcDbEntity
  8
0
  6
CONTINUOUS
 62
     0
100
AcDbCircle
 10
0.0
 20
0.0
 30
0.0
 40
0.25
  0
ENDBLK
  5
80
330
7E
100
AcDbEntity
  8
0
100
AcDbBlockEnd
  0
BLOCK
  5
82
330
81
100
AcDbEntity
  8
0
100
AcDbBlockBegin
  2
EX_RCIVIL
 70
     0
 10
0.0
 20
0.0
 30
0.0
  3
EX_RCIVIL
  1

  0
LINE
  5
AE
330
81
100
AcDbEntity
  8
0
  6
CONTINUOUS
 62
     0
100
AcDbLine
 10
0.0
 20
0.0
 30
0.0
 11
-1.0
 21
0.0
 31
0.0
  0
LINE
  5
AF
330
81
100
AcDbEntity
  8
0
  6
CONTINUOUS
 62
     0
100
AcDbLine
 10
-1.0
 20
-0.25
 30
0.0
 11
0.0
 21
-0.25
 31
0.0
  0
LINE
  5
B0
330
81
100
AcDbEntity
  8
0
  6
CONTINUOUS
 62
     0
100
AcDbLine
 10
-1.0
 20
-0.125
 30
0.0
 11
0.0
 21
-0.125
 31
0.0
  0
ENDBLK
  5
83
330
81
100
AcDbEntity
  8
0
100
AcDbBlockEnd
  0
BLOCK
  5
85
330
84
100
AcDbEntity
  8
0
100
AcDbBlockBegin
  2
EX_SLANT
 70
     0
 10
0.0
 20
0.0
 30
0.0
  3
EX_SLANT
  1

  0
LINE
  5
B1
330
84
100
AcDbEntity
  8
0
  6
CONTINUOUS
 62
     0
100
AcDbLine
 10
0.0
 20
0.0
 30
0.0
 11
-1.0
 21
0.0
 31
0.0
  0
LINE
  5
B2
330
84
100
AcDbEntity
  8
0
  6
CONTINUOUS
 62
     0
100
AcDbLine
 10
0.707106781
 20
0.707106781
 30
0.0
 11
-0.707106781
 21
-0.707106781
 31
0.0
  0
ENDBLK
  5
86
330
84
100
AcDbEntity
  8
0
100
AcDbBlockEnd
  0
BLOCK
  5
88
330
87
100
AcDbEntity
  8
0
100
AcDbBlockBegin
  2
EX_NONE
 70
     0
 10
0.0
 20
0.0
 30
0.0
  3
EX_NONE
  1

  0
LINE
  5
B3
330
87
100
AcDbEntity
  8
0
  6
CONTINUOUS
 62
     0
100
AcDbLine
 10
0.0
 20
0.0
 30
0.0
 11
-1.0
 21
0.0
 31
0.0
  0
ENDBLK
  5
89
330
87
100
AcDbEntity
  8
0
100
AcDbBlockEnd
  0
BLOCK
  5
8B
330
8A
100
AcDbEntity
  8
0
100
AcDbBlockBegin
  2
EX_CIVIL
 70
     0
 10
0.0
 20
0.0
 30
0.0
  3
EX_CIVIL
  1

  0
LINE
  5
B4
330
8A
100
AcDbEntity
  8
0
  6
CONTINUOUS
 62
     0
100
AcDbLine
 10
0.0
 20
0.0
 30
0.0
 11
-1.0
 21
0.0
 31
0.0
  0
LINE
  5
B5
330
8A
100
AcDbEntity
  8
0
  6
CONTINUOUS
 62
     0
100
AcDbLine
 10
-1.0
 20
0.25
 30
0.0
 11
0.0
 21
0.25
 31
0.0
  0
LINE
  5
B6
330
8A
100
AcDbEntity
  8
0
  6
CONTINUOUS
 62
     0
100
AcDbLine
 10
-1.0
 20
0.125
 30
0.0
 11
0.0
 21
0.125
 31
0.0
  0
ENDBLK
  5
8C
330
8A
100
AcDbEntity
  8
0
100
AcDbBlockEnd
  0
BLOCK
  5
8E
330
8D
100
AcDbEntity
  8
0
100
AcDbBlockBegin
  2
EX_WCIR
 70
     0
 10
0.0
 20
0.0
 30
0.0
  3
EX_WCIR
  1

  0
LINE
  5
B7
330
8D
100
AcDbEntity
  8
0
  6
CONTINUOUS
 62
     0
100
AcDbLine
 10
0.0
 20
0.0
 30
0.0
 11
-1.0
 21
0.0
 31
0.0
  0
CIRCLE
  5
B8
330
8D
100
AcDbEntity
  8
0
  6
CONTINUOUS
 62
     0
100
AcDbCircle
 10
0.0
 20
0.0
 30
0.0
 40
0.5
  0
ENDBLK
  5
8F
330
8D
100
AcDbEntity
  8
0
100
AcDbBlockEnd
  0
BLOCK
  5
91
330
90
100
AcDbEntity
  8
0
100
AcDbBlockBegin
  2
EX_WCIR2
 70
     0
 10
0.0
 20
0.0
 30
0.0
  3
EX_WCIR2
  1

  0
LINE
  5
B9
330
90
100
AcDbEntity
  8
0
  6
CONTINUOUS
 62
     0
100
AcDbLine
 10
-0.5
 20
0.0
 30
0.0
 11
-1.0
 21
0.0
 31
0.0
  0
CIRCLE
  5
BA
330
90
100
AcDbEntity
  8
0
  6
CONTINUOUS
 62
     0
100
AcDbCircle
 10
0.0
 20
0.0
 30
0.0
 40
0.5
  0
ENDBLK
  5
92
330
90
100
AcDbEntity
  8
0
100
AcDbBlockEnd
  0
BLOCK
  5
94
330
93
100
AcDbEntity
  8
0
100
AcDbBlockBegin
  2
EX_WNORM
 70
     0
 10
0.0
 20
0.0
 30
0.0
  3
EX_WNORM
  1

  0
LINE
  5
BB
330
93
100
AcDbEntity
  8
0
  6
CONTINUOUS
 62
     0
100
AcDbLine
 10
-1.0
 20
0.0
 30
0.0
 11
-1.0
 21
0.0
 31
0.0
  0
LINE
  5
BC
330
93
100
AcDbEntity
  8
0
  6
CONTINUOUS
 62
     0
100
AcDbLine
 10
0.0
 20
0.0
 30
0.0
 11
-1.0
 21
0.166666667
 31
0.0
  0
LINE
  5
BD
330
93
100
AcDbEntity
  8
0
  6
CONTINUOUS
 62
     0
100
AcDbLine
 10
0.0
 20
0.0
 30
0.0
 11
-1.0
 21
-0.166666667
 31
0.0
  0
LINE
  5
BE
330
93
100
AcDbEntity
  8
0
  6
CONTINUOUS
 62
     0
100
AcDbLine
 10
-1.0
 20
0.166666667
 30
0.0
 11
-1.0
 21
-0.166666667
 31
0.0
  0
ENDBLK
  5
95
330
93
100
AcDbEntity
  8
0
100
AcDbBlockEnd
  0
BLOCK
  5
97
330
96
100
AcDbEntity
  8
0
100
AcDbBlockBegin
  2
EX_NNORM
 70
     0
 10
0.0
 20
0.0
 30
0.0
  3
EX_NNORM
  1

  0
LINE
  5
BF
330
96
100
AcDbEntity
  8
0
  6
CONTINUOUS
 62
     0
100
AcDbLine
 10
0.0
 20
0.0
 30
0.0
 11
-1.0
 21
0.0
 31
0.0
  0
LINE
  5
C0
330
96
100
AcDbEntity
  8
0
  6
CONTINUOUS
 62
     0
100
AcDbLine
 10
0.0
 20
0.0
 30
0.0
 11
-1.0
 21
0.166666667
 31
0.0
  0
LINE
  5
C1
330
96
100
AcDbEntity
  8
0
  6
CONTINUOUS
 62
     0
100
AcDbLine
 10
0.0
 20
0.0
 30
0.0
 11
-1.0
 21
-0.166666667
 31
0.0
  0
LINE
  5
C2
330
96
100
AcDbEntity
  8
0
  6
CONTINUOUS
 62
     0
100
AcDbLine
 10
-1.0
 20
0.166666667
 30
0.0
 11
-1.0
 21
-0.166666667
 31
0.0
  0
ENDBLK
  5
98
330
96
100
AcDbEntity
  8
0
100
AcDbBlockEnd
  0
BLOCK
  5
9A
330
99
100
AcDbEntity
  8
0
100
AcDbBlockBegin
  2
EX_BBOX
 70
     0
 10
0.0
 20
0.0
 30
0.0
  3
EX_BBOX
  1

  0
LINE
  5
C3
330
99
100
AcDbEntity
  8
0
  6
CONTINUOUS
 62
     0
100
AcDbLine
 10
0.0
 20
0.0
 30
0.0
 11
-1.0
 21
0.0
 31
0.0
  0
LINE
  5
C4
330
99
100
AcDbEntity
  8
0
  6
CONTINUOUS
 62
     0
100
AcDbLine
 10
-0.5
 20
0.5
 30
0.0
 11
0.5
 21
0.5
 31
0.0
  0
LINE
  5
C5
330
99
100
AcDbEntity
  8
0
  6
CONTINUOUS
 62
     0
100
AcDbLine
 10
0.5
 20
0.5
 30
0.0
 11
0.5
 21
-0.5
 31
0.0
  0
LINE
  5
C6
330
99
100
AcDbEntity
  8
0
  6
CONTINUOUS
 62
     0
100
AcDbLine
 10
0.5
 20
-0.5
 30
0.0
 11
-0.5
 21
-0.5
 31
0.0
  0
LINE
  5
C7
330
99
100
AcDbEntity
  8
0
  6
CONTINUOUS
 62
     0
100
AcDbLine
 10
-0.5
 20
-0.5
 30
0.0
 11
-0.5
 21
0.5
 31
0.0
  0
LINE
  5
C8
330
99
100
AcDbEntity
  8
0
  6
CONTINUOUS
 62
     0
100
AcDbLine
 10
-0.25
 20
0.25
 30
0.0
 11
0.25
 21
0.25
 31
0.0
  0
LINE
  5
C9
330
99
100
AcDbEntity
  8
0
  6
CONTINUOUS
 62
     0
100
AcDbLine
 10
0.25
 20
0.25
 30
0.0
 11
0.25
 21
-0.25
 31
0.0
  0
LINE
  5
CA
330
99
100
AcDbEntity
  8
0
  6
CONTINUOUS
 62
     0
100
AcDbLine
 10
0.25
 20
-0.25
 30
0.0
 11
-0.25
 21
-0.25
 31
0.0
  0
LINE
  5
CB
330
99
100
AcDbEntity
  8
0
  6
CONTINUOUS
 62
     0
100
AcDbLine
 10
-0.25
 20
-0.25
 30
0.0
 11
-0.25
 21
0.25
 31
0.0
  0
ENDBLK
  5
9B
330
99
100
AcDbEntity
  8
0
100
AcDbBlockEnd
  0
BLOCK
  5
9D
330
9C
100
AcDbEntity
  8
0
100
AcDbBlockBegin
  2
EX_WBOX
 70
     0
 10
0.0
 20
0.0
 30
0.0
  3
EX_WBOX
  1

  0
LINE
  5
CC
330
9C
100
AcDbEntity
  8
0
  6
CONTINUOUS
 62
     0
100
AcDbLine
 10
-0.5
 20
0.0
 30
0.0
 11
-1.0
 21
0.0
 31
0.0
  0
LINE
  5
CD
330
9C
100
AcDbEntity
  8
0
  6
CONTINUOUS
 62
     0
100
AcDbLine
 10
-0.5
 20
0.5
 30
0.0
 11
0.5
 21
0.5
 31
0.0
  0
LINE
  5
CE
330
9C
100
AcDbEntity
  8
0
  6
CONTINUOUS
 62
     0
100
AcDbLine
 10
0.5
 20
0.5
 30
0.0
 11
0.5
 21
-0.5
 31
0.0
  0
LINE
  5
CF
330
9C
100
AcDbEntity
  8
0
  6
CONTINUOUS
 62
     0
100
AcDbLine
 10
0.5
 20
-0.5
 30
0.0
 11
-0.5
 21
-0.5
 31
0.0
  0
LINE
  5
D0
330
9C
100
AcDbEntity
  8
0
  6
CONTINUOUS
 62
     0
100
AcDbLine
 10
-0.5
 20
-0.5
 30
0.0
 11
-0.5
 21
0.5
 31
0.0
  0
ENDBLK
  5
9E
330
9C
100
AcDbEntity
  8
0
100
AcDbBlockEnd
  0
BLOCK
  5
A0
330
9F
100
AcDbEntity
  8
0
100
AcDbBlockBegin
  2
EX_INTEGRAL
 70
     0
 10
0.0
 20
0.0
 30
0.0
  3
EX_INTEGRAL
  1

  0
LINE
  5
D1
330
9F
100
AcDbEntity
  8
0
  6
CONTINUOUS
 62
     0
100
AcDbLine
 10
0.0
 20
0.0
 30
0.0
 11
-1.0
 21
0.0
 31
0.0
  0
ARC
  5
D2
330
9F
100
AcDbEntity
  8
0
  6
CONTINUOUS
 62
     0
100
AcDbCircle
 10
0.542115
 20
0.164992
 30
0.0
 40
0.56667
100
AcDbArc
 50
73.07249033629006
 51
196.9275130221199
  0
ARC
  5
D3
330
9F
100
AcDbEntity
  8
0
  6
CONTINUOUS
 62
     0
100
AcDbCircle
 10
-0.542115
 20
-0.164992
 30
0.0
 40
0.56667
100
AcDbArc
 50
253.0724869220464
 51
16.9275130559125
  0
ENDBLK
  5
A1
330
9F
100
AcDbEntity
  8
0
100
AcDbBlockEnd
  0
BLOCK
  5
36E
330
36D
100
AcDbEntity
  8
0
100
AcDbBlockBegin
  2
*D15
 70
     1
 10
0.0
 20
0.0
 30
0.0
  3
*D15
  1

  0
LINE
  5
370
330
36D
100
AcDbEntity
  8
LAY-20
  6
CONTINUOUS
 62
     4
100
AcDbLine
 10
312.099999999996
 20
121.0000000000101
 30
0.0
 11
312.099999999996
 21
86.00000000000801
 31
0.0
  0
LINE
  5
371
330
36D
100
AcDbEntity
  8
LAY-20
  6
CONTINUOUS
 62
     4
100
AcDbLine
 10
372.099999999996
 20
121.0000000000101
 30
0.0
 11
372.099999999996
 21
86.00000000000801
 31
0.0
  0
LINE
  5
372
330
36D
100
AcDbEntity
  8
LAY-20
  6
CONTINUOUS
 62
     4
100
AcDbLine
 10
317.099999999996
 20
89.00000000000801
 30
0.0
 11
367.099999999996
 21
89.00000000000801
 31
0.0
  0
INSERT
  5
373
330
36D
100
AcDbEntity
  8
LAY-20
 62
     4
100
AcDbBlockReference
  2
EX_BNORM
 10
312.099999999996
 20
89.00000000000801
 30
0.0
 41
5.0
 42
5.0
 43
5.0
 50
180.0
  0
INSERT
  5
374
330
36D
100
AcDbEntity
  8
LAY-20
 62
     4
100
AcDbBlockReference
  2
EX_BNORM
 10
372.099999999996
 20
89.00000000000801
 30
0.0
 41
5.0
 42
5.0
 43
5.0
  0
MTEXT
  5
375
330
36D
100
AcDbEntity
  8
LAY-20
 62
     7
100
AcDbMText
 10
342.099999999996
 20
94.00000000000801
 30
0.0
 40
6.2362208
 41
0.0
 71
     5
 72
     1
  1
%%c60
  7
EXCADDIM1
  0
POINT
  5
376
330
36D
100
AcDbEntity
  8
DEFPOINTS
 62
     0
100
AcDbPoint
 10
312.099999999996
 20
124.0000000000101
 30
0.0
  0
POINT
  5
377
330
36D
100
AcDbEntity
  8
DEFPOINTS
 62
     0
100
AcDbPoint
 10
372.099999999996
 20
124.0000000000101
 30
0.0
  0
POINT
  5
378
330
36D
100
AcDbEntity
  8
DEFPOINTS
 62
     0
100
AcDbPoint
 10
372.099999999996
 20
89.00000000000801
 30
0.0
  0
ENDBLK
  5
36F
330
36D
100
AcDbEntity
  8
0
100
AcDbBlockEnd
  0
BLOCK
  5
37B
330
37A
100
AcDbEntity
  8
0
100
AcDbBlockBegin
  2
*D16
 70
     1
 10
0.0
 20
0.0
 30
0.0
  3
*D16
  1

  0
LINE
  5
37D
330
37A
100
AcDbEntity
  8
LAY-20
  6
CONTINUOUS
 62
     4
100
AcDbLine
 10
310.599999999996
 20
161.0000000000101
 30
0.0
 11
310.599999999996
 21
72.00000000000801
 31
0.0
  0
LINE
  5
37E
330
37A
100
AcDbEntity
  8
LAY-20
  6
CONTINUOUS
 62
     4
100
AcDbLine
 10
373.599999999996
 20
161.0000000000101
 30
0.0
 11
373.599999999996
 21
72.00000000000801
 31
0.0
  0
LINE
  5
37F
330
37A
100
AcDbEntity
  8
LAY-20
  6
CONTINUOUS
 62
     4
100
AcDbLine
 10
315.599999999996
 20
75.00000000000801
 30
0.0
 11
368.599999999996
 21
75.00000000000801
 31
0.0
  0
INSERT
  5
380
330
37A
100
AcDbEntity
  8
LAY-20
 62
     4
100
AcDbBlockReference
  2
EX_BNORM
 10
310.599999999996
 20
75.00000000000801
 30
0.0
 41
5.0
 42
5.0
 43
5.0
 50
180.0
  0
INSERT
  5
381
330
37A
100
AcDbEntity
  8
LAY-20
 62
     4
100
AcDbBlockReference
  2
EX_BNORM
 10
373.599999999996
 20
75.00000000000801
 30
0.0
 41
5.0
 42
5.0
 43
5.0
  0
MTEXT
  5
382
330
37A
100
AcDbEntity
  8
LAY-20
 62
     7
100
AcDbMText
 10
342.099999999996
 20
80.00000000000801
 30
0.0
 40
6.2362208
 41
0.0
 71
     5
 72
     1
  1
%%c63
  7
EXCADDIM1
  0
POINT
  5
383
330
37A
100
AcDbEntity
  8
DEFPOINTS
 62
     0
100
AcDbPoint
 10
310.599999999996
 20
164.0000000000101
 30
0.0
  0
POINT
  5
384
330
37A
100
AcDbEntity
  8
DEFPOINTS
 62
     0
100
AcDbPoint
 10
373.599999999996
 20
164.0000000000101
 30
0.0
  0
POINT
  5
385
330
37A
100
AcDbEntity
  8
DEFPOINTS
 62
     0
100
AcDbPoint
 10
373.599999999996
 20
75.00000000000801
 30
0.0
  0
ENDBLK
  5
37C
330
37A
100
AcDbEntity
  8
0
100
AcDbBlockEnd
  0
BLOCK
  5
388
330
387
100
AcDbEntity
  8
0
100
AcDbBlockBegin
  2
*D17
 70
     1
 10
0.0
 20
0.0
 30
0.0
  3
*D17
  1

  0
LINE
  5
38A
330
387
100
AcDbEntity
  8
LAY-20
  6
CONTINUOUS
 62
     4
100
AcDbLine
 10
294.599999999996
 20
164.87488663527
 30
0.0
 11
236.599999999996
 21
164.87488663527
 31
0.0
  0
LINE
  5
38B
330
387
100
AcDbEntity
  8
LAY-20
  6
CONTINUOUS
 62
     4
100
AcDbLine
 10
257.599999999996
 20
189.00000000001
 30
0.0
 11
236.599999999996
 21
189.00000000001
 31
0.0
  0
LINE
  5
38C
330
387
100
AcDbEntity
  8
LAY-20
  6
CONTINUOUS
 62
     4
100
AcDbLine
 10
239.599999999996
 20
169.87488663527
 30
0.0
 11
239.599999999996
 21
184.00000000001
 31
0.0
  0
INSERT
  5
38D
330
387
100
AcDbEntity
  8
LAY-20
 62
     4
100
AcDbBlockReference
  2
EX_BNORM
 10
239.599999999996
 20
164.87488663527
 30
0.0
 41
5.0
 42
5.0
 43
5.0
 50
270.0
  0
INSERT
  5
38E
330
387
100
AcDbEntity
  8
LAY-20
 62
     4
100
AcDbBlockReference
  2
EX_BNORM
 10
239.599999999996
 20
189.00000000001
 30
0.0
 41
5.0
 42
5.0
 43
5.0
 50
90.0
  0
MTEXT
  5
38F
330
387
100
AcDbEntity
  8
LAY-20
 62
     7
100
AcDbMText
 10
234.599999999996
 20
176.93744331764
 30
0.0
 40
6.2362208
 41
0.0
 71
     5
 72
     1
  1
24
  7
EXCADDIM1
 11
0.0
 21
1.0
 31
0.0
  0
POINT
  5
390
330
387
100
AcDbEntity
  8
DEFPOINTS
 62
     0
100
AcDbPoint
 10
297.599999999996
 20
164.87488663527
 30
0.0
  0
POINT
  5
391
330
387
100
AcDbEntity
  8
DEFPOINTS
 62
     0
100
AcDbPoint
 10
260.599999999996
 20
189.00000000001
 30
0.0
  0
POINT
  5
392
330
387
100
AcDbEntity
  8
DEFPOINTS
 62
     0
100
AcDbPoint
 10
239.599999999996
 20
189.00000000001
 30
0.0
  0
ENDBLK
  5
389
330
387
100
AcDbEntity
  8
0
100
AcDbBlockEnd
  0
BLOCK
  5
395
330
394
100
AcDbEntity
  8
0
100
AcDbBlockBegin
  2
*D18
 70
     1
 10
0.0
 20
0.0
 30
0.0
  3
*D18
  1

  0
LINE
  5
397
330
394
100
AcDbEntity
  8
LAY-20
  6
CONTINUOUS
 62
     4
100
AcDbLine
 10
259.599999999996
 20
184.99999999998
 30
0.0
 11
259.599999999996
 21
311.0
 31
0.0
  0
LINE
  5
398
330
394
100
AcDbEntity
  8
LAY-20
  6
CONTINUOUS
 62
     4
100
AcDbLine
 10
424.6
 20
185.0000000000101
 30
0.0
 11
424.6
 21
311.0
 31
0.0
  0
LINE
  5
399
330
394
100
AcDbEntity
  8
LAY-20
  6
CONTINUOUS
 62
     4
100
AcDbLine
 10
264.599999999996
 20
308.0
 30
0.0
 11
419.6
 21
308.0
 31
0.0
  0
INSERT
  5
39A
330
394
100
AcDbEntity
  8
LAY-20
 62
     4
100
AcDbBlockReference
  2
EX_BNORM
 10
259.599999999996
 20
308.0
 30
0.0
 41
5.0
 42
5.0
 43
5.0
 50
180.0
  0
INSERT
  5
39B
330
394
100
AcDbEntity
  8
LAY-20
 62
     4
100
AcDbBlockReference
  2
EX_BNORM
 10
424.6
 20
308.0
 30
0.0
 41
5.0
 42
5.0
 43
5.0
  0
MTEXT
  5
39C
330
394
100
AcDbEntity
  8
LAY-20
 62
     7
100
AcDbMText
 10
342.099999999998
 20
313.0
 30
0.0
 40
6.2362208
 41
0.0
 71
     5
 72
     1
  1
%%c165
  7
EXCADDIM1
  0
POINT
  5
39D
330
394
100
AcDbEntity
  8
DEFPOINTS
 62
     0
100
AcDbPoint
 10
259.599999999996
 20
181.99999999998
 30
0.0
  0
POINT
  5
39E
330
394
100
AcDbEntity
  8
DEFPOINTS
 62
     0
100
AcDbPoint
 10
424.6
 20
182.0000000000101
 30
0.0
  0
POINT
  5
39F
330
394
100
AcDbEntity
  8
DEFPOINTS
 62
     0
100
AcDbPoint
 10
424.6
 20
308.0
 30
0.0
  0
ENDBLK
  5
396
330
394
100
AcDbEntity
  8
0
100
AcDbBlockEnd
  0
BLOCK
  5
3A2
330
3A1
100
AcDbEntity
  8
0
100
AcDbBlockBegin
  2
*D19
 70
     1
 10
0.0
 20
0.0
 30
0.0
  3
*D19
  1

  0
LINE
  5
3A4
330
3A1
100
AcDbEntity
  8
LAY-20
  6
CONTINUOUS
 62
     4
100
AcDbLine
 10
405.599999999998
 20
192.00000000001
 30
0.0
 11
405.599999999998
 21
297.0000000000001
 31
0.0
  0
LINE
  5
3A5
330
3A1
100
AcDbEntity
  8
LAY-20
  6
CONTINUOUS
 62
     4
100
AcDbLine
 10
278.600000000006
 20
192.00000000001
 30
0.0
 11
278.600000000006
 21
297.0000000000001
 31
0.0
  0
LINE
  5
3A6
330
3A1
100
AcDbEntity
  8
LAY-20
  6
CONTINUOUS
 62
     4
100
AcDbLine
 10
400.599999999998
 20
294.0
 30
0.0
 11
283.600000000006
 21
294.0
 31
0.0
  0
INSERT
  5
3A7
330
3A1
100
AcDbEntity
  8
LAY-20
 62
     4
100
AcDbBlockReference
  2
EX_BNORM
 10
405.599999999998
 20
294.0
 30
0.0
 41
5.0
 42
5.0
 43
5.0
  0
INSERT
  5
3A8
330
3A1
100
AcDbEntity
  8
LAY-20
 62
     4
100
AcDbBlockReference
  2
EX_BNORM
 10
278.600000000006
 20
294.0
 30
0.0
 41
5.0
 42
5.0
 43
5.0
 50
180.0
  0
MTEXT
  5
3A9
330
3A1
100
AcDbEntity
  8
LAY-20
 62
     7
100
AcDbMText
 10
342.1000000000021
 20
298.9999999999999
 30
0.0
 40
6.2362208
 41
0.0
 71
     5
 72
     1
  1
%%c127
  7
EXCADDIM1
  0
POINT
  5
3AA
330
3A1
100
AcDbEntity
  8
DEFPOINTS
 62
     0
100
AcDbPoint
 10
405.599999999998
 20
189.00000000001
 30
0.0
  0
POINT
  5
3AB
330
3A1
100
AcDbEntity
  8
DEFPOINTS
 62
     0
100
AcDbPoint
 10
278.600000000006
 20
189.00000000001
 30
0.0
  0
POINT
  5
3AC
330
3A1
100
AcDbEntity
  8
DEFPOINTS
 62
     0
100
AcDbPoint
 10
278.600000000006
 20
294.0
 30
0.0
  0
ENDBLK
  5
3A3
330
3A1
100
AcDbEntity
  8
0
100
AcDbBlockEnd
  0
BLOCK
  5
3AF
330
3AE
100
AcDbEntity
  8
0
100
AcDbBlockBegin
  2
*D20
 70
     1
 10
0.0
 20
0.0
 30
0.0
  3
*D20
  1

  0
LINE
  5
3B1
330
3AE
100
AcDbEntity
  8
LAY-20
  6
CONTINUOUS
 62
     4
100
AcDbLine
 10
302.62203311825
 20
249.00000000001
 30
0.0
 11
302.62203311825
 21
269.00000000001
 31
0.0
  0
LINE
  5
3B2
330
3AE
100
AcDbEntity
  8
LAY-20
  6
CONTINUOUS
 62
     4
100
AcDbLine
 10
381.57796688174
 20
249.00000000001
 30
0.0
 11
381.57796688174
 21
269.00000000001
 31
0.0
  0
LINE
  5
3B3
330
3AE
100
AcDbEntity
  8
LAY-20
  6
CONTINUOUS
 62
     4
100
AcDbLine
 10
307.62203311825
 20
266.00000000001
 30
0.0
 11
376.57796688174
 21
266.00000000001
 31
0.0
  0
INSERT
  5
3B4
330
3AE
100
AcDbEntity
  8
LAY-20
 62
     4
100
AcDbBlockReference
  2
EX_BNORM
 10
302.62203311825
 20
266.00000000001
 30
0.0
 41
5.0
 42
5.0
 43
5.0
 50
180.0
  0
INSERT
  5
3B5
330
3AE
100
AcDbEntity
  8
LAY-20
 62
     4
100
AcDbBlockReference
  2
EX_BNORM
 10
381.57796688174
 20
266.00000000001
 30
0.0
 41
5.0
 42
5.0
 43
5.0
  0
MTEXT
  5
3B6
330
3AE
100
AcDbEntity
  8
LAY-20
 62
     7
100
AcDbMText
 10
342.099999999995
 20
271.00000000001
 30
0.0
 40
6.2362208
 41
0.0
 71
     5
 72
     1
  1
%%c79
  7
EXCADDIM1
  0
POINT
  5
3B7
330
3AE
100
AcDbEntity
  8
DEFPOINTS
 62
     0
100
AcDbPoint
 10
302.62203311825
 20
246.00000000001
 30
0.0
  0
POINT
  5
3B8
330
3AE
100
AcDbEntity
  8
DEFPOINTS
 62
     0
100
AcDbPoint
 10
381.57796688174
 20
246.00000000001
 30
0.0
  0
POINT
  5
3B9
330
3AE
100
AcDbEntity
  8
DEFPOINTS
 62
     0
100
AcDbPoint
 10
381.57796688174
 20
266.00000000001
 30
0.0
  0
ENDBLK
  5
3B0
330
3AE
100
AcDbEntity
  8
0
100
AcDbBlockEnd
  0
BLOCK
  5
3BC
330
3BB
100
AcDbEntity
  8
0
100
AcDbBlockBegin
  2
*D21
 70
     1
 10
0.0
 20
0.0
 30
0.0
  3
*D21
  1

  0
LINE
  5
3BE
330
3BB
100
AcDbEntity
  8
LAY-20
  6
CONTINUOUS
 62
     4
100
AcDbLine
 10
403.1
 20
189.00000000001
 30
0.0
 11
403.1
 21
283.0
 31
0.0
  0
LINE
  5
3BF
330
3BB
100
AcDbEntity
  8
LAY-20
  6
CONTINUOUS
 62
     4
100
AcDbLine
 10
281.1
 20
189.00000000001
 30
0.0
 11
281.1
 21
283.0
 31
0.0
  0
LINE
  5
3C0
330
3BB
100
AcDbEntity
  8
LAY-20
  6
CONTINUOUS
 62
     4
100
AcDbLine
 10
398.1
 20
280.0
 30
0.0
 11
286.1
 21
280.0
 31
0.0
  0
INSERT
  5
3C1
330
3BB
100
AcDbEntity
  8
LAY-20
 62
     4
100
AcDbBlockReference
  2
EX_BNORM
 10
403.1
 20
280.0
 30
0.0
 41
5.0
 42
5.0
 43
5.0
  0
INSERT
  5
3C2
330
3BB
100
AcDbEntity
  8
LAY-20
 62
     4
100
AcDbBlockReference
  2
EX_BNORM
 10
281.1
 20
280.0
 30
0.0
 41
5.0
 42
5.0
 43
5.0
 50
180.0
  0
MTEXT
  5
3C3
330
3BB
100
AcDbEntity
  8
LAY-20
 62
     7
100
AcDbMText
 10
342.1
 20
285.0
 30
0.0
 40
6.2362208
 41
0.0
 71
     5
 72
     1
  1
%%c122
  7
EXCADDIM1
  0
POINT
  5
3C4
330
3BB
100
AcDbEntity
  8
DEFPOINTS
 62
     0
100
AcDbPoint
 10
403.1
 20
186.00000000001
 30
0.0
  0
POINT
  5
3C5
330
3BB
100
AcDbEntity
  8
DEFPOINTS
 62
     0
100
AcDbPoint
 10
281.1
 20
186.00000000001
 30
0.0
  0
POINT
  5
3C6
330
3BB
100
AcDbEntity
  8
DEFPOINTS
 62
     0
100
AcDbPoint
 10
281.1
 20
280.0
 30
0.0
  0
ENDBLK
  5
3BD
330
3BB
100
AcDbEntity
  8
0
100
AcDbBlockEnd
  0
BLOCK
  5
3C9
330
3C8
100
AcDbEntity
  8
0
100
AcDbBlockBegin
  2
*D22
 70
     1
 10
0.0
 20
0.0
 30
0.0
  3
*D22
  1

  0
LINE
  5
3CB
330
3C8
100
AcDbEntity
  8
LAY-20
  6
CONTINUOUS
 62
     4
100
AcDbLine
 10
426.6
 20
189.00000000001
 30
0.0
 11
453.10000000002
 21
189.00000000001
 31
0.0
  0
LINE
  5
3CC
330
3C8
100
AcDbEntity
  8
LAY-20
  6
CONTINUOUS
 62
     4
100
AcDbLine
 10
389.6
 20
109.00000000001
 30
0.0
 11
453.10000000002
 21
109.00000000001
 31
0.0
  0
LINE
  5
3CD
330
3C8
100
AcDbEntity
  8
LAY-20
  6
CONTINUOUS
 62
     4
100
AcDbLine
 10
450.10000000002
 20
184.00000000001
 30
0.0
 11
450.10000000002
 21
114.00000000001
 31
0.0
  0
INSERT
  5
3CE
330
3C8
100
AcDbEntity
  8
LAY-20
 62
     4
100
AcDbBlockReference
  2
EX_BNORM
 10
450.10000000002
 20
189.00000000001
 30
0.0
 41
5.0
 42
5.0
 43
5.0
 50
90.0
  0
INSERT
  5
3CF
330
3C8
100
AcDbEntity
  8
LAY-20
 62
     4
100
AcDbBlockReference
  2
EX_BNORM
 10
450.10000000002
 20
109.00000000001
 30
0.0
 41
5.0
 42
5.0
 43
5.0
 50
270.0
  0
MTEXT
  5
3D0
330
3C8
100
AcDbEntity
  8
LAY-20
 62
     7
100
AcDbMText
 10
445.10000000002
 20
149.00000000001
 30
0.0
 40
6.2362208
 41
0.0
 71
     5
 72
     1
  1
80
  7
EXCADDIM1
 11
0.0
 21
1.0
 31
0.0
  0
POINT
  5
3D1
330
3C8
100
AcDbEntity
  8
DEFPOINTS
 62
     0
100
AcDbPoint
 10
423.6
 20
189.00000000001
 30
0.0
  0
POINT
  5
3D2
330
3C8
100
AcDbEntity
  8
DEFPOINTS
 62
     0
100
AcDbPoint
 10
386.6
 20
109.00000000001
 30
0.0
  0
POINT
  5
3D3
330
3C8
100
AcDbEntity
  8
DEFPOINTS
 62
     0
100
AcDbPoint
 10
450.10000000002
 20
109.00000000001
 30
0.0
  0
ENDBLK
  5
3CA
330
3C8
100
AcDbEntity
  8
0
100
AcDbBlockEnd
  0
BLOCK
  5
3D6
330
3D5
100
AcDbEntity
  8
0
100
AcDbBlockBegin
  2
*D23
 70
     1
 10
0.0
 20
0.0
 30
0.0
  3
*D23
  1

  0
LINE
  5
3D8
330
3D5
100
AcDbEntity
  8
LAY-20
  6
CONTINUOUS
 62
     4
100
AcDbLine
 10
388.6
 20
246.00000000001
 30
0.0
 11
453.10000000002
 21
246.00000000001
 31
0.0
  0
LINE
  5
3D9
330
3D5
100
AcDbEntity
  8
LAY-20
  6
CONTINUOUS
 62
     4
100
AcDbLine
 10
450.10000000002
 20
241.00000000001
 30
0.0
 11
450.10000000002
 21
194.00000000001
 31
0.0
  0
INSERT
  5
3DA
330
3D5
100
AcDbEntity
  8
LAY-20
 62
     4
100
AcDbBlockReference
  2
EX_BNORM
 10
450.10000000002
 20
246.00000000001
 30
0.0
 41
5.0
 42
5.0
 43
5.0
 50
90.0
  0
INSERT
  5
3DB
330
3D5
100
AcDbEntity
  8
LAY-20
 62
     4
100
AcDbBlockReference
  2
EX_BNORM
 10
450.10000000002
 20
189.00000000001
 30
0.0
 41
5.0
 42
5.0
 43
5.0
 50
270.0
  0
MTEXT
  5
3DC
330
3D5
100
AcDbEntity
  8
LAY-20
 62
     7
100
AcDbMText
 10
445.10000000002
 20
217.50000000001
 30
0.0
 40
6.2362208
 41
0.0
 71
     5
 72
     1
  1
57
  7
EXCADDIM1
 11
0.0
 21
1.0
 31
0.0
  0
POINT
  5
3DD
330
3D5
100
AcDbEntity
  8
DEFPOINTS
 62
     0
100
AcDbPoint
 10
385.6
 20
246.00000000001
 30
0.0
  0
POINT
  5
3DE
330
3D5
100
AcDbEntity
  8
DEFPOINTS
 62
     0
100
AcDbPoint
 10
450.10000000002
 20
189.00000000001
 30
0.0
  0
POINT
  5
3DF
330
3D5
100
AcDbEntity
  8
DEFPOINTS
 62
     0
100
AcDbPoint
 10
450.10000000002
 20
189.00000000001
 30
0.0
  0
ENDBLK
  5
3D7
330
3D5
100
AcDbEntity
  8
0
100
AcDbBlockEnd
  0
ENDSEC
  0
SECTION
  2
ENTITIES
  0
LINE
  5
D4
330
1F
100
AcDbEntity
  8
LAY-10
  6
CONTINUOUS
 62
     7
100
AcDbLine
 10
297.5999999999999
 20
162.7401153701896
 30
0.0
 11
299.7347712650826
 21
164.8748866352723
 31
0.0
  0
LINE
  5
D5
330
1F
100
AcDbEntity
  8
LAY-10
  6
CONTINUOUS
 62
     7
100
AcDbLine
 10
297.5999999999999
 20
159.9116882454434
 30
0.0
 11
300.600000000003
 21
162.9116882454464
 31
0.0
  0
LINE
  5
D6
330
1F
100
AcDbEntity
  8
LAY-10
  6
CONTINUOUS
 62
     7
100
AcDbLine
 10
297.5999999999999
 20
157.0832611206972
 30
0.0
 11
300.6000000000005
 21
160.0832611206977
 31
0.0
  0
LINE
  5
D7
330
1F
100
AcDbEntity
  8
LAY-10
  6
CONTINUOUS
 62
     7
100
AcDbLine
 10
297.6
 20
154.254833995951
 30
0.0
 11
300.600000000003
 21
157.2548339959541
 31
0.0
  0
LINE
  5
D8
330
1F
100
AcDbEntity
  8
LAY-10
  6
CONTINUOUS
 62
     7
100
AcDbLine
 10
297.5999999999999
 20
151.4264068712048
 30
0.0
 11
300.6000000000005
 21
154.4264068712053
 31
0.0
  0
LINE
  5
D9
330
1F
100
AcDbEntity
  8
LAY-10
  6
CONTINUOUS
 62
     7
100
AcDbLine
 10
297.5999999999999
 20
148.5979797464586
 30
0.0
 11
300.600000000003
 21
151.5979797464617
 31
0.0
  0
LINE
  5
DA
330
1F
100
AcDbEntity
  8
LAY-10
  6
CONTINUOUS
 62
     7
100
AcDbLine
 10
297.5999999999999
 20
145.7695526217124
 30
0.0
 11
300.6000000000005
 21
148.7695526217129
 31
0.0
  0
LINE
  5
DB
330
1F
100
AcDbEntity
  8
LAY-10
  6
CONTINUOUS
 62
     7
100
AcDbLine
 10
297.5999999999999
 20
142.9411254969663
 30
0.0
 11
300.600000000003
 21
145.9411254969693
 31
0.0
  0
LINE
  5
DC
330
1F
100
AcDbEntity
  8
LAY-10
  6
CONTINUOUS
 62
     7
100
AcDbLine
 10
297.6000000000025
 20
140.1126983722226
 30
0.0
 11
300.600000000003
 21
143.1126983722231
 31
0.0
  0
LINE
  5
DD
330
1F
100
AcDbEntity
  8
LAY-10
  6
CONTINUOUS
 62
     7
100
AcDbLine
 10
297.5999999999999
 20
137.2842712474739
 30
0.0
 11
300.600000000003
 21
140.284271247477
 31
0.0
  0
LINE
  5
DE
330
1F
100
AcDbEntity
  8
LAY-10
  6
CONTINUOUS
 62
     7
100
AcDbLine
 10
297.5999999999999
 20
134.4558441227277
 30
0.0
 11
300.600000000003
 21
137.4558441227308
 31
0.0
  0
LINE
  5
DF
330
1F
100
AcDbEntity
  8
LAY-10
  6
CONTINUOUS
 62
     7
100
AcDbLine
 10
297.5999999999999
 20
131.6274169979815
 30
0.0
 11
300.600000000003
 21
134.6274169979845
 31
0.0
  0
LINE
  5
E0
330
1F
100
AcDbEntity
  8
LAY-10
  6
CONTINUOUS
 62
     7
100
AcDbLine
 10
297.5999999999999
 20
128.7989898732353
 30
0.0
 11
300.600000000003
 21
131.7989898732384
 31
0.0
  0
LINE
  5
E1
330
1F
100
AcDbEntity
  8
LAY-10
  6
CONTINUOUS
 62
     7
100
AcDbLine
 10
297.6
 20
125.9705627484891
 30
0.0
 11
300.600000000003
 21
128.9705627484922
 31
0.0
  0
LINE
  5
E2
330
1F
100
AcDbEntity
  8
LAY-10
  6
CONTINUOUS
 62
     7
100
AcDbLine
 10
297.5999999999999
 20
123.1421356237429
 30
0.0
 11
300.600000000003
 21
126.142135623746
 31
0.0
  0
LINE
  5
E3
330
1F
100
AcDbEntity
  8
LAY-10
  6
CONTINUOUS
 62
     7
100
AcDbLine
 10
297.5999999999999
 20
120.3137084989967
 30
0.0
 11
300.600000000003
 21
123.3137084989998
 31
0.0
  0
LINE
  5
E4
330
1F
100
AcDbEntity
  8
LAY-10
  6
CONTINUOUS
 62
     7
100
AcDbLine
 10
297.5999999999999
 20
117.4852813742505
 30
0.0
 11
300.600000000003
 21
120.4852813742536
 31
0.0
  0
LINE
  5
E5
330
1F
100
AcDbEntity
  8
LAY-10
  6
CONTINUOUS
 62
     7
100
AcDbLine
 10
297.5999999999999
 20
114.6568542495044
 30
0.0
 11
300.600000000003
 21
117.6568542495074
 31
0.0
  0
LINE
  5
E6
330
1F
100
AcDbEntity
  8
LAY-10
  6
CONTINUOUS
 62
     7
100
AcDbLine
 10
297.5999999999999
 20
111.8284271247582
 30
0.0
 11
300.600000000003
 21
114.8284271247612
 31
0.0
  0
LINE
  5
E7
330
1F
100
AcDbEntity
  8
LAY-10
  6
CONTINUOUS
 62
     7
100
AcDbLine
 10
297.5999999999974
 20
109.0000000000094
 30
0.0
 11
300.600000000003
 21
112.0000000000151
 31
0.0
  0
LINE
  5
E8
330
1F
100
AcDbEntity
  8
LAY-10
  6
CONTINUOUS
 62
     7
100
AcDbLine
 10
300.428427124741
 20
109.0000000000068
 30
0.0
 11
300.600000000003
 21
109.1715728752689
 31
0.0
  0
LINE
  5
E9
330
1F
100
AcDbEntity
  8
LAY-10
  6
CONTINUOUS
 62
     7
100
AcDbLine
 10
383.5999999999995
 20
162.7401153701891
 30
0.0
 11
385.7347712650821
 21
164.8748866352718
 31
0.0
  0
LINE
  5
EA
330
1F
100
AcDbEntity
  8
LAY-10
  6
CONTINUOUS
 62
     7
100
AcDbLine
 10
383.599999999997
 20
159.9116882454404
 30
0.0
 11
386.6
 21
162.9116882454434
 31
0.0
  0
LINE
  5
EB
330
1F
100
AcDbEntity
  8
LAY-10
  6
CONTINUOUS
 62
     7
100
AcDbLine
 10
383.5999999999995
 20
157.0832611206967
 30
0.0
 11
386.5999999999974
 21
160.0832611206947
 31
0.0
  0
LINE
  5
EC
330
1F
100
AcDbEntity
  8
LAY-10
  6
CONTINUOUS
 62
     7
100
AcDbLine
 10
383.599999999997
 20
154.254833995948
 30
0.0
 11
386.5999999999974
 21
157.2548339959484
 31
0.0
  0
LINE
  5
ED
330
1F
100
AcDbEntity
  8
LAY-10
  6
CONTINUOUS
 62
     7
100
AcDbLine
 10
383.599999999997
 20
151.4264068712018
 30
0.0
 11
386.5999999999974
 21
154.4264068712023
 31
0.0
  0
LINE
  5
EE
330
1F
100
AcDbEntity
  8
LAY-10
  6
CONTINUOUS
 62
     7
100
AcDbLine
 10
383.599999999997
 20
148.5979797464556
 30
0.0
 11
386.5999999999974
 21
151.5979797464561
 31
0.0
  0
LINE
  5
EF
330
1F
100
AcDbEntity
  8
LAY-10
  6
CONTINUOUS
 62
     7
100
AcDbLine
 10
383.5999999999995
 20
145.769552621712
 30
0.0
 11
386.6
 21
148.7695526217125
 31
0.0
  0
LINE
  5
F0
330
1F
100
AcDbEntity
  8
LAY-10
  6
CONTINUOUS
 62
     7
100
AcDbLine
 10
383.5999999999995
 20
142.9411254969658
 30
0.0
 11
386.5999999999974
 21
145.9411254969637
 31
0.0
  0
LINE
  5
F1
330
1F
100
AcDbEntity
  8
LAY-10
  6
CONTINUOUS
 62
     7
100
AcDbLine
 10
383.5999999999995
 20
140.1126983722196
 30
0.0
 11
386.6
 21
143.1126983722201
 31
0.0
  0
LINE
  5
F2
330
1F
100
AcDbEntity
  8
LAY-10
  6
CONTINUOUS
 62
     7
100
AcDbLine
 10
383.5999999999995
 20
137.2842712474734
 30
0.0
 11
386.5999999999974
 21
140.2842712474713
 31
0.0
  0
LINE
  5
F3
330
1F
100
AcDbEntity
  8
LAY-10
  6
CONTINUOUS
 62
     7
100
AcDbLine
 10
383.5999999999995
 20
134.4558441227272
 30
0.0
 11
386.5999999999974
 21
137.4558441227251
 31
0.0
  0
LINE
  5
F4
330
1F
100
AcDbEntity
  8
LAY-10
  6
CONTINUOUS
 62
     7
100
AcDbLine
 10
383.599999999997
 20
131.6274169979785
 30
0.0
 11
386.5999999999974
 21
134.627416997979
 31
0.0
  0
LINE
  5
F5
330
1F
100
AcDbEntity
  8
LAY-10
  6
CONTINUOUS
 62
     7
100
AcDbLine
 10
383.5999999999995
 20
128.7989898732348
 30
0.0
 11
386.5999999999974
 21
131.7989898732328
 31
0.0
  0
LINE
  5
F6
330
1F
100
AcDbEntity
  8
LAY-10
  6
CONTINUOUS
 62
     7
100
AcDbLine
 10
383.599999999997
 20
125.9705627484861
 30
0.0
 11
386.5999999999974
 21
128.9705627484865
 31
0.0
  0
LINE
  5
F7
330
1F
100
AcDbEntity
  8
LAY-10
  6
CONTINUOUS
 62
     7
100
AcDbLine
 10
383.5999999999995
 20
123.1421356237424
 30
0.0
 11
386.5999999999974
 21
126.1421356237404
 31
0.0
  0
LINE
  5
F8
330
1F
100
AcDbEntity
  8
LAY-10
  6
CONTINUOUS
 62
     7
100
AcDbLine
 10
383.599999999997
 20
120.3137084989937
 30
0.0
 11
386.5999999999974
 21
123.3137084989942
 31
0.0
  0
LINE
  5
F9
330
1F
100
AcDbEntity
  8
LAY-10
  6
CONTINUOUS
 62
     7
100
AcDbLine
 10
383.5999999999995
 20
117.4852813742501
 30
0.0
 11
386.6
 21
120.4852813742506
 31
0.0
  0
LINE
  5
FA
330
1F
100
AcDbEntity
  8
LAY-10
  6
CONTINUOUS
 62
     7
100
AcDbLine
 10
383.5999999999995
 20
114.6568542495039
 30
0.0
 11
386.5999999999974
 21
117.6568542495018
 31
0.0
  0
LINE
  5
FB
330
1F
100
AcDbEntity
  8
LAY-10
  6
CONTINUOUS
 62
     7
100
AcDbLine
 10
383.599999999997
 20
111.8284271247551
 30
0.0
 11
386.6
 21
114.8284271247582
 31
0.0
  0
LINE
  5
FC
330
1F
100
AcDbEntity
  8
LAY-10
  6
CONTINUOUS
 62
     7
100
AcDbLine
 10
383.5999999999995
 20
109.0000000000115
 30
0.0
 11
386.5999999999974
 21
112.0000000000094
 31
0.0
  0
LINE
  5
FD
330
1F
100
AcDbEntity
  8
LAY-10
  6
CONTINUOUS
 62
     7
100
AcDbLine
 10
386.4284271247432
 20
109.0000000000089
 30
0.0
 11
386.6
 21
109.1715728752658
 31
0.0
  0
CIRCLE
  5
FE
330
1F
100
AcDbEntity
  8
LAY-10
  6
CONTINUOUS
 62
     7
100
AcDbCircle
 10
342.1000000000001
 20
419.9999999999981
 30
0.0
 40
82.50000000000011
  0
LINE
  5
FF
330
1F
100
AcDbEntity
  8
LAY-10
  6
CONTINUOUS
 62
     7
100
AcDbLine
 10
279.3052591607446
 20
425.9999999999982
 30
0.0
 11
279.8053032102606
 21
426.4999999999982
 31
0.0
  0
LINE
  5
100
330
1F
100
AcDbEntity
  8
LAY-10
  6
CONTINUOUS
 62
     7
100
AcDbLine
 10
279.3052591607446
 20
413.9999999999981
 30
0.0
 11
279.8053032102606
 21
413.4999999999981
 31
0.0
  0
ARC
  5
101
330
1F
100
AcDbEntity
  8
LAY-10
  6
CONTINUOUS
 62
     7
100
AcDbCircle
 10
342.1000000000001
 20
419.9999999999981
 30
0.0
 40
63.08073776573372
100
AcDbArc
 50
86.3643896228948
 51
93.63561037710544
  0
LINE
  5
102
330
1F
100
AcDbEntity
  8
LAY-10
  6
CONTINUOUS
 62
     7
100
AcDbLine
 10
346.5999999999999
 20
482.47102726965
 30
0.0
 11
346.1000000000001
 21
482.9537884250744
 31
0.0
  0
LINE
  5
103
330
1F
100
AcDbEntity
  8
LAY-10
  6
CONTINUOUS
 62
     7
100
AcDbLine
 10
337.6000000000004
 20
482.47102726965
 30
0.0
 11
338.1000000000001
 21
482.9537884250744
 31
0.0
  0
ARC
  5
104
330
1F
100
AcDbEntity
  8
LAY-10
  6
CONTINUOUS
 62
     7
100
AcDbCircle
 10
342.1000000000001
 20
419.9999999999981
 30
0.0
 40
62.63289270124426
100
AcDbArc
 50
94.12009305680789
 51
174.0431565669776
  0
LINE
  5
105
330
1F
100
AcDbEntity
  8
LAY-10
  6
CONTINUOUS
 62
     7
100
AcDbLine
 10
331.1428797115655
 20
482.3595319225113
 30
0.0
 11
330.3262258512609
 21
487.4805767780164
 31
0.0
  0
LINE
  5
106
330
1F
100
AcDbEntity
  8
LAY-10
  6
CONTINUOUS
 62
     7
100
AcDbLine
 10
331.4700787401576
 20
486.6577435412345
 30
0.0
 11
330.3262258512609
 21
487.4805767780164
 31
0.0
  0
LINE
  5
107
330
1F
100
AcDbEntity
  8
LAY-10
  6
CONTINUOUS
 62
     7
100
AcDbLine
 10
331.1428797115655
 20
482.3595319225113
 30
0.0
 11
332.1000000000001
 21
482.7076550350874
 31
0.0
  0
LINE
  5
108
330
1F
100
AcDbEntity
  8
LAY-10
  6
CONTINUOUS
 62
     7
100
AcDbLine
 10
331.6287431845822
 20
485.6627960165039
 30
0.0
 11
331.9437405360433
 21
483.6875214912646
 31
0.0
  0
LINE
  5
109
330
1F
100
AcDbEntity
  8
LAY-10
  6
CONTINUOUS
 62
     7
100
AcDbLine
 10
353.0571202884348
 20
482.3595319225113
 30
0.0
 11
353.8737741487394
 21
487.4805767780164
 31
0.0
  0
LINE
  5
10A
330
1F
100
AcDbEntity
  8
LAY-10
  6
CONTINUOUS
 62
     7
100
AcDbLine
 10
352.7299212598426
 20
486.6577435412345
 30
0.0
 11
353.8737741487394
 21
487.4805767780164
 31
0.0
  0
LINE
  5
10B
330
1F
100
AcDbEntity
  8
LAY-10
  6
CONTINUOUS
 62
     7
100
AcDbLine
 10
353.0571202884348
 20
482.3595319225113
 30
0.0
 11
352.1000000000001
 21
482.7076550350874
 31
0.0
  0
LINE
  5
10C
330
1F
100
AcDbEntity
  8
LAY-10
  6
CONTINUOUS
 62
     7
100
AcDbLine
 10
352.5712568154181
 20
485.662796016504
 30
0.0
 11
352.256259463957
 21
483.6875214912649
 31
0.0
  0
ARC
  5
10D
330
1F
100
AcDbEntity
  8
LAY-10
  6
CONTINUOUS
 62
     7
100
AcDbCircle
 10
342.1000000000005
 20
419.9999999999981
 30
0.0
 40
63.49999999999826
100
AcDbArc
 50
81.8276674188336
 51
98.17233258116693
  0
ARC
  5
10E
330
1F
100
AcDbEntity
  8
LAY-10
  6
CONTINUOUS
 62
     7
100
AcDbCircle
 10
342.1000000000005
 20
419.9999999999981
 30
0.0
 40
67.49999999999773
100
AcDbArc
 50
81.80094831327634
 51
98.19905168672423
  0
ARC
  5
10F
330
1F
100
AcDbEntity
  8
LAY-10
  6
CONTINUOUS
 62
     7
100
AcDbCircle
 10
342.1000000000005
 20
419.9999999999981
 30
0.0
 40
68.49999999999676
100
AcDbArc
 50
80.10286071873283
 51
99.89713928126788
  0
LINE
  5
110
330
1F
100
AcDbEntity
  8
LAY-10
  6
CONTINUOUS
 62
     7
100
AcDbLine
 10
301.4310895166371
 20
468.5263786687839
 30
0.0
 11
298.1633240997622
 21
472.5530066774186
 31
0.0
  0
LINE
  5
111
330
1F
100
AcDbEntity
  8
LAY-10
  6
CONTINUOUS
 62
     7
100
AcDbLine
 10
299.56534637813
 20
472.4123386357356
 30
0.0
 11
298.1633240997622
 21
472.5530066774186
 31
0.0
  0
LINE
  5
112
330
1F
100
AcDbEntity
  8
LAY-10
  6
CONTINUOUS
 62
     7
100
AcDbLine
 10
301.4310895166371
 20
468.5263786687839
 30
0.0
 11
302.085918444611
 21
469.3064222721367
 31
0.0
  0
LINE
  5
113
330
1F
100
AcDbEntity
  8
LAY-10
  6
CONTINUOUS
 62
     7
100
AcDbLine
 10
300.2002275800443
 20
471.6300210260987
 30
0.0
 11
301.460660551154
 21
470.076881783524
 31
0.0
  0
LINE
  5
114
330
1F
100
AcDbEntity
  8
LAY-10
  6
CONTINUOUS
 62
     7
100
AcDbLine
 10
320.4093785608497
 20
479.4834989572186
 30
0.0
 11
318.5560991222196
 21
484.3267808261578
 31
0.0
  0
LINE
  5
115
330
1F
100
AcDbEntity
  8
LAY-10
  6
CONTINUOUS
 62
     7
100
AcDbLine
 10
317.9769100806338
 20
483.0422598955781
 30
0.0
 11
318.5560991222196
 21
484.3267808261578
 31
0.0
  0
LINE
  5
116
330
1F
100
AcDbEntity
  8
LAY-10
  6
CONTINUOUS
 62
     7
100
AcDbLine
 10
320.4093785608497
 20
479.4834989572186
 30
0.0
 11
319.4064265202999
 21
479.3064222721367
 31
0.0
  0
LINE
  5
117
330
1F
100
AcDbEntity
  8
LAY-10
  6
CONTINUOUS
 62
     7
100
AcDbLine
 10
318.3369764034501
 20
482.1012778415169
 30
0.0
 11
319.0518179575795
 21
480.2331412474809
 31
0.0
  0
ARC
  5
118
330
1F
100
AcDbEntity
  8
LAY-10
  6
CONTINUOUS
 62
     7
100
AcDbCircle
 10
342.1000000000004
 20
419.9999999999983
 30
0.0
 40
63.49999999999826
100
AcDbArc
 50
111.8276674188337
 51
128.172332581167
  0
ARC
  5
119
330
1F
100
AcDbEntity
  8
LAY-10
  6
CONTINUOUS
 62
     7
100
AcDbCircle
 10
342.1000000000004
 20
419.9999999999983
 30
0.0
 40
67.49999999999773
100
AcDbArc
 50
111.8009483132765
 51
128.1990516867243
  0
ARC
  5
11A
330
1F
100
AcDbEntity
  8
LAY-10
  6
CONTINUOUS
 62
     7
100
AcDbCircle
 10
342.1000000000004
 20
419.9999999999983
 30
0.0
 40
68.49999999999676
100
AcDbArc
 50
110.1028607187329
 51
129.8971392812677
  0
ARC
  5
11B
330
1F
100
AcDbEntity
  8
LAY-10
  6
CONTINUOUS
 62
     7
100
AcDbCircle
 10
342.1000000000001
 20
419.9999999999981
 30
0.0
 40
63.31484586264244
100
AcDbArc
 50
99.96564681844411
 51
110.0343531815558
  0
LINE
  5
11C
330
1F
100
AcDbEntity
  8
LAY-10
  6
CONTINUOUS
 62
     7
100
AcDbLine
 10
282.6165010427796
 20
441.6906214391485
 30
0.0
 11
277.7732191738403
 21
443.5439008777786
 31
0.0
  0
LINE
  5
11D
330
1F
100
AcDbEntity
  8
LAY-10
  6
CONTINUOUS
 62
     7
100
AcDbLine
 10
279.0577401044201
 20
444.1230899193644
 30
0.0
 11
277.7732191738403
 21
443.5439008777786
 31
0.0
  0
LINE
  5
11E
330
1F
100
AcDbEntity
  8
LAY-10
  6
CONTINUOUS
 62
     7
100
AcDbLine
 10
282.6165010427796
 20
441.6906214391485
 30
0.0
 11
282.7935777278615
 21
442.6935734796983
 31
0.0
  0
LINE
  5
11F
330
1F
100
AcDbEntity
  8
LAY-10
  6
CONTINUOUS
 62
     7
100
AcDbLine
 10
279.9987221584814
 20
443.7630235965481
 30
0.0
 11
281.8668587525174
 21
443.0481820424186
 31
0.0
  0
LINE
  5
120
330
1F
100
AcDbEntity
  8
LAY-10
  6
CONTINUOUS
 62
     7
100
AcDbLine
 10
293.5736213312143
 20
460.6689104833609
 30
0.0
 11
289.5469933225795
 21
463.9366759002359
 31
0.0
  0
LINE
  5
121
330
1F
100
AcDbEntity
  8
LAY-10
  6
CONTINUOUS
 62
     7
100
AcDbLine
 10
289.6876613642626
 20
462.5346536218682
 30
0.0
 11
289.5469933225795
 21
463.9366759002359
 31
0.0
  0
LINE
  5
122
330
1F
100
AcDbEntity
  8
LAY-10
  6
CONTINUOUS
 62
     7
100
AcDbLine
 10
293.5736213312143
 20
460.6689104833609
 30
0.0
 11
292.7935777278615
 21
460.0140815553872
 31
0.0
  0
LINE
  5
123
330
1F
100
AcDbEntity
  8
LAY-10
  6
CONTINUOUS
 62
     7
100
AcDbLine
 10
290.4699789738993
 20
461.8997724199539
 30
0.0
 11
292.0231182164741
 21
460.6393394488442
 31
0.0
  0
ARC
  5
124
330
1F
100
AcDbEntity
  8
LAY-10
  6
CONTINUOUS
 62
     7
100
AcDbCircle
 10
342.1000000000004
 20
419.9999999999983
 30
0.0
 40
63.49999999999826
100
AcDbArc
 50
141.8276674188339
 51
158.172332581167
  0
ARC
  5
125
330
1F
100
AcDbEntity
  8
LAY-10
  6
CONTINUOUS
 62
     7
100
AcDbCircle
 10
342.1000000000004
 20
419.9999999999983
 30
0.0
 40
67.49999999999773
100
AcDbArc
 50
141.8009483132766
 51
158.1990516867241
  0
ARC
  5
126
330
1F
100
AcDbEntity
  8
LAY-10
  6
CONTINUOUS
 62
     7
100
AcDbCircle
 10
342.1000000000004
 20
419.9999999999983
 30
0.0
 40
68.49999999999676
100
AcDbArc
 50
140.1028607187328
 51
159.8971392812676
  0
ARC
  5
127
330
1F
100
AcDbEntity
  8
LAY-10
  6
CONTINUOUS
 62
     7
100
AcDbCircle
 10
342.1000000000001
 20
419.9999999999981
 30
0.0
 40
63.31484586264244
100
AcDbArc
 50
129.9656468184444
 51
140.034353181556
  0
LINE
  5
128
330
1F
100
AcDbEntity
  8
LAY-10
  6
CONTINUOUS
 62
     7
100
AcDbLine
 10
279.7404680774869
 20
409.0428797115634
 30
0.0
 11
274.6194232219818
 21
408.2262258512588
 31
0.0
  0
LINE
  5
129
330
1F
100
AcDbEntity
  8
LAY-10
  6
CONTINUOUS
 62
     7
100
AcDbLine
 10
275.4422564587637
 20
409.3700787401556
 30
0.0
 11
274.6194232219818
 21
408.2262258512588
 31
0.0
  0
LINE
  5
12A
330
1F
100
AcDbEntity
  8
LAY-10
  6
CONTINUOUS
 62
     7
100
AcDbLine
 10
279.7404680774869
 20
409.0428797115634
 30
0.0
 11
279.3923449649108
 21
409.9999999999981
 31
0.0
  0
LINE
  5
12B
330
1F
100
AcDbEntity
  8
LAY-10
  6
CONTINUOUS
 62
     7
100
AcDbLine
 10
276.4372039834943
 20
409.5287431845801
 30
0.0
 11
278.4124785087336
 21
409.8437405360412
 31
0.0
  0
LINE
  5
12C
330
1F
100
AcDbEntity
  8
LAY-10
  6
CONTINUOUS
 62
     7
100
AcDbLine
 10
279.7404680774869
 20
430.9571202884327
 30
0.0
 11
274.6194232219818
 21
431.7737741487373
 31
0.0
  0
LINE
  5
12D
330
1F
100
AcDbEntity
  8
LAY-10
  6
CONTINUOUS
 62
     7
100
AcDbLine
 10
275.4422564587637
 20
430.6299212598406
 30
0.0
 11
274.6194232219818
 21
431.7737741487373
 31
0.0
  0
LINE
  5
12E
330
1F
100
AcDbEntity
  8
LAY-10
  6
CONTINUOUS
 62
     7
100
AcDbLine
 10
279.7404680774869
 20
430.9571202884327
 30
0.0
 11
279.3923449649108
 21
429.9999999999981
 31
0.0
  0
LINE
  5
12F
330
1F
100
AcDbEntity
  8
LAY-10
  6
CONTINUOUS
 62
     7
100
AcDbLine
 10
276.4372039834942
 20
430.471256815416
 30
0.0
 11
278.4124785087333
 21
430.1562594639549
 31
0.0
  0
ARC
  5
130
330
1F
100
AcDbEntity
  8
LAY-10
  6
CONTINUOUS
 62
     7
100
AcDbCircle
 10
342.1000000000001
 20
419.9999999999984
 30
0.0
 40
63.49999999999826
100
AcDbArc
 50
171.8276674188338
 51
188.1723325811668
  0
ARC
  5
131
330
1F
100
AcDbEntity
  8
LAY-10
  6
CONTINUOUS
 62
     7
100
AcDbCircle
 10
342.1000000000001
 20
419.9999999999984
 30
0.0
 40
67.49999999999773
100
AcDbArc
 50
171.8009483132766
 51
188.1990516867242
  0
ARC
  5
132
330
1F
100
AcDbEntity
  8
LAY-10
  6
CONTINUOUS
 62
     7
100
AcDbCircle
 10
342.1000000000001
 20
419.9999999999984
 30
0.0
 40
68.49999999999676
100
AcDbArc
 50
170.1028607187327
 51
189.8971392812677
  0
ARC
  5
133
330
1F
100
AcDbEntity
  8
LAY-10
  6
CONTINUOUS
 62
     7
100
AcDbCircle
 10
342.1000000000001
 20
419.9999999999981
 30
0.0
 40
63.31484586264244
100
AcDbArc
 50
159.9656468184441
 51
170.0343531815559
  0
LINE
  5
134
330
1F
100
AcDbEntity
  8
LAY-10
  6
CONTINUOUS
 62
     7
100
AcDbLine
 10
301.4310895166371
 20
371.4736213312123
 30
0.0
 11
298.1633240997622
 21
367.4469933225776
 31
0.0
  0
LINE
  5
135
330
1F
100
AcDbEntity
  8
LAY-10
  6
CONTINUOUS
 62
     7
100
AcDbLine
 10
299.56534637813
 20
367.5876613642605
 30
0.0
 11
298.1633240997622
 21
367.4469933225776
 31
0.0
  0
LINE
  5
136
330
1F
100
AcDbEntity
  8
LAY-10
  6
CONTINUOUS
 62
     7
100
AcDbLine
 10
301.4310895166371
 20
371.4736213312123
 30
0.0
 11
302.085918444611
 21
370.6935777278594
 31
0.0
  0
LINE
  5
137
330
1F
100
AcDbEntity
  8
LAY-10
  6
CONTINUOUS
 62
     7
100
AcDbLine
 10
300.2002275800443
 20
368.3699789738974
 30
0.0
 11
301.460660551154
 21
369.9231182164722
 31
0.0
  0
LINE
  5
138
330
1F
100
AcDbEntity
  8
LAY-10
  6
CONTINUOUS
 62
     7
100
AcDbLine
 10
320.4093785608497
 20
360.5165010427776
 30
0.0
 11
318.5560991222196
 21
355.6732191738383
 31
0.0
  0
LINE
  5
139
330
1F
100
AcDbEntity
  8
LAY-10
  6
CONTINUOUS
 62
     7
100
AcDbLine
 10
317.9769100806338
 20
356.957740104418
 30
0.0
 11
318.5560991222196
 21
355.6732191738383
 31
0.0
  0
LINE
  5
13A
330
1F
100
AcDbEntity
  8
LAY-10
  6
CONTINUOUS
 62
     7
100
AcDbLine
 10
320.4093785608497
 20
360.5165010427776
 30
0.0
 11
319.4064265202998
 21
360.6935777278594
 31
0.0
  0
LINE
  5
13B
330
1F
100
AcDbEntity
  8
LAY-10
  6
CONTINUOUS
 62
     7
100
AcDbLine
 10
318.3369764034501
 20
357.8987221584792
 30
0.0
 11
319.0518179575795
 21
359.7668587525152
 31
0.0
  0
ARC
  5
13C
330
1F
100
AcDbEntity
  8
LAY-10
  6
CONTINUOUS
 62
     7
100
AcDbCircle
 10
342.1000000000004
 20
419.9999999999978
 30
0.0
 40
63.49999999999826
100
AcDbArc
 50
231.8276674188332
 51
248.1723325811665
  0
ARC
  5
13D
330
1F
100
AcDbEntity
  8
LAY-10
  6
CONTINUOUS
 62
     7
100
AcDbCircle
 10
342.1000000000004
 20
419.9999999999978
 30
0.0
 40
67.49999999999773
100
AcDbArc
 50
231.8009483132757
 51
248.1990516867237
  0
ARC
  5
13E
330
1F
100
AcDbEntity
  8
LAY-10
  6
CONTINUOUS
 62
     7
100
AcDbCircle
 10
342.1000000000004
 20
419.9999999999978
 30
0.0
 40
68.49999999999676
100
AcDbArc
 50
230.1028607187322
 51
249.8971392812672
  0
LINE
  5
13F
330
1F
100
AcDbEntity
  8
LAY-10
  6
CONTINUOUS
 62
     7
100
AcDbLine
 10
282.6165010427796
 20
398.3093785608477
 30
0.0
 11
277.7732191738403
 21
396.4560991222176
 31
0.0
  0
LINE
  5
140
330
1F
100
AcDbEntity
  8
LAY-10
  6
CONTINUOUS
 62
     7
100
AcDbLine
 10
279.0577401044201
 20
395.8769100806318
 30
0.0
 11
277.7732191738403
 21
396.4560991222176
 31
0.0
  0
LINE
  5
141
330
1F
100
AcDbEntity
  8
LAY-10
  6
CONTINUOUS
 62
     7
100
AcDbLine
 10
282.6165010427796
 20
398.3093785608477
 30
0.0
 11
282.7935777278615
 21
397.3064265202978
 31
0.0
  0
LINE
  5
142
330
1F
100
AcDbEntity
  8
LAY-10
  6
CONTINUOUS
 62
     7
100
AcDbLine
 10
279.9987221584814
 20
396.236976403448
 30
0.0
 11
281.8668587525174
 21
396.9518179575775
 31
0.0
  0
LINE
  5
143
330
1F
100
AcDbEntity
  8
LAY-10
  6
CONTINUOUS
 62
     7
100
AcDbLine
 10
293.5736213312143
 20
379.3310895166352
 30
0.0
 11
289.5469933225795
 21
376.0633240997603
 31
0.0
  0
LINE
  5
144
330
1F
100
AcDbEntity
  8
LAY-10
  6
CONTINUOUS
 62
     7
100
AcDbLine
 10
289.6876613642626
 20
377.4653463781279
 30
0.0
 11
289.5469933225795
 21
376.0633240997603
 31
0.0
  0
LINE
  5
145
330
1F
100
AcDbEntity
  8
LAY-10
  6
CONTINUOUS
 62
     7
100
AcDbLine
 10
293.5736213312143
 20
379.3310895166352
 30
0.0
 11
292.7935777278615
 21
379.985918444609
 31
0.0
  0
LINE
  5
146
330
1F
100
AcDbEntity
  8
LAY-10
  6
CONTINUOUS
 62
     7
100
AcDbLine
 10
290.4699789738993
 20
378.1002275800422
 30
0.0
 11
292.0231182164741
 21
379.3606605511519
 31
0.0
  0
ARC
  5
147
330
1F
100
AcDbEntity
  8
LAY-10
  6
CONTINUOUS
 62
     7
100
AcDbCircle
 10
342.1000000000004
 20
419.9999999999978
 30
0.0
 40
63.49999999999826
100
AcDbArc
 50
201.8276674188331
 51
218.1723325811663
  0
ARC
  5
148
330
1F
100
AcDbEntity
  8
LAY-10
  6
CONTINUOUS
 62
     7
100
AcDbCircle
 10
342.1000000000004
 20
419.9999999999978
 30
0.0
 40
67.49999999999773
100
AcDbArc
 50
201.8009483132759
 51
218.1990516867237
  0
ARC
  5
149
330
1F
100
AcDbEntity
  8
LAY-10
  6
CONTINUOUS
 62
     7
100
AcDbCircle
 10
342.1000000000004
 20
419.9999999999978
 30
0.0
 40
68.49999999999676
100
AcDbArc
 50
200.1028607187325
 51
219.8971392812671
  0
ARC
  5
14A
330
1F
100
AcDbEntity
  8
LAY-10
  6
CONTINUOUS
 62
     7
100
AcDbCircle
 10
342.1000000000001
 20
419.9999999999981
 30
0.0
 40
63.31484586264244
100
AcDbArc
 50
219.9656468184442
 51
230.0343531815558
  0
ARC
  5
14B
330
1F
100
AcDbEntity
  8
LAY-10
  6
CONTINUOUS
 62
     7
100
AcDbCircle
 10
342.1000000000001
 20
419.9999999999981
 30
0.0
 40
63.31484586264244
100
AcDbArc
 50
189.9656468184444
 51
200.0343531815557
  0
ARC
  5
14C
330
1F
100
AcDbEntity
  8
LAY-10
  6
CONTINUOUS
 62
     7
100
AcDbCircle
 10
300.9767066709442
 20
367.739835957277
 30
0.0
 40
1.0
100
AcDbArc
 50
140.9393251687959
 51
231.8009483132719
  0
ARC
  5
14D
330
1F
100
AcDbEntity
  8
LAY-10
  6
CONTINUOUS
 62
     7
100
AcDbCircle
 10
302.2371396420539
 20
369.2929751998519
 30
0.0
 40
1.0
100
AcDbArc
 50
51.82766741882912
 51
140.9393251687959
  0
ARC
  5
14E
330
1F
100
AcDbEntity
  8
LAY-10
  6
CONTINUOUS
 62
     7
100
AcDbCircle
 10
317.4030169975896
 20
358.2561012683958
 30
0.0
 40
1.0
100
AcDbArc
 50
248.1990516867179
 51
339.0606748312041
  0
ARC
  5
14F
330
1F
100
AcDbEntity
  8
LAY-10
  6
CONTINUOUS
 62
     7
100
AcDbCircle
 10
318.1178585517191
 20
360.1242378624318
 30
0.0
 40
1.0
100
AcDbArc
 50
339.0606748312041
 51
68.17233258117231
  0
ARC
  5
150
330
1F
100
AcDbEntity
  8
LAY-10
  6
CONTINUOUS
 62
     7
100
AcDbCircle
 10
289.8398359572791
 20
378.8767066709421
 30
0.0
 40
1.0
100
AcDbArc
 50
218.199051686721
 51
309.060674831197
  0
ARC
  5
151
330
1F
100
AcDbEntity
  8
LAY-10
  6
CONTINUOUS
 62
     7
100
AcDbCircle
 10
291.3929751998538
 20
380.1371396420518
 30
0.0
 40
1.0
100
AcDbArc
 50
309.0606748312067
 51
38.17233258117086
  0
ARC
  5
152
330
1F
100
AcDbEntity
  8
LAY-10
  6
CONTINUOUS
 62
     7
100
AcDbCircle
 10
280.356101268398
 20
395.3030169975876
 30
0.0
 40
1.0
100
AcDbArc
 50
110.939325168796
 51
201.8009483132791
  0
ARC
  5
153
330
1F
100
AcDbEntity
  8
LAY-10
  6
CONTINUOUS
 62
     7
100
AcDbCircle
 10
282.2242378624339
 20
396.017858551717
 30
0.0
 40
1.0
100
AcDbArc
 50
21.82766741883495
 51
110.939325168796
  0
ARC
  5
154
330
1F
100
AcDbEntity
  8
LAY-10
  6
CONTINUOUS
 62
     7
100
AcDbCircle
 10
276.2797236685337
 20
410.516265311117
 30
0.0
 40
1.0
100
AcDbArc
 50
188.1990516867199
 51
279.0606748312022
  0
ARC
  5
155
330
1F
100
AcDbEntity
  8
LAY-10
  6
CONTINUOUS
 62
     7
100
AcDbCircle
 10
276.2797236685335
 20
429.4837346888792
 30
0.0
 40
1.0
100
AcDbArc
 50
80.9393251687914
 51
171.8009483132802
  0
ARC
  5
156
330
1F
100
AcDbEntity
  8
LAY-10
  6
CONTINUOUS
 62
     7
100
AcDbCircle
 10
278.2549981937727
 20
429.1687373374181
 30
0.0
 40
1.0
100
AcDbArc
 50
351.8276674188349
 51
80.93932516879788
  0
ARC
  5
157
330
1F
100
AcDbEntity
  8
LAY-10
  6
CONTINUOUS
 62
     7
100
AcDbCircle
 10
278.2549981937728
 20
410.8312626625781
 30
0.0
 40
1.0
100
AcDbArc
 50
279.0606748312087
 51
8.172332581171476
  0
ARC
  5
158
330
1F
100
AcDbEntity
  8
LAY-10
  6
CONTINUOUS
 62
     7
100
AcDbCircle
 10
280.356101268398
 20
444.6969830024085
 30
0.0
 40
1.0
100
AcDbArc
 50
158.199051686721
 51
249.0606748312041
  0
ARC
  5
159
330
1F
100
AcDbEntity
  8
LAY-10
  6
CONTINUOUS
 62
     7
100
AcDbCircle
 10
282.2242378624339
 20
443.9821414482791
 30
0.0
 40
1.0
100
AcDbArc
 50
249.0606748312041
 51
338.1723325811651
  0
ARC
  5
15A
330
1F
100
AcDbEntity
  8
LAY-10
  6
CONTINUOUS
 62
     7
100
AcDbCircle
 10
289.8398359572791
 20
461.123293329054
 30
0.0
 40
1.0
100
AcDbArc
 50
50.93932516880302
 51
141.800948313279
  0
ARC
  5
15B
330
1F
100
AcDbEntity
  8
LAY-10
  6
CONTINUOUS
 62
     7
100
AcDbCircle
 10
291.3929751998538
 20
459.8628603579443
 30
0.0
 40
1.0
100
AcDbArc
 50
321.8276674188293
 51
50.93932516879334
  0
ARC
  5
15C
330
1F
100
AcDbEntity
  8
LAY-10
  6
CONTINUOUS
 62
     7
100
AcDbCircle
 10
300.9767066709442
 20
472.2601640427191
 30
0.0
 40
1.0
100
AcDbArc
 50
128.1990516867282
 51
219.0606748312041
  0
ARC
  5
15D
330
1F
100
AcDbEntity
  8
LAY-10
  6
CONTINUOUS
 62
     7
100
AcDbCircle
 10
302.2371396420539
 20
470.7070248001443
 30
0.0
 40
1.0
100
AcDbArc
 50
219.0606748312041
 51
308.172332581171
  0
ARC
  5
15E
330
1F
100
AcDbEntity
  8
LAY-10
  6
CONTINUOUS
 62
     7
100
AcDbCircle
 10
318.1178585517191
 20
479.8757621375644
 30
0.0
 40
1.0
100
AcDbArc
 50
291.8276674188278
 51
20.93932516879597
  0
ARC
  5
15F
330
1F
100
AcDbEntity
  8
LAY-10
  6
CONTINUOUS
 62
     7
100
AcDbCircle
 10
317.4030169975897
 20
481.7438987316003
 30
0.0
 40
1.0
100
AcDbArc
 50
20.93932516879597
 51
111.8009483132851
  0
ARC
  5
160
330
1F
100
AcDbEntity
  8
LAY-10
  6
CONTINUOUS
 62
     7
100
AcDbCircle
 10
332.616265311119
 20
485.8202763314645
 30
0.0
 40
1.0
100
AcDbArc
 50
98.19905168671988
 51
189.0606748312022
  0
ARC
  5
161
330
1F
100
AcDbEntity
  8
LAY-10
  6
CONTINUOUS
 62
     7
100
AcDbCircle
 10
332.9312626625801
 20
483.8450018062254
 30
0.0
 40
1.0
100
AcDbArc
 50
189.0606748312086
 51
278.1723325811716
  0
ARC
  5
162
330
1F
100
AcDbEntity
  8
LAY-10
  6
CONTINUOUS
 62
     7
100
AcDbCircle
 10
351.2687373374201
 20
483.8450018062255
 30
0.0
 40
1.0
100
AcDbArc
 50
261.8276674188351
 51
350.9393251687979
  0
ARC
  5
163
330
1F
100
AcDbEntity
  8
LAY-10
  6
CONTINUOUS
 62
     7
100
AcDbCircle
 10
351.5837346888813
 20
485.8202763314647
 30
0.0
 40
1.0
100
AcDbArc
 50
350.9393251687914
 51
81.80094831328013
  0
CIRCLE
  5
164
330
1F
100
AcDbEntity
  8
LAY-10
  6
CONTINUOUS
 62
     7
100
AcDbCircle
 10
342.1000000000001
 20
419.9999999999981
 30
0.0
 40
81.50000000000011
  0
CIRCLE
  5
165
330
1F
100
AcDbEntity
  8
LAY-10
  6
CONTINUOUS
 62
     7
100
AcDbCircle
 10
342.1000000000001
 20
419.9999999999981
 30
0.0
 40
76.4999999999983
  0
ARC
  5
166
330
1F
100
AcDbEntity
  8
LAY-10
  6
CONTINUOUS
 62
     7
100
AcDbCircle
 10
342.1000000000001
 20
419.9999999999981
 30
0.0
 40
63.08073776573372
100
AcDbArc
 50
266.3643896228948
 51
273.6356103771053
  0
LINE
  5
167
330
1F
100
AcDbEntity
  8
LAY-10
  6
CONTINUOUS
 62
     7
100
AcDbLine
 10
346.5999999999999
 20
357.5289727303461
 30
0.0
 11
346.1000000000001
 21
357.0462115749217
 31
0.0
  0
LINE
  5
168
330
1F
100
AcDbEntity
  8
LAY-10
  6
CONTINUOUS
 62
     7
100
AcDbLine
 10
337.6000000000004
 20
357.5289727303461
 30
0.0
 11
338.1000000000001
 21
357.0462115749217
 31
0.0
  0
LINE
  5
169
330
1F
100
AcDbEntity
  8
LAY-10
  6
CONTINUOUS
 62
     7
100
AcDbLine
 10
331.1428797115655
 20
357.6404680774848
 30
0.0
 11
330.3262258512609
 21
352.5194232219798
 31
0.0
  0
LINE
  5
16A
330
1F
100
AcDbEntity
  8
LAY-10
  6
CONTINUOUS
 62
     7
100
AcDbLine
 10
331.4700787401576
 20
353.3422564587617
 30
0.0
 11
330.3262258512609
 21
352.5194232219798
 31
0.0
  0
LINE
  5
16B
330
1F
100
AcDbEntity
  8
LAY-10
  6
CONTINUOUS
 62
     7
100
AcDbLine
 10
331.1428797115655
 20
357.6404680774848
 30
0.0
 11
332.1000000000001
 21
357.2923449649087
 31
0.0
  0
LINE
  5
16C
330
1F
100
AcDbEntity
  8
LAY-10
  6
CONTINUOUS
 62
     7
100
AcDbLine
 10
331.6287431845822
 20
354.3372039834923
 30
0.0
 11
331.9437405360433
 21
356.3124785087315
 31
0.0
  0
LINE
  5
16D
330
1F
100
AcDbEntity
  8
LAY-10
  6
CONTINUOUS
 62
     7
100
AcDbLine
 10
353.0571202884348
 20
357.6404680774848
 30
0.0
 11
353.8737741487394
 21
352.5194232219798
 31
0.0
  0
LINE
  5
16E
330
1F
100
AcDbEntity
  8
LAY-10
  6
CONTINUOUS
 62
     7
100
AcDbLine
 10
352.7299212598426
 20
353.3422564587617
 30
0.0
 11
353.8737741487394
 21
352.5194232219798
 31
0.0
  0
LINE
  5
16F
330
1F
100
AcDbEntity
  8
LAY-10
  6
CONTINUOUS
 62
     7
100
AcDbLine
 10
353.0571202884348
 20
357.6404680774848
 30
0.0
 11
352.1000000000001
 21
357.2923449649087
 31
0.0
  0
LINE
  5
170
330
1F
100
AcDbEntity
  8
LAY-10
  6
CONTINUOUS
 62
     7
100
AcDbLine
 10
352.5712568154181
 20
354.3372039834921
 30
0.0
 11
352.256259463957
 21
356.3124785087313
 31
0.0
  0
ARC
  5
171
330
1F
100
AcDbEntity
  8
LAY-10
  6
CONTINUOUS
 62
     7
100
AcDbCircle
 10
342.1000000000005
 20
419.9999999999981
 30
0.0
 40
63.49999999999826
100
AcDbArc
 50
261.8276674188332
 51
278.1723325811665
  0
ARC
  5
172
330
1F
100
AcDbEntity
  8
LAY-10
  6
CONTINUOUS
 62
     7
100
AcDbCircle
 10
342.1000000000005
 20
419.9999999999981
 30
0.0
 40
67.49999999999773
100
AcDbArc
 50
261.8009483132758
 51
278.1990516867238
  0
ARC
  5
173
330
1F
100
AcDbEntity
  8
LAY-10
  6
CONTINUOUS
 62
     7
100
AcDbCircle
 10
342.1000000000005
 20
419.9999999999981
 30
0.0
 40
68.49999999999676
100
AcDbArc
 50
260.1028607187324
 51
279.8971392812672
  0
ARC
  5
174
330
1F
100
AcDbEntity
  8
LAY-10
  6
CONTINUOUS
 62
     7
100
AcDbCircle
 10
332.616265311119
 20
354.1797236685317
 30
0.0
 40
1.0
100
AcDbArc
 50
170.9393251687978
 51
261.8009483132802
  0
ARC
  5
175
330
1F
100
AcDbEntity
  8
LAY-10
  6
CONTINUOUS
 62
     7
100
AcDbCircle
 10
332.9312626625801
 20
356.1549981937708
 30
0.0
 40
1.0
100
AcDbArc
 50
81.82766741882855
 51
170.9393251687914
  0
ARC
  5
176
330
1F
100
AcDbEntity
  8
LAY-10
  6
CONTINUOUS
 62
     7
100
AcDbCircle
 10
351.2687373374201
 20
356.1549981937707
 30
0.0
 40
1.0
100
AcDbArc
 50
9.060674831202153
 51
98.17233258116502
  0
ARC
  5
177
330
1F
100
AcDbEntity
  8
LAY-10
  6
CONTINUOUS
 62
     7
100
AcDbCircle
 10
351.5837346888813
 20
354.1797236685314
 30
0.0
 40
1.0
100
AcDbArc
 50
278.1990516867199
 51
9.06067483120857
  0
ARC
  5
178
330
1F
100
AcDbEntity
  8
LAY-10
  6
CONTINUOUS
 62
     7
100
AcDbCircle
 10
342.1000000000001
 20
419.9999999999981
 30
0.0
 40
62.63289270124426
100
AcDbArc
 50
185.9568434330222
 51
265.8799069431879
  0
ARC
  5
179
330
1F
100
AcDbEntity
  8
LAY-10
  6
CONTINUOUS
 62
     7
100
AcDbCircle
 10
342.1000000000001
 20
419.9999999999981
 30
0.0
 40
63.31484586264244
100
AcDbArc
 50
249.965646818444
 51
260.0343531815572
  0
LINE
  5
17A
330
1F
100
AcDbEntity
  8
LAY-10
  6
CONTINUOUS
 62
     7
100
AcDbLine
 10
404.8947408392556
 20
425.9999999999982
 30
0.0
 11
404.3946967897397
 21
426.4999999999982
 31
0.0
  0
LINE
  5
17B
330
1F
100
AcDbEntity
  8
LAY-10
  6
CONTINUOUS
 62
     7
100
AcDbLine
 10
404.8947408392556
 20
413.9999999999981
 30
0.0
 11
404.3946967897397
 21
413.4999999999981
 31
0.0
  0
LINE
  5
17C
330
1F
100
AcDbEntity
  8
LAY-10
  6
CONTINUOUS
 62
     7
100
AcDbLine
 10
382.7689104833631
 20
468.5263786687839
 30
0.0
 11
386.036675900238
 21
472.5530066774186
 31
0.0
  0
LINE
  5
17D
330
1F
100
AcDbEntity
  8
LAY-10
  6
CONTINUOUS
 62
     7
100
AcDbLine
 10
384.6346536218703
 20
472.4123386357356
 30
0.0
 11
386.036675900238
 21
472.5530066774186
 31
0.0
  0
LINE
  5
17E
330
1F
100
AcDbEntity
  8
LAY-10
  6
CONTINUOUS
 62
     7
100
AcDbLine
 10
382.7689104833631
 20
468.5263786687839
 30
0.0
 11
382.1140815553892
 21
469.3064222721367
 31
0.0
  0
LINE
  5
17F
330
1F
100
AcDbEntity
  8
LAY-10
  6
CONTINUOUS
 62
     7
100
AcDbLine
 10
383.999772419956
 20
471.6300210260987
 30
0.0
 11
382.7393394488463
 21
470.076881783524
 31
0.0
  0
LINE
  5
180
330
1F
100
AcDbEntity
  8
LAY-10
  6
CONTINUOUS
 62
     7
100
AcDbLine
 10
363.7906214391505
 20
479.4834989572186
 30
0.0
 11
365.6439008777807
 21
484.3267808261578
 31
0.0
  0
LINE
  5
181
330
1F
100
AcDbEntity
  8
LAY-10
  6
CONTINUOUS
 62
     7
100
AcDbLine
 10
366.2230899193664
 20
483.0422598955781
 30
0.0
 11
365.6439008777807
 21
484.3267808261578
 31
0.0
  0
LINE
  5
182
330
1F
100
AcDbEntity
  8
LAY-10
  6
CONTINUOUS
 62
     7
100
AcDbLine
 10
363.7906214391505
 20
479.4834989572186
 30
0.0
 11
364.7935734797004
 21
479.3064222721367
 31
0.0
  0
LINE
  5
183
330
1F
100
AcDbEntity
  8
LAY-10
  6
CONTINUOUS
 62
     7
100
AcDbLine
 10
365.8630235965502
 20
482.1012778415169
 30
0.0
 11
365.1481820424208
 21
480.2331412474809
 31
0.0
  0
ARC
  5
184
330
1F
100
AcDbEntity
  8
LAY-10
  6
CONTINUOUS
 62
     7
100
AcDbCircle
 10
342.0999999999999
 20
419.9999999999983
 30
0.0
 40
63.49999999999826
100
AcDbArc
 50
51.82766741883324
 51
68.1723325811664
  0
ARC
  5
185
330
1F
100
AcDbEntity
  8
LAY-10
  6
CONTINUOUS
 62
     7
100
AcDbCircle
 10
342.0999999999999
 20
419.9999999999983
 30
0.0
 40
67.49999999999773
100
AcDbArc
 50
51.80094831327576
 51
68.19905168672378
  0
ARC
  5
186
330
1F
100
AcDbEntity
  8
LAY-10
  6
CONTINUOUS
 62
     7
100
AcDbCircle
 10
342.0999999999999
 20
419.9999999999983
 30
0.0
 40
68.49999999999676
100
AcDbArc
 50
50.10286071873241
 51
69.8971392812673
  0
LINE
  5
187
330
1F
100
AcDbEntity
  8
LAY-10
  6
CONTINUOUS
 62
     7
100
AcDbLine
 10
401.5834989572206
 20
441.6906214391485
 30
0.0
 11
406.42678082616
 21
443.5439008777786
 31
0.0
  0
LINE
  5
188
330
1F
100
AcDbEntity
  8
LAY-10
  6
CONTINUOUS
 62
     7
100
AcDbLine
 10
405.1422598955802
 20
444.1230899193644
 30
0.0
 11
406.42678082616
 21
443.5439008777786
 31
0.0
  0
LINE
  5
189
330
1F
100
AcDbEntity
  8
LAY-10
  6
CONTINUOUS
 62
     7
100
AcDbLine
 10
401.5834989572206
 20
441.6906214391485
 30
0.0
 11
401.4064222721388
 21
442.6935734796983
 31
0.0
  0
LINE
  5
18A
330
1F
100
AcDbEntity
  8
LAY-10
  6
CONTINUOUS
 62
     7
100
AcDbLine
 10
404.2012778415188
 20
443.7630235965481
 30
0.0
 11
402.3331412474829
 21
443.0481820424186
 31
0.0
  0
LINE
  5
18B
330
1F
100
AcDbEntity
  8
LAY-10
  6
CONTINUOUS
 62
     7
100
AcDbLine
 10
390.6263786687859
 20
460.6689104833609
 30
0.0
 11
394.6530066774208
 21
463.9366759002359
 31
0.0
  0
LINE
  5
18C
330
1F
100
AcDbEntity
  8
LAY-10
  6
CONTINUOUS
 62
     7
100
AcDbLine
 10
394.5123386357377
 20
462.5346536218682
 30
0.0
 11
394.6530066774208
 21
463.9366759002359
 31
0.0
  0
LINE
  5
18D
330
1F
100
AcDbEntity
  8
LAY-10
  6
CONTINUOUS
 62
     7
100
AcDbLine
 10
390.6263786687859
 20
460.6689104833609
 30
0.0
 11
391.4064222721388
 21
460.0140815553872
 31
0.0
  0
LINE
  5
18E
330
1F
100
AcDbEntity
  8
LAY-10
  6
CONTINUOUS
 62
     7
100
AcDbLine
 10
393.730021026101
 20
461.8997724199539
 30
0.0
 11
392.1768817835261
 21
460.6393394488442
 31
0.0
  0
ARC
  5
18F
330
1F
100
AcDbEntity
  8
LAY-10
  6
CONTINUOUS
 62
     7
100
AcDbCircle
 10
342.0999999999999
 20
419.9999999999983
 30
0.0
 40
63.49999999999826
100
AcDbArc
 50
21.827667418833
 51
38.1723325811661
  0
ARC
  5
190
330
1F
100
AcDbEntity
  8
LAY-10
  6
CONTINUOUS
 62
     7
100
AcDbCircle
 10
342.0999999999999
 20
419.9999999999983
 30
0.0
 40
67.49999999999773
100
AcDbArc
 50
21.80094831327586
 51
38.19905168672359
  0
ARC
  5
191
330
1F
100
AcDbEntity
  8
LAY-10
  6
CONTINUOUS
 62
     7
100
AcDbCircle
 10
342.0999999999999
 20
419.9999999999983
 30
0.0
 40
68.49999999999676
100
AcDbArc
 50
20.1028607187324
 51
39.89713928126717
  0
ARC
  5
192
330
1F
100
AcDbEntity
  8
LAY-10
  6
CONTINUOUS
 62
     7
100
AcDbCircle
 10
342.1000000000001
 20
419.9999999999981
 30
0.0
 40
63.31484586264244
100
AcDbArc
 50
39.96564681844422
 51
50.03435318155586
  0
LINE
  5
193
330
1F
100
AcDbEntity
  8
LAY-10
  6
CONTINUOUS
 62
     7
100
AcDbLine
 10
404.4595319225134
 20
409.0428797115634
 30
0.0
 11
409.5805767780184
 21
408.2262258512588
 31
0.0
  0
LINE
  5
194
330
1F
100
AcDbEntity
  8
LAY-10
  6
CONTINUOUS
 62
     7
100
AcDbLine
 10
408.7577435412366
 20
409.3700787401556
 30
0.0
 11
409.5805767780184
 21
408.2262258512588
 31
0.0
  0
LINE
  5
195
330
1F
100
AcDbEntity
  8
LAY-10
  6
CONTINUOUS
 62
     7
100
AcDbLine
 10
404.4595319225134
 20
409.0428797115634
 30
0.0
 11
404.8076550350895
 21
409.9999999999981
 31
0.0
  0
LINE
  5
196
330
1F
100
AcDbEntity
  8
LAY-10
  6
CONTINUOUS
 62
     7
100
AcDbLine
 10
407.7627960165059
 20
409.5287431845801
 30
0.0
 11
405.7875214912667
 21
409.8437405360412
 31
0.0
  0
LINE
  5
197
330
1F
100
AcDbEntity
  8
LAY-10
  6
CONTINUOUS
 62
     7
100
AcDbLine
 10
404.4595319225134
 20
430.9571202884327
 30
0.0
 11
409.5805767780184
 21
431.7737741487373
 31
0.0
  0
LINE
  5
198
330
1F
100
AcDbEntity
  8
LAY-10
  6
CONTINUOUS
 62
     7
100
AcDbLine
 10
408.7577435412366
 20
430.6299212598406
 30
0.0
 11
409.5805767780184
 21
431.7737741487373
 31
0.0
  0
LINE
  5
199
330
1F
100
AcDbEntity
  8
LAY-10
  6
CONTINUOUS
 62
     7
100
AcDbLine
 10
404.4595319225134
 20
430.9571202884327
 30
0.0
 11
404.8076550350895
 21
429.9999999999981
 31
0.0
  0
LINE
  5
19A
330
1F
100
AcDbEntity
  8
LAY-10
  6
CONTINUOUS
 62
     7
100
AcDbLine
 10
407.7627960165061
 20
430.471256815416
 30
0.0
 11
405.7875214912669
 21
430.1562594639549
 31
0.0
  0
ARC
  5
19B
330
1F
100
AcDbEntity
  8
LAY-10
  6
CONTINUOUS
 62
     7
100
AcDbCircle
 10
342.1000000000001
 20
419.9999999999984
 30
0.0
 40
63.49999999999826
100
AcDbArc
 50
351.8276674188332
 51
8.172332581166206
  0
ARC
  5
19C
330
1F
100
AcDbEntity
  8
LAY-10
  6
CONTINUOUS
 62
     7
100
AcDbCircle
 10
342.1000000000001
 20
419.9999999999984
 30
0.0
 40
67.49999999999773
100
AcDbArc
 50
351.800948313276
 51
8.19905168672346
  0
ARC
  5
19D
330
1F
100
AcDbEntity
  8
LAY-10
  6
CONTINUOUS
 62
     7
100
AcDbCircle
 10
342.1000000000001
 20
419.9999999999984
 30
0.0
 40
68.49999999999676
100
AcDbArc
 50
350.1028607187324
 51
9.897139281267272
  0
ARC
  5
19E
330
1F
100
AcDbEntity
  8
LAY-10
  6
CONTINUOUS
 62
     7
100
AcDbCircle
 10
342.1000000000001
 20
419.9999999999981
 30
0.0
 40
63.31484586264244
100
AcDbArc
 50
9.965646818444151
 51
20.03435318155597
  0
LINE
  5
19F
330
1F
100
AcDbEntity
  8
LAY-10
  6
CONTINUOUS
 62
     7
100
AcDbLine
 10
382.7689104833631
 20
371.4736213312123
 30
0.0
 11
386.036675900238
 21
367.4469933225776
 31
0.0
  0
LINE
  5
1A0
330
1F
100
AcDbEntity
  8
LAY-10
  6
CONTINUOUS
 62
     7
100
AcDbLine
 10
384.6346536218703
 20
367.5876613642605
 30
0.0
 11
386.036675900238
 21
367.4469933225776
 31
0.0
  0
LINE
  5
1A1
330
1F
100
AcDbEntity
  8
LAY-10
  6
CONTINUOUS
 62
     7
100
AcDbLine
 10
382.7689104833631
 20
371.4736213312123
 30
0.0
 11
382.1140815553892
 21
370.6935777278594
 31
0.0
  0
LINE
  5
1A2
330
1F
100
AcDbEntity
  8
LAY-10
  6
CONTINUOUS
 62
     7
100
AcDbLine
 10
383.999772419956
 20
368.3699789738974
 30
0.0
 11
382.7393394488463
 21
369.9231182164722
 31
0.0
  0
LINE
  5
1A3
330
1F
100
AcDbEntity
  8
LAY-10
  6
CONTINUOUS
 62
     7
100
AcDbLine
 10
363.7906214391505
 20
360.5165010427776
 30
0.0
 11
365.6439008777807
 21
355.6732191738383
 31
0.0
  0
LINE
  5
1A4
330
1F
100
AcDbEntity
  8
LAY-10
  6
CONTINUOUS
 62
     7
100
AcDbLine
 10
366.2230899193664
 20
356.957740104418
 30
0.0
 11
365.6439008777807
 21
355.6732191738383
 31
0.0
  0
LINE
  5
1A5
330
1F
100
AcDbEntity
  8
LAY-10
  6
CONTINUOUS
 62
     7
100
AcDbLine
 10
363.7906214391505
 20
360.5165010427776
 30
0.0
 11
364.7935734797005
 21
360.6935777278594
 31
0.0
  0
LINE
  5
1A6
330
1F
100
AcDbEntity
  8
LAY-10
  6
CONTINUOUS
 62
     7
100
AcDbLine
 10
365.8630235965502
 20
357.8987221584792
 30
0.0
 11
365.1481820424208
 21
359.7668587525152
 31
0.0
  0
ARC
  5
1A7
330
1F
100
AcDbEntity
  8
LAY-10
  6
CONTINUOUS
 62
     7
100
AcDbCircle
 10
342.0999999999999
 20
419.9999999999978
 30
0.0
 40
63.49999999999826
100
AcDbArc
 50
291.8276674188338
 51
308.1723325811671
  0
ARC
  5
1A8
330
1F
100
AcDbEntity
  8
LAY-10
  6
CONTINUOUS
 62
     7
100
AcDbCircle
 10
342.0999999999999
 20
419.9999999999978
 30
0.0
 40
67.49999999999773
100
AcDbArc
 50
291.8009483132766
 51
308.1990516867243
  0
ARC
  5
1A9
330
1F
100
AcDbEntity
  8
LAY-10
  6
CONTINUOUS
 62
     7
100
AcDbCircle
 10
342.0999999999999
 20
419.9999999999978
 30
0.0
 40
68.49999999999676
100
AcDbArc
 50
290.1028607187329
 51
309.8971392812678
  0
LINE
  5
1AA
330
1F
100
AcDbEntity
  8
LAY-10
  6
CONTINUOUS
 62
     7
100
AcDbLine
 10
401.5834989572206
 20
398.3093785608477
 30
0.0
 11
406.42678082616
 21
396.4560991222176
 31
0.0
  0
LINE
  5
1AB
330
1F
100
AcDbEntity
  8
LAY-10
  6
CONTINUOUS
 62
     7
100
AcDbLine
 10
405.1422598955802
 20
395.8769100806318
 30
0.0
 11
406.42678082616
 21
396.4560991222176
 31
0.0
  0
LINE
  5
1AC
330
1F
100
AcDbEntity
  8
LAY-10
  6
CONTINUOUS
 62
     7
100
AcDbLine
 10
401.5834989572206
 20
398.3093785608477
 30
0.0
 11
401.4064222721388
 21
397.3064265202978
 31
0.0
  0
LINE
  5
1AD
330
1F
100
AcDbEntity
  8
LAY-10
  6
CONTINUOUS
 62
     7
100
AcDbLine
 10
404.2012778415188
 20
396.236976403448
 30
0.0
 11
402.3331412474829
 21
396.9518179575775
 31
0.0
  0
LINE
  5
1AE
330
1F
100
AcDbEntity
  8
LAY-10
  6
CONTINUOUS
 62
     7
100
AcDbLine
 10
390.6263786687859
 20
379.3310895166352
 30
0.0
 11
394.6530066774208
 21
376.0633240997603
 31
0.0
  0
LINE
  5
1AF
330
1F
100
AcDbEntity
  8
LAY-10
  6
CONTINUOUS
 62
     7
100
AcDbLine
 10
394.5123386357377
 20
377.4653463781279
 30
0.0
 11
394.6530066774208
 21
376.0633240997603
 31
0.0
  0
LINE
  5
1B0
330
1F
100
AcDbEntity
  8
LAY-10
  6
CONTINUOUS
 62
     7
100
AcDbLine
 10
390.6263786687859
 20
379.3310895166352
 30
0.0
 11
391.4064222721388
 21
379.985918444609
 31
0.0
  0
LINE
  5
1B1
330
1F
100
AcDbEntity
  8
LAY-10
  6
CONTINUOUS
 62
     7
100
AcDbLine
 10
393.730021026101
 20
378.1002275800422
 30
0.0
 11
392.1768817835261
 21
379.3606605511519
 31
0.0
  0
ARC
  5
1B2
330
1F
100
AcDbEntity
  8
LAY-10
  6
CONTINUOUS
 62
     7
100
AcDbCircle
 10
342.0999999999999
 20
419.9999999999978
 30
0.0
 40
63.49999999999826
100
AcDbArc
 50
321.8276674188338
 51
338.1723325811669
  0
ARC
  5
1B3
330
1F
100
AcDbEntity
  8
LAY-10
  6
CONTINUOUS
 62
     7
100
AcDbCircle
 10
342.0999999999999
 20
419.9999999999978
 30
0.0
 40
67.49999999999773
100
AcDbArc
 50
321.8009483132763
 51
338.1990516867244
  0
ARC
  5
1B4
330
1F
100
AcDbEntity
  8
LAY-10
  6
CONTINUOUS
 62
     7
100
AcDbCircle
 10
342.0999999999999
 20
419.9999999999978
 30
0.0
 40
68.49999999999676
100
AcDbArc
 50
320.1028607187329
 51
339.8971392812676
  0
ARC
  5
1B5
330
1F
100
AcDbEntity
  8
LAY-10
  6
CONTINUOUS
 62
     7
100
AcDbCircle
 10
342.1000000000001
 20
419.9999999999981
 30
0.0
 40
63.31484586264244
100
AcDbArc
 50
309.9656468184442
 51
320.0343531815559
  0
ARC
  5
1B6
330
1F
100
AcDbEntity
  8
LAY-10
  6
CONTINUOUS
 62
     7
100
AcDbCircle
 10
342.1000000000001
 20
419.9999999999981
 30
0.0
 40
63.31484586264244
100
AcDbArc
 50
339.9656468184443
 51
350.0343531815556
  0
ARC
  5
1B7
330
1F
100
AcDbEntity
  8
LAY-10
  6
CONTINUOUS
 62
     7
100
AcDbCircle
 10
383.2232933290561
 20
367.739835957277
 30
0.0
 40
1.0
100
AcDbArc
 50
308.1990516867256
 51
39.06067483120663
  0
ARC
  5
1B8
330
1F
100
AcDbEntity
  8
LAY-10
  6
CONTINUOUS
 62
     7
100
AcDbCircle
 10
381.9628603579464
 20
369.2929751998519
 30
0.0
 40
1.0
100
AcDbArc
 50
39.06067483120663
 51
128.1723325811735
  0
ARC
  5
1B9
330
1F
100
AcDbEntity
  8
LAY-10
  6
CONTINUOUS
 62
     7
100
AcDbCircle
 10
366.7969830024107
 20
358.2561012683958
 30
0.0
 40
1.0
100
AcDbArc
 50
200.939325168796
 51
291.8009483132791
  0
ARC
  5
1BA
330
1F
100
AcDbEntity
  8
LAY-10
  6
CONTINUOUS
 62
     7
100
AcDbCircle
 10
366.0821414482812
 20
360.1242378624318
 30
0.0
 40
1.0
100
AcDbArc
 50
111.8276674188277
 51
200.939325168796
  0
ARC
  5
1BB
330
1F
100
AcDbEntity
  8
LAY-10
  6
CONTINUOUS
 62
     7
100
AcDbCircle
 10
394.3601640427212
 20
378.8767066709421
 30
0.0
 40
1.0
100
AcDbArc
 50
230.9393251688005
 51
321.800948313279
  0
ARC
  5
1BC
330
1F
100
AcDbEntity
  8
LAY-10
  6
CONTINUOUS
 62
     7
100
AcDbCircle
 10
392.8070248001465
 20
380.1371396420518
 30
0.0
 40
1.0
100
AcDbArc
 50
141.8276674188312
 51
230.9393251687888
  0
ARC
  5
1BD
330
1F
100
AcDbEntity
  8
LAY-10
  6
CONTINUOUS
 62
     7
100
AcDbCircle
 10
403.8438987316023
 20
395.3030169975876
 30
0.0
 40
1.0
100
AcDbArc
 50
338.199051686721
 51
69.06067483120711
  0
ARC
  5
1BE
330
1F
100
AcDbEntity
  8
LAY-10
  6
CONTINUOUS
 62
     7
100
AcDbCircle
 10
401.9757621375663
 20
396.017858551717
 30
0.0
 40
1.0
100
AcDbArc
 50
69.06067483120711
 51
158.1723325811662
  0
ARC
  5
1BF
330
1F
100
AcDbEntity
  8
LAY-10
  6
CONTINUOUS
 62
     7
100
AcDbCircle
 10
407.9202763314665
 20
410.516265311117
 30
0.0
 40
1.0
100
AcDbArc
 50
260.939325168798
 51
351.8009483132801
  0
ARC
  5
1C0
330
1F
100
AcDbEntity
  8
LAY-10
  6
CONTINUOUS
 62
     7
100
AcDbCircle
 10
407.9202763314668
 20
429.4837346888792
 30
0.0
 40
1.0
100
AcDbArc
 50
8.199051686719908
 51
99.06067483120862
  0
ARC
  5
1C1
330
1F
100
AcDbEntity
  8
LAY-10
  6
CONTINUOUS
 62
     7
100
AcDbCircle
 10
405.9450018062275
 20
429.1687373374181
 30
0.0
 40
1.0
100
AcDbArc
 50
99.06067483120218
 51
188.172332581165
  0
ARC
  5
1C2
330
1F
100
AcDbEntity
  8
LAY-10
  6
CONTINUOUS
 62
     7
100
AcDbCircle
 10
405.9450018062274
 20
410.8312626625781
 30
0.0
 40
1.0
100
AcDbArc
 50
171.8276674188286
 51
260.9393251687915
  0
ARC
  5
1C3
330
1F
100
AcDbEntity
  8
LAY-10
  6
CONTINUOUS
 62
     7
100
AcDbCircle
 10
403.8438987316023
 20
444.6969830024085
 30
0.0
 40
1.0
100
AcDbArc
 50
290.9393251687961
 51
21.80094831327907
  0
ARC
  5
1C4
330
1F
100
AcDbEntity
  8
LAY-10
  6
CONTINUOUS
 62
     7
100
AcDbCircle
 10
401.9757621375663
 20
443.9821414482791
 30
0.0
 40
1.0
100
AcDbArc
 50
201.8276674188338
 51
290.9393251687961
  0
ARC
  5
1C5
330
1F
100
AcDbEntity
  8
LAY-10
  6
CONTINUOUS
 62
     7
100
AcDbCircle
 10
394.3601640427212
 20
461.123293329054
 30
0.0
 40
1.0
100
AcDbArc
 50
38.19905168672101
 51
129.0606748311995
  0
ARC
  5
1C6
330
1F
100
AcDbEntity
  8
LAY-10
  6
CONTINUOUS
 62
     7
100
AcDbCircle
 10
392.8070248001465
 20
459.8628603579443
 30
0.0
 40
1.0
100
AcDbArc
 50
129.0606748312113
 51
218.1723325811689
  0
ARC
  5
1C7
330
1F
100
AcDbEntity
  8
LAY-10
  6
CONTINUOUS
 62
     7
100
AcDbCircle
 10
383.2232933290561
 20
472.2601640427191
 30
0.0
 40
1.0
100
AcDbArc
 50
320.9393251687934
 51
51.80094831327444
  0
ARC
  5
1C8
330
1F
100
AcDbEntity
  8
LAY-10
  6
CONTINUOUS
 62
     7
100
AcDbCircle
 10
381.9628603579464
 20
470.7070248001443
 30
0.0
 40
1.0
100
AcDbArc
 50
231.8276674188266
 51
320.9393251687959
  0
ARC
  5
1C9
330
1F
100
AcDbEntity
  8
LAY-10
  6
CONTINUOUS
 62
     7
100
AcDbCircle
 10
366.0821414482812
 20
479.8757621375644
 30
0.0
 40
1.0
100
AcDbArc
 50
159.0606748312041
 51
248.1723325811723
  0
ARC
  5
1CA
330
1F
100
AcDbEntity
  8
LAY-10
  6
CONTINUOUS
 62
     7
100
AcDbCircle
 10
366.7969830024106
 20
481.7438987316003
 30
0.0
 40
1.0
100
AcDbArc
 50
68.19905168671792
 51
159.0606748312041
  0
ARC
  5
1CB
330
1F
100
AcDbEntity
  8
LAY-10
  6
CONTINUOUS
 62
     7
100
AcDbCircle
 10
342.1000000000001
 20
419.9999999999981
 30
0.0
 40
62.63289270124426
100
AcDbArc
 50
274.1200930568124
 51
354.0431565669781
  0
ARC
  5
1CC
330
1F
100
AcDbEntity
  8
LAY-10
  6
CONTINUOUS
 62
     7
100
AcDbCircle
 10
342.1000000000001
 20
419.9999999999981
 30
0.0
 40
63.31484586264244
100
AcDbArc
 50
279.9656468184431
 51
290.0343531815558
  0
ARC
  5
1CD
330
1F
100
AcDbEntity
  8
LAY-10
  6
CONTINUOUS
 62
     7
100
AcDbCircle
 10
342.1000000000001
 20
419.9999999999981
 30
0.0
 40
63.31484586264244
100
AcDbArc
 50
69.96564681844417
 51
80.03435318155606
  0
ARC
  5
1CE
330
1F
100
AcDbEntity
  8
LAY-10
  6
CONTINUOUS
 62
     7
100
AcDbCircle
 10
342.1000000000001
 20
419.9999999999981
 30
0.0
 40
62.63289270124426
100
AcDbArc
 50
5.956843433022446
 51
85.87990694319228
  0
LINE
  5
1CF
330
1F
100
AcDbEntity
  8
LAY-10
  6
CONTINUOUS
 62
     7
100
AcDbLine
 10
395.1366072321364
 20
418.2890843878333
 30
0.0
 11
404.0633927678002
 21
423.4429664198369
 31
0.0
  0
LINE
  5
1D0
330
1F
100
AcDbEntity
  8
LAY-10
  6
CONTINUOUS
 62
     7
100
AcDbLine
 10
396.1366072321339
 20
416.5570335802316
 30
0.0
 11
405.0633927678271
 21
421.7109156122523
 31
0.0
  0
CIRCLE
  5
1D1
330
1F
100
AcDbEntity
  8
LAY-10
  6
CONTINUOUS
 62
     7
100
AcDbCircle
 10
400.0999999999963
 20
420.000000000001
 30
0.0
 40
5.25
  0
LINE
  5
1D2
330
1F
100
AcDbEntity
  8
LAY-10
  6
CONTINUOUS
 62
     7
100
AcDbLine
 10
279.1366072321324
 20
418.2890843878333
 30
0.0
 11
288.0633927677962
 21
423.4429664198369
 31
0.0
  0
LINE
  5
1D3
330
1F
100
AcDbEntity
  8
LAY-10
  6
CONTINUOUS
 62
     7
100
AcDbLine
 10
280.1366072321299
 20
416.5570335802316
 30
0.0
 11
289.0633927678231
 21
421.7109156122523
 31
0.0
  0
CIRCLE
  5
1D4
330
1F
100
AcDbEntity
  8
LAY-10
  6
CONTINUOUS
 62
     7
100
AcDbCircle
 10
284.0999999999923
 20
420.000000000001
 30
0.0
 40
5.25
  0
CIRCLE
  5
1D5
330
1F
100
AcDbEntity
  8
LAY-10
  6
CONTINUOUS
 62
     7
100
AcDbCircle
 10
342.0999999999924
 20
420.0000000000043
 30
0.0
 40
39.47796688174527
  0
LINE
  5
1D6
330
1F
100
AcDbEntity
  8
LAY-10
  6
CONTINUOUS
 62
     7
100
AcDbLine
 10
292.4546281204159
 20
424.0000000000043
 30
0.0
 11
297.2012630513592
 21
424.0000000000043
 31
0.0
  0
LINE
  5
1D7
330
1F
100
AcDbEntity
  8
LAY-10
  6
CONTINUOUS
 62
     7
100
AcDbLine
 10
292.4546281204159
 20
416.0000000000043
 30
0.0
 11
297.2012630513592
 21
416.0000000000043
 31
0.0
  0
LINE
  5
1D8
330
1F
100
AcDbEntity
  8
LAY-10
  6
CONTINUOUS
 62
     7
100
AcDbLine
 10
294.0805298152795
 20
406.779053277439
 30
0.0
 11
298.5409076334515
 21
408.4024980368349
 31
0.0
  0
LINE
  5
1D9
330
1F
100
AcDbEntity
  8
LAY-10
  6
CONTINUOUS
 62
     7
100
AcDbLine
 10
296.8166909618849
 20
399.2615123111518
 30
0.0
 11
301.2770687800569
 21
400.8849570705476
 31
0.0
  0
LINE
  5
1DA
330
1F
100
AcDbEntity
  8
LAY-10
  6
CONTINUOUS
 62
     7
100
AcDbLine
 10
301.4982883063215
 20
391.1527478500079
 30
0.0
 11
305.1344216186851
 21
394.2038259713235
 31
0.0
  0
LINE
  5
1DB
330
1F
100
AcDbEntity
  8
LAY-10
  6
CONTINUOUS
 62
     7
100
AcDbLine
 10
306.6405891838137
 20
385.024392305056
 30
0.0
 11
310.2767224961774
 21
388.0754704263717
 31
0.0
  0
LINE
  5
1DC
330
1F
100
AcDbEntity
  8
LAY-10
  6
CONTINUOUS
 62
     7
100
AcDbLine
 10
313.8132124450665
 20
379.0058467719654
 30
0.0
 11
316.1865299105381
 21
383.1165532046529
 31
0.0
  0
LINE
  5
1DD
330
1F
100
AcDbEntity
  8
LAY-10
  6
CONTINUOUS
 62
     7
100
AcDbLine
 10
346.7815973444292
 20
469.5857398388532
 30
0.0
 11
345.9573528386206
 21
464.9112169581417
 31
0.0
  0
LINE
  5
1DE
330
1F
100
AcDbEntity
  8
LAY-10
  6
CONTINUOUS
 62
     7
100
AcDbLine
 10
337.4184026555558
 20
469.5857398388532
 30
0.0
 11
338.2426471613643
 21
464.9112169581417
 31
0.0
  0
LINE
  5
1DF
330
1F
100
AcDbEntity
  8
LAY-10
  6
CONTINUOUS
 62
     7
100
AcDbLine
 10
329.5399406314582
 20
468.1965544175177
 30
0.0
 11
330.3641851372665
 21
463.5220315368062
 31
0.0
  0
LINE
  5
1E0
330
1F
100
AcDbEntity
  8
LAY-10
  6
CONTINUOUS
 62
     7
100
AcDbLine
 10
320.7414156753421
 20
464.9941532280431
 30
0.0
 11
323.1147331408137
 21
460.8834467953556
 31
0.0
  0
LINE
  5
1E1
330
1F
100
AcDbEntity
  8
LAY-10
  6
CONTINUOUS
 62
     7
100
AcDbLine
 10
313.8132124450665
 20
460.9941532280431
 30
0.0
 11
316.1865299105382
 21
456.8834467953556
 31
0.0
  0
LINE
  5
1E2
330
1F
100
AcDbEntity
  8
LAY-10
  6
CONTINUOUS
 62
     7
100
AcDbLine
 10
306.640589183814
 20
454.9756076949525
 30
0.0
 11
310.2767224961774
 21
451.9245295736369
 31
0.0
  0
LINE
  5
1E3
330
1F
100
AcDbEntity
  8
LAY-10
  6
CONTINUOUS
 62
     7
100
AcDbLine
 10
301.4982883063216
 20
448.8472521500008
 30
0.0
 11
305.1344216186851
 21
445.796174028685
 31
0.0
  0
LINE
  5
1E4
330
1F
100
AcDbEntity
  8
LAY-10
  6
CONTINUOUS
 62
     7
100
AcDbLine
 10
296.8166909618849
 20
440.7384876888569
 30
0.0
 11
301.2770687800569
 21
439.115042929461
 31
0.0
  0
LINE
  5
1E5
330
1F
100
AcDbEntity
  8
LAY-10
  6
CONTINUOUS
 62
     7
100
AcDbLine
 10
294.0805298152795
 20
433.2209467225696
 30
0.0
 11
298.5409076334515
 21
431.5975019631738
 31
0.0
  0
ARC
  5
1E6
330
1F
100
AcDbEntity
  8
LAY-10
  6
CONTINUOUS
 62
     7
100
AcDbCircle
 10
342.0999999999924
 20
420.0000000000043
 30
0.0
 40
45.07656352898432
100
AcDbArc
 50
105.0910040933959
 51
114.9089959066039
  0
ARC
  5
1E7
330
1F
100
AcDbEntity
  8
LAY-10
  6
CONTINUOUS
 62
     7
100
AcDbCircle
 10
342.0999999999924
 20
420.0000000000043
 30
0.0
 40
45.07656352898432
100
AcDbArc
 50
125.0910040933957
 51
134.9089959066043
  0
ARC
  5
1E8
330
1F
100
AcDbEntity
  8
LAY-10
  6
CONTINUOUS
 62
     7
100
AcDbCircle
 10
342.0999999999924
 20
420.0000000000043
 30
0.0
 40
45.07656352898432
100
AcDbArc
 50
145.0910040933959
 51
154.9089959066041
  0
ARC
  5
1E9
330
1F
100
AcDbEntity
  8
LAY-10
  6
CONTINUOUS
 62
     7
100
AcDbCircle
 10
342.0999999999924
 20
420.0000000000043
 30
0.0
 40
45.07656352898432
100
AcDbArc
 50
165.0910040933955
 51
174.9089959066043
  0
ARC
  5
1EA
330
1F
100
AcDbEntity
  8
LAY-10
  6
CONTINUOUS
 62
     7
100
AcDbCircle
 10
342.0999999999924
 20
420.0000000000043
 30
0.0
 40
45.07656352898432
100
AcDbArc
 50
185.0910040933957
 51
194.9089959066042
  0
ARC
  5
1EB
330
1F
100
AcDbEntity
  8
LAY-10
  6
CONTINUOUS
 62
     7
100
AcDbCircle
 10
342.0999999999924
 20
420.0000000000043
 30
0.0
 40
45.07656352898432
100
AcDbArc
 50
225.0910040933957
 51
234.9089959066042
  0
TEXT
  5
1EC
330
1F
100
AcDbEntity
  8
LAY-10
  6
CONTINUOUS
 62
     7
100
AcDbText
 10
363.7859515663101
 20
473.8356233965883
 30
0.0
 40
5.4566932
  1
Ｘ
 50
160.4176803989506
 41
1.2
  7
EXCADSTD
100
AcDbText
  0
TEXT
  5
1ED
330
1F
100
AcDbEntity
  8
LAY-10
  6
CONTINUOUS
 62
     7
100
AcDbText
 10
357.809588672895
 20
475.9680797166055
 30
0.0
 40
5.4566932
  1
－
 50
166.9451202659675
 41
1.2
  7
EXCADSTD
100
AcDbText
  0
TEXT
  5
1EE
330
1F
100
AcDbEntity
  8
LAY-10
  6
CONTINUOUS
 62
     7
100
AcDbText
 10
351.6295518075846
 20
477.4073252599281
 30
0.0
 40
5.4566932
  1
１
 50
173.4725601329839
 41
1.2
  7
EXCADSTD
100
AcDbText
  0
TEXT
  5
1EF
330
1F
100
AcDbEntity
  8
LAY-10
  6
CONTINUOUS
 62
     7
100
AcDbText
 10
345.3259648158228
 20
478.134700285525
 30
0.0
 40
5.4566932
  1
０
 50
180.0
 41
1.2
  7
EXCADSTD
100
AcDbText
  0
TEXT
  5
1F0
330
1F
100
AcDbEntity
  8
LAY-10
  6
CONTINUOUS
 62
     7
100
AcDbText
 10
338.9805533637957
 20
478.1407744153256
 30
0.0
 40
5.4566932
  1
０
 50
186.5274398670168
 41
1.2
  7
EXCADSTD
100
AcDbText
  0
TEXT
  5
1F1
330
1F
100
AcDbEntity
  8
LAY-10
  6
CONTINUOUS
 62
     7
100
AcDbText
 10
332.6755853695661
 20
477.4254688985636
 30
0.0
 40
5.4566932
  1
６
 50
193.0548797340331
 41
1.2
  7
EXCADSTD
100
AcDbText
  0
TEXT
  5
1F2
330
1F
100
AcDbEntity
  8
LAY-10
  6
CONTINUOUS
 62
     7
100
AcDbText
 10
326.4928044039426
 20
475.9980576327774
 30
0.0
 40
5.4566932
  1
５
 50
199.5823196010498
 41
1.2
  7
EXCADSTD
100
AcDbText
  0
LINE
  5
1F3
330
1F
100
AcDbEntity
  8
LAY-10
  6
CONTINUOUS
 62
     7
100
AcDbLine
 10
281.9252544666708
 20
430.0000000000043
 30
0.0
 11
293.3079622370392
 21
430.0000000000043
 31
0.0
  0
LINE
  5
1F4
330
1F
100
AcDbEntity
  8
LAY-10
  6
CONTINUOUS
 62
     7
100
AcDbLine
 10
281.9252544666708
 20
410.0000000000043
 30
0.0
 11
293.3079622370392
 21
410.0000000000043
 31
0.0
  0
LINE
  5
1F5
330
1F
100
AcDbEntity
  8
LAY-10
  6
CONTINUOUS
 62
     7
100
AcDbLine
 10
391.7453718795757
 20
424.0000000000043
 30
0.0
 11
386.9987369486324
 21
424.0000000000043
 31
0.0
  0
LINE
  5
1F6
330
1F
100
AcDbEntity
  8
LAY-10
  6
CONTINUOUS
 62
     7
100
AcDbLine
 10
354.6600593685334
 20
468.1965544175177
 30
0.0
 11
353.8358148627251
 21
463.5220315368062
 31
0.0
  0
LINE
  5
1F7
330
1F
100
AcDbEntity
  8
LAY-10
  6
CONTINUOUS
 62
     7
100
AcDbLine
 10
363.4585843246496
 20
464.9941532280431
 30
0.0
 11
361.085266859178
 21
460.8834467953556
 31
0.0
  0
LINE
  5
1F8
330
1F
100
AcDbEntity
  8
LAY-10
  6
CONTINUOUS
 62
     7
100
AcDbLine
 10
370.3867875549251
 20
460.9941532280431
 30
0.0
 11
368.0134700894534
 21
456.8834467953556
 31
0.0
  0
LINE
  5
1F9
330
1F
100
AcDbEntity
  8
LAY-10
  6
CONTINUOUS
 62
     7
100
AcDbLine
 10
377.5594108161777
 20
454.9756076949525
 30
0.0
 11
373.9232775038142
 21
451.9245295736369
 31
0.0
  0
LINE
  5
1FA
330
1F
100
AcDbEntity
  8
LAY-10
  6
CONTINUOUS
 62
     7
100
AcDbLine
 10
382.7017116936701
 20
448.8472521500008
 30
0.0
 11
379.0655783813065
 21
445.796174028685
 31
0.0
  0
LINE
  5
1FB
330
1F
100
AcDbEntity
  8
LAY-10
  6
CONTINUOUS
 62
     7
100
AcDbLine
 10
387.3833090381067
 20
440.7384876888569
 30
0.0
 11
382.9229312199348
 21
439.115042929461
 31
0.0
  0
LINE
  5
1FC
330
1F
100
AcDbEntity
  8
LAY-10
  6
CONTINUOUS
 62
     7
100
AcDbLine
 10
390.1194701847121
 20
433.2209467225696
 30
0.0
 11
385.6590923665401
 21
431.5975019631738
 31
0.0
  0
ARC
  5
1FD
330
1F
100
AcDbEntity
  8
LAY-10
  6
CONTINUOUS
 62
     7
100
AcDbCircle
 10
342.0999999999992
 20
420.0000000000043
 30
0.0
 40
45.07656352898432
100
AcDbArc
 50
65.09100409339614
 51
74.90899590660416
  0
ARC
  5
1FE
330
1F
100
AcDbEntity
  8
LAY-10
  6
CONTINUOUS
 62
     7
100
AcDbCircle
 10
342.0999999999992
 20
420.0000000000043
 30
0.0
 40
45.07656352898432
100
AcDbArc
 50
45.09100409339578
 51
54.90899590660437
  0
ARC
  5
1FF
330
1F
100
AcDbEntity
  8
LAY-10
  6
CONTINUOUS
 62
     7
100
AcDbCircle
 10
342.0999999999992
 20
420.0000000000043
 30
0.0
 40
45.07656352898432
100
AcDbArc
 50
25.09100409339583
 51
34.9089959066043
  0
ARC
  5
200
330
1F
100
AcDbEntity
  8
LAY-10
  6
CONTINUOUS
 62
     7
100
AcDbCircle
 10
342.0999999999992
 20
420.0000000000043
 30
0.0
 40
45.07656352898432
100
AcDbArc
 50
5.091004093395823
 51
14.90899590660447
  0
ARC
  5
201
330
1F
100
AcDbEntity
  8
LAY-10
  6
CONTINUOUS
 62
     7
100
AcDbCircle
 10
342.0999999999992
 20
420.0000000000043
 30
0.0
 40
45.07656352898432
100
AcDbArc
 50
345.0910040933961
 51
354.9089959066044
  0
ARC
  5
202
330
1F
100
AcDbEntity
  8
LAY-10
  6
CONTINUOUS
 62
     7
100
AcDbCircle
 10
342.0999999999992
 20
420.0000000000043
 30
0.0
 40
45.07656352898432
100
AcDbArc
 50
305.0910040933962
 51
314.9089959066045
  0
LINE
  5
203
330
1F
100
AcDbEntity
  8
LAY-10
  6
CONTINUOUS
 62
     7
100
AcDbLine
 10
402.2747455333208
 20
430.0000000000043
 30
0.0
 11
390.8920377629524
 21
430.0000000000043
 31
0.0
  0
LINE
  5
204
330
1F
100
AcDbEntity
  8
LAY-10
  6
CONTINUOUS
 62
     7
100
AcDbLine
 10
402.2747455333208
 20
410.0000000000043
 30
0.0
 11
390.8920377629524
 21
410.0000000000043
 31
0.0
  0
LINE
  5
205
330
1F
100
AcDbEntity
  8
LAY-10
  6
CONTINUOUS
 62
     7
100
AcDbLine
 10
346.7815973444292
 20
370.4142601611554
 30
0.0
 11
345.9573528386206
 21
375.0887830418669
 31
0.0
  0
LINE
  5
206
330
1F
100
AcDbEntity
  8
LAY-10
  6
CONTINUOUS
 62
     7
100
AcDbLine
 10
337.4184026555558
 20
370.4142601611554
 30
0.0
 11
338.2426471613643
 21
375.0887830418669
 31
0.0
  0
LINE
  5
207
330
1F
100
AcDbEntity
  8
LAY-10
  6
CONTINUOUS
 62
     7
100
AcDbLine
 10
329.5399406314582
 20
371.8034455824908
 30
0.0
 11
330.3641851372665
 21
376.4779684632023
 31
0.0
  0
LINE
  5
208
330
1F
100
AcDbEntity
  8
LAY-10
  6
CONTINUOUS
 62
     7
100
AcDbLine
 10
320.7414156753421
 20
375.0058467719654
 30
0.0
 11
323.1147331408137
 21
379.1165532046529
 31
0.0
  0
ARC
  5
209
330
1F
100
AcDbEntity
  8
LAY-10
  6
CONTINUOUS
 62
     7
100
AcDbCircle
 10
342.0999999999924
 20
420.0000000000043
 30
0.0
 40
45.07656352898432
100
AcDbArc
 50
245.0910040933961
 51
254.9089959066043
  0
ARC
  5
20A
330
1F
100
AcDbEntity
  8
LAY-10
  6
CONTINUOUS
 62
     7
100
AcDbCircle
 10
342.0999999999924
 20
420.0000000000043
 30
0.0
 40
45.07656352898432
100
AcDbArc
 50
265.0910040933962
 51
274.9089959066042
  0
ARC
  5
20B
330
1F
100
AcDbEntity
  8
LAY-10
  6
CONTINUOUS
 62
     7
100
AcDbCircle
 10
342.0999999999992
 20
420.0000000000043
 30
0.0
 40
45.07656352898432
100
AcDbArc
 50
285.091004093396
 51
294.9089959066039
  0
LINE
  5
20C
330
1F
100
AcDbEntity
  8
LAY-10
  6
CONTINUOUS
 62
     7
100
AcDbLine
 10
342.099999999992
 20
369.2188021535121
 30
0.0
 11
334.0999999999922
 21
364.5999999999951
 31
0.0
  0
LINE
  5
20D
330
1F
100
AcDbEntity
  8
LAY-10
  6
CONTINUOUS
 62
     7
100
AcDbLine
 10
342.099999999991
 20
359.9811978464761
 30
0.0
 11
334.099999999991
 21
364.599999999993
 31
0.0
  0
LINE
  5
20E
330
1F
100
AcDbEntity
  8
LAY-10
  6
CONTINUOUS
 62
     7
100
AcDbLine
 10
342.0999999999922
 20
369.2188021535121
 30
0.0
 11
350.0999999999922
 21
364.5999999999951
 31
0.0
  0
LINE
  5
20F
330
1F
100
AcDbEntity
  8
LAY-10
  6
CONTINUOUS
 62
     7
100
AcDbLine
 10
342.0999999999933
 20
359.9811978464761
 30
0.0
 11
350.0999999999933
 21
364.599999999993
 31
0.0
  0
TEXT
  5
210
330
1F
100
AcDbEntity
  8
LAY-10
  6
CONTINUOUS
 62
     7
100
AcDbText
 10
337.419999999992
 20
362.4296064672294
 30
0.0
 40
4.365354485658455
  1
ＳＦ
 41
1.047321426822823
  7
EXCADSTD
100
AcDbText
  0
LINE
  5
211
330
1F
100
AcDbEntity
  8
LAY-10
  6
CONTINUOUS
 62
     7
100
AcDbLine
 10
391.7453718795661
 20
416.0000000000043
 30
0.0
 11
386.9987369486324
 21
416.0000000000043
 31
0.0
  0
LINE
  5
212
330
1F
100
AcDbEntity
  8
LAY-10
  6
CONTINUOUS
 62
     7
100
AcDbLine
 10
390.1194701847064
 20
406.7790532774411
 30
0.0
 11
385.6590923665401
 21
408.4024980368349
 31
0.0
  0
LINE
  5
213
330
1F
100
AcDbEntity
  8
LAY-10
  6
CONTINUOUS
 62
     7
100
AcDbLine
 10
387.3833090380979
 20
399.2615123111549
 30
0.0
 11
382.9229312199348
 21
400.8849570705476
 31
0.0
  0
LINE
  5
214
330
1F
100
AcDbEntity
  8
LAY-10
  6
CONTINUOUS
 62
     7
100
AcDbLine
 10
382.7017116936668
 20
391.1527478500107
 30
0.0
 11
379.0655783813065
 21
394.2038259713235
 31
0.0
  0
LINE
  5
215
330
1F
100
AcDbEntity
  8
LAY-10
  6
CONTINUOUS
 62
     7
100
AcDbLine
 10
377.5594108161748
 20
385.0243923050585
 30
0.0
 11
373.9232775038142
 21
388.0754704263717
 31
0.0
  0
LINE
  5
216
330
1F
100
AcDbEntity
  8
LAY-10
  6
CONTINUOUS
 62
     7
100
AcDbLine
 10
370.3867875549233
 20
379.0058467719685
 30
0.0
 11
368.0134700894536
 21
383.1165532046529
 31
0.0
  0
LINE
  5
217
330
1F
100
AcDbEntity
  8
LAY-10
  6
CONTINUOUS
 62
     7
100
AcDbLine
 10
363.4585843246481
 20
375.0058467719679
 30
0.0
 11
361.085266859178
 21
379.1165532046529
 31
0.0
  0
LINE
  5
218
330
1F
100
AcDbEntity
  8
LAY-10
  6
CONTINUOUS
 62
     7
100
AcDbLine
 10
354.6600593685331
 20
371.8034455824924
 30
0.0
 11
353.8358148627251
 21
376.4779684632023
 31
0.0
  0
ARC
  5
219
330
1F
100
AcDbEntity
  8
LAY-10
  6
CONTINUOUS
 62
     7
100
AcDbCircle
 10
342.0999999999924
 20
420.0000000000043
 30
0.0
 40
45.07656352898432
100
AcDbArc
 50
85.0910040933958
 51
86.18394858745873
  0
ARC
  5
21A
330
1F
100
AcDbEntity
  8
LAY-10
  6
CONTINUOUS
 62
     7
100
AcDbCircle
 10
342.0999999999924
 20
420.0000000000043
 30
0.0
 40
45.07656352898432
100
AcDbArc
 50
93.81605141253158
 51
94.90899590660392
  0
ARC
  5
21B
330
1F
100
AcDbEntity
  8
LAY-10
  6
CONTINUOUS
 62
     7
100
AcDbCircle
 10
342.0999999999992
 20
420.0000000000043
 30
0.0
 40
45.07656352898432
100
AcDbArc
 50
325.091004093396
 51
326.1839485874575
  0
ARC
  5
21C
330
1F
100
AcDbEntity
  8
LAY-10
  6
CONTINUOUS
 62
     7
100
AcDbCircle
 10
342.0999999999992
 20
420.0000000000043
 30
0.0
 40
45.07656352898432
100
AcDbArc
 50
333.8160514125302
 51
334.9089959066043
  0
ARC
  5
21D
330
1F
100
AcDbEntity
  8
LAY-10
  6
CONTINUOUS
 62
     7
100
AcDbCircle
 10
342.0999999999924
 20
420.0000000000043
 30
0.0
 40
49.80625411593857
100
AcDbArc
 50
333.4532098022774
 51
86.54679019771639
  0
ARC
  5
21E
330
1F
100
AcDbEntity
  8
LAY-10
  6
CONTINUOUS
 62
     7
100
AcDbCircle
 10
342.0999999999924
 20
420.0000000000043
 30
0.0
 40
49.80625411593857
100
AcDbArc
 50
93.45320980227486
 51
206.5467901977264
  0
ARC
  5
21F
330
1F
100
AcDbEntity
  8
LAY-10
  6
CONTINUOUS
 62
     7
100
AcDbCircle
 10
342.0999999999924
 20
420.0000000000043
 30
0.0
 40
49.80625411593857
100
AcDbArc
 50
213.4532098022846
 51
326.5467901977193
  0
ARC
  5
220
330
1F
100
AcDbEntity
  8
LAY-10
  6
CONTINUOUS
 62
     7
100
AcDbCircle
 10
342.0999999999924
 20
420.0000000000043
 30
0.0
 40
45.07656352898432
100
AcDbArc
 50
213.8160514125425
 51
214.9089959066042
  0
ARC
  5
221
330
1F
100
AcDbEntity
  8
LAY-10
  6
CONTINUOUS
 62
     7
100
AcDbCircle
 10
342.0999999999924
 20
420.0000000000043
 30
0.0
 40
45.07656352898432
100
AcDbArc
 50
205.0910040933958
 51
206.1839485874696
  0
CIRCLE
  5
222
330
1F
100
AcDbEntity
  8
LAY-10
  6
CONTINUOUS
 62
     7
100
AcDbCircle
 10
342.0999999999924
 20
420.0000000000043
 30
0.0
 40
43.49999999999946
  0
ARC
  5
223
330
1F
100
AcDbEntity
  8
LAY-10
  6
CONTINUOUS
 62
     7
100
AcDbCircle
 10
340.3499999999963
 20
469.8857492994002
 30
0.0
 40
3.500000000000002
100
AcDbArc
 50
128.6821874534895
 51
178.1293582694076
  0
ARC
  5
224
330
1F
100
AcDbEntity
  8
LAY-10
  6
CONTINUOUS
 62
     7
100
AcDbCircle
 10
343.8499999999963
 20
469.8857492994002
 30
0.0
 40
3.500000000000002
100
AcDbArc
 50
1.870641730603566
 51
51.31781254650117
  0
LINE
  5
225
330
1F
100
AcDbEntity
  8
LAY-10
  6
CONTINUOUS
 62
     7
100
AcDbLine
 10
347.3481347568963
 20
470.0000000000004
 30
0.0
 11
336.8518652430962
 21
470.0000000000005
 31
0.0
  0
LINE
  5
226
330
1F
100
AcDbEntity
  8
LAY-10
  6
CONTINUOUS
 62
     7
100
AcDbLine
 10
342.6999999999962
 20
473.9713634881004
 30
0.0
 11
342.6999999999962
 21
471.5000000000004
 31
0.0
  0
LINE
  5
227
330
1F
100
AcDbEntity
  8
LAY-10
  6
CONTINUOUS
 62
     7
100
AcDbLine
 10
342.6999999999962
 20
471.5000000000004
 30
0.0
 11
341.4999999999964
 21
471.5000000000004
 31
0.0
  0
LINE
  5
228
330
1F
100
AcDbEntity
  8
LAY-10
  6
CONTINUOUS
 62
     7
100
AcDbLine
 10
341.4999999999964
 20
473.9713634881004
 30
0.0
 11
341.4999999999964
 21
471.5000000000004
 31
0.0
  0
ARC
  5
229
330
1F
100
AcDbEntity
  8
LAY-10
  6
CONTINUOUS
 62
     7
100
AcDbCircle
 10
342.0999999999963
 20
467.7000000000004
 30
0.0
 40
6.300000000000002
100
AcDbArc
 50
51.31781254649739
 51
84.53497620009915
  0
ARC
  5
22A
330
1F
100
AcDbEntity
  8
LAY-10
  6
CONTINUOUS
 62
     7
100
AcDbCircle
 10
342.0999999999963
 20
467.7000000000004
 30
0.0
 40
6.300000000000002
100
AcDbArc
 50
95.46502379991128
 51
128.6821874534945
  0
LINE
  5
22B
330
1F
100
AcDbEntity
  8
LAY-10
  6
CONTINUOUS
 62
     7
100
AcDbLine
 10
339.5999999999963
 20
458.0000000000024
 30
0.0
 11
339.0999999999963
 21
458.5000000000026
 31
0.0
  0
LINE
  5
22C
330
1F
100
AcDbEntity
  8
LAY-10
  6
CONTINUOUS
 62
     7
100
AcDbLine
 10
344.5999999999963
 20
458.0000000000024
 30
0.0
 11
345.0999999999963
 21
458.5000000000024
 31
0.0
  0
LINE
  5
22D
330
1F
100
AcDbEntity
  8
LAY-10
  6
CONTINUOUS
 62
     7
100
AcDbLine
 10
339.5999999999963
 20
458.0000000000024
 30
0.0
 11
344.5999999999963
 21
458.0000000000024
 31
0.0
  0
LINE
  5
22E
330
1F
100
AcDbEntity
  8
LAY-10
  6
CONTINUOUS
 62
     7
100
AcDbLine
 10
345.0999999999963
 20
458.5000000000024
 30
0.0
 11
339.0999999999963
 21
458.5000000000026
 31
0.0
  0
ARC
  5
22F
330
1F
100
AcDbEntity
  8
LAY-10
  6
CONTINUOUS
 62
     7
100
AcDbCircle
 10
299.7726738198922
 20
393.5415808936772
 30
0.0
 40
3.500000000000002
100
AcDbArc
 50
248.6821874534895
 51
298.1293582694069
  0
ARC
  5
230
330
1F
100
AcDbEntity
  8
LAY-10
  6
CONTINUOUS
 62
     7
100
AcDbCircle
 10
298.0226738198922
 20
396.5726698069228
 30
0.0
 40
3.500000000000002
100
AcDbArc
 50
121.8706417306039
 51
171.317812546502
  0
LINE
  5
231
330
1F
100
AcDbEntity
  8
LAY-10
  6
CONTINUOUS
 62
     7
100
AcDbLine
 10
296.1746624323223
 20
399.5450180219594
 30
0.0
 11
301.4227971892223
 21
390.4549819780403
 31
0.0
  0
LINE
  5
232
330
1F
100
AcDbEntity
  8
LAY-10
  6
CONTINUOUS
 62
     7
100
AcDbLine
 10
295.0594281424158
 20
393.5339334982205
 30
0.0
 11
297.1996917050957
 21
394.7696152422705
 31
0.0
  0
LINE
  5
233
330
1F
100
AcDbEntity
  8
LAY-10
  6
CONTINUOUS
 62
     7
100
AcDbLine
 10
297.1996917050957
 20
394.7696152422705
 30
0.0
 11
297.7996917050956
 21
393.7303847577293
 31
0.0
  0
LINE
  5
234
330
1F
100
AcDbEntity
  8
LAY-10
  6
CONTINUOUS
 62
     7
100
AcDbLine
 10
295.6594281424157
 20
392.4947030136793
 30
0.0
 11
297.7996917050956
 21
393.7303847577293
 31
0.0
  0
ARC
  5
235
330
1F
100
AcDbEntity
  8
LAY-10
  6
CONTINUOUS
 62
     7
100
AcDbCircle
 10
300.7905882394764
 20
396.1499999999999
 30
0.0
 40
6.300000000000002
100
AcDbArc
 50
171.3178125464973
 51
204.5349762000987
  0
ARC
  5
236
330
1F
100
AcDbEntity
  8
LAY-10
  6
CONTINUOUS
 62
     7
100
AcDbCircle
 10
300.7905882394764
 20
396.1499999999999
 30
0.0
 40
6.300000000000002
100
AcDbArc
 50
215.465023799911
 51
248.6821874534951
  0
LINE
  5
237
330
1F
100
AcDbEntity
  8
LAY-10
  6
CONTINUOUS
 62
     7
100
AcDbLine
 10
310.4410346561838
 20
398.8349364905378
 30
0.0
 11
310.2580219542914
 21
398.1519237886455
 31
0.0
  0
LINE
  5
238
330
1F
100
AcDbEntity
  8
LAY-10
  6
CONTINUOUS
 62
     7
100
AcDbLine
 10
307.9410346561838
 20
403.16506350946
 30
0.0
 11
307.2580219542915
 21
403.3480762113522
 31
0.0
  0
LINE
  5
239
330
1F
100
AcDbEntity
  8
LAY-10
  6
CONTINUOUS
 62
     7
100
AcDbLine
 10
310.4410346561838
 20
398.8349364905378
 30
0.0
 11
307.9410346561838
 21
403.16506350946
 31
0.0
  0
LINE
  5
23A
330
1F
100
AcDbEntity
  8
LAY-10
  6
CONTINUOUS
 62
     7
100
AcDbLine
 10
307.2580219542915
 20
403.3480762113522
 30
0.0
 11
310.2580219542914
 21
398.1519237886455
 31
0.0
  0
ARC
  5
23B
330
1F
100
AcDbEntity
  8
LAY-10
  6
CONTINUOUS
 62
     7
100
AcDbCircle
 10
386.1773261800996
 20
396.5726698069224
 30
0.0
 40
3.500000000000002
100
AcDbArc
 50
8.682187453489682
 51
58.12935826940699
  0
ARC
  5
23C
330
1F
100
AcDbEntity
  8
LAY-10
  6
CONTINUOUS
 62
     7
100
AcDbCircle
 10
384.4273261800996
 20
393.5415808936769
 30
0.0
 40
3.500000000000002
100
AcDbArc
 50
241.870641730604
 51
291.3178125465005
  0
LINE
  5
23D
330
1F
100
AcDbEntity
  8
LAY-10
  6
CONTINUOUS
 62
     7
100
AcDbLine
 10
382.7772028107695
 20
390.45498197804
 30
0.0
 11
388.0253375676697
 21
399.545018021959
 31
0.0
  0
LINE
  5
23E
330
1F
100
AcDbEntity
  8
LAY-10
  6
CONTINUOUS
 62
     7
100
AcDbLine
 10
388.5405718575762
 20
392.4947030136789
 30
0.0
 11
386.4003082948963
 21
393.7303847577289
 31
0.0
  0
LINE
  5
23F
330
1F
100
AcDbEntity
  8
LAY-10
  6
CONTINUOUS
 62
     7
100
AcDbLine
 10
386.4003082948963
 20
393.7303847577289
 30
0.0
 11
387.0003082948962
 21
394.7696152422701
 31
0.0
  0
LINE
  5
240
330
1F
100
AcDbEntity
  8
LAY-10
  6
CONTINUOUS
 62
     7
100
AcDbLine
 10
389.1405718575761
 20
393.5339334982201
 30
0.0
 11
387.0003082948962
 21
394.7696152422701
 31
0.0
  0
ARC
  5
241
330
1F
100
AcDbEntity
  8
LAY-10
  6
CONTINUOUS
 62
     7
100
AcDbCircle
 10
383.4094117605155
 20
396.1499999999995
 30
0.0
 40
6.300000000000002
100
AcDbArc
 50
291.3178125464972
 51
324.534976200099
  0
ARC
  5
242
330
1F
100
AcDbEntity
  8
LAY-10
  6
CONTINUOUS
 62
     7
100
AcDbCircle
 10
383.4094117605155
 20
396.1499999999995
 30
0.0
 40
6.300000000000002
100
AcDbArc
 50
335.4650237999111
 51
8.682187453494326
  0
LINE
  5
243
330
1F
100
AcDbEntity
  8
LAY-10
  6
CONTINUOUS
 62
     7
100
AcDbLine
 10
376.2589653438081
 20
403.1650635094596
 30
0.0
 11
376.9419780457004
 21
403.3480762113518
 31
0.0
  0
LINE
  5
244
330
1F
100
AcDbEntity
  8
LAY-10
  6
CONTINUOUS
 62
     7
100
AcDbLine
 10
373.7589653438081
 20
398.8349364905374
 30
0.0
 11
373.9419780457004
 21
398.1519237886452
 31
0.0
  0
LINE
  5
245
330
1F
100
AcDbEntity
  8
LAY-10
  6
CONTINUOUS
 62
     7
100
AcDbLine
 10
376.2589653438081
 20
403.1650635094596
 30
0.0
 11
373.7589653438081
 21
398.8349364905374
 31
0.0
  0
LINE
  5
246
330
1F
100
AcDbEntity
  8
LAY-10
  6
CONTINUOUS
 62
     7
100
AcDbLine
 10
373.9419780457004
 20
398.1519237886452
 30
0.0
 11
376.9419780457004
 21
403.3480762113518
 31
0.0
  0
LINE
  5
247
330
1F
100
AcDbEntity
  8
LAY-10
  6
CONTINUOUS
 62
     7
100
AcDbLine
 10
339.0999999999963
 20
470.0000000000004
 30
0.0
 11
339.0999999999963
 21
463.3964284244723
 31
0.0
  0
LINE
  5
248
330
1F
100
AcDbEntity
  8
LAY-10
  6
CONTINUOUS
 62
     7
100
AcDbLine
 10
339.0999999999963
 20
459.3638142094555
 30
0.0
 11
339.0999999999963
 21
458.5000000000026
 31
0.0
  0
LINE
  5
249
330
1F
100
AcDbEntity
  8
LAY-10
  6
CONTINUOUS
 62
     7
100
AcDbLine
 10
345.0999999999963
 20
470.0000000000004
 30
0.0
 11
345.0999999999963
 21
463.3964284244718
 31
0.0
  0
LINE
  5
24A
330
1F
100
AcDbEntity
  8
LAY-10
  6
CONTINUOUS
 62
     7
100
AcDbLine
 10
345.0999999999963
 20
459.363814209455
 30
0.0
 11
345.0999999999963
 21
458.5000000000024
 31
0.0
  0
LINE
  5
24B
330
1F
100
AcDbEntity
  8
LAY-10
  6
CONTINUOUS
 62
     7
100
AcDbLine
 10
386.9012701892195
 20
397.5980762113529
 30
0.0
 11
381.1824094490939
 21
400.8998619991223
 31
0.0
  0
LINE
  5
24C
330
1F
100
AcDbEntity
  8
LAY-10
  6
CONTINUOUS
 62
     7
100
AcDbLine
 10
377.6900630952272
 20
402.9161691066307
 30
0.0
 11
376.9419780457004
 21
403.3480762113518
 31
0.0
  0
LINE
  5
24D
330
1F
100
AcDbEntity
  8
LAY-10
  6
CONTINUOUS
 62
     7
100
AcDbLine
 10
383.9012701892195
 20
392.4019237886462
 30
0.0
 11
378.1824094490937
 21
395.7037095764159
 31
0.0
  0
LINE
  5
24E
330
1F
100
AcDbEntity
  8
LAY-10
  6
CONTINUOUS
 62
     7
100
AcDbLine
 10
374.6900630952271
 20
397.7200166839243
 30
0.0
 11
373.9419780457004
 21
398.1519237886452
 31
0.0
  0
LINE
  5
24F
330
1F
100
AcDbEntity
  8
LAY-10
  6
CONTINUOUS
 62
     7
100
AcDbLine
 10
297.2987298107723
 20
397.5980762113533
 30
0.0
 11
303.0175905508922
 21
400.8998619991195
 31
0.0
  0
LINE
  5
250
330
1F
100
AcDbEntity
  8
LAY-10
  6
CONTINUOUS
 62
     7
100
AcDbLine
 10
306.509936904759
 20
402.9161691066279
 30
0.0
 11
307.2580219542915
 21
403.3480762113522
 31
0.0
  0
LINE
  5
251
330
1F
100
AcDbEntity
  8
LAY-10
  6
CONTINUOUS
 62
     7
100
AcDbLine
 10
300.2987298107723
 20
392.4019237886466
 30
0.0
 11
306.0175905508928
 21
395.7037095764132
 31
0.0
  0
LINE
  5
252
330
1F
100
AcDbEntity
  8
LAY-10
  6
CONTINUOUS
 62
     7
100
AcDbLine
 10
309.5099369047596
 20
397.7200166839216
 30
0.0
 11
310.2580219542914
 21
398.1519237886455
 31
0.0
  0
LINE
  5
253
330
1F
100
AcDbEntity
  8
LAY-10
  6
CONTINUOUS
 62
     7
100
AcDbLine
 10
281.4473001425245
 20
426.4999999999982
 30
0.0
 11
279.8053032102606
 21
426.4999999999982
 31
0.0
  0
LINE
  5
254
330
1F
100
AcDbEntity
  8
LAY-10
  6
CONTINUOUS
 62
     7
100
AcDbLine
 10
281.395799156887
 20
425.9999999999982
 30
0.0
 11
279.3052591607446
 21
425.9999999999982
 31
0.0
  0
LINE
  5
255
330
1F
100
AcDbEntity
  8
LAY-10
  6
CONTINUOUS
 62
     7
100
AcDbLine
 10
281.4473001425258
 20
413.4999999999981
 30
0.0
 11
279.8053032102606
 21
413.4999999999981
 31
0.0
  0
LINE
  5
256
330
1F
100
AcDbEntity
  8
LAY-10
  6
CONTINUOUS
 62
     7
100
AcDbLine
 10
281.3957991568882
 20
413.9999999999981
 30
0.0
 11
279.3052591607445
 21
413.9999999999981
 31
0.0
  0
ARC
  5
257
330
1F
100
AcDbEntity
  8
LAY-10
  6
CONTINUOUS
 62
     7
100
AcDbCircle
 10
342.0999999999924
 20
420.0000000000043
 30
0.0
 40
61.00000000000004
100
AcDbArc
 50
4.151040185121093
 51
175.8489598148815
  0
LINE
  5
258
330
1F
100
AcDbEntity
  8
LAY-10
  6
CONTINUOUS
 62
     7
100
AcDbLine
 10
402.8042008430978
 20
425.9999999999982
 30
0.0
 11
404.8947408392556
 21
425.9999999999982
 31
0.0
  0
LINE
  5
259
330
1F
100
AcDbEntity
  8
LAY-10
  6
CONTINUOUS
 62
     7
100
AcDbLine
 10
402.7526998574602
 20
426.4999999999982
 30
0.0
 11
404.3946967897397
 21
426.4999999999982
 31
0.0
  0
ARC
  5
25A
330
1F
100
AcDbEntity
  8
LAY-10
  6
CONTINUOUS
 62
     7
100
AcDbCircle
 10
342.0999999999924
 20
420.0000000000043
 30
0.0
 40
61.00000000000004
100
AcDbArc
 50
184.1510401851248
 51
355.848959814873
  0
LINE
  5
25B
330
1F
100
AcDbEntity
  8
LAY-10
  6
CONTINUOUS
 62
     7
100
AcDbLine
 10
402.7526998574589
 20
413.4999999999981
 30
0.0
 11
404.3946967897397
 21
413.4999999999981
 31
0.0
  0
LINE
  5
25C
330
1F
100
AcDbEntity
  8
LAY-10
  6
CONTINUOUS
 62
     7
100
AcDbLine
 10
402.8042008430966
 20
413.9999999999981
 30
0.0
 11
404.8947408392557
 21
413.9999999999981
 31
0.0
  0
LINE
  5
25D
330
1F
100
AcDbEntity
  8
LAY-10
  6
CONTINUOUS
 62
     7
100
AcDbLine
 10
337.6000000000004
 20
357.5289727303463
 30
0.0
 11
337.6000000000003
 21
359.1662100473794
 31
0.0
  0
LINE
  5
25E
330
1F
100
AcDbEntity
  8
LAY-10
  6
CONTINUOUS
 62
     7
100
AcDbLine
 10
338.1000000000001
 20
357.0462115749217
 30
0.0
 11
338.1000000000001
 21
359.1312888258709
 31
0.0
  0
LINE
  5
25F
330
1F
100
AcDbEntity
  8
LAY-10
  6
CONTINUOUS
 62
     7
100
AcDbLine
 10
346.1000000000001
 20
357.0462115749217
 30
0.0
 11
346.1000000000001
 21
359.1312888258719
 31
0.0
  0
LINE
  5
260
330
1F
100
AcDbEntity
  8
LAY-10
  6
CONTINUOUS
 62
     7
100
AcDbLine
 10
346.5999999999997
 20
359.1662100473806
 30
0.0
 11
346.5999999999998
 21
357.5289727303461
 31
0.0
  0
LINE
  5
261
330
1F
100
AcDbEntity
  8
LAY-10
  6
CONTINUOUS
 62
     7
100
AcDbLine
 10
337.6000000000004
 20
482.4710272696499
 30
0.0
 11
337.6000000000004
 21
480.8337899526291
 31
0.0
  0
LINE
  5
262
330
1F
100
AcDbEntity
  8
LAY-10
  6
CONTINUOUS
 62
     7
100
AcDbLine
 10
338.1000000000001
 20
482.9537884250744
 30
0.0
 11
338.1000000000001
 21
480.8687111741376
 31
0.0
  0
LINE
  5
263
330
1F
100
AcDbEntity
  8
LAY-10
  6
CONTINUOUS
 62
     7
100
AcDbLine
 10
346.5999999999998
 20
480.833789952628
 30
0.0
 11
346.5999999999998
 21
482.47102726965
 31
0.0
  0
LINE
  5
264
330
1F
100
AcDbEntity
  8
LAY-10
  6
CONTINUOUS
 62
     7
100
AcDbLine
 10
346.1000000000001
 20
482.9537884250744
 30
0.0
 11
346.1000000000001
 21
480.8687111741366
 31
0.0
  0
ARC
  5
265
330
1F
100
AcDbEntity
  8
LAY-10
  6
CONTINUOUS
 62
     7
100
AcDbCircle
 10
342.1000000000001
 20
419.9999999999978
 30
0.0
 40
63.08073776573372
100
AcDbArc
 50
1.252606341114257
 51
5.458007803956265
  0
ARC
  5
266
330
1F
100
AcDbEntity
  8
LAY-10
  6
CONTINUOUS
 62
     7
100
AcDbCircle
 10
342.1000000000001
 20
419.9999999999978
 30
0.0
 40
63.08073776573372
100
AcDbArc
 50
354.5419921960449
 51
358.7473936588921
  0
ARC
  5
267
330
1F
100
AcDbEntity
  8
LAY-10
  6
CONTINUOUS
 62
     7
100
AcDbCircle
 10
342.1000000000001
 20
419.9999999999978
 30
0.0
 40
63.08073776573372
100
AcDbArc
 50
174.5419921960438
 51
178.7473936588435
  0
ARC
  5
268
330
1F
100
AcDbEntity
  8
LAY-10
  6
CONTINUOUS
 62
     7
100
AcDbCircle
 10
342.1000000000001
 20
419.9999999999978
 30
0.0
 40
63.08073776573372
100
AcDbArc
 50
181.2526063411507
 51
185.4580078039555
  0
LINE
  5
269
330
1F
100
AcDbEntity
  8
LAY-10
  6
CONTINUOUS
 62
     7
100
AcDbLine
 10
272.7896262955996
 20
187.0735454402212
 30
0.0
 11
265.600000000002
 21
189.0000000000081
 31
0.0
  0
LINE
  5
26A
330
1F
100
AcDbEntity
  8
LAY-10
  6
CONTINUOUS
 62
     7
100
AcDbLine
 10
259.5999999999999
 20
182.0000000000081
 30
0.0
 11
260.5999999999999
 21
189.0000000000081
 31
0.0
  0
LINE
  5
26B
330
1F
100
AcDbEntity
  8
LAY-10
  6
CONTINUOUS
 62
     7
100
AcDbLine
 10
263.640610178209
 20
182.0000000000081
 30
0.0
 11
263.7872389158979
 21
183.0264011638303
 31
0.0
  0
LINE
  5
26C
330
1F
100
AcDbEntity
  8
LAY-10
  6
CONTINUOUS
 62
     7
100
AcDbLine
 10
266.2847759934252
 20
184.6754101039336
 30
0.0
 11
273.5391608067614
 21
182.7316035516157
 31
0.0
  0
ARC
  5
26D
330
1F
100
AcDbEntity
  8
LAY-10
  6
CONTINUOUS
 62
     7
100
AcDbCircle
 10
265.7671379032201
 20
182.7435584513556
 30
0.0
 40
2.0
100
AcDbArc
 50
74.99999999999885
 51
171.8698976458419
  0
LINE
  5
26E
330
1F
100
AcDbEntity
  8
LAY-10
  6
CONTINUOUS
 62
     7
100
AcDbLine
 10
279.0192622342663
 20
181.0000000000081
 30
0.0
 11
278.6496649680416
 21
188.0523359562509
 31
0.0
  0
ARC
  5
26F
330
1F
100
AcDbEntity
  8
LAY-10
  6
CONTINUOUS
 62
     7
100
AcDbCircle
 10
273.0215227165565
 20
180.7997518990375
 30
0.0
 40
2.0
100
AcDbArc
 50
3.000000000002355
 51
75.00000000000554
  0
LINE
  5
270
330
1F
100
AcDbEntity
  8
LAY-10
  6
CONTINUOUS
 62
     7
100
AcDbLine
 10
405.1807377657337
 20
181.0000000000081
 30
0.0
 11
405.5503350319584
 21
188.0523359562509
 31
0.0
  0
LINE
  5
271
330
1F
100
AcDbEntity
  8
LAY-10
  6
CONTINUOUS
 62
     7
100
AcDbLine
 10
424.6000000000001
 20
182.0000000000081
 30
0.0
 11
423.6000000000001
 21
189.0000000000081
 31
0.0
  0
LINE
  5
272
330
1F
100
AcDbEntity
  8
LAY-10
  6
CONTINUOUS
 62
     7
100
AcDbLine
 10
411.4103737044006
 20
187.0735454402212
 30
0.0
 11
418.5999999999981
 21
189.0000000000081
 31
0.0
  0
LINE
  5
273
330
1F
100
AcDbEntity
  8
LAY-10
  6
CONTINUOUS
 62
     7
100
AcDbLine
 10
281.6000000000017
 20
173.5000000000363
 30
0.0
 11
286.6000000000013
 21
173.5000000000363
 31
0.0
  0
LINE
  5
274
330
1F
100
AcDbEntity
  8
LAY-10
  6
CONTINUOUS
 62
     7
100
AcDbLine
 10
284.1000000000004
 20
172.0566243270627
 30
0.0
 11
281.6000000000013
 21
173.5000000000363
 31
0.0
  0
LINE
  5
275
330
1F
100
AcDbEntity
  8
LAY-10
  6
CONTINUOUS
 62
     7
100
AcDbLine
 10
284.1000000000006
 20
172.0566243270629
 30
0.0
 11
286.5999999999995
 21
173.5000000000363
 31
0.0
  0
LINE
  5
276
330
1F
100
AcDbEntity
  8
LAY-10
  6
CONTINUOUS
 62
     7
100
AcDbLine
 10
403.2592355561358
 20
166.5948468800165
 30
0.0
 11
392.965978839336
 21
165.6943036065346
 31
0.0
  0
ARC
  5
277
330
1F
100
AcDbEntity
  8
LAY-10
  6
CONTINUOUS
 62
     7
100
AcDbCircle
 10
402.7363010996498
 20
172.5720150685671
 30
0.0
 40
6.000000000000004
100
AcDbArc
 50
274.9999999999998
 51
344.8110826733587
  0
LINE
  5
278
330
1F
100
AcDbEntity
  8
LAY-10
  6
CONTINUOUS
 62
     7
100
AcDbLine
 10
312.1000000000001
 20
124.0000000000097
 30
0.0
 11
372.0999999999999
 21
124.0000000000097
 31
0.0
  0
LINE
  5
279
330
1F
100
AcDbEntity
  8
LAY-10
  6
CONTINUOUS
 62
     7
100
AcDbLine
 10
275.0187817860656
 20
180.9044238115235
 30
0.0
 11
275.4719216918227
 21
172.2579993311094
 31
0.0
  0
ARC
  5
27A
330
1F
100
AcDbEntity
  8
LAY-10
  6
CONTINUOUS
 62
     7
100
AcDbCircle
 10
281.4636989003502
 20
172.5720150685671
 30
0.0
 40
6.000000000000004
100
AcDbArc
 50
183.0000000000002
 51
265.0000000000004
  0
LINE
  5
27B
330
1F
100
AcDbEntity
  8
LAY-10
  6
CONTINUOUS
 62
     7
100
AcDbLine
 10
423.6000000000001
 20
171.0000000000081
 30
0.0
 11
424.6000000000001
 21
182.0000000000081
 31
0.0
  0
LINE
  5
27C
330
1F
100
AcDbEntity
  8
LAY-10
  6
CONTINUOUS
 62
     7
100
AcDbLine
 10
408.5267042483283
 20
171.0000000000081
 30
0.0
 11
423.6000000000001
 21
171.0000000000081
 31
0.0
  0
LINE
  5
27D
330
1F
100
AcDbEntity
  8
LAY-10
  6
CONTINUOUS
 62
     7
100
AcDbLine
 10
350.5478450644896
 20
172.4546071095642
 30
0.0
 11
392.1521549355107
 21
172.4546071095642
 31
0.0
  0
LINE
  5
27E
330
1F
100
AcDbEntity
  8
LAY-10
  6
CONTINUOUS
 62
     7
100
AcDbLine
 10
294.0478450644907
 20
172.4546071095642
 30
0.0
 11
337.6521549355111
 21
172.4546071095642
 31
0.0
  0
ARC
  5
27F
330
1F
100
AcDbEntity
  8
LAY-10
  6
CONTINUOUS
 62
     7
100
AcDbCircle
 10
275.2369555539146
 20
188.0000000000081
 30
0.0
 40
1.0
100
AcDbArc
 50
90.00000000000004
 51
154.9906497524266
  0
ARC
  5
280
330
1F
100
AcDbEntity
  8
LAY-10
  6
CONTINUOUS
 62
     7
100
AcDbCircle
 10
277.651035433287
 20
188.0000000000081
 30
0.0
 40
1.0
100
AcDbArc
 50
2.999999999992558
 51
90.00000000000004
  0
ARC
  5
281
330
1F
100
AcDbEntity
  8
LAY-10
  6
CONTINUOUS
 62
     7
100
AcDbCircle
 10
408.9630444460856
 20
188.0000000000081
 30
0.0
 40
1.0
100
AcDbArc
 50
25.00935024758212
 51
90.00000000000004
  0
ARC
  5
282
330
1F
100
AcDbEntity
  8
LAY-10
  6
CONTINUOUS
 62
     7
100
AcDbCircle
 10
406.548964566713
 20
188.0000000000081
 30
0.0
 40
1.0
100
AcDbArc
 50
90.00000000000004
 51
177.0000000000074
  0
LINE
  5
283
330
1F
100
AcDbEntity
  8
LAY-10
  6
CONTINUOUS
 62
     7
100
AcDbLine
 10
410.245315852505
 20
187.6167051076681
 30
0.0
 11
409.8692832528786
 21
188.4227661588503
 31
0.0
  0
ARC
  5
284
330
1F
100
AcDbEntity
  8
LAY-10
  6
CONTINUOUS
 62
     7
100
AcDbCircle
 10
411.151554659298
 20
188.0394712665102
 30
0.0
 40
1.0
100
AcDbArc
 50
205.0093502475806
 51
285.0000000000078
  0
LINE
  5
285
330
1F
100
AcDbEntity
  8
LAY-10
  6
CONTINUOUS
 62
     7
100
AcDbLine
 10
273.9546841474951
 20
187.6167051076681
 30
0.0
 11
274.3307167471214
 21
188.4227661588503
 31
0.0
  0
ARC
  5
286
330
1F
100
AcDbEntity
  8
LAY-10
  6
CONTINUOUS
 62
     7
100
AcDbCircle
 10
273.0484453407021
 20
188.0394712665102
 30
0.0
 40
1.0
100
AcDbArc
 50
254.9999999999922
 51
334.9906497524194
  0
ARC
  5
287
330
1F
100
AcDbEntity
  8
LAY-10
  6
CONTINUOUS
 62
     7
100
AcDbCircle
 10
278.486038074725
 20
188.0000000000081
 30
0.0
 40
1.0
100
AcDbArc
 50
5.627534062601337
 51
90.00000000000004
  0
ARC
  5
288
330
1F
100
AcDbEntity
  8
LAY-10
  6
CONTINUOUS
 62
     7
100
AcDbCircle
 10
279.624301023113
 20
188.0000000000081
 30
0.0
 40
1.0
100
AcDbArc
 50
90.00000000000004
 51
124.6896829907496
  0
LINE
  5
289
330
1F
100
AcDbEntity
  8
LAY-10
  6
CONTINUOUS
 62
     7
100
AcDbLine
 10
279.6515945770501
 20
186.3689874418232
 30
0.0
 11
279.4812184653476
 21
188.098061155009
 31
0.0
  0
ARC
  5
28A
330
1F
100
AcDbEntity
  8
LAY-10
  6
CONTINUOUS
 62
     7
100
AcDbCircle
 10
280.6467749676729
 20
186.4670485968242
 30
0.0
 40
1.0
100
AcDbArc
 50
185.6275340626082
 51
270.0000000000001
  0
ARC
  5
28B
330
1F
100
AcDbEntity
  8
LAY-10
  6
CONTINUOUS
 62
     7
100
AcDbCircle
 10
365.5492030957558
 20
188.0000000000081
 30
0.0
 40
1.0
100
AcDbArc
 50
90.00000000000004
 51
164.1515490149424
  0
LINE
  5
28C
330
1F
100
AcDbEntity
  8
LAY-10
  6
CONTINUOUS
 62
     7
100
AcDbLine
 10
363.9969792244844
 20
186.1939547675863
 30
0.0
 11
364.5872156943664
 21
188.2730938292461
 31
0.0
  0
ARC
  5
28D
330
1F
100
AcDbEntity
  8
LAY-10
  6
CONTINUOUS
 62
     7
100
AcDbCircle
 10
354.4736252503297
 20
187.8564064605587
 30
0.0
 40
1.0
100
AcDbArc
 50
208.0850337165319
 51
270.0000000000001
  0
ARC
  5
28E
330
1F
100
AcDbEntity
  8
LAY-10
  6
CONTINUOUS
 62
     7
100
AcDbCircle
 10
352.5317584368335
 20
188.6696466465118
 30
0.0
 40
0.330353353492939
100
AcDbArc
 50
28.08503371652632
 51
195.1582877330302
  0
LINE
  5
28F
330
1F
100
AcDbEntity
  8
LAY-10
  6
CONTINUOUS
 62
     7
100
AcDbLine
 10
352.8570478519057
 20
186.205562035434
 30
0.0
 11
352.2128990289988
 21
188.5832636840623
 31
0.0
  0
LINE
  5
290
330
1F
100
AcDbEntity
  8
LAY-10
  6
CONTINUOUS
 62
     7
100
AcDbLine
 10
353.5913753809593
 20
187.3856250165787
 30
0.0
 11
352.8232126398016
 21
188.8251708752944
 31
0.0
  0
ARC
  5
291
330
1F
100
AcDbEntity
  8
LAY-10
  6
CONTINUOUS
 62
     7
100
AcDbCircle
 10
405.7139619252752
 20
188.0000000000081
 30
0.0
 40
1.0
100
AcDbArc
 50
90.00000000000004
 51
174.3724659373987
  0
ARC
  5
292
330
1F
100
AcDbEntity
  8
LAY-10
  6
CONTINUOUS
 62
     7
100
AcDbCircle
 10
404.5756989768871
 20
188.0000000000081
 30
0.0
 40
1.0
100
AcDbArc
 50
55.31031700926121
 51
90.00000000000004
  0
ARC
  5
293
330
1F
100
AcDbEntity
  8
LAY-10
  6
CONTINUOUS
 62
     7
100
AcDbCircle
 10
402.4577990254214
 20
188.0000000000081
 30
0.0
 40
1.0
100
AcDbArc
 50
90.00000000000004
 51
182.8693470177255
  0
LINE
  5
294
330
1F
100
AcDbEntity
  8
LAY-10
  6
CONTINUOUS
 62
     7
100
AcDbLine
 10
404.5484054229499
 20
186.3689874418232
 30
0.0
 11
404.7187815346524
 21
188.098061155009
 31
0.0
  0
ARC
  5
295
330
1F
100
AcDbEntity
  8
LAY-10
  6
CONTINUOUS
 62
     7
100
AcDbCircle
 10
403.5532250323273
 20
186.4670485968242
 30
0.0
 40
1.0
100
AcDbArc
 50
270.0000000000001
 51
354.3724659373919
  0
LINE
  5
296
330
1F
100
AcDbEntity
  8
LAY-10
  6
CONTINUOUS
 62
     7
100
AcDbLine
 10
401.4590527441718
 20
187.9499413774744
 30
0.0
 11
401.5358865077562
 21
186.4169899742905
 31
0.0
  0
LINE
  5
297
330
1F
100
AcDbEntity
  8
LAY-10
  6
CONTINUOUS
 62
     7
100
AcDbLine
 10
387.4266803763201
 20
158.9476640437669
 30
0.0
 11
387.1541954691867
 21
164.1469858021243
 31
0.0
  0
LINE
  5
298
330
1F
100
AcDbEntity
  8
LAY-10
  6
CONTINUOUS
 62
     7
100
AcDbLine
 10
391.7503941908385
 20
158.9476640437669
 30
0.0
 11
392.054505047329
 21
164.7504448646857
 31
0.0
  0
ARC
  5
299
330
1F
100
AcDbEntity
  8
LAY-10
  6
CONTINUOUS
 62
     7
100
AcDbCircle
 10
388.4253099110747
 20
159.0000000000097
 30
0.0
 40
1.0
100
AcDbArc
 50
182.9999999999926
 51
270.0000000000001
  0
ARC
  5
29A
330
1F
100
AcDbEntity
  8
LAY-10
  6
CONTINUOUS
 62
     7
100
AcDbCircle
 10
390.7517646560839
 20
159.0000000000097
 30
0.0
 40
1.0
100
AcDbArc
 50
270.0000000000001
 51
357.0000000000076
  0
ARC
  5
29B
330
1F
100
AcDbEntity
  8
LAY-10
  6
CONTINUOUS
 62
     7
100
AcDbCircle
 10
386.155565934432
 20
164.0946498458815
 30
0.0
 40
1.0
100
AcDbArc
 50
2.999999999992558
 51
94.99999999999979
  0
ARC
  5
29C
330
1F
100
AcDbEntity
  8
LAY-10
  6
CONTINUOUS
 62
     7
100
AcDbCircle
 10
393.0531345820837
 20
164.6981089084429
 30
0.0
 40
1.0
100
AcDbArc
 50
94.99999999999979
 51
177.0000000000074
  0
LINE
  5
29D
330
1F
100
AcDbEntity
  8
LAY-10
  6
CONTINUOUS
 62
     7
100
AcDbLine
 10
281.6000000000017
 20
174.5000000000356
 30
0.0
 11
286.6000000000013
 21
174.5000000000356
 31
0.0
  0
LINE
  5
29E
330
1F
100
AcDbEntity
  8
LAY-10
  6
CONTINUOUS
 62
     7
100
AcDbLine
 10
281.1000000000004
 20
175.0000000000363
 30
0.0
 11
287.1000000000001
 21
175.0000000000363
 31
0.0
  0
LINE
  5
29F
330
1F
100
AcDbEntity
  8
LAY-10
  6
CONTINUOUS
 62
     7
100
AcDbLine
 10
297.6000000000008
 20
164.87488663527
 30
0.0
 11
297.600000000001
 21
109.0000000000081
 31
0.0
  0
LINE
  5
2A0
330
1F
100
AcDbEntity
  8
LAY-10
  6
CONTINUOUS
 62
     7
100
AcDbLine
 10
300.600000000001
 20
109.0000000000081
 30
0.0
 11
300.6000000000008
 21
164.874886635269
 31
0.0
  0
LINE
  5
2A1
330
1F
100
AcDbEntity
  8
LAY-10
  6
CONTINUOUS
 62
     7
100
AcDbLine
 10
297.600000000001
 20
109.0000000000081
 30
0.0
 11
386.599999999996
 21
109.0000000000081
 31
0.0
  0
LINE
  5
2A2
330
1F
100
AcDbEntity
  8
LAY-10
  6
CONTINUOUS
 62
     7
100
AcDbLine
 10
386.6
 20
164.87488663527
 30
0.0
 11
386.5999999999999
 21
109.0000000000081
 31
0.0
  0
LINE
  5
2A3
330
1F
100
AcDbEntity
  8
LAY-10
  6
CONTINUOUS
 62
     7
100
AcDbLine
 10
383.5999999999998
 20
109.0000000000081
 30
0.0
 11
383.6
 21
164.874886635269
 31
0.0
  0
LINE
  5
2A4
330
1F
100
AcDbEntity
  8
LAY-10
  6
CONTINUOUS
 62
     7
100
AcDbLine
 10
298.5999999999963
 20
246.0000000000068
 30
0.0
 11
385.5999999999954
 21
246.0000000000068
 31
0.0
  0
ARC
  5
2A5
330
1F
100
AcDbEntity
  8
LAY-10
  6
CONTINUOUS
 62
     7
100
AcDbCircle
 10
400.9400319701524
 20
183.0000000000068
 30
0.0
 40
2.0
100
AcDbArc
 50
270.0000000000001
 51
357.000000000001
  0
LINE
  5
2A6
330
1F
100
AcDbEntity
  8
LAY-10
  6
CONTINUOUS
 62
     7
100
AcDbLine
 10
292.6090585898544
 20
189.0000000000068
 30
0.0
 11
298.5999999999963
 21
246.0000000000068
 31
0.0
  0
LINE
  5
2A7
330
1F
100
AcDbEntity
  8
LAY-10
  6
CONTINUOUS
 62
     7
100
AcDbLine
 10
302.6220331182506
 20
246.0000000000068
 30
0.0
 11
295.7902578259832
 21
181.0000000000068
 31
0.0
  0
LINE
  5
2A8
330
1F
100
AcDbEntity
  8
LAY-10
  6
CONTINUOUS
 62
     7
100
AcDbLine
 10
338.2426471613676
 20
231.0000000000068
 30
0.0
 11
337.3268542373162
 21
181.0000000000068
 31
0.0
  0
LINE
  5
2A9
330
1F
100
AcDbEntity
  8
LAY-10
  6
CONTINUOUS
 62
     7
100
AcDbLine
 10
330.3641851372699
 20
231.0000000000068
 30
0.0
 11
329.4483922132185
 21
181.0000000000068
 31
0.0
  0
LINE
  5
2AA
330
1F
100
AcDbEntity
  8
LAY-10
  6
CONTINUOUS
 62
     7
100
AcDbLine
 10
337.9444379763854
 20
231.0000000000068
 30
0.0
 11
337.0297123648104
 21
181.0000000000068
 31
0.0
  0
LINE
  5
2AB
330
1F
100
AcDbEntity
  8
LAY-10
  6
CONTINUOUS
 62
     7
100
AcDbLine
 10
332.0355914583135
 20
231.0000000000068
 30
0.0
 11
331.1208658467385
 21
181.0000000000068
 31
0.0
  0
LINE
  5
2AC
330
1F
100
AcDbEntity
  8
LAY-10
  6
CONTINUOUS
 62
     7
100
AcDbLine
 10
332.0355914583135
 20
231.0000000000068
 30
0.0
 11
324.2256895207026
 21
231.0000000000068
 31
0.0
  0
LINE
  5
2AD
330
1F
100
AcDbEntity
  8
LAY-10
  6
CONTINUOUS
 62
     7
100
AcDbLine
 10
329.5399715056236
 20
186.0000000000068
 30
0.0
 11
321.8552268372516
 21
186.0000000000068
 31
0.0
  0
LINE
  5
2AE
330
1F
100
AcDbEntity
  8
LAY-10
  6
CONTINUOUS
 62
     7
100
AcDbLine
 10
321.5918420946459
 20
181.0000000000068
 30
0.0
 11
324.2256895207026
 21
231.0000000000068
 31
0.0
  0
LINE
  5
2AF
330
1F
100
AcDbEntity
  8
LAY-10
  6
CONTINUOUS
 62
     7
100
AcDbLine
 10
319.0295370979973
 20
231.0000000000068
 30
0.0
 11
316.3956896719405
 21
181.0000000000068
 31
0.0
  0
LINE
  5
2B0
330
1F
100
AcDbEntity
  8
LAY-10
  6
CONTINUOUS
 62
     7
100
AcDbLine
 10
313.5496092806907
 20
181.0000000000068
 30
0.0
 11
316.1865299105414
 21
231.0000000000068
 31
0.0
  0
LINE
  5
2B1
330
1F
100
AcDbEntity
  8
LAY-10
  6
CONTINUOUS
 62
     7
100
AcDbLine
 10
319.0295370979973
 20
231.0000000000068
 30
0.0
 11
312.66284670555
 21
231.0000000000068
 31
0.0
  0
LINE
  5
2B2
330
1F
100
AcDbEntity
  8
LAY-10
  6
CONTINUOUS
 62
     7
100
AcDbLine
 10
313.8133013436757
 20
186.0000000000068
 30
0.0
 11
309.0310871729926
 21
186.0000000000068
 31
0.0
  0
LINE
  5
2B3
330
1F
100
AcDbEntity
  8
LAY-10
  6
CONTINUOUS
 62
     7
100
AcDbLine
 10
308.6275583360417
 20
181.0000000000068
 30
0.0
 11
312.66284670555
 21
231.0000000000068
 31
0.0
  0
LINE
  5
2B4
330
1F
100
AcDbEntity
  8
LAY-10
  6
CONTINUOUS
 62
     7
100
AcDbLine
 10
304.7708326779235
 20
181.0000000000068
 30
0.0
 11
308.8061210474316
 21
231.0000000000068
 31
0.0
  0
LINE
  5
2B5
330
1F
100
AcDbEntity
  8
LAY-10
  6
CONTINUOUS
 62
     7
100
AcDbLine
 10
301.0944248277995
 20
181.0000000000068
 30
0.0
 11
305.1344216186835
 21
231.0000000000068
 31
0.0
  0
LINE
  5
2B6
330
1F
100
AcDbEntity
  8
LAY-10
  6
CONTINUOUS
 62
     7
100
AcDbLine
 10
308.8061210474316
 20
231.0000000000068
 30
0.0
 11
304.6505590238198
 21
231.0000000000068
 31
0.0
  0
LINE
  5
2B7
330
1F
100
AcDbEntity
  8
LAY-10
  6
CONTINUOUS
 62
     7
100
AcDbLine
 10
301.4984245068879
 20
186.0000000000068
 30
0.0
 11
300.195546440845
 21
186.0000000000068
 31
0.0
  0
LINE
  5
2B8
330
1F
100
AcDbEntity
  8
LAY-10
  6
CONTINUOUS
 62
     7
100
AcDbLine
 10
299.7005450427366
 20
181.0000000000068
 30
0.0
 11
304.6505590238198
 21
231.0000000000068
 31
0.0
  0
LINE
  5
2B9
330
1F
100
AcDbEntity
  8
LAY-10
  6
CONTINUOUS
 62
     7
100
AcDbLine
 10
297.6484241827829
 20
181.0000000000068
 30
0.0
 11
302.5984381638661
 21
231.0000000000068
 31
0.0
  0
LINE
  5
2BA
330
1F
100
AcDbEntity
  8
LAY-10
  6
CONTINUOUS
 62
     7
100
AcDbLine
 10
302.5984381638661
 20
231.0000000000068
 30
0.0
 11
301.0454695892657
 21
231.0000000000068
 31
0.0
  0
LINE
  5
2BB
330
1F
100
AcDbEntity
  8
LAY-10
  6
CONTINUOUS
 62
     7
100
AcDbLine
 10
295.8875317665875
 20
181.0000000000068
 30
0.0
 11
301.1552266187015
 21
231.0000000000068
 31
0.0
  0
LINE
  5
2BC
330
1F
100
AcDbEntity
  8
LAY-10
  6
CONTINUOUS
 62
     7
100
AcDbLine
 10
289.4199322981817
 20
182.8953280875209
 30
0.0
 11
289.099999999997
 21
189.0000000000068
 31
0.0
  0
ARC
  5
2BD
330
1F
100
AcDbEntity
  8
LAY-10
  6
CONTINUOUS
 62
     7
100
AcDbCircle
 10
291.417191367691
 20
183.0000000000068
 30
0.0
 40
2.0
100
AcDbArc
 50
182.9999999999991
 51
270.0000000000001
  0
LINE
  5
2BE
330
1F
100
AcDbEntity
  8
LAY-10
  6
CONTINUOUS
 62
     7
100
AcDbLine
 10
402.9372910396617
 20
182.8953280875209
 30
0.0
 11
403.0999999999974
 21
186.0000000000073
 31
0.0
  0
LINE
  5
2BF
330
1F
100
AcDbEntity
  8
LAY-10
  6
CONTINUOUS
 62
     7
100
AcDbLine
 10
391.9062541159344
 20
186.0000000000073
 30
0.0
 11
403.0999999999974
 21
186.0000000000073
 31
0.0
  0
LINE
  5
2C0
330
1F
100
AcDbEntity
  8
LAY-10
  6
CONTINUOUS
 62
     7
100
AcDbLine
 10
383.1545304107259
 20
231.0000000000068
 30
0.0
 11
387.1765635289801
 21
231.0000000000068
 31
0.0
  0
LINE
  5
2C1
330
1F
100
AcDbEntity
  8
LAY-10
  6
CONTINUOUS
 62
     7
100
AcDbLine
 10
345.401581278496
 20
231.00000000001
 30
0.0
 11
345.401581278496
 21
181.0000000000068
 31
0.0
  0
LINE
  5
2C2
330
1F
100
AcDbEntity
  8
LAY-10
  6
CONTINUOUS
 62
     7
100
AcDbLine
 10
352.9990832416661
 20
231.00000000001
 30
0.0
 11
354.796089270466
 21
181.00000000001
 31
0.0
  0
LINE
  5
2C3
330
1F
100
AcDbEntity
  8
LAY-10
  6
CONTINUOUS
 62
     7
100
AcDbLine
 10
345.401581278496
 20
231.00000000001
 30
0.0
 11
352.9990832416661
 21
231.00000000001
 31
0.0
  0
LINE
  5
2C4
330
1F
100
AcDbEntity
  8
LAY-10
  6
CONTINUOUS
 62
     7
100
AcDbLine
 10
346.099999999996
 20
231.00000000001
 30
0.0
 11
346.099999999996
 21
181.0000000000068
 31
0.0
  0
LINE
  5
2C5
330
1F
100
AcDbEntity
  8
LAY-10
  6
CONTINUOUS
 62
     7
100
AcDbLine
 10
346.099999999996
 20
186.00000000001
 30
0.0
 11
354.6163886675861
 21
186.00000000001
 31
0.0
  0
LINE
  5
2C6
330
1F
100
AcDbEntity
  8
LAY-10
  6
CONTINUOUS
 62
     7
100
AcDbLine
 10
337.9444379763854
 20
231.0000000000068
 30
0.0
 11
342.0999999999958
 21
231.0000000000068
 31
0.0
  0
LINE
  5
2C7
330
1F
100
AcDbEntity
  8
LAY-10
  6
CONTINUOUS
 62
     7
100
AcDbLine
 10
359.204026370316
 20
231.00000000001
 30
0.0
 11
361.0010323991261
 21
181.00000000001
 31
0.0
  0
LINE
  5
2C8
330
1F
100
AcDbEntity
  8
LAY-10
  6
CONTINUOUS
 62
     7
100
AcDbLine
 10
369.262424079106
 20
181.00000000001
 30
0.0
 11
365.885157469546
 21
231.00000000001
 31
0.0
  0
LINE
  5
2C9
330
1F
100
AcDbEntity
  8
LAY-10
  6
CONTINUOUS
 62
     7
100
AcDbLine
 10
365.885157469546
 20
231.00000000001
 30
0.0
 11
359.204026370316
 21
231.00000000001
 31
0.0
  0
LINE
  5
2CA
330
1F
100
AcDbEntity
  8
LAY-10
  6
CONTINUOUS
 62
     7
100
AcDbLine
 10
361.2150429294461
 20
231.00000000001
 30
0.0
 11
363.018802872966
 21
181.00000000001
 31
0.0
  0
LINE
  5
2CB
330
1F
100
AcDbEntity
  8
LAY-10
  6
CONTINUOUS
 62
     7
100
AcDbLine
 10
362.8384268786141
 20
186.00000000001
 30
0.0
 11
368.92469741815
 21
186.00000000001
 31
0.0
  0
LINE
  5
2CC
330
1F
100
AcDbEntity
  8
LAY-10
  6
CONTINUOUS
 62
     7
100
AcDbLine
 10
370.9434734533461
 20
231.00000000001
 30
0.0
 11
374.320740062906
 21
181.00000000001
 31
0.0
  0
LINE
  5
2CD
330
1F
100
AcDbEntity
  8
LAY-10
  6
CONTINUOUS
 62
     7
100
AcDbLine
 10
380.4525696691261
 20
181.00000000001
 30
0.0
 11
375.902390675066
 21
231.00000000001
 31
0.0
  0
LINE
  5
2CE
330
1F
100
AcDbEntity
  8
LAY-10
  6
CONTINUOUS
 62
     7
100
AcDbLine
 10
375.902390675066
 20
231.00000000001
 30
0.0
 11
370.9434734533461
 21
231.00000000001
 31
0.0
  0
LINE
  5
2CF
330
1F
100
AcDbEntity
  8
LAY-10
  6
CONTINUOUS
 62
     7
100
AcDbLine
 10
374.0245295736261
 20
231.00000000001
 30
0.0
 11
377.414489390816
 21
181.00000000001
 31
0.0
  0
LINE
  5
2D0
330
1F
100
AcDbEntity
  8
LAY-10
  6
CONTINUOUS
 62
     7
100
AcDbLine
 10
377.075493409096
 20
186.00000000001
 30
0.0
 11
379.9975517697201
 21
186.00000000001
 31
0.0
  0
LINE
  5
2D1
330
1F
100
AcDbEntity
  8
LAY-10
  6
CONTINUOUS
 62
     7
100
AcDbLine
 10
379.203971953566
 20
231.00000000001
 30
0.0
 11
383.754150947626
 21
181.00000000001
 31
0.0
  0
LINE
  5
2D2
330
1F
100
AcDbEntity
  8
LAY-10
  6
CONTINUOUS
 62
     7
100
AcDbLine
 10
387.016829333406
 20
181.00000000001
 30
0.0
 11
381.842556695016
 21
231.00000000001
 31
0.0
  0
LINE
  5
2D3
330
1F
100
AcDbEntity
  8
LAY-10
  6
CONTINUOUS
 62
     7
100
AcDbLine
 10
379.203971953566
 20
231.00000000001
 30
0.0
 11
381.842556695016
 21
231.00000000001
 31
0.0
  0
LINE
  5
2D4
330
1F
100
AcDbEntity
  8
LAY-10
  6
CONTINUOUS
 62
     7
100
AcDbLine
 10
381.5779668817411
 20
246.0000000000068
 30
0.0
 11
382.103488058069
 21
241.0000000000098
 31
0.0
  0
LINE
  5
2D5
330
1F
100
AcDbEntity
  8
LAY-10
  6
CONTINUOUS
 62
     7
100
AcDbLine
 10
382.6290092343972
 20
236.0000000000098
 30
0.0
 11
388.4097421740084
 21
181.0000000000068
 31
0.0
  0
LINE
  5
2D6
330
1F
100
AcDbEntity
  8
LAY-10
  6
CONTINUOUS
 62
     7
100
AcDbLine
 10
392.4317752922625
 20
181.0000000000068
 30
0.0
 11
386.6510423526515
 21
236.0000000000098
 31
0.0
  0
LINE
  5
2D7
330
1F
100
AcDbEntity
  8
LAY-10
  6
CONTINUOUS
 62
     7
100
AcDbLine
 10
386.1255211763233
 20
241.0000000000098
 30
0.0
 11
385.5999999999954
 21
246.0000000000068
 31
0.0
  0
ARC
  5
2D8
330
1F
100
AcDbEntity
  8
LAY-10
  6
CONTINUOUS
 62
     7
100
AcDbCircle
 10
342.0999999999958
 20
238.5000000000068
 30
0.0
 40
3.000000000000002
100
AcDbArc
 50
90.00000000000004
 51
270.0000000000001
  0
ARC
  5
2D9
330
1F
100
AcDbEntity
  8
LAY-10
  6
CONTINUOUS
 62
     7
100
AcDbCircle
 10
391.9857492993963
 20
240.2500000000098
 30
0.0
 40
3.500000000000002
100
AcDbArc
 50
38.68218745348958
 51
88.12935826940759
  0
ARC
  5
2DA
330
1F
100
AcDbEntity
  8
LAY-10
  6
CONTINUOUS
 62
     7
100
AcDbCircle
 10
391.9857492993963
 20
236.7500000000098
 30
0.0
 40
3.500000000000002
100
AcDbArc
 50
271.8706417306037
 51
321.3178125465012
  0
LINE
  5
2DB
330
1F
100
AcDbEntity
  8
LAY-10
  6
CONTINUOUS
 62
     7
100
AcDbLine
 10
392.0999999999965
 20
233.2518652431097
 30
0.0
 11
392.0999999999966
 21
243.7481347569098
 31
0.0
  0
LINE
  5
2DC
330
1F
100
AcDbEntity
  8
LAY-10
  6
CONTINUOUS
 62
     7
100
AcDbLine
 10
396.0713634880965
 20
237.9000000000099
 30
0.0
 11
393.5999999999965
 21
237.9000000000099
 31
0.0
  0
LINE
  5
2DD
330
1F
100
AcDbEntity
  8
LAY-10
  6
CONTINUOUS
 62
     7
100
AcDbLine
 10
393.5999999999965
 20
237.9000000000099
 30
0.0
 11
393.5999999999965
 21
239.1000000000097
 31
0.0
  0
LINE
  5
2DE
330
1F
100
AcDbEntity
  8
LAY-10
  6
CONTINUOUS
 62
     7
100
AcDbLine
 10
396.0713634880965
 20
239.1000000000097
 30
0.0
 11
393.5999999999965
 21
239.1000000000097
 31
0.0
  0
ARC
  5
2DF
330
1F
100
AcDbEntity
  8
LAY-10
  6
CONTINUOUS
 62
     7
100
AcDbCircle
 10
389.7999999999965
 20
238.5000000000098
 30
0.0
 40
6.300000000000002
100
AcDbArc
 50
321.3178125464984
 51
354.5349762000993
  0
ARC
  5
2E0
330
1F
100
AcDbEntity
  8
LAY-10
  6
CONTINUOUS
 62
     7
100
AcDbCircle
 10
389.7999999999965
 20
238.5000000000098
 30
0.0
 40
6.300000000000002
100
AcDbArc
 50
5.465023799911301
 51
38.6821874534941
  0
LINE
  5
2E1
330
1F
100
AcDbEntity
  8
LAY-10
  6
CONTINUOUS
 62
     7
100
AcDbLine
 10
380.0999999999985
 20
241.0000000000098
 30
0.0
 11
380.5999999999987
 21
241.5000000000098
 31
0.0
  0
LINE
  5
2E2
330
1F
100
AcDbEntity
  8
LAY-10
  6
CONTINUOUS
 62
     7
100
AcDbLine
 10
380.0999999999985
 20
236.0000000000098
 30
0.0
 11
380.5999999999985
 21
235.5000000000098
 31
0.0
  0
LINE
  5
2E3
330
1F
100
AcDbEntity
  8
LAY-10
  6
CONTINUOUS
 62
     7
100
AcDbLine
 10
392.0999999999965
 20
241.5000000000098
 30
0.0
 11
380.5999999999987
 21
241.5000000000098
 31
0.0
  0
LINE
  5
2E4
330
1F
100
AcDbEntity
  8
LAY-10
  6
CONTINUOUS
 62
     7
100
AcDbLine
 10
380.0999999999985
 20
241.0000000000098
 30
0.0
 11
380.0999999999985
 21
236.0000000000098
 31
0.0
  0
LINE
  5
2E5
330
1F
100
AcDbEntity
  8
LAY-10
  6
CONTINUOUS
 62
     7
100
AcDbLine
 10
392.0999999999965
 20
235.5000000000098
 30
0.0
 11
380.5999999999985
 21
235.5000000000098
 31
0.0
  0
LINE
  5
2E6
330
1F
100
AcDbEntity
  8
LAY-10
  6
CONTINUOUS
 62
     7
100
AcDbLine
 10
380.5999999999985
 20
235.5000000000098
 30
0.0
 11
380.5999999999987
 21
241.5000000000098
 31
0.0
  0
LINE
  5
2E7
330
1F
100
AcDbEntity
  8
LAY-10
  6
CONTINUOUS
 62
     7
100
AcDbLine
 10
280.6467749676729
 20
185.4670485968242
 30
0.0
 11
281.1279307995007
 21
185.4670485968242
 31
0.0
  0
ARC
  5
2E8
330
1F
100
AcDbEntity
  8
LAY-10
  6
CONTINUOUS
 62
     7
100
AcDbCircle
 10
300.5994064177112
 20
186.4670485968242
 30
0.0
 40
1.0
100
AcDbArc
 50
332.157115513416
 51
334.4016841849543
  0
ARC
  5
2E9
330
1F
100
AcDbEntity
  8
LAY-10
  6
CONTINUOUS
 62
     7
100
AcDbCircle
 10
300.8835373919098
 20
188.0000000000081
 30
0.0
 40
1.0
100
AcDbArc
 50
34.66928349368798
 51
90.00000000000004
  0
LINE
  5
2EA
330
1F
100
AcDbEntity
  8
LAY-10
  6
CONTINUOUS
 62
     7
100
AcDbLine
 10
300.49254727971
 20
189.0000000000081
 30
0.0
 11
301.740824314341
 21
189.0000000000081
 31
0.0
  0
LINE
  5
2EB
330
1F
100
AcDbEntity
  8
LAY-10
  6
CONTINUOUS
 62
     7
100
AcDbLine
 10
309.2732044751631
 20
189.0000000000081
 30
0.0
 11
313.9715165814669
 21
189.0000000000081
 31
0.0
  0
LINE
  5
2EC
330
1F
100
AcDbEntity
  8
LAY-10
  6
CONTINUOUS
 62
     7
100
AcDbLine
 10
321.9003397162872
 20
186.8564064605587
 30
0.0
 11
329.5556573251574
 21
186.8564064605587
 31
0.0
  0
LINE
  5
2ED
330
1F
100
AcDbEntity
  8
LAY-10
  6
CONTINUOUS
 62
     7
100
AcDbLine
 10
322.013257682815
 20
189.0000000000081
 30
0.0
 11
329.5949190810668
 21
189.0000000000081
 31
0.0
  0
LINE
  5
2EE
330
1F
100
AcDbEntity
  8
LAY-10
  6
CONTINUOUS
 62
     7
100
AcDbLine
 10
337.4733811051644
 20
189.0000000000081
 30
0.0
 11
342.1000000000001
 21
189.0000000000081
 31
0.0
  0
ARC
  5
2EF
330
1F
100
AcDbEntity
  8
LAY-10
  6
CONTINUOUS
 62
     7
100
AcDbCircle
 10
353.8222549686493
 20
186.4670485968242
 30
0.0
 40
1.0
100
AcDbArc
 50
195.1582877330265
 51
207.8428844863715
  0
LINE
  5
2F0
330
1F
100
AcDbEntity
  8
LAY-10
  6
CONTINUOUS
 62
     7
100
AcDbLine
 10
354.5856093161318
 20
186.8564064605587
 30
0.0
 11
354.4736252503297
 21
186.8564064605587
 31
0.0
  0
LINE
  5
2F1
330
1F
100
AcDbEntity
  8
LAY-10
  6
CONTINUOUS
 62
     7
100
AcDbLine
 10
346.099999999996
 20
189.0000000000081
 30
0.0
 11
354.5085683058581
 21
189.0000000000081
 31
0.0
  0
LINE
  5
2F2
330
1F
100
AcDbEntity
  8
LAY-10
  6
CONTINUOUS
 62
     7
100
AcDbLine
 10
364.1850393479931
 20
186.8564064605587
 30
0.0
 11
362.8075318452358
 21
186.8564064605587
 31
0.0
  0
ARC
  5
2F3
330
1F
100
AcDbEntity
  8
LAY-10
  6
CONTINUOUS
 62
     7
100
AcDbCircle
 10
363.034991823095
 20
186.4670485968242
 30
0.0
 40
1.0
100
AcDbArc
 50
332.1571155136258
 51
344.1515490149425
  0
LINE
  5
2F4
330
1F
100
AcDbEntity
  8
LAY-10
  6
CONTINUOUS
 62
     7
100
AcDbLine
 10
362.7302012820029
 20
189.0000000000081
 30
0.0
 11
368.7220614215765
 21
189.0000000000081
 31
0.0
  0
LINE
  5
2F5
330
1F
100
AcDbEntity
  8
LAY-10
  6
CONTINUOUS
 62
     7
100
AcDbLine
 10
376.8720958200657
 20
189.0000000000081
 30
0.0
 11
379.7245410300766
 21
189.0000000000081
 31
0.0
  0
ARC
  5
2F6
330
1F
100
AcDbEntity
  8
LAY-10
  6
CONTINUOUS
 62
     7
100
AcDbCircle
 10
392.2097156380086
 20
188.0000000000081
 30
0.0
 40
1.0
100
AcDbArc
 50
90.00000000000004
 51
126.7208679491928
  0
LINE
  5
2F7
330
1F
100
AcDbEntity
  8
LAY-10
  6
CONTINUOUS
 62
     7
100
AcDbLine
 10
391.5909414101371
 20
189.0000000000081
 30
0.0
 11
423.6000000000001
 21
189.0000000000081
 31
0.0
  0
ARC
  5
2F8
330
1F
100
AcDbEntity
  8
LAY-10
  6
CONTINUOUS
 62
     7
100
AcDbCircle
 10
282.3499999999963
 20
188.8857492994102
 30
0.0
 40
3.500000000000002
100
AcDbArc
 50
128.6821874534895
 51
178.1293582694076
  0
ARC
  5
2F9
330
1F
100
AcDbEntity
  8
LAY-10
  6
CONTINUOUS
 62
     7
100
AcDbCircle
 10
285.8499999999963
 20
188.8857492994102
 30
0.0
 40
3.500000000000002
100
AcDbArc
 50
1.870641730603566
 51
51.31781254650117
  0
LINE
  5
2FA
330
1F
100
AcDbEntity
  8
LAY-10
  6
CONTINUOUS
 62
     7
100
AcDbLine
 10
284.6999999999962
 20
192.9713634881105
 30
0.0
 11
284.6999999999962
 21
190.5000000000105
 31
0.0
  0
LINE
  5
2FB
330
1F
100
AcDbEntity
  8
LAY-10
  6
CONTINUOUS
 62
     7
100
AcDbLine
 10
284.6999999999962
 20
190.5000000000105
 30
0.0
 11
283.4999999999964
 21
190.5000000000105
 31
0.0
  0
LINE
  5
2FC
330
1F
100
AcDbEntity
  8
LAY-10
  6
CONTINUOUS
 62
     7
100
AcDbLine
 10
283.4999999999964
 20
192.9713634881105
 30
0.0
 11
283.4999999999964
 21
190.5000000000105
 31
0.0
  0
ARC
  5
2FD
330
1F
100
AcDbEntity
  8
LAY-10
  6
CONTINUOUS
 62
     7
100
AcDbCircle
 10
284.0999999999963
 20
186.7000000000105
 30
0.0
 40
6.300000000000002
100
AcDbArc
 50
51.31781254649739
 51
84.53497620009915
  0
ARC
  5
2FE
330
1F
100
AcDbEntity
  8
LAY-10
  6
CONTINUOUS
 62
     7
100
AcDbCircle
 10
284.0999999999963
 20
186.7000000000105
 30
0.0
 40
6.300000000000002
100
AcDbArc
 50
95.46502379991128
 51
128.6821874534947
  0
LINE
  5
2FF
330
1F
100
AcDbEntity
  8
LAY-10
  6
CONTINUOUS
 62
     7
100
AcDbLine
 10
281.5999999999963
 20
177.0000000000125
 30
0.0
 11
281.0999999999963
 21
177.5000000000126
 31
0.0
  0
LINE
  5
300
330
1F
100
AcDbEntity
  8
LAY-10
  6
CONTINUOUS
 62
     7
100
AcDbLine
 10
286.5999999999963
 20
177.0000000000125
 30
0.0
 11
287.0999999999963
 21
177.5000000000125
 31
0.0
  0
LINE
  5
301
330
1F
100
AcDbEntity
  8
LAY-10
  6
CONTINUOUS
 62
     7
100
AcDbLine
 10
281.0999999999963
 20
189.0000000000105
 30
0.0
 11
281.0999999999963
 21
177.5000000000126
 31
0.0
  0
LINE
  5
302
330
1F
100
AcDbEntity
  8
LAY-10
  6
CONTINUOUS
 62
     7
100
AcDbLine
 10
281.5999999999963
 20
177.0000000000125
 30
0.0
 11
286.5999999999963
 21
177.0000000000125
 31
0.0
  0
LINE
  5
303
330
1F
100
AcDbEntity
  8
LAY-10
  6
CONTINUOUS
 62
     7
100
AcDbLine
 10
287.0999999999963
 20
189.0000000000105
 30
0.0
 11
287.0999999999963
 21
177.5000000000125
 31
0.0
  0
LINE
  5
304
330
1F
100
AcDbEntity
  8
LAY-10
  6
CONTINUOUS
 62
     7
100
AcDbLine
 10
287.0999999999963
 20
177.5000000000125
 30
0.0
 11
281.0999999999963
 21
177.5000000000126
 31
0.0
  0
LINE
  5
305
330
1F
100
AcDbEntity
  8
LAY-10
  6
CONTINUOUS
 62
     7
100
AcDbLine
 10
281.6000000000017
 20
173.5000000000363
 30
0.0
 11
281.6000000000017
 21
177.00000000001
 31
0.0
  0
LINE
  5
306
330
1F
100
AcDbEntity
  8
LAY-10
  6
CONTINUOUS
 62
     7
100
AcDbLine
 10
286.6000000000013
 20
173.5000000000398
 30
0.0
 11
286.6000000000013
 21
177.00000000002
 31
0.0
  0
LINE
  5
307
330
1F
100
AcDbEntity
  8
LAY-10
  6
CONTINUOUS
 62
     7
100
AcDbLine
 10
279.0192622342663
 20
181.0000000000081
 30
0.0
 11
281.5999999999963
 21
181.0000000000081
 31
0.0
  0
LINE
  5
308
330
1F
100
AcDbEntity
  8
LAY-10
  6
CONTINUOUS
 62
     7
100
AcDbLine
 10
259.5999999999999
 20
182.0000000000081
 30
0.0
 11
274.6213366107694
 21
182.0000000000081
 31
0.0
  0
LINE
  5
309
330
1F
100
AcDbEntity
  8
LAY-10
  6
CONTINUOUS
 62
     7
100
AcDbLine
 10
405.1807377657337
 20
181.0000000000081
 30
0.0
 11
286.6
 21
181.0000000000081
 31
0.0
  0
LINE
  5
30A
330
1F
100
AcDbEntity
  8
LAY-10
  6
CONTINUOUS
 62
     7
100
AcDbLine
 10
260.5999999999999
 20
189.0000000000081
 30
0.0
 11
292.60905858985
 21
189.0000000000081
 31
0.0
  0
LINE
  5
30B
330
1F
100
AcDbEntity
  8
LAY-10
  6
CONTINUOUS
 62
     7
100
AcDbLine
 10
418.1000000000124
 20
179.0000000000157
 30
0.0
 11
418.1000000000124
 21
180.0000000000139
 31
0.0
  0
LINE
  5
30C
330
1F
100
AcDbEntity
  8
LAY-10
  6
CONTINUOUS
 62
     7
100
AcDbLine
 10
413.100000000013
 20
179.0000000000157
 30
0.0
 11
413.100000000013
 21
180.0000000000151
 31
0.0
  0
LINE
  5
30D
330
1F
100
AcDbEntity
  8
LAY-10
  6
CONTINUOUS
 62
     7
100
AcDbLine
 10
413.100000000013
 20
180.0000000000151
 30
0.0
 11
418.1000000000124
 21
180.0000000000151
 31
0.0
  0
LINE
  5
30E
330
1F
100
AcDbEntity
  8
LAY-10
  6
CONTINUOUS
 62
     7
100
AcDbLine
 10
412.6000000000099
 20
178.5000000000151
 30
0.0
 11
418.6000000000099
 21
178.5000000000151
 31
0.0
  0
LINE
  5
30F
330
1F
100
AcDbEntity
  8
LAY-10
  6
CONTINUOUS
 62
     7
100
AcDbLine
 10
413.1000000000099
 20
179.0000000000157
 30
0.0
 11
418.1000000000099
 21
179.0000000000157
 31
0.0
  0
LINE
  5
310
330
1F
100
AcDbEntity
  8
LAY-10
  6
CONTINUOUS
 62
     7
100
AcDbLine
 10
415.6000000000101
 20
181.4433756729907
 30
0.0
 11
418.100000000011
 21
180.0000000000161
 31
0.0
  0
LINE
  5
311
330
1F
100
AcDbEntity
  8
LAY-10
  6
CONTINUOUS
 62
     7
100
AcDbLine
 10
415.6000000000096
 20
181.4433756729905
 30
0.0
 11
413.1000000000092
 21
180.0000000000161
 31
0.0
  0
LINE
  5
312
330
1F
100
AcDbEntity
  8
LAY-10
  6
CONTINUOUS
 62
     7
100
AcDbLine
 10
430.1000000000094
 20
149.0000000000244
 30
0.0
 11
430.1000000000094
 21
154.0000000000243
 31
0.0
  0
LINE
  5
313
330
1F
100
AcDbEntity
  8
LAY-10
  6
CONTINUOUS
 62
     7
100
AcDbLine
 10
420.1000000000089
 20
154.0000000000243
 30
0.0
 11
430.1000000000094
 21
154.0000000000243
 31
0.0
  0
ARC
  5
314
330
1F
100
AcDbEntity
  8
LAY-10
  6
CONTINUOUS
 62
     7
100
AcDbCircle
 10
420.1000000000089
 20
156.0000000000243
 30
0.0
 40
2.0
100
AcDbArc
 50
180.0
 51
270.0000000000002
  0
LINE
  5
315
330
1F
100
AcDbEntity
  8
LAY-10
  6
CONTINUOUS
 62
     7
100
AcDbLine
 10
420.1000000000089
 20
149.0000000000244
 30
0.0
 11
430.1000000000094
 21
149.0000000000244
 31
0.0
  0
ARC
  5
316
330
1F
100
AcDbEntity
  8
LAY-10
  6
CONTINUOUS
 62
     7
100
AcDbCircle
 10
420.1000000000089
 20
156.0000000000243
 30
0.0
 40
7.000000000000004
100
AcDbArc
 50
180.0
 51
270.0000000000002
  0
LINE
  5
317
330
1F
100
AcDbEntity
  8
LAY-10
  6
CONTINUOUS
 62
     7
100
AcDbLine
 10
418.1000000000099
 20
156.00000000002
 30
0.0
 11
418.1000000000099
 21
171.0000000000196
 31
0.0
  0
LINE
  5
318
330
1F
100
AcDbEntity
  8
LAY-10
  6
CONTINUOUS
 62
     7
100
AcDbLine
 10
413.1000000000099
 20
156.00000000002
 30
0.0
 11
413.1000000000099
 21
171.0000000000196
 31
0.0
  0
LINE
  5
319
330
1F
100
AcDbEntity
  8
LAY-10
  6
CONTINUOUS
 62
     7
100
AcDbLine
 10
413.100000000013
 20
177.0000000000245
 30
0.0
 11
418.1000000000124
 21
177.0000000000245
 31
0.0
  0
LINE
  5
31A
330
1F
100
AcDbEntity
  8
LAY-10
  6
CONTINUOUS
 62
     7
100
AcDbLine
 10
412.6000000000117
 20
176.500000000026
 30
0.0
 11
418.6000000000108
 21
176.500000000026
 31
0.0
  0
LINE
  5
31B
330
1F
100
AcDbEntity
  8
LAY-10
  6
CONTINUOUS
 62
     7
100
AcDbLine
 10
418.1000000000124
 20
179.0000000000157
 30
0.0
 11
418.1000000000124
 21
177.0000000000245
 31
0.0
  0
LINE
  5
31C
330
1F
100
AcDbEntity
  8
LAY-10
  6
CONTINUOUS
 62
     7
100
AcDbLine
 10
413.100000000013
 20
179.0000000000157
 30
0.0
 11
413.100000000013
 21
177.0000000000245
 31
0.0
  0
LINE
  5
31D
330
1F
100
AcDbEntity
  8
LAY-10
  6
CONTINUOUS
 62
     7
100
AcDbLine
 10
418.6000000000099
 20
176.50000000003
 30
0.0
 11
418.1000000000099
 21
177.00000000002
 31
0.0
  0
LINE
  5
31E
330
1F
100
AcDbEntity
  8
LAY-10
  6
CONTINUOUS
 62
     7
100
AcDbLine
 10
413.1000000000099
 20
177.00000000002
 30
0.0
 11
412.6000000000099
 21
176.50000000003
 31
0.0
  0
LINE
  5
31F
330
1F
100
AcDbEntity
  8
LAY-10
  6
CONTINUOUS
 62
     7
100
AcDbLine
 10
412.6000000000099
 20
176.50000000003
 30
0.0
 11
412.6000000000099
 21
171.00000000002
 31
0.0
  0
LINE
  5
320
330
1F
100
AcDbEntity
  8
LAY-10
  6
CONTINUOUS
 62
     7
100
AcDbLine
 10
418.6000000000099
 20
176.50000000003
 30
0.0
 11
418.6000000000099
 21
171.00000000002
 31
0.0
  0
LINE
  5
321
330
1F
100
AcDbEntity
  8
LAY-10
  6
CONTINUOUS
 62
     7
100
AcDbLine
 10
403.5532250323273
 20
185.4670485968242
 30
0.0
 11
403.0720692004908
 21
185.4670485968242
 31
0.0
  0
ARC
  5
322
330
1F
100
AcDbEntity
  8
LAY-10
  6
CONTINUOUS
 62
     7
100
AcDbCircle
 10
402.5346327890059
 20
186.4670485968242
 30
0.0
 40
1.0
100
AcDbArc
 50
182.8693470177255
 51
207.8428844865492
  0
LINE
  5
323
330
1F
100
AcDbEntity
  8
LAY-10
  6
CONTINUOUS
 62
     7
100
AcDbLine
 10
314.59249126283
 20
164.2752066425467
 30
0.0
 11
316.1028115119252
 21
124.0000000000097
 31
0.0
  0
LINE
  5
324
330
1F
100
AcDbEntity
  8
LAY-10
  6
CONTINUOUS
 62
     7
100
AcDbLine
 10
312.1000000000001
 20
124.0000000000097
 30
0.0
 11
310.6992038539328
 21
161.354563895139
 31
0.0
  0
LINE
  5
325
330
1F
100
AcDbEntity
  8
LAY-10
  6
CONTINUOUS
 62
     7
100
AcDbLine
 10
294.1524790982227
 20
170.4580708097378
 30
0.0
 11
293.6000000000013
 21
181.0000000000081
 31
0.0
  0
LINE
  5
326
330
1F
100
AcDbEntity
  8
LAY-10
  6
CONTINUOUS
 62
     7
100
AcDbLine
 10
314.6302584141461
 20
168.677142782194
 30
0.0
 11
369.7350813424068
 21
168.677142782194
 31
0.0
  0
LINE
  5
327
330
1F
100
AcDbEntity
  8
LAY-10
  6
CONTINUOUS
 62
     7
100
AcDbLine
 10
337.544654203985
 20
170.4033709572826
 30
0.0
 11
338.1000000000004
 21
181.0000000000081
 31
0.0
  0
LINE
  5
328
330
1F
100
AcDbEntity
  8
LAY-10
  6
CONTINUOUS
 62
     7
100
AcDbLine
 10
350.6553457960157
 20
170.4033709572826
 30
0.0
 11
350.1000000000006
 21
181.0000000000081
 31
0.0
  0
ARC
  5
329
330
1F
100
AcDbEntity
  8
LAY-10
  6
CONTINUOUS
 62
     7
100
AcDbCircle
 10
307.7013110068052
 20
161.2421429133717
 30
0.0
 40
3.000000000000001
100
AcDbArc
 50
2.147585428298533
 51
85.00000000000024
  0
LINE
  5
32A
330
1F
100
AcDbEntity
  8
LAY-10
  6
CONTINUOUS
 62
     7
100
AcDbLine
 10
294.1524790982227
 20
170.4580708097378
 30
0.0
 11
310.0317818980224
 21
169.0688118300599
 31
0.0
  0
ARC
  5
32B
330
1F
100
AcDbEntity
  8
LAY-10
  6
CONTINUOUS
 62
     7
100
AcDbCircle
 10
309.5960031842841
 20
164.0878383396012
 30
0.0
 40
5.0
100
AcDbArc
 50
2.147585428298705
 51
85.00000000000024
  0
ARC
  5
32C
330
1F
100
AcDbEntity
  8
LAY-10
  6
CONTINUOUS
 62
     7
100
AcDbCircle
 10
376.4986889931947
 20
161.2421429133714
 30
0.0
 40
3.000000000000002
100
AcDbArc
 50
94.99999999999875
 51
177.8524145717009
  0
ARC
  5
32D
330
1F
100
AcDbEntity
  8
LAY-10
  6
CONTINUOUS
 62
     7
100
AcDbCircle
 10
374.6039968157159
 20
164.087838339601
 30
0.0
 40
5.0
100
AcDbArc
 50
94.99999999999915
 51
177.852414571701
  0
LINE
  5
32E
330
1F
100
AcDbEntity
  8
LAY-10
  6
CONTINUOUS
 62
     7
100
AcDbLine
 10
369.6075087371701
 20
164.2752066425465
 30
0.0
 11
368.0971884880748
 21
124.0000000000097
 31
0.0
  0
LINE
  5
32F
330
1F
100
AcDbEntity
  8
LAY-10
  6
CONTINUOUS
 62
     7
100
AcDbLine
 10
372.0999999999999
 20
124.0000000000097
 30
0.0
 11
373.5007961460673
 21
161.3545638951387
 31
0.0
  0
LINE
  5
330
330
1F
100
AcDbEntity
  8
LAY-10
  6
CONTINUOUS
 62
     7
100
AcDbLine
 10
386.0684101916844
 20
165.0908445439732
 30
0.0
 11
376.2372217649518
 21
164.2307270076469
 31
0.0
  0
LINE
  5
331
330
1F
100
AcDbEntity
  8
LAY-10
  6
CONTINUOUS
 62
     7
100
AcDbLine
 10
392.0567333146247
 20
170.6338541184771
 30
0.0
 11
374.1682181019777
 21
169.0688118300597
 31
0.0
  0
LINE
  5
332
330
1F
100
AcDbEntity
  8
LAY-10
  6
CONTINUOUS
 62
     7
100
AcDbLine
 10
392.0567333146247
 20
170.6338541184771
 30
0.0
 11
392.5999999999999
 21
181.0000000000081
 31
0.0
  0
LINE
  5
333
330
1F
100
AcDbEntity
  8
LAY-10
  6
CONTINUOUS
 62
     7
100
AcDbLine
 10
337.544654203985
 20
170.4033709572826
 30
0.0
 11
350.6553457960157
 21
170.4033709572826
 31
0.0
  0
ARC
  5
334
330
1F
100
AcDbEntity
  8
LAY-10
  6
CONTINUOUS
 62
     7
100
AcDbCircle
 10
298.0444340655679
 20
164.0946498458819
 30
0.0
 40
1.0
100
AcDbArc
 50
85.00000000000028
 51
177.0000000000074
  0
LINE
  5
335
330
1F
100
AcDbEntity
  8
LAY-10
  6
CONTINUOUS
 62
     7
100
AcDbLine
 10
296.7733196236799
 20
158.9476640437672
 30
0.0
 11
297.0458045308133
 21
164.1469858021247
 31
0.0
  0
ARC
  5
336
330
1F
100
AcDbEntity
  8
LAY-10
  6
CONTINUOUS
 62
     7
100
AcDbCircle
 10
295.7746900889252
 20
159.0000000000101
 30
0.0
 40
1.0
100
AcDbArc
 50
270.0000000000001
 51
357.0000000000074
  0
ARC
  5
337
330
1F
100
AcDbEntity
  8
LAY-10
  6
CONTINUOUS
 62
     7
100
AcDbCircle
 10
293.4482353439161
 20
159.0000000000101
 30
0.0
 40
1.0
100
AcDbArc
 50
182.999999999991
 51
270.0000000000001
  0
LINE
  5
338
330
1F
100
AcDbEntity
  8
LAY-10
  6
CONTINUOUS
 62
     7
100
AcDbLine
 10
292.4496058091614
 20
158.9476640437673
 30
0.0
 11
292.145494952671
 21
164.750444864686
 31
0.0
  0
LINE
  5
339
330
1F
100
AcDbEntity
  8
LAY-10
  6
CONTINUOUS
 62
     7
100
AcDbLine
 10
383.6
 20
164.87488663527
 30
0.0
 11
386.6
 21
164.87488663527
 31
0.0
  0
LINE
  5
33A
330
1F
100
AcDbEntity
  8
LAY-10
  6
CONTINUOUS
 62
     7
100
AcDbLine
 10
300.6
 20
164.87488663527
 30
0.0
 11
297.6
 21
164.87488663527
 31
0.0
  0
ARC
  5
33B
330
1F
100
AcDbEntity
  8
LAY-10
  6
CONTINUOUS
 62
     7
100
AcDbCircle
 10
291.1468654179163
 20
164.6981089084432
 30
0.0
 40
1.0
100
AcDbArc
 50
2.999999999992558
 51
85.00000000000028
  0
LINE
  5
33C
330
1F
100
AcDbEntity
  8
LAY-10
  6
CONTINUOUS
 62
     7
100
AcDbLine
 10
280.9407644438643
 20
166.5948468800165
 30
0.0
 11
291.2340211606639
 21
165.6943036065345
 31
0.0
  0
LINE
  5
33D
330
1F
100
AcDbEntity
  8
LAY-10
  6
CONTINUOUS
 62
     7
100
AcDbLine
 10
298.1315898083155
 20
165.0908445439732
 30
0.0
 11
307.9627782350482
 21
164.2307270076469
 31
0.0
  0
LINE
  5
33E
330
1F
100
AcDbEntity
  8
LAY-10
  6
CONTINUOUS
 62
     7
100
AcDbLine
 10
297.6000000000008
 20
158.0000000000101
 30
0.0
 11
293.4482353439161
 21
158.0000000000101
 31
0.0
  0
LINE
  5
33F
330
1F
100
AcDbEntity
  8
LAY-10
  6
CONTINUOUS
 62
     7
100
AcDbLine
 10
386.6
 20
158.0000000000097
 30
0.0
 11
390.7517646560839
 21
158.0000000000097
 31
0.0
  0
LINE
  5
340
330
1F
100
AcDbEntity
  8
LAY-10
  6
CENTER
 62
     2
100
AcDbLine
 10
255.575754767986
 20
419.9999999999981
 30
0.0
 11
430.2757547679862
 21
419.9999999999981
 31
0.0
  0
LINE
  5
341
330
1F
100
AcDbEntity
  8
LAY-10
  6
CENTER
 62
     2
100
AcDbLine
 10
342.1000000000001
 20
332.1206694752
 30
0.0
 11
342.1000000000001
 21
507.2206694752
 31
0.0
  0
LINE
  5
342
330
1F
100
AcDbEntity
  8
LAY-10
  6
CENTER
 62
     2
100
AcDbLine
 10
400.1000000000003
 20
414.0
 30
0.0
 11
400.1000000000003
 21
426.0
 31
0.0
  0
LINE
  5
343
330
1F
100
AcDbEntity
  8
LAY-10
  6
CENTER
 62
     2
100
AcDbLine
 10
284.1
 20
413.9999999999981
 30
0.0
 11
284.1
 21
425.9999999999982
 31
0.0
  0
LINE
  5
344
330
1F
100
AcDbEntity
  8
LAY-10
  6
CENTER
 62
     2
100
AcDbLine
 10
390.6070162771074
 20
391.994461094833
 30
0.0
 11
372.2421242094103
 21
402.5974364737565
 31
0.0
  0
LINE
  5
345
330
1F
100
AcDbEntity
  8
LAY-10
  6
CENTER
 62
     2
100
AcDbLine
 10
294.2594900738306
 20
392.3792687159685
 30
0.0
 11
311.9578757905813
 21
402.5974364737565
 31
0.0
  0
LINE
  5
346
330
1F
100
AcDbEntity
  8
LAY-10
  6
CENTER
 62
     2
100
AcDbLine
 10
337.7999999999961
 20
238.5000000000068
 30
0.0
 11
346.499999999996
 21
238.5000000000068
 31
0.0
  0
LINE
  5
347
330
1F
100
AcDbEntity
  8
LAY-10
  6
CENTER
 62
     2
100
AcDbLine
 10
378.499999999996
 20
238.50000000001
 30
0.0
 11
398.1999999999961
 21
238.50000000001
 31
0.0
  0
LINE
  5
348
330
1F
100
AcDbEntity
  8
LAY-10
  6
CENTER
 62
     2
100
AcDbLine
 10
284.1000000000001
 20
170.9506694752098
 30
0.0
 11
284.1000000000001
 21
194.23508134242
 31
0.0
  0
LINE
  5
349
330
1F
100
AcDbEntity
  8
LAY-10
  6
CENTER
 62
     2
100
AcDbLine
 10
342.1000000000003
 20
250.23508134242
 30
0.0
 11
342.0999999999999
 21
104.1999999999998
 31
0.0
  0
LINE
  5
34A
330
1F
100
AcDbEntity
  8
LAY-10
  6
CENTER
 62
     2
100
AcDbLine
 10
431.3000000000088
 20
151.5000000000255
 30
0.0
 11
420.1000000000099
 21
151.5000000000255
 31
0.0
  0
ARC
  5
34B
330
1F
100
AcDbEntity
  8
LAY-10
  6
CENTER
 62
     2
100
AcDbCircle
 10
420.1000000000099
 20
156.0000000000255
 30
0.0
 40
4.5
100
AcDbArc
 50
180.0
 51
270.0000000000002
  0
LINE
  5
34C
330
1F
100
AcDbEntity
  8
LAY-10
  6
CENTER
 62
     2
100
AcDbLine
 10
415.6000000000101
 20
182.2013587595098
 30
0.0
 11
415.6000000000101
 21
156.0000000000255
 31
0.0
  0
LINE
  5
34D
330
1F
100
AcDbEntity
  8
LAY-10
  6
CONTINUOUS
 62
     7
100
AcDbLine
 10
339.5999999999963
 20
470.0000000000004
 30
0.0
 11
339.5999999999963
 21
463.4281015012209
 31
0.0
  0
LINE
  5
34E
330
1F
100
AcDbEntity
  8
LAY-10
  6
CONTINUOUS
 62
     7
100
AcDbLine
 10
339.5999999999963
 20
459.3987292830179
 30
0.0
 11
339.5999999999963
 21
458.0000000000024
 31
0.0
  0
LINE
  5
34F
330
1F
100
AcDbEntity
  8
LAY-10
  6
CONTINUOUS
 62
     7
100
AcDbLine
 10
344.5999999999963
 20
470.0000000000004
 30
0.0
 11
344.5999999999963
 21
463.4281015012205
 31
0.0
  0
LINE
  5
350
330
1F
100
AcDbEntity
  8
LAY-10
  6
CONTINUOUS
 62
     7
100
AcDbLine
 10
344.5999999999963
 20
459.3987292830174
 30
0.0
 11
344.5999999999963
 21
458.0000000000024
 31
0.0
  0
LINE
  5
351
330
1F
100
AcDbEntity
  8
LAY-10
  6
CONTINUOUS
 62
     7
100
AcDbLine
 10
386.6512701892195
 20
397.1650635094606
 30
0.0
 11
380.9598391381742
 21
400.4510127588558
 31
0.0
  0
LINE
  5
352
330
1F
100
AcDbEntity
  8
LAY-10
  6
CONTINUOUS
 62
     7
100
AcDbLine
 10
377.4703004359071
 20
402.4656988679573
 30
0.0
 11
376.2589653438081
 21
403.1650635094596
 31
0.0
  0
LINE
  5
353
330
1F
100
AcDbEntity
  8
LAY-10
  6
CONTINUOUS
 62
     7
100
AcDbLine
 10
384.1512701892195
 20
392.8349364905384
 30
0.0
 11
378.4598391381741
 21
396.1208857399337
 31
0.0
  0
LINE
  5
354
330
1F
100
AcDbEntity
  8
LAY-10
  6
CONTINUOUS
 62
     7
100
AcDbLine
 10
374.970300435907
 20
398.1355718490352
 30
0.0
 11
373.7589653438081
 21
398.8349364905374
 31
0.0
  0
LINE
  5
355
330
1F
100
AcDbEntity
  8
LAY-10
  6
CONTINUOUS
 62
     7
100
AcDbLine
 10
297.5487298107723
 20
397.165063509461
 30
0.0
 11
303.240160861812
 21
400.451012758853
 31
0.0
  0
LINE
  5
356
330
1F
100
AcDbEntity
  8
LAY-10
  6
CONTINUOUS
 62
     7
100
AcDbLine
 10
306.7296995640791
 20
402.4656988679545
 30
0.0
 11
307.9410346561838
 21
403.16506350946
 31
0.0
  0
LINE
  5
357
330
1F
100
AcDbEntity
  8
LAY-10
  6
CONTINUOUS
 62
     7
100
AcDbLine
 10
300.0487298107723
 20
392.8349364905388
 30
0.0
 11
305.7401608618125
 21
396.1208857399311
 31
0.0
  0
LINE
  5
358
330
1F
100
AcDbEntity
  8
LAY-10
  6
CONTINUOUS
 62
     7
100
AcDbLine
 10
309.2296995640795
 20
398.1355718490326
 30
0.0
 11
310.4410346561838
 21
398.8349364905378
 31
0.0
  0
LINE
  5
359
330
1F
100
AcDbEntity
  8
LAY-10
  6
CONTINUOUS
 62
     7
100
AcDbLine
 10
287.1000000000001
 20
175.0000000000363
 30
0.0
 11
286.6000000000013
 21
174.5000000000356
 31
0.0
  0
LINE
  5
35A
330
1F
100
AcDbEntity
  8
LAY-10
  6
CONTINUOUS
 62
     7
100
AcDbLine
 10
281.1000000000004
 20
175.0000000000363
 30
0.0
 11
281.6000000000017
 21
174.5000000000356
 31
0.0
  0
ARC
  5
35B
330
1F
100
AcDbEntity
  8
LAY-10
  6
CONTINUOUS
 62
     7
100
AcDbCircle
 10
342.0999999999958
 20
238.5000000000068
 30
0.0
 40
2.5
100
AcDbArc
 50
90.00000000000001
 51
270.0000000000002
  0
LINE
  5
35C
330
1F
100
AcDbEntity
  8
LAY-10
  6
CONTINUOUS
 62
     7
100
AcDbLine
 10
392.0999999999965
 20
241.0000000000098
 30
0.0
 11
380.0999999999985
 21
241.0000000000098
 31
0.0
  0
LINE
  5
35D
330
1F
100
AcDbEntity
  8
LAY-10
  6
CONTINUOUS
 62
     7
100
AcDbLine
 10
392.0999999999965
 20
236.0000000000098
 30
0.0
 11
380.0999999999985
 21
236.0000000000098
 31
0.0
  0
LINE
  5
35E
330
1F
100
AcDbEntity
  8
LAY-10
  6
CONTINUOUS
 62
     7
100
AcDbLine
 10
281.5999999999963
 20
189.0000000000105
 30
0.0
 11
281.5999999999963
 21
177.0000000000125
 31
0.0
  0
LINE
  5
35F
330
1F
100
AcDbEntity
  8
LAY-10
  6
CONTINUOUS
 62
     7
100
AcDbLine
 10
286.5999999999963
 20
189.0000000000105
 30
0.0
 11
286.5999999999963
 21
177.0000000000125
 31
0.0
  0
LINE
  5
360
330
1F
100
AcDbEntity
  8
LAY-10
  6
CONTINUOUS
 62
     7
100
AcDbLine
 10
281.1000000000004
 20
175.0000000000363
 30
0.0
 11
281.1000000000004
 21
177.5000000000126
 31
0.0
  0
LINE
  5
361
330
1F
100
AcDbEntity
  8
LAY-10
  6
CONTINUOUS
 62
     7
100
AcDbLine
 10
287.1000000000001
 20
175.0000000000363
 30
0.0
 11
287.1000000000001
 21
177.5000000000125
 31
0.0
  0
LINE
  5
362
330
1F
100
AcDbEntity
  8
LAY-10
  6
CONTINUOUS
 62
     7
100
AcDbLine
 10
418.6000000000108
 20
178.5000000000151
 30
0.0
 11
418.1000000000124
 21
179.0000000000157
 31
0.0
  0
LINE
  5
363
330
1F
100
AcDbEntity
  8
LAY-10
  6
CONTINUOUS
 62
     7
100
AcDbLine
 10
412.6000000000117
 20
178.5000000000151
 30
0.0
 11
413.100000000013
 21
179.0000000000157
 31
0.0
  0
LINE
  5
364
330
1F
100
AcDbEntity
  8
LAY-10
  6
CONTINUOUS
 62
     7
100
AcDbLine
 10
418.6000000000108
 20
178.5000000000151
 30
0.0
 11
418.6000000000108
 21
176.500000000026
 31
0.0
  0
LINE
  5
365
330
1F
100
AcDbEntity
  8
LAY-10
  6
CONTINUOUS
 62
     7
100
AcDbLine
 10
412.6000000000117
 20
178.5000000000151
 30
0.0
 11
412.6000000000117
 21
176.500000000026
 31
0.0
  0
LINE
  5
366
330
1F
100
AcDbEntity
  8
LAY-10
  6
CONTINUOUS
 62
     7
100
AcDbLine
 10
418.1000000000099
 20
177.00000000002
 30
0.0
 11
418.1000000000099
 21
171.00000000002
 31
0.0
  0
LINE
  5
367
330
1F
100
AcDbEntity
  8
LAY-10
  6
CONTINUOUS
 62
     7
100
AcDbLine
 10
413.1000000000099
 20
177.00000000002
 30
0.0
 11
413.1000000000099
 21
171.00000000002
 31
0.0
  0
LINE
  5
368
330
1F
100
AcDbEntity
  8
LAY-10
  6
CONTINUOUS
 62
     7
100
AcDbLine
 10
413.0999999999917
 20
170.133974596225
 30
0.0
 11
412.5999999999917
 21
171.0000000000095
 31
0.0
  0
LINE
  5
369
330
1F
100
AcDbEntity
  8
LAY-10
  6
CONTINUOUS
 62
     7
100
AcDbLine
 10
418.1000000000219
 20
170.1339745962285
 30
0.0
 11
418.6000000000219
 21
171.000000000013
 31
0.0
  0
DIMENSION
  5
36B
330
1F
100
AcDbEntity
  8
LAY-20
  6
CONTINUOUS
 62
     4
100
AcDbDimension
  2
*D15
 10
372.099999999996
 20
89.00000000000801
 30
0.0
 11
342.099999999996
 21
94.00000000000801
 31
0.0
 70
   160
  1
%%c<>
  3
ISO-25
100
AcDbAlignedDimension
 13
312.099999999996
 23
124.0000000000101
 33
0.0
 14
372.099999999996
 24
124.0000000000101
 34
0.0
100
AcDbRotatedDimension
1001
ACAD
1000
DSTYLE
1002
{
1070
   270
1070
     2
1070
     6
1000
EX_BNORM
1070
     7
1000
EX_BNORM
1070
    41
1040
5.0
1070
    42
1040
3.0
1070
    44
1040
3.0
1070
    73
1070
     0
1070
    74
1070
     0
1070
    75
1070
     0
1070
    76
1070
     0
1070
    77
1070
     1
1070
    78
1070
     8
1070
   140
1040
6.2362208
1070
   147
1040
0.0
1070
   173
1070
     1
1070
   176
1070
     4
1070
   177
1070
     4
1070
   178
1070
     7
1070
   271
1070
     1
1070
   277
1070
     2
1070
   279
1070
     2
1070
   280
1070
     0
1070
   287
1070
     5
1070
   340
1005
36A
1002
}
  0
DIMENSION
  5
379
330
1F
100
AcDbEntity
  8
LAY-20
  6
CONTINUOUS
 62
     4
100
AcDbDimension
  2
*D16
 10
373.599999999996
 20
75.00000000000801
 30
0.0
 11
342.099999999996
 21
80.00000000000801
 31
0.0
 70
   160
  1
%%c<>
  3
ISO-25
100
AcDbAlignedDimension
 13
310.599999999996
 23
164.0000000000101
 33
0.0
 14
373.599999999996
 24
164.0000000000101
 34
0.0
100
AcDbRotatedDimension
1001
ACAD
1000
DSTYLE
1002
{
1070
   270
1070
     2
1070
     6
1000
EX_BNORM
1070
     7
1000
EX_BNORM
1070
    41
1040
5.0
1070
    42
1040
3.0
1070
    44
1040
3.0
1070
    73
1070
     0
1070
    74
1070
     0
1070
    75
1070
     0
1070
    76
1070
     0
1070
    77
1070
     1
1070
    78
1070
     8
1070
   140
1040
6.2362208
1070
   147
1040
0.0
1070
   173
1070
     1
1070
   176
1070
     4
1070
   177
1070
     4
1070
   178
1070
     7
1070
   271
1070
     1
1070
   277
1070
     2
1070
   279
1070
     2
1070
   280
1070
     0
1070
   287
1070
     5
1070
   340
1005
36A
1002
}
  0
DIMENSION
  5
386
330
1F
100
AcDbEntity
  8
LAY-20
  6
CONTINUOUS
 62
     4
100
AcDbDimension
  2
*D17
 10
239.599999999996
 20
189.00000000001
 30
0.0
 11
234.599999999996
 21
176.93744331764
 31
0.0
 70
   160
  3
ISO-25
100
AcDbAlignedDimension
 13
297.599999999996
 23
164.87488663527
 33
0.0
 14
260.599999999996
 24
189.00000000001
 34
0.0
 50
90.0
100
AcDbRotatedDimension
1001
ACAD
1000
DSTYLE
1002
{
1070
   270
1070
     2
1070
     6
1000
EX_BNORM
1070
     7
1000
EX_BNORM
1070
    41
1040
5.0
1070
    42
1040
3.0
1070
    44
1040
3.0
1070
    73
1070
     0
1070
    74
1070
     0
1070
    75
1070
     0
1070
    76
1070
     0
1070
    77
1070
     1
1070
    78
1070
     0
1070
   140
1040
6.2362208
1070
   147
1040
0.0
1070
   173
1070
     1
1070
   176
1070
     4
1070
   177
1070
     4
1070
   178
1070
     7
1070
   271
1070
     0
1070
   277
1070
     2
1070
   279
1070
     2
1070
   280
1070
     0
1070
   287
1070
     5
1070
   340
1005
36A
1002
}
  0
DIMENSION
  5
393
330
1F
100
AcDbEntity
  8
LAY-20
  6
CONTINUOUS
 62
     4
100
AcDbDimension
  2
*D18
 10
424.6
 20
308.0
 30
0.0
 11
342.099999999998
 21
313.0
 31
0.0
 70
   160
  1
%%c<>
  3
ISO-25
100
AcDbAlignedDimension
 13
259.599999999996
 23
181.99999999998
 33
0.0
 14
424.6
 24
182.0000000000101
 34
0.0
100
AcDbRotatedDimension
1001
ACAD
1000
DSTYLE
1002
{
1070
   270
1070
     2
1070
     6
1000
EX_BNORM
1070
     7
1000
EX_BNORM
1070
    41
1040
5.0
1070
    42
1040
3.0
1070
    44
1040
3.0
1070
    73
1070
     0
1070
    74
1070
     0
1070
    75
1070
     0
1070
    76
1070
     0
1070
    77
1070
     1
1070
    78
1070
     8
1070
   140
1040
6.2362208
1070
   147
1040
0.0
1070
   173
1070
     1
1070
   176
1070
     4
1070
   177
1070
     4
1070
   178
1070
     7
1070
   271
1070
     1
1070
   277
1070
     2
1070
   279
1070
     2
1070
   280
1070
     0
1070
   287
1070
     5
1070
   340
1005
36A
1002
}
  0
DIMENSION
  5
3A0
330
1F
100
AcDbEntity
  8
LAY-20
  6
CONTINUOUS
 62
     4
100
AcDbDimension
  2
*D19
 10
278.600000000006
 20
294.0
 30
0.0
 11
342.1000000000021
 21
298.9999999999999
 31
0.0
 70
   160
  1
%%c<>
  3
ISO-25
100
AcDbAlignedDimension
 13
405.599999999998
 23
189.00000000001
 33
0.0
 14
278.600000000006
 24
189.00000000001
 34
0.0
100
AcDbRotatedDimension
1001
ACAD
1000
DSTYLE
1002
{
1070
   270
1070
     2
1070
     6
1000
EX_BNORM
1070
     7
1000
EX_BNORM
1070
    41
1040
5.0
1070
    42
1040
3.0
1070
    44
1040
3.000000000000114
1070
    73
1070
     0
1070
    74
1070
     0
1070
    75
1070
     0
1070
    76
1070
     0
1070
    77
1070
     1
1070
    78
1070
     8
1070
   140
1040
6.2362208
1070
   147
1040
0.0
1070
   173
1070
     1
1070
   176
1070
     4
1070
   177
1070
     4
1070
   178
1070
     7
1070
   271
1070
     1
1070
   277
1070
     2
1070
   279
1070
     2
1070
   280
1070
     0
1070
   287
1070
     5
1070
   340
1005
36A
1002
}
  0
DIMENSION
  5
3AD
330
1F
100
AcDbEntity
  8
LAY-20
  6
CONTINUOUS
 62
     4
100
AcDbDimension
  2
*D20
 10
381.57796688174
 20
266.00000000001
 30
0.0
 11
342.099999999995
 21
271.00000000001
 31
0.0
 70
   160
  1
%%c<>
  3
ISO-25
100
AcDbAlignedDimension
 13
302.62203311825
 23
246.00000000001
 33
0.0
 14
381.57796688174
 24
246.00000000001
 34
0.0
100
AcDbRotatedDimension
1001
ACAD
1000
DSTYLE
1002
{
1070
   270
1070
     2
1070
     6
1000
EX_BNORM
1070
     7
1000
EX_BNORM
1070
    41
1040
5.0
1070
    42
1040
3.0
1070
    44
1040
3.0
1070
    73
1070
     0
1070
    74
1070
     0
1070
    75
1070
     0
1070
    76
1070
     0
1070
    77
1070
     1
1070
    78
1070
     8
1070
   140
1040
6.2362208
1070
   147
1040
0.0
1070
   173
1070
     1
1070
   176
1070
     4
1070
   177
1070
     4
1070
   178
1070
     7
1070
   271
1070
     1
1070
   277
1070
     2
1070
   279
1070
     2
1070
   280
1070
     0
1070
   287
1070
     5
1070
   340
1005
36A
1002
}
  0
DIMENSION
  5
3BA
330
1F
100
AcDbEntity
  8
LAY-20
  6
CONTINUOUS
 62
     4
100
AcDbDimension
  2
*D21
 10
281.1
 20
280.0
 30
0.0
 11
342.1
 21
285.0
 31
0.0
 70
   160
  1
%%c<>
  3
ISO-25
100
AcDbAlignedDimension
 13
403.1
 23
186.00000000001
 33
0.0
 14
281.1
 24
186.00000000001
 34
0.0
100
AcDbRotatedDimension
1001
ACAD
1000
DSTYLE
1002
{
1070
   270
1070
     2
1070
     6
1000
EX_BNORM
1070
     7
1000
EX_BNORM
1070
    41
1040
5.0
1070
    42
1040
3.0
1070
    44
1040
3.0
1070
    73
1070
     0
1070
    74
1070
     0
1070
    75
1070
     0
1070
    76
1070
     0
1070
    77
1070
     1
1070
    78
1070
     8
1070
   140
1040
6.2362208
1070
   147
1040
0.0
1070
   173
1070
     1
1070
   176
1070
     4
1070
   177
1070
     4
1070
   178
1070
     7
1070
   271
1070
     1
1070
   277
1070
     2
1070
   279
1070
     2
1070
   280
1070
     0
1070
   287
1070
     5
1070
   340
1005
36A
1002
}
  0
DIMENSION
  5
3C7
330
1F
100
AcDbEntity
  8
LAY-20
  6
CONTINUOUS
 62
     4
100
AcDbDimension
  2
*D22
 10
450.10000000002
 20
109.00000000001
 30
0.0
 11
445.10000000002
 21
149.00000000001
 31
0.0
 70
   160
  3
ISO-25
100
AcDbAlignedDimension
 13
423.6
 23
189.00000000001
 33
0.0
 14
386.6
 24
109.00000000001
 34
0.0
 50
90.0
100
AcDbRotatedDimension
1001
ACAD
1000
DSTYLE
1002
{
1070
   270
1070
     2
1070
     6
1000
EX_BNORM
1070
     7
1000
EX_BNORM
1070
    41
1040
5.0
1070
    42
1040
3.0
1070
    44
1040
3.0
1070
    73
1070
     0
1070
    74
1070
     0
1070
    75
1070
     0
1070
    76
1070
     0
1070
    77
1070
     1
1070
    78
1070
     8
1070
   140
1040
6.2362208
1070
   147
1040
0.0
1070
   173
1070
     1
1070
   176
1070
     4
1070
   177
1070
     4
1070
   178
1070
     7
1070
   271
1070
     1
1070
   277
1070
     2
1070
   279
1070
     2
1070
   280
1070
     0
1070
   287
1070
     5
1070
   340
1005
36A
1002
}
  0
DIMENSION
  5
3D4
330
1F
100
AcDbEntity
  8
LAY-20
  6
CONTINUOUS
 62
     4
100
AcDbDimension
  2
*D23
 10
450.10000000002
 20
189.00000000001
 30
0.0
 11
445.10000000002
 21
217.50000000001
 31
0.0
 70
   160
  3
ISO-25
100
AcDbAlignedDimension
 13
385.6
 23
246.00000000001
 33
0.0
 14
450.10000000002
 24
189.00000000001
 34
0.0
 50
90.0
100
AcDbRotatedDimension
1001
ACAD
1000
DSTYLE
1002
{
1070
   270
1070
     2
1070
     6
1000
EX_BNORM
1070
     7
1000
EX_BNORM
1070
    41
1040
5.0
1070
    42
1040
3.0
1070
    44
1040
3.0
1070
    73
1070
     0
1070
    74
1070
     0
1070
    75
1070
     0
1070
    76
1070
     1
1070
    77
1070
     1
1070
    78
1070
     8
1070
   140
1040
6.2362208
1070
   147
1040
0.0
1070
   173
1070
     1
1070
   176
1070
     4
1070
   177
1070
     4
1070
   178
1070
     7
1070
   271
1070
     1
1070
   277
1070
     2
1070
   279
1070
     2
1070
   280
1070
     0
1070
   287
1070
     5
1070
   340
1005
36A
1002
}
  0
LINE
  5
3E0
330
1F
100
AcDbEntity
  8
LAY-255
  6
CONTINUOUS
 62
     7
100
AcDbLine
 10
770.0
 20
43.99999999999999
 30
0.0
 11
570.0
 21
43.99999999999999
 31
0.0
  0
LINE
  5
3E1
330
1F
100
AcDbEntity
  8
LAY-255
  6
CONTINUOUS
 62
     7
100
AcDbLine
 10
577.6
 20
32.0
 30
0.0
 11
593.6
 21
42.0
 31
0.0
  0
LINE
  5
3E2
330
1F
100
AcDbEntity
  8
LAY-255
  6
CONTINUOUS
 62
     7
100
AcDbLine
 10
593.6
 20
42.0
 30
0.0
 11
609.6
 21
32.0
 31
0.0
  0
LINE
  5
3E3
330
1F
100
AcDbEntity
  8
LAY-255
  6
CONTINUOUS
 62
     7
100
AcDbLine
 10
609.6
 20
32.0
 30
0.0
 11
593.6
 21
22.0
 31
0.0
  0
LINE
  5
3E4
330
1F
100
AcDbEntity
  8
LAY-255
  6
CONTINUOUS
 62
     7
100
AcDbLine
 10
593.6
 20
22.0
 30
0.0
 11
577.6
 21
32.0
 31
0.0
  0
LINE
  5
3E5
330
1F
100
AcDbEntity
  8
LAY-255
  6
CONTINUOUS
 62
     7
100
AcDbLine
 10
10.0
 20
20.0
 30
0.0
 11
770.0000000000001
 21
20.0
 31
0.0
  0
LINE
  5
3E6
330
1F
100
AcDbEntity
  8
LAY-255
  6
CONTINUOUS
 62
     7
100
AcDbLine
 10
10.0
 20
560.0
 30
0.0
 11
770.0000000000001
 21
560.0
 31
0.0
  0
LINE
  5
3E7
330
1F
100
AcDbEntity
  8
LAY-255
  6
CONTINUOUS
 62
     7
100
AcDbLine
 10
10.0
 20
20.0
 30
0.0
 11
10.0
 21
560.0
 31
0.0
  0
LINE
  5
3E8
330
1F
100
AcDbEntity
  8
LAY-255
  6
CONTINUOUS
 62
     7
100
AcDbLine
 10
770.0
 20
20.0
 30
0.0
 11
770.0
 21
560.0
 31
0.0
  0
LINE
  5
3E9
330
1F
100
AcDbEntity
  8
LAY-255
  6
CONTINUOUS
 62
     4
100
AcDbLine
 10
570.0
 20
55.99999999999999
 30
0.0
 11
770.0000000000001
 21
55.99999999999999
 31
0.0
  0
LINE
  5
3EA
330
1F
100
AcDbEntity
  8
LAY-255
  6
CONTINUOUS
 62
     7
100
AcDbLine
 10
570.0
 20
20.0
 30
0.0
 11
570.0
 21
134.0
 31
0.0
  0
LINE
  5
3EB
330
1F
100
AcDbEntity
  8
LAY-255
  6
CONTINUOUS
 62
     4
100
AcDbLine
 10
670.0
 20
55.99999999999999
 30
0.0
 11
670.0
 21
44.0
 31
0.0
  0
LINE
  5
3EC
330
1F
100
AcDbEntity
  8
LAY-255
  6
CONTINUOUS
 62
     7
100
AcDbLine
 10
770.0000000000001
 20
134.0
 30
0.0
 11
570.0
 21
134.0
 31
0.0
  0
LINE
  5
3ED
330
1F
100
AcDbEntity
  8
LAY-255
  6
CONTINUOUS
 62
     4
100
AcDbLine
 10
766.0
 20
110.0
 30
0.0
 11
574.0
 21
110.0
 31
0.0
  0
LINE
  5
3EE
330
1F
100
AcDbEntity
  8
LAY-255
  6
CONTINUOUS
 62
     4
100
AcDbLine
 10
766.0
 20
122.0
 30
0.0
 11
574.0
 21
122.0
 31
0.0
  0
POINT
  5
3EF
330
1F
100
AcDbEntity
  8
LAY-255
  6
CONTINUOUS
 62
     7
100
AcDbPoint
 10
600.0
 20
112.0
 30
0.0
  0
POINT
  5
3F0
330
1F
100
AcDbEntity
  8
LAY-255
  6
CONTINUOUS
 62
     7
100
AcDbPoint
 10
600.0
 20
124.0
 30
0.0
  0
POINT
  5
3F1
330
1F
100
AcDbEntity
  8
LAY-255
  6
CONTINUOUS
 62
     7
100
AcDbPoint
 10
578.0
 20
59.99999999999997
 30
0.0
  0
POINT
  5
3F2
330
1F
100
AcDbEntity
  8
LAY-255
  6
CONTINUOUS
 62
     7
100
AcDbPoint
 10
578.0
 20
100.0
 30
0.0
  0
POINT
  5
3F3
330
1F
100
AcDbEntity
  8
LAY-255
  6
CONTINUOUS
 62
     7
100
AcDbPoint
 10
578.0
 20
80.0
 30
0.0
  0
POINT
  5
3F4
330
1F
100
AcDbEntity
  8
LAY-255
  6
CONTINUOUS
 62
     7
100
AcDbPoint
 10
578.0
 20
90.0
 30
0.0
  0
POINT
  5
3F5
330
1F
100
AcDbEntity
  8
LAY-255
  6
CONTINUOUS
 62
     7
100
AcDbPoint
 10
578.0
 20
69.99999999999999
 30
0.0
  0
TEXT
  5
3F6
330
1F
100
AcDbEntity
  8
LAY-255
  6
CONTINUOUS
 62
     7
100
AcDbText
 10
616.2767579736328
 20
31.0875
 30
0.0
 40
10.3125
  1
福西鋳物株式会社
 41
1.342692319347662
  7
EXCADSTD
100
AcDbText
  0
TEXT
  5
3F7
330
1F
100
AcDbEntity
  8
LAY-255
  6
CONTINUOUS
 62
     7
100
AcDbText
 10
617.0187500000001
 20
23.9625
 30
0.0
 40
3.4375
  1
ＦＵＫＵＮＩＳＨＩ
 41
1.204799226045263
  7
EXCADSTD
100
AcDbText
  0
TEXT
  5
3F8
330
1F
100
AcDbEntity
  8
LAY-255
  6
CONTINUOUS
 62
     7
100
AcDbText
 10
665.4383928571428
 20
23.9625
 30
0.0
 40
3.4375
  1
ＦＯＵＮＤＲＹ
 41
1.243252752978497
  7
EXCADSTD
100
AcDbText
  0
TEXT
  5
3F9
330
1F
100
AcDbEntity
  8
LAY-255
  6
CONTINUOUS
 62
     7
100
AcDbText
 10
703.9891823858172
 20
23.9625
 30
0.0
 40
3.4375
  1
ＣＯ.,ＬＴＤ.
 41
1.243830523306697
  7
EXCADSTD
100
AcDbText
  0
TEXT
  5
3FA
330
1F
100
AcDbEntity
  8
LAY-255
  6
CONTINUOUS
 62
     7
100
AcDbText
 10
588.06875
 20
27.4375
 30
0.0
 40
10.3125
  1
S
 41
0.7582677563636363
  7
EXCADSTD
100
AcDbText
  0
TEXT
  5
3FB
330
1F
100
AcDbEntity
  8
LAY-255
  6
CONTINUOUS
 62
     7
100
AcDbText
 10
594.209375
 20
27.49882075472
 30
0.0
 40
10.3125
  1
F
 41
0.7440945272727272
  7
EXCADSTD
100
AcDbText
  0
TEXT
  5
3FC
330
1F
100
AcDbEntity
  8
LAY-255
  6
CONTINUOUS
 62
     7
100
AcDbText
 10
674.2109375
 20
48.84374999999998
 30
0.0
 40
5.15625
  1
縮尺
 41
1.080708718181818
  7
EXCADSTD
100
AcDbText
  0
TEXT
  5
3FD
330
1F
100
AcDbEntity
  8
LAY-255
  6
CONTINUOUS
 62
     7
100
AcDbText
 10
574.53125
 20
113.125
 30
0.0
 40
6.875
  1
型式
 41
1.056348480681818
  7
EXCADSTD
100
AcDbText
  0
TEXT
  5
3FE
330
1F
100
AcDbEntity
  8
LAY-255
  6
CONTINUOUS
 62
     7
100
AcDbText
 10
574.84375
 20
125.125
 30
0.0
 40
6.875
  1
品名
 41
0.978838634090909
  7
EXCADSTD
100
AcDbText
  0
TEXT
  5
3FF
330
1F
100
AcDbEntity
  8
LAY-255
  6
CONTINUOUS
 62
     7
100
AcDbText
 10
574.3046875
 20
48.84374999999998
 30
0.0
 40
5.15625
  1
作成日
 41
1.000629973818182
  7
EXCADSTD
100
AcDbText
  0
TEXT
  5
400
330
1F
100
AcDbEntity
  8
LAY-255
  6
CONTINUOUS
 62
     7
100
AcDbText
 10
600.5
 20
125.125
 30
0.0
 40
6.875
  1
ルーフドレイン
 41
1.021169538599106
  7
EXCADSTD
100
AcDbText
  0
TEXT
  5
401
330
1F
100
AcDbEntity
  8
LAY-255
  6
CONTINUOUS
 62
     7
100
AcDbText
 10
696.5625
 20
47.12499999999998
 30
0.0
 40
6.875
  1
１：２
 41
0.888661464
  7
EXCADSTD
100
AcDbText
  0
TEXT
  5
402
330
1F
100
AcDbEntity
  8
LAY-255
  6
CONTINUOUS
 62
     7
100
AcDbText
 10
578.375
 20
81.12500000000001
 30
0.0
 40
6.875
  1
施工：打込用
 41
1.018700840909091
  7
EXCADSTD
100
AcDbText
  0
TEXT
  5
403
330
1F
100
AcDbEntity
  8
LAY-255
  6
CONTINUOUS
 62
     7
100
AcDbText
 10
578.4375
 20
71.12500000000001
 30
0.0
 40
6.875
  1
接続：差込用
 41
1.01733803041958
  7
EXCADSTD
100
AcDbText
  0
TEXT
  5
404
330
1F
100
AcDbEntity
  8
LAY-255
  6
CONTINUOUS
 62
     7
100
AcDbText
 10
578.75
 20
101.125
 30
0.0
 40
6.875
  1
防水：モルタル・塗膜防水兼用
 41
1.008985320967742
  7
EXCADSTD
100
AcDbText
  0
TEXT
  5
405
330
1F
100
AcDbEntity
  8
LAY-255
  6
CONTINUOUS
 62
     7
100
AcDbText
 10
578.46875
 20
91.12500000000001
 30
0.0
 40
6.875
  1
用途：中継用
 41
1.016656625174825
  7
EXCADSTD
100
AcDbText
  0
TEXT
  5
406
330
1F
100
AcDbEntity
  8
LAY-255
  6
CONTINUOUS
 62
     7
100
AcDbText
 10
601.75
 20
113.125
 30
0.0
 40
6.875
  1
ＲＣＸ－１００６５型
 41
1.000581655991735
  7
EXCADSTD
100
AcDbText
  0
TEXT
  5
407
330
1F
100
AcDbEntity
  8
LAY-255
  6
CONTINUOUS
 62
     7
100
AcDbText
 10
601.78125
 20
47.12499999999998
 30
0.0
 40
6.875
  1
０８／０９／０２
 41
0.9779528072727272
  7
EXCADSTD
100
AcDbText
  0
ENDSEC
  0
SECTION
  2
OBJECTS
  0
DICTIONARY
  5
C
330
0
100
AcDbDictionary
  3
ACAD_GROUP
350
D
  3
ACAD_LAYOUT
350
1A
  3
ACAD_MATERIAL
350
43
  3
ACAD_MLEADERSTYLE
350
6B
  3
ACAD_MLINESTYLE
350
17
  3
ACAD_PLOTSETTINGS
350
19
  3
ACAD_SCALELIST
350
47
  3
ACAD_VISUALSTYLE
350
2A
  3
ACDBHEADERROUNDTRIPXREC
350
408
  3
ACDBVARIABLEDICTIONARY
350
429
  0
DICTIONARY
  5
434
330
8
100
AcDbDictionary
280
     1
  3
ACAD_XREC_ROUNDTRIP
360
435
  0
DICTIONARY
  5
D
102
{ACAD_REACTORS
330
C
102
}
330
C
100
AcDbDictionary
  0
DICTIONARY
  5
1A
102
{ACAD_REACTORS
330
C
102
}
330
C
100
AcDbDictionary
  0
DICTIONARY
  5
43
102
{ACAD_REACTORS
330
C
102
}
330
C
100
AcDbDictionary
  3
BYBLOCK
350
45
  3
BYLAYER
350
44
  3
GLOBAL
350
46
  0
DICTIONARY
  5
6B
102
{ACAD_REACTORS
330
C
102
}
330
C
100
AcDbDictionary
  3
STANDARD
350
6C
  0
DICTIONARY
  5
17
102
{ACAD_REACTORS
330
C
102
}
330
C
100
AcDbDictionary
  3
STANDARD
350
18
  0
DICTIONARY
  5
19
102
{ACAD_REACTORS
330
C
102
}
330
C
100
AcDbDictionary
  0
DICTIONARY
  5
47
102
{ACAD_REACTORS
330
C
102
}
330
C
100
AcDbDictionary
  3
A0
350
48
  3
A1
350
49
  3
A2
350
4A
  3
A3
350
4B
  3
A4
350
4C
  3
A5
350
4D
  3
A6
350
4E
  3
A7
350
4F
  3
A8
350
50
  3
A9
350
51
  3
B0
350
52
  3
B1
350
53
  3
B2
350
54
  3
B3
350
55
  3
B4
350
56
  3
B5
350
57
  3
B6
350
58
  3
B7
350
59
  3
B8
350
5A
  3
B9
350
5B
  3
C0
350
5C
  3
C1
350
5D
  3
C2
350
5E
  3
C3
350
5F
  3
C4
350
60
  3
C5
350
61
  3
C6
350
62
  3
C7
350
63
  3
C8
350
64
  3
C9
350
65
  3
D0
350
66
  3
D1
350
67
  3
D2
350
68
  0
DICTIONARY
  5
2A
102
{ACAD_REACTORS
330
C
102
}
330
C
100
AcDbDictionary
  3
2DWIREFRAME
350
2F
  3
BASIC
350
32
  3
BRIGHTEN
350
36
  3
COLORCHANGE
350
3A
  3
CONCEPTUAL
350
34
  3
DIM
350
35
  3
EDGECOLOROFF
350
3D
  3
FACEPATTERN
350
39
  3
FLAT
350
2B
  3
FLATWITHEDGES
350
2C
  3
GOURAUD
350
2D
  3
GOURAUDWITHEDGES
350
2E
  3
HIDDEN
350
31
  3
JITTEROFF
350
3B
  3
LINEPATTERN
350
38
  3
OVERHANGOFF
350
3C
  3
REALISTIC
350
33
  3
SHADED
350
42
  3
SHADED_WITH_EDGES
350
41
  3
SHADES_OF_GRAY
350
3E
  3
SKETCHY
350
3F
  3
THICKEN
350
37
  3
WIREFRAME
350
30
  3
X-RAY
350
40
  0
DICTIONARY
  5
408
102
{ACAD_REACTORS
330
C
102
}
330
C
100
AcDbDictionary
  3
CEPSNID
350
412
  3
CEPSNTYPE
350
411
  3
DIMSTYLEDATA
350
428
  3
FINGERPRINTGUID
350
413
  3
HYPERLINKBASE
350
40B
  3
INSUNITS
350
410
  3
LAYOUTDICT
350
40D
  3
LWETCUNION
350
40F
  3
PLOTSETDICT
350
40E
  3
PSVPSCALE
350
415
  3
PUCSBASE
350
418
  3
PUCSORGBACK
350
41E
  3
PUCSORGBOTTOM
350
41A
  3
PUCSORGFRONT
350
41D
  3
PUCSORGLEFT
350
41B
  3
PUCSORGRIGHT
350
41C
  3
PUCSORGTOP
350
419
  3
PUCSORTHOREF
350
416
  3
PUCSORTHOVIEW
350
417
  3
STYLESHEET
350
40C
  3
TSTACKALIGN
350
409
  3
TSTACKSIZE
350
40A
  3
UCSBASE
350
421
  3
UCSORGBACK
350
427
  3
UCSORGBOTTOM
350
423
  3
UCSORGFRONT
350
426
  3
UCSORGLEFT
350
424
  3
UCSORGRIGHT
350
425
  3
UCSORGTOP
350
422
  3
UCSORTHOREF
350
41F
  3
UCSORTHOVIEW
350
420
  3
VERSIONGUID
350
414
  0
DICTIONARY
  5
429
102
{ACAD_REACTORS
330
C
102
}
330
C
100
AcDbDictionary
  3
CANNOSCALE
350
436
  3
CENTEREXE
350
430
  3
CENTERLTYPEFILE
350
431
  3
CMLEADERSTYLE
350
42B
  3
CTABLESTYLE
350
42A
  3
DIMASSOC
350
432
  3
HIDETEXT
350
433
  3
MSLTSCALE
350
437
  3
PSOLHEIGHT
350
42D
  3
PSOLWIDTH
350
42C
  0
XRECORD
  5
435
102
{ACAD_REACTORS
330
434
102
}
330
434
100
AcDbXrecord
102
VTR_0.000_0.000_1.000_1.000_VISUALSTYLE
340
2F
102
VTR_0.000_0.000_1.000_1.000_GRIDDISPLAY
 70
     3
102
VTR_0.000_0.000_1.000_1.000_GRIDMAJOR
 70
     5
102
VTR_0.000_0.000_1.000_1.000_DEFAULTLIGHTING
280
     1
102
VTR_0.000_0.000_1.000_1.000_DEFAULTLIGHTINGTYPE
 70
     1
102
VTR_0.000_0.000_1.000_1.000_BRIGHTNESS
141
0.0
102
VTR_0.000_0.000_1.000_1.000_CONTRAST
142
0.0
  0
MATERIAL
  5
45
102
{ACAD_REACTORS
330
43
102
}
102
{ACAD_XDICTIONARY
360
43A
102
}
330
43
100
AcDbMaterial
  1
BYBLOCK
  0
MATERIAL
  5
44
102
{ACAD_REACTORS
330
43
102
}
102
{ACAD_XDICTIONARY
360
438
102
}
330
43
100
AcDbMaterial
  1
BYLAYER
  0
MATERIAL
  5
46
102
{ACAD_REACTORS
330
43
102
}
102
{ACAD_XDICTIONARY
360
43C
102
}
330
43
100
AcDbMaterial
  1
GLOBAL
  0
ACAD_PROXY_OBJECT
  5
6C
102
{ACAD_REACTORS
330
6B
102
}
330
6B
100
AcDbProxyObject
 90
      499
 91
      505
 93
      610
310
40901902A4063FBFFFFFE0000000000000020400000000000020404214DD185B99185C990000000000000104090141901A00000000000004100000000000000041025764000000000000039000
340
14
340
0
340
11
340
0
 94
        0
1001
ACAD_MLEADERVER
1070
     2
  0
MLINESTYLE
  5
18
102
{ACAD_REACTORS
330
17
102
}
330
17
100
AcDbMlineStyle
  2
Standard
 70
     0
  3

 62
   256
 51
90.0
 52
90.0
 71
     2
 49
0.5
 62
   256
  6
BYLAYER
 49
-0.5
 62
   256
  6
BYLAYER
  0
ACAD_PROXY_OBJECT
  5
48
102
{ACAD_REACTORS
330
47
102
}
330
47
100
AcDbProxyObject
 90
      499
 91
      503
 93
       41
310
903313A31580
  0
ACAD_PROXY_OBJECT
  5
49
102
{ACAD_REACTORS
330
47
102
}
330
47
100
AcDbProxyObject
 90
      499
 91
      503
 93
      105
310
903313A324000000000000004000
  0
ACAD_PROXY_OBJECT
  5
4A
102
{ACAD_REACTORS
330
47
102
}
330
47
100
AcDbProxyObject
 90
      499
 91
      503
 93
      105
310
903313A344000000000000104000
  0
ACAD_PROXY_OBJECT
  5
4B
102
{ACAD_REACTORS
330
47
102
}
330
47
100
AcDbProxyObject
 90
      499
 91
      503
 93
      105
310
903313A354000000000000144000
  0
ACAD_PROXY_OBJECT
  5
4C
102
{ACAD_REACTORS
330
47
102
}
330
47
100
AcDbProxyObject
 90
      499
 91
      503
 93
      105
310
903313A384000000000000204000
  0
ACAD_PROXY_OBJECT
  5
4D
102
{ACAD_REACTORS
330
47
102
}
330
47
100
AcDbProxyObject
 90
      499
 91
      503
 93
      113
310
904313A31304000000000000244000
  0
ACAD_PROXY_OBJECT
  5
4E
102
{ACAD_REACTORS
330
47
102
}
330
47
100
AcDbProxyObject
 90
      499
 91
      503
 93
      113
310
904313A31364000000000000304000
  0
ACAD_PROXY_OBJECT
  5
4F
102
{ACAD_REACTORS
330
47
102
}
330
47
100
AcDbProxyObject
 90
      499
 91
      503
 93
      113
310
904313A32304000000000000344000
  0
ACAD_PROXY_OBJECT
  5
50
102
{ACAD_REACTORS
330
47
102
}
330
47
100
AcDbProxyObject
 90
      499
 91
      503
 93
      113
310
904313A333040000000000003E4000
  0
ACAD_PROXY_OBJECT
  5
51
102
{ACAD_REACTORS
330
47
102
}
330
47
100
AcDbProxyObject
 90
      499
 91
      503
 93
      113
310
904313A34304000000000000444000
  0
ACAD_PROXY_OBJECT
  5
52
102
{ACAD_REACTORS
330
47
102
}
330
47
100
AcDbProxyObject
 90
      499
 91
      503
 93
      113
310
904313A35304000000000000494000
  0
ACAD_PROXY_OBJECT
  5
53
102
{ACAD_REACTORS
330
47
102
}
330
47
100
AcDbProxyObject
 90
      499
 91
      503
 93
      121
310
905313A3130304000000000000594000
  0
ACAD_PROXY_OBJECT
  5
54
102
{ACAD_REACTORS
330
47
102
}
330
47
100
AcDbProxyObject
 90
      499
 91
      503
 93
      105
310
903323A310000000000000010100
  0
ACAD_PROXY_OBJECT
  5
55
102
{ACAD_REACTORS
330
47
102
}
330
47
100
AcDbProxyObject
 90
      499
 91
      503
 93
      105
310
903343A310000000000000410100
  0
ACAD_PROXY_OBJECT
  5
56
102
{ACAD_REACTORS
330
47
102
}
330
47
100
AcDbProxyObject
 90
      499
 91
      503
 93
      105
310
903383A310000000000000810100
  0
ACAD_PROXY_OBJECT
  5
57
102
{ACAD_REACTORS
330
47
102
}
330
47
100
AcDbProxyObject
 90
      499
 91
      503
 93
      113
310
90431303A310000000000000910100
  0
ACAD_PROXY_OBJECT
  5
58
102
{ACAD_REACTORS
330
47
102
}
330
47
100
AcDbProxyObject
 90
      499
 91
      503
 93
      121
310
9053130303A310000000000001650100
  0
ACAD_PROXY_OBJECT
  5
59
102
{ACAD_REACTORS
330
47
102
}
330
47
100
AcDbProxyObject
 90
      499
 91
      503
 93
      257
310
90E312F31323822203D2031272D3022000000000000200FC000000000000284000
  0
ACAD_PROXY_OBJECT
  5
5A
102
{ACAD_REACTORS
330
47
102
}
330
47
100
AcDbProxyObject
 90
      499
 91
      503
 93
      249
310
90D312F363422203D2031272D3022000000000000240FC000000000000284000
  0
ACAD_PROXY_OBJECT
  5
5B
102
{ACAD_REACTORS
330
47
102
}
330
47
100
AcDbProxyObject
 90
      499
 91
      503
 93
      249
310
90D312F333222203D2031272D3022000000000000280FC000000000000284000
  0
ACAD_PROXY_OBJECT
  5
5C
102
{ACAD_REACTORS
330
47
102
}
330
47
100
AcDbProxyObject
 90
      499
 91
      503
 93
      249
310
90D312F313622203D2031272D30220000000000002C0FC000000000000284000
  0
ACAD_PROXY_OBJECT
  5
5D
102
{ACAD_REACTORS
330
47
102
}
330
47
100
AcDbProxyObject
 90
      499
 91
      503
 93
      249
310
90D332F333222203D2031272D30220000000000002E0FC000000000000284000
  0
ACAD_PROXY_OBJECT
  5
5E
102
{ACAD_REACTORS
330
47
102
}
330
47
100
AcDbProxyObject
 90
      499
 91
      503
 93
      241
310
90C312F3822203D2031272D3022000000000000300FC000000000000284000
  0
ACAD_PROXY_OBJECT
  5
5F
102
{ACAD_REACTORS
330
47
102
}
330
47
100
AcDbProxyObject
 90
      499
 91
      503
 93
      249
310
90D332F313622203D2031272D3022000000000000320FC000000000000284000
  0
ACAD_PROXY_OBJECT
  5
60
102
{ACAD_REACTORS
330
47
102
}
330
47
100
AcDbProxyObject
 90
      499
 91
      503
 93
      241
310
90C312F3422203D2031272D3022000000000000340FC000000000000284000
  0
ACAD_PROXY_OBJECT
  5
61
102
{ACAD_REACTORS
330
47
102
}
330
47
100
AcDbProxyObject
 90
      499
 91
      503
 93
      241
310
90C332F3822203D2031272D3022000000000000360FC000000000000284000
  0
ACAD_PROXY_OBJECT
  5
62
102
{ACAD_REACTORS
330
47
102
}
330
47
100
AcDbProxyObject
 90
      499
 91
      503
 93
      241
310
90C312F3222203D2031272D3022000000000000380FC000000000000284000
  0
ACAD_PROXY_OBJECT
  5
63
102
{ACAD_REACTORS
330
47
102
}
330
47
100
AcDbProxyObject
 90
      499
 91
      503
 93
      241
310
90C332F3422203D2031272D30220000000000003A0FC000000000000284000
  0
ACAD_PROXY_OBJECT
  5
64
102
{ACAD_REACTORS
330
47
102
}
330
47
100
AcDbProxyObject
 90
      499
 91
      503
 93
      161
310
90A3122203D2031272D30224000000000000284000
  0
ACAD_PROXY_OBJECT
  5
65
102
{ACAD_REACTORS
330
47
102
}
330
47
100
AcDbProxyObject
 90
      499
 91
      503
 93
      257
310
90E312D312F3222203D2031272D30220000000000003E0FC000000000000284000
  0
ACAD_PROXY_OBJECT
  5
66
102
{ACAD_REACTORS
330
47
102
}
330
47
100
AcDbProxyObject
 90
      499
 91
      503
 93
      225
310
90A3322203D2031272D302200000000000002100000000000000284000
  0
ACAD_PROXY_OBJECT
  5
67
102
{ACAD_REACTORS
330
47
102
}
330
47
100
AcDbProxyObject
 90
      499
 91
      503
 93
      225
310
90A3622203D2031272D302200000000000006100000000000000284000
  0
ACAD_PROXY_OBJECT
  5
68
102
{ACAD_REACTORS
330
47
102
}
330
47
100
AcDbProxyObject
 90
      499
 91
      503
 93
      249
310
90D31272D3022203D2031272D30220000000000000A100000000000000284000
  0
ACAD_PROXY_OBJECT
  5
2F
102
{ACAD_REACTORS
330
2A
102
}
330
2A
100
AcDbProxyObject
 90
      499
 91
      501
 93
      436
310
42CC9915DA5C99599C985B595049028333333333333E33F0000000000000F90107901411070040501600405405064090741402480A0340
1001
ACAD
1000
AcDbSavedByObjectVersion
1070
     0
  0
ACAD_PROXY_OBJECT
  5
32
102
{ACAD_REACTORS
330
2A
102
}
330
2A
100
AcDbProxyObject
 90
      499
 91
      501
 93
      388
310
4150985CDA58D07406404333333333333E33F0000000000000F90107A41107004050150841D405064090741402480A0350
1001
ACAD
1000
AcDbSavedByObjectVersion
1070
     0
  0
ACAD_PROXY_OBJECT
  5
36
102
{ACAD_REACTORS
330
2A
102
}
330
2A
100
AcDbProxyObject
 90
      499
 91
      501
 93
      428
310
42109C9A59DA1D195B90C409028333333333333E33F0000000000000F9010790141107004050150841D405064090741402480A029950
1001
ACAD
1000
AcDbSavedByObjectVersion
1070
     0
  0
ACAD_PROXY_OBJECT
  5
3A
102
{ACAD_REACTORS
330
2A
102
}
330
2A
100
AcDbProxyObject
 90
      499
 91
      501
 93
      452
310
42D0DBDB1BDC90DA185B99D95104090240C333333333333E33F0000000000000F90108901411070040501508421405064090741402480A0350
1001
ACAD
1000
AcDbSavedByObjectVersion
1070
     0
  0
ACAD_PROXY_OBJECT
  5
34
102
{ACAD_REACTORS
330
2A
102
}
330
2A
100
AcDbProxyObject
 90
      499
 91
      501
 93
      500
310
4290DBDB98D95C1D1D585B10940D028333333333333E33F0000000000000F90107902409070040501000000000018199010841D405064090740C02480A0340
1001
ACAD
1000
AcDbSavedByObjectVersion
1070
     0
  0
ACAD_PROXY_OBJECT
  5
35
102
{ACAD_REACTORS
330
2A
102
}
330
2A
100
AcDbProxyObject
 90
      499
 91
      501
 93
      412
310
40D11A5B50B409028333333333333E33F0000000000000F9010790141107004050150841D405064090741402480A02677FFFFFD0
1001
ACAD
1000
AcDbSavedByObjectVersion
1070
     0
  0
ACAD_PROXY_OBJECT
  5
3D
102
{ACAD_REACTORS
330
2A
102
}
330
2A
100
AcDbProxyObject
 90
      499
 91
      501
 93
      452
310
43115919D950DBDB1BDC93D999916409028333333333333E33F0000000000000F9010790141107004050150841D405064090741402480A0350
1001
ACAD
1000
AcDbSavedByObjectVersion
1070
     0
  0
ACAD_PROXY_OBJECT
  5
39
102
{ACAD_REACTORS
330
2A
102
}
330
2A
100
AcDbProxyObject
 90
      499
 91
      501
 93
      444
310
42D19858D95C185D1D195C9B90F409028333333333333E33F0000000000000F9010790141107004050150841D405064090741402480A0350
1001
ACAD
1000
AcDbSavedByObjectVersion
1070
     0
  0
ACAD_PROXY_OBJECT
  5
2B
102
{ACAD_REACTORS
330
2A
102
}
330
2A
100
AcDbProxyObject
 90
      499
 91
      501
 93
      380
310
41119B185D240901404333333333333E33F0000000000000F9010740A907004050150841D405064090741402480A1B50
1001
ACAD
1000
AcDbSavedByObjectVersion
1070
     0
  0
ACAD_PROXY_OBJECT
  5
2C
102
{ACAD_REACTORS
330
2A
102
}
330
2A
100
AcDbProxyObject
 90
      499
 91
      501
 93
      468
310
43519B185D15DA5D1A115919D95CD0140901404333333333333E33F0000000000000F90107409019070040501600405405064090741402480A1B50
1001
ACAD
1000
AcDbSavedByObjectVersion
1070
     0
  0
ACAD_PROXY_OBJECT
  5
2D
102
{ACAD_REACTORS
330
2A
102
}
330
2A
100
AcDbProxyObject
 90
      499
 91
      501
 93
      404
310
41D1DBDD5C985D5910240902404333333333333E33F0000000000000F9010740A9070040501641D405064090741402480A1B50
1001
ACAD
1000
AcDbSavedByObjectVersion
1070
     0
  0
ACAD_PROXY_OBJECT
  5
2E
102
{ACAD_REACTORS
330
2A
102
}
330
2A
100
AcDbProxyObject
 90
      499
 91
      501
 93
      492
310
4411DBDD5C985D5915DA5D1A115919D95CD0340902404333333333333E33F0000000000000F90107409019070040501600405405064090741402480A1B50
1001
ACAD
1000
AcDbSavedByObjectVersion
1070
     0
  0
ACAD_PROXY_OBJECT
  5
31
102
{ACAD_REACTORS
330
2A
102
}
330
2A
100
AcDbProxyObject
 90
      499
 91
      501
 93
      476
310
41921A5919195B90640502408333333333333E33F0000000000000F901079024090700405020000000000001110200405405064090740C02480A0340
1001
ACAD
1000
AcDbSavedByObjectVersion
1070
     0
  0
ACAD_PROXY_OBJECT
  5
3B
102
{ACAD_REACTORS
330
2A
102
}
330
2A
100
AcDbProxyObject
 90
      499
 91
      501
 93
      428
310
42529A5D1D195C93D999914409028333333333333E33F0000000000000F9010790141107004050150A41D405064090741402480A0350
1001
ACAD
1000
AcDbSavedByObjectVersion
1070
     0
  0
ACAD_PROXY_OBJECT
  5
38
102
{ACAD_REACTORS
330
2A
102
}
330
2A
100
AcDbProxyObject
 90
      499
 91
      501
 93
      444
310
42D31A5B995C185D1D195C9B90E409028333333333333E33F0000000000000F9010790141107004050750841D405064090741402483A0350
1001
ACAD
1000
AcDbSavedByObjectVersion
1070
     0
  0
ACAD_PROXY_OBJECT
  5
3C
102
{ACAD_REACTORS
330
2A
102
}
330
2A
100
AcDbProxyObject
 90
      499
 91
      501
 93
      444
310
42D3DD995C9A185B99D3D999915409028333333333333E33F0000000000000F9010790141107004050150941D405064090741402480A0350
1001
ACAD
1000
AcDbSavedByObjectVersion
1070
     0
  0
ACAD_PROXY_OBJECT
  5
33
102
{ACAD_REACTORS
330
2A
102
}
330
2A
100
AcDbProxyObject
 90
      499
 91
      501
 93
      428
310
425499585B1A5CDD1A58D08409038333333333333E33F0000000000000F9010740A907004050150800405405064090740C02480A1B40
1001
ACAD
1000
AcDbSavedByObjectVersion
1070
     0
  0
ACAD_PROXY_OBJECT
  5
42
102
{ACAD_REACTORS
330
2A
102
}
330
2A
100
AcDbProxyObject
 90
      499
 91
      501
 93
      420
310
4194DA1859195911B40902404333333333333E33F0000000000000F9010740A41107004050150800405405064090840C02480A0B40
1001
ACAD
1000
AcDbSavedByObjectVersion
1070
     0
  0
ACAD_PROXY_OBJECT
  5
41
102
{ACAD_REACTORS
330
2A
102
}
330
2A
100
AcDbProxyObject
 90
      499
 91
      501
 93
      516
310
4454DA18591959081DDA5D1A08195919D95CD1A40902404333333333333E33F0000000000000F901074090142907004050250800405405064090740C02480A0B40
1001
ACAD
1000
AcDbSavedByObjectVersion
1070
     0
  0
ACAD_PROXY_OBJECT
  5
3E
102
{ACAD_REACTORS
330
2A
102
}
330
2A
100
AcDbProxyObject
 90
      499
 91
      501
 93
      532
310
4394DA1859195CC81BD98811DC985E5174090240C333333333333E33F0000000000000F901079024090741D01000000000000111010841D405064090740C02480A0340
1001
ACAD
1000
AcDbSavedByObjectVersion
1070
     0
  0
ACAD_PROXY_OBJECT
  5
3F
102
{ACAD_REACTORS
330
2A
102
}
330
2A
100
AcDbProxyObject
 90
      499
 91
      501
 93
      476
310
41D4DAD95D18DA1E51840502408333333333333E33F0000000000000F901079024090741D01000000000000111010B41D405064090741802480A0340
1001
ACAD
1000
AcDbSavedByObjectVersion
1070
     0
  0
ACAD_PROXY_OBJECT
  5
37
102
{ACAD_REACTORS
330
2A
102
}
330
2A
100
AcDbProxyObject
 90
      499
 91
      501
 93
      412
310
41D51A1A58DAD95B90D409028333333333333E33F0000000000000F9010790141107004050150C41D405064090741402480A0350
1001
ACAD
1000
AcDbSavedByObjectVersion
1070
     0
  0
ACAD_PROXY_OBJECT
  5
30
102
{ACAD_REACTORS
330
2A
102
}
330
2A
100
AcDbProxyObject
 90
      499
 91
      501
 93
      420
310
4255DA5C99599C985B595059028333333333333E33F0000000000000F90107901411070040501600405405064090740C02480A0340
1001
ACAD
1000
AcDbSavedByObjectVersion
1070
     0
  0
ACAD_PROXY_OBJECT
  5
40
102
{ACAD_REACTORS
330
2A
102
}
330
2A
100
AcDbProxyObject
 90
      499
 91
      501
 93
      404
310
41560B54985E51940902404000000000000E03F0000000000000F9010740501907004050150841D405064090740C02480A1B40
1001
ACAD
1000
AcDbSavedByObjectVersion
1070
     0
  0
XRECORD
  5
412
102
{ACAD_REACTORS
330
408
102
}
330
408
100
AcDbXrecord
340
0
  0
XRECORD
  5
411
102
{ACAD_REACTORS
330
408
102
}
330
408
100
AcDbXrecord
 90
        0
  0
XRECORD
  5
428
102
{ACAD_REACTORS
330
408
102
}
330
408
100
AcDbXrecord
1000
DSTYLE
1002
{
1070
   340
340
11
1002
}
  0
XRECORD
  5
413
102
{ACAD_REACTORS
330
408
102
}
330
408
100
AcDbXrecord
  1
{32a03d9a-fc55-447b-90ee-8d30edc09ae1}
  0
XRECORD
  5
40B
102
{ACAD_REACTORS
330
408
102
}
330
408
100
AcDbXrecord
  1

  0
XRECORD
  5
410
102
{ACAD_REACTORS
330
408
102
}
330
408
100
AcDbXrecord
 90
        4
  0
XRECORD
  5
40D
102
{ACAD_REACTORS
330
408
102
}
330
408
100
AcDbXrecord
340
1A
  0
XRECORD
  5
40F
102
{ACAD_REACTORS
330
408
102
}
330
408
100
AcDbXrecord
 90
    10781
  0
XRECORD
  5
40E
102
{ACAD_REACTORS
330
408
102
}
330
408
100
AcDbXrecord
340
19
  0
XRECORD
  5
415
102
{ACAD_REACTORS
330
408
102
}
330
408
100
AcDbXrecord
 40
0.0
  0
XRECORD
  5
418
102
{ACAD_REACTORS
330
408
102
}
330
408
100
AcDbXrecord
340
0
  0
XRECORD
  5
41E
102
{ACAD_REACTORS
330
408
102
}
330
408
100
AcDbXrecord
 10
0.0
 20
0.0
 30
0.0
  0
XRECORD
  5
41A
102
{ACAD_REACTORS
330
408
102
}
330
408
100
AcDbXrecord
 10
0.0
 20
0.0
 30
0.0
  0
XRECORD
  5
41D
102
{ACAD_REACTORS
330
408
102
}
330
408
100
AcDbXrecord
 10
0.0
 20
0.0
 30
0.0
  0
XRECORD
  5
41B
102
{ACAD_REACTORS
330
408
102
}
330
408
100
AcDbXrecord
 10
0.0
 20
0.0
 30
0.0
  0
XRECORD
  5
41C
102
{ACAD_REACTORS
330
408
102
}
330
408
100
AcDbXrecord
 10
0.0
 20
0.0
 30
0.0
  0
XRECORD
  5
419
102
{ACAD_REACTORS
330
408
102
}
330
408
100
AcDbXrecord
 10
0.0
 20
0.0
 30
0.0
  0
XRECORD
  5
416
102
{ACAD_REACTORS
330
408
102
}
330
408
100
AcDbXrecord
340
0
  0
XRECORD
  5
417
102
{ACAD_REACTORS
330
408
102
}
330
408
100
AcDbXrecord
 70
     0
  0
XRECORD
  5
40C
102
{ACAD_REACTORS
330
408
102
}
330
408
100
AcDbXrecord
  1

  0
XRECORD
  5
409
102
{ACAD_REACTORS
330
408
102
}
330
408
100
AcDbXrecord
 90
        1
  0
XRECORD
  5
40A
102
{ACAD_REACTORS
330
408
102
}
330
408
100
AcDbXrecord
 90
       70
  0
XRECORD
  5
421
102
{ACAD_REACTORS
330
408
102
}
330
408
100
AcDbXrecord
340
0
  0
XRECORD
  5
427
102
{ACAD_REACTORS
330
408
102
}
330
408
100
AcDbXrecord
 10
0.0
 20
0.0
 30
0.0
  0
XRECORD
  5
423
102
{ACAD_REACTORS
330
408
102
}
330
408
100
AcDbXrecord
 10
0.0
 20
0.0
 30
0.0
  0
XRECORD
  5
426
102
{ACAD_REACTORS
330
408
102
}
330
408
100
AcDbXrecord
 10
0.0
 20
0.0
 30
0.0
  0
XRECORD
  5
424
102
{ACAD_REACTORS
330
408
102
}
330
408
100
AcDbXrecord
 10
0.0
 20
0.0
 30
0.0
  0
XRECORD
  5
425
102
{ACAD_REACTORS
330
408
102
}
330
408
100
AcDbXrecord
 10
0.0
 20
0.0
 30
0.0
  0
XRECORD
  5
422
102
{ACAD_REACTORS
330
408
102
}
330
408
100
AcDbXrecord
 10
0.0
 20
0.0
 30
0.0
  0
XRECORD
  5
41F
102
{ACAD_REACTORS
330
408
102
}
330
408
100
AcDbXrecord
340
0
  0
XRECORD
  5
420
102
{ACAD_REACTORS
330
408
102
}
330
408
100
AcDbXrecord
 70
     0
  0
XRECORD
  5
414
102
{ACAD_REACTORS
330
408
102
}
330
408
100
AcDbXrecord
  1
{FAEB1C32-E019-11D5-929B-00C0DF256EC4}
  0
DICTIONARYVAR
  5
436
102
{ACAD_REACTORS
330
429
102
}
330
429
100
DictionaryVariables
280
     0
  1
1:1
  0
DICTIONARYVAR
  5
430
102
{ACAD_REACTORS
330
429
102
}
330
429
100
DictionaryVariables
280
     0
  1
3.500000
  0
DICTIONARYVAR
  5
431
102
{ACAD_REACTORS
330
429
102
}
330
429
100
DictionaryVariables
280
     0
  1
acadiso.lin
  0
DICTIONARYVAR
  5
42B
102
{ACAD_REACTORS
330
429
102
}
330
429
100
DictionaryVariables
280
     0
  1
Standard
  0
DICTIONARYVAR
  5
42A
102
{ACAD_REACTORS
330
429
102
}
330
429
100
DictionaryVariables
280
     0
  1
Standard
  0
DICTIONARYVAR
  5
432
102
{ACAD_REACTORS
330
429
102
}
330
429
100
DictionaryVariables
280
     0
  1
2
  0
DICTIONARYVAR
  5
433
102
{ACAD_REACTORS
330
429
102
}
330
429
100
DictionaryVariables
280
     0
  1
1
  0
DICTIONARYVAR
  5
437
102
{ACAD_REACTORS
330
429
102
}
330
429
100
DictionaryVariables
280
     0
  1
1
  0
DICTIONARYVAR
  5
42D
102
{ACAD_REACTORS
330
429
102
}
330
429
100
DictionaryVariables
280
     0
  1
80.000000
  0
DICTIONARYVAR
  5
42C
102
{ACAD_REACTORS
330
429
102
}
330
429
100
DictionaryVariables
280
     0
  1
5.000000
  0
DICTIONARY
  5
43A
330
45
100
AcDbDictionary
280
     1
  3
ACAD_XREC_ROUNDTRIP
360
43B
  0
DICTIONARY
  5
438
330
44
100
AcDbDictionary
280
     1
  3
ACAD_XREC_ROUNDTRIP
360
439
  0
DICTIONARY
  5
43C
330
46
100
AcDbDictionary
280
     1
  3
ACAD_XREC_ROUNDTRIP
360
43D
  0
XRECORD
  5
43B
102
{ACAD_REACTORS
330
43A
102
}
330
43A
100
AcDbXrecord
102
MATERIAL
148
0.0
149
0.0
149
0.0
 93
        0
 94
      127
282
     0
 72
     1
 77
     1
171
     1
175
     1
179
     1
273
     0
  0
XRECORD
  5
439
102
{ACAD_REACTORS
330
438
102
}
330
438
100
AcDbXrecord
102
MATERIAL
148
0.0
149
0.0
149
0.0
 93
        0
 94
      127
282
     0
 72
     1
 77
     1
171
     1
175
     1
179
     1
273
     0
  0
XRECORD
  5
43D
102
{ACAD_REACTORS
330
43C
102
}
330
43C
100
AcDbXrecord
102
MATERIAL
148
0.0
149
0.0
149
0.0
 93
        0
 94
      127
282
     0
 72
     1
 77
     1
171
     1
175
     1
179
     1
273
     0
  0
ENDSEC
  0
EOF
