  0
SECTION
  2
HEADER
  9
$ACADVER
  1
AC1014
  9
$ACADMAINTVER
 70
     9
  9
$DWGCODEPAGE
  3
ANSI_932
  9
$INSBASE
 10
0.0
 20
0.0
 30
0.0
  9
$EXTMIN
 10
15.0
 20
30.0
 30
0.0
  9
$EXTMAX
 10
1155.0
 20
840.0
 30
0.0
  9
$LIMMIN
 10
0.0
 20
0.0
  9
$LIMMAX
 10
420.0
 20
297.0
  9
$ORTHOMODE
 70
     0
  9
$REGENMODE
 70
     1
  9
$FILLMODE
 70
     1
  9
$QTEXTMODE
 70
     0
  9
$MIRRTEXT
 70
     1
  9
$DRAGMODE
 70
     2
  9
$LTSCALE
 40
0.2
  9
$OSMODE
 70
    37
  9
$ATTMODE
 70
     1
  9
$TEXTSIZE
 40
2.5
  9
$TRACEWID
 40
1.0
  9
$TEXTSTYLE
  7
STANDARD
  9
$CLAYER
  8
LAY-10
  9
$CELTYPE
  6
BYLAYER
  9
$CECOLOR
 62
   256
  9
$CELTSCALE
 40
1.0
  9
$DELOBJ
 70
     1
  9
$DISPSILH
 70
     0
  9
$DIMSCALE
 40
1.0
  9
$DIMASZ
 40
2.5
  9
$DIMEXO
 40
0.625
  9
$DIMDLI
 40
3.75
  9
$DIMRND
 40
0.0
  9
$DIMDLE
 40
0.0
  9
$DIMEXE
 40
1.25
  9
$DIMTP
 40
0.0
  9
$DIMTM
 40
0.0
  9
$DIMTXT
 40
2.5
  9
$DIMCEN
 40
2.5
  9
$DIMTSZ
 40
0.0
  9
$DIMTOL
 70
     0
  9
$DIMLIM
 70
     0
  9
$DIMTIH
 70
     0
  9
$DIMTOH
 70
     0
  9
$DIMSE1
 70
     0
  9
$DIMSE2
 70
     0
  9
$DIMTAD
 70
     1
  9
$DIMZIN
 70
     8
  9
$DIMBLK
  1

  9
$DIMASO
 70
     1
  9
$DIMSHO
 70
     1
  9
$DIMPOST
  1

  9
$DIMAPOST
  1

  9
$DIMALT
 70
     0
  9
$DIMALTD
 70
     3
  9
$DIMALTF
 40
0.03937007874016
  9
$DIMLFAC
 40
1.0
  9
$DIMTOFL
 70
     1
  9
$DIMTVP
 40
0.0
  9
$DIMTIX
 70
     0
  9
$DIMSOXD
 70
     0
  9
$DIMSAH
 70
     0
  9
$DIMBLK1
  1

  9
$DIMBLK2
  1

  9
$DIMSTYLE
  2
ISO-25
  9
$DIMCLRD
 70
     0
  9
$DIMCLRE
 70
     0
  9
$DIMCLRT
 70
     0
  9
$DIMTFAC
 40
1.0
  9
$DIMGAP
 40
0.625
  9
$DIMJUST
 70
     0
  9
$DIMSD1
 70
     0
  9
$DIMSD2
 70
     0
  9
$DIMTOLJ
 70
     0
  9
$DIMTZIN
 70
     8
  9
$DIMALTZ
 70
     0
  9
$DIMALTTZ
 70
     0
  9
$DIMFIT
 70
     3
  9
$DIMUPT
 70
     0
  9
$DIMUNIT
 70
     2
  9
$DIMDEC
 70
     2
  9
$DIMTDEC
 70
     2
  9
$DIMALTU
 70
     2
  9
$DIMALTTD
 70
     3
  9
$DIMTXSTY
  7
STANDARD
  9
$DIMAUNIT
 70
     0
  9
$LUNITS
 70
     2
  9
$LUPREC
 70
     4
  9
$SKETCHINC
 40
1.0
  9
$FILLETRAD
 40
10.0
  9
$AUNITS
 70
     0
  9
$AUPREC
 70
     0
  9
$MENU
  1
.
  9
$ELEVATION
 40
0.0
  9
$PELEVATION
 40
0.0
  9
$THICKNESS
 40
0.0
  9
$LIMCHECK
 70
     0
  9
$CHAMFERA
 40
0.0
  9
$CHAMFERB
 40
0.0
  9
$CHAMFERC
 40
0.0
  9
$CHAMFERD
 40
0.0
  9
$SKPOLY
 70
     0
  9
$TDCREATE
 40
2459229.337280648
  9
$TDUPDATE
 40
2459229.337281157
  9
$TDINDWG
 40
0.0000000116
  9
$TDUSRTIMER
 40
0.0000000116
  9
$USRTIMER
 70
     1
  9
$ANGBASE
 50
0.0
  9
$ANGDIR
 70
     0
  9
$PDMODE
 70
     0
  9
$PDSIZE
 40
0.0
  9
$PLINEWID
 40
0.0
  9
$COORDS
 70
     1
  9
$SPLFRAME
 70
     0
  9
$SPLINETYPE
 70
     6
  9
$SPLINESEGS
 70
     8
  9
$ATTDIA
 70
     0
  9
$ATTREQ
 70
     1
  9
$HANDLING
 70
     1
  9
$HANDSEED
  5
4AF
  9
$SURFTAB1
 70
     6
  9
$SURFTAB2
 70
     6
  9
$SURFTYPE
 70
     6
  9
$SURFU
 70
     6
  9
$SURFV
 70
     6
  9
$UCSNAME
  2

  9
$UCSORG
 10
0.0
 20
0.0
 30
0.0
  9
$UCSXDIR
 10
1.0
 20
0.0
 30
0.0
  9
$UCSYDIR
 10
0.0
 20
1.0
 30
0.0
  9
$PUCSNAME
  2

  9
$PUCSORG
 10
0.0
 20
0.0
 30
0.0
  9
$PUCSXDIR
 10
1.0
 20
0.0
 30
0.0
  9
$PUCSYDIR
 10
0.0
 20
1.0
 30
0.0
  9
$USERI1
 70
     0
  9
$USERI2
 70
     0
  9
$USERI3
 70
     0
  9
$USERI4
 70
     0
  9
$USERI5
 70
     0
  9
$USERR1
 40
0.0
  9
$USERR2
 40
0.0
  9
$USERR3
 40
0.0
  9
$USERR4
 40
0.0
  9
$USERR5
 40
0.0
  9
$WORLDVIEW
 70
     1
  9
$SHADEDGE
 70
     3
  9
$SHADEDIF
 70
    70
  9
$TILEMODE
 70
     1
  9
$MAXACTVP
 70
    64
  9
$PINSBASE
 10
0.0
 20
0.0
 30
0.0
  9
$PLIMCHECK
 70
     0
  9
$PEXTMIN
 10
1.000000000000000E+20
 20
1.000000000000000E+20
 30
1.000000000000000E+20
  9
$PEXTMAX
 10
-1.000000000000000E+20
 20
-1.000000000000000E+20
 30
-1.000000000000000E+20
  9
$PLIMMIN
 10
0.0
 20
0.0
  9
$PLIMMAX
 10
420.0
 20
297.0
  9
$UNITMODE
 70
     0
  9
$VISRETAIN
 70
     1
  9
$PLINEGEN
 70
     0
  9
$PSLTSCALE
 70
     1
  9
$TREEDEPTH
 70
  3020
  9
$PICKSTYLE
 70
     1
  9
$CMLSTYLE
  2
STANDARD
  9
$CMLJUST
 70
     0
  9
$CMLSCALE
 40
20.0
  9
$PROXYGRAPHICS
 70
     1
  9
$MEASUREMENT
 70
     1
  0
ENDSEC
  0
SECTION
  2
CLASSES
  0
CLASS
  1
ACDBDICTIONARYWDFLT
  2
AcDbDictionaryWithDefault
  3
ObjectDBX Classes
 90
        0
280
     0
281
     0
  0
CLASS
  1
VISUALSTYLE
  2
AcDbVisualStyle
  3
ObjectDBX Classes
 90
     4095
280
     0
281
     0
  0
CLASS
  1
MATERIAL
  2
AcDbMaterial
  3
ObjectDBX Classes
 90
     1153
280
     0
281
     0
  0
CLASS
  1
SCALE
  2
AcDbScale
  3
ObjectDBX Classes
 90
     1153
280
     0
281
     0
  0
CLASS
  1
TABLESTYLE
  2
AcDbTableStyle
  3
ObjectDBX Classes
 90
     4095
280
     0
281
     0
  0
CLASS
  1
MLEADERSTYLE
  2
AcDbMLeaderStyle
  3
ACDB_MLEADERSTYLE_CLASS
 90
     4095
280
     0
281
     0
  0
CLASS
  1
SUN
  2
AcDbSun
  3
SCENEOE
 90
     1153
280
     0
281
     0
  0
CLASS
  1
DICTIONARYVAR
  2
AcDbDictionaryVar
  3
ObjectDBX Classes
 90
        0
280
     0
281
     0
  0
CLASS
  1
XRECORD
  2
AcDbXrecord
  3
ObjectDBX Classes
 90
        0
280
     0
281
     0
  0
CLASS
  1
LWPOLYLINE
  2
AcDbPolyline
  3
ObjectDBX Classes
 90
        0
280
     0
281
     1
  0
CLASS
  1
HATCH
  2
AcDbHatch
  3
ObjectDBX Classes
 90
        0
280
     0
281
     1
  0
CLASS
  1
ACDBPLACEHOLDER
  2
AcDbPlaceHolder
  3
ObjectDBX Classes
 90
        0
280
     0
281
     0
  0
CLASS
  1
LAYOUT
  2
AcDbLayout
  3
ObjectDBX Classes
 90
        0
280
     0
281
     0
  0
ENDSEC
  0
SECTION
  2
TABLES
  0
TABLE
  2
VPORT
  5
8
102
{ACAD_XDICTIONARY
360
4A4
102
}
330
0
100
AcDbSymbolTable
 70
     1
  0
VPORT
  5
29
330
8
100
AcDbSymbolTableRecord
100
AcDbViewportTableRecord
  2
*ACTIVE
 70
     0
 10
0.0
 20
0.0
 11
1.0
 21
1.0
 12
585.0000000000001
 22
435.0
 13
0.0
 23
0.0
 14
10.0
 24
10.0
 15
10.0
 25
10.0
 16
0.0
 26
0.0
 36
1.0
 17
0.0
 27
0.0
 37
0.0
 40
810.0
 41
1.407407407407408
 42
50.0
 43
0.0
 44
0.0
 50
0.0
 51
0.0
 71
     0
 72
  1000
 73
     1
 74
     3
 75
     0
 76
     0
 77
     0
 78
     0
  0
ENDTAB
  0
TABLE
  2
LTYPE
  5
5
330
0
100
AcDbSymbolTable
 70
     6
  0
LTYPE
  5
14
330
5
100
AcDbSymbolTableRecord
100
AcDbLinetypeTableRecord
  2
BYBLOCK
 70
     0
  3

 72
    65
 73
     0
 40
0.0
  0
LTYPE
  5
15
330
5
100
AcDbSymbolTableRecord
100
AcDbLinetypeTableRecord
  2
BYLAYER
 70
     0
  3

 72
    65
 73
     0
 40
0.0
  0
LTYPE
  5
16
330
5
100
AcDbSymbolTableRecord
100
AcDbLinetypeTableRecord
  2
CONTINUOUS
 70
     0
  3
Solid line
 72
    65
 73
     0
 40
0.0
  0
LTYPE
  5
6E
330
5
100
AcDbSymbolTableRecord
100
AcDbLinetypeTableRecord
  2
HIDDEN
 70
     0
  3
Hidden __ __ __ __ __ __ __ __ __ __ __ __ __ __
 72
    65
 73
     2
 40
9.524999999999999
 49
6.35
 74
     0
 49
-3.175
 74
     0
  0
LTYPE
  5
6F
330
5
100
AcDbSymbolTableRecord
100
AcDbLinetypeTableRecord
  2
CENTER
 70
     0
  3
Center ____ _ ____ _ ____ _ ____ _ ____ _ ____
 72
    65
 73
     4
 40
50.8
 49
31.75
 74
     0
 49
-6.35
 74
     0
 49
6.35
 74
     0
 49
-6.35
 74
     0
  0
LTYPE
  5
70
330
5
100
AcDbSymbolTableRecord
100
AcDbLinetypeTableRecord
  2
PHANTOM
 70
     0
  3
Phantom ______  __  __  ______  __  __  ______ 
 72
    65
 73
     6
 40
63.50000000000001
 49
31.75
 74
     0
 49
-6.35
 74
     0
 49
6.35
 74
     0
 49
-6.35
 74
     0
 49
6.35
 74
     0
 49
-6.35
 74
     0
  0
LTYPE
  5
71
330
5
100
AcDbSymbolTableRecord
100
AcDbLinetypeTableRecord
  2
ACAD_ISO06W100
 70
     0
  3
ISO long-dash triple-dot ____ ... ____ ... ____
 72
    65
 73
     8
 40
36.0
 49
24.0
 74
     0
 49
-3.0
 74
     0
 49
0.0
 74
     0
 49
-3.0
 74
     0
 49
0.0
 74
     0
 49
-3.0
 74
     0
 49
0.0
 74
     0
 49
-3.0
 74
     0
  0
LTYPE
  5
72
330
5
100
AcDbSymbolTableRecord
100
AcDbLinetypeTableRecord
  2
ACAD_ISO15W100
 70
     0
  3
ISO double-dash triple-dot __ __ . . . __ __ . .
 72
    65
 73
    10
 40
39.0
 49
12.0
 74
     0
 49
-3.0
 74
     0
 49
12.0
 74
     0
 49
-3.0
 74
     0
 49
0.0
 74
     0
 49
-3.0
 74
     0
 49
0.0
 74
     0
 49
-3.0
 74
     0
 49
0.0
 74
     0
 49
-3.0
 74
     0
  0
ENDTAB
  0
TABLE
  2
LAYER
  5
2
330
0
100
AcDbSymbolTable
 70
     5
  0
LAYER
  5
10
330
2
100
AcDbSymbolTableRecord
100
AcDbLayerTableRecord
  2
0
 70
     0
 62
     7
  6
CONTINUOUS
  0
LAYER
  5
75
330
2
100
AcDbSymbolTableRecord
100
AcDbLayerTableRecord
  2
LAY-10
 70
     0
 62
     7
  6
CONTINUOUS
  0
LAYER
  5
76
330
2
100
AcDbSymbolTableRecord
100
AcDbLayerTableRecord
  2
LAY-20
 70
     0
 62
     7
  6
CONTINUOUS
  0
LAYER
  5
77
330
2
100
AcDbSymbolTableRecord
100
AcDbLayerTableRecord
  2
LAY-255
 70
     0
 62
     7
  6
CONTINUOUS
  0
LAYER
  5
3DC
330
2
100
AcDbSymbolTableRecord
100
AcDbLayerTableRecord
  2
DEFPOINTS
 70
     0
 62
     7
  6
CONTINUOUS
  0
ENDTAB
  0
TABLE
  2
STYLE
  5
3
330
0
100
AcDbSymbolTable
 70
     4
  0
STYLE
  5
11
330
3
100
AcDbSymbolTableRecord
100
AcDbTextStyleTableRecord
  2
STANDARD
 70
     0
 40
0.0
 41
1.0
 50
0.0
 71
     0
 42
2.5
  3
simplex
  4
bigfont
  0
STYLE
  5
73
330
3
100
AcDbSymbolTableRecord
100
AcDbTextStyleTableRecord
  2
EXCADSTD
 70
     0
 40
0.0
 41
1.0
 50
0.0
 71
     0
 42
2.5
  3
simplex
  4
bigfont
  0
STYLE
  5
74
330
3
100
AcDbSymbolTableRecord
100
AcDbTextStyleTableRecord
  2
EXCADVERT
 70
     4
 40
0.0
 41
1.0
 50
0.0
 71
     0
 42
2.5
  3
simplex
  4
bigfont
  0
STYLE
  5
3DA
330
3
100
AcDbSymbolTableRecord
100
AcDbTextStyleTableRecord
  2
EXCADDIM1
 70
     0
 40
0.0
 41
0.84
 50
0.0
 71
     0
 42
2.5
  3
simplex
  4
bigfont
  0
ENDTAB
  0
TABLE
  2
VIEW
  5
6
330
0
100
AcDbSymbolTable
 70
     0
  0
ENDTAB
  0
TABLE
  2
UCS
  5
7
330
0
100
AcDbSymbolTable
 70
     0
  0
ENDTAB
  0
TABLE
  2
APPID
  5
9
330
0
100
AcDbSymbolTable
 70
     2
  0
APPID
  5
12
330
9
100
AcDbSymbolTableRecord
100
AcDbRegAppTableRecord
  2
ACAD
 70
     0
  0
APPID
  5
4AE
330
9
100
AcDbSymbolTableRecord
100
AcDbRegAppTableRecord
  2
ACAD_MLEADERVER
 70
     0
  0
ENDTAB
  0
TABLE
  2
DIMSTYLE
  5
A
330
0
100
AcDbSymbolTable
 70
     1
  0
DIMSTYLE
105
27
102
{ACAD_REACTORS
330
3DB
330
3E9
330
3F6
330
403
330
410
330
41D
330
42A
330
437
330
443
102
}
330
A
100
AcDbSymbolTableRecord
100
AcDbDimStyleTableRecord
  2
ISO-25
 70
     0
  3

  4

  5

  6

  7

 40
1.0
 41
2.5
 42
0.625
 43
3.75
 44
1.25
 45
0.0
 46
0.0
 47
0.0
 48
0.0
140
2.5
141
2.5
142
0.0
143
0.03937007874016
144
1.0
145
0.0
146
1.0
147
0.625
 71
     0
 72
     0
 73
     0
 74
     0
 75
     0
 76
     0
 77
     1
 78
     8
170
     0
171
     3
172
     1
173
     0
174
     0
175
     0
176
     0
177
     0
178
     0
270
     2
271
     2
272
     2
273
     2
274
     3
340
11
275
     0
280
     0
281
     0
282
     0
283
     0
284
     8
285
     0
286
     0
287
     5
288
     0
  0
ENDTAB
  0
TABLE
  2
BLOCK_RECORD
  5
1
330
0
100
AcDbSymbolTable
 70
    23
  0
BLOCK_RECORD
  5
1F
330
1
100
AcDbSymbolTableRecord
100
AcDbBlockTableRecord
  2
*MODEL_SPACE
  0
BLOCK_RECORD
  5
1B
330
1
100
AcDbSymbolTableRecord
100
AcDbBlockTableRecord
  2
*PAPER_SPACE
  0
BLOCK_RECORD
  5
78
330
1
100
AcDbSymbolTableRecord
100
AcDbBlockTableRecord
  2
EX_NORM
  0
BLOCK_RECORD
  5
7B
330
1
100
AcDbSymbolTableRecord
100
AcDbBlockTableRecord
  2
EX_BNORM
  0
BLOCK_RECORD
  5
7E
330
1
100
AcDbSymbolTableRecord
100
AcDbBlockTableRecord
  2
EX_BCIR
  0
BLOCK_RECORD
  5
81
330
1
100
AcDbSymbolTableRecord
100
AcDbBlockTableRecord
  2
EX_RCIVIL
  0
BLOCK_RECORD
  5
84
330
1
100
AcDbSymbolTableRecord
100
AcDbBlockTableRecord
  2
EX_SLANT
  0
BLOCK_RECORD
  5
87
330
1
100
AcDbSymbolTableRecord
100
AcDbBlockTableRecord
  2
EX_NONE
  0
BLOCK_RECORD
  5
8A
330
1
100
AcDbSymbolTableRecord
100
AcDbBlockTableRecord
  2
EX_CIVIL
  0
BLOCK_RECORD
  5
8D
330
1
100
AcDbSymbolTableRecord
100
AcDbBlockTableRecord
  2
EX_WCIR
  0
BLOCK_RECORD
  5
90
330
1
100
AcDbSymbolTableRecord
100
AcDbBlockTableRecord
  2
EX_WCIR2
  0
BLOCK_RECORD
  5
93
330
1
100
AcDbSymbolTableRecord
100
AcDbBlockTableRecord
  2
EX_WNORM
  0
BLOCK_RECORD
  5
96
330
1
100
AcDbSymbolTableRecord
100
AcDbBlockTableRecord
  2
EX_NNORM
  0
BLOCK_RECORD
  5
99
330
1
100
AcDbSymbolTableRecord
100
AcDbBlockTableRecord
  2
EX_BBOX
  0
BLOCK_RECORD
  5
9C
330
1
100
AcDbSymbolTableRecord
100
AcDbBlockTableRecord
  2
EX_WBOX
  0
BLOCK_RECORD
  5
9F
330
1
100
AcDbSymbolTableRecord
100
AcDbBlockTableRecord
  2
EX_INTEGRAL
  0
BLOCK_RECORD
  5
3DD
330
1
100
AcDbSymbolTableRecord
100
AcDbBlockTableRecord
  2
*D15
  0
BLOCK_RECORD
  5
3EA
330
1
100
AcDbSymbolTableRecord
100
AcDbBlockTableRecord
  2
*D16
  0
BLOCK_RECORD
  5
3F7
330
1
100
AcDbSymbolTableRecord
100
AcDbBlockTableRecord
  2
*D17
  0
BLOCK_RECORD
  5
404
330
1
100
AcDbSymbolTableRecord
100
AcDbBlockTableRecord
  2
*D18
  0
BLOCK_RECORD
  5
411
330
1
100
AcDbSymbolTableRecord
100
AcDbBlockTableRecord
  2
*D19
  0
BLOCK_RECORD
  5
41E
330
1
100
AcDbSymbolTableRecord
100
AcDbBlockTableRecord
  2
*D20
  0
BLOCK_RECORD
  5
42B
330
1
100
AcDbSymbolTableRecord
100
AcDbBlockTableRecord
  2
*D21
  0
BLOCK_RECORD
  5
438
330
1
100
AcDbSymbolTableRecord
100
AcDbBlockTableRecord
  2
*D22
  0
BLOCK_RECORD
  5
444
330
1
100
AcDbSymbolTableRecord
100
AcDbBlockTableRecord
  2
*D23
  0
ENDTAB
  0
ENDSEC
  0
SECTION
  2
BLOCKS
  0
BLOCK
  5
20
330
1F
100
AcDbEntity
  8
0
100
AcDbBlockBegin
  2
*MODEL_SPACE
 70
     0
 10
0.0
 20
0.0
 30
0.0
  3
*MODEL_SPACE
  1

  0
ENDBLK
  5
21
330
1F
100
AcDbEntity
  8
0
100
AcDbBlockEnd
  0
BLOCK
  5
1C
330
1B
100
AcDbEntity
 67
     1
  8
0
100
AcDbBlockBegin
  2
*PAPER_SPACE
 70
     0
 10
0.0
 20
0.0
 30
0.0
  3
*PAPER_SPACE
  1

  0
ENDBLK
  5
1D
330
1B
100
AcDbEntity
 67
     1
  8
0
100
AcDbBlockEnd
  0
BLOCK
  5
79
330
78
100
AcDbEntity
  8
0
100
AcDbBlockBegin
  2
EX_NORM
 70
     0
 10
0.0
 20
0.0
 30
0.0
  3
EX_NORM
  1

  0
LINE
  5
A2
330
78
100
AcDbEntity
  8
0
  6
CONTINUOUS
 62
     0
100
AcDbLine
 10
0.0
 20
0.0
 30
0.0
 11
-1.0
 21
0.0
 31
0.0
  0
LINE
  5
A3
330
78
100
AcDbEntity
  8
0
  6
CONTINUOUS
 62
     0
100
AcDbLine
 10
0.0
 20
0.0
 30
0.0
 11
-1.0
 21
0.166666667
 31
0.0
  0
LINE
  5
A4
330
78
100
AcDbEntity
  8
0
  6
CONTINUOUS
 62
     0
100
AcDbLine
 10
0.0
 20
0.0
 30
0.0
 11
-1.0
 21
-0.166666667
 31
0.0
  0
ENDBLK
  5
7A
330
78
100
AcDbEntity
  8
0
100
AcDbBlockEnd
  0
BLOCK
  5
7C
330
7B
100
AcDbEntity
  8
0
100
AcDbBlockBegin
  2
EX_BNORM
 70
     0
 10
0.0
 20
0.0
 30
0.0
  3
EX_BNORM
  1

  0
LINE
  5
A5
330
7B
100
AcDbEntity
  8
0
  6
CONTINUOUS
 62
     0
100
AcDbLine
 10
0.0
 20
0.0
 30
0.0
 11
-1.0
 21
0.0
 31
0.0
  0
LINE
  5
A6
330
7B
100
AcDbEntity
  8
0
  6
CONTINUOUS
 62
     0
100
AcDbLine
 10
0.0
 20
0.0
 30
0.0
 11
-1.0
 21
0.166666667
 31
0.0
  0
LINE
  5
A7
330
7B
100
AcDbEntity
  8
0
  6
CONTINUOUS
 62
     0
100
AcDbLine
 10
0.0
 20
0.0
 30
0.0
 11
-1.0
 21
-0.166666667
 31
0.0
  0
LINE
  5
A8
330
7B
100
AcDbEntity
  8
0
  6
CONTINUOUS
 62
     0
100
AcDbLine
 10
0.0
 20
0.0
 30
0.0
 11
-1.0
 21
0.083333333
 31
0.0
  0
LINE
  5
A9
330
7B
100
AcDbEntity
  8
0
  6
CONTINUOUS
 62
     0
100
AcDbLine
 10
0.0
 20
0.0
 30
0.0
 11
-1.0
 21
-0.083333333
 31
0.0
  0
LINE
  5
AA
330
7B
100
AcDbEntity
  8
0
  6
CONTINUOUS
 62
     0
100
AcDbLine
 10
-1.0
 20
0.166666667
 30
0.0
 11
-1.0
 21
-0.166666667
 31
0.0
  0
ENDBLK
  5
7D
330
7B
100
AcDbEntity
  8
0
100
AcDbBlockEnd
  0
BLOCK
  5
7F
330
7E
100
AcDbEntity
  8
0
100
AcDbBlockBegin
  2
EX_BCIR
 70
     0
 10
0.0
 20
0.0
 30
0.0
  3
EX_BCIR
  1

  0
LINE
  5
AB
330
7E
100
AcDbEntity
  8
0
  6
CONTINUOUS
 62
     0
100
AcDbLine
 10
0.0
 20
0.0
 30
0.0
 11
-1.0
 21
0.0
 31
0.0
  0
CIRCLE
  5
AC
330
7E
100
AcDbEntity
  8
0
  6
CONTINUOUS
 62
     0
100
AcDbCircle
 10
0.0
 20
0.0
 30
0.0
 40
0.5
  0
CIRCLE
  5
AD
330
7E
100
AcDbEntity
  8
0
  6
CONTINUOUS
 62
     0
100
AcDbCircle
 10
0.0
 20
0.0
 30
0.0
 40
0.25
  0
ENDBLK
  5
80
330
7E
100
AcDbEntity
  8
0
100
AcDbBlockEnd
  0
BLOCK
  5
82
330
81
100
AcDbEntity
  8
0
100
AcDbBlockBegin
  2
EX_RCIVIL
 70
     0
 10
0.0
 20
0.0
 30
0.0
  3
EX_RCIVIL
  1

  0
LINE
  5
AE
330
81
100
AcDbEntity
  8
0
  6
CONTINUOUS
 62
     0
100
AcDbLine
 10
0.0
 20
0.0
 30
0.0
 11
-1.0
 21
0.0
 31
0.0
  0
LINE
  5
AF
330
81
100
AcDbEntity
  8
0
  6
CONTINUOUS
 62
     0
100
AcDbLine
 10
-1.0
 20
-0.25
 30
0.0
 11
0.0
 21
-0.25
 31
0.0
  0
LINE
  5
B0
330
81
100
AcDbEntity
  8
0
  6
CONTINUOUS
 62
     0
100
AcDbLine
 10
-1.0
 20
-0.125
 30
0.0
 11
0.0
 21
-0.125
 31
0.0
  0
ENDBLK
  5
83
330
81
100
AcDbEntity
  8
0
100
AcDbBlockEnd
  0
BLOCK
  5
85
330
84
100
AcDbEntity
  8
0
100
AcDbBlockBegin
  2
EX_SLANT
 70
     0
 10
0.0
 20
0.0
 30
0.0
  3
EX_SLANT
  1

  0
LINE
  5
B1
330
84
100
AcDbEntity
  8
0
  6
CONTINUOUS
 62
     0
100
AcDbLine
 10
0.0
 20
0.0
 30
0.0
 11
-1.0
 21
0.0
 31
0.0
  0
LINE
  5
B2
330
84
100
AcDbEntity
  8
0
  6
CONTINUOUS
 62
     0
100
AcDbLine
 10
0.707106781
 20
0.707106781
 30
0.0
 11
-0.707106781
 21
-0.707106781
 31
0.0
  0
ENDBLK
  5
86
330
84
100
AcDbEntity
  8
0
100
AcDbBlockEnd
  0
BLOCK
  5
88
330
87
100
AcDbEntity
  8
0
100
AcDbBlockBegin
  2
EX_NONE
 70
     0
 10
0.0
 20
0.0
 30
0.0
  3
EX_NONE
  1

  0
LINE
  5
B3
330
87
100
AcDbEntity
  8
0
  6
CONTINUOUS
 62
     0
100
AcDbLine
 10
0.0
 20
0.0
 30
0.0
 11
-1.0
 21
0.0
 31
0.0
  0
ENDBLK
  5
89
330
87
100
AcDbEntity
  8
0
100
AcDbBlockEnd
  0
BLOCK
  5
8B
330
8A
100
AcDbEntity
  8
0
100
AcDbBlockBegin
  2
EX_CIVIL
 70
     0
 10
0.0
 20
0.0
 30
0.0
  3
EX_CIVIL
  1

  0
LINE
  5
B4
330
8A
100
AcDbEntity
  8
0
  6
CONTINUOUS
 62
     0
100
AcDbLine
 10
0.0
 20
0.0
 30
0.0
 11
-1.0
 21
0.0
 31
0.0
  0
LINE
  5
B5
330
8A
100
AcDbEntity
  8
0
  6
CONTINUOUS
 62
     0
100
AcDbLine
 10
-1.0
 20
0.25
 30
0.0
 11
0.0
 21
0.25
 31
0.0
  0
LINE
  5
B6
330
8A
100
AcDbEntity
  8
0
  6
CONTINUOUS
 62
     0
100
AcDbLine
 10
-1.0
 20
0.125
 30
0.0
 11
0.0
 21
0.125
 31
0.0
  0
ENDBLK
  5
8C
330
8A
100
AcDbEntity
  8
0
100
AcDbBlockEnd
  0
BLOCK
  5
8E
330
8D
100
AcDbEntity
  8
0
100
AcDbBlockBegin
  2
EX_WCIR
 70
     0
 10
0.0
 20
0.0
 30
0.0
  3
EX_WCIR
  1

  0
LINE
  5
B7
330
8D
100
AcDbEntity
  8
0
  6
CONTINUOUS
 62
     0
100
AcDbLine
 10
0.0
 20
0.0
 30
0.0
 11
-1.0
 21
0.0
 31
0.0
  0
CIRCLE
  5
B8
330
8D
100
AcDbEntity
  8
0
  6
CONTINUOUS
 62
     0
100
AcDbCircle
 10
0.0
 20
0.0
 30
0.0
 40
0.5
  0
ENDBLK
  5
8F
330
8D
100
AcDbEntity
  8
0
100
AcDbBlockEnd
  0
BLOCK
  5
91
330
90
100
AcDbEntity
  8
0
100
AcDbBlockBegin
  2
EX_WCIR2
 70
     0
 10
0.0
 20
0.0
 30
0.0
  3
EX_WCIR2
  1

  0
LINE
  5
B9
330
90
100
AcDbEntity
  8
0
  6
CONTINUOUS
 62
     0
100
AcDbLine
 10
-0.5
 20
0.0
 30
0.0
 11
-1.0
 21
0.0
 31
0.0
  0
CIRCLE
  5
BA
330
90
100
AcDbEntity
  8
0
  6
CONTINUOUS
 62
     0
100
AcDbCircle
 10
0.0
 20
0.0
 30
0.0
 40
0.5
  0
ENDBLK
  5
92
330
90
100
AcDbEntity
  8
0
100
AcDbBlockEnd
  0
BLOCK
  5
94
330
93
100
AcDbEntity
  8
0
100
AcDbBlockBegin
  2
EX_WNORM
 70
     0
 10
0.0
 20
0.0
 30
0.0
  3
EX_WNORM
  1

  0
LINE
  5
BB
330
93
100
AcDbEntity
  8
0
  6
CONTINUOUS
 62
     0
100
AcDbLine
 10
-1.0
 20
0.0
 30
0.0
 11
-1.0
 21
0.0
 31
0.0
  0
LINE
  5
BC
330
93
100
AcDbEntity
  8
0
  6
CONTINUOUS
 62
     0
100
AcDbLine
 10
0.0
 20
0.0
 30
0.0
 11
-1.0
 21
0.166666667
 31
0.0
  0
LINE
  5
BD
330
93
100
AcDbEntity
  8
0
  6
CONTINUOUS
 62
     0
100
AcDbLine
 10
0.0
 20
0.0
 30
0.0
 11
-1.0
 21
-0.166666667
 31
0.0
  0
LINE
  5
BE
330
93
100
AcDbEntity
  8
0
  6
CONTINUOUS
 62
     0
100
AcDbLine
 10
-1.0
 20
0.166666667
 30
0.0
 11
-1.0
 21
-0.166666667
 31
0.0
  0
ENDBLK
  5
95
330
93
100
AcDbEntity
  8
0
100
AcDbBlockEnd
  0
BLOCK
  5
97
330
96
100
AcDbEntity
  8
0
100
AcDbBlockBegin
  2
EX_NNORM
 70
     0
 10
0.0
 20
0.0
 30
0.0
  3
EX_NNORM
  1

  0
LINE
  5
BF
330
96
100
AcDbEntity
  8
0
  6
CONTINUOUS
 62
     0
100
AcDbLine
 10
0.0
 20
0.0
 30
0.0
 11
-1.0
 21
0.0
 31
0.0
  0
LINE
  5
C0
330
96
100
AcDbEntity
  8
0
  6
CONTINUOUS
 62
     0
100
AcDbLine
 10
0.0
 20
0.0
 30
0.0
 11
-1.0
 21
0.166666667
 31
0.0
  0
LINE
  5
C1
330
96
100
AcDbEntity
  8
0
  6
CONTINUOUS
 62
     0
100
AcDbLine
 10
0.0
 20
0.0
 30
0.0
 11
-1.0
 21
-0.166666667
 31
0.0
  0
LINE
  5
C2
330
96
100
AcDbEntity
  8
0
  6
CONTINUOUS
 62
     0
100
AcDbLine
 10
-1.0
 20
0.166666667
 30
0.0
 11
-1.0
 21
-0.166666667
 31
0.0
  0
ENDBLK
  5
98
330
96
100
AcDbEntity
  8
0
100
AcDbBlockEnd
  0
BLOCK
  5
9A
330
99
100
AcDbEntity
  8
0
100
AcDbBlockBegin
  2
EX_BBOX
 70
     0
 10
0.0
 20
0.0
 30
0.0
  3
EX_BBOX
  1

  0
LINE
  5
C3
330
99
100
AcDbEntity
  8
0
  6
CONTINUOUS
 62
     0
100
AcDbLine
 10
0.0
 20
0.0
 30
0.0
 11
-1.0
 21
0.0
 31
0.0
  0
LINE
  5
C4
330
99
100
AcDbEntity
  8
0
  6
CONTINUOUS
 62
     0
100
AcDbLine
 10
-0.5
 20
0.5
 30
0.0
 11
0.5
 21
0.5
 31
0.0
  0
LINE
  5
C5
330
99
100
AcDbEntity
  8
0
  6
CONTINUOUS
 62
     0
100
AcDbLine
 10
0.5
 20
0.5
 30
0.0
 11
0.5
 21
-0.5
 31
0.0
  0
LINE
  5
C6
330
99
100
AcDbEntity
  8
0
  6
CONTINUOUS
 62
     0
100
AcDbLine
 10
0.5
 20
-0.5
 30
0.0
 11
-0.5
 21
-0.5
 31
0.0
  0
LINE
  5
C7
330
99
100
AcDbEntity
  8
0
  6
CONTINUOUS
 62
     0
100
AcDbLine
 10
-0.5
 20
-0.5
 30
0.0
 11
-0.5
 21
0.5
 31
0.0
  0
LINE
  5
C8
330
99
100
AcDbEntity
  8
0
  6
CONTINUOUS
 62
     0
100
AcDbLine
 10
-0.25
 20
0.25
 30
0.0
 11
0.25
 21
0.25
 31
0.0
  0
LINE
  5
C9
330
99
100
AcDbEntity
  8
0
  6
CONTINUOUS
 62
     0
100
AcDbLine
 10
0.25
 20
0.25
 30
0.0
 11
0.25
 21
-0.25
 31
0.0
  0
LINE
  5
CA
330
99
100
AcDbEntity
  8
0
  6
CONTINUOUS
 62
     0
100
AcDbLine
 10
0.25
 20
-0.25
 30
0.0
 11
-0.25
 21
-0.25
 31
0.0
  0
LINE
  5
CB
330
99
100
AcDbEntity
  8
0
  6
CONTINUOUS
 62
     0
100
AcDbLine
 10
-0.25
 20
-0.25
 30
0.0
 11
-0.25
 21
0.25
 31
0.0
  0
ENDBLK
  5
9B
330
99
100
AcDbEntity
  8
0
100
AcDbBlockEnd
  0
BLOCK
  5
9D
330
9C
100
AcDbEntity
  8
0
100
AcDbBlockBegin
  2
EX_WBOX
 70
     0
 10
0.0
 20
0.0
 30
0.0
  3
EX_WBOX
  1

  0
LINE
  5
CC
330
9C
100
AcDbEntity
  8
0
  6
CONTINUOUS
 62
     0
100
AcDbLine
 10
-0.5
 20
0.0
 30
0.0
 11
-1.0
 21
0.0
 31
0.0
  0
LINE
  5
CD
330
9C
100
AcDbEntity
  8
0
  6
CONTINUOUS
 62
     0
100
AcDbLine
 10
-0.5
 20
0.5
 30
0.0
 11
0.5
 21
0.5
 31
0.0
  0
LINE
  5
CE
330
9C
100
AcDbEntity
  8
0
  6
CONTINUOUS
 62
     0
100
AcDbLine
 10
0.5
 20
0.5
 30
0.0
 11
0.5
 21
-0.5
 31
0.0
  0
LINE
  5
CF
330
9C
100
AcDbEntity
  8
0
  6
CONTINUOUS
 62
     0
100
AcDbLine
 10
0.5
 20
-0.5
 30
0.0
 11
-0.5
 21
-0.5
 31
0.0
  0
LINE
  5
D0
330
9C
100
AcDbEntity
  8
0
  6
CONTINUOUS
 62
     0
100
AcDbLine
 10
-0.5
 20
-0.5
 30
0.0
 11
-0.5
 21
0.5
 31
0.0
  0
ENDBLK
  5
9E
330
9C
100
AcDbEntity
  8
0
100
AcDbBlockEnd
  0
BLOCK
  5
A0
330
9F
100
AcDbEntity
  8
0
100
AcDbBlockBegin
  2
EX_INTEGRAL
 70
     0
 10
0.0
 20
0.0
 30
0.0
  3
EX_INTEGRAL
  1

  0
LINE
  5
D1
330
9F
100
AcDbEntity
  8
0
  6
CONTINUOUS
 62
     0
100
AcDbLine
 10
0.0
 20
0.0
 30
0.0
 11
-1.0
 21
0.0
 31
0.0
  0
ARC
  5
D2
330
9F
100
AcDbEntity
  8
0
  6
CONTINUOUS
 62
     0
100
AcDbCircle
 10
0.542115
 20
0.164992
 30
0.0
 40
0.56667
100
AcDbArc
 50
73.07249033629006
 51
196.9275130221199
  0
ARC
  5
D3
330
9F
100
AcDbEntity
  8
0
  6
CONTINUOUS
 62
     0
100
AcDbCircle
 10
-0.542115
 20
-0.164992
 30
0.0
 40
0.56667
100
AcDbArc
 50
253.0724869220464
 51
16.9275130559125
  0
ENDBLK
  5
A1
330
9F
100
AcDbEntity
  8
0
100
AcDbBlockEnd
  0
BLOCK
  5
3DE
330
3DD
100
AcDbEntity
  8
0
100
AcDbBlockBegin
  2
*D15
 70
     1
 10
0.0
 20
0.0
 30
0.0
  3
*D15
  1

  0
LINE
  5
3E0
330
3DD
100
AcDbEntity
  8
LAY-20
  6
CONTINUOUS
 62
     4
100
AcDbLine
 10
360.0000000000002
 20
309.4999999999997
 30
0.0
 11
360.0000000000002
 21
466.5
 31
0.0
  0
LINE
  5
3E1
330
3DD
100
AcDbEntity
  8
LAY-20
  6
CONTINUOUS
 62
     4
100
AcDbLine
 10
570.0
 20
309.4999999999997
 30
0.0
 11
570.0
 21
466.5
 31
0.0
  0
LINE
  5
3E2
330
3DD
100
AcDbEntity
  8
LAY-20
  6
CONTINUOUS
 62
     4
100
AcDbLine
 10
367.5000000000002
 20
462.0
 30
0.0
 11
562.5
 21
462.0
 31
0.0
  0
INSERT
  5
3E3
330
3DD
100
AcDbEntity
  8
LAY-20
 62
     4
100
AcDbBlockReference
  2
EX_BNORM
 10
360.0000000000002
 20
462.0
 30
0.0
 41
7.5
 42
7.5
 43
7.5
 50
180.0
  0
INSERT
  5
3E4
330
3DD
100
AcDbEntity
  8
LAY-20
 62
     4
100
AcDbBlockReference
  2
EX_BNORM
 10
570.0
 20
462.0
 30
0.0
 41
7.5
 42
7.5
 43
7.5
  0
MTEXT
  5
3E5
330
3DD
100
AcDbEntity
  8
LAY-20
 62
     7
100
AcDbMText
 10
465.0000000000001
 20
469.5
 30
0.0
 40
9.3543312
 41
0.0
 71
     5
 72
     1
  1
%%c210
  7
EXCADDIM1
  0
POINT
  5
3E6
330
3DD
100
AcDbEntity
  8
DEFPOINTS
 62
     0
100
AcDbPoint
 10
360.0000000000002
 20
304.9999999999997
 30
0.0
  0
POINT
  5
3E7
330
3DD
100
AcDbEntity
  8
DEFPOINTS
 62
     0
100
AcDbPoint
 10
570.0
 20
304.9999999999997
 30
0.0
  0
POINT
  5
3E8
330
3DD
100
AcDbEntity
  8
DEFPOINTS
 62
     0
100
AcDbPoint
 10
570.0
 20
462.0
 30
0.0
  0
ENDBLK
  5
3DF
330
3DD
100
AcDbEntity
  8
0
100
AcDbBlockEnd
  0
BLOCK
  5
3EB
330
3EA
100
AcDbEntity
  8
0
100
AcDbBlockBegin
  2
*D16
 70
     1
 10
0.0
 20
0.0
 30
0.0
  3
*D16
  1

  0
LINE
  5
3ED
330
3EA
100
AcDbEntity
  8
LAY-20
  6
CONTINUOUS
 62
     4
100
AcDbLine
 10
406.0220331182513
 20
373.4999999999998
 30
0.0
 11
406.0220331182513
 21
403.4999999999998
 31
0.0
  0
LINE
  5
3EE
330
3EA
100
AcDbEntity
  8
LAY-20
  6
CONTINUOUS
 62
     4
100
AcDbLine
 10
523.9779668817484
 20
373.4999999999998
 30
0.0
 11
523.9779668817484
 21
403.4999999999998
 31
0.0
  0
LINE
  5
3EF
330
3EA
100
AcDbEntity
  8
LAY-20
  6
CONTINUOUS
 62
     4
100
AcDbLine
 10
413.5220331182513
 20
398.9999999999998
 30
0.0
 11
516.4779668817484
 21
398.9999999999998
 31
0.0
  0
INSERT
  5
3F0
330
3EA
100
AcDbEntity
  8
LAY-20
 62
     4
100
AcDbBlockReference
  2
EX_BNORM
 10
406.0220331182513
 20
398.9999999999998
 30
0.0
 41
7.5
 42
7.5
 43
7.5
 50
180.0
  0
INSERT
  5
3F1
330
3EA
100
AcDbEntity
  8
LAY-20
 62
     4
100
AcDbBlockReference
  2
EX_BNORM
 10
523.9779668817484
 20
398.9999999999998
 30
0.0
 41
7.5
 42
7.5
 43
7.5
  0
MTEXT
  5
3F2
330
3EA
100
AcDbEntity
  8
LAY-20
 62
     7
100
AcDbMText
 10
464.9999999999998
 20
406.4999999999998
 30
0.0
 40
9.3543312
 41
0.0
 71
     5
 72
     1
  1
%%c118
  7
EXCADDIM1
  0
POINT
  5
3F3
330
3EA
100
AcDbEntity
  8
DEFPOINTS
 62
     0
100
AcDbPoint
 10
406.0220331182513
 20
368.9999999999998
 30
0.0
  0
POINT
  5
3F4
330
3EA
100
AcDbEntity
  8
DEFPOINTS
 62
     0
100
AcDbPoint
 10
523.9779668817484
 20
368.9999999999998
 30
0.0
  0
POINT
  5
3F5
330
3EA
100
AcDbEntity
  8
DEFPOINTS
 62
     0
100
AcDbPoint
 10
523.9779668817484
 20
398.9999999999998
 30
0.0
  0
ENDBLK
  5
3EC
330
3EA
100
AcDbEntity
  8
0
100
AcDbBlockEnd
  0
BLOCK
  5
3F8
330
3F7
100
AcDbEntity
  8
0
100
AcDbBlockBegin
  2
*D17
 70
     1
 10
0.0
 20
0.0
 30
0.0
  3
*D17
  1

  0
LINE
  5
3FA
330
3F7
100
AcDbEntity
  8
LAY-20
  6
CONTINUOUS
 62
     4
100
AcDbLine
 10
548.9999999999802
 20
316.4999999999997
 30
0.0
 11
548.9999999999802
 21
445.5
 31
0.0
  0
LINE
  5
3FB
330
3F7
100
AcDbEntity
  8
LAY-20
  6
CONTINUOUS
 62
     4
100
AcDbLine
 10
381.0000000000196
 20
316.4999999999997
 30
0.0
 11
381.0000000000196
 21
445.5
 31
0.0
  0
LINE
  5
3FC
330
3F7
100
AcDbEntity
  8
LAY-20
  6
CONTINUOUS
 62
     4
100
AcDbLine
 10
541.4999999999802
 20
441.0
 30
0.0
 11
388.5000000000196
 21
441.0
 31
0.0
  0
INSERT
  5
3FD
330
3F7
100
AcDbEntity
  8
LAY-20
 62
     4
100
AcDbBlockReference
  2
EX_BNORM
 10
548.9999999999802
 20
441.0
 30
0.0
 41
7.5
 42
7.5
 43
7.5
  0
INSERT
  5
3FE
330
3F7
100
AcDbEntity
  8
LAY-20
 62
     4
100
AcDbBlockReference
  2
EX_BNORM
 10
381.0000000000196
 20
441.0
 30
0.0
 41
7.5
 42
7.5
 43
7.5
 50
180.0
  0
MTEXT
  5
3FF
330
3F7
100
AcDbEntity
  8
LAY-20
 62
     7
100
AcDbMText
 10
465.0
 20
448.4999999999999
 30
0.0
 40
9.3543312
 41
0.0
 71
     5
 72
     1
  1
%%c168
  7
EXCADDIM1
  0
POINT
  5
400
330
3F7
100
AcDbEntity
  8
DEFPOINTS
 62
     0
100
AcDbPoint
 10
548.9999999999802
 20
311.9999999999997
 30
0.0
  0
POINT
  5
401
330
3F7
100
AcDbEntity
  8
DEFPOINTS
 62
     0
100
AcDbPoint
 10
381.0000000000196
 20
311.9999999999997
 30
0.0
  0
POINT
  5
402
330
3F7
100
AcDbEntity
  8
DEFPOINTS
 62
     0
100
AcDbPoint
 10
381.0000000000196
 20
441.0
 30
0.0
  0
ENDBLK
  5
3F9
330
3F7
100
AcDbEntity
  8
0
100
AcDbBlockEnd
  0
BLOCK
  5
405
330
404
100
AcDbEntity
  8
0
100
AcDbBlockBegin
  2
*D18
 70
     1
 10
0.0
 20
0.0
 30
0.0
  3
*D18
  1

  0
LINE
  5
407
330
404
100
AcDbEntity
  8
LAY-20
  6
CONTINUOUS
 62
     4
100
AcDbLine
 10
416.5000000000001
 20
282.4999999999972
 30
0.0
 11
416.5000000000001
 21
176.4999999999999
 31
0.0
  0
LINE
  5
408
330
404
100
AcDbEntity
  8
LAY-20
  6
CONTINUOUS
 62
     4
100
AcDbLine
 10
513.4999999999997
 20
282.4999999999972
 30
0.0
 11
513.4999999999997
 21
176.4999999999999
 31
0.0
  0
LINE
  5
409
330
404
100
AcDbEntity
  8
LAY-20
  6
CONTINUOUS
 62
     4
100
AcDbLine
 10
424.0000000000001
 20
180.9999999999999
 30
0.0
 11
505.9999999999997
 21
180.9999999999999
 31
0.0
  0
INSERT
  5
40A
330
404
100
AcDbEntity
  8
LAY-20
 62
     4
100
AcDbBlockReference
  2
EX_BNORM
 10
416.5000000000001
 20
180.9999999999999
 30
0.0
 41
7.5
 42
7.5
 43
7.5
 50
180.0
  0
INSERT
  5
40B
330
404
100
AcDbEntity
  8
LAY-20
 62
     4
100
AcDbBlockReference
  2
EX_BNORM
 10
513.4999999999997
 20
180.9999999999999
 30
0.0
 41
7.5
 42
7.5
 43
7.5
  0
MTEXT
  5
40C
330
404
100
AcDbEntity
  8
LAY-20
 62
     7
100
AcDbMText
 10
464.9999999999998
 20
188.4999999999999
 30
0.0
 40
9.3543312
 41
0.0
 71
     5
 72
     1
  1
%%c97
  7
EXCADDIM1
  0
POINT
  5
40D
330
404
100
AcDbEntity
  8
DEFPOINTS
 62
     0
100
AcDbPoint
 10
416.5000000000001
 20
286.9999999999972
 30
0.0
  0
POINT
  5
40E
330
404
100
AcDbEntity
  8
DEFPOINTS
 62
     0
100
AcDbPoint
 10
513.4999999999997
 20
286.9999999999972
 30
0.0
  0
POINT
  5
40F
330
404
100
AcDbEntity
  8
DEFPOINTS
 62
     0
100
AcDbPoint
 10
513.4999999999997
 20
180.9999999999999
 30
0.0
  0
ENDBLK
  5
406
330
404
100
AcDbEntity
  8
0
100
AcDbBlockEnd
  0
BLOCK
  5
412
330
411
100
AcDbEntity
  8
0
100
AcDbBlockBegin
  2
*D19
 70
     1
 10
0.0
 20
0.0
 30
0.0
  3
*D19
  1

  0
LINE
  5
414
330
411
100
AcDbEntity
  8
LAY-20
  6
CONTINUOUS
 62
     4
100
AcDbLine
 10
417.9999999999989
 20
242.4999999999997
 30
0.0
 11
417.9999999999989
 21
197.4999999999999
 31
0.0
  0
LINE
  5
415
330
411
100
AcDbEntity
  8
LAY-20
  6
CONTINUOUS
 62
     4
100
AcDbLine
 10
512.0000000000009
 20
242.4999999999997
 30
0.0
 11
512.0000000000009
 21
197.4999999999999
 31
0.0
  0
LINE
  5
416
330
411
100
AcDbEntity
  8
LAY-20
  6
CONTINUOUS
 62
     4
100
AcDbLine
 10
425.4999999999989
 20
201.9999999999999
 30
0.0
 11
504.5000000000009
 21
201.9999999999999
 31
0.0
  0
INSERT
  5
417
330
411
100
AcDbEntity
  8
LAY-20
 62
     4
100
AcDbBlockReference
  2
EX_BNORM
 10
417.9999999999989
 20
201.9999999999999
 30
0.0
 41
7.5
 42
7.5
 43
7.5
 50
180.0
  0
INSERT
  5
418
330
411
100
AcDbEntity
  8
LAY-20
 62
     4
100
AcDbBlockReference
  2
EX_BNORM
 10
512.0000000000009
 20
201.9999999999999
 30
0.0
 41
7.5
 42
7.5
 43
7.5
  0
MTEXT
  5
419
330
411
100
AcDbEntity
  8
LAY-20
 62
     7
100
AcDbMText
 10
464.9999999999999
 20
209.4999999999999
 30
0.0
 40
9.3543312
 41
0.0
 71
     5
 72
     1
  1
%%c94
  7
EXCADDIM1
  0
POINT
  5
41A
330
411
100
AcDbEntity
  8
DEFPOINTS
 62
     0
100
AcDbPoint
 10
417.9999999999989
 20
246.9999999999997
 30
0.0
  0
POINT
  5
41B
330
411
100
AcDbEntity
  8
DEFPOINTS
 62
     0
100
AcDbPoint
 10
512.0000000000009
 20
246.9999999999997
 30
0.0
  0
POINT
  5
41C
330
411
100
AcDbEntity
  8
DEFPOINTS
 62
     0
100
AcDbPoint
 10
512.0000000000009
 20
201.9999999999999
 30
0.0
  0
ENDBLK
  5
413
330
411
100
AcDbEntity
  8
0
100
AcDbBlockEnd
  0
BLOCK
  5
41F
330
41E
100
AcDbEntity
  8
0
100
AcDbBlockBegin
  2
*D20
 70
     1
 10
0.0
 20
0.0
 30
0.0
  3
*D20
  1

  0
LINE
  5
421
330
41E
100
AcDbEntity
  8
LAY-20
  6
CONTINUOUS
 62
     4
100
AcDbLine
 10
390.5000000000001
 20
288.4084194941216
 30
0.0
 11
325.5000000000003
 21
288.4084194941216
 31
0.0
  0
LINE
  5
422
330
41E
100
AcDbEntity
  8
LAY-20
  6
CONTINUOUS
 62
     4
100
AcDbLine
 10
356.5000000000001
 20
311.9999999999997
 30
0.0
 11
325.5000000000003
 21
311.9999999999997
 31
0.0
  0
LINE
  5
423
330
41E
100
AcDbEntity
  8
LAY-20
  6
CONTINUOUS
 62
     4
100
AcDbLine
 10
330.0000000000003
 20
295.9084194941216
 30
0.0
 11
330.0000000000003
 21
304.4999999999997
 31
0.0
  0
INSERT
  5
424
330
41E
100
AcDbEntity
  8
LAY-20
 62
     4
100
AcDbBlockReference
  2
EX_BNORM
 10
330.0000000000003
 20
288.4084194941216
 30
0.0
 41
7.5
 42
7.5
 43
7.5
 50
270.0
  0
INSERT
  5
425
330
41E
100
AcDbEntity
  8
LAY-20
 62
     4
100
AcDbBlockReference
  2
EX_BNORM
 10
330.0000000000003
 20
311.9999999999997
 30
0.0
 41
7.5
 42
7.5
 43
7.5
 50
90.0
  0
MTEXT
  5
426
330
41E
100
AcDbEntity
  8
LAY-20
 62
     7
100
AcDbMText
 10
322.5000000000003
 20
300.2042097470606
 30
0.0
 40
9.3543312
 41
0.0
 71
     5
 72
     1
  1
24
  7
EXCADDIM1
 11
0.0
 21
1.0
 31
0.0
  0
POINT
  5
427
330
41E
100
AcDbEntity
  8
DEFPOINTS
 62
     0
100
AcDbPoint
 10
395.0000000000001
 20
288.4084194941216
 30
0.0
  0
POINT
  5
428
330
41E
100
AcDbEntity
  8
DEFPOINTS
 62
     0
100
AcDbPoint
 10
361.0000000000001
 20
311.9999999999997
 30
0.0
  0
POINT
  5
429
330
41E
100
AcDbEntity
  8
DEFPOINTS
 62
     0
100
AcDbPoint
 10
330.0000000000003
 20
311.9999999999997
 30
0.0
  0
ENDBLK
  5
420
330
41E
100
AcDbEntity
  8
0
100
AcDbBlockEnd
  0
BLOCK
  5
42C
330
42B
100
AcDbEntity
  8
0
100
AcDbBlockBegin
  2
*D21
 70
     1
 10
0.0
 20
0.0
 30
0.0
  3
*D21
  1

  0
LINE
  5
42E
330
42B
100
AcDbEntity
  8
LAY-20
  6
CONTINUOUS
 62
     4
100
AcDbLine
 10
539.5
 20
232.0
 30
0.0
 11
607.99999999999
 21
232.0
 31
0.0
  0
LINE
  5
42F
330
42B
100
AcDbEntity
  8
LAY-20
  6
CONTINUOUS
 62
     4
100
AcDbLine
 10
573.5
 20
312.0
 30
0.0
 11
607.99999999999
 21
312.0
 31
0.0
  0
LINE
  5
430
330
42B
100
AcDbEntity
  8
LAY-20
  6
CONTINUOUS
 62
     4
100
AcDbLine
 10
603.49999999999
 20
239.5
 30
0.0
 11
603.49999999999
 21
304.5
 31
0.0
  0
INSERT
  5
431
330
42B
100
AcDbEntity
  8
LAY-20
 62
     4
100
AcDbBlockReference
  2
EX_BNORM
 10
603.49999999999
 20
232.0
 30
0.0
 41
7.5
 42
7.5
 43
7.5
 50
270.0
  0
INSERT
  5
432
330
42B
100
AcDbEntity
  8
LAY-20
 62
     4
100
AcDbBlockReference
  2
EX_BNORM
 10
603.49999999999
 20
312.0
 30
0.0
 41
7.5
 42
7.5
 43
7.5
 50
90.0
  0
MTEXT
  5
433
330
42B
100
AcDbEntity
  8
LAY-20
 62
     7
100
AcDbMText
 10
595.99999999999
 20
272.0
 30
0.0
 40
9.3543312
 41
0.0
 71
     5
 72
     1
  1
80
  7
EXCADDIM1
 11
0.0
 21
1.0
 31
0.0
  0
POINT
  5
434
330
42B
100
AcDbEntity
  8
DEFPOINTS
 62
     0
100
AcDbPoint
 10
535.0
 20
232.0
 30
0.0
  0
POINT
  5
435
330
42B
100
AcDbEntity
  8
DEFPOINTS
 62
     0
100
AcDbPoint
 10
569.0
 20
312.0
 30
0.0
  0
POINT
  5
436
330
42B
100
AcDbEntity
  8
DEFPOINTS
 62
     0
100
AcDbPoint
 10
603.49999999999
 20
312.0
 30
0.0
  0
ENDBLK
  5
42D
330
42B
100
AcDbEntity
  8
0
100
AcDbBlockEnd
  0
BLOCK
  5
439
330
438
100
AcDbEntity
  8
0
100
AcDbBlockBegin
  2
*D22
 70
     1
 10
0.0
 20
0.0
 30
0.0
  3
*D22
  1

  0
LINE
  5
43B
330
438
100
AcDbEntity
  8
LAY-20
  6
CONTINUOUS
 62
     4
100
AcDbLine
 10
532.5
 20
369.0
 30
0.0
 11
607.99999999999
 21
369.0
 31
0.0
  0
LINE
  5
43C
330
438
100
AcDbEntity
  8
LAY-20
  6
CONTINUOUS
 62
     4
100
AcDbLine
 10
603.49999999999
 20
361.5
 30
0.0
 11
603.49999999999
 21
319.5
 31
0.0
  0
INSERT
  5
43D
330
438
100
AcDbEntity
  8
LAY-20
 62
     4
100
AcDbBlockReference
  2
EX_BNORM
 10
603.49999999999
 20
369.0
 30
0.0
 41
7.5
 42
7.5
 43
7.5
 50
90.0
  0
INSERT
  5
43E
330
438
100
AcDbEntity
  8
LAY-20
 62
     4
100
AcDbBlockReference
  2
EX_BNORM
 10
603.49999999999
 20
312.0
 30
0.0
 41
7.5
 42
7.5
 43
7.5
 50
270.0
  0
MTEXT
  5
43F
330
438
100
AcDbEntity
  8
LAY-20
 62
     7
100
AcDbMText
 10
595.99999999999
 20
340.5
 30
0.0
 40
9.3543312
 41
0.0
 71
     5
 72
     1
  1
57
  7
EXCADDIM1
 11
0.0
 21
1.0
 31
0.0
  0
POINT
  5
440
330
438
100
AcDbEntity
  8
DEFPOINTS
 62
     0
100
AcDbPoint
 10
528.0
 20
369.0
 30
0.0
  0
POINT
  5
441
330
438
100
AcDbEntity
  8
DEFPOINTS
 62
     0
100
AcDbPoint
 10
603.49999999999
 20
312.0
 30
0.0
  0
POINT
  5
442
330
438
100
AcDbEntity
  8
DEFPOINTS
 62
     0
100
AcDbPoint
 10
603.49999999999
 20
312.0
 30
0.0
  0
ENDBLK
  5
43A
330
438
100
AcDbEntity
  8
0
100
AcDbBlockEnd
  0
BLOCK
  5
445
330
444
100
AcDbEntity
  8
0
100
AcDbBlockBegin
  2
*D23
 70
     1
 10
0.0
 20
0.0
 30
0.0
  3
*D23
  1

  0
LINE
  5
447
330
444
100
AcDbEntity
  8
LAY-20
  6
CONTINUOUS
 62
     4
100
AcDbLine
 10
546.0
 20
313.5
 30
0.0
 11
546.0
 21
424.5
 31
0.0
  0
LINE
  5
448
330
444
100
AcDbEntity
  8
LAY-20
  6
CONTINUOUS
 62
     4
100
AcDbLine
 10
384.0
 20
313.5
 30
0.0
 11
384.0
 21
424.5
 31
0.0
  0
LINE
  5
449
330
444
100
AcDbEntity
  8
LAY-20
  6
CONTINUOUS
 62
     4
100
AcDbLine
 10
538.5
 20
420.0
 30
0.0
 11
391.5
 21
420.0
 31
0.0
  0
INSERT
  5
44A
330
444
100
AcDbEntity
  8
LAY-20
 62
     4
100
AcDbBlockReference
  2
EX_BNORM
 10
546.0
 20
420.0
 30
0.0
 41
7.5
 42
7.5
 43
7.5
  0
INSERT
  5
44B
330
444
100
AcDbEntity
  8
LAY-20
 62
     4
100
AcDbBlockReference
  2
EX_BNORM
 10
384.0
 20
420.0
 30
0.0
 41
7.5
 42
7.5
 43
7.5
 50
180.0
  0
MTEXT
  5
44C
330
444
100
AcDbEntity
  8
LAY-20
 62
     7
100
AcDbMText
 10
465.0
 20
427.5
 30
0.0
 40
9.3543312
 41
0.0
 71
     5
 72
     1
  1
%%c162
  7
EXCADDIM1
  0
POINT
  5
44D
330
444
100
AcDbEntity
  8
DEFPOINTS
 62
     0
100
AcDbPoint
 10
546.0
 20
309.0
 30
0.0
  0
POINT
  5
44E
330
444
100
AcDbEntity
  8
DEFPOINTS
 62
     0
100
AcDbPoint
 10
384.0
 20
309.0
 30
0.0
  0
POINT
  5
44F
330
444
100
AcDbEntity
  8
DEFPOINTS
 62
     0
100
AcDbPoint
 10
384.0
 20
420.0
 30
0.0
  0
ENDBLK
  5
446
330
444
100
AcDbEntity
  8
0
100
AcDbBlockEnd
  0
ENDSEC
  0
SECTION
  2
ENTITIES
  0
LINE
  5
D4
330
1F
100
AcDbEntity
  8
LAY-10
  6
CONTINUOUS
 62
     7
100
AcDbLine
 10
360.0000000000002
 20
304.9999999999997
 30
0.0
 11
361.0000000000001
 21
311.9999999999997
 31
0.0
  0
ARC
  5
D5
330
1F
100
AcDbEntity
  8
LAY-10
  6
CONTINUOUS
 62
     7
100
AcDbCircle
 10
366.167137903217
 20
305.7435584513346
 30
0.0
 40
2.0
100
AcDbArc
 50
74.99999999999878
 51
171.8698976458468
  0
LINE
  5
D6
330
1F
100
AcDbEntity
  8
LAY-10
  6
CONTINUOUS
 62
     7
100
AcDbLine
 10
364.0406101782074
 20
304.9999999999997
 30
0.0
 11
364.1872389158946
 21
306.0264011638092
 31
0.0
  0
LINE
  5
D7
330
1F
100
AcDbEntity
  8
LAY-10
  6
CONTINUOUS
 62
     7
100
AcDbLine
 10
385.5000000000015
 20
297.5000000000271
 30
0.0
 11
385.5000000000015
 21
296.5000000000277
 31
0.0
  0
LINE
  5
D8
330
1F
100
AcDbEntity
  8
LAY-10
  6
CONTINUOUS
 62
     7
100
AcDbLine
 10
390.5000000000011
 20
297.5000000000271
 30
0.0
 11
390.5000000000011
 21
296.5000000000289
 31
0.0
  0
LINE
  5
D9
330
1F
100
AcDbEntity
  8
LAY-10
  6
CONTINUOUS
 62
     7
100
AcDbLine
 10
385.5000000000015
 20
296.5000000000277
 30
0.0
 11
390.5000000000011
 21
296.5000000000277
 31
0.0
  0
LINE
  5
DA
330
1F
100
AcDbEntity
  8
LAY-10
  6
CONTINUOUS
 62
     7
100
AcDbLine
 10
388.0000000000002
 20
295.0566243270542
 30
0.0
 11
385.5000000000011
 21
296.5000000000277
 31
0.0
  0
LINE
  5
DB
330
1F
100
AcDbEntity
  8
LAY-10
  6
CONTINUOUS
 62
     7
100
AcDbLine
 10
388.0000000000005
 20
295.0566243270544
 30
0.0
 11
390.4999999999993
 21
296.5000000000277
 31
0.0
  0
LINE
  5
DC
330
1F
100
AcDbEntity
  8
LAY-10
  6
CONTINUOUS
 62
     7
100
AcDbLine
 10
385.5000000000015
 20
297.5000000000271
 30
0.0
 11
385.5000000000015
 21
300.0000000000017
 31
0.0
  0
LINE
  5
DD
330
1F
100
AcDbEntity
  8
LAY-10
  6
CONTINUOUS
 62
     7
100
AcDbLine
 10
390.5000000000011
 20
297.5000000000271
 30
0.0
 11
390.5000000000011
 21
300.0000000000017
 31
0.0
  0
LINE
  5
DE
330
1F
100
AcDbEntity
  8
LAY-10
  6
CONTINUOUS
 62
     7
100
AcDbLine
 10
385.0000000000002
 20
298.0000000000277
 30
0.0
 11
390.9999999999999
 21
298.0000000000277
 31
0.0
  0
LINE
  5
DF
330
1F
100
AcDbEntity
  8
LAY-10
  6
CONTINUOUS
 62
     7
100
AcDbLine
 10
385.5000000000015
 20
297.5000000000271
 30
0.0
 11
390.5000000000011
 21
297.5000000000271
 31
0.0
  0
LINE
  5
E0
330
1F
100
AcDbEntity
  8
LAY-10
  6
CONTINUOUS
 62
     7
100
AcDbLine
 10
381.4192622342836
 20
303.9999999999995
 30
0.0
 11
385.5000000000002
 21
303.9999999999995
 31
0.0
  0
LINE
  5
E1
330
1F
100
AcDbEntity
  8
LAY-10
  6
CONTINUOUS
 62
     7
100
AcDbLine
 10
381.4192622342836
 20
303.9999999999995
 30
0.0
 11
381.0496649680592
 21
311.0523359562426
 31
0.0
  0
LINE
  5
E2
330
1F
100
AcDbEntity
  8
LAY-10
  6
CONTINUOUS
 62
     7
100
AcDbLine
 10
366.6847759934221
 20
307.6754101039127
 30
0.0
 11
375.2658598669855
 21
305.3761156098075
 31
0.0
  0
ARC
  5
E3
330
1F
100
AcDbEntity
  8
LAY-10
  6
CONTINUOUS
 62
     7
100
AcDbCircle
 10
374.4894027316779
 20
302.4783381309403
 30
0.0
 40
3.0
100
AcDbArc
 50
2.99999999999909
 51
74.99999999999866
  0
LINE
  5
E4
330
1F
100
AcDbEntity
  8
LAY-10
  6
CONTINUOUS
 62
     7
100
AcDbLine
 10
570.0
 20
304.9999999999997
 30
0.0
 11
569.0000000000001
 21
311.9999999999997
 31
0.0
  0
LINE
  5
E5
330
1F
100
AcDbEntity
  8
LAY-10
  6
CONTINUOUS
 62
     7
100
AcDbLine
 10
548.5807377657165
 20
303.9999999999997
 30
0.0
 11
548.9503350319405
 21
311.0523359562426
 31
0.0
  0
LINE
  5
E6
330
1F
100
AcDbEntity
  8
LAY-10
  6
CONTINUOUS
 62
     7
100
AcDbLine
 10
565.3829042496815
 20
293.9999999999997
 30
0.0
 11
565.959389821795
 21
304.9999999999997
 31
0.0
  0
LINE
  5
E7
330
1F
100
AcDbEntity
  8
LAY-10
  6
CONTINUOUS
 62
     7
100
AcDbLine
 10
570.0
 20
304.9999999999997
 30
0.0
 11
565.959389821795
 21
304.9999999999997
 31
0.0
  0
ARC
  5
E8
330
1F
100
AcDbEntity
  8
LAY-10
  6
CONTINUOUS
 62
     7
100
AcDbCircle
 10
374.761815959011
 20
311.7228308503591
 30
0.0
 40
2.0
100
AcDbArc
 50
254.9999999999993
 51
339.5341701770212
  0
LINE
  5
E9
330
1F
100
AcDbEntity
  8
LAY-10
  6
CONTINUOUS
 62
     7
100
AcDbLine
 10
360.0000000000002
 20
304.9999999999997
 30
0.0
 11
376.1145862345883
 21
304.9999999999997
 31
0.0
  0
LINE
  5
EA
330
1F
100
AcDbEntity
  8
LAY-10
  6
CONTINUOUS
 62
     7
100
AcDbLine
 10
555.7558221311943
 20
309.790979197781
 30
0.0
 11
564.000000000051
 21
311.9999999999997
 31
0.0
  0
ARC
  5
EB
330
1F
100
AcDbEntity
  8
LAY-10
  6
CONTINUOUS
 62
     7
100
AcDbCircle
 10
555.2381840409895
 20
311.7228308503591
 30
0.0
 40
2.0
100
AcDbArc
 50
200.4658298229793
 51
284.9999999999944
  0
LINE
  5
EC
330
1F
100
AcDbEntity
  8
LAY-10
  6
CONTINUOUS
 62
     7
100
AcDbLine
 10
382.2231707939642
 20
606.6077535752955
 30
0.0
 11
384.2699709359139
 21
606.6077535752955
 31
0.0
  0
LINE
  5
ED
330
1F
100
AcDbEntity
  8
LAY-10
  6
CONTINUOUS
 62
     7
100
AcDbLine
 10
382.2231707939636
 20
593.3922464247114
 30
0.0
 11
384.2699709359134
 21
593.3922464247114
 31
0.0
  0
LINE
  5
EE
330
1F
100
AcDbEntity
  8
LAY-10
  6
CONTINUOUS
 62
     7
100
AcDbLine
 10
381.634901034897
 20
606.0000000000001
 30
0.0
 11
382.2231707939642
 21
606.6077535752955
 31
0.0
  0
LINE
  5
EF
330
1F
100
AcDbEntity
  8
LAY-10
  6
CONTINUOUS
 62
     7
100
AcDbLine
 10
381.634901034897
 20
594.0000000000001
 30
0.0
 11
382.2231707939637
 21
593.3922464247114
 31
0.0
  0
LINE
  5
F0
330
1F
100
AcDbEntity
  8
LAY-10
  6
CONTINUOUS
 62
     7
100
AcDbLine
 10
378.414428312286
 20
615.7142857142883
 30
0.0
 11
377.6146006438721
 21
616.8757808519116
 31
0.0
  0
LINE
  5
F1
330
1F
100
AcDbEntity
  8
LAY-10
  6
CONTINUOUS
 62
     7
100
AcDbLine
 10
378.414428312286
 20
584.2857142857122
 30
0.0
 11
377.6146006438721
 21
583.1242191480891
 31
0.0
  0
LINE
  5
F2
330
1F
100
AcDbEntity
  8
LAY-10
  6
CONTINUOUS
 62
     7
100
AcDbLine
 10
374.2441778688059
 20
309.790979197781
 30
0.0
 11
365.9999999999494
 21
311.9999999999997
 31
0.0
  0
LINE
  5
F3
330
1F
100
AcDbEntity
  8
LAY-10
  6
CONTINUOUS
 62
     7
100
AcDbLine
 10
382.7447849483958
 20
615.9447113866777
 30
0.0
 11
377.6146006438721
 21
616.8757808519116
 31
0.0
  0
LINE
  5
F4
330
1F
100
AcDbEntity
  8
LAY-10
  6
CONTINUOUS
 62
     7
100
AcDbLine
 10
377.6146006438721
 20
583.1242191480889
 30
0.0
 11
382.7447849483958
 21
584.0552886133225
 31
0.0
  0
ARC
  5
F5
330
1F
100
AcDbEntity
  8
LAY-10
  6
CONTINUOUS
 62
     7
100
AcDbCircle
 10
464.9999999999999
 20
600.0
 30
0.0
 40
88.99999999995339
100
AcDbArc
 50
139.0696530385377
 51
160.9303469614621
  0
ARC
  5
F6
330
1F
100
AcDbEntity
  8
LAY-10
  6
CONTINUOUS
 62
     7
100
AcDbCircle
 10
464.9999999999999
 20
600.0
 30
0.0
 40
87.99999999999181
100
AcDbArc
 50
140.3720260692194
 51
159.6279739307805
  0
ARC
  5
F7
330
1F
100
AcDbEntity
  8
LAY-10
  6
CONTINUOUS
 62
     7
100
AcDbCircle
 10
464.9999999999999
 20
600.0
 30
0.0
 40
83.99999999998056
100
AcDbArc
 50
140.3875229331973
 51
159.6124770668023
  0
LINE
  5
F8
330
1F
100
AcDbEntity
  8
LAY-10
  6
CONTINUOUS
 62
     7
100
AcDbLine
 10
384.9872645964453
 20
628.6698826861474
 30
0.0
 11
383.1043543838108
 21
629.3445604687843
 31
0.0
  0
LINE
  5
F9
330
1F
100
AcDbEntity
  8
LAY-10
  6
CONTINUOUS
 62
     7
100
AcDbLine
 10
400.9231182573763
 20
654.3153129986242
 30
0.0
 11
401.7372498648974
 21
654.9361326426758
 31
0.0
  0
LINE
  5
FA
330
1F
100
AcDbEntity
  8
LAY-10
  6
CONTINUOUS
 62
     7
100
AcDbLine
 10
401.7372498648974
 20
654.9361326426758
 30
0.0
 11
397.7599146637006
 21
658.3075546045181
 31
0.0
  0
ARC
  5
FB
330
1F
100
AcDbEntity
  8
LAY-10
  6
CONTINUOUS
 62
     7
100
AcDbCircle
 10
464.9999999999999
 20
600.0000000000001
 30
0.0
 40
83.78636061072302
100
AcDbArc
 50
160.9704086680268
 51
169.0295913319729
  0
ARC
  5
FC
330
1F
100
AcDbEntity
  8
LAY-10
  6
CONTINUOUS
 62
     7
100
AcDbCircle
 10
464.9999999999999
 20
599.9999999999997
 30
0.0
 40
88.99999999995339
100
AcDbArc
 50
109.0696530385377
 51
130.9303469614619
  0
LINE
  5
FD
330
1F
100
AcDbEntity
  8
LAY-10
  6
CONTINUOUS
 62
     7
100
AcDbLine
 10
435.3161847870433
 20
682.8424475399029
 30
0.0
 11
435.9221552483903
 21
684.1158661882106
 31
0.0
  0
LINE
  5
FE
330
1F
100
AcDbEntity
  8
LAY-10
  6
CONTINUOUS
 62
     7
100
AcDbLine
 10
408.0982435252427
 20
667.1281618256149
 30
0.0
 11
406.6924453954819
 21
667.2400853362993
 31
0.0
  0
ARC
  5
FF
330
1F
100
AcDbEntity
  8
LAY-10
  6
CONTINUOUS
 62
     7
100
AcDbCircle
 10
464.9999999999999
 20
599.9999999999997
 30
0.0
 40
87.99999999999181
100
AcDbArc
 50
110.3720260692192
 51
129.6279739307803
  0
ARC
  5
100
330
1F
100
AcDbEntity
  8
LAY-10
  6
CONTINUOUS
 62
     7
100
AcDbCircle
 10
464.9999999999999
 20
599.9999999999997
 30
0.0
 40
83.99999999998056
100
AcDbArc
 50
110.3875229331975
 51
129.6124770668021
  0
LINE
  5
101
330
1F
100
AcDbEntity
  8
LAY-10
  6
CONTINUOUS
 62
     7
100
AcDbLine
 10
410.0418798573129
 20
664.8352144315004
 30
0.0
 11
408.7485706714447
 21
666.36095763695
 31
0.0
  0
LINE
  5
102
330
1F
100
AcDbEntity
  8
LAY-10
  6
CONTINUOUS
 62
     7
100
AcDbLine
 10
436.3301173138528
 20
680.0127354035545
 30
0.0
 11
435.6554395312159
 21
681.8956456161889
 31
0.0
  0
LINE
  5
103
330
1F
100
AcDbEntity
  8
LAY-10
  6
CONTINUOUS
 62
     7
100
AcDbLine
 10
436.6654491149087
 20
679.0768817426235
 30
0.0
 11
437.6809175910717
 21
679.2074615217799
 31
0.0
  0
LINE
  5
104
330
1F
100
AcDbEntity
  8
LAY-10
  6
CONTINUOUS
 62
     7
100
AcDbLine
 10
437.6809175910717
 20
679.2074615217799
 30
0.0
 11
435.9221552483903
 21
684.1158661882106
 31
0.0
  0
LINE
  5
105
330
1F
100
AcDbEntity
  8
LAY-10
  6
CONTINUOUS
 62
     7
100
AcDbLine
 10
410.0638673573242
 20
663.2627501351024
 30
0.0
 11
410.6846870013758
 21
664.0768817426235
 31
0.0
  0
LINE
  5
106
330
1F
100
AcDbEntity
  8
LAY-10
  6
CONTINUOUS
 62
     7
100
AcDbLine
 10
406.6924453954819
 20
667.2400853362993
 30
0.0
 11
410.0638673573242
 21
663.2627501351024
 31
0.0
  0
ARC
  5
107
330
1F
100
AcDbEntity
  8
LAY-10
  6
CONTINUOUS
 62
     7
100
AcDbCircle
 10
464.9999999999999
 20
600.0
 30
0.0
 40
88.99999999995339
100
AcDbArc
 50
79.06965303853742
 51
100.9303469614619
  0
LINE
  5
108
330
1F
100
AcDbEntity
  8
LAY-10
  6
CONTINUOUS
 62
     7
100
AcDbLine
 10
480.7142857142881
 20
686.585571687714
 30
0.0
 11
481.8757808519113
 21
687.3853993561279
 31
0.0
  0
LINE
  5
109
330
1F
100
AcDbEntity
  8
LAY-10
  6
CONTINUOUS
 62
     7
100
AcDbLine
 10
449.2857142857117
 20
686.585571687714
 30
0.0
 11
448.1242191480887
 21
687.3853993561279
 31
0.0
  0
ARC
  5
10A
330
1F
100
AcDbEntity
  8
LAY-10
  6
CONTINUOUS
 62
     7
100
AcDbCircle
 10
464.9999999999999
 20
600.0
 30
0.0
 40
87.99999999999181
100
AcDbArc
 50
80.37202606921943
 51
99.6279739307804
  0
ARC
  5
10B
330
1F
100
AcDbEntity
  8
LAY-10
  6
CONTINUOUS
 62
     7
100
AcDbCircle
 10
464.9999999999999
 20
600.0
 30
0.0
 40
83.99999999998056
100
AcDbArc
 50
80.38752293319756
 51
99.6124770668025
  0
LINE
  5
10C
330
1F
100
AcDbEntity
  8
LAY-10
  6
CONTINUOUS
 62
     7
100
AcDbLine
 10
449.8224790279457
 20
683.6280028288346
 30
0.0
 11
449.4653120207609
 21
685.5959897973396
 31
0.0
  0
LINE
  5
10D
330
1F
100
AcDbEntity
  8
LAY-10
  6
CONTINUOUS
 62
     7
100
AcDbLine
 10
480.1775209720541
 20
683.6280028288344
 30
0.0
 11
480.5346879792391
 21
685.5959897973396
 31
0.0
  0
LINE
  5
10E
330
1F
100
AcDbEntity
  8
LAY-10
  6
CONTINUOUS
 62
     7
100
AcDbLine
 10
479.9999999999999
 20
682.6498638837156
 30
0.0
 11
480.9447113866777
 21
682.2552150516043
 31
0.0
  0
LINE
  5
10F
330
1F
100
AcDbEntity
  8
LAY-10
  6
CONTINUOUS
 62
     7
100
AcDbLine
 10
480.9447113866777
 20
682.2552150516043
 30
0.0
 11
481.8757808519113
 21
687.3853993561279
 31
0.0
  0
LINE
  5
110
330
1F
100
AcDbEntity
  8
LAY-10
  6
CONTINUOUS
 62
     7
100
AcDbLine
 10
449.0552886133221
 20
682.2552150516042
 30
0.0
 11
449.9999999999998
 21
682.6498638837156
 31
0.0
  0
LINE
  5
111
330
1F
100
AcDbEntity
  8
LAY-10
  6
CONTINUOUS
 62
     7
100
AcDbLine
 10
448.1242191480886
 20
687.3853993561279
 30
0.0
 11
449.0552886133221
 21
682.2552150516042
 31
0.0
  0
ARC
  5
112
330
1F
100
AcDbEntity
  8
LAY-10
  6
CONTINUOUS
 62
     7
100
AcDbCircle
 10
465.0000000000003
 20
600.0
 30
0.0
 40
88.99999999995339
100
AcDbArc
 50
199.0696530385372
 51
220.9303469614617
  0
LINE
  5
113
330
1F
100
AcDbEntity
  8
LAY-10
  6
CONTINUOUS
 62
     7
100
AcDbLine
 10
382.1575524600973
 20
570.3161847870434
 30
0.0
 11
380.8841338117894
 21
570.9221552483905
 31
0.0
  0
LINE
  5
114
330
1F
100
AcDbEntity
  8
LAY-10
  6
CONTINUOUS
 62
     7
100
AcDbLine
 10
397.871838174385
 20
543.0982435252428
 30
0.0
 11
397.7599146637006
 21
541.6924453954821
 31
0.0
  0
ARC
  5
115
330
1F
100
AcDbEntity
  8
LAY-10
  6
CONTINUOUS
 62
     7
100
AcDbCircle
 10
465.0000000000003
 20
600.0
 30
0.0
 40
87.99999999999181
100
AcDbArc
 50
200.3720260692194
 51
219.6279739307803
  0
ARC
  5
116
330
1F
100
AcDbEntity
  8
LAY-10
  6
CONTINUOUS
 62
     7
100
AcDbCircle
 10
465.0000000000003
 20
600.0
 30
0.0
 40
83.99999999998056
100
AcDbArc
 50
200.3875229331975
 51
219.6124770668022
  0
LINE
  5
117
330
1F
100
AcDbEntity
  8
LAY-10
  6
CONTINUOUS
 62
     7
100
AcDbLine
 10
400.1647855684998
 20
545.0418798573128
 30
0.0
 11
398.6390423630501
 21
543.7485706714447
 31
0.0
  0
LINE
  5
118
330
1F
100
AcDbEntity
  8
LAY-10
  6
CONTINUOUS
 62
     7
100
AcDbLine
 10
384.9872645964456
 20
571.330117313853
 30
0.0
 11
383.1043543838111
 21
570.6554395312161
 31
0.0
  0
LINE
  5
119
330
1F
100
AcDbEntity
  8
LAY-10
  6
CONTINUOUS
 62
     7
100
AcDbLine
 10
385.9231182573765
 20
571.6654491149088
 30
0.0
 11
385.79253847822
 21
572.6809175910719
 31
0.0
  0
LINE
  5
11A
330
1F
100
AcDbEntity
  8
LAY-10
  6
CONTINUOUS
 62
     7
100
AcDbLine
 10
385.79253847822
 20
572.6809175910719
 30
0.0
 11
380.8841338117894
 21
570.9221552483905
 31
0.0
  0
LINE
  5
11B
330
1F
100
AcDbEntity
  8
LAY-10
  6
CONTINUOUS
 62
     7
100
AcDbLine
 10
401.7372498648977
 20
545.0638673573243
 30
0.0
 11
400.9231182573765
 21
545.6846870013757
 31
0.0
  0
LINE
  5
11C
330
1F
100
AcDbEntity
  8
LAY-10
  6
CONTINUOUS
 62
     7
100
AcDbLine
 10
397.7599146637006
 20
541.692445395482
 30
0.0
 11
401.7372498648977
 21
545.0638673573243
 31
0.0
  0
ARC
  5
11D
330
1F
100
AcDbEntity
  8
LAY-10
  6
CONTINUOUS
 62
     7
100
AcDbCircle
 10
465.0000000000003
 20
600.0000000000001
 30
0.0
 40
88.99999999995339
100
AcDbArc
 50
229.0696530385375
 51
250.9303469614621
  0
LINE
  5
11E
330
1F
100
AcDbEntity
  8
LAY-10
  6
CONTINUOUS
 62
     7
100
AcDbLine
 10
408.0982435252429
 20
532.8718381743852
 30
0.0
 11
406.6924453954819
 21
532.7599146637008
 31
0.0
  0
LINE
  5
11F
330
1F
100
AcDbEntity
  8
LAY-10
  6
CONTINUOUS
 62
     7
100
AcDbLine
 10
435.3161847870436
 20
517.1575524600971
 30
0.0
 11
435.9221552483903
 21
515.8841338117895
 31
0.0
  0
ARC
  5
120
330
1F
100
AcDbEntity
  8
LAY-10
  6
CONTINUOUS
 62
     7
100
AcDbCircle
 10
465.0000000000003
 20
600.0000000000001
 30
0.0
 40
87.99999999999181
100
AcDbArc
 50
230.3720260692193
 51
249.6279739307803
  0
ARC
  5
121
330
1F
100
AcDbEntity
  8
LAY-10
  6
CONTINUOUS
 62
     7
100
AcDbCircle
 10
465.0000000000003
 20
600.0000000000001
 30
0.0
 40
83.99999999998056
100
AcDbArc
 50
230.3875229331974
 51
249.6124770668024
  0
LINE
  5
122
330
1F
100
AcDbEntity
  8
LAY-10
  6
CONTINUOUS
 62
     7
100
AcDbLine
 10
436.3301173138531
 20
519.9872645964455
 30
0.0
 11
435.6554395312161
 21
518.1043543838111
 31
0.0
  0
LINE
  5
123
330
1F
100
AcDbEntity
  8
LAY-10
  6
CONTINUOUS
 62
     7
100
AcDbLine
 10
410.0418798573129
 20
535.1647855684997
 30
0.0
 11
408.7485706714448
 21
533.6390423630501
 31
0.0
  0
LINE
  5
124
330
1F
100
AcDbEntity
  8
LAY-10
  6
CONTINUOUS
 62
     7
100
AcDbLine
 10
410.6846870013758
 20
535.9231182573765
 30
0.0
 11
410.0638673573242
 21
536.7372498648975
 31
0.0
  0
LINE
  5
125
330
1F
100
AcDbEntity
  8
LAY-10
  6
CONTINUOUS
 62
     7
100
AcDbLine
 10
410.0638673573242
 20
536.7372498648975
 30
0.0
 11
406.6924453954819
 21
532.7599146637008
 31
0.0
  0
LINE
  5
126
330
1F
100
AcDbEntity
  8
LAY-10
  6
CONTINUOUS
 62
     7
100
AcDbLine
 10
437.6809175910719
 20
520.79253847822
 30
0.0
 11
436.6654491149091
 21
520.9231182573765
 31
0.0
  0
LINE
  5
127
330
1F
100
AcDbEntity
  8
LAY-10
  6
CONTINUOUS
 62
     7
100
AcDbLine
 10
435.9221552483903
 20
515.8841338117894
 30
0.0
 11
437.6809175910719
 21
520.79253847822
 31
0.0
  0
ARC
  5
128
330
1F
100
AcDbEntity
  8
LAY-10
  6
CONTINUOUS
 62
     7
100
AcDbCircle
 10
464.9999999999999
 20
600.0000000000001
 30
0.0
 40
83.78636061072302
100
AcDbArc
 50
100.970408668027
 51
109.0295913319738
  0
ARC
  5
129
330
1F
100
AcDbEntity
  8
LAY-10
  6
CONTINUOUS
 62
     7
100
AcDbCircle
 10
464.9999999999999
 20
600.0000000000001
 30
0.0
 40
83.78636061072302
100
AcDbArc
 50
130.9704086680265
 51
139.0295913319731
  0
ARC
  5
12A
330
1F
100
AcDbEntity
  8
LAY-10
  6
CONTINUOUS
 62
     7
100
AcDbCircle
 10
464.9999999999999
 20
600.0000000000001
 30
0.0
 40
83.78636061072302
100
AcDbArc
 50
190.9704086680275
 51
199.0295913319726
  0
ARC
  5
12B
330
1F
100
AcDbEntity
  8
LAY-10
  6
CONTINUOUS
 62
     7
100
AcDbCircle
 10
464.9999999999999
 20
600.0000000000001
 30
0.0
 40
83.78636061072302
100
AcDbArc
 50
220.970408668027
 51
229.0295913319733
  0
ARC
  5
12C
330
1F
100
AcDbEntity
  8
LAY-10
  6
CONTINUOUS
 62
     7
100
AcDbCircle
 10
464.9999999999999
 20
600.0000000000001
 30
0.0
 40
83.78636061072302
100
AcDbArc
 50
250.9704086680269
 51
255.0000000000008
  0
ARC
  5
12D
330
1F
100
AcDbEntity
  8
LAY-10
  6
CONTINUOUS
 62
     7
100
AcDbCircle
 10
464.9999999999999
 20
600.0000000000001
 30
0.0
 40
83.04014607837019
100
AcDbArc
 50
184.5640222140546
 51
255.0000000000008
  0
LINE
  5
12E
330
1F
100
AcDbEntity
  8
LAY-10
  6
CONTINUOUS
 62
     7
100
AcDbLine
 10
417.9999999999989
 20
246.9999999999997
 30
0.0
 11
512.0000000000009
 21
246.9999999999997
 31
0.0
  0
LINE
  5
12F
330
1F
100
AcDbEntity
  8
LAY-10
  6
CONTINUOUS
 62
     7
100
AcDbLine
 10
546.6753572785998
 20
289.902467670297
 30
0.0
 11
530.88025807925
 21
288.5205755510864
 31
0.0
  0
ARC
  5
130
330
1F
100
AcDbEntity
  8
LAY-10
  6
CONTINUOUS
 62
     7
100
AcDbCircle
 10
546.1524228221139
 20
295.8796358588475
 30
0.0
 40
6.0
100
AcDbArc
 50
274.9999999999997
 51
341.743433710944
  0
ARC
  5
131
330
1F
100
AcDbEntity
  8
LAY-10
  6
CONTINUOUS
 62
     7
100
AcDbCircle
 10
383.8475771778865
 20
295.8796358588475
 30
0.0
 40
6.0
100
AcDbArc
 50
182.9999999999974
 51
265.0000000000003
  0
LINE
  5
132
330
1F
100
AcDbEntity
  8
LAY-10
  6
CONTINUOUS
 62
     7
100
AcDbLine
 10
377.4852913359411
 20
302.6353459996691
 30
0.0
 11
377.8557999693612
 21
295.5656201213903
 31
0.0
  0
LINE
  5
133
330
1F
100
AcDbEntity
  8
LAY-10
  6
CONTINUOUS
 62
     7
100
AcDbLine
 10
525.2551086741609
 20
281.9476640437406
 30
0.0
 11
525.0628673722342
 21
286.9727671682679
 31
0.0
  0
LINE
  5
134
330
1F
100
AcDbEntity
  8
LAY-10
  6
CONTINUOUS
 62
     7
100
AcDbLine
 10
529.7448913258346
 20
281.9476640437408
 30
0.0
 11
529.968784287243
 21
287.5767168092376
 31
0.0
  0
LINE
  5
135
330
1F
100
AcDbEntity
  8
LAY-10
  6
CONTINUOUS
 62
     7
100
AcDbLine
 10
469.6077535752955
 20
682.9122094007055
 30
0.0
 11
469.0000000000004
 21
683.4849670627079
 31
0.0
  0
LINE
  5
136
330
1F
100
AcDbEntity
  8
LAY-10
  6
CONTINUOUS
 62
     7
100
AcDbLine
 10
460.3922464247048
 20
682.9122094007055
 30
0.0
 11
461.0000000000004
 21
683.4849670627079
 31
0.0
  0
ARC
  5
137
330
1F
100
AcDbEntity
  8
LAY-10
  6
CONTINUOUS
 62
     7
100
AcDbCircle
 10
464.9999999999999
 20
600.0
 30
0.0
 40
83.58073776571632
100
AcDbArc
 50
87.25689554132575
 51
92.74310445867361
  0
LINE
  5
138
330
1F
100
AcDbEntity
  8
LAY-10
  6
CONTINUOUS
 62
     7
100
AcDbLine
 10
469.0000000000004
 20
683.4849670627079
 30
0.0
 11
469.0000000000004
 21
680.9011742807237
 31
0.0
  0
LINE
  5
139
330
1F
100
AcDbEntity
  8
LAY-10
  6
CONTINUOUS
 62
     7
100
AcDbLine
 10
469.6077535752955
 20
680.8688358206632
 30
0.0
 11
469.6077535752955
 21
682.9122094007055
 31
0.0
  0
LINE
  5
13A
330
1F
100
AcDbEntity
  8
LAY-10
  6
CONTINUOUS
 62
     7
100
AcDbLine
 10
461.0000000000004
 20
683.4849670627079
 30
0.0
 11
461.0000000000004
 21
680.9011742807237
 31
0.0
  0
LINE
  5
13B
330
1F
100
AcDbEntity
  8
LAY-10
  6
CONTINUOUS
 62
     7
100
AcDbLine
 10
460.3922464247048
 20
680.8688358206632
 30
0.0
 11
460.3922464247048
 21
682.9122094007055
 31
0.0
  0
ARC
  5
13C
330
1F
100
AcDbEntity
  8
LAY-10
  6
CONTINUOUS
 62
     7
100
AcDbCircle
 10
464.9999999999999
 20
600.0000000000001
 30
0.0
 40
83.04014607837019
100
AcDbArc
 50
93.18087707686641
 51
175.4359777859407
  0
LINE
  5
13D
330
1F
100
AcDbEntity
  8
LAY-10
  6
CONTINUOUS
 62
     7
100
AcDbLine
 10
460.9999999999999
 20
303.9999999999997
 30
0.0
 11
473.0000000000004
 21
303.9999999999998
 31
0.0
  0
ARC
  5
13E
330
1F
100
AcDbEntity
  8
LAY-10
  6
CONTINUOUS
 62
     7
100
AcDbCircle
 10
374.7618159590111
 20
311.7228308503591
 30
0.0
 40
2.0
100
AcDbArc
 50
254.9999999999993
 51
339.5341701770212
  0
ARC
  5
13F
330
1F
100
AcDbEntity
  8
LAY-10
  6
CONTINUOUS
 62
     7
100
AcDbCircle
 10
555.2381840409895
 20
311.7228308503591
 30
0.0
 40
2.0
100
AcDbArc
 50
200.4658298229793
 51
284.9999999999944
  0
ARC
  5
140
330
1F
100
AcDbEntity
  8
LAY-10
  6
CONTINUOUS
 62
     7
100
AcDbCircle
 10
381.4422719702967
 20
310.9999999999997
 30
0.0
 40
1.0
100
AcDbArc
 50
5.529636333246454
 51
90.0
  0
ARC
  5
141
330
1F
100
AcDbEntity
  8
LAY-10
  6
CONTINUOUS
 62
     7
100
AcDbCircle
 10
382.8928263678454
 20
310.9999999999997
 30
0.0
 40
1.0
100
AcDbArc
 50
90.0
 51
137.3303660199675
  0
ARC
  5
142
330
1F
100
AcDbEntity
  8
LAY-10
  6
CONTINUOUS
 62
     7
100
AcDbCircle
 10
380.0510354333047
 20
310.9999999999997
 30
0.0
 40
1.0
100
AcDbArc
 50
3.000000000002298
 51
90.0
  0
LINE
  5
143
330
1F
100
AcDbEntity
  8
LAY-10
  6
CONTINUOUS
 62
     7
100
AcDbLine
 10
376.6355777191589
 20
311.0235334413778
 30
0.0
 11
376.7572855922589
 21
311.3496487044904
 31
0.0
  0
ARC
  5
144
330
1F
100
AcDbEntity
  8
LAY-10
  6
CONTINUOUS
 62
     7
100
AcDbCircle
 10
377.6941664723328
 20
310.9999999999997
 30
0.0
 40
1.0
100
AcDbArc
 50
90.0
 51
159.5341701770134
  0
LINE
  5
145
330
1F
100
AcDbEntity
  8
LAY-10
  6
CONTINUOUS
 62
     7
100
AcDbLine
 10
377.6941664723328
 20
311.9999999999997
 30
0.0
 11
381.4422719702967
 21
311.9999999999997
 31
0.0
  0
LINE
  5
146
330
1F
100
AcDbEntity
  8
LAY-10
  6
CONTINUOUS
 62
     7
100
AcDbLine
 10
382.6573026055414
 20
308.8271570017448
 30
0.0
 11
382.4376184591392
 21
311.0963606099448
 31
0.0
  0
ARC
  5
147
330
1F
100
AcDbEntity
  8
LAY-10
  6
CONTINUOUS
 62
     7
100
AcDbCircle
 10
383.6526490943838
 20
308.9235176116898
 30
0.0
 40
1.0
100
AcDbArc
 50
185.5296363332368
 51
270.0
  0
ARC
  5
148
330
1F
100
AcDbEntity
  8
LAY-10
  6
CONTINUOUS
 62
     7
100
AcDbCircle
 10
406.0878228828594
 20
310.3205080756623
 30
0.0
 40
1.0
100
AcDbArc
 50
270.0
 51
274.420802279696
  0
ARC
  5
149
330
1F
100
AcDbEntity
  8
LAY-10
  6
CONTINUOUS
 62
     7
100
AcDbCircle
 10
435.8839937295958
 20
310.9999999999997
 30
0.0
 40
1.0
100
AcDbArc
 50
13.98792148729271
 51
90.0
  0
ARC
  5
14A
330
1F
100
AcDbEntity
  8
LAY-10
  6
CONTINUOUS
 62
     7
100
AcDbCircle
 10
449.5395902041003
 20
311.6132492959229
 30
0.0
 40
0.386750704082061
100
AcDbArc
 50
350.0614634802103
 51
156.5644310923057
  0
LINE
  5
14B
330
1F
100
AcDbEntity
  8
LAY-10
  6
CONTINUOUS
 62
     7
100
AcDbLine
 10
437.4127614146566
 20
308.9999999999997
 30
0.0
 11
436.8543404338213
 21
311.2417173423622
 31
0.0
  0
LINE
  5
14C
330
1F
100
AcDbEntity
  8
LAY-10
  6
CONTINUOUS
 62
     7
100
AcDbLine
 10
448.7236539113421
 20
310.7033641507994
 30
0.0
 11
449.184743377157
 21
311.7670668388504
 31
0.0
  0
LINE
  5
14D
330
1F
100
AcDbEntity
  8
LAY-10
  6
CONTINUOUS
 62
     7
100
AcDbLine
 10
449.4743367102458
 20
308.9999999999997
 30
0.0
 11
449.9205371204691
 21
311.5464993594961
 31
0.0
  0
LINE
  5
14E
330
1F
100
AcDbEntity
  8
LAY-10
  6
CONTINUOUS
 62
     7
100
AcDbLine
 10
437.3329215389527
 20
309.3205080756623
 30
0.0
 11
438.894183483291
 21
309.3205080756623
 31
0.0
  0
ARC
  5
14F
330
1F
100
AcDbEntity
  8
LAY-10
  6
CONTINUOUS
 62
     7
100
AcDbCircle
 10
494.1160062704043
 20
310.9999999999997
 30
0.0
 40
1.0
100
AcDbArc
 50
90.0
 51
166.0120785127073
  0
ARC
  5
150
330
1F
100
AcDbEntity
  8
LAY-10
  6
CONTINUOUS
 62
     7
100
AcDbCircle
 10
480.4604097958999
 20
311.6132492959229
 30
0.0
 40
0.386750704082061
100
AcDbArc
 50
23.43556890768659
 51
189.9385365197716
  0
LINE
  5
151
330
1F
100
AcDbEntity
  8
LAY-10
  6
CONTINUOUS
 62
     7
100
AcDbLine
 10
492.5872385853437
 20
308.9999999999997
 30
0.0
 11
493.1456595661789
 21
311.2417173423622
 31
0.0
  0
LINE
  5
152
330
1F
100
AcDbEntity
  8
LAY-10
  6
CONTINUOUS
 62
     7
100
AcDbLine
 10
481.2763460886577
 20
310.7033641508003
 30
0.0
 11
480.8152566228433
 21
311.7670668388504
 31
0.0
  0
LINE
  5
153
330
1F
100
AcDbEntity
  8
LAY-10
  6
CONTINUOUS
 62
     7
100
AcDbLine
 10
480.5256632897546
 20
308.9999999999997
 30
0.0
 11
480.079462879531
 21
311.546499359496
 31
0.0
  0
LINE
  5
154
330
1F
100
AcDbEntity
  8
LAY-10
  6
CONTINUOUS
 62
     7
100
AcDbLine
 10
492.6670784610474
 20
309.3205080756623
 30
0.0
 11
491.1058165167088
 21
309.3205080756623
 31
0.0
  0
ARC
  5
155
330
1F
100
AcDbEntity
  8
LAY-10
  6
CONTINUOUS
 62
     7
100
AcDbCircle
 10
523.9121771171409
 20
310.3205080756622
 30
0.0
 40
1.0
100
AcDbArc
 50
265.5791977202748
 51
270.0
  0
ARC
  5
156
330
1F
100
AcDbEntity
  8
LAY-10
  6
CONTINUOUS
 62
     7
100
AcDbCircle
 10
548.5577280297035
 20
310.9999999999997
 30
0.0
 40
1.0
100
AcDbArc
 50
90.0
 51
174.4703636667532
  0
ARC
  5
157
330
1F
100
AcDbEntity
  8
LAY-10
  6
CONTINUOUS
 62
     7
100
AcDbCircle
 10
547.1071736321552
 20
310.9999999999997
 30
0.0
 40
1.0
100
AcDbArc
 50
42.66963398004405
 51
90.0
  0
ARC
  5
158
330
1F
100
AcDbEntity
  8
LAY-10
  6
CONTINUOUS
 62
     7
100
AcDbCircle
 10
549.948964566696
 20
310.9999999999997
 30
0.0
 40
1.0
100
AcDbArc
 50
90.0
 51
177.0000000000043
  0
ARC
  5
159
330
1F
100
AcDbEntity
  8
LAY-10
  6
CONTINUOUS
 62
     7
100
AcDbCircle
 10
545.1094271154253
 20
310.9999999999997
 30
0.0
 40
1.0
100
AcDbArc
 50
90.0
 51
181.8346977048982
  0
LINE
  5
15A
330
1F
100
AcDbEntity
  8
LAY-10
  6
CONTINUOUS
 62
     7
100
AcDbLine
 10
544.1729791374253
 20
308.9999999999997
 30
0.0
 11
544.109939760353
 21
310.9679839563466
 31
0.0
  0
LINE
  5
15B
330
1F
100
AcDbEntity
  8
LAY-10
  6
CONTINUOUS
 62
     7
100
AcDbLine
 10
547.3426973944588
 20
308.8271570017447
 30
0.0
 11
547.5623815408613
 21
311.0963606099448
 31
0.0
  0
ARC
  5
15C
330
1F
100
AcDbEntity
  8
LAY-10
  6
CONTINUOUS
 62
     7
100
AcDbCircle
 10
546.3473509056167
 20
308.9235176116898
 30
0.0
 40
1.0
100
AcDbArc
 50
270.0
 51
354.4703636667533
  0
ARC
  5
15D
330
1F
100
AcDbEntity
  8
LAY-10
  6
CONTINUOUS
 62
     7
100
AcDbCircle
 10
555.2381840409895
 20
311.7228308503591
 30
0.0
 40
2.0
100
AcDbArc
 50
200.4658298229793
 51
284.9999999999944
  0
LINE
  5
15E
330
1F
100
AcDbEntity
  8
LAY-10
  6
CONTINUOUS
 62
     7
100
AcDbLine
 10
553.3644222808417
 20
311.0235334413778
 30
0.0
 11
553.2427144077415
 21
311.3496487044903
 31
0.0
  0
ARC
  5
15F
330
1F
100
AcDbEntity
  8
LAY-10
  6
CONTINUOUS
 62
     7
100
AcDbCircle
 10
552.3058335276673
 20
310.9999999999997
 30
0.0
 40
1.0
100
AcDbArc
 50
20.46582982297626
 51
90.0
  0
ARC
  5
160
330
1F
100
AcDbEntity
  8
LAY-10
  6
CONTINUOUS
 62
     7
100
AcDbCircle
 10
409.5113906921905
 20
532.9924314940185
 30
0.0
 40
1.0
100
AcDbArc
 50
139.713439388518
 51
230.3720260692182
  0
ARC
  5
161
330
1F
100
AcDbEntity
  8
LAY-10
  6
CONTINUOUS
 62
     7
100
AcDbCircle
 10
410.8046998780587
 20
534.5181746994684
 30
0.0
 40
1.0
100
AcDbArc
 50
50.38752293319817
 51
139.7134393885279
  0
ARC
  5
162
330
1F
100
AcDbEntity
  8
LAY-10
  6
CONTINUOUS
 62
     7
100
AcDbCircle
 10
435.3887258645358
 20
520.3245806784109
 30
0.0
 40
1.0
100
AcDbArc
 50
340.2865606114775
 51
69.61247706680409
  0
ARC
  5
163
330
1F
100
AcDbEntity
  8
LAY-10
  6
CONTINUOUS
 62
     7
100
AcDbCircle
 10
434.714048081899
 20
518.4416704657765
 30
0.0
 40
1.0
100
AcDbArc
 50
249.627973930777
 51
340.2865606114815
  0
ARC
  5
164
330
1F
100
AcDbEntity
  8
LAY-10
  6
CONTINUOUS
 62
     7
100
AcDbCircle
 10
397.9924314940187
 20
544.5113906921904
 30
0.0
 40
1.0
100
AcDbArc
 50
219.6279739307843
 51
310.2865606114746
  0
ARC
  5
165
330
1F
100
AcDbEntity
  8
LAY-10
  6
CONTINUOUS
 62
     7
100
AcDbCircle
 10
399.5181746994684
 20
545.8046998780585
 30
0.0
 40
1.0
100
AcDbArc
 50
310.2865606114746
 51
39.61247706680385
  0
ARC
  5
166
330
1F
100
AcDbEntity
  8
LAY-10
  6
CONTINUOUS
 62
     7
100
AcDbCircle
 10
383.4416704657766
 20
569.7140480818988
 30
0.0
 40
1.0
100
AcDbArc
 50
109.7134393885215
 51
200.3720260692172
  0
ARC
  5
167
330
1F
100
AcDbEntity
  8
LAY-10
  6
CONTINUOUS
 62
     7
100
AcDbCircle
 10
385.3245806784112
 20
570.3887258645357
 30
0.0
 40
1.0
100
AcDbArc
 50
20.38752293319817
 51
109.7134393885245
  0
ARC
  5
168
330
1F
100
AcDbEntity
  8
LAY-10
  6
CONTINUOUS
 62
     7
100
AcDbCircle
 10
381.193425742594
 20
614.1935940210576
 30
0.0
 40
1.0
100
AcDbArc
 50
350.3875229331924
 51
79.71343938852755
  0
ARC
  5
169
330
1F
100
AcDbEntity
  8
LAY-10
  6
CONTINUOUS
 62
     7
100
AcDbCircle
 10
383.4416704657763
 20
630.2859519181012
 30
0.0
 40
1.0
100
AcDbArc
 50
159.6279739307768
 51
250.2865606114763
  0
ARC
  5
16A
330
1F
100
AcDbEntity
  8
LAY-10
  6
CONTINUOUS
 62
     7
100
AcDbCircle
 10
409.5113906921904
 20
667.0075685059815
 30
0.0
 40
1.0
100
AcDbArc
 50
129.6279739307843
 51
220.286560611477
  0
ARC
  5
16B
330
1F
100
AcDbEntity
  8
LAY-10
  6
CONTINUOUS
 62
     7
100
AcDbCircle
 10
410.8046998780586
 20
665.4818253005317
 30
0.0
 40
1.0
100
AcDbArc
 50
220.286560611472
 51
309.6124770667968
  0
ARC
  5
16C
330
1F
100
AcDbEntity
  8
LAY-10
  6
CONTINUOUS
 62
     7
100
AcDbCircle
 10
434.7140480818987
 20
681.5583295342235
 30
0.0
 40
1.0
100
AcDbArc
 50
19.7134393885175
 51
110.3720260692244
  0
ARC
  5
16D
330
1F
100
AcDbEntity
  8
LAY-10
  6
CONTINUOUS
 62
     7
100
AcDbCircle
 10
435.3887258645357
 20
679.675419321589
 30
0.0
 40
1.0
100
AcDbArc
 50
290.3875229331982
 51
19.71343938853085
  0
ARC
  5
16E
330
1F
100
AcDbEntity
  8
LAY-10
  6
CONTINUOUS
 62
     7
100
AcDbCircle
 10
450.4492389717578
 20
685.7745612259112
 30
0.0
 40
1.0
100
AcDbArc
 50
99.62797393078016
 51
190.2865606114819
  0
ARC
  5
16F
330
1F
100
AcDbEntity
  8
LAY-10
  6
CONTINUOUS
 62
     7
100
AcDbCircle
 10
450.8064059789424
 20
683.8065742574059
 30
0.0
 40
1.0
100
AcDbArc
 50
190.2865606114692
 51
279.612477066804
  0
ARC
  5
170
330
1F
100
AcDbEntity
  8
LAY-10
  6
CONTINUOUS
 62
     7
100
AcDbCircle
 10
479.5507610282422
 20
685.7745612259112
 30
0.0
 40
1.0
100
AcDbArc
 50
349.7134393885174
 51
80.37202606921977
  0
ARC
  5
171
330
1F
100
AcDbEntity
  8
LAY-10
  6
CONTINUOUS
 62
     7
100
AcDbCircle
 10
479.1935940210573
 20
683.8065742574059
 30
0.0
 40
1.0
100
AcDbArc
 50
260.3875229332025
 51
349.7134393885174
  0
ARC
  5
172
330
1F
100
AcDbEntity
  8
LAY-10
  6
CONTINUOUS
 62
     7
100
AcDbCircle
 10
524.0642378374796
 20
286.9204312120251
 30
0.0
 40
1.0
100
AcDbArc
 50
2.999999999995652
 51
94.99999999999972
  0
ARC
  5
173
330
1F
100
AcDbEntity
  8
LAY-10
  6
CONTINUOUS
 62
     7
100
AcDbCircle
 10
530.9674138219975
 20
287.5243808529946
 30
0.0
 40
1.0
100
AcDbArc
 50
94.99999999999325
 51
176.9999999999978
  0
ARC
  5
174
330
1F
100
AcDbEntity
  8
LAY-10
  6
CONTINUOUS
 62
     7
100
AcDbCircle
 10
526.2537382089155
 20
281.9999999999836
 30
0.0
 40
1.0
100
AcDbArc
 50
183.0000000000022
 51
270.0
  0
ARC
  5
175
330
1F
100
AcDbEntity
  8
LAY-10
  6
CONTINUOUS
 62
     7
100
AcDbCircle
 10
528.7462617910801
 20
281.9999999999836
 30
0.0
 40
1.0
100
AcDbArc
 50
270.0
 51
357.0000000000044
  0
CIRCLE
  5
176
330
1F
100
AcDbEntity
  8
LAY-10
  6
CONTINUOUS
 62
     7
100
AcDbCircle
 10
464.9999999999999
 20
600.0000000000001
 30
0.0
 40
99.00000000005069
  0
CIRCLE
  5
177
330
1F
100
AcDbEntity
  8
LAY-10
  6
CONTINUOUS
 62
     7
100
AcDbCircle
 10
464.9999999999999
 20
600.0000000000001
 30
0.0
 40
103.9999999999999
  0
CIRCLE
  5
178
330
1F
100
AcDbEntity
  8
LAY-10
  6
CONTINUOUS
 62
     7
100
AcDbCircle
 10
464.9999999999999
 20
600.0
 30
0.0
 40
104.9999999999999
  0
ARC
  5
179
330
1F
100
AcDbEntity
  8
LAY-10
  6
CONTINUOUS
 62
     7
100
AcDbCircle
 10
464.9999999999999
 20
600.0000000000007
 30
0.0
 40
88.99999999995339
100
AcDbArc
 50
229.069653038538
 51
250.9303469614622
  0
LINE
  5
17A
330
1F
100
AcDbEntity
  8
LAY-10
  6
CONTINUOUS
 62
     7
100
AcDbLine
 10
435.3161847870433
 20
517.1575524600975
 30
0.0
 11
435.9221552483903
 21
515.8841338117898
 31
0.0
  0
LINE
  5
17B
330
1F
100
AcDbEntity
  8
LAY-10
  6
CONTINUOUS
 62
     7
100
AcDbLine
 10
408.0982435252427
 20
532.8718381743854
 30
0.0
 11
406.6924453954819
 21
532.759914663701
 31
0.0
  0
ARC
  5
17C
330
1F
100
AcDbEntity
  8
LAY-10
  6
CONTINUOUS
 62
     7
100
AcDbCircle
 10
464.9999999999999
 20
600.0000000000007
 30
0.0
 40
87.99999999999181
100
AcDbArc
 50
230.3720260692197
 51
249.6279739307807
  0
ARC
  5
17D
330
1F
100
AcDbEntity
  8
LAY-10
  6
CONTINUOUS
 62
     7
100
AcDbCircle
 10
464.9999999999999
 20
600.0000000000007
 30
0.0
 40
83.99999999998056
100
AcDbArc
 50
230.3875229331979
 51
249.6124770668024
  0
LINE
  5
17E
330
1F
100
AcDbEntity
  8
LAY-10
  6
CONTINUOUS
 62
     7
100
AcDbLine
 10
410.0418798573129
 20
535.1647855685
 30
0.0
 11
408.7485706714447
 21
533.6390423630502
 31
0.0
  0
LINE
  5
17F
330
1F
100
AcDbEntity
  8
LAY-10
  6
CONTINUOUS
 62
     7
100
AcDbLine
 10
436.3301173138528
 20
519.9872645964458
 30
0.0
 11
435.6554395312159
 21
518.1043543838115
 31
0.0
  0
LINE
  5
180
330
1F
100
AcDbEntity
  8
LAY-10
  6
CONTINUOUS
 62
     7
100
AcDbLine
 10
436.6654491149087
 20
520.9231182573768
 30
0.0
 11
437.6809175910717
 21
520.7925384782203
 31
0.0
  0
LINE
  5
181
330
1F
100
AcDbEntity
  8
LAY-10
  6
CONTINUOUS
 62
     7
100
AcDbLine
 10
437.6809175910717
 20
520.7925384782203
 30
0.0
 11
435.9221552483903
 21
515.8841338117898
 31
0.0
  0
LINE
  5
182
330
1F
100
AcDbEntity
  8
LAY-10
  6
CONTINUOUS
 62
     7
100
AcDbLine
 10
410.0638673573242
 20
536.7372498648979
 30
0.0
 11
410.6846870013758
 21
535.9231182573768
 31
0.0
  0
LINE
  5
183
330
1F
100
AcDbEntity
  8
LAY-10
  6
CONTINUOUS
 62
     7
100
AcDbLine
 10
406.6924453954819
 20
532.759914663701
 30
0.0
 11
410.0638673573242
 21
536.7372498648979
 31
0.0
  0
ARC
  5
184
330
1F
100
AcDbEntity
  8
LAY-10
  6
CONTINUOUS
 62
     7
100
AcDbCircle
 10
409.5113906921904
 20
532.9924314940189
 30
0.0
 40
1.0
100
AcDbArc
 50
139.7134393885279
 51
230.3720260692157
  0
ARC
  5
185
330
1F
100
AcDbEntity
  8
LAY-10
  6
CONTINUOUS
 62
     7
100
AcDbCircle
 10
410.8046998780586
 20
534.5181746994685
 30
0.0
 40
1.0
100
AcDbArc
 50
50.38752293320322
 51
139.713439388523
  0
ARC
  5
186
330
1F
100
AcDbEntity
  8
LAY-10
  6
CONTINUOUS
 62
     7
100
AcDbCircle
 10
434.7140480818987
 20
518.4416704657768
 30
0.0
 40
1.0
100
AcDbArc
 50
249.6279739307802
 51
340.2865606114825
  0
ARC
  5
187
330
1F
100
AcDbEntity
  8
LAY-10
  6
CONTINUOUS
 62
     7
100
AcDbCircle
 10
435.3887258645357
 20
520.3245806784113
 30
0.0
 40
1.0
100
AcDbArc
 50
340.2865606114753
 51
69.61247706680409
  0
ARC
  5
188
330
1F
100
AcDbEntity
  8
LAY-10
  6
CONTINUOUS
 62
     7
100
AcDbCircle
 10
464.9999999999999
 20
600.0000000000003
 30
0.0
 40
88.99999999995339
100
AcDbArc
 50
199.0696530385379
 51
220.9303469614622
  0
LINE
  5
189
330
1F
100
AcDbEntity
  8
LAY-10
  6
CONTINUOUS
 62
     7
100
AcDbLine
 10
397.871838174385
 20
543.098243525243
 30
0.0
 11
397.7599146637006
 21
541.6924453954821
 31
0.0
  0
LINE
  5
18A
330
1F
100
AcDbEntity
  8
LAY-10
  6
CONTINUOUS
 62
     7
100
AcDbLine
 10
382.1575524600971
 20
570.3161847870437
 30
0.0
 11
380.8841338117894
 21
570.9221552483905
 31
0.0
  0
ARC
  5
18B
330
1F
100
AcDbEntity
  8
LAY-10
  6
CONTINUOUS
 62
     7
100
AcDbCircle
 10
464.9999999999999
 20
600.0000000000003
 30
0.0
 40
87.99999999999181
100
AcDbArc
 50
200.3720260692195
 51
219.6279739307803
  0
ARC
  5
18C
330
1F
100
AcDbEntity
  8
LAY-10
  6
CONTINUOUS
 62
     7
100
AcDbCircle
 10
464.9999999999999
 20
600.0000000000003
 30
0.0
 40
83.99999999998056
100
AcDbArc
 50
200.3875229331975
 51
219.6124770668025
  0
LINE
  5
18D
330
1F
100
AcDbEntity
  8
LAY-10
  6
CONTINUOUS
 62
     7
100
AcDbLine
 10
384.9872645964453
 20
571.330117313853
 30
0.0
 11
383.1043543838108
 21
570.6554395312161
 31
0.0
  0
LINE
  5
18E
330
1F
100
AcDbEntity
  8
LAY-10
  6
CONTINUOUS
 62
     7
100
AcDbLine
 10
400.1647855684996
 20
545.0418798573129
 30
0.0
 11
398.6390423630498
 21
543.7485706714447
 31
0.0
  0
LINE
  5
18F
330
1F
100
AcDbEntity
  8
LAY-10
  6
CONTINUOUS
 62
     7
100
AcDbLine
 10
400.9231182573763
 20
545.684687001376
 30
0.0
 11
401.7372498648974
 21
545.0638673573244
 31
0.0
  0
LINE
  5
190
330
1F
100
AcDbEntity
  8
LAY-10
  6
CONTINUOUS
 62
     7
100
AcDbLine
 10
401.7372498648974
 20
545.0638673573244
 30
0.0
 11
397.7599146637006
 21
541.6924453954821
 31
0.0
  0
LINE
  5
191
330
1F
100
AcDbEntity
  8
LAY-10
  6
CONTINUOUS
 62
     7
100
AcDbLine
 10
385.79253847822
 20
572.680917591072
 30
0.0
 11
385.9231182573765
 21
571.6654491149092
 31
0.0
  0
LINE
  5
192
330
1F
100
AcDbEntity
  8
LAY-10
  6
CONTINUOUS
 62
     7
100
AcDbLine
 10
380.8841338117894
 20
570.9221552483905
 30
0.0
 11
385.79253847822
 21
572.680917591072
 31
0.0
  0
ARC
  5
193
330
1F
100
AcDbEntity
  8
LAY-10
  6
CONTINUOUS
 62
     7
100
AcDbCircle
 10
383.4416704657763
 20
569.7140480818991
 30
0.0
 40
1.0
100
AcDbArc
 50
109.7134393885258
 51
200.3720260692294
  0
ARC
  5
194
330
1F
100
AcDbEntity
  8
LAY-10
  6
CONTINUOUS
 62
     7
100
AcDbCircle
 10
385.3245806784108
 20
570.3887258645358
 30
0.0
 40
1.0
100
AcDbArc
 50
20.38752293319926
 51
109.7134393885237
  0
ARC
  5
195
330
1F
100
AcDbEntity
  8
LAY-10
  6
CONTINUOUS
 62
     7
100
AcDbCircle
 10
397.9924314940184
 20
544.5113906921904
 30
0.0
 40
1.0
100
AcDbArc
 50
219.6279739307793
 51
310.2865606114746
  0
ARC
  5
196
330
1F
100
AcDbEntity
  8
LAY-10
  6
CONTINUOUS
 62
     7
100
AcDbCircle
 10
399.5181746994682
 20
545.8046998780586
 30
0.0
 40
1.0
100
AcDbArc
 50
310.2865606114746
 51
39.61247706680592
  0
ARC
  5
197
330
1F
100
AcDbEntity
  8
LAY-10
  6
CONTINUOUS
 62
     7
100
AcDbCircle
 10
464.9999999999999
 20
600.0000000000001
 30
0.0
 40
83.58073776571632
100
AcDbArc
 50
175.8833741047733
 51
184.1166258952265
  0
LINE
  5
198
330
1F
100
AcDbEntity
  8
LAY-10
  6
CONTINUOUS
 62
     7
100
AcDbLine
 10
381.634901034897
 20
594.0000000000001
 30
0.0
 11
382.2231707939642
 21
593.3922464247047
 31
0.0
  0
LINE
  5
199
330
1F
100
AcDbEntity
  8
LAY-10
  6
CONTINUOUS
 62
     7
100
AcDbLine
 10
381.634901034897
 20
606.0000000000001
 30
0.0
 11
382.2231707939637
 21
606.6077535752889
 31
0.0
  0
ARC
  5
19A
330
1F
100
AcDbEntity
  8
LAY-10
  6
CONTINUOUS
 62
     7
100
AcDbCircle
 10
464.9999999999999
 20
600.0000000000001
 30
0.0
 40
88.99999999995339
100
AcDbArc
 50
169.069653038538
 51
190.9303469614621
  0
LINE
  5
19B
330
1F
100
AcDbEntity
  8
LAY-10
  6
CONTINUOUS
 62
     7
100
AcDbLine
 10
378.414428312286
 20
615.714285714288
 30
0.0
 11
377.6146006438721
 21
616.8757808519113
 31
0.0
  0
ARC
  5
19C
330
1F
100
AcDbEntity
  8
LAY-10
  6
CONTINUOUS
 62
     7
100
AcDbCircle
 10
464.9999999999999
 20
600.0000000000001
 30
0.0
 40
87.99999999999181
100
AcDbArc
 50
170.3720260692195
 51
189.6279739307803
  0
ARC
  5
19D
330
1F
100
AcDbEntity
  8
LAY-10
  6
CONTINUOUS
 62
     7
100
AcDbCircle
 10
464.9999999999999
 20
600.0000000000001
 30
0.0
 40
83.99999999998056
100
AcDbArc
 50
170.3875229331976
 51
189.6124770668023
  0
LINE
  5
19E
330
1F
100
AcDbEntity
  8
LAY-10
  6
CONTINUOUS
 62
     7
100
AcDbLine
 10
381.3719971711654
 20
615.1775209720545
 30
0.0
 11
379.4040102026604
 21
615.5346879792393
 31
0.0
  0
LINE
  5
19F
330
1F
100
AcDbEntity
  8
LAY-10
  6
CONTINUOUS
 62
     7
100
AcDbLine
 10
381.3719971711654
 20
584.8224790279459
 30
0.0
 11
379.4040102026604
 21
584.4653120207611
 31
0.0
  0
LINE
  5
1A0
330
1F
100
AcDbEntity
  8
LAY-10
  6
CONTINUOUS
 62
     7
100
AcDbLine
 10
382.3501361162844
 20
585.0000000000003
 30
0.0
 11
382.7447849483958
 21
584.0552886133225
 31
0.0
  0
LINE
  5
1A1
330
1F
100
AcDbEntity
  8
LAY-10
  6
CONTINUOUS
 62
     7
100
AcDbLine
 10
382.7447849483958
 20
615.9447113866777
 30
0.0
 11
382.3501361162844
 21
615.0000000000001
 31
0.0
  0
ARC
  5
1A2
330
1F
100
AcDbEntity
  8
LAY-10
  6
CONTINUOUS
 62
     7
100
AcDbCircle
 10
379.2254387740888
 20
614.5507610282424
 30
0.0
 40
1.0
100
AcDbArc
 50
79.71343938851797
 51
170.3720260692294
  0
ARC
  5
1A3
330
1F
100
AcDbEntity
  8
LAY-10
  6
CONTINUOUS
 62
     7
100
AcDbCircle
 10
381.193425742594
 20
614.1935940210576
 30
0.0
 40
1.0
100
AcDbArc
 50
350.3875229331924
 51
79.71343938852755
  0
ARC
  5
1A4
330
1F
100
AcDbEntity
  8
LAY-10
  6
CONTINUOUS
 62
     7
100
AcDbCircle
 10
379.2254387740888
 20
585.449238971758
 30
0.0
 40
1.0
100
AcDbArc
 50
189.6279739307705
 51
280.286560611482
  0
ARC
  5
1A5
330
1F
100
AcDbEntity
  8
LAY-10
  6
CONTINUOUS
 62
     7
100
AcDbCircle
 10
381.193425742594
 20
585.8064059789427
 30
0.0
 40
1.0
100
AcDbArc
 50
280.2865606114725
 51
9.612477066801267
  0
LINE
  5
1A6
330
1F
100
AcDbEntity
  8
LAY-10
  6
CONTINUOUS
 62
     7
100
AcDbLine
 10
382.1575524600973
 20
629.6838152129568
 30
0.0
 11
380.8841338117894
 21
629.0778447516099
 31
0.0
  0
LINE
  5
1A7
330
1F
100
AcDbEntity
  8
LAY-10
  6
CONTINUOUS
 62
     7
100
AcDbLine
 10
397.871838174385
 20
656.9017564747575
 30
0.0
 11
397.7599146637006
 21
658.3075546045181
 31
0.0
  0
ARC
  5
1A8
330
1F
100
AcDbEntity
  8
LAY-10
  6
CONTINUOUS
 62
     7
100
AcDbCircle
 10
465.0000000000003
 20
600.0000000000003
 30
0.0
 40
83.99999999998056
100
AcDbArc
 50
140.3875229331977
 51
159.6124770668025
  0
LINE
  5
1A9
330
1F
100
AcDbEntity
  8
LAY-10
  6
CONTINUOUS
 62
     7
100
AcDbLine
 10
400.1647855684998
 20
654.9581201426876
 30
0.0
 11
398.6390423630501
 21
656.2514293285557
 31
0.0
  0
LINE
  5
1AA
330
1F
100
AcDbEntity
  8
LAY-10
  6
CONTINUOUS
 62
     7
100
AcDbLine
 10
385.9231182573765
 20
628.3345508850915
 30
0.0
 11
385.79253847822
 21
627.3190824089285
 31
0.0
  0
LINE
  5
1AB
330
1F
100
AcDbEntity
  8
LAY-10
  6
CONTINUOUS
 62
     7
100
AcDbLine
 10
385.79253847822
 20
627.3190824089285
 30
0.0
 11
380.8841338117894
 21
629.0778447516099
 31
0.0
  0
ARC
  5
1AC
330
1F
100
AcDbEntity
  8
LAY-10
  6
CONTINUOUS
 62
     7
100
AcDbCircle
 10
397.9924314940187
 20
655.48860930781
 30
0.0
 40
1.0
100
AcDbArc
 50
49.71343938852542
 51
140.3720260692157
  0
ARC
  5
1AD
330
1F
100
AcDbEntity
  8
LAY-10
  6
CONTINUOUS
 62
     7
100
AcDbCircle
 10
399.5181746994684
 20
654.1953001219418
 30
0.0
 40
1.0
100
AcDbArc
 50
320.3875229331962
 51
49.71343938852542
  0
ARC
  5
1AE
330
1F
100
AcDbEntity
  8
LAY-10
  6
CONTINUOUS
 62
     7
100
AcDbCircle
 10
385.3245806784112
 20
629.6112741354647
 30
0.0
 40
1.0
100
AcDbArc
 50
250.2865606114755
 51
339.6124770668018
  0
ARC
  5
1AF
330
1F
100
AcDbEntity
  8
LAY-10
  6
CONTINUOUS
 62
     7
100
AcDbCircle
 10
464.9999999999999
 20
600.0
 30
0.0
 40
88.99999999995339
100
AcDbArc
 50
139.0696530385377
 51
160.9303469614621
  0
LINE
  5
1B0
330
1F
100
AcDbEntity
  8
LAY-10
  6
CONTINUOUS
 62
     7
100
AcDbLine
 10
397.871838174385
 20
656.9017564747573
 30
0.0
 11
397.7599146637006
 21
658.3075546045181
 31
0.0
  0
LINE
  5
1B1
330
1F
100
AcDbEntity
  8
LAY-10
  6
CONTINUOUS
 62
     7
100
AcDbLine
 10
382.1575524600971
 20
629.6838152129567
 30
0.0
 11
380.8841338117894
 21
629.0778447516099
 31
0.0
  0
ARC
  5
1B2
330
1F
100
AcDbEntity
  8
LAY-10
  6
CONTINUOUS
 62
     7
100
AcDbCircle
 10
464.9999999999999
 20
600.0
 30
0.0
 40
87.99999999999181
100
AcDbArc
 50
140.3720260692194
 51
159.6279739307805
  0
LINE
  5
1B3
330
1F
100
AcDbEntity
  8
LAY-10
  6
CONTINUOUS
 62
     7
100
AcDbLine
 10
384.9872645964453
 20
628.6698826861474
 30
0.0
 11
383.1043543838108
 21
629.3445604687843
 31
0.0
  0
LINE
  5
1B4
330
1F
100
AcDbEntity
  8
LAY-10
  6
CONTINUOUS
 62
     7
100
AcDbLine
 10
400.1647855684996
 20
654.9581201426873
 30
0.0
 11
398.6390423630498
 21
656.2514293285557
 31
0.0
  0
LINE
  5
1B5
330
1F
100
AcDbEntity
  8
LAY-10
  6
CONTINUOUS
 62
     7
100
AcDbLine
 10
400.9231182573763
 20
654.3153129986242
 30
0.0
 11
401.7372498648974
 21
654.9361326426758
 31
0.0
  0
LINE
  5
1B6
330
1F
100
AcDbEntity
  8
LAY-10
  6
CONTINUOUS
 62
     7
100
AcDbLine
 10
401.7372498648974
 20
654.9361326426758
 30
0.0
 11
397.7599146637006
 21
658.3075546045181
 31
0.0
  0
LINE
  5
1B7
330
1F
100
AcDbEntity
  8
LAY-10
  6
CONTINUOUS
 62
     7
100
AcDbLine
 10
385.79253847822
 20
627.3190824089282
 30
0.0
 11
385.9231182573765
 21
628.3345508850912
 31
0.0
  0
LINE
  5
1B8
330
1F
100
AcDbEntity
  8
LAY-10
  6
CONTINUOUS
 62
     7
100
AcDbLine
 10
380.8841338117894
 20
629.0778447516099
 30
0.0
 11
385.79253847822
 21
627.3190824089282
 31
0.0
  0
ARC
  5
1B9
330
1F
100
AcDbEntity
  8
LAY-10
  6
CONTINUOUS
 62
     7
100
AcDbCircle
 10
383.4416704657763
 20
630.2859519181012
 30
0.0
 40
1.0
100
AcDbArc
 50
159.6279739307768
 51
250.2865606114763
  0
ARC
  5
1BA
330
1F
100
AcDbEntity
  8
LAY-10
  6
CONTINUOUS
 62
     7
100
AcDbCircle
 10
385.3245806784108
 20
629.6112741354644
 30
0.0
 40
1.0
100
AcDbArc
 50
250.2865606114742
 51
339.6124770668008
  0
ARC
  5
1BB
330
1F
100
AcDbEntity
  8
LAY-10
  6
CONTINUOUS
 62
     7
100
AcDbCircle
 10
397.9924314940184
 20
655.48860930781
 30
0.0
 40
1.0
100
AcDbArc
 50
49.71343938852542
 51
140.3720260692257
  0
ARC
  5
1BC
330
1F
100
AcDbEntity
  8
LAY-10
  6
CONTINUOUS
 62
     7
100
AcDbCircle
 10
399.5181746994682
 20
654.1953001219416
 30
0.0
 40
1.0
100
AcDbArc
 50
320.3875229331941
 51
49.71343938852542
  0
LINE
  5
1BD
330
1F
100
AcDbEntity
  8
LAY-10
  6
CONTINUOUS
 62
     7
100
AcDbLine
 10
547.7768292060356
 20
606.6077535752955
 30
0.0
 11
545.730029064086
 21
606.6077535752955
 31
0.0
  0
LINE
  5
1BE
330
1F
100
AcDbEntity
  8
LAY-10
  6
CONTINUOUS
 62
     7
100
AcDbLine
 10
547.7768292060363
 20
593.3922464247114
 30
0.0
 11
545.7300290640865
 21
593.3922464247114
 31
0.0
  0
LINE
  5
1BF
330
1F
100
AcDbEntity
  8
LAY-10
  6
CONTINUOUS
 62
     7
100
AcDbLine
 10
548.3650989651029
 20
606.0000000000001
 30
0.0
 11
547.7768292060356
 21
606.6077535752955
 31
0.0
  0
LINE
  5
1C0
330
1F
100
AcDbEntity
  8
LAY-10
  6
CONTINUOUS
 62
     7
100
AcDbLine
 10
548.3650989651029
 20
594.0000000000001
 30
0.0
 11
547.7768292060363
 21
593.3922464247114
 31
0.0
  0
LINE
  5
1C1
330
1F
100
AcDbEntity
  8
LAY-10
  6
CONTINUOUS
 62
     7
100
AcDbLine
 10
551.5855716877139
 20
615.7142857142883
 30
0.0
 11
552.3853993561278
 21
616.8757808519116
 31
0.0
  0
LINE
  5
1C2
330
1F
100
AcDbEntity
  8
LAY-10
  6
CONTINUOUS
 62
     7
100
AcDbLine
 10
551.5855716877139
 20
584.2857142857122
 30
0.0
 11
552.3853993561278
 21
583.1242191480891
 31
0.0
  0
LINE
  5
1C3
330
1F
100
AcDbEntity
  8
LAY-10
  6
CONTINUOUS
 62
     7
100
AcDbLine
 10
547.2552150516042
 20
615.9447113866777
 30
0.0
 11
552.3853993561278
 21
616.8757808519116
 31
0.0
  0
LINE
  5
1C4
330
1F
100
AcDbEntity
  8
LAY-10
  6
CONTINUOUS
 62
     7
100
AcDbLine
 10
552.3853993561278
 20
583.1242191480889
 30
0.0
 11
547.2552150516042
 21
584.0552886133225
 31
0.0
  0
ARC
  5
1C5
330
1F
100
AcDbEntity
  8
LAY-10
  6
CONTINUOUS
 62
     7
100
AcDbCircle
 10
548.8065742574058
 20
614.1935940210576
 30
0.0
 40
1.0
100
AcDbArc
 50
100.2865606114692
 51
189.6124770668072
  0
ARC
  5
1C6
330
1F
100
AcDbEntity
  8
LAY-10
  6
CONTINUOUS
 62
     7
100
AcDbCircle
 10
464.9999999999999
 20
600.0000000000001
 30
0.0
 40
83.58073776571632
100
AcDbArc
 50
355.8833741047735
 51
4.116625895226411
  0
LINE
  5
1C7
330
1F
100
AcDbEntity
  8
LAY-10
  6
CONTINUOUS
 62
     7
100
AcDbLine
 10
548.3650989651029
 20
594.0000000000001
 30
0.0
 11
547.7768292060356
 21
593.3922464247047
 31
0.0
  0
LINE
  5
1C8
330
1F
100
AcDbEntity
  8
LAY-10
  6
CONTINUOUS
 62
     7
100
AcDbLine
 10
548.3650989651029
 20
606.0000000000001
 30
0.0
 11
547.7768292060363
 21
606.6077535752889
 31
0.0
  0
ARC
  5
1C9
330
1F
100
AcDbEntity
  8
LAY-10
  6
CONTINUOUS
 62
     7
100
AcDbCircle
 10
464.9999999999999
 20
600.0000000000001
 30
0.0
 40
88.99999999995339
100
AcDbArc
 50
349.0696530385378
 51
10.93034696146196
  0
LINE
  5
1CA
330
1F
100
AcDbEntity
  8
LAY-10
  6
CONTINUOUS
 62
     7
100
AcDbLine
 10
551.5855716877139
 20
615.714285714288
 30
0.0
 11
552.3853993561278
 21
616.8757808519113
 31
0.0
  0
ARC
  5
1CB
330
1F
100
AcDbEntity
  8
LAY-10
  6
CONTINUOUS
 62
     7
100
AcDbCircle
 10
464.9999999999999
 20
600.0000000000001
 30
0.0
 40
87.99999999999181
100
AcDbArc
 50
350.3720260692196
 51
9.627973930780309
  0
ARC
  5
1CC
330
1F
100
AcDbEntity
  8
LAY-10
  6
CONTINUOUS
 62
     7
100
AcDbCircle
 10
464.9999999999999
 20
600.0000000000001
 30
0.0
 40
83.99999999998056
100
AcDbArc
 50
350.3875229331978
 51
9.612477066802354
  0
LINE
  5
1CD
330
1F
100
AcDbEntity
  8
LAY-10
  6
CONTINUOUS
 62
     7
100
AcDbLine
 10
548.6280028288345
 20
615.1775209720545
 30
0.0
 11
550.5959897973396
 21
615.5346879792393
 31
0.0
  0
LINE
  5
1CE
330
1F
100
AcDbEntity
  8
LAY-10
  6
CONTINUOUS
 62
     7
100
AcDbLine
 10
548.6280028288345
 20
584.8224790279459
 30
0.0
 11
550.5959897973396
 21
584.4653120207611
 31
0.0
  0
LINE
  5
1CF
330
1F
100
AcDbEntity
  8
LAY-10
  6
CONTINUOUS
 62
     7
100
AcDbLine
 10
547.6498638837155
 20
585.0000000000003
 30
0.0
 11
547.2552150516041
 21
584.0552886133225
 31
0.0
  0
LINE
  5
1D0
330
1F
100
AcDbEntity
  8
LAY-10
  6
CONTINUOUS
 62
     7
100
AcDbLine
 10
547.2552150516041
 20
615.9447113866777
 30
0.0
 11
547.6498638837155
 21
615.0000000000001
 31
0.0
  0
ARC
  5
1D1
330
1F
100
AcDbEntity
  8
LAY-10
  6
CONTINUOUS
 62
     7
100
AcDbCircle
 10
550.774561225911
 20
614.5507610282424
 30
0.0
 40
1.0
100
AcDbArc
 50
9.62797393077051
 51
100.2865606114756
  0
ARC
  5
1D2
330
1F
100
AcDbEntity
  8
LAY-10
  6
CONTINUOUS
 62
     7
100
AcDbCircle
 10
548.8065742574058
 20
614.1935940210576
 30
0.0
 40
1.0
100
AcDbArc
 50
100.2865606114692
 51
189.6124770668072
  0
ARC
  5
1D3
330
1F
100
AcDbEntity
  8
LAY-10
  6
CONTINUOUS
 62
     7
100
AcDbCircle
 10
550.774561225911
 20
585.449238971758
 30
0.0
 40
1.0
100
AcDbArc
 50
259.7134393885245
 51
350.3720260692295
  0
ARC
  5
1D4
330
1F
100
AcDbEntity
  8
LAY-10
  6
CONTINUOUS
 62
     7
100
AcDbCircle
 10
548.8065742574058
 20
585.8064059789427
 30
0.0
 40
1.0
100
AcDbArc
 50
170.3875229331993
 51
259.7134393885309
  0
ARC
  5
1D5
330
1F
100
AcDbEntity
  8
LAY-10
  6
CONTINUOUS
 62
     7
100
AcDbCircle
 10
464.9999999999999
 20
600.0
 30
0.0
 40
88.99999999995339
100
AcDbArc
 50
19.06965303853793
 51
40.93034696146226
  0
ARC
  5
1D6
330
1F
100
AcDbEntity
  8
LAY-10
  6
CONTINUOUS
 62
     7
100
AcDbCircle
 10
464.9999999999999
 20
600.0
 30
0.0
 40
87.99999999999181
100
AcDbArc
 50
20.37202606921947
 51
39.62797393078043
  0
ARC
  5
1D7
330
1F
100
AcDbEntity
  8
LAY-10
  6
CONTINUOUS
 62
     7
100
AcDbCircle
 10
464.9999999999999
 20
600.0
 30
0.0
 40
83.99999999998056
100
AcDbArc
 50
20.38752293319754
 51
39.61247706680236
  0
LINE
  5
1D8
330
1F
100
AcDbEntity
  8
LAY-10
  6
CONTINUOUS
 62
     7
100
AcDbLine
 10
545.0127354035545
 20
628.6698826861474
 30
0.0
 11
546.8956456161891
 21
629.3445604687843
 31
0.0
  0
LINE
  5
1D9
330
1F
100
AcDbEntity
  8
LAY-10
  6
CONTINUOUS
 62
     7
100
AcDbLine
 10
529.0768817426235
 20
654.3153129986242
 30
0.0
 11
528.2627501351025
 21
654.9361326426758
 31
0.0
  0
LINE
  5
1DA
330
1F
100
AcDbEntity
  8
LAY-10
  6
CONTINUOUS
 62
     7
100
AcDbLine
 10
528.2627501351025
 20
654.9361326426758
 30
0.0
 11
532.2400853362993
 21
658.3075546045181
 31
0.0
  0
ARC
  5
1DB
330
1F
100
AcDbEntity
  8
LAY-10
  6
CONTINUOUS
 62
     7
100
AcDbCircle
 10
546.5583295342237
 20
630.2859519181012
 30
0.0
 40
1.0
100
AcDbArc
 50
289.7134393885176
 51
20.3720260692244
  0
LINE
  5
1DC
330
1F
100
AcDbEntity
  8
LAY-10
  6
CONTINUOUS
 62
     7
100
AcDbLine
 10
547.8424475399025
 20
629.6838152129568
 30
0.0
 11
549.1158661882105
 21
629.0778447516099
 31
0.0
  0
LINE
  5
1DD
330
1F
100
AcDbEntity
  8
LAY-10
  6
CONTINUOUS
 62
     7
100
AcDbLine
 10
532.1281618256149
 20
656.9017564747575
 30
0.0
 11
532.2400853362993
 21
658.3075546045181
 31
0.0
  0
ARC
  5
1DE
330
1F
100
AcDbEntity
  8
LAY-10
  6
CONTINUOUS
 62
     7
100
AcDbCircle
 10
464.9999999999995
 20
600.0000000000003
 30
0.0
 40
83.99999999998056
100
AcDbArc
 50
20.38752293319731
 51
39.61247706680208
  0
LINE
  5
1DF
330
1F
100
AcDbEntity
  8
LAY-10
  6
CONTINUOUS
 62
     7
100
AcDbLine
 10
529.8352144315
 20
654.9581201426876
 30
0.0
 11
531.3609576369499
 21
656.2514293285557
 31
0.0
  0
LINE
  5
1E0
330
1F
100
AcDbEntity
  8
LAY-10
  6
CONTINUOUS
 62
     7
100
AcDbLine
 10
544.0768817426234
 20
628.3345508850915
 30
0.0
 11
544.2074615217798
 21
627.3190824089285
 31
0.0
  0
LINE
  5
1E1
330
1F
100
AcDbEntity
  8
LAY-10
  6
CONTINUOUS
 62
     7
100
AcDbLine
 10
544.2074615217798
 20
627.3190824089285
 30
0.0
 11
549.1158661882105
 21
629.0778447516099
 31
0.0
  0
ARC
  5
1E2
330
1F
100
AcDbEntity
  8
LAY-10
  6
CONTINUOUS
 62
     7
100
AcDbCircle
 10
532.0075685059811
 20
655.48860930781
 30
0.0
 40
1.0
100
AcDbArc
 50
39.62797393078426
 51
130.2865606114721
  0
ARC
  5
1E3
330
1F
100
AcDbEntity
  8
LAY-10
  6
CONTINUOUS
 62
     7
100
AcDbCircle
 10
530.4818253005315
 20
654.1953001219418
 30
0.0
 40
1.0
100
AcDbArc
 50
130.286560611477
 51
219.6124770668159
  0
ARC
  5
1E4
330
1F
100
AcDbEntity
  8
LAY-10
  6
CONTINUOUS
 62
     7
100
AcDbCircle
 10
544.6754193215888
 20
629.6112741354647
 30
0.0
 40
1.0
100
AcDbArc
 50
200.3875229331982
 51
289.7134393885153
  0
ARC
  5
1E5
330
1F
100
AcDbEntity
  8
LAY-10
  6
CONTINUOUS
 62
     7
100
AcDbCircle
 10
464.9999999999999
 20
600.0
 30
0.0
 40
88.99999999995339
100
AcDbArc
 50
19.06965303853793
 51
40.93034696146226
  0
LINE
  5
1E6
330
1F
100
AcDbEntity
  8
LAY-10
  6
CONTINUOUS
 62
     7
100
AcDbLine
 10
532.1281618256149
 20
656.9017564747573
 30
0.0
 11
532.2400853362993
 21
658.3075546045181
 31
0.0
  0
LINE
  5
1E7
330
1F
100
AcDbEntity
  8
LAY-10
  6
CONTINUOUS
 62
     7
100
AcDbLine
 10
547.8424475399029
 20
629.6838152129567
 30
0.0
 11
549.1158661882105
 21
629.0778447516099
 31
0.0
  0
ARC
  5
1E8
330
1F
100
AcDbEntity
  8
LAY-10
  6
CONTINUOUS
 62
     7
100
AcDbCircle
 10
464.9999999999999
 20
600.0
 30
0.0
 40
87.99999999999181
100
AcDbArc
 50
20.37202606921947
 51
39.62797393078043
  0
LINE
  5
1E9
330
1F
100
AcDbEntity
  8
LAY-10
  6
CONTINUOUS
 62
     7
100
AcDbLine
 10
545.0127354035545
 20
628.6698826861474
 30
0.0
 11
546.8956456161891
 21
629.3445604687843
 31
0.0
  0
LINE
  5
1EA
330
1F
100
AcDbEntity
  8
LAY-10
  6
CONTINUOUS
 62
     7
100
AcDbLine
 10
529.8352144315004
 20
654.9581201426873
 30
0.0
 11
531.3609576369502
 21
656.2514293285557
 31
0.0
  0
LINE
  5
1EB
330
1F
100
AcDbEntity
  8
LAY-10
  6
CONTINUOUS
 62
     7
100
AcDbLine
 10
529.0768817426235
 20
654.3153129986242
 30
0.0
 11
528.2627501351025
 21
654.9361326426758
 31
0.0
  0
LINE
  5
1EC
330
1F
100
AcDbEntity
  8
LAY-10
  6
CONTINUOUS
 62
     7
100
AcDbLine
 10
528.2627501351025
 20
654.9361326426758
 30
0.0
 11
532.2400853362993
 21
658.3075546045181
 31
0.0
  0
LINE
  5
1ED
330
1F
100
AcDbEntity
  8
LAY-10
  6
CONTINUOUS
 62
     7
100
AcDbLine
 10
544.2074615217798
 20
627.3190824089282
 30
0.0
 11
544.0768817426234
 21
628.3345508850912
 31
0.0
  0
LINE
  5
1EE
330
1F
100
AcDbEntity
  8
LAY-10
  6
CONTINUOUS
 62
     7
100
AcDbLine
 10
549.1158661882106
 20
629.0778447516099
 30
0.0
 11
544.2074615217798
 21
627.3190824089282
 31
0.0
  0
ARC
  5
1EF
330
1F
100
AcDbEntity
  8
LAY-10
  6
CONTINUOUS
 62
     7
100
AcDbCircle
 10
546.5583295342237
 20
630.2859519181012
 30
0.0
 40
1.0
100
AcDbArc
 50
289.7134393885176
 51
20.3720260692244
  0
ARC
  5
1F0
330
1F
100
AcDbEntity
  8
LAY-10
  6
CONTINUOUS
 62
     7
100
AcDbCircle
 10
544.6754193215892
 20
629.6112741354644
 30
0.0
 40
1.0
100
AcDbArc
 50
200.3875229331982
 51
289.7134393885198
  0
ARC
  5
1F1
330
1F
100
AcDbEntity
  8
LAY-10
  6
CONTINUOUS
 62
     7
100
AcDbCircle
 10
532.0075685059815
 20
655.48860930781
 30
0.0
 40
1.0
100
AcDbArc
 50
39.62797393077424
 51
130.286560611477
  0
ARC
  5
1F2
330
1F
100
AcDbEntity
  8
LAY-10
  6
CONTINUOUS
 62
     7
100
AcDbCircle
 10
530.4818253005316
 20
654.1953001219416
 30
0.0
 40
1.0
100
AcDbArc
 50
130.2865606114587
 51
219.6124770668151
  0
ARC
  5
1F3
330
1F
100
AcDbEntity
  8
LAY-10
  6
CONTINUOUS
 62
     7
100
AcDbCircle
 10
464.9999999999999
 20
599.9999999999997
 30
0.0
 40
88.99999999995339
100
AcDbArc
 50
49.06965303853806
 51
70.93034696146215
  0
LINE
  5
1F4
330
1F
100
AcDbEntity
  8
LAY-10
  6
CONTINUOUS
 62
     7
100
AcDbLine
 10
494.6838152129565
 20
682.8424475399029
 30
0.0
 11
494.0778447516095
 21
684.1158661882106
 31
0.0
  0
LINE
  5
1F5
330
1F
100
AcDbEntity
  8
LAY-10
  6
CONTINUOUS
 62
     7
100
AcDbLine
 10
521.9017564747572
 20
667.1281618256149
 30
0.0
 11
523.307554604518
 21
667.2400853362993
 31
0.0
  0
ARC
  5
1F6
330
1F
100
AcDbEntity
  8
LAY-10
  6
CONTINUOUS
 62
     7
100
AcDbCircle
 10
464.9999999999999
 20
599.9999999999997
 30
0.0
 40
87.99999999999181
100
AcDbArc
 50
50.37202606921959
 51
69.62797393078056
  0
ARC
  5
1F7
330
1F
100
AcDbEntity
  8
LAY-10
  6
CONTINUOUS
 62
     7
100
AcDbCircle
 10
464.9999999999999
 20
599.9999999999997
 30
0.0
 40
83.99999999998056
100
AcDbArc
 50
50.38752293319772
 51
69.61247706680243
  0
LINE
  5
1F8
330
1F
100
AcDbEntity
  8
LAY-10
  6
CONTINUOUS
 62
     7
100
AcDbLine
 10
519.9581201426869
 20
664.8352144315004
 30
0.0
 11
521.2514293285553
 21
666.36095763695
 31
0.0
  0
LINE
  5
1F9
330
1F
100
AcDbEntity
  8
LAY-10
  6
CONTINUOUS
 62
     7
100
AcDbLine
 10
493.669882686147
 20
680.0127354035545
 30
0.0
 11
494.3445604687839
 21
681.8956456161889
 31
0.0
  0
LINE
  5
1FA
330
1F
100
AcDbEntity
  8
LAY-10
  6
CONTINUOUS
 62
     7
100
AcDbLine
 10
493.3345508850912
 20
679.0768817426235
 30
0.0
 11
492.3190824089281
 21
679.2074615217799
 31
0.0
  0
LINE
  5
1FB
330
1F
100
AcDbEntity
  8
LAY-10
  6
CONTINUOUS
 62
     7
100
AcDbLine
 10
492.3190824089281
 20
679.2074615217799
 30
0.0
 11
494.0778447516095
 21
684.1158661882106
 31
0.0
  0
LINE
  5
1FC
330
1F
100
AcDbEntity
  8
LAY-10
  6
CONTINUOUS
 62
     7
100
AcDbLine
 10
519.9361326426757
 20
663.2627501351024
 30
0.0
 11
519.3153129986241
 21
664.0768817426235
 31
0.0
  0
LINE
  5
1FD
330
1F
100
AcDbEntity
  8
LAY-10
  6
CONTINUOUS
 62
     7
100
AcDbLine
 10
523.307554604518
 20
667.2400853362993
 30
0.0
 11
519.9361326426757
 21
663.2627501351024
 31
0.0
  0
ARC
  5
1FE
330
1F
100
AcDbEntity
  8
LAY-10
  6
CONTINUOUS
 62
     7
100
AcDbCircle
 10
520.4886093078096
 20
667.0075685059815
 30
0.0
 40
1.0
100
AcDbArc
 50
319.713439388523
 51
50.37202606922068
  0
ARC
  5
1FF
330
1F
100
AcDbEntity
  8
LAY-10
  6
CONTINUOUS
 62
     7
100
AcDbCircle
 10
519.1953001219412
 20
665.4818253005317
 30
0.0
 40
1.0
100
AcDbArc
 50
230.3875229332124
 51
319.7134393885279
  0
ARC
  5
200
330
1F
100
AcDbEntity
  8
LAY-10
  6
CONTINUOUS
 62
     7
100
AcDbCircle
 10
495.2859519181011
 20
681.5583295342235
 30
0.0
 40
1.0
100
AcDbArc
 50
69.62797393077861
 51
160.2865606114835
  0
ARC
  5
201
330
1F
100
AcDbEntity
  8
LAY-10
  6
CONTINUOUS
 62
     7
100
AcDbCircle
 10
494.6112741354643
 20
679.675419321589
 30
0.0
 40
1.0
100
AcDbArc
 50
160.2865606114713
 51
249.6124770667957
  0
ARC
  5
202
330
1F
100
AcDbEntity
  8
LAY-10
  6
CONTINUOUS
 62
     7
100
AcDbCircle
 10
464.9999999999995
 20
600.0
 30
0.0
 40
88.99999999995339
100
AcDbArc
 50
319.0696530385384
 51
340.9303469614626
  0
LINE
  5
203
330
1F
100
AcDbEntity
  8
LAY-10
  6
CONTINUOUS
 62
     7
100
AcDbLine
 10
547.8424475399025
 20
570.3161847870434
 30
0.0
 11
549.1158661882105
 21
570.9221552483905
 31
0.0
  0
LINE
  5
204
330
1F
100
AcDbEntity
  8
LAY-10
  6
CONTINUOUS
 62
     7
100
AcDbLine
 10
532.1281618256149
 20
543.0982435252428
 30
0.0
 11
532.2400853362993
 21
541.6924453954821
 31
0.0
  0
ARC
  5
205
330
1F
100
AcDbEntity
  8
LAY-10
  6
CONTINUOUS
 62
     7
100
AcDbCircle
 10
464.9999999999995
 20
600.0
 30
0.0
 40
87.99999999999181
100
AcDbArc
 50
320.3720260692199
 51
339.6279739307806
  0
ARC
  5
206
330
1F
100
AcDbEntity
  8
LAY-10
  6
CONTINUOUS
 62
     7
100
AcDbCircle
 10
464.9999999999995
 20
600.0
 30
0.0
 40
83.99999999998056
100
AcDbArc
 50
320.3875229331978
 51
339.6124770668025
  0
LINE
  5
207
330
1F
100
AcDbEntity
  8
LAY-10
  6
CONTINUOUS
 62
     7
100
AcDbLine
 10
529.8352144315
 20
545.0418798573128
 30
0.0
 11
531.3609576369499
 21
543.7485706714447
 31
0.0
  0
LINE
  5
208
330
1F
100
AcDbEntity
  8
LAY-10
  6
CONTINUOUS
 62
     7
100
AcDbLine
 10
545.0127354035542
 20
571.330117313853
 30
0.0
 11
546.8956456161889
 21
570.6554395312161
 31
0.0
  0
LINE
  5
209
330
1F
100
AcDbEntity
  8
LAY-10
  6
CONTINUOUS
 62
     7
100
AcDbLine
 10
544.0768817426234
 20
571.6654491149088
 30
0.0
 11
544.2074615217798
 21
572.6809175910719
 31
0.0
  0
LINE
  5
20A
330
1F
100
AcDbEntity
  8
LAY-10
  6
CONTINUOUS
 62
     7
100
AcDbLine
 10
544.2074615217798
 20
572.6809175910719
 30
0.0
 11
549.1158661882105
 21
570.9221552483905
 31
0.0
  0
LINE
  5
20B
330
1F
100
AcDbEntity
  8
LAY-10
  6
CONTINUOUS
 62
     7
100
AcDbLine
 10
528.2627501351022
 20
545.0638673573243
 30
0.0
 11
529.0768817426234
 21
545.6846870013757
 31
0.0
  0
LINE
  5
20C
330
1F
100
AcDbEntity
  8
LAY-10
  6
CONTINUOUS
 62
     7
100
AcDbLine
 10
532.2400853362993
 20
541.692445395482
 30
0.0
 11
528.2627501351022
 21
545.0638673573243
 31
0.0
  0
ARC
  5
20D
330
1F
100
AcDbEntity
  8
LAY-10
  6
CONTINUOUS
 62
     7
100
AcDbCircle
 10
532.0075685059811
 20
544.5113906921904
 30
0.0
 40
1.0
100
AcDbArc
 50
229.7134393885329
 51
320.3720260692157
  0
ARC
  5
20E
330
1F
100
AcDbEntity
  8
LAY-10
  6
CONTINUOUS
 62
     7
100
AcDbCircle
 10
530.4818253005315
 20
545.8046998780585
 30
0.0
 40
1.0
100
AcDbArc
 50
140.387522933189
 51
229.7134393885228
  0
ARC
  5
20F
330
1F
100
AcDbEntity
  8
LAY-10
  6
CONTINUOUS
 62
     7
100
AcDbCircle
 10
546.5583295342232
 20
569.7140480818988
 30
0.0
 40
1.0
100
AcDbArc
 50
339.6279739307839
 51
70.28656061146184
  0
ARC
  5
210
330
1F
100
AcDbEntity
  8
LAY-10
  6
CONTINUOUS
 62
     7
100
AcDbCircle
 10
544.6754193215888
 20
570.3887258645357
 30
0.0
 40
1.0
100
AcDbArc
 50
70.28656061148465
 51
159.6124770668018
  0
ARC
  5
211
330
1F
100
AcDbEntity
  8
LAY-10
  6
CONTINUOUS
 62
     7
100
AcDbCircle
 10
464.9999999999999
 20
600.0000000000003
 30
0.0
 40
88.99999999995339
100
AcDbArc
 50
319.0696530385378
 51
340.9303469614621
  0
LINE
  5
212
330
1F
100
AcDbEntity
  8
LAY-10
  6
CONTINUOUS
 62
     7
100
AcDbLine
 10
532.1281618256149
 20
543.098243525243
 30
0.0
 11
532.2400853362993
 21
541.6924453954821
 31
0.0
  0
LINE
  5
213
330
1F
100
AcDbEntity
  8
LAY-10
  6
CONTINUOUS
 62
     7
100
AcDbLine
 10
547.8424475399029
 20
570.3161847870437
 30
0.0
 11
549.1158661882105
 21
570.9221552483905
 31
0.0
  0
ARC
  5
214
330
1F
100
AcDbEntity
  8
LAY-10
  6
CONTINUOUS
 62
     7
100
AcDbCircle
 10
464.9999999999999
 20
600.0000000000003
 30
0.0
 40
87.99999999999181
100
AcDbArc
 50
320.3720260692194
 51
339.6279739307804
  0
ARC
  5
215
330
1F
100
AcDbEntity
  8
LAY-10
  6
CONTINUOUS
 62
     7
100
AcDbCircle
 10
464.9999999999999
 20
600.0000000000003
 30
0.0
 40
83.99999999998056
100
AcDbArc
 50
320.3875229331977
 51
339.6124770668025
  0
LINE
  5
216
330
1F
100
AcDbEntity
  8
LAY-10
  6
CONTINUOUS
 62
     7
100
AcDbLine
 10
545.0127354035545
 20
571.330117313853
 30
0.0
 11
546.8956456161891
 21
570.6554395312161
 31
0.0
  0
LINE
  5
217
330
1F
100
AcDbEntity
  8
LAY-10
  6
CONTINUOUS
 62
     7
100
AcDbLine
 10
529.8352144315004
 20
545.0418798573129
 30
0.0
 11
531.3609576369502
 21
543.7485706714447
 31
0.0
  0
LINE
  5
218
330
1F
100
AcDbEntity
  8
LAY-10
  6
CONTINUOUS
 62
     7
100
AcDbLine
 10
529.0768817426235
 20
545.684687001376
 30
0.0
 11
528.2627501351025
 21
545.0638673573244
 31
0.0
  0
LINE
  5
219
330
1F
100
AcDbEntity
  8
LAY-10
  6
CONTINUOUS
 62
     7
100
AcDbLine
 10
528.2627501351025
 20
545.0638673573244
 30
0.0
 11
532.2400853362993
 21
541.6924453954821
 31
0.0
  0
LINE
  5
21A
330
1F
100
AcDbEntity
  8
LAY-10
  6
CONTINUOUS
 62
     7
100
AcDbLine
 10
544.2074615217798
 20
572.680917591072
 30
0.0
 11
544.0768817426234
 21
571.6654491149092
 31
0.0
  0
LINE
  5
21B
330
1F
100
AcDbEntity
  8
LAY-10
  6
CONTINUOUS
 62
     7
100
AcDbLine
 10
549.1158661882106
 20
570.9221552483905
 30
0.0
 11
544.2074615217798
 21
572.680917591072
 31
0.0
  0
ARC
  5
21C
330
1F
100
AcDbEntity
  8
LAY-10
  6
CONTINUOUS
 62
     7
100
AcDbCircle
 10
546.5583295342237
 20
569.7140480818991
 30
0.0
 40
1.0
100
AcDbArc
 50
339.6279739307695
 51
70.28656061148024
  0
ARC
  5
21D
330
1F
100
AcDbEntity
  8
LAY-10
  6
CONTINUOUS
 62
     7
100
AcDbCircle
 10
544.6754193215892
 20
570.3887258645358
 30
0.0
 40
1.0
100
AcDbArc
 50
70.28656061148246
 51
159.6124770668018
  0
ARC
  5
21E
330
1F
100
AcDbEntity
  8
LAY-10
  6
CONTINUOUS
 62
     7
100
AcDbCircle
 10
532.0075685059815
 20
544.5113906921904
 30
0.0
 40
1.0
100
AcDbArc
 50
229.7134393885228
 51
320.3720260692207
  0
ARC
  5
21F
330
1F
100
AcDbEntity
  8
LAY-10
  6
CONTINUOUS
 62
     7
100
AcDbCircle
 10
530.4818253005316
 20
545.8046998780586
 30
0.0
 40
1.0
100
AcDbArc
 50
140.3875229331799
 51
229.7134393885369
  0
ARC
  5
220
330
1F
100
AcDbEntity
  8
LAY-10
  6
CONTINUOUS
 62
     7
100
AcDbCircle
 10
464.9999999999995
 20
600.0000000000001
 30
0.0
 40
88.99999999995339
100
AcDbArc
 50
289.0696530385379
 51
310.9303469614625
  0
LINE
  5
221
330
1F
100
AcDbEntity
  8
LAY-10
  6
CONTINUOUS
 62
     7
100
AcDbLine
 10
521.901756474757
 20
532.8718381743852
 30
0.0
 11
523.307554604518
 21
532.7599146637008
 31
0.0
  0
LINE
  5
222
330
1F
100
AcDbEntity
  8
LAY-10
  6
CONTINUOUS
 62
     7
100
AcDbLine
 10
494.6838152129563
 20
517.1575524600971
 30
0.0
 11
494.0778447516095
 21
515.8841338117895
 31
0.0
  0
ARC
  5
223
330
1F
100
AcDbEntity
  8
LAY-10
  6
CONTINUOUS
 62
     7
100
AcDbCircle
 10
464.9999999999995
 20
600.0000000000001
 30
0.0
 40
87.99999999999181
100
AcDbArc
 50
290.3720260692198
 51
309.6279739307806
  0
ARC
  5
224
330
1F
100
AcDbEntity
  8
LAY-10
  6
CONTINUOUS
 62
     7
100
AcDbCircle
 10
464.9999999999995
 20
600.0000000000001
 30
0.0
 40
83.99999999998056
100
AcDbArc
 50
290.3875229331976
 51
309.6124770668024
  0
LINE
  5
225
330
1F
100
AcDbEntity
  8
LAY-10
  6
CONTINUOUS
 62
     7
100
AcDbLine
 10
493.6698826861467
 20
519.9872645964455
 30
0.0
 11
494.3445604687838
 21
518.1043543838111
 31
0.0
  0
LINE
  5
226
330
1F
100
AcDbEntity
  8
LAY-10
  6
CONTINUOUS
 62
     7
100
AcDbLine
 10
519.9581201426869
 20
535.1647855684997
 30
0.0
 11
521.251429328555
 21
533.6390423630501
 31
0.0
  0
LINE
  5
227
330
1F
100
AcDbEntity
  8
LAY-10
  6
CONTINUOUS
 62
     7
100
AcDbLine
 10
519.3153129986241
 20
535.9231182573765
 30
0.0
 11
519.9361326426757
 21
536.7372498648975
 31
0.0
  0
LINE
  5
228
330
1F
100
AcDbEntity
  8
LAY-10
  6
CONTINUOUS
 62
     7
100
AcDbLine
 10
519.9361326426757
 20
536.7372498648975
 30
0.0
 11
523.307554604518
 21
532.7599146637008
 31
0.0
  0
LINE
  5
229
330
1F
100
AcDbEntity
  8
LAY-10
  6
CONTINUOUS
 62
     7
100
AcDbLine
 10
492.319082408928
 20
520.79253847822
 30
0.0
 11
493.3345508850908
 21
520.9231182573765
 31
0.0
  0
LINE
  5
22A
330
1F
100
AcDbEntity
  8
LAY-10
  6
CONTINUOUS
 62
     7
100
AcDbLine
 10
494.0778447516095
 20
515.8841338117894
 30
0.0
 11
492.319082408928
 21
520.79253847822
 31
0.0
  0
ARC
  5
22B
330
1F
100
AcDbEntity
  8
LAY-10
  6
CONTINUOUS
 62
     7
100
AcDbCircle
 10
464.9999999999999
 20
600.0000000000001
 30
0.0
 40
83.78636061072302
100
AcDbArc
 50
284.9999999999993
 51
289.029591331973
  0
ARC
  5
22C
330
1F
100
AcDbEntity
  8
LAY-10
  6
CONTINUOUS
 62
     7
100
AcDbCircle
 10
520.4886093078093
 20
532.9924314940185
 30
0.0
 40
1.0
100
AcDbArc
 50
309.6279739307844
 51
40.286560611482
  0
ARC
  5
22D
330
1F
100
AcDbEntity
  8
LAY-10
  6
CONTINUOUS
 62
     7
100
AcDbCircle
 10
519.1953001219412
 20
534.5181746994684
 30
0.0
 40
1.0
100
AcDbArc
 50
40.28656061147203
 51
129.6124770668017
  0
ARC
  5
22E
330
1F
100
AcDbEntity
  8
LAY-10
  6
CONTINUOUS
 62
     7
100
AcDbCircle
 10
494.611274135464
 20
520.3245806784109
 30
0.0
 40
1.0
100
AcDbArc
 50
110.387522933199
 51
199.7134393885236
  0
ARC
  5
22F
330
1F
100
AcDbEntity
  8
LAY-10
  6
CONTINUOUS
 62
     7
100
AcDbCircle
 10
495.2859519181009
 20
518.4416704657765
 30
0.0
 40
1.0
100
AcDbArc
 50
199.7134393885175
 51
290.3720260692252
  0
ARC
  5
230
330
1F
100
AcDbEntity
  8
LAY-10
  6
CONTINUOUS
 62
     7
100
AcDbCircle
 10
464.9999999999999
 20
600.0000000000007
 30
0.0
 40
88.99999999995339
100
AcDbArc
 50
289.0696530385376
 51
310.930346961462
  0
LINE
  5
231
330
1F
100
AcDbEntity
  8
LAY-10
  6
CONTINUOUS
 62
     7
100
AcDbLine
 10
494.6838152129565
 20
517.1575524600975
 30
0.0
 11
494.0778447516095
 21
515.8841338117898
 31
0.0
  0
LINE
  5
232
330
1F
100
AcDbEntity
  8
LAY-10
  6
CONTINUOUS
 62
     7
100
AcDbLine
 10
521.9017564747572
 20
532.8718381743854
 30
0.0
 11
523.307554604518
 21
532.759914663701
 31
0.0
  0
ARC
  5
233
330
1F
100
AcDbEntity
  8
LAY-10
  6
CONTINUOUS
 62
     7
100
AcDbCircle
 10
464.9999999999999
 20
600.0000000000007
 30
0.0
 40
87.99999999999181
100
AcDbArc
 50
290.3720260692193
 51
309.6279739307803
  0
ARC
  5
234
330
1F
100
AcDbEntity
  8
LAY-10
  6
CONTINUOUS
 62
     7
100
AcDbCircle
 10
464.9999999999999
 20
600.0000000000007
 30
0.0
 40
83.99999999998056
100
AcDbArc
 50
290.3875229331976
 51
309.6124770668022
  0
LINE
  5
235
330
1F
100
AcDbEntity
  8
LAY-10
  6
CONTINUOUS
 62
     7
100
AcDbLine
 10
519.9581201426869
 20
535.1647855685
 30
0.0
 11
521.2514293285553
 21
533.6390423630502
 31
0.0
  0
LINE
  5
236
330
1F
100
AcDbEntity
  8
LAY-10
  6
CONTINUOUS
 62
     7
100
AcDbLine
 10
493.669882686147
 20
519.9872645964458
 30
0.0
 11
494.3445604687839
 21
518.1043543838115
 31
0.0
  0
LINE
  5
237
330
1F
100
AcDbEntity
  8
LAY-10
  6
CONTINUOUS
 62
     7
100
AcDbLine
 10
493.3345508850912
 20
520.9231182573768
 30
0.0
 11
492.3190824089281
 21
520.7925384782203
 31
0.0
  0
LINE
  5
238
330
1F
100
AcDbEntity
  8
LAY-10
  6
CONTINUOUS
 62
     7
100
AcDbLine
 10
492.3190824089281
 20
520.7925384782203
 30
0.0
 11
494.0778447516095
 21
515.8841338117898
 31
0.0
  0
LINE
  5
239
330
1F
100
AcDbEntity
  8
LAY-10
  6
CONTINUOUS
 62
     7
100
AcDbLine
 10
519.9361326426757
 20
536.7372498648979
 30
0.0
 11
519.3153129986241
 21
535.9231182573768
 31
0.0
  0
LINE
  5
23A
330
1F
100
AcDbEntity
  8
LAY-10
  6
CONTINUOUS
 62
     7
100
AcDbLine
 10
523.307554604518
 20
532.759914663701
 30
0.0
 11
519.9361326426757
 21
536.7372498648979
 31
0.0
  0
ARC
  5
23B
330
1F
100
AcDbEntity
  8
LAY-10
  6
CONTINUOUS
 62
     7
100
AcDbCircle
 10
520.4886093078096
 20
532.9924314940189
 30
0.0
 40
1.0
100
AcDbArc
 50
309.6279739307793
 51
40.28656061147203
  0
ARC
  5
23C
330
1F
100
AcDbEntity
  8
LAY-10
  6
CONTINUOUS
 62
     7
100
AcDbCircle
 10
519.1953001219412
 20
534.5181746994685
 30
0.0
 40
1.0
100
AcDbArc
 50
40.28656061147702
 51
129.6124770667834
  0
ARC
  5
23D
330
1F
100
AcDbEntity
  8
LAY-10
  6
CONTINUOUS
 62
     7
100
AcDbCircle
 10
495.2859519181011
 20
518.4416704657768
 30
0.0
 40
1.0
100
AcDbArc
 50
199.7134393885164
 51
290.3720260692168
  0
ARC
  5
23E
330
1F
100
AcDbEntity
  8
LAY-10
  6
CONTINUOUS
 62
     7
100
AcDbCircle
 10
494.6112741354643
 20
520.3245806784113
 30
0.0
 40
1.0
100
AcDbArc
 50
110.387522933202
 51
199.7134393885225
  0
ARC
  5
23F
330
1F
100
AcDbEntity
  8
LAY-10
  6
CONTINUOUS
 62
     7
100
AcDbCircle
 10
464.9999999999999
 20
600.0000000000001
 30
0.0
 40
83.78636061072302
100
AcDbArc
 50
310.970408668026
 51
319.0295913319737
  0
ARC
  5
240
330
1F
100
AcDbEntity
  8
LAY-10
  6
CONTINUOUS
 62
     7
100
AcDbCircle
 10
464.9999999999999
 20
600.0000000000001
 30
0.0
 40
83.78636061072302
100
AcDbArc
 50
340.9704086680263
 51
349.0295913319735
  0
ARC
  5
241
330
1F
100
AcDbEntity
  8
LAY-10
  6
CONTINUOUS
 62
     7
100
AcDbCircle
 10
464.9999999999999
 20
600.0000000000001
 30
0.0
 40
83.04014607837019
100
AcDbArc
 50
4.564022214054532
 51
86.81912292313312
  0
ARC
  5
242
330
1F
100
AcDbEntity
  8
LAY-10
  6
CONTINUOUS
 62
     7
100
AcDbCircle
 10
464.9999999999999
 20
600.0000000000001
 30
0.0
 40
83.78636061072302
100
AcDbArc
 50
10.97040866802667
 51
19.02959133197368
  0
ARC
  5
243
330
1F
100
AcDbEntity
  8
LAY-10
  6
CONTINUOUS
 62
     7
100
AcDbCircle
 10
464.9999999999999
 20
600.0000000000001
 30
0.0
 40
83.78636061072302
100
AcDbArc
 50
40.97040866802651
 51
49.02959133197398
  0
ARC
  5
244
330
1F
100
AcDbEntity
  8
LAY-10
  6
CONTINUOUS
 62
     7
100
AcDbCircle
 10
464.9999999999999
 20
600.0000000000001
 30
0.0
 40
83.78636061072302
100
AcDbArc
 50
70.97040866802601
 51
79.02959133197301
  0
ARC
  5
245
330
1F
100
AcDbEntity
  8
LAY-10
  6
CONTINUOUS
 62
     7
100
AcDbCircle
 10
464.9999999999999
 20
600.0000000000003
 30
0.0
 40
88.99999999995339
100
AcDbArc
 50
259.0696530385381
 51
280.9303469614625
  0
LINE
  5
246
330
1F
100
AcDbEntity
  8
LAY-10
  6
CONTINUOUS
 62
     7
100
AcDbLine
 10
480.7142857142881
 20
513.4144283122863
 30
0.0
 11
481.8757808519113
 21
512.6146006438724
 31
0.0
  0
LINE
  5
247
330
1F
100
AcDbEntity
  8
LAY-10
  6
CONTINUOUS
 62
     7
100
AcDbLine
 10
449.2857142857117
 20
513.4144283122863
 30
0.0
 11
448.1242191480887
 21
512.6146006438724
 31
0.0
  0
ARC
  5
248
330
1F
100
AcDbEntity
  8
LAY-10
  6
CONTINUOUS
 62
     7
100
AcDbCircle
 10
464.9999999999999
 20
600.0000000000003
 30
0.0
 40
87.99999999999181
100
AcDbArc
 50
260.3720260692195
 51
279.6279739307806
  0
ARC
  5
249
330
1F
100
AcDbEntity
  8
LAY-10
  6
CONTINUOUS
 62
     7
100
AcDbCircle
 10
464.9999999999999
 20
600.0000000000003
 30
0.0
 40
83.99999999998056
100
AcDbArc
 50
260.3875229331975
 51
279.6124770668024
  0
LINE
  5
24A
330
1F
100
AcDbEntity
  8
LAY-10
  6
CONTINUOUS
 62
     7
100
AcDbLine
 10
449.8224790279457
 20
516.3719971711657
 30
0.0
 11
449.4653120207609
 21
514.4040102026607
 31
0.0
  0
LINE
  5
24B
330
1F
100
AcDbEntity
  8
LAY-10
  6
CONTINUOUS
 62
     7
100
AcDbLine
 10
480.1775209720541
 20
516.3719971711658
 30
0.0
 11
480.5346879792391
 21
514.4040102026607
 31
0.0
  0
LINE
  5
24C
330
1F
100
AcDbEntity
  8
LAY-10
  6
CONTINUOUS
 62
     7
100
AcDbLine
 10
479.9999999999999
 20
517.3501361162847
 30
0.0
 11
480.9447113866777
 21
517.7447849483959
 31
0.0
  0
LINE
  5
24D
330
1F
100
AcDbEntity
  8
LAY-10
  6
CONTINUOUS
 62
     7
100
AcDbLine
 10
480.9447113866777
 20
517.7447849483959
 30
0.0
 11
481.8757808519113
 21
512.6146006438724
 31
0.0
  0
LINE
  5
24E
330
1F
100
AcDbEntity
  8
LAY-10
  6
CONTINUOUS
 62
     7
100
AcDbLine
 10
449.0552886133221
 20
517.7447849483962
 30
0.0
 11
449.9999999999998
 21
517.3501361162847
 31
0.0
  0
LINE
  5
24F
330
1F
100
AcDbEntity
  8
LAY-10
  6
CONTINUOUS
 62
     7
100
AcDbLine
 10
448.1242191480886
 20
512.6146006438724
 30
0.0
 11
449.0552886133221
 21
517.7447849483962
 31
0.0
  0
LINE
  5
250
330
1F
100
AcDbEntity
  8
LAY-10
  6
CONTINUOUS
 62
     7
100
AcDbLine
 10
469.6077535752955
 20
517.0877905992947
 30
0.0
 11
469.0000000000004
 21
516.5150329372924
 31
0.0
  0
LINE
  5
251
330
1F
100
AcDbEntity
  8
LAY-10
  6
CONTINUOUS
 62
     7
100
AcDbLine
 10
460.3922464247048
 20
517.0877905992947
 30
0.0
 11
461.0000000000004
 21
516.5150329372924
 31
0.0
  0
ARC
  5
252
330
1F
100
AcDbEntity
  8
LAY-10
  6
CONTINUOUS
 62
     7
100
AcDbCircle
 10
464.9999999999999
 20
600.0000000000003
 30
0.0
 40
83.58073776571632
100
AcDbArc
 50
267.2568955413264
 51
272.7431044586741
  0
LINE
  5
253
330
1F
100
AcDbEntity
  8
LAY-10
  6
CONTINUOUS
 62
     7
100
AcDbLine
 10
469.0000000000004
 20
516.5150329372924
 30
0.0
 11
469.0000000000004
 21
519.0988257192766
 31
0.0
  0
LINE
  5
254
330
1F
100
AcDbEntity
  8
LAY-10
  6
CONTINUOUS
 62
     7
100
AcDbLine
 10
469.6077535752955
 20
519.1311641793371
 30
0.0
 11
469.6077535752955
 21
517.0877905992947
 31
0.0
  0
LINE
  5
255
330
1F
100
AcDbEntity
  8
LAY-10
  6
CONTINUOUS
 62
     7
100
AcDbLine
 10
461.0000000000004
 20
516.5150329372924
 30
0.0
 11
461.0000000000004
 21
519.0988257192766
 31
0.0
  0
LINE
  5
256
330
1F
100
AcDbEntity
  8
LAY-10
  6
CONTINUOUS
 62
     7
100
AcDbLine
 10
460.3922464247048
 20
519.1311641793371
 30
0.0
 11
460.3922464247048
 21
517.0877905992947
 31
0.0
  0
ARC
  5
257
330
1F
100
AcDbEntity
  8
LAY-10
  6
CONTINUOUS
 62
     7
100
AcDbCircle
 10
450.4492389717578
 20
514.2254387740892
 30
0.0
 40
1.0
100
AcDbArc
 50
169.7134393885179
 51
260.3720260692199
  0
ARC
  5
258
330
1F
100
AcDbEntity
  8
LAY-10
  6
CONTINUOUS
 62
     7
100
AcDbCircle
 10
450.8064059789424
 20
516.1934257425943
 30
0.0
 40
1.0
100
AcDbArc
 50
80.38752293319607
 51
169.7134393885244
  0
ARC
  5
259
330
1F
100
AcDbEntity
  8
LAY-10
  6
CONTINUOUS
 62
     7
100
AcDbCircle
 10
479.5507610282422
 20
514.2254387740892
 30
0.0
 40
1.0
100
AcDbArc
 50
279.6279739307802
 51
10.28656061148257
  0
ARC
  5
25A
330
1F
100
AcDbEntity
  8
LAY-10
  6
CONTINUOUS
 62
     7
100
AcDbCircle
 10
479.1935940210573
 20
516.1934257425943
 30
0.0
 40
1.0
100
AcDbArc
 50
10.28656061148257
 51
99.61247706679751
  0
ARC
  5
25B
330
1F
100
AcDbEntity
  8
LAY-10
  6
CONTINUOUS
 62
     7
100
AcDbCircle
 10
464.9999999999999
 20
600.0000000000001
 30
0.0
 40
83.78636061072302
100
AcDbArc
 50
255.0000000000006
 51
259.0295913319731
  0
ARC
  5
25C
330
1F
100
AcDbEntity
  8
LAY-10
  6
CONTINUOUS
 62
     7
100
AcDbCircle
 10
464.9999999999999
 20
600.0000000000001
 30
0.0
 40
83.78636061072302
100
AcDbArc
 50
280.9704086680273
 51
289.0295913319741
  0
ARC
  5
25D
330
1F
100
AcDbEntity
  8
LAY-10
  6
CONTINUOUS
 62
     7
100
AcDbCircle
 10
464.9999999999999
 20
600.0000000000001
 30
0.0
 40
83.04014607837019
100
AcDbArc
 50
273.1808770768669
 51
355.4359777859454
  0
ARC
  5
25E
330
1F
100
AcDbEntity
  8
LAY-10
  6
CONTINUOUS
 62
     7
100
AcDbCircle
 10
464.9999999999999
 20
600.0000000000001
 30
0.0
 40
83.04014607837019
100
AcDbArc
 50
255.0000000000008
 51
266.8191229231335
  0
LINE
  5
25F
330
1F
100
AcDbEntity
  8
LAY-10
  6
CONTINUOUS
 62
     7
100
AcDbLine
 10
526.2537382089155
 20
280.9999999999836
 30
0.0
 11
528.7462617910802
 21
280.9999999999836
 31
0.0
  0
LINE
  5
260
330
1F
100
AcDbEntity
  8
LAY-10
  6
CONTINUOUS
 62
     7
100
AcDbLine
 10
383.6526490943838
 20
307.9235176116899
 30
0.0
 11
384.056416051408
 21
307.9235176116899
 31
0.0
  0
LINE
  5
261
330
1F
100
AcDbEntity
  8
LAY-10
  6
CONTINUOUS
 62
     7
100
AcDbLine
 10
545.9435839485919
 20
307.9235176116899
 30
0.0
 11
546.3473509056167
 21
307.9235176116899
 31
0.0
  0
LINE
  5
262
330
1F
100
AcDbEntity
  8
LAY-10
  6
HIDDEN
 62
     7
100
AcDbLine
 10
404.4454695892666
 20
353.9999999999998
 30
0.0
 11
400.4234364710125
 21
353.9999999999998
 31
0.0
  0
LINE
  5
263
330
1F
100
AcDbEntity
  8
LAY-10
  6
CONTINUOUS
 62
     7
100
AcDbLine
 10
534.3062541159414
 20
308.9999999999997
 30
0.0
 11
546.0000000000005
 21
308.9999999999997
 31
0.0
  0
ARC
  5
264
330
1F
100
AcDbEntity
  8
LAY-10
  6
CONTINUOUS
 62
     7
100
AcDbCircle
 10
464.9999999999999
 20
361.4999999999998
 30
0.0
 40
3.0
100
AcDbArc
 50
90.0
 51
270.0
  0
LINE
  5
265
330
1F
100
AcDbEntity
  8
LAY-10
  6
CONTINUOUS
 62
     7
100
AcDbLine
 10
401.9999999999974
 20
368.9999999999998
 30
0.0
 11
528.0000000000025
 21
368.9999999999998
 31
0.0
  0
ARC
  5
266
330
1F
100
AcDbEntity
  8
LAY-10
  6
CONTINUOUS
 62
     7
100
AcDbCircle
 10
543.8400319701557
 20
305.9999999999998
 30
0.0
 40
2.0
100
AcDbArc
 50
270.0
 51
357.0000000000009
  0
LINE
  5
267
330
1F
100
AcDbEntity
  8
LAY-10
  6
CONTINUOUS
 62
     7
100
AcDbLine
 10
523.9779668817484
 20
368.9999999999998
 30
0.0
 11
524.5034880580768
 21
363.9999999999996
 31
0.0
  0
LINE
  5
268
330
1F
100
AcDbEntity
  8
LAY-10
  6
CONTINUOUS
 62
     7
100
AcDbLine
 10
384.1627089603351
 20
305.895328087514
 30
0.0
 11
383.8427766621503
 21
311.9999999999997
 31
0.0
  0
ARC
  5
269
330
1F
100
AcDbEntity
  8
LAY-10
  6
CONTINUOUS
 62
     7
100
AcDbCircle
 10
386.1599680298443
 20
305.9999999999998
 30
0.0
 40
2.0
100
AcDbArc
 50
182.9999999999991
 51
234.5505816581188
  0
LINE
  5
26A
330
1F
100
AcDbEntity
  8
LAY-10
  6
CONTINUOUS
 62
     7
100
AcDbLine
 10
396.0090585898554
 20
311.9999999999997
 30
0.0
 11
401.9999999999974
 21
368.9999999999998
 31
0.0
  0
LINE
  5
26B
330
1F
100
AcDbEntity
  8
LAY-10
  6
CONTINUOUS
 62
     7
100
AcDbLine
 10
406.0220331182513
 20
368.9999999999998
 30
0.0
 11
399.1902578259841
 21
303.9999999999998
 31
0.0
  0
LINE
  5
26C
330
1F
100
AcDbEntity
  8
LAY-10
  6
CONTINUOUS
 62
     7
100
AcDbLine
 10
460.999999999999
 20
353.9999999999998
 30
0.0
 11
460.999999999999
 21
303.9999999999998
 31
0.0
  0
LINE
  5
26D
330
1F
100
AcDbEntity
  8
LAY-10
  6
CONTINUOUS
 62
     7
100
AcDbLine
 10
459.9999999999999
 20
353.9999999999998
 30
0.0
 11
459.9999999999999
 21
303.9999999999998
 31
0.0
  0
LINE
  5
26E
330
1F
100
AcDbEntity
  8
LAY-10
  6
CONTINUOUS
 62
     7
100
AcDbLine
 10
460.999999999999
 20
353.9999999999998
 30
0.0
 11
450.132716667962
 21
353.9999999999998
 31
0.0
  0
LINE
  5
26F
330
1F
100
AcDbEntity
  8
LAY-10
  6
CONTINUOUS
 62
     7
100
AcDbLine
 10
459.9999999999999
 20
308.9999999999997
 30
0.0
 11
448.6682189580537
 21
308.9999999999997
 31
0.0
  0
LINE
  5
270
330
1F
100
AcDbEntity
  8
LAY-10
  6
CONTINUOUS
 62
     7
100
AcDbLine
 10
448.505496990286
 20
303.9999999999998
 30
0.0
 11
450.132716667962
 21
353.9999999999998
 31
0.0
  0
LINE
  5
271
330
1F
100
AcDbEntity
  8
LAY-10
  6
CONTINUOUS
 62
     7
100
AcDbLine
 10
440.8970448599247
 20
303.9999999999998
 30
0.0
 11
442.5242645375988
 21
353.9999999999998
 31
0.0
  0
LINE
  5
272
330
1F
100
AcDbEntity
  8
LAY-10
  6
CONTINUOUS
 62
     7
100
AcDbLine
 10
440.3493677798416
 20
353.9999999999998
 30
0.0
 11
438.7208977213472
 21
303.9999999999998
 31
0.0
  0
LINE
  5
273
330
1F
100
AcDbEntity
  8
LAY-10
  6
CONTINUOUS
 62
     7
100
AcDbLine
 10
442.5242645375988
 20
353.9999999999998
 30
0.0
 11
432.7207466149213
 21
353.9999999999998
 31
0.0
  0
LINE
  5
274
330
1F
100
AcDbEntity
  8
LAY-10
  6
CONTINUOUS
 62
     7
100
AcDbLine
 10
438.8837447271967
 20
308.9999999999997
 30
0.0
 11
429.9351064347028
 21
308.9999999999997
 31
0.0
  0
LINE
  5
275
330
1F
100
AcDbEntity
  8
LAY-10
  6
CONTINUOUS
 62
     7
100
AcDbLine
 10
432.7207466149213
 20
353.9999999999998
 30
0.0
 11
429.625590859123
 21
303.9999999999998
 31
0.0
  0
LINE
  5
276
330
1F
100
AcDbEntity
  8
LAY-10
  6
CONTINUOUS
 62
     7
100
AcDbLine
 10
426.2486106599146
 20
353.9999999999998
 30
0.0
 11
423.1534549041236
 21
303.9999999999998
 31
0.0
  0
LINE
  5
277
330
1F
100
AcDbEntity
  8
LAY-10
  6
CONTINUOUS
 62
     7
100
AcDbLine
 10
423.1117111924469
 20
353.9999999999998
 30
0.0
 11
420.0141770710004
 21
303.9999999999998
 31
0.0
  0
LINE
  5
278
330
1F
100
AcDbEntity
  8
LAY-10
  6
CONTINUOUS
 62
     7
100
AcDbLine
 10
426.2486106599146
 20
353.9999999999998
 30
0.0
 11
418.468494785988
 21
353.9999999999998
 31
0.0
  0
LINE
  5
279
330
1F
100
AcDbEntity
  8
LAY-10
  6
CONTINUOUS
 62
     7
100
AcDbLine
 10
420.3239304831451
 20
308.9999999999997
 30
0.0
 11
414.6343900050014
 21
308.9999999999997
 31
0.0
  0
LINE
  5
27A
330
1F
100
AcDbEntity
  8
LAY-10
  6
CONTINUOUS
 62
     7
100
AcDbLine
 10
414.2083783626694
 20
303.9999999999998
 30
0.0
 11
418.468494785988
 21
353.9999999999998
 31
0.0
  0
LINE
  5
27B
330
1F
100
AcDbEntity
  8
LAY-10
  6
CONTINUOUS
 62
     7
100
AcDbLine
 10
409.5060963443296
 20
303.9999999999998
 30
0.0
 11
413.7662127676428
 21
353.9999999999998
 31
0.0
  0
LINE
  5
27C
330
1F
100
AcDbEntity
  8
LAY-10
  6
CONTINUOUS
 62
     7
100
AcDbLine
 10
405.7109822036019
 20
303.9999999999998
 30
0.0
 11
409.9743721664003
 21
353.9999999999998
 31
0.0
  0
LINE
  5
27D
330
1F
100
AcDbEntity
  8
LAY-10
  6
CONTINUOUS
 62
     7
100
AcDbLine
 10
413.7662127676428
 20
353.9999999999998
 30
0.0
 11
408.7710708914653
 21
353.9999999999998
 31
0.0
  0
LINE
  5
27E
330
1F
100
AcDbEntity
  8
LAY-10
  6
CONTINUOUS
 62
     7
100
AcDbLine
 10
406.1373211998816
 20
308.9999999999997
 30
0.0
 11
404.2638103994491
 21
308.9999999999997
 31
0.0
  0
LINE
  5
27F
330
1F
100
AcDbEntity
  8
LAY-10
  6
CONTINUOUS
 62
     7
100
AcDbLine
 10
403.763003678114
 20
303.9999999999998
 30
0.0
 11
408.7710708914653
 21
353.9999999999998
 31
0.0
  0
LINE
  5
280
330
1F
100
AcDbEntity
  8
LAY-10
  6
CONTINUOUS
 62
     7
100
AcDbLine
 10
401.2908677231146
 20
303.9999999999998
 30
0.0
 11
406.2989349364593
 21
353.9999999999998
 31
0.0
  0
LINE
  5
281
330
1F
100
AcDbEntity
  8
LAY-10
  6
CONTINUOUS
 62
     7
100
AcDbLine
 10
406.2989349364595
 20
353.9999999999998
 30
0.0
 11
404.4454695892666
 21
353.9999999999998
 31
0.0
  0
LINE
  5
282
330
1F
100
AcDbEntity
  8
LAY-10
  6
CONTINUOUS
 62
     7
100
AcDbLine
 10
393.3199322981883
 20
305.895328087514
 30
0.0
 11
393.0000000000035
 21
311.9999999999997
 31
0.0
  0
ARC
  5
283
330
1F
100
AcDbEntity
  8
LAY-10
  6
CONTINUOUS
 62
     7
100
AcDbCircle
 10
395.3171913676973
 20
305.9999999999998
 30
0.0
 40
2.0
100
AcDbArc
 50
182.9999999999991
 51
270.0
  0
LINE
  5
284
330
1F
100
AcDbEntity
  8
LAY-10
  6
CONTINUOUS
 62
     7
100
AcDbLine
 10
545.8372910396648
 20
305.895328087514
 30
0.0
 11
546.0000000000005
 21
308.9999999999997
 31
0.0
  0
LINE
  5
285
330
1F
100
AcDbEntity
  8
LAY-10
  6
CONTINUOUS
 62
     7
100
AcDbLine
 10
534.3062541159414
 20
308.9999999999997
 30
0.0
 11
529.051042352659
 21
358.9999999999997
 31
0.0
  0
LINE
  5
286
330
1F
100
AcDbEntity
  8
LAY-10
  6
CONTINUOUS
 62
     7
100
AcDbLine
 10
395.8743400784956
 20
605.0000000000002
 30
0.0
 11
400.6172961330968
 21
605.0000000000002
 31
0.0
  0
LINE
  5
287
330
1F
100
AcDbEntity
  8
LAY-10
  6
CONTINUOUS
 62
     7
100
AcDbLine
 10
395.8743400784956
 20
595.0000000000002
 30
0.0
 11
400.6172961330968
 21
595.0000000000002
 31
0.0
  0
LINE
  5
288
330
1F
100
AcDbEntity
  8
LAY-10
  6
CONTINUOUS
 62
     7
100
AcDbLine
 10
397.7125057165762
 20
583.3942789183457
 30
0.0
 11
402.2233249788062
 21
584.8599329427911
 31
0.0
  0
LINE
  5
289
330
1F
100
AcDbEntity
  8
LAY-10
  6
CONTINUOUS
 62
     7
100
AcDbLine
 10
400.8026756603258
 20
573.8837137553942
 30
0.0
 11
405.3134949225556
 21
575.3493677798396
 31
0.0
  0
LINE
  5
28A
330
1F
100
AcDbEntity
  8
LAY-10
  6
CONTINUOUS
 62
     7
100
AcDbLine
 10
412.0150926375836
 20
555.3238715712762
 30
0.0
 11
415.8522246893293
 21
558.111711192442
 31
0.0
  0
LINE
  5
28B
330
1F
100
AcDbEntity
  8
LAY-10
  6
CONTINUOUS
 62
     7
100
AcDbLine
 10
420.3238715712831
 20
547.0150926375765
 30
0.0
 11
423.111711192449
 21
550.8522246893224
 31
0.0
  0
LINE
  5
28C
330
1F
100
AcDbEntity
  8
LAY-10
  6
CONTINUOUS
 62
     7
100
AcDbLine
 10
428.4140415150327
 20
541.1372401146517
 30
0.0
 11
431.2018811361986
 21
544.9743721663976
 31
0.0
  0
LINE
  5
28D
330
1F
100
AcDbEntity
  8
LAY-10
  6
CONTINUOUS
 62
     7
100
AcDbLine
 10
438.8837137554011
 20
535.8026756603188
 30
0.0
 11
440.3493677798465
 21
540.3134949225487
 31
0.0
  0
LINE
  5
28E
330
1F
100
AcDbEntity
  8
LAY-10
  6
CONTINUOUS
 62
     7
100
AcDbLine
 10
460.0000000000074
 20
668.9999999999981
 30
0.0
 11
460.0000000000074
 21
664.3827038669106
 31
0.0
  0
LINE
  5
28F
330
1F
100
AcDbEntity
  8
LAY-10
  6
CONTINUOUS
 62
     7
100
AcDbLine
 10
448.3942789183528
 20
667.2874942834313
 30
0.0
 11
449.8599329427981
 21
662.7766750212014
 31
0.0
  0
LINE
  5
290
330
1F
100
AcDbEntity
  8
LAY-10
  6
CONTINUOUS
 62
     7
100
AcDbLine
 10
438.8837137554013
 20
664.1973243396818
 30
0.0
 11
440.3493677798465
 21
659.6865050774518
 31
0.0
  0
LINE
  5
291
330
1F
100
AcDbEntity
  8
LAY-10
  6
CONTINUOUS
 62
     7
100
AcDbLine
 10
428.4140415150327
 20
658.8627598853486
 30
0.0
 11
431.2018811361986
 21
655.0256278336027
 31
0.0
  0
LINE
  5
292
330
1F
100
AcDbEntity
  8
LAY-10
  6
CONTINUOUS
 62
     7
100
AcDbLine
 10
420.3238715712833
 20
652.9849073624239
 30
0.0
 11
423.1117111924491
 21
649.147775310678
 31
0.0
  0
LINE
  5
293
330
1F
100
AcDbEntity
  8
LAY-10
  6
CONTINUOUS
 62
     7
100
AcDbLine
 10
412.0150926375836
 20
644.6761284287245
 30
0.0
 11
415.8522246893293
 21
641.8882888075586
 31
0.0
  0
LINE
  5
294
330
1F
100
AcDbEntity
  8
LAY-10
  6
CONTINUOUS
 62
     7
100
AcDbLine
 10
406.1372401146588
 20
636.5859584849749
 30
0.0
 11
409.9743721664047
 21
633.798118863809
 31
0.0
  0
LINE
  5
295
330
1F
100
AcDbEntity
  8
LAY-10
  6
CONTINUOUS
 62
     7
100
AcDbLine
 10
400.8026756603258
 20
626.1162862446063
 30
0.0
 11
405.3134949225556
 21
624.650632220161
 31
0.0
  0
LINE
  5
296
330
1F
100
AcDbEntity
  8
LAY-10
  6
CONTINUOUS
 62
     7
100
AcDbLine
 10
397.7125057165764
 20
616.6057210816548
 30
0.0
 11
402.2233249788062
 21
615.1400670572095
 31
0.0
  0
ARC
  5
297
330
1F
100
AcDbEntity
  8
LAY-10
  6
CONTINUOUS
 62
     7
100
AcDbCircle
 10
464.9999999999999
 20
600.0000000000001
 30
0.0
 40
64.57656352898738
100
AcDbArc
 50
76.4407118878273
 51
85.559288112159
  0
ARC
  5
298
330
1F
100
AcDbEntity
  8
LAY-10
  6
CONTINUOUS
 62
     7
100
AcDbCircle
 10
464.9999999999999
 20
600.0000000000001
 30
0.0
 40
64.57656352898738
100
AcDbArc
 50
94.44071188782758
 51
103.5592881121592
  0
ARC
  5
299
330
1F
100
AcDbEntity
  8
LAY-10
  6
CONTINUOUS
 62
     7
100
AcDbCircle
 10
464.9999999999999
 20
600.0000000000001
 30
0.0
 40
64.57656352898738
100
AcDbArc
 50
112.4407118878279
 51
121.5592881121598
  0
ARC
  5
29A
330
1F
100
AcDbEntity
  8
LAY-10
  6
CONTINUOUS
 62
     7
100
AcDbCircle
 10
464.9999999999999
 20
600.0000000000001
 30
0.0
 40
64.57656352898738
100
AcDbArc
 50
130.4407118878287
 51
139.5592881121615
  0
ARC
  5
29B
330
1F
100
AcDbEntity
  8
LAY-10
  6
CONTINUOUS
 62
     7
100
AcDbCircle
 10
464.9999999999999
 20
600.0000000000001
 30
0.0
 40
64.57656352898738
100
AcDbArc
 50
148.4407118878301
 51
157.5592881121635
  0
ARC
  5
29C
330
1F
100
AcDbEntity
  8
LAY-10
  6
CONTINUOUS
 62
     7
100
AcDbCircle
 10
464.9999999999999
 20
600.0000000000001
 30
0.0
 40
64.57656352898738
100
AcDbArc
 50
166.4407118878322
 51
175.5592881121656
  0
ARC
  5
29D
330
1F
100
AcDbEntity
  8
LAY-10
  6
CONTINUOUS
 62
     7
100
AcDbCircle
 10
464.9999999999999
 20
600.0000000000001
 30
0.0
 40
64.57656352898738
100
AcDbArc
 50
184.4407118878341
 51
193.5592881121674
  0
ARC
  5
29E
330
1F
100
AcDbEntity
  8
LAY-10
  6
CONTINUOUS
 62
     7
100
AcDbCircle
 10
464.9999999999999
 20
600.0000000000001
 30
0.0
 40
64.57656352898738
100
AcDbArc
 50
202.4407118878357
 51
207.3372812475741
  0
ARC
  5
29F
330
1F
100
AcDbEntity
  8
LAY-10
  6
CONTINUOUS
 62
     7
100
AcDbCircle
 10
464.9999999999999
 20
600.0000000000001
 30
0.0
 40
64.57656352898738
100
AcDbArc
 50
220.4407118878378
 51
229.5592881121708
  0
ARC
  5
2A0
330
1F
100
AcDbEntity
  8
LAY-10
  6
CONTINUOUS
 62
     7
100
AcDbCircle
 10
464.9999999999999
 20
600.0000000000001
 30
0.0
 40
64.57656352898738
100
AcDbArc
 50
238.4407118878396
 51
247.5592881121719
  0
LINE
  5
2A1
330
1F
100
AcDbEntity
  8
LAY-10
  6
CONTINUOUS
 62
     7
100
AcDbLine
 10
469.9999999999928
 20
668.9999999999981
 30
0.0
 11
469.9999999999928
 21
664.3827038669037
 31
0.0
  0
LINE
  5
2A2
330
1F
100
AcDbEntity
  8
LAY-10
  6
CONTINUOUS
 62
     7
100
AcDbLine
 10
481.6057210816662
 20
667.2874942834208
 30
0.0
 11
480.1400670572212
 21
662.776675021192
 31
0.0
  0
LINE
  5
2A3
330
1F
100
AcDbEntity
  8
LAY-10
  6
CONTINUOUS
 62
     7
100
AcDbLine
 10
384.5996323728162
 20
604.0000000000002
 30
0.0
 11
384.0988257192764
 21
604.0000000000002
 31
0.0
  0
LINE
  5
2A4
330
1F
100
AcDbEntity
  8
LAY-10
  6
CONTINUOUS
 62
     7
100
AcDbLine
 10
384.599632372816
 20
596.0000000000002
 30
0.0
 11
384.0988257192764
 21
596.0000000000002
 31
0.0
  0
LINE
  5
2A5
330
1F
100
AcDbEntity
  8
LAY-10
  6
CONTINUOUS
 62
     7
100
AcDbLine
 10
384.6196541435656
 20
610.0000000000002
 30
0.0
 11
396.4189759511897
 21
610.0000000000002
 31
0.0
  0
LINE
  5
2A6
330
1F
100
AcDbEntity
  8
LAY-10
  6
CONTINUOUS
 62
     7
100
AcDbLine
 10
384.6196541435656
 20
590.0000000000002
 30
0.0
 11
396.4189759511897
 21
590.0000000000002
 31
0.0
  0
TEXT
  5
2A7
330
1F
100
AcDbEntity
  8
LAY-10
  6
CONTINUOUS
 62
     7
100
AcDbText
 10
484.7907493021978
 20
675.7439012638258
 30
0.0
 40
5.456692828292274
  1
Ｘ
 50
167.0960137371576
 41
1.2
  7
EXCADSTD
100
AcDbText
  0
TEXT
  5
2A8
330
1F
100
AcDbEntity
  8
LAY-10
  6
CONTINUOUS
 62
     7
100
AcDbText
 10
479.2265779055685
 20
677.0213816246063
 30
0.0
 40
5.456692828292274
  1
－
 50
171.3973424914395
 41
1.2
  7
EXCADSTD
100
AcDbText
  0
TEXT
  5
2A9
330
1F
100
AcDbEntity
  8
LAY-10
  6
CONTINUOUS
 62
     7
100
AcDbText
 10
473.5822651913711
 20
677.8779406637839
 30
0.0
 40
5.456692828292274
  1
１
 50
175.698671245719
 41
1.2
  7
EXCADSTD
100
AcDbText
  0
TEXT
  5
2AA
330
1F
100
AcDbEntity
  8
LAY-10
  6
CONTINUOUS
 62
     7
100
AcDbText
 10
462.1806705735914
 20
678.3113923854798
 30
0.0
 40
5.456692828292274
  1
１
 50
184.3013287542809
 41
1.2
  7
EXCADSTD
100
AcDbText
  0
TEXT
  5
2AB
330
1F
100
AcDbEntity
  8
LAY-10
  6
CONTINUOUS
 62
     7
100
AcDbText
 10
467.889606765034
 20
678.308753203412
 30
0.0
 40
5.456692828292274
  1
０
 50
180.0
 41
1.2
  7
EXCADSTD
100
AcDbText
  0
TEXT
  5
2AC
330
1F
100
AcDbEntity
  8
LAY-10
  6
CONTINUOUS
 62
     7
100
AcDbText
 10
456.4876162601652
 20
677.8858433429175
 30
0.0
 40
5.456692828292274
  1
０
 50
188.6026575085617
 41
1.2
  7
EXCADSTD
100
AcDbText
  0
TEXT
  5
2AD
330
1F
100
AcDbEntity
  8
LAY-10
  6
CONTINUOUS
 62
     7
100
AcDbText
 10
450.842514001905
 20
677.0345032833453
 30
0.0
 40
5.456692828292274
  1
０
 50
192.9039862628427
 41
1.2
  7
EXCADSTD
100
AcDbText
  0
CIRCLE
  5
2AE
330
1F
100
AcDbEntity
  8
LAY-10
  6
CONTINUOUS
 62
     7
100
AcDbCircle
 10
464.9999999999999
 20
599.999999999973
 30
0.0
 40
58.97796688174855
  0
CIRCLE
  5
2AF
330
1F
100
AcDbEntity
  8
LAY-10
  6
CONTINUOUS
 62
     7
100
AcDbCircle
 10
464.9999999999999
 20
600.0000000000001
 30
0.0
 40
63.00000000000261
  0
LINE
  5
2B0
330
1F
100
AcDbEntity
  8
LAY-10
  6
CONTINUOUS
 62
     7
100
AcDbLine
 10
460.0000000000072
 20
530.8743400784884
 30
0.0
 11
460.0000000000072
 21
535.6172961330896
 31
0.0
  0
LINE
  5
2B1
330
1F
100
AcDbEntity
  8
LAY-10
  6
CONTINUOUS
 62
     7
100
AcDbLine
 10
448.3942789183527
 20
532.7125057165689
 30
0.0
 11
449.8599329427981
 21
537.2233249787989
 31
0.0
  0
ARC
  5
2B2
330
1F
100
AcDbEntity
  8
LAY-10
  6
CONTINUOUS
 62
     7
100
AcDbCircle
 10
464.9999999999999
 20
600.0000000000001
 30
0.0
 40
64.57656352898738
100
AcDbArc
 50
256.4407118878406
 51
265.5592881121723
  0
LINE
  5
2B3
330
1F
100
AcDbEntity
  8
LAY-10
  6
CONTINUOUS
 62
     7
100
AcDbLine
 10
501.5859584849671
 20
541.1372401146517
 30
0.0
 11
498.7981188638013
 21
544.9743721663976
 31
0.0
  0
LINE
  5
2B4
330
1F
100
AcDbEntity
  8
LAY-10
  6
CONTINUOUS
 62
     7
100
AcDbLine
 10
491.1162862445988
 20
535.8026756603186
 30
0.0
 11
489.6506322201533
 21
540.3134949225486
 31
0.0
  0
ARC
  5
2B5
330
1F
100
AcDbEntity
  8
LAY-10
  6
CONTINUOUS
 62
     7
100
AcDbCircle
 10
464.9999999999999
 20
600.0000000000001
 30
0.0
 40
64.57656352898738
100
AcDbArc
 50
292.4407118878279
 51
301.5592881121605
  0
LINE
  5
2B6
330
1F
100
AcDbEntity
  8
LAY-10
  6
CONTINUOUS
 62
     7
100
AcDbLine
 10
469.9999999999927
 20
530.8743400784883
 30
0.0
 11
469.9999999999927
 21
535.6172961330896
 31
0.0
  0
LINE
  5
2B7
330
1F
100
AcDbEntity
  8
LAY-10
  6
CONTINUOUS
 62
     7
100
AcDbLine
 10
481.6057210816471
 20
532.7125057165689
 30
0.0
 11
480.1400670572018
 21
537.2233249787989
 31
0.0
  0
ARC
  5
2B8
330
1F
100
AcDbEntity
  8
LAY-10
  6
CONTINUOUS
 62
     7
100
AcDbCircle
 10
464.9999999999999
 20
600.0000000000001
 30
0.0
 40
64.57656352898738
100
AcDbArc
 50
274.4407118878277
 51
283.5592881121594
  0
LINE
  5
2B9
330
1F
100
AcDbEntity
  8
LAY-10
  6
CONTINUOUS
 62
     7
100
AcDbLine
 10
517.9849073624163
 20
555.3238715712762
 30
0.0
 11
514.1477753106705
 21
558.111711192442
 31
0.0
  0
LINE
  5
2BA
330
1F
100
AcDbEntity
  8
LAY-10
  6
CONTINUOUS
 62
     7
100
AcDbLine
 10
509.6761284287166
 20
547.0150926375765
 30
0.0
 11
506.8882888075507
 21
550.8522246893223
 31
0.0
  0
ARC
  5
2BB
330
1F
100
AcDbEntity
  8
LAY-10
  6
CONTINUOUS
 62
     7
100
AcDbCircle
 10
464.9999999999999
 20
600.0000000000001
 30
0.0
 40
64.57656352898738
100
AcDbArc
 50
310.4407118878291
 51
319.5592881121622
  0
LINE
  5
2BC
330
1F
100
AcDbEntity
  8
LAY-10
  6
CONTINUOUS
 62
     7
100
AcDbLine
 10
529.1973243396741
 20
573.8837137553942
 30
0.0
 11
524.6865050774442
 21
575.3493677798394
 31
0.0
  0
LINE
  5
2BD
330
1F
100
AcDbEntity
  8
LAY-10
  6
CONTINUOUS
 62
     7
100
AcDbLine
 10
534.1256599215042
 20
605.0000000000002
 30
0.0
 11
529.382703866903
 21
605.0000000000002
 31
0.0
  0
LINE
  5
2BE
330
1F
100
AcDbEntity
  8
LAY-10
  6
CONTINUOUS
 62
     7
100
AcDbLine
 10
534.1256599215042
 20
595.0000000000001
 30
0.0
 11
529.382703866903
 21
595.0000000000001
 31
0.0
  0
LINE
  5
2BF
330
1F
100
AcDbEntity
  8
LAY-10
  6
CONTINUOUS
 62
     7
100
AcDbLine
 10
532.2874942834237
 20
583.3942789183457
 30
0.0
 11
527.7766750211937
 21
584.8599329427909
 31
0.0
  0
LINE
  5
2C0
330
1F
100
AcDbEntity
  8
LAY-10
  6
CONTINUOUS
 62
     7
100
AcDbLine
 10
491.1162862445988
 20
664.1973243396818
 30
0.0
 11
489.6506322201533
 21
659.6865050774517
 31
0.0
  0
LINE
  5
2C1
330
1F
100
AcDbEntity
  8
LAY-10
  6
CONTINUOUS
 62
     7
100
AcDbLine
 10
501.5859584849671
 20
658.8627598853486
 30
0.0
 11
498.7981188638013
 21
655.0256278336027
 31
0.0
  0
LINE
  5
2C2
330
1F
100
AcDbEntity
  8
LAY-10
  6
CONTINUOUS
 62
     7
100
AcDbLine
 10
509.6761284287166
 20
652.9849073624238
 30
0.0
 11
506.8882888075507
 21
649.147775310678
 31
0.0
  0
LINE
  5
2C3
330
1F
100
AcDbEntity
  8
LAY-10
  6
CONTINUOUS
 62
     7
100
AcDbLine
 10
517.9849073624163
 20
644.6761284287245
 30
0.0
 11
514.1477753106705
 21
641.8882888075586
 31
0.0
  0
LINE
  5
2C4
330
1F
100
AcDbEntity
  8
LAY-10
  6
CONTINUOUS
 62
     7
100
AcDbLine
 10
523.8627598853411
 20
636.5859584849749
 30
0.0
 11
520.0256278335954
 21
633.798118863809
 31
0.0
  0
LINE
  5
2C5
330
1F
100
AcDbEntity
  8
LAY-10
  6
CONTINUOUS
 62
     7
100
AcDbLine
 10
529.1973243396741
 20
626.1162862446062
 30
0.0
 11
524.6865050774443
 21
624.6506322201609
 31
0.0
  0
LINE
  5
2C6
330
1F
100
AcDbEntity
  8
LAY-10
  6
CONTINUOUS
 62
     7
100
AcDbLine
 10
532.2874942834237
 20
616.6057210816546
 30
0.0
 11
527.7766750211939
 21
615.1400670572093
 31
0.0
  0
ARC
  5
2C7
330
1F
100
AcDbEntity
  8
LAY-10
  6
CONTINUOUS
 62
     7
100
AcDbCircle
 10
464.9999999999999
 20
600.0000000000001
 30
0.0
 40
64.57656352898738
100
AcDbArc
 50
58.4407118878397
 51
67.55928811217203
  0
ARC
  5
2C8
330
1F
100
AcDbEntity
  8
LAY-10
  6
CONTINUOUS
 62
     7
100
AcDbCircle
 10
464.9999999999999
 20
600.0000000000001
 30
0.0
 40
64.57656352898738
100
AcDbArc
 50
40.44071188783789
 51
49.55928811217084
  0
ARC
  5
2C9
330
1F
100
AcDbEntity
  8
LAY-10
  6
CONTINUOUS
 62
     7
100
AcDbCircle
 10
464.9999999999999
 20
600.0000000000001
 30
0.0
 40
64.57656352898738
100
AcDbArc
 50
22.44071188783613
 51
31.55928811216943
  0
ARC
  5
2CA
330
1F
100
AcDbEntity
  8
LAY-10
  6
CONTINUOUS
 62
     7
100
AcDbCircle
 10
464.9999999999999
 20
600.0000000000001
 30
0.0
 40
64.57656352898738
100
AcDbArc
 50
4.440711887834148
 51
13.55928811216732
  0
ARC
  5
2CB
330
1F
100
AcDbEntity
  8
LAY-10
  6
CONTINUOUS
 62
     7
100
AcDbCircle
 10
464.9999999999999
 20
600.0000000000001
 30
0.0
 40
64.57656352898738
100
AcDbArc
 50
346.4407118878325
 51
355.5592881121659
  0
LINE
  5
2CC
330
1F
100
AcDbEntity
  8
LAY-10
  6
CONTINUOUS
 62
     7
100
AcDbLine
 10
464.9999999999998
 20
529.6188021488983
 30
0.0
 11
457.000000008
 21
525.0
 31
0.0
  0
LINE
  5
2CD
330
1F
100
AcDbEntity
  8
LAY-10
  6
CONTINUOUS
 62
     7
100
AcDbLine
 10
464.9999999999987
 20
520.3811978510996
 30
0.0
 11
457.0000000079988
 21
524.999999999998
 31
0.0
  0
TEXT
  5
2CE
330
1F
100
AcDbEntity
  8
LAY-10
  6
CONTINUOUS
 62
     7
100
AcDbText
 10
459.9600000050398
 20
522.7896064701943
 30
0.0
 40
4.365354485658455
  1
ＳＦ
 41
1.15
  7
EXCADSTD
100
AcDbText
  0
LINE
  5
2CF
330
1F
100
AcDbEntity
  8
LAY-10
  6
CONTINUOUS
 62
     7
100
AcDbLine
 10
464.9999999999998
 20
529.6188021488983
 30
0.0
 11
472.9999999919999
 21
525.0
 31
0.0
  0
LINE
  5
2D0
330
1F
100
AcDbEntity
  8
LAY-10
  6
CONTINUOUS
 62
     7
100
AcDbLine
 10
465.0000000000011
 20
520.3811978510996
 30
0.0
 11
472.9999999920013
 21
524.999999999998
 31
0.0
  0
LINE
  5
2D1
330
1F
100
AcDbEntity
  8
LAY-10
  6
CONTINUOUS
 62
     7
100
AcDbLine
 10
545.4003676271839
 20
604.0000000000001
 30
0.0
 11
545.9011742807235
 21
604.0000000000001
 31
0.0
  0
LINE
  5
2D2
330
1F
100
AcDbEntity
  8
LAY-10
  6
CONTINUOUS
 62
     7
100
AcDbLine
 10
545.4003676271838
 20
596.0
 30
0.0
 11
545.9011742807235
 21
596.0
 31
0.0
  0
LINE
  5
2D3
330
1F
100
AcDbEntity
  8
LAY-10
  6
CONTINUOUS
 62
     7
100
AcDbLine
 10
545.3803458564344
 20
610.0000000000001
 30
0.0
 11
533.58102404881
 21
610.0000000000001
 31
0.0
  0
LINE
  5
2D4
330
1F
100
AcDbEntity
  8
LAY-10
  6
CONTINUOUS
 62
     7
100
AcDbLine
 10
545.3803458564344
 20
590.0
 30
0.0
 11
533.58102404881
 21
590.0
 31
0.0
  0
LINE
  5
2D5
330
1F
100
AcDbEntity
  8
LAY-10
  6
HIDDEN
 62
     7
100
AcDbLine
 10
525.5545304107334
 20
353.9999999999998
 30
0.0
 11
529.5765635289874
 21
353.9999999999998
 31
0.0
  0
LINE
  5
2D6
330
1F
100
AcDbEntity
  8
LAY-10
  6
CONTINUOUS
 62
     7
100
AcDbLine
 10
469.0000000000009
 20
353.9999999999998
 30
0.0
 11
469.0000000000009
 21
303.9999999999998
 31
0.0
  0
LINE
  5
2D7
330
1F
100
AcDbEntity
  8
LAY-10
  6
CONTINUOUS
 62
     7
100
AcDbLine
 10
470.0
 20
353.9999999999998
 30
0.0
 11
470.0
 21
303.9999999999998
 31
0.0
  0
LINE
  5
2D8
330
1F
100
AcDbEntity
  8
LAY-10
  6
CONTINUOUS
 62
     7
100
AcDbLine
 10
469.0000000000009
 20
353.9999999999998
 30
0.0
 11
479.8672833320379
 21
353.9999999999998
 31
0.0
  0
LINE
  5
2D9
330
1F
100
AcDbEntity
  8
LAY-10
  6
CONTINUOUS
 62
     7
100
AcDbLine
 10
470.0
 20
308.9999999999997
 30
0.0
 11
481.3317810419462
 21
308.9999999999997
 31
0.0
  0
LINE
  5
2DA
330
1F
100
AcDbEntity
  8
LAY-10
  6
CONTINUOUS
 62
     7
100
AcDbLine
 10
481.4945030097139
 20
303.9999999999998
 30
0.0
 11
479.8672833320379
 21
353.9999999999998
 31
0.0
  0
LINE
  5
2DB
330
1F
100
AcDbEntity
  8
LAY-10
  6
CONTINUOUS
 62
     7
100
AcDbLine
 10
489.1029551400752
 20
303.9999999999998
 30
0.0
 11
487.4757354624011
 21
353.9999999999998
 31
0.0
  0
LINE
  5
2DC
330
1F
100
AcDbEntity
  8
LAY-10
  6
CONTINUOUS
 62
     7
100
AcDbLine
 10
489.6506322201583
 20
353.9999999999998
 30
0.0
 11
491.2791022786527
 21
303.9999999999998
 31
0.0
  0
LINE
  5
2DD
330
1F
100
AcDbEntity
  8
LAY-10
  6
CONTINUOUS
 62
     7
100
AcDbLine
 10
487.4757354624011
 20
353.9999999999998
 30
0.0
 11
497.2792533850786
 21
353.9999999999998
 31
0.0
  0
LINE
  5
2DE
330
1F
100
AcDbEntity
  8
LAY-10
  6
CONTINUOUS
 62
     7
100
AcDbLine
 10
491.1162552728032
 20
308.9999999999997
 30
0.0
 11
500.0648935652971
 21
308.9999999999997
 31
0.0
  0
LINE
  5
2DF
330
1F
100
AcDbEntity
  8
LAY-10
  6
CONTINUOUS
 62
     7
100
AcDbLine
 10
497.2792533850786
 20
353.9999999999998
 30
0.0
 11
500.3744091408769
 21
303.9999999999998
 31
0.0
  0
LINE
  5
2E0
330
1F
100
AcDbEntity
  8
LAY-10
  6
CONTINUOUS
 62
     7
100
AcDbLine
 10
503.7513893400853
 20
353.9999999999998
 30
0.0
 11
506.8465450958763
 21
303.9999999999998
 31
0.0
  0
LINE
  5
2E1
330
1F
100
AcDbEntity
  8
LAY-10
  6
CONTINUOUS
 62
     7
100
AcDbLine
 10
506.888288807553
 20
353.9999999999998
 30
0.0
 11
509.9858229289995
 21
303.9999999999998
 31
0.0
  0
LINE
  5
2E2
330
1F
100
AcDbEntity
  8
LAY-10
  6
CONTINUOUS
 62
     7
100
AcDbLine
 10
503.7513893400853
 20
353.9999999999998
 30
0.0
 11
511.5315052140119
 21
353.9999999999998
 31
0.0
  0
LINE
  5
2E3
330
1F
100
AcDbEntity
  8
LAY-10
  6
CONTINUOUS
 62
     7
100
AcDbLine
 10
509.6760695168548
 20
308.9999999999997
 30
0.0
 11
515.3656099949985
 21
308.9999999999997
 31
0.0
  0
LINE
  5
2E4
330
1F
100
AcDbEntity
  8
LAY-10
  6
CONTINUOUS
 62
     7
100
AcDbLine
 10
515.7916216373305
 20
303.9999999999998
 30
0.0
 11
511.5315052140119
 21
353.9999999999998
 31
0.0
  0
LINE
  5
2E5
330
1F
100
AcDbEntity
  8
LAY-10
  6
CONTINUOUS
 62
     7
100
AcDbLine
 10
520.4939036556702
 20
303.9999999999998
 30
0.0
 11
516.2337872323571
 21
353.9999999999998
 31
0.0
  0
LINE
  5
2E6
330
1F
100
AcDbEntity
  8
LAY-10
  6
CONTINUOUS
 62
     7
100
AcDbLine
 10
524.289017796398
 20
303.9999999999998
 30
0.0
 11
520.0256278335996
 21
353.9999999999998
 31
0.0
  0
LINE
  5
2E7
330
1F
100
AcDbEntity
  8
LAY-10
  6
CONTINUOUS
 62
     7
100
AcDbLine
 10
516.2337872323571
 20
353.9999999999998
 30
0.0
 11
521.2289291085347
 21
353.9999999999998
 31
0.0
  0
LINE
  5
2E8
330
1F
100
AcDbEntity
  8
LAY-10
  6
CONTINUOUS
 62
     7
100
AcDbLine
 10
523.8626788001183
 20
308.9999999999997
 30
0.0
 11
525.7361896005508
 21
308.9999999999997
 31
0.0
  0
LINE
  5
2E9
330
1F
100
AcDbEntity
  8
LAY-10
  6
CONTINUOUS
 62
     7
100
AcDbLine
 10
526.2369963218858
 20
303.9999999999998
 30
0.0
 11
521.2289291085347
 21
353.9999999999998
 31
0.0
  0
LINE
  5
2EA
330
1F
100
AcDbEntity
  8
LAY-10
  6
CONTINUOUS
 62
     7
100
AcDbLine
 10
528.7091322768854
 20
303.9999999999998
 30
0.0
 11
523.7010650635406
 21
353.9999999999998
 31
0.0
  0
LINE
  5
2EB
330
1F
100
AcDbEntity
  8
LAY-10
  6
CONTINUOUS
 62
     7
100
AcDbLine
 10
523.7010650635405
 20
353.9999999999998
 30
0.0
 11
525.5545304107334
 21
353.9999999999998
 31
0.0
  0
ARC
  5
2EC
330
1F
100
AcDbEntity
  8
LAY-10
  6
CONTINUOUS
 62
     7
100
AcDbCircle
 10
464.9999999999999
 20
600.0000000000001
 30
0.0
 40
81.0
100
AcDbArc
 50
2.830572470275225
 51
177.1694275297244
  0
ARC
  5
2ED
330
1F
100
AcDbEntity
  8
LAY-10
  6
CONTINUOUS
 62
     7
100
AcDbCircle
 10
464.9999999999999
 20
600.0000000000001
 30
0.0
 40
81.0
100
AcDbArc
 50
182.8305724702752
 51
357.1694275297247
  0
LINE
  5
2EE
330
1F
100
AcDbEntity
  8
LAY-10
  6
CONTINUOUS
 62
     7
100
AcDbLine
 10
384.2225278929824
 20
606.0000000000001
 30
0.0
 11
381.6349010348969
 21
606.0000000000001
 31
0.0
  0
LINE
  5
2EF
330
1F
100
AcDbEntity
  8
LAY-10
  6
CONTINUOUS
 62
     7
100
AcDbLine
 10
384.2225278929824
 20
594.0000000000001
 30
0.0
 11
381.6349010348969
 21
594.0000000000001
 31
0.0
  0
LINE
  5
2F0
330
1F
100
AcDbEntity
  8
LAY-10
  6
CONTINUOUS
 62
     7
100
AcDbLine
 10
545.7774721070175
 20
606.0000000000001
 30
0.0
 11
548.365098965103
 21
606.0000000000001
 31
0.0
  0
LINE
  5
2F1
330
1F
100
AcDbEntity
  8
LAY-10
  6
CONTINUOUS
 62
     7
100
AcDbLine
 10
545.7774721070175
 20
594.0000000000001
 30
0.0
 11
548.365098965103
 21
594.0000000000001
 31
0.0
  0
ARC
  5
2F2
330
1F
100
AcDbEntity
  8
LAY-10
  6
CONTINUOUS
 62
     7
100
AcDbCircle
 10
533.8857492993975
 20
363.2499999999996
 30
0.0
 40
3.5
100
AcDbArc
 50
38.6821874534929
 51
88.12935826940758
  0
ARC
  5
2F3
330
1F
100
AcDbEntity
  8
LAY-10
  6
CONTINUOUS
 62
     7
100
AcDbCircle
 10
533.8857492993975
 20
359.7499999999997
 30
0.0
 40
3.5
100
AcDbArc
 50
271.8706417306037
 51
321.317812546502
  0
LINE
  5
2F4
330
1F
100
AcDbEntity
  8
LAY-10
  6
CONTINUOUS
 62
     7
100
AcDbLine
 10
533.9999999999978
 20
356.2518652430996
 30
0.0
 11
533.9999999999978
 21
366.7481347568997
 31
0.0
  0
LINE
  5
2F5
330
1F
100
AcDbEntity
  8
LAY-10
  6
CONTINUOUS
 62
     7
100
AcDbLine
 10
537.9713634880978
 20
360.8999999999997
 30
0.0
 11
535.4999999999978
 21
360.8999999999997
 31
0.0
  0
LINE
  5
2F6
330
1F
100
AcDbEntity
  8
LAY-10
  6
CONTINUOUS
 62
     7
100
AcDbLine
 10
535.4999999999978
 20
360.8999999999997
 30
0.0
 11
535.4999999999978
 21
362.0999999999996
 31
0.0
  0
LINE
  5
2F7
330
1F
100
AcDbEntity
  8
LAY-10
  6
CONTINUOUS
 62
     7
100
AcDbLine
 10
537.9713634880978
 20
362.0999999999996
 30
0.0
 11
535.4999999999978
 21
362.0999999999996
 31
0.0
  0
ARC
  5
2F8
330
1F
100
AcDbEntity
  8
LAY-10
  6
CONTINUOUS
 62
     7
100
AcDbCircle
 10
531.6999999999979
 20
361.4999999999998
 30
0.0
 40
6.299999999999999
100
AcDbArc
 50
321.3178125464967
 51
354.5349762000991
  0
ARC
  5
2F9
330
1F
100
AcDbEntity
  8
LAY-10
  6
CONTINUOUS
 62
     7
100
AcDbCircle
 10
531.6999999999979
 20
361.4999999999998
 30
0.0
 40
6.299999999999999
100
AcDbArc
 50
5.465023799910155
 51
38.68218745349485
  0
LINE
  5
2FA
330
1F
100
AcDbEntity
  8
LAY-10
  6
CONTINUOUS
 62
     7
100
AcDbLine
 10
521.9999999999999
 20
363.9999999999996
 30
0.0
 11
522.4999999999999
 21
364.4999999999998
 31
0.0
  0
LINE
  5
2FB
330
1F
100
AcDbEntity
  8
LAY-10
  6
CONTINUOUS
 62
     7
100
AcDbLine
 10
521.9999999999998
 20
358.9999999999997
 30
0.0
 11
522.4999999999999
 21
358.4999999999998
 31
0.0
  0
LINE
  5
2FC
330
1F
100
AcDbEntity
  8
LAY-10
  6
CONTINUOUS
 62
     7
100
AcDbLine
 10
533.9999999999978
 20
364.4999999999998
 30
0.0
 11
522.4999999999999
 21
364.4999999999998
 31
0.0
  0
LINE
  5
2FD
330
1F
100
AcDbEntity
  8
LAY-10
  6
CONTINUOUS
 62
     7
100
AcDbLine
 10
521.9999999999999
 20
363.9999999999996
 30
0.0
 11
521.9999999999998
 21
358.9999999999997
 31
0.0
  0
LINE
  5
2FE
330
1F
100
AcDbEntity
  8
LAY-10
  6
CONTINUOUS
 62
     7
100
AcDbLine
 10
533.9999999999978
 20
358.4999999999998
 30
0.0
 11
522.4999999999999
 21
358.4999999999998
 31
0.0
  0
LINE
  5
2FF
330
1F
100
AcDbEntity
  8
LAY-10
  6
CONTINUOUS
 62
     7
100
AcDbLine
 10
522.4999999999999
 20
358.4999999999998
 30
0.0
 11
522.4999999999999
 21
364.4999999999998
 31
0.0
  0
LINE
  5
300
330
1F
100
AcDbEntity
  8
LAY-10
  6
CONTINUOUS
 62
     7
100
AcDbLine
 10
525.0290092344051
 20
358.9999999999997
 30
0.0
 11
530.8097421740157
 21
303.9999999999998
 31
0.0
  0
LINE
  5
301
330
1F
100
AcDbEntity
  8
LAY-10
  6
CONTINUOUS
 62
     7
100
AcDbLine
 10
528.5255211763308
 20
363.9999999999996
 30
0.0
 11
528.0000000000025
 21
368.9999999999998
 31
0.0
  0
CIRCLE
  5
302
330
1F
100
AcDbEntity
  8
LAY-10
  6
CONTINUOUS
 62
     7
100
AcDbCircle
 10
387.9999999999999
 20
600.0000000000001
 30
0.0
 40
5.25
  0
LINE
  5
303
330
1F
100
AcDbEntity
  8
LAY-10
  6
CONTINUOUS
 62
     7
100
AcDbLine
 10
384.0366072321376
 20
596.5570335802307
 30
0.0
 11
392.9633927678307
 21
601.7109156122514
 31
0.0
  0
LINE
  5
304
330
1F
100
AcDbEntity
  8
LAY-10
  6
CONTINUOUS
 62
     7
100
AcDbLine
 10
383.0366072321402
 20
598.2890843878323
 30
0.0
 11
391.963392767804
 21
603.4429664198359
 31
0.0
  0
CIRCLE
  5
305
330
1F
100
AcDbEntity
  8
LAY-10
  6
CONTINUOUS
 62
     7
100
AcDbCircle
 10
542.0
 20
600.0000000000001
 30
0.0
 40
5.25
  0
LINE
  5
306
330
1F
100
AcDbEntity
  8
LAY-10
  6
CONTINUOUS
 62
     7
100
AcDbLine
 10
538.0366072321376
 20
596.5570335802307
 30
0.0
 11
546.9633927678308
 21
601.7109156122514
 31
0.0
  0
LINE
  5
307
330
1F
100
AcDbEntity
  8
LAY-10
  6
CONTINUOUS
 62
     7
100
AcDbLine
 10
537.0366072321402
 20
598.2890843878323
 30
0.0
 11
545.9633927678041
 21
603.4429664198359
 31
0.0
  0
ARC
  5
308
330
1F
100
AcDbEntity
  8
LAY-10
  6
CONTINUOUS
 62
     7
100
AcDbCircle
 10
463.2500000000002
 20
668.8857492993978
 30
0.0
 40
3.5
100
AcDbArc
 50
128.6821874534948
 51
178.1293582694075
  0
ARC
  5
309
330
1F
100
AcDbEntity
  8
LAY-10
  6
CONTINUOUS
 62
     7
100
AcDbCircle
 10
466.7500000000001
 20
668.8857492993978
 30
0.0
 40
3.5
100
AcDbArc
 50
1.870641730603509
 51
51.31781254649997
  0
LINE
  5
30A
330
1F
100
AcDbEntity
  8
LAY-10
  6
CONTINUOUS
 62
     7
100
AcDbLine
 10
470.2481347569001
 20
668.9999999999981
 30
0.0
 11
459.7518652431001
 21
668.9999999999981
 31
0.0
  0
LINE
  5
30B
330
1F
100
AcDbEntity
  8
LAY-10
  6
CONTINUOUS
 62
     7
100
AcDbLine
 10
465.6000000000001
 20
672.9713634880981
 30
0.0
 11
465.6000000000001
 21
670.4999999999981
 31
0.0
  0
LINE
  5
30C
330
1F
100
AcDbEntity
  8
LAY-10
  6
CONTINUOUS
 62
     7
100
AcDbLine
 10
465.6000000000001
 20
670.4999999999981
 30
0.0
 11
464.4000000000001
 21
670.4999999999981
 31
0.0
  0
LINE
  5
30D
330
1F
100
AcDbEntity
  8
LAY-10
  6
CONTINUOUS
 62
     7
100
AcDbLine
 10
464.4000000000001
 20
672.9713634880981
 30
0.0
 11
464.4000000000001
 21
670.4999999999981
 31
0.0
  0
ARC
  5
30E
330
1F
100
AcDbEntity
  8
LAY-10
  6
CONTINUOUS
 62
     7
100
AcDbCircle
 10
464.9999999999999
 20
666.6999999999981
 30
0.0
 40
6.299999999999999
100
AcDbArc
 50
51.31781254649665
 51
84.53497620009904
  0
ARC
  5
30F
330
1F
100
AcDbEntity
  8
LAY-10
  6
CONTINUOUS
 62
     7
100
AcDbCircle
 10
464.9999999999999
 20
666.6999999999981
 30
0.0
 40
6.299999999999999
100
AcDbArc
 50
95.46502379991017
 51
128.6821874534942
  0
LINE
  5
310
330
1F
100
AcDbEntity
  8
LAY-10
  6
CONTINUOUS
 62
     7
100
AcDbLine
 10
462.5000000000002
 20
657.0
 30
0.0
 11
461.9999999999999
 21
657.5000000000001
 31
0.0
  0
LINE
  5
311
330
1F
100
AcDbEntity
  8
LAY-10
  6
CONTINUOUS
 62
     7
100
AcDbLine
 10
467.5000000000001
 20
657.0
 30
0.0
 11
467.9999999999999
 21
657.5000000000001
 31
0.0
  0
LINE
  5
312
330
1F
100
AcDbEntity
  8
LAY-10
  6
CONTINUOUS
 62
     7
100
AcDbLine
 10
461.9999999999999
 20
668.9999999999981
 30
0.0
 11
461.9999999999999
 21
662.9285308902118
 31
0.0
  0
LINE
  5
313
330
1F
100
AcDbEntity
  8
LAY-10
  6
CONTINUOUS
 62
     7
100
AcDbLine
 10
462.5000000000002
 20
657.0
 30
0.0
 11
467.5000000000001
 21
657.0
 31
0.0
  0
LINE
  5
314
330
1F
100
AcDbEntity
  8
LAY-10
  6
CONTINUOUS
 62
     7
100
AcDbLine
 10
467.9999999999999
 20
668.9999999999981
 30
0.0
 11
467.9999999999999
 21
662.9285308902118
 31
0.0
  0
LINE
  5
315
330
1F
100
AcDbEntity
  8
LAY-10
  6
CONTINUOUS
 62
     7
100
AcDbLine
 10
467.9999999999999
 20
657.5000000000001
 30
0.0
 11
461.9999999999999
 21
657.5000000000001
 31
0.0
  0
ARC
  5
316
330
1F
100
AcDbEntity
  8
LAY-10
  6
CONTINUOUS
 62
     7
100
AcDbCircle
 10
406.2181911479955
 20
564.0415808936785
 30
0.0
 40
3.5
100
AcDbArc
 50
248.682187453494
 51
298.1293582694074
  0
ARC
  5
317
330
1F
100
AcDbEntity
  8
LAY-10
  6
CONTINUOUS
 62
     7
100
AcDbCircle
 10
404.4681911479956
 20
567.072669806924
 30
0.0
 40
3.5
100
AcDbArc
 50
121.8706417306054
 51
171.317812546502
  0
LINE
  5
318
330
1F
100
AcDbEntity
  8
LAY-10
  6
CONTINUOUS
 62
     7
100
AcDbLine
 10
402.6201797604255
 20
570.0450180219605
 30
0.0
 11
407.8683145173255
 21
560.9549819780416
 31
0.0
  0
LINE
  5
319
330
1F
100
AcDbEntity
  8
LAY-10
  6
CONTINUOUS
 62
     7
100
AcDbLine
 10
401.5049454705189
 20
564.0339334982217
 30
0.0
 11
403.6452090331989
 21
565.2696152422717
 31
0.0
  0
LINE
  5
31A
330
1F
100
AcDbEntity
  8
LAY-10
  6
CONTINUOUS
 62
     7
100
AcDbLine
 10
403.6452090331989
 20
565.2696152422717
 30
0.0
 11
404.2452090331988
 21
564.2303847577305
 31
0.0
  0
LINE
  5
31B
330
1F
100
AcDbEntity
  8
LAY-10
  6
CONTINUOUS
 62
     7
100
AcDbLine
 10
402.1049454705189
 20
562.9947030136805
 30
0.0
 11
404.2452090331988
 21
564.2303847577305
 31
0.0
  0
ARC
  5
31C
330
1F
100
AcDbEntity
  8
LAY-10
  6
CONTINUOUS
 62
     7
100
AcDbCircle
 10
407.2361055675797
 20
566.6500000000009
 30
0.0
 40
6.299999999999999
100
AcDbArc
 50
171.3178125464973
 51
204.5349762000991
  0
ARC
  5
31D
330
1F
100
AcDbEntity
  8
LAY-10
  6
CONTINUOUS
 62
     7
100
AcDbCircle
 10
407.2361055675797
 20
566.6500000000009
 30
0.0
 40
6.299999999999999
100
AcDbArc
 50
215.4650237999105
 51
248.6821874534945
  0
LINE
  5
31E
330
1F
100
AcDbEntity
  8
LAY-10
  6
CONTINUOUS
 62
     7
100
AcDbLine
 10
416.8865519842869
 20
569.334936490539
 30
0.0
 11
416.7035392823948
 21
568.6519237886466
 31
0.0
  0
LINE
  5
31F
330
1F
100
AcDbEntity
  8
LAY-10
  6
CONTINUOUS
 62
     7
100
AcDbLine
 10
414.386551984287
 20
573.6650635094611
 30
0.0
 11
413.7035392823948
 21
573.8480762113531
 31
0.0
  0
LINE
  5
320
330
1F
100
AcDbEntity
  8
LAY-10
  6
CONTINUOUS
 62
     7
100
AcDbLine
 10
406.7442471388756
 20
562.9019237886475
 30
0.0
 11
412.0022936262429
 21
565.9376583435408
 31
0.0
  0
LINE
  5
321
330
1F
100
AcDbEntity
  8
LAY-10
  6
CONTINUOUS
 62
     7
100
AcDbLine
 10
416.8865519842869
 20
569.334936490539
 30
0.0
 11
414.386551984287
 21
573.6650635094611
 31
0.0
  0
LINE
  5
322
330
1F
100
AcDbEntity
  8
LAY-10
  6
CONTINUOUS
 62
     7
100
AcDbLine
 10
403.7442471388756
 20
568.0980762113543
 30
0.0
 11
409.0022936262429
 21
571.1338107662474
 31
0.0
  0
LINE
  5
323
330
1F
100
AcDbEntity
  8
LAY-10
  6
CONTINUOUS
 62
     7
100
AcDbLine
 10
413.7035392823948
 20
573.8480762113531
 30
0.0
 11
416.7035392823948
 21
568.6519237886466
 31
0.0
  0
ARC
  5
324
330
1F
100
AcDbEntity
  8
LAY-10
  6
CONTINUOUS
 62
     7
100
AcDbCircle
 10
525.531808852004
 20
567.0726698069234
 30
0.0
 40
3.5
100
AcDbArc
 50
8.682187453494553
 51
58.12935826940854
  0
ARC
  5
325
330
1F
100
AcDbEntity
  8
LAY-10
  6
CONTINUOUS
 62
     7
100
AcDbCircle
 10
523.781808852004
 20
564.041580893678
 30
0.0
 40
3.5
100
AcDbArc
 50
241.8706417306044
 51
291.3178125465025
  0
LINE
  5
326
330
1F
100
AcDbEntity
  8
LAY-10
  6
CONTINUOUS
 62
     7
100
AcDbLine
 10
522.131685482674
 20
560.9549819780411
 30
0.0
 11
527.3798202395741
 21
570.0450180219601
 31
0.0
  0
LINE
  5
327
330
1F
100
AcDbEntity
  8
LAY-10
  6
CONTINUOUS
 62
     7
100
AcDbLine
 10
527.8950545294807
 20
562.9947030136799
 30
0.0
 11
525.7547909668007
 21
564.2303847577299
 31
0.0
  0
LINE
  5
328
330
1F
100
AcDbEntity
  8
LAY-10
  6
CONTINUOUS
 62
     7
100
AcDbLine
 10
525.7547909668007
 20
564.2303847577299
 30
0.0
 11
526.3547909668007
 21
565.2696152422711
 31
0.0
  0
LINE
  5
329
330
1F
100
AcDbEntity
  8
LAY-10
  6
CONTINUOUS
 62
     7
100
AcDbLine
 10
528.4950545294806
 20
564.0339334982211
 30
0.0
 11
526.3547909668007
 21
565.2696152422711
 31
0.0
  0
ARC
  5
32A
330
1F
100
AcDbEntity
  8
LAY-10
  6
CONTINUOUS
 62
     7
100
AcDbCircle
 10
522.76389443242
 20
566.6500000000007
 30
0.0
 40
6.299999999999999
100
AcDbArc
 50
291.3178125464973
 51
324.5349762000995
  0
ARC
  5
32B
330
1F
100
AcDbEntity
  8
LAY-10
  6
CONTINUOUS
 62
     7
100
AcDbCircle
 10
522.76389443242
 20
566.6500000000007
 30
0.0
 40
6.299999999999999
100
AcDbArc
 50
335.4650237999101
 51
8.68218745349438
  0
LINE
  5
32C
330
1F
100
AcDbEntity
  8
LAY-10
  6
CONTINUOUS
 62
     7
100
AcDbLine
 10
515.6134480157125
 20
573.6650635094607
 30
0.0
 11
516.2964607176049
 21
573.848076211353
 31
0.0
  0
LINE
  5
32D
330
1F
100
AcDbEntity
  8
LAY-10
  6
CONTINUOUS
 62
     7
100
AcDbLine
 10
513.1134480157126
 20
569.3349364905386
 30
0.0
 11
513.2964607176049
 21
568.6519237886464
 31
0.0
  0
LINE
  5
32E
330
1F
100
AcDbEntity
  8
LAY-10
  6
CONTINUOUS
 62
     7
100
AcDbLine
 10
526.2557528611242
 20
568.098076211354
 30
0.0
 11
520.9977063737568
 21
571.1338107662472
 31
0.0
  0
LINE
  5
32F
330
1F
100
AcDbEntity
  8
LAY-10
  6
CONTINUOUS
 62
     7
100
AcDbLine
 10
515.6134480157125
 20
573.6650635094607
 30
0.0
 11
513.1134480157126
 21
569.3349364905386
 31
0.0
  0
LINE
  5
330
330
1F
100
AcDbEntity
  8
LAY-10
  6
CONTINUOUS
 62
     7
100
AcDbLine
 10
523.2557528611242
 20
562.9019237886474
 30
0.0
 11
517.9977063737568
 21
565.9376583435405
 31
0.0
  0
LINE
  5
331
330
1F
100
AcDbEntity
  8
LAY-10
  6
CONTINUOUS
 62
     7
100
AcDbLine
 10
513.2964607176049
 20
568.6519237886464
 30
0.0
 11
516.2964607176049
 21
573.848076211353
 31
0.0
  0
ARC
  5
332
330
1F
100
AcDbEntity
  8
LAY-10
  6
CONTINUOUS
 62
     7
100
AcDbCircle
 10
464.9999999999999
 20
600.0000000000001
 30
0.0
 40
69.30625411594156
100
AcDbArc
 50
94.33852098666468
 51
205.6614790133352
  0
LINE
  5
333
330
1F
100
AcDbEntity
  8
LAY-10
  6
CONTINUOUS
 62
     7
100
AcDbLine
 10
461.9999999999999
 20
658.9016177833976
 30
0.0
 11
461.9999999999999
 21
657.5000000000001
 31
0.0
  0
LINE
  5
334
330
1F
100
AcDbEntity
  8
LAY-10
  6
CONTINUOUS
 62
     7
100
AcDbLine
 10
467.9999999999999
 20
658.9016177833976
 30
0.0
 11
467.9999999999999
 21
657.5000000000001
 31
0.0
  0
ARC
  5
335
330
1F
100
AcDbEntity
  8
LAY-10
  6
CONTINUOUS
 62
     7
100
AcDbCircle
 10
464.9999999999999
 20
600.0000000000001
 30
0.0
 40
69.30625411594156
100
AcDbArc
 50
214.3385209866648
 51
325.6614790133346
  0
LINE
  5
336
330
1F
100
AcDbEntity
  8
LAY-10
  6
CONTINUOUS
 62
     7
100
AcDbLine
 10
412.4897026755425
 20
573.1472673196348
 30
0.0
 11
413.7035392823948
 21
573.8480762113531
 31
0.0
  0
LINE
  5
337
330
1F
100
AcDbEntity
  8
LAY-10
  6
CONTINUOUS
 62
     7
100
AcDbLine
 10
415.4897026755405
 20
567.951114896927
 30
0.0
 11
416.7035392823948
 21
568.6519237886466
 31
0.0
  0
LINE
  5
338
330
1F
100
AcDbEntity
  8
LAY-10
  6
CONTINUOUS
 62
     7
100
AcDbLine
 10
517.5102973244573
 20
573.1472673196346
 30
0.0
 11
516.2964607176049
 21
573.848076211353
 31
0.0
  0
LINE
  5
339
330
1F
100
AcDbEntity
  8
LAY-10
  6
CONTINUOUS
 62
     7
100
AcDbLine
 10
514.5102973244593
 20
567.9511148969268
 30
0.0
 11
513.2964607176049
 21
568.6519237886464
 31
0.0
  0
ARC
  5
33A
330
1F
100
AcDbEntity
  8
LAY-10
  6
CONTINUOUS
 62
     7
100
AcDbCircle
 10
464.9999999999999
 20
600.0000000000001
 30
0.0
 40
64.57656352898738
100
AcDbArc
 50
332.6627187524256
 51
337.5592881121639
  0
ARC
  5
33B
330
1F
100
AcDbEntity
  8
LAY-10
  6
CONTINUOUS
 62
     7
100
AcDbCircle
 10
464.9999999999999
 20
600.0000000000001
 30
0.0
 40
69.30625411594156
100
AcDbArc
 50
334.3385209866643
 51
85.66147901333481
  0
LINE
  5
33C
330
1F
100
AcDbEntity
  8
LAY-10
  6
CONTINUOUS
 62
     7
100
AcDbLine
 10
404.2959129191559
 20
309.3205080756623
 30
0.0
 11
406.0878228828594
 21
309.3205080756623
 31
0.0
  0
LINE
  5
33D
330
1F
100
AcDbEntity
  8
LAY-10
  6
CONTINUOUS
 62
     7
100
AcDbLine
 10
404.5642944322502
 20
311.9999999999997
 30
0.0
 11
406.3931245976496
 21
311.9999999999997
 31
0.0
  0
LINE
  5
33E
330
1F
100
AcDbEntity
  8
LAY-10
  6
CONTINUOUS
 62
     7
100
AcDbLine
 10
414.8899969904003
 20
311.9999999999997
 30
0.0
 11
420.5097825304318
 21
311.9999999999997
 31
0.0
  0
LINE
  5
33F
330
1F
100
AcDbEntity
  8
LAY-10
  6
CONTINUOUS
 62
     7
100
AcDbLine
 10
430.1208157800507
 20
311.9999999999997
 30
0.0
 11
438.9814529307063
 21
311.9999999999997
 31
0.0
  0
LINE
  5
340
330
1F
100
AcDbEntity
  8
LAY-10
  6
CONTINUOUS
 62
     7
100
AcDbLine
 10
448.7658521387141
 20
311.9999999999997
 30
0.0
 11
459.9999999999999
 21
311.9999999999997
 31
0.0
  0
LINE
  5
341
330
1F
100
AcDbEntity
  8
LAY-10
  6
CONTINUOUS
 62
     7
100
AcDbLine
 10
470.0
 20
311.9999999999997
 30
0.0
 11
481.2341478612857
 21
311.9999999999997
 31
0.0
  0
LINE
  5
342
330
1F
100
AcDbEntity
  8
LAY-10
  6
CONTINUOUS
 62
     7
100
AcDbLine
 10
491.0185470692936
 20
311.9999999999997
 30
0.0
 11
499.8791842199492
 21
311.9999999999997
 31
0.0
  0
LINE
  5
343
330
1F
100
AcDbEntity
  8
LAY-10
  6
CONTINUOUS
 62
     7
100
AcDbLine
 10
509.4902174695681
 20
311.9999999999997
 30
0.0
 11
515.1100030095996
 21
311.9999999999997
 31
0.0
  0
LINE
  5
344
330
1F
100
AcDbEntity
  8
LAY-10
  6
CONTINUOUS
 62
     7
100
AcDbLine
 10
523.6068754023503
 20
311.9999999999997
 30
0.0
 11
525.4357055677497
 21
311.9999999999997
 31
0.0
  0
LINE
  5
345
330
1F
100
AcDbEntity
  8
LAY-10
  6
CONTINUOUS
 62
     7
100
AcDbLine
 10
525.7040870808439
 20
309.3205080756623
 30
0.0
 11
523.9121771171409
 21
309.3205080756623
 31
0.0
  0
LINE
  5
346
330
1F
100
AcDbEntity
  8
LAY-10
  6
CONTINUOUS
 62
     7
100
AcDbLine
 10
533.9909414101445
 20
311.9999999999997
 30
0.0
 11
569.0000000000001
 21
311.9999999999997
 31
0.0
  0
ARC
  5
347
330
1F
100
AcDbEntity
  8
LAY-10
  6
CONTINUOUS
 62
     7
100
AcDbCircle
 10
386.2500000000002
 20
311.8857492993994
 30
0.0
 40
3.5
100
AcDbArc
 50
128.6821874534936
 51
178.1293582694075
  0
ARC
  5
348
330
1F
100
AcDbEntity
  8
LAY-10
  6
CONTINUOUS
 62
     7
100
AcDbCircle
 10
389.7500000000001
 20
311.8857492993994
 30
0.0
 40
3.5
100
AcDbArc
 50
1.870641730603566
 51
51.31781254650243
  0
LINE
  5
349
330
1F
100
AcDbEntity
  8
LAY-10
  6
CONTINUOUS
 62
     7
100
AcDbLine
 10
388.6000000000001
 20
315.9713634880997
 30
0.0
 11
388.6000000000001
 21
313.4999999999997
 31
0.0
  0
LINE
  5
34A
330
1F
100
AcDbEntity
  8
LAY-10
  6
CONTINUOUS
 62
     7
100
AcDbLine
 10
388.6000000000001
 20
313.4999999999997
 30
0.0
 11
387.4000000000001
 21
313.4999999999997
 31
0.0
  0
LINE
  5
34B
330
1F
100
AcDbEntity
  8
LAY-10
  6
CONTINUOUS
 62
     7
100
AcDbLine
 10
387.4000000000001
 20
315.9713634880997
 30
0.0
 11
387.4000000000001
 21
313.4999999999997
 31
0.0
  0
ARC
  5
34C
330
1F
100
AcDbEntity
  8
LAY-10
  6
CONTINUOUS
 62
     7
100
AcDbCircle
 10
387.9999999999999
 20
309.6999999999997
 30
0.0
 40
6.299999999999999
100
AcDbArc
 50
51.31781254649698
 51
84.53497620009915
  0
ARC
  5
34D
330
1F
100
AcDbEntity
  8
LAY-10
  6
CONTINUOUS
 62
     7
100
AcDbCircle
 10
387.9999999999999
 20
309.6999999999997
 30
0.0
 40
6.299999999999999
100
AcDbArc
 50
95.46502379991023
 51
128.6821874534949
  0
LINE
  5
34E
330
1F
100
AcDbEntity
  8
LAY-10
  6
CONTINUOUS
 62
     7
100
AcDbLine
 10
385.5000000000002
 20
300.0000000000017
 30
0.0
 11
384.9999999999999
 21
300.5000000000018
 31
0.0
  0
LINE
  5
34F
330
1F
100
AcDbEntity
  8
LAY-10
  6
CONTINUOUS
 62
     7
100
AcDbLine
 10
390.5000000000001
 20
300.0000000000017
 30
0.0
 11
390.9999999999999
 21
300.5000000000018
 31
0.0
  0
LINE
  5
350
330
1F
100
AcDbEntity
  8
LAY-10
  6
CONTINUOUS
 62
     7
100
AcDbLine
 10
384.9999999999999
 20
311.9999999999997
 30
0.0
 11
384.9999999999999
 21
300.5000000000018
 31
0.0
  0
LINE
  5
351
330
1F
100
AcDbEntity
  8
LAY-10
  6
CONTINUOUS
 62
     7
100
AcDbLine
 10
385.5000000000002
 20
300.0000000000017
 30
0.0
 11
390.5000000000001
 21
300.0000000000017
 31
0.0
  0
LINE
  5
352
330
1F
100
AcDbEntity
  8
LAY-10
  6
CONTINUOUS
 62
     7
100
AcDbLine
 10
390.9999999999999
 20
311.9999999999997
 30
0.0
 11
390.9999999999999
 21
300.5000000000018
 31
0.0
  0
LINE
  5
353
330
1F
100
AcDbEntity
  8
LAY-10
  6
CONTINUOUS
 62
     7
100
AcDbLine
 10
390.9999999999999
 20
300.5000000000018
 30
0.0
 11
384.9999999999999
 21
300.5000000000018
 31
0.0
  0
LINE
  5
354
330
1F
100
AcDbEntity
  8
LAY-10
  6
CONTINUOUS
 62
     7
100
AcDbLine
 10
534.9999999999999
 20
288.4084194941216
 30
0.0
 11
534.9999999999999
 21
231.9999999999998
 31
0.0
  0
LINE
  5
355
330
1F
100
AcDbEntity
  8
LAY-10
  6
CONTINUOUS
 62
     7
100
AcDbLine
 10
530.5
 20
288.4084194941216
 30
0.0
 11
530.5
 21
231.9999999999998
 31
0.0
  0
LINE
  5
356
330
1F
100
AcDbEntity
  8
LAY-10
  6
CONTINUOUS
 62
     7
100
AcDbLine
 10
534.9999999999999
 20
231.9999999999998
 30
0.0
 11
395.0000000000001
 21
231.9999999999998
 31
0.0
  0
LINE
  5
357
330
1F
100
AcDbEntity
  8
LAY-10
  6
CONTINUOUS
 62
     7
100
AcDbLine
 10
530.5
 20
288.4084194941216
 30
0.0
 11
534.9999999999999
 21
288.4084194941216
 31
0.0
  0
LINE
  5
358
330
1F
100
AcDbEntity
  8
LAY-10
  6
CONTINUOUS
 62
     7
100
AcDbLine
 10
399.4999999999999
 20
288.4084194941216
 30
0.0
 11
399.4999999999999
 21
231.9999999999998
 31
0.0
  0
LINE
  5
359
330
1F
100
AcDbEntity
  8
LAY-10
  6
CONTINUOUS
 62
     7
100
AcDbLine
 10
395.0
 20
288.4084194941216
 30
0.0
 11
395.0
 21
231.9999999999998
 31
0.0
  0
LINE
  5
35A
330
1F
100
AcDbEntity
  8
LAY-10
  6
CONTINUOUS
 62
     7
100
AcDbLine
 10
400.4016915179294
 20
288.4084194941216
 30
0.0
 11
395.0
 21
288.4084194941216
 31
0.0
  0
LINE
  5
35B
330
1F
100
AcDbEntity
  8
LAY-10
  6
CONTINUOUS
 62
     7
100
AcDbLine
 10
395.0000000000001
 20
285.7401153701776
 30
0.0
 11
397.6683041239441
 21
288.4084194941216
 31
0.0
  0
LINE
  5
35C
330
1F
100
AcDbEntity
  8
LAY-10
  6
CONTINUOUS
 62
     7
100
AcDbLine
 10
395.0000000000001
 20
282.9116882454313
 30
0.0
 11
399.4999999999999
 21
287.4116882454312
 31
0.0
  0
LINE
  5
35D
330
1F
100
AcDbEntity
  8
LAY-10
  6
CONTINUOUS
 62
     7
100
AcDbLine
 10
395.0000000000001
 20
280.0832611206851
 30
0.0
 11
399.4999999999999
 21
284.583261120685
 31
0.0
  0
LINE
  5
35E
330
1F
100
AcDbEntity
  8
LAY-10
  6
CONTINUOUS
 62
     7
100
AcDbLine
 10
395.0000000000001
 20
277.254833995939
 30
0.0
 11
399.4999999999999
 21
281.7548339959388
 31
0.0
  0
LINE
  5
35F
330
1F
100
AcDbEntity
  8
LAY-10
  6
CONTINUOUS
 62
     7
100
AcDbLine
 10
395.0000000000001
 20
274.4264068711928
 30
0.0
 11
399.4999999999999
 21
278.9264068711926
 31
0.0
  0
LINE
  5
360
330
1F
100
AcDbEntity
  8
LAY-10
  6
CONTINUOUS
 62
     7
100
AcDbLine
 10
395.0000000000001
 20
271.5979797464465
 30
0.0
 11
399.4999999999999
 21
276.0979797464464
 31
0.0
  0
LINE
  5
361
330
1F
100
AcDbEntity
  8
LAY-10
  6
CONTINUOUS
 62
     7
100
AcDbLine
 10
395.0000000000001
 20
268.7695526217004
 30
0.0
 11
399.4999999999999
 21
273.2695526217002
 31
0.0
  0
LINE
  5
362
330
1F
100
AcDbEntity
  8
LAY-10
  6
CONTINUOUS
 62
     7
100
AcDbLine
 10
395.0000000000002
 20
265.9411254969542
 30
0.0
 11
399.4999999999999
 21
270.441125496954
 31
0.0
  0
LINE
  5
363
330
1F
100
AcDbEntity
  8
LAY-10
  6
CONTINUOUS
 62
     7
100
AcDbLine
 10
395.0000000000001
 20
263.1126983722079
 30
0.0
 11
399.4999999999999
 21
267.6126983722078
 31
0.0
  0
LINE
  5
364
330
1F
100
AcDbEntity
  8
LAY-10
  6
CONTINUOUS
 62
     7
100
AcDbLine
 10
395.0000000000001
 20
260.2842712474618
 30
0.0
 11
399.4999999999999
 21
264.7842712474616
 31
0.0
  0
LINE
  5
365
330
1F
100
AcDbEntity
  8
LAY-10
  6
CONTINUOUS
 62
     7
100
AcDbLine
 10
395.0000000000001
 20
257.4558441227156
 30
0.0
 11
399.4999999999999
 21
261.9558441227154
 31
0.0
  0
LINE
  5
366
330
1F
100
AcDbEntity
  8
LAY-10
  6
CONTINUOUS
 62
     7
100
AcDbLine
 10
395.0000000000001
 20
254.6274169979694
 30
0.0
 11
399.4999999999999
 21
259.1274169979692
 31
0.0
  0
LINE
  5
367
330
1F
100
AcDbEntity
  8
LAY-10
  6
CONTINUOUS
 62
     7
100
AcDbLine
 10
395.0000000000001
 20
251.7989898732232
 30
0.0
 11
399.4999999999999
 21
256.298989873223
 31
0.0
  0
LINE
  5
368
330
1F
100
AcDbEntity
  8
LAY-10
  6
CONTINUOUS
 62
     7
100
AcDbLine
 10
395.0000000000001
 20
248.970562748477
 30
0.0
 11
399.4999999999999
 21
253.4705627484768
 31
0.0
  0
LINE
  5
369
330
1F
100
AcDbEntity
  8
LAY-10
  6
CONTINUOUS
 62
     7
100
AcDbLine
 10
395.0000000000001
 20
246.1421356237308
 30
0.0
 11
399.4999999999999
 21
250.6421356237306
 31
0.0
  0
LINE
  5
36A
330
1F
100
AcDbEntity
  8
LAY-10
  6
CONTINUOUS
 62
     7
100
AcDbLine
 10
395.0000000000001
 20
243.3137084989846
 30
0.0
 11
399.4999999999999
 21
247.8137084989845
 31
0.0
  0
LINE
  5
36B
330
1F
100
AcDbEntity
  8
LAY-10
  6
CONTINUOUS
 62
     7
100
AcDbLine
 10
395.0000000000001
 20
240.4852813742385
 30
0.0
 11
399.4999999999999
 21
244.9852813742382
 31
0.0
  0
LINE
  5
36C
330
1F
100
AcDbEntity
  8
LAY-10
  6
CONTINUOUS
 62
     7
100
AcDbLine
 10
395.0000000000001
 20
237.6568542494922
 30
0.0
 11
399.4999999999999
 21
242.1568542494921
 31
0.0
  0
LINE
  5
36D
330
1F
100
AcDbEntity
  8
LAY-10
  6
CONTINUOUS
 62
     7
100
AcDbLine
 10
395.0000000000001
 20
234.8284271247461
 30
0.0
 11
399.4999999999999
 21
239.3284271247459
 31
0.0
  0
LINE
  5
36E
330
1F
100
AcDbEntity
  8
LAY-10
  6
CONTINUOUS
 62
     7
100
AcDbLine
 10
395.0000000000001
 20
231.9999999999999
 30
0.0
 11
399.4999999999999
 21
236.4999999999997
 31
0.0
  0
LINE
  5
36F
330
1F
100
AcDbEntity
  8
LAY-10
  6
CONTINUOUS
 62
     7
100
AcDbLine
 10
397.8284271247462
 20
231.9999999999999
 30
0.0
 11
399.4999999999999
 21
233.6715728752535
 31
0.0
  0
LINE
  5
370
330
1F
100
AcDbEntity
  8
LAY-10
  6
CONTINUOUS
 62
     7
100
AcDbLine
 10
530.5
 20
285.7401153701776
 30
0.0
 11
533.168304123944
 21
288.4084194941216
 31
0.0
  0
LINE
  5
371
330
1F
100
AcDbEntity
  8
LAY-10
  6
CONTINUOUS
 62
     7
100
AcDbLine
 10
530.5
 20
282.9116882454313
 30
0.0
 11
534.9999999999998
 21
287.4116882454312
 31
0.0
  0
LINE
  5
372
330
1F
100
AcDbEntity
  8
LAY-10
  6
CONTINUOUS
 62
     7
100
AcDbLine
 10
530.5
 20
280.0832611206851
 30
0.0
 11
534.9999999999998
 21
284.583261120685
 31
0.0
  0
LINE
  5
373
330
1F
100
AcDbEntity
  8
LAY-10
  6
CONTINUOUS
 62
     7
100
AcDbLine
 10
530.5
 20
277.254833995939
 30
0.0
 11
534.9999999999998
 21
281.7548339959388
 31
0.0
  0
LINE
  5
374
330
1F
100
AcDbEntity
  8
LAY-10
  6
CONTINUOUS
 62
     7
100
AcDbLine
 10
530.5
 20
274.4264068711928
 30
0.0
 11
534.9999999999998
 21
278.9264068711926
 31
0.0
  0
LINE
  5
375
330
1F
100
AcDbEntity
  8
LAY-10
  6
CONTINUOUS
 62
     7
100
AcDbLine
 10
530.5
 20
271.5979797464465
 30
0.0
 11
534.9999999999998
 21
276.0979797464464
 31
0.0
  0
LINE
  5
376
330
1F
100
AcDbEntity
  8
LAY-10
  6
CONTINUOUS
 62
     7
100
AcDbLine
 10
530.5
 20
268.7695526217004
 30
0.0
 11
534.9999999999998
 21
273.2695526217002
 31
0.0
  0
LINE
  5
377
330
1F
100
AcDbEntity
  8
LAY-10
  6
CONTINUOUS
 62
     7
100
AcDbLine
 10
530.5000000000001
 20
265.9411254969542
 30
0.0
 11
534.9999999999998
 21
270.441125496954
 31
0.0
  0
LINE
  5
378
330
1F
100
AcDbEntity
  8
LAY-10
  6
CONTINUOUS
 62
     7
100
AcDbLine
 10
530.5
 20
263.1126983722079
 30
0.0
 11
534.9999999999998
 21
267.6126983722078
 31
0.0
  0
LINE
  5
379
330
1F
100
AcDbEntity
  8
LAY-10
  6
CONTINUOUS
 62
     7
100
AcDbLine
 10
530.5
 20
260.2842712474618
 30
0.0
 11
534.9999999999998
 21
264.7842712474616
 31
0.0
  0
LINE
  5
37A
330
1F
100
AcDbEntity
  8
LAY-10
  6
CONTINUOUS
 62
     7
100
AcDbLine
 10
530.5
 20
257.4558441227156
 30
0.0
 11
534.9999999999998
 21
261.9558441227154
 31
0.0
  0
LINE
  5
37B
330
1F
100
AcDbEntity
  8
LAY-10
  6
CONTINUOUS
 62
     7
100
AcDbLine
 10
530.5
 20
254.6274169979694
 30
0.0
 11
534.9999999999998
 21
259.1274169979692
 31
0.0
  0
LINE
  5
37C
330
1F
100
AcDbEntity
  8
LAY-10
  6
CONTINUOUS
 62
     7
100
AcDbLine
 10
530.5
 20
251.7989898732232
 30
0.0
 11
534.9999999999998
 21
256.298989873223
 31
0.0
  0
LINE
  5
37D
330
1F
100
AcDbEntity
  8
LAY-10
  6
CONTINUOUS
 62
     7
100
AcDbLine
 10
530.5
 20
248.970562748477
 30
0.0
 11
534.9999999999998
 21
253.4705627484768
 31
0.0
  0
LINE
  5
37E
330
1F
100
AcDbEntity
  8
LAY-10
  6
CONTINUOUS
 62
     7
100
AcDbLine
 10
530.5
 20
246.1421356237308
 30
0.0
 11
534.9999999999998
 21
250.6421356237306
 31
0.0
  0
LINE
  5
37F
330
1F
100
AcDbEntity
  8
LAY-10
  6
CONTINUOUS
 62
     7
100
AcDbLine
 10
530.5
 20
243.3137084989846
 30
0.0
 11
534.9999999999998
 21
247.8137084989845
 31
0.0
  0
LINE
  5
380
330
1F
100
AcDbEntity
  8
LAY-10
  6
CONTINUOUS
 62
     7
100
AcDbLine
 10
530.5
 20
240.4852813742385
 30
0.0
 11
534.9999999999998
 21
244.9852813742382
 31
0.0
  0
LINE
  5
381
330
1F
100
AcDbEntity
  8
LAY-10
  6
CONTINUOUS
 62
     7
100
AcDbLine
 10
530.5
 20
237.6568542494922
 30
0.0
 11
534.9999999999998
 21
242.1568542494921
 31
0.0
  0
LINE
  5
382
330
1F
100
AcDbEntity
  8
LAY-10
  6
CONTINUOUS
 62
     7
100
AcDbLine
 10
530.5
 20
234.8284271247461
 30
0.0
 11
534.9999999999998
 21
239.3284271247459
 31
0.0
  0
LINE
  5
383
330
1F
100
AcDbEntity
  8
LAY-10
  6
CONTINUOUS
 62
     7
100
AcDbLine
 10
530.5
 20
231.9999999999999
 30
0.0
 11
534.9999999999998
 21
236.4999999999997
 31
0.0
  0
LINE
  5
384
330
1F
100
AcDbEntity
  8
LAY-10
  6
CONTINUOUS
 62
     7
100
AcDbLine
 10
533.3284271247461
 20
231.9999999999999
 30
0.0
 11
534.9999999999998
 21
233.6715728752535
 31
0.0
  0
LINE
  5
385
330
1F
100
AcDbEntity
  8
LAY-10
  6
CONTINUOUS
 62
     7
100
AcDbLine
 10
548.5807377657165
 20
303.9999999999997
 30
0.0
 11
390.5000000000001
 21
303.9999999999997
 31
0.0
  0
LINE
  5
386
330
1F
100
AcDbEntity
  8
LAY-10
  6
CONTINUOUS
 62
     7
100
AcDbLine
 10
551.8504022041521
 20
293.9999999999997
 30
0.0
 11
565.3829042496815
 21
293.9999999999997
 31
0.0
  0
LINE
  5
387
330
1F
100
AcDbEntity
  8
LAY-10
  6
CONTINUOUS
 62
     7
100
AcDbLine
 10
396.0090585898554
 20
311.9999999999997
 30
0.0
 11
361.0000000000001
 21
311.9999999999997
 31
0.0
  0
LINE
  5
388
330
1F
100
AcDbEntity
  8
LAY-10
  6
CONTINUOUS
 62
     7
100
AcDbLine
 10
561.4999999999824
 20
302.0000000000057
 30
0.0
 11
561.4999999999824
 21
303.0000000000039
 31
0.0
  0
LINE
  5
389
330
1F
100
AcDbEntity
  8
LAY-10
  6
CONTINUOUS
 62
     7
100
AcDbLine
 10
556.4999999999831
 20
302.0000000000057
 30
0.0
 11
556.4999999999831
 21
303.0000000000051
 31
0.0
  0
LINE
  5
38A
330
1F
100
AcDbEntity
  8
LAY-10
  6
CONTINUOUS
 62
     7
100
AcDbLine
 10
556.4999999999831
 20
303.0000000000051
 30
0.0
 11
561.4999999999824
 21
303.0000000000051
 31
0.0
  0
LINE
  5
38B
330
1F
100
AcDbEntity
  8
LAY-10
  6
CONTINUOUS
 62
     7
100
AcDbLine
 10
555.9999999999799
 20
301.5000000000051
 30
0.0
 11
561.9999999999799
 21
301.5000000000051
 31
0.0
  0
LINE
  5
38C
330
1F
100
AcDbEntity
  8
LAY-10
  6
CONTINUOUS
 62
     7
100
AcDbLine
 10
556.4999999999799
 20
302.0000000000057
 30
0.0
 11
561.4999999999799
 21
302.0000000000057
 31
0.0
  0
LINE
  5
38D
330
1F
100
AcDbEntity
  8
LAY-10
  6
CONTINUOUS
 62
     7
100
AcDbLine
 10
558.9999999999801
 20
304.4433756729807
 30
0.0
 11
561.499999999981
 21
303.0000000000061
 31
0.0
  0
LINE
  5
38E
330
1F
100
AcDbEntity
  8
LAY-10
  6
CONTINUOUS
 62
     7
100
AcDbLine
 10
558.9999999999797
 20
304.4433756729805
 30
0.0
 11
556.4999999999792
 21
303.0000000000061
 31
0.0
  0
LINE
  5
38F
330
1F
100
AcDbEntity
  8
LAY-10
  6
CONTINUOUS
 62
     7
100
AcDbLine
 10
573.4999999999794
 20
272.0000000000144
 30
0.0
 11
573.4999999999794
 21
277.0000000000143
 31
0.0
  0
LINE
  5
390
330
1F
100
AcDbEntity
  8
LAY-10
  6
CONTINUOUS
 62
     7
100
AcDbLine
 10
563.499999999979
 20
277.0000000000143
 30
0.0
 11
573.4999999999794
 21
277.0000000000143
 31
0.0
  0
ARC
  5
391
330
1F
100
AcDbEntity
  8
LAY-10
  6
CONTINUOUS
 62
     7
100
AcDbCircle
 10
563.499999999979
 20
279.0000000000143
 30
0.0
 40
2.0
100
AcDbArc
 50
180.0
 51
270.0000000000002
  0
LINE
  5
392
330
1F
100
AcDbEntity
  8
LAY-10
  6
CONTINUOUS
 62
     7
100
AcDbLine
 10
563.499999999979
 20
272.0000000000144
 30
0.0
 11
573.4999999999794
 21
272.0000000000144
 31
0.0
  0
ARC
  5
393
330
1F
100
AcDbEntity
  8
LAY-10
  6
CONTINUOUS
 62
     7
100
AcDbCircle
 10
563.499999999979
 20
279.0000000000143
 30
0.0
 40
7.000000000000004
100
AcDbArc
 50
180.0
 51
270.0000000000002
  0
LINE
  5
394
330
1F
100
AcDbEntity
  8
LAY-10
  6
CONTINUOUS
 62
     7
100
AcDbLine
 10
561.4999999999799
 20
279.0000000000099
 30
0.0
 11
561.4999999999799
 21
294.0000000000096
 31
0.0
  0
LINE
  5
395
330
1F
100
AcDbEntity
  8
LAY-10
  6
CONTINUOUS
 62
     7
100
AcDbLine
 10
556.4999999999799
 20
279.0000000000099
 30
0.0
 11
556.4999999999799
 21
294.0000000000096
 31
0.0
  0
LINE
  5
396
330
1F
100
AcDbEntity
  8
LAY-10
  6
CONTINUOUS
 62
     7
100
AcDbLine
 10
556.4999999999831
 20
300.0000000000145
 30
0.0
 11
561.4999999999824
 21
300.0000000000145
 31
0.0
  0
LINE
  5
397
330
1F
100
AcDbEntity
  8
LAY-10
  6
CONTINUOUS
 62
     7
100
AcDbLine
 10
555.9999999999817
 20
299.500000000016
 30
0.0
 11
561.9999999999808
 21
299.500000000016
 31
0.0
  0
LINE
  5
398
330
1F
100
AcDbEntity
  8
LAY-10
  6
CONTINUOUS
 62
     7
100
AcDbLine
 10
561.4999999999824
 20
302.0000000000057
 30
0.0
 11
561.4999999999824
 21
300.0000000000145
 31
0.0
  0
LINE
  5
399
330
1F
100
AcDbEntity
  8
LAY-10
  6
CONTINUOUS
 62
     7
100
AcDbLine
 10
556.4999999999831
 20
302.0000000000057
 30
0.0
 11
556.4999999999831
 21
300.0000000000145
 31
0.0
  0
LINE
  5
39A
330
1F
100
AcDbEntity
  8
LAY-10
  6
CONTINUOUS
 62
     7
100
AcDbLine
 10
561.9999999999799
 20
299.50000000002
 30
0.0
 11
561.4999999999799
 21
300.0000000000099
 31
0.0
  0
LINE
  5
39B
330
1F
100
AcDbEntity
  8
LAY-10
  6
CONTINUOUS
 62
     7
100
AcDbLine
 10
556.4999999999799
 20
300.0000000000099
 30
0.0
 11
555.9999999999799
 21
299.50000000002
 31
0.0
  0
LINE
  5
39C
330
1F
100
AcDbEntity
  8
LAY-10
  6
CONTINUOUS
 62
     7
100
AcDbLine
 10
555.9999999999799
 20
299.50000000002
 30
0.0
 11
555.9999999999799
 21
294.0000000000099
 31
0.0
  0
LINE
  5
39D
330
1F
100
AcDbEntity
  8
LAY-10
  6
CONTINUOUS
 62
     7
100
AcDbLine
 10
561.9999999999799
 20
299.50000000002
 30
0.0
 11
561.9999999999799
 21
294.0000000000099
 31
0.0
  0
LINE
  5
39E
330
1F
100
AcDbEntity
  8
LAY-10
  6
CONTINUOUS
 62
     7
100
AcDbLine
 10
417.9999999999989
 20
246.9999999999997
 30
0.0
 11
416.5992038539326
 21
284.3545638951263
 31
0.0
  0
ARC
  5
39F
330
1F
100
AcDbEntity
  8
LAY-10
  6
CONTINUOUS
 62
     7
100
AcDbCircle
 10
413.6013110068051
 20
284.2421429133591
 30
0.0
 40
3.0
100
AcDbArc
 50
2.147585428297502
 51
85.00000000000017
  0
ARC
  5
3A0
330
1F
100
AcDbEntity
  8
LAY-10
  6
CONTINUOUS
 62
     7
100
AcDbCircle
 10
415.4960031842843
 20
287.0878383395882
 30
0.0
 40
5.0
100
AcDbArc
 50
2.147585428297043
 51
84.9999999999996
  0
LINE
  5
3A1
330
1F
100
AcDbEntity
  8
LAY-10
  6
CONTINUOUS
 62
     7
100
AcDbLine
 10
396.5363573757338
 20
293.76569160002
 30
0.0
 11
415.9317818980226
 21
292.068811830047
 31
0.0
  0
LINE
  5
3A2
330
1F
100
AcDbEntity
  8
LAY-10
  6
CONTINUOUS
 62
     7
100
AcDbLine
 10
422.0028115119242
 20
246.9999999999997
 30
0.0
 11
420.4924912628302
 21
287.2752066425336
 31
0.0
  0
LINE
  5
3A3
330
1F
100
AcDbEntity
  8
LAY-10
  6
CONTINUOUS
 62
     7
100
AcDbLine
 10
383.3246427214006
 20
289.902467670297
 30
0.0
 11
413.862778235048
 21
287.2307270076343
 31
0.0
  0
LINE
  5
3A4
330
1F
100
AcDbEntity
  8
LAY-10
  6
CONTINUOUS
 62
     7
100
AcDbLine
 10
396.5363573757339
 20
293.76569160002
 30
0.0
 11
395.9999999999935
 21
303.9999999999995
 31
0.0
  0
LINE
  5
3A5
330
1F
100
AcDbEntity
  8
LAY-10
  6
CONTINUOUS
 62
     7
100
AcDbLine
 10
420.3649186575934
 20
291.6771427821827
 30
0.0
 11
509.6350813424065
 21
291.6771427821827
 31
0.0
  0
LINE
  5
3A6
330
1F
100
AcDbEntity
  8
LAY-10
  6
CONTINUOUS
 62
     7
100
AcDbLine
 10
460.4446542039848
 20
293.4033709572742
 30
0.0
 11
460.9999999999999
 21
303.9999999999998
 31
0.0
  0
LINE
  5
3A7
330
1F
100
AcDbEntity
  8
LAY-10
  6
CONTINUOUS
 62
     7
100
AcDbLine
 10
473.5553457960155
 20
293.4033709572743
 30
0.0
 11
473.0000000000004
 21
303.9999999999998
 31
0.0
  0
ARC
  5
3A8
330
1F
100
AcDbEntity
  8
LAY-10
  6
CONTINUOUS
 62
     7
100
AcDbCircle
 10
516.3986889931948
 20
284.2421429133591
 30
0.0
 40
3.000000000000001
100
AcDbArc
 50
94.99999999999983
 51
177.8524145717026
  0
ARC
  5
3A9
330
1F
100
AcDbEntity
  8
LAY-10
  6
CONTINUOUS
 62
     7
100
AcDbCircle
 10
514.5039968157155
 20
287.0878383395882
 30
0.0
 40
5.0
100
AcDbArc
 50
94.99999999999983
 51
177.852414571703
  0
LINE
  5
3AA
330
1F
100
AcDbEntity
  8
LAY-10
  6
CONTINUOUS
 62
     7
100
AcDbLine
 10
507.9971884880757
 20
246.9999999999997
 30
0.0
 11
509.5075087371698
 21
287.2752066425336
 31
0.0
  0
LINE
  5
3AB
330
1F
100
AcDbEntity
  8
LAY-10
  6
CONTINUOUS
 62
     7
100
AcDbLine
 10
512.0000000000009
 20
246.9999999999997
 30
0.0
 11
513.400796146067
 21
284.3545638951263
 31
0.0
  0
LINE
  5
3AC
330
1F
100
AcDbEntity
  8
LAY-10
  6
CONTINUOUS
 62
     7
100
AcDbLine
 10
523.9770820947319
 20
287.9166259101167
 30
0.0
 11
516.1372217649518
 21
287.2307270076343
 31
0.0
  0
LINE
  5
3AD
330
1F
100
AcDbEntity
  8
LAY-10
  6
CONTINUOUS
 62
     7
100
AcDbLine
 10
535.4728550371096
 20
293.9414749087594
 30
0.0
 11
514.0682181019772
 21
292.068811830047
 31
0.0
  0
LINE
  5
3AE
330
1F
100
AcDbEntity
  8
LAY-10
  6
CONTINUOUS
 62
     7
100
AcDbLine
 10
535.4728550371096
 20
293.9414749087594
 30
0.0
 11
536.0000000000042
 21
303.9999999999997
 31
0.0
  0
LINE
  5
3AF
330
1F
100
AcDbEntity
  8
LAY-10
  6
CONTINUOUS
 62
     7
100
AcDbLine
 10
460.4446542039848
 20
293.4033709572742
 30
0.0
 11
473.5553457960155
 21
293.4033709572743
 31
0.0
  0
LINE
  5
3B0
330
1F
100
AcDbEntity
  8
LAY-10
  6
CENTER
 62
     2
100
AcDbLine
 10
387.9999999999999
 20
317.6999999999998
 30
0.0
 11
387.9999999999999
 21
292.8999999999997
 31
0.0
  0
LINE
  5
3B1
330
1F
100
AcDbEntity
  8
LAY-10
  6
CENTER
 62
     2
100
AcDbLine
 10
351.0
 20
600.0000000000001
 30
0.0
 11
576.0
 21
600.0000000000001
 31
0.0
  0
LINE
  5
3B2
330
1F
100
AcDbEntity
  8
LAY-10
  6
CENTER
 62
     2
100
AcDbLine
 10
464.9999999999999
 20
712.0
 30
0.0
 11
464.9999999999999
 21
489.101358759485
 31
0.0
  0
LINE
  5
3B3
330
1F
100
AcDbEntity
  8
LAY-10
  6
CENTER
 62
     2
100
AcDbLine
 10
464.9999999999999
 20
371.3999999999997
 30
0.0
 11
464.9999999999999
 21
225.9999999999997
 31
0.0
  0
LINE
  5
3B4
330
1F
100
AcDbEntity
  8
LAY-10
  6
CENTER
 62
     2
100
AcDbLine
 10
387.9999999999999
 20
593.5
 30
0.0
 11
387.9999999999999
 21
606.3
 31
0.0
  0
LINE
  5
3B5
330
1F
100
AcDbEntity
  8
LAY-10
  6
CENTER
 62
     2
100
AcDbLine
 10
541.9999999999999
 20
593.5
 30
0.0
 11
541.9999999999999
 21
606.6
 31
0.0
  0
LINE
  5
3B6
330
1F
100
AcDbEntity
  8
LAY-10
  6
CENTER
 62
     2
100
AcDbLine
 10
520.6000000000001
 20
361.4999999999998
 30
0.0
 11
539.3
 21
361.4999999999998
 31
0.0
  0
LINE
  5
3B7
330
1F
100
AcDbEntity
  8
LAY-10
  6
CENTER
 62
     2
100
AcDbLine
 10
459.5
 20
361.4999999999998
 30
0.0
 11
467.2999999999999
 21
361.4999999999998
 31
0.0
  0
LINE
  5
3B8
330
1F
100
AcDbEntity
  8
LAY-10
  6
CENTER
 62
     2
100
AcDbLine
 10
401.2901325703355
 20
563.2170908895179
 30
0.0
 11
419.6073430767978
 21
573.792537306227
 31
0.0
  0
LINE
  5
3B9
330
1F
100
AcDbEntity
  8
LAY-10
  6
CENTER
 62
     2
100
AcDbLine
 10
528.7098674296643
 20
563.2170908895177
 30
0.0
 11
510.3926569232021
 21
573.792537306227
 31
0.0
  0
LINE
  5
3BA
330
1F
100
AcDbEntity
  8
LAY-10
  6
CENTER
 62
     2
100
AcDbLine
 10
574.6999999999788
 20
274.5000000000155
 30
0.0
 11
563.4999999999799
 21
274.5000000000155
 31
0.0
  0
ARC
  5
3BB
330
1F
100
AcDbEntity
  8
LAY-10
  6
CENTER
 62
     2
100
AcDbCircle
 10
563.4999999999799
 20
279.0000000000155
 30
0.0
 40
4.5
100
AcDbArc
 50
180.0
 51
270.0000000000002
  0
LINE
  5
3BC
330
1F
100
AcDbEntity
  8
LAY-10
  6
CENTER
 62
     2
100
AcDbLine
 10
558.9999999999801
 20
305.2013587594998
 30
0.0
 11
558.9999999999801
 21
279.0000000000155
 31
0.0
  0
LINE
  5
3BD
330
1F
100
AcDbEntity
  8
LAY-10
  6
CONTINUOUS
 62
     7
100
AcDbLine
 10
462.5000000000002
 20
668.9999999999981
 30
0.0
 11
462.5000000000002
 21
662.9503772824305
 31
0.0
  0
LINE
  5
3BE
330
1F
100
AcDbEntity
  8
LAY-10
  6
CONTINUOUS
 62
     7
100
AcDbLine
 10
467.5000000000001
 20
668.9999999999981
 30
0.0
 11
467.5000000000001
 21
662.9503772824305
 31
0.0
  0
LINE
  5
3BF
330
1F
100
AcDbEntity
  8
LAY-10
  6
CONTINUOUS
 62
     7
100
AcDbLine
 10
406.4942471388754
 20
563.3349364905399
 30
0.0
 11
411.7333740956004
 21
566.3597478493238
 31
0.0
  0
LINE
  5
3C0
330
1F
100
AcDbEntity
  8
LAY-10
  6
CONTINUOUS
 62
     7
100
AcDbLine
 10
403.9942471388755
 20
567.6650635094621
 30
0.0
 11
409.2333740956005
 21
570.689874868246
 31
0.0
  0
LINE
  5
3C1
330
1F
100
AcDbEntity
  8
LAY-10
  6
CONTINUOUS
 62
     7
100
AcDbLine
 10
526.005752861124
 20
567.6650635094617
 30
0.0
 11
520.7666259043991
 21
570.6898748682454
 31
0.0
  0
LINE
  5
3C2
330
1F
100
AcDbEntity
  8
LAY-10
  6
CONTINUOUS
 62
     7
100
AcDbLine
 10
523.505752861124
 20
563.3349364905396
 30
0.0
 11
518.2666259043992
 21
566.3597478493234
 31
0.0
  0
LINE
  5
3C3
330
1F
100
AcDbEntity
  8
LAY-10
  6
CONTINUOUS
 62
     7
100
AcDbLine
 10
462.5000000000002
 20
658.9249571701283
 30
0.0
 11
462.5000000000002
 21
657.0
 31
0.0
  0
LINE
  5
3C4
330
1F
100
AcDbEntity
  8
LAY-10
  6
CONTINUOUS
 62
     7
100
AcDbLine
 10
467.5000000000001
 20
658.9249571701283
 30
0.0
 11
467.5000000000001
 21
657.0
 31
0.0
  0
LINE
  5
3C5
330
1F
100
AcDbEntity
  8
LAY-10
  6
CONTINUOUS
 62
     7
100
AcDbLine
 10
412.7194901737247
 20
572.7025849243772
 30
0.0
 11
414.386551984287
 21
573.6650635094611
 31
0.0
  0
LINE
  5
3C6
330
1F
100
AcDbEntity
  8
LAY-10
  6
CONTINUOUS
 62
     7
100
AcDbLine
 10
415.2194901737229
 20
568.3724579054541
 30
0.0
 11
416.8865519842869
 21
569.334936490539
 31
0.0
  0
LINE
  5
3C7
330
1F
100
AcDbEntity
  8
LAY-10
  6
CONTINUOUS
 62
     7
100
AcDbLine
 10
517.280509826275
 20
572.7025849243767
 30
0.0
 11
515.6134480157125
 21
573.6650635094607
 31
0.0
  0
LINE
  5
3C8
330
1F
100
AcDbEntity
  8
LAY-10
  6
CONTINUOUS
 62
     7
100
AcDbLine
 10
514.7805098262767
 20
568.3724579054536
 30
0.0
 11
513.1134480157126
 21
569.3349364905386
 31
0.0
  0
LINE
  5
3C9
330
1F
100
AcDbEntity
  8
LAY-10
  6
CONTINUOUS
 62
     7
100
AcDbLine
 10
385.0000000000002
 20
298.0000000000277
 30
0.0
 11
385.0000000000002
 21
300.5000000000018
 31
0.0
  0
LINE
  5
3CA
330
1F
100
AcDbEntity
  8
LAY-10
  6
CONTINUOUS
 62
     7
100
AcDbLine
 10
390.9999999999999
 20
298.0000000000277
 30
0.0
 11
390.9999999999999
 21
300.5000000000018
 31
0.0
  0
LINE
  5
3CB
330
1F
100
AcDbEntity
  8
LAY-10
  6
CONTINUOUS
 62
     7
100
AcDbLine
 10
390.9999999999999
 20
298.0000000000277
 30
0.0
 11
390.5000000000011
 21
297.5000000000271
 31
0.0
  0
LINE
  5
3CC
330
1F
100
AcDbEntity
  8
LAY-10
  6
CONTINUOUS
 62
     7
100
AcDbLine
 10
385.0000000000002
 20
298.0000000000277
 30
0.0
 11
385.5000000000015
 21
297.5000000000271
 31
0.0
  0
ARC
  5
3CD
330
1F
100
AcDbEntity
  8
LAY-10
  6
CONTINUOUS
 62
     7
100
AcDbCircle
 10
464.9999999999999
 20
361.4999999999998
 30
0.0
 40
2.5
100
AcDbArc
 50
90.00000000000001
 51
270.0
  0
LINE
  5
3CE
330
1F
100
AcDbEntity
  8
LAY-10
  6
CONTINUOUS
 62
     7
100
AcDbLine
 10
533.9999999999978
 20
363.9999999999996
 30
0.0
 11
521.9999999999999
 21
363.9999999999996
 31
0.0
  0
LINE
  5
3CF
330
1F
100
AcDbEntity
  8
LAY-10
  6
CONTINUOUS
 62
     7
100
AcDbLine
 10
533.9999999999978
 20
358.9999999999997
 30
0.0
 11
521.9999999999998
 21
358.9999999999997
 31
0.0
  0
LINE
  5
3D0
330
1F
100
AcDbEntity
  8
LAY-10
  6
CONTINUOUS
 62
     7
100
AcDbLine
 10
385.5000000000002
 20
311.9999999999997
 30
0.0
 11
385.5000000000002
 21
300.0000000000017
 31
0.0
  0
LINE
  5
3D1
330
1F
100
AcDbEntity
  8
LAY-10
  6
CONTINUOUS
 62
     7
100
AcDbLine
 10
390.5000000000001
 20
311.9999999999997
 30
0.0
 11
390.5000000000001
 21
300.0000000000017
 31
0.0
  0
LINE
  5
3D2
330
1F
100
AcDbEntity
  8
LAY-10
  6
CONTINUOUS
 62
     7
100
AcDbLine
 10
561.9999999999808
 20
301.5000000000051
 30
0.0
 11
561.4999999999824
 21
302.0000000000057
 31
0.0
  0
LINE
  5
3D3
330
1F
100
AcDbEntity
  8
LAY-10
  6
CONTINUOUS
 62
     7
100
AcDbLine
 10
555.9999999999817
 20
301.5000000000051
 30
0.0
 11
556.4999999999831
 21
302.0000000000057
 31
0.0
  0
LINE
  5
3D4
330
1F
100
AcDbEntity
  8
LAY-10
  6
CONTINUOUS
 62
     7
100
AcDbLine
 10
561.9999999999808
 20
301.5000000000051
 30
0.0
 11
561.9999999999808
 21
299.500000000016
 31
0.0
  0
LINE
  5
3D5
330
1F
100
AcDbEntity
  8
LAY-10
  6
CONTINUOUS
 62
     7
100
AcDbLine
 10
555.9999999999817
 20
301.5000000000051
 30
0.0
 11
555.9999999999817
 21
299.500000000016
 31
0.0
  0
LINE
  5
3D6
330
1F
100
AcDbEntity
  8
LAY-10
  6
CONTINUOUS
 62
     7
100
AcDbLine
 10
561.4999999999799
 20
300.0000000000099
 30
0.0
 11
561.4999999999799
 21
294.0000000000099
 31
0.0
  0
LINE
  5
3D7
330
1F
100
AcDbEntity
  8
LAY-10
  6
CONTINUOUS
 62
     7
100
AcDbLine
 10
556.4999999999799
 20
300.0000000000099
 30
0.0
 11
556.4999999999799
 21
294.0000000000099
 31
0.0
  0
LINE
  5
3D8
330
1F
100
AcDbEntity
  8
LAY-10
  6
CONTINUOUS
 62
     7
100
AcDbLine
 10
556.4999999999617
 20
293.133974596215
 30
0.0
 11
555.9999999999617
 21
293.9999999999995
 31
0.0
  0
LINE
  5
3D9
330
1F
100
AcDbEntity
  8
LAY-10
  6
CONTINUOUS
 62
     7
100
AcDbLine
 10
561.4999999999919
 20
293.1339745962185
 30
0.0
 11
561.9999999999919
 21
294.000000000003
 31
0.0
  0
DIMENSION
  5
3DB
330
1F
100
AcDbEntity
  8
LAY-20
  6
CONTINUOUS
 62
     4
100
AcDbDimension
  2
*D15
 10
570.0
 20
462.0
 30
0.0
 11
465.0000000000001
 21
469.5
 31
0.0
 70
   160
  1
%%c<>
  3
ISO-25
100
AcDbAlignedDimension
 13
360.0000000000002
 23
304.9999999999997
 33
0.0
 14
570.0
 24
304.9999999999997
 34
0.0
100
AcDbRotatedDimension
1001
ACAD
1000
DSTYLE
1002
{
1070
   270
1070
     2
1070
     6
1000
EX_BNORM
1070
     7
1000
EX_BNORM
1070
    41
1040
7.5
1070
    42
1040
4.5
1070
    44
1040
4.5
1070
    73
1070
     0
1070
    74
1070
     0
1070
    75
1070
     0
1070
    76
1070
     0
1070
    77
1070
     1
1070
    78
1070
     8
1070
   140
1040
9.3543312
1070
   147
1040
0.0
1070
   173
1070
     1
1070
   176
1070
     4
1070
   177
1070
     4
1070
   178
1070
     7
1070
   271
1070
     1
1070
   277
1070
     2
1070
   279
1070
     2
1070
   280
1070
     0
1070
   287
1070
     5
1070
   340
1005
3DA
1002
}
  0
DIMENSION
  5
3E9
330
1F
100
AcDbEntity
  8
LAY-20
  6
CONTINUOUS
 62
     4
100
AcDbDimension
  2
*D16
 10
523.9779668817484
 20
398.9999999999998
 30
0.0
 11
464.9999999999998
 21
406.4999999999998
 31
0.0
 70
   160
  1
%%c<>
  3
ISO-25
100
AcDbAlignedDimension
 13
406.0220331182513
 23
368.9999999999998
 33
0.0
 14
523.9779668817484
 24
368.9999999999998
 34
0.0
100
AcDbRotatedDimension
1001
ACAD
1000
DSTYLE
1002
{
1070
   270
1070
     2
1070
     6
1000
EX_BNORM
1070
     7
1000
EX_BNORM
1070
    41
1040
7.5
1070
    42
1040
4.5
1070
    44
1040
4.5
1070
    73
1070
     0
1070
    74
1070
     0
1070
    75
1070
     0
1070
    76
1070
     0
1070
    77
1070
     1
1070
    78
1070
     8
1070
   140
1040
9.3543312
1070
   147
1040
0.0
1070
   173
1070
     1
1070
   176
1070
     4
1070
   177
1070
     4
1070
   178
1070
     7
1070
   271
1070
     1
1070
   277
1070
     2
1070
   279
1070
     2
1070
   280
1070
     0
1070
   287
1070
     5
1070
   340
1005
3DA
1002
}
  0
DIMENSION
  5
3F6
330
1F
100
AcDbEntity
  8
LAY-20
  6
CONTINUOUS
 62
     4
100
AcDbDimension
  2
*D17
 10
381.0000000000196
 20
441.0
 30
0.0
 11
465.0
 21
448.4999999999999
 31
0.0
 70
   160
  1
%%c<>
  3
ISO-25
100
AcDbAlignedDimension
 13
548.9999999999802
 23
311.9999999999997
 33
0.0
 14
381.0000000000196
 24
311.9999999999997
 34
0.0
100
AcDbRotatedDimension
1001
ACAD
1000
DSTYLE
1002
{
1070
   270
1070
     2
1070
     6
1000
EX_BNORM
1070
     7
1000
EX_BNORM
1070
    41
1040
7.5
1070
    42
1040
4.5
1070
    44
1040
4.5
1070
    73
1070
     0
1070
    74
1070
     0
1070
    75
1070
     0
1070
    76
1070
     0
1070
    77
1070
     1
1070
    78
1070
     8
1070
   140
1040
9.3543312
1070
   147
1040
0.0
1070
   173
1070
     1
1070
   176
1070
     4
1070
   177
1070
     4
1070
   178
1070
     7
1070
   271
1070
     1
1070
   277
1070
     2
1070
   279
1070
     2
1070
   280
1070
     0
1070
   287
1070
     5
1070
   340
1005
3DA
1002
}
  0
DIMENSION
  5
403
330
1F
100
AcDbEntity
  8
LAY-20
  6
CONTINUOUS
 62
     4
100
AcDbDimension
  2
*D18
 10
513.4999999999997
 20
180.9999999999999
 30
0.0
 11
464.9999999999998
 21
188.4999999999999
 31
0.0
 70
   160
  1
%%c<>
  3
ISO-25
100
AcDbAlignedDimension
 13
416.5000000000001
 23
286.9999999999972
 33
0.0
 14
513.4999999999997
 24
286.9999999999972
 34
0.0
100
AcDbRotatedDimension
1001
ACAD
1000
DSTYLE
1002
{
1070
   270
1070
     2
1070
     6
1000
EX_BNORM
1070
     7
1000
EX_BNORM
1070
    41
1040
7.5
1070
    42
1040
4.5
1070
    44
1040
4.5
1070
    73
1070
     0
1070
    74
1070
     0
1070
    75
1070
     0
1070
    76
1070
     0
1070
    77
1070
     1
1070
    78
1070
     8
1070
   140
1040
9.3543312
1070
   147
1040
0.0
1070
   173
1070
     1
1070
   176
1070
     4
1070
   177
1070
     4
1070
   178
1070
     7
1070
   271
1070
     1
1070
   277
1070
     2
1070
   279
1070
     2
1070
   280
1070
     0
1070
   287
1070
     5
1070
   340
1005
3DA
1002
}
  0
DIMENSION
  5
410
330
1F
100
AcDbEntity
  8
LAY-20
  6
CONTINUOUS
 62
     4
100
AcDbDimension
  2
*D19
 10
512.0000000000009
 20
201.9999999999999
 30
0.0
 11
464.9999999999999
 21
209.4999999999999
 31
0.0
 70
   160
  1
%%c<>
  3
ISO-25
100
AcDbAlignedDimension
 13
417.9999999999989
 23
246.9999999999997
 33
0.0
 14
512.0000000000009
 24
246.9999999999997
 34
0.0
100
AcDbRotatedDimension
1001
ACAD
1000
DSTYLE
1002
{
1070
   270
1070
     2
1070
     6
1000
EX_BNORM
1070
     7
1000
EX_BNORM
1070
    41
1040
7.5
1070
    42
1040
4.5
1070
    44
1040
4.5
1070
    73
1070
     0
1070
    74
1070
     0
1070
    75
1070
     0
1070
    76
1070
     0
1070
    77
1070
     1
1070
    78
1070
     8
1070
   140
1040
9.3543312
1070
   147
1040
0.0
1070
   173
1070
     1
1070
   176
1070
     4
1070
   177
1070
     4
1070
   178
1070
     7
1070
   271
1070
     1
1070
   277
1070
     2
1070
   279
1070
     2
1070
   280
1070
     0
1070
   287
1070
     5
1070
   340
1005
3DA
1002
}
  0
DIMENSION
  5
41D
330
1F
100
AcDbEntity
  8
LAY-20
  6
CONTINUOUS
 62
     4
100
AcDbDimension
  2
*D20
 10
330.0000000000003
 20
311.9999999999997
 30
0.0
 11
322.5000000000003
 21
300.2042097470606
 31
0.0
 70
   160
  3
ISO-25
100
AcDbAlignedDimension
 13
395.0000000000001
 23
288.4084194941216
 33
0.0
 14
361.0000000000001
 24
311.9999999999997
 34
0.0
 50
90.0
100
AcDbRotatedDimension
1001
ACAD
1000
DSTYLE
1002
{
1070
   270
1070
     2
1070
     6
1000
EX_BNORM
1070
     7
1000
EX_BNORM
1070
    41
1040
7.5
1070
    42
1040
4.5
1070
    44
1040
4.5
1070
    73
1070
     0
1070
    74
1070
     0
1070
    75
1070
     0
1070
    76
1070
     0
1070
    77
1070
     1
1070
    78
1070
     0
1070
   140
1040
9.3543312
1070
   147
1040
0.0
1070
   173
1070
     1
1070
   176
1070
     4
1070
   177
1070
     4
1070
   178
1070
     7
1070
   271
1070
     0
1070
   277
1070
     2
1070
   279
1070
     2
1070
   280
1070
     0
1070
   287
1070
     5
1070
   340
1005
3DA
1002
}
  0
DIMENSION
  5
42A
330
1F
100
AcDbEntity
  8
LAY-20
  6
CONTINUOUS
 62
     4
100
AcDbDimension
  2
*D21
 10
603.49999999999
 20
312.0
 30
0.0
 11
595.99999999999
 21
272.0
 31
0.0
 70
   160
  3
ISO-25
100
AcDbAlignedDimension
 13
535.0
 23
232.0
 33
0.0
 14
569.0
 24
312.0
 34
0.0
 50
90.0
100
AcDbRotatedDimension
1001
ACAD
1000
DSTYLE
1002
{
1070
   270
1070
     2
1070
     6
1000
EX_BNORM
1070
     7
1000
EX_BNORM
1070
    41
1040
7.5
1070
    42
1040
4.5
1070
    44
1040
4.5
1070
    73
1070
     0
1070
    74
1070
     0
1070
    75
1070
     0
1070
    76
1070
     0
1070
    77
1070
     1
1070
    78
1070
     8
1070
   140
1040
9.3543312
1070
   147
1040
0.0
1070
   173
1070
     1
1070
   176
1070
     4
1070
   177
1070
     4
1070
   178
1070
     7
1070
   271
1070
     1
1070
   277
1070
     2
1070
   279
1070
     2
1070
   280
1070
     0
1070
   287
1070
     5
1070
   340
1005
3DA
1002
}
  0
DIMENSION
  5
437
330
1F
100
AcDbEntity
  8
LAY-20
  6
CONTINUOUS
 62
     4
100
AcDbDimension
  2
*D22
 10
603.49999999999
 20
312.0
 30
0.0
 11
595.99999999999
 21
340.5
 31
0.0
 70
   160
  3
ISO-25
100
AcDbAlignedDimension
 13
528.0
 23
369.0
 33
0.0
 14
603.49999999999
 24
312.0
 34
0.0
 50
90.0
100
AcDbRotatedDimension
1001
ACAD
1000
DSTYLE
1002
{
1070
   270
1070
     2
1070
     6
1000
EX_BNORM
1070
     7
1000
EX_BNORM
1070
    41
1040
7.5
1070
    42
1040
4.5
1070
    44
1040
4.5
1070
    73
1070
     0
1070
    74
1070
     0
1070
    75
1070
     0
1070
    76
1070
     1
1070
    77
1070
     1
1070
    78
1070
     8
1070
   140
1040
9.3543312
1070
   147
1040
0.0
1070
   173
1070
     1
1070
   176
1070
     4
1070
   177
1070
     4
1070
   178
1070
     7
1070
   271
1070
     1
1070
   277
1070
     2
1070
   279
1070
     2
1070
   280
1070
     0
1070
   287
1070
     5
1070
   340
1005
3DA
1002
}
  0
DIMENSION
  5
443
330
1F
100
AcDbEntity
  8
LAY-20
  6
CONTINUOUS
 62
     4
100
AcDbDimension
  2
*D23
 10
384.0
 20
420.0
 30
0.0
 11
465.0
 21
427.5
 31
0.0
 70
   160
  1
%%c<>
  3
ISO-25
100
AcDbAlignedDimension
 13
546.0
 23
309.0
 33
0.0
 14
384.0
 24
309.0
 34
0.0
100
AcDbRotatedDimension
1001
ACAD
1000
DSTYLE
1002
{
1070
   270
1070
     2
1070
     6
1000
EX_BNORM
1070
     7
1000
EX_BNORM
1070
    41
1040
7.5
1070
    42
1040
4.5
1070
    44
1040
4.5
1070
    73
1070
     0
1070
    74
1070
     0
1070
    75
1070
     0
1070
    76
1070
     0
1070
    77
1070
     1
1070
    78
1070
     8
1070
   140
1040
9.3543312
1070
   147
1040
0.0
1070
   173
1070
     1
1070
   176
1070
     4
1070
   177
1070
     4
1070
   178
1070
     7
1070
   271
1070
     1
1070
   277
1070
     2
1070
   279
1070
     2
1070
   280
1070
     0
1070
   287
1070
     5
1070
   340
1005
3DA
1002
}
  0
LINE
  5
450
330
1F
100
AcDbEntity
  8
LAY-255
  6
CONTINUOUS
 62
     7
100
AcDbLine
 10
1155.0
 20
66.0
 30
0.0
 11
855.0
 21
66.0
 31
0.0
  0
LINE
  5
451
330
1F
100
AcDbEntity
  8
LAY-255
  6
CONTINUOUS
 62
     7
100
AcDbLine
 10
866.4000000000001
 20
48.0
 30
0.0
 11
890.4000000000001
 21
63.0
 31
0.0
  0
LINE
  5
452
330
1F
100
AcDbEntity
  8
LAY-255
  6
CONTINUOUS
 62
     7
100
AcDbLine
 10
890.4000000000001
 20
63.0
 30
0.0
 11
914.4000000000001
 21
48.0
 31
0.0
  0
LINE
  5
453
330
1F
100
AcDbEntity
  8
LAY-255
  6
CONTINUOUS
 62
     7
100
AcDbLine
 10
914.4000000000001
 20
48.0
 30
0.0
 11
890.4000000000001
 21
33.0
 31
0.0
  0
LINE
  5
454
330
1F
100
AcDbEntity
  8
LAY-255
  6
CONTINUOUS
 62
     7
100
AcDbLine
 10
890.4000000000001
 20
33.0
 30
0.0
 11
866.4000000000001
 21
48.0
 31
0.0
  0
LINE
  5
455
330
1F
100
AcDbEntity
  8
LAY-255
  6
CONTINUOUS
 62
     7
100
AcDbLine
 10
15.0
 20
30.0
 30
0.0
 11
1155.0
 21
30.0
 31
0.0
  0
LINE
  5
456
330
1F
100
AcDbEntity
  8
LAY-255
  6
CONTINUOUS
 62
     7
100
AcDbLine
 10
15.0
 20
840.0
 30
0.0
 11
1155.0
 21
840.0
 31
0.0
  0
LINE
  5
457
330
1F
100
AcDbEntity
  8
LAY-255
  6
CONTINUOUS
 62
     7
100
AcDbLine
 10
15.0
 20
30.0
 30
0.0
 11
15.0
 21
840.0
 31
0.0
  0
LINE
  5
458
330
1F
100
AcDbEntity
  8
LAY-255
  6
CONTINUOUS
 62
     7
100
AcDbLine
 10
1155.0
 20
30.0
 30
0.0
 11
1155.0
 21
840.0
 31
0.0
  0
LINE
  5
459
330
1F
100
AcDbEntity
  8
LAY-255
  6
CONTINUOUS
 62
     4
100
AcDbLine
 10
855.0
 20
84.0
 30
0.0
 11
1155.0
 21
84.0
 31
0.0
  0
LINE
  5
45A
330
1F
100
AcDbEntity
  8
LAY-255
  6
CONTINUOUS
 62
     7
100
AcDbLine
 10
855.0
 20
30.0
 30
0.0
 11
855.0
 21
201.0
 31
0.0
  0
LINE
  5
45B
330
1F
100
AcDbEntity
  8
LAY-255
  6
CONTINUOUS
 62
     4
100
AcDbLine
 10
1005.0
 20
84.0
 30
0.0
 11
1005.0
 21
66.0
 31
0.0
  0
LINE
  5
45C
330
1F
100
AcDbEntity
  8
LAY-255
  6
CONTINUOUS
 62
     7
100
AcDbLine
 10
1155.0
 20
201.0
 30
0.0
 11
855.0
 21
201.0
 31
0.0
  0
LINE
  5
45D
330
1F
100
AcDbEntity
  8
LAY-255
  6
CONTINUOUS
 62
     4
100
AcDbLine
 10
1149.0
 20
165.0
 30
0.0
 11
861.0
 21
165.0
 31
0.0
  0
LINE
  5
45E
330
1F
100
AcDbEntity
  8
LAY-255
  6
CONTINUOUS
 62
     4
100
AcDbLine
 10
1149.0
 20
183.0
 30
0.0
 11
861.0
 21
183.0
 31
0.0
  0
POINT
  5
45F
330
1F
100
AcDbEntity
  8
LAY-255
  6
CONTINUOUS
 62
     7
100
AcDbPoint
 10
867.0
 20
150.0
 30
0.0
  0
POINT
  5
460
330
1F
100
AcDbEntity
  8
LAY-255
  6
CONTINUOUS
 62
     7
100
AcDbPoint
 10
900.0
 20
168.0
 30
0.0
  0
POINT
  5
461
330
1F
100
AcDbEntity
  8
LAY-255
  6
CONTINUOUS
 62
     7
100
AcDbPoint
 10
900.0
 20
186.0
 30
0.0
  0
POINT
  5
462
330
1F
100
AcDbEntity
  8
LAY-255
  6
CONTINUOUS
 62
     7
100
AcDbPoint
 10
867.0
 20
120.0
 30
0.0
  0
POINT
  5
463
330
1F
100
AcDbEntity
  8
LAY-255
  6
CONTINUOUS
 62
     7
100
AcDbPoint
 10
867.0
 20
135.0
 30
0.0
  0
POINT
  5
464
330
1F
100
AcDbEntity
  8
LAY-255
  6
CONTINUOUS
 62
     7
100
AcDbPoint
 10
867.0
 20
105.0
 30
0.0
  0
POINT
  5
465
330
1F
100
AcDbEntity
  8
LAY-255
  6
CONTINUOUS
 62
     7
100
AcDbPoint
 10
867.0
 20
89.99999999999996
 30
0.0
  0
TEXT
  5
466
330
1F
100
AcDbEntity
  8
LAY-255
  6
CONTINUOUS
 62
     7
100
AcDbText
 10
924.415136826172
 20
46.63125
 30
0.0
 40
15.46875
  1
福西鋳物株式会社
 41
1.342692141742901
  7
EXCADSTD
100
AcDbText
  0
TEXT
  5
467
330
1F
100
AcDbEntity
  8
LAY-255
  6
CONTINUOUS
 62
     7
100
AcDbText
 10
925.528125
 20
35.94375
 30
0.0
 40
5.15625
  1
ＦＵＫＵＮＩＳＨＩ
 41
1.204799226045263
  7
EXCADSTD
100
AcDbText
  0
TEXT
  5
468
330
1F
100
AcDbEntity
  8
LAY-255
  6
CONTINUOUS
 62
     7
100
AcDbText
 10
998.1575892857143
 20
35.94375
 30
0.0
 40
5.15625
  1
ＦＯＵＮＤＲＹ
 41
1.243252752978497
  7
EXCADSTD
100
AcDbText
  0
TEXT
  5
469
330
1F
100
AcDbEntity
  8
LAY-255
  6
CONTINUOUS
 62
     7
100
AcDbText
 10
1055.983774651442
 20
35.94375
 30
0.0
 40
5.15625
  1
ＣＯ.,ＬＴＤ.
 41
1.243831271314936
  7
EXCADSTD
100
AcDbText
  0
TEXT
  5
46A
330
1F
100
AcDbEntity
  8
LAY-255
  6
CONTINUOUS
 62
     7
100
AcDbText
 10
882.1031250000001
 20
41.15625
 30
0.0
 40
15.46875
  1
S
 41
0.7582677563636363
  7
EXCADSTD
100
AcDbText
  0
TEXT
  5
46B
330
1F
100
AcDbEntity
  8
LAY-255
  6
CONTINUOUS
 62
     7
100
AcDbText
 10
891.3140625000001
 20
41.24823113208
 30
0.0
 40
15.46875
  1
F
 41
0.7440945272727273
  7
EXCADSTD
100
AcDbText
  0
TEXT
  5
46C
330
1F
100
AcDbEntity
  8
LAY-255
  6
CONTINUOUS
 62
     7
100
AcDbText
 10
1011.31640625
 20
73.26562499999997
 30
0.0
 40
7.734375
  1
縮尺
 41
1.080708718181818
  7
EXCADSTD
100
AcDbText
  0
TEXT
  5
46D
330
1F
100
AcDbEntity
  8
LAY-255
  6
CONTINUOUS
 62
     7
100
AcDbText
 10
861.796875
 20
169.6875
 30
0.0
 40
10.3125
  1
型式
 41
1.056348480681818
  7
EXCADSTD
100
AcDbText
  0
TEXT
  5
46E
330
1F
100
AcDbEntity
  8
LAY-255
  6
CONTINUOUS
 62
     7
100
AcDbText
 10
862.265625
 20
187.6875
 30
0.0
 40
10.3125
  1
品名
 41
0.978838634090909
  7
EXCADSTD
100
AcDbText
  0
TEXT
  5
46F
330
1F
100
AcDbEntity
  8
LAY-255
  6
CONTINUOUS
 62
     7
100
AcDbText
 10
861.45703125
 20
73.26562499999997
 30
0.0
 40
7.734375
  1
作成日
 41
1.000629973818182
  7
EXCADSTD
100
AcDbText
  0
TEXT
  5
470
330
1F
100
AcDbEntity
  8
LAY-255
  6
CONTINUOUS
 62
     7
100
AcDbText
 10
1044.84375
 20
70.68749999999997
 30
0.0
 40
10.3125
  1
１：３
 41
0.8844094952727272
  7
EXCADSTD
100
AcDbText
  0
TEXT
  5
471
330
1F
100
AcDbEntity
  8
LAY-255
  6
CONTINUOUS
 62
     7
100
AcDbText
 10
867.5625
 20
121.6875
 30
0.0
 40
10.3125
  1
施工：打込用
 41
1.018700840909091
  7
EXCADSTD
100
AcDbText
  0
TEXT
  5
472
330
1F
100
AcDbEntity
  8
LAY-255
  6
CONTINUOUS
 62
     7
100
AcDbText
 10
900.75
 20
187.6875
 30
0.0
 40
10.3125
  1
ルーフドレイン
 41
1.021169538599106
  7
EXCADSTD
100
AcDbText
  0
TEXT
  5
473
330
1F
100
AcDbEntity
  8
LAY-255
  6
CONTINUOUS
 62
     7
100
AcDbText
 10
867.65625
 20
106.6875
 30
0.0
 40
10.3125
  1
接続：差込用
 41
1.01733803041958
  7
EXCADSTD
100
AcDbText
  0
TEXT
  5
474
330
1F
100
AcDbEntity
  8
LAY-255
  6
CONTINUOUS
 62
     7
100
AcDbText
 10
868.125
 20
151.6875000000001
 30
0.0
 40
10.3125
  1
防水：モルタル・塗膜防水兼用
 41
1.008985320967742
  7
EXCADSTD
100
AcDbText
  0
TEXT
  5
475
330
1F
100
AcDbEntity
  8
LAY-255
  6
CONTINUOUS
 62
     7
100
AcDbText
 10
867.703125
 20
136.6875
 30
0.0
 40
10.3125
  1
用途：中継用
 41
1.016656625174825
  7
EXCADSTD
100
AcDbText
  0
TEXT
  5
476
330
1F
100
AcDbEntity
  8
LAY-255
  6
CONTINUOUS
 62
     7
100
AcDbText
 10
902.625
 20
169.6875
 30
0.0
 40
10.3125
  1
ＲＣＸ－１０１００型
 41
1.000581655991735
  7
EXCADSTD
100
AcDbText
  0
TEXT
  5
477
330
1F
100
AcDbEntity
  8
LAY-255
  6
CONTINUOUS
 62
     7
100
AcDbText
 10
902.671875
 20
70.68749999999997
 30
0.0
 40
10.3125
  1
０７／０７／２４
 41
0.9794713675324676
  7
EXCADSTD
100
AcDbText
  0
ENDSEC
  0
SECTION
  2
OBJECTS
  0
DICTIONARY
  5
C
330
0
100
AcDbDictionary
  3
ACAD_GROUP
350
D
  3
ACAD_LAYOUT
350
1A
  3
ACAD_MATERIAL
350
43
  3
ACAD_MLEADERSTYLE
350
6B
  3
ACAD_MLINESTYLE
350
17
  3
ACAD_PLOTSETTINGS
350
19
  3
ACAD_SCALELIST
350
47
  3
ACAD_VISUALSTYLE
350
2A
  3
ACDBHEADERROUNDTRIPXREC
350
478
  3
ACDBVARIABLEDICTIONARY
350
499
  0
DICTIONARY
  5
4A4
330
8
100
AcDbDictionary
280
     1
  3
ACAD_XREC_ROUNDTRIP
360
4A5
  0
DICTIONARY
  5
D
102
{ACAD_REACTORS
330
C
102
}
330
C
100
AcDbDictionary
  0
DICTIONARY
  5
1A
102
{ACAD_REACTORS
330
C
102
}
330
C
100
AcDbDictionary
  0
DICTIONARY
  5
43
102
{ACAD_REACTORS
330
C
102
}
330
C
100
AcDbDictionary
  3
BYBLOCK
350
45
  3
BYLAYER
350
44
  3
GLOBAL
350
46
  0
DICTIONARY
  5
6B
102
{ACAD_REACTORS
330
C
102
}
330
C
100
AcDbDictionary
  3
STANDARD
350
6C
  0
DICTIONARY
  5
17
102
{ACAD_REACTORS
330
C
102
}
330
C
100
AcDbDictionary
  3
STANDARD
350
18
  0
DICTIONARY
  5
19
102
{ACAD_REACTORS
330
C
102
}
330
C
100
AcDbDictionary
  0
DICTIONARY
  5
47
102
{ACAD_REACTORS
330
C
102
}
330
C
100
AcDbDictionary
  3
A0
350
48
  3
A1
350
49
  3
A2
350
4A
  3
A3
350
4B
  3
A4
350
4C
  3
A5
350
4D
  3
A6
350
4E
  3
A7
350
4F
  3
A8
350
50
  3
A9
350
51
  3
B0
350
52
  3
B1
350
53
  3
B2
350
54
  3
B3
350
55
  3
B4
350
56
  3
B5
350
57
  3
B6
350
58
  3
B7
350
59
  3
B8
350
5A
  3
B9
350
5B
  3
C0
350
5C
  3
C1
350
5D
  3
C2
350
5E
  3
C3
350
5F
  3
C4
350
60
  3
C5
350
61
  3
C6
350
62
  3
C7
350
63
  3
C8
350
64
  3
C9
350
65
  3
D0
350
66
  3
D1
350
67
  3
D2
350
68
  0
DICTIONARY
  5
2A
102
{ACAD_REACTORS
330
C
102
}
330
C
100
AcDbDictionary
  3
2DWIREFRAME
350
2F
  3
BASIC
350
32
  3
BRIGHTEN
350
36
  3
COLORCHANGE
350
3A
  3
CONCEPTUAL
350
34
  3
DIM
350
35
  3
EDGECOLOROFF
350
3D
  3
FACEPATTERN
350
39
  3
FLAT
350
2B
  3
FLATWITHEDGES
350
2C
  3
GOURAUD
350
2D
  3
GOURAUDWITHEDGES
350
2E
  3
HIDDEN
350
31
  3
JITTEROFF
350
3B
  3
LINEPATTERN
350
38
  3
OVERHANGOFF
350
3C
  3
REALISTIC
350
33
  3
SHADED
350
42
  3
SHADED_WITH_EDGES
350
41
  3
SHADES_OF_GRAY
350
3E
  3
SKETCHY
350
3F
  3
THICKEN
350
37
  3
WIREFRAME
350
30
  3
X-RAY
350
40
  0
DICTIONARY
  5
478
102
{ACAD_REACTORS
330
C
102
}
330
C
100
AcDbDictionary
  3
CEPSNID
350
482
  3
CEPSNTYPE
350
481
  3
DIMSTYLEDATA
350
498
  3
FINGERPRINTGUID
350
483
  3
HYPERLINKBASE
350
47B
  3
INSUNITS
350
480
  3
LAYOUTDICT
350
47D
  3
LWETCUNION
350
47F
  3
PLOTSETDICT
350
47E
  3
PSVPSCALE
350
485
  3
PUCSBASE
350
488
  3
PUCSORGBACK
350
48E
  3
PUCSORGBOTTOM
350
48A
  3
PUCSORGFRONT
350
48D
  3
PUCSORGLEFT
350
48B
  3
PUCSORGRIGHT
350
48C
  3
PUCSORGTOP
350
489
  3
PUCSORTHOREF
350
486
  3
PUCSORTHOVIEW
350
487
  3
STYLESHEET
350
47C
  3
TSTACKALIGN
350
479
  3
TSTACKSIZE
350
47A
  3
UCSBASE
350
491
  3
UCSORGBACK
350
497
  3
UCSORGBOTTOM
350
493
  3
UCSORGFRONT
350
496
  3
UCSORGLEFT
350
494
  3
UCSORGRIGHT
350
495
  3
UCSORGTOP
350
492
  3
UCSORTHOREF
350
48F
  3
UCSORTHOVIEW
350
490
  3
VERSIONGUID
350
484
  0
DICTIONARY
  5
499
102
{ACAD_REACTORS
330
C
102
}
330
C
100
AcDbDictionary
  3
CANNOSCALE
350
4A6
  3
CENTEREXE
350
4A0
  3
CENTERLTYPEFILE
350
4A1
  3
CMLEADERSTYLE
350
49B
  3
CTABLESTYLE
350
49A
  3
DIMASSOC
350
4A2
  3
HIDETEXT
350
4A3
  3
MSLTSCALE
350
4A7
  3
PSOLHEIGHT
350
49D
  3
PSOLWIDTH
350
49C
  0
XRECORD
  5
4A5
102
{ACAD_REACTORS
330
4A4
102
}
330
4A4
100
AcDbXrecord
102
VTR_0.000_0.000_1.000_1.000_VISUALSTYLE
340
2F
102
VTR_0.000_0.000_1.000_1.000_GRIDDISPLAY
 70
     3
102
VTR_0.000_0.000_1.000_1.000_GRIDMAJOR
 70
     5
102
VTR_0.000_0.000_1.000_1.000_DEFAULTLIGHTING
280
     1
102
VTR_0.000_0.000_1.000_1.000_DEFAULTLIGHTINGTYPE
 70
     1
102
VTR_0.000_0.000_1.000_1.000_BRIGHTNESS
141
0.0
102
VTR_0.000_0.000_1.000_1.000_CONTRAST
142
0.0
  0
MATERIAL
  5
45
102
{ACAD_REACTORS
330
43
102
}
102
{ACAD_XDICTIONARY
360
4AA
102
}
330
43
100
AcDbMaterial
  1
BYBLOCK
  0
MATERIAL
  5
44
102
{ACAD_REACTORS
330
43
102
}
102
{ACAD_XDICTIONARY
360
4A8
102
}
330
43
100
AcDbMaterial
  1
BYLAYER
  0
MATERIAL
  5
46
102
{ACAD_REACTORS
330
43
102
}
102
{ACAD_XDICTIONARY
360
4AC
102
}
330
43
100
AcDbMaterial
  1
GLOBAL
  0
ACAD_PROXY_OBJECT
  5
6C
102
{ACAD_REACTORS
330
6B
102
}
330
6B
100
AcDbProxyObject
 90
      499
 91
      505
 93
      610
310
40901902A4063FBFFFFFE0000000000000020400000000000020404214DD185B99185C990000000000000104090141901A00000000000004100000000000000041025764000000000000039000
340
14
340
0
340
11
340
0
 94
        0
1001
ACAD_MLEADERVER
1070
     2
  0
MLINESTYLE
  5
18
102
{ACAD_REACTORS
330
17
102
}
330
17
100
AcDbMlineStyle
  2
Standard
 70
     0
  3

 62
   256
 51
90.0
 52
90.0
 71
     2
 49
0.5
 62
   256
  6
BYLAYER
 49
-0.5
 62
   256
  6
BYLAYER
  0
ACAD_PROXY_OBJECT
  5
48
102
{ACAD_REACTORS
330
47
102
}
330
47
100
AcDbProxyObject
 90
      499
 91
      503
 93
       41
310
903313A31580
  0
ACAD_PROXY_OBJECT
  5
49
102
{ACAD_REACTORS
330
47
102
}
330
47
100
AcDbProxyObject
 90
      499
 91
      503
 93
      105
310
903313A324000000000000004000
  0
ACAD_PROXY_OBJECT
  5
4A
102
{ACAD_REACTORS
330
47
102
}
330
47
100
AcDbProxyObject
 90
      499
 91
      503
 93
      105
310
903313A344000000000000104000
  0
ACAD_PROXY_OBJECT
  5
4B
102
{ACAD_REACTORS
330
47
102
}
330
47
100
AcDbProxyObject
 90
      499
 91
      503
 93
      105
310
903313A354000000000000144000
  0
ACAD_PROXY_OBJECT
  5
4C
102
{ACAD_REACTORS
330
47
102
}
330
47
100
AcDbProxyObject
 90
      499
 91
      503
 93
      105
310
903313A384000000000000204000
  0
ACAD_PROXY_OBJECT
  5
4D
102
{ACAD_REACTORS
330
47
102
}
330
47
100
AcDbProxyObject
 90
      499
 91
      503
 93
      113
310
904313A31304000000000000244000
  0
ACAD_PROXY_OBJECT
  5
4E
102
{ACAD_REACTORS
330
47
102
}
330
47
100
AcDbProxyObject
 90
      499
 91
      503
 93
      113
310
904313A31364000000000000304000
  0
ACAD_PROXY_OBJECT
  5
4F
102
{ACAD_REACTORS
330
47
102
}
330
47
100
AcDbProxyObject
 90
      499
 91
      503
 93
      113
310
904313A32304000000000000344000
  0
ACAD_PROXY_OBJECT
  5
50
102
{ACAD_REACTORS
330
47
102
}
330
47
100
AcDbProxyObject
 90
      499
 91
      503
 93
      113
310
904313A333040000000000003E4000
  0
ACAD_PROXY_OBJECT
  5
51
102
{ACAD_REACTORS
330
47
102
}
330
47
100
AcDbProxyObject
 90
      499
 91
      503
 93
      113
310
904313A34304000000000000444000
  0
ACAD_PROXY_OBJECT
  5
52
102
{ACAD_REACTORS
330
47
102
}
330
47
100
AcDbProxyObject
 90
      499
 91
      503
 93
      113
310
904313A35304000000000000494000
  0
ACAD_PROXY_OBJECT
  5
53
102
{ACAD_REACTORS
330
47
102
}
330
47
100
AcDbProxyObject
 90
      499
 91
      503
 93
      121
310
905313A3130304000000000000594000
  0
ACAD_PROXY_OBJECT
  5
54
102
{ACAD_REACTORS
330
47
102
}
330
47
100
AcDbProxyObject
 90
      499
 91
      503
 93
      105
310
903323A310000000000000010100
  0
ACAD_PROXY_OBJECT
  5
55
102
{ACAD_REACTORS
330
47
102
}
330
47
100
AcDbProxyObject
 90
      499
 91
      503
 93
      105
310
903343A310000000000000410100
  0
ACAD_PROXY_OBJECT
  5
56
102
{ACAD_REACTORS
330
47
102
}
330
47
100
AcDbProxyObject
 90
      499
 91
      503
 93
      105
310
903383A310000000000000810100
  0
ACAD_PROXY_OBJECT
  5
57
102
{ACAD_REACTORS
330
47
102
}
330
47
100
AcDbProxyObject
 90
      499
 91
      503
 93
      113
310
90431303A310000000000000910100
  0
ACAD_PROXY_OBJECT
  5
58
102
{ACAD_REACTORS
330
47
102
}
330
47
100
AcDbProxyObject
 90
      499
 91
      503
 93
      121
310
9053130303A310000000000001650100
  0
ACAD_PROXY_OBJECT
  5
59
102
{ACAD_REACTORS
330
47
102
}
330
47
100
AcDbProxyObject
 90
      499
 91
      503
 93
      257
310
90E312F31323822203D2031272D3022000000000000200FC000000000000284000
  0
ACAD_PROXY_OBJECT
  5
5A
102
{ACAD_REACTORS
330
47
102
}
330
47
100
AcDbProxyObject
 90
      499
 91
      503
 93
      249
310
90D312F363422203D2031272D3022000000000000240FC000000000000284000
  0
ACAD_PROXY_OBJECT
  5
5B
102
{ACAD_REACTORS
330
47
102
}
330
47
100
AcDbProxyObject
 90
      499
 91
      503
 93
      249
310
90D312F333222203D2031272D3022000000000000280FC000000000000284000
  0
ACAD_PROXY_OBJECT
  5
5C
102
{ACAD_REACTORS
330
47
102
}
330
47
100
AcDbProxyObject
 90
      499
 91
      503
 93
      249
310
90D312F313622203D2031272D30220000000000002C0FC000000000000284000
  0
ACAD_PROXY_OBJECT
  5
5D
102
{ACAD_REACTORS
330
47
102
}
330
47
100
AcDbProxyObject
 90
      499
 91
      503
 93
      249
310
90D332F333222203D2031272D30220000000000002E0FC000000000000284000
  0
ACAD_PROXY_OBJECT
  5
5E
102
{ACAD_REACTORS
330
47
102
}
330
47
100
AcDbProxyObject
 90
      499
 91
      503
 93
      241
310
90C312F3822203D2031272D3022000000000000300FC000000000000284000
  0
ACAD_PROXY_OBJECT
  5
5F
102
{ACAD_REACTORS
330
47
102
}
330
47
100
AcDbProxyObject
 90
      499
 91
      503
 93
      249
310
90D332F313622203D2031272D3022000000000000320FC000000000000284000
  0
ACAD_PROXY_OBJECT
  5
60
102
{ACAD_REACTORS
330
47
102
}
330
47
100
AcDbProxyObject
 90
      499
 91
      503
 93
      241
310
90C312F3422203D2031272D3022000000000000340FC000000000000284000
  0
ACAD_PROXY_OBJECT
  5
61
102
{ACAD_REACTORS
330
47
102
}
330
47
100
AcDbProxyObject
 90
      499
 91
      503
 93
      241
310
90C332F3822203D2031272D3022000000000000360FC000000000000284000
  0
ACAD_PROXY_OBJECT
  5
62
102
{ACAD_REACTORS
330
47
102
}
330
47
100
AcDbProxyObject
 90
      499
 91
      503
 93
      241
310
90C312F3222203D2031272D3022000000000000380FC000000000000284000
  0
ACAD_PROXY_OBJECT
  5
63
102
{ACAD_REACTORS
330
47
102
}
330
47
100
AcDbProxyObject
 90
      499
 91
      503
 93
      241
310
90C332F3422203D2031272D30220000000000003A0FC000000000000284000
  0
ACAD_PROXY_OBJECT
  5
64
102
{ACAD_REACTORS
330
47
102
}
330
47
100
AcDbProxyObject
 90
      499
 91
      503
 93
      161
310
90A3122203D2031272D30224000000000000284000
  0
ACAD_PROXY_OBJECT
  5
65
102
{ACAD_REACTORS
330
47
102
}
330
47
100
AcDbProxyObject
 90
      499
 91
      503
 93
      257
310
90E312D312F3222203D2031272D30220000000000003E0FC000000000000284000
  0
ACAD_PROXY_OBJECT
  5
66
102
{ACAD_REACTORS
330
47
102
}
330
47
100
AcDbProxyObject
 90
      499
 91
      503
 93
      225
310
90A3322203D2031272D302200000000000002100000000000000284000
  0
ACAD_PROXY_OBJECT
  5
67
102
{ACAD_REACTORS
330
47
102
}
330
47
100
AcDbProxyObject
 90
      499
 91
      503
 93
      225
310
90A3622203D2031272D302200000000000006100000000000000284000
  0
ACAD_PROXY_OBJECT
  5
68
102
{ACAD_REACTORS
330
47
102
}
330
47
100
AcDbProxyObject
 90
      499
 91
      503
 93
      249
310
90D31272D3022203D2031272D30220000000000000A100000000000000284000
  0
ACAD_PROXY_OBJECT
  5
2F
102
{ACAD_REACTORS
330
2A
102
}
330
2A
100
AcDbProxyObject
 90
      499
 91
      501
 93
      436
310
42CC9915DA5C99599C985B595049028333333333333E33F0000000000000F90107901411070040501600405405064090741402480A0340
1001
ACAD
1000
AcDbSavedByObjectVersion
1070
     0
  0
ACAD_PROXY_OBJECT
  5
32
102
{ACAD_REACTORS
330
2A
102
}
330
2A
100
AcDbProxyObject
 90
      499
 91
      501
 93
      388
310
4150985CDA58D07406404333333333333E33F0000000000000F90107A41107004050150841D405064090741402480A0350
1001
ACAD
1000
AcDbSavedByObjectVersion
1070
     0
  0
ACAD_PROXY_OBJECT
  5
36
102
{ACAD_REACTORS
330
2A
102
}
330
2A
100
AcDbProxyObject
 90
      499
 91
      501
 93
      428
310
42109C9A59DA1D195B90C409028333333333333E33F0000000000000F9010790141107004050150841D405064090741402480A029950
1001
ACAD
1000
AcDbSavedByObjectVersion
1070
     0
  0
ACAD_PROXY_OBJECT
  5
3A
102
{ACAD_REACTORS
330
2A
102
}
330
2A
100
AcDbProxyObject
 90
      499
 91
      501
 93
      452
310
42D0DBDB1BDC90DA185B99D95104090240C333333333333E33F0000000000000F90108901411070040501508421405064090741402480A0350
1001
ACAD
1000
AcDbSavedByObjectVersion
1070
     0
  0
ACAD_PROXY_OBJECT
  5
34
102
{ACAD_REACTORS
330
2A
102
}
330
2A
100
AcDbProxyObject
 90
      499
 91
      501
 93
      500
310
4290DBDB98D95C1D1D585B10940D028333333333333E33F0000000000000F90107902409070040501000000000018199010841D405064090740C02480A0340
1001
ACAD
1000
AcDbSavedByObjectVersion
1070
     0
  0
ACAD_PROXY_OBJECT
  5
35
102
{ACAD_REACTORS
330
2A
102
}
330
2A
100
AcDbProxyObject
 90
      499
 91
      501
 93
      412
310
40D11A5B50B409028333333333333E33F0000000000000F9010790141107004050150841D405064090741402480A02677FFFFFD0
1001
ACAD
1000
AcDbSavedByObjectVersion
1070
     0
  0
ACAD_PROXY_OBJECT
  5
3D
102
{ACAD_REACTORS
330
2A
102
}
330
2A
100
AcDbProxyObject
 90
      499
 91
      501
 93
      452
310
43115919D950DBDB1BDC93D999916409028333333333333E33F0000000000000F9010790141107004050150841D405064090741402480A0350
1001
ACAD
1000
AcDbSavedByObjectVersion
1070
     0
  0
ACAD_PROXY_OBJECT
  5
39
102
{ACAD_REACTORS
330
2A
102
}
330
2A
100
AcDbProxyObject
 90
      499
 91
      501
 93
      444
310
42D19858D95C185D1D195C9B90F409028333333333333E33F0000000000000F9010790141107004050150841D405064090741402480A0350
1001
ACAD
1000
AcDbSavedByObjectVersion
1070
     0
  0
ACAD_PROXY_OBJECT
  5
2B
102
{ACAD_REACTORS
330
2A
102
}
330
2A
100
AcDbProxyObject
 90
      499
 91
      501
 93
      380
310
41119B185D240901404333333333333E33F0000000000000F9010740A907004050150841D405064090741402480A1B50
1001
ACAD
1000
AcDbSavedByObjectVersion
1070
     0
  0
ACAD_PROXY_OBJECT
  5
2C
102
{ACAD_REACTORS
330
2A
102
}
330
2A
100
AcDbProxyObject
 90
      499
 91
      501
 93
      468
310
43519B185D15DA5D1A115919D95CD0140901404333333333333E33F0000000000000F90107409019070040501600405405064090741402480A1B50
1001
ACAD
1000
AcDbSavedByObjectVersion
1070
     0
  0
ACAD_PROXY_OBJECT
  5
2D
102
{ACAD_REACTORS
330
2A
102
}
330
2A
100
AcDbProxyObject
 90
      499
 91
      501
 93
      404
310
41D1DBDD5C985D5910240902404333333333333E33F0000000000000F9010740A9070040501641D405064090741402480A1B50
1001
ACAD
1000
AcDbSavedByObjectVersion
1070
     0
  0
ACAD_PROXY_OBJECT
  5
2E
102
{ACAD_REACTORS
330
2A
102
}
330
2A
100
AcDbProxyObject
 90
      499
 91
      501
 93
      492
310
4411DBDD5C985D5915DA5D1A115919D95CD0340902404333333333333E33F0000000000000F90107409019070040501600405405064090741402480A1B50
1001
ACAD
1000
AcDbSavedByObjectVersion
1070
     0
  0
ACAD_PROXY_OBJECT
  5
31
102
{ACAD_REACTORS
330
2A
102
}
330
2A
100
AcDbProxyObject
 90
      499
 91
      501
 93
      476
310
41921A5919195B90640502408333333333333E33F0000000000000F901079024090700405020000000000001110200405405064090740C02480A0340
1001
ACAD
1000
AcDbSavedByObjectVersion
1070
     0
  0
ACAD_PROXY_OBJECT
  5
3B
102
{ACAD_REACTORS
330
2A
102
}
330
2A
100
AcDbProxyObject
 90
      499
 91
      501
 93
      428
310
42529A5D1D195C93D999914409028333333333333E33F0000000000000F9010790141107004050150A41D405064090741402480A0350
1001
ACAD
1000
AcDbSavedByObjectVersion
1070
     0
  0
ACAD_PROXY_OBJECT
  5
38
102
{ACAD_REACTORS
330
2A
102
}
330
2A
100
AcDbProxyObject
 90
      499
 91
      501
 93
      444
310
42D31A5B995C185D1D195C9B90E409028333333333333E33F0000000000000F9010790141107004050750841D405064090741402483A0350
1001
ACAD
1000
AcDbSavedByObjectVersion
1070
     0
  0
ACAD_PROXY_OBJECT
  5
3C
102
{ACAD_REACTORS
330
2A
102
}
330
2A
100
AcDbProxyObject
 90
      499
 91
      501
 93
      444
310
42D3DD995C9A185B99D3D999915409028333333333333E33F0000000000000F9010790141107004050150941D405064090741402480A0350
1001
ACAD
1000
AcDbSavedByObjectVersion
1070
     0
  0
ACAD_PROXY_OBJECT
  5
33
102
{ACAD_REACTORS
330
2A
102
}
330
2A
100
AcDbProxyObject
 90
      499
 91
      501
 93
      428
310
425499585B1A5CDD1A58D08409038333333333333E33F0000000000000F9010740A907004050150800405405064090740C02480A1B40
1001
ACAD
1000
AcDbSavedByObjectVersion
1070
     0
  0
ACAD_PROXY_OBJECT
  5
42
102
{ACAD_REACTORS
330
2A
102
}
330
2A
100
AcDbProxyObject
 90
      499
 91
      501
 93
      420
310
4194DA1859195911B40902404333333333333E33F0000000000000F9010740A41107004050150800405405064090840C02480A0B40
1001
ACAD
1000
AcDbSavedByObjectVersion
1070
     0
  0
ACAD_PROXY_OBJECT
  5
41
102
{ACAD_REACTORS
330
2A
102
}
330
2A
100
AcDbProxyObject
 90
      499
 91
      501
 93
      516
310
4454DA18591959081DDA5D1A08195919D95CD1A40902404333333333333E33F0000000000000F901074090142907004050250800405405064090740C02480A0B40
1001
ACAD
1000
AcDbSavedByObjectVersion
1070
     0
  0
ACAD_PROXY_OBJECT
  5
3E
102
{ACAD_REACTORS
330
2A
102
}
330
2A
100
AcDbProxyObject
 90
      499
 91
      501
 93
      532
310
4394DA1859195CC81BD98811DC985E5174090240C333333333333E33F0000000000000F901079024090741D01000000000000111010841D405064090740C02480A0340
1001
ACAD
1000
AcDbSavedByObjectVersion
1070
     0
  0
ACAD_PROXY_OBJECT
  5
3F
102
{ACAD_REACTORS
330
2A
102
}
330
2A
100
AcDbProxyObject
 90
      499
 91
      501
 93
      476
310
41D4DAD95D18DA1E51840502408333333333333E33F0000000000000F901079024090741D01000000000000111010B41D405064090741802480A0340
1001
ACAD
1000
AcDbSavedByObjectVersion
1070
     0
  0
ACAD_PROXY_OBJECT
  5
37
102
{ACAD_REACTORS
330
2A
102
}
330
2A
100
AcDbProxyObject
 90
      499
 91
      501
 93
      412
310
41D51A1A58DAD95B90D409028333333333333E33F0000000000000F9010790141107004050150C41D405064090741402480A0350
1001
ACAD
1000
AcDbSavedByObjectVersion
1070
     0
  0
ACAD_PROXY_OBJECT
  5
30
102
{ACAD_REACTORS
330
2A
102
}
330
2A
100
AcDbProxyObject
 90
      499
 91
      501
 93
      420
310
4255DA5C99599C985B595059028333333333333E33F0000000000000F90107901411070040501600405405064090740C02480A0340
1001
ACAD
1000
AcDbSavedByObjectVersion
1070
     0
  0
ACAD_PROXY_OBJECT
  5
40
102
{ACAD_REACTORS
330
2A
102
}
330
2A
100
AcDbProxyObject
 90
      499
 91
      501
 93
      404
310
41560B54985E51940902404000000000000E03F0000000000000F9010740501907004050150841D405064090740C02480A1B40
1001
ACAD
1000
AcDbSavedByObjectVersion
1070
     0
  0
XRECORD
  5
482
102
{ACAD_REACTORS
330
478
102
}
330
478
100
AcDbXrecord
340
0
  0
XRECORD
  5
481
102
{ACAD_REACTORS
330
478
102
}
330
478
100
AcDbXrecord
 90
        0
  0
XRECORD
  5
498
102
{ACAD_REACTORS
330
478
102
}
330
478
100
AcDbXrecord
1000
DSTYLE
1002
{
1070
   340
340
11
1002
}
  0
XRECORD
  5
483
102
{ACAD_REACTORS
330
478
102
}
330
478
100
AcDbXrecord
  1
{39563dab-9bf6-405b-b0ab-f0a53892f66c}
  0
XRECORD
  5
47B
102
{ACAD_REACTORS
330
478
102
}
330
478
100
AcDbXrecord
  1

  0
XRECORD
  5
480
102
{ACAD_REACTORS
330
478
102
}
330
478
100
AcDbXrecord
 90
        4
  0
XRECORD
  5
47D
102
{ACAD_REACTORS
330
478
102
}
330
478
100
AcDbXrecord
340
1A
  0
XRECORD
  5
47F
102
{ACAD_REACTORS
330
478
102
}
330
478
100
AcDbXrecord
 90
    10781
  0
XRECORD
  5
47E
102
{ACAD_REACTORS
330
478
102
}
330
478
100
AcDbXrecord
340
19
  0
XRECORD
  5
485
102
{ACAD_REACTORS
330
478
102
}
330
478
100
AcDbXrecord
 40
0.0
  0
XRECORD
  5
488
102
{ACAD_REACTORS
330
478
102
}
330
478
100
AcDbXrecord
340
0
  0
XRECORD
  5
48E
102
{ACAD_REACTORS
330
478
102
}
330
478
100
AcDbXrecord
 10
0.0
 20
0.0
 30
0.0
  0
XRECORD
  5
48A
102
{ACAD_REACTORS
330
478
102
}
330
478
100
AcDbXrecord
 10
0.0
 20
0.0
 30
0.0
  0
XRECORD
  5
48D
102
{ACAD_REACTORS
330
478
102
}
330
478
100
AcDbXrecord
 10
0.0
 20
0.0
 30
0.0
  0
XRECORD
  5
48B
102
{ACAD_REACTORS
330
478
102
}
330
478
100
AcDbXrecord
 10
0.0
 20
0.0
 30
0.0
  0
XRECORD
  5
48C
102
{ACAD_REACTORS
330
478
102
}
330
478
100
AcDbXrecord
 10
0.0
 20
0.0
 30
0.0
  0
XRECORD
  5
489
102
{ACAD_REACTORS
330
478
102
}
330
478
100
AcDbXrecord
 10
0.0
 20
0.0
 30
0.0
  0
XRECORD
  5
486
102
{ACAD_REACTORS
330
478
102
}
330
478
100
AcDbXrecord
340
0
  0
XRECORD
  5
487
102
{ACAD_REACTORS
330
478
102
}
330
478
100
AcDbXrecord
 70
     0
  0
XRECORD
  5
47C
102
{ACAD_REACTORS
330
478
102
}
330
478
100
AcDbXrecord
  1

  0
XRECORD
  5
479
102
{ACAD_REACTORS
330
478
102
}
330
478
100
AcDbXrecord
 90
        1
  0
XRECORD
  5
47A
102
{ACAD_REACTORS
330
478
102
}
330
478
100
AcDbXrecord
 90
       70
  0
XRECORD
  5
491
102
{ACAD_REACTORS
330
478
102
}
330
478
100
AcDbXrecord
340
0
  0
XRECORD
  5
497
102
{ACAD_REACTORS
330
478
102
}
330
478
100
AcDbXrecord
 10
0.0
 20
0.0
 30
0.0
  0
XRECORD
  5
493
102
{ACAD_REACTORS
330
478
102
}
330
478
100
AcDbXrecord
 10
0.0
 20
0.0
 30
0.0
  0
XRECORD
  5
496
102
{ACAD_REACTORS
330
478
102
}
330
478
100
AcDbXrecord
 10
0.0
 20
0.0
 30
0.0
  0
XRECORD
  5
494
102
{ACAD_REACTORS
330
478
102
}
330
478
100
AcDbXrecord
 10
0.0
 20
0.0
 30
0.0
  0
XRECORD
  5
495
102
{ACAD_REACTORS
330
478
102
}
330
478
100
AcDbXrecord
 10
0.0
 20
0.0
 30
0.0
  0
XRECORD
  5
492
102
{ACAD_REACTORS
330
478
102
}
330
478
100
AcDbXrecord
 10
0.0
 20
0.0
 30
0.0
  0
XRECORD
  5
48F
102
{ACAD_REACTORS
330
478
102
}
330
478
100
AcDbXrecord
340
0
  0
XRECORD
  5
490
102
{ACAD_REACTORS
330
478
102
}
330
478
100
AcDbXrecord
 70
     0
  0
XRECORD
  5
484
102
{ACAD_REACTORS
330
478
102
}
330
478
100
AcDbXrecord
  1
{FAEB1C32-E019-11D5-929B-00C0DF256EC4}
  0
DICTIONARYVAR
  5
4A6
102
{ACAD_REACTORS
330
499
102
}
330
499
100
DictionaryVariables
280
     0
  1
1:1
  0
DICTIONARYVAR
  5
4A0
102
{ACAD_REACTORS
330
499
102
}
330
499
100
DictionaryVariables
280
     0
  1
3.500000
  0
DICTIONARYVAR
  5
4A1
102
{ACAD_REACTORS
330
499
102
}
330
499
100
DictionaryVariables
280
     0
  1
acadiso.lin
  0
DICTIONARYVAR
  5
49B
102
{ACAD_REACTORS
330
499
102
}
330
499
100
DictionaryVariables
280
     0
  1
Standard
  0
DICTIONARYVAR
  5
49A
102
{ACAD_REACTORS
330
499
102
}
330
499
100
DictionaryVariables
280
     0
  1
Standard
  0
DICTIONARYVAR
  5
4A2
102
{ACAD_REACTORS
330
499
102
}
330
499
100
DictionaryVariables
280
     0
  1
2
  0
DICTIONARYVAR
  5
4A3
102
{ACAD_REACTORS
330
499
102
}
330
499
100
DictionaryVariables
280
     0
  1
1
  0
DICTIONARYVAR
  5
4A7
102
{ACAD_REACTORS
330
499
102
}
330
499
100
DictionaryVariables
280
     0
  1
1
  0
DICTIONARYVAR
  5
49D
102
{ACAD_REACTORS
330
499
102
}
330
499
100
DictionaryVariables
280
     0
  1
80.000000
  0
DICTIONARYVAR
  5
49C
102
{ACAD_REACTORS
330
499
102
}
330
499
100
DictionaryVariables
280
     0
  1
5.000000
  0
DICTIONARY
  5
4AA
330
45
100
AcDbDictionary
280
     1
  3
ACAD_XREC_ROUNDTRIP
360
4AB
  0
DICTIONARY
  5
4A8
330
44
100
AcDbDictionary
280
     1
  3
ACAD_XREC_ROUNDTRIP
360
4A9
  0
DICTIONARY
  5
4AC
330
46
100
AcDbDictionary
280
     1
  3
ACAD_XREC_ROUNDTRIP
360
4AD
  0
XRECORD
  5
4AB
102
{ACAD_REACTORS
330
4AA
102
}
330
4AA
100
AcDbXrecord
102
MATERIAL
148
0.0
149
0.0
149
0.0
 93
        0
 94
      127
282
     0
 72
     1
 77
     1
171
     1
175
     1
179
     1
273
     0
  0
XRECORD
  5
4A9
102
{ACAD_REACTORS
330
4A8
102
}
330
4A8
100
AcDbXrecord
102
MATERIAL
148
0.0
149
0.0
149
0.0
 93
        0
 94
      127
282
     0
 72
     1
 77
     1
171
     1
175
     1
179
     1
273
     0
  0
XRECORD
  5
4AD
102
{ACAD_REACTORS
330
4AC
102
}
330
4AC
100
AcDbXrecord
102
MATERIAL
148
0.0
149
0.0
149
0.0
 93
        0
 94
      127
282
     0
 72
     1
 77
     1
171
     1
175
     1
179
     1
273
     0
  0
ENDSEC
  0
EOF
