  0
SECTION
  2
HEADER
  9
$ACADVER
  1
AC1014
  9
$ACADMAINTVER
 70
     9
  9
$DWGCODEPAGE
  3
ANSI_932
  9
$INSBASE
 10
0.0
 20
0.0
 30
0.0
  9
$EXTMIN
 10
15.0
 20
30.0
 30
0.0
  9
$EXTMAX
 10
1155.0
 20
840.0
 30
0.0
  9
$LIMMIN
 10
0.0
 20
0.0
  9
$LIMMAX
 10
420.0
 20
297.0
  9
$ORTHOMODE
 70
     0
  9
$REGENMODE
 70
     1
  9
$FILLMODE
 70
     1
  9
$QTEXTMODE
 70
     0
  9
$MIRRTEXT
 70
     1
  9
$DRAGMODE
 70
     2
  9
$LTSCALE
 40
0.2
  9
$OSMODE
 70
    37
  9
$ATTMODE
 70
     1
  9
$TEXTSIZE
 40
2.5
  9
$TRACEWID
 40
1.0
  9
$TEXTSTYLE
  7
STANDARD
  9
$CLAYER
  8
LAY-10
  9
$CELTYPE
  6
BYLAYER
  9
$CECOLOR
 62
   256
  9
$CELTSCALE
 40
1.0
  9
$DELOBJ
 70
     1
  9
$DISPSILH
 70
     0
  9
$DIMSCALE
 40
1.0
  9
$DIMASZ
 40
2.5
  9
$DIMEXO
 40
0.625
  9
$DIMDLI
 40
3.75
  9
$DIMRND
 40
0.0
  9
$DIMDLE
 40
0.0
  9
$DIMEXE
 40
1.25
  9
$DIMTP
 40
0.0
  9
$DIMTM
 40
0.0
  9
$DIMTXT
 40
2.5
  9
$DIMCEN
 40
2.5
  9
$DIMTSZ
 40
0.0
  9
$DIMTOL
 70
     0
  9
$DIMLIM
 70
     0
  9
$DIMTIH
 70
     0
  9
$DIMTOH
 70
     0
  9
$DIMSE1
 70
     0
  9
$DIMSE2
 70
     0
  9
$DIMTAD
 70
     1
  9
$DIMZIN
 70
     8
  9
$DIMBLK
  1

  9
$DIMASO
 70
     1
  9
$DIMSHO
 70
     1
  9
$DIMPOST
  1

  9
$DIMAPOST
  1

  9
$DIMALT
 70
     0
  9
$DIMALTD
 70
     3
  9
$DIMALTF
 40
0.03937007874016
  9
$DIMLFAC
 40
1.0
  9
$DIMTOFL
 70
     1
  9
$DIMTVP
 40
0.0
  9
$DIMTIX
 70
     0
  9
$DIMSOXD
 70
     0
  9
$DIMSAH
 70
     0
  9
$DIMBLK1
  1

  9
$DIMBLK2
  1

  9
$DIMSTYLE
  2
ISO-25
  9
$DIMCLRD
 70
     0
  9
$DIMCLRE
 70
     0
  9
$DIMCLRT
 70
     0
  9
$DIMTFAC
 40
1.0
  9
$DIMGAP
 40
0.625
  9
$DIMJUST
 70
     0
  9
$DIMSD1
 70
     0
  9
$DIMSD2
 70
     0
  9
$DIMTOLJ
 70
     0
  9
$DIMTZIN
 70
     8
  9
$DIMALTZ
 70
     0
  9
$DIMALTTZ
 70
     0
  9
$DIMFIT
 70
     3
  9
$DIMUPT
 70
     0
  9
$DIMUNIT
 70
     2
  9
$DIMDEC
 70
     2
  9
$DIMTDEC
 70
     2
  9
$DIMALTU
 70
     2
  9
$DIMALTTD
 70
     3
  9
$DIMTXSTY
  7
STANDARD
  9
$DIMAUNIT
 70
     0
  9
$LUNITS
 70
     2
  9
$LUPREC
 70
     4
  9
$SKETCHINC
 40
1.0
  9
$FILLETRAD
 40
10.0
  9
$AUNITS
 70
     0
  9
$AUPREC
 70
     0
  9
$MENU
  1
.
  9
$ELEVATION
 40
0.0
  9
$PELEVATION
 40
0.0
  9
$THICKNESS
 40
0.0
  9
$LIMCHECK
 70
     0
  9
$CHAMFERA
 40
0.0
  9
$CHAMFERB
 40
0.0
  9
$CHAMFERC
 40
0.0
  9
$CHAMFERD
 40
0.0
  9
$SKPOLY
 70
     0
  9
$TDCREATE
 40
2459229.337284907
  9
$TDUPDATE
 40
2459229.337285359
  9
$TDINDWG
 40
0.0000000116
  9
$TDUSRTIMER
 40
0.0000000116
  9
$USRTIMER
 70
     1
  9
$ANGBASE
 50
0.0
  9
$ANGDIR
 70
     0
  9
$PDMODE
 70
     0
  9
$PDSIZE
 40
0.0
  9
$PLINEWID
 40
0.0
  9
$COORDS
 70
     1
  9
$SPLFRAME
 70
     0
  9
$SPLINETYPE
 70
     6
  9
$SPLINESEGS
 70
     8
  9
$ATTDIA
 70
     0
  9
$ATTREQ
 70
     1
  9
$HANDLING
 70
     1
  9
$HANDSEED
  5
430
  9
$SURFTAB1
 70
     6
  9
$SURFTAB2
 70
     6
  9
$SURFTYPE
 70
     6
  9
$SURFU
 70
     6
  9
$SURFV
 70
     6
  9
$UCSNAME
  2

  9
$UCSORG
 10
0.0
 20
0.0
 30
0.0
  9
$UCSXDIR
 10
1.0
 20
0.0
 30
0.0
  9
$UCSYDIR
 10
0.0
 20
1.0
 30
0.0
  9
$PUCSNAME
  2

  9
$PUCSORG
 10
0.0
 20
0.0
 30
0.0
  9
$PUCSXDIR
 10
1.0
 20
0.0
 30
0.0
  9
$PUCSYDIR
 10
0.0
 20
1.0
 30
0.0
  9
$USERI1
 70
     0
  9
$USERI2
 70
     0
  9
$USERI3
 70
     0
  9
$USERI4
 70
     0
  9
$USERI5
 70
     0
  9
$USERR1
 40
0.0
  9
$USERR2
 40
0.0
  9
$USERR3
 40
0.0
  9
$USERR4
 40
0.0
  9
$USERR5
 40
0.0
  9
$WORLDVIEW
 70
     1
  9
$SHADEDGE
 70
     3
  9
$SHADEDIF
 70
    70
  9
$TILEMODE
 70
     1
  9
$MAXACTVP
 70
    64
  9
$PINSBASE
 10
0.0
 20
0.0
 30
0.0
  9
$PLIMCHECK
 70
     0
  9
$PEXTMIN
 10
1.000000000000000E+20
 20
1.000000000000000E+20
 30
1.000000000000000E+20
  9
$PEXTMAX
 10
-1.000000000000000E+20
 20
-1.000000000000000E+20
 30
-1.000000000000000E+20
  9
$PLIMMIN
 10
0.0
 20
0.0
  9
$PLIMMAX
 10
420.0
 20
297.0
  9
$UNITMODE
 70
     0
  9
$VISRETAIN
 70
     1
  9
$PLINEGEN
 70
     0
  9
$PSLTSCALE
 70
     1
  9
$TREEDEPTH
 70
  3020
  9
$PICKSTYLE
 70
     1
  9
$CMLSTYLE
  2
STANDARD
  9
$CMLJUST
 70
     0
  9
$CMLSCALE
 40
20.0
  9
$PROXYGRAPHICS
 70
     1
  9
$MEASUREMENT
 70
     1
  0
ENDSEC
  0
SECTION
  2
CLASSES
  0
CLASS
  1
ACDBDICTIONARYWDFLT
  2
AcDbDictionaryWithDefault
  3
ObjectDBX Classes
 90
        0
280
     0
281
     0
  0
CLASS
  1
VISUALSTYLE
  2
AcDbVisualStyle
  3
ObjectDBX Classes
 90
     4095
280
     0
281
     0
  0
CLASS
  1
MATERIAL
  2
AcDbMaterial
  3
ObjectDBX Classes
 90
     1153
280
     0
281
     0
  0
CLASS
  1
SCALE
  2
AcDbScale
  3
ObjectDBX Classes
 90
     1153
280
     0
281
     0
  0
CLASS
  1
TABLESTYLE
  2
AcDbTableStyle
  3
ObjectDBX Classes
 90
     4095
280
     0
281
     0
  0
CLASS
  1
MLEADERSTYLE
  2
AcDbMLeaderStyle
  3
ACDB_MLEADERSTYLE_CLASS
 90
     4095
280
     0
281
     0
  0
CLASS
  1
SUN
  2
AcDbSun
  3
SCENEOE
 90
     1153
280
     0
281
     0
  0
CLASS
  1
DICTIONARYVAR
  2
AcDbDictionaryVar
  3
ObjectDBX Classes
 90
        0
280
     0
281
     0
  0
CLASS
  1
XRECORD
  2
AcDbXrecord
  3
ObjectDBX Classes
 90
        0
280
     0
281
     0
  0
CLASS
  1
LWPOLYLINE
  2
AcDbPolyline
  3
ObjectDBX Classes
 90
        0
280
     0
281
     1
  0
CLASS
  1
HATCH
  2
AcDbHatch
  3
ObjectDBX Classes
 90
        0
280
     0
281
     1
  0
CLASS
  1
ACDBPLACEHOLDER
  2
AcDbPlaceHolder
  3
ObjectDBX Classes
 90
        0
280
     0
281
     0
  0
CLASS
  1
LAYOUT
  2
AcDbLayout
  3
ObjectDBX Classes
 90
        0
280
     0
281
     0
  0
ENDSEC
  0
SECTION
  2
TABLES
  0
TABLE
  2
VPORT
  5
8
102
{ACAD_XDICTIONARY
360
425
102
}
330
0
100
AcDbSymbolTable
 70
     1
  0
VPORT
  5
29
330
8
100
AcDbSymbolTableRecord
100
AcDbViewportTableRecord
  2
*ACTIVE
 70
     0
 10
0.0
 20
0.0
 11
1.0
 21
1.0
 12
585.0000000000001
 22
435.0
 13
0.0
 23
0.0
 14
10.0
 24
10.0
 15
10.0
 25
10.0
 16
0.0
 26
0.0
 36
1.0
 17
0.0
 27
0.0
 37
0.0
 40
810.0
 41
1.407407407407408
 42
50.0
 43
0.0
 44
0.0
 50
0.0
 51
0.0
 71
     0
 72
  1000
 73
     1
 74
     3
 75
     0
 76
     0
 77
     0
 78
     0
  0
ENDTAB
  0
TABLE
  2
LTYPE
  5
5
330
0
100
AcDbSymbolTable
 70
     6
  0
LTYPE
  5
14
330
5
100
AcDbSymbolTableRecord
100
AcDbLinetypeTableRecord
  2
BYBLOCK
 70
     0
  3

 72
    65
 73
     0
 40
0.0
  0
LTYPE
  5
15
330
5
100
AcDbSymbolTableRecord
100
AcDbLinetypeTableRecord
  2
BYLAYER
 70
     0
  3

 72
    65
 73
     0
 40
0.0
  0
LTYPE
  5
16
330
5
100
AcDbSymbolTableRecord
100
AcDbLinetypeTableRecord
  2
CONTINUOUS
 70
     0
  3
Solid line
 72
    65
 73
     0
 40
0.0
  0
LTYPE
  5
6E
330
5
100
AcDbSymbolTableRecord
100
AcDbLinetypeTableRecord
  2
HIDDEN
 70
     0
  3
Hidden __ __ __ __ __ __ __ __ __ __ __ __ __ __
 72
    65
 73
     2
 40
9.524999999999999
 49
6.35
 74
     0
 49
-3.175
 74
     0
  0
LTYPE
  5
6F
330
5
100
AcDbSymbolTableRecord
100
AcDbLinetypeTableRecord
  2
CENTER
 70
     0
  3
Center ____ _ ____ _ ____ _ ____ _ ____ _ ____
 72
    65
 73
     4
 40
50.8
 49
31.75
 74
     0
 49
-6.35
 74
     0
 49
6.35
 74
     0
 49
-6.35
 74
     0
  0
LTYPE
  5
70
330
5
100
AcDbSymbolTableRecord
100
AcDbLinetypeTableRecord
  2
PHANTOM
 70
     0
  3
Phantom ______  __  __  ______  __  __  ______ 
 72
    65
 73
     6
 40
63.50000000000001
 49
31.75
 74
     0
 49
-6.35
 74
     0
 49
6.35
 74
     0
 49
-6.35
 74
     0
 49
6.35
 74
     0
 49
-6.35
 74
     0
  0
LTYPE
  5
71
330
5
100
AcDbSymbolTableRecord
100
AcDbLinetypeTableRecord
  2
ACAD_ISO06W100
 70
     0
  3
ISO long-dash triple-dot ____ ... ____ ... ____
 72
    65
 73
     8
 40
36.0
 49
24.0
 74
     0
 49
-3.0
 74
     0
 49
0.0
 74
     0
 49
-3.0
 74
     0
 49
0.0
 74
     0
 49
-3.0
 74
     0
 49
0.0
 74
     0
 49
-3.0
 74
     0
  0
LTYPE
  5
72
330
5
100
AcDbSymbolTableRecord
100
AcDbLinetypeTableRecord
  2
ACAD_ISO15W100
 70
     0
  3
ISO double-dash triple-dot __ __ . . . __ __ . .
 72
    65
 73
    10
 40
39.0
 49
12.0
 74
     0
 49
-3.0
 74
     0
 49
12.0
 74
     0
 49
-3.0
 74
     0
 49
0.0
 74
     0
 49
-3.0
 74
     0
 49
0.0
 74
     0
 49
-3.0
 74
     0
 49
0.0
 74
     0
 49
-3.0
 74
     0
  0
ENDTAB
  0
TABLE
  2
LAYER
  5
2
330
0
100
AcDbSymbolTable
 70
     5
  0
LAYER
  5
10
330
2
100
AcDbSymbolTableRecord
100
AcDbLayerTableRecord
  2
0
 70
     0
 62
     7
  6
CONTINUOUS
  0
LAYER
  5
75
330
2
100
AcDbSymbolTableRecord
100
AcDbLayerTableRecord
  2
LAY-10
 70
     0
 62
     7
  6
CONTINUOUS
  0
LAYER
  5
76
330
2
100
AcDbSymbolTableRecord
100
AcDbLayerTableRecord
  2
LAY-20
 70
     0
 62
     7
  6
CONTINUOUS
  0
LAYER
  5
77
330
2
100
AcDbSymbolTableRecord
100
AcDbLayerTableRecord
  2
LAY-255
 70
     0
 62
     7
  6
CONTINUOUS
  0
LAYER
  5
263
330
2
100
AcDbSymbolTableRecord
100
AcDbLayerTableRecord
  2
DEFPOINTS
 70
     0
 62
     7
  6
CONTINUOUS
  0
ENDTAB
  0
TABLE
  2
STYLE
  5
3
330
0
100
AcDbSymbolTable
 70
     4
  0
STYLE
  5
11
330
3
100
AcDbSymbolTableRecord
100
AcDbTextStyleTableRecord
  2
STANDARD
 70
     0
 40
0.0
 41
1.0
 50
0.0
 71
     0
 42
2.5
  3
simplex
  4
bigfont
  0
STYLE
  5
73
330
3
100
AcDbSymbolTableRecord
100
AcDbTextStyleTableRecord
  2
EXCADSTD
 70
     0
 40
0.0
 41
1.0
 50
0.0
 71
     0
 42
2.5
  3
simplex
  4
bigfont
  0
STYLE
  5
74
330
3
100
AcDbSymbolTableRecord
100
AcDbTextStyleTableRecord
  2
EXCADVERT
 70
     4
 40
0.0
 41
1.0
 50
0.0
 71
     0
 42
2.5
  3
simplex
  4
bigfont
  0
STYLE
  5
261
330
3
100
AcDbSymbolTableRecord
100
AcDbTextStyleTableRecord
  2
EXCADDIM1
 70
     0
 40
0.0
 41
0.84
 50
0.0
 71
     0
 42
2.5
  3
simplex
  4
bigfont
  0
ENDTAB
  0
TABLE
  2
VIEW
  5
6
330
0
100
AcDbSymbolTable
 70
     0
  0
ENDTAB
  0
TABLE
  2
UCS
  5
7
330
0
100
AcDbSymbolTable
 70
     0
  0
ENDTAB
  0
TABLE
  2
APPID
  5
9
330
0
100
AcDbSymbolTable
 70
     2
  0
APPID
  5
12
330
9
100
AcDbSymbolTableRecord
100
AcDbRegAppTableRecord
  2
ACAD
 70
     0
  0
APPID
  5
42F
330
9
100
AcDbSymbolTableRecord
100
AcDbRegAppTableRecord
  2
ACAD_MLEADERVER
 70
     0
  0
ENDTAB
  0
TABLE
  2
DIMSTYLE
  5
A
330
0
100
AcDbSymbolTable
 70
     1
  0
DIMSTYLE
105
27
102
{ACAD_REACTORS
330
262
330
270
330
27D
330
28A
330
297
330
336
330
397
330
3A4
330
3B0
102
}
330
A
100
AcDbSymbolTableRecord
100
AcDbDimStyleTableRecord
  2
ISO-25
 70
     0
  3

  4

  5

  6

  7

 40
1.0
 41
2.5
 42
0.625
 43
3.75
 44
1.25
 45
0.0
 46
0.0
 47
0.0
 48
0.0
140
2.5
141
2.5
142
0.0
143
0.03937007874016
144
1.0
145
0.0
146
1.0
147
0.625
 71
     0
 72
     0
 73
     0
 74
     0
 75
     0
 76
     0
 77
     1
 78
     8
170
     0
171
     3
172
     1
173
     0
174
     0
175
     0
176
     0
177
     0
178
     0
270
     2
271
     2
272
     2
273
     2
274
     3
340
11
275
     0
280
     0
281
     0
282
     0
283
     0
284
     8
285
     0
286
     0
287
     5
288
     0
  0
ENDTAB
  0
TABLE
  2
BLOCK_RECORD
  5
1
330
0
100
AcDbSymbolTable
 70
    23
  0
BLOCK_RECORD
  5
1F
330
1
100
AcDbSymbolTableRecord
100
AcDbBlockTableRecord
  2
*MODEL_SPACE
  0
BLOCK_RECORD
  5
1B
330
1
100
AcDbSymbolTableRecord
100
AcDbBlockTableRecord
  2
*PAPER_SPACE
  0
BLOCK_RECORD
  5
78
330
1
100
AcDbSymbolTableRecord
100
AcDbBlockTableRecord
  2
EX_NORM
  0
BLOCK_RECORD
  5
7B
330
1
100
AcDbSymbolTableRecord
100
AcDbBlockTableRecord
  2
EX_BNORM
  0
BLOCK_RECORD
  5
7E
330
1
100
AcDbSymbolTableRecord
100
AcDbBlockTableRecord
  2
EX_BCIR
  0
BLOCK_RECORD
  5
81
330
1
100
AcDbSymbolTableRecord
100
AcDbBlockTableRecord
  2
EX_RCIVIL
  0
BLOCK_RECORD
  5
84
330
1
100
AcDbSymbolTableRecord
100
AcDbBlockTableRecord
  2
EX_SLANT
  0
BLOCK_RECORD
  5
87
330
1
100
AcDbSymbolTableRecord
100
AcDbBlockTableRecord
  2
EX_NONE
  0
BLOCK_RECORD
  5
8A
330
1
100
AcDbSymbolTableRecord
100
AcDbBlockTableRecord
  2
EX_CIVIL
  0
BLOCK_RECORD
  5
8D
330
1
100
AcDbSymbolTableRecord
100
AcDbBlockTableRecord
  2
EX_WCIR
  0
BLOCK_RECORD
  5
90
330
1
100
AcDbSymbolTableRecord
100
AcDbBlockTableRecord
  2
EX_WCIR2
  0
BLOCK_RECORD
  5
93
330
1
100
AcDbSymbolTableRecord
100
AcDbBlockTableRecord
  2
EX_WNORM
  0
BLOCK_RECORD
  5
96
330
1
100
AcDbSymbolTableRecord
100
AcDbBlockTableRecord
  2
EX_NNORM
  0
BLOCK_RECORD
  5
99
330
1
100
AcDbSymbolTableRecord
100
AcDbBlockTableRecord
  2
EX_BBOX
  0
BLOCK_RECORD
  5
9C
330
1
100
AcDbSymbolTableRecord
100
AcDbBlockTableRecord
  2
EX_WBOX
  0
BLOCK_RECORD
  5
9F
330
1
100
AcDbSymbolTableRecord
100
AcDbBlockTableRecord
  2
EX_INTEGRAL
  0
BLOCK_RECORD
  5
264
330
1
100
AcDbSymbolTableRecord
100
AcDbBlockTableRecord
  2
*D15
  0
BLOCK_RECORD
  5
271
330
1
100
AcDbSymbolTableRecord
100
AcDbBlockTableRecord
  2
*D16
  0
BLOCK_RECORD
  5
27E
330
1
100
AcDbSymbolTableRecord
100
AcDbBlockTableRecord
  2
*D17
  0
BLOCK_RECORD
  5
28B
330
1
100
AcDbSymbolTableRecord
100
AcDbBlockTableRecord
  2
*D18
  0
BLOCK_RECORD
  5
298
330
1
100
AcDbSymbolTableRecord
100
AcDbBlockTableRecord
  2
*D19
  0
BLOCK_RECORD
  5
337
330
1
100
AcDbSymbolTableRecord
100
AcDbBlockTableRecord
  2
*D20
  0
BLOCK_RECORD
  5
398
330
1
100
AcDbSymbolTableRecord
100
AcDbBlockTableRecord
  2
*D21
  0
BLOCK_RECORD
  5
3A5
330
1
100
AcDbSymbolTableRecord
100
AcDbBlockTableRecord
  2
*D22
  0
BLOCK_RECORD
  5
3B1
330
1
100
AcDbSymbolTableRecord
100
AcDbBlockTableRecord
  2
*D23
  0
ENDTAB
  0
ENDSEC
  0
SECTION
  2
BLOCKS
  0
BLOCK
  5
20
330
1F
100
AcDbEntity
  8
0
100
AcDbBlockBegin
  2
*MODEL_SPACE
 70
     0
 10
0.0
 20
0.0
 30
0.0
  3
*MODEL_SPACE
  1

  0
ENDBLK
  5
21
330
1F
100
AcDbEntity
  8
0
100
AcDbBlockEnd
  0
BLOCK
  5
1C
330
1B
100
AcDbEntity
 67
     1
  8
0
100
AcDbBlockBegin
  2
*PAPER_SPACE
 70
     0
 10
0.0
 20
0.0
 30
0.0
  3
*PAPER_SPACE
  1

  0
ENDBLK
  5
1D
330
1B
100
AcDbEntity
 67
     1
  8
0
100
AcDbBlockEnd
  0
BLOCK
  5
79
330
78
100
AcDbEntity
  8
0
100
AcDbBlockBegin
  2
EX_NORM
 70
     0
 10
0.0
 20
0.0
 30
0.0
  3
EX_NORM
  1

  0
LINE
  5
A2
330
78
100
AcDbEntity
  8
0
  6
CONTINUOUS
 62
     0
100
AcDbLine
 10
0.0
 20
0.0
 30
0.0
 11
-1.0
 21
0.0
 31
0.0
  0
LINE
  5
A3
330
78
100
AcDbEntity
  8
0
  6
CONTINUOUS
 62
     0
100
AcDbLine
 10
0.0
 20
0.0
 30
0.0
 11
-1.0
 21
0.166666667
 31
0.0
  0
LINE
  5
A4
330
78
100
AcDbEntity
  8
0
  6
CONTINUOUS
 62
     0
100
AcDbLine
 10
0.0
 20
0.0
 30
0.0
 11
-1.0
 21
-0.166666667
 31
0.0
  0
ENDBLK
  5
7A
330
78
100
AcDbEntity
  8
0
100
AcDbBlockEnd
  0
BLOCK
  5
7C
330
7B
100
AcDbEntity
  8
0
100
AcDbBlockBegin
  2
EX_BNORM
 70
     0
 10
0.0
 20
0.0
 30
0.0
  3
EX_BNORM
  1

  0
LINE
  5
A5
330
7B
100
AcDbEntity
  8
0
  6
CONTINUOUS
 62
     0
100
AcDbLine
 10
0.0
 20
0.0
 30
0.0
 11
-1.0
 21
0.0
 31
0.0
  0
LINE
  5
A6
330
7B
100
AcDbEntity
  8
0
  6
CONTINUOUS
 62
     0
100
AcDbLine
 10
0.0
 20
0.0
 30
0.0
 11
-1.0
 21
0.166666667
 31
0.0
  0
LINE
  5
A7
330
7B
100
AcDbEntity
  8
0
  6
CONTINUOUS
 62
     0
100
AcDbLine
 10
0.0
 20
0.0
 30
0.0
 11
-1.0
 21
-0.166666667
 31
0.0
  0
LINE
  5
A8
330
7B
100
AcDbEntity
  8
0
  6
CONTINUOUS
 62
     0
100
AcDbLine
 10
0.0
 20
0.0
 30
0.0
 11
-1.0
 21
0.083333333
 31
0.0
  0
LINE
  5
A9
330
7B
100
AcDbEntity
  8
0
  6
CONTINUOUS
 62
     0
100
AcDbLine
 10
0.0
 20
0.0
 30
0.0
 11
-1.0
 21
-0.083333333
 31
0.0
  0
LINE
  5
AA
330
7B
100
AcDbEntity
  8
0
  6
CONTINUOUS
 62
     0
100
AcDbLine
 10
-1.0
 20
0.166666667
 30
0.0
 11
-1.0
 21
-0.166666667
 31
0.0
  0
ENDBLK
  5
7D
330
7B
100
AcDbEntity
  8
0
100
AcDbBlockEnd
  0
BLOCK
  5
7F
330
7E
100
AcDbEntity
  8
0
100
AcDbBlockBegin
  2
EX_BCIR
 70
     0
 10
0.0
 20
0.0
 30
0.0
  3
EX_BCIR
  1

  0
LINE
  5
AB
330
7E
100
AcDbEntity
  8
0
  6
CONTINUOUS
 62
     0
100
AcDbLine
 10
0.0
 20
0.0
 30
0.0
 11
-1.0
 21
0.0
 31
0.0
  0
CIRCLE
  5
AC
330
7E
100
AcDbEntity
  8
0
  6
CONTINUOUS
 62
     0
100
AcDbCircle
 10
0.0
 20
0.0
 30
0.0
 40
0.5
  0
CIRCLE
  5
AD
330
7E
100
AcDbEntity
  8
0
  6
CONTINUOUS
 62
     0
100
AcDbCircle
 10
0.0
 20
0.0
 30
0.0
 40
0.25
  0
ENDBLK
  5
80
330
7E
100
AcDbEntity
  8
0
100
AcDbBlockEnd
  0
BLOCK
  5
82
330
81
100
AcDbEntity
  8
0
100
AcDbBlockBegin
  2
EX_RCIVIL
 70
     0
 10
0.0
 20
0.0
 30
0.0
  3
EX_RCIVIL
  1

  0
LINE
  5
AE
330
81
100
AcDbEntity
  8
0
  6
CONTINUOUS
 62
     0
100
AcDbLine
 10
0.0
 20
0.0
 30
0.0
 11
-1.0
 21
0.0
 31
0.0
  0
LINE
  5
AF
330
81
100
AcDbEntity
  8
0
  6
CONTINUOUS
 62
     0
100
AcDbLine
 10
-1.0
 20
-0.25
 30
0.0
 11
0.0
 21
-0.25
 31
0.0
  0
LINE
  5
B0
330
81
100
AcDbEntity
  8
0
  6
CONTINUOUS
 62
     0
100
AcDbLine
 10
-1.0
 20
-0.125
 30
0.0
 11
0.0
 21
-0.125
 31
0.0
  0
ENDBLK
  5
83
330
81
100
AcDbEntity
  8
0
100
AcDbBlockEnd
  0
BLOCK
  5
85
330
84
100
AcDbEntity
  8
0
100
AcDbBlockBegin
  2
EX_SLANT
 70
     0
 10
0.0
 20
0.0
 30
0.0
  3
EX_SLANT
  1

  0
LINE
  5
B1
330
84
100
AcDbEntity
  8
0
  6
CONTINUOUS
 62
     0
100
AcDbLine
 10
0.0
 20
0.0
 30
0.0
 11
-1.0
 21
0.0
 31
0.0
  0
LINE
  5
B2
330
84
100
AcDbEntity
  8
0
  6
CONTINUOUS
 62
     0
100
AcDbLine
 10
0.707106781
 20
0.707106781
 30
0.0
 11
-0.707106781
 21
-0.707106781
 31
0.0
  0
ENDBLK
  5
86
330
84
100
AcDbEntity
  8
0
100
AcDbBlockEnd
  0
BLOCK
  5
88
330
87
100
AcDbEntity
  8
0
100
AcDbBlockBegin
  2
EX_NONE
 70
     0
 10
0.0
 20
0.0
 30
0.0
  3
EX_NONE
  1

  0
LINE
  5
B3
330
87
100
AcDbEntity
  8
0
  6
CONTINUOUS
 62
     0
100
AcDbLine
 10
0.0
 20
0.0
 30
0.0
 11
-1.0
 21
0.0
 31
0.0
  0
ENDBLK
  5
89
330
87
100
AcDbEntity
  8
0
100
AcDbBlockEnd
  0
BLOCK
  5
8B
330
8A
100
AcDbEntity
  8
0
100
AcDbBlockBegin
  2
EX_CIVIL
 70
     0
 10
0.0
 20
0.0
 30
0.0
  3
EX_CIVIL
  1

  0
LINE
  5
B4
330
8A
100
AcDbEntity
  8
0
  6
CONTINUOUS
 62
     0
100
AcDbLine
 10
0.0
 20
0.0
 30
0.0
 11
-1.0
 21
0.0
 31
0.0
  0
LINE
  5
B5
330
8A
100
AcDbEntity
  8
0
  6
CONTINUOUS
 62
     0
100
AcDbLine
 10
-1.0
 20
0.25
 30
0.0
 11
0.0
 21
0.25
 31
0.0
  0
LINE
  5
B6
330
8A
100
AcDbEntity
  8
0
  6
CONTINUOUS
 62
     0
100
AcDbLine
 10
-1.0
 20
0.125
 30
0.0
 11
0.0
 21
0.125
 31
0.0
  0
ENDBLK
  5
8C
330
8A
100
AcDbEntity
  8
0
100
AcDbBlockEnd
  0
BLOCK
  5
8E
330
8D
100
AcDbEntity
  8
0
100
AcDbBlockBegin
  2
EX_WCIR
 70
     0
 10
0.0
 20
0.0
 30
0.0
  3
EX_WCIR
  1

  0
LINE
  5
B7
330
8D
100
AcDbEntity
  8
0
  6
CONTINUOUS
 62
     0
100
AcDbLine
 10
0.0
 20
0.0
 30
0.0
 11
-1.0
 21
0.0
 31
0.0
  0
CIRCLE
  5
B8
330
8D
100
AcDbEntity
  8
0
  6
CONTINUOUS
 62
     0
100
AcDbCircle
 10
0.0
 20
0.0
 30
0.0
 40
0.5
  0
ENDBLK
  5
8F
330
8D
100
AcDbEntity
  8
0
100
AcDbBlockEnd
  0
BLOCK
  5
91
330
90
100
AcDbEntity
  8
0
100
AcDbBlockBegin
  2
EX_WCIR2
 70
     0
 10
0.0
 20
0.0
 30
0.0
  3
EX_WCIR2
  1

  0
LINE
  5
B9
330
90
100
AcDbEntity
  8
0
  6
CONTINUOUS
 62
     0
100
AcDbLine
 10
-0.5
 20
0.0
 30
0.0
 11
-1.0
 21
0.0
 31
0.0
  0
CIRCLE
  5
BA
330
90
100
AcDbEntity
  8
0
  6
CONTINUOUS
 62
     0
100
AcDbCircle
 10
0.0
 20
0.0
 30
0.0
 40
0.5
  0
ENDBLK
  5
92
330
90
100
AcDbEntity
  8
0
100
AcDbBlockEnd
  0
BLOCK
  5
94
330
93
100
AcDbEntity
  8
0
100
AcDbBlockBegin
  2
EX_WNORM
 70
     0
 10
0.0
 20
0.0
 30
0.0
  3
EX_WNORM
  1

  0
LINE
  5
BB
330
93
100
AcDbEntity
  8
0
  6
CONTINUOUS
 62
     0
100
AcDbLine
 10
-1.0
 20
0.0
 30
0.0
 11
-1.0
 21
0.0
 31
0.0
  0
LINE
  5
BC
330
93
100
AcDbEntity
  8
0
  6
CONTINUOUS
 62
     0
100
AcDbLine
 10
0.0
 20
0.0
 30
0.0
 11
-1.0
 21
0.166666667
 31
0.0
  0
LINE
  5
BD
330
93
100
AcDbEntity
  8
0
  6
CONTINUOUS
 62
     0
100
AcDbLine
 10
0.0
 20
0.0
 30
0.0
 11
-1.0
 21
-0.166666667
 31
0.0
  0
LINE
  5
BE
330
93
100
AcDbEntity
  8
0
  6
CONTINUOUS
 62
     0
100
AcDbLine
 10
-1.0
 20
0.166666667
 30
0.0
 11
-1.0
 21
-0.166666667
 31
0.0
  0
ENDBLK
  5
95
330
93
100
AcDbEntity
  8
0
100
AcDbBlockEnd
  0
BLOCK
  5
97
330
96
100
AcDbEntity
  8
0
100
AcDbBlockBegin
  2
EX_NNORM
 70
     0
 10
0.0
 20
0.0
 30
0.0
  3
EX_NNORM
  1

  0
LINE
  5
BF
330
96
100
AcDbEntity
  8
0
  6
CONTINUOUS
 62
     0
100
AcDbLine
 10
0.0
 20
0.0
 30
0.0
 11
-1.0
 21
0.0
 31
0.0
  0
LINE
  5
C0
330
96
100
AcDbEntity
  8
0
  6
CONTINUOUS
 62
     0
100
AcDbLine
 10
0.0
 20
0.0
 30
0.0
 11
-1.0
 21
0.166666667
 31
0.0
  0
LINE
  5
C1
330
96
100
AcDbEntity
  8
0
  6
CONTINUOUS
 62
     0
100
AcDbLine
 10
0.0
 20
0.0
 30
0.0
 11
-1.0
 21
-0.166666667
 31
0.0
  0
LINE
  5
C2
330
96
100
AcDbEntity
  8
0
  6
CONTINUOUS
 62
     0
100
AcDbLine
 10
-1.0
 20
0.166666667
 30
0.0
 11
-1.0
 21
-0.166666667
 31
0.0
  0
ENDBLK
  5
98
330
96
100
AcDbEntity
  8
0
100
AcDbBlockEnd
  0
BLOCK
  5
9A
330
99
100
AcDbEntity
  8
0
100
AcDbBlockBegin
  2
EX_BBOX
 70
     0
 10
0.0
 20
0.0
 30
0.0
  3
EX_BBOX
  1

  0
LINE
  5
C3
330
99
100
AcDbEntity
  8
0
  6
CONTINUOUS
 62
     0
100
AcDbLine
 10
0.0
 20
0.0
 30
0.0
 11
-1.0
 21
0.0
 31
0.0
  0
LINE
  5
C4
330
99
100
AcDbEntity
  8
0
  6
CONTINUOUS
 62
     0
100
AcDbLine
 10
-0.5
 20
0.5
 30
0.0
 11
0.5
 21
0.5
 31
0.0
  0
LINE
  5
C5
330
99
100
AcDbEntity
  8
0
  6
CONTINUOUS
 62
     0
100
AcDbLine
 10
0.5
 20
0.5
 30
0.0
 11
0.5
 21
-0.5
 31
0.0
  0
LINE
  5
C6
330
99
100
AcDbEntity
  8
0
  6
CONTINUOUS
 62
     0
100
AcDbLine
 10
0.5
 20
-0.5
 30
0.0
 11
-0.5
 21
-0.5
 31
0.0
  0
LINE
  5
C7
330
99
100
AcDbEntity
  8
0
  6
CONTINUOUS
 62
     0
100
AcDbLine
 10
-0.5
 20
-0.5
 30
0.0
 11
-0.5
 21
0.5
 31
0.0
  0
LINE
  5
C8
330
99
100
AcDbEntity
  8
0
  6
CONTINUOUS
 62
     0
100
AcDbLine
 10
-0.25
 20
0.25
 30
0.0
 11
0.25
 21
0.25
 31
0.0
  0
LINE
  5
C9
330
99
100
AcDbEntity
  8
0
  6
CONTINUOUS
 62
     0
100
AcDbLine
 10
0.25
 20
0.25
 30
0.0
 11
0.25
 21
-0.25
 31
0.0
  0
LINE
  5
CA
330
99
100
AcDbEntity
  8
0
  6
CONTINUOUS
 62
     0
100
AcDbLine
 10
0.25
 20
-0.25
 30
0.0
 11
-0.25
 21
-0.25
 31
0.0
  0
LINE
  5
CB
330
99
100
AcDbEntity
  8
0
  6
CONTINUOUS
 62
     0
100
AcDbLine
 10
-0.25
 20
-0.25
 30
0.0
 11
-0.25
 21
0.25
 31
0.0
  0
ENDBLK
  5
9B
330
99
100
AcDbEntity
  8
0
100
AcDbBlockEnd
  0
BLOCK
  5
9D
330
9C
100
AcDbEntity
  8
0
100
AcDbBlockBegin
  2
EX_WBOX
 70
     0
 10
0.0
 20
0.0
 30
0.0
  3
EX_WBOX
  1

  0
LINE
  5
CC
330
9C
100
AcDbEntity
  8
0
  6
CONTINUOUS
 62
     0
100
AcDbLine
 10
-0.5
 20
0.0
 30
0.0
 11
-1.0
 21
0.0
 31
0.0
  0
LINE
  5
CD
330
9C
100
AcDbEntity
  8
0
  6
CONTINUOUS
 62
     0
100
AcDbLine
 10
-0.5
 20
0.5
 30
0.0
 11
0.5
 21
0.5
 31
0.0
  0
LINE
  5
CE
330
9C
100
AcDbEntity
  8
0
  6
CONTINUOUS
 62
     0
100
AcDbLine
 10
0.5
 20
0.5
 30
0.0
 11
0.5
 21
-0.5
 31
0.0
  0
LINE
  5
CF
330
9C
100
AcDbEntity
  8
0
  6
CONTINUOUS
 62
     0
100
AcDbLine
 10
0.5
 20
-0.5
 30
0.0
 11
-0.5
 21
-0.5
 31
0.0
  0
LINE
  5
D0
330
9C
100
AcDbEntity
  8
0
  6
CONTINUOUS
 62
     0
100
AcDbLine
 10
-0.5
 20
-0.5
 30
0.0
 11
-0.5
 21
0.5
 31
0.0
  0
ENDBLK
  5
9E
330
9C
100
AcDbEntity
  8
0
100
AcDbBlockEnd
  0
BLOCK
  5
A0
330
9F
100
AcDbEntity
  8
0
100
AcDbBlockBegin
  2
EX_INTEGRAL
 70
     0
 10
0.0
 20
0.0
 30
0.0
  3
EX_INTEGRAL
  1

  0
LINE
  5
D1
330
9F
100
AcDbEntity
  8
0
  6
CONTINUOUS
 62
     0
100
AcDbLine
 10
0.0
 20
0.0
 30
0.0
 11
-1.0
 21
0.0
 31
0.0
  0
ARC
  5
D2
330
9F
100
AcDbEntity
  8
0
  6
CONTINUOUS
 62
     0
100
AcDbCircle
 10
0.542115
 20
0.164992
 30
0.0
 40
0.56667
100
AcDbArc
 50
73.07249033629006
 51
196.9275130221199
  0
ARC
  5
D3
330
9F
100
AcDbEntity
  8
0
  6
CONTINUOUS
 62
     0
100
AcDbCircle
 10
-0.542115
 20
-0.164992
 30
0.0
 40
0.56667
100
AcDbArc
 50
253.0724869220464
 51
16.9275130559125
  0
ENDBLK
  5
A1
330
9F
100
AcDbEntity
  8
0
100
AcDbBlockEnd
  0
BLOCK
  5
265
330
264
100
AcDbEntity
  8
0
100
AcDbBlockBegin
  2
*D15
 70
     1
 10
0.0
 20
0.0
 30
0.0
  3
*D15
  1

  0
LINE
  5
267
330
264
100
AcDbEntity
  8
LAY-20
  6
CONTINUOUS
 62
     4
100
AcDbLine
 10
536.00000000001
 20
217.499999999979
 30
0.0
 11
536.00000000001
 21
116.499999999979
 31
0.0
  0
LINE
  5
268
330
264
100
AcDbEntity
  8
LAY-20
  6
CONTINUOUS
 62
     4
100
AcDbLine
 10
394.00000000001
 20
217.499999999979
 30
0.0
 11
394.00000000001
 21
116.499999999979
 31
0.0
  0
LINE
  5
269
330
264
100
AcDbEntity
  8
LAY-20
  6
CONTINUOUS
 62
     4
100
AcDbLine
 10
528.50000000001
 20
120.999999999979
 30
0.0
 11
401.50000000001
 21
120.999999999979
 31
0.0
  0
INSERT
  5
26A
330
264
100
AcDbEntity
  8
LAY-20
 62
     4
100
AcDbBlockReference
  2
EX_BNORM
 10
536.00000000001
 20
120.999999999979
 30
0.0
 41
7.5
 42
7.5
 43
7.5
  0
INSERT
  5
26B
330
264
100
AcDbEntity
  8
LAY-20
 62
     4
100
AcDbBlockReference
  2
EX_BNORM
 10
394.00000000001
 20
120.999999999979
 30
0.0
 41
7.5
 42
7.5
 43
7.5
 50
180.0
  0
MTEXT
  5
26C
330
264
100
AcDbEntity
  8
LAY-20
 62
     7
100
AcDbMText
 10
465.00000000001
 20
128.499999999979
 30
0.0
 40
9.3543312
 41
0.0
 71
     5
 72
     1
  1
%%c142
  7
EXCADDIM1
  0
POINT
  5
26D
330
264
100
AcDbEntity
  8
DEFPOINTS
 62
     0
100
AcDbPoint
 10
536.00000000001
 20
221.999999999979
 30
0.0
  0
POINT
  5
26E
330
264
100
AcDbEntity
  8
DEFPOINTS
 62
     0
100
AcDbPoint
 10
394.00000000001
 20
221.999999999979
 30
0.0
  0
POINT
  5
26F
330
264
100
AcDbEntity
  8
DEFPOINTS
 62
     0
100
AcDbPoint
 10
394.00000000001
 20
120.999999999979
 30
0.0
  0
ENDBLK
  5
266
330
264
100
AcDbEntity
  8
0
100
AcDbBlockEnd
  0
BLOCK
  5
272
330
271
100
AcDbEntity
  8
0
100
AcDbBlockBegin
  2
*D16
 70
     1
 10
0.0
 20
0.0
 30
0.0
  3
*D16
  1

  0
LINE
  5
274
330
271
100
AcDbEntity
  8
LAY-20
  6
CONTINUOUS
 62
     4
100
AcDbLine
 10
395.50000000001
 20
177.4999999999791
 30
0.0
 11
395.50000000001
 21
137.499999999979
 31
0.0
  0
LINE
  5
275
330
271
100
AcDbEntity
  8
LAY-20
  6
CONTINUOUS
 62
     4
100
AcDbLine
 10
534.50000000001
 20
177.4999999999791
 30
0.0
 11
534.50000000001
 21
137.499999999979
 31
0.0
  0
LINE
  5
276
330
271
100
AcDbEntity
  8
LAY-20
  6
CONTINUOUS
 62
     4
100
AcDbLine
 10
403.00000000001
 20
141.999999999979
 30
0.0
 11
527.00000000001
 21
141.999999999979
 31
0.0
  0
INSERT
  5
277
330
271
100
AcDbEntity
  8
LAY-20
 62
     4
100
AcDbBlockReference
  2
EX_BNORM
 10
395.50000000001
 20
141.999999999979
 30
0.0
 41
7.5
 42
7.5
 43
7.5
 50
180.0
  0
INSERT
  5
278
330
271
100
AcDbEntity
  8
LAY-20
 62
     4
100
AcDbBlockReference
  2
EX_BNORM
 10
534.50000000001
 20
141.999999999979
 30
0.0
 41
7.5
 42
7.5
 43
7.5
  0
MTEXT
  5
279
330
271
100
AcDbEntity
  8
LAY-20
 62
     7
100
AcDbMText
 10
465.00000000001
 20
149.499999999979
 30
0.0
 40
9.3543312
 41
0.0
 71
     5
 72
     1
  1
%%c139
  7
EXCADDIM1
  0
POINT
  5
27A
330
271
100
AcDbEntity
  8
DEFPOINTS
 62
     0
100
AcDbPoint
 10
395.50000000001
 20
181.9999999999791
 30
0.0
  0
POINT
  5
27B
330
271
100
AcDbEntity
  8
DEFPOINTS
 62
     0
100
AcDbPoint
 10
534.50000000001
 20
181.9999999999791
 30
0.0
  0
POINT
  5
27C
330
271
100
AcDbEntity
  8
DEFPOINTS
 62
     0
100
AcDbPoint
 10
534.50000000001
 20
141.999999999979
 30
0.0
  0
ENDBLK
  5
273
330
271
100
AcDbEntity
  8
0
100
AcDbBlockEnd
  0
BLOCK
  5
27F
330
27E
100
AcDbEntity
  8
0
100
AcDbBlockBegin
  2
*D17
 70
     1
 10
0.0
 20
0.0
 30
0.0
  3
*D17
  1

  0
LINE
  5
281
330
27E
100
AcDbEntity
  8
LAY-20
  6
CONTINUOUS
 62
     4
100
AcDbLine
 10
351.9984924984101
 20
226.9999999999791
 30
0.0
 11
298.00000000002
 21
226.9999999999791
 31
0.0
  0
LINE
  5
282
330
27E
100
AcDbEntity
  8
LAY-20
  6
CONTINUOUS
 62
     4
100
AcDbLine
 10
329.0000000000101
 20
251.999999999979
 30
0.0
 11
298.00000000002
 21
251.999999999979
 31
0.0
  0
LINE
  5
283
330
27E
100
AcDbEntity
  8
LAY-20
  6
CONTINUOUS
 62
     4
100
AcDbLine
 10
302.50000000002
 20
234.4999999999791
 30
0.0
 11
302.50000000002
 21
244.499999999979
 31
0.0
  0
INSERT
  5
284
330
27E
100
AcDbEntity
  8
LAY-20
 62
     4
100
AcDbBlockReference
  2
EX_BNORM
 10
302.50000000002
 20
226.9999999999791
 30
0.0
 41
7.5
 42
7.5
 43
7.5
 50
270.0
  0
INSERT
  5
285
330
27E
100
AcDbEntity
  8
LAY-20
 62
     4
100
AcDbBlockReference
  2
EX_BNORM
 10
302.50000000002
 20
251.999999999979
 30
0.0
 41
7.5
 42
7.5
 43
7.5
 50
90.0
  0
MTEXT
  5
286
330
27E
100
AcDbEntity
  8
LAY-20
 62
     7
100
AcDbMText
 10
295.00000000002
 20
239.4999999999791
 30
0.0
 40
9.3543312
 41
0.0
 71
     5
 72
     1
  1
25
  7
EXCADDIM1
 11
0.0
 21
1.0
 31
0.0
  0
POINT
  5
287
330
27E
100
AcDbEntity
  8
DEFPOINTS
 62
     0
100
AcDbPoint
 10
356.4984924984101
 20
226.9999999999791
 30
0.0
  0
POINT
  5
288
330
27E
100
AcDbEntity
  8
DEFPOINTS
 62
     0
100
AcDbPoint
 10
333.5000000000101
 20
251.999999999979
 30
0.0
  0
POINT
  5
289
330
27E
100
AcDbEntity
  8
DEFPOINTS
 62
     0
100
AcDbPoint
 10
302.50000000002
 20
251.999999999979
 30
0.0
  0
ENDBLK
  5
280
330
27E
100
AcDbEntity
  8
0
100
AcDbBlockEnd
  0
BLOCK
  5
28C
330
28B
100
AcDbEntity
  8
0
100
AcDbBlockBegin
  2
*D18
 70
     1
 10
0.0
 20
0.0
 30
0.0
  3
*D18
  1

  0
LINE
  5
28E
330
28B
100
AcDbEntity
  8
LAY-20
  6
CONTINUOUS
 62
     4
100
AcDbLine
 10
597.50000000001
 20
249.4999999999791
 30
0.0
 11
597.50000000001
 21
421.4999999999702
 31
0.0
  0
LINE
  5
28F
330
28B
100
AcDbEntity
  8
LAY-20
  6
CONTINUOUS
 62
     4
100
AcDbLine
 10
332.50000000001
 20
249.4999999999791
 30
0.0
 11
332.50000000001
 21
421.4999999999702
 31
0.0
  0
LINE
  5
290
330
28B
100
AcDbEntity
  8
LAY-20
  6
CONTINUOUS
 62
     4
100
AcDbLine
 10
590.00000000001
 20
416.99999999997
 30
0.0
 11
340.00000000001
 21
416.99999999997
 31
0.0
  0
INSERT
  5
291
330
28B
100
AcDbEntity
  8
LAY-20
 62
     4
100
AcDbBlockReference
  2
EX_BNORM
 10
597.50000000001
 20
416.99999999997
 30
0.0
 41
7.5
 42
7.5
 43
7.5
  0
INSERT
  5
292
330
28B
100
AcDbEntity
  8
LAY-20
 62
     4
100
AcDbBlockReference
  2
EX_BNORM
 10
332.50000000001
 20
416.99999999997
 30
0.0
 41
7.5
 42
7.5
 43
7.5
 50
180.0
  0
MTEXT
  5
293
330
28B
100
AcDbEntity
  8
LAY-20
 62
     7
100
AcDbMText
 10
465.0000000000101
 20
424.4999999999699
 30
0.0
 40
9.3543312
 41
0.0
 71
     5
 72
     1
  1
%%c265
  7
EXCADDIM1
  0
POINT
  5
294
330
28B
100
AcDbEntity
  8
DEFPOINTS
 62
     0
100
AcDbPoint
 10
597.50000000001
 20
244.9999999999791
 30
0.0
  0
POINT
  5
295
330
28B
100
AcDbEntity
  8
DEFPOINTS
 62
     0
100
AcDbPoint
 10
332.50000000001
 20
244.9999999999791
 30
0.0
  0
POINT
  5
296
330
28B
100
AcDbEntity
  8
DEFPOINTS
 62
     0
100
AcDbPoint
 10
332.50000000001
 20
416.99999999997
 30
0.0
  0
ENDBLK
  5
28D
330
28B
100
AcDbEntity
  8
0
100
AcDbBlockEnd
  0
BLOCK
  5
299
330
298
100
AcDbEntity
  8
0
100
AcDbBlockBegin
  2
*D19
 70
     1
 10
0.0
 20
0.0
 30
0.0
  3
*D19
  1

  0
LINE
  5
29B
330
298
100
AcDbEntity
  8
LAY-20
  6
CONTINUOUS
 62
     4
100
AcDbLine
 10
353.5000000000301
 20
256.499999999979
 30
0.0
 11
353.5000000000301
 21
400.49999999997
 31
0.0
  0
LINE
  5
29C
330
298
100
AcDbEntity
  8
LAY-20
  6
CONTINUOUS
 62
     4
100
AcDbLine
 10
576.499999999988
 20
256.499999999979
 30
0.0
 11
576.499999999988
 21
400.49999999997
 31
0.0
  0
LINE
  5
29D
330
298
100
AcDbEntity
  8
LAY-20
  6
CONTINUOUS
 62
     4
100
AcDbLine
 10
361.0000000000301
 20
395.99999999997
 30
0.0
 11
568.999999999988
 21
395.99999999997
 31
0.0
  0
INSERT
  5
29E
330
298
100
AcDbEntity
  8
LAY-20
 62
     4
100
AcDbBlockReference
  2
EX_BNORM
 10
353.5000000000301
 20
395.99999999997
 30
0.0
 41
7.5
 42
7.5
 43
7.5
 50
180.0
  0
INSERT
  5
29F
330
298
100
AcDbEntity
  8
LAY-20
 62
     4
100
AcDbBlockReference
  2
EX_BNORM
 10
576.499999999988
 20
395.99999999997
 30
0.0
 41
7.5
 42
7.5
 43
7.5
  0
MTEXT
  5
2A0
330
298
100
AcDbEntity
  8
LAY-20
 62
     7
100
AcDbMText
 10
465.000000000009
 20
403.49999999997
 30
0.0
 40
9.3543312
 41
0.0
 71
     5
 72
     1
  1
%%c223
  7
EXCADDIM1
  0
POINT
  5
2A1
330
298
100
AcDbEntity
  8
DEFPOINTS
 62
     0
100
AcDbPoint
 10
353.5000000000301
 20
251.999999999979
 30
0.0
  0
POINT
  5
2A2
330
298
100
AcDbEntity
  8
DEFPOINTS
 62
     0
100
AcDbPoint
 10
576.499999999988
 20
251.999999999979
 30
0.0
  0
POINT
  5
2A3
330
298
100
AcDbEntity
  8
DEFPOINTS
 62
     0
100
AcDbPoint
 10
576.499999999988
 20
395.99999999997
 30
0.0
  0
ENDBLK
  5
29A
330
298
100
AcDbEntity
  8
0
100
AcDbBlockEnd
  0
BLOCK
  5
338
330
337
100
AcDbEntity
  8
0
100
AcDbBlockBegin
  2
*D20
 70
     1
 10
0.0
 20
0.0
 30
0.0
  3
*D20
  1

  0
LINE
  5
33A
330
337
100
AcDbEntity
  8
LAY-20
  6
CONTINUOUS
 62
     4
100
AcDbLine
 10
379.02203311825
 20
328.49999999998
 30
0.0
 11
379.02203311825
 21
358.49999999998
 31
0.0
  0
LINE
  5
33B
330
337
100
AcDbEntity
  8
LAY-20
  6
CONTINUOUS
 62
     4
100
AcDbLine
 10
550.97796688177
 20
328.49999999998
 30
0.0
 11
550.97796688177
 21
358.49999999998
 31
0.0
  0
LINE
  5
33C
330
337
100
AcDbEntity
  8
LAY-20
  6
CONTINUOUS
 62
     4
100
AcDbLine
 10
386.52203311825
 20
353.99999999998
 30
0.0
 11
543.47796688177
 21
353.99999999998
 31
0.0
  0
INSERT
  5
33D
330
337
100
AcDbEntity
  8
LAY-20
 62
     4
100
AcDbBlockReference
  2
EX_BNORM
 10
379.02203311825
 20
353.99999999998
 30
0.0
 41
7.5
 42
7.5
 43
7.5
 50
180.0
  0
INSERT
  5
33E
330
337
100
AcDbEntity
  8
LAY-20
 62
     4
100
AcDbBlockReference
  2
EX_BNORM
 10
550.97796688177
 20
353.99999999998
 30
0.0
 41
7.5
 42
7.5
 43
7.5
  0
MTEXT
  5
33F
330
337
100
AcDbEntity
  8
LAY-20
 62
     7
100
AcDbMText
 10
465.0000000000101
 20
361.49999999998
 30
0.0
 40
9.3543312
 41
0.0
 71
     5
 72
     1
  1
%%c172
  7
EXCADDIM1
  0
POINT
  5
340
330
337
100
AcDbEntity
  8
DEFPOINTS
 62
     0
100
AcDbPoint
 10
379.02203311825
 20
323.99999999998
 30
0.0
  0
POINT
  5
341
330
337
100
AcDbEntity
  8
DEFPOINTS
 62
     0
100
AcDbPoint
 10
550.97796688177
 20
323.99999999998
 30
0.0
  0
POINT
  5
342
330
337
100
AcDbEntity
  8
DEFPOINTS
 62
     0
100
AcDbPoint
 10
550.97796688177
 20
353.99999999998
 30
0.0
  0
ENDBLK
  5
339
330
337
100
AcDbEntity
  8
0
100
AcDbBlockEnd
  0
BLOCK
  5
399
330
398
100
AcDbEntity
  8
0
100
AcDbBlockBegin
  2
*D21
 70
     1
 10
0.0
 20
0.0
 30
0.0
  3
*D21
  1

  0
LINE
  5
39B
330
398
100
AcDbEntity
  8
LAY-20
  6
CONTINUOUS
 62
     4
100
AcDbLine
 10
577.50000000001
 20
171.99999999998
 30
0.0
 11
638.00000000001
 21
171.99999999998
 31
0.0
  0
LINE
  5
39C
330
398
100
AcDbEntity
  8
LAY-20
  6
CONTINUOUS
 62
     4
100
AcDbLine
 10
601.00000000001
 20
251.99999999998
 30
0.0
 11
638.00000000001
 21
251.99999999998
 31
0.0
  0
LINE
  5
39D
330
398
100
AcDbEntity
  8
LAY-20
  6
CONTINUOUS
 62
     4
100
AcDbLine
 10
633.50000000001
 20
179.49999999998
 30
0.0
 11
633.50000000001
 21
244.49999999998
 31
0.0
  0
INSERT
  5
39E
330
398
100
AcDbEntity
  8
LAY-20
 62
     4
100
AcDbBlockReference
  2
EX_BNORM
 10
633.50000000001
 20
171.99999999998
 30
0.0
 41
7.5
 42
7.5
 43
7.5
 50
270.0
  0
INSERT
  5
39F
330
398
100
AcDbEntity
  8
LAY-20
 62
     4
100
AcDbBlockReference
  2
EX_BNORM
 10
633.50000000001
 20
251.99999999998
 30
0.0
 41
7.5
 42
7.5
 43
7.5
 50
90.0
  0
MTEXT
  5
3A0
330
398
100
AcDbEntity
  8
LAY-20
 62
     7
100
AcDbMText
 10
626.00000000001
 20
211.99999999998
 30
0.0
 40
9.3543312
 41
0.0
 71
     5
 72
     1
  1
80
  7
EXCADDIM1
 11
0.0
 21
1.0
 31
0.0
  0
POINT
  5
3A1
330
398
100
AcDbEntity
  8
DEFPOINTS
 62
     0
100
AcDbPoint
 10
573.00000000001
 20
171.99999999998
 30
0.0
  0
POINT
  5
3A2
330
398
100
AcDbEntity
  8
DEFPOINTS
 62
     0
100
AcDbPoint
 10
596.50000000001
 20
251.99999999998
 30
0.0
  0
POINT
  5
3A3
330
398
100
AcDbEntity
  8
DEFPOINTS
 62
     0
100
AcDbPoint
 10
633.50000000001
 20
251.99999999998
 30
0.0
  0
ENDBLK
  5
39A
330
398
100
AcDbEntity
  8
0
100
AcDbBlockEnd
  0
BLOCK
  5
3A6
330
3A5
100
AcDbEntity
  8
0
100
AcDbBlockBegin
  2
*D22
 70
     1
 10
0.0
 20
0.0
 30
0.0
  3
*D22
  1

  0
LINE
  5
3A8
330
3A5
100
AcDbEntity
  8
LAY-20
  6
CONTINUOUS
 62
     4
100
AcDbLine
 10
559.50000000002
 20
323.99999999998
 30
0.0
 11
638.00000000001
 21
323.99999999998
 31
0.0
  0
LINE
  5
3A9
330
3A5
100
AcDbEntity
  8
LAY-20
  6
CONTINUOUS
 62
     4
100
AcDbLine
 10
633.50000000001
 20
316.49999999998
 30
0.0
 11
633.50000000001
 21
259.49999999998
 31
0.0
  0
INSERT
  5
3AA
330
3A5
100
AcDbEntity
  8
LAY-20
 62
     4
100
AcDbBlockReference
  2
EX_BNORM
 10
633.50000000001
 20
323.99999999998
 30
0.0
 41
7.5
 42
7.5
 43
7.5
 50
90.0
  0
INSERT
  5
3AB
330
3A5
100
AcDbEntity
  8
LAY-20
 62
     4
100
AcDbBlockReference
  2
EX_BNORM
 10
633.50000000001
 20
251.99999999998
 30
0.0
 41
7.5
 42
7.5
 43
7.5
 50
270.0
  0
MTEXT
  5
3AC
330
3A5
100
AcDbEntity
  8
LAY-20
 62
     7
100
AcDbMText
 10
626.00000000001
 20
287.99999999998
 30
0.0
 40
9.3543312
 41
0.0
 71
     5
 72
     1
  1
72
  7
EXCADDIM1
 11
0.0
 21
1.0
 31
0.0
  0
POINT
  5
3AD
330
3A5
100
AcDbEntity
  8
DEFPOINTS
 62
     0
100
AcDbPoint
 10
555.00000000002
 20
323.99999999998
 30
0.0
  0
POINT
  5
3AE
330
3A5
100
AcDbEntity
  8
DEFPOINTS
 62
     0
100
AcDbPoint
 10
633.50000000001
 20
251.99999999998
 30
0.0
  0
POINT
  5
3AF
330
3A5
100
AcDbEntity
  8
DEFPOINTS
 62
     0
100
AcDbPoint
 10
633.50000000001
 20
251.99999999998
 30
0.0
  0
ENDBLK
  5
3A7
330
3A5
100
AcDbEntity
  8
0
100
AcDbBlockEnd
  0
BLOCK
  5
3B2
330
3B1
100
AcDbEntity
  8
0
100
AcDbBlockBegin
  2
*D23
 70
     1
 10
0.0
 20
0.0
 30
0.0
  3
*D23
  1

  0
LINE
  5
3B4
330
3B1
100
AcDbEntity
  8
LAY-20
  6
CONTINUOUS
 62
     4
100
AcDbLine
 10
356.5
 20
253.49999999998
 30
0.0
 11
356.5
 21
379.49999999997
 31
0.0
  0
LINE
  5
3B5
330
3B1
100
AcDbEntity
  8
LAY-20
  6
CONTINUOUS
 62
     4
100
AcDbLine
 10
573.50000000001
 20
253.49999999998
 30
0.0
 11
573.50000000001
 21
379.49999999997
 31
0.0
  0
LINE
  5
3B6
330
3B1
100
AcDbEntity
  8
LAY-20
  6
CONTINUOUS
 62
     4
100
AcDbLine
 10
364.0
 20
374.99999999997
 30
0.0
 11
566.00000000001
 21
374.99999999997
 31
0.0
  0
INSERT
  5
3B7
330
3B1
100
AcDbEntity
  8
LAY-20
 62
     4
100
AcDbBlockReference
  2
EX_BNORM
 10
356.5
 20
374.99999999997
 30
0.0
 41
7.5
 42
7.5
 43
7.5
 50
180.0
  0
INSERT
  5
3B8
330
3B1
100
AcDbEntity
  8
LAY-20
 62
     4
100
AcDbBlockReference
  2
EX_BNORM
 10
573.50000000001
 20
374.99999999997
 30
0.0
 41
7.5
 42
7.5
 43
7.5
  0
MTEXT
  5
3B9
330
3B1
100
AcDbEntity
  8
LAY-20
 62
     7
100
AcDbMText
 10
465.0000000000049
 20
382.49999999997
 30
0.0
 40
9.3543312
 41
0.0
 71
     5
 72
     1
  1
%%c217
  7
EXCADDIM1
  0
POINT
  5
3BA
330
3B1
100
AcDbEntity
  8
DEFPOINTS
 62
     0
100
AcDbPoint
 10
356.5
 20
248.99999999998
 30
0.0
  0
POINT
  5
3BB
330
3B1
100
AcDbEntity
  8
DEFPOINTS
 62
     0
100
AcDbPoint
 10
573.50000000001
 20
248.99999999998
 30
0.0
  0
POINT
  5
3BC
330
3B1
100
AcDbEntity
  8
DEFPOINTS
 62
     0
100
AcDbPoint
 10
573.50000000001
 20
374.99999999997
 30
0.0
  0
ENDBLK
  5
3B3
330
3B1
100
AcDbEntity
  8
0
100
AcDbBlockEnd
  0
ENDSEC
  0
SECTION
  2
ENTITIES
  0
LINE
  5
D4
330
1F
100
AcDbEntity
  8
LAY-10
  6
CONTINUOUS
 62
     7
100
AcDbLine
 10
566.000000000007
 20
225.7401153701537
 30
0.0
 11
567.2598846298259
 21
226.9999999999726
 31
0.0
  0
LINE
  5
D5
330
1F
100
AcDbEntity
  8
LAY-10
  6
CONTINUOUS
 62
     7
100
AcDbLine
 10
566.0000000000045
 20
222.911688245405
 30
0.0
 11
570.0883117545746
 21
226.9999999999752
 31
0.0
  0
LINE
  5
D6
330
1F
100
AcDbEntity
  8
LAY-10
  6
CONTINUOUS
 62
     7
100
AcDbLine
 10
566.0000000000058
 20
220.08326112066
 30
0.0
 11
572.9167388793234
 21
226.9999999999777
 31
0.0
  0
LINE
  5
D7
330
1F
100
AcDbEntity
  8
LAY-10
  6
CONTINUOUS
 62
     7
100
AcDbLine
 10
566.000000000007
 20
217.2548339959152
 30
0.0
 11
573.0000000000122
 21
224.2548339959203
 31
0.0
  0
LINE
  5
D8
330
1F
100
AcDbEntity
  8
LAY-10
  6
CONTINUOUS
 62
     7
100
AcDbLine
 10
566.0000000000045
 20
214.4264068711664
 30
0.0
 11
573.0000000000134
 21
221.4264068711753
 31
0.0
  0
LINE
  5
D9
330
1F
100
AcDbEntity
  8
LAY-10
  6
CONTINUOUS
 62
     7
100
AcDbLine
 10
566.0000000000058
 20
211.5979797464216
 30
0.0
 11
573.0000000000109
 21
218.5979797464265
 31
0.0
  0
LINE
  5
DA
330
1F
100
AcDbEntity
  8
LAY-10
  6
CONTINUOUS
 62
     7
100
AcDbLine
 10
566.000000000007
 20
208.7695526216766
 30
0.0
 11
573.0000000000122
 21
215.7695526216817
 31
0.0
  0
LINE
  5
DB
330
1F
100
AcDbEntity
  8
LAY-10
  6
CONTINUOUS
 62
     7
100
AcDbLine
 10
566.0000000000084
 20
205.9411254969316
 30
0.0
 11
573.0000000000134
 21
212.9411254969367
 31
0.0
  0
LINE
  5
DC
330
1F
100
AcDbEntity
  8
LAY-10
  6
CONTINUOUS
 62
     7
100
AcDbLine
 10
566.0000000000058
 20
203.1126983721829
 30
0.0
 11
573.0000000000147
 21
210.1126983721918
 31
0.0
  0
LINE
  5
DD
330
1F
100
AcDbEntity
  8
LAY-10
  6
CONTINUOUS
 62
     7
100
AcDbLine
 10
566.0000000000072
 20
200.2842712474379
 30
0.0
 11
573.0000000000122
 21
207.284271247443
 31
0.0
  0
LINE
  5
DE
330
1F
100
AcDbEntity
  8
LAY-10
  6
CONTINUOUS
 62
     7
100
AcDbLine
 10
566.0000000000084
 20
197.4558441226931
 30
0.0
 11
573.0000000000134
 21
204.4558441226981
 31
0.0
  0
LINE
  5
DF
330
1F
100
AcDbEntity
  8
LAY-10
  6
CONTINUOUS
 62
     7
100
AcDbLine
 10
566.0000000000059
 20
194.6274169979443
 30
0.0
 11
573.0000000000148
 21
201.6274169979532
 31
0.0
  0
LINE
  5
E0
330
1F
100
AcDbEntity
  8
LAY-10
  6
CONTINUOUS
 62
     7
100
AcDbLine
 10
566.0000000000072
 20
191.7989898731993
 30
0.0
 11
573.0000000000084
 21
198.7989898732006
 31
0.0
  0
LINE
  5
E1
330
1F
100
AcDbEntity
  8
LAY-10
  6
CONTINUOUS
 62
     7
100
AcDbLine
 10
566.0000000000047
 20
188.9705627484506
 30
0.0
 11
573.0000000000135
 21
195.9705627484595
 31
0.0
  0
LINE
  5
E2
330
1F
100
AcDbEntity
  8
LAY-10
  6
CONTINUOUS
 62
     7
100
AcDbLine
 10
566.0000000000059
 20
186.1421356237056
 30
0.0
 11
573.0000000000148
 21
193.1421356237146
 31
0.0
  0
LINE
  5
E3
330
1F
100
AcDbEntity
  8
LAY-10
  6
CONTINUOUS
 62
     7
100
AcDbLine
 10
566.0000000000072
 20
183.3137084989608
 30
0.0
 11
573.0000000000084
 21
190.313708498962
 31
0.0
  0
LINE
  5
E4
330
1F
100
AcDbEntity
  8
LAY-10
  6
CONTINUOUS
 62
     7
100
AcDbLine
 10
566.0000000000047
 20
180.485281374212
 30
0.0
 11
573.0000000000097
 21
187.485281374217
 31
0.0
  0
LINE
  5
E5
330
1F
100
AcDbEntity
  8
LAY-10
  6
CONTINUOUS
 62
     7
100
AcDbLine
 10
566.000000000002
 20
177.6568542494633
 30
0.0
 11
573.0000000000148
 21
184.656854249476
 31
0.0
  0
LINE
  5
E6
330
1F
100
AcDbEntity
  8
LAY-10
  6
CONTINUOUS
 62
     7
100
AcDbLine
 10
566.0000000000072
 20
174.8284271247222
 30
0.0
 11
573.000000000016
 21
181.828427124731
 31
0.0
  0
LINE
  5
E7
330
1F
100
AcDbEntity
  8
LAY-10
  6
CONTINUOUS
 62
     7
100
AcDbLine
 10
566.0000000000047
 20
171.9999999999733
 30
0.0
 11
573.0000000000097
 21
178.9999999999784
 31
0.0
  0
LINE
  5
E8
330
1F
100
AcDbEntity
  8
LAY-10
  6
CONTINUOUS
 62
     7
100
AcDbLine
 10
568.8284271247534
 20
171.9999999999759
 30
0.0
 11
573.000000000011
 21
176.1715728752336
 31
0.0
  0
LINE
  5
E9
330
1F
100
AcDbEntity
  8
LAY-10
  6
CONTINUOUS
 62
     7
100
AcDbLine
 10
571.6568542494945
 20
171.9999999999708
 30
0.0
 11
573.0000000000161
 21
173.3431457504924
 31
0.0
  0
LINE
  5
EA
330
1F
100
AcDbEntity
  8
LAY-10
  6
CONTINUOUS
 62
     7
100
AcDbLine
 10
357.0000000000126
 20
225.7401153701593
 30
0.0
 11
358.2598846298353
 21
226.999999999982
 31
0.0
  0
LINE
  5
EB
330
1F
100
AcDbEntity
  8
LAY-10
  6
CONTINUOUS
 62
     7
100
AcDbLine
 10
357.0000000000138
 20
222.9116882454144
 30
0.0
 11
361.088311754584
 21
226.9999999999845
 31
0.0
  0
LINE
  5
EC
330
1F
100
AcDbEntity
  8
LAY-10
  6
CONTINUOUS
 62
     7
100
AcDbLine
 10
357.0000000000113
 20
220.0832611206657
 30
0.0
 11
363.916738879325
 21
226.9999999999794
 31
0.0
  0
LINE
  5
ED
330
1F
100
AcDbEntity
  8
LAY-10
  6
CONTINUOUS
 62
     7
100
AcDbLine
 10
357.0000000000126
 20
217.2548339959207
 30
0.0
 11
364.0000000000137
 21
224.254833995922
 31
0.0
  0
LINE
  5
EE
330
1F
100
AcDbEntity
  8
LAY-10
  6
CONTINUOUS
 62
     7
100
AcDbLine
 10
357.0000000000138
 20
214.4264068711759
 30
0.0
 11
364.0000000000149
 21
221.4264068711771
 31
0.0
  0
LINE
  5
EF
330
1F
100
AcDbEntity
  8
LAY-10
  6
CONTINUOUS
 62
     7
100
AcDbLine
 10
357.0000000000112
 20
211.5979797464272
 30
0.0
 11
364.0000000000163
 21
218.5979797464321
 31
0.0
  0
LINE
  5
F0
330
1F
100
AcDbEntity
  8
LAY-10
  6
CONTINUOUS
 62
     7
100
AcDbLine
 10
357.0000000000124
 20
208.7695526216822
 30
0.0
 11
364.0000000000137
 21
215.7695526216834
 31
0.0
  0
LINE
  5
F1
330
1F
100
AcDbEntity
  8
LAY-10
  6
CONTINUOUS
 62
     7
100
AcDbLine
 10
357.0000000000138
 20
205.9411254969373
 30
0.0
 11
364.0000000000149
 21
212.9411254969386
 31
0.0
  0
LINE
  5
F2
330
1F
100
AcDbEntity
  8
LAY-10
  6
CONTINUOUS
 62
     7
100
AcDbLine
 10
357.0000000000112
 20
203.1126983721886
 30
0.0
 11
364.0000000000163
 21
210.1126983721936
 31
0.0
  0
LINE
  5
F3
330
1F
100
AcDbEntity
  8
LAY-10
  6
CONTINUOUS
 62
     7
100
AcDbLine
 10
357.0000000000124
 20
200.2842712474437
 30
0.0
 11
364.0000000000136
 21
207.2842712474449
 31
0.0
  0
LINE
  5
F4
330
1F
100
AcDbEntity
  8
LAY-10
  6
CONTINUOUS
 62
     7
100
AcDbLine
 10
357.0000000000138
 20
197.4558441226988
 30
0.0
 11
364.000000000011
 21
204.4558441226962
 31
0.0
  0
LINE
  5
F5
330
1F
100
AcDbEntity
  8
LAY-10
  6
CONTINUOUS
 62
     7
100
AcDbLine
 10
357.0000000000111
 20
194.6274169979501
 30
0.0
 11
364.0000000000161
 21
201.6274169979551
 31
0.0
  0
LINE
  5
F6
330
1F
100
AcDbEntity
  8
LAY-10
  6
CONTINUOUS
 62
     7
100
AcDbLine
 10
357.0000000000124
 20
191.7989898732053
 30
0.0
 11
364.0000000000135
 21
198.7989898732064
 31
0.0
  0
LINE
  5
F7
330
1F
100
AcDbEntity
  8
LAY-10
  6
CONTINUOUS
 62
     7
100
AcDbLine
 10
357.0000000000136
 20
188.9705627484603
 30
0.0
 11
364.0000000000148
 21
195.9705627484615
 31
0.0
  0
LINE
  5
F8
330
1F
100
AcDbEntity
  8
LAY-10
  6
CONTINUOUS
 62
     7
100
AcDbLine
 10
357.000000000011
 20
186.1421356237116
 30
0.0
 11
364.0000000000122
 21
193.1421356237127
 31
0.0
  0
LINE
  5
F9
330
1F
100
AcDbEntity
  8
LAY-10
  6
CONTINUOUS
 62
     7
100
AcDbLine
 10
357.0000000000123
 20
183.3137084989667
 30
0.0
 11
364.0000000000173
 21
190.3137084989717
 31
0.0
  0
LINE
  5
FA
330
1F
100
AcDbEntity
  8
LAY-10
  6
CONTINUOUS
 62
     7
100
AcDbLine
 10
357.0000000000136
 20
180.4852813742218
 30
0.0
 11
364.0000000000147
 21
187.485281374223
 31
0.0
  0
LINE
  5
FB
330
1F
100
AcDbEntity
  8
LAY-10
  6
CONTINUOUS
 62
     7
100
AcDbLine
 10
357.0000000000148
 20
177.6568542494769
 30
0.0
 11
364.0000000000122
 21
184.6568542494743
 31
0.0
  0
LINE
  5
FC
330
1F
100
AcDbEntity
  8
LAY-10
  6
CONTINUOUS
 62
     7
100
AcDbLine
 10
357.0000000000122
 20
174.8284271247282
 30
0.0
 11
364.0000000000134
 21
181.8284271247294
 31
0.0
  0
LINE
  5
FD
330
1F
100
AcDbEntity
  8
LAY-10
  6
CONTINUOUS
 62
     7
100
AcDbLine
 10
357.0000000000097
 20
171.9999999999795
 30
0.0
 11
364.0000000000108
 21
178.9999999999806
 31
0.0
  0
LINE
  5
FE
330
1F
100
AcDbEntity
  8
LAY-10
  6
CONTINUOUS
 62
     7
100
AcDbLine
 10
359.8284271247546
 20
171.9999999999781
 30
0.0
 11
364.000000000016
 21
176.1715728752396
 31
0.0
  0
LINE
  5
FF
330
1F
100
AcDbEntity
  8
LAY-10
  6
CONTINUOUS
 62
     7
100
AcDbLine
 10
362.6568542494957
 20
171.999999999973
 30
0.0
 11
364.0000000000134
 21
173.3431457504909
 31
0.0
  0
CIRCLE
  5
100
330
1F
100
AcDbEntity
  8
LAY-10
  6
CONTINUOUS
 62
     7
100
AcDbCircle
 10
465.0000000000097
 20
584.9999999999891
 30
0.0
 40
132.5
  0
ARC
  5
101
330
1F
100
AcDbEntity
  8
LAY-10
  6
CONTINUOUS
 62
     7
100
AcDbCircle
 10
465.0000000000095
 20
584.9999999999891
 30
0.0
 40
116.4999999999998
100
AcDbArc
 50
169.1749904754552
 51
190.8250095245453
  0
LINE
  5
102
330
1F
100
AcDbEntity
  8
LAY-10
  6
CONTINUOUS
 62
     7
100
AcDbLine
 10
355.3083868292831
 20
604.999999999989
 30
0.0
 11
351.3732616930951
 21
605.7174887892302
 31
0.0
  0
LINE
  5
103
330
1F
100
AcDbEntity
  8
LAY-10
  6
CONTINUOUS
 62
     7
100
AcDbLine
 10
350.5730749214112
 20
606.8798724186472
 30
0.0
 11
355.7023535927887
 21
605.9446543973033
 31
0.0
  0
LINE
  5
104
330
1F
100
AcDbEntity
  8
LAY-10
  6
CONTINUOUS
 62
     7
100
AcDbLine
 10
351.3732616930951
 20
605.7174887892302
 30
0.0
 11
350.5730749214112
 21
606.8798724186472
 31
0.0
  0
LINE
  5
105
330
1F
100
AcDbEntity
  8
LAY-10
  6
CONTINUOUS
 62
     7
100
AcDbLine
 10
355.3083868292831
 20
564.9999999999885
 30
0.0
 11
351.3732616930951
 21
564.2825112107477
 31
0.0
  0
LINE
  5
106
330
1F
100
AcDbEntity
  8
LAY-10
  6
CONTINUOUS
 62
     7
100
AcDbLine
 10
350.5730749214112
 20
563.1201275813306
 30
0.0
 11
355.7023535927889
 21
564.0553456026745
 31
0.0
  0
LINE
  5
107
330
1F
100
AcDbEntity
  8
LAY-10
  6
CONTINUOUS
 62
     7
100
AcDbLine
 10
351.3732616930951
 20
564.2825112107477
 30
0.0
 11
350.5730749214112
 21
563.1201275813306
 31
0.0
  0
ARC
  5
108
330
1F
100
AcDbEntity
  8
LAY-10
  6
CONTINUOUS
 62
     7
100
AcDbCircle
 10
465.0000000000097
 20
584.9999999999894
 30
0.0
 40
115.5000000000017
100
AcDbArc
 50
169.6668057812614
 51
190.3331942187393
  0
ARC
  5
109
330
1F
100
AcDbEntity
  8
LAY-10
  6
CONTINUOUS
 62
     7
100
AcDbCircle
 10
465.0000000000097
 20
584.9999999999894
 30
0.0
 40
111.4999999999835
100
AcDbArc
 50
169.6668057812613
 51
190.3331942187393
  0
LINE
  5
10A
330
1F
100
AcDbEntity
  8
LAY-10
  6
CONTINUOUS
 62
     7
100
AcDbLine
 10
355.7023535927889
 20
564.0553456026745
 30
0.0
 11
355.3083868292833
 21
564.9999999999885
 31
0.0
  0
LINE
  5
10B
330
1F
100
AcDbEntity
  8
LAY-10
  6
CONTINUOUS
 62
     7
100
AcDbLine
 10
355.3083868292831
 20
604.999999999989
 30
0.0
 11
355.7023535927887
 21
605.9446543973033
 31
0.0
  0
ARC
  5
10C
330
1F
100
AcDbEntity
  8
LAY-10
  6
CONTINUOUS
 62
     7
100
AcDbCircle
 10
465.0000000000097
 20
584.9999999999894
 30
0.0
 40
111.2863606107273
100
AcDbArc
 50
190.8480511184137
 51
199.1519488815869
  0
LINE
  5
10D
330
1F
100
AcDbEntity
  8
LAY-10
  6
CONTINUOUS
 62
     7
100
AcDbLine
 10
360.0042764120648
 20
547.4747014903145
 30
0.0
 11
356.237613682435
 21
546.1285024406337
 31
0.0
  0
LINE
  5
10E
330
1F
100
AcDbEntity
  8
LAY-10
  6
CONTINUOUS
 62
     7
100
AcDbLine
 10
356.2376136824348
 20
546.1285024406337
 30
0.0
 11
354.9634397956755
 21
546.7350628068102
 31
0.0
  0
LINE
  5
10F
330
1F
100
AcDbEntity
  8
LAY-10
  6
CONTINUOUS
 62
     7
100
AcDbLine
 10
380.0042764120648
 20
512.8336853389368
 30
0.0
 11
376.9551024716761
 21
510.2447592524294
 31
0.0
  0
LINE
  5
110
330
1F
100
AcDbEntity
  8
LAY-10
  6
CONTINUOUS
 62
     7
100
AcDbLine
 10
376.9551024716761
 20
510.2447592524294
 30
0.0
 11
376.843312214334
 21
508.8380121145689
 31
0.0
  0
ARC
  5
111
330
1F
100
AcDbEntity
  8
LAY-10
  6
CONTINUOUS
 62
     7
100
AcDbCircle
 10
465.0000000000097
 20
584.9999999999891
 30
0.0
 40
116.4999999999998
100
AcDbArc
 50
199.1749904754554
 51
220.8250095245452
  0
ARC
  5
112
330
1F
100
AcDbEntity
  8
LAY-10
  6
CONTINUOUS
 62
     7
100
AcDbCircle
 10
465.0000000000097
 20
584.9999999999894
 30
0.0
 40
111.4999999999835
100
AcDbArc
 50
199.6668057812614
 51
220.3331942187393
  0
ARC
  5
113
330
1F
100
AcDbEntity
  8
LAY-10
  6
CONTINUOUS
 62
     7
100
AcDbCircle
 10
465.0000000000097
 20
584.9999999999894
 30
0.0
 40
115.5000000000017
100
AcDbArc
 50
199.6668057812613
 51
220.333194218739
  0
LINE
  5
114
330
1F
100
AcDbEntity
  8
LAY-10
  6
CONTINUOUS
 62
     7
100
AcDbLine
 10
380.8177888361652
 20
512.2125740148188
 30
0.0
 11
380.004276412065
 21
512.8336853389368
 31
0.0
  0
LINE
  5
115
330
1F
100
AcDbEntity
  8
LAY-10
  6
CONTINUOUS
 62
     7
100
AcDbLine
 10
360.0042764120648
 20
547.4747014903145
 30
0.0
 11
359.8731344388504
 21
548.4897795779383
 31
0.0
  0
LINE
  5
116
330
1F
100
AcDbEntity
  8
LAY-10
  6
CONTINUOUS
 62
     7
100
AcDbLine
 10
376.8433122143342
 20
508.8380121145693
 30
0.0
 11
380.8177888361652
 21
512.2125740148188
 31
0.0
  0
LINE
  5
117
330
1F
100
AcDbEntity
  8
LAY-10
  6
CONTINUOUS
 62
     7
100
AcDbLine
 10
354.9634397956755
 20
546.7350628068102
 30
0.0
 11
359.8731344388504
 21
548.4897795779383
 31
0.0
  0
LINE
  5
118
330
1F
100
AcDbEntity
  8
LAY-10
  6
CONTINUOUS
 62
     7
100
AcDbLine
 10
392.8336853389577
 20
500.0042764120441
 30
0.0
 11
390.2447592524504
 21
496.9551024716548
 31
0.0
  0
LINE
  5
119
330
1F
100
AcDbEntity
  8
LAY-10
  6
CONTINUOUS
 62
     7
100
AcDbLine
 10
390.2447592524504
 20
496.9551024716548
 30
0.0
 11
388.8380121145901
 21
496.8433122143129
 31
0.0
  0
LINE
  5
11A
330
1F
100
AcDbEntity
  8
LAY-10
  6
CONTINUOUS
 62
     7
100
AcDbLine
 10
427.4747014903357
 20
480.0042764120439
 30
0.0
 11
426.128502440655
 21
476.2376136824137
 31
0.0
  0
LINE
  5
11B
330
1F
100
AcDbEntity
  8
LAY-10
  6
CONTINUOUS
 62
     7
100
AcDbLine
 10
426.1285024406546
 20
476.2376136824136
 30
0.0
 11
426.7350628068313
 21
474.9634397956546
 31
0.0
  0
ARC
  5
11C
330
1F
100
AcDbEntity
  8
LAY-10
  6
CONTINUOUS
 62
     7
100
AcDbCircle
 10
465.00000000001
 20
584.9999999999887
 30
0.0
 40
116.4999999999998
100
AcDbArc
 50
229.1749904754551
 51
250.8250095245447
  0
ARC
  5
11D
330
1F
100
AcDbEntity
  8
LAY-10
  6
CONTINUOUS
 62
     7
100
AcDbCircle
 10
465.0000000000097
 20
584.9999999999891
 30
0.0
 40
111.4999999999835
100
AcDbArc
 50
229.6668057812614
 51
250.3331942187394
  0
ARC
  5
11E
330
1F
100
AcDbEntity
  8
LAY-10
  6
CONTINUOUS
 62
     7
100
AcDbCircle
 10
465.0000000000097
 20
584.9999999999891
 30
0.0
 40
115.5000000000017
100
AcDbArc
 50
229.666805781261
 51
250.3331942187394
  0
LINE
  5
11F
330
1F
100
AcDbEntity
  8
LAY-10
  6
CONTINUOUS
 62
     7
100
AcDbLine
 10
428.4897795779592
 20
479.8731344388297
 30
0.0
 11
427.4747014903357
 21
480.0042764120439
 31
0.0
  0
LINE
  5
120
330
1F
100
AcDbEntity
  8
LAY-10
  6
CONTINUOUS
 62
     7
100
AcDbLine
 10
392.8336853389577
 20
500.0042764120441
 30
0.0
 11
392.2125740148398
 21
500.8177888361439
 31
0.0
  0
LINE
  5
121
330
1F
100
AcDbEntity
  8
LAY-10
  6
CONTINUOUS
 62
     7
100
AcDbLine
 10
426.7350628068313
 20
474.9634397956546
 30
0.0
 11
428.4897795779592
 21
479.8731344388297
 31
0.0
  0
LINE
  5
122
330
1F
100
AcDbEntity
  8
LAY-10
  6
CONTINUOUS
 62
     7
100
AcDbLine
 10
388.8380121145901
 20
496.8433122143129
 30
0.0
 11
392.2125740148398
 21
500.8177888361439
 31
0.0
  0
LINE
  5
123
330
1F
100
AcDbEntity
  8
LAY-10
  6
CONTINUOUS
 62
     7
100
AcDbLine
 10
380.0042764120648
 20
657.1663146610414
 30
0.0
 11
376.9551024716756
 21
659.7552407475483
 31
0.0
  0
LINE
  5
124
330
1F
100
AcDbEntity
  8
LAY-10
  6
CONTINUOUS
 62
     7
100
AcDbLine
 10
376.9551024716756
 20
659.7552407475487
 30
0.0
 11
376.8433122143337
 21
661.1619878854088
 31
0.0
  0
LINE
  5
125
330
1F
100
AcDbEntity
  8
LAY-10
  6
CONTINUOUS
 62
     7
100
AcDbLine
 10
360.0042764120644
 20
622.5252985096633
 30
0.0
 11
356.2376136824345
 21
623.8714975593441
 31
0.0
  0
LINE
  5
126
330
1F
100
AcDbEntity
  8
LAY-10
  6
CONTINUOUS
 62
     7
100
AcDbLine
 10
356.2376136824345
 20
623.8714975593444
 30
0.0
 11
354.9634397956754
 21
623.2649371931676
 31
0.0
  0
ARC
  5
127
330
1F
100
AcDbEntity
  8
LAY-10
  6
CONTINUOUS
 62
     7
100
AcDbCircle
 10
465.0000000000095
 20
584.9999999999891
 30
0.0
 40
116.4999999999998
100
AcDbArc
 50
139.1749904754554
 51
160.825009524545
  0
ARC
  5
128
330
1F
100
AcDbEntity
  8
LAY-10
  6
CONTINUOUS
 62
     7
100
AcDbCircle
 10
465.0000000000097
 20
584.9999999999894
 30
0.0
 40
111.4999999999835
100
AcDbArc
 50
139.6668057812612
 51
160.3331942187391
  0
ARC
  5
129
330
1F
100
AcDbEntity
  8
LAY-10
  6
CONTINUOUS
 62
     7
100
AcDbCircle
 10
465.0000000000097
 20
584.9999999999894
 30
0.0
 40
115.5000000000017
100
AcDbArc
 50
139.6668057812614
 51
160.3331942187391
  0
LINE
  5
12A
330
1F
100
AcDbEntity
  8
LAY-10
  6
CONTINUOUS
 62
     7
100
AcDbLine
 10
359.8731344388502
 20
621.5102204220399
 30
0.0
 11
360.0042764120646
 21
622.5252985096633
 31
0.0
  0
LINE
  5
12B
330
1F
100
AcDbEntity
  8
LAY-10
  6
CONTINUOUS
 62
     7
100
AcDbLine
 10
380.0042764120648
 20
657.1663146610414
 30
0.0
 11
380.8177888361647
 21
657.7874259851594
 31
0.0
  0
LINE
  5
12C
330
1F
100
AcDbEntity
  8
LAY-10
  6
CONTINUOUS
 62
     7
100
AcDbLine
 10
354.9634397956754
 20
623.2649371931676
 30
0.0
 11
359.8731344388502
 21
621.5102204220399
 31
0.0
  0
LINE
  5
12D
330
1F
100
AcDbEntity
  8
LAY-10
  6
CONTINUOUS
 62
     7
100
AcDbLine
 10
376.8433122143337
 20
661.1619878854088
 30
0.0
 11
380.8177888361647
 21
657.7874259851594
 31
0.0
  0
LINE
  5
12E
330
1F
100
AcDbEntity
  8
LAY-10
  6
CONTINUOUS
 62
     7
100
AcDbLine
 10
427.4747014903351
 20
689.995723587934
 30
0.0
 11
426.1285024406543
 21
693.7623863175639
 31
0.0
  0
LINE
  5
12F
330
1F
100
AcDbEntity
  8
LAY-10
  6
CONTINUOUS
 62
     7
100
AcDbLine
 10
426.1285024406543
 20
693.7623863175639
 30
0.0
 11
426.7350628068306
 21
695.0365602043232
 31
0.0
  0
LINE
  5
130
330
1F
100
AcDbEntity
  8
LAY-10
  6
CONTINUOUS
 62
     7
100
AcDbLine
 10
392.8336853389569
 20
669.9957235879338
 30
0.0
 11
390.2447592524499
 21
673.0448975283228
 31
0.0
  0
LINE
  5
131
330
1F
100
AcDbEntity
  8
LAY-10
  6
CONTINUOUS
 62
     7
100
AcDbLine
 10
390.2447592524497
 20
673.0448975283228
 30
0.0
 11
388.8380121145894
 21
673.1566877856648
 31
0.0
  0
ARC
  5
132
330
1F
100
AcDbEntity
  8
LAY-10
  6
CONTINUOUS
 62
     7
100
AcDbCircle
 10
465.0000000000095
 20
584.9999999999891
 30
0.0
 40
116.4999999999998
100
AcDbArc
 50
109.1749904754554
 51
130.8250095245452
  0
ARC
  5
133
330
1F
100
AcDbEntity
  8
LAY-10
  6
CONTINUOUS
 62
     7
100
AcDbCircle
 10
465.0000000000095
 20
584.9999999999891
 30
0.0
 40
111.4999999999835
100
AcDbArc
 50
109.6668057812612
 51
130.333194218739
  0
ARC
  5
134
330
1F
100
AcDbEntity
  8
LAY-10
  6
CONTINUOUS
 62
     7
100
AcDbCircle
 10
465.0000000000095
 20
584.9999999999891
 30
0.0
 40
115.5000000000017
100
AcDbArc
 50
109.6668057812612
 51
130.3331942187394
  0
LINE
  5
135
330
1F
100
AcDbEntity
  8
LAY-10
  6
CONTINUOUS
 62
     7
100
AcDbLine
 10
392.2125740148392
 20
669.1822111638339
 30
0.0
 11
392.833685338957
 21
669.9957235879338
 31
0.0
  0
LINE
  5
136
330
1F
100
AcDbEntity
  8
LAY-10
  6
CONTINUOUS
 62
     7
100
AcDbLine
 10
427.4747014903351
 20
689.995723587934
 30
0.0
 11
428.4897795779585
 21
690.1268655611485
 31
0.0
  0
LINE
  5
137
330
1F
100
AcDbEntity
  8
LAY-10
  6
CONTINUOUS
 62
     7
100
AcDbLine
 10
388.8380121145894
 20
673.1566877856648
 30
0.0
 11
392.2125740148392
 21
669.1822111638339
 31
0.0
  0
LINE
  5
138
330
1F
100
AcDbEntity
  8
LAY-10
  6
CONTINUOUS
 62
     7
100
AcDbLine
 10
426.7350628068306
 20
695.0365602043229
 30
0.0
 11
428.4897795779585
 21
690.1268655611485
 31
0.0
  0
LINE
  5
139
330
1F
100
AcDbEntity
  8
LAY-10
  6
CONTINUOUS
 62
     7
100
AcDbLine
 10
485.0000000000095
 20
694.6916131707156
 30
0.0
 11
485.7174887892506
 21
698.6267383069037
 31
0.0
  0
LINE
  5
13A
330
1F
100
AcDbEntity
  8
LAY-10
  6
CONTINUOUS
 62
     7
100
AcDbLine
 10
485.7174887892506
 20
698.6267383069037
 30
0.0
 11
486.8798724186676
 21
699.4269250785877
 31
0.0
  0
LINE
  5
13B
330
1F
100
AcDbEntity
  8
LAY-10
  6
CONTINUOUS
 62
     7
100
AcDbLine
 10
445.0000000000091
 20
694.6916131707156
 30
0.0
 11
444.2825112107679
 21
698.6267383069037
 31
0.0
  0
LINE
  5
13C
330
1F
100
AcDbEntity
  8
LAY-10
  6
CONTINUOUS
 62
     7
100
AcDbLine
 10
444.2825112107679
 20
698.6267383069037
 30
0.0
 11
443.1201275813509
 21
699.4269250785877
 31
0.0
  0
ARC
  5
13D
330
1F
100
AcDbEntity
  8
LAY-10
  6
CONTINUOUS
 62
     7
100
AcDbCircle
 10
465.0000000000095
 20
584.9999999999891
 30
0.0
 40
116.4999999999998
100
AcDbArc
 50
79.17499047545539
 51
100.8250095245452
  0
ARC
  5
13E
330
1F
100
AcDbEntity
  8
LAY-10
  6
CONTINUOUS
 62
     7
100
AcDbCircle
 10
465.0000000000095
 20
584.9999999999891
 30
0.0
 40
111.4999999999835
100
AcDbArc
 50
79.66680578126113
 51
100.3331942187394
  0
ARC
  5
13F
330
1F
100
AcDbEntity
  8
LAY-10
  6
CONTINUOUS
 62
     7
100
AcDbCircle
 10
465.0000000000095
 20
584.9999999999891
 30
0.0
 40
115.5000000000017
100
AcDbArc
 50
79.66680578126113
 51
100.3331942187391
  0
LINE
  5
140
330
1F
100
AcDbEntity
  8
LAY-10
  6
CONTINUOUS
 62
     7
100
AcDbLine
 10
444.0553456026947
 20
694.2976464072099
 30
0.0
 11
445.0000000000091
 21
694.6916131707156
 31
0.0
  0
LINE
  5
141
330
1F
100
AcDbEntity
  8
LAY-10
  6
CONTINUOUS
 62
     7
100
AcDbLine
 10
485.0000000000095
 20
694.6916131707156
 30
0.0
 11
485.9446543973237
 21
694.2976464072102
 31
0.0
  0
LINE
  5
142
330
1F
100
AcDbEntity
  8
LAY-10
  6
CONTINUOUS
 62
     7
100
AcDbLine
 10
443.1201275813509
 20
699.4269250785877
 30
0.0
 11
444.0553456026947
 21
694.2976464072099
 31
0.0
  0
LINE
  5
143
330
1F
100
AcDbEntity
  8
LAY-10
  6
CONTINUOUS
 62
     7
100
AcDbLine
 10
486.8798724186676
 20
699.4269250785877
 30
0.0
 11
485.9446543973237
 21
694.2976464072102
 31
0.0
  0
ARC
  5
144
330
1F
100
AcDbEntity
  8
LAY-10
  6
CONTINUOUS
 62
     7
100
AcDbCircle
 10
465.0000000000097
 20
584.9999999999894
 30
0.0
 40
111.2863606107273
100
AcDbArc
 50
100.8480511184133
 51
109.1519488815873
  0
ARC
  5
145
330
1F
100
AcDbEntity
  8
LAY-10
  6
CONTINUOUS
 62
     7
100
AcDbCircle
 10
465.0000000000097
 20
584.9999999999894
 30
0.0
 40
111.2863606107273
100
AcDbArc
 50
130.8480511184137
 51
139.151948881587
  0
ARC
  5
146
330
1F
100
AcDbEntity
  8
LAY-10
  6
CONTINUOUS
 62
     7
100
AcDbCircle
 10
465.0000000000097
 20
584.9999999999894
 30
0.0
 40
111.2863606107273
100
AcDbArc
 50
160.8480511184137
 51
169.1519488815871
  0
ARC
  5
147
330
1F
100
AcDbEntity
  8
LAY-10
  6
CONTINUOUS
 62
     7
100
AcDbCircle
 10
465.0000000000097
 20
584.9999999999894
 30
0.0
 40
111.2863606107273
100
AcDbArc
 50
220.8480511184135
 51
229.151948881587
  0
ARC
  5
148
330
1F
100
AcDbEntity
  8
LAY-10
  6
CONTINUOUS
 62
     7
100
AcDbCircle
 10
465.0000000000097
 20
584.9999999999891
 30
0.0
 40
111.0807377657193
100
AcDbArc
 50
176.903675022988
 51
183.0963249770125
  0
LINE
  5
149
330
1F
100
AcDbEntity
  8
LAY-10
  6
CONTINUOUS
 62
     7
100
AcDbLine
 10
354.0814248983771
 20
590.9999999999891
 30
0.0
 11
354.5251910626782
 21
591.4248546332825
 31
0.0
  0
LINE
  5
14A
330
1F
100
AcDbEntity
  8
LAY-10
  6
CONTINUOUS
 62
     7
100
AcDbLine
 10
354.0814248983771
 20
578.9999999999891
 30
0.0
 11
354.5251910626784
 21
578.575145366696
 31
0.0
  0
ARC
  5
14B
330
1F
100
AcDbEntity
  8
LAY-10
  6
CONTINUOUS
 62
     7
100
AcDbCircle
 10
465.0000000000095
 20
584.9999999999891
 30
0.0
 40
111.0807377657193
100
AcDbArc
 50
87.93634177971174
 51
92.06365822028826
  0
ARC
  5
14C
330
1F
100
AcDbEntity
  8
LAY-10
  6
CONTINUOUS
 62
     7
100
AcDbCircle
 10
465.0000000000097
 20
584.9999999999894
 30
0.0
 40
110.6614755314552
100
AcDbArc
 50
92.27873251917272
 51
176.6716133547329
  0
LINE
  5
14D
330
1F
100
AcDbEntity
  8
LAY-10
  6
CONTINUOUS
 62
     7
100
AcDbLine
 10
460.6000000000137
 20
695.5739669488098
 30
0.0
 11
461.0000000000097
 21
696.0086947161079
 31
0.0
  0
LINE
  5
14E
330
1F
100
AcDbEntity
  8
LAY-10
  6
CONTINUOUS
 62
     7
100
AcDbLine
 10
469.4000000000057
 20
695.5739669488098
 30
0.0
 11
469.0000000000098
 21
696.0086947161079
 31
0.0
  0
CIRCLE
  5
14F
330
1F
100
AcDbEntity
  8
LAY-10
  6
CONTINUOUS
 62
     7
100
AcDbCircle
 10
465.0000000000095
 20
584.9999999999891
 30
0.0
 40
131.4999999999999
  0
LINE
  5
150
330
1F
100
AcDbEntity
  8
LAY-10
  6
CONTINUOUS
 62
     7
100
AcDbLine
 10
485.0000000000095
 20
475.3083868292632
 30
0.0
 11
485.7174887892506
 21
471.3732616930755
 31
0.0
  0
LINE
  5
151
330
1F
100
AcDbEntity
  8
LAY-10
  6
CONTINUOUS
 62
     7
100
AcDbLine
 10
485.7174887892506
 20
471.3732616930755
 30
0.0
 11
486.8798724186676
 21
470.5730749213911
 31
0.0
  0
LINE
  5
152
330
1F
100
AcDbEntity
  8
LAY-10
  6
CONTINUOUS
 62
     7
100
AcDbLine
 10
445.0000000000091
 20
475.3083868292632
 30
0.0
 11
444.2825112107679
 21
471.3732616930755
 31
0.0
  0
LINE
  5
153
330
1F
100
AcDbEntity
  8
LAY-10
  6
CONTINUOUS
 62
     7
100
AcDbLine
 10
444.2825112107679
 20
471.3732616930755
 30
0.0
 11
443.1201275813509
 21
470.5730749213911
 31
0.0
  0
ARC
  5
154
330
1F
100
AcDbEntity
  8
LAY-10
  6
CONTINUOUS
 62
     7
100
AcDbCircle
 10
465.0000000000095
 20
584.9999999999901
 30
0.0
 40
116.4999999999998
100
AcDbArc
 50
259.1749904754552
 51
280.8250095245448
  0
ARC
  5
155
330
1F
100
AcDbEntity
  8
LAY-10
  6
CONTINUOUS
 62
     7
100
AcDbCircle
 10
465.0000000000095
 20
584.9999999999901
 30
0.0
 40
111.4999999999835
100
AcDbArc
 50
259.666805781261
 51
280.3331942187389
  0
ARC
  5
156
330
1F
100
AcDbEntity
  8
LAY-10
  6
CONTINUOUS
 62
     7
100
AcDbCircle
 10
465.0000000000095
 20
584.9999999999901
 30
0.0
 40
115.5000000000017
100
AcDbArc
 50
259.666805781261
 51
280.333194218739
  0
LINE
  5
157
330
1F
100
AcDbEntity
  8
LAY-10
  6
CONTINUOUS
 62
     7
100
AcDbLine
 10
444.0553456026947
 20
475.7023535927693
 30
0.0
 11
445.0000000000091
 21
475.3083868292632
 31
0.0
  0
LINE
  5
158
330
1F
100
AcDbEntity
  8
LAY-10
  6
CONTINUOUS
 62
     7
100
AcDbLine
 10
485.0000000000095
 20
475.3083868292632
 30
0.0
 11
485.9446543973237
 21
475.7023535927686
 31
0.0
  0
LINE
  5
159
330
1F
100
AcDbEntity
  8
LAY-10
  6
CONTINUOUS
 62
     7
100
AcDbLine
 10
443.1201275813509
 20
470.5730749213911
 30
0.0
 11
444.0553456026947
 21
475.7023535927693
 31
0.0
  0
LINE
  5
15A
330
1F
100
AcDbEntity
  8
LAY-10
  6
CONTINUOUS
 62
     7
100
AcDbLine
 10
486.8798724186676
 20
470.5730749213911
 30
0.0
 11
485.9446543973237
 21
475.7023535927686
 31
0.0
  0
ARC
  5
15B
330
1F
100
AcDbEntity
  8
LAY-10
  6
CONTINUOUS
 62
     7
100
AcDbCircle
 10
465.0000000000095
 20
584.9999999999901
 30
0.0
 40
111.0807377657193
100
AcDbArc
 50
267.9363417797118
 51
272.0636582202883
  0
LINE
  5
15C
330
1F
100
AcDbEntity
  8
LAY-10
  6
CONTINUOUS
 62
     7
100
AcDbLine
 10
461.0000000000097
 20
482.4219214816727
 30
0.0
 11
461.0000000000097
 21
482.5780785183071
 31
0.0
  0
LINE
  5
15D
330
1F
100
AcDbEntity
  8
LAY-10
  6
CONTINUOUS
 62
     7
100
AcDbLine
 10
460.6000000000137
 20
474.4260330511694
 30
0.0
 11
461.0000000000097
 21
473.9913052838709
 31
0.0
  0
LINE
  5
15E
330
1F
100
AcDbEntity
  8
LAY-10
  6
CONTINUOUS
 62
     7
100
AcDbLine
 10
469.0000000000098
 20
482.4219214816727
 30
0.0
 11
469.0000000000098
 21
482.5780785183071
 31
0.0
  0
LINE
  5
15F
330
1F
100
AcDbEntity
  8
LAY-10
  6
CONTINUOUS
 62
     7
100
AcDbLine
 10
469.4000000000057
 20
474.4260330511694
 30
0.0
 11
469.0000000000098
 21
473.9913052838709
 31
0.0
  0
ARC
  5
160
330
1F
100
AcDbEntity
  8
LAY-10
  6
CONTINUOUS
 62
     7
100
AcDbCircle
 10
465.0000000000097
 20
584.9999999999894
 30
0.0
 40
111.2863606107273
100
AcDbArc
 50
250.8480511184137
 51
259.151948881582
  0
ARC
  5
161
330
1F
100
AcDbEntity
  8
LAY-10
  6
CONTINUOUS
 62
     7
100
AcDbCircle
 10
465.0000000000097
 20
584.9999999999894
 30
0.0
 40
110.6614755314552
100
AcDbArc
 50
183.3283866452678
 51
267.7212674808251
  0
ARC
  5
162
330
1F
100
AcDbEntity
  8
LAY-10
  6
CONTINUOUS
 62
     7
100
AcDbCircle
 10
465.0000000000098
 20
584.9999999999891
 30
0.0
 40
116.4999999999998
100
AcDbArc
 50
349.1749904754549
 51
10.82500952454488
  0
LINE
  5
163
330
1F
100
AcDbEntity
  8
LAY-10
  6
CONTINUOUS
 62
     7
100
AcDbLine
 10
574.6916131707362
 20
604.999999999989
 30
0.0
 11
578.6267383069243
 21
605.7174887892302
 31
0.0
  0
LINE
  5
164
330
1F
100
AcDbEntity
  8
LAY-10
  6
CONTINUOUS
 62
     7
100
AcDbLine
 10
579.4269250786082
 20
606.8798724186472
 30
0.0
 11
574.2976464072307
 21
605.9446543973033
 31
0.0
  0
LINE
  5
165
330
1F
100
AcDbEntity
  8
LAY-10
  6
CONTINUOUS
 62
     7
100
AcDbLine
 10
578.6267383069243
 20
605.7174887892302
 30
0.0
 11
579.4269250786082
 21
606.8798724186472
 31
0.0
  0
LINE
  5
166
330
1F
100
AcDbEntity
  8
LAY-10
  6
CONTINUOUS
 62
     7
100
AcDbLine
 10
574.6916131707362
 20
564.9999999999885
 30
0.0
 11
578.6267383069243
 21
564.2825112107477
 31
0.0
  0
LINE
  5
167
330
1F
100
AcDbEntity
  8
LAY-10
  6
CONTINUOUS
 62
     7
100
AcDbLine
 10
579.4269250786082
 20
563.1201275813306
 30
0.0
 11
574.2976464072304
 21
564.0553456026745
 31
0.0
  0
LINE
  5
168
330
1F
100
AcDbEntity
  8
LAY-10
  6
CONTINUOUS
 62
     7
100
AcDbLine
 10
578.6267383069243
 20
564.2825112107477
 30
0.0
 11
579.4269250786082
 21
563.1201275813306
 31
0.0
  0
ARC
  5
169
330
1F
100
AcDbEntity
  8
LAY-10
  6
CONTINUOUS
 62
     7
100
AcDbCircle
 10
465.0000000000097
 20
584.9999999999894
 30
0.0
 40
115.5000000000017
100
AcDbArc
 50
349.6668057812607
 51
10.33319421873862
  0
ARC
  5
16A
330
1F
100
AcDbEntity
  8
LAY-10
  6
CONTINUOUS
 62
     7
100
AcDbCircle
 10
465.0000000000097
 20
584.9999999999894
 30
0.0
 40
111.4999999999835
100
AcDbArc
 50
349.6668057812608
 51
10.33319421873867
  0
LINE
  5
16B
330
1F
100
AcDbEntity
  8
LAY-10
  6
CONTINUOUS
 62
     7
100
AcDbLine
 10
574.2976464072304
 20
564.0553456026745
 30
0.0
 11
574.6916131707361
 21
564.9999999999885
 31
0.0
  0
LINE
  5
16C
330
1F
100
AcDbEntity
  8
LAY-10
  6
CONTINUOUS
 62
     7
100
AcDbLine
 10
574.6916131707362
 20
604.999999999989
 30
0.0
 11
574.2976464072307
 21
605.9446543973033
 31
0.0
  0
ARC
  5
16D
330
1F
100
AcDbEntity
  8
LAY-10
  6
CONTINUOUS
 62
     7
100
AcDbCircle
 10
465.0000000000097
 20
584.9999999999894
 30
0.0
 40
111.2863606107273
100
AcDbArc
 50
340.8480511184134
 51
349.1519488815863
  0
LINE
  5
16E
330
1F
100
AcDbEntity
  8
LAY-10
  6
CONTINUOUS
 62
     7
100
AcDbLine
 10
569.9957235879546
 20
547.4747014903145
 30
0.0
 11
573.7623863175844
 21
546.1285024406337
 31
0.0
  0
LINE
  5
16F
330
1F
100
AcDbEntity
  8
LAY-10
  6
CONTINUOUS
 62
     7
100
AcDbLine
 10
573.7623863175845
 20
546.1285024406337
 30
0.0
 11
575.0365602043438
 21
546.7350628068102
 31
0.0
  0
LINE
  5
170
330
1F
100
AcDbEntity
  8
LAY-10
  6
CONTINUOUS
 62
     7
100
AcDbLine
 10
549.9957235879546
 20
512.8336853389368
 30
0.0
 11
553.0448975283433
 21
510.2447592524294
 31
0.0
  0
LINE
  5
171
330
1F
100
AcDbEntity
  8
LAY-10
  6
CONTINUOUS
 62
     7
100
AcDbLine
 10
553.0448975283433
 20
510.2447592524294
 30
0.0
 11
553.1566877856853
 21
508.8380121145689
 31
0.0
  0
ARC
  5
172
330
1F
100
AcDbEntity
  8
LAY-10
  6
CONTINUOUS
 62
     7
100
AcDbCircle
 10
465.0000000000097
 20
584.9999999999891
 30
0.0
 40
116.4999999999998
100
AcDbArc
 50
319.1749904754553
 51
340.8250095245448
  0
ARC
  5
173
330
1F
100
AcDbEntity
  8
LAY-10
  6
CONTINUOUS
 62
     7
100
AcDbCircle
 10
465.0000000000097
 20
584.9999999999894
 30
0.0
 40
111.4999999999835
100
AcDbArc
 50
319.6668057812612
 51
340.3331942187391
  0
ARC
  5
174
330
1F
100
AcDbEntity
  8
LAY-10
  6
CONTINUOUS
 62
     7
100
AcDbCircle
 10
465.0000000000097
 20
584.9999999999894
 30
0.0
 40
115.5000000000017
100
AcDbArc
 50
319.6668057812612
 51
340.3331942187394
  0
LINE
  5
175
330
1F
100
AcDbEntity
  8
LAY-10
  6
CONTINUOUS
 62
     7
100
AcDbLine
 10
549.1822111638542
 20
512.2125740148188
 30
0.0
 11
549.9957235879543
 21
512.8336853389368
 31
0.0
  0
LINE
  5
176
330
1F
100
AcDbEntity
  8
LAY-10
  6
CONTINUOUS
 62
     7
100
AcDbLine
 10
569.9957235879546
 20
547.4747014903145
 30
0.0
 11
570.126865561169
 21
548.4897795779383
 31
0.0
  0
LINE
  5
177
330
1F
100
AcDbEntity
  8
LAY-10
  6
CONTINUOUS
 62
     7
100
AcDbLine
 10
553.1566877856852
 20
508.8380121145693
 30
0.0
 11
549.1822111638542
 21
512.2125740148188
 31
0.0
  0
LINE
  5
178
330
1F
100
AcDbEntity
  8
LAY-10
  6
CONTINUOUS
 62
     7
100
AcDbLine
 10
575.0365602043438
 20
546.7350628068102
 30
0.0
 11
570.126865561169
 21
548.4897795779383
 31
0.0
  0
LINE
  5
179
330
1F
100
AcDbEntity
  8
LAY-10
  6
CONTINUOUS
 62
     7
100
AcDbLine
 10
537.1663146610616
 20
500.0042764120441
 30
0.0
 11
539.7552407475689
 21
496.9551024716548
 31
0.0
  0
LINE
  5
17A
330
1F
100
AcDbEntity
  8
LAY-10
  6
CONTINUOUS
 62
     7
100
AcDbLine
 10
539.7552407475689
 20
496.9551024716548
 30
0.0
 11
541.1619878854293
 21
496.8433122143129
 31
0.0
  0
LINE
  5
17B
330
1F
100
AcDbEntity
  8
LAY-10
  6
CONTINUOUS
 62
     7
100
AcDbLine
 10
502.5252985096836
 20
480.0042764120439
 30
0.0
 11
503.8714975593643
 21
476.2376136824137
 31
0.0
  0
LINE
  5
17C
330
1F
100
AcDbEntity
  8
LAY-10
  6
CONTINUOUS
 62
     7
100
AcDbLine
 10
503.8714975593647
 20
476.2376136824136
 30
0.0
 11
503.264937193188
 21
474.9634397956546
 31
0.0
  0
ARC
  5
17D
330
1F
100
AcDbEntity
  8
LAY-10
  6
CONTINUOUS
 62
     7
100
AcDbCircle
 10
465.0000000000093
 20
584.9999999999887
 30
0.0
 40
116.4999999999998
100
AcDbArc
 50
289.1749904754553
 51
310.8250095245452
  0
ARC
  5
17E
330
1F
100
AcDbEntity
  8
LAY-10
  6
CONTINUOUS
 62
     7
100
AcDbCircle
 10
465.0000000000097
 20
584.9999999999891
 30
0.0
 40
111.4999999999835
100
AcDbArc
 50
289.666805781261
 51
310.333194218739
  0
ARC
  5
17F
330
1F
100
AcDbEntity
  8
LAY-10
  6
CONTINUOUS
 62
     7
100
AcDbCircle
 10
465.0000000000097
 20
584.9999999999891
 30
0.0
 40
115.5000000000017
100
AcDbArc
 50
289.666805781261
 51
310.333194218739
  0
LINE
  5
180
330
1F
100
AcDbEntity
  8
LAY-10
  6
CONTINUOUS
 62
     7
100
AcDbLine
 10
501.5102204220601
 20
479.8731344388297
 30
0.0
 11
502.5252985096836
 21
480.0042764120439
 31
0.0
  0
LINE
  5
181
330
1F
100
AcDbEntity
  8
LAY-10
  6
CONTINUOUS
 62
     7
100
AcDbLine
 10
537.1663146610616
 20
500.0042764120441
 30
0.0
 11
537.7874259851795
 21
500.8177888361439
 31
0.0
  0
LINE
  5
182
330
1F
100
AcDbEntity
  8
LAY-10
  6
CONTINUOUS
 62
     7
100
AcDbLine
 10
503.264937193188
 20
474.9634397956546
 30
0.0
 11
501.5102204220601
 21
479.8731344388297
 31
0.0
  0
LINE
  5
183
330
1F
100
AcDbEntity
  8
LAY-10
  6
CONTINUOUS
 62
     7
100
AcDbLine
 10
541.1619878854293
 20
496.8433122143129
 30
0.0
 11
537.7874259851795
 21
500.8177888361439
 31
0.0
  0
LINE
  5
184
330
1F
100
AcDbEntity
  8
LAY-10
  6
CONTINUOUS
 62
     7
100
AcDbLine
 10
549.9957235879546
 20
657.1663146610414
 30
0.0
 11
553.0448975283438
 21
659.7552407475483
 31
0.0
  0
LINE
  5
185
330
1F
100
AcDbEntity
  8
LAY-10
  6
CONTINUOUS
 62
     7
100
AcDbLine
 10
553.0448975283438
 20
659.7552407475487
 30
0.0
 11
553.1566877856857
 21
661.1619878854088
 31
0.0
  0
LINE
  5
186
330
1F
100
AcDbEntity
  8
LAY-10
  6
CONTINUOUS
 62
     7
100
AcDbLine
 10
569.9957235879549
 20
622.5252985096633
 30
0.0
 11
573.7623863175849
 21
623.8714975593441
 31
0.0
  0
LINE
  5
187
330
1F
100
AcDbEntity
  8
LAY-10
  6
CONTINUOUS
 62
     7
100
AcDbLine
 10
573.7623863175849
 20
623.8714975593444
 30
0.0
 11
575.036560204344
 21
623.2649371931676
 31
0.0
  0
ARC
  5
188
330
1F
100
AcDbEntity
  8
LAY-10
  6
CONTINUOUS
 62
     7
100
AcDbCircle
 10
465.0000000000098
 20
584.9999999999891
 30
0.0
 40
116.4999999999998
100
AcDbArc
 50
19.17499047545514
 51
40.82500952454488
  0
ARC
  5
189
330
1F
100
AcDbEntity
  8
LAY-10
  6
CONTINUOUS
 62
     7
100
AcDbCircle
 10
465.0000000000097
 20
584.9999999999894
 30
0.0
 40
111.4999999999835
100
AcDbArc
 50
19.66680578126093
 51
40.33319421873886
  0
ARC
  5
18A
330
1F
100
AcDbEntity
  8
LAY-10
  6
CONTINUOUS
 62
     7
100
AcDbCircle
 10
465.0000000000097
 20
584.9999999999894
 30
0.0
 40
115.5000000000017
100
AcDbArc
 50
19.66680578126093
 51
40.3331942187388
  0
LINE
  5
18B
330
1F
100
AcDbEntity
  8
LAY-10
  6
CONTINUOUS
 62
     7
100
AcDbLine
 10
570.1268655611691
 20
621.5102204220399
 30
0.0
 11
569.9957235879548
 21
622.5252985096633
 31
0.0
  0
LINE
  5
18C
330
1F
100
AcDbEntity
  8
LAY-10
  6
CONTINUOUS
 62
     7
100
AcDbLine
 10
549.9957235879546
 20
657.1663146610414
 30
0.0
 11
549.1822111638547
 21
657.7874259851594
 31
0.0
  0
LINE
  5
18D
330
1F
100
AcDbEntity
  8
LAY-10
  6
CONTINUOUS
 62
     7
100
AcDbLine
 10
575.036560204344
 20
623.2649371931676
 30
0.0
 11
570.1268655611691
 21
621.5102204220399
 31
0.0
  0
LINE
  5
18E
330
1F
100
AcDbEntity
  8
LAY-10
  6
CONTINUOUS
 62
     7
100
AcDbLine
 10
553.1566877856857
 20
661.1619878854088
 30
0.0
 11
549.1822111638547
 21
657.7874259851594
 31
0.0
  0
LINE
  5
18F
330
1F
100
AcDbEntity
  8
LAY-10
  6
CONTINUOUS
 62
     7
100
AcDbLine
 10
502.5252985096843
 20
689.995723587934
 30
0.0
 11
503.871497559365
 21
693.7623863175639
 31
0.0
  0
LINE
  5
190
330
1F
100
AcDbEntity
  8
LAY-10
  6
CONTINUOUS
 62
     7
100
AcDbLine
 10
503.871497559365
 20
693.7623863175639
 30
0.0
 11
503.2649371931887
 21
695.0365602043232
 31
0.0
  0
LINE
  5
191
330
1F
100
AcDbEntity
  8
LAY-10
  6
CONTINUOUS
 62
     7
100
AcDbLine
 10
537.1663146610625
 20
669.9957235879338
 30
0.0
 11
539.7552407475695
 21
673.0448975283228
 31
0.0
  0
LINE
  5
192
330
1F
100
AcDbEntity
  8
LAY-10
  6
CONTINUOUS
 62
     7
100
AcDbLine
 10
539.7552407475696
 20
673.0448975283228
 30
0.0
 11
541.16198788543
 21
673.1566877856648
 31
0.0
  0
ARC
  5
193
330
1F
100
AcDbEntity
  8
LAY-10
  6
CONTINUOUS
 62
     7
100
AcDbCircle
 10
465.0000000000098
 20
584.9999999999891
 30
0.0
 40
116.4999999999998
100
AcDbArc
 50
49.1749904754548
 51
70.82500952454467
  0
ARC
  5
194
330
1F
100
AcDbEntity
  8
LAY-10
  6
CONTINUOUS
 62
     7
100
AcDbCircle
 10
465.0000000000098
 20
584.9999999999891
 30
0.0
 40
111.4999999999835
100
AcDbArc
 50
49.66680578126095
 51
70.33319421873898
  0
ARC
  5
195
330
1F
100
AcDbEntity
  8
LAY-10
  6
CONTINUOUS
 62
     7
100
AcDbCircle
 10
465.0000000000098
 20
584.9999999999891
 30
0.0
 40
115.5000000000017
100
AcDbArc
 50
49.66680578126078
 51
70.33319421873898
  0
LINE
  5
196
330
1F
100
AcDbEntity
  8
LAY-10
  6
CONTINUOUS
 62
     7
100
AcDbLine
 10
537.7874259851802
 20
669.1822111638339
 30
0.0
 11
537.1663146610623
 21
669.9957235879338
 31
0.0
  0
LINE
  5
197
330
1F
100
AcDbEntity
  8
LAY-10
  6
CONTINUOUS
 62
     7
100
AcDbLine
 10
502.5252985096843
 20
689.995723587934
 30
0.0
 11
501.5102204220608
 21
690.1268655611485
 31
0.0
  0
LINE
  5
198
330
1F
100
AcDbEntity
  8
LAY-10
  6
CONTINUOUS
 62
     7
100
AcDbLine
 10
541.16198788543
 20
673.1566877856648
 30
0.0
 11
537.7874259851802
 21
669.1822111638339
 31
0.0
  0
LINE
  5
199
330
1F
100
AcDbEntity
  8
LAY-10
  6
CONTINUOUS
 62
     7
100
AcDbLine
 10
503.2649371931887
 20
695.0365602043229
 30
0.0
 11
501.5102204220608
 21
690.1268655611485
 31
0.0
  0
ARC
  5
19A
330
1F
100
AcDbEntity
  8
LAY-10
  6
CONTINUOUS
 62
     7
100
AcDbCircle
 10
465.0000000000097
 20
584.9999999999894
 30
0.0
 40
111.2863606107273
100
AcDbArc
 50
40.84805111841307
 51
49.15194888158651
  0
ARC
  5
19B
330
1F
100
AcDbEntity
  8
LAY-10
  6
CONTINUOUS
 62
     7
100
AcDbCircle
 10
465.0000000000097
 20
584.9999999999894
 30
0.0
 40
111.2863606107273
100
AcDbArc
 50
10.84805111841317
 51
19.15194888158644
  0
ARC
  5
19C
330
1F
100
AcDbEntity
  8
LAY-10
  6
CONTINUOUS
 62
     7
100
AcDbCircle
 10
465.0000000000097
 20
584.9999999999894
 30
0.0
 40
111.2863606107273
100
AcDbArc
 50
310.8480511184133
 51
319.1519488815867
  0
ARC
  5
19D
330
1F
100
AcDbEntity
  8
LAY-10
  6
CONTINUOUS
 62
     7
100
AcDbCircle
 10
465.0000000000097
 20
584.9999999999891
 30
0.0
 40
111.0807377657193
100
AcDbArc
 50
356.9036750229876
 51
3.096324977012336
  0
LINE
  5
19E
330
1F
100
AcDbEntity
  8
LAY-10
  6
CONTINUOUS
 62
     7
100
AcDbLine
 10
575.9185751016422
 20
590.9999999999891
 30
0.0
 11
575.4748089373411
 21
591.4248546332825
 31
0.0
  0
LINE
  5
19F
330
1F
100
AcDbEntity
  8
LAY-10
  6
CONTINUOUS
 62
     7
100
AcDbLine
 10
575.9185751016422
 20
578.9999999999891
 30
0.0
 11
575.474808937341
 21
578.575145366696
 31
0.0
  0
ARC
  5
1A0
330
1F
100
AcDbEntity
  8
LAY-10
  6
CONTINUOUS
 62
     7
100
AcDbCircle
 10
465.0000000000097
 20
584.9999999999894
 30
0.0
 40
111.2863606107273
100
AcDbArc
 50
70.84805111841284
 51
79.15194888158675
  0
ARC
  5
1A1
330
1F
100
AcDbEntity
  8
LAY-10
  6
CONTINUOUS
 62
     7
100
AcDbCircle
 10
465.0000000000097
 20
584.9999999999894
 30
0.0
 40
110.6614755314552
100
AcDbArc
 50
3.328386645267476
 51
87.72126748082748
  0
ARC
  5
1A2
330
1F
100
AcDbEntity
  8
LAY-10
  6
CONTINUOUS
 62
     7
100
AcDbCircle
 10
465.0000000000097
 20
584.9999999999894
 30
0.0
 40
111.2863606107273
100
AcDbArc
 50
280.8480511184183
 51
289.1519488815867
  0
ARC
  5
1A3
330
1F
100
AcDbEntity
  8
LAY-10
  6
CONTINUOUS
 62
     7
100
AcDbCircle
 10
465.0000000000097
 20
584.9999999999894
 30
0.0
 40
110.6614755314552
100
AcDbArc
 50
272.278732519175
 51
356.6716133547322
  0
LINE
  5
1A4
330
1F
100
AcDbEntity
  8
LAY-10
  6
CONTINUOUS
 62
     7
100
AcDbLine
 10
566.5366072321436
 20
581.55703358022
 30
0.0
 11
575.4633927678368
 21
586.7109156122407
 31
0.0
  0
LINE
  5
1A5
330
1F
100
AcDbEntity
  8
LAY-10
  6
CONTINUOUS
 62
     7
100
AcDbLine
 10
565.5366072321463
 20
583.2890843878217
 30
0.0
 11
574.4633927678101
 21
588.4429664198253
 31
0.0
  0
CIRCLE
  5
1A6
330
1F
100
AcDbEntity
  8
LAY-10
  6
CONTINUOUS
 62
     7
100
AcDbCircle
 10
570.500000000006
 20
584.9999999999894
 30
0.0
 40
5.25
  0
LINE
  5
1A7
330
1F
100
AcDbEntity
  8
LAY-10
  6
CONTINUOUS
 62
     7
100
AcDbLine
 10
355.5366072321436
 20
581.55703358022
 30
0.0
 11
364.4633927678368
 21
586.7109156122407
 31
0.0
  0
LINE
  5
1A8
330
1F
100
AcDbEntity
  8
LAY-10
  6
CONTINUOUS
 62
     7
100
AcDbLine
 10
354.5366072321463
 20
583.2890843878217
 30
0.0
 11
363.4633927678101
 21
588.4429664198253
 31
0.0
  0
CIRCLE
  5
1A9
330
1F
100
AcDbEntity
  8
LAY-10
  6
CONTINUOUS
 62
     7
100
AcDbCircle
 10
359.500000000006
 20
584.9999999999894
 30
0.0
 40
5.25
  0
LINE
  5
1AA
330
1F
100
AcDbEntity
  8
LAY-10
  6
CONTINUOUS
 62
     7
100
AcDbLine
 10
461.0000000000097
 20
696.0086947161079
 30
0.0
 11
461.0000000000098
 21
693.4262422110011
 31
0.0
  0
LINE
  5
1AB
330
1F
100
AcDbEntity
  8
LAY-10
  6
CONTINUOUS
 62
     7
100
AcDbLine
 10
460.6000000000137
 20
695.5739669488098
 30
0.0
 11
460.6000000000137
 21
693.4107466997564
 31
0.0
  0
LINE
  5
1AC
330
1F
100
AcDbEntity
  8
LAY-10
  6
CONTINUOUS
 62
     7
100
AcDbLine
 10
469.0000000000098
 20
696.0086947161079
 30
0.0
 11
469.0000000000098
 21
693.4262422110011
 31
0.0
  0
LINE
  5
1AD
330
1F
100
AcDbEntity
  8
LAY-10
  6
CONTINUOUS
 62
     7
100
AcDbLine
 10
469.4000000000057
 20
695.5739669488098
 30
0.0
 11
469.4000000000057
 21
693.4107466997564
 31
0.0
  0
LINE
  5
1AE
330
1F
100
AcDbEntity
  8
LAY-10
  6
CONTINUOUS
 62
     7
100
AcDbLine
 10
356.6660256429322
 20
578.9999999999891
 30
0.0
 11
354.0814248983771
 21
578.9999999999891
 31
0.0
  0
LINE
  5
1AF
330
1F
100
AcDbEntity
  8
LAY-10
  6
CONTINUOUS
 62
     7
100
AcDbLine
 10
356.6903917330559
 20
578.575145366696
 30
0.0
 11
354.5251910626784
 21
578.575145366696
 31
0.0
  0
LINE
  5
1B0
330
1F
100
AcDbEntity
  8
LAY-10
  6
CONTINUOUS
 62
     7
100
AcDbLine
 10
356.6903917330554
 20
591.4248546332825
 30
0.0
 11
354.5251910626782
 21
591.4248546332825
 31
0.0
  0
LINE
  5
1B1
330
1F
100
AcDbEntity
  8
LAY-10
  6
CONTINUOUS
 62
     7
100
AcDbLine
 10
356.6660256429317
 20
590.9999999999891
 30
0.0
 11
354.0814248983771
 21
590.9999999999891
 31
0.0
  0
LINE
  5
1B2
330
1F
100
AcDbEntity
  8
LAY-10
  6
CONTINUOUS
 62
     7
100
AcDbLine
 10
461.0000000000097
 20
473.9913052838709
 30
0.0
 11
461.0000000000097
 21
476.5737577889865
 31
0.0
  0
LINE
  5
1B3
330
1F
100
AcDbEntity
  8
LAY-10
  6
CONTINUOUS
 62
     7
100
AcDbLine
 10
460.6000000000137
 20
474.4260330511694
 30
0.0
 11
460.6000000000137
 21
476.5892533002313
 31
0.0
  0
LINE
  5
1B4
330
1F
100
AcDbEntity
  8
LAY-10
  6
CONTINUOUS
 62
     7
100
AcDbLine
 10
469.4000000000057
 20
474.4260330511694
 30
0.0
 11
469.4000000000057
 21
476.5892533002313
 31
0.0
  0
LINE
  5
1B5
330
1F
100
AcDbEntity
  8
LAY-10
  6
CONTINUOUS
 62
     7
100
AcDbLine
 10
469.0000000000098
 20
473.9913052838709
 30
0.0
 11
469.0000000000098
 21
476.5737577889865
 31
0.0
  0
LINE
  5
1B6
330
1F
100
AcDbEntity
  8
LAY-10
  6
CONTINUOUS
 62
     7
100
AcDbLine
 10
573.3096082669638
 20
578.575145366696
 30
0.0
 11
575.474808937341
 21
578.575145366696
 31
0.0
  0
LINE
  5
1B7
330
1F
100
AcDbEntity
  8
LAY-10
  6
CONTINUOUS
 62
     7
100
AcDbLine
 10
573.3339743570875
 20
578.9999999999891
 30
0.0
 11
575.9185751016422
 21
578.9999999999891
 31
0.0
  0
LINE
  5
1B8
330
1F
100
AcDbEntity
  8
LAY-10
  6
CONTINUOUS
 62
     7
100
AcDbLine
 10
573.333974357088
 20
590.9999999999891
 30
0.0
 11
575.9185751016422
 21
590.9999999999891
 31
0.0
  0
LINE
  5
1B9
330
1F
100
AcDbEntity
  8
LAY-10
  6
CONTINUOUS
 62
     7
100
AcDbLine
 10
573.3096082669642
 20
591.4248546332825
 30
0.0
 11
575.4748089373411
 21
591.4248546332825
 31
0.0
  0
LINE
  5
1BA
330
1F
100
AcDbEntity
  8
LAY-10
  6
CONTINUOUS
 62
     7
100
AcDbLine
 10
534.5000000000099
 20
181.9999999999794
 30
0.0
 11
395.5000000000094
 21
181.9999999999792
 31
0.0
  0
LINE
  5
1BB
330
1F
100
AcDbEntity
  8
LAY-10
  6
CONTINUOUS
 62
     7
100
AcDbLine
 10
332.5000000000098
 20
244.9999999999794
 30
0.0
 11
333.5000000000097
 21
251.9999999999795
 31
0.0
  0
LINE
  5
1BC
330
1F
100
AcDbEntity
  8
LAY-10
  6
CONTINUOUS
 62
     7
100
AcDbLine
 10
348.5000000000099
 20
249.3205080756784
 30
0.0
 11
338.5000000000481
 21
251.9999999999795
 31
0.0
  0
LINE
  5
1BD
330
1F
100
AcDbEntity
  8
LAY-10
  6
CONTINUOUS
 62
     7
100
AcDbLine
 10
339.1847759934351
 20
247.6754101039143
 30
0.0
 11
348.4676460586883
 21
245.1880725664867
 31
0.0
  0
LINE
  5
1BE
330
1F
100
AcDbEntity
  8
LAY-10
  6
CONTINUOUS
 62
     7
100
AcDbLine
 10
336.6872389159074
 20
246.0264011638109
 30
0.0
 11
336.5406101782172
 21
244.9999999999794
 31
0.0
  0
ARC
  5
1BF
330
1F
100
AcDbEntity
  8
LAY-10
  6
CONTINUOUS
 62
     7
100
AcDbCircle
 10
338.66713790323
 20
245.7435584513364
 30
0.0
 40
2.0
100
AcDbArc
 50
74.99999999999926
 51
171.8698976458487
  0
LINE
  5
1C0
330
1F
100
AcDbEntity
  8
LAY-10
  6
CONTINUOUS
 62
     7
100
AcDbLine
 10
348.5000000000099
 20
249.3205080756784
 30
0.0
 11
348.9091416886702
 21
250.4167999263398
 31
0.0
  0
LINE
  5
1C1
330
1F
100
AcDbEntity
  8
LAY-10
  6
CONTINUOUS
 62
     7
100
AcDbLine
 10
356.2364536019867
 20
226.9999999999793
 30
0.0
 11
368.0000000000113
 21
226.9999999999793
 31
0.0
  0
LINE
  5
1C2
330
1F
100
AcDbEntity
  8
LAY-10
  6
CONTINUOUS
 62
     7
100
AcDbLine
 10
357.0000000000112
 20
237.4999999999813
 30
0.0
 11
362.0000000000107
 21
237.4999999999813
 31
0.0
  0
LINE
  5
1C3
330
1F
100
AcDbEntity
  8
LAY-10
  6
CONTINUOUS
 62
     7
100
AcDbLine
 10
357.0000000000112
 20
236.499999999982
 30
0.0
 11
362.0000000000107
 21
236.499999999982
 31
0.0
  0
LINE
  5
1C4
330
1F
100
AcDbEntity
  8
LAY-10
  6
CONTINUOUS
 62
     7
100
AcDbLine
 10
359.5000000000098
 20
235.0566243270084
 30
0.0
 11
357.0000000000107
 21
236.499999999982
 31
0.0
  0
LINE
  5
1C5
330
1F
100
AcDbEntity
  8
LAY-10
  6
CONTINUOUS
 62
     7
100
AcDbLine
 10
359.5000000000099
 20
235.0566243270085
 30
0.0
 11
362.0000000000089
 21
236.499999999982
 31
0.0
  0
ARC
  5
1C6
330
1F
100
AcDbEntity
  8
LAY-10
  6
CONTINUOUS
 62
     7
100
AcDbCircle
 10
347.9500079684834
 20
243.2562209139084
 30
0.0
 40
2.0
100
AcDbArc
 50
2.999999999997486
 51
75.0000000000044
  0
LINE
  5
1C7
330
1F
100
AcDbEntity
  8
LAY-10
  6
CONTINUOUS
 62
     7
100
AcDbLine
 10
597.50000000001
 20
244.9999999999794
 30
0.0
 11
596.50000000001
 21
251.9999999999795
 31
0.0
  0
LINE
  5
1C8
330
1F
100
AcDbEntity
  8
LAY-10
  6
CONTINUOUS
 62
     7
100
AcDbLine
 10
581.5000000000094
 20
249.3205080756784
 30
0.0
 11
581.0908583113494
 21
250.4167999263398
 31
0.0
  0
LINE
  5
1C9
330
1F
100
AcDbEntity
  8
LAY-10
  6
CONTINUOUS
 62
     7
100
AcDbLine
 10
581.5000000000094
 20
249.3205080756784
 30
0.0
 11
591.4999999999712
 21
251.9999999999795
 31
0.0
  0
LINE
  5
1CA
330
1F
100
AcDbEntity
  8
LAY-10
  6
CONTINUOUS
 62
     7
100
AcDbLine
 10
573.5015075016142
 20
226.9999999999793
 30
0.0
 11
566.0473507941084
 21
226.9999999999793
 31
0.0
  0
LINE
  5
1CB
330
1F
100
AcDbEntity
  8
LAY-10
  6
CONTINUOUS
 62
     7
100
AcDbLine
 10
596.5000000000103
 20
236.9999999999795
 30
0.0
 11
597.50000000001
 21
244.9999999999794
 31
0.0
  0
LINE
  5
1CC
330
1F
100
AcDbEntity
  8
LAY-10
  6
CONTINUOUS
 62
     7
100
AcDbLine
 10
579.7193726947337
 20
236.9999999999795
 30
0.0
 11
596.5000000000103
 21
236.9999999999795
 31
0.0
  0
ARC
  5
1CD
330
1F
100
AcDbEntity
  8
LAY-10
  6
CONTINUOUS
 62
     7
100
AcDbCircle
 10
351.1898627214292
 20
249.5656232491235
 30
0.0
 40
2.434376750855009
100
AcDbArc
 50
2.99999999999359
 51
159.5341701760824
  0
ARC
  5
1CE
330
1F
100
AcDbEntity
  8
LAY-10
  6
CONTINUOUS
 62
     7
100
AcDbCircle
 10
353.1467959091116
 20
249.6194335166158
 30
0.0
 40
2.380566483363538
100
AcDbArc
 50
5.520138584776325
 51
90.00000000000004
  0
LINE
  5
1CF
330
1F
100
AcDbEntity
  8
LAY-10
  6
CONTINUOUS
 62
     7
100
AcDbLine
 10
355.4284729200803
 20
250.2984377870966
 30
0.0
 11
355.6236327117442
 21
250.7088441618827
 31
0.0
  0
ARC
  5
1D0
330
1F
100
AcDbEntity
  8
LAY-10
  6
CONTINUOUS
 62
     7
100
AcDbCircle
 10
426.9572454745039
 20
251.3378919103788
 30
0.0
 40
0.6621080895997691
100
AcDbArc
 50
13.98275497176219
 51
90.00000000000004
  0
LINE
  5
1D1
330
1F
100
AcDbEntity
  8
LAY-10
  6
CONTINUOUS
 62
     7
100
AcDbLine
 10
355.5276594053704
 20
249.7311263856193
 30
0.0
 11
355.5163223929866
 21
249.8484335688611
 31
0.0
  0
LINE
  5
1D2
330
1F
100
AcDbEntity
  8
LAY-10
  6
CONTINUOUS
 62
     7
100
AcDbLine
 10
389.3999382895167
 20
250.3908330880762
 30
0.0
 11
389.8334167785083
 21
251.2164982551491
 31
0.0
  0
ARC
  5
1D3
330
1F
100
AcDbEntity
  8
LAY-10
  6
CONTINUOUS
 62
     7
100
AcDbCircle
 10
387.6291462584113
 20
251.3205080756783
 30
0.0
 40
2.0
100
AcDbArc
 50
270.0000000000001
 51
332.3002945646438
  0
LINE
  5
1D4
330
1F
100
AcDbEntity
  8
LAY-10
  6
CONTINUOUS
 62
     7
100
AcDbLine
 10
428.1120985992274
 20
249.4402579265134
 30
0.0
 11
427.5997343059879
 21
251.4978769838474
 31
0.0
  0
ARC
  5
1D5
330
1F
100
AcDbEntity
  8
LAY-10
  6
CONTINUOUS
 62
     7
100
AcDbCircle
 10
503.0427545255156
 20
251.3378919103788
 30
0.0
 40
0.6621080895997691
100
AcDbArc
 50
90.00000000000004
 51
166.0172450282379
  0
LINE
  5
1D6
330
1F
100
AcDbEntity
  8
LAY-10
  6
CONTINUOUS
 62
     7
100
AcDbLine
 10
501.887901400792
 20
249.4402579265134
 30
0.0
 11
502.4002656940314
 21
251.4978769838474
 31
0.0
  0
LINE
  5
1D7
330
1F
100
AcDbEntity
  8
LAY-10
  6
CONTINUOUS
 62
     7
100
AcDbLine
 10
540.600061710503
 20
250.3908330880762
 30
0.0
 11
540.1665832215112
 21
251.2164982551491
 31
0.0
  0
ARC
  5
1D8
330
1F
100
AcDbEntity
  8
LAY-10
  6
CONTINUOUS
 62
     7
100
AcDbCircle
 10
542.3708537416082
 20
251.3205080756783
 30
0.0
 40
2.0
100
AcDbArc
 50
207.6997054353557
 51
270.0000000000001
  0
ARC
  5
1D9
330
1F
100
AcDbEntity
  8
LAY-10
  6
CONTINUOUS
 62
     7
100
AcDbCircle
 10
578.8101372785907
 20
249.5656232491235
 30
0.0
 40
2.434376750855009
100
AcDbArc
 50
20.46582982392663
 51
177.0000000000065
  0
ARC
  5
1DA
330
1F
100
AcDbEntity
  8
LAY-10
  6
CONTINUOUS
 62
     7
100
AcDbCircle
 10
576.8532040909083
 20
249.6194335166158
 30
0.0
 40
2.380566483363538
100
AcDbArc
 50
90.00000000000004
 51
174.4798614152237
  0
LINE
  5
1DB
330
1F
100
AcDbEntity
  8
LAY-10
  6
CONTINUOUS
 62
     7
100
AcDbLine
 10
574.5715270799391
 20
250.2984377870968
 30
0.0
 11
574.3763672882754
 21
250.7088441618827
 31
0.0
  0
LINE
  5
1DC
330
1F
100
AcDbEntity
  8
LAY-10
  6
CONTINUOUS
 62
     7
100
AcDbLine
 10
574.4723405946495
 20
249.7311263856193
 30
0.0
 11
574.4836776070331
 21
249.8484335688611
 31
0.0
  0
LINE
  5
1DD
330
1F
100
AcDbEntity
  8
LAY-10
  6
CONTINUOUS
 62
     7
100
AcDbLine
 10
576.0807377657233
 20
243.9999999999795
 30
0.0
 11
576.3790967564598
 21
249.6930286842352
 31
0.0
  0
LINE
  5
1DE
330
1F
100
AcDbEntity
  8
LAY-10
  6
CONTINUOUS
 62
     7
100
AcDbLine
 10
579.7193726947337
 20
236.9999999999795
 30
0.0
 11
579.4932847101414
 21
232.6859842625217
 31
0.0
  0
ARC
  5
1DF
330
1F
100
AcDbEntity
  8
LAY-10
  6
CONTINUOUS
 62
     7
100
AcDbCircle
 10
573.5015075016142
 20
232.9999999999793
 30
0.0
 40
6.000000000000004
100
AcDbArc
 50
270.0000000000001
 51
357.000000000001
  0
LINE
  5
1E0
330
1F
100
AcDbEntity
  8
LAY-10
  6
CONTINUOUS
 62
     7
100
AcDbLine
 10
353.9192622342963
 20
243.9999999999795
 30
0.0
 11
353.6209032435599
 21
249.6930286842352
 31
0.0
  0
ARC
  5
1E1
330
1F
100
AcDbEntity
  8
LAY-10
  6
CONTINUOUS
 62
     7
100
AcDbCircle
 10
356.4984924984053
 20
232.9999999999793
 30
0.0
 40
6.000000000000004
100
AcDbArc
 50
182.9999999999991
 51
270.0000000000001
  0
LINE
  5
1E2
330
1F
100
AcDbEntity
  8
LAY-10
  6
CONTINUOUS
 62
     7
100
AcDbLine
 10
349.9472670379961
 20
243.3608928263945
 30
0.0
 11
350.5067152898779
 21
232.6859842625217
 31
0.0
  0
ARC
  5
1E3
330
1F
100
AcDbEntity
  8
LAY-10
  6
CONTINUOUS
 62
     7
100
AcDbCircle
 10
561.340733536614
 20
221.999999999979
 30
0.0
 40
1.0
100
AcDbArc
 50
182.9999999999925
 51
270.0000000000001
  0
ARC
  5
1E4
330
1F
100
AcDbEntity
  8
LAY-10
  6
CONTINUOUS
 62
     7
100
AcDbCircle
 10
563.8349749849806
 20
221.999999999979
 30
0.0
 40
1.0
100
AcDbArc
 50
270.0000000000001
 51
357.0000000000076
  0
LINE
  5
1E5
330
1F
100
AcDbEntity
  8
LAY-10
  6
CONTINUOUS
 62
     7
100
AcDbLine
 10
560.3421040018596
 20
221.9476640437362
 30
0.0
 11
560.1565908007035
 21
225.4874667923744
 31
0.0
  0
LINE
  5
1E6
330
1F
100
AcDbEntity
  8
LAY-10
  6
CONTINUOUS
 62
     7
100
AcDbLine
 10
564.8336045197351
 20
221.9476640437362
 30
0.0
 11
565.0487212593539
 21
226.0523359562223
 31
0.0
  0
ARC
  5
1E7
330
1F
100
AcDbEntity
  8
LAY-10
  6
CONTINUOUS
 62
     7
100
AcDbCircle
 10
566.0473507941084
 20
225.9999999999793
 30
0.0
 40
1.0
100
AcDbArc
 50
90.00000000000004
 51
176.9999999999979
  0
ARC
  5
1E8
330
1F
100
AcDbEntity
  8
LAY-10
  6
CONTINUOUS
 62
     7
100
AcDbCircle
 10
559.1579612659491
 20
225.4351308361315
 30
0.0
 40
1.0
100
AcDbArc
 50
3.000000000002184
 51
100.885527054672
  0
LINE
  5
1E9
330
1F
100
AcDbEntity
  8
LAY-10
  6
CONTINUOUS
 62
     7
100
AcDbLine
 10
356.5000000000098
 20
237.999999999982
 30
0.0
 11
362.5000000000096
 21
237.999999999982
 31
0.0
  0
ARC
  5
1EA
330
1F
100
AcDbEntity
  8
LAY-10
  6
CONTINUOUS
 62
     7
100
AcDbCircle
 10
572.332681442227
 20
249.737013974914
 30
0.0
 40
2.262986025064351
100
AcDbArc
 50
25.43240397931869
 51
179.2961378255333
  0
LINE
  5
1EB
330
1F
100
AcDbEntity
  8
LAY-10
  6
CONTINUOUS
 62
     7
100
AcDbLine
 10
332.5000000000098
 20
244.9999999999794
 30
0.0
 11
348.9294131445885
 21
244.9999999999794
 31
0.0
  0
LINE
  5
1EC
330
1F
100
AcDbEntity
  8
LAY-10
  6
CONTINUOUS
 62
     7
100
AcDbLine
 10
573.0000000000097
 20
171.9999999999797
 30
0.0
 11
357.0000000000097
 21
171.9999999999797
 31
0.0
  0
LINE
  5
1ED
330
1F
100
AcDbEntity
  8
LAY-10
  6
CONTINUOUS
 62
     7
100
AcDbLine
 10
357.0000000000097
 20
226.9999999999793
 30
0.0
 11
357.0000000000097
 21
171.9999999999797
 31
0.0
  0
LINE
  5
1EE
330
1F
100
AcDbEntity
  8
LAY-10
  6
CONTINUOUS
 62
     7
100
AcDbLine
 10
364.0000000000097
 20
226.9999999999793
 30
0.0
 11
364.0000000000097
 21
171.9999999999797
 31
0.0
  0
LINE
  5
1EF
330
1F
100
AcDbEntity
  8
LAY-10
  6
CONTINUOUS
 62
     7
100
AcDbLine
 10
566.0000000000098
 20
226.9999999999793
 30
0.0
 11
566.0000000000098
 21
171.9999999999797
 31
0.0
  0
LINE
  5
1F0
330
1F
100
AcDbEntity
  8
LAY-10
  6
CONTINUOUS
 62
     7
100
AcDbLine
 10
573.0000000000097
 20
226.9999999999793
 30
0.0
 11
573.0000000000097
 21
171.9999999999797
 31
0.0
  0
ARC
  5
1F1
330
1F
100
AcDbEntity
  8
LAY-10
  6
CONTINUOUS
 62
     7
100
AcDbCircle
 10
357.6673185577923
 20
249.737013974914
 30
0.0
 40
2.262986025064351
100
AcDbArc
 50
125.152126167587
 51
154.5675960206813
  0
LINE
  5
1F2
330
1F
100
AcDbEntity
  8
LAY-10
  6
CONTINUOUS
 62
     7
100
AcDbLine
 10
376.0653511059501
 20
251.9999999999795
 30
0.0
 11
377.6640743086368
 21
251.9999999999795
 31
0.0
  0
LINE
  5
1F3
330
1F
100
AcDbEntity
  8
LAY-10
  6
CONTINUOUS
 62
     7
100
AcDbLine
 10
386.35885615594
 20
249.3205080756784
 30
0.0
 11
387.6291462584113
 21
249.3205080756784
 31
0.0
  0
ARC
  5
1F4
330
1F
100
AcDbEntity
  8
LAY-10
  6
CONTINUOUS
 62
     7
100
AcDbCircle
 10
391.1296759801826
 20
250.5359554606953
 30
0.0
 40
1.464044539288239
100
AcDbArc
 50
59.08399541132766
 51
152.3002945646525
  0
LINE
  5
1F5
330
1F
100
AcDbEntity
  8
LAY-10
  6
CONTINUOUS
 62
     7
100
AcDbLine
 10
386.6031211378732
 20
251.9999999999795
 30
0.0
 11
391.8973643365114
 21
251.9999999999795
 31
0.0
  0
LINE
  5
1F6
330
1F
100
AcDbEntity
  8
LAY-10
  6
CONTINUOUS
 62
     7
100
AcDbLine
 10
402.4835089072844
 20
251.9999999999795
 30
0.0
 11
411.1124781770352
 21
251.9999999999795
 31
0.0
  0
ARC
  5
1F7
330
1F
100
AcDbEntity
  8
LAY-10
  6
CONTINUOUS
 62
     7
100
AcDbCircle
 10
430.0528355924025
 20
249.9235176116956
 30
0.0
 40
2.0
100
AcDbArc
 50
193.9827549717665
 51
207.5006583864515
  0
LINE
  5
1F8
330
1F
100
AcDbEntity
  8
LAY-10
  6
CONTINUOUS
 62
     7
100
AcDbLine
 10
428.1419173100671
 20
249.3205080756784
 30
0.0
 11
433.9269013908375
 21
249.3205080756784
 31
0.0
  0
LINE
  5
1F9
330
1F
100
AcDbEntity
  8
LAY-10
  6
CONTINUOUS
 62
     7
100
AcDbLine
 10
422.6242922312773
 20
251.9999999999795
 30
0.0
 11
433.9999375764546
 21
251.9999999999795
 31
0.0
  0
LINE
  5
1FA
330
1F
100
AcDbEntity
  8
LAY-10
  6
CONTINUOUS
 62
     7
100
AcDbLine
 10
445.5985683380473
 20
251.9999999999795
 30
0.0
 11
459.0000000000139
 21
251.9999999999795
 31
0.0
  0
ARC
  5
1FB
330
1F
100
AcDbEntity
  8
LAY-10
  6
CONTINUOUS
 62
     7
100
AcDbCircle
 10
499.947164407617
 20
249.9235176116956
 30
0.0
 40
2.0
100
AcDbArc
 50
332.4993416135479
 51
346.0172450282332
  0
LINE
  5
1FC
330
1F
100
AcDbEntity
  8
LAY-10
  6
CONTINUOUS
 62
     7
100
AcDbLine
 10
501.8580826899524
 20
249.3205080756784
 30
0.0
 11
496.0730986091822
 21
249.3205080756784
 31
0.0
  0
LINE
  5
1FD
330
1F
100
AcDbEntity
  8
LAY-10
  6
CONTINUOUS
 62
     7
100
AcDbLine
 10
471.0000000000057
 20
251.9999999999795
 30
0.0
 11
484.4014316619724
 21
251.9999999999795
 31
0.0
  0
LINE
  5
1FE
330
1F
100
AcDbEntity
  8
LAY-10
  6
CONTINUOUS
 62
     7
100
AcDbLine
 10
496.0000624235651
 20
251.9999999999795
 30
0.0
 11
507.3757077687423
 21
251.9999999999795
 31
0.0
  0
LINE
  5
1FF
330
1F
100
AcDbEntity
  8
LAY-10
  6
CONTINUOUS
 62
     7
100
AcDbLine
 10
518.8875218229845
 20
251.9999999999795
 30
0.0
 11
527.5164910927351
 21
251.9999999999795
 31
0.0
  0
ARC
  5
200
330
1F
100
AcDbEntity
  8
LAY-10
  6
CONTINUOUS
 62
     7
100
AcDbCircle
 10
538.870324019837
 20
250.5359554606953
 30
0.0
 40
1.464044539288239
100
AcDbArc
 50
27.69970543534973
 51
120.9160045886663
  0
LINE
  5
201
330
1F
100
AcDbEntity
  8
LAY-10
  6
CONTINUOUS
 62
     7
100
AcDbLine
 10
543.6411438440797
 20
249.3205080756784
 30
0.0
 11
542.3708537416082
 21
249.3205080756784
 31
0.0
  0
LINE
  5
202
330
1F
100
AcDbEntity
  8
LAY-10
  6
CONTINUOUS
 62
     7
100
AcDbLine
 10
538.1026356635082
 20
251.9999999999795
 30
0.0
 11
543.3968788621464
 21
251.9999999999795
 31
0.0
  0
LINE
  5
203
330
1F
100
AcDbEntity
  8
LAY-10
  6
CONTINUOUS
 62
     7
100
AcDbLine
 10
552.335925691383
 20
251.9999999999795
 30
0.0
 11
553.9346488940697
 21
251.9999999999795
 31
0.0
  0
LINE
  5
204
330
1F
100
AcDbEntity
  8
LAY-10
  6
CONTINUOUS
 62
     7
100
AcDbLine
 10
562.5675049391501
 20
251.9999999999795
 30
0.0
 11
596.50000000001
 21
251.9999999999795
 31
0.0
  0
ARC
  5
205
330
1F
100
AcDbEntity
  8
LAY-10
  6
CONTINUOUS
 62
     7
100
AcDbCircle
 10
572.0635594736666
 20
249.9235176116956
 30
0.0
 40
2.0
100
AcDbArc
 50
184.5513255053862
 51
207.5006583864508
  0
ARC
  5
206
330
1F
100
AcDbEntity
  8
LAY-10
  6
CONTINUOUS
 62
     7
100
AcDbCircle
 10
572.4816156975003
 20
249.9235176116956
 30
0.0
 40
2.0
100
AcDbArc
 50
299.1854187055382
 51
354.4798614152244
  0
ARC
  5
207
330
1F
100
AcDbEntity
  8
LAY-10
  6
CONTINUOUS
 62
     7
100
AcDbCircle
 10
357.7500000000016
 20
251.8857492993793
 30
0.0
 40
3.500000000000002
100
AcDbArc
 50
128.6821874534944
 51
178.1293582694076
  0
ARC
  5
208
330
1F
100
AcDbEntity
  8
LAY-10
  6
CONTINUOUS
 62
     7
100
AcDbCircle
 10
361.2500000000015
 20
251.8857492993793
 30
0.0
 40
3.500000000000002
100
AcDbArc
 50
1.870641730603566
 51
51.31781254650249
  0
LINE
  5
209
330
1F
100
AcDbEntity
  8
LAY-10
  6
CONTINUOUS
 62
     7
100
AcDbLine
 10
360.1000000000016
 20
255.9713634880795
 30
0.0
 11
360.1000000000016
 21
253.4999999999795
 31
0.0
  0
LINE
  5
20A
330
1F
100
AcDbEntity
  8
LAY-10
  6
CONTINUOUS
 62
     7
100
AcDbLine
 10
360.1000000000016
 20
253.4999999999795
 30
0.0
 11
358.9000000000016
 21
253.4999999999795
 31
0.0
  0
LINE
  5
20B
330
1F
100
AcDbEntity
  8
LAY-10
  6
CONTINUOUS
 62
     7
100
AcDbLine
 10
358.9000000000016
 20
255.9713634880795
 30
0.0
 11
358.9000000000016
 21
253.4999999999795
 31
0.0
  0
ARC
  5
20C
330
1F
100
AcDbEntity
  8
LAY-10
  6
CONTINUOUS
 62
     7
100
AcDbCircle
 10
359.5000000000014
 20
249.6999999999796
 30
0.0
 40
6.300000000000002
100
AcDbArc
 50
51.317812546497
 51
84.53497620009915
  0
ARC
  5
20D
330
1F
100
AcDbEntity
  8
LAY-10
  6
CONTINUOUS
 62
     7
100
AcDbCircle
 10
359.5000000000014
 20
249.6999999999796
 30
0.0
 40
6.300000000000002
100
AcDbArc
 50
95.46502379991026
 51
128.6821874534945
  0
LINE
  5
20E
330
1F
100
AcDbEntity
  8
LAY-10
  6
CONTINUOUS
 62
     7
100
AcDbLine
 10
357.0000000000016
 20
239.9999999999816
 30
0.0
 11
356.5000000000014
 21
240.4999999999816
 31
0.0
  0
LINE
  5
20F
330
1F
100
AcDbEntity
  8
LAY-10
  6
CONTINUOUS
 62
     7
100
AcDbLine
 10
362.0000000000015
 20
239.9999999999816
 30
0.0
 11
362.5000000000014
 21
240.4999999999816
 31
0.0
  0
LINE
  5
210
330
1F
100
AcDbEntity
  8
LAY-10
  6
CONTINUOUS
 62
     7
100
AcDbLine
 10
356.5000000000014
 20
251.9999999999795
 30
0.0
 11
356.5000000000014
 21
240.4999999999816
 31
0.0
  0
LINE
  5
211
330
1F
100
AcDbEntity
  8
LAY-10
  6
CONTINUOUS
 62
     7
100
AcDbLine
 10
357.0000000000016
 20
239.9999999999816
 30
0.0
 11
362.0000000000015
 21
239.9999999999816
 31
0.0
  0
LINE
  5
212
330
1F
100
AcDbEntity
  8
LAY-10
  6
CONTINUOUS
 62
     7
100
AcDbLine
 10
362.5000000000014
 20
251.9999999999795
 30
0.0
 11
362.5000000000014
 21
240.4999999999816
 31
0.0
  0
LINE
  5
213
330
1F
100
AcDbEntity
  8
LAY-10
  6
CONTINUOUS
 62
     7
100
AcDbLine
 10
362.5000000000014
 20
240.4999999999816
 30
0.0
 11
356.5000000000014
 21
240.4999999999816
 31
0.0
  0
ARC
  5
214
330
1F
100
AcDbEntity
  8
LAY-10
  6
CONTINUOUS
 62
     7
100
AcDbCircle
 10
357.5183843025195
 20
249.9235176116956
 30
0.0
 40
2.0
100
AcDbArc
 50
185.5201385847758
 51
239.3899656859809
  0
LINE
  5
215
330
1F
100
AcDbEntity
  8
LAY-10
  6
CONTINUOUS
 62
     7
100
AcDbLine
 10
357.0000000000112
 20
239.999999999979
 30
0.0
 11
357.0000000000112
 21
236.499999999982
 31
0.0
  0
LINE
  5
216
330
1F
100
AcDbEntity
  8
LAY-10
  6
CONTINUOUS
 62
     7
100
AcDbLine
 10
362.0000000000107
 20
239.999999999979
 30
0.0
 11
362.0000000000107
 21
236.4999999999834
 31
0.0
  0
LINE
  5
217
330
1F
100
AcDbEntity
  8
LAY-10
  6
CONTINUOUS
 62
     7
100
AcDbLine
 10
353.9192622342905
 20
243.9999999999795
 30
0.0
 11
357.0000000000016
 21
243.9999999999795
 31
0.0
  0
LINE
  5
218
330
1F
100
AcDbEntity
  8
LAY-10
  6
CONTINUOUS
 62
     7
100
AcDbLine
 10
576.080737765729
 20
243.9999999999795
 30
0.0
 11
362.0000000000015
 21
243.9999999999795
 31
0.0
  0
LINE
  5
219
330
1F
100
AcDbEntity
  8
LAY-10
  6
CONTINUOUS
 62
     7
100
AcDbLine
 10
333.5000000000097
 20
251.9999999999795
 30
0.0
 11
367.4324950608696
 21
251.9999999999795
 31
0.0
  0
LINE
  5
21A
330
1F
100
AcDbEntity
  8
LAY-10
  6
CONTINUOUS
 62
     7
100
AcDbLine
 10
591.5000000000024
 20
244.9999999999857
 30
0.0
 11
591.5000000000024
 21
245.9999999999839
 31
0.0
  0
LINE
  5
21B
330
1F
100
AcDbEntity
  8
LAY-10
  6
CONTINUOUS
 62
     7
100
AcDbLine
 10
586.5000000000031
 20
244.9999999999857
 30
0.0
 11
586.5000000000031
 21
245.9999999999851
 31
0.0
  0
LINE
  5
21C
330
1F
100
AcDbEntity
  8
LAY-10
  6
CONTINUOUS
 62
     7
100
AcDbLine
 10
586.5000000000031
 20
245.9999999999851
 30
0.0
 11
591.5000000000024
 21
245.9999999999851
 31
0.0
  0
LINE
  5
21D
330
1F
100
AcDbEntity
  8
LAY-10
  6
CONTINUOUS
 62
     7
100
AcDbLine
 10
585.9999999999999
 20
244.4999999999851
 30
0.0
 11
591.9999999999999
 21
244.4999999999851
 31
0.0
  0
LINE
  5
21E
330
1F
100
AcDbEntity
  8
LAY-10
  6
CONTINUOUS
 62
     7
100
AcDbLine
 10
586.4999999999999
 20
244.9999999999857
 30
0.0
 11
591.4999999999999
 21
244.9999999999857
 31
0.0
  0
LINE
  5
21F
330
1F
100
AcDbEntity
  8
LAY-10
  6
CONTINUOUS
 62
     7
100
AcDbLine
 10
589.0000000000001
 20
247.4433756729607
 30
0.0
 11
591.500000000001
 21
245.9999999999861
 31
0.0
  0
LINE
  5
220
330
1F
100
AcDbEntity
  8
LAY-10
  6
CONTINUOUS
 62
     7
100
AcDbLine
 10
588.9999999999997
 20
247.4433756729605
 30
0.0
 11
586.4999999999992
 21
245.9999999999861
 31
0.0
  0
LINE
  5
221
330
1F
100
AcDbEntity
  8
LAY-10
  6
CONTINUOUS
 62
     7
100
AcDbLine
 10
603.4999999999994
 20
214.9999999999943
 30
0.0
 11
603.4999999999994
 21
219.9999999999942
 31
0.0
  0
LINE
  5
222
330
1F
100
AcDbEntity
  8
LAY-10
  6
CONTINUOUS
 62
     7
100
AcDbLine
 10
593.499999999999
 20
219.9999999999942
 30
0.0
 11
603.4999999999994
 21
219.9999999999942
 31
0.0
  0
ARC
  5
223
330
1F
100
AcDbEntity
  8
LAY-10
  6
CONTINUOUS
 62
     7
100
AcDbCircle
 10
593.499999999999
 20
221.9999999999943
 30
0.0
 40
2.0
100
AcDbArc
 50
180.0
 51
270.0000000000002
  0
LINE
  5
224
330
1F
100
AcDbEntity
  8
LAY-10
  6
CONTINUOUS
 62
     7
100
AcDbLine
 10
593.499999999999
 20
214.9999999999943
 30
0.0
 11
603.4999999999994
 21
214.9999999999943
 31
0.0
  0
ARC
  5
225
330
1F
100
AcDbEntity
  8
LAY-10
  6
CONTINUOUS
 62
     7
100
AcDbCircle
 10
593.499999999999
 20
221.9999999999943
 30
0.0
 40
7.000000000000004
100
AcDbArc
 50
180.0
 51
270.0000000000002
  0
LINE
  5
226
330
1F
100
AcDbEntity
  8
LAY-10
  6
CONTINUOUS
 62
     7
100
AcDbLine
 10
591.4999999999999
 20
221.9999999999899
 30
0.0
 11
591.4999999999999
 21
236.9999999999896
 31
0.0
  0
LINE
  5
227
330
1F
100
AcDbEntity
  8
LAY-10
  6
CONTINUOUS
 62
     7
100
AcDbLine
 10
586.4999999999999
 20
221.9999999999899
 30
0.0
 11
586.4999999999999
 21
236.9999999999896
 31
0.0
  0
LINE
  5
228
330
1F
100
AcDbEntity
  8
LAY-10
  6
CONTINUOUS
 62
     7
100
AcDbLine
 10
586.5000000000031
 20
242.9999999999945
 30
0.0
 11
591.5000000000024
 21
242.9999999999945
 31
0.0
  0
LINE
  5
229
330
1F
100
AcDbEntity
  8
LAY-10
  6
CONTINUOUS
 62
     7
100
AcDbLine
 10
586.0000000000017
 20
242.4999999999959
 30
0.0
 11
592.0000000000008
 21
242.4999999999959
 31
0.0
  0
LINE
  5
22A
330
1F
100
AcDbEntity
  8
LAY-10
  6
CONTINUOUS
 62
     7
100
AcDbLine
 10
591.5000000000024
 20
244.9999999999857
 30
0.0
 11
591.5000000000024
 21
242.9999999999945
 31
0.0
  0
LINE
  5
22B
330
1F
100
AcDbEntity
  8
LAY-10
  6
CONTINUOUS
 62
     7
100
AcDbLine
 10
586.5000000000031
 20
244.9999999999857
 30
0.0
 11
586.5000000000031
 21
242.9999999999945
 31
0.0
  0
LINE
  5
22C
330
1F
100
AcDbEntity
  8
LAY-10
  6
CONTINUOUS
 62
     7
100
AcDbLine
 10
591.9999999999999
 20
242.4999999999999
 30
0.0
 11
591.4999999999999
 21
242.9999999999899
 31
0.0
  0
LINE
  5
22D
330
1F
100
AcDbEntity
  8
LAY-10
  6
CONTINUOUS
 62
     7
100
AcDbLine
 10
586.4999999999999
 20
242.9999999999899
 30
0.0
 11
585.9999999999999
 21
242.4999999999999
 31
0.0
  0
LINE
  5
22E
330
1F
100
AcDbEntity
  8
LAY-10
  6
CONTINUOUS
 62
     7
100
AcDbLine
 10
585.9999999999999
 20
242.4999999999999
 30
0.0
 11
585.9999999999999
 21
236.9999999999899
 31
0.0
  0
LINE
  5
22F
330
1F
100
AcDbEntity
  8
LAY-10
  6
CONTINUOUS
 62
     7
100
AcDbLine
 10
591.9999999999999
 20
242.4999999999999
 30
0.0
 11
591.9999999999999
 21
236.9999999999899
 31
0.0
  0
LINE
  5
230
330
1F
100
AcDbEntity
  8
LAY-10
  6
CONTINUOUS
 62
     7
100
AcDbLine
 10
397.9885161724048
 20
222.3812090541078
 30
0.0
 11
399.5028115119346
 21
181.9999999999794
 31
0.0
  0
ARC
  5
231
330
1F
100
AcDbEntity
  8
LAY-10
  6
CONTINUOUS
 62
     7
100
AcDbCircle
 10
392.9920280938588
 20
222.1938407511624
 30
0.0
 40
5.0
100
AcDbArc
 50
2.147585428298361
 51
79.11447294534145
  0
LINE
  5
232
330
1F
100
AcDbEntity
  8
LAY-10
  6
CONTINUOUS
 62
     7
100
AcDbLine
 10
395.5000000000094
 20
181.9999999999794
 30
0.0
 11
394.0893706595851
 21
219.6167824113051
 31
0.0
  0
ARC
  5
233
330
1F
100
AcDbEntity
  8
LAY-10
  6
CONTINUOUS
 62
     7
100
AcDbCircle
 10
391.0914778124575
 20
219.5043614295379
 30
0.0
 40
3.0
100
AcDbArc
 50
2.147585428298017
 51
79.11447294534145
  0
LINE
  5
234
330
1F
100
AcDbEntity
  8
LAY-10
  6
CONTINUOUS
 62
     7
100
AcDbLine
 10
391.6580199934079
 20
222.4503807704798
 30
0.0
 11
368.0000000000113
 21
226.9999999999793
 31
0.0
  0
LINE
  5
235
330
1F
100
AcDbEntity
  8
LAY-10
  6
CONTINUOUS
 62
     7
100
AcDbLine
 10
397.8780295834126
 20
226.327518093902
 30
0.0
 11
531.97301931731
 21
226.327518093902
 31
0.0
  0
ARC
  5
236
330
1F
100
AcDbEntity
  8
LAY-10
  6
CONTINUOUS
 62
     7
100
AcDbCircle
 10
537.0079719061604
 20
222.1938407511623
 30
0.0
 40
5.0
100
AcDbArc
 50
100.8855270546585
 51
177.8524145717017
  0
ARC
  5
237
330
1F
100
AcDbEntity
  8
LAY-10
  6
CONTINUOUS
 62
     7
100
AcDbCircle
 10
538.9085221875617
 20
219.5043614295378
 30
0.0
 40
3.000000000000001
100
AcDbArc
 50
100.8855270546584
 51
177.8524145717015
  0
LINE
  5
238
330
1F
100
AcDbEntity
  8
LAY-10
  6
CONTINUOUS
 62
     7
100
AcDbLine
 10
538.3419800066114
 20
222.4503807704797
 30
0.0
 11
558.9691138722987
 21
226.4171372831121
 31
0.0
  0
LINE
  5
239
330
1F
100
AcDbEntity
  8
LAY-10
  6
CONTINUOUS
 62
     7
100
AcDbLine
 10
534.5000000000099
 20
181.9999999999794
 30
0.0
 11
535.9106293404346
 21
219.6167824113051
 31
0.0
  0
LINE
  5
23A
330
1F
100
AcDbEntity
  8
LAY-10
  6
CONTINUOUS
 62
     7
100
AcDbLine
 10
532.0114838276147
 20
222.3812090541078
 30
0.0
 11
530.4971884880849
 21
181.9999999999794
 31
0.0
  0
LINE
  5
23B
330
1F
100
AcDbEntity
  8
LAY-10
  6
CONTINUOUS
 62
     7
100
AcDbLine
 10
369.1355363575906
 20
231.8732438907808
 30
0.0
 11
368.5000000000006
 21
243.9999999999795
 31
0.0
  0
LINE
  5
23C
330
1F
100
AcDbEntity
  8
LAY-10
  6
CONTINUOUS
 62
     7
100
AcDbLine
 10
369.1355363575906
 20
231.8732438907808
 30
0.0
 11
393.9362650621095
 21
227.1038729860656
 31
0.0
  0
LINE
  5
23D
330
1F
100
AcDbEntity
  8
LAY-10
  6
CONTINUOUS
 62
     7
100
AcDbLine
 10
562.8711066486137
 20
231.9999999999779
 30
0.0
 11
563.50000000001
 21
243.9999999999795
 31
0.0
  0
LINE
  5
23E
330
1F
100
AcDbEntity
  8
LAY-10
  6
CONTINUOUS
 62
     7
100
AcDbLine
 10
561.5235954102538
 20
231.9999999999779
 30
0.0
 11
536.0637349379098
 21
227.1038729860656
 31
0.0
  0
LINE
  5
23F
330
1F
100
AcDbEntity
  8
LAY-10
  6
CONTINUOUS
 62
     7
100
AcDbLine
 10
458.371106648596
 20
231.9999999999779
 30
0.0
 11
458.9999999999924
 21
243.9999999999793
 31
0.0
  0
LINE
  5
240
330
1F
100
AcDbEntity
  8
LAY-10
  6
CONTINUOUS
 62
     7
100
AcDbLine
 10
473.6288933514262
 20
231.9999999999779
 30
0.0
 11
473.0000000000298
 21
243.9999999999793
 31
0.0
  0
LINE
  5
241
330
1F
100
AcDbEntity
  8
LAY-10
  6
CONTINUOUS
 62
     7
100
AcDbLine
 10
369.128893351397
 20
231.9999999999779
 30
0.0
 11
562.8711066486137
 21
231.9999999999779
 31
0.0
  0
LINE
  5
242
330
1F
100
AcDbEntity
  8
LAY-10
  6
CONTINUOUS
 62
     7
100
AcDbLine
 10
536.3079327800219
 20
220.9999999999791
 30
0.0
 11
563.8349749849806
 21
220.9999999999791
 31
0.0
  0
ARC
  5
243
330
1F
100
AcDbEntity
  8
LAY-10
  6
CONTINUOUS
 62
     7
100
AcDbCircle
 10
368.659266463406
 20
221.999999999979
 30
0.0
 40
1.0
100
AcDbArc
 50
270.0000000000002
 51
357.0000000000076
  0
ARC
  5
244
330
1F
100
AcDbEntity
  8
LAY-10
  6
CONTINUOUS
 62
     7
100
AcDbCircle
 10
366.1650250150394
 20
221.999999999979
 30
0.0
 40
1.0
100
AcDbArc
 50
182.9999999999925
 51
270.0000000000002
  0
LINE
  5
245
330
1F
100
AcDbEntity
  8
LAY-10
  6
CONTINUOUS
 62
     7
100
AcDbLine
 10
369.6578959981604
 20
221.9476640437362
 30
0.0
 11
369.8434091993165
 21
225.4874667923744
 31
0.0
  0
LINE
  5
246
330
1F
100
AcDbEntity
  8
LAY-10
  6
CONTINUOUS
 62
     7
100
AcDbLine
 10
365.1663954802849
 20
221.9476640437362
 30
0.0
 11
364.9512787406661
 21
226.0523359562223
 31
0.0
  0
ARC
  5
247
330
1F
100
AcDbEntity
  8
LAY-10
  6
CONTINUOUS
 62
     7
100
AcDbCircle
 10
370.8420387340709
 20
225.4351308361315
 30
0.0
 40
1.0
100
AcDbArc
 50
79.11447294532803
 51
176.9999999999979
  0
LINE
  5
248
330
1F
100
AcDbEntity
  8
LAY-10
  6
CONTINUOUS
 62
     7
100
AcDbLine
 10
393.6920672199981
 20
220.9999999999791
 30
0.0
 11
366.1650250150394
 21
220.9999999999791
 31
0.0
  0
ARC
  5
249
330
1F
100
AcDbEntity
  8
LAY-10
  6
CONTINUOUS
 62
     7
100
AcDbCircle
 10
363.9526492059116
 20
225.9999999999793
 30
0.0
 40
1.0
100
AcDbArc
 50
3.000000000002355
 51
90.00000000000004
  0
LINE
  5
24A
330
1F
100
AcDbEntity
  8
LAY-10
  6
CENTER
 62
     2
100
AcDbLine
 10
326.92107714359
 20
584.9999999999894
 30
0.0
 11
604.3210771435901
 21
584.9999999999894
 31
0.0
  0
LINE
  5
24B
330
1F
100
AcDbEntity
  8
LAY-10
  6
CENTER
 62
     2
100
AcDbLine
 10
465.0000000000097
 20
723.9045460193889
 30
0.0
 11
465.0000000000097
 21
446.704546019389
 31
0.0
  0
LINE
  5
24C
330
1F
100
AcDbEntity
  8
LAY-10
  6
CENTER
 62
     2
100
AcDbLine
 10
359.5000000000098
 20
578.9999999999891
 30
0.0
 11
359.5000000000098
 21
590.9999999999891
 31
0.0
  0
LINE
  5
24D
330
1F
100
AcDbEntity
  8
LAY-10
  6
CENTER
 62
     2
100
AcDbLine
 10
570.5000000000095
 20
578.9999999999891
 30
0.0
 11
570.5000000000095
 21
590.9999999999891
 31
0.0
  0
LINE
  5
24E
330
1F
100
AcDbEntity
  8
LAY-10
  6
CENTER
 62
     2
100
AcDbLine
 10
359.5000000000098
 20
233.6999999999791
 30
0.0
 11
359.5000000000098
 21
257.999999999979
 31
0.0
  0
LINE
  5
24F
330
1F
100
AcDbEntity
  8
LAY-10
  6
CENTER
 62
     2
100
AcDbLine
 10
465.0000000000097
 20
329.8999999999691
 30
0.0
 11
465.0000000000097
 21
165.1999999999691
 31
0.0
  0
LINE
  5
250
330
1F
100
AcDbEntity
  8
LAY-10
  6
CENTER
 62
     2
100
AcDbLine
 10
604.6999999999988
 20
217.4999999999955
 30
0.0
 11
593.4999999999999
 21
217.4999999999955
 31
0.0
  0
ARC
  5
251
330
1F
100
AcDbEntity
  8
LAY-10
  6
CENTER
 62
     2
100
AcDbCircle
 10
593.4999999999999
 20
221.9999999999955
 30
0.0
 40
4.5
100
AcDbArc
 50
180.0
 51
270.0000000000002
  0
LINE
  5
252
330
1F
100
AcDbEntity
  8
LAY-10
  6
CENTER
 62
     2
100
AcDbLine
 10
589.0000000000001
 20
248.2013587594798
 30
0.0
 11
589.0000000000001
 21
221.9999999999955
 31
0.0
  0
LINE
  5
253
330
1F
100
AcDbEntity
  8
LAY-10
  6
CONTINUOUS
 62
     7
100
AcDbLine
 10
362.5000000000096
 20
237.999999999982
 30
0.0
 11
362.0000000000107
 21
237.4999999999813
 31
0.0
  0
LINE
  5
254
330
1F
100
AcDbEntity
  8
LAY-10
  6
CONTINUOUS
 62
     7
100
AcDbLine
 10
356.5000000000098
 20
237.999999999982
 30
0.0
 11
357.0000000000112
 21
237.4999999999813
 31
0.0
  0
LINE
  5
255
330
1F
100
AcDbEntity
  8
LAY-10
  6
CONTINUOUS
 62
     7
100
AcDbLine
 10
357.0000000000016
 20
251.9999999999795
 30
0.0
 11
357.0000000000016
 21
239.9999999999816
 31
0.0
  0
LINE
  5
256
330
1F
100
AcDbEntity
  8
LAY-10
  6
CONTINUOUS
 62
     7
100
AcDbLine
 10
362.0000000000015
 20
251.9999999999795
 30
0.0
 11
362.0000000000015
 21
239.9999999999816
 31
0.0
  0
LINE
  5
257
330
1F
100
AcDbEntity
  8
LAY-10
  6
CONTINUOUS
 62
     7
100
AcDbLine
 10
362.5000000000096
 20
237.999999999982
 30
0.0
 11
362.5000000000096
 21
240.4999999999816
 31
0.0
  0
LINE
  5
258
330
1F
100
AcDbEntity
  8
LAY-10
  6
CONTINUOUS
 62
     7
100
AcDbLine
 10
356.5000000000098
 20
237.999999999982
 30
0.0
 11
356.5000000000098
 21
240.4999999999816
 31
0.0
  0
LINE
  5
259
330
1F
100
AcDbEntity
  8
LAY-10
  6
CONTINUOUS
 62
     7
100
AcDbLine
 10
592.0000000000008
 20
244.4999999999851
 30
0.0
 11
591.5000000000024
 21
244.9999999999857
 31
0.0
  0
LINE
  5
25A
330
1F
100
AcDbEntity
  8
LAY-10
  6
CONTINUOUS
 62
     7
100
AcDbLine
 10
586.0000000000017
 20
244.4999999999851
 30
0.0
 11
586.5000000000031
 21
244.9999999999857
 31
0.0
  0
LINE
  5
25B
330
1F
100
AcDbEntity
  8
LAY-10
  6
CONTINUOUS
 62
     7
100
AcDbLine
 10
592.0000000000008
 20
244.4999999999851
 30
0.0
 11
592.0000000000008
 21
242.4999999999959
 31
0.0
  0
LINE
  5
25C
330
1F
100
AcDbEntity
  8
LAY-10
  6
CONTINUOUS
 62
     7
100
AcDbLine
 10
586.0000000000017
 20
244.4999999999851
 30
0.0
 11
586.0000000000017
 21
242.4999999999959
 31
0.0
  0
LINE
  5
25D
330
1F
100
AcDbEntity
  8
LAY-10
  6
CONTINUOUS
 62
     7
100
AcDbLine
 10
591.4999999999999
 20
242.9999999999899
 30
0.0
 11
591.4999999999999
 21
236.9999999999899
 31
0.0
  0
LINE
  5
25E
330
1F
100
AcDbEntity
  8
LAY-10
  6
CONTINUOUS
 62
     7
100
AcDbLine
 10
586.4999999999999
 20
242.9999999999899
 30
0.0
 11
586.4999999999999
 21
236.9999999999899
 31
0.0
  0
LINE
  5
25F
330
1F
100
AcDbEntity
  8
LAY-10
  6
CONTINUOUS
 62
     7
100
AcDbLine
 10
586.4999999999817
 20
236.1339745961949
 30
0.0
 11
585.9999999999817
 21
236.9999999999795
 31
0.0
  0
LINE
  5
260
330
1F
100
AcDbEntity
  8
LAY-10
  6
CONTINUOUS
 62
     7
100
AcDbLine
 10
591.5000000000119
 20
236.1339745961985
 30
0.0
 11
592.0000000000119
 21
236.999999999983
 31
0.0
  0
DIMENSION
  5
262
330
1F
100
AcDbEntity
  8
LAY-20
  6
CONTINUOUS
 62
     4
100
AcDbDimension
  2
*D15
 10
394.00000000001
 20
120.999999999979
 30
0.0
 11
465.00000000001
 21
128.499999999979
 31
0.0
 70
   160
  1
%%c<>
  3
ISO-25
100
AcDbAlignedDimension
 13
536.00000000001
 23
221.999999999979
 33
0.0
 14
394.00000000001
 24
221.999999999979
 34
0.0
100
AcDbRotatedDimension
1001
ACAD
1000
DSTYLE
1002
{
1070
   270
1070
     2
1070
     6
1000
EX_BNORM
1070
     7
1000
EX_BNORM
1070
    41
1040
7.5
1070
    42
1040
4.5
1070
    44
1040
4.5
1070
    73
1070
     0
1070
    74
1070
     0
1070
    75
1070
     0
1070
    76
1070
     0
1070
    77
1070
     1
1070
    78
1070
     8
1070
   140
1040
9.3543312
1070
   147
1040
0.0
1070
   173
1070
     1
1070
   176
1070
     4
1070
   177
1070
     4
1070
   178
1070
     7
1070
   271
1070
     1
1070
   277
1070
     2
1070
   279
1070
     2
1070
   280
1070
     0
1070
   287
1070
     5
1070
   340
1005
261
1002
}
  0
DIMENSION
  5
270
330
1F
100
AcDbEntity
  8
LAY-20
  6
CONTINUOUS
 62
     4
100
AcDbDimension
  2
*D16
 10
534.50000000001
 20
141.999999999979
 30
0.0
 11
465.00000000001
 21
149.499999999979
 31
0.0
 70
   160
  1
%%c<>
  3
ISO-25
100
AcDbAlignedDimension
 13
395.50000000001
 23
181.9999999999791
 33
0.0
 14
534.50000000001
 24
181.9999999999791
 34
0.0
100
AcDbRotatedDimension
1001
ACAD
1000
DSTYLE
1002
{
1070
   270
1070
     2
1070
     6
1000
EX_BNORM
1070
     7
1000
EX_BNORM
1070
    41
1040
7.5
1070
    42
1040
4.5
1070
    44
1040
4.5
1070
    73
1070
     0
1070
    74
1070
     0
1070
    75
1070
     0
1070
    76
1070
     0
1070
    77
1070
     1
1070
    78
1070
     8
1070
   140
1040
9.3543312
1070
   147
1040
0.0
1070
   173
1070
     1
1070
   176
1070
     4
1070
   177
1070
     4
1070
   178
1070
     7
1070
   271
1070
     1
1070
   277
1070
     2
1070
   279
1070
     2
1070
   280
1070
     0
1070
   287
1070
     5
1070
   340
1005
261
1002
}
  0
DIMENSION
  5
27D
330
1F
100
AcDbEntity
  8
LAY-20
  6
CONTINUOUS
 62
     4
100
AcDbDimension
  2
*D17
 10
302.50000000002
 20
251.999999999979
 30
0.0
 11
295.00000000002
 21
239.4999999999791
 31
0.0
 70
   160
  3
ISO-25
100
AcDbAlignedDimension
 13
356.4984924984101
 23
226.9999999999791
 33
0.0
 14
333.5000000000101
 24
251.999999999979
 34
0.0
 50
90.0
100
AcDbRotatedDimension
1001
ACAD
1000
DSTYLE
1002
{
1070
   270
1070
     2
1070
     6
1000
EX_BNORM
1070
     7
1000
EX_BNORM
1070
    41
1040
7.5
1070
    42
1040
4.5
1070
    44
1040
4.5
1070
    73
1070
     0
1070
    74
1070
     0
1070
    75
1070
     0
1070
    76
1070
     0
1070
    77
1070
     1
1070
    78
1070
     8
1070
   140
1040
9.3543312
1070
   147
1040
0.0
1070
   173
1070
     1
1070
   176
1070
     4
1070
   177
1070
     4
1070
   178
1070
     7
1070
   271
1070
     1
1070
   277
1070
     2
1070
   279
1070
     2
1070
   280
1070
     0
1070
   287
1070
     5
1070
   340
1005
261
1002
}
  0
DIMENSION
  5
28A
330
1F
100
AcDbEntity
  8
LAY-20
  6
CONTINUOUS
 62
     4
100
AcDbDimension
  2
*D18
 10
332.50000000001
 20
416.99999999997
 30
0.0
 11
465.0000000000101
 21
424.4999999999699
 31
0.0
 70
   160
  1
%%c<>
  3
ISO-25
100
AcDbAlignedDimension
 13
597.50000000001
 23
244.9999999999791
 33
0.0
 14
332.50000000001
 24
244.9999999999791
 34
0.0
100
AcDbRotatedDimension
1001
ACAD
1000
DSTYLE
1002
{
1070
   270
1070
     2
1070
     6
1000
EX_BNORM
1070
     7
1000
EX_BNORM
1070
    41
1040
7.5
1070
    42
1040
4.5
1070
    44
1040
4.500000000000171
1070
    73
1070
     0
1070
    74
1070
     0
1070
    75
1070
     0
1070
    76
1070
     0
1070
    77
1070
     1
1070
    78
1070
     8
1070
   140
1040
9.3543312
1070
   147
1040
0.0
1070
   173
1070
     1
1070
   176
1070
     4
1070
   177
1070
     4
1070
   178
1070
     7
1070
   271
1070
     1
1070
   277
1070
     2
1070
   279
1070
     2
1070
   280
1070
     0
1070
   287
1070
     5
1070
   340
1005
261
1002
}
  0
DIMENSION
  5
297
330
1F
100
AcDbEntity
  8
LAY-20
  6
CONTINUOUS
 62
     4
100
AcDbDimension
  2
*D19
 10
576.499999999988
 20
395.99999999997
 30
0.0
 11
465.000000000009
 21
403.49999999997
 31
0.0
 70
   160
  1
%%c<>
  3
ISO-25
100
AcDbAlignedDimension
 13
353.5000000000301
 23
251.999999999979
 33
0.0
 14
576.499999999988
 24
251.999999999979
 34
0.0
100
AcDbRotatedDimension
1001
ACAD
1000
DSTYLE
1002
{
1070
   270
1070
     2
1070
     6
1000
EX_BNORM
1070
     7
1000
EX_BNORM
1070
    41
1040
7.5
1070
    42
1040
4.5
1070
    44
1040
4.5
1070
    73
1070
     0
1070
    74
1070
     0
1070
    75
1070
     0
1070
    76
1070
     0
1070
    77
1070
     1
1070
    78
1070
     8
1070
   140
1040
9.3543312
1070
   147
1040
0.0
1070
   173
1070
     1
1070
   176
1070
     4
1070
   177
1070
     4
1070
   178
1070
     7
1070
   271
1070
     1
1070
   277
1070
     2
1070
   279
1070
     2
1070
   280
1070
     0
1070
   287
1070
     5
1070
   340
1005
261
1002
}
  0
CIRCLE
  5
2A4
330
1F
100
AcDbEntity
  8
LAY-20
  6
CONTINUOUS
 62
     7
100
AcDbCircle
 10
465.0000000000098
 20
584.9999999999939
 30
0.0
 40
85.97796688175929
  0
LINE
  5
2A5
330
1F
100
AcDbEntity
  8
LAY-20
  6
CONTINUOUS
 62
     7
100
AcDbLine
 10
367.3012487791676
 20
590.9999999999935
 30
0.0
 11
373.6202047070645
 21
590.9999999999935
 31
0.0
  0
LINE
  5
2A6
330
1F
100
AcDbEntity
  8
LAY-20
  6
CONTINUOUS
 62
     7
100
AcDbLine
 10
367.3012487791676
 20
578.9999999999935
 30
0.0
 11
373.6202047070645
 21
578.9999999999935
 31
0.0
  0
LINE
  5
2A7
330
1F
100
AcDbEntity
  8
LAY-20
  6
CONTINUOUS
 62
     7
100
AcDbLine
 10
369.0773387289924
 20
565.509257459042
 30
0.0
 11
375.1809814549304
 21
567.1447235983452
 31
0.0
  0
LINE
  5
2A8
330
1F
100
AcDbEntity
  8
LAY-20
  6
CONTINUOUS
 62
     7
100
AcDbLine
 10
372.1831672702227
 20
553.9181475435732
 30
0.0
 11
378.2868099961607
 21
555.5536136828764
 31
0.0
  0
LINE
  5
2A9
330
1F
100
AcDbEntity
  8
LAY-20
  6
CONTINUOUS
 62
     7
100
AcDbLine
 10
377.3903995247441
 20
541.3467768122811
 30
0.0
 11
382.8627758836968
 21
544.5062547762298
 31
0.0
  0
LINE
  5
2AA
330
1F
100
AcDbEntity
  8
LAY-20
  6
CONTINUOUS
 62
     7
100
AcDbLine
 10
383.3903995247441
 20
530.954471966868
 30
0.0
 11
388.8627758836969
 21
534.1139499308164
 31
0.0
  0
LINE
  5
2AB
330
1F
100
AcDbEntity
  8
LAY-20
  6
CONTINUOUS
 62
     7
100
AcDbLine
 10
391.6739098111744
 20
520.1591911854008
 30
0.0
 11
396.1420863978091
 21
524.6273677720357
 31
0.0
  0
LINE
  5
2AC
330
1F
100
AcDbEntity
  8
LAY-20
  6
CONTINUOUS
 62
     7
100
AcDbLine
 10
400.1591911854129
 20
511.6739098111621
 30
0.0
 11
404.6273677720477
 21
516.142086397797
 31
0.0
  0
LINE
  5
2AD
330
1F
100
AcDbEntity
  8
LAY-20
  6
CONTINUOUS
 62
     7
100
AcDbLine
 10
410.9544719668801
 20
503.3903995247317
 30
0.0
 11
414.1139499308286
 21
508.8627758836848
 31
0.0
  0
LINE
  5
2AE
330
1F
100
AcDbEntity
  8
LAY-20
  6
CONTINUOUS
 62
     7
100
AcDbLine
 10
421.3467768122935
 20
497.3903995247317
 30
0.0
 11
424.5062547762418
 21
502.8627758836847
 31
0.0
  0
LINE
  5
2AF
330
1F
100
AcDbEntity
  8
LAY-20
  6
CONTINUOUS
 62
     7
100
AcDbLine
 10
433.9181475435853
 20
492.1831672702105
 30
0.0
 11
435.5536136828885
 21
498.2868099961485
 31
0.0
  0
LINE
  5
2B0
330
1F
100
AcDbEntity
  8
LAY-20
  6
CONTINUOUS
 62
     7
100
AcDbLine
 10
484.4907425409572
 20
680.9226612710069
 30
0.0
 11
482.8552764016541
 21
674.8190185450688
 31
0.0
  0
LINE
  5
2B1
330
1F
100
AcDbEntity
  8
LAY-20
  6
CONTINUOUS
 62
     7
100
AcDbLine
 10
471.0000000000057
 20
682.6987512208318
 30
0.0
 11
471.0000000000057
 21
676.3797952929351
 31
0.0
  0
LINE
  5
2B2
330
1F
100
AcDbEntity
  8
LAY-20
  6
CONTINUOUS
 62
     7
100
AcDbLine
 10
459.0000000000057
 20
682.6987512208318
 30
0.0
 11
459.0000000000057
 21
676.3797952929348
 31
0.0
  0
LINE
  5
2B3
330
1F
100
AcDbEntity
  8
LAY-20
  6
CONTINUOUS
 62
     7
100
AcDbLine
 10
445.5092574590541
 20
680.9226612710069
 30
0.0
 11
447.1447235983572
 21
674.8190185450692
 31
0.0
  0
LINE
  5
2B4
330
1F
100
AcDbEntity
  8
LAY-20
  6
CONTINUOUS
 62
     7
100
AcDbLine
 10
433.9181475435851
 20
677.8168327297767
 30
0.0
 11
435.5536136828885
 21
671.7131900038387
 31
0.0
  0
LINE
  5
2B5
330
1F
100
AcDbEntity
  8
LAY-20
  6
CONTINUOUS
 62
     7
100
AcDbLine
 10
421.3467768122933
 20
672.6096004752553
 30
0.0
 11
424.5062547762416
 21
667.1372241163025
 31
0.0
  0
LINE
  5
2B6
330
1F
100
AcDbEntity
  8
LAY-20
  6
CONTINUOUS
 62
     7
100
AcDbLine
 10
410.9544719668801
 20
666.6096004752553
 30
0.0
 11
414.1139499308286
 21
661.1372241163025
 31
0.0
  0
LINE
  5
2B7
330
1F
100
AcDbEntity
  8
LAY-20
  6
CONTINUOUS
 62
     7
100
AcDbLine
 10
400.1591911854129
 20
658.3260901888252
 30
0.0
 11
404.6273677720477
 21
653.8579136021904
 31
0.0
  0
LINE
  5
2B8
330
1F
100
AcDbEntity
  8
LAY-20
  6
CONTINUOUS
 62
     7
100
AcDbLine
 10
391.6739098111742
 20
649.8408088145866
 30
0.0
 11
396.1420863978091
 21
645.3726322279517
 31
0.0
  0
LINE
  5
2B9
330
1F
100
AcDbEntity
  8
LAY-20
  6
CONTINUOUS
 62
     7
100
AcDbLine
 10
383.3903995247441
 20
639.0455280331194
 30
0.0
 11
388.8627758836968
 21
635.886050069171
 31
0.0
  0
LINE
  5
2BA
330
1F
100
AcDbEntity
  8
LAY-20
  6
CONTINUOUS
 62
     7
100
AcDbLine
 10
377.3903995247441
 20
628.6532231877063
 30
0.0
 11
382.8627758836968
 21
625.4937452237576
 31
0.0
  0
LINE
  5
2BB
330
1F
100
AcDbEntity
  8
LAY-20
  6
CONTINUOUS
 62
     7
100
AcDbLine
 10
372.1831672702227
 20
616.0818524564141
 30
0.0
 11
378.2868099961604
 21
614.446386317111
 31
0.0
  0
LINE
  5
2BC
330
1F
100
AcDbEntity
  8
LAY-20
  6
CONTINUOUS
 62
     7
100
AcDbLine
 10
369.0773387289924
 20
604.4907425409453
 30
0.0
 11
375.1809814549304
 21
602.8552764016422
 31
0.0
  0
ARC
  5
2BD
330
1F
100
AcDbEntity
  8
LAY-20
  6
CONTINUOUS
 62
     7
100
AcDbCircle
 10
465.0000000000098
 20
584.9999999999939
 30
0.0
 40
91.5765635289979
100
AcDbArc
 50
78.75665012539811
 51
86.24334987460708
  0
ARC
  5
2BE
330
1F
100
AcDbEntity
  8
LAY-20
  6
CONTINUOUS
 62
     7
100
AcDbCircle
 10
465.0000000000098
 20
584.9999999999939
 30
0.0
 40
91.5765635289979
100
AcDbArc
 50
93.75665012539814
 51
101.2433498746071
  0
ARC
  5
2BF
330
1F
100
AcDbEntity
  8
LAY-20
  6
CONTINUOUS
 62
     7
100
AcDbCircle
 10
465.0000000000098
 20
584.9999999999939
 30
0.0
 40
91.5765635289979
100
AcDbArc
 50
108.7566501253982
 51
116.2433498746071
  0
ARC
  5
2C0
330
1F
100
AcDbEntity
  8
LAY-20
  6
CONTINUOUS
 62
     7
100
AcDbCircle
 10
465.0000000000098
 20
584.9999999999939
 30
0.0
 40
91.5765635289979
100
AcDbArc
 50
123.7566501253976
 51
131.2433498746067
  0
ARC
  5
2C1
330
1F
100
AcDbEntity
  8
LAY-20
  6
CONTINUOUS
 62
     7
100
AcDbCircle
 10
465.0000000000098
 20
584.9999999999939
 30
0.0
 40
91.5765635289979
100
AcDbArc
 50
138.7566501253975
 51
146.2433498746061
  0
ARC
  5
2C2
330
1F
100
AcDbEntity
  8
LAY-20
  6
CONTINUOUS
 62
     7
100
AcDbCircle
 10
465.0000000000098
 20
584.9999999999939
 30
0.0
 40
91.5765635289979
100
AcDbArc
 50
153.7566501253968
 51
161.2433498746051
  0
ARC
  5
2C3
330
1F
100
AcDbEntity
  8
LAY-20
  6
CONTINUOUS
 62
     7
100
AcDbCircle
 10
465.0000000000098
 20
584.9999999999939
 30
0.0
 40
91.5765635289979
100
AcDbArc
 50
168.7566501253964
 51
176.2433498746045
  0
ARC
  5
2C4
330
1F
100
AcDbEntity
  8
LAY-20
  6
CONTINUOUS
 62
     7
100
AcDbCircle
 10
465.0000000000098
 20
584.9999999999939
 30
0.0
 40
91.5765635289979
100
AcDbArc
 50
183.7566501253955
 51
191.243349874604
  0
ARC
  5
2C5
330
1F
100
AcDbEntity
  8
LAY-20
  6
CONTINUOUS
 62
     7
100
AcDbCircle
 10
465.0000000000098
 20
584.9999999999939
 30
0.0
 40
91.5765635289979
100
AcDbArc
 50
198.756650125395
 51
206.2433498746032
  0
ARC
  5
2C6
330
1F
100
AcDbEntity
  8
LAY-20
  6
CONTINUOUS
 62
     7
100
AcDbCircle
 10
465.0000000000098
 20
584.9999999999939
 30
0.0
 40
91.5765635289979
100
AcDbArc
 50
213.7566501253942
 51
221.2433498746028
  0
ARC
  5
2C7
330
1F
100
AcDbEntity
  8
LAY-20
  6
CONTINUOUS
 62
     7
100
AcDbCircle
 10
465.0000000000098
 20
584.9999999999939
 30
0.0
 40
91.5765635289979
100
AcDbArc
 50
228.7566501253937
 51
236.2433498746024
  0
ARC
  5
2C8
330
1F
100
AcDbEntity
  8
LAY-20
  6
CONTINUOUS
 62
     7
100
AcDbCircle
 10
465.0000000000098
 20
584.9999999999939
 30
0.0
 40
91.5765635289979
100
AcDbArc
 50
243.7566501253934
 51
251.243349874602
  0
TEXT
  5
2C9
330
1F
100
AcDbEntity
  8
LAY-20
  6
CONTINUOUS
 62
     7
100
AcDbText
 10
489.8064675293146
 20
687.4545287460567
 30
0.0
 40
5.456692828292274
  1
Ｘ
 50
168.0801590277947
 41
1.2
  7
EXCADSTD
100
AcDbText
  0
TEXT
  5
2CA
330
1F
100
AcDbEntity
  8
LAY-20
  6
CONTINUOUS
 62
     7
100
AcDbText
 10
482.8139405509224
 20
688.9329162189609
 30
0.0
 40
5.456692828292274
  1
－
 50
172.0534393518677
 41
1.2
  7
EXCADSTD
100
AcDbText
  0
TEXT
  5
2CB
330
1F
100
AcDbEntity
  8
LAY-20
  6
CONTINUOUS
 62
     7
100
AcDbText
 10
475.7357809790709
 20
689.9232293709463
 30
0.0
 40
5.456692828292274
  1
１
 50
176.0267196759362
 41
1.2
  7
EXCADSTD
100
AcDbText
  0
TEXT
  5
2CC
330
1F
100
AcDbEntity
  8
LAY-20
  6
CONTINUOUS
 62
     7
100
AcDbText
 10
468.6060139167029
 20
690.4207077121438
 30
0.0
 40
5.456692828292274
  1
０
 50
180.0
 41
1.2
  7
EXCADSTD
100
AcDbText
  0
TEXT
  5
2CD
330
1F
100
AcDbEntity
  8
LAY-20
  6
CONTINUOUS
 62
     7
100
AcDbText
 10
461.4589125468106
 20
690.4229598367642
 30
0.0
 40
5.456692828292274
  1
１
 50
183.9732803240766
 41
1.2
  7
EXCADSTD
100
AcDbText
  0
TEXT
  5
2CE
330
1F
100
AcDbEntity
  8
LAY-20
  6
CONTINUOUS
 62
     7
100
AcDbText
 10
454.3288333793561
 20
689.9299749187206
 30
0.0
 40
5.456692828292274
  1
５
 50
187.9465606481463
 41
1.2
  7
EXCADSTD
100
AcDbText
  0
TEXT
  5
2CF
330
1F
100
AcDbEntity
  8
LAY-20
  6
CONTINUOUS
 62
     7
100
AcDbText
 10
447.250051097638
 20
688.9441227636687
 30
0.0
 40
5.456692828292274
  1
０
 50
191.9198409722141
 41
1.2
  7
EXCADSTD
100
AcDbText
  0
LINE
  5
2D0
330
1F
100
AcDbEntity
  8
LAY-20
  6
CONTINUOUS
 62
     7
100
AcDbLine
 10
356.9618123069538
 20
594.9999999999936
 30
0.0
 11
367.6293371178459
 21
594.9999999999936
 31
0.0
  0
LINE
  5
2D1
330
1F
100
AcDbEntity
  8
LAY-20
  6
CONTINUOUS
 62
     7
100
AcDbLine
 10
367.6293371178459
 20
574.9999999999937
 30
0.0
 11
356.9618123069538
 21
574.9999999999937
 31
0.0
  0
CIRCLE
  5
2D2
330
1F
100
AcDbEntity
  8
LAY-20
  6
CONTINUOUS
 62
     7
100
AcDbCircle
 10
465.0000000000098
 20
584.9999999999939
 30
0.0
 40
90.00000000001319
  0
LINE
  5
2D3
330
1F
100
AcDbEntity
  8
LAY-20
  6
CONTINUOUS
 62
     7
100
AcDbLine
 10
459.0000000000057
 20
487.3012487791551
 30
0.0
 11
459.0000000000057
 21
493.6202047070521
 31
0.0
  0
LINE
  5
2D4
330
1F
100
AcDbEntity
  8
LAY-20
  6
CONTINUOUS
 62
     7
100
AcDbLine
 10
445.5092574590541
 20
489.07733872898
 30
0.0
 11
447.1447235983572
 21
495.1809814549178
 31
0.0
  0
ARC
  5
2D5
330
1F
100
AcDbEntity
  8
LAY-20
  6
CONTINUOUS
 62
     7
100
AcDbCircle
 10
465.0000000000098
 20
584.9999999999932
 30
0.0
 40
91.5765635289979
100
AcDbArc
 50
258.7566501253929
 51
266.243349874602
  0
LINE
  5
2D6
330
1F
100
AcDbEntity
  8
LAY-20
  6
CONTINUOUS
 62
     7
100
AcDbLine
 10
484.4907425409572
 20
489.07733872898
 30
0.0
 11
482.8552764016541
 21
495.180981454918
 31
0.0
  0
LINE
  5
2D7
330
1F
100
AcDbEntity
  8
LAY-20
  6
CONTINUOUS
 62
     7
100
AcDbLine
 10
471.0000000000057
 20
487.3012487791551
 30
0.0
 11
471.0000000000057
 21
493.6202047070519
 31
0.0
  0
ARC
  5
2D8
330
1F
100
AcDbEntity
  8
LAY-20
  6
CONTINUOUS
 62
     7
100
AcDbCircle
 10
465.0000000000098
 20
584.9999999999932
 30
0.0
 40
91.5765635289979
100
AcDbArc
 50
273.7566501253929
 51
281.2433498746019
  0
LINE
  5
2D9
330
1F
100
AcDbEntity
  8
LAY-20
  6
CONTINUOUS
 62
     7
100
AcDbLine
 10
562.698751220852
 20
590.9999999999935
 30
0.0
 11
556.379795292955
 21
590.9999999999935
 31
0.0
  0
LINE
  5
2DA
330
1F
100
AcDbEntity
  8
LAY-20
  6
CONTINUOUS
 62
     7
100
AcDbLine
 10
562.698751220852
 20
578.9999999999935
 30
0.0
 11
556.379795292955
 21
578.9999999999935
 31
0.0
  0
LINE
  5
2DB
330
1F
100
AcDbEntity
  8
LAY-20
  6
CONTINUOUS
 62
     7
100
AcDbLine
 10
560.9226612710271
 20
565.509257459042
 30
0.0
 11
554.8190185450891
 21
567.1447235983452
 31
0.0
  0
LINE
  5
2DC
330
1F
100
AcDbEntity
  8
LAY-20
  6
CONTINUOUS
 62
     7
100
AcDbLine
 10
557.8168327297969
 20
553.9181475435732
 30
0.0
 11
551.7131900038589
 21
555.5536136828764
 31
0.0
  0
LINE
  5
2DD
330
1F
100
AcDbEntity
  8
LAY-20
  6
CONTINUOUS
 62
     7
100
AcDbLine
 10
552.6096004752756
 20
541.3467768122811
 30
0.0
 11
547.1372241163227
 21
544.5062547762298
 31
0.0
  0
LINE
  5
2DE
330
1F
100
AcDbEntity
  8
LAY-20
  6
CONTINUOUS
 62
     7
100
AcDbLine
 10
546.6096004752756
 20
530.954471966868
 30
0.0
 11
541.1372241163227
 21
534.1139499308164
 31
0.0
  0
LINE
  5
2DF
330
1F
100
AcDbEntity
  8
LAY-20
  6
CONTINUOUS
 62
     7
100
AcDbLine
 10
538.3260901888451
 20
520.1591911854008
 30
0.0
 11
533.8579136022106
 21
524.6273677720357
 31
0.0
  0
LINE
  5
2E0
330
1F
100
AcDbEntity
  8
LAY-20
  6
CONTINUOUS
 62
     7
100
AcDbLine
 10
529.8408088146068
 20
511.6739098111621
 30
0.0
 11
525.372632227972
 21
516.142086397797
 31
0.0
  0
LINE
  5
2E1
330
1F
100
AcDbEntity
  8
LAY-20
  6
CONTINUOUS
 62
     7
100
AcDbLine
 10
519.0455280331396
 20
503.3903995247317
 30
0.0
 11
515.8860500691911
 21
508.8627758836848
 31
0.0
  0
LINE
  5
2E2
330
1F
100
AcDbEntity
  8
LAY-20
  6
CONTINUOUS
 62
     7
100
AcDbLine
 10
508.6532231877262
 20
497.3903995247317
 30
0.0
 11
505.4937452237779
 21
502.8627758836847
 31
0.0
  0
LINE
  5
2E3
330
1F
100
AcDbEntity
  8
LAY-20
  6
CONTINUOUS
 62
     7
100
AcDbLine
 10
496.0818524564344
 20
492.1831672702105
 30
0.0
 11
494.4463863171312
 21
498.2868099961485
 31
0.0
  0
LINE
  5
2E4
330
1F
100
AcDbEntity
  8
LAY-20
  6
CONTINUOUS
 62
     7
100
AcDbLine
 10
496.0818524564345
 20
677.8168327297767
 30
0.0
 11
494.4463863171312
 21
671.7131900038387
 31
0.0
  0
LINE
  5
2E5
330
1F
100
AcDbEntity
  8
LAY-20
  6
CONTINUOUS
 62
     7
100
AcDbLine
 10
508.6532231877264
 20
672.6096004752553
 30
0.0
 11
505.493745223778
 21
667.1372241163025
 31
0.0
  0
LINE
  5
2E6
330
1F
100
AcDbEntity
  8
LAY-20
  6
CONTINUOUS
 62
     7
100
AcDbLine
 10
519.0455280331396
 20
666.6096004752553
 30
0.0
 11
515.8860500691911
 21
661.1372241163025
 31
0.0
  0
LINE
  5
2E7
330
1F
100
AcDbEntity
  8
LAY-20
  6
CONTINUOUS
 62
     7
100
AcDbLine
 10
529.8408088146068
 20
658.3260901888252
 30
0.0
 11
525.372632227972
 21
653.8579136021904
 31
0.0
  0
LINE
  5
2E8
330
1F
100
AcDbEntity
  8
LAY-20
  6
CONTINUOUS
 62
     7
100
AcDbLine
 10
538.3260901888455
 20
649.8408088145866
 30
0.0
 11
533.8579136022106
 21
645.3726322279517
 31
0.0
  0
LINE
  5
2E9
330
1F
100
AcDbEntity
  8
LAY-20
  6
CONTINUOUS
 62
     7
100
AcDbLine
 10
546.6096004752756
 20
639.0455280331194
 30
0.0
 11
541.1372241163227
 21
635.886050069171
 31
0.0
  0
LINE
  5
2EA
330
1F
100
AcDbEntity
  8
LAY-20
  6
CONTINUOUS
 62
     7
100
AcDbLine
 10
552.6096004752756
 20
628.6532231877063
 30
0.0
 11
547.1372241163227
 21
625.4937452237576
 31
0.0
  0
LINE
  5
2EB
330
1F
100
AcDbEntity
  8
LAY-20
  6
CONTINUOUS
 62
     7
100
AcDbLine
 10
557.8168327297969
 20
616.0818524564141
 30
0.0
 11
551.7131900038593
 21
614.446386317111
 31
0.0
  0
LINE
  5
2EC
330
1F
100
AcDbEntity
  8
LAY-20
  6
CONTINUOUS
 62
     7
100
AcDbLine
 10
560.9226612710271
 20
604.4907425409453
 30
0.0
 11
554.8190185450891
 21
602.8552764016422
 31
0.0
  0
ARC
  5
2ED
330
1F
100
AcDbEntity
  8
LAY-20
  6
CONTINUOUS
 62
     7
100
AcDbCircle
 10
465.0000000000098
 20
584.9999999999939
 30
0.0
 40
91.5765635289979
100
AcDbArc
 50
63.75665012539315
 51
71.24334987460216
  0
ARC
  5
2EE
330
1F
100
AcDbEntity
  8
LAY-20
  6
CONTINUOUS
 62
     7
100
AcDbCircle
 10
465.0000000000098
 20
584.9999999999939
 30
0.0
 40
91.5765635289979
100
AcDbArc
 50
48.75665012539363
 51
56.24334987460237
  0
ARC
  5
2EF
330
1F
100
AcDbEntity
  8
LAY-20
  6
CONTINUOUS
 62
     7
100
AcDbCircle
 10
465.0000000000098
 20
584.9999999999939
 30
0.0
 40
91.5765635289979
100
AcDbArc
 50
33.75665012539417
 51
41.2433498746029
  0
ARC
  5
2F0
330
1F
100
AcDbEntity
  8
LAY-20
  6
CONTINUOUS
 62
     7
100
AcDbCircle
 10
465.0000000000098
 20
584.9999999999939
 30
0.0
 40
91.5765635289979
100
AcDbArc
 50
18.75665012539494
 51
26.24334987460315
  0
ARC
  5
2F1
330
1F
100
AcDbEntity
  8
LAY-20
  6
CONTINUOUS
 62
     7
100
AcDbCircle
 10
465.0000000000098
 20
584.9999999999939
 30
0.0
 40
91.5765635289979
100
AcDbArc
 50
3.756650125395482
 51
11.24334987460375
  0
ARC
  5
2F2
330
1F
100
AcDbEntity
  8
LAY-20
  6
CONTINUOUS
 62
     7
100
AcDbCircle
 10
465.0000000000098
 20
584.9999999999939
 30
0.0
 40
91.5765635289979
100
AcDbArc
 50
348.7566501253962
 51
356.2433498746046
  0
ARC
  5
2F3
330
1F
100
AcDbEntity
  8
LAY-20
  6
CONTINUOUS
 62
     7
100
AcDbCircle
 10
465.0000000000098
 20
584.9999999999939
 30
0.0
 40
91.5765635289979
100
AcDbArc
 50
333.7566501253968
 51
341.2433498746052
  0
ARC
  5
2F4
330
1F
100
AcDbEntity
  8
LAY-20
  6
CONTINUOUS
 62
     7
100
AcDbCircle
 10
465.0000000000098
 20
584.9999999999939
 30
0.0
 40
91.5765635289979
100
AcDbArc
 50
318.7566501253978
 51
326.2433498746061
  0
ARC
  5
2F5
330
1F
100
AcDbEntity
  8
LAY-20
  6
CONTINUOUS
 62
     7
100
AcDbCircle
 10
465.0000000000098
 20
584.9999999999939
 30
0.0
 40
91.5765635289979
100
AcDbArc
 50
303.7566501253976
 51
311.2433498746065
  0
ARC
  5
2F6
330
1F
100
AcDbEntity
  8
LAY-20
  6
CONTINUOUS
 62
     7
100
AcDbCircle
 10
465.0000000000098
 20
584.9999999999939
 30
0.0
 40
91.5765635289979
100
AcDbArc
 50
288.7566501253982
 51
296.243349874607
  0
LINE
  5
2F7
330
1F
100
AcDbEntity
  8
LAY-20
  6
CONTINUOUS
 62
     7
100
AcDbLine
 10
573.0381876930659
 20
594.9999999999936
 30
0.0
 11
562.3706628821737
 21
594.9999999999936
 31
0.0
  0
LINE
  5
2F8
330
1F
100
AcDbEntity
  8
LAY-20
  6
CONTINUOUS
 62
     7
100
AcDbLine
 10
562.3706628821737
 20
574.9999999999937
 30
0.0
 11
573.0381876930659
 21
574.9999999999937
 31
0.0
  0
LINE
  5
2F9
330
1F
100
AcDbEntity
  8
LAY-20
  6
CONTINUOUS
 62
     7
100
AcDbLine
 10
457.1515721144148
 20
481.8085911775422
 30
0.0
 11
465.00000000001
 21
486.8085911775469
 31
0.0
  0
LINE
  5
2FA
330
1F
100
AcDbEntity
  8
LAY-20
  6
CONTINUOUS
 62
     7
100
AcDbLine
 10
472.8484278856056
 20
481.8085911775422
 30
0.0
 11
465.00000000001
 21
486.8085911775469
 31
0.0
  0
LINE
  5
2FB
330
1F
100
AcDbEntity
  8
LAY-20
  6
CONTINUOUS
 62
     7
100
AcDbLine
 10
457.1515721144148
 20
481.8085911775162
 30
0.0
 11
465.00000000001
 21
476.8085911775113
 31
0.0
  0
LINE
  5
2FC
330
1F
100
AcDbEntity
  8
LAY-20
  6
CONTINUOUS
 62
     7
100
AcDbLine
 10
472.8484278856056
 20
481.8085911775162
 30
0.0
 11
465.00000000001
 21
476.8085911775113
 31
0.0
  0
TEXT
  5
2FD
330
1F
100
AcDbEntity
  8
LAY-20
  6
CONTINUOUS
 62
     7
100
AcDbText
 10
460.2000000000096
 20
479.2117409775294
 30
0.0
 40
4.6771656
  1
ＳＦ
 41
1.00625
  7
EXCADSTD
100
AcDbText
  0
ARC
  5
2FE
330
1F
100
AcDbEntity
  8
LAY-20
  6
CONTINUOUS
 62
     7
100
AcDbCircle
 10
465.0000000000098
 20
584.9999999999939
 30
0.0
 40
97.88281764493706
100
AcDbArc
 50
209.6487873579638
 51
210.3512126420503
  0
ARC
  5
2FF
330
1F
100
AcDbEntity
  8
LAY-20
  6
CONTINUOUS
 62
     7
100
AcDbCircle
 10
465.0000000000098
 20
584.9999999999939
 30
0.0
 40
97.88281764493706
100
AcDbArc
 50
211.6402309272283
 51
328.3597690727708
  0
ARC
  5
300
330
1F
100
AcDbEntity
  8
LAY-20
  6
CONTINUOUS
 62
     7
100
AcDbCircle
 10
465.0000000000098
 20
584.9999999999939
 30
0.0
 40
97.88281764493706
100
AcDbArc
 50
329.6487873579494
 51
330.3512126420358
  0
ARC
  5
301
330
1F
100
AcDbEntity
  8
LAY-20
  6
CONTINUOUS
 62
     7
100
AcDbCircle
 10
465.0000000000098
 20
584.9999999999939
 30
0.0
 40
97.88281764493706
100
AcDbArc
 50
91.64023092723043
 51
208.3597690727869
  0
ARC
  5
302
330
1F
100
AcDbEntity
  8
LAY-20
  6
CONTINUOUS
 62
     7
100
AcDbCircle
 10
465.0000000000098
 20
584.9999999999939
 30
0.0
 40
97.88281764493706
100
AcDbArc
 50
331.640230927214
 51
88.35976907276975
  0
ARC
  5
303
330
1F
100
AcDbEntity
  8
LAY-20
  6
CONTINUOUS
 62
     7
100
AcDbCircle
 10
465.0000000000098
 20
584.9999999999939
 30
0.0
 40
97.88281764493706
100
AcDbArc
 50
89.64878735795638
 51
90.35121264204281
  0
ARC
  5
304
330
1F
100
AcDbEntity
  8
LAY-20
  6
CONTINUOUS
 62
     7
100
AcDbCircle
 10
463.2500000000106
 20
679.3857492993893
 30
0.0
 40
3.500000000000001
100
AcDbArc
 50
128.6821874534936
 51
178.1293582694076
  0
ARC
  5
305
330
1F
100
AcDbEntity
  8
LAY-20
  6
CONTINUOUS
 62
     7
100
AcDbCircle
 10
466.7500000000105
 20
679.3857492993893
 30
0.0
 40
3.500000000000001
100
AcDbArc
 50
1.870641730603623
 51
51.31781254650564
  0
LINE
  5
306
330
1F
100
AcDbEntity
  8
LAY-20
  6
CONTINUOUS
 62
     7
100
AcDbLine
 10
470.2481347569105
 20
679.4999999999894
 30
0.0
 11
459.7518652431105
 21
679.4999999999894
 31
0.0
  0
LINE
  5
307
330
1F
100
AcDbEntity
  8
LAY-20
  6
CONTINUOUS
 62
     7
100
AcDbLine
 10
465.6000000000105
 20
683.4713634880894
 30
0.0
 11
465.6000000000105
 21
680.9999999999894
 31
0.0
  0
LINE
  5
308
330
1F
100
AcDbEntity
  8
LAY-20
  6
CONTINUOUS
 62
     7
100
AcDbLine
 10
465.6000000000105
 20
680.9999999999894
 30
0.0
 11
464.4000000000106
 21
680.9999999999894
 31
0.0
  0
LINE
  5
309
330
1F
100
AcDbEntity
  8
LAY-20
  6
CONTINUOUS
 62
     7
100
AcDbLine
 10
464.4000000000106
 20
683.4713634880894
 30
0.0
 11
464.4000000000106
 21
680.9999999999894
 31
0.0
  0
ARC
  5
30A
330
1F
100
AcDbEntity
  8
LAY-20
  6
CONTINUOUS
 62
     7
100
AcDbCircle
 10
465.0000000000103
 20
677.1999999999895
 30
0.0
 40
6.300000000000002
100
AcDbArc
 50
51.31781254649378
 51
84.53497620009915
  0
ARC
  5
30B
330
1F
100
AcDbEntity
  8
LAY-20
  6
CONTINUOUS
 62
     7
100
AcDbCircle
 10
465.0000000000103
 20
677.1999999999895
 30
0.0
 40
6.300000000000002
100
AcDbArc
 50
95.46502379991013
 51
128.6821874534936
  0
LINE
  5
30C
330
1F
100
AcDbEntity
  8
LAY-20
  6
CONTINUOUS
 62
     7
100
AcDbLine
 10
462.5000000000106
 20
667.4999999999915
 30
0.0
 11
462.0000000000103
 21
667.9999999999917
 31
0.0
  0
LINE
  5
30D
330
1F
100
AcDbEntity
  8
LAY-20
  6
CONTINUOUS
 62
     7
100
AcDbLine
 10
467.5000000000105
 20
667.4999999999915
 30
0.0
 11
468.0000000000103
 21
667.9999999999917
 31
0.0
  0
LINE
  5
30E
330
1F
100
AcDbEntity
  8
LAY-20
  6
CONTINUOUS
 62
     7
100
AcDbLine
 10
462.5000000000106
 20
667.4999999999915
 30
0.0
 11
467.5000000000105
 21
667.4999999999915
 31
0.0
  0
LINE
  5
30F
330
1F
100
AcDbEntity
  8
LAY-20
  6
CONTINUOUS
 62
     7
100
AcDbLine
 10
468.0000000000103
 20
667.9999999999917
 30
0.0
 11
462.0000000000103
 21
667.9999999999917
 31
0.0
  0
ARC
  5
310
330
1F
100
AcDbEntity
  8
LAY-20
  6
CONTINUOUS
 62
     7
100
AcDbCircle
 10
547.6154566485033
 20
539.3226698069113
 30
0.0
 40
3.500000000000001
100
AcDbArc
 50
8.682187453496102
 51
58.12935826940861
  0
ARC
  5
311
330
1F
100
AcDbEntity
  8
LAY-20
  6
CONTINUOUS
 62
     7
100
AcDbCircle
 10
545.8654566485031
 20
536.2915808936659
 30
0.0
 40
3.500000000000001
100
AcDbArc
 50
241.870641730607
 51
291.3178125464985
  0
LINE
  5
312
330
1F
100
AcDbEntity
  8
LAY-20
  6
CONTINUOUS
 62
     7
100
AcDbLine
 10
544.2153332791733
 20
533.204981978029
 30
0.0
 11
549.4634680360731
 21
542.2950180219482
 31
0.0
  0
LINE
  5
313
330
1F
100
AcDbEntity
  8
LAY-20
  6
CONTINUOUS
 62
     7
100
AcDbLine
 10
549.9787023259796
 20
535.244703013668
 30
0.0
 11
547.8384387632999
 21
536.480384757718
 31
0.0
  0
LINE
  5
314
330
1F
100
AcDbEntity
  8
LAY-20
  6
CONTINUOUS
 62
     7
100
AcDbLine
 10
547.8384387632999
 20
536.480384757718
 30
0.0
 11
548.4384387632997
 21
537.5196152422592
 31
0.0
  0
LINE
  5
315
330
1F
100
AcDbEntity
  8
LAY-20
  6
CONTINUOUS
 62
     7
100
AcDbLine
 10
550.5787023259797
 20
536.2839334982092
 30
0.0
 11
548.4384387632997
 21
537.5196152422592
 31
0.0
  0
ARC
  5
316
330
1F
100
AcDbEntity
  8
LAY-20
  6
CONTINUOUS
 62
     7
100
AcDbCircle
 10
544.847542228919
 20
538.8999999999887
 30
0.0
 40
6.300000000000002
100
AcDbArc
 50
291.3178125464937
 51
324.5349762000995
  0
ARC
  5
317
330
1F
100
AcDbEntity
  8
LAY-20
  6
CONTINUOUS
 62
     7
100
AcDbCircle
 10
544.847542228919
 20
538.8999999999887
 30
0.0
 40
6.300000000000002
100
AcDbArc
 50
335.4650237999101
 51
8.68218745349444
  0
LINE
  5
318
330
1F
100
AcDbEntity
  8
LAY-20
  6
CONTINUOUS
 62
     7
100
AcDbLine
 10
537.6970958122117
 20
545.9150635094485
 30
0.0
 11
538.380108514104
 21
546.0980762113409
 31
0.0
  0
LINE
  5
319
330
1F
100
AcDbEntity
  8
LAY-20
  6
CONTINUOUS
 62
     7
100
AcDbLine
 10
535.1970958122116
 20
541.5849364905266
 30
0.0
 11
535.380108514104
 21
540.9019237886343
 31
0.0
  0
LINE
  5
31A
330
1F
100
AcDbEntity
  8
LAY-20
  6
CONTINUOUS
 62
     7
100
AcDbLine
 10
537.6970958122117
 20
545.9150635094485
 30
0.0
 11
535.1970958122116
 21
541.5849364905266
 31
0.0
  0
LINE
  5
31B
330
1F
100
AcDbEntity
  8
LAY-20
  6
CONTINUOUS
 62
     7
100
AcDbLine
 10
535.380108514104
 20
540.9019237886343
 30
0.0
 11
538.380108514104
 21
546.0980762113409
 31
0.0
  0
ARC
  5
31C
330
1F
100
AcDbEntity
  8
LAY-20
  6
CONTINUOUS
 62
     7
100
AcDbCircle
 10
384.1345433515162
 20
536.291580893667
 30
0.0
 40
3.500000000000001
100
AcDbArc
 50
248.6821874534972
 51
298.1293582694015
  0
ARC
  5
31D
330
1F
100
AcDbEntity
  8
LAY-20
  6
CONTINUOUS
 62
     7
100
AcDbCircle
 10
382.3845433515162
 20
539.3226698069124
 30
0.0
 40
3.500000000000001
100
AcDbArc
 50
121.8706417306039
 51
171.3178125465038
  0
LINE
  5
31E
330
1F
100
AcDbEntity
  8
LAY-20
  6
CONTINUOUS
 62
     7
100
AcDbLine
 10
380.5365319639464
 20
542.2950180219489
 30
0.0
 11
385.7846667208464
 21
533.20498197803
 31
0.0
  0
LINE
  5
31F
330
1F
100
AcDbEntity
  8
LAY-20
  6
CONTINUOUS
 62
     7
100
AcDbLine
 10
379.4212976740399
 20
536.2839334982102
 30
0.0
 11
381.56156123672
 21
537.5196152422602
 31
0.0
  0
LINE
  5
320
330
1F
100
AcDbEntity
  8
LAY-20
  6
CONTINUOUS
 62
     7
100
AcDbLine
 10
381.56156123672
 20
537.5196152422602
 30
0.0
 11
382.1615612367198
 21
536.480384757719
 31
0.0
  0
LINE
  5
321
330
1F
100
AcDbEntity
  8
LAY-20
  6
CONTINUOUS
 62
     7
100
AcDbLine
 10
380.0212976740401
 20
535.244703013669
 30
0.0
 11
382.1615612367198
 21
536.480384757719
 31
0.0
  0
ARC
  5
322
330
1F
100
AcDbEntity
  8
LAY-20
  6
CONTINUOUS
 62
     7
100
AcDbCircle
 10
385.1524577711007
 20
538.8999999999894
 30
0.0
 40
6.300000000000002
100
AcDbArc
 50
171.3178125464962
 51
204.5349762001003
  0
ARC
  5
323
330
1F
100
AcDbEntity
  8
LAY-20
  6
CONTINUOUS
 62
     7
100
AcDbCircle
 10
385.1524577711007
 20
538.8999999999894
 30
0.0
 40
6.300000000000002
100
AcDbArc
 50
215.4650237999117
 51
248.682187453497
  0
LINE
  5
324
330
1F
100
AcDbEntity
  8
LAY-20
  6
CONTINUOUS
 62
     7
100
AcDbLine
 10
394.8029041878079
 20
541.5849364905273
 30
0.0
 11
394.6198914859157
 21
540.901923788635
 31
0.0
  0
LINE
  5
325
330
1F
100
AcDbEntity
  8
LAY-20
  6
CONTINUOUS
 62
     7
100
AcDbLine
 10
392.3029041878079
 20
545.9150635094495
 30
0.0
 11
391.6198914859157
 21
546.0980762113415
 31
0.0
  0
LINE
  5
326
330
1F
100
AcDbEntity
  8
LAY-20
  6
CONTINUOUS
 62
     7
100
AcDbLine
 10
394.8029041878079
 20
541.5849364905273
 30
0.0
 11
392.3029041878079
 21
545.9150635094495
 31
0.0
  0
LINE
  5
327
330
1F
100
AcDbEntity
  8
LAY-20
  6
CONTINUOUS
 62
     7
100
AcDbLine
 10
391.6198914859157
 20
546.0980762113415
 30
0.0
 11
394.6198914859157
 21
540.901923788635
 31
0.0
  0
LINE
  5
328
330
1F
100
AcDbEntity
  8
LAY-20
  6
CONTINUOUS
 62
     7
100
AcDbLine
 10
381.6605993423965
 20
540.3480762113427
 30
0.0
 11
385.6010269644115
 21
542.6230831596351
 31
0.0
  0
LINE
  5
329
330
1F
100
AcDbEntity
  8
LAY-20
  6
CONTINUOUS
 62
     7
100
AcDbLine
 10
389.0862372148919
 20
544.6352702359326
 30
0.0
 11
391.6198914859157
 21
546.0980762113415
 31
0.0
  0
LINE
  5
32A
330
1F
100
AcDbEntity
  8
LAY-20
  6
CONTINUOUS
 62
     7
100
AcDbLine
 10
384.6605993423965
 20
535.1519237886362
 30
0.0
 11
388.6010269644122
 21
537.426930736929
 31
0.0
  0
LINE
  5
32B
330
1F
100
AcDbEntity
  8
LAY-20
  6
CONTINUOUS
 62
     7
100
AcDbLine
 10
392.0862372148925
 20
539.4391178132264
 30
0.0
 11
394.6198914859157
 21
540.901923788635
 31
0.0
  0
LINE
  5
32C
330
1F
100
AcDbEntity
  8
LAY-20
  6
CONTINUOUS
 62
     7
100
AcDbLine
 10
545.3394006576232
 20
535.1519237886355
 30
0.0
 11
541.3989730356075
 21
537.4269307369286
 31
0.0
  0
LINE
  5
32D
330
1F
100
AcDbEntity
  8
LAY-20
  6
CONTINUOUS
 62
     7
100
AcDbLine
 10
537.9137627851271
 20
539.4391178132257
 30
0.0
 11
535.380108514104
 21
540.9019237886343
 31
0.0
  0
LINE
  5
32E
330
1F
100
AcDbEntity
  8
LAY-20
  6
CONTINUOUS
 62
     7
100
AcDbLine
 10
548.3394006576232
 20
540.348076211342
 30
0.0
 11
544.3989730356082
 21
542.6230831596348
 31
0.0
  0
LINE
  5
32F
330
1F
100
AcDbEntity
  8
LAY-20
  6
CONTINUOUS
 62
     7
100
AcDbLine
 10
540.9137627851278
 20
544.6352702359319
 30
0.0
 11
538.380108514104
 21
546.0980762113409
 31
0.0
  0
LINE
  5
330
330
1F
100
AcDbEntity
  8
LAY-20
  6
CONTINUOUS
 62
     7
100
AcDbLine
 10
462.0000000000103
 20
679.4999999999894
 30
0.0
 11
462.0000000000103
 21
674.9499861033967
 31
0.0
  0
LINE
  5
331
330
1F
100
AcDbEntity
  8
LAY-20
  6
CONTINUOUS
 62
     7
100
AcDbLine
 10
462.0000000000103
 20
670.9256119508021
 30
0.0
 11
462.0000000000103
 21
667.9999999999917
 31
0.0
  0
LINE
  5
332
330
1F
100
AcDbEntity
  8
LAY-20
  6
CONTINUOUS
 62
     7
100
AcDbLine
 10
468.0000000000103
 20
679.4999999999894
 30
0.0
 11
468.0000000000103
 21
674.9499861033967
 31
0.0
  0
LINE
  5
333
330
1F
100
AcDbEntity
  8
LAY-20
  6
CONTINUOUS
 62
     7
100
AcDbLine
 10
468.0000000000103
 20
670.9256119508021
 30
0.0
 11
468.0000000000103
 21
667.9999999999917
 31
0.0
  0
ARC
  5
334
330
1F
100
AcDbEntity
  8
LAY-20
  6
CONTINUOUS
 62
     7
100
AcDbCircle
 10
465.0000000000098
 20
584.9999999999939
 30
0.0
 40
108.5000000000001
100
AcDbArc
 50
182.3074330865448
 51
357.6925669134581
  0
ARC
  5
335
330
1F
100
AcDbEntity
  8
LAY-20
  6
CONTINUOUS
 62
     7
100
AcDbCircle
 10
465.0000000000098
 20
584.9999999999939
 30
0.0
 40
108.5000000000001
100
AcDbArc
 50
2.307433086537178
 51
177.6925669134601
  0
DIMENSION
  5
336
330
1F
100
AcDbEntity
  8
LAY-20
  6
CONTINUOUS
 62
     4
100
AcDbDimension
  2
*D20
 10
550.97796688177
 20
353.99999999998
 30
0.0
 11
465.0000000000101
 21
361.49999999998
 31
0.0
 70
   160
  1
%%c<>
  3
ISO-25
100
AcDbAlignedDimension
 13
379.02203311825
 23
323.99999999998
 33
0.0
 14
550.97796688177
 24
323.99999999998
 34
0.0
100
AcDbRotatedDimension
1001
ACAD
1000
DSTYLE
1002
{
1070
   270
1070
     2
1070
     6
1000
EX_BNORM
1070
     7
1000
EX_BNORM
1070
    41
1040
7.5
1070
    42
1040
4.5
1070
    44
1040
4.5
1070
    73
1070
     0
1070
    74
1070
     0
1070
    75
1070
     0
1070
    76
1070
     0
1070
    77
1070
     1
1070
    78
1070
     8
1070
   140
1040
9.3543312
1070
   147
1040
0.0
1070
   173
1070
     1
1070
   176
1070
     4
1070
   177
1070
     4
1070
   178
1070
     7
1070
   271
1070
     1
1070
   277
1070
     2
1070
   279
1070
     2
1070
   280
1070
     0
1070
   287
1070
     5
1070
   340
1005
261
1002
}
  0
LINE
  5
343
330
1F
100
AcDbEntity
  8
LAY-20
  6
CONTINUOUS
 62
     7
100
AcDbLine
 10
374.9999999999967
 20
323.9999999999835
 30
0.0
 11
555.000000000023
 21
323.9999999999835
 31
0.0
  0
ARC
  5
344
330
1F
100
AcDbEntity
  8
LAY-20
  6
CONTINUOUS
 62
     7
100
AcDbCircle
 10
571.3400319701649
 20
245.9999999999835
 30
0.0
 40
2.0
100
AcDbArc
 50
270.0000000000001
 51
357.0000000000025
  0
LINE
  5
345
330
1F
100
AcDbEntity
  8
LAY-20
  6
CONTINUOUS
 62
     7
100
AcDbLine
 10
552.5545304107533
 20
308.9999999999835
 30
0.0
 11
550.7272612784353
 21
308.9999999999835
 31
0.0
  0
LINE
  5
346
330
1F
100
AcDbEntity
  8
LAY-20
  6
CONTINUOUS
 62
     7
100
AcDbLine
 10
470.0000000000058
 20
308.9999999999835
 30
0.0
 11
470.0000000000058
 21
243.9999999999834
 31
0.0
  0
LINE
  5
347
330
1F
100
AcDbEntity
  8
LAY-20
  6
CONTINUOUS
 62
     7
100
AcDbLine
 10
471.0000000000057
 20
248.9999999999835
 30
0.0
 11
484.4860244059262
 21
248.9999999999835
 31
0.0
  0
LINE
  5
348
330
1F
100
AcDbEntity
  8
LAY-20
  6
CONTINUOUS
 62
     7
100
AcDbLine
 10
471.0000000000057
 20
308.9999999999835
 30
0.0
 11
471.0000000000057
 21
243.9999999999834
 31
0.0
  0
LINE
  5
349
330
1F
100
AcDbEntity
  8
LAY-20
  6
CONTINUOUS
 62
     7
100
AcDbLine
 10
482.7941695268449
 20
308.9999999999835
 30
0.0
 11
484.6270123125165
 21
243.9999999999834
 31
0.0
  0
LINE
  5
34A
330
1F
100
AcDbEntity
  8
LAY-20
  6
CONTINUOUS
 62
     7
100
AcDbLine
 10
492.4534277897358
 20
308.9999999999835
 30
0.0
 11
494.2243020015106
 21
243.9999999999834
 31
0.0
  0
LINE
  5
34B
330
1F
100
AcDbEntity
  8
LAY-20
  6
CONTINUOUS
 62
     7
100
AcDbLine
 10
494.4463863171285
 20
308.9999999999835
 30
0.0
 11
496.2181222279771
 21
243.9999999999834
 31
0.0
  0
LINE
  5
34C
330
1F
100
AcDbEntity
  8
LAY-20
  6
CONTINUOUS
 62
     7
100
AcDbLine
 10
482.7941695268449
 20
308.9999999999835
 30
0.0
 11
470.0000000000058
 21
308.9999999999835
 31
0.0
  0
LINE
  5
34D
330
1F
100
AcDbEntity
  8
LAY-20
  6
CONTINUOUS
 62
     7
100
AcDbLine
 10
496.0818348502196
 20
248.9999999999835
 30
0.0
 11
507.5336031351663
 21
248.9999999999835
 31
0.0
  0
LINE
  5
34E
330
1F
100
AcDbEntity
  8
LAY-20
  6
CONTINUOUS
 62
     7
100
AcDbLine
 10
507.7967620792068
 20
243.9999999999834
 30
0.0
 11
504.3756958066818
 21
308.9999999999835
 31
0.0
  0
LINE
  5
34F
330
1F
100
AcDbEntity
  8
LAY-20
  6
CONTINUOUS
 62
     7
100
AcDbLine
 10
516.4570161170517
 20
243.9999999999834
 30
0.0
 11
513.035949844527
 21
308.9999999999835
 31
0.0
  0
LINE
  5
350
330
1F
100
AcDbEntity
  8
LAY-20
  6
CONTINUOUS
 62
     7
100
AcDbLine
 10
515.8860500691919
 20
308.9999999999835
 30
0.0
 11
519.308781016499
 21
243.9999999999834
 31
0.0
  0
LINE
  5
351
330
1F
100
AcDbEntity
  8
LAY-20
  6
CONTINUOUS
 62
     7
100
AcDbLine
 10
504.3756958066818
 20
308.9999999999835
 30
0.0
 11
492.4534277897358
 21
308.9999999999835
 31
0.0
  0
LINE
  5
352
330
1F
100
AcDbEntity
  8
LAY-20
  6
CONTINUOUS
 62
     7
100
AcDbLine
 10
519.0454940205525
 20
248.9999999999835
 30
0.0
 11
527.739788861368
 21
248.9999999999835
 31
0.0
  0
LINE
  5
353
330
1F
100
AcDbEntity
  8
LAY-20
  6
CONTINUOUS
 62
     7
100
AcDbLine
 10
523.2738334887058
 20
308.9999999999835
 30
0.0
 11
528.1119518090899
 21
243.9999999999834
 31
0.0
  0
LINE
  5
354
330
1F
100
AcDbEntity
  8
LAY-20
  6
CONTINUOUS
 62
     7
100
AcDbLine
 10
535.1830196209559
 20
243.9999999999834
 30
0.0
 11
530.3449013005745
 21
308.9999999999835
 31
0.0
  0
LINE
  5
355
330
1F
100
AcDbEntity
  8
LAY-20
  6
CONTINUOUS
 62
     7
100
AcDbLine
 10
533.8579136022137
 20
308.9999999999835
 30
0.0
 11
538.698386128251
 21
243.9999999999834
 31
0.0
  0
LINE
  5
356
330
1F
100
AcDbEntity
  8
LAY-20
  6
CONTINUOUS
 62
     7
100
AcDbLine
 10
523.2738334887058
 20
308.9999999999835
 30
0.0
 11
513.035949844527
 21
308.9999999999835
 31
0.0
  0
LINE
  5
357
330
1F
100
AcDbEntity
  8
LAY-20
  6
CONTINUOUS
 62
     7
100
AcDbLine
 10
538.3260420877866
 20
248.9999999999835
 30
0.0
 11
543.6703616590725
 21
248.9999999999835
 31
0.0
  0
LINE
  5
358
330
1F
100
AcDbEntity
  8
LAY-20
  6
CONTINUOUS
 62
     7
100
AcDbLine
 10
544.1261663206166
 20
243.9999999999834
 30
0.0
 11
538.2007057205439
 21
308.9999999999835
 31
0.0
  0
LINE
  5
359
330
1F
100
AcDbEntity
  8
LAY-20
  6
CONTINUOUS
 62
     7
100
AcDbLine
 10
549.1261663206161
 20
243.9999999999834
 30
0.0
 11
543.2007057205437
 21
308.9999999999835
 31
0.0
  0
LINE
  5
35A
330
1F
100
AcDbEntity
  8
LAY-20
  6
CONTINUOUS
 62
     7
100
AcDbLine
 10
553.0655680177052
 20
243.9999999999834
 30
0.0
 11
547.1372241163333
 21
308.9999999999835
 31
0.0
  0
LINE
  5
35B
330
1F
100
AcDbEntity
  8
LAY-20
  6
CONTINUOUS
 62
     7
100
AcDbLine
 10
552.6095415637536
 20
248.9999999999835
 30
0.0
 11
554.2396793186306
 21
248.9999999999835
 31
0.0
  0
LINE
  5
35C
330
1F
100
AcDbEntity
  8
LAY-20
  6
CONTINUOUS
 62
     7
100
AcDbLine
 10
538.2007057205439
 20
308.9999999999835
 30
0.0
 11
530.3449013005745
 21
308.9999999999835
 31
0.0
  0
LINE
  5
35D
330
1F
100
AcDbEntity
  8
LAY-20
  6
CONTINUOUS
 62
     7
100
AcDbLine
 10
554.7480633595652
 20
243.9999999999834
 30
0.0
 11
548.1390708274106
 21
308.9999999999835
 31
0.0
  0
LINE
  5
35E
330
1F
100
AcDbEntity
  8
LAY-20
  6
CONTINUOUS
 62
     7
100
AcDbLine
 10
557.3362538105906
 20
243.9999999999834
 30
0.0
 11
550.7272612784353
 21
308.9999999999835
 31
0.0
  0
LINE
  5
35F
330
1F
100
AcDbEntity
  8
LAY-20
  6
CONTINUOUS
 62
     7
100
AcDbLine
 10
548.1390708274106
 20
308.9999999999835
 30
0.0
 11
543.2007057205437
 21
308.9999999999835
 31
0.0
  0
LINE
  5
360
330
1F
100
AcDbEntity
  8
LAY-20
  6
CONTINUOUS
 62
     7
100
AcDbLine
 10
559.253778196249
 20
243.9999999999834
 30
0.0
 11
552.4116456511817
 21
308.9999999999835
 31
0.0
  0
LINE
  5
361
330
1F
100
AcDbEntity
  8
LAY-20
  6
CONTINUOUS
 62
     7
100
AcDbLine
 10
379.0220331182506
 20
323.9999999999835
 30
0.0
 11
370.6136942969991
 21
243.9999999999834
 31
0.0
  0
LINE
  5
362
330
1F
100
AcDbEntity
  8
LAY-20
  6
CONTINUOUS
 62
     7
100
AcDbLine
 10
377.4454695892664
 20
308.9999999999835
 30
0.0
 11
379.2727387215843
 21
308.9999999999835
 31
0.0
  0
LINE
  5
363
330
1F
100
AcDbEntity
  8
LAY-20
  6
CONTINUOUS
 62
     7
100
AcDbLine
 10
460.0000000000139
 20
308.9999999999835
 30
0.0
 11
460.0000000000139
 21
243.9999999999834
 31
0.0
  0
LINE
  5
364
330
1F
100
AcDbEntity
  8
LAY-20
  6
CONTINUOUS
 62
     7
100
AcDbLine
 10
459.0000000000139
 20
248.9999999999835
 30
0.0
 11
445.5139755940934
 21
248.9999999999835
 31
0.0
  0
LINE
  5
365
330
1F
100
AcDbEntity
  8
LAY-20
  6
CONTINUOUS
 62
     7
100
AcDbLine
 10
459.0000000000139
 20
308.9999999999835
 30
0.0
 11
459.0000000000139
 21
243.9999999999834
 31
0.0
  0
LINE
  5
366
330
1F
100
AcDbEntity
  8
LAY-20
  6
CONTINUOUS
 62
     7
100
AcDbLine
 10
447.2058304731748
 20
308.9999999999835
 30
0.0
 11
445.3729876875032
 21
243.9999999999834
 31
0.0
  0
LINE
  5
367
330
1F
100
AcDbEntity
  8
LAY-20
  6
CONTINUOUS
 62
     7
100
AcDbLine
 10
437.5465722102839
 20
308.9999999999835
 30
0.0
 11
435.7756979985091
 21
243.9999999999834
 31
0.0
  0
LINE
  5
368
330
1F
100
AcDbEntity
  8
LAY-20
  6
CONTINUOUS
 62
     7
100
AcDbLine
 10
435.5536136828912
 20
308.9999999999835
 30
0.0
 11
433.7818777720425
 21
243.9999999999834
 31
0.0
  0
LINE
  5
369
330
1F
100
AcDbEntity
  8
LAY-20
  6
CONTINUOUS
 62
     7
100
AcDbLine
 10
447.2058304731748
 20
308.9999999999835
 30
0.0
 11
460.0000000000139
 21
308.9999999999835
 31
0.0
  0
LINE
  5
36A
330
1F
100
AcDbEntity
  8
LAY-20
  6
CONTINUOUS
 62
     7
100
AcDbLine
 10
433.9181651498
 20
248.9999999999835
 30
0.0
 11
422.4663968648534
 21
248.9999999999835
 31
0.0
  0
LINE
  5
36B
330
1F
100
AcDbEntity
  8
LAY-20
  6
CONTINUOUS
 62
     7
100
AcDbLine
 10
422.2032379208129
 20
243.9999999999834
 30
0.0
 11
425.6243041933378
 21
308.9999999999835
 31
0.0
  0
LINE
  5
36C
330
1F
100
AcDbEntity
  8
LAY-20
  6
CONTINUOUS
 62
     7
100
AcDbLine
 10
413.542983882968
 20
243.9999999999834
 30
0.0
 11
416.9640501554927
 21
308.9999999999835
 31
0.0
  0
LINE
  5
36D
330
1F
100
AcDbEntity
  8
LAY-20
  6
CONTINUOUS
 62
     7
100
AcDbLine
 10
414.1139499308277
 20
308.9999999999835
 30
0.0
 11
410.6912189835207
 21
243.9999999999834
 31
0.0
  0
LINE
  5
36E
330
1F
100
AcDbEntity
  8
LAY-20
  6
CONTINUOUS
 62
     7
100
AcDbLine
 10
425.6243041933378
 20
308.9999999999835
 30
0.0
 11
437.5465722102839
 21
308.9999999999835
 31
0.0
  0
LINE
  5
36F
330
1F
100
AcDbEntity
  8
LAY-20
  6
CONTINUOUS
 62
     7
100
AcDbLine
 10
410.9545059794672
 20
248.9999999999835
 30
0.0
 11
402.2602111386517
 21
248.9999999999835
 31
0.0
  0
LINE
  5
370
330
1F
100
AcDbEntity
  8
LAY-20
  6
CONTINUOUS
 62
     7
100
AcDbLine
 10
406.7261665113139
 20
308.9999999999835
 30
0.0
 11
401.8880481909298
 21
243.9999999999834
 31
0.0
  0
LINE
  5
371
330
1F
100
AcDbEntity
  8
LAY-20
  6
CONTINUOUS
 62
     7
100
AcDbLine
 10
394.8169803790638
 20
243.9999999999834
 30
0.0
 11
399.6550986994451
 21
308.9999999999835
 31
0.0
  0
LINE
  5
372
330
1F
100
AcDbEntity
  8
LAY-20
  6
CONTINUOUS
 62
     7
100
AcDbLine
 10
406.7261665113139
 20
308.9999999999835
 30
0.0
 11
416.9640501554927
 21
308.9999999999835
 31
0.0
  0
LINE
  5
373
330
1F
100
AcDbEntity
  8
LAY-20
  6
CONTINUOUS
 62
     7
100
AcDbLine
 10
391.673957912233
 20
248.9999999999835
 30
0.0
 11
386.3296383409472
 21
248.9999999999835
 31
0.0
  0
LINE
  5
374
330
1F
100
AcDbEntity
  8
LAY-20
  6
CONTINUOUS
 62
     7
100
AcDbLine
 10
385.8738336794031
 20
243.9999999999834
 30
0.0
 11
391.7992942794758
 21
308.9999999999835
 31
0.0
  0
LINE
  5
375
330
1F
100
AcDbEntity
  8
LAY-20
  6
CONTINUOUS
 62
     7
100
AcDbLine
 10
380.8738336794036
 20
243.9999999999834
 30
0.0
 11
386.7992942794759
 21
308.9999999999835
 31
0.0
  0
LINE
  5
376
330
1F
100
AcDbEntity
  8
LAY-20
  6
CONTINUOUS
 62
     7
100
AcDbLine
 10
376.9344319823144
 20
243.9999999999834
 30
0.0
 11
382.8627758836864
 21
308.9999999999835
 31
0.0
  0
LINE
  5
377
330
1F
100
AcDbEntity
  8
LAY-20
  6
CONTINUOUS
 62
     7
100
AcDbLine
 10
377.390458436266
 20
248.9999999999835
 30
0.0
 11
375.7603206813891
 21
248.9999999999835
 31
0.0
  0
LINE
  5
378
330
1F
100
AcDbEntity
  8
LAY-20
  6
CONTINUOUS
 62
     7
100
AcDbLine
 10
391.7992942794758
 20
308.9999999999835
 30
0.0
 11
399.6550986994451
 21
308.9999999999835
 31
0.0
  0
LINE
  5
379
330
1F
100
AcDbEntity
  8
LAY-20
  6
CONTINUOUS
 62
     7
100
AcDbLine
 10
375.2519366404545
 20
243.9999999999834
 30
0.0
 11
381.8609291726091
 21
308.9999999999835
 31
0.0
  0
LINE
  5
37A
330
1F
100
AcDbEntity
  8
LAY-20
  6
CONTINUOUS
 62
     7
100
AcDbLine
 10
372.663746189429
 20
243.9999999999834
 30
0.0
 11
379.2727387215843
 21
308.9999999999835
 31
0.0
  0
LINE
  5
37B
330
1F
100
AcDbEntity
  8
LAY-20
  6
CONTINUOUS
 62
     7
100
AcDbLine
 10
381.8609291726091
 20
308.9999999999835
 30
0.0
 11
386.7992942794759
 21
308.9999999999835
 31
0.0
  0
LINE
  5
37C
330
1F
100
AcDbEntity
  8
LAY-20
  6
CONTINUOUS
 62
     7
100
AcDbLine
 10
370.7462218037707
 20
243.9999999999834
 30
0.0
 11
377.5883543488379
 21
308.9999999999835
 31
0.0
  0
LINE
  5
37D
330
1F
100
AcDbEntity
  8
LAY-20
  6
CONTINUOUS
 62
     7
100
AcDbLine
 10
367.4324950608701
 20
251.9999999999843
 30
0.0
 11
374.9999999999967
 21
323.9999999999835
 31
0.0
  0
LINE
  5
37E
330
1F
100
AcDbEntity
  8
LAY-20
  6
CONTINUOUS
 62
     7
100
AcDbLine
 10
364.0807377657129
 20
251.9999999999823
 30
0.0
 11
364.4006700638976
 21
245.8953280874977
 31
0.0
  0
ARC
  5
37F
330
1F
100
AcDbEntity
  8
LAY-20
  6
CONTINUOUS
 62
     7
100
AcDbCircle
 10
366.3979291334067
 20
245.9999999999835
 30
0.0
 40
2.0
100
AcDbArc
 50
182.9999999999976
 51
270.0000000000001
  0
ARC
  5
380
330
1F
100
AcDbEntity
  8
LAY-20
  6
CONTINUOUS
 62
     7
100
AcDbCircle
 10
465.0000000000098
 20
316.4999999999833
 30
0.0
 40
3.000000000000002
100
AcDbArc
 50
90.00000000000004
 51
270.0000000000001
  0
LINE
  5
381
330
1F
100
AcDbEntity
  8
LAY-20
  6
CONTINUOUS
 62
     7
100
AcDbLine
 10
573.337291039674
 20
245.8953280874977
 30
0.0
 11
573.5000000000095
 21
248.9999999999835
 31
0.0
  0
LINE
  5
382
330
1F
100
AcDbEntity
  8
LAY-20
  6
CONTINUOUS
 62
     7
100
AcDbLine
 10
562.8828176449466
 20
248.9999999999835
 30
0.0
 11
573.5000000000099
 21
248.9999999999835
 31
0.0
  0
LINE
  5
383
330
1F
100
AcDbEntity
  8
LAY-20
  6
CONTINUOUS
 62
     7
100
AcDbLine
 10
550.977966881769
 20
323.9999999999835
 30
0.0
 11
551.5034880580979
 21
318.9999999999785
 31
0.0
  0
LINE
  5
384
330
1F
100
AcDbEntity
  8
LAY-20
  6
CONTINUOUS
 62
     7
100
AcDbLine
 10
552.0290092344261
 20
313.9999999999786
 30
0.0
 11
559.3863057030205
 21
243.9999999999834
 31
0.0
  0
LINE
  5
385
330
1F
100
AcDbEntity
  8
LAY-20
  6
CONTINUOUS
 62
     7
100
AcDbLine
 10
562.8828176449466
 20
248.9999999999835
 30
0.0
 11
556.05104235268
 21
313.9999999999786
 31
0.0
  0
LINE
  5
386
330
1F
100
AcDbEntity
  8
LAY-20
  6
CONTINUOUS
 62
     7
100
AcDbLine
 10
555.5255211763518
 20
318.9999999999785
 30
0.0
 11
555.000000000023
 21
323.9999999999835
 31
0.0
  0
ARC
  5
387
330
1F
100
AcDbEntity
  8
LAY-20
  6
CONTINUOUS
 62
     7
100
AcDbCircle
 10
559.3857492994102
 20
318.2499999999785
 30
0.0
 40
3.500000000000002
100
AcDbArc
 50
38.68218745349622
 51
88.12935826940763
  0
ARC
  5
388
330
1F
100
AcDbEntity
  8
LAY-20
  6
CONTINUOUS
 62
     7
100
AcDbCircle
 10
559.3857492994102
 20
314.7499999999786
 30
0.0
 40
3.500000000000002
100
AcDbArc
 50
271.8706417306037
 51
321.3178125464987
  0
LINE
  5
389
330
1F
100
AcDbEntity
  8
LAY-20
  6
CONTINUOUS
 62
     7
100
AcDbLine
 10
559.5000000000103
 20
311.2518652430785
 30
0.0
 11
559.5000000000103
 21
321.7481347568785
 31
0.0
  0
LINE
  5
38A
330
1F
100
AcDbEntity
  8
LAY-20
  6
CONTINUOUS
 62
     7
100
AcDbLine
 10
563.4713634881103
 20
315.8999999999785
 30
0.0
 11
561.0000000000103
 21
315.8999999999785
 31
0.0
  0
LINE
  5
38B
330
1F
100
AcDbEntity
  8
LAY-20
  6
CONTINUOUS
 62
     7
100
AcDbLine
 10
561.0000000000103
 20
315.8999999999785
 30
0.0
 11
561.0000000000103
 21
317.0999999999785
 31
0.0
  0
LINE
  5
38C
330
1F
100
AcDbEntity
  8
LAY-20
  6
CONTINUOUS
 62
     7
100
AcDbLine
 10
563.4713634881103
 20
317.0999999999785
 30
0.0
 11
561.0000000000103
 21
317.0999999999785
 31
0.0
  0
ARC
  5
38D
330
1F
100
AcDbEntity
  8
LAY-20
  6
CONTINUOUS
 62
     7
100
AcDbCircle
 10
557.2000000000104
 20
316.4999999999787
 30
0.0
 40
6.300000000000002
100
AcDbArc
 50
321.3178125464967
 51
354.5349762000993
  0
ARC
  5
38E
330
1F
100
AcDbEntity
  8
LAY-20
  6
CONTINUOUS
 62
     7
100
AcDbCircle
 10
557.2000000000104
 20
316.4999999999787
 30
0.0
 40
6.300000000000002
100
AcDbArc
 50
5.465023799910213
 51
38.68218745349422
  0
LINE
  5
38F
330
1F
100
AcDbEntity
  8
LAY-20
  6
CONTINUOUS
 62
     7
100
AcDbLine
 10
547.5000000000124
 20
318.9999999999785
 30
0.0
 11
548.0000000000126
 21
319.4999999999787
 31
0.0
  0
LINE
  5
390
330
1F
100
AcDbEntity
  8
LAY-20
  6
CONTINUOUS
 62
     7
100
AcDbLine
 10
547.5000000000124
 20
313.9999999999786
 30
0.0
 11
548.0000000000126
 21
313.4999999999787
 31
0.0
  0
LINE
  5
391
330
1F
100
AcDbEntity
  8
LAY-20
  6
CONTINUOUS
 62
     7
100
AcDbLine
 10
559.5000000000103
 20
319.4999999999787
 30
0.0
 11
548.0000000000126
 21
319.4999999999787
 31
0.0
  0
LINE
  5
392
330
1F
100
AcDbEntity
  8
LAY-20
  6
CONTINUOUS
 62
     7
100
AcDbLine
 10
547.5000000000124
 20
318.9999999999785
 30
0.0
 11
547.5000000000124
 21
313.9999999999786
 31
0.0
  0
LINE
  5
393
330
1F
100
AcDbEntity
  8
LAY-20
  6
CONTINUOUS
 62
     7
100
AcDbLine
 10
559.5000000000103
 20
313.4999999999787
 30
0.0
 11
548.0000000000126
 21
313.4999999999787
 31
0.0
  0
LINE
  5
394
330
1F
100
AcDbEntity
  8
LAY-20
  6
CONTINUOUS
 62
     7
100
AcDbLine
 10
548.0000000000126
 20
313.4999999999787
 30
0.0
 11
548.0000000000126
 21
319.4999999999787
 31
0.0
  0
LINE
  5
395
330
1F
100
AcDbEntity
  8
LAY-20
  6
CONTINUOUS
 62
     7
100
AcDbLine
 10
396.142086397806
 20
308.9999999999835
 30
0.0
 11
391.3016138717687
 21
243.9999999999834
 31
0.0
  0
LINE
  5
396
330
1F
100
AcDbEntity
  8
LAY-20
  6
CONTINUOUS
 62
     7
100
AcDbLine
 10
356.5000000000014
 20
249.0000000001478
 30
0.0
 11
356.342776662161
 21
251.9999999999843
 31
0.0
  0
DIMENSION
  5
397
330
1F
100
AcDbEntity
  8
LAY-20
  6
CONTINUOUS
 62
     4
100
AcDbDimension
  2
*D21
 10
633.50000000001
 20
251.99999999998
 30
0.0
 11
626.00000000001
 21
211.99999999998
 31
0.0
 70
   160
  3
ISO-25
100
AcDbAlignedDimension
 13
573.00000000001
 23
171.99999999998
 33
0.0
 14
596.50000000001
 24
251.99999999998
 34
0.0
 50
90.0
100
AcDbRotatedDimension
1001
ACAD
1000
DSTYLE
1002
{
1070
   270
1070
     2
1070
     6
1000
EX_BNORM
1070
     7
1000
EX_BNORM
1070
    41
1040
7.5
1070
    42
1040
4.5
1070
    44
1040
4.5
1070
    73
1070
     0
1070
    74
1070
     0
1070
    75
1070
     0
1070
    76
1070
     0
1070
    77
1070
     1
1070
    78
1070
     8
1070
   140
1040
9.3543312
1070
   147
1040
0.0
1070
   173
1070
     1
1070
   176
1070
     4
1070
   177
1070
     4
1070
   178
1070
     7
1070
   271
1070
     1
1070
   277
1070
     2
1070
   279
1070
     2
1070
   280
1070
     0
1070
   287
1070
     5
1070
   340
1005
261
1002
}
  0
DIMENSION
  5
3A4
330
1F
100
AcDbEntity
  8
LAY-20
  6
CONTINUOUS
 62
     4
100
AcDbDimension
  2
*D22
 10
633.50000000001
 20
251.99999999998
 30
0.0
 11
626.00000000001
 21
287.99999999998
 31
0.0
 70
   160
  3
ISO-25
100
AcDbAlignedDimension
 13
555.00000000002
 23
323.99999999998
 33
0.0
 14
633.50000000001
 24
251.99999999998
 34
0.0
 50
90.0
100
AcDbRotatedDimension
1001
ACAD
1000
DSTYLE
1002
{
1070
   270
1070
     2
1070
     6
1000
EX_BNORM
1070
     7
1000
EX_BNORM
1070
    41
1040
7.5
1070
    42
1040
4.5
1070
    44
1040
4.5
1070
    73
1070
     0
1070
    74
1070
     0
1070
    75
1070
     0
1070
    76
1070
     1
1070
    77
1070
     1
1070
    78
1070
     8
1070
   140
1040
9.3543312
1070
   147
1040
0.0
1070
   173
1070
     1
1070
   176
1070
     4
1070
   177
1070
     4
1070
   178
1070
     7
1070
   271
1070
     1
1070
   277
1070
     2
1070
   279
1070
     2
1070
   280
1070
     0
1070
   287
1070
     5
1070
   340
1005
261
1002
}
  0
DIMENSION
  5
3B0
330
1F
100
AcDbEntity
  8
LAY-20
  6
CONTINUOUS
 62
     4
100
AcDbDimension
  2
*D23
 10
573.50000000001
 20
374.99999999997
 30
0.0
 11
465.0000000000049
 21
382.49999999997
 31
0.0
 70
   160
  1
%%c<>
  3
ISO-25
100
AcDbAlignedDimension
 13
356.5
 23
248.99999999998
 33
0.0
 14
573.50000000001
 24
248.99999999998
 34
0.0
100
AcDbRotatedDimension
1001
ACAD
1000
DSTYLE
1002
{
1070
   270
1070
     2
1070
     6
1000
EX_BNORM
1070
     7
1000
EX_BNORM
1070
    41
1040
7.5
1070
    42
1040
4.5
1070
    44
1040
4.5
1070
    73
1070
     0
1070
    74
1070
     0
1070
    75
1070
     0
1070
    76
1070
     0
1070
    77
1070
     1
1070
    78
1070
     8
1070
   140
1040
9.3543312
1070
   147
1040
0.0
1070
   173
1070
     1
1070
   176
1070
     4
1070
   177
1070
     4
1070
   178
1070
     7
1070
   271
1070
     1
1070
   277
1070
     2
1070
   279
1070
     2
1070
   280
1070
     0
1070
   287
1070
     5
1070
   340
1005
261
1002
}
  0
LINE
  5
3BD
330
1F
100
AcDbEntity
  8
LAY-20
  6
CENTER
 62
     2
100
AcDbLine
 10
379.1524737966137
 20
535.4359076373638
 30
0.0
 11
395.6093957347787
 21
544.9373159483964
 31
0.0
  0
LINE
  5
3BE
330
1F
100
AcDbEntity
  8
LAY-20
  6
CENTER
 62
     2
100
AcDbLine
 10
550.847526203406
 20
535.4359076373638
 30
0.0
 11
534.390604265241
 21
544.9373159483964
 31
0.0
  0
LINE
  5
3BF
330
1F
100
AcDbEntity
  8
LAY-20
  6
CENTER
 62
     2
100
AcDbLine
 10
460.6000000000099
 20
316.4999999999833
 30
0.0
 11
468.60000000001
 21
316.4999999999833
 31
0.0
  0
LINE
  5
3C0
330
1F
100
AcDbEntity
  8
LAY-20
  6
CENTER
 62
     2
100
AcDbLine
 10
546.2000000000102
 20
316.499999999979
 30
0.0
 11
565.10000000001
 21
316.499999999979
 31
0.0
  0
LINE
  5
3C1
330
1F
100
AcDbEntity
  8
LAY-20
  6
CONTINUOUS
 62
     7
100
AcDbLine
 10
381.9105993423964
 20
539.9150635094505
 30
0.0
 11
385.8377897887668
 21
542.1824279708217
 31
0.0
  0
LINE
  5
3C2
330
1F
100
AcDbEntity
  8
LAY-20
  6
CONTINUOUS
 62
     7
100
AcDbLine
 10
389.3223801815591
 20
544.1942571721156
 30
0.0
 11
392.3029041878079
 21
545.9150635094495
 31
0.0
  0
LINE
  5
3C3
330
1F
100
AcDbEntity
  8
LAY-20
  6
CONTINUOUS
 62
     7
100
AcDbLine
 10
384.4105993423964
 20
535.5849364905283
 30
0.0
 11
388.3377897887675
 21
537.8523009518998
 31
0.0
  0
LINE
  5
3C4
330
1F
100
AcDbEntity
  8
LAY-20
  6
CONTINUOUS
 62
     7
100
AcDbLine
 10
391.8223801815596
 20
539.8641301531937
 30
0.0
 11
394.8029041878079
 21
541.5849364905273
 31
0.0
  0
LINE
  5
3C5
330
1F
100
AcDbEntity
  8
LAY-20
  6
CONTINUOUS
 62
     7
100
AcDbLine
 10
545.5894006576233
 20
535.5849364905276
 30
0.0
 11
541.6622102112517
 21
537.8523009518991
 31
0.0
  0
LINE
  5
3C6
330
1F
100
AcDbEntity
  8
LAY-20
  6
CONTINUOUS
 62
     7
100
AcDbLine
 10
538.1776198184596
 20
539.8641301531931
 30
0.0
 11
535.1970958122116
 21
541.5849364905266
 31
0.0
  0
LINE
  5
3C7
330
1F
100
AcDbEntity
  8
LAY-20
  6
CONTINUOUS
 62
     7
100
AcDbLine
 10
548.0894006576231
 20
539.9150635094495
 30
0.0
 11
544.1622102112525
 21
542.1824279708206
 31
0.0
  0
LINE
  5
3C8
330
1F
100
AcDbEntity
  8
LAY-20
  6
CONTINUOUS
 62
     7
100
AcDbLine
 10
540.67761981846
 20
544.1942571721149
 30
0.0
 11
537.6970958122117
 21
545.9150635094485
 31
0.0
  0
LINE
  5
3C9
330
1F
100
AcDbEntity
  8
LAY-20
  6
CONTINUOUS
 62
     7
100
AcDbLine
 10
462.5000000000106
 20
679.4999999999894
 30
0.0
 11
462.5000000000106
 21
674.96527107724
 31
0.0
  0
LINE
  5
3CA
330
1F
100
AcDbEntity
  8
LAY-20
  6
CONTINUOUS
 62
     7
100
AcDbLine
 10
462.5000000000106
 20
670.9416126746514
 30
0.0
 11
462.5000000000106
 21
667.4999999999915
 31
0.0
  0
LINE
  5
3CB
330
1F
100
AcDbEntity
  8
LAY-20
  6
CONTINUOUS
 62
     7
100
AcDbLine
 10
467.5000000000105
 20
679.4999999999894
 30
0.0
 11
467.5000000000105
 21
674.96527107724
 31
0.0
  0
LINE
  5
3CC
330
1F
100
AcDbEntity
  8
LAY-20
  6
CONTINUOUS
 62
     7
100
AcDbLine
 10
467.5000000000105
 20
670.9416126746514
 30
0.0
 11
467.5000000000105
 21
667.4999999999915
 31
0.0
  0
LINE
  5
3CD
330
1F
100
AcDbEntity
  8
LAY-20
  6
HIDDEN
 62
     7
100
AcDbLine
 10
377.4454695892661
 20
308.9999999999835
 30
0.0
 11
373.4234364710121
 21
308.9999999999835
 31
0.0
  0
ARC
  5
3CE
330
1F
100
AcDbEntity
  8
LAY-20
  6
CONTINUOUS
 62
     7
100
AcDbCircle
 10
465.0000000000098
 20
316.4999999999833
 30
0.0
 40
2.5
100
AcDbArc
 50
90.00000000000001
 51
270.0000000000002
  0
LINE
  5
3CF
330
1F
100
AcDbEntity
  8
LAY-20
  6
CONTINUOUS
 62
     7
100
AcDbLine
 10
559.5000000000103
 20
318.9999999999785
 30
0.0
 11
547.5000000000124
 21
318.9999999999785
 31
0.0
  0
LINE
  5
3D0
330
1F
100
AcDbEntity
  8
LAY-20
  6
CONTINUOUS
 62
     7
100
AcDbLine
 10
559.5000000000103
 20
313.9999999999786
 30
0.0
 11
547.5000000000124
 21
313.9999999999786
 31
0.0
  0
LINE
  5
3D1
330
1F
100
AcDbEntity
  8
LAY-255
  6
CONTINUOUS
 62
     7
100
AcDbLine
 10
1155.0
 20
66.0
 30
0.0
 11
855.0
 21
66.0
 31
0.0
  0
LINE
  5
3D2
330
1F
100
AcDbEntity
  8
LAY-255
  6
CONTINUOUS
 62
     7
100
AcDbLine
 10
866.4000000000001
 20
48.0
 30
0.0
 11
890.4000000000001
 21
63.0
 31
0.0
  0
LINE
  5
3D3
330
1F
100
AcDbEntity
  8
LAY-255
  6
CONTINUOUS
 62
     7
100
AcDbLine
 10
890.4000000000001
 20
63.0
 30
0.0
 11
914.4000000000001
 21
48.0
 31
0.0
  0
LINE
  5
3D4
330
1F
100
AcDbEntity
  8
LAY-255
  6
CONTINUOUS
 62
     7
100
AcDbLine
 10
914.4000000000001
 20
48.0
 30
0.0
 11
890.4000000000001
 21
33.0
 31
0.0
  0
LINE
  5
3D5
330
1F
100
AcDbEntity
  8
LAY-255
  6
CONTINUOUS
 62
     7
100
AcDbLine
 10
890.4000000000001
 20
33.0
 30
0.0
 11
866.4000000000001
 21
48.0
 31
0.0
  0
LINE
  5
3D6
330
1F
100
AcDbEntity
  8
LAY-255
  6
CONTINUOUS
 62
     7
100
AcDbLine
 10
15.0
 20
30.0
 30
0.0
 11
1155.0
 21
30.0
 31
0.0
  0
LINE
  5
3D7
330
1F
100
AcDbEntity
  8
LAY-255
  6
CONTINUOUS
 62
     7
100
AcDbLine
 10
15.0
 20
840.0
 30
0.0
 11
1155.0
 21
840.0
 31
0.0
  0
LINE
  5
3D8
330
1F
100
AcDbEntity
  8
LAY-255
  6
CONTINUOUS
 62
     7
100
AcDbLine
 10
15.0
 20
30.0
 30
0.0
 11
15.0
 21
840.0
 31
0.0
  0
LINE
  5
3D9
330
1F
100
AcDbEntity
  8
LAY-255
  6
CONTINUOUS
 62
     7
100
AcDbLine
 10
1155.0
 20
30.0
 30
0.0
 11
1155.0
 21
840.0
 31
0.0
  0
LINE
  5
3DA
330
1F
100
AcDbEntity
  8
LAY-255
  6
CONTINUOUS
 62
     4
100
AcDbLine
 10
855.0
 20
84.0
 30
0.0
 11
1155.0
 21
84.0
 31
0.0
  0
LINE
  5
3DB
330
1F
100
AcDbEntity
  8
LAY-255
  6
CONTINUOUS
 62
     7
100
AcDbLine
 10
855.0
 20
30.0
 30
0.0
 11
855.0
 21
201.0
 31
0.0
  0
LINE
  5
3DC
330
1F
100
AcDbEntity
  8
LAY-255
  6
CONTINUOUS
 62
     4
100
AcDbLine
 10
1005.0
 20
84.0
 30
0.0
 11
1005.0
 21
66.0
 31
0.0
  0
LINE
  5
3DD
330
1F
100
AcDbEntity
  8
LAY-255
  6
CONTINUOUS
 62
     7
100
AcDbLine
 10
1155.0
 20
201.0
 30
0.0
 11
855.0
 21
201.0
 31
0.0
  0
LINE
  5
3DE
330
1F
100
AcDbEntity
  8
LAY-255
  6
CONTINUOUS
 62
     4
100
AcDbLine
 10
1149.0
 20
165.0
 30
0.0
 11
861.0
 21
165.0
 31
0.0
  0
LINE
  5
3DF
330
1F
100
AcDbEntity
  8
LAY-255
  6
CONTINUOUS
 62
     4
100
AcDbLine
 10
1149.0
 20
183.0
 30
0.0
 11
861.0
 21
183.0
 31
0.0
  0
POINT
  5
3E0
330
1F
100
AcDbEntity
  8
LAY-255
  6
CONTINUOUS
 62
     7
100
AcDbPoint
 10
867.0
 20
150.0
 30
0.0
  0
POINT
  5
3E1
330
1F
100
AcDbEntity
  8
LAY-255
  6
CONTINUOUS
 62
     7
100
AcDbPoint
 10
900.0
 20
168.0
 30
0.0
  0
POINT
  5
3E2
330
1F
100
AcDbEntity
  8
LAY-255
  6
CONTINUOUS
 62
     7
100
AcDbPoint
 10
900.0
 20
186.0
 30
0.0
  0
POINT
  5
3E3
330
1F
100
AcDbEntity
  8
LAY-255
  6
CONTINUOUS
 62
     7
100
AcDbPoint
 10
867.0
 20
120.0
 30
0.0
  0
POINT
  5
3E4
330
1F
100
AcDbEntity
  8
LAY-255
  6
CONTINUOUS
 62
     7
100
AcDbPoint
 10
867.0
 20
135.0
 30
0.0
  0
POINT
  5
3E5
330
1F
100
AcDbEntity
  8
LAY-255
  6
CONTINUOUS
 62
     7
100
AcDbPoint
 10
867.0
 20
105.0
 30
0.0
  0
POINT
  5
3E6
330
1F
100
AcDbEntity
  8
LAY-255
  6
CONTINUOUS
 62
     7
100
AcDbPoint
 10
867.0
 20
89.99999999999996
 30
0.0
  0
TEXT
  5
3E7
330
1F
100
AcDbEntity
  8
LAY-255
  6
CONTINUOUS
 62
     7
100
AcDbText
 10
924.415136826172
 20
46.63125
 30
0.0
 40
15.46875
  1
福西鋳物株式会社
 41
1.342692141742901
  7
EXCADSTD
100
AcDbText
  0
TEXT
  5
3E8
330
1F
100
AcDbEntity
  8
LAY-255
  6
CONTINUOUS
 62
     7
100
AcDbText
 10
925.528125
 20
35.94375
 30
0.0
 40
5.15625
  1
ＦＵＫＵＮＩＳＨＩ
 41
1.204799226045263
  7
EXCADSTD
100
AcDbText
  0
TEXT
  5
3E9
330
1F
100
AcDbEntity
  8
LAY-255
  6
CONTINUOUS
 62
     7
100
AcDbText
 10
998.1575892857143
 20
35.94375
 30
0.0
 40
5.15625
  1
ＦＯＵＮＤＲＹ
 41
1.243252752978497
  7
EXCADSTD
100
AcDbText
  0
TEXT
  5
3EA
330
1F
100
AcDbEntity
  8
LAY-255
  6
CONTINUOUS
 62
     7
100
AcDbText
 10
1055.983774651442
 20
35.94375
 30
0.0
 40
5.15625
  1
ＣＯ.,ＬＴＤ.
 41
1.243831271314936
  7
EXCADSTD
100
AcDbText
  0
TEXT
  5
3EB
330
1F
100
AcDbEntity
  8
LAY-255
  6
CONTINUOUS
 62
     7
100
AcDbText
 10
882.1031250000001
 20
41.15625
 30
0.0
 40
15.46875
  1
S
 41
0.7582677563636363
  7
EXCADSTD
100
AcDbText
  0
TEXT
  5
3EC
330
1F
100
AcDbEntity
  8
LAY-255
  6
CONTINUOUS
 62
     7
100
AcDbText
 10
891.3140625000001
 20
41.24823113208
 30
0.0
 40
15.46875
  1
F
 41
0.7440945272727273
  7
EXCADSTD
100
AcDbText
  0
TEXT
  5
3ED
330
1F
100
AcDbEntity
  8
LAY-255
  6
CONTINUOUS
 62
     7
100
AcDbText
 10
1011.31640625
 20
73.26562499999997
 30
0.0
 40
7.734375
  1
縮尺
 41
1.080708718181818
  7
EXCADSTD
100
AcDbText
  0
TEXT
  5
3EE
330
1F
100
AcDbEntity
  8
LAY-255
  6
CONTINUOUS
 62
     7
100
AcDbText
 10
861.796875
 20
169.6875
 30
0.0
 40
10.3125
  1
型式
 41
1.056348480681818
  7
EXCADSTD
100
AcDbText
  0
TEXT
  5
3EF
330
1F
100
AcDbEntity
  8
LAY-255
  6
CONTINUOUS
 62
     7
100
AcDbText
 10
862.265625
 20
187.6875
 30
0.0
 40
10.3125
  1
品名
 41
0.978838634090909
  7
EXCADSTD
100
AcDbText
  0
TEXT
  5
3F0
330
1F
100
AcDbEntity
  8
LAY-255
  6
CONTINUOUS
 62
     7
100
AcDbText
 10
861.45703125
 20
73.26562499999997
 30
0.0
 40
7.734375
  1
作成日
 41
1.000629973818182
  7
EXCADSTD
100
AcDbText
  0
TEXT
  5
3F1
330
1F
100
AcDbEntity
  8
LAY-255
  6
CONTINUOUS
 62
     7
100
AcDbText
 10
1044.84375
 20
70.68749999999997
 30
0.0
 40
10.3125
  1
１：３
 41
0.8844094952727272
  7
EXCADSTD
100
AcDbText
  0
TEXT
  5
3F2
330
1F
100
AcDbEntity
  8
LAY-255
  6
CONTINUOUS
 62
     7
100
AcDbText
 10
867.5625
 20
121.6875
 30
0.0
 40
10.3125
  1
施工：打込用
 41
1.018700840909091
  7
EXCADSTD
100
AcDbText
  0
TEXT
  5
3F3
330
1F
100
AcDbEntity
  8
LAY-255
  6
CONTINUOUS
 62
     7
100
AcDbText
 10
900.75
 20
187.6875
 30
0.0
 40
10.3125
  1
ルーフドレイン
 41
1.021169538599106
  7
EXCADSTD
100
AcDbText
  0
TEXT
  5
3F4
330
1F
100
AcDbEntity
  8
LAY-255
  6
CONTINUOUS
 62
     7
100
AcDbText
 10
867.65625
 20
106.6875
 30
0.0
 40
10.3125
  1
接続：差込用
 41
1.01733803041958
  7
EXCADSTD
100
AcDbText
  0
TEXT
  5
3F5
330
1F
100
AcDbEntity
  8
LAY-255
  6
CONTINUOUS
 62
     7
100
AcDbText
 10
868.125
 20
151.6875000000001
 30
0.0
 40
10.3125
  1
防水：モルタル・塗膜防水兼用
 41
1.008985320967742
  7
EXCADSTD
100
AcDbText
  0
TEXT
  5
3F6
330
1F
100
AcDbEntity
  8
LAY-255
  6
CONTINUOUS
 62
     7
100
AcDbText
 10
867.703125
 20
136.6875
 30
0.0
 40
10.3125
  1
用途：中継用
 41
1.016656625174825
  7
EXCADSTD
100
AcDbText
  0
TEXT
  5
3F7
330
1F
100
AcDbEntity
  8
LAY-255
  6
CONTINUOUS
 62
     7
100
AcDbText
 10
902.625
 20
169.6875
 30
0.0
 40
10.3125
  1
ＲＣＸ－１０１５０型
 41
1.000581655991735
  7
EXCADSTD
100
AcDbText
  0
TEXT
  5
3F8
330
1F
100
AcDbEntity
  8
LAY-255
  6
CONTINUOUS
 62
     7
100
AcDbText
 10
902.671875
 20
70.68749999999997
 30
0.0
 40
10.3125
  1
０８／０９／０３
 41
0.9764342470129869
  7
EXCADSTD
100
AcDbText
  0
ENDSEC
  0
SECTION
  2
OBJECTS
  0
DICTIONARY
  5
C
330
0
100
AcDbDictionary
  3
ACAD_GROUP
350
D
  3
ACAD_LAYOUT
350
1A
  3
ACAD_MATERIAL
350
43
  3
ACAD_MLEADERSTYLE
350
6B
  3
ACAD_MLINESTYLE
350
17
  3
ACAD_PLOTSETTINGS
350
19
  3
ACAD_SCALELIST
350
47
  3
ACAD_VISUALSTYLE
350
2A
  3
ACDBHEADERROUNDTRIPXREC
350
3F9
  3
ACDBVARIABLEDICTIONARY
350
41A
  0
DICTIONARY
  5
425
330
8
100
AcDbDictionary
280
     1
  3
ACAD_XREC_ROUNDTRIP
360
426
  0
DICTIONARY
  5
D
102
{ACAD_REACTORS
330
C
102
}
330
C
100
AcDbDictionary
  0
DICTIONARY
  5
1A
102
{ACAD_REACTORS
330
C
102
}
330
C
100
AcDbDictionary
  0
DICTIONARY
  5
43
102
{ACAD_REACTORS
330
C
102
}
330
C
100
AcDbDictionary
  3
BYBLOCK
350
45
  3
BYLAYER
350
44
  3
GLOBAL
350
46
  0
DICTIONARY
  5
6B
102
{ACAD_REACTORS
330
C
102
}
330
C
100
AcDbDictionary
  3
STANDARD
350
6C
  0
DICTIONARY
  5
17
102
{ACAD_REACTORS
330
C
102
}
330
C
100
AcDbDictionary
  3
STANDARD
350
18
  0
DICTIONARY
  5
19
102
{ACAD_REACTORS
330
C
102
}
330
C
100
AcDbDictionary
  0
DICTIONARY
  5
47
102
{ACAD_REACTORS
330
C
102
}
330
C
100
AcDbDictionary
  3
A0
350
48
  3
A1
350
49
  3
A2
350
4A
  3
A3
350
4B
  3
A4
350
4C
  3
A5
350
4D
  3
A6
350
4E
  3
A7
350
4F
  3
A8
350
50
  3
A9
350
51
  3
B0
350
52
  3
B1
350
53
  3
B2
350
54
  3
B3
350
55
  3
B4
350
56
  3
B5
350
57
  3
B6
350
58
  3
B7
350
59
  3
B8
350
5A
  3
B9
350
5B
  3
C0
350
5C
  3
C1
350
5D
  3
C2
350
5E
  3
C3
350
5F
  3
C4
350
60
  3
C5
350
61
  3
C6
350
62
  3
C7
350
63
  3
C8
350
64
  3
C9
350
65
  3
D0
350
66
  3
D1
350
67
  3
D2
350
68
  0
DICTIONARY
  5
2A
102
{ACAD_REACTORS
330
C
102
}
330
C
100
AcDbDictionary
  3
2DWIREFRAME
350
2F
  3
BASIC
350
32
  3
BRIGHTEN
350
36
  3
COLORCHANGE
350
3A
  3
CONCEPTUAL
350
34
  3
DIM
350
35
  3
EDGECOLOROFF
350
3D
  3
FACEPATTERN
350
39
  3
FLAT
350
2B
  3
FLATWITHEDGES
350
2C
  3
GOURAUD
350
2D
  3
GOURAUDWITHEDGES
350
2E
  3
HIDDEN
350
31
  3
JITTEROFF
350
3B
  3
LINEPATTERN
350
38
  3
OVERHANGOFF
350
3C
  3
REALISTIC
350
33
  3
SHADED
350
42
  3
SHADED_WITH_EDGES
350
41
  3
SHADES_OF_GRAY
350
3E
  3
SKETCHY
350
3F
  3
THICKEN
350
37
  3
WIREFRAME
350
30
  3
X-RAY
350
40
  0
DICTIONARY
  5
3F9
102
{ACAD_REACTORS
330
C
102
}
330
C
100
AcDbDictionary
  3
CEPSNID
350
403
  3
CEPSNTYPE
350
402
  3
DIMSTYLEDATA
350
419
  3
FINGERPRINTGUID
350
404
  3
HYPERLINKBASE
350
3FC
  3
INSUNITS
350
401
  3
LAYOUTDICT
350
3FE
  3
LWETCUNION
350
400
  3
PLOTSETDICT
350
3FF
  3
PSVPSCALE
350
406
  3
PUCSBASE
350
409
  3
PUCSORGBACK
350
40F
  3
PUCSORGBOTTOM
350
40B
  3
PUCSORGFRONT
350
40E
  3
PUCSORGLEFT
350
40C
  3
PUCSORGRIGHT
350
40D
  3
PUCSORGTOP
350
40A
  3
PUCSORTHOREF
350
407
  3
PUCSORTHOVIEW
350
408
  3
STYLESHEET
350
3FD
  3
TSTACKALIGN
350
3FA
  3
TSTACKSIZE
350
3FB
  3
UCSBASE
350
412
  3
UCSORGBACK
350
418
  3
UCSORGBOTTOM
350
414
  3
UCSORGFRONT
350
417
  3
UCSORGLEFT
350
415
  3
UCSORGRIGHT
350
416
  3
UCSORGTOP
350
413
  3
UCSORTHOREF
350
410
  3
UCSORTHOVIEW
350
411
  3
VERSIONGUID
350
405
  0
DICTIONARY
  5
41A
102
{ACAD_REACTORS
330
C
102
}
330
C
100
AcDbDictionary
  3
CANNOSCALE
350
427
  3
CENTEREXE
350
421
  3
CENTERLTYPEFILE
350
422
  3
CMLEADERSTYLE
350
41C
  3
CTABLESTYLE
350
41B
  3
DIMASSOC
350
423
  3
HIDETEXT
350
424
  3
MSLTSCALE
350
428
  3
PSOLHEIGHT
350
41E
  3
PSOLWIDTH
350
41D
  0
XRECORD
  5
426
102
{ACAD_REACTORS
330
425
102
}
330
425
100
AcDbXrecord
102
VTR_0.000_0.000_1.000_1.000_VISUALSTYLE
340
2F
102
VTR_0.000_0.000_1.000_1.000_GRIDDISPLAY
 70
     3
102
VTR_0.000_0.000_1.000_1.000_GRIDMAJOR
 70
     5
102
VTR_0.000_0.000_1.000_1.000_DEFAULTLIGHTING
280
     1
102
VTR_0.000_0.000_1.000_1.000_DEFAULTLIGHTINGTYPE
 70
     1
102
VTR_0.000_0.000_1.000_1.000_BRIGHTNESS
141
0.0
102
VTR_0.000_0.000_1.000_1.000_CONTRAST
142
0.0
  0
MATERIAL
  5
45
102
{ACAD_REACTORS
330
43
102
}
102
{ACAD_XDICTIONARY
360
42B
102
}
330
43
100
AcDbMaterial
  1
BYBLOCK
  0
MATERIAL
  5
44
102
{ACAD_REACTORS
330
43
102
}
102
{ACAD_XDICTIONARY
360
429
102
}
330
43
100
AcDbMaterial
  1
BYLAYER
  0
MATERIAL
  5
46
102
{ACAD_REACTORS
330
43
102
}
102
{ACAD_XDICTIONARY
360
42D
102
}
330
43
100
AcDbMaterial
  1
GLOBAL
  0
ACAD_PROXY_OBJECT
  5
6C
102
{ACAD_REACTORS
330
6B
102
}
330
6B
100
AcDbProxyObject
 90
      499
 91
      505
 93
      610
310
40901902A4063FBFFFFFE0000000000000020400000000000020404214DD185B99185C990000000000000104090141901A00000000000004100000000000000041025764000000000000039000
340
14
340
0
340
11
340
0
 94
        0
1001
ACAD_MLEADERVER
1070
     2
  0
MLINESTYLE
  5
18
102
{ACAD_REACTORS
330
17
102
}
330
17
100
AcDbMlineStyle
  2
Standard
 70
     0
  3

 62
   256
 51
90.0
 52
90.0
 71
     2
 49
0.5
 62
   256
  6
BYLAYER
 49
-0.5
 62
   256
  6
BYLAYER
  0
ACAD_PROXY_OBJECT
  5
48
102
{ACAD_REACTORS
330
47
102
}
330
47
100
AcDbProxyObject
 90
      499
 91
      503
 93
       41
310
903313A31580
  0
ACAD_PROXY_OBJECT
  5
49
102
{ACAD_REACTORS
330
47
102
}
330
47
100
AcDbProxyObject
 90
      499
 91
      503
 93
      105
310
903313A324000000000000004000
  0
ACAD_PROXY_OBJECT
  5
4A
102
{ACAD_REACTORS
330
47
102
}
330
47
100
AcDbProxyObject
 90
      499
 91
      503
 93
      105
310
903313A344000000000000104000
  0
ACAD_PROXY_OBJECT
  5
4B
102
{ACAD_REACTORS
330
47
102
}
330
47
100
AcDbProxyObject
 90
      499
 91
      503
 93
      105
310
903313A354000000000000144000
  0
ACAD_PROXY_OBJECT
  5
4C
102
{ACAD_REACTORS
330
47
102
}
330
47
100
AcDbProxyObject
 90
      499
 91
      503
 93
      105
310
903313A384000000000000204000
  0
ACAD_PROXY_OBJECT
  5
4D
102
{ACAD_REACTORS
330
47
102
}
330
47
100
AcDbProxyObject
 90
      499
 91
      503
 93
      113
310
904313A31304000000000000244000
  0
ACAD_PROXY_OBJECT
  5
4E
102
{ACAD_REACTORS
330
47
102
}
330
47
100
AcDbProxyObject
 90
      499
 91
      503
 93
      113
310
904313A31364000000000000304000
  0
ACAD_PROXY_OBJECT
  5
4F
102
{ACAD_REACTORS
330
47
102
}
330
47
100
AcDbProxyObject
 90
      499
 91
      503
 93
      113
310
904313A32304000000000000344000
  0
ACAD_PROXY_OBJECT
  5
50
102
{ACAD_REACTORS
330
47
102
}
330
47
100
AcDbProxyObject
 90
      499
 91
      503
 93
      113
310
904313A333040000000000003E4000
  0
ACAD_PROXY_OBJECT
  5
51
102
{ACAD_REACTORS
330
47
102
}
330
47
100
AcDbProxyObject
 90
      499
 91
      503
 93
      113
310
904313A34304000000000000444000
  0
ACAD_PROXY_OBJECT
  5
52
102
{ACAD_REACTORS
330
47
102
}
330
47
100
AcDbProxyObject
 90
      499
 91
      503
 93
      113
310
904313A35304000000000000494000
  0
ACAD_PROXY_OBJECT
  5
53
102
{ACAD_REACTORS
330
47
102
}
330
47
100
AcDbProxyObject
 90
      499
 91
      503
 93
      121
310
905313A3130304000000000000594000
  0
ACAD_PROXY_OBJECT
  5
54
102
{ACAD_REACTORS
330
47
102
}
330
47
100
AcDbProxyObject
 90
      499
 91
      503
 93
      105
310
903323A310000000000000010100
  0
ACAD_PROXY_OBJECT
  5
55
102
{ACAD_REACTORS
330
47
102
}
330
47
100
AcDbProxyObject
 90
      499
 91
      503
 93
      105
310
903343A310000000000000410100
  0
ACAD_PROXY_OBJECT
  5
56
102
{ACAD_REACTORS
330
47
102
}
330
47
100
AcDbProxyObject
 90
      499
 91
      503
 93
      105
310
903383A310000000000000810100
  0
ACAD_PROXY_OBJECT
  5
57
102
{ACAD_REACTORS
330
47
102
}
330
47
100
AcDbProxyObject
 90
      499
 91
      503
 93
      113
310
90431303A310000000000000910100
  0
ACAD_PROXY_OBJECT
  5
58
102
{ACAD_REACTORS
330
47
102
}
330
47
100
AcDbProxyObject
 90
      499
 91
      503
 93
      121
310
9053130303A310000000000001650100
  0
ACAD_PROXY_OBJECT
  5
59
102
{ACAD_REACTORS
330
47
102
}
330
47
100
AcDbProxyObject
 90
      499
 91
      503
 93
      257
310
90E312F31323822203D2031272D3022000000000000200FC000000000000284000
  0
ACAD_PROXY_OBJECT
  5
5A
102
{ACAD_REACTORS
330
47
102
}
330
47
100
AcDbProxyObject
 90
      499
 91
      503
 93
      249
310
90D312F363422203D2031272D3022000000000000240FC000000000000284000
  0
ACAD_PROXY_OBJECT
  5
5B
102
{ACAD_REACTORS
330
47
102
}
330
47
100
AcDbProxyObject
 90
      499
 91
      503
 93
      249
310
90D312F333222203D2031272D3022000000000000280FC000000000000284000
  0
ACAD_PROXY_OBJECT
  5
5C
102
{ACAD_REACTORS
330
47
102
}
330
47
100
AcDbProxyObject
 90
      499
 91
      503
 93
      249
310
90D312F313622203D2031272D30220000000000002C0FC000000000000284000
  0
ACAD_PROXY_OBJECT
  5
5D
102
{ACAD_REACTORS
330
47
102
}
330
47
100
AcDbProxyObject
 90
      499
 91
      503
 93
      249
310
90D332F333222203D2031272D30220000000000002E0FC000000000000284000
  0
ACAD_PROXY_OBJECT
  5
5E
102
{ACAD_REACTORS
330
47
102
}
330
47
100
AcDbProxyObject
 90
      499
 91
      503
 93
      241
310
90C312F3822203D2031272D3022000000000000300FC000000000000284000
  0
ACAD_PROXY_OBJECT
  5
5F
102
{ACAD_REACTORS
330
47
102
}
330
47
100
AcDbProxyObject
 90
      499
 91
      503
 93
      249
310
90D332F313622203D2031272D3022000000000000320FC000000000000284000
  0
ACAD_PROXY_OBJECT
  5
60
102
{ACAD_REACTORS
330
47
102
}
330
47
100
AcDbProxyObject
 90
      499
 91
      503
 93
      241
310
90C312F3422203D2031272D3022000000000000340FC000000000000284000
  0
ACAD_PROXY_OBJECT
  5
61
102
{ACAD_REACTORS
330
47
102
}
330
47
100
AcDbProxyObject
 90
      499
 91
      503
 93
      241
310
90C332F3822203D2031272D3022000000000000360FC000000000000284000
  0
ACAD_PROXY_OBJECT
  5
62
102
{ACAD_REACTORS
330
47
102
}
330
47
100
AcDbProxyObject
 90
      499
 91
      503
 93
      241
310
90C312F3222203D2031272D3022000000000000380FC000000000000284000
  0
ACAD_PROXY_OBJECT
  5
63
102
{ACAD_REACTORS
330
47
102
}
330
47
100
AcDbProxyObject
 90
      499
 91
      503
 93
      241
310
90C332F3422203D2031272D30220000000000003A0FC000000000000284000
  0
ACAD_PROXY_OBJECT
  5
64
102
{ACAD_REACTORS
330
47
102
}
330
47
100
AcDbProxyObject
 90
      499
 91
      503
 93
      161
310
90A3122203D2031272D30224000000000000284000
  0
ACAD_PROXY_OBJECT
  5
65
102
{ACAD_REACTORS
330
47
102
}
330
47
100
AcDbProxyObject
 90
      499
 91
      503
 93
      257
310
90E312D312F3222203D2031272D30220000000000003E0FC000000000000284000
  0
ACAD_PROXY_OBJECT
  5
66
102
{ACAD_REACTORS
330
47
102
}
330
47
100
AcDbProxyObject
 90
      499
 91
      503
 93
      225
310
90A3322203D2031272D302200000000000002100000000000000284000
  0
ACAD_PROXY_OBJECT
  5
67
102
{ACAD_REACTORS
330
47
102
}
330
47
100
AcDbProxyObject
 90
      499
 91
      503
 93
      225
310
90A3622203D2031272D302200000000000006100000000000000284000
  0
ACAD_PROXY_OBJECT
  5
68
102
{ACAD_REACTORS
330
47
102
}
330
47
100
AcDbProxyObject
 90
      499
 91
      503
 93
      249
310
90D31272D3022203D2031272D30220000000000000A100000000000000284000
  0
ACAD_PROXY_OBJECT
  5
2F
102
{ACAD_REACTORS
330
2A
102
}
330
2A
100
AcDbProxyObject
 90
      499
 91
      501
 93
      436
310
42CC9915DA5C99599C985B595049028333333333333E33F0000000000000F90107901411070040501600405405064090741402480A0340
1001
ACAD
1000
AcDbSavedByObjectVersion
1070
     0
  0
ACAD_PROXY_OBJECT
  5
32
102
{ACAD_REACTORS
330
2A
102
}
330
2A
100
AcDbProxyObject
 90
      499
 91
      501
 93
      388
310
4150985CDA58D07406404333333333333E33F0000000000000F90107A41107004050150841D405064090741402480A0350
1001
ACAD
1000
AcDbSavedByObjectVersion
1070
     0
  0
ACAD_PROXY_OBJECT
  5
36
102
{ACAD_REACTORS
330
2A
102
}
330
2A
100
AcDbProxyObject
 90
      499
 91
      501
 93
      428
310
42109C9A59DA1D195B90C409028333333333333E33F0000000000000F9010790141107004050150841D405064090741402480A029950
1001
ACAD
1000
AcDbSavedByObjectVersion
1070
     0
  0
ACAD_PROXY_OBJECT
  5
3A
102
{ACAD_REACTORS
330
2A
102
}
330
2A
100
AcDbProxyObject
 90
      499
 91
      501
 93
      452
310
42D0DBDB1BDC90DA185B99D95104090240C333333333333E33F0000000000000F90108901411070040501508421405064090741402480A0350
1001
ACAD
1000
AcDbSavedByObjectVersion
1070
     0
  0
ACAD_PROXY_OBJECT
  5
34
102
{ACAD_REACTORS
330
2A
102
}
330
2A
100
AcDbProxyObject
 90
      499
 91
      501
 93
      500
310
4290DBDB98D95C1D1D585B10940D028333333333333E33F0000000000000F90107902409070040501000000000018199010841D405064090740C02480A0340
1001
ACAD
1000
AcDbSavedByObjectVersion
1070
     0
  0
ACAD_PROXY_OBJECT
  5
35
102
{ACAD_REACTORS
330
2A
102
}
330
2A
100
AcDbProxyObject
 90
      499
 91
      501
 93
      412
310
40D11A5B50B409028333333333333E33F0000000000000F9010790141107004050150841D405064090741402480A02677FFFFFD0
1001
ACAD
1000
AcDbSavedByObjectVersion
1070
     0
  0
ACAD_PROXY_OBJECT
  5
3D
102
{ACAD_REACTORS
330
2A
102
}
330
2A
100
AcDbProxyObject
 90
      499
 91
      501
 93
      452
310
43115919D950DBDB1BDC93D999916409028333333333333E33F0000000000000F9010790141107004050150841D405064090741402480A0350
1001
ACAD
1000
AcDbSavedByObjectVersion
1070
     0
  0
ACAD_PROXY_OBJECT
  5
39
102
{ACAD_REACTORS
330
2A
102
}
330
2A
100
AcDbProxyObject
 90
      499
 91
      501
 93
      444
310
42D19858D95C185D1D195C9B90F409028333333333333E33F0000000000000F9010790141107004050150841D405064090741402480A0350
1001
ACAD
1000
AcDbSavedByObjectVersion
1070
     0
  0
ACAD_PROXY_OBJECT
  5
2B
102
{ACAD_REACTORS
330
2A
102
}
330
2A
100
AcDbProxyObject
 90
      499
 91
      501
 93
      380
310
41119B185D240901404333333333333E33F0000000000000F9010740A907004050150841D405064090741402480A1B50
1001
ACAD
1000
AcDbSavedByObjectVersion
1070
     0
  0
ACAD_PROXY_OBJECT
  5
2C
102
{ACAD_REACTORS
330
2A
102
}
330
2A
100
AcDbProxyObject
 90
      499
 91
      501
 93
      468
310
43519B185D15DA5D1A115919D95CD0140901404333333333333E33F0000000000000F90107409019070040501600405405064090741402480A1B50
1001
ACAD
1000
AcDbSavedByObjectVersion
1070
     0
  0
ACAD_PROXY_OBJECT
  5
2D
102
{ACAD_REACTORS
330
2A
102
}
330
2A
100
AcDbProxyObject
 90
      499
 91
      501
 93
      404
310
41D1DBDD5C985D5910240902404333333333333E33F0000000000000F9010740A9070040501641D405064090741402480A1B50
1001
ACAD
1000
AcDbSavedByObjectVersion
1070
     0
  0
ACAD_PROXY_OBJECT
  5
2E
102
{ACAD_REACTORS
330
2A
102
}
330
2A
100
AcDbProxyObject
 90
      499
 91
      501
 93
      492
310
4411DBDD5C985D5915DA5D1A115919D95CD0340902404333333333333E33F0000000000000F90107409019070040501600405405064090741402480A1B50
1001
ACAD
1000
AcDbSavedByObjectVersion
1070
     0
  0
ACAD_PROXY_OBJECT
  5
31
102
{ACAD_REACTORS
330
2A
102
}
330
2A
100
AcDbProxyObject
 90
      499
 91
      501
 93
      476
310
41921A5919195B90640502408333333333333E33F0000000000000F901079024090700405020000000000001110200405405064090740C02480A0340
1001
ACAD
1000
AcDbSavedByObjectVersion
1070
     0
  0
ACAD_PROXY_OBJECT
  5
3B
102
{ACAD_REACTORS
330
2A
102
}
330
2A
100
AcDbProxyObject
 90
      499
 91
      501
 93
      428
310
42529A5D1D195C93D999914409028333333333333E33F0000000000000F9010790141107004050150A41D405064090741402480A0350
1001
ACAD
1000
AcDbSavedByObjectVersion
1070
     0
  0
ACAD_PROXY_OBJECT
  5
38
102
{ACAD_REACTORS
330
2A
102
}
330
2A
100
AcDbProxyObject
 90
      499
 91
      501
 93
      444
310
42D31A5B995C185D1D195C9B90E409028333333333333E33F0000000000000F9010790141107004050750841D405064090741402483A0350
1001
ACAD
1000
AcDbSavedByObjectVersion
1070
     0
  0
ACAD_PROXY_OBJECT
  5
3C
102
{ACAD_REACTORS
330
2A
102
}
330
2A
100
AcDbProxyObject
 90
      499
 91
      501
 93
      444
310
42D3DD995C9A185B99D3D999915409028333333333333E33F0000000000000F9010790141107004050150941D405064090741402480A0350
1001
ACAD
1000
AcDbSavedByObjectVersion
1070
     0
  0
ACAD_PROXY_OBJECT
  5
33
102
{ACAD_REACTORS
330
2A
102
}
330
2A
100
AcDbProxyObject
 90
      499
 91
      501
 93
      428
310
425499585B1A5CDD1A58D08409038333333333333E33F0000000000000F9010740A907004050150800405405064090740C02480A1B40
1001
ACAD
1000
AcDbSavedByObjectVersion
1070
     0
  0
ACAD_PROXY_OBJECT
  5
42
102
{ACAD_REACTORS
330
2A
102
}
330
2A
100
AcDbProxyObject
 90
      499
 91
      501
 93
      420
310
4194DA1859195911B40902404333333333333E33F0000000000000F9010740A41107004050150800405405064090840C02480A0B40
1001
ACAD
1000
AcDbSavedByObjectVersion
1070
     0
  0
ACAD_PROXY_OBJECT
  5
41
102
{ACAD_REACTORS
330
2A
102
}
330
2A
100
AcDbProxyObject
 90
      499
 91
      501
 93
      516
310
4454DA18591959081DDA5D1A08195919D95CD1A40902404333333333333E33F0000000000000F901074090142907004050250800405405064090740C02480A0B40
1001
ACAD
1000
AcDbSavedByObjectVersion
1070
     0
  0
ACAD_PROXY_OBJECT
  5
3E
102
{ACAD_REACTORS
330
2A
102
}
330
2A
100
AcDbProxyObject
 90
      499
 91
      501
 93
      532
310
4394DA1859195CC81BD98811DC985E5174090240C333333333333E33F0000000000000F901079024090741D01000000000000111010841D405064090740C02480A0340
1001
ACAD
1000
AcDbSavedByObjectVersion
1070
     0
  0
ACAD_PROXY_OBJECT
  5
3F
102
{ACAD_REACTORS
330
2A
102
}
330
2A
100
AcDbProxyObject
 90
      499
 91
      501
 93
      476
310
41D4DAD95D18DA1E51840502408333333333333E33F0000000000000F901079024090741D01000000000000111010B41D405064090741802480A0340
1001
ACAD
1000
AcDbSavedByObjectVersion
1070
     0
  0
ACAD_PROXY_OBJECT
  5
37
102
{ACAD_REACTORS
330
2A
102
}
330
2A
100
AcDbProxyObject
 90
      499
 91
      501
 93
      412
310
41D51A1A58DAD95B90D409028333333333333E33F0000000000000F9010790141107004050150C41D405064090741402480A0350
1001
ACAD
1000
AcDbSavedByObjectVersion
1070
     0
  0
ACAD_PROXY_OBJECT
  5
30
102
{ACAD_REACTORS
330
2A
102
}
330
2A
100
AcDbProxyObject
 90
      499
 91
      501
 93
      420
310
4255DA5C99599C985B595059028333333333333E33F0000000000000F90107901411070040501600405405064090740C02480A0340
1001
ACAD
1000
AcDbSavedByObjectVersion
1070
     0
  0
ACAD_PROXY_OBJECT
  5
40
102
{ACAD_REACTORS
330
2A
102
}
330
2A
100
AcDbProxyObject
 90
      499
 91
      501
 93
      404
310
41560B54985E51940902404000000000000E03F0000000000000F9010740501907004050150841D405064090740C02480A1B40
1001
ACAD
1000
AcDbSavedByObjectVersion
1070
     0
  0
XRECORD
  5
403
102
{ACAD_REACTORS
330
3F9
102
}
330
3F9
100
AcDbXrecord
340
0
  0
XRECORD
  5
402
102
{ACAD_REACTORS
330
3F9
102
}
330
3F9
100
AcDbXrecord
 90
        0
  0
XRECORD
  5
419
102
{ACAD_REACTORS
330
3F9
102
}
330
3F9
100
AcDbXrecord
1000
DSTYLE
1002
{
1070
   340
340
11
1002
}
  0
XRECORD
  5
404
102
{ACAD_REACTORS
330
3F9
102
}
330
3F9
100
AcDbXrecord
  1
{9f218563-8b91-4ce2-aed4-d5d53ef77240}
  0
XRECORD
  5
3FC
102
{ACAD_REACTORS
330
3F9
102
}
330
3F9
100
AcDbXrecord
  1

  0
XRECORD
  5
401
102
{ACAD_REACTORS
330
3F9
102
}
330
3F9
100
AcDbXrecord
 90
        4
  0
XRECORD
  5
3FE
102
{ACAD_REACTORS
330
3F9
102
}
330
3F9
100
AcDbXrecord
340
1A
  0
XRECORD
  5
400
102
{ACAD_REACTORS
330
3F9
102
}
330
3F9
100
AcDbXrecord
 90
    10781
  0
XRECORD
  5
3FF
102
{ACAD_REACTORS
330
3F9
102
}
330
3F9
100
AcDbXrecord
340
19
  0
XRECORD
  5
406
102
{ACAD_REACTORS
330
3F9
102
}
330
3F9
100
AcDbXrecord
 40
0.0
  0
XRECORD
  5
409
102
{ACAD_REACTORS
330
3F9
102
}
330
3F9
100
AcDbXrecord
340
0
  0
XRECORD
  5
40F
102
{ACAD_REACTORS
330
3F9
102
}
330
3F9
100
AcDbXrecord
 10
0.0
 20
0.0
 30
0.0
  0
XRECORD
  5
40B
102
{ACAD_REACTORS
330
3F9
102
}
330
3F9
100
AcDbXrecord
 10
0.0
 20
0.0
 30
0.0
  0
XRECORD
  5
40E
102
{ACAD_REACTORS
330
3F9
102
}
330
3F9
100
AcDbXrecord
 10
0.0
 20
0.0
 30
0.0
  0
XRECORD
  5
40C
102
{ACAD_REACTORS
330
3F9
102
}
330
3F9
100
AcDbXrecord
 10
0.0
 20
0.0
 30
0.0
  0
XRECORD
  5
40D
102
{ACAD_REACTORS
330
3F9
102
}
330
3F9
100
AcDbXrecord
 10
0.0
 20
0.0
 30
0.0
  0
XRECORD
  5
40A
102
{ACAD_REACTORS
330
3F9
102
}
330
3F9
100
AcDbXrecord
 10
0.0
 20
0.0
 30
0.0
  0
XRECORD
  5
407
102
{ACAD_REACTORS
330
3F9
102
}
330
3F9
100
AcDbXrecord
340
0
  0
XRECORD
  5
408
102
{ACAD_REACTORS
330
3F9
102
}
330
3F9
100
AcDbXrecord
 70
     0
  0
XRECORD
  5
3FD
102
{ACAD_REACTORS
330
3F9
102
}
330
3F9
100
AcDbXrecord
  1

  0
XRECORD
  5
3FA
102
{ACAD_REACTORS
330
3F9
102
}
330
3F9
100
AcDbXrecord
 90
        1
  0
XRECORD
  5
3FB
102
{ACAD_REACTORS
330
3F9
102
}
330
3F9
100
AcDbXrecord
 90
       70
  0
XRECORD
  5
412
102
{ACAD_REACTORS
330
3F9
102
}
330
3F9
100
AcDbXrecord
340
0
  0
XRECORD
  5
418
102
{ACAD_REACTORS
330
3F9
102
}
330
3F9
100
AcDbXrecord
 10
0.0
 20
0.0
 30
0.0
  0
XRECORD
  5
414
102
{ACAD_REACTORS
330
3F9
102
}
330
3F9
100
AcDbXrecord
 10
0.0
 20
0.0
 30
0.0
  0
XRECORD
  5
417
102
{ACAD_REACTORS
330
3F9
102
}
330
3F9
100
AcDbXrecord
 10
0.0
 20
0.0
 30
0.0
  0
XRECORD
  5
415
102
{ACAD_REACTORS
330
3F9
102
}
330
3F9
100
AcDbXrecord
 10
0.0
 20
0.0
 30
0.0
  0
XRECORD
  5
416
102
{ACAD_REACTORS
330
3F9
102
}
330
3F9
100
AcDbXrecord
 10
0.0
 20
0.0
 30
0.0
  0
XRECORD
  5
413
102
{ACAD_REACTORS
330
3F9
102
}
330
3F9
100
AcDbXrecord
 10
0.0
 20
0.0
 30
0.0
  0
XRECORD
  5
410
102
{ACAD_REACTORS
330
3F9
102
}
330
3F9
100
AcDbXrecord
340
0
  0
XRECORD
  5
411
102
{ACAD_REACTORS
330
3F9
102
}
330
3F9
100
AcDbXrecord
 70
     0
  0
XRECORD
  5
405
102
{ACAD_REACTORS
330
3F9
102
}
330
3F9
100
AcDbXrecord
  1
{FAEB1C32-E019-11D5-929B-00C0DF256EC4}
  0
DICTIONARYVAR
  5
427
102
{ACAD_REACTORS
330
41A
102
}
330
41A
100
DictionaryVariables
280
     0
  1
1:1
  0
DICTIONARYVAR
  5
421
102
{ACAD_REACTORS
330
41A
102
}
330
41A
100
DictionaryVariables
280
     0
  1
3.500000
  0
DICTIONARYVAR
  5
422
102
{ACAD_REACTORS
330
41A
102
}
330
41A
100
DictionaryVariables
280
     0
  1
acadiso.lin
  0
DICTIONARYVAR
  5
41C
102
{ACAD_REACTORS
330
41A
102
}
330
41A
100
DictionaryVariables
280
     0
  1
Standard
  0
DICTIONARYVAR
  5
41B
102
{ACAD_REACTORS
330
41A
102
}
330
41A
100
DictionaryVariables
280
     0
  1
Standard
  0
DICTIONARYVAR
  5
423
102
{ACAD_REACTORS
330
41A
102
}
330
41A
100
DictionaryVariables
280
     0
  1
2
  0
DICTIONARYVAR
  5
424
102
{ACAD_REACTORS
330
41A
102
}
330
41A
100
DictionaryVariables
280
     0
  1
1
  0
DICTIONARYVAR
  5
428
102
{ACAD_REACTORS
330
41A
102
}
330
41A
100
DictionaryVariables
280
     0
  1
1
  0
DICTIONARYVAR
  5
41E
102
{ACAD_REACTORS
330
41A
102
}
330
41A
100
DictionaryVariables
280
     0
  1
80.000000
  0
DICTIONARYVAR
  5
41D
102
{ACAD_REACTORS
330
41A
102
}
330
41A
100
DictionaryVariables
280
     0
  1
5.000000
  0
DICTIONARY
  5
42B
330
45
100
AcDbDictionary
280
     1
  3
ACAD_XREC_ROUNDTRIP
360
42C
  0
DICTIONARY
  5
429
330
44
100
AcDbDictionary
280
     1
  3
ACAD_XREC_ROUNDTRIP
360
42A
  0
DICTIONARY
  5
42D
330
46
100
AcDbDictionary
280
     1
  3
ACAD_XREC_ROUNDTRIP
360
42E
  0
XRECORD
  5
42C
102
{ACAD_REACTORS
330
42B
102
}
330
42B
100
AcDbXrecord
102
MATERIAL
148
0.0
149
0.0
149
0.0
 93
        0
 94
      127
282
     0
 72
     1
 77
     1
171
     1
175
     1
179
     1
273
     0
  0
XRECORD
  5
42A
102
{ACAD_REACTORS
330
429
102
}
330
429
100
AcDbXrecord
102
MATERIAL
148
0.0
149
0.0
149
0.0
 93
        0
 94
      127
282
     0
 72
     1
 77
     1
171
     1
175
     1
179
     1
273
     0
  0
XRECORD
  5
42E
102
{ACAD_REACTORS
330
42D
102
}
330
42D
100
AcDbXrecord
102
MATERIAL
148
0.0
149
0.0
149
0.0
 93
        0
 94
      127
282
     0
 72
     1
 77
     1
171
     1
175
     1
179
     1
273
     0
  0
ENDSEC
  0
EOF
