  0
SECTION
  2
HEADER
  9
$ACADVER
  1
AC1014
  9
$ACADMAINTVER
 70
     9
  9
$DWGCODEPAGE
  3
ANSI_932
  9
$INSBASE
 10
0.0
 20
0.0
 30
0.0
  9
$EXTMIN
 10
15.0
 20
30.0
 30
0.0
  9
$EXTMAX
 10
1155.0
 20
840.0
 30
0.0
  9
$LIMMIN
 10
0.0
 20
0.0
  9
$LIMMAX
 10
420.0
 20
297.0
  9
$ORTHOMODE
 70
     0
  9
$REGENMODE
 70
     1
  9
$FILLMODE
 70
     1
  9
$QTEXTMODE
 70
     0
  9
$MIRRTEXT
 70
     1
  9
$DRAGMODE
 70
     2
  9
$LTSCALE
 40
0.2
  9
$OSMODE
 70
    37
  9
$ATTMODE
 70
     1
  9
$TEXTSIZE
 40
2.5
  9
$TRACEWID
 40
1.0
  9
$TEXTSTYLE
  7
STANDARD
  9
$CLAYER
  8
LAY-10
  9
$CELTYPE
  6
BYLAYER
  9
$CECOLOR
 62
   256
  9
$CELTSCALE
 40
1.0
  9
$DELOBJ
 70
     1
  9
$DISPSILH
 70
     0
  9
$DIMSCALE
 40
1.0
  9
$DIMASZ
 40
2.5
  9
$DIMEXO
 40
0.625
  9
$DIMDLI
 40
3.75
  9
$DIMRND
 40
0.0
  9
$DIMDLE
 40
0.0
  9
$DIMEXE
 40
1.25
  9
$DIMTP
 40
0.0
  9
$DIMTM
 40
0.0
  9
$DIMTXT
 40
2.5
  9
$DIMCEN
 40
2.5
  9
$DIMTSZ
 40
0.0
  9
$DIMTOL
 70
     0
  9
$DIMLIM
 70
     0
  9
$DIMTIH
 70
     0
  9
$DIMTOH
 70
     0
  9
$DIMSE1
 70
     0
  9
$DIMSE2
 70
     0
  9
$DIMTAD
 70
     1
  9
$DIMZIN
 70
     8
  9
$DIMBLK
  1

  9
$DIMASO
 70
     1
  9
$DIMSHO
 70
     1
  9
$DIMPOST
  1

  9
$DIMAPOST
  1

  9
$DIMALT
 70
     0
  9
$DIMALTD
 70
     3
  9
$DIMALTF
 40
0.03937007874016
  9
$DIMLFAC
 40
1.0
  9
$DIMTOFL
 70
     1
  9
$DIMTVP
 40
0.0
  9
$DIMTIX
 70
     0
  9
$DIMSOXD
 70
     0
  9
$DIMSAH
 70
     0
  9
$DIMBLK1
  1

  9
$DIMBLK2
  1

  9
$DIMSTYLE
  2
ISO-25
  9
$DIMCLRD
 70
     0
  9
$DIMCLRE
 70
     0
  9
$DIMCLRT
 70
     0
  9
$DIMTFAC
 40
1.0
  9
$DIMGAP
 40
0.625
  9
$DIMJUST
 70
     0
  9
$DIMSD1
 70
     0
  9
$DIMSD2
 70
     0
  9
$DIMTOLJ
 70
     0
  9
$DIMTZIN
 70
     8
  9
$DIMALTZ
 70
     0
  9
$DIMALTTZ
 70
     0
  9
$DIMFIT
 70
     3
  9
$DIMUPT
 70
     0
  9
$DIMUNIT
 70
     2
  9
$DIMDEC
 70
     2
  9
$DIMTDEC
 70
     2
  9
$DIMALTU
 70
     2
  9
$DIMALTTD
 70
     3
  9
$DIMTXSTY
  7
STANDARD
  9
$DIMAUNIT
 70
     0
  9
$LUNITS
 70
     2
  9
$LUPREC
 70
     4
  9
$SKETCHINC
 40
1.0
  9
$FILLETRAD
 40
10.0
  9
$AUNITS
 70
     0
  9
$AUPREC
 70
     0
  9
$MENU
  1
.
  9
$ELEVATION
 40
0.0
  9
$PELEVATION
 40
0.0
  9
$THICKNESS
 40
0.0
  9
$LIMCHECK
 70
     0
  9
$CHAMFERA
 40
0.0
  9
$CHAMFERB
 40
0.0
  9
$CHAMFERC
 40
0.0
  9
$CHAMFERD
 40
0.0
  9
$SKPOLY
 70
     0
  9
$TDCREATE
 40
2459229.337305694
  9
$TDUPDATE
 40
2459229.337306643
  9
$TDINDWG
 40
0.0000000116
  9
$TDUSRTIMER
 40
0.0000000116
  9
$USRTIMER
 70
     1
  9
$ANGBASE
 50
0.0
  9
$ANGDIR
 70
     0
  9
$PDMODE
 70
     0
  9
$PDSIZE
 40
0.0
  9
$PLINEWID
 40
0.0
  9
$COORDS
 70
     1
  9
$SPLFRAME
 70
     0
  9
$SPLINETYPE
 70
     6
  9
$SPLINESEGS
 70
     8
  9
$ATTDIA
 70
     0
  9
$ATTREQ
 70
     1
  9
$HANDLING
 70
     1
  9
$HANDSEED
  5
487
  9
$SURFTAB1
 70
     6
  9
$SURFTAB2
 70
     6
  9
$SURFTYPE
 70
     6
  9
$SURFU
 70
     6
  9
$SURFV
 70
     6
  9
$UCSNAME
  2

  9
$UCSORG
 10
0.0
 20
0.0
 30
0.0
  9
$UCSXDIR
 10
1.0
 20
0.0
 30
0.0
  9
$UCSYDIR
 10
0.0
 20
1.0
 30
0.0
  9
$PUCSNAME
  2

  9
$PUCSORG
 10
0.0
 20
0.0
 30
0.0
  9
$PUCSXDIR
 10
1.0
 20
0.0
 30
0.0
  9
$PUCSYDIR
 10
0.0
 20
1.0
 30
0.0
  9
$USERI1
 70
     0
  9
$USERI2
 70
     0
  9
$USERI3
 70
     0
  9
$USERI4
 70
     0
  9
$USERI5
 70
     0
  9
$USERR1
 40
0.0
  9
$USERR2
 40
0.0
  9
$USERR3
 40
0.0
  9
$USERR4
 40
0.0
  9
$USERR5
 40
0.0
  9
$WORLDVIEW
 70
     1
  9
$SHADEDGE
 70
     3
  9
$SHADEDIF
 70
    70
  9
$TILEMODE
 70
     1
  9
$MAXACTVP
 70
    64
  9
$PINSBASE
 10
0.0
 20
0.0
 30
0.0
  9
$PLIMCHECK
 70
     0
  9
$PEXTMIN
 10
1.000000000000000E+20
 20
1.000000000000000E+20
 30
1.000000000000000E+20
  9
$PEXTMAX
 10
-1.000000000000000E+20
 20
-1.000000000000000E+20
 30
-1.000000000000000E+20
  9
$PLIMMIN
 10
0.0
 20
0.0
  9
$PLIMMAX
 10
420.0
 20
297.0
  9
$UNITMODE
 70
     0
  9
$VISRETAIN
 70
     1
  9
$PLINEGEN
 70
     0
  9
$PSLTSCALE
 70
     1
  9
$TREEDEPTH
 70
  3020
  9
$PICKSTYLE
 70
     1
  9
$CMLSTYLE
  2
STANDARD
  9
$CMLJUST
 70
     0
  9
$CMLSCALE
 40
20.0
  9
$PROXYGRAPHICS
 70
     1
  9
$MEASUREMENT
 70
     1
  0
ENDSEC
  0
SECTION
  2
CLASSES
  0
CLASS
  1
ACDBDICTIONARYWDFLT
  2
AcDbDictionaryWithDefault
  3
ObjectDBX Classes
 90
        0
280
     0
281
     0
  0
CLASS
  1
VISUALSTYLE
  2
AcDbVisualStyle
  3
ObjectDBX Classes
 90
     4095
280
     0
281
     0
  0
CLASS
  1
MATERIAL
  2
AcDbMaterial
  3
ObjectDBX Classes
 90
     1153
280
     0
281
     0
  0
CLASS
  1
SCALE
  2
AcDbScale
  3
ObjectDBX Classes
 90
     1153
280
     0
281
     0
  0
CLASS
  1
TABLESTYLE
  2
AcDbTableStyle
  3
ObjectDBX Classes
 90
     4095
280
     0
281
     0
  0
CLASS
  1
MLEADERSTYLE
  2
AcDbMLeaderStyle
  3
ACDB_MLEADERSTYLE_CLASS
 90
     4095
280
     0
281
     0
  0
CLASS
  1
SUN
  2
AcDbSun
  3
SCENEOE
 90
     1153
280
     0
281
     0
  0
CLASS
  1
DICTIONARYVAR
  2
AcDbDictionaryVar
  3
ObjectDBX Classes
 90
        0
280
     0
281
     0
  0
CLASS
  1
XRECORD
  2
AcDbXrecord
  3
ObjectDBX Classes
 90
        0
280
     0
281
     0
  0
CLASS
  1
LWPOLYLINE
  2
AcDbPolyline
  3
ObjectDBX Classes
 90
        0
280
     0
281
     1
  0
CLASS
  1
HATCH
  2
AcDbHatch
  3
ObjectDBX Classes
 90
        0
280
     0
281
     1
  0
CLASS
  1
ACDBPLACEHOLDER
  2
AcDbPlaceHolder
  3
ObjectDBX Classes
 90
        0
280
     0
281
     0
  0
CLASS
  1
LAYOUT
  2
AcDbLayout
  3
ObjectDBX Classes
 90
        0
280
     0
281
     0
  0
ENDSEC
  0
SECTION
  2
TABLES
  0
TABLE
  2
VPORT
  5
8
102
{ACAD_XDICTIONARY
360
47C
102
}
330
0
100
AcDbSymbolTable
 70
     1
  0
VPORT
  5
29
330
8
100
AcDbSymbolTableRecord
100
AcDbViewportTableRecord
  2
*ACTIVE
 70
     0
 10
0.0
 20
0.0
 11
1.0
 21
1.0
 12
585.0000000000001
 22
435.0
 13
0.0
 23
0.0
 14
10.0
 24
10.0
 15
10.0
 25
10.0
 16
0.0
 26
0.0
 36
1.0
 17
0.0
 27
0.0
 37
0.0
 40
810.0
 41
1.407407407407408
 42
50.0
 43
0.0
 44
0.0
 50
0.0
 51
0.0
 71
     0
 72
  1000
 73
     1
 74
     3
 75
     0
 76
     0
 77
     0
 78
     0
  0
ENDTAB
  0
TABLE
  2
LTYPE
  5
5
330
0
100
AcDbSymbolTable
 70
     6
  0
LTYPE
  5
14
330
5
100
AcDbSymbolTableRecord
100
AcDbLinetypeTableRecord
  2
BYBLOCK
 70
     0
  3

 72
    65
 73
     0
 40
0.0
  0
LTYPE
  5
15
330
5
100
AcDbSymbolTableRecord
100
AcDbLinetypeTableRecord
  2
BYLAYER
 70
     0
  3

 72
    65
 73
     0
 40
0.0
  0
LTYPE
  5
16
330
5
100
AcDbSymbolTableRecord
100
AcDbLinetypeTableRecord
  2
CONTINUOUS
 70
     0
  3
Solid line
 72
    65
 73
     0
 40
0.0
  0
LTYPE
  5
6E
330
5
100
AcDbSymbolTableRecord
100
AcDbLinetypeTableRecord
  2
HIDDEN
 70
     0
  3
Hidden __ __ __ __ __ __ __ __ __ __ __ __ __ __
 72
    65
 73
     2
 40
9.524999999999999
 49
6.35
 74
     0
 49
-3.175
 74
     0
  0
LTYPE
  5
6F
330
5
100
AcDbSymbolTableRecord
100
AcDbLinetypeTableRecord
  2
CENTER
 70
     0
  3
Center ____ _ ____ _ ____ _ ____ _ ____ _ ____
 72
    65
 73
     4
 40
50.8
 49
31.75
 74
     0
 49
-6.35
 74
     0
 49
6.35
 74
     0
 49
-6.35
 74
     0
  0
LTYPE
  5
70
330
5
100
AcDbSymbolTableRecord
100
AcDbLinetypeTableRecord
  2
PHANTOM
 70
     0
  3
Phantom ______  __  __  ______  __  __  ______ 
 72
    65
 73
     6
 40
63.50000000000001
 49
31.75
 74
     0
 49
-6.35
 74
     0
 49
6.35
 74
     0
 49
-6.35
 74
     0
 49
6.35
 74
     0
 49
-6.35
 74
     0
  0
LTYPE
  5
71
330
5
100
AcDbSymbolTableRecord
100
AcDbLinetypeTableRecord
  2
ACAD_ISO06W100
 70
     0
  3
ISO long-dash triple-dot ____ ... ____ ... ____
 72
    65
 73
     8
 40
36.0
 49
24.0
 74
     0
 49
-3.0
 74
     0
 49
0.0
 74
     0
 49
-3.0
 74
     0
 49
0.0
 74
     0
 49
-3.0
 74
     0
 49
0.0
 74
     0
 49
-3.0
 74
     0
  0
LTYPE
  5
72
330
5
100
AcDbSymbolTableRecord
100
AcDbLinetypeTableRecord
  2
ACAD_ISO15W100
 70
     0
  3
ISO double-dash triple-dot __ __ . . . __ __ . .
 72
    65
 73
    10
 40
39.0
 49
12.0
 74
     0
 49
-3.0
 74
     0
 49
12.0
 74
     0
 49
-3.0
 74
     0
 49
0.0
 74
     0
 49
-3.0
 74
     0
 49
0.0
 74
     0
 49
-3.0
 74
     0
 49
0.0
 74
     0
 49
-3.0
 74
     0
  0
ENDTAB
  0
TABLE
  2
LAYER
  5
2
330
0
100
AcDbSymbolTable
 70
     5
  0
LAYER
  5
10
330
2
100
AcDbSymbolTableRecord
100
AcDbLayerTableRecord
  2
0
 70
     0
 62
     7
  6
CONTINUOUS
  0
LAYER
  5
75
330
2
100
AcDbSymbolTableRecord
100
AcDbLayerTableRecord
  2
LAY-10
 70
     0
 62
     7
  6
CONTINUOUS
  0
LAYER
  5
76
330
2
100
AcDbSymbolTableRecord
100
AcDbLayerTableRecord
  2
LAY-20
 70
     0
 62
     7
  6
CONTINUOUS
  0
LAYER
  5
77
330
2
100
AcDbSymbolTableRecord
100
AcDbLayerTableRecord
  2
LAY-255
 70
     0
 62
     7
  6
CONTINUOUS
  0
LAYER
  5
3C1
330
2
100
AcDbSymbolTableRecord
100
AcDbLayerTableRecord
  2
DEFPOINTS
 70
     0
 62
     7
  6
CONTINUOUS
  0
ENDTAB
  0
TABLE
  2
STYLE
  5
3
330
0
100
AcDbSymbolTable
 70
     4
  0
STYLE
  5
11
330
3
100
AcDbSymbolTableRecord
100
AcDbTextStyleTableRecord
  2
STANDARD
 70
     0
 40
0.0
 41
1.0
 50
0.0
 71
     0
 42
2.5
  3
simplex
  4
bigfont
  0
STYLE
  5
73
330
3
100
AcDbSymbolTableRecord
100
AcDbTextStyleTableRecord
  2
EXCADSTD
 70
     0
 40
0.0
 41
1.0
 50
0.0
 71
     0
 42
2.5
  3
simplex
  4
bigfont
  0
STYLE
  5
74
330
3
100
AcDbSymbolTableRecord
100
AcDbTextStyleTableRecord
  2
EXCADVERT
 70
     4
 40
0.0
 41
1.0
 50
0.0
 71
     0
 42
2.5
  3
simplex
  4
bigfont
  0
STYLE
  5
3BF
330
3
100
AcDbSymbolTableRecord
100
AcDbTextStyleTableRecord
  2
EXCADDIM1
 70
     0
 40
0.0
 41
0.84
 50
0.0
 71
     0
 42
2.5
  3
simplex
  4
bigfont
  0
ENDTAB
  0
TABLE
  2
VIEW
  5
6
330
0
100
AcDbSymbolTable
 70
     0
  0
ENDTAB
  0
TABLE
  2
UCS
  5
7
330
0
100
AcDbSymbolTable
 70
     0
  0
ENDTAB
  0
TABLE
  2
APPID
  5
9
330
0
100
AcDbSymbolTable
 70
     2
  0
APPID
  5
12
330
9
100
AcDbSymbolTableRecord
100
AcDbRegAppTableRecord
  2
ACAD
 70
     0
  0
APPID
  5
486
330
9
100
AcDbSymbolTableRecord
100
AcDbRegAppTableRecord
  2
ACAD_MLEADERVER
 70
     0
  0
ENDTAB
  0
TABLE
  2
DIMSTYLE
  5
A
330
0
100
AcDbSymbolTable
 70
     1
  0
DIMSTYLE
105
27
102
{ACAD_REACTORS
330
3C0
330
3CE
330
3DB
330
3E8
330
3F5
330
402
330
40F
330
41B
102
}
330
A
100
AcDbSymbolTableRecord
100
AcDbDimStyleTableRecord
  2
ISO-25
 70
     0
  3

  4

  5

  6

  7

 40
1.0
 41
2.5
 42
0.625
 43
3.75
 44
1.25
 45
0.0
 46
0.0
 47
0.0
 48
0.0
140
2.5
141
2.5
142
0.0
143
0.03937007874016
144
1.0
145
0.0
146
1.0
147
0.625
 71
     0
 72
     0
 73
     0
 74
     0
 75
     0
 76
     0
 77
     1
 78
     8
170
     0
171
     3
172
     1
173
     0
174
     0
175
     0
176
     0
177
     0
178
     0
270
     2
271
     2
272
     2
273
     2
274
     3
340
11
275
     0
280
     0
281
     0
282
     0
283
     0
284
     8
285
     0
286
     0
287
     5
288
     0
  0
ENDTAB
  0
TABLE
  2
BLOCK_RECORD
  5
1
330
0
100
AcDbSymbolTable
 70
    22
  0
BLOCK_RECORD
  5
1F
330
1
100
AcDbSymbolTableRecord
100
AcDbBlockTableRecord
  2
*MODEL_SPACE
  0
BLOCK_RECORD
  5
1B
330
1
100
AcDbSymbolTableRecord
100
AcDbBlockTableRecord
  2
*PAPER_SPACE
  0
BLOCK_RECORD
  5
78
330
1
100
AcDbSymbolTableRecord
100
AcDbBlockTableRecord
  2
EX_NORM
  0
BLOCK_RECORD
  5
7B
330
1
100
AcDbSymbolTableRecord
100
AcDbBlockTableRecord
  2
EX_BNORM
  0
BLOCK_RECORD
  5
7E
330
1
100
AcDbSymbolTableRecord
100
AcDbBlockTableRecord
  2
EX_BCIR
  0
BLOCK_RECORD
  5
81
330
1
100
AcDbSymbolTableRecord
100
AcDbBlockTableRecord
  2
EX_RCIVIL
  0
BLOCK_RECORD
  5
84
330
1
100
AcDbSymbolTableRecord
100
AcDbBlockTableRecord
  2
EX_SLANT
  0
BLOCK_RECORD
  5
87
330
1
100
AcDbSymbolTableRecord
100
AcDbBlockTableRecord
  2
EX_NONE
  0
BLOCK_RECORD
  5
8A
330
1
100
AcDbSymbolTableRecord
100
AcDbBlockTableRecord
  2
EX_CIVIL
  0
BLOCK_RECORD
  5
8D
330
1
100
AcDbSymbolTableRecord
100
AcDbBlockTableRecord
  2
EX_WCIR
  0
BLOCK_RECORD
  5
90
330
1
100
AcDbSymbolTableRecord
100
AcDbBlockTableRecord
  2
EX_WCIR2
  0
BLOCK_RECORD
  5
93
330
1
100
AcDbSymbolTableRecord
100
AcDbBlockTableRecord
  2
EX_WNORM
  0
BLOCK_RECORD
  5
96
330
1
100
AcDbSymbolTableRecord
100
AcDbBlockTableRecord
  2
EX_NNORM
  0
BLOCK_RECORD
  5
99
330
1
100
AcDbSymbolTableRecord
100
AcDbBlockTableRecord
  2
EX_BBOX
  0
BLOCK_RECORD
  5
9C
330
1
100
AcDbSymbolTableRecord
100
AcDbBlockTableRecord
  2
EX_WBOX
  0
BLOCK_RECORD
  5
9F
330
1
100
AcDbSymbolTableRecord
100
AcDbBlockTableRecord
  2
EX_INTEGRAL
  0
BLOCK_RECORD
  5
3C2
330
1
100
AcDbSymbolTableRecord
100
AcDbBlockTableRecord
  2
*D15
  0
BLOCK_RECORD
  5
3CF
330
1
100
AcDbSymbolTableRecord
100
AcDbBlockTableRecord
  2
*D16
  0
BLOCK_RECORD
  5
3DC
330
1
100
AcDbSymbolTableRecord
100
AcDbBlockTableRecord
  2
*D17
  0
BLOCK_RECORD
  5
3E9
330
1
100
AcDbSymbolTableRecord
100
AcDbBlockTableRecord
  2
*D18
  0
BLOCK_RECORD
  5
3F6
330
1
100
AcDbSymbolTableRecord
100
AcDbBlockTableRecord
  2
*D19
  0
BLOCK_RECORD
  5
403
330
1
100
AcDbSymbolTableRecord
100
AcDbBlockTableRecord
  2
*D20
  0
BLOCK_RECORD
  5
410
330
1
100
AcDbSymbolTableRecord
100
AcDbBlockTableRecord
  2
*D21
  0
BLOCK_RECORD
  5
41C
330
1
100
AcDbSymbolTableRecord
100
AcDbBlockTableRecord
  2
*D22
  0
ENDTAB
  0
ENDSEC
  0
SECTION
  2
BLOCKS
  0
BLOCK
  5
20
330
1F
100
AcDbEntity
  8
0
100
AcDbBlockBegin
  2
*MODEL_SPACE
 70
     0
 10
0.0
 20
0.0
 30
0.0
  3
*MODEL_SPACE
  1

  0
ENDBLK
  5
21
330
1F
100
AcDbEntity
  8
0
100
AcDbBlockEnd
  0
BLOCK
  5
1C
330
1B
100
AcDbEntity
 67
     1
  8
0
100
AcDbBlockBegin
  2
*PAPER_SPACE
 70
     0
 10
0.0
 20
0.0
 30
0.0
  3
*PAPER_SPACE
  1

  0
ENDBLK
  5
1D
330
1B
100
AcDbEntity
 67
     1
  8
0
100
AcDbBlockEnd
  0
BLOCK
  5
79
330
78
100
AcDbEntity
  8
0
100
AcDbBlockBegin
  2
EX_NORM
 70
     0
 10
0.0
 20
0.0
 30
0.0
  3
EX_NORM
  1

  0
LINE
  5
A2
330
78
100
AcDbEntity
  8
0
  6
CONTINUOUS
 62
     0
100
AcDbLine
 10
0.0
 20
0.0
 30
0.0
 11
-1.0
 21
0.0
 31
0.0
  0
LINE
  5
A3
330
78
100
AcDbEntity
  8
0
  6
CONTINUOUS
 62
     0
100
AcDbLine
 10
0.0
 20
0.0
 30
0.0
 11
-1.0
 21
0.166666667
 31
0.0
  0
LINE
  5
A4
330
78
100
AcDbEntity
  8
0
  6
CONTINUOUS
 62
     0
100
AcDbLine
 10
0.0
 20
0.0
 30
0.0
 11
-1.0
 21
-0.166666667
 31
0.0
  0
ENDBLK
  5
7A
330
78
100
AcDbEntity
  8
0
100
AcDbBlockEnd
  0
BLOCK
  5
7C
330
7B
100
AcDbEntity
  8
0
100
AcDbBlockBegin
  2
EX_BNORM
 70
     0
 10
0.0
 20
0.0
 30
0.0
  3
EX_BNORM
  1

  0
LINE
  5
A5
330
7B
100
AcDbEntity
  8
0
  6
CONTINUOUS
 62
     0
100
AcDbLine
 10
0.0
 20
0.0
 30
0.0
 11
-1.0
 21
0.0
 31
0.0
  0
LINE
  5
A6
330
7B
100
AcDbEntity
  8
0
  6
CONTINUOUS
 62
     0
100
AcDbLine
 10
0.0
 20
0.0
 30
0.0
 11
-1.0
 21
0.166666667
 31
0.0
  0
LINE
  5
A7
330
7B
100
AcDbEntity
  8
0
  6
CONTINUOUS
 62
     0
100
AcDbLine
 10
0.0
 20
0.0
 30
0.0
 11
-1.0
 21
-0.166666667
 31
0.0
  0
LINE
  5
A8
330
7B
100
AcDbEntity
  8
0
  6
CONTINUOUS
 62
     0
100
AcDbLine
 10
0.0
 20
0.0
 30
0.0
 11
-1.0
 21
0.083333333
 31
0.0
  0
LINE
  5
A9
330
7B
100
AcDbEntity
  8
0
  6
CONTINUOUS
 62
     0
100
AcDbLine
 10
0.0
 20
0.0
 30
0.0
 11
-1.0
 21
-0.083333333
 31
0.0
  0
LINE
  5
AA
330
7B
100
AcDbEntity
  8
0
  6
CONTINUOUS
 62
     0
100
AcDbLine
 10
-1.0
 20
0.166666667
 30
0.0
 11
-1.0
 21
-0.166666667
 31
0.0
  0
ENDBLK
  5
7D
330
7B
100
AcDbEntity
  8
0
100
AcDbBlockEnd
  0
BLOCK
  5
7F
330
7E
100
AcDbEntity
  8
0
100
AcDbBlockBegin
  2
EX_BCIR
 70
     0
 10
0.0
 20
0.0
 30
0.0
  3
EX_BCIR
  1

  0
LINE
  5
AB
330
7E
100
AcDbEntity
  8
0
  6
CONTINUOUS
 62
     0
100
AcDbLine
 10
0.0
 20
0.0
 30
0.0
 11
-1.0
 21
0.0
 31
0.0
  0
CIRCLE
  5
AC
330
7E
100
AcDbEntity
  8
0
  6
CONTINUOUS
 62
     0
100
AcDbCircle
 10
0.0
 20
0.0
 30
0.0
 40
0.5
  0
CIRCLE
  5
AD
330
7E
100
AcDbEntity
  8
0
  6
CONTINUOUS
 62
     0
100
AcDbCircle
 10
0.0
 20
0.0
 30
0.0
 40
0.25
  0
ENDBLK
  5
80
330
7E
100
AcDbEntity
  8
0
100
AcDbBlockEnd
  0
BLOCK
  5
82
330
81
100
AcDbEntity
  8
0
100
AcDbBlockBegin
  2
EX_RCIVIL
 70
     0
 10
0.0
 20
0.0
 30
0.0
  3
EX_RCIVIL
  1

  0
LINE
  5
AE
330
81
100
AcDbEntity
  8
0
  6
CONTINUOUS
 62
     0
100
AcDbLine
 10
0.0
 20
0.0
 30
0.0
 11
-1.0
 21
0.0
 31
0.0
  0
LINE
  5
AF
330
81
100
AcDbEntity
  8
0
  6
CONTINUOUS
 62
     0
100
AcDbLine
 10
-1.0
 20
-0.25
 30
0.0
 11
0.0
 21
-0.25
 31
0.0
  0
LINE
  5
B0
330
81
100
AcDbEntity
  8
0
  6
CONTINUOUS
 62
     0
100
AcDbLine
 10
-1.0
 20
-0.125
 30
0.0
 11
0.0
 21
-0.125
 31
0.0
  0
ENDBLK
  5
83
330
81
100
AcDbEntity
  8
0
100
AcDbBlockEnd
  0
BLOCK
  5
85
330
84
100
AcDbEntity
  8
0
100
AcDbBlockBegin
  2
EX_SLANT
 70
     0
 10
0.0
 20
0.0
 30
0.0
  3
EX_SLANT
  1

  0
LINE
  5
B1
330
84
100
AcDbEntity
  8
0
  6
CONTINUOUS
 62
     0
100
AcDbLine
 10
0.0
 20
0.0
 30
0.0
 11
-1.0
 21
0.0
 31
0.0
  0
LINE
  5
B2
330
84
100
AcDbEntity
  8
0
  6
CONTINUOUS
 62
     0
100
AcDbLine
 10
0.707106781
 20
0.707106781
 30
0.0
 11
-0.707106781
 21
-0.707106781
 31
0.0
  0
ENDBLK
  5
86
330
84
100
AcDbEntity
  8
0
100
AcDbBlockEnd
  0
BLOCK
  5
88
330
87
100
AcDbEntity
  8
0
100
AcDbBlockBegin
  2
EX_NONE
 70
     0
 10
0.0
 20
0.0
 30
0.0
  3
EX_NONE
  1

  0
LINE
  5
B3
330
87
100
AcDbEntity
  8
0
  6
CONTINUOUS
 62
     0
100
AcDbLine
 10
0.0
 20
0.0
 30
0.0
 11
-1.0
 21
0.0
 31
0.0
  0
ENDBLK
  5
89
330
87
100
AcDbEntity
  8
0
100
AcDbBlockEnd
  0
BLOCK
  5
8B
330
8A
100
AcDbEntity
  8
0
100
AcDbBlockBegin
  2
EX_CIVIL
 70
     0
 10
0.0
 20
0.0
 30
0.0
  3
EX_CIVIL
  1

  0
LINE
  5
B4
330
8A
100
AcDbEntity
  8
0
  6
CONTINUOUS
 62
     0
100
AcDbLine
 10
0.0
 20
0.0
 30
0.0
 11
-1.0
 21
0.0
 31
0.0
  0
LINE
  5
B5
330
8A
100
AcDbEntity
  8
0
  6
CONTINUOUS
 62
     0
100
AcDbLine
 10
-1.0
 20
0.25
 30
0.0
 11
0.0
 21
0.25
 31
0.0
  0
LINE
  5
B6
330
8A
100
AcDbEntity
  8
0
  6
CONTINUOUS
 62
     0
100
AcDbLine
 10
-1.0
 20
0.125
 30
0.0
 11
0.0
 21
0.125
 31
0.0
  0
ENDBLK
  5
8C
330
8A
100
AcDbEntity
  8
0
100
AcDbBlockEnd
  0
BLOCK
  5
8E
330
8D
100
AcDbEntity
  8
0
100
AcDbBlockBegin
  2
EX_WCIR
 70
     0
 10
0.0
 20
0.0
 30
0.0
  3
EX_WCIR
  1

  0
LINE
  5
B7
330
8D
100
AcDbEntity
  8
0
  6
CONTINUOUS
 62
     0
100
AcDbLine
 10
0.0
 20
0.0
 30
0.0
 11
-1.0
 21
0.0
 31
0.0
  0
CIRCLE
  5
B8
330
8D
100
AcDbEntity
  8
0
  6
CONTINUOUS
 62
     0
100
AcDbCircle
 10
0.0
 20
0.0
 30
0.0
 40
0.5
  0
ENDBLK
  5
8F
330
8D
100
AcDbEntity
  8
0
100
AcDbBlockEnd
  0
BLOCK
  5
91
330
90
100
AcDbEntity
  8
0
100
AcDbBlockBegin
  2
EX_WCIR2
 70
     0
 10
0.0
 20
0.0
 30
0.0
  3
EX_WCIR2
  1

  0
LINE
  5
B9
330
90
100
AcDbEntity
  8
0
  6
CONTINUOUS
 62
     0
100
AcDbLine
 10
-0.5
 20
0.0
 30
0.0
 11
-1.0
 21
0.0
 31
0.0
  0
CIRCLE
  5
BA
330
90
100
AcDbEntity
  8
0
  6
CONTINUOUS
 62
     0
100
AcDbCircle
 10
0.0
 20
0.0
 30
0.0
 40
0.5
  0
ENDBLK
  5
92
330
90
100
AcDbEntity
  8
0
100
AcDbBlockEnd
  0
BLOCK
  5
94
330
93
100
AcDbEntity
  8
0
100
AcDbBlockBegin
  2
EX_WNORM
 70
     0
 10
0.0
 20
0.0
 30
0.0
  3
EX_WNORM
  1

  0
LINE
  5
BB
330
93
100
AcDbEntity
  8
0
  6
CONTINUOUS
 62
     0
100
AcDbLine
 10
-1.0
 20
0.0
 30
0.0
 11
-1.0
 21
0.0
 31
0.0
  0
LINE
  5
BC
330
93
100
AcDbEntity
  8
0
  6
CONTINUOUS
 62
     0
100
AcDbLine
 10
0.0
 20
0.0
 30
0.0
 11
-1.0
 21
0.166666667
 31
0.0
  0
LINE
  5
BD
330
93
100
AcDbEntity
  8
0
  6
CONTINUOUS
 62
     0
100
AcDbLine
 10
0.0
 20
0.0
 30
0.0
 11
-1.0
 21
-0.166666667
 31
0.0
  0
LINE
  5
BE
330
93
100
AcDbEntity
  8
0
  6
CONTINUOUS
 62
     0
100
AcDbLine
 10
-1.0
 20
0.166666667
 30
0.0
 11
-1.0
 21
-0.166666667
 31
0.0
  0
ENDBLK
  5
95
330
93
100
AcDbEntity
  8
0
100
AcDbBlockEnd
  0
BLOCK
  5
97
330
96
100
AcDbEntity
  8
0
100
AcDbBlockBegin
  2
EX_NNORM
 70
     0
 10
0.0
 20
0.0
 30
0.0
  3
EX_NNORM
  1

  0
LINE
  5
BF
330
96
100
AcDbEntity
  8
0
  6
CONTINUOUS
 62
     0
100
AcDbLine
 10
0.0
 20
0.0
 30
0.0
 11
-1.0
 21
0.0
 31
0.0
  0
LINE
  5
C0
330
96
100
AcDbEntity
  8
0
  6
CONTINUOUS
 62
     0
100
AcDbLine
 10
0.0
 20
0.0
 30
0.0
 11
-1.0
 21
0.166666667
 31
0.0
  0
LINE
  5
C1
330
96
100
AcDbEntity
  8
0
  6
CONTINUOUS
 62
     0
100
AcDbLine
 10
0.0
 20
0.0
 30
0.0
 11
-1.0
 21
-0.166666667
 31
0.0
  0
LINE
  5
C2
330
96
100
AcDbEntity
  8
0
  6
CONTINUOUS
 62
     0
100
AcDbLine
 10
-1.0
 20
0.166666667
 30
0.0
 11
-1.0
 21
-0.166666667
 31
0.0
  0
ENDBLK
  5
98
330
96
100
AcDbEntity
  8
0
100
AcDbBlockEnd
  0
BLOCK
  5
9A
330
99
100
AcDbEntity
  8
0
100
AcDbBlockBegin
  2
EX_BBOX
 70
     0
 10
0.0
 20
0.0
 30
0.0
  3
EX_BBOX
  1

  0
LINE
  5
C3
330
99
100
AcDbEntity
  8
0
  6
CONTINUOUS
 62
     0
100
AcDbLine
 10
0.0
 20
0.0
 30
0.0
 11
-1.0
 21
0.0
 31
0.0
  0
LINE
  5
C4
330
99
100
AcDbEntity
  8
0
  6
CONTINUOUS
 62
     0
100
AcDbLine
 10
-0.5
 20
0.5
 30
0.0
 11
0.5
 21
0.5
 31
0.0
  0
LINE
  5
C5
330
99
100
AcDbEntity
  8
0
  6
CONTINUOUS
 62
     0
100
AcDbLine
 10
0.5
 20
0.5
 30
0.0
 11
0.5
 21
-0.5
 31
0.0
  0
LINE
  5
C6
330
99
100
AcDbEntity
  8
0
  6
CONTINUOUS
 62
     0
100
AcDbLine
 10
0.5
 20
-0.5
 30
0.0
 11
-0.5
 21
-0.5
 31
0.0
  0
LINE
  5
C7
330
99
100
AcDbEntity
  8
0
  6
CONTINUOUS
 62
     0
100
AcDbLine
 10
-0.5
 20
-0.5
 30
0.0
 11
-0.5
 21
0.5
 31
0.0
  0
LINE
  5
C8
330
99
100
AcDbEntity
  8
0
  6
CONTINUOUS
 62
     0
100
AcDbLine
 10
-0.25
 20
0.25
 30
0.0
 11
0.25
 21
0.25
 31
0.0
  0
LINE
  5
C9
330
99
100
AcDbEntity
  8
0
  6
CONTINUOUS
 62
     0
100
AcDbLine
 10
0.25
 20
0.25
 30
0.0
 11
0.25
 21
-0.25
 31
0.0
  0
LINE
  5
CA
330
99
100
AcDbEntity
  8
0
  6
CONTINUOUS
 62
     0
100
AcDbLine
 10
0.25
 20
-0.25
 30
0.0
 11
-0.25
 21
-0.25
 31
0.0
  0
LINE
  5
CB
330
99
100
AcDbEntity
  8
0
  6
CONTINUOUS
 62
     0
100
AcDbLine
 10
-0.25
 20
-0.25
 30
0.0
 11
-0.25
 21
0.25
 31
0.0
  0
ENDBLK
  5
9B
330
99
100
AcDbEntity
  8
0
100
AcDbBlockEnd
  0
BLOCK
  5
9D
330
9C
100
AcDbEntity
  8
0
100
AcDbBlockBegin
  2
EX_WBOX
 70
     0
 10
0.0
 20
0.0
 30
0.0
  3
EX_WBOX
  1

  0
LINE
  5
CC
330
9C
100
AcDbEntity
  8
0
  6
CONTINUOUS
 62
     0
100
AcDbLine
 10
-0.5
 20
0.0
 30
0.0
 11
-1.0
 21
0.0
 31
0.0
  0
LINE
  5
CD
330
9C
100
AcDbEntity
  8
0
  6
CONTINUOUS
 62
     0
100
AcDbLine
 10
-0.5
 20
0.5
 30
0.0
 11
0.5
 21
0.5
 31
0.0
  0
LINE
  5
CE
330
9C
100
AcDbEntity
  8
0
  6
CONTINUOUS
 62
     0
100
AcDbLine
 10
0.5
 20
0.5
 30
0.0
 11
0.5
 21
-0.5
 31
0.0
  0
LINE
  5
CF
330
9C
100
AcDbEntity
  8
0
  6
CONTINUOUS
 62
     0
100
AcDbLine
 10
0.5
 20
-0.5
 30
0.0
 11
-0.5
 21
-0.5
 31
0.0
  0
LINE
  5
D0
330
9C
100
AcDbEntity
  8
0
  6
CONTINUOUS
 62
     0
100
AcDbLine
 10
-0.5
 20
-0.5
 30
0.0
 11
-0.5
 21
0.5
 31
0.0
  0
ENDBLK
  5
9E
330
9C
100
AcDbEntity
  8
0
100
AcDbBlockEnd
  0
BLOCK
  5
A0
330
9F
100
AcDbEntity
  8
0
100
AcDbBlockBegin
  2
EX_INTEGRAL
 70
     0
 10
0.0
 20
0.0
 30
0.0
  3
EX_INTEGRAL
  1

  0
LINE
  5
D1
330
9F
100
AcDbEntity
  8
0
  6
CONTINUOUS
 62
     0
100
AcDbLine
 10
0.0
 20
0.0
 30
0.0
 11
-1.0
 21
0.0
 31
0.0
  0
ARC
  5
D2
330
9F
100
AcDbEntity
  8
0
  6
CONTINUOUS
 62
     0
100
AcDbCircle
 10
0.542115
 20
0.164992
 30
0.0
 40
0.56667
100
AcDbArc
 50
73.07249033629006
 51
196.9275130221199
  0
ARC
  5
D3
330
9F
100
AcDbEntity
  8
0
  6
CONTINUOUS
 62
     0
100
AcDbCircle
 10
-0.542115
 20
-0.164992
 30
0.0
 40
0.56667
100
AcDbArc
 50
253.0724869220464
 51
16.9275130559125
  0
ENDBLK
  5
A1
330
9F
100
AcDbEntity
  8
0
100
AcDbBlockEnd
  0
BLOCK
  5
3C3
330
3C2
100
AcDbEntity
  8
0
100
AcDbBlockBegin
  2
*D15
 70
     1
 10
0.0
 20
0.0
 30
0.0
  3
*D15
  1

  0
LINE
  5
3C5
330
3C2
100
AcDbEntity
  8
LAY-20
  6
CONTINUOUS
 62
     4
100
AcDbLine
 10
535.999999999997
 20
252.4999999999899
 30
0.0
 11
535.999999999997
 21
151.4999999999899
 31
0.0
  0
LINE
  5
3C6
330
3C2
100
AcDbEntity
  8
LAY-20
  6
CONTINUOUS
 62
     4
100
AcDbLine
 10
393.999999999997
 20
252.4999999999899
 30
0.0
 11
393.999999999997
 21
151.4999999999899
 31
0.0
  0
LINE
  5
3C7
330
3C2
100
AcDbEntity
  8
LAY-20
  6
CONTINUOUS
 62
     4
100
AcDbLine
 10
528.499999999997
 20
155.9999999999899
 30
0.0
 11
401.499999999997
 21
155.9999999999899
 31
0.0
  0
INSERT
  5
3C8
330
3C2
100
AcDbEntity
  8
LAY-20
 62
     4
100
AcDbBlockReference
  2
EX_BNORM
 10
535.999999999997
 20
155.9999999999899
 30
0.0
 41
7.5
 42
7.5
 43
7.5
  0
INSERT
  5
3C9
330
3C2
100
AcDbEntity
  8
LAY-20
 62
     4
100
AcDbBlockReference
  2
EX_BNORM
 10
393.999999999997
 20
155.9999999999899
 30
0.0
 41
7.5
 42
7.5
 43
7.5
 50
180.0
  0
MTEXT
  5
3CA
330
3C2
100
AcDbEntity
  8
LAY-20
 62
     7
100
AcDbMText
 10
464.9999999999969
 20
163.4999999999899
 30
0.0
 40
9.3543312
 41
0.0
 71
     5
 72
     1
  1
%%c142
  7
EXCADDIM1
  0
POINT
  5
3CB
330
3C2
100
AcDbEntity
  8
DEFPOINTS
 62
     0
100
AcDbPoint
 10
535.999999999997
 20
256.9999999999899
 30
0.0
  0
POINT
  5
3CC
330
3C2
100
AcDbEntity
  8
DEFPOINTS
 62
     0
100
AcDbPoint
 10
393.999999999997
 20
256.9999999999899
 30
0.0
  0
POINT
  5
3CD
330
3C2
100
AcDbEntity
  8
DEFPOINTS
 62
     0
100
AcDbPoint
 10
393.999999999997
 20
155.9999999999899
 30
0.0
  0
ENDBLK
  5
3C4
330
3C2
100
AcDbEntity
  8
0
100
AcDbBlockEnd
  0
BLOCK
  5
3D0
330
3CF
100
AcDbEntity
  8
0
100
AcDbBlockBegin
  2
*D16
 70
     1
 10
0.0
 20
0.0
 30
0.0
  3
*D16
  1

  0
LINE
  5
3D2
330
3CF
100
AcDbEntity
  8
LAY-20
  6
CONTINUOUS
 62
     4
100
AcDbLine
 10
395.499999999997
 20
212.4999999999899
 30
0.0
 11
395.499999999997
 21
172.4999999999899
 31
0.0
  0
LINE
  5
3D3
330
3CF
100
AcDbEntity
  8
LAY-20
  6
CONTINUOUS
 62
     4
100
AcDbLine
 10
534.499999999997
 20
212.4999999999899
 30
0.0
 11
534.499999999997
 21
172.4999999999899
 31
0.0
  0
LINE
  5
3D4
330
3CF
100
AcDbEntity
  8
LAY-20
  6
CONTINUOUS
 62
     4
100
AcDbLine
 10
402.999999999997
 20
176.9999999999899
 30
0.0
 11
526.999999999997
 21
176.9999999999899
 31
0.0
  0
INSERT
  5
3D5
330
3CF
100
AcDbEntity
  8
LAY-20
 62
     4
100
AcDbBlockReference
  2
EX_BNORM
 10
395.499999999997
 20
176.9999999999899
 30
0.0
 41
7.5
 42
7.5
 43
7.5
 50
180.0
  0
INSERT
  5
3D6
330
3CF
100
AcDbEntity
  8
LAY-20
 62
     4
100
AcDbBlockReference
  2
EX_BNORM
 10
534.499999999997
 20
176.9999999999899
 30
0.0
 41
7.5
 42
7.5
 43
7.5
  0
MTEXT
  5
3D7
330
3CF
100
AcDbEntity
  8
LAY-20
 62
     7
100
AcDbMText
 10
464.9999999999969
 20
184.4999999999899
 30
0.0
 40
9.3543312
 41
0.0
 71
     5
 72
     1
  1
%%c139
  7
EXCADDIM1
  0
POINT
  5
3D8
330
3CF
100
AcDbEntity
  8
DEFPOINTS
 62
     0
100
AcDbPoint
 10
395.499999999997
 20
216.9999999999899
 30
0.0
  0
POINT
  5
3D9
330
3CF
100
AcDbEntity
  8
DEFPOINTS
 62
     0
100
AcDbPoint
 10
534.499999999997
 20
216.9999999999899
 30
0.0
  0
POINT
  5
3DA
330
3CF
100
AcDbEntity
  8
DEFPOINTS
 62
     0
100
AcDbPoint
 10
534.499999999997
 20
176.9999999999899
 30
0.0
  0
ENDBLK
  5
3D1
330
3CF
100
AcDbEntity
  8
0
100
AcDbBlockEnd
  0
BLOCK
  5
3DD
330
3DC
100
AcDbEntity
  8
0
100
AcDbBlockBegin
  2
*D17
 70
     1
 10
0.0
 20
0.0
 30
0.0
  3
*D17
  1

  0
LINE
  5
3DF
330
3DC
100
AcDbEntity
  8
LAY-20
  6
CONTINUOUS
 62
     4
100
AcDbLine
 10
351.998492498397
 20
261.9999999999899
 30
0.0
 11
298.000000000007
 21
261.9999999999899
 31
0.0
  0
LINE
  5
3E0
330
3DC
100
AcDbEntity
  8
LAY-20
  6
CONTINUOUS
 62
     4
100
AcDbLine
 10
328.999999999997
 20
286.9999999999899
 30
0.0
 11
298.000000000007
 21
286.9999999999899
 31
0.0
  0
LINE
  5
3E1
330
3DC
100
AcDbEntity
  8
LAY-20
  6
CONTINUOUS
 62
     4
100
AcDbLine
 10
302.500000000007
 20
269.4999999999899
 30
0.0
 11
302.500000000007
 21
279.4999999999899
 31
0.0
  0
INSERT
  5
3E2
330
3DC
100
AcDbEntity
  8
LAY-20
 62
     4
100
AcDbBlockReference
  2
EX_BNORM
 10
302.500000000007
 20
261.9999999999899
 30
0.0
 41
7.5
 42
7.5
 43
7.5
 50
270.0
  0
INSERT
  5
3E3
330
3DC
100
AcDbEntity
  8
LAY-20
 62
     4
100
AcDbBlockReference
  2
EX_BNORM
 10
302.500000000007
 20
286.9999999999899
 30
0.0
 41
7.5
 42
7.5
 43
7.5
 50
90.0
  0
MTEXT
  5
3E4
330
3DC
100
AcDbEntity
  8
LAY-20
 62
     7
100
AcDbMText
 10
295.000000000007
 20
274.4999999999899
 30
0.0
 40
9.3543312
 41
0.0
 71
     5
 72
     1
  1
25
  7
EXCADDIM1
 11
0.0
 21
1.0
 31
0.0
  0
POINT
  5
3E5
330
3DC
100
AcDbEntity
  8
DEFPOINTS
 62
     0
100
AcDbPoint
 10
356.498492498397
 20
261.9999999999899
 30
0.0
  0
POINT
  5
3E6
330
3DC
100
AcDbEntity
  8
DEFPOINTS
 62
     0
100
AcDbPoint
 10
333.499999999997
 20
286.9999999999899
 30
0.0
  0
POINT
  5
3E7
330
3DC
100
AcDbEntity
  8
DEFPOINTS
 62
     0
100
AcDbPoint
 10
302.500000000007
 20
286.9999999999899
 30
0.0
  0
ENDBLK
  5
3DE
330
3DC
100
AcDbEntity
  8
0
100
AcDbBlockEnd
  0
BLOCK
  5
3EA
330
3E9
100
AcDbEntity
  8
0
100
AcDbBlockBegin
  2
*D18
 70
     1
 10
0.0
 20
0.0
 30
0.0
  3
*D18
  1

  0
LINE
  5
3EC
330
3E9
100
AcDbEntity
  8
LAY-20
  6
CONTINUOUS
 62
     4
100
AcDbLine
 10
597.499999999997
 20
284.4999999999899
 30
0.0
 11
597.499999999997
 21
400.4999999999802
 31
0.0
  0
LINE
  5
3ED
330
3E9
100
AcDbEntity
  8
LAY-20
  6
CONTINUOUS
 62
     4
100
AcDbLine
 10
332.499999999997
 20
284.4999999999899
 30
0.0
 11
332.499999999997
 21
400.4999999999802
 31
0.0
  0
LINE
  5
3EE
330
3E9
100
AcDbEntity
  8
LAY-20
  6
CONTINUOUS
 62
     4
100
AcDbLine
 10
589.999999999997
 20
395.99999999998
 30
0.0
 11
339.999999999997
 21
395.99999999998
 31
0.0
  0
INSERT
  5
3EF
330
3E9
100
AcDbEntity
  8
LAY-20
 62
     4
100
AcDbBlockReference
  2
EX_BNORM
 10
597.499999999997
 20
395.99999999998
 30
0.0
 41
7.5
 42
7.5
 43
7.5
  0
INSERT
  5
3F0
330
3E9
100
AcDbEntity
  8
LAY-20
 62
     4
100
AcDbBlockReference
  2
EX_BNORM
 10
332.499999999997
 20
395.99999999998
 30
0.0
 41
7.5
 42
7.5
 43
7.5
 50
180.0
  0
MTEXT
  5
3F1
330
3E9
100
AcDbEntity
  8
LAY-20
 62
     7
100
AcDbMText
 10
464.9999999999971
 20
403.4999999999799
 30
0.0
 40
9.3543312
 41
0.0
 71
     5
 72
     1
  1
%%c265
  7
EXCADDIM1
  0
POINT
  5
3F2
330
3E9
100
AcDbEntity
  8
DEFPOINTS
 62
     0
100
AcDbPoint
 10
597.499999999997
 20
279.9999999999899
 30
0.0
  0
POINT
  5
3F3
330
3E9
100
AcDbEntity
  8
DEFPOINTS
 62
     0
100
AcDbPoint
 10
332.499999999997
 20
279.9999999999899
 30
0.0
  0
POINT
  5
3F4
330
3E9
100
AcDbEntity
  8
DEFPOINTS
 62
     0
100
AcDbPoint
 10
332.499999999997
 20
395.99999999998
 30
0.0
  0
ENDBLK
  5
3EB
330
3E9
100
AcDbEntity
  8
0
100
AcDbBlockEnd
  0
BLOCK
  5
3F7
330
3F6
100
AcDbEntity
  8
0
100
AcDbBlockBegin
  2
*D19
 70
     1
 10
0.0
 20
0.0
 30
0.0
  3
*D19
  1

  0
LINE
  5
3F9
330
3F6
100
AcDbEntity
  8
LAY-20
  6
CONTINUOUS
 62
     4
100
AcDbLine
 10
353.500000000017
 20
291.4999999999899
 30
0.0
 11
353.500000000017
 21
379.49999999998
 31
0.0
  0
LINE
  5
3FA
330
3F6
100
AcDbEntity
  8
LAY-20
  6
CONTINUOUS
 62
     4
100
AcDbLine
 10
576.499999999975
 20
291.4999999999899
 30
0.0
 11
576.499999999975
 21
379.49999999998
 31
0.0
  0
LINE
  5
3FB
330
3F6
100
AcDbEntity
  8
LAY-20
  6
CONTINUOUS
 62
     4
100
AcDbLine
 10
361.000000000017
 20
374.99999999998
 30
0.0
 11
568.999999999975
 21
374.99999999998
 31
0.0
  0
INSERT
  5
3FC
330
3F6
100
AcDbEntity
  8
LAY-20
 62
     4
100
AcDbBlockReference
  2
EX_BNORM
 10
353.500000000017
 20
374.99999999998
 30
0.0
 41
7.5
 42
7.5
 43
7.5
 50
180.0
  0
INSERT
  5
3FD
330
3F6
100
AcDbEntity
  8
LAY-20
 62
     4
100
AcDbBlockReference
  2
EX_BNORM
 10
576.499999999975
 20
374.99999999998
 30
0.0
 41
7.5
 42
7.5
 43
7.5
  0
MTEXT
  5
3FE
330
3F6
100
AcDbEntity
  8
LAY-20
 62
     7
100
AcDbMText
 10
464.999999999996
 20
382.49999999998
 30
0.0
 40
9.3543312
 41
0.0
 71
     5
 72
     1
  1
%%c223
  7
EXCADDIM1
  0
POINT
  5
3FF
330
3F6
100
AcDbEntity
  8
DEFPOINTS
 62
     0
100
AcDbPoint
 10
353.500000000017
 20
286.9999999999899
 30
0.0
  0
POINT
  5
400
330
3F6
100
AcDbEntity
  8
DEFPOINTS
 62
     0
100
AcDbPoint
 10
576.499999999975
 20
286.9999999999899
 30
0.0
  0
POINT
  5
401
330
3F6
100
AcDbEntity
  8
DEFPOINTS
 62
     0
100
AcDbPoint
 10
576.499999999975
 20
374.99999999998
 30
0.0
  0
ENDBLK
  5
3F8
330
3F6
100
AcDbEntity
  8
0
100
AcDbBlockEnd
  0
BLOCK
  5
404
330
403
100
AcDbEntity
  8
0
100
AcDbBlockBegin
  2
*D20
 70
     1
 10
0.0
 20
0.0
 30
0.0
  3
*D20
  1

  0
LINE
  5
406
330
403
100
AcDbEntity
  8
LAY-20
  6
CONTINUOUS
 62
     4
100
AcDbLine
 10
577.5
 20
206.99999999999
 30
0.0
 11
638.0
 21
206.99999999999
 31
0.0
  0
LINE
  5
407
330
403
100
AcDbEntity
  8
LAY-20
  6
CONTINUOUS
 62
     4
100
AcDbLine
 10
601.0
 20
286.99999999999
 30
0.0
 11
638.0
 21
286.99999999999
 31
0.0
  0
LINE
  5
408
330
403
100
AcDbEntity
  8
LAY-20
  6
CONTINUOUS
 62
     4
100
AcDbLine
 10
633.5
 20
214.49999999999
 30
0.0
 11
633.5
 21
279.49999999999
 31
0.0
  0
INSERT
  5
409
330
403
100
AcDbEntity
  8
LAY-20
 62
     4
100
AcDbBlockReference
  2
EX_BNORM
 10
633.5
 20
206.99999999999
 30
0.0
 41
7.5
 42
7.5
 43
7.5
 50
270.0
  0
INSERT
  5
40A
330
403
100
AcDbEntity
  8
LAY-20
 62
     4
100
AcDbBlockReference
  2
EX_BNORM
 10
633.5
 20
286.99999999999
 30
0.0
 41
7.5
 42
7.5
 43
7.5
 50
90.0
  0
MTEXT
  5
40B
330
403
100
AcDbEntity
  8
LAY-20
 62
     7
100
AcDbMText
 10
626.0
 20
246.99999999999
 30
0.0
 40
9.3543312
 41
0.0
 71
     5
 72
     1
  1
80
  7
EXCADDIM1
 11
0.0
 21
1.0
 31
0.0
  0
POINT
  5
40C
330
403
100
AcDbEntity
  8
DEFPOINTS
 62
     0
100
AcDbPoint
 10
573.0
 20
206.99999999999
 30
0.0
  0
POINT
  5
40D
330
403
100
AcDbEntity
  8
DEFPOINTS
 62
     0
100
AcDbPoint
 10
596.5
 20
286.99999999999
 30
0.0
  0
POINT
  5
40E
330
403
100
AcDbEntity
  8
DEFPOINTS
 62
     0
100
AcDbPoint
 10
633.5
 20
286.99999999999
 30
0.0
  0
ENDBLK
  5
405
330
403
100
AcDbEntity
  8
0
100
AcDbBlockEnd
  0
BLOCK
  5
411
330
410
100
AcDbEntity
  8
0
100
AcDbBlockBegin
  2
*D21
 70
     1
 10
0.0
 20
0.0
 30
0.0
  3
*D21
  1

  0
LINE
  5
413
330
410
100
AcDbEntity
  8
LAY-20
  6
CONTINUOUS
 62
     4
100
AcDbLine
 10
545.47942913435
 20
323.99999999999
 30
0.0
 11
638.0
 21
323.99999999999
 31
0.0
  0
LINE
  5
414
330
410
100
AcDbEntity
  8
LAY-20
  6
CONTINUOUS
 62
     4
100
AcDbLine
 10
633.5
 20
316.49999999999
 30
0.0
 11
633.5
 21
294.49999999999
 31
0.0
  0
INSERT
  5
415
330
410
100
AcDbEntity
  8
LAY-20
 62
     4
100
AcDbBlockReference
  2
EX_BNORM
 10
633.5
 20
323.99999999999
 30
0.0
 41
7.5
 42
7.5
 43
7.5
 50
90.0
  0
INSERT
  5
416
330
410
100
AcDbEntity
  8
LAY-20
 62
     4
100
AcDbBlockReference
  2
EX_BNORM
 10
633.5
 20
286.99999999999
 30
0.0
 41
7.5
 42
7.5
 43
7.5
 50
270.0
  0
MTEXT
  5
417
330
410
100
AcDbEntity
  8
LAY-20
 62
     7
100
AcDbMText
 10
626.0
 20
305.49999999999
 30
0.0
 40
9.3543312
 41
0.0
 71
     5
 72
     1
  1
37
  7
EXCADDIM1
 11
0.0
 21
1.0
 31
0.0
  0
POINT
  5
418
330
410
100
AcDbEntity
  8
DEFPOINTS
 62
     0
100
AcDbPoint
 10
540.97942913435
 20
323.99999999999
 30
0.0
  0
POINT
  5
419
330
410
100
AcDbEntity
  8
DEFPOINTS
 62
     0
100
AcDbPoint
 10
633.5
 20
286.99999999999
 30
0.0
  0
POINT
  5
41A
330
410
100
AcDbEntity
  8
DEFPOINTS
 62
     0
100
AcDbPoint
 10
633.5
 20
286.99999999999
 30
0.0
  0
ENDBLK
  5
412
330
410
100
AcDbEntity
  8
0
100
AcDbBlockEnd
  0
BLOCK
  5
41D
330
41C
100
AcDbEntity
  8
0
100
AcDbBlockBegin
  2
*D22
 70
     1
 10
0.0
 20
0.0
 30
0.0
  3
*D22
  1

  0
LINE
  5
41F
330
41C
100
AcDbEntity
  8
LAY-20
  6
CONTINUOUS
 62
     4
100
AcDbLine
 10
573.5
 20
288.49999999999
 30
0.0
 11
573.5
 21
358.49999999998
 31
0.0
  0
LINE
  5
420
330
41C
100
AcDbEntity
  8
LAY-20
  6
CONTINUOUS
 62
     4
100
AcDbLine
 10
356.5
 20
288.49999999999
 30
0.0
 11
356.5
 21
358.49999999998
 31
0.0
  0
LINE
  5
421
330
41C
100
AcDbEntity
  8
LAY-20
  6
CONTINUOUS
 62
     4
100
AcDbLine
 10
566.0
 20
353.99999999998
 30
0.0
 11
364.0
 21
353.99999999998
 31
0.0
  0
INSERT
  5
422
330
41C
100
AcDbEntity
  8
LAY-20
 62
     4
100
AcDbBlockReference
  2
EX_BNORM
 10
573.5
 20
353.99999999998
 30
0.0
 41
7.5
 42
7.5
 43
7.5
  0
INSERT
  5
423
330
41C
100
AcDbEntity
  8
LAY-20
 62
     4
100
AcDbBlockReference
  2
EX_BNORM
 10
356.5
 20
353.99999999998
 30
0.0
 41
7.5
 42
7.5
 43
7.5
 50
180.0
  0
MTEXT
  5
424
330
41C
100
AcDbEntity
  8
LAY-20
 62
     7
100
AcDbMText
 10
465.0
 20
361.49999999998
 30
0.0
 40
9.3543312
 41
0.0
 71
     5
 72
     1
  1
%%c217
  7
EXCADDIM1
  0
POINT
  5
425
330
41C
100
AcDbEntity
  8
DEFPOINTS
 62
     0
100
AcDbPoint
 10
573.5
 20
283.99999999999
 30
0.0
  0
POINT
  5
426
330
41C
100
AcDbEntity
  8
DEFPOINTS
 62
     0
100
AcDbPoint
 10
356.5
 20
283.99999999999
 30
0.0
  0
POINT
  5
427
330
41C
100
AcDbEntity
  8
DEFPOINTS
 62
     0
100
AcDbPoint
 10
356.5
 20
353.99999999998
 30
0.0
  0
ENDBLK
  5
41E
330
41C
100
AcDbEntity
  8
0
100
AcDbBlockEnd
  0
ENDSEC
  0
SECTION
  2
ENTITIES
  0
LINE
  5
D4
330
1F
100
AcDbEntity
  8
LAY-10
  6
CONTINUOUS
 62
     7
100
AcDbLine
 10
565.9999999999941
 20
260.7401153701645
 30
0.0
 11
567.2598846298129
 21
261.9999999999834
 31
0.0
  0
LINE
  5
D5
330
1F
100
AcDbEntity
  8
LAY-10
  6
CONTINUOUS
 62
     7
100
AcDbLine
 10
565.9999999999915
 20
257.9116882454158
 30
0.0
 11
570.0883117545617
 21
261.999999999986
 31
0.0
  0
LINE
  5
D6
330
1F
100
AcDbEntity
  8
LAY-10
  6
CONTINUOUS
 62
     7
100
AcDbLine
 10
565.9999999999927
 20
255.0832611206708
 30
0.0
 11
572.9167388793104
 21
261.9999999999885
 31
0.0
  0
LINE
  5
D7
330
1F
100
AcDbEntity
  8
LAY-10
  6
CONTINUOUS
 62
     7
100
AcDbLine
 10
565.9999999999941
 20
252.254833995926
 30
0.0
 11
572.9999999999991
 21
259.2548339959311
 31
0.0
  0
LINE
  5
D8
330
1F
100
AcDbEntity
  8
LAY-10
  6
CONTINUOUS
 62
     7
100
AcDbLine
 10
565.9999999999915
 20
249.4264068711772
 30
0.0
 11
573.0000000000003
 21
256.4264068711861
 31
0.0
  0
LINE
  5
D9
330
1F
100
AcDbEntity
  8
LAY-10
  6
CONTINUOUS
 62
     7
100
AcDbLine
 10
565.9999999999927
 20
246.5979797464324
 30
0.0
 11
572.9999999999978
 21
253.5979797464373
 31
0.0
  0
LINE
  5
DA
330
1F
100
AcDbEntity
  8
LAY-10
  6
CONTINUOUS
 62
     7
100
AcDbLine
 10
565.9999999999941
 20
243.7695526216874
 30
0.0
 11
572.9999999999991
 21
250.7695526216925
 31
0.0
  0
LINE
  5
DB
330
1F
100
AcDbEntity
  8
LAY-10
  6
CONTINUOUS
 62
     7
100
AcDbLine
 10
565.9999999999955
 20
240.9411254969424
 30
0.0
 11
573.0000000000005
 21
247.9411254969475
 31
0.0
  0
LINE
  5
DC
330
1F
100
AcDbEntity
  8
LAY-10
  6
CONTINUOUS
 62
     7
100
AcDbLine
 10
565.9999999999928
 20
238.1126983721937
 30
0.0
 11
573.0000000000017
 21
245.1126983722026
 31
0.0
  0
LINE
  5
DD
330
1F
100
AcDbEntity
  8
LAY-10
  6
CONTINUOUS
 62
     7
100
AcDbLine
 10
565.9999999999941
 20
235.2842712474488
 30
0.0
 11
572.9999999999992
 21
242.2842712474538
 31
0.0
  0
LINE
  5
DE
330
1F
100
AcDbEntity
  8
LAY-10
  6
CONTINUOUS
 62
     7
100
AcDbLine
 10
565.9999999999955
 20
232.4558441227039
 30
0.0
 11
573.0000000000005
 21
239.4558441227089
 31
0.0
  0
LINE
  5
DF
330
1F
100
AcDbEntity
  8
LAY-10
  6
CONTINUOUS
 62
     7
100
AcDbLine
 10
565.9999999999928
 20
229.6274169979551
 30
0.0
 11
573.0000000000017
 21
236.6274169979641
 31
0.0
  0
LINE
  5
E0
330
1F
100
AcDbEntity
  8
LAY-10
  6
CONTINUOUS
 62
     7
100
AcDbLine
 10
565.9999999999941
 20
226.7989898732101
 30
0.0
 11
572.9999999999953
 21
233.7989898732114
 31
0.0
  0
LINE
  5
E1
330
1F
100
AcDbEntity
  8
LAY-10
  6
CONTINUOUS
 62
     7
100
AcDbLine
 10
565.9999999999916
 20
223.9705627484614
 30
0.0
 11
573.0000000000005
 21
230.9705627484703
 31
0.0
  0
LINE
  5
E2
330
1F
100
AcDbEntity
  8
LAY-10
  6
CONTINUOUS
 62
     7
100
AcDbLine
 10
565.9999999999928
 20
221.1421356237165
 30
0.0
 11
573.0000000000017
 21
228.1421356237254
 31
0.0
  0
LINE
  5
E3
330
1F
100
AcDbEntity
  8
LAY-10
  6
CONTINUOUS
 62
     7
100
AcDbLine
 10
565.9999999999942
 20
218.3137084989717
 30
0.0
 11
572.9999999999953
 21
225.3137084989728
 31
0.0
  0
LINE
  5
E4
330
1F
100
AcDbEntity
  8
LAY-10
  6
CONTINUOUS
 62
     7
100
AcDbLine
 10
565.9999999999917
 20
215.4852813742228
 30
0.0
 11
572.9999999999966
 21
222.4852813742278
 31
0.0
  0
LINE
  5
E5
330
1F
100
AcDbEntity
  8
LAY-10
  6
CONTINUOUS
 62
     7
100
AcDbLine
 10
565.999999999989
 20
212.6568542494741
 30
0.0
 11
573.0000000000018
 21
219.6568542494868
 31
0.0
  0
LINE
  5
E6
330
1F
100
AcDbEntity
  8
LAY-10
  6
CONTINUOUS
 62
     7
100
AcDbLine
 10
565.9999999999942
 20
209.828427124733
 30
0.0
 11
573.0000000000031
 21
216.8284271247418
 31
0.0
  0
LINE
  5
E7
330
1F
100
AcDbEntity
  8
LAY-10
  6
CONTINUOUS
 62
     7
100
AcDbLine
 10
565.9999999999917
 20
206.9999999999842
 30
0.0
 11
572.9999999999967
 21
213.9999999999893
 31
0.0
  0
LINE
  5
E8
330
1F
100
AcDbEntity
  8
LAY-10
  6
CONTINUOUS
 62
     7
100
AcDbLine
 10
568.8284271247404
 20
206.9999999999868
 30
0.0
 11
572.999999999998
 21
211.1715728752444
 31
0.0
  0
LINE
  5
E9
330
1F
100
AcDbEntity
  8
LAY-10
  6
CONTINUOUS
 62
     7
100
AcDbLine
 10
571.6568542494815
 20
206.9999999999816
 30
0.0
 11
573.0000000000031
 21
208.3431457505033
 31
0.0
  0
LINE
  5
EA
330
1F
100
AcDbEntity
  8
LAY-10
  6
CONTINUOUS
 62
     7
100
AcDbLine
 10
356.9999999999996
 20
260.7401153701701
 30
0.0
 11
358.2598846298222
 21
261.9999999999928
 31
0.0
  0
LINE
  5
EB
330
1F
100
AcDbEntity
  8
LAY-10
  6
CONTINUOUS
 62
     7
100
AcDbLine
 10
357.0000000000008
 20
257.9116882454252
 30
0.0
 11
361.088311754571
 21
261.9999999999953
 31
0.0
  0
LINE
  5
EC
330
1F
100
AcDbEntity
  8
LAY-10
  6
CONTINUOUS
 62
     7
100
AcDbLine
 10
356.9999999999982
 20
255.0832611206765
 30
0.0
 11
363.916738879312
 21
261.9999999999902
 31
0.0
  0
LINE
  5
ED
330
1F
100
AcDbEntity
  8
LAY-10
  6
CONTINUOUS
 62
     7
100
AcDbLine
 10
356.9999999999995
 20
252.2548339959315
 30
0.0
 11
364.0000000000007
 21
259.2548339959328
 31
0.0
  0
LINE
  5
EE
330
1F
100
AcDbEntity
  8
LAY-10
  6
CONTINUOUS
 62
     7
100
AcDbLine
 10
357.0000000000008
 20
249.4264068711867
 30
0.0
 11
364.0000000000019
 21
256.4264068711879
 31
0.0
  0
LINE
  5
EF
330
1F
100
AcDbEntity
  8
LAY-10
  6
CONTINUOUS
 62
     7
100
AcDbLine
 10
356.9999999999982
 20
246.597979746438
 30
0.0
 11
364.0000000000033
 21
253.597979746443
 31
0.0
  0
LINE
  5
F0
330
1F
100
AcDbEntity
  8
LAY-10
  6
CONTINUOUS
 62
     7
100
AcDbLine
 10
356.9999999999994
 20
243.769552621693
 30
0.0
 11
364.0000000000006
 21
250.7695526216942
 31
0.0
  0
LINE
  5
F1
330
1F
100
AcDbEntity
  8
LAY-10
  6
CONTINUOUS
 62
     7
100
AcDbLine
 10
357.0000000000008
 20
240.9411254969482
 30
0.0
 11
364.0000000000019
 21
247.9411254969494
 31
0.0
  0
LINE
  5
F2
330
1F
100
AcDbEntity
  8
LAY-10
  6
CONTINUOUS
 62
     7
100
AcDbLine
 10
356.9999999999981
 20
238.1126983721994
 30
0.0
 11
364.0000000000031
 21
245.1126983722044
 31
0.0
  0
LINE
  5
F3
330
1F
100
AcDbEntity
  8
LAY-10
  6
CONTINUOUS
 62
     7
100
AcDbLine
 10
356.9999999999994
 20
235.2842712474546
 30
0.0
 11
364.0000000000006
 21
242.2842712474557
 31
0.0
  0
LINE
  5
F4
330
1F
100
AcDbEntity
  8
LAY-10
  6
CONTINUOUS
 62
     7
100
AcDbLine
 10
357.0000000000006
 20
232.4558441227096
 30
0.0
 11
363.999999999998
 21
239.455844122707
 31
0.0
  0
LINE
  5
F5
330
1F
100
AcDbEntity
  8
LAY-10
  6
CONTINUOUS
 62
     7
100
AcDbLine
 10
356.9999999999981
 20
229.6274169979609
 30
0.0
 11
364.0000000000031
 21
236.627416997966
 31
0.0
  0
LINE
  5
F6
330
1F
100
AcDbEntity
  8
LAY-10
  6
CONTINUOUS
 62
     7
100
AcDbLine
 10
356.9999999999994
 20
226.7989898732161
 30
0.0
 11
364.0000000000006
 21
233.7989898732172
 31
0.0
  0
LINE
  5
F7
330
1F
100
AcDbEntity
  8
LAY-10
  6
CONTINUOUS
 62
     7
100
AcDbLine
 10
357.0000000000006
 20
223.9705627484711
 30
0.0
 11
364.0000000000018
 21
230.9705627484724
 31
0.0
  0
LINE
  5
F8
330
1F
100
AcDbEntity
  8
LAY-10
  6
CONTINUOUS
 62
     7
100
AcDbLine
 10
356.9999999999981
 20
221.1421356237224
 30
0.0
 11
363.9999999999992
 21
228.1421356237236
 31
0.0
  0
LINE
  5
F9
330
1F
100
AcDbEntity
  8
LAY-10
  6
CONTINUOUS
 62
     7
100
AcDbLine
 10
356.9999999999993
 20
218.3137084989775
 30
0.0
 11
364.0000000000043
 21
225.3137084989825
 31
0.0
  0
LINE
  5
FA
330
1F
100
AcDbEntity
  8
LAY-10
  6
CONTINUOUS
 62
     7
100
AcDbLine
 10
357.0000000000005
 20
215.4852813742327
 30
0.0
 11
364.0000000000018
 21
222.4852813742338
 31
0.0
  0
LINE
  5
FB
330
1F
100
AcDbEntity
  8
LAY-10
  6
CONTINUOUS
 62
     7
100
AcDbLine
 10
357.0000000000018
 20
212.6568542494877
 30
0.0
 11
363.9999999999992
 21
219.6568542494851
 31
0.0
  0
LINE
  5
FC
330
1F
100
AcDbEntity
  8
LAY-10
  6
CONTINUOUS
 62
     7
100
AcDbLine
 10
356.9999999999993
 20
209.828427124739
 30
0.0
 11
364.0000000000004
 21
216.8284271247402
 31
0.0
  0
LINE
  5
FD
330
1F
100
AcDbEntity
  8
LAY-10
  6
CONTINUOUS
 62
     7
100
AcDbLine
 10
356.9999999999967
 20
206.9999999999903
 30
0.0
 11
363.9999999999978
 21
213.9999999999914
 31
0.0
  0
LINE
  5
FE
330
1F
100
AcDbEntity
  8
LAY-10
  6
CONTINUOUS
 62
     7
100
AcDbLine
 10
359.8284271247415
 20
206.9999999999889
 30
0.0
 11
364.000000000003
 21
211.1715728752504
 31
0.0
  0
LINE
  5
FF
330
1F
100
AcDbEntity
  8
LAY-10
  6
CONTINUOUS
 62
     7
100
AcDbLine
 10
362.6568542494826
 20
206.9999999999838
 30
0.0
 11
364.0000000000004
 21
208.3431457505017
 31
0.0
  0
CIRCLE
  5
100
330
1F
100
AcDbEntity
  8
LAY-10
  6
CONTINUOUS
 62
     7
100
AcDbCircle
 10
464.9999999999967
 20
569.9999999999899
 30
0.0
 40
132.5
  0
ARC
  5
101
330
1F
100
AcDbEntity
  8
LAY-10
  6
CONTINUOUS
 62
     7
100
AcDbCircle
 10
464.9999999999965
 20
569.9999999999899
 30
0.0
 40
116.4999999999998
100
AcDbArc
 50
169.1749904754552
 51
190.8250095245452
  0
LINE
  5
102
330
1F
100
AcDbEntity
  8
LAY-10
  6
CONTINUOUS
 62
     7
100
AcDbLine
 10
355.3083868292701
 20
589.99999999999
 30
0.0
 11
351.3732616930821
 21
590.717488789231
 31
0.0
  0
LINE
  5
103
330
1F
100
AcDbEntity
  8
LAY-10
  6
CONTINUOUS
 62
     7
100
AcDbLine
 10
350.5730749213982
 20
591.879872418648
 30
0.0
 11
355.7023535927758
 21
590.9446543973041
 31
0.0
  0
LINE
  5
104
330
1F
100
AcDbEntity
  8
LAY-10
  6
CONTINUOUS
 62
     7
100
AcDbLine
 10
351.3732616930821
 20
590.717488789231
 30
0.0
 11
350.5730749213982
 21
591.879872418648
 31
0.0
  0
LINE
  5
105
330
1F
100
AcDbEntity
  8
LAY-10
  6
CONTINUOUS
 62
     7
100
AcDbLine
 10
355.3083868292701
 20
549.9999999999895
 30
0.0
 11
351.3732616930821
 21
549.2825112107487
 31
0.0
  0
LINE
  5
106
330
1F
100
AcDbEntity
  8
LAY-10
  6
CONTINUOUS
 62
     7
100
AcDbLine
 10
350.5730749213982
 20
548.1201275813316
 30
0.0
 11
355.7023535927759
 21
549.0553456026755
 31
0.0
  0
LINE
  5
107
330
1F
100
AcDbEntity
  8
LAY-10
  6
CONTINUOUS
 62
     7
100
AcDbLine
 10
351.3732616930821
 20
549.2825112107487
 30
0.0
 11
350.5730749213982
 21
548.1201275813316
 31
0.0
  0
ARC
  5
108
330
1F
100
AcDbEntity
  8
LAY-10
  6
CONTINUOUS
 62
     7
100
AcDbCircle
 10
464.9999999999967
 20
569.9999999999905
 30
0.0
 40
115.5000000000017
100
AcDbArc
 50
169.6668057812614
 51
190.3331942187393
  0
ARC
  5
109
330
1F
100
AcDbEntity
  8
LAY-10
  6
CONTINUOUS
 62
     7
100
AcDbCircle
 10
464.9999999999967
 20
569.9999999999905
 30
0.0
 40
111.4999999999835
100
AcDbArc
 50
169.6668057812613
 51
190.3331942187394
  0
LINE
  5
10A
330
1F
100
AcDbEntity
  8
LAY-10
  6
CONTINUOUS
 62
     7
100
AcDbLine
 10
355.7023535927759
 20
549.0553456026755
 30
0.0
 11
355.3083868292703
 21
549.9999999999895
 31
0.0
  0
LINE
  5
10B
330
1F
100
AcDbEntity
  8
LAY-10
  6
CONTINUOUS
 62
     7
100
AcDbLine
 10
355.3083868292701
 20
589.99999999999
 30
0.0
 11
355.7023535927758
 21
590.9446543973041
 31
0.0
  0
ARC
  5
10C
330
1F
100
AcDbEntity
  8
LAY-10
  6
CONTINUOUS
 62
     7
100
AcDbCircle
 10
464.9999999999967
 20
569.9999999999905
 30
0.0
 40
111.2863606107273
100
AcDbArc
 50
190.8480511184137
 51
199.1519488815869
  0
LINE
  5
10D
330
1F
100
AcDbEntity
  8
LAY-10
  6
CONTINUOUS
 62
     7
100
AcDbLine
 10
360.0042764120518
 20
532.4747014903155
 30
0.0
 11
356.237613682422
 21
531.1285024406347
 31
0.0
  0
LINE
  5
10E
330
1F
100
AcDbEntity
  8
LAY-10
  6
CONTINUOUS
 62
     7
100
AcDbLine
 10
356.2376136824219
 20
531.1285024406347
 30
0.0
 11
354.9634397956626
 21
531.735062806811
 31
0.0
  0
LINE
  5
10F
330
1F
100
AcDbEntity
  8
LAY-10
  6
CONTINUOUS
 62
     7
100
AcDbLine
 10
380.0042764120519
 20
497.8336853389378
 30
0.0
 11
376.9551024716631
 21
495.2447592524303
 31
0.0
  0
LINE
  5
110
330
1F
100
AcDbEntity
  8
LAY-10
  6
CONTINUOUS
 62
     7
100
AcDbLine
 10
376.9551024716631
 20
495.2447592524303
 30
0.0
 11
376.843312214321
 21
493.8380121145698
 31
0.0
  0
ARC
  5
111
330
1F
100
AcDbEntity
  8
LAY-10
  6
CONTINUOUS
 62
     7
100
AcDbCircle
 10
464.9999999999967
 20
569.9999999999899
 30
0.0
 40
116.4999999999998
100
AcDbArc
 50
199.1749904754553
 51
220.8250095245451
  0
ARC
  5
112
330
1F
100
AcDbEntity
  8
LAY-10
  6
CONTINUOUS
 62
     7
100
AcDbCircle
 10
464.9999999999967
 20
569.9999999999905
 30
0.0
 40
111.4999999999835
100
AcDbArc
 50
199.6668057812613
 51
220.3331942187393
  0
ARC
  5
113
330
1F
100
AcDbEntity
  8
LAY-10
  6
CONTINUOUS
 62
     7
100
AcDbCircle
 10
464.9999999999967
 20
569.9999999999905
 30
0.0
 40
115.5000000000017
100
AcDbArc
 50
199.6668057812613
 51
220.333194218739
  0
LINE
  5
114
330
1F
100
AcDbEntity
  8
LAY-10
  6
CONTINUOUS
 62
     7
100
AcDbLine
 10
380.8177888361522
 20
497.2125740148196
 30
0.0
 11
380.004276412052
 21
497.8336853389378
 31
0.0
  0
LINE
  5
115
330
1F
100
AcDbEntity
  8
LAY-10
  6
CONTINUOUS
 62
     7
100
AcDbLine
 10
360.0042764120518
 20
532.4747014903155
 30
0.0
 11
359.8731344388374
 21
533.4897795779393
 31
0.0
  0
LINE
  5
116
330
1F
100
AcDbEntity
  8
LAY-10
  6
CONTINUOUS
 62
     7
100
AcDbLine
 10
376.8433122143212
 20
493.8380121145703
 30
0.0
 11
380.8177888361522
 21
497.2125740148196
 31
0.0
  0
LINE
  5
117
330
1F
100
AcDbEntity
  8
LAY-10
  6
CONTINUOUS
 62
     7
100
AcDbLine
 10
354.9634397956626
 20
531.735062806811
 30
0.0
 11
359.8731344388374
 21
533.4897795779393
 31
0.0
  0
LINE
  5
118
330
1F
100
AcDbEntity
  8
LAY-10
  6
CONTINUOUS
 62
     7
100
AcDbLine
 10
392.8336853389447
 20
485.004276412045
 30
0.0
 11
390.2447592524375
 21
481.9551024716558
 31
0.0
  0
LINE
  5
119
330
1F
100
AcDbEntity
  8
LAY-10
  6
CONTINUOUS
 62
     7
100
AcDbLine
 10
390.2447592524375
 20
481.9551024716558
 30
0.0
 11
388.8380121145771
 21
481.8433122143139
 31
0.0
  0
LINE
  5
11A
330
1F
100
AcDbEntity
  8
LAY-10
  6
CONTINUOUS
 62
     7
100
AcDbLine
 10
427.4747014903228
 20
465.0042764120448
 30
0.0
 11
426.128502440642
 21
461.2376136824147
 31
0.0
  0
LINE
  5
11B
330
1F
100
AcDbEntity
  8
LAY-10
  6
CONTINUOUS
 62
     7
100
AcDbLine
 10
426.1285024406417
 20
461.2376136824145
 30
0.0
 11
426.7350628068183
 21
459.9634397956556
 31
0.0
  0
ARC
  5
11C
330
1F
100
AcDbEntity
  8
LAY-10
  6
CONTINUOUS
 62
     7
100
AcDbCircle
 10
464.999999999997
 20
569.9999999999898
 30
0.0
 40
116.4999999999998
100
AcDbArc
 50
229.1749904754552
 51
250.8250095245447
  0
ARC
  5
11D
330
1F
100
AcDbEntity
  8
LAY-10
  6
CONTINUOUS
 62
     7
100
AcDbCircle
 10
464.9999999999967
 20
569.9999999999899
 30
0.0
 40
111.4999999999835
100
AcDbArc
 50
229.6668057812614
 51
250.3331942187394
  0
ARC
  5
11E
330
1F
100
AcDbEntity
  8
LAY-10
  6
CONTINUOUS
 62
     7
100
AcDbCircle
 10
464.9999999999967
 20
569.9999999999899
 30
0.0
 40
115.5000000000017
100
AcDbArc
 50
229.666805781261
 51
250.3331942187394
  0
LINE
  5
11F
330
1F
100
AcDbEntity
  8
LAY-10
  6
CONTINUOUS
 62
     7
100
AcDbLine
 10
428.4897795779463
 20
464.8731344388306
 30
0.0
 11
427.4747014903228
 21
465.0042764120448
 31
0.0
  0
LINE
  5
120
330
1F
100
AcDbEntity
  8
LAY-10
  6
CONTINUOUS
 62
     7
100
AcDbLine
 10
392.8336853389447
 20
485.004276412045
 30
0.0
 11
392.2125740148269
 21
485.8177888361449
 31
0.0
  0
LINE
  5
121
330
1F
100
AcDbEntity
  8
LAY-10
  6
CONTINUOUS
 62
     7
100
AcDbLine
 10
426.7350628068183
 20
459.9634397956556
 30
0.0
 11
428.4897795779463
 21
464.8731344388306
 31
0.0
  0
LINE
  5
122
330
1F
100
AcDbEntity
  8
LAY-10
  6
CONTINUOUS
 62
     7
100
AcDbLine
 10
388.8380121145771
 20
481.8433122143139
 30
0.0
 11
392.2125740148269
 21
485.8177888361449
 31
0.0
  0
LINE
  5
123
330
1F
100
AcDbEntity
  8
LAY-10
  6
CONTINUOUS
 62
     7
100
AcDbLine
 10
380.0042764120519
 20
642.1663146610424
 30
0.0
 11
376.9551024716626
 21
644.7552407475494
 31
0.0
  0
LINE
  5
124
330
1F
100
AcDbEntity
  8
LAY-10
  6
CONTINUOUS
 62
     7
100
AcDbLine
 10
376.9551024716626
 20
644.7552407475495
 30
0.0
 11
376.8433122143207
 21
646.1619878854099
 31
0.0
  0
LINE
  5
125
330
1F
100
AcDbEntity
  8
LAY-10
  6
CONTINUOUS
 62
     7
100
AcDbLine
 10
360.0042764120515
 20
607.5252985096641
 30
0.0
 11
356.2376136824215
 21
608.8714975593449
 31
0.0
  0
LINE
  5
126
330
1F
100
AcDbEntity
  8
LAY-10
  6
CONTINUOUS
 62
     7
100
AcDbLine
 10
356.2376136824215
 20
608.8714975593455
 30
0.0
 11
354.9634397956624
 21
608.2649371931686
 31
0.0
  0
ARC
  5
127
330
1F
100
AcDbEntity
  8
LAY-10
  6
CONTINUOUS
 62
     7
100
AcDbCircle
 10
464.9999999999965
 20
569.9999999999899
 30
0.0
 40
116.4999999999998
100
AcDbArc
 50
139.1749904754554
 51
160.8250095245449
  0
ARC
  5
128
330
1F
100
AcDbEntity
  8
LAY-10
  6
CONTINUOUS
 62
     7
100
AcDbCircle
 10
464.9999999999967
 20
569.9999999999905
 30
0.0
 40
111.4999999999835
100
AcDbArc
 50
139.6668057812612
 51
160.3331942187391
  0
ARC
  5
129
330
1F
100
AcDbEntity
  8
LAY-10
  6
CONTINUOUS
 62
     7
100
AcDbCircle
 10
464.9999999999967
 20
569.9999999999905
 30
0.0
 40
115.5000000000017
100
AcDbArc
 50
139.6668057812614
 51
160.3331942187391
  0
LINE
  5
12A
330
1F
100
AcDbEntity
  8
LAY-10
  6
CONTINUOUS
 62
     7
100
AcDbLine
 10
359.8731344388373
 20
606.5102204220409
 30
0.0
 11
360.0042764120516
 21
607.5252985096641
 31
0.0
  0
LINE
  5
12B
330
1F
100
AcDbEntity
  8
LAY-10
  6
CONTINUOUS
 62
     7
100
AcDbLine
 10
380.0042764120519
 20
642.1663146610424
 30
0.0
 11
380.8177888361517
 21
642.7874259851602
 31
0.0
  0
LINE
  5
12C
330
1F
100
AcDbEntity
  8
LAY-10
  6
CONTINUOUS
 62
     7
100
AcDbLine
 10
354.9634397956624
 20
608.2649371931686
 30
0.0
 11
359.8731344388373
 21
606.5102204220409
 31
0.0
  0
LINE
  5
12D
330
1F
100
AcDbEntity
  8
LAY-10
  6
CONTINUOUS
 62
     7
100
AcDbLine
 10
376.8433122143207
 20
646.1619878854099
 30
0.0
 11
380.8177888361517
 21
642.7874259851602
 31
0.0
  0
LINE
  5
12E
330
1F
100
AcDbEntity
  8
LAY-10
  6
CONTINUOUS
 62
     7
100
AcDbLine
 10
427.4747014903221
 20
674.9957235879348
 30
0.0
 11
426.1285024406413
 21
678.762386317565
 31
0.0
  0
LINE
  5
12F
330
1F
100
AcDbEntity
  8
LAY-10
  6
CONTINUOUS
 62
     7
100
AcDbLine
 10
426.1285024406413
 20
678.762386317565
 30
0.0
 11
426.7350628068177
 21
680.036560204324
 31
0.0
  0
LINE
  5
130
330
1F
100
AcDbEntity
  8
LAY-10
  6
CONTINUOUS
 62
     7
100
AcDbLine
 10
392.8336853389439
 20
654.9957235879345
 30
0.0
 11
390.2447592524369
 21
658.0448975283239
 31
0.0
  0
LINE
  5
131
330
1F
100
AcDbEntity
  8
LAY-10
  6
CONTINUOUS
 62
     7
100
AcDbLine
 10
390.2447592524368
 20
658.0448975283239
 30
0.0
 11
388.8380121145764
 21
658.1566877856658
 31
0.0
  0
ARC
  5
132
330
1F
100
AcDbEntity
  8
LAY-10
  6
CONTINUOUS
 62
     7
100
AcDbCircle
 10
464.9999999999965
 20
569.9999999999899
 30
0.0
 40
116.4999999999998
100
AcDbArc
 50
109.1749904754554
 51
130.8250095245451
  0
ARC
  5
133
330
1F
100
AcDbEntity
  8
LAY-10
  6
CONTINUOUS
 62
     7
100
AcDbCircle
 10
464.9999999999965
 20
569.9999999999899
 30
0.0
 40
111.4999999999835
100
AcDbArc
 50
109.6668057812612
 51
130.3331942187392
  0
ARC
  5
134
330
1F
100
AcDbEntity
  8
LAY-10
  6
CONTINUOUS
 62
     7
100
AcDbCircle
 10
464.9999999999965
 20
569.9999999999899
 30
0.0
 40
115.5000000000017
100
AcDbArc
 50
109.6668057812612
 51
130.3331942187393
  0
LINE
  5
135
330
1F
100
AcDbEntity
  8
LAY-10
  6
CONTINUOUS
 62
     7
100
AcDbLine
 10
392.2125740148262
 20
654.1822111638347
 30
0.0
 11
392.8336853389441
 21
654.9957235879345
 31
0.0
  0
LINE
  5
136
330
1F
100
AcDbEntity
  8
LAY-10
  6
CONTINUOUS
 62
     7
100
AcDbLine
 10
427.4747014903221
 20
674.9957235879348
 30
0.0
 11
428.4897795779456
 21
675.1268655611495
 31
0.0
  0
LINE
  5
137
330
1F
100
AcDbEntity
  8
LAY-10
  6
CONTINUOUS
 62
     7
100
AcDbLine
 10
388.8380121145764
 20
658.1566877856658
 30
0.0
 11
392.2125740148262
 21
654.1822111638347
 31
0.0
  0
LINE
  5
138
330
1F
100
AcDbEntity
  8
LAY-10
  6
CONTINUOUS
 62
     7
100
AcDbLine
 10
426.7350628068177
 20
680.0365602043239
 30
0.0
 11
428.4897795779456
 21
675.1268655611495
 31
0.0
  0
LINE
  5
139
330
1F
100
AcDbEntity
  8
LAY-10
  6
CONTINUOUS
 62
     7
100
AcDbLine
 10
484.9999999999966
 20
679.6916131707167
 30
0.0
 11
485.7174887892376
 21
683.6267383069045
 31
0.0
  0
LINE
  5
13A
330
1F
100
AcDbEntity
  8
LAY-10
  6
CONTINUOUS
 62
     7
100
AcDbLine
 10
485.7174887892376
 20
683.6267383069045
 30
0.0
 11
486.8798724186547
 21
684.4269250785887
 31
0.0
  0
LINE
  5
13B
330
1F
100
AcDbEntity
  8
LAY-10
  6
CONTINUOUS
 62
     7
100
AcDbLine
 10
444.9999999999961
 20
679.6916131707167
 30
0.0
 11
444.2825112107549
 21
683.6267383069045
 31
0.0
  0
LINE
  5
13C
330
1F
100
AcDbEntity
  8
LAY-10
  6
CONTINUOUS
 62
     7
100
AcDbLine
 10
444.2825112107549
 20
683.6267383069045
 30
0.0
 11
443.1201275813379
 21
684.4269250785887
 31
0.0
  0
ARC
  5
13D
330
1F
100
AcDbEntity
  8
LAY-10
  6
CONTINUOUS
 62
     7
100
AcDbCircle
 10
464.9999999999965
 20
569.9999999999899
 30
0.0
 40
116.4999999999998
100
AcDbArc
 50
79.17499047545539
 51
100.8250095245452
  0
ARC
  5
13E
330
1F
100
AcDbEntity
  8
LAY-10
  6
CONTINUOUS
 62
     7
100
AcDbCircle
 10
464.9999999999965
 20
569.9999999999899
 30
0.0
 40
111.4999999999835
100
AcDbArc
 50
79.66680578126113
 51
100.3331942187394
  0
ARC
  5
13F
330
1F
100
AcDbEntity
  8
LAY-10
  6
CONTINUOUS
 62
     7
100
AcDbCircle
 10
464.9999999999965
 20
569.9999999999899
 30
0.0
 40
115.5000000000017
100
AcDbArc
 50
79.66680578126113
 51
100.3331942187391
  0
LINE
  5
140
330
1F
100
AcDbEntity
  8
LAY-10
  6
CONTINUOUS
 62
     7
100
AcDbLine
 10
444.0553456026818
 20
679.2976464072107
 30
0.0
 11
444.9999999999961
 21
679.6916131707167
 31
0.0
  0
LINE
  5
141
330
1F
100
AcDbEntity
  8
LAY-10
  6
CONTINUOUS
 62
     7
100
AcDbLine
 10
484.9999999999966
 20
679.6916131707167
 30
0.0
 11
485.9446543973108
 21
679.2976464072112
 31
0.0
  0
LINE
  5
142
330
1F
100
AcDbEntity
  8
LAY-10
  6
CONTINUOUS
 62
     7
100
AcDbLine
 10
443.1201275813379
 20
684.4269250785887
 30
0.0
 11
444.0553456026818
 21
679.2976464072107
 31
0.0
  0
LINE
  5
143
330
1F
100
AcDbEntity
  8
LAY-10
  6
CONTINUOUS
 62
     7
100
AcDbLine
 10
486.8798724186547
 20
684.4269250785887
 30
0.0
 11
485.9446543973108
 21
679.2976464072112
 31
0.0
  0
ARC
  5
144
330
1F
100
AcDbEntity
  8
LAY-10
  6
CONTINUOUS
 62
     7
100
AcDbCircle
 10
464.9999999999967
 20
569.9999999999905
 30
0.0
 40
111.2863606107273
100
AcDbArc
 50
100.8480511184133
 51
109.1519488815873
  0
ARC
  5
145
330
1F
100
AcDbEntity
  8
LAY-10
  6
CONTINUOUS
 62
     7
100
AcDbCircle
 10
464.9999999999967
 20
569.9999999999905
 30
0.0
 40
111.2863606107273
100
AcDbArc
 50
130.8480511184137
 51
139.1519488815871
  0
ARC
  5
146
330
1F
100
AcDbEntity
  8
LAY-10
  6
CONTINUOUS
 62
     7
100
AcDbCircle
 10
464.9999999999967
 20
569.9999999999905
 30
0.0
 40
111.2863606107273
100
AcDbArc
 50
160.8480511184137
 51
169.1519488815873
  0
ARC
  5
147
330
1F
100
AcDbEntity
  8
LAY-10
  6
CONTINUOUS
 62
     7
100
AcDbCircle
 10
464.9999999999967
 20
569.9999999999905
 30
0.0
 40
111.2863606107273
100
AcDbArc
 50
220.8480511184137
 51
229.151948881587
  0
ARC
  5
148
330
1F
100
AcDbEntity
  8
LAY-10
  6
CONTINUOUS
 62
     7
100
AcDbCircle
 10
464.9999999999967
 20
569.9999999999899
 30
0.0
 40
111.0807377657193
100
AcDbArc
 50
176.9036750229879
 51
183.0963249770125
  0
LINE
  5
149
330
1F
100
AcDbEntity
  8
LAY-10
  6
CONTINUOUS
 62
     7
100
AcDbLine
 10
354.0814248983642
 20
575.9999999999899
 30
0.0
 11
354.5251910626653
 21
576.4248546332835
 31
0.0
  0
LINE
  5
14A
330
1F
100
AcDbEntity
  8
LAY-10
  6
CONTINUOUS
 62
     7
100
AcDbLine
 10
354.0814248983642
 20
563.9999999999899
 30
0.0
 11
354.5251910626654
 21
563.5751453666968
 31
0.0
  0
ARC
  5
14B
330
1F
100
AcDbEntity
  8
LAY-10
  6
CONTINUOUS
 62
     7
100
AcDbCircle
 10
464.9999999999965
 20
569.9999999999899
 30
0.0
 40
111.0807377657193
100
AcDbArc
 50
87.93634177971174
 51
92.06365822028826
  0
ARC
  5
14C
330
1F
100
AcDbEntity
  8
LAY-10
  6
CONTINUOUS
 62
     7
100
AcDbCircle
 10
464.9999999999967
 20
569.9999999999905
 30
0.0
 40
110.6614755314552
100
AcDbArc
 50
92.27873251917272
 51
176.6716133547329
  0
LINE
  5
14D
330
1F
100
AcDbEntity
  8
LAY-10
  6
CONTINUOUS
 62
     7
100
AcDbLine
 10
460.6000000000007
 20
680.5739669488106
 30
0.0
 11
460.9999999999968
 21
681.008694716109
 31
0.0
  0
LINE
  5
14E
330
1F
100
AcDbEntity
  8
LAY-10
  6
CONTINUOUS
 62
     7
100
AcDbLine
 10
469.3999999999927
 20
680.5739669488106
 30
0.0
 11
468.9999999999968
 21
681.008694716109
 31
0.0
  0
CIRCLE
  5
14F
330
1F
100
AcDbEntity
  8
LAY-10
  6
CONTINUOUS
 62
     7
100
AcDbCircle
 10
464.9999999999965
 20
569.9999999999899
 30
0.0
 40
131.4999999999999
  0
LINE
  5
150
330
1F
100
AcDbEntity
  8
LAY-10
  6
CONTINUOUS
 62
     7
100
AcDbLine
 10
484.9999999999966
 20
460.3083868292642
 30
0.0
 11
485.7174887892376
 21
456.3732616930765
 31
0.0
  0
LINE
  5
151
330
1F
100
AcDbEntity
  8
LAY-10
  6
CONTINUOUS
 62
     7
100
AcDbLine
 10
485.7174887892376
 20
456.3732616930765
 30
0.0
 11
486.8798724186547
 21
455.5730749213921
 31
0.0
  0
LINE
  5
152
330
1F
100
AcDbEntity
  8
LAY-10
  6
CONTINUOUS
 62
     7
100
AcDbLine
 10
444.9999999999961
 20
460.3083868292642
 30
0.0
 11
444.2825112107549
 21
456.3732616930765
 31
0.0
  0
LINE
  5
153
330
1F
100
AcDbEntity
  8
LAY-10
  6
CONTINUOUS
 62
     7
100
AcDbLine
 10
444.2825112107549
 20
456.3732616930765
 30
0.0
 11
443.1201275813379
 21
455.5730749213921
 31
0.0
  0
ARC
  5
154
330
1F
100
AcDbEntity
  8
LAY-10
  6
CONTINUOUS
 62
     7
100
AcDbCircle
 10
464.9999999999965
 20
569.9999999999911
 30
0.0
 40
116.4999999999998
100
AcDbArc
 50
259.1749904754552
 51
280.8250095245448
  0
ARC
  5
155
330
1F
100
AcDbEntity
  8
LAY-10
  6
CONTINUOUS
 62
     7
100
AcDbCircle
 10
464.9999999999965
 20
569.9999999999911
 30
0.0
 40
111.4999999999835
100
AcDbArc
 50
259.666805781261
 51
280.3331942187389
  0
ARC
  5
156
330
1F
100
AcDbEntity
  8
LAY-10
  6
CONTINUOUS
 62
     7
100
AcDbCircle
 10
464.9999999999965
 20
569.9999999999911
 30
0.0
 40
115.5000000000017
100
AcDbArc
 50
259.666805781261
 51
280.333194218739
  0
LINE
  5
157
330
1F
100
AcDbEntity
  8
LAY-10
  6
CONTINUOUS
 62
     7
100
AcDbLine
 10
444.0553456026818
 20
460.7023535927703
 30
0.0
 11
444.9999999999961
 21
460.3083868292642
 31
0.0
  0
LINE
  5
158
330
1F
100
AcDbEntity
  8
LAY-10
  6
CONTINUOUS
 62
     7
100
AcDbLine
 10
484.9999999999966
 20
460.3083868292642
 30
0.0
 11
485.9446543973108
 21
460.7023535927696
 31
0.0
  0
LINE
  5
159
330
1F
100
AcDbEntity
  8
LAY-10
  6
CONTINUOUS
 62
     7
100
AcDbLine
 10
443.1201275813379
 20
455.5730749213921
 30
0.0
 11
444.0553456026818
 21
460.7023535927703
 31
0.0
  0
LINE
  5
15A
330
1F
100
AcDbEntity
  8
LAY-10
  6
CONTINUOUS
 62
     7
100
AcDbLine
 10
486.8798724186547
 20
455.5730749213921
 30
0.0
 11
485.9446543973108
 21
460.7023535927696
 31
0.0
  0
ARC
  5
15B
330
1F
100
AcDbEntity
  8
LAY-10
  6
CONTINUOUS
 62
     7
100
AcDbCircle
 10
464.9999999999965
 20
569.9999999999911
 30
0.0
 40
111.0807377657193
100
AcDbArc
 50
267.9363417797118
 51
272.0636582202883
  0
LINE
  5
15C
330
1F
100
AcDbEntity
  8
LAY-10
  6
CONTINUOUS
 62
     7
100
AcDbLine
 10
460.6000000000007
 20
459.4260330511704
 30
0.0
 11
460.9999999999968
 21
458.9913052838719
 31
0.0
  0
LINE
  5
15D
330
1F
100
AcDbEntity
  8
LAY-10
  6
CONTINUOUS
 62
     7
100
AcDbLine
 10
468.9999999999968
 20
467.4219214816737
 30
0.0
 11
468.9999999999968
 21
467.578078518308
 31
0.0
  0
LINE
  5
15E
330
1F
100
AcDbEntity
  8
LAY-10
  6
CONTINUOUS
 62
     7
100
AcDbLine
 10
469.3999999999927
 20
459.4260330511704
 30
0.0
 11
468.9999999999968
 21
458.9913052838719
 31
0.0
  0
ARC
  5
15F
330
1F
100
AcDbEntity
  8
LAY-10
  6
CONTINUOUS
 62
     7
100
AcDbCircle
 10
464.9999999999967
 20
569.9999999999905
 30
0.0
 40
111.2863606107273
100
AcDbArc
 50
250.8480511184137
 51
259.151948881582
  0
ARC
  5
160
330
1F
100
AcDbEntity
  8
LAY-10
  6
CONTINUOUS
 62
     7
100
AcDbCircle
 10
464.9999999999967
 20
569.9999999999905
 30
0.0
 40
110.6614755314552
100
AcDbArc
 50
183.328386645268
 51
267.7212674808251
  0
ARC
  5
161
330
1F
100
AcDbEntity
  8
LAY-10
  6
CONTINUOUS
 62
     7
100
AcDbCircle
 10
464.9999999999969
 20
569.9999999999899
 30
0.0
 40
116.4999999999998
100
AcDbArc
 50
349.1749904754549
 51
10.82500952454488
  0
LINE
  5
162
330
1F
100
AcDbEntity
  8
LAY-10
  6
CONTINUOUS
 62
     7
100
AcDbLine
 10
574.6916131707233
 20
589.99999999999
 30
0.0
 11
578.6267383069113
 21
590.717488789231
 31
0.0
  0
LINE
  5
163
330
1F
100
AcDbEntity
  8
LAY-10
  6
CONTINUOUS
 62
     7
100
AcDbLine
 10
579.4269250785952
 20
591.879872418648
 30
0.0
 11
574.2976464072177
 21
590.9446543973041
 31
0.0
  0
LINE
  5
164
330
1F
100
AcDbEntity
  8
LAY-10
  6
CONTINUOUS
 62
     7
100
AcDbLine
 10
578.6267383069113
 20
590.717488789231
 30
0.0
 11
579.4269250785952
 21
591.879872418648
 31
0.0
  0
LINE
  5
165
330
1F
100
AcDbEntity
  8
LAY-10
  6
CONTINUOUS
 62
     7
100
AcDbLine
 10
574.6916131707233
 20
549.9999999999895
 30
0.0
 11
578.6267383069113
 21
549.2825112107487
 31
0.0
  0
LINE
  5
166
330
1F
100
AcDbEntity
  8
LAY-10
  6
CONTINUOUS
 62
     7
100
AcDbLine
 10
579.4269250785952
 20
548.1201275813316
 30
0.0
 11
574.2976464072175
 21
549.0553456026755
 31
0.0
  0
LINE
  5
167
330
1F
100
AcDbEntity
  8
LAY-10
  6
CONTINUOUS
 62
     7
100
AcDbLine
 10
578.6267383069113
 20
549.2825112107487
 30
0.0
 11
579.4269250785952
 21
548.1201275813316
 31
0.0
  0
ARC
  5
168
330
1F
100
AcDbEntity
  8
LAY-10
  6
CONTINUOUS
 62
     7
100
AcDbCircle
 10
464.9999999999967
 20
569.9999999999905
 30
0.0
 40
115.5000000000017
100
AcDbArc
 50
349.6668057812607
 51
10.33319421873862
  0
ARC
  5
169
330
1F
100
AcDbEntity
  8
LAY-10
  6
CONTINUOUS
 62
     7
100
AcDbCircle
 10
464.9999999999967
 20
569.9999999999905
 30
0.0
 40
111.4999999999835
100
AcDbArc
 50
349.6668057812608
 51
10.33319421873867
  0
LINE
  5
16A
330
1F
100
AcDbEntity
  8
LAY-10
  6
CONTINUOUS
 62
     7
100
AcDbLine
 10
574.2976464072175
 20
549.0553456026755
 30
0.0
 11
574.6916131707231
 21
549.9999999999895
 31
0.0
  0
LINE
  5
16B
330
1F
100
AcDbEntity
  8
LAY-10
  6
CONTINUOUS
 62
     7
100
AcDbLine
 10
574.6916131707233
 20
589.99999999999
 30
0.0
 11
574.2976464072177
 21
590.9446543973041
 31
0.0
  0
ARC
  5
16C
330
1F
100
AcDbEntity
  8
LAY-10
  6
CONTINUOUS
 62
     7
100
AcDbCircle
 10
464.9999999999967
 20
569.9999999999905
 30
0.0
 40
111.2863606107273
100
AcDbArc
 50
340.8480511184134
 51
349.1519488815863
  0
LINE
  5
16D
330
1F
100
AcDbEntity
  8
LAY-10
  6
CONTINUOUS
 62
     7
100
AcDbLine
 10
569.9957235879416
 20
532.4747014903155
 30
0.0
 11
573.7623863175714
 21
531.1285024406347
 31
0.0
  0
LINE
  5
16E
330
1F
100
AcDbEntity
  8
LAY-10
  6
CONTINUOUS
 62
     7
100
AcDbLine
 10
573.7623863175716
 20
531.1285024406347
 30
0.0
 11
575.0365602043308
 21
531.735062806811
 31
0.0
  0
LINE
  5
16F
330
1F
100
AcDbEntity
  8
LAY-10
  6
CONTINUOUS
 62
     7
100
AcDbLine
 10
549.9957235879416
 20
497.8336853389378
 30
0.0
 11
553.0448975283304
 21
495.2447592524303
 31
0.0
  0
LINE
  5
170
330
1F
100
AcDbEntity
  8
LAY-10
  6
CONTINUOUS
 62
     7
100
AcDbLine
 10
553.0448975283304
 20
495.2447592524303
 30
0.0
 11
553.1566877856724
 21
493.8380121145698
 31
0.0
  0
ARC
  5
171
330
1F
100
AcDbEntity
  8
LAY-10
  6
CONTINUOUS
 62
     7
100
AcDbCircle
 10
464.9999999999967
 20
569.9999999999899
 30
0.0
 40
116.4999999999998
100
AcDbArc
 50
319.1749904754553
 51
340.8250095245448
  0
ARC
  5
172
330
1F
100
AcDbEntity
  8
LAY-10
  6
CONTINUOUS
 62
     7
100
AcDbCircle
 10
464.9999999999967
 20
569.9999999999905
 30
0.0
 40
111.4999999999835
100
AcDbArc
 50
319.6668057812612
 51
340.3331942187391
  0
ARC
  5
173
330
1F
100
AcDbEntity
  8
LAY-10
  6
CONTINUOUS
 62
     7
100
AcDbCircle
 10
464.9999999999967
 20
569.9999999999905
 30
0.0
 40
115.5000000000017
100
AcDbArc
 50
319.6668057812612
 51
340.3331942187391
  0
LINE
  5
174
330
1F
100
AcDbEntity
  8
LAY-10
  6
CONTINUOUS
 62
     7
100
AcDbLine
 10
549.1822111638412
 20
497.2125740148196
 30
0.0
 11
549.9957235879414
 21
497.8336853389378
 31
0.0
  0
LINE
  5
175
330
1F
100
AcDbEntity
  8
LAY-10
  6
CONTINUOUS
 62
     7
100
AcDbLine
 10
569.9957235879416
 20
532.4747014903155
 30
0.0
 11
570.126865561156
 21
533.4897795779393
 31
0.0
  0
LINE
  5
176
330
1F
100
AcDbEntity
  8
LAY-10
  6
CONTINUOUS
 62
     7
100
AcDbLine
 10
553.1566877856723
 20
493.8380121145703
 30
0.0
 11
549.1822111638412
 21
497.2125740148196
 31
0.0
  0
LINE
  5
177
330
1F
100
AcDbEntity
  8
LAY-10
  6
CONTINUOUS
 62
     7
100
AcDbLine
 10
575.0365602043308
 20
531.735062806811
 30
0.0
 11
570.126865561156
 21
533.4897795779393
 31
0.0
  0
LINE
  5
178
330
1F
100
AcDbEntity
  8
LAY-10
  6
CONTINUOUS
 62
     7
100
AcDbLine
 10
537.1663146610487
 20
485.004276412045
 30
0.0
 11
539.755240747556
 21
481.9551024716558
 31
0.0
  0
LINE
  5
179
330
1F
100
AcDbEntity
  8
LAY-10
  6
CONTINUOUS
 62
     7
100
AcDbLine
 10
539.755240747556
 20
481.9551024716558
 30
0.0
 11
541.1619878854164
 21
481.8433122143139
 31
0.0
  0
LINE
  5
17A
330
1F
100
AcDbEntity
  8
LAY-10
  6
CONTINUOUS
 62
     7
100
AcDbLine
 10
502.5252985096706
 20
465.0042764120448
 30
0.0
 11
503.8714975593514
 21
461.2376136824147
 31
0.0
  0
LINE
  5
17B
330
1F
100
AcDbEntity
  8
LAY-10
  6
CONTINUOUS
 62
     7
100
AcDbLine
 10
503.8714975593517
 20
461.2376136824145
 30
0.0
 11
503.2649371931751
 21
459.9634397956556
 31
0.0
  0
ARC
  5
17C
330
1F
100
AcDbEntity
  8
LAY-10
  6
CONTINUOUS
 62
     7
100
AcDbCircle
 10
464.9999999999964
 20
569.9999999999898
 30
0.0
 40
116.4999999999998
100
AcDbArc
 50
289.1749904754553
 51
310.8250095245452
  0
ARC
  5
17D
330
1F
100
AcDbEntity
  8
LAY-10
  6
CONTINUOUS
 62
     7
100
AcDbCircle
 10
464.9999999999967
 20
569.9999999999899
 30
0.0
 40
111.4999999999835
100
AcDbArc
 50
289.666805781261
 51
310.333194218739
  0
ARC
  5
17E
330
1F
100
AcDbEntity
  8
LAY-10
  6
CONTINUOUS
 62
     7
100
AcDbCircle
 10
464.9999999999967
 20
569.9999999999899
 30
0.0
 40
115.5000000000017
100
AcDbArc
 50
289.666805781261
 51
310.333194218739
  0
LINE
  5
17F
330
1F
100
AcDbEntity
  8
LAY-10
  6
CONTINUOUS
 62
     7
100
AcDbLine
 10
501.5102204220472
 20
464.8731344388306
 30
0.0
 11
502.5252985096706
 21
465.0042764120448
 31
0.0
  0
LINE
  5
180
330
1F
100
AcDbEntity
  8
LAY-10
  6
CONTINUOUS
 62
     7
100
AcDbLine
 10
537.1663146610487
 20
485.004276412045
 30
0.0
 11
537.7874259851666
 21
485.8177888361449
 31
0.0
  0
LINE
  5
181
330
1F
100
AcDbEntity
  8
LAY-10
  6
CONTINUOUS
 62
     7
100
AcDbLine
 10
503.2649371931751
 20
459.9634397956556
 30
0.0
 11
501.5102204220472
 21
464.8731344388306
 31
0.0
  0
LINE
  5
182
330
1F
100
AcDbEntity
  8
LAY-10
  6
CONTINUOUS
 62
     7
100
AcDbLine
 10
541.1619878854164
 20
481.8433122143139
 30
0.0
 11
537.7874259851666
 21
485.8177888361449
 31
0.0
  0
LINE
  5
183
330
1F
100
AcDbEntity
  8
LAY-10
  6
CONTINUOUS
 62
     7
100
AcDbLine
 10
549.9957235879416
 20
642.1663146610424
 30
0.0
 11
553.0448975283308
 21
644.7552407475494
 31
0.0
  0
LINE
  5
184
330
1F
100
AcDbEntity
  8
LAY-10
  6
CONTINUOUS
 62
     7
100
AcDbLine
 10
553.0448975283308
 20
644.7552407475495
 30
0.0
 11
553.1566877856727
 21
646.1619878854099
 31
0.0
  0
LINE
  5
185
330
1F
100
AcDbEntity
  8
LAY-10
  6
CONTINUOUS
 62
     7
100
AcDbLine
 10
569.9957235879419
 20
607.5252985096641
 30
0.0
 11
573.7623863175719
 21
608.8714975593449
 31
0.0
  0
LINE
  5
186
330
1F
100
AcDbEntity
  8
LAY-10
  6
CONTINUOUS
 62
     7
100
AcDbLine
 10
573.7623863175719
 20
608.8714975593455
 30
0.0
 11
575.0365602043311
 21
608.2649371931686
 31
0.0
  0
ARC
  5
187
330
1F
100
AcDbEntity
  8
LAY-10
  6
CONTINUOUS
 62
     7
100
AcDbCircle
 10
464.9999999999969
 20
569.9999999999899
 30
0.0
 40
116.4999999999998
100
AcDbArc
 50
19.17499047545519
 51
40.82500952454488
  0
ARC
  5
188
330
1F
100
AcDbEntity
  8
LAY-10
  6
CONTINUOUS
 62
     7
100
AcDbCircle
 10
464.9999999999967
 20
569.9999999999905
 30
0.0
 40
111.4999999999835
100
AcDbArc
 50
19.66680578126093
 51
40.33319421873886
  0
ARC
  5
189
330
1F
100
AcDbEntity
  8
LAY-10
  6
CONTINUOUS
 62
     7
100
AcDbCircle
 10
464.9999999999967
 20
569.9999999999905
 30
0.0
 40
115.5000000000017
100
AcDbArc
 50
19.66680578126093
 51
40.33319421873869
  0
LINE
  5
18A
330
1F
100
AcDbEntity
  8
LAY-10
  6
CONTINUOUS
 62
     7
100
AcDbLine
 10
570.1268655611561
 20
606.5102204220409
 30
0.0
 11
569.9957235879418
 21
607.5252985096641
 31
0.0
  0
LINE
  5
18B
330
1F
100
AcDbEntity
  8
LAY-10
  6
CONTINUOUS
 62
     7
100
AcDbLine
 10
549.9957235879416
 20
642.1663146610424
 30
0.0
 11
549.1822111638418
 21
642.7874259851602
 31
0.0
  0
LINE
  5
18C
330
1F
100
AcDbEntity
  8
LAY-10
  6
CONTINUOUS
 62
     7
100
AcDbLine
 10
575.0365602043311
 20
608.2649371931686
 30
0.0
 11
570.1268655611561
 21
606.5102204220409
 31
0.0
  0
LINE
  5
18D
330
1F
100
AcDbEntity
  8
LAY-10
  6
CONTINUOUS
 62
     7
100
AcDbLine
 10
553.1566877856727
 20
646.1619878854099
 30
0.0
 11
549.1822111638418
 21
642.7874259851602
 31
0.0
  0
LINE
  5
18E
330
1F
100
AcDbEntity
  8
LAY-10
  6
CONTINUOUS
 62
     7
100
AcDbLine
 10
502.5252985096713
 20
674.9957235879348
 30
0.0
 11
503.8714975593521
 21
678.762386317565
 31
0.0
  0
LINE
  5
18F
330
1F
100
AcDbEntity
  8
LAY-10
  6
CONTINUOUS
 62
     7
100
AcDbLine
 10
503.8714975593521
 20
678.762386317565
 30
0.0
 11
503.2649371931757
 21
680.036560204324
 31
0.0
  0
LINE
  5
190
330
1F
100
AcDbEntity
  8
LAY-10
  6
CONTINUOUS
 62
     7
100
AcDbLine
 10
537.1663146610496
 20
654.9957235879345
 30
0.0
 11
539.7552407475565
 21
658.0448975283239
 31
0.0
  0
LINE
  5
191
330
1F
100
AcDbEntity
  8
LAY-10
  6
CONTINUOUS
 62
     7
100
AcDbLine
 10
539.7552407475566
 20
658.0448975283239
 30
0.0
 11
541.161987885417
 21
658.1566877856658
 31
0.0
  0
ARC
  5
192
330
1F
100
AcDbEntity
  8
LAY-10
  6
CONTINUOUS
 62
     7
100
AcDbCircle
 10
464.9999999999969
 20
569.9999999999899
 30
0.0
 40
116.4999999999998
100
AcDbArc
 50
49.17499047545492
 51
70.82500952454478
  0
ARC
  5
193
330
1F
100
AcDbEntity
  8
LAY-10
  6
CONTINUOUS
 62
     7
100
AcDbCircle
 10
464.9999999999969
 20
569.9999999999899
 30
0.0
 40
111.4999999999835
100
AcDbArc
 50
49.666805781261
 51
70.33319421873898
  0
ARC
  5
194
330
1F
100
AcDbEntity
  8
LAY-10
  6
CONTINUOUS
 62
     7
100
AcDbCircle
 10
464.9999999999969
 20
569.9999999999899
 30
0.0
 40
115.5000000000017
100
AcDbArc
 50
49.66680578126083
 51
70.33319421873898
  0
LINE
  5
195
330
1F
100
AcDbEntity
  8
LAY-10
  6
CONTINUOUS
 62
     7
100
AcDbLine
 10
537.7874259851673
 20
654.1822111638347
 30
0.0
 11
537.1663146610493
 21
654.9957235879345
 31
0.0
  0
LINE
  5
196
330
1F
100
AcDbEntity
  8
LAY-10
  6
CONTINUOUS
 62
     7
100
AcDbLine
 10
502.5252985096713
 20
674.9957235879348
 30
0.0
 11
501.5102204220478
 21
675.1268655611495
 31
0.0
  0
LINE
  5
197
330
1F
100
AcDbEntity
  8
LAY-10
  6
CONTINUOUS
 62
     7
100
AcDbLine
 10
541.161987885417
 20
658.1566877856658
 30
0.0
 11
537.7874259851673
 21
654.1822111638347
 31
0.0
  0
LINE
  5
198
330
1F
100
AcDbEntity
  8
LAY-10
  6
CONTINUOUS
 62
     7
100
AcDbLine
 10
503.2649371931757
 20
680.0365602043239
 30
0.0
 11
501.5102204220478
 21
675.1268655611495
 31
0.0
  0
ARC
  5
199
330
1F
100
AcDbEntity
  8
LAY-10
  6
CONTINUOUS
 62
     7
100
AcDbCircle
 10
464.9999999999967
 20
569.9999999999905
 30
0.0
 40
111.2863606107273
100
AcDbArc
 50
40.84805111841307
 51
49.15194888158651
  0
ARC
  5
19A
330
1F
100
AcDbEntity
  8
LAY-10
  6
CONTINUOUS
 62
     7
100
AcDbCircle
 10
464.9999999999967
 20
569.9999999999905
 30
0.0
 40
111.2863606107273
100
AcDbArc
 50
10.84805111841305
 51
19.15194888158644
  0
ARC
  5
19B
330
1F
100
AcDbEntity
  8
LAY-10
  6
CONTINUOUS
 62
     7
100
AcDbCircle
 10
464.9999999999967
 20
569.9999999999905
 30
0.0
 40
111.2863606107273
100
AcDbArc
 50
310.8480511184133
 51
319.1519488815867
  0
ARC
  5
19C
330
1F
100
AcDbEntity
  8
LAY-10
  6
CONTINUOUS
 62
     7
100
AcDbCircle
 10
464.9999999999967
 20
569.9999999999899
 30
0.0
 40
111.0807377657193
100
AcDbArc
 50
356.9036750229876
 51
3.096324977012451
  0
LINE
  5
19D
330
1F
100
AcDbEntity
  8
LAY-10
  6
CONTINUOUS
 62
     7
100
AcDbLine
 10
575.9185751016292
 20
575.9999999999899
 30
0.0
 11
575.4748089373281
 21
576.4248546332835
 31
0.0
  0
LINE
  5
19E
330
1F
100
AcDbEntity
  8
LAY-10
  6
CONTINUOUS
 62
     7
100
AcDbLine
 10
575.9185751016292
 20
563.9999999999899
 30
0.0
 11
575.474808937328
 21
563.5751453666968
 31
0.0
  0
ARC
  5
19F
330
1F
100
AcDbEntity
  8
LAY-10
  6
CONTINUOUS
 62
     7
100
AcDbCircle
 10
464.9999999999967
 20
569.9999999999905
 30
0.0
 40
111.2863606107273
100
AcDbArc
 50
70.84805111841284
 51
79.15194888158675
  0
ARC
  5
1A0
330
1F
100
AcDbEntity
  8
LAY-10
  6
CONTINUOUS
 62
     7
100
AcDbCircle
 10
464.9999999999967
 20
569.9999999999905
 30
0.0
 40
110.6614755314552
100
AcDbArc
 50
3.328386645267476
 51
87.72126748082748
  0
ARC
  5
1A1
330
1F
100
AcDbEntity
  8
LAY-10
  6
CONTINUOUS
 62
     7
100
AcDbCircle
 10
464.9999999999967
 20
569.9999999999905
 30
0.0
 40
111.2863606107273
100
AcDbArc
 50
280.8480511184183
 51
289.1519488815867
  0
ARC
  5
1A2
330
1F
100
AcDbEntity
  8
LAY-10
  6
CONTINUOUS
 62
     7
100
AcDbCircle
 10
464.9999999999967
 20
569.9999999999905
 30
0.0
 40
110.6614755314552
100
AcDbArc
 50
272.278732519175
 51
356.6716133547322
  0
LINE
  5
1A3
330
1F
100
AcDbEntity
  8
LAY-10
  6
CONTINUOUS
 62
     7
100
AcDbLine
 10
566.5366072321307
 20
566.5570335802208
 30
0.0
 11
575.4633927678238
 21
571.7109156122415
 31
0.0
  0
LINE
  5
1A4
330
1F
100
AcDbEntity
  8
LAY-10
  6
CONTINUOUS
 62
     7
100
AcDbLine
 10
565.5366072321333
 20
568.2890843878225
 30
0.0
 11
574.4633927677971
 21
573.4429664198261
 31
0.0
  0
CIRCLE
  5
1A5
330
1F
100
AcDbEntity
  8
LAY-10
  6
CONTINUOUS
 62
     7
100
AcDbCircle
 10
570.4999999999931
 20
569.9999999999902
 30
0.0
 40
5.25
  0
LINE
  5
1A6
330
1F
100
AcDbEntity
  8
LAY-10
  6
CONTINUOUS
 62
     7
100
AcDbLine
 10
355.5366072321307
 20
566.5570335802208
 30
0.0
 11
364.4633927678238
 21
571.7109156122415
 31
0.0
  0
LINE
  5
1A7
330
1F
100
AcDbEntity
  8
LAY-10
  6
CONTINUOUS
 62
     7
100
AcDbLine
 10
354.5366072321333
 20
568.2890843878225
 30
0.0
 11
363.4633927677971
 21
573.4429664198261
 31
0.0
  0
CIRCLE
  5
1A8
330
1F
100
AcDbEntity
  8
LAY-10
  6
CONTINUOUS
 62
     7
100
AcDbCircle
 10
359.4999999999931
 20
569.9999999999902
 30
0.0
 40
5.25
  0
ARC
  5
1A9
330
1F
100
AcDbEntity
  8
LAY-10
  6
CONTINUOUS
 62
     7
100
AcDbCircle
 10
363.4999999999932
 20
569.9999999999897
 30
0.0
 40
4.0
100
AcDbArc
 50
270.0
 51
90.0
  0
ARC
  5
1AA
330
1F
100
AcDbEntity
  8
LAY-10
  6
CONTINUOUS
 62
     7
100
AcDbCircle
 10
464.999999999995
 20
569.9999999999897
 30
0.0
 40
108.0000000000001
100
AcDbArc
 50
182.1127655733879
 51
182.1225513621432
  0
LINE
  5
1AB
330
1F
100
AcDbEntity
  8
LAY-10
  6
CONTINUOUS
 62
     7
100
AcDbLine
 10
469.8529040114509
 20
652.0476933017782
 30
0.0
 11
470.8060803314286
 21
661.116560199179
 31
0.0
  0
LINE
  5
1AC
330
1F
100
AcDbEntity
  8
LAY-10
  6
CONTINUOUS
 62
     7
100
AcDbLine
 10
460.1470959885998
 20
652.0476933017816
 30
0.0
 11
459.1939196686225
 21
661.1165601991808
 31
0.0
  0
LINE
  5
1AD
330
1F
100
AcDbEntity
  8
LAY-10
  6
CONTINUOUS
 62
     7
100
AcDbLine
 10
452.6881817733372
 20
651.2637298272786
 30
0.0
 11
451.7350054533607
 21
660.3325967246716
 31
0.0
  0
LINE
  5
1AE
330
1F
100
AcDbEntity
  8
LAY-10
  6
CONTINUOUS
 62
     7
100
AcDbLine
 10
443.1944689425986
 20
649.2457788705019
 30
0.0
 11
440.3765983617007
 21
657.9182927672217
 31
0.0
  0
LINE
  5
1AF
330
1F
100
AcDbEntity
  8
LAY-10
  6
CONTINUOUS
 62
     7
100
AcDbLine
 10
436.0615450703826
 20
646.9281514126966
 30
0.0
 11
433.2436744894879
 21
655.6006653094079
 31
0.0
  0
LINE
  5
1B0
330
1F
100
AcDbEntity
  8
LAY-10
  6
CONTINUOUS
 62
     7
100
AcDbLine
 10
427.1948482383461
 20
642.9804436391518
 30
0.0
 11
422.6354378625646
 21
650.8775740625631
 31
0.0
  0
LINE
  5
1B1
330
1F
100
AcDbEntity
  8
LAY-10
  6
CONTINUOUS
 62
     7
100
AcDbLine
 10
420.6996577099582
 20
639.2304436391606
 30
0.0
 11
416.1402473341821
 21
647.1275740625614
 31
0.0
  0
LINE
  5
1B2
330
1F
100
AcDbEntity
  8
LAY-10
  6
CONTINUOUS
 62
     7
100
AcDbLine
 10
412.847494075314
 20
633.525512821752
 30
0.0
 11
406.7458120165584
 21
640.3021172777145
 31
0.0
  0
LINE
  5
1B3
330
1F
100
AcDbEntity
  8
LAY-10
  6
CONTINUOUS
 62
     7
100
AcDbLine
 10
407.2739078842256
 20
628.5070332740696
 30
0.0
 11
401.1722258254794
 21
635.2836377300215
 31
0.0
  0
LINE
  5
1B4
330
1F
100
AcDbEntity
  8
LAY-10
  6
CONTINUOUS
 62
     7
100
AcDbLine
 10
400.7794546766692
 20
621.2942122648099
 30
0.0
 11
393.4021737200381
 21
626.6541206208461
 31
0.0
  0
LINE
  5
1B5
330
1F
100
AcDbEntity
  8
LAY-10
  6
CONTINUOUS
 62
     7
100
AcDbLine
 10
396.3710652844646
 20
615.2265848070056
 30
0.0
 11
388.9937843278458
 21
620.5864931630333
 31
0.0
  0
LINE
  5
1B6
330
1F
100
AcDbEntity
  8
LAY-10
  6
CONTINUOUS
 62
     7
100
AcDbLine
 10
391.5181612730114
 20
606.8211084949512
 30
0.0
 11
383.1877039964414
 21
610.5300670362176
 31
0.0
  0
LINE
  5
1B7
330
1F
100
AcDbEntity
  8
LAY-10
  6
CONTINUOUS
 62
     7
100
AcDbLine
 10
388.4676364499296
 20
599.9695175626377
 30
0.0
 11
380.1371791733744
 21
603.6784761038977
 31
0.0
  0
LINE
  5
1B8
330
1F
100
AcDbEntity
  8
LAY-10
  6
CONTINUOUS
 62
     7
100
AcDbLine
 10
385.4683768267001
 20
590.738745596573
 30
0.0
 11
376.5488241871533
 21
592.6346550372697
 31
0.0
  0
LINE
  5
1B9
330
1F
100
AcDbEntity
  8
LAY-10
  6
CONTINUOUS
 62
     7
100
AcDbLine
 10
383.9090391455521
 20
583.4026385910727
 30
0.0
 11
374.9894865060216
 21
585.2985480317659
 31
0.0
  0
LINE
  5
1BA
330
1F
100
AcDbEntity
  8
LAY-10
  6
CONTINUOUS
 62
     7
100
AcDbLine
 10
382.8945059481293
 20
573.7500000000712
 30
0.0
 11
373.77568519672
 21
573.7500000000712
 31
0.0
  0
LINE
  5
1BB
330
1F
100
AcDbEntity
  8
LAY-10
  6
CONTINUOUS
 62
     7
100
AcDbLine
 10
382.8945059481144
 20
566.2500000000715
 30
0.0
 11
373.7756851967218
 21
566.2500000000715
 31
0.0
  0
LINE
  5
1BC
330
1F
100
AcDbEntity
  8
LAY-10
  6
CONTINUOUS
 62
     7
100
AcDbLine
 10
383.9090391454999
 20
556.5973614090584
 30
0.0
 11
374.9894865060203
 21
554.7014519683761
 31
0.0
  0
LINE
  5
1BD
330
1F
100
AcDbEntity
  8
LAY-10
  6
CONTINUOUS
 62
     7
100
AcDbLine
 10
385.4683768266193
 20
549.2612544035522
 30
0.0
 11
376.5488241871552
 21
547.365344962873
 31
0.0
  0
LINE
  5
1BE
330
1F
100
AcDbEntity
  8
LAY-10
  6
CONTINUOUS
 62
     7
100
AcDbLine
 10
388.4676364498204
 20
540.0304824374562
 30
0.0
 11
380.1371791733728
 21
536.3215238962443
 31
0.0
  0
LINE
  5
1BF
330
1F
100
AcDbEntity
  8
LAY-10
  6
CONTINUOUS
 62
     7
100
AcDbLine
 10
391.5181612728777
 20
533.1788915051314
 30
0.0
 11
383.1877039964429
 21
529.4699329639258
 31
0.0
  0
LINE
  5
1C0
330
1F
100
AcDbEntity
  8
LAY-10
  6
CONTINUOUS
 62
     7
100
AcDbLine
 10
396.3710652843188
 20
524.7734151930307
 30
0.0
 11
388.9937843278444
 21
519.4135068371083
 31
0.0
  0
LINE
  5
1C1
330
1F
100
AcDbEntity
  8
LAY-10
  6
CONTINUOUS
 62
     7
100
AcDbLine
 10
400.7794546765038
 20
518.7057877352128
 30
0.0
 11
393.4021737200395
 21
513.3458793792972
 31
0.0
  0
LINE
  5
1C2
330
1F
100
AcDbEntity
  8
LAY-10
  6
CONTINUOUS
 62
     7
100
AcDbLine
 10
407.2739078840696
 20
511.4929667258997
 30
0.0
 11
401.1722258254782
 21
504.7163622701194
 31
0.0
  0
LINE
  5
1C3
330
1F
100
AcDbEntity
  8
LAY-10
  6
CONTINUOUS
 62
     7
100
AcDbLine
 10
412.8474940751448
 20
506.4744871782023
 30
0.0
 11
406.7458120165601
 21
499.6978827224291
 31
0.0
  0
LINE
  5
1C4
330
1F
100
AcDbEntity
  8
LAY-10
  6
CONTINUOUS
 62
     7
100
AcDbLine
 10
420.6996577098203
 20
500.7695563607429
 30
0.0
 11
416.1402473341813
 21
492.8724259375795
 31
0.0
  0
LINE
  5
1C5
330
1F
100
AcDbEntity
  8
LAY-10
  6
CONTINUOUS
 62
     7
100
AcDbLine
 10
427.1948482382012
 20
497.0195563607388
 30
0.0
 11
422.6354378625654
 21
489.1224259375812
 31
0.0
  0
LINE
  5
1C6
330
1F
100
AcDbEntity
  8
LAY-10
  6
CONTINUOUS
 62
     7
100
AcDbLine
 10
436.0615450702728
 20
493.0718485871599
 30
0.0
 11
433.2436744894702
 21
484.399334690733
 31
0.0
  0
LINE
  5
1C7
330
1F
100
AcDbEntity
  8
LAY-10
  6
CONTINUOUS
 62
     7
100
AcDbLine
 10
470.6200490617316
 20
608.4999999999089
 30
0.0
 11
467.0047274575351
 21
583.7333333333346
 31
0.0
  0
ARC
  5
1C8
330
1F
100
AcDbEntity
  8
LAY-10
  6
CONTINUOUS
 62
     7
100
AcDbCircle
 10
464.9999999999964
 20
609.3203883494223
 30
0.0
 40
5.679611650485314
100
AcDbArc
 50
351.6948904719654
 51
188.3051095280659
  0
ARC
  5
1C9
330
1F
100
AcDbEntity
  8
LAY-10
  6
CONTINUOUS
 62
     7
100
AcDbCircle
 10
441.8880556137869
 20
601.810862400104
 30
0.0
 40
5.679611650485314
100
AcDbArc
 50
27.69489047196726
 51
224.3051095280645
  0
ARC
  5
1CA
330
1F
100
AcDbEntity
  8
LAY-10
  6
CONTINUOUS
 62
     7
100
AcDbCircle
 10
456.7557393184887
 20
581.3472513496794
 30
0.0
 40
2.025974025987109
100
AcDbArc
 50
224.3051095280713
 51
27.69489047197374
  0
LINE
  5
1CB
330
1F
100
AcDbEntity
  8
LAY-10
  6
CONTINUOUS
 62
     7
100
AcDbLine
 10
446.9169829869483
 20
604.450536239009
 30
0.0
 11
458.5496077840783
 21
582.2888492904896
 31
0.0
  0
LINE
  5
1CC
330
1F
100
AcDbEntity
  8
LAY-10
  6
CONTINUOUS
 62
     7
100
AcDbLine
 10
437.8235525866205
 20
597.8437723277106
 30
0.0
 11
455.305890619611
 21
579.9321508216824
 31
0.0
  0
ARC
  5
1CD
330
1F
100
AcDbEntity
  8
LAY-10
  6
CONTINUOUS
 62
     7
100
AcDbCircle
 10
427.6040884370117
 20
582.1506682253886
 30
0.0
 40
5.679611650485314
100
AcDbArc
 50
63.69489047196459
 51
260.305109528065
  0
ARC
  5
1CE
330
1F
100
AcDbEntity
  8
LAY-10
  6
CONTINUOUS
 62
     7
100
AcDbCircle
 10
451.6605060051959
 20
574.3342643366886
 30
0.0
 40
2.025974025987109
100
AcDbArc
 50
260.3051095280662
 51
63.69489047197094
  0
LINE
  5
1CF
330
1F
100
AcDbEntity
  8
LAY-10
  6
CONTINUOUS
 62
     7
100
AcDbLine
 10
426.6476334534144
 20
576.5521700013394
 30
0.0
 11
451.3193289893994
 21
572.3372242775346
 31
0.0
  0
ARC
  5
1D0
330
1F
100
AcDbEntity
  8
LAY-10
  6
CONTINUOUS
 62
     7
100
AcDbCircle
 10
427.6040884370107
 20
557.8493317745938
 30
0.0
 40
5.679611650485314
100
AcDbArc
 50
99.694890471963
 51
296.3051095280667
  0
LINE
  5
1D1
330
1F
100
AcDbEntity
  8
LAY-10
  6
CONTINUOUS
 62
     7
100
AcDbLine
 10
426.6476334534107
 20
563.4478299986423
 30
0.0
 11
451.3193289893941
 21
567.6627757224594
 31
0.0
  0
ARC
  5
1D2
330
1F
100
AcDbEntity
  8
LAY-10
  6
CONTINUOUS
 62
     7
100
AcDbCircle
 10
456.7557393184765
 20
558.6527486503091
 30
0.0
 40
2.025974025987109
100
AcDbArc
 50
332.3051095280695
 51
135.6948904719697
  0
LINE
  5
1D3
330
1F
100
AcDbEntity
  8
LAY-10
  6
CONTINUOUS
 62
     7
100
AcDbLine
 10
437.8235525866164
 20
542.1562276722684
 30
0.0
 11
455.3058906195982
 21
560.0678491783054
 31
0.0
  0
LINE
  5
1D4
330
1F
100
AcDbEntity
  8
LAY-10
  6
CONTINUOUS
 62
     7
100
AcDbLine
 10
470.9659386723609
 20
639.4999999999899
 30
0.0
 11
469.6591247677949
 21
624.2763157894661
 31
0.0
  0
LINE
  5
1D5
330
1F
100
AcDbEntity
  8
LAY-10
  6
CONTINUOUS
 62
     7
100
AcDbLine
 10
459.0340613276289
 20
639.4999999999899
 30
0.0
 11
460.3408752321951
 21
624.2763157894661
 31
0.0
  0
ARC
  5
1D6
330
1F
100
AcDbEntity
  8
LAY-10
  6
CONTINUOUS
 62
     7
100
AcDbCircle
 10
464.9999999999948
 20
640.0121212121104
 30
0.0
 40
5.987878787879314
100
AcDbArc
 50
355.0937092423649
 51
184.9062907576352
  0
ARC
  5
1D7
330
1F
100
AcDbEntity
  8
LAY-10
  6
CONTINUOUS
 62
     7
100
AcDbCircle
 10
464.9999999999948
 20
624.6762589927977
 30
0.0
 40
4.676258992807934
100
AcDbArc
 50
184.9062907576333
 51
355.0937092423666
  0
ARC
  5
1D8
330
1F
100
AcDbEntity
  8
LAY-10
  6
CONTINUOUS
 62
     7
100
AcDbCircle
 10
446.8795296422721
 20
637.626516032058
 30
0.0
 40
5.987878787879314
100
AcDbArc
 50
10.09370924236228
 51
199.9062907576382
  0
ARC
  5
1D9
330
1F
100
AcDbEntity
  8
LAY-10
  6
CONTINUOUS
 62
     7
100
AcDbCircle
 10
450.8487428576983
 20
622.813210646013
 30
0.0
 40
4.676258992807934
100
AcDbArc
 50
199.9062907576368
 51
10.09370924236136
  0
LINE
  5
1DA
330
1F
100
AcDbEntity
  8
LAY-10
  6
CONTINUOUS
 62
     7
100
AcDbLine
 10
452.7747306070648
 20
638.675943477402
 30
0.0
 11
455.4526247168009
 21
623.6327654002813
 31
0.0
  0
LINE
  5
1DB
330
1F
100
AcDbEntity
  8
LAY-10
  6
CONTINUOUS
 62
     7
100
AcDbLine
 10
441.2494221236747
 20
635.5877463767581
 30
0.0
 11
446.4518868345588
 21
621.2210249534505
 31
0.0
  0
ARC
  5
1DC
330
1F
100
AcDbEntity
  8
LAY-10
  6
CONTINUOUS
 62
     7
100
AcDbCircle
 10
429.9939393939346
 20
630.6322755425216
 30
0.0
 40
5.987878787879314
100
AcDbArc
 50
25.09370924236689
 51
214.9062907576382
  0
ARC
  5
1DD
330
1F
100
AcDbEntity
  8
LAY-10
  6
CONTINUOUS
 62
     7
100
AcDbCircle
 10
437.661870503591
 20
617.3510292716587
 30
0.0
 40
4.676258992807934
100
AcDbArc
 50
214.9062907576325
 51
25.093709242365
  0
LINE
  5
1DE
330
1F
100
AcDbEntity
  8
LAY-10
  6
CONTINUOUS
 62
     7
100
AcDbLine
 10
435.4166544476837
 20
633.1717348991912
 30
0.0
 11
441.8967625135726
 21
619.3342306814023
 31
0.0
  0
LINE
  5
1DF
330
1F
100
AcDbEntity
  8
LAY-10
  6
CONTINUOUS
 62
     7
100
AcDbLine
 10
425.0833455523059
 20
627.2057962268251
 30
0.0
 11
433.8269216969409
 21
614.6751059136028
 31
0.0
  0
ARC
  5
1E0
330
1F
100
AcDbEntity
  8
LAY-10
  6
CONTINUOUS
 62
     7
100
AcDbCircle
 10
415.4939543256499
 20
619.5060456743346
 30
0.0
 40
5.987878787879314
100
AcDbArc
 50
40.09370924236773
 51
229.906290757635
  0
ARC
  5
1E1
330
1F
100
AcDbEntity
  8
LAY-10
  6
CONTINUOUS
 62
     7
100
AcDbCircle
 10
426.3380464962686
 20
608.6619535037161
 30
0.0
 40
4.676258992807934
100
AcDbArc
 50
229.9062907576333
 51
40.09370924236624
  0
LINE
  5
1E2
330
1F
100
AcDbEntity
  8
LAY-10
  6
CONTINUOUS
 62
     7
100
AcDbLine
 10
420.074634398903
 20
623.3624769838276
 30
0.0
 11
429.9153477651392
 21
611.6736496702564
 31
0.0
  0
LINE
  5
1E3
330
1F
100
AcDbEntity
  8
LAY-10
  6
CONTINUOUS
 62
     7
100
AcDbLine
 10
411.6375230161569
 20
614.9253656010817
 30
0.0
 11
423.3263503297283
 21
605.0846522348453
 31
0.0
  0
LINE
  5
1E4
330
1F
100
AcDbEntity
  8
LAY-10
  6
CONTINUOUS
 62
     7
100
AcDbLine
 10
401.8282651007935
 20
599.5833455523008
 30
0.0
 11
415.6657693185823
 21
593.103237486412
 31
0.0
  0
ARC
  5
1E5
330
1F
100
AcDbEntity
  8
LAY-10
  6
CONTINUOUS
 62
     7
100
AcDbCircle
 10
397.373483967927
 20
588.1204703577127
 30
0.0
 40
5.987878787879314
100
AcDbArc
 50
70.09370924236543
 51
259.9062907576345
  0
ARC
  5
1E6
330
1F
100
AcDbEntity
  8
LAY-10
  6
CONTINUOUS
 62
     7
100
AcDbCircle
 10
412.1867893539718
 20
584.1512571422862
 30
0.0
 40
4.676258992807934
100
AcDbArc
 50
259.9062907576345
 51
70.09370924236299
  0
LINE
  5
1E7
330
1F
100
AcDbEntity
  8
LAY-10
  6
CONTINUOUS
 62
     7
100
AcDbLine
 10
399.4122536232267
 20
593.7505778763096
 30
0.0
 11
413.7789750465343
 21
588.5481131654257
 31
0.0
  0
LINE
  5
1E8
330
1F
100
AcDbEntity
  8
LAY-10
  6
CONTINUOUS
 62
     7
100
AcDbLine
 10
396.3240565225826
 20
582.2252693929198
 30
0.0
 11
411.3672345997032
 21
579.5473752831838
 31
0.0
  0
ARC
  5
1E9
330
1F
100
AcDbEntity
  8
LAY-10
  6
CONTINUOUS
 62
     7
100
AcDbCircle
 10
394.9878787878743
 20
569.9999999999897
 30
0.0
 40
5.987878787879314
100
AcDbArc
 50
85.09370924236485
 51
274.9062907576385
  0
ARC
  5
1EA
330
1F
100
AcDbEntity
  8
LAY-10
  6
CONTINUOUS
 62
     7
100
AcDbCircle
 10
410.323741007187
 20
569.9999999999897
 30
0.0
 40
4.676258992807934
100
AcDbArc
 50
274.9062907576377
 51
85.09370924236245
  0
LINE
  5
1EB
330
1F
100
AcDbEntity
  8
LAY-10
  6
CONTINUOUS
 62
     7
100
AcDbLine
 10
395.4999999999951
 20
575.9659386723557
 30
0.0
 11
410.7236842105189
 21
574.6591247677895
 31
0.0
  0
LINE
  5
1EC
330
1F
100
AcDbEntity
  8
LAY-10
  6
CONTINUOUS
 62
     7
100
AcDbLine
 10
395.4999999999951
 20
564.0340613276236
 30
0.0
 11
410.7236842105189
 21
565.3408752321898
 31
0.0
  0
ARC
  5
1ED
330
1F
100
AcDbEntity
  8
LAY-10
  6
CONTINUOUS
 62
     7
100
AcDbCircle
 10
397.373483967927
 20
551.8795296422666
 30
0.0
 40
5.987878787879314
100
AcDbArc
 50
100.0937092423656
 51
289.9062907576384
  0
ARC
  5
1EE
330
1F
100
AcDbEntity
  8
LAY-10
  6
CONTINUOUS
 62
     7
100
AcDbCircle
 10
412.1867893539718
 20
555.8487428576931
 30
0.0
 40
4.676258992807934
100
AcDbArc
 50
289.9062907576358
 51
100.0937092423636
  0
LINE
  5
1EF
330
1F
100
AcDbEntity
  8
LAY-10
  6
CONTINUOUS
 62
     7
100
AcDbLine
 10
396.324056522583
 20
557.7747306070595
 30
0.0
 11
411.3672345997032
 21
560.4526247167955
 31
0.0
  0
LINE
  5
1F0
330
1F
100
AcDbEntity
  8
LAY-10
  6
CONTINUOUS
 62
     7
100
AcDbLine
 10
399.4122536232269
 20
546.2494221236697
 30
0.0
 11
413.7789750465343
 21
551.4518868345536
 31
0.0
  0
ARC
  5
1F1
330
1F
100
AcDbEntity
  8
LAY-10
  6
CONTINUOUS
 62
     7
100
AcDbCircle
 10
404.3677244574631
 20
534.9939393939293
 30
0.0
 40
5.987878787879314
100
AcDbArc
 50
115.0937092423652
 51
304.9062907576354
  0
ARC
  5
1F2
330
1F
100
AcDbEntity
  8
LAY-10
  6
CONTINUOUS
 62
     7
100
AcDbCircle
 10
417.6489707283261
 20
542.6618705035856
 30
0.0
 40
4.676258992807934
100
AcDbArc
 50
304.906290757635
 51
115.0937092423654
  0
LINE
  5
1F3
330
1F
100
AcDbEntity
  8
LAY-10
  6
CONTINUOUS
 62
     7
100
AcDbLine
 10
401.8282651007938
 20
540.4166544476785
 30
0.0
 11
415.6657693185823
 21
546.8967625135676
 31
0.0
  0
LINE
  5
1F4
330
1F
100
AcDbEntity
  8
LAY-10
  6
CONTINUOUS
 62
     7
100
AcDbLine
 10
407.7942037731596
 20
530.0833455523006
 30
0.0
 11
420.3248940863822
 21
538.8269216969355
 31
0.0
  0
ARC
  5
1F5
330
1F
100
AcDbEntity
  8
LAY-10
  6
CONTINUOUS
 62
     7
100
AcDbCircle
 10
415.4939543256499
 20
520.4939543256447
 30
0.0
 40
5.987878787879314
100
AcDbArc
 50
130.0937092423651
 51
319.9062907576362
  0
ARC
  5
1F6
330
1F
100
AcDbEntity
  8
LAY-10
  6
CONTINUOUS
 62
     7
100
AcDbCircle
 10
426.3380464962686
 20
531.3380464962632
 30
0.0
 40
4.676258992807934
100
AcDbArc
 50
319.9062907576323
 51
130.0937092423648
  0
LINE
  5
1F7
330
1F
100
AcDbEntity
  8
LAY-10
  6
CONTINUOUS
 62
     7
100
AcDbLine
 10
411.6375230161569
 20
525.0746343988976
 30
0.0
 11
423.3263503297283
 21
534.915347765134
 31
0.0
  0
LINE
  5
1F8
330
1F
100
AcDbEntity
  8
LAY-10
  6
CONTINUOUS
 62
     7
100
AcDbLine
 10
420.0746343989031
 20
516.6375230161517
 30
0.0
 11
429.9153477651397
 21
528.3263503297229
 31
0.0
  0
ARC
  5
1F9
330
1F
100
AcDbEntity
  8
LAY-10
  6
CONTINUOUS
 62
     7
100
AcDbCircle
 10
429.9939393939346
 20
509.3677244574577
 30
0.0
 40
5.987878787879314
100
AcDbArc
 50
145.0937092423623
 51
334.9062907576396
  0
ARC
  5
1FA
330
1F
100
AcDbEntity
  8
LAY-10
  6
CONTINUOUS
 62
     7
100
AcDbCircle
 10
437.661870503591
 20
522.6489707283206
 30
0.0
 40
4.676258992807934
100
AcDbArc
 50
334.9062907576369
 51
145.0937092423621
  0
LINE
  5
1FB
330
1F
100
AcDbEntity
  8
LAY-10
  6
CONTINUOUS
 62
     7
100
AcDbLine
 10
425.0833455523064
 20
512.7942037731542
 30
0.0
 11
433.8269216969409
 21
525.3248940863768
 31
0.0
  0
LINE
  5
1FC
330
1F
100
AcDbEntity
  8
LAY-10
  6
CONTINUOUS
 62
     7
100
AcDbLine
 10
435.4166544476842
 20
506.8282651007881
 30
0.0
 11
441.8967625135732
 21
520.665769318577
 31
0.0
  0
TEXT
  5
1FD
330
1F
100
AcDbEntity
  8
LAY-10
  6
CONTINUOUS
 62
     7
100
AcDbText
 10
489.8117688508329
 20
670.0534256557174
 30
0.0
 40
5.456692828292274
  1
Ｘ
 50
168.4112657214682
 41
1.2
  7
EXCADSTD
100
AcDbText
  0
TEXT
  5
1FE
330
1F
100
AcDbEntity
  8
LAY-10
  6
CONTINUOUS
 62
     7
100
AcDbText
 10
481.6446524597665
 20
671.7313491675217
 30
0.0
 40
5.456692828292274
  1
－
 50
173.04675943288
 41
1.2
  7
EXCADSTD
100
AcDbText
  0
TEXT
  5
1FF
330
1F
100
AcDbEntity
  8
LAY-10
  6
CONTINUOUS
 62
     7
100
AcDbText
 10
473.3686469320092
 20
672.7437472913925
 30
0.0
 40
5.456692828292274
  1
３
 50
177.682253144294
 41
1.2
  7
EXCADSTD
100
AcDbText
  0
TEXT
  5
200
330
1F
100
AcDbEntity
  8
LAY-10
  6
CONTINUOUS
 62
     7
100
AcDbText
 10
465.0378938063729
 20
673.0839969297331
 30
0.0
 40
5.456692828292274
  1
１
 50
182.317746855706
 41
1.2
  7
EXCADSTD
100
AcDbText
  0
TEXT
  5
201
330
1F
100
AcDbEntity
  8
LAY-10
  6
CONTINUOUS
 62
     7
100
AcDbText
 10
456.7068927798648
 20
672.7498721730831
 30
0.0
 40
5.456692828292274
  1
５
 50
186.9532405671201
 41
1.2
  7
EXCADSTD
100
AcDbText
  0
TEXT
  5
202
330
1F
100
AcDbEntity
  8
LAY-10
  6
CONTINUOUS
 62
     7
100
AcDbText
 10
448.4301451712559
 20
671.743558861993
 30
0.0
 40
5.456692828292274
  1
０
 50
191.5887342785318
 41
1.2
  7
EXCADSTD
100
AcDbText
  0
ARC
  5
203
330
1F
100
AcDbEntity
  8
LAY-10
  6
CONTINUOUS
 62
     7
100
AcDbCircle
 10
464.999999999995
 20
569.9999999999078
 30
0.0
 40
82.19108621682881
100
AcDbArc
 50
110.6150498491152
 51
117.3849501507544
  0
ARC
  5
204
330
1F
100
AcDbEntity
  8
LAY-10
  6
CONTINUOUS
 62
     7
100
AcDbCircle
 10
464.999999999995
 20
569.9999999999078
 30
0.0
 40
82.19108621682881
100
AcDbArc
 50
122.6150498490947
 51
129.3849501507374
  0
ARC
  5
205
330
1F
100
AcDbEntity
  8
LAY-10
  6
CONTINUOUS
 62
     7
100
AcDbCircle
 10
464.999999999995
 20
569.9999999999078
 30
0.0
 40
82.19108621682881
100
AcDbArc
 50
134.6150498490784
 51
141.3849501507249
  0
ARC
  5
206
330
1F
100
AcDbEntity
  8
LAY-10
  6
CONTINUOUS
 62
     7
100
AcDbCircle
 10
464.999999999995
 20
569.9999999999078
 30
0.0
 40
82.19108621682881
100
AcDbArc
 50
158.6150498490577
 51
165.3849501507136
  0
ARC
  5
207
330
1F
100
AcDbEntity
  8
LAY-10
  6
CONTINUOUS
 62
     7
100
AcDbCircle
 10
464.999999999995
 20
569.9999999999078
 30
0.0
 40
82.19108621682881
100
AcDbArc
 50
146.6150498490659
 51
153.3849501507171
  0
ARC
  5
208
330
1F
100
AcDbEntity
  8
LAY-10
  6
CONTINUOUS
 62
     7
100
AcDbCircle
 10
464.999999999995
 20
569.9999999999078
 30
0.0
 40
82.19108621682881
100
AcDbArc
 50
170.6150498490547
 51
177.3849501507156
  0
ARC
  5
209
330
1F
100
AcDbEntity
  8
LAY-10
  6
CONTINUOUS
 62
     7
100
AcDbCircle
 10
464.999999999995
 20
569.9999999999078
 30
0.0
 40
82.19108621682881
100
AcDbArc
 50
182.6150498490562
 51
189.3849501507227
  0
ARC
  5
20A
330
1F
100
AcDbEntity
  8
LAY-10
  6
CONTINUOUS
 62
     7
100
AcDbCircle
 10
464.999999999995
 20
569.9999999999078
 30
0.0
 40
82.19108621682881
100
AcDbArc
 50
194.6150498490634
 51
201.3849501507341
  0
ARC
  5
20B
330
1F
100
AcDbEntity
  8
LAY-10
  6
CONTINUOUS
 62
     7
100
AcDbCircle
 10
464.999999999995
 20
569.9999999999078
 30
0.0
 40
82.19108621682881
100
AcDbArc
 50
206.6150498490751
 51
213.3849501507501
  0
ARC
  5
20C
330
1F
100
AcDbEntity
  8
LAY-10
  6
CONTINUOUS
 62
     7
100
AcDbCircle
 10
464.999999999995
 20
569.9999999999078
 30
0.0
 40
82.19108621682881
100
AcDbArc
 50
218.6150498490908
 51
225.3849501507692
  0
ARC
  5
20D
330
1F
100
AcDbEntity
  8
LAY-10
  6
CONTINUOUS
 62
     7
100
AcDbCircle
 10
464.999999999995
 20
569.9999999999078
 30
0.0
 40
82.19108621682881
100
AcDbArc
 50
230.6150498491102
 51
237.3849501507915
  0
ARC
  5
20E
330
1F
100
AcDbEntity
  8
LAY-10
  6
CONTINUOUS
 62
     7
100
AcDbCircle
 10
464.999999999995
 20
569.9999999999078
 30
0.0
 40
82.19108621682881
100
AcDbArc
 50
242.6150498491319
 51
249.3849501508033
  0
LINE
  5
20F
330
1F
100
AcDbEntity
  8
LAY-10
  6
CONTINUOUS
 62
     7
100
AcDbLine
 10
356.9618123069391
 20
579.9999999999898
 30
0.0
 11
374.2479305397092
 21
579.9999999999898
 31
0.0
  0
LINE
  5
210
330
1F
100
AcDbEntity
  8
LAY-10
  6
CONTINUOUS
 62
     7
100
AcDbLine
 10
356.9618123069391
 20
559.9999999999899
 30
0.0
 11
374.2479305397268
 21
559.9999999999899
 31
0.0
  0
ARC
  5
211
330
1F
100
AcDbEntity
  8
LAY-10
  6
CONTINUOUS
 62
     7
100
AcDbCircle
 10
451.660506005191
 20
565.6657356633053
 30
0.0
 40
2.025974025987109
100
AcDbArc
 50
296.3051095280665
 51
99.69489047196822
  0
LINE
  5
212
330
1F
100
AcDbEntity
  8
LAY-10
  6
CONTINUOUS
 62
     7
100
AcDbLine
 10
430.1210147920076
 20
552.7578614345201
 30
0.0
 11
452.5583186963299
 21
563.8495574986957
 31
0.0
  0
LINE
  5
213
330
1F
100
AcDbEntity
  8
LAY-10
  6
CONTINUOUS
 62
     7
100
AcDbLine
 10
430.1210147920059
 20
587.2421385654633
 30
0.0
 11
452.558318696334
 21
576.1504425012989
 31
0.0
  0
ARC
  5
214
330
1F
100
AcDbEntity
  8
LAY-10
  6
CONTINUOUS
 62
     7
100
AcDbCircle
 10
465.0000000000025
 20
584.0259740259769
 30
0.0
 40
2.025974025987109
100
AcDbArc
 50
188.3051095280614
 51
351.6948904719677
  0
LINE
  5
215
330
1F
100
AcDbEntity
  8
LAY-10
  6
CONTINUOUS
 62
     7
100
AcDbLine
 10
459.3799509382616
 20
608.4999999999062
 30
0.0
 11
462.9952725424703
 21
583.7333333333339
 31
0.0
  0
ARC
  5
216
330
1F
100
AcDbEntity
  8
LAY-10
  6
CONTINUOUS
 62
     7
100
AcDbCircle
 10
404.3677244574631
 20
605.00606060605
 30
0.0
 40
5.987878787879314
100
AcDbArc
 50
55.09370924236467
 51
244.9062907576368
  0
LINE
  5
217
330
1F
100
AcDbEntity
  8
LAY-10
  6
CONTINUOUS
 62
     7
100
AcDbLine
 10
407.7942037731596
 20
609.9166544476788
 30
0.0
 11
420.324894086382
 21
601.1730783030434
 31
0.0
  0
ARC
  5
218
330
1F
100
AcDbEntity
  8
LAY-10
  6
CONTINUOUS
 62
     7
100
AcDbCircle
 10
417.6489707283259
 20
597.3381294963937
 30
0.0
 40
4.676258992807934
100
AcDbArc
 50
244.9062907576372
 51
55.09370924236501
  0
LINE
  5
219
330
1F
100
AcDbEntity
  8
LAY-10
  6
CONTINUOUS
 62
     7
100
AcDbLine
 10
458.5496077840672
 20
557.7111507094993
 30
0.0
 11
446.9169829869472
 21
535.5494637609747
 31
0.0
  0
ARC
  5
21A
330
1F
100
AcDbEntity
  8
LAY-10
  6
CONTINUOUS
 62
     7
100
AcDbCircle
 10
441.8880556137847
 20
538.189137599877
 30
0.0
 40
5.679611650485314
100
AcDbArc
 50
135.6948904719647
 51
332.3051095280654
  0
LINE
  5
21B
330
1F
100
AcDbEntity
  8
LAY-10
  6
CONTINUOUS
 62
     7
100
AcDbLine
 10
470.6200490617316
 20
531.5000000000704
 30
0.0
 11
467.0047274575351
 21
556.2666666666447
 31
0.0
  0
ARC
  5
21C
330
1F
100
AcDbEntity
  8
LAY-10
  6
CONTINUOUS
 62
     7
100
AcDbCircle
 10
464.9999999999964
 20
530.6796116505574
 30
0.0
 40
5.679611650485314
100
AcDbArc
 50
171.6948904719376
 51
8.305109528034595
  0
ARC
  5
21D
330
1F
100
AcDbEntity
  8
LAY-10
  6
CONTINUOUS
 62
     7
100
AcDbCircle
 10
465.0000000000025
 20
555.9740259740028
 30
0.0
 40
2.025974025987109
100
AcDbArc
 50
8.305109528032304
 51
171.6948904719386
  0
LINE
  5
21E
330
1F
100
AcDbEntity
  8
LAY-10
  6
CONTINUOUS
 62
     7
100
AcDbLine
 10
459.3799509382616
 20
531.5000000000731
 30
0.0
 11
462.9952725424703
 21
556.2666666666457
 31
0.0
  0
CIRCLE
  5
21F
330
1F
100
AcDbEntity
  8
LAY-10
  6
CONTINUOUS
 62
     7
100
AcDbCircle
 10
464.999999999995
 20
569.99999999999
 30
0.0
 40
80.58339106224196
  0
CIRCLE
  5
220
330
1F
100
AcDbEntity
  8
LAY-10
  6
CONTINUOUS
 62
     7
100
AcDbCircle
 10
465.0000000000475
 20
570.0000000000691
 30
0.0
 40
91.3013587595085
  0
ARC
  5
221
330
1F
100
AcDbEntity
  8
LAY-10
  6
CONTINUOUS
 62
     7
100
AcDbCircle
 10
464.999999999995
 20
569.9999999999078
 30
0.0
 40
82.19108621682881
100
AcDbArc
 50
86.61504984916121
 51
93.38495015079663
  0
ARC
  5
222
330
1F
100
AcDbEntity
  8
LAY-10
  6
CONTINUOUS
 62
     7
100
AcDbCircle
 10
464.999999999995
 20
569.9999999999078
 30
0.0
 40
82.19108621682881
100
AcDbArc
 50
98.61504984913728
 51
105.3849501507742
  0
LINE
  5
223
330
1F
100
AcDbEntity
  8
LAY-10
  6
CONTINUOUS
 62
     7
100
AcDbLine
 10
469.8529040114509
 20
487.9523066982014
 30
0.0
 11
470.8060803314286
 21
478.8834398008005
 31
0.0
  0
LINE
  5
224
330
1F
100
AcDbEntity
  8
LAY-10
  6
CONTINUOUS
 62
     7
100
AcDbLine
 10
460.1470959885998
 20
487.952306698198
 30
0.0
 11
459.1939196686225
 21
478.8834398007988
 31
0.0
  0
LINE
  5
225
330
1F
100
AcDbEntity
  8
LAY-10
  6
CONTINUOUS
 62
     7
100
AcDbLine
 10
452.6881817733372
 20
488.736270172701
 30
0.0
 11
451.7350054533607
 21
479.6674032753077
 31
0.0
  0
LINE
  5
226
330
1F
100
AcDbEntity
  8
LAY-10
  6
CONTINUOUS
 62
     7
100
AcDbLine
 10
443.1944689425986
 20
490.7542211294776
 30
0.0
 11
440.3765983617007
 21
482.0817072327575
 31
0.0
  0
LINE
  5
227
330
1F
100
AcDbEntity
  8
LAY-10
  6
CONTINUOUS
 62
     7
100
AcDbLine
 10
470.9659386723609
 20
500.4999999999897
 30
0.0
 11
469.6591247677949
 21
515.7236842105135
 31
0.0
  0
LINE
  5
228
330
1F
100
AcDbEntity
  8
LAY-10
  6
CONTINUOUS
 62
     7
100
AcDbLine
 10
459.0340613276289
 20
500.4999999999897
 30
0.0
 11
460.3408752321951
 21
515.7236842105135
 31
0.0
  0
ARC
  5
229
330
1F
100
AcDbEntity
  8
LAY-10
  6
CONTINUOUS
 62
     7
100
AcDbCircle
 10
464.9999999999948
 20
499.9878787878689
 30
0.0
 40
5.987878787879314
100
AcDbArc
 50
175.0937092423621
 51
4.90629075763518
  0
ARC
  5
22A
330
1F
100
AcDbEntity
  8
LAY-10
  6
CONTINUOUS
 62
     7
100
AcDbCircle
 10
464.9999999999948
 20
515.3237410071816
 30
0.0
 40
4.676258992807934
100
AcDbArc
 50
4.906290757637586
 51
175.0937092423625
  0
ARC
  5
22B
330
1F
100
AcDbEntity
  8
LAY-10
  6
CONTINUOUS
 62
     7
100
AcDbCircle
 10
446.8795296422721
 20
502.3734839679215
 30
0.0
 40
5.987878787879314
100
AcDbArc
 50
160.0937092423619
 51
349.9062907576351
  0
ARC
  5
22C
330
1F
100
AcDbEntity
  8
LAY-10
  6
CONTINUOUS
 62
     7
100
AcDbCircle
 10
450.8487428576983
 20
517.1867893539667
 30
0.0
 40
4.676258992807934
100
AcDbArc
 50
349.9062907576345
 51
160.0937092423632
  0
LINE
  5
22D
330
1F
100
AcDbEntity
  8
LAY-10
  6
CONTINUOUS
 62
     7
100
AcDbLine
 10
452.7747306070648
 20
501.3240565225775
 30
0.0
 11
455.4526247168009
 21
516.367234599698
 31
0.0
  0
LINE
  5
22E
330
1F
100
AcDbEntity
  8
LAY-10
  6
CONTINUOUS
 62
     7
100
AcDbLine
 10
441.2494221236747
 20
504.4122536232214
 30
0.0
 11
446.4518868345588
 21
518.7789750465291
 31
0.0
  0
ARC
  5
22F
330
1F
100
AcDbEntity
  8
LAY-10
  6
CONTINUOUS
 62
     7
100
AcDbCircle
 10
464.999999999995
 20
570.0000000000719
 30
0.0
 40
82.19108621682881
100
AcDbArc
 50
266.6150498492037
 51
273.3849501508391
  0
ARC
  5
230
330
1F
100
AcDbEntity
  8
LAY-10
  6
CONTINUOUS
 62
     7
100
AcDbCircle
 10
464.999999999995
 20
570.0000000000719
 30
0.0
 40
82.19108621682881
100
AcDbArc
 50
254.615049849226
 51
261.3849501508628
  0
LINE
  5
231
330
1F
100
AcDbEntity
  8
LAY-10
  6
CONTINUOUS
 62
     7
100
AcDbLine
 10
475.1748100096759
 20
470.0993206202768
 30
0.0
 11
464.9999999999959
 21
463.6172517537428
 31
0.0
  0
LINE
  5
232
330
1F
100
AcDbEntity
  8
LAY-10
  6
CONTINUOUS
 62
     7
100
AcDbLine
 10
454.8251899903158
 20
470.0993206202768
 30
0.0
 11
464.9999999999959
 21
463.6172517537428
 31
0.0
  0
LINE
  5
233
330
1F
100
AcDbEntity
  8
LAY-10
  6
CONTINUOUS
 62
     7
100
AcDbLine
 10
475.1748100096759
 20
470.0993206202734
 30
0.0
 11
464.9999999999959
 21
476.581389486807
 31
0.0
  0
LINE
  5
234
330
1F
100
AcDbEntity
  8
LAY-10
  6
CONTINUOUS
 62
     7
100
AcDbLine
 10
454.8251899903158
 20
470.0993206202734
 30
0.0
 11
464.9999999999959
 21
476.581389486807
 31
0.0
  0
TEXT
  5
235
330
1F
100
AcDbEntity
  8
LAY-10
  6
CONTINUOUS
 62
     7
100
AcDbText
 10
458.8268182525454
 20
466.949167002725
 30
0.0
 40
5.846457
  1
ＳＦ
 41
1.035
  7
EXCADSTD
100
AcDbText
  0
ARC
  5
236
330
1F
100
AcDbEntity
  8
LAY-10
  6
CONTINUOUS
 62
     7
100
AcDbCircle
 10
566.4999999999968
 20
569.9999999999897
 30
0.0
 40
4.0
100
AcDbArc
 50
90.0
 51
270.0
  0
ARC
  5
237
330
1F
100
AcDbEntity
  8
LAY-10
  6
CONTINUOUS
 62
     7
100
AcDbCircle
 10
464.999999999995
 20
569.9999999999897
 30
0.0
 40
108.0000000000001
100
AcDbArc
 50
357.877448637857
 51
357.8872344266123
  0
LINE
  5
238
330
1F
100
AcDbEntity
  8
LAY-10
  6
CONTINUOUS
 62
     7
100
AcDbLine
 10
477.3118182266528
 20
651.2637298272786
 30
0.0
 11
478.2649945466295
 21
660.3325967246716
 31
0.0
  0
LINE
  5
239
330
1F
100
AcDbEntity
  8
LAY-10
  6
CONTINUOUS
 62
     7
100
AcDbLine
 10
486.8055310573914
 20
649.2457788705019
 30
0.0
 11
489.6234016382893
 21
657.9182927672217
 31
0.0
  0
LINE
  5
23A
330
1F
100
AcDbEntity
  8
LAY-10
  6
CONTINUOUS
 62
     7
100
AcDbLine
 10
493.9384549296074
 20
646.9281514126966
 30
0.0
 11
496.7563255105022
 21
655.6006653094079
 31
0.0
  0
LINE
  5
23B
330
1F
100
AcDbEntity
  8
LAY-10
  6
CONTINUOUS
 62
     7
100
AcDbLine
 10
502.805151761644
 20
642.9804436391518
 30
0.0
 11
507.3645621374256
 21
650.8775740625631
 31
0.0
  0
LINE
  5
23C
330
1F
100
AcDbEntity
  8
LAY-10
  6
CONTINUOUS
 62
     7
100
AcDbLine
 10
509.3003422900318
 20
639.2304436391606
 30
0.0
 11
513.859752665808
 21
647.1275740625614
 31
0.0
  0
LINE
  5
23D
330
1F
100
AcDbEntity
  8
LAY-10
  6
CONTINUOUS
 62
     7
100
AcDbLine
 10
517.152505924676
 20
633.525512821752
 30
0.0
 11
523.2541879834316
 21
640.3021172777145
 31
0.0
  0
LINE
  5
23E
330
1F
100
AcDbEntity
  8
LAY-10
  6
CONTINUOUS
 62
     7
100
AcDbLine
 10
522.7260921157645
 20
628.5070332740696
 30
0.0
 11
528.8277741745109
 21
635.2836377300215
 31
0.0
  0
LINE
  5
23F
330
1F
100
AcDbEntity
  8
LAY-10
  6
CONTINUOUS
 62
     7
100
AcDbLine
 10
529.2205453233208
 20
621.2942122648099
 30
0.0
 11
536.5978262799521
 21
626.6541206208461
 31
0.0
  0
LINE
  5
240
330
1F
100
AcDbEntity
  8
LAY-10
  6
CONTINUOUS
 62
     7
100
AcDbLine
 10
533.6289347155255
 20
615.2265848070056
 30
0.0
 11
541.0062156721442
 21
620.5864931630333
 31
0.0
  0
LINE
  5
241
330
1F
100
AcDbEntity
  8
LAY-10
  6
CONTINUOUS
 62
     7
100
AcDbLine
 10
538.4818387269786
 20
606.8211084949512
 30
0.0
 11
546.8122960035487
 21
610.5300670362176
 31
0.0
  0
LINE
  5
242
330
1F
100
AcDbEntity
  8
LAY-10
  6
CONTINUOUS
 62
     7
100
AcDbLine
 10
541.5323635500605
 20
599.9695175626377
 30
0.0
 11
549.8628208266157
 21
603.6784761038977
 31
0.0
  0
LINE
  5
243
330
1F
100
AcDbEntity
  8
LAY-10
  6
CONTINUOUS
 62
     7
100
AcDbLine
 10
544.5316231732899
 20
590.738745596573
 30
0.0
 11
553.4511758128367
 21
592.6346550372697
 31
0.0
  0
LINE
  5
244
330
1F
100
AcDbEntity
  8
LAY-10
  6
CONTINUOUS
 62
     7
100
AcDbLine
 10
546.090960854438
 20
583.4026385910727
 30
0.0
 11
555.0105134939683
 21
585.2985480317659
 31
0.0
  0
LINE
  5
245
330
1F
100
AcDbEntity
  8
LAY-10
  6
CONTINUOUS
 62
     7
100
AcDbLine
 10
547.1054940518608
 20
573.7500000000712
 30
0.0
 11
556.2243148032701
 21
573.7500000000712
 31
0.0
  0
LINE
  5
246
330
1F
100
AcDbEntity
  8
LAY-10
  6
CONTINUOUS
 62
     7
100
AcDbLine
 10
547.1054940518758
 20
566.2500000000715
 30
0.0
 11
556.2243148032684
 21
566.2500000000715
 31
0.0
  0
LINE
  5
247
330
1F
100
AcDbEntity
  8
LAY-10
  6
CONTINUOUS
 62
     7
100
AcDbLine
 10
546.0909608544902
 20
556.5973614090584
 30
0.0
 11
555.0105134939697
 21
554.7014519683761
 31
0.0
  0
LINE
  5
248
330
1F
100
AcDbEntity
  8
LAY-10
  6
CONTINUOUS
 62
     7
100
AcDbLine
 10
544.5316231733707
 20
549.2612544035522
 30
0.0
 11
553.451175812835
 21
547.365344962873
 31
0.0
  0
LINE
  5
249
330
1F
100
AcDbEntity
  8
LAY-10
  6
CONTINUOUS
 62
     7
100
AcDbLine
 10
541.5323635501696
 20
540.0304824374562
 30
0.0
 11
549.8628208266174
 21
536.3215238962443
 31
0.0
  0
LINE
  5
24A
330
1F
100
AcDbEntity
  8
LAY-10
  6
CONTINUOUS
 62
     7
100
AcDbLine
 10
538.4818387271125
 20
533.1788915051314
 30
0.0
 11
546.8122960035471
 21
529.4699329639258
 31
0.0
  0
LINE
  5
24B
330
1F
100
AcDbEntity
  8
LAY-10
  6
CONTINUOUS
 62
     7
100
AcDbLine
 10
533.6289347156712
 20
524.7734151930307
 30
0.0
 11
541.0062156721456
 21
519.4135068371083
 31
0.0
  0
LINE
  5
24C
330
1F
100
AcDbEntity
  8
LAY-10
  6
CONTINUOUS
 62
     7
100
AcDbLine
 10
529.2205453234862
 20
518.7057877352128
 30
0.0
 11
536.5978262799507
 21
513.3458793792972
 31
0.0
  0
LINE
  5
24D
330
1F
100
AcDbEntity
  8
LAY-10
  6
CONTINUOUS
 62
     7
100
AcDbLine
 10
522.7260921159207
 20
511.4929667258997
 30
0.0
 11
528.8277741745119
 21
504.7163622701194
 31
0.0
  0
LINE
  5
24E
330
1F
100
AcDbEntity
  8
LAY-10
  6
CONTINUOUS
 62
     7
100
AcDbLine
 10
517.1525059248454
 20
506.4744871782023
 30
0.0
 11
523.2541879834301
 21
499.6978827224291
 31
0.0
  0
LINE
  5
24F
330
1F
100
AcDbEntity
  8
LAY-10
  6
CONTINUOUS
 62
     7
100
AcDbLine
 10
509.3003422901697
 20
500.7695563607429
 30
0.0
 11
513.859752665809
 21
492.8724259375795
 31
0.0
  0
LINE
  5
250
330
1F
100
AcDbEntity
  8
LAY-10
  6
CONTINUOUS
 62
     7
100
AcDbLine
 10
502.805151761789
 20
497.0195563607388
 30
0.0
 11
507.3645621374246
 21
489.1224259375812
 31
0.0
  0
LINE
  5
251
330
1F
100
AcDbEntity
  8
LAY-10
  6
CONTINUOUS
 62
     7
100
AcDbLine
 10
493.9384549297172
 20
493.0718485871599
 30
0.0
 11
496.75632551052
 21
484.399334690733
 31
0.0
  0
ARC
  5
252
330
1F
100
AcDbEntity
  8
LAY-10
  6
CONTINUOUS
 62
     7
100
AcDbCircle
 10
488.111944386203
 20
601.810862400104
 30
0.0
 40
5.679611650485314
100
AcDbArc
 50
315.6948904719375
 51
152.3051095280343
  0
ARC
  5
253
330
1F
100
AcDbEntity
  8
LAY-10
  6
CONTINUOUS
 62
     7
100
AcDbCircle
 10
473.2442606815014
 20
581.3472513496794
 30
0.0
 40
2.025974025987109
100
AcDbArc
 50
152.305109528027
 51
315.69489047193
  0
LINE
  5
254
330
1F
100
AcDbEntity
  8
LAY-10
  6
CONTINUOUS
 62
     7
100
AcDbLine
 10
483.0830170130419
 20
604.450536239009
 30
0.0
 11
471.4503922159117
 21
582.2888492904896
 31
0.0
  0
LINE
  5
255
330
1F
100
AcDbEntity
  8
LAY-10
  6
CONTINUOUS
 62
     7
100
AcDbLine
 10
492.1764474133695
 20
597.8437723277106
 30
0.0
 11
474.6941093803792
 21
579.9321508216824
 31
0.0
  0
ARC
  5
256
330
1F
100
AcDbEntity
  8
LAY-10
  6
CONTINUOUS
 62
     7
100
AcDbCircle
 10
502.3959115629785
 20
582.1506682253886
 30
0.0
 40
5.679611650485314
100
AcDbArc
 50
279.6948904719351
 51
116.3051095280355
  0
ARC
  5
257
330
1F
100
AcDbEntity
  8
LAY-10
  6
CONTINUOUS
 62
     7
100
AcDbCircle
 10
478.3394939947941
 20
574.3342643366886
 30
0.0
 40
2.025974025987109
100
AcDbArc
 50
116.305109528029
 51
279.6948904719339
  0
LINE
  5
258
330
1F
100
AcDbEntity
  8
LAY-10
  6
CONTINUOUS
 62
     7
100
AcDbLine
 10
503.3523665465758
 20
576.5521700013394
 30
0.0
 11
478.6806710105907
 21
572.3372242775346
 31
0.0
  0
ARC
  5
259
330
1F
100
AcDbEntity
  8
LAY-10
  6
CONTINUOUS
 62
     7
100
AcDbCircle
 10
502.3959115629793
 20
557.8493317745938
 30
0.0
 40
5.679611650485314
100
AcDbArc
 50
243.6948904719337
 51
80.30510952803698
  0
LINE
  5
25A
330
1F
100
AcDbEntity
  8
LAY-10
  6
CONTINUOUS
 62
     7
100
AcDbLine
 10
503.3523665465793
 20
563.4478299986423
 30
0.0
 11
478.6806710105959
 21
567.6627757224594
 31
0.0
  0
ARC
  5
25B
330
1F
100
AcDbEntity
  8
LAY-10
  6
CONTINUOUS
 62
     7
100
AcDbCircle
 10
473.2442606815137
 20
558.6527486503091
 30
0.0
 40
2.025974025987109
100
AcDbArc
 50
44.30510952803032
 51
207.6948904719299
  0
LINE
  5
25C
330
1F
100
AcDbEntity
  8
LAY-10
  6
CONTINUOUS
 62
     7
100
AcDbLine
 10
492.1764474133736
 20
542.1562276722684
 30
0.0
 11
474.6941093803918
 21
560.0678491783054
 31
0.0
  0
ARC
  5
25D
330
1F
100
AcDbEntity
  8
LAY-10
  6
CONTINUOUS
 62
     7
100
AcDbCircle
 10
483.1204703577179
 20
637.626516032058
 30
0.0
 40
5.987878787879314
100
AcDbArc
 50
340.0937092423619
 51
169.9062907576378
  0
ARC
  5
25E
330
1F
100
AcDbEntity
  8
LAY-10
  6
CONTINUOUS
 62
     7
100
AcDbCircle
 10
479.1512571422917
 20
622.813210646013
 30
0.0
 40
4.676258992807934
100
AcDbArc
 50
169.9062907576388
 51
340.093709242363
  0
LINE
  5
25F
330
1F
100
AcDbEntity
  8
LAY-10
  6
CONTINUOUS
 62
     7
100
AcDbLine
 10
477.2252693929252
 20
638.675943477402
 30
0.0
 11
474.5473752831893
 21
623.6327654002813
 31
0.0
  0
LINE
  5
260
330
1F
100
AcDbEntity
  8
LAY-10
  6
CONTINUOUS
 62
     7
100
AcDbLine
 10
488.7505778763155
 20
635.5877463767581
 30
0.0
 11
483.5481131654312
 21
621.2210249534505
 31
0.0
  0
ARC
  5
261
330
1F
100
AcDbEntity
  8
LAY-10
  6
CONTINUOUS
 62
     7
100
AcDbCircle
 10
500.0060606060554
 20
630.6322755425216
 30
0.0
 40
5.987878787879314
100
AcDbArc
 50
325.0937092423632
 51
154.9062907576346
  0
ARC
  5
262
330
1F
100
AcDbEntity
  8
LAY-10
  6
CONTINUOUS
 62
     7
100
AcDbCircle
 10
492.338129496399
 20
617.3510292716587
 30
0.0
 40
4.676258992807934
100
AcDbArc
 50
154.9062907576369
 51
325.0937092423671
  0
LINE
  5
263
330
1F
100
AcDbEntity
  8
LAY-10
  6
CONTINUOUS
 62
     7
100
AcDbLine
 10
494.5833455523063
 20
633.1717348991912
 30
0.0
 11
488.1032374864174
 21
619.3342306814023
 31
0.0
  0
LINE
  5
264
330
1F
100
AcDbEntity
  8
LAY-10
  6
CONTINUOUS
 62
     7
100
AcDbLine
 10
504.9166544476841
 20
627.2057962268251
 30
0.0
 11
496.1730783030491
 21
614.6751059136028
 31
0.0
  0
ARC
  5
265
330
1F
100
AcDbEntity
  8
LAY-10
  6
CONTINUOUS
 62
     7
100
AcDbCircle
 10
514.5060456743402
 20
619.5060456743346
 30
0.0
 40
5.987878787879314
100
AcDbArc
 50
310.0937092423642
 51
139.9062907576323
  0
ARC
  5
266
330
1F
100
AcDbEntity
  8
LAY-10
  6
CONTINUOUS
 62
     7
100
AcDbCircle
 10
503.6619535037214
 20
608.6619535037161
 30
0.0
 40
4.676258992807934
100
AcDbArc
 50
139.9062907576342
 51
310.0937092423649
  0
LINE
  5
267
330
1F
100
AcDbEntity
  8
LAY-10
  6
CONTINUOUS
 62
     7
100
AcDbLine
 10
509.9253656010872
 20
623.3624769838276
 30
0.0
 11
500.0846522348508
 21
611.6736496702564
 31
0.0
  0
LINE
  5
268
330
1F
100
AcDbEntity
  8
LAY-10
  6
CONTINUOUS
 62
     7
100
AcDbLine
 10
518.3624769838332
 20
614.9253656010817
 30
0.0
 11
506.6736496702617
 21
605.0846522348453
 31
0.0
  0
LINE
  5
269
330
1F
100
AcDbEntity
  8
LAY-10
  6
CONTINUOUS
 62
     7
100
AcDbLine
 10
528.1717348991965
 20
599.5833455523008
 30
0.0
 11
514.3342306814077
 21
593.103237486412
 31
0.0
  0
ARC
  5
26A
330
1F
100
AcDbEntity
  8
LAY-10
  6
CONTINUOUS
 62
     7
100
AcDbCircle
 10
532.6265160320633
 20
588.1204703577127
 30
0.0
 40
5.987878787879314
100
AcDbArc
 50
280.0937092423645
 51
109.906290757637
  0
ARC
  5
26B
330
1F
100
AcDbEntity
  8
LAY-10
  6
CONTINUOUS
 62
     7
100
AcDbCircle
 10
517.8132106460182
 20
584.1512571422862
 30
0.0
 40
4.676258992807934
100
AcDbArc
 50
109.9062907576371
 51
280.0937092423657
  0
LINE
  5
26C
330
1F
100
AcDbEntity
  8
LAY-10
  6
CONTINUOUS
 62
     7
100
AcDbLine
 10
530.5877463767633
 20
593.7505778763096
 30
0.0
 11
516.2210249534558
 21
588.5481131654257
 31
0.0
  0
LINE
  5
26D
330
1F
100
AcDbEntity
  8
LAY-10
  6
CONTINUOUS
 62
     7
100
AcDbLine
 10
533.6759434774074
 20
582.2252693929198
 30
0.0
 11
518.6327654002869
 21
579.5473752831838
 31
0.0
  0
ARC
  5
26E
330
1F
100
AcDbEntity
  8
LAY-10
  6
CONTINUOUS
 62
     7
100
AcDbCircle
 10
535.0121212121157
 20
569.9999999999897
 30
0.0
 40
5.987878787879314
100
AcDbArc
 50
265.0937092423637
 51
94.90629075763515
  0
ARC
  5
26F
330
1F
100
AcDbEntity
  8
LAY-10
  6
CONTINUOUS
 62
     7
100
AcDbCircle
 10
519.676258992803
 20
569.9999999999897
 30
0.0
 40
4.676258992807934
100
AcDbArc
 50
94.9062907576347
 51
265.0937092423654
  0
LINE
  5
270
330
1F
100
AcDbEntity
  8
LAY-10
  6
CONTINUOUS
 62
     7
100
AcDbLine
 10
534.4999999999951
 20
575.9659386723557
 30
0.0
 11
519.2763157894714
 21
574.6591247677895
 31
0.0
  0
LINE
  5
271
330
1F
100
AcDbEntity
  8
LAY-10
  6
CONTINUOUS
 62
     7
100
AcDbLine
 10
534.4999999999951
 20
564.0340613276236
 30
0.0
 11
519.2763157894714
 21
565.3408752321898
 31
0.0
  0
ARC
  5
272
330
1F
100
AcDbEntity
  8
LAY-10
  6
CONTINUOUS
 62
     7
100
AcDbCircle
 10
532.6265160320633
 20
551.8795296422666
 30
0.0
 40
5.987878787879314
100
AcDbArc
 50
250.0937092423606
 51
79.90629075763552
  0
ARC
  5
273
330
1F
100
AcDbEntity
  8
LAY-10
  6
CONTINUOUS
 62
     7
100
AcDbCircle
 10
517.8132106460182
 20
555.8487428576931
 30
0.0
 40
4.676258992807934
100
AcDbArc
 50
79.90629075763718
 51
250.093709242363
  0
LINE
  5
274
330
1F
100
AcDbEntity
  8
LAY-10
  6
CONTINUOUS
 62
     7
100
AcDbLine
 10
533.6759434774073
 20
557.7747306070595
 30
0.0
 11
518.6327654002869
 21
560.4526247167955
 31
0.0
  0
LINE
  5
275
330
1F
100
AcDbEntity
  8
LAY-10
  6
CONTINUOUS
 62
     7
100
AcDbLine
 10
530.5877463767631
 20
546.2494221236697
 30
0.0
 11
516.2210249534558
 21
551.4518868345536
 31
0.0
  0
ARC
  5
276
330
1F
100
AcDbEntity
  8
LAY-10
  6
CONTINUOUS
 62
     7
100
AcDbCircle
 10
525.6322755425269
 20
534.9939393939293
 30
0.0
 40
5.987878787879314
100
AcDbArc
 50
235.0937092423652
 51
64.90629075763434
  0
ARC
  5
277
330
1F
100
AcDbEntity
  8
LAY-10
  6
CONTINUOUS
 62
     7
100
AcDbCircle
 10
512.351029271664
 20
542.6618705035856
 30
0.0
 40
4.676258992807934
100
AcDbArc
 50
64.90629075763532
 51
235.0937092423675
  0
LINE
  5
278
330
1F
100
AcDbEntity
  8
LAY-10
  6
CONTINUOUS
 62
     7
100
AcDbLine
 10
528.1717348991964
 20
540.4166544476785
 30
0.0
 11
514.3342306814077
 21
546.8967625135676
 31
0.0
  0
LINE
  5
279
330
1F
100
AcDbEntity
  8
LAY-10
  6
CONTINUOUS
 62
     7
100
AcDbLine
 10
522.2057962268304
 20
530.0833455523006
 30
0.0
 11
509.675105913608
 21
538.8269216969355
 31
0.0
  0
ARC
  5
27A
330
1F
100
AcDbEntity
  8
LAY-10
  6
CONTINUOUS
 62
     7
100
AcDbCircle
 10
514.5060456743402
 20
520.4939543256447
 30
0.0
 40
5.987878787879314
100
AcDbArc
 50
220.0937092423632
 51
49.90629075763499
  0
ARC
  5
27B
330
1F
100
AcDbEntity
  8
LAY-10
  6
CONTINUOUS
 62
     7
100
AcDbCircle
 10
503.6619535037214
 20
531.3380464962632
 30
0.0
 40
4.676258992807934
100
AcDbArc
 50
49.90629075763523
 51
220.0937092423678
  0
LINE
  5
27C
330
1F
100
AcDbEntity
  8
LAY-10
  6
CONTINUOUS
 62
     7
100
AcDbLine
 10
518.3624769838332
 20
525.0746343988976
 30
0.0
 11
506.6736496702617
 21
534.915347765134
 31
0.0
  0
LINE
  5
27D
330
1F
100
AcDbEntity
  8
LAY-10
  6
CONTINUOUS
 62
     7
100
AcDbLine
 10
509.9253656010869
 20
516.6375230161517
 30
0.0
 11
500.0846522348505
 21
528.3263503297229
 31
0.0
  0
ARC
  5
27E
330
1F
100
AcDbEntity
  8
LAY-10
  6
CONTINUOUS
 62
     7
100
AcDbCircle
 10
500.0060606060554
 20
509.3677244574577
 30
0.0
 40
5.987878787879314
100
AcDbArc
 50
205.0937092423613
 51
34.90629075763621
  0
ARC
  5
27F
330
1F
100
AcDbEntity
  8
LAY-10
  6
CONTINUOUS
 62
     7
100
AcDbCircle
 10
492.338129496399
 20
522.6489707283206
 30
0.0
 40
4.676258992807934
100
AcDbArc
 50
34.90629075763795
 51
205.0937092423632
  0
LINE
  5
280
330
1F
100
AcDbEntity
  8
LAY-10
  6
CONTINUOUS
 62
     7
100
AcDbLine
 10
504.9166544476836
 20
512.7942037731542
 30
0.0
 11
496.1730783030491
 21
525.3248940863768
 31
0.0
  0
LINE
  5
281
330
1F
100
AcDbEntity
  8
LAY-10
  6
CONTINUOUS
 62
     7
100
AcDbLine
 10
494.583345552306
 20
506.8282651007881
 30
0.0
 11
488.1032374864168
 21
520.665769318577
 31
0.0
  0
ARC
  5
282
330
1F
100
AcDbEntity
  8
LAY-10
  6
CONTINUOUS
 62
     7
100
AcDbCircle
 10
464.999999999995
 20
569.9999999999078
 30
0.0
 40
82.19108621682881
100
AcDbArc
 50
62.61504984924579
 51
69.38495015088515
  0
ARC
  5
283
330
1F
100
AcDbEntity
  8
LAY-10
  6
CONTINUOUS
 62
     7
100
AcDbCircle
 10
464.999999999995
 20
569.9999999999078
 30
0.0
 40
82.19108621682881
100
AcDbArc
 50
50.61504984926266
 51
57.38495015090528
  0
ARC
  5
284
330
1F
100
AcDbEntity
  8
LAY-10
  6
CONTINUOUS
 62
     7
100
AcDbCircle
 10
464.999999999995
 20
569.9999999999078
 30
0.0
 40
82.19108621682881
100
AcDbArc
 50
38.6150498492753
 51
45.38495015092188
  0
ARC
  5
285
330
1F
100
AcDbEntity
  8
LAY-10
  6
CONTINUOUS
 62
     7
100
AcDbCircle
 10
464.999999999995
 20
569.9999999999078
 30
0.0
 40
82.19108621682881
100
AcDbArc
 50
14.61504984928642
 51
21.38495015094244
  0
ARC
  5
286
330
1F
100
AcDbEntity
  8
LAY-10
  6
CONTINUOUS
 62
     7
100
AcDbCircle
 10
464.999999999995
 20
569.9999999999078
 30
0.0
 40
82.19108621682881
100
AcDbArc
 50
26.61504984928317
 51
33.38495015093422
  0
ARC
  5
287
330
1F
100
AcDbEntity
  8
LAY-10
  6
CONTINUOUS
 62
     7
100
AcDbCircle
 10
464.999999999995
 20
569.9999999999078
 30
0.0
 40
82.19108621682881
100
AcDbArc
 50
2.615049849284385
 51
9.384950150945627
  0
ARC
  5
288
330
1F
100
AcDbEntity
  8
LAY-10
  6
CONTINUOUS
 62
     7
100
AcDbCircle
 10
464.999999999995
 20
569.9999999999078
 30
0.0
 40
82.19108621682881
100
AcDbArc
 50
350.6150498492774
 51
357.3849501509439
  0
ARC
  5
289
330
1F
100
AcDbEntity
  8
LAY-10
  6
CONTINUOUS
 62
     7
100
AcDbCircle
 10
464.999999999995
 20
569.9999999999078
 30
0.0
 40
82.19108621682881
100
AcDbArc
 50
338.615049849266
 51
345.384950150937
  0
ARC
  5
28A
330
1F
100
AcDbEntity
  8
LAY-10
  6
CONTINUOUS
 62
     7
100
AcDbCircle
 10
464.999999999995
 20
569.9999999999078
 30
0.0
 40
82.19108621682881
100
AcDbArc
 50
326.6150498492502
 51
333.3849501509251
  0
ARC
  5
28B
330
1F
100
AcDbEntity
  8
LAY-10
  6
CONTINUOUS
 62
     7
100
AcDbCircle
 10
464.999999999995
 20
569.9999999999078
 30
0.0
 40
82.19108621682881
100
AcDbArc
 50
314.6150498492311
 51
321.3849501509094
  0
ARC
  5
28C
330
1F
100
AcDbEntity
  8
LAY-10
  6
CONTINUOUS
 62
     7
100
AcDbCircle
 10
464.999999999995
 20
569.9999999999078
 30
0.0
 40
82.19108621682881
100
AcDbArc
 50
302.6150498492089
 51
309.3849501508898
  0
ARC
  5
28D
330
1F
100
AcDbEntity
  8
LAY-10
  6
CONTINUOUS
 62
     7
100
AcDbCircle
 10
464.999999999995
 20
569.9999999999078
 30
0.0
 40
82.19108621682881
100
AcDbArc
 50
290.6150498491968
 51
297.3849501508682
  0
LINE
  5
28E
330
1F
100
AcDbEntity
  8
LAY-10
  6
CONTINUOUS
 62
     7
100
AcDbLine
 10
573.0381876930511
 20
579.9999999999898
 30
0.0
 11
555.7520694602808
 21
579.9999999999898
 31
0.0
  0
LINE
  5
28F
330
1F
100
AcDbEntity
  8
LAY-10
  6
CONTINUOUS
 62
     7
100
AcDbLine
 10
573.0381876930511
 20
559.9999999999899
 30
0.0
 11
555.7520694602634
 21
559.9999999999899
 31
0.0
  0
ARC
  5
290
330
1F
100
AcDbEntity
  8
LAY-10
  6
CONTINUOUS
 62
     7
100
AcDbCircle
 10
478.3394939947992
 20
565.6657356633053
 30
0.0
 40
2.025974025987109
100
AcDbArc
 50
80.3051095280366
 51
243.6948904719292
  0
LINE
  5
291
330
1F
100
AcDbEntity
  8
LAY-10
  6
CONTINUOUS
 62
     7
100
AcDbLine
 10
499.8789852079824
 20
552.7578614345201
 30
0.0
 11
477.4416813036602
 21
563.8495574986957
 31
0.0
  0
LINE
  5
292
330
1F
100
AcDbEntity
  8
LAY-10
  6
CONTINUOUS
 62
     7
100
AcDbLine
 10
499.8789852079843
 20
587.2421385654633
 30
0.0
 11
477.441681303656
 21
576.1504425012989
 31
0.0
  0
ARC
  5
293
330
1F
100
AcDbEntity
  8
LAY-10
  6
CONTINUOUS
 62
     7
100
AcDbCircle
 10
525.6322755425269
 20
605.00606060605
 30
0.0
 40
5.987878787879314
100
AcDbArc
 50
295.0937092423632
 51
124.9062907576358
  0
LINE
  5
294
330
1F
100
AcDbEntity
  8
LAY-10
  6
CONTINUOUS
 62
     7
100
AcDbLine
 10
522.2057962268307
 20
609.9166544476788
 30
0.0
 11
509.675105913608
 21
601.1730783030434
 31
0.0
  0
ARC
  5
295
330
1F
100
AcDbEntity
  8
LAY-10
  6
CONTINUOUS
 62
     7
100
AcDbCircle
 10
512.3510292716643
 20
597.3381294963937
 30
0.0
 40
4.676258992807934
100
AcDbArc
 50
124.9062907576364
 51
295.0937092423604
  0
LINE
  5
296
330
1F
100
AcDbEntity
  8
LAY-10
  6
CONTINUOUS
 62
     7
100
AcDbLine
 10
471.4503922159229
 20
557.7111507094993
 30
0.0
 11
483.0830170130428
 21
535.5494637609747
 31
0.0
  0
ARC
  5
297
330
1F
100
AcDbEntity
  8
LAY-10
  6
CONTINUOUS
 62
     7
100
AcDbCircle
 10
488.1119443862053
 20
538.189137599877
 30
0.0
 40
5.679611650485314
100
AcDbArc
 50
207.6948904719345
 51
44.30510952803537
  0
ARC
  5
298
330
1F
100
AcDbEntity
  8
LAY-10
  6
CONTINUOUS
 62
     7
100
AcDbCircle
 10
464.999999999995
 20
569.9999999999078
 30
0.0
 40
82.19108621682881
100
AcDbArc
 50
74.61504984922593
 51
81.38495015086284
  0
LINE
  5
299
330
1F
100
AcDbEntity
  8
LAY-10
  6
CONTINUOUS
 62
     7
100
AcDbLine
 10
477.3118182266528
 20
488.736270172701
 30
0.0
 11
478.2649945466295
 21
479.6674032753077
 31
0.0
  0
LINE
  5
29A
330
1F
100
AcDbEntity
  8
LAY-10
  6
CONTINUOUS
 62
     7
100
AcDbLine
 10
486.8055310573914
 20
490.7542211294776
 30
0.0
 11
489.6234016382893
 21
482.0817072327575
 31
0.0
  0
ARC
  5
29B
330
1F
100
AcDbEntity
  8
LAY-10
  6
CONTINUOUS
 62
     7
100
AcDbCircle
 10
483.1204703577179
 20
502.3734839679215
 30
0.0
 40
5.987878787879314
100
AcDbArc
 50
190.093709242365
 51
19.90629075763819
  0
ARC
  5
29C
330
1F
100
AcDbEntity
  8
LAY-10
  6
CONTINUOUS
 62
     7
100
AcDbCircle
 10
479.1512571422917
 20
517.1867893539667
 30
0.0
 40
4.676258992807934
100
AcDbArc
 50
19.90629075763705
 51
190.0937092423656
  0
LINE
  5
29D
330
1F
100
AcDbEntity
  8
LAY-10
  6
CONTINUOUS
 62
     7
100
AcDbLine
 10
477.2252693929252
 20
501.3240565225775
 30
0.0
 11
474.5473752831893
 21
516.367234599698
 31
0.0
  0
LINE
  5
29E
330
1F
100
AcDbEntity
  8
LAY-10
  6
CONTINUOUS
 62
     7
100
AcDbLine
 10
488.7505778763155
 20
504.4122536232214
 30
0.0
 11
483.5481131654312
 21
518.7789750465291
 31
0.0
  0
ARC
  5
29F
330
1F
100
AcDbEntity
  8
LAY-10
  6
CONTINUOUS
 62
     7
100
AcDbCircle
 10
464.999999999995
 20
570.0000000000719
 30
0.0
 40
82.19108621682881
100
AcDbArc
 50
278.6150498491376
 51
285.3849501507744
  0
LINE
  5
2A0
330
1F
100
AcDbEntity
  8
LAY-10
  6
CONTINUOUS
 62
     7
100
AcDbLine
 10
356.6903917330409
 20
576.4248546332835
 30
0.0
 11
354.5251910626653
 21
576.4248546332835
 31
0.0
  0
LINE
  5
2A1
330
1F
100
AcDbEntity
  8
LAY-10
  6
CONTINUOUS
 62
     7
100
AcDbLine
 10
356.6660256429172
 20
575.9999999999899
 30
0.0
 11
354.0814248983642
 21
575.9999999999899
 31
0.0
  0
LINE
  5
2A2
330
1F
100
AcDbEntity
  8
LAY-10
  6
CONTINUOUS
 62
     7
100
AcDbLine
 10
363.4999999999932
 20
573.9999999999898
 30
0.0
 11
362.9003676271775
 21
573.9999999999898
 31
0.0
  0
LINE
  5
2A3
330
1F
100
AcDbEntity
  8
LAY-10
  6
CONTINUOUS
 62
     7
100
AcDbLine
 10
356.6903917330408
 20
563.5751453666968
 30
0.0
 11
354.5251910626654
 21
563.5751453666968
 31
0.0
  0
LINE
  5
2A4
330
1F
100
AcDbEntity
  8
LAY-10
  6
CONTINUOUS
 62
     7
100
AcDbLine
 10
356.6660256429172
 20
563.9999999999899
 30
0.0
 11
354.0814248983642
 21
563.9999999999899
 31
0.0
  0
LINE
  5
2A5
330
1F
100
AcDbEntity
  8
LAY-10
  6
CONTINUOUS
 62
     7
100
AcDbLine
 10
363.4999999999932
 20
565.9999999999899
 30
0.0
 11
362.9003676271765
 21
565.9999999999899
 31
0.0
  0
LINE
  5
2A6
330
1F
100
AcDbEntity
  8
LAY-10
  6
CONTINUOUS
 62
     7
100
AcDbLine
 10
573.3339743570729
 20
575.9999999999899
 30
0.0
 11
575.9185751016292
 21
575.9999999999899
 31
0.0
  0
LINE
  5
2A7
330
1F
100
AcDbEntity
  8
LAY-10
  6
CONTINUOUS
 62
     7
100
AcDbLine
 10
573.3096082669491
 20
576.4248546332835
 30
0.0
 11
575.4748089373281
 21
576.4248546332835
 31
0.0
  0
ARC
  5
2A8
330
1F
100
AcDbEntity
  8
LAY-10
  6
CONTINUOUS
 62
     7
100
AcDbCircle
 10
464.999999999995
 20
569.9999999999897
 30
0.0
 40
108.5000000000001
100
AcDbArc
 50
2.307433086540558
 51
177.692566913458
  0
LINE
  5
2A9
330
1F
100
AcDbEntity
  8
LAY-10
  6
CONTINUOUS
 62
     7
100
AcDbLine
 10
566.4999999999968
 20
573.9999999999898
 30
0.0
 11
567.0996323728086
 21
573.9999999999898
 31
0.0
  0
LINE
  5
2AA
330
1F
100
AcDbEntity
  8
LAY-10
  6
CONTINUOUS
 62
     7
100
AcDbLine
 10
566.4999999999968
 20
565.9999999999899
 30
0.0
 11
567.0996323728097
 21
565.9999999999899
 31
0.0
  0
ARC
  5
2AB
330
1F
100
AcDbEntity
  8
LAY-10
  6
CONTINUOUS
 62
     7
100
AcDbCircle
 10
464.999999999995
 20
569.9999999999897
 30
0.0
 40
108.5000000000001
100
AcDbArc
 50
182.3074330865415
 51
357.6925669134603
  0
LINE
  5
2AC
330
1F
100
AcDbEntity
  8
LAY-10
  6
CONTINUOUS
 62
     7
100
AcDbLine
 10
573.333974357073
 20
563.9999999999899
 30
0.0
 11
575.9185751016292
 21
563.9999999999899
 31
0.0
  0
LINE
  5
2AD
330
1F
100
AcDbEntity
  8
LAY-10
  6
CONTINUOUS
 62
     7
100
AcDbLine
 10
573.3096082669492
 20
563.5751453666968
 30
0.0
 11
575.474808937328
 21
563.5751453666968
 31
0.0
  0
LINE
  5
2AE
330
1F
100
AcDbEntity
  8
LAY-10
  6
CONTINUOUS
 62
     7
100
AcDbLine
 10
469.3999999999927
 20
680.5739669488106
 30
0.0
 11
469.3999999999927
 21
678.410746699752
 31
0.0
  0
LINE
  5
2AF
330
1F
100
AcDbEntity
  8
LAY-10
  6
CONTINUOUS
 62
     7
100
AcDbLine
 10
468.9999999999968
 20
681.008694716109
 30
0.0
 11
468.9999999999968
 21
678.4262422109969
 31
0.0
  0
LINE
  5
2B0
330
1F
100
AcDbEntity
  8
LAY-10
  6
CONTINUOUS
 62
     7
100
AcDbLine
 10
460.9999999999968
 20
681.008694716109
 30
0.0
 11
460.9999999999968
 21
678.426242210997
 31
0.0
  0
LINE
  5
2B1
330
1F
100
AcDbEntity
  8
LAY-10
  6
CONTINUOUS
 62
     7
100
AcDbLine
 10
460.6000000000007
 20
680.5739669488106
 30
0.0
 11
460.6000000000007
 21
678.4107466997522
 31
0.0
  0
LINE
  5
2B2
330
1F
100
AcDbEntity
  8
LAY-10
  6
CONTINUOUS
 62
     7
100
AcDbLine
 10
460.6000000000007
 20
459.4260330511704
 30
0.0
 11
460.6000000000007
 21
461.5892533002271
 31
0.0
  0
LINE
  5
2B3
330
1F
100
AcDbEntity
  8
LAY-10
  6
CONTINUOUS
 62
     7
100
AcDbLine
 10
460.9999999999968
 20
458.9913052838719
 30
0.0
 11
460.9999999999968
 21
461.5737577889823
 31
0.0
  0
LINE
  5
2B4
330
1F
100
AcDbEntity
  8
LAY-10
  6
CONTINUOUS
 62
     7
100
AcDbLine
 10
469.3999999999927
 20
459.4260330511704
 30
0.0
 11
469.3999999999927
 21
461.5892533002274
 31
0.0
  0
LINE
  5
2B5
330
1F
100
AcDbEntity
  8
LAY-10
  6
CONTINUOUS
 62
     7
100
AcDbLine
 10
468.9999999999968
 20
458.9913052838719
 30
0.0
 11
468.9999999999968
 21
461.5737577889824
 31
0.0
  0
LINE
  5
2B6
330
1F
100
AcDbEntity
  8
LAY-10
  6
CONTINUOUS
 62
     7
100
AcDbLine
 10
534.4999999999969
 20
216.9999999999902
 30
0.0
 11
395.4999999999965
 21
216.9999999999901
 31
0.0
  0
LINE
  5
2B7
330
1F
100
AcDbEntity
  8
LAY-10
  6
CONTINUOUS
 62
     7
100
AcDbLine
 10
332.4999999999968
 20
279.9999999999902
 30
0.0
 11
333.4999999999968
 21
286.9999999999903
 31
0.0
  0
LINE
  5
2B8
330
1F
100
AcDbEntity
  8
LAY-10
  6
CONTINUOUS
 62
     7
100
AcDbLine
 10
348.4999999999969
 20
284.3205080756892
 30
0.0
 11
338.5000000000352
 21
286.9999999999903
 31
0.0
  0
LINE
  5
2B9
330
1F
100
AcDbEntity
  8
LAY-10
  6
CONTINUOUS
 62
     7
100
AcDbLine
 10
339.1847759934221
 20
282.6754101039251
 30
0.0
 11
348.4676460586754
 21
280.1880725664975
 31
0.0
  0
LINE
  5
2BA
330
1F
100
AcDbEntity
  8
LAY-10
  6
CONTINUOUS
 62
     7
100
AcDbLine
 10
336.6872389158945
 20
281.0264011638217
 30
0.0
 11
336.5406101782042
 21
279.9999999999902
 31
0.0
  0
ARC
  5
2BB
330
1F
100
AcDbEntity
  8
LAY-10
  6
CONTINUOUS
 62
     7
100
AcDbCircle
 10
338.6671379032171
 20
280.7435584513472
 30
0.0
 40
2.0
100
AcDbArc
 50
74.99999999999926
 51
171.8698976458487
  0
LINE
  5
2BC
330
1F
100
AcDbEntity
  8
LAY-10
  6
CONTINUOUS
 62
     7
100
AcDbLine
 10
348.4999999999969
 20
284.3205080756892
 30
0.0
 11
348.9091416886572
 21
285.4167999263506
 31
0.0
  0
LINE
  5
2BD
330
1F
100
AcDbEntity
  8
LAY-10
  6
CONTINUOUS
 62
     7
100
AcDbLine
 10
356.2364536019737
 20
261.9999999999901
 30
0.0
 11
367.9999999999983
 21
261.9999999999901
 31
0.0
  0
LINE
  5
2BE
330
1F
100
AcDbEntity
  8
LAY-10
  6
CONTINUOUS
 62
     7
100
AcDbLine
 10
356.9999999999982
 20
272.4999999999921
 30
0.0
 11
361.9999999999978
 21
272.4999999999921
 31
0.0
  0
LINE
  5
2BF
330
1F
100
AcDbEntity
  8
LAY-10
  6
CONTINUOUS
 62
     7
100
AcDbLine
 10
356.9999999999982
 20
271.4999999999928
 30
0.0
 11
361.9999999999978
 21
271.4999999999928
 31
0.0
  0
LINE
  5
2C0
330
1F
100
AcDbEntity
  8
LAY-10
  6
CONTINUOUS
 62
     7
100
AcDbLine
 10
359.4999999999968
 20
270.0566243270192
 30
0.0
 11
356.9999999999977
 21
271.4999999999928
 31
0.0
  0
LINE
  5
2C1
330
1F
100
AcDbEntity
  8
LAY-10
  6
CONTINUOUS
 62
     7
100
AcDbLine
 10
359.499999999997
 20
270.0566243270193
 30
0.0
 11
361.9999999999959
 21
271.4999999999928
 31
0.0
  0
ARC
  5
2C2
330
1F
100
AcDbEntity
  8
LAY-10
  6
CONTINUOUS
 62
     7
100
AcDbCircle
 10
347.9500079684705
 20
278.2562209139192
 30
0.0
 40
2.0
100
AcDbArc
 50
2.999999999997486
 51
75.00000000000756
  0
LINE
  5
2C3
330
1F
100
AcDbEntity
  8
LAY-10
  6
CONTINUOUS
 62
     7
100
AcDbLine
 10
597.4999999999969
 20
279.9999999999902
 30
0.0
 11
596.499999999997
 21
286.9999999999903
 31
0.0
  0
LINE
  5
2C4
330
1F
100
AcDbEntity
  8
LAY-10
  6
CONTINUOUS
 62
     7
100
AcDbLine
 10
581.4999999999965
 20
284.3205080756892
 30
0.0
 11
581.0908583113364
 21
285.4167999263506
 31
0.0
  0
LINE
  5
2C5
330
1F
100
AcDbEntity
  8
LAY-10
  6
CONTINUOUS
 62
     7
100
AcDbLine
 10
581.4999999999965
 20
284.3205080756892
 30
0.0
 11
591.4999999999583
 21
286.9999999999903
 31
0.0
  0
LINE
  5
2C6
330
1F
100
AcDbEntity
  8
LAY-10
  6
CONTINUOUS
 62
     7
100
AcDbLine
 10
573.5015075016013
 20
261.9999999999901
 30
0.0
 11
566.0473507940955
 21
261.9999999999901
 31
0.0
  0
LINE
  5
2C7
330
1F
100
AcDbEntity
  8
LAY-10
  6
CONTINUOUS
 62
     7
100
AcDbLine
 10
596.4999999999974
 20
271.9999999999903
 30
0.0
 11
597.4999999999969
 21
279.9999999999902
 31
0.0
  0
LINE
  5
2C8
330
1F
100
AcDbEntity
  8
LAY-10
  6
CONTINUOUS
 62
     7
100
AcDbLine
 10
579.7193726947207
 20
271.9999999999903
 30
0.0
 11
596.4999999999974
 21
271.9999999999903
 31
0.0
  0
ARC
  5
2C9
330
1F
100
AcDbEntity
  8
LAY-10
  6
CONTINUOUS
 62
     7
100
AcDbCircle
 10
351.1898627214163
 20
284.5656232491343
 30
0.0
 40
2.434376750855009
100
AcDbArc
 50
2.99999999999359
 51
159.5341701760824
  0
LINE
  5
2CA
330
1F
100
AcDbEntity
  8
LAY-10
  6
CONTINUOUS
 62
     7
100
AcDbLine
 10
355.4284729200673
 20
285.2984377871074
 30
0.0
 11
355.6236327117313
 21
285.7088441618935
 31
0.0
  0
ARC
  5
2CB
330
1F
100
AcDbEntity
  8
LAY-10
  6
CONTINUOUS
 62
     7
100
AcDbCircle
 10
426.9572454744909
 20
286.3378919103896
 30
0.0
 40
0.6621080895997691
100
AcDbArc
 50
13.98275497176219
 51
90.00000000000004
  0
ARC
  5
2CC
330
1F
100
AcDbEntity
  8
LAY-10
  6
CONTINUOUS
 62
     7
100
AcDbCircle
 10
444.5284493980909
 20
286.6252275193086
 30
0.0
 40
0.374772480685536
100
AcDbArc
 50
346.9529810187437
 51
156.5484395380097
  0
LINE
  5
2CD
330
1F
100
AcDbEntity
  8
LAY-10
  6
CONTINUOUS
 62
     7
100
AcDbLine
 10
355.5276594053574
 20
284.7311263856301
 30
0.0
 11
355.5163223929737
 21
284.8484335688719
 31
0.0
  0
LINE
  5
2CE
330
1F
100
AcDbEntity
  8
LAY-10
  6
CONTINUOUS
 62
     7
100
AcDbLine
 10
428.1120985992144
 20
284.4402579265242
 30
0.0
 11
427.5997343059749
 21
286.4978769838582
 31
0.0
  0
LINE
  5
2CF
330
1F
100
AcDbEntity
  8
LAY-10
  6
CONTINUOUS
 62
     7
100
AcDbLine
 10
444.4141834672702
 20
284.4720164483198
 30
0.0
 11
444.8935471773186
 21
286.5406224137919
 31
0.0
  0
LINE
  5
2D0
330
1F
100
AcDbEntity
  8
LAY-10
  6
CONTINUOUS
 62
     7
100
AcDbLine
 10
443.6424546731253
 20
285.5245608418055
 30
0.0
 11
444.1846343007968
 21
286.7743770789756
 31
0.0
  0
ARC
  5
2D1
330
1F
100
AcDbEntity
  8
LAY-10
  6
CONTINUOUS
 62
     7
100
AcDbCircle
 10
441.8076609515116
 20
286.3205080756891
 30
0.0
 40
2.0
100
AcDbArc
 50
270.0000000000001
 51
336.5484395380005
  0
LINE
  5
2D2
330
1F
100
AcDbEntity
  8
LAY-10
  6
CONTINUOUS
 62
     7
100
AcDbLine
 10
537.5285970965065
 20
284.6222652681023
 30
0.0
 11
537.4229830674767
 21
285.3154320364062
 31
0.0
  0
ARC
  5
2D3
330
1F
100
AcDbEntity
  8
LAY-10
  6
CONTINUOUS
 62
     7
100
AcDbCircle
 10
578.8101372785777
 20
284.5656232491343
 30
0.0
 40
2.434376750855009
100
AcDbArc
 50
20.46582982392663
 51
177.0000000000065
  0
ARC
  5
2D4
330
1F
100
AcDbEntity
  8
LAY-10
  6
CONTINUOUS
 62
     7
100
AcDbCircle
 10
576.8532040908954
 20
284.6194335166266
 30
0.0
 40
2.380566483363538
100
AcDbArc
 50
90.00000000000004
 51
174.4798614152237
  0
LINE
  5
2D5
330
1F
100
AcDbEntity
  8
LAY-10
  6
CONTINUOUS
 62
     7
100
AcDbLine
 10
574.5715270799261
 20
285.2984377871076
 30
0.0
 11
574.3763672882625
 21
285.7088441618935
 31
0.0
  0
LINE
  5
2D6
330
1F
100
AcDbEntity
  8
LAY-10
  6
CONTINUOUS
 62
     7
100
AcDbLine
 10
574.4723405946365
 20
284.7311263856301
 30
0.0
 11
574.4836776070201
 21
284.8484335688719
 31
0.0
  0
LINE
  5
2D7
330
1F
100
AcDbEntity
  8
LAY-10
  6
CONTINUOUS
 62
     7
100
AcDbLine
 10
576.0807377657103
 20
278.9999999999903
 30
0.0
 11
576.3790967564469
 21
284.693028684246
 31
0.0
  0
LINE
  5
2D8
330
1F
100
AcDbEntity
  8
LAY-10
  6
CONTINUOUS
 62
     7
100
AcDbLine
 10
579.7193726947207
 20
271.9999999999903
 30
0.0
 11
579.4932847101285
 21
267.6859842625325
 31
0.0
  0
ARC
  5
2D9
330
1F
100
AcDbEntity
  8
LAY-10
  6
CONTINUOUS
 62
     7
100
AcDbCircle
 10
573.5015075016013
 20
267.9999999999901
 30
0.0
 40
6.000000000000004
100
AcDbArc
 50
270.0000000000001
 51
357.000000000001
  0
LINE
  5
2DA
330
1F
100
AcDbEntity
  8
LAY-10
  6
CONTINUOUS
 62
     7
100
AcDbLine
 10
353.9192622342833
 20
278.9999999999903
 30
0.0
 11
353.6209032435469
 21
284.693028684246
 31
0.0
  0
ARC
  5
2DB
330
1F
100
AcDbEntity
  8
LAY-10
  6
CONTINUOUS
 62
     7
100
AcDbCircle
 10
356.4984924983924
 20
267.9999999999901
 30
0.0
 40
6.000000000000004
100
AcDbArc
 50
182.9999999999991
 51
270.0000000000001
  0
LINE
  5
2DC
330
1F
100
AcDbEntity
  8
LAY-10
  6
CONTINUOUS
 62
     7
100
AcDbLine
 10
349.9472670379832
 20
278.3608928264053
 30
0.0
 11
350.5067152898649
 21
267.6859842625325
 31
0.0
  0
ARC
  5
2DD
330
1F
100
AcDbEntity
  8
LAY-10
  6
CONTINUOUS
 62
     7
100
AcDbCircle
 10
561.3407335366011
 20
256.9999999999898
 30
0.0
 40
1.0
100
AcDbArc
 50
182.9999999999925
 51
270.0000000000001
  0
ARC
  5
2DE
330
1F
100
AcDbEntity
  8
LAY-10
  6
CONTINUOUS
 62
     7
100
AcDbCircle
 10
563.8349749849676
 20
256.9999999999898
 30
0.0
 40
1.0
100
AcDbArc
 50
270.0000000000001
 51
357.0000000000076
  0
LINE
  5
2DF
330
1F
100
AcDbEntity
  8
LAY-10
  6
CONTINUOUS
 62
     7
100
AcDbLine
 10
560.3421040018467
 20
256.947664043747
 30
0.0
 11
560.1565908006905
 21
260.4874667923852
 31
0.0
  0
LINE
  5
2E0
330
1F
100
AcDbEntity
  8
LAY-10
  6
CONTINUOUS
 62
     7
100
AcDbLine
 10
564.8336045197221
 20
256.947664043747
 30
0.0
 11
565.0487212593409
 21
261.0523359562331
 31
0.0
  0
ARC
  5
2E1
330
1F
100
AcDbEntity
  8
LAY-10
  6
CONTINUOUS
 62
     7
100
AcDbCircle
 10
566.0473507940955
 20
260.9999999999901
 30
0.0
 40
1.0
100
AcDbArc
 50
90.00000000000004
 51
176.9999999999979
  0
ARC
  5
2E2
330
1F
100
AcDbEntity
  8
LAY-10
  6
CONTINUOUS
 62
     7
100
AcDbCircle
 10
559.1579612659361
 20
260.4351308361423
 30
0.0
 40
1.0
100
AcDbArc
 50
3.000000000002184
 51
100.8855270546781
  0
LINE
  5
2E3
330
1F
100
AcDbEntity
  8
LAY-10
  6
CONTINUOUS
 62
     7
100
AcDbLine
 10
356.4999999999968
 20
272.9999999999928
 30
0.0
 11
362.4999999999966
 21
272.9999999999928
 31
0.0
  0
ARC
  5
2E4
330
1F
100
AcDbEntity
  8
LAY-10
  6
CONTINUOUS
 62
     7
100
AcDbCircle
 10
572.332681442214
 20
284.7370139749248
 30
0.0
 40
2.262986025064351
100
AcDbArc
 50
25.43240397931869
 51
179.2961378255333
  0
LINE
  5
2E5
330
1F
100
AcDbEntity
  8
LAY-10
  6
CONTINUOUS
 62
     7
100
AcDbLine
 10
332.4999999999968
 20
279.9999999999902
 30
0.0
 11
348.9294131445754
 21
279.9999999999902
 31
0.0
  0
LINE
  5
2E6
330
1F
100
AcDbEntity
  8
LAY-10
  6
CONTINUOUS
 62
     7
100
AcDbLine
 10
572.9999999999967
 20
206.9999999999905
 30
0.0
 11
356.9999999999967
 21
206.9999999999905
 31
0.0
  0
LINE
  5
2E7
330
1F
100
AcDbEntity
  8
LAY-10
  6
CONTINUOUS
 62
     7
100
AcDbLine
 10
356.9999999999967
 20
261.9999999999901
 30
0.0
 11
356.9999999999967
 21
206.9999999999905
 31
0.0
  0
LINE
  5
2E8
330
1F
100
AcDbEntity
  8
LAY-10
  6
CONTINUOUS
 62
     7
100
AcDbLine
 10
363.9999999999966
 20
261.9999999999901
 30
0.0
 11
363.9999999999966
 21
206.9999999999905
 31
0.0
  0
LINE
  5
2E9
330
1F
100
AcDbEntity
  8
LAY-10
  6
CONTINUOUS
 62
     7
100
AcDbLine
 10
565.9999999999967
 20
261.9999999999901
 30
0.0
 11
565.9999999999967
 21
206.9999999999905
 31
0.0
  0
LINE
  5
2EA
330
1F
100
AcDbEntity
  8
LAY-10
  6
CONTINUOUS
 62
     7
100
AcDbLine
 10
572.9999999999967
 20
261.9999999999901
 30
0.0
 11
572.9999999999967
 21
206.9999999999905
 31
0.0
  0
LINE
  5
2EB
330
1F
100
AcDbEntity
  8
LAY-10
  6
CONTINUOUS
 62
     7
100
AcDbLine
 10
542.9112807869408
 20
318.5176380901949
 30
0.0
 11
553.4999999999962
 21
278.9999999999898
 31
0.0
  0
LINE
  5
2EC
330
1F
100
AcDbEntity
  8
LAY-10
  6
CONTINUOUS
 62
     7
100
AcDbLine
 10
541.1896408205764
 20
319.9889220816634
 30
0.0
 11
540.9794291343458
 21
323.9999999999898
 31
0.0
  0
LINE
  5
2ED
330
1F
100
AcDbEntity
  8
LAY-10
  6
CONTINUOUS
 62
     7
100
AcDbLine
 10
514.7903688828674
 20
319.9999999999897
 30
0.0
 11
514.9999999999993
 21
323.9999999999898
 31
0.0
  0
LINE
  5
2EE
330
1F
100
AcDbEntity
  8
LAY-10
  6
CONTINUOUS
 62
     7
100
AcDbLine
 10
389.020570865627
 20
323.9999999999898
 30
0.0
 11
540.9794291343634
 21
323.9999999999898
 31
0.0
  0
ARC
  5
2EF
330
1F
100
AcDbEntity
  8
LAY-10
  6
CONTINUOUS
 62
     7
100
AcDbCircle
 10
540.9794291343634
 20
317.9999999999898
 30
0.0
 40
6.000000000000004
100
AcDbArc
 50
14.99999999999946
 51
90.00000000000004
  0
LINE
  5
2F0
330
1F
100
AcDbEntity
  8
LAY-10
  6
CONTINUOUS
 62
     7
100
AcDbLine
 10
540.9794291343627
 20
319.99999999999
 30
0.0
 11
464.9999999999948
 21
319.99999999999
 31
0.0
  0
ARC
  5
2F1
330
1F
100
AcDbEntity
  8
LAY-10
  6
CONTINUOUS
 62
     7
100
AcDbCircle
 10
540.9794291343627
 20
317.9999999999899
 30
0.0
 40
2.0
100
AcDbArc
 50
14.99999999999602
 51
90.00000000000004
  0
LINE
  5
2F2
330
1F
100
AcDbEntity
  8
LAY-10
  6
CONTINUOUS
 62
     7
100
AcDbLine
 10
374.3685142215863
 20
286.4999999999911
 30
0.0
 11
383.2250159078919
 21
319.5529142706048
 31
0.0
  0
LINE
  5
2F3
330
1F
100
AcDbEntity
  8
LAY-10
  6
CONTINUOUS
 62
     7
100
AcDbLine
 10
387.0887192130489
 20
318.5176380901949
 30
0.0
 11
376.4999999999935
 21
278.9999999999898
 31
0.0
  0
LINE
  5
2F4
330
1F
100
AcDbEntity
  8
LAY-10
  6
CONTINUOUS
 62
     7
100
AcDbLine
 10
459.8311499164027
 20
317.9999999999894
 30
0.0
 11
458.738113221278
 21
278.9999999999899
 31
0.0
  0
LINE
  5
2F5
330
1F
100
AcDbEntity
  8
LAY-10
  6
CONTINUOUS
 62
     7
100
AcDbLine
 10
460.1470959885565
 20
317.9999999999894
 30
0.0
 11
459.0537615217362
 21
278.9999999999899
 31
0.0
  0
LINE
  5
2F6
330
1F
100
AcDbEntity
  8
LAY-10
  6
CONTINUOUS
 62
     7
100
AcDbLine
 10
452.6881817732944
 20
317.9999999999894
 30
0.0
 11
451.5948473064728
 21
278.9999999999899
 31
0.0
  0
LINE
  5
2F7
330
1F
100
AcDbEntity
  8
LAY-10
  6
CONTINUOUS
 62
     7
100
AcDbLine
 10
453.8640185441922
 20
317.9999999999894
 30
0.0
 11
452.7709818490673
 21
278.9999999999899
 31
0.0
  0
LINE
  5
2F8
330
1F
100
AcDbEntity
  8
LAY-10
  6
CONTINUOUS
 62
     7
100
AcDbLine
 10
443.7522219285033
 20
317.9999999999894
 30
0.0
 11
440.5208827916757
 21
278.9999999999899
 31
0.0
  0
LINE
  5
2F9
330
1F
100
AcDbEntity
  8
LAY-10
  6
CONTINUOUS
 62
     7
100
AcDbLine
 10
438.0458828307312
 20
317.9999999999894
 30
0.0
 11
434.8145436939032
 21
278.9999999999899
 31
0.0
  0
LINE
  5
2FA
330
1F
100
AcDbEntity
  8
LAY-10
  6
CONTINUOUS
 62
     7
100
AcDbLine
 10
436.0615450702767
 20
317.9999999999894
 30
0.0
 11
432.8293256324117
 21
278.9999999999899
 31
0.0
  0
LINE
  5
2FB
330
1F
100
AcDbEntity
  8
LAY-10
  6
CONTINUOUS
 62
     7
100
AcDbLine
 10
428.6019238005018
 20
317.9999999999894
 30
0.0
 11
423.3735072479348
 21
278.9999999999899
 31
0.0
  0
LINE
  5
2FC
330
1F
100
AcDbEntity
  8
LAY-10
  6
CONTINUOUS
 62
     7
100
AcDbLine
 10
423.4057713777945
 20
317.9999999999894
 30
0.0
 11
418.1773548252267
 21
278.9999999999899
 31
0.0
  0
LINE
  5
2FD
330
1F
100
AcDbEntity
  8
LAY-10
  6
CONTINUOUS
 62
     7
100
AcDbLine
 10
420.6996577098269
 20
317.9999999999894
 30
0.0
 11
415.469816800257
 21
278.9999999999899
 31
0.0
  0
LINE
  5
2FE
330
1F
100
AcDbEntity
  8
LAY-10
  6
CONTINUOUS
 62
     7
100
AcDbLine
 10
408.0454091835315
 20
278.9999999999899
 30
0.0
 11
415.042396259766
 21
317.9999999999894
 31
0.0
  0
LINE
  5
2FF
330
1F
100
AcDbEntity
  8
LAY-10
  6
CONTINUOUS
 62
     7
100
AcDbLine
 10
410.5835273069005
 20
317.9999999999894
 30
0.0
 11
403.5865402306658
 21
278.9999999999899
 31
0.0
  0
LINE
  5
300
330
1F
100
AcDbEntity
  8
LAY-10
  6
CONTINUOUS
 62
     7
100
AcDbLine
 10
407.2739078840893
 20
317.9999999999894
 30
0.0
 11
400.2750146461183
 21
278.9999999999899
 31
0.0
  0
LINE
  5
301
330
1F
100
AcDbEntity
  8
LAY-10
  6
CONTINUOUS
 62
     7
100
AcDbLine
 10
403.6662557256571
 20
317.9999999999894
 30
0.0
 11
395.2065000362547
 21
278.9999999999899
 31
0.0
  0
LINE
  5
302
330
1F
100
AcDbEntity
  8
LAY-10
  6
CONTINUOUS
 62
     7
100
AcDbLine
 10
391.6797885224996
 20
278.9999999999899
 30
0.0
 11
400.1395442119021
 21
317.9999999999894
 31
0.0
  0
LINE
  5
303
330
1F
100
AcDbEntity
  8
LAY-10
  6
CONTINUOUS
 62
     7
100
AcDbLine
 10
396.3710652843449
 20
317.9999999999894
 30
0.0
 11
387.9090049368816
 21
278.9999999999899
 31
0.0
  0
LINE
  5
304
330
1F
100
AcDbEntity
  8
LAY-10
  6
CONTINUOUS
 62
     7
100
AcDbLine
 10
385.417901743764
 20
278.9999999999899
 30
0.0
 11
394.9706941282948
 21
317.9999999999894
 31
0.0
  0
LINE
  5
305
330
1F
100
AcDbEntity
  8
LAY-10
  6
CONTINUOUS
 62
     7
100
AcDbLine
 10
382.9774818853077
 20
278.9999999999899
 30
0.0
 11
392.5302742698393
 21
317.9999999999894
 31
0.0
  0
LINE
  5
306
330
1F
100
AcDbEntity
  8
LAY-10
  6
CONTINUOUS
 62
     7
100
AcDbLine
 10
379.1074230223449
 20
278.9999999999899
 30
0.0
 11
389.3357492354167
 21
317.9999999999894
 31
0.0
  0
LINE
  5
307
330
1F
100
AcDbEntity
  8
LAY-10
  6
CONTINUOUS
 62
     7
100
AcDbLine
 10
377.859952877437
 20
278.9999999999899
 30
0.0
 11
388.0882790905088
 21
317.9999999999894
 31
0.0
  0
LINE
  5
308
330
1F
100
AcDbEntity
  8
LAY-10
  6
CONTINUOUS
 62
     7
100
AcDbLine
 10
388.9938844686077
 20
283.9999999999898
 30
0.0
 11
386.6426187161397
 21
283.9999999999898
 31
0.0
  0
LINE
  5
309
330
1F
100
AcDbEntity
  8
LAY-10
  6
CONTINUOUS
 62
     7
100
AcDbLine
 10
401.1723086509863
 20
283.9999999999898
 30
0.0
 11
396.2910840989986
 21
283.9999999999898
 31
0.0
  0
LINE
  5
30A
330
1F
100
AcDbEntity
  8
LAY-10
  6
CONTINUOUS
 62
     7
100
AcDbLine
 10
416.1403092245608
 20
283.9999999999898
 30
0.0
 11
408.9424588086898
 21
283.9999999999898
 31
0.0
  0
LINE
  5
30B
330
1F
100
AcDbEntity
  8
LAY-10
  6
CONTINUOUS
 62
     7
100
AcDbLine
 10
433.2437127398304
 20
283.9999999999898
 30
0.0
 11
424.0438170623664
 21
283.9999999999898
 31
0.0
  0
LINE
  5
30C
330
1F
100
AcDbEntity
  8
LAY-10
  6
CONTINUOUS
 62
     7
100
AcDbLine
 10
451.7350183919626
 20
283.9999999999898
 30
0.0
 11
440.9351570399869
 21
283.9999999999898
 31
0.0
  0
LINE
  5
30D
330
1F
100
AcDbEntity
  8
LAY-10
  6
CONTINUOUS
 62
     7
100
AcDbLine
 10
374.368514221586
 20
286.4999999999911
 30
0.0
 11
356.4999999999728
 21
286.4999999999911
 31
0.0
  0
LINE
  5
30E
330
1F
100
AcDbEntity
  8
LAY-10
  6
CONTINUOUS
 62
     7
100
AcDbLine
 10
367.7937284085405
 20
280.8953280875039
 30
0.0
 11
367.4999999999969
 21
286.4999999999911
 31
0.0
  0
ARC
  5
30F
330
1F
100
AcDbEntity
  8
LAY-10
  6
CONTINUOUS
 62
     7
100
AcDbCircle
 10
369.7909874780497
 20
280.9999999999898
 30
0.0
 40
2.0
100
AcDbArc
 50
183.0000000000007
 51
270.0000000000001
  0
LINE
  5
310
330
1F
100
AcDbEntity
  8
LAY-10
  6
CONTINUOUS
 62
     7
100
AcDbLine
 10
388.8103591794133
 20
319.9889220816634
 30
0.0
 11
389.0205708656439
 21
323.9999999999898
 31
0.0
  0
LINE
  5
311
330
1F
100
AcDbEntity
  8
LAY-10
  6
CONTINUOUS
 62
     7
100
AcDbLine
 10
415.2096311171223
 20
319.9999999999897
 30
0.0
 11
414.9999999999903
 21
323.9999999999898
 31
0.0
  0
ARC
  5
312
330
1F
100
AcDbEntity
  8
LAY-10
  6
CONTINUOUS
 62
     7
100
AcDbCircle
 10
389.0205708656263
 20
317.9999999999898
 30
0.0
 40
6.000000000000004
100
AcDbArc
 50
90.00000000000004
 51
165.0000000000006
  0
LINE
  5
313
330
1F
100
AcDbEntity
  8
LAY-10
  6
CONTINUOUS
 62
     7
100
AcDbLine
 10
389.020570865627
 20
319.99999999999
 30
0.0
 11
464.9999999999948
 21
319.99999999999
 31
0.0
  0
ARC
  5
314
330
1F
100
AcDbEntity
  8
LAY-10
  6
CONTINUOUS
 62
     7
100
AcDbCircle
 10
389.020570865627
 20
317.9999999999899
 30
0.0
 40
2.0
100
AcDbArc
 50
90.00000000000004
 51
165.000000000004
  0
LINE
  5
315
330
1F
100
AcDbEntity
  8
LAY-10
  6
CONTINUOUS
 62
     7
100
AcDbLine
 10
443.7522219285033
 20
317.9999999999894
 30
0.0
 11
453.8640185441922
 21
317.9999999999894
 31
0.0
  0
LINE
  5
316
330
1F
100
AcDbEntity
  8
LAY-10
  6
CONTINUOUS
 62
     7
100
AcDbLine
 10
428.6019238005018
 20
317.9999999999894
 30
0.0
 11
438.0458828307312
 21
317.9999999999894
 31
0.0
  0
LINE
  5
317
330
1F
100
AcDbEntity
  8
LAY-10
  6
CONTINUOUS
 62
     7
100
AcDbLine
 10
415.042396259766
 20
317.9999999999894
 30
0.0
 11
423.4057713777945
 21
317.9999999999894
 31
0.0
  0
LINE
  5
318
330
1F
100
AcDbEntity
  8
LAY-10
  6
CONTINUOUS
 62
     7
100
AcDbLine
 10
403.6662557256571
 20
317.9999999999894
 30
0.0
 11
410.5835273069005
 21
317.9999999999894
 31
0.0
  0
LINE
  5
319
330
1F
100
AcDbEntity
  8
LAY-10
  6
CONTINUOUS
 62
     7
100
AcDbLine
 10
394.9706941282948
 20
317.9999999999894
 30
0.0
 11
400.1395442119021
 21
317.9999999999894
 31
0.0
  0
LINE
  5
31A
330
1F
100
AcDbEntity
  8
LAY-10
  6
CONTINUOUS
 62
     7
100
AcDbLine
 10
386.9500185048067
 20
317.9999999999894
 30
0.0
 11
388.088279090509
 21
317.9999999999894
 31
0.0
  0
LINE
  5
31B
330
1F
100
AcDbEntity
  8
LAY-10
  6
CONTINUOUS
 62
     7
100
AcDbLine
 10
389.3357492354167
 20
317.9999999999894
 30
0.0
 11
392.5302742698393
 21
317.9999999999894
 31
0.0
  0
LINE
  5
31C
330
1F
100
AcDbEntity
  8
LAY-10
  6
CONTINUOUS
 62
     7
100
AcDbLine
 10
543.049981495183
 20
317.9999999999894
 30
0.0
 11
547.1910862168238
 21
317.9999999999894
 31
0.0
  0
LINE
  5
31D
330
1F
100
AcDbEntity
  8
LAY-10
  6
CONTINUOUS
 62
     7
100
AcDbLine
 10
476.7903688828674
 20
319.9999999999897
 30
0.0
 11
476.9999999999994
 21
323.9999999999898
 31
0.0
  0
LINE
  5
31E
330
1F
100
AcDbEntity
  8
LAY-10
  6
CONTINUOUS
 62
     7
100
AcDbLine
 10
510.2102116861465
 20
319.9889220816634
 30
0.0
 11
509.9999999999159
 21
323.9999999999898
 31
0.0
  0
LINE
  5
31F
330
1F
100
AcDbEntity
  8
LAY-10
  6
CONTINUOUS
 62
     7
100
AcDbLine
 10
557.641104721637
 20
278.9999999999898
 30
0.0
 11
546.7749840920977
 21
319.5529142706048
 31
0.0
  0
LINE
  5
320
330
1F
100
AcDbEntity
  8
LAY-10
  6
CONTINUOUS
 62
     7
100
AcDbLine
 10
459.1939326072261
 20
283.9999999999898
 30
0.0
 11
464.9999999999948
 21
283.9999999999898
 31
0.0
  0
LINE
  5
321
330
1F
100
AcDbEntity
  8
LAY-10
  6
CONTINUOUS
 62
     7
100
AcDbLine
 10
464.9999999999948
 20
317.9999999999894
 30
0.0
 11
460.147095988557
 21
317.9999999999894
 31
0.0
  0
LINE
  5
322
330
1F
100
AcDbEntity
  8
LAY-10
  6
CONTINUOUS
 62
     7
100
AcDbLine
 10
467.9999999999368
 20
317.9999999999898
 30
0.0
 11
467.9999999999368
 21
278.9999999999898
 31
0.0
  0
LINE
  5
323
330
1F
100
AcDbEntity
  8
LAY-10
  6
CONTINUOUS
 62
     7
100
AcDbLine
 10
467.9999999999368
 20
317.9999999999898
 30
0.0
 11
478.2810691639768
 21
317.9999999999898
 31
0.0
  0
LINE
  5
324
330
1F
100
AcDbEntity
  8
LAY-10
  6
CONTINUOUS
 62
     7
100
AcDbLine
 10
478.2810691639768
 20
317.9999999999898
 30
0.0
 11
480.4551670154669
 21
278.9999999999898
 31
0.0
  0
LINE
  5
325
330
1F
100
AcDbEntity
  8
LAY-10
  6
CONTINUOUS
 62
     7
100
AcDbLine
 10
468.7499999999268
 20
278.9999999999898
 30
0.0
 11
468.7499999999268
 21
317.9999999999898
 31
0.0
  0
LINE
  5
326
330
1F
100
AcDbEntity
  8
LAY-10
  6
CONTINUOUS
 62
     7
100
AcDbLine
 10
468.7499999999268
 20
283.9999999999898
 30
0.0
 11
480.1764365216869
 21
283.9999999999898
 31
0.0
  0
LINE
  5
327
330
1F
100
AcDbEntity
  8
LAY-10
  6
CONTINUOUS
 62
     7
100
AcDbLine
 10
484.1499547683768
 20
317.9999999999898
 30
0.0
 11
486.3240526198669
 21
278.9999999999898
 31
0.0
  0
LINE
  5
328
330
1F
100
AcDbEntity
  8
LAY-10
  6
CONTINUOUS
 62
     7
100
AcDbLine
 10
498.2348690703068
 20
278.9999999999898
 30
0.0
 11
493.9816918759169
 21
317.9999999999898
 31
0.0
  0
LINE
  5
329
330
1F
100
AcDbEntity
  8
LAY-10
  6
CONTINUOUS
 62
     7
100
AcDbLine
 10
493.9816918759169
 20
317.9999999999898
 30
0.0
 11
484.1499547683768
 21
317.9999999999898
 31
0.0
  0
LINE
  5
32A
330
1F
100
AcDbEntity
  8
LAY-10
  6
CONTINUOUS
 62
     7
100
AcDbLine
 10
485.7387455964368
 20
317.9999999999898
 30
0.0
 11
487.9134357288769
 21
278.9999999999898
 31
0.0
  0
LINE
  5
32B
330
1F
100
AcDbEntity
  8
LAY-10
  6
CONTINUOUS
 62
     7
100
AcDbLine
 10
487.6346293016369
 20
283.9999999999898
 30
0.0
 11
497.6895899428168
 21
283.9999999999898
 31
0.0
  0
LINE
  5
32C
330
1F
100
AcDbEntity
  8
LAY-10
  6
CONTINUOUS
 62
     7
100
AcDbLine
 10
499.4629646217668
 20
317.9999999999898
 30
0.0
 11
503.7161418161568
 21
278.9999999999898
 31
0.0
  0
LINE
  5
32D
330
1F
100
AcDbEntity
  8
LAY-10
  6
CONTINUOUS
 62
     7
100
AcDbLine
 10
514.5620478681668
 20
278.9999999999898
 30
0.0
 11
508.4156755832868
 21
317.9999999999898
 31
0.0
  0
LINE
  5
32E
330
1F
100
AcDbEntity
  8
LAY-10
  6
CONTINUOUS
 62
     7
100
AcDbLine
 10
508.4156755832868
 20
317.9999999999898
 30
0.0
 11
499.4629646217668
 21
317.9999999999898
 31
0.0
  0
LINE
  5
32F
330
1F
100
AcDbEntity
  8
LAY-10
  6
CONTINUOUS
 62
     7
100
AcDbLine
 10
501.8211084948368
 20
317.9999999999898
 30
0.0
 11
506.0754443656068
 21
278.9999999999898
 31
0.0
  0
LINE
  5
330
330
1F
100
AcDbEntity
  8
LAY-10
  6
CONTINUOUS
 62
     7
100
AcDbLine
 10
505.5300166898669
 20
283.9999999999898
 30
0.0
 11
513.7740514213868
 21
283.9999999999898
 31
0.0
  0
LINE
  5
331
330
1F
100
AcDbEntity
  8
LAY-10
  6
CONTINUOUS
 62
     7
100
AcDbLine
 10
513.2697775495369
 20
317.9999999999898
 30
0.0
 11
519.416149834417
 21
278.9999999999898
 31
0.0
  0
LINE
  5
332
330
1F
100
AcDbEntity
  8
LAY-10
  6
CONTINUOUS
 62
     7
100
AcDbLine
 10
528.7231273490969
 20
278.9999999999898
 30
0.0
 11
520.952185936137
 21
317.9999999999898
 31
0.0
  0
LINE
  5
333
330
1F
100
AcDbEntity
  8
LAY-10
  6
CONTINUOUS
 62
     7
100
AcDbLine
 10
520.952185936137
 20
317.9999999999898
 30
0.0
 11
513.2697775495369
 21
317.9999999999898
 31
0.0
  0
LINE
  5
334
330
1F
100
AcDbEntity
  8
LAY-10
  6
CONTINUOUS
 62
     7
100
AcDbLine
 10
516.294212264737
 20
317.9999999999898
 30
0.0
 11
522.4422589817069
 21
278.9999999999898
 31
0.0
  0
LINE
  5
335
330
1F
100
AcDbEntity
  8
LAY-10
  6
CONTINUOUS
 62
     7
100
AcDbLine
 10
521.6540478641468
 20
283.9999999999898
 30
0.0
 11
527.7268528089768
 21
283.9999999999898
 31
0.0
  0
LINE
  5
336
330
1F
100
AcDbEntity
  8
LAY-10
  6
CONTINUOUS
 62
     7
100
AcDbLine
 10
524.9669695742868
 20
317.9999999999898
 30
0.0
 11
532.7379109872468
 21
278.9999999999898
 31
0.0
  0
LINE
  5
337
330
1F
100
AcDbEntity
  8
LAY-10
  6
CONTINUOUS
 62
     7
100
AcDbLine
 10
540.0992003873769
 20
278.9999999999898
 30
0.0
 11
531.0433172751968
 21
317.9999999999898
 31
0.0
  0
LINE
  5
338
330
1F
100
AcDbEntity
  8
LAY-10
  6
CONTINUOUS
 62
     7
100
AcDbLine
 10
531.0433172751968
 20
317.9999999999898
 30
0.0
 11
524.9669695742868
 21
317.9999999999898
 31
0.0
  0
LINE
  5
339
330
1F
100
AcDbEntity
  8
LAY-10
  6
CONTINUOUS
 62
     7
100
AcDbLine
 10
528.5255128217269
 20
317.9999999999898
 30
0.0
 11
536.2985712417668
 21
278.9999999999898
 31
0.0
  0
LINE
  5
33A
330
1F
100
AcDbEntity
  8
LAY-10
  6
CONTINUOUS
 62
     7
100
AcDbLine
 10
535.302025290477
 20
283.9999999999898
 30
0.0
 11
538.9381897319669
 21
283.9999999999898
 31
0.0
  0
LINE
  5
33B
330
1F
100
AcDbEntity
  8
LAY-10
  6
CONTINUOUS
 62
     7
100
AcDbLine
 10
534.0433172751968
 20
317.9999999999898
 30
0.0
 11
543.0992003873769
 21
278.9999999999898
 31
0.0
  0
LINE
  5
33C
330
1F
100
AcDbEntity
  8
LAY-10
  6
CONTINUOUS
 62
     7
100
AcDbLine
 10
548.1930780027869
 20
278.9999999999898
 30
0.0
 11
538.2480387383368
 21
317.9999999999898
 31
0.0
  0
LINE
  5
33D
330
1F
100
AcDbEntity
  8
LAY-10
  6
CONTINUOUS
 62
     7
100
AcDbLine
 10
538.2480387383368
 20
317.9999999999898
 30
0.0
 11
534.0433172751968
 21
317.9999999999898
 31
0.0
  0
LINE
  5
33E
330
1F
100
AcDbEntity
  8
LAY-10
  6
CONTINUOUS
 62
     7
100
AcDbLine
 10
537.9804436391768
 20
317.9999999999898
 30
0.0
 11
547.0387938100469
 21
278.9999999999898
 31
0.0
  0
LINE
  5
33F
330
1F
100
AcDbEntity
  8
LAY-10
  6
CONTINUOUS
 62
     7
100
AcDbLine
 10
545.8774668650669
 20
283.9999999999898
 30
0.0
 11
546.9180729688868
 21
283.9999999999898
 31
0.0
  0
LINE
  5
340
330
1F
100
AcDbEntity
  8
LAY-10
  6
CONTINUOUS
 62
     7
100
AcDbLine
 10
540.102140704587
 20
317.9999999999898
 30
0.0
 11
550.047179969027
 21
278.9999999999898
 31
0.0
  0
LINE
  5
341
330
1F
100
AcDbEntity
  8
LAY-10
  6
CONTINUOUS
 62
     7
100
AcDbLine
 10
552.6510189047768
 20
278.9999999999898
 30
0.0
 11
542.2514694255269
 21
317.9999999999898
 31
0.0
  0
LINE
  5
342
330
1F
100
AcDbEntity
  8
LAY-10
  6
CONTINUOUS
 62
     7
100
AcDbLine
 10
540.102140704587
 20
317.9999999999898
 30
0.0
 11
542.2514694255269
 21
317.9999999999898
 31
0.0
  0
ARC
  5
343
330
1F
100
AcDbEntity
  8
LAY-10
  6
CONTINUOUS
 62
     7
100
AcDbCircle
 10
572.0635594736536
 20
284.9235176117064
 30
0.0
 40
2.0
100
AcDbArc
 50
184.5513255053862
 51
207.5006583865965
  0
LINE
  5
344
330
1F
100
AcDbEntity
  8
LAY-10
  6
CONTINUOUS
 62
     7
100
AcDbLine
 10
555.4975111821881
 20
286.9999999999903
 30
0.0
 11
596.499999999997
 21
286.9999999999903
 31
0.0
  0
ARC
  5
345
330
1F
100
AcDbEntity
  8
LAY-10
  6
CONTINUOUS
 62
     7
100
AcDbCircle
 10
387.6291462583984
 20
286.3205080756891
 30
0.0
 40
2.0
100
AcDbArc
 50
270.0000000000001
 51
323.6636822537347
  0
LINE
  5
346
330
1F
100
AcDbEntity
  8
LAY-10
  6
CONTINUOUS
 62
     7
100
AcDbLine
 10
386.7211250521583
 20
284.3205080756892
 30
0.0
 11
387.6291462583984
 21
284.3205080756892
 31
0.0
  0
LINE
  5
347
330
1F
100
AcDbEntity
  8
LAY-10
  6
CONTINUOUS
 62
     7
100
AcDbLine
 10
387.3774488995654
 20
286.9999999999903
 30
0.0
 11
389.6448121876434
 21
286.9999999999903
 31
0.0
  0
LINE
  5
348
330
1F
100
AcDbEntity
  8
LAY-10
  6
CONTINUOUS
 62
     7
100
AcDbLine
 10
396.941834536645
 20
286.9999999999903
 30
0.0
 11
401.7106850539074
 21
286.9999999999903
 31
0.0
  0
LINE
  5
349
330
1F
100
AcDbEntity
  8
LAY-10
  6
CONTINUOUS
 62
     7
100
AcDbLine
 10
409.4806885837849
 20
286.9999999999903
 30
0.0
 11
416.5426046791432
 21
286.9999999999903
 31
0.0
  0
ARC
  5
34A
330
1F
100
AcDbEntity
  8
LAY-10
  6
CONTINUOUS
 62
     7
100
AcDbCircle
 10
430.0528355923896
 20
284.9235176117064
 30
0.0
 40
2.0
100
AcDbArc
 50
193.9827549717665
 51
207.5006583865965
  0
LINE
  5
34B
330
1F
100
AcDbEntity
  8
LAY-10
  6
CONTINUOUS
 62
     7
100
AcDbLine
 10
428.1419173100542
 20
284.3205080756892
 30
0.0
 11
433.2702756227089
 21
284.3205080756892
 31
0.0
  0
LINE
  5
34C
330
1F
100
AcDbEntity
  8
LAY-10
  6
CONTINUOUS
 62
     7
100
AcDbLine
 10
424.4460029510256
 20
286.9999999999903
 30
0.0
 11
433.4923450042815
 21
286.9999999999903
 31
0.0
  0
LINE
  5
34D
330
1F
100
AcDbEntity
  8
LAY-10
  6
CONTINUOUS
 62
     7
100
AcDbLine
 10
440.9617126884145
 20
284.3205080756892
 30
0.0
 11
441.8076609515116
 21
284.3205080756892
 31
0.0
  0
ARC
  5
34E
330
1F
100
AcDbEntity
  8
LAY-10
  6
CONTINUOUS
 62
     7
100
AcDbCircle
 10
442.4658131997231
 20
284.9235176117064
 30
0.0
 40
2.0
100
AcDbArc
 50
332.4993416134037
 51
346.9529810187651
  0
LINE
  5
34F
330
1F
100
AcDbEntity
  8
LAY-10
  6
CONTINUOUS
 62
     7
100
AcDbLine
 10
441.1837215889738
 20
286.9999999999903
 30
0.0
 11
451.8191210432567
 21
286.9999999999903
 31
0.0
  0
LINE
  5
350
330
1F
100
AcDbEntity
  8
LAY-10
  6
CONTINUOUS
 62
     7
100
AcDbLine
 10
459.27803525852
 20
286.9999999999903
 30
0.0
 11
464.9999999999967
 21
286.9999999999903
 31
0.0
  0
LINE
  5
351
330
1F
100
AcDbEntity
  8
LAY-10
  6
CONTINUOUS
 62
     7
100
AcDbLine
 10
468.7499999999268
 20
286.9999999999903
 30
0.0
 11
480.0091982254176
 21
286.9999999999903
 31
0.0
  0
LINE
  5
352
330
1F
100
AcDbEntity
  8
LAY-10
  6
CONTINUOUS
 62
     7
100
AcDbLine
 10
497.654636670047
 20
284.3205080756892
 30
0.0
 11
488.1923390484818
 21
284.3205080756892
 31
0.0
  0
ARC
  5
353
330
1F
100
AcDbEntity
  8
LAY-10
  6
CONTINUOUS
 62
     7
100
AcDbCircle
 10
488.1923390484818
 20
286.3205080756891
 30
0.0
 40
2.0
100
AcDbArc
 50
253.1306500015602
 51
270.0000000000001
  0
LINE
  5
354
330
1F
100
AcDbEntity
  8
LAY-10
  6
CONTINUOUS
 62
     7
100
AcDbLine
 10
487.4673454452994
 20
286.9999999999903
 30
0.0
 11
497.3624224663293
 21
286.9999999999903
 31
0.0
  0
LINE
  5
355
330
1F
100
AcDbEntity
  8
LAY-10
  6
CONTINUOUS
 62
     7
100
AcDbLine
 10
505.2027600844232
 20
286.9999999999903
 30
0.0
 11
513.3012535533196
 21
286.9999999999903
 31
0.0
  0
LINE
  5
356
330
1F
100
AcDbEntity
  8
LAY-10
  6
CONTINUOUS
 62
     7
100
AcDbLine
 10
521.1811211936105
 20
286.9999999999903
 30
0.0
 11
527.1290880848999
 21
286.9999999999903
 31
0.0
  0
ARC
  5
357
330
1F
100
AcDbEntity
  8
LAY-10
  6
CONTINUOUS
 62
     7
100
AcDbCircle
 10
539.5057786828744
 20
284.9235176117064
 30
0.0
 40
2.0
100
AcDbArc
 50
188.6632158637403
 51
207.5006583865965
  0
ARC
  5
358
330
1F
100
AcDbEntity
  8
LAY-10
  6
CONTINUOUS
 62
     7
100
AcDbCircle
 10
538.870324019824
 20
285.5359554607061
 30
0.0
 40
1.464044539288239
100
AcDbArc
 50
114.1502728519868
 51
188.6632158637366
  0
LINE
  5
359
330
1F
100
AcDbEntity
  8
LAY-10
  6
CONTINUOUS
 62
     7
100
AcDbLine
 10
534.7040977197072
 20
286.9999999999903
 30
0.0
 11
538.2415833387245
 21
286.9999999999903
 31
0.0
  0
LINE
  5
35A
330
1F
100
AcDbEntity
  8
LAY-10
  6
CONTINUOUS
 62
     7
100
AcDbLine
 10
546.8363430868984
 20
284.3205080756892
 30
0.0
 11
545.8030239321846
 21
284.3205080756892
 31
0.0
  0
LINE
  5
35B
330
1F
100
AcDbEntity
  8
LAY-10
  6
CONTINUOUS
 62
     7
100
AcDbLine
 10
545.1806706980734
 20
286.9999999999903
 30
0.0
 11
546.1530699485406
 21
286.9999999999903
 31
0.0
  0
ARC
  5
35C
330
1F
100
AcDbEntity
  8
LAY-10
  6
CONTINUOUS
 62
     7
100
AcDbCircle
 10
357.7499999999976
 20
286.3857492993901
 30
0.0
 40
3.500000000000002
100
AcDbArc
 50
128.6821874534948
 51
178.1293582694076
  0
ARC
  5
35D
330
1F
100
AcDbEntity
  8
LAY-10
  6
CONTINUOUS
 62
     7
100
AcDbCircle
 10
361.2499999999974
 20
286.3857492993901
 30
0.0
 40
3.500000000000002
100
AcDbArc
 50
1.870641730603566
 51
51.31781254650249
  0
LINE
  5
35E
330
1F
100
AcDbEntity
  8
LAY-10
  6
CONTINUOUS
 62
     7
100
AcDbLine
 10
364.7481347568975
 20
286.4999999999904
 30
0.0
 11
354.2518652430975
 21
286.4999999999904
 31
0.0
  0
LINE
  5
35F
330
1F
100
AcDbEntity
  8
LAY-10
  6
CONTINUOUS
 62
     7
100
AcDbLine
 10
360.0999999999975
 20
290.4713634880904
 30
0.0
 11
360.0999999999975
 21
287.9999999999904
 31
0.0
  0
LINE
  5
360
330
1F
100
AcDbEntity
  8
LAY-10
  6
CONTINUOUS
 62
     7
100
AcDbLine
 10
360.0999999999975
 20
287.9999999999904
 30
0.0
 11
358.8999999999975
 21
287.9999999999904
 31
0.0
  0
LINE
  5
361
330
1F
100
AcDbEntity
  8
LAY-10
  6
CONTINUOUS
 62
     7
100
AcDbLine
 10
358.8999999999975
 20
290.4713634880904
 30
0.0
 11
358.8999999999975
 21
287.9999999999904
 31
0.0
  0
ARC
  5
362
330
1F
100
AcDbEntity
  8
LAY-10
  6
CONTINUOUS
 62
     7
100
AcDbCircle
 10
359.4999999999973
 20
284.1999999999904
 30
0.0
 40
6.300000000000002
100
AcDbArc
 50
51.3178125464967
 51
84.53497620009911
  0
ARC
  5
363
330
1F
100
AcDbEntity
  8
LAY-10
  6
CONTINUOUS
 62
     7
100
AcDbCircle
 10
359.4999999999973
 20
284.1999999999904
 30
0.0
 40
6.300000000000002
100
AcDbArc
 50
95.46502379991026
 51
128.6821874534934
  0
LINE
  5
364
330
1F
100
AcDbEntity
  8
LAY-10
  6
CONTINUOUS
 62
     7
100
AcDbLine
 10
356.9999999999976
 20
274.4999999999924
 30
0.0
 11
356.4999999999973
 21
274.9999999999925
 31
0.0
  0
LINE
  5
365
330
1F
100
AcDbEntity
  8
LAY-10
  6
CONTINUOUS
 62
     7
100
AcDbLine
 10
361.9999999999974
 20
274.4999999999924
 30
0.0
 11
362.4999999999973
 21
274.9999999999925
 31
0.0
  0
LINE
  5
366
330
1F
100
AcDbEntity
  8
LAY-10
  6
CONTINUOUS
 62
     7
100
AcDbLine
 10
356.4999999999973
 20
286.4999999999904
 30
0.0
 11
356.4999999999973
 21
274.9999999999925
 31
0.0
  0
LINE
  5
367
330
1F
100
AcDbEntity
  8
LAY-10
  6
CONTINUOUS
 62
     7
100
AcDbLine
 10
356.9999999999976
 20
274.4999999999924
 30
0.0
 11
361.9999999999974
 21
274.4999999999924
 31
0.0
  0
LINE
  5
368
330
1F
100
AcDbEntity
  8
LAY-10
  6
CONTINUOUS
 62
     7
100
AcDbLine
 10
362.4999999999973
 20
286.4999999999904
 30
0.0
 11
362.4999999999973
 21
274.9999999999925
 31
0.0
  0
LINE
  5
369
330
1F
100
AcDbEntity
  8
LAY-10
  6
CONTINUOUS
 62
     7
100
AcDbLine
 10
362.4999999999973
 20
274.9999999999925
 30
0.0
 11
356.4999999999973
 21
274.9999999999925
 31
0.0
  0
ARC
  5
36A
330
1F
100
AcDbEntity
  8
LAY-10
  6
CONTINUOUS
 62
     7
100
AcDbCircle
 10
357.6673185577794
 20
284.7370139749248
 30
0.0
 40
2.262986025064351
100
AcDbArc
 50
128.8260505111474
 51
154.5675960206813
  0
LINE
  5
36B
330
1F
100
AcDbEntity
  8
LAY-10
  6
CONTINUOUS
 62
     7
100
AcDbLine
 10
333.4999999999968
 20
286.9999999999903
 30
0.0
 11
354.3043221165019
 21
286.9999999999903
 31
0.0
  0
LINE
  5
36C
330
1F
100
AcDbEntity
  8
LAY-10
  6
CONTINUOUS
 62
     7
100
AcDbLine
 10
364.6956778834933
 20
286.9999999999903
 30
0.0
 11
374.5024888178018
 21
286.9999999999903
 31
0.0
  0
ARC
  5
36D
330
1F
100
AcDbEntity
  8
LAY-10
  6
CONTINUOUS
 62
     7
100
AcDbCircle
 10
353.1467959090986
 20
284.6194335166266
 30
0.0
 40
2.380566483363538
100
AcDbArc
 50
5.520138584776325
 51
52.1823303598715
  0
ARC
  5
36E
330
1F
100
AcDbEntity
  8
LAY-10
  6
CONTINUOUS
 62
     7
100
AcDbCircle
 10
353.1467959090986
 20
284.6194335166266
 30
0.0
 40
2.380566483363538
100
AcDbArc
 50
61.95532256497774
 51
90.00000000000004
  0
ARC
  5
36F
330
1F
100
AcDbEntity
  8
LAY-10
  6
CONTINUOUS
 62
     7
100
AcDbCircle
 10
357.5183843025065
 20
284.9235176117064
 30
0.0
 40
2.0
100
AcDbArc
 50
185.5201385847758
 51
239.389965686275
  0
LINE
  5
370
330
1F
100
AcDbEntity
  8
LAY-10
  6
CONTINUOUS
 62
     7
100
AcDbLine
 10
356.9999999999982
 20
274.4999999999899
 30
0.0
 11
356.9999999999982
 21
271.4999999999928
 31
0.0
  0
LINE
  5
371
330
1F
100
AcDbEntity
  8
LAY-10
  6
CONTINUOUS
 62
     7
100
AcDbLine
 10
361.9999999999978
 20
274.4999999999899
 30
0.0
 11
361.9999999999978
 21
271.4999999999942
 31
0.0
  0
LINE
  5
372
330
1F
100
AcDbEntity
  8
LAY-10
  6
CONTINUOUS
 62
     7
100
AcDbLine
 10
353.9192622342775
 20
278.9999999999903
 30
0.0
 11
356.9999999999976
 21
278.9999999999903
 31
0.0
  0
LINE
  5
373
330
1F
100
AcDbEntity
  8
LAY-10
  6
CONTINUOUS
 62
     7
100
AcDbLine
 10
576.0807377657161
 20
278.9999999999903
 30
0.0
 11
361.9999999999974
 21
278.9999999999903
 31
0.0
  0
LINE
  5
374
330
1F
100
AcDbEntity
  8
LAY-10
  6
CONTINUOUS
 62
     7
100
AcDbLine
 10
591.4999999999924
 20
279.9999999999937
 30
0.0
 11
591.4999999999924
 21
280.9999999999919
 31
0.0
  0
LINE
  5
375
330
1F
100
AcDbEntity
  8
LAY-10
  6
CONTINUOUS
 62
     7
100
AcDbLine
 10
586.4999999999931
 20
279.9999999999937
 30
0.0
 11
586.4999999999931
 21
280.9999999999931
 31
0.0
  0
LINE
  5
376
330
1F
100
AcDbEntity
  8
LAY-10
  6
CONTINUOUS
 62
     7
100
AcDbLine
 10
586.4999999999931
 20
280.9999999999931
 30
0.0
 11
591.4999999999924
 21
280.9999999999931
 31
0.0
  0
LINE
  5
377
330
1F
100
AcDbEntity
  8
LAY-10
  6
CONTINUOUS
 62
     7
100
AcDbLine
 10
585.9999999999899
 20
279.4999999999931
 30
0.0
 11
591.9999999999899
 21
279.4999999999931
 31
0.0
  0
LINE
  5
378
330
1F
100
AcDbEntity
  8
LAY-10
  6
CONTINUOUS
 62
     7
100
AcDbLine
 10
586.4999999999899
 20
279.9999999999937
 30
0.0
 11
591.4999999999899
 21
279.9999999999937
 31
0.0
  0
LINE
  5
379
330
1F
100
AcDbEntity
  8
LAY-10
  6
CONTINUOUS
 62
     7
100
AcDbLine
 10
588.9999999999901
 20
282.4433756729687
 30
0.0
 11
591.499999999991
 21
280.9999999999941
 31
0.0
  0
LINE
  5
37A
330
1F
100
AcDbEntity
  8
LAY-10
  6
CONTINUOUS
 62
     7
100
AcDbLine
 10
588.9999999999897
 20
282.4433756729685
 30
0.0
 11
586.4999999999892
 21
280.9999999999941
 31
0.0
  0
LINE
  5
37B
330
1F
100
AcDbEntity
  8
LAY-10
  6
CONTINUOUS
 62
     7
100
AcDbLine
 10
603.4999999999894
 20
250.0000000000024
 30
0.0
 11
603.4999999999894
 21
255.0000000000023
 31
0.0
  0
LINE
  5
37C
330
1F
100
AcDbEntity
  8
LAY-10
  6
CONTINUOUS
 62
     7
100
AcDbLine
 10
593.499999999989
 20
255.0000000000023
 30
0.0
 11
603.4999999999894
 21
255.0000000000023
 31
0.0
  0
ARC
  5
37D
330
1F
100
AcDbEntity
  8
LAY-10
  6
CONTINUOUS
 62
     7
100
AcDbCircle
 10
593.499999999989
 20
257.0000000000023
 30
0.0
 40
2.0
100
AcDbArc
 50
180.0
 51
270.0000000000002
  0
LINE
  5
37E
330
1F
100
AcDbEntity
  8
LAY-10
  6
CONTINUOUS
 62
     7
100
AcDbLine
 10
593.499999999989
 20
250.0000000000024
 30
0.0
 11
603.4999999999894
 21
250.0000000000024
 31
0.0
  0
ARC
  5
37F
330
1F
100
AcDbEntity
  8
LAY-10
  6
CONTINUOUS
 62
     7
100
AcDbCircle
 10
593.499999999989
 20
257.0000000000023
 30
0.0
 40
7.000000000000004
100
AcDbArc
 50
180.0
 51
270.0000000000002
  0
LINE
  5
380
330
1F
100
AcDbEntity
  8
LAY-10
  6
CONTINUOUS
 62
     7
100
AcDbLine
 10
591.4999999999899
 20
256.999999999998
 30
0.0
 11
591.4999999999899
 21
271.9999999999976
 31
0.0
  0
LINE
  5
381
330
1F
100
AcDbEntity
  8
LAY-10
  6
CONTINUOUS
 62
     7
100
AcDbLine
 10
586.4999999999899
 20
256.999999999998
 30
0.0
 11
586.4999999999899
 21
271.9999999999976
 31
0.0
  0
LINE
  5
382
330
1F
100
AcDbEntity
  8
LAY-10
  6
CONTINUOUS
 62
     7
100
AcDbLine
 10
586.4999999999931
 20
278.0000000000025
 30
0.0
 11
591.4999999999924
 21
278.0000000000025
 31
0.0
  0
LINE
  5
383
330
1F
100
AcDbEntity
  8
LAY-10
  6
CONTINUOUS
 62
     7
100
AcDbLine
 10
585.9999999999917
 20
277.500000000004
 30
0.0
 11
591.9999999999908
 21
277.500000000004
 31
0.0
  0
LINE
  5
384
330
1F
100
AcDbEntity
  8
LAY-10
  6
CONTINUOUS
 62
     7
100
AcDbLine
 10
591.4999999999924
 20
279.9999999999937
 30
0.0
 11
591.4999999999924
 21
278.0000000000025
 31
0.0
  0
LINE
  5
385
330
1F
100
AcDbEntity
  8
LAY-10
  6
CONTINUOUS
 62
     7
100
AcDbLine
 10
586.4999999999931
 20
279.9999999999937
 30
0.0
 11
586.4999999999931
 21
278.0000000000025
 31
0.0
  0
LINE
  5
386
330
1F
100
AcDbEntity
  8
LAY-10
  6
CONTINUOUS
 62
     7
100
AcDbLine
 10
591.9999999999899
 20
277.500000000008
 30
0.0
 11
591.4999999999899
 21
277.999999999998
 31
0.0
  0
LINE
  5
387
330
1F
100
AcDbEntity
  8
LAY-10
  6
CONTINUOUS
 62
     7
100
AcDbLine
 10
586.4999999999899
 20
277.999999999998
 30
0.0
 11
585.9999999999899
 21
277.500000000008
 31
0.0
  0
LINE
  5
388
330
1F
100
AcDbEntity
  8
LAY-10
  6
CONTINUOUS
 62
     7
100
AcDbLine
 10
585.9999999999899
 20
277.500000000008
 30
0.0
 11
585.9999999999899
 21
271.999999999998
 31
0.0
  0
LINE
  5
389
330
1F
100
AcDbEntity
  8
LAY-10
  6
CONTINUOUS
 62
     7
100
AcDbLine
 10
591.9999999999899
 20
277.500000000008
 30
0.0
 11
591.9999999999899
 21
271.999999999998
 31
0.0
  0
ARC
  5
38A
330
1F
100
AcDbEntity
  8
LAY-10
  6
CONTINUOUS
 62
     7
100
AcDbCircle
 10
571.340031970153
 20
280.9999999999898
 30
0.0
 40
2.0
100
AcDbArc
 50
270.0000000000002
 51
357.0000000000025
  0
LINE
  5
38B
330
1F
100
AcDbEntity
  8
LAY-10
  6
CONTINUOUS
 62
     7
100
AcDbLine
 10
573.3372910396621
 20
280.895328087504
 30
0.0
 11
573.4999999999977
 21
283.9999999999898
 31
0.0
  0
ARC
  5
38C
330
1F
100
AcDbEntity
  8
LAY-10
  6
CONTINUOUS
 62
     7
100
AcDbCircle
 10
572.4816156974873
 20
284.9235176117064
 30
0.0
 40
2.0
100
AcDbArc
 50
299.1854187055809
 51
354.4798614152245
  0
LINE
  5
38D
330
1F
100
AcDbEntity
  8
LAY-10
  6
CONTINUOUS
 62
     7
100
AcDbLine
 10
573.5
 20
283.9999999999898
 30
0.0
 11
556.3013587594816
 21
283.9999999999898
 31
0.0
  0
ARC
  5
38E
330
1F
100
AcDbEntity
  8
LAY-10
  6
CONTINUOUS
 62
     7
100
AcDbCircle
 10
392.9920280938489
 20
257.1938407511724
 30
0.0
 40
5.0
100
AcDbArc
 50
2.147585428298361
 51
79.11447294534145
  0
ARC
  5
38F
330
1F
100
AcDbEntity
  8
LAY-10
  6
CONTINUOUS
 62
     7
100
AcDbCircle
 10
391.0914778124476
 20
254.5043614295478
 30
0.0
 40
3.000000000000002
100
AcDbArc
 50
2.147585428298017
 51
79.11447294534145
  0
LINE
  5
390
330
1F
100
AcDbEntity
  8
LAY-10
  6
CONTINUOUS
 62
     7
100
AcDbLine
 10
391.6580199933978
 20
257.4503807704898
 30
0.0
 11
368.0000000000013
 21
261.9999999999893
 31
0.0
  0
LINE
  5
391
330
1F
100
AcDbEntity
  8
LAY-10
  6
CONTINUOUS
 62
     7
100
AcDbLine
 10
397.8780295834026
 20
261.327518093912
 30
0.0
 11
531.9730193173
 21
261.327518093912
 31
0.0
  0
ARC
  5
392
330
1F
100
AcDbEntity
  8
LAY-10
  6
CONTINUOUS
 62
     7
100
AcDbCircle
 10
537.0079719061504
 20
257.1938407511723
 30
0.0
 40
5.0
100
AcDbArc
 50
100.8855270546585
 51
177.8524145717018
  0
ARC
  5
393
330
1F
100
AcDbEntity
  8
LAY-10
  6
CONTINUOUS
 62
     7
100
AcDbCircle
 10
538.9085221875517
 20
254.5043614295478
 30
0.0
 40
3.000000000000002
100
AcDbArc
 50
100.8855270546584
 51
177.8524145717016
  0
LINE
  5
394
330
1F
100
AcDbEntity
  8
LAY-10
  6
CONTINUOUS
 62
     7
100
AcDbLine
 10
369.1355363575806
 20
266.8732438907908
 30
0.0
 11
393.9362650620995
 21
262.1038729860756
 31
0.0
  0
LINE
  5
395
330
1F
100
AcDbEntity
  8
LAY-10
  6
CONTINUOUS
 62
     7
100
AcDbLine
 10
561.5235954102438
 20
266.9999999999879
 30
0.0
 11
536.0637349378998
 21
262.1038729860756
 31
0.0
  0
LINE
  5
396
330
1F
100
AcDbEntity
  8
LAY-10
  6
CONTINUOUS
 62
     7
100
AcDbLine
 10
369.128893351387
 20
266.9999999999878
 30
0.0
 11
562.8711066486037
 21
266.9999999999879
 31
0.0
  0
LINE
  5
397
330
1F
100
AcDbEntity
  8
LAY-10
  6
CONTINUOUS
 62
     7
100
AcDbLine
 10
473.6288933514132
 20
266.9999999999879
 30
0.0
 11
473.0000000000169
 21
278.9999999999901
 31
0.0
  0
LINE
  5
398
330
1F
100
AcDbEntity
  8
LAY-10
  6
CONTINUOUS
 62
     7
100
AcDbLine
 10
458.371106648583
 20
266.9999999999879
 30
0.0
 11
458.9999999999795
 21
278.9999999999901
 31
0.0
  0
LINE
  5
399
330
1F
100
AcDbEntity
  8
LAY-10
  6
CONTINUOUS
 62
     7
100
AcDbLine
 10
562.8711066486007
 20
266.9999999999899
 30
0.0
 11
563.499999999997
 21
278.9999999999903
 31
0.0
  0
LINE
  5
39A
330
1F
100
AcDbEntity
  8
LAY-10
  6
CONTINUOUS
 62
     7
100
AcDbLine
 10
532.0114838276018
 20
257.3812090541179
 30
0.0
 11
530.497188488072
 21
216.9999999999902
 31
0.0
  0
LINE
  5
39B
330
1F
100
AcDbEntity
  8
LAY-10
  6
CONTINUOUS
 62
     7
100
AcDbLine
 10
534.4999999999969
 20
216.9999999999902
 30
0.0
 11
535.9106293404216
 21
254.6167824113152
 31
0.0
  0
LINE
  5
39C
330
1F
100
AcDbEntity
  8
LAY-10
  6
CONTINUOUS
 62
     7
100
AcDbLine
 10
538.3419800066011
 20
257.4503807704911
 30
0.0
 11
558.9691138722858
 21
261.4171372831229
 31
0.0
  0
LINE
  5
39D
330
1F
100
AcDbEntity
  8
LAY-10
  6
CONTINUOUS
 62
     7
100
AcDbLine
 10
397.9885161723918
 20
257.3812090541177
 30
0.0
 11
399.5028115119217
 21
216.9999999999902
 31
0.0
  0
LINE
  5
39E
330
1F
100
AcDbEntity
  8
LAY-10
  6
CONTINUOUS
 62
     7
100
AcDbLine
 10
395.4999999999965
 20
216.9999999999902
 30
0.0
 11
394.0893706595722
 21
254.616782411315
 31
0.0
  0
LINE
  5
39F
330
1F
100
AcDbEntity
  8
LAY-10
  6
CONTINUOUS
 62
     7
100
AcDbLine
 10
369.1355363575776
 20
266.8732438907914
 30
0.0
 11
368.4999999999876
 21
278.9999999999903
 31
0.0
  0
LINE
  5
3A0
330
1F
100
AcDbEntity
  8
LAY-10
  6
CONTINUOUS
 62
     7
100
AcDbLine
 10
536.3079327800124
 20
255.9999999999899
 30
0.0
 11
563.8349749849676
 21
255.9999999999899
 31
0.0
  0
LINE
  5
3A1
330
1F
100
AcDbEntity
  8
LAY-10
  6
CONTINUOUS
 62
     7
100
AcDbLine
 10
393.6920672199876
 20
255.9999999999899
 30
0.0
 11
366.1650250150323
 21
255.9999999999899
 31
0.0
  0
ARC
  5
3A2
330
1F
100
AcDbEntity
  8
LAY-10
  6
CONTINUOUS
 62
     7
100
AcDbCircle
 10
370.8420387340638
 20
260.4351308361423
 30
0.0
 40
1.0
100
AcDbArc
 50
79.11447294532134
 51
176.9999999999979
  0
LINE
  5
3A3
330
1F
100
AcDbEntity
  8
LAY-10
  6
CONTINUOUS
 62
     7
100
AcDbLine
 10
365.1663954802778
 20
256.947664043747
 30
0.0
 11
364.951278740659
 21
261.0523359562331
 31
0.0
  0
LINE
  5
3A4
330
1F
100
AcDbEntity
  8
LAY-10
  6
CONTINUOUS
 62
     7
100
AcDbLine
 10
369.6578959981533
 20
256.947664043747
 30
0.0
 11
369.8434091993094
 21
260.4874667923852
 31
0.0
  0
ARC
  5
3A5
330
1F
100
AcDbEntity
  8
LAY-10
  6
CONTINUOUS
 62
     7
100
AcDbCircle
 10
366.1650250150323
 20
256.9999999999898
 30
0.0
 40
1.0
100
AcDbArc
 50
182.9999999999925
 51
270.0000000000002
  0
ARC
  5
3A6
330
1F
100
AcDbEntity
  8
LAY-10
  6
CONTINUOUS
 62
     7
100
AcDbCircle
 10
368.6592664633989
 20
256.9999999999898
 30
0.0
 40
1.0
100
AcDbArc
 50
270.0000000000002
 51
357.0000000000076
  0
ARC
  5
3A7
330
1F
100
AcDbEntity
  8
LAY-10
  6
CONTINUOUS
 62
     7
100
AcDbCircle
 10
363.9526492059045
 20
260.9999999999901
 30
0.0
 40
1.0
100
AcDbArc
 50
3.000000000002355
 51
90.00000000000004
  0
LINE
  5
3A8
330
1F
100
AcDbEntity
  8
LAY-10
  6
CENTER
 62
     2
100
AcDbLine
 10
326.921077143577
 20
569.9999999999905
 30
0.0
 11
604.3210771435771
 21
569.9999999999905
 31
0.0
  0
LINE
  5
3A9
330
1F
100
AcDbEntity
  8
LAY-10
  6
CENTER
 62
     2
100
AcDbLine
 10
464.9999999999967
 20
708.90454601939
 30
0.0
 11
464.9999999999967
 21
431.70454601939
 31
0.0
  0
LINE
  5
3AA
330
1F
100
AcDbEntity
  8
LAY-10
  6
CENTER
 62
     2
100
AcDbLine
 10
359.4999999999968
 20
563.9999999999901
 30
0.0
 11
359.4999999999968
 21
575.9999999999901
 31
0.0
  0
LINE
  5
3AB
330
1F
100
AcDbEntity
  8
LAY-10
  6
CENTER
 62
     2
100
AcDbLine
 10
570.4999999999966
 20
563.9999999999901
 30
0.0
 11
570.4999999999966
 21
575.9999999999901
 31
0.0
  0
LINE
  5
3AC
330
1F
100
AcDbEntity
  8
LAY-10
  6
CENTER
 62
     2
100
AcDbLine
 10
359.4999999999968
 20
268.6999999999899
 30
0.0
 11
359.4999999999968
 21
292.9999999999898
 31
0.0
  0
LINE
  5
3AD
330
1F
100
AcDbEntity
  8
LAY-10
  6
CENTER
 62
     2
100
AcDbLine
 10
464.9999999999967
 20
330.2999999999799
 30
0.0
 11
464.9999999999967
 21
200.1999999999799
 31
0.0
  0
LINE
  5
3AE
330
1F
100
AcDbEntity
  8
LAY-10
  6
CENTER
 62
     2
100
AcDbLine
 10
604.6999999999888
 20
252.5000000000035
 30
0.0
 11
593.4999999999899
 21
252.5000000000035
 31
0.0
  0
ARC
  5
3AF
330
1F
100
AcDbEntity
  8
LAY-10
  6
CENTER
 62
     2
100
AcDbCircle
 10
593.4999999999899
 20
257.0000000000035
 30
0.0
 40
4.5
100
AcDbArc
 50
180.0
 51
270.0000000000002
  0
LINE
  5
3B0
330
1F
100
AcDbEntity
  8
LAY-10
  6
CENTER
 62
     2
100
AcDbLine
 10
588.9999999999901
 20
283.2013587594878
 30
0.0
 11
588.9999999999901
 21
257.0000000000035
 31
0.0
  0
LINE
  5
3B1
330
1F
100
AcDbEntity
  8
LAY-10
  6
CONTINUOUS
 62
     7
100
AcDbLine
 10
362.4999999999966
 20
272.9999999999928
 30
0.0
 11
361.9999999999978
 21
272.4999999999921
 31
0.0
  0
LINE
  5
3B2
330
1F
100
AcDbEntity
  8
LAY-10
  6
CONTINUOUS
 62
     7
100
AcDbLine
 10
356.4999999999968
 20
272.9999999999928
 30
0.0
 11
356.9999999999982
 21
272.4999999999921
 31
0.0
  0
LINE
  5
3B3
330
1F
100
AcDbEntity
  8
LAY-10
  6
CONTINUOUS
 62
     7
100
AcDbLine
 10
356.9999999999976
 20
286.4999999999904
 30
0.0
 11
356.9999999999976
 21
274.4999999999924
 31
0.0
  0
LINE
  5
3B4
330
1F
100
AcDbEntity
  8
LAY-10
  6
CONTINUOUS
 62
     7
100
AcDbLine
 10
361.9999999999974
 20
286.4999999999904
 30
0.0
 11
361.9999999999974
 21
274.4999999999924
 31
0.0
  0
LINE
  5
3B5
330
1F
100
AcDbEntity
  8
LAY-10
  6
CONTINUOUS
 62
     7
100
AcDbLine
 10
362.4999999999966
 20
272.9999999999928
 30
0.0
 11
362.4999999999966
 21
274.9999999999925
 31
0.0
  0
LINE
  5
3B6
330
1F
100
AcDbEntity
  8
LAY-10
  6
CONTINUOUS
 62
     7
100
AcDbLine
 10
356.4999999999968
 20
272.9999999999928
 30
0.0
 11
356.4999999999968
 21
274.9999999999925
 31
0.0
  0
LINE
  5
3B7
330
1F
100
AcDbEntity
  8
LAY-10
  6
CONTINUOUS
 62
     7
100
AcDbLine
 10
591.9999999999908
 20
279.4999999999931
 30
0.0
 11
591.4999999999924
 21
279.9999999999937
 31
0.0
  0
LINE
  5
3B8
330
1F
100
AcDbEntity
  8
LAY-10
  6
CONTINUOUS
 62
     7
100
AcDbLine
 10
585.9999999999917
 20
279.4999999999931
 30
0.0
 11
586.4999999999931
 21
279.9999999999937
 31
0.0
  0
LINE
  5
3B9
330
1F
100
AcDbEntity
  8
LAY-10
  6
CONTINUOUS
 62
     7
100
AcDbLine
 10
591.9999999999908
 20
279.4999999999931
 30
0.0
 11
591.9999999999908
 21
277.500000000004
 31
0.0
  0
LINE
  5
3BA
330
1F
100
AcDbEntity
  8
LAY-10
  6
CONTINUOUS
 62
     7
100
AcDbLine
 10
585.9999999999917
 20
279.4999999999931
 30
0.0
 11
585.9999999999917
 21
277.500000000004
 31
0.0
  0
LINE
  5
3BB
330
1F
100
AcDbEntity
  8
LAY-10
  6
CONTINUOUS
 62
     7
100
AcDbLine
 10
591.4999999999899
 20
277.999999999998
 30
0.0
 11
591.4999999999899
 21
271.999999999998
 31
0.0
  0
LINE
  5
3BC
330
1F
100
AcDbEntity
  8
LAY-10
  6
CONTINUOUS
 62
     7
100
AcDbLine
 10
586.4999999999899
 20
277.999999999998
 30
0.0
 11
586.4999999999899
 21
271.999999999998
 31
0.0
  0
LINE
  5
3BD
330
1F
100
AcDbEntity
  8
LAY-10
  6
CONTINUOUS
 62
     7
100
AcDbLine
 10
586.4999999999717
 20
271.133974596203
 30
0.0
 11
585.9999999999717
 21
271.9999999999875
 31
0.0
  0
LINE
  5
3BE
330
1F
100
AcDbEntity
  8
LAY-10
  6
CONTINUOUS
 62
     7
100
AcDbLine
 10
591.5000000000019
 20
271.1339745962065
 30
0.0
 11
592.0000000000019
 21
271.999999999991
 31
0.0
  0
DIMENSION
  5
3C0
330
1F
100
AcDbEntity
  8
LAY-20
  6
CONTINUOUS
 62
     4
100
AcDbDimension
  2
*D15
 10
393.999999999997
 20
155.9999999999899
 30
0.0
 11
464.9999999999969
 21
163.4999999999899
 31
0.0
 70
   160
  1
%%c<>
  3
ISO-25
100
AcDbAlignedDimension
 13
535.999999999997
 23
256.9999999999899
 33
0.0
 14
393.999999999997
 24
256.9999999999899
 34
0.0
100
AcDbRotatedDimension
1001
ACAD
1000
DSTYLE
1002
{
1070
   270
1070
     2
1070
     6
1000
EX_BNORM
1070
     7
1000
EX_BNORM
1070
    41
1040
7.5
1070
    42
1040
4.500000000000028
1070
    44
1040
4.5
1070
    73
1070
     0
1070
    74
1070
     0
1070
    75
1070
     0
1070
    76
1070
     0
1070
    77
1070
     1
1070
    78
1070
     8
1070
   140
1040
9.3543312
1070
   147
1040
0.0
1070
   173
1070
     1
1070
   176
1070
     4
1070
   177
1070
     4
1070
   178
1070
     7
1070
   271
1070
     1
1070
   277
1070
     2
1070
   279
1070
     2
1070
   280
1070
     0
1070
   287
1070
     5
1070
   340
1005
3BF
1002
}
  0
DIMENSION
  5
3CE
330
1F
100
AcDbEntity
  8
LAY-20
  6
CONTINUOUS
 62
     4
100
AcDbDimension
  2
*D16
 10
534.499999999997
 20
176.9999999999899
 30
0.0
 11
464.9999999999969
 21
184.4999999999899
 31
0.0
 70
   160
  1
%%c<>
  3
ISO-25
100
AcDbAlignedDimension
 13
395.499999999997
 23
216.9999999999899
 33
0.0
 14
534.499999999997
 24
216.9999999999899
 34
0.0
100
AcDbRotatedDimension
1001
ACAD
1000
DSTYLE
1002
{
1070
   270
1070
     2
1070
     6
1000
EX_BNORM
1070
     7
1000
EX_BNORM
1070
    41
1040
7.5
1070
    42
1040
4.5
1070
    44
1040
4.5
1070
    73
1070
     0
1070
    74
1070
     0
1070
    75
1070
     0
1070
    76
1070
     0
1070
    77
1070
     1
1070
    78
1070
     8
1070
   140
1040
9.3543312
1070
   147
1040
0.0
1070
   173
1070
     1
1070
   176
1070
     4
1070
   177
1070
     4
1070
   178
1070
     7
1070
   271
1070
     1
1070
   277
1070
     2
1070
   279
1070
     2
1070
   280
1070
     0
1070
   287
1070
     5
1070
   340
1005
3BF
1002
}
  0
DIMENSION
  5
3DB
330
1F
100
AcDbEntity
  8
LAY-20
  6
CONTINUOUS
 62
     4
100
AcDbDimension
  2
*D17
 10
302.500000000007
 20
286.9999999999899
 30
0.0
 11
295.000000000007
 21
274.4999999999899
 31
0.0
 70
   160
  3
ISO-25
100
AcDbAlignedDimension
 13
356.498492498397
 23
261.9999999999899
 33
0.0
 14
333.499999999997
 24
286.9999999999899
 34
0.0
 50
90.0
100
AcDbRotatedDimension
1001
ACAD
1000
DSTYLE
1002
{
1070
   270
1070
     2
1070
     6
1000
EX_BNORM
1070
     7
1000
EX_BNORM
1070
    41
1040
7.5
1070
    42
1040
4.5
1070
    44
1040
4.5
1070
    73
1070
     0
1070
    74
1070
     0
1070
    75
1070
     0
1070
    76
1070
     0
1070
    77
1070
     1
1070
    78
1070
     8
1070
   140
1040
9.3543312
1070
   147
1040
0.0
1070
   173
1070
     1
1070
   176
1070
     4
1070
   177
1070
     4
1070
   178
1070
     7
1070
   271
1070
     1
1070
   277
1070
     2
1070
   279
1070
     2
1070
   280
1070
     0
1070
   287
1070
     5
1070
   340
1005
3BF
1002
}
  0
DIMENSION
  5
3E8
330
1F
100
AcDbEntity
  8
LAY-20
  6
CONTINUOUS
 62
     4
100
AcDbDimension
  2
*D18
 10
332.499999999997
 20
395.99999999998
 30
0.0
 11
464.9999999999971
 21
403.4999999999799
 31
0.0
 70
   160
  1
%%c<>
  3
ISO-25
100
AcDbAlignedDimension
 13
597.499999999997
 23
279.9999999999899
 33
0.0
 14
332.499999999997
 24
279.9999999999899
 34
0.0
100
AcDbRotatedDimension
1001
ACAD
1000
DSTYLE
1002
{
1070
   270
1070
     2
1070
     6
1000
EX_BNORM
1070
     7
1000
EX_BNORM
1070
    41
1040
7.5
1070
    42
1040
4.5
1070
    44
1040
4.500000000000171
1070
    73
1070
     0
1070
    74
1070
     0
1070
    75
1070
     0
1070
    76
1070
     0
1070
    77
1070
     1
1070
    78
1070
     8
1070
   140
1040
9.3543312
1070
   147
1040
0.0
1070
   173
1070
     1
1070
   176
1070
     4
1070
   177
1070
     4
1070
   178
1070
     7
1070
   271
1070
     1
1070
   277
1070
     2
1070
   279
1070
     2
1070
   280
1070
     0
1070
   287
1070
     5
1070
   340
1005
3BF
1002
}
  0
DIMENSION
  5
3F5
330
1F
100
AcDbEntity
  8
LAY-20
  6
CONTINUOUS
 62
     4
100
AcDbDimension
  2
*D19
 10
576.499999999975
 20
374.99999999998
 30
0.0
 11
464.999999999996
 21
382.49999999998
 31
0.0
 70
   160
  1
%%c<>
  3
ISO-25
100
AcDbAlignedDimension
 13
353.500000000017
 23
286.9999999999899
 33
0.0
 14
576.499999999975
 24
286.9999999999899
 34
0.0
100
AcDbRotatedDimension
1001
ACAD
1000
DSTYLE
1002
{
1070
   270
1070
     2
1070
     6
1000
EX_BNORM
1070
     7
1000
EX_BNORM
1070
    41
1040
7.5
1070
    42
1040
4.5
1070
    44
1040
4.5
1070
    73
1070
     0
1070
    74
1070
     0
1070
    75
1070
     0
1070
    76
1070
     0
1070
    77
1070
     1
1070
    78
1070
     8
1070
   140
1040
9.3543312
1070
   147
1040
0.0
1070
   173
1070
     1
1070
   176
1070
     4
1070
   177
1070
     4
1070
   178
1070
     7
1070
   271
1070
     1
1070
   277
1070
     2
1070
   279
1070
     2
1070
   280
1070
     0
1070
   287
1070
     5
1070
   340
1005
3BF
1002
}
  0
DIMENSION
  5
402
330
1F
100
AcDbEntity
  8
LAY-20
  6
CONTINUOUS
 62
     4
100
AcDbDimension
  2
*D20
 10
633.5
 20
286.99999999999
 30
0.0
 11
626.0
 21
246.99999999999
 31
0.0
 70
   160
  3
ISO-25
100
AcDbAlignedDimension
 13
573.0
 23
206.99999999999
 33
0.0
 14
596.5
 24
286.99999999999
 34
0.0
 50
90.0
100
AcDbRotatedDimension
1001
ACAD
1000
DSTYLE
1002
{
1070
   270
1070
     2
1070
     6
1000
EX_BNORM
1070
     7
1000
EX_BNORM
1070
    41
1040
7.5
1070
    42
1040
4.5
1070
    44
1040
4.5
1070
    73
1070
     0
1070
    74
1070
     0
1070
    75
1070
     0
1070
    76
1070
     0
1070
    77
1070
     1
1070
    78
1070
     8
1070
   140
1040
9.3543312
1070
   147
1040
0.0
1070
   173
1070
     1
1070
   176
1070
     4
1070
   177
1070
     4
1070
   178
1070
     7
1070
   271
1070
     1
1070
   277
1070
     2
1070
   279
1070
     2
1070
   280
1070
     0
1070
   287
1070
     5
1070
   340
1005
3BF
1002
}
  0
DIMENSION
  5
40F
330
1F
100
AcDbEntity
  8
LAY-20
  6
CONTINUOUS
 62
     4
100
AcDbDimension
  2
*D21
 10
633.5
 20
286.99999999999
 30
0.0
 11
626.0
 21
305.49999999999
 31
0.0
 70
   160
  3
ISO-25
100
AcDbAlignedDimension
 13
540.97942913435
 23
323.99999999999
 33
0.0
 14
633.5
 24
286.99999999999
 34
0.0
 50
90.0
100
AcDbRotatedDimension
1001
ACAD
1000
DSTYLE
1002
{
1070
   270
1070
     2
1070
     6
1000
EX_BNORM
1070
     7
1000
EX_BNORM
1070
    41
1040
7.5
1070
    42
1040
4.5
1070
    44
1040
4.5
1070
    73
1070
     0
1070
    74
1070
     0
1070
    75
1070
     0
1070
    76
1070
     1
1070
    77
1070
     1
1070
    78
1070
     8
1070
   140
1040
9.3543312
1070
   147
1040
0.0
1070
   173
1070
     1
1070
   176
1070
     4
1070
   177
1070
     4
1070
   178
1070
     7
1070
   271
1070
     1
1070
   277
1070
     2
1070
   279
1070
     2
1070
   280
1070
     0
1070
   287
1070
     5
1070
   340
1005
3BF
1002
}
  0
DIMENSION
  5
41B
330
1F
100
AcDbEntity
  8
LAY-20
  6
CONTINUOUS
 62
     4
100
AcDbDimension
  2
*D22
 10
356.5
 20
353.99999999998
 30
0.0
 11
465.0
 21
361.49999999998
 31
0.0
 70
   160
  1
%%c<>
  3
ISO-25
100
AcDbAlignedDimension
 13
573.5
 23
283.99999999999
 33
0.0
 14
356.5
 24
283.99999999999
 34
0.0
100
AcDbRotatedDimension
1001
ACAD
1000
DSTYLE
1002
{
1070
   270
1070
     2
1070
     6
1000
EX_BNORM
1070
     7
1000
EX_BNORM
1070
    41
1040
7.5
1070
    42
1040
4.5
1070
    44
1040
4.5
1070
    73
1070
     0
1070
    74
1070
     0
1070
    75
1070
     0
1070
    76
1070
     0
1070
    77
1070
     1
1070
    78
1070
     8
1070
   140
1040
9.3543312
1070
   147
1040
0.0
1070
   173
1070
     1
1070
   176
1070
     4
1070
   177
1070
     4
1070
   178
1070
     7
1070
   271
1070
     1
1070
   277
1070
     2
1070
   279
1070
     2
1070
   280
1070
     0
1070
   287
1070
     5
1070
   340
1005
3BF
1002
}
  0
LINE
  5
428
330
1F
100
AcDbEntity
  8
LAY-255
  6
CONTINUOUS
 62
     7
100
AcDbLine
 10
1155.0
 20
66.0
 30
0.0
 11
855.0
 21
66.0
 31
0.0
  0
LINE
  5
429
330
1F
100
AcDbEntity
  8
LAY-255
  6
CONTINUOUS
 62
     7
100
AcDbLine
 10
866.4000000000001
 20
48.0
 30
0.0
 11
890.4000000000001
 21
63.0
 31
0.0
  0
LINE
  5
42A
330
1F
100
AcDbEntity
  8
LAY-255
  6
CONTINUOUS
 62
     7
100
AcDbLine
 10
890.4000000000001
 20
63.0
 30
0.0
 11
914.4000000000001
 21
48.0
 31
0.0
  0
LINE
  5
42B
330
1F
100
AcDbEntity
  8
LAY-255
  6
CONTINUOUS
 62
     7
100
AcDbLine
 10
914.4000000000001
 20
48.0
 30
0.0
 11
890.4000000000001
 21
33.0
 31
0.0
  0
LINE
  5
42C
330
1F
100
AcDbEntity
  8
LAY-255
  6
CONTINUOUS
 62
     7
100
AcDbLine
 10
890.4000000000001
 20
33.0
 30
0.0
 11
866.4000000000001
 21
48.0
 31
0.0
  0
LINE
  5
42D
330
1F
100
AcDbEntity
  8
LAY-255
  6
CONTINUOUS
 62
     7
100
AcDbLine
 10
15.0
 20
30.0
 30
0.0
 11
1155.0
 21
30.0
 31
0.0
  0
LINE
  5
42E
330
1F
100
AcDbEntity
  8
LAY-255
  6
CONTINUOUS
 62
     7
100
AcDbLine
 10
15.0
 20
840.0
 30
0.0
 11
1155.0
 21
840.0
 31
0.0
  0
LINE
  5
42F
330
1F
100
AcDbEntity
  8
LAY-255
  6
CONTINUOUS
 62
     7
100
AcDbLine
 10
15.0
 20
30.0
 30
0.0
 11
15.0
 21
840.0
 31
0.0
  0
LINE
  5
430
330
1F
100
AcDbEntity
  8
LAY-255
  6
CONTINUOUS
 62
     7
100
AcDbLine
 10
1155.0
 20
30.0
 30
0.0
 11
1155.0
 21
840.0
 31
0.0
  0
LINE
  5
431
330
1F
100
AcDbEntity
  8
LAY-255
  6
CONTINUOUS
 62
     4
100
AcDbLine
 10
855.0
 20
84.0
 30
0.0
 11
1155.0
 21
84.0
 31
0.0
  0
LINE
  5
432
330
1F
100
AcDbEntity
  8
LAY-255
  6
CONTINUOUS
 62
     7
100
AcDbLine
 10
855.0
 20
30.0
 30
0.0
 11
855.0
 21
201.0
 31
0.0
  0
LINE
  5
433
330
1F
100
AcDbEntity
  8
LAY-255
  6
CONTINUOUS
 62
     4
100
AcDbLine
 10
1005.0
 20
84.0
 30
0.0
 11
1005.0
 21
66.0
 31
0.0
  0
LINE
  5
434
330
1F
100
AcDbEntity
  8
LAY-255
  6
CONTINUOUS
 62
     7
100
AcDbLine
 10
1155.0
 20
201.0
 30
0.0
 11
855.0
 21
201.0
 31
0.0
  0
LINE
  5
435
330
1F
100
AcDbEntity
  8
LAY-255
  6
CONTINUOUS
 62
     4
100
AcDbLine
 10
1149.0
 20
165.0
 30
0.0
 11
861.0
 21
165.0
 31
0.0
  0
LINE
  5
436
330
1F
100
AcDbEntity
  8
LAY-255
  6
CONTINUOUS
 62
     4
100
AcDbLine
 10
1149.0
 20
183.0
 30
0.0
 11
861.0
 21
183.0
 31
0.0
  0
POINT
  5
437
330
1F
100
AcDbEntity
  8
LAY-255
  6
CONTINUOUS
 62
     7
100
AcDbPoint
 10
867.0
 20
150.0
 30
0.0
  0
POINT
  5
438
330
1F
100
AcDbEntity
  8
LAY-255
  6
CONTINUOUS
 62
     7
100
AcDbPoint
 10
900.0
 20
168.0
 30
0.0
  0
POINT
  5
439
330
1F
100
AcDbEntity
  8
LAY-255
  6
CONTINUOUS
 62
     7
100
AcDbPoint
 10
900.0
 20
186.0
 30
0.0
  0
POINT
  5
43A
330
1F
100
AcDbEntity
  8
LAY-255
  6
CONTINUOUS
 62
     7
100
AcDbPoint
 10
867.0
 20
120.0
 30
0.0
  0
POINT
  5
43B
330
1F
100
AcDbEntity
  8
LAY-255
  6
CONTINUOUS
 62
     7
100
AcDbPoint
 10
867.0
 20
135.0
 30
0.0
  0
POINT
  5
43C
330
1F
100
AcDbEntity
  8
LAY-255
  6
CONTINUOUS
 62
     7
100
AcDbPoint
 10
867.0
 20
105.0
 30
0.0
  0
POINT
  5
43D
330
1F
100
AcDbEntity
  8
LAY-255
  6
CONTINUOUS
 62
     7
100
AcDbPoint
 10
867.0
 20
89.99999999999996
 30
0.0
  0
TEXT
  5
43E
330
1F
100
AcDbEntity
  8
LAY-255
  6
CONTINUOUS
 62
     7
100
AcDbText
 10
924.415136826172
 20
46.63125
 30
0.0
 40
15.46875
  1
福西鋳物株式会社
 41
1.342692141742901
  7
EXCADSTD
100
AcDbText
  0
TEXT
  5
43F
330
1F
100
AcDbEntity
  8
LAY-255
  6
CONTINUOUS
 62
     7
100
AcDbText
 10
925.528125
 20
35.94375
 30
0.0
 40
5.15625
  1
ＦＵＫＵＮＩＳＨＩ
 41
1.204799226045263
  7
EXCADSTD
100
AcDbText
  0
TEXT
  5
440
330
1F
100
AcDbEntity
  8
LAY-255
  6
CONTINUOUS
 62
     7
100
AcDbText
 10
998.1575892857143
 20
35.94375
 30
0.0
 40
5.15625
  1
ＦＯＵＮＤＲＹ
 41
1.243252752978497
  7
EXCADSTD
100
AcDbText
  0
TEXT
  5
441
330
1F
100
AcDbEntity
  8
LAY-255
  6
CONTINUOUS
 62
     7
100
AcDbText
 10
1055.983774651442
 20
35.94375
 30
0.0
 40
5.15625
  1
ＣＯ.,ＬＴＤ.
 41
1.243831271314936
  7
EXCADSTD
100
AcDbText
  0
TEXT
  5
442
330
1F
100
AcDbEntity
  8
LAY-255
  6
CONTINUOUS
 62
     7
100
AcDbText
 10
882.1031250000001
 20
41.15625
 30
0.0
 40
15.46875
  1
S
 41
0.7582677563636363
  7
EXCADSTD
100
AcDbText
  0
TEXT
  5
443
330
1F
100
AcDbEntity
  8
LAY-255
  6
CONTINUOUS
 62
     7
100
AcDbText
 10
891.3140625000001
 20
41.24823113208
 30
0.0
 40
15.46875
  1
F
 41
0.7440945272727273
  7
EXCADSTD
100
AcDbText
  0
TEXT
  5
444
330
1F
100
AcDbEntity
  8
LAY-255
  6
CONTINUOUS
 62
     7
100
AcDbText
 10
1011.31640625
 20
73.26562499999997
 30
0.0
 40
7.734375
  1
縮尺
 41
1.080708718181818
  7
EXCADSTD
100
AcDbText
  0
TEXT
  5
445
330
1F
100
AcDbEntity
  8
LAY-255
  6
CONTINUOUS
 62
     7
100
AcDbText
 10
861.796875
 20
169.6875
 30
0.0
 40
10.3125
  1
型式
 41
1.056348480681818
  7
EXCADSTD
100
AcDbText
  0
TEXT
  5
446
330
1F
100
AcDbEntity
  8
LAY-255
  6
CONTINUOUS
 62
     7
100
AcDbText
 10
862.265625
 20
187.6875
 30
0.0
 40
10.3125
  1
品名
 41
0.978838634090909
  7
EXCADSTD
100
AcDbText
  0
TEXT
  5
447
330
1F
100
AcDbEntity
  8
LAY-255
  6
CONTINUOUS
 62
     7
100
AcDbText
 10
861.45703125
 20
73.26562499999997
 30
0.0
 40
7.734375
  1
作成日
 41
1.000629973818182
  7
EXCADSTD
100
AcDbText
  0
TEXT
  5
448
330
1F
100
AcDbEntity
  8
LAY-255
  6
CONTINUOUS
 62
     7
100
AcDbText
 10
1044.84375
 20
70.68749999999997
 30
0.0
 40
10.3125
  1
１：３
 41
0.8844094952727272
  7
EXCADSTD
100
AcDbText
  0
TEXT
  5
449
330
1F
100
AcDbEntity
  8
LAY-255
  6
CONTINUOUS
 62
     7
100
AcDbText
 10
867.5625
 20
121.6875
 30
0.0
 40
10.3125
  1
施工：打込用
 41
1.018700840909091
  7
EXCADSTD
100
AcDbText
  0
TEXT
  5
44A
330
1F
100
AcDbEntity
  8
LAY-255
  6
CONTINUOUS
 62
     7
100
AcDbText
 10
900.75
 20
187.6875
 30
0.0
 40
10.3125
  1
ルーフドレイン
 41
1.021169538599106
  7
EXCADSTD
100
AcDbText
  0
TEXT
  5
44B
330
1F
100
AcDbEntity
  8
LAY-255
  6
CONTINUOUS
 62
     7
100
AcDbText
 10
867.65625
 20
106.6875
 30
0.0
 40
10.3125
  1
接続：差込用
 41
1.01733803041958
  7
EXCADSTD
100
AcDbText
  0
TEXT
  5
44C
330
1F
100
AcDbEntity
  8
LAY-255
  6
CONTINUOUS
 62
     7
100
AcDbText
 10
868.125
 20
151.6875000000001
 30
0.0
 40
10.3125
  1
防水：モルタル・塗膜防水兼用
 41
1.008985320967742
  7
EXCADSTD
100
AcDbText
  0
TEXT
  5
44D
330
1F
100
AcDbEntity
  8
LAY-255
  6
CONTINUOUS
 62
     7
100
AcDbText
 10
867.703125
 20
136.6875
 30
0.0
 40
10.3125
  1
用途：廊下・庇・バルコニー用
 41
1.011557076246334
  7
EXCADSTD
100
AcDbText
  0
TEXT
  5
44E
330
1F
100
AcDbEntity
  8
LAY-255
  6
CONTINUOUS
 62
     7
100
AcDbText
 10
902.625
 20
169.6875
 30
0.0
 40
10.3125
  1
ＲＣＸ－３１５０型
 41
0.9997508747986191
  7
EXCADSTD
100
AcDbText
  0
TEXT
  5
44F
330
1F
100
AcDbEntity
  8
LAY-255
  6
CONTINUOUS
 62
     7
100
AcDbText
 10
902.671875
 20
70.68749999999997
 30
0.0
 40
10.3125
  1
０８／０９／０３
 41
0.9764342470129869
  7
EXCADSTD
100
AcDbText
  0
ENDSEC
  0
SECTION
  2
OBJECTS
  0
DICTIONARY
  5
C
330
0
100
AcDbDictionary
  3
ACAD_GROUP
350
D
  3
ACAD_LAYOUT
350
1A
  3
ACAD_MATERIAL
350
43
  3
ACAD_MLEADERSTYLE
350
6B
  3
ACAD_MLINESTYLE
350
17
  3
ACAD_PLOTSETTINGS
350
19
  3
ACAD_SCALELIST
350
47
  3
ACAD_VISUALSTYLE
350
2A
  3
ACDBHEADERROUNDTRIPXREC
350
450
  3
ACDBVARIABLEDICTIONARY
350
471
  0
DICTIONARY
  5
47C
330
8
100
AcDbDictionary
280
     1
  3
ACAD_XREC_ROUNDTRIP
360
47D
  0
DICTIONARY
  5
D
102
{ACAD_REACTORS
330
C
102
}
330
C
100
AcDbDictionary
  0
DICTIONARY
  5
1A
102
{ACAD_REACTORS
330
C
102
}
330
C
100
AcDbDictionary
  0
DICTIONARY
  5
43
102
{ACAD_REACTORS
330
C
102
}
330
C
100
AcDbDictionary
  3
BYBLOCK
350
45
  3
BYLAYER
350
44
  3
GLOBAL
350
46
  0
DICTIONARY
  5
6B
102
{ACAD_REACTORS
330
C
102
}
330
C
100
AcDbDictionary
  3
STANDARD
350
6C
  0
DICTIONARY
  5
17
102
{ACAD_REACTORS
330
C
102
}
330
C
100
AcDbDictionary
  3
STANDARD
350
18
  0
DICTIONARY
  5
19
102
{ACAD_REACTORS
330
C
102
}
330
C
100
AcDbDictionary
  0
DICTIONARY
  5
47
102
{ACAD_REACTORS
330
C
102
}
330
C
100
AcDbDictionary
  3
A0
350
48
  3
A1
350
49
  3
A2
350
4A
  3
A3
350
4B
  3
A4
350
4C
  3
A5
350
4D
  3
A6
350
4E
  3
A7
350
4F
  3
A8
350
50
  3
A9
350
51
  3
B0
350
52
  3
B1
350
53
  3
B2
350
54
  3
B3
350
55
  3
B4
350
56
  3
B5
350
57
  3
B6
350
58
  3
B7
350
59
  3
B8
350
5A
  3
B9
350
5B
  3
C0
350
5C
  3
C1
350
5D
  3
C2
350
5E
  3
C3
350
5F
  3
C4
350
60
  3
C5
350
61
  3
C6
350
62
  3
C7
350
63
  3
C8
350
64
  3
C9
350
65
  3
D0
350
66
  3
D1
350
67
  3
D2
350
68
  0
DICTIONARY
  5
2A
102
{ACAD_REACTORS
330
C
102
}
330
C
100
AcDbDictionary
  3
2DWIREFRAME
350
2F
  3
BASIC
350
32
  3
BRIGHTEN
350
36
  3
COLORCHANGE
350
3A
  3
CONCEPTUAL
350
34
  3
DIM
350
35
  3
EDGECOLOROFF
350
3D
  3
FACEPATTERN
350
39
  3
FLAT
350
2B
  3
FLATWITHEDGES
350
2C
  3
GOURAUD
350
2D
  3
GOURAUDWITHEDGES
350
2E
  3
HIDDEN
350
31
  3
JITTEROFF
350
3B
  3
LINEPATTERN
350
38
  3
OVERHANGOFF
350
3C
  3
REALISTIC
350
33
  3
SHADED
350
42
  3
SHADED_WITH_EDGES
350
41
  3
SHADES_OF_GRAY
350
3E
  3
SKETCHY
350
3F
  3
THICKEN
350
37
  3
WIREFRAME
350
30
  3
X-RAY
350
40
  0
DICTIONARY
  5
450
102
{ACAD_REACTORS
330
C
102
}
330
C
100
AcDbDictionary
  3
CEPSNID
350
45A
  3
CEPSNTYPE
350
459
  3
DIMSTYLEDATA
350
470
  3
FINGERPRINTGUID
350
45B
  3
HYPERLINKBASE
350
453
  3
INSUNITS
350
458
  3
LAYOUTDICT
350
455
  3
LWETCUNION
350
457
  3
PLOTSETDICT
350
456
  3
PSVPSCALE
350
45D
  3
PUCSBASE
350
460
  3
PUCSORGBACK
350
466
  3
PUCSORGBOTTOM
350
462
  3
PUCSORGFRONT
350
465
  3
PUCSORGLEFT
350
463
  3
PUCSORGRIGHT
350
464
  3
PUCSORGTOP
350
461
  3
PUCSORTHOREF
350
45E
  3
PUCSORTHOVIEW
350
45F
  3
STYLESHEET
350
454
  3
TSTACKALIGN
350
451
  3
TSTACKSIZE
350
452
  3
UCSBASE
350
469
  3
UCSORGBACK
350
46F
  3
UCSORGBOTTOM
350
46B
  3
UCSORGFRONT
350
46E
  3
UCSORGLEFT
350
46C
  3
UCSORGRIGHT
350
46D
  3
UCSORGTOP
350
46A
  3
UCSORTHOREF
350
467
  3
UCSORTHOVIEW
350
468
  3
VERSIONGUID
350
45C
  0
DICTIONARY
  5
471
102
{ACAD_REACTORS
330
C
102
}
330
C
100
AcDbDictionary
  3
CANNOSCALE
350
47E
  3
CENTEREXE
350
478
  3
CENTERLTYPEFILE
350
479
  3
CMLEADERSTYLE
350
473
  3
CTABLESTYLE
350
472
  3
DIMASSOC
350
47A
  3
HIDETEXT
350
47B
  3
MSLTSCALE
350
47F
  3
PSOLHEIGHT
350
475
  3
PSOLWIDTH
350
474
  0
XRECORD
  5
47D
102
{ACAD_REACTORS
330
47C
102
}
330
47C
100
AcDbXrecord
102
VTR_0.000_0.000_1.000_1.000_VISUALSTYLE
340
2F
102
VTR_0.000_0.000_1.000_1.000_GRIDDISPLAY
 70
     3
102
VTR_0.000_0.000_1.000_1.000_GRIDMAJOR
 70
     5
102
VTR_0.000_0.000_1.000_1.000_DEFAULTLIGHTING
280
     1
102
VTR_0.000_0.000_1.000_1.000_DEFAULTLIGHTINGTYPE
 70
     1
102
VTR_0.000_0.000_1.000_1.000_BRIGHTNESS
141
0.0
102
VTR_0.000_0.000_1.000_1.000_CONTRAST
142
0.0
  0
MATERIAL
  5
45
102
{ACAD_REACTORS
330
43
102
}
102
{ACAD_XDICTIONARY
360
482
102
}
330
43
100
AcDbMaterial
  1
BYBLOCK
  0
MATERIAL
  5
44
102
{ACAD_REACTORS
330
43
102
}
102
{ACAD_XDICTIONARY
360
480
102
}
330
43
100
AcDbMaterial
  1
BYLAYER
  0
MATERIAL
  5
46
102
{ACAD_REACTORS
330
43
102
}
102
{ACAD_XDICTIONARY
360
484
102
}
330
43
100
AcDbMaterial
  1
GLOBAL
  0
ACAD_PROXY_OBJECT
  5
6C
102
{ACAD_REACTORS
330
6B
102
}
330
6B
100
AcDbProxyObject
 90
      499
 91
      505
 93
      610
310
40901902A4063FBFFFFFE0000000000000020400000000000020404214DD185B99185C990000000000000104090141901A00000000000004100000000000000041025764000000000000039000
340
14
340
0
340
11
340
0
 94
        0
1001
ACAD_MLEADERVER
1070
     2
  0
MLINESTYLE
  5
18
102
{ACAD_REACTORS
330
17
102
}
330
17
100
AcDbMlineStyle
  2
Standard
 70
     0
  3

 62
   256
 51
90.0
 52
90.0
 71
     2
 49
0.5
 62
   256
  6
BYLAYER
 49
-0.5
 62
   256
  6
BYLAYER
  0
ACAD_PROXY_OBJECT
  5
48
102
{ACAD_REACTORS
330
47
102
}
330
47
100
AcDbProxyObject
 90
      499
 91
      503
 93
       41
310
903313A31580
  0
ACAD_PROXY_OBJECT
  5
49
102
{ACAD_REACTORS
330
47
102
}
330
47
100
AcDbProxyObject
 90
      499
 91
      503
 93
      105
310
903313A324000000000000004000
  0
ACAD_PROXY_OBJECT
  5
4A
102
{ACAD_REACTORS
330
47
102
}
330
47
100
AcDbProxyObject
 90
      499
 91
      503
 93
      105
310
903313A344000000000000104000
  0
ACAD_PROXY_OBJECT
  5
4B
102
{ACAD_REACTORS
330
47
102
}
330
47
100
AcDbProxyObject
 90
      499
 91
      503
 93
      105
310
903313A354000000000000144000
  0
ACAD_PROXY_OBJECT
  5
4C
102
{ACAD_REACTORS
330
47
102
}
330
47
100
AcDbProxyObject
 90
      499
 91
      503
 93
      105
310
903313A384000000000000204000
  0
ACAD_PROXY_OBJECT
  5
4D
102
{ACAD_REACTORS
330
47
102
}
330
47
100
AcDbProxyObject
 90
      499
 91
      503
 93
      113
310
904313A31304000000000000244000
  0
ACAD_PROXY_OBJECT
  5
4E
102
{ACAD_REACTORS
330
47
102
}
330
47
100
AcDbProxyObject
 90
      499
 91
      503
 93
      113
310
904313A31364000000000000304000
  0
ACAD_PROXY_OBJECT
  5
4F
102
{ACAD_REACTORS
330
47
102
}
330
47
100
AcDbProxyObject
 90
      499
 91
      503
 93
      113
310
904313A32304000000000000344000
  0
ACAD_PROXY_OBJECT
  5
50
102
{ACAD_REACTORS
330
47
102
}
330
47
100
AcDbProxyObject
 90
      499
 91
      503
 93
      113
310
904313A333040000000000003E4000
  0
ACAD_PROXY_OBJECT
  5
51
102
{ACAD_REACTORS
330
47
102
}
330
47
100
AcDbProxyObject
 90
      499
 91
      503
 93
      113
310
904313A34304000000000000444000
  0
ACAD_PROXY_OBJECT
  5
52
102
{ACAD_REACTORS
330
47
102
}
330
47
100
AcDbProxyObject
 90
      499
 91
      503
 93
      113
310
904313A35304000000000000494000
  0
ACAD_PROXY_OBJECT
  5
53
102
{ACAD_REACTORS
330
47
102
}
330
47
100
AcDbProxyObject
 90
      499
 91
      503
 93
      121
310
905313A3130304000000000000594000
  0
ACAD_PROXY_OBJECT
  5
54
102
{ACAD_REACTORS
330
47
102
}
330
47
100
AcDbProxyObject
 90
      499
 91
      503
 93
      105
310
903323A310000000000000010100
  0
ACAD_PROXY_OBJECT
  5
55
102
{ACAD_REACTORS
330
47
102
}
330
47
100
AcDbProxyObject
 90
      499
 91
      503
 93
      105
310
903343A310000000000000410100
  0
ACAD_PROXY_OBJECT
  5
56
102
{ACAD_REACTORS
330
47
102
}
330
47
100
AcDbProxyObject
 90
      499
 91
      503
 93
      105
310
903383A310000000000000810100
  0
ACAD_PROXY_OBJECT
  5
57
102
{ACAD_REACTORS
330
47
102
}
330
47
100
AcDbProxyObject
 90
      499
 91
      503
 93
      113
310
90431303A310000000000000910100
  0
ACAD_PROXY_OBJECT
  5
58
102
{ACAD_REACTORS
330
47
102
}
330
47
100
AcDbProxyObject
 90
      499
 91
      503
 93
      121
310
9053130303A310000000000001650100
  0
ACAD_PROXY_OBJECT
  5
59
102
{ACAD_REACTORS
330
47
102
}
330
47
100
AcDbProxyObject
 90
      499
 91
      503
 93
      257
310
90E312F31323822203D2031272D3022000000000000200FC000000000000284000
  0
ACAD_PROXY_OBJECT
  5
5A
102
{ACAD_REACTORS
330
47
102
}
330
47
100
AcDbProxyObject
 90
      499
 91
      503
 93
      249
310
90D312F363422203D2031272D3022000000000000240FC000000000000284000
  0
ACAD_PROXY_OBJECT
  5
5B
102
{ACAD_REACTORS
330
47
102
}
330
47
100
AcDbProxyObject
 90
      499
 91
      503
 93
      249
310
90D312F333222203D2031272D3022000000000000280FC000000000000284000
  0
ACAD_PROXY_OBJECT
  5
5C
102
{ACAD_REACTORS
330
47
102
}
330
47
100
AcDbProxyObject
 90
      499
 91
      503
 93
      249
310
90D312F313622203D2031272D30220000000000002C0FC000000000000284000
  0
ACAD_PROXY_OBJECT
  5
5D
102
{ACAD_REACTORS
330
47
102
}
330
47
100
AcDbProxyObject
 90
      499
 91
      503
 93
      249
310
90D332F333222203D2031272D30220000000000002E0FC000000000000284000
  0
ACAD_PROXY_OBJECT
  5
5E
102
{ACAD_REACTORS
330
47
102
}
330
47
100
AcDbProxyObject
 90
      499
 91
      503
 93
      241
310
90C312F3822203D2031272D3022000000000000300FC000000000000284000
  0
ACAD_PROXY_OBJECT
  5
5F
102
{ACAD_REACTORS
330
47
102
}
330
47
100
AcDbProxyObject
 90
      499
 91
      503
 93
      249
310
90D332F313622203D2031272D3022000000000000320FC000000000000284000
  0
ACAD_PROXY_OBJECT
  5
60
102
{ACAD_REACTORS
330
47
102
}
330
47
100
AcDbProxyObject
 90
      499
 91
      503
 93
      241
310
90C312F3422203D2031272D3022000000000000340FC000000000000284000
  0
ACAD_PROXY_OBJECT
  5
61
102
{ACAD_REACTORS
330
47
102
}
330
47
100
AcDbProxyObject
 90
      499
 91
      503
 93
      241
310
90C332F3822203D2031272D3022000000000000360FC000000000000284000
  0
ACAD_PROXY_OBJECT
  5
62
102
{ACAD_REACTORS
330
47
102
}
330
47
100
AcDbProxyObject
 90
      499
 91
      503
 93
      241
310
90C312F3222203D2031272D3022000000000000380FC000000000000284000
  0
ACAD_PROXY_OBJECT
  5
63
102
{ACAD_REACTORS
330
47
102
}
330
47
100
AcDbProxyObject
 90
      499
 91
      503
 93
      241
310
90C332F3422203D2031272D30220000000000003A0FC000000000000284000
  0
ACAD_PROXY_OBJECT
  5
64
102
{ACAD_REACTORS
330
47
102
}
330
47
100
AcDbProxyObject
 90
      499
 91
      503
 93
      161
310
90A3122203D2031272D30224000000000000284000
  0
ACAD_PROXY_OBJECT
  5
65
102
{ACAD_REACTORS
330
47
102
}
330
47
100
AcDbProxyObject
 90
      499
 91
      503
 93
      257
310
90E312D312F3222203D2031272D30220000000000003E0FC000000000000284000
  0
ACAD_PROXY_OBJECT
  5
66
102
{ACAD_REACTORS
330
47
102
}
330
47
100
AcDbProxyObject
 90
      499
 91
      503
 93
      225
310
90A3322203D2031272D302200000000000002100000000000000284000
  0
ACAD_PROXY_OBJECT
  5
67
102
{ACAD_REACTORS
330
47
102
}
330
47
100
AcDbProxyObject
 90
      499
 91
      503
 93
      225
310
90A3622203D2031272D302200000000000006100000000000000284000
  0
ACAD_PROXY_OBJECT
  5
68
102
{ACAD_REACTORS
330
47
102
}
330
47
100
AcDbProxyObject
 90
      499
 91
      503
 93
      249
310
90D31272D3022203D2031272D30220000000000000A100000000000000284000
  0
ACAD_PROXY_OBJECT
  5
2F
102
{ACAD_REACTORS
330
2A
102
}
330
2A
100
AcDbProxyObject
 90
      499
 91
      501
 93
      436
310
42CC9915DA5C99599C985B595049028333333333333E33F0000000000000F90107901411070040501600405405064090741402480A0340
1001
ACAD
1000
AcDbSavedByObjectVersion
1070
     0
  0
ACAD_PROXY_OBJECT
  5
32
102
{ACAD_REACTORS
330
2A
102
}
330
2A
100
AcDbProxyObject
 90
      499
 91
      501
 93
      388
310
4150985CDA58D07406404333333333333E33F0000000000000F90107A41107004050150841D405064090741402480A0350
1001
ACAD
1000
AcDbSavedByObjectVersion
1070
     0
  0
ACAD_PROXY_OBJECT
  5
36
102
{ACAD_REACTORS
330
2A
102
}
330
2A
100
AcDbProxyObject
 90
      499
 91
      501
 93
      428
310
42109C9A59DA1D195B90C409028333333333333E33F0000000000000F9010790141107004050150841D405064090741402480A029950
1001
ACAD
1000
AcDbSavedByObjectVersion
1070
     0
  0
ACAD_PROXY_OBJECT
  5
3A
102
{ACAD_REACTORS
330
2A
102
}
330
2A
100
AcDbProxyObject
 90
      499
 91
      501
 93
      452
310
42D0DBDB1BDC90DA185B99D95104090240C333333333333E33F0000000000000F90108901411070040501508421405064090741402480A0350
1001
ACAD
1000
AcDbSavedByObjectVersion
1070
     0
  0
ACAD_PROXY_OBJECT
  5
34
102
{ACAD_REACTORS
330
2A
102
}
330
2A
100
AcDbProxyObject
 90
      499
 91
      501
 93
      500
310
4290DBDB98D95C1D1D585B10940D028333333333333E33F0000000000000F90107902409070040501000000000018199010841D405064090740C02480A0340
1001
ACAD
1000
AcDbSavedByObjectVersion
1070
     0
  0
ACAD_PROXY_OBJECT
  5
35
102
{ACAD_REACTORS
330
2A
102
}
330
2A
100
AcDbProxyObject
 90
      499
 91
      501
 93
      412
310
40D11A5B50B409028333333333333E33F0000000000000F9010790141107004050150841D405064090741402480A02677FFFFFD0
1001
ACAD
1000
AcDbSavedByObjectVersion
1070
     0
  0
ACAD_PROXY_OBJECT
  5
3D
102
{ACAD_REACTORS
330
2A
102
}
330
2A
100
AcDbProxyObject
 90
      499
 91
      501
 93
      452
310
43115919D950DBDB1BDC93D999916409028333333333333E33F0000000000000F9010790141107004050150841D405064090741402480A0350
1001
ACAD
1000
AcDbSavedByObjectVersion
1070
     0
  0
ACAD_PROXY_OBJECT
  5
39
102
{ACAD_REACTORS
330
2A
102
}
330
2A
100
AcDbProxyObject
 90
      499
 91
      501
 93
      444
310
42D19858D95C185D1D195C9B90F409028333333333333E33F0000000000000F9010790141107004050150841D405064090741402480A0350
1001
ACAD
1000
AcDbSavedByObjectVersion
1070
     0
  0
ACAD_PROXY_OBJECT
  5
2B
102
{ACAD_REACTORS
330
2A
102
}
330
2A
100
AcDbProxyObject
 90
      499
 91
      501
 93
      380
310
41119B185D240901404333333333333E33F0000000000000F9010740A907004050150841D405064090741402480A1B50
1001
ACAD
1000
AcDbSavedByObjectVersion
1070
     0
  0
ACAD_PROXY_OBJECT
  5
2C
102
{ACAD_REACTORS
330
2A
102
}
330
2A
100
AcDbProxyObject
 90
      499
 91
      501
 93
      468
310
43519B185D15DA5D1A115919D95CD0140901404333333333333E33F0000000000000F90107409019070040501600405405064090741402480A1B50
1001
ACAD
1000
AcDbSavedByObjectVersion
1070
     0
  0
ACAD_PROXY_OBJECT
  5
2D
102
{ACAD_REACTORS
330
2A
102
}
330
2A
100
AcDbProxyObject
 90
      499
 91
      501
 93
      404
310
41D1DBDD5C985D5910240902404333333333333E33F0000000000000F9010740A9070040501641D405064090741402480A1B50
1001
ACAD
1000
AcDbSavedByObjectVersion
1070
     0
  0
ACAD_PROXY_OBJECT
  5
2E
102
{ACAD_REACTORS
330
2A
102
}
330
2A
100
AcDbProxyObject
 90
      499
 91
      501
 93
      492
310
4411DBDD5C985D5915DA5D1A115919D95CD0340902404333333333333E33F0000000000000F90107409019070040501600405405064090741402480A1B50
1001
ACAD
1000
AcDbSavedByObjectVersion
1070
     0
  0
ACAD_PROXY_OBJECT
  5
31
102
{ACAD_REACTORS
330
2A
102
}
330
2A
100
AcDbProxyObject
 90
      499
 91
      501
 93
      476
310
41921A5919195B90640502408333333333333E33F0000000000000F901079024090700405020000000000001110200405405064090740C02480A0340
1001
ACAD
1000
AcDbSavedByObjectVersion
1070
     0
  0
ACAD_PROXY_OBJECT
  5
3B
102
{ACAD_REACTORS
330
2A
102
}
330
2A
100
AcDbProxyObject
 90
      499
 91
      501
 93
      428
310
42529A5D1D195C93D999914409028333333333333E33F0000000000000F9010790141107004050150A41D405064090741402480A0350
1001
ACAD
1000
AcDbSavedByObjectVersion
1070
     0
  0
ACAD_PROXY_OBJECT
  5
38
102
{ACAD_REACTORS
330
2A
102
}
330
2A
100
AcDbProxyObject
 90
      499
 91
      501
 93
      444
310
42D31A5B995C185D1D195C9B90E409028333333333333E33F0000000000000F9010790141107004050750841D405064090741402483A0350
1001
ACAD
1000
AcDbSavedByObjectVersion
1070
     0
  0
ACAD_PROXY_OBJECT
  5
3C
102
{ACAD_REACTORS
330
2A
102
}
330
2A
100
AcDbProxyObject
 90
      499
 91
      501
 93
      444
310
42D3DD995C9A185B99D3D999915409028333333333333E33F0000000000000F9010790141107004050150941D405064090741402480A0350
1001
ACAD
1000
AcDbSavedByObjectVersion
1070
     0
  0
ACAD_PROXY_OBJECT
  5
33
102
{ACAD_REACTORS
330
2A
102
}
330
2A
100
AcDbProxyObject
 90
      499
 91
      501
 93
      428
310
425499585B1A5CDD1A58D08409038333333333333E33F0000000000000F9010740A907004050150800405405064090740C02480A1B40
1001
ACAD
1000
AcDbSavedByObjectVersion
1070
     0
  0
ACAD_PROXY_OBJECT
  5
42
102
{ACAD_REACTORS
330
2A
102
}
330
2A
100
AcDbProxyObject
 90
      499
 91
      501
 93
      420
310
4194DA1859195911B40902404333333333333E33F0000000000000F9010740A41107004050150800405405064090840C02480A0B40
1001
ACAD
1000
AcDbSavedByObjectVersion
1070
     0
  0
ACAD_PROXY_OBJECT
  5
41
102
{ACAD_REACTORS
330
2A
102
}
330
2A
100
AcDbProxyObject
 90
      499
 91
      501
 93
      516
310
4454DA18591959081DDA5D1A08195919D95CD1A40902404333333333333E33F0000000000000F901074090142907004050250800405405064090740C02480A0B40
1001
ACAD
1000
AcDbSavedByObjectVersion
1070
     0
  0
ACAD_PROXY_OBJECT
  5
3E
102
{ACAD_REACTORS
330
2A
102
}
330
2A
100
AcDbProxyObject
 90
      499
 91
      501
 93
      532
310
4394DA1859195CC81BD98811DC985E5174090240C333333333333E33F0000000000000F901079024090741D01000000000000111010841D405064090740C02480A0340
1001
ACAD
1000
AcDbSavedByObjectVersion
1070
     0
  0
ACAD_PROXY_OBJECT
  5
3F
102
{ACAD_REACTORS
330
2A
102
}
330
2A
100
AcDbProxyObject
 90
      499
 91
      501
 93
      476
310
41D4DAD95D18DA1E51840502408333333333333E33F0000000000000F901079024090741D01000000000000111010B41D405064090741802480A0340
1001
ACAD
1000
AcDbSavedByObjectVersion
1070
     0
  0
ACAD_PROXY_OBJECT
  5
37
102
{ACAD_REACTORS
330
2A
102
}
330
2A
100
AcDbProxyObject
 90
      499
 91
      501
 93
      412
310
41D51A1A58DAD95B90D409028333333333333E33F0000000000000F9010790141107004050150C41D405064090741402480A0350
1001
ACAD
1000
AcDbSavedByObjectVersion
1070
     0
  0
ACAD_PROXY_OBJECT
  5
30
102
{ACAD_REACTORS
330
2A
102
}
330
2A
100
AcDbProxyObject
 90
      499
 91
      501
 93
      420
310
4255DA5C99599C985B595059028333333333333E33F0000000000000F90107901411070040501600405405064090740C02480A0340
1001
ACAD
1000
AcDbSavedByObjectVersion
1070
     0
  0
ACAD_PROXY_OBJECT
  5
40
102
{ACAD_REACTORS
330
2A
102
}
330
2A
100
AcDbProxyObject
 90
      499
 91
      501
 93
      404
310
41560B54985E51940902404000000000000E03F0000000000000F9010740501907004050150841D405064090740C02480A1B40
1001
ACAD
1000
AcDbSavedByObjectVersion
1070
     0
  0
XRECORD
  5
45A
102
{ACAD_REACTORS
330
450
102
}
330
450
100
AcDbXrecord
340
0
  0
XRECORD
  5
459
102
{ACAD_REACTORS
330
450
102
}
330
450
100
AcDbXrecord
 90
        0
  0
XRECORD
  5
470
102
{ACAD_REACTORS
330
450
102
}
330
450
100
AcDbXrecord
1000
DSTYLE
1002
{
1070
   340
340
11
1002
}
  0
XRECORD
  5
45B
102
{ACAD_REACTORS
330
450
102
}
330
450
100
AcDbXrecord
  1
{701a26ea-4db1-4b48-b539-c7cc58693de6}
  0
XRECORD
  5
453
102
{ACAD_REACTORS
330
450
102
}
330
450
100
AcDbXrecord
  1

  0
XRECORD
  5
458
102
{ACAD_REACTORS
330
450
102
}
330
450
100
AcDbXrecord
 90
        4
  0
XRECORD
  5
455
102
{ACAD_REACTORS
330
450
102
}
330
450
100
AcDbXrecord
340
1A
  0
XRECORD
  5
457
102
{ACAD_REACTORS
330
450
102
}
330
450
100
AcDbXrecord
 90
    10781
  0
XRECORD
  5
456
102
{ACAD_REACTORS
330
450
102
}
330
450
100
AcDbXrecord
340
19
  0
XRECORD
  5
45D
102
{ACAD_REACTORS
330
450
102
}
330
450
100
AcDbXrecord
 40
0.0
  0
XRECORD
  5
460
102
{ACAD_REACTORS
330
450
102
}
330
450
100
AcDbXrecord
340
0
  0
XRECORD
  5
466
102
{ACAD_REACTORS
330
450
102
}
330
450
100
AcDbXrecord
 10
0.0
 20
0.0
 30
0.0
  0
XRECORD
  5
462
102
{ACAD_REACTORS
330
450
102
}
330
450
100
AcDbXrecord
 10
0.0
 20
0.0
 30
0.0
  0
XRECORD
  5
465
102
{ACAD_REACTORS
330
450
102
}
330
450
100
AcDbXrecord
 10
0.0
 20
0.0
 30
0.0
  0
XRECORD
  5
463
102
{ACAD_REACTORS
330
450
102
}
330
450
100
AcDbXrecord
 10
0.0
 20
0.0
 30
0.0
  0
XRECORD
  5
464
102
{ACAD_REACTORS
330
450
102
}
330
450
100
AcDbXrecord
 10
0.0
 20
0.0
 30
0.0
  0
XRECORD
  5
461
102
{ACAD_REACTORS
330
450
102
}
330
450
100
AcDbXrecord
 10
0.0
 20
0.0
 30
0.0
  0
XRECORD
  5
45E
102
{ACAD_REACTORS
330
450
102
}
330
450
100
AcDbXrecord
340
0
  0
XRECORD
  5
45F
102
{ACAD_REACTORS
330
450
102
}
330
450
100
AcDbXrecord
 70
     0
  0
XRECORD
  5
454
102
{ACAD_REACTORS
330
450
102
}
330
450
100
AcDbXrecord
  1

  0
XRECORD
  5
451
102
{ACAD_REACTORS
330
450
102
}
330
450
100
AcDbXrecord
 90
        1
  0
XRECORD
  5
452
102
{ACAD_REACTORS
330
450
102
}
330
450
100
AcDbXrecord
 90
       70
  0
XRECORD
  5
469
102
{ACAD_REACTORS
330
450
102
}
330
450
100
AcDbXrecord
340
0
  0
XRECORD
  5
46F
102
{ACAD_REACTORS
330
450
102
}
330
450
100
AcDbXrecord
 10
0.0
 20
0.0
 30
0.0
  0
XRECORD
  5
46B
102
{ACAD_REACTORS
330
450
102
}
330
450
100
AcDbXrecord
 10
0.0
 20
0.0
 30
0.0
  0
XRECORD
  5
46E
102
{ACAD_REACTORS
330
450
102
}
330
450
100
AcDbXrecord
 10
0.0
 20
0.0
 30
0.0
  0
XRECORD
  5
46C
102
{ACAD_REACTORS
330
450
102
}
330
450
100
AcDbXrecord
 10
0.0
 20
0.0
 30
0.0
  0
XRECORD
  5
46D
102
{ACAD_REACTORS
330
450
102
}
330
450
100
AcDbXrecord
 10
0.0
 20
0.0
 30
0.0
  0
XRECORD
  5
46A
102
{ACAD_REACTORS
330
450
102
}
330
450
100
AcDbXrecord
 10
0.0
 20
0.0
 30
0.0
  0
XRECORD
  5
467
102
{ACAD_REACTORS
330
450
102
}
330
450
100
AcDbXrecord
340
0
  0
XRECORD
  5
468
102
{ACAD_REACTORS
330
450
102
}
330
450
100
AcDbXrecord
 70
     0
  0
XRECORD
  5
45C
102
{ACAD_REACTORS
330
450
102
}
330
450
100
AcDbXrecord
  1
{FAEB1C32-E019-11D5-929B-00C0DF256EC4}
  0
DICTIONARYVAR
  5
47E
102
{ACAD_REACTORS
330
471
102
}
330
471
100
DictionaryVariables
280
     0
  1
1:1
  0
DICTIONARYVAR
  5
478
102
{ACAD_REACTORS
330
471
102
}
330
471
100
DictionaryVariables
280
     0
  1
3.500000
  0
DICTIONARYVAR
  5
479
102
{ACAD_REACTORS
330
471
102
}
330
471
100
DictionaryVariables
280
     0
  1
acadiso.lin
  0
DICTIONARYVAR
  5
473
102
{ACAD_REACTORS
330
471
102
}
330
471
100
DictionaryVariables
280
     0
  1
Standard
  0
DICTIONARYVAR
  5
472
102
{ACAD_REACTORS
330
471
102
}
330
471
100
DictionaryVariables
280
     0
  1
Standard
  0
DICTIONARYVAR
  5
47A
102
{ACAD_REACTORS
330
471
102
}
330
471
100
DictionaryVariables
280
     0
  1
2
  0
DICTIONARYVAR
  5
47B
102
{ACAD_REACTORS
330
471
102
}
330
471
100
DictionaryVariables
280
     0
  1
1
  0
DICTIONARYVAR
  5
47F
102
{ACAD_REACTORS
330
471
102
}
330
471
100
DictionaryVariables
280
     0
  1
1
  0
DICTIONARYVAR
  5
475
102
{ACAD_REACTORS
330
471
102
}
330
471
100
DictionaryVariables
280
     0
  1
80.000000
  0
DICTIONARYVAR
  5
474
102
{ACAD_REACTORS
330
471
102
}
330
471
100
DictionaryVariables
280
     0
  1
5.000000
  0
DICTIONARY
  5
482
330
45
100
AcDbDictionary
280
     1
  3
ACAD_XREC_ROUNDTRIP
360
483
  0
DICTIONARY
  5
480
330
44
100
AcDbDictionary
280
     1
  3
ACAD_XREC_ROUNDTRIP
360
481
  0
DICTIONARY
  5
484
330
46
100
AcDbDictionary
280
     1
  3
ACAD_XREC_ROUNDTRIP
360
485
  0
XRECORD
  5
483
102
{ACAD_REACTORS
330
482
102
}
330
482
100
AcDbXrecord
102
MATERIAL
148
0.0
149
0.0
149
0.0
 93
        0
 94
      127
282
     0
 72
     1
 77
     1
171
     1
175
     1
179
     1
273
     0
  0
XRECORD
  5
481
102
{ACAD_REACTORS
330
480
102
}
330
480
100
AcDbXrecord
102
MATERIAL
148
0.0
149
0.0
149
0.0
 93
        0
 94
      127
282
     0
 72
     1
 77
     1
171
     1
175
     1
179
     1
273
     0
  0
XRECORD
  5
485
102
{ACAD_REACTORS
330
484
102
}
330
484
100
AcDbXrecord
102
MATERIAL
148
0.0
149
0.0
149
0.0
 93
        0
 94
      127
282
     0
 72
     1
 77
     1
171
     1
175
     1
179
     1
273
     0
  0
ENDSEC
  0
EOF
