  0
SECTION
  2
HEADER
  9
$ACADVER
  1
AC1014
  9
$ACADMAINTVER
 70
     9
  9
$DWGCODEPAGE
  3
ANSI_932
  9
$INSBASE
 10
0.0
 20
0.0
 30
0.0
  9
$EXTMIN
 10
15.0
 20
30.0
 30
0.0
  9
$EXTMAX
 10
1155.0
 20
840.0
 30
0.0
  9
$LIMMIN
 10
0.0
 20
0.0
  9
$LIMMAX
 10
420.0
 20
297.0
  9
$ORTHOMODE
 70
     0
  9
$REGENMODE
 70
     1
  9
$FILLMODE
 70
     1
  9
$QTEXTMODE
 70
     0
  9
$MIRRTEXT
 70
     1
  9
$DRAGMODE
 70
     2
  9
$LTSCALE
 40
0.2
  9
$OSMODE
 70
    37
  9
$ATTMODE
 70
     1
  9
$TEXTSIZE
 40
2.5
  9
$TRACEWID
 40
1.0
  9
$TEXTSTYLE
  7
STANDARD
  9
$CLAYER
  8
LAY-10
  9
$CELTYPE
  6
BYLAYER
  9
$CECOLOR
 62
   256
  9
$CELTSCALE
 40
1.0
  9
$DELOBJ
 70
     1
  9
$DISPSILH
 70
     0
  9
$DIMSCALE
 40
1.0
  9
$DIMASZ
 40
2.5
  9
$DIMEXO
 40
0.625
  9
$DIMDLI
 40
3.75
  9
$DIMRND
 40
0.0
  9
$DIMDLE
 40
0.0
  9
$DIMEXE
 40
1.25
  9
$DIMTP
 40
0.0
  9
$DIMTM
 40
0.0
  9
$DIMTXT
 40
2.5
  9
$DIMCEN
 40
2.5
  9
$DIMTSZ
 40
0.0
  9
$DIMTOL
 70
     0
  9
$DIMLIM
 70
     0
  9
$DIMTIH
 70
     0
  9
$DIMTOH
 70
     0
  9
$DIMSE1
 70
     0
  9
$DIMSE2
 70
     0
  9
$DIMTAD
 70
     1
  9
$DIMZIN
 70
     8
  9
$DIMBLK
  1

  9
$DIMASO
 70
     1
  9
$DIMSHO
 70
     1
  9
$DIMPOST
  1

  9
$DIMAPOST
  1

  9
$DIMALT
 70
     0
  9
$DIMALTD
 70
     3
  9
$DIMALTF
 40
0.03937007874016
  9
$DIMLFAC
 40
1.0
  9
$DIMTOFL
 70
     1
  9
$DIMTVP
 40
0.0
  9
$DIMTIX
 70
     0
  9
$DIMSOXD
 70
     0
  9
$DIMSAH
 70
     0
  9
$DIMBLK1
  1

  9
$DIMBLK2
  1

  9
$DIMSTYLE
  2
ISO-25
  9
$DIMCLRD
 70
     0
  9
$DIMCLRE
 70
     0
  9
$DIMCLRT
 70
     0
  9
$DIMTFAC
 40
1.0
  9
$DIMGAP
 40
0.625
  9
$DIMJUST
 70
     0
  9
$DIMSD1
 70
     0
  9
$DIMSD2
 70
     0
  9
$DIMTOLJ
 70
     0
  9
$DIMTZIN
 70
     8
  9
$DIMALTZ
 70
     0
  9
$DIMALTTZ
 70
     0
  9
$DIMFIT
 70
     3
  9
$DIMUPT
 70
     0
  9
$DIMUNIT
 70
     2
  9
$DIMDEC
 70
     2
  9
$DIMTDEC
 70
     2
  9
$DIMALTU
 70
     2
  9
$DIMALTTD
 70
     3
  9
$DIMTXSTY
  7
STANDARD
  9
$DIMAUNIT
 70
     0
  9
$LUNITS
 70
     2
  9
$LUPREC
 70
     4
  9
$SKETCHINC
 40
1.0
  9
$FILLETRAD
 40
10.0
  9
$AUNITS
 70
     0
  9
$AUPREC
 70
     0
  9
$MENU
  1
.
  9
$ELEVATION
 40
0.0
  9
$PELEVATION
 40
0.0
  9
$THICKNESS
 40
0.0
  9
$LIMCHECK
 70
     0
  9
$CHAMFERA
 40
0.0
  9
$CHAMFERB
 40
0.0
  9
$CHAMFERC
 40
0.0
  9
$CHAMFERD
 40
0.0
  9
$SKPOLY
 70
     0
  9
$TDCREATE
 40
2459229.337314896
  9
$TDUPDATE
 40
2459229.337315394
  9
$TDINDWG
 40
0.0000000116
  9
$TDUSRTIMER
 40
0.0000000116
  9
$USRTIMER
 70
     1
  9
$ANGBASE
 50
0.0
  9
$ANGDIR
 70
     0
  9
$PDMODE
 70
     0
  9
$PDSIZE
 40
0.0
  9
$PLINEWID
 40
0.0
  9
$COORDS
 70
     1
  9
$SPLFRAME
 70
     0
  9
$SPLINETYPE
 70
     6
  9
$SPLINESEGS
 70
     8
  9
$ATTDIA
 70
     0
  9
$ATTREQ
 70
     1
  9
$HANDLING
 70
     1
  9
$HANDSEED
  5
451
  9
$SURFTAB1
 70
     6
  9
$SURFTAB2
 70
     6
  9
$SURFTYPE
 70
     6
  9
$SURFU
 70
     6
  9
$SURFV
 70
     6
  9
$UCSNAME
  2

  9
$UCSORG
 10
0.0
 20
0.0
 30
0.0
  9
$UCSXDIR
 10
1.0
 20
0.0
 30
0.0
  9
$UCSYDIR
 10
0.0
 20
1.0
 30
0.0
  9
$PUCSNAME
  2

  9
$PUCSORG
 10
0.0
 20
0.0
 30
0.0
  9
$PUCSXDIR
 10
1.0
 20
0.0
 30
0.0
  9
$PUCSYDIR
 10
0.0
 20
1.0
 30
0.0
  9
$USERI1
 70
     0
  9
$USERI2
 70
     0
  9
$USERI3
 70
     0
  9
$USERI4
 70
     0
  9
$USERI5
 70
     0
  9
$USERR1
 40
0.0
  9
$USERR2
 40
0.0
  9
$USERR3
 40
0.0
  9
$USERR4
 40
0.0
  9
$USERR5
 40
0.0
  9
$WORLDVIEW
 70
     1
  9
$SHADEDGE
 70
     3
  9
$SHADEDIF
 70
    70
  9
$TILEMODE
 70
     1
  9
$MAXACTVP
 70
    64
  9
$PINSBASE
 10
0.0
 20
0.0
 30
0.0
  9
$PLIMCHECK
 70
     0
  9
$PEXTMIN
 10
1.000000000000000E+20
 20
1.000000000000000E+20
 30
1.000000000000000E+20
  9
$PEXTMAX
 10
-1.000000000000000E+20
 20
-1.000000000000000E+20
 30
-1.000000000000000E+20
  9
$PLIMMIN
 10
0.0
 20
0.0
  9
$PLIMMAX
 10
420.0
 20
297.0
  9
$UNITMODE
 70
     0
  9
$VISRETAIN
 70
     1
  9
$PLINEGEN
 70
     0
  9
$PSLTSCALE
 70
     1
  9
$TREEDEPTH
 70
  3020
  9
$PICKSTYLE
 70
     1
  9
$CMLSTYLE
  2
STANDARD
  9
$CMLJUST
 70
     0
  9
$CMLSCALE
 40
20.0
  9
$PROXYGRAPHICS
 70
     1
  9
$MEASUREMENT
 70
     1
  0
ENDSEC
  0
SECTION
  2
CLASSES
  0
CLASS
  1
ACDBDICTIONARYWDFLT
  2
AcDbDictionaryWithDefault
  3
ObjectDBX Classes
 90
        0
280
     0
281
     0
  0
CLASS
  1
VISUALSTYLE
  2
AcDbVisualStyle
  3
ObjectDBX Classes
 90
     4095
280
     0
281
     0
  0
CLASS
  1
MATERIAL
  2
AcDbMaterial
  3
ObjectDBX Classes
 90
     1153
280
     0
281
     0
  0
CLASS
  1
SCALE
  2
AcDbScale
  3
ObjectDBX Classes
 90
     1153
280
     0
281
     0
  0
CLASS
  1
TABLESTYLE
  2
AcDbTableStyle
  3
ObjectDBX Classes
 90
     4095
280
     0
281
     0
  0
CLASS
  1
MLEADERSTYLE
  2
AcDbMLeaderStyle
  3
ACDB_MLEADERSTYLE_CLASS
 90
     4095
280
     0
281
     0
  0
CLASS
  1
SUN
  2
AcDbSun
  3
SCENEOE
 90
     1153
280
     0
281
     0
  0
CLASS
  1
DICTIONARYVAR
  2
AcDbDictionaryVar
  3
ObjectDBX Classes
 90
        0
280
     0
281
     0
  0
CLASS
  1
XRECORD
  2
AcDbXrecord
  3
ObjectDBX Classes
 90
        0
280
     0
281
     0
  0
CLASS
  1
LWPOLYLINE
  2
AcDbPolyline
  3
ObjectDBX Classes
 90
        0
280
     0
281
     1
  0
CLASS
  1
HATCH
  2
AcDbHatch
  3
ObjectDBX Classes
 90
        0
280
     0
281
     1
  0
CLASS
  1
ACDBPLACEHOLDER
  2
AcDbPlaceHolder
  3
ObjectDBX Classes
 90
        0
280
     0
281
     0
  0
CLASS
  1
LAYOUT
  2
AcDbLayout
  3
ObjectDBX Classes
 90
        0
280
     0
281
     0
  0
ENDSEC
  0
SECTION
  2
TABLES
  0
TABLE
  2
VPORT
  5
8
102
{ACAD_XDICTIONARY
360
446
102
}
330
0
100
AcDbSymbolTable
 70
     1
  0
VPORT
  5
29
330
8
100
AcDbSymbolTableRecord
100
AcDbViewportTableRecord
  2
*ACTIVE
 70
     0
 10
0.0
 20
0.0
 11
1.0
 21
1.0
 12
585.0000000000001
 22
435.0
 13
0.0
 23
0.0
 14
10.0
 24
10.0
 15
10.0
 25
10.0
 16
0.0
 26
0.0
 36
1.0
 17
0.0
 27
0.0
 37
0.0
 40
810.0
 41
1.407407407407408
 42
50.0
 43
0.0
 44
0.0
 50
0.0
 51
0.0
 71
     0
 72
  1000
 73
     1
 74
     3
 75
     0
 76
     0
 77
     0
 78
     0
  0
ENDTAB
  0
TABLE
  2
LTYPE
  5
5
330
0
100
AcDbSymbolTable
 70
     6
  0
LTYPE
  5
14
330
5
100
AcDbSymbolTableRecord
100
AcDbLinetypeTableRecord
  2
BYBLOCK
 70
     0
  3

 72
    65
 73
     0
 40
0.0
  0
LTYPE
  5
15
330
5
100
AcDbSymbolTableRecord
100
AcDbLinetypeTableRecord
  2
BYLAYER
 70
     0
  3

 72
    65
 73
     0
 40
0.0
  0
LTYPE
  5
16
330
5
100
AcDbSymbolTableRecord
100
AcDbLinetypeTableRecord
  2
CONTINUOUS
 70
     0
  3
Solid line
 72
    65
 73
     0
 40
0.0
  0
LTYPE
  5
6E
330
5
100
AcDbSymbolTableRecord
100
AcDbLinetypeTableRecord
  2
HIDDEN
 70
     0
  3
Hidden __ __ __ __ __ __ __ __ __ __ __ __ __ __
 72
    65
 73
     2
 40
9.524999999999999
 49
6.35
 74
     0
 49
-3.175
 74
     0
  0
LTYPE
  5
6F
330
5
100
AcDbSymbolTableRecord
100
AcDbLinetypeTableRecord
  2
CENTER
 70
     0
  3
Center ____ _ ____ _ ____ _ ____ _ ____ _ ____
 72
    65
 73
     4
 40
50.8
 49
31.75
 74
     0
 49
-6.35
 74
     0
 49
6.35
 74
     0
 49
-6.35
 74
     0
  0
LTYPE
  5
70
330
5
100
AcDbSymbolTableRecord
100
AcDbLinetypeTableRecord
  2
PHANTOM
 70
     0
  3
Phantom ______  __  __  ______  __  __  ______ 
 72
    65
 73
     6
 40
63.50000000000001
 49
31.75
 74
     0
 49
-6.35
 74
     0
 49
6.35
 74
     0
 49
-6.35
 74
     0
 49
6.35
 74
     0
 49
-6.35
 74
     0
  0
LTYPE
  5
71
330
5
100
AcDbSymbolTableRecord
100
AcDbLinetypeTableRecord
  2
ACAD_ISO06W100
 70
     0
  3
ISO long-dash triple-dot ____ ... ____ ... ____
 72
    65
 73
     8
 40
36.0
 49
24.0
 74
     0
 49
-3.0
 74
     0
 49
0.0
 74
     0
 49
-3.0
 74
     0
 49
0.0
 74
     0
 49
-3.0
 74
     0
 49
0.0
 74
     0
 49
-3.0
 74
     0
  0
LTYPE
  5
72
330
5
100
AcDbSymbolTableRecord
100
AcDbLinetypeTableRecord
  2
ACAD_ISO15W100
 70
     0
  3
ISO double-dash triple-dot __ __ . . . __ __ . .
 72
    65
 73
    10
 40
39.0
 49
12.0
 74
     0
 49
-3.0
 74
     0
 49
12.0
 74
     0
 49
-3.0
 74
     0
 49
0.0
 74
     0
 49
-3.0
 74
     0
 49
0.0
 74
     0
 49
-3.0
 74
     0
 49
0.0
 74
     0
 49
-3.0
 74
     0
  0
ENDTAB
  0
TABLE
  2
LAYER
  5
2
330
0
100
AcDbSymbolTable
 70
     5
  0
LAYER
  5
10
330
2
100
AcDbSymbolTableRecord
100
AcDbLayerTableRecord
  2
0
 70
     0
 62
     7
  6
CONTINUOUS
  0
LAYER
  5
75
330
2
100
AcDbSymbolTableRecord
100
AcDbLayerTableRecord
  2
LAY-10
 70
     0
 62
     7
  6
CONTINUOUS
  0
LAYER
  5
76
330
2
100
AcDbSymbolTableRecord
100
AcDbLayerTableRecord
  2
LAY-20
 70
     0
 62
     7
  6
CONTINUOUS
  0
LAYER
  5
77
330
2
100
AcDbSymbolTableRecord
100
AcDbLayerTableRecord
  2
LAY-255
 70
     0
 62
     7
  6
CONTINUOUS
  0
LAYER
  5
28F
330
2
100
AcDbSymbolTableRecord
100
AcDbLayerTableRecord
  2
DEFPOINTS
 70
     0
 62
     7
  6
CONTINUOUS
  0
ENDTAB
  0
TABLE
  2
STYLE
  5
3
330
0
100
AcDbSymbolTable
 70
     4
  0
STYLE
  5
11
330
3
100
AcDbSymbolTableRecord
100
AcDbTextStyleTableRecord
  2
STANDARD
 70
     0
 40
0.0
 41
1.0
 50
0.0
 71
     0
 42
2.5
  3
simplex
  4
bigfont
  0
STYLE
  5
73
330
3
100
AcDbSymbolTableRecord
100
AcDbTextStyleTableRecord
  2
EXCADSTD
 70
     0
 40
0.0
 41
1.0
 50
0.0
 71
     0
 42
2.5
  3
simplex
  4
bigfont
  0
STYLE
  5
74
330
3
100
AcDbSymbolTableRecord
100
AcDbTextStyleTableRecord
  2
EXCADVERT
 70
     4
 40
0.0
 41
1.0
 50
0.0
 71
     0
 42
2.5
  3
simplex
  4
bigfont
  0
STYLE
  5
28D
330
3
100
AcDbSymbolTableRecord
100
AcDbTextStyleTableRecord
  2
EXCADDIM1
 70
     0
 40
0.0
 41
0.84
 50
0.0
 71
     0
 42
2.5
  3
simplex
  4
bigfont
  0
ENDTAB
  0
TABLE
  2
VIEW
  5
6
330
0
100
AcDbSymbolTable
 70
     0
  0
ENDTAB
  0
TABLE
  2
UCS
  5
7
330
0
100
AcDbSymbolTable
 70
     0
  0
ENDTAB
  0
TABLE
  2
APPID
  5
9
330
0
100
AcDbSymbolTable
 70
     2
  0
APPID
  5
12
330
9
100
AcDbSymbolTableRecord
100
AcDbRegAppTableRecord
  2
ACAD
 70
     0
  0
APPID
  5
450
330
9
100
AcDbSymbolTableRecord
100
AcDbRegAppTableRecord
  2
ACAD_MLEADERVER
 70
     0
  0
ENDTAB
  0
TABLE
  2
DIMSTYLE
  5
A
330
0
100
AcDbSymbolTable
 70
     1
  0
DIMSTYLE
105
27
102
{ACAD_REACTORS
330
28E
330
29C
330
2A9
330
2B6
330
2C3
330
3C9
330
3D6
330
3E5
102
}
330
A
100
AcDbSymbolTableRecord
100
AcDbDimStyleTableRecord
  2
ISO-25
 70
     0
  3

  4

  5

  6

  7

 40
1.0
 41
2.5
 42
0.625
 43
3.75
 44
1.25
 45
0.0
 46
0.0
 47
0.0
 48
0.0
140
2.5
141
2.5
142
0.0
143
0.03937007874016
144
1.0
145
0.0
146
1.0
147
0.625
 71
     0
 72
     0
 73
     0
 74
     0
 75
     0
 76
     0
 77
     1
 78
     8
170
     0
171
     3
172
     1
173
     0
174
     0
175
     0
176
     0
177
     0
178
     0
270
     2
271
     2
272
     2
273
     2
274
     3
340
11
275
     0
280
     0
281
     0
282
     0
283
     0
284
     8
285
     0
286
     0
287
     5
288
     0
  0
ENDTAB
  0
TABLE
  2
BLOCK_RECORD
  5
1
330
0
100
AcDbSymbolTable
 70
    22
  0
BLOCK_RECORD
  5
1F
330
1
100
AcDbSymbolTableRecord
100
AcDbBlockTableRecord
  2
*MODEL_SPACE
  0
BLOCK_RECORD
  5
1B
330
1
100
AcDbSymbolTableRecord
100
AcDbBlockTableRecord
  2
*PAPER_SPACE
  0
BLOCK_RECORD
  5
78
330
1
100
AcDbSymbolTableRecord
100
AcDbBlockTableRecord
  2
EX_NORM
  0
BLOCK_RECORD
  5
7B
330
1
100
AcDbSymbolTableRecord
100
AcDbBlockTableRecord
  2
EX_BNORM
  0
BLOCK_RECORD
  5
7E
330
1
100
AcDbSymbolTableRecord
100
AcDbBlockTableRecord
  2
EX_BCIR
  0
BLOCK_RECORD
  5
81
330
1
100
AcDbSymbolTableRecord
100
AcDbBlockTableRecord
  2
EX_RCIVIL
  0
BLOCK_RECORD
  5
84
330
1
100
AcDbSymbolTableRecord
100
AcDbBlockTableRecord
  2
EX_SLANT
  0
BLOCK_RECORD
  5
87
330
1
100
AcDbSymbolTableRecord
100
AcDbBlockTableRecord
  2
EX_NONE
  0
BLOCK_RECORD
  5
8A
330
1
100
AcDbSymbolTableRecord
100
AcDbBlockTableRecord
  2
EX_CIVIL
  0
BLOCK_RECORD
  5
8D
330
1
100
AcDbSymbolTableRecord
100
AcDbBlockTableRecord
  2
EX_WCIR
  0
BLOCK_RECORD
  5
90
330
1
100
AcDbSymbolTableRecord
100
AcDbBlockTableRecord
  2
EX_WCIR2
  0
BLOCK_RECORD
  5
93
330
1
100
AcDbSymbolTableRecord
100
AcDbBlockTableRecord
  2
EX_WNORM
  0
BLOCK_RECORD
  5
96
330
1
100
AcDbSymbolTableRecord
100
AcDbBlockTableRecord
  2
EX_NNORM
  0
BLOCK_RECORD
  5
99
330
1
100
AcDbSymbolTableRecord
100
AcDbBlockTableRecord
  2
EX_BBOX
  0
BLOCK_RECORD
  5
9C
330
1
100
AcDbSymbolTableRecord
100
AcDbBlockTableRecord
  2
EX_WBOX
  0
BLOCK_RECORD
  5
9F
330
1
100
AcDbSymbolTableRecord
100
AcDbBlockTableRecord
  2
EX_INTEGRAL
  0
BLOCK_RECORD
  5
290
330
1
100
AcDbSymbolTableRecord
100
AcDbBlockTableRecord
  2
*D15
  0
BLOCK_RECORD
  5
29D
330
1
100
AcDbSymbolTableRecord
100
AcDbBlockTableRecord
  2
*D16
  0
BLOCK_RECORD
  5
2AA
330
1
100
AcDbSymbolTableRecord
100
AcDbBlockTableRecord
  2
*D17
  0
BLOCK_RECORD
  5
2B7
330
1
100
AcDbSymbolTableRecord
100
AcDbBlockTableRecord
  2
*D18
  0
BLOCK_RECORD
  5
2C4
330
1
100
AcDbSymbolTableRecord
100
AcDbBlockTableRecord
  2
*D19
  0
BLOCK_RECORD
  5
3CA
330
1
100
AcDbSymbolTableRecord
100
AcDbBlockTableRecord
  2
*D20
  0
BLOCK_RECORD
  5
3D7
330
1
100
AcDbSymbolTableRecord
100
AcDbBlockTableRecord
  2
*D21
  0
BLOCK_RECORD
  5
3E6
330
1
100
AcDbSymbolTableRecord
100
AcDbBlockTableRecord
  2
*D22
  0
ENDTAB
  0
ENDSEC
  0
SECTION
  2
BLOCKS
  0
BLOCK
  5
20
330
1F
100
AcDbEntity
  8
0
100
AcDbBlockBegin
  2
*MODEL_SPACE
 70
     0
 10
0.0
 20
0.0
 30
0.0
  3
*MODEL_SPACE
  1

  0
ENDBLK
  5
21
330
1F
100
AcDbEntity
  8
0
100
AcDbBlockEnd
  0
BLOCK
  5
1C
330
1B
100
AcDbEntity
 67
     1
  8
0
100
AcDbBlockBegin
  2
*PAPER_SPACE
 70
     0
 10
0.0
 20
0.0
 30
0.0
  3
*PAPER_SPACE
  1

  0
ENDBLK
  5
1D
330
1B
100
AcDbEntity
 67
     1
  8
0
100
AcDbBlockEnd
  0
BLOCK
  5
79
330
78
100
AcDbEntity
  8
0
100
AcDbBlockBegin
  2
EX_NORM
 70
     0
 10
0.0
 20
0.0
 30
0.0
  3
EX_NORM
  1

  0
LINE
  5
A2
330
78
100
AcDbEntity
  8
0
  6
CONTINUOUS
 62
     0
100
AcDbLine
 10
0.0
 20
0.0
 30
0.0
 11
-1.0
 21
0.0
 31
0.0
  0
LINE
  5
A3
330
78
100
AcDbEntity
  8
0
  6
CONTINUOUS
 62
     0
100
AcDbLine
 10
0.0
 20
0.0
 30
0.0
 11
-1.0
 21
0.166666667
 31
0.0
  0
LINE
  5
A4
330
78
100
AcDbEntity
  8
0
  6
CONTINUOUS
 62
     0
100
AcDbLine
 10
0.0
 20
0.0
 30
0.0
 11
-1.0
 21
-0.166666667
 31
0.0
  0
ENDBLK
  5
7A
330
78
100
AcDbEntity
  8
0
100
AcDbBlockEnd
  0
BLOCK
  5
7C
330
7B
100
AcDbEntity
  8
0
100
AcDbBlockBegin
  2
EX_BNORM
 70
     0
 10
0.0
 20
0.0
 30
0.0
  3
EX_BNORM
  1

  0
LINE
  5
A5
330
7B
100
AcDbEntity
  8
0
  6
CONTINUOUS
 62
     0
100
AcDbLine
 10
0.0
 20
0.0
 30
0.0
 11
-1.0
 21
0.0
 31
0.0
  0
LINE
  5
A6
330
7B
100
AcDbEntity
  8
0
  6
CONTINUOUS
 62
     0
100
AcDbLine
 10
0.0
 20
0.0
 30
0.0
 11
-1.0
 21
0.166666667
 31
0.0
  0
LINE
  5
A7
330
7B
100
AcDbEntity
  8
0
  6
CONTINUOUS
 62
     0
100
AcDbLine
 10
0.0
 20
0.0
 30
0.0
 11
-1.0
 21
-0.166666667
 31
0.0
  0
LINE
  5
A8
330
7B
100
AcDbEntity
  8
0
  6
CONTINUOUS
 62
     0
100
AcDbLine
 10
0.0
 20
0.0
 30
0.0
 11
-1.0
 21
0.083333333
 31
0.0
  0
LINE
  5
A9
330
7B
100
AcDbEntity
  8
0
  6
CONTINUOUS
 62
     0
100
AcDbLine
 10
0.0
 20
0.0
 30
0.0
 11
-1.0
 21
-0.083333333
 31
0.0
  0
LINE
  5
AA
330
7B
100
AcDbEntity
  8
0
  6
CONTINUOUS
 62
     0
100
AcDbLine
 10
-1.0
 20
0.166666667
 30
0.0
 11
-1.0
 21
-0.166666667
 31
0.0
  0
ENDBLK
  5
7D
330
7B
100
AcDbEntity
  8
0
100
AcDbBlockEnd
  0
BLOCK
  5
7F
330
7E
100
AcDbEntity
  8
0
100
AcDbBlockBegin
  2
EX_BCIR
 70
     0
 10
0.0
 20
0.0
 30
0.0
  3
EX_BCIR
  1

  0
LINE
  5
AB
330
7E
100
AcDbEntity
  8
0
  6
CONTINUOUS
 62
     0
100
AcDbLine
 10
0.0
 20
0.0
 30
0.0
 11
-1.0
 21
0.0
 31
0.0
  0
CIRCLE
  5
AC
330
7E
100
AcDbEntity
  8
0
  6
CONTINUOUS
 62
     0
100
AcDbCircle
 10
0.0
 20
0.0
 30
0.0
 40
0.5
  0
CIRCLE
  5
AD
330
7E
100
AcDbEntity
  8
0
  6
CONTINUOUS
 62
     0
100
AcDbCircle
 10
0.0
 20
0.0
 30
0.0
 40
0.25
  0
ENDBLK
  5
80
330
7E
100
AcDbEntity
  8
0
100
AcDbBlockEnd
  0
BLOCK
  5
82
330
81
100
AcDbEntity
  8
0
100
AcDbBlockBegin
  2
EX_RCIVIL
 70
     0
 10
0.0
 20
0.0
 30
0.0
  3
EX_RCIVIL
  1

  0
LINE
  5
AE
330
81
100
AcDbEntity
  8
0
  6
CONTINUOUS
 62
     0
100
AcDbLine
 10
0.0
 20
0.0
 30
0.0
 11
-1.0
 21
0.0
 31
0.0
  0
LINE
  5
AF
330
81
100
AcDbEntity
  8
0
  6
CONTINUOUS
 62
     0
100
AcDbLine
 10
-1.0
 20
-0.25
 30
0.0
 11
0.0
 21
-0.25
 31
0.0
  0
LINE
  5
B0
330
81
100
AcDbEntity
  8
0
  6
CONTINUOUS
 62
     0
100
AcDbLine
 10
-1.0
 20
-0.125
 30
0.0
 11
0.0
 21
-0.125
 31
0.0
  0
ENDBLK
  5
83
330
81
100
AcDbEntity
  8
0
100
AcDbBlockEnd
  0
BLOCK
  5
85
330
84
100
AcDbEntity
  8
0
100
AcDbBlockBegin
  2
EX_SLANT
 70
     0
 10
0.0
 20
0.0
 30
0.0
  3
EX_SLANT
  1

  0
LINE
  5
B1
330
84
100
AcDbEntity
  8
0
  6
CONTINUOUS
 62
     0
100
AcDbLine
 10
0.0
 20
0.0
 30
0.0
 11
-1.0
 21
0.0
 31
0.0
  0
LINE
  5
B2
330
84
100
AcDbEntity
  8
0
  6
CONTINUOUS
 62
     0
100
AcDbLine
 10
0.707106781
 20
0.707106781
 30
0.0
 11
-0.707106781
 21
-0.707106781
 31
0.0
  0
ENDBLK
  5
86
330
84
100
AcDbEntity
  8
0
100
AcDbBlockEnd
  0
BLOCK
  5
88
330
87
100
AcDbEntity
  8
0
100
AcDbBlockBegin
  2
EX_NONE
 70
     0
 10
0.0
 20
0.0
 30
0.0
  3
EX_NONE
  1

  0
LINE
  5
B3
330
87
100
AcDbEntity
  8
0
  6
CONTINUOUS
 62
     0
100
AcDbLine
 10
0.0
 20
0.0
 30
0.0
 11
-1.0
 21
0.0
 31
0.0
  0
ENDBLK
  5
89
330
87
100
AcDbEntity
  8
0
100
AcDbBlockEnd
  0
BLOCK
  5
8B
330
8A
100
AcDbEntity
  8
0
100
AcDbBlockBegin
  2
EX_CIVIL
 70
     0
 10
0.0
 20
0.0
 30
0.0
  3
EX_CIVIL
  1

  0
LINE
  5
B4
330
8A
100
AcDbEntity
  8
0
  6
CONTINUOUS
 62
     0
100
AcDbLine
 10
0.0
 20
0.0
 30
0.0
 11
-1.0
 21
0.0
 31
0.0
  0
LINE
  5
B5
330
8A
100
AcDbEntity
  8
0
  6
CONTINUOUS
 62
     0
100
AcDbLine
 10
-1.0
 20
0.25
 30
0.0
 11
0.0
 21
0.25
 31
0.0
  0
LINE
  5
B6
330
8A
100
AcDbEntity
  8
0
  6
CONTINUOUS
 62
     0
100
AcDbLine
 10
-1.0
 20
0.125
 30
0.0
 11
0.0
 21
0.125
 31
0.0
  0
ENDBLK
  5
8C
330
8A
100
AcDbEntity
  8
0
100
AcDbBlockEnd
  0
BLOCK
  5
8E
330
8D
100
AcDbEntity
  8
0
100
AcDbBlockBegin
  2
EX_WCIR
 70
     0
 10
0.0
 20
0.0
 30
0.0
  3
EX_WCIR
  1

  0
LINE
  5
B7
330
8D
100
AcDbEntity
  8
0
  6
CONTINUOUS
 62
     0
100
AcDbLine
 10
0.0
 20
0.0
 30
0.0
 11
-1.0
 21
0.0
 31
0.0
  0
CIRCLE
  5
B8
330
8D
100
AcDbEntity
  8
0
  6
CONTINUOUS
 62
     0
100
AcDbCircle
 10
0.0
 20
0.0
 30
0.0
 40
0.5
  0
ENDBLK
  5
8F
330
8D
100
AcDbEntity
  8
0
100
AcDbBlockEnd
  0
BLOCK
  5
91
330
90
100
AcDbEntity
  8
0
100
AcDbBlockBegin
  2
EX_WCIR2
 70
     0
 10
0.0
 20
0.0
 30
0.0
  3
EX_WCIR2
  1

  0
LINE
  5
B9
330
90
100
AcDbEntity
  8
0
  6
CONTINUOUS
 62
     0
100
AcDbLine
 10
-0.5
 20
0.0
 30
0.0
 11
-1.0
 21
0.0
 31
0.0
  0
CIRCLE
  5
BA
330
90
100
AcDbEntity
  8
0
  6
CONTINUOUS
 62
     0
100
AcDbCircle
 10
0.0
 20
0.0
 30
0.0
 40
0.5
  0
ENDBLK
  5
92
330
90
100
AcDbEntity
  8
0
100
AcDbBlockEnd
  0
BLOCK
  5
94
330
93
100
AcDbEntity
  8
0
100
AcDbBlockBegin
  2
EX_WNORM
 70
     0
 10
0.0
 20
0.0
 30
0.0
  3
EX_WNORM
  1

  0
LINE
  5
BB
330
93
100
AcDbEntity
  8
0
  6
CONTINUOUS
 62
     0
100
AcDbLine
 10
-1.0
 20
0.0
 30
0.0
 11
-1.0
 21
0.0
 31
0.0
  0
LINE
  5
BC
330
93
100
AcDbEntity
  8
0
  6
CONTINUOUS
 62
     0
100
AcDbLine
 10
0.0
 20
0.0
 30
0.0
 11
-1.0
 21
0.166666667
 31
0.0
  0
LINE
  5
BD
330
93
100
AcDbEntity
  8
0
  6
CONTINUOUS
 62
     0
100
AcDbLine
 10
0.0
 20
0.0
 30
0.0
 11
-1.0
 21
-0.166666667
 31
0.0
  0
LINE
  5
BE
330
93
100
AcDbEntity
  8
0
  6
CONTINUOUS
 62
     0
100
AcDbLine
 10
-1.0
 20
0.166666667
 30
0.0
 11
-1.0
 21
-0.166666667
 31
0.0
  0
ENDBLK
  5
95
330
93
100
AcDbEntity
  8
0
100
AcDbBlockEnd
  0
BLOCK
  5
97
330
96
100
AcDbEntity
  8
0
100
AcDbBlockBegin
  2
EX_NNORM
 70
     0
 10
0.0
 20
0.0
 30
0.0
  3
EX_NNORM
  1

  0
LINE
  5
BF
330
96
100
AcDbEntity
  8
0
  6
CONTINUOUS
 62
     0
100
AcDbLine
 10
0.0
 20
0.0
 30
0.0
 11
-1.0
 21
0.0
 31
0.0
  0
LINE
  5
C0
330
96
100
AcDbEntity
  8
0
  6
CONTINUOUS
 62
     0
100
AcDbLine
 10
0.0
 20
0.0
 30
0.0
 11
-1.0
 21
0.166666667
 31
0.0
  0
LINE
  5
C1
330
96
100
AcDbEntity
  8
0
  6
CONTINUOUS
 62
     0
100
AcDbLine
 10
0.0
 20
0.0
 30
0.0
 11
-1.0
 21
-0.166666667
 31
0.0
  0
LINE
  5
C2
330
96
100
AcDbEntity
  8
0
  6
CONTINUOUS
 62
     0
100
AcDbLine
 10
-1.0
 20
0.166666667
 30
0.0
 11
-1.0
 21
-0.166666667
 31
0.0
  0
ENDBLK
  5
98
330
96
100
AcDbEntity
  8
0
100
AcDbBlockEnd
  0
BLOCK
  5
9A
330
99
100
AcDbEntity
  8
0
100
AcDbBlockBegin
  2
EX_BBOX
 70
     0
 10
0.0
 20
0.0
 30
0.0
  3
EX_BBOX
  1

  0
LINE
  5
C3
330
99
100
AcDbEntity
  8
0
  6
CONTINUOUS
 62
     0
100
AcDbLine
 10
0.0
 20
0.0
 30
0.0
 11
-1.0
 21
0.0
 31
0.0
  0
LINE
  5
C4
330
99
100
AcDbEntity
  8
0
  6
CONTINUOUS
 62
     0
100
AcDbLine
 10
-0.5
 20
0.5
 30
0.0
 11
0.5
 21
0.5
 31
0.0
  0
LINE
  5
C5
330
99
100
AcDbEntity
  8
0
  6
CONTINUOUS
 62
     0
100
AcDbLine
 10
0.5
 20
0.5
 30
0.0
 11
0.5
 21
-0.5
 31
0.0
  0
LINE
  5
C6
330
99
100
AcDbEntity
  8
0
  6
CONTINUOUS
 62
     0
100
AcDbLine
 10
0.5
 20
-0.5
 30
0.0
 11
-0.5
 21
-0.5
 31
0.0
  0
LINE
  5
C7
330
99
100
AcDbEntity
  8
0
  6
CONTINUOUS
 62
     0
100
AcDbLine
 10
-0.5
 20
-0.5
 30
0.0
 11
-0.5
 21
0.5
 31
0.0
  0
LINE
  5
C8
330
99
100
AcDbEntity
  8
0
  6
CONTINUOUS
 62
     0
100
AcDbLine
 10
-0.25
 20
0.25
 30
0.0
 11
0.25
 21
0.25
 31
0.0
  0
LINE
  5
C9
330
99
100
AcDbEntity
  8
0
  6
CONTINUOUS
 62
     0
100
AcDbLine
 10
0.25
 20
0.25
 30
0.0
 11
0.25
 21
-0.25
 31
0.0
  0
LINE
  5
CA
330
99
100
AcDbEntity
  8
0
  6
CONTINUOUS
 62
     0
100
AcDbLine
 10
0.25
 20
-0.25
 30
0.0
 11
-0.25
 21
-0.25
 31
0.0
  0
LINE
  5
CB
330
99
100
AcDbEntity
  8
0
  6
CONTINUOUS
 62
     0
100
AcDbLine
 10
-0.25
 20
-0.25
 30
0.0
 11
-0.25
 21
0.25
 31
0.0
  0
ENDBLK
  5
9B
330
99
100
AcDbEntity
  8
0
100
AcDbBlockEnd
  0
BLOCK
  5
9D
330
9C
100
AcDbEntity
  8
0
100
AcDbBlockBegin
  2
EX_WBOX
 70
     0
 10
0.0
 20
0.0
 30
0.0
  3
EX_WBOX
  1

  0
LINE
  5
CC
330
9C
100
AcDbEntity
  8
0
  6
CONTINUOUS
 62
     0
100
AcDbLine
 10
-0.5
 20
0.0
 30
0.0
 11
-1.0
 21
0.0
 31
0.0
  0
LINE
  5
CD
330
9C
100
AcDbEntity
  8
0
  6
CONTINUOUS
 62
     0
100
AcDbLine
 10
-0.5
 20
0.5
 30
0.0
 11
0.5
 21
0.5
 31
0.0
  0
LINE
  5
CE
330
9C
100
AcDbEntity
  8
0
  6
CONTINUOUS
 62
     0
100
AcDbLine
 10
0.5
 20
0.5
 30
0.0
 11
0.5
 21
-0.5
 31
0.0
  0
LINE
  5
CF
330
9C
100
AcDbEntity
  8
0
  6
CONTINUOUS
 62
     0
100
AcDbLine
 10
0.5
 20
-0.5
 30
0.0
 11
-0.5
 21
-0.5
 31
0.0
  0
LINE
  5
D0
330
9C
100
AcDbEntity
  8
0
  6
CONTINUOUS
 62
     0
100
AcDbLine
 10
-0.5
 20
-0.5
 30
0.0
 11
-0.5
 21
0.5
 31
0.0
  0
ENDBLK
  5
9E
330
9C
100
AcDbEntity
  8
0
100
AcDbBlockEnd
  0
BLOCK
  5
A0
330
9F
100
AcDbEntity
  8
0
100
AcDbBlockBegin
  2
EX_INTEGRAL
 70
     0
 10
0.0
 20
0.0
 30
0.0
  3
EX_INTEGRAL
  1

  0
LINE
  5
D1
330
9F
100
AcDbEntity
  8
0
  6
CONTINUOUS
 62
     0
100
AcDbLine
 10
0.0
 20
0.0
 30
0.0
 11
-1.0
 21
0.0
 31
0.0
  0
ARC
  5
D2
330
9F
100
AcDbEntity
  8
0
  6
CONTINUOUS
 62
     0
100
AcDbCircle
 10
0.542115
 20
0.164992
 30
0.0
 40
0.56667
100
AcDbArc
 50
73.07249033629006
 51
196.9275130221199
  0
ARC
  5
D3
330
9F
100
AcDbEntity
  8
0
  6
CONTINUOUS
 62
     0
100
AcDbCircle
 10
-0.542115
 20
-0.164992
 30
0.0
 40
0.56667
100
AcDbArc
 50
253.0724869220464
 51
16.9275130559125
  0
ENDBLK
  5
A1
330
9F
100
AcDbEntity
  8
0
100
AcDbBlockEnd
  0
BLOCK
  5
291
330
290
100
AcDbEntity
  8
0
100
AcDbBlockBegin
  2
*D15
 70
     1
 10
0.0
 20
0.0
 30
0.0
  3
*D15
  1

  0
LINE
  5
293
330
290
100
AcDbEntity
  8
LAY-20
  6
CONTINUOUS
 62
     4
100
AcDbLine
 10
351.4999999999961
 20
230.50000000001
 30
0.0
 11
351.4999999999961
 21
481.5
 31
0.0
  0
LINE
  5
294
330
290
100
AcDbEntity
  8
LAY-20
  6
CONTINUOUS
 62
     4
100
AcDbLine
 10
578.4999999999991
 20
230.50000000001
 30
0.0
 11
578.4999999999991
 21
481.5
 31
0.0
  0
LINE
  5
295
330
290
100
AcDbEntity
  8
LAY-20
  6
CONTINUOUS
 62
     4
100
AcDbLine
 10
358.9999999999961
 20
477.0
 30
0.0
 11
570.9999999999991
 21
477.0
 31
0.0
  0
INSERT
  5
296
330
290
100
AcDbEntity
  8
LAY-20
 62
     4
100
AcDbBlockReference
  2
EX_BNORM
 10
351.4999999999961
 20
477.0
 30
0.0
 41
7.5
 42
7.5
 43
7.5
 50
180.0
  0
INSERT
  5
297
330
290
100
AcDbEntity
  8
LAY-20
 62
     4
100
AcDbBlockReference
  2
EX_BNORM
 10
578.4999999999991
 20
477.0
 30
0.0
 41
7.5
 42
7.5
 43
7.5
  0
MTEXT
  5
298
330
290
100
AcDbEntity
  8
LAY-20
 62
     7
100
AcDbMText
 10
464.9999999999976
 20
484.5
 30
0.0
 40
9.3543312
 41
0.0
 71
     5
 72
     1
  1
%%c227
  7
EXCADDIM1
  0
POINT
  5
299
330
290
100
AcDbEntity
  8
DEFPOINTS
 62
     0
100
AcDbPoint
 10
351.4999999999961
 20
226.00000000001
 30
0.0
  0
POINT
  5
29A
330
290
100
AcDbEntity
  8
DEFPOINTS
 62
     0
100
AcDbPoint
 10
578.4999999999991
 20
226.00000000001
 30
0.0
  0
POINT
  5
29B
330
290
100
AcDbEntity
  8
DEFPOINTS
 62
     0
100
AcDbPoint
 10
578.4999999999991
 20
477.0
 30
0.0
  0
ENDBLK
  5
292
330
290
100
AcDbEntity
  8
0
100
AcDbBlockEnd
  0
BLOCK
  5
29E
330
29D
100
AcDbEntity
  8
0
100
AcDbBlockBegin
  2
*D16
 70
     1
 10
0.0
 20
0.0
 30
0.0
  3
*D16
  1

  0
LINE
  5
2A0
330
29D
100
AcDbEntity
  8
LAY-20
  6
CONTINUOUS
 62
     4
100
AcDbLine
 10
370.5000000000061
 20
237.50000000001
 30
0.0
 11
370.5000000000061
 21
460.5
 31
0.0
  0
LINE
  5
2A1
330
29D
100
AcDbEntity
  8
LAY-20
  6
CONTINUOUS
 62
     4
100
AcDbLine
 10
559.499999999997
 20
237.50000000001
 30
0.0
 11
559.499999999997
 21
460.5
 31
0.0
  0
LINE
  5
2A2
330
29D
100
AcDbEntity
  8
LAY-20
  6
CONTINUOUS
 62
     4
100
AcDbLine
 10
378.0000000000061
 20
456.0
 30
0.0
 11
551.999999999997
 21
456.0
 31
0.0
  0
INSERT
  5
2A3
330
29D
100
AcDbEntity
  8
LAY-20
 62
     4
100
AcDbBlockReference
  2
EX_BNORM
 10
370.5000000000061
 20
456.0
 30
0.0
 41
7.5
 42
7.5
 43
7.5
 50
180.0
  0
INSERT
  5
2A4
330
29D
100
AcDbEntity
  8
LAY-20
 62
     4
100
AcDbBlockReference
  2
EX_BNORM
 10
559.499999999997
 20
456.0
 30
0.0
 41
7.5
 42
7.5
 43
7.5
  0
MTEXT
  5
2A5
330
29D
100
AcDbEntity
  8
LAY-20
 62
     7
100
AcDbMText
 10
465.0000000000015
 20
463.5
 30
0.0
 40
9.3543312
 41
0.0
 71
     5
 72
     1
  1
%%c189
  7
EXCADDIM1
  0
POINT
  5
2A6
330
29D
100
AcDbEntity
  8
DEFPOINTS
 62
     0
100
AcDbPoint
 10
370.5000000000061
 20
233.00000000001
 30
0.0
  0
POINT
  5
2A7
330
29D
100
AcDbEntity
  8
DEFPOINTS
 62
     0
100
AcDbPoint
 10
559.499999999997
 20
233.00000000001
 30
0.0
  0
POINT
  5
2A8
330
29D
100
AcDbEntity
  8
DEFPOINTS
 62
     0
100
AcDbPoint
 10
559.499999999997
 20
456.0
 30
0.0
  0
ENDBLK
  5
29F
330
29D
100
AcDbEntity
  8
0
100
AcDbBlockEnd
  0
BLOCK
  5
2AB
330
2AA
100
AcDbEntity
  8
0
100
AcDbBlockBegin
  2
*D17
 70
     1
 10
0.0
 20
0.0
 30
0.0
  3
*D17
  1

  0
LINE
  5
2AD
330
2AA
100
AcDbEntity
  8
LAY-20
  6
CONTINUOUS
 62
     4
100
AcDbLine
 10
405.4999999999961
 20
163.45625566825
 30
0.0
 11
405.4999999999961
 21
118.5000000000101
 31
0.0
  0
LINE
  5
2AE
330
2AA
100
AcDbEntity
  8
LAY-20
  6
CONTINUOUS
 62
     4
100
AcDbLine
 10
524.499999999996
 20
163.45625566825
 30
0.0
 11
524.499999999996
 21
118.5000000000101
 31
0.0
  0
LINE
  5
2AF
330
2AA
100
AcDbEntity
  8
LAY-20
  6
CONTINUOUS
 62
     4
100
AcDbLine
 10
412.9999999999961
 20
123.0000000000101
 30
0.0
 11
516.999999999996
 21
123.0000000000101
 31
0.0
  0
INSERT
  5
2B0
330
2AA
100
AcDbEntity
  8
LAY-20
 62
     4
100
AcDbBlockReference
  2
EX_BNORM
 10
405.4999999999961
 20
123.0000000000101
 30
0.0
 41
7.5
 42
7.5
 43
7.5
 50
180.0
  0
INSERT
  5
2B1
330
2AA
100
AcDbEntity
  8
LAY-20
 62
     4
100
AcDbBlockReference
  2
EX_BNORM
 10
524.499999999996
 20
123.0000000000101
 30
0.0
 41
7.5
 42
7.5
 43
7.5
  0
MTEXT
  5
2B2
330
2AA
100
AcDbEntity
  8
LAY-20
 62
     7
100
AcDbMText
 10
464.9999999999961
 20
130.5000000000101
 30
0.0
 40
9.3543312
 41
0.0
 71
     5
 72
     1
  1
%%c119
  7
EXCADDIM1
  0
POINT
  5
2B3
330
2AA
100
AcDbEntity
  8
DEFPOINTS
 62
     0
100
AcDbPoint
 10
405.4999999999961
 20
167.95625566825
 30
0.0
  0
POINT
  5
2B4
330
2AA
100
AcDbEntity
  8
DEFPOINTS
 62
     0
100
AcDbPoint
 10
524.499999999996
 20
167.95625566825
 30
0.0
  0
POINT
  5
2B5
330
2AA
100
AcDbEntity
  8
DEFPOINTS
 62
     0
100
AcDbPoint
 10
524.499999999996
 20
123.0000000000101
 30
0.0
  0
ENDBLK
  5
2AC
330
2AA
100
AcDbEntity
  8
0
100
AcDbBlockEnd
  0
BLOCK
  5
2B8
330
2B7
100
AcDbEntity
  8
0
100
AcDbBlockBegin
  2
*D18
 70
     1
 10
0.0
 20
0.0
 30
0.0
  3
*D18
  1

  0
LINE
  5
2BA
330
2B7
100
AcDbEntity
  8
LAY-20
  6
CONTINUOUS
 62
     4
100
AcDbLine
 10
525.999999999996
 20
203.4999999999999
 30
0.0
 11
525.999999999996
 21
97.50000000001006
 31
0.0
  0
LINE
  5
2BB
330
2B7
100
AcDbEntity
  8
LAY-20
  6
CONTINUOUS
 62
     4
100
AcDbLine
 10
403.9999999999961
 20
203.4999999999999
 30
0.0
 11
403.9999999999961
 21
97.50000000001006
 31
0.0
  0
LINE
  5
2BC
330
2B7
100
AcDbEntity
  8
LAY-20
  6
CONTINUOUS
 62
     4
100
AcDbLine
 10
518.499999999996
 20
102.0000000000101
 30
0.0
 11
411.4999999999961
 21
102.0000000000101
 31
0.0
  0
INSERT
  5
2BD
330
2B7
100
AcDbEntity
  8
LAY-20
 62
     4
100
AcDbBlockReference
  2
EX_BNORM
 10
525.999999999996
 20
102.0000000000101
 30
0.0
 41
7.5
 42
7.5
 43
7.5
  0
INSERT
  5
2BE
330
2B7
100
AcDbEntity
  8
LAY-20
 62
     4
100
AcDbBlockReference
  2
EX_BNORM
 10
403.9999999999961
 20
102.0000000000101
 30
0.0
 41
7.5
 42
7.5
 43
7.5
 50
180.0
  0
MTEXT
  5
2BF
330
2B7
100
AcDbEntity
  8
LAY-20
 62
     7
100
AcDbMText
 10
464.9999999999961
 20
109.5000000000101
 30
0.0
 40
9.3543312
 41
0.0
 71
     5
 72
     1
  1
%%c122
  7
EXCADDIM1
  0
POINT
  5
2C0
330
2B7
100
AcDbEntity
  8
DEFPOINTS
 62
     0
100
AcDbPoint
 10
525.999999999996
 20
207.9999999999999
 30
0.0
  0
POINT
  5
2C1
330
2B7
100
AcDbEntity
  8
DEFPOINTS
 62
     0
100
AcDbPoint
 10
403.9999999999961
 20
207.9999999999999
 30
0.0
  0
POINT
  5
2C2
330
2B7
100
AcDbEntity
  8
DEFPOINTS
 62
     0
100
AcDbPoint
 10
403.9999999999961
 20
102.0000000000101
 30
0.0
  0
ENDBLK
  5
2B9
330
2B7
100
AcDbEntity
  8
0
100
AcDbBlockEnd
  0
BLOCK
  5
2C5
330
2C4
100
AcDbEntity
  8
0
100
AcDbBlockBegin
  2
*D19
 70
     1
 10
0.0
 20
0.0
 30
0.0
  3
*D19
  1

  0
LINE
  5
2C7
330
2C4
100
AcDbEntity
  8
LAY-20
  6
CONTINUOUS
 62
     4
100
AcDbLine
 10
377.9999999999961
 20
209.32708503629
 30
0.0
 11
316.9999999999861
 21
209.32708503629
 31
0.0
  0
LINE
  5
2C8
330
2C4
100
AcDbEntity
  8
LAY-20
  6
CONTINUOUS
 62
     4
100
AcDbLine
 10
347.9999999999961
 20
233.00000000001
 30
0.0
 11
316.9999999999861
 21
233.00000000001
 31
0.0
  0
LINE
  5
2C9
330
2C4
100
AcDbEntity
  8
LAY-20
  6
CONTINUOUS
 62
     4
100
AcDbLine
 10
321.4999999999861
 20
216.82708503629
 30
0.0
 11
321.4999999999861
 21
225.50000000001
 31
0.0
  0
INSERT
  5
2CA
330
2C4
100
AcDbEntity
  8
LAY-20
 62
     4
100
AcDbBlockReference
  2
EX_BNORM
 10
321.4999999999861
 20
209.32708503629
 30
0.0
 41
7.5
 42
7.5
 43
7.5
 50
270.0
  0
INSERT
  5
2CB
330
2C4
100
AcDbEntity
  8
LAY-20
 62
     4
100
AcDbBlockReference
  2
EX_BNORM
 10
321.4999999999861
 20
233.00000000001
 30
0.0
 41
7.5
 42
7.5
 43
7.5
 50
90.0
  0
MTEXT
  5
2CC
330
2C4
100
AcDbEntity
  8
LAY-20
 62
     7
100
AcDbMText
 10
313.9999999999861
 20
221.16354251815
 30
0.0
 40
9.3543312
 41
0.0
 71
     5
 72
     1
  1
24
  7
EXCADDIM1
 11
0.0
 21
1.0
 31
0.0
  0
POINT
  5
2CD
330
2C4
100
AcDbEntity
  8
DEFPOINTS
 62
     0
100
AcDbPoint
 10
382.4999999999961
 20
209.32708503629
 30
0.0
  0
POINT
  5
2CE
330
2C4
100
AcDbEntity
  8
DEFPOINTS
 62
     0
100
AcDbPoint
 10
352.4999999999961
 20
233.00000000001
 30
0.0
  0
POINT
  5
2CF
330
2C4
100
AcDbEntity
  8
DEFPOINTS
 62
     0
100
AcDbPoint
 10
321.4999999999861
 20
233.00000000001
 30
0.0
  0
ENDBLK
  5
2C6
330
2C4
100
AcDbEntity
  8
0
100
AcDbBlockEnd
  0
BLOCK
  5
3CB
330
3CA
100
AcDbEntity
  8
0
100
AcDbBlockBegin
  2
*D20
 70
     1
 10
0.0
 20
0.0
 30
0.0
  3
*D20
  1

  0
LINE
  5
3CD
330
3CA
100
AcDbEntity
  8
LAY-20
  6
CONTINUOUS
 62
     4
100
AcDbLine
 10
552.0
 20
153.00000000001
 30
0.0
 11
618.50000000001
 21
153.00000000001
 31
0.0
  0
LINE
  5
3CE
330
3CA
100
AcDbEntity
  8
LAY-20
  6
CONTINUOUS
 62
     4
100
AcDbLine
 10
582.0
 20
233.00000000001
 30
0.0
 11
618.50000000001
 21
233.00000000001
 31
0.0
  0
LINE
  5
3CF
330
3CA
100
AcDbEntity
  8
LAY-20
  6
CONTINUOUS
 62
     4
100
AcDbLine
 10
614.00000000001
 20
160.50000000001
 30
0.0
 11
614.00000000001
 21
225.50000000001
 31
0.0
  0
INSERT
  5
3D0
330
3CA
100
AcDbEntity
  8
LAY-20
 62
     4
100
AcDbBlockReference
  2
EX_BNORM
 10
614.00000000001
 20
153.00000000001
 30
0.0
 41
7.5
 42
7.5
 43
7.5
 50
270.0
  0
INSERT
  5
3D1
330
3CA
100
AcDbEntity
  8
LAY-20
 62
     4
100
AcDbBlockReference
  2
EX_BNORM
 10
614.00000000001
 20
233.00000000001
 30
0.0
 41
7.5
 42
7.5
 43
7.5
 50
90.0
  0
MTEXT
  5
3D2
330
3CA
100
AcDbEntity
  8
LAY-20
 62
     7
100
AcDbMText
 10
606.50000000001
 20
193.00000000001
 30
0.0
 40
9.3543312
 41
0.0
 71
     5
 72
     1
  1
80
  7
EXCADDIM1
 11
0.0
 21
1.0
 31
0.0
  0
POINT
  5
3D3
330
3CA
100
AcDbEntity
  8
DEFPOINTS
 62
     0
100
AcDbPoint
 10
547.5
 20
153.00000000001
 30
0.0
  0
POINT
  5
3D4
330
3CA
100
AcDbEntity
  8
DEFPOINTS
 62
     0
100
AcDbPoint
 10
577.5
 20
233.00000000001
 30
0.0
  0
POINT
  5
3D5
330
3CA
100
AcDbEntity
  8
DEFPOINTS
 62
     0
100
AcDbPoint
 10
614.00000000001
 20
233.00000000001
 30
0.0
  0
ENDBLK
  5
3CC
330
3CA
100
AcDbEntity
  8
0
100
AcDbBlockEnd
  0
BLOCK
  5
3D8
330
3D7
100
AcDbEntity
  8
0
100
AcDbBlockBegin
  2
*D21
 70
     1
 10
0.0
 20
0.0
 30
0.0
  3
*D21
  1

  0
LINE
  5
3DA
330
3D7
100
AcDbEntity
  8
LAY-20
  6
CONTINUOUS
 62
     4
100
AcDbLine
 10
469.5
 20
405.00000000001
 30
0.0
 11
618.50000000001
 21
405.00000000001
 31
0.0
  0
LINE
  5
3DB
330
3D7
100
AcDbEntity
  8
LAY-20
  6
CONTINUOUS
 62
     4
100
AcDbLine
 10
614.00000000001
 20
240.50000000001
 30
0.0
 11
614.00000000001
 21
397.50000000001
 31
0.0
  0
INSERT
  5
3DC
330
3D7
100
AcDbEntity
  8
LAY-20
 62
     4
100
AcDbBlockReference
  2
EX_BNORM
 10
614.00000000001
 20
233.00000000001
 30
0.0
 41
7.5
 42
7.5
 43
7.5
 50
270.0
  0
INSERT
  5
3DD
330
3D7
100
AcDbEntity
  8
LAY-20
 62
     4
100
AcDbBlockReference
  2
EX_BNORM
 10
614.00000000001
 20
405.00000000001
 30
0.0
 41
7.5
 42
7.5
 43
7.5
 50
90.0
  0
MTEXT
  5
3DE
330
3D7
100
AcDbEntity
  8
LAY-20
 62
     7
100
AcDbMText
 10
606.50000000001
 20
319.00000000001
 30
0.0
 40
9.3543312
 41
0.0
 71
     5
 72
     1
  1
172
  7
EXCADDIM1
 11
0.0
 21
1.0
 31
0.0
  0
POINT
  5
3DF
330
3D7
100
AcDbEntity
  8
DEFPOINTS
 62
     0
100
AcDbPoint
 10
614.00000000001
 20
233.00000000001
 30
0.0
  0
POINT
  5
3E0
330
3D7
100
AcDbEntity
  8
DEFPOINTS
 62
     0
100
AcDbPoint
 10
465.0
 20
405.00000000001
 30
0.0
  0
POINT
  5
3E1
330
3D7
100
AcDbEntity
  8
DEFPOINTS
 62
     0
100
AcDbPoint
 10
614.00000000001
 20
405.00000000001
 30
0.0
  0
ENDBLK
  5
3D9
330
3D7
100
AcDbEntity
  8
0
100
AcDbBlockEnd
  0
BLOCK
  5
3E7
330
3E6
100
AcDbEntity
  8
0
100
AcDbBlockBegin
  2
*D22
 70
     1
 10
0.0
 20
0.0
 30
0.0
  3
*D22
  1

  0
LINE
  5
3E9
330
3E6
100
AcDbEntity
  8
LAY-20
  6
CONTINUOUS
 62
     4
100
AcDbLine
 10
557.0
 20
234.50000000001
 30
0.0
 11
557.0
 21
439.5
 31
0.0
  0
LINE
  5
3EA
330
3E6
100
AcDbEntity
  8
LAY-20
  6
CONTINUOUS
 62
     4
100
AcDbLine
 10
373.0
 20
234.50000000001
 30
0.0
 11
373.0
 21
439.5
 31
0.0
  0
LINE
  5
3EB
330
3E6
100
AcDbEntity
  8
LAY-20
  6
CONTINUOUS
 62
     4
100
AcDbLine
 10
549.5
 20
435.0
 30
0.0
 11
380.5
 21
435.0
 31
0.0
  0
INSERT
  5
3EC
330
3E6
100
AcDbEntity
  8
LAY-20
 62
     4
100
AcDbBlockReference
  2
EX_BNORM
 10
557.0
 20
435.0
 30
0.0
 41
7.5
 42
7.5
 43
7.5
  0
INSERT
  5
3ED
330
3E6
100
AcDbEntity
  8
LAY-20
 62
     4
100
AcDbBlockReference
  2
EX_BNORM
 10
373.0
 20
435.0
 30
0.0
 41
7.5
 42
7.5
 43
7.5
 50
180.0
  0
MTEXT
  5
3EE
330
3E6
100
AcDbEntity
  8
LAY-20
 62
     7
100
AcDbMText
 10
465.0
 20
442.5
 30
0.0
 40
9.3543312
 41
0.0
 71
     5
 72
     1
  1
%%c184
  7
EXCADDIM1
  0
POINT
  5
3EF
330
3E6
100
AcDbEntity
  8
DEFPOINTS
 62
     0
100
AcDbPoint
 10
557.0
 20
230.00000000001
 30
0.0
  0
POINT
  5
3F0
330
3E6
100
AcDbEntity
  8
DEFPOINTS
 62
     0
100
AcDbPoint
 10
373.0
 20
230.00000000001
 30
0.0
  0
POINT
  5
3F1
330
3E6
100
AcDbEntity
  8
DEFPOINTS
 62
     0
100
AcDbPoint
 10
373.0
 20
435.0
 30
0.0
  0
ENDBLK
  5
3E8
330
3E6
100
AcDbEntity
  8
0
100
AcDbBlockEnd
  0
ENDSEC
  0
SECTION
  2
ENTITIES
  0
LINE
  5
D4
330
1F
100
AcDbEntity
  8
LAY-10
  6
CONTINUOUS
 62
     7
100
AcDbLine
 10
382.5000000000027
 20
206.7401153701943
 30
0.0
 11
385.0869696660958
 21
209.3270850362874
 31
0.0
  0
LINE
  5
D5
330
1F
100
AcDbEntity
  8
LAY-10
  6
CONTINUOUS
 62
     7
100
AcDbLine
 10
382.5000000000039
 20
203.9116882454494
 30
0.0
 11
387.9153967908445
 21
209.32708503629
 31
0.0
  0
LINE
  5
D6
330
1F
100
AcDbEntity
  8
LAY-10
  6
CONTINUOUS
 62
     7
100
AcDbLine
 10
382.5000000000053
 20
201.0832611207044
 30
0.0
 11
387.9999999999985
 21
206.5832611206976
 31
0.0
  0
LINE
  5
D7
330
1F
100
AcDbEntity
  8
LAY-10
  6
CONTINUOUS
 62
     7
100
AcDbLine
 10
382.5000000000027
 20
198.2548339959557
 30
0.0
 11
387.999999999996
 21
203.7548339959488
 31
0.0
  0
LINE
  5
D8
330
1F
100
AcDbEntity
  8
LAY-10
  6
CONTINUOUS
 62
     7
100
AcDbLine
 10
382.5000000000002
 20
195.4264068712069
 30
0.0
 11
387.9999999999972
 21
200.9264068712041
 31
0.0
  0
LINE
  5
D9
330
1F
100
AcDbEntity
  8
LAY-10
  6
CONTINUOUS
 62
     7
100
AcDbLine
 10
382.5000000000015
 20
192.597979746462
 30
0.0
 11
387.9999999999985
 21
198.0979797464591
 31
0.0
  0
LINE
  5
DA
330
1F
100
AcDbEntity
  8
LAY-10
  6
CONTINUOUS
 62
     7
100
AcDbLine
 10
382.5000000000027
 20
189.7695526217171
 30
0.0
 11
387.9999999999998
 21
195.2695526217141
 31
0.0
  0
LINE
  5
DB
330
1F
100
AcDbEntity
  8
LAY-10
  6
CONTINUOUS
 62
     7
100
AcDbLine
 10
382.500000000004
 20
186.9411254969722
 30
0.0
 11
387.9999999999972
 21
192.4411254969654
 31
0.0
  0
LINE
  5
DC
330
1F
100
AcDbEntity
  8
LAY-10
  6
CONTINUOUS
 62
     7
100
AcDbLine
 10
382.5000000000015
 20
184.1126983722234
 30
0.0
 11
387.9999999999986
 21
189.6126983722204
 31
0.0
  0
LINE
  5
DD
330
1F
100
AcDbEntity
  8
LAY-10
  6
CONTINUOUS
 62
     7
100
AcDbLine
 10
382.5000000000027
 20
181.2842712474784
 30
0.0
 11
387.9999999999998
 21
186.7842712474755
 31
0.0
  0
LINE
  5
DE
330
1F
100
AcDbEntity
  8
LAY-10
  6
CONTINUOUS
 62
     7
100
AcDbLine
 10
382.5000000000041
 20
178.4558441227336
 30
0.0
 11
387.9999999999972
 21
183.9558441227268
 31
0.0
  0
LINE
  5
DF
330
1F
100
AcDbEntity
  8
LAY-10
  6
CONTINUOUS
 62
     7
100
AcDbLine
 10
382.5000000000015
 20
175.6274169979848
 30
0.0
 11
387.9999999999986
 21
181.1274169979818
 31
0.0
  0
LINE
  5
E0
330
1F
100
AcDbEntity
  8
LAY-10
  6
CONTINUOUS
 62
     7
100
AcDbLine
 10
382.5000000000027
 20
172.7989898732398
 30
0.0
 11
387.9999999999999
 21
178.2989898732369
 31
0.0
  0
LINE
  5
E1
330
1F
100
AcDbEntity
  8
LAY-10
  6
CONTINUOUS
 62
     7
100
AcDbLine
 10
382.5000000000041
 20
169.970562748495
 30
0.0
 11
387.9999999999973
 21
175.4705627484881
 31
0.0
  0
LINE
  5
E2
330
1F
100
AcDbEntity
  8
LAY-10
  6
CONTINUOUS
 62
     7
100
AcDbLine
 10
382.5000000000054
 20
167.1421356237501
 30
0.0
 11
387.9999999999986
 21
172.6421356237433
 31
0.0
  0
LINE
  5
E3
330
1F
100
AcDbEntity
  8
LAY-10
  6
CONTINUOUS
 62
     7
100
AcDbLine
 10
382.499999999999
 20
164.3137084989974
 30
0.0
 11
387.9999999999999
 21
169.8137084989984
 31
0.0
  0
LINE
  5
E4
330
1F
100
AcDbEntity
  8
LAY-10
  6
CONTINUOUS
 62
     7
100
AcDbLine
 10
382.5000000000003
 20
161.4852813742525
 30
0.0
 11
388.0000000000011
 21
166.9852813742534
 31
0.0
  0
LINE
  5
E5
330
1F
100
AcDbEntity
  8
LAY-10
  6
CONTINUOUS
 62
     7
100
AcDbLine
 10
382.4999999999977
 20
158.6568542495037
 30
0.0
 11
387.9999999999987
 21
164.1568542495046
 31
0.0
  0
LINE
  5
E6
330
1F
100
AcDbEntity
  8
LAY-10
  6
CONTINUOUS
 62
     7
100
AcDbLine
 10
382.499999999999
 20
155.8284271247588
 30
0.0
 11
387.9999999999999
 21
161.3284271247597
 31
0.0
  0
LINE
  5
E7
330
1F
100
AcDbEntity
  8
LAY-10
  6
CONTINUOUS
 62
     7
100
AcDbLine
 10
382.4999999999964
 20
153.0000000000101
 30
0.0
 11
387.9999999999974
 21
158.500000000011
 31
0.0
  0
LINE
  5
E8
330
1F
100
AcDbEntity
  8
LAY-10
  6
CONTINUOUS
 62
     7
100
AcDbLine
 10
385.3284271247413
 20
153.0000000000087
 30
0.0
 11
387.9999999999948
 21
155.6715728752621
 31
0.0
  0
LINE
  5
E9
330
1F
100
AcDbEntity
  8
LAY-10
  6
CONTINUOUS
 62
     7
100
AcDbLine
 10
541.9999999999989
 20
206.7401153701904
 30
0.0
 11
544.5869696660997
 21
209.3270850362912
 31
0.0
  0
LINE
  5
EA
330
1F
100
AcDbEntity
  8
LAY-10
  6
CONTINUOUS
 62
     7
100
AcDbLine
 10
542.0000000000001
 20
203.9116882454455
 30
0.0
 11
547.4153967908445
 21
209.3270850362899
 31
0.0
  0
LINE
  5
EB
330
1F
100
AcDbEntity
  8
LAY-10
  6
CONTINUOUS
 62
     7
100
AcDbLine
 10
541.9999999999975
 20
201.0832611206967
 30
0.0
 11
547.5000000000024
 21
206.5832611207015
 31
0.0
  0
LINE
  5
EC
330
1F
100
AcDbEntity
  8
LAY-10
  6
CONTINUOUS
 62
     7
100
AcDbLine
 10
541.9999999999989
 20
198.2548339959518
 30
0.0
 11
547.4999999999997
 21
203.7548339959528
 31
0.0
  0
LINE
  5
ED
330
1F
100
AcDbEntity
  8
LAY-10
  6
CONTINUOUS
 62
     7
100
AcDbLine
 10
542.0000000000001
 20
195.4264068712068
 30
0.0
 11
547.4999999999973
 21
200.9264068712039
 31
0.0
  0
LINE
  5
EE
330
1F
100
AcDbEntity
  8
LAY-10
  6
CONTINUOUS
 62
     7
100
AcDbLine
 10
541.9999999999975
 20
192.5979797464581
 30
0.0
 11
547.4999999999985
 21
198.097979746459
 31
0.0
  0
LINE
  5
EF
330
1F
100
AcDbEntity
  8
LAY-10
  6
CONTINUOUS
 62
     7
100
AcDbLine
 10
541.9999999999989
 20
189.7695526217132
 30
0.0
 11
547.4999999999959
 21
195.2695526217102
 31
0.0
  0
LINE
  5
F0
330
1F
100
AcDbEntity
  8
LAY-10
  6
CONTINUOUS
 62
     7
100
AcDbLine
 10
542.0000000000001
 20
186.9411254969683
 30
0.0
 11
547.4999999999973
 21
192.4411254969653
 31
0.0
  0
LINE
  5
F1
330
1F
100
AcDbEntity
  8
LAY-10
  6
CONTINUOUS
 62
     7
100
AcDbLine
 10
541.9999999999976
 20
184.1126983722195
 30
0.0
 11
547.4999999999985
 21
189.6126983722204
 31
0.0
  0
LINE
  5
F2
330
1F
100
AcDbEntity
  8
LAY-10
  6
CONTINUOUS
 62
     7
100
AcDbLine
 10
541.9999999999989
 20
181.2842712474745
 30
0.0
 11
547.4999999999959
 21
186.7842712474717
 31
0.0
  0
LINE
  5
F3
330
1F
100
AcDbEntity
  8
LAY-10
  6
CONTINUOUS
 62
     7
100
AcDbLine
 10
542.0000000000002
 20
178.4558441227296
 30
0.0
 11
547.4999999999973
 21
183.9558441227268
 31
0.0
  0
LINE
  5
F4
330
1F
100
AcDbEntity
  8
LAY-10
  6
CONTINUOUS
 62
     7
100
AcDbLine
 10
542.0000000000015
 20
175.6274169979848
 30
0.0
 11
547.4999999999985
 21
181.1274169979818
 31
0.0
  0
LINE
  5
F5
330
1F
100
AcDbEntity
  8
LAY-10
  6
CONTINUOUS
 62
     7
100
AcDbLine
 10
541.9999999999989
 20
172.798989873236
 30
0.0
 11
547.4999999999999
 21
178.2989898732368
 31
0.0
  0
LINE
  5
F6
330
1F
100
AcDbEntity
  8
LAY-10
  6
CONTINUOUS
 62
     7
100
AcDbLine
 10
542.0000000000002
 20
169.9705627484911
 30
0.0
 11
547.4999999999973
 21
175.4705627484881
 31
0.0
  0
LINE
  5
F7
330
1F
100
AcDbEntity
  8
LAY-10
  6
CONTINUOUS
 62
     7
100
AcDbLine
 10
542.0000000000015
 20
167.1421356237461
 30
0.0
 11
547.4999999999986
 21
172.6421356237432
 31
0.0
  0
LINE
  5
F8
330
1F
100
AcDbEntity
  8
LAY-10
  6
CONTINUOUS
 62
     7
100
AcDbLine
 10
541.9999999999989
 20
164.3137084989974
 30
0.0
 11
547.4999999999999
 21
169.8137084989983
 31
0.0
  0
LINE
  5
F9
330
1F
100
AcDbEntity
  8
LAY-10
  6
CONTINUOUS
 62
     7
100
AcDbLine
 10
542.0000000000002
 20
161.4852813742525
 30
0.0
 11
547.4999999999973
 21
166.9852813742495
 31
0.0
  0
LINE
  5
FA
330
1F
100
AcDbEntity
  8
LAY-10
  6
CONTINUOUS
 62
     7
100
AcDbLine
 10
541.9999999999977
 20
158.6568542495037
 30
0.0
 11
547.4999999999986
 21
164.1568542495046
 31
0.0
  0
LINE
  5
FB
330
1F
100
AcDbEntity
  8
LAY-10
  6
CONTINUOUS
 62
     7
100
AcDbLine
 10
541.9999999999951
 20
155.8284271247549
 30
0.0
 11
547.4999999999999
 21
161.3284271247597
 31
0.0
  0
LINE
  5
FC
330
1F
100
AcDbEntity
  8
LAY-10
  6
CONTINUOUS
 62
     7
100
AcDbLine
 10
541.9999999999926
 20
153.0000000000061
 30
0.0
 11
547.5000000000013
 21
158.5000000000148
 31
0.0
  0
LINE
  5
FD
330
1F
100
AcDbEntity
  8
LAY-10
  6
CONTINUOUS
 62
     7
100
AcDbLine
 10
544.8284271247373
 20
153.0000000000049
 30
0.0
 11
547.4999999999986
 21
155.6715728752661
 31
0.0
  0
LINE
  5
FE
330
1F
100
AcDbEntity
  8
LAY-10
  6
CONTINUOUS
 62
     7
100
AcDbLine
 10
364.6896262955991
 20
231.0735454402219
 30
0.0
 11
357.5000000000016
 21
233.000000000009
 31
0.0
  0
LINE
  5
FF
330
1F
100
AcDbEntity
  8
LAY-10
  6
CONTINUOUS
 62
     7
100
AcDbLine
 10
351.4999999999994
 20
226.0000000000087
 30
0.0
 11
352.4999999999993
 21
233.000000000009
 31
0.0
  0
LINE
  5
100
330
1F
100
AcDbEntity
  8
LAY-10
  6
CONTINUOUS
 62
     7
100
AcDbLine
 10
355.5406101782085
 20
226.0000000000087
 30
0.0
 11
355.6872389158974
 21
227.0264011638311
 31
0.0
  0
LINE
  5
101
330
1F
100
AcDbEntity
  8
LAY-10
  6
CONTINUOUS
 62
     7
100
AcDbLine
 10
358.1847759934247
 20
228.6754101039348
 30
0.0
 11
365.439160806761
 21
226.7316035516165
 31
0.0
  0
ARC
  5
102
330
1F
100
AcDbEntity
  8
LAY-10
  6
CONTINUOUS
 62
     7
100
AcDbCircle
 10
357.6671379032198
 20
226.7435584513563
 30
0.0
 40
2.0
100
AcDbArc
 50
75.00000000000378
 51
171.8698976458388
  0
ARC
  5
103
330
1F
100
AcDbEntity
  8
LAY-10
  6
CONTINUOUS
 62
     7
100
AcDbCircle
 10
364.9215227165562
 20
224.7997518990386
 30
0.0
 40
2.0
100
AcDbArc
 50
2.999999999992558
 51
75.00000000000847
  0
LINE
  5
104
330
1F
100
AcDbEntity
  8
LAY-10
  6
CONTINUOUS
 62
     7
100
AcDbLine
 10
578.4999999999994
 20
226.0000000000087
 30
0.0
 11
577.4999999999993
 21
233.000000000009
 31
0.0
  0
LINE
  5
105
330
1F
100
AcDbEntity
  8
LAY-10
  6
CONTINUOUS
 62
     7
100
AcDbLine
 10
565.3103737043997
 20
231.0735454402219
 30
0.0
 11
572.4999999999974
 21
233.000000000009
 31
0.0
  0
LINE
  5
106
330
1F
100
AcDbEntity
  8
LAY-10
  6
CONTINUOUS
 62
     7
100
AcDbLine
 10
373.5000000000012
 20
217.5000000000369
 30
0.0
 11
378.5000000000007
 21
217.5000000000369
 31
0.0
  0
LINE
  5
107
330
1F
100
AcDbEntity
  8
LAY-10
  6
CONTINUOUS
 62
     7
100
AcDbLine
 10
375.9999999999998
 20
216.0566243270636
 30
0.0
 11
373.5000000000007
 21
217.5000000000369
 31
0.0
  0
LINE
  5
108
330
1F
100
AcDbEntity
  8
LAY-10
  6
CONTINUOUS
 62
     7
100
AcDbLine
 10
375.9999999999998
 20
216.0566243270636
 30
0.0
 11
378.4999999999989
 21
217.5000000000369
 31
0.0
  0
LINE
  5
109
330
1F
100
AcDbEntity
  8
LAY-10
  6
CONTINUOUS
 62
     7
100
AcDbLine
 10
366.918781786065
 20
224.9044238115243
 30
0.0
 11
367.3650123821879
 21
216.3898368126573
 31
0.0
  0
LINE
  5
10A
330
1F
100
AcDbEntity
  8
LAY-10
  6
CONTINUOUS
 62
     7
100
AcDbLine
 10
577.4999999999993
 20
215.000000000009
 30
0.0
 11
578.4999999999994
 21
226.0000000000087
 31
0.0
  0
LINE
  5
10B
330
1F
100
AcDbEntity
  8
LAY-10
  6
CONTINUOUS
 62
     7
100
AcDbLine
 10
562.3961997615678
 20
215.000000000009
 30
0.0
 11
577.4999999999993
 21
215.000000000009
 31
0.0
  0
ARC
  5
10C
330
1F
100
AcDbEntity
  8
LAY-10
  6
CONTINUOUS
 62
     7
100
AcDbCircle
 10
367.1369555539143
 20
232.0000000000087
 30
0.0
 40
1.0
100
AcDbArc
 50
90.0
 51
154.9906497524194
  0
ARC
  5
10D
330
1F
100
AcDbEntity
  8
LAY-10
  6
CONTINUOUS
 62
     7
100
AcDbCircle
 10
369.5510354332866
 20
232.0000000000087
 30
0.0
 40
1.0
100
AcDbArc
 50
3.000000000021836
 51
90.0
  0
ARC
  5
10E
330
1F
100
AcDbEntity
  8
LAY-10
  6
CONTINUOUS
 62
     7
100
AcDbCircle
 10
562.8630444460848
 20
232.0000000000087
 30
0.0
 40
1.0
100
AcDbArc
 50
25.00935024761272
 51
90.0
  0
ARC
  5
10F
330
1F
100
AcDbEntity
  8
LAY-10
  6
CONTINUOUS
 62
     7
100
AcDbCircle
 10
560.4489645667123
 20
232.0000000000087
 30
0.0
 40
1.0
100
AcDbArc
 50
90.0
 51
176.999999999978
  0
LINE
  5
110
330
1F
100
AcDbEntity
  8
LAY-10
  6
CONTINUOUS
 62
     7
100
AcDbLine
 10
564.145315852504
 20
231.6167051076687
 30
0.0
 11
563.7692832528779
 21
232.422766158851
 31
0.0
  0
ARC
  5
111
330
1F
100
AcDbEntity
  8
LAY-10
  6
CONTINUOUS
 62
     7
100
AcDbCircle
 10
565.0515546592972
 20
232.039471266511
 30
0.0
 40
1.0
100
AcDbArc
 50
205.0093502475485
 51
285.0000000000012
  0
LINE
  5
112
330
1F
100
AcDbEntity
  8
LAY-10
  6
CONTINUOUS
 62
     7
100
AcDbLine
 10
365.8546841474948
 20
231.6167051076687
 30
0.0
 11
366.2307167471211
 21
232.422766158851
 31
0.0
  0
ARC
  5
113
330
1F
100
AcDbEntity
  8
LAY-10
  6
CONTINUOUS
 62
     7
100
AcDbCircle
 10
364.9484453407015
 20
232.039471266511
 30
0.0
 40
1.0
100
AcDbArc
 50
255.0000000000092
 51
334.9906497524515
  0
LINE
  5
114
330
1F
100
AcDbEntity
  8
LAY-10
  6
CONTINUOUS
 62
     7
100
AcDbLine
 10
405.4999999999989
 20
167.9562556682477
 30
0.0
 11
524.5000000000001
 21
167.9562556682477
 31
0.0
  0
LINE
  5
115
330
1F
100
AcDbEntity
  8
LAY-10
  6
CONTINUOUS
 62
     7
100
AcDbLine
 10
557.1661448657691
 20
210.7266843615647
 30
0.0
 11
542.365978839334
 21
209.4318376159502
 31
0.0
  0
ARC
  5
116
330
1F
100
AcDbEntity
  8
LAY-10
  6
CONTINUOUS
 62
     7
100
AcDbCircle
 10
556.6432104092831
 20
216.7038525501154
 30
0.0
 40
6.000000000000004
100
AcDbArc
 50
274.9999999999998
 51
343.5023854488518
  0
ARC
  5
117
330
1F
100
AcDbEntity
  8
LAY-10
  6
CONTINUOUS
 62
     7
100
AcDbCircle
 10
373.3567895907157
 20
216.7038525501154
 30
0.0
 40
6.000000000000004
100
AcDbArc
 50
182.9999999999991
 51
265.0000000000002
  0
LINE
  5
118
330
1F
100
AcDbEntity
  8
LAY-10
  6
CONTINUOUS
 62
     7
100
AcDbLine
 10
372.4178106895853
 20
230.3603353795553
 30
0.0
 11
372.2303788263392
 21
232.1067132172788
 31
0.0
  0
LINE
  5
119
330
1F
100
AcDbEntity
  8
LAY-10
  6
CONTINUOUS
 62
     7
100
AcDbLine
 10
402.9038681389513
 20
230.2832659961206
 30
0.0
 11
403.1904798156784
 21
231.8162173993045
 31
0.0
  0
ARC
  5
11A
330
1F
100
AcDbEntity
  8
LAY-10
  6
CONTINUOUS
 62
     7
100
AcDbCircle
 10
444.9707059846924
 20
231.8564064605594
 30
0.0
 40
1.0
100
AcDbArc
 50
270.0
 51
330.6973153477288
  0
ARC
  5
11B
330
1F
100
AcDbEntity
  8
LAY-10
  6
CONTINUOUS
 62
     7
100
AcDbCircle
 10
497.0254143757728
 20
232.0000000000087
 30
0.0
 40
1.0
100
AcDbArc
 50
90.0
 51
163.6011974568059
  0
ARC
  5
11C
330
1F
100
AcDbEntity
  8
LAY-10
  6
CONTINUOUS
 62
     7
100
AcDbCircle
 10
558.7639110153358
 20
232.0000000000087
 30
0.0
 40
1.0
100
AcDbArc
 50
90.0
 51
173.8741186700305
  0
ARC
  5
11D
330
1F
100
AcDbEntity
  8
LAY-10
  6
CONTINUOUS
 62
     7
100
AcDbCircle
 10
557.2474445645114
 20
232.0000000000087
 30
0.0
 40
1.0
100
AcDbArc
 50
40.69131046148091
 51
90.0
  0
ARC
  5
11E
330
1F
100
AcDbEntity
  8
LAY-10
  6
CONTINUOUS
 62
     7
100
AcDbCircle
 10
555.2209144596158
 20
232.0000000000087
 30
0.0
 40
1.0
100
AcDbArc
 50
90.0
 51
182.632654169153
  0
LINE
  5
11F
330
1F
100
AcDbEntity
  8
LAY-10
  6
CONTINUOUS
 62
     7
100
AcDbLine
 10
557.5821893104138
 20
230.3603353795553
 30
0.0
 11
557.76962117366
 21
232.1067132172788
 31
0.0
  0
LINE
  5
120
330
1F
100
AcDbEntity
  8
LAY-10
  6
CONTINUOUS
 62
     7
100
AcDbLine
 10
554.2924563095372
 20
230.4211162800233
 30
0.0
 11
554.221969905462
 21
231.954067683207
 31
0.0
  0
LINE
  5
121
330
1F
100
AcDbEntity
  8
LAY-10
  6
CONTINUOUS
 62
     7
100
AcDbLine
 10
536.8129251166293
 20
202.9476640437607
 30
0.0
 11
536.5541954691994
 21
207.8845198115415
 31
0.0
  0
LINE
  5
122
330
1F
100
AcDbEntity
  8
LAY-10
  6
CONTINUOUS
 62
     7
100
AcDbLine
 10
541.1641494505402
 20
202.9476640437607
 30
0.0
 11
541.4545050473272
 21
208.4879788741015
 31
0.0
  0
ARC
  5
123
330
1F
100
AcDbEntity
  8
LAY-10
  6
CONTINUOUS
 62
     7
100
AcDbCircle
 10
535.5555659344446
 20
207.8321838552987
 30
0.0
 40
1.0
100
AcDbArc
 50
2.999999999992387
 51
94.99999999999312
  0
ARC
  5
124
330
1F
100
AcDbEntity
  8
LAY-10
  6
CONTINUOUS
 62
     7
100
AcDbCircle
 10
542.4531345820818
 20
208.4356429178587
 30
0.0
 40
1.0
100
AcDbArc
 50
95.00000000000654
 51
177.0000000000076
  0
ARC
  5
125
330
1F
100
AcDbEntity
  8
LAY-10
  6
CONTINUOUS
 62
     7
100
AcDbCircle
 10
537.811554651384
 20
203.0000000000036
 30
0.0
 40
1.0
100
AcDbArc
 50
182.9999999999925
 51
270.0
  0
ARC
  5
126
330
1F
100
AcDbEntity
  8
LAY-10
  6
CONTINUOUS
 62
     7
100
AcDbCircle
 10
540.1655199157856
 20
203.0000000000036
 30
0.0
 40
1.0
100
AcDbArc
 50
270.0
 51
357.0000000000076
  0
LINE
  5
127
330
1F
100
AcDbEntity
  8
LAY-10
  6
CONTINUOUS
 62
     7
100
AcDbLine
 10
351.4999999999994
 20
226.0000000000087
 30
0.0
 11
366.5213366107694
 21
226.0000000000087
 31
0.0
  0
LINE
  5
128
330
1F
100
AcDbEntity
  8
LAY-10
  6
CONTINUOUS
 62
     7
100
AcDbLine
 10
373.5000000000012
 20
218.5000000000365
 30
0.0
 11
378.5000000000007
 21
218.5000000000365
 31
0.0
  0
LINE
  5
129
330
1F
100
AcDbEntity
  8
LAY-10
  6
CONTINUOUS
 62
     7
100
AcDbLine
 10
372.9999999999998
 20
219.0000000000369
 30
0.0
 11
378.9999999999994
 21
219.0000000000369
 31
0.0
  0
LINE
  5
12A
330
1F
100
AcDbEntity
  8
LAY-10
  6
CONTINUOUS
 62
     7
100
AcDbLine
 10
541.9999999999995
 20
209.3270850362944
 30
0.0
 11
541.9999999999993
 21
153.000000000009
 31
0.0
  0
LINE
  5
12B
330
1F
100
AcDbEntity
  8
LAY-10
  6
CONTINUOUS
 62
     7
100
AcDbLine
 10
541.9999999999961
 20
209.32708503629
 30
0.0
 11
547.4999999999995
 21
209.32708503629
 31
0.0
  0
LINE
  5
12C
330
1F
100
AcDbEntity
  8
LAY-10
  6
CONTINUOUS
 62
     7
100
AcDbLine
 10
547.4999999999995
 20
209.32708503629
 30
0.0
 11
547.4999999999993
 21
153.000000000009
 31
0.0
  0
LINE
  5
12D
330
1F
100
AcDbEntity
  8
LAY-10
  6
CONTINUOUS
 62
     7
100
AcDbLine
 10
387.9999999999996
 20
209.3270850362944
 30
0.0
 11
387.9999999999998
 21
153.000000000009
 31
0.0
  0
LINE
  5
12E
330
1F
100
AcDbEntity
  8
LAY-10
  6
CONTINUOUS
 62
     7
100
AcDbLine
 10
382.4999999999997
 20
209.32708503629
 30
0.0
 11
382.4999999999998
 21
153.000000000009
 31
0.0
  0
LINE
  5
12F
330
1F
100
AcDbEntity
  8
LAY-10
  6
CONTINUOUS
 62
     7
100
AcDbLine
 10
388.000000000003
 20
209.32708503629
 30
0.0
 11
382.4999999999997
 21
209.32708503629
 31
0.0
  0
LINE
  5
130
330
1F
100
AcDbEntity
  8
LAY-10
  6
CONTINUOUS
 62
     7
100
AcDbLine
 10
382.4999999999998
 20
153.000000000009
 30
0.0
 11
547.4999999999961
 21
153.000000000009
 31
0.0
  0
ARC
  5
131
330
1F
100
AcDbEntity
  8
LAY-10
  6
CONTINUOUS
 62
     7
100
AcDbCircle
 10
402.2075129008342
 20
232.0000000000087
 30
0.0
 40
1.0
100
AcDbArc
 50
349.409836356263
 51
54.23487906531199
  0
ARC
  5
132
330
1F
100
AcDbEntity
  8
LAY-10
  6
CONTINUOUS
 62
     7
100
AcDbCircle
 10
401.9209012241075
 20
230.4670485968249
 30
0.0
 40
1.0
100
AcDbArc
 50
332.1571155135704
 51
349.409836356263
  0
LINE
  5
133
330
1F
100
AcDbEntity
  8
LAY-10
  6
CONTINUOUS
 62
     7
100
AcDbLine
 10
402.8204357840913
 20
233.000000000009
 30
0.0
 11
405.7492636611582
 21
233.000000000009
 31
0.0
  0
LINE
  5
134
330
1F
100
AcDbEntity
  8
LAY-10
  6
CONTINUOUS
 62
     7
100
AcDbLine
 10
416.4961796637324
 20
233.000000000009
 30
0.0
 11
423.6131517996005
 21
233.000000000009
 31
0.0
  0
LINE
  5
135
330
1F
100
AcDbEntity
  8
LAY-10
  6
CONTINUOUS
 62
     7
100
AcDbLine
 10
435.8714406879649
 20
230.8564064605595
 30
0.0
 11
444.9707059846924
 21
230.8564064605595
 31
0.0
  0
LINE
  5
136
330
1F
100
AcDbEntity
  8
LAY-10
  6
CONTINUOUS
 62
     7
100
AcDbLine
 10
445.8427523256523
 20
231.3669831476513
 30
0.0
 11
446.1708177582263
 21
231.9515246938466
 31
0.0
  0
LINE
  5
137
330
1F
100
AcDbEntity
  8
LAY-10
  6
CONTINUOUS
 62
     7
100
AcDbLine
 10
436.0222001160764
 20
233.000000000009
 30
0.0
 11
446.2160699735523
 21
233.000000000009
 31
0.0
  0
LINE
  5
138
330
1F
100
AcDbEntity
  8
LAY-10
  6
CONTINUOUS
 62
     7
100
AcDbLine
 10
459.0433709011999
 20
233.000000000009
 30
0.0
 11
464.9999999999995
 21
233.000000000009
 31
0.0
  0
LINE
  5
139
330
1F
100
AcDbEntity
  8
LAY-10
  6
CONTINUOUS
 62
     7
100
AcDbLine
 10
471.3367481314797
 20
233.000000000009
 30
0.0
 11
482.6685202216215
 21
233.000000000009
 31
0.0
  0
LINE
  5
13A
330
1F
100
AcDbEntity
  8
LAY-10
  6
CONTINUOUS
 62
     7
100
AcDbLine
 10
495.8015462476416
 20
231.3833941910833
 30
0.0
 11
496.0660945006291
 21
232.2823214075462
 31
0.0
  0
LINE
  5
13B
330
1F
100
AcDbEntity
  8
LAY-10
  6
CONTINUOUS
 62
     7
100
AcDbLine
 10
495.6275870269137
 20
233.000000000009
 30
0.0
 11
504.1872892595969
 21
233.000000000009
 31
0.0
  0
LINE
  5
13C
330
1F
100
AcDbEntity
  8
LAY-10
  6
CONTINUOUS
 62
     7
100
AcDbLine
 10
516.224286911864
 20
233.000000000009
 30
0.0
 11
520.979492870069
 21
233.000000000009
 31
0.0
  0
ARC
  5
13D
330
1F
100
AcDbEntity
  8
LAY-10
  6
CONTINUOUS
 62
     7
100
AcDbCircle
 10
531.1637169303507
 20
231.8564064605594
 30
0.0
 40
1.0
100
AcDbArc
 50
268.4619511188109
 51
270.0
  0
LINE
  5
13E
330
1F
100
AcDbEntity
  8
LAY-10
  6
CONTINUOUS
 62
     7
100
AcDbLine
 10
531.5465064722632
 20
230.8564064605595
 30
0.0
 11
531.1637169303507
 21
230.8564064605595
 31
0.0
  0
LINE
  5
13F
330
1F
100
AcDbEntity
  8
LAY-10
  6
CONTINUOUS
 62
     7
100
AcDbLine
 10
530.6425818052825
 20
233.000000000009
 30
0.0
 11
531.0197434710794
 21
233.000000000009
 31
0.0
  0
LINE
  5
140
330
1F
100
AcDbEntity
  8
LAY-10
  6
CONTINUOUS
 62
     7
100
AcDbLine
 10
537.6510906018747
 20
233.000000000009
 30
0.0
 11
577.4999999999993
 21
233.000000000009
 31
0.0
  0
ARC
  5
141
330
1F
100
AcDbEntity
  8
LAY-10
  6
CONTINUOUS
 62
     7
100
AcDbCircle
 10
555.291400863691
 20
230.4670485968249
 30
0.0
 40
1.0
100
AcDbArc
 50
182.6326541691432
 51
207.8428844864312
  0
ARC
  5
142
330
1F
100
AcDbEntity
  8
LAY-10
  6
CONTINUOUS
 62
     7
100
AcDbCircle
 10
374.2499999999994
 20
232.3857492994082
 30
0.0
 40
3.500000000000001
100
AcDbArc
 50
128.6821874534945
 51
178.1293582694076
  0
ARC
  5
143
330
1F
100
AcDbEntity
  8
LAY-10
  6
CONTINUOUS
 62
     7
100
AcDbCircle
 10
377.7499999999993
 20
232.3857492994082
 30
0.0
 40
3.500000000000001
100
AcDbArc
 50
1.870641730603566
 51
51.31781254650088
  0
LINE
  5
144
330
1F
100
AcDbEntity
  8
LAY-10
  6
CONTINUOUS
 62
     7
100
AcDbLine
 10
376.5999999999993
 20
236.4713634881085
 30
0.0
 11
376.5999999999993
 21
234.0000000000085
 31
0.0
  0
LINE
  5
145
330
1F
100
AcDbEntity
  8
LAY-10
  6
CONTINUOUS
 62
     7
100
AcDbLine
 10
376.5999999999993
 20
234.0000000000085
 30
0.0
 11
375.3999999999994
 21
234.0000000000085
 31
0.0
  0
LINE
  5
146
330
1F
100
AcDbEntity
  8
LAY-10
  6
CONTINUOUS
 62
     7
100
AcDbLine
 10
375.3999999999994
 20
236.4713634881085
 30
0.0
 11
375.3999999999994
 21
234.0000000000085
 31
0.0
  0
ARC
  5
147
330
1F
100
AcDbEntity
  8
LAY-10
  6
CONTINUOUS
 62
     7
100
AcDbCircle
 10
375.9999999999992
 20
230.2000000000086
 30
0.0
 40
6.300000000000002
100
AcDbArc
 50
51.3178125464967
 51
84.53497620009911
  0
ARC
  5
148
330
1F
100
AcDbEntity
  8
LAY-10
  6
CONTINUOUS
 62
     7
100
AcDbCircle
 10
375.9999999999992
 20
230.2000000000086
 30
0.0
 40
6.300000000000002
100
AcDbArc
 50
95.46502379991026
 51
128.6821874534947
  0
LINE
  5
149
330
1F
100
AcDbEntity
  8
LAY-10
  6
CONTINUOUS
 62
     7
100
AcDbLine
 10
373.4999999999994
 20
220.5000000000106
 30
0.0
 11
372.9999999999992
 21
221.0000000000106
 31
0.0
  0
LINE
  5
14A
330
1F
100
AcDbEntity
  8
LAY-10
  6
CONTINUOUS
 62
     7
100
AcDbLine
 10
378.4999999999993
 20
220.5000000000106
 30
0.0
 11
378.9999999999992
 21
221.0000000000106
 31
0.0
  0
LINE
  5
14B
330
1F
100
AcDbEntity
  8
LAY-10
  6
CONTINUOUS
 62
     7
100
AcDbLine
 10
372.9999999999992
 20
232.5000000000085
 30
0.0
 11
372.9999999999992
 21
221.0000000000106
 31
0.0
  0
LINE
  5
14C
330
1F
100
AcDbEntity
  8
LAY-10
  6
CONTINUOUS
 62
     7
100
AcDbLine
 10
373.4999999999994
 20
220.5000000000106
 30
0.0
 11
378.4999999999993
 21
220.5000000000106
 31
0.0
  0
LINE
  5
14D
330
1F
100
AcDbEntity
  8
LAY-10
  6
CONTINUOUS
 62
     7
100
AcDbLine
 10
378.9999999999992
 20
232.5000000000085
 30
0.0
 11
378.9999999999992
 21
221.0000000000106
 31
0.0
  0
LINE
  5
14E
330
1F
100
AcDbEntity
  8
LAY-10
  6
CONTINUOUS
 62
     7
100
AcDbLine
 10
378.9999999999992
 20
221.0000000000106
 30
0.0
 11
372.9999999999992
 21
221.0000000000106
 31
0.0
  0
ARC
  5
14F
330
1F
100
AcDbEntity
  8
LAY-10
  6
CONTINUOUS
 62
     7
100
AcDbCircle
 10
371.2360889846634
 20
232.0000000000087
 30
0.0
 40
1.0
100
AcDbArc
 50
6.125881329969961
 51
29.99999999998156
  0
ARC
  5
150
330
1F
100
AcDbEntity
  8
LAY-10
  6
CONTINUOUS
 62
     7
100
AcDbCircle
 10
373.4121005312615
 20
230.4670485968249
 30
0.0
 40
1.0
100
AcDbArc
 50
186.1258813299405
 51
245.6631446359596
  0
LINE
  5
151
330
1F
100
AcDbEntity
  8
LAY-10
  6
CONTINUOUS
 62
     7
100
AcDbLine
 10
352.4999999999993
 20
233.000000000009
 30
0.0
 11
370.8043221165037
 21
233.000000000009
 31
0.0
  0
LINE
  5
152
330
1F
100
AcDbEntity
  8
LAY-10
  6
CONTINUOUS
 62
     7
100
AcDbLine
 10
381.195677883495
 20
233.000000000009
 30
0.0
 11
392.3489093981241
 21
233.000000000009
 31
0.0
  0
LINE
  5
153
330
1F
100
AcDbEntity
  8
LAY-10
  6
CONTINUOUS
 62
     7
100
AcDbLine
 10
373.5000000000012
 20
217.5000000000369
 30
0.0
 11
373.5000000000012
 21
220.500000000009
 31
0.0
  0
LINE
  5
154
330
1F
100
AcDbEntity
  8
LAY-10
  6
CONTINUOUS
 62
     7
100
AcDbLine
 10
378.5000000000007
 20
217.5000000000369
 30
0.0
 11
378.5000000000007
 21
220.500000000012
 31
0.0
  0
LINE
  5
155
330
1F
100
AcDbEntity
  8
LAY-10
  6
CONTINUOUS
 62
     7
100
AcDbLine
 10
370.9192622342659
 20
225.0000000000088
 30
0.0
 11
373.4999999999994
 21
225.0000000000088
 31
0.0
  0
LINE
  5
156
330
1F
100
AcDbEntity
  8
LAY-10
  6
CONTINUOUS
 62
     7
100
AcDbLine
 10
559.0807377657329
 20
225.0000000000088
 30
0.0
 11
559.4503350319576
 21
232.0523359562517
 31
0.0
  0
LINE
  5
157
330
1F
100
AcDbEntity
  8
LAY-10
  6
CONTINUOUS
 62
     7
100
AcDbLine
 10
370.9192622342659
 20
225.0000000000088
 30
0.0
 11
370.5496649680411
 21
232.0523359562517
 31
0.0
  0
LINE
  5
158
330
1F
100
AcDbEntity
  8
LAY-10
  6
CONTINUOUS
 62
     7
100
AcDbLine
 10
559.0807377657329
 20
225.0000000000088
 30
0.0
 11
378.4999999999993
 21
225.0000000000088
 31
0.0
  0
LINE
  5
159
330
1F
100
AcDbEntity
  8
LAY-10
  6
CONTINUOUS
 62
     7
100
AcDbLine
 10
571.9999999999924
 20
223.0000000000137
 30
0.0
 11
571.9999999999924
 21
224.0000000000119
 31
0.0
  0
LINE
  5
15A
330
1F
100
AcDbEntity
  8
LAY-10
  6
CONTINUOUS
 62
     7
100
AcDbLine
 10
566.9999999999931
 20
223.0000000000137
 30
0.0
 11
566.9999999999931
 21
224.000000000013
 31
0.0
  0
LINE
  5
15B
330
1F
100
AcDbEntity
  8
LAY-10
  6
CONTINUOUS
 62
     7
100
AcDbLine
 10
566.9999999999931
 20
224.000000000013
 30
0.0
 11
571.9999999999924
 21
224.000000000013
 31
0.0
  0
LINE
  5
15C
330
1F
100
AcDbEntity
  8
LAY-10
  6
CONTINUOUS
 62
     7
100
AcDbLine
 10
566.4999999999899
 20
222.500000000013
 30
0.0
 11
572.4999999999899
 21
222.500000000013
 31
0.0
  0
LINE
  5
15D
330
1F
100
AcDbEntity
  8
LAY-10
  6
CONTINUOUS
 62
     7
100
AcDbLine
 10
566.9999999999899
 20
223.0000000000137
 30
0.0
 11
571.9999999999899
 21
223.0000000000137
 31
0.0
  0
LINE
  5
15E
330
1F
100
AcDbEntity
  8
LAY-10
  6
CONTINUOUS
 62
     7
100
AcDbLine
 10
569.4999999999901
 20
225.4433756729887
 30
0.0
 11
571.999999999991
 21
224.000000000014
 31
0.0
  0
LINE
  5
15F
330
1F
100
AcDbEntity
  8
LAY-10
  6
CONTINUOUS
 62
     7
100
AcDbLine
 10
569.4999999999897
 20
225.4433756729885
 30
0.0
 11
566.9999999999892
 21
224.000000000014
 31
0.0
  0
LINE
  5
160
330
1F
100
AcDbEntity
  8
LAY-10
  6
CONTINUOUS
 62
     7
100
AcDbLine
 10
583.9999999999894
 20
193.0000000000224
 30
0.0
 11
583.9999999999894
 21
198.0000000000223
 31
0.0
  0
LINE
  5
161
330
1F
100
AcDbEntity
  8
LAY-10
  6
CONTINUOUS
 62
     7
100
AcDbLine
 10
573.999999999989
 20
198.0000000000223
 30
0.0
 11
583.9999999999894
 21
198.0000000000223
 31
0.0
  0
ARC
  5
162
330
1F
100
AcDbEntity
  8
LAY-10
  6
CONTINUOUS
 62
     7
100
AcDbCircle
 10
573.999999999989
 20
200.0000000000223
 30
0.0
 40
2.0
100
AcDbArc
 50
180.0
 51
270.0000000000002
  0
LINE
  5
163
330
1F
100
AcDbEntity
  8
LAY-10
  6
CONTINUOUS
 62
     7
100
AcDbLine
 10
573.999999999989
 20
193.0000000000224
 30
0.0
 11
583.9999999999894
 21
193.0000000000224
 31
0.0
  0
ARC
  5
164
330
1F
100
AcDbEntity
  8
LAY-10
  6
CONTINUOUS
 62
     7
100
AcDbCircle
 10
573.999999999989
 20
200.0000000000223
 30
0.0
 40
7.000000000000004
100
AcDbArc
 50
180.0
 51
270.0000000000002
  0
LINE
  5
165
330
1F
100
AcDbEntity
  8
LAY-10
  6
CONTINUOUS
 62
     7
100
AcDbLine
 10
571.9999999999899
 20
200.0000000000179
 30
0.0
 11
571.9999999999899
 21
215.0000000000176
 31
0.0
  0
LINE
  5
166
330
1F
100
AcDbEntity
  8
LAY-10
  6
CONTINUOUS
 62
     7
100
AcDbLine
 10
566.9999999999899
 20
200.0000000000179
 30
0.0
 11
566.9999999999899
 21
215.0000000000176
 31
0.0
  0
LINE
  5
167
330
1F
100
AcDbEntity
  8
LAY-10
  6
CONTINUOUS
 62
     7
100
AcDbLine
 10
566.9999999999931
 20
221.0000000000225
 30
0.0
 11
571.9999999999924
 21
221.0000000000225
 31
0.0
  0
LINE
  5
168
330
1F
100
AcDbEntity
  8
LAY-10
  6
CONTINUOUS
 62
     7
100
AcDbLine
 10
566.4999999999917
 20
220.500000000024
 30
0.0
 11
572.4999999999908
 21
220.500000000024
 31
0.0
  0
LINE
  5
169
330
1F
100
AcDbEntity
  8
LAY-10
  6
CONTINUOUS
 62
     7
100
AcDbLine
 10
571.9999999999924
 20
223.0000000000137
 30
0.0
 11
571.9999999999924
 21
221.0000000000225
 31
0.0
  0
LINE
  5
16A
330
1F
100
AcDbEntity
  8
LAY-10
  6
CONTINUOUS
 62
     7
100
AcDbLine
 10
566.9999999999931
 20
223.0000000000137
 30
0.0
 11
566.9999999999931
 21
221.0000000000225
 31
0.0
  0
LINE
  5
16B
330
1F
100
AcDbEntity
  8
LAY-10
  6
CONTINUOUS
 62
     7
100
AcDbLine
 10
572.4999999999899
 20
220.5000000000279
 30
0.0
 11
571.9999999999899
 21
221.0000000000179
 31
0.0
  0
LINE
  5
16C
330
1F
100
AcDbEntity
  8
LAY-10
  6
CONTINUOUS
 62
     7
100
AcDbLine
 10
566.9999999999899
 20
221.0000000000179
 30
0.0
 11
566.4999999999899
 21
220.5000000000279
 31
0.0
  0
LINE
  5
16D
330
1F
100
AcDbEntity
  8
LAY-10
  6
CONTINUOUS
 62
     7
100
AcDbLine
 10
566.4999999999899
 20
220.5000000000279
 30
0.0
 11
566.4999999999899
 21
215.0000000000179
 31
0.0
  0
LINE
  5
16E
330
1F
100
AcDbEntity
  8
LAY-10
  6
CONTINUOUS
 62
     7
100
AcDbLine
 10
572.4999999999899
 20
220.5000000000279
 30
0.0
 11
572.4999999999899
 21
215.0000000000179
 31
0.0
  0
CIRCLE
  5
16F
330
1F
100
AcDbEntity
  8
LAY-10
  6
CONTINUOUS
 62
     7
100
AcDbCircle
 10
464.9999999999995
 20
635.9999999999906
 30
0.0
 40
113.5000000000001
  0
LINE
  5
170
330
1F
100
AcDbEntity
  8
LAY-10
  6
CONTINUOUS
 62
     7
100
AcDbLine
 10
372.1345058700501
 20
653.4999999999903
 30
0.0
 11
372.5136836458744
 21
654.481651369354
 31
0.0
  0
LINE
  5
171
330
1F
100
AcDbEntity
  8
LAY-10
  6
CONTINUOUS
 62
     7
100
AcDbLine
 10
368.2036913037034
 20
654.240740740731
 30
0.0
 11
367.4182978890995
 21
655.4438014065796
 31
0.0
  0
LINE
  5
172
330
1F
100
AcDbEntity
  8
LAY-10
  6
CONTINUOUS
 62
     7
100
AcDbLine
 10
367.4182978890997
 20
655.4438014065796
 30
0.0
 11
372.5136836458744
 21
654.481651369354
 31
0.0
  0
LINE
  5
173
330
1F
100
AcDbEntity
  8
LAY-10
  6
CONTINUOUS
 62
     7
100
AcDbLine
 10
372.1345058700501
 20
618.4999999999901
 30
0.0
 11
372.5136836458744
 21
617.5183486306265
 31
0.0
  0
LINE
  5
174
330
1F
100
AcDbEntity
  8
LAY-10
  6
CONTINUOUS
 62
     7
100
AcDbLine
 10
368.2036913037034
 20
617.7592592592495
 30
0.0
 11
367.4182978890995
 21
616.556198593401
 31
0.0
  0
LINE
  5
175
330
1F
100
AcDbEntity
  8
LAY-10
  6
CONTINUOUS
 62
     7
100
AcDbLine
 10
367.4182978890997
 20
616.556198593401
 30
0.0
 11
372.5136836458744
 21
617.5183486306265
 31
0.0
  0
ARC
  5
176
330
1F
100
AcDbEntity
  8
LAY-10
  6
CONTINUOUS
 62
     7
100
AcDbCircle
 10
464.9999999999995
 20
635.9999999999906
 30
0.0
 40
99.49999999999665
100
AcDbArc
 50
168.7310270193871
 51
191.2689729806133
  0
LINE
  5
177
330
1F
100
AcDbEntity
  8
LAY-10
  6
CONTINUOUS
 62
     7
100
AcDbLine
 10
375.8261229484685
 20
604.7226975012433
 30
0.0
 11
375.6636748502013
 21
605.7624214126839
 31
0.0
  0
LINE
  5
178
330
1F
100
AcDbEntity
  8
LAY-10
  6
CONTINUOUS
 62
     7
100
AcDbLine
 10
372.0515673060762
 20
603.3987905171695
 30
0.0
 11
370.7698663241397
 21
604.0479749087865
 31
0.0
  0
LINE
  5
179
330
1F
100
AcDbEntity
  8
LAY-10
  6
CONTINUOUS
 62
     7
100
AcDbLine
 10
370.7698663241399
 20
604.0479749087865
 30
0.0
 11
375.6636748502013
 21
605.7624214126839
 31
0.0
  0
LINE
  5
17A
330
1F
100
AcDbEntity
  8
LAY-10
  6
CONTINUOUS
 62
     7
100
AcDbLine
 10
393.3261229484686
 20
574.4118083687878
 30
0.0
 11
394.1453262195649
 21
573.7512622331714
 31
0.0
  0
LINE
  5
17B
330
1F
100
AcDbEntity
  8
LAY-10
  6
CONTINUOUS
 62
     7
100
AcDbLine
 10
390.2923080468169
 20
571.8049007865148
 30
0.0
 11
390.2136677307292
 21
570.3703229802942
 31
0.0
  0
LINE
  5
17C
330
1F
100
AcDbEntity
  8
LAY-10
  6
CONTINUOUS
 62
     7
100
AcDbLine
 10
390.2136677307292
 20
570.3703229802942
 30
0.0
 11
394.1453262195649
 21
573.7512622331714
 31
0.0
  0
ARC
  5
17D
330
1F
100
AcDbEntity
  8
LAY-10
  6
CONTINUOUS
 62
     7
100
AcDbCircle
 10
464.9999999999993
 20
635.9999999999906
 30
0.0
 40
99.49999999999665
100
AcDbArc
 50
198.7310270193872
 51
221.2689729806133
  0
LINE
  5
17E
330
1F
100
AcDbEntity
  8
LAY-10
  6
CONTINUOUS
 62
     7
100
AcDbLine
 10
403.411808368797
 20
564.3261229484593
 30
0.0
 11
402.7512622331806
 21
565.1453262195556
 31
0.0
  0
LINE
  5
17F
330
1F
100
AcDbEntity
  8
LAY-10
  6
CONTINUOUS
 62
     7
100
AcDbLine
 10
400.8049007865241
 20
561.2923080468075
 30
0.0
 11
399.3703229803035
 21
561.21366773072
 31
0.0
  0
LINE
  5
180
330
1F
100
AcDbEntity
  8
LAY-10
  6
CONTINUOUS
 62
     7
100
AcDbLine
 10
399.3703229803035
 20
561.21366773072
 30
0.0
 11
402.7512622331806
 21
565.1453262195556
 31
0.0
  0
LINE
  5
181
330
1F
100
AcDbEntity
  8
LAY-10
  6
CONTINUOUS
 62
     7
100
AcDbLine
 10
433.7226975012525
 20
546.8261229484594
 30
0.0
 11
434.7624214126934
 21
546.663674850192
 31
0.0
  0
LINE
  5
182
330
1F
100
AcDbEntity
  8
LAY-10
  6
CONTINUOUS
 62
     7
100
AcDbLine
 10
432.3987905171787
 20
543.0515673060669
 30
0.0
 11
433.0479749087955
 21
541.7698663241305
 31
0.0
  0
LINE
  5
183
330
1F
100
AcDbEntity
  8
LAY-10
  6
CONTINUOUS
 62
     7
100
AcDbLine
 10
433.0479749087955
 20
541.7698663241305
 30
0.0
 11
434.7624214126934
 21
546.663674850192
 31
0.0
  0
ARC
  5
184
330
1F
100
AcDbEntity
  8
LAY-10
  6
CONTINUOUS
 62
     7
100
AcDbCircle
 10
464.9999999999991
 20
635.9999999999906
 30
0.0
 40
99.49999999999665
100
AcDbArc
 50
228.7310270193872
 51
251.2689729806133
  0
LINE
  5
185
330
1F
100
AcDbEntity
  8
LAY-10
  6
CONTINUOUS
 62
     7
100
AcDbLine
 10
393.3261229484688
 20
697.5881916311932
 30
0.0
 11
394.145326219565
 21
698.2487377668095
 31
0.0
  0
LINE
  5
186
330
1F
100
AcDbEntity
  8
LAY-10
  6
CONTINUOUS
 62
     7
100
AcDbLine
 10
390.2923080468169
 20
700.1950992134658
 30
0.0
 11
390.2136677307292
 21
701.6296770196868
 31
0.0
  0
LINE
  5
187
330
1F
100
AcDbEntity
  8
LAY-10
  6
CONTINUOUS
 62
     7
100
AcDbLine
 10
390.2136677307294
 20
701.6296770196868
 30
0.0
 11
394.145326219565
 21
698.2487377668095
 31
0.0
  0
LINE
  5
188
330
1F
100
AcDbEntity
  8
LAY-10
  6
CONTINUOUS
 62
     7
100
AcDbLine
 10
375.8261229484688
 20
667.2773024987378
 30
0.0
 11
375.6636748502013
 21
666.2375785872968
 31
0.0
  0
LINE
  5
189
330
1F
100
AcDbEntity
  8
LAY-10
  6
CONTINUOUS
 62
     7
100
AcDbLine
 10
372.0515673060762
 20
668.6012094828114
 30
0.0
 11
370.7698663241399
 21
667.9520250911945
 31
0.0
  0
LINE
  5
18A
330
1F
100
AcDbEntity
  8
LAY-10
  6
CONTINUOUS
 62
     7
100
AcDbLine
 10
370.7698663241399
 20
667.9520250911945
 30
0.0
 11
375.6636748502013
 21
666.2375785872968
 31
0.0
  0
ARC
  5
18B
330
1F
100
AcDbEntity
  8
LAY-10
  6
CONTINUOUS
 62
     7
100
AcDbCircle
 10
464.9999999999998
 20
635.9999999999911
 30
0.0
 40
99.49999999999665
100
AcDbArc
 50
138.7310270193871
 51
161.2689729806132
  0
LINE
  5
18C
330
1F
100
AcDbEntity
  8
LAY-10
  6
CONTINUOUS
 62
     7
100
AcDbLine
 10
433.7226975012525
 20
725.1738770515209
 30
0.0
 11
434.7624214126934
 21
725.3363251497884
 31
0.0
  0
LINE
  5
18D
330
1F
100
AcDbEntity
  8
LAY-10
  6
CONTINUOUS
 62
     7
100
AcDbLine
 10
432.3987905171787
 20
728.9484326939136
 30
0.0
 11
433.0479749087955
 21
730.2301336758499
 31
0.0
  0
LINE
  5
18E
330
1F
100
AcDbEntity
  8
LAY-10
  6
CONTINUOUS
 62
     7
100
AcDbLine
 10
433.0479749087955
 20
730.2301336758499
 30
0.0
 11
434.7624214126934
 21
725.3363251497884
 31
0.0
  0
LINE
  5
18F
330
1F
100
AcDbEntity
  8
LAY-10
  6
CONTINUOUS
 62
     7
100
AcDbLine
 10
403.4118083687972
 20
707.673877051521
 30
0.0
 11
402.7512622331807
 21
706.8546737804248
 31
0.0
  0
LINE
  5
190
330
1F
100
AcDbEntity
  8
LAY-10
  6
CONTINUOUS
 62
     7
100
AcDbLine
 10
400.8049007865242
 20
710.7076919531727
 30
0.0
 11
399.3703229803035
 21
710.7863322692605
 31
0.0
  0
LINE
  5
191
330
1F
100
AcDbEntity
  8
LAY-10
  6
CONTINUOUS
 62
     7
100
AcDbLine
 10
399.3703229803035
 20
710.7863322692604
 30
0.0
 11
402.7512622331807
 21
706.8546737804248
 31
0.0
  0
ARC
  5
192
330
1F
100
AcDbEntity
  8
LAY-10
  6
CONTINUOUS
 62
     7
100
AcDbCircle
 10
465.0
 20
635.9999999999905
 30
0.0
 40
99.49999999999665
100
AcDbArc
 50
108.7310270193872
 51
131.2689729806134
  0
LINE
  5
193
330
1F
100
AcDbEntity
  8
LAY-10
  6
CONTINUOUS
 62
     7
100
AcDbLine
 10
482.4999999999996
 20
728.86549412994
 30
0.0
 11
483.4816513693631
 21
728.4863163541155
 31
0.0
  0
LINE
  5
194
330
1F
100
AcDbEntity
  8
LAY-10
  6
CONTINUOUS
 62
     7
100
AcDbLine
 10
483.2407407407403
 20
732.7963086962867
 30
0.0
 11
484.4438014065888
 21
733.5817021108908
 31
0.0
  0
LINE
  5
195
330
1F
100
AcDbEntity
  8
LAY-10
  6
CONTINUOUS
 62
     7
100
AcDbLine
 10
484.4438014065888
 20
733.5817021108904
 30
0.0
 11
483.4816513693631
 21
728.4863163541155
 31
0.0
  0
LINE
  5
196
330
1F
100
AcDbEntity
  8
LAY-10
  6
CONTINUOUS
 62
     7
100
AcDbLine
 10
447.4999999999995
 20
728.86549412994
 30
0.0
 11
446.5183486306359
 21
728.4863163541155
 31
0.0
  0
LINE
  5
197
330
1F
100
AcDbEntity
  8
LAY-10
  6
CONTINUOUS
 62
     7
100
AcDbLine
 10
446.7592592592589
 20
732.7963086962867
 30
0.0
 11
445.5561985934103
 21
733.5817021108908
 31
0.0
  0
LINE
  5
198
330
1F
100
AcDbEntity
  8
LAY-10
  6
CONTINUOUS
 62
     7
100
AcDbLine
 10
445.5561985934103
 20
733.5817021108904
 30
0.0
 11
446.5183486306359
 21
728.4863163541155
 31
0.0
  0
ARC
  5
199
330
1F
100
AcDbEntity
  8
LAY-10
  6
CONTINUOUS
 62
     7
100
AcDbCircle
 10
465.0
 20
635.9999999999906
 30
0.0
 40
99.49999999999665
100
AcDbArc
 50
78.73102701938697
 51
101.2689729806133
  0
ARC
  5
19A
330
1F
100
AcDbEntity
  8
LAY-10
  6
CONTINUOUS
 62
     7
100
AcDbCircle
 10
464.9999999999995
 20
635.9999999999906
 30
0.0
 40
94.31484586264234
100
AcDbArc
 50
101.300632500611
 51
108.6993674993904
  0
ARC
  5
19B
330
1F
100
AcDbEntity
  8
LAY-10
  6
CONTINUOUS
 62
     7
100
AcDbCircle
 10
464.9999999999995
 20
635.9999999999906
 30
0.0
 40
94.31484586264234
100
AcDbArc
 50
131.30063250061
 51
138.6993674993889
  0
ARC
  5
19C
330
1F
100
AcDbEntity
  8
LAY-10
  6
CONTINUOUS
 62
     7
100
AcDbCircle
 10
464.9999999999995
 20
635.9999999999906
 30
0.0
 40
94.31484586264234
100
AcDbArc
 50
161.300632500611
 51
168.6993674993894
  0
ARC
  5
19D
330
1F
100
AcDbEntity
  8
LAY-10
  6
CONTINUOUS
 62
     7
100
AcDbCircle
 10
464.9999999999995
 20
635.9999999999906
 30
0.0
 40
94.31484586264234
100
AcDbArc
 50
191.3006325006113
 51
198.6993674993888
  0
ARC
  5
19E
330
1F
100
AcDbEntity
  8
LAY-10
  6
CONTINUOUS
 62
     7
100
AcDbCircle
 10
464.9999999999995
 20
635.9999999999906
 30
0.0
 40
94.31484586264234
100
AcDbArc
 50
221.3006325006113
 51
228.6993674993888
  0
ARC
  5
19F
330
1F
100
AcDbEntity
  8
LAY-10
  6
CONTINUOUS
 62
     7
100
AcDbCircle
 10
464.9999999999995
 20
635.9999999999906
 30
0.0
 40
94.0807377657336
100
AcDbArc
 50
176.3434795562808
 51
183.65652044372
  0
LINE
  5
1A0
330
1F
100
AcDbEntity
  8
LAY-10
  6
CONTINUOUS
 62
     7
100
AcDbLine
 10
371.1107822029344
 20
641.9999999999905
 30
0.0
 11
371.7531079072521
 21
642.6632396920013
 31
0.0
  0
LINE
  5
1A1
330
1F
100
AcDbEntity
  8
LAY-10
  6
CONTINUOUS
 62
     7
100
AcDbLine
 10
371.1107822029344
 20
629.9999999999905
 30
0.0
 11
371.7531079072521
 21
629.3367603079793
 31
0.0
  0
ARC
  5
1A2
330
1F
100
AcDbEntity
  8
LAY-10
  6
CONTINUOUS
 62
     7
100
AcDbCircle
 10
465.0
 20
635.9999999999906
 30
0.0
 40
94.0807377657336
100
AcDbArc
 50
87.56323953726196
 51
92.43676046273823
  0
LINE
  5
1A3
330
1F
100
AcDbEntity
  8
LAY-10
  6
CONTINUOUS
 62
     7
100
AcDbLine
 10
469.6999999999996
 20
729.3664374823627
 30
0.0
 11
468.9999999999996
 21
729.9956659561653
 31
0.0
  0
LINE
  5
1A4
330
1F
100
AcDbEntity
  8
LAY-10
  6
CONTINUOUS
 62
     7
100
AcDbLine
 10
460.2999999999995
 20
729.3664374823627
 30
0.0
 11
460.9999999999995
 21
729.9956659561653
 31
0.0
  0
ARC
  5
1A5
330
1F
100
AcDbEntity
  8
LAY-10
  6
CONTINUOUS
 62
     7
100
AcDbCircle
 10
464.9999999999995
 20
635.9999999999906
 30
0.0
 40
93.48465996167317
100
AcDbArc
 50
92.88179619803931
 51
175.9127036464069
  0
ARC
  5
1A6
330
1F
100
AcDbEntity
  8
LAY-10
  6
CONTINUOUS
 62
     7
100
AcDbCircle
 10
482.0719022213757
 20
731.9937506014924
 30
0.0
 40
1.0
100
AcDbArc
 50
349.3280707142489
 51
79.91573003822356
  0
LINE
  5
1A7
330
1F
100
AcDbEntity
  8
LAY-10
  6
CONTINUOUS
 62
     7
100
AcDbLine
 10
483.0546058629625
 20
731.8085654163074
 30
0.0
 11
482.684215602663
 21
729.8430525852415
 31
0.0
  0
ARC
  5
1A8
330
1F
100
AcDbEntity
  8
LAY-10
  6
CONTINUOUS
 62
     7
100
AcDbCircle
 10
481.7015119610762
 20
730.0282377704268
 30
0.0
 40
1.0
100
AcDbArc
 50
259.9280374850022
 51
349.3280707142293
  0
ARC
  5
1A9
330
1F
100
AcDbEntity
  8
LAY-10
  6
CONTINUOUS
 62
     7
100
AcDbCircle
 10
465.0
 20
635.9999999999906
 30
0.0
 40
94.49999999999818
100
AcDbArc
 50
79.92803748500289
 51
100.0719625149978
  0
ARC
  5
1AA
330
1F
100
AcDbEntity
  8
LAY-10
  6
CONTINUOUS
 62
     7
100
AcDbCircle
 10
448.2984880389231
 20
730.0282377704265
 30
0.0
 40
1.0
100
AcDbArc
 50
190.671929285764
 51
280.0719625149946
  0
ARC
  5
1AB
330
1F
100
AcDbEntity
  8
LAY-10
  6
CONTINUOUS
 62
     7
100
AcDbCircle
 10
465.0
 20
635.9999999999906
 30
0.0
 40
98.49999999999777
100
AcDbArc
 50
79.91573003822649
 51
100.0842699617742
  0
LINE
  5
1AC
330
1F
100
AcDbEntity
  8
LAY-10
  6
CONTINUOUS
 62
     7
100
AcDbLine
 10
446.9453941370367
 20
731.8085654163068
 30
0.0
 11
447.3157843973363
 21
729.8430525852413
 31
0.0
  0
ARC
  5
1AD
330
1F
100
AcDbEntity
  8
LAY-10
  6
CONTINUOUS
 62
     7
100
AcDbCircle
 10
447.9280977786235
 20
731.9937506014924
 30
0.0
 40
1.0
100
AcDbArc
 50
100.0842699617701
 51
190.6719292857832
  0
ARC
  5
1AE
330
1F
100
AcDbEntity
  8
LAY-10
  6
CONTINUOUS
 62
     7
100
AcDbCircle
 10
431.7878257138844
 20
727.6689777361266
 30
0.0
 40
1.0
100
AcDbArc
 50
19.3280707142282
 51
109.9157300382239
  0
LINE
  5
1AF
330
1F
100
AcDbEntity
  8
LAY-10
  6
CONTINUOUS
 62
     7
100
AcDbLine
 10
432.7314646244827
 20
727.999954482145
 30
0.0
 11
433.3934536652816
 21
726.1125753088281
 31
0.0
  0
ARC
  5
1B0
330
1F
100
AcDbEntity
  8
LAY-10
  6
CONTINUOUS
 62
     7
100
AcDbCircle
 10
432.4498147546836
 20
725.7815985628096
 30
0.0
 40
1.0
100
AcDbArc
 50
289.9280374850027
 51
19.32807071424264
  0
ARC
  5
1B1
330
1F
100
AcDbEntity
  8
LAY-10
  6
CONTINUOUS
 62
     7
100
AcDbCircle
 10
465.0
 20
635.9999999999905
 30
0.0
 40
98.49999999999777
100
AcDbArc
 50
109.9157300382264
 51
130.0842699617743
  0
ARC
  5
1B2
330
1F
100
AcDbEntity
  8
LAY-10
  6
CONTINUOUS
 62
     7
100
AcDbCircle
 10
402.218423684613
 20
710.5970755147503
 30
0.0
 40
1.0
100
AcDbArc
 50
130.0842699617973
 51
220.6719292857498
  0
LINE
  5
1B3
330
1F
100
AcDbEntity
  8
LAY-10
  6
CONTINUOUS
 62
     7
100
AcDbLine
 10
401.4599699592
 20
709.9453486191818
 30
0.0
 11
402.7634937494665
 21
708.4283597061645
 31
0.0
  0
ARC
  5
1B4
330
1F
100
AcDbEntity
  8
LAY-10
  6
CONTINUOUS
 62
     7
100
AcDbCircle
 10
465.0
 20
635.9999999999905
 30
0.0
 40
94.49999999999818
100
AcDbArc
 50
109.9280374850028
 51
130.0719625149979
  0
ARC
  5
1B5
330
1F
100
AcDbEntity
  8
LAY-10
  6
CONTINUOUS
 62
     7
100
AcDbCircle
 10
403.5219474748797
 20
709.0800866017327
 30
0.0
 40
1.0
100
AcDbArc
 50
220.6719292857498
 51
310.0719625149993
  0
ARC
  5
1B6
330
1F
100
AcDbEntity
  8
LAY-10
  6
CONTINUOUS
 62
     7
100
AcDbCircle
 10
390.4029244852393
 20
698.7815763153773
 30
0.0
 40
1.0
100
AcDbArc
 50
49.32807071423657
 51
139.9157300382169
  0
LINE
  5
1B7
330
1F
100
AcDbEntity
  8
LAY-10
  6
CONTINUOUS
 62
     7
100
AcDbLine
 10
391.0546513808076
 20
699.5400300407904
 30
0.0
 11
392.5716402938248
 21
698.2365062505239
 31
0.0
  0
ARC
  5
1B8
330
1F
100
AcDbEntity
  8
LAY-10
  6
CONTINUOUS
 62
     7
100
AcDbCircle
 10
391.9199133982567
 20
697.4780525251107
 30
0.0
 40
1.0
100
AcDbArc
 50
319.9280374850031
 51
49.32807071426413
  0
ARC
  5
1B9
330
1F
100
AcDbEntity
  8
LAY-10
  6
CONTINUOUS
 62
     7
100
AcDbCircle
 10
464.9999999999998
 20
635.9999999999911
 30
0.0
 40
98.49999999999777
100
AcDbArc
 50
139.9157300382265
 51
160.0842699617743
  0
ARC
  5
1BA
330
1F
100
AcDbEntity
  8
LAY-10
  6
CONTINUOUS
 62
     7
100
AcDbCircle
 10
373.3310222638633
 20
669.2121742861059
 30
0.0
 40
1.0
100
AcDbArc
 50
160.0842699617793
 51
250.671929285773
  0
LINE
  5
1BB
330
1F
100
AcDbEntity
  8
LAY-10
  6
CONTINUOUS
 62
     7
100
AcDbLine
 10
373.000045517845
 20
668.2685353755076
 30
0.0
 11
374.8874246911618
 21
667.6065463347085
 31
0.0
  0
ARC
  5
1BC
330
1F
100
AcDbEntity
  8
LAY-10
  6
CONTINUOUS
 62
     7
100
AcDbCircle
 10
464.9999999999998
 20
635.9999999999911
 30
0.0
 40
94.49999999999818
100
AcDbArc
 50
139.928037485003
 51
160.0719625149978
  0
ARC
  5
1BD
330
1F
100
AcDbEntity
  8
LAY-10
  6
CONTINUOUS
 62
     7
100
AcDbCircle
 10
375.2184014371803
 20
668.5501852453068
 30
0.0
 40
1.0
100
AcDbArc
 50
250.671929285773
 51
340.0719625150006
  0
ARC
  5
1BE
330
1F
100
AcDbEntity
  8
LAY-10
  6
CONTINUOUS
 62
     7
100
AcDbCircle
 10
369.0062493984976
 20
653.0719022213665
 30
0.0
 40
1.0
100
AcDbArc
 50
79.32807071422965
 51
169.91573003823
  0
LINE
  5
1BF
330
1F
100
AcDbEntity
  8
LAY-10
  6
CONTINUOUS
 62
     7
100
AcDbLine
 10
369.1914345836829
 20
654.0546058629533
 30
0.0
 11
371.1569474147486
 21
653.6842156026536
 31
0.0
  0
ARC
  5
1C0
330
1F
100
AcDbEntity
  8
LAY-10
  6
CONTINUOUS
 62
     7
100
AcDbCircle
 10
370.9717622295635
 20
652.7015119610668
 30
0.0
 40
1.0
100
AcDbArc
 50
349.928037485006
 51
79.32807071423927
  0
ARC
  5
1C1
330
1F
100
AcDbEntity
  8
LAY-10
  6
CONTINUOUS
 62
     7
100
AcDbCircle
 10
464.9999999999995
 20
635.9999999999906
 30
0.0
 40
98.49999999999777
100
AcDbArc
 50
169.9157300382264
 51
190.084269961774
  0
ARC
  5
1C2
330
1F
100
AcDbEntity
  8
LAY-10
  6
CONTINUOUS
 62
     7
100
AcDbCircle
 10
369.0062493984979
 20
618.9280977786141
 30
0.0
 40
1.0
100
AcDbArc
 50
190.0842699617701
 51
280.6719292857608
  0
ARC
  5
1C3
330
1F
100
AcDbEntity
  8
LAY-10
  6
CONTINUOUS
 62
     7
100
AcDbCircle
 10
464.9999999999995
 20
635.9999999999906
 30
0.0
 40
94.49999999999818
100
AcDbArc
 50
169.9280374850028
 51
190.0719625149979
  0
LINE
  5
1C4
330
1F
100
AcDbEntity
  8
LAY-10
  6
CONTINUOUS
 62
     7
100
AcDbLine
 10
369.1914345836831
 20
617.9453941370273
 30
0.0
 11
371.1569474147488
 21
618.3157843973269
 31
0.0
  0
ARC
  5
1C5
330
1F
100
AcDbEntity
  8
LAY-10
  6
CONTINUOUS
 62
     7
100
AcDbCircle
 10
370.9717622295636
 20
619.2984880389137
 30
0.0
 40
1.0
100
AcDbArc
 50
280.6719292857608
 51
10.071962514994
  0
ARC
  5
1C6
330
1F
100
AcDbEntity
  8
LAY-10
  6
CONTINUOUS
 62
     7
100
AcDbCircle
 10
373.3310222638631
 20
602.7878257138751
 30
0.0
 40
1.0
100
AcDbArc
 50
109.3280707142477
 51
199.9157300382208
  0
LINE
  5
1C7
330
1F
100
AcDbEntity
  8
LAY-10
  6
CONTINUOUS
 62
     7
100
AcDbLine
 10
373.0000455178445
 20
603.7314646244735
 30
0.0
 11
374.8874246911616
 21
604.3934536652725
 31
0.0
  0
ARC
  5
1C8
330
1F
100
AcDbEntity
  8
LAY-10
  6
CONTINUOUS
 62
     7
100
AcDbCircle
 10
375.2184014371801
 20
603.4498147546742
 30
0.0
 40
1.0
100
AcDbArc
 50
19.92803748499965
 51
109.3280707142354
  0
ARC
  5
1C9
330
1F
100
AcDbEntity
  8
LAY-10
  6
CONTINUOUS
 62
     7
100
AcDbCircle
 10
464.9999999999993
 20
635.9999999999906
 30
0.0
 40
98.49999999999777
100
AcDbArc
 50
199.9157300382265
 51
220.0842699617743
  0
ARC
  5
1CA
330
1F
100
AcDbEntity
  8
LAY-10
  6
CONTINUOUS
 62
     7
100
AcDbCircle
 10
390.4029244852395
 20
573.2184236846036
 30
0.0
 40
1.0
100
AcDbArc
 50
220.0842699617739
 51
310.6719292857753
  0
ARC
  5
1CB
330
1F
100
AcDbEntity
  8
LAY-10
  6
CONTINUOUS
 62
     7
100
AcDbCircle
 10
464.9999999999993
 20
635.9999999999906
 30
0.0
 40
94.49999999999818
100
AcDbArc
 50
199.9280374850027
 51
220.0719625149981
  0
LINE
  5
1CC
330
1F
100
AcDbEntity
  8
LAY-10
  6
CONTINUOUS
 62
     7
100
AcDbLine
 10
391.0546513808078
 20
572.4599699591906
 30
0.0
 11
392.5716402938248
 21
573.7634937494571
 31
0.0
  0
ARC
  5
1CD
330
1F
100
AcDbEntity
  8
LAY-10
  6
CONTINUOUS
 62
     7
100
AcDbCircle
 10
391.9199133982567
 20
574.5219474748703
 30
0.0
 40
1.0
100
AcDbArc
 50
310.6719292857518
 51
40.07196251498794
  0
ARC
  5
1CE
330
1F
100
AcDbEntity
  8
LAY-10
  6
CONTINUOUS
 62
     7
100
AcDbCircle
 10
402.2184236846127
 20
561.4029244852301
 30
0.0
 40
1.0
100
AcDbArc
 50
139.3280707142341
 51
229.9157300382286
  0
LINE
  5
1CF
330
1F
100
AcDbEntity
  8
LAY-10
  6
CONTINUOUS
 62
     7
100
AcDbLine
 10
401.4599699591997
 20
562.0546513807982
 30
0.0
 11
402.7634937494665
 21
563.5716402938158
 31
0.0
  0
ARC
  5
1D0
330
1F
100
AcDbEntity
  8
LAY-10
  6
CONTINUOUS
 62
     7
100
AcDbCircle
 10
403.5219474748794
 20
562.9199133982473
 30
0.0
 40
1.0
100
AcDbArc
 50
49.92803748500997
 51
139.3280707142179
  0
ARC
  5
1D1
330
1F
100
AcDbEntity
  8
LAY-10
  6
CONTINUOUS
 62
     7
100
AcDbCircle
 10
464.9999999999991
 20
635.9999999999906
 30
0.0
 40
98.49999999999777
100
AcDbArc
 50
229.9157300382264
 51
250.0842699617744
  0
ARC
  5
1D2
330
1F
100
AcDbEntity
  8
LAY-10
  6
CONTINUOUS
 62
     7
100
AcDbCircle
 10
431.7878257138844
 20
544.3310222638539
 30
0.0
 40
1.0
100
AcDbArc
 50
250.0842699617762
 51
340.6719292857792
  0
ARC
  5
1D3
330
1F
100
AcDbEntity
  8
LAY-10
  6
CONTINUOUS
 62
     7
100
AcDbCircle
 10
464.9999999999991
 20
635.9999999999906
 30
0.0
 40
94.49999999999818
100
AcDbArc
 50
229.9280374850026
 51
250.0719625149978
  0
LINE
  5
1D4
330
1F
100
AcDbEntity
  8
LAY-10
  6
CONTINUOUS
 62
     7
100
AcDbLine
 10
432.7314646244827
 20
544.0000455178356
 30
0.0
 11
433.3934536652816
 21
545.8874246911524
 31
0.0
  0
ARC
  5
1D5
330
1F
100
AcDbEntity
  8
LAY-10
  6
CONTINUOUS
 62
     7
100
AcDbCircle
 10
432.4498147546836
 20
546.2184014371709
 30
0.0
 40
1.0
100
AcDbArc
 50
340.6719292857637
 51
70.07196251500652
  0
CIRCLE
  5
1D6
330
1F
100
AcDbEntity
  8
LAY-10
  6
CONTINUOUS
 62
     7
100
AcDbCircle
 10
464.9999999999995
 20
635.9999999999906
 30
0.0
 40
107.4999999999982
  0
CIRCLE
  5
1D7
330
1F
100
AcDbEntity
  8
LAY-10
  6
CONTINUOUS
 62
     7
100
AcDbCircle
 10
464.9999999999995
 20
635.9999999999906
 30
0.0
 40
112.5000000000001
  0
LINE
  5
1D8
330
1F
100
AcDbEntity
  8
LAY-10
  6
CONTINUOUS
 62
     7
100
AcDbLine
 10
482.4999999999996
 20
543.1345058700398
 30
0.0
 11
483.4816513693631
 21
543.5136836458645
 31
0.0
  0
LINE
  5
1D9
330
1F
100
AcDbEntity
  8
LAY-10
  6
CONTINUOUS
 62
     7
100
AcDbLine
 10
483.2407407407403
 20
539.2036913036933
 30
0.0
 11
484.4438014065888
 21
538.4182978890892
 31
0.0
  0
LINE
  5
1DA
330
1F
100
AcDbEntity
  8
LAY-10
  6
CONTINUOUS
 62
     7
100
AcDbLine
 10
484.4438014065888
 20
538.4182978890896
 30
0.0
 11
483.4816513693631
 21
543.5136836458645
 31
0.0
  0
LINE
  5
1DB
330
1F
100
AcDbEntity
  8
LAY-10
  6
CONTINUOUS
 62
     7
100
AcDbLine
 10
447.4999999999995
 20
543.1345058700398
 30
0.0
 11
446.5183486306359
 21
543.5136836458645
 31
0.0
  0
LINE
  5
1DC
330
1F
100
AcDbEntity
  8
LAY-10
  6
CONTINUOUS
 62
     7
100
AcDbLine
 10
446.7592592592589
 20
539.2036913036933
 30
0.0
 11
445.5561985934103
 21
538.4182978890892
 31
0.0
  0
LINE
  5
1DD
330
1F
100
AcDbEntity
  8
LAY-10
  6
CONTINUOUS
 62
     7
100
AcDbLine
 10
445.5561985934103
 20
538.4182978890896
 30
0.0
 11
446.5183486306359
 21
543.5136836458645
 31
0.0
  0
ARC
  5
1DE
330
1F
100
AcDbEntity
  8
LAY-10
  6
CONTINUOUS
 62
     7
100
AcDbCircle
 10
465.0
 20
635.9999999999892
 30
0.0
 40
99.49999999999665
100
AcDbArc
 50
258.7310270193871
 51
281.2689729806133
  0
ARC
  5
1DF
330
1F
100
AcDbEntity
  8
LAY-10
  6
CONTINUOUS
 62
     7
100
AcDbCircle
 10
465.0
 20
635.9999999999892
 30
0.0
 40
94.0807377657336
100
AcDbArc
 50
267.5632395372619
 51
272.4367604627381
  0
LINE
  5
1E0
330
1F
100
AcDbEntity
  8
LAY-10
  6
CONTINUOUS
 62
     7
100
AcDbLine
 10
469.6999999999996
 20
542.6335625176173
 30
0.0
 11
468.9999999999996
 21
542.0043340438147
 31
0.0
  0
LINE
  5
1E1
330
1F
100
AcDbEntity
  8
LAY-10
  6
CONTINUOUS
 62
     7
100
AcDbLine
 10
460.2999999999995
 20
542.6335625176173
 30
0.0
 11
460.9999999999995
 21
542.0043340438147
 31
0.0
  0
ARC
  5
1E2
330
1F
100
AcDbEntity
  8
LAY-10
  6
CONTINUOUS
 62
     7
100
AcDbCircle
 10
482.0719022213757
 20
540.0062493984876
 30
0.0
 40
1.0
100
AcDbArc
 50
280.0842699617701
 51
10.67192928575113
  0
LINE
  5
1E3
330
1F
100
AcDbEntity
  8
LAY-10
  6
CONTINUOUS
 62
     7
100
AcDbLine
 10
483.0546058629625
 20
540.1914345836726
 30
0.0
 11
482.684215602663
 21
542.1569474147385
 31
0.0
  0
ARC
  5
1E4
330
1F
100
AcDbEntity
  8
LAY-10
  6
CONTINUOUS
 62
     7
100
AcDbCircle
 10
481.7015119610762
 20
541.9717622295532
 30
0.0
 40
1.0
100
AcDbArc
 50
10.67192928577096
 51
100.0719625150042
  0
ARC
  5
1E5
330
1F
100
AcDbEntity
  8
LAY-10
  6
CONTINUOUS
 62
     7
100
AcDbCircle
 10
465.0
 20
635.9999999999892
 30
0.0
 40
94.49999999999818
100
AcDbArc
 50
259.9280374850022
 51
280.0719625149973
  0
ARC
  5
1E6
330
1F
100
AcDbEntity
  8
LAY-10
  6
CONTINUOUS
 62
     7
100
AcDbCircle
 10
448.2984880389231
 20
541.9717622295535
 30
0.0
 40
1.0
100
AcDbArc
 50
79.92803748499584
 51
169.3280707142489
  0
ARC
  5
1E7
330
1F
100
AcDbEntity
  8
LAY-10
  6
CONTINUOUS
 62
     7
100
AcDbCircle
 10
465.0
 20
635.9999999999892
 30
0.0
 40
98.49999999999777
100
AcDbArc
 50
259.9157300382259
 51
280.084269961774
  0
LINE
  5
1E8
330
1F
100
AcDbEntity
  8
LAY-10
  6
CONTINUOUS
 62
     7
100
AcDbLine
 10
446.9453941370367
 20
540.191434583673
 30
0.0
 11
447.3157843973363
 21
542.1569474147385
 31
0.0
  0
ARC
  5
1E9
330
1F
100
AcDbEntity
  8
LAY-10
  6
CONTINUOUS
 62
     7
100
AcDbCircle
 10
447.9280977786235
 20
540.0062493984876
 30
0.0
 40
1.0
100
AcDbArc
 50
169.3280707142297
 51
259.91573003823
  0
LINE
  5
1EA
330
1F
100
AcDbEntity
  8
LAY-10
  6
CONTINUOUS
 62
     7
100
AcDbLine
 10
557.8654941299491
 20
653.4999999999903
 30
0.0
 11
557.4863163541247
 21
654.481651369354
 31
0.0
  0
LINE
  5
1EB
330
1F
100
AcDbEntity
  8
LAY-10
  6
CONTINUOUS
 62
     7
100
AcDbLine
 10
561.7963086962956
 20
654.240740740731
 30
0.0
 11
562.5817021108996
 21
655.4438014065796
 31
0.0
  0
LINE
  5
1EC
330
1F
100
AcDbEntity
  8
LAY-10
  6
CONTINUOUS
 62
     7
100
AcDbLine
 10
562.5817021108993
 20
655.4438014065796
 30
0.0
 11
557.4863163541247
 21
654.481651369354
 31
0.0
  0
LINE
  5
1ED
330
1F
100
AcDbEntity
  8
LAY-10
  6
CONTINUOUS
 62
     7
100
AcDbLine
 10
557.8654941299491
 20
618.4999999999901
 30
0.0
 11
557.4863163541247
 21
617.5183486306265
 31
0.0
  0
LINE
  5
1EE
330
1F
100
AcDbEntity
  8
LAY-10
  6
CONTINUOUS
 62
     7
100
AcDbLine
 10
561.7963086962956
 20
617.7592592592495
 30
0.0
 11
562.5817021108996
 21
616.556198593401
 31
0.0
  0
LINE
  5
1EF
330
1F
100
AcDbEntity
  8
LAY-10
  6
CONTINUOUS
 62
     7
100
AcDbLine
 10
562.5817021108993
 20
616.556198593401
 30
0.0
 11
557.4863163541247
 21
617.5183486306265
 31
0.0
  0
ARC
  5
1F0
330
1F
100
AcDbEntity
  8
LAY-10
  6
CONTINUOUS
 62
     7
100
AcDbCircle
 10
464.9999999999995
 20
635.9999999999906
 30
0.0
 40
99.49999999999665
100
AcDbArc
 50
348.7310270193868
 51
11.26897298061289
  0
LINE
  5
1F1
330
1F
100
AcDbEntity
  8
LAY-10
  6
CONTINUOUS
 62
     7
100
AcDbLine
 10
554.1738770515307
 20
604.7226975012433
 30
0.0
 11
554.3363251497979
 21
605.7624214126839
 31
0.0
  0
LINE
  5
1F2
330
1F
100
AcDbEntity
  8
LAY-10
  6
CONTINUOUS
 62
     7
100
AcDbLine
 10
557.948432693923
 20
603.3987905171695
 30
0.0
 11
559.2301336758594
 21
604.0479749087865
 31
0.0
  0
LINE
  5
1F3
330
1F
100
AcDbEntity
  8
LAY-10
  6
CONTINUOUS
 62
     7
100
AcDbLine
 10
559.2301336758591
 20
604.0479749087865
 30
0.0
 11
554.3363251497979
 21
605.7624214126839
 31
0.0
  0
LINE
  5
1F4
330
1F
100
AcDbEntity
  8
LAY-10
  6
CONTINUOUS
 62
     7
100
AcDbLine
 10
536.6738770515304
 20
574.4118083687878
 30
0.0
 11
535.8546737804342
 21
573.7512622331714
 31
0.0
  0
LINE
  5
1F5
330
1F
100
AcDbEntity
  8
LAY-10
  6
CONTINUOUS
 62
     7
100
AcDbLine
 10
539.7076919531821
 20
571.8049007865148
 30
0.0
 11
539.7863322692698
 21
570.3703229802942
 31
0.0
  0
LINE
  5
1F6
330
1F
100
AcDbEntity
  8
LAY-10
  6
CONTINUOUS
 62
     7
100
AcDbLine
 10
539.7863322692698
 20
570.3703229802942
 30
0.0
 11
535.8546737804342
 21
573.7512622331714
 31
0.0
  0
ARC
  5
1F7
330
1F
100
AcDbEntity
  8
LAY-10
  6
CONTINUOUS
 62
     7
100
AcDbCircle
 10
464.9999999999997
 20
635.9999999999906
 30
0.0
 40
99.49999999999665
100
AcDbArc
 50
318.7310270193868
 51
341.2689729806134
  0
LINE
  5
1F8
330
1F
100
AcDbEntity
  8
LAY-10
  6
CONTINUOUS
 62
     7
100
AcDbLine
 10
526.588191631202
 20
564.3261229484593
 30
0.0
 11
527.2487377668184
 21
565.1453262195556
 31
0.0
  0
LINE
  5
1F9
330
1F
100
AcDbEntity
  8
LAY-10
  6
CONTINUOUS
 62
     7
100
AcDbLine
 10
529.1950992134749
 20
561.2923080468075
 30
0.0
 11
530.6296770196956
 21
561.21366773072
 31
0.0
  0
LINE
  5
1FA
330
1F
100
AcDbEntity
  8
LAY-10
  6
CONTINUOUS
 62
     7
100
AcDbLine
 10
530.6296770196956
 20
561.21366773072
 30
0.0
 11
527.2487377668184
 21
565.1453262195556
 31
0.0
  0
LINE
  5
1FB
330
1F
100
AcDbEntity
  8
LAY-10
  6
CONTINUOUS
 62
     7
100
AcDbLine
 10
496.2773024987465
 20
546.8261229484594
 30
0.0
 11
495.2375785873056
 21
546.663674850192
 31
0.0
  0
LINE
  5
1FC
330
1F
100
AcDbEntity
  8
LAY-10
  6
CONTINUOUS
 62
     7
100
AcDbLine
 10
497.6012094828203
 20
543.0515673060669
 30
0.0
 11
496.9520250912034
 21
541.7698663241305
 31
0.0
  0
LINE
  5
1FD
330
1F
100
AcDbEntity
  8
LAY-10
  6
CONTINUOUS
 62
     7
100
AcDbLine
 10
496.9520250912034
 20
541.7698663241305
 30
0.0
 11
495.2375785873056
 21
546.663674850192
 31
0.0
  0
ARC
  5
1FE
330
1F
100
AcDbEntity
  8
LAY-10
  6
CONTINUOUS
 62
     7
100
AcDbCircle
 10
464.9999999999998
 20
635.9999999999906
 30
0.0
 40
99.49999999999665
100
AcDbArc
 50
288.7310270193867
 51
311.2689729806129
  0
LINE
  5
1FF
330
1F
100
AcDbEntity
  8
LAY-10
  6
CONTINUOUS
 62
     7
100
AcDbLine
 10
536.6738770515302
 20
697.5881916311932
 30
0.0
 11
535.8546737804339
 21
698.2487377668095
 31
0.0
  0
LINE
  5
200
330
1F
100
AcDbEntity
  8
LAY-10
  6
CONTINUOUS
 62
     7
100
AcDbLine
 10
539.7076919531821
 20
700.1950992134658
 30
0.0
 11
539.7863322692698
 21
701.6296770196868
 31
0.0
  0
LINE
  5
201
330
1F
100
AcDbEntity
  8
LAY-10
  6
CONTINUOUS
 62
     7
100
AcDbLine
 10
539.7863322692696
 20
701.6296770196868
 30
0.0
 11
535.8546737804339
 21
698.2487377668095
 31
0.0
  0
LINE
  5
202
330
1F
100
AcDbEntity
  8
LAY-10
  6
CONTINUOUS
 62
     7
100
AcDbLine
 10
554.1738770515303
 20
667.2773024987378
 30
0.0
 11
554.3363251497979
 21
666.2375785872968
 31
0.0
  0
LINE
  5
203
330
1F
100
AcDbEntity
  8
LAY-10
  6
CONTINUOUS
 62
     7
100
AcDbLine
 10
557.948432693923
 20
668.6012094828114
 30
0.0
 11
559.2301336758591
 21
667.9520250911945
 31
0.0
  0
LINE
  5
204
330
1F
100
AcDbEntity
  8
LAY-10
  6
CONTINUOUS
 62
     7
100
AcDbLine
 10
559.2301336758591
 20
667.9520250911945
 30
0.0
 11
554.3363251497979
 21
666.2375785872968
 31
0.0
  0
ARC
  5
205
330
1F
100
AcDbEntity
  8
LAY-10
  6
CONTINUOUS
 62
     7
100
AcDbCircle
 10
464.9999999999991
 20
635.9999999999911
 30
0.0
 40
99.49999999999665
100
AcDbArc
 50
18.73102701938684
 51
41.26897298061301
  0
LINE
  5
206
330
1F
100
AcDbEntity
  8
LAY-10
  6
CONTINUOUS
 62
     7
100
AcDbLine
 10
496.2773024987465
 20
725.1738770515209
 30
0.0
 11
495.2375785873056
 21
725.3363251497884
 31
0.0
  0
LINE
  5
207
330
1F
100
AcDbEntity
  8
LAY-10
  6
CONTINUOUS
 62
     7
100
AcDbLine
 10
497.6012094828203
 20
728.9484326939136
 30
0.0
 11
496.9520250912034
 21
730.2301336758499
 31
0.0
  0
LINE
  5
208
330
1F
100
AcDbEntity
  8
LAY-10
  6
CONTINUOUS
 62
     7
100
AcDbLine
 10
496.9520250912034
 20
730.2301336758499
 30
0.0
 11
495.2375785873056
 21
725.3363251497884
 31
0.0
  0
LINE
  5
209
330
1F
100
AcDbEntity
  8
LAY-10
  6
CONTINUOUS
 62
     7
100
AcDbLine
 10
526.5881916312018
 20
707.673877051521
 30
0.0
 11
527.2487377668183
 21
706.8546737804248
 31
0.0
  0
LINE
  5
20A
330
1F
100
AcDbEntity
  8
LAY-10
  6
CONTINUOUS
 62
     7
100
AcDbLine
 10
529.1950992134748
 20
710.7076919531727
 30
0.0
 11
530.6296770196956
 21
710.7863322692605
 31
0.0
  0
LINE
  5
20B
330
1F
100
AcDbEntity
  8
LAY-10
  6
CONTINUOUS
 62
     7
100
AcDbLine
 10
530.6296770196956
 20
710.7863322692604
 30
0.0
 11
527.2487377668183
 21
706.8546737804248
 31
0.0
  0
ARC
  5
20C
330
1F
100
AcDbEntity
  8
LAY-10
  6
CONTINUOUS
 62
     7
100
AcDbCircle
 10
464.999999999999
 20
635.9999999999905
 30
0.0
 40
99.49999999999665
100
AcDbArc
 50
48.73102701938662
 51
71.26897298061309
  0
ARC
  5
20D
330
1F
100
AcDbEntity
  8
LAY-10
  6
CONTINUOUS
 62
     7
100
AcDbCircle
 10
464.9999999999995
 20
635.9999999999906
 30
0.0
 40
94.31484586264234
100
AcDbArc
 50
41.30063250061094
 51
48.69936749938994
  0
ARC
  5
20E
330
1F
100
AcDbEntity
  8
LAY-10
  6
CONTINUOUS
 62
     7
100
AcDbCircle
 10
464.9999999999995
 20
635.9999999999906
 30
0.0
 40
94.31484586264234
100
AcDbArc
 50
11.30063250061082
 51
18.69936749938907
  0
ARC
  5
20F
330
1F
100
AcDbEntity
  8
LAY-10
  6
CONTINUOUS
 62
     7
100
AcDbCircle
 10
464.9999999999995
 20
635.9999999999906
 30
0.0
 40
94.31484586264234
100
AcDbArc
 50
341.3006325006113
 51
348.699367499389
  0
ARC
  5
210
330
1F
100
AcDbEntity
  8
LAY-10
  6
CONTINUOUS
 62
     7
100
AcDbCircle
 10
464.9999999999995
 20
635.9999999999906
 30
0.0
 40
94.31484586264234
100
AcDbArc
 50
311.3006325006115
 51
318.699367499389
  0
ARC
  5
211
330
1F
100
AcDbEntity
  8
LAY-10
  6
CONTINUOUS
 62
     7
100
AcDbCircle
 10
464.9999999999995
 20
635.9999999999906
 30
0.0
 40
94.0807377657336
100
AcDbArc
 50
356.3434795562803
 51
3.656520443719369
  0
LINE
  5
212
330
1F
100
AcDbEntity
  8
LAY-10
  6
CONTINUOUS
 62
     7
100
AcDbLine
 10
558.8892177970647
 20
641.9999999999905
 30
0.0
 11
558.2468920927471
 21
642.6632396920013
 31
0.0
  0
LINE
  5
213
330
1F
100
AcDbEntity
  8
LAY-10
  6
CONTINUOUS
 62
     7
100
AcDbLine
 10
558.8892177970647
 20
629.9999999999905
 30
0.0
 11
558.2468920927471
 21
629.3367603079793
 31
0.0
  0
ARC
  5
214
330
1F
100
AcDbEntity
  8
LAY-10
  6
CONTINUOUS
 62
     7
100
AcDbCircle
 10
498.2121742861146
 20
727.6689777361266
 30
0.0
 40
1.0
100
AcDbArc
 50
70.08426996176783
 51
160.671929285773
  0
LINE
  5
215
330
1F
100
AcDbEntity
  8
LAY-10
  6
CONTINUOUS
 62
     7
100
AcDbLine
 10
497.2685353755163
 20
727.999954482145
 30
0.0
 11
496.6065463347174
 21
726.1125753088281
 31
0.0
  0
ARC
  5
216
330
1F
100
AcDbEntity
  8
LAY-10
  6
CONTINUOUS
 62
     7
100
AcDbCircle
 10
497.5501852453154
 20
725.7815985628096
 30
0.0
 40
1.0
100
AcDbArc
 50
160.6719292857585
 51
250.0719625150035
  0
ARC
  5
217
330
1F
100
AcDbEntity
  8
LAY-10
  6
CONTINUOUS
 62
     7
100
AcDbCircle
 10
464.999999999999
 20
635.9999999999905
 30
0.0
 40
98.49999999999777
100
AcDbArc
 50
49.91573003822574
 51
70.08426996177384
  0
ARC
  5
218
330
1F
100
AcDbEntity
  8
LAY-10
  6
CONTINUOUS
 62
     7
100
AcDbCircle
 10
527.781576315386
 20
710.5970755147503
 30
0.0
 40
1.0
100
AcDbArc
 50
319.3280707142483
 51
49.91573003819857
  0
LINE
  5
219
330
1F
100
AcDbEntity
  8
LAY-10
  6
CONTINUOUS
 62
     7
100
AcDbLine
 10
528.540030040799
 20
709.9453486191818
 30
0.0
 11
527.2365062505324
 21
708.4283597061645
 31
0.0
  0
ARC
  5
21A
330
1F
100
AcDbEntity
  8
LAY-10
  6
CONTINUOUS
 62
     7
100
AcDbCircle
 10
464.999999999999
 20
635.9999999999905
 30
0.0
 40
94.49999999999818
100
AcDbArc
 50
49.92803748500202
 51
70.07196251499722
  0
ARC
  5
21B
330
1F
100
AcDbEntity
  8
LAY-10
  6
CONTINUOUS
 62
     7
100
AcDbCircle
 10
526.4780525251193
 20
709.0800866017327
 30
0.0
 40
1.0
100
AcDbArc
 50
229.9280374850051
 51
319.3280707142483
  0
ARC
  5
21C
330
1F
100
AcDbEntity
  8
LAY-10
  6
CONTINUOUS
 62
     7
100
AcDbCircle
 10
539.5970755147597
 20
698.7815763153773
 30
0.0
 40
1.0
100
AcDbArc
 50
40.08426996177888
 51
130.6719292857568
  0
LINE
  5
21D
330
1F
100
AcDbEntity
  8
LAY-10
  6
CONTINUOUS
 62
     7
100
AcDbLine
 10
538.9453486191913
 20
699.5400300407904
 30
0.0
 11
537.4283597061742
 21
698.2365062505239
 31
0.0
  0
ARC
  5
21E
330
1F
100
AcDbEntity
  8
LAY-10
  6
CONTINUOUS
 62
     7
100
AcDbCircle
 10
538.0800866017423
 20
697.4780525251107
 30
0.0
 40
1.0
100
AcDbArc
 50
130.6719292857384
 51
220.0719625150043
  0
ARC
  5
21F
330
1F
100
AcDbEntity
  8
LAY-10
  6
CONTINUOUS
 62
     7
100
AcDbCircle
 10
464.9999999999991
 20
635.9999999999911
 30
0.0
 40
98.49999999999777
100
AcDbArc
 50
19.9157300382259
 51
40.08426996177349
  0
ARC
  5
220
330
1F
100
AcDbEntity
  8
LAY-10
  6
CONTINUOUS
 62
     7
100
AcDbCircle
 10
556.6689777361358
 20
669.2121742861059
 30
0.0
 40
1.0
100
AcDbArc
 50
289.3280707142273
 51
19.9157300382208
  0
LINE
  5
221
330
1F
100
AcDbEntity
  8
LAY-10
  6
CONTINUOUS
 62
     7
100
AcDbLine
 10
556.9999544821542
 20
668.2685353755076
 30
0.0
 11
555.1125753088373
 21
667.6065463347085
 31
0.0
  0
ARC
  5
222
330
1F
100
AcDbEntity
  8
LAY-10
  6
CONTINUOUS
 62
     7
100
AcDbCircle
 10
464.9999999999991
 20
635.9999999999911
 30
0.0
 40
94.49999999999818
100
AcDbArc
 50
19.92803748500223
 51
40.07196251499716
  0
ARC
  5
223
330
1F
100
AcDbEntity
  8
LAY-10
  6
CONTINUOUS
 62
     7
100
AcDbCircle
 10
554.7815985628187
 20
668.5501852453068
 30
0.0
 40
1.0
100
AcDbArc
 50
199.9280374849997
 51
289.32807071425
  0
ARC
  5
224
330
1F
100
AcDbEntity
  8
LAY-10
  6
CONTINUOUS
 62
     7
100
AcDbCircle
 10
560.9937506015016
 20
653.0719022213665
 30
0.0
 40
1.0
100
AcDbArc
 50
10.08426996177005
 51
100.6719292857704
  0
LINE
  5
225
330
1F
100
AcDbEntity
  8
LAY-10
  6
CONTINUOUS
 62
     7
100
AcDbLine
 10
560.8085654163162
 20
654.0546058629533
 30
0.0
 11
558.8430525852503
 21
653.6842156026536
 31
0.0
  0
ARC
  5
226
330
1F
100
AcDbEntity
  8
LAY-10
  6
CONTINUOUS
 62
     7
100
AcDbCircle
 10
559.0282377704357
 20
652.7015119610668
 30
0.0
 40
1.0
100
AcDbArc
 50
100.6719292857704
 51
190.0719625149946
  0
ARC
  5
227
330
1F
100
AcDbEntity
  8
LAY-10
  6
CONTINUOUS
 62
     7
100
AcDbCircle
 10
464.9999999999995
 20
635.9999999999906
 30
0.0
 40
98.49999999999777
100
AcDbArc
 50
349.9157300382261
 51
10.08426996177366
  0
ARC
  5
228
330
1F
100
AcDbEntity
  8
LAY-10
  6
CONTINUOUS
 62
     7
100
AcDbCircle
 10
560.9937506015012
 20
618.9280977786141
 30
0.0
 40
1.0
100
AcDbArc
 50
259.3280707142296
 51
349.9157300382302
  0
ARC
  5
229
330
1F
100
AcDbEntity
  8
LAY-10
  6
CONTINUOUS
 62
     7
100
AcDbCircle
 10
464.9999999999995
 20
635.9999999999906
 30
0.0
 40
94.49999999999818
100
AcDbArc
 50
349.9280374850024
 51
10.07196251499727
  0
LINE
  5
22A
330
1F
100
AcDbEntity
  8
LAY-10
  6
CONTINUOUS
 62
     7
100
AcDbLine
 10
560.8085654163159
 20
617.9453941370273
 30
0.0
 11
558.8430525852503
 21
618.3157843973269
 31
0.0
  0
ARC
  5
22B
330
1F
100
AcDbEntity
  8
LAY-10
  6
CONTINUOUS
 62
     7
100
AcDbCircle
 10
559.0282377704353
 20
619.2984880389137
 30
0.0
 40
1.0
100
AcDbArc
 50
169.9280374850055
 51
259.3280707142491
  0
ARC
  5
22C
330
1F
100
AcDbEntity
  8
LAY-10
  6
CONTINUOUS
 62
     7
100
AcDbCircle
 10
556.6689777361358
 20
602.7878257138751
 30
0.0
 40
1.0
100
AcDbArc
 50
340.0842699617793
 51
70.67192928574404
  0
LINE
  5
22D
330
1F
100
AcDbEntity
  8
LAY-10
  6
CONTINUOUS
 62
     7
100
AcDbLine
 10
556.9999544821545
 20
603.7314646244735
 30
0.0
 11
555.1125753088373
 21
604.3934536652725
 31
0.0
  0
ARC
  5
22E
330
1F
100
AcDbEntity
  8
LAY-10
  6
CONTINUOUS
 62
     7
100
AcDbCircle
 10
554.781598562819
 20
603.4498147546742
 30
0.0
 40
1.0
100
AcDbArc
 50
70.67192928577076
 51
160.0719625150005
  0
ARC
  5
22F
330
1F
100
AcDbEntity
  8
LAY-10
  6
CONTINUOUS
 62
     7
100
AcDbCircle
 10
464.9999999999997
 20
635.9999999999906
 30
0.0
 40
98.49999999999777
100
AcDbArc
 50
319.915730038226
 51
340.0842699617741
  0
ARC
  5
230
330
1F
100
AcDbEntity
  8
LAY-10
  6
CONTINUOUS
 62
     7
100
AcDbCircle
 10
539.5970755147595
 20
573.2184236846036
 30
0.0
 40
1.0
100
AcDbArc
 50
229.3280707142341
 51
319.9157300382261
  0
ARC
  5
231
330
1F
100
AcDbEntity
  8
LAY-10
  6
CONTINUOUS
 62
     7
100
AcDbCircle
 10
464.9999999999997
 20
635.9999999999906
 30
0.0
 40
94.49999999999818
100
AcDbArc
 50
319.9280374850023
 51
340.0719625149975
  0
LINE
  5
232
330
1F
100
AcDbEntity
  8
LAY-10
  6
CONTINUOUS
 62
     7
100
AcDbLine
 10
538.9453486191912
 20
572.4599699591906
 30
0.0
 11
537.4283597061742
 21
573.7634937494571
 31
0.0
  0
ARC
  5
233
330
1F
100
AcDbEntity
  8
LAY-10
  6
CONTINUOUS
 62
     7
100
AcDbCircle
 10
538.0800866017423
 20
574.5219474748703
 30
0.0
 40
1.0
100
AcDbArc
 50
139.92803748501
 51
229.3280707142525
  0
ARC
  5
234
330
1F
100
AcDbEntity
  8
LAY-10
  6
CONTINUOUS
 62
     7
100
AcDbCircle
 10
527.7815763153864
 20
561.4029244852301
 30
0.0
 40
1.0
100
AcDbArc
 50
310.0842699617741
 51
40.671929285761
  0
LINE
  5
235
330
1F
100
AcDbEntity
  8
LAY-10
  6
CONTINUOUS
 62
     7
100
AcDbLine
 10
528.5400300407994
 20
562.0546513807982
 30
0.0
 11
527.2365062505324
 21
563.5716402938158
 31
0.0
  0
ARC
  5
236
330
1F
100
AcDbEntity
  8
LAY-10
  6
CONTINUOUS
 62
     7
100
AcDbCircle
 10
526.4780525251197
 20
562.9199133982473
 30
0.0
 40
1.0
100
AcDbArc
 50
40.67192928578008
 51
130.0719625149859
  0
ARC
  5
237
330
1F
100
AcDbEntity
  8
LAY-10
  6
CONTINUOUS
 62
     7
100
AcDbCircle
 10
464.9999999999998
 20
635.9999999999906
 30
0.0
 40
98.49999999999777
100
AcDbArc
 50
289.9157300382261
 51
310.0842699617736
  0
ARC
  5
238
330
1F
100
AcDbEntity
  8
LAY-10
  6
CONTINUOUS
 62
     7
100
AcDbCircle
 10
498.2121742861146
 20
544.3310222638539
 30
0.0
 40
1.0
100
AcDbArc
 50
199.328070714221
 51
289.9157300382324
  0
ARC
  5
239
330
1F
100
AcDbEntity
  8
LAY-10
  6
CONTINUOUS
 62
     7
100
AcDbCircle
 10
464.9999999999998
 20
635.9999999999906
 30
0.0
 40
94.49999999999818
100
AcDbArc
 50
289.9280374850026
 51
310.0719625149975
  0
LINE
  5
23A
330
1F
100
AcDbEntity
  8
LAY-10
  6
CONTINUOUS
 62
     7
100
AcDbLine
 10
497.2685353755163
 20
544.0000455178356
 30
0.0
 11
496.6065463347174
 21
545.8874246911524
 31
0.0
  0
ARC
  5
23B
330
1F
100
AcDbEntity
  8
LAY-10
  6
CONTINUOUS
 62
     7
100
AcDbCircle
 10
497.5501852453154
 20
546.2184014371709
 30
0.0
 40
1.0
100
AcDbArc
 50
109.9280374849729
 51
199.3280707142355
  0
ARC
  5
23C
330
1F
100
AcDbEntity
  8
LAY-10
  6
CONTINUOUS
 62
     7
100
AcDbCircle
 10
464.9999999999995
 20
635.9999999999906
 30
0.0
 40
94.31484586264234
100
AcDbArc
 50
251.300632500611
 51
258.6993674993862
  0
ARC
  5
23D
330
1F
100
AcDbEntity
  8
LAY-10
  6
CONTINUOUS
 62
     7
100
AcDbCircle
 10
464.9999999999995
 20
635.9999999999906
 30
0.0
 40
93.48465996167317
100
AcDbArc
 50
184.0872963535933
 51
267.1182038019597
  0
ARC
  5
23E
330
1F
100
AcDbEntity
  8
LAY-10
  6
CONTINUOUS
 62
     7
100
AcDbCircle
 10
464.9999999999995
 20
635.9999999999906
 30
0.0
 40
94.31484586264234
100
AcDbArc
 50
71.30063250060977
 51
78.69936749938904
  0
ARC
  5
23F
330
1F
100
AcDbEntity
  8
LAY-10
  6
CONTINUOUS
 62
     7
100
AcDbCircle
 10
464.9999999999995
 20
635.9999999999906
 30
0.0
 40
93.48465996167317
100
AcDbArc
 50
4.08729635359316
 51
87.11820380196093
  0
ARC
  5
240
330
1F
100
AcDbEntity
  8
LAY-10
  6
CONTINUOUS
 62
     7
100
AcDbCircle
 10
464.9999999999995
 20
635.9999999999906
 30
0.0
 40
94.31484586264234
100
AcDbArc
 50
281.3006325006143
 51
288.699367499389
  0
ARC
  5
241
330
1F
100
AcDbEntity
  8
LAY-10
  6
CONTINUOUS
 62
     7
100
AcDbCircle
 10
464.9999999999995
 20
635.9999999999906
 30
0.0
 40
93.48465996167317
100
AcDbArc
 50
272.8817961980405
 51
355.9127036464069
  0
LINE
  5
242
330
1F
100
AcDbEntity
  8
LAY-10
  6
CONTINUOUS
 62
     7
100
AcDbLine
 10
550.0366072321337
 20
632.5570335802207
 30
0.0
 11
558.9633927678269
 21
637.7109156122414
 31
0.0
  0
LINE
  5
243
330
1F
100
AcDbEntity
  8
LAY-10
  6
CONTINUOUS
 62
     7
100
AcDbLine
 10
549.0366072321364
 20
634.2890843878224
 30
0.0
 11
557.9633927678002
 21
639.442966419826
 31
0.0
  0
CIRCLE
  5
244
330
1F
100
AcDbEntity
  8
LAY-10
  6
CONTINUOUS
 62
     7
100
AcDbCircle
 10
553.9999999999961
 20
635.9999999999901
 30
0.0
 40
5.25
  0
LINE
  5
245
330
1F
100
AcDbEntity
  8
LAY-10
  6
CONTINUOUS
 62
     7
100
AcDbLine
 10
372.0366072321336
 20
632.5570335802207
 30
0.0
 11
380.9633927678268
 21
637.7109156122414
 31
0.0
  0
LINE
  5
246
330
1F
100
AcDbEntity
  8
LAY-10
  6
CONTINUOUS
 62
     7
100
AcDbLine
 10
371.0366072321362
 20
634.2890843878224
 30
0.0
 11
379.9633927678001
 21
639.442966419826
 31
0.0
  0
CIRCLE
  5
247
330
1F
100
AcDbEntity
  8
LAY-10
  6
CONTINUOUS
 62
     7
100
AcDbCircle
 10
375.999999999996
 20
635.9999999999901
 30
0.0
 40
5.25
  0
LINE
  5
248
330
1F
100
AcDbEntity
  8
LAY-10
  6
CONTINUOUS
 62
     7
100
AcDbLine
 10
373.2416148964742
 20
642.6632396920013
 30
0.0
 11
371.7531079072521
 21
642.6632396920013
 31
0.0
  0
LINE
  5
249
330
1F
100
AcDbEntity
  8
LAY-10
  6
CONTINUOUS
 62
     7
100
AcDbLine
 10
371.1107822029344
 20
641.9999999999905
 30
0.0
 11
373.1958606597711
 21
641.9999999999905
 31
0.0
  0
LINE
  5
24A
330
1F
100
AcDbEntity
  8
LAY-10
  6
CONTINUOUS
 62
     7
100
AcDbLine
 10
373.2416148964742
 20
629.3367603079793
 30
0.0
 11
371.7531079072521
 21
629.3367603079793
 31
0.0
  0
LINE
  5
24B
330
1F
100
AcDbEntity
  8
LAY-10
  6
CONTINUOUS
 62
     7
100
AcDbLine
 10
371.1107822029344
 20
629.9999999999905
 30
0.0
 11
373.1958606597711
 21
629.9999999999905
 31
0.0
  0
LINE
  5
24C
330
1F
100
AcDbEntity
  8
LAY-10
  6
CONTINUOUS
 62
     7
100
AcDbLine
 10
460.9999999999995
 20
542.004334043815
 30
0.0
 11
460.9999999999995
 21
544.0869976553819
 31
0.0
  0
LINE
  5
24D
330
1F
100
AcDbEntity
  8
LAY-10
  6
CONTINUOUS
 62
     7
100
AcDbLine
 10
460.2999999999995
 20
544.1201327819757
 30
0.0
 11
460.2999999999995
 21
542.6335625176173
 31
0.0
  0
LINE
  5
24E
330
1F
100
AcDbEntity
  8
LAY-10
  6
CONTINUOUS
 62
     7
100
AcDbLine
 10
468.9999999999996
 20
544.0869976553819
 30
0.0
 11
468.9999999999996
 21
542.0043340438147
 31
0.0
  0
LINE
  5
24F
330
1F
100
AcDbEntity
  8
LAY-10
  6
CONTINUOUS
 62
     7
100
AcDbLine
 10
469.6999999999996
 20
544.1201327819757
 30
0.0
 11
469.6999999999996
 21
542.6335625176173
 31
0.0
  0
LINE
  5
250
330
1F
100
AcDbEntity
  8
LAY-10
  6
CONTINUOUS
 62
     7
100
AcDbLine
 10
558.8892177970647
 20
641.9999999999905
 30
0.0
 11
556.8041393402274
 21
641.9999999999905
 31
0.0
  0
LINE
  5
251
330
1F
100
AcDbEntity
  8
LAY-10
  6
CONTINUOUS
 62
     7
100
AcDbLine
 10
556.7583851035245
 20
642.6632396920013
 30
0.0
 11
558.2468920927471
 21
642.6632396920013
 31
0.0
  0
LINE
  5
252
330
1F
100
AcDbEntity
  8
LAY-10
  6
CONTINUOUS
 62
     7
100
AcDbLine
 10
556.7583851035245
 20
629.3367603079793
 30
0.0
 11
558.2468920927471
 21
629.3367603079793
 31
0.0
  0
LINE
  5
253
330
1F
100
AcDbEntity
  8
LAY-10
  6
CONTINUOUS
 62
     7
100
AcDbLine
 10
558.8892177970647
 20
629.9999999999905
 30
0.0
 11
556.8041393402274
 21
629.9999999999905
 31
0.0
  0
LINE
  5
254
330
1F
100
AcDbEntity
  8
LAY-10
  6
CONTINUOUS
 62
     7
100
AcDbLine
 10
460.9999999999995
 20
729.995665956165
 30
0.0
 11
460.9999999999997
 21
727.9130023445989
 31
0.0
  0
LINE
  5
255
330
1F
100
AcDbEntity
  8
LAY-10
  6
CONTINUOUS
 62
     7
100
AcDbLine
 10
460.2999999999996
 20
727.8798672180052
 30
0.0
 11
460.2999999999995
 21
729.3664374823627
 31
0.0
  0
LINE
  5
256
330
1F
100
AcDbEntity
  8
LAY-10
  6
CONTINUOUS
 62
     7
100
AcDbLine
 10
469.6999999999998
 20
727.8798672180052
 30
0.0
 11
469.6999999999996
 21
729.3664374823627
 31
0.0
  0
LINE
  5
257
330
1F
100
AcDbEntity
  8
LAY-10
  6
CONTINUOUS
 62
     7
100
AcDbLine
 10
468.9999999999997
 20
727.9130023445989
 30
0.0
 11
468.9999999999996
 21
729.9956659561653
 31
0.0
  0
ARC
  5
258
330
1F
100
AcDbEntity
  8
LAY-10
  6
CONTINUOUS
 62
     7
100
AcDbCircle
 10
556.5878994687376
 20
230.4670485968249
 30
0.0
 40
1.0
100
AcDbArc
 50
292.8476180659242
 51
353.8741186700595
  0
ARC
  5
259
330
1F
100
AcDbEntity
  8
LAY-10
  6
CONTINUOUS
 62
     7
100
AcDbCircle
 10
402.9960083337923
 20
208.087837889071
 30
0.0
 40
5.0
100
AcDbArc
 50
2.145241569875015
 51
85.00000000000024
  0
ARC
  5
25A
330
1F
100
AcDbEntity
  8
LAY-10
  6
CONTINUOUS
 62
     7
100
AcDbCircle
 10
401.1012022763153
 20
205.2421524260505
 30
0.0
 40
3.000000000000002
100
AcDbArc
 50
2.145241569874786
 51
85.00000000000024
  0
LINE
  5
25B
330
1F
100
AcDbEntity
  8
LAY-10
  6
CONTINUOUS
 62
     7
100
AcDbLine
 10
386.0455697885877
 20
214.5899082912858
 30
0.0
 11
403.4317870475305
 21
213.0688113795297
 31
0.0
  0
LINE
  5
25C
330
1F
100
AcDbEntity
  8
LAY-10
  6
CONTINUOUS
 62
     7
100
AcDbLine
 10
408.030229831346
 20
212.6771300986077
 30
0.0
 11
522.1349363684204
 21
212.6771300986077
 31
0.0
  0
ARC
  5
25D
330
1F
100
AcDbEntity
  8
LAY-10
  6
CONTINUOUS
 62
     7
100
AcDbCircle
 10
527.0039916662065
 20
208.0878378890706
 30
0.0
 40
5.0
100
AcDbArc
 50
94.99999999999983
 51
177.8547584301247
  0
ARC
  5
25E
330
1F
100
AcDbEntity
  8
LAY-10
  6
CONTINUOUS
 62
     7
100
AcDbCircle
 10
528.8987977236835
 20
205.2421524260502
 30
0.0
 40
3.000000000000002
100
AcDbArc
 50
94.99999999999983
 51
177.8547584301253
  0
LINE
  5
25F
330
1F
100
AcDbEntity
  8
LAY-10
  6
CONTINUOUS
 62
     7
100
AcDbLine
 10
545.9636426242581
 20
214.7656916000251
 30
0.0
 11
526.5682129524683
 21
213.0688113795293
 31
0.0
  0
LINE
  5
260
330
1F
100
AcDbEntity
  8
LAY-10
  6
CONTINUOUS
 62
     7
100
AcDbLine
 10
460.4539876990476
 20
214.5814646523594
 30
0.0
 11
473.5460123009517
 21
214.5814646523594
 31
0.0
  0
LINE
  5
261
330
1F
100
AcDbEntity
  8
LAY-10
  6
CONTINUOUS
 62
     7
100
AcDbLine
 10
473.5460123009517
 20
214.5814646523594
 30
0.0
 11
473.0000000000001
 21
225.0000000000088
 31
0.0
  0
LINE
  5
262
330
1F
100
AcDbEntity
  8
LAY-10
  6
CONTINUOUS
 62
     7
100
AcDbLine
 10
460.4539876990476
 20
214.5814646523594
 30
0.0
 11
460.9999999999997
 21
225.0000000000088
 31
0.0
  0
LINE
  5
263
330
1F
100
AcDbEntity
  8
LAY-10
  6
CONTINUOUS
 62
     7
100
AcDbLine
 10
546.0211495869959
 20
215.862989816522
 30
0.0
 11
473.4788504130026
 21
215.862989816522
 31
0.0
  0
LINE
  5
264
330
1F
100
AcDbEntity
  8
LAY-10
  6
CONTINUOUS
 62
     7
100
AcDbLine
 10
545.9636426242581
 20
214.7656916000251
 30
0.0
 11
546.4999999999991
 21
225.0000000000088
 31
0.0
  0
LINE
  5
265
330
1F
100
AcDbEntity
  8
LAY-10
  6
CONTINUOUS
 62
     7
100
AcDbLine
 10
535.4684101916971
 20
208.8283785533901
 30
0.0
 11
528.6373304954406
 21
208.2307365203257
 31
0.0
  0
LINE
  5
266
330
1F
100
AcDbEntity
  8
LAY-10
  6
CONTINUOUS
 62
     7
100
AcDbLine
 10
525.9009002801419
 20
205.3544507697828
 30
0.0
 11
524.5000000000001
 21
167.9562556682477
 31
0.0
  0
LINE
  5
267
330
1F
100
AcDbEntity
  8
LAY-10
  6
CONTINUOUS
 62
     7
100
AcDbLine
 10
522.0074959269703
 20
208.2750017952917
 30
0.0
 11
520.4971946252365
 21
167.9562556682477
 31
0.0
  0
LINE
  5
268
330
1F
100
AcDbEntity
  8
LAY-10
  6
CONTINUOUS
 62
     7
100
AcDbLine
 10
407.9925040730287
 20
208.2750017952921
 30
0.0
 11
409.5028053747627
 21
167.9562556682477
 31
0.0
  0
LINE
  5
269
330
1F
100
AcDbEntity
  8
LAY-10
  6
CONTINUOUS
 62
     7
100
AcDbLine
 10
404.0990997198572
 20
205.3544507697832
 30
0.0
 11
405.4999999999989
 21
167.9562556682477
 31
0.0
  0
LINE
  5
26A
330
1F
100
AcDbEntity
  8
LAY-10
  6
CONTINUOUS
 62
     7
100
AcDbLine
 10
386.0455697885878
 20
214.5899082912858
 30
0.0
 11
385.5000000000007
 21
225.0000000000088
 31
0.0
  0
LINE
  5
26B
330
1F
100
AcDbEntity
  8
LAY-10
  6
CONTINUOUS
 62
     7
100
AcDbLine
 10
385.9788504130039
 20
215.862989816522
 30
0.0
 11
460.5211495869967
 21
215.862989816522
 31
0.0
  0
LINE
  5
26C
330
1F
100
AcDbEntity
  8
LAY-10
  6
CONTINUOUS
 62
     7
100
AcDbLine
 10
525.7752457930644
 20
202.0000000000033
 30
0.0
 11
540.1655199157856
 21
202.0000000000033
 31
0.0
  0
LINE
  5
26D
330
1F
100
AcDbEntity
  8
LAY-10
  6
CONTINUOUS
 62
     7
100
AcDbLine
 10
404.2247542069344
 20
202.0000000000036
 30
0.0
 11
389.8344800842132
 21
202.0000000000037
 31
0.0
  0
LINE
  5
26E
330
1F
100
AcDbEntity
  8
LAY-10
  6
CONTINUOUS
 62
     7
100
AcDbLine
 10
393.1870748833695
 20
202.9476640437611
 30
0.0
 11
393.4458045307994
 21
207.8845198115419
 31
0.0
  0
ARC
  5
26F
330
1F
100
AcDbEntity
  8
LAY-10
  6
CONTINUOUS
 62
     7
100
AcDbCircle
 10
394.4444340655542
 20
207.8321838552991
 30
0.0
 40
1.0
100
AcDbArc
 50
85.00000000000676
 51
177.0000000000076
  0
ARC
  5
270
330
1F
100
AcDbEntity
  8
LAY-10
  6
CONTINUOUS
 62
     7
100
AcDbCircle
 10
392.1884453486149
 20
203.000000000004
 30
0.0
 40
1.0
100
AcDbArc
 50
270.0000000000001
 51
357.0000000000076
  0
ARC
  5
271
330
1F
100
AcDbEntity
  8
LAY-10
  6
CONTINUOUS
 62
     7
100
AcDbCircle
 10
387.546865417917
 20
208.4356429178591
 30
0.0
 40
1.0
100
AcDbArc
 50
2.999999999992387
 51
84.99999999999365
  0
LINE
  5
272
330
1F
100
AcDbEntity
  8
LAY-10
  6
CONTINUOUS
 62
     7
100
AcDbLine
 10
388.8358505494587
 20
202.9476640437612
 30
0.0
 11
388.5454949526716
 21
208.4879788741019
 31
0.0
  0
ARC
  5
273
330
1F
100
AcDbEntity
  8
LAY-10
  6
CONTINUOUS
 62
     7
100
AcDbCircle
 10
389.8344800842132
 20
203.000000000004
 30
0.0
 40
1.0
100
AcDbArc
 50
182.9999999999925
 51
270.0000000000001
  0
LINE
  5
274
330
1F
100
AcDbEntity
  8
LAY-10
  6
CONTINUOUS
 62
     7
100
AcDbLine
 10
372.8338551342297
 20
210.7266843615647
 30
0.0
 11
387.6340211606647
 21
209.4318376159502
 31
0.0
  0
LINE
  5
275
330
1F
100
AcDbEntity
  8
LAY-10
  6
CONTINUOUS
 62
     7
100
AcDbLine
 10
394.5315898083018
 20
208.8283785533902
 30
0.0
 11
401.3626695045583
 21
208.2307365203257
 31
0.0
  0
LINE
  5
276
330
1F
100
AcDbEntity
  8
LAY-10
  6
CENTER
 62
     2
100
AcDbLine
 10
465.0
 20
411.1234748500002
 30
0.0
 11
464.9999999999993
 21
149.22347485
 31
0.0
  0
LINE
  5
277
330
1F
100
AcDbEntity
  8
LAY-10
  6
CENTER
 62
     2
100
AcDbLine
 10
375.9999999999994
 20
214.64347485
 30
0.0
 11
375.9999999999994
 21
238.25347485
 31
0.0
  0
LINE
  5
278
330
1F
100
AcDbEntity
  8
LAY-10
  6
CENTER
 62
     2
100
AcDbLine
 10
585.1999999999888
 20
195.5000000000235
 30
0.0
 11
573.9999999999899
 21
195.5000000000235
 31
0.0
  0
ARC
  5
279
330
1F
100
AcDbEntity
  8
LAY-10
  6
CENTER
 62
     2
100
AcDbCircle
 10
573.9999999999899
 20
200.0000000000235
 30
0.0
 40
4.5
100
AcDbArc
 50
180.0
 51
270.0000000000002
  0
LINE
  5
27A
330
1F
100
AcDbEntity
  8
LAY-10
  6
CENTER
 62
     2
100
AcDbLine
 10
569.4999999999901
 20
226.2013587595077
 30
0.0
 11
569.4999999999901
 21
200.0000000000235
 31
0.0
  0
LINE
  5
27B
330
1F
100
AcDbEntity
  8
LAY-10
  6
CENTER
 62
     2
100
AcDbLine
 10
464.9999999999995
 20
516.9999999999898
 30
0.0
 11
464.9999999999995
 21
754.4999999999899
 31
0.0
  0
LINE
  5
27C
330
1F
100
AcDbEntity
  8
LAY-10
  6
CENTER
 62
     2
100
AcDbLine
 10
348.0515095359661
 20
635.9999999999899
 30
0.0
 11
583.7515095359661
 21
635.9999999999899
 31
0.0
  0
LINE
  5
27D
330
1F
100
AcDbEntity
  8
LAY-10
  6
CENTER
 62
     2
100
AcDbLine
 10
375.9999999999996
 20
641.9999999999905
 30
0.0
 11
375.9999999999996
 21
629.9999999999905
 31
0.0
  0
LINE
  5
27E
330
1F
100
AcDbEntity
  8
LAY-10
  6
CENTER
 62
     2
100
AcDbLine
 10
553.9999999999995
 20
641.9999999999905
 30
0.0
 11
553.9999999999995
 21
629.9999999999905
 31
0.0
  0
LINE
  5
27F
330
1F
100
AcDbEntity
  8
LAY-10
  6
CONTINUOUS
 62
     7
100
AcDbLine
 10
378.9999999999994
 20
219.0000000000369
 30
0.0
 11
378.5000000000007
 21
218.5000000000365
 31
0.0
  0
LINE
  5
280
330
1F
100
AcDbEntity
  8
LAY-10
  6
CONTINUOUS
 62
     7
100
AcDbLine
 10
372.9999999999998
 20
219.0000000000369
 30
0.0
 11
373.5000000000012
 21
218.5000000000365
 31
0.0
  0
LINE
  5
281
330
1F
100
AcDbEntity
  8
LAY-10
  6
CONTINUOUS
 62
     7
100
AcDbLine
 10
373.4999999999994
 20
232.5000000000085
 30
0.0
 11
373.4999999999994
 21
220.5000000000106
 31
0.0
  0
LINE
  5
282
330
1F
100
AcDbEntity
  8
LAY-10
  6
CONTINUOUS
 62
     7
100
AcDbLine
 10
378.4999999999993
 20
232.5000000000085
 30
0.0
 11
378.4999999999993
 21
220.5000000000106
 31
0.0
  0
LINE
  5
283
330
1F
100
AcDbEntity
  8
LAY-10
  6
CONTINUOUS
 62
     7
100
AcDbLine
 10
372.9999999999998
 20
219.0000000000369
 30
0.0
 11
372.9999999999998
 21
221.0000000000106
 31
0.0
  0
LINE
  5
284
330
1F
100
AcDbEntity
  8
LAY-10
  6
CONTINUOUS
 62
     7
100
AcDbLine
 10
378.9999999999994
 20
219.0000000000369
 30
0.0
 11
378.9999999999994
 21
221.0000000000106
 31
0.0
  0
LINE
  5
285
330
1F
100
AcDbEntity
  8
LAY-10
  6
CONTINUOUS
 62
     7
100
AcDbLine
 10
572.4999999999908
 20
222.500000000013
 30
0.0
 11
571.9999999999924
 21
223.0000000000137
 31
0.0
  0
LINE
  5
286
330
1F
100
AcDbEntity
  8
LAY-10
  6
CONTINUOUS
 62
     7
100
AcDbLine
 10
566.4999999999917
 20
222.500000000013
 30
0.0
 11
566.9999999999931
 21
223.0000000000137
 31
0.0
  0
LINE
  5
287
330
1F
100
AcDbEntity
  8
LAY-10
  6
CONTINUOUS
 62
     7
100
AcDbLine
 10
572.4999999999908
 20
222.500000000013
 30
0.0
 11
572.4999999999908
 21
220.500000000024
 31
0.0
  0
LINE
  5
288
330
1F
100
AcDbEntity
  8
LAY-10
  6
CONTINUOUS
 62
     7
100
AcDbLine
 10
566.4999999999917
 20
222.500000000013
 30
0.0
 11
566.4999999999917
 21
220.500000000024
 31
0.0
  0
LINE
  5
289
330
1F
100
AcDbEntity
  8
LAY-10
  6
CONTINUOUS
 62
     7
100
AcDbLine
 10
571.9999999999899
 20
221.0000000000179
 30
0.0
 11
571.9999999999899
 21
215.0000000000179
 31
0.0
  0
LINE
  5
28A
330
1F
100
AcDbEntity
  8
LAY-10
  6
CONTINUOUS
 62
     7
100
AcDbLine
 10
566.9999999999899
 20
221.0000000000179
 30
0.0
 11
566.9999999999899
 21
215.0000000000179
 31
0.0
  0
LINE
  5
28B
330
1F
100
AcDbEntity
  8
LAY-10
  6
CONTINUOUS
 62
     7
100
AcDbLine
 10
566.9999999999717
 20
214.1339745962229
 30
0.0
 11
566.4999999999717
 21
215.0000000000075
 31
0.0
  0
LINE
  5
28C
330
1F
100
AcDbEntity
  8
LAY-10
  6
CONTINUOUS
 62
     7
100
AcDbLine
 10
572.0000000000019
 20
214.1339745962265
 30
0.0
 11
572.5000000000019
 21
215.000000000011
 31
0.0
  0
DIMENSION
  5
28E
330
1F
100
AcDbEntity
  8
LAY-20
  6
CONTINUOUS
 62
     4
100
AcDbDimension
  2
*D15
 10
578.4999999999991
 20
477.0
 30
0.0
 11
464.9999999999976
 21
484.5
 31
0.0
 70
   160
  1
%%c<>
  3
ISO-25
100
AcDbAlignedDimension
 13
351.4999999999961
 23
226.00000000001
 33
0.0
 14
578.4999999999991
 24
226.00000000001
 34
0.0
100
AcDbRotatedDimension
1001
ACAD
1000
DSTYLE
1002
{
1070
   270
1070
     2
1070
     6
1000
EX_BNORM
1070
     7
1000
EX_BNORM
1070
    41
1040
7.5
1070
    42
1040
4.5
1070
    44
1040
4.5
1070
    73
1070
     0
1070
    74
1070
     0
1070
    75
1070
     0
1070
    76
1070
     0
1070
    77
1070
     1
1070
    78
1070
     8
1070
   140
1040
9.3543312
1070
   147
1040
0.0
1070
   173
1070
     1
1070
   176
1070
     4
1070
   177
1070
     4
1070
   178
1070
     7
1070
   271
1070
     1
1070
   277
1070
     2
1070
   279
1070
     2
1070
   280
1070
     0
1070
   287
1070
     5
1070
   340
1005
28D
1002
}
  0
DIMENSION
  5
29C
330
1F
100
AcDbEntity
  8
LAY-20
  6
CONTINUOUS
 62
     4
100
AcDbDimension
  2
*D16
 10
559.499999999997
 20
456.0
 30
0.0
 11
465.0000000000015
 21
463.5
 31
0.0
 70
   160
  1
%%c<>
  3
ISO-25
100
AcDbAlignedDimension
 13
370.5000000000061
 23
233.00000000001
 33
0.0
 14
559.499999999997
 24
233.00000000001
 34
0.0
100
AcDbRotatedDimension
1001
ACAD
1000
DSTYLE
1002
{
1070
   270
1070
     2
1070
     6
1000
EX_BNORM
1070
     7
1000
EX_BNORM
1070
    41
1040
7.5
1070
    42
1040
4.5
1070
    44
1040
4.5
1070
    73
1070
     0
1070
    74
1070
     0
1070
    75
1070
     0
1070
    76
1070
     0
1070
    77
1070
     1
1070
    78
1070
     8
1070
   140
1040
9.3543312
1070
   147
1040
0.0
1070
   173
1070
     1
1070
   176
1070
     4
1070
   177
1070
     4
1070
   178
1070
     7
1070
   271
1070
     1
1070
   277
1070
     2
1070
   279
1070
     2
1070
   280
1070
     0
1070
   287
1070
     5
1070
   340
1005
28D
1002
}
  0
DIMENSION
  5
2A9
330
1F
100
AcDbEntity
  8
LAY-20
  6
CONTINUOUS
 62
     4
100
AcDbDimension
  2
*D17
 10
524.499999999996
 20
123.0000000000101
 30
0.0
 11
464.9999999999961
 21
130.5000000000101
 31
0.0
 70
   160
  1
%%c<>
  3
ISO-25
100
AcDbAlignedDimension
 13
405.4999999999961
 23
167.95625566825
 33
0.0
 14
524.499999999996
 24
167.95625566825
 34
0.0
100
AcDbRotatedDimension
1001
ACAD
1000
DSTYLE
1002
{
1070
   270
1070
     2
1070
     6
1000
EX_BNORM
1070
     7
1000
EX_BNORM
1070
    41
1040
7.5
1070
    42
1040
4.5
1070
    44
1040
4.5
1070
    73
1070
     0
1070
    74
1070
     0
1070
    75
1070
     0
1070
    76
1070
     0
1070
    77
1070
     1
1070
    78
1070
     8
1070
   140
1040
9.3543312
1070
   147
1040
0.0
1070
   173
1070
     1
1070
   176
1070
     4
1070
   177
1070
     4
1070
   178
1070
     7
1070
   271
1070
     1
1070
   277
1070
     2
1070
   279
1070
     2
1070
   280
1070
     0
1070
   287
1070
     5
1070
   340
1005
28D
1002
}
  0
DIMENSION
  5
2B6
330
1F
100
AcDbEntity
  8
LAY-20
  6
CONTINUOUS
 62
     4
100
AcDbDimension
  2
*D18
 10
403.9999999999961
 20
102.0000000000101
 30
0.0
 11
464.9999999999961
 21
109.5000000000101
 31
0.0
 70
   160
  1
%%c<>
  3
ISO-25
100
AcDbAlignedDimension
 13
525.999999999996
 23
207.9999999999999
 33
0.0
 14
403.9999999999961
 24
207.9999999999999
 34
0.0
100
AcDbRotatedDimension
1001
ACAD
1000
DSTYLE
1002
{
1070
   270
1070
     2
1070
     6
1000
EX_BNORM
1070
     7
1000
EX_BNORM
1070
    41
1040
7.5
1070
    42
1040
4.5
1070
    44
1040
4.5
1070
    73
1070
     0
1070
    74
1070
     0
1070
    75
1070
     0
1070
    76
1070
     0
1070
    77
1070
     1
1070
    78
1070
     8
1070
   140
1040
9.3543312
1070
   147
1040
0.0
1070
   173
1070
     1
1070
   176
1070
     4
1070
   177
1070
     4
1070
   178
1070
     7
1070
   271
1070
     1
1070
   277
1070
     2
1070
   279
1070
     2
1070
   280
1070
     0
1070
   287
1070
     5
1070
   340
1005
28D
1002
}
  0
DIMENSION
  5
2C3
330
1F
100
AcDbEntity
  8
LAY-20
  6
CONTINUOUS
 62
     4
100
AcDbDimension
  2
*D19
 10
321.4999999999861
 20
233.00000000001
 30
0.0
 11
313.9999999999861
 21
221.16354251815
 31
0.0
 70
   160
  3
ISO-25
100
AcDbAlignedDimension
 13
382.4999999999961
 23
209.32708503629
 33
0.0
 14
352.4999999999961
 24
233.00000000001
 34
0.0
 50
90.0
100
AcDbRotatedDimension
1001
ACAD
1000
DSTYLE
1002
{
1070
   270
1070
     2
1070
     6
1000
EX_BNORM
1070
     7
1000
EX_BNORM
1070
    41
1040
7.5
1070
    42
1040
4.5
1070
    44
1040
4.5
1070
    73
1070
     0
1070
    74
1070
     0
1070
    75
1070
     0
1070
    76
1070
     0
1070
    77
1070
     1
1070
    78
1070
     0
1070
   140
1040
9.3543312
1070
   147
1040
0.0
1070
   173
1070
     1
1070
   176
1070
     4
1070
   177
1070
     4
1070
   178
1070
     7
1070
   271
1070
     0
1070
   277
1070
     2
1070
   279
1070
     2
1070
   280
1070
     0
1070
   287
1070
     5
1070
   340
1005
28D
1002
}
  0
LINE
  5
2D0
330
1F
100
AcDbEntity
  8
LAY-20
  6
CONTINUOUS
 62
     7
100
AcDbLine
 10
510.7329046702564
 20
362.6255365585309
 30
0.0
 11
534.9999999999993
 21
225.0000000000099
 31
0.0
  0
LINE
  5
2D1
330
1F
100
AcDbEntity
  8
LAY-20
  6
CONTINUOUS
 62
     7
100
AcDbLine
 10
419.2670953297424
 20
362.6255365585309
 30
0.0
 11
394.9999999999995
 21
225.0000000000099
 31
0.0
  0
LINE
  5
2D2
330
1F
100
AcDbEntity
  8
LAY-20
  6
CONTINUOUS
 62
     7
100
AcDbLine
 10
415.3278643176937
 20
363.3201292691984
 30
0.0
 11
392.2607459077701
 21
232.5000000000098
 31
0.0
  0
ARC
  5
2D3
330
1F
100
AcDbEntity
  8
LAY-20
  6
CONTINUOUS
 62
     7
100
AcDbCircle
 10
464.9999999999993
 20
354.5615915589975
 30
0.0
 40
50.43840844101248
100
AcDbArc
 50
9.999999999998629
 51
170.0000000000015
  0
ARC
  5
2D4
330
1F
100
AcDbEntity
  8
LAY-20
  6
CONTINUOUS
 62
     7
100
AcDbCircle
 10
464.9999999999993
 20
354.5615915589975
 30
0.0
 40
46.43840844101243
100
AcDbArc
 50
9.999999999998515
 51
170.0000000000018
  0
LINE
  5
2D5
330
1F
100
AcDbEntity
  8
LAY-20
  6
CONTINUOUS
 62
     7
100
AcDbLine
 10
458.9999999999998
 20
230.0000000000098
 30
0.0
 11
461.2834196627521
 21
387.9459683498582
 31
0.0
  0
ARC
  5
2D6
330
1F
100
AcDbEntity
  8
LAY-20
  6
CONTINUOUS
 62
     7
100
AcDbCircle
 10
450.4248763138546
 20
388.1251221078005
 30
0.0
 40
3.484084469364689
100
AcDbArc
 50
357.5286467761516
 51
175.9769989288773
  0
LINE
  5
2D7
330
1F
100
AcDbEntity
  8
LAY-20
  6
CONTINUOUS
 62
     7
100
AcDbLine
 10
435.8112094240396
 20
230.0000000000098
 30
0.0
 11
446.949376745233
 21
388.3695547941862
 31
0.0
  0
LINE
  5
2D8
330
1F
100
AcDbEntity
  8
LAY-20
  6
CONTINUOUS
 62
     7
100
AcDbLine
 10
447.0875208734703
 20
230.0000000000098
 30
0.0
 11
453.9057202556094
 21
387.9748888131845
 31
0.0
  0
ARC
  5
2D9
330
1F
100
AcDbEntity
  8
LAY-20
  6
CONTINUOUS
 62
     7
100
AcDbCircle
 10
449.4239453535289
 20
388.1251221078005
 30
0.0
 40
3.484084469364689
100
AcDbArc
 50
357.5286467761516
 51
81.74127492635489
  0
LINE
  5
2DA
330
1F
100
AcDbEntity
  8
LAY-20
  6
CONTINUOUS
 62
     7
100
AcDbLine
 10
452.9047892952838
 20
387.9748888131845
 30
0.0
 11
446.0865899131447
 21
230.0000000000098
 31
0.0
  0
LINE
  5
2DB
330
1F
100
AcDbEntity
  8
LAY-20
  6
CONTINUOUS
 62
     7
100
AcDbLine
 10
425.3355510896374
 20
230.0000000000098
 30
0.0
 11
440.485432072773
 21
388.5191938565006
 31
0.0
  0
ARC
  5
2DC
330
1F
100
AcDbEntity
  8
LAY-20
  6
CONTINUOUS
 62
     7
100
AcDbCircle
 10
437.6766559916289
 20
388.787632159159
 30
0.0
 40
2.821574418005272
100
AcDbArc
 50
354.5407505380119
 51
107.5053883308299
  0
ARC
  5
2DD
330
1F
100
AcDbEntity
  8
LAY-20
  6
CONTINUOUS
 62
     7
100
AcDbCircle
 10
435.6675428857839
 20
388.787632159159
 30
0.0
 40
2.821574418005272
100
AcDbArc
 50
354.5407505380119
 51
67.9184670194002
  0
LINE
  5
2DE
330
1F
100
AcDbEntity
  8
LAY-20
  6
CONTINUOUS
 62
     7
100
AcDbLine
 10
438.4763189669282
 20
388.5191938565006
 30
0.0
 11
423.3264379837926
 21
230.0000000000098
 31
0.0
  0
LINE
  5
2DF
330
1F
100
AcDbEntity
  8
LAY-20
  6
CONTINUOUS
 62
     7
100
AcDbLine
 10
416.1430177722098
 20
230.0000000000098
 30
0.0
 11
434.9771075234685
 21
389.989711829158
 31
0.0
  0
LINE
  5
2E0
330
1F
100
AcDbEntity
  8
LAY-20
  6
CONTINUOUS
 62
     7
100
AcDbLine
 10
408.3676992293146
 20
230.0000000000098
 30
0.0
 11
429.4402722971242
 21
384.4284886899628
 31
0.0
  0
LINE
  5
2E1
330
1F
100
AcDbEntity
  8
LAY-20
  6
CONTINUOUS
 62
     7
100
AcDbLine
 10
425.716328313061
 20
379.3268680025813
 30
0.0
 11
405.3398980075817
 21
230.0000000000098
 31
0.0
  0
LINE
  5
2E2
330
1F
100
AcDbEntity
  8
LAY-20
  6
CONTINUOUS
 62
     7
100
AcDbLine
 10
402.3676992293146
 20
230.0000000000098
 30
0.0
 11
424.6290195343325
 21
377.5117487431003
 31
0.0
  0
LINE
  5
2E3
330
1F
100
AcDbEntity
  8
LAY-20
  6
CONTINUOUS
 62
     7
100
AcDbLine
 10
420.2885750008065
 20
367.1080752526804
 30
0.0
 11
398.2305386456803
 21
230.0000000000098
 31
0.0
  0
LINE
  5
2E4
330
1F
100
AcDbEntity
  8
LAY-20
  6
CONTINUOUS
 62
     7
100
AcDbLine
 10
384.6627089603294
 20
226.895328087524
 30
0.0
 11
384.368980551786
 21
232.5000000000099
 31
0.0
  0
ARC
  5
2E5
330
1F
100
AcDbEntity
  8
LAY-20
  6
CONTINUOUS
 62
     7
100
AcDbCircle
 10
386.6599680298386
 20
227.0000000000098
 30
0.0
 40
2.0
100
AcDbArc
 50
182.9999999999975
 51
270.0
  0
LINE
  5
2E6
330
1F
100
AcDbEntity
  8
LAY-20
  6
CONTINUOUS
 62
     7
100
AcDbLine
 10
459.999999999996
 20
225.0000000000099
 30
0.0
 11
460.9999999999961
 21
230.0000000000099
 31
0.0
  0
LINE
  5
2E7
330
1F
100
AcDbEntity
  8
LAY-20
  6
CONTINUOUS
 62
     7
100
AcDbLine
 10
514.672135682305
 20
363.3201292691984
 30
0.0
 11
539.0617064475422
 21
225.0000000000099
 31
0.0
  0
LINE
  5
2E8
330
1F
100
AcDbEntity
  8
LAY-20
  6
CONTINUOUS
 62
     7
100
AcDbLine
 10
447.0875208734703
 20
230.0000000000098
 30
0.0
 11
435.8112094240396
 21
230.0000000000098
 31
0.0
  0
LINE
  5
2E9
330
1F
100
AcDbEntity
  8
LAY-20
  6
CONTINUOUS
 62
     7
100
AcDbLine
 10
425.3355510896374
 20
230.0000000000098
 30
0.0
 11
416.1430177722098
 21
230.0000000000098
 31
0.0
  0
LINE
  5
2EA
330
1F
100
AcDbEntity
  8
LAY-20
  6
CONTINUOUS
 62
     7
100
AcDbLine
 10
408.3676992293146
 20
230.0000000000098
 30
0.0
 11
402.3676992293146
 21
230.0000000000098
 31
0.0
  0
LINE
  5
2EB
330
1F
100
AcDbEntity
  8
LAY-20
  6
CONTINUOUS
 62
     7
100
AcDbLine
 10
492.9999999999993
 20
391.6092065771644
 30
0.0
 11
491.9999999999993
 21
397.1647962044512
 31
0.0
  0
ARC
  5
2EC
330
1F
100
AcDbEntity
  8
LAY-20
  6
CONTINUOUS
 62
     7
100
AcDbCircle
 10
464.9999999999993
 20
387.8922378703219
 30
0.0
 40
3.716968706841741
100
AcDbArc
 50
90.0
 51
179.1717345028729
  0
LINE
  5
2ED
330
1F
100
AcDbEntity
  8
LAY-20
  6
CONTINUOUS
 62
     7
100
AcDbLine
 10
464.9999999999993
 20
230.0000000000098
 30
0.0
 11
458.9999999999998
 21
230.0000000000098
 31
0.0
  0
ARC
  5
2EE
330
1F
100
AcDbEntity
  8
LAY-20
  6
CONTINUOUS
 62
     7
100
AcDbCircle
 10
469.9490254467125
 20
389.1653052315645
 30
0.0
 40
2.443901345596361
100
AcDbArc
 50
3.762676201877201
 51
181.2754042898241
  0
LINE
  5
2EF
330
1F
100
AcDbEntity
  8
LAY-20
  6
CONTINUOUS
 62
     7
100
AcDbLine
 10
467.505729562186
 20
389.11090847006
 30
0.0
 11
471.048124159306
 21
230.0000000000099
 31
0.0
  0
LINE
  5
2F0
330
1F
100
AcDbEntity
  8
LAY-20
  6
CONTINUOUS
 62
     7
100
AcDbLine
 10
482.8658171954462
 20
230.0000000000099
 30
0.0
 11
472.387658789276
 21
389.32568355782
 31
0.0
  0
LINE
  5
2F1
330
1F
100
AcDbEntity
  8
LAY-20
  6
CONTINUOUS
 62
     7
100
AcDbLine
 10
467.505729562186
 20
389.11090847006
 30
0.0
 11
467.505729562186
 21
389.2197019930859
 31
0.0
  0
LINE
  5
2F2
330
1F
100
AcDbEntity
  8
LAY-20
  6
CONTINUOUS
 62
     7
100
AcDbLine
 10
467.8611445790061
 20
389.11090847006
 30
0.0
 11
471.4035391761261
 21
230.0000000000099
 31
0.0
  0
ARC
  5
2F3
330
1F
100
AcDbEntity
  8
LAY-20
  6
CONTINUOUS
 62
     7
100
AcDbCircle
 10
470.3044404635326
 20
389.1653052315645
 30
0.0
 40
2.443901345596361
100
AcDbArc
 50
94.16992458303719
 51
181.2754042898241
  0
LINE
  5
2F4
330
1F
100
AcDbEntity
  8
LAY-20
  6
CONTINUOUS
 62
     7
100
AcDbLine
 10
504.624877325056
 20
230.0000000000099
 30
0.0
 11
494.232572479646
 21
230.0000000000099
 31
0.0
  0
ARC
  5
2F5
330
1F
100
AcDbEntity
  8
LAY-20
  6
CONTINUOUS
 62
     7
100
AcDbCircle
 10
479.2117615805849
 20
389.4809293174705
 30
0.0
 40
2.128277259690108
100
AcDbArc
 50
8.298791864073026
 51
186.1418331030346
  0
LINE
  5
2F6
330
1F
100
AcDbEntity
  8
LAY-20
  6
CONTINUOUS
 62
     7
100
AcDbLine
 10
477.095700434411
 20
389.2532248604107
 30
0.0
 11
494.232572479646
 21
230.0000000000099
 31
0.0
  0
LINE
  5
2F7
330
1F
100
AcDbEntity
  8
LAY-20
  6
CONTINUOUS
 62
     7
100
AcDbLine
 10
504.624877325056
 20
230.0000000000099
 30
0.0
 11
481.3177532931051
 21
389.7881149305888
 31
0.0
  0
LINE
  5
2F8
330
1F
100
AcDbEntity
  8
LAY-20
  6
CONTINUOUS
 62
     7
100
AcDbLine
 10
478.8135380590811
 20
389.2532248604107
 30
0.0
 11
495.9504101043161
 21
230.0000000000099
 31
0.0
  0
ARC
  5
2F9
330
1F
100
AcDbEntity
  8
LAY-20
  6
CONTINUOUS
 62
     7
100
AcDbCircle
 10
480.9295992052548
 20
389.4809293174705
 30
0.0
 40
2.128277259690108
100
AcDbArc
 50
113.801839999428
 51
186.1418331030346
  0
LINE
  5
2FA
330
1F
100
AcDbEntity
  8
LAY-20
  6
CONTINUOUS
 62
     7
100
AcDbLine
 10
496.0386597169362
 20
230.0000000000099
 30
0.0
 11
495.6256934253261
 21
225.0000000000099
 31
0.0
  0
LINE
  5
2FB
330
1F
100
AcDbEntity
  8
LAY-20
  6
CONTINUOUS
 62
     7
100
AcDbLine
 10
502.9639619010761
 20
230.0000000000099
 30
0.0
 11
504.199080208546
 21
225.0000000000099
 31
0.0
  0
LINE
  5
2FC
330
1F
100
AcDbEntity
  8
LAY-20
  6
CONTINUOUS
 62
     7
100
AcDbLine
 10
513.891141132116
 20
230.0000000000099
 30
0.0
 11
521.6045924483561
 21
230.0000000000099
 31
0.0
  0
ARC
  5
2FD
330
1F
100
AcDbEntity
  8
LAY-20
  6
CONTINUOUS
 62
     7
100
AcDbCircle
 10
486.6660500865837
 20
390.0539537341206
 30
0.0
 40
1.555252843040876
100
AcDbArc
 50
11.77011161510542
 51
190.2024546079126
  0
LINE
  5
2FE
330
1F
100
AcDbEntity
  8
LAY-20
  6
CONTINUOUS
 62
     7
100
AcDbLine
 10
488.1886020761665
 20
390.3712026029904
 30
0.0
 11
521.6045924483561
 21
230.0000000000099
 31
0.0
  0
LINE
  5
2FF
330
1F
100
AcDbEntity
  8
LAY-20
  6
CONTINUOUS
 62
     7
100
AcDbLine
 10
513.891141132116
 20
230.0000000000099
 30
0.0
 11
485.1353888694906
 21
389.7784766129852
 31
0.0
  0
LINE
  5
300
330
1F
100
AcDbEntity
  8
LAY-20
  6
CONTINUOUS
 62
     7
100
AcDbLine
 10
516.764204794526
 20
230.0000000000099
 30
0.0
 11
488.0084525319006
 21
389.7784766129852
 31
0.0
  0
ARC
  5
301
330
1F
100
AcDbEntity
  8
LAY-20
  6
CONTINUOUS
 62
     7
100
AcDbCircle
 10
489.5391137489937
 20
390.0539537341206
 30
0.0
 40
1.555252843040876
100
AcDbArc
 50
157.4678260935886
 51
190.2024546079126
  0
ARC
  5
302
330
1F
100
AcDbEntity
  8
LAY-20
  6
CONTINUOUS
 62
     7
100
AcDbCircle
 10
491.404684015134
 20
390.7945451773321
 30
0.0
 40
0.8146613998263771
100
AcDbArc
 50
13.80619919662539
 51
192.9870538701794
  0
LINE
  5
303
330
1F
100
AcDbEntity
  8
LAY-20
  6
CONTINUOUS
 62
     7
100
AcDbLine
 10
527.6527166076561
 20
230.0000000000099
 30
0.0
 11
490.6108609466364
 21
390.6114655982114
 31
0.0
  0
LINE
  5
304
330
1F
100
AcDbEntity
  8
LAY-20
  6
CONTINUOUS
 62
     7
100
AcDbLine
 10
492.1958085972398
 20
390.9889547757522
 30
0.0
 11
531.7569583275662
 21
230.0000000000099
 31
0.0
  0
LINE
  5
305
330
1F
100
AcDbEntity
  8
LAY-20
  6
CONTINUOUS
 62
     7
100
AcDbLine
 10
527.6527166076561
 20
230.0000000000099
 30
0.0
 11
531.7569583275662
 21
230.0000000000099
 31
0.0
  0
LINE
  5
306
330
1F
100
AcDbEntity
  8
LAY-20
  6
CONTINUOUS
 62
     7
100
AcDbLine
 10
531.3344724282161
 20
230.0000000000099
 30
0.0
 11
524.8850741887575
 21
257.9642389664709
 31
0.0
  0
LINE
  5
307
330
1F
100
AcDbEntity
  8
LAY-20
  6
CONTINUOUS
 62
     7
100
AcDbLine
 10
471.048124159306
 20
230.0000000000099
 30
0.0
 11
482.8658171954462
 21
230.0000000000099
 31
0.0
  0
LINE
  5
308
330
1F
100
AcDbEntity
  8
LAY-20
  6
CONTINUOUS
 62
     7
100
AcDbLine
 10
398.2305386456803
 20
230.0000000000098
 30
0.0
 11
395.8816349035417
 21
230.0000000000098
 31
0.0
  0
LINE
  5
309
330
1F
100
AcDbEntity
  8
LAY-20
  6
CONTINUOUS
 62
     7
100
AcDbLine
 10
370.7518652431023
 20
232.5000000000099
 30
0.0
 11
392.2607459077701
 21
232.5000000000099
 31
0.0
  0
ARC
  5
30A
330
1F
100
AcDbEntity
  8
LAY-20
  6
CONTINUOUS
 62
     7
100
AcDbCircle
 10
380.4999999999933
 20
635.9999999999905
 30
0.0
 40
4.000000000000071
100
AcDbArc
 50
270.0000000000001
 51
90.00000000000004
  0
LINE
  5
30B
330
1F
100
AcDbEntity
  8
LAY-20
  6
CONTINUOUS
 62
     7
100
AcDbLine
 10
467.651618362292
 20
666.4306130471244
 30
0.0
 11
471.3525870244646
 21
708.9038236945102
 31
0.0
  0
LINE
  5
30C
330
1F
100
AcDbEntity
  8
LAY-20
  6
CONTINUOUS
 62
     7
100
AcDbLine
 10
462.3483816377068
 20
666.4306130471244
 30
0.0
 11
458.6474129755342
 21
708.9038236945102
 31
0.0
  0
ARC
  5
30D
330
1F
100
AcDbEntity
  8
LAY-20
  6
CONTINUOUS
 62
     7
100
AcDbCircle
 10
464.9999999999993
 20
666.6616658993414
 30
0.0
 40
2.66166589935055
100
AcDbArc
 50
184.9799775084821
 51
355.0200224915179
  0
ARC
  5
30E
330
1F
100
AcDbEntity
  8
LAY-20
  6
CONTINUOUS
 62
     7
100
AcDbCircle
 10
454.5130926344995
 20
664.8125411866134
 30
0.0
 40
2.66166589935055
100
AcDbArc
 50
204.9799775084777
 51
15.02002249151959
  0
LINE
  5
30F
330
1F
100
AcDbEntity
  8
LAY-20
  6
CONTINUOUS
 62
     7
100
AcDbLine
 10
457.0838235723174
 20
665.50232941869
 30
0.0
 11
446.0349029208004
 21
706.6798978774038
 31
0.0
  0
LINE
  5
310
330
1F
100
AcDbEntity
  8
LAY-20
  6
CONTINUOUS
 62
     7
100
AcDbLine
 10
452.1004111559436
 20
663.6885156340571
 30
0.0
 11
434.0959446212202
 21
702.334472428211
 31
0.0
  0
ARC
  5
311
330
1F
100
AcDbEntity
  8
LAY-20
  6
CONTINUOUS
 62
     7
100
AcDbCircle
 10
445.291061067548
 20
659.4881987789586
 30
0.0
 40
2.66166589935055
100
AcDbArc
 50
224.9799775084765
 51
35.02002249151949
  0
LINE
  5
312
330
1F
100
AcDbEntity
  8
LAY-20
  6
CONTINUOUS
 62
     7
100
AcDbLine
 10
447.4708364898424
 20
661.0156294543501
 30
0.0
 11
423.0046894199111
 21
695.9309332520844
 31
0.0
  0
LINE
  5
313
330
1F
100
AcDbEntity
  8
LAY-20
  6
CONTINUOUS
 62
     7
100
AcDbLine
 10
443.4083214664292
 20
657.6067745965521
 30
0.0
 11
413.2719614408686
 21
687.7642047945212
 31
0.0
  0
ARC
  5
314
330
1F
100
AcDbEntity
  8
LAY-20
  6
CONTINUOUS
 62
     7
100
AcDbCircle
 10
438.4462184088101
 20
651.3308329496656
 30
0.0
 40
2.66166589935055
100
AcDbArc
 50
244.9799775084786
 51
55.0200224915203
  0
LINE
  5
315
330
1F
100
AcDbEntity
  8
LAY-20
  6
CONTINUOUS
 62
     7
100
AcDbLine
 10
439.9721252295932
 20
653.511675386444
 30
0.0
 11
405.0397301597556
 21
677.9534135901881
 31
0.0
  0
LINE
  5
316
330
1F
100
AcDbEntity
  8
LAY-20
  6
CONTINUOUS
 62
     7
100
AcDbLine
 10
437.3205068673005
 20
648.9189376606705
 30
0.0
 11
398.6871431352905
 21
666.9504101043118
 31
0.0
  0
ARC
  5
317
330
1F
100
AcDbEntity
  8
LAY-20
  6
CONTINUOUS
 62
     7
100
AcDbCircle
 10
434.8041537020483
 20
641.3243424076446
 30
0.0
 40
2.66166589935055
100
AcDbArc
 50
264.9799775084742
 51
75.02002249152041
  0
LINE
  5
318
330
1F
100
AcDbEntity
  8
LAY-20
  6
CONTINUOUS
 62
     7
100
AcDbLine
 10
435.4921450387473
 20
643.895554822128
 30
0.0
 11
394.30686436167
 21
654.9156930828727
 31
0.0
  0
LINE
  5
319
330
1F
100
AcDbEntity
  8
LAY-20
  6
CONTINUOUS
 62
     7
100
AcDbLine
 10
434.5712476457868
 20
638.6728861796971
 30
0.0
 11
392.100634041132
 21
642.4035391761167
 31
0.0
  0
ARC
  5
31A
330
1F
100
AcDbEntity
  8
LAY-20
  6
CONTINUOUS
 62
     7
100
AcDbCircle
 10
434.8041537020483
 20
630.6756575923356
 30
0.0
 40
2.66166589935055
100
AcDbArc
 50
284.9799775084743
 51
95.02002249151865
  0
LINE
  5
31B
330
1F
100
AcDbEntity
  8
LAY-20
  6
CONTINUOUS
 62
     7
100
AcDbLine
 10
434.5712476457868
 20
633.3271138202831
 30
0.0
 11
392.100634041132
 21
629.5964608238635
 31
0.0
  0
LINE
  5
31C
330
1F
100
AcDbEntity
  8
LAY-20
  6
CONTINUOUS
 62
     7
100
AcDbLine
 10
435.4921450387471
 20
628.1044451778522
 30
0.0
 11
394.30686436167
 21
617.0843069171075
 31
0.0
  0
ARC
  5
31D
330
1F
100
AcDbEntity
  8
LAY-20
  6
CONTINUOUS
 62
     7
100
AcDbCircle
 10
438.4462184088101
 20
620.6691670503146
 30
0.0
 40
2.66166589935055
100
AcDbArc
 50
304.9799775084774
 51
115.0200224915259
  0
LINE
  5
31E
330
1F
100
AcDbEntity
  8
LAY-20
  6
CONTINUOUS
 62
     7
100
AcDbLine
 10
437.3205068673002
 20
623.0810623393097
 30
0.0
 11
398.6871431352903
 21
605.0495898956681
 31
0.0
  0
LINE
  5
31F
330
1F
100
AcDbEntity
  8
LAY-20
  6
CONTINUOUS
 62
     7
100
AcDbLine
 10
439.9721252295931
 20
618.4883246135362
 30
0.0
 11
405.0397301597556
 21
594.0465864097918
 31
0.0
  0
ARC
  5
320
330
1F
100
AcDbEntity
  8
LAY-20
  6
CONTINUOUS
 62
     7
100
AcDbCircle
 10
445.291061067548
 20
612.5118012210213
 30
0.0
 40
2.66166589935055
100
AcDbArc
 50
324.9799775084793
 51
135.0200224915209
  0
LINE
  5
321
330
1F
100
AcDbEntity
  8
LAY-20
  6
CONTINUOUS
 62
     7
100
AcDbLine
 10
443.4083214664292
 20
614.3932254034281
 30
0.0
 11
413.2719614408686
 21
584.2357952054589
 31
0.0
  0
LINE
  5
322
330
1F
100
AcDbEntity
  8
LAY-20
  6
CONTINUOUS
 62
     7
100
AcDbLine
 10
447.4708364898422
 20
610.9843705456298
 30
0.0
 11
423.0046894199111
 21
576.0690667478955
 31
0.0
  0
ARC
  5
323
330
1F
100
AcDbEntity
  8
LAY-20
  6
CONTINUOUS
 62
     7
100
AcDbCircle
 10
454.5130926344993
 20
607.1874588133668
 30
0.0
 40
2.66166589935055
100
AcDbArc
 50
344.9799775084805
 51
155.0200224915229
  0
LINE
  5
324
330
1F
100
AcDbEntity
  8
LAY-20
  6
CONTINUOUS
 62
     7
100
AcDbLine
 10
452.1004111559434
 20
608.3114843659228
 30
0.0
 11
434.09594462122
 21
569.6655275717688
 31
0.0
  0
ARC
  5
325
330
1F
100
AcDbEntity
  8
LAY-20
  6
CONTINUOUS
 62
     7
100
AcDbCircle
 10
464.9999999999993
 20
635.9999999999901
 30
0.0
 40
73.1800715440005
100
AcDbArc
 50
94.9799775084797
 51
105.0200224915203
  0
ARC
  5
326
330
1F
100
AcDbEntity
  8
LAY-20
  6
CONTINUOUS
 62
     7
100
AcDbCircle
 10
464.9999999999993
 20
635.9999999999901
 30
0.0
 40
73.1800715440005
100
AcDbArc
 50
114.9799775084796
 51
125.0200224915205
  0
ARC
  5
327
330
1F
100
AcDbEntity
  8
LAY-20
  6
CONTINUOUS
 62
     7
100
AcDbCircle
 10
464.9999999999993
 20
635.9999999999901
 30
0.0
 40
73.1800715440005
100
AcDbArc
 50
134.9799775084797
 51
145.0200224915205
  0
ARC
  5
328
330
1F
100
AcDbEntity
  8
LAY-20
  6
CONTINUOUS
 62
     7
100
AcDbCircle
 10
464.9999999999993
 20
635.9999999999901
 30
0.0
 40
73.1800715440005
100
AcDbArc
 50
154.9799775084797
 51
165.0200224915203
  0
ARC
  5
329
330
1F
100
AcDbEntity
  8
LAY-20
  6
CONTINUOUS
 62
     7
100
AcDbCircle
 10
464.9999999999993
 20
635.9999999999901
 30
0.0
 40
73.1800715440005
100
AcDbArc
 50
174.9799775084799
 51
185.0200224915205
  0
ARC
  5
32A
330
1F
100
AcDbEntity
  8
LAY-20
  6
CONTINUOUS
 62
     7
100
AcDbCircle
 10
464.9999999999993
 20
635.9999999999901
 30
0.0
 40
73.1800715440005
100
AcDbArc
 50
194.9799775084797
 51
205.02002249152
  0
ARC
  5
32B
330
1F
100
AcDbEntity
  8
LAY-20
  6
CONTINUOUS
 62
     7
100
AcDbCircle
 10
464.9999999999993
 20
635.9999999999901
 30
0.0
 40
73.1800715440005
100
AcDbArc
 50
214.9799775084797
 51
225.0200224915204
  0
ARC
  5
32C
330
1F
100
AcDbEntity
  8
LAY-20
  6
CONTINUOUS
 62
     7
100
AcDbCircle
 10
464.9999999999993
 20
635.9999999999901
 30
0.0
 40
73.1800715440005
100
AcDbArc
 50
234.9799775084796
 51
245.0200224915206
  0
ARC
  5
32D
330
1F
100
AcDbEntity
  8
LAY-20
  6
CONTINUOUS
 62
     7
100
AcDbCircle
 10
464.9999999999993
 20
635.9999999999901
 30
0.0
 40
69.11836509645775
100
AcDbArc
 50
105.0200224915203
 51
114.9799775084796
  0
ARC
  5
32E
330
1F
100
AcDbEntity
  8
LAY-20
  6
CONTINUOUS
 62
     7
100
AcDbCircle
 10
464.9999999999993
 20
635.9999999999901
 30
0.0
 40
69.11836509645775
100
AcDbArc
 50
125.0200224915205
 51
134.9799775084798
  0
ARC
  5
32F
330
1F
100
AcDbEntity
  8
LAY-20
  6
CONTINUOUS
 62
     7
100
AcDbCircle
 10
464.9999999999993
 20
635.9999999999901
 30
0.0
 40
69.11836509645775
100
AcDbArc
 50
165.0200224915205
 51
174.9799775084798
  0
ARC
  5
330
330
1F
100
AcDbEntity
  8
LAY-20
  6
CONTINUOUS
 62
     7
100
AcDbCircle
 10
464.9999999999993
 20
635.9999999999901
 30
0.0
 40
69.11836509645775
100
AcDbArc
 50
185.0200224915203
 51
194.9799775084797
  0
ARC
  5
331
330
1F
100
AcDbEntity
  8
LAY-20
  6
CONTINUOUS
 62
     7
100
AcDbCircle
 10
464.9999999999993
 20
635.9999999999901
 30
0.0
 40
69.11836509645775
100
AcDbArc
 50
225.0200224915202
 51
234.9799775084797
  0
ARC
  5
332
330
1F
100
AcDbEntity
  8
LAY-20
  6
CONTINUOUS
 62
     7
100
AcDbCircle
 10
464.9999999999993
 20
666.6616658993414
 30
0.0
 40
3.66166589935055
100
AcDbArc
 50
184.9799775084819
 51
355.0200224915183
  0
LINE
  5
333
330
1F
100
AcDbEntity
  8
LAY-20
  6
CONTINUOUS
 62
     7
100
AcDbLine
 10
468.6478434568614
 20
666.3438054382982
 30
0.0
 11
472.3488121190339
 21
708.8170160856839
 31
0.0
  0
LINE
  5
334
330
1F
100
AcDbEntity
  8
LAY-20
  6
CONTINUOUS
 62
     7
100
AcDbLine
 10
457.6511878809649
 20
708.8170160856839
 30
0.0
 11
461.3521565431371
 21
666.3438054382982
 31
0.0
  0
LINE
  5
335
330
1F
100
AcDbEntity
  8
LAY-20
  6
CONTINUOUS
 62
     7
100
AcDbLine
 10
433.189489202024
 20
701.9121709091398
 30
0.0
 11
451.1939557367475
 21
663.2662141149859
 31
0.0
  0
ARC
  5
336
330
1F
100
AcDbEntity
  8
LAY-20
  6
CONTINUOUS
 62
     7
100
AcDbCircle
 10
454.5130926344995
 20
664.8125411866134
 30
0.0
 40
3.66166589935055
100
AcDbArc
 50
204.979977508482
 51
15.02002249151794
  0
LINE
  5
337
330
1F
100
AcDbEntity
  8
LAY-20
  6
CONTINUOUS
 62
     7
100
AcDbLine
 10
458.0496588931384
 20
665.7614859988771
 30
0.0
 11
447.0007382416218
 21
706.9390544575909
 31
0.0
  0
LINE
  5
338
330
1F
100
AcDbEntity
  8
LAY-20
  6
CONTINUOUS
 62
     7
100
AcDbLine
 10
412.5646075984581
 20
687.0573451609115
 30
0.0
 11
442.7009676240186
 21
656.8999149629424
 31
0.0
  0
ARC
  5
339
330
1F
100
AcDbEntity
  8
LAY-20
  6
CONTINUOUS
 62
     7
100
AcDbCircle
 10
445.291061067548
 20
659.4881987789586
 30
0.0
 40
3.66166589935055
100
AcDbArc
 50
224.9799775084759
 51
35.02002249152373
  0
LINE
  5
33A
330
1F
100
AcDbEntity
  8
LAY-20
  6
CONTINUOUS
 62
     7
100
AcDbLine
 10
448.2897880430129
 20
661.5894921152367
 30
0.0
 11
423.8236409730818
 21
696.5047959129706
 31
0.0
  0
LINE
  5
33B
330
1F
100
AcDbEntity
  8
LAY-20
  6
CONTINUOUS
 62
     7
100
AcDbLine
 10
398.2642081824912
 20
666.0442500601141
 30
0.0
 11
436.8975719145009
 21
648.0127776164728
 31
0.0
  0
ARC
  5
33C
330
1F
100
AcDbEntity
  8
LAY-20
  6
CONTINUOUS
 62
     7
100
AcDbCircle
 10
438.4462184088101
 20
651.3308329496656
 30
0.0
 40
3.66166589935055
100
AcDbArc
 50
244.979977508475
 51
55.0200224915172
  0
LINE
  5
33D
330
1F
100
AcDbEntity
  8
LAY-20
  6
CONTINUOUS
 62
     7
100
AcDbLine
 10
440.5454153713631
 20
654.3310278218155
 30
0.0
 11
405.6130203015256
 21
678.7727660255599
 31
0.0
  0
LINE
  5
33E
330
1F
100
AcDbEntity
  8
LAY-20
  6
CONTINUOUS
 62
     7
100
AcDbLine
 10
392.0131301751064
 20
641.407374996159
 30
0.0
 11
434.4837437797611
 21
637.6767219997394
 31
0.0
  0
ARC
  5
33F
330
1F
100
AcDbEntity
  8
LAY-20
  6
CONTINUOUS
 62
     7
100
AcDbCircle
 10
434.8041537020483
 20
641.3243424076446
 30
0.0
 40
3.66166589935055
100
AcDbArc
 50
264.9799775084757
 51
75.02002249152311
  0
LINE
  5
340
330
1F
100
AcDbEntity
  8
LAY-20
  6
CONTINUOUS
 62
     7
100
AcDbLine
 10
435.7506265171577
 20
644.8615710359248
 30
0.0
 11
394.5653458400804
 21
655.8817092966696
 31
0.0
  0
LINE
  5
341
330
1F
100
AcDbEntity
  8
LAY-20
  6
CONTINUOUS
 62
     7
100
AcDbLine
 10
394.5653458400804
 20
616.1182907033107
 30
0.0
 11
435.7506265171577
 21
627.1384289640554
 31
0.0
  0
ARC
  5
342
330
1F
100
AcDbEntity
  8
LAY-20
  6
CONTINUOUS
 62
     7
100
AcDbCircle
 10
434.8041537020483
 20
630.6756575923356
 30
0.0
 40
3.66166589935055
100
AcDbArc
 50
284.9799775084713
 51
95.02002249152152
  0
LINE
  5
343
330
1F
100
AcDbEntity
  8
LAY-20
  6
CONTINUOUS
 62
     7
100
AcDbLine
 10
434.4837437797611
 20
634.3232780002409
 30
0.0
 11
392.0131301751064
 21
630.5926250038212
 31
0.0
  0
LINE
  5
344
330
1F
100
AcDbEntity
  8
LAY-20
  6
CONTINUOUS
 62
     7
100
AcDbLine
 10
405.6130203015256
 20
593.2272339744203
 30
0.0
 11
440.5454153713631
 21
617.6689721781647
 31
0.0
  0
ARC
  5
345
330
1F
100
AcDbEntity
  8
LAY-20
  6
CONTINUOUS
 62
     7
100
AcDbCircle
 10
438.4462184088101
 20
620.6691670503146
 30
0.0
 40
3.66166589935055
100
AcDbArc
 50
304.9799775084732
 51
115.0200224915219
  0
LINE
  5
346
330
1F
100
AcDbEntity
  8
LAY-20
  6
CONTINUOUS
 62
     7
100
AcDbLine
 10
436.8975719145009
 20
623.9872223835074
 30
0.0
 11
398.264208182491
 21
605.9557499398658
 31
0.0
  0
LINE
  5
347
330
1F
100
AcDbEntity
  8
LAY-20
  6
CONTINUOUS
 62
     7
100
AcDbLine
 10
423.8236409730816
 20
575.4952040870093
 30
0.0
 11
448.2897880430129
 21
610.4105078847435
 31
0.0
  0
ARC
  5
348
330
1F
100
AcDbEntity
  8
LAY-20
  6
CONTINUOUS
 62
     7
100
AcDbCircle
 10
445.291061067548
 20
612.5118012210213
 30
0.0
 40
3.66166589935055
100
AcDbArc
 50
324.9799775084807
 51
135.0200224915179
  0
LINE
  5
349
330
1F
100
AcDbEntity
  8
LAY-20
  6
CONTINUOUS
 62
     7
100
AcDbLine
 10
442.7009676240186
 20
615.1000850370378
 30
0.0
 11
412.5646075984579
 21
584.9426548390686
 31
0.0
  0
LINE
  5
34A
330
1F
100
AcDbEntity
  8
LAY-20
  6
CONTINUOUS
 62
     7
100
AcDbLine
 10
451.1939557367475
 20
608.733785884994
 30
0.0
 11
433.1894892020238
 21
570.0878290908403
 31
0.0
  0
TEXT
  5
34B
330
1F
100
AcDbEntity
  8
LAY-20
  6
CONTINUOUS
 62
     7
100
AcDbText
 10
489.782115453257
 20
714.5025643481783
 30
0.0
 40
5.456692828292274
  1
Ｘ
 50
166.5538006542029
 41
1.2
  7
EXCADSTD
100
AcDbText
  0
TEXT
  5
34C
330
1F
100
AcDbEntity
  8
LAY-20
  6
CONTINUOUS
 62
     7
100
AcDbText
 10
481.6584764206109
 20
716.4490532813069
 30
0.0
 40
5.456692828292274
  1
－
 50
171.9322803925228
 41
1.2
  7
EXCADSTD
100
AcDbText
  0
TEXT
  5
34D
330
1F
100
AcDbEntity
  8
LAY-20
  6
CONTINUOUS
 62
     7
100
AcDbText
 10
473.3881508875152
 20
717.6255080726827
 30
0.0
 40
5.456692828292274
  1
９
 50
177.3107601308411
 41
1.2
  7
EXCADSTD
100
AcDbText
  0
TEXT
  5
34E
330
1F
100
AcDbEntity
  8
LAY-20
  6
CONTINUOUS
 62
     7
100
AcDbText
 10
465.0439633476028
 20
718.0215694294194
 30
0.0
 40
5.456692828292274
  1
１
 50
182.6892398691588
 41
1.2
  7
EXCADSTD
100
AcDbText
  0
TEXT
  5
34F
330
1F
100
AcDbEntity
  8
LAY-20
  6
CONTINUOUS
 62
     7
100
AcDbText
 10
456.6993886876775
 20
717.6337498264324
 30
0.0
 40
5.456692828292274
  1
２
 50
188.0677196074772
 41
1.2
  7
EXCADSTD
100
AcDbText
  0
TEXT
  5
350
330
1F
100
AcDbEntity
  8
LAY-20
  6
CONTINUOUS
 62
     7
100
AcDbText
 10
448.4279052033349
 20
716.4654642159022
 30
0.0
 40
5.456692828292274
  1
５
 50
193.4461993457969
 41
1.2
  7
EXCADSTD
100
AcDbText
  0
LINE
  5
351
330
1F
100
AcDbEntity
  8
LAY-20
  6
CONTINUOUS
 62
     7
100
AcDbLine
 10
373.5450930786097
 20
645.9999999999902
 30
0.0
 11
396.6088573453599
 21
645.9999999999902
 31
0.0
  0
LINE
  5
352
330
1F
100
AcDbEntity
  8
LAY-20
  6
CONTINUOUS
 62
     7
100
AcDbLine
 10
373.5450930786099
 20
625.99999999999
 30
0.0
 11
396.6088573453599
 21
625.99999999999
 31
0.0
  0
ARC
  5
353
330
1F
100
AcDbEntity
  8
LAY-20
  6
CONTINUOUS
 62
     7
100
AcDbCircle
 10
464.9999999999993
 20
635.9999999999901
 30
0.0
 40
69.11836509645775
100
AcDbArc
 50
94.62410707526666
 51
94.9799775084797
  0
ARC
  5
354
330
1F
100
AcDbEntity
  8
LAY-20
  6
CONTINUOUS
 62
     7
100
AcDbCircle
 10
459.2665576120158
 20
706.8868781395777
 30
0.0
 40
2.0
100
AcDbArc
 50
274.6241070752676
 51
342.8573227692627
  0
ARC
  5
355
330
1F
100
AcDbEntity
  8
LAY-20
  6
CONTINUOUS
 62
     7
100
AcDbCircle
 10
464.9999999999993
 20
635.9999999999901
 30
0.0
 40
69.11836509645775
100
AcDbArc
 50
85.02002249152031
 51
85.37589292473889
  0
ARC
  5
356
330
1F
100
AcDbEntity
  8
LAY-20
  6
CONTINUOUS
 62
     7
100
AcDbCircle
 10
464.9999999999959
 20
705.1183650964501
 30
0.0
 40
4.0
100
AcDbArc
 50
17.14267723074197
 51
162.8573227692634
  0
ARC
  5
357
330
1F
100
AcDbEntity
  8
LAY-20
  6
CONTINUOUS
 62
     7
100
AcDbCircle
 10
470.733442387976
 20
706.8868781395784
 30
0.0
 40
2.0
100
AcDbArc
 50
197.1426772307467
 51
265.3758929247376
  0
ARC
  5
358
330
1F
100
AcDbEntity
  8
LAY-20
  6
CONTINUOUS
 62
     7
100
AcDbCircle
 10
406.4768839301312
 20
595.591254171071
 30
0.0
 40
2.0
100
AcDbArc
 50
34.62410707525736
 51
102.8573227692615
  0
ARC
  5
359
330
1F
100
AcDbEntity
  8
LAY-20
  6
CONTINUOUS
 62
     7
100
AcDbCircle
 10
405.1417399584139
 20
601.4408174517599
 30
0.0
 40
4.0
100
AcDbArc
 50
137.1426772307445
 51
282.8573227692618
  0
ARC
  5
35A
330
1F
100
AcDbEntity
  8
LAY-20
  6
CONTINUOUS
 62
     7
100
AcDbCircle
 10
400.7434415421508
 20
605.521867689321
 30
0.0
 40
2.0
100
AcDbArc
 50
317.1426772307433
 51
25.37589292474518
  0
ARC
  5
35B
330
1F
100
AcDbEntity
  8
LAY-20
  6
CONTINUOUS
 62
     7
100
AcDbCircle
 10
464.9999999999993
 20
635.9999999999901
 30
0.0
 40
69.11836509645775
100
AcDbArc
 50
205.0200224915204
 51
205.375892924735
  0
ARC
  5
35C
330
1F
100
AcDbEntity
  8
LAY-20
  6
CONTINUOUS
 62
     7
100
AcDbCircle
 10
464.9999999999993
 20
635.9999999999901
 30
0.0
 40
69.11836509645775
100
AcDbArc
 50
214.6241070752625
 51
214.9799775084795
  0
ARC
  5
35D
330
1F
100
AcDbEntity
  8
LAY-20
  6
CONTINUOUS
 62
     7
100
AcDbCircle
 10
405.1417399584139
 20
670.55918254822
 30
0.0
 40
4.0
100
AcDbArc
 50
77.14267723074497
 51
222.8573227692613
  0
ARC
  5
35E
330
1F
100
AcDbEntity
  8
LAY-20
  6
CONTINUOUS
 62
     7
100
AcDbCircle
 10
400.7434415421511
 20
666.4781323106586
 30
0.0
 40
2.0
100
AcDbArc
 50
334.6241070752659
 51
42.85732276926126
  0
ARC
  5
35F
330
1F
100
AcDbEntity
  8
LAY-20
  6
CONTINUOUS
 62
     7
100
AcDbCircle
 10
406.4768839301307
 20
676.4087458289092
 30
0.0
 40
2.0
100
AcDbArc
 50
257.1426772307433
 51
325.3758929247428
  0
ARC
  5
360
330
1F
100
AcDbEntity
  8
LAY-20
  6
CONTINUOUS
 62
     7
100
AcDbCircle
 10
464.9999999999993
 20
635.9999999999901
 30
0.0
 40
69.11836509645775
100
AcDbArc
 50
145.0200224915206
 51
145.3758929247381
  0
ARC
  5
361
330
1F
100
AcDbEntity
  8
LAY-20
  6
CONTINUOUS
 62
     7
100
AcDbCircle
 10
464.9999999999993
 20
635.9999999999901
 30
0.0
 40
69.11836509645775
100
AcDbArc
 50
154.6241070752653
 51
154.9799775084797
  0
LINE
  5
362
330
1F
100
AcDbEntity
  8
LAY-20
  6
CONTINUOUS
 62
     7
100
AcDbLine
 10
464.9999999999944
 20
558.7188021073152
 30
0.0
 11
457.0000000799945
 21
554.099999999986
 31
0.0
  0
LINE
  5
363
330
1F
100
AcDbEntity
  8
LAY-20
  6
CONTINUOUS
 62
     7
100
AcDbLine
 10
464.9999999999933
 20
549.4811978926549
 30
0.0
 11
457.0000000799933
 21
554.099999999984
 31
0.0
  0
LINE
  5
364
330
1F
100
AcDbEntity
  8
LAY-20
  6
CONTINUOUS
 62
     7
100
AcDbLine
 10
464.9999999999945
 20
558.7188021073152
 30
0.0
 11
472.9999999199944
 21
554.099999999986
 31
0.0
  0
LINE
  5
365
330
1F
100
AcDbEntity
  8
LAY-20
  6
CONTINUOUS
 62
     7
100
AcDbLine
 10
464.9999999999957
 20
549.4811978926549
 30
0.0
 11
472.9999999199958
 21
554.099999999984
 31
0.0
  0
TEXT
  5
366
330
1F
100
AcDbEntity
  8
LAY-20
  6
CONTINUOUS
 62
     7
100
AcDbText
 10
460.5600000503945
 20
551.8896199008287
 30
0.0
 40
4.365432544280815
  1
ＳＦ
 41
0.9959848942389818
  7
EXCADSTD
100
AcDbText
  0
ARC
  5
367
330
1F
100
AcDbEntity
  8
LAY-20
  6
CONTINUOUS
 62
     7
100
AcDbCircle
 10
549.5000000000052
 20
635.9999999999905
 30
0.0
 40
4.000000000000071
100
AcDbArc
 50
90.00000000000004
 51
270.0000000000001
  0
ARC
  5
368
330
1F
100
AcDbEntity
  8
LAY-20
  6
CONTINUOUS
 62
     7
100
AcDbCircle
 10
475.486907365499
 20
664.8125411866134
 30
0.0
 40
2.66166589935055
100
AcDbArc
 50
164.9799775084805
 51
335.0200224915225
  0
LINE
  5
369
330
1F
100
AcDbEntity
  8
LAY-20
  6
CONTINUOUS
 62
     7
100
AcDbLine
 10
472.9161764276811
 20
665.50232941869
 30
0.0
 11
483.9650970791981
 21
706.6798978774038
 31
0.0
  0
LINE
  5
36A
330
1F
100
AcDbEntity
  8
LAY-20
  6
CONTINUOUS
 62
     7
100
AcDbLine
 10
477.8995888440549
 20
663.6885156340571
 30
0.0
 11
495.9040553787783
 21
702.334472428211
 31
0.0
  0
ARC
  5
36B
330
1F
100
AcDbEntity
  8
LAY-20
  6
CONTINUOUS
 62
     7
100
AcDbCircle
 10
484.7089389324505
 20
659.4881987789586
 30
0.0
 40
2.66166589935055
100
AcDbArc
 50
144.9799775084813
 51
315.0200224915229
  0
LINE
  5
36C
330
1F
100
AcDbEntity
  8
LAY-20
  6
CONTINUOUS
 62
     7
100
AcDbLine
 10
482.5291635101561
 20
661.0156294543501
 30
0.0
 11
506.9953105800876
 21
695.9309332520844
 31
0.0
  0
LINE
  5
36D
330
1F
100
AcDbEntity
  8
LAY-20
  6
CONTINUOUS
 62
     7
100
AcDbLine
 10
486.5916785335694
 20
657.6067745965521
 30
0.0
 11
516.72803855913
 21
687.7642047945212
 31
0.0
  0
ARC
  5
36E
330
1F
100
AcDbEntity
  8
LAY-20
  6
CONTINUOUS
 62
     7
100
AcDbCircle
 10
491.5537815911884
 20
651.3308329496656
 30
0.0
 40
2.66166589935055
100
AcDbArc
 50
124.9799775084798
 51
295.020022491524
  0
LINE
  5
36F
330
1F
100
AcDbEntity
  8
LAY-20
  6
CONTINUOUS
 62
     7
100
AcDbLine
 10
490.0278747704052
 20
653.511675386444
 30
0.0
 11
524.9602698402429
 21
677.9534135901881
 31
0.0
  0
LINE
  5
370
330
1F
100
AcDbEntity
  8
LAY-20
  6
CONTINUOUS
 62
     7
100
AcDbLine
 10
492.6794931326981
 20
648.9189376606705
 30
0.0
 11
531.312856864708
 21
666.9504101043118
 31
0.0
  0
ARC
  5
371
330
1F
100
AcDbEntity
  8
LAY-20
  6
CONTINUOUS
 62
     7
100
AcDbCircle
 10
495.1958462979502
 20
641.3243424076446
 30
0.0
 40
2.66166589935055
100
AcDbArc
 50
104.9799775084808
 51
275.020022491526
  0
LINE
  5
372
330
1F
100
AcDbEntity
  8
LAY-20
  6
CONTINUOUS
 62
     7
100
AcDbLine
 10
494.5078549612512
 20
643.895554822128
 30
0.0
 11
535.6931356383286
 21
654.9156930828727
 31
0.0
  0
LINE
  5
373
330
1F
100
AcDbEntity
  8
LAY-20
  6
CONTINUOUS
 62
     7
100
AcDbLine
 10
495.4287523542118
 20
638.6728861796971
 30
0.0
 11
537.8993659588665
 21
642.4035391761167
 31
0.0
  0
ARC
  5
374
330
1F
100
AcDbEntity
  8
LAY-20
  6
CONTINUOUS
 62
     7
100
AcDbCircle
 10
495.1958462979502
 20
630.6756575923356
 30
0.0
 40
2.66166589935055
100
AcDbArc
 50
84.97997750847775
 51
255.0200224915282
  0
LINE
  5
375
330
1F
100
AcDbEntity
  8
LAY-20
  6
CONTINUOUS
 62
     7
100
AcDbLine
 10
495.4287523542118
 20
633.3271138202831
 30
0.0
 11
537.8993659588665
 21
629.5964608238635
 31
0.0
  0
LINE
  5
376
330
1F
100
AcDbEntity
  8
LAY-20
  6
CONTINUOUS
 62
     7
100
AcDbLine
 10
494.5078549612515
 20
628.1044451778522
 30
0.0
 11
535.6931356383286
 21
617.0843069171075
 31
0.0
  0
ARC
  5
377
330
1F
100
AcDbEntity
  8
LAY-20
  6
CONTINUOUS
 62
     7
100
AcDbCircle
 10
491.5537815911884
 20
620.6691670503146
 30
0.0
 40
2.66166589935055
100
AcDbArc
 50
64.9799775084762
 51
235.0200224915217
  0
LINE
  5
378
330
1F
100
AcDbEntity
  8
LAY-20
  6
CONTINUOUS
 62
     7
100
AcDbLine
 10
492.6794931326983
 20
623.0810623393097
 30
0.0
 11
531.3128568647081
 21
605.0495898956681
 31
0.0
  0
LINE
  5
379
330
1F
100
AcDbEntity
  8
LAY-20
  6
CONTINUOUS
 62
     7
100
AcDbLine
 10
490.0278747704056
 20
618.4883246135362
 30
0.0
 11
524.9602698402429
 21
594.0465864097918
 31
0.0
  0
ARC
  5
37A
330
1F
100
AcDbEntity
  8
LAY-20
  6
CONTINUOUS
 62
     7
100
AcDbCircle
 10
484.7089389324505
 20
612.5118012210213
 30
0.0
 40
2.66166589935055
100
AcDbArc
 50
44.97997750847996
 51
215.0200224915203
  0
LINE
  5
37B
330
1F
100
AcDbEntity
  8
LAY-20
  6
CONTINUOUS
 62
     7
100
AcDbLine
 10
486.5916785335694
 20
614.3932254034281
 30
0.0
 11
516.72803855913
 21
584.2357952054589
 31
0.0
  0
LINE
  5
37C
330
1F
100
AcDbEntity
  8
LAY-20
  6
CONTINUOUS
 62
     7
100
AcDbLine
 10
482.5291635101564
 20
610.9843705456298
 30
0.0
 11
506.9953105800876
 21
576.0690667478955
 31
0.0
  0
ARC
  5
37D
330
1F
100
AcDbEntity
  8
LAY-20
  6
CONTINUOUS
 62
     7
100
AcDbCircle
 10
475.4869073654992
 20
607.1874588133668
 30
0.0
 40
2.66166589935055
100
AcDbArc
 50
24.97997750847761
 51
195.0200224915197
  0
LINE
  5
37E
330
1F
100
AcDbEntity
  8
LAY-20
  6
CONTINUOUS
 62
     7
100
AcDbLine
 10
477.8995888440551
 20
608.3114843659228
 30
0.0
 11
495.9040553787786
 21
569.6655275717688
 31
0.0
  0
ARC
  5
37F
330
1F
100
AcDbEntity
  8
LAY-20
  6
CONTINUOUS
 62
     7
100
AcDbCircle
 10
464.9999999999993
 20
635.9999999999901
 30
0.0
 40
73.1800715440005
100
AcDbArc
 50
54.97997750847963
 51
65.02002249152052
  0
ARC
  5
380
330
1F
100
AcDbEntity
  8
LAY-20
  6
CONTINUOUS
 62
     7
100
AcDbCircle
 10
464.9999999999993
 20
635.9999999999901
 30
0.0
 40
73.1800715440005
100
AcDbArc
 50
34.97997750847962
 51
45.02002249152053
  0
ARC
  5
381
330
1F
100
AcDbEntity
  8
LAY-20
  6
CONTINUOUS
 62
     7
100
AcDbCircle
 10
464.9999999999993
 20
635.9999999999901
 30
0.0
 40
73.1800715440005
100
AcDbArc
 50
14.97997750847973
 51
25.02002249152029
  0
ARC
  5
382
330
1F
100
AcDbEntity
  8
LAY-20
  6
CONTINUOUS
 62
     7
100
AcDbCircle
 10
464.9999999999993
 20
635.9999999999901
 30
0.0
 40
73.1800715440005
100
AcDbArc
 50
354.9799775084799
 51
5.020022491520108
  0
ARC
  5
383
330
1F
100
AcDbEntity
  8
LAY-20
  6
CONTINUOUS
 62
     7
100
AcDbCircle
 10
464.9999999999993
 20
635.9999999999901
 30
0.0
 40
73.1800715440005
100
AcDbArc
 50
334.9799775084802
 51
345.0200224915203
  0
ARC
  5
384
330
1F
100
AcDbEntity
  8
LAY-20
  6
CONTINUOUS
 62
     7
100
AcDbCircle
 10
464.9999999999993
 20
635.9999999999901
 30
0.0
 40
73.1800715440005
100
AcDbArc
 50
314.9799775084799
 51
325.0200224915206
  0
ARC
  5
385
330
1F
100
AcDbEntity
  8
LAY-20
  6
CONTINUOUS
 62
     7
100
AcDbCircle
 10
464.9999999999993
 20
635.9999999999901
 30
0.0
 40
73.1800715440005
100
AcDbArc
 50
294.9799775084794
 51
305.0200224915207
  0
ARC
  5
386
330
1F
100
AcDbEntity
  8
LAY-20
  6
CONTINUOUS
 62
     7
100
AcDbCircle
 10
464.9999999999993
 20
635.9999999999901
 30
0.0
 40
69.11836509645775
100
AcDbArc
 50
65.02002249152059
 51
74.97997750848003
  0
ARC
  5
387
330
1F
100
AcDbEntity
  8
LAY-20
  6
CONTINUOUS
 62
     7
100
AcDbCircle
 10
464.9999999999993
 20
635.9999999999901
 30
0.0
 40
69.11836509645775
100
AcDbArc
 50
45.02002249152036
 51
54.97997750847968
  0
ARC
  5
388
330
1F
100
AcDbEntity
  8
LAY-20
  6
CONTINUOUS
 62
     7
100
AcDbCircle
 10
464.9999999999993
 20
635.9999999999901
 30
0.0
 40
69.11836509645775
100
AcDbArc
 50
5.020022491520222
 51
14.97997750847961
  0
ARC
  5
389
330
1F
100
AcDbEntity
  8
LAY-20
  6
CONTINUOUS
 62
     7
100
AcDbCircle
 10
464.9999999999993
 20
635.9999999999901
 30
0.0
 40
69.11836509645775
100
AcDbArc
 50
345.0200224915204
 51
354.9799775084799
  0
ARC
  5
38A
330
1F
100
AcDbEntity
  8
LAY-20
  6
CONTINUOUS
 62
     7
100
AcDbCircle
 10
464.9999999999993
 20
635.9999999999901
 30
0.0
 40
69.11836509645775
100
AcDbArc
 50
305.0200224915203
 51
314.9799775084801
  0
LINE
  5
38B
330
1F
100
AcDbEntity
  8
LAY-20
  6
CONTINUOUS
 62
     7
100
AcDbLine
 10
496.8105107979745
 20
701.9121709091398
 30
0.0
 11
478.8060442632511
 21
663.2662141149859
 31
0.0
  0
ARC
  5
38C
330
1F
100
AcDbEntity
  8
LAY-20
  6
CONTINUOUS
 62
     7
100
AcDbCircle
 10
475.486907365499
 20
664.8125411866134
 30
0.0
 40
3.66166589935055
100
AcDbArc
 50
164.9799775084823
 51
335.020022491518
  0
LINE
  5
38D
330
1F
100
AcDbEntity
  8
LAY-20
  6
CONTINUOUS
 62
     7
100
AcDbLine
 10
471.95034110686
 20
665.7614859988771
 30
0.0
 11
482.9992617583769
 21
706.9390544575909
 31
0.0
  0
LINE
  5
38E
330
1F
100
AcDbEntity
  8
LAY-20
  6
CONTINUOUS
 62
     7
100
AcDbLine
 10
517.4353924015404
 20
687.0573451609115
 30
0.0
 11
487.2990323759799
 21
656.8999149629424
 31
0.0
  0
ARC
  5
38F
330
1F
100
AcDbEntity
  8
LAY-20
  6
CONTINUOUS
 62
     7
100
AcDbCircle
 10
484.7089389324505
 20
659.4881987789586
 30
0.0
 40
3.66166589935055
100
AcDbArc
 50
144.9799775084768
 51
315.0200224915238
  0
LINE
  5
390
330
1F
100
AcDbEntity
  8
LAY-20
  6
CONTINUOUS
 62
     7
100
AcDbLine
 10
481.7102119569856
 20
661.5894921152367
 30
0.0
 11
506.1763590269167
 21
696.5047959129706
 31
0.0
  0
LINE
  5
391
330
1F
100
AcDbEntity
  8
LAY-20
  6
CONTINUOUS
 62
     7
100
AcDbLine
 10
531.7357918175073
 20
666.0442500601141
 30
0.0
 11
493.1024280854976
 21
648.0127776164728
 31
0.0
  0
ARC
  5
392
330
1F
100
AcDbEntity
  8
LAY-20
  6
CONTINUOUS
 62
     7
100
AcDbCircle
 10
491.5537815911884
 20
651.3308329496656
 30
0.0
 40
3.66166589935055
100
AcDbArc
 50
124.9799775084836
 51
295.0200224915242
  0
LINE
  5
393
330
1F
100
AcDbEntity
  8
LAY-20
  6
CONTINUOUS
 62
     7
100
AcDbLine
 10
489.4545846286355
 20
654.3310278218155
 30
0.0
 11
524.3869796984728
 21
678.7727660255599
 31
0.0
  0
LINE
  5
394
330
1F
100
AcDbEntity
  8
LAY-20
  6
CONTINUOUS
 62
     7
100
AcDbLine
 10
537.9868698248922
 20
641.407374996159
 30
0.0
 11
495.5162562202374
 21
637.6767219997394
 31
0.0
  0
ARC
  5
395
330
1F
100
AcDbEntity
  8
LAY-20
  6
CONTINUOUS
 62
     7
100
AcDbCircle
 10
495.1958462979502
 20
641.3243424076446
 30
0.0
 40
3.66166589935055
100
AcDbArc
 50
104.9799775084769
 51
275.0200224915243
  0
LINE
  5
396
330
1F
100
AcDbEntity
  8
LAY-20
  6
CONTINUOUS
 62
     7
100
AcDbLine
 10
494.2493734828408
 20
644.8615710359248
 30
0.0
 11
535.4346541599181
 21
655.8817092966696
 31
0.0
  0
LINE
  5
397
330
1F
100
AcDbEntity
  8
LAY-20
  6
CONTINUOUS
 62
     7
100
AcDbLine
 10
535.4346541599181
 20
616.1182907033107
 30
0.0
 11
494.2493734828408
 21
627.1384289640554
 31
0.0
  0
ARC
  5
398
330
1F
100
AcDbEntity
  8
LAY-20
  6
CONTINUOUS
 62
     7
100
AcDbCircle
 10
495.1958462979502
 20
630.6756575923356
 30
0.0
 40
3.66166589935055
100
AcDbArc
 50
84.9799775084785
 51
255.0200224915279
  0
LINE
  5
399
330
1F
100
AcDbEntity
  8
LAY-20
  6
CONTINUOUS
 62
     7
100
AcDbLine
 10
495.5162562202374
 20
634.3232780002409
 30
0.0
 11
537.9868698248922
 21
630.5926250038212
 31
0.0
  0
LINE
  5
39A
330
1F
100
AcDbEntity
  8
LAY-20
  6
CONTINUOUS
 62
     7
100
AcDbLine
 10
524.3869796984728
 20
593.2272339744203
 30
0.0
 11
489.4545846286355
 21
617.6689721781647
 31
0.0
  0
ARC
  5
39B
330
1F
100
AcDbEntity
  8
LAY-20
  6
CONTINUOUS
 62
     7
100
AcDbCircle
 10
491.5537815911884
 20
620.6691670503146
 30
0.0
 40
3.66166589935055
100
AcDbArc
 50
64.979977508479
 51
235.0200224915271
  0
LINE
  5
39C
330
1F
100
AcDbEntity
  8
LAY-20
  6
CONTINUOUS
 62
     7
100
AcDbLine
 10
493.1024280854976
 20
623.9872223835074
 30
0.0
 11
531.7357918175074
 21
605.9557499398658
 31
0.0
  0
LINE
  5
39D
330
1F
100
AcDbEntity
  8
LAY-20
  6
CONTINUOUS
 62
     7
100
AcDbLine
 10
506.1763590269169
 20
575.4952040870093
 30
0.0
 11
481.7102119569856
 21
610.4105078847435
 31
0.0
  0
ARC
  5
39E
330
1F
100
AcDbEntity
  8
LAY-20
  6
CONTINUOUS
 62
     7
100
AcDbCircle
 10
484.7089389324505
 20
612.5118012210213
 30
0.0
 40
3.66166589935055
100
AcDbArc
 50
44.97997750848272
 51
215.0200224915222
  0
LINE
  5
39F
330
1F
100
AcDbEntity
  8
LAY-20
  6
CONTINUOUS
 62
     7
100
AcDbLine
 10
487.2990323759799
 20
615.1000850370378
 30
0.0
 11
517.4353924015405
 21
584.9426548390686
 31
0.0
  0
LINE
  5
3A0
330
1F
100
AcDbEntity
  8
LAY-20
  6
CONTINUOUS
 62
     7
100
AcDbLine
 10
478.8060442632511
 20
608.733785884994
 30
0.0
 11
496.8105107979746
 21
570.0878290908403
 31
0.0
  0
LINE
  5
3A1
330
1F
100
AcDbEntity
  8
LAY-20
  6
CONTINUOUS
 62
     7
100
AcDbLine
 10
556.4549069213888
 20
645.9999999999902
 30
0.0
 11
533.3911426546387
 21
645.9999999999902
 31
0.0
  0
LINE
  5
3A2
330
1F
100
AcDbEntity
  8
LAY-20
  6
CONTINUOUS
 62
     7
100
AcDbLine
 10
556.4549069213886
 20
625.99999999999
 30
0.0
 11
533.3911426546387
 21
625.99999999999
 31
0.0
  0
ARC
  5
3A3
330
1F
100
AcDbEntity
  8
LAY-20
  6
CONTINUOUS
 62
     7
100
AcDbCircle
 10
523.5231160698672
 20
595.591254171071
 30
0.0
 40
2.0
100
AcDbArc
 50
77.1426772307347
 51
145.375892924741
  0
ARC
  5
3A4
330
1F
100
AcDbEntity
  8
LAY-20
  6
CONTINUOUS
 62
     7
100
AcDbCircle
 10
524.8582600415846
 20
601.4408174517599
 30
0.0
 40
4.0
100
AcDbArc
 50
257.1426772307402
 51
42.85732276925553
  0
ARC
  5
3A5
330
1F
100
AcDbEntity
  8
LAY-20
  6
CONTINUOUS
 62
     7
100
AcDbCircle
 10
529.2565584578477
 20
605.521867689321
 30
0.0
 40
2.0
100
AcDbArc
 50
154.6241070752556
 51
222.8573227692578
  0
ARC
  5
3A6
330
1F
100
AcDbEntity
  8
LAY-20
  6
CONTINUOUS
 62
     7
100
AcDbCircle
 10
464.9999999999993
 20
635.9999999999901
 30
0.0
 40
69.11836509645775
100
AcDbArc
 50
334.6241070752654
 51
334.9799775084797
  0
ARC
  5
3A7
330
1F
100
AcDbEntity
  8
LAY-20
  6
CONTINUOUS
 62
     7
100
AcDbCircle
 10
464.9999999999993
 20
635.9999999999901
 30
0.0
 40
69.11836509645775
100
AcDbArc
 50
325.0200224915205
 51
325.3758929247374
  0
ARC
  5
3A8
330
1F
100
AcDbEntity
  8
LAY-20
  6
CONTINUOUS
 62
     7
100
AcDbCircle
 10
524.8582600415846
 20
670.55918254822
 30
0.0
 40
4.0
100
AcDbArc
 50
317.1426772307378
 51
102.8573227692551
  0
ARC
  5
3A9
330
1F
100
AcDbEntity
  8
LAY-20
  6
CONTINUOUS
 62
     7
100
AcDbCircle
 10
529.2565584578474
 20
666.4781323106586
 30
0.0
 40
2.0
100
AcDbArc
 50
137.14267723074
 51
205.3758929247344
  0
ARC
  5
3AA
330
1F
100
AcDbEntity
  8
LAY-20
  6
CONTINUOUS
 62
     7
100
AcDbCircle
 10
523.5231160698678
 20
676.4087458289092
 30
0.0
 40
2.0
100
AcDbArc
 50
214.6241070752592
 51
282.8573227692584
  0
ARC
  5
3AB
330
1F
100
AcDbEntity
  8
LAY-20
  6
CONTINUOUS
 62
     7
100
AcDbCircle
 10
464.9999999999993
 20
635.9999999999901
 30
0.0
 40
69.11836509645775
100
AcDbArc
 50
34.62410707526234
 51
34.97997750847985
  0
ARC
  5
3AC
330
1F
100
AcDbEntity
  8
LAY-20
  6
CONTINUOUS
 62
     7
100
AcDbCircle
 10
464.9999999999993
 20
635.9999999999901
 30
0.0
 40
69.11836509645775
100
AcDbArc
 50
25.02002249152029
 51
25.37589292473475
  0
LINE
  5
3AD
330
1F
100
AcDbEntity
  8
LAY-20
  6
CONTINUOUS
 62
     7
100
AcDbLine
 10
467.651618362292
 20
605.5693869528558
 30
0.0
 11
471.3525870244646
 21
563.09617630547
 31
0.0
  0
LINE
  5
3AE
330
1F
100
AcDbEntity
  8
LAY-20
  6
CONTINUOUS
 62
     7
100
AcDbLine
 10
462.3483816377068
 20
605.5693869528558
 30
0.0
 11
458.6474129755342
 21
563.09617630547
 31
0.0
  0
ARC
  5
3AF
330
1F
100
AcDbEntity
  8
LAY-20
  6
CONTINUOUS
 62
     7
100
AcDbCircle
 10
464.9999999999993
 20
605.3383341006388
 30
0.0
 40
2.66166589935055
100
AcDbArc
 50
4.979977508482073
 51
175.0200224915179
  0
ARC
  5
3B0
330
1F
100
AcDbEntity
  8
LAY-20
  6
CONTINUOUS
 62
     7
100
AcDbCircle
 10
464.9999999999993
 20
605.3383341006388
 30
0.0
 40
3.66166589935055
100
AcDbArc
 50
4.979977508481901
 51
175.0200224915235
  0
LINE
  5
3B1
330
1F
100
AcDbEntity
  8
LAY-20
  6
CONTINUOUS
 62
     7
100
AcDbLine
 10
468.6478434568614
 20
605.656194561682
 30
0.0
 11
472.3488121190339
 21
563.1829839142962
 31
0.0
  0
LINE
  5
3B2
330
1F
100
AcDbEntity
  8
LAY-20
  6
CONTINUOUS
 62
     7
100
AcDbLine
 10
457.6511878809649
 20
563.1829839142962
 30
0.0
 11
461.3521565431371
 21
605.656194561682
 31
0.0
  0
ARC
  5
3B3
330
1F
100
AcDbEntity
  8
LAY-20
  6
CONTINUOUS
 62
     7
100
AcDbCircle
 10
464.9999999999993
 20
635.9999999999898
 30
0.0
 40
69.11836509645775
100
AcDbArc
 50
265.0200224915204
 51
265.3758929247335
  0
ARC
  5
3B4
330
1F
100
AcDbEntity
  8
LAY-20
  6
CONTINUOUS
 62
     7
100
AcDbCircle
 10
459.2665576120158
 20
565.1131218604022
 30
0.0
 40
2.0
100
AcDbArc
 50
17.14267723074357
 51
85.3758929247326
  0
ARC
  5
3B5
330
1F
100
AcDbEntity
  8
LAY-20
  6
CONTINUOUS
 62
     7
100
AcDbCircle
 10
464.9999999999993
 20
635.9999999999898
 30
0.0
 40
69.11836509645775
100
AcDbArc
 50
274.6241070752613
 51
274.9799775084796
  0
ARC
  5
3B6
330
1F
100
AcDbEntity
  8
LAY-20
  6
CONTINUOUS
 62
     7
100
AcDbCircle
 10
464.9999999999959
 20
566.88163490353
 30
0.0
 40
4.0
100
AcDbArc
 50
197.1426772307367
 51
342.857322769255
  0
ARC
  5
3B7
330
1F
100
AcDbEntity
  8
LAY-20
  6
CONTINUOUS
 62
     7
100
AcDbCircle
 10
470.733442387976
 20
565.1131218604017
 30
0.0
 40
2.0
100
AcDbArc
 50
94.62410707526256
 51
162.85732276926
  0
LINE
  5
3B8
330
1F
100
AcDbEntity
  8
LAY-20
  6
CONTINUOUS
 62
     7
100
AcDbLine
 10
458.0496588931384
 20
606.2385140011028
 30
0.0
 11
447.0007382416218
 21
565.0609455423892
 31
0.0
  0
ARC
  5
3B9
330
1F
100
AcDbEntity
  8
LAY-20
  6
CONTINUOUS
 62
     7
100
AcDbCircle
 10
454.5130926344993
 20
607.1874588133668
 30
0.0
 40
3.66166589935055
100
AcDbArc
 50
344.9799775084765
 51
155.0200224915185
  0
ARC
  5
3BA
330
1F
100
AcDbEntity
  8
LAY-20
  6
CONTINUOUS
 62
     7
100
AcDbCircle
 10
464.9999999999993
 20
635.9999999999901
 30
0.0
 40
73.1800715440005
100
AcDbArc
 50
74.97997750847986
 51
85.02002249152048
  0
ARC
  5
3BB
330
1F
100
AcDbEntity
  8
LAY-20
  6
CONTINUOUS
 62
     7
100
AcDbCircle
 10
464.9999999999993
 20
635.9999999999898
 30
0.0
 40
73.1800715440005
100
AcDbArc
 50
254.9799775084799
 51
265.0200224915204
  0
ARC
  5
3BC
330
1F
100
AcDbEntity
  8
LAY-20
  6
CONTINUOUS
 62
     7
100
AcDbCircle
 10
464.9999999999993
 20
635.9999999999898
 30
0.0
 40
73.1800715440005
100
AcDbArc
 50
274.9799775084796
 51
285.0200224915203
  0
ARC
  5
3BD
330
1F
100
AcDbEntity
  8
LAY-20
  6
CONTINUOUS
 62
     7
100
AcDbCircle
 10
464.9999999999993
 20
635.9999999999898
 30
0.0
 40
69.11836509645775
100
AcDbArc
 50
245.0200224915206
 51
254.9799775084799
  0
ARC
  5
3BE
330
1F
100
AcDbEntity
  8
LAY-20
  6
CONTINUOUS
 62
     7
100
AcDbCircle
 10
464.9999999999993
 20
635.9999999999898
 30
0.0
 40
69.11836509645775
100
AcDbArc
 50
285.0200224915201
 51
294.9799775084797
  0
LINE
  5
3BF
330
1F
100
AcDbEntity
  8
LAY-20
  6
CONTINUOUS
 62
     7
100
AcDbLine
 10
457.0838235723172
 20
606.4976705812902
 30
0.0
 11
446.0349029208004
 21
565.3201021225764
 31
0.0
  0
LINE
  5
3C0
330
1F
100
AcDbEntity
  8
LAY-20
  6
CONTINUOUS
 62
     7
100
AcDbLine
 10
472.9161764276814
 20
606.4976705812902
 30
0.0
 11
483.9650970791981
 21
565.3201021225764
 31
0.0
  0
ARC
  5
3C1
330
1F
100
AcDbEntity
  8
LAY-20
  6
CONTINUOUS
 62
     7
100
AcDbCircle
 10
475.4869073654992
 20
607.1874588133668
 30
0.0
 40
3.66166589935055
100
AcDbArc
 50
24.97997750848197
 51
195.0200224915234
  0
LINE
  5
3C2
330
1F
100
AcDbEntity
  8
LAY-20
  6
CONTINUOUS
 62
     7
100
AcDbLine
 10
471.95034110686
 20
606.2385140011028
 30
0.0
 11
482.9992617583769
 21
565.0609455423892
 31
0.0
  0
LINE
  5
3C3
330
1F
100
AcDbEntity
  8
LAY-20
  6
CONTINUOUS
 62
     7
100
AcDbLine
 10
380.4999999999933
 20
639.9999999999902
 30
0.0
 11
379.4003676271798
 21
639.9999999999902
 31
0.0
  0
LINE
  5
3C4
330
1F
100
AcDbEntity
  8
LAY-20
  6
CONTINUOUS
 62
     7
100
AcDbLine
 10
380.4999999999933
 20
631.99999999999
 30
0.0
 11
379.4003676271798
 21
631.99999999999
 31
0.0
  0
LINE
  5
3C5
330
1F
100
AcDbEntity
  8
LAY-20
  6
CONTINUOUS
 62
     7
100
AcDbLine
 10
549.5000000000052
 20
639.9999999999902
 30
0.0
 11
550.5996323728124
 21
639.9999999999902
 31
0.0
  0
ARC
  5
3C6
330
1F
100
AcDbEntity
  8
LAY-20
  6
CONTINUOUS
 62
     7
100
AcDbCircle
 10
464.9999999999993
 20
635.9999999999905
 30
0.0
 40
92.00000000000007
100
AcDbArc
 50
2.728305387956032
 51
177.2716946120414
  0
LINE
  5
3C7
330
1F
100
AcDbEntity
  8
LAY-20
  6
CONTINUOUS
 62
     7
100
AcDbLine
 10
549.5000000000052
 20
631.99999999999
 30
0.0
 11
550.5996323728124
 21
631.99999999999
 31
0.0
  0
ARC
  5
3C8
330
1F
100
AcDbEntity
  8
LAY-20
  6
CONTINUOUS
 62
     7
100
AcDbCircle
 10
464.9999999999993
 20
635.9999999999905
 30
0.0
 40
92.00000000000007
100
AcDbArc
 50
182.7283053879591
 51
357.2716946120437
  0
DIMENSION
  5
3C9
330
1F
100
AcDbEntity
  8
LAY-20
  6
CONTINUOUS
 62
     4
100
AcDbDimension
  2
*D20
 10
614.00000000001
 20
233.00000000001
 30
0.0
 11
606.50000000001
 21
193.00000000001
 31
0.0
 70
   160
  3
ISO-25
100
AcDbAlignedDimension
 13
547.5
 23
153.00000000001
 33
0.0
 14
577.5
 24
233.00000000001
 34
0.0
 50
90.0
100
AcDbRotatedDimension
1001
ACAD
1000
DSTYLE
1002
{
1070
   270
1070
     2
1070
     6
1000
EX_BNORM
1070
     7
1000
EX_BNORM
1070
    41
1040
7.5
1070
    42
1040
4.5
1070
    44
1040
4.5
1070
    73
1070
     0
1070
    74
1070
     0
1070
    75
1070
     0
1070
    76
1070
     0
1070
    77
1070
     1
1070
    78
1070
     8
1070
   140
1040
9.3543312
1070
   147
1040
0.0
1070
   173
1070
     1
1070
   176
1070
     4
1070
   177
1070
     4
1070
   178
1070
     7
1070
   271
1070
     1
1070
   277
1070
     2
1070
   279
1070
     2
1070
   280
1070
     0
1070
   287
1070
     5
1070
   340
1005
28D
1002
}
  0
DIMENSION
  5
3D6
330
1F
100
AcDbEntity
  8
LAY-20
  6
CONTINUOUS
 62
     4
100
AcDbDimension
  2
*D21
 10
614.00000000001
 20
405.00000000001
 30
0.0
 11
606.50000000001
 21
319.00000000001
 31
0.0
 70
   160
  3
ISO-25
100
AcDbAlignedDimension
 13
614.00000000001
 23
233.00000000001
 33
0.0
 14
465.0
 24
405.00000000001
 34
0.0
 50
90.0
100
AcDbRotatedDimension
1001
ACAD
1000
DSTYLE
1002
{
1070
   270
1070
     2
1070
     6
1000
EX_BNORM
1070
     7
1000
EX_BNORM
1070
    41
1040
7.5
1070
    42
1040
4.5
1070
    44
1040
4.5
1070
    73
1070
     0
1070
    74
1070
     0
1070
    75
1070
     1
1070
    76
1070
     0
1070
    77
1070
     1
1070
    78
1070
     8
1070
   140
1040
9.3543312
1070
   147
1040
0.0
1070
   173
1070
     1
1070
   176
1070
     4
1070
   177
1070
     4
1070
   178
1070
     7
1070
   271
1070
     1
1070
   277
1070
     2
1070
   279
1070
     2
1070
   280
1070
     0
1070
   287
1070
     5
1070
   340
1005
28D
1002
}
  0
ARC
  5
3E2
330
1F
100
AcDbEntity
  8
LAY-20
  6
CONTINUOUS
 62
     7
100
AcDbCircle
 10
554.8400319701572
 20
227.0000000000098
 30
0.0
 40
2.0
100
AcDbArc
 50
270.0000000000001
 51
357.0000000000025
  0
LINE
  5
3E3
330
1F
100
AcDbEntity
  8
LAY-20
  6
CONTINUOUS
 62
     7
100
AcDbLine
 10
556.8372910396663
 20
226.895328087524
 30
0.0
 11
557.000000000002
 21
230.0000000000098
 31
0.0
  0
LINE
  5
3E4
330
1F
100
AcDbEntity
  8
LAY-20
  6
CONTINUOUS
 62
     7
100
AcDbLine
 10
538.1800715439999
 20
230.0000000000098
 30
0.0
 11
557.0
 21
230.0000000000098
 31
0.0
  0
DIMENSION
  5
3E5
330
1F
100
AcDbEntity
  8
LAY-20
  6
CONTINUOUS
 62
     4
100
AcDbDimension
  2
*D22
 10
373.0
 20
435.0
 30
0.0
 11
465.0
 21
442.5
 31
0.0
 70
   160
  1
%%c<>
  3
ISO-25
100
AcDbAlignedDimension
 13
557.0
 23
230.00000000001
 33
0.0
 14
373.0
 24
230.00000000001
 34
0.0
100
AcDbRotatedDimension
1001
ACAD
1000
DSTYLE
1002
{
1070
   270
1070
     2
1070
     6
1000
EX_BNORM
1070
     7
1000
EX_BNORM
1070
    41
1040
7.5
1070
    42
1040
4.5
1070
    44
1040
4.5
1070
    73
1070
     0
1070
    74
1070
     0
1070
    75
1070
     0
1070
    76
1070
     0
1070
    77
1070
     1
1070
    78
1070
     8
1070
   140
1040
9.3543312
1070
   147
1040
0.0
1070
   173
1070
     1
1070
   176
1070
     4
1070
   177
1070
     4
1070
   178
1070
     7
1070
   271
1070
     1
1070
   277
1070
     2
1070
   279
1070
     2
1070
   280
1070
     0
1070
   287
1070
     5
1070
   340
1005
28D
1002
}
  0
LINE
  5
3F2
330
1F
100
AcDbEntity
  8
LAY-255
  6
CONTINUOUS
 62
     7
100
AcDbLine
 10
1155.0
 20
66.0
 30
0.0
 11
855.0
 21
66.0
 31
0.0
  0
LINE
  5
3F3
330
1F
100
AcDbEntity
  8
LAY-255
  6
CONTINUOUS
 62
     7
100
AcDbLine
 10
866.4000000000001
 20
48.0
 30
0.0
 11
890.4000000000001
 21
63.0
 31
0.0
  0
LINE
  5
3F4
330
1F
100
AcDbEntity
  8
LAY-255
  6
CONTINUOUS
 62
     7
100
AcDbLine
 10
890.4000000000001
 20
63.0
 30
0.0
 11
914.4000000000001
 21
48.0
 31
0.0
  0
LINE
  5
3F5
330
1F
100
AcDbEntity
  8
LAY-255
  6
CONTINUOUS
 62
     7
100
AcDbLine
 10
914.4000000000001
 20
48.0
 30
0.0
 11
890.4000000000001
 21
33.0
 31
0.0
  0
LINE
  5
3F6
330
1F
100
AcDbEntity
  8
LAY-255
  6
CONTINUOUS
 62
     7
100
AcDbLine
 10
890.4000000000001
 20
33.0
 30
0.0
 11
866.4000000000001
 21
48.0
 31
0.0
  0
LINE
  5
3F7
330
1F
100
AcDbEntity
  8
LAY-255
  6
CONTINUOUS
 62
     7
100
AcDbLine
 10
15.0
 20
30.0
 30
0.0
 11
1155.0
 21
30.0
 31
0.0
  0
LINE
  5
3F8
330
1F
100
AcDbEntity
  8
LAY-255
  6
CONTINUOUS
 62
     7
100
AcDbLine
 10
15.0
 20
840.0
 30
0.0
 11
1155.0
 21
840.0
 31
0.0
  0
LINE
  5
3F9
330
1F
100
AcDbEntity
  8
LAY-255
  6
CONTINUOUS
 62
     7
100
AcDbLine
 10
15.0
 20
30.0
 30
0.0
 11
15.0
 21
840.0
 31
0.0
  0
LINE
  5
3FA
330
1F
100
AcDbEntity
  8
LAY-255
  6
CONTINUOUS
 62
     7
100
AcDbLine
 10
1155.0
 20
30.0
 30
0.0
 11
1155.0
 21
840.0
 31
0.0
  0
LINE
  5
3FB
330
1F
100
AcDbEntity
  8
LAY-255
  6
CONTINUOUS
 62
     4
100
AcDbLine
 10
855.0
 20
84.0
 30
0.0
 11
1155.0
 21
84.0
 31
0.0
  0
LINE
  5
3FC
330
1F
100
AcDbEntity
  8
LAY-255
  6
CONTINUOUS
 62
     7
100
AcDbLine
 10
855.0
 20
30.0
 30
0.0
 11
855.0
 21
201.0
 31
0.0
  0
LINE
  5
3FD
330
1F
100
AcDbEntity
  8
LAY-255
  6
CONTINUOUS
 62
     4
100
AcDbLine
 10
1005.0
 20
84.0
 30
0.0
 11
1005.0
 21
66.0
 31
0.0
  0
LINE
  5
3FE
330
1F
100
AcDbEntity
  8
LAY-255
  6
CONTINUOUS
 62
     7
100
AcDbLine
 10
1155.0
 20
201.0
 30
0.0
 11
855.0
 21
201.0
 31
0.0
  0
LINE
  5
3FF
330
1F
100
AcDbEntity
  8
LAY-255
  6
CONTINUOUS
 62
     4
100
AcDbLine
 10
1149.0
 20
165.0
 30
0.0
 11
861.0
 21
165.0
 31
0.0
  0
LINE
  5
400
330
1F
100
AcDbEntity
  8
LAY-255
  6
CONTINUOUS
 62
     4
100
AcDbLine
 10
1149.0
 20
183.0
 30
0.0
 11
861.0
 21
183.0
 31
0.0
  0
POINT
  5
401
330
1F
100
AcDbEntity
  8
LAY-255
  6
CONTINUOUS
 62
     7
100
AcDbPoint
 10
867.0
 20
150.0
 30
0.0
  0
POINT
  5
402
330
1F
100
AcDbEntity
  8
LAY-255
  6
CONTINUOUS
 62
     7
100
AcDbPoint
 10
900.0
 20
168.0
 30
0.0
  0
POINT
  5
403
330
1F
100
AcDbEntity
  8
LAY-255
  6
CONTINUOUS
 62
     7
100
AcDbPoint
 10
900.0
 20
186.0
 30
0.0
  0
POINT
  5
404
330
1F
100
AcDbEntity
  8
LAY-255
  6
CONTINUOUS
 62
     7
100
AcDbPoint
 10
867.0
 20
120.0
 30
0.0
  0
POINT
  5
405
330
1F
100
AcDbEntity
  8
LAY-255
  6
CONTINUOUS
 62
     7
100
AcDbPoint
 10
867.0
 20
135.0
 30
0.0
  0
POINT
  5
406
330
1F
100
AcDbEntity
  8
LAY-255
  6
CONTINUOUS
 62
     7
100
AcDbPoint
 10
867.0
 20
105.0
 30
0.0
  0
POINT
  5
407
330
1F
100
AcDbEntity
  8
LAY-255
  6
CONTINUOUS
 62
     7
100
AcDbPoint
 10
867.0
 20
89.99999999999996
 30
0.0
  0
TEXT
  5
408
330
1F
100
AcDbEntity
  8
LAY-255
  6
CONTINUOUS
 62
     7
100
AcDbText
 10
924.415136826172
 20
46.63125
 30
0.0
 40
15.46875
  1
福西鋳物株式会社
 41
1.342692141742901
  7
EXCADSTD
100
AcDbText
  0
TEXT
  5
409
330
1F
100
AcDbEntity
  8
LAY-255
  6
CONTINUOUS
 62
     7
100
AcDbText
 10
925.528125
 20
35.94375
 30
0.0
 40
5.15625
  1
ＦＵＫＵＮＩＳＨＩ
 41
1.204799226045263
  7
EXCADSTD
100
AcDbText
  0
TEXT
  5
40A
330
1F
100
AcDbEntity
  8
LAY-255
  6
CONTINUOUS
 62
     7
100
AcDbText
 10
998.1575892857143
 20
35.94375
 30
0.0
 40
5.15625
  1
ＦＯＵＮＤＲＹ
 41
1.243252752978497
  7
EXCADSTD
100
AcDbText
  0
TEXT
  5
40B
330
1F
100
AcDbEntity
  8
LAY-255
  6
CONTINUOUS
 62
     7
100
AcDbText
 10
1055.983774651442
 20
35.94375
 30
0.0
 40
5.15625
  1
ＣＯ.,ＬＴＤ.
 41
1.243831271314936
  7
EXCADSTD
100
AcDbText
  0
TEXT
  5
40C
330
1F
100
AcDbEntity
  8
LAY-255
  6
CONTINUOUS
 62
     7
100
AcDbText
 10
882.1031250000001
 20
41.15625
 30
0.0
 40
15.46875
  1
S
 41
0.7582677563636363
  7
EXCADSTD
100
AcDbText
  0
TEXT
  5
40D
330
1F
100
AcDbEntity
  8
LAY-255
  6
CONTINUOUS
 62
     7
100
AcDbText
 10
891.3140625000001
 20
41.24823113208
 30
0.0
 40
15.46875
  1
F
 41
0.7440945272727273
  7
EXCADSTD
100
AcDbText
  0
TEXT
  5
40E
330
1F
100
AcDbEntity
  8
LAY-255
  6
CONTINUOUS
 62
     7
100
AcDbText
 10
1011.31640625
 20
73.26562499999997
 30
0.0
 40
7.734375
  1
縮尺
 41
1.080708718181818
  7
EXCADSTD
100
AcDbText
  0
TEXT
  5
40F
330
1F
100
AcDbEntity
  8
LAY-255
  6
CONTINUOUS
 62
     7
100
AcDbText
 10
861.796875
 20
169.6875
 30
0.0
 40
10.3125
  1
型式
 41
1.056348480681818
  7
EXCADSTD
100
AcDbText
  0
TEXT
  5
410
330
1F
100
AcDbEntity
  8
LAY-255
  6
CONTINUOUS
 62
     7
100
AcDbText
 10
862.265625
 20
187.6875
 30
0.0
 40
10.3125
  1
品名
 41
0.978838634090909
  7
EXCADSTD
100
AcDbText
  0
TEXT
  5
411
330
1F
100
AcDbEntity
  8
LAY-255
  6
CONTINUOUS
 62
     7
100
AcDbText
 10
861.45703125
 20
73.26562499999997
 30
0.0
 40
7.734375
  1
作成日
 41
1.000629973818182
  7
EXCADSTD
100
AcDbText
  0
TEXT
  5
412
330
1F
100
AcDbEntity
  8
LAY-255
  6
CONTINUOUS
 62
     7
100
AcDbText
 10
1044.84375
 20
70.68749999999997
 30
0.0
 40
10.3125
  1
１：３
 41
0.8844094952727272
  7
EXCADSTD
100
AcDbText
  0
TEXT
  5
413
330
1F
100
AcDbEntity
  8
LAY-255
  6
CONTINUOUS
 62
     7
100
AcDbText
 10
867.5625
 20
121.6875
 30
0.0
 40
10.3125
  1
施工：打込用
 41
1.018700840909091
  7
EXCADSTD
100
AcDbText
  0
TEXT
  5
414
330
1F
100
AcDbEntity
  8
LAY-255
  6
CONTINUOUS
 62
     7
100
AcDbText
 10
900.75
 20
187.6875
 30
0.0
 40
10.3125
  1
ルーフドレイン
 41
1.021169538599106
  7
EXCADSTD
100
AcDbText
  0
TEXT
  5
415
330
1F
100
AcDbEntity
  8
LAY-255
  6
CONTINUOUS
 62
     7
100
AcDbText
 10
867.65625
 20
106.6875
 30
0.0
 40
10.3125
  1
接続：差込用
 41
1.01733803041958
  7
EXCADSTD
100
AcDbText
  0
TEXT
  5
416
330
1F
100
AcDbEntity
  8
LAY-255
  6
CONTINUOUS
 62
     7
100
AcDbText
 10
867.703125
 20
136.6875
 30
0.0
 40
10.3125
  1
用途：屋上用
 41
1.016656625174825
  7
EXCADSTD
100
AcDbText
  0
TEXT
  5
417
330
1F
100
AcDbEntity
  8
LAY-255
  6
CONTINUOUS
 62
     7
100
AcDbText
 10
868.125
 20
151.6875000000001
 30
0.0
 40
10.3125
  1
防水：モルタル・塗膜防水兼用
 41
1.008985320967742
  7
EXCADSTD
100
AcDbText
  0
TEXT
  5
418
330
1F
100
AcDbEntity
  8
LAY-255
  6
CONTINUOUS
 62
     7
100
AcDbText
 10
902.625
 20
169.6875
 30
0.0
 40
10.3125
  1
ＲＣＸ－９１２５型
 41
0.9997508747986191
  7
EXCADSTD
100
AcDbText
  0
TEXT
  5
419
330
1F
100
AcDbEntity
  8
LAY-255
  6
CONTINUOUS
 62
     7
100
AcDbText
 10
902.671875
 20
70.68749999999997
 30
0.0
 40
10.3125
  1
０８／０９／０５
 41
0.9779528072727272
  7
EXCADSTD
100
AcDbText
  0
ENDSEC
  0
SECTION
  2
OBJECTS
  0
DICTIONARY
  5
C
330
0
100
AcDbDictionary
  3
ACAD_GROUP
350
D
  3
ACAD_LAYOUT
350
1A
  3
ACAD_MATERIAL
350
43
  3
ACAD_MLEADERSTYLE
350
6B
  3
ACAD_MLINESTYLE
350
17
  3
ACAD_PLOTSETTINGS
350
19
  3
ACAD_SCALELIST
350
47
  3
ACAD_VISUALSTYLE
350
2A
  3
ACDBHEADERROUNDTRIPXREC
350
41A
  3
ACDBVARIABLEDICTIONARY
350
43B
  0
DICTIONARY
  5
446
330
8
100
AcDbDictionary
280
     1
  3
ACAD_XREC_ROUNDTRIP
360
447
  0
DICTIONARY
  5
D
102
{ACAD_REACTORS
330
C
102
}
330
C
100
AcDbDictionary
  0
DICTIONARY
  5
1A
102
{ACAD_REACTORS
330
C
102
}
330
C
100
AcDbDictionary
  0
DICTIONARY
  5
43
102
{ACAD_REACTORS
330
C
102
}
330
C
100
AcDbDictionary
  3
BYBLOCK
350
45
  3
BYLAYER
350
44
  3
GLOBAL
350
46
  0
DICTIONARY
  5
6B
102
{ACAD_REACTORS
330
C
102
}
330
C
100
AcDbDictionary
  3
STANDARD
350
6C
  0
DICTIONARY
  5
17
102
{ACAD_REACTORS
330
C
102
}
330
C
100
AcDbDictionary
  3
STANDARD
350
18
  0
DICTIONARY
  5
19
102
{ACAD_REACTORS
330
C
102
}
330
C
100
AcDbDictionary
  0
DICTIONARY
  5
47
102
{ACAD_REACTORS
330
C
102
}
330
C
100
AcDbDictionary
  3
A0
350
48
  3
A1
350
49
  3
A2
350
4A
  3
A3
350
4B
  3
A4
350
4C
  3
A5
350
4D
  3
A6
350
4E
  3
A7
350
4F
  3
A8
350
50
  3
A9
350
51
  3
B0
350
52
  3
B1
350
53
  3
B2
350
54
  3
B3
350
55
  3
B4
350
56
  3
B5
350
57
  3
B6
350
58
  3
B7
350
59
  3
B8
350
5A
  3
B9
350
5B
  3
C0
350
5C
  3
C1
350
5D
  3
C2
350
5E
  3
C3
350
5F
  3
C4
350
60
  3
C5
350
61
  3
C6
350
62
  3
C7
350
63
  3
C8
350
64
  3
C9
350
65
  3
D0
350
66
  3
D1
350
67
  3
D2
350
68
  0
DICTIONARY
  5
2A
102
{ACAD_REACTORS
330
C
102
}
330
C
100
AcDbDictionary
  3
2DWIREFRAME
350
2F
  3
BASIC
350
32
  3
BRIGHTEN
350
36
  3
COLORCHANGE
350
3A
  3
CONCEPTUAL
350
34
  3
DIM
350
35
  3
EDGECOLOROFF
350
3D
  3
FACEPATTERN
350
39
  3
FLAT
350
2B
  3
FLATWITHEDGES
350
2C
  3
GOURAUD
350
2D
  3
GOURAUDWITHEDGES
350
2E
  3
HIDDEN
350
31
  3
JITTEROFF
350
3B
  3
LINEPATTERN
350
38
  3
OVERHANGOFF
350
3C
  3
REALISTIC
350
33
  3
SHADED
350
42
  3
SHADED_WITH_EDGES
350
41
  3
SHADES_OF_GRAY
350
3E
  3
SKETCHY
350
3F
  3
THICKEN
350
37
  3
WIREFRAME
350
30
  3
X-RAY
350
40
  0
DICTIONARY
  5
41A
102
{ACAD_REACTORS
330
C
102
}
330
C
100
AcDbDictionary
  3
CEPSNID
350
424
  3
CEPSNTYPE
350
423
  3
DIMSTYLEDATA
350
43A
  3
FINGERPRINTGUID
350
425
  3
HYPERLINKBASE
350
41D
  3
INSUNITS
350
422
  3
LAYOUTDICT
350
41F
  3
LWETCUNION
350
421
  3
PLOTSETDICT
350
420
  3
PSVPSCALE
350
427
  3
PUCSBASE
350
42A
  3
PUCSORGBACK
350
430
  3
PUCSORGBOTTOM
350
42C
  3
PUCSORGFRONT
350
42F
  3
PUCSORGLEFT
350
42D
  3
PUCSORGRIGHT
350
42E
  3
PUCSORGTOP
350
42B
  3
PUCSORTHOREF
350
428
  3
PUCSORTHOVIEW
350
429
  3
STYLESHEET
350
41E
  3
TSTACKALIGN
350
41B
  3
TSTACKSIZE
350
41C
  3
UCSBASE
350
433
  3
UCSORGBACK
350
439
  3
UCSORGBOTTOM
350
435
  3
UCSORGFRONT
350
438
  3
UCSORGLEFT
350
436
  3
UCSORGRIGHT
350
437
  3
UCSORGTOP
350
434
  3
UCSORTHOREF
350
431
  3
UCSORTHOVIEW
350
432
  3
VERSIONGUID
350
426
  0
DICTIONARY
  5
43B
102
{ACAD_REACTORS
330
C
102
}
330
C
100
AcDbDictionary
  3
CANNOSCALE
350
448
  3
CENTEREXE
350
442
  3
CENTERLTYPEFILE
350
443
  3
CMLEADERSTYLE
350
43D
  3
CTABLESTYLE
350
43C
  3
DIMASSOC
350
444
  3
HIDETEXT
350
445
  3
MSLTSCALE
350
449
  3
PSOLHEIGHT
350
43F
  3
PSOLWIDTH
350
43E
  0
XRECORD
  5
447
102
{ACAD_REACTORS
330
446
102
}
330
446
100
AcDbXrecord
102
VTR_0.000_0.000_1.000_1.000_VISUALSTYLE
340
2F
102
VTR_0.000_0.000_1.000_1.000_GRIDDISPLAY
 70
     3
102
VTR_0.000_0.000_1.000_1.000_GRIDMAJOR
 70
     5
102
VTR_0.000_0.000_1.000_1.000_DEFAULTLIGHTING
280
     1
102
VTR_0.000_0.000_1.000_1.000_DEFAULTLIGHTINGTYPE
 70
     1
102
VTR_0.000_0.000_1.000_1.000_BRIGHTNESS
141
0.0
102
VTR_0.000_0.000_1.000_1.000_CONTRAST
142
0.0
  0
MATERIAL
  5
45
102
{ACAD_REACTORS
330
43
102
}
102
{ACAD_XDICTIONARY
360
44C
102
}
330
43
100
AcDbMaterial
  1
BYBLOCK
  0
MATERIAL
  5
44
102
{ACAD_REACTORS
330
43
102
}
102
{ACAD_XDICTIONARY
360
44A
102
}
330
43
100
AcDbMaterial
  1
BYLAYER
  0
MATERIAL
  5
46
102
{ACAD_REACTORS
330
43
102
}
102
{ACAD_XDICTIONARY
360
44E
102
}
330
43
100
AcDbMaterial
  1
GLOBAL
  0
ACAD_PROXY_OBJECT
  5
6C
102
{ACAD_REACTORS
330
6B
102
}
330
6B
100
AcDbProxyObject
 90
      499
 91
      505
 93
      610
310
40901902A4063FBFFFFFE0000000000000020400000000000020404214DD185B99185C990000000000000104090141901A00000000000004100000000000000041025764000000000000039000
340
14
340
0
340
11
340
0
 94
        0
1001
ACAD_MLEADERVER
1070
     2
  0
MLINESTYLE
  5
18
102
{ACAD_REACTORS
330
17
102
}
330
17
100
AcDbMlineStyle
  2
Standard
 70
     0
  3

 62
   256
 51
90.0
 52
90.0
 71
     2
 49
0.5
 62
   256
  6
BYLAYER
 49
-0.5
 62
   256
  6
BYLAYER
  0
ACAD_PROXY_OBJECT
  5
48
102
{ACAD_REACTORS
330
47
102
}
330
47
100
AcDbProxyObject
 90
      499
 91
      503
 93
       41
310
903313A31580
  0
ACAD_PROXY_OBJECT
  5
49
102
{ACAD_REACTORS
330
47
102
}
330
47
100
AcDbProxyObject
 90
      499
 91
      503
 93
      105
310
903313A324000000000000004000
  0
ACAD_PROXY_OBJECT
  5
4A
102
{ACAD_REACTORS
330
47
102
}
330
47
100
AcDbProxyObject
 90
      499
 91
      503
 93
      105
310
903313A344000000000000104000
  0
ACAD_PROXY_OBJECT
  5
4B
102
{ACAD_REACTORS
330
47
102
}
330
47
100
AcDbProxyObject
 90
      499
 91
      503
 93
      105
310
903313A354000000000000144000
  0
ACAD_PROXY_OBJECT
  5
4C
102
{ACAD_REACTORS
330
47
102
}
330
47
100
AcDbProxyObject
 90
      499
 91
      503
 93
      105
310
903313A384000000000000204000
  0
ACAD_PROXY_OBJECT
  5
4D
102
{ACAD_REACTORS
330
47
102
}
330
47
100
AcDbProxyObject
 90
      499
 91
      503
 93
      113
310
904313A31304000000000000244000
  0
ACAD_PROXY_OBJECT
  5
4E
102
{ACAD_REACTORS
330
47
102
}
330
47
100
AcDbProxyObject
 90
      499
 91
      503
 93
      113
310
904313A31364000000000000304000
  0
ACAD_PROXY_OBJECT
  5
4F
102
{ACAD_REACTORS
330
47
102
}
330
47
100
AcDbProxyObject
 90
      499
 91
      503
 93
      113
310
904313A32304000000000000344000
  0
ACAD_PROXY_OBJECT
  5
50
102
{ACAD_REACTORS
330
47
102
}
330
47
100
AcDbProxyObject
 90
      499
 91
      503
 93
      113
310
904313A333040000000000003E4000
  0
ACAD_PROXY_OBJECT
  5
51
102
{ACAD_REACTORS
330
47
102
}
330
47
100
AcDbProxyObject
 90
      499
 91
      503
 93
      113
310
904313A34304000000000000444000
  0
ACAD_PROXY_OBJECT
  5
52
102
{ACAD_REACTORS
330
47
102
}
330
47
100
AcDbProxyObject
 90
      499
 91
      503
 93
      113
310
904313A35304000000000000494000
  0
ACAD_PROXY_OBJECT
  5
53
102
{ACAD_REACTORS
330
47
102
}
330
47
100
AcDbProxyObject
 90
      499
 91
      503
 93
      121
310
905313A3130304000000000000594000
  0
ACAD_PROXY_OBJECT
  5
54
102
{ACAD_REACTORS
330
47
102
}
330
47
100
AcDbProxyObject
 90
      499
 91
      503
 93
      105
310
903323A310000000000000010100
  0
ACAD_PROXY_OBJECT
  5
55
102
{ACAD_REACTORS
330
47
102
}
330
47
100
AcDbProxyObject
 90
      499
 91
      503
 93
      105
310
903343A310000000000000410100
  0
ACAD_PROXY_OBJECT
  5
56
102
{ACAD_REACTORS
330
47
102
}
330
47
100
AcDbProxyObject
 90
      499
 91
      503
 93
      105
310
903383A310000000000000810100
  0
ACAD_PROXY_OBJECT
  5
57
102
{ACAD_REACTORS
330
47
102
}
330
47
100
AcDbProxyObject
 90
      499
 91
      503
 93
      113
310
90431303A310000000000000910100
  0
ACAD_PROXY_OBJECT
  5
58
102
{ACAD_REACTORS
330
47
102
}
330
47
100
AcDbProxyObject
 90
      499
 91
      503
 93
      121
310
9053130303A310000000000001650100
  0
ACAD_PROXY_OBJECT
  5
59
102
{ACAD_REACTORS
330
47
102
}
330
47
100
AcDbProxyObject
 90
      499
 91
      503
 93
      257
310
90E312F31323822203D2031272D3022000000000000200FC000000000000284000
  0
ACAD_PROXY_OBJECT
  5
5A
102
{ACAD_REACTORS
330
47
102
}
330
47
100
AcDbProxyObject
 90
      499
 91
      503
 93
      249
310
90D312F363422203D2031272D3022000000000000240FC000000000000284000
  0
ACAD_PROXY_OBJECT
  5
5B
102
{ACAD_REACTORS
330
47
102
}
330
47
100
AcDbProxyObject
 90
      499
 91
      503
 93
      249
310
90D312F333222203D2031272D3022000000000000280FC000000000000284000
  0
ACAD_PROXY_OBJECT
  5
5C
102
{ACAD_REACTORS
330
47
102
}
330
47
100
AcDbProxyObject
 90
      499
 91
      503
 93
      249
310
90D312F313622203D2031272D30220000000000002C0FC000000000000284000
  0
ACAD_PROXY_OBJECT
  5
5D
102
{ACAD_REACTORS
330
47
102
}
330
47
100
AcDbProxyObject
 90
      499
 91
      503
 93
      249
310
90D332F333222203D2031272D30220000000000002E0FC000000000000284000
  0
ACAD_PROXY_OBJECT
  5
5E
102
{ACAD_REACTORS
330
47
102
}
330
47
100
AcDbProxyObject
 90
      499
 91
      503
 93
      241
310
90C312F3822203D2031272D3022000000000000300FC000000000000284000
  0
ACAD_PROXY_OBJECT
  5
5F
102
{ACAD_REACTORS
330
47
102
}
330
47
100
AcDbProxyObject
 90
      499
 91
      503
 93
      249
310
90D332F313622203D2031272D3022000000000000320FC000000000000284000
  0
ACAD_PROXY_OBJECT
  5
60
102
{ACAD_REACTORS
330
47
102
}
330
47
100
AcDbProxyObject
 90
      499
 91
      503
 93
      241
310
90C312F3422203D2031272D3022000000000000340FC000000000000284000
  0
ACAD_PROXY_OBJECT
  5
61
102
{ACAD_REACTORS
330
47
102
}
330
47
100
AcDbProxyObject
 90
      499
 91
      503
 93
      241
310
90C332F3822203D2031272D3022000000000000360FC000000000000284000
  0
ACAD_PROXY_OBJECT
  5
62
102
{ACAD_REACTORS
330
47
102
}
330
47
100
AcDbProxyObject
 90
      499
 91
      503
 93
      241
310
90C312F3222203D2031272D3022000000000000380FC000000000000284000
  0
ACAD_PROXY_OBJECT
  5
63
102
{ACAD_REACTORS
330
47
102
}
330
47
100
AcDbProxyObject
 90
      499
 91
      503
 93
      241
310
90C332F3422203D2031272D30220000000000003A0FC000000000000284000
  0
ACAD_PROXY_OBJECT
  5
64
102
{ACAD_REACTORS
330
47
102
}
330
47
100
AcDbProxyObject
 90
      499
 91
      503
 93
      161
310
90A3122203D2031272D30224000000000000284000
  0
ACAD_PROXY_OBJECT
  5
65
102
{ACAD_REACTORS
330
47
102
}
330
47
100
AcDbProxyObject
 90
      499
 91
      503
 93
      257
310
90E312D312F3222203D2031272D30220000000000003E0FC000000000000284000
  0
ACAD_PROXY_OBJECT
  5
66
102
{ACAD_REACTORS
330
47
102
}
330
47
100
AcDbProxyObject
 90
      499
 91
      503
 93
      225
310
90A3322203D2031272D302200000000000002100000000000000284000
  0
ACAD_PROXY_OBJECT
  5
67
102
{ACAD_REACTORS
330
47
102
}
330
47
100
AcDbProxyObject
 90
      499
 91
      503
 93
      225
310
90A3622203D2031272D302200000000000006100000000000000284000
  0
ACAD_PROXY_OBJECT
  5
68
102
{ACAD_REACTORS
330
47
102
}
330
47
100
AcDbProxyObject
 90
      499
 91
      503
 93
      249
310
90D31272D3022203D2031272D30220000000000000A100000000000000284000
  0
ACAD_PROXY_OBJECT
  5
2F
102
{ACAD_REACTORS
330
2A
102
}
330
2A
100
AcDbProxyObject
 90
      499
 91
      501
 93
      436
310
42CC9915DA5C99599C985B595049028333333333333E33F0000000000000F90107901411070040501600405405064090741402480A0340
1001
ACAD
1000
AcDbSavedByObjectVersion
1070
     0
  0
ACAD_PROXY_OBJECT
  5
32
102
{ACAD_REACTORS
330
2A
102
}
330
2A
100
AcDbProxyObject
 90
      499
 91
      501
 93
      388
310
4150985CDA58D07406404333333333333E33F0000000000000F90107A41107004050150841D405064090741402480A0350
1001
ACAD
1000
AcDbSavedByObjectVersion
1070
     0
  0
ACAD_PROXY_OBJECT
  5
36
102
{ACAD_REACTORS
330
2A
102
}
330
2A
100
AcDbProxyObject
 90
      499
 91
      501
 93
      428
310
42109C9A59DA1D195B90C409028333333333333E33F0000000000000F9010790141107004050150841D405064090741402480A029950
1001
ACAD
1000
AcDbSavedByObjectVersion
1070
     0
  0
ACAD_PROXY_OBJECT
  5
3A
102
{ACAD_REACTORS
330
2A
102
}
330
2A
100
AcDbProxyObject
 90
      499
 91
      501
 93
      452
310
42D0DBDB1BDC90DA185B99D95104090240C333333333333E33F0000000000000F90108901411070040501508421405064090741402480A0350
1001
ACAD
1000
AcDbSavedByObjectVersion
1070
     0
  0
ACAD_PROXY_OBJECT
  5
34
102
{ACAD_REACTORS
330
2A
102
}
330
2A
100
AcDbProxyObject
 90
      499
 91
      501
 93
      500
310
4290DBDB98D95C1D1D585B10940D028333333333333E33F0000000000000F90107902409070040501000000000018199010841D405064090740C02480A0340
1001
ACAD
1000
AcDbSavedByObjectVersion
1070
     0
  0
ACAD_PROXY_OBJECT
  5
35
102
{ACAD_REACTORS
330
2A
102
}
330
2A
100
AcDbProxyObject
 90
      499
 91
      501
 93
      412
310
40D11A5B50B409028333333333333E33F0000000000000F9010790141107004050150841D405064090741402480A02677FFFFFD0
1001
ACAD
1000
AcDbSavedByObjectVersion
1070
     0
  0
ACAD_PROXY_OBJECT
  5
3D
102
{ACAD_REACTORS
330
2A
102
}
330
2A
100
AcDbProxyObject
 90
      499
 91
      501
 93
      452
310
43115919D950DBDB1BDC93D999916409028333333333333E33F0000000000000F9010790141107004050150841D405064090741402480A0350
1001
ACAD
1000
AcDbSavedByObjectVersion
1070
     0
  0
ACAD_PROXY_OBJECT
  5
39
102
{ACAD_REACTORS
330
2A
102
}
330
2A
100
AcDbProxyObject
 90
      499
 91
      501
 93
      444
310
42D19858D95C185D1D195C9B90F409028333333333333E33F0000000000000F9010790141107004050150841D405064090741402480A0350
1001
ACAD
1000
AcDbSavedByObjectVersion
1070
     0
  0
ACAD_PROXY_OBJECT
  5
2B
102
{ACAD_REACTORS
330
2A
102
}
330
2A
100
AcDbProxyObject
 90
      499
 91
      501
 93
      380
310
41119B185D240901404333333333333E33F0000000000000F9010740A907004050150841D405064090741402480A1B50
1001
ACAD
1000
AcDbSavedByObjectVersion
1070
     0
  0
ACAD_PROXY_OBJECT
  5
2C
102
{ACAD_REACTORS
330
2A
102
}
330
2A
100
AcDbProxyObject
 90
      499
 91
      501
 93
      468
310
43519B185D15DA5D1A115919D95CD0140901404333333333333E33F0000000000000F90107409019070040501600405405064090741402480A1B50
1001
ACAD
1000
AcDbSavedByObjectVersion
1070
     0
  0
ACAD_PROXY_OBJECT
  5
2D
102
{ACAD_REACTORS
330
2A
102
}
330
2A
100
AcDbProxyObject
 90
      499
 91
      501
 93
      404
310
41D1DBDD5C985D5910240902404333333333333E33F0000000000000F9010740A9070040501641D405064090741402480A1B50
1001
ACAD
1000
AcDbSavedByObjectVersion
1070
     0
  0
ACAD_PROXY_OBJECT
  5
2E
102
{ACAD_REACTORS
330
2A
102
}
330
2A
100
AcDbProxyObject
 90
      499
 91
      501
 93
      492
310
4411DBDD5C985D5915DA5D1A115919D95CD0340902404333333333333E33F0000000000000F90107409019070040501600405405064090741402480A1B50
1001
ACAD
1000
AcDbSavedByObjectVersion
1070
     0
  0
ACAD_PROXY_OBJECT
  5
31
102
{ACAD_REACTORS
330
2A
102
}
330
2A
100
AcDbProxyObject
 90
      499
 91
      501
 93
      476
310
41921A5919195B90640502408333333333333E33F0000000000000F901079024090700405020000000000001110200405405064090740C02480A0340
1001
ACAD
1000
AcDbSavedByObjectVersion
1070
     0
  0
ACAD_PROXY_OBJECT
  5
3B
102
{ACAD_REACTORS
330
2A
102
}
330
2A
100
AcDbProxyObject
 90
      499
 91
      501
 93
      428
310
42529A5D1D195C93D999914409028333333333333E33F0000000000000F9010790141107004050150A41D405064090741402480A0350
1001
ACAD
1000
AcDbSavedByObjectVersion
1070
     0
  0
ACAD_PROXY_OBJECT
  5
38
102
{ACAD_REACTORS
330
2A
102
}
330
2A
100
AcDbProxyObject
 90
      499
 91
      501
 93
      444
310
42D31A5B995C185D1D195C9B90E409028333333333333E33F0000000000000F9010790141107004050750841D405064090741402483A0350
1001
ACAD
1000
AcDbSavedByObjectVersion
1070
     0
  0
ACAD_PROXY_OBJECT
  5
3C
102
{ACAD_REACTORS
330
2A
102
}
330
2A
100
AcDbProxyObject
 90
      499
 91
      501
 93
      444
310
42D3DD995C9A185B99D3D999915409028333333333333E33F0000000000000F9010790141107004050150941D405064090741402480A0350
1001
ACAD
1000
AcDbSavedByObjectVersion
1070
     0
  0
ACAD_PROXY_OBJECT
  5
33
102
{ACAD_REACTORS
330
2A
102
}
330
2A
100
AcDbProxyObject
 90
      499
 91
      501
 93
      428
310
425499585B1A5CDD1A58D08409038333333333333E33F0000000000000F9010740A907004050150800405405064090740C02480A1B40
1001
ACAD
1000
AcDbSavedByObjectVersion
1070
     0
  0
ACAD_PROXY_OBJECT
  5
42
102
{ACAD_REACTORS
330
2A
102
}
330
2A
100
AcDbProxyObject
 90
      499
 91
      501
 93
      420
310
4194DA1859195911B40902404333333333333E33F0000000000000F9010740A41107004050150800405405064090840C02480A0B40
1001
ACAD
1000
AcDbSavedByObjectVersion
1070
     0
  0
ACAD_PROXY_OBJECT
  5
41
102
{ACAD_REACTORS
330
2A
102
}
330
2A
100
AcDbProxyObject
 90
      499
 91
      501
 93
      516
310
4454DA18591959081DDA5D1A08195919D95CD1A40902404333333333333E33F0000000000000F901074090142907004050250800405405064090740C02480A0B40
1001
ACAD
1000
AcDbSavedByObjectVersion
1070
     0
  0
ACAD_PROXY_OBJECT
  5
3E
102
{ACAD_REACTORS
330
2A
102
}
330
2A
100
AcDbProxyObject
 90
      499
 91
      501
 93
      532
310
4394DA1859195CC81BD98811DC985E5174090240C333333333333E33F0000000000000F901079024090741D01000000000000111010841D405064090740C02480A0340
1001
ACAD
1000
AcDbSavedByObjectVersion
1070
     0
  0
ACAD_PROXY_OBJECT
  5
3F
102
{ACAD_REACTORS
330
2A
102
}
330
2A
100
AcDbProxyObject
 90
      499
 91
      501
 93
      476
310
41D4DAD95D18DA1E51840502408333333333333E33F0000000000000F901079024090741D01000000000000111010B41D405064090741802480A0340
1001
ACAD
1000
AcDbSavedByObjectVersion
1070
     0
  0
ACAD_PROXY_OBJECT
  5
37
102
{ACAD_REACTORS
330
2A
102
}
330
2A
100
AcDbProxyObject
 90
      499
 91
      501
 93
      412
310
41D51A1A58DAD95B90D409028333333333333E33F0000000000000F9010790141107004050150C41D405064090741402480A0350
1001
ACAD
1000
AcDbSavedByObjectVersion
1070
     0
  0
ACAD_PROXY_OBJECT
  5
30
102
{ACAD_REACTORS
330
2A
102
}
330
2A
100
AcDbProxyObject
 90
      499
 91
      501
 93
      420
310
4255DA5C99599C985B595059028333333333333E33F0000000000000F90107901411070040501600405405064090740C02480A0340
1001
ACAD
1000
AcDbSavedByObjectVersion
1070
     0
  0
ACAD_PROXY_OBJECT
  5
40
102
{ACAD_REACTORS
330
2A
102
}
330
2A
100
AcDbProxyObject
 90
      499
 91
      501
 93
      404
310
41560B54985E51940902404000000000000E03F0000000000000F9010740501907004050150841D405064090740C02480A1B40
1001
ACAD
1000
AcDbSavedByObjectVersion
1070
     0
  0
XRECORD
  5
424
102
{ACAD_REACTORS
330
41A
102
}
330
41A
100
AcDbXrecord
340
0
  0
XRECORD
  5
423
102
{ACAD_REACTORS
330
41A
102
}
330
41A
100
AcDbXrecord
 90
        0
  0
XRECORD
  5
43A
102
{ACAD_REACTORS
330
41A
102
}
330
41A
100
AcDbXrecord
1000
DSTYLE
1002
{
1070
   340
340
11
1002
}
  0
XRECORD
  5
425
102
{ACAD_REACTORS
330
41A
102
}
330
41A
100
AcDbXrecord
  1
{8d7beac9-4eda-4827-9676-891f8fcf8f4a}
  0
XRECORD
  5
41D
102
{ACAD_REACTORS
330
41A
102
}
330
41A
100
AcDbXrecord
  1

  0
XRECORD
  5
422
102
{ACAD_REACTORS
330
41A
102
}
330
41A
100
AcDbXrecord
 90
        4
  0
XRECORD
  5
41F
102
{ACAD_REACTORS
330
41A
102
}
330
41A
100
AcDbXrecord
340
1A
  0
XRECORD
  5
421
102
{ACAD_REACTORS
330
41A
102
}
330
41A
100
AcDbXrecord
 90
    10781
  0
XRECORD
  5
420
102
{ACAD_REACTORS
330
41A
102
}
330
41A
100
AcDbXrecord
340
19
  0
XRECORD
  5
427
102
{ACAD_REACTORS
330
41A
102
}
330
41A
100
AcDbXrecord
 40
0.0
  0
XRECORD
  5
42A
102
{ACAD_REACTORS
330
41A
102
}
330
41A
100
AcDbXrecord
340
0
  0
XRECORD
  5
430
102
{ACAD_REACTORS
330
41A
102
}
330
41A
100
AcDbXrecord
 10
0.0
 20
0.0
 30
0.0
  0
XRECORD
  5
42C
102
{ACAD_REACTORS
330
41A
102
}
330
41A
100
AcDbXrecord
 10
0.0
 20
0.0
 30
0.0
  0
XRECORD
  5
42F
102
{ACAD_REACTORS
330
41A
102
}
330
41A
100
AcDbXrecord
 10
0.0
 20
0.0
 30
0.0
  0
XRECORD
  5
42D
102
{ACAD_REACTORS
330
41A
102
}
330
41A
100
AcDbXrecord
 10
0.0
 20
0.0
 30
0.0
  0
XRECORD
  5
42E
102
{ACAD_REACTORS
330
41A
102
}
330
41A
100
AcDbXrecord
 10
0.0
 20
0.0
 30
0.0
  0
XRECORD
  5
42B
102
{ACAD_REACTORS
330
41A
102
}
330
41A
100
AcDbXrecord
 10
0.0
 20
0.0
 30
0.0
  0
XRECORD
  5
428
102
{ACAD_REACTORS
330
41A
102
}
330
41A
100
AcDbXrecord
340
0
  0
XRECORD
  5
429
102
{ACAD_REACTORS
330
41A
102
}
330
41A
100
AcDbXrecord
 70
     0
  0
XRECORD
  5
41E
102
{ACAD_REACTORS
330
41A
102
}
330
41A
100
AcDbXrecord
  1

  0
XRECORD
  5
41B
102
{ACAD_REACTORS
330
41A
102
}
330
41A
100
AcDbXrecord
 90
        1
  0
XRECORD
  5
41C
102
{ACAD_REACTORS
330
41A
102
}
330
41A
100
AcDbXrecord
 90
       70
  0
XRECORD
  5
433
102
{ACAD_REACTORS
330
41A
102
}
330
41A
100
AcDbXrecord
340
0
  0
XRECORD
  5
439
102
{ACAD_REACTORS
330
41A
102
}
330
41A
100
AcDbXrecord
 10
0.0
 20
0.0
 30
0.0
  0
XRECORD
  5
435
102
{ACAD_REACTORS
330
41A
102
}
330
41A
100
AcDbXrecord
 10
0.0
 20
0.0
 30
0.0
  0
XRECORD
  5
438
102
{ACAD_REACTORS
330
41A
102
}
330
41A
100
AcDbXrecord
 10
0.0
 20
0.0
 30
0.0
  0
XRECORD
  5
436
102
{ACAD_REACTORS
330
41A
102
}
330
41A
100
AcDbXrecord
 10
0.0
 20
0.0
 30
0.0
  0
XRECORD
  5
437
102
{ACAD_REACTORS
330
41A
102
}
330
41A
100
AcDbXrecord
 10
0.0
 20
0.0
 30
0.0
  0
XRECORD
  5
434
102
{ACAD_REACTORS
330
41A
102
}
330
41A
100
AcDbXrecord
 10
0.0
 20
0.0
 30
0.0
  0
XRECORD
  5
431
102
{ACAD_REACTORS
330
41A
102
}
330
41A
100
AcDbXrecord
340
0
  0
XRECORD
  5
432
102
{ACAD_REACTORS
330
41A
102
}
330
41A
100
AcDbXrecord
 70
     0
  0
XRECORD
  5
426
102
{ACAD_REACTORS
330
41A
102
}
330
41A
100
AcDbXrecord
  1
{FAEB1C32-E019-11D5-929B-00C0DF256EC4}
  0
DICTIONARYVAR
  5
448
102
{ACAD_REACTORS
330
43B
102
}
330
43B
100
DictionaryVariables
280
     0
  1
1:1
  0
DICTIONARYVAR
  5
442
102
{ACAD_REACTORS
330
43B
102
}
330
43B
100
DictionaryVariables
280
     0
  1
3.500000
  0
DICTIONARYVAR
  5
443
102
{ACAD_REACTORS
330
43B
102
}
330
43B
100
DictionaryVariables
280
     0
  1
acadiso.lin
  0
DICTIONARYVAR
  5
43D
102
{ACAD_REACTORS
330
43B
102
}
330
43B
100
DictionaryVariables
280
     0
  1
Standard
  0
DICTIONARYVAR
  5
43C
102
{ACAD_REACTORS
330
43B
102
}
330
43B
100
DictionaryVariables
280
     0
  1
Standard
  0
DICTIONARYVAR
  5
444
102
{ACAD_REACTORS
330
43B
102
}
330
43B
100
DictionaryVariables
280
     0
  1
2
  0
DICTIONARYVAR
  5
445
102
{ACAD_REACTORS
330
43B
102
}
330
43B
100
DictionaryVariables
280
     0
  1
1
  0
DICTIONARYVAR
  5
449
102
{ACAD_REACTORS
330
43B
102
}
330
43B
100
DictionaryVariables
280
     0
  1
1
  0
DICTIONARYVAR
  5
43F
102
{ACAD_REACTORS
330
43B
102
}
330
43B
100
DictionaryVariables
280
     0
  1
80.000000
  0
DICTIONARYVAR
  5
43E
102
{ACAD_REACTORS
330
43B
102
}
330
43B
100
DictionaryVariables
280
     0
  1
5.000000
  0
DICTIONARY
  5
44C
330
45
100
AcDbDictionary
280
     1
  3
ACAD_XREC_ROUNDTRIP
360
44D
  0
DICTIONARY
  5
44A
330
44
100
AcDbDictionary
280
     1
  3
ACAD_XREC_ROUNDTRIP
360
44B
  0
DICTIONARY
  5
44E
330
46
100
AcDbDictionary
280
     1
  3
ACAD_XREC_ROUNDTRIP
360
44F
  0
XRECORD
  5
44D
102
{ACAD_REACTORS
330
44C
102
}
330
44C
100
AcDbXrecord
102
MATERIAL
148
0.0
149
0.0
149
0.0
 93
        0
 94
      127
282
     0
 72
     1
 77
     1
171
     1
175
     1
179
     1
273
     0
  0
XRECORD
  5
44B
102
{ACAD_REACTORS
330
44A
102
}
330
44A
100
AcDbXrecord
102
MATERIAL
148
0.0
149
0.0
149
0.0
 93
        0
 94
      127
282
     0
 72
     1
 77
     1
171
     1
175
     1
179
     1
273
     0
  0
XRECORD
  5
44F
102
{ACAD_REACTORS
330
44E
102
}
330
44E
100
AcDbXrecord
102
MATERIAL
148
0.0
149
0.0
149
0.0
 93
        0
 94
      127
282
     0
 72
     1
 77
     1
171
     1
175
     1
179
     1
273
     0
  0
ENDSEC
  0
EOF
