  0
SECTION
  2
HEADER
  9
$ACADVER
  1
AC1014
  9
$ACADMAINTVER
 70
     9
  9
$DWGCODEPAGE
  3
ANSI_932
  9
$INSBASE
 10
0.0
 20
0.0
 30
0.0
  9
$EXTMIN
 10
15.0
 20
30.0
 30
0.0
  9
$EXTMAX
 10
1155.0
 20
840.0
 30
0.0
  9
$LIMMIN
 10
0.0
 20
0.0
  9
$LIMMAX
 10
420.0
 20
297.0
  9
$ORTHOMODE
 70
     0
  9
$REGENMODE
 70
     1
  9
$FILLMODE
 70
     1
  9
$QTEXTMODE
 70
     0
  9
$MIRRTEXT
 70
     1
  9
$DRAGMODE
 70
     2
  9
$LTSCALE
 40
0.2
  9
$OSMODE
 70
    37
  9
$ATTMODE
 70
     1
  9
$TEXTSIZE
 40
2.5
  9
$TRACEWID
 40
1.0
  9
$TEXTSTYLE
  7
STANDARD
  9
$CLAYER
  8
LAY-10
  9
$CELTYPE
  6
BYLAYER
  9
$CECOLOR
 62
   256
  9
$CELTSCALE
 40
1.0
  9
$DELOBJ
 70
     1
  9
$DISPSILH
 70
     0
  9
$DIMSCALE
 40
1.0
  9
$DIMASZ
 40
2.5
  9
$DIMEXO
 40
0.625
  9
$DIMDLI
 40
3.75
  9
$DIMRND
 40
0.0
  9
$DIMDLE
 40
0.0
  9
$DIMEXE
 40
1.25
  9
$DIMTP
 40
0.0
  9
$DIMTM
 40
0.0
  9
$DIMTXT
 40
2.5
  9
$DIMCEN
 40
2.5
  9
$DIMTSZ
 40
0.0
  9
$DIMTOL
 70
     0
  9
$DIMLIM
 70
     0
  9
$DIMTIH
 70
     0
  9
$DIMTOH
 70
     0
  9
$DIMSE1
 70
     0
  9
$DIMSE2
 70
     0
  9
$DIMTAD
 70
     1
  9
$DIMZIN
 70
     8
  9
$DIMBLK
  1

  9
$DIMASO
 70
     1
  9
$DIMSHO
 70
     1
  9
$DIMPOST
  1

  9
$DIMAPOST
  1

  9
$DIMALT
 70
     0
  9
$DIMALTD
 70
     3
  9
$DIMALTF
 40
0.03937007874016
  9
$DIMLFAC
 40
1.0
  9
$DIMTOFL
 70
     1
  9
$DIMTVP
 40
0.0
  9
$DIMTIX
 70
     0
  9
$DIMSOXD
 70
     0
  9
$DIMSAH
 70
     0
  9
$DIMBLK1
  1

  9
$DIMBLK2
  1

  9
$DIMSTYLE
  2
ISO-25
  9
$DIMCLRD
 70
     0
  9
$DIMCLRE
 70
     0
  9
$DIMCLRT
 70
     0
  9
$DIMTFAC
 40
1.0
  9
$DIMGAP
 40
0.625
  9
$DIMJUST
 70
     0
  9
$DIMSD1
 70
     0
  9
$DIMSD2
 70
     0
  9
$DIMTOLJ
 70
     0
  9
$DIMTZIN
 70
     8
  9
$DIMALTZ
 70
     0
  9
$DIMALTTZ
 70
     0
  9
$DIMFIT
 70
     3
  9
$DIMUPT
 70
     0
  9
$DIMUNIT
 70
     2
  9
$DIMDEC
 70
     2
  9
$DIMTDEC
 70
     2
  9
$DIMALTU
 70
     2
  9
$DIMALTTD
 70
     3
  9
$DIMTXSTY
  7
STANDARD
  9
$DIMAUNIT
 70
     0
  9
$LUNITS
 70
     2
  9
$LUPREC
 70
     4
  9
$SKETCHINC
 40
1.0
  9
$FILLETRAD
 40
10.0
  9
$AUNITS
 70
     0
  9
$AUPREC
 70
     0
  9
$MENU
  1
.
  9
$ELEVATION
 40
0.0
  9
$PELEVATION
 40
0.0
  9
$THICKNESS
 40
0.0
  9
$LIMCHECK
 70
     0
  9
$CHAMFERA
 40
0.0
  9
$CHAMFERB
 40
0.0
  9
$CHAMFERC
 40
0.0
  9
$CHAMFERD
 40
0.0
  9
$SKPOLY
 70
     0
  9
$TDCREATE
 40
2459229.337316632
  9
$TDUPDATE
 40
2459229.337317083
  9
$TDINDWG
 40
0.0000000116
  9
$TDUSRTIMER
 40
0.0000000116
  9
$USRTIMER
 70
     1
  9
$ANGBASE
 50
0.0
  9
$ANGDIR
 70
     0
  9
$PDMODE
 70
     0
  9
$PDSIZE
 40
0.0
  9
$PLINEWID
 40
0.0
  9
$COORDS
 70
     1
  9
$SPLFRAME
 70
     0
  9
$SPLINETYPE
 70
     6
  9
$SPLINESEGS
 70
     8
  9
$ATTDIA
 70
     0
  9
$ATTREQ
 70
     1
  9
$HANDLING
 70
     1
  9
$HANDSEED
  5
41C
  9
$SURFTAB1
 70
     6
  9
$SURFTAB2
 70
     6
  9
$SURFTYPE
 70
     6
  9
$SURFU
 70
     6
  9
$SURFV
 70
     6
  9
$UCSNAME
  2

  9
$UCSORG
 10
0.0
 20
0.0
 30
0.0
  9
$UCSXDIR
 10
1.0
 20
0.0
 30
0.0
  9
$UCSYDIR
 10
0.0
 20
1.0
 30
0.0
  9
$PUCSNAME
  2

  9
$PUCSORG
 10
0.0
 20
0.0
 30
0.0
  9
$PUCSXDIR
 10
1.0
 20
0.0
 30
0.0
  9
$PUCSYDIR
 10
0.0
 20
1.0
 30
0.0
  9
$USERI1
 70
     0
  9
$USERI2
 70
     0
  9
$USERI3
 70
     0
  9
$USERI4
 70
     0
  9
$USERI5
 70
     0
  9
$USERR1
 40
0.0
  9
$USERR2
 40
0.0
  9
$USERR3
 40
0.0
  9
$USERR4
 40
0.0
  9
$USERR5
 40
0.0
  9
$WORLDVIEW
 70
     1
  9
$SHADEDGE
 70
     3
  9
$SHADEDIF
 70
    70
  9
$TILEMODE
 70
     1
  9
$MAXACTVP
 70
    64
  9
$PINSBASE
 10
0.0
 20
0.0
 30
0.0
  9
$PLIMCHECK
 70
     0
  9
$PEXTMIN
 10
1.000000000000000E+20
 20
1.000000000000000E+20
 30
1.000000000000000E+20
  9
$PEXTMAX
 10
-1.000000000000000E+20
 20
-1.000000000000000E+20
 30
-1.000000000000000E+20
  9
$PLIMMIN
 10
0.0
 20
0.0
  9
$PLIMMAX
 10
420.0
 20
297.0
  9
$UNITMODE
 70
     0
  9
$VISRETAIN
 70
     1
  9
$PLINEGEN
 70
     0
  9
$PSLTSCALE
 70
     1
  9
$TREEDEPTH
 70
  3020
  9
$PICKSTYLE
 70
     1
  9
$CMLSTYLE
  2
STANDARD
  9
$CMLJUST
 70
     0
  9
$CMLSCALE
 40
20.0
  9
$PROXYGRAPHICS
 70
     1
  9
$MEASUREMENT
 70
     1
  0
ENDSEC
  0
SECTION
  2
CLASSES
  0
CLASS
  1
ACDBDICTIONARYWDFLT
  2
AcDbDictionaryWithDefault
  3
ObjectDBX Classes
 90
        0
280
     0
281
     0
  0
CLASS
  1
VISUALSTYLE
  2
AcDbVisualStyle
  3
ObjectDBX Classes
 90
     4095
280
     0
281
     0
  0
CLASS
  1
MATERIAL
  2
AcDbMaterial
  3
ObjectDBX Classes
 90
     1153
280
     0
281
     0
  0
CLASS
  1
SCALE
  2
AcDbScale
  3
ObjectDBX Classes
 90
     1153
280
     0
281
     0
  0
CLASS
  1
TABLESTYLE
  2
AcDbTableStyle
  3
ObjectDBX Classes
 90
     4095
280
     0
281
     0
  0
CLASS
  1
MLEADERSTYLE
  2
AcDbMLeaderStyle
  3
ACDB_MLEADERSTYLE_CLASS
 90
     4095
280
     0
281
     0
  0
CLASS
  1
SUN
  2
AcDbSun
  3
SCENEOE
 90
     1153
280
     0
281
     0
  0
CLASS
  1
DICTIONARYVAR
  2
AcDbDictionaryVar
  3
ObjectDBX Classes
 90
        0
280
     0
281
     0
  0
CLASS
  1
XRECORD
  2
AcDbXrecord
  3
ObjectDBX Classes
 90
        0
280
     0
281
     0
  0
CLASS
  1
LWPOLYLINE
  2
AcDbPolyline
  3
ObjectDBX Classes
 90
        0
280
     0
281
     1
  0
CLASS
  1
HATCH
  2
AcDbHatch
  3
ObjectDBX Classes
 90
        0
280
     0
281
     1
  0
CLASS
  1
ACDBPLACEHOLDER
  2
AcDbPlaceHolder
  3
ObjectDBX Classes
 90
        0
280
     0
281
     0
  0
CLASS
  1
LAYOUT
  2
AcDbLayout
  3
ObjectDBX Classes
 90
        0
280
     0
281
     0
  0
ENDSEC
  0
SECTION
  2
TABLES
  0
TABLE
  2
VPORT
  5
8
102
{ACAD_XDICTIONARY
360
411
102
}
330
0
100
AcDbSymbolTable
 70
     1
  0
VPORT
  5
29
330
8
100
AcDbSymbolTableRecord
100
AcDbViewportTableRecord
  2
*ACTIVE
 70
     0
 10
0.0
 20
0.0
 11
1.0
 21
1.0
 12
585.0000000000001
 22
435.0
 13
0.0
 23
0.0
 14
10.0
 24
10.0
 15
10.0
 25
10.0
 16
0.0
 26
0.0
 36
1.0
 17
0.0
 27
0.0
 37
0.0
 40
810.0
 41
1.407407407407408
 42
50.0
 43
0.0
 44
0.0
 50
0.0
 51
0.0
 71
     0
 72
  1000
 73
     1
 74
     3
 75
     0
 76
     0
 77
     0
 78
     0
  0
ENDTAB
  0
TABLE
  2
LTYPE
  5
5
330
0
100
AcDbSymbolTable
 70
     6
  0
LTYPE
  5
14
330
5
100
AcDbSymbolTableRecord
100
AcDbLinetypeTableRecord
  2
BYBLOCK
 70
     0
  3

 72
    65
 73
     0
 40
0.0
  0
LTYPE
  5
15
330
5
100
AcDbSymbolTableRecord
100
AcDbLinetypeTableRecord
  2
BYLAYER
 70
     0
  3

 72
    65
 73
     0
 40
0.0
  0
LTYPE
  5
16
330
5
100
AcDbSymbolTableRecord
100
AcDbLinetypeTableRecord
  2
CONTINUOUS
 70
     0
  3
Solid line
 72
    65
 73
     0
 40
0.0
  0
LTYPE
  5
6E
330
5
100
AcDbSymbolTableRecord
100
AcDbLinetypeTableRecord
  2
HIDDEN
 70
     0
  3
Hidden __ __ __ __ __ __ __ __ __ __ __ __ __ __
 72
    65
 73
     2
 40
9.524999999999999
 49
6.35
 74
     0
 49
-3.175
 74
     0
  0
LTYPE
  5
6F
330
5
100
AcDbSymbolTableRecord
100
AcDbLinetypeTableRecord
  2
CENTER
 70
     0
  3
Center ____ _ ____ _ ____ _ ____ _ ____ _ ____
 72
    65
 73
     4
 40
50.8
 49
31.75
 74
     0
 49
-6.35
 74
     0
 49
6.35
 74
     0
 49
-6.35
 74
     0
  0
LTYPE
  5
70
330
5
100
AcDbSymbolTableRecord
100
AcDbLinetypeTableRecord
  2
PHANTOM
 70
     0
  3
Phantom ______  __  __  ______  __  __  ______ 
 72
    65
 73
     6
 40
63.50000000000001
 49
31.75
 74
     0
 49
-6.35
 74
     0
 49
6.35
 74
     0
 49
-6.35
 74
     0
 49
6.35
 74
     0
 49
-6.35
 74
     0
  0
LTYPE
  5
71
330
5
100
AcDbSymbolTableRecord
100
AcDbLinetypeTableRecord
  2
ACAD_ISO06W100
 70
     0
  3
ISO long-dash triple-dot ____ ... ____ ... ____
 72
    65
 73
     8
 40
36.0
 49
24.0
 74
     0
 49
-3.0
 74
     0
 49
0.0
 74
     0
 49
-3.0
 74
     0
 49
0.0
 74
     0
 49
-3.0
 74
     0
 49
0.0
 74
     0
 49
-3.0
 74
     0
  0
LTYPE
  5
72
330
5
100
AcDbSymbolTableRecord
100
AcDbLinetypeTableRecord
  2
ACAD_ISO15W100
 70
     0
  3
ISO double-dash triple-dot __ __ . . . __ __ . .
 72
    65
 73
    10
 40
39.0
 49
12.0
 74
     0
 49
-3.0
 74
     0
 49
12.0
 74
     0
 49
-3.0
 74
     0
 49
0.0
 74
     0
 49
-3.0
 74
     0
 49
0.0
 74
     0
 49
-3.0
 74
     0
 49
0.0
 74
     0
 49
-3.0
 74
     0
  0
ENDTAB
  0
TABLE
  2
LAYER
  5
2
330
0
100
AcDbSymbolTable
 70
     5
  0
LAYER
  5
10
330
2
100
AcDbSymbolTableRecord
100
AcDbLayerTableRecord
  2
0
 70
     0
 62
     7
  6
CONTINUOUS
  0
LAYER
  5
75
330
2
100
AcDbSymbolTableRecord
100
AcDbLayerTableRecord
  2
LAY-10
 70
     0
 62
     7
  6
CONTINUOUS
  0
LAYER
  5
76
330
2
100
AcDbSymbolTableRecord
100
AcDbLayerTableRecord
  2
LAY-20
 70
     0
 62
     7
  6
CONTINUOUS
  0
LAYER
  5
77
330
2
100
AcDbSymbolTableRecord
100
AcDbLayerTableRecord
  2
LAY-255
 70
     0
 62
     7
  6
CONTINUOUS
  0
LAYER
  5
249
330
2
100
AcDbSymbolTableRecord
100
AcDbLayerTableRecord
  2
DEFPOINTS
 70
     0
 62
     7
  6
CONTINUOUS
  0
ENDTAB
  0
TABLE
  2
STYLE
  5
3
330
0
100
AcDbSymbolTable
 70
     4
  0
STYLE
  5
11
330
3
100
AcDbSymbolTableRecord
100
AcDbTextStyleTableRecord
  2
STANDARD
 70
     0
 40
0.0
 41
1.0
 50
0.0
 71
     0
 42
2.5
  3
simplex
  4
bigfont
  0
STYLE
  5
73
330
3
100
AcDbSymbolTableRecord
100
AcDbTextStyleTableRecord
  2
EXCADSTD
 70
     0
 40
0.0
 41
1.0
 50
0.0
 71
     0
 42
2.5
  3
simplex
  4
bigfont
  0
STYLE
  5
74
330
3
100
AcDbSymbolTableRecord
100
AcDbTextStyleTableRecord
  2
EXCADVERT
 70
     4
 40
0.0
 41
1.0
 50
0.0
 71
     0
 42
2.5
  3
simplex
  4
bigfont
  0
STYLE
  5
247
330
3
100
AcDbSymbolTableRecord
100
AcDbTextStyleTableRecord
  2
EXCADDIM1
 70
     0
 40
0.0
 41
0.84
 50
0.0
 71
     0
 42
2.5
  3
simplex
  4
bigfont
  0
ENDTAB
  0
TABLE
  2
VIEW
  5
6
330
0
100
AcDbSymbolTable
 70
     0
  0
ENDTAB
  0
TABLE
  2
UCS
  5
7
330
0
100
AcDbSymbolTable
 70
     0
  0
ENDTAB
  0
TABLE
  2
APPID
  5
9
330
0
100
AcDbSymbolTable
 70
     2
  0
APPID
  5
12
330
9
100
AcDbSymbolTableRecord
100
AcDbRegAppTableRecord
  2
ACAD
 70
     0
  0
APPID
  5
41B
330
9
100
AcDbSymbolTableRecord
100
AcDbRegAppTableRecord
  2
ACAD_MLEADERVER
 70
     0
  0
ENDTAB
  0
TABLE
  2
DIMSTYLE
  5
A
330
0
100
AcDbSymbolTable
 70
     1
  0
DIMSTYLE
105
27
102
{ACAD_REACTORS
330
248
330
256
330
263
330
270
330
27D
330
394
330
3A1
330
3B0
102
}
330
A
100
AcDbSymbolTableRecord
100
AcDbDimStyleTableRecord
  2
ISO-25
 70
     0
  3

  4

  5

  6

  7

 40
1.0
 41
2.5
 42
0.625
 43
3.75
 44
1.25
 45
0.0
 46
0.0
 47
0.0
 48
0.0
140
2.5
141
2.5
142
0.0
143
0.03937007874016
144
1.0
145
0.0
146
1.0
147
0.625
 71
     0
 72
     0
 73
     0
 74
     0
 75
     0
 76
     0
 77
     1
 78
     8
170
     0
171
     3
172
     1
173
     0
174
     0
175
     0
176
     0
177
     0
178
     0
270
     2
271
     2
272
     2
273
     2
274
     3
340
11
275
     0
280
     0
281
     0
282
     0
283
     0
284
     8
285
     0
286
     0
287
     5
288
     0
  0
ENDTAB
  0
TABLE
  2
BLOCK_RECORD
  5
1
330
0
100
AcDbSymbolTable
 70
    22
  0
BLOCK_RECORD
  5
1F
330
1
100
AcDbSymbolTableRecord
100
AcDbBlockTableRecord
  2
*MODEL_SPACE
  0
BLOCK_RECORD
  5
1B
330
1
100
AcDbSymbolTableRecord
100
AcDbBlockTableRecord
  2
*PAPER_SPACE
  0
BLOCK_RECORD
  5
78
330
1
100
AcDbSymbolTableRecord
100
AcDbBlockTableRecord
  2
EX_NORM
  0
BLOCK_RECORD
  5
7B
330
1
100
AcDbSymbolTableRecord
100
AcDbBlockTableRecord
  2
EX_BNORM
  0
BLOCK_RECORD
  5
7E
330
1
100
AcDbSymbolTableRecord
100
AcDbBlockTableRecord
  2
EX_BCIR
  0
BLOCK_RECORD
  5
81
330
1
100
AcDbSymbolTableRecord
100
AcDbBlockTableRecord
  2
EX_RCIVIL
  0
BLOCK_RECORD
  5
84
330
1
100
AcDbSymbolTableRecord
100
AcDbBlockTableRecord
  2
EX_SLANT
  0
BLOCK_RECORD
  5
87
330
1
100
AcDbSymbolTableRecord
100
AcDbBlockTableRecord
  2
EX_NONE
  0
BLOCK_RECORD
  5
8A
330
1
100
AcDbSymbolTableRecord
100
AcDbBlockTableRecord
  2
EX_CIVIL
  0
BLOCK_RECORD
  5
8D
330
1
100
AcDbSymbolTableRecord
100
AcDbBlockTableRecord
  2
EX_WCIR
  0
BLOCK_RECORD
  5
90
330
1
100
AcDbSymbolTableRecord
100
AcDbBlockTableRecord
  2
EX_WCIR2
  0
BLOCK_RECORD
  5
93
330
1
100
AcDbSymbolTableRecord
100
AcDbBlockTableRecord
  2
EX_WNORM
  0
BLOCK_RECORD
  5
96
330
1
100
AcDbSymbolTableRecord
100
AcDbBlockTableRecord
  2
EX_NNORM
  0
BLOCK_RECORD
  5
99
330
1
100
AcDbSymbolTableRecord
100
AcDbBlockTableRecord
  2
EX_BBOX
  0
BLOCK_RECORD
  5
9C
330
1
100
AcDbSymbolTableRecord
100
AcDbBlockTableRecord
  2
EX_WBOX
  0
BLOCK_RECORD
  5
9F
330
1
100
AcDbSymbolTableRecord
100
AcDbBlockTableRecord
  2
EX_INTEGRAL
  0
BLOCK_RECORD
  5
24A
330
1
100
AcDbSymbolTableRecord
100
AcDbBlockTableRecord
  2
*D15
  0
BLOCK_RECORD
  5
257
330
1
100
AcDbSymbolTableRecord
100
AcDbBlockTableRecord
  2
*D16
  0
BLOCK_RECORD
  5
264
330
1
100
AcDbSymbolTableRecord
100
AcDbBlockTableRecord
  2
*D17
  0
BLOCK_RECORD
  5
271
330
1
100
AcDbSymbolTableRecord
100
AcDbBlockTableRecord
  2
*D18
  0
BLOCK_RECORD
  5
27E
330
1
100
AcDbSymbolTableRecord
100
AcDbBlockTableRecord
  2
*D19
  0
BLOCK_RECORD
  5
395
330
1
100
AcDbSymbolTableRecord
100
AcDbBlockTableRecord
  2
*D20
  0
BLOCK_RECORD
  5
3A2
330
1
100
AcDbSymbolTableRecord
100
AcDbBlockTableRecord
  2
*D21
  0
BLOCK_RECORD
  5
3B1
330
1
100
AcDbSymbolTableRecord
100
AcDbBlockTableRecord
  2
*D22
  0
ENDTAB
  0
ENDSEC
  0
SECTION
  2
BLOCKS
  0
BLOCK
  5
20
330
1F
100
AcDbEntity
  8
0
100
AcDbBlockBegin
  2
*MODEL_SPACE
 70
     0
 10
0.0
 20
0.0
 30
0.0
  3
*MODEL_SPACE
  1

  0
ENDBLK
  5
21
330
1F
100
AcDbEntity
  8
0
100
AcDbBlockEnd
  0
BLOCK
  5
1C
330
1B
100
AcDbEntity
 67
     1
  8
0
100
AcDbBlockBegin
  2
*PAPER_SPACE
 70
     0
 10
0.0
 20
0.0
 30
0.0
  3
*PAPER_SPACE
  1

  0
ENDBLK
  5
1D
330
1B
100
AcDbEntity
 67
     1
  8
0
100
AcDbBlockEnd
  0
BLOCK
  5
79
330
78
100
AcDbEntity
  8
0
100
AcDbBlockBegin
  2
EX_NORM
 70
     0
 10
0.0
 20
0.0
 30
0.0
  3
EX_NORM
  1

  0
LINE
  5
A2
330
78
100
AcDbEntity
  8
0
  6
CONTINUOUS
 62
     0
100
AcDbLine
 10
0.0
 20
0.0
 30
0.0
 11
-1.0
 21
0.0
 31
0.0
  0
LINE
  5
A3
330
78
100
AcDbEntity
  8
0
  6
CONTINUOUS
 62
     0
100
AcDbLine
 10
0.0
 20
0.0
 30
0.0
 11
-1.0
 21
0.166666667
 31
0.0
  0
LINE
  5
A4
330
78
100
AcDbEntity
  8
0
  6
CONTINUOUS
 62
     0
100
AcDbLine
 10
0.0
 20
0.0
 30
0.0
 11
-1.0
 21
-0.166666667
 31
0.0
  0
ENDBLK
  5
7A
330
78
100
AcDbEntity
  8
0
100
AcDbBlockEnd
  0
BLOCK
  5
7C
330
7B
100
AcDbEntity
  8
0
100
AcDbBlockBegin
  2
EX_BNORM
 70
     0
 10
0.0
 20
0.0
 30
0.0
  3
EX_BNORM
  1

  0
LINE
  5
A5
330
7B
100
AcDbEntity
  8
0
  6
CONTINUOUS
 62
     0
100
AcDbLine
 10
0.0
 20
0.0
 30
0.0
 11
-1.0
 21
0.0
 31
0.0
  0
LINE
  5
A6
330
7B
100
AcDbEntity
  8
0
  6
CONTINUOUS
 62
     0
100
AcDbLine
 10
0.0
 20
0.0
 30
0.0
 11
-1.0
 21
0.166666667
 31
0.0
  0
LINE
  5
A7
330
7B
100
AcDbEntity
  8
0
  6
CONTINUOUS
 62
     0
100
AcDbLine
 10
0.0
 20
0.0
 30
0.0
 11
-1.0
 21
-0.166666667
 31
0.0
  0
LINE
  5
A8
330
7B
100
AcDbEntity
  8
0
  6
CONTINUOUS
 62
     0
100
AcDbLine
 10
0.0
 20
0.0
 30
0.0
 11
-1.0
 21
0.083333333
 31
0.0
  0
LINE
  5
A9
330
7B
100
AcDbEntity
  8
0
  6
CONTINUOUS
 62
     0
100
AcDbLine
 10
0.0
 20
0.0
 30
0.0
 11
-1.0
 21
-0.083333333
 31
0.0
  0
LINE
  5
AA
330
7B
100
AcDbEntity
  8
0
  6
CONTINUOUS
 62
     0
100
AcDbLine
 10
-1.0
 20
0.166666667
 30
0.0
 11
-1.0
 21
-0.166666667
 31
0.0
  0
ENDBLK
  5
7D
330
7B
100
AcDbEntity
  8
0
100
AcDbBlockEnd
  0
BLOCK
  5
7F
330
7E
100
AcDbEntity
  8
0
100
AcDbBlockBegin
  2
EX_BCIR
 70
     0
 10
0.0
 20
0.0
 30
0.0
  3
EX_BCIR
  1

  0
LINE
  5
AB
330
7E
100
AcDbEntity
  8
0
  6
CONTINUOUS
 62
     0
100
AcDbLine
 10
0.0
 20
0.0
 30
0.0
 11
-1.0
 21
0.0
 31
0.0
  0
CIRCLE
  5
AC
330
7E
100
AcDbEntity
  8
0
  6
CONTINUOUS
 62
     0
100
AcDbCircle
 10
0.0
 20
0.0
 30
0.0
 40
0.5
  0
CIRCLE
  5
AD
330
7E
100
AcDbEntity
  8
0
  6
CONTINUOUS
 62
     0
100
AcDbCircle
 10
0.0
 20
0.0
 30
0.0
 40
0.25
  0
ENDBLK
  5
80
330
7E
100
AcDbEntity
  8
0
100
AcDbBlockEnd
  0
BLOCK
  5
82
330
81
100
AcDbEntity
  8
0
100
AcDbBlockBegin
  2
EX_RCIVIL
 70
     0
 10
0.0
 20
0.0
 30
0.0
  3
EX_RCIVIL
  1

  0
LINE
  5
AE
330
81
100
AcDbEntity
  8
0
  6
CONTINUOUS
 62
     0
100
AcDbLine
 10
0.0
 20
0.0
 30
0.0
 11
-1.0
 21
0.0
 31
0.0
  0
LINE
  5
AF
330
81
100
AcDbEntity
  8
0
  6
CONTINUOUS
 62
     0
100
AcDbLine
 10
-1.0
 20
-0.25
 30
0.0
 11
0.0
 21
-0.25
 31
0.0
  0
LINE
  5
B0
330
81
100
AcDbEntity
  8
0
  6
CONTINUOUS
 62
     0
100
AcDbLine
 10
-1.0
 20
-0.125
 30
0.0
 11
0.0
 21
-0.125
 31
0.0
  0
ENDBLK
  5
83
330
81
100
AcDbEntity
  8
0
100
AcDbBlockEnd
  0
BLOCK
  5
85
330
84
100
AcDbEntity
  8
0
100
AcDbBlockBegin
  2
EX_SLANT
 70
     0
 10
0.0
 20
0.0
 30
0.0
  3
EX_SLANT
  1

  0
LINE
  5
B1
330
84
100
AcDbEntity
  8
0
  6
CONTINUOUS
 62
     0
100
AcDbLine
 10
0.0
 20
0.0
 30
0.0
 11
-1.0
 21
0.0
 31
0.0
  0
LINE
  5
B2
330
84
100
AcDbEntity
  8
0
  6
CONTINUOUS
 62
     0
100
AcDbLine
 10
0.707106781
 20
0.707106781
 30
0.0
 11
-0.707106781
 21
-0.707106781
 31
0.0
  0
ENDBLK
  5
86
330
84
100
AcDbEntity
  8
0
100
AcDbBlockEnd
  0
BLOCK
  5
88
330
87
100
AcDbEntity
  8
0
100
AcDbBlockBegin
  2
EX_NONE
 70
     0
 10
0.0
 20
0.0
 30
0.0
  3
EX_NONE
  1

  0
LINE
  5
B3
330
87
100
AcDbEntity
  8
0
  6
CONTINUOUS
 62
     0
100
AcDbLine
 10
0.0
 20
0.0
 30
0.0
 11
-1.0
 21
0.0
 31
0.0
  0
ENDBLK
  5
89
330
87
100
AcDbEntity
  8
0
100
AcDbBlockEnd
  0
BLOCK
  5
8B
330
8A
100
AcDbEntity
  8
0
100
AcDbBlockBegin
  2
EX_CIVIL
 70
     0
 10
0.0
 20
0.0
 30
0.0
  3
EX_CIVIL
  1

  0
LINE
  5
B4
330
8A
100
AcDbEntity
  8
0
  6
CONTINUOUS
 62
     0
100
AcDbLine
 10
0.0
 20
0.0
 30
0.0
 11
-1.0
 21
0.0
 31
0.0
  0
LINE
  5
B5
330
8A
100
AcDbEntity
  8
0
  6
CONTINUOUS
 62
     0
100
AcDbLine
 10
-1.0
 20
0.25
 30
0.0
 11
0.0
 21
0.25
 31
0.0
  0
LINE
  5
B6
330
8A
100
AcDbEntity
  8
0
  6
CONTINUOUS
 62
     0
100
AcDbLine
 10
-1.0
 20
0.125
 30
0.0
 11
0.0
 21
0.125
 31
0.0
  0
ENDBLK
  5
8C
330
8A
100
AcDbEntity
  8
0
100
AcDbBlockEnd
  0
BLOCK
  5
8E
330
8D
100
AcDbEntity
  8
0
100
AcDbBlockBegin
  2
EX_WCIR
 70
     0
 10
0.0
 20
0.0
 30
0.0
  3
EX_WCIR
  1

  0
LINE
  5
B7
330
8D
100
AcDbEntity
  8
0
  6
CONTINUOUS
 62
     0
100
AcDbLine
 10
0.0
 20
0.0
 30
0.0
 11
-1.0
 21
0.0
 31
0.0
  0
CIRCLE
  5
B8
330
8D
100
AcDbEntity
  8
0
  6
CONTINUOUS
 62
     0
100
AcDbCircle
 10
0.0
 20
0.0
 30
0.0
 40
0.5
  0
ENDBLK
  5
8F
330
8D
100
AcDbEntity
  8
0
100
AcDbBlockEnd
  0
BLOCK
  5
91
330
90
100
AcDbEntity
  8
0
100
AcDbBlockBegin
  2
EX_WCIR2
 70
     0
 10
0.0
 20
0.0
 30
0.0
  3
EX_WCIR2
  1

  0
LINE
  5
B9
330
90
100
AcDbEntity
  8
0
  6
CONTINUOUS
 62
     0
100
AcDbLine
 10
-0.5
 20
0.0
 30
0.0
 11
-1.0
 21
0.0
 31
0.0
  0
CIRCLE
  5
BA
330
90
100
AcDbEntity
  8
0
  6
CONTINUOUS
 62
     0
100
AcDbCircle
 10
0.0
 20
0.0
 30
0.0
 40
0.5
  0
ENDBLK
  5
92
330
90
100
AcDbEntity
  8
0
100
AcDbBlockEnd
  0
BLOCK
  5
94
330
93
100
AcDbEntity
  8
0
100
AcDbBlockBegin
  2
EX_WNORM
 70
     0
 10
0.0
 20
0.0
 30
0.0
  3
EX_WNORM
  1

  0
LINE
  5
BB
330
93
100
AcDbEntity
  8
0
  6
CONTINUOUS
 62
     0
100
AcDbLine
 10
-1.0
 20
0.0
 30
0.0
 11
-1.0
 21
0.0
 31
0.0
  0
LINE
  5
BC
330
93
100
AcDbEntity
  8
0
  6
CONTINUOUS
 62
     0
100
AcDbLine
 10
0.0
 20
0.0
 30
0.0
 11
-1.0
 21
0.166666667
 31
0.0
  0
LINE
  5
BD
330
93
100
AcDbEntity
  8
0
  6
CONTINUOUS
 62
     0
100
AcDbLine
 10
0.0
 20
0.0
 30
0.0
 11
-1.0
 21
-0.166666667
 31
0.0
  0
LINE
  5
BE
330
93
100
AcDbEntity
  8
0
  6
CONTINUOUS
 62
     0
100
AcDbLine
 10
-1.0
 20
0.166666667
 30
0.0
 11
-1.0
 21
-0.166666667
 31
0.0
  0
ENDBLK
  5
95
330
93
100
AcDbEntity
  8
0
100
AcDbBlockEnd
  0
BLOCK
  5
97
330
96
100
AcDbEntity
  8
0
100
AcDbBlockBegin
  2
EX_NNORM
 70
     0
 10
0.0
 20
0.0
 30
0.0
  3
EX_NNORM
  1

  0
LINE
  5
BF
330
96
100
AcDbEntity
  8
0
  6
CONTINUOUS
 62
     0
100
AcDbLine
 10
0.0
 20
0.0
 30
0.0
 11
-1.0
 21
0.0
 31
0.0
  0
LINE
  5
C0
330
96
100
AcDbEntity
  8
0
  6
CONTINUOUS
 62
     0
100
AcDbLine
 10
0.0
 20
0.0
 30
0.0
 11
-1.0
 21
0.166666667
 31
0.0
  0
LINE
  5
C1
330
96
100
AcDbEntity
  8
0
  6
CONTINUOUS
 62
     0
100
AcDbLine
 10
0.0
 20
0.0
 30
0.0
 11
-1.0
 21
-0.166666667
 31
0.0
  0
LINE
  5
C2
330
96
100
AcDbEntity
  8
0
  6
CONTINUOUS
 62
     0
100
AcDbLine
 10
-1.0
 20
0.166666667
 30
0.0
 11
-1.0
 21
-0.166666667
 31
0.0
  0
ENDBLK
  5
98
330
96
100
AcDbEntity
  8
0
100
AcDbBlockEnd
  0
BLOCK
  5
9A
330
99
100
AcDbEntity
  8
0
100
AcDbBlockBegin
  2
EX_BBOX
 70
     0
 10
0.0
 20
0.0
 30
0.0
  3
EX_BBOX
  1

  0
LINE
  5
C3
330
99
100
AcDbEntity
  8
0
  6
CONTINUOUS
 62
     0
100
AcDbLine
 10
0.0
 20
0.0
 30
0.0
 11
-1.0
 21
0.0
 31
0.0
  0
LINE
  5
C4
330
99
100
AcDbEntity
  8
0
  6
CONTINUOUS
 62
     0
100
AcDbLine
 10
-0.5
 20
0.5
 30
0.0
 11
0.5
 21
0.5
 31
0.0
  0
LINE
  5
C5
330
99
100
AcDbEntity
  8
0
  6
CONTINUOUS
 62
     0
100
AcDbLine
 10
0.5
 20
0.5
 30
0.0
 11
0.5
 21
-0.5
 31
0.0
  0
LINE
  5
C6
330
99
100
AcDbEntity
  8
0
  6
CONTINUOUS
 62
     0
100
AcDbLine
 10
0.5
 20
-0.5
 30
0.0
 11
-0.5
 21
-0.5
 31
0.0
  0
LINE
  5
C7
330
99
100
AcDbEntity
  8
0
  6
CONTINUOUS
 62
     0
100
AcDbLine
 10
-0.5
 20
-0.5
 30
0.0
 11
-0.5
 21
0.5
 31
0.0
  0
LINE
  5
C8
330
99
100
AcDbEntity
  8
0
  6
CONTINUOUS
 62
     0
100
AcDbLine
 10
-0.25
 20
0.25
 30
0.0
 11
0.25
 21
0.25
 31
0.0
  0
LINE
  5
C9
330
99
100
AcDbEntity
  8
0
  6
CONTINUOUS
 62
     0
100
AcDbLine
 10
0.25
 20
0.25
 30
0.0
 11
0.25
 21
-0.25
 31
0.0
  0
LINE
  5
CA
330
99
100
AcDbEntity
  8
0
  6
CONTINUOUS
 62
     0
100
AcDbLine
 10
0.25
 20
-0.25
 30
0.0
 11
-0.25
 21
-0.25
 31
0.0
  0
LINE
  5
CB
330
99
100
AcDbEntity
  8
0
  6
CONTINUOUS
 62
     0
100
AcDbLine
 10
-0.25
 20
-0.25
 30
0.0
 11
-0.25
 21
0.25
 31
0.0
  0
ENDBLK
  5
9B
330
99
100
AcDbEntity
  8
0
100
AcDbBlockEnd
  0
BLOCK
  5
9D
330
9C
100
AcDbEntity
  8
0
100
AcDbBlockBegin
  2
EX_WBOX
 70
     0
 10
0.0
 20
0.0
 30
0.0
  3
EX_WBOX
  1

  0
LINE
  5
CC
330
9C
100
AcDbEntity
  8
0
  6
CONTINUOUS
 62
     0
100
AcDbLine
 10
-0.5
 20
0.0
 30
0.0
 11
-1.0
 21
0.0
 31
0.0
  0
LINE
  5
CD
330
9C
100
AcDbEntity
  8
0
  6
CONTINUOUS
 62
     0
100
AcDbLine
 10
-0.5
 20
0.5
 30
0.0
 11
0.5
 21
0.5
 31
0.0
  0
LINE
  5
CE
330
9C
100
AcDbEntity
  8
0
  6
CONTINUOUS
 62
     0
100
AcDbLine
 10
0.5
 20
0.5
 30
0.0
 11
0.5
 21
-0.5
 31
0.0
  0
LINE
  5
CF
330
9C
100
AcDbEntity
  8
0
  6
CONTINUOUS
 62
     0
100
AcDbLine
 10
0.5
 20
-0.5
 30
0.0
 11
-0.5
 21
-0.5
 31
0.0
  0
LINE
  5
D0
330
9C
100
AcDbEntity
  8
0
  6
CONTINUOUS
 62
     0
100
AcDbLine
 10
-0.5
 20
-0.5
 30
0.0
 11
-0.5
 21
0.5
 31
0.0
  0
ENDBLK
  5
9E
330
9C
100
AcDbEntity
  8
0
100
AcDbBlockEnd
  0
BLOCK
  5
A0
330
9F
100
AcDbEntity
  8
0
100
AcDbBlockBegin
  2
EX_INTEGRAL
 70
     0
 10
0.0
 20
0.0
 30
0.0
  3
EX_INTEGRAL
  1

  0
LINE
  5
D1
330
9F
100
AcDbEntity
  8
0
  6
CONTINUOUS
 62
     0
100
AcDbLine
 10
0.0
 20
0.0
 30
0.0
 11
-1.0
 21
0.0
 31
0.0
  0
ARC
  5
D2
330
9F
100
AcDbEntity
  8
0
  6
CONTINUOUS
 62
     0
100
AcDbCircle
 10
0.542115
 20
0.164992
 30
0.0
 40
0.56667
100
AcDbArc
 50
73.07249033629006
 51
196.9275130221199
  0
ARC
  5
D3
330
9F
100
AcDbEntity
  8
0
  6
CONTINUOUS
 62
     0
100
AcDbCircle
 10
-0.542115
 20
-0.164992
 30
0.0
 40
0.56667
100
AcDbArc
 50
253.0724869220464
 51
16.9275130559125
  0
ENDBLK
  5
A1
330
9F
100
AcDbEntity
  8
0
100
AcDbBlockEnd
  0
BLOCK
  5
24B
330
24A
100
AcDbEntity
  8
0
100
AcDbBlockBegin
  2
*D15
 70
     1
 10
0.0
 20
0.0
 30
0.0
  3
*D15
  1

  0
LINE
  5
24D
330
24A
100
AcDbEntity
  8
LAY-20
  6
CONTINUOUS
 62
     4
100
AcDbLine
 10
597.500000000031
 20
230.5
 30
0.0
 11
597.500000000031
 21
481.5000000000002
 31
0.0
  0
LINE
  5
24E
330
24A
100
AcDbEntity
  8
LAY-20
  6
CONTINUOUS
 62
     4
100
AcDbLine
 10
332.5000000000311
 20
230.5
 30
0.0
 11
332.5000000000311
 21
481.5000000000002
 31
0.0
  0
LINE
  5
24F
330
24A
100
AcDbEntity
  8
LAY-20
  6
CONTINUOUS
 62
     4
100
AcDbLine
 10
590.000000000031
 20
477.0
 30
0.0
 11
340.0000000000311
 21
477.0
 31
0.0
  0
INSERT
  5
250
330
24A
100
AcDbEntity
  8
LAY-20
 62
     4
100
AcDbBlockReference
  2
EX_BNORM
 10
597.500000000031
 20
477.0
 30
0.0
 41
7.5
 42
7.5
 43
7.5
  0
INSERT
  5
251
330
24A
100
AcDbEntity
  8
LAY-20
 62
     4
100
AcDbBlockReference
  2
EX_BNORM
 10
332.5000000000311
 20
477.0
 30
0.0
 41
7.5
 42
7.5
 43
7.5
 50
180.0
  0
MTEXT
  5
252
330
24A
100
AcDbEntity
  8
LAY-20
 62
     7
100
AcDbMText
 10
465.0000000000312
 20
484.4999999999999
 30
0.0
 40
9.3543312
 41
0.0
 71
     5
 72
     1
  1
%%c265
  7
EXCADDIM1
  0
POINT
  5
253
330
24A
100
AcDbEntity
  8
DEFPOINTS
 62
     0
100
AcDbPoint
 10
597.500000000031
 20
226.0
 30
0.0
  0
POINT
  5
254
330
24A
100
AcDbEntity
  8
DEFPOINTS
 62
     0
100
AcDbPoint
 10
332.5000000000311
 20
226.0
 30
0.0
  0
POINT
  5
255
330
24A
100
AcDbEntity
  8
DEFPOINTS
 62
     0
100
AcDbPoint
 10
332.5000000000311
 20
477.0
 30
0.0
  0
ENDBLK
  5
24C
330
24A
100
AcDbEntity
  8
0
100
AcDbBlockEnd
  0
BLOCK
  5
258
330
257
100
AcDbEntity
  8
0
100
AcDbBlockBegin
  2
*D16
 70
     1
 10
0.0
 20
0.0
 30
0.0
  3
*D16
  1

  0
LINE
  5
25A
330
257
100
AcDbEntity
  8
LAY-20
  6
CONTINUOUS
 62
     4
100
AcDbLine
 10
353.500000000051
 20
237.5000000000001
 30
0.0
 11
353.500000000051
 21
460.5
 31
0.0
  0
LINE
  5
25B
330
257
100
AcDbEntity
  8
LAY-20
  6
CONTINUOUS
 62
     4
100
AcDbLine
 10
576.5000000000091
 20
237.5000000000001
 30
0.0
 11
576.5000000000091
 21
460.5
 31
0.0
  0
LINE
  5
25C
330
257
100
AcDbEntity
  8
LAY-20
  6
CONTINUOUS
 62
     4
100
AcDbLine
 10
361.000000000051
 20
456.0
 30
0.0
 11
569.0000000000091
 21
456.0
 31
0.0
  0
INSERT
  5
25D
330
257
100
AcDbEntity
  8
LAY-20
 62
     4
100
AcDbBlockReference
  2
EX_BNORM
 10
353.500000000051
 20
456.0
 30
0.0
 41
7.5
 42
7.5
 43
7.5
 50
180.0
  0
INSERT
  5
25E
330
257
100
AcDbEntity
  8
LAY-20
 62
     4
100
AcDbBlockReference
  2
EX_BNORM
 10
576.5000000000091
 20
456.0
 30
0.0
 41
7.5
 42
7.5
 43
7.5
  0
MTEXT
  5
25F
330
257
100
AcDbEntity
  8
LAY-20
 62
     7
100
AcDbMText
 10
465.00000000003
 20
463.5
 30
0.0
 40
9.3543312
 41
0.0
 71
     5
 72
     1
  1
%%c223
  7
EXCADDIM1
  0
POINT
  5
260
330
257
100
AcDbEntity
  8
DEFPOINTS
 62
     0
100
AcDbPoint
 10
353.500000000051
 20
233.0000000000001
 30
0.0
  0
POINT
  5
261
330
257
100
AcDbEntity
  8
DEFPOINTS
 62
     0
100
AcDbPoint
 10
576.5000000000091
 20
233.0000000000001
 30
0.0
  0
POINT
  5
262
330
257
100
AcDbEntity
  8
DEFPOINTS
 62
     0
100
AcDbPoint
 10
576.5000000000091
 20
456.0
 30
0.0
  0
ENDBLK
  5
259
330
257
100
AcDbEntity
  8
0
100
AcDbBlockEnd
  0
BLOCK
  5
265
330
264
100
AcDbEntity
  8
0
100
AcDbBlockBegin
  2
*D17
 70
     1
 10
0.0
 20
0.0
 30
0.0
  3
*D17
  1

  0
LINE
  5
267
330
264
100
AcDbEntity
  8
LAY-20
  6
CONTINUOUS
 62
     4
100
AcDbLine
 10
395.5000000000311
 20
158.5
 30
0.0
 11
395.5000000000311
 21
118.5
 31
0.0
  0
LINE
  5
268
330
264
100
AcDbEntity
  8
LAY-20
  6
CONTINUOUS
 62
     4
100
AcDbLine
 10
534.500000000031
 20
158.5
 30
0.0
 11
534.500000000031
 21
118.5
 31
0.0
  0
LINE
  5
269
330
264
100
AcDbEntity
  8
LAY-20
  6
CONTINUOUS
 62
     4
100
AcDbLine
 10
403.0000000000311
 20
123.0
 30
0.0
 11
527.000000000031
 21
123.0
 31
0.0
  0
INSERT
  5
26A
330
264
100
AcDbEntity
  8
LAY-20
 62
     4
100
AcDbBlockReference
  2
EX_BNORM
 10
395.5000000000311
 20
123.0
 30
0.0
 41
7.5
 42
7.5
 43
7.5
 50
180.0
  0
INSERT
  5
26B
330
264
100
AcDbEntity
  8
LAY-20
 62
     4
100
AcDbBlockReference
  2
EX_BNORM
 10
534.500000000031
 20
123.0
 30
0.0
 41
7.5
 42
7.5
 43
7.5
  0
MTEXT
  5
26C
330
264
100
AcDbEntity
  8
LAY-20
 62
     7
100
AcDbMText
 10
465.000000000031
 20
130.5
 30
0.0
 40
9.3543312
 41
0.0
 71
     5
 72
     1
  1
%%c139
  7
EXCADDIM1
  0
POINT
  5
26D
330
264
100
AcDbEntity
  8
DEFPOINTS
 62
     0
100
AcDbPoint
 10
395.5000000000311
 20
163.0
 30
0.0
  0
POINT
  5
26E
330
264
100
AcDbEntity
  8
DEFPOINTS
 62
     0
100
AcDbPoint
 10
534.500000000031
 20
163.0
 30
0.0
  0
POINT
  5
26F
330
264
100
AcDbEntity
  8
DEFPOINTS
 62
     0
100
AcDbPoint
 10
534.500000000031
 20
123.0
 30
0.0
  0
ENDBLK
  5
266
330
264
100
AcDbEntity
  8
0
100
AcDbBlockEnd
  0
BLOCK
  5
272
330
271
100
AcDbEntity
  8
0
100
AcDbBlockBegin
  2
*D18
 70
     1
 10
0.0
 20
0.0
 30
0.0
  3
*D18
  1

  0
LINE
  5
274
330
271
100
AcDbEntity
  8
LAY-20
  6
CONTINUOUS
 62
     4
100
AcDbLine
 10
536.000000000031
 20
198.5
 30
0.0
 11
536.000000000031
 21
97.5
 31
0.0
  0
LINE
  5
275
330
271
100
AcDbEntity
  8
LAY-20
  6
CONTINUOUS
 62
     4
100
AcDbLine
 10
394.0000000000311
 20
198.5
 30
0.0
 11
394.0000000000311
 21
97.5
 31
0.0
  0
LINE
  5
276
330
271
100
AcDbEntity
  8
LAY-20
  6
CONTINUOUS
 62
     4
100
AcDbLine
 10
528.500000000031
 20
102.0
 30
0.0
 11
401.5000000000311
 21
102.0
 31
0.0
  0
INSERT
  5
277
330
271
100
AcDbEntity
  8
LAY-20
 62
     4
100
AcDbBlockReference
  2
EX_BNORM
 10
536.000000000031
 20
102.0
 30
0.0
 41
7.5
 42
7.5
 43
7.5
  0
INSERT
  5
278
330
271
100
AcDbEntity
  8
LAY-20
 62
     4
100
AcDbBlockReference
  2
EX_BNORM
 10
394.0000000000311
 20
102.0
 30
0.0
 41
7.5
 42
7.5
 43
7.5
 50
180.0
  0
MTEXT
  5
279
330
271
100
AcDbEntity
  8
LAY-20
 62
     7
100
AcDbMText
 10
465.000000000031
 20
109.5
 30
0.0
 40
9.3543312
 41
0.0
 71
     5
 72
     1
  1
%%c142
  7
EXCADDIM1
  0
POINT
  5
27A
330
271
100
AcDbEntity
  8
DEFPOINTS
 62
     0
100
AcDbPoint
 10
536.000000000031
 20
203.0
 30
0.0
  0
POINT
  5
27B
330
271
100
AcDbEntity
  8
DEFPOINTS
 62
     0
100
AcDbPoint
 10
394.0000000000311
 20
203.0
 30
0.0
  0
POINT
  5
27C
330
271
100
AcDbEntity
  8
DEFPOINTS
 62
     0
100
AcDbPoint
 10
394.0000000000311
 20
102.0
 30
0.0
  0
ENDBLK
  5
273
330
271
100
AcDbEntity
  8
0
100
AcDbBlockEnd
  0
BLOCK
  5
27F
330
27E
100
AcDbEntity
  8
0
100
AcDbBlockBegin
  2
*D19
 70
     1
 10
0.0
 20
0.0
 30
0.0
  3
*D19
  1

  0
LINE
  5
281
330
27E
100
AcDbEntity
  8
LAY-20
  6
CONTINUOUS
 62
     4
100
AcDbLine
 10
351.9984924984311
 20
208.0
 30
0.0
 11
298.000000000041
 21
208.0
 31
0.0
  0
LINE
  5
282
330
27E
100
AcDbEntity
  8
LAY-20
  6
CONTINUOUS
 62
     4
100
AcDbLine
 10
329.0000000000309
 20
233.0000000000001
 30
0.0
 11
298.000000000041
 21
233.0000000000001
 31
0.0
  0
LINE
  5
283
330
27E
100
AcDbEntity
  8
LAY-20
  6
CONTINUOUS
 62
     4
100
AcDbLine
 10
302.500000000041
 20
215.5
 30
0.0
 11
302.500000000041
 21
225.5000000000001
 31
0.0
  0
INSERT
  5
284
330
27E
100
AcDbEntity
  8
LAY-20
 62
     4
100
AcDbBlockReference
  2
EX_BNORM
 10
302.500000000041
 20
208.0
 30
0.0
 41
7.5
 42
7.5
 43
7.5
 50
270.0
  0
INSERT
  5
285
330
27E
100
AcDbEntity
  8
LAY-20
 62
     4
100
AcDbBlockReference
  2
EX_BNORM
 10
302.500000000041
 20
233.0000000000001
 30
0.0
 41
7.5
 42
7.5
 43
7.5
 50
90.0
  0
MTEXT
  5
286
330
27E
100
AcDbEntity
  8
LAY-20
 62
     7
100
AcDbMText
 10
295.000000000041
 20
220.5000000000001
 30
0.0
 40
9.3543312
 41
0.0
 71
     5
 72
     1
  1
25
  7
EXCADDIM1
 11
0.0
 21
1.0
 31
0.0
  0
POINT
  5
287
330
27E
100
AcDbEntity
  8
DEFPOINTS
 62
     0
100
AcDbPoint
 10
356.4984924984311
 20
208.0
 30
0.0
  0
POINT
  5
288
330
27E
100
AcDbEntity
  8
DEFPOINTS
 62
     0
100
AcDbPoint
 10
333.5000000000309
 20
233.0000000000001
 30
0.0
  0
POINT
  5
289
330
27E
100
AcDbEntity
  8
DEFPOINTS
 62
     0
100
AcDbPoint
 10
302.500000000041
 20
233.0000000000001
 30
0.0
  0
ENDBLK
  5
280
330
27E
100
AcDbEntity
  8
0
100
AcDbBlockEnd
  0
BLOCK
  5
396
330
395
100
AcDbEntity
  8
0
100
AcDbBlockBegin
  2
*D20
 70
     1
 10
0.0
 20
0.0
 30
0.0
  3
*D20
  1

  0
LINE
  5
398
330
395
100
AcDbEntity
  8
LAY-20
  6
CONTINUOUS
 62
     4
100
AcDbLine
 10
577.50000000003
 20
153.0
 30
0.0
 11
638.00000000003
 21
153.0
 31
0.0
  0
LINE
  5
399
330
395
100
AcDbEntity
  8
LAY-20
  6
CONTINUOUS
 62
     4
100
AcDbLine
 10
601.00000000003
 20
233.0
 30
0.0
 11
638.00000000003
 21
233.0
 31
0.0
  0
LINE
  5
39A
330
395
100
AcDbEntity
  8
LAY-20
  6
CONTINUOUS
 62
     4
100
AcDbLine
 10
633.50000000003
 20
160.5
 30
0.0
 11
633.50000000003
 21
225.5
 31
0.0
  0
INSERT
  5
39B
330
395
100
AcDbEntity
  8
LAY-20
 62
     4
100
AcDbBlockReference
  2
EX_BNORM
 10
633.50000000003
 20
153.0
 30
0.0
 41
7.5
 42
7.5
 43
7.5
 50
270.0
  0
INSERT
  5
39C
330
395
100
AcDbEntity
  8
LAY-20
 62
     4
100
AcDbBlockReference
  2
EX_BNORM
 10
633.50000000003
 20
233.0
 30
0.0
 41
7.5
 42
7.5
 43
7.5
 50
90.0
  0
MTEXT
  5
39D
330
395
100
AcDbEntity
  8
LAY-20
 62
     7
100
AcDbMText
 10
626.00000000003
 20
193.0
 30
0.0
 40
9.3543312
 41
0.0
 71
     5
 72
     1
  1
80
  7
EXCADDIM1
 11
0.0
 21
1.0
 31
0.0
  0
POINT
  5
39E
330
395
100
AcDbEntity
  8
DEFPOINTS
 62
     0
100
AcDbPoint
 10
573.00000000003
 20
153.0
 30
0.0
  0
POINT
  5
39F
330
395
100
AcDbEntity
  8
DEFPOINTS
 62
     0
100
AcDbPoint
 10
596.50000000003
 20
233.0
 30
0.0
  0
POINT
  5
3A0
330
395
100
AcDbEntity
  8
DEFPOINTS
 62
     0
100
AcDbPoint
 10
633.50000000003
 20
233.0
 30
0.0
  0
ENDBLK
  5
397
330
395
100
AcDbEntity
  8
0
100
AcDbBlockEnd
  0
BLOCK
  5
3A3
330
3A2
100
AcDbEntity
  8
0
100
AcDbBlockBegin
  2
*D21
 70
     1
 10
0.0
 20
0.0
 30
0.0
  3
*D21
  1

  0
LINE
  5
3A5
330
3A2
100
AcDbEntity
  8
LAY-20
  6
CONTINUOUS
 62
     4
100
AcDbLine
 10
469.50000000003
 20
405.0
 30
0.0
 11
638.00000000003
 21
405.0
 31
0.0
  0
LINE
  5
3A6
330
3A2
100
AcDbEntity
  8
LAY-20
  6
CONTINUOUS
 62
     4
100
AcDbLine
 10
633.50000000003
 20
240.5
 30
0.0
 11
633.50000000003
 21
397.5
 31
0.0
  0
INSERT
  5
3A7
330
3A2
100
AcDbEntity
  8
LAY-20
 62
     4
100
AcDbBlockReference
  2
EX_BNORM
 10
633.50000000003
 20
233.0
 30
0.0
 41
7.5
 42
7.5
 43
7.5
 50
270.0
  0
INSERT
  5
3A8
330
3A2
100
AcDbEntity
  8
LAY-20
 62
     4
100
AcDbBlockReference
  2
EX_BNORM
 10
633.50000000003
 20
405.0
 30
0.0
 41
7.5
 42
7.5
 43
7.5
 50
90.0
  0
MTEXT
  5
3A9
330
3A2
100
AcDbEntity
  8
LAY-20
 62
     7
100
AcDbMText
 10
626.00000000003
 20
319.0
 30
0.0
 40
9.3543312
 41
0.0
 71
     5
 72
     1
  1
172
  7
EXCADDIM1
 11
0.0
 21
1.0
 31
0.0
  0
POINT
  5
3AA
330
3A2
100
AcDbEntity
  8
DEFPOINTS
 62
     0
100
AcDbPoint
 10
633.50000000003
 20
233.0
 30
0.0
  0
POINT
  5
3AB
330
3A2
100
AcDbEntity
  8
DEFPOINTS
 62
     0
100
AcDbPoint
 10
465.00000000003
 20
405.0
 30
0.0
  0
POINT
  5
3AC
330
3A2
100
AcDbEntity
  8
DEFPOINTS
 62
     0
100
AcDbPoint
 10
633.50000000003
 20
405.0
 30
0.0
  0
ENDBLK
  5
3A4
330
3A2
100
AcDbEntity
  8
0
100
AcDbBlockEnd
  0
BLOCK
  5
3B2
330
3B1
100
AcDbEntity
  8
0
100
AcDbBlockBegin
  2
*D22
 70
     1
 10
0.0
 20
0.0
 30
0.0
  3
*D22
  1

  0
LINE
  5
3B4
330
3B1
100
AcDbEntity
  8
LAY-20
  6
CONTINUOUS
 62
     4
100
AcDbLine
 10
573.50000000003
 20
234.5
 30
0.0
 11
573.50000000003
 21
439.5
 31
0.0
  0
LINE
  5
3B5
330
3B1
100
AcDbEntity
  8
LAY-20
  6
CONTINUOUS
 62
     4
100
AcDbLine
 10
356.50000000003
 20
234.5
 30
0.0
 11
356.50000000003
 21
439.5
 31
0.0
  0
LINE
  5
3B6
330
3B1
100
AcDbEntity
  8
LAY-20
  6
CONTINUOUS
 62
     4
100
AcDbLine
 10
566.00000000003
 20
435.0
 30
0.0
 11
364.00000000003
 21
435.0
 31
0.0
  0
INSERT
  5
3B7
330
3B1
100
AcDbEntity
  8
LAY-20
 62
     4
100
AcDbBlockReference
  2
EX_BNORM
 10
573.50000000003
 20
435.0
 30
0.0
 41
7.5
 42
7.5
 43
7.5
  0
INSERT
  5
3B8
330
3B1
100
AcDbEntity
  8
LAY-20
 62
     4
100
AcDbBlockReference
  2
EX_BNORM
 10
356.50000000003
 20
435.0
 30
0.0
 41
7.5
 42
7.5
 43
7.5
 50
180.0
  0
MTEXT
  5
3B9
330
3B1
100
AcDbEntity
  8
LAY-20
 62
     7
100
AcDbMText
 10
465.00000000003
 20
442.5
 30
0.0
 40
9.3543312
 41
0.0
 71
     5
 72
     1
  1
%%c217
  7
EXCADDIM1
  0
POINT
  5
3BA
330
3B1
100
AcDbEntity
  8
DEFPOINTS
 62
     0
100
AcDbPoint
 10
573.50000000003
 20
230.0
 30
0.0
  0
POINT
  5
3BB
330
3B1
100
AcDbEntity
  8
DEFPOINTS
 62
     0
100
AcDbPoint
 10
356.50000000003
 20
230.0
 30
0.0
  0
POINT
  5
3BC
330
3B1
100
AcDbEntity
  8
DEFPOINTS
 62
     0
100
AcDbPoint
 10
356.50000000003
 20
435.0
 30
0.0
  0
ENDBLK
  5
3B3
330
3B1
100
AcDbEntity
  8
0
100
AcDbBlockEnd
  0
ENDSEC
  0
SECTION
  2
ENTITIES
  0
LINE
  5
D4
330
1F
100
AcDbEntity
  8
LAY-10
  6
CONTINUOUS
 62
     7
100
AcDbLine
 10
566.0000000000281
 20
206.7401153701747
 30
0.0
 11
567.259884629847
 21
207.9999999999935
 31
0.0
  0
LINE
  5
D5
330
1F
100
AcDbEntity
  8
LAY-10
  6
CONTINUOUS
 62
     7
100
AcDbLine
 10
566.0000000000255
 20
203.9116882454259
 30
0.0
 11
570.0883117545957
 21
207.9999999999961
 31
0.0
  0
LINE
  5
D6
330
1F
100
AcDbEntity
  8
LAY-10
  6
CONTINUOUS
 62
     7
100
AcDbLine
 10
566.0000000000268
 20
201.083261120681
 30
0.0
 11
572.9167388793445
 21
207.9999999999987
 31
0.0
  0
LINE
  5
D7
330
1F
100
AcDbEntity
  8
LAY-10
  6
CONTINUOUS
 62
     7
100
AcDbLine
 10
566.0000000000282
 20
198.2548339959361
 30
0.0
 11
573.0000000000331
 21
205.2548339959412
 31
0.0
  0
LINE
  5
D8
330
1F
100
AcDbEntity
  8
LAY-10
  6
CONTINUOUS
 62
     7
100
AcDbLine
 10
566.0000000000256
 20
195.4264068711873
 30
0.0
 11
573.0000000000344
 21
202.4264068711962
 31
0.0
  0
LINE
  5
D9
330
1F
100
AcDbEntity
  8
LAY-10
  6
CONTINUOUS
 62
     7
100
AcDbLine
 10
566.0000000000268
 20
192.5979797464424
 30
0.0
 11
573.000000000032
 21
199.5979797464474
 31
0.0
  0
LINE
  5
DA
330
1F
100
AcDbEntity
  8
LAY-10
  6
CONTINUOUS
 62
     7
100
AcDbLine
 10
566.0000000000282
 20
189.7695526216975
 30
0.0
 11
573.0000000000332
 21
196.7695526217025
 31
0.0
  0
LINE
  5
DB
330
1F
100
AcDbEntity
  8
LAY-10
  6
CONTINUOUS
 62
     7
100
AcDbLine
 10
566.0000000000294
 20
186.9411254969526
 30
0.0
 11
573.0000000000344
 21
193.9411254969577
 31
0.0
  0
LINE
  5
DC
330
1F
100
AcDbEntity
  8
LAY-10
  6
CONTINUOUS
 62
     7
100
AcDbLine
 10
566.0000000000268
 20
184.1126983722039
 30
0.0
 11
573.0000000000358
 21
191.1126983722127
 31
0.0
  0
LINE
  5
DD
330
1F
100
AcDbEntity
  8
LAY-10
  6
CONTINUOUS
 62
     7
100
AcDbLine
 10
566.0000000000282
 20
181.2842712474589
 30
0.0
 11
573.0000000000332
 21
188.284271247464
 31
0.0
  0
LINE
  5
DE
330
1F
100
AcDbEntity
  8
LAY-10
  6
CONTINUOUS
 62
     7
100
AcDbLine
 10
566.0000000000296
 20
178.455844122714
 30
0.0
 11
573.0000000000344
 21
185.455844122719
 31
0.0
  0
LINE
  5
DF
330
1F
100
AcDbEntity
  8
LAY-10
  6
CONTINUOUS
 62
     7
100
AcDbLine
 10
566.000000000027
 20
175.6274169979652
 30
0.0
 11
573.0000000000358
 21
182.6274169979741
 31
0.0
  0
LINE
  5
E0
330
1F
100
AcDbEntity
  8
LAY-10
  6
CONTINUOUS
 62
     7
100
AcDbLine
 10
566.0000000000282
 20
172.7989898732203
 30
0.0
 11
573.0000000000293
 21
179.7989898732215
 31
0.0
  0
LINE
  5
E1
330
1F
100
AcDbEntity
  8
LAY-10
  6
CONTINUOUS
 62
     7
100
AcDbLine
 10
566.0000000000257
 20
169.9705627484716
 30
0.0
 11
573.0000000000346
 21
176.9705627484804
 31
0.0
  0
LINE
  5
E2
330
1F
100
AcDbEntity
  8
LAY-10
  6
CONTINUOUS
 62
     7
100
AcDbLine
 10
566.000000000027
 20
167.1421356237266
 30
0.0
 11
573.0000000000358
 21
174.1421356237355
 31
0.0
  0
LINE
  5
E3
330
1F
100
AcDbEntity
  8
LAY-10
  6
CONTINUOUS
 62
     7
100
AcDbLine
 10
566.0000000000282
 20
164.3137084989817
 30
0.0
 11
573.0000000000294
 21
171.3137084989829
 31
0.0
  0
LINE
  5
E4
330
1F
100
AcDbEntity
  8
LAY-10
  6
CONTINUOUS
 62
     7
100
AcDbLine
 10
566.0000000000257
 20
161.4852813742329
 30
0.0
 11
573.0000000000307
 21
168.485281374238
 31
0.0
  0
LINE
  5
E5
330
1F
100
AcDbEntity
  8
LAY-10
  6
CONTINUOUS
 62
     7
100
AcDbLine
 10
566.0000000000231
 20
158.6568542494842
 30
0.0
 11
573.0000000000358
 21
165.6568542494969
 31
0.0
  0
LINE
  5
E6
330
1F
100
AcDbEntity
  8
LAY-10
  6
CONTINUOUS
 62
     7
100
AcDbLine
 10
566.0000000000282
 20
155.8284271247431
 30
0.0
 11
573.0000000000372
 21
162.828427124752
 31
0.0
  0
LINE
  5
E7
330
1F
100
AcDbEntity
  8
LAY-10
  6
CONTINUOUS
 62
     7
100
AcDbLine
 10
566.0000000000257
 20
152.9999999999943
 30
0.0
 11
573.0000000000307
 21
159.9999999999993
 31
0.0
  0
LINE
  5
E8
330
1F
100
AcDbEntity
  8
LAY-10
  6
CONTINUOUS
 62
     7
100
AcDbLine
 10
568.8284271247745
 20
152.9999999999968
 30
0.0
 11
573.0000000000321
 21
157.1715728752545
 31
0.0
  0
LINE
  5
E9
330
1F
100
AcDbEntity
  8
LAY-10
  6
CONTINUOUS
 62
     7
100
AcDbLine
 10
571.6568542495155
 20
152.9999999999917
 30
0.0
 11
573.0000000000372
 21
154.3431457505133
 31
0.0
  0
LINE
  5
EA
330
1F
100
AcDbEntity
  8
LAY-10
  6
CONTINUOUS
 62
     7
100
AcDbLine
 10
357.0000000000336
 20
206.7401153701802
 30
0.0
 11
358.2598846298563
 21
208.0000000000028
 31
0.0
  0
LINE
  5
EB
330
1F
100
AcDbEntity
  8
LAY-10
  6
CONTINUOUS
 62
     7
100
AcDbLine
 10
357.0000000000349
 20
203.9116882454353
 30
0.0
 11
361.0883117546051
 21
208.0000000000055
 31
0.0
  0
LINE
  5
EC
330
1F
100
AcDbEntity
  8
LAY-10
  6
CONTINUOUS
 62
     7
100
AcDbLine
 10
357.0000000000323
 20
201.0832611206866
 30
0.0
 11
363.9167388793461
 21
208.0000000000004
 31
0.0
  0
LINE
  5
ED
330
1F
100
AcDbEntity
  8
LAY-10
  6
CONTINUOUS
 62
     7
100
AcDbLine
 10
357.0000000000335
 20
198.2548339959417
 30
0.0
 11
364.0000000000347
 21
205.2548339959429
 31
0.0
  0
LINE
  5
EE
330
1F
100
AcDbEntity
  8
LAY-10
  6
CONTINUOUS
 62
     7
100
AcDbLine
 10
357.0000000000348
 20
195.4264068711968
 30
0.0
 11
364.000000000036
 21
202.426406871198
 31
0.0
  0
LINE
  5
EF
330
1F
100
AcDbEntity
  8
LAY-10
  6
CONTINUOUS
 62
     7
100
AcDbLine
 10
357.0000000000322
 20
192.5979797464481
 30
0.0
 11
364.0000000000373
 21
199.597979746453
 31
0.0
  0
LINE
  5
F0
330
1F
100
AcDbEntity
  8
LAY-10
  6
CONTINUOUS
 62
     7
100
AcDbLine
 10
357.0000000000335
 20
189.7695526217032
 30
0.0
 11
364.0000000000347
 21
196.7695526217043
 31
0.0
  0
LINE
  5
F1
330
1F
100
AcDbEntity
  8
LAY-10
  6
CONTINUOUS
 62
     7
100
AcDbLine
 10
357.0000000000348
 20
186.9411254969582
 30
0.0
 11
364.0000000000359
 21
193.9411254969594
 31
0.0
  0
LINE
  5
F2
330
1F
100
AcDbEntity
  8
LAY-10
  6
CONTINUOUS
 62
     7
100
AcDbLine
 10
357.0000000000322
 20
184.1126983722095
 30
0.0
 11
364.0000000000372
 21
191.1126983722146
 31
0.0
  0
LINE
  5
F3
330
1F
100
AcDbEntity
  8
LAY-10
  6
CONTINUOUS
 62
     7
100
AcDbLine
 10
357.0000000000334
 20
181.2842712474646
 30
0.0
 11
364.0000000000347
 21
188.2842712474659
 31
0.0
  0
LINE
  5
F4
330
1F
100
AcDbEntity
  8
LAY-10
  6
CONTINUOUS
 62
     7
100
AcDbLine
 10
357.0000000000347
 20
178.4558441227198
 30
0.0
 11
364.000000000032
 21
185.4558441227171
 31
0.0
  0
LINE
  5
F5
330
1F
100
AcDbEntity
  8
LAY-10
  6
CONTINUOUS
 62
     7
100
AcDbLine
 10
357.0000000000322
 20
175.627416997971
 30
0.0
 11
364.0000000000372
 21
182.6274169979761
 31
0.0
  0
LINE
  5
F6
330
1F
100
AcDbEntity
  8
LAY-10
  6
CONTINUOUS
 62
     7
100
AcDbLine
 10
357.0000000000334
 20
172.7989898732262
 30
0.0
 11
364.0000000000346
 21
179.7989898732274
 31
0.0
  0
LINE
  5
F7
330
1F
100
AcDbEntity
  8
LAY-10
  6
CONTINUOUS
 62
     7
100
AcDbLine
 10
357.0000000000346
 20
169.9705627484813
 30
0.0
 11
364.0000000000359
 21
176.9705627484824
 31
0.0
  0
LINE
  5
F8
330
1F
100
AcDbEntity
  8
LAY-10
  6
CONTINUOUS
 62
     7
100
AcDbLine
 10
357.0000000000321
 20
167.1421356237326
 30
0.0
 11
364.0000000000332
 21
174.1421356237337
 31
0.0
  0
LINE
  5
F9
330
1F
100
AcDbEntity
  8
LAY-10
  6
CONTINUOUS
 62
     7
100
AcDbLine
 10
357.0000000000334
 20
164.3137084989876
 30
0.0
 11
364.0000000000383
 21
171.3137084989927
 31
0.0
  0
LINE
  5
FA
330
1F
100
AcDbEntity
  8
LAY-10
  6
CONTINUOUS
 62
     7
100
AcDbLine
 10
357.0000000000346
 20
161.4852813742427
 30
0.0
 11
364.0000000000358
 21
168.485281374244
 31
0.0
  0
LINE
  5
FB
330
1F
100
AcDbEntity
  8
LAY-10
  6
CONTINUOUS
 62
     7
100
AcDbLine
 10
357.0000000000358
 20
158.6568542494979
 30
0.0
 11
364.0000000000332
 21
165.6568542494952
 31
0.0
  0
LINE
  5
FC
330
1F
100
AcDbEntity
  8
LAY-10
  6
CONTINUOUS
 62
     7
100
AcDbLine
 10
357.0000000000333
 20
155.8284271247491
 30
0.0
 11
364.0000000000345
 21
162.8284271247503
 31
0.0
  0
LINE
  5
FD
330
1F
100
AcDbEntity
  8
LAY-10
  6
CONTINUOUS
 62
     7
100
AcDbLine
 10
357.0000000000307
 20
153.0000000000004
 30
0.0
 11
364.0000000000318
 21
160.0000000000016
 31
0.0
  0
LINE
  5
FE
330
1F
100
AcDbEntity
  8
LAY-10
  6
CONTINUOUS
 62
     7
100
AcDbLine
 10
359.8284271247756
 20
152.9999999999991
 30
0.0
 11
364.0000000000371
 21
157.1715728752605
 31
0.0
  0
LINE
  5
FF
330
1F
100
AcDbEntity
  8
LAY-10
  6
CONTINUOUS
 62
     7
100
AcDbLine
 10
362.6568542495166
 20
152.9999999999939
 30
0.0
 11
364.0000000000344
 21
154.3431457505117
 31
0.0
  0
LINE
  5
100
330
1F
100
AcDbEntity
  8
LAY-10
  6
CONTINUOUS
 62
     7
100
AcDbLine
 10
534.5000000000309
 20
163.0000000000004
 30
0.0
 11
395.5000000000305
 21
163.0000000000002
 31
0.0
  0
LINE
  5
101
330
1F
100
AcDbEntity
  8
LAY-10
  6
CONTINUOUS
 62
     7
100
AcDbLine
 10
332.5000000000308
 20
226.0000000000004
 30
0.0
 11
333.5000000000308
 21
233.0000000000005
 31
0.0
  0
LINE
  5
102
330
1F
100
AcDbEntity
  8
LAY-10
  6
CONTINUOUS
 62
     7
100
AcDbLine
 10
348.5000000000309
 20
230.3205080756993
 30
0.0
 11
338.5000000000692
 21
233.0000000000005
 31
0.0
  0
LINE
  5
103
330
1F
100
AcDbEntity
  8
LAY-10
  6
CONTINUOUS
 62
     7
100
AcDbLine
 10
339.1847759934561
 20
228.6754101039353
 30
0.0
 11
348.4676460587094
 21
226.1880725665076
 31
0.0
  0
LINE
  5
104
330
1F
100
AcDbEntity
  8
LAY-10
  6
CONTINUOUS
 62
     7
100
AcDbLine
 10
336.6872389159284
 20
227.0264011638318
 30
0.0
 11
336.5406101782382
 21
226.0000000000004
 31
0.0
  0
ARC
  5
105
330
1F
100
AcDbEntity
  8
LAY-10
  6
CONTINUOUS
 62
     7
100
AcDbCircle
 10
338.667137903251
 20
226.7435584513574
 30
0.0
 40
2.0
100
AcDbArc
 50
74.99999999999908
 51
171.8698976458487
  0
LINE
  5
106
330
1F
100
AcDbEntity
  8
LAY-10
  6
CONTINUOUS
 62
     7
100
AcDbLine
 10
348.5000000000309
 20
230.3205080756993
 30
0.0
 11
348.9091416886912
 21
231.4167999263607
 31
0.0
  0
LINE
  5
107
330
1F
100
AcDbEntity
  8
LAY-10
  6
CONTINUOUS
 62
     7
100
AcDbLine
 10
356.2364536020077
 20
208.0000000000002
 30
0.0
 11
368.0000000000323
 21
208.0000000000002
 31
0.0
  0
LINE
  5
108
330
1F
100
AcDbEntity
  8
LAY-10
  6
CONTINUOUS
 62
     7
100
AcDbLine
 10
357.0000000000322
 20
218.5000000000022
 30
0.0
 11
362.0000000000318
 21
218.5000000000022
 31
0.0
  0
LINE
  5
109
330
1F
100
AcDbEntity
  8
LAY-10
  6
CONTINUOUS
 62
     7
100
AcDbLine
 10
357.0000000000322
 20
217.500000000003
 30
0.0
 11
362.0000000000318
 21
217.500000000003
 31
0.0
  0
LINE
  5
10A
330
1F
100
AcDbEntity
  8
LAY-10
  6
CONTINUOUS
 62
     7
100
AcDbLine
 10
359.5000000000308
 20
216.0566243270293
 30
0.0
 11
357.0000000000317
 21
217.500000000003
 31
0.0
  0
LINE
  5
10B
330
1F
100
AcDbEntity
  8
LAY-10
  6
CONTINUOUS
 62
     7
100
AcDbLine
 10
359.500000000031
 20
216.0566243270295
 30
0.0
 11
362.0000000000299
 21
217.500000000003
 31
0.0
  0
ARC
  5
10C
330
1F
100
AcDbEntity
  8
LAY-10
  6
CONTINUOUS
 62
     7
100
AcDbCircle
 10
347.9500079685045
 20
224.2562209139294
 30
0.0
 40
2.0
100
AcDbArc
 50
2.999999999997486
 51
75.00000000000539
  0
LINE
  5
10D
330
1F
100
AcDbEntity
  8
LAY-10
  6
CONTINUOUS
 62
     7
100
AcDbLine
 10
597.5000000000309
 20
226.0000000000004
 30
0.0
 11
596.500000000031
 21
233.0000000000005
 31
0.0
  0
LINE
  5
10E
330
1F
100
AcDbEntity
  8
LAY-10
  6
CONTINUOUS
 62
     7
100
AcDbLine
 10
581.5000000000305
 20
230.3205080756993
 30
0.0
 11
581.0908583113704
 21
231.4167999263607
 31
0.0
  0
LINE
  5
10F
330
1F
100
AcDbEntity
  8
LAY-10
  6
CONTINUOUS
 62
     7
100
AcDbLine
 10
581.5000000000305
 20
230.3205080756993
 30
0.0
 11
591.4999999999923
 21
233.0000000000005
 31
0.0
  0
LINE
  5
110
330
1F
100
AcDbEntity
  8
LAY-10
  6
CONTINUOUS
 62
     7
100
AcDbLine
 10
573.5015075016353
 20
208.0000000000002
 30
0.0
 11
566.0473507941294
 21
208.0000000000002
 31
0.0
  0
LINE
  5
111
330
1F
100
AcDbEntity
  8
LAY-10
  6
CONTINUOUS
 62
     7
100
AcDbLine
 10
596.5000000000314
 20
218.0000000000005
 30
0.0
 11
597.5000000000309
 21
226.0000000000004
 31
0.0
  0
LINE
  5
112
330
1F
100
AcDbEntity
  8
LAY-10
  6
CONTINUOUS
 62
     7
100
AcDbLine
 10
579.7193726947547
 20
218.0000000000005
 30
0.0
 11
596.5000000000314
 21
218.0000000000005
 31
0.0
  0
ARC
  5
113
330
1F
100
AcDbEntity
  8
LAY-10
  6
CONTINUOUS
 62
     7
100
AcDbCircle
 10
351.1898627214503
 20
230.5656232491445
 30
0.0
 40
2.434376750855009
100
AcDbArc
 50
2.99999999999359
 51
159.5341701760823
  0
LINE
  5
114
330
1F
100
AcDbEntity
  8
LAY-10
  6
CONTINUOUS
 62
     7
100
AcDbLine
 10
355.4284729201013
 20
231.2984377871175
 30
0.0
 11
355.6236327117653
 21
231.7088441619036
 31
0.0
  0
LINE
  5
115
330
1F
100
AcDbEntity
  8
LAY-10
  6
CONTINUOUS
 62
     7
100
AcDbLine
 10
355.5276594053914
 20
230.7311263856402
 30
0.0
 11
355.5163223930077
 21
230.848433568882
 31
0.0
  0
ARC
  5
116
330
1F
100
AcDbEntity
  8
LAY-10
  6
CONTINUOUS
 62
     7
100
AcDbCircle
 10
578.8101372786117
 20
230.5656232491445
 30
0.0
 40
2.434376750855009
100
AcDbArc
 50
20.46582982392663
 51
177.0000000000065
  0
ARC
  5
117
330
1F
100
AcDbEntity
  8
LAY-10
  6
CONTINUOUS
 62
     7
100
AcDbCircle
 10
576.8532040909294
 20
230.6194335166367
 30
0.0
 40
2.380566483363538
100
AcDbArc
 50
90.0
 51
174.4798614152237
  0
LINE
  5
118
330
1F
100
AcDbEntity
  8
LAY-10
  6
CONTINUOUS
 62
     7
100
AcDbLine
 10
574.5715270799601
 20
231.2984377871177
 30
0.0
 11
574.3763672882965
 21
231.7088441619036
 31
0.0
  0
LINE
  5
119
330
1F
100
AcDbEntity
  8
LAY-10
  6
CONTINUOUS
 62
     7
100
AcDbLine
 10
574.4723405946705
 20
230.7311263856402
 30
0.0
 11
574.4836776070541
 21
230.848433568882
 31
0.0
  0
LINE
  5
11A
330
1F
100
AcDbEntity
  8
LAY-10
  6
CONTINUOUS
 62
     7
100
AcDbLine
 10
579.7193726947547
 20
218.0000000000005
 30
0.0
 11
579.4932847101625
 21
213.6859842625426
 31
0.0
  0
ARC
  5
11B
330
1F
100
AcDbEntity
  8
LAY-10
  6
CONTINUOUS
 62
     7
100
AcDbCircle
 10
573.5015075016353
 20
214.0000000000002
 30
0.0
 40
6.000000000000004
100
AcDbArc
 50
270.0
 51
357.000000000001
  0
ARC
  5
11C
330
1F
100
AcDbEntity
  8
LAY-10
  6
CONTINUOUS
 62
     7
100
AcDbCircle
 10
356.4984924984263
 20
214.0000000000002
 30
0.0
 40
6.000000000000004
100
AcDbArc
 50
182.9999999999991
 51
270.0
  0
LINE
  5
11D
330
1F
100
AcDbEntity
  8
LAY-10
  6
CONTINUOUS
 62
     7
100
AcDbLine
 10
349.9472670380172
 20
224.3608928264155
 30
0.0
 11
350.5067152898989
 21
213.6859842625426
 31
0.0
  0
ARC
  5
11E
330
1F
100
AcDbEntity
  8
LAY-10
  6
CONTINUOUS
 62
     7
100
AcDbCircle
 10
561.3407335366351
 20
203.0
 30
0.0
 40
1.0
100
AcDbArc
 50
182.9999999999925
 51
270.0
  0
ARC
  5
11F
330
1F
100
AcDbEntity
  8
LAY-10
  6
CONTINUOUS
 62
     7
100
AcDbCircle
 10
563.8349749850016
 20
203.0
 30
0.0
 40
1.0
100
AcDbArc
 50
270.0
 51
357.0000000000076
  0
LINE
  5
120
330
1F
100
AcDbEntity
  8
LAY-10
  6
CONTINUOUS
 62
     7
100
AcDbLine
 10
560.3421040018807
 20
202.9476640437572
 30
0.0
 11
560.1565908007245
 21
206.4874667923954
 31
0.0
  0
LINE
  5
121
330
1F
100
AcDbEntity
  8
LAY-10
  6
CONTINUOUS
 62
     7
100
AcDbLine
 10
564.8336045197561
 20
202.9476640437572
 30
0.0
 11
565.0487212593749
 21
207.0523359562432
 31
0.0
  0
ARC
  5
122
330
1F
100
AcDbEntity
  8
LAY-10
  6
CONTINUOUS
 62
     7
100
AcDbCircle
 10
566.0473507941294
 20
207.0000000000003
 30
0.0
 40
1.0
100
AcDbArc
 50
90.0
 51
176.9999999999979
  0
ARC
  5
123
330
1F
100
AcDbEntity
  8
LAY-10
  6
CONTINUOUS
 62
     7
100
AcDbCircle
 10
559.1579612659701
 20
206.4351308361524
 30
0.0
 40
1.0
100
AcDbArc
 50
3.000000000002184
 51
100.8855270546726
  0
LINE
  5
124
330
1F
100
AcDbEntity
  8
LAY-10
  6
CONTINUOUS
 62
     7
100
AcDbLine
 10
356.5000000000308
 20
219.000000000003
 30
0.0
 11
362.5000000000306
 21
219.000000000003
 31
0.0
  0
ARC
  5
125
330
1F
100
AcDbEntity
  8
LAY-10
  6
CONTINUOUS
 62
     7
100
AcDbCircle
 10
572.332681442248
 20
230.737013974935
 30
0.0
 40
2.262986025064351
100
AcDbArc
 50
25.43240397931554
 51
179.2961378255333
  0
LINE
  5
126
330
1F
100
AcDbEntity
  8
LAY-10
  6
CONTINUOUS
 62
     7
100
AcDbLine
 10
332.5000000000308
 20
226.0000000000004
 30
0.0
 11
348.9294131446096
 21
226.0000000000004
 31
0.0
  0
LINE
  5
127
330
1F
100
AcDbEntity
  8
LAY-10
  6
CONTINUOUS
 62
     7
100
AcDbLine
 10
573.0000000000307
 20
153.0000000000005
 30
0.0
 11
357.0000000000307
 21
153.0000000000005
 31
0.0
  0
LINE
  5
128
330
1F
100
AcDbEntity
  8
LAY-10
  6
CONTINUOUS
 62
     7
100
AcDbLine
 10
357.0000000000307
 20
208.0000000000002
 30
0.0
 11
357.0000000000307
 21
153.0000000000005
 31
0.0
  0
LINE
  5
129
330
1F
100
AcDbEntity
  8
LAY-10
  6
CONTINUOUS
 62
     7
100
AcDbLine
 10
364.0000000000308
 20
208.0000000000002
 30
0.0
 11
364.0000000000308
 21
153.0000000000005
 31
0.0
  0
LINE
  5
12A
330
1F
100
AcDbEntity
  8
LAY-10
  6
CONTINUOUS
 62
     7
100
AcDbLine
 10
566.0000000000308
 20
208.0000000000002
 30
0.0
 11
566.0000000000308
 21
153.0000000000005
 31
0.0
  0
LINE
  5
12B
330
1F
100
AcDbEntity
  8
LAY-10
  6
CONTINUOUS
 62
     7
100
AcDbLine
 10
573.0000000000307
 20
208.0000000000002
 30
0.0
 11
573.0000000000307
 21
153.0000000000005
 31
0.0
  0
LINE
  5
12C
330
1F
100
AcDbEntity
  8
LAY-10
  6
CONTINUOUS
 62
     7
100
AcDbLine
 10
576.0807377657443
 20
225.0000000000004
 30
0.0
 11
576.3790967564809
 21
230.6930286842565
 31
0.0
  0
LINE
  5
12D
330
1F
100
AcDbEntity
  8
LAY-10
  6
CONTINUOUS
 62
     7
100
AcDbLine
 10
353.9192622343173
 20
225.0000000000004
 30
0.0
 11
353.6209032435809
 21
230.6930286842564
 31
0.0
  0
LINE
  5
12E
330
1F
100
AcDbEntity
  8
LAY-10
  6
CONTINUOUS
 62
     7
100
AcDbLine
 10
556.1510906018847
 20
233.0000000000005
 30
0.0
 11
596.500000000031
 21
233.0000000000005
 31
0.0
  0
ARC
  5
12F
330
1F
100
AcDbEntity
  8
LAY-10
  6
CONTINUOUS
 62
     7
100
AcDbCircle
 10
572.0635594736876
 20
230.9235176117166
 30
0.0
 40
2.0
100
AcDbArc
 50
184.5513255053862
 51
207.5006583866052
  0
ARC
  5
130
330
1F
100
AcDbEntity
  8
LAY-10
  6
CONTINUOUS
 62
     7
100
AcDbCircle
 10
357.7500000000226
 20
232.3857492993992
 30
0.0
 40
3.500000000000001
100
AcDbArc
 50
128.6821874534936
 51
178.1293582694076
  0
ARC
  5
131
330
1F
100
AcDbEntity
  8
LAY-10
  6
CONTINUOUS
 62
     7
100
AcDbCircle
 10
361.2500000000225
 20
232.3857492993992
 30
0.0
 40
3.500000000000001
100
AcDbArc
 50
1.870641730603566
 51
51.31781254650088
  0
LINE
  5
132
330
1F
100
AcDbEntity
  8
LAY-10
  6
CONTINUOUS
 62
     7
100
AcDbLine
 10
360.1000000000225
 20
236.4713634880995
 30
0.0
 11
360.1000000000225
 21
233.9999999999995
 31
0.0
  0
LINE
  5
133
330
1F
100
AcDbEntity
  8
LAY-10
  6
CONTINUOUS
 62
     7
100
AcDbLine
 10
360.1000000000225
 20
233.9999999999995
 30
0.0
 11
358.9000000000226
 21
233.9999999999995
 31
0.0
  0
LINE
  5
134
330
1F
100
AcDbEntity
  8
LAY-10
  6
CONTINUOUS
 62
     7
100
AcDbLine
 10
358.9000000000226
 20
236.4713634880995
 30
0.0
 11
358.9000000000226
 21
233.9999999999995
 31
0.0
  0
ARC
  5
135
330
1F
100
AcDbEntity
  8
LAY-10
  6
CONTINUOUS
 62
     7
100
AcDbCircle
 10
359.5000000000224
 20
230.1999999999995
 30
0.0
 40
6.300000000000002
100
AcDbArc
 50
51.31781254649636
 51
84.53497620009911
  0
ARC
  5
136
330
1F
100
AcDbEntity
  8
LAY-10
  6
CONTINUOUS
 62
     7
100
AcDbCircle
 10
359.5000000000224
 20
230.1999999999995
 30
0.0
 40
6.300000000000002
100
AcDbArc
 50
95.46502379991026
 51
128.6821874534945
  0
LINE
  5
137
330
1F
100
AcDbEntity
  8
LAY-10
  6
CONTINUOUS
 62
     7
100
AcDbLine
 10
357.0000000000226
 20
220.5000000000016
 30
0.0
 11
356.5000000000224
 21
221.0000000000017
 31
0.0
  0
LINE
  5
138
330
1F
100
AcDbEntity
  8
LAY-10
  6
CONTINUOUS
 62
     7
100
AcDbLine
 10
362.0000000000225
 20
220.5000000000016
 30
0.0
 11
362.5000000000224
 21
221.0000000000017
 31
0.0
  0
LINE
  5
139
330
1F
100
AcDbEntity
  8
LAY-10
  6
CONTINUOUS
 62
     7
100
AcDbLine
 10
356.5000000000224
 20
232.4999999999995
 30
0.0
 11
356.5000000000224
 21
221.0000000000017
 31
0.0
  0
LINE
  5
13A
330
1F
100
AcDbEntity
  8
LAY-10
  6
CONTINUOUS
 62
     7
100
AcDbLine
 10
357.0000000000226
 20
220.5000000000016
 30
0.0
 11
362.0000000000225
 21
220.5000000000016
 31
0.0
  0
LINE
  5
13B
330
1F
100
AcDbEntity
  8
LAY-10
  6
CONTINUOUS
 62
     7
100
AcDbLine
 10
362.5000000000224
 20
232.4999999999995
 30
0.0
 11
362.5000000000224
 21
221.0000000000017
 31
0.0
  0
LINE
  5
13C
330
1F
100
AcDbEntity
  8
LAY-10
  6
CONTINUOUS
 62
     7
100
AcDbLine
 10
362.5000000000224
 20
221.0000000000017
 30
0.0
 11
356.5000000000224
 21
221.0000000000017
 31
0.0
  0
ARC
  5
13D
330
1F
100
AcDbEntity
  8
LAY-10
  6
CONTINUOUS
 62
     7
100
AcDbCircle
 10
357.5183843025405
 20
230.9235176117166
 30
0.0
 40
2.0
100
AcDbArc
 50
185.5201385847758
 51
239.3899656859809
  0
ARC
  5
13E
330
1F
100
AcDbEntity
  8
LAY-10
  6
CONTINUOUS
 62
     7
100
AcDbCircle
 10
357.6673185578134
 20
230.737013974935
 30
0.0
 40
2.262986025064351
100
AcDbArc
 50
128.8260505111847
 51
154.5675960206813
  0
LINE
  5
13F
330
1F
100
AcDbEntity
  8
LAY-10
  6
CONTINUOUS
 62
     7
100
AcDbLine
 10
333.5000000000308
 20
233.0000000000005
 30
0.0
 11
354.304322116527
 21
233.0000000000005
 31
0.0
  0
LINE
  5
140
330
1F
100
AcDbEntity
  8
LAY-10
  6
CONTINUOUS
 62
     7
100
AcDbLine
 10
364.6956778835181
 20
233.0000000000005
 30
0.0
 11
373.8489093981179
 21
233.0000000000005
 31
0.0
  0
LINE
  5
141
330
1F
100
AcDbEntity
  8
LAY-10
  6
CONTINUOUS
 62
     7
100
AcDbLine
 10
357.0000000000322
 20
220.499999999991
 30
0.0
 11
357.0000000000322
 21
217.500000000003
 31
0.0
  0
LINE
  5
142
330
1F
100
AcDbEntity
  8
LAY-10
  6
CONTINUOUS
 62
     7
100
AcDbLine
 10
362.0000000000318
 20
220.500000000003
 30
0.0
 11
362.0000000000318
 21
217.5000000000043
 31
0.0
  0
LINE
  5
143
330
1F
100
AcDbEntity
  8
LAY-10
  6
CONTINUOUS
 62
     7
100
AcDbLine
 10
353.9192622343115
 20
225.0000000000004
 30
0.0
 11
357.0000000000226
 21
225.0000000000004
 31
0.0
  0
LINE
  5
144
330
1F
100
AcDbEntity
  8
LAY-10
  6
CONTINUOUS
 62
     7
100
AcDbLine
 10
576.0807377657501
 20
225.0000000000004
 30
0.0
 11
362.0000000000225
 21
225.0000000000004
 31
0.0
  0
ARC
  5
145
330
1F
100
AcDbEntity
  8
LAY-10
  6
CONTINUOUS
 62
     7
100
AcDbCircle
 10
353.1467959091326
 20
230.6194335166367
 30
0.0
 40
2.380566483363538
100
AcDbArc
 50
5.520138584776325
 51
52.18233035983454
  0
ARC
  5
146
330
1F
100
AcDbEntity
  8
LAY-10
  6
CONTINUOUS
 62
     7
100
AcDbCircle
 10
353.1467959091326
 20
230.6194335166367
 30
0.0
 40
2.380566483363538
100
AcDbArc
 50
61.95532256520909
 51
90.00000000000004
  0
LINE
  5
147
330
1F
100
AcDbEntity
  8
LAY-10
  6
CONTINUOUS
 62
     7
100
AcDbLine
 10
591.5000000000224
 20
226.0000000000037
 30
0.0
 11
591.5000000000224
 21
227.0000000000018
 31
0.0
  0
LINE
  5
148
330
1F
100
AcDbEntity
  8
LAY-10
  6
CONTINUOUS
 62
     7
100
AcDbLine
 10
586.5000000000231
 20
226.0000000000037
 30
0.0
 11
586.5000000000231
 21
227.000000000003
 31
0.0
  0
LINE
  5
149
330
1F
100
AcDbEntity
  8
LAY-10
  6
CONTINUOUS
 62
     7
100
AcDbLine
 10
586.5000000000231
 20
227.000000000003
 30
0.0
 11
591.5000000000224
 21
227.000000000003
 31
0.0
  0
LINE
  5
14A
330
1F
100
AcDbEntity
  8
LAY-10
  6
CONTINUOUS
 62
     7
100
AcDbLine
 10
586.0000000000199
 20
225.500000000003
 30
0.0
 11
592.0000000000199
 21
225.500000000003
 31
0.0
  0
LINE
  5
14B
330
1F
100
AcDbEntity
  8
LAY-10
  6
CONTINUOUS
 62
     7
100
AcDbLine
 10
586.5000000000199
 20
226.0000000000037
 30
0.0
 11
591.5000000000199
 21
226.0000000000037
 31
0.0
  0
LINE
  5
14C
330
1F
100
AcDbEntity
  8
LAY-10
  6
CONTINUOUS
 62
     7
100
AcDbLine
 10
589.0000000000201
 20
228.4433756729787
 30
0.0
 11
591.500000000021
 21
227.000000000004
 31
0.0
  0
LINE
  5
14D
330
1F
100
AcDbEntity
  8
LAY-10
  6
CONTINUOUS
 62
     7
100
AcDbLine
 10
589.0000000000197
 20
228.4433756729784
 30
0.0
 11
586.5000000000192
 21
227.000000000004
 31
0.0
  0
LINE
  5
14E
330
1F
100
AcDbEntity
  8
LAY-10
  6
CONTINUOUS
 62
     7
100
AcDbLine
 10
603.5000000000194
 20
196.0000000000123
 30
0.0
 11
603.5000000000194
 21
201.0000000000122
 31
0.0
  0
LINE
  5
14F
330
1F
100
AcDbEntity
  8
LAY-10
  6
CONTINUOUS
 62
     7
100
AcDbLine
 10
593.500000000019
 20
201.0000000000122
 30
0.0
 11
603.5000000000194
 21
201.0000000000122
 31
0.0
  0
ARC
  5
150
330
1F
100
AcDbEntity
  8
LAY-10
  6
CONTINUOUS
 62
     7
100
AcDbCircle
 10
593.500000000019
 20
203.0000000000122
 30
0.0
 40
2.0
100
AcDbArc
 50
180.0
 51
270.0000000000002
  0
LINE
  5
151
330
1F
100
AcDbEntity
  8
LAY-10
  6
CONTINUOUS
 62
     7
100
AcDbLine
 10
593.500000000019
 20
196.0000000000123
 30
0.0
 11
603.5000000000194
 21
196.0000000000123
 31
0.0
  0
ARC
  5
152
330
1F
100
AcDbEntity
  8
LAY-10
  6
CONTINUOUS
 62
     7
100
AcDbCircle
 10
593.500000000019
 20
203.0000000000122
 30
0.0
 40
7.000000000000004
100
AcDbArc
 50
180.0
 51
270.0000000000002
  0
LINE
  5
153
330
1F
100
AcDbEntity
  8
LAY-10
  6
CONTINUOUS
 62
     7
100
AcDbLine
 10
591.5000000000199
 20
203.0000000000079
 30
0.0
 11
591.5000000000199
 21
218.0000000000076
 31
0.0
  0
LINE
  5
154
330
1F
100
AcDbEntity
  8
LAY-10
  6
CONTINUOUS
 62
     7
100
AcDbLine
 10
586.5000000000199
 20
203.0000000000079
 30
0.0
 11
586.5000000000199
 21
218.0000000000076
 31
0.0
  0
LINE
  5
155
330
1F
100
AcDbEntity
  8
LAY-10
  6
CONTINUOUS
 62
     7
100
AcDbLine
 10
586.5000000000231
 20
224.0000000000124
 30
0.0
 11
591.5000000000224
 21
224.0000000000124
 31
0.0
  0
LINE
  5
156
330
1F
100
AcDbEntity
  8
LAY-10
  6
CONTINUOUS
 62
     7
100
AcDbLine
 10
586.0000000000217
 20
223.5000000000139
 30
0.0
 11
592.0000000000208
 21
223.5000000000139
 31
0.0
  0
LINE
  5
157
330
1F
100
AcDbEntity
  8
LAY-10
  6
CONTINUOUS
 62
     7
100
AcDbLine
 10
591.5000000000224
 20
226.0000000000037
 30
0.0
 11
591.5000000000224
 21
224.0000000000124
 31
0.0
  0
LINE
  5
158
330
1F
100
AcDbEntity
  8
LAY-10
  6
CONTINUOUS
 62
     7
100
AcDbLine
 10
586.5000000000231
 20
226.0000000000037
 30
0.0
 11
586.5000000000231
 21
224.0000000000124
 31
0.0
  0
LINE
  5
159
330
1F
100
AcDbEntity
  8
LAY-10
  6
CONTINUOUS
 62
     7
100
AcDbLine
 10
592.0000000000199
 20
223.5000000000179
 30
0.0
 11
591.5000000000199
 21
224.0000000000079
 31
0.0
  0
LINE
  5
15A
330
1F
100
AcDbEntity
  8
LAY-10
  6
CONTINUOUS
 62
     7
100
AcDbLine
 10
586.5000000000199
 20
224.0000000000079
 30
0.0
 11
586.0000000000199
 21
223.5000000000179
 31
0.0
  0
LINE
  5
15B
330
1F
100
AcDbEntity
  8
LAY-10
  6
CONTINUOUS
 62
     7
100
AcDbLine
 10
586.0000000000199
 20
223.5000000000179
 30
0.0
 11
586.0000000000199
 21
218.0000000000079
 31
0.0
  0
LINE
  5
15C
330
1F
100
AcDbEntity
  8
LAY-10
  6
CONTINUOUS
 62
     7
100
AcDbLine
 10
592.0000000000199
 20
223.5000000000179
 30
0.0
 11
592.0000000000199
 21
218.0000000000079
 31
0.0
  0
CIRCLE
  5
15D
330
1F
100
AcDbEntity
  8
LAY-10
  6
CONTINUOUS
 62
     7
100
AcDbCircle
 10
465.0000000000007
 20
651.0000000000099
 30
0.0
 40
132.5
  0
ARC
  5
15E
330
1F
100
AcDbEntity
  8
LAY-10
  6
CONTINUOUS
 62
     7
100
AcDbCircle
 10
465.0000000000005
 20
651.0000000000099
 30
0.0
 40
116.4999999999998
100
AcDbArc
 50
169.1749904754552
 51
190.8250095245452
  0
LINE
  5
15F
330
1F
100
AcDbEntity
  8
LAY-10
  6
CONTINUOUS
 62
     7
100
AcDbLine
 10
355.3083868292741
 20
671.00000000001
 30
0.0
 11
351.3732616930861
 21
671.717488789251
 31
0.0
  0
LINE
  5
160
330
1F
100
AcDbEntity
  8
LAY-10
  6
CONTINUOUS
 62
     7
100
AcDbLine
 10
350.5730749214022
 20
672.879872418668
 30
0.0
 11
355.7023535927797
 21
671.9446543973241
 31
0.0
  0
LINE
  5
161
330
1F
100
AcDbEntity
  8
LAY-10
  6
CONTINUOUS
 62
     7
100
AcDbLine
 10
351.3732616930861
 20
671.717488789251
 30
0.0
 11
350.5730749214022
 21
672.879872418668
 31
0.0
  0
LINE
  5
162
330
1F
100
AcDbEntity
  8
LAY-10
  6
CONTINUOUS
 62
     7
100
AcDbLine
 10
355.3083868292741
 20
631.0000000000095
 30
0.0
 11
351.3732616930861
 21
630.2825112107687
 31
0.0
  0
LINE
  5
163
330
1F
100
AcDbEntity
  8
LAY-10
  6
CONTINUOUS
 62
     7
100
AcDbLine
 10
350.5730749214022
 20
629.1201275813517
 30
0.0
 11
355.7023535927799
 21
630.0553456026955
 31
0.0
  0
LINE
  5
164
330
1F
100
AcDbEntity
  8
LAY-10
  6
CONTINUOUS
 62
     7
100
AcDbLine
 10
351.3732616930861
 20
630.2825112107687
 30
0.0
 11
350.5730749214022
 21
629.1201275813517
 31
0.0
  0
ARC
  5
165
330
1F
100
AcDbEntity
  8
LAY-10
  6
CONTINUOUS
 62
     7
100
AcDbCircle
 10
465.0000000000007
 20
651.0000000000105
 30
0.0
 40
115.5000000000017
100
AcDbArc
 50
169.6668057812614
 51
190.3331942187394
  0
ARC
  5
166
330
1F
100
AcDbEntity
  8
LAY-10
  6
CONTINUOUS
 62
     7
100
AcDbCircle
 10
465.0000000000007
 20
651.0000000000105
 30
0.0
 40
111.4999999999835
100
AcDbArc
 50
169.6668057812614
 51
190.3331942187394
  0
LINE
  5
167
330
1F
100
AcDbEntity
  8
LAY-10
  6
CONTINUOUS
 62
     7
100
AcDbLine
 10
355.7023535927799
 20
630.0553456026955
 30
0.0
 11
355.3083868292743
 21
631.0000000000095
 31
0.0
  0
LINE
  5
168
330
1F
100
AcDbEntity
  8
LAY-10
  6
CONTINUOUS
 62
     7
100
AcDbLine
 10
355.3083868292741
 20
671.00000000001
 30
0.0
 11
355.7023535927797
 21
671.9446543973241
 31
0.0
  0
ARC
  5
169
330
1F
100
AcDbEntity
  8
LAY-10
  6
CONTINUOUS
 62
     7
100
AcDbCircle
 10
465.0000000000007
 20
651.0000000000105
 30
0.0
 40
111.2863606107273
100
AcDbArc
 50
190.8480511184137
 51
199.1519488815869
  0
LINE
  5
16A
330
1F
100
AcDbEntity
  8
LAY-10
  6
CONTINUOUS
 62
     7
100
AcDbLine
 10
360.0042764120558
 20
613.4747014903355
 30
0.0
 11
356.237613682426
 21
612.1285024406548
 31
0.0
  0
LINE
  5
16B
330
1F
100
AcDbEntity
  8
LAY-10
  6
CONTINUOUS
 62
     7
100
AcDbLine
 10
356.2376136824258
 20
612.1285024406548
 30
0.0
 11
354.9634397956665
 21
612.735062806831
 31
0.0
  0
LINE
  5
16C
330
1F
100
AcDbEntity
  8
LAY-10
  6
CONTINUOUS
 62
     7
100
AcDbLine
 10
380.0042764120558
 20
578.8336853389578
 30
0.0
 11
376.9551024716671
 21
576.2447592524503
 31
0.0
  0
LINE
  5
16D
330
1F
100
AcDbEntity
  8
LAY-10
  6
CONTINUOUS
 62
     7
100
AcDbLine
 10
376.9551024716671
 20
576.2447592524503
 30
0.0
 11
376.843312214325
 21
574.8380121145898
 31
0.0
  0
ARC
  5
16E
330
1F
100
AcDbEntity
  8
LAY-10
  6
CONTINUOUS
 62
     7
100
AcDbCircle
 10
465.0000000000007
 20
651.0000000000099
 30
0.0
 40
116.4999999999998
100
AcDbArc
 50
199.1749904754553
 51
220.8250095245451
  0
ARC
  5
16F
330
1F
100
AcDbEntity
  8
LAY-10
  6
CONTINUOUS
 62
     7
100
AcDbCircle
 10
465.0000000000007
 20
651.0000000000105
 30
0.0
 40
111.4999999999835
100
AcDbArc
 50
199.6668057812613
 51
220.3331942187393
  0
ARC
  5
170
330
1F
100
AcDbEntity
  8
LAY-10
  6
CONTINUOUS
 62
     7
100
AcDbCircle
 10
465.0000000000007
 20
651.0000000000105
 30
0.0
 40
115.5000000000017
100
AcDbArc
 50
199.6668057812613
 51
220.3331942187392
  0
LINE
  5
171
330
1F
100
AcDbEntity
  8
LAY-10
  6
CONTINUOUS
 62
     7
100
AcDbLine
 10
380.8177888361562
 20
578.2125740148396
 30
0.0
 11
380.004276412056
 21
578.8336853389578
 31
0.0
  0
LINE
  5
172
330
1F
100
AcDbEntity
  8
LAY-10
  6
CONTINUOUS
 62
     7
100
AcDbLine
 10
360.0042764120558
 20
613.4747014903355
 30
0.0
 11
359.8731344388414
 21
614.4897795779593
 31
0.0
  0
LINE
  5
173
330
1F
100
AcDbEntity
  8
LAY-10
  6
CONTINUOUS
 62
     7
100
AcDbLine
 10
376.8433122143252
 20
574.8380121145904
 30
0.0
 11
380.8177888361562
 21
578.2125740148396
 31
0.0
  0
LINE
  5
174
330
1F
100
AcDbEntity
  8
LAY-10
  6
CONTINUOUS
 62
     7
100
AcDbLine
 10
354.9634397956665
 20
612.735062806831
 30
0.0
 11
359.8731344388414
 21
614.4897795779593
 31
0.0
  0
LINE
  5
175
330
1F
100
AcDbEntity
  8
LAY-10
  6
CONTINUOUS
 62
     7
100
AcDbLine
 10
392.8336853389487
 20
566.0042764120651
 30
0.0
 11
390.2447592524414
 21
562.9551024716758
 31
0.0
  0
LINE
  5
176
330
1F
100
AcDbEntity
  8
LAY-10
  6
CONTINUOUS
 62
     7
100
AcDbLine
 10
390.2447592524414
 20
562.9551024716758
 30
0.0
 11
388.8380121145811
 21
562.8433122143339
 31
0.0
  0
LINE
  5
177
330
1F
100
AcDbEntity
  8
LAY-10
  6
CONTINUOUS
 62
     7
100
AcDbLine
 10
427.4747014903268
 20
546.0042764120649
 30
0.0
 11
426.128502440646
 21
542.2376136824347
 31
0.0
  0
LINE
  5
178
330
1F
100
AcDbEntity
  8
LAY-10
  6
CONTINUOUS
 62
     7
100
AcDbLine
 10
426.1285024406457
 20
542.2376136824346
 30
0.0
 11
426.7350628068223
 21
540.9634397956756
 31
0.0
  0
ARC
  5
179
330
1F
100
AcDbEntity
  8
LAY-10
  6
CONTINUOUS
 62
     7
100
AcDbCircle
 10
465.000000000001
 20
651.0000000000098
 30
0.0
 40
116.4999999999998
100
AcDbArc
 50
229.1749904754551
 51
250.8250095245447
  0
ARC
  5
17A
330
1F
100
AcDbEntity
  8
LAY-10
  6
CONTINUOUS
 62
     7
100
AcDbCircle
 10
465.0000000000007
 20
651.0000000000099
 30
0.0
 40
111.4999999999835
100
AcDbArc
 50
229.6668057812614
 51
250.3331942187394
  0
ARC
  5
17B
330
1F
100
AcDbEntity
  8
LAY-10
  6
CONTINUOUS
 62
     7
100
AcDbCircle
 10
465.0000000000007
 20
651.0000000000099
 30
0.0
 40
115.5000000000017
100
AcDbArc
 50
229.666805781261
 51
250.3331942187394
  0
LINE
  5
17C
330
1F
100
AcDbEntity
  8
LAY-10
  6
CONTINUOUS
 62
     7
100
AcDbLine
 10
428.4897795779502
 20
545.8731344388507
 30
0.0
 11
427.4747014903268
 21
546.0042764120649
 31
0.0
  0
LINE
  5
17D
330
1F
100
AcDbEntity
  8
LAY-10
  6
CONTINUOUS
 62
     7
100
AcDbLine
 10
392.8336853389487
 20
566.0042764120651
 30
0.0
 11
392.2125740148309
 21
566.8177888361649
 31
0.0
  0
LINE
  5
17E
330
1F
100
AcDbEntity
  8
LAY-10
  6
CONTINUOUS
 62
     7
100
AcDbLine
 10
426.7350628068223
 20
540.9634397956756
 30
0.0
 11
428.4897795779502
 21
545.8731344388507
 31
0.0
  0
LINE
  5
17F
330
1F
100
AcDbEntity
  8
LAY-10
  6
CONTINUOUS
 62
     7
100
AcDbLine
 10
388.8380121145811
 20
562.8433122143339
 30
0.0
 11
392.2125740148309
 21
566.8177888361649
 31
0.0
  0
LINE
  5
180
330
1F
100
AcDbEntity
  8
LAY-10
  6
CONTINUOUS
 62
     7
100
AcDbLine
 10
380.0042764120558
 20
723.1663146610624
 30
0.0
 11
376.9551024716666
 21
725.7552407475694
 31
0.0
  0
LINE
  5
181
330
1F
100
AcDbEntity
  8
LAY-10
  6
CONTINUOUS
 62
     7
100
AcDbLine
 10
376.9551024716666
 20
725.7552407475695
 30
0.0
 11
376.8433122143247
 21
727.1619878854299
 31
0.0
  0
LINE
  5
182
330
1F
100
AcDbEntity
  8
LAY-10
  6
CONTINUOUS
 62
     7
100
AcDbLine
 10
360.0042764120554
 20
688.5252985096841
 30
0.0
 11
356.2376136824255
 21
689.8714975593649
 31
0.0
  0
LINE
  5
183
330
1F
100
AcDbEntity
  8
LAY-10
  6
CONTINUOUS
 62
     7
100
AcDbLine
 10
356.2376136824255
 20
689.8714975593655
 30
0.0
 11
354.9634397956664
 21
689.2649371931886
 31
0.0
  0
ARC
  5
184
330
1F
100
AcDbEntity
  8
LAY-10
  6
CONTINUOUS
 62
     7
100
AcDbCircle
 10
465.0000000000005
 20
651.0000000000099
 30
0.0
 40
116.4999999999998
100
AcDbArc
 50
139.1749904754554
 51
160.8250095245449
  0
ARC
  5
185
330
1F
100
AcDbEntity
  8
LAY-10
  6
CONTINUOUS
 62
     7
100
AcDbCircle
 10
465.0000000000007
 20
651.0000000000105
 30
0.0
 40
111.4999999999835
100
AcDbArc
 50
139.6668057812612
 51
160.3331942187391
  0
ARC
  5
186
330
1F
100
AcDbEntity
  8
LAY-10
  6
CONTINUOUS
 62
     7
100
AcDbCircle
 10
465.0000000000007
 20
651.0000000000105
 30
0.0
 40
115.5000000000017
100
AcDbArc
 50
139.6668057812614
 51
160.3331942187391
  0
LINE
  5
187
330
1F
100
AcDbEntity
  8
LAY-10
  6
CONTINUOUS
 62
     7
100
AcDbLine
 10
359.8731344388412
 20
687.5102204220609
 30
0.0
 11
360.0042764120556
 21
688.5252985096841
 31
0.0
  0
LINE
  5
188
330
1F
100
AcDbEntity
  8
LAY-10
  6
CONTINUOUS
 62
     7
100
AcDbLine
 10
380.0042764120558
 20
723.1663146610624
 30
0.0
 11
380.8177888361557
 21
723.7874259851802
 31
0.0
  0
LINE
  5
189
330
1F
100
AcDbEntity
  8
LAY-10
  6
CONTINUOUS
 62
     7
100
AcDbLine
 10
354.9634397956664
 20
689.2649371931886
 30
0.0
 11
359.8731344388412
 21
687.5102204220609
 31
0.0
  0
LINE
  5
18A
330
1F
100
AcDbEntity
  8
LAY-10
  6
CONTINUOUS
 62
     7
100
AcDbLine
 10
376.8433122143247
 20
727.1619878854299
 30
0.0
 11
380.8177888361557
 21
723.7874259851802
 31
0.0
  0
LINE
  5
18B
330
1F
100
AcDbEntity
  8
LAY-10
  6
CONTINUOUS
 62
     7
100
AcDbLine
 10
427.4747014903261
 20
755.9957235879548
 30
0.0
 11
426.1285024406453
 21
759.762386317585
 31
0.0
  0
LINE
  5
18C
330
1F
100
AcDbEntity
  8
LAY-10
  6
CONTINUOUS
 62
     7
100
AcDbLine
 10
426.1285024406453
 20
759.762386317585
 30
0.0
 11
426.7350628068216
 21
761.036560204344
 31
0.0
  0
LINE
  5
18D
330
1F
100
AcDbEntity
  8
LAY-10
  6
CONTINUOUS
 62
     7
100
AcDbLine
 10
392.8336853389479
 20
735.9957235879546
 30
0.0
 11
390.2447592524409
 21
739.0448975283439
 31
0.0
  0
LINE
  5
18E
330
1F
100
AcDbEntity
  8
LAY-10
  6
CONTINUOUS
 62
     7
100
AcDbLine
 10
390.2447592524408
 20
739.0448975283439
 30
0.0
 11
388.8380121145804
 21
739.1566877856858
 31
0.0
  0
ARC
  5
18F
330
1F
100
AcDbEntity
  8
LAY-10
  6
CONTINUOUS
 62
     7
100
AcDbCircle
 10
465.0000000000005
 20
651.0000000000099
 30
0.0
 40
116.4999999999998
100
AcDbArc
 50
109.1749904754553
 51
130.8250095245451
  0
ARC
  5
190
330
1F
100
AcDbEntity
  8
LAY-10
  6
CONTINUOUS
 62
     7
100
AcDbCircle
 10
465.0000000000005
 20
651.0000000000099
 30
0.0
 40
111.4999999999835
100
AcDbArc
 50
109.6668057812612
 51
130.3331942187392
  0
ARC
  5
191
330
1F
100
AcDbEntity
  8
LAY-10
  6
CONTINUOUS
 62
     7
100
AcDbCircle
 10
465.0000000000005
 20
651.0000000000099
 30
0.0
 40
115.5000000000017
100
AcDbArc
 50
109.6668057812612
 51
130.3331942187393
  0
LINE
  5
192
330
1F
100
AcDbEntity
  8
LAY-10
  6
CONTINUOUS
 62
     7
100
AcDbLine
 10
392.2125740148302
 20
735.1822111638547
 30
0.0
 11
392.833685338948
 21
735.9957235879546
 31
0.0
  0
LINE
  5
193
330
1F
100
AcDbEntity
  8
LAY-10
  6
CONTINUOUS
 62
     7
100
AcDbLine
 10
427.4747014903261
 20
755.9957235879548
 30
0.0
 11
428.4897795779495
 21
756.1268655611696
 31
0.0
  0
LINE
  5
194
330
1F
100
AcDbEntity
  8
LAY-10
  6
CONTINUOUS
 62
     7
100
AcDbLine
 10
388.8380121145804
 20
739.1566877856858
 30
0.0
 11
392.2125740148302
 21
735.1822111638547
 31
0.0
  0
LINE
  5
195
330
1F
100
AcDbEntity
  8
LAY-10
  6
CONTINUOUS
 62
     7
100
AcDbLine
 10
426.7350628068216
 20
761.0365602043439
 30
0.0
 11
428.4897795779495
 21
756.1268655611696
 31
0.0
  0
LINE
  5
196
330
1F
100
AcDbEntity
  8
LAY-10
  6
CONTINUOUS
 62
     7
100
AcDbLine
 10
485.0000000000006
 20
760.6916131707367
 30
0.0
 11
485.7174887892416
 21
764.6267383069245
 31
0.0
  0
LINE
  5
197
330
1F
100
AcDbEntity
  8
LAY-10
  6
CONTINUOUS
 62
     7
100
AcDbLine
 10
485.7174887892416
 20
764.6267383069245
 30
0.0
 11
486.8798724186586
 21
765.4269250786087
 31
0.0
  0
LINE
  5
198
330
1F
100
AcDbEntity
  8
LAY-10
  6
CONTINUOUS
 62
     7
100
AcDbLine
 10
445.0000000000001
 20
760.6916131707367
 30
0.0
 11
444.2825112107589
 21
764.6267383069245
 31
0.0
  0
LINE
  5
199
330
1F
100
AcDbEntity
  8
LAY-10
  6
CONTINUOUS
 62
     7
100
AcDbLine
 10
444.2825112107589
 20
764.6267383069245
 30
0.0
 11
443.1201275813419
 21
765.4269250786087
 31
0.0
  0
ARC
  5
19A
330
1F
100
AcDbEntity
  8
LAY-10
  6
CONTINUOUS
 62
     7
100
AcDbCircle
 10
465.0000000000005
 20
651.0000000000099
 30
0.0
 40
116.4999999999998
100
AcDbArc
 50
79.17499047545532
 51
100.8250095245451
  0
ARC
  5
19B
330
1F
100
AcDbEntity
  8
LAY-10
  6
CONTINUOUS
 62
     7
100
AcDbCircle
 10
465.0000000000005
 20
651.0000000000099
 30
0.0
 40
111.4999999999835
100
AcDbArc
 50
79.66680578126113
 51
100.3331942187393
  0
ARC
  5
19C
330
1F
100
AcDbEntity
  8
LAY-10
  6
CONTINUOUS
 62
     7
100
AcDbCircle
 10
465.0000000000005
 20
651.0000000000099
 30
0.0
 40
115.5000000000017
100
AcDbArc
 50
79.66680578126108
 51
100.3331942187391
  0
LINE
  5
19D
330
1F
100
AcDbEntity
  8
LAY-10
  6
CONTINUOUS
 62
     7
100
AcDbLine
 10
444.0553456026857
 20
760.2976464072307
 30
0.0
 11
445.0000000000001
 21
760.6916131707367
 31
0.0
  0
LINE
  5
19E
330
1F
100
AcDbEntity
  8
LAY-10
  6
CONTINUOUS
 62
     7
100
AcDbLine
 10
485.0000000000006
 20
760.6916131707367
 30
0.0
 11
485.9446543973148
 21
760.2976464072312
 31
0.0
  0
LINE
  5
19F
330
1F
100
AcDbEntity
  8
LAY-10
  6
CONTINUOUS
 62
     7
100
AcDbLine
 10
443.1201275813419
 20
765.4269250786087
 30
0.0
 11
444.0553456026857
 21
760.2976464072307
 31
0.0
  0
LINE
  5
1A0
330
1F
100
AcDbEntity
  8
LAY-10
  6
CONTINUOUS
 62
     7
100
AcDbLine
 10
486.8798724186586
 20
765.4269250786087
 30
0.0
 11
485.9446543973148
 21
760.2976464072312
 31
0.0
  0
ARC
  5
1A1
330
1F
100
AcDbEntity
  8
LAY-10
  6
CONTINUOUS
 62
     7
100
AcDbCircle
 10
465.0000000000007
 20
651.0000000000105
 30
0.0
 40
111.2863606107273
100
AcDbArc
 50
100.8480511184133
 51
109.1519488815873
  0
ARC
  5
1A2
330
1F
100
AcDbEntity
  8
LAY-10
  6
CONTINUOUS
 62
     7
100
AcDbCircle
 10
465.0000000000007
 20
651.0000000000105
 30
0.0
 40
111.2863606107273
100
AcDbArc
 50
130.8480511184137
 51
139.1519488815871
  0
ARC
  5
1A3
330
1F
100
AcDbEntity
  8
LAY-10
  6
CONTINUOUS
 62
     7
100
AcDbCircle
 10
465.0000000000007
 20
651.0000000000105
 30
0.0
 40
111.2863606107273
100
AcDbArc
 50
160.8480511184137
 51
169.1519488815871
  0
ARC
  5
1A4
330
1F
100
AcDbEntity
  8
LAY-10
  6
CONTINUOUS
 62
     7
100
AcDbCircle
 10
465.0000000000007
 20
651.0000000000105
 30
0.0
 40
111.2863606107273
100
AcDbArc
 50
220.8480511184137
 51
229.151948881587
  0
ARC
  5
1A5
330
1F
100
AcDbEntity
  8
LAY-10
  6
CONTINUOUS
 62
     7
100
AcDbCircle
 10
465.0000000000007
 20
651.0000000000099
 30
0.0
 40
111.0807377657193
100
AcDbArc
 50
176.9036750229878
 51
183.0963249770125
  0
LINE
  5
1A6
330
1F
100
AcDbEntity
  8
LAY-10
  6
CONTINUOUS
 62
     7
100
AcDbLine
 10
354.0814248983681
 20
657.0000000000099
 30
0.0
 11
354.5251910626693
 21
657.4248546333035
 31
0.0
  0
LINE
  5
1A7
330
1F
100
AcDbEntity
  8
LAY-10
  6
CONTINUOUS
 62
     7
100
AcDbLine
 10
354.0814248983681
 20
645.0000000000099
 30
0.0
 11
354.5251910626694
 21
644.5751453667168
 31
0.0
  0
ARC
  5
1A8
330
1F
100
AcDbEntity
  8
LAY-10
  6
CONTINUOUS
 62
     7
100
AcDbCircle
 10
465.0000000000005
 20
651.0000000000099
 30
0.0
 40
111.0807377657193
100
AcDbArc
 50
87.93634177971174
 51
92.06365822028826
  0
ARC
  5
1A9
330
1F
100
AcDbEntity
  8
LAY-10
  6
CONTINUOUS
 62
     7
100
AcDbCircle
 10
465.0000000000007
 20
651.0000000000105
 30
0.0
 40
110.6614755314552
100
AcDbArc
 50
92.27873251917265
 51
176.6716133547328
  0
LINE
  5
1AA
330
1F
100
AcDbEntity
  8
LAY-10
  6
CONTINUOUS
 62
     7
100
AcDbLine
 10
460.6000000000047
 20
761.5739669488306
 30
0.0
 11
461.0000000000007
 21
762.008694716129
 31
0.0
  0
LINE
  5
1AB
330
1F
100
AcDbEntity
  8
LAY-10
  6
CONTINUOUS
 62
     7
100
AcDbLine
 10
469.3999999999967
 20
761.5739669488306
 30
0.0
 11
469.0000000000008
 21
762.008694716129
 31
0.0
  0
CIRCLE
  5
1AC
330
1F
100
AcDbEntity
  8
LAY-10
  6
CONTINUOUS
 62
     7
100
AcDbCircle
 10
465.0000000000005
 20
651.0000000000099
 30
0.0
 40
131.4999999999999
  0
LINE
  5
1AD
330
1F
100
AcDbEntity
  8
LAY-10
  6
CONTINUOUS
 62
     7
100
AcDbLine
 10
485.0000000000006
 20
541.3083868292842
 30
0.0
 11
485.7174887892416
 21
537.3732616930965
 31
0.0
  0
LINE
  5
1AE
330
1F
100
AcDbEntity
  8
LAY-10
  6
CONTINUOUS
 62
     7
100
AcDbLine
 10
485.7174887892416
 20
537.3732616930965
 30
0.0
 11
486.8798724186586
 21
536.5730749214122
 31
0.0
  0
LINE
  5
1AF
330
1F
100
AcDbEntity
  8
LAY-10
  6
CONTINUOUS
 62
     7
100
AcDbLine
 10
445.0000000000001
 20
541.3083868292842
 30
0.0
 11
444.2825112107589
 21
537.3732616930965
 31
0.0
  0
LINE
  5
1B0
330
1F
100
AcDbEntity
  8
LAY-10
  6
CONTINUOUS
 62
     7
100
AcDbLine
 10
444.2825112107589
 20
537.3732616930965
 30
0.0
 11
443.1201275813419
 21
536.5730749214122
 31
0.0
  0
ARC
  5
1B1
330
1F
100
AcDbEntity
  8
LAY-10
  6
CONTINUOUS
 62
     7
100
AcDbCircle
 10
465.0000000000005
 20
651.0000000000111
 30
0.0
 40
116.4999999999998
100
AcDbArc
 50
259.1749904754552
 51
280.8250095245448
  0
ARC
  5
1B2
330
1F
100
AcDbEntity
  8
LAY-10
  6
CONTINUOUS
 62
     7
100
AcDbCircle
 10
465.0000000000005
 20
651.0000000000111
 30
0.0
 40
111.4999999999835
100
AcDbArc
 50
259.666805781261
 51
280.3331942187389
  0
ARC
  5
1B3
330
1F
100
AcDbEntity
  8
LAY-10
  6
CONTINUOUS
 62
     7
100
AcDbCircle
 10
465.0000000000005
 20
651.0000000000111
 30
0.0
 40
115.5000000000017
100
AcDbArc
 50
259.666805781261
 51
280.333194218739
  0
LINE
  5
1B4
330
1F
100
AcDbEntity
  8
LAY-10
  6
CONTINUOUS
 62
     7
100
AcDbLine
 10
444.0553456026857
 20
541.7023535927904
 30
0.0
 11
445.0000000000001
 21
541.3083868292842
 31
0.0
  0
LINE
  5
1B5
330
1F
100
AcDbEntity
  8
LAY-10
  6
CONTINUOUS
 62
     7
100
AcDbLine
 10
485.0000000000006
 20
541.3083868292842
 30
0.0
 11
485.9446543973148
 21
541.7023535927897
 31
0.0
  0
LINE
  5
1B6
330
1F
100
AcDbEntity
  8
LAY-10
  6
CONTINUOUS
 62
     7
100
AcDbLine
 10
443.1201275813419
 20
536.5730749214122
 30
0.0
 11
444.0553456026857
 21
541.7023535927904
 31
0.0
  0
LINE
  5
1B7
330
1F
100
AcDbEntity
  8
LAY-10
  6
CONTINUOUS
 62
     7
100
AcDbLine
 10
486.8798724186586
 20
536.5730749214122
 30
0.0
 11
485.9446543973148
 21
541.7023535927897
 31
0.0
  0
ARC
  5
1B8
330
1F
100
AcDbEntity
  8
LAY-10
  6
CONTINUOUS
 62
     7
100
AcDbCircle
 10
465.0000000000005
 20
651.0000000000111
 30
0.0
 40
111.0807377657193
100
AcDbArc
 50
267.9363417797118
 51
272.0636582202883
  0
LINE
  5
1B9
330
1F
100
AcDbEntity
  8
LAY-10
  6
CONTINUOUS
 62
     7
100
AcDbLine
 10
460.6000000000047
 20
540.4260330511904
 30
0.0
 11
461.0000000000007
 21
539.991305283892
 31
0.0
  0
LINE
  5
1BA
330
1F
100
AcDbEntity
  8
LAY-10
  6
CONTINUOUS
 62
     7
100
AcDbLine
 10
469.3999999999967
 20
540.4260330511904
 30
0.0
 11
469.0000000000008
 21
539.991305283892
 31
0.0
  0
ARC
  5
1BB
330
1F
100
AcDbEntity
  8
LAY-10
  6
CONTINUOUS
 62
     7
100
AcDbCircle
 10
465.0000000000007
 20
651.0000000000105
 30
0.0
 40
111.2863606107273
100
AcDbArc
 50
250.8480511184137
 51
259.151948881582
  0
ARC
  5
1BC
330
1F
100
AcDbEntity
  8
LAY-10
  6
CONTINUOUS
 62
     7
100
AcDbCircle
 10
465.0000000000007
 20
651.0000000000105
 30
0.0
 40
110.6614755314552
100
AcDbArc
 50
183.328386645268
 51
267.7212674808251
  0
ARC
  5
1BD
330
1F
100
AcDbEntity
  8
LAY-10
  6
CONTINUOUS
 62
     7
100
AcDbCircle
 10
465.0000000000009
 20
651.0000000000099
 30
0.0
 40
116.4999999999998
100
AcDbArc
 50
349.1749904754549
 51
10.82500952454482
  0
LINE
  5
1BE
330
1F
100
AcDbEntity
  8
LAY-10
  6
CONTINUOUS
 62
     7
100
AcDbLine
 10
574.6916131707272
 20
671.00000000001
 30
0.0
 11
578.6267383069153
 21
671.717488789251
 31
0.0
  0
LINE
  5
1BF
330
1F
100
AcDbEntity
  8
LAY-10
  6
CONTINUOUS
 62
     7
100
AcDbLine
 10
579.4269250785992
 20
672.879872418668
 30
0.0
 11
574.2976464072217
 21
671.9446543973241
 31
0.0
  0
LINE
  5
1C0
330
1F
100
AcDbEntity
  8
LAY-10
  6
CONTINUOUS
 62
     7
100
AcDbLine
 10
578.6267383069153
 20
671.717488789251
 30
0.0
 11
579.4269250785992
 21
672.879872418668
 31
0.0
  0
LINE
  5
1C1
330
1F
100
AcDbEntity
  8
LAY-10
  6
CONTINUOUS
 62
     7
100
AcDbLine
 10
574.6916131707272
 20
631.0000000000095
 30
0.0
 11
578.6267383069153
 21
630.2825112107687
 31
0.0
  0
LINE
  5
1C2
330
1F
100
AcDbEntity
  8
LAY-10
  6
CONTINUOUS
 62
     7
100
AcDbLine
 10
579.4269250785992
 20
629.1201275813517
 30
0.0
 11
574.2976464072215
 21
630.0553456026955
 31
0.0
  0
LINE
  5
1C3
330
1F
100
AcDbEntity
  8
LAY-10
  6
CONTINUOUS
 62
     7
100
AcDbLine
 10
578.6267383069153
 20
630.2825112107687
 30
0.0
 11
579.4269250785992
 21
629.1201275813517
 31
0.0
  0
ARC
  5
1C4
330
1F
100
AcDbEntity
  8
LAY-10
  6
CONTINUOUS
 62
     7
100
AcDbCircle
 10
465.0000000000007
 20
651.0000000000105
 30
0.0
 40
115.5000000000017
100
AcDbArc
 50
349.6668057812607
 51
10.33319421873862
  0
ARC
  5
1C5
330
1F
100
AcDbEntity
  8
LAY-10
  6
CONTINUOUS
 62
     7
100
AcDbCircle
 10
465.0000000000007
 20
651.0000000000105
 30
0.0
 40
111.4999999999835
100
AcDbArc
 50
349.6668057812607
 51
10.33319421873867
  0
LINE
  5
1C6
330
1F
100
AcDbEntity
  8
LAY-10
  6
CONTINUOUS
 62
     7
100
AcDbLine
 10
574.2976464072215
 20
630.0553456026955
 30
0.0
 11
574.6916131707271
 21
631.0000000000095
 31
0.0
  0
LINE
  5
1C7
330
1F
100
AcDbEntity
  8
LAY-10
  6
CONTINUOUS
 62
     7
100
AcDbLine
 10
574.6916131707272
 20
671.00000000001
 30
0.0
 11
574.2976464072217
 21
671.9446543973241
 31
0.0
  0
ARC
  5
1C8
330
1F
100
AcDbEntity
  8
LAY-10
  6
CONTINUOUS
 62
     7
100
AcDbCircle
 10
465.0000000000007
 20
651.0000000000105
 30
0.0
 40
111.2863606107273
100
AcDbArc
 50
340.8480511184134
 51
349.1519488815863
  0
LINE
  5
1C9
330
1F
100
AcDbEntity
  8
LAY-10
  6
CONTINUOUS
 62
     7
100
AcDbLine
 10
569.9957235879456
 20
613.4747014903355
 30
0.0
 11
573.7623863175754
 21
612.1285024406548
 31
0.0
  0
LINE
  5
1CA
330
1F
100
AcDbEntity
  8
LAY-10
  6
CONTINUOUS
 62
     7
100
AcDbLine
 10
573.7623863175755
 20
612.1285024406548
 30
0.0
 11
575.0365602043348
 21
612.735062806831
 31
0.0
  0
LINE
  5
1CB
330
1F
100
AcDbEntity
  8
LAY-10
  6
CONTINUOUS
 62
     7
100
AcDbLine
 10
549.9957235879456
 20
578.8336853389578
 30
0.0
 11
553.0448975283343
 21
576.2447592524503
 31
0.0
  0
LINE
  5
1CC
330
1F
100
AcDbEntity
  8
LAY-10
  6
CONTINUOUS
 62
     7
100
AcDbLine
 10
553.0448975283343
 20
576.2447592524503
 30
0.0
 11
553.1566877856764
 21
574.8380121145898
 31
0.0
  0
ARC
  5
1CD
330
1F
100
AcDbEntity
  8
LAY-10
  6
CONTINUOUS
 62
     7
100
AcDbCircle
 10
465.0000000000007
 20
651.0000000000099
 30
0.0
 40
116.4999999999998
100
AcDbArc
 50
319.1749904754553
 51
340.8250095245448
  0
ARC
  5
1CE
330
1F
100
AcDbEntity
  8
LAY-10
  6
CONTINUOUS
 62
     7
100
AcDbCircle
 10
465.0000000000007
 20
651.0000000000105
 30
0.0
 40
111.4999999999835
100
AcDbArc
 50
319.6668057812611
 51
340.333194218739
  0
ARC
  5
1CF
330
1F
100
AcDbEntity
  8
LAY-10
  6
CONTINUOUS
 62
     7
100
AcDbCircle
 10
465.0000000000007
 20
651.0000000000105
 30
0.0
 40
115.5000000000017
100
AcDbArc
 50
319.6668057812611
 51
340.3331942187391
  0
LINE
  5
1D0
330
1F
100
AcDbEntity
  8
LAY-10
  6
CONTINUOUS
 62
     7
100
AcDbLine
 10
549.1822111638452
 20
578.2125740148396
 30
0.0
 11
549.9957235879453
 21
578.8336853389578
 31
0.0
  0
LINE
  5
1D1
330
1F
100
AcDbEntity
  8
LAY-10
  6
CONTINUOUS
 62
     7
100
AcDbLine
 10
569.9957235879456
 20
613.4747014903355
 30
0.0
 11
570.12686556116
 21
614.4897795779593
 31
0.0
  0
LINE
  5
1D2
330
1F
100
AcDbEntity
  8
LAY-10
  6
CONTINUOUS
 62
     7
100
AcDbLine
 10
553.1566877856762
 20
574.8380121145904
 30
0.0
 11
549.1822111638452
 21
578.2125740148396
 31
0.0
  0
LINE
  5
1D3
330
1F
100
AcDbEntity
  8
LAY-10
  6
CONTINUOUS
 62
     7
100
AcDbLine
 10
575.0365602043348
 20
612.735062806831
 30
0.0
 11
570.12686556116
 21
614.4897795779593
 31
0.0
  0
LINE
  5
1D4
330
1F
100
AcDbEntity
  8
LAY-10
  6
CONTINUOUS
 62
     7
100
AcDbLine
 10
537.1663146610526
 20
566.0042764120651
 30
0.0
 11
539.7552407475599
 21
562.9551024716758
 31
0.0
  0
LINE
  5
1D5
330
1F
100
AcDbEntity
  8
LAY-10
  6
CONTINUOUS
 62
     7
100
AcDbLine
 10
539.7552407475599
 20
562.9551024716758
 30
0.0
 11
541.1619878854203
 21
562.8433122143339
 31
0.0
  0
LINE
  5
1D6
330
1F
100
AcDbEntity
  8
LAY-10
  6
CONTINUOUS
 62
     7
100
AcDbLine
 10
502.5252985096746
 20
546.0042764120649
 30
0.0
 11
503.8714975593554
 21
542.2376136824347
 31
0.0
  0
LINE
  5
1D7
330
1F
100
AcDbEntity
  8
LAY-10
  6
CONTINUOUS
 62
     7
100
AcDbLine
 10
503.8714975593557
 20
542.2376136824346
 30
0.0
 11
503.264937193179
 21
540.9634397956756
 31
0.0
  0
ARC
  5
1D8
330
1F
100
AcDbEntity
  8
LAY-10
  6
CONTINUOUS
 62
     7
100
AcDbCircle
 10
465.0000000000003
 20
651.0000000000098
 30
0.0
 40
116.4999999999998
100
AcDbArc
 50
289.1749904754553
 51
310.8250095245453
  0
ARC
  5
1D9
330
1F
100
AcDbEntity
  8
LAY-10
  6
CONTINUOUS
 62
     7
100
AcDbCircle
 10
465.0000000000007
 20
651.0000000000099
 30
0.0
 40
111.4999999999835
100
AcDbArc
 50
289.666805781261
 51
310.333194218739
  0
ARC
  5
1DA
330
1F
100
AcDbEntity
  8
LAY-10
  6
CONTINUOUS
 62
     7
100
AcDbCircle
 10
465.0000000000007
 20
651.0000000000099
 30
0.0
 40
115.5000000000017
100
AcDbArc
 50
289.666805781261
 51
310.333194218739
  0
LINE
  5
1DB
330
1F
100
AcDbEntity
  8
LAY-10
  6
CONTINUOUS
 62
     7
100
AcDbLine
 10
501.5102204220511
 20
545.8731344388507
 30
0.0
 11
502.5252985096746
 21
546.0042764120649
 31
0.0
  0
LINE
  5
1DC
330
1F
100
AcDbEntity
  8
LAY-10
  6
CONTINUOUS
 62
     7
100
AcDbLine
 10
537.1663146610526
 20
566.0042764120651
 30
0.0
 11
537.7874259851706
 21
566.8177888361649
 31
0.0
  0
LINE
  5
1DD
330
1F
100
AcDbEntity
  8
LAY-10
  6
CONTINUOUS
 62
     7
100
AcDbLine
 10
503.264937193179
 20
540.9634397956756
 30
0.0
 11
501.5102204220511
 21
545.8731344388507
 31
0.0
  0
LINE
  5
1DE
330
1F
100
AcDbEntity
  8
LAY-10
  6
CONTINUOUS
 62
     7
100
AcDbLine
 10
541.1619878854203
 20
562.8433122143339
 30
0.0
 11
537.7874259851706
 21
566.8177888361649
 31
0.0
  0
LINE
  5
1DF
330
1F
100
AcDbEntity
  8
LAY-10
  6
CONTINUOUS
 62
     7
100
AcDbLine
 10
549.9957235879456
 20
723.1663146610624
 30
0.0
 11
553.0448975283348
 21
725.7552407475694
 31
0.0
  0
LINE
  5
1E0
330
1F
100
AcDbEntity
  8
LAY-10
  6
CONTINUOUS
 62
     7
100
AcDbLine
 10
553.0448975283348
 20
725.7552407475695
 30
0.0
 11
553.1566877856767
 21
727.1619878854299
 31
0.0
  0
LINE
  5
1E1
330
1F
100
AcDbEntity
  8
LAY-10
  6
CONTINUOUS
 62
     7
100
AcDbLine
 10
569.9957235879459
 20
688.5252985096841
 30
0.0
 11
573.7623863175759
 21
689.8714975593649
 31
0.0
  0
LINE
  5
1E2
330
1F
100
AcDbEntity
  8
LAY-10
  6
CONTINUOUS
 62
     7
100
AcDbLine
 10
573.7623863175759
 20
689.8714975593655
 30
0.0
 11
575.036560204335
 21
689.2649371931886
 31
0.0
  0
ARC
  5
1E3
330
1F
100
AcDbEntity
  8
LAY-10
  6
CONTINUOUS
 62
     7
100
AcDbCircle
 10
465.0000000000009
 20
651.0000000000099
 30
0.0
 40
116.4999999999998
100
AcDbArc
 50
19.17499047545519
 51
40.82500952454488
  0
ARC
  5
1E4
330
1F
100
AcDbEntity
  8
LAY-10
  6
CONTINUOUS
 62
     7
100
AcDbCircle
 10
465.0000000000007
 20
651.0000000000105
 30
0.0
 40
111.4999999999835
100
AcDbArc
 50
19.66680578126093
 51
40.33319421873886
  0
ARC
  5
1E5
330
1F
100
AcDbEntity
  8
LAY-10
  6
CONTINUOUS
 62
     7
100
AcDbCircle
 10
465.0000000000007
 20
651.0000000000105
 30
0.0
 40
115.5000000000017
100
AcDbArc
 50
19.66680578126093
 51
40.33319421873863
  0
LINE
  5
1E6
330
1F
100
AcDbEntity
  8
LAY-10
  6
CONTINUOUS
 62
     7
100
AcDbLine
 10
570.1268655611601
 20
687.5102204220609
 30
0.0
 11
569.9957235879458
 21
688.5252985096841
 31
0.0
  0
LINE
  5
1E7
330
1F
100
AcDbEntity
  8
LAY-10
  6
CONTINUOUS
 62
     7
100
AcDbLine
 10
549.9957235879456
 20
723.1663146610624
 30
0.0
 11
549.1822111638457
 21
723.7874259851802
 31
0.0
  0
LINE
  5
1E8
330
1F
100
AcDbEntity
  8
LAY-10
  6
CONTINUOUS
 62
     7
100
AcDbLine
 10
575.036560204335
 20
689.2649371931886
 30
0.0
 11
570.1268655611601
 21
687.5102204220609
 31
0.0
  0
LINE
  5
1E9
330
1F
100
AcDbEntity
  8
LAY-10
  6
CONTINUOUS
 62
     7
100
AcDbLine
 10
553.1566877856767
 20
727.1619878854299
 30
0.0
 11
549.1822111638457
 21
723.7874259851802
 31
0.0
  0
LINE
  5
1EA
330
1F
100
AcDbEntity
  8
LAY-10
  6
CONTINUOUS
 62
     7
100
AcDbLine
 10
502.5252985096753
 20
755.9957235879548
 30
0.0
 11
503.871497559356
 21
759.762386317585
 31
0.0
  0
LINE
  5
1EB
330
1F
100
AcDbEntity
  8
LAY-10
  6
CONTINUOUS
 62
     7
100
AcDbLine
 10
503.871497559356
 20
759.762386317585
 30
0.0
 11
503.2649371931797
 21
761.036560204344
 31
0.0
  0
LINE
  5
1EC
330
1F
100
AcDbEntity
  8
LAY-10
  6
CONTINUOUS
 62
     7
100
AcDbLine
 10
537.1663146610535
 20
735.9957235879546
 30
0.0
 11
539.7552407475605
 21
739.0448975283439
 31
0.0
  0
LINE
  5
1ED
330
1F
100
AcDbEntity
  8
LAY-10
  6
CONTINUOUS
 62
     7
100
AcDbLine
 10
539.7552407475606
 20
739.0448975283439
 30
0.0
 11
541.161987885421
 21
739.1566877856858
 31
0.0
  0
ARC
  5
1EE
330
1F
100
AcDbEntity
  8
LAY-10
  6
CONTINUOUS
 62
     7
100
AcDbCircle
 10
465.0000000000009
 20
651.0000000000099
 30
0.0
 40
116.4999999999998
100
AcDbArc
 50
49.17499047545486
 51
70.82500952454461
  0
ARC
  5
1EF
330
1F
100
AcDbEntity
  8
LAY-10
  6
CONTINUOUS
 62
     7
100
AcDbCircle
 10
465.0000000000009
 20
651.0000000000099
 30
0.0
 40
111.4999999999835
100
AcDbArc
 50
49.66680578126089
 51
70.33319421873894
  0
ARC
  5
1F0
330
1F
100
AcDbEntity
  8
LAY-10
  6
CONTINUOUS
 62
     7
100
AcDbCircle
 10
465.0000000000009
 20
651.0000000000099
 30
0.0
 40
115.5000000000017
100
AcDbArc
 50
49.66680578126083
 51
70.33319421873898
  0
LINE
  5
1F1
330
1F
100
AcDbEntity
  8
LAY-10
  6
CONTINUOUS
 62
     7
100
AcDbLine
 10
537.7874259851712
 20
735.1822111638547
 30
0.0
 11
537.1663146610533
 21
735.9957235879546
 31
0.0
  0
LINE
  5
1F2
330
1F
100
AcDbEntity
  8
LAY-10
  6
CONTINUOUS
 62
     7
100
AcDbLine
 10
502.5252985096753
 20
755.9957235879548
 30
0.0
 11
501.5102204220518
 21
756.1268655611696
 31
0.0
  0
LINE
  5
1F3
330
1F
100
AcDbEntity
  8
LAY-10
  6
CONTINUOUS
 62
     7
100
AcDbLine
 10
541.161987885421
 20
739.1566877856858
 30
0.0
 11
537.7874259851712
 21
735.1822111638547
 31
0.0
  0
LINE
  5
1F4
330
1F
100
AcDbEntity
  8
LAY-10
  6
CONTINUOUS
 62
     7
100
AcDbLine
 10
503.2649371931797
 20
761.0365602043439
 30
0.0
 11
501.5102204220518
 21
756.1268655611696
 31
0.0
  0
ARC
  5
1F5
330
1F
100
AcDbEntity
  8
LAY-10
  6
CONTINUOUS
 62
     7
100
AcDbCircle
 10
465.0000000000007
 20
651.0000000000105
 30
0.0
 40
111.2863606107273
100
AcDbArc
 50
40.84805111841307
 51
49.15194888158651
  0
ARC
  5
1F6
330
1F
100
AcDbEntity
  8
LAY-10
  6
CONTINUOUS
 62
     7
100
AcDbCircle
 10
465.0000000000007
 20
651.0000000000105
 30
0.0
 40
111.2863606107273
100
AcDbArc
 50
10.84805111841305
 51
19.15194888158644
  0
ARC
  5
1F7
330
1F
100
AcDbEntity
  8
LAY-10
  6
CONTINUOUS
 62
     7
100
AcDbCircle
 10
465.0000000000007
 20
651.0000000000105
 30
0.0
 40
111.2863606107273
100
AcDbArc
 50
310.8480511184133
 51
319.1519488815867
  0
ARC
  5
1F8
330
1F
100
AcDbEntity
  8
LAY-10
  6
CONTINUOUS
 62
     7
100
AcDbCircle
 10
465.0000000000007
 20
651.0000000000099
 30
0.0
 40
111.0807377657193
100
AcDbArc
 50
356.9036750229876
 51
3.096324977012451
  0
LINE
  5
1F9
330
1F
100
AcDbEntity
  8
LAY-10
  6
CONTINUOUS
 62
     7
100
AcDbLine
 10
575.9185751016332
 20
657.0000000000099
 30
0.0
 11
575.4748089373321
 21
657.4248546333035
 31
0.0
  0
LINE
  5
1FA
330
1F
100
AcDbEntity
  8
LAY-10
  6
CONTINUOUS
 62
     7
100
AcDbLine
 10
575.9185751016332
 20
645.0000000000099
 30
0.0
 11
575.474808937332
 21
644.5751453667168
 31
0.0
  0
ARC
  5
1FB
330
1F
100
AcDbEntity
  8
LAY-10
  6
CONTINUOUS
 62
     7
100
AcDbCircle
 10
465.0000000000007
 20
651.0000000000105
 30
0.0
 40
111.2863606107273
100
AcDbArc
 50
70.84805111841284
 51
79.15194888158675
  0
ARC
  5
1FC
330
1F
100
AcDbEntity
  8
LAY-10
  6
CONTINUOUS
 62
     7
100
AcDbCircle
 10
465.0000000000007
 20
651.0000000000105
 30
0.0
 40
110.6614755314552
100
AcDbArc
 50
3.328386645267476
 51
87.72126748082742
  0
ARC
  5
1FD
330
1F
100
AcDbEntity
  8
LAY-10
  6
CONTINUOUS
 62
     7
100
AcDbCircle
 10
465.0000000000007
 20
651.0000000000105
 30
0.0
 40
111.2863606107273
100
AcDbArc
 50
280.8480511184183
 51
289.1519488815867
  0
ARC
  5
1FE
330
1F
100
AcDbEntity
  8
LAY-10
  6
CONTINUOUS
 62
     7
100
AcDbCircle
 10
465.0000000000007
 20
651.0000000000105
 30
0.0
 40
110.6614755314552
100
AcDbArc
 50
272.278732519175
 51
356.6716133547322
  0
LINE
  5
1FF
330
1F
100
AcDbEntity
  8
LAY-10
  6
CONTINUOUS
 62
     7
100
AcDbLine
 10
566.5366072321347
 20
647.5570335802408
 30
0.0
 11
575.4633927678278
 21
652.7109156122615
 31
0.0
  0
LINE
  5
200
330
1F
100
AcDbEntity
  8
LAY-10
  6
CONTINUOUS
 62
     7
100
AcDbLine
 10
565.5366072321373
 20
649.2890843878425
 30
0.0
 11
574.4633927678011
 21
654.4429664198461
 31
0.0
  0
CIRCLE
  5
201
330
1F
100
AcDbEntity
  8
LAY-10
  6
CONTINUOUS
 62
     7
100
AcDbCircle
 10
570.499999999997
 20
651.0000000000102
 30
0.0
 40
5.25
  0
LINE
  5
202
330
1F
100
AcDbEntity
  8
LAY-10
  6
CONTINUOUS
 62
     7
100
AcDbLine
 10
355.5366072321347
 20
647.5570335802408
 30
0.0
 11
364.4633927678278
 21
652.7109156122615
 31
0.0
  0
LINE
  5
203
330
1F
100
AcDbEntity
  8
LAY-10
  6
CONTINUOUS
 62
     7
100
AcDbLine
 10
354.5366072321373
 20
649.2890843878425
 30
0.0
 11
363.4633927678011
 21
654.4429664198461
 31
0.0
  0
CIRCLE
  5
204
330
1F
100
AcDbEntity
  8
LAY-10
  6
CONTINUOUS
 62
     7
100
AcDbCircle
 10
359.499999999997
 20
651.0000000000102
 30
0.0
 40
5.25
  0
LINE
  5
205
330
1F
100
AcDbEntity
  8
LAY-10
  6
CONTINUOUS
 62
     7
100
AcDbLine
 10
461.0000000000007
 20
762.008694716129
 30
0.0
 11
461.0000000000007
 21
759.4262422111265
 31
0.0
  0
LINE
  5
206
330
1F
100
AcDbEntity
  8
LAY-10
  6
CONTINUOUS
 62
     7
100
AcDbLine
 10
460.6000000000047
 20
761.5739669488306
 30
0.0
 11
460.6000000000047
 21
759.4107466998818
 31
0.0
  0
LINE
  5
207
330
1F
100
AcDbEntity
  8
LAY-10
  6
CONTINUOUS
 62
     7
100
AcDbLine
 10
469.0000000000008
 20
762.008694716129
 30
0.0
 11
469.0000000000008
 21
759.4262422111243
 31
0.0
  0
LINE
  5
208
330
1F
100
AcDbEntity
  8
LAY-10
  6
CONTINUOUS
 62
     7
100
AcDbLine
 10
469.3999999999967
 20
761.5739669488306
 30
0.0
 11
469.3999999999967
 21
759.4107466998794
 31
0.0
  0
LINE
  5
209
330
1F
100
AcDbEntity
  8
LAY-10
  6
CONTINUOUS
 62
     7
100
AcDbLine
 10
356.6903917330234
 20
644.5751453667168
 30
0.0
 11
354.5251910626694
 21
644.5751453667168
 31
0.0
  0
LINE
  5
20A
330
1F
100
AcDbEntity
  8
LAY-10
  6
CONTINUOUS
 62
     7
100
AcDbLine
 10
356.6660256428992
 20
645.0000000000099
 30
0.0
 11
354.0814248983681
 21
645.0000000000099
 31
0.0
  0
LINE
  5
20B
330
1F
100
AcDbEntity
  8
LAY-10
  6
CONTINUOUS
 62
     7
100
AcDbLine
 10
356.6660256428872
 20
657.0000000000099
 30
0.0
 11
354.0814248983681
 21
657.0000000000099
 31
0.0
  0
LINE
  5
20C
330
1F
100
AcDbEntity
  8
LAY-10
  6
CONTINUOUS
 62
     7
100
AcDbLine
 10
356.6903917330106
 20
657.4248546333035
 30
0.0
 11
354.5251910626693
 21
657.4248546333035
 31
0.0
  0
LINE
  5
20D
330
1F
100
AcDbEntity
  8
LAY-10
  6
CONTINUOUS
 62
     7
100
AcDbLine
 10
461.0000000000007
 20
539.991305283892
 30
0.0
 11
461.0000000000007
 21
542.5737577891098
 31
0.0
  0
LINE
  5
20E
330
1F
100
AcDbEntity
  8
LAY-10
  6
CONTINUOUS
 62
     7
100
AcDbLine
 10
460.6000000000047
 20
540.4260330511904
 30
0.0
 11
460.6000000000047
 21
542.5892533003545
 31
0.0
  0
LINE
  5
20F
330
1F
100
AcDbEntity
  8
LAY-10
  6
CONTINUOUS
 62
     7
100
AcDbLine
 10
469.3999999999967
 20
540.4260330511904
 30
0.0
 11
469.3999999999967
 21
542.5892533003569
 31
0.0
  0
LINE
  5
210
330
1F
100
AcDbEntity
  8
LAY-10
  6
CONTINUOUS
 62
     7
100
AcDbLine
 10
469.0000000000008
 20
539.991305283892
 30
0.0
 11
469.0000000000008
 21
542.5737577891119
 31
0.0
  0
LINE
  5
211
330
1F
100
AcDbEntity
  8
LAY-10
  6
CONTINUOUS
 62
     7
100
AcDbLine
 10
573.333974357055
 20
657.0000000000099
 30
0.0
 11
575.9185751016332
 21
657.0000000000099
 31
0.0
  0
LINE
  5
212
330
1F
100
AcDbEntity
  8
LAY-10
  6
CONTINUOUS
 62
     7
100
AcDbLine
 10
573.3096082669317
 20
657.4248546333035
 30
0.0
 11
575.4748089373321
 21
657.4248546333035
 31
0.0
  0
LINE
  5
213
330
1F
100
AcDbEntity
  8
LAY-10
  6
CONTINUOUS
 62
     7
100
AcDbLine
 10
573.3339743570431
 20
645.0000000000099
 30
0.0
 11
575.9185751016332
 21
645.0000000000099
 31
0.0
  0
LINE
  5
214
330
1F
100
AcDbEntity
  8
LAY-10
  6
CONTINUOUS
 62
     7
100
AcDbLine
 10
573.3096082669189
 20
644.5751453667168
 30
0.0
 11
575.474808937332
 21
644.5751453667168
 31
0.0
  0
ARC
  5
215
330
1F
100
AcDbEntity
  8
LAY-10
  6
CONTINUOUS
 62
     7
100
AcDbCircle
 10
572.4816156975213
 20
230.9235176117166
 30
0.0
 40
2.0
100
AcDbArc
 50
299.1854187056056
 51
354.4798614152244
  0
ARC
  5
216
330
1F
100
AcDbEntity
  8
LAY-10
  6
CONTINUOUS
 62
     7
100
AcDbCircle
 10
392.9920280938789
 20
203.1938407511824
 30
0.0
 40
5.0
100
AcDbArc
 50
2.147585428298361
 51
79.11447294534145
  0
ARC
  5
217
330
1F
100
AcDbEntity
  8
LAY-10
  6
CONTINUOUS
 62
     7
100
AcDbCircle
 10
391.0914778124776
 20
200.5043614295579
 30
0.0
 40
3.000000000000002
100
AcDbArc
 50
2.147585428298017
 51
79.11447294534145
  0
LINE
  5
218
330
1F
100
AcDbEntity
  8
LAY-10
  6
CONTINUOUS
 62
     7
100
AcDbLine
 10
391.6580199934278
 20
203.4503807704998
 30
0.0
 11
368.0000000000313
 21
207.9999999999993
 31
0.0
  0
LINE
  5
219
330
1F
100
AcDbEntity
  8
LAY-10
  6
CONTINUOUS
 62
     7
100
AcDbLine
 10
397.8780295834326
 20
207.327518093922
 30
0.0
 11
531.97301931733
 21
207.327518093922
 31
0.0
  0
ARC
  5
21A
330
1F
100
AcDbEntity
  8
LAY-10
  6
CONTINUOUS
 62
     7
100
AcDbCircle
 10
537.0079719061804
 20
203.1938407511823
 30
0.0
 40
5.0
100
AcDbArc
 50
100.8855270546585
 51
177.8524145717018
  0
ARC
  5
21B
330
1F
100
AcDbEntity
  8
LAY-10
  6
CONTINUOUS
 62
     7
100
AcDbCircle
 10
538.9085221875818
 20
200.5043614295578
 30
0.0
 40
3.000000000000002
100
AcDbArc
 50
100.8855270546584
 51
177.8524145717016
  0
LINE
  5
21C
330
1F
100
AcDbEntity
  8
LAY-10
  6
CONTINUOUS
 62
     7
100
AcDbLine
 10
369.1355363576106
 20
212.8732438908008
 30
0.0
 11
393.9362650621295
 21
208.1038729860856
 31
0.0
  0
LINE
  5
21D
330
1F
100
AcDbEntity
  8
LAY-10
  6
CONTINUOUS
 62
     7
100
AcDbLine
 10
561.5235954102739
 20
212.9999999999979
 30
0.0
 11
536.0637349379298
 21
208.1038729860856
 31
0.0
  0
LINE
  5
21E
330
1F
100
AcDbEntity
  8
LAY-10
  6
CONTINUOUS
 62
     7
100
AcDbLine
 10
369.128893351417
 20
212.9999999999979
 30
0.0
 11
562.8711066486337
 21
212.9999999999979
 31
0.0
  0
LINE
  5
21F
330
1F
100
AcDbEntity
  8
LAY-10
  6
CONTINUOUS
 62
     7
100
AcDbLine
 10
397.9885161724259
 20
203.3812090541279
 30
0.0
 11
399.5028115119557
 21
163.0000000000004
 31
0.0
  0
LINE
  5
220
330
1F
100
AcDbEntity
  8
LAY-10
  6
CONTINUOUS
 62
     7
100
AcDbLine
 10
395.5000000000305
 20
163.0000000000004
 30
0.0
 11
394.0893706596062
 21
200.6167824113251
 31
0.0
  0
LINE
  5
221
330
1F
100
AcDbEntity
  8
LAY-10
  6
CONTINUOUS
 62
     7
100
AcDbLine
 10
369.1355363576117
 20
212.8732438908006
 30
0.0
 11
368.5000000000216
 21
225.0000000000004
 31
0.0
  0
LINE
  5
222
330
1F
100
AcDbEntity
  8
LAY-10
  6
CONTINUOUS
 62
     7
100
AcDbLine
 10
473.6288933514472
 20
212.9999999999979
 30
0.0
 11
473.0000000000509
 21
225.0000000000003
 31
0.0
  0
LINE
  5
223
330
1F
100
AcDbEntity
  8
LAY-10
  6
CONTINUOUS
 62
     7
100
AcDbLine
 10
458.3711066486169
 20
212.9999999999979
 30
0.0
 11
459.0000000000135
 21
225.0000000000003
 31
0.0
  0
LINE
  5
224
330
1F
100
AcDbEntity
  8
LAY-10
  6
CONTINUOUS
 62
     7
100
AcDbLine
 10
532.0114838276357
 20
203.3812090541277
 30
0.0
 11
530.497188488106
 21
163.0000000000004
 31
0.0
  0
LINE
  5
225
330
1F
100
AcDbEntity
  8
LAY-10
  6
CONTINUOUS
 62
     7
100
AcDbLine
 10
534.5000000000309
 20
163.0000000000004
 30
0.0
 11
535.9106293404556
 21
200.616782411325
 31
0.0
  0
LINE
  5
226
330
1F
100
AcDbEntity
  8
LAY-10
  6
CONTINUOUS
 62
     7
100
AcDbLine
 10
538.3419800066313
 20
203.4503807705005
 30
0.0
 11
558.9691138723198
 21
207.417137283133
 31
0.0
  0
LINE
  5
227
330
1F
100
AcDbEntity
  8
LAY-10
  6
CONTINUOUS
 62
     7
100
AcDbLine
 10
562.8711066486346
 20
212.9999999999979
 30
0.0
 11
563.500000000031
 21
225.0000000000004
 31
0.0
  0
LINE
  5
228
330
1F
100
AcDbEntity
  8
LAY-10
  6
CONTINUOUS
 62
     7
100
AcDbLine
 10
536.30793278004
 20
202.0
 30
0.0
 11
563.8349749850016
 21
202.0
 31
0.0
  0
ARC
  5
229
330
1F
100
AcDbEntity
  8
LAY-10
  6
CONTINUOUS
 62
     7
100
AcDbCircle
 10
368.6592664634249
 20
203.0
 30
0.0
 40
1.0
100
AcDbArc
 50
270.0000000000002
 51
357.0000000000076
  0
ARC
  5
22A
330
1F
100
AcDbEntity
  8
LAY-10
  6
CONTINUOUS
 62
     7
100
AcDbCircle
 10
366.1650250150583
 20
203.0
 30
0.0
 40
1.0
100
AcDbArc
 50
182.9999999999925
 51
270.0000000000002
  0
LINE
  5
22B
330
1F
100
AcDbEntity
  8
LAY-10
  6
CONTINUOUS
 62
     7
100
AcDbLine
 10
369.6578959981793
 20
202.9476640437572
 30
0.0
 11
369.8434091993354
 21
206.4874667923954
 31
0.0
  0
LINE
  5
22C
330
1F
100
AcDbEntity
  8
LAY-10
  6
CONTINUOUS
 62
     7
100
AcDbLine
 10
365.1663954803038
 20
202.9476640437572
 30
0.0
 11
364.951278740685
 21
207.0523359562432
 31
0.0
  0
ARC
  5
22D
330
1F
100
AcDbEntity
  8
LAY-10
  6
CONTINUOUS
 62
     7
100
AcDbCircle
 10
370.8420387340898
 20
206.4351308361524
 30
0.0
 40
1.0
100
AcDbArc
 50
79.11447294532803
 51
176.9999999999979
  0
LINE
  5
22E
330
1F
100
AcDbEntity
  8
LAY-10
  6
CONTINUOUS
 62
     7
100
AcDbLine
 10
393.69206722002
 20
202.0
 30
0.0
 11
366.1650250150583
 21
202.0
 31
0.0
  0
ARC
  5
22F
330
1F
100
AcDbEntity
  8
LAY-10
  6
CONTINUOUS
 62
     7
100
AcDbCircle
 10
363.9526492059306
 20
207.0000000000003
 30
0.0
 40
1.0
100
AcDbArc
 50
3.000000000002355
 51
90.00000000000004
  0
LINE
  5
230
330
1F
100
AcDbEntity
  8
LAY-10
  6
CENTER
 62
     2
100
AcDbLine
 10
359.5000000000308
 20
214.7000000000001
 30
0.0
 11
359.5000000000308
 21
239.0
 31
0.0
  0
LINE
  5
231
330
1F
100
AcDbEntity
  8
LAY-10
  6
CENTER
 62
     2
100
AcDbLine
 10
465.0000000000307
 20
409.8999999999899
 30
0.0
 11
465.0000000000307
 21
146.19999999999
 31
0.0
  0
LINE
  5
232
330
1F
100
AcDbEntity
  8
LAY-10
  6
CENTER
 62
     2
100
AcDbLine
 10
604.7000000000188
 20
198.5000000000134
 30
0.0
 11
593.5000000000199
 21
198.5000000000134
 31
0.0
  0
ARC
  5
233
330
1F
100
AcDbEntity
  8
LAY-10
  6
CENTER
 62
     2
100
AcDbCircle
 10
593.5000000000199
 20
203.0000000000134
 30
0.0
 40
4.5
100
AcDbArc
 50
180.0
 51
270.0000000000002
  0
LINE
  5
234
330
1F
100
AcDbEntity
  8
LAY-10
  6
CENTER
 62
     2
100
AcDbLine
 10
589.0000000000201
 20
229.2013587594977
 30
0.0
 11
589.0000000000201
 21
203.0000000000134
 31
0.0
  0
LINE
  5
235
330
1F
100
AcDbEntity
  8
LAY-10
  6
CENTER
 62
     2
100
AcDbLine
 10
326.921077143581
 20
651.0000000000105
 30
0.0
 11
604.3210771435811
 21
651.0000000000105
 31
0.0
  0
LINE
  5
236
330
1F
100
AcDbEntity
  8
LAY-10
  6
CENTER
 62
     2
100
AcDbLine
 10
465.0000000000007
 20
789.90454601941
 30
0.0
 11
465.0000000000007
 21
512.7045460194099
 31
0.0
  0
LINE
  5
237
330
1F
100
AcDbEntity
  8
LAY-10
  6
CENTER
 62
     2
100
AcDbLine
 10
359.5000000000008
 20
645.00000000001
 30
0.0
 11
359.5000000000008
 21
657.00000000001
 31
0.0
  0
LINE
  5
238
330
1F
100
AcDbEntity
  8
LAY-10
  6
CENTER
 62
     2
100
AcDbLine
 10
570.5000000000006
 20
645.00000000001
 30
0.0
 11
570.5000000000006
 21
657.00000000001
 31
0.0
  0
LINE
  5
239
330
1F
100
AcDbEntity
  8
LAY-10
  6
CONTINUOUS
 62
     7
100
AcDbLine
 10
362.5000000000306
 20
219.000000000003
 30
0.0
 11
362.0000000000318
 21
218.5000000000022
 31
0.0
  0
LINE
  5
23A
330
1F
100
AcDbEntity
  8
LAY-10
  6
CONTINUOUS
 62
     7
100
AcDbLine
 10
356.5000000000308
 20
219.000000000003
 30
0.0
 11
357.0000000000322
 21
218.5000000000022
 31
0.0
  0
LINE
  5
23B
330
1F
100
AcDbEntity
  8
LAY-10
  6
CONTINUOUS
 62
     7
100
AcDbLine
 10
357.0000000000226
 20
232.4999999999995
 30
0.0
 11
357.0000000000226
 21
220.5000000000016
 31
0.0
  0
LINE
  5
23C
330
1F
100
AcDbEntity
  8
LAY-10
  6
CONTINUOUS
 62
     7
100
AcDbLine
 10
362.0000000000225
 20
232.4999999999995
 30
0.0
 11
362.0000000000225
 21
220.5000000000016
 31
0.0
  0
LINE
  5
23D
330
1F
100
AcDbEntity
  8
LAY-10
  6
CONTINUOUS
 62
     7
100
AcDbLine
 10
362.5000000000306
 20
219.000000000003
 30
0.0
 11
362.5000000000306
 21
221.0000000000017
 31
0.0
  0
LINE
  5
23E
330
1F
100
AcDbEntity
  8
LAY-10
  6
CONTINUOUS
 62
     7
100
AcDbLine
 10
356.5000000000308
 20
219.000000000003
 30
0.0
 11
356.5000000000308
 21
221.0000000000017
 31
0.0
  0
LINE
  5
23F
330
1F
100
AcDbEntity
  8
LAY-10
  6
CONTINUOUS
 62
     7
100
AcDbLine
 10
592.0000000000208
 20
225.500000000003
 30
0.0
 11
591.5000000000224
 21
226.0000000000037
 31
0.0
  0
LINE
  5
240
330
1F
100
AcDbEntity
  8
LAY-10
  6
CONTINUOUS
 62
     7
100
AcDbLine
 10
586.0000000000217
 20
225.500000000003
 30
0.0
 11
586.5000000000231
 21
226.0000000000037
 31
0.0
  0
LINE
  5
241
330
1F
100
AcDbEntity
  8
LAY-10
  6
CONTINUOUS
 62
     7
100
AcDbLine
 10
592.0000000000208
 20
225.500000000003
 30
0.0
 11
592.0000000000208
 21
223.5000000000139
 31
0.0
  0
LINE
  5
242
330
1F
100
AcDbEntity
  8
LAY-10
  6
CONTINUOUS
 62
     7
100
AcDbLine
 10
586.0000000000217
 20
225.500000000003
 30
0.0
 11
586.0000000000217
 21
223.5000000000139
 31
0.0
  0
LINE
  5
243
330
1F
100
AcDbEntity
  8
LAY-10
  6
CONTINUOUS
 62
     7
100
AcDbLine
 10
591.5000000000199
 20
224.0000000000079
 30
0.0
 11
591.5000000000199
 21
218.0000000000079
 31
0.0
  0
LINE
  5
244
330
1F
100
AcDbEntity
  8
LAY-10
  6
CONTINUOUS
 62
     7
100
AcDbLine
 10
586.5000000000199
 20
224.0000000000079
 30
0.0
 11
586.5000000000199
 21
218.0000000000079
 31
0.0
  0
LINE
  5
245
330
1F
100
AcDbEntity
  8
LAY-10
  6
CONTINUOUS
 62
     7
100
AcDbLine
 10
586.5000000000017
 20
217.1339745962129
 30
0.0
 11
586.0000000000017
 21
217.9999999999974
 31
0.0
  0
LINE
  5
246
330
1F
100
AcDbEntity
  8
LAY-10
  6
CONTINUOUS
 62
     7
100
AcDbLine
 10
591.500000000032
 20
217.1339745962164
 30
0.0
 11
592.000000000032
 21
218.000000000001
 31
0.0
  0
DIMENSION
  5
248
330
1F
100
AcDbEntity
  8
LAY-20
  6
CONTINUOUS
 62
     4
100
AcDbDimension
  2
*D15
 10
332.5000000000311
 20
477.0
 30
0.0
 11
465.0000000000312
 21
484.4999999999999
 31
0.0
 70
   160
  1
%%c<>
  3
ISO-25
100
AcDbAlignedDimension
 13
597.500000000031
 23
226.0
 33
0.0
 14
332.5000000000311
 24
226.0
 34
0.0
100
AcDbRotatedDimension
1001
ACAD
1000
DSTYLE
1002
{
1070
   270
1070
     2
1070
     6
1000
EX_BNORM
1070
     7
1000
EX_BNORM
1070
    41
1040
7.5
1070
    42
1040
4.5
1070
    44
1040
4.500000000000171
1070
    73
1070
     0
1070
    74
1070
     0
1070
    75
1070
     0
1070
    76
1070
     0
1070
    77
1070
     1
1070
    78
1070
     8
1070
   140
1040
9.3543312
1070
   147
1040
0.0
1070
   173
1070
     1
1070
   176
1070
     4
1070
   177
1070
     4
1070
   178
1070
     7
1070
   271
1070
     1
1070
   277
1070
     2
1070
   279
1070
     2
1070
   280
1070
     0
1070
   287
1070
     5
1070
   340
1005
247
1002
}
  0
DIMENSION
  5
256
330
1F
100
AcDbEntity
  8
LAY-20
  6
CONTINUOUS
 62
     4
100
AcDbDimension
  2
*D16
 10
576.5000000000091
 20
456.0
 30
0.0
 11
465.00000000003
 21
463.5
 31
0.0
 70
   160
  1
%%c<>
  3
ISO-25
100
AcDbAlignedDimension
 13
353.500000000051
 23
233.0000000000001
 33
0.0
 14
576.5000000000091
 24
233.0000000000001
 34
0.0
100
AcDbRotatedDimension
1001
ACAD
1000
DSTYLE
1002
{
1070
   270
1070
     2
1070
     6
1000
EX_BNORM
1070
     7
1000
EX_BNORM
1070
    41
1040
7.5
1070
    42
1040
4.5
1070
    44
1040
4.5
1070
    73
1070
     0
1070
    74
1070
     0
1070
    75
1070
     0
1070
    76
1070
     0
1070
    77
1070
     1
1070
    78
1070
     8
1070
   140
1040
9.3543312
1070
   147
1040
0.0
1070
   173
1070
     1
1070
   176
1070
     4
1070
   177
1070
     4
1070
   178
1070
     7
1070
   271
1070
     1
1070
   277
1070
     2
1070
   279
1070
     2
1070
   280
1070
     0
1070
   287
1070
     5
1070
   340
1005
247
1002
}
  0
DIMENSION
  5
263
330
1F
100
AcDbEntity
  8
LAY-20
  6
CONTINUOUS
 62
     4
100
AcDbDimension
  2
*D17
 10
534.500000000031
 20
123.0
 30
0.0
 11
465.000000000031
 21
130.5
 31
0.0
 70
   160
  1
%%c<>
  3
ISO-25
100
AcDbAlignedDimension
 13
395.5000000000311
 23
163.0
 33
0.0
 14
534.500000000031
 24
163.0
 34
0.0
100
AcDbRotatedDimension
1001
ACAD
1000
DSTYLE
1002
{
1070
   270
1070
     2
1070
     6
1000
EX_BNORM
1070
     7
1000
EX_BNORM
1070
    41
1040
7.5
1070
    42
1040
4.5
1070
    44
1040
4.5
1070
    73
1070
     0
1070
    74
1070
     0
1070
    75
1070
     0
1070
    76
1070
     0
1070
    77
1070
     1
1070
    78
1070
     8
1070
   140
1040
9.3543312
1070
   147
1040
0.0
1070
   173
1070
     1
1070
   176
1070
     4
1070
   177
1070
     4
1070
   178
1070
     7
1070
   271
1070
     1
1070
   277
1070
     2
1070
   279
1070
     2
1070
   280
1070
     0
1070
   287
1070
     5
1070
   340
1005
247
1002
}
  0
DIMENSION
  5
270
330
1F
100
AcDbEntity
  8
LAY-20
  6
CONTINUOUS
 62
     4
100
AcDbDimension
  2
*D18
 10
394.0000000000311
 20
102.0
 30
0.0
 11
465.000000000031
 21
109.5
 31
0.0
 70
   160
  1
%%c<>
  3
ISO-25
100
AcDbAlignedDimension
 13
536.000000000031
 23
203.0
 33
0.0
 14
394.0000000000311
 24
203.0
 34
0.0
100
AcDbRotatedDimension
1001
ACAD
1000
DSTYLE
1002
{
1070
   270
1070
     2
1070
     6
1000
EX_BNORM
1070
     7
1000
EX_BNORM
1070
    41
1040
7.5
1070
    42
1040
4.5
1070
    44
1040
4.5
1070
    73
1070
     0
1070
    74
1070
     0
1070
    75
1070
     0
1070
    76
1070
     0
1070
    77
1070
     1
1070
    78
1070
     8
1070
   140
1040
9.3543312
1070
   147
1040
0.0
1070
   173
1070
     1
1070
   176
1070
     4
1070
   177
1070
     4
1070
   178
1070
     7
1070
   271
1070
     1
1070
   277
1070
     2
1070
   279
1070
     2
1070
   280
1070
     0
1070
   287
1070
     5
1070
   340
1005
247
1002
}
  0
DIMENSION
  5
27D
330
1F
100
AcDbEntity
  8
LAY-20
  6
CONTINUOUS
 62
     4
100
AcDbDimension
  2
*D19
 10
302.500000000041
 20
233.0000000000001
 30
0.0
 11
295.000000000041
 21
220.5000000000001
 31
0.0
 70
   160
  3
ISO-25
100
AcDbAlignedDimension
 13
356.4984924984311
 23
208.0
 33
0.0
 14
333.5000000000309
 24
233.0000000000001
 34
0.0
 50
90.0
100
AcDbRotatedDimension
1001
ACAD
1000
DSTYLE
1002
{
1070
   270
1070
     2
1070
     6
1000
EX_BNORM
1070
     7
1000
EX_BNORM
1070
    41
1040
7.5
1070
    42
1040
4.5
1070
    44
1040
4.5
1070
    73
1070
     0
1070
    74
1070
     0
1070
    75
1070
     0
1070
    76
1070
     0
1070
    77
1070
     1
1070
    78
1070
     8
1070
   140
1040
9.3543312
1070
   147
1040
0.0
1070
   173
1070
     1
1070
   176
1070
     4
1070
   177
1070
     4
1070
   178
1070
     7
1070
   271
1070
     1
1070
   277
1070
     2
1070
   279
1070
     2
1070
   280
1070
     0
1070
   287
1070
     5
1070
   340
1005
247
1002
}
  0
LINE
  5
28A
330
1F
100
AcDbEntity
  8
LAY-20
  6
CONTINUOUS
 62
     7
100
AcDbLine
 10
532.4453959571055
 20
344.4065931277866
 30
0.0
 11
553.5000000000094
 21
224.9999999999999
 31
0.0
  0
LINE
  5
28B
330
1F
100
AcDbEntity
  8
LAY-20
  6
CONTINUOUS
 62
     7
100
AcDbLine
 10
397.5546040428969
 20
344.4065931277866
 30
0.0
 11
376.4999999999933
 21
224.9999999999999
 31
0.0
  0
ARC
  5
28C
330
1F
100
AcDbEntity
  8
LAY-20
  6
CONTINUOUS
 62
     7
100
AcDbCircle
 10
465.0000000000015
 20
332.5141500959853
 30
0.0
 40
68.485849904014
100
AcDbArc
 50
9.999999999998572
 51
170.0000000000013
  0
ARC
  5
28D
330
1F
100
AcDbEntity
  8
LAY-20
  6
CONTINUOUS
 62
     7
100
AcDbCircle
 10
465.0000000000015
 20
332.5141500959853
 30
0.0
 40
72.485849904014
100
AcDbArc
 50
9.999999999998572
 51
170.0000000000014
  0
LINE
  5
28E
330
1F
100
AcDbEntity
  8
LAY-20
  6
CONTINUOUS
 62
     7
100
AcDbLine
 10
393.6153730308482
 20
345.1011858384542
 30
0.0
 11
373.7607459077635
 21
232.4999999999996
 31
0.0
  0
LINE
  5
28F
330
1F
100
AcDbEntity
  8
LAY-20
  6
CONTINUOUS
 62
     7
100
AcDbLine
 10
505.0000000000015
 20
388.1047215724068
 30
0.0
 11
503.920437151549
 21
393.6647674946649
 31
0.0
  0
LINE
  5
290
330
1F
100
AcDbEntity
  8
LAY-20
  6
CONTINUOUS
 62
     7
100
AcDbLine
 10
425.0000000000013
 20
388.1047215724068
 30
0.0
 11
426.0795628484536
 21
393.6647674946649
 31
0.0
  0
LINE
  5
291
330
1F
100
AcDbEntity
  8
LAY-20
  6
CONTINUOUS
 62
     7
100
AcDbLine
 10
458.9768314507904
 20
229.9999999999996
 30
0.0
 11
460.7598061103423
 21
383.9133627553927
 31
0.0
  0
ARC
  5
292
330
1F
100
AcDbEntity
  8
LAY-20
  6
CONTINUOUS
 62
     7
100
AcDbCircle
 10
480.9173719725782
 20
384.0142621017978
 30
0.0
 40
4.090459470605653
100
AcDbArc
 50
3.130586503066043
 51
181.8508335772359
  0
LINE
  5
293
330
1F
100
AcDbEntity
  8
LAY-20
  6
CONTINUOUS
 62
     7
100
AcDbLine
 10
485.001727082291
 20
384.2376496987237
 30
0.0
 11
493.4375209827317
 21
229.9999999999996
 31
0.0
  0
LINE
  5
294
330
1F
100
AcDbEntity
  8
LAY-20
  6
CONTINUOUS
 62
     7
100
AcDbLine
 10
476.8290464989826
 20
383.8821503966203
 30
0.0
 11
481.801652867183
 21
229.9999999999996
 31
0.0
  0
ARC
  5
295
330
1F
100
AcDbEntity
  8
LAY-20
  6
CONTINUOUS
 62
     7
100
AcDbCircle
 10
495.7140644686871
 20
384.4510628783548
 30
0.0
 40
3.653658694049798
100
AcDbArc
 50
5.374307017585514
 51
184.2327928798203
  0
LINE
  5
296
330
1F
100
AcDbEntity
  8
LAY-20
  6
CONTINUOUS
 62
     7
100
AcDbLine
 10
499.3516619174335
 20
384.7932713725426
 30
0.0
 11
513.913903356504
 21
229.9999999999996
 31
0.0
  0
LINE
  5
297
330
1F
100
AcDbEntity
  8
LAY-20
  6
CONTINUOUS
 62
     7
100
AcDbLine
 10
492.0703715070398
 20
384.1813900138283
 30
0.0
 11
503.4814694067205
 21
229.9999999999996
 31
0.0
  0
ARC
  5
298
330
1F
100
AcDbEntity
  8
LAY-20
  6
CONTINUOUS
 62
     7
100
AcDbCircle
 10
508.3561371657848
 20
385.1374611751401
 30
0.0
 40
2.967260397269002
100
AcDbArc
 50
135.9024993145953
 51
186.3148643657193
  0
LINE
  5
299
330
1F
100
AcDbEntity
  8
LAY-20
  6
CONTINUOUS
 62
     7
100
AcDbLine
 10
505.4068807592504
 20
384.8110857567929
 30
0.0
 11
522.5388373998252
 21
229.9999999999996
 31
0.0
  0
LINE
  5
29A
330
1F
100
AcDbEntity
  8
LAY-20
  6
CONTINUOUS
 62
     7
100
AcDbLine
 10
511.6643529507504
 20
382.6414859593949
 30
0.0
 11
531.0568840505774
 21
229.9999999999996
 31
0.0
  0
LINE
  5
29B
330
1F
100
AcDbEntity
  8
LAY-20
  6
CONTINUOUS
 62
     7
100
AcDbLine
 10
517.1394492303344
 20
376.918986218109
 30
0.0
 11
537.6750287115564
 21
229.9999999999996
 31
0.0
  0
LINE
  5
29C
330
1F
100
AcDbEntity
  8
LAY-20
  6
CONTINUOUS
 62
     7
100
AcDbLine
 10
522.5662674843071
 20
369.6145070349759
 30
0.0
 11
543.6981972607667
 21
229.9999999999996
 31
0.0
  0
LINE
  5
29D
330
1F
100
AcDbEntity
  8
LAY-20
  6
CONTINUOUS
 62
     7
100
AcDbLine
 10
526.8277180389313
 20
361.9699630905999
 30
0.0
 11
547.8585369177589
 21
229.9999999999996
 31
0.0
  0
LINE
  5
29E
330
1F
100
AcDbEntity
  8
LAY-20
  6
CONTINUOUS
 62
     7
100
AcDbLine
 10
531.0037078311419
 20
350.7849516552103
 30
0.0
 11
550.9763583825551
 21
229.9999999999996
 31
0.0
  0
ARC
  5
29F
330
1F
100
AcDbEntity
  8
LAY-20
  6
CONTINUOUS
 62
     7
100
AcDbCircle
 10
465.0000000000011
 20
383.8642431849959
 30
0.0
 40
4.240478387406484
100
AcDbArc
 50
0.6637003561408616
 51
179.3362996438591
  0
ARC
  5
2A0
330
1F
100
AcDbEntity
  8
LAY-20
  6
CONTINUOUS
 62
     7
100
AcDbCircle
 10
449.0826280274241
 20
384.0142621017978
 30
0.0
 40
4.090459470605653
100
AcDbArc
 50
358.1491664227641
 51
176.869413496934
  0
LINE
  5
2A1
330
1F
100
AcDbEntity
  8
LAY-20
  6
CONTINUOUS
 62
     7
100
AcDbLine
 10
444.9982729177117
 20
384.2376496987237
 30
0.0
 11
436.5624790172706
 21
229.9999999999996
 31
0.0
  0
LINE
  5
2A2
330
1F
100
AcDbEntity
  8
LAY-20
  6
CONTINUOUS
 62
     7
100
AcDbLine
 10
453.1709535010199
 20
383.8821503966203
 30
0.0
 11
448.1983471328195
 21
229.9999999999996
 31
0.0
  0
ARC
  5
2A3
330
1F
100
AcDbEntity
  8
LAY-20
  6
CONTINUOUS
 62
     7
100
AcDbCircle
 10
434.2859355313154
 20
384.4510628783548
 30
0.0
 40
3.653658694049798
100
AcDbArc
 50
355.7672071201798
 51
174.6256929824145
  0
LINE
  5
2A4
330
1F
100
AcDbEntity
  8
LAY-20
  6
CONTINUOUS
 62
     7
100
AcDbLine
 10
430.6483380825691
 20
384.7932713725426
 30
0.0
 11
416.0860966434988
 21
229.9999999999996
 31
0.0
  0
LINE
  5
2A5
330
1F
100
AcDbEntity
  8
LAY-20
  6
CONTINUOUS
 62
     7
100
AcDbLine
 10
437.9296284929628
 20
384.1813900138283
 30
0.0
 11
426.5185305932822
 21
229.9999999999996
 31
0.0
  0
LINE
  5
2A6
330
1F
100
AcDbEntity
  8
LAY-20
  6
CONTINUOUS
 62
     7
100
AcDbLine
 10
424.5931192407522
 20
384.8110857567929
 30
0.0
 11
407.4611626001772
 21
229.9999999999996
 31
0.0
  0
ARC
  5
2A7
330
1F
100
AcDbEntity
  8
LAY-20
  6
CONTINUOUS
 62
     7
100
AcDbCircle
 10
421.6438628342177
 20
385.1374611751401
 30
0.0
 40
2.967260397269002
100
AcDbArc
 50
353.6851356342808
 51
44.0975006854048
  0
LINE
  5
2A8
330
1F
100
AcDbEntity
  8
LAY-20
  6
CONTINUOUS
 62
     7
100
AcDbLine
 10
418.3356470492522
 20
382.6414859593949
 30
0.0
 11
398.943115949425
 21
229.9999999999996
 31
0.0
  0
LINE
  5
2A9
330
1F
100
AcDbEntity
  8
LAY-20
  6
CONTINUOUS
 62
     7
100
AcDbLine
 10
412.860550769668
 20
376.918986218109
 30
0.0
 11
392.3249712884461
 21
229.9999999999996
 31
0.0
  0
LINE
  5
2AA
330
1F
100
AcDbEntity
  8
LAY-20
  6
CONTINUOUS
 62
     7
100
AcDbLine
 10
407.4337325156954
 20
369.6145070349759
 30
0.0
 11
386.3018027392357
 21
229.9999999999996
 31
0.0
  0
LINE
  5
2AB
330
1F
100
AcDbEntity
  8
LAY-20
  6
CONTINUOUS
 62
     7
100
AcDbLine
 10
403.1722819610711
 20
361.9699630905999
 30
0.0
 11
382.1414630822438
 21
229.9999999999996
 31
0.0
  0
LINE
  5
2AC
330
1F
100
AcDbEntity
  8
LAY-20
  6
CONTINUOUS
 62
     7
100
AcDbLine
 10
398.9962921688606
 20
350.7849516552103
 30
0.0
 11
379.0236416174473
 21
229.9999999999996
 31
0.0
  0
LINE
  5
2AD
330
1F
100
AcDbEntity
  8
LAY-20
  6
CONTINUOUS
 62
     7
100
AcDbLine
 10
367.7937284085782
 20
226.895328087514
 30
0.0
 11
367.5000000000349
 21
232.4999999999996
 31
0.0
  0
ARC
  5
2AE
330
1F
100
AcDbEntity
  8
LAY-20
  6
CONTINUOUS
 62
     7
100
AcDbCircle
 10
369.7909874780873
 20
226.9999999999999
 30
0.0
 40
2.0
100
AcDbArc
 50
182.9999999999999
 51
270.0
  0
LINE
  5
2AF
330
1F
100
AcDbEntity
  8
LAY-20
  6
CONTINUOUS
 62
     7
100
AcDbLine
 10
556.6800715440102
 20
229.9999999999996
 30
0.0
 11
536.3846269691543
 21
345.1011858384542
 31
0.0
  0
LINE
  5
2B0
330
1F
100
AcDbEntity
  8
LAY-20
  6
CONTINUOUS
 62
     7
100
AcDbLine
 10
481.801652867183
 20
229.9999999999996
 30
0.0
 11
493.4375209827317
 21
229.9999999999996
 31
0.0
  0
LINE
  5
2B1
330
1F
100
AcDbEntity
  8
LAY-20
  6
CONTINUOUS
 62
     7
100
AcDbLine
 10
503.4814694067205
 20
229.9999999999996
 30
0.0
 11
513.913903356504
 21
229.9999999999996
 31
0.0
  0
LINE
  5
2B2
330
1F
100
AcDbEntity
  8
LAY-20
  6
CONTINUOUS
 62
     7
100
AcDbLine
 10
522.5388373998252
 20
229.9999999999996
 30
0.0
 11
531.0568840505774
 21
229.9999999999996
 31
0.0
  0
LINE
  5
2B3
330
1F
100
AcDbEntity
  8
LAY-20
  6
CONTINUOUS
 62
     7
100
AcDbLine
 10
537.6750287115564
 20
229.9999999999996
 30
0.0
 11
543.6981972607667
 21
229.9999999999996
 31
0.0
  0
LINE
  5
2B4
330
1F
100
AcDbEntity
  8
LAY-20
  6
CONTINUOUS
 62
     7
100
AcDbLine
 10
547.8585369177589
 20
229.9999999999996
 30
0.0
 11
550.9763583825551
 21
229.9999999999996
 31
0.0
  0
LINE
  5
2B5
330
1F
100
AcDbEntity
  8
LAY-20
  6
CONTINUOUS
 62
     7
100
AcDbLine
 10
458.9768314507904
 20
229.9999999999996
 30
0.0
 11
471.0231685492123
 21
229.9999999999996
 31
0.0
  0
LINE
  5
2B6
330
1F
100
AcDbEntity
  8
LAY-20
  6
CONTINUOUS
 62
     7
100
AcDbLine
 10
436.5624790172706
 20
229.9999999999996
 30
0.0
 11
448.1983471328195
 21
229.9999999999996
 31
0.0
  0
LINE
  5
2B7
330
1F
100
AcDbEntity
  8
LAY-20
  6
CONTINUOUS
 62
     7
100
AcDbLine
 10
416.0860966434988
 20
229.9999999999996
 30
0.0
 11
426.5185305932822
 21
229.9999999999996
 31
0.0
  0
LINE
  5
2B8
330
1F
100
AcDbEntity
  8
LAY-20
  6
CONTINUOUS
 62
     7
100
AcDbLine
 10
398.943115949425
 20
229.9999999999996
 30
0.0
 11
407.4611626001772
 21
229.9999999999996
 31
0.0
  0
LINE
  5
2B9
330
1F
100
AcDbEntity
  8
LAY-20
  6
CONTINUOUS
 62
     7
100
AcDbLine
 10
386.3018027392357
 20
229.9999999999996
 30
0.0
 11
392.3249712884461
 21
229.9999999999996
 31
0.0
  0
LINE
  5
2BA
330
1F
100
AcDbEntity
  8
LAY-20
  6
CONTINUOUS
 62
     7
100
AcDbLine
 10
379.0236416174473
 20
229.9999999999996
 30
0.0
 11
382.1414630822438
 21
229.9999999999996
 31
0.0
  0
LINE
  5
2BB
330
1F
100
AcDbEntity
  8
LAY-20
  6
CONTINUOUS
 62
     7
100
AcDbLine
 10
471.023168549212
 20
229.9999999999996
 30
0.0
 11
469.2401938896603
 21
383.9133627553927
 31
0.0
  0
LINE
  5
2BC
330
1F
100
AcDbEntity
  8
LAY-20
  6
CONTINUOUS
 62
     7
100
AcDbLine
 10
354.2518652431254
 20
232.4999999999996
 30
0.0
 11
377.8224523553065
 21
232.4999999999996
 31
0.0
  0
ARC
  5
2BD
330
1F
100
AcDbEntity
  8
LAY-20
  6
CONTINUOUS
 62
     7
100
AcDbCircle
 10
363.4999999999695
 20
651.0000000001181
 30
0.0
 40
4.0
100
AcDbArc
 50
270.0000000000001
 51
90.00000000000004
  0
LINE
  5
2BE
330
1F
100
AcDbEntity
  8
LAY-20
  6
CONTINUOUS
 62
     7
100
AcDbLine
 10
458.7218592396589
 20
742.4648591915759
 30
0.0
 11
462.0663879748587
 21
693.7391517718531
 31
0.0
  0
LINE
  5
2BF
330
1F
100
AcDbEntity
  8
LAY-20
  6
CONTINUOUS
 62
     7
100
AcDbLine
 10
471.2781407602823
 20
742.46485919158
 30
0.0
 11
467.9336120250988
 21
693.7391517718542
 31
0.0
  0
ARC
  5
2C0
330
1F
100
AcDbEntity
  8
LAY-20
  6
CONTINUOUS
 62
     7
100
AcDbCircle
 10
465.0000000000003
 20
651.0000000001181
 30
0.0
 40
91.68007154403782
100
AcDbArc
 50
93.92661886524269
 51
101.0733811348119
  0
ARC
  5
2C1
330
1F
100
AcDbEntity
  8
LAY-20
  6
CONTINUOUS
 62
     7
100
AcDbCircle
 10
464.9999999999786
 20
693.9405146711418
 30
0.0
 40
2.94051467113142
100
AcDbArc
 50
183.9266188652306
 51
356.0733811347961
  0
ARC
  5
2C2
330
1F
100
AcDbEntity
  8
LAY-20
  6
CONTINUOUS
 62
     7
100
AcDbCircle
 10
464.9999999999786
 20
693.9405146711418
 30
0.0
 40
3.940514671131423
100
AcDbArc
 50
183.9266188652311
 51
356.0733811347973
  0
LINE
  5
2C3
330
1F
100
AcDbEntity
  8
LAY-20
  6
CONTINUOUS
 62
     7
100
AcDbLine
 10
468.931264597256
 20
693.6706729775584
 30
0.0
 11
472.2757933324395
 21
742.3963803972844
 31
0.0
  0
LINE
  5
2C4
330
1F
100
AcDbEntity
  8
LAY-20
  6
CONTINUOUS
 62
     7
100
AcDbLine
 10
457.724206667502
 20
742.39638039728
 30
0.0
 11
461.0687354027015
 21
693.670672977557
 31
0.0
  0
ARC
  5
2C5
330
1F
100
AcDbEntity
  8
LAY-20
  6
CONTINUOUS
 62
     7
100
AcDbCircle
 10
453.8861769965854
 20
692.4773521150029
 30
0.0
 40
2.94051467113142
100
AcDbArc
 50
198.9266188652298
 51
11.07338113479943
  0
LINE
  5
2C6
330
1F
100
AcDbEntity
  8
LAY-20
  6
CONTINUOUS
 62
     7
100
AcDbLine
 10
447.3913707850353
 20
740.9731720876435
 30
0.0
 11
456.7719451692737
 21
693.0421251531673
 31
0.0
  0
LINE
  5
2C7
330
1F
100
AcDbEntity
  8
LAY-20
  6
CONTINUOUS
 62
     7
100
AcDbLine
 10
435.2629341821101
 20
737.7233672944334
 30
0.0
 11
451.1046419305226
 21
691.5235758270804
 31
0.0
  0
ARC
  5
2C8
330
1F
100
AcDbEntity
  8
LAY-20
  6
CONTINUOUS
 62
     7
100
AcDbCircle
 10
453.8861769965854
 20
692.4773521150029
 30
0.0
 40
3.940514671131423
100
AcDbArc
 50
198.9266188652293
 51
11.07338113479318
  0
LINE
  5
2C9
330
1F
100
AcDbEntity
  8
LAY-20
  6
CONTINUOUS
 62
     7
100
AcDbLine
 10
457.7533271705333
 20
693.2341912032736
 30
0.0
 11
448.3727527862949
 21
741.16523813775
 31
0.0
  0
LINE
  5
2CA
330
1F
100
AcDbEntity
  8
LAY-20
  6
CONTINUOUS
 62
     7
100
AcDbLine
 10
434.3169994131492
 20
737.3990103724002
 30
0.0
 11
450.1587071615619
 21
691.1992189050472
 31
0.0
  0
ARC
  5
2CB
330
1F
100
AcDbEntity
  8
LAY-20
  6
CONTINUOUS
 62
     7
100
AcDbCircle
 10
443.5297426644119
 20
688.1875765567925
 30
0.0
 40
2.94051467113142
100
AcDbArc
 50
213.9266188652307
 51
26.07338113479212
  0
LINE
  5
2CC
330
1F
100
AcDbEntity
  8
LAY-20
  6
CONTINUOUS
 62
     7
100
AcDbLine
 10
424.7045997911504
 20
733.349961993632
 30
0.0
 11
446.1710066526574
 21
689.4799971831895
 31
0.0
  0
LINE
  5
2CD
330
1F
100
AcDbEntity
  8
LAY-20
  6
CONTINUOUS
 62
     7
100
AcDbLine
 10
413.8305410172235
 20
727.0718212333167
 30
0.0
 11
441.0898415754548
 21
686.5463851580686
 31
0.0
  0
ARC
  5
2CE
330
1F
100
AcDbEntity
  8
LAY-20
  6
CONTINUOUS
 62
     7
100
AcDbCircle
 10
443.5297426644119
 20
688.1875765567925
 30
0.0
 40
3.940514671131423
100
AcDbArc
 50
213.9266188652312
 51
26.07338113479207
  0
LINE
  5
2CF
330
1F
100
AcDbEntity
  8
LAY-20
  6
CONTINUOUS
 62
     7
100
AcDbLine
 10
447.0692385214442
 20
689.9195190937875
 30
0.0
 11
425.6028316599371
 21
733.7894839042299
 31
0.0
  0
LINE
  5
2D0
330
1F
100
AcDbEntity
  8
LAY-20
  6
CONTINUOUS
 62
     7
100
AcDbLine
 10
413.0007879427325
 20
726.5136905717574
 30
0.0
 11
440.2600885009639
 21
685.9882544965091
 31
0.0
  0
ARC
  5
2D1
330
1F
100
AcDbEntity
  8
LAY-20
  6
CONTINUOUS
 62
     7
100
AcDbCircle
 10
434.6364708883789
 20
681.363529111613
 30
0.0
 40
2.94051467113142
100
AcDbArc
 50
228.9266188652328
 51
41.07338113479485
  0
LINE
  5
2D2
330
1F
100
AcDbEntity
  8
LAY-20
  6
CONTINUOUS
 62
     7
100
AcDbLine
 10
404.7638937301994
 20
720.1147380795018
 30
0.0
 11
436.8532329162775
 21
683.2955209963803
 31
0.0
  0
LINE
  5
2D3
330
1F
100
AcDbEntity
  8
LAY-20
  6
CONTINUOUS
 62
     7
100
AcDbLine
 10
395.885261920482
 20
711.2361062697789
 30
0.0
 11
432.7044790036126
 21
679.1467670837139
 31
0.0
  0
ARC
  5
2D4
330
1F
100
AcDbEntity
  8
LAY-20
  6
CONTINUOUS
 62
     7
100
AcDbCircle
 10
434.6364708883789
 20
681.363529111613
 30
0.0
 40
3.940514671131423
100
AcDbArc
 50
228.9266188652324
 51
41.0733811347964
  0
LINE
  5
2D5
330
1F
100
AcDbEntity
  8
LAY-20
  6
CONTINUOUS
 62
     7
100
AcDbLine
 10
437.607101635132
 20
683.9525460756068
 30
0.0
 11
405.5177624490537
 21
720.7717631587283
 31
0.0
  0
LINE
  5
2D6
330
1F
100
AcDbEntity
  8
LAY-20
  6
CONTINUOUS
 62
     7
100
AcDbLine
 10
395.2282368412558
 20
710.482237550924
 30
0.0
 11
432.0474539243862
 21
678.3928983648592
 31
0.0
  0
ARC
  5
2D7
330
1F
100
AcDbEntity
  8
LAY-20
  6
CONTINUOUS
 62
     7
100
AcDbCircle
 10
427.8124234431967
 20
672.4702573355825
 30
0.0
 40
2.94051467113142
100
AcDbArc
 50
243.9266188652298
 51
56.07338113480136
  0
LINE
  5
2D8
330
1F
100
AcDbEntity
  8
LAY-20
  6
CONTINUOUS
 62
     7
100
AcDbLine
 10
388.9281787666608
 20
702.1694589827592
 30
0.0
 11
429.4536148419196
 21
674.9101584245403
 31
0.0
  0
LINE
  5
2D9
330
1F
100
AcDbEntity
  8
LAY-20
  6
CONTINUOUS
 62
     7
100
AcDbLine
 10
382.6500380063527
 20
691.2954002088283
 30
0.0
 11
426.5200028168003
 21
669.8289933473368
 31
0.0
  0
ARC
  5
2DA
330
1F
100
AcDbEntity
  8
LAY-20
  6
CONTINUOUS
 62
     7
100
AcDbCircle
 10
427.8124234431967
 20
672.4702573355825
 30
0.0
 40
3.940514671131423
100
AcDbArc
 50
243.926618865232
 51
56.07338113479277
  0
LINE
  5
2DB
330
1F
100
AcDbEntity
  8
LAY-20
  6
CONTINUOUS
 62
     7
100
AcDbLine
 10
430.0117455034789
 20
675.7399114990315
 30
0.0
 11
389.4863094282201
 21
702.9992120572502
 31
0.0
  0
LINE
  5
2DC
330
1F
100
AcDbEntity
  8
LAY-20
  6
CONTINUOUS
 62
     7
100
AcDbLine
 10
382.2105160957549
 20
690.3971683400414
 30
0.0
 11
426.0804809062028
 21
668.9307614785497
 31
0.0
  0
ARC
  5
2DD
330
1F
100
AcDbEntity
  8
LAY-20
  6
CONTINUOUS
 62
     7
100
AcDbCircle
 10
423.5226478849826
 20
662.1138230034106
 30
0.0
 40
2.94051467113142
100
AcDbArc
 50
258.9266188652349
 51
71.07338113479452
  0
LINE
  5
2DE
330
1F
100
AcDbEntity
  8
LAY-20
  6
CONTINUOUS
 62
     7
100
AcDbLine
 10
378.2766327055439
 20
680.7370658178714
 30
0.0
 11
424.4764241729039
 21
664.8953580694738
 31
0.0
  0
LINE
  5
2DF
330
1F
100
AcDbEntity
  8
LAY-20
  6
CONTINUOUS
 62
     7
100
AcDbLine
 10
375.0268279123416
 20
668.6086292149442
 30
0.0
 11
422.9578748468194
 21
659.2280548307219
 31
0.0
  0
ARC
  5
2E0
330
1F
100
AcDbEntity
  8
LAY-20
  6
CONTINUOUS
 62
     7
100
AcDbCircle
 10
423.5226478849826
 20
662.1138230034106
 30
0.0
 40
3.940514671131423
100
AcDbArc
 50
258.926618865234
 51
71.07338113479342
  0
LINE
  5
2E1
330
1F
100
AcDbEntity
  8
LAY-20
  6
CONTINUOUS
 62
     7
100
AcDbLine
 10
424.8007810949372
 20
665.8412928384345
 30
0.0
 11
378.6009896275771
 21
681.6830005868325
 31
0.0
  0
LINE
  5
2E2
330
1F
100
AcDbEntity
  8
LAY-20
  6
CONTINUOUS
 62
     7
100
AcDbLine
 10
374.8347618622355
 20
667.6272472136844
 30
0.0
 11
422.7658087967133
 21
658.2466728294623
 31
0.0
  0
ARC
  5
2E3
330
1F
100
AcDbEntity
  8
LAY-20
  6
CONTINUOUS
 62
     7
100
AcDbCircle
 10
422.0594853288397
 20
651.0000000000178
 30
0.0
 40
2.94051467113142
100
AcDbArc
 50
273.9266188652285
 51
86.07338113479828
  0
LINE
  5
2E4
330
1F
100
AcDbEntity
  8
LAY-20
  6
CONTINUOUS
 62
     7
100
AcDbLine
 10
373.5351408084015
 20
657.2781407603214
 30
0.0
 11
422.2608482281274
 21
653.933612025138
 31
0.0
  0
LINE
  5
2E5
330
1F
100
AcDbEntity
  8
LAY-20
  6
CONTINUOUS
 62
     7
100
AcDbLine
 10
373.5351408084056
 20
644.7218592396981
 30
0.0
 11
422.2608482281286
 21
648.0663879748978
 31
0.0
  0
ARC
  5
2E6
330
1F
100
AcDbEntity
  8
LAY-20
  6
CONTINUOUS
 62
     7
100
AcDbCircle
 10
422.0594853288397
 20
651.0000000000178
 30
0.0
 40
3.940514671131423
100
AcDbArc
 50
273.9266188652294
 51
86.07338113479547
  0
LINE
  5
2E7
330
1F
100
AcDbEntity
  8
LAY-20
  6
CONTINUOUS
 62
     7
100
AcDbLine
 10
422.3293270224231
 20
654.9312645972952
 30
0.0
 11
373.6036196026972
 21
658.2757933324787
 31
0.0
  0
LINE
  5
2E8
330
1F
100
AcDbEntity
  8
LAY-20
  6
CONTINUOUS
 62
     7
100
AcDbLine
 10
373.6036196027014
 20
643.7242066675411
 30
0.0
 11
422.3293270224244
 21
647.0687354027406
 31
0.0
  0
ARC
  5
2E9
330
1F
100
AcDbEntity
  8
LAY-20
  6
CONTINUOUS
 62
     7
100
AcDbCircle
 10
423.5226478849788
 20
639.8861769966245
 30
0.0
 40
2.94051467113142
100
AcDbArc
 50
288.9266188652304
 51
101.0733811347949
  0
LINE
  5
2EA
330
1F
100
AcDbEntity
  8
LAY-20
  6
CONTINUOUS
 62
     7
100
AcDbLine
 10
375.026827912338
 20
633.3913707850745
 30
0.0
 11
422.9578748468144
 21
642.771945169313
 31
0.0
  0
LINE
  5
2EB
330
1F
100
AcDbEntity
  8
LAY-20
  6
CONTINUOUS
 62
     7
100
AcDbLine
 10
378.2766327055482
 20
621.2629341821494
 30
0.0
 11
424.4764241729011
 21
637.1046419305618
 31
0.0
  0
ARC
  5
2EC
330
1F
100
AcDbEntity
  8
LAY-20
  6
CONTINUOUS
 62
     7
100
AcDbCircle
 10
423.5226478849788
 20
639.8861769966245
 30
0.0
 40
3.940514671131423
100
AcDbArc
 50
288.9266188652276
 51
101.0733811347964
  0
LINE
  5
2ED
330
1F
100
AcDbEntity
  8
LAY-20
  6
CONTINUOUS
 62
     7
100
AcDbLine
 10
422.765808796708
 20
643.7533271705726
 30
0.0
 11
374.8347618622315
 21
634.3727527863341
 31
0.0
  0
LINE
  5
2EE
330
1F
100
AcDbEntity
  8
LAY-20
  6
CONTINUOUS
 62
     7
100
AcDbLine
 10
378.6009896275815
 20
620.3169994131885
 30
0.0
 11
424.8007810949347
 21
636.158707161601
 31
0.0
  0
ARC
  5
2EF
330
1F
100
AcDbEntity
  8
LAY-20
  6
CONTINUOUS
 62
     7
100
AcDbCircle
 10
427.8124234431892
 20
629.5297426644511
 30
0.0
 40
2.94051467113142
100
AcDbArc
 50
303.9266188652306
 51
116.0733811347961
  0
LINE
  5
2F0
330
1F
100
AcDbEntity
  8
LAY-20
  6
CONTINUOUS
 62
     7
100
AcDbLine
 10
382.6500380063497
 20
610.7045997911896
 30
0.0
 11
426.520002816792
 21
632.1710066526966
 31
0.0
  0
LINE
  5
2F1
330
1F
100
AcDbEntity
  8
LAY-20
  6
CONTINUOUS
 62
     7
100
AcDbLine
 10
388.9281787666649
 20
599.8305410172626
 30
0.0
 11
429.4536148419131
 21
627.089841575494
 31
0.0
  0
ARC
  5
2F2
330
1F
100
AcDbEntity
  8
LAY-20
  6
CONTINUOUS
 62
     7
100
AcDbCircle
 10
427.8124234431892
 20
629.5297426644511
 30
0.0
 40
3.940514671131423
100
AcDbArc
 50
303.9266188652313
 51
116.0733811347962
  0
LINE
  5
2F3
330
1F
100
AcDbEntity
  8
LAY-20
  6
CONTINUOUS
 62
     7
100
AcDbLine
 10
426.0804809061941
 20
633.0692385214834
 30
0.0
 11
382.2105160957518
 21
611.6028316599763
 31
0.0
  0
LINE
  5
2F4
330
1F
100
AcDbEntity
  8
LAY-20
  6
CONTINUOUS
 62
     7
100
AcDbLine
 10
389.4863094282242
 20
599.0007879427717
 30
0.0
 11
430.0117455034724
 21
626.260088501003
 31
0.0
  0
ARC
  5
2F5
330
1F
100
AcDbEntity
  8
LAY-20
  6
CONTINUOUS
 62
     7
100
AcDbCircle
 10
434.6364708883685
 20
620.6364708884181
 30
0.0
 40
2.94051467113142
100
AcDbArc
 50
318.9266188652311
 51
131.0733811347971
  0
LINE
  5
2F6
330
1F
100
AcDbEntity
  8
LAY-20
  6
CONTINUOUS
 62
     7
100
AcDbLine
 10
404.763893730203
 20
581.8852619205212
 30
0.0
 11
436.8532329162678
 21
618.7044790036517
 31
0.0
  0
ARC
  5
2F7
330
1F
100
AcDbEntity
  8
LAY-20
  6
CONTINUOUS
 62
     7
100
AcDbCircle
 10
434.6364708883685
 20
620.6364708884181
 30
0.0
 40
3.940514671131423
100
AcDbArc
 50
318.9266188652323
 51
131.073381134797
  0
LINE
  5
2F8
330
1F
100
AcDbEntity
  8
LAY-20
  6
CONTINUOUS
 62
     7
100
AcDbLine
 10
405.5177624490575
 20
581.2282368412947
 30
0.0
 11
437.6071016351225
 21
618.0474539244254
 31
0.0
  0
ARC
  5
2F9
330
1F
100
AcDbEntity
  8
LAY-20
  6
CONTINUOUS
 62
     7
100
AcDbCircle
 10
443.529742664399
 20
613.8124234432358
 30
0.0
 40
2.94051467113142
100
AcDbArc
 50
333.9266188652327
 51
146.0733811347934
  0
LINE
  5
2FA
330
1F
100
AcDbEntity
  8
LAY-20
  6
CONTINUOUS
 62
     7
100
AcDbLine
 10
413.8305410172225
 20
574.9281787667001
 30
0.0
 11
441.0898415754415
 21
615.4536148419587
 31
0.0
  0
LINE
  5
2FB
330
1F
100
AcDbEntity
  8
LAY-20
  6
CONTINUOUS
 62
     7
100
AcDbLine
 10
424.7045997911532
 20
568.6500380063919
 30
0.0
 11
446.1710066526451
 21
612.5200028168396
 31
0.0
  0
ARC
  5
2FC
330
1F
100
AcDbEntity
  8
LAY-20
  6
CONTINUOUS
 62
     7
100
AcDbCircle
 10
443.529742664399
 20
613.8124234432358
 30
0.0
 40
3.940514671131423
100
AcDbArc
 50
333.9266188652319
 51
146.0733811347947
  0
LINE
  5
2FD
330
1F
100
AcDbEntity
  8
LAY-20
  6
CONTINUOUS
 62
     7
100
AcDbLine
 10
440.2600885009502
 20
616.0117455035178
 30
0.0
 11
413.0007879427312
 21
575.486309428259
 31
0.0
  0
LINE
  5
2FE
330
1F
100
AcDbEntity
  8
LAY-20
  6
CONTINUOUS
 62
     7
100
AcDbLine
 10
425.6028316599403
 20
568.2105160957941
 30
0.0
 11
447.0692385214319
 21
612.0804809062419
 31
0.0
  0
ARC
  5
2FF
330
1F
100
AcDbEntity
  8
LAY-20
  6
CONTINUOUS
 62
     7
100
AcDbCircle
 10
465.0000000000003
 20
651.0000000001181
 30
0.0
 40
91.68007154403782
100
AcDbArc
 50
108.9266188652588
 51
116.0733811348271
  0
ARC
  5
300
330
1F
100
AcDbEntity
  8
LAY-20
  6
CONTINUOUS
 62
     7
100
AcDbCircle
 10
465.0000000000003
 20
651.0000000001181
 30
0.0
 40
91.68007154403782
100
AcDbArc
 50
123.9266188652725
 51
131.0733811348391
  0
ARC
  5
301
330
1F
100
AcDbEntity
  8
LAY-20
  6
CONTINUOUS
 62
     7
100
AcDbCircle
 10
465.0000000000003
 20
651.0000000001181
 30
0.0
 40
91.68007154403782
100
AcDbArc
 50
138.9266188652827
 51
146.0733811348472
  0
ARC
  5
302
330
1F
100
AcDbEntity
  8
LAY-20
  6
CONTINUOUS
 62
     7
100
AcDbCircle
 10
465.0000000000003
 20
651.0000000001181
 30
0.0
 40
91.68007154403782
100
AcDbArc
 50
153.9266188652886
 51
161.0733811348507
  0
ARC
  5
303
330
1F
100
AcDbEntity
  8
LAY-20
  6
CONTINUOUS
 62
     7
100
AcDbCircle
 10
465.0000000000003
 20
651.0000000001181
 30
0.0
 40
91.68007154403782
100
AcDbArc
 50
168.9266188652896
 51
176.0733811348496
  0
ARC
  5
304
330
1F
100
AcDbEntity
  8
LAY-20
  6
CONTINUOUS
 62
     7
100
AcDbCircle
 10
465.0000000000003
 20
651.0000000001181
 30
0.0
 40
91.68007154403782
100
AcDbArc
 50
183.9266188652857
 51
191.0733811348437
  0
ARC
  5
305
330
1F
100
AcDbEntity
  8
LAY-20
  6
CONTINUOUS
 62
     7
100
AcDbCircle
 10
465.0000000000003
 20
651.0000000001181
 30
0.0
 40
91.68007154403782
100
AcDbArc
 50
198.9266188652778
 51
206.0733811348336
  0
ARC
  5
306
330
1F
100
AcDbEntity
  8
LAY-20
  6
CONTINUOUS
 62
     7
100
AcDbCircle
 10
465.0000000000003
 20
651.0000000001181
 30
0.0
 40
91.68007154403782
100
AcDbArc
 50
213.9266188652655
 51
221.0733811348204
  0
ARC
  5
307
330
1F
100
AcDbEntity
  8
LAY-20
  6
CONTINUOUS
 62
     7
100
AcDbCircle
 10
465.0000000000003
 20
651.0000000001181
 30
0.0
 40
91.68007154403782
100
AcDbArc
 50
228.9266188652504
 51
236.0733811348036
  0
ARC
  5
308
330
1F
100
AcDbEntity
  8
LAY-20
  6
CONTINUOUS
 62
     7
100
AcDbCircle
 10
465.0000000000003
 20
651.0000000001181
 30
0.0
 40
91.68007154403782
100
AcDbArc
 50
243.9266188652331
 51
251.0733811347859
  0
ARC
  5
309
330
1F
100
AcDbEntity
  8
LAY-20
  6
CONTINUOUS
 62
     7
100
AcDbCircle
 10
465.0000000000003
 20
651.0000000001181
 30
0.0
 40
87.61836509649486
100
AcDbArc
 50
236.073381134804
 51
243.9266188652335
  0
ARC
  5
30A
330
1F
100
AcDbEntity
  8
LAY-20
  6
CONTINUOUS
 62
     7
100
AcDbCircle
 10
465.0000000000003
 20
651.0000000001181
 30
0.0
 40
87.61836509649486
100
AcDbArc
 50
221.0733811348213
 51
228.9266188652517
  0
ARC
  5
30B
330
1F
100
AcDbEntity
  8
LAY-20
  6
CONTINUOUS
 62
     7
100
AcDbCircle
 10
465.0000000000003
 20
651.0000000001181
 30
0.0
 40
87.61836509649486
100
AcDbArc
 50
206.0733811348356
 51
213.9266188652676
  0
ARC
  5
30C
330
1F
100
AcDbEntity
  8
LAY-20
  6
CONTINUOUS
 62
     7
100
AcDbCircle
 10
465.0000000000003
 20
651.0000000001181
 30
0.0
 40
87.61836509649486
100
AcDbArc
 50
191.0733811348462
 51
198.9266188652801
  0
ARC
  5
30D
330
1F
100
AcDbEntity
  8
LAY-20
  6
CONTINUOUS
 62
     7
100
AcDbCircle
 10
465.0000000000003
 20
651.0000000001181
 30
0.0
 40
87.61836509649486
100
AcDbArc
 50
176.0733811348523
 51
183.9266188652887
  0
ARC
  5
30E
330
1F
100
AcDbEntity
  8
LAY-20
  6
CONTINUOUS
 62
     7
100
AcDbCircle
 10
465.0000000000003
 20
651.0000000001181
 30
0.0
 40
87.61836509649486
100
AcDbArc
 50
161.0733811348534
 51
168.9266188652925
  0
ARC
  5
30F
330
1F
100
AcDbEntity
  8
LAY-20
  6
CONTINUOUS
 62
     7
100
AcDbCircle
 10
465.0000000000003
 20
651.0000000001181
 30
0.0
 40
87.61836509649486
100
AcDbArc
 50
146.0733811348495
 51
153.9266188652914
  0
ARC
  5
310
330
1F
100
AcDbEntity
  8
LAY-20
  6
CONTINUOUS
 62
     7
100
AcDbCircle
 10
465.0000000000003
 20
651.0000000001181
 30
0.0
 40
87.61836509649486
100
AcDbArc
 50
131.0733811348411
 51
138.9266188652853
  0
ARC
  5
311
330
1F
100
AcDbEntity
  8
LAY-20
  6
CONTINUOUS
 62
     7
100
AcDbCircle
 10
465.0000000000003
 20
651.0000000001181
 30
0.0
 40
87.61836509649486
100
AcDbArc
 50
116.0733811348285
 51
123.9266188652748
  0
ARC
  5
312
330
1F
100
AcDbEntity
  8
LAY-20
  6
CONTINUOUS
 62
     7
100
AcDbCircle
 10
465.0000000000003
 20
651.0000000001181
 30
0.0
 40
87.61836509649486
100
AcDbArc
 50
101.0733811348128
 51
108.9266188652605
  0
ARC
  5
313
330
1F
100
AcDbEntity
  8
LAY-20
  6
CONTINUOUS
 62
     7
100
AcDbCircle
 10
465.0000000000003
 20
651.0000000001181
 30
0.0
 40
87.61836509649486
100
AcDbArc
 50
86.07338113479467
 51
93.9266188652434
  0
TEXT
  5
314
330
1F
100
AcDbEntity
  8
LAY-20
  6
CONTINUOUS
 62
     7
100
AcDbText
 10
489.8117688508162
 20
751.0534256558459
 30
0.0
 40
5.456692828292274
  1
Ｘ
 50
168.4112657214682
 41
1.2
  7
EXCADSTD
100
AcDbText
  0
TEXT
  5
315
330
1F
100
AcDbEntity
  8
LAY-20
  6
CONTINUOUS
 62
     7
100
AcDbText
 10
481.64465245975
 20
752.7313491676501
 30
0.0
 40
5.456692828292274
  1
－
 50
173.04675943288
 41
1.2
  7
EXCADSTD
100
AcDbText
  0
TEXT
  5
316
330
1F
100
AcDbEntity
  8
LAY-20
  6
CONTINUOUS
 62
     7
100
AcDbText
 10
473.3686469319925
 20
753.743747291521
 30
0.0
 40
5.456692828292274
  1
９
 50
177.682253144294
 41
1.2
  7
EXCADSTD
100
AcDbText
  0
TEXT
  5
317
330
1F
100
AcDbEntity
  8
LAY-20
  6
CONTINUOUS
 62
     7
100
AcDbText
 10
465.0378938063563
 20
754.0839969298615
 30
0.0
 40
5.456692828292274
  1
１
 50
182.317746855706
 41
1.2
  7
EXCADSTD
100
AcDbText
  0
TEXT
  5
318
330
1F
100
AcDbEntity
  8
LAY-20
  6
CONTINUOUS
 62
     7
100
AcDbText
 10
456.7068927798481
 20
753.7498721732115
 30
0.0
 40
5.456692828292274
  1
５
 50
186.9532405671201
 41
1.2
  7
EXCADSTD
100
AcDbText
  0
TEXT
  5
319
330
1F
100
AcDbEntity
  8
LAY-20
  6
CONTINUOUS
 62
     7
100
AcDbText
 10
448.4301451712392
 20
752.7435588621215
 30
0.0
 40
5.456692828292274
  1
０
 50
191.5887342785318
 41
1.2
  7
EXCADSTD
100
AcDbText
  0
LINE
  5
31A
330
1F
100
AcDbEntity
  8
LAY-20
  6
CONTINUOUS
 62
     7
100
AcDbLine
 10
356.9618123069052
 20
661.0000000000101
 30
0.0
 11
373.8669350986044
 21
661.0000000000101
 31
0.0
  0
LINE
  5
31B
330
1F
100
AcDbEntity
  8
LAY-20
  6
CONTINUOUS
 62
     7
100
AcDbLine
 10
356.9618123069251
 20
641.0000000000101
 30
0.0
 11
373.8669350986281
 21
641.0000000000101
 31
0.0
  0
LINE
  5
31C
330
1F
100
AcDbEntity
  8
LAY-20
  6
CONTINUOUS
 62
     7
100
AcDbLine
 10
432.047453924375
 20
623.6071016351711
 30
0.0
 11
395.2323483736603
 21
591.521345804974
 31
0.0
  0
LINE
  5
31D
330
1F
100
AcDbEntity
  8
LAY-20
  6
CONTINUOUS
 62
     7
100
AcDbLine
 10
395.8852619206054
 20
590.7638937304022
 30
0.0
 11
432.7044790036014
 21
622.8532329163168
 31
0.0
  0
LINE
  5
31E
330
1F
100
AcDbEntity
  8
LAY-20
  6
CONTINUOUS
 62
     7
100
AcDbLine
 10
458.7218592396589
 20
559.5351408084443
 30
0.0
 11
462.0663879748587
 21
608.2608482281673
 31
0.0
  0
LINE
  5
31F
330
1F
100
AcDbEntity
  8
LAY-20
  6
CONTINUOUS
 62
     7
100
AcDbLine
 10
471.2781407602823
 20
559.5351408084402
 30
0.0
 11
467.9336120250988
 21
608.2608482281663
 31
0.0
  0
ARC
  5
320
330
1F
100
AcDbEntity
  8
LAY-20
  6
CONTINUOUS
 62
     7
100
AcDbCircle
 10
465.0000000000003
 20
650.9999999999022
 30
0.0
 40
91.68007154403782
100
AcDbArc
 50
258.9266188651886
 51
266.0733811347577
  0
ARC
  5
321
330
1F
100
AcDbEntity
  8
LAY-20
  6
CONTINUOUS
 62
     7
100
AcDbCircle
 10
464.9999999999786
 20
608.0594853288786
 30
0.0
 40
2.94051467113142
100
AcDbArc
 50
3.926618865201755
 51
176.0733811347716
  0
ARC
  5
322
330
1F
100
AcDbEntity
  8
LAY-20
  6
CONTINUOUS
 62
     7
100
AcDbCircle
 10
464.9999999999786
 20
608.0594853288786
 30
0.0
 40
3.940514671131423
100
AcDbArc
 50
3.926618865202843
 51
176.0733811347706
  0
LINE
  5
323
330
1F
100
AcDbEntity
  8
LAY-20
  6
CONTINUOUS
 62
     7
100
AcDbLine
 10
468.931264597256
 20
608.3293270224619
 30
0.0
 11
472.2757933324395
 21
559.6036196027359
 31
0.0
  0
LINE
  5
324
330
1F
100
AcDbEntity
  8
LAY-20
  6
CONTINUOUS
 62
     7
100
AcDbLine
 10
457.724206667502
 20
559.6036196027403
 30
0.0
 11
461.0687354027015
 21
608.3293270224633
 31
0.0
  0
ARC
  5
325
330
1F
100
AcDbEntity
  8
LAY-20
  6
CONTINUOUS
 62
     7
100
AcDbCircle
 10
453.8861769965854
 20
609.5226478850176
 30
0.0
 40
2.94051467113142
100
AcDbArc
 50
348.9266188652006
 51
161.0733811347704
  0
LINE
  5
326
330
1F
100
AcDbEntity
  8
LAY-20
  6
CONTINUOUS
 62
     7
100
AcDbLine
 10
447.3913707850353
 20
561.0268279123767
 30
0.0
 11
456.7719451692737
 21
608.9578748468532
 31
0.0
  0
LINE
  5
327
330
1F
100
AcDbEntity
  8
LAY-20
  6
CONTINUOUS
 62
     7
100
AcDbLine
 10
435.2629341821101
 20
564.2766327055868
 30
0.0
 11
451.1046419305226
 21
610.47642417294
 31
0.0
  0
ARC
  5
328
330
1F
100
AcDbEntity
  8
LAY-20
  6
CONTINUOUS
 62
     7
100
AcDbCircle
 10
453.8861769965854
 20
609.5226478850176
 30
0.0
 40
3.940514671131423
100
AcDbArc
 50
348.9266188652054
 51
161.0733811347708
  0
LINE
  5
329
330
1F
100
AcDbEntity
  8
LAY-20
  6
CONTINUOUS
 62
     7
100
AcDbLine
 10
457.7533271705333
 20
608.7658087967469
 30
0.0
 11
448.3727527862949
 21
560.8347618622704
 31
0.0
  0
LINE
  5
32A
330
1F
100
AcDbEntity
  8
LAY-20
  6
CONTINUOUS
 62
     7
100
AcDbLine
 10
434.3169994131492
 20
564.6009896276203
 30
0.0
 11
450.1587071615619
 21
610.8007810949732
 31
0.0
  0
ARC
  5
32B
330
1F
100
AcDbEntity
  8
LAY-20
  6
CONTINUOUS
 62
     7
100
AcDbCircle
 10
465.0000000000003
 20
650.9999999999022
 30
0.0
 40
87.61836509649486
100
AcDbArc
 50
251.0733811347395
 51
258.9266188651877
  0
ARC
  5
32C
330
1F
100
AcDbEntity
  8
LAY-20
  6
CONTINUOUS
 62
     7
100
AcDbCircle
 10
465.0000000000003
 20
650.9999999999022
 30
0.0
 40
87.61836509649486
100
AcDbArc
 50
266.0733811347569
 51
273.9266188652053
  0
ARC
  5
32D
330
1F
100
AcDbEntity
  8
LAY-20
  6
CONTINUOUS
 62
     7
100
AcDbCircle
 10
566.5000000000312
 20
651.0000000001181
 30
0.0
 40
4.0
100
AcDbArc
 50
90.00000000000004
 51
270.0000000000001
  0
ARC
  5
32E
330
1F
100
AcDbEntity
  8
LAY-20
  6
CONTINUOUS
 62
     7
100
AcDbCircle
 10
476.1138230034152
 20
692.4773521150029
 30
0.0
 40
2.94051467113142
100
AcDbArc
 50
168.9266188652008
 51
341.0733811347701
  0
LINE
  5
32F
330
1F
100
AcDbEntity
  8
LAY-20
  6
CONTINUOUS
 62
     7
100
AcDbLine
 10
482.6086292149654
 20
740.9731720876435
 30
0.0
 11
473.2280548307268
 21
693.0421251531673
 31
0.0
  0
LINE
  5
330
330
1F
100
AcDbEntity
  8
LAY-20
  6
CONTINUOUS
 62
     7
100
AcDbLine
 10
494.7370658178905
 20
737.7233672944334
 30
0.0
 11
478.895358069478
 21
691.5235758270804
 31
0.0
  0
ARC
  5
331
330
1F
100
AcDbEntity
  8
LAY-20
  6
CONTINUOUS
 62
     7
100
AcDbCircle
 10
476.1138230034152
 20
692.4773521150029
 30
0.0
 40
3.940514671131423
100
AcDbArc
 50
168.926618865207
 51
341.0733811347707
  0
LINE
  5
332
330
1F
100
AcDbEntity
  8
LAY-20
  6
CONTINUOUS
 62
     7
100
AcDbLine
 10
472.2466728294672
 20
693.2341912032736
 30
0.0
 11
481.6272472137058
 21
741.16523813775
 31
0.0
  0
LINE
  5
333
330
1F
100
AcDbEntity
  8
LAY-20
  6
CONTINUOUS
 62
     7
100
AcDbLine
 10
495.6830005868513
 20
737.3990103724002
 30
0.0
 11
479.8412928384388
 21
691.1992189050472
 31
0.0
  0
ARC
  5
334
330
1F
100
AcDbEntity
  8
LAY-20
  6
CONTINUOUS
 62
     7
100
AcDbCircle
 10
486.4702573355888
 20
688.1875765567925
 30
0.0
 40
2.94051467113142
100
AcDbArc
 50
153.9266188652085
 51
326.0733811347695
  0
LINE
  5
335
330
1F
100
AcDbEntity
  8
LAY-20
  6
CONTINUOUS
 62
     7
100
AcDbLine
 10
505.2954002088503
 20
733.349961993632
 30
0.0
 11
483.8289933473433
 21
689.4799971831895
 31
0.0
  0
LINE
  5
336
330
1F
100
AcDbEntity
  8
LAY-20
  6
CONTINUOUS
 62
     7
100
AcDbLine
 10
516.1694589827773
 20
727.0718212333167
 30
0.0
 11
488.9101584245458
 21
686.5463851580686
 31
0.0
  0
ARC
  5
337
330
1F
100
AcDbEntity
  8
LAY-20
  6
CONTINUOUS
 62
     7
100
AcDbCircle
 10
486.4702573355888
 20
688.1875765567925
 30
0.0
 40
3.940514671131423
100
AcDbArc
 50
153.926618865208
 51
326.0733811347686
  0
LINE
  5
338
330
1F
100
AcDbEntity
  8
LAY-20
  6
CONTINUOUS
 62
     7
100
AcDbLine
 10
482.9307614785565
 20
689.9195190937875
 30
0.0
 11
504.3971683400636
 21
733.7894839042299
 31
0.0
  0
LINE
  5
339
330
1F
100
AcDbEntity
  8
LAY-20
  6
CONTINUOUS
 62
     7
100
AcDbLine
 10
516.9992120572682
 20
726.5136905717574
 30
0.0
 11
489.7399114990369
 21
685.9882544965091
 31
0.0
  0
ARC
  5
33A
330
1F
100
AcDbEntity
  8
LAY-20
  6
CONTINUOUS
 62
     7
100
AcDbCircle
 10
495.3635291116217
 20
681.363529111613
 30
0.0
 40
2.94051467113142
100
AcDbArc
 50
138.9266188652053
 51
311.0733811347682
  0
LINE
  5
33B
330
1F
100
AcDbEntity
  8
LAY-20
  6
CONTINUOUS
 62
     7
100
AcDbLine
 10
525.2361062698014
 20
720.1147380795018
 30
0.0
 11
493.1467670837231
 21
683.2955209963803
 31
0.0
  0
LINE
  5
33C
330
1F
100
AcDbEntity
  8
LAY-20
  6
CONTINUOUS
 62
     7
100
AcDbLine
 10
534.1147380795187
 20
711.2361062697789
 30
0.0
 11
497.2955209963881
 21
679.1467670837139
 31
0.0
  0
ARC
  5
33D
330
1F
100
AcDbEntity
  8
LAY-20
  6
CONTINUOUS
 62
     7
100
AcDbCircle
 10
495.3635291116217
 20
681.363529111613
 30
0.0
 40
3.940514671131423
100
AcDbArc
 50
138.9266188652012
 51
311.0733811347701
  0
LINE
  5
33E
330
1F
100
AcDbEntity
  8
LAY-20
  6
CONTINUOUS
 62
     7
100
AcDbLine
 10
492.3928983648685
 20
683.9525460756068
 30
0.0
 11
524.482237550947
 21
720.7717631587283
 31
0.0
  0
LINE
  5
33F
330
1F
100
AcDbEntity
  8
LAY-20
  6
CONTINUOUS
 62
     7
100
AcDbLine
 10
534.7717631587449
 20
710.482237550924
 30
0.0
 11
497.9525460756144
 21
678.3928983648592
 31
0.0
  0
ARC
  5
340
330
1F
100
AcDbEntity
  8
LAY-20
  6
CONTINUOUS
 62
     7
100
AcDbCircle
 10
502.187576556804
 20
672.4702573355825
 30
0.0
 40
2.94051467113142
100
AcDbArc
 50
123.9266188652017
 51
296.0733811347686
  0
LINE
  5
341
330
1F
100
AcDbEntity
  8
LAY-20
  6
CONTINUOUS
 62
     7
100
AcDbLine
 10
541.0718212333398
 20
702.1694589827592
 30
0.0
 11
500.5463851580811
 21
674.9101584245403
 31
0.0
  0
LINE
  5
342
330
1F
100
AcDbEntity
  8
LAY-20
  6
CONTINUOUS
 62
     7
100
AcDbLine
 10
547.349961993648
 20
691.2954002088283
 30
0.0
 11
503.4799971832003
 21
669.8289933473368
 31
0.0
  0
ARC
  5
343
330
1F
100
AcDbEntity
  8
LAY-20
  6
CONTINUOUS
 62
     7
100
AcDbCircle
 10
502.187576556804
 20
672.4702573355825
 30
0.0
 40
3.940514671131423
100
AcDbArc
 50
123.9266188652066
 51
296.0733811347667
  0
LINE
  5
344
330
1F
100
AcDbEntity
  8
LAY-20
  6
CONTINUOUS
 62
     7
100
AcDbLine
 10
499.9882544965218
 20
675.7399114990315
 30
0.0
 11
540.5136905717806
 21
702.9992120572502
 31
0.0
  0
LINE
  5
345
330
1F
100
AcDbEntity
  8
LAY-20
  6
CONTINUOUS
 62
     7
100
AcDbLine
 10
547.7894839042458
 20
690.3971683400414
 30
0.0
 11
503.919519093798
 21
668.9307614785497
 31
0.0
  0
ARC
  5
346
330
1F
100
AcDbEntity
  8
LAY-20
  6
CONTINUOUS
 62
     7
100
AcDbCircle
 10
506.4773521150182
 20
662.1138230034106
 30
0.0
 40
2.94051467113142
100
AcDbArc
 50
108.9266188652045
 51
281.0733811347632
  0
LINE
  5
347
330
1F
100
AcDbEntity
  8
LAY-20
  6
CONTINUOUS
 62
     7
100
AcDbLine
 10
551.7233672944569
 20
680.7370658178714
 30
0.0
 11
505.5235758270968
 21
664.8953580694738
 31
0.0
  0
LINE
  5
348
330
1F
100
AcDbEntity
  8
LAY-20
  6
CONTINUOUS
 62
     7
100
AcDbLine
 10
554.9731720876591
 20
668.6086292149442
 30
0.0
 11
507.0421251531812
 21
659.2280548307219
 31
0.0
  0
ARC
  5
349
330
1F
100
AcDbEntity
  8
LAY-20
  6
CONTINUOUS
 62
     7
100
AcDbCircle
 10
506.4773521150182
 20
662.1138230034106
 30
0.0
 40
3.940514671131423
100
AcDbArc
 50
108.9266188652074
 51
281.073381134766
  0
LINE
  5
34A
330
1F
100
AcDbEntity
  8
LAY-20
  6
CONTINUOUS
 62
     7
100
AcDbLine
 10
505.1992189050636
 20
665.8412928384345
 30
0.0
 11
551.3990103724236
 21
681.6830005868325
 31
0.0
  0
LINE
  5
34B
330
1F
100
AcDbEntity
  8
LAY-20
  6
CONTINUOUS
 62
     7
100
AcDbLine
 10
555.1652381377652
 20
667.6272472136844
 30
0.0
 11
507.2341912032875
 21
658.2466728294623
 31
0.0
  0
ARC
  5
34C
330
1F
100
AcDbEntity
  8
LAY-20
  6
CONTINUOUS
 62
     7
100
AcDbCircle
 10
507.9405146711609
 20
651.0000000000178
 30
0.0
 40
2.94051467113142
100
AcDbArc
 50
93.92661886520288
 51
266.0733811347705
  0
LINE
  5
34D
330
1F
100
AcDbEntity
  8
LAY-20
  6
CONTINUOUS
 62
     7
100
AcDbLine
 10
556.4648591915993
 20
657.2781407603214
 30
0.0
 11
507.7391517718733
 21
653.933612025138
 31
0.0
  0
LINE
  5
34E
330
1F
100
AcDbEntity
  8
LAY-20
  6
CONTINUOUS
 62
     7
100
AcDbLine
 10
556.4648591915952
 20
644.7218592396981
 30
0.0
 11
507.7391517718722
 21
648.0663879748978
 31
0.0
  0
ARC
  5
34F
330
1F
100
AcDbEntity
  8
LAY-20
  6
CONTINUOUS
 62
     7
100
AcDbCircle
 10
507.9405146711609
 20
651.0000000000178
 30
0.0
 40
3.940514671131423
100
AcDbArc
 50
93.92661886520372
 51
266.0733811347699
  0
LINE
  5
350
330
1F
100
AcDbEntity
  8
LAY-20
  6
CONTINUOUS
 62
     7
100
AcDbLine
 10
507.6706729775776
 20
654.9312645972952
 30
0.0
 11
556.3963803973035
 21
658.2757933324787
 31
0.0
  0
LINE
  5
351
330
1F
100
AcDbEntity
  8
LAY-20
  6
CONTINUOUS
 62
     7
100
AcDbLine
 10
556.3963803972993
 20
643.7242066675411
 30
0.0
 11
507.6706729775762
 21
647.0687354027406
 31
0.0
  0
ARC
  5
352
330
1F
100
AcDbEntity
  8
LAY-20
  6
CONTINUOUS
 62
     7
100
AcDbCircle
 10
506.4773521150218
 20
639.8861769966245
 30
0.0
 40
2.94051467113142
100
AcDbArc
 50
78.92661886520403
 51
251.0733811347736
  0
LINE
  5
353
330
1F
100
AcDbEntity
  8
LAY-20
  6
CONTINUOUS
 62
     7
100
AcDbLine
 10
554.9731720876626
 20
633.3913707850745
 30
0.0
 11
507.0421251531863
 21
642.771945169313
 31
0.0
  0
LINE
  5
354
330
1F
100
AcDbEntity
  8
LAY-20
  6
CONTINUOUS
 62
     7
100
AcDbLine
 10
551.7233672944525
 20
621.2629341821494
 30
0.0
 11
505.5235758270995
 21
637.1046419305618
 31
0.0
  0
ARC
  5
355
330
1F
100
AcDbEntity
  8
LAY-20
  6
CONTINUOUS
 62
     7
100
AcDbCircle
 10
506.4773521150218
 20
639.8861769966245
 30
0.0
 40
3.940514671131423
100
AcDbArc
 50
78.92661886520358
 51
251.0733811347734
  0
LINE
  5
356
330
1F
100
AcDbEntity
  8
LAY-20
  6
CONTINUOUS
 62
     7
100
AcDbLine
 10
507.2341912032927
 20
643.7533271705726
 30
0.0
 11
555.1652381377692
 21
634.3727527863341
 31
0.0
  0
LINE
  5
357
330
1F
100
AcDbEntity
  8
LAY-20
  6
CONTINUOUS
 62
     7
100
AcDbLine
 10
551.3990103724193
 20
620.3169994131885
 30
0.0
 11
505.199218905066
 21
636.158707161601
 31
0.0
  0
ARC
  5
358
330
1F
100
AcDbEntity
  8
LAY-20
  6
CONTINUOUS
 62
     7
100
AcDbCircle
 10
502.1875765568115
 20
629.5297426644511
 30
0.0
 40
2.94051467113142
100
AcDbArc
 50
63.9266188652059
 51
236.0733811347695
  0
LINE
  5
359
330
1F
100
AcDbEntity
  8
LAY-20
  6
CONTINUOUS
 62
     7
100
AcDbLine
 10
547.349961993651
 20
610.7045997911896
 30
0.0
 11
503.4799971832086
 21
632.1710066526966
 31
0.0
  0
LINE
  5
35A
330
1F
100
AcDbEntity
  8
LAY-20
  6
CONTINUOUS
 62
     7
100
AcDbLine
 10
541.0718212333358
 20
599.8305410172626
 30
0.0
 11
500.5463851580875
 21
627.089841575494
 31
0.0
  0
ARC
  5
35B
330
1F
100
AcDbEntity
  8
LAY-20
  6
CONTINUOUS
 62
     7
100
AcDbCircle
 10
502.1875765568115
 20
629.5297426644511
 30
0.0
 40
3.940514671131423
100
AcDbArc
 50
63.92661886520384
 51
236.0733811347695
  0
LINE
  5
35C
330
1F
100
AcDbEntity
  8
LAY-20
  6
CONTINUOUS
 62
     7
100
AcDbLine
 10
503.9195190938066
 20
633.0692385214834
 30
0.0
 11
547.789483904249
 21
611.6028316599763
 31
0.0
  0
LINE
  5
35D
330
1F
100
AcDbEntity
  8
LAY-20
  6
CONTINUOUS
 62
     7
100
AcDbLine
 10
540.5136905717765
 20
599.0007879427717
 30
0.0
 11
499.9882544965282
 21
626.260088501003
 31
0.0
  0
ARC
  5
35E
330
1F
100
AcDbEntity
  8
LAY-20
  6
CONTINUOUS
 62
     7
100
AcDbCircle
 10
495.3635291116321
 20
620.6364708884181
 30
0.0
 40
2.94051467113142
100
AcDbArc
 50
48.92661886520204
 51
221.073381134769
  0
LINE
  5
35F
330
1F
100
AcDbEntity
  8
LAY-20
  6
CONTINUOUS
 62
     7
100
AcDbLine
 10
525.2361062697977
 20
581.8852619205212
 30
0.0
 11
493.146767083733
 21
618.7044790036517
 31
0.0
  0
ARC
  5
360
330
1F
100
AcDbEntity
  8
LAY-20
  6
CONTINUOUS
 62
     7
100
AcDbCircle
 10
495.3635291116321
 20
620.6364708884181
 30
0.0
 40
3.940514671131423
100
AcDbArc
 50
48.92661886520244
 51
221.0733811347678
  0
LINE
  5
361
330
1F
100
AcDbEntity
  8
LAY-20
  6
CONTINUOUS
 62
     7
100
AcDbLine
 10
524.4822375509432
 20
581.2282368412947
 30
0.0
 11
492.3928983648781
 21
618.0474539244254
 31
0.0
  0
ARC
  5
362
330
1F
100
AcDbEntity
  8
LAY-20
  6
CONTINUOUS
 62
     7
100
AcDbCircle
 10
486.4702573356016
 20
613.8124234432358
 30
0.0
 40
2.94051467113142
100
AcDbArc
 50
33.92661886520663
 51
206.0733811347669
  0
LINE
  5
363
330
1F
100
AcDbEntity
  8
LAY-20
  6
CONTINUOUS
 62
     7
100
AcDbLine
 10
516.1694589827782
 20
574.9281787667001
 30
0.0
 11
488.9101584245593
 21
615.4536148419587
 31
0.0
  0
LINE
  5
364
330
1F
100
AcDbEntity
  8
LAY-20
  6
CONTINUOUS
 62
     7
100
AcDbLine
 10
505.2954002088474
 20
568.6500380063919
 30
0.0
 11
483.8289933473555
 21
612.5200028168396
 31
0.0
  0
ARC
  5
365
330
1F
100
AcDbEntity
  8
LAY-20
  6
CONTINUOUS
 62
     7
100
AcDbCircle
 10
486.4702573356016
 20
613.8124234432358
 30
0.0
 40
3.940514671131423
100
AcDbArc
 50
33.92661886520359
 51
206.0733811347678
  0
LINE
  5
366
330
1F
100
AcDbEntity
  8
LAY-20
  6
CONTINUOUS
 62
     7
100
AcDbLine
 10
489.7399114990505
 20
616.0117455035178
 30
0.0
 11
516.9992120572695
 21
575.486309428259
 31
0.0
  0
LINE
  5
367
330
1F
100
AcDbEntity
  8
LAY-20
  6
CONTINUOUS
 62
     7
100
AcDbLine
 10
504.3971683400604
 20
568.2105160957941
 30
0.0
 11
482.9307614785688
 21
612.0804809062419
 31
0.0
  0
ARC
  5
368
330
1F
100
AcDbEntity
  8
LAY-20
  6
CONTINUOUS
 62
     7
100
AcDbCircle
 10
465.0000000000003
 20
651.0000000001181
 30
0.0
 40
91.68007154403782
100
AcDbArc
 50
63.92661886517308
 51
71.07338113474141
  0
ARC
  5
369
330
1F
100
AcDbEntity
  8
LAY-20
  6
CONTINUOUS
 62
     7
100
AcDbCircle
 10
465.0000000000003
 20
651.0000000001181
 30
0.0
 40
91.68007154403782
100
AcDbArc
 50
48.92661886516095
 51
56.0733811347278
  0
ARC
  5
36A
330
1F
100
AcDbEntity
  8
LAY-20
  6
CONTINUOUS
 62
     7
100
AcDbCircle
 10
465.0000000000003
 20
651.0000000001181
 30
0.0
 40
91.68007154403782
100
AcDbArc
 50
33.92661886515295
 51
41.07338113471733
  0
ARC
  5
36B
330
1F
100
AcDbEntity
  8
LAY-20
  6
CONTINUOUS
 62
     7
100
AcDbCircle
 10
465.0000000000003
 20
651.0000000001181
 30
0.0
 40
91.68007154403782
100
AcDbArc
 50
18.92661886514931
 51
26.07338113471163
  0
ARC
  5
36C
330
1F
100
AcDbEntity
  8
LAY-20
  6
CONTINUOUS
 62
     7
100
AcDbCircle
 10
465.0000000000003
 20
651.0000000001181
 30
0.0
 40
91.68007154403782
100
AcDbArc
 50
3.926618865150417
 51
11.07338113471045
  0
ARC
  5
36D
330
1F
100
AcDbEntity
  8
LAY-20
  6
CONTINUOUS
 62
     7
100
AcDbCircle
 10
465.0000000000003
 20
651.0000000001181
 30
0.0
 40
91.68007154403782
100
AcDbArc
 50
348.9266188651563
 51
356.0733811347146
  0
ARC
  5
36E
330
1F
100
AcDbEntity
  8
LAY-20
  6
CONTINUOUS
 62
     7
100
AcDbCircle
 10
465.0000000000003
 20
651.0000000001181
 30
0.0
 40
91.68007154403782
100
AcDbArc
 50
333.9266188651669
 51
341.0733811347225
  0
ARC
  5
36F
330
1F
100
AcDbEntity
  8
LAY-20
  6
CONTINUOUS
 62
     7
100
AcDbCircle
 10
465.0000000000003
 20
651.0000000001181
 30
0.0
 40
91.68007154403782
100
AcDbArc
 50
318.92661886518
 51
326.0733811347346
  0
ARC
  5
370
330
1F
100
AcDbEntity
  8
LAY-20
  6
CONTINUOUS
 62
     7
100
AcDbCircle
 10
465.0000000000003
 20
651.0000000001181
 30
0.0
 40
91.68007154403782
100
AcDbArc
 50
303.9266188651964
 51
311.07338113475
  0
ARC
  5
371
330
1F
100
AcDbEntity
  8
LAY-20
  6
CONTINUOUS
 62
     7
100
AcDbCircle
 10
465.0000000000003
 20
651.0000000001181
 30
0.0
 40
91.68007154403782
100
AcDbArc
 50
288.9266188652141
 51
296.0733811347669
  0
ARC
  5
372
330
1F
100
AcDbEntity
  8
LAY-20
  6
CONTINUOUS
 62
     7
100
AcDbCircle
 10
465.0000000000003
 20
651.0000000001181
 30
0.0
 40
87.61836509649486
100
AcDbArc
 50
296.0733811347669
 51
303.9266188651964
  0
ARC
  5
373
330
1F
100
AcDbEntity
  8
LAY-20
  6
CONTINUOUS
 62
     7
100
AcDbCircle
 10
465.0000000000003
 20
651.0000000001181
 30
0.0
 40
87.61836509649486
100
AcDbArc
 50
311.0733811347487
 51
318.9266188651791
  0
ARC
  5
374
330
1F
100
AcDbEntity
  8
LAY-20
  6
CONTINUOUS
 62
     7
100
AcDbCircle
 10
465.0000000000003
 20
651.0000000001181
 30
0.0
 40
87.61836509649486
100
AcDbArc
 50
326.0733811347328
 51
333.9266188651646
  0
ARC
  5
375
330
1F
100
AcDbEntity
  8
LAY-20
  6
CONTINUOUS
 62
     7
100
AcDbCircle
 10
465.0000000000003
 20
651.0000000001181
 30
0.0
 40
87.61836509649486
100
AcDbArc
 50
341.0733811347202
 51
348.9266188651541
  0
ARC
  5
376
330
1F
100
AcDbEntity
  8
LAY-20
  6
CONTINUOUS
 62
     7
100
AcDbCircle
 10
465.0000000000003
 20
651.0000000001181
 30
0.0
 40
87.61836509649486
100
AcDbArc
 50
356.0733811347115
 51
3.926618865147838
  0
ARC
  5
377
330
1F
100
AcDbEntity
  8
LAY-20
  6
CONTINUOUS
 62
     7
100
AcDbCircle
 10
465.0000000000003
 20
651.0000000001181
 30
0.0
 40
87.61836509649486
100
AcDbArc
 50
11.07338113470752
 51
18.92661886514673
  0
ARC
  5
378
330
1F
100
AcDbEntity
  8
LAY-20
  6
CONTINUOUS
 62
     7
100
AcDbCircle
 10
465.0000000000003
 20
651.0000000001181
 30
0.0
 40
87.61836509649486
100
AcDbArc
 50
26.07338113470876
 51
33.92661886515049
  0
ARC
  5
379
330
1F
100
AcDbEntity
  8
LAY-20
  6
CONTINUOUS
 62
     7
100
AcDbCircle
 10
465.0000000000003
 20
651.0000000001181
 30
0.0
 40
87.61836509649486
100
AcDbArc
 50
41.07338113471475
 51
48.92661886515894
  0
ARC
  5
37A
330
1F
100
AcDbEntity
  8
LAY-20
  6
CONTINUOUS
 62
     7
100
AcDbCircle
 10
465.0000000000003
 20
651.0000000001181
 30
0.0
 40
87.61836509649486
100
AcDbArc
 50
56.07338113472533
 51
63.92661886517163
  0
ARC
  5
37B
330
1F
100
AcDbEntity
  8
LAY-20
  6
CONTINUOUS
 62
     7
100
AcDbCircle
 10
465.0000000000003
 20
651.0000000001181
 30
0.0
 40
87.61836509649486
100
AcDbArc
 50
71.07338113473969
 51
78.92661886518749
  0
LINE
  5
37C
330
1F
100
AcDbEntity
  8
LAY-20
  6
CONTINUOUS
 62
     7
100
AcDbLine
 10
573.0381876930954
 20
661.0000000000101
 30
0.0
 11
556.1330649013963
 21
661.0000000000101
 31
0.0
  0
LINE
  5
37D
330
1F
100
AcDbEntity
  8
LAY-20
  6
CONTINUOUS
 62
     7
100
AcDbLine
 10
573.0381876930755
 20
641.0000000000101
 30
0.0
 11
556.1330649013726
 21
641.0000000000101
 31
0.0
  0
LINE
  5
37E
330
1F
100
AcDbEntity
  8
LAY-20
  6
CONTINUOUS
 62
     7
100
AcDbLine
 10
497.9525460756258
 20
623.6071016351711
 30
0.0
 11
534.7676516263405
 21
591.521345804974
 31
0.0
  0
LINE
  5
37F
330
1F
100
AcDbEntity
  8
LAY-20
  6
CONTINUOUS
 62
     7
100
AcDbLine
 10
534.1147380793954
 20
590.7638937304022
 30
0.0
 11
497.2955209963992
 21
622.8532329163168
 31
0.0
  0
ARC
  5
380
330
1F
100
AcDbEntity
  8
LAY-20
  6
CONTINUOUS
 62
     7
100
AcDbCircle
 10
476.1138230034152
 20
609.5226478850176
 30
0.0
 40
2.94051467113142
100
AcDbArc
 50
18.92661886523003
 51
191.0733811347993
  0
LINE
  5
381
330
1F
100
AcDbEntity
  8
LAY-20
  6
CONTINUOUS
 62
     7
100
AcDbLine
 10
482.6086292149654
 20
561.0268279123767
 30
0.0
 11
473.2280548307268
 21
608.9578748468532
 31
0.0
  0
LINE
  5
382
330
1F
100
AcDbEntity
  8
LAY-20
  6
CONTINUOUS
 62
     7
100
AcDbLine
 10
494.7370658178905
 20
564.2766327055868
 30
0.0
 11
478.895358069478
 21
610.47642417294
 31
0.0
  0
ARC
  5
383
330
1F
100
AcDbEntity
  8
LAY-20
  6
CONTINUOUS
 62
     7
100
AcDbCircle
 10
476.1138230034152
 20
609.5226478850176
 30
0.0
 40
3.940514671131423
100
AcDbArc
 50
18.92661886522929
 51
191.0733811347947
  0
LINE
  5
384
330
1F
100
AcDbEntity
  8
LAY-20
  6
CONTINUOUS
 62
     7
100
AcDbLine
 10
472.2466728294672
 20
608.7658087967469
 30
0.0
 11
481.6272472137058
 21
560.8347618622704
 31
0.0
  0
LINE
  5
385
330
1F
100
AcDbEntity
  8
LAY-20
  6
CONTINUOUS
 62
     7
100
AcDbLine
 10
495.6830005868513
 20
564.6009896276203
 30
0.0
 11
479.8412928384388
 21
610.8007810949732
 31
0.0
  0
ARC
  5
386
330
1F
100
AcDbEntity
  8
LAY-20
  6
CONTINUOUS
 62
     7
100
AcDbCircle
 10
465.0000000000003
 20
650.9999999999022
 30
0.0
 40
87.61836509649486
100
AcDbArc
 50
281.0733811348127
 51
288.9266188652605
  0
ARC
  5
387
330
1F
100
AcDbEntity
  8
LAY-20
  6
CONTINUOUS
 62
     7
100
AcDbCircle
 10
465.0000000000003
 20
651.0000000001181
 30
0.0
 40
91.68007154403782
100
AcDbArc
 50
78.92661886518835
 51
86.07338113475755
  0
ARC
  5
388
330
1F
100
AcDbEntity
  8
LAY-20
  6
CONTINUOUS
 62
     7
100
AcDbCircle
 10
465.0000000000003
 20
650.9999999999022
 30
0.0
 40
91.68007154403782
100
AcDbArc
 50
273.9266188652427
 51
281.0733811348119
  0
LINE
  5
389
330
1F
100
AcDbEntity
  8
LAY-20
  6
CONTINUOUS
 62
     7
100
AcDbLine
 10
457.1732230694778
 20
550.9099642279881
 30
0.0
 11
465.000000000001
 21
555.8961710483989
 31
0.0
  0
LINE
  5
38A
330
1F
100
AcDbEntity
  8
LAY-20
  6
CONTINUOUS
 62
     7
100
AcDbLine
 10
472.8267769305243
 20
550.9099642279881
 30
0.0
 11
465.000000000001
 21
555.8961710483989
 31
0.0
  0
LINE
  5
38B
330
1F
100
AcDbEntity
  8
LAY-20
  6
CONTINUOUS
 62
     7
100
AcDbLine
 10
472.8267769305243
 20
550.9099642279908
 30
0.0
 11
465.000000000001
 21
545.9237574075802
 31
0.0
  0
LINE
  5
38C
330
1F
100
AcDbEntity
  8
LAY-20
  6
CONTINUOUS
 62
     7
100
AcDbLine
 10
457.1732230694778
 20
550.9099642279908
 30
0.0
 11
465.000000000001
 21
545.9237574075802
 31
0.0
  0
TEXT
  5
38D
330
1F
100
AcDbEntity
  8
LAY-20
  6
CONTINUOUS
 62
     7
100
AcDbText
 10
460.3590909635008
 20
548.4867784025349
 30
0.0
 40
4.49732857019062
  1
ＳＦ
 41
1.000501793563306
  7
EXCADSTD
100
AcDbText
  0
LINE
  5
38E
330
1F
100
AcDbEntity
  8
LAY-20
  6
CONTINUOUS
 62
     7
100
AcDbLine
 10
363.4999999999695
 20
655.0000000001181
 30
0.0
 11
362.900367627054
 21
655.0000000001181
 31
0.0
  0
LINE
  5
38F
330
1F
100
AcDbEntity
  8
LAY-20
  6
CONTINUOUS
 62
     7
100
AcDbLine
 10
363.4999999999695
 20
647.0000000001182
 30
0.0
 11
362.900367627308
 21
647.0000000001182
 31
0.0
  0
LINE
  5
390
330
1F
100
AcDbEntity
  8
LAY-20
  6
CONTINUOUS
 62
     7
100
AcDbLine
 10
566.5000000000312
 20
655.0000000001181
 30
0.0
 11
567.0996323729402
 21
655.0000000001181
 31
0.0
  0
ARC
  5
391
330
1F
100
AcDbEntity
  8
LAY-20
  6
CONTINUOUS
 62
     7
100
AcDbCircle
 10
464.9999999999711
 20
651.0000000001181
 30
0.0
 40
108.5000000000001
100
AcDbArc
 50
2.307433086493462
 51
177.6925669135256
  0
LINE
  5
392
330
1F
100
AcDbEntity
  8
LAY-20
  6
CONTINUOUS
 62
     7
100
AcDbLine
 10
566.5000000000312
 20
647.0000000001182
 30
0.0
 11
567.0996323726862
 21
647.0000000001182
 31
0.0
  0
ARC
  5
393
330
1F
100
AcDbEntity
  8
LAY-20
  6
CONTINUOUS
 62
     7
100
AcDbCircle
 10
464.9999999999711
 20
651.0000000001181
 30
0.0
 40
108.5000000000001
100
AcDbArc
 50
182.3074330865886
 51
357.6925669133929
  0
DIMENSION
  5
394
330
1F
100
AcDbEntity
  8
LAY-20
  6
CONTINUOUS
 62
     4
100
AcDbDimension
  2
*D20
 10
633.50000000003
 20
233.0
 30
0.0
 11
626.00000000003
 21
193.0
 31
0.0
 70
   160
  3
ISO-25
100
AcDbAlignedDimension
 13
573.00000000003
 23
153.0
 33
0.0
 14
596.50000000003
 24
233.0
 34
0.0
 50
90.0
100
AcDbRotatedDimension
1001
ACAD
1000
DSTYLE
1002
{
1070
   270
1070
     2
1070
     6
1000
EX_BNORM
1070
     7
1000
EX_BNORM
1070
    41
1040
7.5
1070
    42
1040
4.5
1070
    44
1040
4.5
1070
    73
1070
     0
1070
    74
1070
     0
1070
    75
1070
     0
1070
    76
1070
     0
1070
    77
1070
     1
1070
    78
1070
     8
1070
   140
1040
9.3543312
1070
   147
1040
0.0
1070
   173
1070
     1
1070
   176
1070
     4
1070
   177
1070
     4
1070
   178
1070
     7
1070
   271
1070
     1
1070
   277
1070
     2
1070
   279
1070
     2
1070
   280
1070
     0
1070
   287
1070
     5
1070
   340
1005
247
1002
}
  0
DIMENSION
  5
3A1
330
1F
100
AcDbEntity
  8
LAY-20
  6
CONTINUOUS
 62
     4
100
AcDbDimension
  2
*D21
 10
633.50000000003
 20
405.0
 30
0.0
 11
626.00000000003
 21
319.0
 31
0.0
 70
   160
  3
ISO-25
100
AcDbAlignedDimension
 13
633.50000000003
 23
233.0
 33
0.0
 14
465.00000000003
 24
405.0
 34
0.0
 50
90.0
100
AcDbRotatedDimension
1001
ACAD
1000
DSTYLE
1002
{
1070
   270
1070
     2
1070
     6
1000
EX_BNORM
1070
     7
1000
EX_BNORM
1070
    41
1040
7.5
1070
    42
1040
4.5
1070
    44
1040
4.5
1070
    73
1070
     0
1070
    74
1070
     0
1070
    75
1070
     1
1070
    76
1070
     0
1070
    77
1070
     1
1070
    78
1070
     8
1070
   140
1040
9.3543312
1070
   147
1040
0.0
1070
   173
1070
     1
1070
   176
1070
     4
1070
   177
1070
     4
1070
   178
1070
     7
1070
   271
1070
     1
1070
   277
1070
     2
1070
   279
1070
     2
1070
   280
1070
     0
1070
   287
1070
     5
1070
   340
1005
247
1002
}
  0
ARC
  5
3AD
330
1F
100
AcDbEntity
  8
LAY-20
  6
CONTINUOUS
 62
     7
100
AcDbCircle
 10
571.340031970189
 20
226.9999999999999
 30
0.0
 40
2.0
100
AcDbArc
 50
270.0000000000001
 51
357.0000000000002
  0
LINE
  5
3AE
330
1F
100
AcDbEntity
  8
LAY-20
  6
CONTINUOUS
 62
     7
100
AcDbLine
 10
573.3372910396981
 20
226.895328087514
 30
0.0
 11
573.5000000000339
 21
229.9999999999998
 31
0.0
  0
LINE
  5
3AF
330
1F
100
AcDbEntity
  8
LAY-20
  6
CONTINUOUS
 62
     7
100
AcDbLine
 10
552.6183650964673
 20
229.9999999999996
 30
0.0
 11
573.5000000000339
 21
229.9999999999996
 31
0.0
  0
DIMENSION
  5
3B0
330
1F
100
AcDbEntity
  8
LAY-20
  6
CONTINUOUS
 62
     4
100
AcDbDimension
  2
*D22
 10
356.50000000003
 20
435.0
 30
0.0
 11
465.00000000003
 21
442.5
 31
0.0
 70
   160
  1
%%c<>
  3
ISO-25
100
AcDbAlignedDimension
 13
573.50000000003
 23
230.0
 33
0.0
 14
356.50000000003
 24
230.0
 34
0.0
100
AcDbRotatedDimension
1001
ACAD
1000
DSTYLE
1002
{
1070
   270
1070
     2
1070
     6
1000
EX_BNORM
1070
     7
1000
EX_BNORM
1070
    41
1040
7.5
1070
    42
1040
4.5
1070
    44
1040
4.5
1070
    73
1070
     0
1070
    74
1070
     0
1070
    75
1070
     0
1070
    76
1070
     0
1070
    77
1070
     1
1070
    78
1070
     8
1070
   140
1040
9.3543312
1070
   147
1040
0.0
1070
   173
1070
     1
1070
   176
1070
     4
1070
   177
1070
     4
1070
   178
1070
     7
1070
   271
1070
     1
1070
   277
1070
     2
1070
   279
1070
     2
1070
   280
1070
     0
1070
   287
1070
     5
1070
   340
1005
247
1002
}
  0
LINE
  5
3BD
330
1F
100
AcDbEntity
  8
LAY-255
  6
CONTINUOUS
 62
     7
100
AcDbLine
 10
1155.0
 20
66.0
 30
0.0
 11
855.0
 21
66.0
 31
0.0
  0
LINE
  5
3BE
330
1F
100
AcDbEntity
  8
LAY-255
  6
CONTINUOUS
 62
     7
100
AcDbLine
 10
866.4000000000001
 20
48.0
 30
0.0
 11
890.4000000000001
 21
63.0
 31
0.0
  0
LINE
  5
3BF
330
1F
100
AcDbEntity
  8
LAY-255
  6
CONTINUOUS
 62
     7
100
AcDbLine
 10
890.4000000000001
 20
63.0
 30
0.0
 11
914.4000000000001
 21
48.0
 31
0.0
  0
LINE
  5
3C0
330
1F
100
AcDbEntity
  8
LAY-255
  6
CONTINUOUS
 62
     7
100
AcDbLine
 10
914.4000000000001
 20
48.0
 30
0.0
 11
890.4000000000001
 21
33.0
 31
0.0
  0
LINE
  5
3C1
330
1F
100
AcDbEntity
  8
LAY-255
  6
CONTINUOUS
 62
     7
100
AcDbLine
 10
890.4000000000001
 20
33.0
 30
0.0
 11
866.4000000000001
 21
48.0
 31
0.0
  0
LINE
  5
3C2
330
1F
100
AcDbEntity
  8
LAY-255
  6
CONTINUOUS
 62
     7
100
AcDbLine
 10
15.0
 20
30.0
 30
0.0
 11
1155.0
 21
30.0
 31
0.0
  0
LINE
  5
3C3
330
1F
100
AcDbEntity
  8
LAY-255
  6
CONTINUOUS
 62
     7
100
AcDbLine
 10
15.0
 20
840.0
 30
0.0
 11
1155.0
 21
840.0
 31
0.0
  0
LINE
  5
3C4
330
1F
100
AcDbEntity
  8
LAY-255
  6
CONTINUOUS
 62
     7
100
AcDbLine
 10
15.0
 20
30.0
 30
0.0
 11
15.0
 21
840.0
 31
0.0
  0
LINE
  5
3C5
330
1F
100
AcDbEntity
  8
LAY-255
  6
CONTINUOUS
 62
     7
100
AcDbLine
 10
1155.0
 20
30.0
 30
0.0
 11
1155.0
 21
840.0
 31
0.0
  0
LINE
  5
3C6
330
1F
100
AcDbEntity
  8
LAY-255
  6
CONTINUOUS
 62
     4
100
AcDbLine
 10
855.0
 20
84.0
 30
0.0
 11
1155.0
 21
84.0
 31
0.0
  0
LINE
  5
3C7
330
1F
100
AcDbEntity
  8
LAY-255
  6
CONTINUOUS
 62
     7
100
AcDbLine
 10
855.0
 20
30.0
 30
0.0
 11
855.0
 21
201.0
 31
0.0
  0
LINE
  5
3C8
330
1F
100
AcDbEntity
  8
LAY-255
  6
CONTINUOUS
 62
     4
100
AcDbLine
 10
1005.0
 20
84.0
 30
0.0
 11
1005.0
 21
66.0
 31
0.0
  0
LINE
  5
3C9
330
1F
100
AcDbEntity
  8
LAY-255
  6
CONTINUOUS
 62
     7
100
AcDbLine
 10
1155.0
 20
201.0
 30
0.0
 11
855.0
 21
201.0
 31
0.0
  0
LINE
  5
3CA
330
1F
100
AcDbEntity
  8
LAY-255
  6
CONTINUOUS
 62
     4
100
AcDbLine
 10
1149.0
 20
165.0
 30
0.0
 11
861.0
 21
165.0
 31
0.0
  0
LINE
  5
3CB
330
1F
100
AcDbEntity
  8
LAY-255
  6
CONTINUOUS
 62
     4
100
AcDbLine
 10
1149.0
 20
183.0
 30
0.0
 11
861.0
 21
183.0
 31
0.0
  0
POINT
  5
3CC
330
1F
100
AcDbEntity
  8
LAY-255
  6
CONTINUOUS
 62
     7
100
AcDbPoint
 10
867.0
 20
150.0
 30
0.0
  0
POINT
  5
3CD
330
1F
100
AcDbEntity
  8
LAY-255
  6
CONTINUOUS
 62
     7
100
AcDbPoint
 10
900.0
 20
168.0
 30
0.0
  0
POINT
  5
3CE
330
1F
100
AcDbEntity
  8
LAY-255
  6
CONTINUOUS
 62
     7
100
AcDbPoint
 10
900.0
 20
186.0
 30
0.0
  0
POINT
  5
3CF
330
1F
100
AcDbEntity
  8
LAY-255
  6
CONTINUOUS
 62
     7
100
AcDbPoint
 10
867.0
 20
120.0
 30
0.0
  0
POINT
  5
3D0
330
1F
100
AcDbEntity
  8
LAY-255
  6
CONTINUOUS
 62
     7
100
AcDbPoint
 10
867.0
 20
135.0
 30
0.0
  0
POINT
  5
3D1
330
1F
100
AcDbEntity
  8
LAY-255
  6
CONTINUOUS
 62
     7
100
AcDbPoint
 10
867.0
 20
105.0
 30
0.0
  0
POINT
  5
3D2
330
1F
100
AcDbEntity
  8
LAY-255
  6
CONTINUOUS
 62
     7
100
AcDbPoint
 10
867.0
 20
89.99999999999996
 30
0.0
  0
TEXT
  5
3D3
330
1F
100
AcDbEntity
  8
LAY-255
  6
CONTINUOUS
 62
     7
100
AcDbText
 10
924.415136826172
 20
46.63125
 30
0.0
 40
15.46875
  1
福西鋳物株式会社
 41
1.342692141742901
  7
EXCADSTD
100
AcDbText
  0
TEXT
  5
3D4
330
1F
100
AcDbEntity
  8
LAY-255
  6
CONTINUOUS
 62
     7
100
AcDbText
 10
925.528125
 20
35.94375
 30
0.0
 40
5.15625
  1
ＦＵＫＵＮＩＳＨＩ
 41
1.204799226045263
  7
EXCADSTD
100
AcDbText
  0
TEXT
  5
3D5
330
1F
100
AcDbEntity
  8
LAY-255
  6
CONTINUOUS
 62
     7
100
AcDbText
 10
998.1575892857143
 20
35.94375
 30
0.0
 40
5.15625
  1
ＦＯＵＮＤＲＹ
 41
1.243252752978497
  7
EXCADSTD
100
AcDbText
  0
TEXT
  5
3D6
330
1F
100
AcDbEntity
  8
LAY-255
  6
CONTINUOUS
 62
     7
100
AcDbText
 10
1055.983774651442
 20
35.94375
 30
0.0
 40
5.15625
  1
ＣＯ.,ＬＴＤ.
 41
1.243831271314936
  7
EXCADSTD
100
AcDbText
  0
TEXT
  5
3D7
330
1F
100
AcDbEntity
  8
LAY-255
  6
CONTINUOUS
 62
     7
100
AcDbText
 10
882.1031250000001
 20
41.15625
 30
0.0
 40
15.46875
  1
S
 41
0.7582677563636363
  7
EXCADSTD
100
AcDbText
  0
TEXT
  5
3D8
330
1F
100
AcDbEntity
  8
LAY-255
  6
CONTINUOUS
 62
     7
100
AcDbText
 10
891.3140625000001
 20
41.24823113208
 30
0.0
 40
15.46875
  1
F
 41
0.7440945272727273
  7
EXCADSTD
100
AcDbText
  0
TEXT
  5
3D9
330
1F
100
AcDbEntity
  8
LAY-255
  6
CONTINUOUS
 62
     7
100
AcDbText
 10
1011.31640625
 20
73.26562499999997
 30
0.0
 40
7.734375
  1
縮尺
 41
1.080708718181818
  7
EXCADSTD
100
AcDbText
  0
TEXT
  5
3DA
330
1F
100
AcDbEntity
  8
LAY-255
  6
CONTINUOUS
 62
     7
100
AcDbText
 10
861.796875
 20
169.6875
 30
0.0
 40
10.3125
  1
型式
 41
1.056348480681818
  7
EXCADSTD
100
AcDbText
  0
TEXT
  5
3DB
330
1F
100
AcDbEntity
  8
LAY-255
  6
CONTINUOUS
 62
     7
100
AcDbText
 10
862.265625
 20
187.6875
 30
0.0
 40
10.3125
  1
品名
 41
0.978838634090909
  7
EXCADSTD
100
AcDbText
  0
TEXT
  5
3DC
330
1F
100
AcDbEntity
  8
LAY-255
  6
CONTINUOUS
 62
     7
100
AcDbText
 10
861.45703125
 20
73.26562499999997
 30
0.0
 40
7.734375
  1
作成日
 41
1.000629973818182
  7
EXCADSTD
100
AcDbText
  0
TEXT
  5
3DD
330
1F
100
AcDbEntity
  8
LAY-255
  6
CONTINUOUS
 62
     7
100
AcDbText
 10
1044.84375
 20
70.68749999999997
 30
0.0
 40
10.3125
  1
１：３
 41
0.8844094952727272
  7
EXCADSTD
100
AcDbText
  0
TEXT
  5
3DE
330
1F
100
AcDbEntity
  8
LAY-255
  6
CONTINUOUS
 62
     7
100
AcDbText
 10
867.5625
 20
121.6875
 30
0.0
 40
10.3125
  1
施工：打込用
 41
1.018700840909091
  7
EXCADSTD
100
AcDbText
  0
TEXT
  5
3DF
330
1F
100
AcDbEntity
  8
LAY-255
  6
CONTINUOUS
 62
     7
100
AcDbText
 10
900.75
 20
187.6875
 30
0.0
 40
10.3125
  1
ルーフドレイン
 41
1.021169538599106
  7
EXCADSTD
100
AcDbText
  0
TEXT
  5
3E0
330
1F
100
AcDbEntity
  8
LAY-255
  6
CONTINUOUS
 62
     7
100
AcDbText
 10
867.65625
 20
106.6875
 30
0.0
 40
10.3125
  1
接続：差込用
 41
1.01733803041958
  7
EXCADSTD
100
AcDbText
  0
TEXT
  5
3E1
330
1F
100
AcDbEntity
  8
LAY-255
  6
CONTINUOUS
 62
     7
100
AcDbText
 10
867.703125
 20
136.6875
 30
0.0
 40
10.3125
  1
用途：屋上用
 41
1.016656625174825
  7
EXCADSTD
100
AcDbText
  0
TEXT
  5
3E2
330
1F
100
AcDbEntity
  8
LAY-255
  6
CONTINUOUS
 62
     7
100
AcDbText
 10
868.125
 20
151.6875000000001
 30
0.0
 40
10.3125
  1
防水：モルタル・塗膜防水兼用
 41
1.008985320967742
  7
EXCADSTD
100
AcDbText
  0
TEXT
  5
3E3
330
1F
100
AcDbEntity
  8
LAY-255
  6
CONTINUOUS
 62
     7
100
AcDbText
 10
902.625
 20
169.6875
 30
0.0
 40
10.3125
  1
ＲＣＸ－９１５０型
 41
0.9997508747986191
  7
EXCADSTD
100
AcDbText
  0
TEXT
  5
3E4
330
1F
100
AcDbEntity
  8
LAY-255
  6
CONTINUOUS
 62
     7
100
AcDbText
 10
902.671875
 20
70.68749999999997
 30
0.0
 40
10.3125
  1
０８／０９／０３
 41
0.9764342470129869
  7
EXCADSTD
100
AcDbText
  0
ENDSEC
  0
SECTION
  2
OBJECTS
  0
DICTIONARY
  5
C
330
0
100
AcDbDictionary
  3
ACAD_GROUP
350
D
  3
ACAD_LAYOUT
350
1A
  3
ACAD_MATERIAL
350
43
  3
ACAD_MLEADERSTYLE
350
6B
  3
ACAD_MLINESTYLE
350
17
  3
ACAD_PLOTSETTINGS
350
19
  3
ACAD_SCALELIST
350
47
  3
ACAD_VISUALSTYLE
350
2A
  3
ACDBHEADERROUNDTRIPXREC
350
3E5
  3
ACDBVARIABLEDICTIONARY
350
406
  0
DICTIONARY
  5
411
330
8
100
AcDbDictionary
280
     1
  3
ACAD_XREC_ROUNDTRIP
360
412
  0
DICTIONARY
  5
D
102
{ACAD_REACTORS
330
C
102
}
330
C
100
AcDbDictionary
  0
DICTIONARY
  5
1A
102
{ACAD_REACTORS
330
C
102
}
330
C
100
AcDbDictionary
  0
DICTIONARY
  5
43
102
{ACAD_REACTORS
330
C
102
}
330
C
100
AcDbDictionary
  3
BYBLOCK
350
45
  3
BYLAYER
350
44
  3
GLOBAL
350
46
  0
DICTIONARY
  5
6B
102
{ACAD_REACTORS
330
C
102
}
330
C
100
AcDbDictionary
  3
STANDARD
350
6C
  0
DICTIONARY
  5
17
102
{ACAD_REACTORS
330
C
102
}
330
C
100
AcDbDictionary
  3
STANDARD
350
18
  0
DICTIONARY
  5
19
102
{ACAD_REACTORS
330
C
102
}
330
C
100
AcDbDictionary
  0
DICTIONARY
  5
47
102
{ACAD_REACTORS
330
C
102
}
330
C
100
AcDbDictionary
  3
A0
350
48
  3
A1
350
49
  3
A2
350
4A
  3
A3
350
4B
  3
A4
350
4C
  3
A5
350
4D
  3
A6
350
4E
  3
A7
350
4F
  3
A8
350
50
  3
A9
350
51
  3
B0
350
52
  3
B1
350
53
  3
B2
350
54
  3
B3
350
55
  3
B4
350
56
  3
B5
350
57
  3
B6
350
58
  3
B7
350
59
  3
B8
350
5A
  3
B9
350
5B
  3
C0
350
5C
  3
C1
350
5D
  3
C2
350
5E
  3
C3
350
5F
  3
C4
350
60
  3
C5
350
61
  3
C6
350
62
  3
C7
350
63
  3
C8
350
64
  3
C9
350
65
  3
D0
350
66
  3
D1
350
67
  3
D2
350
68
  0
DICTIONARY
  5
2A
102
{ACAD_REACTORS
330
C
102
}
330
C
100
AcDbDictionary
  3
2DWIREFRAME
350
2F
  3
BASIC
350
32
  3
BRIGHTEN
350
36
  3
COLORCHANGE
350
3A
  3
CONCEPTUAL
350
34
  3
DIM
350
35
  3
EDGECOLOROFF
350
3D
  3
FACEPATTERN
350
39
  3
FLAT
350
2B
  3
FLATWITHEDGES
350
2C
  3
GOURAUD
350
2D
  3
GOURAUDWITHEDGES
350
2E
  3
HIDDEN
350
31
  3
JITTEROFF
350
3B
  3
LINEPATTERN
350
38
  3
OVERHANGOFF
350
3C
  3
REALISTIC
350
33
  3
SHADED
350
42
  3
SHADED_WITH_EDGES
350
41
  3
SHADES_OF_GRAY
350
3E
  3
SKETCHY
350
3F
  3
THICKEN
350
37
  3
WIREFRAME
350
30
  3
X-RAY
350
40
  0
DICTIONARY
  5
3E5
102
{ACAD_REACTORS
330
C
102
}
330
C
100
AcDbDictionary
  3
CEPSNID
350
3EF
  3
CEPSNTYPE
350
3EE
  3
DIMSTYLEDATA
350
405
  3
FINGERPRINTGUID
350
3F0
  3
HYPERLINKBASE
350
3E8
  3
INSUNITS
350
3ED
  3
LAYOUTDICT
350
3EA
  3
LWETCUNION
350
3EC
  3
PLOTSETDICT
350
3EB
  3
PSVPSCALE
350
3F2
  3
PUCSBASE
350
3F5
  3
PUCSORGBACK
350
3FB
  3
PUCSORGBOTTOM
350
3F7
  3
PUCSORGFRONT
350
3FA
  3
PUCSORGLEFT
350
3F8
  3
PUCSORGRIGHT
350
3F9
  3
PUCSORGTOP
350
3F6
  3
PUCSORTHOREF
350
3F3
  3
PUCSORTHOVIEW
350
3F4
  3
STYLESHEET
350
3E9
  3
TSTACKALIGN
350
3E6
  3
TSTACKSIZE
350
3E7
  3
UCSBASE
350
3FE
  3
UCSORGBACK
350
404
  3
UCSORGBOTTOM
350
400
  3
UCSORGFRONT
350
403
  3
UCSORGLEFT
350
401
  3
UCSORGRIGHT
350
402
  3
UCSORGTOP
350
3FF
  3
UCSORTHOREF
350
3FC
  3
UCSORTHOVIEW
350
3FD
  3
VERSIONGUID
350
3F1
  0
DICTIONARY
  5
406
102
{ACAD_REACTORS
330
C
102
}
330
C
100
AcDbDictionary
  3
CANNOSCALE
350
413
  3
CENTEREXE
350
40D
  3
CENTERLTYPEFILE
350
40E
  3
CMLEADERSTYLE
350
408
  3
CTABLESTYLE
350
407
  3
DIMASSOC
350
40F
  3
HIDETEXT
350
410
  3
MSLTSCALE
350
414
  3
PSOLHEIGHT
350
40A
  3
PSOLWIDTH
350
409
  0
XRECORD
  5
412
102
{ACAD_REACTORS
330
411
102
}
330
411
100
AcDbXrecord
102
VTR_0.000_0.000_1.000_1.000_VISUALSTYLE
340
2F
102
VTR_0.000_0.000_1.000_1.000_GRIDDISPLAY
 70
     3
102
VTR_0.000_0.000_1.000_1.000_GRIDMAJOR
 70
     5
102
VTR_0.000_0.000_1.000_1.000_DEFAULTLIGHTING
280
     1
102
VTR_0.000_0.000_1.000_1.000_DEFAULTLIGHTINGTYPE
 70
     1
102
VTR_0.000_0.000_1.000_1.000_BRIGHTNESS
141
0.0
102
VTR_0.000_0.000_1.000_1.000_CONTRAST
142
0.0
  0
MATERIAL
  5
45
102
{ACAD_REACTORS
330
43
102
}
102
{ACAD_XDICTIONARY
360
417
102
}
330
43
100
AcDbMaterial
  1
BYBLOCK
  0
MATERIAL
  5
44
102
{ACAD_REACTORS
330
43
102
}
102
{ACAD_XDICTIONARY
360
415
102
}
330
43
100
AcDbMaterial
  1
BYLAYER
  0
MATERIAL
  5
46
102
{ACAD_REACTORS
330
43
102
}
102
{ACAD_XDICTIONARY
360
419
102
}
330
43
100
AcDbMaterial
  1
GLOBAL
  0
ACAD_PROXY_OBJECT
  5
6C
102
{ACAD_REACTORS
330
6B
102
}
330
6B
100
AcDbProxyObject
 90
      499
 91
      505
 93
      610
310
40901902A4063FBFFFFFE0000000000000020400000000000020404214DD185B99185C990000000000000104090141901A00000000000004100000000000000041025764000000000000039000
340
14
340
0
340
11
340
0
 94
        0
1001
ACAD_MLEADERVER
1070
     2
  0
MLINESTYLE
  5
18
102
{ACAD_REACTORS
330
17
102
}
330
17
100
AcDbMlineStyle
  2
Standard
 70
     0
  3

 62
   256
 51
90.0
 52
90.0
 71
     2
 49
0.5
 62
   256
  6
BYLAYER
 49
-0.5
 62
   256
  6
BYLAYER
  0
ACAD_PROXY_OBJECT
  5
48
102
{ACAD_REACTORS
330
47
102
}
330
47
100
AcDbProxyObject
 90
      499
 91
      503
 93
       41
310
903313A31580
  0
ACAD_PROXY_OBJECT
  5
49
102
{ACAD_REACTORS
330
47
102
}
330
47
100
AcDbProxyObject
 90
      499
 91
      503
 93
      105
310
903313A324000000000000004000
  0
ACAD_PROXY_OBJECT
  5
4A
102
{ACAD_REACTORS
330
47
102
}
330
47
100
AcDbProxyObject
 90
      499
 91
      503
 93
      105
310
903313A344000000000000104000
  0
ACAD_PROXY_OBJECT
  5
4B
102
{ACAD_REACTORS
330
47
102
}
330
47
100
AcDbProxyObject
 90
      499
 91
      503
 93
      105
310
903313A354000000000000144000
  0
ACAD_PROXY_OBJECT
  5
4C
102
{ACAD_REACTORS
330
47
102
}
330
47
100
AcDbProxyObject
 90
      499
 91
      503
 93
      105
310
903313A384000000000000204000
  0
ACAD_PROXY_OBJECT
  5
4D
102
{ACAD_REACTORS
330
47
102
}
330
47
100
AcDbProxyObject
 90
      499
 91
      503
 93
      113
310
904313A31304000000000000244000
  0
ACAD_PROXY_OBJECT
  5
4E
102
{ACAD_REACTORS
330
47
102
}
330
47
100
AcDbProxyObject
 90
      499
 91
      503
 93
      113
310
904313A31364000000000000304000
  0
ACAD_PROXY_OBJECT
  5
4F
102
{ACAD_REACTORS
330
47
102
}
330
47
100
AcDbProxyObject
 90
      499
 91
      503
 93
      113
310
904313A32304000000000000344000
  0
ACAD_PROXY_OBJECT
  5
50
102
{ACAD_REACTORS
330
47
102
}
330
47
100
AcDbProxyObject
 90
      499
 91
      503
 93
      113
310
904313A333040000000000003E4000
  0
ACAD_PROXY_OBJECT
  5
51
102
{ACAD_REACTORS
330
47
102
}
330
47
100
AcDbProxyObject
 90
      499
 91
      503
 93
      113
310
904313A34304000000000000444000
  0
ACAD_PROXY_OBJECT
  5
52
102
{ACAD_REACTORS
330
47
102
}
330
47
100
AcDbProxyObject
 90
      499
 91
      503
 93
      113
310
904313A35304000000000000494000
  0
ACAD_PROXY_OBJECT
  5
53
102
{ACAD_REACTORS
330
47
102
}
330
47
100
AcDbProxyObject
 90
      499
 91
      503
 93
      121
310
905313A3130304000000000000594000
  0
ACAD_PROXY_OBJECT
  5
54
102
{ACAD_REACTORS
330
47
102
}
330
47
100
AcDbProxyObject
 90
      499
 91
      503
 93
      105
310
903323A310000000000000010100
  0
ACAD_PROXY_OBJECT
  5
55
102
{ACAD_REACTORS
330
47
102
}
330
47
100
AcDbProxyObject
 90
      499
 91
      503
 93
      105
310
903343A310000000000000410100
  0
ACAD_PROXY_OBJECT
  5
56
102
{ACAD_REACTORS
330
47
102
}
330
47
100
AcDbProxyObject
 90
      499
 91
      503
 93
      105
310
903383A310000000000000810100
  0
ACAD_PROXY_OBJECT
  5
57
102
{ACAD_REACTORS
330
47
102
}
330
47
100
AcDbProxyObject
 90
      499
 91
      503
 93
      113
310
90431303A310000000000000910100
  0
ACAD_PROXY_OBJECT
  5
58
102
{ACAD_REACTORS
330
47
102
}
330
47
100
AcDbProxyObject
 90
      499
 91
      503
 93
      121
310
9053130303A310000000000001650100
  0
ACAD_PROXY_OBJECT
  5
59
102
{ACAD_REACTORS
330
47
102
}
330
47
100
AcDbProxyObject
 90
      499
 91
      503
 93
      257
310
90E312F31323822203D2031272D3022000000000000200FC000000000000284000
  0
ACAD_PROXY_OBJECT
  5
5A
102
{ACAD_REACTORS
330
47
102
}
330
47
100
AcDbProxyObject
 90
      499
 91
      503
 93
      249
310
90D312F363422203D2031272D3022000000000000240FC000000000000284000
  0
ACAD_PROXY_OBJECT
  5
5B
102
{ACAD_REACTORS
330
47
102
}
330
47
100
AcDbProxyObject
 90
      499
 91
      503
 93
      249
310
90D312F333222203D2031272D3022000000000000280FC000000000000284000
  0
ACAD_PROXY_OBJECT
  5
5C
102
{ACAD_REACTORS
330
47
102
}
330
47
100
AcDbProxyObject
 90
      499
 91
      503
 93
      249
310
90D312F313622203D2031272D30220000000000002C0FC000000000000284000
  0
ACAD_PROXY_OBJECT
  5
5D
102
{ACAD_REACTORS
330
47
102
}
330
47
100
AcDbProxyObject
 90
      499
 91
      503
 93
      249
310
90D332F333222203D2031272D30220000000000002E0FC000000000000284000
  0
ACAD_PROXY_OBJECT
  5
5E
102
{ACAD_REACTORS
330
47
102
}
330
47
100
AcDbProxyObject
 90
      499
 91
      503
 93
      241
310
90C312F3822203D2031272D3022000000000000300FC000000000000284000
  0
ACAD_PROXY_OBJECT
  5
5F
102
{ACAD_REACTORS
330
47
102
}
330
47
100
AcDbProxyObject
 90
      499
 91
      503
 93
      249
310
90D332F313622203D2031272D3022000000000000320FC000000000000284000
  0
ACAD_PROXY_OBJECT
  5
60
102
{ACAD_REACTORS
330
47
102
}
330
47
100
AcDbProxyObject
 90
      499
 91
      503
 93
      241
310
90C312F3422203D2031272D3022000000000000340FC000000000000284000
  0
ACAD_PROXY_OBJECT
  5
61
102
{ACAD_REACTORS
330
47
102
}
330
47
100
AcDbProxyObject
 90
      499
 91
      503
 93
      241
310
90C332F3822203D2031272D3022000000000000360FC000000000000284000
  0
ACAD_PROXY_OBJECT
  5
62
102
{ACAD_REACTORS
330
47
102
}
330
47
100
AcDbProxyObject
 90
      499
 91
      503
 93
      241
310
90C312F3222203D2031272D3022000000000000380FC000000000000284000
  0
ACAD_PROXY_OBJECT
  5
63
102
{ACAD_REACTORS
330
47
102
}
330
47
100
AcDbProxyObject
 90
      499
 91
      503
 93
      241
310
90C332F3422203D2031272D30220000000000003A0FC000000000000284000
  0
ACAD_PROXY_OBJECT
  5
64
102
{ACAD_REACTORS
330
47
102
}
330
47
100
AcDbProxyObject
 90
      499
 91
      503
 93
      161
310
90A3122203D2031272D30224000000000000284000
  0
ACAD_PROXY_OBJECT
  5
65
102
{ACAD_REACTORS
330
47
102
}
330
47
100
AcDbProxyObject
 90
      499
 91
      503
 93
      257
310
90E312D312F3222203D2031272D30220000000000003E0FC000000000000284000
  0
ACAD_PROXY_OBJECT
  5
66
102
{ACAD_REACTORS
330
47
102
}
330
47
100
AcDbProxyObject
 90
      499
 91
      503
 93
      225
310
90A3322203D2031272D302200000000000002100000000000000284000
  0
ACAD_PROXY_OBJECT
  5
67
102
{ACAD_REACTORS
330
47
102
}
330
47
100
AcDbProxyObject
 90
      499
 91
      503
 93
      225
310
90A3622203D2031272D302200000000000006100000000000000284000
  0
ACAD_PROXY_OBJECT
  5
68
102
{ACAD_REACTORS
330
47
102
}
330
47
100
AcDbProxyObject
 90
      499
 91
      503
 93
      249
310
90D31272D3022203D2031272D30220000000000000A100000000000000284000
  0
ACAD_PROXY_OBJECT
  5
2F
102
{ACAD_REACTORS
330
2A
102
}
330
2A
100
AcDbProxyObject
 90
      499
 91
      501
 93
      436
310
42CC9915DA5C99599C985B595049028333333333333E33F0000000000000F90107901411070040501600405405064090741402480A0340
1001
ACAD
1000
AcDbSavedByObjectVersion
1070
     0
  0
ACAD_PROXY_OBJECT
  5
32
102
{ACAD_REACTORS
330
2A
102
}
330
2A
100
AcDbProxyObject
 90
      499
 91
      501
 93
      388
310
4150985CDA58D07406404333333333333E33F0000000000000F90107A41107004050150841D405064090741402480A0350
1001
ACAD
1000
AcDbSavedByObjectVersion
1070
     0
  0
ACAD_PROXY_OBJECT
  5
36
102
{ACAD_REACTORS
330
2A
102
}
330
2A
100
AcDbProxyObject
 90
      499
 91
      501
 93
      428
310
42109C9A59DA1D195B90C409028333333333333E33F0000000000000F9010790141107004050150841D405064090741402480A029950
1001
ACAD
1000
AcDbSavedByObjectVersion
1070
     0
  0
ACAD_PROXY_OBJECT
  5
3A
102
{ACAD_REACTORS
330
2A
102
}
330
2A
100
AcDbProxyObject
 90
      499
 91
      501
 93
      452
310
42D0DBDB1BDC90DA185B99D95104090240C333333333333E33F0000000000000F90108901411070040501508421405064090741402480A0350
1001
ACAD
1000
AcDbSavedByObjectVersion
1070
     0
  0
ACAD_PROXY_OBJECT
  5
34
102
{ACAD_REACTORS
330
2A
102
}
330
2A
100
AcDbProxyObject
 90
      499
 91
      501
 93
      500
310
4290DBDB98D95C1D1D585B10940D028333333333333E33F0000000000000F90107902409070040501000000000018199010841D405064090740C02480A0340
1001
ACAD
1000
AcDbSavedByObjectVersion
1070
     0
  0
ACAD_PROXY_OBJECT
  5
35
102
{ACAD_REACTORS
330
2A
102
}
330
2A
100
AcDbProxyObject
 90
      499
 91
      501
 93
      412
310
40D11A5B50B409028333333333333E33F0000000000000F9010790141107004050150841D405064090741402480A02677FFFFFD0
1001
ACAD
1000
AcDbSavedByObjectVersion
1070
     0
  0
ACAD_PROXY_OBJECT
  5
3D
102
{ACAD_REACTORS
330
2A
102
}
330
2A
100
AcDbProxyObject
 90
      499
 91
      501
 93
      452
310
43115919D950DBDB1BDC93D999916409028333333333333E33F0000000000000F9010790141107004050150841D405064090741402480A0350
1001
ACAD
1000
AcDbSavedByObjectVersion
1070
     0
  0
ACAD_PROXY_OBJECT
  5
39
102
{ACAD_REACTORS
330
2A
102
}
330
2A
100
AcDbProxyObject
 90
      499
 91
      501
 93
      444
310
42D19858D95C185D1D195C9B90F409028333333333333E33F0000000000000F9010790141107004050150841D405064090741402480A0350
1001
ACAD
1000
AcDbSavedByObjectVersion
1070
     0
  0
ACAD_PROXY_OBJECT
  5
2B
102
{ACAD_REACTORS
330
2A
102
}
330
2A
100
AcDbProxyObject
 90
      499
 91
      501
 93
      380
310
41119B185D240901404333333333333E33F0000000000000F9010740A907004050150841D405064090741402480A1B50
1001
ACAD
1000
AcDbSavedByObjectVersion
1070
     0
  0
ACAD_PROXY_OBJECT
  5
2C
102
{ACAD_REACTORS
330
2A
102
}
330
2A
100
AcDbProxyObject
 90
      499
 91
      501
 93
      468
310
43519B185D15DA5D1A115919D95CD0140901404333333333333E33F0000000000000F90107409019070040501600405405064090741402480A1B50
1001
ACAD
1000
AcDbSavedByObjectVersion
1070
     0
  0
ACAD_PROXY_OBJECT
  5
2D
102
{ACAD_REACTORS
330
2A
102
}
330
2A
100
AcDbProxyObject
 90
      499
 91
      501
 93
      404
310
41D1DBDD5C985D5910240902404333333333333E33F0000000000000F9010740A9070040501641D405064090741402480A1B50
1001
ACAD
1000
AcDbSavedByObjectVersion
1070
     0
  0
ACAD_PROXY_OBJECT
  5
2E
102
{ACAD_REACTORS
330
2A
102
}
330
2A
100
AcDbProxyObject
 90
      499
 91
      501
 93
      492
310
4411DBDD5C985D5915DA5D1A115919D95CD0340902404333333333333E33F0000000000000F90107409019070040501600405405064090741402480A1B50
1001
ACAD
1000
AcDbSavedByObjectVersion
1070
     0
  0
ACAD_PROXY_OBJECT
  5
31
102
{ACAD_REACTORS
330
2A
102
}
330
2A
100
AcDbProxyObject
 90
      499
 91
      501
 93
      476
310
41921A5919195B90640502408333333333333E33F0000000000000F901079024090700405020000000000001110200405405064090740C02480A0340
1001
ACAD
1000
AcDbSavedByObjectVersion
1070
     0
  0
ACAD_PROXY_OBJECT
  5
3B
102
{ACAD_REACTORS
330
2A
102
}
330
2A
100
AcDbProxyObject
 90
      499
 91
      501
 93
      428
310
42529A5D1D195C93D999914409028333333333333E33F0000000000000F9010790141107004050150A41D405064090741402480A0350
1001
ACAD
1000
AcDbSavedByObjectVersion
1070
     0
  0
ACAD_PROXY_OBJECT
  5
38
102
{ACAD_REACTORS
330
2A
102
}
330
2A
100
AcDbProxyObject
 90
      499
 91
      501
 93
      444
310
42D31A5B995C185D1D195C9B90E409028333333333333E33F0000000000000F9010790141107004050750841D405064090741402483A0350
1001
ACAD
1000
AcDbSavedByObjectVersion
1070
     0
  0
ACAD_PROXY_OBJECT
  5
3C
102
{ACAD_REACTORS
330
2A
102
}
330
2A
100
AcDbProxyObject
 90
      499
 91
      501
 93
      444
310
42D3DD995C9A185B99D3D999915409028333333333333E33F0000000000000F9010790141107004050150941D405064090741402480A0350
1001
ACAD
1000
AcDbSavedByObjectVersion
1070
     0
  0
ACAD_PROXY_OBJECT
  5
33
102
{ACAD_REACTORS
330
2A
102
}
330
2A
100
AcDbProxyObject
 90
      499
 91
      501
 93
      428
310
425499585B1A5CDD1A58D08409038333333333333E33F0000000000000F9010740A907004050150800405405064090740C02480A1B40
1001
ACAD
1000
AcDbSavedByObjectVersion
1070
     0
  0
ACAD_PROXY_OBJECT
  5
42
102
{ACAD_REACTORS
330
2A
102
}
330
2A
100
AcDbProxyObject
 90
      499
 91
      501
 93
      420
310
4194DA1859195911B40902404333333333333E33F0000000000000F9010740A41107004050150800405405064090840C02480A0B40
1001
ACAD
1000
AcDbSavedByObjectVersion
1070
     0
  0
ACAD_PROXY_OBJECT
  5
41
102
{ACAD_REACTORS
330
2A
102
}
330
2A
100
AcDbProxyObject
 90
      499
 91
      501
 93
      516
310
4454DA18591959081DDA5D1A08195919D95CD1A40902404333333333333E33F0000000000000F901074090142907004050250800405405064090740C02480A0B40
1001
ACAD
1000
AcDbSavedByObjectVersion
1070
     0
  0
ACAD_PROXY_OBJECT
  5
3E
102
{ACAD_REACTORS
330
2A
102
}
330
2A
100
AcDbProxyObject
 90
      499
 91
      501
 93
      532
310
4394DA1859195CC81BD98811DC985E5174090240C333333333333E33F0000000000000F901079024090741D01000000000000111010841D405064090740C02480A0340
1001
ACAD
1000
AcDbSavedByObjectVersion
1070
     0
  0
ACAD_PROXY_OBJECT
  5
3F
102
{ACAD_REACTORS
330
2A
102
}
330
2A
100
AcDbProxyObject
 90
      499
 91
      501
 93
      476
310
41D4DAD95D18DA1E51840502408333333333333E33F0000000000000F901079024090741D01000000000000111010B41D405064090741802480A0340
1001
ACAD
1000
AcDbSavedByObjectVersion
1070
     0
  0
ACAD_PROXY_OBJECT
  5
37
102
{ACAD_REACTORS
330
2A
102
}
330
2A
100
AcDbProxyObject
 90
      499
 91
      501
 93
      412
310
41D51A1A58DAD95B90D409028333333333333E33F0000000000000F9010790141107004050150C41D405064090741402480A0350
1001
ACAD
1000
AcDbSavedByObjectVersion
1070
     0
  0
ACAD_PROXY_OBJECT
  5
30
102
{ACAD_REACTORS
330
2A
102
}
330
2A
100
AcDbProxyObject
 90
      499
 91
      501
 93
      420
310
4255DA5C99599C985B595059028333333333333E33F0000000000000F90107901411070040501600405405064090740C02480A0340
1001
ACAD
1000
AcDbSavedByObjectVersion
1070
     0
  0
ACAD_PROXY_OBJECT
  5
40
102
{ACAD_REACTORS
330
2A
102
}
330
2A
100
AcDbProxyObject
 90
      499
 91
      501
 93
      404
310
41560B54985E51940902404000000000000E03F0000000000000F9010740501907004050150841D405064090740C02480A1B40
1001
ACAD
1000
AcDbSavedByObjectVersion
1070
     0
  0
XRECORD
  5
3EF
102
{ACAD_REACTORS
330
3E5
102
}
330
3E5
100
AcDbXrecord
340
0
  0
XRECORD
  5
3EE
102
{ACAD_REACTORS
330
3E5
102
}
330
3E5
100
AcDbXrecord
 90
        0
  0
XRECORD
  5
405
102
{ACAD_REACTORS
330
3E5
102
}
330
3E5
100
AcDbXrecord
1000
DSTYLE
1002
{
1070
   340
340
11
1002
}
  0
XRECORD
  5
3F0
102
{ACAD_REACTORS
330
3E5
102
}
330
3E5
100
AcDbXrecord
  1
{96405aa1-a859-451f-9e4b-6f4ae38f082d}
  0
XRECORD
  5
3E8
102
{ACAD_REACTORS
330
3E5
102
}
330
3E5
100
AcDbXrecord
  1

  0
XRECORD
  5
3ED
102
{ACAD_REACTORS
330
3E5
102
}
330
3E5
100
AcDbXrecord
 90
        4
  0
XRECORD
  5
3EA
102
{ACAD_REACTORS
330
3E5
102
}
330
3E5
100
AcDbXrecord
340
1A
  0
XRECORD
  5
3EC
102
{ACAD_REACTORS
330
3E5
102
}
330
3E5
100
AcDbXrecord
 90
    10781
  0
XRECORD
  5
3EB
102
{ACAD_REACTORS
330
3E5
102
}
330
3E5
100
AcDbXrecord
340
19
  0
XRECORD
  5
3F2
102
{ACAD_REACTORS
330
3E5
102
}
330
3E5
100
AcDbXrecord
 40
0.0
  0
XRECORD
  5
3F5
102
{ACAD_REACTORS
330
3E5
102
}
330
3E5
100
AcDbXrecord
340
0
  0
XRECORD
  5
3FB
102
{ACAD_REACTORS
330
3E5
102
}
330
3E5
100
AcDbXrecord
 10
0.0
 20
0.0
 30
0.0
  0
XRECORD
  5
3F7
102
{ACAD_REACTORS
330
3E5
102
}
330
3E5
100
AcDbXrecord
 10
0.0
 20
0.0
 30
0.0
  0
XRECORD
  5
3FA
102
{ACAD_REACTORS
330
3E5
102
}
330
3E5
100
AcDbXrecord
 10
0.0
 20
0.0
 30
0.0
  0
XRECORD
  5
3F8
102
{ACAD_REACTORS
330
3E5
102
}
330
3E5
100
AcDbXrecord
 10
0.0
 20
0.0
 30
0.0
  0
XRECORD
  5
3F9
102
{ACAD_REACTORS
330
3E5
102
}
330
3E5
100
AcDbXrecord
 10
0.0
 20
0.0
 30
0.0
  0
XRECORD
  5
3F6
102
{ACAD_REACTORS
330
3E5
102
}
330
3E5
100
AcDbXrecord
 10
0.0
 20
0.0
 30
0.0
  0
XRECORD
  5
3F3
102
{ACAD_REACTORS
330
3E5
102
}
330
3E5
100
AcDbXrecord
340
0
  0
XRECORD
  5
3F4
102
{ACAD_REACTORS
330
3E5
102
}
330
3E5
100
AcDbXrecord
 70
     0
  0
XRECORD
  5
3E9
102
{ACAD_REACTORS
330
3E5
102
}
330
3E5
100
AcDbXrecord
  1

  0
XRECORD
  5
3E6
102
{ACAD_REACTORS
330
3E5
102
}
330
3E5
100
AcDbXrecord
 90
        1
  0
XRECORD
  5
3E7
102
{ACAD_REACTORS
330
3E5
102
}
330
3E5
100
AcDbXrecord
 90
       70
  0
XRECORD
  5
3FE
102
{ACAD_REACTORS
330
3E5
102
}
330
3E5
100
AcDbXrecord
340
0
  0
XRECORD
  5
404
102
{ACAD_REACTORS
330
3E5
102
}
330
3E5
100
AcDbXrecord
 10
0.0
 20
0.0
 30
0.0
  0
XRECORD
  5
400
102
{ACAD_REACTORS
330
3E5
102
}
330
3E5
100
AcDbXrecord
 10
0.0
 20
0.0
 30
0.0
  0
XRECORD
  5
403
102
{ACAD_REACTORS
330
3E5
102
}
330
3E5
100
AcDbXrecord
 10
0.0
 20
0.0
 30
0.0
  0
XRECORD
  5
401
102
{ACAD_REACTORS
330
3E5
102
}
330
3E5
100
AcDbXrecord
 10
0.0
 20
0.0
 30
0.0
  0
XRECORD
  5
402
102
{ACAD_REACTORS
330
3E5
102
}
330
3E5
100
AcDbXrecord
 10
0.0
 20
0.0
 30
0.0
  0
XRECORD
  5
3FF
102
{ACAD_REACTORS
330
3E5
102
}
330
3E5
100
AcDbXrecord
 10
0.0
 20
0.0
 30
0.0
  0
XRECORD
  5
3FC
102
{ACAD_REACTORS
330
3E5
102
}
330
3E5
100
AcDbXrecord
340
0
  0
XRECORD
  5
3FD
102
{ACAD_REACTORS
330
3E5
102
}
330
3E5
100
AcDbXrecord
 70
     0
  0
XRECORD
  5
3F1
102
{ACAD_REACTORS
330
3E5
102
}
330
3E5
100
AcDbXrecord
  1
{FAEB1C32-E019-11D5-929B-00C0DF256EC4}
  0
DICTIONARYVAR
  5
413
102
{ACAD_REACTORS
330
406
102
}
330
406
100
DictionaryVariables
280
     0
  1
1:1
  0
DICTIONARYVAR
  5
40D
102
{ACAD_REACTORS
330
406
102
}
330
406
100
DictionaryVariables
280
     0
  1
3.500000
  0
DICTIONARYVAR
  5
40E
102
{ACAD_REACTORS
330
406
102
}
330
406
100
DictionaryVariables
280
     0
  1
acadiso.lin
  0
DICTIONARYVAR
  5
408
102
{ACAD_REACTORS
330
406
102
}
330
406
100
DictionaryVariables
280
     0
  1
Standard
  0
DICTIONARYVAR
  5
407
102
{ACAD_REACTORS
330
406
102
}
330
406
100
DictionaryVariables
280
     0
  1
Standard
  0
DICTIONARYVAR
  5
40F
102
{ACAD_REACTORS
330
406
102
}
330
406
100
DictionaryVariables
280
     0
  1
2
  0
DICTIONARYVAR
  5
410
102
{ACAD_REACTORS
330
406
102
}
330
406
100
DictionaryVariables
280
     0
  1
1
  0
DICTIONARYVAR
  5
414
102
{ACAD_REACTORS
330
406
102
}
330
406
100
DictionaryVariables
280
     0
  1
1
  0
DICTIONARYVAR
  5
40A
102
{ACAD_REACTORS
330
406
102
}
330
406
100
DictionaryVariables
280
     0
  1
80.000000
  0
DICTIONARYVAR
  5
409
102
{ACAD_REACTORS
330
406
102
}
330
406
100
DictionaryVariables
280
     0
  1
5.000000
  0
DICTIONARY
  5
417
330
45
100
AcDbDictionary
280
     1
  3
ACAD_XREC_ROUNDTRIP
360
418
  0
DICTIONARY
  5
415
330
44
100
AcDbDictionary
280
     1
  3
ACAD_XREC_ROUNDTRIP
360
416
  0
DICTIONARY
  5
419
330
46
100
AcDbDictionary
280
     1
  3
ACAD_XREC_ROUNDTRIP
360
41A
  0
XRECORD
  5
418
102
{ACAD_REACTORS
330
417
102
}
330
417
100
AcDbXrecord
102
MATERIAL
148
0.0
149
0.0
149
0.0
 93
        0
 94
      127
282
     0
 72
     1
 77
     1
171
     1
175
     1
179
     1
273
     0
  0
XRECORD
  5
416
102
{ACAD_REACTORS
330
415
102
}
330
415
100
AcDbXrecord
102
MATERIAL
148
0.0
149
0.0
149
0.0
 93
        0
 94
      127
282
     0
 72
     1
 77
     1
171
     1
175
     1
179
     1
273
     0
  0
XRECORD
  5
41A
102
{ACAD_REACTORS
330
419
102
}
330
419
100
AcDbXrecord
102
MATERIAL
148
0.0
149
0.0
149
0.0
 93
        0
 94
      127
282
     0
 72
     1
 77
     1
171
     1
175
     1
179
     1
273
     0
  0
ENDSEC
  0
EOF
