  0
SECTION
  2
HEADER
  9
$ACADVER
  1
AC1014
  9
$ACADMAINTVER
 70
     9
  9
$DWGCODEPAGE
  3
ANSI_932
  9
$INSBASE
 10
0.0
 20
0.0
 30
0.0
  9
$EXTMIN
 10
15.0
 20
30.0
 30
0.0
  9
$EXTMAX
 10
1155.0
 20
840.0
 30
0.0
  9
$LIMMIN
 10
0.0
 20
0.0
  9
$LIMMAX
 10
420.0
 20
297.0
  9
$ORTHOMODE
 70
     0
  9
$REGENMODE
 70
     1
  9
$FILLMODE
 70
     1
  9
$QTEXTMODE
 70
     0
  9
$MIRRTEXT
 70
     1
  9
$DRAGMODE
 70
     2
  9
$LTSCALE
 40
0.2
  9
$OSMODE
 70
    37
  9
$ATTMODE
 70
     1
  9
$TEXTSIZE
 40
2.5
  9
$TRACEWID
 40
1.0
  9
$TEXTSTYLE
  7
STANDARD
  9
$CLAYER
  8
LAY-10
  9
$CELTYPE
  6
BYLAYER
  9
$CECOLOR
 62
   256
  9
$CELTSCALE
 40
1.0
  9
$DELOBJ
 70
     1
  9
$DISPSILH
 70
     0
  9
$DIMSCALE
 40
1.0
  9
$DIMASZ
 40
2.5
  9
$DIMEXO
 40
0.625
  9
$DIMDLI
 40
3.75
  9
$DIMRND
 40
0.0
  9
$DIMDLE
 40
0.0
  9
$DIMEXE
 40
1.25
  9
$DIMTP
 40
0.0
  9
$DIMTM
 40
0.0
  9
$DIMTXT
 40
2.5
  9
$DIMCEN
 40
2.5
  9
$DIMTSZ
 40
0.0
  9
$DIMTOL
 70
     0
  9
$DIMLIM
 70
     0
  9
$DIMTIH
 70
     0
  9
$DIMTOH
 70
     0
  9
$DIMSE1
 70
     0
  9
$DIMSE2
 70
     0
  9
$DIMTAD
 70
     1
  9
$DIMZIN
 70
     8
  9
$DIMBLK
  1

  9
$DIMASO
 70
     1
  9
$DIMSHO
 70
     1
  9
$DIMPOST
  1

  9
$DIMAPOST
  1

  9
$DIMALT
 70
     0
  9
$DIMALTD
 70
     3
  9
$DIMALTF
 40
0.03937007874016
  9
$DIMLFAC
 40
1.0
  9
$DIMTOFL
 70
     1
  9
$DIMTVP
 40
0.0
  9
$DIMTIX
 70
     0
  9
$DIMSOXD
 70
     0
  9
$DIMSAH
 70
     0
  9
$DIMBLK1
  1

  9
$DIMBLK2
  1

  9
$DIMSTYLE
  2
ISO-25
  9
$DIMCLRD
 70
     0
  9
$DIMCLRE
 70
     0
  9
$DIMCLRT
 70
     0
  9
$DIMTFAC
 40
1.0
  9
$DIMGAP
 40
0.625
  9
$DIMJUST
 70
     0
  9
$DIMSD1
 70
     0
  9
$DIMSD2
 70
     0
  9
$DIMTOLJ
 70
     0
  9
$DIMTZIN
 70
     8
  9
$DIMALTZ
 70
     0
  9
$DIMALTTZ
 70
     0
  9
$DIMFIT
 70
     3
  9
$DIMUPT
 70
     0
  9
$DIMUNIT
 70
     2
  9
$DIMDEC
 70
     2
  9
$DIMTDEC
 70
     2
  9
$DIMALTU
 70
     2
  9
$DIMALTTD
 70
     3
  9
$DIMTXSTY
  7
STANDARD
  9
$DIMAUNIT
 70
     0
  9
$LUNITS
 70
     2
  9
$LUPREC
 70
     4
  9
$SKETCHINC
 40
1.0
  9
$FILLETRAD
 40
10.0
  9
$AUNITS
 70
     0
  9
$AUPREC
 70
     0
  9
$MENU
  1
.
  9
$ELEVATION
 40
0.0
  9
$PELEVATION
 40
0.0
  9
$THICKNESS
 40
0.0
  9
$LIMCHECK
 70
     0
  9
$CHAMFERA
 40
0.0
  9
$CHAMFERB
 40
0.0
  9
$CHAMFERC
 40
0.0
  9
$CHAMFERD
 40
0.0
  9
$SKPOLY
 70
     0
  9
$TDCREATE
 40
2459229.337381725
  9
$TDUPDATE
 40
2459229.33738221
  9
$TDINDWG
 40
0.0000000116
  9
$TDUSRTIMER
 40
0.0000000116
  9
$USRTIMER
 70
     1
  9
$ANGBASE
 50
0.0
  9
$ANGDIR
 70
     0
  9
$PDMODE
 70
     0
  9
$PDSIZE
 40
0.0
  9
$PLINEWID
 40
0.0
  9
$COORDS
 70
     1
  9
$SPLFRAME
 70
     0
  9
$SPLINETYPE
 70
     6
  9
$SPLINESEGS
 70
     8
  9
$ATTDIA
 70
     0
  9
$ATTREQ
 70
     1
  9
$HANDLING
 70
     1
  9
$HANDSEED
  5
46E
  9
$SURFTAB1
 70
     6
  9
$SURFTAB2
 70
     6
  9
$SURFTYPE
 70
     6
  9
$SURFU
 70
     6
  9
$SURFV
 70
     6
  9
$UCSNAME
  2

  9
$UCSORG
 10
0.0
 20
0.0
 30
0.0
  9
$UCSXDIR
 10
1.0
 20
0.0
 30
0.0
  9
$UCSYDIR
 10
0.0
 20
1.0
 30
0.0
  9
$PUCSNAME
  2

  9
$PUCSORG
 10
0.0
 20
0.0
 30
0.0
  9
$PUCSXDIR
 10
1.0
 20
0.0
 30
0.0
  9
$PUCSYDIR
 10
0.0
 20
1.0
 30
0.0
  9
$USERI1
 70
     0
  9
$USERI2
 70
     0
  9
$USERI3
 70
     0
  9
$USERI4
 70
     0
  9
$USERI5
 70
     0
  9
$USERR1
 40
0.0
  9
$USERR2
 40
0.0
  9
$USERR3
 40
0.0
  9
$USERR4
 40
0.0
  9
$USERR5
 40
0.0
  9
$WORLDVIEW
 70
     1
  9
$SHADEDGE
 70
     3
  9
$SHADEDIF
 70
    70
  9
$TILEMODE
 70
     1
  9
$MAXACTVP
 70
    64
  9
$PINSBASE
 10
0.0
 20
0.0
 30
0.0
  9
$PLIMCHECK
 70
     0
  9
$PEXTMIN
 10
1.000000000000000E+20
 20
1.000000000000000E+20
 30
1.000000000000000E+20
  9
$PEXTMAX
 10
-1.000000000000000E+20
 20
-1.000000000000000E+20
 30
-1.000000000000000E+20
  9
$PLIMMIN
 10
0.0
 20
0.0
  9
$PLIMMAX
 10
420.0
 20
297.0
  9
$UNITMODE
 70
     0
  9
$VISRETAIN
 70
     1
  9
$PLINEGEN
 70
     0
  9
$PSLTSCALE
 70
     1
  9
$TREEDEPTH
 70
  3020
  9
$PICKSTYLE
 70
     1
  9
$CMLSTYLE
  2
STANDARD
  9
$CMLJUST
 70
     0
  9
$CMLSCALE
 40
20.0
  9
$PROXYGRAPHICS
 70
     1
  9
$MEASUREMENT
 70
     1
  0
ENDSEC
  0
SECTION
  2
CLASSES
  0
CLASS
  1
ACDBDICTIONARYWDFLT
  2
AcDbDictionaryWithDefault
  3
ObjectDBX Classes
 90
        0
280
     0
281
     0
  0
CLASS
  1
VISUALSTYLE
  2
AcDbVisualStyle
  3
ObjectDBX Classes
 90
     4095
280
     0
281
     0
  0
CLASS
  1
MATERIAL
  2
AcDbMaterial
  3
ObjectDBX Classes
 90
     1153
280
     0
281
     0
  0
CLASS
  1
SCALE
  2
AcDbScale
  3
ObjectDBX Classes
 90
     1153
280
     0
281
     0
  0
CLASS
  1
TABLESTYLE
  2
AcDbTableStyle
  3
ObjectDBX Classes
 90
     4095
280
     0
281
     0
  0
CLASS
  1
MLEADERSTYLE
  2
AcDbMLeaderStyle
  3
ACDB_MLEADERSTYLE_CLASS
 90
     4095
280
     0
281
     0
  0
CLASS
  1
SUN
  2
AcDbSun
  3
SCENEOE
 90
     1153
280
     0
281
     0
  0
CLASS
  1
DICTIONARYVAR
  2
AcDbDictionaryVar
  3
ObjectDBX Classes
 90
        0
280
     0
281
     0
  0
CLASS
  1
XRECORD
  2
AcDbXrecord
  3
ObjectDBX Classes
 90
        0
280
     0
281
     0
  0
CLASS
  1
LWPOLYLINE
  2
AcDbPolyline
  3
ObjectDBX Classes
 90
        0
280
     0
281
     1
  0
CLASS
  1
HATCH
  2
AcDbHatch
  3
ObjectDBX Classes
 90
        0
280
     0
281
     1
  0
CLASS
  1
ACDBPLACEHOLDER
  2
AcDbPlaceHolder
  3
ObjectDBX Classes
 90
        0
280
     0
281
     0
  0
CLASS
  1
LAYOUT
  2
AcDbLayout
  3
ObjectDBX Classes
 90
        0
280
     0
281
     0
  0
ENDSEC
  0
SECTION
  2
TABLES
  0
TABLE
  2
VPORT
  5
8
102
{ACAD_XDICTIONARY
360
463
102
}
330
0
100
AcDbSymbolTable
 70
     1
  0
VPORT
  5
29
330
8
100
AcDbSymbolTableRecord
100
AcDbViewportTableRecord
  2
*ACTIVE
 70
     0
 10
0.0
 20
0.0
 11
1.0
 21
1.0
 12
585.0000000000001
 22
435.0
 13
0.0
 23
0.0
 14
10.0
 24
10.0
 15
10.0
 25
10.0
 16
0.0
 26
0.0
 36
1.0
 17
0.0
 27
0.0
 37
0.0
 40
810.0
 41
1.407407407407408
 42
50.0
 43
0.0
 44
0.0
 50
0.0
 51
0.0
 71
     0
 72
  1000
 73
     1
 74
     3
 75
     0
 76
     0
 77
     0
 78
     0
  0
ENDTAB
  0
TABLE
  2
LTYPE
  5
5
330
0
100
AcDbSymbolTable
 70
     6
  0
LTYPE
  5
14
330
5
100
AcDbSymbolTableRecord
100
AcDbLinetypeTableRecord
  2
BYBLOCK
 70
     0
  3

 72
    65
 73
     0
 40
0.0
  0
LTYPE
  5
15
330
5
100
AcDbSymbolTableRecord
100
AcDbLinetypeTableRecord
  2
BYLAYER
 70
     0
  3

 72
    65
 73
     0
 40
0.0
  0
LTYPE
  5
16
330
5
100
AcDbSymbolTableRecord
100
AcDbLinetypeTableRecord
  2
CONTINUOUS
 70
     0
  3
Solid line
 72
    65
 73
     0
 40
0.0
  0
LTYPE
  5
6E
330
5
100
AcDbSymbolTableRecord
100
AcDbLinetypeTableRecord
  2
HIDDEN
 70
     0
  3
Hidden __ __ __ __ __ __ __ __ __ __ __ __ __ __
 72
    65
 73
     2
 40
9.524999999999999
 49
6.35
 74
     0
 49
-3.175
 74
     0
  0
LTYPE
  5
6F
330
5
100
AcDbSymbolTableRecord
100
AcDbLinetypeTableRecord
  2
CENTER
 70
     0
  3
Center ____ _ ____ _ ____ _ ____ _ ____ _ ____
 72
    65
 73
     4
 40
50.8
 49
31.75
 74
     0
 49
-6.35
 74
     0
 49
6.35
 74
     0
 49
-6.35
 74
     0
  0
LTYPE
  5
70
330
5
100
AcDbSymbolTableRecord
100
AcDbLinetypeTableRecord
  2
PHANTOM
 70
     0
  3
Phantom ______  __  __  ______  __  __  ______ 
 72
    65
 73
     6
 40
63.50000000000001
 49
31.75
 74
     0
 49
-6.35
 74
     0
 49
6.35
 74
     0
 49
-6.35
 74
     0
 49
6.35
 74
     0
 49
-6.35
 74
     0
  0
LTYPE
  5
71
330
5
100
AcDbSymbolTableRecord
100
AcDbLinetypeTableRecord
  2
ACAD_ISO06W100
 70
     0
  3
ISO long-dash triple-dot ____ ... ____ ... ____
 72
    65
 73
     8
 40
36.0
 49
24.0
 74
     0
 49
-3.0
 74
     0
 49
0.0
 74
     0
 49
-3.0
 74
     0
 49
0.0
 74
     0
 49
-3.0
 74
     0
 49
0.0
 74
     0
 49
-3.0
 74
     0
  0
LTYPE
  5
72
330
5
100
AcDbSymbolTableRecord
100
AcDbLinetypeTableRecord
  2
ACAD_ISO15W100
 70
     0
  3
ISO double-dash triple-dot __ __ . . . __ __ . .
 72
    65
 73
    10
 40
39.0
 49
12.0
 74
     0
 49
-3.0
 74
     0
 49
12.0
 74
     0
 49
-3.0
 74
     0
 49
0.0
 74
     0
 49
-3.0
 74
     0
 49
0.0
 74
     0
 49
-3.0
 74
     0
 49
0.0
 74
     0
 49
-3.0
 74
     0
  0
ENDTAB
  0
TABLE
  2
LAYER
  5
2
330
0
100
AcDbSymbolTable
 70
     5
  0
LAYER
  5
10
330
2
100
AcDbSymbolTableRecord
100
AcDbLayerTableRecord
  2
0
 70
     0
 62
     7
  6
CONTINUOUS
  0
LAYER
  5
75
330
2
100
AcDbSymbolTableRecord
100
AcDbLayerTableRecord
  2
LAY-10
 70
     0
 62
     7
  6
CONTINUOUS
  0
LAYER
  5
76
330
2
100
AcDbSymbolTableRecord
100
AcDbLayerTableRecord
  2
LAY-20
 70
     0
 62
     7
  6
CONTINUOUS
  0
LAYER
  5
77
330
2
100
AcDbSymbolTableRecord
100
AcDbLayerTableRecord
  2
LAY-255
 70
     0
 62
     7
  6
CONTINUOUS
  0
LAYER
  5
3B5
330
2
100
AcDbSymbolTableRecord
100
AcDbLayerTableRecord
  2
DEFPOINTS
 70
     0
 62
     7
  6
CONTINUOUS
  0
ENDTAB
  0
TABLE
  2
STYLE
  5
3
330
0
100
AcDbSymbolTable
 70
     4
  0
STYLE
  5
11
330
3
100
AcDbSymbolTableRecord
100
AcDbTextStyleTableRecord
  2
STANDARD
 70
     0
 40
0.0
 41
1.0
 50
0.0
 71
     0
 42
2.5
  3
simplex
  4
bigfont
  0
STYLE
  5
73
330
3
100
AcDbSymbolTableRecord
100
AcDbTextStyleTableRecord
  2
EXCADSTD
 70
     0
 40
0.0
 41
1.0
 50
0.0
 71
     0
 42
2.5
  3
simplex
  4
bigfont
  0
STYLE
  5
74
330
3
100
AcDbSymbolTableRecord
100
AcDbTextStyleTableRecord
  2
EXCADVERT
 70
     4
 40
0.0
 41
1.0
 50
0.0
 71
     0
 42
2.5
  3
simplex
  4
bigfont
  0
STYLE
  5
3B3
330
3
100
AcDbSymbolTableRecord
100
AcDbTextStyleTableRecord
  2
EXCADDIM1
 70
     0
 40
0.0
 41
0.84
 50
0.0
 71
     0
 42
2.5
  3
simplex
  4
bigfont
  0
ENDTAB
  0
TABLE
  2
VIEW
  5
6
330
0
100
AcDbSymbolTable
 70
     0
  0
ENDTAB
  0
TABLE
  2
UCS
  5
7
330
0
100
AcDbSymbolTable
 70
     0
  0
ENDTAB
  0
TABLE
  2
APPID
  5
9
330
0
100
AcDbSymbolTable
 70
     2
  0
APPID
  5
12
330
9
100
AcDbSymbolTableRecord
100
AcDbRegAppTableRecord
  2
ACAD
 70
     0
  0
APPID
  5
46D
330
9
100
AcDbSymbolTableRecord
100
AcDbRegAppTableRecord
  2
ACAD_MLEADERVER
 70
     0
  0
ENDTAB
  0
TABLE
  2
DIMSTYLE
  5
A
330
0
100
AcDbSymbolTable
 70
     1
  0
DIMSTYLE
105
27
102
{ACAD_REACTORS
330
3B4
330
3C2
330
3CF
330
3DC
330
3E9
330
3F6
330
402
102
}
330
A
100
AcDbSymbolTableRecord
100
AcDbDimStyleTableRecord
  2
ISO-25
 70
     0
  3

  4

  5

  6

  7

 40
1.0
 41
2.5
 42
0.625
 43
3.75
 44
1.25
 45
0.0
 46
0.0
 47
0.0
 48
0.0
140
2.5
141
2.5
142
0.0
143
0.03937007874016
144
1.0
145
0.0
146
1.0
147
0.625
 71
     0
 72
     0
 73
     0
 74
     0
 75
     0
 76
     0
 77
     1
 78
     8
170
     0
171
     3
172
     1
173
     0
174
     0
175
     0
176
     0
177
     0
178
     0
270
     2
271
     2
272
     2
273
     2
274
     3
340
11
275
     0
280
     0
281
     0
282
     0
283
     0
284
     8
285
     0
286
     0
287
     5
288
     0
  0
ENDTAB
  0
TABLE
  2
BLOCK_RECORD
  5
1
330
0
100
AcDbSymbolTable
 70
    21
  0
BLOCK_RECORD
  5
1F
330
1
100
AcDbSymbolTableRecord
100
AcDbBlockTableRecord
  2
*MODEL_SPACE
  0
BLOCK_RECORD
  5
1B
330
1
100
AcDbSymbolTableRecord
100
AcDbBlockTableRecord
  2
*PAPER_SPACE
  0
BLOCK_RECORD
  5
78
330
1
100
AcDbSymbolTableRecord
100
AcDbBlockTableRecord
  2
EX_NORM
  0
BLOCK_RECORD
  5
7B
330
1
100
AcDbSymbolTableRecord
100
AcDbBlockTableRecord
  2
EX_BNORM
  0
BLOCK_RECORD
  5
7E
330
1
100
AcDbSymbolTableRecord
100
AcDbBlockTableRecord
  2
EX_BCIR
  0
BLOCK_RECORD
  5
81
330
1
100
AcDbSymbolTableRecord
100
AcDbBlockTableRecord
  2
EX_RCIVIL
  0
BLOCK_RECORD
  5
84
330
1
100
AcDbSymbolTableRecord
100
AcDbBlockTableRecord
  2
EX_SLANT
  0
BLOCK_RECORD
  5
87
330
1
100
AcDbSymbolTableRecord
100
AcDbBlockTableRecord
  2
EX_NONE
  0
BLOCK_RECORD
  5
8A
330
1
100
AcDbSymbolTableRecord
100
AcDbBlockTableRecord
  2
EX_CIVIL
  0
BLOCK_RECORD
  5
8D
330
1
100
AcDbSymbolTableRecord
100
AcDbBlockTableRecord
  2
EX_WCIR
  0
BLOCK_RECORD
  5
90
330
1
100
AcDbSymbolTableRecord
100
AcDbBlockTableRecord
  2
EX_WCIR2
  0
BLOCK_RECORD
  5
93
330
1
100
AcDbSymbolTableRecord
100
AcDbBlockTableRecord
  2
EX_WNORM
  0
BLOCK_RECORD
  5
96
330
1
100
AcDbSymbolTableRecord
100
AcDbBlockTableRecord
  2
EX_NNORM
  0
BLOCK_RECORD
  5
99
330
1
100
AcDbSymbolTableRecord
100
AcDbBlockTableRecord
  2
EX_BBOX
  0
BLOCK_RECORD
  5
9C
330
1
100
AcDbSymbolTableRecord
100
AcDbBlockTableRecord
  2
EX_WBOX
  0
BLOCK_RECORD
  5
9F
330
1
100
AcDbSymbolTableRecord
100
AcDbBlockTableRecord
  2
EX_INTEGRAL
  0
BLOCK_RECORD
  5
3B6
330
1
100
AcDbSymbolTableRecord
100
AcDbBlockTableRecord
  2
*D15
  0
BLOCK_RECORD
  5
3C3
330
1
100
AcDbSymbolTableRecord
100
AcDbBlockTableRecord
  2
*D16
  0
BLOCK_RECORD
  5
3D0
330
1
100
AcDbSymbolTableRecord
100
AcDbBlockTableRecord
  2
*D17
  0
BLOCK_RECORD
  5
3DD
330
1
100
AcDbSymbolTableRecord
100
AcDbBlockTableRecord
  2
*D18
  0
BLOCK_RECORD
  5
3EA
330
1
100
AcDbSymbolTableRecord
100
AcDbBlockTableRecord
  2
*D19
  0
BLOCK_RECORD
  5
3F7
330
1
100
AcDbSymbolTableRecord
100
AcDbBlockTableRecord
  2
*D20
  0
BLOCK_RECORD
  5
403
330
1
100
AcDbSymbolTableRecord
100
AcDbBlockTableRecord
  2
*D21
  0
ENDTAB
  0
ENDSEC
  0
SECTION
  2
BLOCKS
  0
BLOCK
  5
20
330
1F
100
AcDbEntity
  8
0
100
AcDbBlockBegin
  2
*MODEL_SPACE
 70
     0
 10
0.0
 20
0.0
 30
0.0
  3
*MODEL_SPACE
  1

  0
ENDBLK
  5
21
330
1F
100
AcDbEntity
  8
0
100
AcDbBlockEnd
  0
BLOCK
  5
1C
330
1B
100
AcDbEntity
 67
     1
  8
0
100
AcDbBlockBegin
  2
*PAPER_SPACE
 70
     0
 10
0.0
 20
0.0
 30
0.0
  3
*PAPER_SPACE
  1

  0
ENDBLK
  5
1D
330
1B
100
AcDbEntity
 67
     1
  8
0
100
AcDbBlockEnd
  0
BLOCK
  5
79
330
78
100
AcDbEntity
  8
0
100
AcDbBlockBegin
  2
EX_NORM
 70
     0
 10
0.0
 20
0.0
 30
0.0
  3
EX_NORM
  1

  0
LINE
  5
A2
330
78
100
AcDbEntity
  8
0
  6
CONTINUOUS
 62
     0
100
AcDbLine
 10
0.0
 20
0.0
 30
0.0
 11
-1.0
 21
0.0
 31
0.0
  0
LINE
  5
A3
330
78
100
AcDbEntity
  8
0
  6
CONTINUOUS
 62
     0
100
AcDbLine
 10
0.0
 20
0.0
 30
0.0
 11
-1.0
 21
0.166666667
 31
0.0
  0
LINE
  5
A4
330
78
100
AcDbEntity
  8
0
  6
CONTINUOUS
 62
     0
100
AcDbLine
 10
0.0
 20
0.0
 30
0.0
 11
-1.0
 21
-0.166666667
 31
0.0
  0
ENDBLK
  5
7A
330
78
100
AcDbEntity
  8
0
100
AcDbBlockEnd
  0
BLOCK
  5
7C
330
7B
100
AcDbEntity
  8
0
100
AcDbBlockBegin
  2
EX_BNORM
 70
     0
 10
0.0
 20
0.0
 30
0.0
  3
EX_BNORM
  1

  0
LINE
  5
A5
330
7B
100
AcDbEntity
  8
0
  6
CONTINUOUS
 62
     0
100
AcDbLine
 10
0.0
 20
0.0
 30
0.0
 11
-1.0
 21
0.0
 31
0.0
  0
LINE
  5
A6
330
7B
100
AcDbEntity
  8
0
  6
CONTINUOUS
 62
     0
100
AcDbLine
 10
0.0
 20
0.0
 30
0.0
 11
-1.0
 21
0.166666667
 31
0.0
  0
LINE
  5
A7
330
7B
100
AcDbEntity
  8
0
  6
CONTINUOUS
 62
     0
100
AcDbLine
 10
0.0
 20
0.0
 30
0.0
 11
-1.0
 21
-0.166666667
 31
0.0
  0
LINE
  5
A8
330
7B
100
AcDbEntity
  8
0
  6
CONTINUOUS
 62
     0
100
AcDbLine
 10
0.0
 20
0.0
 30
0.0
 11
-1.0
 21
0.083333333
 31
0.0
  0
LINE
  5
A9
330
7B
100
AcDbEntity
  8
0
  6
CONTINUOUS
 62
     0
100
AcDbLine
 10
0.0
 20
0.0
 30
0.0
 11
-1.0
 21
-0.083333333
 31
0.0
  0
LINE
  5
AA
330
7B
100
AcDbEntity
  8
0
  6
CONTINUOUS
 62
     0
100
AcDbLine
 10
-1.0
 20
0.166666667
 30
0.0
 11
-1.0
 21
-0.166666667
 31
0.0
  0
ENDBLK
  5
7D
330
7B
100
AcDbEntity
  8
0
100
AcDbBlockEnd
  0
BLOCK
  5
7F
330
7E
100
AcDbEntity
  8
0
100
AcDbBlockBegin
  2
EX_BCIR
 70
     0
 10
0.0
 20
0.0
 30
0.0
  3
EX_BCIR
  1

  0
LINE
  5
AB
330
7E
100
AcDbEntity
  8
0
  6
CONTINUOUS
 62
     0
100
AcDbLine
 10
0.0
 20
0.0
 30
0.0
 11
-1.0
 21
0.0
 31
0.0
  0
CIRCLE
  5
AC
330
7E
100
AcDbEntity
  8
0
  6
CONTINUOUS
 62
     0
100
AcDbCircle
 10
0.0
 20
0.0
 30
0.0
 40
0.5
  0
CIRCLE
  5
AD
330
7E
100
AcDbEntity
  8
0
  6
CONTINUOUS
 62
     0
100
AcDbCircle
 10
0.0
 20
0.0
 30
0.0
 40
0.25
  0
ENDBLK
  5
80
330
7E
100
AcDbEntity
  8
0
100
AcDbBlockEnd
  0
BLOCK
  5
82
330
81
100
AcDbEntity
  8
0
100
AcDbBlockBegin
  2
EX_RCIVIL
 70
     0
 10
0.0
 20
0.0
 30
0.0
  3
EX_RCIVIL
  1

  0
LINE
  5
AE
330
81
100
AcDbEntity
  8
0
  6
CONTINUOUS
 62
     0
100
AcDbLine
 10
0.0
 20
0.0
 30
0.0
 11
-1.0
 21
0.0
 31
0.0
  0
LINE
  5
AF
330
81
100
AcDbEntity
  8
0
  6
CONTINUOUS
 62
     0
100
AcDbLine
 10
-1.0
 20
-0.25
 30
0.0
 11
0.0
 21
-0.25
 31
0.0
  0
LINE
  5
B0
330
81
100
AcDbEntity
  8
0
  6
CONTINUOUS
 62
     0
100
AcDbLine
 10
-1.0
 20
-0.125
 30
0.0
 11
0.0
 21
-0.125
 31
0.0
  0
ENDBLK
  5
83
330
81
100
AcDbEntity
  8
0
100
AcDbBlockEnd
  0
BLOCK
  5
85
330
84
100
AcDbEntity
  8
0
100
AcDbBlockBegin
  2
EX_SLANT
 70
     0
 10
0.0
 20
0.0
 30
0.0
  3
EX_SLANT
  1

  0
LINE
  5
B1
330
84
100
AcDbEntity
  8
0
  6
CONTINUOUS
 62
     0
100
AcDbLine
 10
0.0
 20
0.0
 30
0.0
 11
-1.0
 21
0.0
 31
0.0
  0
LINE
  5
B2
330
84
100
AcDbEntity
  8
0
  6
CONTINUOUS
 62
     0
100
AcDbLine
 10
0.707106781
 20
0.707106781
 30
0.0
 11
-0.707106781
 21
-0.707106781
 31
0.0
  0
ENDBLK
  5
86
330
84
100
AcDbEntity
  8
0
100
AcDbBlockEnd
  0
BLOCK
  5
88
330
87
100
AcDbEntity
  8
0
100
AcDbBlockBegin
  2
EX_NONE
 70
     0
 10
0.0
 20
0.0
 30
0.0
  3
EX_NONE
  1

  0
LINE
  5
B3
330
87
100
AcDbEntity
  8
0
  6
CONTINUOUS
 62
     0
100
AcDbLine
 10
0.0
 20
0.0
 30
0.0
 11
-1.0
 21
0.0
 31
0.0
  0
ENDBLK
  5
89
330
87
100
AcDbEntity
  8
0
100
AcDbBlockEnd
  0
BLOCK
  5
8B
330
8A
100
AcDbEntity
  8
0
100
AcDbBlockBegin
  2
EX_CIVIL
 70
     0
 10
0.0
 20
0.0
 30
0.0
  3
EX_CIVIL
  1

  0
LINE
  5
B4
330
8A
100
AcDbEntity
  8
0
  6
CONTINUOUS
 62
     0
100
AcDbLine
 10
0.0
 20
0.0
 30
0.0
 11
-1.0
 21
0.0
 31
0.0
  0
LINE
  5
B5
330
8A
100
AcDbEntity
  8
0
  6
CONTINUOUS
 62
     0
100
AcDbLine
 10
-1.0
 20
0.25
 30
0.0
 11
0.0
 21
0.25
 31
0.0
  0
LINE
  5
B6
330
8A
100
AcDbEntity
  8
0
  6
CONTINUOUS
 62
     0
100
AcDbLine
 10
-1.0
 20
0.125
 30
0.0
 11
0.0
 21
0.125
 31
0.0
  0
ENDBLK
  5
8C
330
8A
100
AcDbEntity
  8
0
100
AcDbBlockEnd
  0
BLOCK
  5
8E
330
8D
100
AcDbEntity
  8
0
100
AcDbBlockBegin
  2
EX_WCIR
 70
     0
 10
0.0
 20
0.0
 30
0.0
  3
EX_WCIR
  1

  0
LINE
  5
B7
330
8D
100
AcDbEntity
  8
0
  6
CONTINUOUS
 62
     0
100
AcDbLine
 10
0.0
 20
0.0
 30
0.0
 11
-1.0
 21
0.0
 31
0.0
  0
CIRCLE
  5
B8
330
8D
100
AcDbEntity
  8
0
  6
CONTINUOUS
 62
     0
100
AcDbCircle
 10
0.0
 20
0.0
 30
0.0
 40
0.5
  0
ENDBLK
  5
8F
330
8D
100
AcDbEntity
  8
0
100
AcDbBlockEnd
  0
BLOCK
  5
91
330
90
100
AcDbEntity
  8
0
100
AcDbBlockBegin
  2
EX_WCIR2
 70
     0
 10
0.0
 20
0.0
 30
0.0
  3
EX_WCIR2
  1

  0
LINE
  5
B9
330
90
100
AcDbEntity
  8
0
  6
CONTINUOUS
 62
     0
100
AcDbLine
 10
-0.5
 20
0.0
 30
0.0
 11
-1.0
 21
0.0
 31
0.0
  0
CIRCLE
  5
BA
330
90
100
AcDbEntity
  8
0
  6
CONTINUOUS
 62
     0
100
AcDbCircle
 10
0.0
 20
0.0
 30
0.0
 40
0.5
  0
ENDBLK
  5
92
330
90
100
AcDbEntity
  8
0
100
AcDbBlockEnd
  0
BLOCK
  5
94
330
93
100
AcDbEntity
  8
0
100
AcDbBlockBegin
  2
EX_WNORM
 70
     0
 10
0.0
 20
0.0
 30
0.0
  3
EX_WNORM
  1

  0
LINE
  5
BB
330
93
100
AcDbEntity
  8
0
  6
CONTINUOUS
 62
     0
100
AcDbLine
 10
-1.0
 20
0.0
 30
0.0
 11
-1.0
 21
0.0
 31
0.0
  0
LINE
  5
BC
330
93
100
AcDbEntity
  8
0
  6
CONTINUOUS
 62
     0
100
AcDbLine
 10
0.0
 20
0.0
 30
0.0
 11
-1.0
 21
0.166666667
 31
0.0
  0
LINE
  5
BD
330
93
100
AcDbEntity
  8
0
  6
CONTINUOUS
 62
     0
100
AcDbLine
 10
0.0
 20
0.0
 30
0.0
 11
-1.0
 21
-0.166666667
 31
0.0
  0
LINE
  5
BE
330
93
100
AcDbEntity
  8
0
  6
CONTINUOUS
 62
     0
100
AcDbLine
 10
-1.0
 20
0.166666667
 30
0.0
 11
-1.0
 21
-0.166666667
 31
0.0
  0
ENDBLK
  5
95
330
93
100
AcDbEntity
  8
0
100
AcDbBlockEnd
  0
BLOCK
  5
97
330
96
100
AcDbEntity
  8
0
100
AcDbBlockBegin
  2
EX_NNORM
 70
     0
 10
0.0
 20
0.0
 30
0.0
  3
EX_NNORM
  1

  0
LINE
  5
BF
330
96
100
AcDbEntity
  8
0
  6
CONTINUOUS
 62
     0
100
AcDbLine
 10
0.0
 20
0.0
 30
0.0
 11
-1.0
 21
0.0
 31
0.0
  0
LINE
  5
C0
330
96
100
AcDbEntity
  8
0
  6
CONTINUOUS
 62
     0
100
AcDbLine
 10
0.0
 20
0.0
 30
0.0
 11
-1.0
 21
0.166666667
 31
0.0
  0
LINE
  5
C1
330
96
100
AcDbEntity
  8
0
  6
CONTINUOUS
 62
     0
100
AcDbLine
 10
0.0
 20
0.0
 30
0.0
 11
-1.0
 21
-0.166666667
 31
0.0
  0
LINE
  5
C2
330
96
100
AcDbEntity
  8
0
  6
CONTINUOUS
 62
     0
100
AcDbLine
 10
-1.0
 20
0.166666667
 30
0.0
 11
-1.0
 21
-0.166666667
 31
0.0
  0
ENDBLK
  5
98
330
96
100
AcDbEntity
  8
0
100
AcDbBlockEnd
  0
BLOCK
  5
9A
330
99
100
AcDbEntity
  8
0
100
AcDbBlockBegin
  2
EX_BBOX
 70
     0
 10
0.0
 20
0.0
 30
0.0
  3
EX_BBOX
  1

  0
LINE
  5
C3
330
99
100
AcDbEntity
  8
0
  6
CONTINUOUS
 62
     0
100
AcDbLine
 10
0.0
 20
0.0
 30
0.0
 11
-1.0
 21
0.0
 31
0.0
  0
LINE
  5
C4
330
99
100
AcDbEntity
  8
0
  6
CONTINUOUS
 62
     0
100
AcDbLine
 10
-0.5
 20
0.5
 30
0.0
 11
0.5
 21
0.5
 31
0.0
  0
LINE
  5
C5
330
99
100
AcDbEntity
  8
0
  6
CONTINUOUS
 62
     0
100
AcDbLine
 10
0.5
 20
0.5
 30
0.0
 11
0.5
 21
-0.5
 31
0.0
  0
LINE
  5
C6
330
99
100
AcDbEntity
  8
0
  6
CONTINUOUS
 62
     0
100
AcDbLine
 10
0.5
 20
-0.5
 30
0.0
 11
-0.5
 21
-0.5
 31
0.0
  0
LINE
  5
C7
330
99
100
AcDbEntity
  8
0
  6
CONTINUOUS
 62
     0
100
AcDbLine
 10
-0.5
 20
-0.5
 30
0.0
 11
-0.5
 21
0.5
 31
0.0
  0
LINE
  5
C8
330
99
100
AcDbEntity
  8
0
  6
CONTINUOUS
 62
     0
100
AcDbLine
 10
-0.25
 20
0.25
 30
0.0
 11
0.25
 21
0.25
 31
0.0
  0
LINE
  5
C9
330
99
100
AcDbEntity
  8
0
  6
CONTINUOUS
 62
     0
100
AcDbLine
 10
0.25
 20
0.25
 30
0.0
 11
0.25
 21
-0.25
 31
0.0
  0
LINE
  5
CA
330
99
100
AcDbEntity
  8
0
  6
CONTINUOUS
 62
     0
100
AcDbLine
 10
0.25
 20
-0.25
 30
0.0
 11
-0.25
 21
-0.25
 31
0.0
  0
LINE
  5
CB
330
99
100
AcDbEntity
  8
0
  6
CONTINUOUS
 62
     0
100
AcDbLine
 10
-0.25
 20
-0.25
 30
0.0
 11
-0.25
 21
0.25
 31
0.0
  0
ENDBLK
  5
9B
330
99
100
AcDbEntity
  8
0
100
AcDbBlockEnd
  0
BLOCK
  5
9D
330
9C
100
AcDbEntity
  8
0
100
AcDbBlockBegin
  2
EX_WBOX
 70
     0
 10
0.0
 20
0.0
 30
0.0
  3
EX_WBOX
  1

  0
LINE
  5
CC
330
9C
100
AcDbEntity
  8
0
  6
CONTINUOUS
 62
     0
100
AcDbLine
 10
-0.5
 20
0.0
 30
0.0
 11
-1.0
 21
0.0
 31
0.0
  0
LINE
  5
CD
330
9C
100
AcDbEntity
  8
0
  6
CONTINUOUS
 62
     0
100
AcDbLine
 10
-0.5
 20
0.5
 30
0.0
 11
0.5
 21
0.5
 31
0.0
  0
LINE
  5
CE
330
9C
100
AcDbEntity
  8
0
  6
CONTINUOUS
 62
     0
100
AcDbLine
 10
0.5
 20
0.5
 30
0.0
 11
0.5
 21
-0.5
 31
0.0
  0
LINE
  5
CF
330
9C
100
AcDbEntity
  8
0
  6
CONTINUOUS
 62
     0
100
AcDbLine
 10
0.5
 20
-0.5
 30
0.0
 11
-0.5
 21
-0.5
 31
0.0
  0
LINE
  5
D0
330
9C
100
AcDbEntity
  8
0
  6
CONTINUOUS
 62
     0
100
AcDbLine
 10
-0.5
 20
-0.5
 30
0.0
 11
-0.5
 21
0.5
 31
0.0
  0
ENDBLK
  5
9E
330
9C
100
AcDbEntity
  8
0
100
AcDbBlockEnd
  0
BLOCK
  5
A0
330
9F
100
AcDbEntity
  8
0
100
AcDbBlockBegin
  2
EX_INTEGRAL
 70
     0
 10
0.0
 20
0.0
 30
0.0
  3
EX_INTEGRAL
  1

  0
LINE
  5
D1
330
9F
100
AcDbEntity
  8
0
  6
CONTINUOUS
 62
     0
100
AcDbLine
 10
0.0
 20
0.0
 30
0.0
 11
-1.0
 21
0.0
 31
0.0
  0
ARC
  5
D2
330
9F
100
AcDbEntity
  8
0
  6
CONTINUOUS
 62
     0
100
AcDbCircle
 10
0.542115
 20
0.164992
 30
0.0
 40
0.56667
100
AcDbArc
 50
73.07249033629006
 51
196.9275130221199
  0
ARC
  5
D3
330
9F
100
AcDbEntity
  8
0
  6
CONTINUOUS
 62
     0
100
AcDbCircle
 10
-0.542115
 20
-0.164992
 30
0.0
 40
0.56667
100
AcDbArc
 50
253.0724869220464
 51
16.9275130559125
  0
ENDBLK
  5
A1
330
9F
100
AcDbEntity
  8
0
100
AcDbBlockEnd
  0
BLOCK
  5
3B7
330
3B6
100
AcDbEntity
  8
0
100
AcDbBlockBegin
  2
*D15
 70
     1
 10
0.0
 20
0.0
 30
0.0
  3
*D15
  1

  0
LINE
  5
3B9
330
3B6
100
AcDbEntity
  8
LAY-20
  6
CONTINUOUS
 62
     4
100
AcDbLine
 10
395.800000000001
 20
227.49999999999
 30
0.0
 11
395.800000000001
 21
182.49999999999
 31
0.0
  0
LINE
  5
3BA
330
3B6
100
AcDbEntity
  8
LAY-20
  6
CONTINUOUS
 62
     4
100
AcDbLine
 10
534.2000000000011
 20
227.49999999999
 30
0.0
 11
534.2000000000011
 21
182.49999999999
 31
0.0
  0
LINE
  5
3BB
330
3B6
100
AcDbEntity
  8
LAY-20
  6
CONTINUOUS
 62
     4
100
AcDbLine
 10
403.300000000001
 20
186.99999999999
 30
0.0
 11
526.7000000000011
 21
186.99999999999
 31
0.0
  0
INSERT
  5
3BC
330
3B6
100
AcDbEntity
  8
LAY-20
 62
     4
100
AcDbBlockReference
  2
EX_BNORM
 10
395.800000000001
 20
186.99999999999
 30
0.0
 41
7.5
 42
7.5
 43
7.5
 50
180.0
  0
INSERT
  5
3BD
330
3B6
100
AcDbEntity
  8
LAY-20
 62
     4
100
AcDbBlockReference
  2
EX_BNORM
 10
534.2000000000011
 20
186.99999999999
 30
0.0
 41
7.5
 42
7.5
 43
7.5
  0
MTEXT
  5
3BE
330
3B6
100
AcDbEntity
  8
LAY-20
 62
     7
100
AcDbMText
 10
465.000000000001
 20
194.49999999999
 30
0.0
 40
9.3543312
 41
0.0
 71
     5
 72
     1
  1
Rｃ5（138.4）
  7
EXCADDIM1
  0
POINT
  5
3BF
330
3B6
100
AcDbEntity
  8
DEFPOINTS
 62
     0
100
AcDbPoint
 10
395.800000000001
 20
231.99999999999
 30
0.0
  0
POINT
  5
3C0
330
3B6
100
AcDbEntity
  8
DEFPOINTS
 62
     0
100
AcDbPoint
 10
534.2000000000011
 20
231.99999999999
 30
0.0
  0
POINT
  5
3C1
330
3B6
100
AcDbEntity
  8
DEFPOINTS
 62
     0
100
AcDbPoint
 10
534.2000000000011
 20
186.99999999999
 30
0.0
  0
ENDBLK
  5
3B8
330
3B6
100
AcDbEntity
  8
0
100
AcDbBlockEnd
  0
BLOCK
  5
3C4
330
3C3
100
AcDbEntity
  8
0
100
AcDbBlockBegin
  2
*D16
 70
     1
 10
0.0
 20
0.0
 30
0.0
  3
*D16
  1

  0
LINE
  5
3C6
330
3C3
100
AcDbEntity
  8
LAY-20
  6
CONTINUOUS
 62
     4
100
AcDbLine
 10
378.000000000001
 20
262.16865772529
 30
0.0
 11
317.000000000001
 21
262.16865772529
 31
0.0
  0
LINE
  5
3C7
330
3C3
100
AcDbEntity
  8
LAY-20
  6
CONTINUOUS
 62
     4
100
AcDbLine
 10
348.000000000001
 20
286.99999999999
 30
0.0
 11
317.000000000001
 21
286.99999999999
 31
0.0
  0
LINE
  5
3C8
330
3C3
100
AcDbEntity
  8
LAY-20
  6
CONTINUOUS
 62
     4
100
AcDbLine
 10
321.500000000001
 20
269.66865772529
 30
0.0
 11
321.500000000001
 21
279.49999999999
 31
0.0
  0
INSERT
  5
3C9
330
3C3
100
AcDbEntity
  8
LAY-20
 62
     4
100
AcDbBlockReference
  2
EX_BNORM
 10
321.500000000001
 20
262.16865772529
 30
0.0
 41
7.5
 42
7.5
 43
7.5
 50
270.0
  0
INSERT
  5
3CA
330
3C3
100
AcDbEntity
  8
LAY-20
 62
     4
100
AcDbBlockReference
  2
EX_BNORM
 10
321.500000000001
 20
286.99999999999
 30
0.0
 41
7.5
 42
7.5
 43
7.5
 50
90.0
  0
MTEXT
  5
3CB
330
3C3
100
AcDbEntity
  8
LAY-20
 62
     7
100
AcDbMText
 10
314.000000000001
 20
274.58432886264
 30
0.0
 40
9.3543312
 41
0.0
 71
     5
 72
     1
  1
25
  7
EXCADDIM1
 11
0.0
 21
1.0
 31
0.0
  0
POINT
  5
3CC
330
3C3
100
AcDbEntity
  8
DEFPOINTS
 62
     0
100
AcDbPoint
 10
382.500000000001
 20
262.16865772529
 30
0.0
  0
POINT
  5
3CD
330
3C3
100
AcDbEntity
  8
DEFPOINTS
 62
     0
100
AcDbPoint
 10
352.500000000001
 20
286.99999999999
 30
0.0
  0
POINT
  5
3CE
330
3C3
100
AcDbEntity
  8
DEFPOINTS
 62
     0
100
AcDbPoint
 10
321.500000000001
 20
286.99999999999
 30
0.0
  0
ENDBLK
  5
3C5
330
3C3
100
AcDbEntity
  8
0
100
AcDbBlockEnd
  0
BLOCK
  5
3D1
330
3D0
100
AcDbEntity
  8
0
100
AcDbBlockBegin
  2
*D17
 70
     1
 10
0.0
 20
0.0
 30
0.0
  3
*D17
  1

  0
LINE
  5
3D3
330
3D0
100
AcDbEntity
  8
LAY-20
  6
CONTINUOUS
 62
     4
100
AcDbLine
 10
351.500000000001
 20
284.49999999999
 30
0.0
 11
351.500000000001
 21
400.49999999998
 31
0.0
  0
LINE
  5
3D4
330
3D0
100
AcDbEntity
  8
LAY-20
  6
CONTINUOUS
 62
     4
100
AcDbLine
 10
578.500000000001
 20
284.49999999998
 30
0.0
 11
578.500000000001
 21
400.49999999998
 31
0.0
  0
LINE
  5
3D5
330
3D0
100
AcDbEntity
  8
LAY-20
  6
CONTINUOUS
 62
     4
100
AcDbLine
 10
359.000000000001
 20
395.99999999998
 30
0.0
 11
571.000000000001
 21
395.99999999998
 31
0.0
  0
INSERT
  5
3D6
330
3D0
100
AcDbEntity
  8
LAY-20
 62
     4
100
AcDbBlockReference
  2
EX_BNORM
 10
351.500000000001
 20
395.99999999998
 30
0.0
 41
7.5
 42
7.5
 43
7.5
 50
180.0
  0
INSERT
  5
3D7
330
3D0
100
AcDbEntity
  8
LAY-20
 62
     4
100
AcDbBlockReference
  2
EX_BNORM
 10
578.500000000001
 20
395.99999999998
 30
0.0
 41
7.5
 42
7.5
 43
7.5
  0
MTEXT
  5
3D8
330
3D0
100
AcDbEntity
  8
LAY-20
 62
     7
100
AcDbMText
 10
465.000000000001
 20
403.49999999998
 30
0.0
 40
9.3543312
 41
0.0
 71
     5
 72
     1
  1
%%c227
  7
EXCADDIM1
  0
POINT
  5
3D9
330
3D0
100
AcDbEntity
  8
DEFPOINTS
 62
     0
100
AcDbPoint
 10
351.500000000001
 20
279.99999999999
 30
0.0
  0
POINT
  5
3DA
330
3D0
100
AcDbEntity
  8
DEFPOINTS
 62
     0
100
AcDbPoint
 10
578.500000000001
 20
279.99999999998
 30
0.0
  0
POINT
  5
3DB
330
3D0
100
AcDbEntity
  8
DEFPOINTS
 62
     0
100
AcDbPoint
 10
578.500000000001
 20
395.99999999998
 30
0.0
  0
ENDBLK
  5
3D2
330
3D0
100
AcDbEntity
  8
0
100
AcDbBlockEnd
  0
BLOCK
  5
3DE
330
3DD
100
AcDbEntity
  8
0
100
AcDbBlockBegin
  2
*D18
 70
     1
 10
0.0
 20
0.0
 30
0.0
  3
*D18
  1

  0
LINE
  5
3E0
330
3DD
100
AcDbEntity
  8
LAY-20
  6
CONTINUOUS
 62
     4
100
AcDbLine
 10
559.500000000001
 20
291.49999999999
 30
0.0
 11
559.500000000001
 21
379.4999999999802
 31
0.0
  0
LINE
  5
3E1
330
3DD
100
AcDbEntity
  8
LAY-20
  6
CONTINUOUS
 62
     4
100
AcDbLine
 10
370.500000000001
 20
291.49999999999
 30
0.0
 11
370.500000000001
 21
379.4999999999802
 31
0.0
  0
LINE
  5
3E2
330
3DD
100
AcDbEntity
  8
LAY-20
  6
CONTINUOUS
 62
     4
100
AcDbLine
 10
552.000000000001
 20
374.99999999998
 30
0.0
 11
378.000000000001
 21
374.99999999998
 31
0.0
  0
INSERT
  5
3E3
330
3DD
100
AcDbEntity
  8
LAY-20
 62
     4
100
AcDbBlockReference
  2
EX_BNORM
 10
559.500000000001
 20
374.99999999998
 30
0.0
 41
7.5
 42
7.5
 43
7.5
  0
INSERT
  5
3E4
330
3DD
100
AcDbEntity
  8
LAY-20
 62
     4
100
AcDbBlockReference
  2
EX_BNORM
 10
370.500000000001
 20
374.99999999998
 30
0.0
 41
7.5
 42
7.5
 43
7.5
 50
180.0
  0
MTEXT
  5
3E5
330
3DD
100
AcDbEntity
  8
LAY-20
 62
     7
100
AcDbMText
 10
465.0000000000011
 20
382.4999999999799
 30
0.0
 40
9.3543312
 41
0.0
 71
     5
 72
     1
  1
%%c189
  7
EXCADDIM1
  0
POINT
  5
3E6
330
3DD
100
AcDbEntity
  8
DEFPOINTS
 62
     0
100
AcDbPoint
 10
559.500000000001
 20
286.99999999999
 30
0.0
  0
POINT
  5
3E7
330
3DD
100
AcDbEntity
  8
DEFPOINTS
 62
     0
100
AcDbPoint
 10
370.500000000001
 20
286.99999999999
 30
0.0
  0
POINT
  5
3E8
330
3DD
100
AcDbEntity
  8
DEFPOINTS
 62
     0
100
AcDbPoint
 10
370.500000000001
 20
374.99999999998
 30
0.0
  0
ENDBLK
  5
3DF
330
3DD
100
AcDbEntity
  8
0
100
AcDbBlockEnd
  0
BLOCK
  5
3EB
330
3EA
100
AcDbEntity
  8
0
100
AcDbBlockBegin
  2
*D19
 70
     1
 10
0.0
 20
0.0
 30
0.0
  3
*D19
  1

  0
LINE
  5
3ED
330
3EA
100
AcDbEntity
  8
LAY-20
  6
CONTINUOUS
 62
     4
100
AcDbLine
 10
552.0
 20
216.99999999999
 30
0.0
 11
613.0
 21
216.9999999999899
 31
0.0
  0
LINE
  5
3EE
330
3EA
100
AcDbEntity
  8
LAY-20
  6
CONTINUOUS
 62
     4
100
AcDbLine
 10
582.0
 20
286.99999999999
 30
0.0
 11
613.0
 21
286.99999999999
 31
0.0
  0
LINE
  5
3EF
330
3EA
100
AcDbEntity
  8
LAY-20
  6
CONTINUOUS
 62
     4
100
AcDbLine
 10
608.5
 20
224.4999999999899
 30
0.0
 11
608.5
 21
279.49999999999
 31
0.0
  0
INSERT
  5
3F0
330
3EA
100
AcDbEntity
  8
LAY-20
 62
     4
100
AcDbBlockReference
  2
EX_BNORM
 10
608.5
 20
216.9999999999899
 30
0.0
 41
7.5
 42
7.5
 43
7.5
 50
270.0
  0
INSERT
  5
3F1
330
3EA
100
AcDbEntity
  8
LAY-20
 62
     4
100
AcDbBlockReference
  2
EX_BNORM
 10
608.5
 20
286.99999999999
 30
0.0
 41
7.5
 42
7.5
 43
7.5
 50
90.0
  0
MTEXT
  5
3F2
330
3EA
100
AcDbEntity
  8
LAY-20
 62
     7
100
AcDbMText
 10
601.0
 20
251.99999999999
 30
0.0
 40
9.3543312
 41
0.0
 71
     5
 72
     1
  1
70
  7
EXCADDIM1
 11
0.0
 21
1.0
 31
0.0
  0
POINT
  5
3F3
330
3EA
100
AcDbEntity
  8
DEFPOINTS
 62
     0
100
AcDbPoint
 10
547.5
 20
216.99999999999
 30
0.0
  0
POINT
  5
3F4
330
3EA
100
AcDbEntity
  8
DEFPOINTS
 62
     0
100
AcDbPoint
 10
577.5
 20
286.99999999999
 30
0.0
  0
POINT
  5
3F5
330
3EA
100
AcDbEntity
  8
DEFPOINTS
 62
     0
100
AcDbPoint
 10
608.5
 20
286.99999999999
 30
0.0
  0
ENDBLK
  5
3EC
330
3EA
100
AcDbEntity
  8
0
100
AcDbBlockEnd
  0
BLOCK
  5
3F8
330
3F7
100
AcDbEntity
  8
0
100
AcDbBlockBegin
  2
*D20
 70
     1
 10
0.0
 20
0.0
 30
0.0
  3
*D20
  1

  0
LINE
  5
3FA
330
3F7
100
AcDbEntity
  8
LAY-20
  6
CONTINUOUS
 62
     4
100
AcDbLine
 10
526.97942913438
 20
323.99999999999
 30
0.0
 11
613.0
 21
323.99999999999
 31
0.0
  0
LINE
  5
3FB
330
3F7
100
AcDbEntity
  8
LAY-20
  6
CONTINUOUS
 62
     4
100
AcDbLine
 10
608.5
 20
316.49999999999
 30
0.0
 11
608.5
 21
294.49999999999
 31
0.0
  0
INSERT
  5
3FC
330
3F7
100
AcDbEntity
  8
LAY-20
 62
     4
100
AcDbBlockReference
  2
EX_BNORM
 10
608.5
 20
323.99999999999
 30
0.0
 41
7.5
 42
7.5
 43
7.5
 50
90.0
  0
INSERT
  5
3FD
330
3F7
100
AcDbEntity
  8
LAY-20
 62
     4
100
AcDbBlockReference
  2
EX_BNORM
 10
608.5
 20
286.99999999999
 30
0.0
 41
7.5
 42
7.5
 43
7.5
 50
270.0
  0
MTEXT
  5
3FE
330
3F7
100
AcDbEntity
  8
LAY-20
 62
     7
100
AcDbMText
 10
601.0
 20
305.49999999999
 30
0.0
 40
9.3543312
 41
0.0
 71
     5
 72
     1
  1
37
  7
EXCADDIM1
 11
0.0
 21
1.0
 31
0.0
  0
POINT
  5
3FF
330
3F7
100
AcDbEntity
  8
DEFPOINTS
 62
     0
100
AcDbPoint
 10
522.47942913438
 20
323.99999999999
 30
0.0
  0
POINT
  5
400
330
3F7
100
AcDbEntity
  8
DEFPOINTS
 62
     0
100
AcDbPoint
 10
608.5
 20
286.99999999999
 30
0.0
  0
POINT
  5
401
330
3F7
100
AcDbEntity
  8
DEFPOINTS
 62
     0
100
AcDbPoint
 10
608.5
 20
286.99999999999
 30
0.0
  0
ENDBLK
  5
3F9
330
3F7
100
AcDbEntity
  8
0
100
AcDbBlockEnd
  0
BLOCK
  5
404
330
403
100
AcDbEntity
  8
0
100
AcDbBlockBegin
  2
*D21
 70
     1
 10
0.0
 20
0.0
 30
0.0
  3
*D21
  1

  0
LINE
  5
406
330
403
100
AcDbEntity
  8
LAY-20
  6
CONTINUOUS
 62
     4
100
AcDbLine
 10
557.0
 20
288.49999999999
 30
0.0
 11
557.0
 21
358.49999999998
 31
0.0
  0
LINE
  5
407
330
403
100
AcDbEntity
  8
LAY-20
  6
CONTINUOUS
 62
     4
100
AcDbLine
 10
373.0
 20
290.99999999999
 30
0.0
 11
373.0
 21
358.49999999998
 31
0.0
  0
LINE
  5
408
330
403
100
AcDbEntity
  8
LAY-20
  6
CONTINUOUS
 62
     4
100
AcDbLine
 10
549.5
 20
353.99999999998
 30
0.0
 11
380.5
 21
353.99999999998
 31
0.0
  0
INSERT
  5
409
330
403
100
AcDbEntity
  8
LAY-20
 62
     4
100
AcDbBlockReference
  2
EX_BNORM
 10
557.0
 20
353.99999999998
 30
0.0
 41
7.5
 42
7.5
 43
7.5
  0
INSERT
  5
40A
330
403
100
AcDbEntity
  8
LAY-20
 62
     4
100
AcDbBlockReference
  2
EX_BNORM
 10
373.0
 20
353.99999999998
 30
0.0
 41
7.5
 42
7.5
 43
7.5
 50
180.0
  0
MTEXT
  5
40B
330
403
100
AcDbEntity
  8
LAY-20
 62
     7
100
AcDbMText
 10
465.0
 20
361.49999999998
 30
0.0
 40
9.3543312
 41
0.0
 71
     5
 72
     1
  1
%%c184
  7
EXCADDIM1
  0
POINT
  5
40C
330
403
100
AcDbEntity
  8
DEFPOINTS
 62
     0
100
AcDbPoint
 10
557.0
 20
283.99999999999
 30
0.0
  0
POINT
  5
40D
330
403
100
AcDbEntity
  8
DEFPOINTS
 62
     0
100
AcDbPoint
 10
373.0
 20
286.49999999999
 30
0.0
  0
POINT
  5
40E
330
403
100
AcDbEntity
  8
DEFPOINTS
 62
     0
100
AcDbPoint
 10
373.0
 20
353.99999999998
 30
0.0
  0
ENDBLK
  5
405
330
403
100
AcDbEntity
  8
0
100
AcDbBlockEnd
  0
ENDSEC
  0
SECTION
  2
ENTITIES
  0
LINE
  5
D4
330
1F
100
AcDbEntity
  8
LAY-10
  6
CONTINUOUS
 62
     7
100
AcDbLine
 10
382.4999999999978
 20
259.4264068711796
 30
0.0
 11
385.2422508541067
 21
262.1686577252884
 31
0.0
  0
LINE
  5
D5
330
1F
100
AcDbEntity
  8
LAY-10
  6
CONTINUOUS
 62
     7
100
AcDbLine
 10
382.4999999999952
 20
256.5979797464309
 30
0.0
 11
387.9999999999962
 21
262.0979797464317
 31
0.0
  0
LINE
  5
D6
330
1F
100
AcDbEntity
  8
LAY-10
  6
CONTINUOUS
 62
     7
100
AcDbLine
 10
382.4999999999965
 20
253.7695526216859
 30
0.0
 11
387.9999999999975
 21
259.2695526216868
 31
0.0
  0
LINE
  5
D7
330
1F
100
AcDbEntity
  8
LAY-10
  6
CONTINUOUS
 62
     7
100
AcDbLine
 10
382.4999999999978
 20
250.941125496941
 30
0.0
 11
387.9999999999987
 21
256.4411254969419
 31
0.0
  0
LINE
  5
D8
330
1F
100
AcDbEntity
  8
LAY-10
  6
CONTINUOUS
 62
     7
100
AcDbLine
 10
382.4999999999953
 20
248.1126983721922
 30
0.0
 11
387.9999999999962
 21
253.6126983721931
 31
0.0
  0
LINE
  5
D9
330
1F
100
AcDbEntity
  8
LAY-10
  6
CONTINUOUS
 62
     7
100
AcDbLine
 10
382.4999999999966
 20
245.2842712474473
 30
0.0
 11
387.9999999999975
 21
250.7842712474482
 31
0.0
  0
LINE
  5
DA
330
1F
100
AcDbEntity
  8
LAY-10
  6
CONTINUOUS
 62
     7
100
AcDbLine
 10
382.4999999999979
 20
242.4558441227024
 30
0.0
 11
387.9999999999987
 21
247.9558441227034
 31
0.0
  0
LINE
  5
DB
330
1F
100
AcDbEntity
  8
LAY-10
  6
CONTINUOUS
 62
     7
100
AcDbLine
 10
382.4999999999953
 20
239.6274169979536
 30
0.0
 11
387.9999999999962
 21
245.1274169979546
 31
0.0
  0
LINE
  5
DC
330
1F
100
AcDbEntity
  8
LAY-10
  6
CONTINUOUS
 62
     7
100
AcDbLine
 10
382.4999999999966
 20
236.7989898732087
 30
0.0
 11
387.9999999999975
 21
242.2989898732097
 31
0.0
  0
LINE
  5
DD
330
1F
100
AcDbEntity
  8
LAY-10
  6
CONTINUOUS
 62
     7
100
AcDbLine
 10
382.4999999999979
 20
233.9705627484638
 30
0.0
 11
387.9999999999989
 21
239.4705627484647
 31
0.0
  0
LINE
  5
DE
330
1F
100
AcDbEntity
  8
LAY-10
  6
CONTINUOUS
 62
     7
100
AcDbLine
 10
382.4999999999953
 20
231.142135623715
 30
0.0
 11
387.9999999999963
 21
236.6421356237159
 31
0.0
  0
LINE
  5
DF
330
1F
100
AcDbEntity
  8
LAY-10
  6
CONTINUOUS
 62
     7
100
AcDbLine
 10
382.4999999999966
 20
228.3137084989702
 30
0.0
 11
387.9999999999976
 21
233.813708498971
 31
0.0
  0
LINE
  5
E0
330
1F
100
AcDbEntity
  8
LAY-10
  6
CONTINUOUS
 62
     7
100
AcDbLine
 10
382.4999999999979
 20
225.4852813742252
 30
0.0
 11
387.9999999999989
 21
230.9852813742262
 31
0.0
  0
LINE
  5
E1
330
1F
100
AcDbEntity
  8
LAY-10
  6
CONTINUOUS
 62
     7
100
AcDbLine
 10
382.4999999999993
 20
222.6568542494802
 30
0.0
 11
388.0000000000001
 21
228.1568542494812
 31
0.0
  0
LINE
  5
E2
330
1F
100
AcDbEntity
  8
LAY-10
  6
CONTINUOUS
 62
     7
100
AcDbLine
 10
382.4999999999966
 20
219.8284271247315
 30
0.0
 11
387.9999999999976
 21
225.3284271247325
 31
0.0
  0
LINE
  5
E3
330
1F
100
AcDbEntity
  8
LAY-10
  6
CONTINUOUS
 62
     7
100
AcDbLine
 10
382.5000000000018
 20
216.9999999999905
 30
0.0
 11
387.999999999995
 21
222.4999999999837
 31
0.0
  0
LINE
  5
E4
330
1F
100
AcDbEntity
  8
LAY-10
  6
CONTINUOUS
 62
     7
100
AcDbLine
 10
385.3284271247429
 20
216.9999999999853
 30
0.0
 11
387.9999999999964
 21
219.6715728752387
 31
0.0
  0
LINE
  5
E5
330
1F
100
AcDbEntity
  8
LAY-10
  6
CONTINUOUS
 62
     7
100
AcDbLine
 10
541.999999999994
 20
259.4264068711757
 30
0.0
 11
544.7422508541066
 21
262.1686577252884
 31
0.0
  0
LINE
  5
E6
330
1F
100
AcDbEntity
  8
LAY-10
  6
CONTINUOUS
 62
     7
100
AcDbLine
 10
541.9999999999952
 20
256.5979797464308
 30
0.0
 11
547.5
 21
262.0979797464356
 31
0.0
  0
LINE
  5
E7
330
1F
100
AcDbEntity
  8
LAY-10
  6
CONTINUOUS
 62
     7
100
AcDbLine
 10
541.9999999999965
 20
253.7695526216859
 30
0.0
 11
547.4999999999975
 21
259.2695526216868
 31
0.0
  0
LINE
  5
E8
330
1F
100
AcDbEntity
  8
LAY-10
  6
CONTINUOUS
 62
     7
100
AcDbLine
 10
541.999999999994
 20
250.9411254969371
 30
0.0
 11
547.4999999999987
 21
256.4411254969419
 31
0.0
  0
LINE
  5
E9
330
1F
100
AcDbEntity
  8
LAY-10
  6
CONTINUOUS
 62
     7
100
AcDbLine
 10
541.9999999999952
 20
248.1126983721922
 30
0.0
 11
547.5
 21
253.6126983721969
 31
0.0
  0
LINE
  5
EA
330
1F
100
AcDbEntity
  8
LAY-10
  6
CONTINUOUS
 62
     7
100
AcDbLine
 10
541.9999999999965
 20
245.2842712474473
 30
0.0
 11
547.4999999999975
 21
250.7842712474481
 31
0.0
  0
LINE
  5
EB
330
1F
100
AcDbEntity
  8
LAY-10
  6
CONTINUOUS
 62
     7
100
AcDbLine
 10
541.9999999999978
 20
242.4558441227024
 30
0.0
 11
547.4999999999987
 21
247.9558441227033
 31
0.0
  0
LINE
  5
EC
330
1F
100
AcDbEntity
  8
LAY-10
  6
CONTINUOUS
 62
     7
100
AcDbLine
 10
541.9999999999953
 20
239.6274169979536
 30
0.0
 11
547.4999999999962
 21
245.1274169979546
 31
0.0
  0
LINE
  5
ED
330
1F
100
AcDbEntity
  8
LAY-10
  6
CONTINUOUS
 62
     7
100
AcDbLine
 10
541.9999999999966
 20
236.7989898732087
 30
0.0
 11
547.4999999999975
 21
242.2989898732096
 31
0.0
  0
LINE
  5
EE
330
1F
100
AcDbEntity
  8
LAY-10
  6
CONTINUOUS
 62
     7
100
AcDbLine
 10
541.9999999999978
 20
233.9705627484637
 30
0.0
 11
547.4999999999989
 21
239.4705627484647
 31
0.0
  0
LINE
  5
EF
330
1F
100
AcDbEntity
  8
LAY-10
  6
CONTINUOUS
 62
     7
100
AcDbLine
 10
541.9999999999953
 20
231.1421356237149
 30
0.0
 11
547.5000000000001
 21
236.6421356237198
 31
0.0
  0
LINE
  5
F0
330
1F
100
AcDbEntity
  8
LAY-10
  6
CONTINUOUS
 62
     7
100
AcDbLine
 10
541.9999999999966
 20
228.3137084989701
 30
0.0
 11
547.4999999999937
 21
233.8137084989671
 31
0.0
  0
LINE
  5
F1
330
1F
100
AcDbEntity
  8
LAY-10
  6
CONTINUOUS
 62
     7
100
AcDbLine
 10
541.9999999999978
 20
225.4852813742251
 30
0.0
 11
547.499999999995
 21
230.9852813742222
 31
0.0
  0
LINE
  5
F2
330
1F
100
AcDbEntity
  8
LAY-10
  6
CONTINUOUS
 62
     7
100
AcDbLine
 10
541.9999999999992
 20
222.6568542494802
 30
0.0
 11
547.5000000000001
 21
228.1568542494812
 31
0.0
  0
LINE
  5
F3
330
1F
100
AcDbEntity
  8
LAY-10
  6
CONTINUOUS
 62
     7
100
AcDbLine
 10
541.9999999999967
 20
219.8284271247314
 30
0.0
 11
547.4999999999937
 21
225.3284271247286
 31
0.0
  0
LINE
  5
F4
330
1F
100
AcDbEntity
  8
LAY-10
  6
CONTINUOUS
 62
     7
100
AcDbLine
 10
542.0000000000018
 20
216.9999999999904
 30
0.0
 11
547.499999999995
 21
222.4999999999836
 31
0.0
  0
LINE
  5
F5
330
1F
100
AcDbEntity
  8
LAY-10
  6
CONTINUOUS
 62
     7
100
AcDbLine
 10
544.8284271247468
 20
216.9999999999891
 30
0.0
 11
547.4999999999962
 21
219.6715728752387
 31
0.0
  0
CIRCLE
  5
F6
330
1F
100
AcDbEntity
  8
LAY-10
  6
CONTINUOUS
 62
     7
100
AcDbCircle
 10
464.9999999999997
 20
555.0000000000099
 30
0.0
 40
113.5
  0
LINE
  5
F7
330
1F
100
AcDbEntity
  8
LAY-10
  6
CONTINUOUS
 62
     7
100
AcDbLine
 10
367.4182978890997
 20
574.443801406599
 30
0.0
 11
372.5136836458745
 21
573.4816513693735
 31
0.0
  0
LINE
  5
F8
330
1F
100
AcDbEntity
  8
LAY-10
  6
CONTINUOUS
 62
     7
100
AcDbLine
 10
369.191434583683
 20
573.0546058629727
 30
0.0
 11
371.1569474147487
 21
572.6842156026729
 31
0.0
  0
LINE
  5
F9
330
1F
100
AcDbEntity
  8
LAY-10
  6
CONTINUOUS
 62
     7
100
AcDbLine
 10
372.1345058700502
 20
572.5000000000097
 30
0.0
 11
372.5136836458745
 21
573.4816513693735
 31
0.0
  0
LINE
  5
FA
330
1F
100
AcDbEntity
  8
LAY-10
  6
CONTINUOUS
 62
     7
100
AcDbLine
 10
368.2036913037035
 20
573.2407407407503
 30
0.0
 11
367.4182978890996
 21
574.443801406599
 31
0.0
  0
ARC
  5
FB
330
1F
100
AcDbEntity
  8
LAY-10
  6
CONTINUOUS
 62
     7
100
AcDbCircle
 10
464.9999999999997
 20
555.0000000000099
 30
0.0
 40
98.49999999999777
100
AcDbArc
 50
169.9157300382263
 51
190.084269961774
  0
ARC
  5
FC
330
1F
100
AcDbEntity
  8
LAY-10
  6
CONTINUOUS
 62
     7
100
AcDbCircle
 10
464.9999999999997
 20
555.0000000000099
 30
0.0
 40
94.49999999999818
100
AcDbArc
 50
169.9280374850027
 51
190.0719625149979
  0
LINE
  5
FD
330
1F
100
AcDbEntity
  8
LAY-10
  6
CONTINUOUS
 62
     7
100
AcDbLine
 10
372.1345058700502
 20
537.5000000000094
 30
0.0
 11
372.5136836458745
 21
536.518348630646
 31
0.0
  0
LINE
  5
FE
330
1F
100
AcDbEntity
  8
LAY-10
  6
CONTINUOUS
 62
     7
100
AcDbLine
 10
368.2036913037035
 20
536.7592592592688
 30
0.0
 11
367.4182978890996
 21
535.5561985934204
 31
0.0
  0
LINE
  5
FF
330
1F
100
AcDbEntity
  8
LAY-10
  6
CONTINUOUS
 62
     7
100
AcDbLine
 10
369.1914345836831
 20
536.9453941370467
 30
0.0
 11
371.1569474147489
 21
537.3157843973462
 31
0.0
  0
LINE
  5
100
330
1F
100
AcDbEntity
  8
LAY-10
  6
CONTINUOUS
 62
     7
100
AcDbLine
 10
367.4182978890997
 20
535.5561985934204
 30
0.0
 11
372.5136836458745
 21
536.518348630646
 31
0.0
  0
ARC
  5
101
330
1F
100
AcDbEntity
  8
LAY-10
  6
CONTINUOUS
 62
     7
100
AcDbCircle
 10
464.9999999999997
 20
555.0000000000099
 30
0.0
 40
99.49999999999665
100
AcDbArc
 50
168.7310270193871
 51
191.2689729806132
  0
ARC
  5
102
330
1F
100
AcDbEntity
  8
LAY-10
  6
CONTINUOUS
 62
     7
100
AcDbCircle
 10
464.9999999999997
 20
555.0000000000099
 30
0.0
 40
94.31484586264234
100
AcDbArc
 50
191.3006325006111
 51
198.6993674993888
  0
LINE
  5
103
330
1F
100
AcDbEntity
  8
LAY-10
  6
CONTINUOUS
 62
     7
100
AcDbLine
 10
375.8261229484686
 20
523.7226975012626
 30
0.0
 11
375.6636748502013
 21
524.7624214127032
 31
0.0
  0
LINE
  5
104
330
1F
100
AcDbEntity
  8
LAY-10
  6
CONTINUOUS
 62
     7
100
AcDbLine
 10
372.0515673060762
 20
522.3987905171889
 30
0.0
 11
370.7698663241398
 21
523.0479749088059
 31
0.0
  0
LINE
  5
105
330
1F
100
AcDbEntity
  8
LAY-10
  6
CONTINUOUS
 62
     7
100
AcDbLine
 10
373.0000455178445
 20
522.7314646244928
 30
0.0
 11
374.8874246911617
 21
523.393453665292
 31
0.0
  0
LINE
  5
106
330
1F
100
AcDbEntity
  8
LAY-10
  6
CONTINUOUS
 62
     7
100
AcDbLine
 10
370.76986632414
 20
523.0479749088059
 30
0.0
 11
375.6636748502013
 21
524.7624214127032
 31
0.0
  0
LINE
  5
107
330
1F
100
AcDbEntity
  8
LAY-10
  6
CONTINUOUS
 62
     7
100
AcDbLine
 10
393.3261229484686
 20
493.4118083688071
 30
0.0
 11
394.1453262195649
 21
492.7512622331907
 31
0.0
  0
LINE
  5
108
330
1F
100
AcDbEntity
  8
LAY-10
  6
CONTINUOUS
 62
     7
100
AcDbLine
 10
390.292308046817
 20
490.8049007865342
 30
0.0
 11
390.2136677307292
 21
489.3703229803135
 31
0.0
  0
LINE
  5
109
330
1F
100
AcDbEntity
  8
LAY-10
  6
CONTINUOUS
 62
     7
100
AcDbLine
 10
391.0546513808079
 20
491.45996995921
 30
0.0
 11
392.5716402938249
 21
492.7634937494764
 31
0.0
  0
LINE
  5
10A
330
1F
100
AcDbEntity
  8
LAY-10
  6
CONTINUOUS
 62
     7
100
AcDbLine
 10
390.2136677307292
 20
489.3703229803135
 30
0.0
 11
394.1453262195649
 21
492.7512622331907
 31
0.0
  0
ARC
  5
10B
330
1F
100
AcDbEntity
  8
LAY-10
  6
CONTINUOUS
 62
     7
100
AcDbCircle
 10
464.9999999999994
 20
555.0000000000099
 30
0.0
 40
94.49999999999818
100
AcDbArc
 50
199.9280374850026
 51
220.0719625149977
  0
ARC
  5
10C
330
1F
100
AcDbEntity
  8
LAY-10
  6
CONTINUOUS
 62
     7
100
AcDbCircle
 10
464.9999999999994
 20
555.0000000000099
 30
0.0
 40
99.49999999999665
100
AcDbArc
 50
198.7310270193869
 51
221.2689729806131
  0
ARC
  5
10D
330
1F
100
AcDbEntity
  8
LAY-10
  6
CONTINUOUS
 62
     7
100
AcDbCircle
 10
464.9999999999994
 20
555.0000000000099
 30
0.0
 40
98.49999999999777
100
AcDbArc
 50
199.9157300382259
 51
220.0842699617741
  0
LINE
  5
10E
330
1F
100
AcDbEntity
  8
LAY-10
  6
CONTINUOUS
 62
     7
100
AcDbLine
 10
403.411808368797
 20
483.3261229484787
 30
0.0
 11
402.7512622331806
 21
484.1453262195749
 31
0.0
  0
LINE
  5
10F
330
1F
100
AcDbEntity
  8
LAY-10
  6
CONTINUOUS
 62
     7
100
AcDbLine
 10
400.8049007865241
 20
480.2923080468269
 30
0.0
 11
399.3703229803035
 21
480.2136677307393
 31
0.0
  0
LINE
  5
110
330
1F
100
AcDbEntity
  8
LAY-10
  6
CONTINUOUS
 62
     7
100
AcDbLine
 10
401.4599699591998
 20
481.0546513808175
 30
0.0
 11
402.7634937494665
 21
482.5716402938352
 31
0.0
  0
LINE
  5
111
330
1F
100
AcDbEntity
  8
LAY-10
  6
CONTINUOUS
 62
     7
100
AcDbLine
 10
399.3703229803035
 20
480.2136677307393
 30
0.0
 11
402.7512622331806
 21
484.1453262195749
 31
0.0
  0
LINE
  5
112
330
1F
100
AcDbEntity
  8
LAY-10
  6
CONTINUOUS
 62
     7
100
AcDbLine
 10
433.7226975012525
 20
465.8261229484788
 30
0.0
 11
434.7624214126934
 21
465.6636748502114
 31
0.0
  0
LINE
  5
113
330
1F
100
AcDbEntity
  8
LAY-10
  6
CONTINUOUS
 62
     7
100
AcDbLine
 10
432.3987905171787
 20
462.0515673060862
 30
0.0
 11
433.0479749087957
 21
460.7698663241498
 31
0.0
  0
LINE
  5
114
330
1F
100
AcDbEntity
  8
LAY-10
  6
CONTINUOUS
 62
     7
100
AcDbLine
 10
432.7314646244827
 20
463.000045517855
 30
0.0
 11
433.3934536652817
 21
464.8874246911718
 31
0.0
  0
LINE
  5
115
330
1F
100
AcDbEntity
  8
LAY-10
  6
CONTINUOUS
 62
     7
100
AcDbLine
 10
433.0479749087957
 20
460.7698663241498
 30
0.0
 11
434.7624214126934
 21
465.6636748502114
 31
0.0
  0
ARC
  5
116
330
1F
100
AcDbEntity
  8
LAY-10
  6
CONTINUOUS
 62
     7
100
AcDbCircle
 10
464.9999999999991
 20
555.0000000000099
 30
0.0
 40
94.49999999999818
100
AcDbArc
 50
229.9280374850025
 51
250.0719625149978
  0
ARC
  5
117
330
1F
100
AcDbEntity
  8
LAY-10
  6
CONTINUOUS
 62
     7
100
AcDbCircle
 10
464.9999999999991
 20
555.0000000000099
 30
0.0
 40
99.49999999999665
100
AcDbArc
 50
228.7310270193872
 51
251.2689729806133
  0
ARC
  5
118
330
1F
100
AcDbEntity
  8
LAY-10
  6
CONTINUOUS
 62
     7
100
AcDbCircle
 10
464.9999999999991
 20
555.0000000000099
 30
0.0
 40
98.49999999999777
100
AcDbArc
 50
229.9157300382263
 51
250.0842699617744
  0
LINE
  5
119
330
1F
100
AcDbEntity
  8
LAY-10
  6
CONTINUOUS
 62
     7
100
AcDbLine
 10
393.3261229484688
 20
616.5881916312127
 30
0.0
 11
394.145326219565
 21
617.248737766829
 31
0.0
  0
LINE
  5
11A
330
1F
100
AcDbEntity
  8
LAY-10
  6
CONTINUOUS
 62
     7
100
AcDbLine
 10
390.292308046817
 20
619.1950992134852
 30
0.0
 11
390.2136677307292
 21
620.6296770197063
 31
0.0
  0
LINE
  5
11B
330
1F
100
AcDbEntity
  8
LAY-10
  6
CONTINUOUS
 62
     7
100
AcDbLine
 10
391.0546513808076
 20
618.5400300408097
 30
0.0
 11
392.5716402938249
 21
617.2365062505434
 31
0.0
  0
LINE
  5
11C
330
1F
100
AcDbEntity
  8
LAY-10
  6
CONTINUOUS
 62
     7
100
AcDbLine
 10
390.2136677307294
 20
620.6296770197063
 30
0.0
 11
394.145326219565
 21
617.248737766829
 31
0.0
  0
LINE
  5
11D
330
1F
100
AcDbEntity
  8
LAY-10
  6
CONTINUOUS
 62
     7
100
AcDbLine
 10
375.8261229484689
 20
586.2773024987572
 30
0.0
 11
375.6636748502013
 21
585.2375785873162
 31
0.0
  0
LINE
  5
11E
330
1F
100
AcDbEntity
  8
LAY-10
  6
CONTINUOUS
 62
     7
100
AcDbLine
 10
372.0515673060762
 20
587.6012094828309
 30
0.0
 11
370.76986632414
 21
586.9520250912138
 31
0.0
  0
LINE
  5
11F
330
1F
100
AcDbEntity
  8
LAY-10
  6
CONTINUOUS
 62
     7
100
AcDbLine
 10
373.000045517845
 20
587.268535375527
 30
0.0
 11
374.8874246911619
 21
586.6065463347278
 31
0.0
  0
LINE
  5
120
330
1F
100
AcDbEntity
  8
LAY-10
  6
CONTINUOUS
 62
     7
100
AcDbLine
 10
370.76986632414
 20
586.9520250912138
 30
0.0
 11
375.6636748502013
 21
585.2375785873162
 31
0.0
  0
ARC
  5
121
330
1F
100
AcDbEntity
  8
LAY-10
  6
CONTINUOUS
 62
     7
100
AcDbCircle
 10
464.9999999999998
 20
555.0000000000106
 30
0.0
 40
94.49999999999818
100
AcDbArc
 50
139.928037485003
 51
160.0719625149978
  0
ARC
  5
122
330
1F
100
AcDbEntity
  8
LAY-10
  6
CONTINUOUS
 62
     7
100
AcDbCircle
 10
464.9999999999998
 20
555.0000000000106
 30
0.0
 40
99.49999999999665
100
AcDbArc
 50
138.7310270193872
 51
161.2689729806135
  0
ARC
  5
123
330
1F
100
AcDbEntity
  8
LAY-10
  6
CONTINUOUS
 62
     7
100
AcDbCircle
 10
464.9999999999998
 20
555.0000000000106
 30
0.0
 40
98.49999999999777
100
AcDbArc
 50
139.9157300382265
 51
160.0842699617742
  0
LINE
  5
124
330
1F
100
AcDbEntity
  8
LAY-10
  6
CONTINUOUS
 62
     7
100
AcDbLine
 10
433.7226975012525
 20
644.1738770515402
 30
0.0
 11
434.7624214126934
 21
644.3363251498077
 31
0.0
  0
LINE
  5
125
330
1F
100
AcDbEntity
  8
LAY-10
  6
CONTINUOUS
 62
     7
100
AcDbLine
 10
432.3987905171787
 20
647.9484326939329
 30
0.0
 11
433.0479749087957
 21
649.2301336758693
 31
0.0
  0
LINE
  5
126
330
1F
100
AcDbEntity
  8
LAY-10
  6
CONTINUOUS
 62
     7
100
AcDbLine
 10
432.7314646244827
 20
646.9999544821644
 30
0.0
 11
433.3934536652817
 21
645.1125753088476
 31
0.0
  0
LINE
  5
127
330
1F
100
AcDbEntity
  8
LAY-10
  6
CONTINUOUS
 62
     7
100
AcDbLine
 10
433.0479749087957
 20
649.2301336758693
 30
0.0
 11
434.7624214126934
 21
644.3363251498077
 31
0.0
  0
LINE
  5
128
330
1F
100
AcDbEntity
  8
LAY-10
  6
CONTINUOUS
 62
     7
100
AcDbLine
 10
403.4118083687972
 20
626.6738770515404
 30
0.0
 11
402.7512622331809
 21
625.8546737804442
 31
0.0
  0
LINE
  5
129
330
1F
100
AcDbEntity
  8
LAY-10
  6
CONTINUOUS
 62
     7
100
AcDbLine
 10
400.8049007865243
 20
629.7076919531921
 30
0.0
 11
399.3703229803035
 21
629.7863322692798
 31
0.0
  0
LINE
  5
12A
330
1F
100
AcDbEntity
  8
LAY-10
  6
CONTINUOUS
 62
     7
100
AcDbLine
 10
401.4599699592
 20
628.9453486192012
 30
0.0
 11
402.7634937494665
 21
627.4283597061839
 31
0.0
  0
LINE
  5
12B
330
1F
100
AcDbEntity
  8
LAY-10
  6
CONTINUOUS
 62
     7
100
AcDbLine
 10
399.3703229803035
 20
629.7863322692798
 30
0.0
 11
402.7512622331809
 21
625.8546737804442
 31
0.0
  0
ARC
  5
12C
330
1F
100
AcDbEntity
  8
LAY-10
  6
CONTINUOUS
 62
     7
100
AcDbCircle
 10
465.0000000000001
 20
555.0000000000099
 30
0.0
 40
94.49999999999818
100
AcDbArc
 50
109.9280374850029
 51
130.0719625149981
  0
ARC
  5
12D
330
1F
100
AcDbEntity
  8
LAY-10
  6
CONTINUOUS
 62
     7
100
AcDbCircle
 10
465.0000000000001
 20
555.0000000000099
 30
0.0
 40
99.49999999999665
100
AcDbArc
 50
108.7310270193872
 51
131.2689729806132
  0
ARC
  5
12E
330
1F
100
AcDbEntity
  8
LAY-10
  6
CONTINUOUS
 62
     7
100
AcDbCircle
 10
465.0000000000001
 20
555.0000000000099
 30
0.0
 40
98.49999999999777
100
AcDbArc
 50
109.9157300382267
 51
130.0842699617743
  0
LINE
  5
12F
330
1F
100
AcDbEntity
  8
LAY-10
  6
CONTINUOUS
 62
     7
100
AcDbLine
 10
482.4999999999996
 20
647.8654941299593
 30
0.0
 11
483.4816513693632
 21
647.4863163541349
 31
0.0
  0
LINE
  5
130
330
1F
100
AcDbEntity
  8
LAY-10
  6
CONTINUOUS
 62
     7
100
AcDbLine
 10
483.2407407407403
 20
651.7963086963061
 30
0.0
 11
484.4438014065889
 21
652.5817021109102
 31
0.0
  0
LINE
  5
131
330
1F
100
AcDbEntity
  8
LAY-10
  6
CONTINUOUS
 62
     7
100
AcDbLine
 10
483.0546058629626
 20
650.8085654163268
 30
0.0
 11
482.6842156026631
 21
648.8430525852609
 31
0.0
  0
LINE
  5
132
330
1F
100
AcDbEntity
  8
LAY-10
  6
CONTINUOUS
 62
     7
100
AcDbLine
 10
484.4438014065889
 20
652.5817021109099
 30
0.0
 11
483.4816513693632
 21
647.4863163541349
 31
0.0
  0
LINE
  5
133
330
1F
100
AcDbEntity
  8
LAY-10
  6
CONTINUOUS
 62
     7
100
AcDbLine
 10
447.4999999999997
 20
647.8654941299593
 30
0.0
 11
446.5183486306361
 21
647.4863163541349
 31
0.0
  0
LINE
  5
134
330
1F
100
AcDbEntity
  8
LAY-10
  6
CONTINUOUS
 62
     7
100
AcDbLine
 10
446.759259259259
 20
651.7963086963061
 30
0.0
 11
445.5561985934103
 21
652.5817021109102
 31
0.0
  0
LINE
  5
135
330
1F
100
AcDbEntity
  8
LAY-10
  6
CONTINUOUS
 62
     7
100
AcDbLine
 10
446.9453941370367
 20
650.8085654163265
 30
0.0
 11
447.3157843973364
 21
648.8430525852606
 31
0.0
  0
LINE
  5
136
330
1F
100
AcDbEntity
  8
LAY-10
  6
CONTINUOUS
 62
     7
100
AcDbLine
 10
445.5561985934103
 20
652.5817021109099
 30
0.0
 11
446.5183486306361
 21
647.4863163541349
 31
0.0
  0
ARC
  5
137
330
1F
100
AcDbEntity
  8
LAY-10
  6
CONTINUOUS
 62
     7
100
AcDbCircle
 10
465.0000000000001
 20
555.0000000000099
 30
0.0
 40
94.49999999999818
100
AcDbArc
 50
79.92803748500282
 51
100.0719625149978
  0
ARC
  5
138
330
1F
100
AcDbEntity
  8
LAY-10
  6
CONTINUOUS
 62
     7
100
AcDbCircle
 10
465.0000000000001
 20
555.0000000000099
 30
0.0
 40
99.49999999999665
100
AcDbArc
 50
78.73102701938714
 51
101.2689729806134
  0
ARC
  5
139
330
1F
100
AcDbEntity
  8
LAY-10
  6
CONTINUOUS
 62
     7
100
AcDbCircle
 10
465.0000000000001
 20
555.0000000000099
 30
0.0
 40
98.49999999999777
100
AcDbArc
 50
79.91573003822649
 51
100.0842699617742
  0
ARC
  5
13A
330
1F
100
AcDbEntity
  8
LAY-10
  6
CONTINUOUS
 62
     7
100
AcDbCircle
 10
464.9999999999997
 20
555.0000000000099
 30
0.0
 40
94.31484586264234
100
AcDbArc
 50
101.3006325006111
 51
108.6993674993905
  0
ARC
  5
13B
330
1F
100
AcDbEntity
  8
LAY-10
  6
CONTINUOUS
 62
     7
100
AcDbCircle
 10
464.9999999999997
 20
555.0000000000099
 30
0.0
 40
94.31484586264234
100
AcDbArc
 50
131.3006325006099
 51
138.699367499389
  0
ARC
  5
13C
330
1F
100
AcDbEntity
  8
LAY-10
  6
CONTINUOUS
 62
     7
100
AcDbCircle
 10
464.9999999999997
 20
555.0000000000099
 30
0.0
 40
94.31484586264234
100
AcDbArc
 50
161.300632500611
 51
168.6993674993891
  0
ARC
  5
13D
330
1F
100
AcDbEntity
  8
LAY-10
  6
CONTINUOUS
 62
     7
100
AcDbCircle
 10
464.9999999999997
 20
555.0000000000099
 30
0.0
 40
94.31484586264234
100
AcDbArc
 50
221.3006325006111
 51
228.6993674993888
  0
LINE
  5
13E
330
1F
100
AcDbEntity
  8
LAY-10
  6
CONTINUOUS
 62
     7
100
AcDbLine
 10
371.1107822029345
 20
561.0000000000099
 30
0.0
 11
371.7531079072522
 21
561.6632396920207
 31
0.0
  0
LINE
  5
13F
330
1F
100
AcDbEntity
  8
LAY-10
  6
CONTINUOUS
 62
     7
100
AcDbLine
 10
371.1107822029345
 20
549.0000000000099
 30
0.0
 11
371.7531079072522
 21
548.3367603079987
 31
0.0
  0
ARC
  5
140
330
1F
100
AcDbEntity
  8
LAY-10
  6
CONTINUOUS
 62
     7
100
AcDbCircle
 10
465.0000000000001
 20
555.0000000000099
 30
0.0
 40
94.0807377657336
100
AcDbArc
 50
87.56323953726202
 51
92.43676046273828
  0
LINE
  5
141
330
1F
100
AcDbEntity
  8
LAY-10
  6
CONTINUOUS
 62
     7
100
AcDbLine
 10
469.6999999999996
 20
648.3664374823821
 30
0.0
 11
468.9999999999996
 21
648.9956659561848
 31
0.0
  0
LINE
  5
142
330
1F
100
AcDbEntity
  8
LAY-10
  6
CONTINUOUS
 62
     7
100
AcDbLine
 10
460.2999999999996
 20
648.3664374823821
 30
0.0
 11
460.9999999999997
 21
648.9956659561848
 31
0.0
  0
ARC
  5
143
330
1F
100
AcDbEntity
  8
LAY-10
  6
CONTINUOUS
 62
     7
100
AcDbCircle
 10
464.9999999999997
 20
555.0000000000099
 30
0.0
 40
93.48465996167317
100
AcDbArc
 50
92.88179619803931
 51
175.9127036464069
  0
ARC
  5
144
330
1F
100
AcDbEntity
  8
LAY-10
  6
CONTINUOUS
 62
     7
100
AcDbCircle
 10
482.0719022213758
 20
650.9937506015118
 30
0.0
 40
1.0
100
AcDbArc
 50
349.3280707142489
 51
79.91573003822677
  0
ARC
  5
145
330
1F
100
AcDbEntity
  8
LAY-10
  6
CONTINUOUS
 62
     7
100
AcDbCircle
 10
481.7015119610763
 20
649.0282377704463
 30
0.0
 40
1.0
100
AcDbArc
 50
259.9280374850002
 51
349.3280707142285
  0
ARC
  5
146
330
1F
100
AcDbEntity
  8
LAY-10
  6
CONTINUOUS
 62
     7
100
AcDbCircle
 10
448.2984880389232
 20
649.0282377704459
 30
0.0
 40
1.0
100
AcDbArc
 50
190.6719292857704
 51
280.071962514987
  0
ARC
  5
147
330
1F
100
AcDbEntity
  8
LAY-10
  6
CONTINUOUS
 62
     7
100
AcDbCircle
 10
447.9280977786235
 20
650.9937506015118
 30
0.0
 40
1.0
100
AcDbArc
 50
100.0842699617701
 51
190.6719292857704
  0
ARC
  5
148
330
1F
100
AcDbEntity
  8
LAY-10
  6
CONTINUOUS
 62
     7
100
AcDbCircle
 10
431.7878257138844
 20
646.6689777361461
 30
0.0
 40
1.0
100
AcDbArc
 50
19.3280707142282
 51
109.915730038223
  0
ARC
  5
149
330
1F
100
AcDbEntity
  8
LAY-10
  6
CONTINUOUS
 62
     7
100
AcDbCircle
 10
432.4498147546836
 20
644.7815985628289
 30
0.0
 40
1.0
100
AcDbArc
 50
289.9280374849935
 51
19.32807071424876
  0
ARC
  5
14A
330
1F
100
AcDbEntity
  8
LAY-10
  6
CONTINUOUS
 62
     7
100
AcDbCircle
 10
402.2184236846131
 20
629.5970755147697
 30
0.0
 40
1.0
100
AcDbArc
 50
130.084269961799
 51
220.6719292857497
  0
ARC
  5
14B
330
1F
100
AcDbEntity
  8
LAY-10
  6
CONTINUOUS
 62
     7
100
AcDbCircle
 10
403.5219474748797
 20
628.080086601752
 30
0.0
 40
1.0
100
AcDbArc
 50
220.6719292857497
 51
310.071962515011
  0
ARC
  5
14C
330
1F
100
AcDbEntity
  8
LAY-10
  6
CONTINUOUS
 62
     7
100
AcDbCircle
 10
390.4029244852393
 20
617.7815763153967
 30
0.0
 40
1.0
100
AcDbArc
 50
49.32807071423903
 51
139.9157300382169
  0
ARC
  5
14D
330
1F
100
AcDbEntity
  8
LAY-10
  6
CONTINUOUS
 62
     7
100
AcDbCircle
 10
391.9199133982568
 20
616.47805252513
 30
0.0
 40
1.0
100
AcDbArc
 50
319.9280374850079
 51
49.32807071426413
  0
ARC
  5
14E
330
1F
100
AcDbEntity
  8
LAY-10
  6
CONTINUOUS
 62
     7
100
AcDbCircle
 10
373.3310222638634
 20
588.2121742861253
 30
0.0
 40
1.0
100
AcDbArc
 50
160.0842699617793
 51
250.6719292857729
  0
ARC
  5
14F
330
1F
100
AcDbEntity
  8
LAY-10
  6
CONTINUOUS
 62
     7
100
AcDbCircle
 10
375.2184014371804
 20
587.5501852453261
 30
0.0
 40
1.0
100
AcDbArc
 50
250.6719292857677
 51
340.0719625150065
  0
ARC
  5
150
330
1F
100
AcDbEntity
  8
LAY-10
  6
CONTINUOUS
 62
     7
100
AcDbCircle
 10
369.0062493984977
 20
572.0719022213859
 30
0.0
 40
1.0
100
AcDbArc
 50
79.32807071423287
 51
169.91573003823
  0
ARC
  5
151
330
1F
100
AcDbEntity
  8
LAY-10
  6
CONTINUOUS
 62
     7
100
AcDbCircle
 10
370.9717622295635
 20
571.7015119610861
 30
0.0
 40
1.0
100
AcDbArc
 50
349.928037485006
 51
79.32807071423927
  0
ARC
  5
152
330
1F
100
AcDbEntity
  8
LAY-10
  6
CONTINUOUS
 62
     7
100
AcDbCircle
 10
369.006249398498
 20
537.9280977786335
 30
0.0
 40
1.0
100
AcDbArc
 50
190.08426996177
 51
280.6719292857608
  0
ARC
  5
153
330
1F
100
AcDbEntity
  8
LAY-10
  6
CONTINUOUS
 62
     7
100
AcDbCircle
 10
370.9717622295637
 20
538.298488038933
 30
0.0
 40
1.0
100
AcDbArc
 50
280.671929285764
 51
10.071962514994
  0
ARC
  5
154
330
1F
100
AcDbEntity
  8
LAY-10
  6
CONTINUOUS
 62
     7
100
AcDbCircle
 10
373.3310222638632
 20
521.7878257138944
 30
0.0
 40
1.0
100
AcDbArc
 50
109.3280707142529
 51
199.9157300382208
  0
ARC
  5
155
330
1F
100
AcDbEntity
  8
LAY-10
  6
CONTINUOUS
 62
     7
100
AcDbCircle
 10
375.2184014371802
 20
522.4498147546936
 30
0.0
 40
1.0
100
AcDbArc
 50
19.92803748499352
 51
109.3280707142345
  0
ARC
  5
156
330
1F
100
AcDbEntity
  8
LAY-10
  6
CONTINUOUS
 62
     7
100
AcDbCircle
 10
390.4029244852395
 20
492.218423684623
 30
0.0
 40
1.0
100
AcDbArc
 50
220.0842699617764
 51
310.671929285773
  0
ARC
  5
157
330
1F
100
AcDbEntity
  8
LAY-10
  6
CONTINUOUS
 62
     7
100
AcDbCircle
 10
391.9199133982568
 20
493.5219474748897
 30
0.0
 40
1.0
100
AcDbArc
 50
310.6719292857455
 51
40.07196251499006
  0
ARC
  5
158
330
1F
100
AcDbEntity
  8
LAY-10
  6
CONTINUOUS
 62
     7
100
AcDbCircle
 10
402.2184236846127
 20
480.4029244852494
 30
0.0
 40
1.0
100
AcDbArc
 50
139.3280707142503
 51
229.9157300382286
  0
ARC
  5
159
330
1F
100
AcDbEntity
  8
LAY-10
  6
CONTINUOUS
 62
     7
100
AcDbCircle
 10
403.5219474748795
 20
481.9199133982667
 30
0.0
 40
1.0
100
AcDbArc
 50
49.9280374850054
 51
139.328070714227
  0
ARC
  5
15A
330
1F
100
AcDbEntity
  8
LAY-10
  6
CONTINUOUS
 62
     7
100
AcDbCircle
 10
431.7878257138844
 20
463.3310222638733
 30
0.0
 40
1.0
100
AcDbArc
 50
250.0842699617803
 51
340.6719292857761
  0
ARC
  5
15B
330
1F
100
AcDbEntity
  8
LAY-10
  6
CONTINUOUS
 62
     7
100
AcDbCircle
 10
432.4498147546836
 20
465.2184014371902
 30
0.0
 40
1.0
100
AcDbArc
 50
340.6719292857667
 51
70.0719625150107
  0
CIRCLE
  5
15C
330
1F
100
AcDbEntity
  8
LAY-10
  6
CONTINUOUS
 62
     7
100
AcDbCircle
 10
464.9999999999997
 20
555.0000000000099
 30
0.0
 40
107.4999999999982
  0
CIRCLE
  5
15D
330
1F
100
AcDbEntity
  8
LAY-10
  6
CONTINUOUS
 62
     7
100
AcDbCircle
 10
464.9999999999997
 20
555.0000000000099
 30
0.0
 40
112.5
  0
LINE
  5
15E
330
1F
100
AcDbEntity
  8
LAY-10
  6
CONTINUOUS
 62
     7
100
AcDbLine
 10
482.4999999999996
 20
462.1345058700605
 30
0.0
 11
483.4816513693632
 21
462.5136836458852
 31
0.0
  0
LINE
  5
15F
330
1F
100
AcDbEntity
  8
LAY-10
  6
CONTINUOUS
 62
     7
100
AcDbLine
 10
483.2407407407403
 20
458.203691303714
 30
0.0
 11
484.4438014065889
 21
457.4182978891099
 31
0.0
  0
LINE
  5
160
330
1F
100
AcDbEntity
  8
LAY-10
  6
CONTINUOUS
 62
     7
100
AcDbLine
 10
483.0546058629626
 20
459.1914345836933
 30
0.0
 11
482.6842156026631
 21
461.1569474147592
 31
0.0
  0
LINE
  5
161
330
1F
100
AcDbEntity
  8
LAY-10
  6
CONTINUOUS
 62
     7
100
AcDbLine
 10
484.4438014065889
 20
457.4182978891102
 30
0.0
 11
483.4816513693632
 21
462.5136836458852
 31
0.0
  0
LINE
  5
162
330
1F
100
AcDbEntity
  8
LAY-10
  6
CONTINUOUS
 62
     7
100
AcDbLine
 10
447.4999999999997
 20
462.1345058700605
 30
0.0
 11
446.5183486306361
 21
462.5136836458852
 31
0.0
  0
LINE
  5
163
330
1F
100
AcDbEntity
  8
LAY-10
  6
CONTINUOUS
 62
     7
100
AcDbLine
 10
446.759259259259
 20
458.203691303714
 30
0.0
 11
445.5561985934103
 21
457.4182978891099
 31
0.0
  0
LINE
  5
164
330
1F
100
AcDbEntity
  8
LAY-10
  6
CONTINUOUS
 62
     7
100
AcDbLine
 10
446.9453941370367
 20
459.1914345836936
 30
0.0
 11
447.3157843973364
 21
461.1569474147592
 31
0.0
  0
LINE
  5
165
330
1F
100
AcDbEntity
  8
LAY-10
  6
CONTINUOUS
 62
     7
100
AcDbLine
 10
445.5561985934103
 20
457.4182978891102
 30
0.0
 11
446.5183486306361
 21
462.5136836458852
 31
0.0
  0
ARC
  5
166
330
1F
100
AcDbEntity
  8
LAY-10
  6
CONTINUOUS
 62
     7
100
AcDbCircle
 10
465.0000000000001
 20
555.0000000000099
 30
0.0
 40
94.49999999999818
100
AcDbArc
 50
259.9280374850022
 51
280.0719625149973
  0
ARC
  5
167
330
1F
100
AcDbEntity
  8
LAY-10
  6
CONTINUOUS
 62
     7
100
AcDbCircle
 10
465.0000000000001
 20
555.0000000000099
 30
0.0
 40
99.49999999999665
100
AcDbArc
 50
258.7310270193867
 51
281.2689729806129
  0
ARC
  5
168
330
1F
100
AcDbEntity
  8
LAY-10
  6
CONTINUOUS
 62
     7
100
AcDbCircle
 10
465.0000000000001
 20
555.0000000000099
 30
0.0
 40
98.49999999999777
100
AcDbArc
 50
259.915730038226
 51
280.0842699617735
  0
ARC
  5
169
330
1F
100
AcDbEntity
  8
LAY-10
  6
CONTINUOUS
 62
     7
100
AcDbCircle
 10
465.0000000000001
 20
555.0000000000099
 30
0.0
 40
94.0807377657336
100
AcDbArc
 50
267.5632395372618
 51
272.436760462738
  0
LINE
  5
16A
330
1F
100
AcDbEntity
  8
LAY-10
  6
CONTINUOUS
 62
     7
100
AcDbLine
 10
469.6999999999996
 20
461.633562517638
 30
0.0
 11
468.9999999999996
 21
461.0043340438353
 31
0.0
  0
LINE
  5
16B
330
1F
100
AcDbEntity
  8
LAY-10
  6
CONTINUOUS
 62
     7
100
AcDbLine
 10
460.2999999999996
 20
461.633562517638
 30
0.0
 11
460.9999999999997
 21
461.0043340438353
 31
0.0
  0
ARC
  5
16C
330
1F
100
AcDbEntity
  8
LAY-10
  6
CONTINUOUS
 62
     7
100
AcDbCircle
 10
482.0719022213758
 20
459.0062493985083
 30
0.0
 40
1.0
100
AcDbArc
 50
280.0842699617701
 51
10.67192928575113
  0
ARC
  5
16D
330
1F
100
AcDbEntity
  8
LAY-10
  6
CONTINUOUS
 62
     7
100
AcDbCircle
 10
481.7015119610763
 20
460.9717622295739
 30
0.0
 40
1.0
100
AcDbArc
 50
10.67192928577153
 51
100.07196251501
  0
ARC
  5
16E
330
1F
100
AcDbEntity
  8
LAY-10
  6
CONTINUOUS
 62
     7
100
AcDbCircle
 10
448.2984880389232
 20
460.9717622295742
 30
0.0
 40
1.0
100
AcDbArc
 50
79.92803748500603
 51
169.3280707142489
  0
ARC
  5
16F
330
1F
100
AcDbEntity
  8
LAY-10
  6
CONTINUOUS
 62
     7
100
AcDbCircle
 10
447.9280977786235
 20
459.0062493985083
 30
0.0
 40
1.0
100
AcDbArc
 50
169.3280707142297
 51
259.91573003823
  0
ARC
  5
170
330
1F
100
AcDbEntity
  8
LAY-10
  6
CONTINUOUS
 62
     7
100
AcDbCircle
 10
464.9999999999997
 20
555.0000000000099
 30
0.0
 40
94.31484586264234
100
AcDbArc
 50
251.300632500611
 51
258.6993674993862
  0
ARC
  5
171
330
1F
100
AcDbEntity
  8
LAY-10
  6
CONTINUOUS
 62
     7
100
AcDbCircle
 10
464.9999999999997
 20
555.0000000000099
 30
0.0
 40
93.48465996167317
100
AcDbArc
 50
184.0872963535933
 51
267.1182038019607
  0
LINE
  5
172
330
1F
100
AcDbEntity
  8
LAY-10
  6
CONTINUOUS
 62
     7
100
AcDbLine
 10
562.5817021108994
 20
574.443801406599
 30
0.0
 11
557.4863163541247
 21
573.4816513693735
 31
0.0
  0
LINE
  5
173
330
1F
100
AcDbEntity
  8
LAY-10
  6
CONTINUOUS
 62
     7
100
AcDbLine
 10
560.8085654163162
 20
573.0546058629727
 30
0.0
 11
558.8430525852505
 21
572.6842156026729
 31
0.0
  0
LINE
  5
174
330
1F
100
AcDbEntity
  8
LAY-10
  6
CONTINUOUS
 62
     7
100
AcDbLine
 10
557.865494129949
 20
572.5000000000097
 30
0.0
 11
557.4863163541247
 21
573.4816513693735
 31
0.0
  0
LINE
  5
175
330
1F
100
AcDbEntity
  8
LAY-10
  6
CONTINUOUS
 62
     7
100
AcDbLine
 10
561.7963086962957
 20
573.2407407407503
 30
0.0
 11
562.5817021108996
 21
574.443801406599
 31
0.0
  0
ARC
  5
176
330
1F
100
AcDbEntity
  8
LAY-10
  6
CONTINUOUS
 62
     7
100
AcDbCircle
 10
464.9999999999995
 20
555.0000000000099
 30
0.0
 40
98.49999999999777
100
AcDbArc
 50
349.9157300382261
 51
10.08426996177371
  0
ARC
  5
177
330
1F
100
AcDbEntity
  8
LAY-10
  6
CONTINUOUS
 62
     7
100
AcDbCircle
 10
464.9999999999995
 20
555.0000000000099
 30
0.0
 40
94.49999999999818
100
AcDbArc
 50
349.9280374850023
 51
10.07196251499738
  0
LINE
  5
178
330
1F
100
AcDbEntity
  8
LAY-10
  6
CONTINUOUS
 62
     7
100
AcDbLine
 10
557.865494129949
 20
537.5000000000094
 30
0.0
 11
557.4863163541247
 21
536.518348630646
 31
0.0
  0
LINE
  5
179
330
1F
100
AcDbEntity
  8
LAY-10
  6
CONTINUOUS
 62
     7
100
AcDbLine
 10
561.7963086962957
 20
536.7592592592688
 30
0.0
 11
562.5817021108996
 21
535.5561985934204
 31
0.0
  0
LINE
  5
17A
330
1F
100
AcDbEntity
  8
LAY-10
  6
CONTINUOUS
 62
     7
100
AcDbLine
 10
560.808565416316
 20
536.9453941370467
 30
0.0
 11
558.8430525852502
 21
537.3157843973462
 31
0.0
  0
LINE
  5
17B
330
1F
100
AcDbEntity
  8
LAY-10
  6
CONTINUOUS
 62
     7
100
AcDbLine
 10
562.5817021108994
 20
535.5561985934204
 30
0.0
 11
557.4863163541247
 21
536.518348630646
 31
0.0
  0
ARC
  5
17C
330
1F
100
AcDbEntity
  8
LAY-10
  6
CONTINUOUS
 62
     7
100
AcDbCircle
 10
464.9999999999995
 20
555.0000000000099
 30
0.0
 40
99.49999999999665
100
AcDbArc
 50
348.7310270193869
 51
11.26897298061294
  0
ARC
  5
17D
330
1F
100
AcDbEntity
  8
LAY-10
  6
CONTINUOUS
 62
     7
100
AcDbCircle
 10
464.9999999999995
 20
555.0000000000099
 30
0.0
 40
94.31484586264234
100
AcDbArc
 50
341.3006325006113
 51
348.6993674993889
  0
LINE
  5
17E
330
1F
100
AcDbEntity
  8
LAY-10
  6
CONTINUOUS
 62
     7
100
AcDbLine
 10
554.1738770515306
 20
523.7226975012626
 30
0.0
 11
554.3363251497979
 21
524.7624214127032
 31
0.0
  0
LINE
  5
17F
330
1F
100
AcDbEntity
  8
LAY-10
  6
CONTINUOUS
 62
     7
100
AcDbLine
 10
557.948432693923
 20
522.3987905171889
 30
0.0
 11
559.2301336758594
 21
523.0479749088059
 31
0.0
  0
LINE
  5
180
330
1F
100
AcDbEntity
  8
LAY-10
  6
CONTINUOUS
 62
     7
100
AcDbLine
 10
556.9999544821546
 20
522.7314646244928
 30
0.0
 11
555.1125753088374
 21
523.393453665292
 31
0.0
  0
LINE
  5
181
330
1F
100
AcDbEntity
  8
LAY-10
  6
CONTINUOUS
 62
     7
100
AcDbLine
 10
559.2301336758592
 20
523.0479749088059
 30
0.0
 11
554.3363251497979
 21
524.7624214127032
 31
0.0
  0
LINE
  5
182
330
1F
100
AcDbEntity
  8
LAY-10
  6
CONTINUOUS
 62
     7
100
AcDbLine
 10
536.6738770515306
 20
493.4118083688071
 30
0.0
 11
535.8546737804343
 21
492.7512622331907
 31
0.0
  0
LINE
  5
183
330
1F
100
AcDbEntity
  8
LAY-10
  6
CONTINUOUS
 62
     7
100
AcDbLine
 10
539.7076919531821
 20
490.8049007865342
 30
0.0
 11
539.7863322692699
 21
489.3703229803135
 31
0.0
  0
LINE
  5
184
330
1F
100
AcDbEntity
  8
LAY-10
  6
CONTINUOUS
 62
     7
100
AcDbLine
 10
538.9453486191912
 20
491.45996995921
 30
0.0
 11
537.4283597061742
 21
492.7634937494764
 31
0.0
  0
LINE
  5
185
330
1F
100
AcDbEntity
  8
LAY-10
  6
CONTINUOUS
 62
     7
100
AcDbLine
 10
539.7863322692699
 20
489.3703229803135
 30
0.0
 11
535.8546737804343
 21
492.7512622331907
 31
0.0
  0
ARC
  5
186
330
1F
100
AcDbEntity
  8
LAY-10
  6
CONTINUOUS
 62
     7
100
AcDbCircle
 10
464.9999999999998
 20
555.0000000000099
 30
0.0
 40
94.49999999999818
100
AcDbArc
 50
319.9280374850027
 51
340.0719625149976
  0
ARC
  5
187
330
1F
100
AcDbEntity
  8
LAY-10
  6
CONTINUOUS
 62
     7
100
AcDbCircle
 10
464.9999999999998
 20
555.0000000000099
 30
0.0
 40
99.49999999999665
100
AcDbArc
 50
318.7310270193868
 51
341.2689729806134
  0
ARC
  5
188
330
1F
100
AcDbEntity
  8
LAY-10
  6
CONTINUOUS
 62
     7
100
AcDbCircle
 10
464.9999999999998
 20
555.0000000000099
 30
0.0
 40
98.49999999999777
100
AcDbArc
 50
319.915730038226
 51
340.0842699617741
  0
LINE
  5
189
330
1F
100
AcDbEntity
  8
LAY-10
  6
CONTINUOUS
 62
     7
100
AcDbLine
 10
526.5881916312021
 20
483.3261229484787
 30
0.0
 11
527.2487377668185
 21
484.1453262195749
 31
0.0
  0
LINE
  5
18A
330
1F
100
AcDbEntity
  8
LAY-10
  6
CONTINUOUS
 62
     7
100
AcDbLine
 10
529.195099213475
 20
480.2923080468269
 30
0.0
 11
530.6296770196957
 21
480.2136677307393
 31
0.0
  0
LINE
  5
18B
330
1F
100
AcDbEntity
  8
LAY-10
  6
CONTINUOUS
 62
     7
100
AcDbLine
 10
528.5400300407994
 20
481.0546513808175
 30
0.0
 11
527.2365062505326
 21
482.5716402938352
 31
0.0
  0
LINE
  5
18C
330
1F
100
AcDbEntity
  8
LAY-10
  6
CONTINUOUS
 62
     7
100
AcDbLine
 10
530.6296770196957
 20
480.2136677307393
 30
0.0
 11
527.2487377668185
 21
484.1453262195749
 31
0.0
  0
LINE
  5
18D
330
1F
100
AcDbEntity
  8
LAY-10
  6
CONTINUOUS
 62
     7
100
AcDbLine
 10
496.2773024987466
 20
465.8261229484788
 30
0.0
 11
495.2375785873057
 21
465.6636748502114
 31
0.0
  0
LINE
  5
18E
330
1F
100
AcDbEntity
  8
LAY-10
  6
CONTINUOUS
 62
     7
100
AcDbLine
 10
497.6012094828204
 20
462.0515673060862
 30
0.0
 11
496.9520250912034
 21
460.7698663241498
 31
0.0
  0
LINE
  5
18F
330
1F
100
AcDbEntity
  8
LAY-10
  6
CONTINUOUS
 62
     7
100
AcDbLine
 10
497.2685353755164
 20
463.000045517855
 30
0.0
 11
496.6065463347174
 21
464.8874246911718
 31
0.0
  0
LINE
  5
190
330
1F
100
AcDbEntity
  8
LAY-10
  6
CONTINUOUS
 62
     7
100
AcDbLine
 10
496.9520250912034
 20
460.7698663241498
 30
0.0
 11
495.2375785873057
 21
465.6636748502114
 31
0.0
  0
ARC
  5
191
330
1F
100
AcDbEntity
  8
LAY-10
  6
CONTINUOUS
 62
     7
100
AcDbCircle
 10
465.0
 20
555.0000000000099
 30
0.0
 40
94.49999999999818
100
AcDbArc
 50
289.9280374850022
 51
310.0719625149974
  0
ARC
  5
192
330
1F
100
AcDbEntity
  8
LAY-10
  6
CONTINUOUS
 62
     7
100
AcDbCircle
 10
465.0
 20
555.0000000000099
 30
0.0
 40
99.49999999999665
100
AcDbArc
 50
288.7310270193867
 51
311.2689729806129
  0
ARC
  5
193
330
1F
100
AcDbEntity
  8
LAY-10
  6
CONTINUOUS
 62
     7
100
AcDbCircle
 10
465.0
 20
555.0000000000099
 30
0.0
 40
98.49999999999777
100
AcDbArc
 50
289.9157300382259
 51
310.0842699617737
  0
LINE
  5
194
330
1F
100
AcDbEntity
  8
LAY-10
  6
CONTINUOUS
 62
     7
100
AcDbLine
 10
536.6738770515303
 20
616.5881916312127
 30
0.0
 11
535.854673780434
 21
617.248737766829
 31
0.0
  0
LINE
  5
195
330
1F
100
AcDbEntity
  8
LAY-10
  6
CONTINUOUS
 62
     7
100
AcDbLine
 10
539.7076919531821
 20
619.1950992134852
 30
0.0
 11
539.7863322692699
 21
620.6296770197063
 31
0.0
  0
LINE
  5
196
330
1F
100
AcDbEntity
  8
LAY-10
  6
CONTINUOUS
 62
     7
100
AcDbLine
 10
538.9453486191915
 20
618.5400300408097
 30
0.0
 11
537.4283597061742
 21
617.2365062505434
 31
0.0
  0
LINE
  5
197
330
1F
100
AcDbEntity
  8
LAY-10
  6
CONTINUOUS
 62
     7
100
AcDbLine
 10
539.7863322692697
 20
620.6296770197063
 30
0.0
 11
535.854673780434
 21
617.248737766829
 31
0.0
  0
LINE
  5
198
330
1F
100
AcDbEntity
  8
LAY-10
  6
CONTINUOUS
 62
     7
100
AcDbLine
 10
554.1738770515303
 20
586.2773024987572
 30
0.0
 11
554.3363251497979
 21
585.2375785873162
 31
0.0
  0
LINE
  5
199
330
1F
100
AcDbEntity
  8
LAY-10
  6
CONTINUOUS
 62
     7
100
AcDbLine
 10
557.948432693923
 20
587.6012094828309
 30
0.0
 11
559.2301336758592
 21
586.9520250912138
 31
0.0
  0
LINE
  5
19A
330
1F
100
AcDbEntity
  8
LAY-10
  6
CONTINUOUS
 62
     7
100
AcDbLine
 10
556.9999544821542
 20
587.268535375527
 30
0.0
 11
555.1125753088372
 21
586.6065463347278
 31
0.0
  0
LINE
  5
19B
330
1F
100
AcDbEntity
  8
LAY-10
  6
CONTINUOUS
 62
     7
100
AcDbLine
 10
559.2301336758592
 20
586.9520250912138
 30
0.0
 11
554.3363251497979
 21
585.2375785873162
 31
0.0
  0
ARC
  5
19C
330
1F
100
AcDbEntity
  8
LAY-10
  6
CONTINUOUS
 62
     7
100
AcDbCircle
 10
464.9999999999993
 20
555.0000000000106
 30
0.0
 40
94.49999999999818
100
AcDbArc
 50
19.92803748500223
 51
40.07196251499722
  0
ARC
  5
19D
330
1F
100
AcDbEntity
  8
LAY-10
  6
CONTINUOUS
 62
     7
100
AcDbCircle
 10
464.9999999999993
 20
555.0000000000106
 30
0.0
 40
99.49999999999665
100
AcDbArc
 50
18.73102701938661
 51
41.2689729806129
  0
ARC
  5
19E
330
1F
100
AcDbEntity
  8
LAY-10
  6
CONTINUOUS
 62
     7
100
AcDbCircle
 10
464.9999999999993
 20
555.0000000000106
 30
0.0
 40
98.49999999999777
100
AcDbArc
 50
19.9157300382259
 51
40.08426996177355
  0
LINE
  5
19F
330
1F
100
AcDbEntity
  8
LAY-10
  6
CONTINUOUS
 62
     7
100
AcDbLine
 10
496.2773024987466
 20
644.1738770515402
 30
0.0
 11
495.2375785873057
 21
644.3363251498077
 31
0.0
  0
LINE
  5
1A0
330
1F
100
AcDbEntity
  8
LAY-10
  6
CONTINUOUS
 62
     7
100
AcDbLine
 10
497.6012094828204
 20
647.9484326939329
 30
0.0
 11
496.9520250912034
 21
649.2301336758693
 31
0.0
  0
LINE
  5
1A1
330
1F
100
AcDbEntity
  8
LAY-10
  6
CONTINUOUS
 62
     7
100
AcDbLine
 10
497.2685353755164
 20
646.9999544821644
 30
0.0
 11
496.6065463347174
 21
645.1125753088476
 31
0.0
  0
LINE
  5
1A2
330
1F
100
AcDbEntity
  8
LAY-10
  6
CONTINUOUS
 62
     7
100
AcDbLine
 10
496.9520250912034
 20
649.2301336758693
 30
0.0
 11
495.2375785873057
 21
644.3363251498077
 31
0.0
  0
LINE
  5
1A3
330
1F
100
AcDbEntity
  8
LAY-10
  6
CONTINUOUS
 62
     7
100
AcDbLine
 10
526.5881916312019
 20
626.6738770515404
 30
0.0
 11
527.2487377668183
 21
625.8546737804442
 31
0.0
  0
LINE
  5
1A4
330
1F
100
AcDbEntity
  8
LAY-10
  6
CONTINUOUS
 62
     7
100
AcDbLine
 10
529.1950992134748
 20
629.7076919531921
 30
0.0
 11
530.6296770196957
 21
629.7863322692798
 31
0.0
  0
LINE
  5
1A5
330
1F
100
AcDbEntity
  8
LAY-10
  6
CONTINUOUS
 62
     7
100
AcDbLine
 10
528.5400300407991
 20
628.9453486192012
 30
0.0
 11
527.2365062505326
 21
627.4283597061839
 31
0.0
  0
LINE
  5
1A6
330
1F
100
AcDbEntity
  8
LAY-10
  6
CONTINUOUS
 62
     7
100
AcDbLine
 10
530.6296770196957
 20
629.7863322692798
 30
0.0
 11
527.2487377668183
 21
625.8546737804442
 31
0.0
  0
ARC
  5
1A7
330
1F
100
AcDbEntity
  8
LAY-10
  6
CONTINUOUS
 62
     7
100
AcDbCircle
 10
464.9999999999991
 20
555.0000000000099
 30
0.0
 40
94.49999999999818
100
AcDbArc
 50
49.92803748500207
 51
70.07196251499722
  0
ARC
  5
1A8
330
1F
100
AcDbEntity
  8
LAY-10
  6
CONTINUOUS
 62
     7
100
AcDbCircle
 10
464.9999999999991
 20
555.0000000000099
 30
0.0
 40
99.49999999999665
100
AcDbArc
 50
48.73102701938685
 51
71.26897298061303
  0
ARC
  5
1A9
330
1F
100
AcDbEntity
  8
LAY-10
  6
CONTINUOUS
 62
     7
100
AcDbCircle
 10
464.9999999999991
 20
555.0000000000099
 30
0.0
 40
98.49999999999777
100
AcDbArc
 50
49.9157300382258
 51
70.08426996177369
  0
ARC
  5
1AA
330
1F
100
AcDbEntity
  8
LAY-10
  6
CONTINUOUS
 62
     7
100
AcDbCircle
 10
464.9999999999995
 20
555.0000000000099
 30
0.0
 40
94.31484586264234
100
AcDbArc
 50
41.30063250061118
 51
48.69936749939005
  0
ARC
  5
1AB
330
1F
100
AcDbEntity
  8
LAY-10
  6
CONTINUOUS
 62
     7
100
AcDbCircle
 10
464.9999999999995
 20
555.0000000000099
 30
0.0
 40
94.31484586264234
100
AcDbArc
 50
11.30063250061088
 51
18.69936749938918
  0
ARC
  5
1AC
330
1F
100
AcDbEntity
  8
LAY-10
  6
CONTINUOUS
 62
     7
100
AcDbCircle
 10
464.9999999999995
 20
555.0000000000099
 30
0.0
 40
94.31484586264234
100
AcDbArc
 50
311.3006325006112
 51
318.699367499389
  0
LINE
  5
1AD
330
1F
100
AcDbEntity
  8
LAY-10
  6
CONTINUOUS
 62
     7
100
AcDbLine
 10
558.8892177970647
 20
561.0000000000099
 30
0.0
 11
558.246892092747
 21
561.6632396920207
 31
0.0
  0
LINE
  5
1AE
330
1F
100
AcDbEntity
  8
LAY-10
  6
CONTINUOUS
 62
     7
100
AcDbLine
 10
558.8892177970647
 20
549.0000000000099
 30
0.0
 11
558.246892092747
 21
548.3367603079987
 31
0.0
  0
ARC
  5
1AF
330
1F
100
AcDbEntity
  8
LAY-10
  6
CONTINUOUS
 62
     7
100
AcDbCircle
 10
498.2121742861148
 20
646.6689777361461
 30
0.0
 40
1.0
100
AcDbArc
 50
70.08426996177701
 51
160.671929285773
  0
ARC
  5
1B0
330
1F
100
AcDbEntity
  8
LAY-10
  6
CONTINUOUS
 62
     7
100
AcDbCircle
 10
497.5501852453156
 20
644.7815985628289
 30
0.0
 40
1.0
100
AcDbArc
 50
160.6719292857523
 51
250.0719625150035
  0
ARC
  5
1B1
330
1F
100
AcDbEntity
  8
LAY-10
  6
CONTINUOUS
 62
     7
100
AcDbCircle
 10
527.781576315386
 20
629.5970755147697
 30
0.0
 40
1.0
100
AcDbArc
 50
319.3280707142482
 51
49.91573003820356
  0
ARC
  5
1B2
330
1F
100
AcDbEntity
  8
LAY-10
  6
CONTINUOUS
 62
     7
100
AcDbCircle
 10
526.4780525251194
 20
628.080086601752
 30
0.0
 40
1.0
100
AcDbArc
 50
229.9280374849866
 51
319.3280707142525
  0
ARC
  5
1B3
330
1F
100
AcDbEntity
  8
LAY-10
  6
CONTINUOUS
 62
     7
100
AcDbCircle
 10
539.5970755147598
 20
617.7815763153967
 30
0.0
 40
1.0
100
AcDbArc
 50
40.08426996177888
 51
130.6719292857561
  0
ARC
  5
1B4
330
1F
100
AcDbEntity
  8
LAY-10
  6
CONTINUOUS
 62
     7
100
AcDbCircle
 10
538.0800866017423
 20
616.47805252513
 30
0.0
 40
1.0
100
AcDbArc
 50
130.6719292857384
 51
220.0719625149901
  0
ARC
  5
1B5
330
1F
100
AcDbEntity
  8
LAY-10
  6
CONTINUOUS
 62
     7
100
AcDbCircle
 10
556.6689777361357
 20
588.2121742861253
 30
0.0
 40
1.0
100
AcDbArc
 50
289.328070714221
 51
19.9157300382208
  0
ARC
  5
1B6
330
1F
100
AcDbEntity
  8
LAY-10
  6
CONTINUOUS
 62
     7
100
AcDbCircle
 10
554.7815985628188
 20
587.5501852453261
 30
0.0
 40
1.0
100
AcDbArc
 50
199.9280374849935
 51
289.328070714221
  0
ARC
  5
1B7
330
1F
100
AcDbEntity
  8
LAY-10
  6
CONTINUOUS
 62
     7
100
AcDbCircle
 10
560.9937506015015
 20
572.0719022213859
 30
0.0
 40
1.0
100
AcDbArc
 50
10.08426996177005
 51
100.6719292857639
  0
ARC
  5
1B8
330
1F
100
AcDbEntity
  8
LAY-10
  6
CONTINUOUS
 62
     7
100
AcDbCircle
 10
559.0282377704357
 20
571.7015119610861
 30
0.0
 40
1.0
100
AcDbArc
 50
100.6719292857639
 51
190.0719625149946
  0
ARC
  5
1B9
330
1F
100
AcDbEntity
  8
LAY-10
  6
CONTINUOUS
 62
     7
100
AcDbCircle
 10
560.9937506015012
 20
537.9280977786335
 30
0.0
 40
1.0
100
AcDbArc
 50
259.328070714236
 51
349.9157300382301
  0
ARC
  5
1BA
330
1F
100
AcDbEntity
  8
LAY-10
  6
CONTINUOUS
 62
     7
100
AcDbCircle
 10
559.0282377704355
 20
538.298488038933
 30
0.0
 40
1.0
100
AcDbArc
 50
169.9280374850055
 51
259.328070714236
  0
ARC
  5
1BB
330
1F
100
AcDbEntity
  8
LAY-10
  6
CONTINUOUS
 62
     7
100
AcDbCircle
 10
556.668977736136
 20
521.7878257138944
 30
0.0
 40
1.0
100
AcDbArc
 50
340.0842699617793
 51
70.67192928576061
  0
ARC
  5
1BC
330
1F
100
AcDbEntity
  8
LAY-10
  6
CONTINUOUS
 62
     7
100
AcDbCircle
 10
554.781598562819
 20
522.4498147546936
 30
0.0
 40
1.0
100
AcDbArc
 50
70.67192928577292
 51
160.0719625150066
  0
ARC
  5
1BD
330
1F
100
AcDbEntity
  8
LAY-10
  6
CONTINUOUS
 62
     7
100
AcDbCircle
 10
539.5970755147596
 20
492.218423684623
 30
0.0
 40
1.0
100
AcDbArc
 50
229.3280707142271
 51
319.9157300382237
  0
ARC
  5
1BE
330
1F
100
AcDbEntity
  8
LAY-10
  6
CONTINUOUS
 62
     7
100
AcDbCircle
 10
538.0800866017423
 20
493.5219474748897
 30
0.0
 40
1.0
100
AcDbArc
 50
139.92803748501
 51
229.3280707142454
  0
ARC
  5
1BF
330
1F
100
AcDbEntity
  8
LAY-10
  6
CONTINUOUS
 62
     7
100
AcDbCircle
 10
527.7815763153865
 20
480.4029244852494
 30
0.0
 40
1.0
100
AcDbArc
 50
310.0842699617739
 51
40.67192928574759
  0
ARC
  5
1C0
330
1F
100
AcDbEntity
  8
LAY-10
  6
CONTINUOUS
 62
     7
100
AcDbCircle
 10
526.4780525251197
 20
481.9199133982667
 30
0.0
 40
1.0
100
AcDbArc
 50
40.67192928577509
 51
130.0719625149809
  0
ARC
  5
1C1
330
1F
100
AcDbEntity
  8
LAY-10
  6
CONTINUOUS
 62
     7
100
AcDbCircle
 10
498.2121742861148
 20
463.3310222638733
 30
0.0
 40
1.0
100
AcDbArc
 50
199.328070714224
 51
289.9157300382197
  0
ARC
  5
1C2
330
1F
100
AcDbEntity
  8
LAY-10
  6
CONTINUOUS
 62
     7
100
AcDbCircle
 10
497.5501852453156
 20
465.2184014371902
 30
0.0
 40
1.0
100
AcDbArc
 50
109.9280374849955
 51
199.3280707142323
  0
ARC
  5
1C3
330
1F
100
AcDbEntity
  8
LAY-10
  6
CONTINUOUS
 62
     7
100
AcDbCircle
 10
464.9999999999995
 20
555.0000000000099
 30
0.0
 40
93.48465996167317
100
AcDbArc
 50
4.087296353593218
 51
87.11820380196086
  0
ARC
  5
1C4
330
1F
100
AcDbEntity
  8
LAY-10
  6
CONTINUOUS
 62
     7
100
AcDbCircle
 10
464.9999999999995
 20
555.0000000000099
 30
0.0
 40
94.31484586264234
100
AcDbArc
 50
71.30063250060965
 51
78.69936749938904
  0
ARC
  5
1C5
330
1F
100
AcDbEntity
  8
LAY-10
  6
CONTINUOUS
 62
     7
100
AcDbCircle
 10
464.9999999999995
 20
555.0000000000099
 30
0.0
 40
93.48465996167317
100
AcDbArc
 50
272.8817961980393
 51
355.9127036464068
  0
ARC
  5
1C6
330
1F
100
AcDbEntity
  8
LAY-10
  6
CONTINUOUS
 62
     7
100
AcDbCircle
 10
464.9999999999995
 20
555.0000000000099
 30
0.0
 40
94.31484586264234
100
AcDbArc
 50
281.3006325006141
 51
288.6993674993891
  0
LINE
  5
1C7
330
1F
100
AcDbEntity
  8
LAY-10
  6
CONTINUOUS
 62
     7
100
AcDbLine
 10
372.0366072321297
 20
551.5570335802408
 30
0.0
 11
380.9633927678228
 21
556.7109156122615
 31
0.0
  0
LINE
  5
1C8
330
1F
100
AcDbEntity
  8
LAY-10
  6
CONTINUOUS
 62
     7
100
AcDbLine
 10
371.0366072321323
 20
553.2890843878425
 30
0.0
 11
379.9633927677961
 21
558.4429664198461
 31
0.0
  0
CIRCLE
  5
1C9
330
1F
100
AcDbEntity
  8
LAY-10
  6
CONTINUOUS
 62
     7
100
AcDbCircle
 10
375.999999999992
 20
555.0000000000102
 30
0.0
 40
5.25
  0
LINE
  5
1CA
330
1F
100
AcDbEntity
  8
LAY-10
  6
CONTINUOUS
 62
     7
100
AcDbLine
 10
550.0366072321297
 20
551.5570335802408
 30
0.0
 11
558.9633927678228
 21
556.7109156122615
 31
0.0
  0
LINE
  5
1CB
330
1F
100
AcDbEntity
  8
LAY-10
  6
CONTINUOUS
 62
     7
100
AcDbLine
 10
549.0366072321323
 20
553.2890843878425
 30
0.0
 11
557.9633927677961
 21
558.4429664198461
 31
0.0
  0
CIRCLE
  5
1CC
330
1F
100
AcDbEntity
  8
LAY-10
  6
CONTINUOUS
 62
     7
100
AcDbCircle
 10
553.999999999992
 20
555.0000000000102
 30
0.0
 40
5.25
  0
ARC
  5
1CD
330
1F
100
AcDbEntity
  8
LAY-10
  6
CONTINUOUS
 62
     7
100
AcDbCircle
 10
464.9999999999997
 20
555.0000000000099
 30
0.0
 40
94.0807377657336
100
AcDbArc
 50
176.3434795562806
 51
179.1720068299799
  0
ARC
  5
1CE
330
1F
100
AcDbEntity
  8
LAY-10
  6
CONTINUOUS
 62
     7
100
AcDbCircle
 10
464.9999999999997
 20
555.0000000000099
 30
0.0
 40
94.0807377657336
100
AcDbArc
 50
180.8279931700197
 51
183.65652044372
  0
ARC
  5
1CF
330
1F
100
AcDbEntity
  8
LAY-10
  6
CONTINUOUS
 62
     7
100
AcDbCircle
 10
464.9999999999995
 20
555.0000000000099
 30
0.0
 40
94.0807377657336
100
AcDbArc
 50
0.8279931699839495
 51
3.656520443719427
  0
ARC
  5
1D0
330
1F
100
AcDbEntity
  8
LAY-10
  6
CONTINUOUS
 62
     7
100
AcDbCircle
 10
464.9999999999995
 20
555.0000000000099
 30
0.0
 40
94.0807377657336
100
AcDbArc
 50
356.34347955628
 51
359.1720068300166
  0
TEXT
  5
1D1
330
1F
100
AcDbEntity
  8
LAY-10
  6
CONTINUOUS
 62
     7
100
AcDbText
 10
460.5600000503994
 20
552.7896199008591
 30
0.0
 40
4.365432544280815
  1
ＳＦ
 41
0.9959848942389818
  7
EXCADSTD
100
AcDbText
  0
LINE
  5
1D2
330
1F
100
AcDbEntity
  8
LAY-10
  6
CONTINUOUS
 62
     7
100
AcDbLine
 10
465.0000000000006
 20
550.3811978926852
 30
0.0
 11
472.9999999200007
 21
555.0000000000143
 31
0.0
  0
LINE
  5
1D3
330
1F
100
AcDbEntity
  8
LAY-10
  6
CONTINUOUS
 62
     7
100
AcDbLine
 10
464.9999999999994
 20
559.6188021073456
 30
0.0
 11
472.9999999199995
 21
555.0000000000164
 31
0.0
  0
LINE
  5
1D4
330
1F
100
AcDbEntity
  8
LAY-10
  6
CONTINUOUS
 62
     7
100
AcDbLine
 10
464.9999999999982
 20
550.3811978926852
 30
0.0
 11
457.0000000799984
 21
555.0000000000143
 31
0.0
  0
LINE
  5
1D5
330
1F
100
AcDbEntity
  8
LAY-10
  6
CONTINUOUS
 62
     7
100
AcDbLine
 10
464.9999999999993
 20
559.6188021073456
 30
0.0
 11
457.0000000799994
 21
555.0000000000164
 31
0.0
  0
LINE
  5
1D6
330
1F
100
AcDbEntity
  8
LAY-10
  6
CONTINUOUS
 62
     7
100
AcDbLine
 10
472.7523475295586
 20
542.4575571563379
 30
0.0
 11
478.6924579742832
 21
532.8471139384568
 31
0.0
  0
LINE
  5
1D7
330
1F
100
AcDbEntity
  8
LAY-10
  6
CONTINUOUS
 62
     7
100
AcDbLine
 10
467.1234841089739
 20
540.4088184184951
 30
0.0
 11
468.750569335329
 21
529.228562401488
 31
0.0
  0
ARC
  5
1D8
330
1F
100
AcDbEntity
  8
LAY-10
  6
CONTINUOUS
 62
     7
100
AcDbCircle
 10
470.1504209818472
 20
540.8493346517075
 30
0.0
 40
3.058823529411978
100
AcDbArc
 50
31.71976030578353
 51
188.2802396942111
  0
ARC
  5
1D9
330
1F
100
AcDbEntity
  8
LAY-10
  6
CONTINUOUS
 62
     7
100
AcDbCircle
 10
474.0968474484558
 20
530.0066170471621
 30
0.0
 40
5.402597402597492
100
AcDbArc
 50
188.2802396942135
 51
31.7197603057884
  0
LINE
  5
1DA
330
1F
100
AcDbEntity
  8
LAY-10
  6
CONTINUOUS
 62
     7
100
AcDbLine
 10
462.8765158910317
 20
540.4088184184938
 30
0.0
 11
461.249430664676
 21
529.228562401487
 31
0.0
  0
LINE
  5
1DB
330
1F
100
AcDbEntity
  8
LAY-10
  6
CONTINUOUS
 62
     7
100
AcDbLine
 10
457.2476524704469
 20
542.4575571563365
 30
0.0
 11
451.3075420257218
 21
532.8471139384558
 31
0.0
  0
ARC
  5
1DC
330
1F
100
AcDbEntity
  8
LAY-10
  6
CONTINUOUS
 62
     7
100
AcDbCircle
 10
459.8495790181581
 20
540.8493346517062
 30
0.0
 40
3.058823529411978
100
AcDbArc
 50
351.7197603057888
 51
148.2802396942099
  0
ARC
  5
1DD
330
1F
100
AcDbEntity
  8
LAY-10
  6
CONTINUOUS
 62
     7
100
AcDbCircle
 10
455.9031525515493
 20
530.0066170471607
 30
0.0
 40
5.402597402597492
100
AcDbArc
 50
148.2802396942096
 51
351.7197603057902
  0
LINE
  5
1DE
330
1F
100
AcDbEntity
  8
LAY-10
  6
CONTINUOUS
 62
     7
100
AcDbLine
 10
471.9859003633634
 20
567.9849513214095
 30
0.0
 11
477.3387331093136
 21
577.9344594767671
 31
0.0
  0
ARC
  5
1DF
330
1F
100
AcDbEntity
  8
LAY-10
  6
CONTINUOUS
 62
     7
100
AcDbCircle
 10
474.6796251811667
 20
566.5357280846256
 30
0.0
 40
3.058823529411978
100
AcDbArc
 50
151.7197603057902
 51
308.2802396942153
  0
ARC
  5
1E0
330
1F
100
AcDbEntity
  8
LAY-10
  6
CONTINUOUS
 62
     7
100
AcDbCircle
 10
479.8300461630121
 20
557.6149372637003
 30
0.0
 40
3.058823529411978
100
AcDbArc
 50
111.7197603057875
 51
268.2802396942153
  0
LINE
  5
1E1
330
1F
100
AcDbEntity
  8
LAY-10
  6
CONTINUOUS
 62
     7
100
AcDbLine
 10
478.6980759753168
 20
560.4565996078667
 30
0.0
 11
489.1940043200363
 21
564.6376304762241
 31
0.0
  0
LINE
  5
1E2
330
1F
100
AcDbEntity
  8
LAY-10
  6
CONTINUOUS
 62
     7
100
AcDbLine
 10
476.00571393302
 20
545.1874557055614
 30
0.0
 11
484.438663570006
 21
537.6687529344913
 31
0.0
  0
LINE
  5
1E3
330
1F
100
AcDbEntity
  8
LAY-10
  6
CONTINUOUS
 62
     7
100
AcDbLine
 10
479.0007696012646
 20
550.375044294458
 30
0.0
 11
489.7286320230092
 21
546.8312470655288
 31
0.0
  0
ARC
  5
1E4
330
1F
100
AcDbEntity
  8
LAY-10
  6
CONTINUOUS
 62
     7
100
AcDbCircle
 10
478.0413237275819
 20
547.4705882353038
 30
0.0
 40
3.058823529411978
100
AcDbArc
 50
71.71976030578756
 51
228.280239694216
  0
ARC
  5
1E5
330
1F
100
AcDbEntity
  8
LAY-10
  6
CONTINUOUS
 62
     7
100
AcDbCircle
 10
488.0340263240373
 20
541.7012987013087
 30
0.0
 40
5.402597402597492
100
AcDbArc
 50
228.2802396942128
 51
71.71976030578733
  0
LINE
  5
1E6
330
1F
100
AcDbEntity
  8
LAY-10
  6
CONTINUOUS
 62
     7
100
AcDbLine
 10
479.73824789292
 20
554.557491522286
 30
0.0
 11
491.0311910835954
 21
554.2184265848095
 31
0.0
  0
ARC
  5
1E7
330
1F
100
AcDbEntity
  8
LAY-10
  6
CONTINUOUS
 62
     7
100
AcDbCircle
 10
491.1933282879136
 20
559.6185904917228
 30
0.0
 40
5.402597402597492
100
AcDbArc
 50
268.2802396942126
 51
111.7197603057897
  0
LINE
  5
1E8
330
1F
100
AcDbEntity
  8
LAY-10
  6
CONTINUOUS
 62
     7
100
AcDbLine
 10
476.5745918663449
 20
564.1345819736715
 30
0.0
 11
485.4434349847087
 21
571.1338071223213
 31
0.0
  0
ARC
  5
1E9
330
1F
100
AcDbEntity
  8
LAY-10
  6
CONTINUOUS
 62
     7
100
AcDbCircle
 10
482.0964808394593
 20
575.3747924611488
 30
0.0
 40
5.402597402597492
100
AcDbArc
 50
308.2802396942134
 51
151.7197603057907
  0
ARC
  5
1EA
330
1F
100
AcDbEntity
  8
LAY-10
  6
CONTINUOUS
 62
     7
100
AcDbCircle
 10
465.0000000000042
 20
555.0000000000099
 30
0.0
 40
63.69108621683653
100
AcDbArc
 50
280.6501471733919
 51
289.3498528266082
  0
LINE
  5
1EB
330
1F
100
AcDbEntity
  8
LAY-10
  6
CONTINUOUS
 62
     7
100
AcDbLine
 10
489.5940805392606
 20
486.4786964539063
 30
0.0
 11
486.1031156615998
 21
494.9066312073232
 31
0.0
  0
LINE
  5
1EC
330
1F
100
AcDbEntity
  8
LAY-10
  6
CONTINUOUS
 62
     7
100
AcDbLine
 10
477.9615532433395
 20
483.361770159031
 30
0.0
 11
476.7708501344046
 21
492.4060581957585
 31
0.0
  0
LINE
  5
1ED
330
1F
100
AcDbEntity
  8
LAY-10
  6
CONTINUOUS
 62
     7
100
AcDbLine
 10
487.3657757488588
 20
510.4636769013081
 30
0.0
 11
483.1540387571911
 21
518.8503870952198
 31
0.0
  0
LINE
  5
1EE
330
1F
100
AcDbEntity
  8
LAY-10
  6
CONTINUOUS
 62
     7
100
AcDbLine
 10
476.494218440391
 20
506.5067536409067
 30
0.0
 11
474.3297227600585
 21
515.6385987345043
 31
0.0
  0
ARC
  5
1EF
330
1F
100
AcDbEntity
  8
LAY-10
  6
CONTINUOUS
 62
     7
100
AcDbCircle
 10
478.9295476554496
 20
516.7288823534568
 30
0.0
 40
4.727272727272668
100
AcDbArc
 50
26.66542725621618
 51
193.3345727437817
  0
ARC
  5
1F0
330
1F
100
AcDbEntity
  8
LAY-10
  6
CONTINUOUS
 62
     7
100
AcDbCircle
 10
482.1612027115132
 20
507.849983059456
 30
0.0
 40
5.823999999999982
100
AcDbArc
 50
193.3345727437794
 51
26.66542725621951
  0
LINE
  5
1F1
330
1F
100
AcDbEntity
  8
LAY-10
  6
CONTINUOUS
 62
     7
100
AcDbLine
 10
492.3866993202048
 20
513.3625084768051
 30
0.0
 11
487.229463733933
 21
521.2033348026039
 31
0.0
  0
LINE
  5
1F2
330
1F
100
AcDbEntity
  8
LAY-10
  6
CONTINUOUS
 62
     7
100
AcDbLine
 10
501.2492740387718
 20
520.7990916544358
 30
0.0
 11
494.4231120444581
 21
527.2395224467843
 31
0.0
  0
ARC
  5
1F3
330
1F
100
AcDbEntity
  8
LAY-10
  6
CONTINUOUS
 62
     7
100
AcDbCircle
 10
491.1789862854198
 20
523.8010990438918
 30
0.0
 40
4.727272727272668
100
AcDbArc
 50
46.66542725621866
 51
213.3345727437826
  0
ARC
  5
1F4
330
1F
100
AcDbEntity
  8
LAY-10
  6
CONTINUOUS
 62
     7
100
AcDbCircle
 10
497.2525111036363
 20
516.562954022072
 30
0.0
 40
5.823999999999982
100
AcDbArc
 50
213.3345727437799
 51
46.66542725622061
  0
LINE
  5
1F5
330
1F
100
AcDbEntity
  8
LAY-10
  6
CONTINUOUS
 62
     7
100
AcDbLine
 10
504.9759400773668
 20
525.2403592943307
 30
0.0
 11
497.4480033095517
 21
530.8444474791663
 31
0.0
  0
LINE
  5
1F6
330
1F
100
AcDbEntity
  8
LAY-10
  6
CONTINUOUS
 62
     7
100
AcDbLine
 10
510.7605748973016
 20
535.2596407056894
 30
0.0
 11
502.1433237802779
 21
538.9769810922825
 31
0.0
  0
ARC
  5
1F7
330
1F
100
AcDbEntity
  8
LAY-10
  6
CONTINUOUS
 62
     7
100
AcDbCircle
 10
500.2708528086796
 20
534.636363636374
 30
0.0
 40
4.727272727272668
100
AcDbArc
 50
66.66542725621866
 51
233.3345727437822
  0
ARC
  5
1F8
330
1F
100
AcDbEntity
  8
LAY-10
  6
CONTINUOUS
 62
     7
100
AcDbCircle
 10
508.4536906602926
 20
529.9120000000099
 30
0.0
 40
5.823999999999982
100
AcDbArc
 50
233.3345727437826
 51
66.66542725621873
  0
LINE
  5
1F9
330
1F
100
AcDbEntity
  8
LAY-10
  6
CONTINUOUS
 62
     7
100
AcDbLine
 10
512.7434924791585
 20
540.7076619864808
 30
0.0
 11
503.7528348045124
 21
543.3990762877302
 31
0.0
  0
LINE
  5
1FA
330
1F
100
AcDbEntity
  8
LAY-10
  6
CONTINUOUS
 62
     7
100
AcDbLine
 10
514.7524750690593
 20
552.101168424513
 30
0.0
 11
505.3835024911199
 21
552.6470522926262
 31
0.0
  0
ARC
  5
1FB
330
1F
100
AcDbEntity
  8
LAY-10
  6
CONTINUOUS
 62
     7
100
AcDbCircle
 10
505.108533940865
 20
547.9277833095753
 30
0.0
 40
4.727272727272668
100
AcDbArc
 50
86.66542725621942
 51
253.3345727437815
  0
ARC
  5
1FC
330
1F
100
AcDbEntity
  8
LAY-10
  6
CONTINUOUS
 62
     7
100
AcDbCircle
 10
514.4137138151453
 20
546.2870290373941
 30
0.0
 40
5.823999999999982
100
AcDbArc
 50
253.3345727437809
 51
86.66542725622055
  0
LINE
  5
1FD
330
1F
100
AcDbEntity
  8
LAY-10
  6
CONTINUOUS
 62
     7
100
AcDbLine
 10
514.7524750690592
 20
557.8988315755072
 30
0.0
 11
505.3835024911199
 21
557.352947707394
 31
0.0
  0
LINE
  5
1FE
330
1F
100
AcDbEntity
  8
LAY-10
  6
CONTINUOUS
 62
     7
100
AcDbLine
 10
512.7434924791585
 20
569.2923380135393
 30
0.0
 11
503.7528348045124
 21
566.6009237122903
 31
0.0
  0
ARC
  5
1FF
330
1F
100
AcDbEntity
  8
LAY-10
  6
CONTINUOUS
 62
     7
100
AcDbCircle
 10
505.108533940865
 20
562.0722166904452
 30
0.0
 40
4.727272727272668
100
AcDbArc
 50
106.6654272562185
 51
273.3345727437848
  0
ARC
  5
200
330
1F
100
AcDbEntity
  8
LAY-10
  6
CONTINUOUS
 62
     7
100
AcDbCircle
 10
514.4137138151453
 20
563.7129709626262
 30
0.0
 40
5.823999999999982
100
AcDbArc
 50
273.3345727437794
 51
106.665427256223
  0
LINE
  5
201
330
1F
100
AcDbEntity
  8
LAY-10
  6
CONTINUOUS
 62
     7
100
AcDbLine
 10
510.7605748973015
 20
574.740359294331
 30
0.0
 11
502.1433237802779
 21
571.0230189077378
 31
0.0
  0
LINE
  5
202
330
1F
100
AcDbEntity
  8
LAY-10
  6
CONTINUOUS
 62
     7
100
AcDbLine
 10
504.9759400773668
 20
584.7596407056895
 30
0.0
 11
497.4480033095517
 21
579.1555525208538
 31
0.0
  0
ARC
  5
203
330
1F
100
AcDbEntity
  8
LAY-10
  6
CONTINUOUS
 62
     7
100
AcDbCircle
 10
500.2708528086796
 20
575.3636363636465
 30
0.0
 40
4.727272727272668
100
AcDbArc
 50
126.6654272562212
 51
293.3345727437814
  0
ARC
  5
204
330
1F
100
AcDbEntity
  8
LAY-10
  6
CONTINUOUS
 62
     7
100
AcDbCircle
 10
508.4536906602926
 20
580.0880000000103
 30
0.0
 40
5.823999999999982
100
AcDbArc
 50
293.3345727437814
 51
126.6654272562217
  0
LINE
  5
205
330
1F
100
AcDbEntity
  8
LAY-10
  6
CONTINUOUS
 62
     7
100
AcDbLine
 10
501.2492740387715
 20
589.2009083455845
 30
0.0
 11
494.4231120444581
 21
582.7604775532358
 31
0.0
  0
LINE
  5
206
330
1F
100
AcDbEntity
  8
LAY-10
  6
CONTINUOUS
 62
     7
100
AcDbLine
 10
492.3866993202046
 20
596.6374915232151
 30
0.0
 11
487.229463733933
 21
588.7966651974166
 31
0.0
  0
ARC
  5
207
330
1F
100
AcDbEntity
  8
LAY-10
  6
CONTINUOUS
 62
     7
100
AcDbCircle
 10
491.1789862854196
 20
586.1989009561283
 30
0.0
 40
4.727272727272668
100
AcDbArc
 50
146.6654272562186
 51
313.3345727437815
  0
ARC
  5
208
330
1F
100
AcDbEntity
  8
LAY-10
  6
CONTINUOUS
 62
     7
100
AcDbCircle
 10
497.2525111036363
 20
593.4370459779482
 30
0.0
 40
5.823999999999982
100
AcDbArc
 50
313.3345727437819
 51
146.6654272562201
  0
LINE
  5
209
330
1F
100
AcDbEntity
  8
LAY-10
  6
CONTINUOUS
 62
     7
100
AcDbLine
 10
487.3657757488588
 20
599.5363230987123
 30
0.0
 11
483.1540387571911
 21
591.1496129048004
 31
0.0
  0
LINE
  5
20A
330
1F
100
AcDbEntity
  8
LAY-10
  6
CONTINUOUS
 62
     7
100
AcDbLine
 10
476.494218440391
 20
603.4932463591134
 30
0.0
 11
474.3297227600585
 21
594.3614012655158
 31
0.0
  0
ARC
  5
20B
330
1F
100
AcDbEntity
  8
LAY-10
  6
CONTINUOUS
 62
     7
100
AcDbCircle
 10
478.9295476554496
 20
593.2711176465633
 30
0.0
 40
4.727272727272668
100
AcDbArc
 50
166.6654272562184
 51
333.3345727437838
  0
ARC
  5
20C
330
1F
100
AcDbEntity
  8
LAY-10
  6
CONTINUOUS
 62
     7
100
AcDbCircle
 10
482.1612027115132
 20
602.1500169405641
 30
0.0
 40
5.823999999999982
100
AcDbArc
 50
333.3345727437821
 51
166.6654272562207
  0
ARC
  5
20D
330
1F
100
AcDbEntity
  8
LAY-10
  6
CONTINUOUS
 62
     7
100
AcDbCircle
 10
465.0000000000042
 20
555.0000000000103
 30
0.0
 40
63.69108621683653
100
AcDbArc
 50
295.650147173392
 51
304.3498528266085
  0
ARC
  5
20E
330
1F
100
AcDbEntity
  8
LAY-10
  6
CONTINUOUS
 62
     7
100
AcDbCircle
 10
465.0000000000042
 20
555.0000000000103
 30
0.0
 40
63.69108621683653
100
AcDbArc
 50
310.650147173392
 51
319.3498528266088
  0
ARC
  5
20F
330
1F
100
AcDbEntity
  8
LAY-10
  6
CONTINUOUS
 62
     7
100
AcDbCircle
 10
465.0000000000042
 20
555.0000000000103
 30
0.0
 40
63.69108621683653
100
AcDbArc
 50
325.6501471733926
 51
334.3498528266082
  0
ARC
  5
210
330
1F
100
AcDbEntity
  8
LAY-10
  6
CONTINUOUS
 62
     7
100
AcDbCircle
 10
465.0000000000042
 20
555.0000000000103
 30
0.0
 40
63.69108621683653
100
AcDbArc
 50
340.650147173392
 51
349.3498528266082
  0
ARC
  5
211
330
1F
100
AcDbEntity
  8
LAY-10
  6
CONTINUOUS
 62
     7
100
AcDbCircle
 10
465.0000000000042
 20
555.0000000000103
 30
0.0
 40
63.69108621683653
100
AcDbArc
 50
355.6501471733922
 51
4.349852826607909
  0
ARC
  5
212
330
1F
100
AcDbEntity
  8
LAY-10
  6
CONTINUOUS
 62
     7
100
AcDbCircle
 10
465.0000000000042
 20
555.0000000000103
 30
0.0
 40
63.69108621683653
100
AcDbArc
 50
10.65014717339195
 51
19.34985282660806
  0
ARC
  5
213
330
1F
100
AcDbEntity
  8
LAY-10
  6
CONTINUOUS
 62
     7
100
AcDbCircle
 10
465.0000000000042
 20
555.0000000000103
 30
0.0
 40
63.69108621683653
100
AcDbArc
 50
25.6501471733921
 51
34.34985282660757
  0
ARC
  5
214
330
1F
100
AcDbEntity
  8
LAY-10
  6
CONTINUOUS
 62
     7
100
AcDbCircle
 10
465.0000000000042
 20
555.0000000000103
 30
0.0
 40
63.69108621683653
100
AcDbArc
 50
40.65014717339213
 51
49.34985282660784
  0
ARC
  5
215
330
1F
100
AcDbEntity
  8
LAY-10
  6
CONTINUOUS
 62
     7
100
AcDbCircle
 10
465.0000000000042
 20
555.0000000000103
 30
0.0
 40
63.69108621683653
100
AcDbArc
 50
55.65014717339177
 51
64.3498528266081
  0
ARC
  5
216
330
1F
100
AcDbEntity
  8
LAY-10
  6
CONTINUOUS
 62
     7
100
AcDbCircle
 10
465.0000000000042
 20
555.0000000000103
 30
0.0
 40
63.69108621683653
100
AcDbArc
 50
70.65014717339197
 51
79.3498528266086
  0
LINE
  5
217
330
1F
100
AcDbEntity
  8
LAY-10
  6
CONTINUOUS
 62
     7
100
AcDbLine
 10
533.5213035461079
 20
579.5940805392669
 30
0.0
 11
525.0933687926906
 21
576.1031156616058
 31
0.0
  0
LINE
  5
218
330
1F
100
AcDbEntity
  8
LAY-10
  6
CONTINUOUS
 62
     7
100
AcDbLine
 10
530.8425195195523
 20
586.0612372668458
 30
0.0
 11
522.414584766135
 21
582.570272389185
 31
0.0
  0
LINE
  5
219
330
1F
100
AcDbEntity
  8
LAY-10
  6
CONTINUOUS
 62
     7
100
AcDbLine
 10
524.8210803058338
 20
596.4906759196941
 30
0.0
 11
517.5838486613515
 21
590.9373527606276
 31
0.0
  0
LINE
  5
21A
330
1F
100
AcDbEntity
  8
LAY-10
  6
CONTINUOUS
 62
     7
100
AcDbLine
 10
520.5597503027728
 20
602.0441493017328
 30
0.0
 11
513.3225186582905
 21
596.4908261426662
 31
0.0
  0
LINE
  5
21B
330
1F
100
AcDbEntity
  8
LAY-10
  6
CONTINUOUS
 62
     7
100
AcDbLine
 10
512.0441493017265
 20
610.5597503027788
 30
0.0
 11
506.4908261426601
 21
603.3225186582964
 31
0.0
  0
LINE
  5
21C
330
1F
100
AcDbEntity
  8
LAY-10
  6
CONTINUOUS
 62
     7
100
AcDbLine
 10
506.4906759196879
 20
614.8210803058397
 30
0.0
 11
500.9373527606215
 21
607.5838486613577
 31
0.0
  0
LINE
  5
21D
330
1F
100
AcDbEntity
  8
LAY-10
  6
CONTINUOUS
 62
     7
100
AcDbLine
 10
496.0612372668394
 20
620.8425195195583
 30
0.0
 11
492.5702723891789
 21
612.4145847661413
 31
0.0
  0
LINE
  5
21E
330
1F
100
AcDbEntity
  8
LAY-10
  6
CONTINUOUS
 62
     7
100
AcDbLine
 10
489.5940805392606
 20
623.5213035461139
 30
0.0
 11
486.1031156615998
 21
615.0933687926969
 31
0.0
  0
LINE
  5
21F
330
1F
100
AcDbEntity
  8
LAY-10
  6
CONTINUOUS
 62
     7
100
AcDbLine
 10
477.9615532433395
 20
626.6382298409891
 30
0.0
 11
476.7708501344046
 21
617.5939418042616
 31
0.0
  0
LINE
  5
220
330
1F
100
AcDbEntity
  8
LAY-10
  6
CONTINUOUS
 62
     7
100
AcDbLine
 10
496.0612372668398
 20
489.1574804804622
 30
0.0
 11
492.5702723891789
 21
497.5854152338795
 31
0.0
  0
LINE
  5
221
330
1F
100
AcDbEntity
  8
LAY-10
  6
CONTINUOUS
 62
     7
100
AcDbLine
 10
506.490675919688
 20
495.178919694181
 30
0.0
 11
500.9373527606215
 21
502.416151338663
 31
0.0
  0
LINE
  5
222
330
1F
100
AcDbEntity
  8
LAY-10
  6
CONTINUOUS
 62
     7
100
AcDbLine
 10
512.0441493017269
 20
499.440249697242
 30
0.0
 11
506.4908261426601
 21
506.677481341724
 31
0.0
  0
LINE
  5
223
330
1F
100
AcDbEntity
  8
LAY-10
  6
CONTINUOUS
 62
     7
100
AcDbLine
 10
520.5597503027728
 20
507.955850698288
 30
0.0
 11
513.3225186582906
 21
513.5091738573544
 31
0.0
  0
LINE
  5
224
330
1F
100
AcDbEntity
  8
LAY-10
  6
CONTINUOUS
 62
     7
100
AcDbLine
 10
524.8210803058339
 20
513.5093240803265
 30
0.0
 11
517.5838486613516
 21
519.0626472393932
 31
0.0
  0
LINE
  5
225
330
1F
100
AcDbEntity
  8
LAY-10
  6
CONTINUOUS
 62
     7
100
AcDbLine
 10
530.8425195195523
 20
523.938762733175
 30
0.0
 11
522.414584766135
 21
527.4297276108358
 31
0.0
  0
LINE
  5
226
330
1F
100
AcDbEntity
  8
LAY-10
  6
CONTINUOUS
 62
     7
100
AcDbLine
 10
533.5213035461082
 20
530.4059194607539
 30
0.0
 11
525.093368792691
 21
533.896884338415
 31
0.0
  0
LINE
  5
227
330
1F
100
AcDbEntity
  8
LAY-10
  6
CONTINUOUS
 62
     7
100
AcDbLine
 10
536.6382298409832
 20
542.038446756675
 30
0.0
 11
527.5939418042557
 21
543.2291498656101
 31
0.0
  0
LINE
  5
228
330
1F
100
AcDbEntity
  8
LAY-10
  6
CONTINUOUS
 62
     7
100
AcDbLine
 10
537.5519131865233
 20
548.9785607862917
 30
0.0
 11
528.5076251497961
 21
550.1692638952267
 31
0.0
  0
LINE
  5
229
330
1F
100
AcDbEntity
  8
LAY-10
  6
CONTINUOUS
 62
     7
100
AcDbLine
 10
537.5519131865233
 20
561.0214392137291
 30
0.0
 11
528.5076251497961
 21
559.8307361047941
 31
0.0
  0
LINE
  5
22A
330
1F
100
AcDbEntity
  8
LAY-10
  6
CONTINUOUS
 62
     7
100
AcDbLine
 10
536.6382298409832
 20
567.9615532433456
 30
0.0
 11
527.5939418042557
 21
566.7708501344107
 31
0.0
  0
ARC
  5
22B
330
1F
100
AcDbEntity
  8
LAY-10
  6
CONTINUOUS
 62
     7
100
AcDbCircle
 10
465.0000000000042
 20
555.0000000000099
 30
0.0
 40
63.69108621683653
100
AcDbArc
 50
250.6501471733922
 51
259.3498528266085
  0
ARC
  5
22C
330
1F
100
AcDbEntity
  8
LAY-10
  6
CONTINUOUS
 62
     7
100
AcDbCircle
 10
465.0000000000042
 20
555.0000000000099
 30
0.0
 40
63.69108621683653
100
AcDbArc
 50
265.6501471733925
 51
274.3498528266085
  0
LINE
  5
22D
330
1F
100
AcDbEntity
  8
LAY-10
  6
CONTINUOUS
 62
     7
100
AcDbLine
 10
440.4059194607479
 20
486.4786964539063
 30
0.0
 11
443.8968843384088
 21
494.9066312073232
 31
0.0
  0
LINE
  5
22E
330
1F
100
AcDbEntity
  8
LAY-10
  6
CONTINUOUS
 62
     7
100
AcDbLine
 10
452.038446756669
 20
483.361770159031
 30
0.0
 11
453.229149865604
 21
492.4060581957585
 31
0.0
  0
LINE
  5
22F
330
1F
100
AcDbEntity
  8
LAY-10
  6
CONTINUOUS
 62
     7
100
AcDbLine
 10
458.9785607862856
 20
482.4480868134909
 30
0.0
 11
460.1692638952205
 21
491.4923748502184
 31
0.0
  0
LINE
  5
230
330
1F
100
AcDbEntity
  8
LAY-10
  6
CONTINUOUS
 62
     7
100
AcDbLine
 10
471.0214392137229
 20
482.4480868134909
 30
0.0
 11
469.8307361047879
 21
491.4923748502184
 31
0.0
  0
LINE
  5
231
330
1F
100
AcDbEntity
  8
LAY-10
  6
CONTINUOUS
 62
     7
100
AcDbLine
 10
556.4549069213937
 20
545.0000000000102
 30
0.0
 11
537.1112878627843
 21
545.0000000000102
 31
0.0
  0
LINE
  5
232
330
1F
100
AcDbEntity
  8
LAY-10
  6
CONTINUOUS
 62
     7
100
AcDbLine
 10
556.4549069213939
 20
565.0000000000103
 30
0.0
 11
537.1112878627843
 21
565.0000000000103
 31
0.0
  0
ARC
  5
233
330
1F
100
AcDbEntity
  8
LAY-10
  6
CONTINUOUS
 62
     7
100
AcDbCircle
 10
549.5000000000103
 20
555.0000000000103
 30
0.0
 40
4.000000000000071
100
AcDbArc
 50
90.0
 51
270.0
  0
CIRCLE
  5
234
330
1F
100
AcDbEntity
  8
LAY-10
  6
CONTINUOUS
 62
     7
100
AcDbCircle
 10
465.0000000000042
 20
555.0000000000103
 30
0.0
 40
72.80135875949509
  0
CIRCLE
  5
235
330
1F
100
AcDbEntity
  8
LAY-10
  6
CONTINUOUS
 62
     7
100
AcDbCircle
 10
465.0000000000042
 20
555.0000000000103
 30
0.0
 40
62.08339106224973
  0
LINE
  5
236
330
1F
100
AcDbEntity
  8
LAY-10
  6
CONTINUOUS
 62
     7
100
AcDbLine
 10
442.6342242511497
 20
510.4636769013081
 30
0.0
 11
446.8459612428175
 21
518.8503870952198
 31
0.0
  0
LINE
  5
237
330
1F
100
AcDbEntity
  8
LAY-10
  6
CONTINUOUS
 62
     7
100
AcDbLine
 10
453.5057815596175
 20
506.5067536409067
 30
0.0
 11
455.67027723995
 21
515.6385987345043
 31
0.0
  0
ARC
  5
238
330
1F
100
AcDbEntity
  8
LAY-10
  6
CONTINUOUS
 62
     7
100
AcDbCircle
 10
451.070452344559
 20
516.7288823534568
 30
0.0
 40
4.727272727272668
100
AcDbArc
 50
346.6654272562185
 51
153.3345727437842
  0
ARC
  5
239
330
1F
100
AcDbEntity
  8
LAY-10
  6
CONTINUOUS
 62
     7
100
AcDbCircle
 10
447.8387972884954
 20
507.849983059456
 30
0.0
 40
5.823999999999982
100
AcDbArc
 50
153.3345727437808
 51
346.6654272562205
  0
ARC
  5
23A
330
1F
100
AcDbEntity
  8
LAY-10
  6
CONTINUOUS
 62
     7
100
AcDbCircle
 10
465.0000000000042
 20
514.2727272727377
 30
0.0
 40
4.727272727272668
100
AcDbArc
 50
6.665427256218185
 51
173.3345727437819
  0
ARC
  5
23B
330
1F
100
AcDbEntity
  8
LAY-10
  6
CONTINUOUS
 62
     7
100
AcDbCircle
 10
465.0000000000042
 20
504.8240000000099
 30
0.0
 40
5.823999999999982
100
AcDbArc
 50
173.3345727437813
 51
6.665427256218873
  0
LINE
  5
23C
330
1F
100
AcDbEntity
  8
LAY-10
  6
CONTINUOUS
 62
     7
100
AcDbLine
 10
459.2153651800696
 20
505.5000000000098
 30
0.0
 11
460.3046795292781
 21
514.8214285714389
 31
0.0
  0
LINE
  5
23D
330
1F
100
AcDbEntity
  8
LAY-10
  6
CONTINUOUS
 62
     7
100
AcDbLine
 10
470.7846348199388
 20
505.5000000000098
 30
0.0
 11
469.6953204707303
 21
514.8214285714389
 31
0.0
  0
ARC
  5
23E
330
1F
100
AcDbEntity
  8
LAY-10
  6
CONTINUOUS
 62
     7
100
AcDbCircle
 10
465.0000000000042
 20
581.5974025974127
 30
0.0
 40
5.402597402597492
100
AcDbArc
 50
348.2802396942125
 51
191.7197603057875
  0
LINE
  5
23F
330
1F
100
AcDbEntity
  8
LAY-10
  6
CONTINUOUS
 62
     7
100
AcDbLine
 10
458.0140996366451
 20
567.9849513214095
 30
0.0
 11
452.661266890695
 21
577.9344594767671
 31
0.0
  0
ARC
  5
240
330
1F
100
AcDbEntity
  8
LAY-10
  6
CONTINUOUS
 62
     7
100
AcDbCircle
 10
455.3203748188417
 20
566.5357280846256
 30
0.0
 40
3.058823529411978
100
AcDbArc
 50
231.719760305789
 51
28.28023969420932
  0
ARC
  5
241
330
1F
100
AcDbEntity
  8
LAY-10
  6
CONTINUOUS
 62
     7
100
AcDbCircle
 10
450.1699538369963
 20
557.6149372637003
 30
0.0
 40
3.058823529411978
100
AcDbArc
 50
271.719760305788
 51
68.28023969421162
  0
LINE
  5
242
330
1F
100
AcDbEntity
  8
LAY-10
  6
CONTINUOUS
 62
     7
100
AcDbLine
 10
451.3019240246916
 20
560.4565996078667
 30
0.0
 11
440.8059956799722
 21
564.6376304762241
 31
0.0
  0
LINE
  5
243
330
1F
100
AcDbEntity
  8
LAY-10
  6
CONTINUOUS
 62
     7
100
AcDbLine
 10
437.6133006798037
 20
513.3625084768051
 30
0.0
 11
442.7705362660755
 21
521.2033348026039
 31
0.0
  0
LINE
  5
244
330
1F
100
AcDbEntity
  8
LAY-10
  6
CONTINUOUS
 62
     7
100
AcDbLine
 10
428.7507259612368
 20
520.7990916544358
 30
0.0
 11
435.5768879555504
 21
527.2395224467843
 31
0.0
  0
ARC
  5
245
330
1F
100
AcDbEntity
  8
LAY-10
  6
CONTINUOUS
 62
     7
100
AcDbCircle
 10
438.8210137145887
 20
523.8010990438918
 30
0.0
 40
4.727272727272668
100
AcDbArc
 50
326.6654272562175
 51
133.3345727437818
  0
ARC
  5
246
330
1F
100
AcDbEntity
  8
LAY-10
  6
CONTINUOUS
 62
     7
100
AcDbCircle
 10
432.7474888963721
 20
516.562954022072
 30
0.0
 40
5.823999999999982
100
AcDbArc
 50
133.3345727437795
 51
326.6654272562202
  0
LINE
  5
247
330
1F
100
AcDbEntity
  8
LAY-10
  6
CONTINUOUS
 62
     7
100
AcDbLine
 10
425.0240599226416
 20
525.2403592943307
 30
0.0
 11
432.5519966904568
 21
530.8444474791663
 31
0.0
  0
LINE
  5
248
330
1F
100
AcDbEntity
  8
LAY-10
  6
CONTINUOUS
 62
     7
100
AcDbLine
 10
419.2394251027068
 20
535.2596407056894
 30
0.0
 11
427.8566762197308
 21
538.9769810922825
 31
0.0
  0
ARC
  5
249
330
1F
100
AcDbEntity
  8
LAY-10
  6
CONTINUOUS
 62
     7
100
AcDbCircle
 10
429.7291471913289
 20
534.636363636374
 30
0.0
 40
4.727272727272668
100
AcDbArc
 50
306.6654272562185
 51
113.334572743782
  0
ARC
  5
24A
330
1F
100
AcDbEntity
  8
LAY-10
  6
CONTINUOUS
 62
     7
100
AcDbCircle
 10
421.5463093397161
 20
529.9120000000099
 30
0.0
 40
5.823999999999982
100
AcDbArc
 50
113.3345727437843
 51
306.6654272562174
  0
LINE
  5
24B
330
1F
100
AcDbEntity
  8
LAY-10
  6
CONTINUOUS
 62
     7
100
AcDbLine
 10
417.2565075208501
 20
540.7076619864808
 30
0.0
 11
426.2471651954963
 21
543.3990762877302
 31
0.0
  0
LINE
  5
24C
330
1F
100
AcDbEntity
  8
LAY-10
  6
CONTINUOUS
 62
     7
100
AcDbLine
 10
415.2475249309492
 20
552.101168424513
 30
0.0
 11
424.6164975088885
 21
552.6470522926262
 31
0.0
  0
ARC
  5
24D
330
1F
100
AcDbEntity
  8
LAY-10
  6
CONTINUOUS
 62
     7
100
AcDbCircle
 10
424.8914660591435
 20
547.9277833095753
 30
0.0
 40
4.727272727272668
100
AcDbArc
 50
286.6654272562205
 51
93.33457274378064
  0
ARC
  5
24E
330
1F
100
AcDbEntity
  8
LAY-10
  6
CONTINUOUS
 62
     7
100
AcDbCircle
 10
415.5862861848634
 20
546.2870290373941
 30
0.0
 40
5.823999999999982
100
AcDbArc
 50
93.33457274378117
 51
286.6654272562192
  0
LINE
  5
24F
330
1F
100
AcDbEntity
  8
LAY-10
  6
CONTINUOUS
 62
     7
100
AcDbLine
 10
415.2475249309495
 20
557.8988315755072
 30
0.0
 11
424.6164975088885
 21
557.352947707394
 31
0.0
  0
LINE
  5
250
330
1F
100
AcDbEntity
  8
LAY-10
  6
CONTINUOUS
 62
     7
100
AcDbLine
 10
417.2565075208501
 20
569.2923380135393
 30
0.0
 11
426.2471651954963
 21
566.6009237122903
 31
0.0
  0
ARC
  5
251
330
1F
100
AcDbEntity
  8
LAY-10
  6
CONTINUOUS
 62
     7
100
AcDbCircle
 10
424.8914660591435
 20
562.0722166904452
 30
0.0
 40
4.727272727272668
100
AcDbArc
 50
266.6654272562173
 51
73.33457274377875
  0
ARC
  5
252
330
1F
100
AcDbEntity
  8
LAY-10
  6
CONTINUOUS
 62
     7
100
AcDbCircle
 10
415.5862861848634
 20
563.7129709626262
 30
0.0
 40
5.823999999999982
100
AcDbArc
 50
73.33457274377928
 51
266.6654272562189
  0
LINE
  5
253
330
1F
100
AcDbEntity
  8
LAY-10
  6
CONTINUOUS
 62
     7
100
AcDbLine
 10
419.2394251027071
 20
574.740359294331
 30
0.0
 11
427.8566762197308
 21
571.0230189077378
 31
0.0
  0
LINE
  5
254
330
1F
100
AcDbEntity
  8
LAY-10
  6
CONTINUOUS
 62
     7
100
AcDbLine
 10
425.0240599226416
 20
584.7596407056895
 30
0.0
 11
432.5519966904568
 21
579.1555525208538
 31
0.0
  0
ARC
  5
255
330
1F
100
AcDbEntity
  8
LAY-10
  6
CONTINUOUS
 62
     7
100
AcDbCircle
 10
429.7291471913289
 20
575.3636363636465
 30
0.0
 40
4.727272727272668
100
AcDbArc
 50
246.6654272562181
 51
53.33457274377938
  0
ARC
  5
256
330
1F
100
AcDbEntity
  8
LAY-10
  6
CONTINUOUS
 62
     7
100
AcDbCircle
 10
421.5463093397161
 20
580.0880000000103
 30
0.0
 40
5.823999999999982
100
AcDbArc
 50
53.33457274378058
 51
246.6654272562177
  0
LINE
  5
257
330
1F
100
AcDbEntity
  8
LAY-10
  6
CONTINUOUS
 62
     7
100
AcDbLine
 10
428.750725961237
 20
589.2009083455845
 30
0.0
 11
435.5768879555504
 21
582.7604775532358
 31
0.0
  0
LINE
  5
258
330
1F
100
AcDbEntity
  8
LAY-10
  6
CONTINUOUS
 62
     7
100
AcDbLine
 10
437.613300679804
 20
596.6374915232151
 30
0.0
 11
442.7705362660755
 21
588.7966651974166
 31
0.0
  0
ARC
  5
259
330
1F
100
AcDbEntity
  8
LAY-10
  6
CONTINUOUS
 62
     7
100
AcDbCircle
 10
438.821013714589
 20
586.1989009561283
 30
0.0
 40
4.727272727272668
100
AcDbArc
 50
226.6654272562162
 51
33.33457274378447
  0
ARC
  5
25A
330
1F
100
AcDbEntity
  8
LAY-10
  6
CONTINUOUS
 62
     7
100
AcDbCircle
 10
432.7474888963721
 20
593.4370459779482
 30
0.0
 40
5.823999999999982
100
AcDbArc
 50
33.33457274377994
 51
226.6654272562182
  0
LINE
  5
25B
330
1F
100
AcDbEntity
  8
LAY-10
  6
CONTINUOUS
 62
     7
100
AcDbLine
 10
442.6342242511497
 20
599.5363230987123
 30
0.0
 11
446.8459612428175
 21
591.1496129048004
 31
0.0
  0
LINE
  5
25C
330
1F
100
AcDbEntity
  8
LAY-10
  6
CONTINUOUS
 62
     7
100
AcDbLine
 10
453.5057815596175
 20
603.4932463591134
 30
0.0
 11
455.67027723995
 21
594.3614012655158
 31
0.0
  0
ARC
  5
25D
330
1F
100
AcDbEntity
  8
LAY-10
  6
CONTINUOUS
 62
     7
100
AcDbCircle
 10
451.070452344559
 20
593.2711176465633
 30
0.0
 40
4.727272727272668
100
AcDbArc
 50
206.6654272562159
 51
13.33457274378165
  0
ARC
  5
25E
330
1F
100
AcDbEntity
  8
LAY-10
  6
CONTINUOUS
 62
     7
100
AcDbCircle
 10
447.8387972884954
 20
602.1500169405641
 30
0.0
 40
5.823999999999982
100
AcDbArc
 50
13.33457274377947
 51
206.6654272562183
  0
ARC
  5
25F
330
1F
100
AcDbEntity
  8
LAY-10
  6
CONTINUOUS
 62
     7
100
AcDbCircle
 10
465.0000000000042
 20
595.7272727272828
 30
0.0
 40
4.727272727272668
100
AcDbArc
 50
186.6654272562182
 51
353.3345727437819
  0
ARC
  5
260
330
1F
100
AcDbEntity
  8
LAY-10
  6
CONTINUOUS
 62
     7
100
AcDbCircle
 10
465.0000000000042
 20
605.1760000000103
 30
0.0
 40
5.823999999999982
100
AcDbArc
 50
353.3345727437812
 51
186.6654272562188
  0
LINE
  5
261
330
1F
100
AcDbEntity
  8
LAY-10
  6
CONTINUOUS
 62
     7
100
AcDbLine
 10
459.2153651800696
 20
604.5000000000103
 30
0.0
 11
460.3046795292781
 21
595.1785714285816
 31
0.0
  0
LINE
  5
262
330
1F
100
AcDbEntity
  8
LAY-10
  6
CONTINUOUS
 62
     7
100
AcDbLine
 10
470.7846348199388
 20
604.5000000000103
 30
0.0
 11
469.6953204707303
 21
595.1785714285816
 31
0.0
  0
LINE
  5
263
330
1F
100
AcDbEntity
  8
LAY-10
  6
CONTINUOUS
 62
     7
100
AcDbLine
 10
453.9942860669884
 20
545.1874557055614
 30
0.0
 11
445.5613364300024
 21
537.6687529344913
 31
0.0
  0
LINE
  5
264
330
1F
100
AcDbEntity
  8
LAY-10
  6
CONTINUOUS
 62
     7
100
AcDbLine
 10
450.9992303987439
 20
550.375044294458
 30
0.0
 11
440.2713679769994
 21
546.8312470655288
 31
0.0
  0
ARC
  5
265
330
1F
100
AcDbEntity
  8
LAY-10
  6
CONTINUOUS
 62
     7
100
AcDbCircle
 10
451.9586762724265
 20
547.4705882353038
 30
0.0
 40
3.058823529411978
100
AcDbArc
 50
311.7197603057876
 51
108.2802396942135
  0
ARC
  5
266
330
1F
100
AcDbEntity
  8
LAY-10
  6
CONTINUOUS
 62
     7
100
AcDbCircle
 10
441.9659736759712
 20
541.7012987013087
 30
0.0
 40
5.402597402597492
100
AcDbArc
 50
108.2802396942104
 51
311.7197603057873
  0
LINE
  5
267
330
1F
100
AcDbEntity
  8
LAY-10
  6
CONTINUOUS
 62
     7
100
AcDbLine
 10
450.2617521070885
 20
554.557491522286
 30
0.0
 11
438.9688089164133
 21
554.2184265848095
 31
0.0
  0
ARC
  5
268
330
1F
100
AcDbEntity
  8
LAY-10
  6
CONTINUOUS
 62
     7
100
AcDbCircle
 10
438.806671712095
 20
559.6185904917228
 30
0.0
 40
5.402597402597492
100
AcDbArc
 50
68.28023969421031
 51
271.7197603057888
  0
LINE
  5
269
330
1F
100
AcDbEntity
  8
LAY-10
  6
CONTINUOUS
 62
     7
100
AcDbLine
 10
453.4254081336636
 20
564.1345819736715
 30
0.0
 11
444.5565650152997
 21
571.1338071223213
 31
0.0
  0
ARC
  5
26A
330
1F
100
AcDbEntity
  8
LAY-10
  6
CONTINUOUS
 62
     7
100
AcDbCircle
 10
447.9035191605491
 20
575.3747924611488
 30
0.0
 40
5.402597402597492
100
AcDbArc
 50
28.28023969420967
 51
231.7197603057877
  0
ARC
  5
26B
330
1F
100
AcDbEntity
  8
LAY-10
  6
CONTINUOUS
 62
     7
100
AcDbCircle
 10
465.0000000000042
 20
570.0588235294223
 30
0.0
 40
3.058823529411978
100
AcDbArc
 50
191.7197603057866
 51
348.2802396942088
  0
LINE
  5
26C
330
1F
100
AcDbEntity
  8
LAY-10
  6
CONTINUOUS
 62
     7
100
AcDbLine
 10
462.0049443317595
 20
569.4375000000106
 30
0.0
 11
459.7100315470013
 21
580.5000000000102
 31
0.0
  0
LINE
  5
26D
330
1F
100
AcDbEntity
  8
LAY-10
  6
CONTINUOUS
 62
     7
100
AcDbLine
 10
467.9950556682485
 20
569.4375000000103
 30
0.0
 11
470.2899684530072
 21
580.5000000000102
 31
0.0
  0
ARC
  5
26E
330
1F
100
AcDbEntity
  8
LAY-10
  6
CONTINUOUS
 62
     7
100
AcDbCircle
 10
465.0000000000042
 20
555.0000000000103
 30
0.0
 40
63.69108621683653
100
AcDbArc
 50
235.6501471733918
 51
244.349852826608
  0
ARC
  5
26F
330
1F
100
AcDbEntity
  8
LAY-10
  6
CONTINUOUS
 62
     7
100
AcDbCircle
 10
465.0000000000042
 20
555.0000000000103
 30
0.0
 40
63.69108621683653
100
AcDbArc
 50
220.6501471733918
 51
229.3498528266084
  0
ARC
  5
270
330
1F
100
AcDbEntity
  8
LAY-10
  6
CONTINUOUS
 62
     7
100
AcDbCircle
 10
465.0000000000042
 20
555.0000000000103
 30
0.0
 40
63.69108621683653
100
AcDbArc
 50
205.6501471733922
 51
214.3498528266078
  0
ARC
  5
271
330
1F
100
AcDbEntity
  8
LAY-10
  6
CONTINUOUS
 62
     7
100
AcDbCircle
 10
465.0000000000042
 20
555.0000000000103
 30
0.0
 40
63.69108621683653
100
AcDbArc
 50
190.6501471733919
 51
199.349852826608
  0
ARC
  5
272
330
1F
100
AcDbEntity
  8
LAY-10
  6
CONTINUOUS
 62
     7
100
AcDbCircle
 10
465.0000000000042
 20
555.0000000000103
 30
0.0
 40
63.69108621683653
100
AcDbArc
 50
175.6501471733921
 51
184.349852826608
  0
ARC
  5
273
330
1F
100
AcDbEntity
  8
LAY-10
  6
CONTINUOUS
 62
     7
100
AcDbCircle
 10
465.0000000000042
 20
555.0000000000103
 30
0.0
 40
63.69108621683653
100
AcDbArc
 50
160.650147173392
 51
169.3498528266083
  0
ARC
  5
274
330
1F
100
AcDbEntity
  8
LAY-10
  6
CONTINUOUS
 62
     7
100
AcDbCircle
 10
465.0000000000042
 20
555.0000000000103
 30
0.0
 40
63.69108621683653
100
AcDbArc
 50
145.6501471733922
 51
154.349852826608
  0
ARC
  5
275
330
1F
100
AcDbEntity
  8
LAY-10
  6
CONTINUOUS
 62
     7
100
AcDbCircle
 10
465.0000000000042
 20
555.0000000000103
 30
0.0
 40
63.69108621683653
100
AcDbArc
 50
130.6501471733922
 51
139.3498528266079
  0
ARC
  5
276
330
1F
100
AcDbEntity
  8
LAY-10
  6
CONTINUOUS
 62
     7
100
AcDbCircle
 10
465.0000000000042
 20
555.0000000000103
 30
0.0
 40
63.69108621683653
100
AcDbArc
 50
115.650147173392
 51
124.3498528266083
  0
ARC
  5
277
330
1F
100
AcDbEntity
  8
LAY-10
  6
CONTINUOUS
 62
     7
100
AcDbCircle
 10
465.0000000000042
 20
555.0000000000103
 30
0.0
 40
63.69108621683653
100
AcDbArc
 50
100.6501471733915
 51
109.3498528266083
  0
ARC
  5
278
330
1F
100
AcDbEntity
  8
LAY-10
  6
CONTINUOUS
 62
     7
100
AcDbCircle
 10
465.0000000000042
 20
555.0000000000103
 30
0.0
 40
63.69108621683653
100
AcDbArc
 50
85.65014717339184
 51
94.34985282660789
  0
LINE
  5
279
330
1F
100
AcDbEntity
  8
LAY-10
  6
CONTINUOUS
 62
     7
100
AcDbLine
 10
396.4786964539006
 20
579.5940805392669
 30
0.0
 11
404.9066312073179
 21
576.1031156616058
 31
0.0
  0
LINE
  5
27A
330
1F
100
AcDbEntity
  8
LAY-10
  6
CONTINUOUS
 62
     7
100
AcDbLine
 10
399.1574804804562
 20
586.0612372668458
 30
0.0
 11
407.5854152338735
 21
582.570272389185
 31
0.0
  0
LINE
  5
27B
330
1F
100
AcDbEntity
  8
LAY-10
  6
CONTINUOUS
 62
     7
100
AcDbLine
 10
405.1789196941749
 20
596.4906759196941
 30
0.0
 11
412.4161513386572
 21
590.9373527606276
 31
0.0
  0
LINE
  5
27C
330
1F
100
AcDbEntity
  8
LAY-10
  6
CONTINUOUS
 62
     7
100
AcDbLine
 10
409.4402496972359
 20
602.0441493017328
 30
0.0
 11
416.6774813417182
 21
596.4908261426662
 31
0.0
  0
LINE
  5
27D
330
1F
100
AcDbEntity
  8
LAY-10
  6
CONTINUOUS
 62
     7
100
AcDbLine
 10
417.955850698282
 20
610.5597503027788
 30
0.0
 11
423.5091738573484
 21
603.3225186582964
 31
0.0
  0
LINE
  5
27E
330
1F
100
AcDbEntity
  8
LAY-10
  6
CONTINUOUS
 62
     7
100
AcDbLine
 10
423.5093240803207
 20
614.8210803058397
 30
0.0
 11
429.062647239387
 21
607.5838486613577
 31
0.0
  0
LINE
  5
27F
330
1F
100
AcDbEntity
  8
LAY-10
  6
CONTINUOUS
 62
     7
100
AcDbLine
 10
433.938762733169
 20
620.8425195195583
 30
0.0
 11
437.4297276108297
 21
612.4145847661413
 31
0.0
  0
LINE
  5
280
330
1F
100
AcDbEntity
  8
LAY-10
  6
CONTINUOUS
 62
     7
100
AcDbLine
 10
440.4059194607479
 20
623.5213035461139
 30
0.0
 11
443.8968843384088
 21
615.0933687926969
 31
0.0
  0
LINE
  5
281
330
1F
100
AcDbEntity
  8
LAY-10
  6
CONTINUOUS
 62
     7
100
AcDbLine
 10
452.038446756669
 20
626.6382298409891
 30
0.0
 11
453.229149865604
 21
617.5939418042616
 31
0.0
  0
LINE
  5
282
330
1F
100
AcDbEntity
  8
LAY-10
  6
CONTINUOUS
 62
     7
100
AcDbLine
 10
458.9785607862856
 20
627.5519131865293
 30
0.0
 11
460.1692638952205
 21
618.5076251498018
 31
0.0
  0
LINE
  5
283
330
1F
100
AcDbEntity
  8
LAY-10
  6
CONTINUOUS
 62
     7
100
AcDbLine
 10
471.0214392137229
 20
627.5519131865293
 30
0.0
 11
469.8307361047879
 21
618.5076251498018
 31
0.0
  0
LINE
  5
284
330
1F
100
AcDbEntity
  8
LAY-10
  6
CONTINUOUS
 62
     7
100
AcDbLine
 10
433.9387627331689
 20
489.1574804804622
 30
0.0
 11
437.4297276108297
 21
497.5854152338795
 31
0.0
  0
LINE
  5
285
330
1F
100
AcDbEntity
  8
LAY-10
  6
CONTINUOUS
 62
     7
100
AcDbLine
 10
423.5093240803204
 20
495.178919694181
 30
0.0
 11
429.062647239387
 21
502.416151338663
 31
0.0
  0
LINE
  5
286
330
1F
100
AcDbEntity
  8
LAY-10
  6
CONTINUOUS
 62
     7
100
AcDbLine
 10
417.9558506982818
 20
499.440249697242
 30
0.0
 11
423.5091738573484
 21
506.677481341724
 31
0.0
  0
LINE
  5
287
330
1F
100
AcDbEntity
  8
LAY-10
  6
CONTINUOUS
 62
     7
100
AcDbLine
 10
409.4402496972359
 20
507.955850698288
 30
0.0
 11
416.6774813417179
 21
513.5091738573544
 31
0.0
  0
LINE
  5
288
330
1F
100
AcDbEntity
  8
LAY-10
  6
CONTINUOUS
 62
     7
100
AcDbLine
 10
405.1789196941746
 20
513.5093240803265
 30
0.0
 11
412.416151338657
 21
519.0626472393932
 31
0.0
  0
LINE
  5
289
330
1F
100
AcDbEntity
  8
LAY-10
  6
CONTINUOUS
 62
     7
100
AcDbLine
 10
399.1574804804562
 20
523.938762733175
 30
0.0
 11
407.5854152338735
 21
527.4297276108358
 31
0.0
  0
LINE
  5
28A
330
1F
100
AcDbEntity
  8
LAY-10
  6
CONTINUOUS
 62
     7
100
AcDbLine
 10
396.4786964539005
 20
530.4059194607539
 30
0.0
 11
404.9066312073177
 21
533.896884338415
 31
0.0
  0
LINE
  5
28B
330
1F
100
AcDbEntity
  8
LAY-10
  6
CONTINUOUS
 62
     7
100
AcDbLine
 10
393.3617701590255
 20
542.038446756675
 30
0.0
 11
402.406058195753
 21
543.2291498656101
 31
0.0
  0
LINE
  5
28C
330
1F
100
AcDbEntity
  8
LAY-10
  6
CONTINUOUS
 62
     7
100
AcDbLine
 10
392.4480868134852
 20
548.9785607862917
 30
0.0
 11
401.4923748502126
 21
550.1692638952267
 31
0.0
  0
LINE
  5
28D
330
1F
100
AcDbEntity
  8
LAY-10
  6
CONTINUOUS
 62
     7
100
AcDbLine
 10
392.4480868134852
 20
561.0214392137291
 30
0.0
 11
401.4923748502126
 21
559.8307361047941
 31
0.0
  0
LINE
  5
28E
330
1F
100
AcDbEntity
  8
LAY-10
  6
CONTINUOUS
 62
     7
100
AcDbLine
 10
393.3617701590255
 20
567.9615532433456
 30
0.0
 11
402.406058195753
 21
566.7708501344107
 31
0.0
  0
ARC
  5
28F
330
1F
100
AcDbEntity
  8
LAY-10
  6
CONTINUOUS
 62
     7
100
AcDbCircle
 10
380.4999999999984
 20
555.0000000000103
 30
0.0
 40
4.000000000000071
100
AcDbArc
 50
270.0
 51
90.0
  0
LINE
  5
290
330
1F
100
AcDbEntity
  8
LAY-10
  6
CONTINUOUS
 62
     7
100
AcDbLine
 10
373.5450930786149
 20
545.0000000000102
 30
0.0
 11
392.8887121372243
 21
545.0000000000102
 31
0.0
  0
LINE
  5
291
330
1F
100
AcDbEntity
  8
LAY-10
  6
CONTINUOUS
 62
     7
100
AcDbLine
 10
373.5450930786148
 20
565.0000000000103
 30
0.0
 11
392.8887121372243
 21
565.0000000000103
 31
0.0
  0
TEXT
  5
292
330
1F
100
AcDbEntity
  8
LAY-10
  6
CONTINUOUS
 62
     7
100
AcDbText
 10
448.4279052033395
 20
636.0654642159222
 30
0.0
 40
5.456692828292274
  1
５
 50
193.4461993457971
 41
1.2
  7
EXCADSTD
100
AcDbText
  0
TEXT
  5
293
330
1F
100
AcDbEntity
  8
LAY-10
  6
CONTINUOUS
 62
     7
100
AcDbText
 10
456.6993886876821
 20
637.2337498264524
 30
0.0
 40
5.456692828292274
  1
２
 50
188.0677196074772
 41
1.2
  7
EXCADSTD
100
AcDbText
  0
TEXT
  5
294
330
1F
100
AcDbEntity
  8
LAY-10
  6
CONTINUOUS
 62
     7
100
AcDbText
 10
465.043963347607
 20
637.6215694294393
 30
0.0
 40
5.456692828292274
  1
１
 50
182.6892398691589
 41
1.2
  7
EXCADSTD
100
AcDbText
  0
TEXT
  5
295
330
1F
100
AcDbEntity
  8
LAY-10
  6
CONTINUOUS
 62
     7
100
AcDbText
 10
473.3881508875195
 20
637.2255080727026
 30
0.0
 40
5.456692828292274
  1
３
 50
177.3107601308413
 41
1.2
  7
EXCADSTD
100
AcDbText
  0
TEXT
  5
296
330
1F
100
AcDbEntity
  8
LAY-10
  6
CONTINUOUS
 62
     7
100
AcDbText
 10
481.6584764206151
 20
636.0490532813269
 30
0.0
 40
5.456692828292274
  1
－
 50
171.9322803925229
 41
1.2
  7
EXCADSTD
100
AcDbText
  0
TEXT
  5
297
330
1F
100
AcDbEntity
  8
LAY-10
  6
CONTINUOUS
 62
     7
100
AcDbText
 10
489.7821154532611
 20
634.1025643481983
 30
0.0
 40
5.456692828292274
  1
Ｘ
 50
166.553800654203
 41
1.2
  7
EXCADSTD
100
AcDbText
  0
LINE
  5
298
330
1F
100
AcDbEntity
  8
LAY-10
  6
CONTINUOUS
 62
     7
100
AcDbLine
 10
373.241614896479
 20
561.6632396920207
 30
0.0
 11
371.7531079072522
 21
561.6632396920207
 31
0.0
  0
LINE
  5
299
330
1F
100
AcDbEntity
  8
LAY-10
  6
CONTINUOUS
 62
     7
100
AcDbLine
 10
371.1107822029345
 20
561.0000000000099
 30
0.0
 11
373.195860659776
 21
561.0000000000099
 31
0.0
  0
LINE
  5
29A
330
1F
100
AcDbEntity
  8
LAY-10
  6
CONTINUOUS
 62
     7
100
AcDbLine
 10
380.4999999999984
 20
559.0000000000103
 30
0.0
 11
379.4003676271759
 21
559.0000000000103
 31
0.0
  0
LINE
  5
29B
330
1F
100
AcDbEntity
  8
LAY-10
  6
CONTINUOUS
 62
     7
100
AcDbLine
 10
380.4999999999984
 20
551.0000000000101
 30
0.0
 11
379.4003676271756
 21
551.0000000000101
 31
0.0
  0
LINE
  5
29C
330
1F
100
AcDbEntity
  8
LAY-10
  6
CONTINUOUS
 62
     7
100
AcDbLine
 10
373.2416148964791
 20
548.3367603079987
 30
0.0
 11
371.7531079072522
 21
548.3367603079987
 31
0.0
  0
LINE
  5
29D
330
1F
100
AcDbEntity
  8
LAY-10
  6
CONTINUOUS
 62
     7
100
AcDbLine
 10
371.1107822029345
 20
549.0000000000099
 30
0.0
 11
373.1958606597761
 21
549.0000000000099
 31
0.0
  0
LINE
  5
29E
330
1F
100
AcDbEntity
  8
LAY-10
  6
CONTINUOUS
 62
     7
100
AcDbLine
 10
460.2999999999995
 20
463.1201327819961
 30
0.0
 11
460.2999999999996
 21
461.633562517638
 31
0.0
  0
LINE
  5
29F
330
1F
100
AcDbEntity
  8
LAY-10
  6
CONTINUOUS
 62
     7
100
AcDbLine
 10
460.9999999999997
 20
461.0043340438357
 30
0.0
 11
460.9999999999995
 21
463.0869976554022
 31
0.0
  0
LINE
  5
2A0
330
1F
100
AcDbEntity
  8
LAY-10
  6
CONTINUOUS
 62
     7
100
AcDbLine
 10
469.6999999999996
 20
463.1201327819956
 30
0.0
 11
469.6999999999996
 21
461.633562517638
 31
0.0
  0
LINE
  5
2A1
330
1F
100
AcDbEntity
  8
LAY-10
  6
CONTINUOUS
 62
     7
100
AcDbLine
 10
468.9999999999996
 20
463.0869976554018
 30
0.0
 11
468.9999999999996
 21
461.0043340438353
 31
0.0
  0
LINE
  5
2A2
330
1F
100
AcDbEntity
  8
LAY-10
  6
CONTINUOUS
 62
     7
100
AcDbLine
 10
556.7583851035293
 20
548.3367603079987
 30
0.0
 11
558.246892092747
 21
548.3367603079987
 31
0.0
  0
LINE
  5
2A3
330
1F
100
AcDbEntity
  8
LAY-10
  6
CONTINUOUS
 62
     7
100
AcDbLine
 10
558.8892177970647
 20
549.0000000000099
 30
0.0
 11
556.8041393402323
 21
549.0000000000099
 31
0.0
  0
ARC
  5
2A4
330
1F
100
AcDbEntity
  8
LAY-10
  6
CONTINUOUS
 62
     7
100
AcDbCircle
 10
465.0000000000042
 20
555.0000000000106
 30
0.0
 40
92.00000000000007
100
AcDbArc
 50
182.728305387963
 51
357.2716946120474
  0
LINE
  5
2A5
330
1F
100
AcDbEntity
  8
LAY-10
  6
CONTINUOUS
 62
     7
100
AcDbLine
 10
549.5000000000103
 20
551.0000000000101
 30
0.0
 11
550.5996323728085
 21
551.0000000000101
 31
0.0
  0
LINE
  5
2A6
330
1F
100
AcDbEntity
  8
LAY-10
  6
CONTINUOUS
 62
     7
100
AcDbLine
 10
549.5000000000103
 20
559.0000000000103
 30
0.0
 11
550.5996323728083
 21
559.0000000000103
 31
0.0
  0
ARC
  5
2A7
330
1F
100
AcDbEntity
  8
LAY-10
  6
CONTINUOUS
 62
     7
100
AcDbCircle
 10
465.0000000000042
 20
555.0000000000106
 30
0.0
 40
92.00000000000007
100
AcDbArc
 50
2.728305387952079
 51
177.2716946120376
  0
LINE
  5
2A8
330
1F
100
AcDbEntity
  8
LAY-10
  6
CONTINUOUS
 62
     7
100
AcDbLine
 10
558.8892177970647
 20
561.0000000000099
 30
0.0
 11
556.8041393402323
 21
561.0000000000099
 31
0.0
  0
LINE
  5
2A9
330
1F
100
AcDbEntity
  8
LAY-10
  6
CONTINUOUS
 62
     7
100
AcDbLine
 10
556.7583851035293
 20
561.6632396920207
 30
0.0
 11
558.246892092747
 21
561.6632396920207
 31
0.0
  0
LINE
  5
2AA
330
1F
100
AcDbEntity
  8
LAY-10
  6
CONTINUOUS
 62
     7
100
AcDbLine
 10
460.2999999999996
 20
646.879867218025
 30
0.0
 11
460.2999999999996
 21
648.3664374823821
 31
0.0
  0
LINE
  5
2AB
330
1F
100
AcDbEntity
  8
LAY-10
  6
CONTINUOUS
 62
     7
100
AcDbLine
 10
460.9999999999997
 20
648.9956659561844
 30
0.0
 11
460.9999999999997
 21
646.9130023446188
 31
0.0
  0
LINE
  5
2AC
330
1F
100
AcDbEntity
  8
LAY-10
  6
CONTINUOUS
 62
     7
100
AcDbLine
 10
469.6999999999996
 20
646.8798672180254
 30
0.0
 11
469.6999999999996
 21
648.3664374823821
 31
0.0
  0
LINE
  5
2AD
330
1F
100
AcDbEntity
  8
LAY-10
  6
CONTINUOUS
 62
     7
100
AcDbLine
 10
468.9999999999996
 20
646.9130023446194
 30
0.0
 11
468.9999999999996
 21
648.9956659561848
 31
0.0
  0
LINE
  5
2AE
330
1F
100
AcDbEntity
  8
LAY-10
  6
CONTINUOUS
 62
     7
100
AcDbLine
 10
364.6896262955991
 20
285.0735454402012
 30
0.0
 11
357.5000000000014
 21
286.9999999999883
 31
0.0
  0
LINE
  5
2AF
330
1F
100
AcDbEntity
  8
LAY-10
  6
CONTINUOUS
 62
     7
100
AcDbLine
 10
351.4999999999995
 20
279.999999999988
 30
0.0
 11
366.5213366107689
 21
279.999999999988
 31
0.0
  0
LINE
  5
2B0
330
1F
100
AcDbEntity
  8
LAY-10
  6
CONTINUOUS
 62
     7
100
AcDbLine
 10
351.4999999999995
 20
279.999999999988
 30
0.0
 11
352.4999999999996
 21
286.9999999999883
 31
0.0
  0
LINE
  5
2B1
330
1F
100
AcDbEntity
  8
LAY-10
  6
CONTINUOUS
 62
     7
100
AcDbLine
 10
355.5406101782085
 20
279.999999999988
 30
0.0
 11
355.6872389158974
 21
281.0264011638104
 31
0.0
  0
LINE
  5
2B2
330
1F
100
AcDbEntity
  8
LAY-10
  6
CONTINUOUS
 62
     7
100
AcDbLine
 10
358.1847759934249
 20
282.675410103914
 30
0.0
 11
365.4391608067611
 21
280.7316035515958
 31
0.0
  0
ARC
  5
2B3
330
1F
100
AcDbEntity
  8
LAY-10
  6
CONTINUOUS
 62
     7
100
AcDbCircle
 10
357.6671379032198
 20
280.7435584513356
 30
0.0
 40
2.0
100
AcDbArc
 50
75.00000000000085
 51
171.8698976458388
  0
LINE
  5
2B4
330
1F
100
AcDbEntity
  8
LAY-10
  6
CONTINUOUS
 62
     7
100
AcDbLine
 10
365.8546841474948
 20
285.616705107648
 30
0.0
 11
366.230716747121
 21
286.4227661588303
 31
0.0
  0
LINE
  5
2B5
330
1F
100
AcDbEntity
  8
LAY-10
  6
CONTINUOUS
 62
     7
100
AcDbLine
 10
366.9187817860652
 20
278.9044238115035
 30
0.0
 11
367.4298319939623
 21
269.1530049403294
 31
0.0
  0
LINE
  5
2B6
330
1F
100
AcDbEntity
  8
LAY-10
  6
CONTINUOUS
 62
     7
100
AcDbLine
 10
386.1632396920103
 20
266.344632780031
 30
0.0
 11
385.5000000000009
 21
278.9999999999881
 31
0.0
  0
ARC
  5
2B7
330
1F
100
AcDbEntity
  8
LAY-10
  6
CONTINUOUS
 62
     7
100
AcDbCircle
 10
364.921522716556
 20
278.7997518990179
 30
0.0
 40
2.0
100
AcDbArc
 50
2.999999999992558
 51
74.99999999999926
  0
LINE
  5
2B8
330
1F
100
AcDbEntity
  8
LAY-10
  6
CONTINUOUS
 62
     7
100
AcDbLine
 10
578.4999999999997
 20
279.999999999988
 30
0.0
 11
577.4999999999997
 21
286.9999999999883
 31
0.0
  0
LINE
  5
2B9
330
1F
100
AcDbEntity
  8
LAY-10
  6
CONTINUOUS
 62
     7
100
AcDbLine
 10
565.3103737044
 20
285.0735454402012
 30
0.0
 11
572.4999999999977
 21
286.9999999999883
 31
0.0
  0
LINE
  5
2BA
330
1F
100
AcDbEntity
  8
LAY-10
  6
CONTINUOUS
 62
     7
100
AcDbLine
 10
373.5000000000011
 20
271.5000000000162
 30
0.0
 11
378.5000000000007
 21
271.5000000000162
 31
0.0
  0
LINE
  5
2BB
330
1F
100
AcDbEntity
  8
LAY-10
  6
CONTINUOUS
 62
     7
100
AcDbLine
 10
375.9999999999998
 20
270.0566243270429
 30
0.0
 11
373.5000000000007
 21
271.5000000000162
 31
0.0
  0
LINE
  5
2BC
330
1F
100
AcDbEntity
  8
LAY-10
  6
CONTINUOUS
 62
     7
100
AcDbLine
 10
376.0
 20
270.0566243270429
 30
0.0
 11
378.4999999999989
 21
271.5000000000162
 31
0.0
  0
LINE
  5
2BD
330
1F
100
AcDbEntity
  8
LAY-10
  6
CONTINUOUS
 62
     7
100
AcDbLine
 10
545.8459727208362
 20
266.520416088771
 30
0.0
 11
546.4999999999995
 21
278.9999999999881
 31
0.0
  0
LINE
  5
2BE
330
1F
100
AcDbEntity
  8
LAY-10
  6
CONTINUOUS
 62
     7
100
AcDbLine
 10
559.0807377657335
 20
278.9999999999881
 30
0.0
 11
546.4999999999995
 21
278.9999999999881
 31
0.0
  0
LINE
  5
2BF
330
1F
100
AcDbEntity
  8
LAY-10
  6
CONTINUOUS
 62
     7
100
AcDbLine
 10
460.3459727208368
 20
266.520416088771
 30
0.0
 11
460.9999999999998
 21
278.9999999999881
 31
0.0
  0
LINE
  5
2C0
330
1F
100
AcDbEntity
  8
LAY-10
  6
CONTINUOUS
 62
     7
100
AcDbLine
 10
473.6540272791631
 20
266.520416088771
 30
0.0
 11
473.0000000000001
 21
278.9999999999881
 31
0.0
  0
LINE
  5
2C1
330
1F
100
AcDbEntity
  8
LAY-10
  6
CONTINUOUS
 62
     7
100
AcDbLine
 10
577.4999999999997
 20
268.9999999999883
 30
0.0
 11
578.4999999999997
 21
279.999999999988
 31
0.0
  0
ARC
  5
2C2
330
1F
100
AcDbEntity
  8
LAY-10
  6
CONTINUOUS
 62
     7
100
AcDbCircle
 10
367.136955553914
 20
285.999999999988
 30
0.0
 40
1.0
100
AcDbArc
 50
90.00000000000004
 51
154.990649752386
  0
ARC
  5
2C3
330
1F
100
AcDbEntity
  8
LAY-10
  6
CONTINUOUS
 62
     7
100
AcDbCircle
 10
369.5510354332866
 20
285.999999999988
 30
0.0
 40
1.0
100
AcDbArc
 50
3.000000000021836
 51
90.00000000000004
  0
LINE
  5
2C4
330
1F
100
AcDbEntity
  8
LAY-10
  6
CONTINUOUS
 62
     7
100
AcDbLine
 10
564.1453158525044
 20
285.616705107648
 30
0.0
 11
563.7692832528783
 21
286.4227661588303
 31
0.0
  0
ARC
  5
2C5
330
1F
100
AcDbEntity
  8
LAY-10
  6
CONTINUOUS
 62
     7
100
AcDbCircle
 10
562.8630444460852
 20
285.999999999988
 30
0.0
 40
1.0
100
AcDbArc
 50
25.00935024761862
 51
90.00000000000004
  0
ARC
  5
2C6
330
1F
100
AcDbEntity
  8
LAY-10
  6
CONTINUOUS
 62
     7
100
AcDbCircle
 10
560.4489645667127
 20
285.999999999988
 30
0.0
 40
1.0
100
AcDbArc
 50
90.00000000000004
 51
176.999999999978
  0
ARC
  5
2C7
330
1F
100
AcDbEntity
  8
LAY-10
  6
CONTINUOUS
 62
     7
100
AcDbCircle
 10
565.0515546592977
 20
286.0394712664902
 30
0.0
 40
1.0
100
AcDbArc
 50
205.0093502475485
 51
284.9999999999884
  0
ARC
  5
2C8
330
1F
100
AcDbEntity
  8
LAY-10
  6
CONTINUOUS
 62
     7
100
AcDbCircle
 10
364.9484453407015
 20
286.0394712664902
 30
0.0
 40
1.0
100
AcDbArc
 50
255.0000000000079
 51
334.9906497524516
  0
LINE
  5
2C9
330
1F
100
AcDbEntity
  8
LAY-10
  6
CONTINUOUS
 62
     7
100
AcDbLine
 10
395.2490750271963
 20
255.9999999999899
 30
0.0
 11
534.7509249728029
 21
255.9999999999899
 31
0.0
  0
LINE
  5
2CA
330
1F
100
AcDbEntity
  8
LAY-10
  6
CONTINUOUS
 62
     7
100
AcDbLine
 10
391.4999999999998
 20
231.9999999999892
 30
0.0
 11
538.4999999999993
 21
231.9999999999892
 31
0.0
  0
LINE
  5
2CB
330
1F
100
AcDbEntity
  8
LAY-10
  6
CONTINUOUS
 62
     7
100
AcDbLine
 10
389.9732615741816
 20
261.1319045894346
 30
0.0
 11
391.4999999999998
 21
231.9999999999892
 31
0.0
  0
LINE
  5
2CC
330
1F
100
AcDbEntity
  8
LAY-10
  6
CONTINUOUS
 62
     7
100
AcDbLine
 10
540.0267384258175
 20
261.1319045894346
 30
0.0
 11
538.4999999999993
 21
231.9999999999892
 31
0.0
  0
LINE
  5
2CD
330
1F
100
AcDbEntity
  8
LAY-10
  6
CONTINUOUS
 62
     7
100
AcDbLine
 10
557.1013252539955
 20
263.4898524892363
 30
0.0
 11
552.8659788393333
 21
263.1193076918486
 31
0.0
  0
LINE
  5
2CE
330
1F
100
AcDbEntity
  8
LAY-10
  6
CONTINUOUS
 62
     7
100
AcDbLine
 10
534.7509249728025
 20
255.999999999988
 30
0.0
 11
535.0262354130693
 21
261.2532361422764
 31
0.0
  0
LINE
  5
2CF
330
1F
100
AcDbEntity
  8
LAY-10
  6
CONTINUOUS
 62
     7
100
AcDbLine
 10
395.2490750271966
 20
255.999999999988
 30
0.0
 11
394.9737645869297
 21
261.2532361422764
 31
0.0
  0
LINE
  5
2D0
330
1F
100
AcDbEntity
  8
LAY-10
  6
CONTINUOUS
 62
     7
100
AcDbLine
 10
372.8986747460037
 20
263.4898524892363
 30
0.0
 11
389.0617877821746
 21
262.0757633312833
 31
0.0
  0
LINE
  5
2D1
330
1F
100
AcDbEntity
  8
LAY-10
  6
CONTINUOUS
 62
     7
100
AcDbLine
 10
386.1632396920103
 20
266.344632780031
 30
0.0
 11
390.4163956268951
 21
265.9725298515205
 31
0.0
  0
LINE
  5
2D2
330
1F
100
AcDbEntity
  8
LAY-10
  6
CONTINUOUS
 62
     7
100
AcDbLine
 10
545.8459727208362
 20
266.520416088771
 30
0.0
 11
539.583604373104
 21
265.9725298515205
 31
0.0
  0
ARC
  5
2D3
330
1F
100
AcDbEntity
  8
LAY-10
  6
CONTINUOUS
 62
     7
100
AcDbCircle
 10
388.9746320394269
 20
261.0795686331918
 30
0.0
 40
1.0
100
AcDbArc
 50
2.999999999992558
 51
84.99999999999731
  0
ARC
  5
2D4
330
1F
100
AcDbEntity
  8
LAY-10
  6
CONTINUOUS
 62
     7
100
AcDbCircle
 10
389.9806169131568
 20
260.9915563610617
 30
0.0
 40
5.0
100
AcDbArc
 50
3.000000000000408
 51
84.9999999999996
  0
ARC
  5
2D5
330
1F
100
AcDbEntity
  8
LAY-10
  6
CONTINUOUS
 62
     7
100
AcDbCircle
 10
373.4216092024897
 20
269.467020677787
 30
0.0
 40
6.000000000000004
100
AcDbArc
 50
182.9999999999991
 51
265.0000000000009
  0
ARC
  5
2D6
330
1F
100
AcDbEntity
  8
LAY-10
  6
CONTINUOUS
 62
     7
100
AcDbCircle
 10
540.0193830868424
 20
260.9915563610617
 30
0.0
 40
5.0
100
AcDbArc
 50
95.00000000000104
 51
176.9999999999997
  0
ARC
  5
2D7
330
1F
100
AcDbEntity
  8
LAY-10
  6
CONTINUOUS
 62
     7
100
AcDbCircle
 10
541.0253679605722
 20
261.0795686331918
 30
0.0
 40
1.0
100
AcDbArc
 50
94.99999999999949
 51
177.0000000000076
  0
LINE
  5
2D8
330
1F
100
AcDbEntity
  8
LAY-10
  6
CONTINUOUS
 62
     7
100
AcDbLine
 10
473.6540272791631
 20
266.520416088771
 30
0.0
 11
460.3459727208368
 21
266.520416088771
 31
0.0
  0
LINE
  5
2D9
330
1F
100
AcDbEntity
  8
LAY-10
  6
CONTINUOUS
 62
     7
100
AcDbLine
 10
386.0960778040612
 20
267.6261579441936
 30
0.0
 11
460.4039221959397
 21
267.6261579441936
 31
0.0
  0
LINE
  5
2DA
330
1F
100
AcDbEntity
  8
LAY-10
  6
CONTINUOUS
 62
     7
100
AcDbLine
 10
545.9039221959393
 20
267.6261579441936
 30
0.0
 11
473.5960778040601
 21
267.6261579441936
 31
0.0
  0
LINE
  5
2DB
330
1F
100
AcDbEntity
  8
LAY-10
  6
CONTINUOUS
 62
     7
100
AcDbLine
 10
372.4178106895854
 20
284.3603353795346
 30
0.0
 11
372.2303788263391
 21
286.1067132172581
 31
0.0
  0
ARC
  5
2DC
330
1F
100
AcDbEntity
  8
LAY-10
  6
CONTINUOUS
 62
     7
100
AcDbCircle
 10
432.9745856242262
 20
285.999999999988
 30
0.0
 40
1.0
100
AcDbArc
 50
16.39880254319418
 51
90.00000000000004
  0
LINE
  5
2DD
330
1F
100
AcDbEntity
  8
LAY-10
  6
CONTINUOUS
 62
     7
100
AcDbLine
 10
445.8427523256523
 20
285.3669831476305
 30
0.0
 11
446.6476148465115
 21
286.8010738371812
 31
0.0
  0
LINE
  5
2DE
330
1F
100
AcDbEntity
  8
LAY-10
  6
CONTINUOUS
 62
     7
100
AcDbLine
 10
446.7218186848825
 20
284.1993348606355
 30
0.0
 11
447.3627628363972
 21
286.5060851083575
 31
0.0
  0
ARC
  5
2DF
330
1F
100
AcDbEntity
  8
LAY-10
  6
CONTINUOUS
 62
     7
100
AcDbCircle
 10
444.9707059846924
 20
285.8564064605387
 30
0.0
 40
1.0
100
AcDbArc
 50
270.0000000000001
 51
330.6973153477228
  0
ARC
  5
2E0
330
1F
100
AcDbEntity
  8
LAY-10
  6
CONTINUOUS
 62
     7
100
AcDbCircle
 10
446.9873734700112
 20
286.6103892562227
 30
0.0
 40
0.389610743769822
100
AcDbArc
 50
344.4717339866024
 51
150.6973153477049
  0
ARC
  5
2E1
330
1F
100
AcDbEntity
  8
LAY-10
  6
CONTINUOUS
 62
     7
100
AcDbCircle
 10
497.025414375773
 20
285.999999999988
 30
0.0
 40
1.0
100
AcDbArc
 50
90.00000000000004
 51
163.6011974568059
  0
ARC
  5
2E2
330
1F
100
AcDbEntity
  8
LAY-10
  6
CONTINUOUS
 62
     7
100
AcDbCircle
 10
485.0292940153067
 20
285.8564064605387
 30
0.0
 40
1.0
100
AcDbArc
 50
209.3026846522757
 51
270.0000000000001
  0
ARC
  5
2E3
330
1F
100
AcDbEntity
  8
LAY-10
  6
CONTINUOUS
 62
     7
100
AcDbCircle
 10
483.012626529988
 20
286.6103892562227
 30
0.0
 40
0.389610743769822
100
AcDbArc
 50
29.30268465229933
 51
195.5282660133956
  0
LINE
  5
2E4
330
1F
100
AcDbEntity
  8
LAY-10
  6
CONTINUOUS
 62
     7
100
AcDbLine
 10
483.2781813151166
 20
284.1993348606355
 30
0.0
 11
482.6372371636019
 21
286.5060851083575
 31
0.0
  0
LINE
  5
2E5
330
1F
100
AcDbEntity
  8
LAY-10
  6
CONTINUOUS
 62
     7
100
AcDbLine
 10
484.1572476743468
 20
285.3669831476305
 30
0.0
 11
483.3523851534876
 21
286.8010738371812
 31
0.0
  0
ARC
  5
2E6
330
1F
100
AcDbEntity
  8
LAY-10
  6
CONTINUOUS
 62
     7
100
AcDbCircle
 10
558.7639110153358
 20
285.999999999988
 30
0.0
 40
1.0
100
AcDbArc
 50
90.00000000000004
 51
173.8741186700305
  0
ARC
  5
2E7
330
1F
100
AcDbEntity
  8
LAY-10
  6
CONTINUOUS
 62
     7
100
AcDbCircle
 10
557.2474445645114
 20
285.999999999988
 30
0.0
 40
1.0
100
AcDbArc
 50
40.69131046149253
 51
90.00000000000004
  0
ARC
  5
2E8
330
1F
100
AcDbEntity
  8
LAY-10
  6
CONTINUOUS
 62
     7
100
AcDbCircle
 10
555.2209144596158
 20
285.999999999988
 30
0.0
 40
1.0
100
AcDbArc
 50
90.00000000000004
 51
182.6326541691531
  0
LINE
  5
2E9
330
1F
100
AcDbEntity
  8
LAY-10
  6
CONTINUOUS
 62
     7
100
AcDbLine
 10
557.5821893104138
 20
284.3603353795346
 30
0.0
 11
557.76962117366
 21
286.1067132172581
 31
0.0
  0
LINE
  5
2EA
330
1F
100
AcDbEntity
  8
LAY-10
  6
CONTINUOUS
 62
     7
100
AcDbLine
 10
554.2924563095374
 20
284.4211162800026
 30
0.0
 11
554.221969905462
 21
285.9540676831863
 31
0.0
  0
LINE
  5
2EB
330
1F
100
AcDbEntity
  8
LAY-10
  6
CONTINUOUS
 62
     7
100
AcDbLine
 10
394.7462898235651
 20
265.5937131950453
 30
0.0
 11
535.2537101764341
 21
265.5937131950453
 31
0.0
  0
LINE
  5
2EC
330
1F
100
AcDbEntity
  8
LAY-10
  6
CONTINUOUS
 62
     7
100
AcDbLine
 10
549.2997607386569
 20
255.9999999999885
 30
0.0
 11
550.6818989150657
 21
255.9999999999885
 31
0.0
  0
LINE
  5
2ED
330
1F
100
AcDbEntity
  8
LAY-10
  6
CONTINUOUS
 62
     7
100
AcDbLine
 10
548.3011312039024
 20
256.9476640437455
 30
0.0
 11
548.0541954691855
 21
261.659478550964
 31
0.0
  0
LINE
  5
2EE
330
1F
100
AcDbEntity
  8
LAY-10
  6
CONTINUOUS
 62
     7
100
AcDbLine
 10
551.6805284498203
 20
256.9476640437455
 30
0.0
 11
551.9545050473264
 21
262.1754489499995
 31
0.0
  0
LINE
  5
2EF
330
1F
100
AcDbEntity
  8
LAY-10
  6
CONTINUOUS
 62
     7
100
AcDbLine
 10
546.9684101916832
 20
262.6033372928131
 30
0.0
 11
540.9382122178246
 21
262.0757633312833
 31
0.0
  0
ARC
  5
2F0
330
1F
100
AcDbEntity
  8
LAY-10
  6
CONTINUOUS
 62
     7
100
AcDbCircle
 10
547.0555659344309
 20
261.6071425947212
 30
0.0
 40
1.0
100
AcDbArc
 50
2.999999999992387
 51
94.99999999999949
  0
ARC
  5
2F1
330
1F
100
AcDbEntity
  8
LAY-10
  6
CONTINUOUS
 62
     7
100
AcDbCircle
 10
552.9531345820809
 20
262.1231129937565
 30
0.0
 40
1.0
100
AcDbArc
 50
94.99999999999949
 51
176.9999999999979
  0
ARC
  5
2F2
330
1F
100
AcDbEntity
  8
LAY-10
  6
CONTINUOUS
 62
     7
100
AcDbCircle
 10
549.2997607386569
 20
256.9999999999883
 30
0.0
 40
1.0
100
AcDbArc
 50
182.9999999999925
 51
270.0000000000001
  0
ARC
  5
2F3
330
1F
100
AcDbEntity
  8
LAY-10
  6
CONTINUOUS
 62
     7
100
AcDbCircle
 10
550.6818989150657
 20
256.9999999999883
 30
0.0
 40
1.0
100
AcDbArc
 50
270.0000000000001
 51
357.0000000000076
  0
ARC
  5
2F4
330
1F
100
AcDbEntity
  8
LAY-10
  6
CONTINUOUS
 62
     7
100
AcDbCircle
 10
556.5783907975095
 20
269.467020677787
 30
0.0
 40
6.000000000000004
100
AcDbArc
 50
274.9999999999999
 51
355.5357654652328
  0
LINE
  5
2F5
330
1F
100
AcDbEntity
  8
LAY-10
  6
CONTINUOUS
 62
     7
100
AcDbLine
 10
562.5601874913556
 20
268.9999999999883
 30
0.0
 11
577.4999999999997
 21
268.9999999999883
 31
0.0
  0
LINE
  5
2F6
330
1F
100
AcDbEntity
  8
LAY-10
  6
CONTINUOUS
 62
     7
100
AcDbLine
 10
372.9999999999998
 20
273.0000000000162
 30
0.0
 11
378.9999999999995
 21
273.0000000000162
 31
0.0
  0
LINE
  5
2F7
330
1F
100
AcDbEntity
  8
LAY-10
  6
CONTINUOUS
 62
     7
100
AcDbLine
 10
373.5000000000011
 20
272.5000000000158
 30
0.0
 11
378.5000000000007
 21
272.5000000000158
 31
0.0
  0
LINE
  5
2F8
330
1F
100
AcDbEntity
  8
LAY-10
  6
CONTINUOUS
 62
     7
100
AcDbLine
 10
542.000000000001
 20
262.16865772529
 30
0.0
 11
547.4999999999997
 21
262.16865772529
 31
0.0
  0
LINE
  5
2F9
330
1F
100
AcDbEntity
  8
LAY-10
  6
CONTINUOUS
 62
     7
100
AcDbLine
 10
541.9999999999995
 20
262.16865772529
 30
0.0
 11
541.9999999999995
 21
216.9999999999883
 31
0.0
  0
LINE
  5
2FA
330
1F
100
AcDbEntity
  8
LAY-10
  6
CONTINUOUS
 62
     7
100
AcDbLine
 10
547.4999999999997
 20
262.16865772529
 30
0.0
 11
547.4999999999997
 21
216.9999999999883
 31
0.0
  0
LINE
  5
2FB
330
1F
100
AcDbEntity
  8
LAY-10
  6
CONTINUOUS
 62
     7
100
AcDbLine
 10
387.9999999999995
 20
262.16865772529
 30
0.0
 11
387.9999999999995
 21
216.9999999999883
 31
0.0
  0
LINE
  5
2FC
330
1F
100
AcDbEntity
  8
LAY-10
  6
CONTINUOUS
 62
     7
100
AcDbLine
 10
382.4999999999995
 20
262.16865772529
 30
0.0
 11
382.4999999999995
 21
216.9999999999883
 31
0.0
  0
LINE
  5
2FD
330
1F
100
AcDbEntity
  8
LAY-10
  6
CONTINUOUS
 62
     7
100
AcDbLine
 10
387.9999999999982
 20
262.16865772529
 30
0.0
 11
382.4999999999995
 21
262.16865772529
 31
0.0
  0
LINE
  5
2FE
330
1F
100
AcDbEntity
  8
LAY-10
  6
CONTINUOUS
 62
     7
100
AcDbLine
 10
547.4999999999997
 20
216.9999999999883
 30
0.0
 11
382.4999999999995
 21
216.9999999999883
 31
0.0
  0
LINE
  5
2FF
330
1F
100
AcDbEntity
  8
LAY-10
  6
CONTINUOUS
 62
     7
100
AcDbLine
 10
370.9192622342659
 20
278.9999999999881
 30
0.0
 11
370.549664968041
 21
286.052335956231
 31
0.0
  0
LINE
  5
300
330
1F
100
AcDbEntity
  8
LAY-10
  6
CONTINUOUS
 62
     7
100
AcDbLine
 10
559.0807377657335
 20
278.9999999999881
 30
0.0
 11
559.4503350319582
 21
286.052335956231
 31
0.0
  0
LINE
  5
301
330
1F
100
AcDbEntity
  8
LAY-10
  6
CONTINUOUS
 62
     7
100
AcDbLine
 10
407.5205708656283
 20
323.9999999999899
 30
0.0
 11
522.4794291343802
 21
323.9999999999899
 31
0.0
  0
LINE
  5
302
330
1F
100
AcDbEntity
  8
LAY-10
  6
CONTINUOUS
 62
     7
100
AcDbLine
 10
524.4112807869585
 20
318.5176380901952
 30
0.0
 11
535.000000000015
 21
278.9999999999899
 31
0.0
  0
LINE
  5
303
330
1F
100
AcDbEntity
  8
LAY-10
  6
CONTINUOUS
 62
     7
100
AcDbLine
 10
528.6910862168409
 20
317.9999999999896
 30
0.0
 11
524.5499814952005
 21
317.9999999999896
 31
0.0
  0
LINE
  5
304
330
1F
100
AcDbEntity
  8
LAY-10
  6
CONTINUOUS
 62
     7
100
AcDbLine
 10
533.3992333256999
 20
283.99999999999
 30
0.0
 11
532.6160761723794
 21
283.99999999999
 31
0.0
  0
LINE
  5
305
330
1F
100
AcDbEntity
  8
LAY-10
  6
CONTINUOUS
 62
     7
100
AcDbLine
 10
469.7886280378104
 20
317.9999999999896
 30
0.0
 11
471.1541040452479
 21
278.9999999999901
 31
0.0
  0
LINE
  5
306
330
1F
100
AcDbEntity
  8
LAY-10
  6
CONTINUOUS
 62
     7
100
AcDbLine
 10
475.7372972060529
 20
317.9999999999896
 30
0.0
 11
477.1027732134903
 21
278.9999999999901
 31
0.0
  0
LINE
  5
307
330
1F
100
AcDbEntity
  8
LAY-10
  6
CONTINUOUS
 62
     7
100
AcDbLine
 10
476.7708501344045
 20
317.9999999999896
 30
0.0
 11
478.1366239600713
 21
278.9999999999901
 31
0.0
  0
LINE
  5
308
330
1F
100
AcDbEntity
  8
LAY-10
  6
CONTINUOUS
 62
     7
100
AcDbLine
 10
484.988216194474
 20
317.9999999999896
 30
0.0
 11
488.9915892834353
 21
278.9999999999901
 31
0.0
  0
LINE
  5
309
330
1F
100
AcDbEntity
  8
LAY-10
  6
CONTINUOUS
 62
     7
100
AcDbLine
 10
490.531493389541
 20
317.9999999999896
 30
0.0
 11
494.5348664785021
 21
278.9999999999901
 31
0.0
  0
LINE
  5
30A
330
1F
100
AcDbEntity
  8
LAY-10
  6
CONTINUOUS
 62
     7
100
AcDbLine
 10
492.5702723891788
 20
317.9999999999896
 30
0.0
 11
496.5745186370077
 21
278.9999999999901
 31
0.0
  0
LINE
  5
30B
330
1F
100
AcDbEntity
  8
LAY-10
  6
CONTINUOUS
 62
     7
100
AcDbLine
 10
498.825640449573
 20
317.9999999999896
 30
0.0
 11
505.1940873599326
 21
278.9999999999901
 31
0.0
  0
LINE
  5
30C
330
1F
100
AcDbEntity
  8
LAY-10
  6
CONTINUOUS
 62
     7
100
AcDbLine
 10
503.5857604913198
 20
317.9999999999896
 30
0.0
 11
509.9542074016792
 21
278.9999999999901
 31
0.0
  0
LINE
  5
30D
330
1F
100
AcDbEntity
  8
LAY-10
  6
CONTINUOUS
 62
     7
100
AcDbLine
 10
506.4908261426601
 20
317.9999999999896
 30
0.0
 11
512.8606620481917
 21
278.9999999999901
 31
0.0
  0
LINE
  5
30E
330
1F
100
AcDbEntity
  8
LAY-10
  6
CONTINUOUS
 62
     7
100
AcDbLine
 10
498.825640449573
 20
317.9999999999896
 30
0.0
 11
490.531493389541
 21
317.9999999999896
 31
0.0
  0
LINE
  5
30F
330
1F
100
AcDbEntity
  8
LAY-10
  6
CONTINUOUS
 62
     7
100
AcDbLine
 10
484.988216194474
 20
317.9999999999896
 30
0.0
 11
475.7372972060529
 21
317.9999999999896
 31
0.0
  0
LINE
  5
310
330
1F
100
AcDbEntity
  8
LAY-10
  6
CONTINUOUS
 62
     7
100
AcDbLine
 10
469.7886280378104
 20
317.9999999999896
 30
0.0
 11
460.211371962195
 21
317.9999999999896
 31
0.0
  0
LINE
  5
311
330
1F
100
AcDbEntity
  8
LAY-10
  6
CONTINUOUS
 62
     7
100
AcDbLine
 10
518.6574248067209
 20
278.9999999999901
 30
0.0
 11
510.3579032075476
 21
317.9999999999896
 31
0.0
  0
LINE
  5
312
330
1F
100
AcDbEntity
  8
LAY-10
  6
CONTINUOUS
 62
     7
100
AcDbLine
 10
514.0104717816
 20
317.9999999999896
 30
0.0
 11
522.309993380773
 21
278.9999999999901
 31
0.0
  0
LINE
  5
313
330
1F
100
AcDbEntity
  8
LAY-10
  6
CONTINUOUS
 62
     7
100
AcDbLine
 10
525.8851804342751
 20
278.9999999999901
 30
0.0
 11
517.5838486613509
 21
317.9999999999896
 31
0.0
  0
LINE
  5
314
330
1F
100
AcDbEntity
  8
LAY-10
  6
CONTINUOUS
 62
     7
100
AcDbLine
 10
510.3579032075476
 20
317.9999999999896
 30
0.0
 11
503.5857604913198
 21
317.9999999999896
 31
0.0
  0
LINE
  5
315
330
1F
100
AcDbEntity
  8
LAY-10
  6
CONTINUOUS
 62
     7
100
AcDbLine
 10
528.4640974260185
 20
278.9999999999901
 30
0.0
 11
518.7990998194077
 21
317.9999999999896
 31
0.0
  0
LINE
  5
316
330
1F
100
AcDbEntity
  8
LAY-10
  6
CONTINUOUS
 62
     7
100
AcDbLine
 10
530.7601980202079
 20
278.9999999999901
 30
0.0
 11
521.0952004135981
 21
317.9999999999896
 31
0.0
  0
LINE
  5
317
330
1F
100
AcDbEntity
  8
LAY-10
  6
CONTINUOUS
 62
     7
100
AcDbLine
 10
533.9457966851132
 20
278.9999999999901
 30
0.0
 11
523.5739766857913
 21
317.9999999999896
 31
0.0
  0
LINE
  5
318
330
1F
100
AcDbEntity
  8
LAY-10
  6
CONTINUOUS
 62
     7
100
AcDbLine
 10
518.7990998194077
 20
317.9999999999896
 30
0.0
 11
514.0104717816
 21
317.9999999999896
 31
0.0
  0
LINE
  5
319
330
1F
100
AcDbEntity
  8
LAY-10
  6
CONTINUOUS
 62
     7
100
AcDbLine
 10
524.3571338391118
 20
317.9999999999896
 30
0.0
 11
534.7289538384334
 21
278.9999999999901
 31
0.0
  0
LINE
  5
31A
330
1F
100
AcDbEntity
  8
LAY-10
  6
CONTINUOUS
 62
     7
100
AcDbLine
 10
524.3571338391118
 20
317.9999999999896
 30
0.0
 11
521.0952004135981
 21
317.9999999999896
 31
0.0
  0
LINE
  5
31B
330
1F
100
AcDbEntity
  8
LAY-10
  6
CONTINUOUS
 62
     7
100
AcDbLine
 10
488.478336323312
 20
283.99999999999
 30
0.0
 11
477.9615247516523
 21
283.99999999999
 31
0.0
  0
LINE
  5
31C
330
1F
100
AcDbEntity
  8
LAY-10
  6
CONTINUOUS
 62
     7
100
AcDbLine
 10
504.3776198073225
 20
283.99999999999
 30
0.0
 11
496.0611537334399
 21
283.99999999999
 31
0.0
  0
LINE
  5
31D
330
1F
100
AcDbEntity
  8
LAY-10
  6
CONTINUOUS
 62
     7
100
AcDbLine
 10
517.5933835760576
 20
283.99999999999
 30
0.0
 11
512.0440164192772
 21
283.99999999999
 31
0.0
  0
LINE
  5
31E
330
1F
100
AcDbEntity
  8
LAY-10
  6
CONTINUOUS
 62
     7
100
AcDbLine
 10
527.2249951687605
 20
283.99999999999
 30
0.0
 11
524.8209071300541
 21
283.99999999999
 31
0.0
  0
ARC
  5
31F
330
1F
100
AcDbEntity
  8
LAY-10
  6
CONTINUOUS
 62
     7
100
AcDbCircle
 10
522.4794291343802
 20
317.9999999999901
 30
0.0
 40
2.0
100
AcDbArc
 50
15.00000000000158
 51
90.00000000000004
  0
ARC
  5
320
330
1F
100
AcDbEntity
  8
LAY-10
  6
CONTINUOUS
 62
     7
100
AcDbCircle
 10
522.4794291343802
 20
317.9999999999899
 30
0.0
 40
6.000000000000004
100
AcDbArc
 50
15.00000000000129
 51
90.00000000000004
  0
LINE
  5
321
330
1F
100
AcDbEntity
  8
LAY-10
  6
CONTINUOUS
 62
     7
100
AcDbLine
 10
539.1411047216551
 20
278.9999999999899
 30
0.0
 11
528.2749840921148
 21
319.5529142706052
 31
0.0
  0
LINE
  5
322
330
1F
100
AcDbEntity
  8
LAY-10
  6
CONTINUOUS
 62
     7
100
AcDbLine
 10
392.8685142215869
 20
286.4999999999902
 30
0.0
 11
373.0000000000139
 21
286.4999999999902
 31
0.0
  0
LINE
  5
323
330
1F
100
AcDbEntity
  8
LAY-10
  6
CONTINUOUS
 62
     7
100
AcDbLine
 10
384.1069416553731
 20
286.4999999999902
 30
0.0
 11
384.4999999999958
 21
278.9999999999899
 31
0.0
  0
LINE
  5
324
330
1F
100
AcDbEntity
  8
LAY-10
  6
CONTINUOUS
 62
     7
100
AcDbLine
 10
405.58871921305
 20
318.5176380901952
 30
0.0
 11
394.9999999999935
 21
278.9999999999899
 31
0.0
  0
LINE
  5
325
330
1F
100
AcDbEntity
  8
LAY-10
  6
CONTINUOUS
 62
     7
100
AcDbLine
 10
401.3089137831678
 20
317.9999999999896
 30
0.0
 11
405.450018504808
 21
317.9999999999896
 31
0.0
  0
LINE
  5
326
330
1F
100
AcDbEntity
  8
LAY-10
  6
CONTINUOUS
 62
     7
100
AcDbLine
 10
396.6007666743087
 20
283.99999999999
 30
0.0
 11
397.3839238276291
 21
283.99999999999
 31
0.0
  0
LINE
  5
327
330
1F
100
AcDbEntity
  8
LAY-10
  6
CONTINUOUS
 62
     7
100
AcDbLine
 10
460.2113719621982
 20
317.9999999999896
 30
0.0
 11
458.8458959547606
 21
278.9999999999901
 31
0.0
  0
LINE
  5
328
330
1F
100
AcDbEntity
  8
LAY-10
  6
CONTINUOUS
 62
     7
100
AcDbLine
 10
454.2627027939557
 20
317.9999999999896
 30
0.0
 11
452.8972267865183
 21
278.9999999999901
 31
0.0
  0
LINE
  5
329
330
1F
100
AcDbEntity
  8
LAY-10
  6
CONTINUOUS
 62
     7
100
AcDbLine
 10
453.2291498656041
 20
317.9999999999896
 30
0.0
 11
451.8633760399373
 21
278.9999999999901
 31
0.0
  0
LINE
  5
32A
330
1F
100
AcDbEntity
  8
LAY-10
  6
CONTINUOUS
 62
     7
100
AcDbLine
 10
445.0117838055346
 20
317.9999999999896
 30
0.0
 11
441.0084107165733
 21
278.9999999999901
 31
0.0
  0
LINE
  5
32B
330
1F
100
AcDbEntity
  8
LAY-10
  6
CONTINUOUS
 62
     7
100
AcDbLine
 10
439.4685066104674
 20
317.9999999999896
 30
0.0
 11
435.4651335215065
 21
278.9999999999901
 31
0.0
  0
LINE
  5
32C
330
1F
100
AcDbEntity
  8
LAY-10
  6
CONTINUOUS
 62
     7
100
AcDbLine
 10
437.4297276108298
 20
317.9999999999896
 30
0.0
 11
433.4254813630009
 21
278.9999999999901
 31
0.0
  0
LINE
  5
32D
330
1F
100
AcDbEntity
  8
LAY-10
  6
CONTINUOUS
 62
     7
100
AcDbLine
 10
431.1743595504356
 20
317.9999999999896
 30
0.0
 11
424.805912640076
 21
278.9999999999901
 31
0.0
  0
LINE
  5
32E
330
1F
100
AcDbEntity
  8
LAY-10
  6
CONTINUOUS
 62
     7
100
AcDbLine
 10
426.4142395086886
 20
317.9999999999896
 30
0.0
 11
420.0457925983294
 21
278.9999999999901
 31
0.0
  0
LINE
  5
32F
330
1F
100
AcDbEntity
  8
LAY-10
  6
CONTINUOUS
 62
     7
100
AcDbLine
 10
423.5091738573484
 20
317.9999999999896
 30
0.0
 11
417.139337951817
 21
278.9999999999901
 31
0.0
  0
LINE
  5
330
330
1F
100
AcDbEntity
  8
LAY-10
  6
CONTINUOUS
 62
     7
100
AcDbLine
 10
431.1743595504356
 20
317.9999999999896
 30
0.0
 11
439.4685066104674
 21
317.9999999999896
 31
0.0
  0
LINE
  5
331
330
1F
100
AcDbEntity
  8
LAY-10
  6
CONTINUOUS
 62
     7
100
AcDbLine
 10
445.0117838055346
 20
317.9999999999896
 30
0.0
 11
454.2627027939557
 21
317.9999999999896
 31
0.0
  0
LINE
  5
332
330
1F
100
AcDbEntity
  8
LAY-10
  6
CONTINUOUS
 62
     7
100
AcDbLine
 10
411.3425751932876
 20
278.9999999999901
 30
0.0
 11
419.6420967924608
 21
317.9999999999896
 31
0.0
  0
LINE
  5
333
330
1F
100
AcDbEntity
  8
LAY-10
  6
CONTINUOUS
 62
     7
100
AcDbLine
 10
415.9895282184085
 20
317.9999999999896
 30
0.0
 11
407.6900066192356
 21
278.9999999999901
 31
0.0
  0
LINE
  5
334
330
1F
100
AcDbEntity
  8
LAY-10
  6
CONTINUOUS
 62
     7
100
AcDbLine
 10
404.1148195657335
 20
278.9999999999901
 30
0.0
 11
412.4161513386578
 21
317.9999999999896
 31
0.0
  0
LINE
  5
335
330
1F
100
AcDbEntity
  8
LAY-10
  6
CONTINUOUS
 62
     7
100
AcDbLine
 10
419.6420967924608
 20
317.9999999999896
 30
0.0
 11
426.4142395086886
 21
317.9999999999896
 31
0.0
  0
LINE
  5
336
330
1F
100
AcDbEntity
  8
LAY-10
  6
CONTINUOUS
 62
     7
100
AcDbLine
 10
401.5359025739901
 20
278.9999999999901
 30
0.0
 11
411.2009001806008
 21
317.9999999999896
 31
0.0
  0
LINE
  5
337
330
1F
100
AcDbEntity
  8
LAY-10
  6
CONTINUOUS
 62
     7
100
AcDbLine
 10
399.2398019798006
 20
278.9999999999901
 30
0.0
 11
408.9047995864104
 21
317.9999999999896
 31
0.0
  0
LINE
  5
338
330
1F
100
AcDbEntity
  8
LAY-10
  6
CONTINUOUS
 62
     7
100
AcDbLine
 10
396.0542033148954
 20
278.9999999999901
 30
0.0
 11
406.4260233142172
 21
317.9999999999896
 31
0.0
  0
LINE
  5
339
330
1F
100
AcDbEntity
  8
LAY-10
  6
CONTINUOUS
 62
     7
100
AcDbLine
 10
411.2009001806008
 20
317.9999999999896
 30
0.0
 11
415.9895282184085
 21
317.9999999999896
 31
0.0
  0
LINE
  5
33A
330
1F
100
AcDbEntity
  8
LAY-10
  6
CONTINUOUS
 62
     7
100
AcDbLine
 10
405.6428661608968
 20
317.9999999999896
 30
0.0
 11
395.2710461615752
 21
278.9999999999901
 31
0.0
  0
LINE
  5
33B
330
1F
100
AcDbEntity
  8
LAY-10
  6
CONTINUOUS
 62
     7
100
AcDbLine
 10
405.6428661608968
 20
317.9999999999896
 30
0.0
 11
408.9047995864104
 21
317.9999999999896
 31
0.0
  0
LINE
  5
33C
330
1F
100
AcDbEntity
  8
LAY-10
  6
CONTINUOUS
 62
     7
100
AcDbLine
 10
441.5216636766966
 20
283.99999999999
 30
0.0
 11
452.0384752483562
 21
283.99999999999
 31
0.0
  0
LINE
  5
33D
330
1F
100
AcDbEntity
  8
LAY-10
  6
CONTINUOUS
 62
     7
100
AcDbLine
 10
425.622380192686
 20
283.99999999999
 30
0.0
 11
433.9388462665686
 21
283.99999999999
 31
0.0
  0
LINE
  5
33E
330
1F
100
AcDbEntity
  8
LAY-10
  6
CONTINUOUS
 62
     7
100
AcDbLine
 10
412.4066164239509
 20
283.99999999999
 30
0.0
 11
417.9559835807313
 21
283.99999999999
 31
0.0
  0
LINE
  5
33F
330
1F
100
AcDbEntity
  8
LAY-10
  6
CONTINUOUS
 62
     7
100
AcDbLine
 10
402.775004831248
 20
283.99999999999
 30
0.0
 11
405.1790928699545
 21
283.99999999999
 31
0.0
  0
ARC
  5
340
330
1F
100
AcDbEntity
  8
LAY-10
  6
CONTINUOUS
 62
     7
100
AcDbCircle
 10
407.5205708656283
 20
317.9999999999901
 30
0.0
 40
2.0
100
AcDbArc
 50
90.00000000000004
 51
164.9999999999989
  0
ARC
  5
341
330
1F
100
AcDbEntity
  8
LAY-10
  6
CONTINUOUS
 62
     7
100
AcDbCircle
 10
407.5205708656283
 20
317.9999999999899
 30
0.0
 40
6.000000000000004
100
AcDbArc
 50
90.00000000000004
 51
164.9999999999989
  0
LINE
  5
342
330
1F
100
AcDbEntity
  8
LAY-10
  6
CONTINUOUS
 62
     7
100
AcDbLine
 10
435.503694622568
 20
319.9999999999902
 30
0.0
 11
436.0036946225679
 21
323.9999999999899
 31
0.0
  0
LINE
  5
343
330
1F
100
AcDbEntity
  8
LAY-10
  6
CONTINUOUS
 62
     7
100
AcDbLine
 10
452.2569335126848
 20
319.9999999999902
 30
0.0
 11
451.7569335126847
 21
323.9999999999899
 31
0.0
  0
LINE
  5
344
330
1F
100
AcDbEntity
  8
LAY-10
  6
CONTINUOUS
 62
     7
100
AcDbLine
 10
390.8588952783534
 20
278.9999999999899
 30
0.0
 11
401.7250159078937
 21
319.5529142706052
 31
0.0
  0
LINE
  5
345
330
1F
100
AcDbEntity
  8
LAY-10
  6
CONTINUOUS
 62
     7
100
AcDbLine
 10
522.4794291343802
 20
319.9999999999902
 30
0.0
 11
407.5205708656283
 21
319.9999999999902
 31
0.0
  0
LINE
  5
346
330
1F
100
AcDbEntity
  8
LAY-10
  6
CONTINUOUS
 62
     7
100
AcDbLine
 10
476.5000000000038
 20
319.9999999999902
 30
0.0
 11
477.0000000000039
 21
323.9999999999899
 31
0.0
  0
LINE
  5
347
330
1F
100
AcDbEntity
  8
LAY-10
  6
CONTINUOUS
 62
     7
100
AcDbLine
 10
497.5000000000006
 20
319.9999999999902
 30
0.0
 11
497.0000000000006
 21
323.9999999999899
 31
0.0
  0
LINE
  5
348
330
1F
100
AcDbEntity
  8
LAY-10
  6
CONTINUOUS
 62
     7
100
AcDbLine
 10
521.5000000000007
 20
319.9999999999902
 30
0.0
 11
521.0000000000006
 21
323.9999999999899
 31
0.0
  0
LINE
  5
349
330
1F
100
AcDbEntity
  8
LAY-10
  6
CONTINUOUS
 62
     7
100
AcDbLine
 10
500.5000000000038
 20
320.0000000000101
 30
0.0
 11
501.0000000000039
 21
324.0000000000099
 31
0.0
  0
ARC
  5
34A
330
1F
100
AcDbEntity
  8
LAY-10
  6
CONTINUOUS
 62
     7
100
AcDbCircle
 10
374.2500000000016
 20
286.3857492993883
 30
0.0
 40
3.500000000000002
100
AcDbArc
 50
128.6821874534944
 51
178.1293582694076
  0
ARC
  5
34B
330
1F
100
AcDbEntity
  8
LAY-10
  6
CONTINUOUS
 62
     7
100
AcDbCircle
 10
377.7500000000015
 20
286.3857492993883
 30
0.0
 40
3.500000000000002
100
AcDbArc
 50
1.870641730603566
 51
51.31781254650174
  0
LINE
  5
34C
330
1F
100
AcDbEntity
  8
LAY-10
  6
CONTINUOUS
 62
     7
100
AcDbLine
 10
381.2481347569015
 20
286.4999999999886
 30
0.0
 11
370.7518652431015
 21
286.4999999999886
 31
0.0
  0
LINE
  5
34D
330
1F
100
AcDbEntity
  8
LAY-10
  6
CONTINUOUS
 62
     7
100
AcDbLine
 10
376.6000000000015
 20
290.4713634880887
 30
0.0
 11
376.6000000000015
 21
287.9999999999886
 31
0.0
  0
LINE
  5
34E
330
1F
100
AcDbEntity
  8
LAY-10
  6
CONTINUOUS
 62
     7
100
AcDbLine
 10
376.6000000000015
 20
287.9999999999886
 30
0.0
 11
375.4000000000016
 21
287.9999999999886
 31
0.0
  0
LINE
  5
34F
330
1F
100
AcDbEntity
  8
LAY-10
  6
CONTINUOUS
 62
     7
100
AcDbLine
 10
375.4000000000016
 20
290.4713634880887
 30
0.0
 11
375.4000000000016
 21
287.9999999999886
 31
0.0
  0
ARC
  5
350
330
1F
100
AcDbEntity
  8
LAY-10
  6
CONTINUOUS
 62
     7
100
AcDbCircle
 10
376.0000000000014
 20
284.1999999999886
 30
0.0
 40
6.300000000000002
100
AcDbArc
 50
51.317812546497
 51
84.53497620009915
  0
ARC
  5
351
330
1F
100
AcDbEntity
  8
LAY-10
  6
CONTINUOUS
 62
     7
100
AcDbCircle
 10
376.0000000000014
 20
284.1999999999886
 30
0.0
 40
6.300000000000002
100
AcDbArc
 50
95.46502379991026
 51
128.6821874534931
  0
LINE
  5
352
330
1F
100
AcDbEntity
  8
LAY-10
  6
CONTINUOUS
 62
     7
100
AcDbLine
 10
373.5000000000016
 20
274.4999999999906
 30
0.0
 11
373.0000000000014
 21
274.9999999999906
 31
0.0
  0
LINE
  5
353
330
1F
100
AcDbEntity
  8
LAY-10
  6
CONTINUOUS
 62
     7
100
AcDbLine
 10
378.5000000000015
 20
274.4999999999906
 30
0.0
 11
379.0000000000014
 21
274.9999999999906
 31
0.0
  0
LINE
  5
354
330
1F
100
AcDbEntity
  8
LAY-10
  6
CONTINUOUS
 62
     7
100
AcDbLine
 10
373.0000000000014
 20
286.4999999999886
 30
0.0
 11
373.0000000000014
 21
274.9999999999906
 31
0.0
  0
LINE
  5
355
330
1F
100
AcDbEntity
  8
LAY-10
  6
CONTINUOUS
 62
     7
100
AcDbLine
 10
373.5000000000016
 20
274.4999999999906
 30
0.0
 11
378.5000000000015
 21
274.4999999999906
 31
0.0
  0
LINE
  5
356
330
1F
100
AcDbEntity
  8
LAY-10
  6
CONTINUOUS
 62
     7
100
AcDbLine
 10
379.0000000000014
 20
286.4999999999886
 30
0.0
 11
379.0000000000014
 21
274.9999999999906
 31
0.0
  0
LINE
  5
357
330
1F
100
AcDbEntity
  8
LAY-10
  6
CONTINUOUS
 62
     7
100
AcDbLine
 10
379.0000000000014
 20
274.9999999999906
 30
0.0
 11
373.0000000000014
 21
274.9999999999906
 31
0.0
  0
ARC
  5
358
330
1F
100
AcDbEntity
  8
LAY-10
  6
CONTINUOUS
 62
     7
100
AcDbCircle
 10
373.4121005312616
 20
284.4670485968041
 30
0.0
 40
1.0
100
AcDbArc
 50
186.1258813299405
 51
245.6631446360917
  0
ARC
  5
359
330
1F
100
AcDbEntity
  8
LAY-10
  6
CONTINUOUS
 62
     7
100
AcDbCircle
 10
371.2360889846634
 20
285.999999999988
 30
0.0
 40
1.0
100
AcDbArc
 50
6.125881329969961
 51
30.00000000003851
  0
LINE
  5
35A
330
1F
100
AcDbEntity
  8
LAY-10
  6
CONTINUOUS
 62
     7
100
AcDbLine
 10
352.4999999999996
 20
286.9999999999883
 30
0.0
 11
370.8043221165057
 21
286.9999999999883
 31
0.0
  0
LINE
  5
35B
330
1F
100
AcDbEntity
  8
LAY-10
  6
CONTINUOUS
 62
     7
100
AcDbLine
 10
373.5000000000011
 20
271.5000000000162
 30
0.0
 11
373.5000000000011
 21
274.9999999999906
 31
0.0
  0
LINE
  5
35C
330
1F
100
AcDbEntity
  8
LAY-10
  6
CONTINUOUS
 62
     7
100
AcDbLine
 10
378.5000000000007
 20
271.5000000000162
 30
0.0
 11
378.5000000000007
 21
274.4999999999901
 31
0.0
  0
LINE
  5
35D
330
1F
100
AcDbEntity
  8
LAY-10
  6
CONTINUOUS
 62
     7
100
AcDbLine
 10
370.9192622342659
 20
278.9999999999881
 30
0.0
 11
373.5000000000016
 21
278.9999999999881
 31
0.0
  0
LINE
  5
35E
330
1F
100
AcDbEntity
  8
LAY-10
  6
CONTINUOUS
 62
     7
100
AcDbLine
 10
378.5000000000015
 20
278.9999999999899
 30
0.0
 11
554.7090125219385
 21
278.9999999999899
 31
0.0
  0
ARC
  5
35F
330
1F
100
AcDbEntity
  8
LAY-10
  6
CONTINUOUS
 62
     7
100
AcDbCircle
 10
392.5314669252496
 20
285.999999999988
 30
0.0
 40
1.0
100
AcDbArc
 50
63.68790380732052
 51
90.00000000000004
  0
LINE
  5
360
330
1F
100
AcDbEntity
  8
LAY-10
  6
CONTINUOUS
 62
     7
100
AcDbLine
 10
381.1956778834974
 20
286.9999999999883
 30
0.0
 11
393.002488817802
 21
286.9999999999883
 31
0.0
  0
LINE
  5
361
330
1F
100
AcDbEntity
  8
LAY-10
  6
CONTINUOUS
 62
     7
100
AcDbLine
 10
396.8285229218745
 20
284.8564064605388
 30
0.0
 11
397.6116800751948
 21
284.8564064605388
 31
0.0
  0
LINE
  5
362
330
1F
100
AcDbEntity
  8
LAY-10
  6
CONTINUOUS
 62
     7
100
AcDbLine
 10
397.3985989819484
 20
286.9999999999883
 30
0.0
 11
398.1817561352686
 21
286.9999999999883
 31
0.0
  0
ARC
  5
363
330
1F
100
AcDbEntity
  8
LAY-10
  6
CONTINUOUS
 62
     7
100
AcDbCircle
 10
401.9209012241074
 20
284.4670485968041
 30
0.0
 40
1.0
100
AcDbArc
 50
332.1571155136285
 51
349.4098363562636
  0
LINE
  5
364
330
1F
100
AcDbEntity
  8
LAY-10
  6
CONTINUOUS
 62
     7
100
AcDbLine
 10
402.9038681389513
 20
284.2832659960999
 30
0.0
 11
403.0841097548358
 21
285.2472938442928
 31
0.0
  0
LINE
  5
365
330
1F
100
AcDbEntity
  8
LAY-10
  6
CONTINUOUS
 62
     7
100
AcDbLine
 10
403.5184661856022
 20
286.9999999999883
 30
0.0
 11
405.8176568524868
 21
286.9999999999883
 31
0.0
  0
LINE
  5
366
330
1F
100
AcDbEntity
  8
LAY-10
  6
CONTINUOUS
 62
     7
100
AcDbLine
 10
413.0450411623484
 20
286.9999999999883
 30
0.0
 11
418.4459709580795
 21
286.9999999999883
 31
0.0
  0
LINE
  5
367
330
1F
100
AcDbEntity
  8
LAY-10
  6
CONTINUOUS
 62
     7
100
AcDbLine
 10
434.1112923297592
 20
285.6795661525645
 30
0.0
 11
433.93390549937
 21
286.2823214075255
 31
0.0
  0
LINE
  5
368
330
1F
100
AcDbEntity
  8
LAY-10
  6
CONTINUOUS
 62
     7
100
AcDbLine
 10
426.1122607242521
 20
286.9999999999883
 30
0.0
 11
434.2468652087092
 21
286.9999999999883
 31
0.0
  0
ARC
  5
369
330
1F
100
AcDbEntity
  8
LAY-10
  6
CONTINUOUS
 62
     7
100
AcDbCircle
 10
445.7583201869768
 20
284.4670485968041
 30
0.0
 40
1.0
100
AcDbArc
 50
332.1571155136317
 51
344.4717339866035
  0
LINE
  5
36A
330
1F
100
AcDbEntity
  8
LAY-10
  6
CONTINUOUS
 62
     7
100
AcDbLine
 10
441.6095743068856
 20
284.8564064605388
 30
0.0
 11
444.9707059846924
 21
284.8564064605388
 31
0.0
  0
LINE
  5
36B
330
1F
100
AcDbEntity
  8
LAY-10
  6
CONTINUOUS
 62
     7
100
AcDbLine
 10
441.8296154527703
 20
286.9999999999883
 30
0.0
 11
452.1435347734073
 21
286.9999999999883
 31
0.0
  0
LINE
  5
36C
330
1F
100
AcDbEntity
  8
LAY-10
  6
CONTINUOUS
 62
     7
100
AcDbLine
 10
459.1259935973118
 20
286.9999999999883
 30
0.0
 11
470.8740064026967
 21
286.9999999999883
 31
0.0
  0
ARC
  5
36D
330
1F
100
AcDbEntity
  8
LAY-10
  6
CONTINUOUS
 62
     7
100
AcDbCircle
 10
484.2416798130224
 20
284.4670485968041
 30
0.0
 40
1.0
100
AcDbArc
 50
195.5282660133965
 51
207.8428844863686
  0
LINE
  5
36E
330
1F
100
AcDbEntity
  8
LAY-10
  6
CONTINUOUS
 62
     7
100
AcDbLine
 10
488.3904256931229
 20
284.8564064605388
 30
0.0
 11
485.0292940153067
 21
284.8564064605388
 31
0.0
  0
LINE
  5
36F
330
1F
100
AcDbEntity
  8
LAY-10
  6
CONTINUOUS
 62
     7
100
AcDbLine
 10
477.8564652266012
 20
286.9999999999883
 30
0.0
 11
488.1703845472382
 21
286.9999999999883
 31
0.0
  0
LINE
  5
370
330
1F
100
AcDbEntity
  8
LAY-10
  6
CONTINUOUS
 62
     7
100
AcDbLine
 10
495.8887076702469
 20
285.6795661525883
 30
0.0
 11
496.0660945006291
 21
286.2823214075255
 31
0.0
  0
LINE
  5
371
330
1F
100
AcDbEntity
  8
LAY-10
  6
CONTINUOUS
 62
     7
100
AcDbLine
 10
495.7531347912993
 20
286.9999999999883
 30
0.0
 11
503.8877392757565
 21
286.9999999999883
 31
0.0
  0
LINE
  5
372
330
1F
100
AcDbEntity
  8
LAY-10
  6
CONTINUOUS
 62
     7
100
AcDbLine
 10
511.554029041929
 20
286.9999999999883
 30
0.0
 11
516.9549588376601
 21
286.9999999999883
 31
0.0
  0
LINE
  5
373
330
1F
100
AcDbEntity
  8
LAY-10
  6
CONTINUOUS
 62
     7
100
AcDbLine
 10
524.1823431475217
 20
286.9999999999883
 30
0.0
 11
526.4815338144064
 21
286.9999999999883
 31
0.0
  0
LINE
  5
374
330
1F
100
AcDbEntity
  8
LAY-10
  6
CONTINUOUS
 62
     7
100
AcDbLine
 10
527.0961318610479
 20
284.2832659960999
 30
0.0
 11
526.9158902451346
 21
285.2472938444465
 31
0.0
  0
ARC
  5
375
330
1F
100
AcDbEntity
  8
LAY-10
  6
CONTINUOUS
 62
     7
100
AcDbCircle
 10
528.0790987758917
 20
284.4670485968041
 30
0.0
 40
1.0
100
AcDbArc
 50
190.590163643736
 51
207.8428844863686
  0
LINE
  5
376
330
1F
100
AcDbEntity
  8
LAY-10
  6
CONTINUOUS
 62
     7
100
AcDbLine
 10
531.8182438647399
 20
286.9999999999883
 30
0.0
 11
532.6014010180602
 21
286.9999999999883
 31
0.0
  0
LINE
  5
377
330
1F
100
AcDbEntity
  8
LAY-10
  6
CONTINUOUS
 62
     7
100
AcDbLine
 10
533.171477078134
 20
284.8564064605388
 30
0.0
 11
532.3883199248138
 21
284.8564064605388
 31
0.0
  0
ARC
  5
378
330
1F
100
AcDbEntity
  8
LAY-10
  6
CONTINUOUS
 62
     7
100
AcDbCircle
 10
537.4685330747496
 20
285.999999999988
 30
0.0
 40
1.0
100
AcDbArc
 50
90.00000000000004
 51
116.3120961921552
  0
LINE
  5
379
330
1F
100
AcDbEntity
  8
LAY-10
  6
CONTINUOUS
 62
     7
100
AcDbLine
 10
536.9975111822065
 20
286.9999999999883
 30
0.0
 11
577.4999999999997
 21
286.9999999999883
 31
0.0
  0
ARC
  5
37A
330
1F
100
AcDbEntity
  8
LAY-10
  6
CONTINUOUS
 62
     7
100
AcDbCircle
 10
555.291400863691
 20
284.4670485968041
 30
0.0
 40
1.0
100
AcDbArc
 50
182.6326541691433
 51
207.8428844863686
  0
ARC
  5
37B
330
1F
100
AcDbEntity
  8
LAY-10
  6
CONTINUOUS
 62
     7
100
AcDbCircle
 10
554.8400319701584
 20
280.9999999999899
 30
0.0
 40
2.0
100
AcDbArc
 50
270.0000000000002
 51
356.9999999999994
  0
LINE
  5
37C
330
1F
100
AcDbEntity
  8
LAY-10
  6
CONTINUOUS
 62
     7
100
AcDbLine
 10
556.8372910396675
 20
280.895328087504
 30
0.0
 11
557.0000000000034
 21
283.99999999999
 31
0.0
  0
ARC
  5
37D
330
1F
100
AcDbEntity
  8
LAY-10
  6
CONTINUOUS
 62
     7
100
AcDbCircle
 10
556.5878994687376
 20
284.4670485968041
 30
0.0
 40
1.0
100
AcDbArc
 50
292.8476180658819
 51
353.8741186700595
  0
LINE
  5
37E
330
1F
100
AcDbEntity
  8
LAY-10
  6
CONTINUOUS
 62
     7
100
AcDbLine
 10
537.8013587594994
 20
283.99999999999
 30
0.0
 11
557.0000000000034
 21
283.99999999999
 31
0.0
  0
LINE
  5
37F
330
1F
100
AcDbEntity
  8
LAY-10
  6
CONTINUOUS
 62
     7
100
AcDbLine
 10
395.7999999999901
 20
231.999999999991
 30
0.0
 11
396.83173816209
 21
232.9999999999909
 31
0.0
  0
LINE
  5
380
330
1F
100
AcDbEntity
  8
LAY-10
  6
CONTINUOUS
 62
     7
100
AcDbLine
 10
571.9999999999924
 20
276.9999999999897
 30
0.0
 11
571.9999999999924
 21
277.9999999999879
 31
0.0
  0
LINE
  5
381
330
1F
100
AcDbEntity
  8
LAY-10
  6
CONTINUOUS
 62
     7
100
AcDbLine
 10
566.9999999999931
 20
276.9999999999897
 30
0.0
 11
566.9999999999931
 21
277.999999999989
 31
0.0
  0
LINE
  5
382
330
1F
100
AcDbEntity
  8
LAY-10
  6
CONTINUOUS
 62
     7
100
AcDbLine
 10
566.9999999999931
 20
277.999999999989
 30
0.0
 11
571.9999999999924
 21
277.999999999989
 31
0.0
  0
LINE
  5
383
330
1F
100
AcDbEntity
  8
LAY-10
  6
CONTINUOUS
 62
     7
100
AcDbLine
 10
566.4999999999899
 20
276.499999999989
 30
0.0
 11
572.4999999999899
 21
276.499999999989
 31
0.0
  0
LINE
  5
384
330
1F
100
AcDbEntity
  8
LAY-10
  6
CONTINUOUS
 62
     7
100
AcDbLine
 10
566.9999999999899
 20
276.9999999999897
 30
0.0
 11
571.9999999999899
 21
276.9999999999897
 31
0.0
  0
LINE
  5
385
330
1F
100
AcDbEntity
  8
LAY-10
  6
CONTINUOUS
 62
     7
100
AcDbLine
 10
569.4999999999901
 20
279.4433756729647
 30
0.0
 11
571.999999999991
 21
277.9999999999901
 31
0.0
  0
LINE
  5
386
330
1F
100
AcDbEntity
  8
LAY-10
  6
CONTINUOUS
 62
     7
100
AcDbLine
 10
569.4999999999897
 20
279.4433756729645
 30
0.0
 11
566.9999999999892
 21
277.9999999999901
 31
0.0
  0
LINE
  5
387
330
1F
100
AcDbEntity
  8
LAY-10
  6
CONTINUOUS
 62
     7
100
AcDbLine
 10
583.9999999999894
 20
246.9999999999983
 30
0.0
 11
583.9999999999894
 21
251.9999999999982
 31
0.0
  0
LINE
  5
388
330
1F
100
AcDbEntity
  8
LAY-10
  6
CONTINUOUS
 62
     7
100
AcDbLine
 10
573.999999999989
 20
251.9999999999982
 30
0.0
 11
583.9999999999894
 21
251.9999999999982
 31
0.0
  0
ARC
  5
389
330
1F
100
AcDbEntity
  8
LAY-10
  6
CONTINUOUS
 62
     7
100
AcDbCircle
 10
573.999999999989
 20
253.9999999999982
 30
0.0
 40
2.0
100
AcDbArc
 50
180.0
 51
270.0000000000002
  0
LINE
  5
38A
330
1F
100
AcDbEntity
  8
LAY-10
  6
CONTINUOUS
 62
     7
100
AcDbLine
 10
573.999999999989
 20
246.9999999999983
 30
0.0
 11
583.9999999999894
 21
246.9999999999983
 31
0.0
  0
ARC
  5
38B
330
1F
100
AcDbEntity
  8
LAY-10
  6
CONTINUOUS
 62
     7
100
AcDbCircle
 10
573.999999999989
 20
253.9999999999982
 30
0.0
 40
7.000000000000004
100
AcDbArc
 50
180.0
 51
270.0000000000002
  0
LINE
  5
38C
330
1F
100
AcDbEntity
  8
LAY-10
  6
CONTINUOUS
 62
     7
100
AcDbLine
 10
571.9999999999899
 20
253.9999999999939
 30
0.0
 11
571.9999999999899
 21
268.9999999999936
 31
0.0
  0
LINE
  5
38D
330
1F
100
AcDbEntity
  8
LAY-10
  6
CONTINUOUS
 62
     7
100
AcDbLine
 10
566.9999999999899
 20
253.9999999999939
 30
0.0
 11
566.9999999999899
 21
268.9999999999936
 31
0.0
  0
LINE
  5
38E
330
1F
100
AcDbEntity
  8
LAY-10
  6
CONTINUOUS
 62
     7
100
AcDbLine
 10
566.9999999999931
 20
274.9999999999985
 30
0.0
 11
571.9999999999924
 21
274.9999999999985
 31
0.0
  0
LINE
  5
38F
330
1F
100
AcDbEntity
  8
LAY-10
  6
CONTINUOUS
 62
     7
100
AcDbLine
 10
566.4999999999917
 20
274.4999999999999
 30
0.0
 11
572.4999999999908
 21
274.4999999999999
 31
0.0
  0
LINE
  5
390
330
1F
100
AcDbEntity
  8
LAY-10
  6
CONTINUOUS
 62
     7
100
AcDbLine
 10
571.9999999999924
 20
276.9999999999897
 30
0.0
 11
571.9999999999924
 21
274.9999999999985
 31
0.0
  0
LINE
  5
391
330
1F
100
AcDbEntity
  8
LAY-10
  6
CONTINUOUS
 62
     7
100
AcDbLine
 10
566.9999999999931
 20
276.9999999999897
 30
0.0
 11
566.9999999999931
 21
274.9999999999985
 31
0.0
  0
LINE
  5
392
330
1F
100
AcDbEntity
  8
LAY-10
  6
CONTINUOUS
 62
     7
100
AcDbLine
 10
572.4999999999899
 20
274.5000000000039
 30
0.0
 11
571.9999999999899
 21
274.9999999999939
 31
0.0
  0
LINE
  5
393
330
1F
100
AcDbEntity
  8
LAY-10
  6
CONTINUOUS
 62
     7
100
AcDbLine
 10
566.9999999999899
 20
274.9999999999939
 30
0.0
 11
566.4999999999899
 21
274.5000000000039
 31
0.0
  0
LINE
  5
394
330
1F
100
AcDbEntity
  8
LAY-10
  6
CONTINUOUS
 62
     7
100
AcDbLine
 10
566.4999999999899
 20
274.5000000000039
 30
0.0
 11
566.4999999999899
 21
268.9999999999939
 31
0.0
  0
LINE
  5
395
330
1F
100
AcDbEntity
  8
LAY-10
  6
CONTINUOUS
 62
     7
100
AcDbLine
 10
572.4999999999899
 20
274.5000000000039
 30
0.0
 11
572.4999999999899
 21
268.9999999999939
 31
0.0
  0
LINE
  5
396
330
1F
100
AcDbEntity
  8
LAY-10
  6
CONTINUOUS
 62
     7
100
AcDbLine
 10
396.8317381620895
 20
232.9999999999909
 30
0.0
 11
397.5504881620892
 21
255.9999999999899
 31
0.0
  0
LINE
  5
397
330
1F
100
AcDbEntity
  8
LAY-10
  6
CONTINUOUS
 62
     7
100
AcDbLine
 10
534.2000000000091
 20
231.999999999991
 30
0.0
 11
533.1682618379092
 21
232.9999999999909
 31
0.0
  0
LINE
  5
398
330
1F
100
AcDbEntity
  8
LAY-10
  6
CONTINUOUS
 62
     7
100
AcDbLine
 10
533.1682618379097
 20
232.9999999999909
 30
0.0
 11
532.44951183791
 21
255.9999999999899
 31
0.0
  0
LINE
  5
399
330
1F
100
AcDbEntity
  8
LAY-10
  6
CONTINUOUS
 62
     7
100
AcDbLine
 10
396.8317381620894
 20
232.9999999999868
 30
0.0
 11
533.1682618379098
 21
232.9999999999868
 31
0.0
  0
LINE
  5
39A
330
1F
100
AcDbEntity
  8
LAY-10
  6
CENTER
 62
     2
100
AcDbLine
 10
348.1515095359661
 20
555.0000000000099
 30
0.0
 11
583.8515095359661
 21
555.0000000000099
 31
0.0
  0
LINE
  5
39B
330
1F
100
AcDbEntity
  8
LAY-10
  6
CENTER
 62
     2
100
AcDbLine
 10
464.9999999999996
 20
436.7000000000099
 30
0.0
 11
464.9999999999996
 21
673.9000000000102
 31
0.0
  0
LINE
  5
39C
330
1F
100
AcDbEntity
  8
LAY-10
  6
CENTER
 62
     2
100
AcDbLine
 10
375.9999999999995
 20
561.00000000001
 30
0.0
 11
375.9999999999995
 21
549.00000000001
 31
0.0
  0
LINE
  5
39D
330
1F
100
AcDbEntity
  8
LAY-10
  6
CENTER
 62
     2
100
AcDbLine
 10
553.9999999999995
 20
561.00000000001
 30
0.0
 11
553.9999999999995
 21
549.00000000001
 31
0.0
  0
LINE
  5
39E
330
1F
100
AcDbEntity
  8
LAY-10
  6
CENTER
 62
     2
100
AcDbLine
 10
375.9999999999995
 20
268.32347484999
 30
0.0
 11
375.9999999999995
 21
291.92347484999
 31
0.0
  0
LINE
  5
39F
330
1F
100
AcDbEntity
  8
LAY-10
  6
CENTER
 62
     2
100
AcDbLine
 10
464.9999999999996
 20
326.92347484999
 30
0.0
 11
464.9999999999996
 21
210.42347484998
 31
0.0
  0
LINE
  5
3A0
330
1F
100
AcDbEntity
  8
LAY-10
  6
CENTER
 62
     2
100
AcDbLine
 10
585.1999999999888
 20
249.4999999999995
 30
0.0
 11
573.9999999999899
 21
249.4999999999995
 31
0.0
  0
ARC
  5
3A1
330
1F
100
AcDbEntity
  8
LAY-10
  6
CENTER
 62
     2
100
AcDbCircle
 10
573.9999999999899
 20
253.9999999999995
 30
0.0
 40
4.5
100
AcDbArc
 50
180.0
 51
270.0000000000002
  0
LINE
  5
3A2
330
1F
100
AcDbEntity
  8
LAY-10
  6
CENTER
 62
     2
100
AcDbLine
 10
569.4999999999901
 20
280.2013587594838
 30
0.0
 11
569.4999999999901
 21
253.9999999999995
 31
0.0
  0
LINE
  5
3A3
330
1F
100
AcDbEntity
  8
LAY-10
  6
CONTINUOUS
 62
     7
100
AcDbLine
 10
378.9999999999995
 20
273.0000000000162
 30
0.0
 11
378.5000000000007
 21
272.5000000000158
 31
0.0
  0
LINE
  5
3A4
330
1F
100
AcDbEntity
  8
LAY-10
  6
CONTINUOUS
 62
     7
100
AcDbLine
 10
372.9999999999998
 20
273.0000000000162
 30
0.0
 11
373.5000000000011
 21
272.5000000000158
 31
0.0
  0
LINE
  5
3A5
330
1F
100
AcDbEntity
  8
LAY-10
  6
CONTINUOUS
 62
     7
100
AcDbLine
 10
373.5000000000016
 20
286.4999999999886
 30
0.0
 11
373.5000000000016
 21
274.4999999999906
 31
0.0
  0
LINE
  5
3A6
330
1F
100
AcDbEntity
  8
LAY-10
  6
CONTINUOUS
 62
     7
100
AcDbLine
 10
378.5000000000015
 20
286.4999999999886
 30
0.0
 11
378.5000000000015
 21
274.4999999999906
 31
0.0
  0
LINE
  5
3A7
330
1F
100
AcDbEntity
  8
LAY-10
  6
CONTINUOUS
 62
     7
100
AcDbLine
 10
372.9999999999998
 20
273.0000000000162
 30
0.0
 11
372.9999999999998
 21
274.9999999999906
 31
0.0
  0
LINE
  5
3A8
330
1F
100
AcDbEntity
  8
LAY-10
  6
CONTINUOUS
 62
     7
100
AcDbLine
 10
378.9999999999995
 20
273.0000000000162
 30
0.0
 11
378.9999999999995
 21
274.9999999999906
 31
0.0
  0
LINE
  5
3A9
330
1F
100
AcDbEntity
  8
LAY-10
  6
CONTINUOUS
 62
     7
100
AcDbLine
 10
572.4999999999908
 20
276.499999999989
 30
0.0
 11
571.9999999999924
 21
276.9999999999897
 31
0.0
  0
LINE
  5
3AA
330
1F
100
AcDbEntity
  8
LAY-10
  6
CONTINUOUS
 62
     7
100
AcDbLine
 10
566.4999999999917
 20
276.499999999989
 30
0.0
 11
566.9999999999931
 21
276.9999999999897
 31
0.0
  0
LINE
  5
3AB
330
1F
100
AcDbEntity
  8
LAY-10
  6
CONTINUOUS
 62
     7
100
AcDbLine
 10
572.4999999999908
 20
276.499999999989
 30
0.0
 11
572.4999999999908
 21
274.4999999999999
 31
0.0
  0
LINE
  5
3AC
330
1F
100
AcDbEntity
  8
LAY-10
  6
CONTINUOUS
 62
     7
100
AcDbLine
 10
566.4999999999917
 20
276.499999999989
 30
0.0
 11
566.4999999999917
 21
274.4999999999999
 31
0.0
  0
LINE
  5
3AD
330
1F
100
AcDbEntity
  8
LAY-10
  6
CONTINUOUS
 62
     7
100
AcDbLine
 10
571.9999999999899
 20
274.9999999999939
 30
0.0
 11
571.9999999999899
 21
268.9999999999939
 31
0.0
  0
LINE
  5
3AE
330
1F
100
AcDbEntity
  8
LAY-10
  6
CONTINUOUS
 62
     7
100
AcDbLine
 10
566.9999999999899
 20
274.9999999999939
 30
0.0
 11
566.9999999999899
 21
268.9999999999939
 31
0.0
  0
LINE
  5
3AF
330
1F
100
AcDbEntity
  8
LAY-10
  6
CONTINUOUS
 62
     7
100
AcDbLine
 10
566.9999999999717
 20
268.1339745961989
 30
0.0
 11
566.4999999999717
 21
268.9999999999835
 31
0.0
  0
LINE
  5
3B0
330
1F
100
AcDbEntity
  8
LAY-10
  6
CONTINUOUS
 62
     7
100
AcDbLine
 10
572.0000000000019
 20
268.1339745962024
 30
0.0
 11
572.5000000000019
 21
268.999999999987
 31
0.0
  0
LINE
  5
3B1
330
1F
100
AcDbEntity
  8
LAY-10
  6
CONTINUOUS
 62
     7
100
AcDbLine
 10
396.5499999999899
 20
255.9999999999899
 30
0.0
 11
395.7999999999901
 21
231.999999999991
 31
0.0
  0
LINE
  5
3B2
330
1F
100
AcDbEntity
  8
LAY-10
  6
CONTINUOUS
 62
     7
100
AcDbLine
 10
533.4500000000093
 20
255.9999999999899
 30
0.0
 11
534.2000000000091
 21
231.999999999991
 31
0.0
  0
DIMENSION
  5
3B4
330
1F
100
AcDbEntity
  8
LAY-20
  6
CONTINUOUS
 62
     4
100
AcDbDimension
  2
*D15
 10
534.2000000000011
 20
186.99999999999
 30
0.0
 11
465.000000000001
 21
194.49999999999
 31
0.0
 70
   160
  1
Rｃ5（<>）
  3
ISO-25
100
AcDbAlignedDimension
 13
395.800000000001
 23
231.99999999999
 33
0.0
 14
534.2000000000011
 24
231.99999999999
 34
0.0
100
AcDbRotatedDimension
1001
ACAD
1000
DSTYLE
1002
{
1070
   270
1070
     2
1070
     6
1000
EX_BNORM
1070
     7
1000
EX_BNORM
1070
    41
1040
7.5
1070
    42
1040
4.5
1070
    44
1040
4.5
1070
    73
1070
     0
1070
    74
1070
     0
1070
    75
1070
     0
1070
    76
1070
     0
1070
    77
1070
     1
1070
    78
1070
     8
1070
   140
1040
9.3543312
1070
   147
1040
0.0
1070
   173
1070
     1
1070
   176
1070
     4
1070
   177
1070
     4
1070
   178
1070
     7
1070
   271
1070
     1
1070
   277
1070
     2
1070
   279
1070
     2
1070
   280
1070
     0
1070
   287
1070
     5
1070
   340
1005
3B3
1002
}
  0
DIMENSION
  5
3C2
330
1F
100
AcDbEntity
  8
LAY-20
  6
CONTINUOUS
 62
     4
100
AcDbDimension
  2
*D16
 10
321.500000000001
 20
286.99999999999
 30
0.0
 11
314.000000000001
 21
274.58432886264
 31
0.0
 70
   160
  3
ISO-25
100
AcDbAlignedDimension
 13
382.500000000001
 23
262.16865772529
 33
0.0
 14
352.500000000001
 24
286.99999999999
 34
0.0
 50
90.0
100
AcDbRotatedDimension
1001
ACAD
1000
DSTYLE
1002
{
1070
   270
1070
     2
1070
     6
1000
EX_BNORM
1070
     7
1000
EX_BNORM
1070
    41
1040
7.5
1070
    42
1040
4.5
1070
    44
1040
4.5
1070
    73
1070
     0
1070
    74
1070
     0
1070
    75
1070
     0
1070
    76
1070
     0
1070
    77
1070
     1
1070
    78
1070
     0
1070
   140
1040
9.3543312
1070
   147
1040
0.0
1070
   173
1070
     1
1070
   176
1070
     4
1070
   177
1070
     4
1070
   178
1070
     7
1070
   271
1070
     0
1070
   277
1070
     2
1070
   279
1070
     2
1070
   280
1070
     0
1070
   287
1070
     5
1070
   340
1005
3B3
1002
}
  0
DIMENSION
  5
3CF
330
1F
100
AcDbEntity
  8
LAY-20
  6
CONTINUOUS
 62
     4
100
AcDbDimension
  2
*D17
 10
578.500000000001
 20
395.99999999998
 30
0.0
 11
465.000000000001
 21
403.49999999998
 31
0.0
 70
   160
  1
%%c<>
  3
ISO-25
100
AcDbAlignedDimension
 13
351.500000000001
 23
279.99999999999
 33
0.0
 14
578.500000000001
 24
279.99999999998
 34
0.0
100
AcDbRotatedDimension
1001
ACAD
1000
DSTYLE
1002
{
1070
   270
1070
     2
1070
     6
1000
EX_BNORM
1070
     7
1000
EX_BNORM
1070
    41
1040
7.5
1070
    42
1040
4.5
1070
    44
1040
4.5
1070
    73
1070
     0
1070
    74
1070
     0
1070
    75
1070
     0
1070
    76
1070
     0
1070
    77
1070
     1
1070
    78
1070
     8
1070
   140
1040
9.3543312
1070
   147
1040
0.0
1070
   173
1070
     1
1070
   176
1070
     4
1070
   177
1070
     4
1070
   178
1070
     7
1070
   271
1070
     1
1070
   277
1070
     2
1070
   279
1070
     2
1070
   280
1070
     0
1070
   287
1070
     5
1070
   340
1005
3B3
1002
}
  0
DIMENSION
  5
3DC
330
1F
100
AcDbEntity
  8
LAY-20
  6
CONTINUOUS
 62
     4
100
AcDbDimension
  2
*D18
 10
370.500000000001
 20
374.99999999998
 30
0.0
 11
465.0000000000011
 21
382.4999999999799
 31
0.0
 70
   160
  1
%%c<>
  3
ISO-25
100
AcDbAlignedDimension
 13
559.500000000001
 23
286.99999999999
 33
0.0
 14
370.500000000001
 24
286.99999999999
 34
0.0
100
AcDbRotatedDimension
1001
ACAD
1000
DSTYLE
1002
{
1070
   270
1070
     2
1070
     6
1000
EX_BNORM
1070
     7
1000
EX_BNORM
1070
    41
1040
7.5
1070
    42
1040
4.5
1070
    44
1040
4.500000000000171
1070
    73
1070
     0
1070
    74
1070
     0
1070
    75
1070
     0
1070
    76
1070
     0
1070
    77
1070
     1
1070
    78
1070
     8
1070
   140
1040
9.3543312
1070
   147
1040
0.0
1070
   173
1070
     1
1070
   176
1070
     4
1070
   177
1070
     4
1070
   178
1070
     7
1070
   271
1070
     1
1070
   277
1070
     2
1070
   279
1070
     2
1070
   280
1070
     0
1070
   287
1070
     5
1070
   340
1005
3B3
1002
}
  0
DIMENSION
  5
3E9
330
1F
100
AcDbEntity
  8
LAY-20
  6
CONTINUOUS
 62
     4
100
AcDbDimension
  2
*D19
 10
608.5
 20
286.99999999999
 30
0.0
 11
601.0
 21
251.99999999999
 31
0.0
 70
   160
  3
ISO-25
100
AcDbAlignedDimension
 13
547.5
 23
216.99999999999
 33
0.0
 14
577.5
 24
286.99999999999
 34
0.0
 50
90.0
100
AcDbRotatedDimension
1001
ACAD
1000
DSTYLE
1002
{
1070
   270
1070
     2
1070
     6
1000
EX_BNORM
1070
     7
1000
EX_BNORM
1070
    41
1040
7.5
1070
    42
1040
4.5
1070
    44
1040
4.5
1070
    73
1070
     0
1070
    74
1070
     0
1070
    75
1070
     0
1070
    76
1070
     0
1070
    77
1070
     1
1070
    78
1070
     8
1070
   140
1040
9.3543312
1070
   147
1040
0.0
1070
   173
1070
     1
1070
   176
1070
     4
1070
   177
1070
     4
1070
   178
1070
     7
1070
   271
1070
     1
1070
   277
1070
     2
1070
   279
1070
     2
1070
   280
1070
     0
1070
   287
1070
     5
1070
   340
1005
3B3
1002
}
  0
DIMENSION
  5
3F6
330
1F
100
AcDbEntity
  8
LAY-20
  6
CONTINUOUS
 62
     4
100
AcDbDimension
  2
*D20
 10
608.5
 20
286.99999999999
 30
0.0
 11
601.0
 21
305.49999999999
 31
0.0
 70
   160
  3
ISO-25
100
AcDbAlignedDimension
 13
522.47942913438
 23
323.99999999999
 33
0.0
 14
608.5
 24
286.99999999999
 34
0.0
 50
90.0
100
AcDbRotatedDimension
1001
ACAD
1000
DSTYLE
1002
{
1070
   270
1070
     2
1070
     6
1000
EX_BNORM
1070
     7
1000
EX_BNORM
1070
    41
1040
7.5
1070
    42
1040
4.5
1070
    44
1040
4.5
1070
    73
1070
     0
1070
    74
1070
     0
1070
    75
1070
     0
1070
    76
1070
     1
1070
    77
1070
     1
1070
    78
1070
     8
1070
   140
1040
9.3543312
1070
   147
1040
0.0
1070
   173
1070
     1
1070
   176
1070
     4
1070
   177
1070
     4
1070
   178
1070
     7
1070
   271
1070
     1
1070
   277
1070
     2
1070
   279
1070
     2
1070
   280
1070
     0
1070
   287
1070
     5
1070
   340
1005
3B3
1002
}
  0
DIMENSION
  5
402
330
1F
100
AcDbEntity
  8
LAY-20
  6
CONTINUOUS
 62
     4
100
AcDbDimension
  2
*D21
 10
373.0
 20
353.99999999998
 30
0.0
 11
465.0
 21
361.49999999998
 31
0.0
 70
   160
  1
%%c<>
  3
ISO-25
100
AcDbAlignedDimension
 13
557.0
 23
283.99999999999
 33
0.0
 14
373.0
 24
286.49999999999
 34
0.0
100
AcDbRotatedDimension
1001
ACAD
1000
DSTYLE
1002
{
1070
   270
1070
     2
1070
     6
1000
EX_BNORM
1070
     7
1000
EX_BNORM
1070
    41
1040
7.5
1070
    42
1040
4.5
1070
    44
1040
4.5
1070
    73
1070
     0
1070
    74
1070
     0
1070
    75
1070
     0
1070
    76
1070
     0
1070
    77
1070
     1
1070
    78
1070
     8
1070
   140
1040
9.3543312
1070
   147
1040
0.0
1070
   173
1070
     1
1070
   176
1070
     4
1070
   177
1070
     4
1070
   178
1070
     7
1070
   271
1070
     1
1070
   277
1070
     2
1070
   279
1070
     2
1070
   280
1070
     0
1070
   287
1070
     5
1070
   340
1005
3B3
1002
}
  0
LINE
  5
40F
330
1F
100
AcDbEntity
  8
LAY-255
  6
CONTINUOUS
 62
     7
100
AcDbLine
 10
1155.0
 20
66.0
 30
0.0
 11
855.0
 21
66.0
 31
0.0
  0
LINE
  5
410
330
1F
100
AcDbEntity
  8
LAY-255
  6
CONTINUOUS
 62
     7
100
AcDbLine
 10
866.4000000000001
 20
48.0
 30
0.0
 11
890.4000000000001
 21
63.0
 31
0.0
  0
LINE
  5
411
330
1F
100
AcDbEntity
  8
LAY-255
  6
CONTINUOUS
 62
     7
100
AcDbLine
 10
890.4000000000001
 20
63.0
 30
0.0
 11
914.4000000000001
 21
48.0
 31
0.0
  0
LINE
  5
412
330
1F
100
AcDbEntity
  8
LAY-255
  6
CONTINUOUS
 62
     7
100
AcDbLine
 10
914.4000000000001
 20
48.0
 30
0.0
 11
890.4000000000001
 21
33.0
 31
0.0
  0
LINE
  5
413
330
1F
100
AcDbEntity
  8
LAY-255
  6
CONTINUOUS
 62
     7
100
AcDbLine
 10
890.4000000000001
 20
33.0
 30
0.0
 11
866.4000000000001
 21
48.0
 31
0.0
  0
LINE
  5
414
330
1F
100
AcDbEntity
  8
LAY-255
  6
CONTINUOUS
 62
     7
100
AcDbLine
 10
15.0
 20
30.0
 30
0.0
 11
1155.0
 21
30.0
 31
0.0
  0
LINE
  5
415
330
1F
100
AcDbEntity
  8
LAY-255
  6
CONTINUOUS
 62
     7
100
AcDbLine
 10
15.0
 20
840.0
 30
0.0
 11
1155.0
 21
840.0
 31
0.0
  0
LINE
  5
416
330
1F
100
AcDbEntity
  8
LAY-255
  6
CONTINUOUS
 62
     7
100
AcDbLine
 10
15.0
 20
30.0
 30
0.0
 11
15.0
 21
840.0
 31
0.0
  0
LINE
  5
417
330
1F
100
AcDbEntity
  8
LAY-255
  6
CONTINUOUS
 62
     7
100
AcDbLine
 10
1155.0
 20
30.0
 30
0.0
 11
1155.0
 21
840.0
 31
0.0
  0
LINE
  5
418
330
1F
100
AcDbEntity
  8
LAY-255
  6
CONTINUOUS
 62
     4
100
AcDbLine
 10
855.0
 20
84.0
 30
0.0
 11
1155.0
 21
84.0
 31
0.0
  0
LINE
  5
419
330
1F
100
AcDbEntity
  8
LAY-255
  6
CONTINUOUS
 62
     7
100
AcDbLine
 10
855.0
 20
30.0
 30
0.0
 11
855.0
 21
201.0
 31
0.0
  0
LINE
  5
41A
330
1F
100
AcDbEntity
  8
LAY-255
  6
CONTINUOUS
 62
     4
100
AcDbLine
 10
1005.0
 20
84.0
 30
0.0
 11
1005.0
 21
66.0
 31
0.0
  0
LINE
  5
41B
330
1F
100
AcDbEntity
  8
LAY-255
  6
CONTINUOUS
 62
     7
100
AcDbLine
 10
1155.0
 20
201.0
 30
0.0
 11
855.0
 21
201.0
 31
0.0
  0
LINE
  5
41C
330
1F
100
AcDbEntity
  8
LAY-255
  6
CONTINUOUS
 62
     4
100
AcDbLine
 10
1149.0
 20
165.0
 30
0.0
 11
861.0
 21
165.0
 31
0.0
  0
LINE
  5
41D
330
1F
100
AcDbEntity
  8
LAY-255
  6
CONTINUOUS
 62
     4
100
AcDbLine
 10
1149.0
 20
183.0
 30
0.0
 11
861.0
 21
183.0
 31
0.0
  0
POINT
  5
41E
330
1F
100
AcDbEntity
  8
LAY-255
  6
CONTINUOUS
 62
     7
100
AcDbPoint
 10
867.0
 20
150.0
 30
0.0
  0
POINT
  5
41F
330
1F
100
AcDbEntity
  8
LAY-255
  6
CONTINUOUS
 62
     7
100
AcDbPoint
 10
900.0
 20
168.0
 30
0.0
  0
POINT
  5
420
330
1F
100
AcDbEntity
  8
LAY-255
  6
CONTINUOUS
 62
     7
100
AcDbPoint
 10
900.0
 20
186.0
 30
0.0
  0
POINT
  5
421
330
1F
100
AcDbEntity
  8
LAY-255
  6
CONTINUOUS
 62
     7
100
AcDbPoint
 10
867.0
 20
120.0
 30
0.0
  0
POINT
  5
422
330
1F
100
AcDbEntity
  8
LAY-255
  6
CONTINUOUS
 62
     7
100
AcDbPoint
 10
867.0
 20
135.0
 30
0.0
  0
POINT
  5
423
330
1F
100
AcDbEntity
  8
LAY-255
  6
CONTINUOUS
 62
     7
100
AcDbPoint
 10
867.0
 20
105.0
 30
0.0
  0
POINT
  5
424
330
1F
100
AcDbEntity
  8
LAY-255
  6
CONTINUOUS
 62
     7
100
AcDbPoint
 10
867.0
 20
89.99999999999996
 30
0.0
  0
TEXT
  5
425
330
1F
100
AcDbEntity
  8
LAY-255
  6
CONTINUOUS
 62
     7
100
AcDbText
 10
924.415136826172
 20
46.63125
 30
0.0
 40
15.46875
  1
福西鋳物株式会社
 41
1.342692141742901
  7
EXCADSTD
100
AcDbText
  0
TEXT
  5
426
330
1F
100
AcDbEntity
  8
LAY-255
  6
CONTINUOUS
 62
     7
100
AcDbText
 10
925.528125
 20
35.94375
 30
0.0
 40
5.15625
  1
ＦＵＫＵＮＩＳＨＩ
 41
1.204799226045263
  7
EXCADSTD
100
AcDbText
  0
TEXT
  5
427
330
1F
100
AcDbEntity
  8
LAY-255
  6
CONTINUOUS
 62
     7
100
AcDbText
 10
998.1575892857143
 20
35.94375
 30
0.0
 40
5.15625
  1
ＦＯＵＮＤＲＹ
 41
1.243252752978497
  7
EXCADSTD
100
AcDbText
  0
TEXT
  5
428
330
1F
100
AcDbEntity
  8
LAY-255
  6
CONTINUOUS
 62
     7
100
AcDbText
 10
1055.983774651442
 20
35.94375
 30
0.0
 40
5.15625
  1
ＣＯ.,ＬＴＤ.
 41
1.243831271314936
  7
EXCADSTD
100
AcDbText
  0
TEXT
  5
429
330
1F
100
AcDbEntity
  8
LAY-255
  6
CONTINUOUS
 62
     7
100
AcDbText
 10
882.1031250000001
 20
41.15625
 30
0.0
 40
15.46875
  1
S
 41
0.7582677563636363
  7
EXCADSTD
100
AcDbText
  0
TEXT
  5
42A
330
1F
100
AcDbEntity
  8
LAY-255
  6
CONTINUOUS
 62
     7
100
AcDbText
 10
891.3140625000001
 20
41.24823113208
 30
0.0
 40
15.46875
  1
F
 41
0.7440945272727273
  7
EXCADSTD
100
AcDbText
  0
TEXT
  5
42B
330
1F
100
AcDbEntity
  8
LAY-255
  6
CONTINUOUS
 62
     7
100
AcDbText
 10
1011.31640625
 20
73.26562499999997
 30
0.0
 40
7.734375
  1
縮尺
 41
1.080708718181818
  7
EXCADSTD
100
AcDbText
  0
TEXT
  5
42C
330
1F
100
AcDbEntity
  8
LAY-255
  6
CONTINUOUS
 62
     7
100
AcDbText
 10
861.796875
 20
169.6875
 30
0.0
 40
10.3125
  1
型式
 41
1.056348480681818
  7
EXCADSTD
100
AcDbText
  0
TEXT
  5
42D
330
1F
100
AcDbEntity
  8
LAY-255
  6
CONTINUOUS
 62
     7
100
AcDbText
 10
862.265625
 20
187.6875
 30
0.0
 40
10.3125
  1
品名
 41
0.978838634090909
  7
EXCADSTD
100
AcDbText
  0
TEXT
  5
42E
330
1F
100
AcDbEntity
  8
LAY-255
  6
CONTINUOUS
 62
     7
100
AcDbText
 10
861.45703125
 20
73.26562499999997
 30
0.0
 40
7.734375
  1
作成日
 41
1.000629973818182
  7
EXCADSTD
100
AcDbText
  0
TEXT
  5
42F
330
1F
100
AcDbEntity
  8
LAY-255
  6
CONTINUOUS
 62
     7
100
AcDbText
 10
1044.84375
 20
70.68749999999997
 30
0.0
 40
10.3125
  1
１：３
 41
0.8844094952727272
  7
EXCADSTD
100
AcDbText
  0
TEXT
  5
430
330
1F
100
AcDbEntity
  8
LAY-255
  6
CONTINUOUS
 62
     7
100
AcDbText
 10
867.5625
 20
121.6875
 30
0.0
 40
10.3125
  1
施工：打込用
 41
1.018700840909091
  7
EXCADSTD
100
AcDbText
  0
TEXT
  5
431
330
1F
100
AcDbEntity
  8
LAY-255
  6
CONTINUOUS
 62
     7
100
AcDbText
 10
900.75
 20
187.6875
 30
0.0
 40
10.3125
  1
ルーフドレイン
 41
1.021169538599106
  7
EXCADSTD
100
AcDbText
  0
TEXT
  5
432
330
1F
100
AcDbEntity
  8
LAY-255
  6
CONTINUOUS
 62
     7
100
AcDbText
 10
868.125
 20
151.6875000000001
 30
0.0
 40
10.3125
  1
防水：モルタル・塗膜防水兼用
 41
1.008985320967742
  7
EXCADSTD
100
AcDbText
  0
TEXT
  5
433
330
1F
100
AcDbEntity
  8
LAY-255
  6
CONTINUOUS
 62
     7
100
AcDbText
 10
867.703125
 20
136.6875
 30
0.0
 40
10.3125
  1
用途：廊下・庇・バルコニー用
 41
1.011557076246334
  7
EXCADSTD
100
AcDbText
  0
TEXT
  5
434
330
1F
100
AcDbEntity
  8
LAY-255
  6
CONTINUOUS
 62
     7
100
AcDbText
 10
867.65625
 20
106.6875
 30
0.0
 40
10.3125
  1
接続：管用テーパねじ
 41
1.013063761157025
  7
EXCADSTD
100
AcDbText
  0
TEXT
  5
435
330
1F
100
AcDbEntity
  8
LAY-255
  6
CONTINUOUS
 62
     7
100
AcDbText
 10
902.625
 20
169.6875
 30
0.0
 40
10.3125
  1
ＲＧＸ－３１２５型
 41
0.9997508747986191
  7
EXCADSTD
100
AcDbText
  0
TEXT
  5
436
330
1F
100
AcDbEntity
  8
LAY-255
  6
CONTINUOUS
 62
     7
100
AcDbText
 10
902.671875
 20
70.68749999999997
 30
0.0
 40
10.3125
  1
０７／０１／０５
 41
0.9779528072727272
  7
EXCADSTD
100
AcDbText
  0
ENDSEC
  0
SECTION
  2
OBJECTS
  0
DICTIONARY
  5
C
330
0
100
AcDbDictionary
  3
ACAD_GROUP
350
D
  3
ACAD_LAYOUT
350
1A
  3
ACAD_MATERIAL
350
43
  3
ACAD_MLEADERSTYLE
350
6B
  3
ACAD_MLINESTYLE
350
17
  3
ACAD_PLOTSETTINGS
350
19
  3
ACAD_SCALELIST
350
47
  3
ACAD_VISUALSTYLE
350
2A
  3
ACDBHEADERROUNDTRIPXREC
350
437
  3
ACDBVARIABLEDICTIONARY
350
458
  0
DICTIONARY
  5
463
330
8
100
AcDbDictionary
280
     1
  3
ACAD_XREC_ROUNDTRIP
360
464
  0
DICTIONARY
  5
D
102
{ACAD_REACTORS
330
C
102
}
330
C
100
AcDbDictionary
  0
DICTIONARY
  5
1A
102
{ACAD_REACTORS
330
C
102
}
330
C
100
AcDbDictionary
  0
DICTIONARY
  5
43
102
{ACAD_REACTORS
330
C
102
}
330
C
100
AcDbDictionary
  3
BYBLOCK
350
45
  3
BYLAYER
350
44
  3
GLOBAL
350
46
  0
DICTIONARY
  5
6B
102
{ACAD_REACTORS
330
C
102
}
330
C
100
AcDbDictionary
  3
STANDARD
350
6C
  0
DICTIONARY
  5
17
102
{ACAD_REACTORS
330
C
102
}
330
C
100
AcDbDictionary
  3
STANDARD
350
18
  0
DICTIONARY
  5
19
102
{ACAD_REACTORS
330
C
102
}
330
C
100
AcDbDictionary
  0
DICTIONARY
  5
47
102
{ACAD_REACTORS
330
C
102
}
330
C
100
AcDbDictionary
  3
A0
350
48
  3
A1
350
49
  3
A2
350
4A
  3
A3
350
4B
  3
A4
350
4C
  3
A5
350
4D
  3
A6
350
4E
  3
A7
350
4F
  3
A8
350
50
  3
A9
350
51
  3
B0
350
52
  3
B1
350
53
  3
B2
350
54
  3
B3
350
55
  3
B4
350
56
  3
B5
350
57
  3
B6
350
58
  3
B7
350
59
  3
B8
350
5A
  3
B9
350
5B
  3
C0
350
5C
  3
C1
350
5D
  3
C2
350
5E
  3
C3
350
5F
  3
C4
350
60
  3
C5
350
61
  3
C6
350
62
  3
C7
350
63
  3
C8
350
64
  3
C9
350
65
  3
D0
350
66
  3
D1
350
67
  3
D2
350
68
  0
DICTIONARY
  5
2A
102
{ACAD_REACTORS
330
C
102
}
330
C
100
AcDbDictionary
  3
2DWIREFRAME
350
2F
  3
BASIC
350
32
  3
BRIGHTEN
350
36
  3
COLORCHANGE
350
3A
  3
CONCEPTUAL
350
34
  3
DIM
350
35
  3
EDGECOLOROFF
350
3D
  3
FACEPATTERN
350
39
  3
FLAT
350
2B
  3
FLATWITHEDGES
350
2C
  3
GOURAUD
350
2D
  3
GOURAUDWITHEDGES
350
2E
  3
HIDDEN
350
31
  3
JITTEROFF
350
3B
  3
LINEPATTERN
350
38
  3
OVERHANGOFF
350
3C
  3
REALISTIC
350
33
  3
SHADED
350
42
  3
SHADED_WITH_EDGES
350
41
  3
SHADES_OF_GRAY
350
3E
  3
SKETCHY
350
3F
  3
THICKEN
350
37
  3
WIREFRAME
350
30
  3
X-RAY
350
40
  0
DICTIONARY
  5
437
102
{ACAD_REACTORS
330
C
102
}
330
C
100
AcDbDictionary
  3
CEPSNID
350
441
  3
CEPSNTYPE
350
440
  3
DIMSTYLEDATA
350
457
  3
FINGERPRINTGUID
350
442
  3
HYPERLINKBASE
350
43A
  3
INSUNITS
350
43F
  3
LAYOUTDICT
350
43C
  3
LWETCUNION
350
43E
  3
PLOTSETDICT
350
43D
  3
PSVPSCALE
350
444
  3
PUCSBASE
350
447
  3
PUCSORGBACK
350
44D
  3
PUCSORGBOTTOM
350
449
  3
PUCSORGFRONT
350
44C
  3
PUCSORGLEFT
350
44A
  3
PUCSORGRIGHT
350
44B
  3
PUCSORGTOP
350
448
  3
PUCSORTHOREF
350
445
  3
PUCSORTHOVIEW
350
446
  3
STYLESHEET
350
43B
  3
TSTACKALIGN
350
438
  3
TSTACKSIZE
350
439
  3
UCSBASE
350
450
  3
UCSORGBACK
350
456
  3
UCSORGBOTTOM
350
452
  3
UCSORGFRONT
350
455
  3
UCSORGLEFT
350
453
  3
UCSORGRIGHT
350
454
  3
UCSORGTOP
350
451
  3
UCSORTHOREF
350
44E
  3
UCSORTHOVIEW
350
44F
  3
VERSIONGUID
350
443
  0
DICTIONARY
  5
458
102
{ACAD_REACTORS
330
C
102
}
330
C
100
AcDbDictionary
  3
CANNOSCALE
350
465
  3
CENTEREXE
350
45F
  3
CENTERLTYPEFILE
350
460
  3
CMLEADERSTYLE
350
45A
  3
CTABLESTYLE
350
459
  3
DIMASSOC
350
461
  3
HIDETEXT
350
462
  3
MSLTSCALE
350
466
  3
PSOLHEIGHT
350
45C
  3
PSOLWIDTH
350
45B
  0
XRECORD
  5
464
102
{ACAD_REACTORS
330
463
102
}
330
463
100
AcDbXrecord
102
VTR_0.000_0.000_1.000_1.000_VISUALSTYLE
340
2F
102
VTR_0.000_0.000_1.000_1.000_GRIDDISPLAY
 70
     3
102
VTR_0.000_0.000_1.000_1.000_GRIDMAJOR
 70
     5
102
VTR_0.000_0.000_1.000_1.000_DEFAULTLIGHTING
280
     1
102
VTR_0.000_0.000_1.000_1.000_DEFAULTLIGHTINGTYPE
 70
     1
102
VTR_0.000_0.000_1.000_1.000_BRIGHTNESS
141
0.0
102
VTR_0.000_0.000_1.000_1.000_CONTRAST
142
0.0
  0
MATERIAL
  5
45
102
{ACAD_REACTORS
330
43
102
}
102
{ACAD_XDICTIONARY
360
469
102
}
330
43
100
AcDbMaterial
  1
BYBLOCK
  0
MATERIAL
  5
44
102
{ACAD_REACTORS
330
43
102
}
102
{ACAD_XDICTIONARY
360
467
102
}
330
43
100
AcDbMaterial
  1
BYLAYER
  0
MATERIAL
  5
46
102
{ACAD_REACTORS
330
43
102
}
102
{ACAD_XDICTIONARY
360
46B
102
}
330
43
100
AcDbMaterial
  1
GLOBAL
  0
ACAD_PROXY_OBJECT
  5
6C
102
{ACAD_REACTORS
330
6B
102
}
330
6B
100
AcDbProxyObject
 90
      499
 91
      505
 93
      610
310
40901902A4063FBFFFFFE0000000000000020400000000000020404214DD185B99185C990000000000000104090141901A00000000000004100000000000000041025764000000000000039000
340
14
340
0
340
11
340
0
 94
        0
1001
ACAD_MLEADERVER
1070
     2
  0
MLINESTYLE
  5
18
102
{ACAD_REACTORS
330
17
102
}
330
17
100
AcDbMlineStyle
  2
Standard
 70
     0
  3

 62
   256
 51
90.0
 52
90.0
 71
     2
 49
0.5
 62
   256
  6
BYLAYER
 49
-0.5
 62
   256
  6
BYLAYER
  0
ACAD_PROXY_OBJECT
  5
48
102
{ACAD_REACTORS
330
47
102
}
330
47
100
AcDbProxyObject
 90
      499
 91
      503
 93
       41
310
903313A31580
  0
ACAD_PROXY_OBJECT
  5
49
102
{ACAD_REACTORS
330
47
102
}
330
47
100
AcDbProxyObject
 90
      499
 91
      503
 93
      105
310
903313A324000000000000004000
  0
ACAD_PROXY_OBJECT
  5
4A
102
{ACAD_REACTORS
330
47
102
}
330
47
100
AcDbProxyObject
 90
      499
 91
      503
 93
      105
310
903313A344000000000000104000
  0
ACAD_PROXY_OBJECT
  5
4B
102
{ACAD_REACTORS
330
47
102
}
330
47
100
AcDbProxyObject
 90
      499
 91
      503
 93
      105
310
903313A354000000000000144000
  0
ACAD_PROXY_OBJECT
  5
4C
102
{ACAD_REACTORS
330
47
102
}
330
47
100
AcDbProxyObject
 90
      499
 91
      503
 93
      105
310
903313A384000000000000204000
  0
ACAD_PROXY_OBJECT
  5
4D
102
{ACAD_REACTORS
330
47
102
}
330
47
100
AcDbProxyObject
 90
      499
 91
      503
 93
      113
310
904313A31304000000000000244000
  0
ACAD_PROXY_OBJECT
  5
4E
102
{ACAD_REACTORS
330
47
102
}
330
47
100
AcDbProxyObject
 90
      499
 91
      503
 93
      113
310
904313A31364000000000000304000
  0
ACAD_PROXY_OBJECT
  5
4F
102
{ACAD_REACTORS
330
47
102
}
330
47
100
AcDbProxyObject
 90
      499
 91
      503
 93
      113
310
904313A32304000000000000344000
  0
ACAD_PROXY_OBJECT
  5
50
102
{ACAD_REACTORS
330
47
102
}
330
47
100
AcDbProxyObject
 90
      499
 91
      503
 93
      113
310
904313A333040000000000003E4000
  0
ACAD_PROXY_OBJECT
  5
51
102
{ACAD_REACTORS
330
47
102
}
330
47
100
AcDbProxyObject
 90
      499
 91
      503
 93
      113
310
904313A34304000000000000444000
  0
ACAD_PROXY_OBJECT
  5
52
102
{ACAD_REACTORS
330
47
102
}
330
47
100
AcDbProxyObject
 90
      499
 91
      503
 93
      113
310
904313A35304000000000000494000
  0
ACAD_PROXY_OBJECT
  5
53
102
{ACAD_REACTORS
330
47
102
}
330
47
100
AcDbProxyObject
 90
      499
 91
      503
 93
      121
310
905313A3130304000000000000594000
  0
ACAD_PROXY_OBJECT
  5
54
102
{ACAD_REACTORS
330
47
102
}
330
47
100
AcDbProxyObject
 90
      499
 91
      503
 93
      105
310
903323A310000000000000010100
  0
ACAD_PROXY_OBJECT
  5
55
102
{ACAD_REACTORS
330
47
102
}
330
47
100
AcDbProxyObject
 90
      499
 91
      503
 93
      105
310
903343A310000000000000410100
  0
ACAD_PROXY_OBJECT
  5
56
102
{ACAD_REACTORS
330
47
102
}
330
47
100
AcDbProxyObject
 90
      499
 91
      503
 93
      105
310
903383A310000000000000810100
  0
ACAD_PROXY_OBJECT
  5
57
102
{ACAD_REACTORS
330
47
102
}
330
47
100
AcDbProxyObject
 90
      499
 91
      503
 93
      113
310
90431303A310000000000000910100
  0
ACAD_PROXY_OBJECT
  5
58
102
{ACAD_REACTORS
330
47
102
}
330
47
100
AcDbProxyObject
 90
      499
 91
      503
 93
      121
310
9053130303A310000000000001650100
  0
ACAD_PROXY_OBJECT
  5
59
102
{ACAD_REACTORS
330
47
102
}
330
47
100
AcDbProxyObject
 90
      499
 91
      503
 93
      257
310
90E312F31323822203D2031272D3022000000000000200FC000000000000284000
  0
ACAD_PROXY_OBJECT
  5
5A
102
{ACAD_REACTORS
330
47
102
}
330
47
100
AcDbProxyObject
 90
      499
 91
      503
 93
      249
310
90D312F363422203D2031272D3022000000000000240FC000000000000284000
  0
ACAD_PROXY_OBJECT
  5
5B
102
{ACAD_REACTORS
330
47
102
}
330
47
100
AcDbProxyObject
 90
      499
 91
      503
 93
      249
310
90D312F333222203D2031272D3022000000000000280FC000000000000284000
  0
ACAD_PROXY_OBJECT
  5
5C
102
{ACAD_REACTORS
330
47
102
}
330
47
100
AcDbProxyObject
 90
      499
 91
      503
 93
      249
310
90D312F313622203D2031272D30220000000000002C0FC000000000000284000
  0
ACAD_PROXY_OBJECT
  5
5D
102
{ACAD_REACTORS
330
47
102
}
330
47
100
AcDbProxyObject
 90
      499
 91
      503
 93
      249
310
90D332F333222203D2031272D30220000000000002E0FC000000000000284000
  0
ACAD_PROXY_OBJECT
  5
5E
102
{ACAD_REACTORS
330
47
102
}
330
47
100
AcDbProxyObject
 90
      499
 91
      503
 93
      241
310
90C312F3822203D2031272D3022000000000000300FC000000000000284000
  0
ACAD_PROXY_OBJECT
  5
5F
102
{ACAD_REACTORS
330
47
102
}
330
47
100
AcDbProxyObject
 90
      499
 91
      503
 93
      249
310
90D332F313622203D2031272D3022000000000000320FC000000000000284000
  0
ACAD_PROXY_OBJECT
  5
60
102
{ACAD_REACTORS
330
47
102
}
330
47
100
AcDbProxyObject
 90
      499
 91
      503
 93
      241
310
90C312F3422203D2031272D3022000000000000340FC000000000000284000
  0
ACAD_PROXY_OBJECT
  5
61
102
{ACAD_REACTORS
330
47
102
}
330
47
100
AcDbProxyObject
 90
      499
 91
      503
 93
      241
310
90C332F3822203D2031272D3022000000000000360FC000000000000284000
  0
ACAD_PROXY_OBJECT
  5
62
102
{ACAD_REACTORS
330
47
102
}
330
47
100
AcDbProxyObject
 90
      499
 91
      503
 93
      241
310
90C312F3222203D2031272D3022000000000000380FC000000000000284000
  0
ACAD_PROXY_OBJECT
  5
63
102
{ACAD_REACTORS
330
47
102
}
330
47
100
AcDbProxyObject
 90
      499
 91
      503
 93
      241
310
90C332F3422203D2031272D30220000000000003A0FC000000000000284000
  0
ACAD_PROXY_OBJECT
  5
64
102
{ACAD_REACTORS
330
47
102
}
330
47
100
AcDbProxyObject
 90
      499
 91
      503
 93
      161
310
90A3122203D2031272D30224000000000000284000
  0
ACAD_PROXY_OBJECT
  5
65
102
{ACAD_REACTORS
330
47
102
}
330
47
100
AcDbProxyObject
 90
      499
 91
      503
 93
      257
310
90E312D312F3222203D2031272D30220000000000003E0FC000000000000284000
  0
ACAD_PROXY_OBJECT
  5
66
102
{ACAD_REACTORS
330
47
102
}
330
47
100
AcDbProxyObject
 90
      499
 91
      503
 93
      225
310
90A3322203D2031272D302200000000000002100000000000000284000
  0
ACAD_PROXY_OBJECT
  5
67
102
{ACAD_REACTORS
330
47
102
}
330
47
100
AcDbProxyObject
 90
      499
 91
      503
 93
      225
310
90A3622203D2031272D302200000000000006100000000000000284000
  0
ACAD_PROXY_OBJECT
  5
68
102
{ACAD_REACTORS
330
47
102
}
330
47
100
AcDbProxyObject
 90
      499
 91
      503
 93
      249
310
90D31272D3022203D2031272D30220000000000000A100000000000000284000
  0
ACAD_PROXY_OBJECT
  5
2F
102
{ACAD_REACTORS
330
2A
102
}
330
2A
100
AcDbProxyObject
 90
      499
 91
      501
 93
      436
310
42CC9915DA5C99599C985B595049028333333333333E33F0000000000000F90107901411070040501600405405064090741402480A0340
1001
ACAD
1000
AcDbSavedByObjectVersion
1070
     0
  0
ACAD_PROXY_OBJECT
  5
32
102
{ACAD_REACTORS
330
2A
102
}
330
2A
100
AcDbProxyObject
 90
      499
 91
      501
 93
      388
310
4150985CDA58D07406404333333333333E33F0000000000000F90107A41107004050150841D405064090741402480A0350
1001
ACAD
1000
AcDbSavedByObjectVersion
1070
     0
  0
ACAD_PROXY_OBJECT
  5
36
102
{ACAD_REACTORS
330
2A
102
}
330
2A
100
AcDbProxyObject
 90
      499
 91
      501
 93
      428
310
42109C9A59DA1D195B90C409028333333333333E33F0000000000000F9010790141107004050150841D405064090741402480A029950
1001
ACAD
1000
AcDbSavedByObjectVersion
1070
     0
  0
ACAD_PROXY_OBJECT
  5
3A
102
{ACAD_REACTORS
330
2A
102
}
330
2A
100
AcDbProxyObject
 90
      499
 91
      501
 93
      452
310
42D0DBDB1BDC90DA185B99D95104090240C333333333333E33F0000000000000F90108901411070040501508421405064090741402480A0350
1001
ACAD
1000
AcDbSavedByObjectVersion
1070
     0
  0
ACAD_PROXY_OBJECT
  5
34
102
{ACAD_REACTORS
330
2A
102
}
330
2A
100
AcDbProxyObject
 90
      499
 91
      501
 93
      500
310
4290DBDB98D95C1D1D585B10940D028333333333333E33F0000000000000F90107902409070040501000000000018199010841D405064090740C02480A0340
1001
ACAD
1000
AcDbSavedByObjectVersion
1070
     0
  0
ACAD_PROXY_OBJECT
  5
35
102
{ACAD_REACTORS
330
2A
102
}
330
2A
100
AcDbProxyObject
 90
      499
 91
      501
 93
      412
310
40D11A5B50B409028333333333333E33F0000000000000F9010790141107004050150841D405064090741402480A02677FFFFFD0
1001
ACAD
1000
AcDbSavedByObjectVersion
1070
     0
  0
ACAD_PROXY_OBJECT
  5
3D
102
{ACAD_REACTORS
330
2A
102
}
330
2A
100
AcDbProxyObject
 90
      499
 91
      501
 93
      452
310
43115919D950DBDB1BDC93D999916409028333333333333E33F0000000000000F9010790141107004050150841D405064090741402480A0350
1001
ACAD
1000
AcDbSavedByObjectVersion
1070
     0
  0
ACAD_PROXY_OBJECT
  5
39
102
{ACAD_REACTORS
330
2A
102
}
330
2A
100
AcDbProxyObject
 90
      499
 91
      501
 93
      444
310
42D19858D95C185D1D195C9B90F409028333333333333E33F0000000000000F9010790141107004050150841D405064090741402480A0350
1001
ACAD
1000
AcDbSavedByObjectVersion
1070
     0
  0
ACAD_PROXY_OBJECT
  5
2B
102
{ACAD_REACTORS
330
2A
102
}
330
2A
100
AcDbProxyObject
 90
      499
 91
      501
 93
      380
310
41119B185D240901404333333333333E33F0000000000000F9010740A907004050150841D405064090741402480A1B50
1001
ACAD
1000
AcDbSavedByObjectVersion
1070
     0
  0
ACAD_PROXY_OBJECT
  5
2C
102
{ACAD_REACTORS
330
2A
102
}
330
2A
100
AcDbProxyObject
 90
      499
 91
      501
 93
      468
310
43519B185D15DA5D1A115919D95CD0140901404333333333333E33F0000000000000F90107409019070040501600405405064090741402480A1B50
1001
ACAD
1000
AcDbSavedByObjectVersion
1070
     0
  0
ACAD_PROXY_OBJECT
  5
2D
102
{ACAD_REACTORS
330
2A
102
}
330
2A
100
AcDbProxyObject
 90
      499
 91
      501
 93
      404
310
41D1DBDD5C985D5910240902404333333333333E33F0000000000000F9010740A9070040501641D405064090741402480A1B50
1001
ACAD
1000
AcDbSavedByObjectVersion
1070
     0
  0
ACAD_PROXY_OBJECT
  5
2E
102
{ACAD_REACTORS
330
2A
102
}
330
2A
100
AcDbProxyObject
 90
      499
 91
      501
 93
      492
310
4411DBDD5C985D5915DA5D1A115919D95CD0340902404333333333333E33F0000000000000F90107409019070040501600405405064090741402480A1B50
1001
ACAD
1000
AcDbSavedByObjectVersion
1070
     0
  0
ACAD_PROXY_OBJECT
  5
31
102
{ACAD_REACTORS
330
2A
102
}
330
2A
100
AcDbProxyObject
 90
      499
 91
      501
 93
      476
310
41921A5919195B90640502408333333333333E33F0000000000000F901079024090700405020000000000001110200405405064090740C02480A0340
1001
ACAD
1000
AcDbSavedByObjectVersion
1070
     0
  0
ACAD_PROXY_OBJECT
  5
3B
102
{ACAD_REACTORS
330
2A
102
}
330
2A
100
AcDbProxyObject
 90
      499
 91
      501
 93
      428
310
42529A5D1D195C93D999914409028333333333333E33F0000000000000F9010790141107004050150A41D405064090741402480A0350
1001
ACAD
1000
AcDbSavedByObjectVersion
1070
     0
  0
ACAD_PROXY_OBJECT
  5
38
102
{ACAD_REACTORS
330
2A
102
}
330
2A
100
AcDbProxyObject
 90
      499
 91
      501
 93
      444
310
42D31A5B995C185D1D195C9B90E409028333333333333E33F0000000000000F9010790141107004050750841D405064090741402483A0350
1001
ACAD
1000
AcDbSavedByObjectVersion
1070
     0
  0
ACAD_PROXY_OBJECT
  5
3C
102
{ACAD_REACTORS
330
2A
102
}
330
2A
100
AcDbProxyObject
 90
      499
 91
      501
 93
      444
310
42D3DD995C9A185B99D3D999915409028333333333333E33F0000000000000F9010790141107004050150941D405064090741402480A0350
1001
ACAD
1000
AcDbSavedByObjectVersion
1070
     0
  0
ACAD_PROXY_OBJECT
  5
33
102
{ACAD_REACTORS
330
2A
102
}
330
2A
100
AcDbProxyObject
 90
      499
 91
      501
 93
      428
310
425499585B1A5CDD1A58D08409038333333333333E33F0000000000000F9010740A907004050150800405405064090740C02480A1B40
1001
ACAD
1000
AcDbSavedByObjectVersion
1070
     0
  0
ACAD_PROXY_OBJECT
  5
42
102
{ACAD_REACTORS
330
2A
102
}
330
2A
100
AcDbProxyObject
 90
      499
 91
      501
 93
      420
310
4194DA1859195911B40902404333333333333E33F0000000000000F9010740A41107004050150800405405064090840C02480A0B40
1001
ACAD
1000
AcDbSavedByObjectVersion
1070
     0
  0
ACAD_PROXY_OBJECT
  5
41
102
{ACAD_REACTORS
330
2A
102
}
330
2A
100
AcDbProxyObject
 90
      499
 91
      501
 93
      516
310
4454DA18591959081DDA5D1A08195919D95CD1A40902404333333333333E33F0000000000000F901074090142907004050250800405405064090740C02480A0B40
1001
ACAD
1000
AcDbSavedByObjectVersion
1070
     0
  0
ACAD_PROXY_OBJECT
  5
3E
102
{ACAD_REACTORS
330
2A
102
}
330
2A
100
AcDbProxyObject
 90
      499
 91
      501
 93
      532
310
4394DA1859195CC81BD98811DC985E5174090240C333333333333E33F0000000000000F901079024090741D01000000000000111010841D405064090740C02480A0340
1001
ACAD
1000
AcDbSavedByObjectVersion
1070
     0
  0
ACAD_PROXY_OBJECT
  5
3F
102
{ACAD_REACTORS
330
2A
102
}
330
2A
100
AcDbProxyObject
 90
      499
 91
      501
 93
      476
310
41D4DAD95D18DA1E51840502408333333333333E33F0000000000000F901079024090741D01000000000000111010B41D405064090741802480A0340
1001
ACAD
1000
AcDbSavedByObjectVersion
1070
     0
  0
ACAD_PROXY_OBJECT
  5
37
102
{ACAD_REACTORS
330
2A
102
}
330
2A
100
AcDbProxyObject
 90
      499
 91
      501
 93
      412
310
41D51A1A58DAD95B90D409028333333333333E33F0000000000000F9010790141107004050150C41D405064090741402480A0350
1001
ACAD
1000
AcDbSavedByObjectVersion
1070
     0
  0
ACAD_PROXY_OBJECT
  5
30
102
{ACAD_REACTORS
330
2A
102
}
330
2A
100
AcDbProxyObject
 90
      499
 91
      501
 93
      420
310
4255DA5C99599C985B595059028333333333333E33F0000000000000F90107901411070040501600405405064090740C02480A0340
1001
ACAD
1000
AcDbSavedByObjectVersion
1070
     0
  0
ACAD_PROXY_OBJECT
  5
40
102
{ACAD_REACTORS
330
2A
102
}
330
2A
100
AcDbProxyObject
 90
      499
 91
      501
 93
      404
310
41560B54985E51940902404000000000000E03F0000000000000F9010740501907004050150841D405064090740C02480A1B40
1001
ACAD
1000
AcDbSavedByObjectVersion
1070
     0
  0
XRECORD
  5
441
102
{ACAD_REACTORS
330
437
102
}
330
437
100
AcDbXrecord
340
0
  0
XRECORD
  5
440
102
{ACAD_REACTORS
330
437
102
}
330
437
100
AcDbXrecord
 90
        0
  0
XRECORD
  5
457
102
{ACAD_REACTORS
330
437
102
}
330
437
100
AcDbXrecord
1000
DSTYLE
1002
{
1070
   340
340
11
1002
}
  0
XRECORD
  5
442
102
{ACAD_REACTORS
330
437
102
}
330
437
100
AcDbXrecord
  1
{c3c3561b-ca8c-41b4-b786-96dc55cb9cae}
  0
XRECORD
  5
43A
102
{ACAD_REACTORS
330
437
102
}
330
437
100
AcDbXrecord
  1

  0
XRECORD
  5
43F
102
{ACAD_REACTORS
330
437
102
}
330
437
100
AcDbXrecord
 90
        4
  0
XRECORD
  5
43C
102
{ACAD_REACTORS
330
437
102
}
330
437
100
AcDbXrecord
340
1A
  0
XRECORD
  5
43E
102
{ACAD_REACTORS
330
437
102
}
330
437
100
AcDbXrecord
 90
    10781
  0
XRECORD
  5
43D
102
{ACAD_REACTORS
330
437
102
}
330
437
100
AcDbXrecord
340
19
  0
XRECORD
  5
444
102
{ACAD_REACTORS
330
437
102
}
330
437
100
AcDbXrecord
 40
0.0
  0
XRECORD
  5
447
102
{ACAD_REACTORS
330
437
102
}
330
437
100
AcDbXrecord
340
0
  0
XRECORD
  5
44D
102
{ACAD_REACTORS
330
437
102
}
330
437
100
AcDbXrecord
 10
0.0
 20
0.0
 30
0.0
  0
XRECORD
  5
449
102
{ACAD_REACTORS
330
437
102
}
330
437
100
AcDbXrecord
 10
0.0
 20
0.0
 30
0.0
  0
XRECORD
  5
44C
102
{ACAD_REACTORS
330
437
102
}
330
437
100
AcDbXrecord
 10
0.0
 20
0.0
 30
0.0
  0
XRECORD
  5
44A
102
{ACAD_REACTORS
330
437
102
}
330
437
100
AcDbXrecord
 10
0.0
 20
0.0
 30
0.0
  0
XRECORD
  5
44B
102
{ACAD_REACTORS
330
437
102
}
330
437
100
AcDbXrecord
 10
0.0
 20
0.0
 30
0.0
  0
XRECORD
  5
448
102
{ACAD_REACTORS
330
437
102
}
330
437
100
AcDbXrecord
 10
0.0
 20
0.0
 30
0.0
  0
XRECORD
  5
445
102
{ACAD_REACTORS
330
437
102
}
330
437
100
AcDbXrecord
340
0
  0
XRECORD
  5
446
102
{ACAD_REACTORS
330
437
102
}
330
437
100
AcDbXrecord
 70
     0
  0
XRECORD
  5
43B
102
{ACAD_REACTORS
330
437
102
}
330
437
100
AcDbXrecord
  1

  0
XRECORD
  5
438
102
{ACAD_REACTORS
330
437
102
}
330
437
100
AcDbXrecord
 90
        1
  0
XRECORD
  5
439
102
{ACAD_REACTORS
330
437
102
}
330
437
100
AcDbXrecord
 90
       70
  0
XRECORD
  5
450
102
{ACAD_REACTORS
330
437
102
}
330
437
100
AcDbXrecord
340
0
  0
XRECORD
  5
456
102
{ACAD_REACTORS
330
437
102
}
330
437
100
AcDbXrecord
 10
0.0
 20
0.0
 30
0.0
  0
XRECORD
  5
452
102
{ACAD_REACTORS
330
437
102
}
330
437
100
AcDbXrecord
 10
0.0
 20
0.0
 30
0.0
  0
XRECORD
  5
455
102
{ACAD_REACTORS
330
437
102
}
330
437
100
AcDbXrecord
 10
0.0
 20
0.0
 30
0.0
  0
XRECORD
  5
453
102
{ACAD_REACTORS
330
437
102
}
330
437
100
AcDbXrecord
 10
0.0
 20
0.0
 30
0.0
  0
XRECORD
  5
454
102
{ACAD_REACTORS
330
437
102
}
330
437
100
AcDbXrecord
 10
0.0
 20
0.0
 30
0.0
  0
XRECORD
  5
451
102
{ACAD_REACTORS
330
437
102
}
330
437
100
AcDbXrecord
 10
0.0
 20
0.0
 30
0.0
  0
XRECORD
  5
44E
102
{ACAD_REACTORS
330
437
102
}
330
437
100
AcDbXrecord
340
0
  0
XRECORD
  5
44F
102
{ACAD_REACTORS
330
437
102
}
330
437
100
AcDbXrecord
 70
     0
  0
XRECORD
  5
443
102
{ACAD_REACTORS
330
437
102
}
330
437
100
AcDbXrecord
  1
{FAEB1C32-E019-11D5-929B-00C0DF256EC4}
  0
DICTIONARYVAR
  5
465
102
{ACAD_REACTORS
330
458
102
}
330
458
100
DictionaryVariables
280
     0
  1
1:1
  0
DICTIONARYVAR
  5
45F
102
{ACAD_REACTORS
330
458
102
}
330
458
100
DictionaryVariables
280
     0
  1
3.500000
  0
DICTIONARYVAR
  5
460
102
{ACAD_REACTORS
330
458
102
}
330
458
100
DictionaryVariables
280
     0
  1
acadiso.lin
  0
DICTIONARYVAR
  5
45A
102
{ACAD_REACTORS
330
458
102
}
330
458
100
DictionaryVariables
280
     0
  1
Standard
  0
DICTIONARYVAR
  5
459
102
{ACAD_REACTORS
330
458
102
}
330
458
100
DictionaryVariables
280
     0
  1
Standard
  0
DICTIONARYVAR
  5
461
102
{ACAD_REACTORS
330
458
102
}
330
458
100
DictionaryVariables
280
     0
  1
2
  0
DICTIONARYVAR
  5
462
102
{ACAD_REACTORS
330
458
102
}
330
458
100
DictionaryVariables
280
     0
  1
1
  0
DICTIONARYVAR
  5
466
102
{ACAD_REACTORS
330
458
102
}
330
458
100
DictionaryVariables
280
     0
  1
1
  0
DICTIONARYVAR
  5
45C
102
{ACAD_REACTORS
330
458
102
}
330
458
100
DictionaryVariables
280
     0
  1
80.000000
  0
DICTIONARYVAR
  5
45B
102
{ACAD_REACTORS
330
458
102
}
330
458
100
DictionaryVariables
280
     0
  1
5.000000
  0
DICTIONARY
  5
469
330
45
100
AcDbDictionary
280
     1
  3
ACAD_XREC_ROUNDTRIP
360
46A
  0
DICTIONARY
  5
467
330
44
100
AcDbDictionary
280
     1
  3
ACAD_XREC_ROUNDTRIP
360
468
  0
DICTIONARY
  5
46B
330
46
100
AcDbDictionary
280
     1
  3
ACAD_XREC_ROUNDTRIP
360
46C
  0
XRECORD
  5
46A
102
{ACAD_REACTORS
330
469
102
}
330
469
100
AcDbXrecord
102
MATERIAL
148
0.0
149
0.0
149
0.0
 93
        0
 94
      127
282
     0
 72
     1
 77
     1
171
     1
175
     1
179
     1
273
     0
  0
XRECORD
  5
468
102
{ACAD_REACTORS
330
467
102
}
330
467
100
AcDbXrecord
102
MATERIAL
148
0.0
149
0.0
149
0.0
 93
        0
 94
      127
282
     0
 72
     1
 77
     1
171
     1
175
     1
179
     1
273
     0
  0
XRECORD
  5
46C
102
{ACAD_REACTORS
330
46B
102
}
330
46B
100
AcDbXrecord
102
MATERIAL
148
0.0
149
0.0
149
0.0
 93
        0
 94
      127
282
     0
 72
     1
 77
     1
171
     1
175
     1
179
     1
273
     0
  0
ENDSEC
  0
EOF
