  0
SECTION
  2
HEADER
  9
$ACADVER
  1
AC1014
  9
$ACADMAINTVER
 70
     9
  9
$DWGCODEPAGE
  3
ANSI_932
  9
$INSBASE
 10
0.0
 20
0.0
 30
0.0
  9
$EXTMIN
 10
15.0
 20
30.0
 30
0.0
  9
$EXTMAX
 10
1155.0
 20
840.0
 30
0.0
  9
$LIMMIN
 10
0.0
 20
0.0
  9
$LIMMAX
 10
420.0
 20
297.0
  9
$ORTHOMODE
 70
     0
  9
$REGENMODE
 70
     1
  9
$FILLMODE
 70
     1
  9
$QTEXTMODE
 70
     0
  9
$MIRRTEXT
 70
     1
  9
$DRAGMODE
 70
     2
  9
$LTSCALE
 40
0.2
  9
$OSMODE
 70
    37
  9
$ATTMODE
 70
     1
  9
$TEXTSIZE
 40
2.5
  9
$TRACEWID
 40
1.0
  9
$TEXTSTYLE
  7
STANDARD
  9
$CLAYER
  8
LAY-10
  9
$CELTYPE
  6
BYLAYER
  9
$CECOLOR
 62
   256
  9
$CELTSCALE
 40
1.0
  9
$DELOBJ
 70
     1
  9
$DISPSILH
 70
     0
  9
$DIMSCALE
 40
1.0
  9
$DIMASZ
 40
2.5
  9
$DIMEXO
 40
0.625
  9
$DIMDLI
 40
3.75
  9
$DIMRND
 40
0.0
  9
$DIMDLE
 40
0.0
  9
$DIMEXE
 40
1.25
  9
$DIMTP
 40
0.0
  9
$DIMTM
 40
0.0
  9
$DIMTXT
 40
2.5
  9
$DIMCEN
 40
2.5
  9
$DIMTSZ
 40
0.0
  9
$DIMTOL
 70
     0
  9
$DIMLIM
 70
     0
  9
$DIMTIH
 70
     0
  9
$DIMTOH
 70
     0
  9
$DIMSE1
 70
     0
  9
$DIMSE2
 70
     0
  9
$DIMTAD
 70
     1
  9
$DIMZIN
 70
     8
  9
$DIMBLK
  1

  9
$DIMASO
 70
     1
  9
$DIMSHO
 70
     1
  9
$DIMPOST
  1

  9
$DIMAPOST
  1

  9
$DIMALT
 70
     0
  9
$DIMALTD
 70
     3
  9
$DIMALTF
 40
0.03937007874016
  9
$DIMLFAC
 40
1.0
  9
$DIMTOFL
 70
     1
  9
$DIMTVP
 40
0.0
  9
$DIMTIX
 70
     0
  9
$DIMSOXD
 70
     0
  9
$DIMSAH
 70
     0
  9
$DIMBLK1
  1

  9
$DIMBLK2
  1

  9
$DIMSTYLE
  2
ISO-25
  9
$DIMCLRD
 70
     0
  9
$DIMCLRE
 70
     0
  9
$DIMCLRT
 70
     0
  9
$DIMTFAC
 40
1.0
  9
$DIMGAP
 40
0.625
  9
$DIMJUST
 70
     0
  9
$DIMSD1
 70
     0
  9
$DIMSD2
 70
     0
  9
$DIMTOLJ
 70
     0
  9
$DIMTZIN
 70
     8
  9
$DIMALTZ
 70
     0
  9
$DIMALTTZ
 70
     0
  9
$DIMFIT
 70
     3
  9
$DIMUPT
 70
     0
  9
$DIMUNIT
 70
     2
  9
$DIMDEC
 70
     2
  9
$DIMTDEC
 70
     2
  9
$DIMALTU
 70
     2
  9
$DIMALTTD
 70
     3
  9
$DIMTXSTY
  7
STANDARD
  9
$DIMAUNIT
 70
     0
  9
$LUNITS
 70
     2
  9
$LUPREC
 70
     4
  9
$SKETCHINC
 40
1.0
  9
$FILLETRAD
 40
10.0
  9
$AUNITS
 70
     0
  9
$AUPREC
 70
     0
  9
$MENU
  1
.
  9
$ELEVATION
 40
0.0
  9
$PELEVATION
 40
0.0
  9
$THICKNESS
 40
0.0
  9
$LIMCHECK
 70
     0
  9
$CHAMFERA
 40
0.0
  9
$CHAMFERB
 40
0.0
  9
$CHAMFERC
 40
0.0
  9
$CHAMFERD
 40
0.0
  9
$SKPOLY
 70
     0
  9
$TDCREATE
 40
2459229.33739191
  9
$TDUPDATE
 40
2459229.337392361
  9
$TDINDWG
 40
0.0000000116
  9
$TDUSRTIMER
 40
0.0000000116
  9
$USRTIMER
 70
     1
  9
$ANGBASE
 50
0.0
  9
$ANGDIR
 70
     0
  9
$PDMODE
 70
     0
  9
$PDSIZE
 40
0.0
  9
$PLINEWID
 40
0.0
  9
$COORDS
 70
     1
  9
$SPLFRAME
 70
     0
  9
$SPLINETYPE
 70
     6
  9
$SPLINESEGS
 70
     8
  9
$ATTDIA
 70
     0
  9
$ATTREQ
 70
     1
  9
$HANDLING
 70
     1
  9
$HANDSEED
  5
441
  9
$SURFTAB1
 70
     6
  9
$SURFTAB2
 70
     6
  9
$SURFTYPE
 70
     6
  9
$SURFU
 70
     6
  9
$SURFV
 70
     6
  9
$UCSNAME
  2

  9
$UCSORG
 10
0.0
 20
0.0
 30
0.0
  9
$UCSXDIR
 10
1.0
 20
0.0
 30
0.0
  9
$UCSYDIR
 10
0.0
 20
1.0
 30
0.0
  9
$PUCSNAME
  2

  9
$PUCSORG
 10
0.0
 20
0.0
 30
0.0
  9
$PUCSXDIR
 10
1.0
 20
0.0
 30
0.0
  9
$PUCSYDIR
 10
0.0
 20
1.0
 30
0.0
  9
$USERI1
 70
     0
  9
$USERI2
 70
     0
  9
$USERI3
 70
     0
  9
$USERI4
 70
     0
  9
$USERI5
 70
     0
  9
$USERR1
 40
0.0
  9
$USERR2
 40
0.0
  9
$USERR3
 40
0.0
  9
$USERR4
 40
0.0
  9
$USERR5
 40
0.0
  9
$WORLDVIEW
 70
     1
  9
$SHADEDGE
 70
     3
  9
$SHADEDIF
 70
    70
  9
$TILEMODE
 70
     1
  9
$MAXACTVP
 70
    64
  9
$PINSBASE
 10
0.0
 20
0.0
 30
0.0
  9
$PLIMCHECK
 70
     0
  9
$PEXTMIN
 10
1.000000000000000E+20
 20
1.000000000000000E+20
 30
1.000000000000000E+20
  9
$PEXTMAX
 10
-1.000000000000000E+20
 20
-1.000000000000000E+20
 30
-1.000000000000000E+20
  9
$PLIMMIN
 10
0.0
 20
0.0
  9
$PLIMMAX
 10
420.0
 20
297.0
  9
$UNITMODE
 70
     0
  9
$VISRETAIN
 70
     1
  9
$PLINEGEN
 70
     0
  9
$PSLTSCALE
 70
     1
  9
$TREEDEPTH
 70
  3020
  9
$PICKSTYLE
 70
     1
  9
$CMLSTYLE
  2
STANDARD
  9
$CMLJUST
 70
     0
  9
$CMLSCALE
 40
20.0
  9
$PROXYGRAPHICS
 70
     1
  9
$MEASUREMENT
 70
     1
  0
ENDSEC
  0
SECTION
  2
CLASSES
  0
CLASS
  1
ACDBDICTIONARYWDFLT
  2
AcDbDictionaryWithDefault
  3
ObjectDBX Classes
 90
        0
280
     0
281
     0
  0
CLASS
  1
VISUALSTYLE
  2
AcDbVisualStyle
  3
ObjectDBX Classes
 90
     4095
280
     0
281
     0
  0
CLASS
  1
MATERIAL
  2
AcDbMaterial
  3
ObjectDBX Classes
 90
     1153
280
     0
281
     0
  0
CLASS
  1
SCALE
  2
AcDbScale
  3
ObjectDBX Classes
 90
     1153
280
     0
281
     0
  0
CLASS
  1
TABLESTYLE
  2
AcDbTableStyle
  3
ObjectDBX Classes
 90
     4095
280
     0
281
     0
  0
CLASS
  1
MLEADERSTYLE
  2
AcDbMLeaderStyle
  3
ACDB_MLEADERSTYLE_CLASS
 90
     4095
280
     0
281
     0
  0
CLASS
  1
SUN
  2
AcDbSun
  3
SCENEOE
 90
     1153
280
     0
281
     0
  0
CLASS
  1
DICTIONARYVAR
  2
AcDbDictionaryVar
  3
ObjectDBX Classes
 90
        0
280
     0
281
     0
  0
CLASS
  1
XRECORD
  2
AcDbXrecord
  3
ObjectDBX Classes
 90
        0
280
     0
281
     0
  0
CLASS
  1
LWPOLYLINE
  2
AcDbPolyline
  3
ObjectDBX Classes
 90
        0
280
     0
281
     1
  0
CLASS
  1
HATCH
  2
AcDbHatch
  3
ObjectDBX Classes
 90
        0
280
     0
281
     1
  0
CLASS
  1
ACDBPLACEHOLDER
  2
AcDbPlaceHolder
  3
ObjectDBX Classes
 90
        0
280
     0
281
     0
  0
CLASS
  1
LAYOUT
  2
AcDbLayout
  3
ObjectDBX Classes
 90
        0
280
     0
281
     0
  0
ENDSEC
  0
SECTION
  2
TABLES
  0
TABLE
  2
VPORT
  5
8
102
{ACAD_XDICTIONARY
360
436
102
}
330
0
100
AcDbSymbolTable
 70
     1
  0
VPORT
  5
29
330
8
100
AcDbSymbolTableRecord
100
AcDbViewportTableRecord
  2
*ACTIVE
 70
     0
 10
0.0
 20
0.0
 11
1.0
 21
1.0
 12
585.0000000000001
 22
435.0
 13
0.0
 23
0.0
 14
10.0
 24
10.0
 15
10.0
 25
10.0
 16
0.0
 26
0.0
 36
1.0
 17
0.0
 27
0.0
 37
0.0
 40
810.0
 41
1.407407407407408
 42
50.0
 43
0.0
 44
0.0
 50
0.0
 51
0.0
 71
     0
 72
  1000
 73
     1
 74
     3
 75
     0
 76
     0
 77
     0
 78
     0
  0
ENDTAB
  0
TABLE
  2
LTYPE
  5
5
330
0
100
AcDbSymbolTable
 70
     6
  0
LTYPE
  5
14
330
5
100
AcDbSymbolTableRecord
100
AcDbLinetypeTableRecord
  2
BYBLOCK
 70
     0
  3

 72
    65
 73
     0
 40
0.0
  0
LTYPE
  5
15
330
5
100
AcDbSymbolTableRecord
100
AcDbLinetypeTableRecord
  2
BYLAYER
 70
     0
  3

 72
    65
 73
     0
 40
0.0
  0
LTYPE
  5
16
330
5
100
AcDbSymbolTableRecord
100
AcDbLinetypeTableRecord
  2
CONTINUOUS
 70
     0
  3
Solid line
 72
    65
 73
     0
 40
0.0
  0
LTYPE
  5
6E
330
5
100
AcDbSymbolTableRecord
100
AcDbLinetypeTableRecord
  2
HIDDEN
 70
     0
  3
Hidden __ __ __ __ __ __ __ __ __ __ __ __ __ __
 72
    65
 73
     2
 40
9.524999999999999
 49
6.35
 74
     0
 49
-3.175
 74
     0
  0
LTYPE
  5
6F
330
5
100
AcDbSymbolTableRecord
100
AcDbLinetypeTableRecord
  2
CENTER
 70
     0
  3
Center ____ _ ____ _ ____ _ ____ _ ____ _ ____
 72
    65
 73
     4
 40
50.8
 49
31.75
 74
     0
 49
-6.35
 74
     0
 49
6.35
 74
     0
 49
-6.35
 74
     0
  0
LTYPE
  5
70
330
5
100
AcDbSymbolTableRecord
100
AcDbLinetypeTableRecord
  2
PHANTOM
 70
     0
  3
Phantom ______  __  __  ______  __  __  ______ 
 72
    65
 73
     6
 40
63.50000000000001
 49
31.75
 74
     0
 49
-6.35
 74
     0
 49
6.35
 74
     0
 49
-6.35
 74
     0
 49
6.35
 74
     0
 49
-6.35
 74
     0
  0
LTYPE
  5
71
330
5
100
AcDbSymbolTableRecord
100
AcDbLinetypeTableRecord
  2
ACAD_ISO06W100
 70
     0
  3
ISO long-dash triple-dot ____ ... ____ ... ____
 72
    65
 73
     8
 40
36.0
 49
24.0
 74
     0
 49
-3.0
 74
     0
 49
0.0
 74
     0
 49
-3.0
 74
     0
 49
0.0
 74
     0
 49
-3.0
 74
     0
 49
0.0
 74
     0
 49
-3.0
 74
     0
  0
LTYPE
  5
72
330
5
100
AcDbSymbolTableRecord
100
AcDbLinetypeTableRecord
  2
ACAD_ISO15W100
 70
     0
  3
ISO double-dash triple-dot __ __ . . . __ __ . .
 72
    65
 73
    10
 40
39.0
 49
12.0
 74
     0
 49
-3.0
 74
     0
 49
12.0
 74
     0
 49
-3.0
 74
     0
 49
0.0
 74
     0
 49
-3.0
 74
     0
 49
0.0
 74
     0
 49
-3.0
 74
     0
 49
0.0
 74
     0
 49
-3.0
 74
     0
  0
ENDTAB
  0
TABLE
  2
LAYER
  5
2
330
0
100
AcDbSymbolTable
 70
     5
  0
LAYER
  5
10
330
2
100
AcDbSymbolTableRecord
100
AcDbLayerTableRecord
  2
0
 70
     0
 62
     7
  6
CONTINUOUS
  0
LAYER
  5
75
330
2
100
AcDbSymbolTableRecord
100
AcDbLayerTableRecord
  2
LAY-10
 70
     0
 62
     7
  6
CONTINUOUS
  0
LAYER
  5
76
330
2
100
AcDbSymbolTableRecord
100
AcDbLayerTableRecord
  2
LAY-20
 70
     0
 62
     7
  6
CONTINUOUS
  0
LAYER
  5
77
330
2
100
AcDbSymbolTableRecord
100
AcDbLayerTableRecord
  2
LAY-255
 70
     0
 62
     7
  6
CONTINUOUS
  0
LAYER
  5
388
330
2
100
AcDbSymbolTableRecord
100
AcDbLayerTableRecord
  2
DEFPOINTS
 70
     0
 62
     7
  6
CONTINUOUS
  0
ENDTAB
  0
TABLE
  2
STYLE
  5
3
330
0
100
AcDbSymbolTable
 70
     4
  0
STYLE
  5
11
330
3
100
AcDbSymbolTableRecord
100
AcDbTextStyleTableRecord
  2
STANDARD
 70
     0
 40
0.0
 41
1.0
 50
0.0
 71
     0
 42
2.5
  3
simplex
  4
bigfont
  0
STYLE
  5
73
330
3
100
AcDbSymbolTableRecord
100
AcDbTextStyleTableRecord
  2
EXCADSTD
 70
     0
 40
0.0
 41
1.0
 50
0.0
 71
     0
 42
2.5
  3
simplex
  4
bigfont
  0
STYLE
  5
74
330
3
100
AcDbSymbolTableRecord
100
AcDbTextStyleTableRecord
  2
EXCADVERT
 70
     4
 40
0.0
 41
1.0
 50
0.0
 71
     0
 42
2.5
  3
simplex
  4
bigfont
  0
STYLE
  5
386
330
3
100
AcDbSymbolTableRecord
100
AcDbTextStyleTableRecord
  2
EXCADDIM1
 70
     0
 40
0.0
 41
0.84
 50
0.0
 71
     0
 42
2.5
  3
simplex
  4
bigfont
  0
ENDTAB
  0
TABLE
  2
VIEW
  5
6
330
0
100
AcDbSymbolTable
 70
     0
  0
ENDTAB
  0
TABLE
  2
UCS
  5
7
330
0
100
AcDbSymbolTable
 70
     0
  0
ENDTAB
  0
TABLE
  2
APPID
  5
9
330
0
100
AcDbSymbolTable
 70
     2
  0
APPID
  5
12
330
9
100
AcDbSymbolTableRecord
100
AcDbRegAppTableRecord
  2
ACAD
 70
     0
  0
APPID
  5
440
330
9
100
AcDbSymbolTableRecord
100
AcDbRegAppTableRecord
  2
ACAD_MLEADERVER
 70
     0
  0
ENDTAB
  0
TABLE
  2
DIMSTYLE
  5
A
330
0
100
AcDbSymbolTable
 70
     1
  0
DIMSTYLE
105
27
102
{ACAD_REACTORS
330
387
330
395
330
3A2
330
3AF
330
3BC
330
3C9
330
3D5
102
}
330
A
100
AcDbSymbolTableRecord
100
AcDbDimStyleTableRecord
  2
ISO-25
 70
     0
  3

  4

  5

  6

  7

 40
1.0
 41
2.5
 42
0.625
 43
3.75
 44
1.25
 45
0.0
 46
0.0
 47
0.0
 48
0.0
140
2.5
141
2.5
142
0.0
143
0.03937007874016
144
1.0
145
0.0
146
1.0
147
0.625
 71
     0
 72
     0
 73
     0
 74
     0
 75
     0
 76
     0
 77
     1
 78
     8
170
     0
171
     3
172
     1
173
     0
174
     0
175
     0
176
     0
177
     0
178
     0
270
     2
271
     2
272
     2
273
     2
274
     3
340
11
275
     0
280
     0
281
     0
282
     0
283
     0
284
     8
285
     0
286
     0
287
     5
288
     0
  0
ENDTAB
  0
TABLE
  2
BLOCK_RECORD
  5
1
330
0
100
AcDbSymbolTable
 70
    21
  0
BLOCK_RECORD
  5
1F
330
1
100
AcDbSymbolTableRecord
100
AcDbBlockTableRecord
  2
*MODEL_SPACE
  0
BLOCK_RECORD
  5
1B
330
1
100
AcDbSymbolTableRecord
100
AcDbBlockTableRecord
  2
*PAPER_SPACE
  0
BLOCK_RECORD
  5
78
330
1
100
AcDbSymbolTableRecord
100
AcDbBlockTableRecord
  2
EX_NORM
  0
BLOCK_RECORD
  5
7B
330
1
100
AcDbSymbolTableRecord
100
AcDbBlockTableRecord
  2
EX_BNORM
  0
BLOCK_RECORD
  5
7E
330
1
100
AcDbSymbolTableRecord
100
AcDbBlockTableRecord
  2
EX_BCIR
  0
BLOCK_RECORD
  5
81
330
1
100
AcDbSymbolTableRecord
100
AcDbBlockTableRecord
  2
EX_RCIVIL
  0
BLOCK_RECORD
  5
84
330
1
100
AcDbSymbolTableRecord
100
AcDbBlockTableRecord
  2
EX_SLANT
  0
BLOCK_RECORD
  5
87
330
1
100
AcDbSymbolTableRecord
100
AcDbBlockTableRecord
  2
EX_NONE
  0
BLOCK_RECORD
  5
8A
330
1
100
AcDbSymbolTableRecord
100
AcDbBlockTableRecord
  2
EX_CIVIL
  0
BLOCK_RECORD
  5
8D
330
1
100
AcDbSymbolTableRecord
100
AcDbBlockTableRecord
  2
EX_WCIR
  0
BLOCK_RECORD
  5
90
330
1
100
AcDbSymbolTableRecord
100
AcDbBlockTableRecord
  2
EX_WCIR2
  0
BLOCK_RECORD
  5
93
330
1
100
AcDbSymbolTableRecord
100
AcDbBlockTableRecord
  2
EX_WNORM
  0
BLOCK_RECORD
  5
96
330
1
100
AcDbSymbolTableRecord
100
AcDbBlockTableRecord
  2
EX_NNORM
  0
BLOCK_RECORD
  5
99
330
1
100
AcDbSymbolTableRecord
100
AcDbBlockTableRecord
  2
EX_BBOX
  0
BLOCK_RECORD
  5
9C
330
1
100
AcDbSymbolTableRecord
100
AcDbBlockTableRecord
  2
EX_WBOX
  0
BLOCK_RECORD
  5
9F
330
1
100
AcDbSymbolTableRecord
100
AcDbBlockTableRecord
  2
EX_INTEGRAL
  0
BLOCK_RECORD
  5
389
330
1
100
AcDbSymbolTableRecord
100
AcDbBlockTableRecord
  2
*D15
  0
BLOCK_RECORD
  5
396
330
1
100
AcDbSymbolTableRecord
100
AcDbBlockTableRecord
  2
*D16
  0
BLOCK_RECORD
  5
3A3
330
1
100
AcDbSymbolTableRecord
100
AcDbBlockTableRecord
  2
*D17
  0
BLOCK_RECORD
  5
3B0
330
1
100
AcDbSymbolTableRecord
100
AcDbBlockTableRecord
  2
*D18
  0
BLOCK_RECORD
  5
3BD
330
1
100
AcDbSymbolTableRecord
100
AcDbBlockTableRecord
  2
*D19
  0
BLOCK_RECORD
  5
3CA
330
1
100
AcDbSymbolTableRecord
100
AcDbBlockTableRecord
  2
*D20
  0
BLOCK_RECORD
  5
3D6
330
1
100
AcDbSymbolTableRecord
100
AcDbBlockTableRecord
  2
*D21
  0
ENDTAB
  0
ENDSEC
  0
SECTION
  2
BLOCKS
  0
BLOCK
  5
20
330
1F
100
AcDbEntity
  8
0
100
AcDbBlockBegin
  2
*MODEL_SPACE
 70
     0
 10
0.0
 20
0.0
 30
0.0
  3
*MODEL_SPACE
  1

  0
ENDBLK
  5
21
330
1F
100
AcDbEntity
  8
0
100
AcDbBlockEnd
  0
BLOCK
  5
1C
330
1B
100
AcDbEntity
 67
     1
  8
0
100
AcDbBlockBegin
  2
*PAPER_SPACE
 70
     0
 10
0.0
 20
0.0
 30
0.0
  3
*PAPER_SPACE
  1

  0
ENDBLK
  5
1D
330
1B
100
AcDbEntity
 67
     1
  8
0
100
AcDbBlockEnd
  0
BLOCK
  5
79
330
78
100
AcDbEntity
  8
0
100
AcDbBlockBegin
  2
EX_NORM
 70
     0
 10
0.0
 20
0.0
 30
0.0
  3
EX_NORM
  1

  0
LINE
  5
A2
330
78
100
AcDbEntity
  8
0
  6
CONTINUOUS
 62
     0
100
AcDbLine
 10
0.0
 20
0.0
 30
0.0
 11
-1.0
 21
0.0
 31
0.0
  0
LINE
  5
A3
330
78
100
AcDbEntity
  8
0
  6
CONTINUOUS
 62
     0
100
AcDbLine
 10
0.0
 20
0.0
 30
0.0
 11
-1.0
 21
0.166666667
 31
0.0
  0
LINE
  5
A4
330
78
100
AcDbEntity
  8
0
  6
CONTINUOUS
 62
     0
100
AcDbLine
 10
0.0
 20
0.0
 30
0.0
 11
-1.0
 21
-0.166666667
 31
0.0
  0
ENDBLK
  5
7A
330
78
100
AcDbEntity
  8
0
100
AcDbBlockEnd
  0
BLOCK
  5
7C
330
7B
100
AcDbEntity
  8
0
100
AcDbBlockBegin
  2
EX_BNORM
 70
     0
 10
0.0
 20
0.0
 30
0.0
  3
EX_BNORM
  1

  0
LINE
  5
A5
330
7B
100
AcDbEntity
  8
0
  6
CONTINUOUS
 62
     0
100
AcDbLine
 10
0.0
 20
0.0
 30
0.0
 11
-1.0
 21
0.0
 31
0.0
  0
LINE
  5
A6
330
7B
100
AcDbEntity
  8
0
  6
CONTINUOUS
 62
     0
100
AcDbLine
 10
0.0
 20
0.0
 30
0.0
 11
-1.0
 21
0.166666667
 31
0.0
  0
LINE
  5
A7
330
7B
100
AcDbEntity
  8
0
  6
CONTINUOUS
 62
     0
100
AcDbLine
 10
0.0
 20
0.0
 30
0.0
 11
-1.0
 21
-0.166666667
 31
0.0
  0
LINE
  5
A8
330
7B
100
AcDbEntity
  8
0
  6
CONTINUOUS
 62
     0
100
AcDbLine
 10
0.0
 20
0.0
 30
0.0
 11
-1.0
 21
0.083333333
 31
0.0
  0
LINE
  5
A9
330
7B
100
AcDbEntity
  8
0
  6
CONTINUOUS
 62
     0
100
AcDbLine
 10
0.0
 20
0.0
 30
0.0
 11
-1.0
 21
-0.083333333
 31
0.0
  0
LINE
  5
AA
330
7B
100
AcDbEntity
  8
0
  6
CONTINUOUS
 62
     0
100
AcDbLine
 10
-1.0
 20
0.166666667
 30
0.0
 11
-1.0
 21
-0.166666667
 31
0.0
  0
ENDBLK
  5
7D
330
7B
100
AcDbEntity
  8
0
100
AcDbBlockEnd
  0
BLOCK
  5
7F
330
7E
100
AcDbEntity
  8
0
100
AcDbBlockBegin
  2
EX_BCIR
 70
     0
 10
0.0
 20
0.0
 30
0.0
  3
EX_BCIR
  1

  0
LINE
  5
AB
330
7E
100
AcDbEntity
  8
0
  6
CONTINUOUS
 62
     0
100
AcDbLine
 10
0.0
 20
0.0
 30
0.0
 11
-1.0
 21
0.0
 31
0.0
  0
CIRCLE
  5
AC
330
7E
100
AcDbEntity
  8
0
  6
CONTINUOUS
 62
     0
100
AcDbCircle
 10
0.0
 20
0.0
 30
0.0
 40
0.5
  0
CIRCLE
  5
AD
330
7E
100
AcDbEntity
  8
0
  6
CONTINUOUS
 62
     0
100
AcDbCircle
 10
0.0
 20
0.0
 30
0.0
 40
0.25
  0
ENDBLK
  5
80
330
7E
100
AcDbEntity
  8
0
100
AcDbBlockEnd
  0
BLOCK
  5
82
330
81
100
AcDbEntity
  8
0
100
AcDbBlockBegin
  2
EX_RCIVIL
 70
     0
 10
0.0
 20
0.0
 30
0.0
  3
EX_RCIVIL
  1

  0
LINE
  5
AE
330
81
100
AcDbEntity
  8
0
  6
CONTINUOUS
 62
     0
100
AcDbLine
 10
0.0
 20
0.0
 30
0.0
 11
-1.0
 21
0.0
 31
0.0
  0
LINE
  5
AF
330
81
100
AcDbEntity
  8
0
  6
CONTINUOUS
 62
     0
100
AcDbLine
 10
-1.0
 20
-0.25
 30
0.0
 11
0.0
 21
-0.25
 31
0.0
  0
LINE
  5
B0
330
81
100
AcDbEntity
  8
0
  6
CONTINUOUS
 62
     0
100
AcDbLine
 10
-1.0
 20
-0.125
 30
0.0
 11
0.0
 21
-0.125
 31
0.0
  0
ENDBLK
  5
83
330
81
100
AcDbEntity
  8
0
100
AcDbBlockEnd
  0
BLOCK
  5
85
330
84
100
AcDbEntity
  8
0
100
AcDbBlockBegin
  2
EX_SLANT
 70
     0
 10
0.0
 20
0.0
 30
0.0
  3
EX_SLANT
  1

  0
LINE
  5
B1
330
84
100
AcDbEntity
  8
0
  6
CONTINUOUS
 62
     0
100
AcDbLine
 10
0.0
 20
0.0
 30
0.0
 11
-1.0
 21
0.0
 31
0.0
  0
LINE
  5
B2
330
84
100
AcDbEntity
  8
0
  6
CONTINUOUS
 62
     0
100
AcDbLine
 10
0.707106781
 20
0.707106781
 30
0.0
 11
-0.707106781
 21
-0.707106781
 31
0.0
  0
ENDBLK
  5
86
330
84
100
AcDbEntity
  8
0
100
AcDbBlockEnd
  0
BLOCK
  5
88
330
87
100
AcDbEntity
  8
0
100
AcDbBlockBegin
  2
EX_NONE
 70
     0
 10
0.0
 20
0.0
 30
0.0
  3
EX_NONE
  1

  0
LINE
  5
B3
330
87
100
AcDbEntity
  8
0
  6
CONTINUOUS
 62
     0
100
AcDbLine
 10
0.0
 20
0.0
 30
0.0
 11
-1.0
 21
0.0
 31
0.0
  0
ENDBLK
  5
89
330
87
100
AcDbEntity
  8
0
100
AcDbBlockEnd
  0
BLOCK
  5
8B
330
8A
100
AcDbEntity
  8
0
100
AcDbBlockBegin
  2
EX_CIVIL
 70
     0
 10
0.0
 20
0.0
 30
0.0
  3
EX_CIVIL
  1

  0
LINE
  5
B4
330
8A
100
AcDbEntity
  8
0
  6
CONTINUOUS
 62
     0
100
AcDbLine
 10
0.0
 20
0.0
 30
0.0
 11
-1.0
 21
0.0
 31
0.0
  0
LINE
  5
B5
330
8A
100
AcDbEntity
  8
0
  6
CONTINUOUS
 62
     0
100
AcDbLine
 10
-1.0
 20
0.25
 30
0.0
 11
0.0
 21
0.25
 31
0.0
  0
LINE
  5
B6
330
8A
100
AcDbEntity
  8
0
  6
CONTINUOUS
 62
     0
100
AcDbLine
 10
-1.0
 20
0.125
 30
0.0
 11
0.0
 21
0.125
 31
0.0
  0
ENDBLK
  5
8C
330
8A
100
AcDbEntity
  8
0
100
AcDbBlockEnd
  0
BLOCK
  5
8E
330
8D
100
AcDbEntity
  8
0
100
AcDbBlockBegin
  2
EX_WCIR
 70
     0
 10
0.0
 20
0.0
 30
0.0
  3
EX_WCIR
  1

  0
LINE
  5
B7
330
8D
100
AcDbEntity
  8
0
  6
CONTINUOUS
 62
     0
100
AcDbLine
 10
0.0
 20
0.0
 30
0.0
 11
-1.0
 21
0.0
 31
0.0
  0
CIRCLE
  5
B8
330
8D
100
AcDbEntity
  8
0
  6
CONTINUOUS
 62
     0
100
AcDbCircle
 10
0.0
 20
0.0
 30
0.0
 40
0.5
  0
ENDBLK
  5
8F
330
8D
100
AcDbEntity
  8
0
100
AcDbBlockEnd
  0
BLOCK
  5
91
330
90
100
AcDbEntity
  8
0
100
AcDbBlockBegin
  2
EX_WCIR2
 70
     0
 10
0.0
 20
0.0
 30
0.0
  3
EX_WCIR2
  1

  0
LINE
  5
B9
330
90
100
AcDbEntity
  8
0
  6
CONTINUOUS
 62
     0
100
AcDbLine
 10
-0.5
 20
0.0
 30
0.0
 11
-1.0
 21
0.0
 31
0.0
  0
CIRCLE
  5
BA
330
90
100
AcDbEntity
  8
0
  6
CONTINUOUS
 62
     0
100
AcDbCircle
 10
0.0
 20
0.0
 30
0.0
 40
0.5
  0
ENDBLK
  5
92
330
90
100
AcDbEntity
  8
0
100
AcDbBlockEnd
  0
BLOCK
  5
94
330
93
100
AcDbEntity
  8
0
100
AcDbBlockBegin
  2
EX_WNORM
 70
     0
 10
0.0
 20
0.0
 30
0.0
  3
EX_WNORM
  1

  0
LINE
  5
BB
330
93
100
AcDbEntity
  8
0
  6
CONTINUOUS
 62
     0
100
AcDbLine
 10
-1.0
 20
0.0
 30
0.0
 11
-1.0
 21
0.0
 31
0.0
  0
LINE
  5
BC
330
93
100
AcDbEntity
  8
0
  6
CONTINUOUS
 62
     0
100
AcDbLine
 10
0.0
 20
0.0
 30
0.0
 11
-1.0
 21
0.166666667
 31
0.0
  0
LINE
  5
BD
330
93
100
AcDbEntity
  8
0
  6
CONTINUOUS
 62
     0
100
AcDbLine
 10
0.0
 20
0.0
 30
0.0
 11
-1.0
 21
-0.166666667
 31
0.0
  0
LINE
  5
BE
330
93
100
AcDbEntity
  8
0
  6
CONTINUOUS
 62
     0
100
AcDbLine
 10
-1.0
 20
0.166666667
 30
0.0
 11
-1.0
 21
-0.166666667
 31
0.0
  0
ENDBLK
  5
95
330
93
100
AcDbEntity
  8
0
100
AcDbBlockEnd
  0
BLOCK
  5
97
330
96
100
AcDbEntity
  8
0
100
AcDbBlockBegin
  2
EX_NNORM
 70
     0
 10
0.0
 20
0.0
 30
0.0
  3
EX_NNORM
  1

  0
LINE
  5
BF
330
96
100
AcDbEntity
  8
0
  6
CONTINUOUS
 62
     0
100
AcDbLine
 10
0.0
 20
0.0
 30
0.0
 11
-1.0
 21
0.0
 31
0.0
  0
LINE
  5
C0
330
96
100
AcDbEntity
  8
0
  6
CONTINUOUS
 62
     0
100
AcDbLine
 10
0.0
 20
0.0
 30
0.0
 11
-1.0
 21
0.166666667
 31
0.0
  0
LINE
  5
C1
330
96
100
AcDbEntity
  8
0
  6
CONTINUOUS
 62
     0
100
AcDbLine
 10
0.0
 20
0.0
 30
0.0
 11
-1.0
 21
-0.166666667
 31
0.0
  0
LINE
  5
C2
330
96
100
AcDbEntity
  8
0
  6
CONTINUOUS
 62
     0
100
AcDbLine
 10
-1.0
 20
0.166666667
 30
0.0
 11
-1.0
 21
-0.166666667
 31
0.0
  0
ENDBLK
  5
98
330
96
100
AcDbEntity
  8
0
100
AcDbBlockEnd
  0
BLOCK
  5
9A
330
99
100
AcDbEntity
  8
0
100
AcDbBlockBegin
  2
EX_BBOX
 70
     0
 10
0.0
 20
0.0
 30
0.0
  3
EX_BBOX
  1

  0
LINE
  5
C3
330
99
100
AcDbEntity
  8
0
  6
CONTINUOUS
 62
     0
100
AcDbLine
 10
0.0
 20
0.0
 30
0.0
 11
-1.0
 21
0.0
 31
0.0
  0
LINE
  5
C4
330
99
100
AcDbEntity
  8
0
  6
CONTINUOUS
 62
     0
100
AcDbLine
 10
-0.5
 20
0.5
 30
0.0
 11
0.5
 21
0.5
 31
0.0
  0
LINE
  5
C5
330
99
100
AcDbEntity
  8
0
  6
CONTINUOUS
 62
     0
100
AcDbLine
 10
0.5
 20
0.5
 30
0.0
 11
0.5
 21
-0.5
 31
0.0
  0
LINE
  5
C6
330
99
100
AcDbEntity
  8
0
  6
CONTINUOUS
 62
     0
100
AcDbLine
 10
0.5
 20
-0.5
 30
0.0
 11
-0.5
 21
-0.5
 31
0.0
  0
LINE
  5
C7
330
99
100
AcDbEntity
  8
0
  6
CONTINUOUS
 62
     0
100
AcDbLine
 10
-0.5
 20
-0.5
 30
0.0
 11
-0.5
 21
0.5
 31
0.0
  0
LINE
  5
C8
330
99
100
AcDbEntity
  8
0
  6
CONTINUOUS
 62
     0
100
AcDbLine
 10
-0.25
 20
0.25
 30
0.0
 11
0.25
 21
0.25
 31
0.0
  0
LINE
  5
C9
330
99
100
AcDbEntity
  8
0
  6
CONTINUOUS
 62
     0
100
AcDbLine
 10
0.25
 20
0.25
 30
0.0
 11
0.25
 21
-0.25
 31
0.0
  0
LINE
  5
CA
330
99
100
AcDbEntity
  8
0
  6
CONTINUOUS
 62
     0
100
AcDbLine
 10
0.25
 20
-0.25
 30
0.0
 11
-0.25
 21
-0.25
 31
0.0
  0
LINE
  5
CB
330
99
100
AcDbEntity
  8
0
  6
CONTINUOUS
 62
     0
100
AcDbLine
 10
-0.25
 20
-0.25
 30
0.0
 11
-0.25
 21
0.25
 31
0.0
  0
ENDBLK
  5
9B
330
99
100
AcDbEntity
  8
0
100
AcDbBlockEnd
  0
BLOCK
  5
9D
330
9C
100
AcDbEntity
  8
0
100
AcDbBlockBegin
  2
EX_WBOX
 70
     0
 10
0.0
 20
0.0
 30
0.0
  3
EX_WBOX
  1

  0
LINE
  5
CC
330
9C
100
AcDbEntity
  8
0
  6
CONTINUOUS
 62
     0
100
AcDbLine
 10
-0.5
 20
0.0
 30
0.0
 11
-1.0
 21
0.0
 31
0.0
  0
LINE
  5
CD
330
9C
100
AcDbEntity
  8
0
  6
CONTINUOUS
 62
     0
100
AcDbLine
 10
-0.5
 20
0.5
 30
0.0
 11
0.5
 21
0.5
 31
0.0
  0
LINE
  5
CE
330
9C
100
AcDbEntity
  8
0
  6
CONTINUOUS
 62
     0
100
AcDbLine
 10
0.5
 20
0.5
 30
0.0
 11
0.5
 21
-0.5
 31
0.0
  0
LINE
  5
CF
330
9C
100
AcDbEntity
  8
0
  6
CONTINUOUS
 62
     0
100
AcDbLine
 10
0.5
 20
-0.5
 30
0.0
 11
-0.5
 21
-0.5
 31
0.0
  0
LINE
  5
D0
330
9C
100
AcDbEntity
  8
0
  6
CONTINUOUS
 62
     0
100
AcDbLine
 10
-0.5
 20
-0.5
 30
0.0
 11
-0.5
 21
0.5
 31
0.0
  0
ENDBLK
  5
9E
330
9C
100
AcDbEntity
  8
0
100
AcDbBlockEnd
  0
BLOCK
  5
A0
330
9F
100
AcDbEntity
  8
0
100
AcDbBlockBegin
  2
EX_INTEGRAL
 70
     0
 10
0.0
 20
0.0
 30
0.0
  3
EX_INTEGRAL
  1

  0
LINE
  5
D1
330
9F
100
AcDbEntity
  8
0
  6
CONTINUOUS
 62
     0
100
AcDbLine
 10
0.0
 20
0.0
 30
0.0
 11
-1.0
 21
0.0
 31
0.0
  0
ARC
  5
D2
330
9F
100
AcDbEntity
  8
0
  6
CONTINUOUS
 62
     0
100
AcDbCircle
 10
0.542115
 20
0.164992
 30
0.0
 40
0.56667
100
AcDbArc
 50
73.07249033629006
 51
196.9275130221199
  0
ARC
  5
D3
330
9F
100
AcDbEntity
  8
0
  6
CONTINUOUS
 62
     0
100
AcDbCircle
 10
-0.542115
 20
-0.164992
 30
0.0
 40
0.56667
100
AcDbArc
 50
253.0724869220464
 51
16.9275130559125
  0
ENDBLK
  5
A1
330
9F
100
AcDbEntity
  8
0
100
AcDbBlockEnd
  0
BLOCK
  5
38A
330
389
100
AcDbEntity
  8
0
100
AcDbBlockBegin
  2
*D15
 70
     1
 10
0.0
 20
0.0
 30
0.0
  3
*D15
  1

  0
LINE
  5
38C
330
389
100
AcDbEntity
  8
LAY-20
  6
CONTINUOUS
 62
     4
100
AcDbLine
 10
351.499999999998
 20
224.50000000001
 30
0.0
 11
351.499999999998
 21
475.5
 31
0.0
  0
LINE
  5
38D
330
389
100
AcDbEntity
  8
LAY-20
  6
CONTINUOUS
 62
     4
100
AcDbLine
 10
578.4999999999981
 20
224.5
 30
0.0
 11
578.4999999999981
 21
475.5
 31
0.0
  0
LINE
  5
38E
330
389
100
AcDbEntity
  8
LAY-20
  6
CONTINUOUS
 62
     4
100
AcDbLine
 10
358.999999999998
 20
471.0
 30
0.0
 11
570.9999999999981
 21
471.0
 31
0.0
  0
INSERT
  5
38F
330
389
100
AcDbEntity
  8
LAY-20
 62
     4
100
AcDbBlockReference
  2
EX_BNORM
 10
351.499999999998
 20
471.0
 30
0.0
 41
7.5
 42
7.5
 43
7.5
 50
180.0
  0
INSERT
  5
390
330
389
100
AcDbEntity
  8
LAY-20
 62
     4
100
AcDbBlockReference
  2
EX_BNORM
 10
578.4999999999981
 20
471.0
 30
0.0
 41
7.5
 42
7.5
 43
7.5
  0
MTEXT
  5
391
330
389
100
AcDbEntity
  8
LAY-20
 62
     7
100
AcDbMText
 10
464.9999999999981
 20
478.5
 30
0.0
 40
9.3543312
 41
0.0
 71
     5
 72
     1
  1
%%c227
  7
EXCADDIM1
  0
POINT
  5
392
330
389
100
AcDbEntity
  8
DEFPOINTS
 62
     0
100
AcDbPoint
 10
351.499999999998
 20
220.00000000001
 30
0.0
  0
POINT
  5
393
330
389
100
AcDbEntity
  8
DEFPOINTS
 62
     0
100
AcDbPoint
 10
578.4999999999981
 20
220.0
 30
0.0
  0
POINT
  5
394
330
389
100
AcDbEntity
  8
DEFPOINTS
 62
     0
100
AcDbPoint
 10
578.4999999999981
 20
471.0
 30
0.0
  0
ENDBLK
  5
38B
330
389
100
AcDbEntity
  8
0
100
AcDbBlockEnd
  0
BLOCK
  5
397
330
396
100
AcDbEntity
  8
0
100
AcDbBlockBegin
  2
*D16
 70
     1
 10
0.0
 20
0.0
 30
0.0
  3
*D16
  1

  0
LINE
  5
399
330
396
100
AcDbEntity
  8
LAY-20
  6
CONTINUOUS
 62
     4
100
AcDbLine
 10
395.7999999999981
 20
167.50000000001
 30
0.0
 11
395.7999999999981
 21
122.50000000001
 31
0.0
  0
LINE
  5
39A
330
396
100
AcDbEntity
  8
LAY-20
  6
CONTINUOUS
 62
     4
100
AcDbLine
 10
534.1999999999981
 20
167.50000000001
 30
0.0
 11
534.1999999999981
 21
122.50000000001
 31
0.0
  0
LINE
  5
39B
330
396
100
AcDbEntity
  8
LAY-20
  6
CONTINUOUS
 62
     4
100
AcDbLine
 10
403.2999999999981
 20
127.00000000001
 30
0.0
 11
526.6999999999981
 21
127.00000000001
 31
0.0
  0
INSERT
  5
39C
330
396
100
AcDbEntity
  8
LAY-20
 62
     4
100
AcDbBlockReference
  2
EX_BNORM
 10
395.7999999999981
 20
127.00000000001
 30
0.0
 41
7.5
 42
7.5
 43
7.5
 50
180.0
  0
INSERT
  5
39D
330
396
100
AcDbEntity
  8
LAY-20
 62
     4
100
AcDbBlockReference
  2
EX_BNORM
 10
534.1999999999981
 20
127.00000000001
 30
0.0
 41
7.5
 42
7.5
 43
7.5
  0
MTEXT
  5
39E
330
396
100
AcDbEntity
  8
LAY-20
 62
     7
100
AcDbMText
 10
464.9999999999981
 20
134.50000000001
 30
0.0
 40
9.3543312
 41
0.0
 71
     5
 72
     1
  1
Rｃ5（138.4）
  7
EXCADDIM1
  0
POINT
  5
39F
330
396
100
AcDbEntity
  8
DEFPOINTS
 62
     0
100
AcDbPoint
 10
395.7999999999981
 20
172.00000000001
 30
0.0
  0
POINT
  5
3A0
330
396
100
AcDbEntity
  8
DEFPOINTS
 62
     0
100
AcDbPoint
 10
534.1999999999981
 20
172.00000000001
 30
0.0
  0
POINT
  5
3A1
330
396
100
AcDbEntity
  8
DEFPOINTS
 62
     0
100
AcDbPoint
 10
534.1999999999981
 20
127.00000000001
 30
0.0
  0
ENDBLK
  5
398
330
396
100
AcDbEntity
  8
0
100
AcDbBlockEnd
  0
BLOCK
  5
3A4
330
3A3
100
AcDbEntity
  8
0
100
AcDbBlockBegin
  2
*D17
 70
     1
 10
0.0
 20
0.0
 30
0.0
  3
*D17
  1

  0
LINE
  5
3A6
330
3A3
100
AcDbEntity
  8
LAY-20
  6
CONTINUOUS
 62
     4
100
AcDbLine
 10
377.9999999999981
 20
202.1686577253101
 30
0.0
 11
316.999999999998
 21
202.1686577253101
 31
0.0
  0
LINE
  5
3A7
330
3A3
100
AcDbEntity
  8
LAY-20
  6
CONTINUOUS
 62
     4
100
AcDbLine
 10
347.9999999999981
 20
227.00000000001
 30
0.0
 11
316.999999999998
 21
227.00000000001
 31
0.0
  0
LINE
  5
3A8
330
3A3
100
AcDbEntity
  8
LAY-20
  6
CONTINUOUS
 62
     4
100
AcDbLine
 10
321.499999999998
 20
209.6686577253101
 30
0.0
 11
321.499999999998
 21
219.50000000001
 31
0.0
  0
INSERT
  5
3A9
330
3A3
100
AcDbEntity
  8
LAY-20
 62
     4
100
AcDbBlockReference
  2
EX_BNORM
 10
321.499999999998
 20
202.1686577253101
 30
0.0
 41
7.5
 42
7.5
 43
7.5
 50
270.0
  0
INSERT
  5
3AA
330
3A3
100
AcDbEntity
  8
LAY-20
 62
     4
100
AcDbBlockReference
  2
EX_BNORM
 10
321.499999999998
 20
227.00000000001
 30
0.0
 41
7.5
 42
7.5
 43
7.5
 50
90.0
  0
MTEXT
  5
3AB
330
3A3
100
AcDbEntity
  8
LAY-20
 62
     7
100
AcDbMText
 10
313.999999999998
 20
214.58432886266
 30
0.0
 40
9.3543312
 41
0.0
 71
     5
 72
     1
  1
25
  7
EXCADDIM1
 11
0.0
 21
1.0
 31
0.0
  0
POINT
  5
3AC
330
3A3
100
AcDbEntity
  8
DEFPOINTS
 62
     0
100
AcDbPoint
 10
382.4999999999981
 20
202.1686577253101
 30
0.0
  0
POINT
  5
3AD
330
3A3
100
AcDbEntity
  8
DEFPOINTS
 62
     0
100
AcDbPoint
 10
352.4999999999981
 20
227.00000000001
 30
0.0
  0
POINT
  5
3AE
330
3A3
100
AcDbEntity
  8
DEFPOINTS
 62
     0
100
AcDbPoint
 10
321.499999999998
 20
227.00000000001
 30
0.0
  0
ENDBLK
  5
3A5
330
3A3
100
AcDbEntity
  8
0
100
AcDbBlockEnd
  0
BLOCK
  5
3B1
330
3B0
100
AcDbEntity
  8
0
100
AcDbBlockBegin
  2
*D18
 70
     1
 10
0.0
 20
0.0
 30
0.0
  3
*D18
  1

  0
LINE
  5
3B3
330
3B0
100
AcDbEntity
  8
LAY-20
  6
CONTINUOUS
 62
     4
100
AcDbLine
 10
559.4999999999981
 20
231.50000000001
 30
0.0
 11
559.4999999999981
 21
454.5000000000002
 31
0.0
  0
LINE
  5
3B4
330
3B0
100
AcDbEntity
  8
LAY-20
  6
CONTINUOUS
 62
     4
100
AcDbLine
 10
370.4999999999981
 20
231.50000000001
 30
0.0
 11
370.4999999999981
 21
454.5000000000002
 31
0.0
  0
LINE
  5
3B5
330
3B0
100
AcDbEntity
  8
LAY-20
  6
CONTINUOUS
 62
     4
100
AcDbLine
 10
551.9999999999981
 20
450.0
 30
0.0
 11
377.9999999999981
 21
450.0
 31
0.0
  0
INSERT
  5
3B6
330
3B0
100
AcDbEntity
  8
LAY-20
 62
     4
100
AcDbBlockReference
  2
EX_BNORM
 10
559.4999999999981
 20
450.0
 30
0.0
 41
7.5
 42
7.5
 43
7.5
  0
INSERT
  5
3B7
330
3B0
100
AcDbEntity
  8
LAY-20
 62
     4
100
AcDbBlockReference
  2
EX_BNORM
 10
370.4999999999981
 20
450.0
 30
0.0
 41
7.5
 42
7.5
 43
7.5
 50
180.0
  0
MTEXT
  5
3B8
330
3B0
100
AcDbEntity
  8
LAY-20
 62
     7
100
AcDbMText
 10
464.9999999999981
 20
457.4999999999999
 30
0.0
 40
9.3543312
 41
0.0
 71
     5
 72
     1
  1
%%c189
  7
EXCADDIM1
  0
POINT
  5
3B9
330
3B0
100
AcDbEntity
  8
DEFPOINTS
 62
     0
100
AcDbPoint
 10
559.4999999999981
 20
227.00000000001
 30
0.0
  0
POINT
  5
3BA
330
3B0
100
AcDbEntity
  8
DEFPOINTS
 62
     0
100
AcDbPoint
 10
370.4999999999981
 20
227.00000000001
 30
0.0
  0
POINT
  5
3BB
330
3B0
100
AcDbEntity
  8
DEFPOINTS
 62
     0
100
AcDbPoint
 10
370.4999999999981
 20
450.0
 30
0.0
  0
ENDBLK
  5
3B2
330
3B0
100
AcDbEntity
  8
0
100
AcDbBlockEnd
  0
BLOCK
  5
3BE
330
3BD
100
AcDbEntity
  8
0
100
AcDbBlockBegin
  2
*D19
 70
     1
 10
0.0
 20
0.0
 30
0.0
  3
*D19
  1

  0
LINE
  5
3C0
330
3BD
100
AcDbEntity
  8
LAY-20
  6
CONTINUOUS
 62
     4
100
AcDbLine
 10
552.0
 20
157.00000000001
 30
0.0
 11
612.99999999999
 21
157.00000000001
 31
0.0
  0
LINE
  5
3C1
330
3BD
100
AcDbEntity
  8
LAY-20
  6
CONTINUOUS
 62
     4
100
AcDbLine
 10
582.0
 20
227.00000000001
 30
0.0
 11
612.99999999999
 21
227.00000000001
 31
0.0
  0
LINE
  5
3C2
330
3BD
100
AcDbEntity
  8
LAY-20
  6
CONTINUOUS
 62
     4
100
AcDbLine
 10
608.49999999999
 20
164.50000000001
 30
0.0
 11
608.49999999999
 21
219.50000000001
 31
0.0
  0
INSERT
  5
3C3
330
3BD
100
AcDbEntity
  8
LAY-20
 62
     4
100
AcDbBlockReference
  2
EX_BNORM
 10
608.49999999999
 20
157.00000000001
 30
0.0
 41
7.5
 42
7.5
 43
7.5
 50
270.0
  0
INSERT
  5
3C4
330
3BD
100
AcDbEntity
  8
LAY-20
 62
     4
100
AcDbBlockReference
  2
EX_BNORM
 10
608.49999999999
 20
227.00000000001
 30
0.0
 41
7.5
 42
7.5
 43
7.5
 50
90.0
  0
MTEXT
  5
3C5
330
3BD
100
AcDbEntity
  8
LAY-20
 62
     7
100
AcDbMText
 10
600.99999999999
 20
192.0000000000099
 30
0.0
 40
9.3543312
 41
0.0
 71
     5
 72
     1
  1
70
  7
EXCADDIM1
 11
0.0
 21
1.0
 31
0.0
  0
POINT
  5
3C6
330
3BD
100
AcDbEntity
  8
DEFPOINTS
 62
     0
100
AcDbPoint
 10
547.5
 20
157.00000000001
 30
0.0
  0
POINT
  5
3C7
330
3BD
100
AcDbEntity
  8
DEFPOINTS
 62
     0
100
AcDbPoint
 10
577.5
 20
227.00000000001
 30
0.0
  0
POINT
  5
3C8
330
3BD
100
AcDbEntity
  8
DEFPOINTS
 62
     0
100
AcDbPoint
 10
608.49999999999
 20
227.00000000001
 30
0.0
  0
ENDBLK
  5
3BF
330
3BD
100
AcDbEntity
  8
0
100
AcDbBlockEnd
  0
BLOCK
  5
3CB
330
3CA
100
AcDbEntity
  8
0
100
AcDbBlockBegin
  2
*D20
 70
     1
 10
0.0
 20
0.0
 30
0.0
  3
*D20
  1

  0
LINE
  5
3CD
330
3CA
100
AcDbEntity
  8
LAY-20
  6
CONTINUOUS
 62
     4
100
AcDbLine
 10
469.5
 20
399.00000000001
 30
0.0
 11
612.99999999999
 21
399.00000000001
 31
0.0
  0
LINE
  5
3CE
330
3CA
100
AcDbEntity
  8
LAY-20
  6
CONTINUOUS
 62
     4
100
AcDbLine
 10
608.49999999999
 20
234.50000000001
 30
0.0
 11
608.49999999999
 21
391.50000000001
 31
0.0
  0
INSERT
  5
3CF
330
3CA
100
AcDbEntity
  8
LAY-20
 62
     4
100
AcDbBlockReference
  2
EX_BNORM
 10
608.49999999999
 20
227.00000000001
 30
0.0
 41
7.5
 42
7.5
 43
7.5
 50
270.0
  0
INSERT
  5
3D0
330
3CA
100
AcDbEntity
  8
LAY-20
 62
     4
100
AcDbBlockReference
  2
EX_BNORM
 10
608.49999999999
 20
399.00000000001
 30
0.0
 41
7.5
 42
7.5
 43
7.5
 50
90.0
  0
MTEXT
  5
3D1
330
3CA
100
AcDbEntity
  8
LAY-20
 62
     7
100
AcDbMText
 10
600.99999999999
 20
313.00000000001
 30
0.0
 40
9.3543312
 41
0.0
 71
     5
 72
     1
  1
172
  7
EXCADDIM1
 11
0.0
 21
1.0
 31
0.0
  0
POINT
  5
3D2
330
3CA
100
AcDbEntity
  8
DEFPOINTS
 62
     0
100
AcDbPoint
 10
608.49999999999
 20
227.00000000001
 30
0.0
  0
POINT
  5
3D3
330
3CA
100
AcDbEntity
  8
DEFPOINTS
 62
     0
100
AcDbPoint
 10
465.0
 20
399.00000000001
 30
0.0
  0
POINT
  5
3D4
330
3CA
100
AcDbEntity
  8
DEFPOINTS
 62
     0
100
AcDbPoint
 10
608.49999999999
 20
399.00000000001
 30
0.0
  0
ENDBLK
  5
3CC
330
3CA
100
AcDbEntity
  8
0
100
AcDbBlockEnd
  0
BLOCK
  5
3D7
330
3D6
100
AcDbEntity
  8
0
100
AcDbBlockBegin
  2
*D21
 70
     1
 10
0.0
 20
0.0
 30
0.0
  3
*D21
  1

  0
LINE
  5
3D9
330
3D6
100
AcDbEntity
  8
LAY-20
  6
CONTINUOUS
 62
     4
100
AcDbLine
 10
557.0
 20
228.50000000001
 30
0.0
 11
557.0
 21
433.5
 31
0.0
  0
LINE
  5
3DA
330
3D6
100
AcDbEntity
  8
LAY-20
  6
CONTINUOUS
 62
     4
100
AcDbLine
 10
373.0
 20
228.50000000001
 30
0.0
 11
373.0
 21
433.5
 31
0.0
  0
LINE
  5
3DB
330
3D6
100
AcDbEntity
  8
LAY-20
  6
CONTINUOUS
 62
     4
100
AcDbLine
 10
549.5
 20
429.0
 30
0.0
 11
380.5
 21
429.0
 31
0.0
  0
INSERT
  5
3DC
330
3D6
100
AcDbEntity
  8
LAY-20
 62
     4
100
AcDbBlockReference
  2
EX_BNORM
 10
557.0
 20
429.0
 30
0.0
 41
7.5
 42
7.5
 43
7.5
  0
INSERT
  5
3DD
330
3D6
100
AcDbEntity
  8
LAY-20
 62
     4
100
AcDbBlockReference
  2
EX_BNORM
 10
373.0
 20
429.0
 30
0.0
 41
7.5
 42
7.5
 43
7.5
 50
180.0
  0
MTEXT
  5
3DE
330
3D6
100
AcDbEntity
  8
LAY-20
 62
     7
100
AcDbMText
 10
465.0
 20
436.5
 30
0.0
 40
9.3543312
 41
0.0
 71
     5
 72
     1
  1
%%c184
  7
EXCADDIM1
  0
POINT
  5
3DF
330
3D6
100
AcDbEntity
  8
DEFPOINTS
 62
     0
100
AcDbPoint
 10
557.0
 20
224.00000000001
 30
0.0
  0
POINT
  5
3E0
330
3D6
100
AcDbEntity
  8
DEFPOINTS
 62
     0
100
AcDbPoint
 10
373.0
 20
224.00000000001
 30
0.0
  0
POINT
  5
3E1
330
3D6
100
AcDbEntity
  8
DEFPOINTS
 62
     0
100
AcDbPoint
 10
373.0
 20
429.0
 30
0.0
  0
ENDBLK
  5
3D8
330
3D6
100
AcDbEntity
  8
0
100
AcDbBlockEnd
  0
ENDSEC
  0
SECTION
  2
ENTITIES
  0
LINE
  5
D4
330
1F
100
AcDbEntity
  8
LAY-10
  6
CONTINUOUS
 62
     7
100
AcDbLine
 10
382.4999999999948
 20
199.4264068711996
 30
0.0
 11
385.2422508541037
 21
202.1686577253084
 31
0.0
  0
LINE
  5
D5
330
1F
100
AcDbEntity
  8
LAY-10
  6
CONTINUOUS
 62
     7
100
AcDbLine
 10
382.4999999999923
 20
196.5979797464509
 30
0.0
 11
387.9999999999932
 21
202.0979797464519
 31
0.0
  0
LINE
  5
D6
330
1F
100
AcDbEntity
  8
LAY-10
  6
CONTINUOUS
 62
     7
100
AcDbLine
 10
382.4999999999935
 20
193.7695526217059
 30
0.0
 11
387.9999999999945
 21
199.2695526217069
 31
0.0
  0
LINE
  5
D7
330
1F
100
AcDbEntity
  8
LAY-10
  6
CONTINUOUS
 62
     7
100
AcDbLine
 10
382.4999999999948
 20
190.941125496961
 30
0.0
 11
387.9999999999958
 21
196.4411254969619
 31
0.0
  0
LINE
  5
D8
330
1F
100
AcDbEntity
  8
LAY-10
  6
CONTINUOUS
 62
     7
100
AcDbLine
 10
382.4999999999923
 20
188.1126983722123
 30
0.0
 11
387.9999999999932
 21
193.6126983722132
 31
0.0
  0
LINE
  5
D9
330
1F
100
AcDbEntity
  8
LAY-10
  6
CONTINUOUS
 62
     7
100
AcDbLine
 10
382.4999999999936
 20
185.2842712474673
 30
0.0
 11
387.9999999999945
 21
190.7842712474683
 31
0.0
  0
LINE
  5
DA
330
1F
100
AcDbEntity
  8
LAY-10
  6
CONTINUOUS
 62
     7
100
AcDbLine
 10
382.4999999999949
 20
182.4558441227225
 30
0.0
 11
387.9999999999958
 21
187.9558441227234
 31
0.0
  0
LINE
  5
DB
330
1F
100
AcDbEntity
  8
LAY-10
  6
CONTINUOUS
 62
     7
100
AcDbLine
 10
382.4999999999923
 20
179.6274169979736
 30
0.0
 11
387.9999999999932
 21
185.1274169979746
 31
0.0
  0
LINE
  5
DC
330
1F
100
AcDbEntity
  8
LAY-10
  6
CONTINUOUS
 62
     7
100
AcDbLine
 10
382.4999999999936
 20
176.7989898732288
 30
0.0
 11
387.9999999999945
 21
182.2989898732297
 31
0.0
  0
LINE
  5
DD
330
1F
100
AcDbEntity
  8
LAY-10
  6
CONTINUOUS
 62
     7
100
AcDbLine
 10
382.4999999999949
 20
173.9705627484839
 30
0.0
 11
387.9999999999959
 21
179.4705627484848
 31
0.0
  0
LINE
  5
DE
330
1F
100
AcDbEntity
  8
LAY-10
  6
CONTINUOUS
 62
     7
100
AcDbLine
 10
382.4999999999923
 20
171.142135623735
 30
0.0
 11
387.9999999999933
 21
176.642135623736
 31
0.0
  0
LINE
  5
DF
330
1F
100
AcDbEntity
  8
LAY-10
  6
CONTINUOUS
 62
     7
100
AcDbLine
 10
382.4999999999936
 20
168.3137084989902
 30
0.0
 11
387.9999999999946
 21
173.8137084989912
 31
0.0
  0
LINE
  5
E0
330
1F
100
AcDbEntity
  8
LAY-10
  6
CONTINUOUS
 62
     7
100
AcDbLine
 10
382.4999999999949
 20
165.4852813742452
 30
0.0
 11
387.9999999999959
 21
170.9852813742462
 31
0.0
  0
LINE
  5
E1
330
1F
100
AcDbEntity
  8
LAY-10
  6
CONTINUOUS
 62
     7
100
AcDbLine
 10
382.4999999999962
 20
162.6568542495003
 30
0.0
 11
387.9999999999972
 21
168.1568542495012
 31
0.0
  0
LINE
  5
E2
330
1F
100
AcDbEntity
  8
LAY-10
  6
CONTINUOUS
 62
     7
100
AcDbLine
 10
382.4999999999936
 20
159.8284271247516
 30
0.0
 11
387.9999999999946
 21
165.3284271247525
 31
0.0
  0
LINE
  5
E3
330
1F
100
AcDbEntity
  8
LAY-10
  6
CONTINUOUS
 62
     7
100
AcDbLine
 10
382.4999999999988
 20
157.0000000000105
 30
0.0
 11
387.999999999992
 21
162.5000000000038
 31
0.0
  0
LINE
  5
E4
330
1F
100
AcDbEntity
  8
LAY-10
  6
CONTINUOUS
 62
     7
100
AcDbLine
 10
385.3284271247398
 20
157.0000000000053
 30
0.0
 11
387.9999999999934
 21
159.6715728752588
 31
0.0
  0
LINE
  5
E5
330
1F
100
AcDbEntity
  8
LAY-10
  6
CONTINUOUS
 62
     7
100
AcDbLine
 10
541.9999999999909
 20
199.4264068711957
 30
0.0
 11
544.7422508541036
 21
202.1686577253084
 31
0.0
  0
LINE
  5
E6
330
1F
100
AcDbEntity
  8
LAY-10
  6
CONTINUOUS
 62
     7
100
AcDbLine
 10
541.9999999999923
 20
196.5979797464509
 30
0.0
 11
547.499999999997
 21
202.0979797464556
 31
0.0
  0
LINE
  5
E7
330
1F
100
AcDbEntity
  8
LAY-10
  6
CONTINUOUS
 62
     7
100
AcDbLine
 10
541.9999999999935
 20
193.7695526217059
 30
0.0
 11
547.4999999999944
 21
199.2695526217069
 31
0.0
  0
LINE
  5
E8
330
1F
100
AcDbEntity
  8
LAY-10
  6
CONTINUOUS
 62
     7
100
AcDbLine
 10
541.999999999991
 20
190.9411254969572
 30
0.0
 11
547.4999999999958
 21
196.4411254969619
 31
0.0
  0
LINE
  5
E9
330
1F
100
AcDbEntity
  8
LAY-10
  6
CONTINUOUS
 62
     7
100
AcDbLine
 10
541.9999999999923
 20
188.1126983722123
 30
0.0
 11
547.499999999997
 21
193.612698372217
 31
0.0
  0
LINE
  5
EA
330
1F
100
AcDbEntity
  8
LAY-10
  6
CONTINUOUS
 62
     7
100
AcDbLine
 10
541.9999999999936
 20
185.2842712474673
 30
0.0
 11
547.4999999999945
 21
190.7842712474683
 31
0.0
  0
LINE
  5
EB
330
1F
100
AcDbEntity
  8
LAY-10
  6
CONTINUOUS
 62
     7
100
AcDbLine
 10
541.9999999999948
 20
182.4558441227224
 30
0.0
 11
547.4999999999958
 21
187.9558441227233
 31
0.0
  0
LINE
  5
EC
330
1F
100
AcDbEntity
  8
LAY-10
  6
CONTINUOUS
 62
     7
100
AcDbLine
 10
541.9999999999924
 20
179.6274169979736
 30
0.0
 11
547.4999999999932
 21
185.1274169979746
 31
0.0
  0
LINE
  5
ED
330
1F
100
AcDbEntity
  8
LAY-10
  6
CONTINUOUS
 62
     7
100
AcDbLine
 10
541.9999999999936
 20
176.7989898732287
 30
0.0
 11
547.4999999999945
 21
182.2989898732296
 31
0.0
  0
LINE
  5
EE
330
1F
100
AcDbEntity
  8
LAY-10
  6
CONTINUOUS
 62
     7
100
AcDbLine
 10
541.9999999999949
 20
173.9705627484838
 30
0.0
 11
547.4999999999958
 21
179.4705627484848
 31
0.0
  0
LINE
  5
EF
330
1F
100
AcDbEntity
  8
LAY-10
  6
CONTINUOUS
 62
     7
100
AcDbLine
 10
541.9999999999924
 20
171.142135623735
 30
0.0
 11
547.4999999999972
 21
176.6421356237399
 31
0.0
  0
LINE
  5
F0
330
1F
100
AcDbEntity
  8
LAY-10
  6
CONTINUOUS
 62
     7
100
AcDbLine
 10
541.9999999999936
 20
168.3137084989901
 30
0.0
 11
547.4999999999907
 21
173.8137084989872
 31
0.0
  0
LINE
  5
F1
330
1F
100
AcDbEntity
  8
LAY-10
  6
CONTINUOUS
 62
     7
100
AcDbLine
 10
541.999999999995
 20
165.4852813742452
 30
0.0
 11
547.499999999992
 21
170.9852813742423
 31
0.0
  0
LINE
  5
F2
330
1F
100
AcDbEntity
  8
LAY-10
  6
CONTINUOUS
 62
     7
100
AcDbLine
 10
541.9999999999961
 20
162.6568542495003
 30
0.0
 11
547.4999999999972
 21
168.1568542495012
 31
0.0
  0
LINE
  5
F3
330
1F
100
AcDbEntity
  8
LAY-10
  6
CONTINUOUS
 62
     7
100
AcDbLine
 10
541.9999999999936
 20
159.8284271247516
 30
0.0
 11
547.4999999999908
 21
165.3284271247486
 31
0.0
  0
LINE
  5
F4
330
1F
100
AcDbEntity
  8
LAY-10
  6
CONTINUOUS
 62
     7
100
AcDbLine
 10
541.9999999999989
 20
157.0000000000105
 30
0.0
 11
547.499999999992
 21
162.5000000000036
 31
0.0
  0
LINE
  5
F5
330
1F
100
AcDbEntity
  8
LAY-10
  6
CONTINUOUS
 62
     7
100
AcDbLine
 10
544.8284271247437
 20
157.0000000000092
 30
0.0
 11
547.4999999999933
 21
159.6715728752588
 31
0.0
  0
CIRCLE
  5
F6
330
1F
100
AcDbEntity
  8
LAY-10
  6
CONTINUOUS
 62
     7
100
AcDbCircle
 10
464.9999999999997
 20
615.0000000000099
 30
0.0
 40
113.5
  0
LINE
  5
F7
330
1F
100
AcDbEntity
  8
LAY-10
  6
CONTINUOUS
 62
     7
100
AcDbLine
 10
367.4182978890997
 20
634.4438014065989
 30
0.0
 11
372.5136836458745
 21
633.4816513693734
 31
0.0
  0
LINE
  5
F8
330
1F
100
AcDbEntity
  8
LAY-10
  6
CONTINUOUS
 62
     7
100
AcDbLine
 10
369.191434583683
 20
633.0546058629726
 30
0.0
 11
371.1569474147487
 21
632.6842156026729
 31
0.0
  0
LINE
  5
F9
330
1F
100
AcDbEntity
  8
LAY-10
  6
CONTINUOUS
 62
     7
100
AcDbLine
 10
372.1345058700502
 20
632.5000000000097
 30
0.0
 11
372.5136836458745
 21
633.4816513693734
 31
0.0
  0
LINE
  5
FA
330
1F
100
AcDbEntity
  8
LAY-10
  6
CONTINUOUS
 62
     7
100
AcDbLine
 10
368.2036913037035
 20
633.2407407407503
 30
0.0
 11
367.4182978890996
 21
634.4438014065989
 31
0.0
  0
ARC
  5
FB
330
1F
100
AcDbEntity
  8
LAY-10
  6
CONTINUOUS
 62
     7
100
AcDbCircle
 10
464.9999999999997
 20
615.0000000000099
 30
0.0
 40
98.49999999999777
100
AcDbArc
 50
169.9157300382264
 51
190.084269961774
  0
ARC
  5
FC
330
1F
100
AcDbEntity
  8
LAY-10
  6
CONTINUOUS
 62
     7
100
AcDbCircle
 10
464.9999999999997
 20
615.0000000000099
 30
0.0
 40
94.49999999999818
100
AcDbArc
 50
169.9280374850027
 51
190.0719625149979
  0
LINE
  5
FD
330
1F
100
AcDbEntity
  8
LAY-10
  6
CONTINUOUS
 62
     7
100
AcDbLine
 10
372.1345058700502
 20
597.5000000000094
 30
0.0
 11
372.5136836458745
 21
596.5183486306458
 31
0.0
  0
LINE
  5
FE
330
1F
100
AcDbEntity
  8
LAY-10
  6
CONTINUOUS
 62
     7
100
AcDbLine
 10
368.2036913037035
 20
596.7592592592688
 30
0.0
 11
367.4182978890996
 21
595.5561985934203
 31
0.0
  0
LINE
  5
FF
330
1F
100
AcDbEntity
  8
LAY-10
  6
CONTINUOUS
 62
     7
100
AcDbLine
 10
369.1914345836831
 20
596.9453941370466
 30
0.0
 11
371.1569474147489
 21
597.3157843973462
 31
0.0
  0
LINE
  5
100
330
1F
100
AcDbEntity
  8
LAY-10
  6
CONTINUOUS
 62
     7
100
AcDbLine
 10
367.4182978890997
 20
595.5561985934203
 30
0.0
 11
372.5136836458745
 21
596.5183486306458
 31
0.0
  0
ARC
  5
101
330
1F
100
AcDbEntity
  8
LAY-10
  6
CONTINUOUS
 62
     7
100
AcDbCircle
 10
464.9999999999997
 20
615.0000000000099
 30
0.0
 40
99.49999999999665
100
AcDbArc
 50
168.7310270193871
 51
191.2689729806132
  0
ARC
  5
102
330
1F
100
AcDbEntity
  8
LAY-10
  6
CONTINUOUS
 62
     7
100
AcDbCircle
 10
464.9999999999997
 20
615.0000000000099
 30
0.0
 40
94.31484586264234
100
AcDbArc
 50
191.3006325006111
 51
198.6993674993888
  0
LINE
  5
103
330
1F
100
AcDbEntity
  8
LAY-10
  6
CONTINUOUS
 62
     7
100
AcDbLine
 10
375.8261229484686
 20
583.7226975012626
 30
0.0
 11
375.6636748502013
 21
584.7624214127032
 31
0.0
  0
LINE
  5
104
330
1F
100
AcDbEntity
  8
LAY-10
  6
CONTINUOUS
 62
     7
100
AcDbLine
 10
372.0515673060762
 20
582.3987905171888
 30
0.0
 11
370.7698663241398
 21
583.0479749088058
 31
0.0
  0
LINE
  5
105
330
1F
100
AcDbEntity
  8
LAY-10
  6
CONTINUOUS
 62
     7
100
AcDbLine
 10
373.0000455178445
 20
582.7314646244928
 30
0.0
 11
374.8874246911617
 21
583.3934536652919
 31
0.0
  0
LINE
  5
106
330
1F
100
AcDbEntity
  8
LAY-10
  6
CONTINUOUS
 62
     7
100
AcDbLine
 10
370.76986632414
 20
583.0479749088058
 30
0.0
 11
375.6636748502013
 21
584.7624214127032
 31
0.0
  0
LINE
  5
107
330
1F
100
AcDbEntity
  8
LAY-10
  6
CONTINUOUS
 62
     7
100
AcDbLine
 10
393.3261229484686
 20
553.4118083688071
 30
0.0
 11
394.1453262195649
 21
552.7512622331907
 31
0.0
  0
LINE
  5
108
330
1F
100
AcDbEntity
  8
LAY-10
  6
CONTINUOUS
 62
     7
100
AcDbLine
 10
390.292308046817
 20
550.8049007865342
 30
0.0
 11
390.2136677307292
 21
549.3703229803135
 31
0.0
  0
LINE
  5
109
330
1F
100
AcDbEntity
  8
LAY-10
  6
CONTINUOUS
 62
     7
100
AcDbLine
 10
391.0546513808079
 20
551.45996995921
 30
0.0
 11
392.5716402938249
 21
552.7634937494764
 31
0.0
  0
LINE
  5
10A
330
1F
100
AcDbEntity
  8
LAY-10
  6
CONTINUOUS
 62
     7
100
AcDbLine
 10
390.2136677307292
 20
549.3703229803135
 30
0.0
 11
394.1453262195649
 21
552.7512622331907
 31
0.0
  0
ARC
  5
10B
330
1F
100
AcDbEntity
  8
LAY-10
  6
CONTINUOUS
 62
     7
100
AcDbCircle
 10
464.9999999999994
 20
615.0000000000099
 30
0.0
 40
94.49999999999818
100
AcDbArc
 50
199.9280374850026
 51
220.0719625149976
  0
ARC
  5
10C
330
1F
100
AcDbEntity
  8
LAY-10
  6
CONTINUOUS
 62
     7
100
AcDbCircle
 10
464.9999999999994
 20
615.0000000000099
 30
0.0
 40
99.49999999999665
100
AcDbArc
 50
198.7310270193869
 51
221.2689729806132
  0
ARC
  5
10D
330
1F
100
AcDbEntity
  8
LAY-10
  6
CONTINUOUS
 62
     7
100
AcDbCircle
 10
464.9999999999994
 20
615.0000000000099
 30
0.0
 40
98.49999999999777
100
AcDbArc
 50
199.915730038226
 51
220.0842699617741
  0
LINE
  5
10E
330
1F
100
AcDbEntity
  8
LAY-10
  6
CONTINUOUS
 62
     7
100
AcDbLine
 10
403.411808368797
 20
543.3261229484787
 30
0.0
 11
402.7512622331806
 21
544.1453262195749
 31
0.0
  0
LINE
  5
10F
330
1F
100
AcDbEntity
  8
LAY-10
  6
CONTINUOUS
 62
     7
100
AcDbLine
 10
400.8049007865241
 20
540.2923080468269
 30
0.0
 11
399.3703229803035
 21
540.2136677307393
 31
0.0
  0
LINE
  5
110
330
1F
100
AcDbEntity
  8
LAY-10
  6
CONTINUOUS
 62
     7
100
AcDbLine
 10
401.4599699591998
 20
541.0546513808175
 30
0.0
 11
402.7634937494665
 21
542.5716402938351
 31
0.0
  0
LINE
  5
111
330
1F
100
AcDbEntity
  8
LAY-10
  6
CONTINUOUS
 62
     7
100
AcDbLine
 10
399.3703229803035
 20
540.2136677307393
 30
0.0
 11
402.7512622331806
 21
544.1453262195749
 31
0.0
  0
LINE
  5
112
330
1F
100
AcDbEntity
  8
LAY-10
  6
CONTINUOUS
 62
     7
100
AcDbLine
 10
433.7226975012525
 20
525.8261229484788
 30
0.0
 11
434.7624214126934
 21
525.6636748502114
 31
0.0
  0
LINE
  5
113
330
1F
100
AcDbEntity
  8
LAY-10
  6
CONTINUOUS
 62
     7
100
AcDbLine
 10
432.3987905171787
 20
522.0515673060862
 30
0.0
 11
433.0479749087957
 21
520.7698663241498
 31
0.0
  0
LINE
  5
114
330
1F
100
AcDbEntity
  8
LAY-10
  6
CONTINUOUS
 62
     7
100
AcDbLine
 10
432.7314646244827
 20
523.0000455178549
 30
0.0
 11
433.3934536652817
 21
524.8874246911718
 31
0.0
  0
LINE
  5
115
330
1F
100
AcDbEntity
  8
LAY-10
  6
CONTINUOUS
 62
     7
100
AcDbLine
 10
433.0479749087957
 20
520.7698663241498
 30
0.0
 11
434.7624214126934
 21
525.6636748502114
 31
0.0
  0
ARC
  5
116
330
1F
100
AcDbEntity
  8
LAY-10
  6
CONTINUOUS
 62
     7
100
AcDbCircle
 10
464.9999999999991
 20
615.0000000000099
 30
0.0
 40
94.49999999999818
100
AcDbArc
 50
229.9280374850025
 51
250.0719625149978
  0
ARC
  5
117
330
1F
100
AcDbEntity
  8
LAY-10
  6
CONTINUOUS
 62
     7
100
AcDbCircle
 10
464.9999999999991
 20
615.0000000000099
 30
0.0
 40
99.49999999999665
100
AcDbArc
 50
228.7310270193872
 51
251.2689729806133
  0
ARC
  5
118
330
1F
100
AcDbEntity
  8
LAY-10
  6
CONTINUOUS
 62
     7
100
AcDbCircle
 10
464.9999999999991
 20
615.0000000000099
 30
0.0
 40
98.49999999999777
100
AcDbArc
 50
229.9157300382264
 51
250.0842699617744
  0
LINE
  5
119
330
1F
100
AcDbEntity
  8
LAY-10
  6
CONTINUOUS
 62
     7
100
AcDbLine
 10
393.3261229484688
 20
676.5881916312126
 30
0.0
 11
394.145326219565
 21
677.2487377668289
 31
0.0
  0
LINE
  5
11A
330
1F
100
AcDbEntity
  8
LAY-10
  6
CONTINUOUS
 62
     7
100
AcDbLine
 10
390.292308046817
 20
679.1950992134852
 30
0.0
 11
390.2136677307292
 21
680.6296770197062
 31
0.0
  0
LINE
  5
11B
330
1F
100
AcDbEntity
  8
LAY-10
  6
CONTINUOUS
 62
     7
100
AcDbLine
 10
391.0546513808076
 20
678.5400300408097
 30
0.0
 11
392.5716402938249
 21
677.2365062505432
 31
0.0
  0
LINE
  5
11C
330
1F
100
AcDbEntity
  8
LAY-10
  6
CONTINUOUS
 62
     7
100
AcDbLine
 10
390.2136677307294
 20
680.6296770197062
 30
0.0
 11
394.145326219565
 21
677.2487377668289
 31
0.0
  0
LINE
  5
11D
330
1F
100
AcDbEntity
  8
LAY-10
  6
CONTINUOUS
 62
     7
100
AcDbLine
 10
375.8261229484689
 20
646.2773024987571
 30
0.0
 11
375.6636748502013
 21
645.2375785873161
 31
0.0
  0
LINE
  5
11E
330
1F
100
AcDbEntity
  8
LAY-10
  6
CONTINUOUS
 62
     7
100
AcDbLine
 10
372.0515673060762
 20
647.6012094828308
 30
0.0
 11
370.76986632414
 21
646.9520250912138
 31
0.0
  0
LINE
  5
11F
330
1F
100
AcDbEntity
  8
LAY-10
  6
CONTINUOUS
 62
     7
100
AcDbLine
 10
373.000045517845
 20
647.2685353755269
 30
0.0
 11
374.8874246911619
 21
646.6065463347278
 31
0.0
  0
LINE
  5
120
330
1F
100
AcDbEntity
  8
LAY-10
  6
CONTINUOUS
 62
     7
100
AcDbLine
 10
370.76986632414
 20
646.9520250912138
 30
0.0
 11
375.6636748502013
 21
645.2375785873161
 31
0.0
  0
ARC
  5
121
330
1F
100
AcDbEntity
  8
LAY-10
  6
CONTINUOUS
 62
     7
100
AcDbCircle
 10
464.9999999999998
 20
615.0000000000105
 30
0.0
 40
94.49999999999818
100
AcDbArc
 50
139.928037485003
 51
160.0719625149978
  0
ARC
  5
122
330
1F
100
AcDbEntity
  8
LAY-10
  6
CONTINUOUS
 62
     7
100
AcDbCircle
 10
464.9999999999998
 20
615.0000000000105
 30
0.0
 40
99.49999999999665
100
AcDbArc
 50
138.7310270193872
 51
161.2689729806135
  0
ARC
  5
123
330
1F
100
AcDbEntity
  8
LAY-10
  6
CONTINUOUS
 62
     7
100
AcDbCircle
 10
464.9999999999998
 20
615.0000000000105
 30
0.0
 40
98.49999999999777
100
AcDbArc
 50
139.9157300382265
 51
160.0842699617742
  0
LINE
  5
124
330
1F
100
AcDbEntity
  8
LAY-10
  6
CONTINUOUS
 62
     7
100
AcDbLine
 10
433.7226975012525
 20
704.1738770515402
 30
0.0
 11
434.7624214126934
 21
704.3363251498077
 31
0.0
  0
LINE
  5
125
330
1F
100
AcDbEntity
  8
LAY-10
  6
CONTINUOUS
 62
     7
100
AcDbLine
 10
432.3987905171787
 20
707.9484326939329
 30
0.0
 11
433.0479749087957
 21
709.2301336758692
 31
0.0
  0
LINE
  5
126
330
1F
100
AcDbEntity
  8
LAY-10
  6
CONTINUOUS
 62
     7
100
AcDbLine
 10
432.7314646244827
 20
706.9999544821643
 30
0.0
 11
433.3934536652817
 21
705.1125753088475
 31
0.0
  0
LINE
  5
127
330
1F
100
AcDbEntity
  8
LAY-10
  6
CONTINUOUS
 62
     7
100
AcDbLine
 10
433.0479749087957
 20
709.2301336758692
 30
0.0
 11
434.7624214126934
 21
704.3363251498077
 31
0.0
  0
LINE
  5
128
330
1F
100
AcDbEntity
  8
LAY-10
  6
CONTINUOUS
 62
     7
100
AcDbLine
 10
403.4118083687972
 20
686.6738770515403
 30
0.0
 11
402.7512622331809
 21
685.8546737804442
 31
0.0
  0
LINE
  5
129
330
1F
100
AcDbEntity
  8
LAY-10
  6
CONTINUOUS
 62
     7
100
AcDbLine
 10
400.8049007865243
 20
689.707691953192
 30
0.0
 11
399.3703229803035
 21
689.7863322692798
 31
0.0
  0
LINE
  5
12A
330
1F
100
AcDbEntity
  8
LAY-10
  6
CONTINUOUS
 62
     7
100
AcDbLine
 10
401.4599699592
 20
688.9453486192011
 30
0.0
 11
402.7634937494665
 21
687.4283597061839
 31
0.0
  0
LINE
  5
12B
330
1F
100
AcDbEntity
  8
LAY-10
  6
CONTINUOUS
 62
     7
100
AcDbLine
 10
399.3703229803035
 20
689.7863322692797
 30
0.0
 11
402.7512622331809
 21
685.8546737804442
 31
0.0
  0
ARC
  5
12C
330
1F
100
AcDbEntity
  8
LAY-10
  6
CONTINUOUS
 62
     7
100
AcDbCircle
 10
465.0000000000001
 20
615.0000000000098
 30
0.0
 40
94.49999999999818
100
AcDbArc
 50
109.9280374850029
 51
130.071962514998
  0
ARC
  5
12D
330
1F
100
AcDbEntity
  8
LAY-10
  6
CONTINUOUS
 62
     7
100
AcDbCircle
 10
465.0000000000001
 20
615.0000000000098
 30
0.0
 40
99.49999999999665
100
AcDbArc
 50
108.7310270193872
 51
131.2689729806132
  0
ARC
  5
12E
330
1F
100
AcDbEntity
  8
LAY-10
  6
CONTINUOUS
 62
     7
100
AcDbCircle
 10
465.0000000000001
 20
615.0000000000098
 30
0.0
 40
98.49999999999777
100
AcDbArc
 50
109.9157300382267
 51
130.0842699617743
  0
LINE
  5
12F
330
1F
100
AcDbEntity
  8
LAY-10
  6
CONTINUOUS
 62
     7
100
AcDbLine
 10
482.4999999999996
 20
707.8654941299593
 30
0.0
 11
483.4816513693632
 21
707.4863163541348
 31
0.0
  0
LINE
  5
130
330
1F
100
AcDbEntity
  8
LAY-10
  6
CONTINUOUS
 62
     7
100
AcDbLine
 10
483.2407407407403
 20
711.796308696306
 30
0.0
 11
484.4438014065889
 21
712.5817021109101
 31
0.0
  0
LINE
  5
131
330
1F
100
AcDbEntity
  8
LAY-10
  6
CONTINUOUS
 62
     7
100
AcDbLine
 10
483.0546058629626
 20
710.8085654163267
 30
0.0
 11
482.6842156026631
 21
708.8430525852608
 31
0.0
  0
LINE
  5
132
330
1F
100
AcDbEntity
  8
LAY-10
  6
CONTINUOUS
 62
     7
100
AcDbLine
 10
484.4438014065889
 20
712.5817021109098
 30
0.0
 11
483.4816513693632
 21
707.4863163541348
 31
0.0
  0
LINE
  5
133
330
1F
100
AcDbEntity
  8
LAY-10
  6
CONTINUOUS
 62
     7
100
AcDbLine
 10
447.4999999999997
 20
707.8654941299593
 30
0.0
 11
446.5183486306361
 21
707.4863163541348
 31
0.0
  0
LINE
  5
134
330
1F
100
AcDbEntity
  8
LAY-10
  6
CONTINUOUS
 62
     7
100
AcDbLine
 10
446.759259259259
 20
711.796308696306
 30
0.0
 11
445.5561985934103
 21
712.5817021109101
 31
0.0
  0
LINE
  5
135
330
1F
100
AcDbEntity
  8
LAY-10
  6
CONTINUOUS
 62
     7
100
AcDbLine
 10
446.9453941370367
 20
710.8085654163264
 30
0.0
 11
447.3157843973364
 21
708.8430525852606
 31
0.0
  0
LINE
  5
136
330
1F
100
AcDbEntity
  8
LAY-10
  6
CONTINUOUS
 62
     7
100
AcDbLine
 10
445.5561985934103
 20
712.5817021109098
 30
0.0
 11
446.5183486306361
 21
707.4863163541348
 31
0.0
  0
ARC
  5
137
330
1F
100
AcDbEntity
  8
LAY-10
  6
CONTINUOUS
 62
     7
100
AcDbCircle
 10
465.0000000000001
 20
615.0000000000099
 30
0.0
 40
94.49999999999818
100
AcDbArc
 50
79.92803748500282
 51
100.0719625149978
  0
ARC
  5
138
330
1F
100
AcDbEntity
  8
LAY-10
  6
CONTINUOUS
 62
     7
100
AcDbCircle
 10
465.0000000000001
 20
615.0000000000099
 30
0.0
 40
99.49999999999665
100
AcDbArc
 50
78.73102701938714
 51
101.2689729806134
  0
ARC
  5
139
330
1F
100
AcDbEntity
  8
LAY-10
  6
CONTINUOUS
 62
     7
100
AcDbCircle
 10
465.0000000000001
 20
615.0000000000099
 30
0.0
 40
98.49999999999777
100
AcDbArc
 50
79.91573003822649
 51
100.0842699617742
  0
ARC
  5
13A
330
1F
100
AcDbEntity
  8
LAY-10
  6
CONTINUOUS
 62
     7
100
AcDbCircle
 10
464.9999999999997
 20
615.0000000000099
 30
0.0
 40
94.31484586264234
100
AcDbArc
 50
101.3006325006111
 51
108.6993674993905
  0
ARC
  5
13B
330
1F
100
AcDbEntity
  8
LAY-10
  6
CONTINUOUS
 62
     7
100
AcDbCircle
 10
464.9999999999997
 20
615.0000000000099
 30
0.0
 40
94.31484586264234
100
AcDbArc
 50
131.30063250061
 51
138.699367499389
  0
ARC
  5
13C
330
1F
100
AcDbEntity
  8
LAY-10
  6
CONTINUOUS
 62
     7
100
AcDbCircle
 10
464.9999999999997
 20
615.0000000000099
 30
0.0
 40
94.31484586264234
100
AcDbArc
 50
161.300632500611
 51
168.6993674993892
  0
ARC
  5
13D
330
1F
100
AcDbEntity
  8
LAY-10
  6
CONTINUOUS
 62
     7
100
AcDbCircle
 10
464.9999999999997
 20
615.0000000000099
 30
0.0
 40
94.31484586264234
100
AcDbArc
 50
221.3006325006111
 51
228.6993674993888
  0
LINE
  5
13E
330
1F
100
AcDbEntity
  8
LAY-10
  6
CONTINUOUS
 62
     7
100
AcDbLine
 10
371.1107822029345
 20
621.0000000000098
 30
0.0
 11
371.7531079072522
 21
621.6632396920206
 31
0.0
  0
LINE
  5
13F
330
1F
100
AcDbEntity
  8
LAY-10
  6
CONTINUOUS
 62
     7
100
AcDbLine
 10
371.1107822029345
 20
609.0000000000098
 30
0.0
 11
371.7531079072522
 21
608.3367603079986
 31
0.0
  0
ARC
  5
140
330
1F
100
AcDbEntity
  8
LAY-10
  6
CONTINUOUS
 62
     7
100
AcDbCircle
 10
465.0000000000001
 20
615.0000000000099
 30
0.0
 40
94.0807377657336
100
AcDbArc
 50
87.56323953726202
 51
92.43676046273828
  0
LINE
  5
141
330
1F
100
AcDbEntity
  8
LAY-10
  6
CONTINUOUS
 62
     7
100
AcDbLine
 10
469.6999999999996
 20
708.366437482382
 30
0.0
 11
468.9999999999996
 21
708.9956659561847
 31
0.0
  0
LINE
  5
142
330
1F
100
AcDbEntity
  8
LAY-10
  6
CONTINUOUS
 62
     7
100
AcDbLine
 10
460.2999999999996
 20
708.366437482382
 30
0.0
 11
460.9999999999997
 21
708.9956659561847
 31
0.0
  0
ARC
  5
143
330
1F
100
AcDbEntity
  8
LAY-10
  6
CONTINUOUS
 62
     7
100
AcDbCircle
 10
464.9999999999997
 20
615.0000000000099
 30
0.0
 40
93.48465996167317
100
AcDbArc
 50
92.88179619803931
 51
175.9127036464069
  0
ARC
  5
144
330
1F
100
AcDbEntity
  8
LAY-10
  6
CONTINUOUS
 62
     7
100
AcDbCircle
 10
482.0719022213758
 20
710.9937506015117
 30
0.0
 40
1.0
100
AcDbArc
 50
349.3280707142489
 51
79.91573003822677
  0
ARC
  5
145
330
1F
100
AcDbEntity
  8
LAY-10
  6
CONTINUOUS
 62
     7
100
AcDbCircle
 10
481.7015119610763
 20
709.0282377704461
 30
0.0
 40
1.0
100
AcDbArc
 50
259.928037484999
 51
349.3280707142285
  0
ARC
  5
146
330
1F
100
AcDbEntity
  8
LAY-10
  6
CONTINUOUS
 62
     7
100
AcDbCircle
 10
448.2984880389232
 20
709.0282377704458
 30
0.0
 40
1.0
100
AcDbArc
 50
190.671929285764
 51
280.071962514987
  0
ARC
  5
147
330
1F
100
AcDbEntity
  8
LAY-10
  6
CONTINUOUS
 62
     7
100
AcDbCircle
 10
447.9280977786235
 20
710.9937506015117
 30
0.0
 40
1.0
100
AcDbArc
 50
100.0842699617701
 51
190.6719292857704
  0
ARC
  5
148
330
1F
100
AcDbEntity
  8
LAY-10
  6
CONTINUOUS
 62
     7
100
AcDbCircle
 10
431.7878257138844
 20
706.668977736146
 30
0.0
 40
1.0
100
AcDbArc
 50
19.3280707142282
 51
109.9157300382239
  0
ARC
  5
149
330
1F
100
AcDbEntity
  8
LAY-10
  6
CONTINUOUS
 62
     7
100
AcDbCircle
 10
432.4498147546836
 20
704.7815985628289
 30
0.0
 40
1.0
100
AcDbArc
 50
289.9280374849935
 51
19.32807071424264
  0
ARC
  5
14A
330
1F
100
AcDbEntity
  8
LAY-10
  6
CONTINUOUS
 62
     7
100
AcDbCircle
 10
402.2184236846131
 20
689.5970755147696
 30
0.0
 40
1.0
100
AcDbArc
 50
130.0842699618039
 51
220.6719292857497
  0
ARC
  5
14B
330
1F
100
AcDbEntity
  8
LAY-10
  6
CONTINUOUS
 62
     7
100
AcDbCircle
 10
403.5219474748797
 20
688.080086601752
 30
0.0
 40
1.0
100
AcDbArc
 50
220.6719292857497
 51
310.071962515011
  0
ARC
  5
14C
330
1F
100
AcDbEntity
  8
LAY-10
  6
CONTINUOUS
 62
     7
100
AcDbCircle
 10
390.4029244852393
 20
677.7815763153966
 30
0.0
 40
1.0
100
AcDbArc
 50
49.32807071424327
 51
139.9157300382169
  0
ARC
  5
14D
330
1F
100
AcDbEntity
  8
LAY-10
  6
CONTINUOUS
 62
     7
100
AcDbCircle
 10
391.9199133982568
 20
676.47805252513
 30
0.0
 40
1.0
100
AcDbArc
 50
319.928037485003
 51
49.32807071426413
  0
ARC
  5
14E
330
1F
100
AcDbEntity
  8
LAY-10
  6
CONTINUOUS
 62
     7
100
AcDbCircle
 10
373.3310222638634
 20
648.2121742861252
 30
0.0
 40
1.0
100
AcDbArc
 50
160.0842699617793
 51
250.6719292857729
  0
ARC
  5
14F
330
1F
100
AcDbEntity
  8
LAY-10
  6
CONTINUOUS
 62
     7
100
AcDbCircle
 10
375.2184014371804
 20
647.5501852453261
 30
0.0
 40
1.0
100
AcDbArc
 50
250.6719292857677
 51
340.0719625150005
  0
ARC
  5
150
330
1F
100
AcDbEntity
  8
LAY-10
  6
CONTINUOUS
 62
     7
100
AcDbCircle
 10
369.0062493984977
 20
632.0719022213858
 30
0.0
 40
1.0
100
AcDbArc
 50
79.32807071423287
 51
169.91573003823
  0
ARC
  5
151
330
1F
100
AcDbEntity
  8
LAY-10
  6
CONTINUOUS
 62
     7
100
AcDbCircle
 10
370.9717622295635
 20
631.7015119610861
 30
0.0
 40
1.0
100
AcDbArc
 50
349.928037485006
 51
79.32807071423927
  0
ARC
  5
152
330
1F
100
AcDbEntity
  8
LAY-10
  6
CONTINUOUS
 62
     7
100
AcDbCircle
 10
369.006249398498
 20
597.9280977786334
 30
0.0
 40
1.0
100
AcDbArc
 50
190.08426996177
 51
280.6719292857608
  0
ARC
  5
153
330
1F
100
AcDbEntity
  8
LAY-10
  6
CONTINUOUS
 62
     7
100
AcDbCircle
 10
370.9717622295637
 20
598.298488038933
 30
0.0
 40
1.0
100
AcDbArc
 50
280.671929285764
 51
10.071962514994
  0
ARC
  5
154
330
1F
100
AcDbEntity
  8
LAY-10
  6
CONTINUOUS
 62
     7
100
AcDbCircle
 10
373.3310222638632
 20
581.7878257138944
 30
0.0
 40
1.0
100
AcDbArc
 50
109.3280707142529
 51
199.9157300382208
  0
ARC
  5
155
330
1F
100
AcDbEntity
  8
LAY-10
  6
CONTINUOUS
 62
     7
100
AcDbCircle
 10
375.2184014371802
 20
582.4498147546935
 30
0.0
 40
1.0
100
AcDbArc
 50
19.92803748499965
 51
109.3280707142324
  0
ARC
  5
156
330
1F
100
AcDbEntity
  8
LAY-10
  6
CONTINUOUS
 62
     7
100
AcDbCircle
 10
390.4029244852395
 20
552.218423684623
 30
0.0
 40
1.0
100
AcDbArc
 50
220.0842699617739
 51
310.6719292857752
  0
ARC
  5
157
330
1F
100
AcDbEntity
  8
LAY-10
  6
CONTINUOUS
 62
     7
100
AcDbCircle
 10
391.9199133982568
 20
553.5219474748897
 30
0.0
 40
1.0
100
AcDbArc
 50
310.6719292857476
 51
40.07196251499006
  0
ARC
  5
158
330
1F
100
AcDbEntity
  8
LAY-10
  6
CONTINUOUS
 62
     7
100
AcDbCircle
 10
402.2184236846127
 20
540.4029244852494
 30
0.0
 40
1.0
100
AcDbArc
 50
139.3280707142503
 51
229.9157300382286
  0
ARC
  5
159
330
1F
100
AcDbEntity
  8
LAY-10
  6
CONTINUOUS
 62
     7
100
AcDbCircle
 10
403.5219474748795
 20
541.9199133982667
 30
0.0
 40
1.0
100
AcDbArc
 50
49.92803748500997
 51
139.328070714227
  0
ARC
  5
15A
330
1F
100
AcDbEntity
  8
LAY-10
  6
CONTINUOUS
 62
     7
100
AcDbCircle
 10
431.7878257138844
 20
523.3310222638733
 30
0.0
 40
1.0
100
AcDbArc
 50
250.0842699617762
 51
340.6719292857792
  0
ARC
  5
15B
330
1F
100
AcDbEntity
  8
LAY-10
  6
CONTINUOUS
 62
     7
100
AcDbCircle
 10
432.4498147546836
 20
525.2184014371902
 30
0.0
 40
1.0
100
AcDbArc
 50
340.6719292857636
 51
70.07196251501178
  0
CIRCLE
  5
15C
330
1F
100
AcDbEntity
  8
LAY-10
  6
CONTINUOUS
 62
     7
100
AcDbCircle
 10
464.9999999999997
 20
615.0000000000099
 30
0.0
 40
107.4999999999982
  0
CIRCLE
  5
15D
330
1F
100
AcDbEntity
  8
LAY-10
  6
CONTINUOUS
 62
     7
100
AcDbCircle
 10
464.9999999999997
 20
615.0000000000099
 30
0.0
 40
112.5
  0
LINE
  5
15E
330
1F
100
AcDbEntity
  8
LAY-10
  6
CONTINUOUS
 62
     7
100
AcDbLine
 10
482.4999999999996
 20
522.1345058700605
 30
0.0
 11
483.4816513693632
 21
522.5136836458852
 31
0.0
  0
LINE
  5
15F
330
1F
100
AcDbEntity
  8
LAY-10
  6
CONTINUOUS
 62
     7
100
AcDbLine
 10
483.2407407407403
 20
518.203691303714
 30
0.0
 11
484.4438014065889
 21
517.4182978891099
 31
0.0
  0
LINE
  5
160
330
1F
100
AcDbEntity
  8
LAY-10
  6
CONTINUOUS
 62
     7
100
AcDbLine
 10
483.0546058629626
 20
519.1914345836933
 30
0.0
 11
482.6842156026631
 21
521.1569474147592
 31
0.0
  0
LINE
  5
161
330
1F
100
AcDbEntity
  8
LAY-10
  6
CONTINUOUS
 62
     7
100
AcDbLine
 10
484.4438014065889
 20
517.4182978891102
 30
0.0
 11
483.4816513693632
 21
522.5136836458852
 31
0.0
  0
LINE
  5
162
330
1F
100
AcDbEntity
  8
LAY-10
  6
CONTINUOUS
 62
     7
100
AcDbLine
 10
447.4999999999997
 20
522.1345058700605
 30
0.0
 11
446.5183486306361
 21
522.5136836458852
 31
0.0
  0
LINE
  5
163
330
1F
100
AcDbEntity
  8
LAY-10
  6
CONTINUOUS
 62
     7
100
AcDbLine
 10
446.759259259259
 20
518.203691303714
 30
0.0
 11
445.5561985934103
 21
517.4182978891099
 31
0.0
  0
LINE
  5
164
330
1F
100
AcDbEntity
  8
LAY-10
  6
CONTINUOUS
 62
     7
100
AcDbLine
 10
446.9453941370367
 20
519.1914345836936
 30
0.0
 11
447.3157843973364
 21
521.1569474147592
 31
0.0
  0
LINE
  5
165
330
1F
100
AcDbEntity
  8
LAY-10
  6
CONTINUOUS
 62
     7
100
AcDbLine
 10
445.5561985934103
 20
517.4182978891102
 30
0.0
 11
446.5183486306361
 21
522.5136836458852
 31
0.0
  0
ARC
  5
166
330
1F
100
AcDbEntity
  8
LAY-10
  6
CONTINUOUS
 62
     7
100
AcDbCircle
 10
465.0000000000001
 20
615.0000000000099
 30
0.0
 40
94.49999999999818
100
AcDbArc
 50
259.9280374850022
 51
280.0719625149973
  0
ARC
  5
167
330
1F
100
AcDbEntity
  8
LAY-10
  6
CONTINUOUS
 62
     7
100
AcDbCircle
 10
465.0000000000001
 20
615.0000000000099
 30
0.0
 40
99.49999999999665
100
AcDbArc
 50
258.7310270193867
 51
281.2689729806129
  0
ARC
  5
168
330
1F
100
AcDbEntity
  8
LAY-10
  6
CONTINUOUS
 62
     7
100
AcDbCircle
 10
465.0000000000001
 20
615.0000000000099
 30
0.0
 40
98.49999999999777
100
AcDbArc
 50
259.915730038226
 51
280.0842699617735
  0
ARC
  5
169
330
1F
100
AcDbEntity
  8
LAY-10
  6
CONTINUOUS
 62
     7
100
AcDbCircle
 10
465.0000000000001
 20
615.0000000000099
 30
0.0
 40
94.0807377657336
100
AcDbArc
 50
267.5632395372618
 51
272.436760462738
  0
LINE
  5
16A
330
1F
100
AcDbEntity
  8
LAY-10
  6
CONTINUOUS
 62
     7
100
AcDbLine
 10
469.6999999999996
 20
521.633562517638
 30
0.0
 11
468.9999999999996
 21
521.0043340438353
 31
0.0
  0
LINE
  5
16B
330
1F
100
AcDbEntity
  8
LAY-10
  6
CONTINUOUS
 62
     7
100
AcDbLine
 10
460.2999999999996
 20
521.633562517638
 30
0.0
 11
460.9999999999997
 21
521.0043340438353
 31
0.0
  0
ARC
  5
16C
330
1F
100
AcDbEntity
  8
LAY-10
  6
CONTINUOUS
 62
     7
100
AcDbCircle
 10
482.0719022213758
 20
519.0062493985083
 30
0.0
 40
1.0
100
AcDbArc
 50
280.0842699617701
 51
10.67192928575113
  0
ARC
  5
16D
330
1F
100
AcDbEntity
  8
LAY-10
  6
CONTINUOUS
 62
     7
100
AcDbCircle
 10
481.7015119610763
 20
520.9717622295739
 30
0.0
 40
1.0
100
AcDbArc
 50
10.67192928577153
 51
100.0719625150106
  0
ARC
  5
16E
330
1F
100
AcDbEntity
  8
LAY-10
  6
CONTINUOUS
 62
     7
100
AcDbCircle
 10
448.2984880389232
 20
520.9717622295742
 30
0.0
 40
1.0
100
AcDbArc
 50
79.92803748500545
 51
169.3280707142489
  0
ARC
  5
16F
330
1F
100
AcDbEntity
  8
LAY-10
  6
CONTINUOUS
 62
     7
100
AcDbCircle
 10
447.9280977786235
 20
519.0062493985083
 30
0.0
 40
1.0
100
AcDbArc
 50
169.3280707142297
 51
259.91573003823
  0
ARC
  5
170
330
1F
100
AcDbEntity
  8
LAY-10
  6
CONTINUOUS
 62
     7
100
AcDbCircle
 10
464.9999999999997
 20
615.0000000000099
 30
0.0
 40
94.31484586264234
100
AcDbArc
 50
251.300632500611
 51
258.6993674993862
  0
ARC
  5
171
330
1F
100
AcDbEntity
  8
LAY-10
  6
CONTINUOUS
 62
     7
100
AcDbCircle
 10
464.9999999999997
 20
615.0000000000099
 30
0.0
 40
93.48465996167317
100
AcDbArc
 50
184.0872963535933
 51
267.1182038019607
  0
LINE
  5
172
330
1F
100
AcDbEntity
  8
LAY-10
  6
CONTINUOUS
 62
     7
100
AcDbLine
 10
562.5817021108994
 20
634.4438014065989
 30
0.0
 11
557.4863163541247
 21
633.4816513693734
 31
0.0
  0
LINE
  5
173
330
1F
100
AcDbEntity
  8
LAY-10
  6
CONTINUOUS
 62
     7
100
AcDbLine
 10
560.8085654163162
 20
633.0546058629726
 30
0.0
 11
558.8430525852505
 21
632.6842156026729
 31
0.0
  0
LINE
  5
174
330
1F
100
AcDbEntity
  8
LAY-10
  6
CONTINUOUS
 62
     7
100
AcDbLine
 10
557.865494129949
 20
632.5000000000097
 30
0.0
 11
557.4863163541247
 21
633.4816513693734
 31
0.0
  0
LINE
  5
175
330
1F
100
AcDbEntity
  8
LAY-10
  6
CONTINUOUS
 62
     7
100
AcDbLine
 10
561.7963086962957
 20
633.2407407407503
 30
0.0
 11
562.5817021108996
 21
634.4438014065989
 31
0.0
  0
ARC
  5
176
330
1F
100
AcDbEntity
  8
LAY-10
  6
CONTINUOUS
 62
     7
100
AcDbCircle
 10
464.9999999999995
 20
615.0000000000099
 30
0.0
 40
98.49999999999777
100
AcDbArc
 50
349.9157300382261
 51
10.08426996177366
  0
ARC
  5
177
330
1F
100
AcDbEntity
  8
LAY-10
  6
CONTINUOUS
 62
     7
100
AcDbCircle
 10
464.9999999999995
 20
615.0000000000099
 30
0.0
 40
94.49999999999818
100
AcDbArc
 50
349.9280374850023
 51
10.07196251499727
  0
LINE
  5
178
330
1F
100
AcDbEntity
  8
LAY-10
  6
CONTINUOUS
 62
     7
100
AcDbLine
 10
557.865494129949
 20
597.5000000000094
 30
0.0
 11
557.4863163541247
 21
596.5183486306458
 31
0.0
  0
LINE
  5
179
330
1F
100
AcDbEntity
  8
LAY-10
  6
CONTINUOUS
 62
     7
100
AcDbLine
 10
561.7963086962957
 20
596.7592592592688
 30
0.0
 11
562.5817021108996
 21
595.5561985934203
 31
0.0
  0
LINE
  5
17A
330
1F
100
AcDbEntity
  8
LAY-10
  6
CONTINUOUS
 62
     7
100
AcDbLine
 10
560.808565416316
 20
596.9453941370466
 30
0.0
 11
558.8430525852502
 21
597.3157843973462
 31
0.0
  0
LINE
  5
17B
330
1F
100
AcDbEntity
  8
LAY-10
  6
CONTINUOUS
 62
     7
100
AcDbLine
 10
562.5817021108994
 20
595.5561985934203
 30
0.0
 11
557.4863163541247
 21
596.5183486306458
 31
0.0
  0
ARC
  5
17C
330
1F
100
AcDbEntity
  8
LAY-10
  6
CONTINUOUS
 62
     7
100
AcDbCircle
 10
464.9999999999995
 20
615.0000000000099
 30
0.0
 40
99.49999999999665
100
AcDbArc
 50
348.7310270193869
 51
11.26897298061289
  0
ARC
  5
17D
330
1F
100
AcDbEntity
  8
LAY-10
  6
CONTINUOUS
 62
     7
100
AcDbCircle
 10
464.9999999999995
 20
615.0000000000099
 30
0.0
 40
94.31484586264234
100
AcDbArc
 50
341.3006325006113
 51
348.6993674993889
  0
LINE
  5
17E
330
1F
100
AcDbEntity
  8
LAY-10
  6
CONTINUOUS
 62
     7
100
AcDbLine
 10
554.1738770515306
 20
583.7226975012626
 30
0.0
 11
554.3363251497979
 21
584.7624214127032
 31
0.0
  0
LINE
  5
17F
330
1F
100
AcDbEntity
  8
LAY-10
  6
CONTINUOUS
 62
     7
100
AcDbLine
 10
557.948432693923
 20
582.3987905171888
 30
0.0
 11
559.2301336758594
 21
583.0479749088058
 31
0.0
  0
LINE
  5
180
330
1F
100
AcDbEntity
  8
LAY-10
  6
CONTINUOUS
 62
     7
100
AcDbLine
 10
556.9999544821546
 20
582.7314646244928
 30
0.0
 11
555.1125753088374
 21
583.3934536652919
 31
0.0
  0
LINE
  5
181
330
1F
100
AcDbEntity
  8
LAY-10
  6
CONTINUOUS
 62
     7
100
AcDbLine
 10
559.2301336758592
 20
583.0479749088058
 30
0.0
 11
554.3363251497979
 21
584.7624214127032
 31
0.0
  0
LINE
  5
182
330
1F
100
AcDbEntity
  8
LAY-10
  6
CONTINUOUS
 62
     7
100
AcDbLine
 10
536.6738770515306
 20
553.4118083688071
 30
0.0
 11
535.8546737804343
 21
552.7512622331907
 31
0.0
  0
LINE
  5
183
330
1F
100
AcDbEntity
  8
LAY-10
  6
CONTINUOUS
 62
     7
100
AcDbLine
 10
539.7076919531821
 20
550.8049007865342
 30
0.0
 11
539.7863322692699
 21
549.3703229803135
 31
0.0
  0
LINE
  5
184
330
1F
100
AcDbEntity
  8
LAY-10
  6
CONTINUOUS
 62
     7
100
AcDbLine
 10
538.9453486191912
 20
551.45996995921
 30
0.0
 11
537.4283597061742
 21
552.7634937494764
 31
0.0
  0
LINE
  5
185
330
1F
100
AcDbEntity
  8
LAY-10
  6
CONTINUOUS
 62
     7
100
AcDbLine
 10
539.7863322692699
 20
549.3703229803135
 30
0.0
 11
535.8546737804343
 21
552.7512622331907
 31
0.0
  0
ARC
  5
186
330
1F
100
AcDbEntity
  8
LAY-10
  6
CONTINUOUS
 62
     7
100
AcDbCircle
 10
464.9999999999998
 20
615.0000000000099
 30
0.0
 40
94.49999999999818
100
AcDbArc
 50
319.9280374850026
 51
340.0719625149975
  0
ARC
  5
187
330
1F
100
AcDbEntity
  8
LAY-10
  6
CONTINUOUS
 62
     7
100
AcDbCircle
 10
464.9999999999998
 20
615.0000000000099
 30
0.0
 40
99.49999999999665
100
AcDbArc
 50
318.7310270193868
 51
341.2689729806134
  0
ARC
  5
188
330
1F
100
AcDbEntity
  8
LAY-10
  6
CONTINUOUS
 62
     7
100
AcDbCircle
 10
464.9999999999998
 20
615.0000000000099
 30
0.0
 40
98.49999999999777
100
AcDbArc
 50
319.915730038226
 51
340.0842699617741
  0
LINE
  5
189
330
1F
100
AcDbEntity
  8
LAY-10
  6
CONTINUOUS
 62
     7
100
AcDbLine
 10
526.5881916312021
 20
543.3261229484787
 30
0.0
 11
527.2487377668185
 21
544.1453262195749
 31
0.0
  0
LINE
  5
18A
330
1F
100
AcDbEntity
  8
LAY-10
  6
CONTINUOUS
 62
     7
100
AcDbLine
 10
529.195099213475
 20
540.2923080468269
 30
0.0
 11
530.6296770196957
 21
540.2136677307393
 31
0.0
  0
LINE
  5
18B
330
1F
100
AcDbEntity
  8
LAY-10
  6
CONTINUOUS
 62
     7
100
AcDbLine
 10
528.5400300407994
 20
541.0546513808175
 30
0.0
 11
527.2365062505326
 21
542.5716402938351
 31
0.0
  0
LINE
  5
18C
330
1F
100
AcDbEntity
  8
LAY-10
  6
CONTINUOUS
 62
     7
100
AcDbLine
 10
530.6296770196957
 20
540.2136677307393
 30
0.0
 11
527.2487377668185
 21
544.1453262195749
 31
0.0
  0
LINE
  5
18D
330
1F
100
AcDbEntity
  8
LAY-10
  6
CONTINUOUS
 62
     7
100
AcDbLine
 10
496.2773024987466
 20
525.8261229484788
 30
0.0
 11
495.2375785873057
 21
525.6636748502114
 31
0.0
  0
LINE
  5
18E
330
1F
100
AcDbEntity
  8
LAY-10
  6
CONTINUOUS
 62
     7
100
AcDbLine
 10
497.6012094828204
 20
522.0515673060862
 30
0.0
 11
496.9520250912034
 21
520.7698663241498
 31
0.0
  0
LINE
  5
18F
330
1F
100
AcDbEntity
  8
LAY-10
  6
CONTINUOUS
 62
     7
100
AcDbLine
 10
497.2685353755164
 20
523.0000455178549
 30
0.0
 11
496.6065463347174
 21
524.8874246911718
 31
0.0
  0
LINE
  5
190
330
1F
100
AcDbEntity
  8
LAY-10
  6
CONTINUOUS
 62
     7
100
AcDbLine
 10
496.9520250912034
 20
520.7698663241498
 30
0.0
 11
495.2375785873057
 21
525.6636748502114
 31
0.0
  0
ARC
  5
191
330
1F
100
AcDbEntity
  8
LAY-10
  6
CONTINUOUS
 62
     7
100
AcDbCircle
 10
465.0
 20
615.0000000000099
 30
0.0
 40
94.49999999999818
100
AcDbArc
 50
289.9280374850022
 51
310.0719625149974
  0
ARC
  5
192
330
1F
100
AcDbEntity
  8
LAY-10
  6
CONTINUOUS
 62
     7
100
AcDbCircle
 10
465.0
 20
615.0000000000099
 30
0.0
 40
99.49999999999665
100
AcDbArc
 50
288.7310270193867
 51
311.2689729806129
  0
ARC
  5
193
330
1F
100
AcDbEntity
  8
LAY-10
  6
CONTINUOUS
 62
     7
100
AcDbCircle
 10
465.0
 20
615.0000000000099
 30
0.0
 40
98.49999999999777
100
AcDbArc
 50
289.9157300382259
 51
310.0842699617737
  0
LINE
  5
194
330
1F
100
AcDbEntity
  8
LAY-10
  6
CONTINUOUS
 62
     7
100
AcDbLine
 10
536.6738770515303
 20
676.5881916312126
 30
0.0
 11
535.854673780434
 21
677.2487377668289
 31
0.0
  0
LINE
  5
195
330
1F
100
AcDbEntity
  8
LAY-10
  6
CONTINUOUS
 62
     7
100
AcDbLine
 10
539.7076919531821
 20
679.1950992134852
 30
0.0
 11
539.7863322692699
 21
680.6296770197062
 31
0.0
  0
LINE
  5
196
330
1F
100
AcDbEntity
  8
LAY-10
  6
CONTINUOUS
 62
     7
100
AcDbLine
 10
538.9453486191915
 20
678.5400300408097
 30
0.0
 11
537.4283597061742
 21
677.2365062505432
 31
0.0
  0
LINE
  5
197
330
1F
100
AcDbEntity
  8
LAY-10
  6
CONTINUOUS
 62
     7
100
AcDbLine
 10
539.7863322692697
 20
680.6296770197062
 30
0.0
 11
535.854673780434
 21
677.2487377668289
 31
0.0
  0
LINE
  5
198
330
1F
100
AcDbEntity
  8
LAY-10
  6
CONTINUOUS
 62
     7
100
AcDbLine
 10
554.1738770515303
 20
646.2773024987571
 30
0.0
 11
554.3363251497979
 21
645.2375785873161
 31
0.0
  0
LINE
  5
199
330
1F
100
AcDbEntity
  8
LAY-10
  6
CONTINUOUS
 62
     7
100
AcDbLine
 10
557.948432693923
 20
647.6012094828308
 30
0.0
 11
559.2301336758592
 21
646.9520250912138
 31
0.0
  0
LINE
  5
19A
330
1F
100
AcDbEntity
  8
LAY-10
  6
CONTINUOUS
 62
     7
100
AcDbLine
 10
556.9999544821542
 20
647.2685353755269
 30
0.0
 11
555.1125753088372
 21
646.6065463347278
 31
0.0
  0
LINE
  5
19B
330
1F
100
AcDbEntity
  8
LAY-10
  6
CONTINUOUS
 62
     7
100
AcDbLine
 10
559.2301336758592
 20
646.9520250912138
 30
0.0
 11
554.3363251497979
 21
645.2375785873161
 31
0.0
  0
ARC
  5
19C
330
1F
100
AcDbEntity
  8
LAY-10
  6
CONTINUOUS
 62
     7
100
AcDbCircle
 10
464.9999999999993
 20
615.0000000000105
 30
0.0
 40
94.49999999999818
100
AcDbArc
 50
19.92803748500223
 51
40.07196251499728
  0
ARC
  5
19D
330
1F
100
AcDbEntity
  8
LAY-10
  6
CONTINUOUS
 62
     7
100
AcDbCircle
 10
464.9999999999993
 20
615.0000000000105
 30
0.0
 40
99.49999999999665
100
AcDbArc
 50
18.73102701938661
 51
41.26897298061296
  0
ARC
  5
19E
330
1F
100
AcDbEntity
  8
LAY-10
  6
CONTINUOUS
 62
     7
100
AcDbCircle
 10
464.9999999999993
 20
615.0000000000105
 30
0.0
 40
98.49999999999777
100
AcDbArc
 50
19.9157300382259
 51
40.08426996177361
  0
LINE
  5
19F
330
1F
100
AcDbEntity
  8
LAY-10
  6
CONTINUOUS
 62
     7
100
AcDbLine
 10
496.2773024987466
 20
704.1738770515402
 30
0.0
 11
495.2375785873057
 21
704.3363251498077
 31
0.0
  0
LINE
  5
1A0
330
1F
100
AcDbEntity
  8
LAY-10
  6
CONTINUOUS
 62
     7
100
AcDbLine
 10
497.6012094828204
 20
707.9484326939329
 30
0.0
 11
496.9520250912034
 21
709.2301336758692
 31
0.0
  0
LINE
  5
1A1
330
1F
100
AcDbEntity
  8
LAY-10
  6
CONTINUOUS
 62
     7
100
AcDbLine
 10
497.2685353755164
 20
706.9999544821643
 30
0.0
 11
496.6065463347174
 21
705.1125753088475
 31
0.0
  0
LINE
  5
1A2
330
1F
100
AcDbEntity
  8
LAY-10
  6
CONTINUOUS
 62
     7
100
AcDbLine
 10
496.9520250912034
 20
709.2301336758692
 30
0.0
 11
495.2375785873057
 21
704.3363251498077
 31
0.0
  0
LINE
  5
1A3
330
1F
100
AcDbEntity
  8
LAY-10
  6
CONTINUOUS
 62
     7
100
AcDbLine
 10
526.5881916312019
 20
686.6738770515403
 30
0.0
 11
527.2487377668183
 21
685.8546737804442
 31
0.0
  0
LINE
  5
1A4
330
1F
100
AcDbEntity
  8
LAY-10
  6
CONTINUOUS
 62
     7
100
AcDbLine
 10
529.1950992134748
 20
689.707691953192
 30
0.0
 11
530.6296770196957
 21
689.7863322692798
 31
0.0
  0
LINE
  5
1A5
330
1F
100
AcDbEntity
  8
LAY-10
  6
CONTINUOUS
 62
     7
100
AcDbLine
 10
528.5400300407991
 20
688.9453486192011
 30
0.0
 11
527.2365062505326
 21
687.4283597061839
 31
0.0
  0
LINE
  5
1A6
330
1F
100
AcDbEntity
  8
LAY-10
  6
CONTINUOUS
 62
     7
100
AcDbLine
 10
530.6296770196957
 20
689.7863322692797
 30
0.0
 11
527.2487377668183
 21
685.8546737804442
 31
0.0
  0
ARC
  5
1A7
330
1F
100
AcDbEntity
  8
LAY-10
  6
CONTINUOUS
 62
     7
100
AcDbCircle
 10
464.9999999999991
 20
615.0000000000098
 30
0.0
 40
94.49999999999818
100
AcDbArc
 50
49.92803748500212
 51
70.07196251499722
  0
ARC
  5
1A8
330
1F
100
AcDbEntity
  8
LAY-10
  6
CONTINUOUS
 62
     7
100
AcDbCircle
 10
464.9999999999991
 20
615.0000000000098
 30
0.0
 40
99.49999999999665
100
AcDbArc
 50
48.73102701938685
 51
71.26897298061303
  0
ARC
  5
1A9
330
1F
100
AcDbEntity
  8
LAY-10
  6
CONTINUOUS
 62
     7
100
AcDbCircle
 10
464.9999999999991
 20
615.0000000000098
 30
0.0
 40
98.49999999999777
100
AcDbArc
 50
49.9157300382258
 51
70.08426996177369
  0
ARC
  5
1AA
330
1F
100
AcDbEntity
  8
LAY-10
  6
CONTINUOUS
 62
     7
100
AcDbCircle
 10
464.9999999999995
 20
615.0000000000099
 30
0.0
 40
94.31484586264234
100
AcDbArc
 50
41.30063250061118
 51
48.69936749939
  0
ARC
  5
1AB
330
1F
100
AcDbEntity
  8
LAY-10
  6
CONTINUOUS
 62
     7
100
AcDbCircle
 10
464.9999999999995
 20
615.0000000000099
 30
0.0
 40
94.31484586264234
100
AcDbArc
 50
11.30063250061082
 51
18.69936749938913
  0
ARC
  5
1AC
330
1F
100
AcDbEntity
  8
LAY-10
  6
CONTINUOUS
 62
     7
100
AcDbCircle
 10
464.9999999999995
 20
615.0000000000099
 30
0.0
 40
94.31484586264234
100
AcDbArc
 50
311.3006325006112
 51
318.699367499389
  0
LINE
  5
1AD
330
1F
100
AcDbEntity
  8
LAY-10
  6
CONTINUOUS
 62
     7
100
AcDbLine
 10
558.8892177970647
 20
621.0000000000098
 30
0.0
 11
558.246892092747
 21
621.6632396920206
 31
0.0
  0
LINE
  5
1AE
330
1F
100
AcDbEntity
  8
LAY-10
  6
CONTINUOUS
 62
     7
100
AcDbLine
 10
558.8892177970647
 20
609.0000000000098
 30
0.0
 11
558.246892092747
 21
608.3367603079986
 31
0.0
  0
ARC
  5
1AF
330
1F
100
AcDbEntity
  8
LAY-10
  6
CONTINUOUS
 62
     7
100
AcDbCircle
 10
498.2121742861148
 20
706.668977736146
 30
0.0
 40
1.0
100
AcDbArc
 50
70.08426996177923
 51
160.671929285773
  0
ARC
  5
1B0
330
1F
100
AcDbEntity
  8
LAY-10
  6
CONTINUOUS
 62
     7
100
AcDbCircle
 10
497.5501852453156
 20
704.7815985628289
 30
0.0
 40
1.0
100
AcDbArc
 50
160.6719292857585
 51
250.0719625150035
  0
ARC
  5
1B1
330
1F
100
AcDbEntity
  8
LAY-10
  6
CONTINUOUS
 62
     7
100
AcDbCircle
 10
527.781576315386
 20
689.5970755147696
 30
0.0
 40
1.0
100
AcDbArc
 50
319.3280707142482
 51
49.91573003820775
  0
ARC
  5
1B2
330
1F
100
AcDbEntity
  8
LAY-10
  6
CONTINUOUS
 62
     7
100
AcDbCircle
 10
526.4780525251194
 20
688.080086601752
 30
0.0
 40
1.0
100
AcDbArc
 50
229.9280374849866
 51
319.3280707142525
  0
ARC
  5
1B3
330
1F
100
AcDbEntity
  8
LAY-10
  6
CONTINUOUS
 62
     7
100
AcDbCircle
 10
539.5970755147598
 20
677.7815763153966
 30
0.0
 40
1.0
100
AcDbArc
 50
40.08426996177888
 51
130.6719292857568
  0
ARC
  5
1B4
330
1F
100
AcDbEntity
  8
LAY-10
  6
CONTINUOUS
 62
     7
100
AcDbCircle
 10
538.0800866017423
 20
676.47805252513
 30
0.0
 40
1.0
100
AcDbArc
 50
130.6719292857384
 51
220.0719625149951
  0
ARC
  5
1B5
330
1F
100
AcDbEntity
  8
LAY-10
  6
CONTINUOUS
 62
     7
100
AcDbCircle
 10
556.6689777361357
 20
648.2121742861252
 30
0.0
 40
1.0
100
AcDbArc
 50
289.328070714221
 51
19.9157300382208
  0
ARC
  5
1B6
330
1F
100
AcDbEntity
  8
LAY-10
  6
CONTINUOUS
 62
     7
100
AcDbCircle
 10
554.7815985628188
 20
647.5501852453261
 30
0.0
 40
1.0
100
AcDbArc
 50
199.9280374849996
 51
289.328070714221
  0
ARC
  5
1B7
330
1F
100
AcDbEntity
  8
LAY-10
  6
CONTINUOUS
 62
     7
100
AcDbCircle
 10
560.9937506015015
 20
632.0719022213858
 30
0.0
 40
1.0
100
AcDbArc
 50
10.08426996177005
 51
100.6719292857639
  0
ARC
  5
1B8
330
1F
100
AcDbEntity
  8
LAY-10
  6
CONTINUOUS
 62
     7
100
AcDbCircle
 10
559.0282377704357
 20
631.7015119610861
 30
0.0
 40
1.0
100
AcDbArc
 50
100.6719292857639
 51
190.0719625149946
  0
ARC
  5
1B9
330
1F
100
AcDbEntity
  8
LAY-10
  6
CONTINUOUS
 62
     7
100
AcDbCircle
 10
560.9937506015012
 20
597.9280977786334
 30
0.0
 40
1.0
100
AcDbArc
 50
259.328070714236
 51
349.9157300382301
  0
ARC
  5
1BA
330
1F
100
AcDbEntity
  8
LAY-10
  6
CONTINUOUS
 62
     7
100
AcDbCircle
 10
559.0282377704355
 20
598.298488038933
 30
0.0
 40
1.0
100
AcDbArc
 50
169.9280374850055
 51
259.328070714236
  0
ARC
  5
1BB
330
1F
100
AcDbEntity
  8
LAY-10
  6
CONTINUOUS
 62
     7
100
AcDbCircle
 10
556.668977736136
 20
581.7878257138944
 30
0.0
 40
1.0
100
AcDbArc
 50
340.0842699617793
 51
70.67192928575848
  0
ARC
  5
1BC
330
1F
100
AcDbEntity
  8
LAY-10
  6
CONTINUOUS
 62
     7
100
AcDbCircle
 10
554.781598562819
 20
582.4498147546935
 30
0.0
 40
1.0
100
AcDbArc
 50
70.67192928577292
 51
160.0719625150004
  0
ARC
  5
1BD
330
1F
100
AcDbEntity
  8
LAY-10
  6
CONTINUOUS
 62
     7
100
AcDbCircle
 10
539.5970755147596
 20
552.218423684623
 30
0.0
 40
1.0
100
AcDbArc
 50
229.3280707142249
 51
319.9157300382261
  0
ARC
  5
1BE
330
1F
100
AcDbEntity
  8
LAY-10
  6
CONTINUOUS
 62
     7
100
AcDbCircle
 10
538.0800866017423
 20
553.5219474748897
 30
0.0
 40
1.0
100
AcDbArc
 50
139.92803748501
 51
229.3280707142482
  0
ARC
  5
1BF
330
1F
100
AcDbEntity
  8
LAY-10
  6
CONTINUOUS
 62
     7
100
AcDbCircle
 10
527.7815763153865
 20
540.4029244852494
 30
0.0
 40
1.0
100
AcDbArc
 50
310.0842699617739
 51
40.67192928574759
  0
ARC
  5
1C0
330
1F
100
AcDbEntity
  8
LAY-10
  6
CONTINUOUS
 62
     7
100
AcDbCircle
 10
526.4780525251197
 20
541.9199133982667
 30
0.0
 40
1.0
100
AcDbArc
 50
40.67192928577509
 51
130.0719625149859
  0
ARC
  5
1C1
330
1F
100
AcDbEntity
  8
LAY-10
  6
CONTINUOUS
 62
     7
100
AcDbCircle
 10
498.2121742861148
 20
523.3310222638733
 30
0.0
 40
1.0
100
AcDbArc
 50
199.328070714221
 51
289.9157300382208
  0
ARC
  5
1C2
330
1F
100
AcDbEntity
  8
LAY-10
  6
CONTINUOUS
 62
     7
100
AcDbCircle
 10
497.5501852453156
 20
525.2184014371902
 30
0.0
 40
1.0
100
AcDbArc
 50
109.9280374849966
 51
199.3280707142354
  0
ARC
  5
1C3
330
1F
100
AcDbEntity
  8
LAY-10
  6
CONTINUOUS
 62
     7
100
AcDbCircle
 10
464.9999999999995
 20
615.0000000000099
 30
0.0
 40
93.48465996167317
100
AcDbArc
 50
4.08729635359316
 51
87.11820380196086
  0
ARC
  5
1C4
330
1F
100
AcDbEntity
  8
LAY-10
  6
CONTINUOUS
 62
     7
100
AcDbCircle
 10
464.9999999999995
 20
615.0000000000099
 30
0.0
 40
94.31484586264234
100
AcDbArc
 50
71.30063250060958
 51
78.69936749938904
  0
ARC
  5
1C5
330
1F
100
AcDbEntity
  8
LAY-10
  6
CONTINUOUS
 62
     7
100
AcDbCircle
 10
464.9999999999995
 20
615.0000000000099
 30
0.0
 40
93.48465996167317
100
AcDbArc
 50
272.8817961980393
 51
355.9127036464068
  0
ARC
  5
1C6
330
1F
100
AcDbEntity
  8
LAY-10
  6
CONTINUOUS
 62
     7
100
AcDbCircle
 10
464.9999999999995
 20
615.0000000000099
 30
0.0
 40
94.31484586264234
100
AcDbArc
 50
281.3006325006141
 51
288.6993674993891
  0
LINE
  5
1C7
330
1F
100
AcDbEntity
  8
LAY-10
  6
CONTINUOUS
 62
     7
100
AcDbLine
 10
372.0366072321297
 20
611.5570335802408
 30
0.0
 11
380.9633927678228
 21
616.7109156122615
 31
0.0
  0
LINE
  5
1C8
330
1F
100
AcDbEntity
  8
LAY-10
  6
CONTINUOUS
 62
     7
100
AcDbLine
 10
371.0366072321323
 20
613.2890843878425
 30
0.0
 11
379.9633927677961
 21
618.4429664198461
 31
0.0
  0
CIRCLE
  5
1C9
330
1F
100
AcDbEntity
  8
LAY-10
  6
CONTINUOUS
 62
     7
100
AcDbCircle
 10
375.999999999992
 20
615.0000000000102
 30
0.0
 40
5.25
  0
LINE
  5
1CA
330
1F
100
AcDbEntity
  8
LAY-10
  6
CONTINUOUS
 62
     7
100
AcDbLine
 10
550.0366072321297
 20
611.5570335802408
 30
0.0
 11
558.9633927678228
 21
616.7109156122615
 31
0.0
  0
LINE
  5
1CB
330
1F
100
AcDbEntity
  8
LAY-10
  6
CONTINUOUS
 62
     7
100
AcDbLine
 10
549.0366072321323
 20
613.2890843878425
 30
0.0
 11
557.9633927677961
 21
618.4429664198461
 31
0.0
  0
CIRCLE
  5
1CC
330
1F
100
AcDbEntity
  8
LAY-10
  6
CONTINUOUS
 62
     7
100
AcDbCircle
 10
553.999999999992
 20
615.0000000000102
 30
0.0
 40
5.25
  0
ARC
  5
1CD
330
1F
100
AcDbEntity
  8
LAY-10
  6
CONTINUOUS
 62
     7
100
AcDbCircle
 10
464.9999999999997
 20
615.0000000000099
 30
0.0
 40
94.0807377657336
100
AcDbArc
 50
176.3434795562806
 51
179.17200682998
  0
ARC
  5
1CE
330
1F
100
AcDbEntity
  8
LAY-10
  6
CONTINUOUS
 62
     7
100
AcDbCircle
 10
464.9999999999997
 20
615.0000000000099
 30
0.0
 40
94.0807377657336
100
AcDbArc
 50
180.8279931700198
 51
183.65652044372
  0
ARC
  5
1CF
330
1F
100
AcDbEntity
  8
LAY-10
  6
CONTINUOUS
 62
     7
100
AcDbCircle
 10
464.9999999999995
 20
615.0000000000099
 30
0.0
 40
94.0807377657336
100
AcDbArc
 50
0.8279931699839495
 51
3.656520443719369
  0
ARC
  5
1D0
330
1F
100
AcDbEntity
  8
LAY-10
  6
CONTINUOUS
 62
     7
100
AcDbCircle
 10
464.9999999999995
 20
615.0000000000099
 30
0.0
 40
94.0807377657336
100
AcDbArc
 50
356.34347955628
 51
359.1720068300166
  0
ARC
  5
1D1
330
1F
100
AcDbEntity
  8
LAY-10
  6
CONTINUOUS
 62
     7
100
AcDbCircle
 10
380.4999999999984
 20
615.0000000000103
 30
0.0
 40
4.000000000000071
100
AcDbArc
 50
270.0
 51
90.0
  0
LINE
  5
1D2
330
1F
100
AcDbEntity
  8
LAY-10
  6
CONTINUOUS
 62
     7
100
AcDbLine
 10
467.651618362297
 20
645.4306130471443
 30
0.0
 11
471.3525870244695
 21
687.90382369453
 31
0.0
  0
LINE
  5
1D3
330
1F
100
AcDbEntity
  8
LAY-10
  6
CONTINUOUS
 62
     7
100
AcDbLine
 10
462.3483816377117
 20
645.4306130471443
 30
0.0
 11
458.6474129755392
 21
687.90382369453
 31
0.0
  0
ARC
  5
1D4
330
1F
100
AcDbEntity
  8
LAY-10
  6
CONTINUOUS
 62
     7
100
AcDbCircle
 10
465.0000000000042
 20
645.6616658993613
 30
0.0
 40
2.66166589935055
100
AcDbArc
 50
184.9799775084821
 51
355.0200224915179
  0
ARC
  5
1D5
330
1F
100
AcDbEntity
  8
LAY-10
  6
CONTINUOUS
 62
     7
100
AcDbCircle
 10
454.5130926345045
 20
643.8125411866333
 30
0.0
 40
2.66166589935055
100
AcDbArc
 50
204.9799775084777
 51
15.02002249151959
  0
LINE
  5
1D6
330
1F
100
AcDbEntity
  8
LAY-10
  6
CONTINUOUS
 62
     7
100
AcDbLine
 10
457.0838235723223
 20
644.5023294187099
 30
0.0
 11
446.0349029208055
 21
685.6798978774237
 31
0.0
  0
LINE
  5
1D7
330
1F
100
AcDbEntity
  8
LAY-10
  6
CONTINUOUS
 62
     7
100
AcDbLine
 10
452.1004111559486
 20
642.6885156340772
 30
0.0
 11
434.0959446212253
 21
681.3344724282309
 31
0.0
  0
ARC
  5
1D8
330
1F
100
AcDbEntity
  8
LAY-10
  6
CONTINUOUS
 62
     7
100
AcDbCircle
 10
445.291061067553
 20
638.4881987789787
 30
0.0
 40
2.66166589935055
100
AcDbArc
 50
224.9799775084791
 51
35.02002249152017
  0
LINE
  5
1D9
330
1F
100
AcDbEntity
  8
LAY-10
  6
CONTINUOUS
 62
     7
100
AcDbLine
 10
447.4708364898473
 20
640.0156294543702
 30
0.0
 11
423.004689419916
 21
674.9309332521043
 31
0.0
  0
LINE
  5
1DA
330
1F
100
AcDbEntity
  8
LAY-10
  6
CONTINUOUS
 62
     7
100
AcDbLine
 10
443.4083214664341
 20
636.606774596572
 30
0.0
 11
413.2719614408735
 21
666.7642047945411
 31
0.0
  0
ARC
  5
1DB
330
1F
100
AcDbEntity
  8
LAY-10
  6
CONTINUOUS
 62
     7
100
AcDbCircle
 10
438.4462184088151
 20
630.3308329496857
 30
0.0
 40
2.66166589935055
100
AcDbArc
 50
244.9799775084773
 51
55.02002249151926
  0
LINE
  5
1DC
330
1F
100
AcDbEntity
  8
LAY-10
  6
CONTINUOUS
 62
     7
100
AcDbLine
 10
439.9721252295983
 20
632.5116753864639
 30
0.0
 11
405.0397301597607
 21
656.9534135902082
 31
0.0
  0
LINE
  5
1DD
330
1F
100
AcDbEntity
  8
LAY-10
  6
CONTINUOUS
 62
     7
100
AcDbLine
 10
437.3205068673054
 20
627.9189376606904
 30
0.0
 11
398.6871431352956
 21
645.9504101043319
 31
0.0
  0
ARC
  5
1DE
330
1F
100
AcDbEntity
  8
LAY-10
  6
CONTINUOUS
 62
     7
100
AcDbCircle
 10
434.8041537020533
 20
620.3243424076645
 30
0.0
 40
2.66166589935055
100
AcDbArc
 50
264.9799775084742
 51
75.02002249152041
  0
LINE
  5
1DF
330
1F
100
AcDbEntity
  8
LAY-10
  6
CONTINUOUS
 62
     7
100
AcDbLine
 10
435.4921450387524
 20
622.8955548221479
 30
0.0
 11
394.3068643616749
 21
633.9156930828926
 31
0.0
  0
LINE
  5
1E0
330
1F
100
AcDbEntity
  8
LAY-10
  6
CONTINUOUS
 62
     7
100
AcDbLine
 10
434.5712476457917
 20
617.672886179717
 30
0.0
 11
392.1006340411369
 21
621.4035391761366
 31
0.0
  0
ARC
  5
1E1
330
1F
100
AcDbEntity
  8
LAY-10
  6
CONTINUOUS
 62
     7
100
AcDbCircle
 10
434.8041537020533
 20
609.6756575923555
 30
0.0
 40
2.66166589935055
100
AcDbArc
 50
284.979977508472
 51
95.02002249152225
  0
LINE
  5
1E2
330
1F
100
AcDbEntity
  8
LAY-10
  6
CONTINUOUS
 62
     7
100
AcDbLine
 10
434.5712476457917
 20
612.327113820303
 30
0.0
 11
392.1006340411369
 21
608.5964608238834
 31
0.0
  0
LINE
  5
1E3
330
1F
100
AcDbEntity
  8
LAY-10
  6
CONTINUOUS
 62
     7
100
AcDbLine
 10
435.492145038752
 20
607.1044451778723
 30
0.0
 11
394.3068643616749
 21
596.0843069171276
 31
0.0
  0
ARC
  5
1E4
330
1F
100
AcDbEntity
  8
LAY-10
  6
CONTINUOUS
 62
     7
100
AcDbCircle
 10
438.4462184088151
 20
599.6691670503345
 30
0.0
 40
2.66166589935055
100
AcDbArc
 50
304.9799775084765
 51
115.0200224915282
  0
LINE
  5
1E5
330
1F
100
AcDbEntity
  8
LAY-10
  6
CONTINUOUS
 62
     7
100
AcDbLine
 10
437.3205068673053
 20
602.0810623393296
 30
0.0
 11
398.6871431352954
 21
584.0495898956882
 31
0.0
  0
LINE
  5
1E6
330
1F
100
AcDbEntity
  8
LAY-10
  6
CONTINUOUS
 62
     7
100
AcDbLine
 10
439.972125229598
 20
597.4883246135561
 30
0.0
 11
405.0397301597607
 21
573.0465864098119
 31
0.0
  0
ARC
  5
1E7
330
1F
100
AcDbEntity
  8
LAY-10
  6
CONTINUOUS
 62
     7
100
AcDbCircle
 10
445.291061067553
 20
591.5118012210414
 30
0.0
 40
2.66166589935055
100
AcDbArc
 50
324.9799775084737
 51
135.0200224915209
  0
LINE
  5
1E8
330
1F
100
AcDbEntity
  8
LAY-10
  6
CONTINUOUS
 62
     7
100
AcDbLine
 10
443.4083214664341
 20
593.393225403448
 30
0.0
 11
413.2719614408735
 21
563.2357952054789
 31
0.0
  0
LINE
  5
1E9
330
1F
100
AcDbEntity
  8
LAY-10
  6
CONTINUOUS
 62
     7
100
AcDbLine
 10
447.4708364898471
 20
589.9843705456499
 30
0.0
 11
423.004689419916
 21
555.0690667479156
 31
0.0
  0
ARC
  5
1EA
330
1F
100
AcDbEntity
  8
LAY-10
  6
CONTINUOUS
 62
     7
100
AcDbCircle
 10
454.5130926345042
 20
586.1874588133867
 30
0.0
 40
2.66166589935055
100
AcDbArc
 50
344.9799775084805
 51
155.0200224915202
  0
LINE
  5
1EB
330
1F
100
AcDbEntity
  8
LAY-10
  6
CONTINUOUS
 62
     7
100
AcDbLine
 10
452.1004111559483
 20
587.3114843659428
 30
0.0
 11
434.0959446212249
 21
548.665527571789
 31
0.0
  0
ARC
  5
1EC
330
1F
100
AcDbEntity
  8
LAY-10
  6
CONTINUOUS
 62
     7
100
AcDbCircle
 10
465.0000000000042
 20
615.0000000000102
 30
0.0
 40
73.1800715440005
100
AcDbArc
 50
94.97997750847952
 51
105.0200224915202
  0
ARC
  5
1ED
330
1F
100
AcDbEntity
  8
LAY-10
  6
CONTINUOUS
 62
     7
100
AcDbCircle
 10
465.0000000000042
 20
615.0000000000102
 30
0.0
 40
73.1800715440005
100
AcDbArc
 50
114.9799775084796
 51
125.0200224915206
  0
ARC
  5
1EE
330
1F
100
AcDbEntity
  8
LAY-10
  6
CONTINUOUS
 62
     7
100
AcDbCircle
 10
465.0000000000042
 20
615.0000000000102
 30
0.0
 40
73.1800715440005
100
AcDbArc
 50
134.9799775084797
 51
145.0200224915206
  0
ARC
  5
1EF
330
1F
100
AcDbEntity
  8
LAY-10
  6
CONTINUOUS
 62
     7
100
AcDbCircle
 10
465.0000000000042
 20
615.0000000000102
 30
0.0
 40
73.1800715440005
100
AcDbArc
 50
154.9799775084797
 51
165.0200224915205
  0
ARC
  5
1F0
330
1F
100
AcDbEntity
  8
LAY-10
  6
CONTINUOUS
 62
     7
100
AcDbCircle
 10
465.0000000000042
 20
615.0000000000102
 30
0.0
 40
73.1800715440005
100
AcDbArc
 50
174.97997750848
 51
185.0200224915204
  0
ARC
  5
1F1
330
1F
100
AcDbEntity
  8
LAY-10
  6
CONTINUOUS
 62
     7
100
AcDbCircle
 10
465.0000000000042
 20
615.0000000000102
 30
0.0
 40
73.1800715440005
100
AcDbArc
 50
194.9799775084797
 51
205.0200224915203
  0
ARC
  5
1F2
330
1F
100
AcDbEntity
  8
LAY-10
  6
CONTINUOUS
 62
     7
100
AcDbCircle
 10
465.0000000000042
 20
615.0000000000102
 30
0.0
 40
73.1800715440005
100
AcDbArc
 50
214.9799775084796
 51
225.0200224915205
  0
ARC
  5
1F3
330
1F
100
AcDbEntity
  8
LAY-10
  6
CONTINUOUS
 62
     7
100
AcDbCircle
 10
465.0000000000042
 20
615.0000000000102
 30
0.0
 40
73.1800715440005
100
AcDbArc
 50
234.9799775084796
 51
245.0200224915206
  0
ARC
  5
1F4
330
1F
100
AcDbEntity
  8
LAY-10
  6
CONTINUOUS
 62
     7
100
AcDbCircle
 10
465.0000000000042
 20
615.0000000000102
 30
0.0
 40
69.11836509645775
100
AcDbArc
 50
105.0200224915202
 51
114.9799775084796
  0
ARC
  5
1F5
330
1F
100
AcDbEntity
  8
LAY-10
  6
CONTINUOUS
 62
     7
100
AcDbCircle
 10
465.0000000000042
 20
615.0000000000102
 30
0.0
 40
69.11836509645775
100
AcDbArc
 50
125.0200224915205
 51
134.9799775084797
  0
ARC
  5
1F6
330
1F
100
AcDbEntity
  8
LAY-10
  6
CONTINUOUS
 62
     7
100
AcDbCircle
 10
465.0000000000042
 20
615.0000000000102
 30
0.0
 40
69.11836509645775
100
AcDbArc
 50
165.0200224915205
 51
174.9799775084798
  0
ARC
  5
1F7
330
1F
100
AcDbEntity
  8
LAY-10
  6
CONTINUOUS
 62
     7
100
AcDbCircle
 10
465.0000000000042
 20
615.0000000000102
 30
0.0
 40
69.11836509645775
100
AcDbArc
 50
185.0200224915205
 51
194.9799775084797
  0
ARC
  5
1F8
330
1F
100
AcDbEntity
  8
LAY-10
  6
CONTINUOUS
 62
     7
100
AcDbCircle
 10
465.0000000000042
 20
615.0000000000102
 30
0.0
 40
69.11836509645775
100
AcDbArc
 50
225.0200224915202
 51
234.9799775084797
  0
ARC
  5
1F9
330
1F
100
AcDbEntity
  8
LAY-10
  6
CONTINUOUS
 62
     7
100
AcDbCircle
 10
465.0000000000042
 20
645.6616658993613
 30
0.0
 40
3.66166589935055
100
AcDbArc
 50
184.9799775084784
 51
355.0200224915181
  0
LINE
  5
1FA
330
1F
100
AcDbEntity
  8
LAY-10
  6
CONTINUOUS
 62
     7
100
AcDbLine
 10
468.6478434568663
 20
645.3438054383181
 30
0.0
 11
472.3488121190388
 21
687.8170160857038
 31
0.0
  0
LINE
  5
1FB
330
1F
100
AcDbEntity
  8
LAY-10
  6
CONTINUOUS
 62
     7
100
AcDbLine
 10
457.6511878809698
 20
687.8170160857038
 30
0.0
 11
461.3521565431421
 21
645.3438054383181
 31
0.0
  0
LINE
  5
1FC
330
1F
100
AcDbEntity
  8
LAY-10
  6
CONTINUOUS
 62
     7
100
AcDbLine
 10
433.1894892020291
 20
680.9121709091597
 30
0.0
 11
451.1939557367524
 21
642.2662141150058
 31
0.0
  0
ARC
  5
1FD
330
1F
100
AcDbEntity
  8
LAY-10
  6
CONTINUOUS
 62
     7
100
AcDbCircle
 10
454.5130926345045
 20
643.8125411866333
 30
0.0
 40
3.66166589935055
100
AcDbArc
 50
204.979977508478
 51
15.02002249151816
  0
LINE
  5
1FE
330
1F
100
AcDbEntity
  8
LAY-10
  6
CONTINUOUS
 62
     7
100
AcDbLine
 10
458.0496588931434
 20
644.7614859988972
 30
0.0
 11
447.0007382416267
 21
685.9390544576108
 31
0.0
  0
LINE
  5
1FF
330
1F
100
AcDbEntity
  8
LAY-10
  6
CONTINUOUS
 62
     7
100
AcDbLine
 10
412.5646075984632
 20
666.0573451609314
 30
0.0
 11
442.7009676240235
 21
635.8999149629623
 31
0.0
  0
ARC
  5
200
330
1F
100
AcDbEntity
  8
LAY-10
  6
CONTINUOUS
 62
     7
100
AcDbCircle
 10
445.291061067553
 20
638.4881987789787
 30
0.0
 40
3.66166589935055
100
AcDbArc
 50
224.9799775084777
 51
35.02002249152075
  0
LINE
  5
201
330
1F
100
AcDbEntity
  8
LAY-10
  6
CONTINUOUS
 62
     7
100
AcDbLine
 10
448.2897880430179
 20
640.5894921152566
 30
0.0
 11
423.8236409730868
 21
675.5047959129907
 31
0.0
  0
LINE
  5
202
330
1F
100
AcDbEntity
  8
LAY-10
  6
CONTINUOUS
 62
     7
100
AcDbLine
 10
398.2642081824962
 20
645.0442500601342
 30
0.0
 11
436.8975719145059
 21
627.0127776164927
 31
0.0
  0
ARC
  5
203
330
1F
100
AcDbEntity
  8
LAY-10
  6
CONTINUOUS
 62
     7
100
AcDbCircle
 10
438.4462184088151
 20
630.3308329496857
 30
0.0
 40
3.66166589935055
100
AcDbArc
 50
244.9799775084758
 51
55.02002249151646
  0
LINE
  5
204
330
1F
100
AcDbEntity
  8
LAY-10
  6
CONTINUOUS
 62
     7
100
AcDbLine
 10
440.545415371368
 20
633.3310278218356
 30
0.0
 11
405.6130203015307
 21
657.7727660255798
 31
0.0
  0
LINE
  5
205
330
1F
100
AcDbEntity
  8
LAY-10
  6
CONTINUOUS
 62
     7
100
AcDbLine
 10
392.0131301751113
 20
620.4073749961791
 30
0.0
 11
434.4837437797661
 21
616.6767219997595
 31
0.0
  0
ARC
  5
206
330
1F
100
AcDbEntity
  8
LAY-10
  6
CONTINUOUS
 62
     7
100
AcDbCircle
 10
434.8041537020533
 20
620.3243424076645
 30
0.0
 40
3.66166589935055
100
AcDbArc
 50
264.9799775084757
 51
75.02002249152356
  0
LINE
  5
207
330
1F
100
AcDbEntity
  8
LAY-10
  6
CONTINUOUS
 62
     7
100
AcDbLine
 10
435.7506265171627
 20
623.8615710359447
 30
0.0
 11
394.5653458400853
 21
634.8817092966897
 31
0.0
  0
LINE
  5
208
330
1F
100
AcDbEntity
  8
LAY-10
  6
CONTINUOUS
 62
     7
100
AcDbLine
 10
394.5653458400853
 20
595.1182907033306
 30
0.0
 11
435.7506265171627
 21
606.1384289640753
 31
0.0
  0
ARC
  5
209
330
1F
100
AcDbEntity
  8
LAY-10
  6
CONTINUOUS
 62
     7
100
AcDbCircle
 10
434.8041537020533
 20
609.6756575923555
 30
0.0
 40
3.66166589935055
100
AcDbArc
 50
284.979977508474
 51
95.02002249152152
  0
LINE
  5
20A
330
1F
100
AcDbEntity
  8
LAY-10
  6
CONTINUOUS
 62
     7
100
AcDbLine
 10
434.4837437797661
 20
613.3232780002608
 30
0.0
 11
392.0131301751113
 21
609.5926250038411
 31
0.0
  0
LINE
  5
20B
330
1F
100
AcDbEntity
  8
LAY-10
  6
CONTINUOUS
 62
     7
100
AcDbLine
 10
405.6130203015307
 20
572.2272339744403
 30
0.0
 11
440.545415371368
 21
596.6689721781846
 31
0.0
  0
ARC
  5
20C
330
1F
100
AcDbEntity
  8
LAY-10
  6
CONTINUOUS
 62
     7
100
AcDbCircle
 10
438.4462184088151
 20
599.6691670503345
 30
0.0
 40
3.66166589935055
100
AcDbArc
 50
304.9799775084715
 51
115.020022491521
  0
LINE
  5
20D
330
1F
100
AcDbEntity
  8
LAY-10
  6
CONTINUOUS
 62
     7
100
AcDbLine
 10
436.8975719145059
 20
602.9872223835273
 30
0.0
 11
398.2642081824961
 21
584.9557499398859
 31
0.0
  0
LINE
  5
20E
330
1F
100
AcDbEntity
  8
LAY-10
  6
CONTINUOUS
 62
     7
100
AcDbLine
 10
423.8236409730866
 20
554.4952040870294
 30
0.0
 11
448.2897880430179
 21
589.4105078847637
 31
0.0
  0
ARC
  5
20F
330
1F
100
AcDbEntity
  8
LAY-10
  6
CONTINUOUS
 62
     7
100
AcDbCircle
 10
445.291061067553
 20
591.5118012210414
 30
0.0
 40
3.66166589935055
100
AcDbArc
 50
324.9799775084768
 51
135.0200224915205
  0
LINE
  5
210
330
1F
100
AcDbEntity
  8
LAY-10
  6
CONTINUOUS
 62
     7
100
AcDbLine
 10
442.7009676240235
 20
594.1000850370577
 30
0.0
 11
412.564607598463
 21
563.9426548390886
 31
0.0
  0
LINE
  5
211
330
1F
100
AcDbEntity
  8
LAY-10
  6
CONTINUOUS
 62
     7
100
AcDbLine
 10
451.1939557367524
 20
587.7337858850141
 30
0.0
 11
433.1894892020289
 21
549.0878290908603
 31
0.0
  0
TEXT
  5
212
330
1F
100
AcDbEntity
  8
LAY-10
  6
CONTINUOUS
 62
     7
100
AcDbText
 10
489.782115453262
 20
693.5025643481982
 30
0.0
 40
5.456692828292274
  1
Ｘ
 50
166.5538006542029
 41
1.2
  7
EXCADSTD
100
AcDbText
  0
TEXT
  5
213
330
1F
100
AcDbEntity
  8
LAY-10
  6
CONTINUOUS
 62
     7
100
AcDbText
 10
481.6584764206158
 20
695.4490532813269
 30
0.0
 40
5.456692828292274
  1
－
 50
171.9322803925228
 41
1.2
  7
EXCADSTD
100
AcDbText
  0
TEXT
  5
214
330
1F
100
AcDbEntity
  8
LAY-10
  6
CONTINUOUS
 62
     7
100
AcDbText
 10
473.3881508875202
 20
696.6255080727027
 30
0.0
 40
5.456692828292274
  1
９
 50
177.3107601308411
 41
1.2
  7
EXCADSTD
100
AcDbText
  0
TEXT
  5
215
330
1F
100
AcDbEntity
  8
LAY-10
  6
CONTINUOUS
 62
     7
100
AcDbText
 10
465.0439633476078
 20
697.0215694294393
 30
0.0
 40
5.456692828292274
  1
１
 50
182.6892398691588
 41
1.2
  7
EXCADSTD
100
AcDbText
  0
TEXT
  5
216
330
1F
100
AcDbEntity
  8
LAY-10
  6
CONTINUOUS
 62
     7
100
AcDbText
 10
456.6993886876824
 20
696.6337498264525
 30
0.0
 40
5.456692828292274
  1
２
 50
188.0677196074772
 41
1.2
  7
EXCADSTD
100
AcDbText
  0
TEXT
  5
217
330
1F
100
AcDbEntity
  8
LAY-10
  6
CONTINUOUS
 62
     7
100
AcDbText
 10
448.4279052033398
 20
695.4654642159222
 30
0.0
 40
5.456692828292274
  1
５
 50
193.4461993457969
 41
1.2
  7
EXCADSTD
100
AcDbText
  0
LINE
  5
218
330
1F
100
AcDbEntity
  8
LAY-10
  6
CONTINUOUS
 62
     7
100
AcDbLine
 10
373.5450930786148
 20
625.0000000000101
 30
0.0
 11
396.6088573453649
 21
625.0000000000101
 31
0.0
  0
LINE
  5
219
330
1F
100
AcDbEntity
  8
LAY-10
  6
CONTINUOUS
 62
     7
100
AcDbLine
 10
373.5450930786149
 20
605.0000000000101
 30
0.0
 11
396.6088573453649
 21
605.0000000000101
 31
0.0
  0
ARC
  5
21A
330
1F
100
AcDbEntity
  8
LAY-10
  6
CONTINUOUS
 62
     7
100
AcDbCircle
 10
465.0000000000042
 20
615.0000000000102
 30
0.0
 40
69.11836509645775
100
AcDbArc
 50
94.62410707526655
 51
94.9799775084797
  0
ARC
  5
21B
330
1F
100
AcDbEntity
  8
LAY-10
  6
CONTINUOUS
 62
     7
100
AcDbCircle
 10
459.2665576120208
 20
685.8868781395978
 30
0.0
 40
2.0
100
AcDbArc
 50
274.6241070752675
 51
342.8573227692601
  0
ARC
  5
21C
330
1F
100
AcDbEntity
  8
LAY-10
  6
CONTINUOUS
 62
     7
100
AcDbCircle
 10
465.0000000000042
 20
615.0000000000102
 30
0.0
 40
69.11836509645775
100
AcDbArc
 50
85.02002249152031
 51
85.37589292473885
  0
ARC
  5
21D
330
1F
100
AcDbEntity
  8
LAY-10
  6
CONTINUOUS
 62
     7
100
AcDbCircle
 10
465.000000000001
 20
684.11836509647
 30
0.0
 40
4.0
100
AcDbArc
 50
17.14267723074512
 51
162.8573227692616
  0
ARC
  5
21E
330
1F
100
AcDbEntity
  8
LAY-10
  6
CONTINUOUS
 62
     7
100
AcDbCircle
 10
470.733442387981
 20
685.8868781395983
 30
0.0
 40
2.0
100
AcDbArc
 50
197.14267723074
 51
265.3758929247358
  0
ARC
  5
21F
330
1F
100
AcDbEntity
  8
LAY-10
  6
CONTINUOUS
 62
     7
100
AcDbCircle
 10
406.4768839301363
 20
574.5912541710909
 30
0.0
 40
2.0
100
AcDbArc
 50
34.62410707526458
 51
102.8573227692654
  0
ARC
  5
220
330
1F
100
AcDbEntity
  8
LAY-10
  6
CONTINUOUS
 62
     7
100
AcDbCircle
 10
405.141739958419
 20
580.44081745178
 30
0.0
 40
4.0
100
AcDbArc
 50
137.1426772307457
 51
282.8573227692599
  0
ARC
  5
221
330
1F
100
AcDbEntity
  8
LAY-10
  6
CONTINUOUS
 62
     7
100
AcDbCircle
 10
400.7434415421557
 20
584.5218676893411
 30
0.0
 40
2.0
100
AcDbArc
 50
317.1426772307445
 51
25.37589292473859
  0
ARC
  5
222
330
1F
100
AcDbEntity
  8
LAY-10
  6
CONTINUOUS
 62
     7
100
AcDbCircle
 10
465.0000000000042
 20
615.0000000000102
 30
0.0
 40
69.11836509645775
100
AcDbArc
 50
205.0200224915203
 51
205.3758929247353
  0
ARC
  5
223
330
1F
100
AcDbEntity
  8
LAY-10
  6
CONTINUOUS
 62
     7
100
AcDbCircle
 10
465.0000000000042
 20
615.0000000000102
 30
0.0
 40
69.11836509645775
100
AcDbArc
 50
214.6241070752626
 51
214.9799775084797
  0
ARC
  5
224
330
1F
100
AcDbEntity
  8
LAY-10
  6
CONTINUOUS
 62
     7
100
AcDbCircle
 10
405.141739958419
 20
649.55918254824
 30
0.0
 40
4.0
100
AcDbArc
 50
77.14267723074497
 51
222.8573227692613
  0
ARC
  5
225
330
1F
100
AcDbEntity
  8
LAY-10
  6
CONTINUOUS
 62
     7
100
AcDbCircle
 10
400.7434415421562
 20
645.4781323106785
 30
0.0
 40
2.0
100
AcDbArc
 50
334.6241070752695
 51
42.85732276926584
  0
ARC
  5
226
330
1F
100
AcDbEntity
  8
LAY-10
  6
CONTINUOUS
 62
     7
100
AcDbCircle
 10
406.4768839301356
 20
655.4087458289293
 30
0.0
 40
2.0
100
AcDbArc
 50
257.142677230745
 51
325.3758929247355
  0
ARC
  5
227
330
1F
100
AcDbEntity
  8
LAY-10
  6
CONTINUOUS
 62
     7
100
AcDbCircle
 10
465.0000000000042
 20
615.0000000000102
 30
0.0
 40
69.11836509645775
100
AcDbArc
 50
145.0200224915206
 51
145.375892924738
  0
ARC
  5
228
330
1F
100
AcDbEntity
  8
LAY-10
  6
CONTINUOUS
 62
     7
100
AcDbCircle
 10
465.0000000000042
 20
615.0000000000102
 30
0.0
 40
69.11836509645775
100
AcDbArc
 50
154.6241070752654
 51
154.9799775084797
  0
LINE
  5
229
330
1F
100
AcDbEntity
  8
LAY-10
  6
CONTINUOUS
 62
     7
100
AcDbLine
 10
464.9999999999993
 20
537.7188021073353
 30
0.0
 11
457.0000000799996
 21
533.100000000006
 31
0.0
  0
LINE
  5
22A
330
1F
100
AcDbEntity
  8
LAY-10
  6
CONTINUOUS
 62
     7
100
AcDbLine
 10
464.9999999999983
 20
528.481197892675
 30
0.0
 11
457.0000000799984
 21
533.100000000004
 31
0.0
  0
LINE
  5
22B
330
1F
100
AcDbEntity
  8
LAY-10
  6
CONTINUOUS
 62
     7
100
AcDbLine
 10
464.9999999999994
 20
537.7188021073353
 30
0.0
 11
472.9999999199995
 21
533.100000000006
 31
0.0
  0
LINE
  5
22C
330
1F
100
AcDbEntity
  8
LAY-10
  6
CONTINUOUS
 62
     7
100
AcDbLine
 10
465.0000000000007
 20
528.481197892675
 30
0.0
 11
472.9999999200007
 21
533.100000000004
 31
0.0
  0
TEXT
  5
22D
330
1F
100
AcDbEntity
  8
LAY-10
  6
CONTINUOUS
 62
     7
100
AcDbText
 10
460.5600000503995
 20
530.8896199008489
 30
0.0
 40
4.365432544280815
  1
ＳＦ
 41
0.9959848942389818
  7
EXCADSTD
100
AcDbText
  0
ARC
  5
22E
330
1F
100
AcDbEntity
  8
LAY-10
  6
CONTINUOUS
 62
     7
100
AcDbCircle
 10
549.5000000000101
 20
615.0000000000103
 30
0.0
 40
4.000000000000071
100
AcDbArc
 50
90.0
 51
270.0
  0
ARC
  5
22F
330
1F
100
AcDbEntity
  8
LAY-10
  6
CONTINUOUS
 62
     7
100
AcDbCircle
 10
475.486907365504
 20
643.8125411866333
 30
0.0
 40
2.66166589935055
100
AcDbArc
 50
164.9799775084804
 51
335.0200224915224
  0
LINE
  5
230
330
1F
100
AcDbEntity
  8
LAY-10
  6
CONTINUOUS
 62
     7
100
AcDbLine
 10
472.9161764276861
 20
644.5023294187099
 30
0.0
 11
483.965097079203
 21
685.6798978774237
 31
0.0
  0
LINE
  5
231
330
1F
100
AcDbEntity
  8
LAY-10
  6
CONTINUOUS
 62
     7
100
AcDbLine
 10
477.8995888440598
 20
642.6885156340772
 30
0.0
 11
495.9040553787833
 21
681.3344724282309
 31
0.0
  0
ARC
  5
232
330
1F
100
AcDbEntity
  8
LAY-10
  6
CONTINUOUS
 62
     7
100
AcDbCircle
 10
484.7089389324555
 20
638.4881987789787
 30
0.0
 40
2.66166589935055
100
AcDbArc
 50
144.9799775084798
 51
315.020022491521
  0
LINE
  5
233
330
1F
100
AcDbEntity
  8
LAY-10
  6
CONTINUOUS
 62
     7
100
AcDbLine
 10
482.5291635101611
 20
640.0156294543702
 30
0.0
 11
506.9953105800925
 21
674.9309332521043
 31
0.0
  0
LINE
  5
234
330
1F
100
AcDbEntity
  8
LAY-10
  6
CONTINUOUS
 62
     7
100
AcDbLine
 10
486.5916785335743
 20
636.606774596572
 30
0.0
 11
516.728038559135
 21
666.7642047945411
 31
0.0
  0
ARC
  5
235
330
1F
100
AcDbEntity
  8
LAY-10
  6
CONTINUOUS
 62
     7
100
AcDbCircle
 10
491.5537815911933
 20
630.3308329496857
 30
0.0
 40
2.66166589935055
100
AcDbArc
 50
124.9799775084798
 51
295.0200224915239
  0
LINE
  5
236
330
1F
100
AcDbEntity
  8
LAY-10
  6
CONTINUOUS
 62
     7
100
AcDbLine
 10
490.0278747704103
 20
632.5116753864639
 30
0.0
 11
524.960269840248
 21
656.9534135902082
 31
0.0
  0
LINE
  5
237
330
1F
100
AcDbEntity
  8
LAY-10
  6
CONTINUOUS
 62
     7
100
AcDbLine
 10
492.679493132703
 20
627.9189376606904
 30
0.0
 11
531.3128568647129
 21
645.9504101043319
 31
0.0
  0
ARC
  5
238
330
1F
100
AcDbEntity
  8
LAY-10
  6
CONTINUOUS
 62
     7
100
AcDbCircle
 10
495.1958462979553
 20
620.3243424076645
 30
0.0
 40
2.66166589935055
100
AcDbArc
 50
104.9799775084796
 51
275.0200224915235
  0
LINE
  5
239
330
1F
100
AcDbEntity
  8
LAY-10
  6
CONTINUOUS
 62
     7
100
AcDbLine
 10
494.5078549612562
 20
622.8955548221479
 30
0.0
 11
535.6931356383336
 21
633.9156930828926
 31
0.0
  0
LINE
  5
23A
330
1F
100
AcDbEntity
  8
LAY-10
  6
CONTINUOUS
 62
     7
100
AcDbLine
 10
495.4287523542168
 20
617.672886179717
 30
0.0
 11
537.8993659588716
 21
621.4035391761366
 31
0.0
  0
ARC
  5
23B
330
1F
100
AcDbEntity
  8
LAY-10
  6
CONTINUOUS
 62
     7
100
AcDbCircle
 10
495.1958462979553
 20
609.6756575923555
 30
0.0
 40
2.66166589935055
100
AcDbArc
 50
84.9799775084802
 51
255.0200224915258
  0
LINE
  5
23C
330
1F
100
AcDbEntity
  8
LAY-10
  6
CONTINUOUS
 62
     7
100
AcDbLine
 10
495.4287523542168
 20
612.327113820303
 30
0.0
 11
537.8993659588716
 21
608.5964608238834
 31
0.0
  0
LINE
  5
23D
330
1F
100
AcDbEntity
  8
LAY-10
  6
CONTINUOUS
 62
     7
100
AcDbLine
 10
494.5078549612564
 20
607.1044451778723
 30
0.0
 11
535.6931356383336
 21
596.0843069171276
 31
0.0
  0
ARC
  5
23E
330
1F
100
AcDbEntity
  8
LAY-10
  6
CONTINUOUS
 62
     7
100
AcDbCircle
 10
491.5537815911933
 20
599.6691670503345
 30
0.0
 40
2.66166589935055
100
AcDbArc
 50
64.9799775084719
 51
235.0200224915237
  0
LINE
  5
23F
330
1F
100
AcDbEntity
  8
LAY-10
  6
CONTINUOUS
 62
     7
100
AcDbLine
 10
492.6794931327032
 20
602.0810623393296
 30
0.0
 11
531.3128568647132
 21
584.0495898956882
 31
0.0
  0
LINE
  5
240
330
1F
100
AcDbEntity
  8
LAY-10
  6
CONTINUOUS
 62
     7
100
AcDbLine
 10
490.0278747704105
 20
597.4883246135561
 30
0.0
 11
524.960269840248
 21
573.0465864098119
 31
0.0
  0
ARC
  5
241
330
1F
100
AcDbEntity
  8
LAY-10
  6
CONTINUOUS
 62
     7
100
AcDbCircle
 10
484.7089389324555
 20
591.5118012210414
 30
0.0
 40
2.66166589935055
100
AcDbArc
 50
44.97997750847911
 51
215.020022491525
  0
LINE
  5
242
330
1F
100
AcDbEntity
  8
LAY-10
  6
CONTINUOUS
 62
     7
100
AcDbLine
 10
486.5916785335743
 20
593.393225403448
 30
0.0
 11
516.728038559135
 21
563.2357952054789
 31
0.0
  0
LINE
  5
243
330
1F
100
AcDbEntity
  8
LAY-10
  6
CONTINUOUS
 62
     7
100
AcDbLine
 10
482.5291635101613
 20
589.9843705456499
 30
0.0
 11
506.9953105800925
 21
555.0690667479156
 31
0.0
  0
ARC
  5
244
330
1F
100
AcDbEntity
  8
LAY-10
  6
CONTINUOUS
 62
     7
100
AcDbCircle
 10
475.4869073655042
 20
586.1874588133867
 30
0.0
 40
2.66166589935055
100
AcDbArc
 50
24.97997750847984
 51
195.0200224915197
  0
LINE
  5
245
330
1F
100
AcDbEntity
  8
LAY-10
  6
CONTINUOUS
 62
     7
100
AcDbLine
 10
477.8995888440601
 20
587.3114843659428
 30
0.0
 11
495.9040553787835
 21
548.665527571789
 31
0.0
  0
ARC
  5
246
330
1F
100
AcDbEntity
  8
LAY-10
  6
CONTINUOUS
 62
     7
100
AcDbCircle
 10
465.0000000000042
 20
615.0000000000102
 30
0.0
 40
73.1800715440005
100
AcDbArc
 50
54.97997750847946
 51
65.02002249152036
  0
ARC
  5
247
330
1F
100
AcDbEntity
  8
LAY-10
  6
CONTINUOUS
 62
     7
100
AcDbCircle
 10
465.0000000000042
 20
615.0000000000102
 30
0.0
 40
73.1800715440005
100
AcDbArc
 50
34.97997750847945
 51
45.02002249152024
  0
ARC
  5
248
330
1F
100
AcDbEntity
  8
LAY-10
  6
CONTINUOUS
 62
     7
100
AcDbCircle
 10
465.0000000000042
 20
615.0000000000102
 30
0.0
 40
73.1800715440005
100
AcDbArc
 50
14.97997750847956
 51
25.02002249152034
  0
ARC
  5
249
330
1F
100
AcDbEntity
  8
LAY-10
  6
CONTINUOUS
 62
     7
100
AcDbCircle
 10
465.0000000000042
 20
615.0000000000102
 30
0.0
 40
73.1800715440005
100
AcDbArc
 50
354.9799775084799
 51
5.020022491520108
  0
ARC
  5
24A
330
1F
100
AcDbEntity
  8
LAY-10
  6
CONTINUOUS
 62
     7
100
AcDbCircle
 10
465.0000000000042
 20
615.0000000000102
 30
0.0
 40
73.1800715440005
100
AcDbArc
 50
334.9799775084798
 51
345.0200224915203
  0
ARC
  5
24B
330
1F
100
AcDbEntity
  8
LAY-10
  6
CONTINUOUS
 62
     7
100
AcDbCircle
 10
465.0000000000042
 20
615.0000000000102
 30
0.0
 40
73.1800715440005
100
AcDbArc
 50
314.9799775084801
 51
325.0200224915206
  0
ARC
  5
24C
330
1F
100
AcDbEntity
  8
LAY-10
  6
CONTINUOUS
 62
     7
100
AcDbCircle
 10
465.0000000000042
 20
615.0000000000102
 30
0.0
 40
73.1800715440005
100
AcDbArc
 50
294.9799775084795
 51
305.0200224915207
  0
ARC
  5
24D
330
1F
100
AcDbEntity
  8
LAY-10
  6
CONTINUOUS
 62
     7
100
AcDbCircle
 10
465.0000000000042
 20
615.0000000000102
 30
0.0
 40
69.11836509645775
100
AcDbArc
 50
65.02002249152048
 51
74.97997750847998
  0
ARC
  5
24E
330
1F
100
AcDbEntity
  8
LAY-10
  6
CONTINUOUS
 62
     7
100
AcDbCircle
 10
465.0000000000042
 20
615.0000000000102
 30
0.0
 40
69.11836509645775
100
AcDbArc
 50
45.02002249152024
 51
54.97997750847946
  0
ARC
  5
24F
330
1F
100
AcDbEntity
  8
LAY-10
  6
CONTINUOUS
 62
     7
100
AcDbCircle
 10
465.0000000000042
 20
615.0000000000102
 30
0.0
 40
69.11836509645775
100
AcDbArc
 50
5.020022491520222
 51
14.9799775084795
  0
ARC
  5
250
330
1F
100
AcDbEntity
  8
LAY-10
  6
CONTINUOUS
 62
     7
100
AcDbCircle
 10
465.0000000000042
 20
615.0000000000102
 30
0.0
 40
69.11836509645775
100
AcDbArc
 50
345.0200224915203
 51
354.9799775084796
  0
ARC
  5
251
330
1F
100
AcDbEntity
  8
LAY-10
  6
CONTINUOUS
 62
     7
100
AcDbCircle
 10
465.0000000000042
 20
615.0000000000102
 30
0.0
 40
69.11836509645775
100
AcDbArc
 50
305.0200224915204
 51
314.9799775084799
  0
LINE
  5
252
330
1F
100
AcDbEntity
  8
LAY-10
  6
CONTINUOUS
 62
     7
100
AcDbLine
 10
496.8105107979794
 20
680.9121709091597
 30
0.0
 11
478.806044263256
 21
642.2662141150058
 31
0.0
  0
ARC
  5
253
330
1F
100
AcDbEntity
  8
LAY-10
  6
CONTINUOUS
 62
     7
100
AcDbCircle
 10
475.486907365504
 20
643.8125411866333
 30
0.0
 40
3.66166589935055
100
AcDbArc
 50
164.9799775084823
 51
335.0200224915221
  0
LINE
  5
254
330
1F
100
AcDbEntity
  8
LAY-10
  6
CONTINUOUS
 62
     7
100
AcDbLine
 10
471.9503411068651
 20
644.7614859988972
 30
0.0
 11
482.9992617583817
 21
685.9390544576108
 31
0.0
  0
LINE
  5
255
330
1F
100
AcDbEntity
  8
LAY-10
  6
CONTINUOUS
 62
     7
100
AcDbLine
 10
517.4353924015453
 20
666.0573451609314
 30
0.0
 11
487.299032375985
 21
635.8999149629623
 31
0.0
  0
ARC
  5
256
330
1F
100
AcDbEntity
  8
LAY-10
  6
CONTINUOUS
 62
     7
100
AcDbCircle
 10
484.7089389324555
 20
638.4881987789787
 30
0.0
 40
3.66166589935055
100
AcDbArc
 50
144.9799775084793
 51
315.0200224915224
  0
LINE
  5
257
330
1F
100
AcDbEntity
  8
LAY-10
  6
CONTINUOUS
 62
     7
100
AcDbLine
 10
481.7102119569905
 20
640.5894921152566
 30
0.0
 11
506.1763590269217
 21
675.5047959129907
 31
0.0
  0
LINE
  5
258
330
1F
100
AcDbEntity
  8
LAY-10
  6
CONTINUOUS
 62
     7
100
AcDbLine
 10
531.7357918175122
 20
645.0442500601342
 30
0.0
 11
493.1024280855025
 21
627.0127776164927
 31
0.0
  0
ARC
  5
259
330
1F
100
AcDbEntity
  8
LAY-10
  6
CONTINUOUS
 62
     7
100
AcDbCircle
 10
491.5537815911933
 20
630.3308329496857
 30
0.0
 40
3.66166589935055
100
AcDbArc
 50
124.9799775084836
 51
295.0200224915242
  0
LINE
  5
25A
330
1F
100
AcDbEntity
  8
LAY-10
  6
CONTINUOUS
 62
     7
100
AcDbLine
 10
489.4545846286405
 20
633.3310278218356
 30
0.0
 11
524.386979698478
 21
657.7727660255798
 31
0.0
  0
LINE
  5
25B
330
1F
100
AcDbEntity
  8
LAY-10
  6
CONTINUOUS
 62
     7
100
AcDbLine
 10
537.9868698248972
 20
620.4073749961791
 30
0.0
 11
495.5162562202423
 21
616.6767219997595
 31
0.0
  0
ARC
  5
25C
330
1F
100
AcDbEntity
  8
LAY-10
  6
CONTINUOUS
 62
     7
100
AcDbCircle
 10
495.1958462979553
 20
620.3243424076645
 30
0.0
 40
3.66166589935055
100
AcDbArc
 50
104.9799775084787
 51
275.0200224915243
  0
LINE
  5
25D
330
1F
100
AcDbEntity
  8
LAY-10
  6
CONTINUOUS
 62
     7
100
AcDbLine
 10
494.2493734828457
 20
623.8615710359447
 30
0.0
 11
535.4346541599232
 21
634.8817092966897
 31
0.0
  0
LINE
  5
25E
330
1F
100
AcDbEntity
  8
LAY-10
  6
CONTINUOUS
 62
     7
100
AcDbLine
 10
535.4346541599232
 20
595.1182907033306
 30
0.0
 11
494.2493734828457
 21
606.1384289640753
 31
0.0
  0
ARC
  5
25F
330
1F
100
AcDbEntity
  8
LAY-10
  6
CONTINUOUS
 62
     7
100
AcDbCircle
 10
495.1958462979553
 20
609.6756575923555
 30
0.0
 40
3.66166589935055
100
AcDbArc
 50
84.97997750848027
 51
255.0200224915262
  0
LINE
  5
260
330
1F
100
AcDbEntity
  8
LAY-10
  6
CONTINUOUS
 62
     7
100
AcDbLine
 10
495.5162562202423
 20
613.3232780002608
 30
0.0
 11
537.9868698248972
 21
609.5926250038411
 31
0.0
  0
LINE
  5
261
330
1F
100
AcDbEntity
  8
LAY-10
  6
CONTINUOUS
 62
     7
100
AcDbLine
 10
524.386979698478
 20
572.2272339744403
 30
0.0
 11
489.4545846286405
 21
596.6689721781846
 31
0.0
  0
ARC
  5
262
330
1F
100
AcDbEntity
  8
LAY-10
  6
CONTINUOUS
 62
     7
100
AcDbCircle
 10
491.5537815911933
 20
599.6691670503345
 30
0.0
 40
3.66166589935055
100
AcDbArc
 50
64.979977508479
 51
235.0200224915285
  0
LINE
  5
263
330
1F
100
AcDbEntity
  8
LAY-10
  6
CONTINUOUS
 62
     7
100
AcDbLine
 10
493.1024280855025
 20
602.9872223835273
 30
0.0
 11
531.7357918175126
 21
584.9557499398859
 31
0.0
  0
LINE
  5
264
330
1F
100
AcDbEntity
  8
LAY-10
  6
CONTINUOUS
 62
     7
100
AcDbLine
 10
506.1763590269219
 20
554.4952040870294
 30
0.0
 11
481.7102119569905
 21
589.4105078847637
 31
0.0
  0
ARC
  5
265
330
1F
100
AcDbEntity
  8
LAY-10
  6
CONTINUOUS
 62
     7
100
AcDbCircle
 10
484.7089389324555
 20
591.5118012210414
 30
0.0
 40
3.66166589935055
100
AcDbArc
 50
44.97997750848083
 51
215.0200224915233
  0
LINE
  5
266
330
1F
100
AcDbEntity
  8
LAY-10
  6
CONTINUOUS
 62
     7
100
AcDbLine
 10
487.299032375985
 20
594.1000850370577
 30
0.0
 11
517.4353924015456
 21
563.9426548390886
 31
0.0
  0
LINE
  5
267
330
1F
100
AcDbEntity
  8
LAY-10
  6
CONTINUOUS
 62
     7
100
AcDbLine
 10
478.806044263256
 20
587.7337858850141
 30
0.0
 11
496.8105107979797
 21
549.0878290908603
 31
0.0
  0
LINE
  5
268
330
1F
100
AcDbEntity
  8
LAY-10
  6
CONTINUOUS
 62
     7
100
AcDbLine
 10
556.4549069213937
 20
625.0000000000101
 30
0.0
 11
533.3911426546435
 21
625.0000000000101
 31
0.0
  0
LINE
  5
269
330
1F
100
AcDbEntity
  8
LAY-10
  6
CONTINUOUS
 62
     7
100
AcDbLine
 10
556.4549069213937
 20
605.0000000000101
 30
0.0
 11
533.3911426546435
 21
605.0000000000101
 31
0.0
  0
ARC
  5
26A
330
1F
100
AcDbEntity
  8
LAY-10
  6
CONTINUOUS
 62
     7
100
AcDbCircle
 10
523.5231160698722
 20
574.5912541710909
 30
0.0
 40
2.0
100
AcDbArc
 50
77.1426772307347
 51
145.3758929247364
  0
ARC
  5
26B
330
1F
100
AcDbEntity
  8
LAY-10
  6
CONTINUOUS
 62
     7
100
AcDbCircle
 10
524.8582600415896
 20
580.44081745178
 30
0.0
 40
4.0
100
AcDbArc
 50
257.1426772307383
 51
42.85732276925433
  0
ARC
  5
26C
330
1F
100
AcDbEntity
  8
LAY-10
  6
CONTINUOUS
 62
     7
100
AcDbCircle
 10
529.2565584578527
 20
584.5218676893411
 30
0.0
 40
2.0
100
AcDbArc
 50
154.6241070752614
 51
222.8573227692578
  0
ARC
  5
26D
330
1F
100
AcDbEntity
  8
LAY-10
  6
CONTINUOUS
 62
     7
100
AcDbCircle
 10
465.0000000000042
 20
615.0000000000102
 30
0.0
 40
69.11836509645775
100
AcDbArc
 50
334.6241070752651
 51
334.9799775084797
  0
ARC
  5
26E
330
1F
100
AcDbEntity
  8
LAY-10
  6
CONTINUOUS
 62
     7
100
AcDbCircle
 10
465.0000000000042
 20
615.0000000000102
 30
0.0
 40
69.11836509645775
100
AcDbArc
 50
325.0200224915209
 51
325.3758929247374
  0
ARC
  5
26F
330
1F
100
AcDbEntity
  8
LAY-10
  6
CONTINUOUS
 62
     7
100
AcDbCircle
 10
524.8582600415896
 20
649.55918254824
 30
0.0
 40
4.0
100
AcDbArc
 50
317.14267723074
 51
102.8573227692551
  0
ARC
  5
270
330
1F
100
AcDbEntity
  8
LAY-10
  6
CONTINUOUS
 62
     7
100
AcDbCircle
 10
529.2565584578524
 20
645.4781323106785
 30
0.0
 40
2.0
100
AcDbArc
 50
137.1426772307353
 51
205.37589292473
  0
ARC
  5
271
330
1F
100
AcDbEntity
  8
LAY-10
  6
CONTINUOUS
 62
     7
100
AcDbCircle
 10
523.5231160698728
 20
655.4087458289293
 30
0.0
 40
2.0
100
AcDbArc
 50
214.6241070752637
 51
282.8573227692584
  0
ARC
  5
272
330
1F
100
AcDbEntity
  8
LAY-10
  6
CONTINUOUS
 62
     7
100
AcDbCircle
 10
465.0000000000042
 20
615.0000000000102
 30
0.0
 40
69.11836509645775
100
AcDbArc
 50
34.62410707526217
 51
34.97997750847956
  0
ARC
  5
273
330
1F
100
AcDbEntity
  8
LAY-10
  6
CONTINUOUS
 62
     7
100
AcDbCircle
 10
465.0000000000042
 20
615.0000000000102
 30
0.0
 40
69.11836509645775
100
AcDbArc
 50
25.02002249152029
 51
25.37589292473458
  0
LINE
  5
274
330
1F
100
AcDbEntity
  8
LAY-10
  6
CONTINUOUS
 62
     7
100
AcDbLine
 10
467.651618362297
 20
584.5693869528757
 30
0.0
 11
471.3525870244695
 21
542.09617630549
 31
0.0
  0
LINE
  5
275
330
1F
100
AcDbEntity
  8
LAY-10
  6
CONTINUOUS
 62
     7
100
AcDbLine
 10
462.3483816377117
 20
584.5693869528757
 30
0.0
 11
458.6474129755392
 21
542.09617630549
 31
0.0
  0
ARC
  5
276
330
1F
100
AcDbEntity
  8
LAY-10
  6
CONTINUOUS
 62
     7
100
AcDbCircle
 10
465.0000000000042
 20
584.3383341006587
 30
0.0
 40
2.66166589935055
100
AcDbArc
 50
4.979977508482073
 51
175.0200224915179
  0
ARC
  5
277
330
1F
100
AcDbEntity
  8
LAY-10
  6
CONTINUOUS
 62
     7
100
AcDbCircle
 10
465.0000000000042
 20
584.3383341006587
 30
0.0
 40
3.66166589935055
100
AcDbArc
 50
4.979977508481958
 51
175.0200224915199
  0
LINE
  5
278
330
1F
100
AcDbEntity
  8
LAY-10
  6
CONTINUOUS
 62
     7
100
AcDbLine
 10
468.6478434568663
 20
584.6561945617019
 30
0.0
 11
472.3488121190388
 21
542.1829839143162
 31
0.0
  0
LINE
  5
279
330
1F
100
AcDbEntity
  8
LAY-10
  6
CONTINUOUS
 62
     7
100
AcDbLine
 10
457.6511878809698
 20
542.1829839143162
 30
0.0
 11
461.3521565431421
 21
584.6561945617019
 31
0.0
  0
ARC
  5
27A
330
1F
100
AcDbEntity
  8
LAY-10
  6
CONTINUOUS
 62
     7
100
AcDbCircle
 10
465.0000000000042
 20
615.0000000000099
 30
0.0
 40
69.11836509645775
100
AcDbArc
 50
265.0200224915205
 51
265.3758929247336
  0
ARC
  5
27B
330
1F
100
AcDbEntity
  8
LAY-10
  6
CONTINUOUS
 62
     7
100
AcDbCircle
 10
459.2665576120208
 20
544.1131218604223
 30
0.0
 40
2.0
100
AcDbArc
 50
17.14267723073996
 51
85.3758929247326
  0
ARC
  5
27C
330
1F
100
AcDbEntity
  8
LAY-10
  6
CONTINUOUS
 62
     7
100
AcDbCircle
 10
465.0000000000042
 20
615.0000000000099
 30
0.0
 40
69.11836509645775
100
AcDbArc
 50
274.6241070752613
 51
274.9799775084796
  0
ARC
  5
27D
330
1F
100
AcDbEntity
  8
LAY-10
  6
CONTINUOUS
 62
     7
100
AcDbCircle
 10
465.000000000001
 20
545.88163490355
 30
0.0
 40
4.0
100
AcDbArc
 50
197.1426772307366
 51
342.8573227692565
  0
ARC
  5
27E
330
1F
100
AcDbEntity
  8
LAY-10
  6
CONTINUOUS
 62
     7
100
AcDbCircle
 10
470.733442387981
 20
544.1131218604218
 30
0.0
 40
2.0
100
AcDbArc
 50
94.62410707526419
 51
162.8573227692565
  0
LINE
  5
27F
330
1F
100
AcDbEntity
  8
LAY-10
  6
CONTINUOUS
 62
     7
100
AcDbLine
 10
458.0496588931434
 20
585.2385140011229
 30
0.0
 11
447.0007382416267
 21
544.0609455424092
 31
0.0
  0
ARC
  5
280
330
1F
100
AcDbEntity
  8
LAY-10
  6
CONTINUOUS
 62
     7
100
AcDbCircle
 10
454.5130926345042
 20
586.1874588133867
 30
0.0
 40
3.66166589935055
100
AcDbArc
 50
344.9799775084804
 51
155.0200224915181
  0
ARC
  5
281
330
1F
100
AcDbEntity
  8
LAY-10
  6
CONTINUOUS
 62
     7
100
AcDbCircle
 10
465.0000000000042
 20
615.0000000000102
 30
0.0
 40
73.1800715440005
100
AcDbArc
 50
74.97997750847969
 51
85.02002249152036
  0
ARC
  5
282
330
1F
100
AcDbEntity
  8
LAY-10
  6
CONTINUOUS
 62
     7
100
AcDbCircle
 10
465.0000000000042
 20
615.0000000000099
 30
0.0
 40
73.1800715440005
100
AcDbArc
 50
254.9799775084799
 51
265.0200224915204
  0
ARC
  5
283
330
1F
100
AcDbEntity
  8
LAY-10
  6
CONTINUOUS
 62
     7
100
AcDbCircle
 10
465.0000000000042
 20
615.0000000000099
 30
0.0
 40
73.1800715440005
100
AcDbArc
 50
274.9799775084797
 51
285.0200224915204
  0
ARC
  5
284
330
1F
100
AcDbEntity
  8
LAY-10
  6
CONTINUOUS
 62
     7
100
AcDbCircle
 10
465.0000000000042
 20
615.0000000000099
 30
0.0
 40
69.11836509645775
100
AcDbArc
 50
245.0200224915207
 51
254.9799775084799
  0
ARC
  5
285
330
1F
100
AcDbEntity
  8
LAY-10
  6
CONTINUOUS
 62
     7
100
AcDbCircle
 10
465.0000000000042
 20
615.0000000000099
 30
0.0
 40
69.11836509645775
100
AcDbArc
 50
285.0200224915201
 51
294.9799775084798
  0
LINE
  5
286
330
1F
100
AcDbEntity
  8
LAY-10
  6
CONTINUOUS
 62
     7
100
AcDbLine
 10
457.0838235723221
 20
585.4976705813101
 30
0.0
 11
446.0349029208055
 21
544.3201021225964
 31
0.0
  0
LINE
  5
287
330
1F
100
AcDbEntity
  8
LAY-10
  6
CONTINUOUS
 62
     7
100
AcDbLine
 10
472.9161764276863
 20
585.4976705813101
 30
0.0
 11
483.965097079203
 21
544.3201021225964
 31
0.0
  0
ARC
  5
288
330
1F
100
AcDbEntity
  8
LAY-10
  6
CONTINUOUS
 62
     7
100
AcDbCircle
 10
475.4869073655042
 20
586.1874588133867
 30
0.0
 40
3.66166589935055
100
AcDbArc
 50
24.97997750848156
 51
195.0200224915197
  0
LINE
  5
289
330
1F
100
AcDbEntity
  8
LAY-10
  6
CONTINUOUS
 62
     7
100
AcDbLine
 10
471.9503411068651
 20
585.2385140011229
 30
0.0
 11
482.9992617583817
 21
544.0609455424092
 31
0.0
  0
LINE
  5
28A
330
1F
100
AcDbEntity
  8
LAY-10
  6
CONTINUOUS
 62
     7
100
AcDbLine
 10
371.1107822029345
 20
621.0000000000098
 30
0.0
 11
373.1958606597761
 21
621.0000000000098
 31
0.0
  0
LINE
  5
28B
330
1F
100
AcDbEntity
  8
LAY-10
  6
CONTINUOUS
 62
     7
100
AcDbLine
 10
373.241614896479
 20
621.6632396920206
 30
0.0
 11
371.7531079072522
 21
621.6632396920206
 31
0.0
  0
LINE
  5
28C
330
1F
100
AcDbEntity
  8
LAY-10
  6
CONTINUOUS
 62
     7
100
AcDbLine
 10
380.4999999999984
 20
619.0000000000103
 30
0.0
 11
379.4003676271757
 21
619.0000000000103
 31
0.0
  0
LINE
  5
28D
330
1F
100
AcDbEntity
  8
LAY-10
  6
CONTINUOUS
 62
     7
100
AcDbLine
 10
380.4999999999984
 20
611.0000000000101
 30
0.0
 11
379.4003676271757
 21
611.0000000000101
 31
0.0
  0
LINE
  5
28E
330
1F
100
AcDbEntity
  8
LAY-10
  6
CONTINUOUS
 62
     7
100
AcDbLine
 10
373.2416148964791
 20
608.3367603079986
 30
0.0
 11
371.7531079072522
 21
608.3367603079986
 31
0.0
  0
LINE
  5
28F
330
1F
100
AcDbEntity
  8
LAY-10
  6
CONTINUOUS
 62
     7
100
AcDbLine
 10
371.1107822029345
 20
609.0000000000098
 30
0.0
 11
373.1958606597761
 21
609.0000000000098
 31
0.0
  0
LINE
  5
290
330
1F
100
AcDbEntity
  8
LAY-10
  6
CONTINUOUS
 62
     7
100
AcDbLine
 10
460.9999999999997
 20
521.0043340438357
 30
0.0
 11
460.9999999999995
 21
523.086997655402
 31
0.0
  0
LINE
  5
291
330
1F
100
AcDbEntity
  8
LAY-10
  6
CONTINUOUS
 62
     7
100
AcDbLine
 10
460.2999999999995
 20
523.1201327819958
 30
0.0
 11
460.2999999999996
 21
521.633562517638
 31
0.0
  0
LINE
  5
292
330
1F
100
AcDbEntity
  8
LAY-10
  6
CONTINUOUS
 62
     7
100
AcDbLine
 10
468.9999999999996
 20
523.0869976554017
 30
0.0
 11
468.9999999999996
 21
521.0043340438353
 31
0.0
  0
LINE
  5
293
330
1F
100
AcDbEntity
  8
LAY-10
  6
CONTINUOUS
 62
     7
100
AcDbLine
 10
469.6999999999996
 20
523.1201327819955
 30
0.0
 11
469.6999999999996
 21
521.633562517638
 31
0.0
  0
LINE
  5
294
330
1F
100
AcDbEntity
  8
LAY-10
  6
CONTINUOUS
 62
     7
100
AcDbLine
 10
556.7583851035293
 20
608.3367603079986
 30
0.0
 11
558.246892092747
 21
608.3367603079986
 31
0.0
  0
LINE
  5
295
330
1F
100
AcDbEntity
  8
LAY-10
  6
CONTINUOUS
 62
     7
100
AcDbLine
 10
558.8892177970647
 20
609.0000000000098
 30
0.0
 11
556.8041393402323
 21
609.0000000000098
 31
0.0
  0
ARC
  5
296
330
1F
100
AcDbEntity
  8
LAY-10
  6
CONTINUOUS
 62
     7
100
AcDbCircle
 10
465.0000000000042
 20
615.0000000000103
 30
0.0
 40
92.00000000000007
100
AcDbArc
 50
182.7283053879629
 51
357.2716946120477
  0
LINE
  5
297
330
1F
100
AcDbEntity
  8
LAY-10
  6
CONTINUOUS
 62
     7
100
AcDbLine
 10
549.5000000000101
 20
611.0000000000101
 30
0.0
 11
550.5996323728083
 21
611.0000000000101
 31
0.0
  0
LINE
  5
298
330
1F
100
AcDbEntity
  8
LAY-10
  6
CONTINUOUS
 62
     7
100
AcDbLine
 10
549.5000000000101
 20
619.0000000000103
 30
0.0
 11
550.5996323728083
 21
619.0000000000103
 31
0.0
  0
ARC
  5
299
330
1F
100
AcDbEntity
  8
LAY-10
  6
CONTINUOUS
 62
     7
100
AcDbCircle
 10
465.0000000000042
 20
615.0000000000103
 30
0.0
 40
92.00000000000007
100
AcDbArc
 50
2.728305387952307
 51
177.2716946120374
  0
LINE
  5
29A
330
1F
100
AcDbEntity
  8
LAY-10
  6
CONTINUOUS
 62
     7
100
AcDbLine
 10
556.7583851035293
 20
621.6632396920206
 30
0.0
 11
558.246892092747
 21
621.6632396920206
 31
0.0
  0
LINE
  5
29B
330
1F
100
AcDbEntity
  8
LAY-10
  6
CONTINUOUS
 62
     7
100
AcDbLine
 10
558.8892177970647
 20
621.0000000000098
 30
0.0
 11
556.8041393402323
 21
621.0000000000098
 31
0.0
  0
LINE
  5
29C
330
1F
100
AcDbEntity
  8
LAY-10
  6
CONTINUOUS
 62
     7
100
AcDbLine
 10
469.6999999999996
 20
706.8798672180253
 30
0.0
 11
469.6999999999996
 21
708.366437482382
 31
0.0
  0
LINE
  5
29D
330
1F
100
AcDbEntity
  8
LAY-10
  6
CONTINUOUS
 62
     7
100
AcDbLine
 10
468.9999999999996
 20
706.913002344619
 30
0.0
 11
468.9999999999996
 21
708.9956659561847
 31
0.0
  0
LINE
  5
29E
330
1F
100
AcDbEntity
  8
LAY-10
  6
CONTINUOUS
 62
     7
100
AcDbLine
 10
460.9999999999997
 20
708.9956659561843
 30
0.0
 11
460.9999999999997
 21
706.9130023446187
 31
0.0
  0
LINE
  5
29F
330
1F
100
AcDbEntity
  8
LAY-10
  6
CONTINUOUS
 62
     7
100
AcDbLine
 10
460.2999999999996
 20
706.8798672180249
 30
0.0
 11
460.2999999999996
 21
708.366437482382
 31
0.0
  0
LINE
  5
2A0
330
1F
100
AcDbEntity
  8
LAY-10
  6
CONTINUOUS
 62
     7
100
AcDbLine
 10
364.6896262955962
 20
225.0735454402213
 30
0.0
 11
357.4999999999985
 21
227.0000000000084
 31
0.0
  0
LINE
  5
2A1
330
1F
100
AcDbEntity
  8
LAY-10
  6
CONTINUOUS
 62
     7
100
AcDbLine
 10
351.4999999999966
 20
220.0000000000081
 30
0.0
 11
366.5213366107659
 21
220.0000000000081
 31
0.0
  0
LINE
  5
2A2
330
1F
100
AcDbEntity
  8
LAY-10
  6
CONTINUOUS
 62
     7
100
AcDbLine
 10
351.4999999999966
 20
220.0000000000081
 30
0.0
 11
352.4999999999966
 21
227.0000000000084
 31
0.0
  0
LINE
  5
2A3
330
1F
100
AcDbEntity
  8
LAY-10
  6
CONTINUOUS
 62
     7
100
AcDbLine
 10
355.5406101782056
 20
220.0000000000081
 30
0.0
 11
355.6872389158944
 21
221.0264011638305
 31
0.0
  0
LINE
  5
2A4
330
1F
100
AcDbEntity
  8
LAY-10
  6
CONTINUOUS
 62
     7
100
AcDbLine
 10
358.1847759934219
 20
222.6754101039341
 30
0.0
 11
365.4391608067581
 21
220.7316035516159
 31
0.0
  0
ARC
  5
2A5
330
1F
100
AcDbEntity
  8
LAY-10
  6
CONTINUOUS
 62
     7
100
AcDbCircle
 10
357.6671379032168
 20
220.7435584513557
 30
0.0
 40
2.0
100
AcDbArc
 50
75.00000000000223
 51
171.8698976458388
  0
LINE
  5
2A6
330
1F
100
AcDbEntity
  8
LAY-10
  6
CONTINUOUS
 62
     7
100
AcDbLine
 10
365.8546841474918
 20
225.6167051076681
 30
0.0
 11
366.230716747118
 21
226.4227661588504
 31
0.0
  0
LINE
  5
2A7
330
1F
100
AcDbEntity
  8
LAY-10
  6
CONTINUOUS
 62
     7
100
AcDbLine
 10
366.9187817860621
 20
218.9044238115236
 30
0.0
 11
367.4298319939593
 21
209.1530049403495
 31
0.0
  0
LINE
  5
2A8
330
1F
100
AcDbEntity
  8
LAY-10
  6
CONTINUOUS
 62
     7
100
AcDbLine
 10
386.1632396920074
 20
206.3446327800511
 30
0.0
 11
385.4999999999979
 21
219.0000000000082
 31
0.0
  0
ARC
  5
2A9
330
1F
100
AcDbEntity
  8
LAY-10
  6
CONTINUOUS
 62
     7
100
AcDbCircle
 10
364.921522716553
 20
218.799751899038
 30
0.0
 40
2.0
100
AcDbArc
 50
2.999999999992558
 51
74.99999999999861
  0
LINE
  5
2AA
330
1F
100
AcDbEntity
  8
LAY-10
  6
CONTINUOUS
 62
     7
100
AcDbLine
 10
578.4999999999967
 20
220.0000000000081
 30
0.0
 11
577.4999999999966
 21
227.0000000000084
 31
0.0
  0
LINE
  5
2AB
330
1F
100
AcDbEntity
  8
LAY-10
  6
CONTINUOUS
 62
     7
100
AcDbLine
 10
565.3103737043971
 20
225.0735454402213
 30
0.0
 11
572.4999999999948
 21
227.0000000000084
 31
0.0
  0
LINE
  5
2AC
330
1F
100
AcDbEntity
  8
LAY-10
  6
CONTINUOUS
 62
     7
100
AcDbLine
 10
373.4999999999981
 20
211.5000000000363
 30
0.0
 11
378.4999999999977
 21
211.5000000000363
 31
0.0
  0
LINE
  5
2AD
330
1F
100
AcDbEntity
  8
LAY-10
  6
CONTINUOUS
 62
     7
100
AcDbLine
 10
375.9999999999968
 20
210.056624327063
 30
0.0
 11
373.4999999999977
 21
211.5000000000363
 31
0.0
  0
LINE
  5
2AE
330
1F
100
AcDbEntity
  8
LAY-10
  6
CONTINUOUS
 62
     7
100
AcDbLine
 10
375.999999999997
 20
210.056624327063
 30
0.0
 11
378.4999999999959
 21
211.5000000000363
 31
0.0
  0
LINE
  5
2AF
330
1F
100
AcDbEntity
  8
LAY-10
  6
CONTINUOUS
 62
     7
100
AcDbLine
 10
545.8459727208333
 20
206.5204160887911
 30
0.0
 11
546.4999999999966
 21
219.0000000000082
 31
0.0
  0
LINE
  5
2B0
330
1F
100
AcDbEntity
  8
LAY-10
  6
CONTINUOUS
 62
     7
100
AcDbLine
 10
460.3459727208338
 20
206.5204160887911
 30
0.0
 11
460.9999999999968
 21
219.0000000000082
 31
0.0
  0
LINE
  5
2B1
330
1F
100
AcDbEntity
  8
LAY-10
  6
CONTINUOUS
 62
     7
100
AcDbLine
 10
473.6540272791601
 20
206.5204160887911
 30
0.0
 11
472.9999999999971
 21
219.0000000000082
 31
0.0
  0
LINE
  5
2B2
330
1F
100
AcDbEntity
  8
LAY-10
  6
CONTINUOUS
 62
     7
100
AcDbLine
 10
577.4999999999966
 20
209.0000000000084
 30
0.0
 11
578.4999999999967
 21
220.0000000000081
 31
0.0
  0
ARC
  5
2B3
330
1F
100
AcDbEntity
  8
LAY-10
  6
CONTINUOUS
 62
     7
100
AcDbCircle
 10
367.136955553911
 20
226.0000000000081
 30
0.0
 40
1.0
100
AcDbArc
 50
90.00000000000004
 51
154.990649752383
  0
ARC
  5
2B4
330
1F
100
AcDbEntity
  8
LAY-10
  6
CONTINUOUS
 62
     7
100
AcDbCircle
 10
369.5510354332836
 20
226.0000000000081
 30
0.0
 40
1.0
100
AcDbArc
 50
3.000000000021836
 51
90.00000000000004
  0
LINE
  5
2B5
330
1F
100
AcDbEntity
  8
LAY-10
  6
CONTINUOUS
 62
     7
100
AcDbLine
 10
564.1453158525014
 20
225.6167051076681
 30
0.0
 11
563.7692832528753
 21
226.4227661588504
 31
0.0
  0
ARC
  5
2B6
330
1F
100
AcDbEntity
  8
LAY-10
  6
CONTINUOUS
 62
     7
100
AcDbCircle
 10
562.8630444460821
 20
226.0000000000081
 30
0.0
 40
1.0
100
AcDbArc
 50
25.00935024761272
 51
90.00000000000004
  0
ARC
  5
2B7
330
1F
100
AcDbEntity
  8
LAY-10
  6
CONTINUOUS
 62
     7
100
AcDbCircle
 10
560.4489645667097
 20
226.0000000000081
 30
0.0
 40
1.0
100
AcDbArc
 50
90.00000000000004
 51
176.999999999978
  0
ARC
  5
2B8
330
1F
100
AcDbEntity
  8
LAY-10
  6
CONTINUOUS
 62
     7
100
AcDbCircle
 10
565.0515546592948
 20
226.0394712665104
 30
0.0
 40
1.0
100
AcDbArc
 50
205.0093502475485
 51
284.999999999981
  0
ARC
  5
2B9
330
1F
100
AcDbEntity
  8
LAY-10
  6
CONTINUOUS
 62
     7
100
AcDbCircle
 10
364.9484453406985
 20
226.0394712665104
 30
0.0
 40
1.0
100
AcDbArc
 50
255.0000000000092
 51
334.9906497524502
  0
LINE
  5
2BA
330
1F
100
AcDbEntity
  8
LAY-10
  6
CONTINUOUS
 62
     7
100
AcDbLine
 10
395.2490750271933
 20
196.00000000001
 30
0.0
 11
534.7509249727998
 21
196.00000000001
 31
0.0
  0
LINE
  5
2BB
330
1F
100
AcDbEntity
  8
LAY-10
  6
CONTINUOUS
 62
     7
100
AcDbLine
 10
391.4999999999968
 20
172.0000000000093
 30
0.0
 11
538.4999999999964
 21
172.0000000000093
 31
0.0
  0
LINE
  5
2BC
330
1F
100
AcDbEntity
  8
LAY-10
  6
CONTINUOUS
 62
     7
100
AcDbLine
 10
389.9732615741786
 20
201.1319045894547
 30
0.0
 11
391.4999999999968
 21
172.0000000000093
 31
0.0
  0
LINE
  5
2BD
330
1F
100
AcDbEntity
  8
LAY-10
  6
CONTINUOUS
 62
     7
100
AcDbLine
 10
540.0267384258145
 20
201.1319045894547
 30
0.0
 11
538.4999999999964
 21
172.0000000000093
 31
0.0
  0
LINE
  5
2BE
330
1F
100
AcDbEntity
  8
LAY-10
  6
CONTINUOUS
 62
     7
100
AcDbLine
 10
557.1013252539924
 20
203.4898524892564
 30
0.0
 11
552.8659788393303
 21
203.1193076918687
 31
0.0
  0
LINE
  5
2BF
330
1F
100
AcDbEntity
  8
LAY-10
  6
CONTINUOUS
 62
     7
100
AcDbLine
 10
534.7509249727996
 20
196.0000000000081
 30
0.0
 11
535.0262354130664
 21
201.2532361422965
 31
0.0
  0
LINE
  5
2C0
330
1F
100
AcDbEntity
  8
LAY-10
  6
CONTINUOUS
 62
     7
100
AcDbLine
 10
395.2490750271936
 20
196.0000000000081
 30
0.0
 11
394.9737645869267
 21
201.2532361422965
 31
0.0
  0
LINE
  5
2C1
330
1F
100
AcDbEntity
  8
LAY-10
  6
CONTINUOUS
 62
     7
100
AcDbLine
 10
372.8986747460007
 20
203.4898524892564
 30
0.0
 11
389.0617877821717
 21
202.0757633313034
 31
0.0
  0
LINE
  5
2C2
330
1F
100
AcDbEntity
  8
LAY-10
  6
CONTINUOUS
 62
     7
100
AcDbLine
 10
386.1632396920074
 20
206.3446327800511
 30
0.0
 11
390.4163956268921
 21
205.9725298515406
 31
0.0
  0
LINE
  5
2C3
330
1F
100
AcDbEntity
  8
LAY-10
  6
CONTINUOUS
 62
     7
100
AcDbLine
 10
545.8459727208333
 20
206.5204160887911
 30
0.0
 11
539.583604373101
 21
205.9725298515406
 31
0.0
  0
ARC
  5
2C4
330
1F
100
AcDbEntity
  8
LAY-10
  6
CONTINUOUS
 62
     7
100
AcDbCircle
 10
388.974632039424
 20
201.0795686332119
 30
0.0
 40
1.0
100
AcDbArc
 50
2.999999999992558
 51
84.99999999999675
  0
ARC
  5
2C5
330
1F
100
AcDbEntity
  8
LAY-10
  6
CONTINUOUS
 62
     7
100
AcDbCircle
 10
389.9806169131538
 20
200.9915563610818
 30
0.0
 40
5.0
100
AcDbArc
 50
3.000000000000408
 51
85.00000000000017
  0
ARC
  5
2C6
330
1F
100
AcDbEntity
  8
LAY-10
  6
CONTINUOUS
 62
     7
100
AcDbCircle
 10
373.4216092024866
 20
209.4670206778071
 30
0.0
 40
6.000000000000004
100
AcDbArc
 50
182.9999999999991
 51
265.0000000000009
  0
ARC
  5
2C7
330
1F
100
AcDbEntity
  8
LAY-10
  6
CONTINUOUS
 62
     7
100
AcDbCircle
 10
540.0193830868393
 20
200.9915563610818
 30
0.0
 40
5.0
100
AcDbArc
 50
94.9999999999999
 51
176.9999999999997
  0
ARC
  5
2C8
330
1F
100
AcDbEntity
  8
LAY-10
  6
CONTINUOUS
 62
     7
100
AcDbCircle
 10
541.0253679605692
 20
201.0795686332119
 30
0.0
 40
1.0
100
AcDbArc
 50
94.99999999999353
 51
177.0000000000076
  0
LINE
  5
2C9
330
1F
100
AcDbEntity
  8
LAY-10
  6
CONTINUOUS
 62
     7
100
AcDbLine
 10
473.6540272791601
 20
206.5204160887911
 30
0.0
 11
460.3459727208338
 21
206.5204160887911
 31
0.0
  0
LINE
  5
2CA
330
1F
100
AcDbEntity
  8
LAY-10
  6
CONTINUOUS
 62
     7
100
AcDbLine
 10
386.0960778040583
 20
207.6261579442137
 30
0.0
 11
460.4039221959367
 21
207.6261579442137
 31
0.0
  0
LINE
  5
2CB
330
1F
100
AcDbEntity
  8
LAY-10
  6
CONTINUOUS
 62
     7
100
AcDbLine
 10
545.9039221959363
 20
207.6261579442137
 30
0.0
 11
473.5960778040571
 21
207.6261579442137
 31
0.0
  0
LINE
  5
2CC
330
1F
100
AcDbEntity
  8
LAY-10
  6
CONTINUOUS
 62
     7
100
AcDbLine
 10
372.4178106895824
 20
224.3603353795547
 30
0.0
 11
372.2303788263361
 21
226.1067132172782
 31
0.0
  0
LINE
  5
2CD
330
1F
100
AcDbEntity
  8
LAY-10
  6
CONTINUOUS
 62
     7
100
AcDbLine
 10
402.9038681389483
 20
224.28326599612
 30
0.0
 11
403.1904798156754
 21
225.8162173993038
 31
0.0
  0
ARC
  5
2CE
330
1F
100
AcDbEntity
  8
LAY-10
  6
CONTINUOUS
 62
     7
100
AcDbCircle
 10
444.9707059846895
 20
225.8564064605588
 30
0.0
 40
1.0
100
AcDbArc
 50
270.0000000000001
 51
330.6973153477243
  0
ARC
  5
2CF
330
1F
100
AcDbEntity
  8
LAY-10
  6
CONTINUOUS
 62
     7
100
AcDbCircle
 10
497.02541437577
 20
226.0000000000081
 30
0.0
 40
1.0
100
AcDbArc
 50
90.00000000000004
 51
163.6011974568059
  0
ARC
  5
2D0
330
1F
100
AcDbEntity
  8
LAY-10
  6
CONTINUOUS
 62
     7
100
AcDbCircle
 10
558.7639110153327
 20
226.0000000000081
 30
0.0
 40
1.0
100
AcDbArc
 50
90.00000000000004
 51
173.8741186700305
  0
ARC
  5
2D1
330
1F
100
AcDbEntity
  8
LAY-10
  6
CONTINUOUS
 62
     7
100
AcDbCircle
 10
557.2474445645084
 20
226.0000000000081
 30
0.0
 40
1.0
100
AcDbArc
 50
40.69131046149253
 51
90.00000000000004
  0
ARC
  5
2D2
330
1F
100
AcDbEntity
  8
LAY-10
  6
CONTINUOUS
 62
     7
100
AcDbCircle
 10
555.2209144596127
 20
226.0000000000081
 30
0.0
 40
1.0
100
AcDbArc
 50
90.00000000000004
 51
182.6326541691547
  0
LINE
  5
2D3
330
1F
100
AcDbEntity
  8
LAY-10
  6
CONTINUOUS
 62
     7
100
AcDbLine
 10
557.5821893104107
 20
224.3603353795547
 30
0.0
 11
557.769621173657
 21
226.1067132172782
 31
0.0
  0
LINE
  5
2D4
330
1F
100
AcDbEntity
  8
LAY-10
  6
CONTINUOUS
 62
     7
100
AcDbLine
 10
554.2924563095345
 20
224.4211162800227
 30
0.0
 11
554.221969905459
 21
225.9540676832064
 31
0.0
  0
LINE
  5
2D5
330
1F
100
AcDbEntity
  8
LAY-10
  6
CONTINUOUS
 62
     7
100
AcDbLine
 10
394.7462898235621
 20
205.5937131950654
 30
0.0
 11
535.253710176431
 21
205.5937131950654
 31
0.0
  0
LINE
  5
2D6
330
1F
100
AcDbEntity
  8
LAY-10
  6
CONTINUOUS
 62
     7
100
AcDbLine
 10
549.299760738654
 20
196.0000000000086
 30
0.0
 11
550.6818989150628
 21
196.0000000000086
 31
0.0
  0
LINE
  5
2D7
330
1F
100
AcDbEntity
  8
LAY-10
  6
CONTINUOUS
 62
     7
100
AcDbLine
 10
548.3011312038994
 20
196.9476640437656
 30
0.0
 11
548.0541954691824
 21
201.6594785509841
 31
0.0
  0
LINE
  5
2D8
330
1F
100
AcDbEntity
  8
LAY-10
  6
CONTINUOUS
 62
     7
100
AcDbLine
 10
551.6805284498173
 20
196.9476640437656
 30
0.0
 11
551.9545050473234
 21
202.1754489500196
 31
0.0
  0
LINE
  5
2D9
330
1F
100
AcDbEntity
  8
LAY-10
  6
CONTINUOUS
 62
     7
100
AcDbLine
 10
546.9684101916803
 20
202.6033372928332
 30
0.0
 11
540.9382122178216
 21
202.0757633313034
 31
0.0
  0
ARC
  5
2DA
330
1F
100
AcDbEntity
  8
LAY-10
  6
CONTINUOUS
 62
     7
100
AcDbCircle
 10
547.0555659344279
 20
201.6071425947413
 30
0.0
 40
1.0
100
AcDbArc
 50
2.999999999992387
 51
95.00000000000006
  0
ARC
  5
2DB
330
1F
100
AcDbEntity
  8
LAY-10
  6
CONTINUOUS
 62
     7
100
AcDbCircle
 10
552.953134582078
 20
202.1231129937767
 30
0.0
 40
1.0
100
AcDbArc
 50
95.00000000000006
 51
176.9999999999979
  0
ARC
  5
2DC
330
1F
100
AcDbEntity
  8
LAY-10
  6
CONTINUOUS
 62
     7
100
AcDbCircle
 10
549.299760738654
 20
197.0000000000084
 30
0.0
 40
1.0
100
AcDbArc
 50
182.9999999999925
 51
270.0000000000001
  0
ARC
  5
2DD
330
1F
100
AcDbEntity
  8
LAY-10
  6
CONTINUOUS
 62
     7
100
AcDbCircle
 10
550.6818989150628
 20
197.0000000000084
 30
0.0
 40
1.0
100
AcDbArc
 50
270.0000000000001
 51
357.0000000000076
  0
ARC
  5
2DE
330
1F
100
AcDbEntity
  8
LAY-10
  6
CONTINUOUS
 62
     7
100
AcDbCircle
 10
556.5783907975065
 20
209.4670206778071
 30
0.0
 40
6.000000000000004
100
AcDbArc
 50
274.9999999999998
 51
355.5357654652328
  0
LINE
  5
2DF
330
1F
100
AcDbEntity
  8
LAY-10
  6
CONTINUOUS
 62
     7
100
AcDbLine
 10
562.5601874913526
 20
209.0000000000084
 30
0.0
 11
577.4999999999966
 21
209.0000000000084
 31
0.0
  0
LINE
  5
2E0
330
1F
100
AcDbEntity
  8
LAY-10
  6
CONTINUOUS
 62
     7
100
AcDbLine
 10
372.9999999999968
 20
213.0000000000363
 30
0.0
 11
378.9999999999965
 21
213.0000000000363
 31
0.0
  0
LINE
  5
2E1
330
1F
100
AcDbEntity
  8
LAY-10
  6
CONTINUOUS
 62
     7
100
AcDbLine
 10
373.4999999999981
 20
212.5000000000359
 30
0.0
 11
378.4999999999977
 21
212.5000000000359
 31
0.0
  0
LINE
  5
2E2
330
1F
100
AcDbEntity
  8
LAY-10
  6
CONTINUOUS
 62
     7
100
AcDbLine
 10
541.9999999999981
 20
202.1686577253101
 30
0.0
 11
547.4999999999967
 21
202.1686577253101
 31
0.0
  0
LINE
  5
2E3
330
1F
100
AcDbEntity
  8
LAY-10
  6
CONTINUOUS
 62
     7
100
AcDbLine
 10
541.9999999999967
 20
202.1686577253101
 30
0.0
 11
541.9999999999967
 21
157.0000000000083
 31
0.0
  0
LINE
  5
2E4
330
1F
100
AcDbEntity
  8
LAY-10
  6
CONTINUOUS
 62
     7
100
AcDbLine
 10
547.4999999999967
 20
202.1686577253101
 30
0.0
 11
547.4999999999967
 21
157.0000000000083
 31
0.0
  0
LINE
  5
2E5
330
1F
100
AcDbEntity
  8
LAY-10
  6
CONTINUOUS
 62
     7
100
AcDbLine
 10
387.9999999999965
 20
202.1686577253101
 30
0.0
 11
387.9999999999965
 21
157.0000000000083
 31
0.0
  0
LINE
  5
2E6
330
1F
100
AcDbEntity
  8
LAY-10
  6
CONTINUOUS
 62
     7
100
AcDbLine
 10
382.4999999999965
 20
202.1686577253101
 30
0.0
 11
382.4999999999965
 21
157.0000000000083
 31
0.0
  0
LINE
  5
2E7
330
1F
100
AcDbEntity
  8
LAY-10
  6
CONTINUOUS
 62
     7
100
AcDbLine
 10
387.9999999999952
 20
202.1686577253101
 30
0.0
 11
382.4999999999965
 21
202.1686577253101
 31
0.0
  0
LINE
  5
2E8
330
1F
100
AcDbEntity
  8
LAY-10
  6
CONTINUOUS
 62
     7
100
AcDbLine
 10
547.4999999999967
 20
157.0000000000083
 30
0.0
 11
382.4999999999965
 21
157.0000000000083
 31
0.0
  0
LINE
  5
2E9
330
1F
100
AcDbEntity
  8
LAY-10
  6
CONTINUOUS
 62
     7
100
AcDbLine
 10
370.9192622342629
 20
219.0000000000082
 30
0.0
 11
370.549664968038
 21
226.0523359562511
 31
0.0
  0
LINE
  5
2EA
330
1F
100
AcDbEntity
  8
LAY-10
  6
CONTINUOUS
 62
     7
100
AcDbLine
 10
559.0807377657305
 20
219.0000000000082
 30
0.0
 11
559.4503350319551
 21
226.052335956251
 31
0.0
  0
LINE
  5
2EB
330
1F
100
AcDbEntity
  8
LAY-10
  6
CONTINUOUS
 62
     7
100
AcDbLine
 10
510.7329046702584
 20
356.6255365585309
 30
0.0
 11
535.0000000000013
 21
219.00000000001
 31
0.0
  0
LINE
  5
2EC
330
1F
100
AcDbEntity
  8
LAY-10
  6
CONTINUOUS
 62
     7
100
AcDbLine
 10
419.2670953297444
 20
356.6255365585309
 30
0.0
 11
395.0000000000014
 21
219.00000000001
 31
0.0
  0
LINE
  5
2ED
330
1F
100
AcDbEntity
  8
LAY-10
  6
CONTINUOUS
 62
     7
100
AcDbLine
 10
415.3278643176957
 20
357.3201292691984
 30
0.0
 11
392.260745907772
 21
226.5000000000099
 31
0.0
  0
ARC
  5
2EE
330
1F
100
AcDbEntity
  8
LAY-10
  6
CONTINUOUS
 62
     7
100
AcDbCircle
 10
465.0000000000012
 20
348.5615915589975
 30
0.0
 40
50.43840844101248
100
AcDbArc
 50
9.999999999998515
 51
170.0000000000015
  0
ARC
  5
2EF
330
1F
100
AcDbEntity
  8
LAY-10
  6
CONTINUOUS
 62
     7
100
AcDbCircle
 10
465.0000000000012
 20
348.5615915589975
 30
0.0
 40
46.43840844101243
100
AcDbArc
 50
9.999999999998515
 51
170.0000000000013
  0
LINE
  5
2F0
330
1F
100
AcDbEntity
  8
LAY-10
  6
CONTINUOUS
 62
     7
100
AcDbLine
 10
459.0000000000018
 20
224.0000000000099
 30
0.0
 11
461.2834196627539
 21
381.9459683498582
 31
0.0
  0
ARC
  5
2F1
330
1F
100
AcDbEntity
  8
LAY-10
  6
CONTINUOUS
 62
     7
100
AcDbCircle
 10
450.4248763138565
 20
382.1251221078005
 30
0.0
 40
3.484084469364689
100
AcDbArc
 50
357.5286467761517
 51
175.9769989288773
  0
LINE
  5
2F2
330
1F
100
AcDbEntity
  8
LAY-10
  6
CONTINUOUS
 62
     7
100
AcDbLine
 10
435.8112094240416
 20
224.0000000000099
 30
0.0
 11
446.949376745235
 21
382.3695547941862
 31
0.0
  0
LINE
  5
2F3
330
1F
100
AcDbEntity
  8
LAY-10
  6
CONTINUOUS
 62
     7
100
AcDbLine
 10
447.0875208734722
 20
224.0000000000099
 30
0.0
 11
453.9057202556114
 21
381.9748888131845
 31
0.0
  0
ARC
  5
2F4
330
1F
100
AcDbEntity
  8
LAY-10
  6
CONTINUOUS
 62
     7
100
AcDbCircle
 10
449.4239453535309
 20
382.1251221078005
 30
0.0
 40
3.484084469364689
100
AcDbArc
 50
357.5286467761517
 51
81.74127492635489
  0
LINE
  5
2F5
330
1F
100
AcDbEntity
  8
LAY-10
  6
CONTINUOUS
 62
     7
100
AcDbLine
 10
452.9047892952858
 20
381.9748888131845
 30
0.0
 11
446.0865899131466
 21
224.0000000000099
 31
0.0
  0
LINE
  5
2F6
330
1F
100
AcDbEntity
  8
LAY-10
  6
CONTINUOUS
 62
     7
100
AcDbLine
 10
425.3355510896393
 20
224.0000000000099
 30
0.0
 11
440.485432072775
 21
382.5191938565006
 31
0.0
  0
ARC
  5
2F7
330
1F
100
AcDbEntity
  8
LAY-10
  6
CONTINUOUS
 62
     7
100
AcDbCircle
 10
437.6766559916308
 20
382.787632159159
 30
0.0
 40
2.821574418005272
100
AcDbArc
 50
354.540750538012
 51
107.5053883308263
  0
ARC
  5
2F8
330
1F
100
AcDbEntity
  8
LAY-10
  6
CONTINUOUS
 62
     7
100
AcDbCircle
 10
435.6675428857859
 20
382.787632159159
 30
0.0
 40
2.821574418005272
100
AcDbArc
 50
354.540750538012
 51
67.9184670194045
  0
LINE
  5
2F9
330
1F
100
AcDbEntity
  8
LAY-10
  6
CONTINUOUS
 62
     7
100
AcDbLine
 10
438.4763189669302
 20
382.5191938565006
 30
0.0
 11
423.3264379837945
 21
224.0000000000099
 31
0.0
  0
LINE
  5
2FA
330
1F
100
AcDbEntity
  8
LAY-10
  6
CONTINUOUS
 62
     7
100
AcDbLine
 10
416.1430177722116
 20
224.0000000000099
 30
0.0
 11
434.9771075234705
 21
383.989711829158
 31
0.0
  0
LINE
  5
2FB
330
1F
100
AcDbEntity
  8
LAY-10
  6
CONTINUOUS
 62
     7
100
AcDbLine
 10
408.3676992293167
 20
224.0000000000099
 30
0.0
 11
429.4402722971262
 21
378.4284886899628
 31
0.0
  0
LINE
  5
2FC
330
1F
100
AcDbEntity
  8
LAY-10
  6
CONTINUOUS
 62
     7
100
AcDbLine
 10
425.716328313063
 20
373.3268680025813
 30
0.0
 11
405.3398980075836
 21
224.0000000000099
 31
0.0
  0
LINE
  5
2FD
330
1F
100
AcDbEntity
  8
LAY-10
  6
CONTINUOUS
 62
     7
100
AcDbLine
 10
402.3676992293167
 20
224.0000000000099
 30
0.0
 11
424.6290195343345
 21
371.5117487431003
 31
0.0
  0
LINE
  5
2FE
330
1F
100
AcDbEntity
  8
LAY-10
  6
CONTINUOUS
 62
     7
100
AcDbLine
 10
420.2885750008084
 20
361.1080752526804
 30
0.0
 11
398.2305386456823
 21
224.0000000000099
 31
0.0
  0
LINE
  5
2FF
330
1F
100
AcDbEntity
  8
LAY-10
  6
CONTINUOUS
 62
     7
100
AcDbLine
 10
384.6627089603314
 20
220.8953280875241
 30
0.0
 11
384.3689805517878
 21
226.50000000001
 31
0.0
  0
LINE
  5
300
330
1F
100
AcDbEntity
  8
LAY-10
  6
CONTINUOUS
 62
     7
100
AcDbLine
 10
373.0000000000109
 20
226.50000000001
 30
0.0
 11
392.260745907772
 21
226.50000000001
 31
0.0
  0
ARC
  5
301
330
1F
100
AcDbEntity
  8
LAY-10
  6
CONTINUOUS
 62
     7
100
AcDbCircle
 10
386.6599680298406
 20
221.0000000000099
 30
0.0
 40
2.0
100
AcDbArc
 50
182.9999999999999
 51
270.0000000000001
  0
LINE
  5
302
330
1F
100
AcDbEntity
  8
LAY-10
  6
CONTINUOUS
 62
     7
100
AcDbLine
 10
459.9999999999979
 20
219.00000000001
 30
0.0
 11
460.999999999998
 21
224.00000000001
 31
0.0
  0
LINE
  5
303
330
1F
100
AcDbEntity
  8
LAY-10
  6
CONTINUOUS
 62
     7
100
AcDbLine
 10
514.6721356823069
 20
357.3201292691984
 30
0.0
 11
539.0617064475441
 21
219.00000000001
 31
0.0
  0
LINE
  5
304
330
1F
100
AcDbEntity
  8
LAY-10
  6
CONTINUOUS
 62
     7
100
AcDbLine
 10
447.0875208734722
 20
224.0000000000099
 30
0.0
 11
435.8112094240416
 21
224.0000000000099
 31
0.0
  0
LINE
  5
305
330
1F
100
AcDbEntity
  8
LAY-10
  6
CONTINUOUS
 62
     7
100
AcDbLine
 10
425.3355510896393
 20
224.0000000000099
 30
0.0
 11
416.1430177722116
 21
224.0000000000099
 31
0.0
  0
LINE
  5
306
330
1F
100
AcDbEntity
  8
LAY-10
  6
CONTINUOUS
 62
     7
100
AcDbLine
 10
408.3676992293167
 20
224.0000000000099
 30
0.0
 11
402.3676992293167
 21
224.0000000000099
 31
0.0
  0
LINE
  5
307
330
1F
100
AcDbEntity
  8
LAY-10
  6
CONTINUOUS
 62
     7
100
AcDbLine
 10
398.2305386456823
 20
224.0000000000099
 30
0.0
 11
395.8816349035436
 21
224.0000000000099
 31
0.0
  0
LINE
  5
308
330
1F
100
AcDbEntity
  8
LAY-10
  6
CONTINUOUS
 62
     7
100
AcDbLine
 10
493.0000000000013
 20
385.6092065771644
 30
0.0
 11
492.0000000000013
 21
391.1647962044512
 31
0.0
  0
ARC
  5
309
330
1F
100
AcDbEntity
  8
LAY-10
  6
CONTINUOUS
 62
     7
100
AcDbCircle
 10
465.0000000000012
 20
381.8922378703219
 30
0.0
 40
3.716968706841741
100
AcDbArc
 50
90.00000000000004
 51
179.1717345028729
  0
LINE
  5
30A
330
1F
100
AcDbEntity
  8
LAY-10
  6
CONTINUOUS
 62
     7
100
AcDbLine
 10
465.0000000000012
 20
224.0000000000099
 30
0.0
 11
459.0000000000018
 21
224.0000000000099
 31
0.0
  0
ARC
  5
30B
330
1F
100
AcDbEntity
  8
LAY-10
  6
CONTINUOUS
 62
     7
100
AcDbCircle
 10
469.9490254467144
 20
383.1653052315645
 30
0.0
 40
2.443901345596361
100
AcDbArc
 50
3.762676201877201
 51
181.2754042898242
  0
LINE
  5
30C
330
1F
100
AcDbEntity
  8
LAY-10
  6
CONTINUOUS
 62
     7
100
AcDbLine
 10
467.5057295621881
 20
383.11090847006
 30
0.0
 11
471.048124159308
 21
224.00000000001
 31
0.0
  0
LINE
  5
30D
330
1F
100
AcDbEntity
  8
LAY-10
  6
CONTINUOUS
 62
     7
100
AcDbLine
 10
482.8658171954481
 20
224.00000000001
 30
0.0
 11
472.387658789278
 21
383.32568355782
 31
0.0
  0
LINE
  5
30E
330
1F
100
AcDbEntity
  8
LAY-10
  6
CONTINUOUS
 62
     7
100
AcDbLine
 10
467.5057295621881
 20
383.11090847006
 30
0.0
 11
467.5057295621881
 21
383.2197019930859
 31
0.0
  0
LINE
  5
30F
330
1F
100
AcDbEntity
  8
LAY-10
  6
CONTINUOUS
 62
     7
100
AcDbLine
 10
467.8611445790082
 20
383.11090847006
 30
0.0
 11
471.4035391761281
 21
224.00000000001
 31
0.0
  0
ARC
  5
310
330
1F
100
AcDbEntity
  8
LAY-10
  6
CONTINUOUS
 62
     7
100
AcDbCircle
 10
470.3044404635345
 20
383.1653052315645
 30
0.0
 40
2.443901345596361
100
AcDbArc
 50
94.16992458303324
 51
181.2754042898242
  0
LINE
  5
311
330
1F
100
AcDbEntity
  8
LAY-10
  6
CONTINUOUS
 62
     7
100
AcDbLine
 10
504.624877325058
 20
224.00000000001
 30
0.0
 11
494.2325724796481
 21
224.00000000001
 31
0.0
  0
ARC
  5
312
330
1F
100
AcDbEntity
  8
LAY-10
  6
CONTINUOUS
 62
     7
100
AcDbCircle
 10
479.2117615805868
 20
383.4809293174705
 30
0.0
 40
2.128277259690108
100
AcDbArc
 50
8.298791864073026
 51
186.1418331030347
  0
LINE
  5
313
330
1F
100
AcDbEntity
  8
LAY-10
  6
CONTINUOUS
 62
     7
100
AcDbLine
 10
477.0957004344131
 20
383.2532248604107
 30
0.0
 11
494.2325724796481
 21
224.00000000001
 31
0.0
  0
LINE
  5
314
330
1F
100
AcDbEntity
  8
LAY-10
  6
CONTINUOUS
 62
     7
100
AcDbLine
 10
504.624877325058
 20
224.00000000001
 30
0.0
 11
481.3177532931071
 21
383.7881149305888
 31
0.0
  0
LINE
  5
315
330
1F
100
AcDbEntity
  8
LAY-10
  6
CONTINUOUS
 62
     7
100
AcDbLine
 10
478.813538059083
 20
383.2532248604107
 30
0.0
 11
495.9504101043181
 21
224.00000000001
 31
0.0
  0
ARC
  5
316
330
1F
100
AcDbEntity
  8
LAY-10
  6
CONTINUOUS
 62
     7
100
AcDbCircle
 10
480.9295992052569
 20
383.4809293174705
 30
0.0
 40
2.128277259690108
100
AcDbArc
 50
113.8018399994294
 51
186.1418331030347
  0
LINE
  5
317
330
1F
100
AcDbEntity
  8
LAY-10
  6
CONTINUOUS
 62
     7
100
AcDbLine
 10
496.0386597169382
 20
224.00000000001
 30
0.0
 11
495.6256934253281
 21
219.00000000001
 31
0.0
  0
LINE
  5
318
330
1F
100
AcDbEntity
  8
LAY-10
  6
CONTINUOUS
 62
     7
100
AcDbLine
 10
502.9639619010781
 20
224.00000000001
 30
0.0
 11
504.199080208548
 21
219.00000000001
 31
0.0
  0
LINE
  5
319
330
1F
100
AcDbEntity
  8
LAY-10
  6
CONTINUOUS
 62
     7
100
AcDbLine
 10
513.891141132118
 20
224.00000000001
 30
0.0
 11
521.6045924483582
 21
224.00000000001
 31
0.0
  0
ARC
  5
31A
330
1F
100
AcDbEntity
  8
LAY-10
  6
CONTINUOUS
 62
     7
100
AcDbCircle
 10
486.6660500865856
 20
384.0539537341206
 30
0.0
 40
1.555252843040876
100
AcDbArc
 50
11.77011161510501
 51
190.2024546079126
  0
LINE
  5
31B
330
1F
100
AcDbEntity
  8
LAY-10
  6
CONTINUOUS
 62
     7
100
AcDbLine
 10
488.1886020761685
 20
384.3712026029904
 30
0.0
 11
521.6045924483582
 21
224.00000000001
 31
0.0
  0
LINE
  5
31C
330
1F
100
AcDbEntity
  8
LAY-10
  6
CONTINUOUS
 62
     7
100
AcDbLine
 10
513.891141132118
 20
224.00000000001
 30
0.0
 11
485.1353888694925
 21
383.7784766129852
 31
0.0
  0
LINE
  5
31D
330
1F
100
AcDbEntity
  8
LAY-10
  6
CONTINUOUS
 62
     7
100
AcDbLine
 10
516.764204794528
 20
224.00000000001
 30
0.0
 11
488.0084525319026
 21
383.7784766129852
 31
0.0
  0
ARC
  5
31E
330
1F
100
AcDbEntity
  8
LAY-10
  6
CONTINUOUS
 62
     7
100
AcDbCircle
 10
489.5391137489956
 20
384.0539537341206
 30
0.0
 40
1.555252843040876
100
AcDbArc
 50
157.4678260935886
 51
190.2024546079126
  0
ARC
  5
31F
330
1F
100
AcDbEntity
  8
LAY-10
  6
CONTINUOUS
 62
     7
100
AcDbCircle
 10
491.404684015136
 20
384.7945451773321
 30
0.0
 40
0.8146613998263771
100
AcDbArc
 50
13.80619919662447
 51
192.9870538701794
  0
LINE
  5
320
330
1F
100
AcDbEntity
  8
LAY-10
  6
CONTINUOUS
 62
     7
100
AcDbLine
 10
527.652716607658
 20
224.00000000001
 30
0.0
 11
490.6108609466385
 21
384.6114655982114
 31
0.0
  0
LINE
  5
321
330
1F
100
AcDbEntity
  8
LAY-10
  6
CONTINUOUS
 62
     7
100
AcDbLine
 10
492.1958085972418
 20
384.9889547757522
 30
0.0
 11
531.7569583275681
 21
224.00000000001
 31
0.0
  0
LINE
  5
322
330
1F
100
AcDbEntity
  8
LAY-10
  6
CONTINUOUS
 62
     7
100
AcDbLine
 10
527.652716607658
 20
224.00000000001
 30
0.0
 11
531.7569583275681
 21
224.00000000001
 31
0.0
  0
LINE
  5
323
330
1F
100
AcDbEntity
  8
LAY-10
  6
CONTINUOUS
 62
     7
100
AcDbLine
 10
531.3344724282182
 20
224.00000000001
 30
0.0
 11
524.8850741887595
 21
251.964238966471
 31
0.0
  0
LINE
  5
324
330
1F
100
AcDbEntity
  8
LAY-10
  6
CONTINUOUS
 62
     7
100
AcDbLine
 10
471.048124159308
 20
224.00000000001
 30
0.0
 11
482.8658171954481
 21
224.00000000001
 31
0.0
  0
ARC
  5
325
330
1F
100
AcDbEntity
  8
LAY-10
  6
CONTINUOUS
 62
     7
100
AcDbCircle
 10
374.2499999999986
 20
226.3857492994083
 30
0.0
 40
3.500000000000002
100
AcDbArc
 50
128.6821874534947
 51
178.1293582694076
  0
ARC
  5
326
330
1F
100
AcDbEntity
  8
LAY-10
  6
CONTINUOUS
 62
     7
100
AcDbCircle
 10
377.7499999999985
 20
226.3857492994083
 30
0.0
 40
3.500000000000002
100
AcDbArc
 50
1.870641730603566
 51
51.31781254650146
  0
LINE
  5
327
330
1F
100
AcDbEntity
  8
LAY-10
  6
CONTINUOUS
 62
     7
100
AcDbLine
 10
381.2481347568985
 20
226.5000000000086
 30
0.0
 11
370.7518652430985
 21
226.5000000000086
 31
0.0
  0
LINE
  5
328
330
1F
100
AcDbEntity
  8
LAY-10
  6
CONTINUOUS
 62
     7
100
AcDbLine
 10
376.5999999999985
 20
230.4713634881086
 30
0.0
 11
376.5999999999985
 21
228.0000000000086
 31
0.0
  0
LINE
  5
329
330
1F
100
AcDbEntity
  8
LAY-10
  6
CONTINUOUS
 62
     7
100
AcDbLine
 10
376.5999999999985
 20
228.0000000000086
 30
0.0
 11
375.3999999999986
 21
228.0000000000086
 31
0.0
  0
LINE
  5
32A
330
1F
100
AcDbEntity
  8
LAY-10
  6
CONTINUOUS
 62
     7
100
AcDbLine
 10
375.3999999999986
 20
230.4713634881086
 30
0.0
 11
375.3999999999986
 21
228.0000000000086
 31
0.0
  0
ARC
  5
32B
330
1F
100
AcDbEntity
  8
LAY-10
  6
CONTINUOUS
 62
     7
100
AcDbCircle
 10
375.9999999999984
 20
224.2000000000087
 30
0.0
 40
6.300000000000002
100
AcDbArc
 50
51.31781254649681
 51
84.53497620009911
  0
ARC
  5
32C
330
1F
100
AcDbEntity
  8
LAY-10
  6
CONTINUOUS
 62
     7
100
AcDbCircle
 10
375.9999999999984
 20
224.2000000000087
 30
0.0
 40
6.300000000000002
100
AcDbArc
 50
95.46502379991026
 51
128.6821874534934
  0
LINE
  5
32D
330
1F
100
AcDbEntity
  8
LAY-10
  6
CONTINUOUS
 62
     7
100
AcDbLine
 10
373.4999999999986
 20
214.5000000000105
 30
0.0
 11
372.9999999999984
 21
215.0000000000106
 31
0.0
  0
LINE
  5
32E
330
1F
100
AcDbEntity
  8
LAY-10
  6
CONTINUOUS
 62
     7
100
AcDbLine
 10
378.4999999999985
 20
214.5000000000105
 30
0.0
 11
378.9999999999984
 21
215.0000000000106
 31
0.0
  0
LINE
  5
32F
330
1F
100
AcDbEntity
  8
LAY-10
  6
CONTINUOUS
 62
     7
100
AcDbLine
 10
372.9999999999984
 20
226.5000000000086
 30
0.0
 11
372.9999999999984
 21
215.0000000000106
 31
0.0
  0
LINE
  5
330
330
1F
100
AcDbEntity
  8
LAY-10
  6
CONTINUOUS
 62
     7
100
AcDbLine
 10
373.4999999999986
 20
214.5000000000105
 30
0.0
 11
378.4999999999985
 21
214.5000000000105
 31
0.0
  0
LINE
  5
331
330
1F
100
AcDbEntity
  8
LAY-10
  6
CONTINUOUS
 62
     7
100
AcDbLine
 10
378.9999999999984
 20
226.5000000000086
 30
0.0
 11
378.9999999999984
 21
215.0000000000106
 31
0.0
  0
LINE
  5
332
330
1F
100
AcDbEntity
  8
LAY-10
  6
CONTINUOUS
 62
     7
100
AcDbLine
 10
378.9999999999984
 20
215.0000000000106
 30
0.0
 11
372.9999999999984
 21
215.0000000000106
 31
0.0
  0
ARC
  5
333
330
1F
100
AcDbEntity
  8
LAY-10
  6
CONTINUOUS
 62
     7
100
AcDbCircle
 10
371.2360889846604
 20
226.0000000000081
 30
0.0
 40
1.0
100
AcDbArc
 50
6.125881329969961
 51
30.00000000003267
  0
LINE
  5
334
330
1F
100
AcDbEntity
  8
LAY-10
  6
CONTINUOUS
 62
     7
100
AcDbLine
 10
352.4999999999966
 20
227.0000000000084
 30
0.0
 11
370.8043221165028
 21
227.0000000000084
 31
0.0
  0
ARC
  5
335
330
1F
100
AcDbEntity
  8
LAY-10
  6
CONTINUOUS
 62
     7
100
AcDbCircle
 10
373.4121005312585
 20
224.4670485968242
 30
0.0
 40
1.0
100
AcDbArc
 50
186.1258813299405
 51
245.6631446360908
  0
LINE
  5
336
330
1F
100
AcDbEntity
  8
LAY-10
  6
CONTINUOUS
 62
     7
100
AcDbLine
 10
373.4999999999981
 20
211.5000000000363
 30
0.0
 11
373.4999999999981
 21
214.50000000001
 31
0.0
  0
LINE
  5
337
330
1F
100
AcDbEntity
  8
LAY-10
  6
CONTINUOUS
 62
     7
100
AcDbLine
 10
378.4999999999977
 20
211.5000000000363
 30
0.0
 11
378.4999999999977
 21
214.50000000001
 31
0.0
  0
LINE
  5
338
330
1F
100
AcDbEntity
  8
LAY-10
  6
CONTINUOUS
 62
     7
100
AcDbLine
 10
370.9192622342629
 20
219.0000000000082
 30
0.0
 11
373.4999999999986
 21
219.0000000000082
 31
0.0
  0
ARC
  5
339
330
1F
100
AcDbEntity
  8
LAY-10
  6
CONTINUOUS
 62
     7
100
AcDbCircle
 10
401.9209012241044
 20
224.4670485968242
 30
0.0
 40
1.0
100
AcDbArc
 50
332.1571155136185
 51
349.4098363562632
  0
ARC
  5
33A
330
1F
100
AcDbEntity
  8
LAY-10
  6
CONTINUOUS
 62
     7
100
AcDbCircle
 10
402.2075129008313
 20
226.0000000000081
 30
0.0
 40
1.0
100
AcDbArc
 50
349.4098363562621
 51
54.234879065001
  0
LINE
  5
33B
330
1F
100
AcDbEntity
  8
LAY-10
  6
CONTINUOUS
 62
     7
100
AcDbLine
 10
381.1956778834943
 20
227.0000000000084
 30
0.0
 11
392.348909398126
 21
227.0000000000084
 31
0.0
  0
LINE
  5
33C
330
1F
100
AcDbEntity
  8
LAY-10
  6
CONTINUOUS
 62
     7
100
AcDbLine
 10
402.8204357840932
 20
227.0000000000084
 30
0.0
 11
405.7492636611601
 21
227.0000000000084
 31
0.0
  0
LINE
  5
33D
330
1F
100
AcDbEntity
  8
LAY-10
  6
CONTINUOUS
 62
     7
100
AcDbLine
 10
416.4961796637343
 20
227.0000000000084
 30
0.0
 11
423.6131517996023
 21
227.0000000000084
 31
0.0
  0
LINE
  5
33E
330
1F
100
AcDbEntity
  8
LAY-10
  6
CONTINUOUS
 62
     7
100
AcDbLine
 10
435.8714406879669
 20
224.8564064605589
 30
0.0
 11
444.9707059846895
 21
224.8564064605589
 31
0.0
  0
LINE
  5
33F
330
1F
100
AcDbEntity
  8
LAY-10
  6
CONTINUOUS
 62
     7
100
AcDbLine
 10
445.8427523256494
 20
225.3669831476506
 30
0.0
 11
446.1708177582287
 21
225.9515246938555
 31
0.0
  0
LINE
  5
340
330
1F
100
AcDbEntity
  8
LAY-10
  6
CONTINUOUS
 62
     7
100
AcDbLine
 10
436.0222001160782
 20
227.0000000000084
 30
0.0
 11
446.2160699735542
 21
227.0000000000084
 31
0.0
  0
LINE
  5
341
330
1F
100
AcDbEntity
  8
LAY-10
  6
CONTINUOUS
 62
     7
100
AcDbLine
 10
459.0433709012019
 20
227.0000000000084
 30
0.0
 11
464.9999999999966
 21
227.0000000000084
 31
0.0
  0
LINE
  5
342
330
1F
100
AcDbEntity
  8
LAY-10
  6
CONTINUOUS
 62
     7
100
AcDbLine
 10
482.7207755421694
 20
226.2054314944763
 30
0.0
 11
482.637237163599
 21
226.5060851083776
 31
0.0
  0
ARC
  5
343
330
1F
100
AcDbEntity
  8
LAY-10
  6
CONTINUOUS
 62
     7
100
AcDbCircle
 10
483.012626529985
 20
226.6103892562428
 30
0.0
 40
0.389610743769822
100
AcDbArc
 50
148.4171008848587
 51
195.5282660133978
  0
LINE
  5
344
330
1F
100
AcDbEntity
  8
LAY-10
  6
CONTINUOUS
 62
     7
100
AcDbLine
 10
471.3367481314816
 20
227.0000000000084
 30
0.0
 11
482.6685202216235
 21
227.0000000000084
 31
0.0
  0
LINE
  5
345
330
1F
100
AcDbEntity
  8
LAY-10
  6
CONTINUOUS
 62
     7
100
AcDbLine
 10
495.8015462476424
 20
225.3833941910952
 30
0.0
 11
496.0660945006261
 21
226.2823214075456
 31
0.0
  0
LINE
  5
346
330
1F
100
AcDbEntity
  8
LAY-10
  6
CONTINUOUS
 62
     7
100
AcDbLine
 10
495.6275870269157
 20
227.0000000000084
 30
0.0
 11
504.187289259599
 21
227.0000000000084
 31
0.0
  0
LINE
  5
347
330
1F
100
AcDbEntity
  8
LAY-10
  6
CONTINUOUS
 62
     7
100
AcDbLine
 10
516.2242869118661
 20
227.0000000000084
 30
0.0
 11
520.9794928700711
 21
227.0000000000084
 31
0.0
  0
ARC
  5
348
330
1F
100
AcDbEntity
  8
LAY-10
  6
CONTINUOUS
 62
     7
100
AcDbCircle
 10
531.163716930348
 20
225.8564064605588
 30
0.0
 40
1.0
100
AcDbArc
 50
268.4619511190975
 51
270.0000000000001
  0
LINE
  5
349
330
1F
100
AcDbEntity
  8
LAY-10
  6
CONTINUOUS
 62
     7
100
AcDbLine
 10
531.5465064722655
 20
224.8564064605589
 30
0.0
 11
531.163716930348
 21
224.8564064605589
 31
0.0
  0
LINE
  5
34A
330
1F
100
AcDbEntity
  8
LAY-10
  6
CONTINUOUS
 62
     7
100
AcDbLine
 10
530.6425818052847
 20
227.0000000000084
 30
0.0
 11
531.0197434710816
 21
227.0000000000084
 31
0.0
  0
LINE
  5
34B
330
1F
100
AcDbEntity
  8
LAY-10
  6
CONTINUOUS
 62
     7
100
AcDbLine
 10
537.651090601877
 20
227.0000000000084
 30
0.0
 11
577.4999999999966
 21
227.0000000000084
 31
0.0
  0
ARC
  5
34C
330
1F
100
AcDbEntity
  8
LAY-10
  6
CONTINUOUS
 62
     7
100
AcDbCircle
 10
555.2914008636881
 20
224.4670485968242
 30
0.0
 40
1.0
100
AcDbArc
 50
182.6326541691433
 51
207.8428844863788
  0
ARC
  5
34D
330
1F
100
AcDbEntity
  8
LAY-10
  6
CONTINUOUS
 62
     7
100
AcDbCircle
 10
554.8400319701592
 20
221.0000000000099
 30
0.0
 40
2.0
100
AcDbArc
 50
270.0000000000002
 51
357.0000000000025
  0
LINE
  5
34E
330
1F
100
AcDbEntity
  8
LAY-10
  6
CONTINUOUS
 62
     7
100
AcDbLine
 10
556.8372910396683
 20
220.8953280875241
 30
0.0
 11
557.000000000004
 21
224.0000000000099
 31
0.0
  0
ARC
  5
34F
330
1F
100
AcDbEntity
  8
LAY-10
  6
CONTINUOUS
 62
     7
100
AcDbCircle
 10
556.5878994687346
 20
224.4670485968242
 30
0.0
 40
1.0
100
AcDbArc
 50
292.847618066044
 51
353.8741186700595
  0
LINE
  5
350
330
1F
100
AcDbEntity
  8
LAY-10
  6
CONTINUOUS
 62
     7
100
AcDbLine
 10
538.1800715440019
 20
224.0000000000099
 30
0.0
 11
557.000000000004
 21
224.0000000000099
 31
0.0
  0
LINE
  5
351
330
1F
100
AcDbEntity
  8
LAY-10
  6
CONTINUOUS
 62
     7
100
AcDbLine
 10
559.0807377657305
 20
219.0000000000082
 30
0.0
 11
378.4999999999985
 21
219.0000000000082
 31
0.0
  0
LINE
  5
352
330
1F
100
AcDbEntity
  8
LAY-10
  6
CONTINUOUS
 62
     7
100
AcDbLine
 10
395.80000000001
 20
172.000000000013
 30
0.0
 11
396.83173816211
 21
173.000000000013
 31
0.0
  0
LINE
  5
353
330
1F
100
AcDbEntity
  8
LAY-10
  6
CONTINUOUS
 62
     7
100
AcDbLine
 10
571.9999999999824
 20
217.0000000000077
 30
0.0
 11
571.9999999999824
 21
218.0000000000059
 31
0.0
  0
LINE
  5
354
330
1F
100
AcDbEntity
  8
LAY-10
  6
CONTINUOUS
 62
     7
100
AcDbLine
 10
566.9999999999831
 20
217.0000000000077
 30
0.0
 11
566.9999999999831
 21
218.000000000007
 31
0.0
  0
LINE
  5
355
330
1F
100
AcDbEntity
  8
LAY-10
  6
CONTINUOUS
 62
     7
100
AcDbLine
 10
566.9999999999831
 20
218.000000000007
 30
0.0
 11
571.9999999999824
 21
218.000000000007
 31
0.0
  0
LINE
  5
356
330
1F
100
AcDbEntity
  8
LAY-10
  6
CONTINUOUS
 62
     7
100
AcDbLine
 10
566.4999999999799
 20
216.500000000007
 30
0.0
 11
572.4999999999799
 21
216.500000000007
 31
0.0
  0
LINE
  5
357
330
1F
100
AcDbEntity
  8
LAY-10
  6
CONTINUOUS
 62
     7
100
AcDbLine
 10
566.9999999999799
 20
217.0000000000077
 30
0.0
 11
571.9999999999799
 21
217.0000000000077
 31
0.0
  0
LINE
  5
358
330
1F
100
AcDbEntity
  8
LAY-10
  6
CONTINUOUS
 62
     7
100
AcDbLine
 10
569.4999999999801
 20
219.4433756729827
 30
0.0
 11
571.999999999981
 21
218.0000000000081
 31
0.0
  0
LINE
  5
359
330
1F
100
AcDbEntity
  8
LAY-10
  6
CONTINUOUS
 62
     7
100
AcDbLine
 10
569.4999999999797
 20
219.4433756729825
 30
0.0
 11
566.9999999999792
 21
218.0000000000081
 31
0.0
  0
LINE
  5
35A
330
1F
100
AcDbEntity
  8
LAY-10
  6
CONTINUOUS
 62
     7
100
AcDbLine
 10
583.9999999999794
 20
187.0000000000164
 30
0.0
 11
583.9999999999794
 21
192.0000000000163
 31
0.0
  0
LINE
  5
35B
330
1F
100
AcDbEntity
  8
LAY-10
  6
CONTINUOUS
 62
     7
100
AcDbLine
 10
573.999999999979
 20
192.0000000000163
 30
0.0
 11
583.9999999999794
 21
192.0000000000163
 31
0.0
  0
ARC
  5
35C
330
1F
100
AcDbEntity
  8
LAY-10
  6
CONTINUOUS
 62
     7
100
AcDbCircle
 10
573.999999999979
 20
194.0000000000163
 30
0.0
 40
2.0
100
AcDbArc
 50
180.0
 51
270.0000000000002
  0
LINE
  5
35D
330
1F
100
AcDbEntity
  8
LAY-10
  6
CONTINUOUS
 62
     7
100
AcDbLine
 10
573.999999999979
 20
187.0000000000164
 30
0.0
 11
583.9999999999794
 21
187.0000000000164
 31
0.0
  0
ARC
  5
35E
330
1F
100
AcDbEntity
  8
LAY-10
  6
CONTINUOUS
 62
     7
100
AcDbCircle
 10
573.999999999979
 20
194.0000000000163
 30
0.0
 40
7.000000000000004
100
AcDbArc
 50
180.0
 51
270.0000000000002
  0
LINE
  5
35F
330
1F
100
AcDbEntity
  8
LAY-10
  6
CONTINUOUS
 62
     7
100
AcDbLine
 10
571.9999999999799
 20
194.0000000000119
 30
0.0
 11
571.9999999999799
 21
209.0000000000116
 31
0.0
  0
LINE
  5
360
330
1F
100
AcDbEntity
  8
LAY-10
  6
CONTINUOUS
 62
     7
100
AcDbLine
 10
566.9999999999799
 20
194.0000000000119
 30
0.0
 11
566.9999999999799
 21
209.0000000000116
 31
0.0
  0
LINE
  5
361
330
1F
100
AcDbEntity
  8
LAY-10
  6
CONTINUOUS
 62
     7
100
AcDbLine
 10
566.9999999999831
 20
215.0000000000165
 30
0.0
 11
571.9999999999824
 21
215.0000000000165
 31
0.0
  0
LINE
  5
362
330
1F
100
AcDbEntity
  8
LAY-10
  6
CONTINUOUS
 62
     7
100
AcDbLine
 10
566.4999999999817
 20
214.500000000018
 30
0.0
 11
572.4999999999808
 21
214.500000000018
 31
0.0
  0
LINE
  5
363
330
1F
100
AcDbEntity
  8
LAY-10
  6
CONTINUOUS
 62
     7
100
AcDbLine
 10
571.9999999999824
 20
217.0000000000077
 30
0.0
 11
571.9999999999824
 21
215.0000000000165
 31
0.0
  0
LINE
  5
364
330
1F
100
AcDbEntity
  8
LAY-10
  6
CONTINUOUS
 62
     7
100
AcDbLine
 10
566.9999999999831
 20
217.0000000000077
 30
0.0
 11
566.9999999999831
 21
215.0000000000165
 31
0.0
  0
LINE
  5
365
330
1F
100
AcDbEntity
  8
LAY-10
  6
CONTINUOUS
 62
     7
100
AcDbLine
 10
572.4999999999799
 20
214.5000000000219
 30
0.0
 11
571.9999999999799
 21
215.0000000000119
 31
0.0
  0
LINE
  5
366
330
1F
100
AcDbEntity
  8
LAY-10
  6
CONTINUOUS
 62
     7
100
AcDbLine
 10
566.9999999999799
 20
215.0000000000119
 30
0.0
 11
566.4999999999799
 21
214.5000000000219
 31
0.0
  0
LINE
  5
367
330
1F
100
AcDbEntity
  8
LAY-10
  6
CONTINUOUS
 62
     7
100
AcDbLine
 10
566.4999999999799
 20
214.5000000000219
 30
0.0
 11
566.4999999999799
 21
209.0000000000119
 31
0.0
  0
LINE
  5
368
330
1F
100
AcDbEntity
  8
LAY-10
  6
CONTINUOUS
 62
     7
100
AcDbLine
 10
572.4999999999799
 20
214.5000000000219
 30
0.0
 11
572.4999999999799
 21
209.0000000000119
 31
0.0
  0
LINE
  5
369
330
1F
100
AcDbEntity
  8
LAY-10
  6
CONTINUOUS
 62
     7
100
AcDbLine
 10
396.8317381621096
 20
173.000000000013
 30
0.0
 11
397.5504881621092
 21
196.00000000001
 31
0.0
  0
LINE
  5
36A
330
1F
100
AcDbEntity
  8
LAY-10
  6
CONTINUOUS
 62
     7
100
AcDbLine
 10
534.1999999999831
 20
172.000000000013
 30
0.0
 11
533.1682618378832
 21
173.000000000013
 31
0.0
  0
LINE
  5
36B
330
1F
100
AcDbEntity
  8
LAY-10
  6
CONTINUOUS
 62
     7
100
AcDbLine
 10
533.1682618378836
 20
173.000000000013
 30
0.0
 11
532.449511837884
 21
196.00000000001
 31
0.0
  0
LINE
  5
36C
330
1F
100
AcDbEntity
  8
LAY-10
  6
CONTINUOUS
 62
     7
100
AcDbLine
 10
396.8317381621094
 20
173.0000000000088
 30
0.0
 11
533.1682618378837
 21
173.0000000000088
 31
0.0
  0
LINE
  5
36D
330
1F
100
AcDbEntity
  8
LAY-10
  6
CENTER
 62
     2
100
AcDbLine
 10
348.1515095359661
 20
615.0000000000099
 30
0.0
 11
583.8515095359661
 21
615.0000000000099
 31
0.0
  0
LINE
  5
36E
330
1F
100
AcDbEntity
  8
LAY-10
  6
CENTER
 62
     2
100
AcDbLine
 10
464.9999999999996
 20
496.7000000000099
 30
0.0
 11
464.9999999999996
 21
733.9000000000101
 31
0.0
  0
LINE
  5
36F
330
1F
100
AcDbEntity
  8
LAY-10
  6
CENTER
 62
     2
100
AcDbLine
 10
375.9999999999995
 20
621.00000000001
 30
0.0
 11
375.9999999999995
 21
609.00000000001
 31
0.0
  0
LINE
  5
370
330
1F
100
AcDbEntity
  8
LAY-10
  6
CENTER
 62
     2
100
AcDbLine
 10
553.9999999999995
 20
621.00000000001
 30
0.0
 11
553.9999999999995
 21
609.00000000001
 31
0.0
  0
LINE
  5
371
330
1F
100
AcDbEntity
  8
LAY-10
  6
CENTER
 62
     2
100
AcDbLine
 10
464.9999999999966
 20
404.72347485
 30
0.0
 11
464.9999999999966
 21
150.42347485
 31
0.0
  0
LINE
  5
372
330
1F
100
AcDbEntity
  8
LAY-10
  6
CENTER
 62
     2
100
AcDbLine
 10
375.9999999999965
 20
208.52347485
 30
0.0
 11
375.9999999999965
 21
231.72347485
 31
0.0
  0
LINE
  5
373
330
1F
100
AcDbEntity
  8
LAY-10
  6
CENTER
 62
     2
100
AcDbLine
 10
585.1999999999788
 20
189.5000000000175
 30
0.0
 11
573.9999999999799
 21
189.5000000000175
 31
0.0
  0
ARC
  5
374
330
1F
100
AcDbEntity
  8
LAY-10
  6
CENTER
 62
     2
100
AcDbCircle
 10
573.9999999999799
 20
194.0000000000175
 30
0.0
 40
4.5
100
AcDbArc
 50
180.0
 51
270.0000000000002
  0
LINE
  5
375
330
1F
100
AcDbEntity
  8
LAY-10
  6
CENTER
 62
     2
100
AcDbLine
 10
569.4999999999801
 20
220.2013587595018
 30
0.0
 11
569.4999999999801
 21
194.0000000000175
 31
0.0
  0
LINE
  5
376
330
1F
100
AcDbEntity
  8
LAY-10
  6
CONTINUOUS
 62
     7
100
AcDbLine
 10
378.9999999999965
 20
213.0000000000363
 30
0.0
 11
378.4999999999977
 21
212.5000000000359
 31
0.0
  0
LINE
  5
377
330
1F
100
AcDbEntity
  8
LAY-10
  6
CONTINUOUS
 62
     7
100
AcDbLine
 10
372.9999999999968
 20
213.0000000000363
 30
0.0
 11
373.4999999999981
 21
212.5000000000359
 31
0.0
  0
LINE
  5
378
330
1F
100
AcDbEntity
  8
LAY-10
  6
CONTINUOUS
 62
     7
100
AcDbLine
 10
373.4999999999986
 20
226.5000000000086
 30
0.0
 11
373.4999999999986
 21
214.5000000000105
 31
0.0
  0
LINE
  5
379
330
1F
100
AcDbEntity
  8
LAY-10
  6
CONTINUOUS
 62
     7
100
AcDbLine
 10
378.4999999999985
 20
226.5000000000086
 30
0.0
 11
378.4999999999985
 21
214.5000000000105
 31
0.0
  0
LINE
  5
37A
330
1F
100
AcDbEntity
  8
LAY-10
  6
CONTINUOUS
 62
     7
100
AcDbLine
 10
372.9999999999968
 20
213.0000000000363
 30
0.0
 11
372.9999999999968
 21
215.0000000000106
 31
0.0
  0
LINE
  5
37B
330
1F
100
AcDbEntity
  8
LAY-10
  6
CONTINUOUS
 62
     7
100
AcDbLine
 10
378.9999999999965
 20
213.0000000000363
 30
0.0
 11
378.9999999999965
 21
215.0000000000106
 31
0.0
  0
LINE
  5
37C
330
1F
100
AcDbEntity
  8
LAY-10
  6
CONTINUOUS
 62
     7
100
AcDbLine
 10
572.4999999999808
 20
216.500000000007
 30
0.0
 11
571.9999999999824
 21
217.0000000000077
 31
0.0
  0
LINE
  5
37D
330
1F
100
AcDbEntity
  8
LAY-10
  6
CONTINUOUS
 62
     7
100
AcDbLine
 10
566.4999999999817
 20
216.500000000007
 30
0.0
 11
566.9999999999831
 21
217.0000000000077
 31
0.0
  0
LINE
  5
37E
330
1F
100
AcDbEntity
  8
LAY-10
  6
CONTINUOUS
 62
     7
100
AcDbLine
 10
572.4999999999808
 20
216.500000000007
 30
0.0
 11
572.4999999999808
 21
214.500000000018
 31
0.0
  0
LINE
  5
37F
330
1F
100
AcDbEntity
  8
LAY-10
  6
CONTINUOUS
 62
     7
100
AcDbLine
 10
566.4999999999817
 20
216.500000000007
 30
0.0
 11
566.4999999999817
 21
214.500000000018
 31
0.0
  0
LINE
  5
380
330
1F
100
AcDbEntity
  8
LAY-10
  6
CONTINUOUS
 62
     7
100
AcDbLine
 10
571.9999999999799
 20
215.0000000000119
 30
0.0
 11
571.9999999999799
 21
209.0000000000119
 31
0.0
  0
LINE
  5
381
330
1F
100
AcDbEntity
  8
LAY-10
  6
CONTINUOUS
 62
     7
100
AcDbLine
 10
566.9999999999799
 20
215.0000000000119
 30
0.0
 11
566.9999999999799
 21
209.0000000000119
 31
0.0
  0
LINE
  5
382
330
1F
100
AcDbEntity
  8
LAY-10
  6
CONTINUOUS
 62
     7
100
AcDbLine
 10
566.9999999999617
 20
208.1339745962169
 30
0.0
 11
566.4999999999617
 21
209.0000000000015
 31
0.0
  0
LINE
  5
383
330
1F
100
AcDbEntity
  8
LAY-10
  6
CONTINUOUS
 62
     7
100
AcDbLine
 10
571.9999999999919
 20
208.1339745962204
 30
0.0
 11
572.4999999999919
 21
209.000000000005
 31
0.0
  0
LINE
  5
384
330
1F
100
AcDbEntity
  8
LAY-10
  6
CONTINUOUS
 62
     7
100
AcDbLine
 10
396.5500000000098
 20
196.00000000001
 30
0.0
 11
395.80000000001
 21
172.000000000013
 31
0.0
  0
LINE
  5
385
330
1F
100
AcDbEntity
  8
LAY-10
  6
CONTINUOUS
 62
     7
100
AcDbLine
 10
533.4499999999832
 20
196.00000000001
 30
0.0
 11
534.1999999999831
 21
172.000000000013
 31
0.0
  0
DIMENSION
  5
387
330
1F
100
AcDbEntity
  8
LAY-20
  6
CONTINUOUS
 62
     4
100
AcDbDimension
  2
*D15
 10
578.4999999999981
 20
471.0
 30
0.0
 11
464.9999999999981
 21
478.5
 31
0.0
 70
   160
  1
%%c<>
  3
ISO-25
100
AcDbAlignedDimension
 13
351.499999999998
 23
220.00000000001
 33
0.0
 14
578.4999999999981
 24
220.0
 34
0.0
100
AcDbRotatedDimension
1001
ACAD
1000
DSTYLE
1002
{
1070
   270
1070
     2
1070
     6
1000
EX_BNORM
1070
     7
1000
EX_BNORM
1070
    41
1040
7.5
1070
    42
1040
4.5
1070
    44
1040
4.5
1070
    73
1070
     0
1070
    74
1070
     0
1070
    75
1070
     0
1070
    76
1070
     0
1070
    77
1070
     1
1070
    78
1070
     8
1070
   140
1040
9.3543312
1070
   147
1040
0.0
1070
   173
1070
     1
1070
   176
1070
     4
1070
   177
1070
     4
1070
   178
1070
     7
1070
   271
1070
     1
1070
   277
1070
     2
1070
   279
1070
     2
1070
   280
1070
     0
1070
   287
1070
     5
1070
   340
1005
386
1002
}
  0
DIMENSION
  5
395
330
1F
100
AcDbEntity
  8
LAY-20
  6
CONTINUOUS
 62
     4
100
AcDbDimension
  2
*D16
 10
534.1999999999981
 20
127.00000000001
 30
0.0
 11
464.9999999999981
 21
134.50000000001
 31
0.0
 70
   160
  1
Rｃ5（<>）
  3
ISO-25
100
AcDbAlignedDimension
 13
395.7999999999981
 23
172.00000000001
 33
0.0
 14
534.1999999999981
 24
172.00000000001
 34
0.0
100
AcDbRotatedDimension
1001
ACAD
1000
DSTYLE
1002
{
1070
   270
1070
     2
1070
     6
1000
EX_BNORM
1070
     7
1000
EX_BNORM
1070
    41
1040
7.5
1070
    42
1040
4.5
1070
    44
1040
4.5
1070
    73
1070
     0
1070
    74
1070
     0
1070
    75
1070
     0
1070
    76
1070
     0
1070
    77
1070
     1
1070
    78
1070
     8
1070
   140
1040
9.3543312
1070
   147
1040
0.0
1070
   173
1070
     1
1070
   176
1070
     4
1070
   177
1070
     4
1070
   178
1070
     7
1070
   271
1070
     1
1070
   277
1070
     2
1070
   279
1070
     2
1070
   280
1070
     0
1070
   287
1070
     5
1070
   340
1005
386
1002
}
  0
DIMENSION
  5
3A2
330
1F
100
AcDbEntity
  8
LAY-20
  6
CONTINUOUS
 62
     4
100
AcDbDimension
  2
*D17
 10
321.499999999998
 20
227.00000000001
 30
0.0
 11
313.999999999998
 21
214.58432886266
 31
0.0
 70
   160
  3
ISO-25
100
AcDbAlignedDimension
 13
382.4999999999981
 23
202.1686577253101
 33
0.0
 14
352.4999999999981
 24
227.00000000001
 34
0.0
 50
90.0
100
AcDbRotatedDimension
1001
ACAD
1000
DSTYLE
1002
{
1070
   270
1070
     2
1070
     6
1000
EX_BNORM
1070
     7
1000
EX_BNORM
1070
    41
1040
7.5
1070
    42
1040
4.5
1070
    44
1040
4.5
1070
    73
1070
     0
1070
    74
1070
     0
1070
    75
1070
     0
1070
    76
1070
     0
1070
    77
1070
     1
1070
    78
1070
     0
1070
   140
1040
9.3543312
1070
   147
1040
0.0
1070
   173
1070
     1
1070
   176
1070
     4
1070
   177
1070
     4
1070
   178
1070
     7
1070
   271
1070
     0
1070
   277
1070
     2
1070
   279
1070
     2
1070
   280
1070
     0
1070
   287
1070
     5
1070
   340
1005
386
1002
}
  0
DIMENSION
  5
3AF
330
1F
100
AcDbEntity
  8
LAY-20
  6
CONTINUOUS
 62
     4
100
AcDbDimension
  2
*D18
 10
370.4999999999981
 20
450.0
 30
0.0
 11
464.9999999999981
 21
457.4999999999999
 31
0.0
 70
   160
  1
%%c<>
  3
ISO-25
100
AcDbAlignedDimension
 13
559.4999999999981
 23
227.00000000001
 33
0.0
 14
370.4999999999981
 24
227.00000000001
 34
0.0
100
AcDbRotatedDimension
1001
ACAD
1000
DSTYLE
1002
{
1070
   270
1070
     2
1070
     6
1000
EX_BNORM
1070
     7
1000
EX_BNORM
1070
    41
1040
7.5
1070
    42
1040
4.5
1070
    44
1040
4.500000000000171
1070
    73
1070
     0
1070
    74
1070
     0
1070
    75
1070
     0
1070
    76
1070
     0
1070
    77
1070
     1
1070
    78
1070
     8
1070
   140
1040
9.3543312
1070
   147
1040
0.0
1070
   173
1070
     1
1070
   176
1070
     4
1070
   177
1070
     4
1070
   178
1070
     7
1070
   271
1070
     1
1070
   277
1070
     2
1070
   279
1070
     2
1070
   280
1070
     0
1070
   287
1070
     5
1070
   340
1005
386
1002
}
  0
DIMENSION
  5
3BC
330
1F
100
AcDbEntity
  8
LAY-20
  6
CONTINUOUS
 62
     4
100
AcDbDimension
  2
*D19
 10
608.49999999999
 20
227.00000000001
 30
0.0
 11
600.99999999999
 21
192.0000000000099
 31
0.0
 70
   160
  3
ISO-25
100
AcDbAlignedDimension
 13
547.5
 23
157.00000000001
 33
0.0
 14
577.5
 24
227.00000000001
 34
0.0
 50
90.0
100
AcDbRotatedDimension
1001
ACAD
1000
DSTYLE
1002
{
1070
   270
1070
     2
1070
     6
1000
EX_BNORM
1070
     7
1000
EX_BNORM
1070
    41
1040
7.5
1070
    42
1040
4.5
1070
    44
1040
4.5
1070
    73
1070
     0
1070
    74
1070
     0
1070
    75
1070
     0
1070
    76
1070
     0
1070
    77
1070
     1
1070
    78
1070
     8
1070
   140
1040
9.3543312
1070
   147
1040
0.0
1070
   173
1070
     1
1070
   176
1070
     4
1070
   177
1070
     4
1070
   178
1070
     7
1070
   271
1070
     1
1070
   277
1070
     2
1070
   279
1070
     2
1070
   280
1070
     0
1070
   287
1070
     5
1070
   340
1005
386
1002
}
  0
DIMENSION
  5
3C9
330
1F
100
AcDbEntity
  8
LAY-20
  6
CONTINUOUS
 62
     4
100
AcDbDimension
  2
*D20
 10
608.49999999999
 20
399.00000000001
 30
0.0
 11
600.99999999999
 21
313.00000000001
 31
0.0
 70
   160
  3
ISO-25
100
AcDbAlignedDimension
 13
608.49999999999
 23
227.00000000001
 33
0.0
 14
465.0
 24
399.00000000001
 34
0.0
 50
90.0
100
AcDbRotatedDimension
1001
ACAD
1000
DSTYLE
1002
{
1070
   270
1070
     2
1070
     6
1000
EX_BNORM
1070
     7
1000
EX_BNORM
1070
    41
1040
7.5
1070
    42
1040
4.5
1070
    44
1040
4.5
1070
    73
1070
     0
1070
    74
1070
     0
1070
    75
1070
     1
1070
    76
1070
     0
1070
    77
1070
     1
1070
    78
1070
     8
1070
   140
1040
9.3543312
1070
   147
1040
0.0
1070
   173
1070
     1
1070
   176
1070
     4
1070
   177
1070
     4
1070
   178
1070
     7
1070
   271
1070
     1
1070
   277
1070
     2
1070
   279
1070
     2
1070
   280
1070
     0
1070
   287
1070
     5
1070
   340
1005
386
1002
}
  0
DIMENSION
  5
3D5
330
1F
100
AcDbEntity
  8
LAY-20
  6
CONTINUOUS
 62
     4
100
AcDbDimension
  2
*D21
 10
373.0
 20
429.0
 30
0.0
 11
465.0
 21
436.5
 31
0.0
 70
   160
  1
%%c<>
  3
ISO-25
100
AcDbAlignedDimension
 13
557.0
 23
224.00000000001
 33
0.0
 14
373.0
 24
224.00000000001
 34
0.0
100
AcDbRotatedDimension
1001
ACAD
1000
DSTYLE
1002
{
1070
   270
1070
     2
1070
     6
1000
EX_BNORM
1070
     7
1000
EX_BNORM
1070
    41
1040
7.5
1070
    42
1040
4.5
1070
    44
1040
4.5
1070
    73
1070
     0
1070
    74
1070
     0
1070
    75
1070
     0
1070
    76
1070
     0
1070
    77
1070
     1
1070
    78
1070
     8
1070
   140
1040
9.3543312
1070
   147
1040
0.0
1070
   173
1070
     1
1070
   176
1070
     4
1070
   177
1070
     4
1070
   178
1070
     7
1070
   271
1070
     1
1070
   277
1070
     2
1070
   279
1070
     2
1070
   280
1070
     0
1070
   287
1070
     5
1070
   340
1005
386
1002
}
  0
LINE
  5
3E2
330
1F
100
AcDbEntity
  8
LAY-255
  6
CONTINUOUS
 62
     7
100
AcDbLine
 10
1155.0
 20
66.0
 30
0.0
 11
855.0
 21
66.0
 31
0.0
  0
LINE
  5
3E3
330
1F
100
AcDbEntity
  8
LAY-255
  6
CONTINUOUS
 62
     7
100
AcDbLine
 10
866.4000000000001
 20
48.0
 30
0.0
 11
890.4000000000001
 21
63.0
 31
0.0
  0
LINE
  5
3E4
330
1F
100
AcDbEntity
  8
LAY-255
  6
CONTINUOUS
 62
     7
100
AcDbLine
 10
890.4000000000001
 20
63.0
 30
0.0
 11
914.4000000000001
 21
48.0
 31
0.0
  0
LINE
  5
3E5
330
1F
100
AcDbEntity
  8
LAY-255
  6
CONTINUOUS
 62
     7
100
AcDbLine
 10
914.4000000000001
 20
48.0
 30
0.0
 11
890.4000000000001
 21
33.0
 31
0.0
  0
LINE
  5
3E6
330
1F
100
AcDbEntity
  8
LAY-255
  6
CONTINUOUS
 62
     7
100
AcDbLine
 10
890.4000000000001
 20
33.0
 30
0.0
 11
866.4000000000001
 21
48.0
 31
0.0
  0
LINE
  5
3E7
330
1F
100
AcDbEntity
  8
LAY-255
  6
CONTINUOUS
 62
     7
100
AcDbLine
 10
15.0
 20
30.0
 30
0.0
 11
1155.0
 21
30.0
 31
0.0
  0
LINE
  5
3E8
330
1F
100
AcDbEntity
  8
LAY-255
  6
CONTINUOUS
 62
     7
100
AcDbLine
 10
15.0
 20
840.0
 30
0.0
 11
1155.0
 21
840.0
 31
0.0
  0
LINE
  5
3E9
330
1F
100
AcDbEntity
  8
LAY-255
  6
CONTINUOUS
 62
     7
100
AcDbLine
 10
15.0
 20
30.0
 30
0.0
 11
15.0
 21
840.0
 31
0.0
  0
LINE
  5
3EA
330
1F
100
AcDbEntity
  8
LAY-255
  6
CONTINUOUS
 62
     7
100
AcDbLine
 10
1155.0
 20
30.0
 30
0.0
 11
1155.0
 21
840.0
 31
0.0
  0
LINE
  5
3EB
330
1F
100
AcDbEntity
  8
LAY-255
  6
CONTINUOUS
 62
     4
100
AcDbLine
 10
855.0
 20
84.0
 30
0.0
 11
1155.0
 21
84.0
 31
0.0
  0
LINE
  5
3EC
330
1F
100
AcDbEntity
  8
LAY-255
  6
CONTINUOUS
 62
     7
100
AcDbLine
 10
855.0
 20
30.0
 30
0.0
 11
855.0
 21
201.0
 31
0.0
  0
LINE
  5
3ED
330
1F
100
AcDbEntity
  8
LAY-255
  6
CONTINUOUS
 62
     4
100
AcDbLine
 10
1005.0
 20
84.0
 30
0.0
 11
1005.0
 21
66.0
 31
0.0
  0
LINE
  5
3EE
330
1F
100
AcDbEntity
  8
LAY-255
  6
CONTINUOUS
 62
     7
100
AcDbLine
 10
1155.0
 20
201.0
 30
0.0
 11
855.0
 21
201.0
 31
0.0
  0
LINE
  5
3EF
330
1F
100
AcDbEntity
  8
LAY-255
  6
CONTINUOUS
 62
     4
100
AcDbLine
 10
1149.0
 20
165.0
 30
0.0
 11
861.0
 21
165.0
 31
0.0
  0
LINE
  5
3F0
330
1F
100
AcDbEntity
  8
LAY-255
  6
CONTINUOUS
 62
     4
100
AcDbLine
 10
1149.0
 20
183.0
 30
0.0
 11
861.0
 21
183.0
 31
0.0
  0
POINT
  5
3F1
330
1F
100
AcDbEntity
  8
LAY-255
  6
CONTINUOUS
 62
     7
100
AcDbPoint
 10
867.0
 20
150.0
 30
0.0
  0
POINT
  5
3F2
330
1F
100
AcDbEntity
  8
LAY-255
  6
CONTINUOUS
 62
     7
100
AcDbPoint
 10
900.0
 20
168.0
 30
0.0
  0
POINT
  5
3F3
330
1F
100
AcDbEntity
  8
LAY-255
  6
CONTINUOUS
 62
     7
100
AcDbPoint
 10
900.0
 20
186.0
 30
0.0
  0
POINT
  5
3F4
330
1F
100
AcDbEntity
  8
LAY-255
  6
CONTINUOUS
 62
     7
100
AcDbPoint
 10
867.0
 20
120.0
 30
0.0
  0
POINT
  5
3F5
330
1F
100
AcDbEntity
  8
LAY-255
  6
CONTINUOUS
 62
     7
100
AcDbPoint
 10
867.0
 20
135.0
 30
0.0
  0
POINT
  5
3F6
330
1F
100
AcDbEntity
  8
LAY-255
  6
CONTINUOUS
 62
     7
100
AcDbPoint
 10
867.0
 20
105.0
 30
0.0
  0
POINT
  5
3F7
330
1F
100
AcDbEntity
  8
LAY-255
  6
CONTINUOUS
 62
     7
100
AcDbPoint
 10
867.0
 20
89.99999999999996
 30
0.0
  0
TEXT
  5
3F8
330
1F
100
AcDbEntity
  8
LAY-255
  6
CONTINUOUS
 62
     7
100
AcDbText
 10
924.415136826172
 20
46.63125
 30
0.0
 40
15.46875
  1
福西鋳物株式会社
 41
1.342692141742901
  7
EXCADSTD
100
AcDbText
  0
TEXT
  5
3F9
330
1F
100
AcDbEntity
  8
LAY-255
  6
CONTINUOUS
 62
     7
100
AcDbText
 10
925.528125
 20
35.94375
 30
0.0
 40
5.15625
  1
ＦＵＫＵＮＩＳＨＩ
 41
1.204799226045263
  7
EXCADSTD
100
AcDbText
  0
TEXT
  5
3FA
330
1F
100
AcDbEntity
  8
LAY-255
  6
CONTINUOUS
 62
     7
100
AcDbText
 10
998.1575892857143
 20
35.94375
 30
0.0
 40
5.15625
  1
ＦＯＵＮＤＲＹ
 41
1.243252752978497
  7
EXCADSTD
100
AcDbText
  0
TEXT
  5
3FB
330
1F
100
AcDbEntity
  8
LAY-255
  6
CONTINUOUS
 62
     7
100
AcDbText
 10
1055.983774651442
 20
35.94375
 30
0.0
 40
5.15625
  1
ＣＯ.,ＬＴＤ.
 41
1.243831271314936
  7
EXCADSTD
100
AcDbText
  0
TEXT
  5
3FC
330
1F
100
AcDbEntity
  8
LAY-255
  6
CONTINUOUS
 62
     7
100
AcDbText
 10
882.1031250000001
 20
41.15625
 30
0.0
 40
15.46875
  1
S
 41
0.7582677563636363
  7
EXCADSTD
100
AcDbText
  0
TEXT
  5
3FD
330
1F
100
AcDbEntity
  8
LAY-255
  6
CONTINUOUS
 62
     7
100
AcDbText
 10
891.3140625000001
 20
41.24823113208
 30
0.0
 40
15.46875
  1
F
 41
0.7440945272727273
  7
EXCADSTD
100
AcDbText
  0
TEXT
  5
3FE
330
1F
100
AcDbEntity
  8
LAY-255
  6
CONTINUOUS
 62
     7
100
AcDbText
 10
1011.31640625
 20
73.26562499999997
 30
0.0
 40
7.734375
  1
縮尺
 41
1.080708718181818
  7
EXCADSTD
100
AcDbText
  0
TEXT
  5
3FF
330
1F
100
AcDbEntity
  8
LAY-255
  6
CONTINUOUS
 62
     7
100
AcDbText
 10
861.796875
 20
169.6875
 30
0.0
 40
10.3125
  1
型式
 41
1.056348480681818
  7
EXCADSTD
100
AcDbText
  0
TEXT
  5
400
330
1F
100
AcDbEntity
  8
LAY-255
  6
CONTINUOUS
 62
     7
100
AcDbText
 10
862.265625
 20
187.6875
 30
0.0
 40
10.3125
  1
品名
 41
0.978838634090909
  7
EXCADSTD
100
AcDbText
  0
TEXT
  5
401
330
1F
100
AcDbEntity
  8
LAY-255
  6
CONTINUOUS
 62
     7
100
AcDbText
 10
861.45703125
 20
73.26562499999997
 30
0.0
 40
7.734375
  1
作成日
 41
1.000629973818182
  7
EXCADSTD
100
AcDbText
  0
TEXT
  5
402
330
1F
100
AcDbEntity
  8
LAY-255
  6
CONTINUOUS
 62
     7
100
AcDbText
 10
1044.84375
 20
70.68749999999997
 30
0.0
 40
10.3125
  1
１：３
 41
0.8844094952727272
  7
EXCADSTD
100
AcDbText
  0
TEXT
  5
403
330
1F
100
AcDbEntity
  8
LAY-255
  6
CONTINUOUS
 62
     7
100
AcDbText
 10
867.5625
 20
121.6875
 30
0.0
 40
10.3125
  1
施工：打込用
 41
1.018700840909091
  7
EXCADSTD
100
AcDbText
  0
TEXT
  5
404
330
1F
100
AcDbEntity
  8
LAY-255
  6
CONTINUOUS
 62
     7
100
AcDbText
 10
900.75
 20
187.6875
 30
0.0
 40
10.3125
  1
ルーフドレイン
 41
1.021169538599106
  7
EXCADSTD
100
AcDbText
  0
TEXT
  5
405
330
1F
100
AcDbEntity
  8
LAY-255
  6
CONTINUOUS
 62
     7
100
AcDbText
 10
867.703125
 20
136.6875
 30
0.0
 40
10.3125
  1
用途：屋上用
 41
1.016656625174825
  7
EXCADSTD
100
AcDbText
  0
TEXT
  5
406
330
1F
100
AcDbEntity
  8
LAY-255
  6
CONTINUOUS
 62
     7
100
AcDbText
 10
868.125
 20
151.6875000000001
 30
0.0
 40
10.3125
  1
防水：モルタル・塗膜防水兼用
 41
1.008985320967742
  7
EXCADSTD
100
AcDbText
  0
TEXT
  5
407
330
1F
100
AcDbEntity
  8
LAY-255
  6
CONTINUOUS
 62
     7
100
AcDbText
 10
867.65625
 20
106.6875
 30
0.0
 40
10.3125
  1
接続：管用テーパねじ
 41
1.013063761157025
  7
EXCADSTD
100
AcDbText
  0
TEXT
  5
408
330
1F
100
AcDbEntity
  8
LAY-255
  6
CONTINUOUS
 62
     7
100
AcDbText
 10
902.625
 20
169.6875
 30
0.0
 40
10.3125
  1
ＲＧＸ－９１２５型
 41
0.9997508747986191
  7
EXCADSTD
100
AcDbText
  0
TEXT
  5
409
330
1F
100
AcDbEntity
  8
LAY-255
  6
CONTINUOUS
 62
     7
100
AcDbText
 10
902.671875
 20
70.68749999999997
 30
0.0
 40
10.3125
  1
０７／０１／０５
 41
0.9779528072727272
  7
EXCADSTD
100
AcDbText
  0
ENDSEC
  0
SECTION
  2
OBJECTS
  0
DICTIONARY
  5
C
330
0
100
AcDbDictionary
  3
ACAD_GROUP
350
D
  3
ACAD_LAYOUT
350
1A
  3
ACAD_MATERIAL
350
43
  3
ACAD_MLEADERSTYLE
350
6B
  3
ACAD_MLINESTYLE
350
17
  3
ACAD_PLOTSETTINGS
350
19
  3
ACAD_SCALELIST
350
47
  3
ACAD_VISUALSTYLE
350
2A
  3
ACDBHEADERROUNDTRIPXREC
350
40A
  3
ACDBVARIABLEDICTIONARY
350
42B
  0
DICTIONARY
  5
436
330
8
100
AcDbDictionary
280
     1
  3
ACAD_XREC_ROUNDTRIP
360
437
  0
DICTIONARY
  5
D
102
{ACAD_REACTORS
330
C
102
}
330
C
100
AcDbDictionary
  0
DICTIONARY
  5
1A
102
{ACAD_REACTORS
330
C
102
}
330
C
100
AcDbDictionary
  0
DICTIONARY
  5
43
102
{ACAD_REACTORS
330
C
102
}
330
C
100
AcDbDictionary
  3
BYBLOCK
350
45
  3
BYLAYER
350
44
  3
GLOBAL
350
46
  0
DICTIONARY
  5
6B
102
{ACAD_REACTORS
330
C
102
}
330
C
100
AcDbDictionary
  3
STANDARD
350
6C
  0
DICTIONARY
  5
17
102
{ACAD_REACTORS
330
C
102
}
330
C
100
AcDbDictionary
  3
STANDARD
350
18
  0
DICTIONARY
  5
19
102
{ACAD_REACTORS
330
C
102
}
330
C
100
AcDbDictionary
  0
DICTIONARY
  5
47
102
{ACAD_REACTORS
330
C
102
}
330
C
100
AcDbDictionary
  3
A0
350
48
  3
A1
350
49
  3
A2
350
4A
  3
A3
350
4B
  3
A4
350
4C
  3
A5
350
4D
  3
A6
350
4E
  3
A7
350
4F
  3
A8
350
50
  3
A9
350
51
  3
B0
350
52
  3
B1
350
53
  3
B2
350
54
  3
B3
350
55
  3
B4
350
56
  3
B5
350
57
  3
B6
350
58
  3
B7
350
59
  3
B8
350
5A
  3
B9
350
5B
  3
C0
350
5C
  3
C1
350
5D
  3
C2
350
5E
  3
C3
350
5F
  3
C4
350
60
  3
C5
350
61
  3
C6
350
62
  3
C7
350
63
  3
C8
350
64
  3
C9
350
65
  3
D0
350
66
  3
D1
350
67
  3
D2
350
68
  0
DICTIONARY
  5
2A
102
{ACAD_REACTORS
330
C
102
}
330
C
100
AcDbDictionary
  3
2DWIREFRAME
350
2F
  3
BASIC
350
32
  3
BRIGHTEN
350
36
  3
COLORCHANGE
350
3A
  3
CONCEPTUAL
350
34
  3
DIM
350
35
  3
EDGECOLOROFF
350
3D
  3
FACEPATTERN
350
39
  3
FLAT
350
2B
  3
FLATWITHEDGES
350
2C
  3
GOURAUD
350
2D
  3
GOURAUDWITHEDGES
350
2E
  3
HIDDEN
350
31
  3
JITTEROFF
350
3B
  3
LINEPATTERN
350
38
  3
OVERHANGOFF
350
3C
  3
REALISTIC
350
33
  3
SHADED
350
42
  3
SHADED_WITH_EDGES
350
41
  3
SHADES_OF_GRAY
350
3E
  3
SKETCHY
350
3F
  3
THICKEN
350
37
  3
WIREFRAME
350
30
  3
X-RAY
350
40
  0
DICTIONARY
  5
40A
102
{ACAD_REACTORS
330
C
102
}
330
C
100
AcDbDictionary
  3
CEPSNID
350
414
  3
CEPSNTYPE
350
413
  3
DIMSTYLEDATA
350
42A
  3
FINGERPRINTGUID
350
415
  3
HYPERLINKBASE
350
40D
  3
INSUNITS
350
412
  3
LAYOUTDICT
350
40F
  3
LWETCUNION
350
411
  3
PLOTSETDICT
350
410
  3
PSVPSCALE
350
417
  3
PUCSBASE
350
41A
  3
PUCSORGBACK
350
420
  3
PUCSORGBOTTOM
350
41C
  3
PUCSORGFRONT
350
41F
  3
PUCSORGLEFT
350
41D
  3
PUCSORGRIGHT
350
41E
  3
PUCSORGTOP
350
41B
  3
PUCSORTHOREF
350
418
  3
PUCSORTHOVIEW
350
419
  3
STYLESHEET
350
40E
  3
TSTACKALIGN
350
40B
  3
TSTACKSIZE
350
40C
  3
UCSBASE
350
423
  3
UCSORGBACK
350
429
  3
UCSORGBOTTOM
350
425
  3
UCSORGFRONT
350
428
  3
UCSORGLEFT
350
426
  3
UCSORGRIGHT
350
427
  3
UCSORGTOP
350
424
  3
UCSORTHOREF
350
421
  3
UCSORTHOVIEW
350
422
  3
VERSIONGUID
350
416
  0
DICTIONARY
  5
42B
102
{ACAD_REACTORS
330
C
102
}
330
C
100
AcDbDictionary
  3
CANNOSCALE
350
438
  3
CENTEREXE
350
432
  3
CENTERLTYPEFILE
350
433
  3
CMLEADERSTYLE
350
42D
  3
CTABLESTYLE
350
42C
  3
DIMASSOC
350
434
  3
HIDETEXT
350
435
  3
MSLTSCALE
350
439
  3
PSOLHEIGHT
350
42F
  3
PSOLWIDTH
350
42E
  0
XRECORD
  5
437
102
{ACAD_REACTORS
330
436
102
}
330
436
100
AcDbXrecord
102
VTR_0.000_0.000_1.000_1.000_VISUALSTYLE
340
2F
102
VTR_0.000_0.000_1.000_1.000_GRIDDISPLAY
 70
     3
102
VTR_0.000_0.000_1.000_1.000_GRIDMAJOR
 70
     5
102
VTR_0.000_0.000_1.000_1.000_DEFAULTLIGHTING
280
     1
102
VTR_0.000_0.000_1.000_1.000_DEFAULTLIGHTINGTYPE
 70
     1
102
VTR_0.000_0.000_1.000_1.000_BRIGHTNESS
141
0.0
102
VTR_0.000_0.000_1.000_1.000_CONTRAST
142
0.0
  0
MATERIAL
  5
45
102
{ACAD_REACTORS
330
43
102
}
102
{ACAD_XDICTIONARY
360
43C
102
}
330
43
100
AcDbMaterial
  1
BYBLOCK
  0
MATERIAL
  5
44
102
{ACAD_REACTORS
330
43
102
}
102
{ACAD_XDICTIONARY
360
43A
102
}
330
43
100
AcDbMaterial
  1
BYLAYER
  0
MATERIAL
  5
46
102
{ACAD_REACTORS
330
43
102
}
102
{ACAD_XDICTIONARY
360
43E
102
}
330
43
100
AcDbMaterial
  1
GLOBAL
  0
ACAD_PROXY_OBJECT
  5
6C
102
{ACAD_REACTORS
330
6B
102
}
330
6B
100
AcDbProxyObject
 90
      499
 91
      505
 93
      610
310
40901902A4063FBFFFFFE0000000000000020400000000000020404214DD185B99185C990000000000000104090141901A00000000000004100000000000000041025764000000000000039000
340
14
340
0
340
11
340
0
 94
        0
1001
ACAD_MLEADERVER
1070
     2
  0
MLINESTYLE
  5
18
102
{ACAD_REACTORS
330
17
102
}
330
17
100
AcDbMlineStyle
  2
Standard
 70
     0
  3

 62
   256
 51
90.0
 52
90.0
 71
     2
 49
0.5
 62
   256
  6
BYLAYER
 49
-0.5
 62
   256
  6
BYLAYER
  0
ACAD_PROXY_OBJECT
  5
48
102
{ACAD_REACTORS
330
47
102
}
330
47
100
AcDbProxyObject
 90
      499
 91
      503
 93
       41
310
903313A31580
  0
ACAD_PROXY_OBJECT
  5
49
102
{ACAD_REACTORS
330
47
102
}
330
47
100
AcDbProxyObject
 90
      499
 91
      503
 93
      105
310
903313A324000000000000004000
  0
ACAD_PROXY_OBJECT
  5
4A
102
{ACAD_REACTORS
330
47
102
}
330
47
100
AcDbProxyObject
 90
      499
 91
      503
 93
      105
310
903313A344000000000000104000
  0
ACAD_PROXY_OBJECT
  5
4B
102
{ACAD_REACTORS
330
47
102
}
330
47
100
AcDbProxyObject
 90
      499
 91
      503
 93
      105
310
903313A354000000000000144000
  0
ACAD_PROXY_OBJECT
  5
4C
102
{ACAD_REACTORS
330
47
102
}
330
47
100
AcDbProxyObject
 90
      499
 91
      503
 93
      105
310
903313A384000000000000204000
  0
ACAD_PROXY_OBJECT
  5
4D
102
{ACAD_REACTORS
330
47
102
}
330
47
100
AcDbProxyObject
 90
      499
 91
      503
 93
      113
310
904313A31304000000000000244000
  0
ACAD_PROXY_OBJECT
  5
4E
102
{ACAD_REACTORS
330
47
102
}
330
47
100
AcDbProxyObject
 90
      499
 91
      503
 93
      113
310
904313A31364000000000000304000
  0
ACAD_PROXY_OBJECT
  5
4F
102
{ACAD_REACTORS
330
47
102
}
330
47
100
AcDbProxyObject
 90
      499
 91
      503
 93
      113
310
904313A32304000000000000344000
  0
ACAD_PROXY_OBJECT
  5
50
102
{ACAD_REACTORS
330
47
102
}
330
47
100
AcDbProxyObject
 90
      499
 91
      503
 93
      113
310
904313A333040000000000003E4000
  0
ACAD_PROXY_OBJECT
  5
51
102
{ACAD_REACTORS
330
47
102
}
330
47
100
AcDbProxyObject
 90
      499
 91
      503
 93
      113
310
904313A34304000000000000444000
  0
ACAD_PROXY_OBJECT
  5
52
102
{ACAD_REACTORS
330
47
102
}
330
47
100
AcDbProxyObject
 90
      499
 91
      503
 93
      113
310
904313A35304000000000000494000
  0
ACAD_PROXY_OBJECT
  5
53
102
{ACAD_REACTORS
330
47
102
}
330
47
100
AcDbProxyObject
 90
      499
 91
      503
 93
      121
310
905313A3130304000000000000594000
  0
ACAD_PROXY_OBJECT
  5
54
102
{ACAD_REACTORS
330
47
102
}
330
47
100
AcDbProxyObject
 90
      499
 91
      503
 93
      105
310
903323A310000000000000010100
  0
ACAD_PROXY_OBJECT
  5
55
102
{ACAD_REACTORS
330
47
102
}
330
47
100
AcDbProxyObject
 90
      499
 91
      503
 93
      105
310
903343A310000000000000410100
  0
ACAD_PROXY_OBJECT
  5
56
102
{ACAD_REACTORS
330
47
102
}
330
47
100
AcDbProxyObject
 90
      499
 91
      503
 93
      105
310
903383A310000000000000810100
  0
ACAD_PROXY_OBJECT
  5
57
102
{ACAD_REACTORS
330
47
102
}
330
47
100
AcDbProxyObject
 90
      499
 91
      503
 93
      113
310
90431303A310000000000000910100
  0
ACAD_PROXY_OBJECT
  5
58
102
{ACAD_REACTORS
330
47
102
}
330
47
100
AcDbProxyObject
 90
      499
 91
      503
 93
      121
310
9053130303A310000000000001650100
  0
ACAD_PROXY_OBJECT
  5
59
102
{ACAD_REACTORS
330
47
102
}
330
47
100
AcDbProxyObject
 90
      499
 91
      503
 93
      257
310
90E312F31323822203D2031272D3022000000000000200FC000000000000284000
  0
ACAD_PROXY_OBJECT
  5
5A
102
{ACAD_REACTORS
330
47
102
}
330
47
100
AcDbProxyObject
 90
      499
 91
      503
 93
      249
310
90D312F363422203D2031272D3022000000000000240FC000000000000284000
  0
ACAD_PROXY_OBJECT
  5
5B
102
{ACAD_REACTORS
330
47
102
}
330
47
100
AcDbProxyObject
 90
      499
 91
      503
 93
      249
310
90D312F333222203D2031272D3022000000000000280FC000000000000284000
  0
ACAD_PROXY_OBJECT
  5
5C
102
{ACAD_REACTORS
330
47
102
}
330
47
100
AcDbProxyObject
 90
      499
 91
      503
 93
      249
310
90D312F313622203D2031272D30220000000000002C0FC000000000000284000
  0
ACAD_PROXY_OBJECT
  5
5D
102
{ACAD_REACTORS
330
47
102
}
330
47
100
AcDbProxyObject
 90
      499
 91
      503
 93
      249
310
90D332F333222203D2031272D30220000000000002E0FC000000000000284000
  0
ACAD_PROXY_OBJECT
  5
5E
102
{ACAD_REACTORS
330
47
102
}
330
47
100
AcDbProxyObject
 90
      499
 91
      503
 93
      241
310
90C312F3822203D2031272D3022000000000000300FC000000000000284000
  0
ACAD_PROXY_OBJECT
  5
5F
102
{ACAD_REACTORS
330
47
102
}
330
47
100
AcDbProxyObject
 90
      499
 91
      503
 93
      249
310
90D332F313622203D2031272D3022000000000000320FC000000000000284000
  0
ACAD_PROXY_OBJECT
  5
60
102
{ACAD_REACTORS
330
47
102
}
330
47
100
AcDbProxyObject
 90
      499
 91
      503
 93
      241
310
90C312F3422203D2031272D3022000000000000340FC000000000000284000
  0
ACAD_PROXY_OBJECT
  5
61
102
{ACAD_REACTORS
330
47
102
}
330
47
100
AcDbProxyObject
 90
      499
 91
      503
 93
      241
310
90C332F3822203D2031272D3022000000000000360FC000000000000284000
  0
ACAD_PROXY_OBJECT
  5
62
102
{ACAD_REACTORS
330
47
102
}
330
47
100
AcDbProxyObject
 90
      499
 91
      503
 93
      241
310
90C312F3222203D2031272D3022000000000000380FC000000000000284000
  0
ACAD_PROXY_OBJECT
  5
63
102
{ACAD_REACTORS
330
47
102
}
330
47
100
AcDbProxyObject
 90
      499
 91
      503
 93
      241
310
90C332F3422203D2031272D30220000000000003A0FC000000000000284000
  0
ACAD_PROXY_OBJECT
  5
64
102
{ACAD_REACTORS
330
47
102
}
330
47
100
AcDbProxyObject
 90
      499
 91
      503
 93
      161
310
90A3122203D2031272D30224000000000000284000
  0
ACAD_PROXY_OBJECT
  5
65
102
{ACAD_REACTORS
330
47
102
}
330
47
100
AcDbProxyObject
 90
      499
 91
      503
 93
      257
310
90E312D312F3222203D2031272D30220000000000003E0FC000000000000284000
  0
ACAD_PROXY_OBJECT
  5
66
102
{ACAD_REACTORS
330
47
102
}
330
47
100
AcDbProxyObject
 90
      499
 91
      503
 93
      225
310
90A3322203D2031272D302200000000000002100000000000000284000
  0
ACAD_PROXY_OBJECT
  5
67
102
{ACAD_REACTORS
330
47
102
}
330
47
100
AcDbProxyObject
 90
      499
 91
      503
 93
      225
310
90A3622203D2031272D302200000000000006100000000000000284000
  0
ACAD_PROXY_OBJECT
  5
68
102
{ACAD_REACTORS
330
47
102
}
330
47
100
AcDbProxyObject
 90
      499
 91
      503
 93
      249
310
90D31272D3022203D2031272D30220000000000000A100000000000000284000
  0
ACAD_PROXY_OBJECT
  5
2F
102
{ACAD_REACTORS
330
2A
102
}
330
2A
100
AcDbProxyObject
 90
      499
 91
      501
 93
      436
310
42CC9915DA5C99599C985B595049028333333333333E33F0000000000000F90107901411070040501600405405064090741402480A0340
1001
ACAD
1000
AcDbSavedByObjectVersion
1070
     0
  0
ACAD_PROXY_OBJECT
  5
32
102
{ACAD_REACTORS
330
2A
102
}
330
2A
100
AcDbProxyObject
 90
      499
 91
      501
 93
      388
310
4150985CDA58D07406404333333333333E33F0000000000000F90107A41107004050150841D405064090741402480A0350
1001
ACAD
1000
AcDbSavedByObjectVersion
1070
     0
  0
ACAD_PROXY_OBJECT
  5
36
102
{ACAD_REACTORS
330
2A
102
}
330
2A
100
AcDbProxyObject
 90
      499
 91
      501
 93
      428
310
42109C9A59DA1D195B90C409028333333333333E33F0000000000000F9010790141107004050150841D405064090741402480A029950
1001
ACAD
1000
AcDbSavedByObjectVersion
1070
     0
  0
ACAD_PROXY_OBJECT
  5
3A
102
{ACAD_REACTORS
330
2A
102
}
330
2A
100
AcDbProxyObject
 90
      499
 91
      501
 93
      452
310
42D0DBDB1BDC90DA185B99D95104090240C333333333333E33F0000000000000F90108901411070040501508421405064090741402480A0350
1001
ACAD
1000
AcDbSavedByObjectVersion
1070
     0
  0
ACAD_PROXY_OBJECT
  5
34
102
{ACAD_REACTORS
330
2A
102
}
330
2A
100
AcDbProxyObject
 90
      499
 91
      501
 93
      500
310
4290DBDB98D95C1D1D585B10940D028333333333333E33F0000000000000F90107902409070040501000000000018199010841D405064090740C02480A0340
1001
ACAD
1000
AcDbSavedByObjectVersion
1070
     0
  0
ACAD_PROXY_OBJECT
  5
35
102
{ACAD_REACTORS
330
2A
102
}
330
2A
100
AcDbProxyObject
 90
      499
 91
      501
 93
      412
310
40D11A5B50B409028333333333333E33F0000000000000F9010790141107004050150841D405064090741402480A02677FFFFFD0
1001
ACAD
1000
AcDbSavedByObjectVersion
1070
     0
  0
ACAD_PROXY_OBJECT
  5
3D
102
{ACAD_REACTORS
330
2A
102
}
330
2A
100
AcDbProxyObject
 90
      499
 91
      501
 93
      452
310
43115919D950DBDB1BDC93D999916409028333333333333E33F0000000000000F9010790141107004050150841D405064090741402480A0350
1001
ACAD
1000
AcDbSavedByObjectVersion
1070
     0
  0
ACAD_PROXY_OBJECT
  5
39
102
{ACAD_REACTORS
330
2A
102
}
330
2A
100
AcDbProxyObject
 90
      499
 91
      501
 93
      444
310
42D19858D95C185D1D195C9B90F409028333333333333E33F0000000000000F9010790141107004050150841D405064090741402480A0350
1001
ACAD
1000
AcDbSavedByObjectVersion
1070
     0
  0
ACAD_PROXY_OBJECT
  5
2B
102
{ACAD_REACTORS
330
2A
102
}
330
2A
100
AcDbProxyObject
 90
      499
 91
      501
 93
      380
310
41119B185D240901404333333333333E33F0000000000000F9010740A907004050150841D405064090741402480A1B50
1001
ACAD
1000
AcDbSavedByObjectVersion
1070
     0
  0
ACAD_PROXY_OBJECT
  5
2C
102
{ACAD_REACTORS
330
2A
102
}
330
2A
100
AcDbProxyObject
 90
      499
 91
      501
 93
      468
310
43519B185D15DA5D1A115919D95CD0140901404333333333333E33F0000000000000F90107409019070040501600405405064090741402480A1B50
1001
ACAD
1000
AcDbSavedByObjectVersion
1070
     0
  0
ACAD_PROXY_OBJECT
  5
2D
102
{ACAD_REACTORS
330
2A
102
}
330
2A
100
AcDbProxyObject
 90
      499
 91
      501
 93
      404
310
41D1DBDD5C985D5910240902404333333333333E33F0000000000000F9010740A9070040501641D405064090741402480A1B50
1001
ACAD
1000
AcDbSavedByObjectVersion
1070
     0
  0
ACAD_PROXY_OBJECT
  5
2E
102
{ACAD_REACTORS
330
2A
102
}
330
2A
100
AcDbProxyObject
 90
      499
 91
      501
 93
      492
310
4411DBDD5C985D5915DA5D1A115919D95CD0340902404333333333333E33F0000000000000F90107409019070040501600405405064090741402480A1B50
1001
ACAD
1000
AcDbSavedByObjectVersion
1070
     0
  0
ACAD_PROXY_OBJECT
  5
31
102
{ACAD_REACTORS
330
2A
102
}
330
2A
100
AcDbProxyObject
 90
      499
 91
      501
 93
      476
310
41921A5919195B90640502408333333333333E33F0000000000000F901079024090700405020000000000001110200405405064090740C02480A0340
1001
ACAD
1000
AcDbSavedByObjectVersion
1070
     0
  0
ACAD_PROXY_OBJECT
  5
3B
102
{ACAD_REACTORS
330
2A
102
}
330
2A
100
AcDbProxyObject
 90
      499
 91
      501
 93
      428
310
42529A5D1D195C93D999914409028333333333333E33F0000000000000F9010790141107004050150A41D405064090741402480A0350
1001
ACAD
1000
AcDbSavedByObjectVersion
1070
     0
  0
ACAD_PROXY_OBJECT
  5
38
102
{ACAD_REACTORS
330
2A
102
}
330
2A
100
AcDbProxyObject
 90
      499
 91
      501
 93
      444
310
42D31A5B995C185D1D195C9B90E409028333333333333E33F0000000000000F9010790141107004050750841D405064090741402483A0350
1001
ACAD
1000
AcDbSavedByObjectVersion
1070
     0
  0
ACAD_PROXY_OBJECT
  5
3C
102
{ACAD_REACTORS
330
2A
102
}
330
2A
100
AcDbProxyObject
 90
      499
 91
      501
 93
      444
310
42D3DD995C9A185B99D3D999915409028333333333333E33F0000000000000F9010790141107004050150941D405064090741402480A0350
1001
ACAD
1000
AcDbSavedByObjectVersion
1070
     0
  0
ACAD_PROXY_OBJECT
  5
33
102
{ACAD_REACTORS
330
2A
102
}
330
2A
100
AcDbProxyObject
 90
      499
 91
      501
 93
      428
310
425499585B1A5CDD1A58D08409038333333333333E33F0000000000000F9010740A907004050150800405405064090740C02480A1B40
1001
ACAD
1000
AcDbSavedByObjectVersion
1070
     0
  0
ACAD_PROXY_OBJECT
  5
42
102
{ACAD_REACTORS
330
2A
102
}
330
2A
100
AcDbProxyObject
 90
      499
 91
      501
 93
      420
310
4194DA1859195911B40902404333333333333E33F0000000000000F9010740A41107004050150800405405064090840C02480A0B40
1001
ACAD
1000
AcDbSavedByObjectVersion
1070
     0
  0
ACAD_PROXY_OBJECT
  5
41
102
{ACAD_REACTORS
330
2A
102
}
330
2A
100
AcDbProxyObject
 90
      499
 91
      501
 93
      516
310
4454DA18591959081DDA5D1A08195919D95CD1A40902404333333333333E33F0000000000000F901074090142907004050250800405405064090740C02480A0B40
1001
ACAD
1000
AcDbSavedByObjectVersion
1070
     0
  0
ACAD_PROXY_OBJECT
  5
3E
102
{ACAD_REACTORS
330
2A
102
}
330
2A
100
AcDbProxyObject
 90
      499
 91
      501
 93
      532
310
4394DA1859195CC81BD98811DC985E5174090240C333333333333E33F0000000000000F901079024090741D01000000000000111010841D405064090740C02480A0340
1001
ACAD
1000
AcDbSavedByObjectVersion
1070
     0
  0
ACAD_PROXY_OBJECT
  5
3F
102
{ACAD_REACTORS
330
2A
102
}
330
2A
100
AcDbProxyObject
 90
      499
 91
      501
 93
      476
310
41D4DAD95D18DA1E51840502408333333333333E33F0000000000000F901079024090741D01000000000000111010B41D405064090741802480A0340
1001
ACAD
1000
AcDbSavedByObjectVersion
1070
     0
  0
ACAD_PROXY_OBJECT
  5
37
102
{ACAD_REACTORS
330
2A
102
}
330
2A
100
AcDbProxyObject
 90
      499
 91
      501
 93
      412
310
41D51A1A58DAD95B90D409028333333333333E33F0000000000000F9010790141107004050150C41D405064090741402480A0350
1001
ACAD
1000
AcDbSavedByObjectVersion
1070
     0
  0
ACAD_PROXY_OBJECT
  5
30
102
{ACAD_REACTORS
330
2A
102
}
330
2A
100
AcDbProxyObject
 90
      499
 91
      501
 93
      420
310
4255DA5C99599C985B595059028333333333333E33F0000000000000F90107901411070040501600405405064090740C02480A0340
1001
ACAD
1000
AcDbSavedByObjectVersion
1070
     0
  0
ACAD_PROXY_OBJECT
  5
40
102
{ACAD_REACTORS
330
2A
102
}
330
2A
100
AcDbProxyObject
 90
      499
 91
      501
 93
      404
310
41560B54985E51940902404000000000000E03F0000000000000F9010740501907004050150841D405064090740C02480A1B40
1001
ACAD
1000
AcDbSavedByObjectVersion
1070
     0
  0
XRECORD
  5
414
102
{ACAD_REACTORS
330
40A
102
}
330
40A
100
AcDbXrecord
340
0
  0
XRECORD
  5
413
102
{ACAD_REACTORS
330
40A
102
}
330
40A
100
AcDbXrecord
 90
        0
  0
XRECORD
  5
42A
102
{ACAD_REACTORS
330
40A
102
}
330
40A
100
AcDbXrecord
1000
DSTYLE
1002
{
1070
   340
340
11
1002
}
  0
XRECORD
  5
415
102
{ACAD_REACTORS
330
40A
102
}
330
40A
100
AcDbXrecord
  1
{7e5b790e-c20b-4f3c-b869-06cdf75d1cac}
  0
XRECORD
  5
40D
102
{ACAD_REACTORS
330
40A
102
}
330
40A
100
AcDbXrecord
  1

  0
XRECORD
  5
412
102
{ACAD_REACTORS
330
40A
102
}
330
40A
100
AcDbXrecord
 90
        4
  0
XRECORD
  5
40F
102
{ACAD_REACTORS
330
40A
102
}
330
40A
100
AcDbXrecord
340
1A
  0
XRECORD
  5
411
102
{ACAD_REACTORS
330
40A
102
}
330
40A
100
AcDbXrecord
 90
    10781
  0
XRECORD
  5
410
102
{ACAD_REACTORS
330
40A
102
}
330
40A
100
AcDbXrecord
340
19
  0
XRECORD
  5
417
102
{ACAD_REACTORS
330
40A
102
}
330
40A
100
AcDbXrecord
 40
0.0
  0
XRECORD
  5
41A
102
{ACAD_REACTORS
330
40A
102
}
330
40A
100
AcDbXrecord
340
0
  0
XRECORD
  5
420
102
{ACAD_REACTORS
330
40A
102
}
330
40A
100
AcDbXrecord
 10
0.0
 20
0.0
 30
0.0
  0
XRECORD
  5
41C
102
{ACAD_REACTORS
330
40A
102
}
330
40A
100
AcDbXrecord
 10
0.0
 20
0.0
 30
0.0
  0
XRECORD
  5
41F
102
{ACAD_REACTORS
330
40A
102
}
330
40A
100
AcDbXrecord
 10
0.0
 20
0.0
 30
0.0
  0
XRECORD
  5
41D
102
{ACAD_REACTORS
330
40A
102
}
330
40A
100
AcDbXrecord
 10
0.0
 20
0.0
 30
0.0
  0
XRECORD
  5
41E
102
{ACAD_REACTORS
330
40A
102
}
330
40A
100
AcDbXrecord
 10
0.0
 20
0.0
 30
0.0
  0
XRECORD
  5
41B
102
{ACAD_REACTORS
330
40A
102
}
330
40A
100
AcDbXrecord
 10
0.0
 20
0.0
 30
0.0
  0
XRECORD
  5
418
102
{ACAD_REACTORS
330
40A
102
}
330
40A
100
AcDbXrecord
340
0
  0
XRECORD
  5
419
102
{ACAD_REACTORS
330
40A
102
}
330
40A
100
AcDbXrecord
 70
     0
  0
XRECORD
  5
40E
102
{ACAD_REACTORS
330
40A
102
}
330
40A
100
AcDbXrecord
  1

  0
XRECORD
  5
40B
102
{ACAD_REACTORS
330
40A
102
}
330
40A
100
AcDbXrecord
 90
        1
  0
XRECORD
  5
40C
102
{ACAD_REACTORS
330
40A
102
}
330
40A
100
AcDbXrecord
 90
       70
  0
XRECORD
  5
423
102
{ACAD_REACTORS
330
40A
102
}
330
40A
100
AcDbXrecord
340
0
  0
XRECORD
  5
429
102
{ACAD_REACTORS
330
40A
102
}
330
40A
100
AcDbXrecord
 10
0.0
 20
0.0
 30
0.0
  0
XRECORD
  5
425
102
{ACAD_REACTORS
330
40A
102
}
330
40A
100
AcDbXrecord
 10
0.0
 20
0.0
 30
0.0
  0
XRECORD
  5
428
102
{ACAD_REACTORS
330
40A
102
}
330
40A
100
AcDbXrecord
 10
0.0
 20
0.0
 30
0.0
  0
XRECORD
  5
426
102
{ACAD_REACTORS
330
40A
102
}
330
40A
100
AcDbXrecord
 10
0.0
 20
0.0
 30
0.0
  0
XRECORD
  5
427
102
{ACAD_REACTORS
330
40A
102
}
330
40A
100
AcDbXrecord
 10
0.0
 20
0.0
 30
0.0
  0
XRECORD
  5
424
102
{ACAD_REACTORS
330
40A
102
}
330
40A
100
AcDbXrecord
 10
0.0
 20
0.0
 30
0.0
  0
XRECORD
  5
421
102
{ACAD_REACTORS
330
40A
102
}
330
40A
100
AcDbXrecord
340
0
  0
XRECORD
  5
422
102
{ACAD_REACTORS
330
40A
102
}
330
40A
100
AcDbXrecord
 70
     0
  0
XRECORD
  5
416
102
{ACAD_REACTORS
330
40A
102
}
330
40A
100
AcDbXrecord
  1
{FAEB1C32-E019-11D5-929B-00C0DF256EC4}
  0
DICTIONARYVAR
  5
438
102
{ACAD_REACTORS
330
42B
102
}
330
42B
100
DictionaryVariables
280
     0
  1
1:1
  0
DICTIONARYVAR
  5
432
102
{ACAD_REACTORS
330
42B
102
}
330
42B
100
DictionaryVariables
280
     0
  1
3.500000
  0
DICTIONARYVAR
  5
433
102
{ACAD_REACTORS
330
42B
102
}
330
42B
100
DictionaryVariables
280
     0
  1
acadiso.lin
  0
DICTIONARYVAR
  5
42D
102
{ACAD_REACTORS
330
42B
102
}
330
42B
100
DictionaryVariables
280
     0
  1
Standard
  0
DICTIONARYVAR
  5
42C
102
{ACAD_REACTORS
330
42B
102
}
330
42B
100
DictionaryVariables
280
     0
  1
Standard
  0
DICTIONARYVAR
  5
434
102
{ACAD_REACTORS
330
42B
102
}
330
42B
100
DictionaryVariables
280
     0
  1
2
  0
DICTIONARYVAR
  5
435
102
{ACAD_REACTORS
330
42B
102
}
330
42B
100
DictionaryVariables
280
     0
  1
1
  0
DICTIONARYVAR
  5
439
102
{ACAD_REACTORS
330
42B
102
}
330
42B
100
DictionaryVariables
280
     0
  1
1
  0
DICTIONARYVAR
  5
42F
102
{ACAD_REACTORS
330
42B
102
}
330
42B
100
DictionaryVariables
280
     0
  1
80.000000
  0
DICTIONARYVAR
  5
42E
102
{ACAD_REACTORS
330
42B
102
}
330
42B
100
DictionaryVariables
280
     0
  1
5.000000
  0
DICTIONARY
  5
43C
330
45
100
AcDbDictionary
280
     1
  3
ACAD_XREC_ROUNDTRIP
360
43D
  0
DICTIONARY
  5
43A
330
44
100
AcDbDictionary
280
     1
  3
ACAD_XREC_ROUNDTRIP
360
43B
  0
DICTIONARY
  5
43E
330
46
100
AcDbDictionary
280
     1
  3
ACAD_XREC_ROUNDTRIP
360
43F
  0
XRECORD
  5
43D
102
{ACAD_REACTORS
330
43C
102
}
330
43C
100
AcDbXrecord
102
MATERIAL
148
0.0
149
0.0
149
0.0
 93
        0
 94
      127
282
     0
 72
     1
 77
     1
171
     1
175
     1
179
     1
273
     0
  0
XRECORD
  5
43B
102
{ACAD_REACTORS
330
43A
102
}
330
43A
100
AcDbXrecord
102
MATERIAL
148
0.0
149
0.0
149
0.0
 93
        0
 94
      127
282
     0
 72
     1
 77
     1
171
     1
175
     1
179
     1
273
     0
  0
XRECORD
  5
43F
102
{ACAD_REACTORS
330
43E
102
}
330
43E
100
AcDbXrecord
102
MATERIAL
148
0.0
149
0.0
149
0.0
 93
        0
 94
      127
282
     0
 72
     1
 77
     1
171
     1
175
     1
179
     1
273
     0
  0
ENDSEC
  0
EOF
