  0
SECTION
  2
HEADER
  9
$ACADVER
  1
AC1014
  9
$ACADMAINTVER
 70
     9
  9
$DWGCODEPAGE
  3
ANSI_932
  9
$INSBASE
 10
0.0
 20
0.0
 30
0.0
  9
$EXTMIN
 10
15.0
 20
30.0
 30
0.0
  9
$EXTMAX
 10
1155.0
 20
840.0
 30
0.0
  9
$LIMMIN
 10
0.0
 20
0.0
  9
$LIMMAX
 10
420.0
 20
297.0
  9
$ORTHOMODE
 70
     0
  9
$REGENMODE
 70
     1
  9
$FILLMODE
 70
     1
  9
$QTEXTMODE
 70
     0
  9
$MIRRTEXT
 70
     1
  9
$DRAGMODE
 70
     2
  9
$LTSCALE
 40
0.2
  9
$OSMODE
 70
    37
  9
$ATTMODE
 70
     1
  9
$TEXTSIZE
 40
2.5
  9
$TRACEWID
 40
1.0
  9
$TEXTSTYLE
  7
STANDARD
  9
$CLAYER
  8
LAY-10
  9
$CELTYPE
  6
BYLAYER
  9
$CECOLOR
 62
   256
  9
$CELTSCALE
 40
1.0
  9
$DELOBJ
 70
     1
  9
$DISPSILH
 70
     0
  9
$DIMSCALE
 40
1.0
  9
$DIMASZ
 40
2.5
  9
$DIMEXO
 40
0.625
  9
$DIMDLI
 40
3.75
  9
$DIMRND
 40
0.0
  9
$DIMDLE
 40
0.0
  9
$DIMEXE
 40
1.25
  9
$DIMTP
 40
0.0
  9
$DIMTM
 40
0.0
  9
$DIMTXT
 40
2.5
  9
$DIMCEN
 40
2.5
  9
$DIMTSZ
 40
0.0
  9
$DIMTOL
 70
     0
  9
$DIMLIM
 70
     0
  9
$DIMTIH
 70
     0
  9
$DIMTOH
 70
     0
  9
$DIMSE1
 70
     0
  9
$DIMSE2
 70
     0
  9
$DIMTAD
 70
     1
  9
$DIMZIN
 70
     8
  9
$DIMBLK
  1

  9
$DIMASO
 70
     1
  9
$DIMSHO
 70
     1
  9
$DIMPOST
  1

  9
$DIMAPOST
  1

  9
$DIMALT
 70
     0
  9
$DIMALTD
 70
     3
  9
$DIMALTF
 40
0.03937007874016
  9
$DIMLFAC
 40
1.0
  9
$DIMTOFL
 70
     1
  9
$DIMTVP
 40
0.0
  9
$DIMTIX
 70
     0
  9
$DIMSOXD
 70
     0
  9
$DIMSAH
 70
     0
  9
$DIMBLK1
  1

  9
$DIMBLK2
  1

  9
$DIMSTYLE
  2
ISO-25
  9
$DIMCLRD
 70
     0
  9
$DIMCLRE
 70
     0
  9
$DIMCLRT
 70
     0
  9
$DIMTFAC
 40
1.0
  9
$DIMGAP
 40
0.625
  9
$DIMJUST
 70
     0
  9
$DIMSD1
 70
     0
  9
$DIMSD2
 70
     0
  9
$DIMTOLJ
 70
     0
  9
$DIMTZIN
 70
     8
  9
$DIMALTZ
 70
     0
  9
$DIMALTTZ
 70
     0
  9
$DIMFIT
 70
     3
  9
$DIMUPT
 70
     0
  9
$DIMUNIT
 70
     2
  9
$DIMDEC
 70
     2
  9
$DIMTDEC
 70
     2
  9
$DIMALTU
 70
     2
  9
$DIMALTTD
 70
     3
  9
$DIMTXSTY
  7
STANDARD
  9
$DIMAUNIT
 70
     0
  9
$LUNITS
 70
     2
  9
$LUPREC
 70
     4
  9
$SKETCHINC
 40
1.0
  9
$FILLETRAD
 40
10.0
  9
$AUNITS
 70
     0
  9
$AUPREC
 70
     0
  9
$MENU
  1
.
  9
$ELEVATION
 40
0.0
  9
$PELEVATION
 40
0.0
  9
$THICKNESS
 40
0.0
  9
$LIMCHECK
 70
     0
  9
$CHAMFERA
 40
0.0
  9
$CHAMFERB
 40
0.0
  9
$CHAMFERC
 40
0.0
  9
$CHAMFERD
 40
0.0
  9
$SKPOLY
 70
     0
  9
$TDCREATE
 40
2459229.337411319
  9
$TDUPDATE
 40
2459229.337411933
  9
$TDINDWG
 40
0.0000000116
  9
$TDUSRTIMER
 40
0.0000000116
  9
$USRTIMER
 70
     1
  9
$ANGBASE
 50
0.0
  9
$ANGDIR
 70
     0
  9
$PDMODE
 70
     0
  9
$PDSIZE
 40
0.0
  9
$PLINEWID
 40
0.0
  9
$COORDS
 70
     1
  9
$SPLFRAME
 70
     0
  9
$SPLINETYPE
 70
     6
  9
$SPLINESEGS
 70
     8
  9
$ATTDIA
 70
     0
  9
$ATTREQ
 70
     1
  9
$HANDLING
 70
     1
  9
$HANDSEED
  5
572
  9
$SURFTAB1
 70
     6
  9
$SURFTAB2
 70
     6
  9
$SURFTYPE
 70
     6
  9
$SURFU
 70
     6
  9
$SURFV
 70
     6
  9
$UCSNAME
  2

  9
$UCSORG
 10
0.0
 20
0.0
 30
0.0
  9
$UCSXDIR
 10
1.0
 20
0.0
 30
0.0
  9
$UCSYDIR
 10
0.0
 20
1.0
 30
0.0
  9
$PUCSNAME
  2

  9
$PUCSORG
 10
0.0
 20
0.0
 30
0.0
  9
$PUCSXDIR
 10
1.0
 20
0.0
 30
0.0
  9
$PUCSYDIR
 10
0.0
 20
1.0
 30
0.0
  9
$USERI1
 70
     0
  9
$USERI2
 70
     0
  9
$USERI3
 70
     0
  9
$USERI4
 70
     0
  9
$USERI5
 70
     0
  9
$USERR1
 40
0.0
  9
$USERR2
 40
0.0
  9
$USERR3
 40
0.0
  9
$USERR4
 40
0.0
  9
$USERR5
 40
0.0
  9
$WORLDVIEW
 70
     1
  9
$SHADEDGE
 70
     3
  9
$SHADEDIF
 70
    70
  9
$TILEMODE
 70
     1
  9
$MAXACTVP
 70
    64
  9
$PINSBASE
 10
0.0
 20
0.0
 30
0.0
  9
$PLIMCHECK
 70
     0
  9
$PEXTMIN
 10
1.000000000000000E+20
 20
1.000000000000000E+20
 30
1.000000000000000E+20
  9
$PEXTMAX
 10
-1.000000000000000E+20
 20
-1.000000000000000E+20
 30
-1.000000000000000E+20
  9
$PLIMMIN
 10
0.0
 20
0.0
  9
$PLIMMAX
 10
420.0
 20
297.0
  9
$UNITMODE
 70
     0
  9
$VISRETAIN
 70
     1
  9
$PLINEGEN
 70
     0
  9
$PSLTSCALE
 70
     1
  9
$TREEDEPTH
 70
  3020
  9
$PICKSTYLE
 70
     1
  9
$CMLSTYLE
  2
STANDARD
  9
$CMLJUST
 70
     0
  9
$CMLSCALE
 40
20.0
  9
$PROXYGRAPHICS
 70
     1
  9
$MEASUREMENT
 70
     1
  0
ENDSEC
  0
SECTION
  2
CLASSES
  0
CLASS
  1
ACDBDICTIONARYWDFLT
  2
AcDbDictionaryWithDefault
  3
ObjectDBX Classes
 90
        0
280
     0
281
     0
  0
CLASS
  1
VISUALSTYLE
  2
AcDbVisualStyle
  3
ObjectDBX Classes
 90
     4095
280
     0
281
     0
  0
CLASS
  1
MATERIAL
  2
AcDbMaterial
  3
ObjectDBX Classes
 90
     1153
280
     0
281
     0
  0
CLASS
  1
SCALE
  2
AcDbScale
  3
ObjectDBX Classes
 90
     1153
280
     0
281
     0
  0
CLASS
  1
TABLESTYLE
  2
AcDbTableStyle
  3
ObjectDBX Classes
 90
     4095
280
     0
281
     0
  0
CLASS
  1
MLEADERSTYLE
  2
AcDbMLeaderStyle
  3
ACDB_MLEADERSTYLE_CLASS
 90
     4095
280
     0
281
     0
  0
CLASS
  1
SUN
  2
AcDbSun
  3
SCENEOE
 90
     1153
280
     0
281
     0
  0
CLASS
  1
DICTIONARYVAR
  2
AcDbDictionaryVar
  3
ObjectDBX Classes
 90
        0
280
     0
281
     0
  0
CLASS
  1
XRECORD
  2
AcDbXrecord
  3
ObjectDBX Classes
 90
        0
280
     0
281
     0
  0
CLASS
  1
LWPOLYLINE
  2
AcDbPolyline
  3
ObjectDBX Classes
 90
        0
280
     0
281
     1
  0
CLASS
  1
HATCH
  2
AcDbHatch
  3
ObjectDBX Classes
 90
        0
280
     0
281
     1
  0
CLASS
  1
ACDBPLACEHOLDER
  2
AcDbPlaceHolder
  3
ObjectDBX Classes
 90
        0
280
     0
281
     0
  0
CLASS
  1
LAYOUT
  2
AcDbLayout
  3
ObjectDBX Classes
 90
        0
280
     0
281
     0
  0
ENDSEC
  0
SECTION
  2
TABLES
  0
TABLE
  2
VPORT
  5
8
102
{ACAD_XDICTIONARY
360
567
102
}
330
0
100
AcDbSymbolTable
 70
     1
  0
VPORT
  5
29
330
8
100
AcDbSymbolTableRecord
100
AcDbViewportTableRecord
  2
*ACTIVE
 70
     0
 10
0.0
 20
0.0
 11
1.0
 21
1.0
 12
585.0000000000001
 22
435.0
 13
0.0
 23
0.0
 14
10.0
 24
10.0
 15
10.0
 25
10.0
 16
0.0
 26
0.0
 36
1.0
 17
0.0
 27
0.0
 37
0.0
 40
810.0
 41
1.407407407407408
 42
50.0
 43
0.0
 44
0.0
 50
0.0
 51
0.0
 71
     0
 72
  1000
 73
     1
 74
     3
 75
     0
 76
     0
 77
     0
 78
     0
  0
ENDTAB
  0
TABLE
  2
LTYPE
  5
5
330
0
100
AcDbSymbolTable
 70
     6
  0
LTYPE
  5
14
330
5
100
AcDbSymbolTableRecord
100
AcDbLinetypeTableRecord
  2
BYBLOCK
 70
     0
  3

 72
    65
 73
     0
 40
0.0
  0
LTYPE
  5
15
330
5
100
AcDbSymbolTableRecord
100
AcDbLinetypeTableRecord
  2
BYLAYER
 70
     0
  3

 72
    65
 73
     0
 40
0.0
  0
LTYPE
  5
16
330
5
100
AcDbSymbolTableRecord
100
AcDbLinetypeTableRecord
  2
CONTINUOUS
 70
     0
  3
Solid line
 72
    65
 73
     0
 40
0.0
  0
LTYPE
  5
6E
330
5
100
AcDbSymbolTableRecord
100
AcDbLinetypeTableRecord
  2
HIDDEN
 70
     0
  3
Hidden __ __ __ __ __ __ __ __ __ __ __ __ __ __
 72
    65
 73
     2
 40
9.524999999999999
 49
6.35
 74
     0
 49
-3.175
 74
     0
  0
LTYPE
  5
6F
330
5
100
AcDbSymbolTableRecord
100
AcDbLinetypeTableRecord
  2
CENTER
 70
     0
  3
Center ____ _ ____ _ ____ _ ____ _ ____ _ ____
 72
    65
 73
     4
 40
50.8
 49
31.75
 74
     0
 49
-6.35
 74
     0
 49
6.35
 74
     0
 49
-6.35
 74
     0
  0
LTYPE
  5
70
330
5
100
AcDbSymbolTableRecord
100
AcDbLinetypeTableRecord
  2
PHANTOM
 70
     0
  3
Phantom ______  __  __  ______  __  __  ______ 
 72
    65
 73
     6
 40
63.50000000000001
 49
31.75
 74
     0
 49
-6.35
 74
     0
 49
6.35
 74
     0
 49
-6.35
 74
     0
 49
6.35
 74
     0
 49
-6.35
 74
     0
  0
LTYPE
  5
71
330
5
100
AcDbSymbolTableRecord
100
AcDbLinetypeTableRecord
  2
ACAD_ISO06W100
 70
     0
  3
ISO long-dash triple-dot ____ ... ____ ... ____
 72
    65
 73
     8
 40
36.0
 49
24.0
 74
     0
 49
-3.0
 74
     0
 49
0.0
 74
     0
 49
-3.0
 74
     0
 49
0.0
 74
     0
 49
-3.0
 74
     0
 49
0.0
 74
     0
 49
-3.0
 74
     0
  0
LTYPE
  5
72
330
5
100
AcDbSymbolTableRecord
100
AcDbLinetypeTableRecord
  2
ACAD_ISO15W100
 70
     0
  3
ISO double-dash triple-dot __ __ . . . __ __ . .
 72
    65
 73
    10
 40
39.0
 49
12.0
 74
     0
 49
-3.0
 74
     0
 49
12.0
 74
     0
 49
-3.0
 74
     0
 49
0.0
 74
     0
 49
-3.0
 74
     0
 49
0.0
 74
     0
 49
-3.0
 74
     0
 49
0.0
 74
     0
 49
-3.0
 74
     0
  0
ENDTAB
  0
TABLE
  2
LAYER
  5
2
330
0
100
AcDbSymbolTable
 70
     5
  0
LAYER
  5
10
330
2
100
AcDbSymbolTableRecord
100
AcDbLayerTableRecord
  2
0
 70
     0
 62
     7
  6
CONTINUOUS
  0
LAYER
  5
75
330
2
100
AcDbSymbolTableRecord
100
AcDbLayerTableRecord
  2
LAY-10
 70
     0
 62
     7
  6
CONTINUOUS
  0
LAYER
  5
76
330
2
100
AcDbSymbolTableRecord
100
AcDbLayerTableRecord
  2
LAY-20
 70
     0
 62
     7
  6
CONTINUOUS
  0
LAYER
  5
77
330
2
100
AcDbSymbolTableRecord
100
AcDbLayerTableRecord
  2
LAY-255
 70
     0
 62
     7
  6
CONTINUOUS
  0
LAYER
  5
210
330
2
100
AcDbSymbolTableRecord
100
AcDbLayerTableRecord
  2
DEFPOINTS
 70
     0
 62
     7
  6
CONTINUOUS
  0
ENDTAB
  0
TABLE
  2
STYLE
  5
3
330
0
100
AcDbSymbolTable
 70
     4
  0
STYLE
  5
11
330
3
100
AcDbSymbolTableRecord
100
AcDbTextStyleTableRecord
  2
STANDARD
 70
     0
 40
0.0
 41
1.0
 50
0.0
 71
     0
 42
2.5
  3
simplex
  4
bigfont
  0
STYLE
  5
73
330
3
100
AcDbSymbolTableRecord
100
AcDbTextStyleTableRecord
  2
EXCADSTD
 70
     0
 40
0.0
 41
1.0
 50
0.0
 71
     0
 42
2.5
  3
simplex
  4
bigfont
  0
STYLE
  5
74
330
3
100
AcDbSymbolTableRecord
100
AcDbTextStyleTableRecord
  2
EXCADVERT
 70
     4
 40
0.0
 41
1.0
 50
0.0
 71
     0
 42
2.5
  3
simplex
  4
bigfont
  0
STYLE
  5
20E
330
3
100
AcDbSymbolTableRecord
100
AcDbTextStyleTableRecord
  2
EXCADDIM1
 70
     0
 40
0.0
 41
0.84
 50
0.0
 71
     0
 42
2.5
  3
simplex
  4
bigfont
  0
ENDTAB
  0
TABLE
  2
VIEW
  5
6
330
0
100
AcDbSymbolTable
 70
     0
  0
ENDTAB
  0
TABLE
  2
UCS
  5
7
330
0
100
AcDbSymbolTable
 70
     0
  0
ENDTAB
  0
TABLE
  2
APPID
  5
9
330
0
100
AcDbSymbolTable
 70
     2
  0
APPID
  5
12
330
9
100
AcDbSymbolTableRecord
100
AcDbRegAppTableRecord
  2
ACAD
 70
     0
  0
APPID
  5
571
330
9
100
AcDbSymbolTableRecord
100
AcDbRegAppTableRecord
  2
ACAD_MLEADERVER
 70
     0
  0
ENDTAB
  0
TABLE
  2
DIMSTYLE
  5
A
330
0
100
AcDbSymbolTable
 70
     1
  0
DIMSTYLE
105
27
102
{ACAD_REACTORS
330
20F
330
493
330
4A0
330
4AD
330
4BA
330
4C7
330
4D4
330
4E0
330
4EC
330
4F9
330
506
102
}
330
A
100
AcDbSymbolTableRecord
100
AcDbDimStyleTableRecord
  2
ISO-25
 70
     0
  3

  4

  5

  6

  7

 40
1.0
 41
2.5
 42
0.625
 43
3.75
 44
1.25
 45
0.0
 46
0.0
 47
0.0
 48
0.0
140
2.5
141
2.5
142
0.0
143
0.03937007874016
144
1.0
145
0.0
146
1.0
147
0.625
 71
     0
 72
     0
 73
     0
 74
     0
 75
     0
 76
     0
 77
     1
 78
     8
170
     0
171
     3
172
     1
173
     0
174
     0
175
     0
176
     0
177
     0
178
     0
270
     2
271
     2
272
     2
273
     2
274
     3
340
11
275
     0
280
     0
281
     0
282
     0
283
     0
284
     8
285
     0
286
     0
287
     5
288
     0
  0
ENDTAB
  0
TABLE
  2
BLOCK_RECORD
  5
1
330
0
100
AcDbSymbolTable
 70
    25
  0
BLOCK_RECORD
  5
1F
330
1
100
AcDbSymbolTableRecord
100
AcDbBlockTableRecord
  2
*MODEL_SPACE
  0
BLOCK_RECORD
  5
1B
330
1
100
AcDbSymbolTableRecord
100
AcDbBlockTableRecord
  2
*PAPER_SPACE
  0
BLOCK_RECORD
  5
78
330
1
100
AcDbSymbolTableRecord
100
AcDbBlockTableRecord
  2
EX_NORM
  0
BLOCK_RECORD
  5
7B
330
1
100
AcDbSymbolTableRecord
100
AcDbBlockTableRecord
  2
EX_BNORM
  0
BLOCK_RECORD
  5
7E
330
1
100
AcDbSymbolTableRecord
100
AcDbBlockTableRecord
  2
EX_BCIR
  0
BLOCK_RECORD
  5
81
330
1
100
AcDbSymbolTableRecord
100
AcDbBlockTableRecord
  2
EX_RCIVIL
  0
BLOCK_RECORD
  5
84
330
1
100
AcDbSymbolTableRecord
100
AcDbBlockTableRecord
  2
EX_SLANT
  0
BLOCK_RECORD
  5
87
330
1
100
AcDbSymbolTableRecord
100
AcDbBlockTableRecord
  2
EX_NONE
  0
BLOCK_RECORD
  5
8A
330
1
100
AcDbSymbolTableRecord
100
AcDbBlockTableRecord
  2
EX_CIVIL
  0
BLOCK_RECORD
  5
8D
330
1
100
AcDbSymbolTableRecord
100
AcDbBlockTableRecord
  2
EX_WCIR
  0
BLOCK_RECORD
  5
90
330
1
100
AcDbSymbolTableRecord
100
AcDbBlockTableRecord
  2
EX_WCIR2
  0
BLOCK_RECORD
  5
93
330
1
100
AcDbSymbolTableRecord
100
AcDbBlockTableRecord
  2
EX_WNORM
  0
BLOCK_RECORD
  5
96
330
1
100
AcDbSymbolTableRecord
100
AcDbBlockTableRecord
  2
EX_NNORM
  0
BLOCK_RECORD
  5
99
330
1
100
AcDbSymbolTableRecord
100
AcDbBlockTableRecord
  2
EX_BBOX
  0
BLOCK_RECORD
  5
9C
330
1
100
AcDbSymbolTableRecord
100
AcDbBlockTableRecord
  2
EX_WBOX
  0
BLOCK_RECORD
  5
9F
330
1
100
AcDbSymbolTableRecord
100
AcDbBlockTableRecord
  2
EX_INTEGRAL
  0
BLOCK_RECORD
  5
211
330
1
100
AcDbSymbolTableRecord
100
AcDbBlockTableRecord
  2
*D15
  0
BLOCK_RECORD
  5
494
330
1
100
AcDbSymbolTableRecord
100
AcDbBlockTableRecord
  2
*D16
  0
BLOCK_RECORD
  5
4A1
330
1
100
AcDbSymbolTableRecord
100
AcDbBlockTableRecord
  2
*D17
  0
BLOCK_RECORD
  5
4AE
330
1
100
AcDbSymbolTableRecord
100
AcDbBlockTableRecord
  2
*D18
  0
BLOCK_RECORD
  5
4BB
330
1
100
AcDbSymbolTableRecord
100
AcDbBlockTableRecord
  2
*D19
  0
BLOCK_RECORD
  5
4C8
330
1
100
AcDbSymbolTableRecord
100
AcDbBlockTableRecord
  2
*D20
  0
BLOCK_RECORD
  5
4D5
330
1
100
AcDbSymbolTableRecord
100
AcDbBlockTableRecord
  2
*D21
  0
BLOCK_RECORD
  5
4E1
330
1
100
AcDbSymbolTableRecord
100
AcDbBlockTableRecord
  2
*D22
  0
BLOCK_RECORD
  5
4ED
330
1
100
AcDbSymbolTableRecord
100
AcDbBlockTableRecord
  2
*D23
  0
BLOCK_RECORD
  5
4FA
330
1
100
AcDbSymbolTableRecord
100
AcDbBlockTableRecord
  2
*D24
  0
BLOCK_RECORD
  5
507
330
1
100
AcDbSymbolTableRecord
100
AcDbBlockTableRecord
  2
*D25
  0
ENDTAB
  0
ENDSEC
  0
SECTION
  2
BLOCKS
  0
BLOCK
  5
20
330
1F
100
AcDbEntity
  8
0
100
AcDbBlockBegin
  2
*MODEL_SPACE
 70
     0
 10
0.0
 20
0.0
 30
0.0
  3
*MODEL_SPACE
  1

  0
ENDBLK
  5
21
330
1F
100
AcDbEntity
  8
0
100
AcDbBlockEnd
  0
BLOCK
  5
1C
330
1B
100
AcDbEntity
 67
     1
  8
0
100
AcDbBlockBegin
  2
*PAPER_SPACE
 70
     0
 10
0.0
 20
0.0
 30
0.0
  3
*PAPER_SPACE
  1

  0
ENDBLK
  5
1D
330
1B
100
AcDbEntity
 67
     1
  8
0
100
AcDbBlockEnd
  0
BLOCK
  5
79
330
78
100
AcDbEntity
  8
0
100
AcDbBlockBegin
  2
EX_NORM
 70
     0
 10
0.0
 20
0.0
 30
0.0
  3
EX_NORM
  1

  0
LINE
  5
A2
330
78
100
AcDbEntity
  8
0
  6
CONTINUOUS
 62
     0
100
AcDbLine
 10
0.0
 20
0.0
 30
0.0
 11
-1.0
 21
0.0
 31
0.0
  0
LINE
  5
A3
330
78
100
AcDbEntity
  8
0
  6
CONTINUOUS
 62
     0
100
AcDbLine
 10
0.0
 20
0.0
 30
0.0
 11
-1.0
 21
0.166666667
 31
0.0
  0
LINE
  5
A4
330
78
100
AcDbEntity
  8
0
  6
CONTINUOUS
 62
     0
100
AcDbLine
 10
0.0
 20
0.0
 30
0.0
 11
-1.0
 21
-0.166666667
 31
0.0
  0
ENDBLK
  5
7A
330
78
100
AcDbEntity
  8
0
100
AcDbBlockEnd
  0
BLOCK
  5
7C
330
7B
100
AcDbEntity
  8
0
100
AcDbBlockBegin
  2
EX_BNORM
 70
     0
 10
0.0
 20
0.0
 30
0.0
  3
EX_BNORM
  1

  0
LINE
  5
A5
330
7B
100
AcDbEntity
  8
0
  6
CONTINUOUS
 62
     0
100
AcDbLine
 10
0.0
 20
0.0
 30
0.0
 11
-1.0
 21
0.0
 31
0.0
  0
LINE
  5
A6
330
7B
100
AcDbEntity
  8
0
  6
CONTINUOUS
 62
     0
100
AcDbLine
 10
0.0
 20
0.0
 30
0.0
 11
-1.0
 21
0.166666667
 31
0.0
  0
LINE
  5
A7
330
7B
100
AcDbEntity
  8
0
  6
CONTINUOUS
 62
     0
100
AcDbLine
 10
0.0
 20
0.0
 30
0.0
 11
-1.0
 21
-0.166666667
 31
0.0
  0
LINE
  5
A8
330
7B
100
AcDbEntity
  8
0
  6
CONTINUOUS
 62
     0
100
AcDbLine
 10
0.0
 20
0.0
 30
0.0
 11
-1.0
 21
0.083333333
 31
0.0
  0
LINE
  5
A9
330
7B
100
AcDbEntity
  8
0
  6
CONTINUOUS
 62
     0
100
AcDbLine
 10
0.0
 20
0.0
 30
0.0
 11
-1.0
 21
-0.083333333
 31
0.0
  0
LINE
  5
AA
330
7B
100
AcDbEntity
  8
0
  6
CONTINUOUS
 62
     0
100
AcDbLine
 10
-1.0
 20
0.166666667
 30
0.0
 11
-1.0
 21
-0.166666667
 31
0.0
  0
ENDBLK
  5
7D
330
7B
100
AcDbEntity
  8
0
100
AcDbBlockEnd
  0
BLOCK
  5
7F
330
7E
100
AcDbEntity
  8
0
100
AcDbBlockBegin
  2
EX_BCIR
 70
     0
 10
0.0
 20
0.0
 30
0.0
  3
EX_BCIR
  1

  0
LINE
  5
AB
330
7E
100
AcDbEntity
  8
0
  6
CONTINUOUS
 62
     0
100
AcDbLine
 10
0.0
 20
0.0
 30
0.0
 11
-1.0
 21
0.0
 31
0.0
  0
CIRCLE
  5
AC
330
7E
100
AcDbEntity
  8
0
  6
CONTINUOUS
 62
     0
100
AcDbCircle
 10
0.0
 20
0.0
 30
0.0
 40
0.5
  0
CIRCLE
  5
AD
330
7E
100
AcDbEntity
  8
0
  6
CONTINUOUS
 62
     0
100
AcDbCircle
 10
0.0
 20
0.0
 30
0.0
 40
0.25
  0
ENDBLK
  5
80
330
7E
100
AcDbEntity
  8
0
100
AcDbBlockEnd
  0
BLOCK
  5
82
330
81
100
AcDbEntity
  8
0
100
AcDbBlockBegin
  2
EX_RCIVIL
 70
     0
 10
0.0
 20
0.0
 30
0.0
  3
EX_RCIVIL
  1

  0
LINE
  5
AE
330
81
100
AcDbEntity
  8
0
  6
CONTINUOUS
 62
     0
100
AcDbLine
 10
0.0
 20
0.0
 30
0.0
 11
-1.0
 21
0.0
 31
0.0
  0
LINE
  5
AF
330
81
100
AcDbEntity
  8
0
  6
CONTINUOUS
 62
     0
100
AcDbLine
 10
-1.0
 20
-0.25
 30
0.0
 11
0.0
 21
-0.25
 31
0.0
  0
LINE
  5
B0
330
81
100
AcDbEntity
  8
0
  6
CONTINUOUS
 62
     0
100
AcDbLine
 10
-1.0
 20
-0.125
 30
0.0
 11
0.0
 21
-0.125
 31
0.0
  0
ENDBLK
  5
83
330
81
100
AcDbEntity
  8
0
100
AcDbBlockEnd
  0
BLOCK
  5
85
330
84
100
AcDbEntity
  8
0
100
AcDbBlockBegin
  2
EX_SLANT
 70
     0
 10
0.0
 20
0.0
 30
0.0
  3
EX_SLANT
  1

  0
LINE
  5
B1
330
84
100
AcDbEntity
  8
0
  6
CONTINUOUS
 62
     0
100
AcDbLine
 10
0.0
 20
0.0
 30
0.0
 11
-1.0
 21
0.0
 31
0.0
  0
LINE
  5
B2
330
84
100
AcDbEntity
  8
0
  6
CONTINUOUS
 62
     0
100
AcDbLine
 10
0.707106781
 20
0.707106781
 30
0.0
 11
-0.707106781
 21
-0.707106781
 31
0.0
  0
ENDBLK
  5
86
330
84
100
AcDbEntity
  8
0
100
AcDbBlockEnd
  0
BLOCK
  5
88
330
87
100
AcDbEntity
  8
0
100
AcDbBlockBegin
  2
EX_NONE
 70
     0
 10
0.0
 20
0.0
 30
0.0
  3
EX_NONE
  1

  0
LINE
  5
B3
330
87
100
AcDbEntity
  8
0
  6
CONTINUOUS
 62
     0
100
AcDbLine
 10
0.0
 20
0.0
 30
0.0
 11
-1.0
 21
0.0
 31
0.0
  0
ENDBLK
  5
89
330
87
100
AcDbEntity
  8
0
100
AcDbBlockEnd
  0
BLOCK
  5
8B
330
8A
100
AcDbEntity
  8
0
100
AcDbBlockBegin
  2
EX_CIVIL
 70
     0
 10
0.0
 20
0.0
 30
0.0
  3
EX_CIVIL
  1

  0
LINE
  5
B4
330
8A
100
AcDbEntity
  8
0
  6
CONTINUOUS
 62
     0
100
AcDbLine
 10
0.0
 20
0.0
 30
0.0
 11
-1.0
 21
0.0
 31
0.0
  0
LINE
  5
B5
330
8A
100
AcDbEntity
  8
0
  6
CONTINUOUS
 62
     0
100
AcDbLine
 10
-1.0
 20
0.25
 30
0.0
 11
0.0
 21
0.25
 31
0.0
  0
LINE
  5
B6
330
8A
100
AcDbEntity
  8
0
  6
CONTINUOUS
 62
     0
100
AcDbLine
 10
-1.0
 20
0.125
 30
0.0
 11
0.0
 21
0.125
 31
0.0
  0
ENDBLK
  5
8C
330
8A
100
AcDbEntity
  8
0
100
AcDbBlockEnd
  0
BLOCK
  5
8E
330
8D
100
AcDbEntity
  8
0
100
AcDbBlockBegin
  2
EX_WCIR
 70
     0
 10
0.0
 20
0.0
 30
0.0
  3
EX_WCIR
  1

  0
LINE
  5
B7
330
8D
100
AcDbEntity
  8
0
  6
CONTINUOUS
 62
     0
100
AcDbLine
 10
0.0
 20
0.0
 30
0.0
 11
-1.0
 21
0.0
 31
0.0
  0
CIRCLE
  5
B8
330
8D
100
AcDbEntity
  8
0
  6
CONTINUOUS
 62
     0
100
AcDbCircle
 10
0.0
 20
0.0
 30
0.0
 40
0.5
  0
ENDBLK
  5
8F
330
8D
100
AcDbEntity
  8
0
100
AcDbBlockEnd
  0
BLOCK
  5
91
330
90
100
AcDbEntity
  8
0
100
AcDbBlockBegin
  2
EX_WCIR2
 70
     0
 10
0.0
 20
0.0
 30
0.0
  3
EX_WCIR2
  1

  0
LINE
  5
B9
330
90
100
AcDbEntity
  8
0
  6
CONTINUOUS
 62
     0
100
AcDbLine
 10
-0.5
 20
0.0
 30
0.0
 11
-1.0
 21
0.0
 31
0.0
  0
CIRCLE
  5
BA
330
90
100
AcDbEntity
  8
0
  6
CONTINUOUS
 62
     0
100
AcDbCircle
 10
0.0
 20
0.0
 30
0.0
 40
0.5
  0
ENDBLK
  5
92
330
90
100
AcDbEntity
  8
0
100
AcDbBlockEnd
  0
BLOCK
  5
94
330
93
100
AcDbEntity
  8
0
100
AcDbBlockBegin
  2
EX_WNORM
 70
     0
 10
0.0
 20
0.0
 30
0.0
  3
EX_WNORM
  1

  0
LINE
  5
BB
330
93
100
AcDbEntity
  8
0
  6
CONTINUOUS
 62
     0
100
AcDbLine
 10
-1.0
 20
0.0
 30
0.0
 11
-1.0
 21
0.0
 31
0.0
  0
LINE
  5
BC
330
93
100
AcDbEntity
  8
0
  6
CONTINUOUS
 62
     0
100
AcDbLine
 10
0.0
 20
0.0
 30
0.0
 11
-1.0
 21
0.166666667
 31
0.0
  0
LINE
  5
BD
330
93
100
AcDbEntity
  8
0
  6
CONTINUOUS
 62
     0
100
AcDbLine
 10
0.0
 20
0.0
 30
0.0
 11
-1.0
 21
-0.166666667
 31
0.0
  0
LINE
  5
BE
330
93
100
AcDbEntity
  8
0
  6
CONTINUOUS
 62
     0
100
AcDbLine
 10
-1.0
 20
0.166666667
 30
0.0
 11
-1.0
 21
-0.166666667
 31
0.0
  0
ENDBLK
  5
95
330
93
100
AcDbEntity
  8
0
100
AcDbBlockEnd
  0
BLOCK
  5
97
330
96
100
AcDbEntity
  8
0
100
AcDbBlockBegin
  2
EX_NNORM
 70
     0
 10
0.0
 20
0.0
 30
0.0
  3
EX_NNORM
  1

  0
LINE
  5
BF
330
96
100
AcDbEntity
  8
0
  6
CONTINUOUS
 62
     0
100
AcDbLine
 10
0.0
 20
0.0
 30
0.0
 11
-1.0
 21
0.0
 31
0.0
  0
LINE
  5
C0
330
96
100
AcDbEntity
  8
0
  6
CONTINUOUS
 62
     0
100
AcDbLine
 10
0.0
 20
0.0
 30
0.0
 11
-1.0
 21
0.166666667
 31
0.0
  0
LINE
  5
C1
330
96
100
AcDbEntity
  8
0
  6
CONTINUOUS
 62
     0
100
AcDbLine
 10
0.0
 20
0.0
 30
0.0
 11
-1.0
 21
-0.166666667
 31
0.0
  0
LINE
  5
C2
330
96
100
AcDbEntity
  8
0
  6
CONTINUOUS
 62
     0
100
AcDbLine
 10
-1.0
 20
0.166666667
 30
0.0
 11
-1.0
 21
-0.166666667
 31
0.0
  0
ENDBLK
  5
98
330
96
100
AcDbEntity
  8
0
100
AcDbBlockEnd
  0
BLOCK
  5
9A
330
99
100
AcDbEntity
  8
0
100
AcDbBlockBegin
  2
EX_BBOX
 70
     0
 10
0.0
 20
0.0
 30
0.0
  3
EX_BBOX
  1

  0
LINE
  5
C3
330
99
100
AcDbEntity
  8
0
  6
CONTINUOUS
 62
     0
100
AcDbLine
 10
0.0
 20
0.0
 30
0.0
 11
-1.0
 21
0.0
 31
0.0
  0
LINE
  5
C4
330
99
100
AcDbEntity
  8
0
  6
CONTINUOUS
 62
     0
100
AcDbLine
 10
-0.5
 20
0.5
 30
0.0
 11
0.5
 21
0.5
 31
0.0
  0
LINE
  5
C5
330
99
100
AcDbEntity
  8
0
  6
CONTINUOUS
 62
     0
100
AcDbLine
 10
0.5
 20
0.5
 30
0.0
 11
0.5
 21
-0.5
 31
0.0
  0
LINE
  5
C6
330
99
100
AcDbEntity
  8
0
  6
CONTINUOUS
 62
     0
100
AcDbLine
 10
0.5
 20
-0.5
 30
0.0
 11
-0.5
 21
-0.5
 31
0.0
  0
LINE
  5
C7
330
99
100
AcDbEntity
  8
0
  6
CONTINUOUS
 62
     0
100
AcDbLine
 10
-0.5
 20
-0.5
 30
0.0
 11
-0.5
 21
0.5
 31
0.0
  0
LINE
  5
C8
330
99
100
AcDbEntity
  8
0
  6
CONTINUOUS
 62
     0
100
AcDbLine
 10
-0.25
 20
0.25
 30
0.0
 11
0.25
 21
0.25
 31
0.0
  0
LINE
  5
C9
330
99
100
AcDbEntity
  8
0
  6
CONTINUOUS
 62
     0
100
AcDbLine
 10
0.25
 20
0.25
 30
0.0
 11
0.25
 21
-0.25
 31
0.0
  0
LINE
  5
CA
330
99
100
AcDbEntity
  8
0
  6
CONTINUOUS
 62
     0
100
AcDbLine
 10
0.25
 20
-0.25
 30
0.0
 11
-0.25
 21
-0.25
 31
0.0
  0
LINE
  5
CB
330
99
100
AcDbEntity
  8
0
  6
CONTINUOUS
 62
     0
100
AcDbLine
 10
-0.25
 20
-0.25
 30
0.0
 11
-0.25
 21
0.25
 31
0.0
  0
ENDBLK
  5
9B
330
99
100
AcDbEntity
  8
0
100
AcDbBlockEnd
  0
BLOCK
  5
9D
330
9C
100
AcDbEntity
  8
0
100
AcDbBlockBegin
  2
EX_WBOX
 70
     0
 10
0.0
 20
0.0
 30
0.0
  3
EX_WBOX
  1

  0
LINE
  5
CC
330
9C
100
AcDbEntity
  8
0
  6
CONTINUOUS
 62
     0
100
AcDbLine
 10
-0.5
 20
0.0
 30
0.0
 11
-1.0
 21
0.0
 31
0.0
  0
LINE
  5
CD
330
9C
100
AcDbEntity
  8
0
  6
CONTINUOUS
 62
     0
100
AcDbLine
 10
-0.5
 20
0.5
 30
0.0
 11
0.5
 21
0.5
 31
0.0
  0
LINE
  5
CE
330
9C
100
AcDbEntity
  8
0
  6
CONTINUOUS
 62
     0
100
AcDbLine
 10
0.5
 20
0.5
 30
0.0
 11
0.5
 21
-0.5
 31
0.0
  0
LINE
  5
CF
330
9C
100
AcDbEntity
  8
0
  6
CONTINUOUS
 62
     0
100
AcDbLine
 10
0.5
 20
-0.5
 30
0.0
 11
-0.5
 21
-0.5
 31
0.0
  0
LINE
  5
D0
330
9C
100
AcDbEntity
  8
0
  6
CONTINUOUS
 62
     0
100
AcDbLine
 10
-0.5
 20
-0.5
 30
0.0
 11
-0.5
 21
0.5
 31
0.0
  0
ENDBLK
  5
9E
330
9C
100
AcDbEntity
  8
0
100
AcDbBlockEnd
  0
BLOCK
  5
A0
330
9F
100
AcDbEntity
  8
0
100
AcDbBlockBegin
  2
EX_INTEGRAL
 70
     0
 10
0.0
 20
0.0
 30
0.0
  3
EX_INTEGRAL
  1

  0
LINE
  5
D1
330
9F
100
AcDbEntity
  8
0
  6
CONTINUOUS
 62
     0
100
AcDbLine
 10
0.0
 20
0.0
 30
0.0
 11
-1.0
 21
0.0
 31
0.0
  0
ARC
  5
D2
330
9F
100
AcDbEntity
  8
0
  6
CONTINUOUS
 62
     0
100
AcDbCircle
 10
0.542115
 20
0.164992
 30
0.0
 40
0.56667
100
AcDbArc
 50
73.07249033629006
 51
196.9275130221199
  0
ARC
  5
D3
330
9F
100
AcDbEntity
  8
0
  6
CONTINUOUS
 62
     0
100
AcDbCircle
 10
-0.542115
 20
-0.164992
 30
0.0
 40
0.56667
100
AcDbArc
 50
253.0724869220464
 51
16.9275130559125
  0
ENDBLK
  5
A1
330
9F
100
AcDbEntity
  8
0
100
AcDbBlockEnd
  0
BLOCK
  5
212
330
211
100
AcDbEntity
  8
0
100
AcDbBlockBegin
  2
*D15
 70
     1
 10
0.0
 20
0.0
 30
0.0
  3
*D15
  1

  0
LINE
  5
214
330
211
100
AcDbEntity
  8
LAY-10
  6
CONTINUOUS
 62
     4
100
AcDbLine
 10
271.0
 20
349.49999999999
 30
0.0
 11
271.0
 21
379.49999999999
 31
0.0
  0
LINE
  5
215
330
211
100
AcDbEntity
  8
LAY-10
  6
CONTINUOUS
 62
     4
100
AcDbLine
 10
389.0
 20
349.49999999999
 30
0.0
 11
389.0
 21
379.49999999999
 31
0.0
  0
LINE
  5
216
330
211
100
AcDbEntity
  8
LAY-10
  6
CONTINUOUS
 62
     4
100
AcDbLine
 10
278.5
 20
374.99999999999
 30
0.0
 11
381.5
 21
374.99999999999
 31
0.0
  0
INSERT
  5
217
330
211
100
AcDbEntity
  8
LAY-10
 62
     4
100
AcDbBlockReference
  2
EX_BNORM
 10
271.0
 20
374.99999999999
 30
0.0
 41
7.5
 42
7.5
 43
7.5
 50
180.0
  0
INSERT
  5
218
330
211
100
AcDbEntity
  8
LAY-10
 62
     4
100
AcDbBlockReference
  2
EX_BNORM
 10
389.0
 20
374.99999999999
 30
0.0
 41
7.5
 42
7.5
 43
7.5
  0
MTEXT
  5
219
330
211
100
AcDbEntity
  8
LAY-10
 62
     7
100
AcDbMText
 10
330.0000000000001
 20
382.49999999999
 30
0.0
 40
9.3543312
 41
0.0
 71
     5
 72
     1
  1
%%c118
  7
EXCADDIM1
  0
POINT
  5
21A
330
211
100
AcDbEntity
  8
DEFPOINTS
 62
     0
100
AcDbPoint
 10
271.0
 20
344.99999999999
 30
0.0
  0
POINT
  5
21B
330
211
100
AcDbEntity
  8
DEFPOINTS
 62
     0
100
AcDbPoint
 10
389.0
 20
344.99999999999
 30
0.0
  0
POINT
  5
21C
330
211
100
AcDbEntity
  8
DEFPOINTS
 62
     0
100
AcDbPoint
 10
389.0
 20
374.99999999999
 30
0.0
  0
ENDBLK
  5
213
330
211
100
AcDbEntity
  8
0
100
AcDbBlockEnd
  0
BLOCK
  5
495
330
494
100
AcDbEntity
  8
0
100
AcDbBlockBegin
  2
*D16
 70
     1
 10
0.0
 20
0.0
 30
0.0
  3
*D16
  1

  0
LINE
  5
497
330
494
100
AcDbEntity
  8
LAY-20
  6
CONTINUOUS
 62
     4
100
AcDbLine
 10
137.5000000000001
 20
287.9999999999899
 30
0.0
 11
137.5000000000001
 21
421.4999999999899
 31
0.0
  0
LINE
  5
498
330
494
100
AcDbEntity
  8
LAY-20
  6
CONTINUOUS
 62
     4
100
AcDbLine
 10
522.5000000000001
 20
287.9999999999899
 30
0.0
 11
522.5000000000001
 21
421.4999999999899
 31
0.0
  0
LINE
  5
499
330
494
100
AcDbEntity
  8
LAY-20
  6
CONTINUOUS
 62
     4
100
AcDbLine
 10
145.0000000000001
 20
416.9999999999899
 30
0.0
 11
515.0000000000001
 21
416.9999999999899
 31
0.0
  0
INSERT
  5
49A
330
494
100
AcDbEntity
  8
LAY-20
 62
     4
100
AcDbBlockReference
  2
EX_BNORM
 10
137.5000000000001
 20
416.9999999999899
 30
0.0
 41
7.5
 42
7.5
 43
7.5
 50
180.0
  0
INSERT
  5
49B
330
494
100
AcDbEntity
  8
LAY-20
 62
     4
100
AcDbBlockReference
  2
EX_BNORM
 10
522.5000000000001
 20
416.9999999999899
 30
0.0
 41
7.5
 42
7.5
 43
7.5
  0
MTEXT
  5
49C
330
494
100
AcDbEntity
  8
LAY-20
 62
     7
100
AcDbMText
 10
330.0000000000002
 20
424.4999999999899
 30
0.0
 40
9.3543312
 41
0.0
 71
     5
 72
     1
  1
385
  7
EXCADDIM1
  0
POINT
  5
49D
330
494
100
AcDbEntity
  8
DEFPOINTS
 62
     0
100
AcDbPoint
 10
137.5000000000001
 20
283.4999999999899
 30
0.0
  0
POINT
  5
49E
330
494
100
AcDbEntity
  8
DEFPOINTS
 62
     0
100
AcDbPoint
 10
522.5000000000001
 20
283.4999999999899
 30
0.0
  0
POINT
  5
49F
330
494
100
AcDbEntity
  8
DEFPOINTS
 62
     0
100
AcDbPoint
 10
522.5000000000001
 20
416.9999999999899
 30
0.0
  0
ENDBLK
  5
496
330
494
100
AcDbEntity
  8
0
100
AcDbBlockEnd
  0
BLOCK
  5
4A2
330
4A1
100
AcDbEntity
  8
0
100
AcDbBlockBegin
  2
*D17
 70
     1
 10
0.0
 20
0.0
 30
0.0
  3
*D17
  1

  0
LINE
  5
4A4
330
4A1
100
AcDbEntity
  8
LAY-20
  6
CONTINUOUS
 62
     4
100
AcDbLine
 10
163.0000000000001
 20
314.9999999999899
 30
0.0
 11
163.0000000000001
 21
400.4999999999899
 31
0.0
  0
LINE
  5
4A5
330
4A1
100
AcDbEntity
  8
LAY-20
  6
CONTINUOUS
 62
     4
100
AcDbLine
 10
497.0000000000001
 20
314.9999999999899
 30
0.0
 11
497.0000000000001
 21
400.4999999999899
 31
0.0
  0
LINE
  5
4A6
330
4A1
100
AcDbEntity
  8
LAY-20
  6
CONTINUOUS
 62
     4
100
AcDbLine
 10
170.5000000000001
 20
395.9999999999899
 30
0.0
 11
489.5000000000001
 21
395.9999999999899
 31
0.0
  0
INSERT
  5
4A7
330
4A1
100
AcDbEntity
  8
LAY-20
 62
     4
100
AcDbBlockReference
  2
EX_BNORM
 10
163.0000000000001
 20
395.9999999999899
 30
0.0
 41
7.5
 42
7.5
 43
7.5
 50
180.0
  0
INSERT
  5
4A8
330
4A1
100
AcDbEntity
  8
LAY-20
 62
     4
100
AcDbBlockReference
  2
EX_BNORM
 10
497.0000000000001
 20
395.9999999999899
 30
0.0
 41
7.5
 42
7.5
 43
7.5
  0
MTEXT
  5
4A9
330
4A1
100
AcDbEntity
  8
LAY-20
 62
     7
100
AcDbMText
 10
330.0000000000002
 20
403.4999999999899
 30
0.0
 40
9.3543312
 41
0.0
 71
     5
 72
     1
  1
334
  7
EXCADDIM1
  0
POINT
  5
4AA
330
4A1
100
AcDbEntity
  8
DEFPOINTS
 62
     0
100
AcDbPoint
 10
163.0000000000001
 20
310.4999999999899
 30
0.0
  0
POINT
  5
4AB
330
4A1
100
AcDbEntity
  8
DEFPOINTS
 62
     0
100
AcDbPoint
 10
497.0000000000001
 20
310.4999999999899
 30
0.0
  0
POINT
  5
4AC
330
4A1
100
AcDbEntity
  8
DEFPOINTS
 62
     0
100
AcDbPoint
 10
497.0000000000001
 20
395.9999999999899
 30
0.0
  0
ENDBLK
  5
4A3
330
4A1
100
AcDbEntity
  8
0
100
AcDbBlockEnd
  0
BLOCK
  5
4AF
330
4AE
100
AcDbEntity
  8
0
100
AcDbBlockBegin
  2
*D18
 70
     1
 10
0.0
 20
0.0
 30
0.0
  3
*D18
  1

  0
LINE
  5
4B1
330
4AE
100
AcDbEntity
  8
LAY-20
  6
CONTINUOUS
 62
     4
100
AcDbLine
 10
380.0000000000001
 20
250.99999999999
 30
0.0
 11
380.0000000000001
 21
154.9999999999899
 31
0.0
  0
LINE
  5
4B2
330
4AE
100
AcDbEntity
  8
LAY-20
  6
CONTINUOUS
 62
     4
100
AcDbLine
 10
280.0000000000001
 20
250.99999999999
 30
0.0
 11
280.0000000000001
 21
154.9999999999899
 31
0.0
  0
LINE
  5
4B3
330
4AE
100
AcDbEntity
  8
LAY-20
  6
CONTINUOUS
 62
     4
100
AcDbLine
 10
372.5000000000001
 20
159.4999999999899
 30
0.0
 11
287.5000000000001
 21
159.4999999999899
 31
0.0
  0
INSERT
  5
4B4
330
4AE
100
AcDbEntity
  8
LAY-20
 62
     4
100
AcDbBlockReference
  2
EX_BNORM
 10
380.0000000000001
 20
159.4999999999899
 30
0.0
 41
7.5
 42
7.5
 43
7.5
  0
INSERT
  5
4B5
330
4AE
100
AcDbEntity
  8
LAY-20
 62
     4
100
AcDbBlockReference
  2
EX_BNORM
 10
280.0000000000001
 20
159.4999999999899
 30
0.0
 41
7.5
 42
7.5
 43
7.5
 50
180.0
  0
MTEXT
  5
4B6
330
4AE
100
AcDbEntity
  8
LAY-20
 62
     7
100
AcDbMText
 10
330.0000000000001
 20
166.9999999999899
 30
0.0
 40
9.3543312
 41
0.0
 71
     5
 72
     1
  1
%%c100
  7
EXCADDIM1
  0
POINT
  5
4B7
330
4AE
100
AcDbEntity
  8
DEFPOINTS
 62
     0
100
AcDbPoint
 10
380.0000000000001
 20
255.49999999999
 30
0.0
  0
POINT
  5
4B8
330
4AE
100
AcDbEntity
  8
DEFPOINTS
 62
     0
100
AcDbPoint
 10
280.0000000000001
 20
255.49999999999
 30
0.0
  0
POINT
  5
4B9
330
4AE
100
AcDbEntity
  8
DEFPOINTS
 62
     0
100
AcDbPoint
 10
280.0000000000001
 20
159.4999999999899
 30
0.0
  0
ENDBLK
  5
4B0
330
4AE
100
AcDbEntity
  8
0
100
AcDbBlockEnd
  0
BLOCK
  5
4BC
330
4BB
100
AcDbEntity
  8
0
100
AcDbBlockBegin
  2
*D19
 70
     1
 10
0.0
 20
0.0
 30
0.0
  3
*D19
  1

  0
LINE
  5
4BE
330
4BB
100
AcDbEntity
  8
LAY-20
  6
CONTINUOUS
 62
     4
100
AcDbLine
 10
375.9883231106098
 20
210.9999999999898
 30
0.0
 11
375.9883231106098
 21
175.9999999999899
 31
0.0
  0
LINE
  5
4BF
330
4BB
100
AcDbEntity
  8
LAY-20
  6
CONTINUOUS
 62
     4
100
AcDbLine
 10
284.0116768893901
 20
210.9999999999898
 30
0.0
 11
284.0116768893901
 21
175.9999999999899
 31
0.0
  0
LINE
  5
4C0
330
4BB
100
AcDbEntity
  8
LAY-20
  6
CONTINUOUS
 62
     4
100
AcDbLine
 10
368.4883231106098
 20
180.4999999999899
 30
0.0
 11
291.5116768893901
 21
180.4999999999899
 31
0.0
  0
INSERT
  5
4C1
330
4BB
100
AcDbEntity
  8
LAY-20
 62
     4
100
AcDbBlockReference
  2
EX_BNORM
 10
375.9883231106098
 20
180.4999999999899
 30
0.0
 41
7.5
 42
7.5
 43
7.5
  0
INSERT
  5
4C2
330
4BB
100
AcDbEntity
  8
LAY-20
 62
     4
100
AcDbBlockReference
  2
EX_BNORM
 10
284.0116768893901
 20
180.4999999999899
 30
0.0
 41
7.5
 42
7.5
 43
7.5
 50
180.0
  0
MTEXT
  5
4C3
330
4BB
100
AcDbEntity
  8
LAY-20
 62
     7
100
AcDbMText
 10
329.9999999999999
 20
187.9999999999899
 30
0.0
 40
9.3543312
 41
0.0
 71
     5
 72
     1
  1
%%c92
  7
EXCADDIM1
  0
POINT
  5
4C4
330
4BB
100
AcDbEntity
  8
DEFPOINTS
 62
     0
100
AcDbPoint
 10
375.9883231106098
 20
215.4999999999898
 30
0.0
  0
POINT
  5
4C5
330
4BB
100
AcDbEntity
  8
DEFPOINTS
 62
     0
100
AcDbPoint
 10
284.0116768893901
 20
215.4999999999898
 30
0.0
  0
POINT
  5
4C6
330
4BB
100
AcDbEntity
  8
DEFPOINTS
 62
     0
100
AcDbPoint
 10
284.0116768893901
 20
180.4999999999899
 30
0.0
  0
ENDBLK
  5
4BD
330
4BB
100
AcDbEntity
  8
0
100
AcDbBlockEnd
  0
BLOCK
  5
4C9
330
4C8
100
AcDbEntity
  8
0
100
AcDbBlockBegin
  2
*D20
 70
     1
 10
0.0
 20
0.0
 30
0.0
  3
*D20
  1

  0
LINE
  5
4CB
330
4C8
100
AcDbEntity
  8
LAY-20
  6
CONTINUOUS
 62
     4
100
AcDbLine
 10
404.4999999999999
 20
210.49999999999
 30
0.0
 11
557.0
 21
210.49999999999
 31
0.0
  0
LINE
  5
4CC
330
4C8
100
AcDbEntity
  8
LAY-20
  6
CONTINUOUS
 62
     4
100
AcDbLine
 10
526.0
 20
290.49999999999
 30
0.0
 11
557.0
 21
290.49999999999
 31
0.0
  0
LINE
  5
4CD
330
4C8
100
AcDbEntity
  8
LAY-20
  6
CONTINUOUS
 62
     4
100
AcDbLine
 10
552.5
 20
217.99999999999
 30
0.0
 11
552.5
 21
282.99999999999
 31
0.0
  0
INSERT
  5
4CE
330
4C8
100
AcDbEntity
  8
LAY-20
 62
     4
100
AcDbBlockReference
  2
EX_BNORM
 10
552.5
 20
210.49999999999
 30
0.0
 41
7.5
 42
7.5
 43
7.5
 50
270.0
  0
INSERT
  5
4CF
330
4C8
100
AcDbEntity
  8
LAY-20
 62
     4
100
AcDbBlockReference
  2
EX_BNORM
 10
552.5
 20
290.49999999999
 30
0.0
 41
7.5
 42
7.5
 43
7.5
 50
90.0
  0
MTEXT
  5
4D0
330
4C8
100
AcDbEntity
  8
LAY-20
 62
     7
100
AcDbMText
 10
545.0
 20
250.49999999999
 30
0.0
 40
9.3543312
 41
0.0
 71
     5
 72
     1
  1
80
  7
EXCADDIM1
 11
0.0
 21
1.0
 31
0.0
  0
POINT
  5
4D1
330
4C8
100
AcDbEntity
  8
DEFPOINTS
 62
     0
100
AcDbPoint
 10
399.9999999999999
 20
210.49999999999
 30
0.0
  0
POINT
  5
4D2
330
4C8
100
AcDbEntity
  8
DEFPOINTS
 62
     0
100
AcDbPoint
 10
521.5
 20
290.49999999999
 30
0.0
  0
POINT
  5
4D3
330
4C8
100
AcDbEntity
  8
DEFPOINTS
 62
     0
100
AcDbPoint
 10
552.5
 20
290.49999999999
 30
0.0
  0
ENDBLK
  5
4CA
330
4C8
100
AcDbEntity
  8
0
100
AcDbBlockEnd
  0
BLOCK
  5
4D6
330
4D5
100
AcDbEntity
  8
0
100
AcDbBlockBegin
  2
*D21
 70
     1
 10
0.0
 20
0.0
 30
0.0
  3
*D21
  1

  0
LINE
  5
4D8
330
4D5
100
AcDbEntity
  8
LAY-20
  6
CONTINUOUS
 62
     4
100
AcDbLine
 10
501.5
 20
310.49999999999
 30
0.0
 11
557.0
 21
310.49999999999
 31
0.0
  0
LINE
  5
4D9
330
4D5
100
AcDbEntity
  8
LAY-20
  6
CONTINUOUS
 62
     4
100
AcDbLine
 10
552.5
 20
302.99999999999
 30
0.0
 11
552.5
 21
297.99999999999
 31
0.0
  0
INSERT
  5
4DA
330
4D5
100
AcDbEntity
  8
LAY-20
 62
     4
100
AcDbBlockReference
  2
EX_BNORM
 10
552.5
 20
310.49999999999
 30
0.0
 41
7.5
 42
7.5
 43
7.5
 50
90.0
  0
INSERT
  5
4DB
330
4D5
100
AcDbEntity
  8
LAY-20
 62
     4
100
AcDbBlockReference
  2
EX_BNORM
 10
552.5
 20
290.49999999999
 30
0.0
 41
7.5
 42
7.5
 43
7.5
 50
270.0
  0
MTEXT
  5
4DC
330
4D5
100
AcDbEntity
  8
LAY-20
 62
     7
100
AcDbMText
 10
545.0
 20
300.49999999999
 30
0.0
 40
9.3543312
 41
0.0
 71
     5
 72
     1
  1
20
  7
EXCADDIM1
 11
0.0
 21
1.0
 31
0.0
  0
POINT
  5
4DD
330
4D5
100
AcDbEntity
  8
DEFPOINTS
 62
     0
100
AcDbPoint
 10
497.0
 20
310.49999999999
 30
0.0
  0
POINT
  5
4DE
330
4D5
100
AcDbEntity
  8
DEFPOINTS
 62
     0
100
AcDbPoint
 10
552.5
 20
290.49999999999
 30
0.0
  0
POINT
  5
4DF
330
4D5
100
AcDbEntity
  8
DEFPOINTS
 62
     0
100
AcDbPoint
 10
552.5
 20
290.49999999999
 30
0.0
  0
ENDBLK
  5
4D7
330
4D5
100
AcDbEntity
  8
0
100
AcDbBlockEnd
  0
BLOCK
  5
4E2
330
4E1
100
AcDbEntity
  8
0
100
AcDbBlockBegin
  2
*D22
 70
     1
 10
0.0
 20
0.0
 30
0.0
  3
*D22
  1

  0
LINE
  5
4E4
330
4E1
100
AcDbEntity
  8
LAY-20
  6
CONTINUOUS
 62
     4
100
AcDbLine
 10
398.0
 20
344.99999999999
 30
0.0
 11
557.0
 21
344.9999999999899
 31
0.0
  0
LINE
  5
4E5
330
4E1
100
AcDbEntity
  8
LAY-20
  6
CONTINUOUS
 62
     4
100
AcDbLine
 10
552.5
 20
337.4999999999899
 30
0.0
 11
552.5
 21
317.99999999999
 31
0.0
  0
INSERT
  5
4E6
330
4E1
100
AcDbEntity
  8
LAY-20
 62
     4
100
AcDbBlockReference
  2
EX_BNORM
 10
552.5
 20
344.9999999999899
 30
0.0
 41
7.5
 42
7.5
 43
7.5
 50
90.0
  0
INSERT
  5
4E7
330
4E1
100
AcDbEntity
  8
LAY-20
 62
     4
100
AcDbBlockReference
  2
EX_BNORM
 10
552.5
 20
310.49999999999
 30
0.0
 41
7.5
 42
7.5
 43
7.5
 50
270.0
  0
MTEXT
  5
4E8
330
4E1
100
AcDbEntity
  8
LAY-20
 62
     7
100
AcDbMText
 10
545.0
 20
327.74999999999
 30
0.0
 40
9.3543312
 41
0.0
 71
     5
 72
     1
  1
35
  7
EXCADDIM1
 11
0.0
 21
1.0
 31
0.0
  0
POINT
  5
4E9
330
4E1
100
AcDbEntity
  8
DEFPOINTS
 62
     0
100
AcDbPoint
 10
393.5
 20
344.99999999999
 30
0.0
  0
POINT
  5
4EA
330
4E1
100
AcDbEntity
  8
DEFPOINTS
 62
     0
100
AcDbPoint
 10
552.5
 20
310.49999999999
 30
0.0
  0
POINT
  5
4EB
330
4E1
100
AcDbEntity
  8
DEFPOINTS
 62
     0
100
AcDbPoint
 10
552.5
 20
310.49999999999
 30
0.0
  0
ENDBLK
  5
4E3
330
4E1
100
AcDbEntity
  8
0
100
AcDbBlockEnd
  0
BLOCK
  5
4EE
330
4ED
100
AcDbEntity
  8
0
100
AcDbBlockBegin
  2
*D23
 70
     1
 10
0.0
 20
0.0
 30
0.0
  3
*D23
  1

  0
LINE
  5
4F0
330
4ED
100
AcDbEntity
  8
LAY-20
  6
CONTINUOUS
 62
     4
100
AcDbLine
 10
720.5
 20
470.0000000000099
 30
0.0
 11
587.0
 21
470.00000000001
 31
0.0
  0
LINE
  5
4F1
330
4ED
100
AcDbEntity
  8
LAY-20
  6
CONTINUOUS
 62
     4
100
AcDbLine
 10
720.5
 20
670.00000000001
 30
0.0
 11
587.0
 21
670.00000000001
 31
0.0
  0
LINE
  5
4F2
330
4ED
100
AcDbEntity
  8
LAY-20
  6
CONTINUOUS
 62
     4
100
AcDbLine
 10
591.5
 20
477.50000000001
 30
0.0
 11
591.5
 21
662.50000000001
 31
0.0
  0
INSERT
  5
4F3
330
4ED
100
AcDbEntity
  8
LAY-20
 62
     4
100
AcDbBlockReference
  2
EX_BNORM
 10
591.5
 20
470.00000000001
 30
0.0
 41
7.5
 42
7.5
 43
7.5
 50
270.0
  0
INSERT
  5
4F4
330
4ED
100
AcDbEntity
  8
LAY-20
 62
     4
100
AcDbBlockReference
  2
EX_BNORM
 10
591.5
 20
670.00000000001
 30
0.0
 41
7.5
 42
7.5
 43
7.5
 50
90.0
  0
MTEXT
  5
4F5
330
4ED
100
AcDbEntity
  8
LAY-20
 62
     7
100
AcDbMText
 10
584.0
 20
570.00000000001
 30
0.0
 40
9.3543312
 41
0.0
 71
     5
 72
     1
  1
200
  7
EXCADDIM1
 11
0.0
 21
1.0
 31
0.0
  0
POINT
  5
4F6
330
4ED
100
AcDbEntity
  8
DEFPOINTS
 62
     0
100
AcDbPoint
 10
725.0
 20
470.0000000000099
 30
0.0
  0
POINT
  5
4F7
330
4ED
100
AcDbEntity
  8
DEFPOINTS
 62
     0
100
AcDbPoint
 10
725.0
 20
670.00000000001
 30
0.0
  0
POINT
  5
4F8
330
4ED
100
AcDbEntity
  8
DEFPOINTS
 62
     0
100
AcDbPoint
 10
591.5
 20
670.00000000001
 30
0.0
  0
ENDBLK
  5
4EF
330
4ED
100
AcDbEntity
  8
0
100
AcDbBlockEnd
  0
BLOCK
  5
4FB
330
4FA
100
AcDbEntity
  8
0
100
AcDbBlockBegin
  2
*D24
 70
     1
 10
0.0
 20
0.0
 30
0.0
  3
*D24
  1

  0
LINE
  5
4FD
330
4FA
100
AcDbEntity
  8
LAY-20
  6
CONTINUOUS
 62
     4
100
AcDbLine
 10
693.5
 20
497.50000000001
 30
0.0
 11
608.0000000000001
 21
497.5000000000101
 31
0.0
  0
LINE
  5
4FE
330
4FA
100
AcDbEntity
  8
LAY-20
  6
CONTINUOUS
 62
     4
100
AcDbLine
 10
693.5
 20
642.50000000001
 30
0.0
 11
608.0000000000001
 21
642.50000000001
 31
0.0
  0
LINE
  5
4FF
330
4FA
100
AcDbEntity
  8
LAY-20
  6
CONTINUOUS
 62
     4
100
AcDbLine
 10
612.5000000000001
 20
505.0000000000101
 30
0.0
 11
612.5000000000001
 21
635.00000000001
 31
0.0
  0
INSERT
  5
500
330
4FA
100
AcDbEntity
  8
LAY-20
 62
     4
100
AcDbBlockReference
  2
EX_BNORM
 10
612.5000000000001
 20
497.5000000000101
 30
0.0
 41
7.5
 42
7.5
 43
7.5
 50
270.0
  0
INSERT
  5
501
330
4FA
100
AcDbEntity
  8
LAY-20
 62
     4
100
AcDbBlockReference
  2
EX_BNORM
 10
612.5000000000001
 20
642.50000000001
 30
0.0
 41
7.5
 42
7.5
 43
7.5
 50
90.0
  0
MTEXT
  5
502
330
4FA
100
AcDbEntity
  8
LAY-20
 62
     7
100
AcDbMText
 10
605.0000000000001
 20
570.00000000001
 30
0.0
 40
9.3543312
 41
0.0
 71
     5
 72
     1
  1
145
  7
EXCADDIM1
 11
0.0
 21
1.0
 31
0.0
  0
POINT
  5
503
330
4FA
100
AcDbEntity
  8
DEFPOINTS
 62
     0
100
AcDbPoint
 10
698.0
 20
497.50000000001
 30
0.0
  0
POINT
  5
504
330
4FA
100
AcDbEntity
  8
DEFPOINTS
 62
     0
100
AcDbPoint
 10
698.0
 20
642.50000000001
 30
0.0
  0
POINT
  5
505
330
4FA
100
AcDbEntity
  8
DEFPOINTS
 62
     0
100
AcDbPoint
 10
612.5000000000001
 20
642.50000000001
 30
0.0
  0
ENDBLK
  5
4FC
330
4FA
100
AcDbEntity
  8
0
100
AcDbBlockEnd
  0
BLOCK
  5
508
330
507
100
AcDbEntity
  8
0
100
AcDbBlockBegin
  2
*D25
 70
     1
 10
0.0
 20
0.0
 30
0.0
  3
*D25
  1

  0
LINE
  5
50A
330
507
100
AcDbEntity
  8
LAY-20
  6
CONTINUOUS
 62
     4
100
AcDbLine
 10
659.0
 20
511.00000000001
 30
0.0
 11
629.0
 21
511.0000000000101
 31
0.0
  0
LINE
  5
50B
330
507
100
AcDbEntity
  8
LAY-20
  6
CONTINUOUS
 62
     4
100
AcDbLine
 10
659.0
 20
629.00000000001
 30
0.0
 11
629.0
 21
629.00000000001
 31
0.0
  0
LINE
  5
50C
330
507
100
AcDbEntity
  8
LAY-20
  6
CONTINUOUS
 62
     4
100
AcDbLine
 10
633.5
 20
518.50000000001
 30
0.0
 11
633.5
 21
621.50000000001
 31
0.0
  0
INSERT
  5
50D
330
507
100
AcDbEntity
  8
LAY-20
 62
     4
100
AcDbBlockReference
  2
EX_BNORM
 10
633.5
 20
511.0000000000101
 30
0.0
 41
7.5
 42
7.5
 43
7.5
 50
270.0
  0
INSERT
  5
50E
330
507
100
AcDbEntity
  8
LAY-20
 62
     4
100
AcDbBlockReference
  2
EX_BNORM
 10
633.5
 20
629.00000000001
 30
0.0
 41
7.5
 42
7.5
 43
7.5
 50
90.0
  0
MTEXT
  5
50F
330
507
100
AcDbEntity
  8
LAY-20
 62
     7
100
AcDbMText
 10
626.0
 20
570.00000000001
 30
0.0
 40
9.3543312
 41
0.0
 71
     5
 72
     1
  1
%%c118
  7
EXCADDIM1
 11
0.0
 21
1.0
 31
0.0
  0
POINT
  5
510
330
507
100
AcDbEntity
  8
DEFPOINTS
 62
     0
100
AcDbPoint
 10
663.5
 20
511.00000000001
 30
0.0
  0
POINT
  5
511
330
507
100
AcDbEntity
  8
DEFPOINTS
 62
     0
100
AcDbPoint
 10
663.5
 20
629.00000000001
 30
0.0
  0
POINT
  5
512
330
507
100
AcDbEntity
  8
DEFPOINTS
 62
     0
100
AcDbPoint
 10
633.5
 20
629.00000000001
 30
0.0
  0
ENDBLK
  5
509
330
507
100
AcDbEntity
  8
0
100
AcDbBlockEnd
  0
ENDSEC
  0
SECTION
  2
ENTITIES
  0
LINE
  5
D4
330
1F
100
AcDbEntity
  8
LAY-10
  6
CONTINUOUS
 62
     7
100
AcDbLine
 10
260.0000000000026
 20
258.5832611206777
 30
0.0
 11
261.9167388793155
 21
260.4999999999906
 31
0.0
  0
LINE
  5
D5
330
1F
100
AcDbEntity
  8
LAY-10
  6
CONTINUOUS
 62
     7
100
AcDbLine
 10
259.9999999999999
 20
255.7548339959288
 30
0.0
 11
264.4999999999968
 21
260.2548339959258
 31
0.0
  0
LINE
  5
D6
330
1F
100
AcDbEntity
  8
LAY-10
  6
CONTINUOUS
 62
     7
100
AcDbLine
 10
260.0000000000013
 20
252.926406871184
 30
0.0
 11
264.4999999999982
 21
257.4264068711809
 31
0.0
  0
LINE
  5
D7
330
1F
100
AcDbEntity
  8
LAY-10
  6
CONTINUOUS
 62
     7
100
AcDbLine
 10
260.0000000000024
 20
250.0979797464391
 30
0.0
 11
264.4999999999994
 21
254.597979746436
 31
0.0
  0
LINE
  5
D8
330
1F
100
AcDbEntity
  8
LAY-10
  6
CONTINUOUS
 62
     7
100
AcDbLine
 10
260.0000000000036
 20
247.2695526216942
 30
0.0
 11
264.5000000000006
 21
251.7695526216911
 31
0.0
  0
LINE
  5
D9
330
1F
100
AcDbEntity
  8
LAY-10
  6
CONTINUOUS
 62
     7
100
AcDbLine
 10
260.0000000000013
 20
244.4411254969455
 30
0.0
 11
264.499999999998
 21
248.9411254969423
 31
0.0
  0
LINE
  5
DA
330
1F
100
AcDbEntity
  8
LAY-10
  6
CONTINUOUS
 62
     7
100
AcDbLine
 10
260.0000000000024
 20
241.6126983722006
 30
0.0
 11
264.4999999999955
 21
246.1126983721936
 31
0.0
  0
LINE
  5
DB
330
1F
100
AcDbEntity
  8
LAY-10
  6
CONTINUOUS
 62
     7
100
AcDbLine
 10
259.9999999999999
 20
238.7842712474518
 30
0.0
 11
264.5000000000006
 21
243.2842712474526
 31
0.0
  0
LINE
  5
DC
330
1F
100
AcDbEntity
  8
LAY-10
  6
CONTINUOUS
 62
     7
100
AcDbLine
 10
260.0000000000011
 20
235.9558441227069
 30
0.0
 11
264.499999999998
 21
240.4558441227039
 31
0.0
  0
LINE
  5
DD
330
1F
100
AcDbEntity
  8
LAY-10
  6
CONTINUOUS
 62
     7
100
AcDbLine
 10
260.0000000000023
 20
233.1274169979621
 30
0.0
 11
264.4999999999992
 21
237.627416997959
 31
0.0
  0
LINE
  5
DE
330
1F
100
AcDbEntity
  8
LAY-10
  6
CONTINUOUS
 62
     7
100
AcDbLine
 10
259.9999999999999
 20
230.2989898732133
 30
0.0
 11
264.4999999999966
 21
234.7989898732103
 31
0.0
  0
LINE
  5
DF
330
1F
100
AcDbEntity
  8
LAY-10
  6
CONTINUOUS
 62
     7
100
AcDbLine
 10
260.0000000000011
 20
227.4705627484685
 30
0.0
 11
264.5000000000019
 21
231.9705627484692
 31
0.0
  0
LINE
  5
E0
330
1F
100
AcDbEntity
  8
LAY-10
  6
CONTINUOUS
 62
     7
100
AcDbLine
 10
260.0000000000023
 20
224.6421356237236
 30
0.0
 11
264.4999999999992
 21
229.1421356237204
 31
0.0
  0
LINE
  5
E1
330
1F
100
AcDbEntity
  8
LAY-10
  6
CONTINUOUS
 62
     7
100
AcDbLine
 10
260.0000000000036
 20
221.8137084989787
 30
0.0
 11
264.4999999999966
 21
226.3137084989717
 31
0.0
  0
LINE
  5
E2
330
1F
100
AcDbEntity
  8
LAY-10
  6
CONTINUOUS
 62
     7
100
AcDbLine
 10
260.0000000000009
 20
218.98528137423
 30
0.0
 11
264.4999999999978
 21
223.4852813742268
 31
0.0
  0
LINE
  5
E3
330
1F
100
AcDbEntity
  8
LAY-10
  6
CONTINUOUS
 62
     7
100
AcDbLine
 10
260.0000000000023
 20
216.156854249485
 30
0.0
 11
264.4999999999992
 21
220.656854249482
 31
0.0
  0
LINE
  5
E4
330
1F
100
AcDbEntity
  8
LAY-10
  6
CONTINUOUS
 62
     7
100
AcDbLine
 10
260.0000000000035
 20
213.3284271247402
 30
0.0
 11
264.4999999999965
 21
217.8284271247333
 31
0.0
  0
LINE
  5
E5
330
1F
100
AcDbEntity
  8
LAY-10
  6
CONTINUOUS
 62
     7
100
AcDbLine
 10
259.9999999999972
 20
210.4999999999876
 30
0.0
 11
264.4999999999978
 21
214.9999999999883
 31
0.0
  0
LINE
  5
E6
330
1F
100
AcDbEntity
  8
LAY-10
  6
CONTINUOUS
 62
     7
100
AcDbLine
 10
262.8284271247419
 20
210.4999999999863
 30
0.0
 11
264.499999999999
 21
212.1715728752434
 31
0.0
  0
LINE
  5
E7
330
1F
100
AcDbEntity
  8
LAY-10
  6
CONTINUOUS
 62
     7
100
AcDbLine
 10
395.4999999999967
 20
258.5832611206718
 30
0.0
 11
397.4167388793135
 21
260.4999999999885
 31
0.0
  0
LINE
  5
E8
330
1F
100
AcDbEntity
  8
LAY-10
  6
CONTINUOUS
 62
     7
100
AcDbLine
 10
395.4999999999979
 20
255.7548339959268
 30
0.0
 11
400.0000000000025
 21
260.2548339959314
 31
0.0
  0
LINE
  5
E9
330
1F
100
AcDbEntity
  8
LAY-10
  6
CONTINUOUS
 62
     7
100
AcDbLine
 10
395.4999999999953
 20
252.9264068711781
 30
0.0
 11
399.9999999999998
 21
257.4264068711827
 31
0.0
  0
LINE
  5
EA
330
1F
100
AcDbEntity
  8
LAY-10
  6
CONTINUOUS
 62
     7
100
AcDbLine
 10
395.4999999999965
 20
250.0979797464332
 30
0.0
 11
400.0000000000051
 21
254.5979797464416
 31
0.0
  0
LINE
  5
EB
330
1F
100
AcDbEntity
  8
LAY-10
  6
CONTINUOUS
 62
     7
100
AcDbLine
 10
395.4999999999977
 20
247.2695526216883
 30
0.0
 11
400.0000000000025
 21
251.7695526216929
 31
0.0
  0
LINE
  5
EC
330
1F
100
AcDbEntity
  8
LAY-10
  6
CONTINUOUS
 62
     7
100
AcDbLine
 10
395.4999999999953
 20
244.4411254969395
 30
0.0
 11
400.0000000000037
 21
248.941125496948
 31
0.0
  0
LINE
  5
ED
330
1F
100
AcDbEntity
  8
LAY-10
  6
CONTINUOUS
 62
     7
100
AcDbLine
 10
395.4999999999965
 20
241.6126983721946
 30
0.0
 11
400.0000000000011
 21
246.1126983721992
 31
0.0
  0
LINE
  5
EE
330
1F
100
AcDbEntity
  8
LAY-10
  6
CONTINUOUS
 62
     7
100
AcDbLine
 10
395.4999999999977
 20
238.7842712474498
 30
0.0
 11
400.0000000000025
 21
243.2842712474544
 31
0.0
  0
LINE
  5
EF
330
1F
100
AcDbEntity
  8
LAY-10
  6
CONTINUOUS
 62
     7
100
AcDbLine
 10
395.4999999999991
 20
235.9558441227049
 30
0.0
 11
400.0000000000037
 21
240.4558441227095
 31
0.0
  0
LINE
  5
F0
330
1F
100
AcDbEntity
  8
LAY-10
  6
CONTINUOUS
 62
     7
100
AcDbLine
 10
395.4999999999964
 20
233.1274169979562
 30
0.0
 11
400.0000000000011
 21
237.6274169979608
 31
0.0
  0
LINE
  5
F1
330
1F
100
AcDbEntity
  8
LAY-10
  6
CONTINUOUS
 62
     7
100
AcDbLine
 10
395.4999999999977
 20
230.2989898732113
 30
0.0
 11
400.0000000000023
 21
234.7989898732159
 31
0.0
  0
LINE
  5
F2
330
1F
100
AcDbEntity
  8
LAY-10
  6
CONTINUOUS
 62
     7
100
AcDbLine
 10
395.4999999999989
 20
227.4705627484664
 30
0.0
 11
400.0000000000035
 21
231.970562748471
 31
0.0
  0
LINE
  5
F3
330
1F
100
AcDbEntity
  8
LAY-10
  6
CONTINUOUS
 62
     7
100
AcDbLine
 10
395.4999999999964
 20
224.6421356237177
 30
0.0
 11
400.0000000000049
 21
229.1421356237261
 31
0.0
  0
LINE
  5
F4
330
1F
100
AcDbEntity
  8
LAY-10
  6
CONTINUOUS
 62
     7
100
AcDbLine
 10
395.4999999999977
 20
221.8137084989727
 30
0.0
 11
400.0000000000022
 21
226.3137084989773
 31
0.0
  0
LINE
  5
F5
330
1F
100
AcDbEntity
  8
LAY-10
  6
CONTINUOUS
 62
     7
100
AcDbLine
 10
395.499999999995
 20
218.985281374224
 30
0.0
 11
399.9999999999996
 21
223.4852813742286
 31
0.0
  0
LINE
  5
F6
330
1F
100
AcDbEntity
  8
LAY-10
  6
CONTINUOUS
 62
     7
100
AcDbLine
 10
395.4999999999964
 20
216.1568542494792
 30
0.0
 11
400.0000000000049
 21
220.6568542494876
 31
0.0
  0
LINE
  5
F7
330
1F
100
AcDbEntity
  8
LAY-10
  6
CONTINUOUS
 62
     7
100
AcDbLine
 10
395.4999999999976
 20
213.3284271247343
 30
0.0
 11
400.0000000000022
 21
217.8284271247389
 31
0.0
  0
LINE
  5
F8
330
1F
100
AcDbEntity
  8
LAY-10
  6
CONTINUOUS
 62
     7
100
AcDbLine
 10
395.5000000000027
 20
210.4999999999932
 30
0.0
 11
399.9999999999996
 21
214.9999999999902
 31
0.0
  0
LINE
  5
F9
330
1F
100
AcDbEntity
  8
LAY-10
  6
CONTINUOUS
 62
     7
100
AcDbLine
 10
398.3284271247475
 20
210.499999999992
 30
0.0
 11
400.0000000000047
 21
212.1715728752491
 31
0.0
  0
LINE
  5
FA
330
1F
100
AcDbEntity
  8
LAY-10
  6
CONTINUOUS
 62
     7
100
AcDbLine
 10
260.0000000000001
 20
210.4999999999899
 30
0.0
 11
400.0000000000001
 21
210.4999999999898
 31
0.0
  0
LINE
  5
FB
330
1F
100
AcDbEntity
  8
LAY-10
  6
CONTINUOUS
 62
     7
100
AcDbLine
 10
264.5000000000001
 20
260.4999999999899
 30
0.0
 11
264.4999999999999
 21
210.4999999999899
 31
0.0
  0
LINE
  5
FC
330
1F
100
AcDbEntity
  8
LAY-10
  6
CONTINUOUS
 62
     7
100
AcDbLine
 10
260.0000000000002
 20
260.4999999999899
 30
0.0
 11
260.0000000000001
 21
210.4999999999899
 31
0.0
  0
LINE
  5
FD
330
1F
100
AcDbEntity
  8
LAY-10
  6
CONTINUOUS
 62
     7
100
AcDbLine
 10
400.0000000000001
 20
260.4999999999898
 30
0.0
 11
400.0000000000001
 21
210.4999999999898
 31
0.0
  0
LINE
  5
FE
330
1F
100
AcDbEntity
  8
LAY-10
  6
CONTINUOUS
 62
     7
100
AcDbLine
 10
395.5000000000001
 20
260.4999999999898
 30
0.0
 11
395.5000000000003
 21
210.4999999999898
 31
0.0
  0
ARC
  5
FF
330
1F
100
AcDbEntity
  8
LAY-10
  6
CONTINUOUS
 62
     7
100
AcDbCircle
 10
520.5350767338488
 20
256.4999999999907
 30
0.0
 40
1.0
100
AcDbArc
 50
270.0000000000002
 51
357.9545915111146
  0
LINE
  5
100
330
1F
100
AcDbEntity
  8
LAY-10
  6
CONTINUOUS
 62
     7
100
AcDbLine
 10
521.5344395881963
 20
256.4643084694783
 30
0.0
 11
522.5000000000002
 21
283.4999999999905
 31
0.0
  0
ARC
  5
101
330
1F
100
AcDbEntity
  8
LAY-10
  6
CONTINUOUS
 62
     7
100
AcDbCircle
 10
509.9362997395672
 20
256.4999999999907
 30
0.0
 40
1.0
100
AcDbArc
 50
222.8567385737504
 51
270.0000000000002
  0
LINE
  5
102
330
1F
100
AcDbEntity
  8
LAY-10
  6
CONTINUOUS
 62
     7
100
AcDbLine
 10
509.203243068405
 20
255.8198324347065
 30
0.0
 11
497.4843260188002
 21
268.4499999999906
 31
0.0
  0
ARC
  5
103
330
1F
100
AcDbEntity
  8
LAY-10
  6
CONTINUOUS
 62
     7
100
AcDbCircle
 10
150.0637002604335
 20
256.4999999999896
 30
0.0
 40
1.0
100
AcDbArc
 50
270.0000000000002
 51
317.1432614262412
  0
LINE
  5
104
330
1F
100
AcDbEntity
  8
LAY-10
  6
CONTINUOUS
 62
     7
100
AcDbLine
 10
150.7967569315957
 20
255.8198324347054
 30
0.0
 11
162.5156739812003
 21
268.4499999999896
 31
0.0
  0
ARC
  5
105
330
1F
100
AcDbEntity
  8
LAY-10
  6
CONTINUOUS
 62
     7
100
AcDbCircle
 10
139.4649232661519
 20
256.4999999999895
 30
0.0
 40
1.0
100
AcDbArc
 50
182.0454084888871
 51
270.0000000000002
  0
LINE
  5
106
330
1F
100
AcDbEntity
  8
LAY-10
  6
CONTINUOUS
 62
     7
100
AcDbLine
 10
138.4655604118044
 20
256.4643084694771
 30
0.0
 11
137.5000000000002
 21
283.4999999999894
 31
0.0
  0
ARC
  5
107
330
1F
100
AcDbEntity
  8
LAY-10
  6
CONTINUOUS
 62
     7
100
AcDbCircle
 10
166.5851103552939
 20
275.1371556835272
 30
0.0
 40
3.000000000000002
100
AcDbArc
 50
212.0860359975942
 51
265.3405242291336
  0
LINE
  5
108
330
1F
100
AcDbEntity
  8
LAY-10
  6
CONTINUOUS
 62
     7
100
AcDbLine
 10
164.0433561327198
 20
273.5435793684339
 30
0.0
 11
159.6819638872305
 21
280.4999999999895
 31
0.0
  0
LINE
  5
109
330
1F
100
AcDbEntity
  8
LAY-10
  6
CONTINUOUS
 62
     7
100
AcDbLine
 10
166.3414095994478
 20
272.1470704102283
 30
0.0
 11
260.167103894678
 21
264.4999999999903
 31
0.0
  0
LINE
  5
10A
330
1F
100
AcDbEntity
  8
LAY-10
  6
CONTINUOUS
 62
     7
100
AcDbLine
 10
144.5000000000002
 20
280.4999999999894
 30
0.0
 11
142.4999999999982
 21
290.4999999999995
 31
0.0
  0
LINE
  5
10B
330
1F
100
AcDbEntity
  8
LAY-10
  6
CONTINUOUS
 62
     7
100
AcDbLine
 10
162.5156739812003
 20
268.4499999999896
 30
0.0
 11
260.0000000000003
 21
260.4999999999899
 31
0.0
  0
LINE
  5
10C
330
1F
100
AcDbEntity
  8
LAY-10
  6
CONTINUOUS
 62
     7
100
AcDbLine
 10
138.5
 20
290.4999999999894
 30
0.0
 11
137.5
 21
283.4999999999894
 31
0.0
  0
LINE
  5
10D
330
1F
100
AcDbEntity
  8
LAY-10
  6
CONTINUOUS
 62
     7
100
AcDbLine
 10
266.4553648783502
 20
255.4999999999898
 30
0.0
 11
279.0953560637445
 21
255.4999999999899
 31
0.0
  0
LINE
  5
10E
330
1F
100
AcDbEntity
  8
LAY-10
  6
CONTINUOUS
 62
     7
100
AcDbLine
 10
264.6745884719456
 20
260.4999999999899
 30
0.0
 11
260.0000000000001
 21
260.4999999999899
 31
0.0
  0
ARC
  5
10F
330
1F
100
AcDbEntity
  8
LAY-10
  6
CONTINUOUS
 62
     7
100
AcDbCircle
 10
270.5904540122484
 20
260.4999999999899
 30
0.0
 40
1.0
100
AcDbArc
 50
190.8172903790378
 51
270.0000000000002
  0
LINE
  5
110
330
1F
100
AcDbEntity
  8
LAY-10
  6
CONTINUOUS
 62
     7
100
AcDbLine
 10
269.6082233530629
 20
260.3123222651456
 30
0.0
 11
268.8080713071218
 21
264.4999999999903
 31
0.0
  0
LINE
  5
111
330
1F
100
AcDbEntity
  8
LAY-10
  6
CONTINUOUS
 62
     7
100
AcDbLine
 10
266.4553648783502
 20
255.4999999999898
 30
0.0
 11
265.6447309720909
 21
259.7425356250262
 31
0.0
  0
ARC
  5
112
330
1F
100
AcDbEntity
  8
LAY-10
  6
CONTINUOUS
 62
     7
100
AcDbCircle
 10
264.6745884719456
 20
259.4999999999899
 30
0.0
 40
1.0
100
AcDbArc
 50
14.03624346792567
 51
90.00000000000004
  0
ARC
  5
113
330
1F
100
AcDbEntity
  8
LAY-10
  6
CONTINUOUS
 62
     7
100
AcDbCircle
 10
279.0953560637445
 20
254.4999999999899
 30
0.0
 40
1.0
100
AcDbArc
 50
5.000644597558006
 51
90.00000000000004
  0
LINE
  5
114
330
1F
100
AcDbEntity
  8
LAY-10
  6
CONTINUOUS
 62
     7
100
AcDbLine
 10
280.0915497812405
 20
254.5871669502708
 30
0.0
 11
284.0116768893904
 21
215.4999999999899
 31
0.0
  0
ARC
  5
115
330
1F
100
AcDbEntity
  8
LAY-10
  6
CONTINUOUS
 62
     7
100
AcDbCircle
 10
280.9127144124532
 20
256.4999999999899
 30
0.0
 40
3.000000000000002
100
AcDbArc
 50
5.000644597558006
 51
90.00000000000004
  0
LINE
  5
116
330
1F
100
AcDbEntity
  8
LAY-10
  6
CONTINUOUS
 62
     7
100
AcDbLine
 10
283.9012955649414
 20
256.7615008508326
 30
0.0
 11
288.0116768893904
 21
215.4999999999899
 31
0.0
  0
LINE
  5
117
330
1F
100
AcDbEntity
  8
LAY-10
  6
CONTINUOUS
 62
     7
100
AcDbLine
 10
160.2648521335624
 20
279.5702932470795
 30
0.0
 11
499.7351478664314
 21
279.5702932470804
 31
0.0
  0
LINE
  5
118
330
1F
100
AcDbEntity
  8
LAY-10
  6
CONTINUOUS
 62
     7
100
AcDbLine
 10
515.5000000000002
 20
280.4999999999905
 30
0.0
 11
517.5000000000023
 21
290.5000000000007
 31
0.0
  0
LINE
  5
119
330
1F
100
AcDbEntity
  8
LAY-10
  6
CONTINUOUS
 62
     7
100
AcDbLine
 10
495.1576923075343
 20
272.2692516306392
 30
0.0
 11
500.3180361127699
 21
280.4999999999905
 31
0.0
  0
LINE
  5
11A
330
1F
100
AcDbEntity
  8
LAY-10
  6
CONTINUOUS
 62
     7
100
AcDbLine
 10
495.1576923075343
 20
272.2692516306392
 30
0.0
 11
399.8328961053226
 21
264.4999999999908
 31
0.0
  0
LINE
  5
11B
330
1F
100
AcDbEntity
  8
LAY-10
  6
CONTINUOUS
 62
     7
100
AcDbLine
 10
497.4843260188002
 20
268.4499999999906
 30
0.0
 11
400.0000000000003
 21
260.4999999999903
 31
0.0
  0
LINE
  5
11C
330
1F
100
AcDbEntity
  8
LAY-10
  6
CONTINUOUS
 62
     7
100
AcDbLine
 10
521.5000000000005
 20
290.4999999999905
 30
0.0
 11
522.5000000000005
 21
283.4999999999905
 31
0.0
  0
LINE
  5
11D
330
1F
100
AcDbEntity
  8
LAY-10
  6
CONTINUOUS
 62
     7
100
AcDbLine
 10
270.5904540122502
 20
259.4999999999899
 30
0.0
 11
389.4095459877504
 21
259.4999999999903
 31
0.0
  0
LINE
  5
11E
330
1F
100
AcDbEntity
  8
LAY-10
  6
CONTINUOUS
 62
     7
100
AcDbLine
 10
399.8328961053226
 20
264.4999999999908
 30
0.0
 11
260.167103894678
 21
264.4999999999903
 31
0.0
  0
LINE
  5
11F
330
1F
100
AcDbEntity
  8
LAY-10
  6
CONTINUOUS
 62
     7
100
AcDbLine
 10
393.5446351216504
 20
255.4999999999903
 30
0.0
 11
380.904643936256
 21
255.4999999999903
 31
0.0
  0
LINE
  5
120
330
1F
100
AcDbEntity
  8
LAY-10
  6
CONTINUOUS
 62
     7
100
AcDbLine
 10
395.325411528055
 20
260.4999999999903
 30
0.0
 11
400.0000000000005
 21
260.4999999999903
 31
0.0
  0
ARC
  5
121
330
1F
100
AcDbEntity
  8
LAY-10
  6
CONTINUOUS
 62
     7
100
AcDbCircle
 10
389.4095459877522
 20
260.4999999999903
 30
0.0
 40
1.0
100
AcDbArc
 50
270.0000000000002
 51
349.1827096209553
  0
LINE
  5
122
330
1F
100
AcDbEntity
  8
LAY-10
  6
CONTINUOUS
 62
     7
100
AcDbLine
 10
390.3917766469377
 20
260.312322265146
 30
0.0
 11
391.1919286928788
 21
264.4999999999907
 31
0.0
  0
LINE
  5
123
330
1F
100
AcDbEntity
  8
LAY-10
  6
CONTINUOUS
 62
     7
100
AcDbLine
 10
393.5446351216504
 20
255.4999999999903
 30
0.0
 11
394.3552690279096
 21
259.7425356250265
 31
0.0
  0
ARC
  5
124
330
1F
100
AcDbEntity
  8
LAY-10
  6
CONTINUOUS
 62
     7
100
AcDbCircle
 10
395.325411528055
 20
259.4999999999903
 30
0.0
 40
1.0
100
AcDbArc
 50
90.00000000000004
 51
165.9637565320799
  0
ARC
  5
125
330
1F
100
AcDbEntity
  8
LAY-10
  6
CONTINUOUS
 62
     7
100
AcDbCircle
 10
380.904643936256
 20
254.4999999999902
 30
0.0
 40
1.0
100
AcDbArc
 50
90.00000000000004
 51
174.9993554024485
  0
LINE
  5
126
330
1F
100
AcDbEntity
  8
LAY-10
  6
CONTINUOUS
 62
     7
100
AcDbLine
 10
379.90845021876
 20
254.587166950271
 30
0.0
 11
375.9883231106105
 21
215.4999999999902
 31
0.0
  0
ARC
  5
127
330
1F
100
AcDbEntity
  8
LAY-10
  6
CONTINUOUS
 62
     7
100
AcDbCircle
 10
379.0872855875473
 20
256.4999999999902
 30
0.0
 40
3.000000000000002
100
AcDbArc
 50
90.00000000000004
 51
174.999355402442
  0
LINE
  5
128
330
1F
100
AcDbEntity
  8
LAY-10
  6
CONTINUOUS
 62
     7
100
AcDbLine
 10
376.0987044350591
 20
256.7615008508329
 30
0.0
 11
371.9883231106105
 21
215.4999999999902
 31
0.0
  0
LINE
  5
129
330
1F
100
AcDbEntity
  8
LAY-10
  6
CONTINUOUS
 62
     7
100
AcDbLine
 10
375.9883231106103
 20
215.4999999999902
 30
0.0
 11
284.0116768893904
 21
215.4999999999899
 31
0.0
  0
LINE
  5
12A
330
1F
100
AcDbEntity
  8
LAY-10
  6
CONTINUOUS
 62
     7
100
AcDbLine
 10
492.5000000000001
 20
304.4999999999906
 30
0.0
 11
493.0000000000001
 21
310.4999999999906
 31
0.0
  0
LINE
  5
12B
330
1F
100
AcDbEntity
  8
LAY-10
  6
CONTINUOUS
 62
     7
100
AcDbLine
 10
474.7810086836474
 20
298.2519305308122
 30
0.0
 11
474.0000000000001
 21
304.4999999999906
 31
0.0
  0
ARC
  5
12C
330
1F
100
AcDbEntity
  8
LAY-10
  6
CONTINUOUS
 62
     7
100
AcDbCircle
 10
476.7655644370748
 20
298.4999999999906
 30
0.0
 40
2.0
100
AcDbArc
 50
187.1250163489017
 51
270.0000000000002
  0
LINE
  5
12D
330
1F
100
AcDbEntity
  8
LAY-10
  6
CONTINUOUS
 62
     7
100
AcDbLine
 10
401.4201358787262
 20
289.4167389105656
 30
0.0
 11
401.0000000000002
 21
299.4999999999903
 31
0.0
  0
ARC
  5
12E
330
1F
100
AcDbEntity
  8
LAY-10
  6
CONTINUOUS
 62
     7
100
AcDbCircle
 10
403.4184020249109
 20
289.4999999999901
 30
0.0
 40
2.0
100
AcDbArc
 50
182.3859440303919
 51
270.0000000000016
  0
LINE
  5
12F
330
1F
100
AcDbEntity
  8
LAY-10
  6
CONTINUOUS
 62
     7
100
AcDbLine
 10
404.5579586645067
 20
287.4999999999901
 30
0.0
 11
403.4184020249109
 21
287.4999999999901
 31
0.0
  0
ARC
  5
130
330
1F
100
AcDbEntity
  8
LAY-10
  6
CONTINUOUS
 62
     7
100
AcDbCircle
 10
404.5579586645067
 20
289.4999999999901
 30
0.0
 40
2.0
100
AcDbArc
 50
270.0000000000016
 51
358.3153156821036
  0
LINE
  5
131
330
1F
100
AcDbEntity
  8
LAY-10
  6
CONTINUOUS
 62
     7
100
AcDbLine
 10
258.5798641212742
 20
289.4167389105651
 30
0.0
 11
259.0000000000002
 21
299.4999999999898
 31
0.0
  0
ARC
  5
132
330
1F
100
AcDbEntity
  8
LAY-10
  6
CONTINUOUS
 62
     7
100
AcDbCircle
 10
256.5815979750894
 20
289.4999999999896
 30
0.0
 40
2.0
100
AcDbArc
 50
270.0000000000016
 51
357.6140559696083
  0
LINE
  5
133
330
1F
100
AcDbEntity
  8
LAY-10
  6
CONTINUOUS
 62
     7
100
AcDbLine
 10
255.4420413354937
 20
287.4999999999896
 30
0.0
 11
256.5815979750895
 21
287.4999999999896
 31
0.0
  0
ARC
  5
134
330
1F
100
AcDbEntity
  8
LAY-10
  6
CONTINUOUS
 62
     7
100
AcDbCircle
 10
255.4420413354937
 20
289.4999999999896
 30
0.0
 40
2.0
100
AcDbArc
 50
181.6846843178969
 51
270.0000000000016
  0
ARC
  5
135
330
1F
100
AcDbEntity
  8
LAY-10
  6
CONTINUOUS
 62
     7
100
AcDbCircle
 10
510.642405670808
 20
284.4999999999907
 30
0.0
 40
2.0
100
AcDbArc
 50
5.000000000000203
 51
90.00000000000004
  0
LINE
  5
136
330
1F
100
AcDbEntity
  8
LAY-10
  6
CONTINUOUS
 62
     7
100
AcDbLine
 10
502.4000000000002
 20
286.4999999999906
 30
0.0
 11
503.0000000000002
 21
280.4999999999907
 31
0.0
  0
LINE
  5
137
330
1F
100
AcDbEntity
  8
LAY-10
  6
CONTINUOUS
 62
     7
100
AcDbLine
 10
512.6347950669916
 20
284.674311485486
 30
0.0
 11
512.9999999999984
 21
280.4999999999907
 31
0.0
  0
LINE
  5
138
330
1F
100
AcDbEntity
  8
LAY-10
  6
CONTINUOUS
 62
     7
100
AcDbLine
 10
510.642405670808
 20
286.4999999999907
 30
0.0
 11
501.2099751242243
 21
286.4999999999906
 31
0.0
  0
ARC
  5
139
330
1F
100
AcDbEntity
  8
LAY-10
  6
CONTINUOUS
 62
     7
100
AcDbCircle
 10
501.2099751242243
 20
288.4999999999906
 30
0.0
 40
2.0
100
AcDbArc
 50
185.7105931374976
 51
270.0000000000002
  0
ARC
  5
13A
330
1F
100
AcDbEntity
  8
LAY-10
  6
CONTINUOUS
 62
     7
100
AcDbCircle
 10
491.5650870652162
 20
294.4999999999906
 30
0.0
 40
2.0
100
AcDbArc
 50
5.710593137497235
 51
90.00000000000004
  0
LINE
  5
13B
330
1F
100
AcDbEntity
  8
LAY-10
  6
CONTINUOUS
 62
     7
100
AcDbLine
 10
493.5551614456365
 20
294.6990074380303
 30
0.0
 11
494.9750621894404
 21
280.4999999999906
 31
0.0
  0
LINE
  5
13C
330
1F
100
AcDbEntity
  8
LAY-10
  6
CONTINUOUS
 62
     7
100
AcDbLine
 10
497.0000000000001
 20
310.4999999999906
 30
0.0
 11
499.2199007438041
 21
288.300992561951
 31
0.0
  0
LINE
  5
13D
330
1F
100
AcDbEntity
  8
LAY-10
  6
CONTINUOUS
 62
     7
100
AcDbLine
 10
167.5000000000001
 20
304.4999999999895
 30
0.0
 11
167.0000000000001
 21
310.4999999999895
 31
0.0
  0
LINE
  5
13E
330
1F
100
AcDbEntity
  8
LAY-10
  6
CONTINUOUS
 62
     7
100
AcDbLine
 10
185.2189913163529
 20
298.2519305308112
 30
0.0
 11
186.0000000000001
 21
304.4999999999896
 31
0.0
  0
ARC
  5
13F
330
1F
100
AcDbEntity
  8
LAY-10
  6
CONTINUOUS
 62
     7
100
AcDbCircle
 10
183.2344355629255
 20
298.4999999999896
 30
0.0
 40
2.0
100
AcDbArc
 50
270.0000000000002
 51
352.8749836510988
  0
ARC
  5
140
330
1F
100
AcDbEntity
  8
LAY-10
  6
CONTINUOUS
 62
     7
100
AcDbCircle
 10
149.3575943291923
 20
284.4999999999895
 30
0.0
 40
2.0
100
AcDbArc
 50
90.00000000000004
 51
175.0000000000005
  0
LINE
  5
141
330
1F
100
AcDbEntity
  8
LAY-10
  6
CONTINUOUS
 62
     7
100
AcDbLine
 10
157.6000000000002
 20
286.4999999999895
 30
0.0
 11
157.0000000000002
 21
280.4999999999895
 31
0.0
  0
LINE
  5
142
330
1F
100
AcDbEntity
  8
LAY-10
  6
CONTINUOUS
 62
     7
100
AcDbLine
 10
147.3652049330088
 20
284.6743114854848
 30
0.0
 11
147.000000000002
 21
280.4999999999894
 31
0.0
  0
LINE
  5
143
330
1F
100
AcDbEntity
  8
LAY-10
  6
CONTINUOUS
 62
     7
100
AcDbLine
 10
149.3575943291923
 20
286.4999999999895
 30
0.0
 11
158.7900248757761
 21
286.4999999999895
 31
0.0
  0
ARC
  5
144
330
1F
100
AcDbEntity
  8
LAY-10
  6
CONTINUOUS
 62
     7
100
AcDbCircle
 10
158.7900248757761
 20
288.4999999999895
 30
0.0
 40
2.0
100
AcDbArc
 50
270.0000000000002
 51
354.2894068625026
  0
ARC
  5
145
330
1F
100
AcDbEntity
  8
LAY-10
  6
CONTINUOUS
 62
     7
100
AcDbCircle
 10
168.4349129347841
 20
294.4999999999895
 30
0.0
 40
2.0
100
AcDbArc
 50
90.00000000000004
 51
174.2894068625029
  0
LINE
  5
146
330
1F
100
AcDbEntity
  8
LAY-10
  6
CONTINUOUS
 62
     7
100
AcDbLine
 10
166.4448385543639
 20
294.6990074380292
 30
0.0
 11
165.02493781056
 21
280.4999999999895
 31
0.0
  0
LINE
  5
147
330
1F
100
AcDbEntity
  8
LAY-10
  6
CONTINUOUS
 62
     7
100
AcDbLine
 10
163.0000000000001
 20
310.4999999999895
 30
0.0
 11
160.7800992561963
 21
288.3009925619499
 31
0.0
  0
LINE
  5
148
330
1F
100
AcDbEntity
  8
LAY-10
  6
CONTINUOUS
 62
     7
100
AcDbLine
 10
394.5000000000002
 20
289.9999999999903
 30
0.0
 11
394.8275862068967
 21
299.4999999999903
 31
0.0
  0
LINE
  5
149
330
1F
100
AcDbEntity
  8
LAY-10
  6
CONTINUOUS
 62
     7
100
AcDbLine
 10
394.5000000000002
 20
289.9999999999903
 30
0.0
 11
265.5000000000002
 21
289.9999999999899
 31
0.0
  0
LINE
  5
14A
330
1F
100
AcDbEntity
  8
LAY-10
  6
CONTINUOUS
 62
     7
100
AcDbLine
 10
265.5000000000002
 20
289.9999999999899
 30
0.0
 11
265.1724137931037
 21
299.4999999999899
 31
0.0
  0
LINE
  5
14B
330
1F
100
AcDbEntity
  8
LAY-10
  6
CONTINUOUS
 62
     7
100
AcDbLine
 10
406.5570941734354
 20
289.4412018967863
 30
0.0
 11
406.8529411764708
 21
299.4999999999903
 31
0.0
  0
LINE
  5
14C
330
1F
100
AcDbEntity
  8
LAY-10
  6
CONTINUOUS
 62
     7
100
AcDbLine
 10
253.442905826565
 20
289.4412018967858
 30
0.0
 11
253.1470588235296
 21
299.4999999999898
 31
0.0
  0
LINE
  5
14D
330
1F
100
AcDbEntity
  8
LAY-10
  6
CONTINUOUS
 62
     7
100
AcDbLine
 10
264.5285714285716
 20
310.4999999999899
 30
0.0
 11
163.0000000000001
 21
310.4999999999895
 31
0.0
  0
LINE
  5
14E
330
1F
100
AcDbEntity
  8
LAY-10
  6
CONTINUOUS
 62
     7
100
AcDbLine
 10
497.0000000000001
 20
310.4999999999906
 30
0.0
 11
395.4714285714286
 21
310.4999999999903
 31
0.0
  0
LINE
  5
14F
330
1F
100
AcDbEntity
  8
LAY-10
  6
CONTINUOUS
 62
     7
100
AcDbLine
 10
402.0000000000011
 20
309.9999999999903
 30
0.0
 11
492.0000000000011
 21
309.9999999999907
 31
0.0
  0
LINE
  5
150
330
1F
100
AcDbEntity
  8
LAY-10
  6
CONTINUOUS
 62
     7
100
AcDbLine
 10
491.5000000000011
 20
304.4999999999907
 30
0.0
 11
492.0000000000011
 21
309.9999999999907
 31
0.0
  0
LINE
  5
151
330
1F
100
AcDbEntity
  8
LAY-10
  6
CONTINUOUS
 62
     7
100
AcDbLine
 10
470.0000000000011
 20
309.9999999999907
 30
0.0
 11
470.5000000000011
 21
304.4999999999907
 31
0.0
  0
LINE
  5
152
330
1F
100
AcDbEntity
  8
LAY-10
  6
CONTINUOUS
 62
     7
100
AcDbLine
 10
479.9999999999311
 20
306.9999999999906
 30
0.0
 11
479.9999999999311
 21
304.4999999999906
 31
0.0
  0
LINE
  5
153
330
1F
100
AcDbEntity
  8
LAY-10
  6
CONTINUOUS
 62
     7
100
AcDbLine
 10
487.9999999999311
 20
306.9999999999906
 30
0.0
 11
487.9999999999311
 21
304.4999999999906
 31
0.0
  0
LINE
  5
154
330
1F
100
AcDbEntity
  8
LAY-10
  6
CONTINUOUS
 62
     7
100
AcDbLine
 10
490.2499999999311
 20
309.9999999999906
 30
0.0
 11
487.9999999999311
 21
306.9999999999906
 31
0.0
  0
LINE
  5
155
330
1F
100
AcDbEntity
  8
LAY-10
  6
CONTINUOUS
 62
     7
100
AcDbLine
 10
477.7499999999311
 20
309.9999999999906
 30
0.0
 11
479.9999999999311
 21
306.9999999999906
 31
0.0
  0
LINE
  5
156
330
1F
100
AcDbEntity
  8
LAY-10
  6
CONTINUOUS
 62
     7
100
AcDbLine
 10
480.9999999999304
 20
306.5999999999908
 30
0.0
 11
486.9999999999302
 21
306.5999999999908
 31
0.0
  0
LINE
  5
157
330
1F
100
AcDbEntity
  8
LAY-10
  6
CONTINUOUS
 62
     7
100
AcDbLine
 10
477.9999999999302
 20
309.5999999999908
 30
0.0
 11
483.3999999999302
 21
309.5999999999908
 31
0.0
  0
LINE
  5
158
330
1F
100
AcDbEntity
  8
LAY-10
  6
CONTINUOUS
 62
     7
100
AcDbLine
 10
477.9999999999302
 20
309.5999999999908
 30
0.0
 11
477.9999999999302
 21
309.9999999999908
 31
0.0
  0
LINE
  5
159
330
1F
100
AcDbEntity
  8
LAY-10
  6
CONTINUOUS
 62
     7
100
AcDbLine
 10
489.9999999999302
 20
309.9999999999908
 30
0.0
 11
489.9999999999302
 21
309.5999999999909
 31
0.0
  0
LINE
  5
15A
330
1F
100
AcDbEntity
  8
LAY-10
  6
CONTINUOUS
 62
     7
100
AcDbLine
 10
486.9999999999302
 20
306.5999999999908
 30
0.0
 11
489.9999999999302
 21
309.5999999999909
 31
0.0
  0
LINE
  5
15B
330
1F
100
AcDbEntity
  8
LAY-10
  6
CONTINUOUS
 62
     7
100
AcDbLine
 10
480.9999999999302
 20
306.5999999999909
 30
0.0
 11
477.9999999999302
 21
309.5999999999909
 31
0.0
  0
LINE
  5
15C
330
1F
100
AcDbEntity
  8
LAY-10
  6
CONTINUOUS
 62
     7
100
AcDbLine
 10
486.9999999999302
 20
306.5999999999908
 30
0.0
 11
486.9999999999302
 21
295.0999999999908
 31
0.0
  0
LINE
  5
15D
330
1F
100
AcDbEntity
  8
LAY-10
  6
CONTINUOUS
 62
     7
100
AcDbLine
 10
480.9999999999302
 20
306.5999999999908
 30
0.0
 11
480.9999999999302
 21
295.0999999999908
 31
0.0
  0
LINE
  5
15E
330
1F
100
AcDbEntity
  8
LAY-10
  6
CONTINUOUS
 62
     7
100
AcDbLine
 10
481.4999999999304
 20
294.5999999999908
 30
0.0
 11
486.4999999999303
 21
294.5999999999908
 31
0.0
  0
LINE
  5
15F
330
1F
100
AcDbEntity
  8
LAY-10
  6
CONTINUOUS
 62
     7
100
AcDbLine
 10
480.9999999999302
 20
295.0999999999908
 30
0.0
 11
486.9999999999302
 21
295.0999999999908
 31
0.0
  0
LINE
  5
160
330
1F
100
AcDbEntity
  8
LAY-10
  6
CONTINUOUS
 62
     7
100
AcDbLine
 10
480.9999999999302
 20
295.0999999999908
 30
0.0
 11
481.4999999999304
 21
294.5999999999909
 31
0.0
  0
LINE
  5
161
330
1F
100
AcDbEntity
  8
LAY-10
  6
CONTINUOUS
 62
     7
100
AcDbLine
 10
486.4999999999307
 20
294.5999999999909
 30
0.0
 11
486.9999999999302
 21
295.0999999999908
 31
0.0
  0
LINE
  5
162
330
1F
100
AcDbEntity
  8
LAY-10
  6
CONTINUOUS
 62
     7
100
AcDbLine
 10
483.3999999999302
 20
309.9999999999908
 30
0.0
 11
483.3999999999302
 21
308.5999999999908
 31
0.0
  0
LINE
  5
163
330
1F
100
AcDbEntity
  8
LAY-10
  6
CONTINUOUS
 62
     7
100
AcDbLine
 10
484.5999999999303
 20
309.9999999999908
 30
0.0
 11
484.5999999999303
 21
308.5999999999908
 31
0.0
  0
LINE
  5
164
330
1F
100
AcDbEntity
  8
LAY-10
  6
CONTINUOUS
 62
     7
100
AcDbLine
 10
483.3999999999302
 20
308.5999999999908
 30
0.0
 11
484.5999999999303
 21
308.5999999999908
 31
0.0
  0
LINE
  5
165
330
1F
100
AcDbEntity
  8
LAY-10
  6
CONTINUOUS
 62
     7
100
AcDbLine
 10
484.5999999999303
 20
309.5999999999908
 30
0.0
 11
489.9999999999302
 21
309.5999999999909
 31
0.0
  0
LINE
  5
166
330
1F
100
AcDbEntity
  8
LAY-10
  6
CONTINUOUS
 62
     7
100
AcDbLine
 10
480.5999999999306
 20
306.9999999999906
 30
0.0
 11
479.9999999999311
 21
306.9999999999906
 31
0.0
  0
LINE
  5
167
330
1F
100
AcDbEntity
  8
LAY-10
  6
CONTINUOUS
 62
     7
100
AcDbLine
 10
487.9999999999311
 20
306.9999999999906
 30
0.0
 11
487.3999999999299
 21
306.9999999999906
 31
0.0
  0
LINE
  5
168
330
1F
100
AcDbEntity
  8
LAY-10
  6
CONTINUOUS
 62
     7
100
AcDbLine
 10
481.4999999999304
 20
304.4999999999906
 30
0.0
 11
400.0000000000001
 21
304.4999999999903
 31
0.0
  0
LINE
  5
169
330
1F
100
AcDbEntity
  8
LAY-10
  6
CONTINUOUS
 62
     7
100
AcDbLine
 10
258.0000000000001
 20
309.9999999999899
 30
0.0
 11
168.0000000000001
 21
309.9999999999897
 31
0.0
  0
LINE
  5
16A
330
1F
100
AcDbEntity
  8
LAY-10
  6
CONTINUOUS
 62
     7
100
AcDbLine
 10
168.5000000000001
 20
304.4999999999897
 30
0.0
 11
168.0000000000001
 21
309.9999999999897
 31
0.0
  0
LINE
  5
16B
330
1F
100
AcDbEntity
  8
LAY-10
  6
CONTINUOUS
 62
     7
100
AcDbLine
 10
190.0000000000001
 20
309.9999999999897
 30
0.0
 11
189.5000000000001
 21
304.4999999999897
 31
0.0
  0
LINE
  5
16C
330
1F
100
AcDbEntity
  8
LAY-10
  6
CONTINUOUS
 62
     7
100
AcDbLine
 10
171.9999999999301
 20
306.9999999999895
 30
0.0
 11
171.9999999999301
 21
304.4999999999895
 31
0.0
  0
LINE
  5
16D
330
1F
100
AcDbEntity
  8
LAY-10
  6
CONTINUOUS
 62
     7
100
AcDbLine
 10
179.9999999999301
 20
306.9999999999896
 30
0.0
 11
179.9999999999301
 21
304.4999999999896
 31
0.0
  0
LINE
  5
16E
330
1F
100
AcDbEntity
  8
LAY-10
  6
CONTINUOUS
 62
     7
100
AcDbLine
 10
182.2499999999301
 20
309.9999999999896
 30
0.0
 11
179.9999999999301
 21
306.9999999999896
 31
0.0
  0
LINE
  5
16F
330
1F
100
AcDbEntity
  8
LAY-10
  6
CONTINUOUS
 62
     7
100
AcDbLine
 10
169.7499999999301
 20
309.9999999999895
 30
0.0
 11
171.9999999999301
 21
306.9999999999895
 31
0.0
  0
LINE
  5
170
330
1F
100
AcDbEntity
  8
LAY-10
  6
CONTINUOUS
 62
     7
100
AcDbLine
 10
172.9999999999294
 20
306.5999999999898
 30
0.0
 11
178.9999999999292
 21
306.5999999999898
 31
0.0
  0
LINE
  5
171
330
1F
100
AcDbEntity
  8
LAY-10
  6
CONTINUOUS
 62
     7
100
AcDbLine
 10
169.9999999999292
 20
309.5999999999898
 30
0.0
 11
175.3999999999293
 21
309.5999999999898
 31
0.0
  0
LINE
  5
172
330
1F
100
AcDbEntity
  8
LAY-10
  6
CONTINUOUS
 62
     7
100
AcDbLine
 10
169.9999999999292
 20
309.5999999999898
 30
0.0
 11
169.9999999999292
 21
309.9999999999898
 31
0.0
  0
LINE
  5
173
330
1F
100
AcDbEntity
  8
LAY-10
  6
CONTINUOUS
 62
     7
100
AcDbLine
 10
181.9999999999292
 20
309.9999999999898
 30
0.0
 11
181.9999999999292
 21
309.5999999999898
 31
0.0
  0
LINE
  5
174
330
1F
100
AcDbEntity
  8
LAY-10
  6
CONTINUOUS
 62
     7
100
AcDbLine
 10
178.9999999999292
 20
306.5999999999898
 30
0.0
 11
181.9999999999292
 21
309.5999999999898
 31
0.0
  0
LINE
  5
175
330
1F
100
AcDbEntity
  8
LAY-10
  6
CONTINUOUS
 62
     7
100
AcDbLine
 10
172.9999999999292
 20
306.5999999999899
 30
0.0
 11
169.9999999999292
 21
309.5999999999899
 31
0.0
  0
LINE
  5
176
330
1F
100
AcDbEntity
  8
LAY-10
  6
CONTINUOUS
 62
     7
100
AcDbLine
 10
178.9999999999292
 20
306.5999999999898
 30
0.0
 11
178.9999999999292
 21
295.0999999999898
 31
0.0
  0
LINE
  5
177
330
1F
100
AcDbEntity
  8
LAY-10
  6
CONTINUOUS
 62
     7
100
AcDbLine
 10
172.9999999999292
 20
306.5999999999898
 30
0.0
 11
172.9999999999292
 21
295.0999999999898
 31
0.0
  0
LINE
  5
178
330
1F
100
AcDbEntity
  8
LAY-10
  6
CONTINUOUS
 62
     7
100
AcDbLine
 10
173.4999999999295
 20
294.5999999999898
 30
0.0
 11
178.4999999999292
 21
294.5999999999898
 31
0.0
  0
LINE
  5
179
330
1F
100
AcDbEntity
  8
LAY-10
  6
CONTINUOUS
 62
     7
100
AcDbLine
 10
172.9999999999292
 20
295.0999999999898
 30
0.0
 11
178.9999999999292
 21
295.0999999999898
 31
0.0
  0
LINE
  5
17A
330
1F
100
AcDbEntity
  8
LAY-10
  6
CONTINUOUS
 62
     7
100
AcDbLine
 10
172.9999999999292
 20
295.0999999999898
 30
0.0
 11
173.4999999999295
 21
294.5999999999899
 31
0.0
  0
LINE
  5
17B
330
1F
100
AcDbEntity
  8
LAY-10
  6
CONTINUOUS
 62
     7
100
AcDbLine
 10
178.4999999999297
 20
294.5999999999899
 30
0.0
 11
178.9999999999292
 21
295.0999999999898
 31
0.0
  0
LINE
  5
17C
330
1F
100
AcDbEntity
  8
LAY-10
  6
CONTINUOUS
 62
     7
100
AcDbLine
 10
175.3999999999293
 20
309.9999999999898
 30
0.0
 11
175.3999999999293
 21
308.5999999999898
 31
0.0
  0
LINE
  5
17D
330
1F
100
AcDbEntity
  8
LAY-10
  6
CONTINUOUS
 62
     7
100
AcDbLine
 10
176.5999999999293
 20
309.9999999999898
 30
0.0
 11
176.5999999999293
 21
308.5999999999898
 31
0.0
  0
LINE
  5
17E
330
1F
100
AcDbEntity
  8
LAY-10
  6
CONTINUOUS
 62
     7
100
AcDbLine
 10
175.3999999999293
 20
308.5999999999898
 30
0.0
 11
176.5999999999293
 21
308.5999999999898
 31
0.0
  0
LINE
  5
17F
330
1F
100
AcDbEntity
  8
LAY-10
  6
CONTINUOUS
 62
     7
100
AcDbLine
 10
176.5999999999293
 20
309.5999999999898
 30
0.0
 11
181.9999999999292
 21
309.5999999999898
 31
0.0
  0
LINE
  5
180
330
1F
100
AcDbEntity
  8
LAY-10
  6
CONTINUOUS
 62
     7
100
AcDbLine
 10
172.5999999999296
 20
306.9999999999895
 30
0.0
 11
171.9999999999301
 21
306.9999999999895
 31
0.0
  0
LINE
  5
181
330
1F
100
AcDbEntity
  8
LAY-10
  6
CONTINUOUS
 62
     7
100
AcDbLine
 10
179.9999999999301
 20
306.9999999999896
 30
0.0
 11
179.399999999929
 21
306.9999999999896
 31
0.0
  0
LINE
  5
182
330
1F
100
AcDbEntity
  8
LAY-10
  6
CONTINUOUS
 62
     7
100
AcDbLine
 10
161.0000000000002
 20
290.4999999999895
 30
0.0
 11
138.5
 21
290.4999999999894
 31
0.0
  0
LINE
  5
183
330
1F
100
AcDbEntity
  8
LAY-10
  6
CONTINUOUS
 62
     7
100
AcDbLine
 10
143.0000000000013
 20
287.6847737498531
 30
0.0
 11
147.6304553707389
 21
285.5084597256067
 31
0.0
  0
LINE
  5
184
330
1F
100
AcDbEntity
  8
LAY-10
  6
CONTINUOUS
 62
     7
100
AcDbLine
 10
516.9999999999991
 20
287.6847737498542
 30
0.0
 11
512.3695446292616
 21
285.5084597256077
 31
0.0
  0
LINE
  5
185
330
1F
100
AcDbEntity
  8
LAY-10
  6
CONTINUOUS
 62
     7
100
AcDbLine
 10
521.5000000000002
 20
290.4999999999905
 30
0.0
 11
499.0000000000002
 21
290.4999999999904
 31
0.0
  0
LINE
  5
186
330
1F
100
AcDbEntity
  8
LAY-10
  6
CONTINUOUS
 62
     7
100
AcDbLine
 10
150.5000000000305
 20
270.9999999999891
 30
0.0
 11
155.5000000000305
 21
270.9999999999891
 31
0.0
  0
LINE
  5
187
330
1F
100
AcDbEntity
  8
LAY-10
  6
CONTINUOUS
 62
     7
100
AcDbLine
 10
155.5000000000305
 20
270.9999999999891
 30
0.0
 11
153.0000000000303
 21
269.5566243270151
 31
0.0
  0
LINE
  5
188
330
1F
100
AcDbEntity
  8
LAY-10
  6
CONTINUOUS
 62
     7
100
AcDbLine
 10
153.0000000000303
 20
269.5566243270151
 30
0.0
 11
150.5000000000305
 21
270.9999999999891
 31
0.0
  0
ARC
  5
189
330
1F
100
AcDbEntity
  8
LAY-10
  6
CONTINUOUS
 62
     7
100
AcDbCircle
 10
151.2500000000304
 20
286.385749299389
 30
0.0
 40
3.500000000000002
100
AcDbArc
 50
128.6821874534945
 51
178.1293582694078
  0
ARC
  5
18A
330
1F
100
AcDbEntity
  8
LAY-10
  6
CONTINUOUS
 62
     7
100
AcDbCircle
 10
154.7500000000302
 20
286.385749299389
 30
0.0
 40
3.500000000000002
100
AcDbArc
 50
1.870641730603853
 51
51.31781254649624
  0
LINE
  5
18B
330
1F
100
AcDbEntity
  8
LAY-10
  6
CONTINUOUS
 62
     7
100
AcDbLine
 10
158.2481347569303
 20
286.4999999999891
 30
0.0
 11
147.7518652431304
 21
286.4999999999891
 31
0.0
  0
LINE
  5
18C
330
1F
100
AcDbEntity
  8
LAY-10
  6
CONTINUOUS
 62
     7
100
AcDbLine
 10
153.6000000000303
 20
290.4713634880891
 30
0.0
 11
153.6000000000303
 21
287.9999999999891
 31
0.0
  0
LINE
  5
18D
330
1F
100
AcDbEntity
  8
LAY-10
  6
CONTINUOUS
 62
     7
100
AcDbLine
 10
153.6000000000303
 20
287.9999999999891
 30
0.0
 11
152.4000000000303
 21
287.9999999999891
 31
0.0
  0
LINE
  5
18E
330
1F
100
AcDbEntity
  8
LAY-10
  6
CONTINUOUS
 62
     7
100
AcDbLine
 10
152.4000000000303
 20
290.4713634880891
 30
0.0
 11
152.4000000000303
 21
287.9999999999891
 31
0.0
  0
ARC
  5
18F
330
1F
100
AcDbEntity
  8
LAY-10
  6
CONTINUOUS
 62
     7
100
AcDbCircle
 10
153.0000000000302
 20
284.1999999999892
 30
0.0
 40
6.300000000000002
100
AcDbArc
 50
51.31781254650002
 51
84.53497620009915
  0
ARC
  5
190
330
1F
100
AcDbEntity
  8
LAY-10
  6
CONTINUOUS
 62
     7
100
AcDbCircle
 10
153.0000000000302
 20
284.1999999999892
 30
0.0
 40
6.300000000000002
100
AcDbArc
 50
95.46502379990922
 51
128.6821874534949
  0
LINE
  5
191
330
1F
100
AcDbEntity
  8
LAY-10
  6
CONTINUOUS
 62
     7
100
AcDbLine
 10
150.5000000000305
 20
274.4999999999891
 30
0.0
 11
150.0000000000302
 21
274.999999999989
 31
0.0
  0
LINE
  5
192
330
1F
100
AcDbEntity
  8
LAY-10
  6
CONTINUOUS
 62
     7
100
AcDbLine
 10
155.5000000000302
 20
274.4999999999891
 30
0.0
 11
156.0000000000302
 21
274.999999999989
 31
0.0
  0
LINE
  5
193
330
1F
100
AcDbEntity
  8
LAY-10
  6
CONTINUOUS
 62
     7
100
AcDbLine
 10
150.0000000000302
 20
286.4999999999891
 30
0.0
 11
150.0000000000302
 21
274.999999999989
 31
0.0
  0
LINE
  5
194
330
1F
100
AcDbEntity
  8
LAY-10
  6
CONTINUOUS
 62
     7
100
AcDbLine
 10
150.5000000000305
 20
274.4999999999891
 30
0.0
 11
155.5000000000302
 21
274.4999999999891
 31
0.0
  0
LINE
  5
195
330
1F
100
AcDbEntity
  8
LAY-10
  6
CONTINUOUS
 62
     7
100
AcDbLine
 10
156.0000000000302
 20
286.4999999999891
 30
0.0
 11
156.0000000000302
 21
274.999999999989
 31
0.0
  0
LINE
  5
196
330
1F
100
AcDbEntity
  8
LAY-10
  6
CONTINUOUS
 62
     7
100
AcDbLine
 10
156.0000000000302
 20
274.999999999989
 30
0.0
 11
150.0000000000302
 21
274.999999999989
 31
0.0
  0
LINE
  5
197
330
1F
100
AcDbEntity
  8
LAY-10
  6
CONTINUOUS
 62
     7
100
AcDbLine
 10
155.5000000000302
 20
274.4999999999894
 30
0.0
 11
155.5000000000303
 21
270.9999999999894
 31
0.0
  0
LINE
  5
198
330
1F
100
AcDbEntity
  8
LAY-10
  6
CONTINUOUS
 62
     7
100
AcDbLine
 10
150.5000000000302
 20
274.4999999999894
 30
0.0
 11
150.5000000000303
 21
270.9999999999894
 31
0.0
  0
LINE
  5
199
330
1F
100
AcDbEntity
  8
LAY-10
  6
CONTINUOUS
 62
     7
100
AcDbLine
 10
143.0000000000002
 20
287.6847737498495
 30
0.0
 11
147.9999945420187
 21
287.6847737498495
 31
0.0
  0
LINE
  5
19A
330
1F
100
AcDbEntity
  8
LAY-10
  6
CONTINUOUS
 62
     7
100
AcDbLine
 10
158.000005458042
 20
287.6847737498495
 30
0.0
 11
160.7184773749862
 21
287.6847737498496
 31
0.0
  0
LINE
  5
19B
330
1F
100
AcDbEntity
  8
LAY-10
  6
CONTINUOUS
 62
     7
100
AcDbLine
 10
504.5000000000304
 20
270.9999999999903
 30
0.0
 11
509.5000000000305
 21
270.9999999999903
 31
0.0
  0
LINE
  5
19C
330
1F
100
AcDbEntity
  8
LAY-10
  6
CONTINUOUS
 62
     7
100
AcDbLine
 10
509.5000000000305
 20
270.9999999999903
 30
0.0
 11
507.0000000000302
 21
269.5566243270163
 31
0.0
  0
LINE
  5
19D
330
1F
100
AcDbEntity
  8
LAY-10
  6
CONTINUOUS
 62
     7
100
AcDbLine
 10
507.0000000000302
 20
269.5566243270163
 30
0.0
 11
504.5000000000304
 21
270.9999999999903
 31
0.0
  0
ARC
  5
19E
330
1F
100
AcDbEntity
  8
LAY-10
  6
CONTINUOUS
 62
     7
100
AcDbCircle
 10
505.2500000000304
 20
286.3857492993902
 30
0.0
 40
3.500000000000002
100
AcDbArc
 50
128.6821874534945
 51
178.1293582694078
  0
ARC
  5
19F
330
1F
100
AcDbEntity
  8
LAY-10
  6
CONTINUOUS
 62
     7
100
AcDbCircle
 10
508.7500000000302
 20
286.3857492993902
 30
0.0
 40
3.500000000000002
100
AcDbArc
 50
1.870641730603853
 51
51.31781254649624
  0
LINE
  5
1A0
330
1F
100
AcDbEntity
  8
LAY-10
  6
CONTINUOUS
 62
     7
100
AcDbLine
 10
512.2481347569303
 20
286.4999999999903
 30
0.0
 11
501.7518652431303
 21
286.4999999999903
 31
0.0
  0
LINE
  5
1A1
330
1F
100
AcDbEntity
  8
LAY-10
  6
CONTINUOUS
 62
     7
100
AcDbLine
 10
507.6000000000303
 20
290.4713634880903
 30
0.0
 11
507.6000000000303
 21
287.9999999999903
 31
0.0
  0
LINE
  5
1A2
330
1F
100
AcDbEntity
  8
LAY-10
  6
CONTINUOUS
 62
     7
100
AcDbLine
 10
507.6000000000303
 20
287.9999999999903
 30
0.0
 11
506.4000000000303
 21
287.9999999999903
 31
0.0
  0
LINE
  5
1A3
330
1F
100
AcDbEntity
  8
LAY-10
  6
CONTINUOUS
 62
     7
100
AcDbLine
 10
506.4000000000303
 20
290.4713634880903
 30
0.0
 11
506.4000000000303
 21
287.9999999999903
 31
0.0
  0
ARC
  5
1A4
330
1F
100
AcDbEntity
  8
LAY-10
  6
CONTINUOUS
 62
     7
100
AcDbCircle
 10
507.0000000000302
 20
284.1999999999904
 30
0.0
 40
6.300000000000002
100
AcDbArc
 50
51.31781254650008
 51
84.53497620009915
  0
ARC
  5
1A5
330
1F
100
AcDbEntity
  8
LAY-10
  6
CONTINUOUS
 62
     7
100
AcDbCircle
 10
507.0000000000302
 20
284.1999999999904
 30
0.0
 40
6.300000000000002
100
AcDbArc
 50
95.46502379990922
 51
128.6821874534948
  0
LINE
  5
1A6
330
1F
100
AcDbEntity
  8
LAY-10
  6
CONTINUOUS
 62
     7
100
AcDbLine
 10
504.5000000000304
 20
274.4999999999903
 30
0.0
 11
504.0000000000302
 21
274.9999999999902
 31
0.0
  0
LINE
  5
1A7
330
1F
100
AcDbEntity
  8
LAY-10
  6
CONTINUOUS
 62
     7
100
AcDbLine
 10
509.5000000000302
 20
274.4999999999903
 30
0.0
 11
510.0000000000302
 21
274.9999999999902
 31
0.0
  0
LINE
  5
1A8
330
1F
100
AcDbEntity
  8
LAY-10
  6
CONTINUOUS
 62
     7
100
AcDbLine
 10
504.0000000000302
 20
286.4999999999903
 30
0.0
 11
504.0000000000302
 21
274.9999999999902
 31
0.0
  0
LINE
  5
1A9
330
1F
100
AcDbEntity
  8
LAY-10
  6
CONTINUOUS
 62
     7
100
AcDbLine
 10
504.5000000000304
 20
274.4999999999903
 30
0.0
 11
509.5000000000302
 21
274.4999999999903
 31
0.0
  0
LINE
  5
1AA
330
1F
100
AcDbEntity
  8
LAY-10
  6
CONTINUOUS
 62
     7
100
AcDbLine
 10
510.0000000000302
 20
286.4999999999903
 30
0.0
 11
510.0000000000302
 21
274.9999999999902
 31
0.0
  0
LINE
  5
1AB
330
1F
100
AcDbEntity
  8
LAY-10
  6
CONTINUOUS
 62
     7
100
AcDbLine
 10
510.0000000000302
 20
274.9999999999902
 30
0.0
 11
504.0000000000302
 21
274.9999999999902
 31
0.0
  0
LINE
  5
1AC
330
1F
100
AcDbEntity
  8
LAY-10
  6
CONTINUOUS
 62
     7
100
AcDbLine
 10
509.5000000000302
 20
274.4999999999906
 30
0.0
 11
509.5000000000302
 21
270.9999999999906
 31
0.0
  0
LINE
  5
1AD
330
1F
100
AcDbEntity
  8
LAY-10
  6
CONTINUOUS
 62
     7
100
AcDbLine
 10
504.5000000000302
 20
274.4999999999906
 30
0.0
 11
504.5000000000302
 21
270.9999999999906
 31
0.0
  0
LINE
  5
1AE
330
1F
100
AcDbEntity
  8
LAY-10
  6
CONTINUOUS
 62
     7
100
AcDbLine
 10
499.3836656868391
 20
287.6847737498504
 30
0.0
 11
501.9999945420187
 21
287.6847737498504
 31
0.0
  0
LINE
  5
1AF
330
1F
100
AcDbEntity
  8
LAY-10
  6
CONTINUOUS
 62
     7
100
AcDbLine
 10
512.0000054580421
 20
287.6847737498504
 30
0.0
 11
517.0000000000002
 21
287.6847737498504
 31
0.0
  0
LINE
  5
1B0
330
1F
100
AcDbEntity
  8
LAY-10
  6
CONTINUOUS
 62
     7
100
AcDbLine
 10
444.0000000000002
 20
280.4999999999905
 30
0.0
 11
396.0000000000002
 21
280.4999999999903
 31
0.0
  0
LINE
  5
1B1
330
1F
100
AcDbEntity
  8
LAY-10
  6
CONTINUOUS
 62
     7
100
AcDbLine
 10
384.0000000000002
 20
280.4999999999902
 30
0.0
 11
336.0000000000002
 21
280.4999999999901
 31
0.0
  0
LINE
  5
1B2
330
1F
100
AcDbEntity
  8
LAY-10
  6
CONTINUOUS
 62
     7
100
AcDbLine
 10
324.0000000000002
 20
280.4999999999901
 30
0.0
 11
276.0000000000002
 21
280.4999999999899
 31
0.0
  0
LINE
  5
1B3
330
1F
100
AcDbEntity
  8
LAY-10
  6
CONTINUOUS
 62
     7
100
AcDbLine
 10
216.0000000000002
 20
280.4999999999897
 30
0.0
 11
264.0000000000002
 21
280.4999999999899
 31
0.0
  0
LINE
  5
1B4
330
1F
100
AcDbEntity
  8
LAY-10
  6
CONTINUOUS
 62
     7
100
AcDbLine
 10
213.9660864005743
 20
296.0197678935531
 30
0.0
 11
216.0
 21
280.49999999999
 31
0.0
  0
ARC
  5
1B5
330
1F
100
AcDbEntity
  8
LAY-10
  6
CONTINUOUS
 62
     7
100
AcDbCircle
 10
210.0
 20
295.49999999999
 30
0.0
 40
4.0
100
AcDbArc
 50
7.466239194750938
 51
172.5337608052491
  0
LINE
  5
1B6
330
1F
100
AcDbEntity
  8
LAY-10
  6
CONTINUOUS
 62
     7
100
AcDbLine
 10
206.0339135994257
 20
296.0197678935531
 30
0.0
 11
204.0
 21
280.49999999999
 31
0.0
  0
LINE
  5
1B7
330
1F
100
AcDbEntity
  8
LAY-10
  6
CONTINUOUS
 62
     7
100
AcDbLine
 10
274.754995607727
 20
289.9999999999901
 30
0.0
 11
276.0
 21
280.49999999999
 31
0.0
  0
LINE
  5
1B8
330
1F
100
AcDbEntity
  8
LAY-10
  6
CONTINUOUS
 62
     7
100
AcDbLine
 10
265.4468818877878
 20
291.5404252541443
 30
0.0
 11
264.0
 21
280.49999999999
 31
0.0
  0
LINE
  5
1B9
330
1F
100
AcDbEntity
  8
LAY-10
  6
CONTINUOUS
 62
     7
100
AcDbLine
 10
334.754995607727
 20
289.9999999999901
 30
0.0
 11
336.0
 21
280.49999999999
 31
0.0
  0
LINE
  5
1BA
330
1F
100
AcDbEntity
  8
LAY-10
  6
CONTINUOUS
 62
     7
100
AcDbLine
 10
325.245004392273
 20
289.9999999999901
 30
0.0
 11
324.0
 21
280.49999999999
 31
0.0
  0
LINE
  5
1BB
330
1F
100
AcDbEntity
  8
LAY-10
  6
CONTINUOUS
 62
     7
100
AcDbLine
 10
394.5531181122122
 20
291.5404252541443
 30
0.0
 11
396.0
 21
280.49999999999
 31
0.0
  0
LINE
  5
1BC
330
1F
100
AcDbEntity
  8
LAY-10
  6
CONTINUOUS
 62
     7
100
AcDbLine
 10
385.245004392273
 20
289.9999999999901
 30
0.0
 11
384.0
 21
280.49999999999
 31
0.0
  0
LINE
  5
1BD
330
1F
100
AcDbEntity
  8
LAY-10
  6
CONTINUOUS
 62
     7
100
AcDbLine
 10
446.0339135994257
 20
296.0197678935531
 30
0.0
 11
444.0
 21
280.49999999999
 31
0.0
  0
ARC
  5
1BE
330
1F
100
AcDbEntity
  8
LAY-10
  6
CONTINUOUS
 62
     7
100
AcDbCircle
 10
450.0
 20
295.49999999999
 30
0.0
 40
4.0
100
AcDbArc
 50
7.466239194750938
 51
172.5337608052491
  0
LINE
  5
1BF
330
1F
100
AcDbEntity
  8
LAY-10
  6
CONTINUOUS
 62
     7
100
AcDbLine
 10
453.9660864005743
 20
296.0197678935531
 30
0.0
 11
456.0
 21
280.49999999999
 31
0.0
  0
LINE
  5
1C0
330
1F
100
AcDbEntity
  8
LAY-10
  6
CONTINUOUS
 62
     7
100
AcDbLine
 10
455.7829274688294
 20
282.1563709003004
 30
0.0
 11
444.2170725311704
 21
282.1563709003003
 31
0.0
  0
LINE
  5
1C1
330
1F
100
AcDbEntity
  8
LAY-10
  6
CONTINUOUS
 62
     7
100
AcDbLine
 10
455.3159325005003
 20
285.7197737498503
 30
0.0
 11
444.6840674994997
 21
285.7197737498502
 31
0.0
  0
LINE
  5
1C2
330
1F
100
AcDbEntity
  8
LAY-10
  6
CONTINUOUS
 62
     7
100
AcDbLine
 10
444.9415868290594
 20
287.6847737498505
 30
0.0
 11
455.0584131709406
 21
287.6847737498505
 31
0.0
  0
LINE
  5
1C3
330
1F
100
AcDbEntity
  8
LAY-10
  6
CONTINUOUS
 62
     7
100
AcDbLine
 10
454.6894690607652
 20
290.4999999999905
 30
0.0
 11
445.3105309392348
 21
290.4999999999904
 31
0.0
  0
LINE
  5
1C4
330
1F
100
AcDbEntity
  8
LAY-10
  6
CONTINUOUS
 62
     7
100
AcDbLine
 10
395.3159325005003
 20
285.71977374985
 30
0.0
 11
384.6840674994997
 21
285.71977374985
 31
0.0
  0
LINE
  5
1C5
330
1F
100
AcDbEntity
  8
LAY-10
  6
CONTINUOUS
 62
     7
100
AcDbLine
 10
384.9415868290594
 20
287.6847737498503
 30
0.0
 11
395.0584131709406
 21
287.6847737498503
 31
0.0
  0
LINE
  5
1C6
330
1F
100
AcDbEntity
  8
LAY-10
  6
CONTINUOUS
 62
     7
100
AcDbLine
 10
395.7829274688295
 20
282.1563709003001
 30
0.0
 11
384.2170725311704
 21
282.1563709003001
 31
0.0
  0
LINE
  5
1C7
330
1F
100
AcDbEntity
  8
LAY-10
  6
CONTINUOUS
 62
     7
100
AcDbLine
 10
324.2170725311705
 20
282.1563709003
 30
0.0
 11
335.7829274688295
 21
282.1563709003001
 31
0.0
  0
LINE
  5
1C8
330
1F
100
AcDbEntity
  8
LAY-10
  6
CONTINUOUS
 62
     7
100
AcDbLine
 10
324.9415868290593
 20
287.6847737498501
 30
0.0
 11
335.0584131709406
 21
287.6847737498501
 31
0.0
  0
LINE
  5
1C9
330
1F
100
AcDbEntity
  8
LAY-10
  6
CONTINUOUS
 62
     7
100
AcDbLine
 10
264.2170725311704
 20
282.1563709002999
 30
0.0
 11
275.7829274688296
 21
282.1563709002999
 31
0.0
  0
LINE
  5
1CA
330
1F
100
AcDbEntity
  8
LAY-10
  6
CONTINUOUS
 62
     7
100
AcDbLine
 10
264.9415868290593
 20
287.6847737498499
 30
0.0
 11
275.0584131709407
 21
287.6847737498499
 31
0.0
  0
LINE
  5
1CB
330
1F
100
AcDbEntity
  8
LAY-10
  6
CONTINUOUS
 62
     7
100
AcDbLine
 10
204.2170725311704
 20
282.1563709002996
 30
0.0
 11
215.7829274688296
 21
282.1563709002997
 31
0.0
  0
LINE
  5
1CC
330
1F
100
AcDbEntity
  8
LAY-10
  6
CONTINUOUS
 62
     7
100
AcDbLine
 10
205.3105309392347
 20
290.49999999999
 30
0.0
 11
214.6894690607652
 21
290.4999999999901
 31
0.0
  0
LINE
  5
1CD
330
1F
100
AcDbEntity
  8
LAY-10
  6
CONTINUOUS
 62
     7
100
AcDbLine
 10
215.0584131709406
 20
287.6847737498501
 30
0.0
 11
204.9415868290593
 21
287.6847737498501
 31
0.0
  0
LINE
  5
1CE
330
1F
100
AcDbEntity
  8
LAY-10
  6
CONTINUOUS
 62
     7
100
AcDbLine
 10
204.6840674994997
 20
285.7197737498498
 30
0.0
 11
215.3159325005003
 21
285.7197737498498
 31
0.0
  0
LINE
  5
1CF
330
1F
100
AcDbEntity
  8
LAY-10
  6
CONTINUOUS
 62
     7
100
AcDbLine
 10
504.0000000000302
 20
272.9999999999903
 30
0.0
 11
510.0000000000302
 21
272.9999999999903
 31
0.0
  0
LINE
  5
1D0
330
1F
100
AcDbEntity
  8
LAY-10
  6
CONTINUOUS
 62
     7
100
AcDbLine
 10
504.5000000000304
 20
272.4999999999903
 30
0.0
 11
509.5000000000305
 21
272.4999999999903
 31
0.0
  0
LINE
  5
1D1
330
1F
100
AcDbEntity
  8
LAY-10
  6
CONTINUOUS
 62
     7
100
AcDbLine
 10
150.0000000000303
 20
272.9999999999891
 30
0.0
 11
156.0000000000303
 21
272.9999999999891
 31
0.0
  0
LINE
  5
1D2
330
1F
100
AcDbEntity
  8
LAY-10
  6
CONTINUOUS
 62
     7
100
AcDbLine
 10
150.5000000000305
 20
272.4999999999891
 30
0.0
 11
155.5000000000305
 21
272.4999999999891
 31
0.0
  0
LINE
  5
1D3
330
1F
100
AcDbEntity
  8
LAY-10
  6
CONTINUOUS
 62
     7
100
AcDbLine
 10
481.4999999999304
 20
296.4999999999906
 30
0.0
 11
476.7655644370748
 21
296.4999999999906
 31
0.0
  0
LINE
  5
1D4
330
1F
100
AcDbEntity
  8
LAY-10
  6
CONTINUOUS
 62
     7
100
AcDbLine
 10
492.5000000000001
 20
304.4999999999906
 30
0.0
 11
486.4999999999301
 21
304.4999999999906
 31
0.0
  0
LINE
  5
1D5
330
1F
100
AcDbEntity
  8
LAY-10
  6
CONTINUOUS
 62
     7
100
AcDbLine
 10
491.5650870652162
 20
296.4999999999906
 30
0.0
 11
486.4999999999303
 21
296.4999999999906
 31
0.0
  0
LINE
  5
1D6
330
1F
100
AcDbEntity
  8
LAY-10
  6
CONTINUOUS
 62
     7
100
AcDbLine
 10
504.5000000000304
 20
280.4999999999907
 30
0.0
 11
456.0000000000002
 21
280.4999999999905
 31
0.0
  0
LINE
  5
1D7
330
1F
100
AcDbEntity
  8
LAY-10
  6
CONTINUOUS
 62
     7
100
AcDbLine
 10
515.5000000000002
 20
280.4999999999907
 30
0.0
 11
509.5000000000302
 21
280.4999999999907
 31
0.0
  0
LINE
  5
1D8
330
1F
100
AcDbEntity
  8
LAY-10
  6
CONTINUOUS
 62
     7
100
AcDbLine
 10
509.9362997395672
 20
255.4999999999907
 30
0.0
 11
520.53507673385
 21
255.4999999999907
 31
0.0
  0
LINE
  5
1D9
330
1F
100
AcDbEntity
  8
LAY-10
  6
CONTINUOUS
 62
     7
100
AcDbLine
 10
150.0637002604335
 20
255.4999999999896
 30
0.0
 11
139.46492326615
 21
255.4999999999896
 31
0.0
  0
LINE
  5
1DA
330
1F
100
AcDbEntity
  8
LAY-10
  6
CONTINUOUS
 62
     7
100
AcDbLine
 10
518.0000000000123
 20
263.4999999999797
 30
0.0
 11
518.0000000000123
 21
264.4999999999778
 31
0.0
  0
LINE
  5
1DB
330
1F
100
AcDbEntity
  8
LAY-10
  6
CONTINUOUS
 62
     7
100
AcDbLine
 10
513.000000000013
 20
263.4999999999797
 30
0.0
 11
513.000000000013
 21
264.499999999979
 31
0.0
  0
LINE
  5
1DC
330
1F
100
AcDbEntity
  8
LAY-10
  6
CONTINUOUS
 62
     7
100
AcDbLine
 10
513.000000000013
 20
264.499999999979
 30
0.0
 11
518.0000000000123
 21
264.499999999979
 31
0.0
  0
LINE
  5
1DD
330
1F
100
AcDbEntity
  8
LAY-10
  6
CONTINUOUS
 62
     7
100
AcDbLine
 10
512.5000000000098
 20
262.999999999979
 30
0.0
 11
518.5000000000098
 21
262.999999999979
 31
0.0
  0
LINE
  5
1DE
330
1F
100
AcDbEntity
  8
LAY-10
  6
CONTINUOUS
 62
     7
100
AcDbLine
 10
513.0000000000098
 20
263.4999999999797
 30
0.0
 11
518.0000000000098
 21
263.4999999999797
 31
0.0
  0
LINE
  5
1DF
330
1F
100
AcDbEntity
  8
LAY-10
  6
CONTINUOUS
 62
     7
100
AcDbLine
 10
515.50000000001
 20
265.9433756729546
 30
0.0
 11
518.0000000000109
 21
264.49999999998
 31
0.0
  0
LINE
  5
1E0
330
1F
100
AcDbEntity
  8
LAY-10
  6
CONTINUOUS
 62
     7
100
AcDbLine
 10
515.5000000000095
 20
265.9433756729544
 30
0.0
 11
513.0000000000091
 21
264.49999999998
 31
0.0
  0
LINE
  5
1E1
330
1F
100
AcDbEntity
  8
LAY-10
  6
CONTINUOUS
 62
     7
100
AcDbLine
 10
530.0000000000093
 20
233.4999999999883
 30
0.0
 11
530.0000000000093
 21
238.4999999999881
 31
0.0
  0
LINE
  5
1E2
330
1F
100
AcDbEntity
  8
LAY-10
  6
CONTINUOUS
 62
     7
100
AcDbLine
 10
520.0000000000089
 20
238.4999999999881
 30
0.0
 11
530.0000000000093
 21
238.4999999999881
 31
0.0
  0
ARC
  5
1E3
330
1F
100
AcDbEntity
  8
LAY-10
  6
CONTINUOUS
 62
     7
100
AcDbCircle
 10
520.0000000000089
 20
240.4999999999882
 30
0.0
 40
2.0
100
AcDbArc
 50
180.0
 51
270.0000000000002
  0
LINE
  5
1E4
330
1F
100
AcDbEntity
  8
LAY-10
  6
CONTINUOUS
 62
     7
100
AcDbLine
 10
520.0000000000089
 20
233.4999999999883
 30
0.0
 11
530.0000000000093
 21
233.4999999999883
 31
0.0
  0
ARC
  5
1E5
330
1F
100
AcDbEntity
  8
LAY-10
  6
CONTINUOUS
 62
     7
100
AcDbCircle
 10
520.0000000000089
 20
240.4999999999882
 30
0.0
 40
7.000000000000004
100
AcDbArc
 50
180.0
 51
270.0000000000002
  0
LINE
  5
1E6
330
1F
100
AcDbEntity
  8
LAY-10
  6
CONTINUOUS
 62
     7
100
AcDbLine
 10
518.0000000000098
 20
240.4999999999839
 30
0.0
 11
518.0000000000098
 21
255.4999999999835
 31
0.0
  0
LINE
  5
1E7
330
1F
100
AcDbEntity
  8
LAY-10
  6
CONTINUOUS
 62
     7
100
AcDbLine
 10
513.0000000000098
 20
240.4999999999839
 30
0.0
 11
513.0000000000098
 21
255.4999999999835
 31
0.0
  0
LINE
  5
1E8
330
1F
100
AcDbEntity
  8
LAY-10
  6
CONTINUOUS
 62
     7
100
AcDbLine
 10
513.000000000013
 20
261.4999999999884
 30
0.0
 11
518.0000000000123
 21
261.4999999999884
 31
0.0
  0
LINE
  5
1E9
330
1F
100
AcDbEntity
  8
LAY-10
  6
CONTINUOUS
 62
     7
100
AcDbLine
 10
512.5000000000116
 20
260.9999999999899
 30
0.0
 11
518.5000000000107
 21
260.9999999999899
 31
0.0
  0
LINE
  5
1EA
330
1F
100
AcDbEntity
  8
LAY-10
  6
CONTINUOUS
 62
     7
100
AcDbLine
 10
518.0000000000123
 20
263.4999999999797
 30
0.0
 11
518.0000000000123
 21
261.4999999999884
 31
0.0
  0
LINE
  5
1EB
330
1F
100
AcDbEntity
  8
LAY-10
  6
CONTINUOUS
 62
     7
100
AcDbLine
 10
513.000000000013
 20
263.4999999999797
 30
0.0
 11
513.000000000013
 21
261.4999999999884
 31
0.0
  0
LINE
  5
1EC
330
1F
100
AcDbEntity
  8
LAY-10
  6
CONTINUOUS
 62
     7
100
AcDbLine
 10
518.5000000000098
 20
260.9999999999939
 30
0.0
 11
518.0000000000098
 21
261.4999999999839
 31
0.0
  0
LINE
  5
1ED
330
1F
100
AcDbEntity
  8
LAY-10
  6
CONTINUOUS
 62
     7
100
AcDbLine
 10
513.0000000000098
 20
261.4999999999839
 30
0.0
 11
512.5000000000098
 21
260.9999999999939
 31
0.0
  0
LINE
  5
1EE
330
1F
100
AcDbEntity
  8
LAY-10
  6
CONTINUOUS
 62
     7
100
AcDbLine
 10
512.5000000000098
 20
260.9999999999939
 30
0.0
 11
512.5000000000098
 21
255.4999999999839
 31
0.0
  0
LINE
  5
1EF
330
1F
100
AcDbEntity
  8
LAY-10
  6
CONTINUOUS
 62
     7
100
AcDbLine
 10
518.5000000000098
 20
260.9999999999939
 30
0.0
 11
518.5000000000098
 21
255.4999999999839
 31
0.0
  0
LINE
  5
1F0
330
1F
100
AcDbEntity
  8
LAY-10
  6
CONTINUOUS
 62
     7
100
AcDbLine
 10
141.999999999988
 20
263.499999999979
 30
0.0
 11
141.999999999988
 21
264.4999999999772
 31
0.0
  0
LINE
  5
1F1
330
1F
100
AcDbEntity
  8
LAY-10
  6
CONTINUOUS
 62
     7
100
AcDbLine
 10
146.9999999999873
 20
263.499999999979
 30
0.0
 11
146.9999999999873
 21
264.4999999999783
 31
0.0
  0
LINE
  5
1F2
330
1F
100
AcDbEntity
  8
LAY-10
  6
CONTINUOUS
 62
     7
100
AcDbLine
 10
146.9999999999873
 20
264.4999999999783
 30
0.0
 11
141.999999999988
 21
264.4999999999783
 31
0.0
  0
LINE
  5
1F3
330
1F
100
AcDbEntity
  8
LAY-10
  6
CONTINUOUS
 62
     7
100
AcDbLine
 10
147.4999999999905
 20
262.9999999999784
 30
0.0
 11
141.4999999999905
 21
262.9999999999783
 31
0.0
  0
LINE
  5
1F4
330
1F
100
AcDbEntity
  8
LAY-10
  6
CONTINUOUS
 62
     7
100
AcDbLine
 10
146.9999999999905
 20
263.499999999979
 30
0.0
 11
141.9999999999905
 21
263.499999999979
 31
0.0
  0
LINE
  5
1F5
330
1F
100
AcDbEntity
  8
LAY-10
  6
CONTINUOUS
 62
     7
100
AcDbLine
 10
144.4999999999903
 20
265.943375672954
 30
0.0
 11
141.9999999999894
 21
264.4999999999794
 31
0.0
  0
LINE
  5
1F6
330
1F
100
AcDbEntity
  8
LAY-10
  6
CONTINUOUS
 62
     7
100
AcDbLine
 10
144.4999999999907
 20
265.9433756729538
 30
0.0
 11
146.9999999999912
 21
264.4999999999794
 31
0.0
  0
LINE
  5
1F7
330
1F
100
AcDbEntity
  8
LAY-10
  6
CONTINUOUS
 62
     7
100
AcDbLine
 10
129.999999999991
 20
233.4999999999876
 30
0.0
 11
129.999999999991
 21
238.4999999999875
 31
0.0
  0
LINE
  5
1F8
330
1F
100
AcDbEntity
  8
LAY-10
  6
CONTINUOUS
 62
     7
100
AcDbLine
 10
139.9999999999915
 20
238.4999999999876
 30
0.0
 11
129.999999999991
 21
238.4999999999875
 31
0.0
  0
ARC
  5
1F9
330
1F
100
AcDbEntity
  8
LAY-10
  6
CONTINUOUS
 62
     7
100
AcDbCircle
 10
139.9999999999915
 20
240.4999999999875
 30
0.0
 40
2.0
100
AcDbArc
 50
270.0000000000009
 51
0.0
  0
LINE
  5
1FA
330
1F
100
AcDbEntity
  8
LAY-10
  6
CONTINUOUS
 62
     7
100
AcDbLine
 10
139.9999999999915
 20
233.4999999999877
 30
0.0
 11
129.999999999991
 21
233.4999999999876
 31
0.0
  0
ARC
  5
1FB
330
1F
100
AcDbEntity
  8
LAY-10
  6
CONTINUOUS
 62
     7
100
AcDbCircle
 10
139.9999999999915
 20
240.4999999999875
 30
0.0
 40
7.000000000000004
100
AcDbArc
 50
270.0000000000002
 51
0.0
  0
LINE
  5
1FC
330
1F
100
AcDbEntity
  8
LAY-10
  6
CONTINUOUS
 62
     7
100
AcDbLine
 10
141.9999999999906
 20
240.4999999999832
 30
0.0
 11
141.9999999999905
 21
255.4999999999829
 31
0.0
  0
LINE
  5
1FD
330
1F
100
AcDbEntity
  8
LAY-10
  6
CONTINUOUS
 62
     7
100
AcDbLine
 10
146.9999999999906
 20
240.4999999999832
 30
0.0
 11
146.9999999999905
 21
255.4999999999829
 31
0.0
  0
LINE
  5
1FE
330
1F
100
AcDbEntity
  8
LAY-10
  6
CONTINUOUS
 62
     7
100
AcDbLine
 10
146.9999999999873
 20
261.4999999999878
 30
0.0
 11
141.999999999988
 21
261.4999999999878
 31
0.0
  0
LINE
  5
1FF
330
1F
100
AcDbEntity
  8
LAY-10
  6
CONTINUOUS
 62
     7
100
AcDbLine
 10
147.4999999999887
 20
260.9999999999893
 30
0.0
 11
141.4999999999896
 21
260.9999999999893
 31
0.0
  0
LINE
  5
200
330
1F
100
AcDbEntity
  8
LAY-10
  6
CONTINUOUS
 62
     7
100
AcDbLine
 10
141.999999999988
 20
263.499999999979
 30
0.0
 11
141.999999999988
 21
261.4999999999878
 31
0.0
  0
LINE
  5
201
330
1F
100
AcDbEntity
  8
LAY-10
  6
CONTINUOUS
 62
     7
100
AcDbLine
 10
146.9999999999873
 20
263.499999999979
 30
0.0
 11
146.9999999999873
 21
261.4999999999878
 31
0.0
  0
LINE
  5
202
330
1F
100
AcDbEntity
  8
LAY-10
  6
CONTINUOUS
 62
     7
100
AcDbLine
 10
141.4999999999905
 20
260.9999999999932
 30
0.0
 11
141.9999999999905
 21
261.4999999999832
 31
0.0
  0
LINE
  5
203
330
1F
100
AcDbEntity
  8
LAY-10
  6
CONTINUOUS
 62
     7
100
AcDbLine
 10
146.9999999999905
 20
261.4999999999832
 30
0.0
 11
147.4999999999905
 21
260.9999999999933
 31
0.0
  0
LINE
  5
204
330
1F
100
AcDbEntity
  8
LAY-10
  6
CONTINUOUS
 62
     7
100
AcDbLine
 10
147.4999999999905
 20
260.9999999999933
 30
0.0
 11
147.4999999999905
 21
255.4999999999833
 31
0.0
  0
LINE
  5
205
330
1F
100
AcDbEntity
  8
LAY-10
  6
CONTINUOUS
 62
     7
100
AcDbLine
 10
141.4999999999905
 20
260.9999999999932
 30
0.0
 11
141.4999999999905
 21
255.4999999999832
 31
0.0
  0
LINE
  5
206
330
1F
100
AcDbEntity
  8
LAY-10
  6
CONTINUOUS
 62
     7
100
AcDbLine
 10
150.5000000000305
 20
280.4999999999895
 30
0.0
 11
144.5000000000002
 21
280.4999999999894
 31
0.0
  0
LINE
  5
207
330
1F
100
AcDbEntity
  8
LAY-10
  6
CONTINUOUS
 62
     7
100
AcDbLine
 10
204.0000000000002
 20
280.4999999999897
 30
0.0
 11
155.5000000000302
 21
280.4999999999895
 31
0.0
  0
LINE
  5
208
330
1F
100
AcDbEntity
  8
LAY-10
  6
CONTINUOUS
 62
     7
100
AcDbLine
 10
173.4999999999294
 20
304.4999999999895
 30
0.0
 11
167.5000000000001
 21
304.4999999999895
 31
0.0
  0
LINE
  5
209
330
1F
100
AcDbEntity
  8
LAY-10
  6
CONTINUOUS
 62
     7
100
AcDbLine
 10
168.4349129347841
 20
296.4999999999895
 30
0.0
 11
173.4999999999295
 21
296.4999999999895
 31
0.0
  0
LINE
  5
20A
330
1F
100
AcDbEntity
  8
LAY-10
  6
CONTINUOUS
 62
     7
100
AcDbLine
 10
260.0000000000001
 20
304.4999999999898
 30
0.0
 11
178.4999999999292
 21
304.4999999999896
 31
0.0
  0
LINE
  5
20B
330
1F
100
AcDbEntity
  8
LAY-10
  6
CONTINUOUS
 62
     7
100
AcDbLine
 10
178.4999999999292
 20
296.4999999999896
 30
0.0
 11
183.2344355629255
 21
296.4999999999896
 31
0.0
  0
LINE
  5
20C
330
1F
100
AcDbEntity
  8
LAY-10
  6
CONTINUOUS
 62
     7
100
AcDbLine
 10
390.5000000000002
 20
289.9999999999903
 30
0.0
 11
389.0000000000001
 21
331.2499999999887
 31
0.0
  0
LINE
  5
20D
330
1F
100
AcDbEntity
  8
LAY-10
  6
CONTINUOUS
 62
     7
100
AcDbLine
 10
269.5000000000002
 20
289.9999999999899
 30
0.0
 11
271.0
 21
331.2499999999888
 31
0.0
  0
DIMENSION
  5
20F
330
1F
100
AcDbEntity
  8
LAY-10
  6
CONTINUOUS
 62
     4
100
AcDbDimension
  2
*D15
 10
389.0
 20
374.99999999999
 30
0.0
 11
330.0000000000001
 21
382.49999999999
 31
0.0
 70
   160
  1
%%c<>
  3
ISO-25
100
AcDbAlignedDimension
 13
271.0
 23
344.99999999999
 33
0.0
 14
389.0
 24
344.99999999999
 34
0.0
100
AcDbRotatedDimension
1001
ACAD
1000
DSTYLE
1002
{
1070
   270
1070
     2
1070
     6
1000
EX_BNORM
1070
     7
1000
EX_BNORM
1070
    41
1040
7.5
1070
    42
1040
4.5
1070
    44
1040
4.5
1070
    73
1070
     0
1070
    74
1070
     0
1070
    75
1070
     0
1070
    76
1070
     0
1070
    77
1070
     1
1070
    78
1070
     8
1070
   140
1040
9.3543312
1070
   147
1040
0.0
1070
   173
1070
     1
1070
   176
1070
     4
1070
   177
1070
     4
1070
   178
1070
     7
1070
   271
1070
     1
1070
   277
1070
     2
1070
   279
1070
     2
1070
   280
1070
     0
1070
   287
1070
     5
1070
   340
1005
20E
1002
}
  0
LINE
  5
21D
330
1F
100
AcDbEntity
  8
LAY-10
  6
CONTINUOUS
 62
     7
100
AcDbLine
 10
330.0000000000008
 20
649.0590129848513
 30
0.0
 11
320.1086135812626
 21
655.3726638904288
 31
0.0
  0
LINE
  5
21E
330
1F
100
AcDbEntity
  8
LAY-10
  6
CONTINUOUS
 62
     7
100
AcDbLine
 10
318.2500000000003
 20
655.3726638904291
 30
0.0
 11
330.0000000000003
 21
647.8726638904291
 31
0.0
  0
LINE
  5
21F
330
1F
100
AcDbEntity
  8
LAY-10
  6
CONTINUOUS
 62
     7
100
AcDbLine
 10
318.2500000000003
 20
655.3726638904286
 30
0.0
 11
330.0000000000003
 21
662.8726638904286
 31
0.0
  0
LINE
  5
220
330
1F
100
AcDbEntity
  8
LAY-10
  6
CONTINUOUS
 62
     7
100
AcDbLine
 10
330.0000000000008
 20
661.6863147960064
 30
0.0
 11
320.1086135812626
 21
655.3726638904288
 31
0.0
  0
LINE
  5
221
330
1F
100
AcDbEntity
  8
LAY-10
  6
CONTINUOUS
 62
     7
100
AcDbLine
 10
329.9999999999999
 20
661.6863147960064
 30
0.0
 11
339.8913864187381
 21
655.3726638904288
 31
0.0
  0
LINE
  5
222
330
1F
100
AcDbEntity
  8
LAY-10
  6
CONTINUOUS
 62
     7
100
AcDbLine
 10
329.9999999999999
 20
649.0590129848513
 30
0.0
 11
339.8913864187381
 21
655.3726638904288
 31
0.0
  0
LINE
  5
223
330
1F
100
AcDbEntity
  8
LAY-10
  6
CONTINUOUS
 62
     7
100
AcDbLine
 10
341.7500000000003
 20
655.3726638904291
 30
0.0
 11
330.0000000000003
 21
647.8726638904291
 31
0.0
  0
LINE
  5
224
330
1F
100
AcDbEntity
  8
LAY-10
  6
CONTINUOUS
 62
     7
100
AcDbLine
 10
341.7500000000003
 20
655.3726638904286
 30
0.0
 11
330.0000000000003
 21
662.8726638904286
 31
0.0
  0
TEXT
  5
225
330
1F
100
AcDbEntity
  8
LAY-10
  6
CONTINUOUS
 62
     7
100
AcDbText
 10
358.7999978542368
 20
487.5629917254162
 30
0.0
 40
5.456692828292274
  1
ＲＭＣＸ－２１００
 50
180.0
 41
1.047940521581858
  7
EXCADSTD
100
AcDbText
  0
ARC
  5
226
330
1F
100
AcDbEntity
  8
LAY-10
  6
CONTINUOUS
 62
     7
100
AcDbCircle
 10
147.5000000000001
 20
562.777670987144
 30
0.0
 40
5.0
100
AcDbArc
 50
205.8419327631673
 51
278.2541353691812
  0
ARC
  5
227
330
1F
100
AcDbEntity
  8
LAY-10
  6
CONTINUOUS
 62
     7
100
AcDbCircle
 10
147.5000000000001
 20
577.222329012876
 30
0.0
 40
5.0
100
AcDbArc
 50
81.74586463081886
 51
154.1580672368329
  0
LINE
  5
228
330
1F
100
AcDbEntity
  8
LAY-10
  6
CONTINUOUS
 62
     7
100
AcDbLine
 10
143.0000000000001
 20
560.5982215153737
 30
0.0
 11
143.0000000000001
 21
480.0000000000101
 31
0.0
  0
LINE
  5
229
330
1F
100
AcDbEntity
  8
LAY-10
  6
CONTINUOUS
 62
     7
100
AcDbLine
 10
143.0000000000001
 20
660.0000000000102
 30
0.0
 11
143.0000000000001
 21
579.4017784846463
 31
0.0
  0
LINE
  5
22A
330
1F
100
AcDbEntity
  8
LAY-10
  6
CONTINUOUS
 62
     7
100
AcDbLine
 10
160.2648521336001
 20
559.0000000000099
 30
0.0
 11
149.5000000000001
 21
559.0000000000101
 31
0.0
  0
LINE
  5
22B
330
1F
100
AcDbEntity
  8
LAY-10
  6
CONTINUOUS
 62
     7
100
AcDbLine
 10
160.2648521336001
 20
581.0000000000101
 30
0.0
 11
149.5000000000001
 21
581.0000000000101
 31
0.0
  0
LINE
  5
22C
330
1F
100
AcDbEntity
  8
LAY-10
  6
CONTINUOUS
 62
     7
100
AcDbLine
 10
148.2178202525294
 20
557.8294658494139
 30
0.0
 11
158.2867526593001
 21
559.0000000000101
 31
0.0
  0
LINE
  5
22D
330
1F
100
AcDbEntity
  8
LAY-10
  6
CONTINUOUS
 62
     7
100
AcDbLine
 10
148.2178202525294
 20
582.1705341506062
 30
0.0
 11
158.2867526593001
 21
581.0000000000101
 31
0.0
  0
LINE
  5
22E
330
1F
100
AcDbEntity
  8
LAY-10
  6
CONTINUOUS
 62
     7
100
AcDbLine
 10
144.5000000000001
 20
564.0000000000101
 30
0.0
 11
144.5000000000001
 21
576.0000000000101
 31
0.0
  0
ARC
  5
22F
330
1F
100
AcDbEntity
  8
LAY-10
  6
CONTINUOUS
 62
     7
100
AcDbCircle
 10
149.5000000000001
 20
576.0000000000101
 30
0.0
 40
5.0
100
AcDbArc
 50
90.00000000000014
 51
180.0
  0
ARC
  5
230
330
1F
100
AcDbEntity
  8
LAY-10
  6
CONTINUOUS
 62
     7
100
AcDbCircle
 10
149.5000000000001
 20
564.0000000000101
 30
0.0
 40
5.0
100
AcDbArc
 50
180.0
 51
270.0000000000002
  0
ARC
  5
231
330
1F
100
AcDbEntity
  8
LAY-10
  6
CONTINUOUS
 62
     7
100
AcDbCircle
 10
512.5
 20
562.7776709871438
 30
0.0
 40
5.0
100
AcDbArc
 50
261.7458646308201
 51
334.158067236833
  0
LINE
  5
232
330
1F
100
AcDbEntity
  8
LAY-10
  6
CONTINUOUS
 62
     7
100
AcDbLine
 10
517.0000000000001
 20
660.0000000000099
 30
0.0
 11
517.0000000000001
 21
579.4017784846461
 31
0.0
  0
ARC
  5
233
330
1F
100
AcDbEntity
  8
LAY-10
  6
CONTINUOUS
 62
     7
100
AcDbCircle
 10
512.5000000000001
 20
577.2223290128758
 30
0.0
 40
5.0
100
AcDbArc
 50
25.84193276316716
 51
98.25413536918136
  0
LINE
  5
234
330
1F
100
AcDbEntity
  8
LAY-10
  6
CONTINUOUS
 62
     7
100
AcDbLine
 10
517.0
 20
560.5982215153734
 30
0.0
 11
517.0
 21
480.0000000000099
 31
0.0
  0
LINE
  5
235
330
1F
100
AcDbEntity
  8
LAY-10
  6
CONTINUOUS
 62
     7
100
AcDbLine
 10
499.7351478664
 20
559.0000000000097
 30
0.0
 11
510.5
 21
559.0000000000099
 31
0.0
  0
LINE
  5
236
330
1F
100
AcDbEntity
  8
LAY-10
  6
CONTINUOUS
 62
     7
100
AcDbLine
 10
499.7351478664
 20
581.0000000000099
 30
0.0
 11
510.5000000000001
 21
581.0000000000099
 31
0.0
  0
LINE
  5
237
330
1F
100
AcDbEntity
  8
LAY-10
  6
CONTINUOUS
 62
     7
100
AcDbLine
 10
511.7821797474708
 20
557.8294658494136
 30
0.0
 11
501.7132473407
 21
559.0000000000099
 31
0.0
  0
LINE
  5
238
330
1F
100
AcDbEntity
  8
LAY-10
  6
CONTINUOUS
 62
     7
100
AcDbLine
 10
511.7821797474708
 20
582.1705341506059
 30
0.0
 11
501.7132473407001
 21
581.0000000000099
 31
0.0
  0
LINE
  5
239
330
1F
100
AcDbEntity
  8
LAY-10
  6
CONTINUOUS
 62
     7
100
AcDbLine
 10
515.5000000000001
 20
564.0000000000099
 30
0.0
 11
515.5000000000001
 21
576.0000000000099
 31
0.0
  0
ARC
  5
23A
330
1F
100
AcDbEntity
  8
LAY-10
  6
CONTINUOUS
 62
     7
100
AcDbCircle
 10
510.5000000000001
 20
576.0000000000099
 30
0.0
 40
5.0
100
AcDbArc
 50
0.0
 51
90.00000000000014
  0
ARC
  5
23B
330
1F
100
AcDbEntity
  8
LAY-10
  6
CONTINUOUS
 62
     7
100
AcDbCircle
 10
510.5000000000001
 20
564.0000000000099
 30
0.0
 40
5.0
100
AcDbArc
 50
270.0000000000002
 51
0.0
  0
LINE
  5
23C
330
1F
100
AcDbEntity
  8
LAY-10
  6
CONTINUOUS
 62
     7
100
AcDbLine
 10
147.5000000000001
 20
475.5000000000101
 30
0.0
 11
512.5
 21
475.5000000000099
 31
0.0
  0
LINE
  5
23D
330
1F
100
AcDbEntity
  8
LAY-10
  6
CONTINUOUS
 62
     7
100
AcDbLine
 10
147.5000000000001
 20
475.0000000000101
 30
0.0
 11
512.5
 21
475.0000000000098
 31
0.0
  0
LINE
  5
23E
330
1F
100
AcDbEntity
  8
LAY-10
  6
CONTINUOUS
 62
     7
100
AcDbLine
 10
147.5000000000001
 20
471.0000000000101
 30
0.0
 11
512.5
 21
471.0000000000099
 31
0.0
  0
LINE
  5
23F
330
1F
100
AcDbEntity
  8
LAY-10
  6
CONTINUOUS
 62
     7
100
AcDbLine
 10
147.5000000000001
 20
470.0000000000101
 30
0.0
 11
512.5
 21
470.0000000000099
 31
0.0
  0
LINE
  5
240
330
1F
100
AcDbEntity
  8
LAY-10
  6
CONTINUOUS
 62
     7
100
AcDbLine
 10
147.5000000000001
 20
670.0000000000102
 30
0.0
 11
512.5000000000001
 21
670.0000000000099
 31
0.0
  0
LINE
  5
241
330
1F
100
AcDbEntity
  8
LAY-10
  6
CONTINUOUS
 62
     7
100
AcDbLine
 10
512.5000000000001
 20
669.0000000000099
 30
0.0
 11
147.5000000000001
 21
669.0000000000102
 31
0.0
  0
LINE
  5
242
330
1F
100
AcDbEntity
  8
LAY-10
  6
CONTINUOUS
 62
     7
100
AcDbLine
 10
147.5000000000001
 20
665.0000000000102
 30
0.0
 11
512.5000000000001
 21
665.0000000000099
 31
0.0
  0
LINE
  5
243
330
1F
100
AcDbEntity
  8
LAY-10
  6
CONTINUOUS
 62
     7
100
AcDbLine
 10
147.5000000000001
 20
664.5000000000102
 30
0.0
 11
512.5000000000001
 21
664.5000000000099
 31
0.0
  0
LINE
  5
244
330
1F
100
AcDbEntity
  8
LAY-10
  6
CONTINUOUS
 62
     7
100
AcDbLine
 10
297.5
 20
487.50000000001
 30
0.0
 11
160.0000000000001
 21
487.5000000000101
 31
0.0
  0
LINE
  5
245
330
1F
100
AcDbEntity
  8
LAY-10
  6
CONTINUOUS
 62
     7
100
AcDbLine
 10
297.5
 20
482.50000000001
 30
0.0
 11
160.0000000000001
 21
482.5000000000101
 31
0.0
  0
LINE
  5
246
330
1F
100
AcDbEntity
  8
LAY-10
  6
CONTINUOUS
 62
     7
100
AcDbLine
 10
297.5000000000001
 20
657.50000000001
 30
0.0
 11
160.0000000000001
 21
657.5000000000101
 31
0.0
  0
LINE
  5
247
330
1F
100
AcDbEntity
  8
LAY-10
  6
CONTINUOUS
 62
     7
100
AcDbLine
 10
160.0000000000001
 20
652.5000000000101
 30
0.0
 11
297.5000000000001
 21
652.50000000001
 31
0.0
  0
LINE
  5
248
330
1F
100
AcDbEntity
  8
LAY-10
  6
CONTINUOUS
 62
     7
100
AcDbLine
 10
150.0000000000001
 20
492.5000000000101
 30
0.0
 11
150.0000000000001
 21
552.5000000000101
 31
0.0
  0
LINE
  5
249
330
1F
100
AcDbEntity
  8
LAY-10
  6
CONTINUOUS
 62
     7
100
AcDbLine
 10
155.0000000000001
 20
492.5000000000101
 30
0.0
 11
155.0000000000001
 21
552.5000000000101
 31
0.0
  0
LINE
  5
24A
330
1F
100
AcDbEntity
  8
LAY-10
  6
CONTINUOUS
 62
     7
100
AcDbLine
 10
150.0000000000001
 20
587.5000000000101
 30
0.0
 11
150.0000000000001
 21
647.5000000000102
 31
0.0
  0
LINE
  5
24B
330
1F
100
AcDbEntity
  8
LAY-10
  6
CONTINUOUS
 62
     7
100
AcDbLine
 10
155.0000000000001
 20
587.5000000000101
 30
0.0
 11
155.0000000000001
 21
647.5000000000102
 31
0.0
  0
ARC
  5
24C
330
1F
100
AcDbEntity
  8
LAY-10
  6
CONTINUOUS
 62
     7
100
AcDbCircle
 10
152.5000000000001
 20
552.5000000000101
 30
0.0
 40
2.5
100
AcDbArc
 50
0.0
 51
180.0
  0
ARC
  5
24D
330
1F
100
AcDbEntity
  8
LAY-10
  6
CONTINUOUS
 62
     7
100
AcDbCircle
 10
152.5000000000001
 20
587.5000000000101
 30
0.0
 40
2.5
100
AcDbArc
 50
180.0
 51
0.0
  0
LINE
  5
24E
330
1F
100
AcDbEntity
  8
LAY-10
  6
CONTINUOUS
 62
     7
100
AcDbLine
 10
142.5000000000001
 20
660.0000000000102
 30
0.0
 11
142.5000000000001
 21
480.0000000000101
 31
0.0
  0
ARC
  5
24F
330
1F
100
AcDbEntity
  8
LAY-10
  6
CONTINUOUS
 62
     7
100
AcDbCircle
 10
147.5000000000001
 20
480.0000000000101
 30
0.0
 40
5.0
100
AcDbArc
 50
180.0
 51
270.0000000000002
  0
ARC
  5
250
330
1F
100
AcDbEntity
  8
LAY-10
  6
CONTINUOUS
 62
     7
100
AcDbCircle
 10
147.5000000000001
 20
480.0000000000101
 30
0.0
 40
4.5
100
AcDbArc
 50
180.0
 51
270.0000000000002
  0
ARC
  5
251
330
1F
100
AcDbEntity
  8
LAY-10
  6
CONTINUOUS
 62
     7
100
AcDbCircle
 10
147.5000000000001
 20
660.0000000000102
 30
0.0
 40
4.5
100
AcDbArc
 50
90.00000000000014
 51
180.0
  0
ARC
  5
252
330
1F
100
AcDbEntity
  8
LAY-10
  6
CONTINUOUS
 62
     7
100
AcDbCircle
 10
147.5000000000001
 20
660.0000000000102
 30
0.0
 40
5.0
100
AcDbArc
 50
90.00000000000014
 51
180.0
  0
ARC
  5
253
330
1F
100
AcDbEntity
  8
LAY-10
  6
CONTINUOUS
 62
     7
100
AcDbCircle
 10
160.0000000000001
 20
647.5000000000101
 30
0.0
 40
5.0
100
AcDbArc
 50
90.00000000000014
 51
180.0
  0
ARC
  5
254
330
1F
100
AcDbEntity
  8
LAY-10
  6
CONTINUOUS
 62
     7
100
AcDbCircle
 10
160.0000000000001
 20
492.5000000000101
 30
0.0
 40
5.0
100
AcDbArc
 50
180.0
 51
270.0000000000002
  0
ARC
  5
255
330
1F
100
AcDbEntity
  8
LAY-10
  6
CONTINUOUS
 62
     7
100
AcDbCircle
 10
160.0000000000001
 20
647.5000000000101
 30
0.0
 40
10.0
100
AcDbArc
 50
90.00000000000014
 51
180.0
  0
ARC
  5
256
330
1F
100
AcDbEntity
  8
LAY-10
  6
CONTINUOUS
 62
     7
100
AcDbCircle
 10
160.0000000000001
 20
492.5000000000101
 30
0.0
 40
10.0
100
AcDbArc
 50
180.0
 51
270.0000000000002
  0
ARC
  5
257
330
1F
100
AcDbEntity
  8
LAY-10
  6
CONTINUOUS
 62
     7
100
AcDbCircle
 10
147.5000000000001
 20
660.0000000000102
 30
0.0
 40
9.0
100
AcDbArc
 50
90.00000000000014
 51
180.0
  0
LINE
  5
258
330
1F
100
AcDbEntity
  8
LAY-10
  6
CONTINUOUS
 62
     7
100
AcDbLine
 10
138.5000000000001
 20
480.0000000000101
 30
0.0
 11
138.5000000000001
 21
660.0000000000102
 31
0.0
  0
ARC
  5
259
330
1F
100
AcDbEntity
  8
LAY-10
  6
CONTINUOUS
 62
     7
100
AcDbCircle
 10
147.5000000000001
 20
480.0000000000101
 30
0.0
 40
9.0
100
AcDbArc
 50
180.0
 51
270.0000000000002
  0
ARC
  5
25A
330
1F
100
AcDbEntity
  8
LAY-10
  6
CONTINUOUS
 62
     7
100
AcDbCircle
 10
147.5000000000001
 20
660.0000000000102
 30
0.0
 40
10.0
100
AcDbArc
 50
90.00000000000014
 51
180.0
  0
LINE
  5
25B
330
1F
100
AcDbEntity
  8
LAY-10
  6
CONTINUOUS
 62
     7
100
AcDbLine
 10
137.5000000000001
 20
480.0000000000101
 30
0.0
 11
137.5000000000001
 21
660.0000000000102
 31
0.0
  0
ARC
  5
25C
330
1F
100
AcDbEntity
  8
LAY-10
  6
CONTINUOUS
 62
     7
100
AcDbCircle
 10
147.5000000000001
 20
480.0000000000101
 30
0.0
 40
10.0
100
AcDbArc
 50
180.0
 51
270.0000000000002
  0
LINE
  5
25D
330
1F
100
AcDbEntity
  8
LAY-10
  6
CONTINUOUS
 62
     7
100
AcDbLine
 10
362.5
 20
487.50000000001
 30
0.0
 11
500.0
 21
487.5000000000099
 31
0.0
  0
LINE
  5
25E
330
1F
100
AcDbEntity
  8
LAY-10
  6
CONTINUOUS
 62
     7
100
AcDbLine
 10
362.5
 20
482.50000000001
 30
0.0
 11
500.0
 21
482.5000000000098
 31
0.0
  0
LINE
  5
25F
330
1F
100
AcDbEntity
  8
LAY-10
  6
CONTINUOUS
 62
     7
100
AcDbLine
 10
362.5000000000001
 20
657.50000000001
 30
0.0
 11
500.0000000000001
 21
657.5000000000099
 31
0.0
  0
LINE
  5
260
330
1F
100
AcDbEntity
  8
LAY-10
  6
CONTINUOUS
 62
     7
100
AcDbLine
 10
500.0000000000001
 20
652.5000000000099
 30
0.0
 11
362.5000000000001
 21
652.50000000001
 31
0.0
  0
LINE
  5
261
330
1F
100
AcDbEntity
  8
LAY-10
  6
CONTINUOUS
 62
     7
100
AcDbLine
 10
510.0
 20
492.5000000000099
 30
0.0
 11
510.0
 21
552.5000000000099
 31
0.0
  0
LINE
  5
262
330
1F
100
AcDbEntity
  8
LAY-10
  6
CONTINUOUS
 62
     7
100
AcDbLine
 10
504.9999999999999
 20
492.5000000000099
 30
0.0
 11
504.9999999999999
 21
552.5000000000099
 31
0.0
  0
LINE
  5
263
330
1F
100
AcDbEntity
  8
LAY-10
  6
CONTINUOUS
 62
     7
100
AcDbLine
 10
510.0000000000001
 20
587.5000000000099
 30
0.0
 11
510.0000000000001
 21
647.5000000000099
 31
0.0
  0
LINE
  5
264
330
1F
100
AcDbEntity
  8
LAY-10
  6
CONTINUOUS
 62
     7
100
AcDbLine
 10
505.0000000000001
 20
587.5000000000099
 30
0.0
 11
505.0000000000001
 21
647.5000000000099
 31
0.0
  0
ARC
  5
265
330
1F
100
AcDbEntity
  8
LAY-10
  6
CONTINUOUS
 62
     7
100
AcDbCircle
 10
507.5
 20
552.5000000000099
 30
0.0
 40
2.5
100
AcDbArc
 50
0.0
 51
180.0
  0
ARC
  5
266
330
1F
100
AcDbEntity
  8
LAY-10
  6
CONTINUOUS
 62
     7
100
AcDbCircle
 10
507.5000000000001
 20
587.5000000000099
 30
0.0
 40
2.5
100
AcDbArc
 50
180.0
 51
0.0
  0
LINE
  5
267
330
1F
100
AcDbEntity
  8
LAY-10
  6
CONTINUOUS
 62
     7
100
AcDbLine
 10
517.5000000000001
 20
660.0000000000099
 30
0.0
 11
517.5
 21
480.0000000000099
 31
0.0
  0
ARC
  5
268
330
1F
100
AcDbEntity
  8
LAY-10
  6
CONTINUOUS
 62
     7
100
AcDbCircle
 10
512.5
 20
480.0000000000099
 30
0.0
 40
5.0
100
AcDbArc
 50
270.0000000000002
 51
0.0
  0
ARC
  5
269
330
1F
100
AcDbEntity
  8
LAY-10
  6
CONTINUOUS
 62
     7
100
AcDbCircle
 10
512.5
 20
480.0000000000099
 30
0.0
 40
4.5
100
AcDbArc
 50
270.0000000000002
 51
0.0
  0
ARC
  5
26A
330
1F
100
AcDbEntity
  8
LAY-10
  6
CONTINUOUS
 62
     7
100
AcDbCircle
 10
512.5000000000001
 20
660.0000000000099
 30
0.0
 40
4.5
100
AcDbArc
 50
0.0
 51
90.00000000000014
  0
ARC
  5
26B
330
1F
100
AcDbEntity
  8
LAY-10
  6
CONTINUOUS
 62
     7
100
AcDbCircle
 10
512.5000000000001
 20
660.0000000000099
 30
0.0
 40
5.0
100
AcDbArc
 50
0.0
 51
90.00000000000014
  0
ARC
  5
26C
330
1F
100
AcDbEntity
  8
LAY-10
  6
CONTINUOUS
 62
     7
100
AcDbCircle
 10
500.0000000000001
 20
647.5000000000099
 30
0.0
 40
5.0
100
AcDbArc
 50
0.0
 51
90.00000000000014
  0
ARC
  5
26D
330
1F
100
AcDbEntity
  8
LAY-10
  6
CONTINUOUS
 62
     7
100
AcDbCircle
 10
500.0
 20
492.5000000000099
 30
0.0
 40
5.0
100
AcDbArc
 50
270.0000000000002
 51
0.0
  0
ARC
  5
26E
330
1F
100
AcDbEntity
  8
LAY-10
  6
CONTINUOUS
 62
     7
100
AcDbCircle
 10
500.0000000000001
 20
647.5000000000099
 30
0.0
 40
10.0
100
AcDbArc
 50
0.0
 51
90.00000000000014
  0
ARC
  5
26F
330
1F
100
AcDbEntity
  8
LAY-10
  6
CONTINUOUS
 62
     7
100
AcDbCircle
 10
500.0
 20
492.5000000000099
 30
0.0
 40
10.0
100
AcDbArc
 50
270.0000000000002
 51
0.0
  0
ARC
  5
270
330
1F
100
AcDbEntity
  8
LAY-10
  6
CONTINUOUS
 62
     7
100
AcDbCircle
 10
512.5000000000001
 20
660.0000000000099
 30
0.0
 40
9.0
100
AcDbArc
 50
0.0
 51
90.00000000000014
  0
LINE
  5
271
330
1F
100
AcDbEntity
  8
LAY-10
  6
CONTINUOUS
 62
     7
100
AcDbLine
 10
521.5
 20
480.0000000000099
 30
0.0
 11
521.5000000000001
 21
660.0000000000099
 31
0.0
  0
ARC
  5
272
330
1F
100
AcDbEntity
  8
LAY-10
  6
CONTINUOUS
 62
     7
100
AcDbCircle
 10
512.5
 20
480.0000000000099
 30
0.0
 40
9.0
100
AcDbArc
 50
270.0000000000002
 51
0.0
  0
ARC
  5
273
330
1F
100
AcDbEntity
  8
LAY-10
  6
CONTINUOUS
 62
     7
100
AcDbCircle
 10
512.5000000000001
 20
660.0000000000099
 30
0.0
 40
10.0
100
AcDbArc
 50
0.0
 51
90.00000000000014
  0
LINE
  5
274
330
1F
100
AcDbEntity
  8
LAY-10
  6
CONTINUOUS
 62
     7
100
AcDbLine
 10
522.5
 20
480.0000000000099
 30
0.0
 11
522.5000000000001
 21
660.0000000000099
 31
0.0
  0
ARC
  5
275
330
1F
100
AcDbEntity
  8
LAY-10
  6
CONTINUOUS
 62
     7
100
AcDbCircle
 10
512.5
 20
480.0000000000099
 30
0.0
 40
10.0
100
AcDbArc
 50
270.0000000000002
 51
0.0
  0
ARC
  5
276
330
1F
100
AcDbEntity
  8
LAY-10
  6
CONTINUOUS
 62
     7
100
AcDbCircle
 10
362.5
 20
485.0000000000099
 30
0.0
 40
2.500000000000229
100
AcDbArc
 50
90.00000000000014
 51
270.0000000000002
  0
ARC
  5
277
330
1F
100
AcDbEntity
  8
LAY-10
  6
CONTINUOUS
 62
     7
100
AcDbCircle
 10
297.4999999999998
 20
485.0000000000099
 30
0.0
 40
2.500000000000229
100
AcDbArc
 50
270.0000000000002
 51
90.00000000000014
  0
TEXT
  5
278
330
1F
100
AcDbEntity
  8
LAY-10
  6
CONTINUOUS
 62
     7
100
AcDbText
 10
323.7500000000006
 20
652.3435302904285
 30
0.0
 40
6.2362208
  1
ＳＦ
 50
360.0
 41
1.00625
  7
EXCADSTD
100
AcDbText
  0
ARC
  5
279
330
1F
100
AcDbEntity
  8
LAY-10
  6
CONTINUOUS
 62
     7
100
AcDbCircle
 10
297.5000000000001
 20
655.00000000001
 30
0.0
 40
2.500000000000229
100
AcDbArc
 50
270.0000000000002
 51
90.00000000000014
  0
ARC
  5
27A
330
1F
100
AcDbEntity
  8
LAY-10
  6
CONTINUOUS
 62
     7
100
AcDbCircle
 10
362.5000000000001
 20
655.00000000001
 30
0.0
 40
2.500000000000229
100
AcDbArc
 50
90.00000000000014
 51
270.0000000000002
  0
CIRCLE
  5
27B
330
1F
100
AcDbEntity
  8
LAY-10
  6
CONTINUOUS
 62
     7
100
AcDbCircle
 10
330.0000000000001
 20
570.00000000001
 30
0.0
 40
46.37150778752
  0
CIRCLE
  5
27C
330
1F
100
AcDbEntity
  8
LAY-10
  6
CONTINUOUS
 62
     7
100
AcDbCircle
 10
330.0000000000001
 20
570.00000000001
 30
0.0
 40
41.98832311061001
  0
TEXT
  5
27D
330
1F
100
AcDbEntity
  8
LAY-10
  6
CONTINUOUS
 62
     7
100
AcDbText
 10
396.8307085638288
 20
611.00000000001
 30
0.0
 40
3.897637628292274
  1
２１００
 50
90.00000000000001
 41
1.129411764705883
  7
EXCADSTD
100
AcDbText
  0
TEXT
  5
27E
330
1F
100
AcDbEntity
  8
LAY-10
  6
CONTINUOUS
 62
     7
100
AcDbText
 10
396.8307085638288
 20
509.70000000001
 30
0.0
 40
3.897637628292274
  1
ＲＭ○Ｘ－
 50
90.00000000000001
 41
1.125581395348837
  7
EXCADSTD
100
AcDbText
  0
ARC
  5
27F
330
1F
100
AcDbEntity
  8
LAY-10
  6
CONTINUOUS
 62
     7
100
AcDbCircle
 10
176.0000000000001
 20
505.0000000000101
 30
0.0
 40
2.0
100
AcDbArc
 50
210.0000000000034
 51
270.0000000000002
  0
ARC
  5
280
330
1F
100
AcDbEntity
  8
LAY-10
  6
CONTINUOUS
 62
     7
100
AcDbCircle
 10
251.0
 20
505.0000000000101
 30
0.0
 40
2.0
100
AcDbArc
 50
270.0000000000002
 51
329.9999999999966
  0
LINE
  5
281
330
1F
100
AcDbEntity
  8
LAY-10
  6
CONTINUOUS
 62
     7
100
AcDbLine
 10
259.0000000000001
 20
550.0000000000101
 30
0.0
 11
258.0000000000001
 21
550.0000000000101
 31
0.0
  0
LINE
  5
282
330
1F
100
AcDbEntity
  8
LAY-10
  6
CONTINUOUS
 62
     7
100
AcDbLine
 10
260.0000000000001
 20
590.0000000000101
 30
0.0
 11
258.0000000000001
 21
590.0000000000101
 31
0.0
  0
ARC
  5
283
330
1F
100
AcDbEntity
  8
LAY-10
  6
CONTINUOUS
 62
     7
100
AcDbCircle
 10
251.0000000000001
 20
635.0000000000101
 30
0.0
 40
2.0
100
AcDbArc
 50
30.00000000000053
 51
90.00000000000014
  0
ARC
  5
284
330
1F
100
AcDbEntity
  8
LAY-10
  6
CONTINUOUS
 62
     7
100
AcDbCircle
 10
176.0000000000001
 20
635.0000000000101
 30
0.0
 40
2.0
100
AcDbArc
 50
90.00000000000014
 51
149.9999999999994
  0
LINE
  5
285
330
1F
100
AcDbEntity
  8
LAY-10
  6
CONTINUOUS
 62
     7
100
AcDbLine
 10
400.0000000000001
 20
590.00000000001
 30
0.0
 11
402.0000000000001
 21
590.00000000001
 31
0.0
  0
ARC
  5
286
330
1F
100
AcDbEntity
  8
LAY-10
  6
CONTINUOUS
 62
     7
100
AcDbCircle
 10
409.0000000000001
 20
635.00000000001
 30
0.0
 40
2.0
100
AcDbArc
 50
90.00000000000014
 51
149.9999999999994
  0
ARC
  5
287
330
1F
100
AcDbEntity
  8
LAY-10
  6
CONTINUOUS
 62
     7
100
AcDbCircle
 10
484.0000000000001
 20
635.00000000001
 30
0.0
 40
2.0
100
AcDbArc
 50
30.00000000000053
 51
90.00000000000014
  0
ARC
  5
288
330
1F
100
AcDbEntity
  8
LAY-10
  6
CONTINUOUS
 62
     7
100
AcDbCircle
 10
409.0000000000001
 20
505.00000000001
 30
0.0
 40
2.0
100
AcDbArc
 50
210.000000000002
 51
270.0000000000002
  0
LINE
  5
289
330
1F
100
AcDbEntity
  8
LAY-10
  6
CONTINUOUS
 62
     7
100
AcDbLine
 10
400.0000000000001
 20
550.00000000001
 30
0.0
 11
402.0000000000001
 21
550.00000000001
 31
0.0
  0
ARC
  5
28A
330
1F
100
AcDbEntity
  8
LAY-10
  6
CONTINUOUS
 62
     7
100
AcDbCircle
 10
484.0000000000001
 20
505.0000000000098
 30
0.0
 40
2.0
100
AcDbArc
 50
270.0000000000002
 51
330.0000000000039
  0
LINE
  5
28B
330
1F
100
AcDbEntity
  8
LAY-10
  6
CONTINUOUS
 62
     7
100
AcDbLine
 10
492.0000000000001
 20
504.00000000001
 30
0.0
 11
402.0000000000001
 21
504.00000000001
 31
0.0
  0
LINE
  5
28C
330
1F
100
AcDbEntity
  8
LAY-10
  6
CONTINUOUS
 62
     7
100
AcDbLine
 10
492.0000000000001
 20
636.00000000001
 30
0.0
 11
492.0000000000001
 21
504.00000000001
 31
0.0
  0
LINE
  5
28D
330
1F
100
AcDbEntity
  8
LAY-10
  6
CONTINUOUS
 62
     7
100
AcDbLine
 10
402.0000000000001
 20
636.00000000001
 30
0.0
 11
492.0000000000001
 21
636.00000000001
 31
0.0
  0
LINE
  5
28E
330
1F
100
AcDbEntity
  8
LAY-10
  6
CONTINUOUS
 62
     7
100
AcDbLine
 10
402.0000000000001
 20
636.00000000001
 30
0.0
 11
402.0000000000001
 21
504.00000000001
 31
0.0
  0
ARC
  5
28F
330
1F
100
AcDbEntity
  8
LAY-10
  6
CONTINUOUS
 62
     7
100
AcDbCircle
 10
417.3999999999986
 20
622.8000000000095
 30
0.0
 40
4.3999999999985
100
AcDbArc
 50
90.00000000000014
 51
270.0000000000002
  0
ARC
  5
290
330
1F
100
AcDbEntity
  8
LAY-10
  6
CONTINUOUS
 62
     7
100
AcDbCircle
 10
476.6000000000016
 20
622.8000000000095
 30
0.0
 40
4.3999999999985
100
AcDbArc
 50
270.0000000000002
 51
90.00000000000014
  0
LINE
  5
291
330
1F
100
AcDbEntity
  8
LAY-10
  6
CONTINUOUS
 62
     7
100
AcDbLine
 10
417.3999999999986
 20
618.4000000000094
 30
0.0
 11
476.6000000000016
 21
618.4000000000094
 31
0.0
  0
LINE
  5
292
330
1F
100
AcDbEntity
  8
LAY-10
  6
CONTINUOUS
 62
     7
100
AcDbLine
 10
417.3999999999986
 20
627.2000000000096
 30
0.0
 11
476.6000000000016
 21
627.2000000000096
 31
0.0
  0
ARC
  5
293
330
1F
100
AcDbEntity
  8
LAY-10
  6
CONTINUOUS
 62
     7
100
AcDbCircle
 10
417.3999999999986
 20
605.2000000000096
 30
0.0
 40
4.3999999999985
100
AcDbArc
 50
90.00000000000014
 51
270.0000000000002
  0
ARC
  5
294
330
1F
100
AcDbEntity
  8
LAY-10
  6
CONTINUOUS
 62
     7
100
AcDbCircle
 10
476.6000000000016
 20
605.2000000000096
 30
0.0
 40
4.3999999999985
100
AcDbArc
 50
270.0000000000002
 51
90.00000000000014
  0
LINE
  5
295
330
1F
100
AcDbEntity
  8
LAY-10
  6
CONTINUOUS
 62
     7
100
AcDbLine
 10
417.3999999999986
 20
600.8000000000095
 30
0.0
 11
476.6000000000016
 21
600.8000000000095
 31
0.0
  0
LINE
  5
296
330
1F
100
AcDbEntity
  8
LAY-10
  6
CONTINUOUS
 62
     7
100
AcDbLine
 10
417.3999999999986
 20
609.6000000000097
 30
0.0
 11
476.6000000000016
 21
609.6000000000097
 31
0.0
  0
ARC
  5
297
330
1F
100
AcDbEntity
  8
LAY-10
  6
CONTINUOUS
 62
     7
100
AcDbCircle
 10
417.3999999999986
 20
587.6000000000097
 30
0.0
 40
4.3999999999985
100
AcDbArc
 50
90.00000000000014
 51
270.0000000000002
  0
ARC
  5
298
330
1F
100
AcDbEntity
  8
LAY-10
  6
CONTINUOUS
 62
     7
100
AcDbCircle
 10
476.6000000000016
 20
587.6000000000097
 30
0.0
 40
4.3999999999985
100
AcDbArc
 50
270.0000000000002
 51
90.00000000000014
  0
LINE
  5
299
330
1F
100
AcDbEntity
  8
LAY-10
  6
CONTINUOUS
 62
     7
100
AcDbLine
 10
417.3999999999986
 20
583.2000000000096
 30
0.0
 11
476.6000000000016
 21
583.2000000000096
 31
0.0
  0
LINE
  5
29A
330
1F
100
AcDbEntity
  8
LAY-10
  6
CONTINUOUS
 62
     7
100
AcDbLine
 10
417.3999999999986
 20
592.0000000000098
 30
0.0
 11
476.6000000000016
 21
592.0000000000098
 31
0.0
  0
ARC
  5
29B
330
1F
100
AcDbEntity
  8
LAY-10
  6
CONTINUOUS
 62
     7
100
AcDbCircle
 10
417.3999999999986
 20
570.0000000000095
 30
0.0
 40
4.3999999999985
100
AcDbArc
 50
90.00000000000014
 51
270.0000000000002
  0
ARC
  5
29C
330
1F
100
AcDbEntity
  8
LAY-10
  6
CONTINUOUS
 62
     7
100
AcDbCircle
 10
417.3999999999986
 20
517.2000000000105
 30
0.0
 40
4.3999999999985
100
AcDbArc
 50
90.00000000000014
 51
270.0000000000002
  0
ARC
  5
29D
330
1F
100
AcDbEntity
  8
LAY-10
  6
CONTINUOUS
 62
     7
100
AcDbCircle
 10
476.6000000000016
 20
517.2000000000105
 30
0.0
 40
4.3999999999985
100
AcDbArc
 50
270.0000000000002
 51
90.00000000000014
  0
LINE
  5
29E
330
1F
100
AcDbEntity
  8
LAY-10
  6
CONTINUOUS
 62
     7
100
AcDbLine
 10
417.3999999999986
 20
521.6000000000106
 30
0.0
 11
476.6000000000016
 21
521.6000000000106
 31
0.0
  0
LINE
  5
29F
330
1F
100
AcDbEntity
  8
LAY-10
  6
CONTINUOUS
 62
     7
100
AcDbLine
 10
417.3999999999986
 20
512.8000000000104
 30
0.0
 11
476.6000000000016
 21
512.8000000000104
 31
0.0
  0
ARC
  5
2A0
330
1F
100
AcDbEntity
  8
LAY-10
  6
CONTINUOUS
 62
     7
100
AcDbCircle
 10
417.3999999999986
 20
534.8000000000104
 30
0.0
 40
4.3999999999985
100
AcDbArc
 50
90.00000000000014
 51
270.0000000000002
  0
ARC
  5
2A1
330
1F
100
AcDbEntity
  8
LAY-10
  6
CONTINUOUS
 62
     7
100
AcDbCircle
 10
476.6000000000016
 20
534.8000000000104
 30
0.0
 40
4.3999999999985
100
AcDbArc
 50
270.0000000000002
 51
90.00000000000014
  0
LINE
  5
2A2
330
1F
100
AcDbEntity
  8
LAY-10
  6
CONTINUOUS
 62
     7
100
AcDbLine
 10
417.3999999999986
 20
539.2000000000105
 30
0.0
 11
476.6000000000016
 21
539.2000000000105
 31
0.0
  0
LINE
  5
2A3
330
1F
100
AcDbEntity
  8
LAY-10
  6
CONTINUOUS
 62
     7
100
AcDbLine
 10
417.3999999999986
 20
530.4000000000103
 30
0.0
 11
476.6000000000016
 21
530.4000000000103
 31
0.0
  0
ARC
  5
2A4
330
1F
100
AcDbEntity
  8
LAY-10
  6
CONTINUOUS
 62
     7
100
AcDbCircle
 10
417.3999999999986
 20
552.4000000000103
 30
0.0
 40
4.3999999999985
100
AcDbArc
 50
90.00000000000014
 51
270.0000000000002
  0
ARC
  5
2A5
330
1F
100
AcDbEntity
  8
LAY-10
  6
CONTINUOUS
 62
     7
100
AcDbCircle
 10
476.6000000000016
 20
552.4000000000103
 30
0.0
 40
4.3999999999985
100
AcDbArc
 50
270.0000000000002
 51
90.00000000000014
  0
LINE
  5
2A6
330
1F
100
AcDbEntity
  8
LAY-10
  6
CONTINUOUS
 62
     7
100
AcDbLine
 10
417.3999999999986
 20
556.8000000000104
 30
0.0
 11
476.6000000000016
 21
556.8000000000104
 31
0.0
  0
LINE
  5
2A7
330
1F
100
AcDbEntity
  8
LAY-10
  6
CONTINUOUS
 62
     7
100
AcDbLine
 10
417.3999999999986
 20
548.0000000000102
 30
0.0
 11
476.6000000000016
 21
548.0000000000102
 31
0.0
  0
CIRCLE
  5
2A8
330
1F
100
AcDbEntity
  8
LAY-10
  6
CONTINUOUS
 62
     7
100
AcDbCircle
 10
484.0000000000001
 20
570.00000000001
 30
0.0
 40
6.250000000000004
  0
ARC
  5
2A9
330
1F
100
AcDbEntity
  8
LAY-10
  6
CONTINUOUS
 62
     7
100
AcDbCircle
 10
465.5999999999992
 20
570.0000000000095
 30
0.0
 40
4.400000000000549
100
AcDbArc
 50
270.0000000000002
 51
90.00000000000014
  0
LINE
  5
2AA
330
1F
100
AcDbEntity
  8
LAY-10
  6
CONTINUOUS
 62
     7
100
AcDbLine
 10
417.3999999999986
 20
574.4000000000096
 30
0.0
 11
465.6000000000001
 21
574.4000000000096
 31
0.0
  0
LINE
  5
2AB
330
1F
100
AcDbEntity
  8
LAY-10
  6
CONTINUOUS
 62
     7
100
AcDbLine
 10
417.3999999999986
 20
565.6000000000095
 30
0.0
 11
465.6000000000001
 21
565.6000000000095
 31
0.0
  0
ARC
  5
2AC
330
1F
100
AcDbEntity
  8
LAY-10
  6
CONTINUOUS
 62
     7
100
AcDbCircle
 10
484.0000000000001
 20
570.00000000005
 30
0.0
 40
6.000000000000004
100
AcDbArc
 50
125.7391704772692
 51
294.2608295227303
  0
LINE
  5
2AD
330
1F
100
AcDbEntity
  8
LAY-10
  6
CONTINUOUS
 62
     7
100
AcDbLine
 10
486.465347069049
 20
564.5298936181659
 30
0.0
 11
480.4954224464093
 21
574.8701063819344
 31
0.0
  0
LINE
  5
2AE
330
1F
100
AcDbEntity
  8
LAY-10
  6
CONTINUOUS
 62
     7
100
AcDbLine
 10
482.0196152422708
 20
574.630127018972
 30
0.0
 11
480.9803847577294
 21
574.030127018972
 31
0.0
  0
LINE
  5
2AF
330
1F
100
AcDbEntity
  8
LAY-10
  6
CONTINUOUS
 62
     7
100
AcDbLine
 10
487.5045775535904
 20
565.1298936181659
 30
0.0
 11
481.5346529309508
 21
575.4701063819341
 31
0.0
  0
LINE
  5
2B0
330
1F
100
AcDbEntity
  8
LAY-10
  6
CONTINUOUS
 62
     7
100
AcDbLine
 10
487.0196152422705
 20
565.9698729811278
 30
0.0
 11
485.9803847577294
 21
565.3698729811279
 31
0.0
  0
ARC
  5
2B1
330
1F
100
AcDbEntity
  8
LAY-10
  6
CONTINUOUS
 62
     7
100
AcDbCircle
 10
484.0000000000001
 20
570.00000000005
 30
0.0
 40
6.000000000000004
100
AcDbArc
 50
305.7391704772664
 51
114.2608295227362
  0
LINE
  5
2B2
330
1F
100
AcDbEntity
  8
LAY-10
  6
CONTINUOUS
 62
     7
100
AcDbLine
 10
168.0000000000001
 20
636.00000000001
 30
0.0
 11
258.0000000000001
 21
636.00000000001
 31
0.0
  0
LINE
  5
2B3
330
1F
100
AcDbEntity
  8
LAY-10
  6
CONTINUOUS
 62
     7
100
AcDbLine
 10
168.0000000000001
 20
504.0000000000101
 30
0.0
 11
168.0000000000001
 21
636.00000000001
 31
0.0
  0
LINE
  5
2B4
330
1F
100
AcDbEntity
  8
LAY-10
  6
CONTINUOUS
 62
     7
100
AcDbLine
 10
258.0000000000001
 20
504.00000000001
 30
0.0
 11
168.0000000000001
 21
504.0000000000101
 31
0.0
  0
ARC
  5
2B5
330
1F
100
AcDbEntity
  8
LAY-10
  6
CONTINUOUS
 62
     7
100
AcDbCircle
 10
242.6000000000016
 20
517.2000000000105
 30
0.0
 40
4.3999999999985
100
AcDbArc
 50
270.0000000000002
 51
90.00000000000014
  0
ARC
  5
2B6
330
1F
100
AcDbEntity
  8
LAY-10
  6
CONTINUOUS
 62
     7
100
AcDbCircle
 10
183.3999999999986
 20
517.2000000000106
 30
0.0
 40
4.3999999999985
100
AcDbArc
 50
90.00000000000014
 51
270.0000000000002
  0
LINE
  5
2B7
330
1F
100
AcDbEntity
  8
LAY-10
  6
CONTINUOUS
 62
     7
100
AcDbLine
 10
242.6000000000016
 20
521.6000000000106
 30
0.0
 11
183.3999999999986
 21
521.6000000000107
 31
0.0
  0
LINE
  5
2B8
330
1F
100
AcDbEntity
  8
LAY-10
  6
CONTINUOUS
 62
     7
100
AcDbLine
 10
242.6000000000016
 20
512.8000000000104
 30
0.0
 11
183.3999999999986
 21
512.8000000000105
 31
0.0
  0
ARC
  5
2B9
330
1F
100
AcDbEntity
  8
LAY-10
  6
CONTINUOUS
 62
     7
100
AcDbCircle
 10
242.6000000000016
 20
534.8000000000104
 30
0.0
 40
4.3999999999985
100
AcDbArc
 50
270.0000000000002
 51
90.00000000000014
  0
ARC
  5
2BA
330
1F
100
AcDbEntity
  8
LAY-10
  6
CONTINUOUS
 62
     7
100
AcDbCircle
 10
183.3999999999986
 20
534.8000000000105
 30
0.0
 40
4.3999999999985
100
AcDbArc
 50
90.00000000000014
 51
270.0000000000002
  0
LINE
  5
2BB
330
1F
100
AcDbEntity
  8
LAY-10
  6
CONTINUOUS
 62
     7
100
AcDbLine
 10
242.6000000000016
 20
539.2000000000105
 30
0.0
 11
183.3999999999986
 21
539.2000000000106
 31
0.0
  0
LINE
  5
2BC
330
1F
100
AcDbEntity
  8
LAY-10
  6
CONTINUOUS
 62
     7
100
AcDbLine
 10
242.6000000000016
 20
530.4000000000103
 30
0.0
 11
183.3999999999986
 21
530.4000000000104
 31
0.0
  0
ARC
  5
2BD
330
1F
100
AcDbEntity
  8
LAY-10
  6
CONTINUOUS
 62
     7
100
AcDbCircle
 10
242.6000000000016
 20
552.4000000000103
 30
0.0
 40
4.3999999999985
100
AcDbArc
 50
270.0000000000002
 51
90.00000000000014
  0
ARC
  5
2BE
330
1F
100
AcDbEntity
  8
LAY-10
  6
CONTINUOUS
 62
     7
100
AcDbCircle
 10
183.3999999999986
 20
552.4000000000104
 30
0.0
 40
4.3999999999985
100
AcDbArc
 50
90.00000000000014
 51
270.0000000000002
  0
LINE
  5
2BF
330
1F
100
AcDbEntity
  8
LAY-10
  6
CONTINUOUS
 62
     7
100
AcDbLine
 10
242.6000000000016
 20
556.8000000000104
 30
0.0
 11
183.3999999999986
 21
556.8000000000104
 31
0.0
  0
LINE
  5
2C0
330
1F
100
AcDbEntity
  8
LAY-10
  6
CONTINUOUS
 62
     7
100
AcDbLine
 10
242.6000000000016
 20
548.0000000000102
 30
0.0
 11
183.3999999999986
 21
548.0000000000103
 31
0.0
  0
ARC
  5
2C1
330
1F
100
AcDbEntity
  8
LAY-10
  6
CONTINUOUS
 62
     7
100
AcDbCircle
 10
242.6000000000016
 20
570.0000000000105
 30
0.0
 40
4.3999999999985
100
AcDbArc
 50
270.0000000000002
 51
90.00000000000014
  0
ARC
  5
2C2
330
1F
100
AcDbEntity
  8
LAY-10
  6
CONTINUOUS
 62
     7
100
AcDbCircle
 10
242.6000000000016
 20
622.8000000000095
 30
0.0
 40
4.3999999999985
100
AcDbArc
 50
270.0000000000002
 51
90.00000000000014
  0
ARC
  5
2C3
330
1F
100
AcDbEntity
  8
LAY-10
  6
CONTINUOUS
 62
     7
100
AcDbCircle
 10
183.3999999999986
 20
622.8000000000095
 30
0.0
 40
4.3999999999985
100
AcDbArc
 50
90.00000000000014
 51
270.0000000000002
  0
LINE
  5
2C4
330
1F
100
AcDbEntity
  8
LAY-10
  6
CONTINUOUS
 62
     7
100
AcDbLine
 10
242.6000000000016
 20
618.4000000000094
 30
0.0
 11
183.3999999999986
 21
618.4000000000094
 31
0.0
  0
LINE
  5
2C5
330
1F
100
AcDbEntity
  8
LAY-10
  6
CONTINUOUS
 62
     7
100
AcDbLine
 10
242.6000000000016
 20
627.2000000000096
 30
0.0
 11
183.3999999999986
 21
627.2000000000096
 31
0.0
  0
ARC
  5
2C6
330
1F
100
AcDbEntity
  8
LAY-10
  6
CONTINUOUS
 62
     7
100
AcDbCircle
 10
242.6000000000016
 20
605.2000000000096
 30
0.0
 40
4.3999999999985
100
AcDbArc
 50
270.0000000000002
 51
90.00000000000014
  0
ARC
  5
2C7
330
1F
100
AcDbEntity
  8
LAY-10
  6
CONTINUOUS
 62
     7
100
AcDbCircle
 10
183.3999999999986
 20
605.2000000000096
 30
0.0
 40
4.3999999999985
100
AcDbArc
 50
90.00000000000014
 51
270.0000000000002
  0
LINE
  5
2C8
330
1F
100
AcDbEntity
  8
LAY-10
  6
CONTINUOUS
 62
     7
100
AcDbLine
 10
242.6000000000016
 20
600.8000000000095
 30
0.0
 11
183.3999999999986
 21
600.8000000000095
 31
0.0
  0
LINE
  5
2C9
330
1F
100
AcDbEntity
  8
LAY-10
  6
CONTINUOUS
 62
     7
100
AcDbLine
 10
242.6000000000016
 20
609.6000000000097
 30
0.0
 11
183.3999999999986
 21
609.6000000000097
 31
0.0
  0
ARC
  5
2CA
330
1F
100
AcDbEntity
  8
LAY-10
  6
CONTINUOUS
 62
     7
100
AcDbCircle
 10
242.6000000000016
 20
587.6000000000097
 30
0.0
 40
4.3999999999985
100
AcDbArc
 50
270.0000000000002
 51
90.00000000000014
  0
ARC
  5
2CB
330
1F
100
AcDbEntity
  8
LAY-10
  6
CONTINUOUS
 62
     7
100
AcDbCircle
 10
183.3999999999986
 20
587.6000000000098
 30
0.0
 40
4.3999999999985
100
AcDbArc
 50
90.00000000000014
 51
270.0000000000002
  0
LINE
  5
2CC
330
1F
100
AcDbEntity
  8
LAY-10
  6
CONTINUOUS
 62
     7
100
AcDbLine
 10
242.6000000000016
 20
583.2000000000096
 30
0.0
 11
183.3999999999986
 21
583.2000000000096
 31
0.0
  0
LINE
  5
2CD
330
1F
100
AcDbEntity
  8
LAY-10
  6
CONTINUOUS
 62
     7
100
AcDbLine
 10
242.6000000000016
 20
592.0000000000098
 30
0.0
 11
183.3999999999986
 21
592.0000000000098
 31
0.0
  0
CIRCLE
  5
2CE
330
1F
100
AcDbEntity
  8
LAY-10
  6
CONTINUOUS
 62
     7
100
AcDbCircle
 10
176.0000000000001
 20
570.0000000000101
 30
0.0
 40
6.250000000000004
  0
ARC
  5
2CF
330
1F
100
AcDbEntity
  8
LAY-10
  6
CONTINUOUS
 62
     7
100
AcDbCircle
 10
194.400000000001
 20
570.0000000000105
 30
0.0
 40
4.400000000000549
100
AcDbArc
 50
90.00000000000014
 51
270.0000000000002
  0
LINE
  5
2D0
330
1F
100
AcDbEntity
  8
LAY-10
  6
CONTINUOUS
 62
     7
100
AcDbLine
 10
242.6000000000016
 20
565.6000000000104
 30
0.0
 11
194.4000000000001
 21
565.6000000000104
 31
0.0
  0
LINE
  5
2D1
330
1F
100
AcDbEntity
  8
LAY-10
  6
CONTINUOUS
 62
     7
100
AcDbLine
 10
242.6000000000016
 20
574.4000000000106
 30
0.0
 11
194.4000000000001
 21
574.4000000000106
 31
0.0
  0
ARC
  5
2D2
330
1F
100
AcDbEntity
  8
LAY-10
  6
CONTINUOUS
 62
     7
100
AcDbCircle
 10
176.0000000000001
 20
569.9999999999701
 30
0.0
 40
6.000000000000004
100
AcDbArc
 50
305.7391704772688
 51
114.2608295227303
  0
LINE
  5
2D3
330
1F
100
AcDbEntity
  8
LAY-10
  6
CONTINUOUS
 62
     7
100
AcDbLine
 10
173.5346529309512
 20
575.4701063818542
 30
0.0
 11
179.5045775535908
 21
565.1298936180857
 31
0.0
  0
LINE
  5
2D4
330
1F
100
AcDbEntity
  8
LAY-10
  6
CONTINUOUS
 62
     7
100
AcDbLine
 10
177.9803847577294
 20
565.3698729810482
 30
0.0
 11
179.0196152422708
 21
565.9698729810481
 31
0.0
  0
LINE
  5
2D5
330
1F
100
AcDbEntity
  8
LAY-10
  6
CONTINUOUS
 62
     7
100
AcDbLine
 10
172.4954224464099
 20
574.8701063818543
 30
0.0
 11
178.4653470690495
 21
564.529893618086
 31
0.0
  0
LINE
  5
2D6
330
1F
100
AcDbEntity
  8
LAY-10
  6
CONTINUOUS
 62
     7
100
AcDbLine
 10
172.9803847577297
 20
574.0301270188924
 30
0.0
 11
174.0196152422708
 21
574.6301270188923
 31
0.0
  0
ARC
  5
2D7
330
1F
100
AcDbEntity
  8
LAY-10
  6
CONTINUOUS
 62
     7
100
AcDbCircle
 10
176.0000000000001
 20
569.9999999999701
 30
0.0
 40
6.000000000000004
100
AcDbArc
 50
125.7391704772663
 51
294.2608295227363
  0
CIRCLE
  5
2D8
330
1F
100
AcDbEntity
  8
LAY-10
  6
CONTINUOUS
 62
     7
100
AcDbCircle
 10
330.0000000000001
 20
570.00000000001
 30
0.0
 40
58.50000000000004
  0
CIRCLE
  5
2D9
330
1F
100
AcDbEntity
  8
LAY-10
  6
CONTINUOUS
 62
     7
100
AcDbCircle
 10
330.0000000000001
 20
570.00000000001
 30
0.0
 40
63.50000000000004
  0
ARC
  5
2DA
330
1F
100
AcDbEntity
  8
LAY-10
  6
CONTINUOUS
 62
     7
100
AcDbCircle
 10
398.0000000000001
 20
634.00000000001
 30
0.0
 40
2.0
100
AcDbArc
 50
0.0
 51
90.00000000000014
  0
LINE
  5
2DB
330
1F
100
AcDbEntity
  8
LAY-10
  6
CONTINUOUS
 62
     7
100
AcDbLine
 10
400.0000000000001
 20
634.00000000001
 30
0.0
 11
400.0000000000001
 21
506.0000000000099
 31
0.0
  0
ARC
  5
2DC
330
1F
100
AcDbEntity
  8
LAY-10
  6
CONTINUOUS
 62
     7
100
AcDbCircle
 10
398.0000000000001
 20
506.0000000000099
 30
0.0
 40
2.0
100
AcDbArc
 50
270.0000000000002
 51
0.0
  0
LINE
  5
2DD
330
1F
100
AcDbEntity
  8
LAY-10
  6
CONTINUOUS
 62
     7
100
AcDbLine
 10
398.0000000000001
 20
504.00000000001
 30
0.0
 11
262.0000000000001
 21
504.0000000000101
 31
0.0
  0
ARC
  5
2DE
330
1F
100
AcDbEntity
  8
LAY-10
  6
CONTINUOUS
 62
     7
100
AcDbCircle
 10
262.0000000000001
 20
506.0000000000101
 30
0.0
 40
2.0
100
AcDbArc
 50
180.0
 51
270.0000000000002
  0
LINE
  5
2DF
330
1F
100
AcDbEntity
  8
LAY-10
  6
CONTINUOUS
 62
     7
100
AcDbLine
 10
398.0000000000001
 20
636.00000000001
 30
0.0
 11
262.0000000000001
 21
636.0000000000101
 31
0.0
  0
ARC
  5
2E0
330
1F
100
AcDbEntity
  8
LAY-10
  6
CONTINUOUS
 62
     7
100
AcDbCircle
 10
262.0000000000001
 20
634.0000000000101
 30
0.0
 40
2.0
100
AcDbArc
 50
90.00000000000014
 51
180.0
  0
ARC
  5
2E1
330
1F
100
AcDbEntity
  8
LAY-10
  6
CONTINUOUS
 62
     7
100
AcDbCircle
 10
402.0000000000001
 20
587.00000000001
 30
0.0
 40
2.0
100
AcDbArc
 50
180.0
 51
270.0000000000002
  0
ARC
  5
2E2
330
1F
100
AcDbEntity
  8
LAY-10
  6
CONTINUOUS
 62
     7
100
AcDbCircle
 10
402.0000000000001
 20
553.00000000001
 30
0.0
 40
2.0
100
AcDbArc
 50
90.00000000000014
 51
180.0
  0
ARC
  5
2E3
330
1F
100
AcDbEntity
  8
LAY-10
  6
CONTINUOUS
 62
     7
100
AcDbCircle
 10
258.0000000000001
 20
587.0000000000101
 30
0.0
 40
2.0
100
AcDbArc
 50
270.0000000000002
 51
0.0
  0
ARC
  5
2E4
330
1F
100
AcDbEntity
  8
LAY-10
  6
CONTINUOUS
 62
     7
100
AcDbCircle
 10
258.0000000000001
 20
553.0000000000101
 30
0.0
 40
2.0
100
AcDbArc
 50
0.0
 51
90.00000000000014
  0
LINE
  5
2E5
330
1F
100
AcDbEntity
  8
LAY-10
  6
CONTINUOUS
 62
     7
100
AcDbLine
 10
259.0000000000001
 20
555.0000000000101
 30
0.0
 11
259.0000000000001
 21
550.0000000000101
 31
0.0
  0
LINE
  5
2E6
330
1F
100
AcDbEntity
  8
LAY-10
  6
CONTINUOUS
 62
     7
100
AcDbLine
 10
259.0000000000001
 20
590.0000000000101
 30
0.0
 11
259.0000000000001
 21
585.2679491924412
 31
0.0
  0
LINE
  5
2E7
330
1F
100
AcDbEntity
  8
LAY-10
  6
CONTINUOUS
 62
     7
100
AcDbLine
 10
401.0000000000001
 20
554.7320508075788
 30
0.0
 11
401.0000000000001
 21
550.00000000001
 31
0.0
  0
LINE
  5
2E8
330
1F
100
AcDbEntity
  8
LAY-10
  6
CONTINUOUS
 62
     7
100
AcDbLine
 10
491.0000000000001
 20
503.0000000000099
 30
0.0
 11
169.0000000000001
 21
503.0000000000101
 31
0.0
  0
LINE
  5
2E9
330
1F
100
AcDbEntity
  8
LAY-10
  6
CONTINUOUS
 62
     7
100
AcDbLine
 10
165.0000000000001
 20
497.5000000000101
 30
0.0
 11
495.0000000000001
 21
497.5000000000098
 31
0.0
  0
LINE
  5
2EA
330
1F
100
AcDbEntity
  8
LAY-10
  6
CONTINUOUS
 62
     7
100
AcDbLine
 10
169.0000000000001
 20
502.5000000000101
 30
0.0
 11
491.0000000000001
 21
502.5000000000099
 31
0.0
  0
LINE
  5
2EB
330
1F
100
AcDbEntity
  8
LAY-10
  6
CONTINUOUS
 62
     7
100
AcDbLine
 10
160.0000000000001
 20
579.5000000000101
 30
0.0
 11
160.6000000000001
 21
579.0000000000101
 31
0.0
  0
LINE
  5
2EC
330
1F
100
AcDbEntity
  8
LAY-10
  6
CONTINUOUS
 62
     7
100
AcDbLine
 10
160.0000000000001
 20
643.0000000000102
 30
0.0
 11
160.0000000000001
 21
579.5000000000101
 31
0.0
  0
LINE
  5
2ED
330
1F
100
AcDbEntity
  8
LAY-10
  6
CONTINUOUS
 62
     7
100
AcDbLine
 10
151.0000000000001
 20
579.5000000000101
 30
0.0
 11
160.0000000000001
 21
579.5000000000101
 31
0.0
  0
LINE
  5
2EE
330
1F
100
AcDbEntity
  8
LAY-10
  6
CONTINUOUS
 62
     7
100
AcDbLine
 10
160.6000000000001
 20
579.0000000000101
 30
0.0
 11
160.6000000000001
 21
561.0000000000101
 31
0.0
  0
LINE
  5
2EF
330
1F
100
AcDbEntity
  8
LAY-10
  6
CONTINUOUS
 62
     7
100
AcDbLine
 10
160.6000000000001
 20
579.0000000000101
 30
0.0
 11
151.0000000000001
 21
579.0000000000101
 31
0.0
  0
LINE
  5
2F0
330
1F
100
AcDbEntity
  8
LAY-10
  6
CONTINUOUS
 62
     7
100
AcDbLine
 10
160.6000000000001
 20
561.0000000000101
 30
0.0
 11
160.0000000000001
 21
560.5000000000101
 31
0.0
  0
LINE
  5
2F1
330
1F
100
AcDbEntity
  8
LAY-10
  6
CONTINUOUS
 62
     7
100
AcDbLine
 10
151.0000000000001
 20
560.5000000000101
 30
0.0
 11
160.0000000000001
 21
560.5000000000101
 31
0.0
  0
LINE
  5
2F2
330
1F
100
AcDbEntity
  8
LAY-10
  6
CONTINUOUS
 62
     7
100
AcDbLine
 10
160.0000000000001
 20
497.0000000000099
 30
0.0
 11
160.0000000000001
 21
560.5000000000101
 31
0.0
  0
LINE
  5
2F3
330
1F
100
AcDbEntity
  8
LAY-10
  6
CONTINUOUS
 62
     7
100
AcDbLine
 10
160.6000000000001
 20
561.0000000000101
 30
0.0
 11
151.0000000000001
 21
561.0000000000101
 31
0.0
  0
LINE
  5
2F4
330
1F
100
AcDbEntity
  8
LAY-10
  6
CONTINUOUS
 62
     7
100
AcDbLine
 10
499.4000000000001
 20
579.00000000001
 30
0.0
 11
499.4000000000001
 21
561.00000000001
 31
0.0
  0
LINE
  5
2F5
330
1F
100
AcDbEntity
  8
LAY-10
  6
CONTINUOUS
 62
     7
100
AcDbLine
 10
499.4000000000001
 20
561.00000000001
 30
0.0
 11
510.0000000000001
 21
561.00000000001
 31
0.0
  0
LINE
  5
2F6
330
1F
100
AcDbEntity
  8
LAY-10
  6
CONTINUOUS
 62
     7
100
AcDbLine
 10
500.0000000000001
 20
497.0000000000099
 30
0.0
 11
500.0000000000001
 21
560.50000000001
 31
0.0
  0
LINE
  5
2F7
330
1F
100
AcDbEntity
  8
LAY-10
  6
CONTINUOUS
 62
     7
100
AcDbLine
 10
510.0000000000001
 20
560.50000000001
 30
0.0
 11
500.0000000000001
 21
560.50000000001
 31
0.0
  0
LINE
  5
2F8
330
1F
100
AcDbEntity
  8
LAY-10
  6
CONTINUOUS
 62
     7
100
AcDbLine
 10
500.0000000000001
 20
560.5000000000099
 30
0.0
 11
499.4000000000001
 21
561.0000000000099
 31
0.0
  0
LINE
  5
2F9
330
1F
100
AcDbEntity
  8
LAY-10
  6
CONTINUOUS
 62
     7
100
AcDbLine
 10
500.0000000000001
 20
579.50000000001
 30
0.0
 11
499.4000000000001
 21
579.00000000001
 31
0.0
  0
LINE
  5
2FA
330
1F
100
AcDbEntity
  8
LAY-10
  6
CONTINUOUS
 62
     7
100
AcDbLine
 10
500.0000000000001
 20
643.0000000000101
 30
0.0
 11
500.0000000000001
 21
579.50000000001
 31
0.0
  0
LINE
  5
2FB
330
1F
100
AcDbEntity
  8
LAY-10
  6
CONTINUOUS
 62
     7
100
AcDbLine
 10
510.0000000000001
 20
579.50000000001
 30
0.0
 11
500.0000000000001
 21
579.50000000001
 31
0.0
  0
LINE
  5
2FC
330
1F
100
AcDbEntity
  8
LAY-10
  6
CONTINUOUS
 62
     7
100
AcDbLine
 10
499.4000000000001
 20
579.00000000001
 30
0.0
 11
510.0000000000001
 21
579.00000000001
 31
0.0
  0
ARC
  5
2FD
330
1F
100
AcDbEntity
  8
LAY-10
  6
CONTINUOUS
 62
     7
100
AcDbCircle
 10
151.0000000000001
 20
564.5000000000101
 30
0.0
 40
4.0
100
AcDbArc
 50
180.0
 51
270.0000000000002
  0
LINE
  5
2FE
330
1F
100
AcDbEntity
  8
LAY-10
  6
CONTINUOUS
 62
     7
100
AcDbLine
 10
147.5000000000001
 20
575.5000000000101
 30
0.0
 11
147.5000000000001
 21
574.5000000000101
 31
0.0
  0
ARC
  5
2FF
330
1F
100
AcDbEntity
  8
LAY-10
  6
CONTINUOUS
 62
     7
100
AcDbCircle
 10
151.0000000000001
 20
575.5000000000101
 30
0.0
 40
3.500000000000002
100
AcDbArc
 50
90.00000000000014
 51
180.0
  0
LINE
  5
300
330
1F
100
AcDbEntity
  8
LAY-10
  6
CONTINUOUS
 62
     7
100
AcDbLine
 10
513.0000000000001
 20
563.50000000001
 30
0.0
 11
513.0000000000001
 21
566.00000000001
 31
0.0
  0
LINE
  5
301
330
1F
100
AcDbEntity
  8
LAY-10
  6
CONTINUOUS
 62
     7
100
AcDbLine
 10
512.5000000000005
 20
563.50000000001
 30
0.0
 11
512.5000000000005
 21
565.50000000001
 31
0.0
  0
ARC
  5
302
330
1F
100
AcDbEntity
  8
LAY-10
  6
CONTINUOUS
 62
     7
100
AcDbCircle
 10
510.0000000000001
 20
563.5000000000099
 30
0.0
 40
2.5
100
AcDbArc
 50
270.0000000000002
 51
0.0
  0
ARC
  5
303
330
1F
100
AcDbEntity
  8
LAY-10
  6
CONTINUOUS
 62
     7
100
AcDbCircle
 10
510.0000000000001
 20
563.5000000000099
 30
0.0
 40
3.000000000000002
100
AcDbArc
 50
270.0000000000002
 51
0.0
  0
ARC
  5
304
330
1F
100
AcDbEntity
  8
LAY-10
  6
CONTINUOUS
 62
     7
100
AcDbCircle
 10
510.0000000000001
 20
576.50000000001
 30
0.0
 40
2.5
100
AcDbArc
 50
0.0
 51
90.00000000000014
  0
LINE
  5
305
330
1F
100
AcDbEntity
  8
LAY-10
  6
CONTINUOUS
 62
     7
100
AcDbLine
 10
512.5000000000001
 20
576.50000000001
 30
0.0
 11
512.5000000000001
 21
574.50000000001
 31
0.0
  0
ARC
  5
306
330
1F
100
AcDbEntity
  8
LAY-10
  6
CONTINUOUS
 62
     7
100
AcDbCircle
 10
510.0000000000001
 20
576.50000000001
 30
0.0
 40
3.000000000000002
100
AcDbArc
 50
0.0
 51
90.00000000000014
  0
LINE
  5
307
330
1F
100
AcDbEntity
  8
LAY-10
  6
CONTINUOUS
 62
     7
100
AcDbLine
 10
513.0000000000001
 20
574.00000000001
 30
0.0
 11
513.0000000000001
 21
576.50000000001
 31
0.0
  0
LINE
  5
308
330
1F
100
AcDbEntity
  8
LAY-10
  6
CONTINUOUS
 62
     7
100
AcDbLine
 10
147.4999999999998
 20
564.5000000000101
 30
0.0
 11
147.4999999999998
 21
565.5000000000101
 31
0.0
  0
ARC
  5
309
330
1F
100
AcDbEntity
  8
LAY-10
  6
CONTINUOUS
 62
     7
100
AcDbCircle
 10
151.0000000000001
 20
564.5000000000101
 30
0.0
 40
3.500000000000002
100
AcDbArc
 50
180.0
 51
270.0000000000002
  0
LINE
  5
30A
330
1F
100
AcDbEntity
  8
LAY-10
  6
CONTINUOUS
 62
     7
100
AcDbLine
 10
147.0000000000001
 20
564.5000000000101
 30
0.0
 11
147.0000000000001
 21
566.0000000000101
 31
0.0
  0
LINE
  5
30B
330
1F
100
AcDbEntity
  8
LAY-10
  6
CONTINUOUS
 62
     7
100
AcDbLine
 10
147.0000000000001
 20
574.0000000000101
 30
0.0
 11
147.0000000000001
 21
575.5000000000101
 31
0.0
  0
ARC
  5
30C
330
1F
100
AcDbEntity
  8
LAY-10
  6
CONTINUOUS
 62
     7
100
AcDbCircle
 10
151.0000000000001
 20
575.5000000000101
 30
0.0
 40
4.0
100
AcDbArc
 50
90.00000000000014
 51
180.0
  0
LINE
  5
30D
330
1F
100
AcDbEntity
  8
LAY-10
  6
CONTINUOUS
 62
     7
100
AcDbLine
 10
497.0000000000001
 20
497.50000000001
 30
0.0
 11
498.9469666165115
 21
493.9305612030724
 31
0.0
  0
LINE
  5
30E
330
1F
100
AcDbEntity
  8
LAY-10
  6
CONTINUOUS
 62
     7
100
AcDbLine
 10
497.0000000000001
 20
642.50000000001
 30
0.0
 11
498.9469666165115
 21
646.0694387969476
 31
0.0
  0
LINE
  5
30F
330
1F
100
AcDbEntity
  8
LAY-10
  6
CONTINUOUS
 62
     7
100
AcDbLine
 10
163.0000000000001
 20
642.5000000000101
 30
0.0
 11
161.0530333834887
 21
646.0694387969477
 31
0.0
  0
LINE
  5
310
330
1F
100
AcDbEntity
  8
LAY-10
  6
CONTINUOUS
 62
     7
100
AcDbLine
 10
163.0000000000001
 20
497.5000000000101
 30
0.0
 11
161.0530333834887
 21
493.9305612030726
 31
0.0
  0
ARC
  5
311
330
1F
100
AcDbEntity
  8
LAY-10
  6
CONTINUOUS
 62
     7
100
AcDbCircle
 10
495.0000000000001
 20
497.0000000000099
 30
0.0
 40
5.0
100
AcDbArc
 50
270.0000000000002
 51
0.0
  0
ARC
  5
312
330
1F
100
AcDbEntity
  8
LAY-10
  6
CONTINUOUS
 62
     7
100
AcDbCircle
 10
165.0000000000001
 20
497.0000000000099
 30
0.0
 40
5.0
100
AcDbArc
 50
180.0
 51
270.0000000000002
  0
ARC
  5
313
330
1F
100
AcDbEntity
  8
LAY-10
  6
CONTINUOUS
 62
     7
100
AcDbCircle
 10
165.0000000000001
 20
643.0000000000102
 30
0.0
 40
5.0
100
AcDbArc
 50
90.00000000000014
 51
180.0
  0
ARC
  5
314
330
1F
100
AcDbEntity
  8
LAY-10
  6
CONTINUOUS
 62
     7
100
AcDbCircle
 10
495.0000000000001
 20
643.0000000000101
 30
0.0
 40
5.0
100
AcDbArc
 50
0.0
 51
90.00000000000014
  0
LINE
  5
315
330
1F
100
AcDbEntity
  8
LAY-10
  6
CONTINUOUS
 62
     7
100
AcDbLine
 10
512.5000000000001
 20
574.50000000001
 30
0.0
 11
513.0000000000001
 21
574.00000000001
 31
0.0
  0
LINE
  5
316
330
1F
100
AcDbEntity
  8
LAY-10
  6
CONTINUOUS
 62
     7
100
AcDbLine
 10
512.5000000000001
 20
565.50000000001
 30
0.0
 11
513.0000000000001
 21
566.00000000001
 31
0.0
  0
LINE
  5
317
330
1F
100
AcDbEntity
  8
LAY-10
  6
CONTINUOUS
 62
     7
100
AcDbLine
 10
147.5000000000001
 20
574.5000000000101
 30
0.0
 11
147.0000000000001
 21
574.0000000000101
 31
0.0
  0
LINE
  5
318
330
1F
100
AcDbEntity
  8
LAY-10
  6
CONTINUOUS
 62
     7
100
AcDbLine
 10
147.5000000000001
 20
565.5000000000101
 30
0.0
 11
147.0000000000001
 21
566.0000000000101
 31
0.0
  0
LINE
  5
319
330
1F
100
AcDbEntity
  8
LAY-10
  6
CONTINUOUS
 62
     7
100
AcDbLine
 10
492.5000000000001
 20
635.50000000001
 30
0.0
 11
492.5000000000001
 21
504.5000000000099
 31
0.0
  0
LINE
  5
31A
330
1F
100
AcDbEntity
  8
LAY-10
  6
CONTINUOUS
 62
     7
100
AcDbLine
 10
167.5000000000001
 20
635.5000000000101
 30
0.0
 11
167.5000000000001
 21
504.5000000000101
 31
0.0
  0
ARC
  5
31B
330
1F
100
AcDbEntity
  8
LAY-10
  6
CONTINUOUS
 62
     7
100
AcDbCircle
 10
169.0000000000001
 20
504.5000000000101
 30
0.0
 40
1.5
100
AcDbArc
 50
180.0
 51
270.0000000000002
  0
ARC
  5
31C
330
1F
100
AcDbEntity
  8
LAY-10
  6
CONTINUOUS
 62
     7
100
AcDbCircle
 10
491.0000000000001
 20
504.5000000000099
 30
0.0
 40
1.5
100
AcDbArc
 50
270.0000000000002
 51
0.0
  0
ARC
  5
31D
330
1F
100
AcDbEntity
  8
LAY-10
  6
CONTINUOUS
 62
     7
100
AcDbCircle
 10
491.0000000000001
 20
635.50000000001
 30
0.0
 40
1.5
100
AcDbArc
 50
0.0
 51
90.00000000000014
  0
LINE
  5
31E
330
1F
100
AcDbEntity
  8
LAY-10
  6
CONTINUOUS
 62
     7
100
AcDbLine
 10
491.0000000000001
 20
637.00000000001
 30
0.0
 11
169.0000000000001
 21
637.0000000000101
 31
0.0
  0
ARC
  5
31F
330
1F
100
AcDbEntity
  8
LAY-10
  6
CONTINUOUS
 62
     7
100
AcDbCircle
 10
169.0000000000001
 20
635.5000000000101
 30
0.0
 40
1.5
100
AcDbArc
 50
90.00000000000014
 51
180.0
  0
LINE
  5
320
330
1F
100
AcDbEntity
  8
LAY-10
  6
CONTINUOUS
 62
     7
100
AcDbLine
 10
165.0000000000001
 20
642.5000000000101
 30
0.0
 11
495.0000000000001
 21
642.50000000001
 31
0.0
  0
LINE
  5
321
330
1F
100
AcDbEntity
  8
LAY-10
  6
CONTINUOUS
 62
     7
100
AcDbLine
 10
169.0000000000001
 20
637.5000000000101
 30
0.0
 11
491.0000000000001
 21
637.50000000001
 31
0.0
  0
ARC
  5
322
330
1F
100
AcDbEntity
  8
LAY-10
  6
CONTINUOUS
 62
     7
100
AcDbCircle
 10
491.0000000000001
 20
504.5000000000099
 30
0.0
 40
2.0
100
AcDbArc
 50
270.0000000000002
 51
0.0
  0
LINE
  5
323
330
1F
100
AcDbEntity
  8
LAY-10
  6
CONTINUOUS
 62
     7
100
AcDbLine
 10
493.0000000000001
 20
504.5000000000099
 30
0.0
 11
493.0000000000001
 21
635.50000000001
 31
0.0
  0
ARC
  5
324
330
1F
100
AcDbEntity
  8
LAY-10
  6
CONTINUOUS
 62
     7
100
AcDbCircle
 10
491.0000000000001
 20
635.50000000001
 30
0.0
 40
2.0
100
AcDbArc
 50
0.0
 51
90.00000000000014
  0
ARC
  5
325
330
1F
100
AcDbEntity
  8
LAY-10
  6
CONTINUOUS
 62
     7
100
AcDbCircle
 10
495.0000000000001
 20
640.50000000001
 30
0.0
 40
2.0
100
AcDbArc
 50
0.0
 51
90.00000000000014
  0
LINE
  5
326
330
1F
100
AcDbEntity
  8
LAY-10
  6
CONTINUOUS
 62
     7
100
AcDbLine
 10
497.0000000000001
 20
499.50000000001
 30
0.0
 11
497.0000000000001
 21
640.50000000001
 31
0.0
  0
ARC
  5
327
330
1F
100
AcDbEntity
  8
LAY-10
  6
CONTINUOUS
 62
     7
100
AcDbCircle
 10
495.0000000000001
 20
499.50000000001
 30
0.0
 40
2.0
100
AcDbArc
 50
270.0000000000002
 51
0.0
  0
ARC
  5
328
330
1F
100
AcDbEntity
  8
LAY-10
  6
CONTINUOUS
 62
     7
100
AcDbCircle
 10
169.0000000000001
 20
504.5000000000101
 30
0.0
 40
2.0
100
AcDbArc
 50
180.0
 51
270.0000000000002
  0
LINE
  5
329
330
1F
100
AcDbEntity
  8
LAY-10
  6
CONTINUOUS
 62
     7
100
AcDbLine
 10
167.0000000000001
 20
504.5000000000101
 30
0.0
 11
167.0000000000001
 21
635.5000000000101
 31
0.0
  0
ARC
  5
32A
330
1F
100
AcDbEntity
  8
LAY-10
  6
CONTINUOUS
 62
     7
100
AcDbCircle
 10
169.0000000000001
 20
635.5000000000101
 30
0.0
 40
2.0
100
AcDbArc
 50
90.00000000000014
 51
180.0
  0
ARC
  5
32B
330
1F
100
AcDbEntity
  8
LAY-10
  6
CONTINUOUS
 62
     7
100
AcDbCircle
 10
165.0000000000001
 20
640.5000000000101
 30
0.0
 40
2.0
100
AcDbArc
 50
90.00000000000014
 51
180.0
  0
LINE
  5
32C
330
1F
100
AcDbEntity
  8
LAY-10
  6
CONTINUOUS
 62
     7
100
AcDbLine
 10
163.0000000000001
 20
499.5000000000101
 30
0.0
 11
163.0000000000001
 21
640.5000000000101
 31
0.0
  0
ARC
  5
32D
330
1F
100
AcDbEntity
  8
LAY-10
  6
CONTINUOUS
 62
     7
100
AcDbCircle
 10
165.0000000000001
 20
499.5000000000101
 30
0.0
 40
2.0
100
AcDbArc
 50
180.0
 51
270.0000000000002
  0
ARC
  5
32E
330
1F
100
AcDbEntity
  8
LAY-10
  6
CONTINUOUS
 62
     7
100
AcDbCircle
 10
263.1500000000088
 20
570.0000000000155
 30
0.0
 40
6.300000000000002
100
AcDbArc
 50
141.3178125465105
 51
174.534976200092
  0
LINE
  5
32F
330
1F
100
AcDbEntity
  8
LAY-10
  6
CONTINUOUS
 62
     7
100
AcDbLine
 10
256.8786365119089
 20
570.600000000015
 30
0.0
 11
259.3500000000089
 21
570.600000000015
 31
0.0
  0
LINE
  5
330
330
1F
100
AcDbEntity
  8
LAY-10
  6
CONTINUOUS
 62
     7
100
AcDbLine
 10
259.3500000000089
 20
569.4000000000153
 30
0.0
 11
259.3500000000089
 21
570.600000000015
 31
0.0
  0
ARC
  5
331
330
1F
100
AcDbEntity
  8
LAY-10
  6
CONTINUOUS
 62
     7
100
AcDbCircle
 10
263.1500000000088
 20
570.0000000000155
 30
0.0
 40
6.300000000000002
100
AcDbArc
 50
185.4650237999009
 51
218.6821874535038
  0
ARC
  5
332
330
1F
100
AcDbEntity
  8
LAY-10
  6
CONTINUOUS
 62
     7
100
AcDbCircle
 10
260.9642507006091
 20
568.2500000000151
 30
0.0
 40
3.500000000000002
100
AcDbArc
 50
218.6821874534989
 51
268.1293582693964
  0
LINE
  5
333
330
1F
100
AcDbEntity
  8
LAY-10
  6
CONTINUOUS
 62
     7
100
AcDbLine
 10
260.8500000000089
 20
564.7518652431149
 30
0.0
 11
260.8500000000089
 21
575.2481347569152
 31
0.0
  0
ARC
  5
334
330
1F
100
AcDbEntity
  8
LAY-10
  6
CONTINUOUS
 62
     7
100
AcDbCircle
 10
260.9642507006089
 20
571.7500000000152
 30
0.0
 40
3.500000000000002
100
AcDbArc
 50
91.87064173059252
 51
141.3178125465079
  0
LINE
  5
335
330
1F
100
AcDbEntity
  8
LAY-10
  6
CONTINUOUS
 62
     7
100
AcDbLine
 10
260.8500000000089
 20
573.0000000000153
 30
0.0
 11
266.5709057293196
 21
573.0000000000153
 31
0.0
  0
LINE
  5
336
330
1F
100
AcDbEntity
  8
LAY-10
  6
CONTINUOUS
 62
     7
100
AcDbLine
 10
260.8500000000089
 20
572.5000000000152
 30
0.0
 11
266.5492316831477
 21
572.5000000000151
 31
0.0
  0
LINE
  5
337
330
1F
100
AcDbEntity
  8
LAY-10
  6
CONTINUOUS
 62
     7
100
AcDbLine
 10
260.8500000000089
 20
567.500000000015
 30
0.0
 11
266.5492316831477
 21
567.500000000015
 31
0.0
  0
LINE
  5
338
330
1F
100
AcDbEntity
  8
LAY-10
  6
CONTINUOUS
 62
     7
100
AcDbLine
 10
260.8500000000089
 20
567.0000000000155
 30
0.0
 11
266.5709057293196
 21
567.0000000000155
 31
0.0
  0
LINE
  5
339
330
1F
100
AcDbEntity
  8
LAY-10
  6
CONTINUOUS
 62
     7
100
AcDbLine
 10
271.5534432151991
 20
567.5000000000151
 30
0.0
 11
272.8500000000089
 21
567.5000000000152
 31
0.0
  0
LINE
  5
33A
330
1F
100
AcDbEntity
  8
LAY-10
  6
CONTINUOUS
 62
     7
100
AcDbLine
 10
271.5769737175575
 20
567.0000000000153
 30
0.0
 11
272.3500000000089
 21
567.0000000000155
 31
0.0
  0
LINE
  5
33B
330
1F
100
AcDbEntity
  8
LAY-10
  6
CONTINUOUS
 62
     7
100
AcDbLine
 10
272.8500000000089
 20
567.5000000000152
 30
0.0
 11
272.3500000000089
 21
567.0000000000155
 31
0.0
  0
LINE
  5
33C
330
1F
100
AcDbEntity
  8
LAY-10
  6
CONTINUOUS
 62
     7
100
AcDbLine
 10
272.3500000000089
 20
567.0000000000155
 30
0.0
 11
272.3500000000089
 21
573.0000000000153
 31
0.0
  0
LINE
  5
33D
330
1F
100
AcDbEntity
  8
LAY-10
  6
CONTINUOUS
 62
     7
100
AcDbLine
 10
272.8500000000089
 20
572.5000000000152
 30
0.0
 11
272.8500000000089
 21
567.5000000000152
 31
0.0
  0
LINE
  5
33E
330
1F
100
AcDbEntity
  8
LAY-10
  6
CONTINUOUS
 62
     7
100
AcDbLine
 10
272.8500000000089
 20
572.5000000000152
 30
0.0
 11
272.3500000000089
 21
573.0000000000153
 31
0.0
  0
LINE
  5
33F
330
1F
100
AcDbEntity
  8
LAY-10
  6
CONTINUOUS
 62
     7
100
AcDbLine
 10
271.5534432151991
 20
572.5000000000151
 30
0.0
 11
272.8500000000089
 21
572.5000000000152
 31
0.0
  0
LINE
  5
340
330
1F
100
AcDbEntity
  8
LAY-10
  6
CONTINUOUS
 62
     7
100
AcDbLine
 10
271.5769737175577
 20
573.0000000000152
 30
0.0
 11
272.3500000000089
 21
573.0000000000153
 31
0.0
  0
LINE
  5
341
330
1F
100
AcDbEntity
  8
LAY-10
  6
CONTINUOUS
 62
     7
100
AcDbLine
 10
256.8786365119089
 20
569.4000000000152
 30
0.0
 11
259.3500000000089
 21
569.4000000000153
 31
0.0
  0
ARC
  5
342
330
1F
100
AcDbEntity
  8
LAY-10
  6
CONTINUOUS
 62
     7
100
AcDbCircle
 10
363.4249999999911
 20
512.106201757027
 30
0.0
 40
6.300000000000002
100
AcDbArc
 50
261.31781254651
 51
294.5349762000927
  0
LINE
  5
343
330
1F
100
AcDbEntity
  8
LAY-10
  6
CONTINUOUS
 62
     7
100
AcDbLine
 10
366.0410665017708
 20
506.3750416599664
 30
0.0
 11
364.8053847577208
 21
508.5153052226464
 31
0.0
  0
LINE
  5
344
330
1F
100
AcDbEntity
  8
LAY-10
  6
CONTINUOUS
 62
     7
100
AcDbLine
 10
365.8446152422619
 20
509.1153052226462
 30
0.0
 11
364.8053847577208
 21
508.5153052226464
 31
0.0
  0
ARC
  5
345
330
1F
100
AcDbEntity
  8
LAY-10
  6
CONTINUOUS
 62
     7
100
AcDbCircle
 10
363.4249999999911
 20
512.106201757027
 30
0.0
 40
6.300000000000002
100
AcDbArc
 50
305.4650237999019
 51
338.6821874535041
  0
ARC
  5
346
330
1F
100
AcDbEntity
  8
LAY-10
  6
CONTINUOUS
 62
     7
100
AcDbCircle
 10
366.033419106314
 20
511.0882873374429
 30
0.0
 40
3.500000000000002
100
AcDbArc
 50
338.6821874534992
 51
28.12935826939655
  0
LINE
  5
347
330
1F
100
AcDbEntity
  8
LAY-10
  6
CONTINUOUS
 62
     7
100
AcDbLine
 10
369.1200180219511
 20
512.738410706773
 30
0.0
 11
360.0299819780319
 21
507.490275949873
 31
0.0
  0
ARC
  5
348
330
1F
100
AcDbEntity
  8
LAY-10
  6
CONTINUOUS
 62
     7
100
AcDbCircle
 10
363.0023301930685
 20
509.3382873374427
 30
0.0
 40
3.500000000000002
100
AcDbArc
 50
211.8706417305938
 51
261.3178125465095
  0
LINE
  5
349
330
1F
100
AcDbEntity
  8
LAY-10
  6
CONTINUOUS
 62
     7
100
AcDbLine
 10
361.9769237886379
 20
508.6143433283229
 30
0.0
 11
359.1164709239825
 21
513.5687930225619
 31
0.0
  0
LINE
  5
34A
330
1F
100
AcDbEntity
  8
LAY-10
  6
CONTINUOUS
 62
     7
100
AcDbLine
 10
362.4099364905302
 20
508.8643433283229
 30
0.0
 11
359.5603206489609
 21
513.8000227479744
 31
0.0
  0
LINE
  5
34B
330
1F
100
AcDbEntity
  8
LAY-10
  6
CONTINUOUS
 62
     7
100
AcDbLine
 10
366.7400635094526
 20
511.364343328323
 30
0.0
 11
363.8904476678832
 21
516.3000227479744
 31
0.0
  0
LINE
  5
34C
330
1F
100
AcDbEntity
  8
LAY-10
  6
CONTINUOUS
 62
     7
100
AcDbLine
 10
367.1730762113444
 20
511.6143433283228
 30
0.0
 11
364.3126233466891
 21
516.5687930225619
 31
0.0
  0
LINE
  5
34D
330
1F
100
AcDbEntity
  8
LAY-10
  6
CONTINUOUS
 62
     7
100
AcDbLine
 10
361.3883419018574
 20
520.6337970606419
 30
0.0
 11
360.7400635094524
 21
521.7566481737362
 31
0.0
  0
LINE
  5
34E
330
1F
100
AcDbEntity
  8
LAY-10
  6
CONTINUOUS
 62
     7
100
AcDbLine
 10
361.8095893525702
 20
520.904175073448
 30
0.0
 11
361.4230762113444
 21
521.5736354718439
 31
0.0
  0
LINE
  5
34F
330
1F
100
AcDbEntity
  8
LAY-10
  6
CONTINUOUS
 62
     7
100
AcDbLine
 10
360.7400635094524
 20
521.7566481737362
 30
0.0
 11
361.4230762113444
 21
521.5736354718439
 31
0.0
  0
LINE
  5
350
330
1F
100
AcDbEntity
  8
LAY-10
  6
CONTINUOUS
 62
     7
100
AcDbLine
 10
361.4230762113444
 20
521.5736354718439
 30
0.0
 11
356.2269237886379
 21
518.573635471844
 31
0.0
  0
LINE
  5
351
330
1F
100
AcDbEntity
  8
LAY-10
  6
CONTINUOUS
 62
     7
100
AcDbLine
 10
356.4099364905302
 20
519.2566481737363
 30
0.0
 11
360.7400635094524
 21
521.7566481737362
 31
0.0
  0
LINE
  5
352
330
1F
100
AcDbEntity
  8
LAY-10
  6
CONTINUOUS
 62
     7
100
AcDbLine
 10
356.4099364905302
 20
519.2566481737363
 30
0.0
 11
356.2269237886379
 21
518.573635471844
 31
0.0
  0
LINE
  5
353
330
1F
100
AcDbEntity
  8
LAY-10
  6
CONTINUOUS
 62
     7
100
AcDbLine
 10
357.0582148829352
 20
518.1337970606419
 30
0.0
 11
356.4099364905302
 21
519.2566481737363
 31
0.0
  0
LINE
  5
354
330
1F
100
AcDbEntity
  8
LAY-10
  6
CONTINUOUS
 62
     7
100
AcDbLine
 10
356.6134369298636
 20
517.9041750734482
 30
0.0
 11
356.2269237886379
 21
518.573635471844
 31
0.0
  0
LINE
  5
355
330
1F
100
AcDbEntity
  8
LAY-10
  6
CONTINUOUS
 62
     7
100
AcDbLine
 10
367.080296986312
 20
506.9750416599663
 30
0.0
 11
365.8446152422619
 21
509.1153052226462
 31
0.0
  0
ARC
  5
356
330
1F
100
AcDbEntity
  8
LAY-10
  6
CONTINUOUS
 62
     7
100
AcDbCircle
 10
363.4250000000004
 20
627.8937982429876
 30
0.0
 40
6.300000000000002
100
AcDbArc
 50
21.31781254650941
 51
54.5349762000921
  0
LINE
  5
357
330
1F
100
AcDbEntity
  8
LAY-10
  6
CONTINUOUS
 62
     7
100
AcDbLine
 10
367.0802969863206
 20
633.0249583400486
 30
0.0
 11
365.8446152422706
 21
630.8846947773686
 31
0.0
  0
LINE
  5
358
330
1F
100
AcDbEntity
  8
LAY-10
  6
CONTINUOUS
 62
     7
100
AcDbLine
 10
364.8053847577296
 20
631.4846947773685
 30
0.0
 11
365.8446152422706
 21
630.8846947773686
 31
0.0
  0
ARC
  5
359
330
1F
100
AcDbEntity
  8
LAY-10
  6
CONTINUOUS
 62
     7
100
AcDbCircle
 10
363.4250000000004
 20
627.8937982429876
 30
0.0
 40
6.300000000000002
100
AcDbArc
 50
65.4650237999021
 51
98.68218745350393
  0
ARC
  5
35A
330
1F
100
AcDbEntity
  8
LAY-10
  6
CONTINUOUS
 62
     7
100
AcDbCircle
 10
363.0023301930772
 20
630.661712662572
 30
0.0
 40
3.500000000000002
100
AcDbArc
 50
98.68218745349813
 51
148.1293582693979
  0
LINE
  5
35B
330
1F
100
AcDbEntity
  8
LAY-10
  6
CONTINUOUS
 62
     7
100
AcDbLine
 10
360.0299819780404
 20
632.509724050142
 30
0.0
 11
369.1200180219596
 21
627.2615892932419
 31
0.0
  0
ARC
  5
35C
330
1F
100
AcDbEntity
  8
LAY-10
  6
CONTINUOUS
 62
     7
100
AcDbCircle
 10
366.033419106323
 20
628.9117126625721
 30
0.0
 40
3.500000000000002
100
AcDbArc
 50
331.8706417305928
 51
21.3178125465085
  0
LINE
  5
35D
330
1F
100
AcDbEntity
  8
LAY-10
  6
CONTINUOUS
 62
     7
100
AcDbLine
 10
367.1730762113535
 20
628.3856566716918
 30
0.0
 11
364.3126233466982
 21
623.4312069774528
 31
0.0
  0
LINE
  5
35E
330
1F
100
AcDbEntity
  8
LAY-10
  6
CONTINUOUS
 62
     7
100
AcDbLine
 10
366.7400635094613
 20
628.6356566716919
 30
0.0
 11
363.8904476678917
 21
623.6999772520406
 31
0.0
  0
LINE
  5
35F
330
1F
100
AcDbEntity
  8
LAY-10
  6
CONTINUOUS
 62
     7
100
AcDbLine
 10
362.4099364905388
 20
631.135656671692
 30
0.0
 11
359.5603206489694
 21
626.1999772520406
 31
0.0
  0
LINE
  5
360
330
1F
100
AcDbEntity
  8
LAY-10
  6
CONTINUOUS
 62
     7
100
AcDbLine
 10
361.976923788647
 20
631.3856566716918
 30
0.0
 11
359.1164709239916
 21
626.4312069774527
 31
0.0
  0
LINE
  5
361
330
1F
100
AcDbEntity
  8
LAY-10
  6
CONTINUOUS
 62
     7
100
AcDbLine
 10
357.0582148829438
 20
621.8662029393731
 30
0.0
 11
356.4099364905391
 21
620.7433518262787
 31
0.0
  0
LINE
  5
362
330
1F
100
AcDbEntity
  8
LAY-10
  6
CONTINUOUS
 62
     7
100
AcDbLine
 10
356.6134369298726
 20
622.0958249265668
 30
0.0
 11
356.226923788647
 21
621.4263645281708
 31
0.0
  0
LINE
  5
363
330
1F
100
AcDbEntity
  8
LAY-10
  6
CONTINUOUS
 62
     7
100
AcDbLine
 10
356.4099364905391
 20
620.7433518262787
 30
0.0
 11
356.226923788647
 21
621.4263645281708
 31
0.0
  0
LINE
  5
364
330
1F
100
AcDbEntity
  8
LAY-10
  6
CONTINUOUS
 62
     7
100
AcDbLine
 10
356.226923788647
 20
621.4263645281708
 30
0.0
 11
361.4230762113535
 21
618.4263645281708
 31
0.0
  0
LINE
  5
365
330
1F
100
AcDbEntity
  8
LAY-10
  6
CONTINUOUS
 62
     7
100
AcDbLine
 10
360.7400635094613
 20
618.2433518262786
 30
0.0
 11
356.4099364905391
 21
620.7433518262787
 31
0.0
  0
LINE
  5
366
330
1F
100
AcDbEntity
  8
LAY-10
  6
CONTINUOUS
 62
     7
100
AcDbLine
 10
360.7400635094613
 20
618.2433518262786
 30
0.0
 11
361.4230762113535
 21
618.4263645281708
 31
0.0
  0
LINE
  5
367
330
1F
100
AcDbEntity
  8
LAY-10
  6
CONTINUOUS
 62
     7
100
AcDbLine
 10
361.3883419018661
 20
619.366202939373
 30
0.0
 11
360.7400635094613
 21
618.2433518262786
 31
0.0
  0
LINE
  5
368
330
1F
100
AcDbEntity
  8
LAY-10
  6
CONTINUOUS
 62
     7
100
AcDbLine
 10
361.809589352579
 20
619.0958249265666
 30
0.0
 11
361.4230762113535
 21
618.4263645281708
 31
0.0
  0
LINE
  5
369
330
1F
100
AcDbEntity
  8
LAY-10
  6
CONTINUOUS
 62
     7
100
AcDbLine
 10
366.0410665017795
 20
633.6249583400485
 30
0.0
 11
364.8053847577296
 21
631.4846947773685
 31
0.0
  0
ARC
  5
36A
330
1F
100
AcDbEntity
  8
LAY-10
  6
CONTINUOUS
 62
     7
100
AcDbCircle
 10
330.0000000000001
 20
570.00000000001
 30
0.0
 40
65.5
100
AcDbArc
 50
302.6251525543114
 51
57.37484744567946
  0
LINE
  5
36B
330
1F
100
AcDbEntity
  8
LAY-10
  6
CONTINUOUS
 62
     7
100
AcDbLine
 10
260.1671038947001
 20
637.7866881503982
 30
0.0
 11
260.1671038947001
 21
575.1580136399276
 31
0.0
  0
LINE
  5
36C
330
1F
100
AcDbEntity
  8
LAY-10
  6
CONTINUOUS
 62
     7
100
AcDbLine
 10
260.0000000000001
 20
634.0000000000101
 30
0.0
 11
260.0000000000001
 21
575.114553549355
 31
0.0
  0
LINE
  5
36D
330
1F
100
AcDbEntity
  8
LAY-10
  6
CONTINUOUS
 62
     7
100
AcDbLine
 10
258.0000000000001
 20
573.6287050031688
 30
0.0
 11
258.0000000000001
 21
636.00000000001
 31
0.0
  0
LINE
  5
36E
330
1F
100
AcDbEntity
  8
LAY-10
  6
CONTINUOUS
 62
     7
100
AcDbLine
 10
260.1671038947001
 20
564.8419863601026
 30
0.0
 11
260.1671038947001
 21
502.21331184962
 31
0.0
  0
LINE
  5
36F
330
1F
100
AcDbEntity
  8
LAY-10
  6
CONTINUOUS
 62
     7
100
AcDbLine
 10
260.0000000000001
 20
564.8854464506753
 30
0.0
 11
260.0000000000001
 21
506.0000000000101
 31
0.0
  0
ARC
  5
370
330
1F
100
AcDbEntity
  8
LAY-10
  6
CONTINUOUS
 62
     7
100
AcDbCircle
 10
330.0000000000001
 20
570.00000000001
 30
0.0
 40
65.5
100
AcDbArc
 50
62.6251525543098
 51
177.3748474456806
  0
ARC
  5
371
330
1F
100
AcDbEntity
  8
LAY-10
  6
CONTINUOUS
 62
     7
100
AcDbCircle
 10
330.0000000000001
 20
570.00000000001
 30
0.0
 40
65.5
100
AcDbArc
 50
182.6251525543105
 51
297.374847445681
  0
LINE
  5
372
330
1F
100
AcDbEntity
  8
LAY-10
  6
CONTINUOUS
 62
     7
100
AcDbLine
 10
258.0000000000001
 20
504.00000000001
 30
0.0
 11
258.0000000000001
 21
566.371294996862
 31
0.0
  0
LINE
  5
373
330
1F
100
AcDbEntity
  8
LAY-10
  6
CONTINUOUS
 62
     7
100
AcDbLine
 10
258.0000000000001
 20
569.4000000000152
 30
0.0
 11
258.0000000000001
 21
570.600000000015
 31
0.0
  0
CIRCLE
  5
374
330
1F
100
AcDbEntity
  8
LAY-10
  6
CONTINUOUS
 62
     7
100
AcDbCircle
 10
507.0000000000404
 20
570.0000000000098
 30
0.0
 40
5.25
  0
LINE
  5
375
330
1F
100
AcDbEntity
  8
LAY-10
  6
CONTINUOUS
 62
     7
100
AcDbLine
 10
510.9633927679027
 20
573.4429664197792
 30
0.0
 11
502.0366072322096
 21
568.2890843877585
 31
0.0
  0
LINE
  5
376
330
1F
100
AcDbEntity
  8
LAY-10
  6
CONTINUOUS
 62
     7
100
AcDbLine
 10
511.9633927678998
 20
571.7109156121775
 30
0.0
 11
503.036607232236
 21
566.5570335801739
 31
0.0
  0
CIRCLE
  5
377
330
1F
100
AcDbEntity
  8
LAY-10
  6
CONTINUOUS
 62
     7
100
AcDbCircle
 10
153.0000000000404
 20
570.0000000000099
 30
0.0
 40
5.25
  0
LINE
  5
378
330
1F
100
AcDbEntity
  8
LAY-10
  6
CONTINUOUS
 62
     7
100
AcDbLine
 10
156.9633927679027
 20
573.4429664197793
 30
0.0
 11
148.0366072322096
 21
568.2890843877586
 31
0.0
  0
LINE
  5
379
330
1F
100
AcDbEntity
  8
LAY-10
  6
CONTINUOUS
 62
     7
100
AcDbLine
 10
157.9633927678998
 20
571.7109156121776
 30
0.0
 11
149.036607232236
 21
566.557033580174
 31
0.0
  0
LINE
  5
37A
330
1F
100
AcDbEntity
  8
LAY-10
  6
CONTINUOUS
 62
     7
100
AcDbLine
 10
150.2958365434426
 20
574.5000000000101
 30
0.0
 11
147.5000000000001
 21
574.5000000000101
 31
0.0
  0
LINE
  5
37B
330
1F
100
AcDbEntity
  8
LAY-10
  6
CONTINUOUS
 62
     7
100
AcDbLine
 10
147.0000000000001
 20
574.0000000000101
 30
0.0
 11
149.5996323728567
 21
574.0000000000101
 31
0.0
  0
LINE
  5
37C
330
1F
100
AcDbEntity
  8
LAY-10
  6
CONTINUOUS
 62
     7
100
AcDbLine
 10
147.0000000000001
 20
566.0000000000101
 30
0.0
 11
149.5996323728563
 21
566.0000000000101
 31
0.0
  0
LINE
  5
37D
330
1F
100
AcDbEntity
  8
LAY-10
  6
CONTINUOUS
 62
     7
100
AcDbLine
 10
147.5000000000001
 20
565.5000000000101
 30
0.0
 11
150.2958365434421
 21
565.5000000000101
 31
0.0
  0
LINE
  5
37E
330
1F
100
AcDbEntity
  8
LAY-10
  6
CONTINUOUS
 62
     7
100
AcDbLine
 10
513.0000000000001
 20
574.00000000001
 30
0.0
 11
510.400367627224
 21
574.00000000001
 31
0.0
  0
LINE
  5
37F
330
1F
100
AcDbEntity
  8
LAY-10
  6
CONTINUOUS
 62
     7
100
AcDbLine
 10
509.7041634566381
 20
574.50000000001
 30
0.0
 11
512.5000000000001
 21
574.50000000001
 31
0.0
  0
LINE
  5
380
330
1F
100
AcDbEntity
  8
LAY-10
  6
CONTINUOUS
 62
     7
100
AcDbLine
 10
513.0000000000001
 20
566.00000000001
 30
0.0
 11
510.4003676272245
 21
566.00000000001
 31
0.0
  0
LINE
  5
381
330
1F
100
AcDbEntity
  8
LAY-10
  6
CONTINUOUS
 62
     7
100
AcDbLine
 10
512.5000000000001
 20
565.50000000001
 30
0.0
 11
509.7041634566386
 21
565.50000000001
 31
0.0
  0
ARC
  5
382
330
1F
100
AcDbEntity
  8
LAY-10
  6
CONTINUOUS
 62
     7
100
AcDbCircle
 10
450.0000000000001
 20
652.6696969697157
 30
0.0
 40
7.603030303035617
100
AcDbArc
 50
217.89300937907
 51
322.10699062093
  0
ARC
  5
383
330
1F
100
AcDbEntity
  8
LAY-10
  6
CONTINUOUS
 62
     7
100
AcDbCircle
 10
390.0000000000001
 20
652.6696969697157
 30
0.0
 40
7.603030303035617
100
AcDbArc
 50
217.89300937907
 51
322.10699062093
  0
ARC
  5
384
330
1F
100
AcDbEntity
  8
LAY-10
  6
CONTINUOUS
 62
     7
100
AcDbCircle
 10
330.0000000000001
 20
652.6696969697157
 30
0.0
 40
7.603030303035617
100
AcDbArc
 50
217.89300937907
 51
322.10699062093
  0
ARC
  5
385
330
1F
100
AcDbEntity
  8
LAY-10
  6
CONTINUOUS
 62
     7
100
AcDbCircle
 10
270.0000000000001
 20
652.6696969697157
 30
0.0
 40
7.603030303035617
100
AcDbArc
 50
217.89300937907
 51
322.10699062093
  0
ARC
  5
386
330
1F
100
AcDbEntity
  8
LAY-10
  6
CONTINUOUS
 62
     7
100
AcDbCircle
 10
210.0000000000001
 20
652.6696969697157
 30
0.0
 40
7.603030303035617
100
AcDbArc
 50
217.89300937907
 51
322.10699062093
  0
ARC
  5
387
330
1F
100
AcDbEntity
  8
LAY-10
  6
CONTINUOUS
 62
     7
100
AcDbCircle
 10
149.5500000000003
 20
625.00000000001
 30
0.0
 40
12.04999999999984
100
AcDbArc
 50
330.1371656437245
 51
29.86283435627551
  0
ARC
  5
388
330
1F
100
AcDbEntity
  8
LAY-10
  6
CONTINUOUS
 62
     7
100
AcDbCircle
 10
149.5500000000003
 20
595.00000000001
 30
0.0
 40
12.04999999999984
100
AcDbArc
 50
330.1371656437245
 51
29.86283435627551
  0
ARC
  5
389
330
1F
100
AcDbEntity
  8
LAY-10
  6
CONTINUOUS
 62
     7
100
AcDbCircle
 10
149.5500000000003
 20
545.00000000001
 30
0.0
 40
12.04999999999984
100
AcDbArc
 50
330.1371656437245
 51
29.86283435627551
  0
ARC
  5
38A
330
1F
100
AcDbEntity
  8
LAY-10
  6
CONTINUOUS
 62
     7
100
AcDbCircle
 10
149.5500000000003
 20
515.00000000001
 30
0.0
 40
12.04999999999984
100
AcDbArc
 50
330.1371656437245
 51
29.86283435627551
  0
ARC
  5
38B
330
1F
100
AcDbEntity
  8
LAY-10
  6
CONTINUOUS
 62
     7
100
AcDbCircle
 10
210.0000000000001
 20
487.3303030303044
 30
0.0
 40
7.603030303035617
100
AcDbArc
 50
37.89300937906962
 51
142.1069906209304
  0
ARC
  5
38C
330
1F
100
AcDbEntity
  8
LAY-10
  6
CONTINUOUS
 62
     7
100
AcDbCircle
 10
270.0000000000001
 20
487.3303030303044
 30
0.0
 40
7.603030303035617
100
AcDbArc
 50
37.89300937906962
 51
142.1069906209304
  0
ARC
  5
38D
330
1F
100
AcDbEntity
  8
LAY-10
  6
CONTINUOUS
 62
     7
100
AcDbCircle
 10
330.0000000000001
 20
487.3303030303043
 30
0.0
 40
7.603030303035617
100
AcDbArc
 50
37.89300937906962
 51
142.1069906209304
  0
ARC
  5
38E
330
1F
100
AcDbEntity
  8
LAY-10
  6
CONTINUOUS
 62
     7
100
AcDbCircle
 10
390.0000000000001
 20
487.3303030303043
 30
0.0
 40
7.603030303035617
100
AcDbArc
 50
37.89300937906962
 51
142.1069906209304
  0
ARC
  5
38F
330
1F
100
AcDbEntity
  8
LAY-10
  6
CONTINUOUS
 62
     7
100
AcDbCircle
 10
450.0000000000001
 20
487.3303030303043
 30
0.0
 40
7.603030303035617
100
AcDbArc
 50
37.89300937906962
 51
142.1069906209304
  0
ARC
  5
390
330
1F
100
AcDbEntity
  8
LAY-10
  6
CONTINUOUS
 62
     7
100
AcDbCircle
 10
510.4499999999999
 20
515.00000000001
 30
0.0
 40
12.04999999999984
100
AcDbArc
 50
150.1371656437245
 51
209.8628343562756
  0
ARC
  5
391
330
1F
100
AcDbEntity
  8
LAY-10
  6
CONTINUOUS
 62
     7
100
AcDbCircle
 10
510.4499999999999
 20
545.00000000001
 30
0.0
 40
12.04999999999984
100
AcDbArc
 50
150.1371656437245
 51
209.8628343562756
  0
ARC
  5
392
330
1F
100
AcDbEntity
  8
LAY-10
  6
CONTINUOUS
 62
     7
100
AcDbCircle
 10
510.4499999999999
 20
595.00000000001
 30
0.0
 40
12.04999999999984
100
AcDbArc
 50
150.1371656437245
 51
209.8628343562756
  0
ARC
  5
393
330
1F
100
AcDbEntity
  8
LAY-10
  6
CONTINUOUS
 62
     7
100
AcDbCircle
 10
510.4499999999999
 20
625.00000000001
 30
0.0
 40
12.04999999999984
100
AcDbArc
 50
150.1371656437245
 51
209.8628343562756
  0
LINE
  5
394
330
1F
100
AcDbEntity
  8
LAY-10
  6
CONTINUOUS
 62
     7
100
AcDbLine
 10
495.0000000000001
 20
648.0000000000101
 30
0.0
 11
456.0000000000001
 21
648.0000000000101
 31
0.0
  0
LINE
  5
395
330
1F
100
AcDbEntity
  8
LAY-10
  6
CONTINUOUS
 62
     7
100
AcDbLine
 10
444.0000000000001
 20
648.0000000000101
 30
0.0
 11
396.0000000000001
 21
648.0000000000101
 31
0.0
  0
LINE
  5
396
330
1F
100
AcDbEntity
  8
LAY-10
  6
CONTINUOUS
 62
     7
100
AcDbLine
 10
384.0000000000001
 20
648.0000000000102
 30
0.0
 11
336.0000000000001
 21
648.0000000000102
 31
0.0
  0
LINE
  5
397
330
1F
100
AcDbEntity
  8
LAY-10
  6
CONTINUOUS
 62
     7
100
AcDbLine
 10
324.0000000000001
 20
648.0000000000102
 30
0.0
 11
276.0000000000001
 21
648.0000000000102
 31
0.0
  0
LINE
  5
398
330
1F
100
AcDbEntity
  8
LAY-10
  6
CONTINUOUS
 62
     7
100
AcDbLine
 10
264.0000000000001
 20
648.0000000000102
 30
0.0
 11
216.0000000000001
 21
648.0000000000102
 31
0.0
  0
LINE
  5
399
330
1F
100
AcDbEntity
  8
LAY-10
  6
CONTINUOUS
 62
     7
100
AcDbLine
 10
204.0000000000001
 20
648.0000000000101
 30
0.0
 11
165.0000000000001
 21
648.0000000000102
 31
0.0
  0
LINE
  5
39A
330
1F
100
AcDbEntity
  8
LAY-10
  6
CONTINUOUS
 62
     7
100
AcDbLine
 10
204.0000000000001
 20
492.00000000001
 30
0.0
 11
165.0000000000001
 21
492.00000000001
 31
0.0
  0
LINE
  5
39B
330
1F
100
AcDbEntity
  8
LAY-10
  6
CONTINUOUS
 62
     7
100
AcDbLine
 10
264.0000000000001
 20
492.00000000001
 30
0.0
 11
216.0000000000001
 21
492.00000000001
 31
0.0
  0
LINE
  5
39C
330
1F
100
AcDbEntity
  8
LAY-10
  6
CONTINUOUS
 62
     7
100
AcDbLine
 10
324.0000000000001
 20
492.00000000001
 30
0.0
 11
276.0000000000001
 21
492.00000000001
 31
0.0
  0
LINE
  5
39D
330
1F
100
AcDbEntity
  8
LAY-10
  6
CONTINUOUS
 62
     7
100
AcDbLine
 10
384.0000000000001
 20
492.00000000001
 30
0.0
 11
336.0000000000001
 21
492.00000000001
 31
0.0
  0
LINE
  5
39E
330
1F
100
AcDbEntity
  8
LAY-10
  6
CONTINUOUS
 62
     7
100
AcDbLine
 10
444.0000000000001
 20
492.0000000000099
 30
0.0
 11
396.0000000000001
 21
492.0000000000099
 31
0.0
  0
LINE
  5
39F
330
1F
100
AcDbEntity
  8
LAY-10
  6
CONTINUOUS
 62
     7
100
AcDbLine
 10
495.0000000000001
 20
492.0000000000099
 30
0.0
 11
456.0000000000001
 21
492.0000000000099
 31
0.0
  0
LINE
  5
3A0
330
1F
100
AcDbEntity
  8
LAY-10
  6
CONTINUOUS
 62
     7
100
AcDbLine
 10
249.3199007438043
 20
301.300992561948
 30
0.0
 11
249.0
 21
304.4999999999901
 31
0.0
  0
ARC
  5
3A1
330
1F
100
AcDbEntity
  8
LAY-10
  6
CONTINUOUS
 62
     7
100
AcDbCircle
 10
251.3099751242244
 20
301.4999999999901
 30
0.0
 40
2.0
100
AcDbArc
 50
185.7105931375006
 51
270.0
  0
LINE
  5
3A2
330
1F
100
AcDbEntity
  8
LAY-10
  6
CONTINUOUS
 62
     7
100
AcDbLine
 10
260.5
 20
309.9999999999901
 30
0.0
 11
260.0
 21
304.4999999999901
 31
0.0
  0
LINE
  5
3A3
330
1F
100
AcDbEntity
  8
LAY-10
  6
CONTINUOUS
 62
     7
100
AcDbLine
 10
251.3099751242244
 20
299.4999999999901
 30
0.0
 11
265.1724137931035
 21
299.4999999999901
 31
0.0
  0
LINE
  5
3A4
330
1F
100
AcDbEntity
  8
LAY-10
  6
CONTINUOUS
 62
     7
100
AcDbLine
 10
260.5
 20
309.9999999999901
 30
0.0
 11
264.5
 21
309.9999999999901
 31
0.0
  0
LINE
  5
3A5
330
1F
100
AcDbEntity
  8
LAY-10
  6
CONTINUOUS
 62
     7
100
AcDbLine
 10
266.5
 20
344.9999999999901
 30
0.0
 11
393.5
 21
344.9999999999901
 31
0.0
  0
LINE
  5
3A6
330
1F
100
AcDbEntity
  8
LAY-10
  6
CONTINUOUS
 62
     7
100
AcDbLine
 10
393.5
 20
344.9999999999901
 30
0.0
 11
395.4999999999999
 21
309.9999999999901
 31
0.0
  0
LINE
  5
3A7
330
1F
100
AcDbEntity
  8
LAY-10
  6
CONTINUOUS
 62
     7
100
AcDbLine
 10
410.6800992561957
 20
301.3009925619481
 30
0.0
 11
411.0
 21
304.4999999999901
 31
0.0
  0
ARC
  5
3A8
330
1F
100
AcDbEntity
  8
LAY-10
  6
CONTINUOUS
 62
     7
100
AcDbCircle
 10
408.6900248757756
 20
301.4999999999901
 30
0.0
 40
2.0
100
AcDbArc
 50
270.0
 51
354.2894068624994
  0
LINE
  5
3A9
330
1F
100
AcDbEntity
  8
LAY-10
  6
CONTINUOUS
 62
     7
100
AcDbLine
 10
399.5
 20
309.9999999999901
 30
0.0
 11
399.9999999999999
 21
304.4999999999901
 31
0.0
  0
LINE
  5
3AA
330
1F
100
AcDbEntity
  8
LAY-10
  6
CONTINUOUS
 62
     7
100
AcDbLine
 10
408.6900248757756
 20
299.4999999999901
 30
0.0
 11
394.8275862068965
 21
299.4999999999901
 31
0.0
  0
LINE
  5
3AB
330
1F
100
AcDbEntity
  8
LAY-10
  6
CONTINUOUS
 62
     7
100
AcDbLine
 10
399.5
 20
309.9999999999901
 30
0.0
 11
395.4999999999999
 21
309.9999999999901
 31
0.0
  0
LINE
  5
3AC
330
1F
100
AcDbEntity
  8
LAY-10
  6
CONTINUOUS
 62
     7
100
AcDbLine
 10
257.499999999999
 20
304.4999999999901
 30
0.0
 11
257.999999999999
 21
309.9999999999901
 31
0.0
  0
LINE
  5
3AD
330
1F
100
AcDbEntity
  8
LAY-10
  6
CONTINUOUS
 62
     7
100
AcDbLine
 10
246.999999999999
 20
309.9999999999901
 30
0.0
 11
247.4999999999978
 21
304.5000000000037
 31
0.0
  0
LINE
  5
3AE
330
1F
100
AcDbEntity
  8
LAY-10
  6
CONTINUOUS
 62
     7
100
AcDbLine
 10
402.5
 20
304.4999999999902
 30
0.0
 11
402.0
 21
309.9999999999902
 31
0.0
  0
LINE
  5
3AF
330
1F
100
AcDbEntity
  8
LAY-10
  6
CONTINUOUS
 62
     7
100
AcDbLine
 10
413.0
 20
309.9999999999902
 30
0.0
 11
412.5000000000012
 21
304.5000000000039
 31
0.0
  0
LINE
  5
3B0
330
1F
100
AcDbEntity
  8
LAY-10
  6
CONTINUOUS
 62
     7
100
AcDbLine
 10
265.7857142857144
 20
332.4999999999905
 30
0.0
 11
264.5
 21
309.9999999999901
 31
0.0
  0
LINE
  5
3B1
330
1F
100
AcDbEntity
  8
LAY-10
  6
CONTINUOUS
 62
     7
100
AcDbLine
 10
389.0
 20
344.9999999999901
 30
0.0
 11
389.0000000000001
 21
331.2499999999896
 31
0.0
  0
LINE
  5
3B2
330
1F
100
AcDbEntity
  8
LAY-10
  6
CONTINUOUS
 62
     7
100
AcDbLine
 10
270.9999999999999
 20
344.9999999999901
 30
0.0
 11
271.0
 21
337.9999999999903
 31
0.0
  0
LINE
  5
3B3
330
1F
100
AcDbEntity
  8
LAY-10
  6
CONTINUOUS
 62
     7
100
AcDbLine
 10
266.5
 20
344.9999999999901
 30
0.0
 11
266.0714285714287
 21
337.4999999999903
 31
0.0
  0
LINE
  5
3B4
330
1F
100
AcDbEntity
  8
LAY-10
  6
CONTINUOUS
 62
     7
100
AcDbLine
 10
272.5000000000022
 20
337.9999999999903
 30
0.0
 11
272.5000000000022
 21
331.9999999999903
 31
0.0
  0
LINE
  5
3B5
330
1F
100
AcDbEntity
  8
LAY-10
  6
CONTINUOUS
 62
     7
100
AcDbLine
 10
261.000000000002
 20
337.9999999999902
 30
0.0
 11
272.5000000000022
 21
337.9999999999903
 31
0.0
  0
LINE
  5
3B6
330
1F
100
AcDbEntity
  8
LAY-10
  6
CONTINUOUS
 62
     7
100
AcDbLine
 10
273.0000000000021
 20
332.4999999999905
 30
0.0
 11
273.0000000000021
 21
337.4999999999904
 31
0.0
  0
LINE
  5
3B7
330
1F
100
AcDbEntity
  8
LAY-10
  6
CONTINUOUS
 62
     7
100
AcDbLine
 10
261.0000000000021
 20
331.9999999999902
 30
0.0
 11
272.5000000000022
 21
331.9999999999903
 31
0.0
  0
LINE
  5
3B8
330
1F
100
AcDbEntity
  8
LAY-10
  6
CONTINUOUS
 62
     7
100
AcDbLine
 10
273.0000000000021
 20
337.4999999999904
 30
0.0
 11
272.5000000000022
 21
337.9999999999903
 31
0.0
  0
LINE
  5
3B9
330
1F
100
AcDbEntity
  8
LAY-10
  6
CONTINUOUS
 62
     7
100
AcDbLine
 10
273.0000000000021
 20
332.4999999999905
 30
0.0
 11
272.5000000000022
 21
331.9999999999903
 31
0.0
  0
ARC
  5
3BA
330
1F
100
AcDbEntity
  8
LAY-10
  6
CONTINUOUS
 62
     7
100
AcDbCircle
 10
263.3000000000021
 20
334.9999999999902
 30
0.0
 40
6.300000000000002
100
AcDbArc
 50
185.4650237999103
 51
218.6821874534934
  0
ARC
  5
3BB
330
1F
100
AcDbEntity
  8
LAY-10
  6
CONTINUOUS
 62
     7
100
AcDbCircle
 10
263.3000000000021
 20
334.9999999999902
 30
0.0
 40
6.300000000000002
100
AcDbArc
 50
141.3178125464988
 51
174.5349762000991
  0
LINE
  5
3BC
330
1F
100
AcDbEntity
  8
LAY-10
  6
CONTINUOUS
 62
     7
100
AcDbLine
 10
257.0286365119021
 20
334.3999999999904
 30
0.0
 11
259.5000000000021
 21
334.3999999999904
 31
0.0
  0
LINE
  5
3BD
330
1F
100
AcDbEntity
  8
LAY-10
  6
CONTINUOUS
 62
     7
100
AcDbLine
 10
259.5000000000021
 20
335.5999999999904
 30
0.0
 11
259.5000000000021
 21
334.3999999999904
 31
0.0
  0
LINE
  5
3BE
330
1F
100
AcDbEntity
  8
LAY-10
  6
CONTINUOUS
 62
     7
100
AcDbLine
 10
257.0286365119021
 20
335.5999999999904
 30
0.0
 11
259.5000000000021
 21
335.5999999999904
 31
0.0
  0
LINE
  5
3BF
330
1F
100
AcDbEntity
  8
LAY-10
  6
CONTINUOUS
 62
     7
100
AcDbLine
 10
261.000000000002
 20
340.2481347568904
 30
0.0
 11
261.0000000000021
 21
329.7518652430904
 31
0.0
  0
ARC
  5
3C0
330
1F
100
AcDbEntity
  8
LAY-10
  6
CONTINUOUS
 62
     7
100
AcDbCircle
 10
261.1142507006022
 20
336.7499999999903
 30
0.0
 40
3.500000000000002
100
AcDbArc
 50
91.8706417306036
 51
141.3178125464967
  0
ARC
  5
3C1
330
1F
100
AcDbEntity
  8
LAY-10
  6
CONTINUOUS
 62
     7
100
AcDbCircle
 10
261.1142507006022
 20
333.2499999999905
 30
0.0
 40
3.500000000000002
100
AcDbArc
 50
218.6821874534929
 51
268.1293582694076
  0
LINE
  5
3C2
330
1F
100
AcDbEntity
  8
LAY-10
  6
CONTINUOUS
 62
     7
100
AcDbLine
 10
271.0
 20
331.9999999999903
 30
0.0
 11
271.0
 21
331.2499999999887
 31
0.0
  0
ELLIPSE
  5
3C3
330
1F
100
AcDbEntity
  8
LAY-10
  6
CONTINUOUS
 62
     7
100
AcDbEllipse
 10
362.03571428572
 20
334.9999999999901
 30
0.0
 11
-1.047444401652941E-14
 21
3.000000000000002
 31
0.0
210
0.0
220
0.0
230
1.0
 40
0.8654238143700084
 41
0.0
 42
6.283185307179586
  0
LINE
  5
3C4
330
1F
100
AcDbEntity
  8
LAY-10
  6
CONTINUOUS
 62
     7
100
AcDbLine
 10
749.9167388793123
 20
500.0000000000126
 30
0.0
 11
747.9999999999994
 21
501.9167388793254
 31
0.0
  0
LINE
  5
3C5
330
1F
100
AcDbEntity
  8
LAY-10
  6
CONTINUOUS
 62
     7
100
AcDbLine
 10
752.7451660040612
 20
500.0000000000099
 30
0.0
 11
748.2451660040642
 21
504.5000000000068
 31
0.0
  0
LINE
  5
3C6
330
1F
100
AcDbEntity
  8
LAY-10
  6
CONTINUOUS
 62
     7
100
AcDbLine
 10
755.573593128806
 20
500.0000000000113
 30
0.0
 11
751.0735931288091
 21
504.5000000000082
 31
0.0
  0
LINE
  5
3C7
330
1F
100
AcDbEntity
  8
LAY-10
  6
CONTINUOUS
 62
     7
100
AcDbLine
 10
758.402020253551
 20
500.0000000000123
 30
0.0
 11
753.9020202535539
 21
504.5000000000093
 31
0.0
  0
LINE
  5
3C8
330
1F
100
AcDbEntity
  8
LAY-10
  6
CONTINUOUS
 62
     7
100
AcDbLine
 10
761.2304473782958
 20
500.0000000000136
 30
0.0
 11
756.7304473782989
 21
504.5000000000106
 31
0.0
  0
LINE
  5
3C9
330
1F
100
AcDbEntity
  8
LAY-10
  6
CONTINUOUS
 62
     7
100
AcDbLine
 10
764.0588745030445
 20
500.0000000000113
 30
0.0
 11
759.5588745030477
 21
504.5000000000079
 31
0.0
  0
LINE
  5
3CA
330
1F
100
AcDbEntity
  8
LAY-10
  6
CONTINUOUS
 62
     7
100
AcDbLine
 10
766.8873016277894
 20
500.0000000000123
 30
0.0
 11
762.3873016277964
 21
504.5000000000055
 31
0.0
  0
LINE
  5
3CB
330
1F
100
AcDbEntity
  8
LAY-10
  6
CONTINUOUS
 62
     7
100
AcDbLine
 10
769.7157287525381
 20
500.0000000000099
 30
0.0
 11
765.2157287525374
 21
504.5000000000106
 31
0.0
  0
LINE
  5
3CC
330
1F
100
AcDbEntity
  8
LAY-10
  6
CONTINUOUS
 62
     7
100
AcDbLine
 10
772.5441558772831
 20
500.000000000011
 30
0.0
 11
768.0441558772861
 21
504.5000000000079
 31
0.0
  0
LINE
  5
3CD
330
1F
100
AcDbEntity
  8
LAY-10
  6
CONTINUOUS
 62
     7
100
AcDbLine
 10
775.3725830020277
 20
500.0000000000122
 30
0.0
 11
770.872583002031
 21
504.5000000000092
 31
0.0
  0
LINE
  5
3CE
330
1F
100
AcDbEntity
  8
LAY-10
  6
CONTINUOUS
 62
     7
100
AcDbLine
 10
778.2010101267766
 20
500.0000000000098
 30
0.0
 11
773.7010101267797
 21
504.5000000000065
 31
0.0
  0
LINE
  5
3CF
330
1F
100
AcDbEntity
  8
LAY-10
  6
CONTINUOUS
 62
     7
100
AcDbLine
 10
781.0294372515216
 20
500.000000000011
 30
0.0
 11
776.5294372515207
 21
504.5000000000118
 31
0.0
  0
LINE
  5
3D0
330
1F
100
AcDbEntity
  8
LAY-10
  6
CONTINUOUS
 62
     7
100
AcDbLine
 10
783.8578643762663
 20
500.0000000000122
 30
0.0
 11
779.3578643762696
 21
504.5000000000091
 31
0.0
  0
LINE
  5
3D1
330
1F
100
AcDbEntity
  8
LAY-10
  6
CONTINUOUS
 62
     7
100
AcDbLine
 10
786.6862915010113
 20
500.0000000000135
 30
0.0
 11
782.1862915010183
 21
504.5000000000065
 31
0.0
  0
LINE
  5
3D2
330
1F
100
AcDbEntity
  8
LAY-10
  6
CONTINUOUS
 62
     7
100
AcDbLine
 10
789.51471862576
 20
500.0000000000108
 30
0.0
 11
785.0147186257631
 21
504.5000000000077
 31
0.0
  0
LINE
  5
3D3
330
1F
100
AcDbEntity
  8
LAY-10
  6
CONTINUOUS
 62
     7
100
AcDbLine
 10
792.343145750505
 20
500.0000000000122
 30
0.0
 11
787.843145750508
 21
504.5000000000091
 31
0.0
  0
LINE
  5
3D4
330
1F
100
AcDbEntity
  8
LAY-10
  6
CONTINUOUS
 62
     7
100
AcDbLine
 10
795.1715728752498
 20
500.0000000000134
 30
0.0
 11
790.6715728752567
 21
504.5000000000064
 31
0.0
  0
LINE
  5
3D5
330
1F
100
AcDbEntity
  8
LAY-10
  6
CONTINUOUS
 62
     7
100
AcDbLine
 10
798.0000000000024
 20
500.000000000007
 30
0.0
 11
793.5000000000017
 21
504.5000000000077
 31
0.0
  0
LINE
  5
3D6
330
1F
100
AcDbEntity
  8
LAY-10
  6
CONTINUOUS
 62
     7
100
AcDbLine
 10
798.0000000000036
 20
502.8284271247518
 30
0.0
 11
796.3284271247466
 21
504.5000000000089
 31
0.0
  0
LINE
  5
3D7
330
1F
100
AcDbEntity
  8
LAY-10
  6
CONTINUOUS
 62
     7
100
AcDbLine
 10
749.9167388793182
 20
635.5000000000067
 30
0.0
 11
748.0000000000015
 21
637.4167388793235
 31
0.0
  0
LINE
  5
3D8
330
1F
100
AcDbEntity
  8
LAY-10
  6
CONTINUOUS
 62
     7
100
AcDbLine
 10
752.7451660040632
 20
635.5000000000078
 30
0.0
 11
748.2451660040585
 21
640.0000000000125
 31
0.0
  0
LINE
  5
3D9
330
1F
100
AcDbEntity
  8
LAY-10
  6
CONTINUOUS
 62
     7
100
AcDbLine
 10
755.5735931288119
 20
635.5000000000053
 30
0.0
 11
751.0735931288073
 21
640.0000000000098
 31
0.0
  0
LINE
  5
3DA
330
1F
100
AcDbEntity
  8
LAY-10
  6
CONTINUOUS
 62
     7
100
AcDbLine
 10
758.4020202535568
 20
635.5000000000065
 30
0.0
 11
753.9020202535484
 21
640.000000000015
 31
0.0
  0
LINE
  5
3DB
330
1F
100
AcDbEntity
  8
LAY-10
  6
CONTINUOUS
 62
     7
100
AcDbLine
 10
761.2304473783017
 20
635.5000000000077
 30
0.0
 11
756.7304473782971
 21
640.0000000000125
 31
0.0
  0
LINE
  5
3DC
330
1F
100
AcDbEntity
  8
LAY-10
  6
CONTINUOUS
 62
     7
100
AcDbLine
 10
764.0588745030504
 20
635.5000000000053
 30
0.0
 11
759.5588745030419
 21
640.0000000000136
 31
0.0
  0
LINE
  5
3DD
330
1F
100
AcDbEntity
  8
LAY-10
  6
CONTINUOUS
 62
     7
100
AcDbLine
 10
766.8873016277953
 20
635.5000000000065
 30
0.0
 11
762.3873016277907
 21
640.0000000000111
 31
0.0
  0
LINE
  5
3DE
330
1F
100
AcDbEntity
  8
LAY-10
  6
CONTINUOUS
 62
     7
100
AcDbLine
 10
769.7157287525401
 20
635.5000000000077
 30
0.0
 11
765.2157287525356
 21
640.0000000000125
 31
0.0
  0
LINE
  5
3DF
330
1F
100
AcDbEntity
  8
LAY-10
  6
CONTINUOUS
 62
     7
100
AcDbLine
 10
772.5441558772851
 20
635.5000000000091
 30
0.0
 11
768.0441558772803
 21
640.0000000000136
 31
0.0
  0
LINE
  5
3E0
330
1F
100
AcDbEntity
  8
LAY-10
  6
CONTINUOUS
 62
     7
100
AcDbLine
 10
775.3725830020338
 20
635.5000000000064
 30
0.0
 11
770.872583002029
 21
640.0000000000111
 31
0.0
  0
LINE
  5
3E1
330
1F
100
AcDbEntity
  8
LAY-10
  6
CONTINUOUS
 62
     7
100
AcDbLine
 10
778.2010101267787
 20
635.5000000000077
 30
0.0
 11
773.701010126774
 21
640.0000000000123
 31
0.0
  0
LINE
  5
3E2
330
1F
100
AcDbEntity
  8
LAY-10
  6
CONTINUOUS
 62
     7
100
AcDbLine
 10
781.0294372515236
 20
635.5000000000089
 30
0.0
 11
776.529437251519
 21
640.0000000000135
 31
0.0
  0
LINE
  5
3E3
330
1F
100
AcDbEntity
  8
LAY-10
  6
CONTINUOUS
 62
     7
100
AcDbLine
 10
783.8578643762723
 20
635.5000000000064
 30
0.0
 11
779.3578643762638
 21
640.0000000000149
 31
0.0
  0
LINE
  5
3E4
330
1F
100
AcDbEntity
  8
LAY-10
  6
CONTINUOUS
 62
     7
100
AcDbLine
 10
786.6862915010171
 20
635.5000000000077
 30
0.0
 11
782.1862915010126
 21
640.0000000000122
 31
0.0
  0
LINE
  5
3E5
330
1F
100
AcDbEntity
  8
LAY-10
  6
CONTINUOUS
 62
     7
100
AcDbLine
 10
789.5147186257658
 20
635.500000000005
 30
0.0
 11
785.0147186257614
 21
640.0000000000095
 31
0.0
  0
LINE
  5
3E6
330
1F
100
AcDbEntity
  8
LAY-10
  6
CONTINUOUS
 62
     7
100
AcDbLine
 10
792.3431457505108
 20
635.5000000000064
 30
0.0
 11
787.8431457505022
 21
640.0000000000149
 31
0.0
  0
LINE
  5
3E7
330
1F
100
AcDbEntity
  8
LAY-10
  6
CONTINUOUS
 62
     7
100
AcDbLine
 10
795.1715728752557
 20
635.5000000000075
 30
0.0
 11
790.671572875251
 21
640.0000000000122
 31
0.0
  0
LINE
  5
3E8
330
1F
100
AcDbEntity
  8
LAY-10
  6
CONTINUOUS
 62
     7
100
AcDbLine
 10
797.9999999999968
 20
635.5000000000126
 30
0.0
 11
793.4999999999997
 21
640.0000000000095
 31
0.0
  0
LINE
  5
3E9
330
1F
100
AcDbEntity
  8
LAY-10
  6
CONTINUOUS
 62
     7
100
AcDbLine
 10
797.999999999998
 20
638.3284271247575
 30
0.0
 11
796.3284271247409
 21
640.0000000000147
 31
0.0
  0
LINE
  5
3EA
330
1F
100
AcDbEntity
  8
LAY-10
  6
CONTINUOUS
 62
     7
100
AcDbLine
 10
718.0
 20
669.0000000000099
 30
0.0
 11
725.0
 21
670.0000000000099
 31
0.0
  0
LINE
  5
3EB
330
1F
100
AcDbEntity
  8
LAY-10
  6
CONTINUOUS
 62
     7
100
AcDbLine
 10
751.7384991491573
 20
616.0987044350685
 30
0.0
 11
793.0
 21
611.9883231106197
 31
0.0
  0
ARC
  5
3EC
330
1F
100
AcDbEntity
  8
LAY-10
  6
CONTINUOUS
 62
     7
100
AcDbCircle
 10
752.0
 20
619.0872855875567
 30
0.0
 40
3.000000000000002
100
AcDbArc
 50
180.0
 51
264.9993554024418
  0
LINE
  5
3ED
330
1F
100
AcDbEntity
  8
LAY-10
  6
CONTINUOUS
 62
     7
100
AcDbLine
 10
753.9128330497191
 20
619.9084502187694
 30
0.0
 11
793.0
 21
615.9883231106197
 31
0.0
  0
ARC
  5
3EE
330
1F
100
AcDbEntity
  8
LAY-10
  6
CONTINUOUS
 62
     7
100
AcDbCircle
 10
754.0
 20
620.9046439362654
 30
0.0
 40
1.0
100
AcDbArc
 50
180.0
 51
264.9993554024412
  0
LINE
  5
3EF
330
1F
100
AcDbEntity
  8
LAY-10
  6
CONTINUOUS
 62
     7
100
AcDbLine
 10
793.0
 20
615.9883231106197
 30
0.0
 11
793.0
 21
524.0116768893998
 31
0.0
  0
ARC
  5
3F0
330
1F
100
AcDbEntity
  8
LAY-10
  6
CONTINUOUS
 62
     7
100
AcDbCircle
 10
749.0
 20
635.3254115280645
 30
0.0
 40
1.0
100
AcDbArc
 50
180.0
 51
255.9637565320743
  0
LINE
  5
3F1
330
1F
100
AcDbEntity
  8
LAY-10
  6
CONTINUOUS
 62
     7
100
AcDbLine
 10
753.0
 20
633.5446351216598
 30
0.0
 11
748.7574643749637
 21
634.3552690279191
 31
0.0
  0
LINE
  5
3F2
330
1F
100
AcDbEntity
  8
LAY-10
  6
CONTINUOUS
 62
     7
100
AcDbLine
 10
748.1876777348443
 20
630.391776646947
 30
0.0
 11
743.9999999999995
 21
631.1919286928882
 31
0.0
  0
ARC
  5
3F3
330
1F
100
AcDbEntity
  8
LAY-10
  6
CONTINUOUS
 62
     7
100
AcDbCircle
 10
748.0
 20
629.4095459877616
 30
0.0
 40
1.0
100
AcDbArc
 50
0.0
 51
79.18270962095679
  0
LINE
  5
3F4
330
1F
100
AcDbEntity
  8
LAY-10
  6
CONTINUOUS
 62
     7
100
AcDbLine
 10
753.0
 20
633.5446351216598
 30
0.0
 11
753.0
 21
620.9046439362654
 31
0.0
  0
LINE
  5
3F5
330
1F
100
AcDbEntity
  8
LAY-10
  6
CONTINUOUS
 62
     7
100
AcDbLine
 10
725.0
 20
670.0000000000099
 30
0.0
 11
725.0
 21
665.0000000000081
 31
0.0
  0
LINE
  5
3F6
330
1F
100
AcDbEntity
  8
LAY-10
  6
CONTINUOUS
 62
     7
100
AcDbLine
 10
725.0
 20
665.00000000001
 30
0.0
 11
732.05
 21
650.00000000001
 31
0.0
  0
LINE
  5
3F7
330
1F
100
AcDbEntity
  8
LAY-10
  6
CONTINUOUS
 62
     7
100
AcDbLine
 10
718.0
 20
665.00000000001
 30
0.0
 11
720.81522625014
 21
664.50000000001
 31
0.0
  0
LINE
  5
3F8
330
1F
100
AcDbEntity
  8
LAY-10
  6
CONTINUOUS
 62
     7
100
AcDbLine
 10
720.8152262501363
 20
664.5000000000086
 30
0.0
 11
723.5655406774562
 21
658.6482671759233
 31
0.0
  0
ARC
  5
3F9
330
1F
100
AcDbEntity
  8
LAY-10
  6
CONTINUOUS
 62
     7
100
AcDbCircle
 10
721.7554932739565
 20
657.7975448962785
 30
0.0
 40
2.0
100
AcDbArc
 50
321.5613244857719
 51
25.17352452452911
  0
ARC
  5
3FA
330
1F
100
AcDbEntity
  8
LAY-10
  6
CONTINUOUS
 62
     7
100
AcDbCircle
 10
725.2802262501353
 20
655.00000000001
 30
0.0
 40
2.5
100
AcDbArc
 50
141.5613244857722
 51
268.78572456329
  0
ARC
  5
3FB
330
1F
100
AcDbEntity
  8
LAY-10
  6
CONTINUOUS
 62
     7
100
AcDbCircle
 10
725.1848644193152
 20
650.5010105444519
 30
0.0
 40
2.0
100
AcDbArc
 50
25.17352452453415
 51
88.78572456329275
  0
LINE
  5
3FC
330
1F
100
AcDbEntity
  8
LAY-10
  6
CONTINUOUS
 62
     7
100
AcDbLine
 10
748.0
 20
640.00000000001
 30
0.0
 11
732.0500000000001
 21
650.00000000001
 31
0.0
  0
LINE
  5
3FD
330
1F
100
AcDbEntity
  8
LAY-10
  6
CONTINUOUS
 62
     7
100
AcDbLine
 10
748.0
 20
635.3254115280645
 30
0.0
 11
748.0
 21
640.00000000001
 31
0.0
  0
LINE
  5
3FE
330
1F
100
AcDbEntity
  8
LAY-10
  6
CONTINUOUS
 62
     7
100
AcDbLine
 10
726.9949118228149
 20
651.3517328240969
 30
0.0
 11
728.9297067529142
 21
647.2351478664389
 31
0.0
  0
LINE
  5
3FF
330
1F
100
AcDbEntity
  8
LAY-10
  6
CONTINUOUS
 62
     7
100
AcDbLine
 10
742.5935763150931
 20
638.6684584857624
 30
0.0
 11
728.9297067529142
 21
647.2351478664389
 31
0.0
  0
ARC
  5
400
330
1F
100
AcDbEntity
  8
LAY-10
  6
CONTINUOUS
 62
     7
100
AcDbCircle
 10
740.9999999999995
 20
636.1267042631882
 30
0.0
 40
3.000000000000002
100
AcDbArc
 50
0.0
 51
57.91396400240451
  0
LINE
  5
401
330
1F
100
AcDbEntity
  8
LAY-10
  6
CONTINUOUS
 62
     7
100
AcDbLine
 10
718.0
 20
471.0000000000097
 30
0.0
 11
725.0
 21
470.0000000000096
 31
0.0
  0
LINE
  5
402
330
1F
100
AcDbEntity
  8
LAY-10
  6
CONTINUOUS
 62
     7
100
AcDbLine
 10
751.7384991491573
 20
523.901295564951
 30
0.0
 11
793.0
 21
528.0116768893998
 31
0.0
  0
ARC
  5
403
330
1F
100
AcDbEntity
  8
LAY-10
  6
CONTINUOUS
 62
     7
100
AcDbCircle
 10
752.0
 20
520.9127144124628
 30
0.0
 40
3.000000000000002
100
AcDbArc
 50
95.0006445975583
 51
180.0
  0
LINE
  5
404
330
1F
100
AcDbEntity
  8
LAY-10
  6
CONTINUOUS
 62
     7
100
AcDbLine
 10
753.9128330497191
 20
520.0915497812501
 30
0.0
 11
793.0
 21
524.0116768893998
 31
0.0
  0
ARC
  5
405
330
1F
100
AcDbEntity
  8
LAY-10
  6
CONTINUOUS
 62
     7
100
AcDbCircle
 10
754.0
 20
519.0953560637541
 30
0.0
 40
1.0
100
AcDbArc
 50
95.00064459755883
 51
180.0
  0
ARC
  5
406
330
1F
100
AcDbEntity
  8
LAY-10
  6
CONTINUOUS
 62
     7
100
AcDbCircle
 10
749.0
 20
504.6745884719552
 30
0.0
 40
1.0
100
AcDbArc
 50
104.0362434679269
 51
180.0
  0
LINE
  5
407
330
1F
100
AcDbEntity
  8
LAY-10
  6
CONTINUOUS
 62
     7
100
AcDbLine
 10
753.0
 20
506.4553648783598
 30
0.0
 11
748.7574643749637
 21
505.6447309721005
 31
0.0
  0
LINE
  5
408
330
1F
100
AcDbEntity
  8
LAY-10
  6
CONTINUOUS
 62
     7
100
AcDbLine
 10
748.1876777348443
 20
509.6082233530725
 30
0.0
 11
743.9999999999995
 21
508.8080713071314
 31
0.0
  0
ARC
  5
409
330
1F
100
AcDbEntity
  8
LAY-10
  6
CONTINUOUS
 62
     7
100
AcDbCircle
 10
748.0
 20
510.5904540122579
 30
0.0
 40
1.0
100
AcDbArc
 50
280.8172903790464
 51
0.0
  0
LINE
  5
40A
330
1F
100
AcDbEntity
  8
LAY-10
  6
CONTINUOUS
 62
     7
100
AcDbLine
 10
753.0
 20
506.4553648783598
 30
0.0
 11
753.0
 21
519.0953560637541
 31
0.0
  0
LINE
  5
40B
330
1F
100
AcDbEntity
  8
LAY-10
  6
CONTINUOUS
 62
     7
100
AcDbLine
 10
725.0
 20
470.0000000000096
 30
0.0
 11
725.0
 21
475.0000000000115
 31
0.0
  0
LINE
  5
40C
330
1F
100
AcDbEntity
  8
LAY-10
  6
CONTINUOUS
 62
     7
100
AcDbLine
 10
718.0
 20
475.0000000000097
 30
0.0
 11
720.81522625014
 21
475.5000000000097
 31
0.0
  0
LINE
  5
40D
330
1F
100
AcDbEntity
  8
LAY-10
  6
CONTINUOUS
 62
     7
100
AcDbLine
 10
720.8152262501363
 20
475.500000000011
 30
0.0
 11
723.5655406774562
 21
481.3517328240963
 31
0.0
  0
ARC
  5
40E
330
1F
100
AcDbEntity
  8
LAY-10
  6
CONTINUOUS
 62
     7
100
AcDbCircle
 10
721.7554932739565
 20
482.202455103741
 30
0.0
 40
2.0
100
AcDbArc
 50
334.8264754754722
 51
38.4386755142359
  0
ARC
  5
40F
330
1F
100
AcDbEntity
  8
LAY-10
  6
CONTINUOUS
 62
     7
100
AcDbCircle
 10
725.2802262501353
 20
485.0000000000096
 30
0.0
 40
2.5
100
AcDbArc
 50
91.21427543670994
 51
218.4386755142269
  0
ARC
  5
410
330
1F
100
AcDbEntity
  8
LAY-10
  6
CONTINUOUS
 62
     7
100
AcDbCircle
 10
725.1848644193152
 20
489.4989894555677
 30
0.0
 40
2.0
100
AcDbArc
 50
271.2142754367073
 51
334.8264754754663
  0
LINE
  5
411
330
1F
100
AcDbEntity
  8
LAY-10
  6
CONTINUOUS
 62
     7
100
AcDbLine
 10
726.9949118228149
 20
488.6482671759228
 30
0.0
 11
728.9297067529142
 21
492.7648521335808
 31
0.0
  0
LINE
  5
412
330
1F
100
AcDbEntity
  8
LAY-10
  6
CONTINUOUS
 62
     7
100
AcDbLine
 10
742.5935763150931
 20
501.3315415142573
 30
0.0
 11
728.9297067529142
 21
492.7648521335808
 31
0.0
  0
ARC
  5
413
330
1F
100
AcDbEntity
  8
LAY-10
  6
CONTINUOUS
 62
     7
100
AcDbCircle
 10
740.9999999999995
 20
503.8732957368314
 30
0.0
 40
3.000000000000002
100
AcDbArc
 50
302.086035997597
 51
0.0
  0
LINE
  5
414
330
1F
100
AcDbEntity
  8
LAY-10
  6
CONTINUOUS
 62
     7
100
AcDbLine
 10
749.0
 20
510.5904540122598
 30
0.0
 11
749.0
 21
629.4095459877616
 31
0.0
  0
LINE
  5
415
330
1F
100
AcDbEntity
  8
LAY-10
  6
CONTINUOUS
 62
     7
100
AcDbLine
 10
725.0
 20
475.0000000000097
 30
0.0
 11
732.0499999999998
 21
490.0000000000094
 31
0.0
  0
LINE
  5
416
330
1F
100
AcDbEntity
  8
LAY-10
  6
CONTINUOUS
 62
     7
100
AcDbLine
 10
748.0
 20
500.0000000000096
 30
0.0
 11
732.05
 21
490.0000000000094
 31
0.0
  0
LINE
  5
417
330
1F
100
AcDbEntity
  8
LAY-10
  6
CONTINUOUS
 62
     7
100
AcDbLine
 10
748.0
 20
504.6745884719552
 30
0.0
 11
748.0
 21
500.0000000000096
 31
0.0
  0
LINE
  5
418
330
1F
100
AcDbEntity
  8
LAY-10
  6
CONTINUOUS
 62
     7
100
AcDbLine
 10
728.9297067529101
 20
492.7648521335808
 30
0.0
 11
728.9297067529101
 21
647.2351478664414
 31
0.0
  0
LINE
  5
419
330
1F
100
AcDbEntity
  8
LAY-10
  6
CONTINUOUS
 62
     7
100
AcDbLine
 10
743.9999999999995
 20
636.1267042631899
 30
0.0
 11
743.9999999999995
 21
503.8732957368298
 31
0.0
  0
LINE
  5
41A
330
1F
100
AcDbEntity
  8
LAY-10
  6
CONTINUOUS
 62
     7
100
AcDbLine
 10
704.0
 20
637.00000000001
 30
0.0
 11
698.0000000000001
 21
637.50000000001
 31
0.0
  0
LINE
  5
41B
330
1F
100
AcDbEntity
  8
LAY-10
  6
CONTINUOUS
 62
     7
100
AcDbLine
 10
698.0000000000001
 20
642.50000000001
 30
0.0
 11
728.0
 21
648.0000000000075
 31
0.0
  0
LINE
  5
41C
330
1F
100
AcDbEntity
  8
LAY-10
  6
CONTINUOUS
 62
     7
100
AcDbLine
 10
728.0131203606992
 20
642.9190720661359
 30
0.0
 11
704.8196721311476
 21
638.66693989072
 31
0.0
  0
ARC
  5
41D
330
1F
100
AcDbEntity
  8
LAY-10
  6
CONTINUOUS
 62
     7
100
AcDbCircle
 10
705.0
 20
637.6833333333428
 30
0.0
 40
1.0
100
AcDbArc
 50
100.388857815464
 51
180.0
  0
ARC
  5
41E
330
1F
100
AcDbEntity
  8
LAY-10
  6
CONTINUOUS
 62
     7
100
AcDbCircle
 10
722.9999999999999
 20
639.9666666666747
 30
0.0
 40
2.0
100
AcDbArc
 50
100.388857815464
 51
180.0
  0
LINE
  5
41F
330
1F
100
AcDbEntity
  8
LAY-10
  6
CONTINUOUS
 62
     7
100
AcDbLine
 10
728.0
 20
631.00000000001
 30
0.0
 11
728.0
 21
648.0000000000075
 31
0.0
  0
LINE
  5
420
330
1F
100
AcDbEntity
  8
LAY-10
  6
CONTINUOUS
 62
     7
100
AcDbLine
 10
728.0
 20
601.00000000001
 30
0.0
 11
728.0
 21
619.00000000001
 31
0.0
  0
LINE
  5
421
330
1F
100
AcDbEntity
  8
LAY-10
  6
CONTINUOUS
 62
     7
100
AcDbLine
 10
728.0
 20
551.00000000001
 30
0.0
 11
728.0
 21
589.00000000001
 31
0.0
  0
LINE
  5
422
330
1F
100
AcDbEntity
  8
LAY-10
  6
CONTINUOUS
 62
     7
100
AcDbLine
 10
720.9999999999999
 20
600.0826283425457
 30
0.0
 11
728.0
 21
601.00000000001
 31
0.0
  0
LINE
  5
423
330
1F
100
AcDbEntity
  8
LAY-10
  6
CONTINUOUS
 62
     7
100
AcDbLine
 10
720.9999999999999
 20
589.9173716574744
 30
0.0
 11
728.0
 21
589.00000000001
 31
0.0
  0
LINE
  5
424
330
1F
100
AcDbEntity
  8
LAY-10
  6
CONTINUOUS
 62
     7
100
AcDbLine
 10
720.9999999999999
 20
630.0826283425457
 30
0.0
 11
728.0
 21
631.00000000001
 31
0.0
  0
LINE
  5
425
330
1F
100
AcDbEntity
  8
LAY-10
  6
CONTINUOUS
 62
     7
100
AcDbLine
 10
720.9999999999999
 20
619.9173716574744
 30
0.0
 11
728.0
 21
619.00000000001
 31
0.0
  0
LINE
  5
426
330
1F
100
AcDbEntity
  8
LAY-10
  6
CONTINUOUS
 62
     7
100
AcDbLine
 10
703.9999999999994
 20
503.0000000000101
 30
0.0
 11
697.9999999999995
 21
502.5000000000101
 31
0.0
  0
LINE
  5
427
330
1F
100
AcDbEntity
  8
LAY-10
  6
CONTINUOUS
 62
     7
100
AcDbLine
 10
697.9999999999995
 20
497.5000000000101
 30
0.0
 11
727.9999999999994
 21
492.0000000000124
 31
0.0
  0
LINE
  5
428
330
1F
100
AcDbEntity
  8
LAY-10
  6
CONTINUOUS
 62
     7
100
AcDbLine
 10
728.0131203606986
 20
497.080927933884
 30
0.0
 11
704.8196721311471
 21
501.3330601093002
 31
0.0
  0
ARC
  5
429
330
1F
100
AcDbEntity
  8
LAY-10
  6
CONTINUOUS
 62
     7
100
AcDbCircle
 10
704.9999999999994
 20
502.3166666666773
 30
0.0
 40
1.0
100
AcDbArc
 50
180.0
 51
259.611142184536
  0
ARC
  5
42A
330
1F
100
AcDbEntity
  8
LAY-10
  6
CONTINUOUS
 62
     7
100
AcDbCircle
 10
722.9999999999993
 20
500.0333333333454
 30
0.0
 40
2.0
100
AcDbArc
 50
180.0
 51
259.6111421845356
  0
LINE
  5
42B
330
1F
100
AcDbEntity
  8
LAY-10
  6
CONTINUOUS
 62
     7
100
AcDbLine
 10
727.9999999999995
 20
509.0000000000098
 30
0.0
 11
727.9999999999994
 21
492.0000000000124
 31
0.0
  0
LINE
  5
42C
330
1F
100
AcDbEntity
  8
LAY-10
  6
CONTINUOUS
 62
     7
100
AcDbLine
 10
727.9999999999998
 20
539.0000000000099
 30
0.0
 11
727.9999999999997
 21
521.0000000000099
 31
0.0
  0
LINE
  5
42D
330
1F
100
AcDbEntity
  8
LAY-10
  6
CONTINUOUS
 62
     7
100
AcDbLine
 10
720.9999999999997
 20
539.9173716574743
 30
0.0
 11
727.9999999999998
 21
539.0000000000099
 31
0.0
  0
LINE
  5
42E
330
1F
100
AcDbEntity
  8
LAY-10
  6
CONTINUOUS
 62
     7
100
AcDbLine
 10
720.9999999999998
 20
550.0826283425456
 30
0.0
 11
727.9999999999998
 21
551.0000000000099
 31
0.0
  0
LINE
  5
42F
330
1F
100
AcDbEntity
  8
LAY-10
  6
CONTINUOUS
 62
     7
100
AcDbLine
 10
720.9999999999994
 20
509.9173716574742
 30
0.0
 11
727.9999999999995
 21
509.0000000000098
 31
0.0
  0
LINE
  5
430
330
1F
100
AcDbEntity
  8
LAY-10
  6
CONTINUOUS
 62
     7
100
AcDbLine
 10
720.9999999999995
 20
520.0826283425456
 30
0.0
 11
727.9999999999997
 21
521.0000000000099
 31
0.0
  0
LINE
  5
431
330
1F
100
AcDbEntity
  8
LAY-10
  6
CONTINUOUS
 62
     7
100
AcDbLine
 10
720.9999999999999
 20
639.9666666666748
 30
0.0
 11
720.9999999999999
 21
500.03333333335
 31
0.0
  0
LINE
  5
432
330
1F
100
AcDbEntity
  8
LAY-10
  6
CONTINUOUS
 62
     7
100
AcDbLine
 10
720.81522625014
 20
475.5000000000099
 30
0.0
 11
720.81522625014
 21
493.3172085208193
 31
0.0
  0
LINE
  5
433
330
1F
100
AcDbEntity
  8
LAY-10
  6
CONTINUOUS
 62
     7
100
AcDbLine
 10
722.78022625014
 20
485.0000000000096
 30
0.0
 11
722.78022625014
 21
492.9569585208195
 31
0.0
  0
LINE
  5
434
330
1F
100
AcDbEntity
  8
LAY-10
  6
CONTINUOUS
 62
     7
100
AcDbLine
 10
726.34362909969
 20
487.8688776754999
 30
0.0
 11
726.34362909969
 21
492.3036679984023
 31
0.0
  0
LINE
  5
435
330
1F
100
AcDbEntity
  8
LAY-10
  6
CONTINUOUS
 62
     7
100
AcDbLine
 10
717.9999999999999
 20
493.8333333333449
 30
0.0
 11
718.0
 21
471.0000000000097
 31
0.0
  0
LINE
  5
436
330
1F
100
AcDbEntity
  8
LAY-10
  6
CONTINUOUS
 62
     7
100
AcDbLine
 10
726.34362909969
 20
652.1311223245198
 30
0.0
 11
726.34362909969
 21
647.6963320016175
 31
0.0
  0
LINE
  5
437
330
1F
100
AcDbEntity
  8
LAY-10
  6
CONTINUOUS
 62
     7
100
AcDbLine
 10
722.78022625014
 20
655.00000000001
 30
0.0
 11
722.78022625014
 21
647.0430414792003
 31
0.0
  0
LINE
  5
438
330
1F
100
AcDbEntity
  8
LAY-10
  6
CONTINUOUS
 62
     7
100
AcDbLine
 10
720.81522625014
 20
646.6827914792004
 30
0.0
 11
720.81522625014
 21
664.5000000000008
 31
0.0
  0
LINE
  5
439
330
1F
100
AcDbEntity
  8
LAY-10
  6
CONTINUOUS
 62
     7
100
AcDbLine
 10
718.0
 20
669.0000000000099
 30
0.0
 11
718.0
 21
646.166666666675
 31
0.0
  0
LINE
  5
43A
330
1F
100
AcDbEntity
  8
LAY-10
  6
CONTINUOUS
 62
     7
100
AcDbLine
 10
663.5
 20
506.50000000001
 30
0.0
 11
698.5
 21
504.5000000000099
 31
0.0
  0
LINE
  5
43B
330
1F
100
AcDbEntity
  8
LAY-10
  6
CONTINUOUS
 62
     7
100
AcDbLine
 10
663.5
 20
506.50000000001
 30
0.0
 11
663.5
 21
633.50000000001
 31
0.0
  0
LINE
  5
43C
330
1F
100
AcDbEntity
  8
LAY-10
  6
CONTINUOUS
 62
     7
100
AcDbLine
 10
718.5
 20
505.50000000001
 30
0.0
 11
718.5
 21
634.50000000001
 31
0.0
  0
LINE
  5
43D
330
1F
100
AcDbEntity
  8
LAY-10
  6
CONTINUOUS
 62
     7
100
AcDbLine
 10
718.5
 20
505.50000000001
 30
0.0
 11
704.0
 21
505.00000000001
 31
0.0
  0
LINE
  5
43E
330
1F
100
AcDbEntity
  8
LAY-10
  6
CONTINUOUS
 62
     7
100
AcDbLine
 10
698.5
 20
504.5000000000099
 30
0.0
 11
704.0
 21
504.00000000001
 31
0.0
  0
LINE
  5
43F
330
1F
100
AcDbEntity
  8
LAY-10
  6
CONTINUOUS
 62
     7
100
AcDbLine
 10
704.0
 20
504.00000000001
 30
0.0
 11
704.0
 21
505.10000000001
 31
0.0
  0
CIRCLE
  5
440
330
1F
100
AcDbEntity
  8
LAY-10
  6
CONTINUOUS
 62
     7
100
AcDbCircle
 10
673.5
 20
570.00000000001
 30
0.0
 40
3.000000000000002
  0
LINE
  5
441
330
1F
100
AcDbEntity
  8
LAY-10
  6
CONTINUOUS
 62
     7
100
AcDbLine
 10
663.5
 20
633.50000000001
 30
0.0
 11
698.5
 21
635.50000000001
 31
0.0
  0
LINE
  5
442
330
1F
100
AcDbEntity
  8
LAY-10
  6
CONTINUOUS
 62
     7
100
AcDbLine
 10
718.5
 20
634.50000000001
 30
0.0
 11
704.0
 21
635.00000000001
 31
0.0
  0
LINE
  5
443
330
1F
100
AcDbEntity
  8
LAY-10
  6
CONTINUOUS
 62
     7
100
AcDbLine
 10
698.5
 20
635.50000000001
 30
0.0
 11
704.0
 21
636.00000000001
 31
0.0
  0
LINE
  5
444
330
1F
100
AcDbEntity
  8
LAY-10
  6
CONTINUOUS
 62
     7
100
AcDbLine
 10
704.0
 20
636.00000000001
 30
0.0
 11
704.0
 21
634.90000000001
 31
0.0
  0
LINE
  5
445
330
1F
100
AcDbEntity
  8
LAY-10
  6
CONTINUOUS
 62
     7
100
AcDbLine
 10
698.0
 20
504.5285714285813
 30
0.0
 11
698.0
 21
497.50000000001
 31
0.0
  0
LINE
  5
446
330
1F
100
AcDbEntity
  8
LAY-10
  6
CONTINUOUS
 62
     7
100
AcDbLine
 10
704.0
 20
505.00000000001
 30
0.0
 11
704.0
 21
502.31666666668
 31
0.0
  0
LINE
  5
447
330
1F
100
AcDbEntity
  8
LAY-10
  6
CONTINUOUS
 62
     7
100
AcDbLine
 10
698.0000000000001
 20
642.50000000001
 30
0.0
 11
698.0000000000001
 21
635.4714285714385
 31
0.0
  0
LINE
  5
448
330
1F
100
AcDbEntity
  8
LAY-10
  6
CONTINUOUS
 62
     7
100
AcDbLine
 10
704.0
 20
637.683333333343
 30
0.0
 11
704.0
 21
635.00000000001
 31
0.0
  0
LINE
  5
449
330
1F
100
AcDbEntity
  8
LAY-10
  6
CONTINUOUS
 62
     7
100
AcDbLine
 10
748.0000000000001
 20
500.0000000000102
 30
0.0
 11
798.0
 21
500.0000000000099
 31
0.0
  0
LINE
  5
44A
330
1F
100
AcDbEntity
  8
LAY-10
  6
CONTINUOUS
 62
     7
100
AcDbLine
 10
748.0000000000001
 20
504.5000000000099
 30
0.0
 11
798.0
 21
504.5000000000098
 31
0.0
  0
LINE
  5
44B
330
1F
100
AcDbEntity
  8
LAY-10
  6
CONTINUOUS
 62
     7
100
AcDbLine
 10
798.0
 20
500.0000000000099
 30
0.0
 11
798.0000000000002
 21
640.0000000000101
 31
0.0
  0
LINE
  5
44C
330
1F
100
AcDbEntity
  8
LAY-10
  6
CONTINUOUS
 62
     7
100
AcDbLine
 10
748.0000000000002
 20
635.5000000000101
 30
0.0
 11
798.0000000000002
 21
635.5000000000102
 31
0.0
  0
LINE
  5
44D
330
1F
100
AcDbEntity
  8
LAY-10
  6
CONTINUOUS
 62
     7
100
AcDbLine
 10
748.0000000000002
 20
640.0000000000101
 30
0.0
 11
798.0000000000002
 21
640.0000000000101
 31
0.0
  0
LINE
  5
44E
330
1F
100
AcDbEntity
  8
LAY-10
  6
CONTINUOUS
 62
     7
100
AcDbLine
 10
663.5
 20
629.00000000001
 30
0.0
 11
677.2500000000006
 21
629.00000000001
 31
0.0
  0
LINE
  5
44F
330
1F
100
AcDbEntity
  8
LAY-10
  6
CONTINUOUS
 62
     7
100
AcDbLine
 10
718.5
 20
630.50000000001
 30
0.0
 11
677.2500000000015
 21
629.00000000001
 31
0.0
  0
LINE
  5
450
330
1F
100
AcDbEntity
  8
LAY-10
  6
CONTINUOUS
 62
     7
100
AcDbLine
 10
663.5
 20
511.0000000000101
 30
0.0
 11
677.2500000000006
 21
511.0000000000101
 31
0.0
  0
LINE
  5
451
330
1F
100
AcDbEntity
  8
LAY-10
  6
CONTINUOUS
 62
     7
100
AcDbLine
 10
718.5
 20
509.5000000000099
 30
0.0
 11
677.249999999997
 21
511.0000000000101
 31
0.0
  0
LINE
  5
452
330
1F
100
AcDbEntity
  8
LAY-10
  6
CONTINUOUS
 62
     7
100
AcDbLine
 10
722.7802262501463
 20
509.6840674995086
 30
0.0
 11
722.7802262501463
 21
520.315932500511
 31
0.0
  0
LINE
  5
453
330
1F
100
AcDbEntity
  8
LAY-10
  6
CONTINUOUS
 62
     7
100
AcDbLine
 10
726.3436290996768
 20
509.217072531181
 30
0.0
 11
726.3436290996768
 21
520.7829274688378
 31
0.0
  0
LINE
  5
454
330
1F
100
AcDbEntity
  8
LAY-10
  6
CONTINUOUS
 62
     7
100
AcDbLine
 10
722.7802262501389
 20
539.6840674995091
 30
0.0
 11
722.7802262501389
 21
550.3159325005101
 31
0.0
  0
LINE
  5
455
330
1F
100
AcDbEntity
  8
LAY-10
  6
CONTINUOUS
 62
     7
100
AcDbLine
 10
726.3436290996768
 20
539.2170725311825
 30
0.0
 11
726.3436290996768
 21
550.7829274688378
 31
0.0
  0
LINE
  5
456
330
1F
100
AcDbEntity
  8
LAY-10
  6
CONTINUOUS
 62
     7
100
AcDbLine
 10
722.7802262501463
 20
630.3159325005114
 30
0.0
 11
722.7802262501463
 21
619.684067499509
 31
0.0
  0
LINE
  5
457
330
1F
100
AcDbEntity
  8
LAY-10
  6
CONTINUOUS
 62
     7
100
AcDbLine
 10
726.3436290996768
 20
630.782927468839
 30
0.0
 11
726.3436290996768
 21
619.2170725311822
 31
0.0
  0
LINE
  5
458
330
1F
100
AcDbEntity
  8
LAY-10
  6
CONTINUOUS
 62
     7
100
AcDbLine
 10
722.7802262501389
 20
600.3159325005109
 30
0.0
 11
722.7802262501389
 21
589.6840674995099
 31
0.0
  0
LINE
  5
459
330
1F
100
AcDbEntity
  8
LAY-10
  6
CONTINUOUS
 62
     7
100
AcDbLine
 10
726.3436290996768
 20
600.7829274688376
 30
0.0
 11
726.3436290996768
 21
589.2170725311822
 31
0.0
  0
LINE
  5
45A
330
1F
100
AcDbEntity
  8
LAY-10
  6
CENTER
 62
     2
100
AcDbLine
 10
484.0000000000011
 20
312.8999999999905
 30
0.0
 11
484.0000000000011
 21
293.0999999999906
 31
0.0
  0
LINE
  5
45B
330
1F
100
AcDbEntity
  8
LAY-10
  6
CENTER
 62
     2
100
AcDbLine
 10
175.9999999999991
 20
293.3199999999895
 30
0.0
 11
175.9999999999991
 21
311.7999999999895
 31
0.0
  0
LINE
  5
45C
330
1F
100
AcDbEntity
  8
LAY-10
  6
CENTER
 62
     2
100
AcDbLine
 10
153.0000000000002
 20
291.4184662335094
 30
0.0
 11
153.0000000000003
 21
268.6999999999895
 31
0.0
  0
LINE
  5
45D
330
1F
100
AcDbEntity
  8
LAY-10
  6
CENTER
 62
     2
100
AcDbLine
 10
507.0000000000002
 20
291.4884662335106
 30
0.0
 11
507.0000000000002
 21
268.4884662335106
 31
0.0
  0
LINE
  5
45E
330
1F
100
AcDbEntity
  8
LAY-10
  6
CENTER
 62
     2
100
AcDbLine
 10
330.0
 20
347.46670619719
 30
0.0
 11
330.0000000000002
 21
212.59999999999
 31
0.0
  0
LINE
  5
45F
330
1F
100
AcDbEntity
  8
LAY-10
  6
CENTER
 62
     2
100
AcDbLine
 10
531.2000000000087
 20
235.9999999999894
 30
0.0
 11
520.0000000000098
 21
235.9999999999894
 31
0.0
  0
ARC
  5
460
330
1F
100
AcDbEntity
  8
LAY-10
  6
CENTER
 62
     2
100
AcDbCircle
 10
520.0000000000098
 20
240.4999999999894
 30
0.0
 40
4.5
100
AcDbArc
 50
180.0
 51
270.0000000000002
  0
LINE
  5
461
330
1F
100
AcDbEntity
  8
LAY-10
  6
CENTER
 62
     2
100
AcDbLine
 10
515.50000000001
 20
266.7013587594737
 30
0.0
 11
515.50000000001
 21
240.4999999999894
 31
0.0
  0
LINE
  5
462
330
1F
100
AcDbEntity
  8
LAY-10
  6
CENTER
 62
     2
100
AcDbLine
 10
128.7999999999917
 20
235.9999999999887
 30
0.0
 11
139.9999999999906
 21
235.9999999999888
 31
0.0
  0
ARC
  5
463
330
1F
100
AcDbEntity
  8
LAY-10
  6
CENTER
 62
     2
100
AcDbCircle
 10
139.9999999999906
 20
240.4999999999888
 30
0.0
 40
4.5
100
AcDbArc
 50
270.0000000000005
 51
0.0
  0
LINE
  5
464
330
1F
100
AcDbEntity
  8
LAY-10
  6
CENTER
 62
     2
100
AcDbLine
 10
144.4999999999903
 20
266.7013587594731
 30
0.0
 11
144.4999999999903
 21
240.4999999999888
 31
0.0
  0
LINE
  5
465
330
1F
100
AcDbEntity
  8
LAY-10
  6
CENTER
 62
     2
100
AcDbLine
 10
330.0000000000001
 20
465.00000000001
 30
0.0
 11
330.0000000000001
 21
673.00000000001
 31
0.0
  0
LINE
  5
466
330
1F
100
AcDbEntity
  8
LAY-10
  6
CENTER
 62
     2
100
AcDbLine
 10
523.3000000000003
 20
570.00000000001
 30
0.0
 11
129.9351478664001
 21
570.00000000001
 31
0.0
  0
LINE
  5
467
330
1F
100
AcDbEntity
  8
LAY-10
  6
CENTER
 62
     2
100
AcDbLine
 10
153.0000000000001
 20
564.60000000001
 30
0.0
 11
153.0000000000001
 21
575.10000000001
 31
0.0
  0
LINE
  5
468
330
1F
100
AcDbEntity
  8
LAY-10
  6
CENTER
 62
     2
100
AcDbLine
 10
484.0000000000001
 20
562.00000000001
 30
0.0
 11
484.0000000000001
 21
580.70000000001
 31
0.0
  0
LINE
  5
469
330
1F
100
AcDbEntity
  8
LAY-10
  6
CENTER
 62
     2
100
AcDbLine
 10
507.0000000000001
 20
574.90000000001
 30
0.0
 11
507.0000000000002
 21
564.60000000001
 31
0.0
  0
LINE
  5
46A
330
1F
100
AcDbEntity
  8
LAY-10
  6
CENTER
 62
     2
100
AcDbLine
 10
176.0000000000001
 20
578.0000000000101
 30
0.0
 11
176.0000000000001
 21
559.3000000000101
 31
0.0
  0
LINE
  5
46B
330
1F
100
AcDbEntity
  8
LAY-10
  6
CENTER
 62
     2
100
AcDbLine
 10
364.239255762582
 20
510.6958694058607
 30
0.0
 11
358.1859236629031
 21
521.1805481575925
 31
0.0
  0
LINE
  5
46C
330
1F
100
AcDbEntity
  8
LAY-10
  6
CENTER
 62
     2
100
AcDbLine
 10
364.239255762582
 20
629.3041305941592
 30
0.0
 11
358.1859236629031
 21
618.8194518424275
 31
0.0
  0
LINE
  5
46D
330
1F
100
AcDbEntity
  8
LAY-10
  6
CENTER
 62
     2
100
AcDbLine
 10
275.1000000000022
 20
334.9999999999898
 30
0.0
 11
255.1000000000024
 21
334.9999999999897
 31
0.0
  0
LINE
  5
46E
330
1F
100
AcDbEntity
  8
LAY-10
  6
CENTER
 62
     2
100
AcDbLine
 10
673.4999999999999
 20
575.0000000000101
 30
0.0
 11
673.4999999999999
 21
565.00000000001
 31
0.0
  0
LINE
  5
46F
330
1F
100
AcDbEntity
  8
LAY-10
  6
CENTER
 62
     2
100
AcDbLine
 10
658.5
 20
570.00000000001
 30
0.0
 11
802.9999999999999
 21
570.00000000001
 31
0.0
  0
CIRCLE
  5
470
330
1F
100
AcDbEntity
  8
LAY-10
  6
CONTINUOUS
 62
     7
100
AcDbCircle
 10
673.5
 20
570.00000000001
 30
0.0
 40
2.500000000000002
  0
LINE
  5
471
330
1F
100
AcDbEntity
  8
LAY-10
  6
CONTINUOUS
 62
     7
100
AcDbLine
 10
481.4999999999304
 20
306.5999999999908
 30
0.0
 11
481.4999999999304
 21
294.5999999999909
 31
0.0
  0
LINE
  5
472
330
1F
100
AcDbEntity
  8
LAY-10
  6
CONTINUOUS
 62
     7
100
AcDbLine
 10
486.4999999999301
 20
306.5999999999908
 30
0.0
 11
486.4999999999303
 21
294.5999999999909
 31
0.0
  0
LINE
  5
473
330
1F
100
AcDbEntity
  8
LAY-10
  6
CONTINUOUS
 62
     7
100
AcDbLine
 10
173.4999999999294
 20
306.5999999999898
 30
0.0
 11
173.4999999999295
 21
294.5999999999899
 31
0.0
  0
LINE
  5
474
330
1F
100
AcDbEntity
  8
LAY-10
  6
CONTINUOUS
 62
     7
100
AcDbLine
 10
178.4999999999292
 20
306.5999999999898
 30
0.0
 11
178.4999999999292
 21
294.5999999999899
 31
0.0
  0
LINE
  5
475
330
1F
100
AcDbEntity
  8
LAY-10
  6
CONTINUOUS
 62
     7
100
AcDbLine
 10
155.5000000000305
 20
272.4999999999891
 30
0.0
 11
156.0000000000303
 21
272.9999999999891
 31
0.0
  0
LINE
  5
476
330
1F
100
AcDbEntity
  8
LAY-10
  6
CONTINUOUS
 62
     7
100
AcDbLine
 10
150.5000000000305
 20
272.4999999999891
 30
0.0
 11
150.0000000000303
 21
272.9999999999891
 31
0.0
  0
LINE
  5
477
330
1F
100
AcDbEntity
  8
LAY-10
  6
CONTINUOUS
 62
     7
100
AcDbLine
 10
150.5000000000304
 20
286.4999999999891
 30
0.0
 11
150.5000000000305
 21
274.4999999999888
 31
0.0
  0
LINE
  5
478
330
1F
100
AcDbEntity
  8
LAY-10
  6
CONTINUOUS
 62
     7
100
AcDbLine
 10
155.5000000000302
 20
286.4999999999891
 30
0.0
 11
155.5000000000302
 21
274.4999999999891
 31
0.0
  0
LINE
  5
479
330
1F
100
AcDbEntity
  8
LAY-10
  6
CONTINUOUS
 62
     7
100
AcDbLine
 10
156.0000000000302
 20
274.9999999999894
 30
0.0
 11
156.0000000000303
 21
272.9999999999894
 31
0.0
  0
LINE
  5
47A
330
1F
100
AcDbEntity
  8
LAY-10
  6
CONTINUOUS
 62
     7
100
AcDbLine
 10
150.0000000000302
 20
274.9999999999894
 30
0.0
 11
150.0000000000303
 21
272.9999999999894
 31
0.0
  0
LINE
  5
47B
330
1F
100
AcDbEntity
  8
LAY-10
  6
CONTINUOUS
 62
     7
100
AcDbLine
 10
509.5000000000305
 20
272.4999999999903
 30
0.0
 11
510.0000000000302
 21
272.9999999999903
 31
0.0
  0
LINE
  5
47C
330
1F
100
AcDbEntity
  8
LAY-10
  6
CONTINUOUS
 62
     7
100
AcDbLine
 10
504.5000000000304
 20
272.4999999999903
 30
0.0
 11
504.0000000000302
 21
272.9999999999903
 31
0.0
  0
LINE
  5
47D
330
1F
100
AcDbEntity
  8
LAY-10
  6
CONTINUOUS
 62
     7
100
AcDbLine
 10
504.5000000000304
 20
286.4999999999903
 30
0.0
 11
504.5000000000304
 21
274.49999999999
 31
0.0
  0
LINE
  5
47E
330
1F
100
AcDbEntity
  8
LAY-10
  6
CONTINUOUS
 62
     7
100
AcDbLine
 10
509.5000000000302
 20
286.4999999999903
 30
0.0
 11
509.5000000000302
 21
274.4999999999903
 31
0.0
  0
LINE
  5
47F
330
1F
100
AcDbEntity
  8
LAY-10
  6
CONTINUOUS
 62
     7
100
AcDbLine
 10
510.0000000000302
 20
274.9999999999906
 30
0.0
 11
510.0000000000302
 21
272.9999999999906
 31
0.0
  0
LINE
  5
480
330
1F
100
AcDbEntity
  8
LAY-10
  6
CONTINUOUS
 62
     7
100
AcDbLine
 10
504.0000000000302
 20
274.9999999999906
 30
0.0
 11
504.0000000000302
 21
272.9999999999906
 31
0.0
  0
LINE
  5
481
330
1F
100
AcDbEntity
  8
LAY-10
  6
CONTINUOUS
 62
     7
100
AcDbLine
 10
518.5000000000107
 20
262.999999999979
 30
0.0
 11
518.0000000000123
 21
263.4999999999797
 31
0.0
  0
LINE
  5
482
330
1F
100
AcDbEntity
  8
LAY-10
  6
CONTINUOUS
 62
     7
100
AcDbLine
 10
512.5000000000116
 20
262.999999999979
 30
0.0
 11
513.000000000013
 21
263.4999999999797
 31
0.0
  0
LINE
  5
483
330
1F
100
AcDbEntity
  8
LAY-10
  6
CONTINUOUS
 62
     7
100
AcDbLine
 10
518.5000000000107
 20
262.999999999979
 30
0.0
 11
518.5000000000107
 21
260.9999999999899
 31
0.0
  0
LINE
  5
484
330
1F
100
AcDbEntity
  8
LAY-10
  6
CONTINUOUS
 62
     7
100
AcDbLine
 10
512.5000000000116
 20
262.999999999979
 30
0.0
 11
512.5000000000116
 21
260.9999999999899
 31
0.0
  0
LINE
  5
485
330
1F
100
AcDbEntity
  8
LAY-10
  6
CONTINUOUS
 62
     7
100
AcDbLine
 10
518.0000000000098
 20
261.4999999999839
 30
0.0
 11
518.0000000000098
 21
255.4999999999839
 31
0.0
  0
LINE
  5
486
330
1F
100
AcDbEntity
  8
LAY-10
  6
CONTINUOUS
 62
     7
100
AcDbLine
 10
513.0000000000098
 20
261.4999999999839
 30
0.0
 11
513.0000000000098
 21
255.4999999999839
 31
0.0
  0
LINE
  5
487
330
1F
100
AcDbEntity
  8
LAY-10
  6
CONTINUOUS
 62
     7
100
AcDbLine
 10
512.9999999999916
 20
254.6339745961889
 30
0.0
 11
512.4999999999916
 21
255.4999999999734
 31
0.0
  0
LINE
  5
488
330
1F
100
AcDbEntity
  8
LAY-10
  6
CONTINUOUS
 62
     7
100
AcDbLine
 10
518.0000000000218
 20
254.6339745961924
 30
0.0
 11
518.5000000000218
 21
255.4999999999769
 31
0.0
  0
LINE
  5
489
330
1F
100
AcDbEntity
  8
LAY-10
  6
CONTINUOUS
 62
     7
100
AcDbLine
 10
141.4999999999896
 20
262.9999999999783
 30
0.0
 11
141.999999999988
 21
263.499999999979
 31
0.0
  0
LINE
  5
48A
330
1F
100
AcDbEntity
  8
LAY-10
  6
CONTINUOUS
 62
     7
100
AcDbLine
 10
147.4999999999887
 20
262.9999999999784
 30
0.0
 11
146.9999999999873
 21
263.499999999979
 31
0.0
  0
LINE
  5
48B
330
1F
100
AcDbEntity
  8
LAY-10
  6
CONTINUOUS
 62
     7
100
AcDbLine
 10
141.4999999999896
 20
262.9999999999783
 30
0.0
 11
141.4999999999896
 21
260.9999999999893
 31
0.0
  0
LINE
  5
48C
330
1F
100
AcDbEntity
  8
LAY-10
  6
CONTINUOUS
 62
     7
100
AcDbLine
 10
147.4999999999887
 20
262.9999999999784
 30
0.0
 11
147.4999999999887
 21
260.9999999999893
 31
0.0
  0
LINE
  5
48D
330
1F
100
AcDbEntity
  8
LAY-10
  6
CONTINUOUS
 62
     7
100
AcDbLine
 10
141.9999999999905
 20
261.4999999999832
 30
0.0
 11
141.9999999999905
 21
255.4999999999832
 31
0.0
  0
LINE
  5
48E
330
1F
100
AcDbEntity
  8
LAY-10
  6
CONTINUOUS
 62
     7
100
AcDbLine
 10
146.9999999999905
 20
261.4999999999832
 30
0.0
 11
146.9999999999905
 21
255.4999999999832
 31
0.0
  0
LINE
  5
48F
330
1F
100
AcDbEntity
  8
LAY-10
  6
CONTINUOUS
 62
     7
100
AcDbLine
 10
147.0000000000087
 20
254.6339745961882
 30
0.0
 11
147.5000000000087
 21
255.4999999999728
 31
0.0
  0
LINE
  5
490
330
1F
100
AcDbEntity
  8
LAY-10
  6
CONTINUOUS
 62
     7
100
AcDbLine
 10
141.9999999999785
 20
254.6339745961918
 30
0.0
 11
141.4999999999785
 21
255.4999999999763
 31
0.0
  0
LINE
  5
491
330
1F
100
AcDbEntity
  8
LAY-10
  6
CONTINUOUS
 62
     7
100
AcDbLine
 10
261.000000000002
 20
337.4999999999903
 30
0.0
 11
273.0000000000021
 21
337.4999999999904
 31
0.0
  0
LINE
  5
492
330
1F
100
AcDbEntity
  8
LAY-10
  6
CONTINUOUS
 62
     7
100
AcDbLine
 10
261.0000000000021
 20
332.4999999999905
 30
0.0
 11
273.0000000000021
 21
332.4999999999905
 31
0.0
  0
DIMENSION
  5
493
330
1F
100
AcDbEntity
  8
LAY-20
  6
CONTINUOUS
 62
     4
100
AcDbDimension
  2
*D16
 10
522.5000000000001
 20
416.9999999999899
 30
0.0
 11
330.0000000000002
 21
424.4999999999899
 31
0.0
 70
   160
  3
ISO-25
100
AcDbAlignedDimension
 13
137.5000000000001
 23
283.4999999999899
 33
0.0
 14
522.5000000000001
 24
283.4999999999899
 34
0.0
100
AcDbRotatedDimension
1001
ACAD
1000
DSTYLE
1002
{
1070
   270
1070
     2
1070
     6
1000
EX_BNORM
1070
     7
1000
EX_BNORM
1070
    41
1040
7.5
1070
    42
1040
4.5
1070
    44
1040
4.5
1070
    73
1070
     0
1070
    74
1070
     0
1070
    75
1070
     0
1070
    76
1070
     0
1070
    77
1070
     1
1070
    78
1070
     8
1070
   140
1040
9.3543312
1070
   147
1040
0.0
1070
   173
1070
     1
1070
   176
1070
     4
1070
   177
1070
     4
1070
   178
1070
     7
1070
   271
1070
     1
1070
   277
1070
     2
1070
   279
1070
     2
1070
   280
1070
     0
1070
   287
1070
     5
1070
   340
1005
20E
1002
}
  0
DIMENSION
  5
4A0
330
1F
100
AcDbEntity
  8
LAY-20
  6
CONTINUOUS
 62
     4
100
AcDbDimension
  2
*D17
 10
497.0000000000001
 20
395.9999999999899
 30
0.0
 11
330.0000000000002
 21
403.4999999999899
 31
0.0
 70
   160
  3
ISO-25
100
AcDbAlignedDimension
 13
163.0000000000001
 23
310.4999999999899
 33
0.0
 14
497.0000000000001
 24
310.4999999999899
 34
0.0
100
AcDbRotatedDimension
1001
ACAD
1000
DSTYLE
1002
{
1070
   270
1070
     2
1070
     6
1000
EX_BNORM
1070
     7
1000
EX_BNORM
1070
    41
1040
7.5
1070
    42
1040
4.5
1070
    44
1040
4.5
1070
    73
1070
     0
1070
    74
1070
     0
1070
    75
1070
     0
1070
    76
1070
     0
1070
    77
1070
     1
1070
    78
1070
     8
1070
   140
1040
9.3543312
1070
   147
1040
0.0
1070
   173
1070
     1
1070
   176
1070
     4
1070
   177
1070
     4
1070
   178
1070
     7
1070
   271
1070
     1
1070
   277
1070
     2
1070
   279
1070
     2
1070
   280
1070
     0
1070
   287
1070
     5
1070
   340
1005
20E
1002
}
  0
DIMENSION
  5
4AD
330
1F
100
AcDbEntity
  8
LAY-20
  6
CONTINUOUS
 62
     4
100
AcDbDimension
  2
*D18
 10
280.0000000000001
 20
159.4999999999899
 30
0.0
 11
330.0000000000001
 21
166.9999999999899
 31
0.0
 70
   160
  1
%%c<>
  3
ISO-25
100
AcDbAlignedDimension
 13
380.0000000000001
 23
255.49999999999
 33
0.0
 14
280.0000000000001
 24
255.49999999999
 34
0.0
100
AcDbRotatedDimension
1001
ACAD
1000
DSTYLE
1002
{
1070
   270
1070
     2
1070
     6
1000
EX_BNORM
1070
     7
1000
EX_BNORM
1070
    41
1040
7.5
1070
    42
1040
4.5
1070
    44
1040
4.5
1070
    73
1070
     0
1070
    74
1070
     0
1070
    75
1070
     0
1070
    76
1070
     0
1070
    77
1070
     1
1070
    78
1070
     8
1070
   140
1040
9.3543312
1070
   147
1040
0.0
1070
   173
1070
     1
1070
   176
1070
     4
1070
   177
1070
     4
1070
   178
1070
     7
1070
   271
1070
     1
1070
   277
1070
     2
1070
   279
1070
     2
1070
   280
1070
     0
1070
   287
1070
     5
1070
   340
1005
20E
1002
}
  0
DIMENSION
  5
4BA
330
1F
100
AcDbEntity
  8
LAY-20
  6
CONTINUOUS
 62
     4
100
AcDbDimension
  2
*D19
 10
284.0116768893901
 20
180.4999999999899
 30
0.0
 11
329.9999999999999
 21
187.9999999999899
 31
0.0
 70
   160
  1
%%c<>
  3
ISO-25
100
AcDbAlignedDimension
 13
375.9883231106098
 23
215.4999999999898
 33
0.0
 14
284.0116768893901
 24
215.4999999999898
 34
0.0
100
AcDbRotatedDimension
1001
ACAD
1000
DSTYLE
1002
{
1070
   270
1070
     2
1070
     6
1000
EX_BNORM
1070
     7
1000
EX_BNORM
1070
    41
1040
7.5
1070
    42
1040
4.5
1070
    44
1040
4.5
1070
    73
1070
     0
1070
    74
1070
     0
1070
    75
1070
     0
1070
    76
1070
     0
1070
    77
1070
     1
1070
    78
1070
     8
1070
   140
1040
9.3543312
1070
   147
1040
0.0
1070
   173
1070
     1
1070
   176
1070
     4
1070
   177
1070
     4
1070
   178
1070
     7
1070
   271
1070
     1
1070
   277
1070
     2
1070
   279
1070
     2
1070
   280
1070
     0
1070
   287
1070
     5
1070
   340
1005
20E
1002
}
  0
DIMENSION
  5
4C7
330
1F
100
AcDbEntity
  8
LAY-20
  6
CONTINUOUS
 62
     4
100
AcDbDimension
  2
*D20
 10
552.5
 20
290.49999999999
 30
0.0
 11
545.0
 21
250.49999999999
 31
0.0
 70
   160
  3
ISO-25
100
AcDbAlignedDimension
 13
399.9999999999999
 23
210.49999999999
 33
0.0
 14
521.5
 24
290.49999999999
 34
0.0
 50
90.0
100
AcDbRotatedDimension
1001
ACAD
1000
DSTYLE
1002
{
1070
   270
1070
     2
1070
     6
1000
EX_BNORM
1070
     7
1000
EX_BNORM
1070
    41
1040
7.5
1070
    42
1040
4.5
1070
    44
1040
4.5
1070
    73
1070
     0
1070
    74
1070
     0
1070
    75
1070
     0
1070
    76
1070
     0
1070
    77
1070
     1
1070
    78
1070
     8
1070
   140
1040
9.3543312
1070
   147
1040
0.0
1070
   173
1070
     1
1070
   176
1070
     4
1070
   177
1070
     4
1070
   178
1070
     7
1070
   271
1070
     1
1070
   277
1070
     2
1070
   279
1070
     2
1070
   280
1070
     0
1070
   287
1070
     5
1070
   340
1005
20E
1002
}
  0
DIMENSION
  5
4D4
330
1F
100
AcDbEntity
  8
LAY-20
  6
CONTINUOUS
 62
     4
100
AcDbDimension
  2
*D21
 10
552.5
 20
290.49999999999
 30
0.0
 11
545.0
 21
300.49999999999
 31
0.0
 70
   160
  3
ISO-25
100
AcDbAlignedDimension
 13
497.0
 23
310.49999999999
 33
0.0
 14
552.5
 24
290.49999999999
 34
0.0
 50
90.0
100
AcDbRotatedDimension
1001
ACAD
1000
DSTYLE
1002
{
1070
   270
1070
     2
1070
     6
1000
EX_BNORM
1070
     7
1000
EX_BNORM
1070
    41
1040
7.5
1070
    42
1040
4.5
1070
    44
1040
4.5
1070
    73
1070
     0
1070
    74
1070
     0
1070
    75
1070
     0
1070
    76
1070
     1
1070
    77
1070
     1
1070
    78
1070
     8
1070
   140
1040
9.3543312
1070
   147
1040
0.0
1070
   173
1070
     1
1070
   176
1070
     4
1070
   177
1070
     4
1070
   178
1070
     7
1070
   271
1070
     1
1070
   277
1070
     2
1070
   279
1070
     2
1070
   280
1070
     0
1070
   287
1070
     5
1070
   340
1005
20E
1002
}
  0
DIMENSION
  5
4E0
330
1F
100
AcDbEntity
  8
LAY-20
  6
CONTINUOUS
 62
     4
100
AcDbDimension
  2
*D22
 10
552.5
 20
310.49999999999
 30
0.0
 11
545.0
 21
327.74999999999
 31
0.0
 70
   160
  3
ISO-25
100
AcDbAlignedDimension
 13
393.5
 23
344.99999999999
 33
0.0
 14
552.5
 24
310.49999999999
 34
0.0
 50
90.0
100
AcDbRotatedDimension
1001
ACAD
1000
DSTYLE
1002
{
1070
   270
1070
     2
1070
     6
1000
EX_BNORM
1070
     7
1000
EX_BNORM
1070
    41
1040
7.5
1070
    42
1040
4.5
1070
    44
1040
4.5
1070
    73
1070
     0
1070
    74
1070
     0
1070
    75
1070
     0
1070
    76
1070
     1
1070
    77
1070
     1
1070
    78
1070
     0
1070
   140
1040
9.3543312
1070
   147
1040
0.0
1070
   173
1070
     1
1070
   176
1070
     4
1070
   177
1070
     4
1070
   178
1070
     7
1070
   271
1070
     0
1070
   277
1070
     2
1070
   279
1070
     2
1070
   280
1070
     0
1070
   287
1070
     5
1070
   340
1005
20E
1002
}
  0
DIMENSION
  5
4EC
330
1F
100
AcDbEntity
  8
LAY-20
  6
CONTINUOUS
 62
     4
100
AcDbDimension
  2
*D23
 10
591.5
 20
670.00000000001
 30
0.0
 11
584.0
 21
570.00000000001
 31
0.0
 70
   160
  3
ISO-25
100
AcDbAlignedDimension
 13
725.0
 23
470.0000000000099
 33
0.0
 14
725.0
 24
670.00000000001
 34
0.0
 50
90.0
100
AcDbRotatedDimension
1001
ACAD
1000
DSTYLE
1002
{
1070
   270
1070
     2
1070
     6
1000
EX_BNORM
1070
     7
1000
EX_BNORM
1070
    41
1040
7.5
1070
    42
1040
4.5
1070
    44
1040
4.5
1070
    73
1070
     0
1070
    74
1070
     0
1070
    75
1070
     0
1070
    76
1070
     0
1070
    77
1070
     1
1070
    78
1070
     8
1070
   140
1040
9.3543312
1070
   147
1040
0.0
1070
   173
1070
     1
1070
   176
1070
     4
1070
   177
1070
     4
1070
   178
1070
     7
1070
   271
1070
     1
1070
   277
1070
     2
1070
   279
1070
     2
1070
   280
1070
     0
1070
   287
1070
     5
1070
   340
1005
20E
1002
}
  0
DIMENSION
  5
4F9
330
1F
100
AcDbEntity
  8
LAY-20
  6
CONTINUOUS
 62
     4
100
AcDbDimension
  2
*D24
 10
612.5000000000001
 20
642.50000000001
 30
0.0
 11
605.0000000000001
 21
570.00000000001
 31
0.0
 70
   160
  3
ISO-25
100
AcDbAlignedDimension
 13
698.0
 23
497.50000000001
 33
0.0
 14
698.0
 24
642.50000000001
 34
0.0
 50
90.0
100
AcDbRotatedDimension
1001
ACAD
1000
DSTYLE
1002
{
1070
   270
1070
     2
1070
     6
1000
EX_BNORM
1070
     7
1000
EX_BNORM
1070
    41
1040
7.5
1070
    42
1040
4.5
1070
    44
1040
4.5
1070
    73
1070
     0
1070
    74
1070
     0
1070
    75
1070
     0
1070
    76
1070
     0
1070
    77
1070
     1
1070
    78
1070
     8
1070
   140
1040
9.3543312
1070
   147
1040
0.0
1070
   173
1070
     1
1070
   176
1070
     4
1070
   177
1070
     4
1070
   178
1070
     7
1070
   271
1070
     1
1070
   277
1070
     2
1070
   279
1070
     2
1070
   280
1070
     0
1070
   287
1070
     5
1070
   340
1005
20E
1002
}
  0
DIMENSION
  5
506
330
1F
100
AcDbEntity
  8
LAY-20
  6
CONTINUOUS
 62
     4
100
AcDbDimension
  2
*D25
 10
633.5
 20
629.00000000001
 30
0.0
 11
626.0
 21
570.00000000001
 31
0.0
 70
   160
  1
%%c118
  3
ISO-25
100
AcDbAlignedDimension
 13
663.5
 23
511.00000000001
 33
0.0
 14
663.5
 24
629.00000000001
 34
0.0
 50
90.0
100
AcDbRotatedDimension
1001
ACAD
1000
DSTYLE
1002
{
1070
   270
1070
     2
1070
     6
1000
EX_BNORM
1070
     7
1000
EX_BNORM
1070
    41
1040
7.5
1070
    42
1040
4.5
1070
    44
1040
4.5
1070
    73
1070
     0
1070
    74
1070
     0
1070
    75
1070
     0
1070
    76
1070
     0
1070
    77
1070
     1
1070
    78
1070
     8
1070
   140
1040
9.3543312
1070
   147
1040
0.0
1070
   173
1070
     1
1070
   176
1070
     4
1070
   177
1070
     4
1070
   178
1070
     7
1070
   271
1070
     1
1070
   277
1070
     2
1070
   279
1070
     2
1070
   280
1070
     0
1070
   287
1070
     5
1070
   340
1005
20E
1002
}
  0
LINE
  5
513
330
1F
100
AcDbEntity
  8
LAY-255
  6
CONTINUOUS
 62
     7
100
AcDbLine
 10
1155.0
 20
66.0
 30
0.0
 11
855.0
 21
66.0
 31
0.0
  0
LINE
  5
514
330
1F
100
AcDbEntity
  8
LAY-255
  6
CONTINUOUS
 62
     7
100
AcDbLine
 10
866.4000000000001
 20
48.0
 30
0.0
 11
890.4000000000001
 21
63.0
 31
0.0
  0
LINE
  5
515
330
1F
100
AcDbEntity
  8
LAY-255
  6
CONTINUOUS
 62
     7
100
AcDbLine
 10
890.4000000000001
 20
63.0
 30
0.0
 11
914.4000000000001
 21
48.0
 31
0.0
  0
LINE
  5
516
330
1F
100
AcDbEntity
  8
LAY-255
  6
CONTINUOUS
 62
     7
100
AcDbLine
 10
914.4000000000001
 20
48.0
 30
0.0
 11
890.4000000000001
 21
33.0
 31
0.0
  0
LINE
  5
517
330
1F
100
AcDbEntity
  8
LAY-255
  6
CONTINUOUS
 62
     7
100
AcDbLine
 10
890.4000000000001
 20
33.0
 30
0.0
 11
866.4000000000001
 21
48.0
 31
0.0
  0
LINE
  5
518
330
1F
100
AcDbEntity
  8
LAY-255
  6
CONTINUOUS
 62
     7
100
AcDbLine
 10
15.0
 20
30.0
 30
0.0
 11
1155.0
 21
30.0
 31
0.0
  0
LINE
  5
519
330
1F
100
AcDbEntity
  8
LAY-255
  6
CONTINUOUS
 62
     7
100
AcDbLine
 10
15.0
 20
840.0
 30
0.0
 11
1155.0
 21
840.0
 31
0.0
  0
LINE
  5
51A
330
1F
100
AcDbEntity
  8
LAY-255
  6
CONTINUOUS
 62
     7
100
AcDbLine
 10
15.0
 20
30.0
 30
0.0
 11
15.0
 21
840.0
 31
0.0
  0
LINE
  5
51B
330
1F
100
AcDbEntity
  8
LAY-255
  6
CONTINUOUS
 62
     7
100
AcDbLine
 10
1155.0
 20
30.0
 30
0.0
 11
1155.0
 21
840.0
 31
0.0
  0
LINE
  5
51C
330
1F
100
AcDbEntity
  8
LAY-255
  6
CONTINUOUS
 62
     4
100
AcDbLine
 10
855.0
 20
84.0
 30
0.0
 11
1155.0
 21
84.0
 31
0.0
  0
LINE
  5
51D
330
1F
100
AcDbEntity
  8
LAY-255
  6
CONTINUOUS
 62
     7
100
AcDbLine
 10
855.0
 20
30.0
 30
0.0
 11
855.0
 21
201.0
 31
0.0
  0
LINE
  5
51E
330
1F
100
AcDbEntity
  8
LAY-255
  6
CONTINUOUS
 62
     4
100
AcDbLine
 10
1005.0
 20
84.0
 30
0.0
 11
1005.0
 21
66.0
 31
0.0
  0
LINE
  5
51F
330
1F
100
AcDbEntity
  8
LAY-255
  6
CONTINUOUS
 62
     7
100
AcDbLine
 10
1155.0
 20
201.0
 30
0.0
 11
855.0
 21
201.0
 31
0.0
  0
LINE
  5
520
330
1F
100
AcDbEntity
  8
LAY-255
  6
CONTINUOUS
 62
     4
100
AcDbLine
 10
1149.0
 20
165.0
 30
0.0
 11
861.0
 21
165.0
 31
0.0
  0
LINE
  5
521
330
1F
100
AcDbEntity
  8
LAY-255
  6
CONTINUOUS
 62
     4
100
AcDbLine
 10
1149.0
 20
183.0
 30
0.0
 11
861.0
 21
183.0
 31
0.0
  0
POINT
  5
522
330
1F
100
AcDbEntity
  8
LAY-255
  6
CONTINUOUS
 62
     7
100
AcDbPoint
 10
867.0
 20
150.0
 30
0.0
  0
POINT
  5
523
330
1F
100
AcDbEntity
  8
LAY-255
  6
CONTINUOUS
 62
     7
100
AcDbPoint
 10
900.0
 20
168.0
 30
0.0
  0
POINT
  5
524
330
1F
100
AcDbEntity
  8
LAY-255
  6
CONTINUOUS
 62
     7
100
AcDbPoint
 10
900.0
 20
186.0
 30
0.0
  0
POINT
  5
525
330
1F
100
AcDbEntity
  8
LAY-255
  6
CONTINUOUS
 62
     7
100
AcDbPoint
 10
867.0
 20
120.0
 30
0.0
  0
POINT
  5
526
330
1F
100
AcDbEntity
  8
LAY-255
  6
CONTINUOUS
 62
     7
100
AcDbPoint
 10
867.0
 20
135.0
 30
0.0
  0
POINT
  5
527
330
1F
100
AcDbEntity
  8
LAY-255
  6
CONTINUOUS
 62
     7
100
AcDbPoint
 10
867.0
 20
105.0
 30
0.0
  0
POINT
  5
528
330
1F
100
AcDbEntity
  8
LAY-255
  6
CONTINUOUS
 62
     7
100
AcDbPoint
 10
867.0
 20
89.99999999999996
 30
0.0
  0
TEXT
  5
529
330
1F
100
AcDbEntity
  8
LAY-255
  6
CONTINUOUS
 62
     7
100
AcDbText
 10
924.415136826172
 20
46.63125
 30
0.0
 40
15.46875
  1
福西鋳物株式会社
 41
1.342692141742901
  7
EXCADSTD
100
AcDbText
  0
TEXT
  5
52A
330
1F
100
AcDbEntity
  8
LAY-255
  6
CONTINUOUS
 62
     7
100
AcDbText
 10
925.528125
 20
35.94375
 30
0.0
 40
5.15625
  1
ＦＵＫＵＮＩＳＨＩ
 41
1.204799226045263
  7
EXCADSTD
100
AcDbText
  0
TEXT
  5
52B
330
1F
100
AcDbEntity
  8
LAY-255
  6
CONTINUOUS
 62
     7
100
AcDbText
 10
998.1575892857143
 20
35.94375
 30
0.0
 40
5.15625
  1
ＦＯＵＮＤＲＹ
 41
1.243252752978497
  7
EXCADSTD
100
AcDbText
  0
TEXT
  5
52C
330
1F
100
AcDbEntity
  8
LAY-255
  6
CONTINUOUS
 62
     7
100
AcDbText
 10
1055.983774651442
 20
35.94375
 30
0.0
 40
5.15625
  1
ＣＯ.,ＬＴＤ.
 41
1.243831271314936
  7
EXCADSTD
100
AcDbText
  0
TEXT
  5
52D
330
1F
100
AcDbEntity
  8
LAY-255
  6
CONTINUOUS
 62
     7
100
AcDbText
 10
882.1031250000001
 20
41.15625
 30
0.0
 40
15.46875
  1
S
 41
0.7582677563636363
  7
EXCADSTD
100
AcDbText
  0
TEXT
  5
52E
330
1F
100
AcDbEntity
  8
LAY-255
  6
CONTINUOUS
 62
     7
100
AcDbText
 10
891.3140625000001
 20
41.24823113208
 30
0.0
 40
15.46875
  1
F
 41
0.7440945272727273
  7
EXCADSTD
100
AcDbText
  0
TEXT
  5
52F
330
1F
100
AcDbEntity
  8
LAY-255
  6
CONTINUOUS
 62
     7
100
AcDbText
 10
1011.31640625
 20
73.26562499999997
 30
0.0
 40
7.734375
  1
縮尺
 41
1.080708718181818
  7
EXCADSTD
100
AcDbText
  0
TEXT
  5
530
330
1F
100
AcDbEntity
  8
LAY-255
  6
CONTINUOUS
 62
     7
100
AcDbText
 10
861.796875
 20
169.6875
 30
0.0
 40
10.3125
  1
型式
 41
1.056348480681818
  7
EXCADSTD
100
AcDbText
  0
TEXT
  5
531
330
1F
100
AcDbEntity
  8
LAY-255
  6
CONTINUOUS
 62
     7
100
AcDbText
 10
862.265625
 20
187.6875
 30
0.0
 40
10.3125
  1
品名
 41
0.978838634090909
  7
EXCADSTD
100
AcDbText
  0
TEXT
  5
532
330
1F
100
AcDbEntity
  8
LAY-255
  6
CONTINUOUS
 62
     7
100
AcDbText
 10
861.45703125
 20
73.26562499999997
 30
0.0
 40
7.734375
  1
作成日
 41
1.000629973818182
  7
EXCADSTD
100
AcDbText
  0
TEXT
  5
533
330
1F
100
AcDbEntity
  8
LAY-255
  6
CONTINUOUS
 62
     7
100
AcDbText
 10
1044.84375
 20
70.68749999999997
 30
0.0
 40
10.3125
  1
１：３
 41
0.8844094952727272
  7
EXCADSTD
100
AcDbText
  0
TEXT
  5
534
330
1F
100
AcDbEntity
  8
LAY-255
  6
CONTINUOUS
 62
     7
100
AcDbText
 10
900.75
 20
187.6875
 30
0.0
 40
10.3125
  1
ルーフドレイン
 41
1.021169538599106
  7
EXCADSTD
100
AcDbText
  0
TEXT
  5
535
330
1F
100
AcDbEntity
  8
LAY-255
  6
CONTINUOUS
 62
     7
100
AcDbText
 10
868.125
 20
151.6875
 30
0.0
 40
10.3125
  1
防水：モルタル・塗膜防水兼用
 41
1.008985320967742
  7
EXCADSTD
100
AcDbText
  0
TEXT
  5
536
330
1F
100
AcDbEntity
  8
LAY-255
  6
CONTINUOUS
 62
     7
100
AcDbText
 10
867.703125
 20
136.6875
 30
0.0
 40
10.3125
  1
用途：バルコニ－中継用
 41
1.012582243298969
  7
EXCADSTD
100
AcDbText
  0
TEXT
  5
537
330
1F
100
AcDbEntity
  8
LAY-255
  6
CONTINUOUS
 62
     7
100
AcDbText
 10
867.5625
 20
121.6875
 30
0.0
 40
10.3125
  1
施工：打込用
 41
1.018700840909091
  7
EXCADSTD
100
AcDbText
  0
TEXT
  5
538
330
1F
100
AcDbEntity
  8
LAY-255
  6
CONTINUOUS
 62
     7
100
AcDbText
 10
867.65625
 20
106.6875
 30
0.0
 40
10.3125
  1
接続：差込用
 41
1.01733803041958
  7
EXCADSTD
100
AcDbText
  0
TEXT
  5
539
330
1F
100
AcDbEntity
  8
LAY-255
  6
CONTINUOUS
 62
     7
100
AcDbText
 10
902.625
 20
169.6875
 30
0.0
 40
10.3125
  1
ＲＭＣＸ－２１００型
 41
1.000581655991735
  7
EXCADSTD
100
AcDbText
  0
TEXT
  5
53A
330
1F
100
AcDbEntity
  8
LAY-255
  6
CONTINUOUS
 62
     7
100
AcDbText
 10
902.671875
 20
70.68749999999997
 30
0.0
 40
10.3125
  1
０９／０２／２３
 41
0.9764342470129869
  7
EXCADSTD
100
AcDbText
  0
ENDSEC
  0
SECTION
  2
OBJECTS
  0
DICTIONARY
  5
C
330
0
100
AcDbDictionary
  3
ACAD_GROUP
350
D
  3
ACAD_LAYOUT
350
1A
  3
ACAD_MATERIAL
350
43
  3
ACAD_MLEADERSTYLE
350
6B
  3
ACAD_MLINESTYLE
350
17
  3
ACAD_PLOTSETTINGS
350
19
  3
ACAD_SCALELIST
350
47
  3
ACAD_VISUALSTYLE
350
2A
  3
ACDBHEADERROUNDTRIPXREC
350
53B
  3
ACDBVARIABLEDICTIONARY
350
55C
  0
DICTIONARY
  5
567
330
8
100
AcDbDictionary
280
     1
  3
ACAD_XREC_ROUNDTRIP
360
568
  0
DICTIONARY
  5
D
102
{ACAD_REACTORS
330
C
102
}
330
C
100
AcDbDictionary
  0
DICTIONARY
  5
1A
102
{ACAD_REACTORS
330
C
102
}
330
C
100
AcDbDictionary
  0
DICTIONARY
  5
43
102
{ACAD_REACTORS
330
C
102
}
330
C
100
AcDbDictionary
  3
BYBLOCK
350
45
  3
BYLAYER
350
44
  3
GLOBAL
350
46
  0
DICTIONARY
  5
6B
102
{ACAD_REACTORS
330
C
102
}
330
C
100
AcDbDictionary
  3
STANDARD
350
6C
  0
DICTIONARY
  5
17
102
{ACAD_REACTORS
330
C
102
}
330
C
100
AcDbDictionary
  3
STANDARD
350
18
  0
DICTIONARY
  5
19
102
{ACAD_REACTORS
330
C
102
}
330
C
100
AcDbDictionary
  0
DICTIONARY
  5
47
102
{ACAD_REACTORS
330
C
102
}
330
C
100
AcDbDictionary
  3
A0
350
48
  3
A1
350
49
  3
A2
350
4A
  3
A3
350
4B
  3
A4
350
4C
  3
A5
350
4D
  3
A6
350
4E
  3
A7
350
4F
  3
A8
350
50
  3
A9
350
51
  3
B0
350
52
  3
B1
350
53
  3
B2
350
54
  3
B3
350
55
  3
B4
350
56
  3
B5
350
57
  3
B6
350
58
  3
B7
350
59
  3
B8
350
5A
  3
B9
350
5B
  3
C0
350
5C
  3
C1
350
5D
  3
C2
350
5E
  3
C3
350
5F
  3
C4
350
60
  3
C5
350
61
  3
C6
350
62
  3
C7
350
63
  3
C8
350
64
  3
C9
350
65
  3
D0
350
66
  3
D1
350
67
  3
D2
350
68
  0
DICTIONARY
  5
2A
102
{ACAD_REACTORS
330
C
102
}
330
C
100
AcDbDictionary
  3
2DWIREFRAME
350
2F
  3
BASIC
350
32
  3
BRIGHTEN
350
36
  3
COLORCHANGE
350
3A
  3
CONCEPTUAL
350
34
  3
DIM
350
35
  3
EDGECOLOROFF
350
3D
  3
FACEPATTERN
350
39
  3
FLAT
350
2B
  3
FLATWITHEDGES
350
2C
  3
GOURAUD
350
2D
  3
GOURAUDWITHEDGES
350
2E
  3
HIDDEN
350
31
  3
JITTEROFF
350
3B
  3
LINEPATTERN
350
38
  3
OVERHANGOFF
350
3C
  3
REALISTIC
350
33
  3
SHADED
350
42
  3
SHADED_WITH_EDGES
350
41
  3
SHADES_OF_GRAY
350
3E
  3
SKETCHY
350
3F
  3
THICKEN
350
37
  3
WIREFRAME
350
30
  3
X-RAY
350
40
  0
DICTIONARY
  5
53B
102
{ACAD_REACTORS
330
C
102
}
330
C
100
AcDbDictionary
  3
CEPSNID
350
545
  3
CEPSNTYPE
350
544
  3
DIMSTYLEDATA
350
55B
  3
FINGERPRINTGUID
350
546
  3
HYPERLINKBASE
350
53E
  3
INSUNITS
350
543
  3
LAYOUTDICT
350
540
  3
LWETCUNION
350
542
  3
PLOTSETDICT
350
541
  3
PSVPSCALE
350
548
  3
PUCSBASE
350
54B
  3
PUCSORGBACK
350
551
  3
PUCSORGBOTTOM
350
54D
  3
PUCSORGFRONT
350
550
  3
PUCSORGLEFT
350
54E
  3
PUCSORGRIGHT
350
54F
  3
PUCSORGTOP
350
54C
  3
PUCSORTHOREF
350
549
  3
PUCSORTHOVIEW
350
54A
  3
STYLESHEET
350
53F
  3
TSTACKALIGN
350
53C
  3
TSTACKSIZE
350
53D
  3
UCSBASE
350
554
  3
UCSORGBACK
350
55A
  3
UCSORGBOTTOM
350
556
  3
UCSORGFRONT
350
559
  3
UCSORGLEFT
350
557
  3
UCSORGRIGHT
350
558
  3
UCSORGTOP
350
555
  3
UCSORTHOREF
350
552
  3
UCSORTHOVIEW
350
553
  3
VERSIONGUID
350
547
  0
DICTIONARY
  5
55C
102
{ACAD_REACTORS
330
C
102
}
330
C
100
AcDbDictionary
  3
CANNOSCALE
350
569
  3
CENTEREXE
350
563
  3
CENTERLTYPEFILE
350
564
  3
CMLEADERSTYLE
350
55E
  3
CTABLESTYLE
350
55D
  3
DIMASSOC
350
565
  3
HIDETEXT
350
566
  3
MSLTSCALE
350
56A
  3
PSOLHEIGHT
350
560
  3
PSOLWIDTH
350
55F
  0
XRECORD
  5
568
102
{ACAD_REACTORS
330
567
102
}
330
567
100
AcDbXrecord
102
VTR_0.000_0.000_1.000_1.000_VISUALSTYLE
340
2F
102
VTR_0.000_0.000_1.000_1.000_GRIDDISPLAY
 70
     3
102
VTR_0.000_0.000_1.000_1.000_GRIDMAJOR
 70
     5
102
VTR_0.000_0.000_1.000_1.000_DEFAULTLIGHTING
280
     1
102
VTR_0.000_0.000_1.000_1.000_DEFAULTLIGHTINGTYPE
 70
     1
102
VTR_0.000_0.000_1.000_1.000_BRIGHTNESS
141
0.0
102
VTR_0.000_0.000_1.000_1.000_CONTRAST
142
0.0
  0
MATERIAL
  5
45
102
{ACAD_REACTORS
330
43
102
}
102
{ACAD_XDICTIONARY
360
56D
102
}
330
43
100
AcDbMaterial
  1
BYBLOCK
  0
MATERIAL
  5
44
102
{ACAD_REACTORS
330
43
102
}
102
{ACAD_XDICTIONARY
360
56B
102
}
330
43
100
AcDbMaterial
  1
BYLAYER
  0
MATERIAL
  5
46
102
{ACAD_REACTORS
330
43
102
}
102
{ACAD_XDICTIONARY
360
56F
102
}
330
43
100
AcDbMaterial
  1
GLOBAL
  0
ACAD_PROXY_OBJECT
  5
6C
102
{ACAD_REACTORS
330
6B
102
}
330
6B
100
AcDbProxyObject
 90
      499
 91
      505
 93
      610
310
40901902A4063FBFFFFFE0000000000000020400000000000020404214DD185B99185C990000000000000104090141901A00000000000004100000000000000041025764000000000000039000
340
14
340
0
340
11
340
0
 94
        0
1001
ACAD_MLEADERVER
1070
     2
  0
MLINESTYLE
  5
18
102
{ACAD_REACTORS
330
17
102
}
330
17
100
AcDbMlineStyle
  2
Standard
 70
     0
  3

 62
   256
 51
90.0
 52
90.0
 71
     2
 49
0.5
 62
   256
  6
BYLAYER
 49
-0.5
 62
   256
  6
BYLAYER
  0
ACAD_PROXY_OBJECT
  5
48
102
{ACAD_REACTORS
330
47
102
}
330
47
100
AcDbProxyObject
 90
      499
 91
      503
 93
       41
310
903313A31580
  0
ACAD_PROXY_OBJECT
  5
49
102
{ACAD_REACTORS
330
47
102
}
330
47
100
AcDbProxyObject
 90
      499
 91
      503
 93
      105
310
903313A324000000000000004000
  0
ACAD_PROXY_OBJECT
  5
4A
102
{ACAD_REACTORS
330
47
102
}
330
47
100
AcDbProxyObject
 90
      499
 91
      503
 93
      105
310
903313A344000000000000104000
  0
ACAD_PROXY_OBJECT
  5
4B
102
{ACAD_REACTORS
330
47
102
}
330
47
100
AcDbProxyObject
 90
      499
 91
      503
 93
      105
310
903313A354000000000000144000
  0
ACAD_PROXY_OBJECT
  5
4C
102
{ACAD_REACTORS
330
47
102
}
330
47
100
AcDbProxyObject
 90
      499
 91
      503
 93
      105
310
903313A384000000000000204000
  0
ACAD_PROXY_OBJECT
  5
4D
102
{ACAD_REACTORS
330
47
102
}
330
47
100
AcDbProxyObject
 90
      499
 91
      503
 93
      113
310
904313A31304000000000000244000
  0
ACAD_PROXY_OBJECT
  5
4E
102
{ACAD_REACTORS
330
47
102
}
330
47
100
AcDbProxyObject
 90
      499
 91
      503
 93
      113
310
904313A31364000000000000304000
  0
ACAD_PROXY_OBJECT
  5
4F
102
{ACAD_REACTORS
330
47
102
}
330
47
100
AcDbProxyObject
 90
      499
 91
      503
 93
      113
310
904313A32304000000000000344000
  0
ACAD_PROXY_OBJECT
  5
50
102
{ACAD_REACTORS
330
47
102
}
330
47
100
AcDbProxyObject
 90
      499
 91
      503
 93
      113
310
904313A333040000000000003E4000
  0
ACAD_PROXY_OBJECT
  5
51
102
{ACAD_REACTORS
330
47
102
}
330
47
100
AcDbProxyObject
 90
      499
 91
      503
 93
      113
310
904313A34304000000000000444000
  0
ACAD_PROXY_OBJECT
  5
52
102
{ACAD_REACTORS
330
47
102
}
330
47
100
AcDbProxyObject
 90
      499
 91
      503
 93
      113
310
904313A35304000000000000494000
  0
ACAD_PROXY_OBJECT
  5
53
102
{ACAD_REACTORS
330
47
102
}
330
47
100
AcDbProxyObject
 90
      499
 91
      503
 93
      121
310
905313A3130304000000000000594000
  0
ACAD_PROXY_OBJECT
  5
54
102
{ACAD_REACTORS
330
47
102
}
330
47
100
AcDbProxyObject
 90
      499
 91
      503
 93
      105
310
903323A310000000000000010100
  0
ACAD_PROXY_OBJECT
  5
55
102
{ACAD_REACTORS
330
47
102
}
330
47
100
AcDbProxyObject
 90
      499
 91
      503
 93
      105
310
903343A310000000000000410100
  0
ACAD_PROXY_OBJECT
  5
56
102
{ACAD_REACTORS
330
47
102
}
330
47
100
AcDbProxyObject
 90
      499
 91
      503
 93
      105
310
903383A310000000000000810100
  0
ACAD_PROXY_OBJECT
  5
57
102
{ACAD_REACTORS
330
47
102
}
330
47
100
AcDbProxyObject
 90
      499
 91
      503
 93
      113
310
90431303A310000000000000910100
  0
ACAD_PROXY_OBJECT
  5
58
102
{ACAD_REACTORS
330
47
102
}
330
47
100
AcDbProxyObject
 90
      499
 91
      503
 93
      121
310
9053130303A310000000000001650100
  0
ACAD_PROXY_OBJECT
  5
59
102
{ACAD_REACTORS
330
47
102
}
330
47
100
AcDbProxyObject
 90
      499
 91
      503
 93
      257
310
90E312F31323822203D2031272D3022000000000000200FC000000000000284000
  0
ACAD_PROXY_OBJECT
  5
5A
102
{ACAD_REACTORS
330
47
102
}
330
47
100
AcDbProxyObject
 90
      499
 91
      503
 93
      249
310
90D312F363422203D2031272D3022000000000000240FC000000000000284000
  0
ACAD_PROXY_OBJECT
  5
5B
102
{ACAD_REACTORS
330
47
102
}
330
47
100
AcDbProxyObject
 90
      499
 91
      503
 93
      249
310
90D312F333222203D2031272D3022000000000000280FC000000000000284000
  0
ACAD_PROXY_OBJECT
  5
5C
102
{ACAD_REACTORS
330
47
102
}
330
47
100
AcDbProxyObject
 90
      499
 91
      503
 93
      249
310
90D312F313622203D2031272D30220000000000002C0FC000000000000284000
  0
ACAD_PROXY_OBJECT
  5
5D
102
{ACAD_REACTORS
330
47
102
}
330
47
100
AcDbProxyObject
 90
      499
 91
      503
 93
      249
310
90D332F333222203D2031272D30220000000000002E0FC000000000000284000
  0
ACAD_PROXY_OBJECT
  5
5E
102
{ACAD_REACTORS
330
47
102
}
330
47
100
AcDbProxyObject
 90
      499
 91
      503
 93
      241
310
90C312F3822203D2031272D3022000000000000300FC000000000000284000
  0
ACAD_PROXY_OBJECT
  5
5F
102
{ACAD_REACTORS
330
47
102
}
330
47
100
AcDbProxyObject
 90
      499
 91
      503
 93
      249
310
90D332F313622203D2031272D3022000000000000320FC000000000000284000
  0
ACAD_PROXY_OBJECT
  5
60
102
{ACAD_REACTORS
330
47
102
}
330
47
100
AcDbProxyObject
 90
      499
 91
      503
 93
      241
310
90C312F3422203D2031272D3022000000000000340FC000000000000284000
  0
ACAD_PROXY_OBJECT
  5
61
102
{ACAD_REACTORS
330
47
102
}
330
47
100
AcDbProxyObject
 90
      499
 91
      503
 93
      241
310
90C332F3822203D2031272D3022000000000000360FC000000000000284000
  0
ACAD_PROXY_OBJECT
  5
62
102
{ACAD_REACTORS
330
47
102
}
330
47
100
AcDbProxyObject
 90
      499
 91
      503
 93
      241
310
90C312F3222203D2031272D3022000000000000380FC000000000000284000
  0
ACAD_PROXY_OBJECT
  5
63
102
{ACAD_REACTORS
330
47
102
}
330
47
100
AcDbProxyObject
 90
      499
 91
      503
 93
      241
310
90C332F3422203D2031272D30220000000000003A0FC000000000000284000
  0
ACAD_PROXY_OBJECT
  5
64
102
{ACAD_REACTORS
330
47
102
}
330
47
100
AcDbProxyObject
 90
      499
 91
      503
 93
      161
310
90A3122203D2031272D30224000000000000284000
  0
ACAD_PROXY_OBJECT
  5
65
102
{ACAD_REACTORS
330
47
102
}
330
47
100
AcDbProxyObject
 90
      499
 91
      503
 93
      257
310
90E312D312F3222203D2031272D30220000000000003E0FC000000000000284000
  0
ACAD_PROXY_OBJECT
  5
66
102
{ACAD_REACTORS
330
47
102
}
330
47
100
AcDbProxyObject
 90
      499
 91
      503
 93
      225
310
90A3322203D2031272D302200000000000002100000000000000284000
  0
ACAD_PROXY_OBJECT
  5
67
102
{ACAD_REACTORS
330
47
102
}
330
47
100
AcDbProxyObject
 90
      499
 91
      503
 93
      225
310
90A3622203D2031272D302200000000000006100000000000000284000
  0
ACAD_PROXY_OBJECT
  5
68
102
{ACAD_REACTORS
330
47
102
}
330
47
100
AcDbProxyObject
 90
      499
 91
      503
 93
      249
310
90D31272D3022203D2031272D30220000000000000A100000000000000284000
  0
ACAD_PROXY_OBJECT
  5
2F
102
{ACAD_REACTORS
330
2A
102
}
330
2A
100
AcDbProxyObject
 90
      499
 91
      501
 93
      436
310
42CC9915DA5C99599C985B595049028333333333333E33F0000000000000F90107901411070040501600405405064090741402480A0340
1001
ACAD
1000
AcDbSavedByObjectVersion
1070
     0
  0
ACAD_PROXY_OBJECT
  5
32
102
{ACAD_REACTORS
330
2A
102
}
330
2A
100
AcDbProxyObject
 90
      499
 91
      501
 93
      388
310
4150985CDA58D07406404333333333333E33F0000000000000F90107A41107004050150841D405064090741402480A0350
1001
ACAD
1000
AcDbSavedByObjectVersion
1070
     0
  0
ACAD_PROXY_OBJECT
  5
36
102
{ACAD_REACTORS
330
2A
102
}
330
2A
100
AcDbProxyObject
 90
      499
 91
      501
 93
      428
310
42109C9A59DA1D195B90C409028333333333333E33F0000000000000F9010790141107004050150841D405064090741402480A029950
1001
ACAD
1000
AcDbSavedByObjectVersion
1070
     0
  0
ACAD_PROXY_OBJECT
  5
3A
102
{ACAD_REACTORS
330
2A
102
}
330
2A
100
AcDbProxyObject
 90
      499
 91
      501
 93
      452
310
42D0DBDB1BDC90DA185B99D95104090240C333333333333E33F0000000000000F90108901411070040501508421405064090741402480A0350
1001
ACAD
1000
AcDbSavedByObjectVersion
1070
     0
  0
ACAD_PROXY_OBJECT
  5
34
102
{ACAD_REACTORS
330
2A
102
}
330
2A
100
AcDbProxyObject
 90
      499
 91
      501
 93
      500
310
4290DBDB98D95C1D1D585B10940D028333333333333E33F0000000000000F90107902409070040501000000000018199010841D405064090740C02480A0340
1001
ACAD
1000
AcDbSavedByObjectVersion
1070
     0
  0
ACAD_PROXY_OBJECT
  5
35
102
{ACAD_REACTORS
330
2A
102
}
330
2A
100
AcDbProxyObject
 90
      499
 91
      501
 93
      412
310
40D11A5B50B409028333333333333E33F0000000000000F9010790141107004050150841D405064090741402480A02677FFFFFD0
1001
ACAD
1000
AcDbSavedByObjectVersion
1070
     0
  0
ACAD_PROXY_OBJECT
  5
3D
102
{ACAD_REACTORS
330
2A
102
}
330
2A
100
AcDbProxyObject
 90
      499
 91
      501
 93
      452
310
43115919D950DBDB1BDC93D999916409028333333333333E33F0000000000000F9010790141107004050150841D405064090741402480A0350
1001
ACAD
1000
AcDbSavedByObjectVersion
1070
     0
  0
ACAD_PROXY_OBJECT
  5
39
102
{ACAD_REACTORS
330
2A
102
}
330
2A
100
AcDbProxyObject
 90
      499
 91
      501
 93
      444
310
42D19858D95C185D1D195C9B90F409028333333333333E33F0000000000000F9010790141107004050150841D405064090741402480A0350
1001
ACAD
1000
AcDbSavedByObjectVersion
1070
     0
  0
ACAD_PROXY_OBJECT
  5
2B
102
{ACAD_REACTORS
330
2A
102
}
330
2A
100
AcDbProxyObject
 90
      499
 91
      501
 93
      380
310
41119B185D240901404333333333333E33F0000000000000F9010740A907004050150841D405064090741402480A1B50
1001
ACAD
1000
AcDbSavedByObjectVersion
1070
     0
  0
ACAD_PROXY_OBJECT
  5
2C
102
{ACAD_REACTORS
330
2A
102
}
330
2A
100
AcDbProxyObject
 90
      499
 91
      501
 93
      468
310
43519B185D15DA5D1A115919D95CD0140901404333333333333E33F0000000000000F90107409019070040501600405405064090741402480A1B50
1001
ACAD
1000
AcDbSavedByObjectVersion
1070
     0
  0
ACAD_PROXY_OBJECT
  5
2D
102
{ACAD_REACTORS
330
2A
102
}
330
2A
100
AcDbProxyObject
 90
      499
 91
      501
 93
      404
310
41D1DBDD5C985D5910240902404333333333333E33F0000000000000F9010740A9070040501641D405064090741402480A1B50
1001
ACAD
1000
AcDbSavedByObjectVersion
1070
     0
  0
ACAD_PROXY_OBJECT
  5
2E
102
{ACAD_REACTORS
330
2A
102
}
330
2A
100
AcDbProxyObject
 90
      499
 91
      501
 93
      492
310
4411DBDD5C985D5915DA5D1A115919D95CD0340902404333333333333E33F0000000000000F90107409019070040501600405405064090741402480A1B50
1001
ACAD
1000
AcDbSavedByObjectVersion
1070
     0
  0
ACAD_PROXY_OBJECT
  5
31
102
{ACAD_REACTORS
330
2A
102
}
330
2A
100
AcDbProxyObject
 90
      499
 91
      501
 93
      476
310
41921A5919195B90640502408333333333333E33F0000000000000F901079024090700405020000000000001110200405405064090740C02480A0340
1001
ACAD
1000
AcDbSavedByObjectVersion
1070
     0
  0
ACAD_PROXY_OBJECT
  5
3B
102
{ACAD_REACTORS
330
2A
102
}
330
2A
100
AcDbProxyObject
 90
      499
 91
      501
 93
      428
310
42529A5D1D195C93D999914409028333333333333E33F0000000000000F9010790141107004050150A41D405064090741402480A0350
1001
ACAD
1000
AcDbSavedByObjectVersion
1070
     0
  0
ACAD_PROXY_OBJECT
  5
38
102
{ACAD_REACTORS
330
2A
102
}
330
2A
100
AcDbProxyObject
 90
      499
 91
      501
 93
      444
310
42D31A5B995C185D1D195C9B90E409028333333333333E33F0000000000000F9010790141107004050750841D405064090741402483A0350
1001
ACAD
1000
AcDbSavedByObjectVersion
1070
     0
  0
ACAD_PROXY_OBJECT
  5
3C
102
{ACAD_REACTORS
330
2A
102
}
330
2A
100
AcDbProxyObject
 90
      499
 91
      501
 93
      444
310
42D3DD995C9A185B99D3D999915409028333333333333E33F0000000000000F9010790141107004050150941D405064090741402480A0350
1001
ACAD
1000
AcDbSavedByObjectVersion
1070
     0
  0
ACAD_PROXY_OBJECT
  5
33
102
{ACAD_REACTORS
330
2A
102
}
330
2A
100
AcDbProxyObject
 90
      499
 91
      501
 93
      428
310
425499585B1A5CDD1A58D08409038333333333333E33F0000000000000F9010740A907004050150800405405064090740C02480A1B40
1001
ACAD
1000
AcDbSavedByObjectVersion
1070
     0
  0
ACAD_PROXY_OBJECT
  5
42
102
{ACAD_REACTORS
330
2A
102
}
330
2A
100
AcDbProxyObject
 90
      499
 91
      501
 93
      420
310
4194DA1859195911B40902404333333333333E33F0000000000000F9010740A41107004050150800405405064090840C02480A0B40
1001
ACAD
1000
AcDbSavedByObjectVersion
1070
     0
  0
ACAD_PROXY_OBJECT
  5
41
102
{ACAD_REACTORS
330
2A
102
}
330
2A
100
AcDbProxyObject
 90
      499
 91
      501
 93
      516
310
4454DA18591959081DDA5D1A08195919D95CD1A40902404333333333333E33F0000000000000F901074090142907004050250800405405064090740C02480A0B40
1001
ACAD
1000
AcDbSavedByObjectVersion
1070
     0
  0
ACAD_PROXY_OBJECT
  5
3E
102
{ACAD_REACTORS
330
2A
102
}
330
2A
100
AcDbProxyObject
 90
      499
 91
      501
 93
      532
310
4394DA1859195CC81BD98811DC985E5174090240C333333333333E33F0000000000000F901079024090741D01000000000000111010841D405064090740C02480A0340
1001
ACAD
1000
AcDbSavedByObjectVersion
1070
     0
  0
ACAD_PROXY_OBJECT
  5
3F
102
{ACAD_REACTORS
330
2A
102
}
330
2A
100
AcDbProxyObject
 90
      499
 91
      501
 93
      476
310
41D4DAD95D18DA1E51840502408333333333333E33F0000000000000F901079024090741D01000000000000111010B41D405064090741802480A0340
1001
ACAD
1000
AcDbSavedByObjectVersion
1070
     0
  0
ACAD_PROXY_OBJECT
  5
37
102
{ACAD_REACTORS
330
2A
102
}
330
2A
100
AcDbProxyObject
 90
      499
 91
      501
 93
      412
310
41D51A1A58DAD95B90D409028333333333333E33F0000000000000F9010790141107004050150C41D405064090741402480A0350
1001
ACAD
1000
AcDbSavedByObjectVersion
1070
     0
  0
ACAD_PROXY_OBJECT
  5
30
102
{ACAD_REACTORS
330
2A
102
}
330
2A
100
AcDbProxyObject
 90
      499
 91
      501
 93
      420
310
4255DA5C99599C985B595059028333333333333E33F0000000000000F90107901411070040501600405405064090740C02480A0340
1001
ACAD
1000
AcDbSavedByObjectVersion
1070
     0
  0
ACAD_PROXY_OBJECT
  5
40
102
{ACAD_REACTORS
330
2A
102
}
330
2A
100
AcDbProxyObject
 90
      499
 91
      501
 93
      404
310
41560B54985E51940902404000000000000E03F0000000000000F9010740501907004050150841D405064090740C02480A1B40
1001
ACAD
1000
AcDbSavedByObjectVersion
1070
     0
  0
XRECORD
  5
545
102
{ACAD_REACTORS
330
53B
102
}
330
53B
100
AcDbXrecord
340
0
  0
XRECORD
  5
544
102
{ACAD_REACTORS
330
53B
102
}
330
53B
100
AcDbXrecord
 90
        0
  0
XRECORD
  5
55B
102
{ACAD_REACTORS
330
53B
102
}
330
53B
100
AcDbXrecord
1000
DSTYLE
1002
{
1070
   340
340
11
1002
}
  0
XRECORD
  5
546
102
{ACAD_REACTORS
330
53B
102
}
330
53B
100
AcDbXrecord
  1
{20a4015d-1e0b-4256-852c-e6eec55504d3}
  0
XRECORD
  5
53E
102
{ACAD_REACTORS
330
53B
102
}
330
53B
100
AcDbXrecord
  1

  0
XRECORD
  5
543
102
{ACAD_REACTORS
330
53B
102
}
330
53B
100
AcDbXrecord
 90
        4
  0
XRECORD
  5
540
102
{ACAD_REACTORS
330
53B
102
}
330
53B
100
AcDbXrecord
340
1A
  0
XRECORD
  5
542
102
{ACAD_REACTORS
330
53B
102
}
330
53B
100
AcDbXrecord
 90
    10781
  0
XRECORD
  5
541
102
{ACAD_REACTORS
330
53B
102
}
330
53B
100
AcDbXrecord
340
19
  0
XRECORD
  5
548
102
{ACAD_REACTORS
330
53B
102
}
330
53B
100
AcDbXrecord
 40
0.0
  0
XRECORD
  5
54B
102
{ACAD_REACTORS
330
53B
102
}
330
53B
100
AcDbXrecord
340
0
  0
XRECORD
  5
551
102
{ACAD_REACTORS
330
53B
102
}
330
53B
100
AcDbXrecord
 10
0.0
 20
0.0
 30
0.0
  0
XRECORD
  5
54D
102
{ACAD_REACTORS
330
53B
102
}
330
53B
100
AcDbXrecord
 10
0.0
 20
0.0
 30
0.0
  0
XRECORD
  5
550
102
{ACAD_REACTORS
330
53B
102
}
330
53B
100
AcDbXrecord
 10
0.0
 20
0.0
 30
0.0
  0
XRECORD
  5
54E
102
{ACAD_REACTORS
330
53B
102
}
330
53B
100
AcDbXrecord
 10
0.0
 20
0.0
 30
0.0
  0
XRECORD
  5
54F
102
{ACAD_REACTORS
330
53B
102
}
330
53B
100
AcDbXrecord
 10
0.0
 20
0.0
 30
0.0
  0
XRECORD
  5
54C
102
{ACAD_REACTORS
330
53B
102
}
330
53B
100
AcDbXrecord
 10
0.0
 20
0.0
 30
0.0
  0
XRECORD
  5
549
102
{ACAD_REACTORS
330
53B
102
}
330
53B
100
AcDbXrecord
340
0
  0
XRECORD
  5
54A
102
{ACAD_REACTORS
330
53B
102
}
330
53B
100
AcDbXrecord
 70
     0
  0
XRECORD
  5
53F
102
{ACAD_REACTORS
330
53B
102
}
330
53B
100
AcDbXrecord
  1

  0
XRECORD
  5
53C
102
{ACAD_REACTORS
330
53B
102
}
330
53B
100
AcDbXrecord
 90
        1
  0
XRECORD
  5
53D
102
{ACAD_REACTORS
330
53B
102
}
330
53B
100
AcDbXrecord
 90
       70
  0
XRECORD
  5
554
102
{ACAD_REACTORS
330
53B
102
}
330
53B
100
AcDbXrecord
340
0
  0
XRECORD
  5
55A
102
{ACAD_REACTORS
330
53B
102
}
330
53B
100
AcDbXrecord
 10
0.0
 20
0.0
 30
0.0
  0
XRECORD
  5
556
102
{ACAD_REACTORS
330
53B
102
}
330
53B
100
AcDbXrecord
 10
0.0
 20
0.0
 30
0.0
  0
XRECORD
  5
559
102
{ACAD_REACTORS
330
53B
102
}
330
53B
100
AcDbXrecord
 10
0.0
 20
0.0
 30
0.0
  0
XRECORD
  5
557
102
{ACAD_REACTORS
330
53B
102
}
330
53B
100
AcDbXrecord
 10
0.0
 20
0.0
 30
0.0
  0
XRECORD
  5
558
102
{ACAD_REACTORS
330
53B
102
}
330
53B
100
AcDbXrecord
 10
0.0
 20
0.0
 30
0.0
  0
XRECORD
  5
555
102
{ACAD_REACTORS
330
53B
102
}
330
53B
100
AcDbXrecord
 10
0.0
 20
0.0
 30
0.0
  0
XRECORD
  5
552
102
{ACAD_REACTORS
330
53B
102
}
330
53B
100
AcDbXrecord
340
0
  0
XRECORD
  5
553
102
{ACAD_REACTORS
330
53B
102
}
330
53B
100
AcDbXrecord
 70
     0
  0
XRECORD
  5
547
102
{ACAD_REACTORS
330
53B
102
}
330
53B
100
AcDbXrecord
  1
{FAEB1C32-E019-11D5-929B-00C0DF256EC4}
  0
DICTIONARYVAR
  5
569
102
{ACAD_REACTORS
330
55C
102
}
330
55C
100
DictionaryVariables
280
     0
  1
1:1
  0
DICTIONARYVAR
  5
563
102
{ACAD_REACTORS
330
55C
102
}
330
55C
100
DictionaryVariables
280
     0
  1
3.500000
  0
DICTIONARYVAR
  5
564
102
{ACAD_REACTORS
330
55C
102
}
330
55C
100
DictionaryVariables
280
     0
  1
acadiso.lin
  0
DICTIONARYVAR
  5
55E
102
{ACAD_REACTORS
330
55C
102
}
330
55C
100
DictionaryVariables
280
     0
  1
Standard
  0
DICTIONARYVAR
  5
55D
102
{ACAD_REACTORS
330
55C
102
}
330
55C
100
DictionaryVariables
280
     0
  1
Standard
  0
DICTIONARYVAR
  5
565
102
{ACAD_REACTORS
330
55C
102
}
330
55C
100
DictionaryVariables
280
     0
  1
2
  0
DICTIONARYVAR
  5
566
102
{ACAD_REACTORS
330
55C
102
}
330
55C
100
DictionaryVariables
280
     0
  1
1
  0
DICTIONARYVAR
  5
56A
102
{ACAD_REACTORS
330
55C
102
}
330
55C
100
DictionaryVariables
280
     0
  1
1
  0
DICTIONARYVAR
  5
560
102
{ACAD_REACTORS
330
55C
102
}
330
55C
100
DictionaryVariables
280
     0
  1
80.000000
  0
DICTIONARYVAR
  5
55F
102
{ACAD_REACTORS
330
55C
102
}
330
55C
100
DictionaryVariables
280
     0
  1
5.000000
  0
DICTIONARY
  5
56D
330
45
100
AcDbDictionary
280
     1
  3
ACAD_XREC_ROUNDTRIP
360
56E
  0
DICTIONARY
  5
56B
330
44
100
AcDbDictionary
280
     1
  3
ACAD_XREC_ROUNDTRIP
360
56C
  0
DICTIONARY
  5
56F
330
46
100
AcDbDictionary
280
     1
  3
ACAD_XREC_ROUNDTRIP
360
570
  0
XRECORD
  5
56E
102
{ACAD_REACTORS
330
56D
102
}
330
56D
100
AcDbXrecord
102
MATERIAL
148
0.0
149
0.0
149
0.0
 93
        0
 94
      127
282
     0
 72
     1
 77
     1
171
     1
175
     1
179
     1
273
     0
  0
XRECORD
  5
56C
102
{ACAD_REACTORS
330
56B
102
}
330
56B
100
AcDbXrecord
102
MATERIAL
148
0.0
149
0.0
149
0.0
 93
        0
 94
      127
282
     0
 72
     1
 77
     1
171
     1
175
     1
179
     1
273
     0
  0
XRECORD
  5
570
102
{ACAD_REACTORS
330
56F
102
}
330
56F
100
AcDbXrecord
102
MATERIAL
148
0.0
149
0.0
149
0.0
 93
        0
 94
      127
282
     0
 72
     1
 77
     1
171
     1
175
     1
179
     1
273
     0
  0
ENDSEC
  0
EOF
