  0
SECTION
  2
HEADER
  9
$ACADVER
  1
AC1014
  9
$ACADMAINTVER
 70
     9
  9
$DWGCODEPAGE
  3
ANSI_932
  9
$INSBASE
 10
0.0
 20
0.0
 30
0.0
  9
$EXTMIN
 10
15.0
 20
30.0
 30
0.0
  9
$EXTMAX
 10
1155.0
 20
840.0
 30
0.0
  9
$LIMMIN
 10
0.0
 20
0.0
  9
$LIMMAX
 10
420.0
 20
297.0
  9
$ORTHOMODE
 70
     0
  9
$REGENMODE
 70
     1
  9
$FILLMODE
 70
     1
  9
$QTEXTMODE
 70
     0
  9
$MIRRTEXT
 70
     1
  9
$DRAGMODE
 70
     2
  9
$LTSCALE
 40
0.2
  9
$OSMODE
 70
    37
  9
$ATTMODE
 70
     1
  9
$TEXTSIZE
 40
2.5
  9
$TRACEWID
 40
1.0
  9
$TEXTSTYLE
  7
STANDARD
  9
$CLAYER
  8
LAY-10
  9
$CELTYPE
  6
BYLAYER
  9
$CECOLOR
 62
   256
  9
$CELTSCALE
 40
1.0
  9
$DELOBJ
 70
     1
  9
$DISPSILH
 70
     0
  9
$DIMSCALE
 40
1.0
  9
$DIMASZ
 40
2.5
  9
$DIMEXO
 40
0.625
  9
$DIMDLI
 40
3.75
  9
$DIMRND
 40
0.0
  9
$DIMDLE
 40
0.0
  9
$DIMEXE
 40
1.25
  9
$DIMTP
 40
0.0
  9
$DIMTM
 40
0.0
  9
$DIMTXT
 40
2.5
  9
$DIMCEN
 40
2.5
  9
$DIMTSZ
 40
0.0
  9
$DIMTOL
 70
     0
  9
$DIMLIM
 70
     0
  9
$DIMTIH
 70
     0
  9
$DIMTOH
 70
     0
  9
$DIMSE1
 70
     0
  9
$DIMSE2
 70
     0
  9
$DIMTAD
 70
     1
  9
$DIMZIN
 70
     8
  9
$DIMBLK
  1

  9
$DIMASO
 70
     1
  9
$DIMSHO
 70
     1
  9
$DIMPOST
  1

  9
$DIMAPOST
  1

  9
$DIMALT
 70
     0
  9
$DIMALTD
 70
     3
  9
$DIMALTF
 40
0.03937007874016
  9
$DIMLFAC
 40
1.0
  9
$DIMTOFL
 70
     1
  9
$DIMTVP
 40
0.0
  9
$DIMTIX
 70
     0
  9
$DIMSOXD
 70
     0
  9
$DIMSAH
 70
     0
  9
$DIMBLK1
  1

  9
$DIMBLK2
  1

  9
$DIMSTYLE
  2
ISO-25
  9
$DIMCLRD
 70
     0
  9
$DIMCLRE
 70
     0
  9
$DIMCLRT
 70
     0
  9
$DIMTFAC
 40
1.0
  9
$DIMGAP
 40
0.625
  9
$DIMJUST
 70
     0
  9
$DIMSD1
 70
     0
  9
$DIMSD2
 70
     0
  9
$DIMTOLJ
 70
     0
  9
$DIMTZIN
 70
     8
  9
$DIMALTZ
 70
     0
  9
$DIMALTTZ
 70
     0
  9
$DIMFIT
 70
     3
  9
$DIMUPT
 70
     0
  9
$DIMUNIT
 70
     2
  9
$DIMDEC
 70
     2
  9
$DIMTDEC
 70
     2
  9
$DIMALTU
 70
     2
  9
$DIMALTTD
 70
     3
  9
$DIMTXSTY
  7
STANDARD
  9
$DIMAUNIT
 70
     0
  9
$LUNITS
 70
     2
  9
$LUPREC
 70
     4
  9
$SKETCHINC
 40
1.0
  9
$FILLETRAD
 40
10.0
  9
$AUNITS
 70
     0
  9
$AUPREC
 70
     0
  9
$MENU
  1
.
  9
$ELEVATION
 40
0.0
  9
$PELEVATION
 40
0.0
  9
$THICKNESS
 40
0.0
  9
$LIMCHECK
 70
     0
  9
$CHAMFERA
 40
0.0
  9
$CHAMFERB
 40
0.0
  9
$CHAMFERC
 40
0.0
  9
$CHAMFERD
 40
0.0
  9
$SKPOLY
 70
     0
  9
$TDCREATE
 40
2459229.337416933
  9
$TDUPDATE
 40
2459229.337417523
  9
$TDINDWG
 40
0.0000000116
  9
$TDUSRTIMER
 40
0.0000000116
  9
$USRTIMER
 70
     1
  9
$ANGBASE
 50
0.0
  9
$ANGDIR
 70
     0
  9
$PDMODE
 70
     0
  9
$PDSIZE
 40
0.0
  9
$PLINEWID
 40
0.0
  9
$COORDS
 70
     1
  9
$SPLFRAME
 70
     0
  9
$SPLINETYPE
 70
     6
  9
$SPLINESEGS
 70
     8
  9
$ATTDIA
 70
     0
  9
$ATTREQ
 70
     1
  9
$HANDLING
 70
     1
  9
$HANDSEED
  5
536
  9
$SURFTAB1
 70
     6
  9
$SURFTAB2
 70
     6
  9
$SURFTYPE
 70
     6
  9
$SURFU
 70
     6
  9
$SURFV
 70
     6
  9
$UCSNAME
  2

  9
$UCSORG
 10
0.0
 20
0.0
 30
0.0
  9
$UCSXDIR
 10
1.0
 20
0.0
 30
0.0
  9
$UCSYDIR
 10
0.0
 20
1.0
 30
0.0
  9
$PUCSNAME
  2

  9
$PUCSORG
 10
0.0
 20
0.0
 30
0.0
  9
$PUCSXDIR
 10
1.0
 20
0.0
 30
0.0
  9
$PUCSYDIR
 10
0.0
 20
1.0
 30
0.0
  9
$USERI1
 70
     0
  9
$USERI2
 70
     0
  9
$USERI3
 70
     0
  9
$USERI4
 70
     0
  9
$USERI5
 70
     0
  9
$USERR1
 40
0.0
  9
$USERR2
 40
0.0
  9
$USERR3
 40
0.0
  9
$USERR4
 40
0.0
  9
$USERR5
 40
0.0
  9
$WORLDVIEW
 70
     1
  9
$SHADEDGE
 70
     3
  9
$SHADEDIF
 70
    70
  9
$TILEMODE
 70
     1
  9
$MAXACTVP
 70
    64
  9
$PINSBASE
 10
0.0
 20
0.0
 30
0.0
  9
$PLIMCHECK
 70
     0
  9
$PEXTMIN
 10
1.000000000000000E+20
 20
1.000000000000000E+20
 30
1.000000000000000E+20
  9
$PEXTMAX
 10
-1.000000000000000E+20
 20
-1.000000000000000E+20
 30
-1.000000000000000E+20
  9
$PLIMMIN
 10
0.0
 20
0.0
  9
$PLIMMAX
 10
420.0
 20
297.0
  9
$UNITMODE
 70
     0
  9
$VISRETAIN
 70
     1
  9
$PLINEGEN
 70
     0
  9
$PSLTSCALE
 70
     1
  9
$TREEDEPTH
 70
  3020
  9
$PICKSTYLE
 70
     1
  9
$CMLSTYLE
  2
STANDARD
  9
$CMLJUST
 70
     0
  9
$CMLSCALE
 40
20.0
  9
$PROXYGRAPHICS
 70
     1
  9
$MEASUREMENT
 70
     1
  0
ENDSEC
  0
SECTION
  2
CLASSES
  0
CLASS
  1
ACDBDICTIONARYWDFLT
  2
AcDbDictionaryWithDefault
  3
ObjectDBX Classes
 90
        0
280
     0
281
     0
  0
CLASS
  1
VISUALSTYLE
  2
AcDbVisualStyle
  3
ObjectDBX Classes
 90
     4095
280
     0
281
     0
  0
CLASS
  1
MATERIAL
  2
AcDbMaterial
  3
ObjectDBX Classes
 90
     1153
280
     0
281
     0
  0
CLASS
  1
SCALE
  2
AcDbScale
  3
ObjectDBX Classes
 90
     1153
280
     0
281
     0
  0
CLASS
  1
TABLESTYLE
  2
AcDbTableStyle
  3
ObjectDBX Classes
 90
     4095
280
     0
281
     0
  0
CLASS
  1
MLEADERSTYLE
  2
AcDbMLeaderStyle
  3
ACDB_MLEADERSTYLE_CLASS
 90
     4095
280
     0
281
     0
  0
CLASS
  1
SUN
  2
AcDbSun
  3
SCENEOE
 90
     1153
280
     0
281
     0
  0
CLASS
  1
DICTIONARYVAR
  2
AcDbDictionaryVar
  3
ObjectDBX Classes
 90
        0
280
     0
281
     0
  0
CLASS
  1
XRECORD
  2
AcDbXrecord
  3
ObjectDBX Classes
 90
        0
280
     0
281
     0
  0
CLASS
  1
LWPOLYLINE
  2
AcDbPolyline
  3
ObjectDBX Classes
 90
        0
280
     0
281
     1
  0
CLASS
  1
HATCH
  2
AcDbHatch
  3
ObjectDBX Classes
 90
        0
280
     0
281
     1
  0
CLASS
  1
ACDBPLACEHOLDER
  2
AcDbPlaceHolder
  3
ObjectDBX Classes
 90
        0
280
     0
281
     0
  0
CLASS
  1
LAYOUT
  2
AcDbLayout
  3
ObjectDBX Classes
 90
        0
280
     0
281
     0
  0
ENDSEC
  0
SECTION
  2
TABLES
  0
TABLE
  2
VPORT
  5
8
102
{ACAD_XDICTIONARY
360
52B
102
}
330
0
100
AcDbSymbolTable
 70
     1
  0
VPORT
  5
29
330
8
100
AcDbSymbolTableRecord
100
AcDbViewportTableRecord
  2
*ACTIVE
 70
     0
 10
0.0
 20
0.0
 11
1.0
 21
1.0
 12
585.0000000000001
 22
435.0
 13
0.0
 23
0.0
 14
10.0
 24
10.0
 15
10.0
 25
10.0
 16
0.0
 26
0.0
 36
1.0
 17
0.0
 27
0.0
 37
0.0
 40
810.0
 41
1.407407407407408
 42
50.0
 43
0.0
 44
0.0
 50
0.0
 51
0.0
 71
     0
 72
  1000
 73
     1
 74
     3
 75
     0
 76
     0
 77
     0
 78
     0
  0
ENDTAB
  0
TABLE
  2
LTYPE
  5
5
330
0
100
AcDbSymbolTable
 70
     6
  0
LTYPE
  5
14
330
5
100
AcDbSymbolTableRecord
100
AcDbLinetypeTableRecord
  2
BYBLOCK
 70
     0
  3

 72
    65
 73
     0
 40
0.0
  0
LTYPE
  5
15
330
5
100
AcDbSymbolTableRecord
100
AcDbLinetypeTableRecord
  2
BYLAYER
 70
     0
  3

 72
    65
 73
     0
 40
0.0
  0
LTYPE
  5
16
330
5
100
AcDbSymbolTableRecord
100
AcDbLinetypeTableRecord
  2
CONTINUOUS
 70
     0
  3
Solid line
 72
    65
 73
     0
 40
0.0
  0
LTYPE
  5
6E
330
5
100
AcDbSymbolTableRecord
100
AcDbLinetypeTableRecord
  2
HIDDEN
 70
     0
  3
Hidden __ __ __ __ __ __ __ __ __ __ __ __ __ __
 72
    65
 73
     2
 40
9.524999999999999
 49
6.35
 74
     0
 49
-3.175
 74
     0
  0
LTYPE
  5
6F
330
5
100
AcDbSymbolTableRecord
100
AcDbLinetypeTableRecord
  2
CENTER
 70
     0
  3
Center ____ _ ____ _ ____ _ ____ _ ____ _ ____
 72
    65
 73
     4
 40
50.8
 49
31.75
 74
     0
 49
-6.35
 74
     0
 49
6.35
 74
     0
 49
-6.35
 74
     0
  0
LTYPE
  5
70
330
5
100
AcDbSymbolTableRecord
100
AcDbLinetypeTableRecord
  2
PHANTOM
 70
     0
  3
Phantom ______  __  __  ______  __  __  ______ 
 72
    65
 73
     6
 40
63.50000000000001
 49
31.75
 74
     0
 49
-6.35
 74
     0
 49
6.35
 74
     0
 49
-6.35
 74
     0
 49
6.35
 74
     0
 49
-6.35
 74
     0
  0
LTYPE
  5
71
330
5
100
AcDbSymbolTableRecord
100
AcDbLinetypeTableRecord
  2
ACAD_ISO06W100
 70
     0
  3
ISO long-dash triple-dot ____ ... ____ ... ____
 72
    65
 73
     8
 40
36.0
 49
24.0
 74
     0
 49
-3.0
 74
     0
 49
0.0
 74
     0
 49
-3.0
 74
     0
 49
0.0
 74
     0
 49
-3.0
 74
     0
 49
0.0
 74
     0
 49
-3.0
 74
     0
  0
LTYPE
  5
72
330
5
100
AcDbSymbolTableRecord
100
AcDbLinetypeTableRecord
  2
ACAD_ISO15W100
 70
     0
  3
ISO double-dash triple-dot __ __ . . . __ __ . .
 72
    65
 73
    10
 40
39.0
 49
12.0
 74
     0
 49
-3.0
 74
     0
 49
12.0
 74
     0
 49
-3.0
 74
     0
 49
0.0
 74
     0
 49
-3.0
 74
     0
 49
0.0
 74
     0
 49
-3.0
 74
     0
 49
0.0
 74
     0
 49
-3.0
 74
     0
  0
ENDTAB
  0
TABLE
  2
LAYER
  5
2
330
0
100
AcDbSymbolTable
 70
     5
  0
LAYER
  5
10
330
2
100
AcDbSymbolTableRecord
100
AcDbLayerTableRecord
  2
0
 70
     0
 62
     7
  6
CONTINUOUS
  0
LAYER
  5
75
330
2
100
AcDbSymbolTableRecord
100
AcDbLayerTableRecord
  2
LAY-10
 70
     0
 62
     7
  6
CONTINUOUS
  0
LAYER
  5
76
330
2
100
AcDbSymbolTableRecord
100
AcDbLayerTableRecord
  2
LAY-20
 70
     0
 62
     7
  6
CONTINUOUS
  0
LAYER
  5
77
330
2
100
AcDbSymbolTableRecord
100
AcDbLayerTableRecord
  2
LAY-255
 70
     0
 62
     7
  6
CONTINUOUS
  0
LAYER
  5
43E
330
2
100
AcDbSymbolTableRecord
100
AcDbLayerTableRecord
  2
DEFPOINTS
 70
     0
 62
     7
  6
CONTINUOUS
  0
ENDTAB
  0
TABLE
  2
STYLE
  5
3
330
0
100
AcDbSymbolTable
 70
     4
  0
STYLE
  5
11
330
3
100
AcDbSymbolTableRecord
100
AcDbTextStyleTableRecord
  2
STANDARD
 70
     0
 40
0.0
 41
1.0
 50
0.0
 71
     0
 42
2.5
  3
simplex
  4
bigfont
  0
STYLE
  5
73
330
3
100
AcDbSymbolTableRecord
100
AcDbTextStyleTableRecord
  2
EXCADSTD
 70
     0
 40
0.0
 41
1.0
 50
0.0
 71
     0
 42
2.5
  3
simplex
  4
bigfont
  0
STYLE
  5
74
330
3
100
AcDbSymbolTableRecord
100
AcDbTextStyleTableRecord
  2
EXCADVERT
 70
     4
 40
0.0
 41
1.0
 50
0.0
 71
     0
 42
2.5
  3
simplex
  4
bigfont
  0
STYLE
  5
43C
330
3
100
AcDbSymbolTableRecord
100
AcDbTextStyleTableRecord
  2
EXCADDIM1
 70
     0
 40
0.0
 41
0.84
 50
0.0
 71
     0
 42
2.5
  3
simplex
  4
bigfont
  0
ENDTAB
  0
TABLE
  2
VIEW
  5
6
330
0
100
AcDbSymbolTable
 70
     0
  0
ENDTAB
  0
TABLE
  2
UCS
  5
7
330
0
100
AcDbSymbolTable
 70
     0
  0
ENDTAB
  0
TABLE
  2
APPID
  5
9
330
0
100
AcDbSymbolTable
 70
     2
  0
APPID
  5
12
330
9
100
AcDbSymbolTableRecord
100
AcDbRegAppTableRecord
  2
ACAD
 70
     0
  0
APPID
  5
535
330
9
100
AcDbSymbolTableRecord
100
AcDbRegAppTableRecord
  2
ACAD_MLEADERVER
 70
     0
  0
ENDTAB
  0
TABLE
  2
DIMSTYLE
  5
A
330
0
100
AcDbSymbolTable
 70
     1
  0
DIMSTYLE
105
27
102
{ACAD_REACTORS
330
43D
330
44B
330
458
330
465
330
472
330
47E
330
48A
330
497
330
4A4
330
4B1
330
4BE
330
4CB
102
}
330
A
100
AcDbSymbolTableRecord
100
AcDbDimStyleTableRecord
  2
ISO-25
 70
     0
  3

  4

  5

  6

  7

 40
1.0
 41
2.5
 42
0.625
 43
3.75
 44
1.25
 45
0.0
 46
0.0
 47
0.0
 48
0.0
140
2.5
141
2.5
142
0.0
143
0.03937007874016
144
1.0
145
0.0
146
1.0
147
0.625
 71
     0
 72
     0
 73
     0
 74
     0
 75
     0
 76
     0
 77
     1
 78
     8
170
     0
171
     3
172
     1
173
     0
174
     0
175
     0
176
     0
177
     0
178
     0
270
     2
271
     2
272
     2
273
     2
274
     3
340
11
275
     0
280
     0
281
     0
282
     0
283
     0
284
     8
285
     0
286
     0
287
     5
288
     0
  0
ENDTAB
  0
TABLE
  2
BLOCK_RECORD
  5
1
330
0
100
AcDbSymbolTable
 70
    26
  0
BLOCK_RECORD
  5
1F
330
1
100
AcDbSymbolTableRecord
100
AcDbBlockTableRecord
  2
*MODEL_SPACE
  0
BLOCK_RECORD
  5
1B
330
1
100
AcDbSymbolTableRecord
100
AcDbBlockTableRecord
  2
*PAPER_SPACE
  0
BLOCK_RECORD
  5
78
330
1
100
AcDbSymbolTableRecord
100
AcDbBlockTableRecord
  2
EX_NORM
  0
BLOCK_RECORD
  5
7B
330
1
100
AcDbSymbolTableRecord
100
AcDbBlockTableRecord
  2
EX_BNORM
  0
BLOCK_RECORD
  5
7E
330
1
100
AcDbSymbolTableRecord
100
AcDbBlockTableRecord
  2
EX_BCIR
  0
BLOCK_RECORD
  5
81
330
1
100
AcDbSymbolTableRecord
100
AcDbBlockTableRecord
  2
EX_RCIVIL
  0
BLOCK_RECORD
  5
84
330
1
100
AcDbSymbolTableRecord
100
AcDbBlockTableRecord
  2
EX_SLANT
  0
BLOCK_RECORD
  5
87
330
1
100
AcDbSymbolTableRecord
100
AcDbBlockTableRecord
  2
EX_NONE
  0
BLOCK_RECORD
  5
8A
330
1
100
AcDbSymbolTableRecord
100
AcDbBlockTableRecord
  2
EX_CIVIL
  0
BLOCK_RECORD
  5
8D
330
1
100
AcDbSymbolTableRecord
100
AcDbBlockTableRecord
  2
EX_WCIR
  0
BLOCK_RECORD
  5
90
330
1
100
AcDbSymbolTableRecord
100
AcDbBlockTableRecord
  2
EX_WCIR2
  0
BLOCK_RECORD
  5
93
330
1
100
AcDbSymbolTableRecord
100
AcDbBlockTableRecord
  2
EX_WNORM
  0
BLOCK_RECORD
  5
96
330
1
100
AcDbSymbolTableRecord
100
AcDbBlockTableRecord
  2
EX_NNORM
  0
BLOCK_RECORD
  5
99
330
1
100
AcDbSymbolTableRecord
100
AcDbBlockTableRecord
  2
EX_BBOX
  0
BLOCK_RECORD
  5
9C
330
1
100
AcDbSymbolTableRecord
100
AcDbBlockTableRecord
  2
EX_WBOX
  0
BLOCK_RECORD
  5
9F
330
1
100
AcDbSymbolTableRecord
100
AcDbBlockTableRecord
  2
EX_INTEGRAL
  0
BLOCK_RECORD
  5
43F
330
1
100
AcDbSymbolTableRecord
100
AcDbBlockTableRecord
  2
*D15
  0
BLOCK_RECORD
  5
44C
330
1
100
AcDbSymbolTableRecord
100
AcDbBlockTableRecord
  2
*D16
  0
BLOCK_RECORD
  5
459
330
1
100
AcDbSymbolTableRecord
100
AcDbBlockTableRecord
  2
*D17
  0
BLOCK_RECORD
  5
466
330
1
100
AcDbSymbolTableRecord
100
AcDbBlockTableRecord
  2
*D18
  0
BLOCK_RECORD
  5
473
330
1
100
AcDbSymbolTableRecord
100
AcDbBlockTableRecord
  2
*D19
  0
BLOCK_RECORD
  5
47F
330
1
100
AcDbSymbolTableRecord
100
AcDbBlockTableRecord
  2
*D20
  0
BLOCK_RECORD
  5
48B
330
1
100
AcDbSymbolTableRecord
100
AcDbBlockTableRecord
  2
*D21
  0
BLOCK_RECORD
  5
498
330
1
100
AcDbSymbolTableRecord
100
AcDbBlockTableRecord
  2
*D22
  0
BLOCK_RECORD
  5
4A5
330
1
100
AcDbSymbolTableRecord
100
AcDbBlockTableRecord
  2
*D23
  0
BLOCK_RECORD
  5
4B2
330
1
100
AcDbSymbolTableRecord
100
AcDbBlockTableRecord
  2
*D24
  0
BLOCK_RECORD
  5
4BF
330
1
100
AcDbSymbolTableRecord
100
AcDbBlockTableRecord
  2
*D25
  0
BLOCK_RECORD
  5
4CC
330
1
100
AcDbSymbolTableRecord
100
AcDbBlockTableRecord
  2
*D26
  0
ENDTAB
  0
ENDSEC
  0
SECTION
  2
BLOCKS
  0
BLOCK
  5
20
330
1F
100
AcDbEntity
  8
0
100
AcDbBlockBegin
  2
*MODEL_SPACE
 70
     0
 10
0.0
 20
0.0
 30
0.0
  3
*MODEL_SPACE
  1

  0
ENDBLK
  5
21
330
1F
100
AcDbEntity
  8
0
100
AcDbBlockEnd
  0
BLOCK
  5
1C
330
1B
100
AcDbEntity
 67
     1
  8
0
100
AcDbBlockBegin
  2
*PAPER_SPACE
 70
     0
 10
0.0
 20
0.0
 30
0.0
  3
*PAPER_SPACE
  1

  0
ENDBLK
  5
1D
330
1B
100
AcDbEntity
 67
     1
  8
0
100
AcDbBlockEnd
  0
BLOCK
  5
79
330
78
100
AcDbEntity
  8
0
100
AcDbBlockBegin
  2
EX_NORM
 70
     0
 10
0.0
 20
0.0
 30
0.0
  3
EX_NORM
  1

  0
LINE
  5
A2
330
78
100
AcDbEntity
  8
0
  6
CONTINUOUS
 62
     0
100
AcDbLine
 10
0.0
 20
0.0
 30
0.0
 11
-1.0
 21
0.0
 31
0.0
  0
LINE
  5
A3
330
78
100
AcDbEntity
  8
0
  6
CONTINUOUS
 62
     0
100
AcDbLine
 10
0.0
 20
0.0
 30
0.0
 11
-1.0
 21
0.166666667
 31
0.0
  0
LINE
  5
A4
330
78
100
AcDbEntity
  8
0
  6
CONTINUOUS
 62
     0
100
AcDbLine
 10
0.0
 20
0.0
 30
0.0
 11
-1.0
 21
-0.166666667
 31
0.0
  0
ENDBLK
  5
7A
330
78
100
AcDbEntity
  8
0
100
AcDbBlockEnd
  0
BLOCK
  5
7C
330
7B
100
AcDbEntity
  8
0
100
AcDbBlockBegin
  2
EX_BNORM
 70
     0
 10
0.0
 20
0.0
 30
0.0
  3
EX_BNORM
  1

  0
LINE
  5
A5
330
7B
100
AcDbEntity
  8
0
  6
CONTINUOUS
 62
     0
100
AcDbLine
 10
0.0
 20
0.0
 30
0.0
 11
-1.0
 21
0.0
 31
0.0
  0
LINE
  5
A6
330
7B
100
AcDbEntity
  8
0
  6
CONTINUOUS
 62
     0
100
AcDbLine
 10
0.0
 20
0.0
 30
0.0
 11
-1.0
 21
0.166666667
 31
0.0
  0
LINE
  5
A7
330
7B
100
AcDbEntity
  8
0
  6
CONTINUOUS
 62
     0
100
AcDbLine
 10
0.0
 20
0.0
 30
0.0
 11
-1.0
 21
-0.166666667
 31
0.0
  0
LINE
  5
A8
330
7B
100
AcDbEntity
  8
0
  6
CONTINUOUS
 62
     0
100
AcDbLine
 10
0.0
 20
0.0
 30
0.0
 11
-1.0
 21
0.083333333
 31
0.0
  0
LINE
  5
A9
330
7B
100
AcDbEntity
  8
0
  6
CONTINUOUS
 62
     0
100
AcDbLine
 10
0.0
 20
0.0
 30
0.0
 11
-1.0
 21
-0.083333333
 31
0.0
  0
LINE
  5
AA
330
7B
100
AcDbEntity
  8
0
  6
CONTINUOUS
 62
     0
100
AcDbLine
 10
-1.0
 20
0.166666667
 30
0.0
 11
-1.0
 21
-0.166666667
 31
0.0
  0
ENDBLK
  5
7D
330
7B
100
AcDbEntity
  8
0
100
AcDbBlockEnd
  0
BLOCK
  5
7F
330
7E
100
AcDbEntity
  8
0
100
AcDbBlockBegin
  2
EX_BCIR
 70
     0
 10
0.0
 20
0.0
 30
0.0
  3
EX_BCIR
  1

  0
LINE
  5
AB
330
7E
100
AcDbEntity
  8
0
  6
CONTINUOUS
 62
     0
100
AcDbLine
 10
0.0
 20
0.0
 30
0.0
 11
-1.0
 21
0.0
 31
0.0
  0
CIRCLE
  5
AC
330
7E
100
AcDbEntity
  8
0
  6
CONTINUOUS
 62
     0
100
AcDbCircle
 10
0.0
 20
0.0
 30
0.0
 40
0.5
  0
CIRCLE
  5
AD
330
7E
100
AcDbEntity
  8
0
  6
CONTINUOUS
 62
     0
100
AcDbCircle
 10
0.0
 20
0.0
 30
0.0
 40
0.25
  0
ENDBLK
  5
80
330
7E
100
AcDbEntity
  8
0
100
AcDbBlockEnd
  0
BLOCK
  5
82
330
81
100
AcDbEntity
  8
0
100
AcDbBlockBegin
  2
EX_RCIVIL
 70
     0
 10
0.0
 20
0.0
 30
0.0
  3
EX_RCIVIL
  1

  0
LINE
  5
AE
330
81
100
AcDbEntity
  8
0
  6
CONTINUOUS
 62
     0
100
AcDbLine
 10
0.0
 20
0.0
 30
0.0
 11
-1.0
 21
0.0
 31
0.0
  0
LINE
  5
AF
330
81
100
AcDbEntity
  8
0
  6
CONTINUOUS
 62
     0
100
AcDbLine
 10
-1.0
 20
-0.25
 30
0.0
 11
0.0
 21
-0.25
 31
0.0
  0
LINE
  5
B0
330
81
100
AcDbEntity
  8
0
  6
CONTINUOUS
 62
     0
100
AcDbLine
 10
-1.0
 20
-0.125
 30
0.0
 11
0.0
 21
-0.125
 31
0.0
  0
ENDBLK
  5
83
330
81
100
AcDbEntity
  8
0
100
AcDbBlockEnd
  0
BLOCK
  5
85
330
84
100
AcDbEntity
  8
0
100
AcDbBlockBegin
  2
EX_SLANT
 70
     0
 10
0.0
 20
0.0
 30
0.0
  3
EX_SLANT
  1

  0
LINE
  5
B1
330
84
100
AcDbEntity
  8
0
  6
CONTINUOUS
 62
     0
100
AcDbLine
 10
0.0
 20
0.0
 30
0.0
 11
-1.0
 21
0.0
 31
0.0
  0
LINE
  5
B2
330
84
100
AcDbEntity
  8
0
  6
CONTINUOUS
 62
     0
100
AcDbLine
 10
0.707106781
 20
0.707106781
 30
0.0
 11
-0.707106781
 21
-0.707106781
 31
0.0
  0
ENDBLK
  5
86
330
84
100
AcDbEntity
  8
0
100
AcDbBlockEnd
  0
BLOCK
  5
88
330
87
100
AcDbEntity
  8
0
100
AcDbBlockBegin
  2
EX_NONE
 70
     0
 10
0.0
 20
0.0
 30
0.0
  3
EX_NONE
  1

  0
LINE
  5
B3
330
87
100
AcDbEntity
  8
0
  6
CONTINUOUS
 62
     0
100
AcDbLine
 10
0.0
 20
0.0
 30
0.0
 11
-1.0
 21
0.0
 31
0.0
  0
ENDBLK
  5
89
330
87
100
AcDbEntity
  8
0
100
AcDbBlockEnd
  0
BLOCK
  5
8B
330
8A
100
AcDbEntity
  8
0
100
AcDbBlockBegin
  2
EX_CIVIL
 70
     0
 10
0.0
 20
0.0
 30
0.0
  3
EX_CIVIL
  1

  0
LINE
  5
B4
330
8A
100
AcDbEntity
  8
0
  6
CONTINUOUS
 62
     0
100
AcDbLine
 10
0.0
 20
0.0
 30
0.0
 11
-1.0
 21
0.0
 31
0.0
  0
LINE
  5
B5
330
8A
100
AcDbEntity
  8
0
  6
CONTINUOUS
 62
     0
100
AcDbLine
 10
-1.0
 20
0.25
 30
0.0
 11
0.0
 21
0.25
 31
0.0
  0
LINE
  5
B6
330
8A
100
AcDbEntity
  8
0
  6
CONTINUOUS
 62
     0
100
AcDbLine
 10
-1.0
 20
0.125
 30
0.0
 11
0.0
 21
0.125
 31
0.0
  0
ENDBLK
  5
8C
330
8A
100
AcDbEntity
  8
0
100
AcDbBlockEnd
  0
BLOCK
  5
8E
330
8D
100
AcDbEntity
  8
0
100
AcDbBlockBegin
  2
EX_WCIR
 70
     0
 10
0.0
 20
0.0
 30
0.0
  3
EX_WCIR
  1

  0
LINE
  5
B7
330
8D
100
AcDbEntity
  8
0
  6
CONTINUOUS
 62
     0
100
AcDbLine
 10
0.0
 20
0.0
 30
0.0
 11
-1.0
 21
0.0
 31
0.0
  0
CIRCLE
  5
B8
330
8D
100
AcDbEntity
  8
0
  6
CONTINUOUS
 62
     0
100
AcDbCircle
 10
0.0
 20
0.0
 30
0.0
 40
0.5
  0
ENDBLK
  5
8F
330
8D
100
AcDbEntity
  8
0
100
AcDbBlockEnd
  0
BLOCK
  5
91
330
90
100
AcDbEntity
  8
0
100
AcDbBlockBegin
  2
EX_WCIR2
 70
     0
 10
0.0
 20
0.0
 30
0.0
  3
EX_WCIR2
  1

  0
LINE
  5
B9
330
90
100
AcDbEntity
  8
0
  6
CONTINUOUS
 62
     0
100
AcDbLine
 10
-0.5
 20
0.0
 30
0.0
 11
-1.0
 21
0.0
 31
0.0
  0
CIRCLE
  5
BA
330
90
100
AcDbEntity
  8
0
  6
CONTINUOUS
 62
     0
100
AcDbCircle
 10
0.0
 20
0.0
 30
0.0
 40
0.5
  0
ENDBLK
  5
92
330
90
100
AcDbEntity
  8
0
100
AcDbBlockEnd
  0
BLOCK
  5
94
330
93
100
AcDbEntity
  8
0
100
AcDbBlockBegin
  2
EX_WNORM
 70
     0
 10
0.0
 20
0.0
 30
0.0
  3
EX_WNORM
  1

  0
LINE
  5
BB
330
93
100
AcDbEntity
  8
0
  6
CONTINUOUS
 62
     0
100
AcDbLine
 10
-1.0
 20
0.0
 30
0.0
 11
-1.0
 21
0.0
 31
0.0
  0
LINE
  5
BC
330
93
100
AcDbEntity
  8
0
  6
CONTINUOUS
 62
     0
100
AcDbLine
 10
0.0
 20
0.0
 30
0.0
 11
-1.0
 21
0.166666667
 31
0.0
  0
LINE
  5
BD
330
93
100
AcDbEntity
  8
0
  6
CONTINUOUS
 62
     0
100
AcDbLine
 10
0.0
 20
0.0
 30
0.0
 11
-1.0
 21
-0.166666667
 31
0.0
  0
LINE
  5
BE
330
93
100
AcDbEntity
  8
0
  6
CONTINUOUS
 62
     0
100
AcDbLine
 10
-1.0
 20
0.166666667
 30
0.0
 11
-1.0
 21
-0.166666667
 31
0.0
  0
ENDBLK
  5
95
330
93
100
AcDbEntity
  8
0
100
AcDbBlockEnd
  0
BLOCK
  5
97
330
96
100
AcDbEntity
  8
0
100
AcDbBlockBegin
  2
EX_NNORM
 70
     0
 10
0.0
 20
0.0
 30
0.0
  3
EX_NNORM
  1

  0
LINE
  5
BF
330
96
100
AcDbEntity
  8
0
  6
CONTINUOUS
 62
     0
100
AcDbLine
 10
0.0
 20
0.0
 30
0.0
 11
-1.0
 21
0.0
 31
0.0
  0
LINE
  5
C0
330
96
100
AcDbEntity
  8
0
  6
CONTINUOUS
 62
     0
100
AcDbLine
 10
0.0
 20
0.0
 30
0.0
 11
-1.0
 21
0.166666667
 31
0.0
  0
LINE
  5
C1
330
96
100
AcDbEntity
  8
0
  6
CONTINUOUS
 62
     0
100
AcDbLine
 10
0.0
 20
0.0
 30
0.0
 11
-1.0
 21
-0.166666667
 31
0.0
  0
LINE
  5
C2
330
96
100
AcDbEntity
  8
0
  6
CONTINUOUS
 62
     0
100
AcDbLine
 10
-1.0
 20
0.166666667
 30
0.0
 11
-1.0
 21
-0.166666667
 31
0.0
  0
ENDBLK
  5
98
330
96
100
AcDbEntity
  8
0
100
AcDbBlockEnd
  0
BLOCK
  5
9A
330
99
100
AcDbEntity
  8
0
100
AcDbBlockBegin
  2
EX_BBOX
 70
     0
 10
0.0
 20
0.0
 30
0.0
  3
EX_BBOX
  1

  0
LINE
  5
C3
330
99
100
AcDbEntity
  8
0
  6
CONTINUOUS
 62
     0
100
AcDbLine
 10
0.0
 20
0.0
 30
0.0
 11
-1.0
 21
0.0
 31
0.0
  0
LINE
  5
C4
330
99
100
AcDbEntity
  8
0
  6
CONTINUOUS
 62
     0
100
AcDbLine
 10
-0.5
 20
0.5
 30
0.0
 11
0.5
 21
0.5
 31
0.0
  0
LINE
  5
C5
330
99
100
AcDbEntity
  8
0
  6
CONTINUOUS
 62
     0
100
AcDbLine
 10
0.5
 20
0.5
 30
0.0
 11
0.5
 21
-0.5
 31
0.0
  0
LINE
  5
C6
330
99
100
AcDbEntity
  8
0
  6
CONTINUOUS
 62
     0
100
AcDbLine
 10
0.5
 20
-0.5
 30
0.0
 11
-0.5
 21
-0.5
 31
0.0
  0
LINE
  5
C7
330
99
100
AcDbEntity
  8
0
  6
CONTINUOUS
 62
     0
100
AcDbLine
 10
-0.5
 20
-0.5
 30
0.0
 11
-0.5
 21
0.5
 31
0.0
  0
LINE
  5
C8
330
99
100
AcDbEntity
  8
0
  6
CONTINUOUS
 62
     0
100
AcDbLine
 10
-0.25
 20
0.25
 30
0.0
 11
0.25
 21
0.25
 31
0.0
  0
LINE
  5
C9
330
99
100
AcDbEntity
  8
0
  6
CONTINUOUS
 62
     0
100
AcDbLine
 10
0.25
 20
0.25
 30
0.0
 11
0.25
 21
-0.25
 31
0.0
  0
LINE
  5
CA
330
99
100
AcDbEntity
  8
0
  6
CONTINUOUS
 62
     0
100
AcDbLine
 10
0.25
 20
-0.25
 30
0.0
 11
-0.25
 21
-0.25
 31
0.0
  0
LINE
  5
CB
330
99
100
AcDbEntity
  8
0
  6
CONTINUOUS
 62
     0
100
AcDbLine
 10
-0.25
 20
-0.25
 30
0.0
 11
-0.25
 21
0.25
 31
0.0
  0
ENDBLK
  5
9B
330
99
100
AcDbEntity
  8
0
100
AcDbBlockEnd
  0
BLOCK
  5
9D
330
9C
100
AcDbEntity
  8
0
100
AcDbBlockBegin
  2
EX_WBOX
 70
     0
 10
0.0
 20
0.0
 30
0.0
  3
EX_WBOX
  1

  0
LINE
  5
CC
330
9C
100
AcDbEntity
  8
0
  6
CONTINUOUS
 62
     0
100
AcDbLine
 10
-0.5
 20
0.0
 30
0.0
 11
-1.0
 21
0.0
 31
0.0
  0
LINE
  5
CD
330
9C
100
AcDbEntity
  8
0
  6
CONTINUOUS
 62
     0
100
AcDbLine
 10
-0.5
 20
0.5
 30
0.0
 11
0.5
 21
0.5
 31
0.0
  0
LINE
  5
CE
330
9C
100
AcDbEntity
  8
0
  6
CONTINUOUS
 62
     0
100
AcDbLine
 10
0.5
 20
0.5
 30
0.0
 11
0.5
 21
-0.5
 31
0.0
  0
LINE
  5
CF
330
9C
100
AcDbEntity
  8
0
  6
CONTINUOUS
 62
     0
100
AcDbLine
 10
0.5
 20
-0.5
 30
0.0
 11
-0.5
 21
-0.5
 31
0.0
  0
LINE
  5
D0
330
9C
100
AcDbEntity
  8
0
  6
CONTINUOUS
 62
     0
100
AcDbLine
 10
-0.5
 20
-0.5
 30
0.0
 11
-0.5
 21
0.5
 31
0.0
  0
ENDBLK
  5
9E
330
9C
100
AcDbEntity
  8
0
100
AcDbBlockEnd
  0
BLOCK
  5
A0
330
9F
100
AcDbEntity
  8
0
100
AcDbBlockBegin
  2
EX_INTEGRAL
 70
     0
 10
0.0
 20
0.0
 30
0.0
  3
EX_INTEGRAL
  1

  0
LINE
  5
D1
330
9F
100
AcDbEntity
  8
0
  6
CONTINUOUS
 62
     0
100
AcDbLine
 10
0.0
 20
0.0
 30
0.0
 11
-1.0
 21
0.0
 31
0.0
  0
ARC
  5
D2
330
9F
100
AcDbEntity
  8
0
  6
CONTINUOUS
 62
     0
100
AcDbCircle
 10
0.542115
 20
0.164992
 30
0.0
 40
0.56667
100
AcDbArc
 50
73.07249033629006
 51
196.9275130221199
  0
ARC
  5
D3
330
9F
100
AcDbEntity
  8
0
  6
CONTINUOUS
 62
     0
100
AcDbCircle
 10
-0.542115
 20
-0.164992
 30
0.0
 40
0.56667
100
AcDbArc
 50
253.0724869220464
 51
16.9275130559125
  0
ENDBLK
  5
A1
330
9F
100
AcDbEntity
  8
0
100
AcDbBlockEnd
  0
BLOCK
  5
440
330
43F
100
AcDbEntity
  8
0
100
AcDbBlockBegin
  2
*D15
 70
     1
 10
0.0
 20
0.0
 30
0.0
  3
*D15
  1

  0
LINE
  5
442
330
43F
100
AcDbEntity
  8
LAY-20
  6
CONTINUOUS
 62
     4
100
AcDbLine
 10
191.80000000001
 20
348.88376068376
 30
0.0
 11
191.80000000001
 21
378.88376068376
 31
0.0
  0
LINE
  5
443
330
43F
100
AcDbEntity
  8
LAY-20
  6
CONTINUOUS
 62
     4
100
AcDbLine
 10
336.79999999999
 20
348.88376068376
 30
0.0
 11
336.79999999999
 21
378.88376068376
 31
0.0
  0
LINE
  5
444
330
43F
100
AcDbEntity
  8
LAY-20
  6
CONTINUOUS
 62
     4
100
AcDbLine
 10
200.80000000001
 20
374.38376068376
 30
0.0
 11
327.79999999999
 21
374.38376068376
 31
0.0
  0
INSERT
  5
445
330
43F
100
AcDbEntity
  8
LAY-20
 62
     4
100
AcDbBlockReference
  2
EX_BNORM
 10
191.80000000001
 20
374.38376068376
 30
0.0
 41
9.0
 42
9.0
 43
9.0
 50
180.0
  0
INSERT
  5
446
330
43F
100
AcDbEntity
  8
LAY-20
 62
     4
100
AcDbBlockReference
  2
EX_BNORM
 10
336.79999999999
 20
374.38376068376
 30
0.0
 41
9.0
 42
9.0
 43
9.0
  0
MTEXT
  5
447
330
43F
100
AcDbEntity
  8
LAY-20
 62
     7
100
AcDbMText
 10
264.8700000000001
 20
381.88376068376
 30
0.0
 40
9.3543312
 41
0.0
 71
     5
 72
     1
  1
%%c145
  7
EXCADDIM1
  0
POINT
  5
448
330
43F
100
AcDbEntity
  8
DEFPOINTS
 62
     0
100
AcDbPoint
 10
191.80000000001
 20
344.38376068376
 30
0.0
  0
POINT
  5
449
330
43F
100
AcDbEntity
  8
DEFPOINTS
 62
     0
100
AcDbPoint
 10
336.79999999999
 20
344.38376068376
 30
0.0
  0
POINT
  5
44A
330
43F
100
AcDbEntity
  8
DEFPOINTS
 62
     0
100
AcDbPoint
 10
336.79999999999
 20
374.38376068376
 30
0.0
  0
ENDBLK
  5
441
330
43F
100
AcDbEntity
  8
0
100
AcDbBlockEnd
  0
BLOCK
  5
44D
330
44C
100
AcDbEntity
  8
0
100
AcDbBlockBegin
  2
*D16
 70
     1
 10
0.0
 20
0.0
 30
0.0
  3
*D16
  1

  0
LINE
  5
44F
330
44C
100
AcDbEntity
  8
LAY-20
  6
CONTINUOUS
 62
     4
100
AcDbLine
 10
173.3
 20
310.3837606838
 30
0.0
 11
173.3
 21
399.8837606837599
 31
0.0
  0
LINE
  5
450
330
44C
100
AcDbEntity
  8
LAY-20
  6
CONTINUOUS
 62
     4
100
AcDbLine
 10
451.3
 20
310.3837606838
 30
0.0
 11
451.3
 21
399.8837606837599
 31
0.0
  0
LINE
  5
451
330
44C
100
AcDbEntity
  8
LAY-20
  6
CONTINUOUS
 62
     4
100
AcDbLine
 10
182.3
 20
395.3837606837599
 30
0.0
 11
442.3
 21
395.3837606837599
 31
0.0
  0
INSERT
  5
452
330
44C
100
AcDbEntity
  8
LAY-20
 62
     4
100
AcDbBlockReference
  2
EX_BNORM
 10
173.3
 20
395.3837606837599
 30
0.0
 41
9.0
 42
9.0
 43
9.0
 50
180.0
  0
INSERT
  5
453
330
44C
100
AcDbEntity
  8
LAY-20
 62
     4
100
AcDbBlockReference
  2
EX_BNORM
 10
451.3
 20
395.3837606837599
 30
0.0
 41
9.0
 42
9.0
 43
9.0
  0
MTEXT
  5
454
330
44C
100
AcDbEntity
  8
LAY-20
 62
     7
100
AcDbMText
 10
312.3000000000001
 20
402.8837606837599
 30
0.0
 40
9.3543312
 41
0.0
 71
     5
 72
     1
  1
278
  7
EXCADDIM1
  0
POINT
  5
455
330
44C
100
AcDbEntity
  8
DEFPOINTS
 62
     0
100
AcDbPoint
 10
173.3
 20
305.8837606838
 30
0.0
  0
POINT
  5
456
330
44C
100
AcDbEntity
  8
DEFPOINTS
 62
     0
100
AcDbPoint
 10
451.3
 20
305.8837606838
 30
0.0
  0
POINT
  5
457
330
44C
100
AcDbEntity
  8
DEFPOINTS
 62
     0
100
AcDbPoint
 10
451.3
 20
395.3837606837599
 30
0.0
  0
ENDBLK
  5
44E
330
44C
100
AcDbEntity
  8
0
100
AcDbBlockEnd
  0
BLOCK
  5
45A
330
459
100
AcDbEntity
  8
0
100
AcDbBlockBegin
  2
*D17
 70
     1
 10
0.0
 20
0.0
 30
0.0
  3
*D17
  1

  0
LINE
  5
45C
330
459
100
AcDbEntity
  8
LAY-20
  6
CONTINUOUS
 62
     4
100
AcDbLine
 10
149.3
 20
272.8364834836599
 30
0.0
 11
149.3
 21
420.8837606837599
 31
0.0
  0
LINE
  5
45D
330
459
100
AcDbEntity
  8
LAY-20
  6
CONTINUOUS
 62
     4
100
AcDbLine
 10
479.30000000002
 20
272.8364834836599
 30
0.0
 11
479.30000000002
 21
420.8837606837599
 31
0.0
  0
LINE
  5
45E
330
459
100
AcDbEntity
  8
LAY-20
  6
CONTINUOUS
 62
     4
100
AcDbLine
 10
158.3
 20
416.3837606837599
 30
0.0
 11
470.30000000002
 21
416.3837606837599
 31
0.0
  0
INSERT
  5
45F
330
459
100
AcDbEntity
  8
LAY-20
 62
     4
100
AcDbBlockReference
  2
EX_BNORM
 10
149.3
 20
416.3837606837599
 30
0.0
 41
9.0
 42
9.0
 43
9.0
 50
180.0
  0
INSERT
  5
460
330
459
100
AcDbEntity
  8
LAY-20
 62
     4
100
AcDbBlockReference
  2
EX_BNORM
 10
479.30000000002
 20
416.3837606837599
 30
0.0
 41
9.0
 42
9.0
 43
9.0
  0
MTEXT
  5
461
330
459
100
AcDbEntity
  8
LAY-20
 62
     7
100
AcDbMText
 10
314.3000000000101
 20
423.8837606837599
 30
0.0
 40
9.3543312
 41
0.0
 71
     5
 72
     1
  1
330
  7
EXCADDIM1
  0
POINT
  5
462
330
459
100
AcDbEntity
  8
DEFPOINTS
 62
     0
100
AcDbPoint
 10
149.3
 20
268.3364834836599
 30
0.0
  0
POINT
  5
463
330
459
100
AcDbEntity
  8
DEFPOINTS
 62
     0
100
AcDbPoint
 10
479.30000000002
 20
268.3364834836599
 30
0.0
  0
POINT
  5
464
330
459
100
AcDbEntity
  8
DEFPOINTS
 62
     0
100
AcDbPoint
 10
479.30000000002
 20
416.3837606837599
 30
0.0
  0
ENDBLK
  5
45B
330
459
100
AcDbEntity
  8
0
100
AcDbBlockEnd
  0
BLOCK
  5
467
330
466
100
AcDbEntity
  8
0
100
AcDbBlockBegin
  2
*D18
 70
     1
 10
0.0
 20
0.0
 30
0.0
  3
*D18
  1

  0
LINE
  5
469
330
466
100
AcDbEntity
  8
LAY-20
  6
CONTINUOUS
 62
     4
100
AcDbLine
 10
351.3
 20
190.3364834836
 30
0.0
 11
520.3
 21
190.3364834835999
 31
0.0
  0
LINE
  5
46A
330
466
100
AcDbEntity
  8
LAY-20
  6
CONTINUOUS
 62
     4
100
AcDbLine
 10
482.8
 20
275.33648348366
 30
0.0
 11
520.3
 21
275.33648348366
 31
0.0
  0
LINE
  5
46B
330
466
100
AcDbEntity
  8
LAY-20
  6
CONTINUOUS
 62
     4
100
AcDbLine
 10
515.8
 20
199.3364834835999
 30
0.0
 11
515.8
 21
266.33648348366
 31
0.0
  0
INSERT
  5
46C
330
466
100
AcDbEntity
  8
LAY-20
 62
     4
100
AcDbBlockReference
  2
EX_BNORM
 10
515.8
 20
190.3364834835999
 30
0.0
 41
9.0
 42
9.0
 43
9.0
 50
270.0
  0
INSERT
  5
46D
330
466
100
AcDbEntity
  8
LAY-20
 62
     4
100
AcDbBlockReference
  2
EX_BNORM
 10
515.8
 20
275.33648348366
 30
0.0
 41
9.0
 42
9.0
 43
9.0
 50
90.0
  0
MTEXT
  5
46E
330
466
100
AcDbEntity
  8
LAY-20
 62
     7
100
AcDbMText
 10
508.3
 20
232.83648348363
 30
0.0
 40
9.3543312
 41
0.0
 71
     5
 72
     1
  1
85
  7
EXCADDIM1
 11
0.0
 21
1.0
 31
0.0
  0
POINT
  5
46F
330
466
100
AcDbEntity
  8
DEFPOINTS
 62
     0
100
AcDbPoint
 10
346.8
 20
190.3364834836
 30
0.0
  0
POINT
  5
470
330
466
100
AcDbEntity
  8
DEFPOINTS
 62
     0
100
AcDbPoint
 10
478.3
 20
275.33648348366
 30
0.0
  0
POINT
  5
471
330
466
100
AcDbEntity
  8
DEFPOINTS
 62
     0
100
AcDbPoint
 10
515.8
 20
275.33648348366
 30
0.0
  0
ENDBLK
  5
468
330
466
100
AcDbEntity
  8
0
100
AcDbBlockEnd
  0
BLOCK
  5
474
330
473
100
AcDbEntity
  8
0
100
AcDbBlockBegin
  2
*D19
 70
     1
 10
0.0
 20
0.0
 30
0.0
  3
*D19
  1

  0
LINE
  5
476
330
473
100
AcDbEntity
  8
LAY-20
  6
CONTINUOUS
 62
     4
100
AcDbLine
 10
455.8
 20
305.8837606838
 30
0.0
 11
520.3
 21
305.8837606837999
 31
0.0
  0
LINE
  5
477
330
473
100
AcDbEntity
  8
LAY-20
  6
CONTINUOUS
 62
     4
100
AcDbLine
 10
515.8
 20
284.33648348366
 30
0.0
 11
515.8
 21
296.8837606837999
 31
0.0
  0
INSERT
  5
478
330
473
100
AcDbEntity
  8
LAY-20
 62
     4
100
AcDbBlockReference
  2
EX_BNORM
 10
515.8
 20
275.33648348366
 30
0.0
 41
9.0
 42
9.0
 43
9.0
 50
270.0
  0
INSERT
  5
479
330
473
100
AcDbEntity
  8
LAY-20
 62
     4
100
AcDbBlockReference
  2
EX_BNORM
 10
515.8
 20
305.8837606837999
 30
0.0
 41
9.0
 42
9.0
 43
9.0
 50
90.0
  0
MTEXT
  5
47A
330
473
100
AcDbEntity
  8
LAY-20
 62
     7
100
AcDbMText
 10
508.3
 20
290.61012208373
 30
0.0
 40
9.3543312
 41
0.0
 71
     5
 72
     1
  1
31
  7
EXCADDIM1
 11
0.0
 21
1.0
 31
0.0
  0
POINT
  5
47B
330
473
100
AcDbEntity
  8
DEFPOINTS
 62
     0
100
AcDbPoint
 10
515.8
 20
275.33648348366
 30
0.0
  0
POINT
  5
47C
330
473
100
AcDbEntity
  8
DEFPOINTS
 62
     0
100
AcDbPoint
 10
451.3
 20
305.8837606838
 30
0.0
  0
POINT
  5
47D
330
473
100
AcDbEntity
  8
DEFPOINTS
 62
     0
100
AcDbPoint
 10
515.8
 20
305.8837606837999
 30
0.0
  0
ENDBLK
  5
475
330
473
100
AcDbEntity
  8
0
100
AcDbBlockEnd
  0
BLOCK
  5
480
330
47F
100
AcDbEntity
  8
0
100
AcDbBlockBegin
  2
*D20
 70
     1
 10
0.0
 20
0.0
 30
0.0
  3
*D20
  1

  0
LINE
  5
482
330
47F
100
AcDbEntity
  8
LAY-20
  6
CONTINUOUS
 62
     4
100
AcDbLine
 10
345.79999999999
 20
344.38376068376
 30
0.0
 11
520.3
 21
344.3837606837599
 31
0.0
  0
LINE
  5
483
330
47F
100
AcDbEntity
  8
LAY-20
  6
CONTINUOUS
 62
     4
100
AcDbLine
 10
515.8
 20
335.3837606837599
 30
0.0
 11
515.8
 21
314.8837606838
 31
0.0
  0
INSERT
  5
484
330
47F
100
AcDbEntity
  8
LAY-20
 62
     4
100
AcDbBlockReference
  2
EX_BNORM
 10
515.8
 20
344.3837606837599
 30
0.0
 41
9.0
 42
9.0
 43
9.0
 50
90.0
  0
INSERT
  5
485
330
47F
100
AcDbEntity
  8
LAY-20
 62
     4
100
AcDbBlockReference
  2
EX_BNORM
 10
515.8
 20
305.8837606838
 30
0.0
 41
9.0
 42
9.0
 43
9.0
 50
270.0
  0
MTEXT
  5
486
330
47F
100
AcDbEntity
  8
LAY-20
 62
     7
100
AcDbMText
 10
508.3
 20
325.13376068378
 30
0.0
 40
9.3543312
 41
0.0
 71
     5
 72
     1
  1
39
  7
EXCADDIM1
 11
0.0
 21
1.0
 31
0.0
  0
POINT
  5
487
330
47F
100
AcDbEntity
  8
DEFPOINTS
 62
     0
100
AcDbPoint
 10
341.29999999999
 20
344.38376068376
 30
0.0
  0
POINT
  5
488
330
47F
100
AcDbEntity
  8
DEFPOINTS
 62
     0
100
AcDbPoint
 10
515.8
 20
305.8837606838
 30
0.0
  0
POINT
  5
489
330
47F
100
AcDbEntity
  8
DEFPOINTS
 62
     0
100
AcDbPoint
 10
515.8
 20
305.8837606838
 30
0.0
  0
ENDBLK
  5
481
330
47F
100
AcDbEntity
  8
0
100
AcDbBlockEnd
  0
BLOCK
  5
48C
330
48B
100
AcDbEntity
  8
0
100
AcDbBlockBegin
  2
*D21
 70
     1
 10
0.0
 20
0.0
 30
0.0
  3
*D21
  1

  0
LINE
  5
48E
330
48B
100
AcDbEntity
  8
LAY-20
  6
CONTINUOUS
 62
     4
100
AcDbLine
 10
195.08500000001
 20
205.83648348366
 30
0.0
 11
195.08500000001
 21
155.8364834836
 31
0.0
  0
LINE
  5
48F
330
48B
100
AcDbEntity
  8
LAY-20
  6
CONTINUOUS
 62
     4
100
AcDbLine
 10
333.51499999999
 20
205.83648348366
 30
0.0
 11
333.51499999999
 21
155.8364834836
 31
0.0
  0
LINE
  5
490
330
48B
100
AcDbEntity
  8
LAY-20
  6
CONTINUOUS
 62
     4
100
AcDbLine
 10
204.08500000001
 20
160.3364834836
 30
0.0
 11
324.51499999999
 21
160.3364834836
 31
0.0
  0
INSERT
  5
491
330
48B
100
AcDbEntity
  8
LAY-20
 62
     4
100
AcDbBlockReference
  2
EX_BNORM
 10
195.08500000001
 20
160.3364834836
 30
0.0
 41
9.0
 42
9.0
 43
9.0
 50
180.0
  0
INSERT
  5
492
330
48B
100
AcDbEntity
  8
LAY-20
 62
     4
100
AcDbBlockReference
  2
EX_BNORM
 10
333.51499999999
 20
160.3364834836
 30
0.0
 41
9.0
 42
9.0
 43
9.0
  0
MTEXT
  5
493
330
48B
100
AcDbEntity
  8
LAY-20
 62
     7
100
AcDbMText
 10
264.3
 20
167.8364834836
 30
0.0
 40
9.3543312
 41
0.0
 71
     5
 72
     1
  1
Rｃ5（138.4）
  7
EXCADDIM1
  0
POINT
  5
494
330
48B
100
AcDbEntity
  8
DEFPOINTS
 62
     0
100
AcDbPoint
 10
195.08500000001
 20
210.33648348366
 30
0.0
  0
POINT
  5
495
330
48B
100
AcDbEntity
  8
DEFPOINTS
 62
     0
100
AcDbPoint
 10
333.51499999999
 20
210.33648348366
 30
0.0
  0
POINT
  5
496
330
48B
100
AcDbEntity
  8
DEFPOINTS
 62
     0
100
AcDbPoint
 10
333.51499999999
 20
160.3364834836
 30
0.0
  0
ENDBLK
  5
48D
330
48B
100
AcDbEntity
  8
0
100
AcDbBlockEnd
  0
BLOCK
  5
499
330
498
100
AcDbEntity
  8
0
100
AcDbBlockBegin
  2
*D22
 70
     1
 10
0.0
 20
0.0
 30
0.0
  3
*D22
  1

  0
LINE
  5
49B
330
498
100
AcDbEntity
  8
LAY-20
  6
CONTINUOUS
 62
     4
100
AcDbLine
 10
697.647277200101
 20
509.6
 30
0.0
 11
549.600000000001
 21
509.6000000000001
 31
0.0
  0
LINE
  5
49C
330
498
100
AcDbEntity
  8
LAY-20
  6
CONTINUOUS
 62
     4
100
AcDbLine
 10
697.647277200101
 20
739.6
 30
0.0
 11
549.600000000001
 21
739.6
 31
0.0
  0
LINE
  5
49D
330
498
100
AcDbEntity
  8
LAY-20
  6
CONTINUOUS
 62
     4
100
AcDbLine
 10
554.100000000001
 20
517.1000000000001
 30
0.0
 11
554.100000000001
 21
732.1
 31
0.0
  0
INSERT
  5
49E
330
498
100
AcDbEntity
  8
LAY-20
 62
     4
100
AcDbBlockReference
  2
EX_BNORM
 10
554.100000000001
 20
509.6000000000001
 30
0.0
 41
7.5
 42
7.5
 43
7.5
 50
270.0
  0
INSERT
  5
49F
330
498
100
AcDbEntity
  8
LAY-20
 62
     4
100
AcDbBlockReference
  2
EX_BNORM
 10
554.100000000001
 20
739.6
 30
0.0
 41
7.5
 42
7.5
 43
7.5
 50
90.0
  0
MTEXT
  5
4A0
330
498
100
AcDbEntity
  8
LAY-20
 62
     7
100
AcDbMText
 10
546.600000000001
 20
624.6
 30
0.0
 40
9.3543312
 41
0.0
 71
     5
 72
     1
  1
230
  7
EXCADDIM1
 11
0.0
 21
1.0
 31
0.0
  0
POINT
  5
4A1
330
498
100
AcDbEntity
  8
DEFPOINTS
 62
     0
100
AcDbPoint
 10
702.147277200101
 20
509.6
 30
0.0
  0
POINT
  5
4A2
330
498
100
AcDbEntity
  8
DEFPOINTS
 62
     0
100
AcDbPoint
 10
702.147277200101
 20
739.6
 30
0.0
  0
POINT
  5
4A3
330
498
100
AcDbEntity
  8
DEFPOINTS
 62
     0
100
AcDbPoint
 10
554.100000000001
 20
739.6
 30
0.0
  0
ENDBLK
  5
49A
330
498
100
AcDbEntity
  8
0
100
AcDbBlockEnd
  0
BLOCK
  5
4A6
330
4A5
100
AcDbEntity
  8
0
100
AcDbBlockBegin
  2
*D23
 70
     1
 10
0.0
 20
0.0
 30
0.0
  3
*D23
  1

  0
LINE
  5
4A8
330
4A5
100
AcDbEntity
  8
LAY-20
  6
CONTINUOUS
 62
     4
100
AcDbLine
 10
660.100000000001
 20
537.6
 30
0.0
 11
570.600000000001
 21
537.6
 31
0.0
  0
LINE
  5
4A9
330
4A5
100
AcDbEntity
  8
LAY-20
  6
CONTINUOUS
 62
     4
100
AcDbLine
 10
660.100000000001
 20
711.6
 30
0.0
 11
570.600000000001
 21
711.6
 31
0.0
  0
LINE
  5
4AA
330
4A5
100
AcDbEntity
  8
LAY-20
  6
CONTINUOUS
 62
     4
100
AcDbLine
 10
575.100000000001
 20
545.1
 30
0.0
 11
575.100000000001
 21
704.1
 31
0.0
  0
INSERT
  5
4AB
330
4A5
100
AcDbEntity
  8
LAY-20
 62
     4
100
AcDbBlockReference
  2
EX_BNORM
 10
575.100000000001
 20
537.6
 30
0.0
 41
7.5
 42
7.5
 43
7.5
 50
270.0
  0
INSERT
  5
4AC
330
4A5
100
AcDbEntity
  8
LAY-20
 62
     4
100
AcDbBlockReference
  2
EX_BNORM
 10
575.100000000001
 20
711.6
 30
0.0
 41
7.5
 42
7.5
 43
7.5
 50
90.0
  0
MTEXT
  5
4AD
330
4A5
100
AcDbEntity
  8
LAY-20
 62
     7
100
AcDbMText
 10
567.600000000001
 20
624.6
 30
0.0
 40
9.3543312
 41
0.0
 71
     5
 72
     1
  1
174
  7
EXCADDIM1
 11
0.0
 21
1.0
 31
0.0
  0
POINT
  5
4AE
330
4A5
100
AcDbEntity
  8
DEFPOINTS
 62
     0
100
AcDbPoint
 10
664.600000000001
 20
537.6
 30
0.0
  0
POINT
  5
4AF
330
4A5
100
AcDbEntity
  8
DEFPOINTS
 62
     0
100
AcDbPoint
 10
664.600000000001
 20
711.6
 30
0.0
  0
POINT
  5
4B0
330
4A5
100
AcDbEntity
  8
DEFPOINTS
 62
     0
100
AcDbPoint
 10
575.100000000001
 20
711.6
 30
0.0
  0
ENDBLK
  5
4A7
330
4A5
100
AcDbEntity
  8
0
100
AcDbBlockEnd
  0
BLOCK
  5
4B3
330
4B2
100
AcDbEntity
  8
0
100
AcDbBlockBegin
  2
*D24
 70
     1
 10
0.0
 20
0.0
 30
0.0
  3
*D24
  1

  0
LINE
  5
4B5
330
4B2
100
AcDbEntity
  8
LAY-20
  6
CONTINUOUS
 62
     4
100
AcDbLine
 10
621.6000000000009
 20
552.10000000001
 30
0.0
 11
591.600000000001
 21
552.10000000001
 31
0.0
  0
LINE
  5
4B6
330
4B2
100
AcDbEntity
  8
LAY-20
  6
CONTINUOUS
 62
     4
100
AcDbLine
 10
621.600000000001
 20
697.09999999999
 30
0.0
 11
591.600000000001
 21
697.09999999999
 31
0.0
  0
LINE
  5
4B7
330
4B2
100
AcDbEntity
  8
LAY-20
  6
CONTINUOUS
 62
     4
100
AcDbLine
 10
596.100000000001
 20
559.60000000001
 30
0.0
 11
596.100000000001
 21
689.59999999999
 31
0.0
  0
INSERT
  5
4B8
330
4B2
100
AcDbEntity
  8
LAY-20
 62
     4
100
AcDbBlockReference
  2
EX_BNORM
 10
596.100000000001
 20
552.10000000001
 30
0.0
 41
7.5
 42
7.5
 43
7.5
 50
270.0
  0
INSERT
  5
4B9
330
4B2
100
AcDbEntity
  8
LAY-20
 62
     4
100
AcDbBlockReference
  2
EX_BNORM
 10
596.100000000001
 20
697.09999999999
 30
0.0
 41
7.5
 42
7.5
 43
7.5
 50
90.0
  0
MTEXT
  5
4BA
330
4B2
100
AcDbEntity
  8
LAY-20
 62
     7
100
AcDbMText
 10
588.600000000001
 20
624.6
 30
0.0
 40
9.3543312
 41
0.0
 71
     5
 72
     1
  1
%%c145
  7
EXCADDIM1
 11
0.0
 21
1.0
 31
0.0
  0
POINT
  5
4BB
330
4B2
100
AcDbEntity
  8
DEFPOINTS
 62
     0
100
AcDbPoint
 10
626.1000000000009
 20
552.10000000001
 30
0.0
  0
POINT
  5
4BC
330
4B2
100
AcDbEntity
  8
DEFPOINTS
 62
     0
100
AcDbPoint
 10
626.100000000001
 20
697.09999999999
 30
0.0
  0
POINT
  5
4BD
330
4B2
100
AcDbEntity
  8
DEFPOINTS
 62
     0
100
AcDbPoint
 10
596.100000000001
 20
697.09999999999
 30
0.0
  0
ENDBLK
  5
4B4
330
4B2
100
AcDbEntity
  8
0
100
AcDbBlockEnd
  0
BLOCK
  5
4C0
330
4BF
100
AcDbEntity
  8
0
100
AcDbBlockBegin
  2
*D25
 70
     1
 10
0.0
 20
0.0
 30
0.0
  3
*D25
  1

  0
LINE
  5
4C2
330
4BF
100
AcDbEntity
  8
LAY-20
  6
CONTINUOUS
 62
     4
100
AcDbLine
 10
149.3
 20
620.1
 30
0.0
 11
149.3
 21
475.1
 31
0.0
  0
LINE
  5
4C3
330
4BF
100
AcDbEntity
  8
LAY-20
  6
CONTINUOUS
 62
     4
100
AcDbLine
 10
264.3
 20
501.6
 30
0.0
 11
264.3
 21
475.1
 31
0.0
  0
LINE
  5
4C4
330
4BF
100
AcDbEntity
  8
LAY-20
  6
CONTINUOUS
 62
     4
100
AcDbLine
 10
156.8
 20
479.6
 30
0.0
 11
256.8
 21
479.6
 31
0.0
  0
INSERT
  5
4C5
330
4BF
100
AcDbEntity
  8
LAY-20
 62
     4
100
AcDbBlockReference
  2
EX_BNORM
 10
149.3
 20
479.6
 30
0.0
 41
7.5
 42
7.5
 43
7.5
 50
180.0
  0
INSERT
  5
4C6
330
4BF
100
AcDbEntity
  8
LAY-20
 62
     4
100
AcDbBlockReference
  2
EX_BNORM
 10
264.3
 20
479.6
 30
0.0
 41
7.5
 42
7.5
 43
7.5
  0
MTEXT
  5
4C7
330
4BF
100
AcDbEntity
  8
LAY-20
 62
     7
100
AcDbMText
 10
206.8000000000001
 20
487.1
 30
0.0
 40
9.3543312
 41
0.0
 71
     5
 72
     1
  1
115
  7
EXCADDIM1
  0
POINT
  5
4C8
330
4BF
100
AcDbEntity
  8
DEFPOINTS
 62
     0
100
AcDbPoint
 10
149.3
 20
624.6
 30
0.0
  0
POINT
  5
4C9
330
4BF
100
AcDbEntity
  8
DEFPOINTS
 62
     0
100
AcDbPoint
 10
264.3
 20
506.1
 30
0.0
  0
POINT
  5
4CA
330
4BF
100
AcDbEntity
  8
DEFPOINTS
 62
     0
100
AcDbPoint
 10
264.3
 20
479.6
 30
0.0
  0
ENDBLK
  5
4C1
330
4BF
100
AcDbEntity
  8
0
100
AcDbBlockEnd
  0
BLOCK
  5
4CD
330
4CC
100
AcDbEntity
  8
0
100
AcDbBlockBegin
  2
*D26
 70
     1
 10
0.0
 20
0.0
 30
0.0
  3
*D26
  1

  0
LINE
  5
4CF
330
4CC
100
AcDbEntity
  8
LAY-20
  6
CONTINUOUS
 62
     4
100
AcDbLine
 10
479.3
 20
505.1
 30
0.0
 11
479.3
 21
475.1
 31
0.0
  0
LINE
  5
4D0
330
4CC
100
AcDbEntity
  8
LAY-20
  6
CONTINUOUS
 62
     4
100
AcDbLine
 10
271.8
 20
479.6
 30
0.0
 11
471.8
 21
479.6
 31
0.0
  0
INSERT
  5
4D1
330
4CC
100
AcDbEntity
  8
LAY-20
 62
     4
100
AcDbBlockReference
  2
EX_BNORM
 10
264.3
 20
479.6
 30
0.0
 41
7.5
 42
7.5
 43
7.5
 50
180.0
  0
INSERT
  5
4D2
330
4CC
100
AcDbEntity
  8
LAY-20
 62
     4
100
AcDbBlockReference
  2
EX_BNORM
 10
479.3
 20
479.6
 30
0.0
 41
7.5
 42
7.5
 43
7.5
  0
MTEXT
  5
4D3
330
4CC
100
AcDbEntity
  8
LAY-20
 62
     7
100
AcDbMText
 10
371.8000000000001
 20
487.1
 30
0.0
 40
9.3543312
 41
0.0
 71
     5
 72
     1
  1
215
  7
EXCADDIM1
  0
POINT
  5
4D4
330
4CC
100
AcDbEntity
  8
DEFPOINTS
 62
     0
100
AcDbPoint
 10
264.3
 20
506.1
 30
0.0
  0
POINT
  5
4D5
330
4CC
100
AcDbEntity
  8
DEFPOINTS
 62
     0
100
AcDbPoint
 10
479.3
 20
509.6
 30
0.0
  0
POINT
  5
4D6
330
4CC
100
AcDbEntity
  8
DEFPOINTS
 62
     0
100
AcDbPoint
 10
479.3
 20
479.6
 30
0.0
  0
ENDBLK
  5
4CE
330
4CC
100
AcDbEntity
  8
0
100
AcDbBlockEnd
  0
ENDSEC
  0
SECTION
  2
ENTITIES
  0
LINE
  5
D4
330
1F
100
AcDbEntity
  8
LAY-10
  6
CONTINUOUS
 62
     7
100
AcDbLine
 10
264.3
 20
509.6
 30
0.0
 11
479.3
 21
509.6
 31
0.0
  0
LINE
  5
D5
330
1F
100
AcDbEntity
  8
LAY-10
  6
CONTINUOUS
 62
     7
100
AcDbLine
 10
264.3000000000002
 20
739.5999999999999
 30
0.0
 11
479.3000000000002
 21
739.5999999999999
 31
0.0
  0
ARC
  5
D6
330
1F
100
AcDbEntity
  8
LAY-10
  6
CONTINUOUS
 62
     7
100
AcDbCircle
 10
264.3
 20
624.5999999999999
 30
0.0
 40
115.0000000000001
100
AcDbArc
 50
90.00000000000014
 51
270.0000000000002
  0
ARC
  5
D7
330
1F
100
AcDbEntity
  8
LAY-10
  6
CONTINUOUS
 62
     7
100
AcDbCircle
 10
264.3
 20
624.5999999999999
 30
0.0
 40
114.0000000000001
100
AcDbArc
 50
90.00000000000014
 51
270.0000000000002
  0
LINE
  5
D8
330
1F
100
AcDbEntity
  8
LAY-10
  6
CONTINUOUS
 62
     7
100
AcDbLine
 10
264.3
 20
510.6
 30
0.0
 11
478.3
 21
510.6
 31
0.0
  0
LINE
  5
D9
330
1F
100
AcDbEntity
  8
LAY-10
  6
CONTINUOUS
 62
     7
100
AcDbLine
 10
478.3000000000002
 20
738.5999999999999
 30
0.0
 11
264.3000000000002
 21
738.5999999999999
 31
0.0
  0
ARC
  5
DA
330
1F
100
AcDbEntity
  8
LAY-10
  6
CONTINUOUS
 62
     7
100
AcDbCircle
 10
264.3
 20
624.5999999999999
 30
0.0
 40
109.0000000000001
100
AcDbArc
 50
90.00000000000014
 51
270.0000000000002
  0
LINE
  5
DB
330
1F
100
AcDbEntity
  8
LAY-10
  6
CONTINUOUS
 62
     7
100
AcDbLine
 10
264.3
 20
515.5999999999999
 30
0.0
 11
468.3
 21
515.5999999999999
 31
0.0
  0
LINE
  5
DC
330
1F
100
AcDbEntity
  8
LAY-10
  6
CONTINUOUS
 62
     7
100
AcDbLine
 10
454.0375340094199
 20
529.86246599058
 30
0.0
 11
264.3
 21
529.86246599058
 31
0.0
  0
ARC
  5
DD
330
1F
100
AcDbEntity
  8
LAY-10
  6
CONTINUOUS
 62
     7
100
AcDbCircle
 10
454.0375340094199
 20
534.86246599058
 30
0.0
 40
5.0
100
AcDbArc
 50
270.0000000000002
 51
0.0000000000002292
  0
TEXT
  5
DE
330
1F
100
AcDbEntity
  8
LAY-10
  6
CONTINUOUS
 62
     7
100
AcDbText
 10
353.2502954312388
 20
526.3629917254061
 30
0.0
 40
5.456692828292274
  1
ＲＭＧＸ－１１２５
 50
180.0
 41
1.047940521581858
  7
EXCADSTD
100
AcDbText
  0
LINE
  5
DF
330
1F
100
AcDbEntity
  8
LAY-10
  6
CONTINUOUS
 62
     7
100
AcDbLine
 10
479.3000000000002
 20
739.5999999999999
 30
0.0
 11
479.3
 21
509.6
 31
0.0
  0
LINE
  5
E0
330
1F
100
AcDbEntity
  8
LAY-10
  6
CONTINUOUS
 62
     7
100
AcDbLine
 10
478.3
 20
510.6
 30
0.0
 11
478.3000000000002
 21
738.5999999999999
 31
0.0
  0
ARC
  5
E1
330
1F
100
AcDbEntity
  8
LAY-10
  6
CONTINUOUS
 62
     7
100
AcDbCircle
 10
467.4688576965003
 20
634.6000000000001
 30
0.0
 40
5.0
100
AcDbArc
 50
0.0000000000002292
 51
90.00000000000014
  0
ARC
  5
E2
330
1F
100
AcDbEntity
  8
LAY-10
  6
CONTINUOUS
 62
     7
100
AcDbCircle
 10
468.0375340094099
 20
634.6000000000001
 30
0.0
 40
5.0
100
AcDbArc
 50
0.0000000000002292
 51
90.00000000000014
  0
LINE
  5
E3
330
1F
100
AcDbEntity
  8
LAY-10
  6
CONTINUOUS
 62
     7
100
AcDbLine
 10
468.0375340094099
 20
639.6000000000001
 30
0.0
 11
459.0375340094201
 21
639.6000000000001
 31
0.0
  0
ARC
  5
E4
330
1F
100
AcDbEntity
  8
LAY-10
  6
CONTINUOUS
 62
     7
100
AcDbCircle
 10
467.4688576965003
 20
614.5999999999997
 30
0.0
 40
5.0
100
AcDbArc
 50
270.0000000000002
 51
0.0000000000002292
  0
ARC
  5
E5
330
1F
100
AcDbEntity
  8
LAY-10
  6
CONTINUOUS
 62
     7
100
AcDbCircle
 10
468.0375340094099
 20
614.5999999999997
 30
0.0
 40
5.0
100
AcDbArc
 50
270.0000000000002
 51
0.0000000000002292
  0
LINE
  5
E6
330
1F
100
AcDbEntity
  8
LAY-10
  6
CONTINUOUS
 62
     7
100
AcDbLine
 10
468.0375340094099
 20
609.5999999999997
 30
0.0
 11
459.0375340094201
 21
609.5999999999997
 31
0.0
  0
LINE
  5
E7
330
1F
100
AcDbEntity
  8
LAY-10
  6
CONTINUOUS
 62
     7
100
AcDbLine
 10
473.3
 20
520.5999999999999
 30
0.0
 11
473.3000000000002
 21
728.5999999999999
 31
0.0
  0
LINE
  5
E8
330
1F
100
AcDbEntity
  8
LAY-10
  6
CONTINUOUS
 62
     7
100
AcDbLine
 10
472.4688576965003
 20
614.5999999999999
 30
0.0
 11
472.4688576965003
 21
634.6000000000001
 31
0.0
  0
LINE
  5
E9
330
1F
100
AcDbEntity
  8
LAY-10
  6
CONTINUOUS
 62
     7
100
AcDbLine
 10
473.03753400941
 20
614.5999999999997
 30
0.0
 11
473.03753400941
 21
634.6000000000001
 31
0.0
  0
ARC
  5
EA
330
1F
100
AcDbEntity
  8
LAY-10
  6
CONTINUOUS
 62
     7
100
AcDbCircle
 10
161.1311423035002
 20
614.5999999999997
 30
0.0
 40
5.0
100
AcDbArc
 50
180.0000000000002
 51
270.0000000000002
  0
ARC
  5
EB
330
1F
100
AcDbEntity
  8
LAY-10
  6
CONTINUOUS
 62
     7
100
AcDbCircle
 10
161.1311423035002
 20
634.6000000000001
 30
0.0
 40
5.0
100
AcDbArc
 50
90.00000000000014
 51
180.0000000000002
  0
LINE
  5
EC
330
1F
100
AcDbEntity
  8
LAY-10
  6
CONTINUOUS
 62
     7
100
AcDbLine
 10
170.3907334168455
 20
609.6000000000001
 30
0.0
 11
160.7818856431397
 21
609.6000000000001
 31
0.0
  0
LINE
  5
ED
330
1F
100
AcDbEntity
  8
LAY-10
  6
CONTINUOUS
 62
     7
100
AcDbLine
 10
155.5624659905901
 20
617.0403242429038
 30
0.0
 11
155.5624659905901
 21
632.1000000000001
 31
0.0
  0
LINE
  5
EE
330
1F
100
AcDbEntity
  8
LAY-10
  6
CONTINUOUS
 62
     7
100
AcDbLine
 10
156.1311423035002
 20
614.5999999999999
 30
0.0
 11
156.1311423035002
 21
634.5999999999999
 31
0.0
  0
LINE
  5
EF
330
1F
100
AcDbEntity
  8
LAY-10
  6
CONTINUOUS
 62
     7
100
AcDbLine
 10
161.1311423035001
 20
639.6000000000001
 30
0.0
 11
170.3907334168455
 21
639.6000000000001
 31
0.0
  0
ARC
  5
F0
330
1F
100
AcDbEntity
  8
LAY-10
  6
CONTINUOUS
 62
     7
100
AcDbCircle
 10
160.7818856431397
 20
614.6000000000004
 30
0.0
 40
5.0
100
AcDbArc
 50
185.5177343737806
 51
270.0000000000002
  0
ARC
  5
F1
330
1F
100
AcDbEntity
  8
LAY-10
  6
CONTINUOUS
 62
     7
100
AcDbCircle
 10
160.7818856431397
 20
634.5999999999997
 30
0.0
 40
5.0
100
AcDbArc
 50
90.00000000000014
 51
174.4822656262195
  0
ARC
  5
F2
330
1F
100
AcDbEntity
  8
LAY-10
  6
CONTINUOUS
 62
     7
100
AcDbCircle
 10
264.3
 20
624.5999999999999
 30
0.0
 40
94.73753400942007
100
AcDbArc
 50
186.6676674581445
 51
270.0000000000002
  0
ARC
  5
F3
330
1F
100
AcDbEntity
  8
LAY-10
  6
CONTINUOUS
 62
     7
100
AcDbCircle
 10
264.3
 20
624.5999999999999
 30
0.0
 40
94.73753400942007
100
AcDbArc
 50
90.00000000000014
 51
173.3323325418555
  0
LINE
  5
F4
330
1F
100
AcDbEntity
  8
LAY-10
  6
CONTINUOUS
 62
     7
100
AcDbLine
 10
451.3
 20
711.6000000000001
 30
0.0
 11
264.3000000000001
 21
711.6000000000001
 31
0.0
  0
LINE
  5
F5
330
1F
100
AcDbEntity
  8
LAY-10
  6
CONTINUOUS
 62
     7
100
AcDbLine
 10
451.3
 20
537.6000000000001
 30
0.0
 11
264.3000000000001
 21
537.6000000000001
 31
0.0
  0
LINE
  5
F6
330
1F
100
AcDbEntity
  8
LAY-10
  6
CONTINUOUS
 62
     7
100
AcDbLine
 10
451.3
 20
537.6000000000001
 30
0.0
 11
451.3
 21
711.6000000000001
 31
0.0
  0
LINE
  5
F7
330
1F
100
AcDbEntity
  8
LAY-10
  6
CONTINUOUS
 62
     7
100
AcDbLine
 10
458.0375340093999
 20
530.8624659906002
 30
0.0
 11
451.3
 21
537.6000000000001
 31
0.0
  0
LINE
  5
F8
330
1F
100
AcDbEntity
  8
LAY-10
  6
CONTINUOUS
 62
     7
100
AcDbLine
 10
451.3
 20
711.6000000000001
 30
0.0
 11
458.0375340093999
 21
718.3375340094001
 31
0.0
  0
LINE
  5
F9
330
1F
100
AcDbEntity
  8
LAY-10
  6
CONTINUOUS
 62
     7
100
AcDbLine
 10
446.3
 20
706.6000000000001
 30
0.0
 11
264.3000000000001
 21
706.6000000000001
 31
0.0
  0
LINE
  5
FA
330
1F
100
AcDbEntity
  8
LAY-10
  6
CONTINUOUS
 62
     7
100
AcDbLine
 10
446.3
 20
542.6000000000001
 30
0.0
 11
264.3000000000001
 21
542.6000000000001
 31
0.0
  0
LINE
  5
FB
330
1F
100
AcDbEntity
  8
LAY-10
  6
CONTINUOUS
 62
     7
100
AcDbLine
 10
446.3
 20
542.6000000000001
 30
0.0
 11
446.3
 21
706.6000000000001
 31
0.0
  0
LINE
  5
FC
330
1F
100
AcDbEntity
  8
LAY-10
  6
CONTINUOUS
 62
     7
100
AcDbLine
 10
445.8
 20
543.1000000000001
 30
0.0
 11
445.8
 21
706.1000000000001
 31
0.0
  0
LINE
  5
FD
330
1F
100
AcDbEntity
  8
LAY-10
  6
CONTINUOUS
 62
     7
100
AcDbLine
 10
176.1254571885967
 20
647.0999999999999
 30
0.0
 11
180.2598310330115
 21
647.0999999999999
 31
0.0
  0
LINE
  5
FE
330
1F
100
AcDbEntity
  8
LAY-10
  6
CONTINUOUS
 62
     7
100
AcDbLine
 10
176.1254571885967
 20
602.0999999999999
 30
0.0
 11
180.2598310330115
 21
602.0999999999999
 31
0.0
  0
ARC
  5
FF
330
1F
100
AcDbEntity
  8
LAY-10
  6
CONTINUOUS
 62
     7
100
AcDbCircle
 10
264.3000000000001
 20
624.6000000000001
 30
0.0
 40
91.0
100
AcDbArc
 50
165.6849967316591
 51
194.3150032683411
  0
LINE
  5
100
330
1F
100
AcDbEntity
  8
LAY-10
  6
CONTINUOUS
 62
     7
100
AcDbLine
 10
176.1254571886001
 20
647.1000000000001
 30
0.0
 11
173.8208571981001
 21
649.1000000000001
 31
0.0
  0
LINE
  5
101
330
1F
100
AcDbEntity
  8
LAY-10
  6
CONTINUOUS
 62
     7
100
AcDbLine
 10
180.2598310330001
 20
647.1000000000001
 30
0.0
 11
173.8208571981001
 21
649.1000000000001
 31
0.0
  0
LINE
  5
102
330
1F
100
AcDbEntity
  8
LAY-10
  6
CONTINUOUS
 62
     7
100
AcDbLine
 10
180.2598310330001
 20
602.1000000000001
 30
0.0
 11
173.8208571981001
 21
600.1000000000001
 31
0.0
  0
LINE
  5
103
330
1F
100
AcDbEntity
  8
LAY-10
  6
CONTINUOUS
 62
     7
100
AcDbLine
 10
176.1254571886001
 20
602.1000000000001
 30
0.0
 11
173.8208571981001
 21
600.1000000000001
 31
0.0
  0
ARC
  5
104
330
1F
100
AcDbEntity
  8
LAY-10
  6
CONTINUOUS
 62
     7
100
AcDbCircle
 10
264.3000000000001
 20
624.6000000000001
 30
0.0
 40
93.73753400940002
100
AcDbArc
 50
90.00000000000014
 51
173.2608732193501
  0
ARC
  5
105
330
1F
100
AcDbEntity
  8
LAY-10
  6
CONTINUOUS
 62
     7
100
AcDbCircle
 10
264.3000000000001
 20
624.6000000000001
 30
0.0
 40
93.73753400940002
100
AcDbArc
 50
186.7391267806739
 51
270.0000000000002
  0
ARC
  5
106
330
1F
100
AcDbEntity
  8
LAY-10
  6
CONTINUOUS
 62
     7
100
AcDbCircle
 10
264.3000000000001
 20
624.6000000000001
 30
0.0
 40
93.32738867109992
100
AcDbArc
 50
173.5401370236935
 51
186.4598629763066
  0
LINE
  5
107
330
1F
100
AcDbEntity
  8
LAY-10
  6
CONTINUOUS
 62
     7
100
AcDbLine
 10
158.3000000000001
 20
628.6000000000001
 30
0.0
 11
158.3000000000001
 21
633.6000000000001
 31
0.0
  0
LINE
  5
108
330
1F
100
AcDbEntity
  8
LAY-10
  6
CONTINUOUS
 62
     7
100
AcDbLine
 10
171.2101225580172
 20
635.6000000000001
 30
0.0
 11
160.3000000000001
 21
635.6000000000001
 31
0.0
  0
ARC
  5
109
330
1F
100
AcDbEntity
  8
LAY-10
  6
CONTINUOUS
 62
     7
100
AcDbCircle
 10
160.3000000000001
 20
633.6000000000001
 30
0.0
 40
2.0
100
AcDbArc
 50
90.00000000000014
 51
180.0
  0
LINE
  5
10A
330
1F
100
AcDbEntity
  8
LAY-10
  6
CONTINUOUS
 62
     7
100
AcDbLine
 10
158.8000000000001
 20
633.6000000000001
 30
0.0
 11
158.8000000000001
 21
629.1000000000001
 31
0.0
  0
LINE
  5
10B
330
1F
100
AcDbEntity
  8
LAY-10
  6
CONTINUOUS
 62
     7
100
AcDbLine
 10
171.5651550054321
 20
635.1000000000001
 30
0.0
 11
160.3000000000001
 21
635.1000000000001
 31
0.0
  0
ARC
  5
10C
330
1F
100
AcDbEntity
  8
LAY-10
  6
CONTINUOUS
 62
     7
100
AcDbCircle
 10
160.3000000000001
 20
633.6000000000001
 30
0.0
 40
1.5
100
AcDbArc
 50
90.00000000000014
 51
180.0
  0
ARC
  5
10D
330
1F
100
AcDbEntity
  8
LAY-10
  6
CONTINUOUS
 62
     7
100
AcDbCircle
 10
160.3000000000001
 20
615.6000000000001
 30
0.0
 40
2.0
100
AcDbArc
 50
180.0
 51
270.0000000000002
  0
ARC
  5
10E
330
1F
100
AcDbEntity
  8
LAY-10
  6
CONTINUOUS
 62
     7
100
AcDbCircle
 10
160.3000000000001
 20
615.6000000000001
 30
0.0
 40
1.5
100
AcDbArc
 50
180.0
 51
270.0000000000002
  0
LINE
  5
10F
330
1F
100
AcDbEntity
  8
LAY-10
  6
CONTINUOUS
 62
     7
100
AcDbLine
 10
158.8000000000001
 20
620.1000000000001
 30
0.0
 11
158.8000000000001
 21
615.6000000000001
 31
0.0
  0
LINE
  5
110
330
1F
100
AcDbEntity
  8
LAY-10
  6
CONTINUOUS
 62
     7
100
AcDbLine
 10
160.3000000000001
 20
614.1000000000001
 30
0.0
 11
171.5651550054321
 21
614.1000000000001
 31
0.0
  0
LINE
  5
111
330
1F
100
AcDbEntity
  8
LAY-10
  6
CONTINUOUS
 62
     7
100
AcDbLine
 10
160.3000000000001
 20
613.6000000000001
 30
0.0
 11
171.2101225580172
 21
613.6000000000001
 31
0.0
  0
LINE
  5
112
330
1F
100
AcDbEntity
  8
LAY-10
  6
CONTINUOUS
 62
     7
100
AcDbLine
 10
158.3000000000001
 20
615.6000000000001
 30
0.0
 11
158.3000000000001
 21
620.6000000000001
 31
0.0
  0
LINE
  5
113
330
1F
100
AcDbEntity
  8
LAY-10
  6
CONTINUOUS
 62
     7
100
AcDbLine
 10
171.5651550054003
 20
614.1000000000001
 30
0.0
 11
171.2101225580001
 21
613.6000000000001
 31
0.0
  0
LINE
  5
114
330
1F
100
AcDbEntity
  8
LAY-10
  6
CONTINUOUS
 62
     7
100
AcDbLine
 10
171.5651550054003
 20
635.1000000000001
 30
0.0
 11
171.2101225580001
 21
635.6000000000001
 31
0.0
  0
LINE
  5
115
330
1F
100
AcDbEntity
  8
LAY-10
  6
CONTINUOUS
 62
     7
100
AcDbLine
 10
470.3
 20
628.6000000000001
 30
0.0
 11
470.3
 21
633.6000000000001
 31
0.0
  0
ARC
  5
116
330
1F
100
AcDbEntity
  8
LAY-10
  6
CONTINUOUS
 62
     7
100
AcDbCircle
 10
468.3
 20
633.6000000000001
 30
0.0
 40
2.0
100
AcDbArc
 50
0.0
 51
90.00000000000014
  0
LINE
  5
117
330
1F
100
AcDbEntity
  8
LAY-10
  6
CONTINUOUS
 62
     7
100
AcDbLine
 10
469.8
 20
633.6000000000001
 30
0.0
 11
469.8
 21
629.1000000000001
 31
0.0
  0
ARC
  5
118
330
1F
100
AcDbEntity
  8
LAY-10
  6
CONTINUOUS
 62
     7
100
AcDbCircle
 10
468.3
 20
633.6000000000001
 30
0.0
 40
1.5
100
AcDbArc
 50
0.0
 51
90.00000000000014
  0
ARC
  5
119
330
1F
100
AcDbEntity
  8
LAY-10
  6
CONTINUOUS
 62
     7
100
AcDbCircle
 10
468.3
 20
615.6000000000001
 30
0.0
 40
2.0
100
AcDbArc
 50
270.0000000000002
 51
0.0
  0
ARC
  5
11A
330
1F
100
AcDbEntity
  8
LAY-10
  6
CONTINUOUS
 62
     7
100
AcDbCircle
 10
468.3
 20
615.6000000000001
 30
0.0
 40
1.5
100
AcDbArc
 50
270.0000000000002
 51
0.0
  0
LINE
  5
11B
330
1F
100
AcDbEntity
  8
LAY-10
  6
CONTINUOUS
 62
     7
100
AcDbLine
 10
469.8
 20
620.1000000000001
 30
0.0
 11
469.8
 21
615.6000000000001
 31
0.0
  0
LINE
  5
11C
330
1F
100
AcDbEntity
  8
LAY-10
  6
CONTINUOUS
 62
     7
100
AcDbLine
 10
470.3
 20
615.6000000000001
 30
0.0
 11
470.3
 21
620.6000000000001
 31
0.0
  0
LINE
  5
11D
330
1F
100
AcDbEntity
  8
LAY-10
  6
CONTINUOUS
 62
     7
100
AcDbLine
 10
468.3
 20
614.1000000000001
 30
0.0
 11
457.0280969918999
 21
614.1000000000001
 31
0.0
  0
LINE
  5
11E
330
1F
100
AcDbEntity
  8
LAY-10
  6
CONTINUOUS
 62
     7
100
AcDbLine
 10
457.0280969918999
 20
614.1000000000001
 30
0.0
 11
457.0280969918999
 21
635.1000000000001
 31
0.0
  0
LINE
  5
11F
330
1F
100
AcDbEntity
  8
LAY-10
  6
CONTINUOUS
 62
     7
100
AcDbLine
 10
457.0280969918999
 20
635.1000000000001
 30
0.0
 11
468.3
 21
635.1000000000001
 31
0.0
  0
LINE
  5
120
330
1F
100
AcDbEntity
  8
LAY-10
  6
CONTINUOUS
 62
     7
100
AcDbLine
 10
458.0375340093999
 20
635.6000000000001
 30
0.0
 11
457.0280969918999
 21
635.1000000000001
 31
0.0
  0
LINE
  5
121
330
1F
100
AcDbEntity
  8
LAY-10
  6
CONTINUOUS
 62
     7
100
AcDbLine
 10
457.0280969918999
 20
614.1000000000001
 30
0.0
 11
458.0375340093999
 21
613.6000000000001
 31
0.0
  0
LINE
  5
122
330
1F
100
AcDbEntity
  8
LAY-10
  6
CONTINUOUS
 62
     7
100
AcDbLine
 10
468.3
 20
613.6000000000001
 30
0.0
 11
458.0375340093999
 21
613.6000000000001
 31
0.0
  0
LINE
  5
123
330
1F
100
AcDbEntity
  8
LAY-10
  6
CONTINUOUS
 62
     7
100
AcDbLine
 10
458.0375340093999
 20
635.6000000000001
 30
0.0
 11
468.3
 21
635.6000000000001
 31
0.0
  0
LINE
  5
124
330
1F
100
AcDbEntity
  8
LAY-10
  6
CONTINUOUS
 62
     7
100
AcDbLine
 10
455.0163311185259
 20
597.507899724364
 30
0.0
 11
458.0375340093999
 21
600.6000000000001
 31
0.0
  0
LINE
  5
125
330
1F
100
AcDbEntity
  8
LAY-10
  6
CONTINUOUS
 62
     7
100
AcDbLine
 10
455.0163311185259
 20
591.692100275636
 30
0.0
 11
458.0375340093999
 21
588.6000000000001
 31
0.0
  0
ARC
  5
126
330
1F
100
AcDbEntity
  8
LAY-10
  6
CONTINUOUS
 62
     7
100
AcDbCircle
 10
457.992469386627
 20
594.6000000000001
 30
0.0
 40
4.160922950237367
100
AcDbArc
 50
135.6644425634989
 51
224.3355574365014
  0
LINE
  5
127
330
1F
100
AcDbEntity
  8
LAY-10
  6
CONTINUOUS
 62
     7
100
AcDbLine
 10
458.0375340093999
 20
600.6000000000001
 30
0.0
 11
458.0375340093999
 21
613.6000000000001
 31
0.0
  0
LINE
  5
128
330
1F
100
AcDbEntity
  8
LAY-10
  6
CONTINUOUS
 62
     7
100
AcDbLine
 10
455.0163311185259
 20
567.507899724364
 30
0.0
 11
458.0375340093999
 21
570.6000000000001
 31
0.0
  0
LINE
  5
129
330
1F
100
AcDbEntity
  8
LAY-10
  6
CONTINUOUS
 62
     7
100
AcDbLine
 10
455.0163311185259
 20
561.692100275636
 30
0.0
 11
458.0375340093999
 21
558.6000000000001
 31
0.0
  0
ARC
  5
12A
330
1F
100
AcDbEntity
  8
LAY-10
  6
CONTINUOUS
 62
     7
100
AcDbCircle
 10
457.992469386627
 20
564.6000000000001
 30
0.0
 40
4.160922950237367
100
AcDbArc
 50
135.6644425634989
 51
224.3355574365014
  0
LINE
  5
12B
330
1F
100
AcDbEntity
  8
LAY-10
  6
CONTINUOUS
 62
     7
100
AcDbLine
 10
458.0375340093999
 20
570.6000000000001
 30
0.0
 11
458.0375340093999
 21
588.6000000000001
 31
0.0
  0
LINE
  5
12C
330
1F
100
AcDbEntity
  8
LAY-10
  6
CONTINUOUS
 62
     7
100
AcDbLine
 10
458.0375340093999
 20
530.8624659906002
 30
0.0
 11
458.0375340093999
 21
558.6000000000001
 31
0.0
  0
LINE
  5
12D
330
1F
100
AcDbEntity
  8
LAY-10
  6
CONTINUOUS
 62
     7
100
AcDbLine
 10
458.0375340093999
 20
635.6000000000001
 30
0.0
 11
458.0375340093999
 21
648.6000000000004
 31
0.0
  0
LINE
  5
12E
330
1F
100
AcDbEntity
  8
LAY-10
  6
CONTINUOUS
 62
     7
100
AcDbLine
 10
432.2078997243639
 20
533.8836688814743
 30
0.0
 11
435.3
 21
530.8624659906002
 31
0.0
  0
LINE
  5
12F
330
1F
100
AcDbEntity
  8
LAY-10
  6
CONTINUOUS
 62
     7
100
AcDbLine
 10
426.3921002756359
 20
533.8836688814743
 30
0.0
 11
423.3
 21
530.8624659906002
 31
0.0
  0
ARC
  5
130
330
1F
100
AcDbEntity
  8
LAY-10
  6
CONTINUOUS
 62
     7
100
AcDbCircle
 10
429.3
 20
530.907530613373
 30
0.0
 40
4.160922950237367
100
AcDbArc
 50
45.66444256349886
 51
134.3355574365016
  0
LINE
  5
131
330
1F
100
AcDbEntity
  8
LAY-10
  6
CONTINUOUS
 62
     7
100
AcDbLine
 10
402.2078997243639
 20
533.8836688814743
 30
0.0
 11
405.3
 21
530.8624659906002
 31
0.0
  0
LINE
  5
132
330
1F
100
AcDbEntity
  8
LAY-10
  6
CONTINUOUS
 62
     7
100
AcDbLine
 10
396.3921002756359
 20
533.8836688814743
 30
0.0
 11
393.3
 21
530.8624659906002
 31
0.0
  0
ARC
  5
133
330
1F
100
AcDbEntity
  8
LAY-10
  6
CONTINUOUS
 62
     7
100
AcDbCircle
 10
399.3
 20
530.907530613373
 30
0.0
 40
4.160922950237367
100
AcDbArc
 50
45.66444256349886
 51
134.3355574365016
  0
LINE
  5
134
330
1F
100
AcDbEntity
  8
LAY-10
  6
CONTINUOUS
 62
     7
100
AcDbLine
 10
372.2078997243639
 20
533.8836688814743
 30
0.0
 11
375.3
 21
530.8624659906002
 31
0.0
  0
LINE
  5
135
330
1F
100
AcDbEntity
  8
LAY-10
  6
CONTINUOUS
 62
     7
100
AcDbLine
 10
366.3921002756359
 20
533.8836688814743
 30
0.0
 11
363.3
 21
530.8624659906002
 31
0.0
  0
ARC
  5
136
330
1F
100
AcDbEntity
  8
LAY-10
  6
CONTINUOUS
 62
     7
100
AcDbCircle
 10
369.3
 20
530.907530613373
 30
0.0
 40
4.160922950237367
100
AcDbArc
 50
45.66444256349886
 51
134.3355574365016
  0
LINE
  5
137
330
1F
100
AcDbEntity
  8
LAY-10
  6
CONTINUOUS
 62
     7
100
AcDbLine
 10
432.2078997243637
 20
715.3163311185263
 30
0.0
 11
435.3
 21
718.3375340094003
 31
0.0
  0
LINE
  5
138
330
1F
100
AcDbEntity
  8
LAY-10
  6
CONTINUOUS
 62
     7
100
AcDbLine
 10
426.3921002756359
 20
715.3163311185263
 30
0.0
 11
423.3
 21
718.3375340094001
 31
0.0
  0
ARC
  5
139
330
1F
100
AcDbEntity
  8
LAY-10
  6
CONTINUOUS
 62
     7
100
AcDbCircle
 10
429.3
 20
718.2924693866273
 30
0.0
 40
4.160922950237367
100
AcDbArc
 50
225.6644425634977
 51
314.3355574364982
  0
LINE
  5
13A
330
1F
100
AcDbEntity
  8
LAY-10
  6
CONTINUOUS
 62
     7
100
AcDbLine
 10
402.2078997243639
 20
715.316331118526
 30
0.0
 11
405.3
 21
718.3375340094001
 31
0.0
  0
LINE
  5
13B
330
1F
100
AcDbEntity
  8
LAY-10
  6
CONTINUOUS
 62
     7
100
AcDbLine
 10
396.3921002756359
 20
715.316331118526
 30
0.0
 11
393.3
 21
718.3375340094001
 31
0.0
  0
ARC
  5
13C
330
1F
100
AcDbEntity
  8
LAY-10
  6
CONTINUOUS
 62
     7
100
AcDbCircle
 10
399.3
 20
718.2924693866273
 30
0.0
 40
4.160922950237367
100
AcDbArc
 50
225.6644425634977
 51
314.3355574365005
  0
LINE
  5
13D
330
1F
100
AcDbEntity
  8
LAY-10
  6
CONTINUOUS
 62
     7
100
AcDbLine
 10
372.207899724364
 20
715.316331118526
 30
0.0
 11
375.3000000000001
 21
718.3375340094001
 31
0.0
  0
LINE
  5
13E
330
1F
100
AcDbEntity
  8
LAY-10
  6
CONTINUOUS
 62
     7
100
AcDbLine
 10
366.392100275636
 20
715.316331118526
 30
0.0
 11
363.3000000000001
 21
718.3375340094001
 31
0.0
  0
ARC
  5
13F
330
1F
100
AcDbEntity
  8
LAY-10
  6
CONTINUOUS
 62
     7
100
AcDbCircle
 10
369.3000000000001
 20
718.2924693866273
 30
0.0
 40
4.160922950237367
100
AcDbArc
 50
225.6644425634977
 51
314.3355574365005
  0
LINE
  5
140
330
1F
100
AcDbEntity
  8
LAY-10
  6
CONTINUOUS
 62
     7
100
AcDbLine
 10
458.0375340093999
 20
718.3375340094001
 30
0.0
 11
435.2999999999996
 21
718.3375340094001
 31
0.0
  0
LINE
  5
141
330
1F
100
AcDbEntity
  8
LAY-10
  6
CONTINUOUS
 62
     7
100
AcDbLine
 10
423.3000000000002
 20
718.3375340094001
 30
0.0
 11
405.2999999999997
 21
718.3375340094001
 31
0.0
  0
LINE
  5
142
330
1F
100
AcDbEntity
  8
LAY-10
  6
CONTINUOUS
 62
     7
100
AcDbLine
 10
393.3000000000002
 20
718.3375340094001
 30
0.0
 11
375.2999999999999
 21
718.3375340094001
 31
0.0
  0
LINE
  5
143
330
1F
100
AcDbEntity
  8
LAY-10
  6
CONTINUOUS
 62
     7
100
AcDbLine
 10
363.3000000000004
 20
718.3375340094001
 30
0.0
 11
264.3000000000001
 21
718.3375340094001
 31
0.0
  0
LINE
  5
144
330
1F
100
AcDbEntity
  8
LAY-10
  6
CONTINUOUS
 62
     7
100
AcDbLine
 10
363.3
 20
530.8624659906002
 30
0.0
 11
264.3000000000001
 21
530.8624659906002
 31
0.0
  0
LINE
  5
145
330
1F
100
AcDbEntity
  8
LAY-10
  6
CONTINUOUS
 62
     7
100
AcDbLine
 10
445.8
 20
706.1000000000001
 30
0.0
 11
306.7999999998404
 21
706.1000000000001
 31
0.0
  0
LINE
  5
146
330
1F
100
AcDbEntity
  8
LAY-10
  6
CONTINUOUS
 62
     7
100
AcDbLine
 10
445.8
 20
543.1000000000001
 30
0.0
 11
306.7999999998402
 21
543.1000000000001
 31
0.0
  0
LINE
  5
147
330
1F
100
AcDbEntity
  8
LAY-10
  6
CONTINUOUS
 62
     7
100
AcDbLine
 10
344.8000000000002
 20
544.0999999999999
 30
0.0
 11
264.3000000000002
 21
544.0999999999999
 31
0.0
  0
LINE
  5
148
330
1F
100
AcDbEntity
  8
LAY-10
  6
CONTINUOUS
 62
     7
100
AcDbLine
 10
344.8000000000002
 20
705.0999999999999
 30
0.0
 11
264.3000000000002
 21
705.0999999999999
 31
0.0
  0
ARC
  5
149
330
1F
100
AcDbEntity
  8
LAY-10
  6
CONTINUOUS
 62
     7
100
AcDbCircle
 10
221.2165808936831
 20
553.4773291440636
 30
0.0
 40
3.500000000000002
100
AcDbArc
 50
151.8706417305927
 51
201.317812546506
  0
ARC
  5
14A
330
1F
100
AcDbEntity
  8
LAY-10
  6
CONTINUOUS
 62
     7
100
AcDbCircle
 10
224.2476698069284
 20
551.7273291440636
 30
0.0
 40
3.500000000000002
100
AcDbArc
 50
278.682187453504
 51
328.1293582693966
  0
LINE
  5
14B
330
1F
100
AcDbEntity
  8
LAY-10
  6
CONTINUOUS
 62
     7
100
AcDbLine
 10
227.2200180219651
 20
549.8793177564935
 30
0.0
 11
218.1299819780463
 21
555.1274525133936
 31
0.0
  0
LINE
  5
14C
330
1F
100
AcDbEntity
  8
LAY-10
  6
CONTINUOUS
 62
     7
100
AcDbLine
 10
221.2089334982264
 20
548.764083466587
 30
0.0
 11
222.4446152422764
 21
550.904347029267
 31
0.0
  0
LINE
  5
14D
330
1F
100
AcDbEntity
  8
LAY-10
  6
CONTINUOUS
 62
     7
100
AcDbLine
 10
222.4446152422764
 20
550.904347029267
 30
0.0
 11
221.405384757735
 21
551.5043470292669
 31
0.0
  0
LINE
  5
14E
330
1F
100
AcDbEntity
  8
LAY-10
  6
CONTINUOUS
 62
     7
100
AcDbLine
 10
220.169703013685
 20
549.3640834665871
 30
0.0
 11
221.405384757735
 21
551.5043470292669
 31
0.0
  0
ARC
  5
14F
330
1F
100
AcDbEntity
  8
LAY-10
  6
CONTINUOUS
 62
     7
100
AcDbCircle
 10
223.8250000000056
 20
554.4952435636478
 30
0.0
 40
6.300000000000002
100
AcDbArc
 50
245.465023799901
 51
278.6821874535003
  0
ARC
  5
150
330
1F
100
AcDbEntity
  8
LAY-10
  6
CONTINUOUS
 62
     7
100
AcDbCircle
 10
223.8250000000056
 20
554.4952435636478
 30
0.0
 40
6.300000000000002
100
AcDbArc
 50
201.3178125465054
 51
234.5349762000908
  0
LINE
  5
151
330
1F
100
AcDbEntity
  8
LAY-10
  6
CONTINUOUS
 62
     7
100
AcDbLine
 10
231.0023262113572
 20
560.926737224207
 30
0.0
 11
230.8041234552072
 21
561.6664399803583
 31
0.0
  0
LINE
  5
152
330
1F
100
AcDbEntity
  8
LAY-10
  6
CONTINUOUS
 62
     7
100
AcDbLine
 10
226.5458765448012
 20
564.1249399803571
 30
0.0
 11
230.8041234552095
 21
561.6664399803569
 31
0.0
  0
LINE
  5
153
330
1F
100
AcDbEntity
  8
LAY-10
  6
CONTINUOUS
 62
     7
100
AcDbLine
 10
225.8061737886523
 20
563.9267372242059
 30
0.0
 11
226.5458765448035
 21
564.1249399803557
 31
0.0
  0
CIRCLE
  5
154
330
1F
100
AcDbEntity
  8
LAY-10
  6
CONTINUOUS
 62
     7
100
AcDbCircle
 10
264.3000000000002
 20
624.5999999999999
 30
0.0
 40
76.99999999999001
  0
CIRCLE
  5
155
330
1F
100
AcDbEntity
  8
LAY-10
  6
CONTINUOUS
 62
     7
100
AcDbCircle
 10
264.3000000000002
 20
624.5999999999999
 30
0.0
 40
72.49999999999001
  0
LINE
  5
156
330
1F
100
AcDbEntity
  8
LAY-10
  6
CONTINUOUS
 62
     7
100
AcDbLine
 10
225.4829715674781
 20
563.3669345560152
 30
0.0
 11
225.8061737886521
 21
563.9267372242075
 31
0.0
  0
LINE
  5
157
330
1F
100
AcDbEntity
  8
LAY-10
  6
CONTINUOUS
 62
     7
100
AcDbLine
 10
230.679123990185
 20
560.3669345560154
 30
0.0
 11
231.0023262113588
 21
560.9267372242075
 31
0.0
  0
LINE
  5
158
330
1F
100
AcDbEntity
  8
LAY-10
  6
CONTINUOUS
 62
     7
100
AcDbLine
 10
220.0769237886522
 20
554.0033851349435
 30
0.0
 11
222.9836190741167
 21
559.0379290514888
 31
0.0
  0
LINE
  5
159
330
1F
100
AcDbEntity
  8
LAY-10
  6
CONTINUOUS
 62
     7
100
AcDbLine
 10
225.2730762113588
 20
551.0033851349435
 30
0.0
 11
228.1797714968233
 21
556.0379290514888
 31
0.0
  0
ARC
  5
15A
330
1F
100
AcDbEntity
  8
LAY-10
  6
CONTINUOUS
 62
     7
100
AcDbCircle
 10
264.3000000000001
 20
624.5999999999999
 30
0.0
 40
78.96474243086999
100
AcDbArc
 50
242.1772845636953
 51
270.0000000000002
  0
ARC
  5
15B
330
1F
100
AcDbEntity
  8
LAY-10
  6
CONTINUOUS
 62
     7
100
AcDbCircle
 10
264.3000000000001
 20
624.5999999999999
 30
0.0
 40
80.5
100
AcDbArc
 50
242.1357410015772
 51
270.0000000000002
  0
ARC
  5
15C
330
1F
100
AcDbEntity
  8
LAY-10
  6
CONTINUOUS
 62
     7
100
AcDbCircle
 10
264.3000000000001
 20
624.5999999999999
 30
0.0
 40
80.5
100
AcDbArc
 50
188.9330068708747
 51
237.8642589984309
  0
ELLIPSE
  5
15D
330
1F
100
AcDbEntity
  8
LAY-10
  6
CONTINUOUS
 62
     7
100
AcDbEllipse
 10
225.5816952854653
 20
557.5379290514916
 30
0.0
 11
2.598076211353657
 21
-1.500000000000189
 31
0.0
210
0.0
220
0.0
230
1.0
 40
0.0436609429066587
 41
0.0
 42
3.141592653590034
  0
ARC
  5
15E
330
1F
100
AcDbEntity
  8
LAY-10
  6
CONTINUOUS
 62
     7
100
AcDbCircle
 10
221.2165808936831
 20
695.7226708559365
 30
0.0
 40
3.500000000000002
100
AcDbArc
 50
158.6821874534933
 51
208.1293582694074
  0
ARC
  5
15F
330
1F
100
AcDbEntity
  8
LAY-10
  6
CONTINUOUS
 62
     7
100
AcDbCircle
 10
224.2476698069284
 20
697.4726708559363
 30
0.0
 40
3.500000000000002
100
AcDbArc
 50
31.87064173060386
 51
81.31781254649631
  0
LINE
  5
160
330
1F
100
AcDbEntity
  8
LAY-10
  6
CONTINUOUS
 62
     7
100
AcDbLine
 10
227.2200180219651
 20
699.3206822435063
 30
0.0
 11
218.1299819780463
 21
694.0725474866065
 31
0.0
  0
LINE
  5
161
330
1F
100
AcDbEntity
  8
LAY-10
  6
CONTINUOUS
 62
     7
100
AcDbLine
 10
221.2089334982264
 20
700.4359165334129
 30
0.0
 11
222.4446152422764
 21
698.295652970733
 31
0.0
  0
LINE
  5
162
330
1F
100
AcDbEntity
  8
LAY-10
  6
CONTINUOUS
 62
     7
100
AcDbLine
 10
222.4446152422764
 20
698.295652970733
 30
0.0
 11
221.405384757735
 21
697.6956529707329
 31
0.0
  0
LINE
  5
163
330
1F
100
AcDbEntity
  8
LAY-10
  6
CONTINUOUS
 62
     7
100
AcDbLine
 10
220.169703013685
 20
699.835916533413
 30
0.0
 11
221.405384757735
 21
697.6956529707329
 31
0.0
  0
ARC
  5
164
330
1F
100
AcDbEntity
  8
LAY-10
  6
CONTINUOUS
 62
     7
100
AcDbCircle
 10
223.8250000000056
 20
694.7047564363522
 30
0.0
 40
6.300000000000002
100
AcDbArc
 50
81.31781254649951
 51
114.5349762000991
  0
ARC
  5
165
330
1F
100
AcDbEntity
  8
LAY-10
  6
CONTINUOUS
 62
     7
100
AcDbCircle
 10
223.8250000000056
 20
694.7047564363522
 30
0.0
 40
6.300000000000002
100
AcDbArc
 50
125.4650237999095
 51
158.6821874534951
  0
LINE
  5
166
330
1F
100
AcDbEntity
  8
LAY-10
  6
CONTINUOUS
 62
     7
100
AcDbLine
 10
231.0023262113572
 20
688.273262775793
 30
0.0
 11
230.8041234552072
 21
687.5335600196418
 31
0.0
  0
LINE
  5
167
330
1F
100
AcDbEntity
  8
LAY-10
  6
CONTINUOUS
 62
     7
100
AcDbLine
 10
226.5458765448012
 20
685.0750600196429
 30
0.0
 11
230.8041234552095
 21
687.5335600196431
 31
0.0
  0
LINE
  5
168
330
1F
100
AcDbEntity
  8
LAY-10
  6
CONTINUOUS
 62
     7
100
AcDbLine
 10
225.8061737886523
 20
685.2732627757939
 30
0.0
 11
226.5458765448035
 21
685.0750600196443
 31
0.0
  0
LINE
  5
169
330
1F
100
AcDbEntity
  8
LAY-10
  6
CONTINUOUS
 62
     7
100
AcDbLine
 10
225.4829715674781
 20
685.8330654439849
 30
0.0
 11
225.8061737886521
 21
685.2732627757923
 31
0.0
  0
LINE
  5
16A
330
1F
100
AcDbEntity
  8
LAY-10
  6
CONTINUOUS
 62
     7
100
AcDbLine
 10
230.679123990185
 20
688.8330654439844
 30
0.0
 11
231.0023262113588
 21
688.2732627757923
 31
0.0
  0
LINE
  5
16B
330
1F
100
AcDbEntity
  8
LAY-10
  6
CONTINUOUS
 62
     7
100
AcDbLine
 10
220.0769237886522
 20
695.1966148650563
 30
0.0
 11
222.9836190741167
 21
690.162070948511
 31
0.0
  0
LINE
  5
16C
330
1F
100
AcDbEntity
  8
LAY-10
  6
CONTINUOUS
 62
     7
100
AcDbLine
 10
225.2730762113588
 20
698.1966148650563
 30
0.0
 11
228.1797714968233
 21
693.162070948511
 31
0.0
  0
ELLIPSE
  5
16D
330
1F
100
AcDbEntity
  8
LAY-10
  6
CONTINUOUS
 62
     7
100
AcDbEllipse
 10
225.5816952854653
 20
691.6620709485082
 30
0.0
 11
2.598076211353859
 21
1.500000000000318
 31
0.0
210
0.0
220
0.0
230
1.0
 40
0.0436609429066552
 41
3.14159265358976
 42
6.283185307179586
  0
ARC
  5
16E
330
1F
100
AcDbEntity
  8
LAY-10
  6
CONTINUOUS
 62
     7
100
AcDbCircle
 10
264.3000000000001
 20
624.5999999999999
 30
0.0
 40
78.96474243086999
100
AcDbArc
 50
122.1772845636871
 51
237.8227154363132
  0
ARC
  5
16F
330
1F
100
AcDbEntity
  8
LAY-10
  6
CONTINUOUS
 62
     7
100
AcDbCircle
 10
264.3000000000001
 20
624.5999999999999
 30
0.0
 40
80.5
100
AcDbArc
 50
122.1357410015692
 51
171.0669931291257
  0
ARC
  5
170
330
1F
100
AcDbEntity
  8
LAY-10
  6
CONTINUOUS
 62
     7
100
AcDbCircle
 10
264.3000000000001
 20
624.5999999999999
 30
0.0
 40
80.5
100
AcDbArc
 50
90.00000000000014
 51
117.8642589984228
  0
ARC
  5
171
330
1F
100
AcDbEntity
  8
LAY-10
  6
CONTINUOUS
 62
     7
100
AcDbCircle
 10
264.3000000000001
 20
624.5999999999999
 30
0.0
 40
78.96474243086999
100
AcDbArc
 50
90.00000000000014
 51
117.8227154363051
  0
ARC
  5
172
330
1F
100
AcDbEntity
  8
LAY-10
  6
CONTINUOUS
 62
     7
100
AcDbCircle
 10
347.4357492993987
 20
626.3499999999942
 30
0.0
 40
3.500000000000002
100
AcDbArc
 50
38.68218745349342
 51
88.1293582694074
  0
ARC
  5
173
330
1F
100
AcDbEntity
  8
LAY-10
  6
CONTINUOUS
 62
     7
100
AcDbCircle
 10
347.4357492993987
 20
622.8499999999945
 30
0.0
 40
3.500000000000002
100
AcDbArc
 50
271.8706417306039
 51
321.3178125464966
  0
LINE
  5
174
330
1F
100
AcDbEntity
  8
LAY-10
  6
CONTINUOUS
 62
     7
100
AcDbLine
 10
347.5499999999989
 20
619.3518652430942
 30
0.0
 11
347.5499999999989
 21
629.8481347568941
 31
0.0
  0
LINE
  5
175
330
1F
100
AcDbEntity
  8
LAY-10
  6
CONTINUOUS
 62
     7
100
AcDbLine
 10
351.5213634880989
 20
623.9999999999943
 30
0.0
 11
349.0499999999989
 21
623.9999999999943
 31
0.0
  0
LINE
  5
176
330
1F
100
AcDbEntity
  8
LAY-10
  6
CONTINUOUS
 62
     7
100
AcDbLine
 10
349.0499999999989
 20
623.9999999999943
 30
0.0
 11
349.0499999999989
 21
625.1999999999944
 31
0.0
  0
LINE
  5
177
330
1F
100
AcDbEntity
  8
LAY-10
  6
CONTINUOUS
 62
     7
100
AcDbLine
 10
351.5213634880989
 20
625.1999999999944
 30
0.0
 11
349.0499999999989
 21
625.1999999999944
 31
0.0
  0
ARC
  5
178
330
1F
100
AcDbEntity
  8
LAY-10
  6
CONTINUOUS
 62
     7
100
AcDbCircle
 10
345.2499999999989
 20
624.5999999999945
 30
0.0
 40
6.300000000000002
100
AcDbArc
 50
321.3178125464997
 51
354.5349762000993
  0
ARC
  5
179
330
1F
100
AcDbEntity
  8
LAY-10
  6
CONTINUOUS
 62
     7
100
AcDbCircle
 10
345.2499999999989
 20
624.5999999999945
 30
0.0
 40
6.300000000000002
100
AcDbArc
 50
5.465023799909583
 51
38.68218745349525
  0
LINE
  5
17A
330
1F
100
AcDbEntity
  8
LAY-10
  6
CONTINUOUS
 62
     7
100
AcDbLine
 10
336.0915000000003
 20
621.5999999999956
 30
0.0
 11
335.5499999999991
 21
622.1414999999972
 31
0.0
  0
LINE
  5
17B
330
1F
100
AcDbEntity
  8
LAY-10
  6
CONTINUOUS
 62
     7
100
AcDbLine
 10
335.5499999999989
 20
627.0584999999949
 30
0.0
 11
335.5499999999989
 21
622.1414999999945
 31
0.0
  0
LINE
  5
17C
330
1F
100
AcDbEntity
  8
LAY-10
  6
CONTINUOUS
 62
     7
100
AcDbLine
 10
336.0915000000003
 20
627.5999999999935
 30
0.0
 11
335.5499999999989
 21
627.0584999999919
 31
0.0
  0
LINE
  5
17D
330
1F
100
AcDbEntity
  8
LAY-10
  6
CONTINUOUS
 62
     7
100
AcDbLine
 10
336.737904442347
 20
627.5999999999945
 30
0.0
 11
336.0914999999991
 21
627.5999999999945
 31
0.0
  0
LINE
  5
17E
330
1F
100
AcDbEntity
  8
LAY-10
  6
CONTINUOUS
 62
     7
100
AcDbLine
 10
336.7379044423465
 20
621.5999999999945
 30
0.0
 11
336.0914999999989
 21
621.5999999999945
 31
0.0
  0
LINE
  5
17F
330
1F
100
AcDbEntity
  8
LAY-10
  6
CONTINUOUS
 62
     7
100
AcDbLine
 10
347.5499999999989
 20
627.5999999999945
 30
0.0
 11
341.7366094290701
 21
627.5999999999945
 31
0.0
  0
LINE
  5
180
330
1F
100
AcDbEntity
  8
LAY-10
  6
CONTINUOUS
 62
     7
100
AcDbLine
 10
347.5499999999991
 20
621.5999999999945
 30
0.0
 11
341.7366094290701
 21
621.5999999999945
 31
0.0
  0
ELLIPSE
  5
181
330
1F
100
AcDbEntity
  8
LAY-10
  6
CONTINUOUS
 62
     7
100
AcDbEllipse
 10
341.7366094290701
 20
624.5999999999999
 30
0.0
 11
-5.510910596163892E-16
 21
-3.000000000000437
 31
0.0
210
0.0
220
0.0
230
1.0
 40
0.043660942906658
 41
3.14159265358976
 42
6.283185307179586
  0
LINE
  5
182
330
1F
100
AcDbEntity
  8
LAY-10
  6
CONTINUOUS
 62
     7
100
AcDbLine
 10
344.8000000000002
 20
621.5999999999945
 30
0.0
 11
344.8000000000002
 21
544.0999999999999
 31
0.0
  0
LINE
  5
183
330
1F
100
AcDbEntity
  8
LAY-10
  6
CONTINUOUS
 62
     7
100
AcDbLine
 10
344.8000000000002
 20
705.0999999999999
 30
0.0
 11
344.8000000000002
 21
627.5999999999945
 31
0.0
  0
ARC
  5
184
330
1F
100
AcDbEntity
  8
LAY-10
  6
CONTINUOUS
 62
     7
100
AcDbCircle
 10
264.3000000000001
 20
624.5999999999999
 30
0.0
 40
78.74643771633
100
AcDbArc
 50
2.18332345735043
 51
90.00000000000014
  0
ARC
  5
185
330
1F
100
AcDbEntity
  8
LAY-10
  6
CONTINUOUS
 62
     7
100
AcDbCircle
 10
264.3000000000001
 20
624.5999999999999
 30
0.0
 40
78.74643771633
100
AcDbArc
 50
270.0000000000002
 51
357.8166765426414
  0
LINE
  5
186
330
1F
100
AcDbEntity
  8
LAY-10
  6
CONTINUOUS
 62
     7
100
AcDbLine
 10
307.7999999998404
 20
705.0999999999999
 30
0.0
 11
306.2999999998404
 21
706.6000000000001
 31
0.0
  0
LINE
  5
187
330
1F
100
AcDbEntity
  8
LAY-10
  6
CONTINUOUS
 62
     7
100
AcDbLine
 10
307.7999999998399
 20
544.0999999999999
 30
0.0
 11
306.2999999998404
 21
542.6000000000001
 31
0.0
  0
LINE
  5
188
330
1F
100
AcDbEntity
  8
LAY-10
  6
CONTINUOUS
 62
     7
100
AcDbLine
 10
184.7764185917161
 20
612.0999999999999
 30
0.0
 11
183.2583440445595
 21
612.0999999999999
 31
0.0
  0
LINE
  5
189
330
1F
100
AcDbEntity
  8
LAY-10
  6
CONTINUOUS
 62
     7
100
AcDbLine
 10
184.7764185917161
 20
637.0999999999999
 30
0.0
 11
183.2583440445595
 21
637.0999999999999
 31
0.0
  0
ARC
  5
18A
330
1F
100
AcDbEntity
  8
LAY-10
  6
CONTINUOUS
 62
     7
100
AcDbCircle
 10
264.3000000000001
 20
624.6000000000001
 30
0.0
 40
82.0
100
AcDbArc
 50
242.0966549577932
 51
270.0000000000002
  0
ARC
  5
18B
330
1F
100
AcDbEntity
  8
LAY-10
  6
CONTINUOUS
 62
     7
100
AcDbCircle
 10
264.3000000000001
 20
624.6000000000001
 30
0.0
 40
82.0
100
AcDbArc
 50
122.0966549577855
 51
237.9033450422148
  0
ARC
  5
18C
330
1F
100
AcDbEntity
  8
LAY-10
  6
CONTINUOUS
 62
     7
100
AcDbCircle
 10
264.3000000000001
 20
624.6000000000001
 30
0.0
 40
82.0
100
AcDbArc
 50
90.00000000000014
 51
117.903345042207
  0
ARC
  5
18D
330
1F
100
AcDbEntity
  8
LAY-10
  6
CONTINUOUS
 62
     7
100
AcDbCircle
 10
264.3000000000001
 20
624.6000000000001
 30
0.0
 40
87.0
100
AcDbArc
 50
121.1996815949418
 51
165.0117655176973
  0
ARC
  5
18E
330
1F
100
AcDbEntity
  8
LAY-10
  6
CONTINUOUS
 62
     7
100
AcDbCircle
 10
264.3000000000001
 20
624.6000000000001
 30
0.0
 40
87.0
100
AcDbArc
 50
90.00000000000014
 51
118.8003184050506
  0
ARC
  5
18F
330
1F
100
AcDbEntity
  8
LAY-10
  6
CONTINUOUS
 62
     7
100
AcDbCircle
 10
264.3000000000001
 20
624.6000000000001
 30
0.0
 40
87.0
100
AcDbArc
 50
119.6048535606136
 51
120.3951464393792
  0
ARC
  5
190
330
1F
100
AcDbEntity
  8
LAY-10
  6
CONTINUOUS
 62
     7
100
AcDbCircle
 10
264.3000000000001
 20
624.6000000000001
 30
0.0
 40
87.0
100
AcDbArc
 50
241.1996815949503
 51
270.0000000000002
  0
ARC
  5
191
330
1F
100
AcDbEntity
  8
LAY-10
  6
CONTINUOUS
 62
     7
100
AcDbCircle
 10
264.3000000000001
 20
624.6000000000001
 30
0.0
 40
87.0
100
AcDbArc
 50
194.988234482303
 51
238.8003184050582
  0
ARC
  5
192
330
1F
100
AcDbEntity
  8
LAY-10
  6
CONTINUOUS
 62
     7
100
AcDbCircle
 10
264.3000000000001
 20
624.6000000000001
 30
0.0
 40
87.0
100
AcDbArc
 50
239.604853560621
 51
240.3951464393868
  0
LINE
  5
193
330
1F
100
AcDbEntity
  8
LAY-10
  6
CONTINUOUS
 62
     7
100
AcDbLine
 10
445.29999999999
 20
705.0999999999901
 30
0.0
 11
445.29999999999
 21
544.0999999999897
 31
0.0
  0
ARC
  5
194
330
1F
100
AcDbEntity
  8
LAY-10
  6
CONTINUOUS
 62
     7
100
AcDbCircle
 10
430.2999999999896
 20
691.0999999999899
 30
0.0
 40
4.000000000000682
100
AcDbArc
 50
270.0000000000002
 51
90.00000000000014
  0
ARC
  5
195
330
1F
100
AcDbEntity
  8
LAY-10
  6
CONTINUOUS
 62
     7
100
AcDbCircle
 10
430.2999999999896
 20
672.0999999999899
 30
0.0
 40
4.000000000000682
100
AcDbArc
 50
270.0000000000002
 51
90.00000000000014
  0
ARC
  5
196
330
1F
100
AcDbEntity
  8
LAY-10
  6
CONTINUOUS
 62
     7
100
AcDbCircle
 10
430.2999999999896
 20
653.0999999999899
 30
0.0
 40
4.000000000000682
100
AcDbArc
 50
270.0000000000002
 51
90.00000000000014
  0
ARC
  5
197
330
1F
100
AcDbEntity
  8
LAY-10
  6
CONTINUOUS
 62
     7
100
AcDbCircle
 10
430.2999999999896
 20
558.0999999999899
 30
0.0
 40
4.000000000000682
100
AcDbArc
 50
270.0000000000002
 51
90.00000000000014
  0
ARC
  5
198
330
1F
100
AcDbEntity
  8
LAY-10
  6
CONTINUOUS
 62
     7
100
AcDbCircle
 10
430.2999999999896
 20
577.0999999999899
 30
0.0
 40
4.000000000000682
100
AcDbArc
 50
270.0000000000002
 51
90.00000000000014
  0
ARC
  5
199
330
1F
100
AcDbEntity
  8
LAY-10
  6
CONTINUOUS
 62
     7
100
AcDbCircle
 10
430.2999999999896
 20
596.0999999999899
 30
0.0
 40
4.000000000000682
100
AcDbArc
 50
270.0000000000002
 51
90.00000000000014
  0
LINE
  5
19A
330
1F
100
AcDbEntity
  8
LAY-10
  6
CONTINUOUS
 62
     7
100
AcDbLine
 10
346.29999999999
 20
705.0999999999901
 30
0.0
 11
346.29999999999
 21
544.0999999999897
 31
0.0
  0
ARC
  5
19B
330
1F
100
AcDbEntity
  8
LAY-10
  6
CONTINUOUS
 62
     7
100
AcDbCircle
 10
361.2999999999906
 20
691.0999999999899
 30
0.0
 40
4.0
100
AcDbArc
 50
90.00000000000014
 51
270.0000000000002
  0
ARC
  5
19C
330
1F
100
AcDbEntity
  8
LAY-10
  6
CONTINUOUS
 62
     7
100
AcDbCircle
 10
361.2999999999905
 20
672.0999999999899
 30
0.0
 40
4.0
100
AcDbArc
 50
90.00000000000014
 51
270.0000000000002
  0
ARC
  5
19D
330
1F
100
AcDbEntity
  8
LAY-10
  6
CONTINUOUS
 62
     7
100
AcDbCircle
 10
361.2999999999905
 20
653.0999999999899
 30
0.0
 40
4.0
100
AcDbArc
 50
90.00000000000014
 51
270.0000000000002
  0
ARC
  5
19E
330
1F
100
AcDbEntity
  8
LAY-10
  6
CONTINUOUS
 62
     7
100
AcDbCircle
 10
361.2999999999905
 20
634.0999999999899
 30
0.0
 40
4.0
100
AcDbArc
 50
90.00000000000014
 51
270.0000000000002
  0
ARC
  5
19F
330
1F
100
AcDbEntity
  8
LAY-10
  6
CONTINUOUS
 62
     7
100
AcDbCircle
 10
361.2999999999903
 20
558.0999999999899
 30
0.0
 40
4.0
100
AcDbArc
 50
90.00000000000014
 51
270.0000000000002
  0
ARC
  5
1A0
330
1F
100
AcDbEntity
  8
LAY-10
  6
CONTINUOUS
 62
     7
100
AcDbCircle
 10
361.2999999999905
 20
577.0999999999899
 30
0.0
 40
4.0
100
AcDbArc
 50
90.00000000000014
 51
270.0000000000002
  0
ARC
  5
1A1
330
1F
100
AcDbEntity
  8
LAY-10
  6
CONTINUOUS
 62
     7
100
AcDbCircle
 10
361.2999999999905
 20
596.0999999999899
 30
0.0
 40
4.0
100
AcDbArc
 50
90.00000000000014
 51
270.0000000000002
  0
ARC
  5
1A2
330
1F
100
AcDbEntity
  8
LAY-10
  6
CONTINUOUS
 62
     7
100
AcDbCircle
 10
361.2999999999905
 20
615.0999999999899
 30
0.0
 40
4.0
100
AcDbArc
 50
90.00000000000014
 51
270.0000000000002
  0
ARC
  5
1A3
330
1F
100
AcDbEntity
  8
LAY-10
  6
CONTINUOUS
 62
     7
100
AcDbCircle
 10
413.7999999999896
 20
634.0999999999899
 30
0.0
 40
4.000000000000682
100
AcDbArc
 50
270.0000000000002
 51
90.00000000000014
  0
ARC
  5
1A4
330
1F
100
AcDbEntity
  8
LAY-10
  6
CONTINUOUS
 62
     7
100
AcDbCircle
 10
413.7999999999896
 20
615.0999999999899
 30
0.0
 40
4.000000000000682
100
AcDbArc
 50
270.0000000000002
 51
90.00000000000014
  0
LINE
  5
1A5
330
1F
100
AcDbEntity
  8
LAY-10
  6
CONTINUOUS
 62
     7
100
AcDbLine
 10
346.29999999999
 20
705.0999999999901
 30
0.0
 11
445.29999999999
 21
705.0999999999901
 31
0.0
  0
LINE
  5
1A6
330
1F
100
AcDbEntity
  8
LAY-10
  6
CONTINUOUS
 62
     7
100
AcDbLine
 10
346.29999999999
 20
544.0999999999897
 30
0.0
 11
445.29999999999
 21
544.0999999999897
 31
0.0
  0
LINE
  5
1A7
330
1F
100
AcDbEntity
  8
LAY-10
  6
CONTINUOUS
 62
     7
100
AcDbLine
 10
361.2999999999901
 20
695.0999999999901
 30
0.0
 11
430.29999999999
 21
695.0999999999901
 31
0.0
  0
LINE
  5
1A8
330
1F
100
AcDbEntity
  8
LAY-10
  6
CONTINUOUS
 62
     7
100
AcDbLine
 10
430.29999999999
 20
687.0999999999897
 30
0.0
 11
361.2999999999901
 21
687.0999999999897
 31
0.0
  0
LINE
  5
1A9
330
1F
100
AcDbEntity
  8
LAY-10
  6
CONTINUOUS
 62
     7
100
AcDbLine
 10
361.29999999999
 20
676.0999999999901
 30
0.0
 11
430.29999999999
 21
676.0999999999901
 31
0.0
  0
LINE
  5
1AA
330
1F
100
AcDbEntity
  8
LAY-10
  6
CONTINUOUS
 62
     7
100
AcDbLine
 10
430.29999999999
 20
668.0999999999897
 30
0.0
 11
361.29999999999
 21
668.0999999999897
 31
0.0
  0
LINE
  5
1AB
330
1F
100
AcDbEntity
  8
LAY-10
  6
CONTINUOUS
 62
     7
100
AcDbLine
 10
361.29999999999
 20
657.0999999999901
 30
0.0
 11
430.29999999999
 21
657.0999999999901
 31
0.0
  0
LINE
  5
1AC
330
1F
100
AcDbEntity
  8
LAY-10
  6
CONTINUOUS
 62
     7
100
AcDbLine
 10
430.29999999999
 20
649.0999999999897
 30
0.0
 11
361.29999999999
 21
649.0999999999897
 31
0.0
  0
LINE
  5
1AD
330
1F
100
AcDbEntity
  8
LAY-10
  6
CONTINUOUS
 62
     7
100
AcDbLine
 10
413.79999999999
 20
630.0999999999897
 30
0.0
 11
361.29999999999
 21
630.0999999999897
 31
0.0
  0
LINE
  5
1AE
330
1F
100
AcDbEntity
  8
LAY-10
  6
CONTINUOUS
 62
     7
100
AcDbLine
 10
361.29999999999
 20
638.0999999999901
 30
0.0
 11
413.79999999999
 21
638.0999999999901
 31
0.0
  0
LINE
  5
1AF
330
1F
100
AcDbEntity
  8
LAY-10
  6
CONTINUOUS
 62
     7
100
AcDbLine
 10
361.2999999999899
 20
554.0999999999897
 30
0.0
 11
430.29999999999
 21
554.0999999999897
 31
0.0
  0
LINE
  5
1B0
330
1F
100
AcDbEntity
  8
LAY-10
  6
CONTINUOUS
 62
     7
100
AcDbLine
 10
430.29999999999
 20
562.0999999999901
 30
0.0
 11
361.2999999999899
 21
562.0999999999901
 31
0.0
  0
LINE
  5
1B1
330
1F
100
AcDbEntity
  8
LAY-10
  6
CONTINUOUS
 62
     7
100
AcDbLine
 10
361.29999999999
 20
573.0999999999897
 30
0.0
 11
430.29999999999
 21
573.0999999999897
 31
0.0
  0
LINE
  5
1B2
330
1F
100
AcDbEntity
  8
LAY-10
  6
CONTINUOUS
 62
     7
100
AcDbLine
 10
430.29999999999
 20
581.0999999999901
 30
0.0
 11
361.29999999999
 21
581.0999999999901
 31
0.0
  0
LINE
  5
1B3
330
1F
100
AcDbEntity
  8
LAY-10
  6
CONTINUOUS
 62
     7
100
AcDbLine
 10
361.29999999999
 20
592.0999999999897
 30
0.0
 11
430.29999999999
 21
592.0999999999897
 31
0.0
  0
LINE
  5
1B4
330
1F
100
AcDbEntity
  8
LAY-10
  6
CONTINUOUS
 62
     7
100
AcDbLine
 10
430.29999999999
 20
600.0999999999901
 30
0.0
 11
361.29999999999
 21
600.0999999999901
 31
0.0
  0
LINE
  5
1B5
330
1F
100
AcDbEntity
  8
LAY-10
  6
CONTINUOUS
 62
     7
100
AcDbLine
 10
413.79999999999
 20
619.0999999999901
 30
0.0
 11
361.29999999999
 21
619.0999999999901
 31
0.0
  0
LINE
  5
1B6
330
1F
100
AcDbEntity
  8
LAY-10
  6
CONTINUOUS
 62
     7
100
AcDbLine
 10
361.29999999999
 20
611.0999999999897
 30
0.0
 11
413.79999999999
 21
611.0999999999897
 31
0.0
  0
TEXT
  5
1B7
330
1F
100
AcDbEntity
  8
LAY-10
  6
CONTINUOUS
 62
     7
100
AcDbText
 10
381.1000009536642
 20
546.6370082745798
 30
0.0
 40
5.456692828292274
  1
１１２５
 50
0.0000000000001719
 41
1.129411764705882
  7
EXCADSTD
100
AcDbText
  0
TEXT
  5
1B8
330
1F
100
AcDbEntity
  8
LAY-10
  6
CONTINUOUS
 62
     7
100
AcDbText
 10
410.4999990463157
 20
702.5629917254
 30
0.0
 40
5.456692828292274
  1
ＲＭ○Ｘ
 50
180.0
 41
1.129411764705882
  7
EXCADSTD
100
AcDbText
  0
CIRCLE
  5
1B9
330
1F
100
AcDbEntity
  8
LAY-10
  6
CONTINUOUS
 62
     7
100
AcDbCircle
 10
433.2999999999973
 20
624.599999999997
 30
0.0
 40
6.250000000000004
  0
LINE
  5
1BA
330
1F
100
AcDbEntity
  8
LAY-10
  6
CONTINUOUS
 62
     7
100
AcDbLine
 10
437.0971101151263
 20
619.9543617474442
 30
0.0
 11
428.6543617474441
 21
628.3971101151265
 31
0.0
  0
LINE
  5
1BB
330
1F
100
AcDbEntity
  8
LAY-10
  6
CONTINUOUS
 62
     7
100
AcDbLine
 10
437.9456382525503
 20
620.8028898848679
 30
0.0
 11
429.502889884868
 21
629.2456382525504
 31
0.0
  0
LINE
  5
1BC
330
1F
100
AcDbEntity
  8
LAY-10
  6
CONTINUOUS
 62
     7
100
AcDbLine
 10
430.1887301627765
 20
628.5597979746417
 30
0.0
 11
429.3402020253525
 21
627.7112698372177
 31
0.0
  0
LINE
  5
1BD
330
1F
100
AcDbEntity
  8
LAY-10
  6
CONTINUOUS
 62
     7
100
AcDbLine
 10
437.2597979746418
 20
621.4887301627764
 30
0.0
 11
436.4112698372178
 21
620.6402020253524
 31
0.0
  0
ARC
  5
1BE
330
1F
100
AcDbEntity
  8
LAY-10
  6
CONTINUOUS
 62
     7
100
AcDbCircle
 10
433.2999999999971
 20
624.599999999997
 30
0.0
 40
6.000000000000004
100
AcDbArc
 50
320.7391704772683
 51
129.260829522732
  0
ARC
  5
1BF
330
1F
100
AcDbEntity
  8
LAY-10
  6
CONTINUOUS
 62
     7
100
AcDbCircle
 10
433.2999999999971
 20
624.599999999997
 30
0.0
 40
6.000000000000004
100
AcDbArc
 50
140.7391704772652
 51
309.2608295227355
  0
LINE
  5
1C0
330
1F
100
AcDbEntity
  8
LAY-10
  6
CONTINUOUS
 62
     7
100
AcDbLine
 10
437.3
 20
543.1000000000001
 30
0.0
 11
437.3
 21
544.0999999999897
 31
0.0
  0
LINE
  5
1C1
330
1F
100
AcDbEntity
  8
LAY-10
  6
CONTINUOUS
 62
     7
100
AcDbLine
 10
437.3
 20
705.0999999999901
 30
0.0
 11
437.3
 21
706.1000000000001
 31
0.0
  0
LINE
  5
1C2
330
1F
100
AcDbEntity
  8
LAY-10
  6
CONTINUOUS
 62
     7
100
AcDbLine
 10
359.3
 20
543.1000000000001
 30
0.0
 11
359.3
 21
544.0999999999897
 31
0.0
  0
LINE
  5
1C3
330
1F
100
AcDbEntity
  8
LAY-10
  6
CONTINUOUS
 62
     7
100
AcDbLine
 10
359.3
 20
554.6358983848465
 30
0.0
 11
359.3
 21
561.5641016151333
 31
0.0
  0
LINE
  5
1C4
330
1F
100
AcDbEntity
  8
LAY-10
  6
CONTINUOUS
 62
     7
100
AcDbLine
 10
359.3
 20
573.6358983848465
 30
0.0
 11
359.3
 21
580.5641016151333
 31
0.0
  0
LINE
  5
1C5
330
1F
100
AcDbEntity
  8
LAY-10
  6
CONTINUOUS
 62
     7
100
AcDbLine
 10
359.3
 20
592.6358983848468
 30
0.0
 11
359.3
 21
599.1000000000001
 31
0.0
  0
LINE
  5
1C6
330
1F
100
AcDbEntity
  8
LAY-10
  6
CONTINUOUS
 62
     7
100
AcDbLine
 10
358.6542486889376
 20
599.1000000000001
 30
0.0
 11
359.3
 21
599.1000000000001
 31
0.0
  0
LINE
  5
1C7
330
1F
100
AcDbEntity
  8
LAY-10
  6
CONTINUOUS
 62
     7
100
AcDbLine
 10
359.3
 20
599.1000000000001
 30
0.0
 11
359.1350046531703
 21
599.463449887865
 31
0.0
  0
LINE
  5
1C8
330
1F
100
AcDbEntity
  8
LAY-10
  6
CONTINUOUS
 62
     7
100
AcDbLine
 10
344.8000000000002
 20
604.5999999999999
 30
0.0
 11
346.29999999999
 21
604.5999999999999
 31
0.0
  0
LINE
  5
1C9
330
1F
100
AcDbEntity
  8
LAY-10
  6
CONTINUOUS
 62
     7
100
AcDbLine
 10
346.29999999999
 20
582.6000000001561
 30
0.0
 11
344.8000000000002
 21
581.1000000001661
 31
0.0
  0
LINE
  5
1CA
330
1F
100
AcDbEntity
  8
LAY-10
  6
CONTINUOUS
 62
     7
100
AcDbLine
 10
361.3000000000002
 20
619.0999999999901
 30
0.0
 11
361.3000000000002
 21
611.0999999999897
 31
0.0
  0
LINE
  5
1CB
330
1F
100
AcDbEntity
  8
LAY-10
  6
CONTINUOUS
 62
     7
100
AcDbLine
 10
361.3000000000002
 20
638.0999999999901
 30
0.0
 11
361.3000000000002
 21
630.0999999999897
 31
0.0
  0
LINE
  5
1CC
330
1F
100
AcDbEntity
  8
LAY-10
  6
CONTINUOUS
 62
     7
100
AcDbLine
 10
358.6542486889144
 20
650.1000000000001
 30
0.0
 11
359.3
 21
650.1000000000001
 31
0.0
  0
LINE
  5
1CD
330
1F
100
AcDbEntity
  8
LAY-10
  6
CONTINUOUS
 62
     7
100
AcDbLine
 10
359.1350046531632
 20
649.7365501121194
 30
0.0
 11
359.3
 21
650.1000000000001
 31
0.0
  0
LINE
  5
1CE
330
1F
100
AcDbEntity
  8
LAY-10
  6
CONTINUOUS
 62
     7
100
AcDbLine
 10
344.8000000000002
 20
644.5999999999999
 30
0.0
 11
346.29999999999
 21
644.5999999999999
 31
0.0
  0
LINE
  5
1CF
330
1F
100
AcDbEntity
  8
LAY-10
  6
CONTINUOUS
 62
     7
100
AcDbLine
 10
346.29999999999
 20
666.5999999998442
 30
0.0
 11
344.8000000000002
 21
668.0999999998342
 31
0.0
  0
LINE
  5
1D0
330
1F
100
AcDbEntity
  8
LAY-10
  6
CONTINUOUS
 62
     7
100
AcDbLine
 10
359.3
 20
705.0999999999901
 30
0.0
 11
359.3
 21
706.1000000000001
 31
0.0
  0
LINE
  5
1D1
330
1F
100
AcDbEntity
  8
LAY-10
  6
CONTINUOUS
 62
     7
100
AcDbLine
 10
359.3
 20
687.6358983848465
 30
0.0
 11
359.3
 21
694.5641016151333
 31
0.0
  0
LINE
  5
1D2
330
1F
100
AcDbEntity
  8
LAY-10
  6
CONTINUOUS
 62
     7
100
AcDbLine
 10
359.3
 20
650.1000000000001
 30
0.0
 11
359.3
 21
656.5641016151333
 31
0.0
  0
LINE
  5
1D3
330
1F
100
AcDbEntity
  8
LAY-10
  6
CONTINUOUS
 62
     7
100
AcDbLine
 10
359.3
 20
668.6358983848468
 30
0.0
 11
359.3
 21
675.5641016151333
 31
0.0
  0
LINE
  5
1D4
330
1F
100
AcDbEntity
  8
LAY-10
  6
CONTINUOUS
 62
     7
100
AcDbLine
 10
470.2633927678598
 20
626.3109156121768
 30
0.0
 11
461.336607232196
 21
621.1570335801732
 31
0.0
  0
CIRCLE
  5
1D5
330
1F
100
AcDbEntity
  8
LAY-10
  6
CONTINUOUS
 62
     7
100
AcDbCircle
 10
465.2999999999997
 20
624.6000000000092
 30
0.0
 40
5.25
  0
LINE
  5
1D6
330
1F
100
AcDbEntity
  8
LAY-10
  6
CONTINUOUS
 62
     7
100
AcDbLine
 10
469.2633927678621
 20
628.0429664197786
 30
0.0
 11
460.3366072321689
 21
622.889084387758
 31
0.0
  0
LINE
  5
1D7
330
1F
100
AcDbEntity
  8
LAY-10
  6
CONTINUOUS
 62
     7
100
AcDbLine
 10
468.0041634565825
 20
620.1000000000001
 30
0.0
 11
469.8
 21
620.1000000000001
 31
0.0
  0
LINE
  5
1D8
330
1F
100
AcDbEntity
  8
LAY-10
  6
CONTINUOUS
 62
     7
100
AcDbLine
 10
468.7003676271729
 20
620.6000000000001
 30
0.0
 11
470.3
 21
620.6000000000001
 31
0.0
  0
LINE
  5
1D9
330
1F
100
AcDbEntity
  8
LAY-10
  6
CONTINUOUS
 62
     7
100
AcDbLine
 10
468.7003676271946
 20
628.6000000000001
 30
0.0
 11
470.3
 21
628.6000000000001
 31
0.0
  0
LINE
  5
1DA
330
1F
100
AcDbEntity
  8
LAY-10
  6
CONTINUOUS
 62
     7
100
AcDbLine
 10
469.8
 20
629.1000000000001
 30
0.0
 11
468.0041634566131
 21
629.1000000000001
 31
0.0
  0
LINE
  5
1DB
330
1F
100
AcDbEntity
  8
LAY-10
  6
CONTINUOUS
 62
     7
100
AcDbLine
 10
168.2633927678599
 20
626.3109156121668
 30
0.0
 11
159.3366072321961
 21
621.1570335801632
 31
0.0
  0
CIRCLE
  5
1DC
330
1F
100
AcDbEntity
  8
LAY-10
  6
CONTINUOUS
 62
     7
100
AcDbCircle
 10
163.2999999999999
 20
624.5999999999992
 30
0.0
 40
5.25
  0
LINE
  5
1DD
330
1F
100
AcDbEntity
  8
LAY-10
  6
CONTINUOUS
 62
     7
100
AcDbLine
 10
167.2633927678623
 20
628.0429664197686
 30
0.0
 11
158.3366072321691
 21
622.889084387748
 31
0.0
  0
LINE
  5
1DE
330
1F
100
AcDbEntity
  8
LAY-10
  6
CONTINUOUS
 62
     7
100
AcDbLine
 10
160.5958365434004
 20
620.1000000000001
 30
0.0
 11
158.8000000000001
 21
620.1000000000001
 31
0.0
  0
LINE
  5
1DF
330
1F
100
AcDbEntity
  8
LAY-10
  6
CONTINUOUS
 62
     7
100
AcDbLine
 10
159.899632372815
 20
620.6000000000001
 30
0.0
 11
158.3000000000001
 21
620.6000000000001
 31
0.0
  0
LINE
  5
1E0
330
1F
100
AcDbEntity
  8
LAY-10
  6
CONTINUOUS
 62
     7
100
AcDbLine
 10
158.8000000000001
 20
629.1000000000001
 30
0.0
 11
160.5958365434035
 21
629.1000000000001
 31
0.0
  0
LINE
  5
1E1
330
1F
100
AcDbEntity
  8
LAY-10
  6
CONTINUOUS
 62
     7
100
AcDbLine
 10
159.8996323728172
 20
628.6000000000001
 30
0.0
 11
158.3000000000001
 21
628.6000000000001
 31
0.0
  0
LINE
  5
1E2
330
1F
100
AcDbEntity
  8
LAY-10
  6
CONTINUOUS
 62
     7
100
AcDbLine
 10
459.0375340094201
 20
714.3375340094199
 30
0.0
 11
459.0375340094201
 21
635.6000000000001
 31
0.0
  0
LINE
  5
1E3
330
1F
100
AcDbEntity
  8
LAY-10
  6
CONTINUOUS
 62
     7
100
AcDbLine
 10
459.0375340094201
 20
613.6000000000001
 30
0.0
 11
459.03753400942
 21
534.86246599058
 31
0.0
  0
CIRCLE
  5
1E4
330
1F
100
AcDbEntity
  8
LAY-10
  6
CONTINUOUS
 62
     7
100
AcDbCircle
 10
264.3000000000001
 20
624.5999999999999
 30
0.0
 40
70.00000000000004
  0
ARC
  5
1E5
330
1F
100
AcDbEntity
  8
LAY-10
  6
CONTINUOUS
 62
     7
100
AcDbCircle
 10
264.3000000000001
 20
624.5999999999999
 30
0.0
 40
71.0
100
AcDbArc
 50
184.8476784791613
 51
175.1523215208388
  0
LINE
  5
1E6
330
1F
100
AcDbEntity
  8
LAY-10
  6
CONTINUOUS
 62
     7
100
AcDbLine
 10
193.5539753767
 20
618.5999999999999
 30
0.0
 11
192.0487024338072
 21
618.5999999999999
 31
0.0
  0
LINE
  5
1E7
330
1F
100
AcDbEntity
  8
LAY-10
  6
CONTINUOUS
 62
     7
100
AcDbLine
 10
193.5539753767
 20
630.5999999999999
 30
0.0
 11
192.0487024338072
 21
630.5999999999999
 31
0.0
  0
LINE
  5
1E8
330
1F
100
AcDbEntity
  8
LAY-10
  6
CONTINUOUS
 62
     7
100
AcDbLine
 10
191.9442836939316
 20
620.0283134584417
 30
0.0
 11
193.5539753767
 21
618.5999999999999
 31
0.0
  0
LINE
  5
1E9
330
1F
100
AcDbEntity
  8
LAY-10
  6
CONTINUOUS
 62
     7
100
AcDbLine
 10
193.5539753767
 20
630.5999999999999
 30
0.0
 11
191.9442836939316
 21
629.1716865415583
 31
0.0
  0
ARC
  5
1EA
330
1F
100
AcDbEntity
  8
LAY-10
  6
CONTINUOUS
 62
     7
100
AcDbCircle
 10
458.3028951096601
 20
530.5999999999999
 30
0.0
 40
5.0
100
AcDbArc
 50
270.0000000000002
 51
0.0000000000002292
  0
ARC
  5
1EB
330
1F
100
AcDbEntity
  8
LAY-10
  6
CONTINUOUS
 62
     7
100
AcDbCircle
 10
459.07077010134
 20
529.8292298986598
 30
0.0
 40
8.0
100
AcDbArc
 50
270.0000000000002
 51
0.0000000000002292
  0
ARC
  5
1EC
330
1F
100
AcDbEntity
  8
LAY-10
  6
CONTINUOUS
 62
     7
100
AcDbCircle
 10
356.1853850506735
 20
523.7146149493299
 30
0.0
 40
1.885385050670266
100
AcDbArc
 50
90.00000000000014
 51
270.0000000000002
  0
LINE
  5
1ED
330
1F
100
AcDbEntity
  8
LAY-10
  6
CONTINUOUS
 62
     7
100
AcDbLine
 10
356.1853850506735
 20
525.5999999999999
 30
0.0
 11
458.3028951096601
 21
525.5999999999999
 31
0.0
  0
LINE
  5
1EE
330
1F
100
AcDbEntity
  8
LAY-10
  6
CONTINUOUS
 62
     7
100
AcDbLine
 10
356.1853850506735
 20
521.8292298986598
 30
0.0
 11
459.07077010134
 21
521.8292298986598
 31
0.0
  0
LINE
  5
1EF
330
1F
100
AcDbEntity
  8
LAY-10
  6
CONTINUOUS
 62
     7
100
AcDbLine
 10
393.3
 20
530.8624659906002
 30
0.0
 11
375.3
 21
530.8624659906002
 31
0.0
  0
LINE
  5
1F0
330
1F
100
AcDbEntity
  8
LAY-10
  6
CONTINUOUS
 62
     7
100
AcDbLine
 10
423.3
 20
530.8624659906002
 30
0.0
 11
405.3
 21
530.8624659906002
 31
0.0
  0
LINE
  5
1F1
330
1F
100
AcDbEntity
  8
LAY-10
  6
CONTINUOUS
 62
     7
100
AcDbLine
 10
458.0375340093999
 20
530.8624659906002
 30
0.0
 11
435.3
 21
530.8624659906002
 31
0.0
  0
LINE
  5
1F2
330
1F
100
AcDbEntity
  8
LAY-10
  6
CONTINUOUS
 62
     7
100
AcDbLine
 10
467.0707701013401
 20
529.8292298986598
 30
0.0
 11
467.0707701013401
 21
602.7160625041599
 31
0.0
  0
LINE
  5
1F3
330
1F
100
AcDbEntity
  8
LAY-10
  6
CONTINUOUS
 62
     7
100
AcDbLine
 10
463.3028951096601
 20
530.5999999999999
 30
0.0
 11
463.3028951096601
 21
602.7160625041599
 31
0.0
  0
ARC
  5
1F4
330
1F
100
AcDbEntity
  8
LAY-10
  6
CONTINUOUS
 62
     7
100
AcDbCircle
 10
465.1868326055001
 20
602.7160625041599
 30
0.0
 40
1.883937495840201
100
AcDbArc
 50
0.0000000000002292
 51
180.0000000000002
  0
ARC
  5
1F5
330
1F
100
AcDbEntity
  8
LAY-10
  6
CONTINUOUS
 62
     7
100
AcDbCircle
 10
468.3
 20
520.5999999999999
 30
0.0
 40
5.0
100
AcDbArc
 50
270.0000000000002
 51
0.0000000000002292
  0
ARC
  5
1F6
330
1F
100
AcDbEntity
  8
LAY-10
  6
CONTINUOUS
 62
     7
100
AcDbCircle
 10
458.3028951096601
 20
718.5999999999999
 30
0.0
 40
5.0
100
AcDbArc
 50
0.0000000000002292
 51
90.00000000000014
  0
ARC
  5
1F7
330
1F
100
AcDbEntity
  8
LAY-10
  6
CONTINUOUS
 62
     7
100
AcDbCircle
 10
454.0375340094202
 20
714.3375340094199
 30
0.0
 40
5.0
100
AcDbArc
 50
0.0000000000002292
 51
90.00000000000014
  0
LINE
  5
1F8
330
1F
100
AcDbEntity
  8
LAY-10
  6
CONTINUOUS
 62
     7
100
AcDbLine
 10
463.3028951096601
 20
646.4839374958397
 30
0.0
 11
463.3028951096601
 21
718.5999999999999
 31
0.0
  0
LINE
  5
1F9
330
1F
100
AcDbEntity
  8
LAY-10
  6
CONTINUOUS
 62
     7
100
AcDbLine
 10
467.0707701013401
 20
646.4839374958397
 30
0.0
 11
467.0707701013401
 21
719.37077010134
 31
0.0
  0
ARC
  5
1FA
330
1F
100
AcDbEntity
  8
LAY-10
  6
CONTINUOUS
 62
     7
100
AcDbCircle
 10
465.1868326055003
 20
646.4839374958397
 30
0.0
 40
1.883937495839518
100
AcDbArc
 50
180.0000000000002
 51
0.0000000000002292
  0
LINE
  5
1FB
330
1F
100
AcDbEntity
  8
LAY-10
  6
CONTINUOUS
 62
     7
100
AcDbLine
 10
455.0163311185259
 20
651.6921002756364
 30
0.0
 11
458.0375340093999
 21
648.6000000000004
 31
0.0
  0
LINE
  5
1FC
330
1F
100
AcDbEntity
  8
LAY-10
  6
CONTINUOUS
 62
     7
100
AcDbLine
 10
455.0163311185259
 20
657.5078997243643
 30
0.0
 11
458.0375340093999
 21
660.6000000000004
 31
0.0
  0
ARC
  5
1FD
330
1F
100
AcDbEntity
  8
LAY-10
  6
CONTINUOUS
 62
     7
100
AcDbCircle
 10
457.992469386627
 20
654.6000000000004
 30
0.0
 40
4.160922950237367
100
AcDbArc
 50
135.6644425634989
 51
224.3355574365014
  0
LINE
  5
1FE
330
1F
100
AcDbEntity
  8
LAY-10
  6
CONTINUOUS
 62
     7
100
AcDbLine
 10
455.0163311185259
 20
681.6921002756364
 30
0.0
 11
458.0375340093999
 21
678.6000000000004
 31
0.0
  0
LINE
  5
1FF
330
1F
100
AcDbEntity
  8
LAY-10
  6
CONTINUOUS
 62
     7
100
AcDbLine
 10
455.0163311185259
 20
687.5078997243643
 30
0.0
 11
458.0375340093999
 21
690.6000000000004
 31
0.0
  0
ARC
  5
200
330
1F
100
AcDbEntity
  8
LAY-10
  6
CONTINUOUS
 62
     7
100
AcDbCircle
 10
457.992469386627
 20
684.6000000000004
 30
0.0
 40
4.160922950237367
100
AcDbArc
 50
135.6644425634989
 51
224.3355574365014
  0
LINE
  5
201
330
1F
100
AcDbEntity
  8
LAY-10
  6
CONTINUOUS
 62
     7
100
AcDbLine
 10
458.0375340093999
 20
690.6000000000004
 30
0.0
 11
458.0375340093999
 21
718.3375340094001
 31
0.0
  0
LINE
  5
202
330
1F
100
AcDbEntity
  8
LAY-10
  6
CONTINUOUS
 62
     7
100
AcDbLine
 10
458.0375340093999
 20
660.6000000000004
 30
0.0
 11
458.0375340093999
 21
678.6000000000004
 31
0.0
  0
LINE
  5
203
330
1F
100
AcDbEntity
  8
LAY-10
  6
CONTINUOUS
 62
     7
100
AcDbLine
 10
468.3000000000002
 20
733.5999999999999
 30
0.0
 11
264.3000000000002
 21
733.5999999999999
 31
0.0
  0
LINE
  5
204
330
1F
100
AcDbEntity
  8
LAY-10
  6
CONTINUOUS
 62
     7
100
AcDbLine
 10
264.3000000000002
 20
719.3375340094199
 30
0.0
 11
454.0375340094202
 21
719.3375340094199
 31
0.0
  0
LINE
  5
205
330
1F
100
AcDbEntity
  8
LAY-10
  6
CONTINUOUS
 62
     7
100
AcDbLine
 10
264.3000000000002
 20
727.37077010134
 30
0.0
 11
292.41461494933
 21
727.37077010134
 31
0.0
  0
LINE
  5
206
330
1F
100
AcDbEntity
  8
LAY-10
  6
CONTINUOUS
 62
     7
100
AcDbLine
 10
356.1853850506735
 20
727.37077010134
 30
0.0
 11
459.07077010134
 21
727.37077010134
 31
0.0
  0
LINE
  5
207
330
1F
100
AcDbEntity
  8
LAY-10
  6
CONTINUOUS
 62
     7
100
AcDbLine
 10
264.3000000000002
 20
723.5999999999999
 30
0.0
 11
292.41461494933
 21
723.5999999999999
 31
0.0
  0
LINE
  5
208
330
1F
100
AcDbEntity
  8
LAY-10
  6
CONTINUOUS
 62
     7
100
AcDbLine
 10
356.1853850506735
 20
723.5999999999999
 30
0.0
 11
458.3028951096601
 21
723.5999999999999
 31
0.0
  0
ARC
  5
209
330
1F
100
AcDbEntity
  8
LAY-10
  6
CONTINUOUS
 62
     7
100
AcDbCircle
 10
292.41461494933
 20
725.48538505067
 30
0.0
 40
1.885385050670266
100
AcDbArc
 50
270.0000000000002
 51
90.00000000000014
  0
ARC
  5
20A
330
1F
100
AcDbEntity
  8
LAY-10
  6
CONTINUOUS
 62
     7
100
AcDbCircle
 10
356.1853850506735
 20
725.48538505067
 30
0.0
 40
1.885385050670266
100
AcDbArc
 50
90.00000000000014
 51
270.0000000000002
  0
LINE
  5
20B
330
1F
100
AcDbEntity
  8
LAY-10
  6
CONTINUOUS
 62
     7
100
AcDbLine
 10
334.4833333333303
 20
726.4853850506661
 30
0.0
 11
324.2999999999969
 21
732.9853850506661
 31
0.0
  0
LINE
  5
20C
330
1F
100
AcDbEntity
  8
LAY-10
  6
CONTINUOUS
 62
     7
100
AcDbLine
 10
334.4833333333303
 20
726.4853850506663
 30
0.0
 11
324.2999999999969
 21
719.9853850506663
 31
0.0
  0
LINE
  5
20D
330
1F
100
AcDbEntity
  8
LAY-10
  6
CONTINUOUS
 62
     7
100
AcDbLine
 10
324.2999999999966
 20
721.0135542658322
 30
0.0
 11
332.8725348962363
 21
726.4853850506661
 31
0.0
  0
LINE
  5
20E
330
1F
100
AcDbEntity
  8
LAY-10
  6
CONTINUOUS
 62
     7
100
AcDbLine
 10
324.2999999999966
 20
731.9572158355002
 30
0.0
 11
332.8725348962363
 21
726.4853850506661
 31
0.0
  0
LINE
  5
20F
330
1F
100
AcDbEntity
  8
LAY-10
  6
CONTINUOUS
 62
     7
100
AcDbLine
 10
324.2999999999974
 20
731.9572158355002
 30
0.0
 11
315.7274651037575
 21
726.4853850506661
 31
0.0
  0
LINE
  5
210
330
1F
100
AcDbEntity
  8
LAY-10
  6
CONTINUOUS
 62
     7
100
AcDbLine
 10
314.1166666666635
 20
726.4853850506661
 30
0.0
 11
324.2999999999969
 21
732.9853850506661
 31
0.0
  0
LINE
  5
211
330
1F
100
AcDbEntity
  8
LAY-10
  6
CONTINUOUS
 62
     7
100
AcDbLine
 10
314.1166666666635
 20
726.4853850506663
 30
0.0
 11
324.2999999999969
 21
719.9853850506663
 31
0.0
  0
LINE
  5
212
330
1F
100
AcDbEntity
  8
LAY-10
  6
CONTINUOUS
 62
     7
100
AcDbLine
 10
324.2999999999974
 20
721.0135542658322
 30
0.0
 11
315.7274651037575
 21
726.4853850506661
 31
0.0
  0
ARC
  5
213
330
1F
100
AcDbEntity
  8
LAY-10
  6
CONTINUOUS
 62
     7
100
AcDbCircle
 10
468.3000000000002
 20
728.5999999999999
 30
0.0
 40
5.0
100
AcDbArc
 50
0.0000000000002292
 51
90.00000000000014
  0
ARC
  5
214
330
1F
100
AcDbEntity
  8
LAY-10
  6
CONTINUOUS
 62
     7
100
AcDbCircle
 10
459.07077010134
 20
719.37077010134
 30
0.0
 40
8.0
100
AcDbArc
 50
0.0000000000002292
 51
90.00000000000014
  0
ARC
  5
215
330
1F
100
AcDbEntity
  8
LAY-10
  6
CONTINUOUS
 62
     7
100
AcDbCircle
 10
264.3
 20
624.5999999999999
 30
0.0
 40
102.77077010134
100
AcDbArc
 50
90.00000000000014
 51
167.4710338802443
  0
ARC
  5
216
330
1F
100
AcDbEntity
  8
LAY-10
  6
CONTINUOUS
 62
     7
100
AcDbCircle
 10
264.3
 20
624.5999999999999
 30
0.0
 40
99.00000000000007
100
AcDbArc
 50
90.00000000000014
 51
167.4710338802443
  0
ARC
  5
217
330
1F
100
AcDbEntity
  8
LAY-10
  6
CONTINUOUS
 62
     7
100
AcDbCircle
 10
165.8170530599037
 20
646.4853850506702
 30
0.0
 40
1.885385050669974
100
AcDbArc
 50
167.4710338802443
 51
347.4710338802447
  0
ARC
  5
218
330
1F
100
AcDbEntity
  8
LAY-10
  6
CONTINUOUS
 62
     7
100
AcDbCircle
 10
165.8170530599035
 20
602.7146149493301
 30
0.0
 40
1.885385050669974
100
AcDbArc
 50
12.52896611975558
 51
192.5289661197554
  0
ARC
  5
219
330
1F
100
AcDbEntity
  8
LAY-10
  6
CONTINUOUS
 62
     7
100
AcDbCircle
 10
264.3
 20
624.5999999999999
 30
0.0
 40
102.77077010134
100
AcDbArc
 50
192.5289661197554
 51
270.0000000000002
  0
ARC
  5
21A
330
1F
100
AcDbEntity
  8
LAY-10
  6
CONTINUOUS
 62
     7
100
AcDbCircle
 10
264.3
 20
624.5999999999999
 30
0.0
 40
99.00000000000007
100
AcDbArc
 50
192.5289661197556
 51
270.0000000000002
  0
ARC
  5
21B
330
1F
100
AcDbEntity
  8
LAY-10
  6
CONTINUOUS
 62
     7
100
AcDbCircle
 10
292.4146149493297
 20
523.7146149493299
 30
0.0
 40
1.885385050670266
100
AcDbArc
 50
270.0000000000002
 51
90.00000000000014
  0
LINE
  5
21C
330
1F
100
AcDbEntity
  8
LAY-10
  6
CONTINUOUS
 62
     7
100
AcDbLine
 10
264.3
 20
525.5999999999999
 30
0.0
 11
292.4146149493297
 21
525.5999999999999
 31
0.0
  0
LINE
  5
21D
330
1F
100
AcDbEntity
  8
LAY-10
  6
CONTINUOUS
 62
     7
100
AcDbLine
 10
264.3
 20
521.8292298986601
 30
0.0
 11
292.4146149493297
 21
521.8292298986601
 31
0.0
  0
TEXT
  5
21E
330
1F
100
AcDbEntity
  8
LAY-10
  6
CONTINUOUS
 62
     7
100
AcDbText
 10
319.2433333333304
 20
723.4859889673328
 30
0.0
 40
5.846457
  1
Ｓ
 41
1.2
  7
EXCADSTD
100
AcDbText
  0
TEXT
  5
21F
330
1F
100
AcDbEntity
  8
LAY-10
  6
CONTINUOUS
 62
     7
100
AcDbText
 10
323.2933333333304
 20
723.4859889673328
 30
0.0
 40
5.846457
  1
Ｆ
 41
1.2
  7
EXCADSTD
100
AcDbText
  0
CIRCLE
  5
220
330
1F
100
AcDbEntity
  8
LAY-10
  6
CONTINUOUS
 62
     7
100
AcDbCircle
 10
264.3000000000001
 20
624.6
 30
0.0
 40
70.5
  0
CIRCLE
  5
221
330
1F
100
AcDbEntity
  8
LAY-10
  6
CONTINUOUS
 62
     7
100
AcDbCircle
 10
264.3000000000001
 20
624.6000000000001
 30
0.0
 40
67.21234805214999
  0
LINE
  5
222
330
1F
100
AcDbEntity
  8
LAY-10
  6
CONTINUOUS
 62
     7
100
AcDbLine
 10
181.800000000003
 20
243.1742712474649
 30
0.0
 11
182.4622122361979
 21
243.8364834836597
 31
0.0
  0
LINE
  5
223
330
1F
100
AcDbEntity
  8
LAY-10
  6
CONTINUOUS
 62
     7
100
AcDbLine
 10
181.8000000000017
 20
241.7600576850905
 30
0.0
 11
183.8764257985723
 21
243.8364834836611
 31
0.0
  0
LINE
  5
224
330
1F
100
AcDbEntity
  8
LAY-10
  6
CONTINUOUS
 62
     7
100
AcDbLine
 10
181.8000000000004
 20
240.3458441227161
 30
0.0
 11
185.2906393609428
 21
243.8364834836584
 31
0.0
  0
LINE
  5
225
330
1F
100
AcDbEntity
  8
LAY-10
  6
CONTINUOUS
 62
     7
100
AcDbLine
 10
181.800000000003
 20
238.9316305603456
 30
0.0
 11
186.6864598292083
 21
243.8180903895509
 31
0.0
  0
LINE
  5
226
330
1F
100
AcDbEntity
  8
LAY-10
  6
CONTINUOUS
 62
     7
100
AcDbLine
 10
181.8000000000017
 20
237.5174169979712
 30
0.0
 11
187.2999999999988
 21
243.0174169979683
 31
0.0
  0
LINE
  5
227
330
1F
100
AcDbEntity
  8
LAY-10
  6
CONTINUOUS
 62
     7
100
AcDbLine
 10
181.8000000000004
 20
236.1032034355968
 30
0.0
 11
187.2999999999975
 21
241.6032034355939
 31
0.0
  0
LINE
  5
228
330
1F
100
AcDbEntity
  8
LAY-10
  6
CONTINUOUS
 62
     7
100
AcDbLine
 10
181.800000000003
 20
234.6889898732263
 30
0.0
 11
187.3000000000001
 21
240.1889898732234
 31
0.0
  0
LINE
  5
229
330
1F
100
AcDbEntity
  8
LAY-10
  6
CONTINUOUS
 62
     7
100
AcDbLine
 10
181.8000000000017
 20
233.2747763108519
 30
0.0
 11
187.2999999999988
 21
238.774776310849
 31
0.0
  0
LINE
  5
22A
330
1F
100
AcDbEntity
  8
LAY-10
  6
CONTINUOUS
 62
     7
100
AcDbLine
 10
181.8000000000004
 20
231.8605627484775
 30
0.0
 11
187.2999999999975
 21
237.3605627484746
 31
0.0
  0
LINE
  5
22B
330
1F
100
AcDbEntity
  8
LAY-10
  6
CONTINUOUS
 62
     7
100
AcDbLine
 10
181.800000000003
 20
230.446349186107
 30
0.0
 11
187.3000000000001
 21
235.9463491861041
 31
0.0
  0
LINE
  5
22C
330
1F
100
AcDbEntity
  8
LAY-10
  6
CONTINUOUS
 62
     7
100
AcDbLine
 10
181.8000000000017
 20
229.0321356237326
 30
0.0
 11
187.2999999999988
 21
234.5321356237297
 31
0.0
  0
LINE
  5
22D
330
1F
100
AcDbEntity
  8
LAY-10
  6
CONTINUOUS
 62
     7
100
AcDbLine
 10
181.8000000000004
 20
227.6179220613583
 30
0.0
 11
187.2999999999975
 21
233.1179220613553
 31
0.0
  0
LINE
  5
22E
330
1F
100
AcDbEntity
  8
LAY-10
  6
CONTINUOUS
 62
     7
100
AcDbLine
 10
181.800000000003
 20
226.2037084989878
 30
0.0
 11
187.3000000000001
 21
231.7037084989848
 31
0.0
  0
LINE
  5
22F
330
1F
100
AcDbEntity
  8
LAY-10
  6
CONTINUOUS
 62
     7
100
AcDbLine
 10
181.8000000000017
 20
224.7894949366134
 30
0.0
 11
187.2999999999988
 21
230.2894949366105
 31
0.0
  0
LINE
  5
230
330
1F
100
AcDbEntity
  8
LAY-10
  6
CONTINUOUS
 62
     7
100
AcDbLine
 10
181.8000000000004
 20
223.375281374239
 30
0.0
 11
187.2999999999975
 21
228.875281374236
 31
0.0
  0
LINE
  5
231
330
1F
100
AcDbEntity
  8
LAY-10
  6
CONTINUOUS
 62
     7
100
AcDbLine
 10
181.800000000003
 20
221.9610678118684
 30
0.0
 11
187.3000000000001
 21
227.4610678118655
 31
0.0
  0
LINE
  5
232
330
1F
100
AcDbEntity
  8
LAY-10
  6
CONTINUOUS
 62
     7
100
AcDbLine
 10
181.8000000000017
 20
220.5468542494941
 30
0.0
 11
187.2999999999988
 21
226.0468542494911
 31
0.0
  0
LINE
  5
233
330
1F
100
AcDbEntity
  8
LAY-10
  6
CONTINUOUS
 62
     7
100
AcDbLine
 10
181.8000000000004
 20
219.1326406871197
 30
0.0
 11
187.2999999999975
 21
224.6326406871168
 31
0.0
  0
LINE
  5
234
330
1F
100
AcDbEntity
  8
LAY-10
  6
CONTINUOUS
 62
     7
100
AcDbLine
 10
181.800000000003
 20
217.7184271247491
 30
0.0
 11
187.3000000000001
 21
223.2184271247462
 31
0.0
  0
LINE
  5
235
330
1F
100
AcDbEntity
  8
LAY-10
  6
CONTINUOUS
 62
     7
100
AcDbLine
 10
181.8000000000017
 20
216.3042135623748
 30
0.0
 11
187.2999999999988
 21
221.8042135623719
 31
0.0
  0
LINE
  5
236
330
1F
100
AcDbEntity
  8
LAY-10
  6
CONTINUOUS
 62
     7
100
AcDbLine
 10
181.8000000000004
 20
214.8900000000004
 30
0.0
 11
187.2999999999975
 21
220.3899999999975
 31
0.0
  0
LINE
  5
237
330
1F
100
AcDbEntity
  8
LAY-10
  6
CONTINUOUS
 62
     7
100
AcDbLine
 10
181.800000000003
 20
213.4757864376299
 30
0.0
 11
187.3000000000001
 21
218.9757864376269
 31
0.0
  0
LINE
  5
238
330
1F
100
AcDbEntity
  8
LAY-10
  6
CONTINUOUS
 62
     7
100
AcDbLine
 10
181.8000000000017
 20
212.0615728752555
 30
0.0
 11
187.2999999999988
 21
217.5615728752526
 31
0.0
  0
LINE
  5
239
330
1F
100
AcDbEntity
  8
LAY-10
  6
CONTINUOUS
 62
     7
100
AcDbLine
 10
181.8000000000004
 20
210.6473593128812
 30
0.0
 11
187.2999999999975
 21
216.1473593128782
 31
0.0
  0
LINE
  5
23A
330
1F
100
AcDbEntity
  8
LAY-10
  6
CONTINUOUS
 62
     7
100
AcDbLine
 10
181.800000000003
 20
209.2331457505106
 30
0.0
 11
187.3000000000001
 21
214.7331457505077
 31
0.0
  0
LINE
  5
23B
330
1F
100
AcDbEntity
  8
LAY-10
  6
CONTINUOUS
 62
     7
100
AcDbLine
 10
181.8000000000017
 20
207.8189321881362
 30
0.0
 11
187.2999999999988
 21
213.3189321881333
 31
0.0
  0
LINE
  5
23C
330
1F
100
AcDbEntity
  8
LAY-10
  6
CONTINUOUS
 62
     7
100
AcDbLine
 10
181.8000000000004
 20
206.4047186257618
 30
0.0
 11
187.3000000000013
 21
211.9047186257627
 31
0.0
  0
LINE
  5
23D
330
1F
100
AcDbEntity
  8
LAY-10
  6
CONTINUOUS
 62
     7
100
AcDbLine
 10
181.800000000003
 20
204.9905050633913
 30
0.0
 11
187.3000000000001
 21
210.4905050633884
 31
0.0
  0
LINE
  5
23E
330
1F
100
AcDbEntity
  8
LAY-10
  6
CONTINUOUS
 62
     7
100
AcDbLine
 10
181.8000000000017
 20
203.576291501017
 30
0.0
 11
187.2999999999988
 21
209.076291501014
 31
0.0
  0
LINE
  5
23F
330
1F
100
AcDbEntity
  8
LAY-10
  6
CONTINUOUS
 62
     7
100
AcDbLine
 10
181.8000000000004
 20
202.1620779386425
 30
0.0
 11
187.3000000000013
 21
207.6620779386435
 31
0.0
  0
LINE
  5
240
330
1F
100
AcDbEntity
  8
LAY-10
  6
CONTINUOUS
 62
     7
100
AcDbLine
 10
181.800000000003
 20
200.747864376272
 30
0.0
 11
187.3000000000001
 21
206.2478643762691
 31
0.0
  0
LINE
  5
241
330
1F
100
AcDbEntity
  8
LAY-10
  6
CONTINUOUS
 62
     7
100
AcDbLine
 10
181.8000000000017
 20
199.3336508138977
 30
0.0
 11
187.2999999999988
 21
204.8336508138947
 31
0.0
  0
LINE
  5
242
330
1F
100
AcDbEntity
  8
LAY-10
  6
CONTINUOUS
 62
     7
100
AcDbLine
 10
181.8000000000004
 20
197.9194372515233
 30
0.0
 11
187.3000000000014
 21
203.4194372515242
 31
0.0
  0
LINE
  5
243
330
1F
100
AcDbEntity
  8
LAY-10
  6
CONTINUOUS
 62
     7
100
AcDbLine
 10
181.800000000003
 20
196.5052236891528
 30
0.0
 11
187.3000000000001
 21
202.0052236891498
 31
0.0
  0
LINE
  5
244
330
1F
100
AcDbEntity
  8
LAY-10
  6
CONTINUOUS
 62
     7
100
AcDbLine
 10
181.8000000000017
 20
195.0910101267783
 30
0.0
 11
187.2999999999988
 21
200.5910101267754
 31
0.0
  0
LINE
  5
245
330
1F
100
AcDbEntity
  8
LAY-10
  6
CONTINUOUS
 62
     7
100
AcDbLine
 10
181.8000000000004
 20
193.676796564404
 30
0.0
 11
187.3000000000013
 21
199.1767965644049
 31
0.0
  0
LINE
  5
246
330
1F
100
AcDbEntity
  8
LAY-10
  6
CONTINUOUS
 62
     7
100
AcDbLine
 10
181.800000000003
 20
192.2625830020335
 30
0.0
 11
187.3000000000001
 21
197.7625830020305
 31
0.0
  0
LINE
  5
247
330
1F
100
AcDbEntity
  8
LAY-10
  6
CONTINUOUS
 62
     7
100
AcDbLine
 10
181.8000000000017
 20
190.8483694396591
 30
0.0
 11
187.2999999999988
 21
196.3483694396562
 31
0.0
  0
LINE
  5
248
330
1F
100
AcDbEntity
  8
LAY-10
  6
CONTINUOUS
 62
     7
100
AcDbLine
 10
182.7023276063189
 20
190.3364834836031
 30
0.0
 11
187.3000000000013
 21
194.9341558772856
 31
0.0
  0
LINE
  5
249
330
1F
100
AcDbEntity
  8
LAY-10
  6
CONTINUOUS
 62
     7
100
AcDbLine
 10
184.1165411686894
 20
190.3364834836005
 30
0.0
 11
187.3000000000001
 21
193.5199423149112
 31
0.0
  0
LINE
  5
24A
330
1F
100
AcDbEntity
  8
LAY-10
  6
CONTINUOUS
 62
     7
100
AcDbLine
 10
185.5307547310638
 20
190.3364834836018
 30
0.0
 11
187.2999999999988
 21
192.1057287525368
 31
0.0
  0
LINE
  5
24B
330
1F
100
AcDbEntity
  8
LAY-10
  6
CONTINUOUS
 62
     7
100
AcDbLine
 10
186.9449682934343
 20
190.3364834835993
 30
0.0
 11
187.3000000000014
 21
190.6915151901663
 31
0.0
  0
LINE
  5
24C
330
1F
100
AcDbEntity
  8
LAY-10
  6
CONTINUOUS
 62
     7
100
AcDbLine
 10
341.2999999999984
 20
243.4994949366099
 30
0.0
 11
341.5253755752354
 21
243.724870511847
 31
0.0
  0
LINE
  5
24D
330
1F
100
AcDbEntity
  8
LAY-10
  6
CONTINUOUS
 62
     7
100
AcDbLine
 10
341.3000000000009
 20
242.0852813742393
 30
0.0
 11
343.0512021094233
 21
243.8364834836618
 31
0.0
  0
LINE
  5
24E
330
1F
100
AcDbEntity
  8
LAY-10
  6
CONTINUOUS
 62
     7
100
AcDbLine
 10
341.2999999999996
 20
240.671067811865
 30
0.0
 11
344.4654156717938
 21
243.8364834836592
 31
0.0
  0
LINE
  5
24F
330
1F
100
AcDbEntity
  8
LAY-10
  6
CONTINUOUS
 62
     7
100
AcDbLine
 10
341.2999999999984
 20
239.2568542494905
 30
0.0
 11
345.8796292341682
 21
243.8364834836605
 31
0.0
  0
LINE
  5
250
330
1F
100
AcDbEntity
  8
LAY-10
  6
CONTINUOUS
 62
     7
100
AcDbLine
 10
341.3000000000009
 20
237.84264068712
 30
0.0
 11
346.799999999998
 21
243.3426406871171
 31
0.0
  0
LINE
  5
251
330
1F
100
AcDbEntity
  8
LAY-10
  6
CONTINUOUS
 62
     7
100
AcDbLine
 10
341.2999999999996
 20
236.4284271247456
 30
0.0
 11
346.8000000000006
 21
241.9284271247465
 31
0.0
  0
LINE
  5
252
330
1F
100
AcDbEntity
  8
LAY-10
  6
CONTINUOUS
 62
     7
100
AcDbLine
 10
341.2999999999984
 20
235.0142135623713
 30
0.0
 11
346.7999999999993
 21
240.5142135623722
 31
0.0
  0
LINE
  5
253
330
1F
100
AcDbEntity
  8
LAY-10
  6
CONTINUOUS
 62
     7
100
AcDbLine
 10
341.300000000001
 20
233.6000000000007
 30
0.0
 11
346.799999999998
 21
239.0999999999978
 31
0.0
  0
LINE
  5
254
330
1F
100
AcDbEntity
  8
LAY-10
  6
CONTINUOUS
 62
     7
100
AcDbLine
 10
341.2999999999997
 20
232.1857864376263
 30
0.0
 11
346.8000000000006
 21
237.6857864376273
 31
0.0
  0
LINE
  5
255
330
1F
100
AcDbEntity
  8
LAY-10
  6
CONTINUOUS
 62
     7
100
AcDbLine
 10
341.3000000000023
 20
230.7715728752558
 30
0.0
 11
346.7999999999993
 21
236.2715728752529
 31
0.0
  0
LINE
  5
256
330
1F
100
AcDbEntity
  8
LAY-10
  6
CONTINUOUS
 62
     7
100
AcDbLine
 10
341.300000000001
 20
229.3573593128814
 30
0.0
 11
346.799999999998
 21
234.8573593128785
 31
0.0
  0
LINE
  5
257
330
1F
100
AcDbEntity
  8
LAY-10
  6
CONTINUOUS
 62
     7
100
AcDbLine
 10
341.2999999999997
 20
227.943145750507
 30
0.0
 11
346.8000000000006
 21
233.443145750508
 31
0.0
  0
LINE
  5
258
330
1F
100
AcDbEntity
  8
LAY-10
  6
CONTINUOUS
 62
     7
100
AcDbLine
 10
341.3000000000023
 20
226.5289321881365
 30
0.0
 11
346.7999999999993
 21
232.0289321881336
 31
0.0
  0
LINE
  5
259
330
1F
100
AcDbEntity
  8
LAY-10
  6
CONTINUOUS
 62
     7
100
AcDbLine
 10
341.300000000001
 20
225.1147186257622
 30
0.0
 11
346.799999999998
 21
230.6147186257592
 31
0.0
  0
LINE
  5
25A
330
1F
100
AcDbEntity
  8
LAY-10
  6
CONTINUOUS
 62
     7
100
AcDbLine
 10
341.2999999999997
 20
223.7005050633877
 30
0.0
 11
346.8000000000006
 21
229.2005050633887
 31
0.0
  0
LINE
  5
25B
330
1F
100
AcDbEntity
  8
LAY-10
  6
CONTINUOUS
 62
     7
100
AcDbLine
 10
341.3000000000023
 20
222.2862915010172
 30
0.0
 11
346.7999999999993
 21
227.7862915010143
 31
0.0
  0
LINE
  5
25C
330
1F
100
AcDbEntity
  8
LAY-10
  6
CONTINUOUS
 62
     7
100
AcDbLine
 10
341.300000000001
 20
220.8720779386428
 30
0.0
 11
346.7999999999981
 21
226.3720779386399
 31
0.0
  0
LINE
  5
25D
330
1F
100
AcDbEntity
  8
LAY-10
  6
CONTINUOUS
 62
     7
100
AcDbLine
 10
341.2999999999997
 20
219.4578643762684
 30
0.0
 11
346.8000000000006
 21
224.9578643762694
 31
0.0
  0
LINE
  5
25E
330
1F
100
AcDbEntity
  8
LAY-10
  6
CONTINUOUS
 62
     7
100
AcDbLine
 10
341.3000000000023
 20
218.0436508138979
 30
0.0
 11
346.7999999999993
 21
223.543650813895
 31
0.0
  0
LINE
  5
25F
330
1F
100
AcDbEntity
  8
LAY-10
  6
CONTINUOUS
 62
     7
100
AcDbLine
 10
341.300000000001
 20
216.6294372515236
 30
0.0
 11
346.7999999999981
 21
222.1294372515206
 31
0.0
  0
LINE
  5
260
330
1F
100
AcDbEntity
  8
LAY-10
  6
CONTINUOUS
 62
     7
100
AcDbLine
 10
341.2999999999997
 20
215.2152236891491
 30
0.0
 11
346.8000000000006
 21
220.71522368915
 31
0.0
  0
LINE
  5
261
330
1F
100
AcDbEntity
  8
LAY-10
  6
CONTINUOUS
 62
     7
100
AcDbLine
 10
341.3000000000023
 20
213.8010101267786
 30
0.0
 11
346.7999999999994
 21
219.3010101267757
 31
0.0
  0
LINE
  5
262
330
1F
100
AcDbEntity
  8
LAY-10
  6
CONTINUOUS
 62
     7
100
AcDbLine
 10
341.300000000001
 20
212.3867965644042
 30
0.0
 11
346.7999999999981
 21
217.8867965644013
 31
0.0
  0
LINE
  5
263
330
1F
100
AcDbEntity
  8
LAY-10
  6
CONTINUOUS
 62
     7
100
AcDbLine
 10
341.2999999999997
 20
210.9725830020298
 30
0.0
 11
346.8000000000007
 21
216.4725830020308
 31
0.0
  0
LINE
  5
264
330
1F
100
AcDbEntity
  8
LAY-10
  6
CONTINUOUS
 62
     7
100
AcDbLine
 10
341.3000000000023
 20
209.5583694396593
 30
0.0
 11
346.7999999999994
 21
215.0583694396564
 31
0.0
  0
LINE
  5
265
330
1F
100
AcDbEntity
  8
LAY-10
  6
CONTINUOUS
 62
     7
100
AcDbLine
 10
341.300000000001
 20
208.1441558772849
 30
0.0
 11
346.7999999999981
 21
213.644155877282
 31
0.0
  0
LINE
  5
266
330
1F
100
AcDbEntity
  8
LAY-10
  6
CONTINUOUS
 62
     7
100
AcDbLine
 10
341.2999999999998
 20
206.7299423149105
 30
0.0
 11
346.8000000000007
 21
212.2299423149115
 31
0.0
  0
LINE
  5
267
330
1F
100
AcDbEntity
  8
LAY-10
  6
CONTINUOUS
 62
     7
100
AcDbLine
 10
341.3000000000023
 20
205.31572875254
 30
0.0
 11
346.7999999999994
 21
210.8157287525371
 31
0.0
  0
LINE
  5
268
330
1F
100
AcDbEntity
  8
LAY-10
  6
CONTINUOUS
 62
     7
100
AcDbLine
 10
341.3000000000011
 20
203.9015151901656
 30
0.0
 11
346.7999999999981
 21
209.4015151901627
 31
0.0
  0
LINE
  5
269
330
1F
100
AcDbEntity
  8
LAY-10
  6
CONTINUOUS
 62
     7
100
AcDbLine
 10
341.2999999999998
 20
202.4873016277912
 30
0.0
 11
346.8000000000007
 21
207.9873016277922
 31
0.0
  0
LINE
  5
26A
330
1F
100
AcDbEntity
  8
LAY-10
  6
CONTINUOUS
 62
     7
100
AcDbLine
 10
341.3000000000023
 20
201.0730880654207
 30
0.0
 11
346.7999999999994
 21
206.5730880654178
 31
0.0
  0
LINE
  5
26B
330
1F
100
AcDbEntity
  8
LAY-10
  6
CONTINUOUS
 62
     7
100
AcDbLine
 10
341.3000000000011
 20
199.6588745030463
 30
0.0
 11
346.7999999999981
 21
205.1588745030434
 31
0.0
  0
LINE
  5
26C
330
1F
100
AcDbEntity
  8
LAY-10
  6
CONTINUOUS
 62
     7
100
AcDbLine
 10
341.2999999999998
 20
198.244660940672
 30
0.0
 11
346.8000000000008
 21
203.7446609406728
 31
0.0
  0
LINE
  5
26D
330
1F
100
AcDbEntity
  8
LAY-10
  6
CONTINUOUS
 62
     7
100
AcDbLine
 10
341.3000000000023
 20
196.8304473783014
 30
0.0
 11
346.7999999999994
 21
202.3304473782985
 31
0.0
  0
LINE
  5
26E
330
1F
100
AcDbEntity
  8
LAY-10
  6
CONTINUOUS
 62
     7
100
AcDbLine
 10
341.3000000000011
 20
195.4162338159271
 30
0.0
 11
346.7999999999981
 21
200.9162338159241
 31
0.0
  0
LINE
  5
26F
330
1F
100
AcDbEntity
  8
LAY-10
  6
CONTINUOUS
 62
     7
100
AcDbLine
 10
341.2999999999998
 20
194.0020202535526
 30
0.0
 11
346.8000000000008
 21
199.5020202535535
 31
0.0
  0
LINE
  5
270
330
1F
100
AcDbEntity
  8
LAY-10
  6
CONTINUOUS
 62
     7
100
AcDbLine
 10
341.3000000000023
 20
192.5878066911821
 30
0.0
 11
346.7999999999994
 21
198.0878066911792
 31
0.0
  0
LINE
  5
271
330
1F
100
AcDbEntity
  8
LAY-10
  6
CONTINUOUS
 62
     7
100
AcDbLine
 10
341.3000000000011
 20
191.1735931288077
 30
0.0
 11
346.7999999999981
 21
196.6735931288048
 31
0.0
  0
LINE
  5
272
330
1F
100
AcDbEntity
  8
LAY-10
  6
CONTINUOUS
 62
     7
100
AcDbLine
 10
341.8771039171662
 20
190.3364834835998
 30
0.0
 11
346.8000000000008
 21
195.2593795664343
 31
0.0
  0
LINE
  5
273
330
1F
100
AcDbEntity
  8
LAY-10
  6
CONTINUOUS
 62
     7
100
AcDbLine
 10
343.2913174795406
 20
190.3364834836011
 30
0.0
 11
346.7999999999994
 21
193.8451660040598
 31
0.0
  0
LINE
  5
274
330
1F
100
AcDbEntity
  8
LAY-10
  6
CONTINUOUS
 62
     7
100
AcDbLine
 10
344.705531041915
 20
190.3364834836024
 30
0.0
 11
346.7999999999982
 21
192.4309524416855
 31
0.0
  0
LINE
  5
275
330
1F
100
AcDbEntity
  8
LAY-10
  6
CONTINUOUS
 62
     7
100
AcDbLine
 10
346.1197446042855
 20
190.3364834835998
 30
0.0
 11
346.8000000000008
 21
191.016738879315
 31
0.0
  0
LINE
  5
276
330
1F
100
AcDbEntity
  8
LAY-10
  6
CONTINUOUS
 62
     7
100
AcDbLine
 10
729.2355889547292
 20
542.1000000000004
 30
0.0
 11
726.6472772000976
 21
544.688311754632
 31
0.0
  0
LINE
  5
277
330
1F
100
AcDbEntity
  8
LAY-10
  6
CONTINUOUS
 62
     7
100
AcDbLine
 10
732.064016079478
 20
542.0999999999979
 30
0.0
 11
726.7668908144922
 21
547.3971252649837
 31
0.0
  0
LINE
  5
278
330
1F
100
AcDbEntity
  8
LAY-10
  6
CONTINUOUS
 62
     7
100
AcDbLine
 10
734.8924432042229
 20
542.099999999999
 30
0.0
 11
729.392443204222
 21
547.5999999999999
 31
0.0
  0
LINE
  5
279
330
1F
100
AcDbEntity
  8
LAY-10
  6
CONTINUOUS
 62
     7
100
AcDbLine
 10
737.7208703289679
 20
542.1000000000004
 30
0.0
 11
732.220870328967
 21
547.6000000000013
 31
0.0
  0
LINE
  5
27A
330
1F
100
AcDbEntity
  8
LAY-10
  6
CONTINUOUS
 62
     7
100
AcDbLine
 10
740.5492974537166
 20
542.0999999999979
 30
0.0
 11
735.0492974537157
 21
547.5999999999988
 31
0.0
  0
LINE
  5
27B
330
1F
100
AcDbEntity
  8
LAY-10
  6
CONTINUOUS
 62
     7
100
AcDbLine
 10
743.3777245784615
 20
542.099999999999
 30
0.0
 11
737.8777245784606
 21
547.6
 31
0.0
  0
LINE
  5
27C
330
1F
100
AcDbEntity
  8
LAY-10
  6
CONTINUOUS
 62
     7
100
AcDbLine
 10
746.2061517032065
 20
542.1000000000004
 30
0.0
 11
740.7061517032055
 21
547.6000000000013
 31
0.0
  0
LINE
  5
27D
330
1F
100
AcDbEntity
  8
LAY-10
  6
CONTINUOUS
 62
     7
100
AcDbLine
 10
749.0345788279513
 20
542.1000000000016
 30
0.0
 11
743.5345788279543
 21
547.5999999999988
 31
0.0
  0
LINE
  5
27E
330
1F
100
AcDbEntity
  8
LAY-10
  6
CONTINUOUS
 62
     7
100
AcDbLine
 10
751.8630059527002
 20
542.0999999999991
 30
0.0
 11
746.3630059526993
 21
547.6
 31
0.0
  0
LINE
  5
27F
330
1F
100
AcDbEntity
  8
LAY-10
  6
CONTINUOUS
 62
     7
100
AcDbLine
 10
754.691433077445
 20
542.1000000000004
 30
0.0
 11
749.1914330774441
 21
547.6000000000013
 31
0.0
  0
LINE
  5
280
330
1F
100
AcDbEntity
  8
LAY-10
  6
CONTINUOUS
 62
     7
100
AcDbLine
 10
757.51986020219
 20
542.1000000000017
 30
0.0
 11
752.0198602021928
 21
547.5999999999988
 31
0.0
  0
LINE
  5
281
330
1F
100
AcDbEntity
  8
LAY-10
  6
CONTINUOUS
 62
     7
100
AcDbLine
 10
760.3482873269388
 20
542.0999999999991
 30
0.0
 11
754.8482873269378
 21
547.6
 31
0.0
  0
LINE
  5
282
330
1F
100
AcDbEntity
  8
LAY-10
  6
CONTINUOUS
 62
     7
100
AcDbLine
 10
763.1767144516837
 20
542.1000000000004
 30
0.0
 11
757.6767144516828
 21
547.6000000000013
 31
0.0
  0
LINE
  5
283
330
1F
100
AcDbEntity
  8
LAY-10
  6
CONTINUOUS
 62
     7
100
AcDbLine
 10
766.0051415764285
 20
542.1000000000017
 30
0.0
 11
760.5051415764315
 21
547.5999999999988
 31
0.0
  0
LINE
  5
284
330
1F
100
AcDbEntity
  8
LAY-10
  6
CONTINUOUS
 62
     7
100
AcDbLine
 10
768.8335687011772
 20
542.0999999999991
 30
0.0
 11
763.3335687011764
 21
547.6000000000001
 31
0.0
  0
LINE
  5
285
330
1F
100
AcDbEntity
  8
LAY-10
  6
CONTINUOUS
 62
     7
100
AcDbLine
 10
771.6619958259222
 20
542.1000000000004
 30
0.0
 11
766.1619958259251
 21
547.5999999999975
 31
0.0
  0
LINE
  5
286
330
1F
100
AcDbEntity
  8
LAY-10
  6
CONTINUOUS
 62
     7
100
AcDbLine
 10
774.4904229506672
 20
542.1000000000017
 30
0.0
 11
768.9904229506701
 21
547.5999999999988
 31
0.0
  0
LINE
  5
287
330
1F
100
AcDbEntity
  8
LAY-10
  6
CONTINUOUS
 62
     7
100
AcDbLine
 10
777.3188500754159
 20
542.0999999999992
 30
0.0
 11
771.8188500754151
 21
547.6000000000001
 31
0.0
  0
LINE
  5
288
330
1F
100
AcDbEntity
  8
LAY-10
  6
CONTINUOUS
 62
     7
100
AcDbLine
 10
780.1472772001608
 20
542.1000000000005
 30
0.0
 11
774.6472772001638
 21
547.5999999999975
 31
0.0
  0
LINE
  5
289
330
1F
100
AcDbEntity
  8
LAY-10
  6
CONTINUOUS
 62
     7
100
AcDbLine
 10
780.1472772001622
 20
544.9284271247454
 30
0.0
 11
777.4757043249087
 21
547.5999999999989
 31
0.0
  0
LINE
  5
28A
330
1F
100
AcDbEntity
  8
LAY-10
  6
CONTINUOUS
 62
     7
100
AcDbLine
 10
729.2355889547292
 20
701.6000000000004
 30
0.0
 11
726.6472772000976
 21
704.188311754632
 31
0.0
  0
LINE
  5
28B
330
1F
100
AcDbEntity
  8
LAY-10
  6
CONTINUOUS
 62
     7
100
AcDbLine
 10
732.064016079478
 20
701.5999999999979
 30
0.0
 11
726.7668908144922
 21
706.8971252649837
 31
0.0
  0
LINE
  5
28C
330
1F
100
AcDbEntity
  8
LAY-10
  6
CONTINUOUS
 62
     7
100
AcDbLine
 10
734.8924432042229
 20
701.599999999999
 30
0.0
 11
729.392443204222
 21
707.0999999999999
 31
0.0
  0
LINE
  5
28D
330
1F
100
AcDbEntity
  8
LAY-10
  6
CONTINUOUS
 62
     7
100
AcDbLine
 10
737.7208703289679
 20
701.6000000000004
 30
0.0
 11
732.220870328967
 21
707.1000000000013
 31
0.0
  0
LINE
  5
28E
330
1F
100
AcDbEntity
  8
LAY-10
  6
CONTINUOUS
 62
     7
100
AcDbLine
 10
740.5492974537166
 20
701.5999999999979
 30
0.0
 11
735.0492974537157
 21
707.0999999999988
 31
0.0
  0
LINE
  5
28F
330
1F
100
AcDbEntity
  8
LAY-10
  6
CONTINUOUS
 62
     7
100
AcDbLine
 10
743.3777245784615
 20
701.599999999999
 30
0.0
 11
737.8777245784606
 21
707.1
 31
0.0
  0
LINE
  5
290
330
1F
100
AcDbEntity
  8
LAY-10
  6
CONTINUOUS
 62
     7
100
AcDbLine
 10
746.2061517032065
 20
701.6000000000004
 30
0.0
 11
740.7061517032055
 21
707.1000000000013
 31
0.0
  0
LINE
  5
291
330
1F
100
AcDbEntity
  8
LAY-10
  6
CONTINUOUS
 62
     7
100
AcDbLine
 10
749.0345788279513
 20
701.6000000000016
 30
0.0
 11
743.5345788279543
 21
707.0999999999988
 31
0.0
  0
LINE
  5
292
330
1F
100
AcDbEntity
  8
LAY-10
  6
CONTINUOUS
 62
     7
100
AcDbLine
 10
751.8630059527002
 20
701.5999999999991
 30
0.0
 11
746.3630059526993
 21
707.1
 31
0.0
  0
LINE
  5
293
330
1F
100
AcDbEntity
  8
LAY-10
  6
CONTINUOUS
 62
     7
100
AcDbLine
 10
754.691433077445
 20
701.6000000000004
 30
0.0
 11
749.1914330774441
 21
707.1000000000013
 31
0.0
  0
LINE
  5
294
330
1F
100
AcDbEntity
  8
LAY-10
  6
CONTINUOUS
 62
     7
100
AcDbLine
 10
757.51986020219
 20
701.6000000000017
 30
0.0
 11
752.0198602021928
 21
707.0999999999988
 31
0.0
  0
LINE
  5
295
330
1F
100
AcDbEntity
  8
LAY-10
  6
CONTINUOUS
 62
     7
100
AcDbLine
 10
760.3482873269388
 20
701.5999999999991
 30
0.0
 11
754.8482873269378
 21
707.1
 31
0.0
  0
LINE
  5
296
330
1F
100
AcDbEntity
  8
LAY-10
  6
CONTINUOUS
 62
     7
100
AcDbLine
 10
763.1767144516837
 20
701.6000000000004
 30
0.0
 11
757.6767144516828
 21
707.1000000000013
 31
0.0
  0
LINE
  5
297
330
1F
100
AcDbEntity
  8
LAY-10
  6
CONTINUOUS
 62
     7
100
AcDbLine
 10
766.0051415764285
 20
701.6000000000017
 30
0.0
 11
760.5051415764315
 21
707.0999999999988
 31
0.0
  0
LINE
  5
298
330
1F
100
AcDbEntity
  8
LAY-10
  6
CONTINUOUS
 62
     7
100
AcDbLine
 10
768.8335687011772
 20
701.5999999999991
 30
0.0
 11
763.3335687011764
 21
707.1000000000001
 31
0.0
  0
LINE
  5
299
330
1F
100
AcDbEntity
  8
LAY-10
  6
CONTINUOUS
 62
     7
100
AcDbLine
 10
771.6619958259222
 20
701.6000000000004
 30
0.0
 11
766.1619958259251
 21
707.0999999999975
 31
0.0
  0
LINE
  5
29A
330
1F
100
AcDbEntity
  8
LAY-10
  6
CONTINUOUS
 62
     7
100
AcDbLine
 10
774.4904229506672
 20
701.6000000000017
 30
0.0
 11
768.9904229506701
 21
707.0999999999988
 31
0.0
  0
LINE
  5
29B
330
1F
100
AcDbEntity
  8
LAY-10
  6
CONTINUOUS
 62
     7
100
AcDbLine
 10
777.3188500754159
 20
701.5999999999992
 30
0.0
 11
771.8188500754151
 21
707.1000000000001
 31
0.0
  0
LINE
  5
29C
330
1F
100
AcDbEntity
  8
LAY-10
  6
CONTINUOUS
 62
     7
100
AcDbLine
 10
780.1472772001608
 20
701.6000000000005
 30
0.0
 11
774.6472772001638
 21
707.0999999999975
 31
0.0
  0
LINE
  5
29D
330
1F
100
AcDbEntity
  8
LAY-10
  6
CONTINUOUS
 62
     7
100
AcDbLine
 10
780.1472772001622
 20
704.4284271247454
 30
0.0
 11
777.4757043249087
 21
707.0999999999989
 31
0.0
  0
LINE
  5
29E
330
1F
100
AcDbEntity
  8
LAY-10
  6
CONTINUOUS
 62
     7
100
AcDbLine
 10
760.1472772001007
 20
550.6000000000275
 30
0.0
 11
760.1472772001007
 21
698.6
 31
0.0
  0
ARC
  5
29F
330
1F
100
AcDbEntity
  8
LAY-10
  6
CONTINUOUS
 62
     7
100
AcDbCircle
 10
722.6472772001007
 20
552.2994765079428
 30
0.0
 40
2.0
100
AcDbArc
 50
96.0090059574945
 51
180.0000000000001
  0
LINE
  5
2A0
330
1F
100
AcDbEntity
  8
LAY-10
  6
CONTINUOUS
 62
     7
100
AcDbLine
 10
722.4379076310647
 20
554.2884874137857
 30
0.0
 11
727.461331553655
 21
554.8172688793214
 31
0.0
  0
ARC
  5
2A1
330
1F
100
AcDbEntity
  8
LAY-10
  6
CONTINUOUS
 62
     7
100
AcDbCircle
 10
727.1472772001009
 20
557.8007852380856
 30
0.0
 40
3.000000000000002
100
AcDbArc
 50
276.0090059574936
 51
0.0000000000001719
  0
ARC
  5
2A2
330
1F
100
AcDbEntity
  8
LAY-10
  6
CONTINUOUS
 62
     7
100
AcDbCircle
 10
722.6472772001009
 20
696.9005234920575
 30
0.0
 40
2.0
100
AcDbArc
 50
180.0
 51
263.9909940425057
  0
LINE
  5
2A3
330
1F
100
AcDbEntity
  8
LAY-10
  6
CONTINUOUS
 62
     7
100
AcDbLine
 10
722.437907631065
 20
694.9115125862146
 30
0.0
 11
727.4613315536552
 21
694.3827311206788
 31
0.0
  0
ARC
  5
2A4
330
1F
100
AcDbEntity
  8
LAY-10
  6
CONTINUOUS
 62
     7
100
AcDbCircle
 10
727.1472772001011
 20
691.3992147619147
 30
0.0
 40
3.000000000000002
100
AcDbArc
 50
0.0000000000001719
 51
83.99099404250646
  0
LINE
  5
2A5
330
1F
100
AcDbEntity
  8
LAY-10
  6
CONTINUOUS
 62
     7
100
AcDbLine
 10
718.0985833982552
 20
537.4288257270083
 30
0.0
 11
704.6472772001007
 21
529.8624659905801
 31
0.0
  0
ARC
  5
2A6
330
1F
100
AcDbEntity
  8
LAY-10
  6
CONTINUOUS
 62
     7
100
AcDbCircle
 10
715.6472772001007
 20
541.7867034126357
 30
0.0
 40
5.0
100
AcDbArc
 50
299.3577535426826
 51
0.0000000000001719
  0
LINE
  5
2A7
330
1F
100
AcDbEntity
  8
LAY-10
  6
CONTINUOUS
 62
     7
100
AcDbLine
 10
718.0985833982552
 20
711.7711742729922
 30
0.0
 11
704.6472772001011
 21
719.3375340094202
 31
0.0
  0
ARC
  5
2A8
330
1F
100
AcDbEntity
  8
LAY-10
  6
CONTINUOUS
 62
     7
100
AcDbCircle
 10
715.6472772001007
 20
707.4132965873648
 30
0.0
 40
5.0
100
AcDbArc
 50
0.0000000000001719
 51
60.6422464573176
  0
LINE
  5
2A9
330
1F
100
AcDbEntity
  8
LAY-10
  6
CONTINUOUS
 62
     7
100
AcDbLine
 10
730.1472772001009
 20
557.3876519478487
 30
0.0
 11
758.642002533059
 21
556.8902746670493
 31
0.0
  0
LINE
  5
2AA
330
1F
100
AcDbEntity
  8
LAY-10
  6
CONTINUOUS
 62
     7
100
AcDbLine
 10
730.1472772001011
 20
691.8123480521516
 30
0.0
 11
758.642002533059
 21
692.3097253329506
 31
0.0
  0
LINE
  5
2AB
330
1F
100
AcDbEntity
  8
LAY-10
  6
CONTINUOUS
 62
     7
100
AcDbLine
 10
730.1472772001009
 20
557.80078523809
 30
0.0
 11
730.1472772001009
 21
691.39921476191
 31
0.0
  0
LINE
  5
2AC
330
1F
100
AcDbEntity
  8
LAY-10
  6
CONTINUOUS
 62
     7
100
AcDbLine
 10
720.6472772001007
 20
541.786703412636
 30
0.0
 11
720.6472772001007
 21
707.4132965873648
 31
0.0
  0
LINE
  5
2AD
330
1F
100
AcDbEntity
  8
LAY-10
  6
CONTINUOUS
 62
     7
100
AcDbLine
 10
710.147277200101
 20
724.1
 30
0.0
 11
726.647277200101
 21
714.1
 31
0.0
  0
LINE
  5
2AE
330
1F
100
AcDbEntity
  8
LAY-10
  6
CONTINUOUS
 62
     7
100
AcDbLine
 10
726.6472772001007
 20
702.4841581127821
 30
0.0
 11
726.6472772001007
 21
714.1000000000003
 31
0.0
  0
LINE
  5
2AF
330
1F
100
AcDbEntity
  8
LAY-10
  6
CONTINUOUS
 62
     7
100
AcDbLine
 10
728.5280864400062
 20
700.4877128811997
 30
0.0
 11
760.147277200101
 21
698.6
 31
0.0
  0
ARC
  5
2B0
330
1F
100
AcDbEntity
  8
LAY-10
  6
CONTINUOUS
 62
     7
100
AcDbCircle
 10
728.6472772001007
 20
702.4841581127821
 30
0.0
 40
2.0
100
AcDbArc
 50
180.0
 51
266.5834118082284
  0
ARC
  5
2B1
330
1F
100
AcDbEntity
  8
LAY-10
  6
CONTINUOUS
 62
     7
100
AcDbCircle
 10
728.6472772001001
 20
546.715841887218
 30
0.0
 40
2.0
100
AcDbArc
 50
93.41658819177162
 51
179.9999999999996
  0
LINE
  5
2B2
330
1F
100
AcDbEntity
  8
LAY-10
  6
CONTINUOUS
 62
     7
100
AcDbLine
 10
726.6472772001001
 20
546.715841887218
 30
0.0
 11
726.6472772001
 21
535.0999999999999
 31
0.0
  0
LINE
  5
2B3
330
1F
100
AcDbEntity
  8
LAY-10
  6
CONTINUOUS
 62
     7
100
AcDbLine
 10
710.1472772001002
 20
525.1000000000001
 30
0.0
 11
726.6472772001003
 21
535.1
 31
0.0
  0
LINE
  5
2B4
330
1F
100
AcDbEntity
  8
LAY-10
  6
CONTINUOUS
 62
     7
100
AcDbLine
 10
728.5280864400056
 20
548.7122871188003
 30
0.0
 11
760.1472772001005
 21
550.5999999999998
 31
0.0
  0
LINE
  5
2B5
330
1F
100
AcDbEntity
  8
LAY-10
  6
CONTINUOUS
 62
     7
100
AcDbLine
 10
704.647277200101
 20
620.6
 30
0.0
 11
720.647277200101
 21
618.6
 31
0.0
  0
LINE
  5
2B6
330
1F
100
AcDbEntity
  8
LAY-10
  6
CONTINUOUS
 62
     7
100
AcDbLine
 10
704.647277200101
 20
628.6000000000003
 30
0.0
 11
720.647277200101
 21
630.6000000000001
 31
0.0
  0
LINE
  5
2B7
330
1F
100
AcDbEntity
  8
LAY-10
  6
CONTINUOUS
 62
     7
100
AcDbLine
 10
695.1472772001007
 20
510.6
 30
0.0
 11
702.1472772001007
 21
509.6
 31
0.0
  0
ARC
  5
2B8
330
1F
100
AcDbEntity
  8
LAY-10
  6
CONTINUOUS
 62
     7
100
AcDbCircle
 10
698.5104965203004
 20
521.3941226926885
 30
0.0
 40
2.0
100
AcDbArc
 50
335.0952311918883
 51
33.46787343441424
  0
ARC
  5
2B9
330
1F
100
AcDbEntity
  8
LAY-10
  6
CONTINUOUS
 62
     7
100
AcDbCircle
 10
701.3790280517774
 20
527.5724982989417
 30
0.0
 40
2.0
100
AcDbArc
 50
276.722588949364
 51
335.0952311918902
  0
ARC
  5
2BA
330
1F
100
AcDbEntity
  8
LAY-10
  6
CONTINUOUS
 62
     7
100
AcDbCircle
 10
701.847277200101
 20
523.6
 30
0.0
 40
2.0
100
AcDbArc
 50
96.72258894931825
 51
213.4678734344141
  0
LINE
  5
2BB
330
1F
100
AcDbEntity
  8
LAY-10
  6
CONTINUOUS
 62
     7
100
AcDbLine
 10
698.1472772000989
 20
515.8624659905857
 30
0.0
 11
695.1472772001007
 21
515.6000000000082
 31
0.0
  0
LINE
  5
2BC
330
1F
100
AcDbEntity
  8
LAY-10
  6
CONTINUOUS
 62
     7
100
AcDbLine
 10
695.1472772001011
 20
738.6000000000005
 30
0.0
 11
702.1472772001011
 21
739.6000000000003
 31
0.0
  0
ARC
  5
2BD
330
1F
100
AcDbEntity
  8
LAY-10
  6
CONTINUOUS
 62
     7
100
AcDbCircle
 10
698.5104965203009
 20
727.8058773073118
 30
0.0
 40
2.0
100
AcDbArc
 50
326.5321265655821
 51
24.90476880811342
  0
ARC
  5
2BE
330
1F
100
AcDbEntity
  8
LAY-10
  6
CONTINUOUS
 62
     7
100
AcDbCircle
 10
701.3790280517776
 20
721.6275017010586
 30
0.0
 40
2.0
100
AcDbArc
 50
24.90476880811342
 51
83.27741105063654
  0
ARC
  5
2BF
330
1F
100
AcDbEntity
  8
LAY-10
  6
CONTINUOUS
 62
     7
100
AcDbCircle
 10
701.8472772001012
 20
725.6000000000003
 30
0.0
 40
2.0
100
AcDbArc
 50
146.5321265655874
 51
263.2774110506817
  0
LINE
  5
2C0
330
1F
100
AcDbEntity
  8
LAY-10
  6
CONTINUOUS
 62
     7
100
AcDbLine
 10
698.1472772000993
 20
733.3375340094145
 30
0.0
 11
695.1472772001011
 21
733.5999999999923
 31
0.0
  0
LINE
  5
2C1
330
1F
100
AcDbEntity
  8
LAY-10
  6
CONTINUOUS
 62
     7
100
AcDbLine
 10
704.6472772001011
 20
719.3375340094202
 30
0.0
 11
703.1930459872742
 21
722.4697243139684
 31
0.0
  0
LINE
  5
2C2
330
1F
100
AcDbEntity
  8
LAY-10
  6
CONTINUOUS
 62
     7
100
AcDbLine
 10
700.3245144557975
 20
728.6480999202216
 30
0.0
 11
698.1472772001011
 21
733.3375340094102
 31
0.0
  0
LINE
  5
2C3
330
1F
100
AcDbEntity
  8
LAY-10
  6
CONTINUOUS
 62
     7
100
AcDbLine
 10
704.6472772001007
 20
529.8624659905801
 30
0.0
 11
703.1930459872738
 21
526.7302756860321
 31
0.0
  0
LINE
  5
2C4
330
1F
100
AcDbEntity
  8
LAY-10
  6
CONTINUOUS
 62
     7
100
AcDbLine
 10
700.3245144557973
 20
520.5519000797789
 30
0.0
 11
698.1472772001007
 21
515.8624659905901
 31
0.0
  0
LINE
  5
2C5
330
1F
100
AcDbEntity
  8
LAY-10
  6
CONTINUOUS
 62
     7
100
AcDbLine
 10
704.6472772001007
 20
529.8624659905801
 30
0.0
 11
704.6472772001007
 21
719.3375340094204
 31
0.0
  0
LINE
  5
2C6
330
1F
100
AcDbEntity
  8
LAY-10
  6
CONTINUOUS
 62
     7
100
AcDbLine
 10
702.1472772001011
 20
739.6000000000003
 30
0.0
 11
702.1472772001011
 21
737.5999999999997
 31
0.0
  0
LINE
  5
2C7
330
1F
100
AcDbEntity
  8
LAY-10
  6
CONTINUOUS
 62
     7
100
AcDbLine
 10
702.147277200101
 20
737.6
 30
0.0
 11
710.147277200101
 21
724.1
 31
0.0
  0
LINE
  5
2C8
330
1F
100
AcDbEntity
  8
LAY-10
  6
CONTINUOUS
 62
     7
100
AcDbLine
 10
702.1472772001002
 20
511.6000000000003
 30
0.0
 11
710.1472772001002
 21
525.1000000000001
 31
0.0
  0
LINE
  5
2C9
330
1F
100
AcDbEntity
  8
LAY-10
  6
CONTINUOUS
 62
     7
100
AcDbLine
 10
702.1472772001007
 20
509.6
 30
0.0
 11
702.1472772001007
 21
511.6000000000011
 31
0.0
  0
LINE
  5
2CA
330
1F
100
AcDbEntity
  8
LAY-10
  6
CONTINUOUS
 62
     7
100
AcDbLine
 10
726.6472772001007
 20
701.6000000000001
 30
0.0
 11
780.1472772001605
 21
701.6
 31
0.0
  0
LINE
  5
2CB
330
1F
100
AcDbEntity
  8
LAY-10
  6
CONTINUOUS
 62
     7
100
AcDbLine
 10
726.6472772001007
 20
707.1000000000001
 30
0.0
 11
780.1472772001605
 21
707.1000000000001
 31
0.0
  0
LINE
  5
2CC
330
1F
100
AcDbEntity
  8
LAY-10
  6
CONTINUOUS
 62
     7
100
AcDbLine
 10
780.1472772001605
 20
707.1000000000001
 30
0.0
 11
780.1472772001605
 21
542.1
 31
0.0
  0
LINE
  5
2CD
330
1F
100
AcDbEntity
  8
LAY-10
  6
CONTINUOUS
 62
     7
100
AcDbLine
 10
726.6472772001007
 20
542.1000000000001
 30
0.0
 11
780.1472772001605
 21
542.1
 31
0.0
  0
LINE
  5
2CE
330
1F
100
AcDbEntity
  8
LAY-10
  6
CONTINUOUS
 62
     7
100
AcDbLine
 10
726.6472772001007
 20
547.6000000000001
 30
0.0
 11
780.1472772001605
 21
547.6
 31
0.0
  0
LINE
  5
2CF
330
1F
100
AcDbEntity
  8
LAY-10
  6
CONTINUOUS
 62
     7
100
AcDbLine
 10
626.1000000000014
 20
701.59999999999
 30
0.0
 11
626.1000000000012
 21
547.6000000000103
 31
0.0
  0
LINE
  5
2D0
330
1F
100
AcDbEntity
  8
LAY-10
  6
CONTINUOUS
 62
     7
100
AcDbLine
 10
683.1000000000014
 20
699.5886737457782
 30
0.0
 11
626.1000000000014
 21
697.0999999999943
 31
0.0
  0
LINE
  5
2D1
330
1F
100
AcDbEntity
  8
LAY-10
  6
CONTINUOUS
 62
     7
100
AcDbLine
 10
683.1000000000014
 20
704.576068685101
 30
0.0
 11
671.1000000000014
 21
705.1000000000028
 31
0.0
  0
LINE
  5
2D2
330
1F
100
AcDbEntity
  8
LAY-10
  6
CONTINUOUS
 62
     7
100
AcDbLine
 10
683.1000000000012
 20
544.6239313148993
 30
0.0
 11
671.1000000000012
 21
544.0999999999973
 31
0.0
  0
LINE
  5
2D3
330
1F
100
AcDbEntity
  8
LAY-10
  6
CONTINUOUS
 62
     7
100
AcDbLine
 10
683.1000000000012
 20
549.6113262542223
 30
0.0
 11
626.1000000000012
 21
552.1000000000059
 31
0.0
  0
LINE
  5
2D4
330
1F
100
AcDbEntity
  8
LAY-10
  6
CONTINUOUS
 62
     7
100
AcDbLine
 10
666.1000000000012
 20
544.3183047145427
 30
0.0
 11
671.1000000000012
 21
544.1000000000003
 31
0.0
  0
LINE
  5
2D5
330
1F
100
AcDbEntity
  8
LAY-10
  6
CONTINUOUS
 62
     7
100
AcDbLine
 10
666.1000000000014
 20
704.8816952854573
 30
0.0
 11
671.1000000000014
 21
705.0999999999998
 31
0.0
  0
LINE
  5
2D6
330
1F
100
AcDbEntity
  8
LAY-10
  6
CONTINUOUS
 62
     7
100
AcDbLine
 10
666.1000000000014
 20
703.3464377163294
 30
0.0
 11
666.1000000000014
 21
704.8816952854573
 31
0.0
  0
LINE
  5
2D7
330
1F
100
AcDbEntity
  8
LAY-10
  6
CONTINUOUS
 62
     7
100
AcDbLine
 10
666.1000000000012
 20
544.3183047145
 30
0.0
 11
666.1000000000012
 21
545.8535622836708
 31
0.0
  0
LINE
  5
2D8
330
1F
100
AcDbEntity
  8
LAY-10
  6
CONTINUOUS
 62
     7
100
AcDbLine
 10
666.1000000000014
 20
703.3464377163294
 30
0.0
 11
626.1000000000014
 21
701.59999999999
 31
0.0
  0
LINE
  5
2D9
330
1F
100
AcDbEntity
  8
LAY-10
  6
CONTINUOUS
 62
     7
100
AcDbLine
 10
666.1000000000012
 20
545.8535622836708
 30
0.0
 11
626.1000000000012
 21
547.6000000000103
 31
0.0
  0
ARC
  5
2DA
330
1F
100
AcDbEntity
  8
LAY-10
  6
CONTINUOUS
 62
     7
100
AcDbCircle
 10
686.100000000001
 20
609.6887218709533
 30
0.0
 40
3.000000000000002
100
AcDbArc
 50
94.99999999999994
 51
180.0000000000002
  0
ARC
  5
2DB
330
1F
100
AcDbEntity
  8
LAY-10
  6
CONTINUOUS
 62
     7
100
AcDbCircle
 10
686.100000000001
 20
639.5112781290466
 30
0.0
 40
3.000000000000002
100
AcDbArc
 50
180.0000000000002
 51
265.0000000000004
  0
LINE
  5
2DC
330
1F
100
AcDbEntity
  8
LAY-10
  6
CONTINUOUS
 62
     7
100
AcDbLine
 10
685.8385327717581
 20
636.5226940347713
 30
0.0
 11
700.2743114854964
 21
635.2597270481504
 31
0.0
  0
LINE
  5
2DD
330
1F
100
AcDbEntity
  8
LAY-10
  6
CONTINUOUS
 62
     7
100
AcDbLine
 10
685.8385327717581
 20
612.6773059652285
 30
0.0
 11
700.2743114854964
 21
613.9402729518495
 31
0.0
  0
LINE
  5
2DE
330
1F
100
AcDbEntity
  8
LAY-10
  6
CONTINUOUS
 62
     7
100
AcDbLine
 10
683.1000000000012
 20
544.6239313148996
 30
0.0
 11
683.1000000000013
 21
609.6887218709533
 31
0.0
  0
LINE
  5
2DF
330
1F
100
AcDbEntity
  8
LAY-10
  6
CONTINUOUS
 62
     7
100
AcDbLine
 10
683.1000000000013
 20
639.5112781290466
 30
0.0
 11
683.1000000000014
 21
704.5760686851011
 31
0.0
  0
ELLIPSE
  5
2E0
330
1F
100
AcDbEntity
  8
LAY-10
  6
CONTINUOUS
 62
     7
100
AcDbEllipse
 10
636.1000000000009
 20
561.43504336852
 30
0.0
 11
-3.0
 21
3.673940397442059E-16
 31
0.0
210
0.0
220
0.0
230
1.0
 40
0.5
 41
0.0
 42
6.283185307179586
  0
ELLIPSE
  5
2E1
330
1F
100
AcDbEntity
  8
LAY-10
  6
CONTINUOUS
 62
     7
100
AcDbEllipse
 10
636.1000000000012
 20
687.76495663148
 30
0.0
 11
-3.0
 21
3.673940397442059E-16
 31
0.0
210
0.0
220
0.0
230
1.0
 40
0.5
 41
0.0
 42
6.283185307179586
  0
LINE
  5
2E2
330
1F
100
AcDbEntity
  8
LAY-10
  6
CONTINUOUS
 62
     7
100
AcDbLine
 10
664.6000000000016
 20
711.6
 30
0.0
 11
704.6472772001614
 21
718.3375340094
 31
0.0
  0
LINE
  5
2E3
330
1F
100
AcDbEntity
  8
LAY-10
  6
CONTINUOUS
 62
     7
100
AcDbLine
 10
664.6000000000006
 20
537.6000000000009
 30
0.0
 11
704.6472772001605
 21
530.8624659906005
 31
0.0
  0
LINE
  5
2E4
330
1F
100
AcDbEntity
  8
LAY-10
  6
CONTINUOUS
 62
     7
100
AcDbLine
 10
664.6000000000015
 20
545.9190536980335
 30
0.0
 11
664.6000000000016
 21
537.6000000000003
 31
0.0
  0
LINE
  5
2E5
330
1F
100
AcDbEntity
  8
LAY-10
  6
CONTINUOUS
 62
     7
100
AcDbLine
 10
664.6000000000016
 20
706.5999999999998
 30
0.0
 11
665.0176639342112
 21
706.5999999999998
 31
0.0
  0
LINE
  5
2E6
330
1F
100
AcDbEntity
  8
LAY-10
  6
CONTINUOUS
 62
     7
100
AcDbLine
 10
665.0176639342116
 20
706.5999999999999
 30
0.0
 11
704.6472772001614
 21
713.2672664367213
 31
0.0
  0
LINE
  5
2E7
330
1F
100
AcDbEntity
  8
LAY-10
  6
CONTINUOUS
 62
     7
100
AcDbLine
 10
664.6000000000014
 20
542.6000000000003
 30
0.0
 11
665.0176639342111
 21
542.6000000000003
 31
0.0
  0
LINE
  5
2E8
330
1F
100
AcDbEntity
  8
LAY-10
  6
CONTINUOUS
 62
     7
100
AcDbLine
 10
665.0176639342158
 20
542.6000000000003
 30
0.0
 11
704.6472772001607
 21
535.9327335632792
 31
0.0
  0
LINE
  5
2E9
330
1F
100
AcDbEntity
  8
LAY-10
  6
CONTINUOUS
 62
     7
100
AcDbLine
 10
664.6000000000016
 20
711.6000000000001
 30
0.0
 11
664.6000000000016
 21
703.2809463019667
 31
0.0
  0
LINE
  5
2EA
330
1F
100
AcDbEntity
  8
LAY-10
  6
CONTINUOUS
 62
     7
100
AcDbLine
 10
683.1000000000013
 20
606.3474081285962
 30
0.0
 11
704.6472772001616
 21
605.0999999999993
 31
0.0
  0
LINE
  5
2EB
330
1F
100
AcDbEntity
  8
LAY-10
  6
CONTINUOUS
 62
     7
100
AcDbLine
 10
683.1000000000013
 20
642.8525918714046
 30
0.0
 11
704.6472772001619
 21
644.1000000000012
 31
0.0
  0
ARC
  5
2EC
330
1F
100
AcDbEntity
  8
LAY-10
  6
CONTINUOUS
 62
     7
100
AcDbCircle
 10
700.100000000001
 20
633.2673376519672
 30
0.0
 40
2.0
100
AcDbArc
 50
0.0000000000002292
 51
85.0000000000004
  0
LINE
  5
2ED
330
1F
100
AcDbEntity
  8
LAY-10
  6
CONTINUOUS
 62
     7
100
AcDbLine
 10
702.100000000001
 20
615.9326623480331
 30
0.0
 11
702.100000000001
 21
633.2673376519672
 31
0.0
  0
ARC
  5
2EE
330
1F
100
AcDbEntity
  8
LAY-10
  6
CONTINUOUS
 62
     7
100
AcDbCircle
 10
700.100000000001
 20
615.9326623480331
 30
0.0
 40
2.0
100
AcDbArc
 50
274.9999999999997
 51
0.0000000000002292
  0
LINE
  5
2EF
330
1F
100
AcDbEntity
  8
LAY-10
  6
CONTINUOUS
 62
     7
100
AcDbLine
 10
695.1472772001007
 20
510.6
 30
0.0
 11
695.1472772001007
 21
532.4607412683379
 31
0.0
  0
LINE
  5
2F0
330
1F
100
AcDbEntity
  8
LAY-10
  6
CONTINUOUS
 62
     7
100
AcDbLine
 10
698.1472772001009
 20
531.9560227595817
 30
0.0
 11
698.1472772001009
 21
515.8624659905901
 31
0.0
  0
LINE
  5
2F1
330
1F
100
AcDbEntity
  8
LAY-10
  6
CONTINUOUS
 62
     7
100
AcDbLine
 10
699.847277200101
 20
531.6700156046201
 30
0.0
 11
699.847277200101
 21
523.6
 31
0.0
  0
LINE
  5
2F2
330
1F
100
AcDbEntity
  8
LAY-10
  6
CONTINUOUS
 62
     7
100
AcDbLine
 10
702.5999999999408
 20
525.9884441641983
 30
0.0
 11
702.5999999999408
 21
531.2068988891021
 31
0.0
  0
LINE
  5
2F3
330
1F
100
AcDbEntity
  8
LAY-10
  6
CONTINUOUS
 62
     7
100
AcDbLine
 10
695.1472772001007
 20
716.7392587316626
 30
0.0
 11
695.1472772001007
 21
738.6
 31
0.0
  0
LINE
  5
2F4
330
1F
100
AcDbEntity
  8
LAY-10
  6
CONTINUOUS
 62
     7
100
AcDbLine
 10
698.1472772001009
 20
733.3375340094
 30
0.0
 11
698.1472772001009
 21
717.2439772404186
 31
0.0
  0
LINE
  5
2F5
330
1F
100
AcDbEntity
  8
LAY-10
  6
CONTINUOUS
 62
     7
100
AcDbLine
 10
699.847277200101
 20
725.6
 30
0.0
 11
699.847277200101
 21
717.5299843953803
 31
0.0
  0
LINE
  5
2F6
330
1F
100
AcDbEntity
  8
LAY-10
  6
CONTINUOUS
 62
     7
100
AcDbLine
 10
702.5999999999408
 20
717.9931011108982
 30
0.0
 11
702.5999999999408
 21
723.2115558358022
 31
0.0
  0
LINE
  5
2F7
330
1F
100
AcDbEntity
  8
LAY-10
  6
CONTINUOUS
 62
     7
100
AcDbLine
 10
150.3000000000001
 20
275.3364834836599
 30
0.0
 11
149.3000000000001
 21
268.3364834836599
 31
0.0
  0
ARC
  5
2F8
330
1F
100
AcDbEntity
  8
LAY-10
  6
CONTINUOUS
 62
     7
100
AcDbCircle
 10
337.6005234920571
 20
247.8364834836605
 30
0.0
 40
2.0
100
AcDbArc
 50
90.00000000000001
 51
173.9909940425021
  0
LINE
  5
2F9
330
1F
100
AcDbEntity
  8
LAY-10
  6
CONTINUOUS
 62
     7
100
AcDbLine
 10
335.6115125862142
 20
248.0458530526967
 30
0.0
 11
335.0827311206784
 21
243.0224291301063
 31
0.0
  0
ARC
  5
2FA
330
1F
100
AcDbEntity
  8
LAY-10
  6
CONTINUOUS
 62
     7
100
AcDbCircle
 10
332.0992147619144
 20
243.3364834836603
 30
0.0
 40
3.000000000000002
100
AcDbArc
 50
270.0
 51
353.9909940425067
  0
ARC
  5
2FB
330
1F
100
AcDbEntity
  8
LAY-10
  6
CONTINUOUS
 62
     7
100
AcDbCircle
 10
190.9994765079427
 20
247.8364834836601
 30
0.0
 40
2.0
100
AcDbArc
 50
6.00900595749774
 51
90.00000000000001
  0
LINE
  5
2FC
330
1F
100
AcDbEntity
  8
LAY-10
  6
CONTINUOUS
 62
     7
100
AcDbLine
 10
192.9884874137855
 20
248.045853052696
 30
0.0
 11
193.5172688793217
 21
243.0224291301056
 31
0.0
  0
ARC
  5
2FD
330
1F
100
AcDbEntity
  8
LAY-10
  6
CONTINUOUS
 62
     7
100
AcDbCircle
 10
196.5007852380858
 20
243.3364834836598
 30
0.0
 40
3.000000000000002
100
AcDbArc
 50
186.0090059574979
 51
270.0
  0
LINE
  5
2FE
330
1F
100
AcDbEntity
  8
LAY-10
  6
CONTINUOUS
 62
     7
100
AcDbLine
 10
196.5007852380858
 20
240.3364834836598
 30
0.0
 11
332.0992147619144
 21
240.3364834836603
 31
0.0
  0
LINE
  5
2FF
330
1F
100
AcDbEntity
  8
LAY-10
  6
CONTINUOUS
 62
     7
100
AcDbLine
 10
190.3000000000278
 20
210.3364834836601
 30
0.0
 11
338.2999999999728
 21
210.3364834836605
 31
0.0
  0
LINE
  5
300
330
1F
100
AcDbEntity
  8
LAY-10
  6
CONTINUOUS
 62
     7
100
AcDbLine
 10
150.7674178199194
 20
240.3364834836598
 30
0.0
 11
164.3000000000001
 21
240.3364834836598
 31
0.0
  0
LINE
  5
301
330
1F
100
AcDbEntity
  8
LAY-10
  6
CONTINUOUS
 62
     7
100
AcDbLine
 10
159.7585000000003
 20
250.3364834836589
 30
0.0
 11
154.8414999999999
 21
250.3364834836589
 31
0.0
  0
LINE
  5
302
330
1F
100
AcDbEntity
  8
LAY-10
  6
CONTINUOUS
 62
     7
100
AcDbLine
 10
157.3000000000051
 20
251.7558991204538
 30
0.0
 11
154.8415000000195
 21
250.3364834836589
 31
0.0
  0
LINE
  5
303
330
1F
100
AcDbEntity
  8
LAY-10
  6
CONTINUOUS
 62
     7
100
AcDbLine
 10
157.2999999999946
 20
251.7558991204538
 30
0.0
 11
159.7584999999807
 21
250.3364834836589
 31
0.0
  0
LINE
  5
304
330
1F
100
AcDbEntity
  8
LAY-10
  6
CONTINUOUS
 62
     7
100
AcDbLine
 10
160.8414999999999
 20
255.8364834836607
 30
0.0
 11
165.7585000000003
 21
255.8364834836607
 31
0.0
  0
LINE
  5
305
330
1F
100
AcDbEntity
  8
LAY-10
  6
CONTINUOUS
 62
     7
100
AcDbLine
 10
163.2999999999946
 20
254.4170678468661
 30
0.0
 11
165.7584999999807
 21
255.8364834836607
 31
0.0
  0
LINE
  5
306
330
1F
100
AcDbEntity
  8
LAY-10
  6
CONTINUOUS
 62
     7
100
AcDbLine
 10
163.3000000000051
 20
254.4170678468661
 30
0.0
 11
160.8415000000195
 21
255.8364834836607
 31
0.0
  0
LINE
  5
307
330
1F
100
AcDbEntity
  8
LAY-10
  6
CONTINUOUS
 62
     7
100
AcDbLine
 10
178.5624659905401
 20
249.8364834836598
 30
0.0
 11
169.5624659905801
 21
265.8364834836599
 31
0.0
  0
LINE
  5
308
330
1F
100
AcDbEntity
  8
LAY-10
  6
CONTINUOUS
 62
     7
100
AcDbLine
 10
478.3
 20
275.3364834836609
 30
0.0
 11
479.3000000000001
 21
268.3364834836609
 31
0.0
  0
LINE
  5
309
330
1F
100
AcDbEntity
  8
LAY-10
  6
CONTINUOUS
 62
     7
100
AcDbLine
 10
178.5473201135736
 20
249.8364834836598
 30
0.0
 11
369.0375340094228
 21
249.8364834836607
 31
0.0
  0
LINE
  5
30A
330
1F
100
AcDbEntity
  8
LAY-10
  6
CONTINUOUS
 62
     7
100
AcDbLine
 10
369.03753400942
 20
249.8364834836607
 30
0.0
 11
459.03753400942
 21
265.836483483661
 31
0.0
  0
LINE
  5
30B
330
1F
100
AcDbEntity
  8
LAY-10
  6
CONTINUOUS
 62
     7
100
AcDbLine
 10
156.1311423035044
 20
265.8364834836599
 30
0.0
 11
155.3000000000083
 21
275.3364834836599
 31
0.0
  0
LINE
  5
30C
330
1F
100
AcDbEntity
  8
LAY-10
  6
CONTINUOUS
 62
     7
100
AcDbLine
 10
467.7585000000003
 20
255.8364834836616
 30
0.0
 11
462.8414999999999
 21
255.8364834836616
 31
0.0
  0
LINE
  5
30D
330
1F
100
AcDbEntity
  8
LAY-10
  6
CONTINUOUS
 62
     7
100
AcDbLine
 10
465.300000000005
 20
254.4170678468672
 30
0.0
 11
462.8415000000194
 21
255.8364834836616
 31
0.0
  0
LINE
  5
30E
330
1F
100
AcDbEntity
  8
LAY-10
  6
CONTINUOUS
 62
     7
100
AcDbLine
 10
465.2999999999946
 20
254.4170678468672
 30
0.0
 11
467.7584999999806
 21
255.8364834836616
 31
0.0
  0
LINE
  5
30F
330
1F
100
AcDbEntity
  8
LAY-10
  6
CONTINUOUS
 62
     7
100
AcDbLine
 10
472.4688576964953
 20
265.8364834836609
 30
0.0
 11
473.2999999999919
 21
275.3364834836609
 31
0.0
  0
LINE
  5
310
330
1F
100
AcDbEntity
  8
LAY-10
  6
CONTINUOUS
 62
     7
100
AcDbLine
 10
477.8325821800935
 20
240.3364834836597
 30
0.0
 11
479.3000000000182
 21
268.3364834836602
 31
0.0
  0
LINE
  5
311
330
1F
100
AcDbEntity
  8
LAY-10
  6
CONTINUOUS
 62
     7
100
AcDbLine
 10
477.8325821800935
 20
240.3364834836611
 30
0.0
 11
464.3000000000314
 21
240.3364834836611
 31
0.0
  0
LINE
  5
312
330
1F
100
AcDbEntity
  8
LAY-10
  6
CONTINUOUS
 62
     7
100
AcDbLine
 10
191.3000000000001
 20
265.8364834836599
 30
0.0
 11
192.8000000000001
 21
249.8364834836598
 31
0.0
  0
LINE
  5
313
330
1F
100
AcDbEntity
  8
LAY-10
  6
CONTINUOUS
 62
     7
100
AcDbLine
 10
152.8000000000012
 20
218.3364834836632
 30
0.0
 11
142.8000000000008
 21
218.3364834836632
 31
0.0
  0
LINE
  5
314
330
1F
100
AcDbEntity
  8
LAY-10
  6
CONTINUOUS
 62
     7
100
AcDbLine
 10
142.8000000000008
 20
218.3364834836632
 30
0.0
 11
142.8000000000008
 21
223.3364834836632
 31
0.0
  0
LINE
  5
315
330
1F
100
AcDbEntity
  8
LAY-10
  6
CONTINUOUS
 62
     7
100
AcDbLine
 10
152.8000000000012
 20
223.3364834836632
 30
0.0
 11
142.8000000000008
 21
223.3364834836632
 31
0.0
  0
ARC
  5
316
330
1F
100
AcDbEntity
  8
LAY-10
  6
CONTINUOUS
 62
     7
100
AcDbCircle
 10
152.8000000000012
 20
225.3364834836632
 30
0.0
 40
2.0
100
AcDbArc
 50
270.0
 51
0.0
  0
ARC
  5
317
330
1F
100
AcDbEntity
  8
LAY-10
  6
CONTINUOUS
 62
     7
100
AcDbCircle
 10
152.8000000000012
 20
225.3364834836632
 30
0.0
 40
7.000000000000004
100
AcDbArc
 50
270.0
 51
0.0
  0
LINE
  5
318
330
1F
100
AcDbEntity
  8
LAY-10
  6
CONTINUOUS
 62
     7
100
AcDbLine
 10
154.8000000000012
 20
225.3364834836632
 30
0.0
 11
154.8000000000012
 21
240.3364834836598
 31
0.0
  0
LINE
  5
319
330
1F
100
AcDbEntity
  8
LAY-10
  6
CONTINUOUS
 62
     7
100
AcDbLine
 10
159.8000000000015
 20
240.3364834836598
 30
0.0
 11
159.8000000000015
 21
225.3364834836632
 31
0.0
  0
LINE
  5
31A
330
1F
100
AcDbEntity
  8
LAY-10
  6
CONTINUOUS
 62
     7
100
AcDbLine
 10
154.8414999999999
 20
246.3364834836635
 30
0.0
 11
154.8414999999999
 21
250.3364834836589
 31
0.0
  0
LINE
  5
31B
330
1F
100
AcDbEntity
  8
LAY-10
  6
CONTINUOUS
 62
     7
100
AcDbLine
 10
159.7585000000003
 20
246.3364834836635
 30
0.0
 11
159.7585000000003
 21
250.3364834836589
 31
0.0
  0
LINE
  5
31C
330
1F
100
AcDbEntity
  8
LAY-10
  6
CONTINUOUS
 62
     7
100
AcDbLine
 10
160.3000000000001
 20
245.7949834836625
 30
0.0
 11
159.7584999999994
 21
246.3364834836635
 31
0.0
  0
LINE
  5
31D
330
1F
100
AcDbEntity
  8
LAY-10
  6
CONTINUOUS
 62
     7
100
AcDbLine
 10
154.3000000000006
 20
245.7949834836625
 30
0.0
 11
154.8415000000013
 21
246.3364834836635
 31
0.0
  0
LINE
  5
31E
330
1F
100
AcDbEntity
  8
LAY-10
  6
CONTINUOUS
 62
     7
100
AcDbLine
 10
159.7584999999994
 20
246.3364834836635
 30
0.0
 11
154.8415000000013
 21
246.3364834836635
 31
0.0
  0
LINE
  5
31F
330
1F
100
AcDbEntity
  8
LAY-10
  6
CONTINUOUS
 62
     7
100
AcDbLine
 10
468.8415000000001
 20
250.3364834836588
 30
0.0
 11
473.7585000000004
 21
250.3364834836588
 31
0.0
  0
LINE
  5
320
330
1F
100
AcDbEntity
  8
LAY-10
  6
CONTINUOUS
 62
     7
100
AcDbLine
 10
471.2999999999953
 20
251.7558991204537
 30
0.0
 11
473.7584999999809
 21
250.3364834836588
 31
0.0
  0
LINE
  5
321
330
1F
100
AcDbEntity
  8
LAY-10
  6
CONTINUOUS
 62
     7
100
AcDbLine
 10
471.3000000000057
 20
251.7558991204537
 30
0.0
 11
468.8415000000197
 21
250.3364834836588
 31
0.0
  0
LINE
  5
322
330
1F
100
AcDbEntity
  8
LAY-10
  6
CONTINUOUS
 62
     7
100
AcDbLine
 10
475.7999999999992
 20
218.3364834836632
 30
0.0
 11
485.7999999999996
 21
218.3364834836632
 31
0.0
  0
LINE
  5
323
330
1F
100
AcDbEntity
  8
LAY-10
  6
CONTINUOUS
 62
     7
100
AcDbLine
 10
485.7999999999996
 20
218.3364834836632
 30
0.0
 11
485.7999999999996
 21
223.3364834836632
 31
0.0
  0
LINE
  5
324
330
1F
100
AcDbEntity
  8
LAY-10
  6
CONTINUOUS
 62
     7
100
AcDbLine
 10
475.7999999999992
 20
223.3364834836632
 30
0.0
 11
485.7999999999996
 21
223.3364834836632
 31
0.0
  0
ARC
  5
325
330
1F
100
AcDbEntity
  8
LAY-10
  6
CONTINUOUS
 62
     7
100
AcDbCircle
 10
475.7999999999992
 20
225.3364834836632
 30
0.0
 40
2.0
100
AcDbArc
 50
180.0
 51
270.0
  0
ARC
  5
326
330
1F
100
AcDbEntity
  8
LAY-10
  6
CONTINUOUS
 62
     7
100
AcDbCircle
 10
475.7999999999992
 20
225.3364834836632
 30
0.0
 40
7.000000000000004
100
AcDbArc
 50
180.0
 51
270.0
  0
LINE
  5
327
330
1F
100
AcDbEntity
  8
LAY-10
  6
CONTINUOUS
 62
     7
100
AcDbLine
 10
473.7999999999992
 20
225.3364834836632
 30
0.0
 11
473.7999999999992
 21
240.3364834836597
 31
0.0
  0
LINE
  5
328
330
1F
100
AcDbEntity
  8
LAY-10
  6
CONTINUOUS
 62
     7
100
AcDbLine
 10
468.7999999999989
 20
240.3364834836597
 30
0.0
 11
468.7999999999989
 21
225.3364834836632
 31
0.0
  0
LINE
  5
329
330
1F
100
AcDbEntity
  8
LAY-10
  6
CONTINUOUS
 62
     7
100
AcDbLine
 10
473.7585000000004
 20
246.3364834836634
 30
0.0
 11
473.7585000000004
 21
250.3364834836588
 31
0.0
  0
LINE
  5
32A
330
1F
100
AcDbEntity
  8
LAY-10
  6
CONTINUOUS
 62
     7
100
AcDbLine
 10
468.8415000000001
 20
246.3364834836634
 30
0.0
 11
468.8415000000001
 21
250.3364834836588
 31
0.0
  0
LINE
  5
32B
330
1F
100
AcDbEntity
  8
LAY-10
  6
CONTINUOUS
 62
     7
100
AcDbLine
 10
468.3000000000002
 20
245.7949834836625
 30
0.0
 11
468.8415000000011
 21
246.3364834836634
 31
0.0
  0
LINE
  5
32C
330
1F
100
AcDbEntity
  8
LAY-10
  6
CONTINUOUS
 62
     7
100
AcDbLine
 10
468.3000000000002
 20
245.7949834836625
 30
0.0
 11
468.3000000000002
 21
240.3364834836597
 31
0.0
  0
LINE
  5
32D
330
1F
100
AcDbEntity
  8
LAY-10
  6
CONTINUOUS
 62
     7
100
AcDbLine
 10
474.2999999999999
 20
245.7949834836625
 30
0.0
 11
473.758499999999
 21
246.3364834836634
 31
0.0
  0
LINE
  5
32E
330
1F
100
AcDbEntity
  8
LAY-10
  6
CONTINUOUS
 62
     7
100
AcDbLine
 10
468.8415000000011
 20
246.3364834836634
 30
0.0
 11
473.758499999999
 21
246.3364834836634
 31
0.0
  0
LINE
  5
32F
330
1F
100
AcDbEntity
  8
LAY-10
  6
CONTINUOUS
 62
     7
100
AcDbLine
 10
474.3000000000002
 20
245.7949834836599
 30
0.0
 11
474.3000000000002
 21
240.3364834836597
 31
0.0
  0
LINE
  5
330
330
1F
100
AcDbEntity
  8
LAY-10
  6
CONTINUOUS
 62
     7
100
AcDbLine
 10
446.2999999999996
 20
305.8837606838001
 30
0.0
 11
445.7999999999996
 21
299.3837606838001
 31
0.0
  0
LINE
  5
331
330
1F
100
AcDbEntity
  8
LAY-10
  6
CONTINUOUS
 62
     7
100
AcDbLine
 10
469.3
 20
271.8364834836399
 30
0.0
 11
457.0280969918882
 21
271.8364834836399
 31
0.0
  0
LINE
  5
332
330
1F
100
AcDbEntity
  8
LAY-10
  6
CONTINUOUS
 62
     7
100
AcDbLine
 10
469.3
 20
271.8364834836397
 30
0.0
 11
470.3000000000001
 21
265.8364834836397
 31
0.0
  0
LINE
  5
333
330
1F
100
AcDbEntity
  8
LAY-10
  6
CONTINUOUS
 62
     7
100
AcDbLine
 10
423.3000000000001
 20
299.3837606837996
 30
0.0
 11
424.0810086836472
 21
293.1356912146147
 31
0.0
  0
ARC
  5
334
330
1F
100
AcDbEntity
  8
LAY-10
  6
CONTINUOUS
 62
     7
100
AcDbCircle
 10
426.0655644370746
 20
293.3837606837928
 30
0.0
 40
2.0
100
AcDbArc
 50
187.1250163488934
 51
270.0
  0
ARC
  5
335
330
1F
100
AcDbEntity
  8
LAY-10
  6
CONTINUOUS
 62
     7
100
AcDbCircle
 10
446.1317631847913
 20
288.3837606837928
 30
0.0
 40
3.000000000000002
100
AcDbArc
 50
9.549981069600186
 51
90.00000000000001
  0
LINE
  5
336
330
1F
100
AcDbEntity
  8
LAY-10
  6
CONTINUOUS
 62
     7
100
AcDbLine
 10
449.0901869336341
 20
288.8814844247208
 30
0.0
 11
452.9672664367211
 21
265.8364834836397
 31
0.0
  0
LINE
  5
337
330
1F
100
AcDbEntity
  8
LAY-10
  6
CONTINUOUS
 62
     7
100
AcDbLine
 10
158.8000000000024
 20
271.8364834836402
 30
0.0
 11
170.9726113289002
 21
271.8364834836402
 31
0.0
  0
LINE
  5
338
330
1F
100
AcDbEntity
  8
LAY-10
  6
CONTINUOUS
 62
     7
100
AcDbLine
 10
158.8000000000001
 20
271.83648348364
 30
0.0
 11
158.3000000000001
 21
265.83648348364
 31
0.0
  0
LINE
  5
339
330
1F
100
AcDbEntity
  8
LAY-10
  6
CONTINUOUS
 62
     7
100
AcDbLine
 10
453.8315464364339
 20
290.8364834836397
 30
0.0
 11
448.7612788637551
 21
290.8364834836397
 31
0.0
  0
LINE
  5
33A
330
1F
100
AcDbEntity
  8
LAY-10
  6
CONTINUOUS
 62
     7
100
AcDbLine
 10
365.1549106179791
 20
287.0382088638052
 30
0.0
 11
363.3000000000246
 21
265.8364834836399
 31
0.0
  0
ARC
  5
33B
330
1F
100
AcDbEntity
  8
LAY-10
  6
CONTINUOUS
 62
     7
100
AcDbCircle
 10
369.3000000000001
 20
286.6755605335767
 30
0.0
 40
4.160922950065699
100
AcDbArc
 50
4.999999999999228
 51
175.0000000000009
  0
LINE
  5
33C
330
1F
100
AcDbEntity
  8
LAY-10
  6
CONTINUOUS
 62
     7
100
AcDbLine
 10
373.4450893820212
 20
287.0382088638052
 30
0.0
 11
375.2999999999755
 21
265.8364834836399
 31
0.0
  0
LINE
  5
33D
330
1F
100
AcDbEntity
  8
LAY-10
  6
CONTINUOUS
 62
     7
100
AcDbLine
 10
395.1549106179789
 20
287.0382088638052
 30
0.0
 11
393.3000000000246
 21
265.8364834836397
 31
0.0
  0
ARC
  5
33E
330
1F
100
AcDbEntity
  8
LAY-10
  6
CONTINUOUS
 62
     7
100
AcDbCircle
 10
399.3000000000001
 20
286.6755605335765
 30
0.0
 40
4.160922950065699
100
AcDbArc
 50
4.999999999999114
 51
174.9999999999992
  0
LINE
  5
33F
330
1F
100
AcDbEntity
  8
LAY-10
  6
CONTINUOUS
 62
     7
100
AcDbLine
 10
403.4450893820211
 20
287.038208863805
 30
0.0
 11
405.2999999999755
 21
265.8364834836397
 31
0.0
  0
LINE
  5
340
330
1F
100
AcDbEntity
  8
LAY-10
  6
CONTINUOUS
 62
     7
100
AcDbLine
 10
425.1549106179789
 20
287.0382088638052
 30
0.0
 11
423.3000000000246
 21
265.8364834836397
 31
0.0
  0
LINE
  5
341
330
1F
100
AcDbEntity
  8
LAY-10
  6
CONTINUOUS
 62
     7
100
AcDbLine
 10
433.4450893820211
 20
287.038208863805
 30
0.0
 11
435.2999999999755
 21
265.8364834836397
 31
0.0
  0
ARC
  5
342
330
1F
100
AcDbEntity
  8
LAY-10
  6
CONTINUOUS
 62
     7
100
AcDbCircle
 10
355.7720399325366
 20
285.8837606837785
 30
0.0
 40
1.0
100
AcDbArc
 50
182.0000000000036
 51
270.0
  0
LINE
  5
343
330
1F
100
AcDbEntity
  8
LAY-10
  6
CONTINUOUS
 62
     7
100
AcDbLine
 10
355.7720399325366
 20
284.8837606837785
 30
0.0
 11
357.8279600675284
 21
284.8837606837785
 31
0.0
  0
ARC
  5
344
330
1F
100
AcDbEntity
  8
LAY-10
  6
CONTINUOUS
 62
     7
100
AcDbCircle
 10
357.8279600675284
 20
285.8837606837785
 30
0.0
 40
1.0
100
AcDbArc
 50
270.0
 51
357.9999999999962
  0
LINE
  5
345
330
1F
100
AcDbEntity
  8
LAY-10
  6
CONTINUOUS
 62
     7
100
AcDbLine
 10
175.5741342645255
 20
265.83648348364
 30
0.0
 11
177.840158193667
 21
298.986058291081
 31
0.0
  0
ARC
  5
346
330
1F
100
AcDbEntity
  8
LAY-10
  6
CONTINUOUS
 62
     7
100
AcDbCircle
 10
179.336665861387
 20
298.8837606837997
 30
0.0
 40
1.5
100
AcDbArc
 50
90.00000000000001
 51
176.0894839117764
  0
LINE
  5
347
330
1F
100
AcDbEntity
  8
LAY-10
  6
CONTINUOUS
 62
     7
100
AcDbLine
 10
179.336665861387
 20
300.3837606837997
 30
0.0
 11
182.7999999999908
 21
300.3837606837997
 31
0.0
  0
LINE
  5
348
330
1F
100
AcDbEntity
  8
LAY-10
  6
CONTINUOUS
 62
     7
100
AcDbLine
 10
182.7999999999901
 20
300.3837606837999
 30
0.0
 11
182.3000000000001
 21
305.8837606837999
 31
0.0
  0
LINE
  5
349
330
1F
100
AcDbEntity
  8
LAY-10
  6
CONTINUOUS
 62
     7
100
AcDbLine
 10
187.3000000000101
 20
344.3837606837601
 30
0.0
 11
341.29999999999
 21
344.38376068376
 31
0.0
  0
LINE
  5
34A
330
1F
100
AcDbEntity
  8
LAY-10
  6
CONTINUOUS
 62
     7
100
AcDbLine
 10
188.481768338961
 20
268.3837606837601
 30
0.0
 11
191.800000000006
 21
344.3837606837601
 31
0.0
  0
LINE
  5
34B
330
1F
100
AcDbEntity
  8
LAY-10
  6
CONTINUOUS
 62
     7
100
AcDbLine
 10
185.3352575691283
 20
299.3837606837601
 30
0.0
 11
187.3000000000101
 21
344.3837606837601
 31
0.0
  0
LINE
  5
34C
330
1F
100
AcDbEntity
  8
LAY-10
  6
CONTINUOUS
 62
     7
100
AcDbLine
 10
185.3352575691283
 20
299.3837606837601
 30
0.0
 11
179.3000000000001
 21
299.3837606837601
 31
0.0
  0
LINE
  5
34D
330
1F
100
AcDbEntity
  8
LAY-10
  6
CONTINUOUS
 62
     7
100
AcDbLine
 10
344.2760686851007
 20
287.38376068376
 30
0.0
 11
189.3113262542219
 21
287.3837606837601
 31
0.0
  0
LINE
  5
34E
330
1F
100
AcDbEntity
  8
LAY-10
  6
CONTINUOUS
 62
     7
100
AcDbLine
 10
188.481768338961
 20
268.3837606837601
 30
0.0
 11
185.1534892301605
 21
268.3837606837601
 31
0.0
  0
LINE
  5
34F
330
1F
100
AcDbEntity
  8
LAY-10
  6
CONTINUOUS
 62
     7
100
AcDbLine
 10
344.5816952854576
 20
304.38376068376
 30
0.0
 11
344.8
 21
299.38376068376
 31
0.0
  0
LINE
  5
350
330
1F
100
AcDbEntity
  8
LAY-10
  6
CONTINUOUS
 62
     7
100
AcDbLine
 10
344.2760686851007
 20
287.38376068376
 30
0.0
 11
344.8000000000025
 21
299.38376068376
 31
0.0
  0
LINE
  5
351
330
1F
100
AcDbEntity
  8
LAY-10
  6
CONTINUOUS
 62
     7
100
AcDbLine
 10
361.1035257569131
 20
294.88376068376
 30
0.0
 11
361.3000000000014
 21
299.38376068376
 31
0.0
  0
LINE
  5
352
330
1F
100
AcDbEntity
  8
LAY-10
  6
CONTINUOUS
 62
     7
100
AcDbLine
 10
179.4964742430915
 20
294.8837606837601
 30
0.0
 11
179.3000000000033
 21
299.3837606837601
 31
0.0
  0
LINE
  5
353
330
1F
100
AcDbEntity
  8
LAY-10
  6
CONTINUOUS
 62
     7
100
AcDbLine
 10
185.1534892301605
 20
268.3837606837601
 30
0.0
 11
183.9964742430856
 21
294.8837606837601
 31
0.0
  0
LINE
  5
354
330
1F
100
AcDbEntity
  8
LAY-10
  6
CONTINUOUS
 62
     7
100
AcDbLine
 10
361.0598648140002
 20
294.88376068376
 30
0.0
 11
344.6035257569143
 21
294.88376068376
 31
0.0
  0
LINE
  5
355
330
1F
100
AcDbEntity
  8
LAY-10
  6
CONTINUOUS
 62
     7
100
AcDbLine
 10
183.9964742430856
 20
294.8837606837599
 30
0.0
 11
179.4964742430915
 21
294.8837606837599
 31
0.0
  0
LINE
  5
356
330
1F
100
AcDbEntity
  8
LAY-10
  6
CONTINUOUS
 62
     7
100
AcDbLine
 10
173.3000000000001
 20
305.8837606837999
 30
0.0
 11
185.6190536980352
 21
305.8837606837999
 31
0.0
  0
LINE
  5
357
330
1F
100
AcDbEntity
  8
LAY-10
  6
CONTINUOUS
 62
     7
100
AcDbLine
 10
342.9809463019649
 20
305.8837606837996
 30
0.0
 11
451.3000000000001
 21
305.8837606837996
 31
0.0
  0
LINE
  5
358
330
1F
100
AcDbEntity
  8
LAY-10
  6
CONTINUOUS
 62
     7
100
AcDbLine
 10
354.7726491055175
 20
285.8488611870759
 30
0.0
 11
354.4571434628119
 21
294.88376068376
 31
0.0
  0
LINE
  5
359
330
1F
100
AcDbEntity
  8
LAY-10
  6
CONTINUOUS
 62
     7
100
AcDbLine
 10
358.8273508945476
 20
285.8488611870759
 30
0.0
 11
359.1428565372532
 21
294.88376068376
 31
0.0
  0
LINE
  5
35A
330
1F
100
AcDbEntity
  8
LAY-10
  6
CONTINUOUS
 62
     7
100
AcDbLine
 10
344.5380343425533
 20
293.3837606837996
 30
0.0
 11
359.0904753830168
 21
293.3837606837996
 31
0.0
  0
LINE
  5
35B
330
1F
100
AcDbEntity
  8
LAY-10
  6
CONTINUOUS
 62
     7
100
AcDbLine
 10
181.4449503066266
 20
300.3837606837997
 30
0.0
 11
181.2767108037012
 21
299.3837606837601
 31
0.0
  0
LINE
  5
35C
330
1F
100
AcDbEntity
  8
LAY-10
  6
CONTINUOUS
 62
     7
100
AcDbLine
 10
180.5196330405674
 20
294.8837606837599
 30
0.0
 11
175.632733563279
 21
265.83648348364
 31
0.0
  0
LINE
  5
35D
330
1F
100
AcDbEntity
  8
LAY-10
  6
CONTINUOUS
 62
     7
100
AcDbLine
 10
427.0500000000004
 20
305.38376068376
 30
0.0
 11
427.0500000000004
 21
304.1337606837546
 31
0.0
  0
LINE
  5
35E
330
1F
100
AcDbEntity
  8
LAY-10
  6
CONTINUOUS
 62
     7
100
AcDbLine
 10
439.5500000000002
 20
305.38376068376
 30
0.0
 11
439.5500000000002
 21
304.1337606837546
 31
0.0
  0
LINE
  5
35F
330
1F
100
AcDbEntity
  8
LAY-10
  6
CONTINUOUS
 62
     7
100
AcDbLine
 10
427.0499999999475
 20
304.1337606838073
 30
0.0
 11
429.2999999999672
 21
301.8837606837873
 31
0.0
  0
LINE
  5
360
330
1F
100
AcDbEntity
  8
LAY-10
  6
CONTINUOUS
 62
     7
100
AcDbLine
 10
439.550000000053
 20
304.1337606838073
 30
0.0
 11
437.3000000000332
 21
301.8837606837873
 31
0.0
  0
LINE
  5
361
330
1F
100
AcDbEntity
  8
LAY-10
  6
CONTINUOUS
 62
     7
100
AcDbLine
 10
429.3000000000002
 20
301.88376068376
 30
0.0
 11
429.3000000000002
 21
299.38376068376
 31
0.0
  0
LINE
  5
362
330
1F
100
AcDbEntity
  8
LAY-10
  6
CONTINUOUS
 62
     7
100
AcDbLine
 10
437.3000000000001
 20
301.8837606838219
 30
0.0
 11
437.3000000000001
 21
299.38376068376
 31
0.0
  0
ARC
  5
363
330
1F
100
AcDbEntity
  8
LAY-10
  6
CONTINUOUS
 62
     7
100
AcDbCircle
 10
442.6057458232342
 20
301.38376068376
 30
0.0
 40
2.0
100
AcDbArc
 50
270.0
 51
350.5376777919744
  0
LINE
  5
364
330
1F
100
AcDbEntity
  8
LAY-10
  6
CONTINUOUS
 62
     7
100
AcDbLine
 10
444.5785336708984
 20
301.0549627091495
 30
0.0
 11
445.3000000000002
 21
305.38376068376
 31
0.0
  0
ARC
  5
365
330
1F
100
AcDbEntity
  8
LAY-10
  6
CONTINUOUS
 62
     7
100
AcDbCircle
 10
348.9942541767663
 20
301.38376068376
 30
0.0
 40
2.0
100
AcDbArc
 50
189.462322208024
 51
270.0
  0
LINE
  5
366
330
1F
100
AcDbEntity
  8
LAY-10
  6
CONTINUOUS
 62
     7
100
AcDbLine
 10
347.0214663291021
 20
301.0549627091495
 30
0.0
 11
346.3000000000004
 21
305.38376068376
 31
0.0
  0
LINE
  5
367
330
1F
100
AcDbEntity
  8
LAY-10
  6
CONTINUOUS
 62
     7
100
AcDbLine
 10
346.3000000000004
 20
305.38376068376
 30
0.0
 11
445.3000000000002
 21
305.38376068376
 31
0.0
  0
LINE
  5
368
330
1F
100
AcDbEntity
  8
LAY-10
  6
CONTINUOUS
 62
     7
100
AcDbLine
 10
433.8999999999695
 20
304.2837606837804
 30
0.0
 11
439.2999999999693
 21
304.2837606837804
 31
0.0
  0
LINE
  5
369
330
1F
100
AcDbEntity
  8
LAY-10
  6
CONTINUOUS
 62
     7
100
AcDbLine
 10
433.8999999999695
 20
303.8837606837803
 30
0.0
 11
439.2999999999693
 21
303.8837606837803
 31
0.0
  0
LINE
  5
36A
330
1F
100
AcDbEntity
  8
LAY-10
  6
CONTINUOUS
 62
     7
100
AcDbLine
 10
432.6999999999694
 20
302.8837606837803
 30
0.0
 11
433.8999999999695
 21
302.8837606837803
 31
0.0
  0
LINE
  5
36B
330
1F
100
AcDbEntity
  8
LAY-10
  6
CONTINUOUS
 62
     7
100
AcDbLine
 10
433.8999999999695
 20
304.2837606837804
 30
0.0
 11
433.8999999999695
 21
302.8837606837803
 31
0.0
  0
LINE
  5
36C
330
1F
100
AcDbEntity
  8
LAY-10
  6
CONTINUOUS
 62
     7
100
AcDbLine
 10
432.6999999999694
 20
304.2837606837804
 30
0.0
 11
432.6999999999694
 21
302.8837606837803
 31
0.0
  0
LINE
  5
36D
330
1F
100
AcDbEntity
  8
LAY-10
  6
CONTINUOUS
 62
     7
100
AcDbLine
 10
435.7999999999697
 20
288.8837606837805
 30
0.0
 11
436.2999999999693
 21
289.3837606837803
 31
0.0
  0
LINE
  5
36E
330
1F
100
AcDbEntity
  8
LAY-10
  6
CONTINUOUS
 62
     7
100
AcDbLine
 10
430.2999999999693
 20
289.3837606837803
 30
0.0
 11
430.7999999999695
 21
288.8837606837805
 31
0.0
  0
LINE
  5
36F
330
1F
100
AcDbEntity
  8
LAY-10
  6
CONTINUOUS
 62
     7
100
AcDbLine
 10
430.2999999999693
 20
289.3837606837803
 30
0.0
 11
436.2999999999693
 21
289.3837606837803
 31
0.0
  0
LINE
  5
370
330
1F
100
AcDbEntity
  8
LAY-10
  6
CONTINUOUS
 62
     7
100
AcDbLine
 10
430.7999999999695
 20
288.8837606837803
 30
0.0
 11
435.7999999999693
 21
288.8837606837803
 31
0.0
  0
LINE
  5
371
330
1F
100
AcDbEntity
  8
LAY-10
  6
CONTINUOUS
 62
     7
100
AcDbLine
 10
430.2999999999693
 20
300.8837606837803
 30
0.0
 11
430.2999999999693
 21
289.3837606837803
 31
0.0
  0
LINE
  5
372
330
1F
100
AcDbEntity
  8
LAY-10
  6
CONTINUOUS
 62
     7
100
AcDbLine
 10
436.2999999999693
 20
300.8837606837803
 30
0.0
 11
436.2999999999693
 21
289.3837606837803
 31
0.0
  0
LINE
  5
373
330
1F
100
AcDbEntity
  8
LAY-10
  6
CONTINUOUS
 62
     7
100
AcDbLine
 10
430.2999999999693
 20
300.8837606837805
 30
0.0
 11
427.2999999999694
 21
303.8837606837805
 31
0.0
  0
LINE
  5
374
330
1F
100
AcDbEntity
  8
LAY-10
  6
CONTINUOUS
 62
     7
100
AcDbLine
 10
436.2999999999693
 20
300.8837606837803
 30
0.0
 11
439.2999999999693
 21
303.8837606837803
 31
0.0
  0
LINE
  5
375
330
1F
100
AcDbEntity
  8
LAY-10
  6
CONTINUOUS
 62
     7
100
AcDbLine
 10
439.2999999999693
 20
304.2837606837804
 30
0.0
 11
439.2999999999693
 21
303.8837606837803
 31
0.0
  0
LINE
  5
376
330
1F
100
AcDbEntity
  8
LAY-10
  6
CONTINUOUS
 62
     7
100
AcDbLine
 10
427.2999999999694
 20
303.8837606837803
 30
0.0
 11
427.2999999999694
 21
304.2837606837804
 31
0.0
  0
LINE
  5
377
330
1F
100
AcDbEntity
  8
LAY-10
  6
CONTINUOUS
 62
     7
100
AcDbLine
 10
427.2999999999694
 20
303.8837606837803
 30
0.0
 11
432.6999999999694
 21
303.8837606837803
 31
0.0
  0
LINE
  5
378
330
1F
100
AcDbEntity
  8
LAY-10
  6
CONTINUOUS
 62
     7
100
AcDbLine
 10
430.2999999999695
 20
300.8837606837803
 30
0.0
 11
436.2999999999693
 21
300.8837606837803
 31
0.0
  0
LINE
  5
379
330
1F
100
AcDbEntity
  8
LAY-10
  6
CONTINUOUS
 62
     7
100
AcDbLine
 10
427.2999999999694
 20
304.2837606837804
 30
0.0
 11
432.6999999999694
 21
304.2837606837804
 31
0.0
  0
LINE
  5
37A
330
1F
100
AcDbEntity
  8
LAY-10
  6
CONTINUOUS
 62
     7
100
AcDbLine
 10
427.0500000000004
 20
304.13376068375
 30
0.0
 11
427.2999999999694
 21
304.13376068375
 31
0.0
  0
LINE
  5
37B
330
1F
100
AcDbEntity
  8
LAY-10
  6
CONTINUOUS
 62
     7
100
AcDbLine
 10
432.6999999999694
 20
304.13376068375
 30
0.0
 11
433.8999999999695
 21
304.13376068375
 31
0.0
  0
LINE
  5
37C
330
1F
100
AcDbEntity
  8
LAY-10
  6
CONTINUOUS
 62
     7
100
AcDbLine
 10
439.2999999999693
 20
304.13376068375
 30
0.0
 11
439.5499999999957
 21
304.13376068375
 31
0.0
  0
LINE
  5
37D
330
1F
100
AcDbEntity
  8
LAY-10
  6
CONTINUOUS
 62
     7
100
AcDbLine
 10
348.9942541767663
 20
299.38376068376
 30
0.0
 11
430.2999999999693
 21
299.38376068376
 31
0.0
  0
LINE
  5
37E
330
1F
100
AcDbEntity
  8
LAY-10
  6
CONTINUOUS
 62
     7
100
AcDbLine
 10
436.2999999999693
 20
299.38376068376
 30
0.0
 11
442.6057458232342
 21
299.38376068376
 31
0.0
  0
LINE
  5
37F
330
1F
100
AcDbEntity
  8
LAY-10
  6
CONTINUOUS
 62
     7
100
AcDbLine
 10
344.8000000000042
 20
299.3837606837998
 30
0.0
 11
430.2999999999978
 21
299.3837606837996
 31
0.0
  0
LINE
  5
380
330
1F
100
AcDbEntity
  8
LAY-10
  6
CONTINUOUS
 62
     7
100
AcDbLine
 10
436.2999999999982
 20
299.3837606837996
 30
0.0
 11
446.0545681789
 21
299.3837606837996
 31
0.0
  0
LINE
  5
381
330
1F
100
AcDbEntity
  8
LAY-10
  6
CONTINUOUS
 62
     7
100
AcDbLine
 10
430.2999999999693
 20
291.3837606837928
 30
0.0
 11
426.0655644370746
 21
291.3837606837928
 31
0.0
  0
LINE
  5
382
330
1F
100
AcDbEntity
  8
LAY-10
  6
CONTINUOUS
 62
     7
100
AcDbLine
 10
446.1317631847913
 20
291.3837606837928
 30
0.0
 11
436.2999999999693
 21
291.3837606837928
 31
0.0
  0
ARC
  5
383
330
1F
100
AcDbEntity
  8
LAY-10
  6
CONTINUOUS
 62
     7
100
AcDbCircle
 10
429.3000000000001
 20
286.6755605335765
 30
0.0
 40
4.160922950065699
100
AcDbArc
 50
76.09390553494664
 51
174.9999999999992
  0
ARC
  5
384
330
1F
100
AcDbEntity
  8
LAY-10
  6
CONTINUOUS
 62
     7
100
AcDbCircle
 10
429.3000000000001
 20
286.6755605335765
 30
0.0
 40
4.160922950065699
100
AcDbArc
 50
4.999999999999114
 51
32.05273625642656
  0
LINE
  5
385
330
1F
100
AcDbEntity
  8
LAY-10
  6
CONTINUOUS
 62
     7
100
AcDbLine
 10
150.3000000000001
 20
275.3364834836599
 30
0.0
 11
171.2118627762883
 21
275.33648348366
 31
0.0
  0
LINE
  5
386
330
1F
100
AcDbEntity
  8
LAY-10
  6
CONTINUOUS
 62
     7
100
AcDbLine
 10
364.1311423035227
 20
275.3364834836607
 30
0.0
 11
374.4688576964774
 21
275.3364834836607
 31
0.0
  0
LINE
  5
387
330
1F
100
AcDbEntity
  8
LAY-10
  6
CONTINUOUS
 62
     7
100
AcDbLine
 10
394.1311423035227
 20
275.3364834836609
 30
0.0
 11
404.4688576964774
 21
275.3364834836609
 31
0.0
  0
LINE
  5
388
330
1F
100
AcDbEntity
  8
LAY-10
  6
CONTINUOUS
 62
     7
100
AcDbLine
 10
424.1311423035227
 20
275.336483483661
 30
0.0
 11
434.4688576964774
 21
275.336483483661
 31
0.0
  0
LINE
  5
389
330
1F
100
AcDbEntity
  8
LAY-10
  6
CONTINUOUS
 62
     7
100
AcDbLine
 10
469.4910936028826
 20
270.6899218663435
 30
0.0
 11
473.03753400941
 21
272.3364834836609
 31
0.0
  0
LINE
  5
38A
330
1F
100
AcDbEntity
  8
LAY-10
  6
CONTINUOUS
 62
     7
100
AcDbLine
 10
158.7195187904821
 20
270.8707089694233
 30
0.0
 11
155.5624659905901
 21
272.3364834836599
 31
0.0
  0
LINE
  5
38B
330
1F
100
AcDbEntity
  8
LAY-10
  6
CONTINUOUS
 62
     7
100
AcDbLine
 10
451.3000000000001
 20
305.8837606837996
 30
0.0
 11
457.0280969918881
 21
271.8364834836399
 31
0.0
  0
LINE
  5
38C
330
1F
100
AcDbEntity
  8
LAY-10
  6
CONTINUOUS
 62
     7
100
AcDbLine
 10
460.8000000000002
 20
271.8364834836399
 30
0.0
 11
461.3000000000001
 21
265.8364834836399
 31
0.0
  0
ARC
  5
38D
330
1F
100
AcDbEntity
  8
LAY-10
  6
CONTINUOUS
 62
     7
100
AcDbCircle
 10
463.5500000000005
 20
271.7222327830396
 30
0.0
 40
3.500000000000002
100
AcDbArc
 50
128.6821874534942
 51
178.1293582694076
  0
ARC
  5
38E
330
1F
100
AcDbEntity
  8
LAY-10
  6
CONTINUOUS
 62
     7
100
AcDbCircle
 10
467.0500000000003
 20
271.7222327830396
 30
0.0
 40
3.500000000000002
100
AcDbArc
 50
1.870641730603108
 51
51.31781254649589
  0
LINE
  5
38F
330
1F
100
AcDbEntity
  8
LAY-10
  6
CONTINUOUS
 62
     7
100
AcDbLine
 10
470.5481347569004
 20
271.8364834836398
 30
0.0
 11
460.0518652431004
 21
271.8364834836398
 31
0.0
  0
LINE
  5
390
330
1F
100
AcDbEntity
  8
LAY-10
  6
CONTINUOUS
 62
     7
100
AcDbLine
 10
465.9000000000004
 20
275.8078469717398
 30
0.0
 11
465.9000000000004
 21
273.3364834836398
 31
0.0
  0
LINE
  5
391
330
1F
100
AcDbEntity
  8
LAY-10
  6
CONTINUOUS
 62
     7
100
AcDbLine
 10
465.9000000000004
 20
273.3364834836398
 30
0.0
 11
464.7000000000004
 21
273.3364834836398
 31
0.0
  0
LINE
  5
392
330
1F
100
AcDbEntity
  8
LAY-10
  6
CONTINUOUS
 62
     7
100
AcDbLine
 10
464.7000000000004
 20
275.8078469717398
 30
0.0
 11
464.7000000000004
 21
273.3364834836398
 31
0.0
  0
ARC
  5
393
330
1F
100
AcDbEntity
  8
LAY-10
  6
CONTINUOUS
 62
     7
100
AcDbCircle
 10
465.3000000000002
 20
269.5364834836399
 30
0.0
 40
6.300000000000002
100
AcDbArc
 50
51.31781254649985
 51
84.53497620009915
  0
ARC
  5
394
330
1F
100
AcDbEntity
  8
LAY-10
  6
CONTINUOUS
 62
     7
100
AcDbCircle
 10
465.3000000000002
 20
269.5364834836399
 30
0.0
 40
6.300000000000002
100
AcDbArc
 50
95.46502379990919
 51
128.6821874534949
  0
LINE
  5
395
330
1F
100
AcDbEntity
  8
LAY-10
  6
CONTINUOUS
 62
     7
100
AcDbLine
 10
467.7585000000003
 20
259.8364834836398
 30
0.0
 11
467.7585000000003
 21
255.8364834836616
 31
0.0
  0
LINE
  5
396
330
1F
100
AcDbEntity
  8
LAY-10
  6
CONTINUOUS
 62
     7
100
AcDbLine
 10
468.2999999999989
 20
260.3779834836413
 30
0.0
 11
467.7584999999975
 21
259.8364834836398
 31
0.0
  0
LINE
  5
397
330
1F
100
AcDbEntity
  8
LAY-10
  6
CONTINUOUS
 62
     7
100
AcDbLine
 10
468.3000000000002
 20
271.8364834836398
 30
0.0
 11
468.3000000000002
 21
260.3779834836399
 31
0.0
  0
LINE
  5
398
330
1F
100
AcDbEntity
  8
LAY-10
  6
CONTINUOUS
 62
     7
100
AcDbLine
 10
462.8414999999999
 20
259.8364834836398
 30
0.0
 11
467.7585000000003
 21
259.8364834836398
 31
0.0
  0
LINE
  5
399
330
1F
100
AcDbEntity
  8
LAY-10
  6
CONTINUOUS
 62
     7
100
AcDbLine
 10
462.3000000000002
 20
271.8364834836398
 30
0.0
 11
462.3000000000002
 21
260.37798348364
 31
0.0
  0
LINE
  5
39A
330
1F
100
AcDbEntity
  8
LAY-10
  6
CONTINUOUS
 62
     7
100
AcDbLine
 10
462.3000000000012
 20
260.3779834836413
 30
0.0
 11
462.8415000000026
 21
259.8364834836398
 31
0.0
  0
LINE
  5
39B
330
1F
100
AcDbEntity
  8
LAY-10
  6
CONTINUOUS
 62
     7
100
AcDbLine
 10
462.8414999999999
 20
259.8364834836398
 30
0.0
 11
462.8414999999999
 21
255.8364834836616
 31
0.0
  0
LINE
  5
39C
330
1F
100
AcDbEntity
  8
LAY-10
  6
CONTINUOUS
 62
     7
100
AcDbLine
 10
468.3000000000002
 20
265.8364834836609
 30
0.0
 11
472.4688576964953
 21
265.8364834836609
 31
0.0
  0
LINE
  5
39D
330
1F
100
AcDbEntity
  8
LAY-10
  6
CONTINUOUS
 62
     7
100
AcDbLine
 10
456.4392587316692
 20
275.3364834836611
 30
0.0
 11
462.8403252248006
 21
275.3364834836611
 31
0.0
  0
LINE
  5
39E
330
1F
100
AcDbEntity
  8
LAY-10
  6
CONTINUOUS
 62
     7
100
AcDbLine
 10
464.7000000000004
 20
275.3364834836611
 30
0.0
 11
465.9000000000004
 21
275.3364834836611
 31
0.0
  0
LINE
  5
39F
330
1F
100
AcDbEntity
  8
LAY-10
  6
CONTINUOUS
 62
     7
100
AcDbLine
 10
467.7596747752
 20
275.336483483661
 30
0.0
 11
478.3
 21
275.3364834836611
 31
0.0
  0
ARC
  5
3A0
330
1F
100
AcDbEntity
  8
LAY-10
  6
CONTINUOUS
 62
     7
100
AcDbCircle
 10
161.5500000000006
 20
271.7222327830397
 30
0.0
 40
3.500000000000002
100
AcDbArc
 50
128.6821874534938
 51
178.1293582694076
  0
ARC
  5
3A1
330
1F
100
AcDbEntity
  8
LAY-10
  6
CONTINUOUS
 62
     7
100
AcDbCircle
 10
165.0500000000003
 20
271.7222327830397
 30
0.0
 40
3.500000000000002
100
AcDbArc
 50
1.870641730603566
 51
51.31781254649584
  0
LINE
  5
3A2
330
1F
100
AcDbEntity
  8
LAY-10
  6
CONTINUOUS
 62
     7
100
AcDbLine
 10
163.9000000000005
 20
275.8078469717399
 30
0.0
 11
163.9000000000005
 21
273.3364834836399
 31
0.0
  0
LINE
  5
3A3
330
1F
100
AcDbEntity
  8
LAY-10
  6
CONTINUOUS
 62
     7
100
AcDbLine
 10
163.9000000000005
 20
273.3364834836399
 30
0.0
 11
162.7000000000004
 21
273.3364834836399
 31
0.0
  0
LINE
  5
3A4
330
1F
100
AcDbEntity
  8
LAY-10
  6
CONTINUOUS
 62
     7
100
AcDbLine
 10
162.7000000000004
 20
275.8078469717399
 30
0.0
 11
162.7000000000004
 21
273.3364834836399
 31
0.0
  0
ARC
  5
3A5
330
1F
100
AcDbEntity
  8
LAY-10
  6
CONTINUOUS
 62
     7
100
AcDbCircle
 10
163.3000000000003
 20
269.5364834836399
 30
0.0
 40
6.300000000000002
100
AcDbArc
 50
51.31781254649979
 51
84.53497620009885
  0
ARC
  5
3A6
330
1F
100
AcDbEntity
  8
LAY-10
  6
CONTINUOUS
 62
     7
100
AcDbCircle
 10
163.3000000000003
 20
269.5364834836399
 30
0.0
 40
6.300000000000002
100
AcDbArc
 50
95.46502379990892
 51
128.6821874534945
  0
LINE
  5
3A7
330
1F
100
AcDbEntity
  8
LAY-10
  6
CONTINUOUS
 62
     7
100
AcDbLine
 10
166.2999999999992
 20
260.3779834836414
 30
0.0
 11
165.7584999999976
 21
259.8364834836399
 31
0.0
  0
LINE
  5
3A8
330
1F
100
AcDbEntity
  8
LAY-10
  6
CONTINUOUS
 62
     7
100
AcDbLine
 10
166.3000000000003
 20
271.8364834836399
 30
0.0
 11
166.3000000000003
 21
260.37798348364
 31
0.0
  0
LINE
  5
3A9
330
1F
100
AcDbEntity
  8
LAY-10
  6
CONTINUOUS
 62
     7
100
AcDbLine
 10
160.3000000000003
 20
271.8364834836399
 30
0.0
 11
160.3000000000003
 21
260.37798348364
 31
0.0
  0
LINE
  5
3AA
330
1F
100
AcDbEntity
  8
LAY-10
  6
CONTINUOUS
 62
     7
100
AcDbLine
 10
160.3000000000012
 20
260.3779834836414
 30
0.0
 11
160.8415000000026
 21
259.8364834836399
 31
0.0
  0
LINE
  5
3AB
330
1F
100
AcDbEntity
  8
LAY-10
  6
CONTINUOUS
 62
     7
100
AcDbLine
 10
168.5481347569004
 20
271.8364834836399
 30
0.0
 11
158.0518652431005
 21
271.8364834836399
 31
0.0
  0
LINE
  5
3AC
330
1F
100
AcDbEntity
  8
LAY-10
  6
CONTINUOUS
 62
     7
100
AcDbLine
 10
160.8414999999999
 20
259.8364834836399
 30
0.0
 11
165.7585000000003
 21
259.8364834836399
 31
0.0
  0
LINE
  5
3AD
330
1F
100
AcDbEntity
  8
LAY-10
  6
CONTINUOUS
 62
     7
100
AcDbLine
 10
156.1311423035044
 20
265.8364834836599
 30
0.0
 11
160.3000000000003
 21
265.8364834836599
 31
0.0
  0
LINE
  5
3AE
330
1F
100
AcDbEntity
  8
LAY-10
  6
CONTINUOUS
 62
     7
100
AcDbLine
 10
166.3000000000003
 20
265.8364834836599
 30
0.0
 11
462.3000000000002
 21
265.836483483661
 31
0.0
  0
LINE
  5
3AF
330
1F
100
AcDbEntity
  8
LAY-10
  6
CONTINUOUS
 62
     7
100
AcDbLine
 10
160.8414999999999
 20
259.8364834836399
 30
0.0
 11
160.8414999999999
 21
255.8364834836607
 31
0.0
  0
LINE
  5
3B0
330
1F
100
AcDbEntity
  8
LAY-10
  6
CONTINUOUS
 62
     7
100
AcDbLine
 10
165.7585000000003
 20
259.8364834836399
 30
0.0
 11
165.7585000000003
 21
255.8364834836607
 31
0.0
  0
LINE
  5
3B1
330
1F
100
AcDbEntity
  8
LAY-10
  6
CONTINUOUS
 62
     7
100
AcDbLine
 10
170.9726113289288
 20
271.8364834836402
 30
0.0
 11
173.3000000000001
 21
305.8837606837999
 31
0.0
  0
LINE
  5
3B2
330
1F
100
AcDbEntity
  8
LAY-10
  6
CONTINUOUS
 62
     7
100
AcDbLine
 10
167.3000000000001
 20
265.83648348366
 30
0.0
 11
167.8000000000001
 21
271.83648348364
 31
0.0
  0
ARC
  5
3B3
330
1F
100
AcDbEntity
  8
LAY-10
  6
CONTINUOUS
 62
     7
100
AcDbCircle
 10
347.4357492993999
 20
336.1337606837596
 30
0.0
 40
3.500000000000002
100
AcDbArc
 50
38.68218745349422
 51
88.12935826940758
  0
ARC
  5
3B4
330
1F
100
AcDbEntity
  8
LAY-10
  6
CONTINUOUS
 62
     7
100
AcDbCircle
 10
347.4357492993999
 20
332.6337606837598
 30
0.0
 40
3.500000000000002
100
AcDbArc
 50
271.8706417306037
 51
321.3178125464959
  0
LINE
  5
3B5
330
1F
100
AcDbEntity
  8
LAY-10
  6
CONTINUOUS
 62
     7
100
AcDbLine
 10
347.5500000000001
 20
329.1356259268597
 30
0.0
 11
347.5500000000001
 21
339.6318954406597
 31
0.0
  0
LINE
  5
3B6
330
1F
100
AcDbEntity
  8
LAY-10
  6
CONTINUOUS
 62
     7
100
AcDbLine
 10
351.5213634881001
 20
333.7837606837597
 30
0.0
 11
349.0500000000001
 21
333.7837606837597
 31
0.0
  0
LINE
  5
3B7
330
1F
100
AcDbEntity
  8
LAY-10
  6
CONTINUOUS
 62
     7
100
AcDbLine
 10
349.0500000000001
 20
333.7837606837597
 30
0.0
 11
349.0500000000001
 21
334.9837606837597
 31
0.0
  0
LINE
  5
3B8
330
1F
100
AcDbEntity
  8
LAY-10
  6
CONTINUOUS
 62
     7
100
AcDbLine
 10
351.5213634881001
 20
334.9837606837597
 30
0.0
 11
349.0500000000001
 21
334.9837606837597
 31
0.0
  0
ARC
  5
3B9
330
1F
100
AcDbEntity
  8
LAY-10
  6
CONTINUOUS
 62
     7
100
AcDbCircle
 10
345.2500000000002
 20
334.3837606837598
 30
0.0
 40
6.300000000000002
100
AcDbArc
 50
321.3178125464995
 51
354.5349762000991
  0
ARC
  5
3BA
330
1F
100
AcDbEntity
  8
LAY-10
  6
CONTINUOUS
 62
     7
100
AcDbCircle
 10
345.2500000000002
 20
334.3837606837598
 30
0.0
 40
6.300000000000002
100
AcDbArc
 50
5.46502379990924
 51
38.68218745349451
  0
LINE
  5
3BB
330
1F
100
AcDbEntity
  8
LAY-10
  6
CONTINUOUS
 62
     7
100
AcDbLine
 10
336.0915000000015
 20
331.3837606837611
 30
0.0
 11
335.5500000000001
 21
331.9252606837626
 31
0.0
  0
LINE
  5
3BC
330
1F
100
AcDbEntity
  8
LAY-10
  6
CONTINUOUS
 62
     7
100
AcDbLine
 10
347.5500000000001
 20
331.3837606837598
 30
0.0
 11
336.0915000000002
 21
331.3837606837598
 31
0.0
  0
LINE
  5
3BD
330
1F
100
AcDbEntity
  8
LAY-10
  6
CONTINUOUS
 62
     7
100
AcDbLine
 10
335.5500000000001
 20
336.8422606837602
 30
0.0
 11
335.5500000000001
 21
331.9252606837597
 31
0.0
  0
LINE
  5
3BE
330
1F
100
AcDbEntity
  8
LAY-10
  6
CONTINUOUS
 62
     7
100
AcDbLine
 10
347.5500000000001
 20
337.3837606837598
 30
0.0
 11
336.0915000000002
 21
337.3837606837598
 31
0.0
  0
LINE
  5
3BF
330
1F
100
AcDbEntity
  8
LAY-10
  6
CONTINUOUS
 62
     7
100
AcDbLine
 10
336.0915000000015
 20
337.3837606837589
 30
0.0
 11
335.5500000000001
 21
336.8422606837574
 31
0.0
  0
LINE
  5
3C0
330
1F
100
AcDbEntity
  8
LAY-10
  6
CONTINUOUS
 62
     7
100
AcDbLine
 10
341.6056266003495
 20
337.3837606837598
 30
0.0
 11
341.29999999999
 21
344.38376068376
 31
0.0
  0
LINE
  5
3C1
330
1F
100
AcDbEntity
  8
LAY-10
  6
CONTINUOUS
 62
     7
100
AcDbLine
 10
337.1056266003538
 20
337.3837606837598
 30
0.0
 11
336.7999999999943
 21
344.38376068376
 31
0.0
  0
LINE
  5
3C2
330
1F
100
AcDbEntity
  8
LAY-10
  6
CONTINUOUS
 62
     7
100
AcDbLine
 10
343.0464377163294
 20
304.38376068376
 30
0.0
 11
341.8675922578004
 21
331.3837606837598
 31
0.0
  0
LINE
  5
3C3
330
1F
100
AcDbEntity
  8
LAY-10
  6
CONTINUOUS
 62
     7
100
AcDbLine
 10
339.288673745778
 20
287.38376068376
 30
0.0
 11
337.3675922578047
 21
331.3837606837598
 31
0.0
  0
LINE
  5
3C4
330
1F
100
AcDbEntity
  8
LAY-10
  6
CONTINUOUS
 62
     7
100
AcDbLine
 10
331.512348052151
 20
240.3364834836603
 30
0.0
 11
332.0097253329511
 21
211.8417581506924
 31
0.0
  0
LINE
  5
3C5
330
1F
100
AcDbEntity
  8
LAY-10
  6
CONTINUOUS
 62
     7
100
AcDbLine
 10
197.0876519478487
 20
240.3364834836598
 30
0.0
 11
196.5902746670496
 21
211.8417581507001
 31
0.0
  0
LINE
  5
3C6
330
1F
100
AcDbEntity
  8
LAY-10
  6
CONTINUOUS
 62
     7
100
AcDbLine
 10
150.7674178199194
 20
240.3364834836598
 30
0.0
 11
149.2999999999951
 21
268.3364834836599
 31
0.0
  0
LINE
  5
3C7
330
1F
100
AcDbEntity
  8
LAY-10
  6
CONTINUOUS
 62
     7
100
AcDbLine
 10
164.6750828886997
 20
247.4934913523887
 30
0.0
 11
164.2999999999883
 21
240.3364834836598
 31
0.0
  0
LINE
  5
3C8
330
1F
100
AcDbEntity
  8
LAY-10
  6
CONTINUOUS
 62
     7
100
AcDbLine
 10
160.3000000000001
 20
245.7949834836625
 30
0.0
 11
160.3000000000001
 21
240.3364834836598
 31
0.0
  0
LINE
  5
3C9
330
1F
100
AcDbEntity
  8
LAY-10
  6
CONTINUOUS
 62
     7
100
AcDbLine
 10
154.3000000000001
 20
245.79498348366
 30
0.0
 11
154.3000000000001
 21
240.3364834836598
 31
0.0
  0
LINE
  5
3CA
330
1F
100
AcDbEntity
  8
LAY-10
  6
CONTINUOUS
 62
     7
100
AcDbLine
 10
169.1708276275951
 20
250.3364834836598
 30
0.0
 11
167.6709714929633
 21
250.3364834836598
 31
0.0
  0
ARC
  5
3CB
330
1F
100
AcDbEntity
  8
LAY-10
  6
CONTINUOUS
 62
     7
100
AcDbCircle
 10
167.6709714929633
 20
247.3364834836598
 30
0.0
 40
3.000000000000002
100
AcDbArc
 50
90.00000000000001
 51
177.0000000000009
  0
ARC
  5
3CC
330
1F
100
AcDbEntity
  8
LAY-10
  6
CONTINUOUS
 62
     7
100
AcDbCircle
 10
169.1708276275953
 20
247.3364834836598
 30
0.0
 40
3.0
100
AcDbArc
 50
31.218402764346
 51
90.00000000000001
  0
LINE
  5
3CD
330
1F
100
AcDbEntity
  8
LAY-10
  6
CONTINUOUS
 62
     7
100
AcDbLine
 10
174.8000000000021
 20
243.8364834836606
 30
0.0
 11
171.7364211222572
 21
248.8913886319398
 31
0.0
  0
LINE
  5
3CE
330
1F
100
AcDbEntity
  8
LAY-10
  6
CONTINUOUS
 62
     7
100
AcDbLine
 10
186.4158418872181
 20
243.8364834836603
 30
0.0
 11
174.8000000000001
 21
243.8364834836603
 31
0.0
  0
ARC
  5
3CF
330
1F
100
AcDbEntity
  8
LAY-10
  6
CONTINUOUS
 62
     7
100
AcDbCircle
 10
186.4158418872181
 20
241.8364834836603
 30
0.0
 40
2.0
100
AcDbArc
 50
3.416588191770806
 51
90.00000000000001
  0
LINE
  5
3D0
330
1F
100
AcDbEntity
  8
LAY-10
  6
CONTINUOUS
 62
     7
100
AcDbLine
 10
188.4122871188005
 20
241.9556742437547
 30
0.0
 11
190.3000000000002
 21
210.3364834836599
 31
0.0
  0
ARC
  5
3D1
330
1F
100
AcDbEntity
  8
LAY-10
  6
CONTINUOUS
 62
     7
100
AcDbCircle
 10
342.184158112782
 20
241.8364834836603
 30
0.0
 40
2.0
100
AcDbArc
 50
90.00000000000001
 51
176.5834118082291
  0
LINE
  5
3D2
330
1F
100
AcDbEntity
  8
LAY-10
  6
CONTINUOUS
 62
     7
100
AcDbLine
 10
342.184158112782
 20
243.8364834836603
 30
0.0
 11
370.2944683084803
 21
243.8364834836603
 31
0.0
  0
LINE
  5
3D3
330
1F
100
AcDbEntity
  8
LAY-10
  6
CONTINUOUS
 62
     7
100
AcDbLine
 10
370.2944683084802
 20
243.8364834836599
 30
0.0
 11
450.2813704533924
 21
258.0277080577573
 31
0.0
  0
ARC
  5
3D4
330
1F
100
AcDbEntity
  8
LAY-10
  6
CONTINUOUS
 62
     7
100
AcDbCircle
 10
451.1548265764982
 20
253.1045917275241
 30
0.0
 40
5.0
100
AcDbArc
 50
30.00000000000047
 51
100.0606897953222
  0
LINE
  5
3D5
330
1F
100
AcDbEntity
  8
LAY-10
  6
CONTINUOUS
 62
     7
100
AcDbLine
 10
340.1877128811997
 20
241.9556742437547
 30
0.0
 11
338.3000000000001
 21
210.3364834836599
 31
0.0
  0
LINE
  5
3D6
330
1F
100
AcDbEntity
  8
LAY-10
  6
CONTINUOUS
 62
     7
100
AcDbLine
 10
455.4849535954222
 20
255.6045917275211
 30
0.0
 11
464.3000000000287
 21
240.3364834836659
 31
0.0
  0
LINE
  5
3D7
330
1F
100
AcDbEntity
  8
LAY-10
  6
CONTINUOUS
 62
     7
100
AcDbLine
 10
343.04643771633
 20
304.38376068376
 30
0.0
 11
344.58169528546
 21
304.38376068376
 31
0.0
  0
LINE
  5
3D8
330
1F
100
AcDbEntity
  8
LAY-10
  6
CENTER
 62
     2
100
AcDbLine
 10
264.3000000000002
 20
743.8
 30
0.0
 11
264.3000000000002
 21
506.1
 31
0.0
  0
LINE
  5
3D9
330
1F
100
AcDbEntity
  8
LAY-10
  6
CENTER
 62
     2
100
AcDbLine
 10
482.9000000000001
 20
624.5999999999999
 30
0.0
 11
146.7502975770101
 21
624.5999999999999
 31
0.0
  0
LINE
  5
3DA
330
1F
100
AcDbEntity
  8
LAY-10
  6
CENTER
 62
     2
100
AcDbLine
 10
163.3000000000001
 20
619.3000000000002
 30
0.0
 11
163.3000000000001
 21
630.7
 31
0.0
  0
LINE
  5
3DB
330
1F
100
AcDbEntity
  8
LAY-10
  6
CENTER
 62
     2
100
AcDbLine
 10
220.3625985357427
 20
548.4981883113692
 30
0.0
 11
229.4585680134799
 21
564.2528695909054
 31
0.0
  0
LINE
  5
3DC
330
1F
100
AcDbEntity
  8
LAY-10
  6
CENTER
 62
     2
100
AcDbLine
 10
220.3625985357427
 20
700.7018116886309
 30
0.0
 11
229.4585680134799
 21
684.9471304090946
 31
0.0
  0
LINE
  5
3DD
330
1F
100
AcDbEntity
  8
LAY-10
  6
CENTER
 62
     2
100
AcDbLine
 10
433.2999999999905
 20
631.98999999999
 30
0.0
 11
433.2999999999905
 21
617.6299999999899
 31
0.0
  0
LINE
  5
3DE
330
1F
100
AcDbEntity
  8
LAY-10
  6
CENTER
 62
     2
100
AcDbLine
 10
465.3
 20
618.46302037685
 30
0.0
 11
465.3
 21
630.7
 31
0.0
  0
LINE
  5
3DF
330
1F
100
AcDbEntity
  8
LAY-10
  6
CENTER
 62
     2
100
AcDbLine
 10
621.100000000001
 20
624.6000000000005
 30
0.0
 11
785.1472772001609
 21
624.5999999999999
 31
0.0
  0
LINE
  5
3E0
330
1F
100
AcDbEntity
  8
LAY-10
  6
CENTER
 62
     2
100
AcDbLine
 10
141.6000000000016
 20
220.8364834836644
 30
0.0
 11
152.8000000000003
 21
220.8364834836644
 31
0.0
  0
ARC
  5
3E1
330
1F
100
AcDbEntity
  8
LAY-10
  6
CENTER
 62
     2
100
AcDbCircle
 10
152.8000000000003
 20
225.3364834836644
 30
0.0
 40
4.5
100
AcDbArc
 50
270.0
 51
0.0
  0
LINE
  5
3E2
330
1F
100
AcDbEntity
  8
LAY-10
  6
CENTER
 62
     2
100
AcDbLine
 10
471.3000000000001
 20
251.2364834836599
 30
0.0
 11
471.3000000000001
 21
225.3364834836643
 31
0.0
  0
LINE
  5
3E3
330
1F
100
AcDbEntity
  8
LAY-10
  6
CENTER
 62
     2
100
AcDbLine
 10
486.9999999999987
 20
220.8364834836643
 30
0.0
 11
475.8000000000001
 21
220.8364834836643
 31
0.0
  0
ARC
  5
3E4
330
1F
100
AcDbEntity
  8
LAY-10
  6
CENTER
 62
     2
100
AcDbCircle
 10
475.8000000000001
 20
225.3364834836643
 30
0.0
 40
4.5
100
AcDbArc
 50
180.0
 51
270.0
  0
LINE
  5
3E5
330
1F
100
AcDbEntity
  8
LAY-10
  6
CENTER
 62
     2
100
AcDbLine
 10
369.3000000000001
 20
296.3261859066296
 30
0.0
 11
369.3000000000001
 21
263.5261859066297
 31
0.0
  0
LINE
  5
3E6
330
1F
100
AcDbEntity
  8
LAY-10
  6
CENTER
 62
     2
100
AcDbLine
 10
399.3000000000001
 20
296.3261859066296
 30
0.0
 11
399.3000000000001
 21
263.5261859066297
 31
0.0
  0
LINE
  5
3E7
330
1F
100
AcDbEntity
  8
LAY-10
  6
CENTER
 62
     2
100
AcDbLine
 10
429.3000000000001
 20
296.3261859066296
 30
0.0
 11
429.3000000000001
 21
263.5261859066297
 31
0.0
  0
LINE
  5
3E8
330
1F
100
AcDbEntity
  8
LAY-10
  6
CENTER
 62
     2
100
AcDbLine
 10
351.1
 20
334.38376068376
 30
0.0
 11
327.3000000000002
 21
334.38376068376
 31
0.0
  0
LINE
  5
3E9
330
1F
100
AcDbEntity
  8
LAY-10
  6
CENTER
 62
     2
100
AcDbLine
 10
433.3000000000001
 20
307.41707863766
 30
0.0
 11
433.3
 21
288.0870786376599
 31
0.0
  0
LINE
  5
3EA
330
1F
100
AcDbEntity
  8
LAY-10
  6
CENTER
 62
     2
100
AcDbLine
 10
163.3000000000001
 20
253.3364834836598
 30
0.0
 11
163.3000000000001
 21
272.86297491626
 31
0.0
  0
LINE
  5
3EB
330
1F
100
AcDbEntity
  8
LAY-10
  6
CENTER
 62
     2
100
AcDbLine
 10
465.3000000000001
 20
253.3364834836609
 30
0.0
 11
465.3000000000001
 21
278.82297491626
 31
0.0
  0
LINE
  5
3EC
330
1F
100
AcDbEntity
  8
LAY-10
  6
CENTER
 62
     2
100
AcDbLine
 10
157.3000000000003
 20
251.2364834836599
 30
0.0
 11
157.3000000000003
 21
225.3364834836644
 31
0.0
  0
LINE
  5
3ED
330
1F
100
AcDbEntity
  8
LAY-10
  6
CENTER
 62
     2
100
AcDbLine
 10
264.3000000000001
 20
349.2
 30
0.0
 11
264.3000000000001
 21
181.8
 31
0.0
  0
LINE
  5
3EE
330
1F
100
AcDbEntity
  8
LAY-10
  6
CONTINUOUS
 62
     7
100
AcDbLine
 10
730.1472772001009
 20
555.9086519478545
 30
0.0
 11
760.1472772001007
 21
555.3850000000072
 31
0.0
  0
LINE
  5
3EF
330
1F
100
AcDbEntity
  8
LAY-10
  6
CONTINUOUS
 62
     7
100
AcDbLine
 10
729.4846828696907
 20
693.2797824250873
 30
0.0
 11
760.1472772001011
 21
693.8149999999929
 31
0.0
  0
LINE
  5
3F0
330
1F
100
AcDbEntity
  8
LAY-10
  6
CONTINUOUS
 62
     7
100
AcDbLine
 10
758.642002533059
 20
556.89027466705
 30
0.0
 11
758.642002533059
 21
692.3097253329506
 31
0.0
  0
LINE
  5
3F1
330
1F
100
AcDbEntity
  8
LAY-10
  6
CONTINUOUS
 62
     7
100
AcDbLine
 10
758.6420025330592
 20
556.8902746670498
 30
0.0
 11
760.1472772001015
 21
555.3850000000075
 31
0.0
  0
LINE
  5
3F2
330
1F
100
AcDbEntity
  8
LAY-10
  6
CONTINUOUS
 62
     7
100
AcDbLine
 10
758.6420025330596
 20
692.3097253329502
 30
0.0
 11
760.1472772001019
 21
693.8149999999926
 31
0.0
  0
LINE
  5
3F3
330
1F
100
AcDbEntity
  8
LAY-10
  6
CONTINUOUS
 62
     7
100
AcDbLine
 10
231.0023262113588
 20
560.9267372242075
 30
0.0
 11
225.8061737886516
 21
563.926737224208
 31
0.0
  0
LINE
  5
3F4
330
1F
100
AcDbEntity
  8
LAY-10
  6
CONTINUOUS
 62
     7
100
AcDbLine
 10
226.5458765448014
 20
564.1249399803569
 30
0.0
 11
225.9417246855984
 21
563.0785182647303
 31
0.0
  0
LINE
  5
3F5
330
1F
100
AcDbEntity
  8
LAY-10
  6
CONTINUOUS
 62
     7
100
AcDbLine
 10
230.8041234552094
 20
561.6664399803569
 30
0.0
 11
230.1999715960068
 21
560.6200182647306
 31
0.0
  0
LINE
  5
3F6
330
1F
100
AcDbEntity
  8
LAY-10
  6
CONTINUOUS
 62
     7
100
AcDbLine
 10
223.4901035965015
 20
558.8321859775072
 30
0.0
 11
220.5458765448014
 21
553.7326351349436
 31
0.0
  0
LINE
  5
3F7
330
1F
100
AcDbEntity
  8
LAY-10
  6
CONTINUOUS
 62
     7
100
AcDbLine
 10
227.7483505069094
 20
556.3736859775067
 30
0.0
 11
224.8041234552094
 21
551.2741351349437
 31
0.0
  0
LINE
  5
3F8
330
1F
100
AcDbEntity
  8
LAY-10
  6
CONTINUOUS
 62
     7
100
AcDbLine
 10
231.0023262113588
 20
688.2732627757923
 30
0.0
 11
225.8061737886516
 21
685.2732627757921
 31
0.0
  0
LINE
  5
3F9
330
1F
100
AcDbEntity
  8
LAY-10
  6
CONTINUOUS
 62
     7
100
AcDbLine
 10
226.5458765448014
 20
685.0750600196432
 30
0.0
 11
225.9417246855984
 21
686.1214817352695
 31
0.0
  0
LINE
  5
3FA
330
1F
100
AcDbEntity
  8
LAY-10
  6
CONTINUOUS
 62
     7
100
AcDbLine
 10
230.8041234552094
 20
687.5335600196431
 30
0.0
 11
230.1999715960068
 21
688.5799817352693
 31
0.0
  0
LINE
  5
3FB
330
1F
100
AcDbEntity
  8
LAY-10
  6
CONTINUOUS
 62
     7
100
AcDbLine
 10
223.4901035965015
 20
690.3678140224927
 30
0.0
 11
220.5458765448014
 21
695.4673648650564
 31
0.0
  0
LINE
  5
3FC
330
1F
100
AcDbEntity
  8
LAY-10
  6
CONTINUOUS
 62
     7
100
AcDbLine
 10
227.7483505069094
 20
692.8263140224933
 30
0.0
 11
224.8041234552094
 21
697.9258648650564
 31
0.0
  0
LINE
  5
3FD
330
1F
100
AcDbEntity
  8
LAY-10
  6
CONTINUOUS
 62
     7
100
AcDbLine
 10
336.0914999999989
 20
621.5999999999945
 30
0.0
 11
336.0914999999989
 21
627.5999999999951
 31
0.0
  0
LINE
  5
3FE
330
1F
100
AcDbEntity
  8
LAY-10
  6
CONTINUOUS
 62
     7
100
AcDbLine
 10
335.5499999999991
 20
627.0584999999944
 30
0.0
 11
336.7583037184048
 21
627.0584999999946
 31
0.0
  0
LINE
  5
3FF
330
1F
100
AcDbEntity
  8
LAY-10
  6
CONTINUOUS
 62
     7
100
AcDbLine
 10
335.5499999999991
 20
622.1414999999945
 30
0.0
 11
336.7583037184043
 21
622.1414999999945
 31
0.0
  0
LINE
  5
400
330
1F
100
AcDbEntity
  8
LAY-10
  6
CONTINUOUS
 62
     7
100
AcDbLine
 10
341.6615458965985
 20
627.0584999999946
 30
0.0
 11
347.5499999999991
 21
627.0584999999944
 31
0.0
  0
LINE
  5
401
330
1F
100
AcDbEntity
  8
LAY-10
  6
CONTINUOUS
 62
     7
100
AcDbLine
 10
341.6615458965992
 20
622.1414999999945
 30
0.0
 11
347.5499999999991
 21
622.1414999999945
 31
0.0
  0
CIRCLE
  5
402
330
1F
100
AcDbEntity
  8
LAY-10
  6
CONTINUOUS
 62
     7
100
AcDbCircle
 10
264.3000000000001
 20
624.6000000000001
 30
0.0
 40
68.69134805215003
  0
LINE
  5
403
330
1F
100
AcDbEntity
  8
LAY-10
  6
CONTINUOUS
 62
     7
100
AcDbLine
 10
332.9913480521453
 20
240.3364834836603
 30
0.0
 11
333.5149999999929
 21
210.3364834836603
 31
0.0
  0
LINE
  5
404
330
1F
100
AcDbEntity
  8
LAY-10
  6
CONTINUOUS
 62
     7
100
AcDbLine
 10
195.6086519478548
 20
240.3364834836598
 30
0.0
 11
195.0850000000072
 21
210.3364834836601
 31
0.0
  0
LINE
  5
405
330
1F
100
AcDbEntity
  8
LAY-10
  6
CONTINUOUS
 62
     7
100
AcDbLine
 10
154.2999999999996
 20
248.3364834836591
 30
0.0
 11
160.3000000000006
 21
248.3364834836591
 31
0.0
  0
LINE
  5
406
330
1F
100
AcDbEntity
  8
LAY-10
  6
CONTINUOUS
 62
     7
100
AcDbLine
 10
154.8415000000049
 20
248.8779834836548
 30
0.0
 11
154.3000000000046
 21
248.3364834836548
 31
0.0
  0
LINE
  5
407
330
1F
100
AcDbEntity
  8
LAY-10
  6
CONTINUOUS
 62
     7
100
AcDbLine
 10
159.7584999999953
 20
248.8779834836548
 30
0.0
 11
160.2999999999951
 21
248.3364834836548
 31
0.0
  0
LINE
  5
408
330
1F
100
AcDbEntity
  8
LAY-10
  6
CONTINUOUS
 62
     7
100
AcDbLine
 10
154.8414999999999
 20
248.8779834836599
 30
0.0
 11
159.7585000000003
 21
248.8779834836599
 31
0.0
  0
LINE
  5
409
330
1F
100
AcDbEntity
  8
LAY-10
  6
CONTINUOUS
 62
     7
100
AcDbLine
 10
166.3000000000001
 20
257.8364834836607
 30
0.0
 11
160.2999999999996
 21
257.8364834836605
 31
0.0
  0
LINE
  5
40A
330
1F
100
AcDbEntity
  8
LAY-10
  6
CONTINUOUS
 62
     7
100
AcDbLine
 10
165.7584999999953
 20
257.294983483665
 30
0.0
 11
166.2999999999951
 21
257.8364834836648
 31
0.0
  0
LINE
  5
40B
330
1F
100
AcDbEntity
  8
LAY-10
  6
CONTINUOUS
 62
     7
100
AcDbLine
 10
160.8415000000049
 20
257.2949834836648
 30
0.0
 11
160.3000000000046
 21
257.8364834836648
 31
0.0
  0
LINE
  5
40C
330
1F
100
AcDbEntity
  8
LAY-10
  6
CONTINUOUS
 62
     7
100
AcDbLine
 10
165.7584999999998
 20
257.29498348366
 30
0.0
 11
160.8414999999999
 21
257.2949834836598
 31
0.0
  0
LINE
  5
40D
330
1F
100
AcDbEntity
  8
LAY-10
  6
CONTINUOUS
 62
     7
100
AcDbLine
 10
462.2999999999996
 20
257.8364834836616
 30
0.0
 11
468.3000000000005
 21
257.8364834836616
 31
0.0
  0
LINE
  5
40E
330
1F
100
AcDbEntity
  8
LAY-10
  6
CONTINUOUS
 62
     7
100
AcDbLine
 10
462.8415000000048
 20
257.2949834836659
 30
0.0
 11
462.3000000000046
 21
257.8364834836657
 31
0.0
  0
LINE
  5
40F
330
1F
100
AcDbEntity
  8
LAY-10
  6
CONTINUOUS
 62
     7
100
AcDbLine
 10
467.7584999999953
 20
257.2949834836659
 30
0.0
 11
468.2999999999951
 21
257.8364834836657
 31
0.0
  0
LINE
  5
410
330
1F
100
AcDbEntity
  8
LAY-10
  6
CONTINUOUS
 62
     7
100
AcDbLine
 10
462.8414999999999
 20
257.2949834836609
 30
0.0
 11
467.7585000000003
 21
257.2949834836609
 31
0.0
  0
LINE
  5
411
330
1F
100
AcDbEntity
  8
LAY-10
  6
CONTINUOUS
 62
     7
100
AcDbLine
 10
159.7580607966078
 20
239.5430989109812
 30
0.0
 11
159.3000000000008
 21
240.3364834836596
 31
0.0
  0
LINE
  5
412
330
1F
100
AcDbEntity
  8
LAY-10
  6
CONTINUOUS
 62
     7
100
AcDbLine
 10
154.8419392033935
 20
239.5430989109812
 30
0.0
 11
155.3000000000003
 21
240.3364834836596
 31
0.0
  0
LINE
  5
413
330
1F
100
AcDbEntity
  8
LAY-10
  6
CONTINUOUS
 62
     7
100
AcDbLine
 10
159.3000000000003
 20
240.3364834836601
 30
0.0
 11
155.3000000000003
 21
240.3364834836601
 31
0.0
  0
LINE
  5
414
330
1F
100
AcDbEntity
  8
LAY-10
  6
CONTINUOUS
 62
     7
100
AcDbLine
 10
160.3000000000006
 20
245.7949834836622
 30
0.0
 11
160.3000000000006
 21
248.3364834836591
 31
0.0
  0
LINE
  5
415
330
1F
100
AcDbEntity
  8
LAY-10
  6
CONTINUOUS
 62
     7
100
AcDbLine
 10
160.3000000000001
 20
245.79498348366
 30
0.0
 11
154.3000000000001
 21
245.79498348366
 31
0.0
  0
LINE
  5
416
330
1F
100
AcDbEntity
  8
LAY-10
  6
CONTINUOUS
 62
     7
100
AcDbLine
 10
154.2999999999996
 20
245.7949834836617
 30
0.0
 11
154.2999999999996
 21
248.3364834836591
 31
0.0
  0
LINE
  5
417
330
1F
100
AcDbEntity
  8
LAY-10
  6
CONTINUOUS
 62
     7
100
AcDbLine
 10
474.3000000000008
 20
248.3364834836591
 30
0.0
 11
468.2999999999998
 21
248.3364834836591
 31
0.0
  0
LINE
  5
418
330
1F
100
AcDbEntity
  8
LAY-10
  6
CONTINUOUS
 62
     7
100
AcDbLine
 10
473.7584999999955
 20
248.8779834836548
 30
0.0
 11
474.2999999999957
 21
248.3364834836548
 31
0.0
  0
LINE
  5
419
330
1F
100
AcDbEntity
  8
LAY-10
  6
CONTINUOUS
 62
     7
100
AcDbLine
 10
468.8415000000051
 20
248.8779834836548
 30
0.0
 11
468.3000000000053
 21
248.3364834836548
 31
0.0
  0
LINE
  5
41A
330
1F
100
AcDbEntity
  8
LAY-10
  6
CONTINUOUS
 62
     7
100
AcDbLine
 10
473.7585000000004
 20
248.8779834836598
 30
0.0
 11
468.8415000000001
 21
248.8779834836598
 31
0.0
  0
LINE
  5
41B
330
1F
100
AcDbEntity
  8
LAY-10
  6
CONTINUOUS
 62
     7
100
AcDbLine
 10
468.8419392033926
 20
239.5430989109811
 30
0.0
 11
469.2999999999996
 21
240.3364834836595
 31
0.0
  0
LINE
  5
41C
330
1F
100
AcDbEntity
  8
LAY-10
  6
CONTINUOUS
 62
     7
100
AcDbLine
 10
473.7580607966069
 20
239.5430989109811
 30
0.0
 11
473.3000000000001
 21
240.3364834836595
 31
0.0
  0
LINE
  5
41D
330
1F
100
AcDbEntity
  8
LAY-10
  6
CONTINUOUS
 62
     7
100
AcDbLine
 10
469.3
 20
240.33648348366
 30
0.0
 11
473.3000000000001
 21
240.33648348366
 31
0.0
  0
LINE
  5
41E
330
1F
100
AcDbEntity
  8
LAY-10
  6
CONTINUOUS
 62
     7
100
AcDbLine
 10
473.7585000000001
 20
246.3364834836599
 30
0.0
 11
473.7585000000001
 21
240.33648348366
 31
0.0
  0
LINE
  5
41F
330
1F
100
AcDbEntity
  8
LAY-10
  6
CONTINUOUS
 62
     7
100
AcDbLine
 10
468.8415000000001
 20
246.3364834836599
 30
0.0
 11
468.8415000000001
 21
240.3364834836597
 31
0.0
  0
LINE
  5
420
330
1F
100
AcDbEntity
  8
LAY-10
  6
CONTINUOUS
 62
     7
100
AcDbLine
 10
468.2999999999998
 20
245.7949834836621
 30
0.0
 11
468.2999999999998
 21
248.3364834836591
 31
0.0
  0
LINE
  5
421
330
1F
100
AcDbEntity
  8
LAY-10
  6
CONTINUOUS
 62
     7
100
AcDbLine
 10
468.3000000000002
 20
245.7949834836599
 30
0.0
 11
474.3000000000002
 21
245.7949834836599
 31
0.0
  0
LINE
  5
422
330
1F
100
AcDbEntity
  8
LAY-10
  6
CONTINUOUS
 62
     7
100
AcDbLine
 10
474.3000000000008
 20
245.7949834836616
 30
0.0
 11
474.3000000000008
 21
248.3364834836591
 31
0.0
  0
LINE
  5
423
330
1F
100
AcDbEntity
  8
LAY-10
  6
CONTINUOUS
 62
     7
100
AcDbLine
 10
435.7999999999693
 20
300.8837606837803
 30
0.0
 11
435.7999999999693
 21
288.8837606837805
 31
0.0
  0
LINE
  5
424
330
1F
100
AcDbEntity
  8
LAY-10
  6
CONTINUOUS
 62
     7
100
AcDbLine
 10
430.7999999999695
 20
300.8837606837803
 30
0.0
 11
430.7999999999695
 21
288.8837606837805
 31
0.0
  0
LINE
  5
425
330
1F
100
AcDbEntity
  8
LAY-10
  6
CONTINUOUS
 62
     7
100
AcDbLine
 10
467.7585000000003
 20
259.8364834836399
 30
0.0
 11
467.7585000000003
 21
271.8364834836398
 31
0.0
  0
LINE
  5
426
330
1F
100
AcDbEntity
  8
LAY-10
  6
CONTINUOUS
 62
     7
100
AcDbLine
 10
468.3000000000002
 20
260.3779834836399
 30
0.0
 11
462.2999999999996
 21
260.37798348364
 31
0.0
  0
LINE
  5
427
330
1F
100
AcDbEntity
  8
LAY-10
  6
CONTINUOUS
 62
     7
100
AcDbLine
 10
468.3000000000005
 20
260.3779834836428
 30
0.0
 11
468.3000000000005
 21
257.8364834836699
 31
0.0
  0
LINE
  5
428
330
1F
100
AcDbEntity
  8
LAY-10
  6
CONTINUOUS
 62
     7
100
AcDbLine
 10
462.2999999999996
 20
260.37798348364
 30
0.0
 11
462.2999999999996
 21
257.8364834836616
 31
0.0
  0
LINE
  5
429
330
1F
100
AcDbEntity
  8
LAY-10
  6
CONTINUOUS
 62
     7
100
AcDbLine
 10
462.8415000000002
 20
259.8364834836399
 30
0.0
 11
462.8415000000002
 21
271.8364834836398
 31
0.0
  0
LINE
  5
42A
330
1F
100
AcDbEntity
  8
LAY-10
  6
CONTINUOUS
 62
     7
100
AcDbLine
 10
165.7585000000003
 20
259.83648348364
 30
0.0
 11
165.7585000000003
 21
271.8364834836399
 31
0.0
  0
LINE
  5
42B
330
1F
100
AcDbEntity
  8
LAY-10
  6
CONTINUOUS
 62
     7
100
AcDbLine
 10
166.3000000000003
 20
260.37798348364
 30
0.0
 11
160.2999999999996
 21
260.37798348364
 31
0.0
  0
LINE
  5
42C
330
1F
100
AcDbEntity
  8
LAY-10
  6
CONTINUOUS
 62
     7
100
AcDbLine
 10
160.8415000000004
 20
259.83648348364
 30
0.0
 11
160.8415000000004
 21
271.8364834836399
 31
0.0
  0
LINE
  5
42D
330
1F
100
AcDbEntity
  8
LAY-10
  6
CONTINUOUS
 62
     7
100
AcDbLine
 10
160.2999999999996
 20
260.377983483643
 30
0.0
 11
160.2999999999996
 21
257.8364834836605
 31
0.0
  0
LINE
  5
42E
330
1F
100
AcDbEntity
  8
LAY-10
  6
CONTINUOUS
 62
     7
100
AcDbLine
 10
166.3000000000001
 20
260.3779834836424
 30
0.0
 11
166.3000000000001
 21
257.8364834836607
 31
0.0
  0
LINE
  5
42F
330
1F
100
AcDbEntity
  8
LAY-10
  6
CONTINUOUS
 62
     7
100
AcDbLine
 10
335.5500000000001
 20
331.9252606837599
 30
0.0
 11
347.5500000000001
 21
331.9252606837599
 31
0.0
  0
LINE
  5
430
330
1F
100
AcDbEntity
  8
LAY-10
  6
CONTINUOUS
 62
     7
100
AcDbLine
 10
336.0915000000002
 20
331.3837606837598
 30
0.0
 11
336.0915000000002
 21
337.3837606837605
 31
0.0
  0
LINE
  5
431
330
1F
100
AcDbEntity
  8
LAY-10
  6
CONTINUOUS
 62
     7
100
AcDbLine
 10
335.5500000000001
 20
336.8422606837599
 30
0.0
 11
347.5500000000001
 21
336.8422606837599
 31
0.0
  0
LINE
  5
432
330
1F
100
AcDbEntity
  8
LAY-10
  6
CONTINUOUS
 62
     7
100
AcDbLine
 10
332.0097253329502
 20
211.8417581506999
 30
0.0
 11
196.5902746670496
 21
211.8417581507001
 31
0.0
  0
LINE
  5
433
330
1F
100
AcDbEntity
  8
LAY-10
  6
CONTINUOUS
 62
     7
100
AcDbLine
 10
332.0097253329476
 20
211.841758150696
 30
0.0
 11
333.5149999999869
 21
210.3364834836567
 31
0.0
  0
LINE
  5
434
330
1F
100
AcDbEntity
  8
LAY-10
  6
CONTINUOUS
 62
     7
100
AcDbLine
 10
196.5902746670525
 20
211.841758150696
 30
0.0
 11
195.0850000000133
 21
210.3364834836567
 31
0.0
  0
LINE
  5
435
330
1F
100
AcDbEntity
  8
LAY-10
  6
CONTINUOUS
 62
     7
100
AcDbLine
 10
154.8415000000004
 20
246.3364834836599
 30
0.0
 11
154.8415000000004
 21
240.3364834836601
 31
0.0
  0
LINE
  5
436
330
1F
100
AcDbEntity
  8
LAY-10
  6
CONTINUOUS
 62
     7
100
AcDbLine
 10
159.7585000000003
 20
246.3364834836599
 30
0.0
 11
159.7585000000003
 21
240.3364834836598
 31
0.0
  0
LINE
  5
437
330
1F
100
AcDbEntity
  8
LAY-10
  6
CONTINUOUS
 62
     7
100
AcDbLine
 10
346.8000000000002
 20
190.3364834836005
 30
0.0
 11
181.8000000000001
 21
190.3364834836005
 31
0.0
  0
LINE
  5
438
330
1F
100
AcDbEntity
  8
LAY-10
  6
CONTINUOUS
 62
     7
100
AcDbLine
 10
181.8000000000001
 20
243.8364834836603
 30
0.0
 11
181.8000000000001
 21
190.3364834836005
 31
0.0
  0
LINE
  5
439
330
1F
100
AcDbEntity
  8
LAY-10
  6
CONTINUOUS
 62
     7
100
AcDbLine
 10
187.3000000000001
 20
243.8364834836603
 30
0.0
 11
187.3000000000001
 21
190.3364834836005
 31
0.0
  0
LINE
  5
43A
330
1F
100
AcDbEntity
  8
LAY-10
  6
CONTINUOUS
 62
     7
100
AcDbLine
 10
341.3000000000001
 20
243.8364834836603
 30
0.0
 11
341.3000000000001
 21
190.3364834836005
 31
0.0
  0
LINE
  5
43B
330
1F
100
AcDbEntity
  8
LAY-10
  6
CONTINUOUS
 62
     7
100
AcDbLine
 10
346.8000000000002
 20
243.8364834836603
 30
0.0
 11
346.8000000000002
 21
190.3364834836005
 31
0.0
  0
DIMENSION
  5
43D
330
1F
100
AcDbEntity
  8
LAY-20
  6
CONTINUOUS
 62
     4
100
AcDbDimension
  2
*D15
 10
336.79999999999
 20
374.38376068376
 30
0.0
 11
264.8700000000001
 21
381.88376068376
 31
0.0
 70
   160
  1
%%c<>
  3
ISO-25
100
AcDbAlignedDimension
 13
191.80000000001
 23
344.38376068376
 33
0.0
 14
336.79999999999
 24
344.38376068376
 34
0.0
100
AcDbRotatedDimension
1001
ACAD
1000
DSTYLE
1002
{
1070
   270
1070
     2
1070
     6
1000
EX_BNORM
1070
     7
1000
EX_BNORM
1070
    41
1040
9.0
1070
    42
1040
4.5
1070
    44
1040
4.5
1070
    73
1070
     1
1070
    74
1070
     1
1070
    75
1070
     0
1070
    76
1070
     0
1070
    77
1070
     1
1070
    78
1070
     8
1070
   140
1040
9.3543312
1070
   147
1040
0.0
1070
   173
1070
     1
1070
   176
1070
     4
1070
   177
1070
     4
1070
   178
1070
     7
1070
   271
1070
     1
1070
   277
1070
     2
1070
   279
1070
     2
1070
   280
1070
     0
1070
   287
1070
     5
1070
   340
1005
43C
1002
}
  0
DIMENSION
  5
44B
330
1F
100
AcDbEntity
  8
LAY-20
  6
CONTINUOUS
 62
     4
100
AcDbDimension
  2
*D16
 10
451.3
 20
395.3837606837599
 30
0.0
 11
312.3000000000001
 21
402.8837606837599
 31
0.0
 70
   160
  3
ISO-25
100
AcDbAlignedDimension
 13
173.3
 23
305.8837606838
 33
0.0
 14
451.3
 24
305.8837606838
 34
0.0
100
AcDbRotatedDimension
1001
ACAD
1000
DSTYLE
1002
{
1070
   270
1070
     2
1070
     6
1000
EX_BNORM
1070
     7
1000
EX_BNORM
1070
    41
1040
9.0
1070
    42
1040
4.5
1070
    44
1040
4.5
1070
    73
1070
     0
1070
    74
1070
     0
1070
    75
1070
     0
1070
    76
1070
     0
1070
    77
1070
     1
1070
    78
1070
     8
1070
   140
1040
9.3543312
1070
   147
1040
0.0
1070
   173
1070
     1
1070
   176
1070
     4
1070
   177
1070
     4
1070
   178
1070
     7
1070
   271
1070
     1
1070
   277
1070
     2
1070
   279
1070
     2
1070
   280
1070
     0
1070
   287
1070
     5
1070
   340
1005
43C
1002
}
  0
DIMENSION
  5
458
330
1F
100
AcDbEntity
  8
LAY-20
  6
CONTINUOUS
 62
     4
100
AcDbDimension
  2
*D17
 10
479.30000000002
 20
416.3837606837599
 30
0.0
 11
314.3000000000101
 21
423.8837606837599
 31
0.0
 70
   160
  3
ISO-25
100
AcDbAlignedDimension
 13
149.3
 23
268.3364834836599
 33
0.0
 14
479.30000000002
 24
268.3364834836599
 34
0.0
100
AcDbRotatedDimension
1001
ACAD
1000
DSTYLE
1002
{
1070
   270
1070
     2
1070
     6
1000
EX_BNORM
1070
     7
1000
EX_BNORM
1070
    41
1040
9.0
1070
    42
1040
4.5
1070
    44
1040
4.5
1070
    73
1070
     0
1070
    74
1070
     0
1070
    75
1070
     0
1070
    76
1070
     0
1070
    77
1070
     1
1070
    78
1070
     8
1070
   140
1040
9.3543312
1070
   147
1040
0.0
1070
   173
1070
     1
1070
   176
1070
     4
1070
   177
1070
     4
1070
   178
1070
     7
1070
   271
1070
     1
1070
   277
1070
     2
1070
   279
1070
     2
1070
   280
1070
     0
1070
   287
1070
     5
1070
   340
1005
43C
1002
}
  0
DIMENSION
  5
465
330
1F
100
AcDbEntity
  8
LAY-20
  6
CONTINUOUS
 62
     4
100
AcDbDimension
  2
*D18
 10
515.8
 20
275.33648348366
 30
0.0
 11
508.3
 21
232.83648348363
 31
0.0
 70
   160
  3
ISO-25
100
AcDbAlignedDimension
 13
346.8
 23
190.3364834836
 33
0.0
 14
478.3
 24
275.33648348366
 34
0.0
 50
90.0
100
AcDbRotatedDimension
1001
ACAD
1000
DSTYLE
1002
{
1070
   270
1070
     2
1070
     6
1000
EX_BNORM
1070
     7
1000
EX_BNORM
1070
    41
1040
9.0
1070
    42
1040
4.5
1070
    44
1040
4.5
1070
    73
1070
     0
1070
    74
1070
     0
1070
    75
1070
     0
1070
    76
1070
     0
1070
    77
1070
     1
1070
    78
1070
     8
1070
   140
1040
9.3543312
1070
   147
1040
0.0
1070
   173
1070
     1
1070
   176
1070
     4
1070
   177
1070
     4
1070
   178
1070
     7
1070
   271
1070
     1
1070
   277
1070
     2
1070
   279
1070
     2
1070
   280
1070
     0
1070
   287
1070
     5
1070
   340
1005
43C
1002
}
  0
DIMENSION
  5
472
330
1F
100
AcDbEntity
  8
LAY-20
  6
CONTINUOUS
 62
     4
100
AcDbDimension
  2
*D19
 10
515.8
 20
305.8837606837999
 30
0.0
 11
508.3
 21
290.61012208373
 31
0.0
 70
   160
  3
ISO-25
100
AcDbAlignedDimension
 13
515.8
 23
275.33648348366
 33
0.0
 14
451.3
 24
305.8837606838
 34
0.0
 50
90.0
100
AcDbRotatedDimension
1001
ACAD
1000
DSTYLE
1002
{
1070
   270
1070
     2
1070
     6
1000
EX_BNORM
1070
     7
1000
EX_BNORM
1070
    41
1040
9.0
1070
    42
1040
4.5
1070
    44
1040
4.5
1070
    73
1070
     0
1070
    74
1070
     0
1070
    75
1070
     1
1070
    76
1070
     0
1070
    77
1070
     1
1070
    78
1070
     0
1070
   140
1040
9.3543312
1070
   147
1040
0.0
1070
   173
1070
     1
1070
   176
1070
     4
1070
   177
1070
     4
1070
   178
1070
     7
1070
   271
1070
     0
1070
   277
1070
     2
1070
   279
1070
     2
1070
   280
1070
     0
1070
   287
1070
     5
1070
   340
1005
43C
1002
}
  0
DIMENSION
  5
47E
330
1F
100
AcDbEntity
  8
LAY-20
  6
CONTINUOUS
 62
     4
100
AcDbDimension
  2
*D20
 10
515.8
 20
305.8837606838
 30
0.0
 11
508.3
 21
325.13376068378
 31
0.0
 70
   160
  3
ISO-25
100
AcDbAlignedDimension
 13
341.29999999999
 23
344.38376068376
 33
0.0
 14
515.8
 24
305.8837606838
 34
0.0
 50
90.0
100
AcDbRotatedDimension
1001
ACAD
1000
DSTYLE
1002
{
1070
   270
1070
     2
1070
     6
1000
EX_BNORM
1070
     7
1000
EX_BNORM
1070
    41
1040
9.0
1070
    42
1040
4.5
1070
    44
1040
4.5
1070
    73
1070
     0
1070
    74
1070
     0
1070
    75
1070
     0
1070
    76
1070
     1
1070
    77
1070
     1
1070
    78
1070
     0
1070
   140
1040
9.3543312
1070
   147
1040
0.0
1070
   173
1070
     1
1070
   176
1070
     4
1070
   177
1070
     4
1070
   178
1070
     7
1070
   271
1070
     0
1070
   277
1070
     2
1070
   279
1070
     2
1070
   280
1070
     0
1070
   287
1070
     5
1070
   340
1005
43C
1002
}
  0
DIMENSION
  5
48A
330
1F
100
AcDbEntity
  8
LAY-20
  6
CONTINUOUS
 62
     4
100
AcDbDimension
  2
*D21
 10
333.51499999999
 20
160.3364834836
 30
0.0
 11
264.3
 21
167.8364834836
 31
0.0
 70
   160
  1
Rｃ5（<>）
  3
ISO-25
100
AcDbAlignedDimension
 13
195.08500000001
 23
210.33648348366
 33
0.0
 14
333.51499999999
 24
210.33648348366
 34
0.0
100
AcDbRotatedDimension
1001
ACAD
1000
DSTYLE
1002
{
1070
   270
1070
     2
1070
     6
1000
EX_BNORM
1070
     7
1000
EX_BNORM
1070
    41
1040
9.0
1070
    42
1040
4.5
1070
    44
1040
4.5
1070
    73
1070
     0
1070
    74
1070
     0
1070
    75
1070
     0
1070
    76
1070
     0
1070
    77
1070
     1
1070
    78
1070
     8
1070
   140
1040
9.3543312
1070
   147
1040
0.0
1070
   173
1070
     1
1070
   176
1070
     4
1070
   177
1070
     4
1070
   178
1070
     7
1070
   271
1070
     1
1070
   277
1070
     2
1070
   279
1070
     2
1070
   280
1070
     0
1070
   287
1070
     5
1070
   340
1005
43C
1002
}
  0
DIMENSION
  5
497
330
1F
100
AcDbEntity
  8
LAY-20
  6
CONTINUOUS
 62
     4
100
AcDbDimension
  2
*D22
 10
554.100000000001
 20
739.6
 30
0.0
 11
546.600000000001
 21
624.6
 31
0.0
 70
   160
  3
ISO-25
100
AcDbAlignedDimension
 13
702.147277200101
 23
509.6
 33
0.0
 14
702.147277200101
 24
739.6
 34
0.0
 50
90.0
100
AcDbRotatedDimension
1001
ACAD
1000
DSTYLE
1002
{
1070
   270
1070
     2
1070
     6
1000
EX_BNORM
1070
     7
1000
EX_BNORM
1070
    41
1040
7.5
1070
    42
1040
4.5
1070
    44
1040
4.5
1070
    73
1070
     0
1070
    74
1070
     0
1070
    75
1070
     0
1070
    76
1070
     0
1070
    77
1070
     1
1070
    78
1070
     8
1070
   140
1040
9.3543312
1070
   147
1040
0.0
1070
   173
1070
     1
1070
   176
1070
     4
1070
   177
1070
     4
1070
   178
1070
     7
1070
   271
1070
     1
1070
   277
1070
     2
1070
   279
1070
     2
1070
   280
1070
     0
1070
   287
1070
     5
1070
   340
1005
43C
1002
}
  0
DIMENSION
  5
4A4
330
1F
100
AcDbEntity
  8
LAY-20
  6
CONTINUOUS
 62
     4
100
AcDbDimension
  2
*D23
 10
575.100000000001
 20
711.6
 30
0.0
 11
567.600000000001
 21
624.6
 31
0.0
 70
   160
  3
ISO-25
100
AcDbAlignedDimension
 13
664.600000000001
 23
537.6
 33
0.0
 14
664.600000000001
 24
711.6
 34
0.0
 50
90.0
100
AcDbRotatedDimension
1001
ACAD
1000
DSTYLE
1002
{
1070
   270
1070
     2
1070
     6
1000
EX_BNORM
1070
     7
1000
EX_BNORM
1070
    41
1040
7.5
1070
    42
1040
4.5
1070
    44
1040
4.5
1070
    73
1070
     0
1070
    74
1070
     0
1070
    75
1070
     0
1070
    76
1070
     0
1070
    77
1070
     1
1070
    78
1070
     8
1070
   140
1040
9.3543312
1070
   147
1040
0.0
1070
   173
1070
     1
1070
   176
1070
     4
1070
   177
1070
     4
1070
   178
1070
     7
1070
   271
1070
     1
1070
   277
1070
     2
1070
   279
1070
     2
1070
   280
1070
     0
1070
   287
1070
     5
1070
   340
1005
43C
1002
}
  0
DIMENSION
  5
4B1
330
1F
100
AcDbEntity
  8
LAY-20
  6
CONTINUOUS
 62
     4
100
AcDbDimension
  2
*D24
 10
596.100000000001
 20
697.09999999999
 30
0.0
 11
588.600000000001
 21
624.6
 31
0.0
 70
   160
  1
%%c145
  3
ISO-25
100
AcDbAlignedDimension
 13
626.1000000000009
 23
552.10000000001
 33
0.0
 14
626.100000000001
 24
697.09999999999
 34
0.0
 50
90.0
100
AcDbRotatedDimension
1001
ACAD
1000
DSTYLE
1002
{
1070
   270
1070
     2
1070
     6
1000
EX_BNORM
1070
     7
1000
EX_BNORM
1070
    41
1040
7.5
1070
    42
1040
4.5
1070
    44
1040
4.5
1070
    73
1070
     0
1070
    74
1070
     0
1070
    75
1070
     0
1070
    76
1070
     0
1070
    77
1070
     1
1070
    78
1070
     8
1070
   140
1040
9.3543312
1070
   147
1040
0.0
1070
   173
1070
     1
1070
   176
1070
     4
1070
   177
1070
     4
1070
   178
1070
     7
1070
   271
1070
     1
1070
   277
1070
     2
1070
   279
1070
     2
1070
   280
1070
     0
1070
   287
1070
     5
1070
   340
1005
43C
1002
}
  0
DIMENSION
  5
4BE
330
1F
100
AcDbEntity
  8
LAY-20
  6
CONTINUOUS
 62
     4
100
AcDbDimension
  2
*D25
 10
264.3
 20
479.6
 30
0.0
 11
206.8000000000001
 21
487.1
 31
0.0
 70
   160
  3
ISO-25
100
AcDbAlignedDimension
 13
149.3
 23
624.6
 33
0.0
 14
264.3
 24
506.1
 34
0.0
100
AcDbRotatedDimension
1001
ACAD
1000
DSTYLE
1002
{
1070
   270
1070
     2
1070
     6
1000
EX_BNORM
1070
     7
1000
EX_BNORM
1070
    41
1040
7.5
1070
    42
1040
4.5
1070
    44
1040
4.5
1070
    73
1070
     0
1070
    74
1070
     0
1070
    75
1070
     0
1070
    76
1070
     0
1070
    77
1070
     1
1070
    78
1070
     8
1070
   140
1040
9.3543312
1070
   147
1040
0.0
1070
   173
1070
     1
1070
   176
1070
     4
1070
   177
1070
     4
1070
   178
1070
     7
1070
   271
1070
     1
1070
   277
1070
     2
1070
   279
1070
     2
1070
   280
1070
     0
1070
   287
1070
     5
1070
   340
1005
43C
1002
}
  0
DIMENSION
  5
4CB
330
1F
100
AcDbEntity
  8
LAY-20
  6
CONTINUOUS
 62
     4
100
AcDbDimension
  2
*D26
 10
479.3
 20
479.6
 30
0.0
 11
371.8000000000001
 21
487.1
 31
0.0
 70
   160
  3
ISO-25
100
AcDbAlignedDimension
 13
264.3
 23
506.1
 33
0.0
 14
479.3
 24
509.6
 34
0.0
100
AcDbRotatedDimension
1001
ACAD
1000
DSTYLE
1002
{
1070
   270
1070
     2
1070
     6
1000
EX_BNORM
1070
     7
1000
EX_BNORM
1070
    41
1040
7.5
1070
    42
1040
4.5
1070
    44
1040
4.5
1070
    73
1070
     0
1070
    74
1070
     0
1070
    75
1070
     1
1070
    76
1070
     0
1070
    77
1070
     1
1070
    78
1070
     8
1070
   140
1040
9.3543312
1070
   147
1040
0.0
1070
   173
1070
     1
1070
   176
1070
     4
1070
   177
1070
     4
1070
   178
1070
     7
1070
   271
1070
     1
1070
   277
1070
     2
1070
   279
1070
     2
1070
   280
1070
     0
1070
   287
1070
     5
1070
   340
1005
43C
1002
}
  0
LINE
  5
4D7
330
1F
100
AcDbEntity
  8
LAY-255
  6
CONTINUOUS
 62
     7
100
AcDbLine
 10
866.4000000000001
 20
48.0
 30
0.0
 11
890.4000000000001
 21
63.0
 31
0.0
  0
LINE
  5
4D8
330
1F
100
AcDbEntity
  8
LAY-255
  6
CONTINUOUS
 62
     7
100
AcDbLine
 10
890.4000000000001
 20
63.0
 30
0.0
 11
914.4000000000001
 21
48.0
 31
0.0
  0
LINE
  5
4D9
330
1F
100
AcDbEntity
  8
LAY-255
  6
CONTINUOUS
 62
     7
100
AcDbLine
 10
914.4000000000001
 20
48.0
 30
0.0
 11
890.4000000000001
 21
33.0
 31
0.0
  0
LINE
  5
4DA
330
1F
100
AcDbEntity
  8
LAY-255
  6
CONTINUOUS
 62
     7
100
AcDbLine
 10
890.4000000000001
 20
33.0
 30
0.0
 11
866.4000000000001
 21
48.0
 31
0.0
  0
POINT
  5
4DB
330
1F
100
AcDbEntity
  8
LAY-255
  6
CONTINUOUS
 62
     7
100
AcDbPoint
 10
867.0
 20
150.0
 30
0.0
  0
POINT
  5
4DC
330
1F
100
AcDbEntity
  8
LAY-255
  6
CONTINUOUS
 62
     7
100
AcDbPoint
 10
900.0
 20
168.0
 30
0.0
  0
POINT
  5
4DD
330
1F
100
AcDbEntity
  8
LAY-255
  6
CONTINUOUS
 62
     7
100
AcDbPoint
 10
900.0
 20
186.0
 30
0.0
  0
POINT
  5
4DE
330
1F
100
AcDbEntity
  8
LAY-255
  6
CONTINUOUS
 62
     7
100
AcDbPoint
 10
867.0
 20
120.0
 30
0.0
  0
POINT
  5
4DF
330
1F
100
AcDbEntity
  8
LAY-255
  6
CONTINUOUS
 62
     7
100
AcDbPoint
 10
867.0
 20
135.0
 30
0.0
  0
POINT
  5
4E0
330
1F
100
AcDbEntity
  8
LAY-255
  6
CONTINUOUS
 62
     7
100
AcDbPoint
 10
867.0
 20
105.0
 30
0.0
  0
POINT
  5
4E1
330
1F
100
AcDbEntity
  8
LAY-255
  6
CONTINUOUS
 62
     7
100
AcDbPoint
 10
867.0
 20
89.99999999999996
 30
0.0
  0
LINE
  5
4E2
330
1F
100
AcDbEntity
  8
LAY-255
  6
CONTINUOUS
 62
     7
100
AcDbLine
 10
1155.0
 20
30.0
 30
0.0
 11
1155.0
 21
840.0
 31
0.0
  0
LINE
  5
4E3
330
1F
100
AcDbEntity
  8
LAY-255
  6
CONTINUOUS
 62
     7
100
AcDbLine
 10
1155.0
 20
201.0
 30
0.0
 11
855.0
 21
201.0
 31
0.0
  0
LINE
  5
4E4
330
1F
100
AcDbEntity
  8
LAY-255
  6
CONTINUOUS
 62
     7
100
AcDbLine
 10
855.0
 20
30.0
 30
0.0
 11
855.0
 21
201.0
 31
0.0
  0
LINE
  5
4E5
330
1F
100
AcDbEntity
  8
LAY-255
  6
CONTINUOUS
 62
     7
100
AcDbLine
 10
1155.0
 20
66.0
 30
0.0
 11
855.0
 21
66.0
 31
0.0
  0
LINE
  5
4E6
330
1F
100
AcDbEntity
  8
LAY-255
  6
CONTINUOUS
 62
     7
100
AcDbLine
 10
15.0
 20
30.0
 30
0.0
 11
1155.0
 21
30.0
 31
0.0
  0
LINE
  5
4E7
330
1F
100
AcDbEntity
  8
LAY-255
  6
CONTINUOUS
 62
     7
100
AcDbLine
 10
15.0
 20
840.0
 30
0.0
 11
1155.0
 21
840.0
 31
0.0
  0
LINE
  5
4E8
330
1F
100
AcDbEntity
  8
LAY-255
  6
CONTINUOUS
 62
     7
100
AcDbLine
 10
15.0
 20
30.0
 30
0.0
 11
15.0
 21
840.0
 31
0.0
  0
LINE
  5
4E9
330
1F
100
AcDbEntity
  8
LAY-255
  6
CONTINUOUS
 62
     4
100
AcDbLine
 10
1149.0
 20
183.0
 30
0.0
 11
861.0
 21
183.0
 31
0.0
  0
LINE
  5
4EA
330
1F
100
AcDbEntity
  8
LAY-255
  6
CONTINUOUS
 62
     4
100
AcDbLine
 10
1149.0
 20
165.0
 30
0.0
 11
861.0
 21
165.0
 31
0.0
  0
LINE
  5
4EB
330
1F
100
AcDbEntity
  8
LAY-255
  6
CONTINUOUS
 62
     4
100
AcDbLine
 10
855.0
 20
84.0
 30
0.0
 11
1155.0
 21
84.0
 31
0.0
  0
LINE
  5
4EC
330
1F
100
AcDbEntity
  8
LAY-255
  6
CONTINUOUS
 62
     4
100
AcDbLine
 10
1005.0
 20
84.0
 30
0.0
 11
1005.0
 21
66.0
 31
0.0
  0
TEXT
  5
4ED
330
1F
100
AcDbEntity
  8
LAY-255
  6
CONTINUOUS
 62
     7
100
AcDbText
 10
924.415136826172
 20
46.63125
 30
0.0
 40
15.46875
  1
福西鋳物株式会社
 41
1.342692141742901
  7
EXCADSTD
100
AcDbText
  0
TEXT
  5
4EE
330
1F
100
AcDbEntity
  8
LAY-255
  6
CONTINUOUS
 62
     7
100
AcDbText
 10
925.528125
 20
35.94375
 30
0.0
 40
5.15625
  1
ＦＵＫＵＮＩＳＨＩ
 41
1.204799226045263
  7
EXCADSTD
100
AcDbText
  0
TEXT
  5
4EF
330
1F
100
AcDbEntity
  8
LAY-255
  6
CONTINUOUS
 62
     7
100
AcDbText
 10
998.1575892857143
 20
35.94375
 30
0.0
 40
5.15625
  1
ＦＯＵＮＤＲＹ
 41
1.243252752978497
  7
EXCADSTD
100
AcDbText
  0
TEXT
  5
4F0
330
1F
100
AcDbEntity
  8
LAY-255
  6
CONTINUOUS
 62
     7
100
AcDbText
 10
1055.983774651442
 20
35.94375
 30
0.0
 40
5.15625
  1
ＣＯ.,ＬＴＤ.
 41
1.243831271314936
  7
EXCADSTD
100
AcDbText
  0
TEXT
  5
4F1
330
1F
100
AcDbEntity
  8
LAY-255
  6
CONTINUOUS
 62
     7
100
AcDbText
 10
882.1031250000001
 20
41.15625
 30
0.0
 40
15.46875
  1
S
 41
0.7582677563636363
  7
EXCADSTD
100
AcDbText
  0
TEXT
  5
4F2
330
1F
100
AcDbEntity
  8
LAY-255
  6
CONTINUOUS
 62
     7
100
AcDbText
 10
891.3140625000001
 20
41.24823113208
 30
0.0
 40
15.46875
  1
F
 41
0.7440945272727273
  7
EXCADSTD
100
AcDbText
  0
TEXT
  5
4F3
330
1F
100
AcDbEntity
  8
LAY-255
  6
CONTINUOUS
 62
     7
100
AcDbText
 10
1011.31640625
 20
73.26562499999997
 30
0.0
 40
7.734375
  1
縮尺
 41
1.080708718181818
  7
EXCADSTD
100
AcDbText
  0
TEXT
  5
4F4
330
1F
100
AcDbEntity
  8
LAY-255
  6
CONTINUOUS
 62
     7
100
AcDbText
 10
861.796875
 20
169.6875
 30
0.0
 40
10.3125
  1
型式
 41
1.056348480681818
  7
EXCADSTD
100
AcDbText
  0
TEXT
  5
4F5
330
1F
100
AcDbEntity
  8
LAY-255
  6
CONTINUOUS
 62
     7
100
AcDbText
 10
862.265625
 20
187.6875
 30
0.0
 40
10.3125
  1
品名
 41
0.978838634090909
  7
EXCADSTD
100
AcDbText
  0
TEXT
  5
4F6
330
1F
100
AcDbEntity
  8
LAY-255
  6
CONTINUOUS
 62
     7
100
AcDbText
 10
861.45703125
 20
73.26562499999997
 30
0.0
 40
7.734375
  1
作成日
 41
1.000629973818182
  7
EXCADSTD
100
AcDbText
  0
TEXT
  5
4F7
330
1F
100
AcDbEntity
  8
LAY-255
  6
CONTINUOUS
 62
     7
100
AcDbText
 10
1044.84375
 20
70.68749999999997
 30
0.0
 40
10.3125
  1
１：３
 41
0.8844094952727272
  7
EXCADSTD
100
AcDbText
  0
TEXT
  5
4F8
330
1F
100
AcDbEntity
  8
LAY-255
  6
CONTINUOUS
 62
     7
100
AcDbText
 10
900.75
 20
187.6875
 30
0.0
 40
10.3125
  1
ルーフドレイン
 41
1.021169538599106
  7
EXCADSTD
100
AcDbText
  0
TEXT
  5
4F9
330
1F
100
AcDbEntity
  8
LAY-255
  6
CONTINUOUS
 62
     7
100
AcDbText
 10
867.5625
 20
121.6875
 30
0.0
 40
10.3125
  1
施工：打込用
 41
1.018700840909091
  7
EXCADSTD
100
AcDbText
  0
TEXT
  5
4FA
330
1F
100
AcDbEntity
  8
LAY-255
  6
CONTINUOUS
 62
     7
100
AcDbText
 10
868.125
 20
151.6875
 30
0.0
 40
10.3125
  1
防水：モルタル・塗膜防水兼用
 41
1.008985320967742
  7
EXCADSTD
100
AcDbText
  0
TEXT
  5
4FB
330
1F
100
AcDbEntity
  8
LAY-255
  6
CONTINUOUS
 62
     7
100
AcDbText
 10
867.703125
 20
136.6875
 30
0.0
 40
10.3125
  1
用途：バルコニ－中継用
 41
1.012582243298969
  7
EXCADSTD
100
AcDbText
  0
TEXT
  5
4FC
330
1F
100
AcDbEntity
  8
LAY-255
  6
CONTINUOUS
 62
     7
100
AcDbText
 10
902.625
 20
169.6875
 30
0.0
 40
10.3125
  1
ＲＭＧＸ－１１２５型
 41
1.000581655991735
  7
EXCADSTD
100
AcDbText
  0
TEXT
  5
4FD
330
1F
100
AcDbEntity
  8
LAY-255
  6
CONTINUOUS
 62
     7
100
AcDbText
 10
867.65625
 20
106.6875
 30
0.0
 40
10.3125
  1
接続：ねじ込用
 41
1.015941708196721
  7
EXCADSTD
100
AcDbText
  0
TEXT
  5
4FE
330
1F
100
AcDbEntity
  8
LAY-255
  6
CONTINUOUS
 62
     7
100
AcDbText
 10
903.84375
 20
70.68749999999997
 30
0.0
 40
10.3125
  1
１６／０２／２９
 41
0.9642857649350649
  7
EXCADSTD
100
AcDbText
  0
ENDSEC
  0
SECTION
  2
OBJECTS
  0
DICTIONARY
  5
C
330
0
100
AcDbDictionary
  3
ACAD_GROUP
350
D
  3
ACAD_LAYOUT
350
1A
  3
ACAD_MATERIAL
350
43
  3
ACAD_MLEADERSTYLE
350
6B
  3
ACAD_MLINESTYLE
350
17
  3
ACAD_PLOTSETTINGS
350
19
  3
ACAD_SCALELIST
350
47
  3
ACAD_VISUALSTYLE
350
2A
  3
ACDBHEADERROUNDTRIPXREC
350
4FF
  3
ACDBVARIABLEDICTIONARY
350
520
  0
DICTIONARY
  5
52B
330
8
100
AcDbDictionary
280
     1
  3
ACAD_XREC_ROUNDTRIP
360
52C
  0
DICTIONARY
  5
D
102
{ACAD_REACTORS
330
C
102
}
330
C
100
AcDbDictionary
  0
DICTIONARY
  5
1A
102
{ACAD_REACTORS
330
C
102
}
330
C
100
AcDbDictionary
  0
DICTIONARY
  5
43
102
{ACAD_REACTORS
330
C
102
}
330
C
100
AcDbDictionary
  3
BYBLOCK
350
45
  3
BYLAYER
350
44
  3
GLOBAL
350
46
  0
DICTIONARY
  5
6B
102
{ACAD_REACTORS
330
C
102
}
330
C
100
AcDbDictionary
  3
STANDARD
350
6C
  0
DICTIONARY
  5
17
102
{ACAD_REACTORS
330
C
102
}
330
C
100
AcDbDictionary
  3
STANDARD
350
18
  0
DICTIONARY
  5
19
102
{ACAD_REACTORS
330
C
102
}
330
C
100
AcDbDictionary
  0
DICTIONARY
  5
47
102
{ACAD_REACTORS
330
C
102
}
330
C
100
AcDbDictionary
  3
A0
350
48
  3
A1
350
49
  3
A2
350
4A
  3
A3
350
4B
  3
A4
350
4C
  3
A5
350
4D
  3
A6
350
4E
  3
A7
350
4F
  3
A8
350
50
  3
A9
350
51
  3
B0
350
52
  3
B1
350
53
  3
B2
350
54
  3
B3
350
55
  3
B4
350
56
  3
B5
350
57
  3
B6
350
58
  3
B7
350
59
  3
B8
350
5A
  3
B9
350
5B
  3
C0
350
5C
  3
C1
350
5D
  3
C2
350
5E
  3
C3
350
5F
  3
C4
350
60
  3
C5
350
61
  3
C6
350
62
  3
C7
350
63
  3
C8
350
64
  3
C9
350
65
  3
D0
350
66
  3
D1
350
67
  3
D2
350
68
  0
DICTIONARY
  5
2A
102
{ACAD_REACTORS
330
C
102
}
330
C
100
AcDbDictionary
  3
2DWIREFRAME
350
2F
  3
BASIC
350
32
  3
BRIGHTEN
350
36
  3
COLORCHANGE
350
3A
  3
CONCEPTUAL
350
34
  3
DIM
350
35
  3
EDGECOLOROFF
350
3D
  3
FACEPATTERN
350
39
  3
FLAT
350
2B
  3
FLATWITHEDGES
350
2C
  3
GOURAUD
350
2D
  3
GOURAUDWITHEDGES
350
2E
  3
HIDDEN
350
31
  3
JITTEROFF
350
3B
  3
LINEPATTERN
350
38
  3
OVERHANGOFF
350
3C
  3
REALISTIC
350
33
  3
SHADED
350
42
  3
SHADED_WITH_EDGES
350
41
  3
SHADES_OF_GRAY
350
3E
  3
SKETCHY
350
3F
  3
THICKEN
350
37
  3
WIREFRAME
350
30
  3
X-RAY
350
40
  0
DICTIONARY
  5
4FF
102
{ACAD_REACTORS
330
C
102
}
330
C
100
AcDbDictionary
  3
CEPSNID
350
509
  3
CEPSNTYPE
350
508
  3
DIMSTYLEDATA
350
51F
  3
FINGERPRINTGUID
350
50A
  3
HYPERLINKBASE
350
502
  3
INSUNITS
350
507
  3
LAYOUTDICT
350
504
  3
LWETCUNION
350
506
  3
PLOTSETDICT
350
505
  3
PSVPSCALE
350
50C
  3
PUCSBASE
350
50F
  3
PUCSORGBACK
350
515
  3
PUCSORGBOTTOM
350
511
  3
PUCSORGFRONT
350
514
  3
PUCSORGLEFT
350
512
  3
PUCSORGRIGHT
350
513
  3
PUCSORGTOP
350
510
  3
PUCSORTHOREF
350
50D
  3
PUCSORTHOVIEW
350
50E
  3
STYLESHEET
350
503
  3
TSTACKALIGN
350
500
  3
TSTACKSIZE
350
501
  3
UCSBASE
350
518
  3
UCSORGBACK
350
51E
  3
UCSORGBOTTOM
350
51A
  3
UCSORGFRONT
350
51D
  3
UCSORGLEFT
350
51B
  3
UCSORGRIGHT
350
51C
  3
UCSORGTOP
350
519
  3
UCSORTHOREF
350
516
  3
UCSORTHOVIEW
350
517
  3
VERSIONGUID
350
50B
  0
DICTIONARY
  5
520
102
{ACAD_REACTORS
330
C
102
}
330
C
100
AcDbDictionary
  3
CANNOSCALE
350
52D
  3
CENTEREXE
350
527
  3
CENTERLTYPEFILE
350
528
  3
CMLEADERSTYLE
350
522
  3
CTABLESTYLE
350
521
  3
DIMASSOC
350
529
  3
HIDETEXT
350
52A
  3
MSLTSCALE
350
52E
  3
PSOLHEIGHT
350
524
  3
PSOLWIDTH
350
523
  0
XRECORD
  5
52C
102
{ACAD_REACTORS
330
52B
102
}
330
52B
100
AcDbXrecord
102
VTR_0.000_0.000_1.000_1.000_VISUALSTYLE
340
2F
102
VTR_0.000_0.000_1.000_1.000_GRIDDISPLAY
 70
     3
102
VTR_0.000_0.000_1.000_1.000_GRIDMAJOR
 70
     5
102
VTR_0.000_0.000_1.000_1.000_DEFAULTLIGHTING
280
     1
102
VTR_0.000_0.000_1.000_1.000_DEFAULTLIGHTINGTYPE
 70
     1
102
VTR_0.000_0.000_1.000_1.000_BRIGHTNESS
141
0.0
102
VTR_0.000_0.000_1.000_1.000_CONTRAST
142
0.0
  0
MATERIAL
  5
45
102
{ACAD_REACTORS
330
43
102
}
102
{ACAD_XDICTIONARY
360
531
102
}
330
43
100
AcDbMaterial
  1
BYBLOCK
  0
MATERIAL
  5
44
102
{ACAD_REACTORS
330
43
102
}
102
{ACAD_XDICTIONARY
360
52F
102
}
330
43
100
AcDbMaterial
  1
BYLAYER
  0
MATERIAL
  5
46
102
{ACAD_REACTORS
330
43
102
}
102
{ACAD_XDICTIONARY
360
533
102
}
330
43
100
AcDbMaterial
  1
GLOBAL
  0
ACAD_PROXY_OBJECT
  5
6C
102
{ACAD_REACTORS
330
6B
102
}
330
6B
100
AcDbProxyObject
 90
      499
 91
      505
 93
      610
310
40901902A4063FBFFFFFE0000000000000020400000000000020404214DD185B99185C990000000000000104090141901A00000000000004100000000000000041025764000000000000039000
340
14
340
0
340
11
340
0
 94
        0
1001
ACAD_MLEADERVER
1070
     2
  0
MLINESTYLE
  5
18
102
{ACAD_REACTORS
330
17
102
}
330
17
100
AcDbMlineStyle
  2
Standard
 70
     0
  3

 62
   256
 51
90.0
 52
90.0
 71
     2
 49
0.5
 62
   256
  6
BYLAYER
 49
-0.5
 62
   256
  6
BYLAYER
  0
ACAD_PROXY_OBJECT
  5
48
102
{ACAD_REACTORS
330
47
102
}
330
47
100
AcDbProxyObject
 90
      499
 91
      503
 93
       41
310
903313A31580
  0
ACAD_PROXY_OBJECT
  5
49
102
{ACAD_REACTORS
330
47
102
}
330
47
100
AcDbProxyObject
 90
      499
 91
      503
 93
      105
310
903313A324000000000000004000
  0
ACAD_PROXY_OBJECT
  5
4A
102
{ACAD_REACTORS
330
47
102
}
330
47
100
AcDbProxyObject
 90
      499
 91
      503
 93
      105
310
903313A344000000000000104000
  0
ACAD_PROXY_OBJECT
  5
4B
102
{ACAD_REACTORS
330
47
102
}
330
47
100
AcDbProxyObject
 90
      499
 91
      503
 93
      105
310
903313A354000000000000144000
  0
ACAD_PROXY_OBJECT
  5
4C
102
{ACAD_REACTORS
330
47
102
}
330
47
100
AcDbProxyObject
 90
      499
 91
      503
 93
      105
310
903313A384000000000000204000
  0
ACAD_PROXY_OBJECT
  5
4D
102
{ACAD_REACTORS
330
47
102
}
330
47
100
AcDbProxyObject
 90
      499
 91
      503
 93
      113
310
904313A31304000000000000244000
  0
ACAD_PROXY_OBJECT
  5
4E
102
{ACAD_REACTORS
330
47
102
}
330
47
100
AcDbProxyObject
 90
      499
 91
      503
 93
      113
310
904313A31364000000000000304000
  0
ACAD_PROXY_OBJECT
  5
4F
102
{ACAD_REACTORS
330
47
102
}
330
47
100
AcDbProxyObject
 90
      499
 91
      503
 93
      113
310
904313A32304000000000000344000
  0
ACAD_PROXY_OBJECT
  5
50
102
{ACAD_REACTORS
330
47
102
}
330
47
100
AcDbProxyObject
 90
      499
 91
      503
 93
      113
310
904313A333040000000000003E4000
  0
ACAD_PROXY_OBJECT
  5
51
102
{ACAD_REACTORS
330
47
102
}
330
47
100
AcDbProxyObject
 90
      499
 91
      503
 93
      113
310
904313A34304000000000000444000
  0
ACAD_PROXY_OBJECT
  5
52
102
{ACAD_REACTORS
330
47
102
}
330
47
100
AcDbProxyObject
 90
      499
 91
      503
 93
      113
310
904313A35304000000000000494000
  0
ACAD_PROXY_OBJECT
  5
53
102
{ACAD_REACTORS
330
47
102
}
330
47
100
AcDbProxyObject
 90
      499
 91
      503
 93
      121
310
905313A3130304000000000000594000
  0
ACAD_PROXY_OBJECT
  5
54
102
{ACAD_REACTORS
330
47
102
}
330
47
100
AcDbProxyObject
 90
      499
 91
      503
 93
      105
310
903323A310000000000000010100
  0
ACAD_PROXY_OBJECT
  5
55
102
{ACAD_REACTORS
330
47
102
}
330
47
100
AcDbProxyObject
 90
      499
 91
      503
 93
      105
310
903343A310000000000000410100
  0
ACAD_PROXY_OBJECT
  5
56
102
{ACAD_REACTORS
330
47
102
}
330
47
100
AcDbProxyObject
 90
      499
 91
      503
 93
      105
310
903383A310000000000000810100
  0
ACAD_PROXY_OBJECT
  5
57
102
{ACAD_REACTORS
330
47
102
}
330
47
100
AcDbProxyObject
 90
      499
 91
      503
 93
      113
310
90431303A310000000000000910100
  0
ACAD_PROXY_OBJECT
  5
58
102
{ACAD_REACTORS
330
47
102
}
330
47
100
AcDbProxyObject
 90
      499
 91
      503
 93
      121
310
9053130303A310000000000001650100
  0
ACAD_PROXY_OBJECT
  5
59
102
{ACAD_REACTORS
330
47
102
}
330
47
100
AcDbProxyObject
 90
      499
 91
      503
 93
      257
310
90E312F31323822203D2031272D3022000000000000200FC000000000000284000
  0
ACAD_PROXY_OBJECT
  5
5A
102
{ACAD_REACTORS
330
47
102
}
330
47
100
AcDbProxyObject
 90
      499
 91
      503
 93
      249
310
90D312F363422203D2031272D3022000000000000240FC000000000000284000
  0
ACAD_PROXY_OBJECT
  5
5B
102
{ACAD_REACTORS
330
47
102
}
330
47
100
AcDbProxyObject
 90
      499
 91
      503
 93
      249
310
90D312F333222203D2031272D3022000000000000280FC000000000000284000
  0
ACAD_PROXY_OBJECT
  5
5C
102
{ACAD_REACTORS
330
47
102
}
330
47
100
AcDbProxyObject
 90
      499
 91
      503
 93
      249
310
90D312F313622203D2031272D30220000000000002C0FC000000000000284000
  0
ACAD_PROXY_OBJECT
  5
5D
102
{ACAD_REACTORS
330
47
102
}
330
47
100
AcDbProxyObject
 90
      499
 91
      503
 93
      249
310
90D332F333222203D2031272D30220000000000002E0FC000000000000284000
  0
ACAD_PROXY_OBJECT
  5
5E
102
{ACAD_REACTORS
330
47
102
}
330
47
100
AcDbProxyObject
 90
      499
 91
      503
 93
      241
310
90C312F3822203D2031272D3022000000000000300FC000000000000284000
  0
ACAD_PROXY_OBJECT
  5
5F
102
{ACAD_REACTORS
330
47
102
}
330
47
100
AcDbProxyObject
 90
      499
 91
      503
 93
      249
310
90D332F313622203D2031272D3022000000000000320FC000000000000284000
  0
ACAD_PROXY_OBJECT
  5
60
102
{ACAD_REACTORS
330
47
102
}
330
47
100
AcDbProxyObject
 90
      499
 91
      503
 93
      241
310
90C312F3422203D2031272D3022000000000000340FC000000000000284000
  0
ACAD_PROXY_OBJECT
  5
61
102
{ACAD_REACTORS
330
47
102
}
330
47
100
AcDbProxyObject
 90
      499
 91
      503
 93
      241
310
90C332F3822203D2031272D3022000000000000360FC000000000000284000
  0
ACAD_PROXY_OBJECT
  5
62
102
{ACAD_REACTORS
330
47
102
}
330
47
100
AcDbProxyObject
 90
      499
 91
      503
 93
      241
310
90C312F3222203D2031272D3022000000000000380FC000000000000284000
  0
ACAD_PROXY_OBJECT
  5
63
102
{ACAD_REACTORS
330
47
102
}
330
47
100
AcDbProxyObject
 90
      499
 91
      503
 93
      241
310
90C332F3422203D2031272D30220000000000003A0FC000000000000284000
  0
ACAD_PROXY_OBJECT
  5
64
102
{ACAD_REACTORS
330
47
102
}
330
47
100
AcDbProxyObject
 90
      499
 91
      503
 93
      161
310
90A3122203D2031272D30224000000000000284000
  0
ACAD_PROXY_OBJECT
  5
65
102
{ACAD_REACTORS
330
47
102
}
330
47
100
AcDbProxyObject
 90
      499
 91
      503
 93
      257
310
90E312D312F3222203D2031272D30220000000000003E0FC000000000000284000
  0
ACAD_PROXY_OBJECT
  5
66
102
{ACAD_REACTORS
330
47
102
}
330
47
100
AcDbProxyObject
 90
      499
 91
      503
 93
      225
310
90A3322203D2031272D302200000000000002100000000000000284000
  0
ACAD_PROXY_OBJECT
  5
67
102
{ACAD_REACTORS
330
47
102
}
330
47
100
AcDbProxyObject
 90
      499
 91
      503
 93
      225
310
90A3622203D2031272D302200000000000006100000000000000284000
  0
ACAD_PROXY_OBJECT
  5
68
102
{ACAD_REACTORS
330
47
102
}
330
47
100
AcDbProxyObject
 90
      499
 91
      503
 93
      249
310
90D31272D3022203D2031272D30220000000000000A100000000000000284000
  0
ACAD_PROXY_OBJECT
  5
2F
102
{ACAD_REACTORS
330
2A
102
}
330
2A
100
AcDbProxyObject
 90
      499
 91
      501
 93
      436
310
42CC9915DA5C99599C985B595049028333333333333E33F0000000000000F90107901411070040501600405405064090741402480A0340
1001
ACAD
1000
AcDbSavedByObjectVersion
1070
     0
  0
ACAD_PROXY_OBJECT
  5
32
102
{ACAD_REACTORS
330
2A
102
}
330
2A
100
AcDbProxyObject
 90
      499
 91
      501
 93
      388
310
4150985CDA58D07406404333333333333E33F0000000000000F90107A41107004050150841D405064090741402480A0350
1001
ACAD
1000
AcDbSavedByObjectVersion
1070
     0
  0
ACAD_PROXY_OBJECT
  5
36
102
{ACAD_REACTORS
330
2A
102
}
330
2A
100
AcDbProxyObject
 90
      499
 91
      501
 93
      428
310
42109C9A59DA1D195B90C409028333333333333E33F0000000000000F9010790141107004050150841D405064090741402480A029950
1001
ACAD
1000
AcDbSavedByObjectVersion
1070
     0
  0
ACAD_PROXY_OBJECT
  5
3A
102
{ACAD_REACTORS
330
2A
102
}
330
2A
100
AcDbProxyObject
 90
      499
 91
      501
 93
      452
310
42D0DBDB1BDC90DA185B99D95104090240C333333333333E33F0000000000000F90108901411070040501508421405064090741402480A0350
1001
ACAD
1000
AcDbSavedByObjectVersion
1070
     0
  0
ACAD_PROXY_OBJECT
  5
34
102
{ACAD_REACTORS
330
2A
102
}
330
2A
100
AcDbProxyObject
 90
      499
 91
      501
 93
      500
310
4290DBDB98D95C1D1D585B10940D028333333333333E33F0000000000000F90107902409070040501000000000018199010841D405064090740C02480A0340
1001
ACAD
1000
AcDbSavedByObjectVersion
1070
     0
  0
ACAD_PROXY_OBJECT
  5
35
102
{ACAD_REACTORS
330
2A
102
}
330
2A
100
AcDbProxyObject
 90
      499
 91
      501
 93
      412
310
40D11A5B50B409028333333333333E33F0000000000000F9010790141107004050150841D405064090741402480A02677FFFFFD0
1001
ACAD
1000
AcDbSavedByObjectVersion
1070
     0
  0
ACAD_PROXY_OBJECT
  5
3D
102
{ACAD_REACTORS
330
2A
102
}
330
2A
100
AcDbProxyObject
 90
      499
 91
      501
 93
      452
310
43115919D950DBDB1BDC93D999916409028333333333333E33F0000000000000F9010790141107004050150841D405064090741402480A0350
1001
ACAD
1000
AcDbSavedByObjectVersion
1070
     0
  0
ACAD_PROXY_OBJECT
  5
39
102
{ACAD_REACTORS
330
2A
102
}
330
2A
100
AcDbProxyObject
 90
      499
 91
      501
 93
      444
310
42D19858D95C185D1D195C9B90F409028333333333333E33F0000000000000F9010790141107004050150841D405064090741402480A0350
1001
ACAD
1000
AcDbSavedByObjectVersion
1070
     0
  0
ACAD_PROXY_OBJECT
  5
2B
102
{ACAD_REACTORS
330
2A
102
}
330
2A
100
AcDbProxyObject
 90
      499
 91
      501
 93
      380
310
41119B185D240901404333333333333E33F0000000000000F9010740A907004050150841D405064090741402480A1B50
1001
ACAD
1000
AcDbSavedByObjectVersion
1070
     0
  0
ACAD_PROXY_OBJECT
  5
2C
102
{ACAD_REACTORS
330
2A
102
}
330
2A
100
AcDbProxyObject
 90
      499
 91
      501
 93
      468
310
43519B185D15DA5D1A115919D95CD0140901404333333333333E33F0000000000000F90107409019070040501600405405064090741402480A1B50
1001
ACAD
1000
AcDbSavedByObjectVersion
1070
     0
  0
ACAD_PROXY_OBJECT
  5
2D
102
{ACAD_REACTORS
330
2A
102
}
330
2A
100
AcDbProxyObject
 90
      499
 91
      501
 93
      404
310
41D1DBDD5C985D5910240902404333333333333E33F0000000000000F9010740A9070040501641D405064090741402480A1B50
1001
ACAD
1000
AcDbSavedByObjectVersion
1070
     0
  0
ACAD_PROXY_OBJECT
  5
2E
102
{ACAD_REACTORS
330
2A
102
}
330
2A
100
AcDbProxyObject
 90
      499
 91
      501
 93
      492
310
4411DBDD5C985D5915DA5D1A115919D95CD0340902404333333333333E33F0000000000000F90107409019070040501600405405064090741402480A1B50
1001
ACAD
1000
AcDbSavedByObjectVersion
1070
     0
  0
ACAD_PROXY_OBJECT
  5
31
102
{ACAD_REACTORS
330
2A
102
}
330
2A
100
AcDbProxyObject
 90
      499
 91
      501
 93
      476
310
41921A5919195B90640502408333333333333E33F0000000000000F901079024090700405020000000000001110200405405064090740C02480A0340
1001
ACAD
1000
AcDbSavedByObjectVersion
1070
     0
  0
ACAD_PROXY_OBJECT
  5
3B
102
{ACAD_REACTORS
330
2A
102
}
330
2A
100
AcDbProxyObject
 90
      499
 91
      501
 93
      428
310
42529A5D1D195C93D999914409028333333333333E33F0000000000000F9010790141107004050150A41D405064090741402480A0350
1001
ACAD
1000
AcDbSavedByObjectVersion
1070
     0
  0
ACAD_PROXY_OBJECT
  5
38
102
{ACAD_REACTORS
330
2A
102
}
330
2A
100
AcDbProxyObject
 90
      499
 91
      501
 93
      444
310
42D31A5B995C185D1D195C9B90E409028333333333333E33F0000000000000F9010790141107004050750841D405064090741402483A0350
1001
ACAD
1000
AcDbSavedByObjectVersion
1070
     0
  0
ACAD_PROXY_OBJECT
  5
3C
102
{ACAD_REACTORS
330
2A
102
}
330
2A
100
AcDbProxyObject
 90
      499
 91
      501
 93
      444
310
42D3DD995C9A185B99D3D999915409028333333333333E33F0000000000000F9010790141107004050150941D405064090741402480A0350
1001
ACAD
1000
AcDbSavedByObjectVersion
1070
     0
  0
ACAD_PROXY_OBJECT
  5
33
102
{ACAD_REACTORS
330
2A
102
}
330
2A
100
AcDbProxyObject
 90
      499
 91
      501
 93
      428
310
425499585B1A5CDD1A58D08409038333333333333E33F0000000000000F9010740A907004050150800405405064090740C02480A1B40
1001
ACAD
1000
AcDbSavedByObjectVersion
1070
     0
  0
ACAD_PROXY_OBJECT
  5
42
102
{ACAD_REACTORS
330
2A
102
}
330
2A
100
AcDbProxyObject
 90
      499
 91
      501
 93
      420
310
4194DA1859195911B40902404333333333333E33F0000000000000F9010740A41107004050150800405405064090840C02480A0B40
1001
ACAD
1000
AcDbSavedByObjectVersion
1070
     0
  0
ACAD_PROXY_OBJECT
  5
41
102
{ACAD_REACTORS
330
2A
102
}
330
2A
100
AcDbProxyObject
 90
      499
 91
      501
 93
      516
310
4454DA18591959081DDA5D1A08195919D95CD1A40902404333333333333E33F0000000000000F901074090142907004050250800405405064090740C02480A0B40
1001
ACAD
1000
AcDbSavedByObjectVersion
1070
     0
  0
ACAD_PROXY_OBJECT
  5
3E
102
{ACAD_REACTORS
330
2A
102
}
330
2A
100
AcDbProxyObject
 90
      499
 91
      501
 93
      532
310
4394DA1859195CC81BD98811DC985E5174090240C333333333333E33F0000000000000F901079024090741D01000000000000111010841D405064090740C02480A0340
1001
ACAD
1000
AcDbSavedByObjectVersion
1070
     0
  0
ACAD_PROXY_OBJECT
  5
3F
102
{ACAD_REACTORS
330
2A
102
}
330
2A
100
AcDbProxyObject
 90
      499
 91
      501
 93
      476
310
41D4DAD95D18DA1E51840502408333333333333E33F0000000000000F901079024090741D01000000000000111010B41D405064090741802480A0340
1001
ACAD
1000
AcDbSavedByObjectVersion
1070
     0
  0
ACAD_PROXY_OBJECT
  5
37
102
{ACAD_REACTORS
330
2A
102
}
330
2A
100
AcDbProxyObject
 90
      499
 91
      501
 93
      412
310
41D51A1A58DAD95B90D409028333333333333E33F0000000000000F9010790141107004050150C41D405064090741402480A0350
1001
ACAD
1000
AcDbSavedByObjectVersion
1070
     0
  0
ACAD_PROXY_OBJECT
  5
30
102
{ACAD_REACTORS
330
2A
102
}
330
2A
100
AcDbProxyObject
 90
      499
 91
      501
 93
      420
310
4255DA5C99599C985B595059028333333333333E33F0000000000000F90107901411070040501600405405064090740C02480A0340
1001
ACAD
1000
AcDbSavedByObjectVersion
1070
     0
  0
ACAD_PROXY_OBJECT
  5
40
102
{ACAD_REACTORS
330
2A
102
}
330
2A
100
AcDbProxyObject
 90
      499
 91
      501
 93
      404
310
41560B54985E51940902404000000000000E03F0000000000000F9010740501907004050150841D405064090740C02480A1B40
1001
ACAD
1000
AcDbSavedByObjectVersion
1070
     0
  0
XRECORD
  5
509
102
{ACAD_REACTORS
330
4FF
102
}
330
4FF
100
AcDbXrecord
340
0
  0
XRECORD
  5
508
102
{ACAD_REACTORS
330
4FF
102
}
330
4FF
100
AcDbXrecord
 90
        0
  0
XRECORD
  5
51F
102
{ACAD_REACTORS
330
4FF
102
}
330
4FF
100
AcDbXrecord
1000
DSTYLE
1002
{
1070
   340
340
11
1002
}
  0
XRECORD
  5
50A
102
{ACAD_REACTORS
330
4FF
102
}
330
4FF
100
AcDbXrecord
  1
{4d19a663-7ce4-4d63-af7e-77746adc88e1}
  0
XRECORD
  5
502
102
{ACAD_REACTORS
330
4FF
102
}
330
4FF
100
AcDbXrecord
  1

  0
XRECORD
  5
507
102
{ACAD_REACTORS
330
4FF
102
}
330
4FF
100
AcDbXrecord
 90
        4
  0
XRECORD
  5
504
102
{ACAD_REACTORS
330
4FF
102
}
330
4FF
100
AcDbXrecord
340
1A
  0
XRECORD
  5
506
102
{ACAD_REACTORS
330
4FF
102
}
330
4FF
100
AcDbXrecord
 90
    10781
  0
XRECORD
  5
505
102
{ACAD_REACTORS
330
4FF
102
}
330
4FF
100
AcDbXrecord
340
19
  0
XRECORD
  5
50C
102
{ACAD_REACTORS
330
4FF
102
}
330
4FF
100
AcDbXrecord
 40
0.0
  0
XRECORD
  5
50F
102
{ACAD_REACTORS
330
4FF
102
}
330
4FF
100
AcDbXrecord
340
0
  0
XRECORD
  5
515
102
{ACAD_REACTORS
330
4FF
102
}
330
4FF
100
AcDbXrecord
 10
0.0
 20
0.0
 30
0.0
  0
XRECORD
  5
511
102
{ACAD_REACTORS
330
4FF
102
}
330
4FF
100
AcDbXrecord
 10
0.0
 20
0.0
 30
0.0
  0
XRECORD
  5
514
102
{ACAD_REACTORS
330
4FF
102
}
330
4FF
100
AcDbXrecord
 10
0.0
 20
0.0
 30
0.0
  0
XRECORD
  5
512
102
{ACAD_REACTORS
330
4FF
102
}
330
4FF
100
AcDbXrecord
 10
0.0
 20
0.0
 30
0.0
  0
XRECORD
  5
513
102
{ACAD_REACTORS
330
4FF
102
}
330
4FF
100
AcDbXrecord
 10
0.0
 20
0.0
 30
0.0
  0
XRECORD
  5
510
102
{ACAD_REACTORS
330
4FF
102
}
330
4FF
100
AcDbXrecord
 10
0.0
 20
0.0
 30
0.0
  0
XRECORD
  5
50D
102
{ACAD_REACTORS
330
4FF
102
}
330
4FF
100
AcDbXrecord
340
0
  0
XRECORD
  5
50E
102
{ACAD_REACTORS
330
4FF
102
}
330
4FF
100
AcDbXrecord
 70
     0
  0
XRECORD
  5
503
102
{ACAD_REACTORS
330
4FF
102
}
330
4FF
100
AcDbXrecord
  1

  0
XRECORD
  5
500
102
{ACAD_REACTORS
330
4FF
102
}
330
4FF
100
AcDbXrecord
 90
        1
  0
XRECORD
  5
501
102
{ACAD_REACTORS
330
4FF
102
}
330
4FF
100
AcDbXrecord
 90
       70
  0
XRECORD
  5
518
102
{ACAD_REACTORS
330
4FF
102
}
330
4FF
100
AcDbXrecord
340
0
  0
XRECORD
  5
51E
102
{ACAD_REACTORS
330
4FF
102
}
330
4FF
100
AcDbXrecord
 10
0.0
 20
0.0
 30
0.0
  0
XRECORD
  5
51A
102
{ACAD_REACTORS
330
4FF
102
}
330
4FF
100
AcDbXrecord
 10
0.0
 20
0.0
 30
0.0
  0
XRECORD
  5
51D
102
{ACAD_REACTORS
330
4FF
102
}
330
4FF
100
AcDbXrecord
 10
0.0
 20
0.0
 30
0.0
  0
XRECORD
  5
51B
102
{ACAD_REACTORS
330
4FF
102
}
330
4FF
100
AcDbXrecord
 10
0.0
 20
0.0
 30
0.0
  0
XRECORD
  5
51C
102
{ACAD_REACTORS
330
4FF
102
}
330
4FF
100
AcDbXrecord
 10
0.0
 20
0.0
 30
0.0
  0
XRECORD
  5
519
102
{ACAD_REACTORS
330
4FF
102
}
330
4FF
100
AcDbXrecord
 10
0.0
 20
0.0
 30
0.0
  0
XRECORD
  5
516
102
{ACAD_REACTORS
330
4FF
102
}
330
4FF
100
AcDbXrecord
340
0
  0
XRECORD
  5
517
102
{ACAD_REACTORS
330
4FF
102
}
330
4FF
100
AcDbXrecord
 70
     0
  0
XRECORD
  5
50B
102
{ACAD_REACTORS
330
4FF
102
}
330
4FF
100
AcDbXrecord
  1
{FAEB1C32-E019-11D5-929B-00C0DF256EC4}
  0
DICTIONARYVAR
  5
52D
102
{ACAD_REACTORS
330
520
102
}
330
520
100
DictionaryVariables
280
     0
  1
1:1
  0
DICTIONARYVAR
  5
527
102
{ACAD_REACTORS
330
520
102
}
330
520
100
DictionaryVariables
280
     0
  1
3.500000
  0
DICTIONARYVAR
  5
528
102
{ACAD_REACTORS
330
520
102
}
330
520
100
DictionaryVariables
280
     0
  1
acadiso.lin
  0
DICTIONARYVAR
  5
522
102
{ACAD_REACTORS
330
520
102
}
330
520
100
DictionaryVariables
280
     0
  1
Standard
  0
DICTIONARYVAR
  5
521
102
{ACAD_REACTORS
330
520
102
}
330
520
100
DictionaryVariables
280
     0
  1
Standard
  0
DICTIONARYVAR
  5
529
102
{ACAD_REACTORS
330
520
102
}
330
520
100
DictionaryVariables
280
     0
  1
2
  0
DICTIONARYVAR
  5
52A
102
{ACAD_REACTORS
330
520
102
}
330
520
100
DictionaryVariables
280
     0
  1
1
  0
DICTIONARYVAR
  5
52E
102
{ACAD_REACTORS
330
520
102
}
330
520
100
DictionaryVariables
280
     0
  1
1
  0
DICTIONARYVAR
  5
524
102
{ACAD_REACTORS
330
520
102
}
330
520
100
DictionaryVariables
280
     0
  1
80.000000
  0
DICTIONARYVAR
  5
523
102
{ACAD_REACTORS
330
520
102
}
330
520
100
DictionaryVariables
280
     0
  1
5.000000
  0
DICTIONARY
  5
531
330
45
100
AcDbDictionary
280
     1
  3
ACAD_XREC_ROUNDTRIP
360
532
  0
DICTIONARY
  5
52F
330
44
100
AcDbDictionary
280
     1
  3
ACAD_XREC_ROUNDTRIP
360
530
  0
DICTIONARY
  5
533
330
46
100
AcDbDictionary
280
     1
  3
ACAD_XREC_ROUNDTRIP
360
534
  0
XRECORD
  5
532
102
{ACAD_REACTORS
330
531
102
}
330
531
100
AcDbXrecord
102
MATERIAL
148
0.0
149
0.0
149
0.0
 93
        0
 94
      127
282
     0
 72
     1
 77
     1
171
     1
175
     1
179
     1
273
     0
  0
XRECORD
  5
530
102
{ACAD_REACTORS
330
52F
102
}
330
52F
100
AcDbXrecord
102
MATERIAL
148
0.0
149
0.0
149
0.0
 93
        0
 94
      127
282
     0
 72
     1
 77
     1
171
     1
175
     1
179
     1
273
     0
  0
XRECORD
  5
534
102
{ACAD_REACTORS
330
533
102
}
330
533
100
AcDbXrecord
102
MATERIAL
148
0.0
149
0.0
149
0.0
 93
        0
 94
      127
282
     0
 72
     1
 77
     1
171
     1
175
     1
179
     1
273
     0
  0
ENDSEC
  0
EOF
