  0
SECTION
  2
HEADER
  9
$ACADVER
  1
AC1014
  9
$ACADMAINTVER
 70
     9
  9
$DWGCODEPAGE
  3
ANSI_932
  9
$INSBASE
 10
0.0
 20
0.0
 30
0.0
  9
$EXTMIN
 10
15.0
 20
30.0
 30
0.0
  9
$EXTMAX
 10
1155.0
 20
840.0
 30
0.0
  9
$LIMMIN
 10
0.0
 20
0.0
  9
$LIMMAX
 10
420.0
 20
297.0
  9
$ORTHOMODE
 70
     0
  9
$REGENMODE
 70
     1
  9
$FILLMODE
 70
     1
  9
$QTEXTMODE
 70
     0
  9
$MIRRTEXT
 70
     1
  9
$DRAGMODE
 70
     2
  9
$LTSCALE
 40
0.2
  9
$OSMODE
 70
    37
  9
$ATTMODE
 70
     1
  9
$TEXTSIZE
 40
2.5
  9
$TRACEWID
 40
1.0
  9
$TEXTSTYLE
  7
STANDARD
  9
$CLAYER
  8
LAY-10
  9
$CELTYPE
  6
BYLAYER
  9
$CECOLOR
 62
   256
  9
$CELTSCALE
 40
1.0
  9
$DELOBJ
 70
     1
  9
$DISPSILH
 70
     0
  9
$DIMSCALE
 40
1.0
  9
$DIMASZ
 40
2.5
  9
$DIMEXO
 40
0.625
  9
$DIMDLI
 40
3.75
  9
$DIMRND
 40
0.0
  9
$DIMDLE
 40
0.0
  9
$DIMEXE
 40
1.25
  9
$DIMTP
 40
0.0
  9
$DIMTM
 40
0.0
  9
$DIMTXT
 40
2.5
  9
$DIMCEN
 40
2.5
  9
$DIMTSZ
 40
0.0
  9
$DIMTOL
 70
     0
  9
$DIMLIM
 70
     0
  9
$DIMTIH
 70
     0
  9
$DIMTOH
 70
     0
  9
$DIMSE1
 70
     0
  9
$DIMSE2
 70
     0
  9
$DIMTAD
 70
     1
  9
$DIMZIN
 70
     8
  9
$DIMBLK
  1

  9
$DIMASO
 70
     1
  9
$DIMSHO
 70
     1
  9
$DIMPOST
  1

  9
$DIMAPOST
  1

  9
$DIMALT
 70
     0
  9
$DIMALTD
 70
     3
  9
$DIMALTF
 40
0.03937007874016
  9
$DIMLFAC
 40
1.0
  9
$DIMTOFL
 70
     1
  9
$DIMTVP
 40
0.0
  9
$DIMTIX
 70
     0
  9
$DIMSOXD
 70
     0
  9
$DIMSAH
 70
     0
  9
$DIMBLK1
  1

  9
$DIMBLK2
  1

  9
$DIMSTYLE
  2
ISO-25
  9
$DIMCLRD
 70
     0
  9
$DIMCLRE
 70
     0
  9
$DIMCLRT
 70
     0
  9
$DIMTFAC
 40
1.0
  9
$DIMGAP
 40
0.625
  9
$DIMJUST
 70
     0
  9
$DIMSD1
 70
     0
  9
$DIMSD2
 70
     0
  9
$DIMTOLJ
 70
     0
  9
$DIMTZIN
 70
     8
  9
$DIMALTZ
 70
     0
  9
$DIMALTTZ
 70
     0
  9
$DIMFIT
 70
     3
  9
$DIMUPT
 70
     0
  9
$DIMUNIT
 70
     2
  9
$DIMDEC
 70
     2
  9
$DIMTDEC
 70
     2
  9
$DIMALTU
 70
     2
  9
$DIMALTTD
 70
     3
  9
$DIMTXSTY
  7
STANDARD
  9
$DIMAUNIT
 70
     0
  9
$LUNITS
 70
     2
  9
$LUPREC
 70
     4
  9
$SKETCHINC
 40
1.0
  9
$FILLETRAD
 40
10.0
  9
$AUNITS
 70
     0
  9
$AUPREC
 70
     0
  9
$MENU
  1
.
  9
$ELEVATION
 40
0.0
  9
$PELEVATION
 40
0.0
  9
$THICKNESS
 40
0.0
  9
$LIMCHECK
 70
     0
  9
$CHAMFERA
 40
0.0
  9
$CHAMFERB
 40
0.0
  9
$CHAMFERC
 40
0.0
  9
$CHAMFERD
 40
0.0
  9
$SKPOLY
 70
     0
  9
$TDCREATE
 40
2459229.337501227
  9
$TDUPDATE
 40
2459229.337501736
  9
$TDINDWG
 40
0.0000000116
  9
$TDUSRTIMER
 40
0.0000000116
  9
$USRTIMER
 70
     1
  9
$ANGBASE
 50
0.0
  9
$ANGDIR
 70
     0
  9
$PDMODE
 70
     0
  9
$PDSIZE
 40
0.0
  9
$PLINEWID
 40
0.0
  9
$COORDS
 70
     1
  9
$SPLFRAME
 70
     0
  9
$SPLINETYPE
 70
     6
  9
$SPLINESEGS
 70
     8
  9
$ATTDIA
 70
     0
  9
$ATTREQ
 70
     1
  9
$HANDLING
 70
     1
  9
$HANDSEED
  5
4A6
  9
$SURFTAB1
 70
     6
  9
$SURFTAB2
 70
     6
  9
$SURFTYPE
 70
     6
  9
$SURFU
 70
     6
  9
$SURFV
 70
     6
  9
$UCSNAME
  2

  9
$UCSORG
 10
0.0
 20
0.0
 30
0.0
  9
$UCSXDIR
 10
1.0
 20
0.0
 30
0.0
  9
$UCSYDIR
 10
0.0
 20
1.0
 30
0.0
  9
$PUCSNAME
  2

  9
$PUCSORG
 10
0.0
 20
0.0
 30
0.0
  9
$PUCSXDIR
 10
1.0
 20
0.0
 30
0.0
  9
$PUCSYDIR
 10
0.0
 20
1.0
 30
0.0
  9
$USERI1
 70
     0
  9
$USERI2
 70
     0
  9
$USERI3
 70
     0
  9
$USERI4
 70
     0
  9
$USERI5
 70
     0
  9
$USERR1
 40
0.0
  9
$USERR2
 40
0.0
  9
$USERR3
 40
0.0
  9
$USERR4
 40
0.0
  9
$USERR5
 40
0.0
  9
$WORLDVIEW
 70
     1
  9
$SHADEDGE
 70
     3
  9
$SHADEDIF
 70
    70
  9
$TILEMODE
 70
     1
  9
$MAXACTVP
 70
    64
  9
$PINSBASE
 10
0.0
 20
0.0
 30
0.0
  9
$PLIMCHECK
 70
     0
  9
$PEXTMIN
 10
1.000000000000000E+20
 20
1.000000000000000E+20
 30
1.000000000000000E+20
  9
$PEXTMAX
 10
-1.000000000000000E+20
 20
-1.000000000000000E+20
 30
-1.000000000000000E+20
  9
$PLIMMIN
 10
0.0
 20
0.0
  9
$PLIMMAX
 10
420.0
 20
297.0
  9
$UNITMODE
 70
     0
  9
$VISRETAIN
 70
     1
  9
$PLINEGEN
 70
     0
  9
$PSLTSCALE
 70
     1
  9
$TREEDEPTH
 70
  3020
  9
$PICKSTYLE
 70
     1
  9
$CMLSTYLE
  2
STANDARD
  9
$CMLJUST
 70
     0
  9
$CMLSCALE
 40
20.0
  9
$PROXYGRAPHICS
 70
     1
  9
$MEASUREMENT
 70
     1
  0
ENDSEC
  0
SECTION
  2
CLASSES
  0
CLASS
  1
ACDBDICTIONARYWDFLT
  2
AcDbDictionaryWithDefault
  3
ObjectDBX Classes
 90
        0
280
     0
281
     0
  0
CLASS
  1
VISUALSTYLE
  2
AcDbVisualStyle
  3
ObjectDBX Classes
 90
     4095
280
     0
281
     0
  0
CLASS
  1
MATERIAL
  2
AcDbMaterial
  3
ObjectDBX Classes
 90
     1153
280
     0
281
     0
  0
CLASS
  1
SCALE
  2
AcDbScale
  3
ObjectDBX Classes
 90
     1153
280
     0
281
     0
  0
CLASS
  1
TABLESTYLE
  2
AcDbTableStyle
  3
ObjectDBX Classes
 90
     4095
280
     0
281
     0
  0
CLASS
  1
MLEADERSTYLE
  2
AcDbMLeaderStyle
  3
ACDB_MLEADERSTYLE_CLASS
 90
     4095
280
     0
281
     0
  0
CLASS
  1
SUN
  2
AcDbSun
  3
SCENEOE
 90
     1153
280
     0
281
     0
  0
CLASS
  1
DICTIONARYVAR
  2
AcDbDictionaryVar
  3
ObjectDBX Classes
 90
        0
280
     0
281
     0
  0
CLASS
  1
XRECORD
  2
AcDbXrecord
  3
ObjectDBX Classes
 90
        0
280
     0
281
     0
  0
CLASS
  1
LWPOLYLINE
  2
AcDbPolyline
  3
ObjectDBX Classes
 90
        0
280
     0
281
     1
  0
CLASS
  1
HATCH
  2
AcDbHatch
  3
ObjectDBX Classes
 90
        0
280
     0
281
     1
  0
CLASS
  1
ACDBPLACEHOLDER
  2
AcDbPlaceHolder
  3
ObjectDBX Classes
 90
        0
280
     0
281
     0
  0
CLASS
  1
LAYOUT
  2
AcDbLayout
  3
ObjectDBX Classes
 90
        0
280
     0
281
     0
  0
ENDSEC
  0
SECTION
  2
TABLES
  0
TABLE
  2
VPORT
  5
8
102
{ACAD_XDICTIONARY
360
49B
102
}
330
0
100
AcDbSymbolTable
 70
     1
  0
VPORT
  5
29
330
8
100
AcDbSymbolTableRecord
100
AcDbViewportTableRecord
  2
*ACTIVE
 70
     0
 10
0.0
 20
0.0
 11
1.0
 21
1.0
 12
585.0000000000001
 22
435.0
 13
0.0
 23
0.0
 14
10.0
 24
10.0
 15
10.0
 25
10.0
 16
0.0
 26
0.0
 36
1.0
 17
0.0
 27
0.0
 37
0.0
 40
810.0
 41
1.407407407407408
 42
50.0
 43
0.0
 44
0.0
 50
0.0
 51
0.0
 71
     0
 72
  1000
 73
     1
 74
     3
 75
     0
 76
     0
 77
     0
 78
     0
  0
ENDTAB
  0
TABLE
  2
LTYPE
  5
5
330
0
100
AcDbSymbolTable
 70
     6
  0
LTYPE
  5
14
330
5
100
AcDbSymbolTableRecord
100
AcDbLinetypeTableRecord
  2
BYBLOCK
 70
     0
  3

 72
    65
 73
     0
 40
0.0
  0
LTYPE
  5
15
330
5
100
AcDbSymbolTableRecord
100
AcDbLinetypeTableRecord
  2
BYLAYER
 70
     0
  3

 72
    65
 73
     0
 40
0.0
  0
LTYPE
  5
16
330
5
100
AcDbSymbolTableRecord
100
AcDbLinetypeTableRecord
  2
CONTINUOUS
 70
     0
  3
Solid line
 72
    65
 73
     0
 40
0.0
  0
LTYPE
  5
6E
330
5
100
AcDbSymbolTableRecord
100
AcDbLinetypeTableRecord
  2
HIDDEN
 70
     0
  3
Hidden __ __ __ __ __ __ __ __ __ __ __ __ __ __
 72
    65
 73
     2
 40
9.524999999999999
 49
6.35
 74
     0
 49
-3.175
 74
     0
  0
LTYPE
  5
6F
330
5
100
AcDbSymbolTableRecord
100
AcDbLinetypeTableRecord
  2
CENTER
 70
     0
  3
Center ____ _ ____ _ ____ _ ____ _ ____ _ ____
 72
    65
 73
     4
 40
50.8
 49
31.75
 74
     0
 49
-6.35
 74
     0
 49
6.35
 74
     0
 49
-6.35
 74
     0
  0
LTYPE
  5
70
330
5
100
AcDbSymbolTableRecord
100
AcDbLinetypeTableRecord
  2
PHANTOM
 70
     0
  3
Phantom ______  __  __  ______  __  __  ______ 
 72
    65
 73
     6
 40
63.50000000000001
 49
31.75
 74
     0
 49
-6.35
 74
     0
 49
6.35
 74
     0
 49
-6.35
 74
     0
 49
6.35
 74
     0
 49
-6.35
 74
     0
  0
LTYPE
  5
71
330
5
100
AcDbSymbolTableRecord
100
AcDbLinetypeTableRecord
  2
ACAD_ISO06W100
 70
     0
  3
ISO long-dash triple-dot ____ ... ____ ... ____
 72
    65
 73
     8
 40
36.0
 49
24.0
 74
     0
 49
-3.0
 74
     0
 49
0.0
 74
     0
 49
-3.0
 74
     0
 49
0.0
 74
     0
 49
-3.0
 74
     0
 49
0.0
 74
     0
 49
-3.0
 74
     0
  0
LTYPE
  5
72
330
5
100
AcDbSymbolTableRecord
100
AcDbLinetypeTableRecord
  2
ACAD_ISO15W100
 70
     0
  3
ISO double-dash triple-dot __ __ . . . __ __ . .
 72
    65
 73
    10
 40
39.0
 49
12.0
 74
     0
 49
-3.0
 74
     0
 49
12.0
 74
     0
 49
-3.0
 74
     0
 49
0.0
 74
     0
 49
-3.0
 74
     0
 49
0.0
 74
     0
 49
-3.0
 74
     0
 49
0.0
 74
     0
 49
-3.0
 74
     0
  0
ENDTAB
  0
TABLE
  2
LAYER
  5
2
330
0
100
AcDbSymbolTable
 70
     5
  0
LAYER
  5
10
330
2
100
AcDbSymbolTableRecord
100
AcDbLayerTableRecord
  2
0
 70
     0
 62
     7
  6
CONTINUOUS
  0
LAYER
  5
75
330
2
100
AcDbSymbolTableRecord
100
AcDbLayerTableRecord
  2
LAY-10
 70
     0
 62
     7
  6
CONTINUOUS
  0
LAYER
  5
76
330
2
100
AcDbSymbolTableRecord
100
AcDbLayerTableRecord
  2
LAY-20
 70
     0
 62
     7
  6
CONTINUOUS
  0
LAYER
  5
77
330
2
100
AcDbSymbolTableRecord
100
AcDbLayerTableRecord
  2
LAY-255
 70
     0
 62
     7
  6
CONTINUOUS
  0
LAYER
  5
3EA
330
2
100
AcDbSymbolTableRecord
100
AcDbLayerTableRecord
  2
DEFPOINTS
 70
     0
 62
     7
  6
CONTINUOUS
  0
ENDTAB
  0
TABLE
  2
STYLE
  5
3
330
0
100
AcDbSymbolTable
 70
     4
  0
STYLE
  5
11
330
3
100
AcDbSymbolTableRecord
100
AcDbTextStyleTableRecord
  2
STANDARD
 70
     0
 40
0.0
 41
1.0
 50
0.0
 71
     0
 42
2.5
  3
simplex
  4
bigfont
  0
STYLE
  5
73
330
3
100
AcDbSymbolTableRecord
100
AcDbTextStyleTableRecord
  2
EXCADSTD
 70
     0
 40
0.0
 41
1.0
 50
0.0
 71
     0
 42
2.5
  3
simplex
  4
bigfont
  0
STYLE
  5
74
330
3
100
AcDbSymbolTableRecord
100
AcDbTextStyleTableRecord
  2
EXCADVERT
 70
     4
 40
0.0
 41
1.0
 50
0.0
 71
     0
 42
2.5
  3
simplex
  4
bigfont
  0
STYLE
  5
3E8
330
3
100
AcDbSymbolTableRecord
100
AcDbTextStyleTableRecord
  2
EXCADDIM1
 70
     0
 40
0.0
 41
0.84
 50
0.0
 71
     0
 42
2.5
  3
simplex
  4
bigfont
  0
ENDTAB
  0
TABLE
  2
VIEW
  5
6
330
0
100
AcDbSymbolTable
 70
     0
  0
ENDTAB
  0
TABLE
  2
UCS
  5
7
330
0
100
AcDbSymbolTable
 70
     0
  0
ENDTAB
  0
TABLE
  2
APPID
  5
9
330
0
100
AcDbSymbolTable
 70
     2
  0
APPID
  5
12
330
9
100
AcDbSymbolTableRecord
100
AcDbRegAppTableRecord
  2
ACAD
 70
     0
  0
APPID
  5
4A5
330
9
100
AcDbSymbolTableRecord
100
AcDbRegAppTableRecord
  2
ACAD_MLEADERVER
 70
     0
  0
ENDTAB
  0
TABLE
  2
DIMSTYLE
  5
A
330
0
100
AcDbSymbolTable
 70
     1
  0
DIMSTYLE
105
27
102
{ACAD_REACTORS
330
3E9
330
3F7
330
404
330
411
330
41E
330
42B
330
437
102
}
330
A
100
AcDbSymbolTableRecord
100
AcDbDimStyleTableRecord
  2
ISO-25
 70
     0
  3

  4

  5

  6

  7

 40
1.0
 41
2.5
 42
0.625
 43
3.75
 44
1.25
 45
0.0
 46
0.0
 47
0.0
 48
0.0
140
2.5
141
2.5
142
0.0
143
0.03937007874016
144
1.0
145
0.0
146
1.0
147
0.625
 71
     0
 72
     0
 73
     0
 74
     0
 75
     0
 76
     0
 77
     1
 78
     8
170
     0
171
     3
172
     1
173
     0
174
     0
175
     0
176
     0
177
     0
178
     0
270
     2
271
     2
272
     2
273
     2
274
     3
340
11
275
     0
280
     0
281
     0
282
     0
283
     0
284
     8
285
     0
286
     0
287
     5
288
     0
  0
ENDTAB
  0
TABLE
  2
BLOCK_RECORD
  5
1
330
0
100
AcDbSymbolTable
 70
    21
  0
BLOCK_RECORD
  5
1F
330
1
100
AcDbSymbolTableRecord
100
AcDbBlockTableRecord
  2
*MODEL_SPACE
  0
BLOCK_RECORD
  5
1B
330
1
100
AcDbSymbolTableRecord
100
AcDbBlockTableRecord
  2
*PAPER_SPACE
  0
BLOCK_RECORD
  5
78
330
1
100
AcDbSymbolTableRecord
100
AcDbBlockTableRecord
  2
EX_NORM
  0
BLOCK_RECORD
  5
7B
330
1
100
AcDbSymbolTableRecord
100
AcDbBlockTableRecord
  2
EX_BNORM
  0
BLOCK_RECORD
  5
7E
330
1
100
AcDbSymbolTableRecord
100
AcDbBlockTableRecord
  2
EX_BCIR
  0
BLOCK_RECORD
  5
81
330
1
100
AcDbSymbolTableRecord
100
AcDbBlockTableRecord
  2
EX_RCIVIL
  0
BLOCK_RECORD
  5
84
330
1
100
AcDbSymbolTableRecord
100
AcDbBlockTableRecord
  2
EX_SLANT
  0
BLOCK_RECORD
  5
87
330
1
100
AcDbSymbolTableRecord
100
AcDbBlockTableRecord
  2
EX_NONE
  0
BLOCK_RECORD
  5
8A
330
1
100
AcDbSymbolTableRecord
100
AcDbBlockTableRecord
  2
EX_CIVIL
  0
BLOCK_RECORD
  5
8D
330
1
100
AcDbSymbolTableRecord
100
AcDbBlockTableRecord
  2
EX_WCIR
  0
BLOCK_RECORD
  5
90
330
1
100
AcDbSymbolTableRecord
100
AcDbBlockTableRecord
  2
EX_WCIR2
  0
BLOCK_RECORD
  5
93
330
1
100
AcDbSymbolTableRecord
100
AcDbBlockTableRecord
  2
EX_WNORM
  0
BLOCK_RECORD
  5
96
330
1
100
AcDbSymbolTableRecord
100
AcDbBlockTableRecord
  2
EX_NNORM
  0
BLOCK_RECORD
  5
99
330
1
100
AcDbSymbolTableRecord
100
AcDbBlockTableRecord
  2
EX_BBOX
  0
BLOCK_RECORD
  5
9C
330
1
100
AcDbSymbolTableRecord
100
AcDbBlockTableRecord
  2
EX_WBOX
  0
BLOCK_RECORD
  5
9F
330
1
100
AcDbSymbolTableRecord
100
AcDbBlockTableRecord
  2
EX_INTEGRAL
  0
BLOCK_RECORD
  5
3EB
330
1
100
AcDbSymbolTableRecord
100
AcDbBlockTableRecord
  2
*D15
  0
BLOCK_RECORD
  5
3F8
330
1
100
AcDbSymbolTableRecord
100
AcDbBlockTableRecord
  2
*D16
  0
BLOCK_RECORD
  5
405
330
1
100
AcDbSymbolTableRecord
100
AcDbBlockTableRecord
  2
*D17
  0
BLOCK_RECORD
  5
412
330
1
100
AcDbSymbolTableRecord
100
AcDbBlockTableRecord
  2
*D18
  0
BLOCK_RECORD
  5
41F
330
1
100
AcDbSymbolTableRecord
100
AcDbBlockTableRecord
  2
*D19
  0
BLOCK_RECORD
  5
42C
330
1
100
AcDbSymbolTableRecord
100
AcDbBlockTableRecord
  2
*D20
  0
BLOCK_RECORD
  5
438
330
1
100
AcDbSymbolTableRecord
100
AcDbBlockTableRecord
  2
*D21
  0
ENDTAB
  0
ENDSEC
  0
SECTION
  2
BLOCKS
  0
BLOCK
  5
20
330
1F
100
AcDbEntity
  8
0
100
AcDbBlockBegin
  2
*MODEL_SPACE
 70
     0
 10
0.0
 20
0.0
 30
0.0
  3
*MODEL_SPACE
  1

  0
ENDBLK
  5
21
330
1F
100
AcDbEntity
  8
0
100
AcDbBlockEnd
  0
BLOCK
  5
1C
330
1B
100
AcDbEntity
 67
     1
  8
0
100
AcDbBlockBegin
  2
*PAPER_SPACE
 70
     0
 10
0.0
 20
0.0
 30
0.0
  3
*PAPER_SPACE
  1

  0
ENDBLK
  5
1D
330
1B
100
AcDbEntity
 67
     1
  8
0
100
AcDbBlockEnd
  0
BLOCK
  5
79
330
78
100
AcDbEntity
  8
0
100
AcDbBlockBegin
  2
EX_NORM
 70
     0
 10
0.0
 20
0.0
 30
0.0
  3
EX_NORM
  1

  0
LINE
  5
A2
330
78
100
AcDbEntity
  8
0
  6
CONTINUOUS
 62
     0
100
AcDbLine
 10
0.0
 20
0.0
 30
0.0
 11
-1.0
 21
0.0
 31
0.0
  0
LINE
  5
A3
330
78
100
AcDbEntity
  8
0
  6
CONTINUOUS
 62
     0
100
AcDbLine
 10
0.0
 20
0.0
 30
0.0
 11
-1.0
 21
0.166666667
 31
0.0
  0
LINE
  5
A4
330
78
100
AcDbEntity
  8
0
  6
CONTINUOUS
 62
     0
100
AcDbLine
 10
0.0
 20
0.0
 30
0.0
 11
-1.0
 21
-0.166666667
 31
0.0
  0
ENDBLK
  5
7A
330
78
100
AcDbEntity
  8
0
100
AcDbBlockEnd
  0
BLOCK
  5
7C
330
7B
100
AcDbEntity
  8
0
100
AcDbBlockBegin
  2
EX_BNORM
 70
     0
 10
0.0
 20
0.0
 30
0.0
  3
EX_BNORM
  1

  0
LINE
  5
A5
330
7B
100
AcDbEntity
  8
0
  6
CONTINUOUS
 62
     0
100
AcDbLine
 10
0.0
 20
0.0
 30
0.0
 11
-1.0
 21
0.0
 31
0.0
  0
LINE
  5
A6
330
7B
100
AcDbEntity
  8
0
  6
CONTINUOUS
 62
     0
100
AcDbLine
 10
0.0
 20
0.0
 30
0.0
 11
-1.0
 21
0.166666667
 31
0.0
  0
LINE
  5
A7
330
7B
100
AcDbEntity
  8
0
  6
CONTINUOUS
 62
     0
100
AcDbLine
 10
0.0
 20
0.0
 30
0.0
 11
-1.0
 21
-0.166666667
 31
0.0
  0
LINE
  5
A8
330
7B
100
AcDbEntity
  8
0
  6
CONTINUOUS
 62
     0
100
AcDbLine
 10
0.0
 20
0.0
 30
0.0
 11
-1.0
 21
0.083333333
 31
0.0
  0
LINE
  5
A9
330
7B
100
AcDbEntity
  8
0
  6
CONTINUOUS
 62
     0
100
AcDbLine
 10
0.0
 20
0.0
 30
0.0
 11
-1.0
 21
-0.083333333
 31
0.0
  0
LINE
  5
AA
330
7B
100
AcDbEntity
  8
0
  6
CONTINUOUS
 62
     0
100
AcDbLine
 10
-1.0
 20
0.166666667
 30
0.0
 11
-1.0
 21
-0.166666667
 31
0.0
  0
ENDBLK
  5
7D
330
7B
100
AcDbEntity
  8
0
100
AcDbBlockEnd
  0
BLOCK
  5
7F
330
7E
100
AcDbEntity
  8
0
100
AcDbBlockBegin
  2
EX_BCIR
 70
     0
 10
0.0
 20
0.0
 30
0.0
  3
EX_BCIR
  1

  0
LINE
  5
AB
330
7E
100
AcDbEntity
  8
0
  6
CONTINUOUS
 62
     0
100
AcDbLine
 10
0.0
 20
0.0
 30
0.0
 11
-1.0
 21
0.0
 31
0.0
  0
CIRCLE
  5
AC
330
7E
100
AcDbEntity
  8
0
  6
CONTINUOUS
 62
     0
100
AcDbCircle
 10
0.0
 20
0.0
 30
0.0
 40
0.5
  0
CIRCLE
  5
AD
330
7E
100
AcDbEntity
  8
0
  6
CONTINUOUS
 62
     0
100
AcDbCircle
 10
0.0
 20
0.0
 30
0.0
 40
0.25
  0
ENDBLK
  5
80
330
7E
100
AcDbEntity
  8
0
100
AcDbBlockEnd
  0
BLOCK
  5
82
330
81
100
AcDbEntity
  8
0
100
AcDbBlockBegin
  2
EX_RCIVIL
 70
     0
 10
0.0
 20
0.0
 30
0.0
  3
EX_RCIVIL
  1

  0
LINE
  5
AE
330
81
100
AcDbEntity
  8
0
  6
CONTINUOUS
 62
     0
100
AcDbLine
 10
0.0
 20
0.0
 30
0.0
 11
-1.0
 21
0.0
 31
0.0
  0
LINE
  5
AF
330
81
100
AcDbEntity
  8
0
  6
CONTINUOUS
 62
     0
100
AcDbLine
 10
-1.0
 20
-0.25
 30
0.0
 11
0.0
 21
-0.25
 31
0.0
  0
LINE
  5
B0
330
81
100
AcDbEntity
  8
0
  6
CONTINUOUS
 62
     0
100
AcDbLine
 10
-1.0
 20
-0.125
 30
0.0
 11
0.0
 21
-0.125
 31
0.0
  0
ENDBLK
  5
83
330
81
100
AcDbEntity
  8
0
100
AcDbBlockEnd
  0
BLOCK
  5
85
330
84
100
AcDbEntity
  8
0
100
AcDbBlockBegin
  2
EX_SLANT
 70
     0
 10
0.0
 20
0.0
 30
0.0
  3
EX_SLANT
  1

  0
LINE
  5
B1
330
84
100
AcDbEntity
  8
0
  6
CONTINUOUS
 62
     0
100
AcDbLine
 10
0.0
 20
0.0
 30
0.0
 11
-1.0
 21
0.0
 31
0.0
  0
LINE
  5
B2
330
84
100
AcDbEntity
  8
0
  6
CONTINUOUS
 62
     0
100
AcDbLine
 10
0.707106781
 20
0.707106781
 30
0.0
 11
-0.707106781
 21
-0.707106781
 31
0.0
  0
ENDBLK
  5
86
330
84
100
AcDbEntity
  8
0
100
AcDbBlockEnd
  0
BLOCK
  5
88
330
87
100
AcDbEntity
  8
0
100
AcDbBlockBegin
  2
EX_NONE
 70
     0
 10
0.0
 20
0.0
 30
0.0
  3
EX_NONE
  1

  0
LINE
  5
B3
330
87
100
AcDbEntity
  8
0
  6
CONTINUOUS
 62
     0
100
AcDbLine
 10
0.0
 20
0.0
 30
0.0
 11
-1.0
 21
0.0
 31
0.0
  0
ENDBLK
  5
89
330
87
100
AcDbEntity
  8
0
100
AcDbBlockEnd
  0
BLOCK
  5
8B
330
8A
100
AcDbEntity
  8
0
100
AcDbBlockBegin
  2
EX_CIVIL
 70
     0
 10
0.0
 20
0.0
 30
0.0
  3
EX_CIVIL
  1

  0
LINE
  5
B4
330
8A
100
AcDbEntity
  8
0
  6
CONTINUOUS
 62
     0
100
AcDbLine
 10
0.0
 20
0.0
 30
0.0
 11
-1.0
 21
0.0
 31
0.0
  0
LINE
  5
B5
330
8A
100
AcDbEntity
  8
0
  6
CONTINUOUS
 62
     0
100
AcDbLine
 10
-1.0
 20
0.25
 30
0.0
 11
0.0
 21
0.25
 31
0.0
  0
LINE
  5
B6
330
8A
100
AcDbEntity
  8
0
  6
CONTINUOUS
 62
     0
100
AcDbLine
 10
-1.0
 20
0.125
 30
0.0
 11
0.0
 21
0.125
 31
0.0
  0
ENDBLK
  5
8C
330
8A
100
AcDbEntity
  8
0
100
AcDbBlockEnd
  0
BLOCK
  5
8E
330
8D
100
AcDbEntity
  8
0
100
AcDbBlockBegin
  2
EX_WCIR
 70
     0
 10
0.0
 20
0.0
 30
0.0
  3
EX_WCIR
  1

  0
LINE
  5
B7
330
8D
100
AcDbEntity
  8
0
  6
CONTINUOUS
 62
     0
100
AcDbLine
 10
0.0
 20
0.0
 30
0.0
 11
-1.0
 21
0.0
 31
0.0
  0
CIRCLE
  5
B8
330
8D
100
AcDbEntity
  8
0
  6
CONTINUOUS
 62
     0
100
AcDbCircle
 10
0.0
 20
0.0
 30
0.0
 40
0.5
  0
ENDBLK
  5
8F
330
8D
100
AcDbEntity
  8
0
100
AcDbBlockEnd
  0
BLOCK
  5
91
330
90
100
AcDbEntity
  8
0
100
AcDbBlockBegin
  2
EX_WCIR2
 70
     0
 10
0.0
 20
0.0
 30
0.0
  3
EX_WCIR2
  1

  0
LINE
  5
B9
330
90
100
AcDbEntity
  8
0
  6
CONTINUOUS
 62
     0
100
AcDbLine
 10
-0.5
 20
0.0
 30
0.0
 11
-1.0
 21
0.0
 31
0.0
  0
CIRCLE
  5
BA
330
90
100
AcDbEntity
  8
0
  6
CONTINUOUS
 62
     0
100
AcDbCircle
 10
0.0
 20
0.0
 30
0.0
 40
0.5
  0
ENDBLK
  5
92
330
90
100
AcDbEntity
  8
0
100
AcDbBlockEnd
  0
BLOCK
  5
94
330
93
100
AcDbEntity
  8
0
100
AcDbBlockBegin
  2
EX_WNORM
 70
     0
 10
0.0
 20
0.0
 30
0.0
  3
EX_WNORM
  1

  0
LINE
  5
BB
330
93
100
AcDbEntity
  8
0
  6
CONTINUOUS
 62
     0
100
AcDbLine
 10
-1.0
 20
0.0
 30
0.0
 11
-1.0
 21
0.0
 31
0.0
  0
LINE
  5
BC
330
93
100
AcDbEntity
  8
0
  6
CONTINUOUS
 62
     0
100
AcDbLine
 10
0.0
 20
0.0
 30
0.0
 11
-1.0
 21
0.166666667
 31
0.0
  0
LINE
  5
BD
330
93
100
AcDbEntity
  8
0
  6
CONTINUOUS
 62
     0
100
AcDbLine
 10
0.0
 20
0.0
 30
0.0
 11
-1.0
 21
-0.166666667
 31
0.0
  0
LINE
  5
BE
330
93
100
AcDbEntity
  8
0
  6
CONTINUOUS
 62
     0
100
AcDbLine
 10
-1.0
 20
0.166666667
 30
0.0
 11
-1.0
 21
-0.166666667
 31
0.0
  0
ENDBLK
  5
95
330
93
100
AcDbEntity
  8
0
100
AcDbBlockEnd
  0
BLOCK
  5
97
330
96
100
AcDbEntity
  8
0
100
AcDbBlockBegin
  2
EX_NNORM
 70
     0
 10
0.0
 20
0.0
 30
0.0
  3
EX_NNORM
  1

  0
LINE
  5
BF
330
96
100
AcDbEntity
  8
0
  6
CONTINUOUS
 62
     0
100
AcDbLine
 10
0.0
 20
0.0
 30
0.0
 11
-1.0
 21
0.0
 31
0.0
  0
LINE
  5
C0
330
96
100
AcDbEntity
  8
0
  6
CONTINUOUS
 62
     0
100
AcDbLine
 10
0.0
 20
0.0
 30
0.0
 11
-1.0
 21
0.166666667
 31
0.0
  0
LINE
  5
C1
330
96
100
AcDbEntity
  8
0
  6
CONTINUOUS
 62
     0
100
AcDbLine
 10
0.0
 20
0.0
 30
0.0
 11
-1.0
 21
-0.166666667
 31
0.0
  0
LINE
  5
C2
330
96
100
AcDbEntity
  8
0
  6
CONTINUOUS
 62
     0
100
AcDbLine
 10
-1.0
 20
0.166666667
 30
0.0
 11
-1.0
 21
-0.166666667
 31
0.0
  0
ENDBLK
  5
98
330
96
100
AcDbEntity
  8
0
100
AcDbBlockEnd
  0
BLOCK
  5
9A
330
99
100
AcDbEntity
  8
0
100
AcDbBlockBegin
  2
EX_BBOX
 70
     0
 10
0.0
 20
0.0
 30
0.0
  3
EX_BBOX
  1

  0
LINE
  5
C3
330
99
100
AcDbEntity
  8
0
  6
CONTINUOUS
 62
     0
100
AcDbLine
 10
0.0
 20
0.0
 30
0.0
 11
-1.0
 21
0.0
 31
0.0
  0
LINE
  5
C4
330
99
100
AcDbEntity
  8
0
  6
CONTINUOUS
 62
     0
100
AcDbLine
 10
-0.5
 20
0.5
 30
0.0
 11
0.5
 21
0.5
 31
0.0
  0
LINE
  5
C5
330
99
100
AcDbEntity
  8
0
  6
CONTINUOUS
 62
     0
100
AcDbLine
 10
0.5
 20
0.5
 30
0.0
 11
0.5
 21
-0.5
 31
0.0
  0
LINE
  5
C6
330
99
100
AcDbEntity
  8
0
  6
CONTINUOUS
 62
     0
100
AcDbLine
 10
0.5
 20
-0.5
 30
0.0
 11
-0.5
 21
-0.5
 31
0.0
  0
LINE
  5
C7
330
99
100
AcDbEntity
  8
0
  6
CONTINUOUS
 62
     0
100
AcDbLine
 10
-0.5
 20
-0.5
 30
0.0
 11
-0.5
 21
0.5
 31
0.0
  0
LINE
  5
C8
330
99
100
AcDbEntity
  8
0
  6
CONTINUOUS
 62
     0
100
AcDbLine
 10
-0.25
 20
0.25
 30
0.0
 11
0.25
 21
0.25
 31
0.0
  0
LINE
  5
C9
330
99
100
AcDbEntity
  8
0
  6
CONTINUOUS
 62
     0
100
AcDbLine
 10
0.25
 20
0.25
 30
0.0
 11
0.25
 21
-0.25
 31
0.0
  0
LINE
  5
CA
330
99
100
AcDbEntity
  8
0
  6
CONTINUOUS
 62
     0
100
AcDbLine
 10
0.25
 20
-0.25
 30
0.0
 11
-0.25
 21
-0.25
 31
0.0
  0
LINE
  5
CB
330
99
100
AcDbEntity
  8
0
  6
CONTINUOUS
 62
     0
100
AcDbLine
 10
-0.25
 20
-0.25
 30
0.0
 11
-0.25
 21
0.25
 31
0.0
  0
ENDBLK
  5
9B
330
99
100
AcDbEntity
  8
0
100
AcDbBlockEnd
  0
BLOCK
  5
9D
330
9C
100
AcDbEntity
  8
0
100
AcDbBlockBegin
  2
EX_WBOX
 70
     0
 10
0.0
 20
0.0
 30
0.0
  3
EX_WBOX
  1

  0
LINE
  5
CC
330
9C
100
AcDbEntity
  8
0
  6
CONTINUOUS
 62
     0
100
AcDbLine
 10
-0.5
 20
0.0
 30
0.0
 11
-1.0
 21
0.0
 31
0.0
  0
LINE
  5
CD
330
9C
100
AcDbEntity
  8
0
  6
CONTINUOUS
 62
     0
100
AcDbLine
 10
-0.5
 20
0.5
 30
0.0
 11
0.5
 21
0.5
 31
0.0
  0
LINE
  5
CE
330
9C
100
AcDbEntity
  8
0
  6
CONTINUOUS
 62
     0
100
AcDbLine
 10
0.5
 20
0.5
 30
0.0
 11
0.5
 21
-0.5
 31
0.0
  0
LINE
  5
CF
330
9C
100
AcDbEntity
  8
0
  6
CONTINUOUS
 62
     0
100
AcDbLine
 10
0.5
 20
-0.5
 30
0.0
 11
-0.5
 21
-0.5
 31
0.0
  0
LINE
  5
D0
330
9C
100
AcDbEntity
  8
0
  6
CONTINUOUS
 62
     0
100
AcDbLine
 10
-0.5
 20
-0.5
 30
0.0
 11
-0.5
 21
0.5
 31
0.0
  0
ENDBLK
  5
9E
330
9C
100
AcDbEntity
  8
0
100
AcDbBlockEnd
  0
BLOCK
  5
A0
330
9F
100
AcDbEntity
  8
0
100
AcDbBlockBegin
  2
EX_INTEGRAL
 70
     0
 10
0.0
 20
0.0
 30
0.0
  3
EX_INTEGRAL
  1

  0
LINE
  5
D1
330
9F
100
AcDbEntity
  8
0
  6
CONTINUOUS
 62
     0
100
AcDbLine
 10
0.0
 20
0.0
 30
0.0
 11
-1.0
 21
0.0
 31
0.0
  0
ARC
  5
D2
330
9F
100
AcDbEntity
  8
0
  6
CONTINUOUS
 62
     0
100
AcDbCircle
 10
0.542115
 20
0.164992
 30
0.0
 40
0.56667
100
AcDbArc
 50
73.07249033629006
 51
196.9275130221199
  0
ARC
  5
D3
330
9F
100
AcDbEntity
  8
0
  6
CONTINUOUS
 62
     0
100
AcDbCircle
 10
-0.542115
 20
-0.164992
 30
0.0
 40
0.56667
100
AcDbArc
 50
253.0724869220464
 51
16.9275130559125
  0
ENDBLK
  5
A1
330
9F
100
AcDbEntity
  8
0
100
AcDbBlockEnd
  0
BLOCK
  5
3EC
330
3EB
100
AcDbEntity
  8
0
100
AcDbBlockBegin
  2
*D15
 70
     1
 10
0.0
 20
0.0
 30
0.0
  3
*D15
  1

  0
LINE
  5
3EE
330
3EB
100
AcDbEntity
  8
LAY-20
  6
CONTINUOUS
 62
     4
100
AcDbLine
 10
421.100000000006
 20
118.5172625371699
 30
0.0
 11
421.100000000006
 21
83.51726253716993
 31
0.0
  0
LINE
  5
3EF
330
3EB
100
AcDbEntity
  8
LAY-20
  6
CONTINUOUS
 62
     4
100
AcDbLine
 10
508.9000000000059
 20
118.5172625371699
 30
0.0
 11
508.9000000000059
 21
83.51726253716993
 31
0.0
  0
LINE
  5
3F0
330
3EB
100
AcDbEntity
  8
LAY-20
  6
CONTINUOUS
 62
     4
100
AcDbLine
 10
428.600000000006
 20
88.01726253716993
 30
0.0
 11
501.4000000000059
 21
88.01726253716993
 31
0.0
  0
INSERT
  5
3F1
330
3EB
100
AcDbEntity
  8
LAY-20
 62
     4
100
AcDbBlockReference
  2
EX_BNORM
 10
421.100000000006
 20
88.01726253716993
 30
0.0
 41
7.5
 42
7.5
 43
7.5
 50
180.0
  0
INSERT
  5
3F2
330
3EB
100
AcDbEntity
  8
LAY-20
 62
     4
100
AcDbBlockReference
  2
EX_BNORM
 10
508.9000000000059
 20
88.01726253716993
 30
0.0
 41
7.5
 42
7.5
 43
7.5
  0
MTEXT
  5
3F3
330
3EB
100
AcDbEntity
  8
LAY-20
 62
     7
100
AcDbMText
 10
465.000000000006
 20
95.51726253716993
 30
0.0
 40
9.3543312
 41
0.0
 71
     5
 72
     1
  1
Rｃ3（87.8）
  7
EXCADDIM1
  0
POINT
  5
3F4
330
3EB
100
AcDbEntity
  8
DEFPOINTS
 62
     0
100
AcDbPoint
 10
421.100000000006
 20
123.0172625371699
 30
0.0
  0
POINT
  5
3F5
330
3EB
100
AcDbEntity
  8
DEFPOINTS
 62
     0
100
AcDbPoint
 10
508.9000000000059
 20
123.0172625371699
 30
0.0
  0
POINT
  5
3F6
330
3EB
100
AcDbEntity
  8
DEFPOINTS
 62
     0
100
AcDbPoint
 10
508.9000000000059
 20
88.01726253716993
 30
0.0
  0
ENDBLK
  5
3ED
330
3EB
100
AcDbEntity
  8
0
100
AcDbBlockEnd
  0
BLOCK
  5
3F9
330
3F8
100
AcDbEntity
  8
0
100
AcDbBlockBegin
  2
*D16
 70
     1
 10
0.0
 20
0.0
 30
0.0
  3
*D16
  1

  0
LINE
  5
3FB
330
3F8
100
AcDbEntity
  8
LAY-20
  6
CONTINUOUS
 62
     4
100
AcDbLine
 10
526.500000000006
 20
118.0172625371699
 30
0.0
 11
657.000000000006
 21
118.0172625371699
 31
0.0
  0
LINE
  5
3FC
330
3F8
100
AcDbEntity
  8
LAY-20
  6
CONTINUOUS
 62
     4
100
AcDbLine
 10
626.000000000006
 20
198.0172625371699
 30
0.0
 11
657.000000000006
 21
198.0172625371699
 31
0.0
  0
LINE
  5
3FD
330
3F8
100
AcDbEntity
  8
LAY-20
  6
CONTINUOUS
 62
     4
100
AcDbLine
 10
652.500000000006
 20
125.5172625371699
 30
0.0
 11
652.500000000006
 21
190.5172625371699
 31
0.0
  0
INSERT
  5
3FE
330
3F8
100
AcDbEntity
  8
LAY-20
 62
     4
100
AcDbBlockReference
  2
EX_BNORM
 10
652.500000000006
 20
118.0172625371699
 30
0.0
 41
7.5
 42
7.5
 43
7.5
 50
270.0
  0
INSERT
  5
3FF
330
3F8
100
AcDbEntity
  8
LAY-20
 62
     4
100
AcDbBlockReference
  2
EX_BNORM
 10
652.500000000006
 20
198.0172625371699
 30
0.0
 41
7.5
 42
7.5
 43
7.5
 50
90.0
  0
MTEXT
  5
400
330
3F8
100
AcDbEntity
  8
LAY-20
 62
     7
100
AcDbMText
 10
645.000000000006
 20
158.0172625371699
 30
0.0
 40
9.3543312
 41
0.0
 71
     5
 72
     1
  1
80
  7
EXCADDIM1
 11
0.0
 21
1.0
 31
0.0
  0
POINT
  5
401
330
3F8
100
AcDbEntity
  8
DEFPOINTS
 62
     0
100
AcDbPoint
 10
522.000000000006
 20
118.0172625371699
 30
0.0
  0
POINT
  5
402
330
3F8
100
AcDbEntity
  8
DEFPOINTS
 62
     0
100
AcDbPoint
 10
621.500000000006
 20
198.0172625371699
 30
0.0
  0
POINT
  5
403
330
3F8
100
AcDbEntity
  8
DEFPOINTS
 62
     0
100
AcDbPoint
 10
652.500000000006
 20
198.0172625371699
 30
0.0
  0
ENDBLK
  5
3FA
330
3F8
100
AcDbEntity
  8
0
100
AcDbBlockEnd
  0
BLOCK
  5
406
330
405
100
AcDbEntity
  8
0
100
AcDbBlockBegin
  2
*D17
 70
     1
 10
0.0
 20
0.0
 30
0.0
  3
*D17
  1

  0
LINE
  5
408
330
405
100
AcDbEntity
  8
LAY-20
  6
CONTINUOUS
 62
     4
100
AcDbLine
 10
398.000000000026
 20
189.4999999999999
 30
0.0
 11
398.000000000026
 21
334.4999999999999
 31
0.0
  0
LINE
  5
409
330
405
100
AcDbEntity
  8
LAY-20
  6
CONTINUOUS
 62
     4
100
AcDbLine
 10
531.999999999986
 20
195.4999999999999
 30
0.0
 11
531.999999999986
 21
334.4999999999999
 31
0.0
  0
LINE
  5
40A
330
405
100
AcDbEntity
  8
LAY-20
  6
CONTINUOUS
 62
     4
100
AcDbLine
 10
405.500000000026
 20
329.9999999999999
 30
0.0
 11
524.499999999986
 21
329.9999999999999
 31
0.0
  0
INSERT
  5
40B
330
405
100
AcDbEntity
  8
LAY-20
 62
     4
100
AcDbBlockReference
  2
EX_BNORM
 10
398.000000000026
 20
329.9999999999999
 30
0.0
 41
7.5
 42
7.5
 43
7.5
 50
180.0
  0
INSERT
  5
40C
330
405
100
AcDbEntity
  8
LAY-20
 62
     4
100
AcDbBlockReference
  2
EX_BNORM
 10
531.999999999986
 20
329.9999999999999
 30
0.0
 41
7.5
 42
7.5
 43
7.5
  0
MTEXT
  5
40D
330
405
100
AcDbEntity
  8
LAY-20
 62
     7
100
AcDbMText
 10
465.000000000006
 20
337.4999999999999
 30
0.0
 40
9.3543312
 41
0.0
 71
     5
 72
     1
  1
%%c134
  7
EXCADDIM1
  0
POINT
  5
40E
330
405
100
AcDbEntity
  8
DEFPOINTS
 62
     0
100
AcDbPoint
 10
398.000000000026
 20
184.9999999999999
 30
0.0
  0
POINT
  5
40F
330
405
100
AcDbEntity
  8
DEFPOINTS
 62
     0
100
AcDbPoint
 10
531.999999999986
 20
190.9999999999999
 30
0.0
  0
POINT
  5
410
330
405
100
AcDbEntity
  8
DEFPOINTS
 62
     0
100
AcDbPoint
 10
531.999999999986
 20
329.9999999999999
 30
0.0
  0
ENDBLK
  5
407
330
405
100
AcDbEntity
  8
0
100
AcDbBlockEnd
  0
BLOCK
  5
413
330
412
100
AcDbEntity
  8
0
100
AcDbBlockBegin
  2
*D18
 70
     1
 10
0.0
 20
0.0
 30
0.0
  3
*D18
  1

  0
LINE
  5
415
330
412
100
AcDbEntity
  8
LAY-20
  6
CONTINUOUS
 62
     4
100
AcDbLine
 10
307.500000000006
 20
192.5172625371699
 30
0.0
 11
307.500000000006
 21
376.4999999999999
 31
0.0
  0
LINE
  5
416
330
412
100
AcDbEntity
  8
LAY-20
  6
CONTINUOUS
 62
     4
100
AcDbLine
 10
622.500000000006
 20
192.5172625371699
 30
0.0
 11
622.500000000006
 21
376.4999999999999
 31
0.0
  0
LINE
  5
417
330
412
100
AcDbEntity
  8
LAY-20
  6
CONTINUOUS
 62
     4
100
AcDbLine
 10
315.000000000006
 20
371.9999999999999
 30
0.0
 11
615.000000000006
 21
371.9999999999999
 31
0.0
  0
INSERT
  5
418
330
412
100
AcDbEntity
  8
LAY-20
 62
     4
100
AcDbBlockReference
  2
EX_BNORM
 10
307.500000000006
 20
371.9999999999999
 30
0.0
 41
7.5
 42
7.5
 43
7.5
 50
180.0
  0
INSERT
  5
419
330
412
100
AcDbEntity
  8
LAY-20
 62
     4
100
AcDbBlockReference
  2
EX_BNORM
 10
622.500000000006
 20
371.9999999999999
 30
0.0
 41
7.5
 42
7.5
 43
7.5
  0
MTEXT
  5
41A
330
412
100
AcDbEntity
  8
LAY-20
 62
     7
100
AcDbMText
 10
465.000000000006
 20
379.4999999999999
 30
0.0
 40
9.3543312
 41
0.0
 71
     5
 72
     1
  1
%%c315
  7
EXCADDIM1
  0
POINT
  5
41B
330
412
100
AcDbEntity
  8
DEFPOINTS
 62
     0
100
AcDbPoint
 10
307.500000000006
 20
188.0172625371699
 30
0.0
  0
POINT
  5
41C
330
412
100
AcDbEntity
  8
DEFPOINTS
 62
     0
100
AcDbPoint
 10
622.500000000006
 20
188.0172625371699
 30
0.0
  0
POINT
  5
41D
330
412
100
AcDbEntity
  8
DEFPOINTS
 62
     0
100
AcDbPoint
 10
622.500000000006
 20
371.9999999999999
 30
0.0
  0
ENDBLK
  5
414
330
412
100
AcDbEntity
  8
0
100
AcDbBlockEnd
  0
BLOCK
  5
420
330
41F
100
AcDbEntity
  8
0
100
AcDbBlockBegin
  2
*D19
 70
     1
 10
0.0
 20
0.0
 30
0.0
  3
*D19
  1

  0
LINE
  5
422
330
41F
100
AcDbEntity
  8
LAY-20
  6
CONTINUOUS
 62
     4
100
AcDbLine
 10
357.50000000001
 20
192.18911086753
 30
0.0
 11
357.50000000001
 21
355.5
 31
0.0
  0
LINE
  5
423
330
41F
100
AcDbEntity
  8
LAY-20
  6
CONTINUOUS
 62
     4
100
AcDbLine
 10
572.50000000002
 20
192.18911086753
 30
0.0
 11
572.50000000002
 21
355.5
 31
0.0
  0
LINE
  5
424
330
41F
100
AcDbEntity
  8
LAY-20
  6
CONTINUOUS
 62
     4
100
AcDbLine
 10
365.00000000001
 20
351.0
 30
0.0
 11
565.00000000002
 21
351.0
 31
0.0
  0
INSERT
  5
425
330
41F
100
AcDbEntity
  8
LAY-20
 62
     4
100
AcDbBlockReference
  2
EX_BNORM
 10
357.50000000001
 20
351.0
 30
0.0
 41
7.5
 42
7.5
 43
7.5
 50
180.0
  0
INSERT
  5
426
330
41F
100
AcDbEntity
  8
LAY-20
 62
     4
100
AcDbBlockReference
  2
EX_BNORM
 10
572.50000000002
 20
351.0
 30
0.0
 41
7.5
 42
7.5
 43
7.5
  0
MTEXT
  5
427
330
41F
100
AcDbEntity
  8
LAY-20
 62
     7
100
AcDbMText
 10
465.000000000015
 20
358.5
 30
0.0
 40
9.3543312
 41
0.0
 71
     5
 72
     1
  1
%%c215
  7
EXCADDIM1
  0
POINT
  5
428
330
41F
100
AcDbEntity
  8
DEFPOINTS
 62
     0
100
AcDbPoint
 10
357.50000000001
 20
187.68911086753
 30
0.0
  0
POINT
  5
429
330
41F
100
AcDbEntity
  8
DEFPOINTS
 62
     0
100
AcDbPoint
 10
572.50000000002
 20
187.68911086753
 30
0.0
  0
POINT
  5
42A
330
41F
100
AcDbEntity
  8
DEFPOINTS
 62
     0
100
AcDbPoint
 10
572.50000000002
 20
351.0
 30
0.0
  0
ENDBLK
  5
421
330
41F
100
AcDbEntity
  8
0
100
AcDbBlockEnd
  0
BLOCK
  5
42D
330
42C
100
AcDbEntity
  8
0
100
AcDbBlockBegin
  2
*D20
 70
     1
 10
0.0
 20
0.0
 30
0.0
  3
*D20
  1

  0
LINE
  5
42F
330
42C
100
AcDbEntity
  8
LAY-20
  6
CONTINUOUS
 62
     4
100
AcDbLine
 10
469.50000000001
 20
301.68911086753
 30
0.0
 11
657.00000000001
 21
301.6891108675301
 31
0.0
  0
LINE
  5
430
330
42C
100
AcDbEntity
  8
LAY-20
  6
CONTINUOUS
 62
     4
100
AcDbLine
 10
652.50000000001
 20
294.1891108675301
 30
0.0
 11
652.50000000001
 21
205.51726253717
 31
0.0
  0
INSERT
  5
431
330
42C
100
AcDbEntity
  8
LAY-20
 62
     4
100
AcDbBlockReference
  2
EX_BNORM
 10
652.50000000001
 20
301.6891108675301
 30
0.0
 41
7.5
 42
7.5
 43
7.5
 50
90.0
  0
INSERT
  5
432
330
42C
100
AcDbEntity
  8
LAY-20
 62
     4
100
AcDbBlockReference
  2
EX_BNORM
 10
652.50000000001
 20
198.01726253717
 30
0.0
 41
7.5
 42
7.5
 43
7.5
 50
270.0
  0
MTEXT
  5
433
330
42C
100
AcDbEntity
  8
LAY-20
 62
     7
100
AcDbMText
 10
645.00000000001
 20
249.85318670235
 30
0.0
 40
9.3543312
 41
0.0
 71
     5
 72
     1
  1
104
  7
EXCADDIM1
 11
0.0
 21
1.0
 31
0.0
  0
POINT
  5
434
330
42C
100
AcDbEntity
  8
DEFPOINTS
 62
     0
100
AcDbPoint
 10
465.00000000001
 20
301.68911086753
 30
0.0
  0
POINT
  5
435
330
42C
100
AcDbEntity
  8
DEFPOINTS
 62
     0
100
AcDbPoint
 10
652.50000000001
 20
198.01726253717
 30
0.0
  0
POINT
  5
436
330
42C
100
AcDbEntity
  8
DEFPOINTS
 62
     0
100
AcDbPoint
 10
652.50000000001
 20
198.01726253717
 30
0.0
  0
ENDBLK
  5
42E
330
42C
100
AcDbEntity
  8
0
100
AcDbBlockEnd
  0
BLOCK
  5
439
330
438
100
AcDbEntity
  8
0
100
AcDbBlockBegin
  2
*D21
 70
     1
 10
0.0
 20
0.0
 30
0.0
  3
*D21
  1

  0
LINE
  5
43B
330
438
100
AcDbEntity
  8
LAY-20
  6
CONTINUOUS
 62
     4
100
AcDbLine
 10
403.84712708839
 20
158.01726253717
 30
0.0
 11
273.00000000001
 21
158.01726253717
 31
0.0
  0
LINE
  5
43C
330
438
100
AcDbEntity
  8
LAY-20
  6
CONTINUOUS
 62
     4
100
AcDbLine
 10
304.0
 20
198.01726253717
 30
0.0
 11
273.00000000001
 21
198.01726253717
 31
0.0
  0
LINE
  5
43D
330
438
100
AcDbEntity
  8
LAY-20
  6
CONTINUOUS
 62
     4
100
AcDbLine
 10
277.50000000001
 20
165.51726253717
 30
0.0
 11
277.50000000001
 21
190.51726253717
 31
0.0
  0
INSERT
  5
43E
330
438
100
AcDbEntity
  8
LAY-20
 62
     4
100
AcDbBlockReference
  2
EX_BNORM
 10
277.50000000001
 20
158.01726253717
 30
0.0
 41
7.5
 42
7.5
 43
7.5
 50
270.0
  0
INSERT
  5
43F
330
438
100
AcDbEntity
  8
LAY-20
 62
     4
100
AcDbBlockReference
  2
EX_BNORM
 10
277.50000000001
 20
198.01726253717
 30
0.0
 41
7.5
 42
7.5
 43
7.5
 50
90.0
  0
MTEXT
  5
440
330
438
100
AcDbEntity
  8
LAY-20
 62
     7
100
AcDbMText
 10
270.00000000001
 20
178.01726253717
 30
0.0
 40
9.3543312
 41
0.0
 71
     5
 72
     1
  1
40
  7
EXCADDIM1
 11
0.0
 21
1.0
 31
0.0
  0
POINT
  5
441
330
438
100
AcDbEntity
  8
DEFPOINTS
 62
     0
100
AcDbPoint
 10
408.34712708839
 20
158.01726253717
 30
0.0
  0
POINT
  5
442
330
438
100
AcDbEntity
  8
DEFPOINTS
 62
     0
100
AcDbPoint
 10
308.5
 20
198.01726253717
 30
0.0
  0
POINT
  5
443
330
438
100
AcDbEntity
  8
DEFPOINTS
 62
     0
100
AcDbPoint
 10
277.50000000001
 20
198.01726253717
 30
0.0
  0
ENDBLK
  5
43A
330
438
100
AcDbEntity
  8
0
100
AcDbBlockEnd
  0
ENDSEC
  0
SECTION
  2
ENTITIES
  0
LINE
  5
D4
330
1F
100
AcDbEntity
  8
LAY-10
  6
CONTINUOUS
 62
     7
100
AcDbLine
 10
408.000000000006
 20
157.2835077596861
 30
0.0
 11
408.6715728752598
 21
157.9550806349399
 31
0.0
  0
LINE
  5
D5
330
1F
100
AcDbEntity
  8
LAY-10
  6
CONTINUOUS
 62
     7
100
AcDbLine
 10
408.000000000006
 20
154.4550806349399
 30
0.0
 11
411.500000000006
 21
157.9550806349399
 31
0.0
  0
LINE
  5
D6
330
1F
100
AcDbEntity
  8
LAY-10
  6
CONTINUOUS
 62
     7
100
AcDbLine
 10
408.000000000006
 20
151.6266535101938
 30
0.0
 11
411.500000000006
 21
155.1266535101936
 31
0.0
  0
LINE
  5
D7
330
1F
100
AcDbEntity
  8
LAY-10
  6
CONTINUOUS
 62
     7
100
AcDbLine
 10
408.000000000006
 20
148.7982263854475
 30
0.0
 11
411.500000000006
 21
152.2982263854475
 31
0.0
  0
LINE
  5
D8
330
1F
100
AcDbEntity
  8
LAY-10
  6
CONTINUOUS
 62
     7
100
AcDbLine
 10
408.000000000006
 20
145.9697992607014
 30
0.0
 11
411.500000000006
 21
149.4697992607013
 31
0.0
  0
LINE
  5
D9
330
1F
100
AcDbEntity
  8
LAY-10
  6
CONTINUOUS
 62
     7
100
AcDbLine
 10
408.000000000006
 20
143.1413721359552
 30
0.0
 11
411.500000000006
 21
146.6413721359551
 31
0.0
  0
LINE
  5
DA
330
1F
100
AcDbEntity
  8
LAY-10
  6
CONTINUOUS
 62
     7
100
AcDbLine
 10
408.000000000006
 20
140.312945011209
 30
0.0
 11
411.500000000006
 21
143.8129450112089
 31
0.0
  0
LINE
  5
DB
330
1F
100
AcDbEntity
  8
LAY-10
  6
CONTINUOUS
 62
     7
100
AcDbLine
 10
408.000000000006
 20
137.4845178864627
 30
0.0
 11
411.500000000006
 21
140.9845178864627
 31
0.0
  0
LINE
  5
DC
330
1F
100
AcDbEntity
  8
LAY-10
  6
CONTINUOUS
 62
     7
100
AcDbLine
 10
408.000000000006
 20
134.6560907617165
 30
0.0
 11
411.500000000006
 21
138.1560907617166
 31
0.0
  0
LINE
  5
DD
330
1F
100
AcDbEntity
  8
LAY-10
  6
CONTINUOUS
 62
     7
100
AcDbLine
 10
408.000000000006
 20
131.8276636369703
 30
0.0
 11
411.500000000006
 21
135.3276636369703
 31
0.0
  0
LINE
  5
DE
330
1F
100
AcDbEntity
  8
LAY-10
  6
CONTINUOUS
 62
     7
100
AcDbLine
 10
408.000000000006
 20
128.9992365122242
 30
0.0
 11
411.500000000006
 21
132.4992365122242
 31
0.0
  0
LINE
  5
DF
330
1F
100
AcDbEntity
  8
LAY-10
  6
CONTINUOUS
 62
     7
100
AcDbLine
 10
408.000000000006
 20
126.1708093874781
 30
0.0
 11
411.500000000006
 21
129.670809387478
 31
0.0
  0
LINE
  5
E0
330
1F
100
AcDbEntity
  8
LAY-10
  6
CONTINUOUS
 62
     7
100
AcDbLine
 10
408.000000000006
 20
123.3423822627319
 30
0.0
 11
411.500000000006
 21
126.8423822627317
 31
0.0
  0
LINE
  5
E1
330
1F
100
AcDbEntity
  8
LAY-10
  6
CONTINUOUS
 62
     7
100
AcDbLine
 10
408.000000000006
 20
120.5139551379856
 30
0.0
 11
411.500000000006
 21
124.0139551379855
 31
0.0
  0
LINE
  5
E2
330
1F
100
AcDbEntity
  8
LAY-10
  6
CONTINUOUS
 62
     7
100
AcDbLine
 10
408.3317345239364
 20
118.0172625371699
 30
0.0
 11
411.5000000000058
 21
121.1855280132393
 31
0.0
  0
LINE
  5
E3
330
1F
100
AcDbEntity
  8
LAY-10
  6
CONTINUOUS
 62
     7
100
AcDbLine
 10
411.1601616486827
 20
118.0172625371699
 30
0.0
 11
411.5000000000058
 21
118.3571008884932
 31
0.0
  0
LINE
  5
E4
330
1F
100
AcDbEntity
  8
LAY-10
  6
CONTINUOUS
 62
     7
100
AcDbLine
 10
518.500000000006
 20
157.2835077596861
 30
0.0
 11
519.1715728752598
 21
157.9550806349399
 31
0.0
  0
LINE
  5
E5
330
1F
100
AcDbEntity
  8
LAY-10
  6
CONTINUOUS
 62
     7
100
AcDbLine
 10
518.500000000006
 20
154.4550806349399
 30
0.0
 11
522.000000000006
 21
157.9550806349399
 31
0.0
  0
LINE
  5
E6
330
1F
100
AcDbEntity
  8
LAY-10
  6
CONTINUOUS
 62
     7
100
AcDbLine
 10
518.500000000006
 20
151.6266535101938
 30
0.0
 11
522.000000000006
 21
155.1266535101936
 31
0.0
  0
LINE
  5
E7
330
1F
100
AcDbEntity
  8
LAY-10
  6
CONTINUOUS
 62
     7
100
AcDbLine
 10
518.500000000006
 20
148.7982263854475
 30
0.0
 11
522.000000000006
 21
152.2982263854475
 31
0.0
  0
LINE
  5
E8
330
1F
100
AcDbEntity
  8
LAY-10
  6
CONTINUOUS
 62
     7
100
AcDbLine
 10
518.500000000006
 20
145.9697992607014
 30
0.0
 11
522.000000000006
 21
149.4697992607013
 31
0.0
  0
LINE
  5
E9
330
1F
100
AcDbEntity
  8
LAY-10
  6
CONTINUOUS
 62
     7
100
AcDbLine
 10
518.500000000006
 20
143.1413721359552
 30
0.0
 11
522.000000000006
 21
146.6413721359551
 31
0.0
  0
LINE
  5
EA
330
1F
100
AcDbEntity
  8
LAY-10
  6
CONTINUOUS
 62
     7
100
AcDbLine
 10
518.500000000006
 20
140.312945011209
 30
0.0
 11
522.000000000006
 21
143.8129450112089
 31
0.0
  0
LINE
  5
EB
330
1F
100
AcDbEntity
  8
LAY-10
  6
CONTINUOUS
 62
     7
100
AcDbLine
 10
518.500000000006
 20
137.4845178864627
 30
0.0
 11
522.000000000006
 21
140.9845178864627
 31
0.0
  0
LINE
  5
EC
330
1F
100
AcDbEntity
  8
LAY-10
  6
CONTINUOUS
 62
     7
100
AcDbLine
 10
518.500000000006
 20
134.6560907617165
 30
0.0
 11
522.000000000006
 21
138.1560907617166
 31
0.0
  0
LINE
  5
ED
330
1F
100
AcDbEntity
  8
LAY-10
  6
CONTINUOUS
 62
     7
100
AcDbLine
 10
518.5000000000058
 20
131.8276636369703
 30
0.0
 11
522.0000000000058
 21
135.3276636369703
 31
0.0
  0
LINE
  5
EE
330
1F
100
AcDbEntity
  8
LAY-10
  6
CONTINUOUS
 62
     7
100
AcDbLine
 10
518.5000000000058
 20
128.9992365122242
 30
0.0
 11
522.0000000000058
 21
132.4992365122242
 31
0.0
  0
LINE
  5
EF
330
1F
100
AcDbEntity
  8
LAY-10
  6
CONTINUOUS
 62
     7
100
AcDbLine
 10
518.5000000000058
 20
126.1708093874781
 30
0.0
 11
522.0000000000058
 21
129.670809387478
 31
0.0
  0
LINE
  5
F0
330
1F
100
AcDbEntity
  8
LAY-10
  6
CONTINUOUS
 62
     7
100
AcDbLine
 10
518.5000000000058
 20
123.3423822627319
 30
0.0
 11
522.0000000000058
 21
126.8423822627317
 31
0.0
  0
LINE
  5
F1
330
1F
100
AcDbEntity
  8
LAY-10
  6
CONTINUOUS
 62
     7
100
AcDbLine
 10
518.500000000006
 20
120.5139551379856
 30
0.0
 11
522.0000000000058
 21
124.0139551379855
 31
0.0
  0
LINE
  5
F2
330
1F
100
AcDbEntity
  8
LAY-10
  6
CONTINUOUS
 62
     7
100
AcDbLine
 10
518.8317345239365
 20
118.0172625371699
 30
0.0
 11
522.0000000000058
 21
121.1855280132393
 31
0.0
  0
LINE
  5
F3
330
1F
100
AcDbEntity
  8
LAY-10
  6
CONTINUOUS
 62
     7
100
AcDbLine
 10
521.6601616486827
 20
118.0172625371699
 30
0.0
 11
522.0000000000058
 21
118.3571008884932
 31
0.0
  0
CIRCLE
  5
F4
330
1F
100
AcDbEntity
  8
LAY-10
  6
CONTINUOUS
 62
     7
100
AcDbCircle
 10
465.0000000000061
 20
600.0000000000011
 30
0.0
 40
156.50000000001
  0
CIRCLE
  5
F5
330
1F
100
AcDbEntity
  8
LAY-10
  6
CONTINUOUS
 62
     7
100
AcDbCircle
 10
465.0000000000061
 20
600.0000000000011
 30
0.0
 40
157.5
  0
LINE
  5
F6
330
1F
100
AcDbEntity
  8
LAY-10
  6
CONTINUOUS
 62
     7
100
AcDbLine
 10
343.4999999999952
 20
176.0172625371703
 30
0.0
 11
331.4999999999902
 21
176.0172625371703
 31
0.0
  0
LINE
  5
F7
330
1F
100
AcDbEntity
  8
LAY-10
  6
CONTINUOUS
 62
     7
100
AcDbLine
 10
328.5158666396801
 20
187.4776463332053
 30
0.0
 11
315.1389011390861
 21
191.0619934362689
 31
0.0
  0
LINE
  5
F8
330
1F
100
AcDbEntity
  8
LAY-10
  6
CONTINUOUS
 62
     7
100
AcDbLine
 10
330.7279935986477
 20
184.8413360825811
 30
0.0
 11
331.4999999999902
 21
176.0172625371703
 31
0.0
  0
LINE
  5
F9
330
1F
100
AcDbEntity
  8
LAY-10
  6
CONTINUOUS
 62
     7
100
AcDbLine
 10
343.8248629568737
 20
179.7304631255208
 30
0.0
 11
343.4999999999952
 21
176.0172625371703
 31
0.0
  0
ARC
  5
FA
330
1F
100
AcDbEntity
  8
LAY-10
  6
CONTINUOUS
 62
     7
100
AcDbCircle
 10
412.0419391968268
 20
157.0172625371699
 30
0.0
 40
1.0
100
AcDbArc
 50
2.454031674526885
 51
90.00000000000001
  0
LINE
  5
FB
330
1F
100
AcDbEntity
  8
LAY-10
  6
CONTINUOUS
 62
     7
100
AcDbLine
 10
413.0410220926445
 20
157.060080375562
 30
0.0
 11
414.5000000000041
 21
123.0172625371699
 31
0.0
  0
LINE
  5
FC
330
1F
100
AcDbEntity
  8
LAY-10
  6
CONTINUOUS
 62
     7
100
AcDbLine
 10
515.5000000000053
 20
123.0172625371697
 30
0.0
 11
414.5000000000048
 21
123.0172625371697
 31
0.0
  0
ARC
  5
FD
330
1F
100
AcDbEntity
  8
LAY-10
  6
CONTINUOUS
 62
     7
100
AcDbCircle
 10
517.9580608031832
 20
157.0172625371699
 30
0.0
 40
1.0
100
AcDbArc
 50
90.00000000000001
 51
177.5459683254731
  0
LINE
  5
FE
330
1F
100
AcDbEntity
  8
LAY-10
  6
CONTINUOUS
 62
     7
100
AcDbLine
 10
516.9589779073655
 20
157.060080375562
 30
0.0
 11
515.500000000006
 21
123.0172625371699
 31
0.0
  0
LINE
  5
FF
330
1F
100
AcDbEntity
  8
LAY-10
  6
CONTINUOUS
 62
     7
100
AcDbLine
 10
508.0857326672747
 20
141.0172625371702
 30
0.0
 11
508.3911963035185
 21
123.5172625371698
 31
0.0
  0
LINE
  5
100
330
1F
100
AcDbEntity
  8
LAY-10
  6
CONTINUOUS
 62
     7
100
AcDbLine
 10
508.9000000000045
 20
123.0172625371697
 30
0.0
 11
508.3911963035185
 21
123.5172625371698
 31
0.0
  0
LINE
  5
101
330
1F
100
AcDbEntity
  8
LAY-10
  6
CONTINUOUS
 62
     7
100
AcDbLine
 10
508.3911963035185
 20
123.5172625371698
 30
0.0
 11
421.6088036964916
 21
123.5172625371698
 31
0.0
  0
LINE
  5
102
330
1F
100
AcDbEntity
  8
LAY-10
  6
CONTINUOUS
 62
     7
100
AcDbLine
 10
421.1000000000055
 20
123.0172625371697
 30
0.0
 11
421.6088036964916
 21
123.5172625371698
 31
0.0
  0
LINE
  5
103
330
1F
100
AcDbEntity
  8
LAY-10
  6
CONTINUOUS
 62
     7
100
AcDbLine
 10
421.9142673327354
 20
141.0172625371702
 30
0.0
 11
421.6088036964916
 21
123.5172625371698
 31
0.0
  0
LINE
  5
104
330
1F
100
AcDbEntity
  8
LAY-10
  6
CONTINUOUS
 62
     7
100
AcDbLine
 10
420.0000000000051
 20
141.0172625371702
 30
0.0
 11
510.0000000000051
 21
141.0172625371702
 31
0.0
  0
LINE
  5
105
330
1F
100
AcDbEntity
  8
LAY-10
  6
CONTINUOUS
 62
     7
100
AcDbLine
 10
420.0000000000051
 20
141.0172625371702
 30
0.0
 11
420.0000000000051
 21
151.0172625371702
 31
0.0
  0
LINE
  5
106
330
1F
100
AcDbEntity
  8
LAY-10
  6
CONTINUOUS
 62
     7
100
AcDbLine
 10
420.0000000000051
 20
151.0172625371702
 30
0.0
 11
510.0000000000051
 21
151.0172625371702
 31
0.0
  0
LINE
  5
107
330
1F
100
AcDbEntity
  8
LAY-10
  6
CONTINUOUS
 62
     7
100
AcDbLine
 10
510.0000000000051
 20
141.0172625371702
 30
0.0
 11
510.0000000000051
 21
151.0172625371702
 31
0.0
  0
ARC
  5
108
330
1F
100
AcDbEntity
  8
LAY-10
  6
CONTINUOUS
 62
     7
100
AcDbCircle
 10
405.6528729116227
 20
153.0172625371678
 30
0.0
 40
1.0
100
AcDbArc
 50
270.0
 51
350.5376777919742
  0
LINE
  5
109
330
1F
100
AcDbEntity
  8
LAY-10
  6
CONTINUOUS
 62
     7
100
AcDbLine
 10
407.3607331645568
 20
157.1816615244731
 30
0.0
 11
406.639266835455
 21
152.8528635498624
 31
0.0
  0
ARC
  5
10A
330
1F
100
AcDbEntity
  8
LAY-10
  6
CONTINUOUS
 62
     7
100
AcDbCircle
 10
408.3471270883888
 20
157.0172625371678
 30
0.0
 40
1.0
100
AcDbArc
 50
90.00000000000001
 51
170.5376777919761
  0
LINE
  5
10B
330
1F
100
AcDbEntity
  8
LAY-10
  6
CONTINUOUS
 62
     7
100
AcDbLine
 10
522.6392668354534
 20
157.1816615244731
 30
0.0
 11
523.3607331645552
 21
152.8528635498624
 31
0.0
  0
ARC
  5
10C
330
1F
100
AcDbEntity
  8
LAY-10
  6
CONTINUOUS
 62
     7
100
AcDbCircle
 10
524.3471270883873
 20
153.0172625371678
 30
0.0
 40
1.0
100
AcDbArc
 50
189.4623222080256
 51
270.0
  0
ARC
  5
10D
330
1F
100
AcDbEntity
  8
LAY-10
  6
CONTINUOUS
 62
     7
100
AcDbCircle
 10
521.6528729116213
 20
157.0172625371678
 30
0.0
 40
1.0
100
AcDbArc
 50
9.462322208024538
 51
90.00000000000001
  0
LINE
  5
10E
330
1F
100
AcDbEntity
  8
LAY-10
  6
CONTINUOUS
 62
     7
100
AcDbLine
 10
517.9580608031832
 20
158.0172625371678
 30
0.0
 11
521.6528729116213
 21
158.0172625371678
 31
0.0
  0
LINE
  5
10F
330
1F
100
AcDbEntity
  8
LAY-10
  6
CONTINUOUS
 62
     7
100
AcDbLine
 10
412.0419391968268
 20
158.0172625371677
 30
0.0
 11
408.3471270883859
 21
158.0172625371678
 31
0.0
  0
LINE
  5
110
330
1F
100
AcDbEntity
  8
LAY-10
  6
CONTINUOUS
 62
     7
100
AcDbLine
 10
398.7688292936983
 20
168.6534217241654
 30
0.0
 11
347.5899041864566
 21
182.366773376145
 31
0.0
  0
LINE
  5
111
330
1F
100
AcDbEntity
  8
LAY-10
  6
CONTINUOUS
 62
     7
100
AcDbLine
 10
622.5000000000051
 20
188.0172625371699
 30
0.0
 11
617.0209700181591
 21
188.0172625371699
 31
0.0
  0
LINE
  5
112
330
1F
100
AcDbEntity
  8
LAY-10
  6
CONTINUOUS
 62
     7
100
AcDbLine
 10
622.500000000006
 20
188.0172625371699
 30
0.0
 11
621.500000000006
 21
198.0172625371699
 31
0.0
  0
ARC
  5
113
330
1F
100
AcDbEntity
  8
LAY-10
  6
CONTINUOUS
 62
     7
100
AcDbCircle
 10
346.813447051149
 20
179.4689958972777
 30
0.0
 40
3.0
100
AcDbArc
 50
74.99999999999885
 51
174.9999999999991
  0
ARC
  5
114
330
1F
100
AcDbEntity
  8
LAY-10
  6
CONTINUOUS
 62
     7
100
AcDbCircle
 10
327.7394095043725
 20
184.5798688543381
 30
0.0
 40
3.0
100
AcDbArc
 50
5.000000000000374
 51
74.99999999999885
  0
LINE
  5
115
330
1F
100
AcDbEntity
  8
LAY-10
  6
CONTINUOUS
 62
     7
100
AcDbLine
 10
307.5000000000042
 20
188.0172625371699
 30
0.0
 11
308.5000000000042
 21
198.0172625371699
 31
0.0
  0
LINE
  5
116
330
1F
100
AcDbEntity
  8
LAY-10
  6
CONTINUOUS
 62
     7
100
AcDbLine
 10
312.631188668461
 20
189.3291492217327
 30
0.0
 11
312.5000000000048
 21
188.0172625371698
 31
0.0
  0
ARC
  5
117
330
1F
100
AcDbEntity
  8
LAY-10
  6
CONTINUOUS
 62
     7
100
AcDbCircle
 10
314.621263048881
 20
189.1301417836907
 30
0.0
 40
2.0
100
AcDbArc
 50
74.99999999999885
 51
174.2894068624994
  0
LINE
  5
118
330
1F
100
AcDbEntity
  8
LAY-10
  6
CONTINUOUS
 62
     7
100
AcDbLine
 10
307.500000000005
 20
188.0172625371699
 30
0.0
 11
326.5019915498972
 21
188.0172625371699
 31
0.0
  0
LINE
  5
119
330
1F
100
AcDbEntity
  8
LAY-10
  6
CONTINUOUS
 62
     7
100
AcDbLine
 10
617.0209700181591
 20
188.0172625371699
 30
0.0
 11
531.0045372512485
 21
164.9692288414685
 31
0.0
  0
LINE
  5
11A
330
1F
100
AcDbEntity
  8
LAY-10
  6
CONTINUOUS
 62
     7
100
AcDbLine
 10
528.5835627368409
 20
152.9256601244023
 30
0.0
 11
529.5305840199463
 21
163.2205820144198
 31
0.0
  0
ARC
  5
11B
330
1F
100
AcDbEntity
  8
LAY-10
  6
CONTINUOUS
 62
     7
100
AcDbCircle
 10
527.5877670760875
 20
153.0172625371678
 30
0.0
 40
1.0
100
AcDbArc
 50
270.0
 51
354.7442005674459
  0
ARC
  5
11C
330
1F
100
AcDbEntity
  8
LAY-10
  6
CONTINUOUS
 62
     7
100
AcDbCircle
 10
531.5221753414536
 20
163.0373771888903
 30
0.0
 40
2.0
100
AcDbArc
 50
105.0000000000011
 51
174.7442005674456
  0
ARC
  5
11D
330
1F
100
AcDbEntity
  8
LAY-10
  6
CONTINUOUS
 62
     7
100
AcDbCircle
 10
402.4122329239227
 20
153.0172625371678
 30
0.0
 40
1.0
100
AcDbArc
 50
185.2557994325541
 51
270.0
  0
LINE
  5
11E
330
1F
100
AcDbEntity
  8
LAY-10
  6
CONTINUOUS
 62
     7
100
AcDbLine
 10
401.4164372631693
 20
152.9256601244023
 30
0.0
 11
400.1276728765332
 21
166.9356184344695
 31
0.0
  0
ARC
  5
11F
330
1F
100
AcDbEntity
  8
LAY-10
  6
CONTINUOUS
 62
     7
100
AcDbCircle
 10
398.1360815550266
 20
166.7524136089352
 30
0.0
 40
2.0
100
AcDbArc
 50
5.255799432554404
 51
74.99999999999885
  0
LINE
  5
120
330
1F
100
AcDbEntity
  8
LAY-10
  6
CONTINUOUS
 62
     7
100
AcDbLine
 10
431.7903688828761
 20
155.0172625371699
 30
0.0
 11
505.2058769691595
 21
155.0172625371699
 31
0.0
  0
LINE
  5
121
330
1F
100
AcDbEntity
  8
LAY-10
  6
CONTINUOUS
 62
     7
100
AcDbLine
 10
505.2096313018222
 20
155.0172660609264
 30
0.0
 11
505.000000000018
 21
151.0172625371702
 31
0.0
  0
LINE
  5
122
330
1F
100
AcDbEntity
  8
LAY-10
  6
CONTINUOUS
 62
     7
100
AcDbLine
 10
431.1614755314769
 20
167.0172625371703
 30
0.0
 11
432.0000000000051
 21
151.0172625371702
 31
0.0
  0
ARC
  5
123
330
1F
100
AcDbEntity
  8
LAY-10
  6
CONTINUOUS
 62
     7
100
AcDbCircle
 10
505.2058769691595
 20
157.0172625371699
 30
0.0
 40
2.0
100
AcDbArc
 50
270.0
 51
350.0000000000019
  0
LINE
  5
124
330
1F
100
AcDbEntity
  8
LAY-10
  6
CONTINUOUS
 62
     7
100
AcDbLine
 10
507.1754924751841
 20
156.6699661818361
 30
0.0
 11
508.7085837563455
 21
165.3645588925041
 31
0.0
  0
ARC
  5
125
330
1F
100
AcDbEntity
  8
LAY-10
  6
CONTINUOUS
 62
     7
100
AcDbCircle
 10
510.6781992623702
 20
165.0172625371703
 30
0.0
 40
2.0
100
AcDbArc
 50
90.00000000000001
 51
170.0000000000014
  0
ARC
  5
126
330
1F
100
AcDbEntity
  8
LAY-10
  6
CONTINUOUS
 62
     7
100
AcDbCircle
 10
416.6258183368296
 20
168.0097606524473
 30
0.0
 40
1.0
100
AcDbArc
 50
9.99999999999943
 51
74.99999999999885
  0
LINE
  5
127
330
1F
100
AcDbEntity
  8
LAY-10
  6
CONTINUOUS
 62
     7
100
AcDbLine
 10
417.6705410229059
 20
167.8436143595033
 30
0.0
 11
417.6106260898417
 21
168.1834088301142
 31
0.0
  0
ARC
  5
128
330
1F
100
AcDbEntity
  8
LAY-10
  6
CONTINUOUS
 62
     7
100
AcDbCircle
 10
418.655348775918
 20
168.0172625371703
 30
0.0
 40
1.0
100
AcDbArc
 50
190.0000000000011
 51
270.0
  0
ARC
  5
129
330
1F
100
AcDbEntity
  8
LAY-10
  6
CONTINUOUS
 62
     7
100
AcDbCircle
 10
513.3741816631806
 20
168.0097606524473
 30
0.0
 40
1.0
100
AcDbArc
 50
105.0000000000012
 51
170.0000000000006
  0
LINE
  5
12A
330
1F
100
AcDbEntity
  8
LAY-10
  6
CONTINUOUS
 62
     7
100
AcDbLine
 10
512.3294589771043
 20
167.8436143595033
 30
0.0
 11
512.3893739101685
 21
168.1834088301142
 31
0.0
  0
ARC
  5
12B
330
1F
100
AcDbEntity
  8
LAY-10
  6
CONTINUOUS
 62
     7
100
AcDbCircle
 10
511.3446512240922
 20
168.0172625371702
 30
0.0
 40
1.0
100
AcDbArc
 50
270.0
 51
349.999999999999
  0
ARC
  5
12C
330
1F
100
AcDbEntity
  8
LAY-10
  6
CONTINUOUS
 62
     7
100
AcDbCircle
 10
410.8220619959919
 20
167.0172625371686
 30
0.0
 40
1.0
100
AcDbArc
 50
191.1553511434985
 51
270.0
  0
LINE
  5
12D
330
1F
100
AcDbEntity
  8
LAY-10
  6
CONTINUOUS
 62
     7
100
AcDbLine
 10
410.8220619959919
 20
166.0172625371686
 30
0.0
 11
413.2478837307384
 21
166.0172625371686
 31
0.0
  0
ARC
  5
12E
330
1F
100
AcDbEntity
  8
LAY-10
  6
CONTINUOUS
 62
     7
100
AcDbCircle
 10
413.2478837307384
 20
167.0172625371686
 30
0.0
 40
1.0
100
AcDbArc
 50
270.0
 51
343.894841919758
  0
LINE
  5
12F
330
1F
100
AcDbEntity
  8
LAY-10
  6
CONTINUOUS
 62
     7
100
AcDbLine
 10
409.84095577759
 20
166.8237926733323
 30
0.0
 11
409.1205289982332
 21
170.4771533524324
 31
0.0
  0
ARC
  5
130
330
1F
100
AcDbEntity
  8
LAY-10
  6
CONTINUOUS
 62
     7
100
AcDbCircle
 10
408.1394227798311
 20
170.2836834885961
 30
0.0
 40
1.0
100
AcDbArc
 50
11.15535114349935
 51
74.99999999999908
  0
LINE
  5
131
330
1F
100
AcDbEntity
  8
LAY-10
  6
CONTINUOUS
 62
     7
100
AcDbLine
 10
414.208637915617
 20
166.7398613903825
 30
0.0
 11
414.7278985979507
 21
168.5382745526021
 31
0.0
  0
ARC
  5
132
330
1F
100
AcDbEntity
  8
LAY-10
  6
CONTINUOUS
 62
     7
100
AcDbCircle
 10
415.6886527828293
 20
168.2608734058159
 30
0.0
 40
1.0
100
AcDbArc
 50
74.99999999999861
 51
163.8948419197588
  0
ARC
  5
133
330
1F
100
AcDbEntity
  8
LAY-10
  6
CONTINUOUS
 62
     7
100
AcDbCircle
 10
519.1779380040183
 20
167.0172625371686
 30
0.0
 40
1.0
100
AcDbArc
 50
270.0
 51
348.8446488565015
  0
LINE
  5
134
330
1F
100
AcDbEntity
  8
LAY-10
  6
CONTINUOUS
 62
     7
100
AcDbLine
 10
519.1779380040183
 20
166.0172625371686
 30
0.0
 11
516.7521162692718
 21
166.0172625371686
 31
0.0
  0
ARC
  5
135
330
1F
100
AcDbEntity
  8
LAY-10
  6
CONTINUOUS
 62
     7
100
AcDbCircle
 10
516.7521162692718
 20
167.0172625371686
 30
0.0
 40
1.0
100
AcDbArc
 50
196.1051580802413
 51
270.0
  0
LINE
  5
136
330
1F
100
AcDbEntity
  8
LAY-10
  6
CONTINUOUS
 62
     7
100
AcDbLine
 10
520.1590442224202
 20
166.8237926733323
 30
0.0
 11
520.879471001777
 21
170.4771533524324
 31
0.0
  0
ARC
  5
137
330
1F
100
AcDbEntity
  8
LAY-10
  6
CONTINUOUS
 62
     7
100
AcDbCircle
 10
521.8605772201792
 20
170.2836834885961
 30
0.0
 40
1.0
100
AcDbArc
 50
105.0000000000016
 51
168.8446488565015
  0
LINE
  5
138
330
1F
100
AcDbEntity
  8
LAY-10
  6
CONTINUOUS
 62
     7
100
AcDbLine
 10
515.7913620843932
 20
166.7398613903825
 30
0.0
 11
515.2721014020595
 21
168.5382745526021
 31
0.0
  0
ARC
  5
139
330
1F
100
AcDbEntity
  8
LAY-10
  6
CONTINUOUS
 62
     7
100
AcDbCircle
 10
514.3113472171809
 20
168.2608734058159
 30
0.0
 40
1.0
100
AcDbArc
 50
16.10515808024051
 51
105.0000000000012
  0
LINE
  5
13A
330
1F
100
AcDbEntity
  8
LAY-10
  6
CONTINUOUS
 62
     7
100
AcDbLine
 10
408.0000000000051
 20
152.0172625371678
 30
0.0
 11
402.4122329239227
 21
152.0172625371678
 31
0.0
  0
LINE
  5
13B
330
1F
100
AcDbEntity
  8
LAY-10
  6
CONTINUOUS
 62
     7
100
AcDbLine
 10
522.0000000000051
 20
152.0172625371678
 30
0.0
 11
527.5877670760875
 21
152.0172625371678
 31
0.0
  0
LINE
  5
13C
330
1F
100
AcDbEntity
  8
LAY-10
  6
CONTINUOUS
 62
     7
100
AcDbLine
 10
335.0000000000014
 20
184.0172625371775
 30
0.0
 11
335.0000000000014
 21
185.0172625371757
 31
0.0
  0
LINE
  5
13D
330
1F
100
AcDbEntity
  8
LAY-10
  6
CONTINUOUS
 62
     7
100
AcDbLine
 10
340.0000000000007
 20
184.0172625371775
 30
0.0
 11
340.0000000000007
 21
185.0172625371766
 31
0.0
  0
LINE
  5
13E
330
1F
100
AcDbEntity
  8
LAY-10
  6
CONTINUOUS
 62
     7
100
AcDbLine
 10
340.0000000000007
 20
185.0172625371766
 30
0.0
 11
335.0000000000014
 21
185.0172625371766
 31
0.0
  0
LINE
  5
13F
330
1F
100
AcDbEntity
  8
LAY-10
  6
CONTINUOUS
 62
     7
100
AcDbLine
 10
340.5000000000039
 20
183.5172625371766
 30
0.0
 11
334.5000000000039
 21
183.5172625371766
 31
0.0
  0
LINE
  5
140
330
1F
100
AcDbEntity
  8
LAY-10
  6
CONTINUOUS
 62
     7
100
AcDbLine
 10
340.0000000000039
 20
184.0172625371775
 30
0.0
 11
335.0000000000039
 21
184.0172625371775
 31
0.0
  0
LINE
  5
141
330
1F
100
AcDbEntity
  8
LAY-10
  6
CONTINUOUS
 62
     7
100
AcDbLine
 10
337.5000000000036
 20
186.4606382101525
 30
0.0
 11
335.0000000000027
 21
185.0172625371777
 31
0.0
  0
LINE
  5
142
330
1F
100
AcDbEntity
  8
LAY-10
  6
CONTINUOUS
 62
     7
100
AcDbLine
 10
337.5000000000041
 20
186.460638210152
 30
0.0
 11
340.0000000000045
 21
185.0172625371777
 31
0.0
  0
LINE
  5
143
330
1F
100
AcDbEntity
  8
LAY-10
  6
CONTINUOUS
 62
     7
100
AcDbLine
 10
335.0000000000014
 20
184.0172625371775
 30
0.0
 11
335.0000000000014
 21
182.017262537169
 31
0.0
  0
LINE
  5
144
330
1F
100
AcDbEntity
  8
LAY-10
  6
CONTINUOUS
 62
     7
100
AcDbLine
 10
340.0000000000007
 20
184.0172625371775
 30
0.0
 11
340.0000000000007
 21
182.017262537169
 31
0.0
  0
LINE
  5
145
330
1F
100
AcDbEntity
  8
LAY-10
  6
CONTINUOUS
 62
     7
100
AcDbLine
 10
323.0000000000067
 20
154.0172625371842
 30
0.0
 11
323.0000000000067
 21
159.0172625371841
 31
0.0
  0
LINE
  5
146
330
1F
100
AcDbEntity
  8
LAY-10
  6
CONTINUOUS
 62
     7
100
AcDbLine
 10
333.0000000000072
 20
159.0172625371841
 30
0.0
 11
323.0000000000067
 21
159.0172625371841
 31
0.0
  0
ARC
  5
147
330
1F
100
AcDbEntity
  8
LAY-10
  6
CONTINUOUS
 62
     7
100
AcDbCircle
 10
333.0000000000072
 20
161.0172625371842
 30
0.0
 40
2.0
100
AcDbArc
 50
270.0000000000002
 51
0.0
  0
LINE
  5
148
330
1F
100
AcDbEntity
  8
LAY-10
  6
CONTINUOUS
 62
     7
100
AcDbLine
 10
333.0000000000072
 20
154.0172625371842
 30
0.0
 11
323.0000000000067
 21
154.0172625371842
 31
0.0
  0
ARC
  5
149
330
1F
100
AcDbEntity
  8
LAY-10
  6
CONTINUOUS
 62
     7
100
AcDbCircle
 10
333.0000000000072
 20
161.0172625371842
 30
0.0
 40
7.000000000000004
100
AcDbArc
 50
270.0000000000002
 51
0.0
  0
LINE
  5
14A
330
1F
100
AcDbEntity
  8
LAY-10
  6
CONTINUOUS
 62
     7
100
AcDbLine
 10
335.0000000000063
 20
161.0172625371798
 30
0.0
 11
335.0000000000063
 21
176.0172625371794
 31
0.0
  0
LINE
  5
14B
330
1F
100
AcDbEntity
  8
LAY-10
  6
CONTINUOUS
 62
     7
100
AcDbLine
 10
340.0000000000063
 20
161.0172625371798
 30
0.0
 11
340.0000000000063
 21
176.0172625371794
 31
0.0
  0
LINE
  5
14C
330
1F
100
AcDbEntity
  8
LAY-10
  6
CONTINUOUS
 62
     7
100
AcDbLine
 10
340.0000000000031
 20
182.0172625371843
 30
0.0
 11
335.0000000000038
 21
182.0172625371843
 31
0.0
  0
LINE
  5
14D
330
1F
100
AcDbEntity
  8
LAY-10
  6
CONTINUOUS
 62
     7
100
AcDbLine
 10
340.5000000000044
 20
181.5172625371858
 30
0.0
 11
334.5000000000053
 21
181.5172625371858
 31
0.0
  0
LINE
  5
14E
330
1F
100
AcDbEntity
  8
LAY-10
  6
CONTINUOUS
 62
     7
100
AcDbLine
 10
334.5000000000063
 20
181.5172625371898
 30
0.0
 11
335.0000000000063
 21
182.0172625371798
 31
0.0
  0
LINE
  5
14F
330
1F
100
AcDbEntity
  8
LAY-10
  6
CONTINUOUS
 62
     7
100
AcDbLine
 10
340.0000000000063
 20
182.0172625371798
 30
0.0
 11
340.5000000000063
 21
181.5172625371898
 31
0.0
  0
LINE
  5
150
330
1F
100
AcDbEntity
  8
LAY-10
  6
CONTINUOUS
 62
     7
100
AcDbLine
 10
340.5000000000063
 20
181.5172625371898
 30
0.0
 11
340.5000000000063
 21
176.0172625371798
 31
0.0
  0
LINE
  5
151
330
1F
100
AcDbEntity
  8
LAY-10
  6
CONTINUOUS
 62
     7
100
AcDbLine
 10
334.5000000000063
 20
181.5172625371898
 30
0.0
 11
334.5000000000063
 21
176.0172625371798
 31
0.0
  0
LINE
  5
152
330
1F
100
AcDbEntity
  8
LAY-10
  6
CONTINUOUS
 62
     7
100
AcDbLine
 10
426.5000000000069
 20
161.235276180397
 30
0.0
 11
427.0000000000064
 21
161.7352761803983
 31
0.0
  0
LINE
  5
153
330
1F
100
AcDbEntity
  8
LAY-10
  6
CONTINUOUS
 62
     7
100
AcDbLine
 10
419.5000000000064
 20
161.235276180397
 30
0.0
 11
419.0000000000065
 21
161.7352761803983
 31
0.0
  0
LINE
  5
154
330
1F
100
AcDbEntity
  8
LAY-10
  6
CONTINUOUS
 62
     7
100
AcDbLine
 10
426.500000000006
 20
159.3473895560898
 30
0.0
 11
426.500000000006
 21
161.2352761803998
 31
0.0
  0
LINE
  5
155
330
1F
100
AcDbEntity
  8
LAY-10
  6
CONTINUOUS
 62
     7
100
AcDbLine
 10
419.500000000006
 20
161.2352761803998
 30
0.0
 11
419.500000000006
 21
159.3473895560898
 31
0.0
  0
LINE
  5
156
330
1F
100
AcDbEntity
  8
LAY-10
  6
CONTINUOUS
 62
     7
100
AcDbLine
 10
426.5000000000069
 20
161.235276180397
 30
0.0
 11
419.5000000000064
 21
161.235276180397
 31
0.0
  0
LINE
  5
157
330
1F
100
AcDbEntity
  8
LAY-10
  6
CONTINUOUS
 62
     7
100
AcDbLine
 10
427.0000000000064
 20
161.7352761803983
 30
0.0
 11
419.0000000000065
 21
161.7352761803983
 31
0.0
  0
LINE
  5
158
330
1F
100
AcDbEntity
  8
LAY-10
  6
CONTINUOUS
 62
     7
100
AcDbLine
 10
427.0000000000124
 20
161.2352761804006
 30
0.0
 11
419.0000000000123
 21
161.2352761804006
 31
0.0
  0
LINE
  5
159
330
1F
100
AcDbEntity
  8
LAY-10
  6
CONTINUOUS
 62
     7
100
AcDbLine
 10
426.5000000000128
 20
160.7352761803994
 30
0.0
 11
419.5000000000119
 21
160.7352761803994
 31
0.0
  0
LINE
  5
15A
330
1F
100
AcDbEntity
  8
LAY-10
  6
CONTINUOUS
 62
     7
100
AcDbLine
 10
423.0000000000078
 20
157.3266636139265
 30
0.0
 11
419.500000000011
 21
159.3473895560883
 31
0.0
  0
LINE
  5
15B
330
1F
100
AcDbEntity
  8
LAY-10
  6
CONTINUOUS
 62
     7
100
AcDbLine
 10
426.500000000006
 20
159.3473895560888
 30
0.0
 11
423.0000000000078
 21
157.3266636139261
 31
0.0
  0
LINE
  5
15C
330
1F
100
AcDbEntity
  8
LAY-10
  6
CONTINUOUS
 62
     7
100
AcDbLine
 10
426.500000000006
 20
159.3473895560883
 30
0.0
 11
419.5000000000105
 21
159.3473895560883
 31
0.0
  0
LINE
  5
15D
330
1F
100
AcDbEntity
  8
LAY-10
  6
CONTINUOUS
 62
     7
100
AcDbLine
 10
513.1030180405656
 20
168.9723787591609
 30
0.0
 11
513.0723241899688
 21
168.9641543666808
 31
0.0
  0
LINE
  5
15E
330
1F
100
AcDbEntity
  8
LAY-10
  6
CONTINUOUS
 62
     7
100
AcDbLine
 10
513.1030180405627
 20
168.9723787591602
 30
0.0
 11
513.0723241899688
 21
168.964154366681
 31
0.0
  0
LINE
  5
15F
330
1F
100
AcDbEntity
  8
LAY-10
  6
CONTINUOUS
 62
     7
100
AcDbLine
 10
513.1030180405656
 20
168.9723787591609
 30
0.0
 11
513.0723241899685
 21
168.9641543666808
 31
0.0
  0
LINE
  5
160
330
1F
100
AcDbEntity
  8
LAY-10
  6
CONTINUOUS
 62
     7
100
AcDbLine
 10
513.1030180405627
 20
168.9723787591602
 30
0.0
 11
513.0723241899685
 21
168.964154366681
 31
0.0
  0
LINE
  5
161
330
1F
100
AcDbEntity
  8
LAY-10
  6
CONTINUOUS
 62
     7
100
AcDbLine
 10
418.655348775918
 20
167.0172625371703
 30
0.0
 11
419.500000000006
 21
167.0172625371703
 31
0.0
  0
LINE
  5
162
330
1F
100
AcDbEntity
  8
LAY-10
  6
CONTINUOUS
 62
     7
100
AcDbLine
 10
426.500000000006
 20
167.0172625371703
 30
0.0
 11
511.3446512240861
 21
167.0172625371703
 31
0.0
  0
LINE
  5
163
330
1F
100
AcDbEntity
  8
LAY-10
  6
CONTINUOUS
 62
     7
100
AcDbLine
 10
522.0000000000051
 20
118.0172625371699
 30
0.0
 11
408.0000000000051
 21
118.0172625371699
 31
0.0
  0
LINE
  5
164
330
1F
100
AcDbEntity
  8
LAY-10
  6
CONTINUOUS
 62
     7
100
AcDbLine
 10
411.5000000000048
 20
157.9550806349399
 30
0.0
 11
411.5000000000048
 21
118.0172625371699
 31
0.0
  0
LINE
  5
165
330
1F
100
AcDbEntity
  8
LAY-10
  6
CONTINUOUS
 62
     7
100
AcDbLine
 10
408.0000000000051
 20
157.9550806349405
 30
0.0
 11
408.0000000000051
 21
118.0172625371699
 31
0.0
  0
LINE
  5
166
330
1F
100
AcDbEntity
  8
LAY-10
  6
CONTINUOUS
 62
     7
100
AcDbLine
 10
518.5000000000053
 20
157.9550806349399
 30
0.0
 11
518.5000000000053
 21
118.0172625371699
 31
0.0
  0
LINE
  5
167
330
1F
100
AcDbEntity
  8
LAY-10
  6
CONTINUOUS
 62
     7
100
AcDbLine
 10
522.0000000000051
 20
157.9550806349405
 30
0.0
 11
522.0000000000051
 21
118.0172625371699
 31
0.0
  0
LINE
  5
168
330
1F
100
AcDbEntity
  8
LAY-10
  6
CONTINUOUS
 62
     7
100
AcDbLine
 10
522.000000000006
 20
157.9550806349399
 30
0.0
 11
517.6109337147974
 21
157.9550806349399
 31
0.0
  0
LINE
  5
169
330
1F
100
AcDbEntity
  8
LAY-10
  6
CONTINUOUS
 62
     7
100
AcDbLine
 10
408.0000000000042
 20
157.9550806349399
 30
0.0
 11
412.3890662852128
 21
157.9550806349399
 31
0.0
  0
LINE
  5
16A
330
1F
100
AcDbEntity
  8
LAY-10
  6
CONTINUOUS
 62
     7
100
AcDbLine
 10
621.5000000000188
 20
198.0172625371699
 30
0.0
 11
513.115362618078
 21
168.9756864787362
 31
0.0
  0
LINE
  5
16B
330
1F
100
AcDbEntity
  8
LAY-10
  6
CONTINUOUS
 62
     7
100
AcDbLine
 10
308.4999999999917
 20
198.0172625371699
 30
0.0
 11
416.8846373819322
 21
168.9756864787362
 31
0.0
  0
LINE
  5
16C
330
1F
100
AcDbEntity
  8
LAY-10
  6
CONTINUOUS
 62
     7
100
AcDbLine
 10
505.709631117154
 20
173.6891108675314
 30
0.0
 11
505.5000000000218
 21
169.6891108675319
 31
0.0
  0
LINE
  5
16D
330
1F
100
AcDbEntity
  8
LAY-10
  6
CONTINUOUS
 62
     7
100
AcDbLine
 10
526.5000000000181
 20
181.6891108675366
 30
0.0
 11
526.5000000000181
 21
172.5620892562063
 31
0.0
  0
LINE
  5
16E
330
1F
100
AcDbEntity
  8
LAY-10
  6
CONTINUOUS
 62
     7
100
AcDbLine
 10
531.5000000000181
 20
181.6891108675366
 30
0.0
 11
531.5000000000181
 21
173.9018352183621
 31
0.0
  0
ARC
  5
16F
330
1F
100
AcDbEntity
  8
LAY-10
  6
CONTINUOUS
 62
     7
100
AcDbCircle
 10
535.8947818443625
 20
186.6891108675319
 30
0.0
 40
1.0
100
AcDbArc
 50
90.00000000000001
 51
173.6432037462286
  0
ARC
  5
170
330
1F
100
AcDbEntity
  8
LAY-10
  6
CONTINUOUS
 62
     7
100
AcDbCircle
 10
538.126544223399
 20
186.6891108675319
 30
0.0
 40
1.0
100
AcDbArc
 50
7.728448680598762
 51
90.00000000000001
  0
LINE
  5
171
330
1F
100
AcDbEntity
  8
LAY-10
  6
CONTINUOUS
 62
     7
100
AcDbLine
 10
539.1174607737184
 20
186.8235890825081
 30
0.0
 11
539.8472722693273
 21
181.4458980584257
 31
0.0
  0
LINE
  5
172
330
1F
100
AcDbEntity
  8
LAY-10
  6
CONTINUOUS
 62
     7
100
AcDbLine
 10
541.0970078647492
 20
180.6144504471127
 30
0.0
 11
567.50000000002
 21
187.6891108675244
 31
0.0
  0
ARC
  5
173
330
1F
100
AcDbEntity
  8
LAY-10
  6
CONTINUOUS
 62
     7
100
AcDbCircle
 10
540.8381888196467
 20
181.5803762734018
 30
0.0
 40
1.0
100
AcDbArc
 50
187.7284486805988
 51
285.0000000000015
  0
LINE
  5
174
330
1F
100
AcDbEntity
  8
LAY-10
  6
CONTINUOUS
 62
     7
100
AcDbLine
 10
357.5000000000106
 20
187.6891108675319
 30
0.0
 11
358.163928514443
 21
185.6513097986779
 31
0.0
  0
LINE
  5
175
330
1F
100
AcDbEntity
  8
LAY-10
  6
CONTINUOUS
 62
     7
100
AcDbLine
 10
359.5479073240084
 20
184.3390169944
 30
0.0
 11
414.2221013155899
 21
169.6891108675319
 31
0.0
  0
ARC
  5
176
330
1F
100
AcDbEntity
  8
LAY-10
  6
CONTINUOUS
 62
     7
100
AcDbCircle
 10
360.0655454142135
 20
186.2708686469781
 30
0.0
 40
2.0
100
AcDbArc
 50
198.045938073133
 51
254.9999999999989
  0
LINE
  5
177
330
1F
100
AcDbEntity
  8
LAY-10
  6
CONTINUOUS
 62
     7
100
AcDbLine
 10
572.5000000000181
 20
187.6891108675319
 30
0.0
 11
571.8360714855855
 21
185.6513097986777
 31
0.0
  0
LINE
  5
178
330
1F
100
AcDbEntity
  8
LAY-10
  6
CONTINUOUS
 62
     7
100
AcDbLine
 10
570.4520926760201
 20
184.3390169943999
 30
0.0
 11
515.7778986844386
 21
169.6891108675319
 31
0.0
  0
ARC
  5
179
330
1F
100
AcDbEntity
  8
LAY-10
  6
CONTINUOUS
 62
     7
100
AcDbCircle
 10
569.934454585815
 20
186.2708686469781
 30
0.0
 40
2.0
100
AcDbArc
 50
285.0000000000012
 51
341.9540619268639
  0
ARC
  5
17A
330
1F
100
AcDbEntity
  8
LAY-10
  6
CONTINUOUS
 62
     7
100
AcDbCircle
 10
394.1052181556661
 20
186.6891108675319
 30
0.0
 40
1.0
100
AcDbArc
 50
6.356796253771462
 51
90.00000000000001
  0
ARC
  5
17B
330
1F
100
AcDbEntity
  8
LAY-10
  6
CONTINUOUS
 62
     7
100
AcDbCircle
 10
391.8734557766295
 20
186.6891108675319
 30
0.0
 40
1.0
100
AcDbArc
 50
90.00000000000001
 51
172.2715513194008
  0
ARC
  5
17C
330
1F
100
AcDbEntity
  8
LAY-10
  6
CONTINUOUS
 62
     7
100
AcDbCircle
 10
389.1618111803819
 20
181.5803762734018
 30
0.0
 40
1.0
100
AcDbArc
 50
255.0000000000015
 51
352.2715513194017
  0
ARC
  5
17D
330
1F
100
AcDbEntity
  8
LAY-10
  6
CONTINUOUS
 62
     7
100
AcDbCircle
 10
396.9182627473321
 20
179.5020413399062
 30
0.0
 40
1.0
100
AcDbArc
 50
186.3567962537719
 51
254.9999999999984
  0
LINE
  5
17E
330
1F
100
AcDbEntity
  8
LAY-10
  6
CONTINUOUS
 62
     7
100
AcDbLine
 10
411.0166604983776
 20
174.6891108675304
 30
0.0
 11
396.6594437022296
 21
178.5361155136171
 31
0.0
  0
LINE
  5
17F
330
1F
100
AcDbEntity
  8
LAY-10
  6
CONTINUOUS
 62
     7
100
AcDbLine
 10
388.9029921352794
 20
180.6144504471127
 30
0.0
 11
362.5000000000085
 21
187.6891108675244
 31
0.0
  0
LINE
  5
180
330
1F
100
AcDbEntity
  8
LAY-10
  6
CONTINUOUS
 62
     7
100
AcDbLine
 10
390.8825392263107
 20
186.8235890825116
 30
0.0
 11
390.1527277307006
 21
181.4458980584216
 31
0.0
  0
ARC
  5
181
330
1F
100
AcDbEntity
  8
LAY-10
  6
CONTINUOUS
 62
     7
100
AcDbCircle
 10
520.4489645667328
 20
180.6891108675319
 30
0.0
 40
1.0
100
AcDbArc
 50
90.00000000000001
 51
177.0000000000009
  0
LINE
  5
182
330
1F
100
AcDbEntity
  8
LAY-10
  6
CONTINUOUS
 62
     7
100
AcDbLine
 10
519.1733034744319
 20
175.4553698074199
 30
0.0
 11
519.4503350319783
 21
180.7414468237748
 31
0.0
  0
LINE
  5
183
330
1F
100
AcDbEntity
  8
LAY-10
  6
CONTINUOUS
 62
     7
100
AcDbLine
 10
515.2512886940552
 20
173.6891108675231
 30
0.0
 11
518.4334929847798
 21
174.5417799373737
 31
0.0
  0
ARC
  5
184
330
1F
100
AcDbEntity
  8
LAY-10
  6
CONTINUOUS
 62
     7
100
AcDbCircle
 10
518.1746739396773
 20
175.5077057636628
 30
0.0
 40
1.0
100
AcDbArc
 50
285.0000000000015
 51
357.0000000000009
  0
LINE
  5
185
330
1F
100
AcDbEntity
  8
LAY-10
  6
CONTINUOUS
 62
     7
100
AcDbLine
 10
534.9009301548489
 20
186.7998304197841
 30
0.0
 11
534.4306428348771
 21
182.5783913152796
 31
0.0
  0
ARC
  5
186
330
1F
100
AcDbEntity
  8
LAY-10
  6
CONTINUOUS
 62
     7
100
AcDbCircle
 10
533.4367911453634
 20
182.6891108675319
 30
0.0
 40
1.0
100
AcDbArc
 50
270.0
 51
353.6432037462286
  0
LINE
  5
187
330
1F
100
AcDbEntity
  8
LAY-10
  6
CONTINUOUS
 62
     7
100
AcDbLine
 10
432.7889965368797
 20
174.6891108675316
 30
0.0
 11
411.0166604983734
 21
174.6891108675316
 31
0.0
  0
LINE
  5
188
330
1F
100
AcDbEntity
  8
LAY-10
  6
CONTINUOUS
 62
     7
100
AcDbLine
 10
433.7876260716343
 20
173.7414468237745
 30
0.0
 11
434.0000000000099
 21
169.6891108675319
 31
0.0
  0
ARC
  5
189
330
1F
100
AcDbEntity
  8
LAY-10
  6
CONTINUOUS
 62
     7
100
AcDbCircle
 10
432.7889965368797
 20
173.6891108675316
 30
0.0
 40
1.0
100
AcDbArc
 50
2.999999999836026
 51
90.00000000000001
  0
LINE
  5
18A
330
1F
100
AcDbEntity
  8
LAY-10
  6
CONTINUOUS
 62
     7
100
AcDbLine
 10
474.7876260716332
 20
173.7414468237757
 30
0.0
 11
475.0000000000086
 21
169.6891108675319
 31
0.0
  0
ARC
  5
18B
330
1F
100
AcDbEntity
  8
LAY-10
  6
CONTINUOUS
 62
     7
100
AcDbCircle
 10
473.7889965368785
 20
173.6891108675328
 30
0.0
 40
1.0
100
AcDbArc
 50
2.99999999999909
 51
90.00000000000001
  0
LINE
  5
18C
330
1F
100
AcDbEntity
  8
LAY-10
  6
CONTINUOUS
 62
     7
100
AcDbLine
 10
433.7903688828781
 20
173.6891108675319
 30
0.0
 11
465.0000000000142
 21
173.6891108675319
 31
0.0
  0
LINE
  5
18D
330
1F
100
AcDbEntity
  8
LAY-10
  6
CONTINUOUS
 62
     7
100
AcDbLine
 10
474.7903688828766
 20
173.6891108675319
 30
0.0
 11
515.2512886940581
 21
173.6891108675319
 31
0.0
  0
LINE
  5
18E
330
1F
100
AcDbEntity
  8
LAY-10
  6
CONTINUOUS
 62
     7
100
AcDbLine
 10
395.0990698451799
 20
186.7998304197821
 30
0.0
 11
395.9244110578188
 21
179.391321787652
 31
0.0
  0
ARC
  5
18F
330
1F
100
AcDbEntity
  8
LAY-10
  6
CONTINUOUS
 62
     7
100
AcDbCircle
 10
449.7696655656165
 20
181.3205080756719
 30
0.0
 40
1.0
100
AcDbArc
 50
270.0
 51
351.0437287624829
  0
ARC
  5
190
330
1F
100
AcDbEntity
  8
LAY-10
  6
CONTINUOUS
 62
     7
100
AcDbCircle
 10
450.7815106874304
 20
179.7128129210823
 30
0.0
 40
1.0
100
AcDbArc
 50
269.9999999999707
 51
354.8813308081009
  0
LINE
  5
191
330
1F
100
AcDbEntity
  8
LAY-10
  6
CONTINUOUS
 62
     7
100
AcDbLine
 10
443.5364341639625
 20
178.712812921086
 30
0.0
 11
450.7815106874299
 21
178.7128129210823
 31
0.0
  0
ARC
  5
192
330
1F
100
AcDbEntity
  8
LAY-10
  6
CONTINUOUS
 62
     7
100
AcDbCircle
 10
443.5364341639631
 20
179.712812921086
 30
0.0
 40
1.0
100
AcDbArc
 50
188.1227440601549
 51
269.9999999999707
  0
LINE
  5
193
330
1F
100
AcDbEntity
  8
LAY-10
  6
CONTINUOUS
 62
     7
100
AcDbLine
 10
442.4395661855432
 20
180.3205080756719
 30
0.0
 11
449.7696655656165
 21
180.3205080756719
 31
0.0
  0
ARC
  5
194
330
1F
100
AcDbEntity
  8
LAY-10
  6
CONTINUOUS
 62
     7
100
AcDbCircle
 10
398.1683420853429
 20
186.6891108675319
 30
0.0
 40
1.0
100
AcDbArc
 50
3.893359293418281
 51
90.00000000000001
  0
ARC
  5
195
330
1F
100
AcDbEntity
  8
LAY-10
  6
CONTINUOUS
 62
     7
100
AcDbCircle
 10
398.6431260465995
 20
179.7128129210819
 30
0.0
 40
1.0
100
AcDbArc
 50
270.0
 51
3.893359293418281
  0
LINE
  5
196
330
1F
100
AcDbEntity
  8
LAY-10
  6
CONTINUOUS
 62
     7
100
AcDbLine
 10
398.1728937526224
 20
178.7128129210819
 30
0.0
 11
398.6431260465995
 21
178.7128129210819
 31
0.0
  0
ARC
  5
197
330
1F
100
AcDbEntity
  8
LAY-10
  6
CONTINUOUS
 62
     7
100
AcDbCircle
 10
398.1728937526224
 20
179.7128129210819
 30
0.0
 40
1.0
100
AcDbArc
 50
187.4239214835945
 51
270.0
  0
LINE
  5
198
330
1F
100
AcDbEntity
  8
LAY-10
  6
CONTINUOUS
 62
     7
100
AcDbLine
 10
396.2385790699318
 20
186.8183204841609
 30
0.0
 11
397.1812764499443
 21
179.5836033044528
 31
0.0
  0
ARC
  5
199
330
1F
100
AcDbEntity
  8
LAY-10
  6
CONTINUOUS
 62
     7
100
AcDbCircle
 10
395.2469617672538
 20
186.6891108675319
 30
0.0
 40
1.0
100
AcDbArc
 50
7.423921483593686
 51
90.00000000000001
  0
ARC
  5
19A
330
1F
100
AcDbEntity
  8
LAY-10
  6
CONTINUOUS
 62
     7
100
AcDbCircle
 10
396.1791500638851
 20
186.6891108675319
 30
0.0
 40
1.0
100
AcDbArc
 50
90.00000000000001
 51
117.7810564563815
  0
ARC
  5
19B
330
1F
100
AcDbEntity
  8
LAY-10
  6
CONTINUOUS
 62
     7
100
AcDbCircle
 10
413.8722724357784
 20
179.7128129210819
 30
0.0
 40
1.0
100
AcDbArc
 50
188.9579824730496
 51
270.0
  0
LINE
  5
19C
330
1F
100
AcDbEntity
  8
LAY-10
  6
CONTINUOUS
 62
     7
100
AcDbLine
 10
412.7641319414679
 20
180.3205080756719
 30
0.0
 11
414.9183468572062
 21
180.3205080756719
 31
0.0
  0
ARC
  5
19D
330
1F
100
AcDbEntity
  8
LAY-10
  6
CONTINUOUS
 62
     7
100
AcDbCircle
 10
410.7478835211977
 20
186.6891108675319
 30
0.0
 40
1.0
100
AcDbArc
 50
8.957982473049674
 51
90.00000000000001
  0
ARC
  5
19E
330
1F
100
AcDbEntity
  8
LAY-10
  6
CONTINUOUS
 62
     7
100
AcDbCircle
 10
440.5204663399525
 20
186.6891108675319
 30
0.0
 40
1.0
100
AcDbArc
 50
8.122744060158146
 51
90.00000000000001
  0
ARC
  5
19F
330
1F
100
AcDbEntity
  8
LAY-10
  6
CONTINUOUS
 62
     7
100
AcDbCircle
 10
534.7530382327749
 20
186.6891108675319
 30
0.0
 40
1.0
100
AcDbArc
 50
90.00000000000001
 51
172.5760785164059
  0
ARC
  5
1A0
330
1F
100
AcDbEntity
  8
LAY-10
  6
CONTINUOUS
 62
     7
100
AcDbCircle
 10
533.8208499361435
 20
186.6891108675319
 30
0.0
 40
1.0
100
AcDbArc
 50
62.21894354361558
 51
90.00000000000001
  0
LINE
  5
1A1
330
1F
100
AcDbEntity
  8
LAY-10
  6
CONTINUOUS
 62
     7
100
AcDbLine
 10
533.7614209300967
 20
186.8183204841609
 30
0.0
 11
533.0930751818078
 21
181.6891108675319
 31
0.0
  0
ARC
  5
1A2
330
1F
100
AcDbEntity
  8
LAY-10
  6
CONTINUOUS
 62
     7
100
AcDbCircle
 10
515.0816531428223
 20
181.3205080756719
 30
0.0
 40
1.0
100
AcDbArc
 50
190.7961270868504
 51
270.0
  0
ARC
  5
1A3
330
1F
100
AcDbEntity
  8
LAY-10
  6
CONTINUOUS
 62
     7
100
AcDbCircle
 10
511.3619371293989
 20
179.7128129210819
 30
0.0
 40
1.0
100
AcDbArc
 50
180.7118175914326
 51
270.0
  0
LINE
  5
1A4
330
1F
100
AcDbEntity
  8
LAY-10
  6
CONTINUOUS
 62
     7
100
AcDbLine
 10
516.1277275642502
 20
178.7128129210819
 30
0.0
 11
511.3619371293989
 21
178.7128129210819
 31
0.0
  0
ARC
  5
1A5
330
1F
100
AcDbEntity
  8
LAY-10
  6
CONTINUOUS
 62
     7
100
AcDbCircle
 10
516.1277275642502
 20
179.7128129210819
 30
0.0
 40
1.0
100
AcDbArc
 50
270.0
 51
351.0420175269504
  0
LINE
  5
1A6
330
1F
100
AcDbEntity
  8
LAY-10
  6
CONTINUOUS
 62
     7
100
AcDbLine
 10
517.2358680585608
 20
180.3205080756719
 30
0.0
 11
515.0816531428223
 21
180.3205080756719
 31
0.0
  0
ARC
  5
1A7
330
1F
100
AcDbEntity
  8
LAY-10
  6
CONTINUOUS
 62
     7
100
AcDbCircle
 10
480.230334434412
 20
181.3205080756719
 30
0.0
 40
1.0
100
AcDbArc
 50
188.9562712375171
 51
270.0
  0
ARC
  5
1A8
330
1F
100
AcDbEntity
  8
LAY-10
  6
CONTINUOUS
 62
     7
100
AcDbCircle
 10
479.2184893125982
 20
179.7128129210823
 30
0.0
 40
1.0
100
AcDbArc
 50
185.1186691918991
 51
270.0000000000294
  0
LINE
  5
1A9
330
1F
100
AcDbEntity
  8
LAY-10
  6
CONTINUOUS
 62
     7
100
AcDbLine
 10
486.4635658360661
 20
178.712812921086
 30
0.0
 11
479.2184893125986
 21
178.7128129210823
 31
0.0
  0
ARC
  5
1AA
330
1F
100
AcDbEntity
  8
LAY-10
  6
CONTINUOUS
 62
     7
100
AcDbCircle
 10
486.4635658360655
 20
179.712812921086
 30
0.0
 40
1.0
100
AcDbArc
 50
270.0000000000294
 51
351.877255939845
  0
LINE
  5
1AB
330
1F
100
AcDbEntity
  8
LAY-10
  6
CONTINUOUS
 62
     7
100
AcDbLine
 10
487.5604338144855
 20
180.3205080756719
 30
0.0
 11
480.230334434412
 21
180.3205080756719
 31
0.0
  0
ARC
  5
1AC
330
1F
100
AcDbEntity
  8
LAY-10
  6
CONTINUOUS
 62
     7
100
AcDbCircle
 10
489.4795336600761
 20
186.6891108675319
 30
0.0
 40
1.0
100
AcDbArc
 50
90.00000000000001
 51
171.8772559398419
  0
LINE
  5
1AD
330
1F
100
AcDbEntity
  8
LAY-10
  6
CONTINUOUS
 62
     7
100
AcDbLine
 10
473.7889965368785
 20
174.6891108675328
 30
0.0
 11
465.0000000000142
 21
174.6891108675328
 31
0.0
  0
LINE
  5
1AE
330
1F
100
AcDbEntity
  8
LAY-10
  6
CONTINUOUS
 62
     7
100
AcDbLine
 10
417.500000000005
 20
169.6891108675264
 30
0.0
 11
417.2876260716293
 21
173.7414468237739
 31
0.0
  0
ARC
  5
1AF
330
1F
100
AcDbEntity
  8
LAY-10
  6
CONTINUOUS
 62
     7
100
AcDbCircle
 10
416.2889965368747
 20
173.689110867531
 30
0.0
 40
1.0
100
AcDbArc
 50
2.99999999999909
 51
90.00000000000001
  0
LINE
  5
1B0
330
1F
100
AcDbEntity
  8
LAY-10
  6
CONTINUOUS
 62
     7
100
AcDbLine
 10
428.5000000000163
 20
169.6891108675264
 30
0.0
 11
428.712373928392
 21
173.7414468237739
 31
0.0
  0
ARC
  5
1B1
330
1F
100
AcDbEntity
  8
LAY-10
  6
CONTINUOUS
 62
     7
100
AcDbCircle
 10
429.7110034631465
 20
173.689110867531
 30
0.0
 40
1.0
100
AcDbArc
 50
90.00000000000001
 51
177.0000000000009
  0
LINE
  5
1B2
330
1F
100
AcDbEntity
  8
LAY-10
  6
CONTINUOUS
 62
     7
100
AcDbLine
 10
419.0000000000123
 20
181.6891108675316
 30
0.0
 11
400.1599680298619
 21
181.6891108675316
 31
0.0
  0
LINE
  5
1B3
330
1F
100
AcDbEntity
  8
LAY-10
  6
CONTINUOUS
 62
     7
100
AcDbLine
 10
398.1627089603631
 20
183.5844389550456
 30
0.0
 11
398.0000000000279
 21
186.6891108675316
 31
0.0
  0
ARC
  5
1B4
330
1F
100
AcDbEntity
  8
LAY-10
  6
CONTINUOUS
 62
     7
100
AcDbCircle
 10
400.1599680298619
 20
183.6891108675316
 30
0.0
 40
2.0
100
AcDbArc
 50
182.9999999999975
 51
270.0
  0
LINE
  5
1B5
330
1F
100
AcDbEntity
  8
LAY-10
  6
CONTINUOUS
 62
     7
100
AcDbLine
 10
427.0000000000124
 20
181.4891108675311
 30
0.0
 11
427.0000000000124
 21
212.3891108675324
 31
0.0
  0
LINE
  5
1B6
330
1F
100
AcDbEntity
  8
LAY-10
  6
CONTINUOUS
 62
     7
100
AcDbLine
 10
419.0000000000123
 20
181.4891108675311
 30
0.0
 11
419.0000000000123
 21
212.3891108675324
 31
0.0
  0
LINE
  5
1B7
330
1F
100
AcDbEntity
  8
LAY-10
  6
CONTINUOUS
 62
     7
100
AcDbLine
 10
422.2500000000124
 20
212.3891108675324
 30
0.0
 11
419.0000000000123
 21
212.3891108675324
 31
0.0
  0
LINE
  5
1B8
330
1F
100
AcDbEntity
  8
LAY-10
  6
CONTINUOUS
 62
     7
100
AcDbLine
 10
422.2500000000124
 20
212.8891108675286
 30
0.0
 11
419.5000000000128
 21
212.8891108675286
 31
0.0
  0
LINE
  5
1B9
330
1F
100
AcDbEntity
  8
LAY-10
  6
CONTINUOUS
 62
     7
100
AcDbLine
 10
422.2500000000124
 20
210.3891108675322
 30
0.0
 11
422.2500000000124
 21
212.8891108675286
 31
0.0
  0
LINE
  5
1BA
330
1F
100
AcDbEntity
  8
LAY-10
  6
CONTINUOUS
 62
     7
100
AcDbLine
 10
423.7500000000128
 20
210.3891108675322
 30
0.0
 11
422.2500000000124
 21
210.3891108675322
 31
0.0
  0
LINE
  5
1BB
330
1F
100
AcDbEntity
  8
LAY-10
  6
CONTINUOUS
 62
     7
100
AcDbLine
 10
423.7500000000128
 20
210.3891108675322
 30
0.0
 11
423.7500000000128
 21
212.8891108675286
 31
0.0
  0
LINE
  5
1BC
330
1F
100
AcDbEntity
  8
LAY-10
  6
CONTINUOUS
 62
     7
100
AcDbLine
 10
427.0000000000124
 20
212.3891108675324
 30
0.0
 11
423.7500000000128
 21
212.3891108675324
 31
0.0
  0
LINE
  5
1BD
330
1F
100
AcDbEntity
  8
LAY-10
  6
CONTINUOUS
 62
     7
100
AcDbLine
 10
426.5000000000123
 20
212.8891108675286
 30
0.0
 11
423.7500000000128
 21
212.8891108675286
 31
0.0
  0
LINE
  5
1BE
330
1F
100
AcDbEntity
  8
LAY-10
  6
CONTINUOUS
 62
     7
100
AcDbLine
 10
427.0000000000124
 20
212.3891108675324
 30
0.0
 11
426.5000000000123
 21
212.8891108675286
 31
0.0
  0
LINE
  5
1BF
330
1F
100
AcDbEntity
  8
LAY-10
  6
CONTINUOUS
 62
     7
100
AcDbLine
 10
419.5000000000128
 20
212.8891108675286
 30
0.0
 11
419.0000000000123
 21
212.3891108675324
 31
0.0
  0
ARC
  5
1C0
330
1F
100
AcDbEntity
  8
LAY-10
  6
CONTINUOUS
 62
     7
100
AcDbCircle
 10
423.0000000000124
 20
170.4199237017557
 30
0.0
 40
11.06918716577541
100
AcDbArc
 50
68.81604434177365
 51
111.1839556582282
  0
LINE
  5
1C1
330
1F
100
AcDbEntity
  8
LAY-10
  6
CONTINUOUS
 62
     7
100
AcDbLine
 10
417.0000000000124
 20
181.4891108675311
 30
0.0
 11
429.0000000000124
 21
181.4891108675311
 31
0.0
  0
ARC
  5
1C2
330
1F
100
AcDbEntity
  8
LAY-10
  6
CONTINUOUS
 62
     7
100
AcDbCircle
 10
530.7500000000115
 20
189.074860166931
 30
0.0
 40
3.500000000000002
100
AcDbArc
 50
1.870641730592451
 51
51.31781254649183
  0
ARC
  5
1C3
330
1F
100
AcDbEntity
  8
LAY-10
  6
CONTINUOUS
 62
     7
100
AcDbCircle
 10
527.2500000000119
 20
189.074860166931
 30
0.0
 40
3.500000000000002
100
AcDbArc
 50
128.6821874535082
 51
178.1293582693964
  0
LINE
  5
1C4
330
1F
100
AcDbEntity
  8
LAY-10
  6
CONTINUOUS
 62
     7
100
AcDbLine
 10
528.4000000000116
 20
193.1604743556313
 30
0.0
 11
528.4000000000116
 21
190.6891108675313
 31
0.0
  0
LINE
  5
1C5
330
1F
100
AcDbEntity
  8
LAY-10
  6
CONTINUOUS
 62
     7
100
AcDbLine
 10
528.4000000000116
 20
190.6891108675313
 30
0.0
 11
529.6000000000118
 21
190.6891108675313
 31
0.0
  0
LINE
  5
1C6
330
1F
100
AcDbEntity
  8
LAY-10
  6
CONTINUOUS
 62
     7
100
AcDbLine
 10
529.6000000000118
 20
193.1604743556313
 30
0.0
 11
529.6000000000118
 21
190.6891108675313
 31
0.0
  0
ARC
  5
1C7
330
1F
100
AcDbEntity
  8
LAY-10
  6
CONTINUOUS
 62
     7
100
AcDbCircle
 10
529.0000000000124
 20
186.8891108675313
 30
0.0
 40
6.300000000000002
100
AcDbArc
 50
95.4650237999009
 51
128.6821874535055
  0
ARC
  5
1C8
330
1F
100
AcDbEntity
  8
LAY-10
  6
CONTINUOUS
 62
     7
100
AcDbCircle
 10
529.0000000000124
 20
186.8891108675313
 30
0.0
 40
6.300000000000002
100
AcDbArc
 50
51.31781254651062
 51
84.53497620009915
  0
LINE
  5
1C9
330
1F
100
AcDbEntity
  8
LAY-10
  6
CONTINUOUS
 62
     7
100
AcDbLine
 10
531.5000000000115
 20
177.1891108675332
 30
0.0
 11
532.0000000000124
 21
177.6891108675331
 31
0.0
  0
LINE
  5
1CA
330
1F
100
AcDbEntity
  8
LAY-10
  6
CONTINUOUS
 62
     7
100
AcDbLine
 10
526.5000000000119
 20
177.1891108675332
 30
0.0
 11
526.0000000000124
 21
177.6891108675331
 31
0.0
  0
LINE
  5
1CB
330
1F
100
AcDbEntity
  8
LAY-10
  6
CONTINUOUS
 62
     7
100
AcDbLine
 10
532.0000000000124
 20
189.1891108675313
 30
0.0
 11
532.0000000000124
 21
177.6891108675331
 31
0.0
  0
LINE
  5
1CC
330
1F
100
AcDbEntity
  8
LAY-10
  6
CONTINUOUS
 62
     7
100
AcDbLine
 10
531.5000000000115
 20
177.1891108675332
 30
0.0
 11
526.5000000000119
 21
177.1891108675332
 31
0.0
  0
LINE
  5
1CD
330
1F
100
AcDbEntity
  8
LAY-10
  6
CONTINUOUS
 62
     7
100
AcDbLine
 10
526.0000000000124
 20
189.1891108675313
 30
0.0
 11
526.0000000000124
 21
177.6891108675331
 31
0.0
  0
LINE
  5
1CE
330
1F
100
AcDbEntity
  8
LAY-10
  6
CONTINUOUS
 62
     7
100
AcDbLine
 10
526.0000000000124
 20
177.6891108675331
 30
0.0
 11
532.0000000000124
 21
177.6891108675331
 31
0.0
  0
ARC
  5
1CF
330
1F
100
AcDbEntity
  8
LAY-10
  6
CONTINUOUS
 62
     7
100
AcDbCircle
 10
465.0000000000092
 20
263.6692291071718
 30
0.0
 40
38.01988176035992
100
AcDbArc
 50
9.999999999998742
 51
170.0000000000018
  0
ARC
  5
1D0
330
1F
100
AcDbEntity
  8
LAY-10
  6
CONTINUOUS
 62
     7
100
AcDbCircle
 10
465.0000000000092
 20
263.6692291071718
 30
0.0
 40
34.01988176035997
100
AcDbArc
 50
9.99999999999834
 51
170.0000000000016
  0
LINE
  5
1D1
330
1F
100
AcDbEntity
  8
LAY-10
  6
CONTINUOUS
 62
     7
100
AcDbLine
 10
442.5000000000092
 20
289.1859364768321
 30
0.0
 11
443.5000000000083
 21
295.0262284704997
 31
0.0
  0
LINE
  5
1D2
330
1F
100
AcDbEntity
  8
LAY-10
  6
CONTINUOUS
 62
     7
100
AcDbLine
 10
487.3978099323123
 20
294.3913631363718
 30
0.0
 11
488.8173944559122
 21
287.9608753321717
 31
0.0
  0
LINE
  5
1D3
330
1F
100
AcDbEntity
  8
LAY-10
  6
CONTINUOUS
 62
     7
100
AcDbLine
 10
516.7392540922311
 20
189.189110867532
 30
0.0
 11
502.442274326219
 21
270.2713122899693
 31
0.0
  0
ARC
  5
1D4
330
1F
100
AcDbEntity
  8
LAY-10
  6
CONTINUOUS
 62
     7
100
AcDbCircle
 10
417.0000000000124
 20
178.4413140760873
 30
0.0
 40
3.047796791443853
100
AcDbArc
 50
48.98840640770953
 51
131.0115935922989
  0
LINE
  5
1D5
330
1F
100
AcDbEntity
  8
LAY-10
  6
CONTINUOUS
 62
     7
100
AcDbLine
 10
415.0000000000124
 20
174.6891108675312
 30
0.0
 11
415.0000000000124
 21
180.7411108675312
 31
0.0
  0
LINE
  5
1D6
330
1F
100
AcDbEntity
  8
LAY-10
  6
CONTINUOUS
 62
     7
100
AcDbLine
 10
419.0000000000123
 20
174.6891108675312
 30
0.0
 11
419.0000000000123
 21
180.7411108675312
 31
0.0
  0
LINE
  5
1D7
330
1F
100
AcDbEntity
  8
LAY-10
  6
CONTINUOUS
 62
     7
100
AcDbLine
 10
419.0000000000123
 20
198.7029563263624
 30
0.0
 11
416.0000000000169
 21
181.6891108675316
 31
0.0
  0
LINE
  5
1D8
330
1F
100
AcDbEntity
  8
LAY-10
  6
CONTINUOUS
 62
     7
100
AcDbLine
 10
431.0000000000123
 20
174.6891108675312
 30
0.0
 11
431.0000000000123
 21
180.7411108675312
 31
0.0
  0
ARC
  5
1D9
330
1F
100
AcDbEntity
  8
LAY-10
  6
CONTINUOUS
 62
     7
100
AcDbCircle
 10
429.0000000000124
 20
178.4413140760873
 30
0.0
 40
3.047796791443853
100
AcDbArc
 50
48.98840640770879
 51
131.0115935922965
  0
LINE
  5
1DA
330
1F
100
AcDbEntity
  8
LAY-10
  6
CONTINUOUS
 62
     7
100
AcDbLine
 10
427.0000000000124
 20
174.6891108675312
 30
0.0
 11
427.0000000000124
 21
180.7411108675312
 31
0.0
  0
LINE
  5
1DB
330
1F
100
AcDbEntity
  8
LAY-10
  6
CONTINUOUS
 62
     7
100
AcDbLine
 10
512.6775476446879
 20
189.189110867532
 30
0.0
 11
532.000000000011
 21
189.189110867532
 31
0.0
  0
LINE
  5
1DC
330
1F
100
AcDbEntity
  8
LAY-10
  6
CONTINUOUS
 62
     7
100
AcDbLine
 10
529.9633007412068
 20
181.7053423574603
 30
0.0
 11
529.9619608256472
 21
181.6891108675314
 31
0.0
  0
LINE
  5
1DD
330
1F
100
AcDbEntity
  8
LAY-10
  6
CONTINUOUS
 62
     7
100
AcDbLine
 10
523.7518652431119
 20
189.1891108675313
 30
0.0
 11
534.2481347569116
 21
189.1891108675313
 31
0.0
  0
LINE
  5
1DE
330
1F
100
AcDbEntity
  8
LAY-10
  6
CONTINUOUS
 62
     7
100
AcDbLine
 10
520.2062715914659
 20
183.5844389550459
 30
0.0
 11
520.5000000000092
 21
189.189110867532
 31
0.0
  0
ARC
  5
1DF
330
1F
100
AcDbEntity
  8
LAY-10
  6
CONTINUOUS
 62
     7
100
AcDbCircle
 10
518.2090125219571
 20
183.6891108675316
 30
0.0
 40
2.0
100
AcDbArc
 50
270.0
 51
357.0000000000025
  0
LINE
  5
1E0
330
1F
100
AcDbEntity
  8
LAY-10
  6
CONTINUOUS
 62
     7
100
AcDbLine
 10
412.819928456016
 20
186.6891108675316
 30
0.0
 11
427.5577256737992
 21
270.2713122899713
 31
0.0
  0
LINE
  5
1E1
330
1F
100
AcDbEntity
  8
LAY-10
  6
CONTINUOUS
 62
     7
100
AcDbLine
 10
431.4969566858481
 20
269.5767195793015
 30
0.0
 11
421.5014017981188
 21
212.8891108675286
 31
0.0
  0
LINE
  5
1E2
330
1F
100
AcDbEntity
  8
LAY-10
  6
CONTINUOUS
 62
     7
100
AcDbLine
 10
469.0000000000109
 20
174.6891108675307
 30
0.0
 11
469.0000000000109
 21
180.7411108675307
 31
0.0
  0
LINE
  5
1E3
330
1F
100
AcDbEntity
  8
LAY-10
  6
CONTINUOUS
 62
     7
100
AcDbLine
 10
469.0000000000109
 20
181.4891108675307
 30
0.0
 11
469.0000000000109
 21
211.8891108675322
 31
0.0
  0
LINE
  5
1E4
330
1F
100
AcDbEntity
  8
LAY-10
  6
CONTINUOUS
 62
     7
100
AcDbLine
 10
468.5000000000113
 20
212.3891108675283
 30
0.0
 11
465.7500000000118
 21
212.3891108675283
 31
0.0
  0
LINE
  5
1E5
330
1F
100
AcDbEntity
  8
LAY-10
  6
CONTINUOUS
 62
     7
100
AcDbLine
 10
469.0000000000109
 20
211.8891108675322
 30
0.0
 11
468.5000000000113
 21
212.3891108675283
 31
0.0
  0
LINE
  5
1E6
330
1F
100
AcDbEntity
  8
LAY-10
  6
CONTINUOUS
 62
     7
100
AcDbLine
 10
469.0000000000109
 20
211.8891108675322
 30
0.0
 11
465.7500000000118
 21
211.8891108675322
 31
0.0
  0
LINE
  5
1E7
330
1F
100
AcDbEntity
  8
LAY-10
  6
CONTINUOUS
 62
     7
100
AcDbLine
 10
465.7500000000118
 20
209.889110867532
 30
0.0
 11
465.7500000000118
 21
212.3891108675283
 31
0.0
  0
LINE
  5
1E8
330
1F
100
AcDbEntity
  8
LAY-10
  6
CONTINUOUS
 62
     7
100
AcDbLine
 10
465.7500000000118
 20
209.889110867532
 30
0.0
 11
465.0000000000131
 21
209.889110867532
 31
0.0
  0
ARC
  5
1E9
330
1F
100
AcDbEntity
  8
LAY-10
  6
CONTINUOUS
 62
     7
100
AcDbCircle
 10
478.1652996263384
 20
285.7702312217787
 30
0.0
 40
3.415705255051025
100
AcDbArc
 50
4.818333684639305
 51
182.8342623911503
  0
ARC
  5
1EA
330
1F
100
AcDbEntity
  8
LAY-10
  6
CONTINUOUS
 62
     7
100
AcDbCircle
 10
488.9429009441734
 20
286.7087094297594
 30
0.0
 40
2.477227047075645
100
AcDbArc
 50
117.2606041740519
 51
186.2486766479498
  0
ARC
  5
1EB
330
1F
100
AcDbEntity
  8
LAY-10
  6
CONTINUOUS
 62
     7
100
AcDbCircle
 10
479.1665243775079
 20
285.7702312217787
 30
0.0
 40
3.415705255051025
100
AcDbArc
 50
98.42773793018513
 51
182.8342623911503
  0
ARC
  5
1EC
330
1F
100
AcDbEntity
  8
LAY-10
  6
CONTINUOUS
 62
     7
100
AcDbCircle
 10
490.9548542556855
 20
286.7087094297594
 30
0.0
 40
2.477227047075645
100
AcDbArc
 50
149.6373908309731
 51
186.2486766479538
  0
LINE
  5
1ED
330
1F
100
AcDbEntity
  8
LAY-10
  6
CONTINUOUS
 62
     7
100
AcDbLine
 10
509.5515574446662
 20
186.6891108675318
 30
0.0
 11
494.1097239500829
 21
281.2753736748888
 31
0.0
  0
LINE
  5
1EE
330
1F
100
AcDbEntity
  8
LAY-10
  6
CONTINUOUS
 62
     7
100
AcDbLine
 10
504.9426699865343
 20
186.6891108675318
 30
0.0
 11
491.7081589049159
 21
284.7411678622818
 31
0.0
  0
LINE
  5
1EF
330
1F
100
AcDbEntity
  8
LAY-10
  6
CONTINUOUS
 62
     7
100
AcDbLine
 10
488.4923447800385
 20
286.4390783389869
 30
0.0
 11
499.4144113953584
 21
186.6891108675318
 31
0.0
  0
LINE
  5
1F0
330
1F
100
AcDbEntity
  8
LAY-10
  6
CONTINUOUS
 62
     7
100
AcDbLine
 10
497.402458083849
 20
186.6891108675318
 30
0.0
 11
486.4803914685291
 21
286.4390783389868
 31
0.0
  0
LINE
  5
1F1
330
1F
100
AcDbEntity
  8
LAY-10
  6
CONTINUOUS
 62
     7
100
AcDbLine
 10
489.945121526267
 20
186.6891108675318
 30
0.0
 11
481.5689338908302
 21
286.0571391913006
 31
0.0
  0
LINE
  5
1F2
330
1F
100
AcDbEntity
  8
LAY-10
  6
CONTINUOUS
 62
     7
100
AcDbLine
 10
480.6519041044139
 20
186.6891108675318
 30
0.0
 11
475.7549973941174
 21
285.6013347120451
 31
0.0
  0
LINE
  5
1F3
330
1F
100
AcDbEntity
  8
LAY-10
  6
CONTINUOUS
 62
     7
100
AcDbLine
 10
479.6506793532444
 20
186.6891108675318
 30
0.0
 11
474.7537726429479
 21
285.6013347120451
 31
0.0
  0
LINE
  5
1F4
330
1F
100
AcDbEntity
  8
LAY-10
  6
CONTINUOUS
 62
     7
100
AcDbLine
 10
470.6343349347948
 20
186.6891108675318
 30
0.0
 11
468.7529480781851
 21
285.5037626857934
 31
0.0
  0
LINE
  5
1F5
330
1F
100
AcDbEntity
  8
LAY-10
  6
CONTINUOUS
 62
     7
100
AcDbLine
 10
489.945121526267
 20
186.6891108675318
 30
0.0
 11
479.6506793532444
 21
186.6891108675318
 31
0.0
  0
LINE
  5
1F6
330
1F
100
AcDbEntity
  8
LAY-10
  6
CONTINUOUS
 62
     7
100
AcDbLine
 10
504.9426699865343
 20
186.6891108675318
 30
0.0
 11
497.402458083849
 21
186.6891108675318
 31
0.0
  0
ARC
  5
1F7
330
1F
100
AcDbEntity
  8
LAY-10
  6
CONTINUOUS
 62
     7
100
AcDbCircle
 10
471.0000000000111
 20
178.4413140760868
 30
0.0
 40
3.047796791443853
100
AcDbArc
 50
48.98840640769927
 51
131.0115935922973
  0
ARC
  5
1F8
330
1F
100
AcDbEntity
  8
LAY-10
  6
CONTINUOUS
 62
     7
100
AcDbCircle
 10
465.0000000000111
 20
170.4199237017553
 30
0.0
 40
11.06918716577541
100
AcDbArc
 50
68.81604434177365
 51
90.00000000000001
  0
LINE
  5
1F9
330
1F
100
AcDbEntity
  8
LAY-10
  6
CONTINUOUS
 62
     7
100
AcDbLine
 10
465.0000000000131
 20
181.4891108675307
 30
0.0
 11
471.0000000000111
 21
181.4891108675307
 31
0.0
  0
LINE
  5
1FA
330
1F
100
AcDbEntity
  8
LAY-10
  6
CONTINUOUS
 62
     7
100
AcDbLine
 10
470.6343349347948
 20
186.6891108675318
 30
0.0
 11
469.0000000000109
 21
186.6891108675318
 31
0.0
  0
LINE
  5
1FB
330
1F
100
AcDbEntity
  8
LAY-10
  6
CONTINUOUS
 62
     7
100
AcDbLine
 10
509.5515574446662
 20
186.6891108675318
 30
0.0
 11
513.1183650964585
 21
186.6891108675318
 31
0.0
  0
LINE
  5
1FC
330
1F
100
AcDbEntity
  8
LAY-10
  6
CONTINUOUS
 62
     7
100
AcDbLine
 10
473.0000000000113
 20
174.6891108675307
 30
0.0
 11
473.0000000000113
 21
180.7411108675307
 31
0.0
  0
ARC
  5
1FD
330
1F
100
AcDbEntity
  8
LAY-10
  6
CONTINUOUS
 62
     7
100
AcDbCircle
 10
465.0000000000092
 20
285.4323082298208
 30
0.0
 40
3.753628247008922
100
AcDbArc
 50
1.090754274856607
 51
90.00000000000001
  0
LINE
  5
1FE
330
1F
100
AcDbEntity
  8
LAY-10
  6
CONTINUOUS
 62
     7
100
AcDbLine
 10
465.0000000000226
 20
186.6891108675317
 30
0.0
 11
454.3086090470224
 21
186.6891108675317
 31
0.0
  0
LINE
  5
1FF
330
1F
100
AcDbEntity
  8
LAY-10
  6
CONTINUOUS
 62
     7
100
AcDbLine
 10
459.4935265783134
 20
286.4477984281285
 30
0.0
 11
454.3086090470224
 21
186.6891108675317
 31
0.0
  0
ARC
  5
200
330
1F
100
AcDbEntity
  8
LAY-10
  6
CONTINUOUS
 62
     7
100
AcDbCircle
 10
462.3776740994221
 20
286.2978960245313
 30
0.0
 40
2.888040452300402
100
AcDbArc
 50
24.77028904840177
 51
177.0247521232091
  0
LINE
  5
201
330
1F
100
AcDbEntity
  8
LAY-10
  6
CONTINUOUS
 62
     7
100
AcDbLine
 10
454.9601595587795
 20
286.4346334064509
 30
0.0
 11
445.5419841472227
 21
186.6891108675317
 31
0.0
  0
ARC
  5
202
330
1F
100
AcDbEntity
  8
LAY-10
  6
CONTINUOUS
 62
     7
100
AcDbCircle
 10
452.4564026935221
 20
286.6710432296155
 30
0.0
 40
2.514893247199667
100
AcDbArc
 50
354.6060079407193
 51
171.9539622843412
  0
LINE
  5
203
330
1F
100
AcDbEntity
  8
LAY-10
  6
CONTINUOUS
 62
     7
100
AcDbLine
 10
453.6973456298791
 20
286.4346334064509
 30
0.0
 11
444.2791702183223
 21
186.6891108675317
 31
0.0
  0
ARC
  5
204
330
1F
100
AcDbEntity
  8
LAY-10
  6
CONTINUOUS
 62
     7
100
AcDbCircle
 10
451.1935887646217
 20
286.6710432296155
 30
0.0
 40
2.514893247199667
100
AcDbArc
 50
354.6060079407193
 51
75.4593331199581
  0
LINE
  5
205
330
1F
100
AcDbEntity
  8
LAY-10
  6
CONTINUOUS
 62
     7
100
AcDbLine
 10
449.9662662512525
 20
287.0230496836604
 30
0.0
 11
435.7830297733226
 21
186.6891108675317
 31
0.0
  0
LINE
  5
206
330
1F
100
AcDbEntity
  8
LAY-10
  6
CONTINUOUS
 62
     7
100
AcDbLine
 10
445.5419841472227
 20
186.6891108675317
 30
0.0
 11
435.7830297733226
 21
186.6891108675317
 31
0.0
  0
LINE
  5
207
330
1F
100
AcDbEntity
  8
LAY-10
  6
CONTINUOUS
 62
     7
100
AcDbLine
 10
446.3857599656257
 20
287.1869827712727
 30
0.0
 11
428.9328880418226
 21
186.6891108675317
 31
0.0
  0
ARC
  5
208
330
1F
100
AcDbEntity
  8
LAY-10
  6
CONTINUOUS
 62
     7
100
AcDbCircle
 10
444.7040332169727
 20
287.4790383242817
 30
0.0
 40
1.706898152550025
100
AcDbArc
 50
350.1480386124284
 51
168.4201081280056
  0
ARC
  5
209
330
1F
100
AcDbEntity
  8
LAY-10
  6
CONTINUOUS
 62
     7
100
AcDbCircle
 10
442.3632985963727
 20
287.4790383242817
 30
0.0
 40
1.706898152550025
100
AcDbArc
 50
350.1480386124284
 51
46.71174963343786
  0
LINE
  5
20A
330
1F
100
AcDbEntity
  8
LAY-10
  6
CONTINUOUS
 62
     7
100
AcDbLine
 10
443.0318776821828
 20
287.8216710294486
 30
0.0
 11
427.0028115119424
 21
209.5947787629279
 31
0.0
  0
LINE
  5
20B
330
1F
100
AcDbEntity
  8
LAY-10
  6
CONTINUOUS
 62
     7
100
AcDbLine
 10
428.9328880418226
 20
186.6891108675317
 30
0.0
 11
427.0028115119424
 21
186.6891108675317
 31
0.0
  0
LINE
  5
20C
330
1F
100
AcDbEntity
  8
LAY-10
  6
CONTINUOUS
 62
     7
100
AcDbLine
 10
444.0450253450257
 20
287.1869827712727
 30
0.0
 11
427.0028115119424
 21
189.0537798101313
 31
0.0
  0
LINE
  5
20D
330
1F
100
AcDbEntity
  8
LAY-10
  6
CONTINUOUS
 62
     7
100
AcDbLine
 10
419.0028115119524
 20
188.692148167757
 30
0.0
 11
418.5601232535326
 21
186.6891108675307
 31
0.0
  0
LINE
  5
20E
330
1F
100
AcDbEntity
  8
LAY-10
  6
CONTINUOUS
 62
     7
100
AcDbLine
 10
418.560123253536
 20
186.6891108675316
 30
0.0
 11
398.0000000000279
 21
186.6891108675316
 31
0.0
  0
LINE
  5
20F
330
1F
100
AcDbEntity
  8
LAY-10
  6
CONTINUOUS
 62
     7
100
AcDbLine
 10
440.8743987078091
 20
287.654802214316
 30
0.0
 11
424.3505458129463
 21
212.8891108675286
 31
0.0
  0
LINE
  5
210
330
1F
100
AcDbEntity
  8
LAY-10
  6
CONTINUOUS
 62
     7
100
AcDbLine
 10
399.1660342405988
 20
186.7570105239432
 30
0.0
 11
399.1706552685547
 21
186.6891108675316
 31
0.0
  0
LINE
  5
211
330
1F
100
AcDbEntity
  8
LAY-10
  6
CONTINUOUS
 62
     7
100
AcDbLine
 10
399.5033952248737
 20
181.7999544018703
 30
0.0
 11
399.6408182018555
 21
179.7807125774932
 31
0.0
  0
LINE
  5
212
330
1F
100
AcDbEntity
  8
LAY-10
  6
CONTINUOUS
 62
     7
100
AcDbLine
 10
411.7356863165022
 20
186.8448209750674
 30
0.0
 11
411.7602313347022
 21
186.6891108675316
 31
0.0
  0
LINE
  5
213
330
1F
100
AcDbEntity
  8
LAY-10
  6
CONTINUOUS
 62
     7
100
AcDbLine
 10
412.5483952692223
 20
181.6891108675316
 30
0.0
 11
412.8844696404739
 21
179.5571028135464
 31
0.0
  0
LINE
  5
214
330
1F
100
AcDbEntity
  8
LAY-10
  6
CONTINUOUS
 62
     7
100
AcDbLine
 10
413.8722724357784
 20
178.7128129210819
 30
0.0
 11
415.0000000000124
 21
178.7128129210819
 31
0.0
  0
ARC
  5
215
330
1F
100
AcDbEntity
  8
LAY-10
  6
CONTINUOUS
 62
     7
100
AcDbCircle
 10
414.9183468572062
 20
181.3205080756719
 30
0.0
 40
1.0
100
AcDbArc
 50
270.0
 51
274.6835947704475
  0
LINE
  5
216
330
1F
100
AcDbEntity
  8
LAY-10
  6
CONTINUOUS
 62
     7
100
AcDbLine
 10
441.5104339876935
 20
186.8304050868966
 30
0.0
 11
441.530600360273
 21
186.6891108675317
 31
0.0
  0
LINE
  5
217
330
1F
100
AcDbEntity
  8
LAY-10
  6
CONTINUOUS
 62
     7
100
AcDbLine
 10
442.2442308495476
 20
181.6891108675316
 30
0.0
 11
442.5464665162219
 21
179.5715187017213
 31
0.0
  0
LINE
  5
218
330
1F
100
AcDbEntity
  8
LAY-10
  6
CONTINUOUS
 62
     7
100
AcDbLine
 10
450.8401012163877
 20
181.6891108675316
 30
0.0
 11
450.7574730110265
 21
181.16482747061
 31
0.0
  0
LINE
  5
219
330
1F
100
AcDbEntity
  8
LAY-10
  6
CONTINUOUS
 62
     7
100
AcDbLine
 10
451.9625436031336
 20
181.6891108675316
 30
0.0
 11
451.7775227347494
 21
179.6235940800481
 31
0.0
  0
LINE
  5
21A
330
1F
100
AcDbEntity
  8
LAY-10
  6
CONTINUOUS
 62
     7
100
AcDbLine
 10
427.0000000000124
 20
187.6891108675319
 30
0.0
 11
429.1065521363272
 21
187.6891108675319
 31
0.0
  0
LINE
  5
21B
330
1F
100
AcDbEntity
  8
LAY-10
  6
CONTINUOUS
 62
     7
100
AcDbLine
 10
357.5000000000081
 20
187.6891108675319
 30
0.0
 11
412.9962554367245
 21
187.6891108675319
 31
0.0
  0
LINE
  5
21C
330
1F
100
AcDbEntity
  8
LAY-10
  6
CONTINUOUS
 62
     7
100
AcDbLine
 10
435.9243900811634
 20
187.6891108675319
 30
0.0
 11
444.3735922552401
 21
187.6891108675319
 31
0.0
  0
LINE
  5
21D
330
1F
100
AcDbEntity
  8
LAY-10
  6
CONTINUOUS
 62
     7
100
AcDbLine
 10
454.3605836435019
 20
187.6891108675319
 30
0.0
 11
465.0000000000142
 21
187.6891108675319
 31
0.0
  0
LINE
  5
21E
330
1F
100
AcDbEntity
  8
LAY-10
  6
CONTINUOUS
 62
     7
100
AcDbLine
 10
465.0000000000142
 20
181.6891108675316
 30
0.0
 11
427.0000000000124
 21
181.6891108675316
 31
0.0
  0
LINE
  5
21F
330
1F
100
AcDbEntity
  8
LAY-10
  6
CONTINUOUS
 62
     7
100
AcDbLine
 10
526.0000000000124
 20
181.6891108675315
 30
0.0
 11
469.0000000000109
 21
181.6891108675316
 31
0.0
  0
LINE
  5
220
330
1F
100
AcDbEntity
  8
LAY-10
  6
CONTINUOUS
 62
     7
100
AcDbLine
 10
469.0000000000109
 20
187.6891108675319
 30
0.0
 11
470.6152953812268
 21
187.6891108675319
 31
0.0
  0
LINE
  5
221
330
1F
100
AcDbEntity
  8
LAY-10
  6
CONTINUOUS
 62
     7
100
AcDbLine
 10
479.1598987836409
 20
181.6891108675316
 30
0.0
 11
479.242526989002
 21
181.16482747061
 31
0.0
  0
LINE
  5
222
330
1F
100
AcDbEntity
  8
LAY-10
  6
CONTINUOUS
 62
     7
100
AcDbLine
 10
478.037456396895
 20
181.6891108675316
 30
0.0
 11
478.2224772652792
 21
179.6235940800481
 31
0.0
  0
LINE
  5
223
330
1F
100
AcDbEntity
  8
LAY-10
  6
CONTINUOUS
 62
     7
100
AcDbLine
 10
488.489566012335
 20
186.8304050868966
 30
0.0
 11
488.4693996397556
 21
186.6891108675318
 31
0.0
  0
LINE
  5
224
330
1F
100
AcDbEntity
  8
LAY-10
  6
CONTINUOUS
 62
     7
100
AcDbLine
 10
487.7557691504809
 20
181.6891108675316
 30
0.0
 11
487.4535334838067
 21
179.5715187017213
 31
0.0
  0
LINE
  5
225
330
1F
100
AcDbEntity
  8
LAY-10
  6
CONTINUOUS
 62
     7
100
AcDbLine
 10
480.6023965054543
 20
187.6891108675319
 30
0.0
 11
489.860826931952
 21
187.6891108675319
 31
0.0
  0
LINE
  5
226
330
1F
100
AcDbEntity
  8
LAY-10
  6
CONTINUOUS
 62
     7
100
AcDbLine
 10
499.3049169574937
 20
187.6891108675319
 30
0.0
 11
504.8076956526218
 21
187.6891108675319
 31
0.0
  0
LINE
  5
227
330
1F
100
AcDbEntity
  8
LAY-10
  6
CONTINUOUS
 62
     7
100
AcDbLine
 10
510.3373060313474
 20
181.6891108675315
 30
0.0
 11
510.3620143008359
 21
179.7003896800207
 31
0.0
  0
LINE
  5
228
330
1F
100
AcDbEntity
  8
LAY-10
  6
CONTINUOUS
 62
     7
100
AcDbLine
 10
513.9933451980645
 20
181.6891108675315
 30
0.0
 11
514.0993532282816
 21
181.1331931593055
 31
0.0
  0
LINE
  5
229
330
1F
100
AcDbEntity
  8
LAY-10
  6
CONTINUOUS
 62
     7
100
AcDbLine
 10
517.4516047308061
 20
181.6891108675315
 30
0.0
 11
517.1155303595547
 21
179.5571028135464
 31
0.0
  0
LINE
  5
22A
330
1F
100
AcDbEntity
  8
LAY-10
  6
CONTINUOUS
 62
     7
100
AcDbLine
 10
498.5030433141707
 20
269.5767195793018
 30
0.0
 11
513.1183650964592
 21
186.6891108675318
 31
0.0
  0
LINE
  5
22B
330
1F
100
AcDbEntity
  8
LAY-10
  6
CONTINUOUS
 62
     7
100
AcDbLine
 10
532.0000000000124
 20
187.6891108675319
 30
0.0
 11
572.5000000000181
 21
187.6891108675319
 31
0.0
  0
LINE
  5
22C
330
1F
100
AcDbEntity
  8
LAY-10
  6
CONTINUOUS
 62
     7
100
AcDbLine
 10
526.5000000000181
 20
181.6891108675319
 30
0.0
 11
520.4489645667328
 21
181.6891108675319
 31
0.0
  0
LINE
  5
22D
330
1F
100
AcDbEntity
  8
LAY-10
  6
CONTINUOUS
 62
     7
100
AcDbLine
 10
533.4367911453634
 20
181.6891108675319
 30
0.0
 11
531.5000000000115
 21
181.6891108675319
 31
0.0
  0
LINE
  5
22E
330
1F
100
AcDbEntity
  8
LAY-10
  6
CONTINUOUS
 62
     7
100
AcDbLine
 10
419.000000000006
 20
161.7352761803998
 30
0.0
 11
419.000000000006
 21
174.68911086753
 31
0.0
  0
LINE
  5
22F
330
1F
100
AcDbEntity
  8
LAY-10
  6
CONTINUOUS
 62
     7
100
AcDbLine
 10
427.000000000006
 20
161.7352761803998
 30
0.0
 11
427.000000000006
 21
174.68911086753
 31
0.0
  0
LINE
  5
230
330
1F
100
AcDbEntity
  8
LAY-10
  6
CONTINUOUS
 62
     7
100
AcDbLine
 10
419.000000000006
 20
169.6891108675319
 30
0.0
 11
414.222101315588
 21
169.6891108675319
 31
0.0
  0
LINE
  5
231
330
1F
100
AcDbEntity
  8
LAY-10
  6
CONTINUOUS
 62
     7
100
AcDbLine
 10
515.777898684438
 20
169.6891108675319
 30
0.0
 11
427.000000000006
 21
169.6891108675319
 31
0.0
  0
LINE
  5
232
330
1F
100
AcDbEntity
  8
LAY-10
  6
CONTINUOUS
 62
     7
100
AcDbLine
 10
469.0000000000099
 20
167.0172625371703
 30
0.0
 11
469.0000000000099
 21
169.6891108675319
 31
0.0
  0
LINE
  5
233
330
1F
100
AcDbEntity
  8
LAY-10
  6
CONTINUOUS
 62
     7
100
AcDbLine
 10
468.5000000000101
 20
169.68911086753
 30
0.0
 11
468.5000000000101
 21
167.01726253717
 31
0.0
  0
LINE
  5
234
330
1F
100
AcDbEntity
  8
LAY-10
  6
CONTINUOUS
 62
     7
100
AcDbLine
 10
621.500000000006
 20
198.0172625371699
 30
0.0
 11
515.1826127630877
 21
198.0172625371699
 31
0.0
  0
LINE
  5
235
330
1F
100
AcDbEntity
  8
LAY-10
  6
CONTINUOUS
 62
     7
100
AcDbLine
 10
414.8173872369305
 20
198.0172625371699
 30
0.0
 11
308.4999999999918
 21
198.0172625371698
 31
0.0
  0
LINE
  5
236
330
1F
100
AcDbEntity
  8
LAY-10
  6
CONTINUOUS
 62
     7
100
AcDbLine
 10
428.5594466233412
 20
198.01726253717
 30
0.0
 11
430.9001812439412
 21
198.01726253717
 31
0.0
  0
LINE
  5
237
330
1F
100
AcDbEntity
  8
LAY-10
  6
CONTINUOUS
 62
     7
100
AcDbLine
 10
437.3843807806101
 20
198.01726253717
 30
0.0
 11
445.3487973734835
 21
198.01726253717
 31
0.0
  0
LINE
  5
238
330
1F
100
AcDbEntity
  8
LAY-10
  6
CONTINUOUS
 62
     7
100
AcDbLine
 10
454.8973851589109
 20
198.0172625371701
 30
0.0
 11
465.0000000000051
 21
198.0172625371701
 31
0.0
  0
LINE
  5
239
330
1F
100
AcDbEntity
  8
LAY-10
  6
CONTINUOUS
 62
     7
100
AcDbLine
 10
469.0000000000109
 20
198.0172625371701
 30
0.0
 11
470.4186519842528
 21
198.0172625371701
 31
0.0
  0
LINE
  5
23A
330
1F
100
AcDbEntity
  8
LAY-10
  6
CONTINUOUS
 62
     7
100
AcDbLine
 10
480.0910745145999
 20
198.01726253717
 30
0.0
 11
488.9902195769357
 21
198.01726253717
 31
0.0
  0
LINE
  5
23B
330
1F
100
AcDbEntity
  8
LAY-10
  6
CONTINUOUS
 62
     7
100
AcDbLine
 10
498.174041796244
 20
198.0172625371701
 30
0.0
 11
503.413660260465
 21
198.0172625371701
 31
0.0
  0
CIRCLE
  5
23C
330
1F
100
AcDbEntity
  8
LAY-10
  6
CONTINUOUS
 62
     7
100
AcDbCircle
 10
464.9999999999899
 20
600.0000000000101
 30
0.0
 40
102.5
  0
CIRCLE
  5
23D
330
1F
100
AcDbEntity
  8
LAY-10
  6
CONTINUOUS
 62
     7
100
AcDbCircle
 10
464.9999999999899
 20
600.0000000000101
 30
0.0
 40
107.5
  0
ARC
  5
23E
330
1F
100
AcDbEntity
  8
LAY-10
  6
CONTINUOUS
 62
     7
100
AcDbCircle
 10
453.3066131300592
 20
529.9695444573567
 30
0.0
 40
1.0
100
AcDbArc
 50
80.52044888159679
 51
169.713439388526
  0
LINE
  5
23F
330
1F
100
AcDbEntity
  8
LAY-10
  6
CONTINUOUS
 62
     7
100
AcDbLine
 10
451.9655088636368
 20
528.1800721191094
 30
0.0
 11
452.3226861790623
 21
530.1481158859282
 31
0.0
  0
ARC
  5
240
330
1F
100
AcDbEntity
  8
LAY-10
  6
CONTINUOUS
 62
     7
100
AcDbCircle
 10
452.9494358146337
 20
528.0015006905379
 30
0.0
 40
1.0
100
AcDbArc
 50
169.7134393885276
 51
260.4983376298071
  0
ARC
  5
241
330
1F
100
AcDbEntity
  8
LAY-10
  6
CONTINUOUS
 62
     7
100
AcDbCircle
 10
451.7857142857044
 20
527.189405626233
 30
0.0
 40
1.0
100
AcDbArc
 50
169.713439388526
 51
259.7134393885274
  0
LINE
  5
242
330
1F
100
AcDbEntity
  8
LAY-10
  6
CONTINUOUS
 62
     7
100
AcDbLine
 10
450.8017873347076
 20
527.3679770548044
 30
0.0
 11
451.5160730489932
 21
531.3036848587918
 31
0.0
  0
ARC
  5
243
330
1F
100
AcDbEntity
  8
LAY-10
  6
CONTINUOUS
 62
     7
100
AcDbCircle
 10
452.49999999999
 20
531.1251134302204
 30
0.0
 40
1.0
100
AcDbArc
 50
79.71343938852742
 51
169.7134393885271
  0
ARC
  5
244
330
1F
100
AcDbEntity
  8
LAY-10
  6
CONTINUOUS
 62
     7
100
AcDbCircle
 10
464.9999999999899
 20
600.0000000000101
 30
0.0
 40
70.00000000001
100
AcDbArc
 50
260.5204488815976
 51
279.4795511184024
  0
ARC
  5
245
330
1F
100
AcDbEntity
  8
LAY-10
  6
CONTINUOUS
 62
     7
100
AcDbCircle
 10
476.6933868699207
 20
529.9695444573567
 30
0.0
 40
1.0
100
AcDbArc
 50
10.28656061147357
 51
99.47955111840318
  0
LINE
  5
246
330
1F
100
AcDbEntity
  8
LAY-10
  6
CONTINUOUS
 62
     7
100
AcDbLine
 10
478.0344911363432
 20
528.1800721191094
 30
0.0
 11
477.6773138209177
 21
530.1481158859282
 31
0.0
  0
ARC
  5
247
330
1F
100
AcDbEntity
  8
LAY-10
  6
CONTINUOUS
 62
     7
100
AcDbCircle
 10
464.9999999999899
 20
600.0000000000101
 30
0.0
 40
74.00000000001
100
AcDbArc
 50
260.4983376298071
 51
279.5016623701929
  0
ARC
  5
248
330
1F
100
AcDbEntity
  8
LAY-10
  6
CONTINUOUS
 62
     7
100
AcDbCircle
 10
477.0505641853463
 20
528.0015006905379
 30
0.0
 40
1.0
100
AcDbArc
 50
279.501662370193
 51
10.28656061147248
  0
ARC
  5
249
330
1F
100
AcDbEntity
  8
LAY-10
  6
CONTINUOUS
 62
     7
100
AcDbCircle
 10
464.9999999999899
 20
600.0000000000101
 30
0.0
 40
75.00000000001
100
AcDbArc
 50
259.7134393885266
 51
280.2865606114734
  0
ARC
  5
24A
330
1F
100
AcDbEntity
  8
LAY-10
  6
CONTINUOUS
 62
     7
100
AcDbCircle
 10
478.2142857142755
 20
527.189405626233
 30
0.0
 40
1.0
100
AcDbArc
 50
280.2865606114727
 51
10.28656061147357
  0
LINE
  5
24B
330
1F
100
AcDbEntity
  8
LAY-10
  6
CONTINUOUS
 62
     7
100
AcDbLine
 10
479.1982126652724
 20
527.3679770548043
 30
0.0
 11
478.4839269509868
 21
531.3036848587918
 31
0.0
  0
ARC
  5
24C
330
1F
100
AcDbEntity
  8
LAY-10
  6
CONTINUOUS
 62
     7
100
AcDbCircle
 10
477.4999999999899
 20
531.1251134302204
 30
0.0
 40
1.0
100
AcDbArc
 50
10.28656061147403
 51
100.2865606114727
  0
ARC
  5
24D
330
1F
100
AcDbEntity
  8
LAY-10
  6
CONTINUOUS
 62
     7
100
AcDbCircle
 10
489.8884576856771
 20
533.5051530265101
 30
0.0
 40
1.0
100
AcDbArc
 50
110.5204488815982
 51
199.7134393885263
  0
ARC
  5
24E
330
1F
100
AcDbEntity
  8
LAY-10
  6
CONTINUOUS
 62
     7
100
AcDbCircle
 10
488.6121257375794
 20
534.1025985478005
 30
0.0
 40
1.0
100
AcDbArc
 50
109.7134393885273
 51
199.7134393885263
  0
LINE
  5
24F
330
1F
100
AcDbEntity
  8
LAY-10
  6
CONTINUOUS
 62
     7
100
AcDbLine
 10
489.0199986161243
 20
529.9997166685665
 30
0.0
 11
487.6707342882623
 21
533.7652824658351
 31
0.0
  0
ARC
  5
250
330
1F
100
AcDbEntity
  8
LAY-10
  6
CONTINUOUS
 62
     7
100
AcDbCircle
 10
489.9613900654414
 20
530.337032750532
 30
0.0
 40
1.0
100
AcDbArc
 50
199.7134393885263
 51
289.7134393885273
  0
ARC
  5
251
330
1F
100
AcDbEntity
  8
LAY-10
  6
CONTINUOUS
 62
     7
100
AcDbCircle
 10
490.5631549402726
 20
531.6221884709727
 30
0.0
 40
1.0
100
AcDbArc
 50
199.7134393885268
 51
290.4983376298061
  0
ARC
  5
252
330
1F
100
AcDbEntity
  8
LAY-10
  6
CONTINUOUS
 62
     7
100
AcDbCircle
 10
510.1419978569561
 20
545.1985398964409
 30
0.0
 40
1.0
100
AcDbArc
 50
40.28656061147456
 51
129.4795511184035
  0
ARC
  5
253
330
1F
100
AcDbEntity
  8
LAY-10
  6
CONTINUOUS
 62
     7
100
AcDbCircle
 10
464.9999999999899
 20
600.0000000000101
 30
0.0
 40
74.00000000001
100
AcDbArc
 50
290.4983376298071
 51
309.5016623701928
  0
ARC
  5
254
330
1F
100
AcDbEntity
  8
LAY-10
  6
CONTINUOUS
 62
     7
100
AcDbCircle
 10
511.4353443691796
 20
543.672752656329
 30
0.0
 40
1.0
100
AcDbArc
 50
309.5016623701913
 51
40.28656061147456
  0
ARC
  5
255
330
1F
100
AcDbEntity
  8
LAY-10
  6
CONTINUOUS
 62
     7
100
AcDbCircle
 10
464.9999999999899
 20
600.0000000000101
 30
0.0
 40
75.00000000001
100
AcDbArc
 50
289.7134393885266
 51
310.2865606114735
  0
ARC
  5
256
330
1F
100
AcDbEntity
  8
LAY-10
  6
CONTINUOUS
 62
     7
100
AcDbCircle
 10
512.8492043083156
 20
543.5513184648175
 30
0.0
 40
1.0
100
AcDbArc
 50
310.2865606114736
 51
40.28656061147456
  0
LINE
  5
257
330
1F
100
AcDbEntity
  8
LAY-10
  6
CONTINUOUS
 62
     7
100
AcDbLine
 10
513.6120243290613
 20
544.197929333849
 30
0.0
 11
511.0255808529361
 21
547.2492094168318
 31
0.0
  0
ARC
  5
258
330
1F
100
AcDbEntity
  8
LAY-10
  6
CONTINUOUS
 62
     7
100
AcDbCircle
 10
464.9999999999899
 20
600.0000000000101
 30
0.0
 40
69.00000000001
100
AcDbArc
 50
289.7134393885266
 51
310.2865606114735
  0
ARC
  5
259
330
1F
100
AcDbEntity
  8
LAY-10
  6
CONTINUOUS
 62
     7
100
AcDbCircle
 10
510.2627608321903
 20
546.6025985478005
 30
0.0
 40
1.0
100
AcDbArc
 50
40.28656061147243
 51
130.2865606114735
  0
ARC
  5
25A
330
1F
100
AcDbEntity
  8
LAY-10
  6
CONTINUOUS
 62
     7
100
AcDbCircle
 10
519.8014601035592
 20
554.858002143044
 30
0.0
 40
1.0
100
AcDbArc
 50
140.5204488815978
 51
229.7134393885277
  0
ARC
  5
25B
330
1F
100
AcDbEntity
  8
LAY-10
  6
CONTINUOUS
 62
     7
100
AcDbCircle
 10
518.3974014521996
 20
554.7372391678098
 30
0.0
 40
1.0
100
AcDbArc
 50
139.7134393885254
 51
229.7134393885266
  0
LINE
  5
25C
330
1F
100
AcDbEntity
  8
LAY-10
  6
CONTINUOUS
 62
     7
100
AcDbLine
 10
520.8020706661512
 20
551.3879756709387
 30
0.0
 11
517.7507905831683
 21
553.974419147064
 31
0.0
  0
ARC
  5
25D
330
1F
100
AcDbEntity
  8
LAY-10
  6
CONTINUOUS
 62
     7
100
AcDbCircle
 10
521.4486815351825
 20
552.1507956916845
 30
0.0
 40
1.0
100
AcDbArc
 50
229.7134393885266
 51
319.7134393885255
  0
LINE
  5
25E
330
1F
100
AcDbEntity
  8
LAY-10
  6
CONTINUOUS
 62
     7
100
AcDbLine
 10
520.6806364746398
 20
552.8018356100748
 30
0.0
 11
519.1548492345278
 21
554.0951821222982
 31
0.0
  0
ARC
  5
25F
330
1F
100
AcDbEntity
  8
LAY-10
  6
CONTINUOUS
 62
     7
100
AcDbCircle
 10
521.3272473436712
 20
553.5646556308205
 30
0.0
 40
1.0
100
AcDbArc
 50
229.7134393885255
 51
320.4983376298075
  0
ARC
  5
260
330
1F
100
AcDbEntity
  8
LAY-10
  6
CONTINUOUS
 62
     7
100
AcDbCircle
 10
464.9999999999899
 20
600.0000000000101
 30
0.0
 40
70.00000000001
100
AcDbArc
 50
320.5204488815976
 51
339.4795511184024
  0
ARC
  5
261
330
1F
100
AcDbEntity
  8
LAY-10
  6
CONTINUOUS
 62
     7
100
AcDbCircle
 10
531.49484697349
 20
575.111542314323
 30
0.0
 40
1.0
100
AcDbArc
 50
70.28656061147278
 51
159.4795511184019
  0
LINE
  5
262
330
1F
100
AcDbEntity
  8
LAY-10
  6
CONTINUOUS
 62
     7
100
AcDbLine
 10
533.715127610993
 20
575.3782365090447
 30
0.0
 11
531.8321630554556
 21
576.0529337636401
 31
0.0
  0
ARC
  5
263
330
1F
100
AcDbEntity
  8
LAY-10
  6
CONTINUOUS
 62
     7
100
AcDbCircle
 10
464.9999999999899
 20
600.0000000000101
 30
0.0
 40
74.00000000001
100
AcDbArc
 50
320.4983376298072
 51
339.501662370193
  0
ARC
  5
264
330
1F
100
AcDbEntity
  8
LAY-10
  6
CONTINUOUS
 62
     7
100
AcDbCircle
 10
533.3778115290274
 20
574.4368450597276
 30
0.0
 40
1.0
100
AcDbArc
 50
339.5016623701924
 51
70.28656061147278
  0
ARC
  5
265
330
1F
100
AcDbEntity
  8
LAY-10
  6
CONTINUOUS
 62
     7
100
AcDbCircle
 10
464.9999999999899
 20
600.0000000000101
 30
0.0
 40
75.00000000001
100
AcDbArc
 50
319.7134393885265
 51
340.2865606114735
  0
ARC
  5
266
330
1F
100
AcDbEntity
  8
LAY-10
  6
CONTINUOUS
 62
     7
100
AcDbCircle
 10
534.6629672494681
 20
575.0386099345586
 30
0.0
 40
1.0
100
AcDbArc
 50
340.2865606114734
 51
70.28656061147336
  0
ARC
  5
267
330
1F
100
AcDbEntity
  8
LAY-10
  6
CONTINUOUS
 62
     7
100
AcDbCircle
 10
464.9999999999899
 20
600.0000000000101
 30
0.0
 40
69.00000000001
100
AcDbArc
 50
319.7134393885268
 51
340.2865606114735
  0
LINE
  5
268
330
1F
100
AcDbEntity
  8
LAY-10
  6
CONTINUOUS
 62
     7
100
AcDbLine
 10
535.0002833314336
 20
575.9800013838758
 30
0.0
 11
531.2347175341652
 21
577.3292657117379
 31
0.0
  0
ARC
  5
269
330
1F
100
AcDbEntity
  8
LAY-10
  6
CONTINUOUS
 62
     7
100
AcDbCircle
 10
530.8974014521996
 20
576.3878742624207
 30
0.0
 40
1.0
100
AcDbArc
 50
70.28656061147215
 51
160.2865606114733
  0
ARC
  5
26A
330
1F
100
AcDbEntity
  8
LAY-10
  6
CONTINUOUS
 62
     7
100
AcDbCircle
 10
464.9999999999899
 20
600.0000000000101
 30
0.0
 40
69.00000000001
100
AcDbArc
 50
259.7134393885266
 51
262.8281039719609
  0
ARC
  5
26B
330
1F
100
AcDbEntity
  8
LAY-10
  6
CONTINUOUS
 62
     7
100
AcDbCircle
 10
464.9999999999899
 20
600.0000000000101
 30
0.0
 40
69.00000000001
100
AcDbArc
 50
277.1718960280392
 51
280.2865606114736
  0
ARC
  5
26C
330
1F
100
AcDbEntity
  8
LAY-10
  6
CONTINUOUS
 62
     7
100
AcDbCircle
 10
456.9999999999845
 20
533.1453762162668
 30
0.0
 40
2.0
100
AcDbArc
 50
263.1762829180606
 51
0.0
  0
ARC
  5
26D
330
1F
100
AcDbEntity
  8
LAY-10
  6
CONTINUOUS
 62
     7
100
AcDbCircle
 10
472.9999999999955
 20
533.1453762162668
 30
0.0
 40
2.0
100
AcDbArc
 50
180.0
 51
276.8237170819394
  0
ARC
  5
26E
330
1F
100
AcDbEntity
  8
LAY-10
  6
CONTINUOUS
 62
     7
100
AcDbCircle
 10
464.9999999999899
 20
600.0000000000101
 30
0.0
 40
69.33157298968999
100
AcDbArc
 50
263.1762829180633
 51
276.8237170819387
  0
ARC
  5
26F
330
1F
100
AcDbEntity
  8
LAY-10
  6
CONTINUOUS
 62
     7
100
AcDbCircle
 10
394.9695444573366
 20
588.3066131300793
 30
0.0
 40
1.0
100
AcDbArc
 50
280.2865606114725
 51
9.479551118403393
  0
LINE
  5
270
330
1F
100
AcDbEntity
  8
LAY-10
  6
CONTINUOUS
 62
     7
100
AcDbLine
 10
393.1800721190891
 20
586.965508863657
 30
0.0
 11
395.148115885908
 21
587.3226861790824
 31
0.0
  0
ARC
  5
271
330
1F
100
AcDbEntity
  8
LAY-10
  6
CONTINUOUS
 62
     7
100
AcDbCircle
 10
393.0015006905177
 20
587.9494358146538
 30
0.0
 40
1.0
100
AcDbArc
 50
189.5016623701927
 51
280.2865606114725
  0
ARC
  5
272
330
1F
100
AcDbEntity
  8
LAY-10
  6
CONTINUOUS
 62
     7
100
AcDbCircle
 10
396.1251134302002
 20
587.5000000000101
 30
0.0
 40
1.0
100
AcDbArc
 50
280.2865606114725
 51
10.28656061147248
  0
LINE
  5
273
330
1F
100
AcDbEntity
  8
LAY-10
  6
CONTINUOUS
 62
     7
100
AcDbLine
 10
392.3679770547843
 20
585.8017873347277
 30
0.0
 11
396.3036848587716
 21
586.5160730490134
 31
0.0
  0
ARC
  5
274
330
1F
100
AcDbEntity
  8
LAY-10
  6
CONTINUOUS
 62
     7
100
AcDbCircle
 10
392.1894056262129
 20
586.7857142857246
 30
0.0
 40
1.0
100
AcDbArc
 50
190.2865606114724
 51
280.2865606114725
  0
ARC
  5
275
330
1F
100
AcDbEntity
  8
LAY-10
  6
CONTINUOUS
 62
     7
100
AcDbCircle
 10
394.9695444573366
 20
611.6933868699409
 30
0.0
 40
1.0
100
AcDbArc
 50
350.5204488815967
 51
79.7134393885276
  0
ARC
  5
276
330
1F
100
AcDbEntity
  8
LAY-10
  6
CONTINUOUS
 62
     7
100
AcDbCircle
 10
396.1251134302002
 20
612.5000000000101
 30
0.0
 40
1.0
100
AcDbArc
 50
349.7134393885277
 51
79.7134393885276
  0
ARC
  5
277
330
1F
100
AcDbEntity
  8
LAY-10
  6
CONTINUOUS
 62
     7
100
AcDbCircle
 10
392.1894056262129
 20
613.2142857142957
 30
0.0
 40
1.0
100
AcDbArc
 50
79.7134393885276
 51
169.7134393885276
  0
ARC
  5
278
330
1F
100
AcDbEntity
  8
LAY-10
  6
CONTINUOUS
 62
     7
100
AcDbCircle
 10
393.0015006905177
 20
612.0505641853665
 30
0.0
 40
1.0
100
AcDbArc
 50
79.7134393885276
 51
170.4983376298074
  0
ARC
  5
279
330
1F
100
AcDbEntity
  8
LAY-10
  6
CONTINUOUS
 62
     7
100
AcDbCircle
 10
397.9362935615049
 20
606.0000000000101
 30
0.0
 40
2.0
100
AcDbArc
 50
174.8875205138576
 51
270.0
  0
ARC
  5
27A
330
1F
100
AcDbEntity
  8
LAY-10
  6
CONTINUOUS
 62
     7
100
AcDbCircle
 10
397.9362935615049
 20
594.0000000000177
 30
0.0
 40
2.0
100
AcDbArc
 50
90.00000000000001
 51
185.1124794861425
  0
ARC
  5
27B
330
1F
100
AcDbEntity
  8
LAY-10
  6
CONTINUOUS
 62
     7
100
AcDbCircle
 10
464.9999999999899
 20
600.0000000000177
 30
0.0
 40
69.00000000001
100
AcDbArc
 50
185.3919682638607
 51
190.2865606114736
  0
ARC
  5
27C
330
1F
100
AcDbEntity
  8
LAY-10
  6
CONTINUOUS
 62
     7
100
AcDbCircle
 10
464.9999999999899
 20
600.0000000000101
 30
0.0
 40
69.33157298970002
100
AcDbArc
 50
174.8875205138575
 51
185.1124794861362
  0
ARC
  5
27D
330
1F
100
AcDbEntity
  8
LAY-10
  6
CONTINUOUS
 62
     7
100
AcDbCircle
 10
410.1985398964208
 20
554.858002143044
 30
0.0
 40
1.0
100
AcDbArc
 50
310.2865606114736
 51
39.47955111840237
  0
ARC
  5
27E
330
1F
100
AcDbEntity
  8
LAY-10
  6
CONTINUOUS
 62
     7
100
AcDbCircle
 10
411.6025985477804
 20
554.7372391678098
 30
0.0
 40
1.0
100
AcDbArc
 50
310.2865606114736
 51
40.28656061147456
  0
LINE
  5
27F
330
1F
100
AcDbEntity
  8
LAY-10
  6
CONTINUOUS
 62
     7
100
AcDbLine
 10
409.1979293338288
 20
551.3879756709387
 30
0.0
 11
412.2492094168118
 21
553.974419147064
 31
0.0
  0
ARC
  5
280
330
1F
100
AcDbEntity
  8
LAY-10
  6
CONTINUOUS
 62
     7
100
AcDbCircle
 10
408.5513184647975
 20
552.1507956916845
 30
0.0
 40
1.0
100
AcDbArc
 50
220.2865606114746
 51
310.2865606114736
  0
LINE
  5
281
330
1F
100
AcDbEntity
  8
LAY-10
  6
CONTINUOUS
 62
     7
100
AcDbLine
 10
409.3193635253402
 20
552.8018356100748
 30
0.0
 11
410.8451507654521
 21
554.0951821222982
 31
0.0
  0
ARC
  5
282
330
1F
100
AcDbEntity
  8
LAY-10
  6
CONTINUOUS
 62
     7
100
AcDbCircle
 10
408.6727526563088
 20
553.5646556308205
 30
0.0
 40
1.0
100
AcDbArc
 50
219.5016623701925
 51
310.2865606114747
  0
ARC
  5
283
330
1F
100
AcDbEntity
  8
LAY-10
  6
CONTINUOUS
 62
     7
100
AcDbCircle
 10
464.9999999999899
 20
600.0000000000101
 30
0.0
 40
70.00000000001
100
AcDbArc
 50
200.5204488815976
 51
219.4795511184025
  0
ARC
  5
284
330
1F
100
AcDbEntity
  8
LAY-10
  6
CONTINUOUS
 62
     7
100
AcDbCircle
 10
398.50515302649
 20
575.111542314323
 30
0.0
 40
1.0
100
AcDbArc
 50
20.52044888159822
 51
109.7134393885268
  0
LINE
  5
285
330
1F
100
AcDbEntity
  8
LAY-10
  6
CONTINUOUS
 62
     7
100
AcDbLine
 10
396.284872388987
 20
575.3782365090447
 30
0.0
 11
398.1678369445245
 21
576.0529337636401
 31
0.0
  0
ARC
  5
286
330
1F
100
AcDbEntity
  8
LAY-10
  6
CONTINUOUS
 62
     7
100
AcDbCircle
 10
464.9999999999899
 20
600.0000000000101
 30
0.0
 40
74.00000000001
100
AcDbArc
 50
200.4983376298071
 51
219.5016623701929
  0
ARC
  5
287
330
1F
100
AcDbEntity
  8
LAY-10
  6
CONTINUOUS
 62
     7
100
AcDbCircle
 10
396.6221884709526
 20
574.4368450597276
 30
0.0
 40
1.0
100
AcDbArc
 50
109.7134393885278
 51
200.4983376298091
  0
ARC
  5
288
330
1F
100
AcDbEntity
  8
LAY-10
  6
CONTINUOUS
 62
     7
100
AcDbCircle
 10
464.9999999999899
 20
600.0000000000101
 30
0.0
 40
75.00000000001
100
AcDbArc
 50
199.7134393885266
 51
220.2865606114736
  0
ARC
  5
289
330
1F
100
AcDbEntity
  8
LAY-10
  6
CONTINUOUS
 62
     7
100
AcDbCircle
 10
395.3370327505119
 20
575.0386099345586
 30
0.0
 40
1.0
100
AcDbArc
 50
109.7134393885278
 51
199.7134393885268
  0
LINE
  5
28A
330
1F
100
AcDbEntity
  8
LAY-10
  6
CONTINUOUS
 62
     7
100
AcDbLine
 10
394.9997166685463
 20
575.9800013838758
 30
0.0
 11
398.7652824658148
 21
577.3292657117379
 31
0.0
  0
ARC
  5
28B
330
1F
100
AcDbEntity
  8
LAY-10
  6
CONTINUOUS
 62
     7
100
AcDbCircle
 10
399.1025985477804
 20
576.3878742624207
 30
0.0
 40
1.0
100
AcDbArc
 50
19.71343938852684
 51
109.7134393885278
  0
ARC
  5
28C
330
1F
100
AcDbEntity
  8
LAY-10
  6
CONTINUOUS
 62
     7
100
AcDbCircle
 10
440.1115423143028
 20
533.5051530265101
 30
0.0
 40
1.0
100
AcDbArc
 50
340.2865606114749
 51
69.47955111840197
  0
ARC
  5
28D
330
1F
100
AcDbEntity
  8
LAY-10
  6
CONTINUOUS
 62
     7
100
AcDbCircle
 10
441.3878742624006
 20
534.1025985478005
 30
0.0
 40
1.0
100
AcDbArc
 50
340.2865606114749
 51
70.28656061147278
  0
LINE
  5
28E
330
1F
100
AcDbEntity
  8
LAY-10
  6
CONTINUOUS
 62
     7
100
AcDbLine
 10
440.9800013838556
 20
529.9997166685665
 30
0.0
 11
442.3292657117177
 21
533.7652824658351
 31
0.0
  0
ARC
  5
28F
330
1F
100
AcDbEntity
  8
LAY-10
  6
CONTINUOUS
 62
     7
100
AcDbCircle
 10
440.0386099345385
 20
530.337032750532
 30
0.0
 40
1.0
100
AcDbArc
 50
250.2865606114728
 51
340.2865606114749
  0
LINE
  5
290
330
1F
100
AcDbEntity
  8
LAY-10
  6
CONTINUOUS
 62
     7
100
AcDbLine
 10
440.3782365090245
 20
531.2848723890072
 30
0.0
 11
441.0529337636199
 21
533.1678369445447
 31
0.0
  0
ARC
  5
291
330
1F
100
AcDbEntity
  8
LAY-10
  6
CONTINUOUS
 62
     7
100
AcDbCircle
 10
439.4368450597074
 20
531.6221884709727
 30
0.0
 40
1.0
100
AcDbArc
 50
249.5016623701939
 51
340.2865606114734
  0
ARC
  5
292
330
1F
100
AcDbEntity
  8
LAY-10
  6
CONTINUOUS
 62
     7
100
AcDbCircle
 10
464.9999999999899
 20
600.0000000000101
 30
0.0
 40
70.00000000001
100
AcDbArc
 50
230.5204488815977
 51
249.4795511184024
  0
ARC
  5
293
330
1F
100
AcDbEntity
  8
LAY-10
  6
CONTINUOUS
 62
     7
100
AcDbCircle
 10
419.8580021430238
 20
545.1985398964409
 30
0.0
 40
1.0
100
AcDbArc
 50
50.52044888159651
 51
139.7134393885254
  0
LINE
  5
294
330
1F
100
AcDbEntity
  8
LAY-10
  6
CONTINUOUS
 62
     7
100
AcDbLine
 10
417.8018356100547
 20
544.3193635253604
 30
0.0
 11
419.0951821222781
 21
545.8451507654723
 31
0.0
  0
ARC
  5
295
330
1F
100
AcDbEntity
  8
LAY-10
  6
CONTINUOUS
 62
     7
100
AcDbCircle
 10
464.9999999999899
 20
600.0000000000101
 30
0.0
 40
74.00000000001
100
AcDbArc
 50
230.4983376298073
 51
249.501662370193
  0
ARC
  5
296
330
1F
100
AcDbEntity
  8
LAY-10
  6
CONTINUOUS
 62
     7
100
AcDbCircle
 10
418.5646556308004
 20
543.672752656329
 30
0.0
 40
1.0
100
AcDbArc
 50
139.7134393885254
 51
230.4983376298088
  0
ARC
  5
297
330
1F
100
AcDbEntity
  8
LAY-10
  6
CONTINUOUS
 62
     7
100
AcDbCircle
 10
464.9999999999899
 20
600.0000000000101
 30
0.0
 40
75.00000000001
100
AcDbArc
 50
229.7134393885267
 51
250.2865606114736
  0
ARC
  5
298
330
1F
100
AcDbEntity
  8
LAY-10
  6
CONTINUOUS
 62
     7
100
AcDbCircle
 10
417.1507956916643
 20
543.5513184648175
 30
0.0
 40
1.0
100
AcDbArc
 50
139.7134393885254
 51
229.7134393885266
  0
LINE
  5
299
330
1F
100
AcDbEntity
  8
LAY-10
  6
CONTINUOUS
 62
     7
100
AcDbLine
 10
416.3879756709186
 20
544.197929333849
 30
0.0
 11
418.9744191470439
 21
547.2492094168318
 31
0.0
  0
ARC
  5
29A
330
1F
100
AcDbEntity
  8
LAY-10
  6
CONTINUOUS
 62
     7
100
AcDbCircle
 10
464.9999999999899
 20
600.0000000000101
 30
0.0
 40
69.00000000001
100
AcDbArc
 50
229.7134393885268
 51
250.2865606114736
  0
ARC
  5
29B
330
1F
100
AcDbEntity
  8
LAY-10
  6
CONTINUOUS
 62
     7
100
AcDbCircle
 10
419.7372391677897
 20
546.6025985478005
 30
0.0
 40
1.0
100
AcDbArc
 50
49.71343938852655
 51
139.7134393885288
  0
ARC
  5
29C
330
1F
100
AcDbEntity
  8
LAY-10
  6
CONTINUOUS
 62
     7
100
AcDbCircle
 10
535.0304555426434
 20
588.3066131300793
 30
0.0
 40
1.0
100
AcDbArc
 50
170.5204488815966
 51
259.7134393885277
  0
LINE
  5
29D
330
1F
100
AcDbEntity
  8
LAY-10
  6
CONTINUOUS
 62
     7
100
AcDbLine
 10
536.8199278808909
 20
586.965508863657
 30
0.0
 11
534.8518841140719
 21
587.3226861790824
 31
0.0
  0
ARC
  5
29E
330
1F
100
AcDbEntity
  8
LAY-10
  6
CONTINUOUS
 62
     7
100
AcDbCircle
 10
536.9984993094622
 20
587.9494358146538
 30
0.0
 40
1.0
100
AcDbArc
 50
259.7134393885277
 51
350.4983376298075
  0
ARC
  5
29F
330
1F
100
AcDbEntity
  8
LAY-10
  6
CONTINUOUS
 62
     7
100
AcDbCircle
 10
533.8748865697797
 20
587.5000000000101
 30
0.0
 40
1.0
100
AcDbArc
 50
169.7134393885276
 51
259.7134393885277
  0
LINE
  5
2A0
330
1F
100
AcDbEntity
  8
LAY-10
  6
CONTINUOUS
 62
     7
100
AcDbLine
 10
537.6320229451958
 20
585.8017873347277
 30
0.0
 11
533.6963151412083
 21
586.5160730490134
 31
0.0
  0
ARC
  5
2A1
330
1F
100
AcDbEntity
  8
LAY-10
  6
CONTINUOUS
 62
     7
100
AcDbCircle
 10
537.8105943737671
 20
586.7857142857246
 30
0.0
 40
1.0
100
AcDbArc
 50
259.7134393885277
 51
349.7134393885277
  0
ARC
  5
2A2
330
1F
100
AcDbEntity
  8
LAY-10
  6
CONTINUOUS
 62
     7
100
AcDbCircle
 10
464.9999999999899
 20
600.0000000000101
 30
0.0
 40
70.00000000001
100
AcDbArc
 50
350.5204488815978
 51
9.479551118402474
  0
ARC
  5
2A3
330
1F
100
AcDbEntity
  8
LAY-10
  6
CONTINUOUS
 62
     7
100
AcDbCircle
 10
535.0304555426434
 20
611.6933868699409
 30
0.0
 40
1.0
100
AcDbArc
 50
100.2865606114724
 51
189.4795511184035
  0
ARC
  5
2A4
330
1F
100
AcDbEntity
  8
LAY-10
  6
CONTINUOUS
 62
     7
100
AcDbCircle
 10
533.8748865697797
 20
612.5000000000101
 30
0.0
 40
1.0
100
AcDbArc
 50
100.2865606114724
 51
190.2865606114724
  0
LINE
  5
2A5
330
1F
100
AcDbEntity
  8
LAY-10
  6
CONTINUOUS
 62
     7
100
AcDbLine
 10
537.6320229451958
 20
614.1982126652925
 30
0.0
 11
533.6963151412083
 21
613.483926951007
 31
0.0
  0
ARC
  5
2A6
330
1F
100
AcDbEntity
  8
LAY-10
  6
CONTINUOUS
 62
     7
100
AcDbCircle
 10
464.9999999999899
 20
600.0000000000101
 30
0.0
 40
75.00000000001
100
AcDbArc
 50
349.7134393885266
 51
10.2865606114734
  0
ARC
  5
2A7
330
1F
100
AcDbEntity
  8
LAY-10
  6
CONTINUOUS
 62
     7
100
AcDbCircle
 10
537.8105943737671
 20
613.2142857142957
 30
0.0
 40
1.0
100
AcDbArc
 50
10.28656061147248
 51
100.2865606114724
  0
ARC
  5
2A8
330
1F
100
AcDbEntity
  8
LAY-10
  6
CONTINUOUS
 62
     7
100
AcDbCircle
 10
464.9999999999899
 20
600.0000000000101
 30
0.0
 40
74.00000000001
100
AcDbArc
 50
350.4983376298071
 51
9.501662370192875
  0
LINE
  5
2A9
330
1F
100
AcDbEntity
  8
LAY-10
  6
CONTINUOUS
 62
     7
100
AcDbLine
 10
536.8199278808909
 20
613.0344911363634
 30
0.0
 11
534.8518841140719
 21
612.6773138209378
 31
0.0
  0
ARC
  5
2AA
330
1F
100
AcDbEntity
  8
LAY-10
  6
CONTINUOUS
 62
     7
100
AcDbCircle
 10
536.9984993094622
 20
612.0505641853665
 30
0.0
 40
1.0
100
AcDbArc
 50
9.501662370192648
 51
100.2865606114724
  0
ARC
  5
2AB
330
1F
100
AcDbEntity
  8
LAY-10
  6
CONTINUOUS
 62
     7
100
AcDbCircle
 10
464.9999999999899
 20
600.0000000000101
 30
0.0
 40
69.00000000001
100
AcDbArc
 50
5.391968263860781
 51
10.28656061147357
  0
ARC
  5
2AC
330
1F
100
AcDbEntity
  8
LAY-10
  6
CONTINUOUS
 62
     7
100
AcDbCircle
 10
532.063706438475
 20
606.0000000000101
 30
0.0
 40
2.0
100
AcDbArc
 50
270.0
 51
5.112479486142475
  0
ARC
  5
2AD
330
1F
100
AcDbEntity
  8
LAY-10
  6
CONTINUOUS
 62
     7
100
AcDbCircle
 10
532.063706438475
 20
594.0000000000177
 30
0.0
 40
2.0
100
AcDbArc
 50
354.8875205138576
 51
90.00000000000001
  0
ARC
  5
2AE
330
1F
100
AcDbEntity
  8
LAY-10
  6
CONTINUOUS
 62
     7
100
AcDbCircle
 10
464.9999999999899
 20
600.0000000000177
 30
0.0
 40
69.00000000001
100
AcDbArc
 50
349.7134393885265
 51
354.6080317361393
  0
ARC
  5
2AF
330
1F
100
AcDbEntity
  8
LAY-10
  6
CONTINUOUS
 62
     7
100
AcDbCircle
 10
464.9999999999899
 20
600.0000000000101
 30
0.0
 40
69.33157298970002
100
AcDbArc
 50
354.8875205138638
 51
5.11247948614259
  0
ARC
  5
2B0
330
1F
100
AcDbEntity
  8
LAY-10
  6
CONTINUOUS
 62
     7
100
AcDbCircle
 10
410.1985398964208
 20
645.1419978569838
 30
0.0
 40
1.0
100
AcDbArc
 50
320.5204488815991
 51
49.71343938852507
  0
ARC
  5
2B1
330
1F
100
AcDbEntity
  8
LAY-10
  6
CONTINUOUS
 62
     7
100
AcDbCircle
 10
411.6025985477804
 20
645.2627608322181
 30
0.0
 40
1.0
100
AcDbArc
 50
319.7134393885255
 51
49.71343938852507
  0
ARC
  5
2B2
330
1F
100
AcDbEntity
  8
LAY-10
  6
CONTINUOUS
 62
     7
100
AcDbCircle
 10
408.5513184647975
 20
647.8492043083434
 30
0.0
 40
1.0
100
AcDbArc
 50
49.71343938853011
 51
139.7134393885254
  0
ARC
  5
2B3
330
1F
100
AcDbEntity
  8
LAY-10
  6
CONTINUOUS
 62
     7
100
AcDbCircle
 10
398.50515302649
 20
624.8884576857049
 30
0.0
 40
1.0
100
AcDbArc
 50
250.2865606114721
 51
339.479551118402
  0
ARC
  5
2B4
330
1F
100
AcDbEntity
  8
LAY-10
  6
CONTINUOUS
 62
     7
100
AcDbCircle
 10
396.6221884709526
 20
625.5631549403003
 30
0.0
 40
1.0
100
AcDbArc
 50
159.5016623701909
 51
250.2865606114721
  0
ARC
  5
2B5
330
1F
100
AcDbEntity
  8
LAY-10
  6
CONTINUOUS
 62
     7
100
AcDbCircle
 10
395.3370327505119
 20
624.9613900654692
 30
0.0
 40
1.0
100
AcDbArc
 50
160.2865606114733
 51
250.2865606114721
  0
ARC
  5
2B6
330
1F
100
AcDbEntity
  8
LAY-10
  6
CONTINUOUS
 62
     7
100
AcDbCircle
 10
399.1025985477804
 20
623.6121257376071
 30
0.0
 40
1.0
100
AcDbArc
 50
250.2865606114721
 51
340.2865606114734
  0
ARC
  5
2B7
330
1F
100
AcDbEntity
  8
LAY-10
  6
CONTINUOUS
 62
     7
100
AcDbCircle
 10
440.1115423143028
 20
666.4948469735177
 30
0.0
 40
1.0
100
AcDbArc
 50
290.5204488816013
 51
19.71343938852684
  0
ARC
  5
2B8
330
1F
100
AcDbEntity
  8
LAY-10
  6
CONTINUOUS
 62
     7
100
AcDbCircle
 10
441.3878742624006
 20
665.8974014522272
 30
0.0
 40
1.0
100
AcDbArc
 50
289.7134393885309
 51
19.71343938852684
  0
ARC
  5
2B9
330
1F
100
AcDbEntity
  8
LAY-10
  6
CONTINUOUS
 62
     7
100
AcDbCircle
 10
440.0386099345386
 20
669.6629672494959
 30
0.0
 40
1.0
100
AcDbArc
 50
19.71343938852684
 51
109.7134393885309
  0
ARC
  5
2BA
330
1F
100
AcDbEntity
  8
LAY-10
  6
CONTINUOUS
 62
     7
100
AcDbCircle
 10
439.4368450597074
 20
668.3778115290552
 30
0.0
 40
1.0
100
AcDbArc
 50
19.71343938852684
 51
110.4983376298061
  0
ARC
  5
2BB
330
1F
100
AcDbEntity
  8
LAY-10
  6
CONTINUOUS
 62
     7
100
AcDbCircle
 10
419.8580021430239
 20
654.8014601035869
 30
0.0
 40
1.0
100
AcDbArc
 50
220.2865606114746
 51
309.4795511184009
  0
ARC
  5
2BC
330
1F
100
AcDbEntity
  8
LAY-10
  6
CONTINUOUS
 62
     7
100
AcDbCircle
 10
418.5646556308004
 20
656.3272473436989
 30
0.0
 40
1.0
100
AcDbArc
 50
129.5016623701887
 51
220.2865606114746
  0
ARC
  5
2BD
330
1F
100
AcDbEntity
  8
LAY-10
  6
CONTINUOUS
 62
     7
100
AcDbCircle
 10
417.1507956916643
 20
656.4486815352103
 30
0.0
 40
1.0
100
AcDbArc
 50
130.2865606114771
 51
220.2865606114746
  0
ARC
  5
2BE
330
1F
100
AcDbEntity
  8
LAY-10
  6
CONTINUOUS
 62
     7
100
AcDbCircle
 10
419.7372391677897
 20
653.3974014522273
 30
0.0
 40
1.0
100
AcDbArc
 50
220.2865606114704
 51
310.2865606114699
  0
ARC
  5
2BF
330
1F
100
AcDbEntity
  8
LAY-10
  6
CONTINUOUS
 62
     7
100
AcDbCircle
 10
453.3066131300592
 20
670.0304555426711
 30
0.0
 40
1.0
100
AcDbArc
 50
190.2865606114724
 51
279.4795511184035
  0
ARC
  5
2C0
330
1F
100
AcDbEntity
  8
LAY-10
  6
CONTINUOUS
 62
     7
100
AcDbCircle
 10
452.9494358146337
 20
671.99849930949
 30
0.0
 40
1.0
100
AcDbArc
 50
99.50166237019319
 51
190.2865606114724
  0
ARC
  5
2C1
330
1F
100
AcDbEntity
  8
LAY-10
  6
CONTINUOUS
 62
     7
100
AcDbCircle
 10
451.7857142857044
 20
672.8105943737949
 30
0.0
 40
1.0
100
AcDbArc
 50
100.2865606114698
 51
190.2865606114756
  0
ARC
  5
2C2
330
1F
100
AcDbEntity
  8
LAY-10
  6
CONTINUOUS
 62
     7
100
AcDbCircle
 10
452.49999999999
 20
668.8748865698075
 30
0.0
 40
1.0
100
AcDbArc
 50
190.2865606114724
 51
280.2865606114763
  0
ARC
  5
2C3
330
1F
100
AcDbEntity
  8
LAY-10
  6
CONTINUOUS
 62
     7
100
AcDbCircle
 10
476.6933868699208
 20
670.0304555426711
 30
0.0
 40
1.0
100
AcDbArc
 50
260.5204488815972
 51
349.7134393885245
  0
LINE
  5
2C4
330
1F
100
AcDbEntity
  8
LAY-10
  6
CONTINUOUS
 62
     7
100
AcDbLine
 10
478.0344911363432
 20
671.8199278809185
 30
0.0
 11
477.6773138209177
 21
669.8518841140997
 31
0.0
  0
ARC
  5
2C5
330
1F
100
AcDbEntity
  8
LAY-10
  6
CONTINUOUS
 62
     7
100
AcDbCircle
 10
464.9999999999899
 20
600.0000000000177
 30
0.0
 40
74.00000000001
100
AcDbArc
 50
80.49833762980715
 51
99.50166237019285
  0
ARC
  5
2C6
330
1F
100
AcDbEntity
  8
LAY-10
  6
CONTINUOUS
 62
     7
100
AcDbCircle
 10
477.0505641853463
 20
671.99849930949
 30
0.0
 40
1.0
100
AcDbArc
 50
349.7134393885277
 51
80.49833762980687
  0
ARC
  5
2C7
330
1F
100
AcDbEntity
  8
LAY-10
  6
CONTINUOUS
 62
     7
100
AcDbCircle
 10
464.9999999999899
 20
600.0000000000177
 30
0.0
 40
75.00000000001
100
AcDbArc
 50
79.71343938852668
 51
100.2865606114734
  0
ARC
  5
2C8
330
1F
100
AcDbEntity
  8
LAY-10
  6
CONTINUOUS
 62
     7
100
AcDbCircle
 10
478.2142857142755
 20
672.8105943737949
 30
0.0
 40
1.0
100
AcDbArc
 50
349.7134393885245
 51
79.71343938853029
  0
LINE
  5
2C9
330
1F
100
AcDbEntity
  8
LAY-10
  6
CONTINUOUS
 62
     7
100
AcDbLine
 10
479.1982126652724
 20
672.6320229452234
 30
0.0
 11
478.4839269509869
 21
668.696315141236
 31
0.0
  0
ARC
  5
2CA
330
1F
100
AcDbEntity
  8
LAY-10
  6
CONTINUOUS
 62
     7
100
AcDbCircle
 10
477.49999999999
 20
668.8748865698075
 30
0.0
 40
1.0
100
AcDbArc
 50
259.7134393885245
 51
349.7134393885245
  0
ARC
  5
2CB
330
1F
100
AcDbEntity
  8
LAY-10
  6
CONTINUOUS
 62
     7
100
AcDbCircle
 10
464.9999999999899
 20
600.0000000000177
 30
0.0
 40
69.00000000001
100
AcDbArc
 50
79.71343938852651
 51
82.82810397196087
  0
ARC
  5
2CC
330
1F
100
AcDbEntity
  8
LAY-10
  6
CONTINUOUS
 62
     7
100
AcDbCircle
 10
456.9999999999845
 20
666.8546237837611
 30
0.0
 40
2.0
100
AcDbArc
 50
0.0
 51
96.8237170819394
  0
ARC
  5
2CD
330
1F
100
AcDbEntity
  8
LAY-10
  6
CONTINUOUS
 62
     7
100
AcDbCircle
 10
472.9999999999955
 20
666.8546237837611
 30
0.0
 40
2.0
100
AcDbArc
 50
83.17628291806065
 51
180.0
  0
ARC
  5
2CE
330
1F
100
AcDbEntity
  8
LAY-10
  6
CONTINUOUS
 62
     7
100
AcDbCircle
 10
464.9999999999899
 20
600.0000000000177
 30
0.0
 40
69.33157298968999
100
AcDbArc
 50
83.17628291806126
 51
96.82371708193685
  0
ARC
  5
2CF
330
1F
100
AcDbEntity
  8
LAY-10
  6
CONTINUOUS
 62
     7
100
AcDbCircle
 10
489.8884576856771
 20
666.4948469735177
 30
0.0
 40
1.0
100
AcDbArc
 50
160.2865606114764
 51
249.479551118405
  0
ARC
  5
2D0
330
1F
100
AcDbEntity
  8
LAY-10
  6
CONTINUOUS
 62
     7
100
AcDbCircle
 10
488.6121257375794
 20
665.8974014522272
 30
0.0
 40
1.0
100
AcDbArc
 50
160.2865606114733
 51
250.2865606114754
  0
LINE
  5
2D1
330
1F
100
AcDbEntity
  8
LAY-10
  6
CONTINUOUS
 62
     7
100
AcDbLine
 10
489.0199986161243
 20
670.0002833314613
 30
0.0
 11
487.6707342882623
 21
666.2347175341928
 31
0.0
  0
ARC
  5
2D2
330
1F
100
AcDbEntity
  8
LAY-10
  6
CONTINUOUS
 62
     7
100
AcDbCircle
 10
489.9613900654415
 20
669.6629672494959
 30
0.0
 40
1.0
100
AcDbArc
 50
70.28656061147525
 51
160.2865606114764
  0
LINE
  5
2D3
330
1F
100
AcDbEntity
  8
LAY-10
  6
CONTINUOUS
 62
     7
100
AcDbLine
 10
489.6217634909555
 20
668.7151276110206
 30
0.0
 11
488.9470662363601
 21
666.8321630554832
 31
0.0
  0
ARC
  5
2D4
330
1F
100
AcDbEntity
  8
LAY-10
  6
CONTINUOUS
 62
     7
100
AcDbCircle
 10
490.5631549402726
 20
668.3778115290552
 30
0.0
 40
1.0
100
AcDbArc
 50
69.50166237019393
 51
160.2865606114733
  0
ARC
  5
2D5
330
1F
100
AcDbEntity
  8
LAY-10
  6
CONTINUOUS
 62
     7
100
AcDbCircle
 10
464.9999999999899
 20
600.0000000000177
 30
0.0
 40
70.00000000001
100
AcDbArc
 50
50.52044888159765
 51
69.47955111840243
  0
ARC
  5
2D6
330
1F
100
AcDbEntity
  8
LAY-10
  6
CONTINUOUS
 62
     7
100
AcDbCircle
 10
510.1419978569562
 20
654.8014601035868
 30
0.0
 40
1.0
100
AcDbArc
 50
230.520448881594
 51
319.7134393885279
  0
LINE
  5
2D7
330
1F
100
AcDbEntity
  8
LAY-10
  6
CONTINUOUS
 62
     7
100
AcDbLine
 10
512.1981643899253
 20
655.6806364746675
 30
0.0
 11
510.9048178777019
 21
654.1548492345555
 31
0.0
  0
ARC
  5
2D8
330
1F
100
AcDbEntity
  8
LAY-10
  6
CONTINUOUS
 62
     7
100
AcDbCircle
 10
464.9999999999899
 20
600.0000000000177
 30
0.0
 40
74.00000000001
100
AcDbArc
 50
50.49833762980714
 51
69.50166237019289
  0
ARC
  5
2D9
330
1F
100
AcDbEntity
  8
LAY-10
  6
CONTINUOUS
 62
     7
100
AcDbCircle
 10
511.4353443691796
 20
656.3272473436988
 30
0.0
 40
1.0
100
AcDbArc
 50
319.7134393885255
 51
50.49833762980622
  0
ARC
  5
2DA
330
1F
100
AcDbEntity
  8
LAY-10
  6
CONTINUOUS
 62
     7
100
AcDbCircle
 10
464.9999999999899
 20
600.0000000000177
 30
0.0
 40
75.00000000001
100
AcDbArc
 50
49.71343938852655
 51
70.28656061147342
  0
ARC
  5
2DB
330
1F
100
AcDbEntity
  8
LAY-10
  6
CONTINUOUS
 62
     7
100
AcDbCircle
 10
512.8492043083157
 20
656.4486815352102
 30
0.0
 40
1.0
100
AcDbArc
 50
319.7134393885233
 51
49.71343938852795
  0
LINE
  5
2DC
330
1F
100
AcDbEntity
  8
LAY-10
  6
CONTINUOUS
 62
     7
100
AcDbLine
 10
513.6120243290613
 20
655.8020706661789
 30
0.0
 11
511.0255808529361
 21
652.7507905831959
 31
0.0
  0
ARC
  5
2DD
330
1F
100
AcDbEntity
  8
LAY-10
  6
CONTINUOUS
 62
     7
100
AcDbCircle
 10
464.9999999999899
 20
600.0000000000177
 30
0.0
 40
69.00000000001
100
AcDbArc
 50
49.71343938852662
 51
70.28656061147342
  0
ARC
  5
2DE
330
1F
100
AcDbEntity
  8
LAY-10
  6
CONTINUOUS
 62
     7
100
AcDbCircle
 10
510.2627608321903
 20
653.3974014522273
 30
0.0
 40
1.0
100
AcDbArc
 50
229.7134393885251
 51
319.7134393885255
  0
ARC
  5
2DF
330
1F
100
AcDbEntity
  8
LAY-10
  6
CONTINUOUS
 62
     7
100
AcDbCircle
 10
519.8014601035592
 20
645.1419978569838
 30
0.0
 40
1.0
100
AcDbArc
 50
130.2865606114725
 51
219.479551118401
  0
ARC
  5
2E0
330
1F
100
AcDbEntity
  8
LAY-10
  6
CONTINUOUS
 62
     7
100
AcDbCircle
 10
518.3974014521996
 20
645.262760832218
 30
0.0
 40
1.0
100
AcDbArc
 50
130.2865606114725
 51
220.2865606114721
  0
LINE
  5
2E1
330
1F
100
AcDbEntity
  8
LAY-10
  6
CONTINUOUS
 62
     7
100
AcDbLine
 10
520.8020706661512
 20
648.6120243290891
 30
0.0
 11
517.7507905831683
 21
646.0255808529638
 31
0.0
  0
ARC
  5
2E2
330
1F
100
AcDbEntity
  8
LAY-10
  6
CONTINUOUS
 62
     7
100
AcDbCircle
 10
521.4486815351825
 20
647.8492043083434
 30
0.0
 40
1.0
100
AcDbArc
 50
40.28656061147456
 51
130.2865606114725
  0
LINE
  5
2E3
330
1F
100
AcDbEntity
  8
LAY-10
  6
CONTINUOUS
 62
     7
100
AcDbLine
 10
520.6806364746398
 20
647.198164389953
 30
0.0
 11
519.1548492345278
 21
645.9048178777296
 31
0.0
  0
ARC
  5
2E4
330
1F
100
AcDbEntity
  8
LAY-10
  6
CONTINUOUS
 62
     7
100
AcDbCircle
 10
521.3272473436712
 20
646.4353443692073
 30
0.0
 40
1.0
100
AcDbArc
 50
39.50166237019374
 51
130.2865606114746
  0
ARC
  5
2E5
330
1F
100
AcDbEntity
  8
LAY-10
  6
CONTINUOUS
 62
     7
100
AcDbCircle
 10
464.9999999999899
 20
600.0000000000177
 30
0.0
 40
70.00000000001
100
AcDbArc
 50
20.52044888159765
 51
39.47955111840248
  0
ARC
  5
2E6
330
1F
100
AcDbEntity
  8
LAY-10
  6
CONTINUOUS
 62
     7
100
AcDbCircle
 10
531.49484697349
 20
624.8884576857049
 30
0.0
 40
1.0
100
AcDbArc
 50
200.5204488815982
 51
289.7134393885268
  0
LINE
  5
2E7
330
1F
100
AcDbEntity
  8
LAY-10
  6
CONTINUOUS
 62
     7
100
AcDbLine
 10
533.715127610993
 20
624.6217634909831
 30
0.0
 11
531.8321630554556
 21
623.9470662363877
 31
0.0
  0
ARC
  5
2E8
330
1F
100
AcDbEntity
  8
LAY-10
  6
CONTINUOUS
 62
     7
100
AcDbCircle
 10
464.9999999999899
 20
600.0000000000177
 30
0.0
 40
74.00000000001
100
AcDbArc
 50
20.49833762980708
 51
39.50166237019283
  0
ARC
  5
2E9
330
1F
100
AcDbEntity
  8
LAY-10
  6
CONTINUOUS
 62
     7
100
AcDbCircle
 10
533.3778115290274
 20
625.5631549403003
 30
0.0
 40
1.0
100
AcDbArc
 50
289.7134393885278
 51
20.4983376298092
  0
ARC
  5
2EA
330
1F
100
AcDbEntity
  8
LAY-10
  6
CONTINUOUS
 62
     7
100
AcDbCircle
 10
464.9999999999899
 20
600.0000000000177
 30
0.0
 40
75.00000000001
100
AcDbArc
 50
19.71343938852655
 51
40.28656061147364
  0
ARC
  5
2EB
330
1F
100
AcDbEntity
  8
LAY-10
  6
CONTINUOUS
 62
     7
100
AcDbCircle
 10
534.6629672494681
 20
624.9613900654691
 30
0.0
 40
1.0
100
AcDbArc
 50
289.7134393885278
 51
19.71343938852684
  0
ARC
  5
2EC
330
1F
100
AcDbEntity
  8
LAY-10
  6
CONTINUOUS
 62
     7
100
AcDbCircle
 10
464.9999999999899
 20
600.0000000000177
 30
0.0
 40
69.00000000001
100
AcDbArc
 50
19.71343938852655
 51
40.28656061147335
  0
LINE
  5
2ED
330
1F
100
AcDbEntity
  8
LAY-10
  6
CONTINUOUS
 62
     7
100
AcDbLine
 10
535.0002833314336
 20
624.019998616152
 30
0.0
 11
531.2347175341652
 21
622.67073428829
 31
0.0
  0
ARC
  5
2EE
330
1F
100
AcDbEntity
  8
LAY-10
  6
CONTINUOUS
 62
     7
100
AcDbCircle
 10
530.8974014521996
 20
623.612125737607
 30
0.0
 40
1.0
100
AcDbArc
 50
199.7134393885268
 51
289.7134393885278
  0
ARC
  5
2EF
330
1F
100
AcDbEntity
  8
LAY-10
  6
CONTINUOUS
 62
     7
100
AcDbCircle
 10
464.9999999999899
 20
600.0000000000101
 30
0.0
 40
74.00000000001
100
AcDbArc
 50
170.4983376298072
 51
189.501662370193
  0
ARC
  5
2F0
330
1F
100
AcDbEntity
  8
LAY-10
  6
CONTINUOUS
 62
     7
100
AcDbCircle
 10
464.9999999999899
 20
600.0000000000101
 30
0.0
 40
75.00000000001
100
AcDbArc
 50
169.7134393885267
 51
190.2865606114734
  0
LINE
  5
2F1
330
1F
100
AcDbEntity
  8
LAY-10
  6
CONTINUOUS
 62
     7
100
AcDbLine
 10
393.1800721190892
 20
613.0344911363634
 30
0.0
 11
395.148115885908
 21
612.6773138209378
 31
0.0
  0
ARC
  5
2F2
330
1F
100
AcDbEntity
  8
LAY-10
  6
CONTINUOUS
 62
     7
100
AcDbCircle
 10
464.9999999999899
 20
600.0000000000101
 30
0.0
 40
70.00000000001
100
AcDbArc
 50
170.5204488815976
 51
189.4795511184024
  0
LINE
  5
2F3
330
1F
100
AcDbEntity
  8
LAY-10
  6
CONTINUOUS
 62
     7
100
AcDbLine
 10
392.3679770547843
 20
614.1982126652925
 30
0.0
 11
396.3036848587716
 21
613.483926951007
 31
0.0
  0
ARC
  5
2F4
330
1F
100
AcDbEntity
  8
LAY-10
  6
CONTINUOUS
 62
     7
100
AcDbCircle
 10
464.9999999999899
 20
600.0000000000101
 30
0.0
 40
69.00000000001
100
AcDbArc
 50
169.7134393885266
 51
174.6080317361393
  0
LINE
  5
2F5
330
1F
100
AcDbEntity
  8
LAY-10
  6
CONTINUOUS
 62
     7
100
AcDbLine
 10
451.9655088636368
 20
671.8199278809185
 30
0.0
 11
452.3226861790623
 21
669.8518841140997
 31
0.0
  0
ARC
  5
2F6
330
1F
100
AcDbEntity
  8
LAY-10
  6
CONTINUOUS
 62
     7
100
AcDbCircle
 10
464.9999999999899
 20
600.0000000000177
 30
0.0
 40
70.00000000001
100
AcDbArc
 50
80.5204488815976
 51
99.47955111840238
  0
LINE
  5
2F7
330
1F
100
AcDbEntity
  8
LAY-10
  6
CONTINUOUS
 62
     7
100
AcDbLine
 10
450.8017873347076
 20
672.6320229452234
 30
0.0
 11
451.5160730489932
 21
668.696315141236
 31
0.0
  0
ARC
  5
2F8
330
1F
100
AcDbEntity
  8
LAY-10
  6
CONTINUOUS
 62
     7
100
AcDbCircle
 10
464.9999999999899
 20
600.0000000000177
 30
0.0
 40
69.00000000001
100
AcDbArc
 50
97.17189602803909
 51
100.2865606114735
  0
ARC
  5
2F9
330
1F
100
AcDbEntity
  8
LAY-10
  6
CONTINUOUS
 62
     7
100
AcDbCircle
 10
464.9999999999899
 20
600.0000000000177
 30
0.0
 40
74.00000000001
100
AcDbArc
 50
110.4983376298071
 51
129.5016623701928
  0
ARC
  5
2FA
330
1F
100
AcDbEntity
  8
LAY-10
  6
CONTINUOUS
 62
     7
100
AcDbCircle
 10
464.9999999999899
 20
600.0000000000177
 30
0.0
 40
75.00000000001
100
AcDbArc
 50
109.7134393885296
 51
130.2865606114734
  0
LINE
  5
2FB
330
1F
100
AcDbEntity
  8
LAY-10
  6
CONTINUOUS
 62
     7
100
AcDbLine
 10
440.9800013838565
 20
670.000283331459
 30
0.0
 11
442.3292657117188
 21
666.2347175341897
 31
0.0
  0
LINE
  5
2FC
330
1F
100
AcDbEntity
  8
LAY-10
  6
CONTINUOUS
 62
     7
100
AcDbLine
 10
440.3782365090245
 20
668.7151276110208
 30
0.0
 11
441.0529337636209
 21
666.8321630554805
 31
0.0
  0
LINE
  5
2FD
330
1F
100
AcDbEntity
  8
LAY-10
  6
CONTINUOUS
 62
     7
100
AcDbLine
 10
396.284872388987
 20
624.6217634909832
 30
0.0
 11
398.1678369445245
 21
623.9470662363877
 31
0.0
  0
LINE
  5
2FE
330
1F
100
AcDbEntity
  8
LAY-10
  6
CONTINUOUS
 62
     7
100
AcDbLine
 10
394.9997166685463
 20
624.0199986161521
 30
0.0
 11
398.7652824658148
 21
622.67073428829
 31
0.0
  0
ARC
  5
2FF
330
1F
100
AcDbEntity
  8
LAY-10
  6
CONTINUOUS
 62
     7
100
AcDbCircle
 10
464.9999999999899
 20
600.0000000000177
 30
0.0
 40
74.00000000001
100
AcDbArc
 50
140.4983376298071
 51
159.5016623701929
  0
ARC
  5
300
330
1F
100
AcDbEntity
  8
LAY-10
  6
CONTINUOUS
 62
     7
100
AcDbCircle
 10
408.6727526563089
 20
646.4353443692073
 30
0.0
 40
1.0
100
AcDbArc
 50
49.71343938852795
 51
140.4983376298088
  0
ARC
  5
301
330
1F
100
AcDbEntity
  8
LAY-10
  6
CONTINUOUS
 62
     7
100
AcDbCircle
 10
464.9999999999899
 20
600.0000000000177
 30
0.0
 40
75.00000000001
100
AcDbArc
 50
139.7134393885265
 51
160.2865606114735
  0
LINE
  5
302
330
1F
100
AcDbEntity
  8
LAY-10
  6
CONTINUOUS
 62
     7
100
AcDbLine
 10
409.3193635253415
 20
647.198164389952
 30
0.0
 11
410.8451507654522
 21
645.9048178777297
 31
0.0
  0
ARC
  5
303
330
1F
100
AcDbEntity
  8
LAY-10
  6
CONTINUOUS
 62
     7
100
AcDbCircle
 10
464.9999999999899
 20
600.0000000000177
 30
0.0
 40
70.00000000001
100
AcDbArc
 50
140.5204488815977
 51
159.4795511184024
  0
LINE
  5
304
330
1F
100
AcDbEntity
  8
LAY-10
  6
CONTINUOUS
 62
     7
100
AcDbLine
 10
409.1979293338289
 20
648.6120243290891
 30
0.0
 11
412.2492094168118
 21
646.0255808529638
 31
0.0
  0
ARC
  5
305
330
1F
100
AcDbEntity
  8
LAY-10
  6
CONTINUOUS
 62
     7
100
AcDbCircle
 10
464.9999999999899
 20
600.0000000000177
 30
0.0
 40
69.00000000001
100
AcDbArc
 50
139.7134393885266
 51
160.2865606114735
  0
LINE
  5
306
330
1F
100
AcDbEntity
  8
LAY-10
  6
CONTINUOUS
 62
     7
100
AcDbLine
 10
489.6217634909555
 20
531.2848723890072
 30
0.0
 11
488.94706623636
 21
533.1678369445447
 31
0.0
  0
LINE
  5
307
330
1F
100
AcDbEntity
  8
LAY-10
  6
CONTINUOUS
 62
     7
100
AcDbLine
 10
512.1981643899253
 20
544.3193635253604
 30
0.0
 11
510.9048178777018
 21
545.8451507654723
 31
0.0
  0
ARC
  5
308
330
1F
100
AcDbEntity
  8
LAY-10
  6
CONTINUOUS
 62
     7
100
AcDbCircle
 10
464.9999999999899
 20
600.0000000000101
 30
0.0
 40
70.00000000001
100
AcDbArc
 50
290.5204488815976
 51
309.4795511184024
  0
ARC
  5
309
330
1F
100
AcDbEntity
  8
LAY-10
  6
CONTINUOUS
 62
     7
100
AcDbCircle
 10
464.9999999999899
 20
600.0000000000177
 30
0.0
 40
70.00000000001
100
AcDbArc
 50
110.5204488815946
 51
129.4795511184023
  0
LINE
  5
30A
330
1F
100
AcDbEntity
  8
LAY-10
  6
CONTINUOUS
 62
     7
100
AcDbLine
 10
417.8018356100547
 20
655.6806364746675
 30
0.0
 11
419.0951821222782
 21
654.1548492345556
 31
0.0
  0
LINE
  5
30B
330
1F
100
AcDbEntity
  8
LAY-10
  6
CONTINUOUS
 62
     7
100
AcDbLine
 10
416.3879756709186
 20
655.8020706661789
 30
0.0
 11
418.9744191470439
 21
652.7507905831959
 31
0.0
  0
ARC
  5
30C
330
1F
100
AcDbEntity
  8
LAY-10
  6
CONTINUOUS
 62
     7
100
AcDbCircle
 10
464.9999999999899
 20
600.0000000000177
 30
0.0
 40
69.00000000001
100
AcDbArc
 50
109.7134393885236
 51
130.2865606114734
  0
LINE
  5
30D
330
1F
100
AcDbEntity
  8
LAY-10
  6
CONTINUOUS
 62
     7
100
AcDbLine
 10
458.9999999999845
 20
533.1453762162668
 30
0.0
 11
458.9999999999845
 21
533.2691975171924
 31
0.0
  0
ARC
  5
30E
330
1F
100
AcDbEntity
  8
LAY-10
  6
CONTINUOUS
 62
     7
100
AcDbCircle
 10
456.6352791764502
 20
533.5242040623489
 30
0.0
 40
2.0
100
AcDbArc
 50
262.8281039719596
 51
353.6832966137315
  0
LINE
  5
30F
330
1F
100
AcDbEntity
  8
LAY-10
  6
CONTINUOUS
 62
     7
100
AcDbLine
 10
470.9999999999954
 20
533.1453762162668
 30
0.0
 11
470.9999999999954
 21
533.2691975171891
 31
0.0
  0
ARC
  5
310
330
1F
100
AcDbEntity
  8
LAY-10
  6
CONTINUOUS
 62
     7
100
AcDbCircle
 10
473.3647208235298
 20
533.5242040623489
 30
0.0
 40
2.0
100
AcDbArc
 50
186.3167033863643
 51
277.1718960280404
  0
LINE
  5
311
330
1F
100
AcDbEntity
  8
LAY-10
  6
CONTINUOUS
 62
     7
100
AcDbLine
 10
397.9362935615049
 20
596.0000000000177
 30
0.0
 11
398.1195095711829
 21
596.0000000000177
 31
0.0
  0
ARC
  5
312
330
1F
100
AcDbEntity
  8
LAY-10
  6
CONTINUOUS
 62
     7
100
AcDbCircle
 10
398.2964651545066
 20
593.7040934633292
 30
0.0
 40
2.0
100
AcDbArc
 50
94.53677562141947
 51
185.3919682638614
  0
LINE
  5
313
330
1F
100
AcDbEntity
  8
LAY-10
  6
CONTINUOUS
 62
     7
100
AcDbLine
 10
397.9362935615049
 20
604.0000000000101
 30
0.0
 11
398.1195095711844
 21
604.0000000000101
 31
0.0
  0
ARC
  5
314
330
1F
100
AcDbEntity
  8
LAY-10
  6
CONTINUOUS
 62
     7
100
AcDbCircle
 10
398.2964651545066
 20
606.2959065366987
 30
0.0
 40
2.0
100
AcDbArc
 50
174.6080317361387
 51
265.4632243786253
  0
LINE
  5
315
330
1F
100
AcDbEntity
  8
LAY-10
  6
CONTINUOUS
 62
     7
100
AcDbLine
 10
532.063706438475
 20
604.0000000000101
 30
0.0
 11
531.8804904288311
 21
604.0000000000101
 31
0.0
  0
ARC
  5
316
330
1F
100
AcDbEntity
  8
LAY-10
  6
CONTINUOUS
 62
     7
100
AcDbCircle
 10
531.7035348454734
 20
606.2959065366987
 30
0.0
 40
2.0
100
AcDbArc
 50
274.536775622391
 51
5.391968263861411
  0
LINE
  5
317
330
1F
100
AcDbEntity
  8
LAY-10
  6
CONTINUOUS
 62
     7
100
AcDbLine
 10
532.063706438475
 20
596.0000000000177
 30
0.0
 11
531.8804904288326
 21
596.0000000000177
 31
0.0
  0
ARC
  5
318
330
1F
100
AcDbEntity
  8
LAY-10
  6
CONTINUOUS
 62
     7
100
AcDbCircle
 10
531.7035348454734
 20
593.7040934633292
 30
0.0
 40
2.0
100
AcDbArc
 50
354.6080317361387
 51
85.46322437756484
  0
LINE
  5
319
330
1F
100
AcDbEntity
  8
LAY-10
  6
CONTINUOUS
 62
     7
100
AcDbLine
 10
470.9999999999954
 20
666.8546237837611
 30
0.0
 11
470.9999999999954
 21
666.7308024828144
 31
0.0
  0
ARC
  5
31A
330
1F
100
AcDbEntity
  8
LAY-10
  6
CONTINUOUS
 62
     7
100
AcDbCircle
 10
473.3647208235298
 20
666.475795937679
 30
0.0
 40
2.0
100
AcDbArc
 50
82.82810397195794
 51
173.6832966143287
  0
LINE
  5
31B
330
1F
100
AcDbEntity
  8
LAY-10
  6
CONTINUOUS
 62
     7
100
AcDbLine
 10
458.9999999999845
 20
666.8546237837611
 30
0.0
 11
458.9999999999845
 21
666.7308024828112
 31
0.0
  0
ARC
  5
31C
330
1F
100
AcDbEntity
  8
LAY-10
  6
CONTINUOUS
 62
     7
100
AcDbCircle
 10
456.6352791764502
 20
666.475795937679
 30
0.0
 40
2.0
100
AcDbArc
 50
6.316703385575422
 51
97.17189602803872
  0
ARC
  5
31D
330
1F
100
AcDbEntity
  8
LAY-10
  6
CONTINUOUS
 62
     7
100
AcDbCircle
 10
464.9999999999899
 20
600.0000000000101
 30
0.0
 40
69.00000000001
100
AcDbArc
 50
199.7134393885243
 51
220.2865606114735
  0
ARC
  5
31E
330
1F
100
AcDbEntity
  8
LAY-10
  6
CONTINUOUS
 62
     7
100
AcDbCircle
 10
465.0000000000215
 20
600.0000000000099
 30
0.0
 40
64.2
100
AcDbArc
 50
86.4278558061919
 51
86.44449184025869
  0
ARC
  5
31F
330
1F
100
AcDbEntity
  8
LAY-10
  6
CONTINUOUS
 62
     7
100
AcDbCircle
 10
465.0000000000211
 20
659.5000000000102
 30
0.0
 40
4.0
100
AcDbArc
 50
179.9999999999984
 51
0.0000000000092819
  0
LINE
  5
320
330
1F
100
AcDbEntity
  8
LAY-10
  6
CONTINUOUS
 62
     7
100
AcDbLine
 10
475.0000000000219
 20
666.249528300217
 30
0.0
 11
475.0000000000218
 21
647.9687398208494
 31
0.0
  0
LINE
  5
321
330
1F
100
AcDbEntity
  8
LAY-10
  6
CONTINUOUS
 62
     7
100
AcDbLine
 10
455.0000000000217
 20
666.2495283002197
 30
0.0
 11
455.0000000000215
 21
651.2128876977008
 31
0.0
  0
ARC
  5
322
330
1F
100
AcDbEntity
  8
LAY-10
  6
CONTINUOUS
 62
     7
100
AcDbCircle
 10
465.0000000000213
 20
600.0000000000083
 30
0.0
 40
48.99999999999012
100
AcDbArc
 50
317.3971578063438
 51
330.6028421936583
  0
ARC
  5
323
330
1F
100
AcDbEntity
  8
LAY-10
  6
CONTINUOUS
 62
     7
100
AcDbCircle
 10
465.0000000000213
 20
600.0000000000083
 30
0.0
 40
48.99999999999012
100
AcDbArc
 50
341.3971578063422
 51
354.6028421936577
  0
ARC
  5
324
330
1F
100
AcDbEntity
  8
LAY-10
  6
CONTINUOUS
 62
     7
100
AcDbCircle
 10
465.0000000000213
 20
600.0000000000083
 30
0.0
 40
48.99999999999012
100
AcDbArc
 50
5.397157806341977
 51
18.60284219365882
  0
ARC
  5
325
330
1F
100
AcDbEntity
  8
LAY-10
  6
CONTINUOUS
 62
     7
100
AcDbCircle
 10
465.0000000000213
 20
600.0000000000083
 30
0.0
 40
48.99999999999012
100
AcDbArc
 50
29.39715780634151
 51
42.60284219365882
  0
ARC
  5
326
330
1F
100
AcDbEntity
  8
LAY-10
  6
CONTINUOUS
 62
     7
100
AcDbCircle
 10
465.0000000000213
 20
600.0000000000083
 30
0.0
 40
48.99999999999012
100
AcDbArc
 50
53.397157806341
 51
66.60284219365914
  0
ARC
  5
327
330
1F
100
AcDbEntity
  8
LAY-10
  6
CONTINUOUS
 62
     7
100
AcDbCircle
 10
465.0000000000213
 20
600.0000000000083
 30
0.0
 40
48.99999999999012
100
AcDbArc
 50
77.39715780634167
 51
90.60284219365846
  0
ARC
  5
328
330
1F
100
AcDbEntity
  8
LAY-10
  6
CONTINUOUS
 62
     7
100
AcDbCircle
 10
465.0000000000213
 20
600.0000000000083
 30
0.0
 40
48.99999999999012
100
AcDbArc
 50
101.3971578063412
 51
114.6028421936584
  0
ARC
  5
329
330
1F
100
AcDbEntity
  8
LAY-10
  6
CONTINUOUS
 62
     7
100
AcDbCircle
 10
465.0000000000213
 20
600.0000000000083
 30
0.0
 40
48.99999999999012
100
AcDbArc
 50
125.3971578063411
 51
138.6028421936605
  0
ARC
  5
32A
330
1F
100
AcDbEntity
  8
LAY-10
  6
CONTINUOUS
 62
     7
100
AcDbCircle
 10
465.0000000000213
 20
600.0000000000083
 30
0.0
 40
48.99999999999012
100
AcDbArc
 50
149.3971578063411
 51
162.6028421936588
  0
ARC
  5
32B
330
1F
100
AcDbEntity
  8
LAY-10
  6
CONTINUOUS
 62
     7
100
AcDbCircle
 10
465.0000000000213
 20
600.0000000000083
 30
0.0
 40
52.18007154399069
100
AcDbArc
 50
90.60284219367571
 51
101.3971578063409
  0
ARC
  5
32C
330
1F
100
AcDbEntity
  8
LAY-10
  6
CONTINUOUS
 62
     7
100
AcDbCircle
 10
465.0000000000213
 20
600.0000000000083
 30
0.0
 40
52.18007154399069
100
AcDbArc
 50
138.6028421936599
 51
149.3971578063421
  0
ARC
  5
32D
330
1F
100
AcDbEntity
  8
LAY-10
  6
CONTINUOUS
 62
     7
100
AcDbCircle
 10
465.0000000000213
 20
600.0000000000083
 30
0.0
 40
52.18007154399069
100
AcDbArc
 50
114.602842193659
 51
125.3971578063401
  0
ARC
  5
32E
330
1F
100
AcDbEntity
  8
LAY-10
  6
CONTINUOUS
 62
     7
100
AcDbCircle
 10
465.0000000000213
 20
600.0000000000083
 30
0.0
 40
52.18007154399069
100
AcDbArc
 50
66.6028421936591
 51
77.39715780634174
  0
ARC
  5
32F
330
1F
100
AcDbEntity
  8
LAY-10
  6
CONTINUOUS
 62
     7
100
AcDbCircle
 10
465.0000000000213
 20
600.0000000000083
 30
0.0
 40
52.18007154399069
100
AcDbArc
 50
42.6028421936587
 51
53.39715780634123
  0
ARC
  5
330
330
1F
100
AcDbEntity
  8
LAY-10
  6
CONTINUOUS
 62
     7
100
AcDbCircle
 10
465.0000000000213
 20
600.0000000000083
 30
0.0
 40
52.18007154399069
100
AcDbArc
 50
18.60284219365882
 51
29.39715780634065
  0
ARC
  5
331
330
1F
100
AcDbEntity
  8
LAY-10
  6
CONTINUOUS
 62
     7
100
AcDbCircle
 10
465.0000000000213
 20
600.0000000000083
 30
0.0
 40
52.18007154399069
100
AcDbArc
 50
354.6028421936826
 51
5.397157806341977
  0
ARC
  5
332
330
1F
100
AcDbEntity
  8
LAY-10
  6
CONTINUOUS
 62
     7
100
AcDbCircle
 10
441.7746242208942
 20
610.3406035239437
 30
0.0
 40
3.923338909759541
100
AcDbArc
 50
252.6028421936642
 51
59.3971578063402
  0
ARC
  5
333
330
1F
100
AcDbEntity
  8
LAY-10
  6
CONTINUOUS
 62
     7
100
AcDbCircle
 10
441.7746242208942
 20
610.3406035239437
 30
0.0
 40
2.923338909759541
100
AcDbArc
 50
252.602842193672
 51
59.397157806328
  0
LINE
  5
334
330
1F
100
AcDbEntity
  8
LAY-10
  6
CONTINUOUS
 62
     7
100
AcDbLine
 10
414.9079039480825
 20
614.6472447736578
 30
0.0
 11
440.6015715604669
 21
606.5967371191832
 31
0.0
  0
LINE
  5
335
330
1F
100
AcDbEntity
  8
LAY-10
  6
CONTINUOUS
 62
     7
100
AcDbLine
 10
415.2068974042715
 20
615.6014999351088
 30
0.0
 11
440.9005650166552
 21
607.5509922806339
 31
0.0
  0
LINE
  5
336
330
1F
100
AcDbEntity
  8
LAY-10
  6
CONTINUOUS
 62
     7
100
AcDbLine
 10
420.087737121181
 20
626.5640454268201
 30
0.0
 11
443.2628496161275
 21
612.8567703614765
 31
0.0
  0
LINE
  5
337
330
1F
100
AcDbEntity
  8
LAY-10
  6
CONTINUOUS
 62
     7
100
AcDbLine
 10
443.771933728908
 20
613.7174871360972
 30
0.0
 11
420.5968212339622
 21
627.4247622014412
 31
0.0
  0
ARC
  5
338
330
1F
100
AcDbEntity
  8
LAY-10
  6
CONTINUOUS
 62
     7
100
AcDbCircle
 10
447.9884658196604
 20
618.893222757159
 30
0.0
 40
3.923338909759541
100
AcDbArc
 50
228.602842193667
 51
35.39715780632933
  0
ARC
  5
339
330
1F
100
AcDbEntity
  8
LAY-10
  6
CONTINUOUS
 62
     7
100
AcDbCircle
 10
447.9884658196604
 20
618.893222757159
 30
0.0
 40
2.923338909759541
100
AcDbArc
 50
228.6028421936636
 51
35.39715780632715
  0
LINE
  5
33A
330
1F
100
AcDbEntity
  8
LAY-10
  6
CONTINUOUS
 62
     7
100
AcDbLine
 10
425.1961643575197
 20
633.7552149227511
 30
0.0
 11
445.394061236555
 21
615.9501541103225
 31
0.0
  0
LINE
  5
33B
330
1F
100
AcDbEntity
  8
LAY-10
  6
CONTINUOUS
 62
     7
100
AcDbLine
 10
425.857439012292
 20
634.5053587962548
 30
0.0
 11
446.055335891327
 21
616.7002979838268
 31
0.0
  0
LINE
  5
33C
330
1F
100
AcDbEntity
  8
LAY-10
  6
CONTINUOUS
 62
     7
100
AcDbLine
 10
434.7751769180209
 20
642.5349260725613
 30
0.0
 11
450.3714446223409
 21
620.5865397408598
 31
0.0
  0
LINE
  5
33D
330
1F
100
AcDbEntity
  8
LAY-10
  6
CONTINUOUS
 62
     7
100
AcDbLine
 10
451.1866011526776
 20
621.1657804775564
 30
0.0
 11
435.5903334483581
 21
643.1141668092571
 31
0.0
  0
ARC
  5
33E
330
1F
100
AcDbEntity
  8
LAY-10
  6
CONTINUOUS
 62
     7
100
AcDbCircle
 10
457.1437562231475
 20
624.1790321361223
 30
0.0
 40
3.923338909759541
100
AcDbArc
 50
204.6028421936632
 51
11.39715780633638
  0
ARC
  5
33F
330
1F
100
AcDbEntity
  8
LAY-10
  6
CONTINUOUS
 62
     7
100
AcDbCircle
 10
457.1437562231475
 20
624.1790321361223
 30
0.0
 40
2.923338909759541
100
AcDbArc
 50
204.6028421936557
 51
11.39715780633408
  0
LINE
  5
340
330
1F
100
AcDbEntity
  8
LAY-10
  6
CONTINUOUS
 62
     7
100
AcDbLine
 10
442.3668695560402
 20
647.0266017552024
 30
0.0
 11
453.5765958392084
 21
622.5456445531876
 31
0.0
  0
LINE
  5
341
330
1F
100
AcDbEntity
  8
LAY-10
  6
CONTINUOUS
 62
     7
100
AcDbLine
 10
443.2760850140945
 20
647.4429276501874
 30
0.0
 11
454.4858112972624
 21
622.9619704481727
 31
0.0
  0
LINE
  5
342
330
1F
100
AcDbEntity
  8
LAY-10
  6
CONTINUOUS
 62
     7
100
AcDbLine
 10
454.6887632096362
 20
651.1511315826856
 30
0.0
 11
460.0094497496088
 21
624.7567093762088
 31
0.0
  0
LINE
  5
343
330
1F
100
AcDbEntity
  8
LAY-10
  6
CONTINUOUS
 62
     7
100
AcDbLine
 10
460.9897307279422
 20
624.954318089368
 30
0.0
 11
455.66904418797
 21
651.3487402958452
 31
0.0
  0
ARC
  5
344
330
1F
100
AcDbEntity
  8
LAY-10
  6
CONTINUOUS
 62
     7
100
AcDbCircle
 10
477.7116694549037
 20
622.0172573448896
 30
0.0
 40
3.923338909759541
100
AcDbArc
 50
156.6028421936609
 51
323.3971578063294
  0
ARC
  5
345
330
1F
100
AcDbEntity
  8
LAY-10
  6
CONTINUOUS
 62
     7
100
AcDbCircle
 10
477.7116694549037
 20
622.0172573448896
 30
0.0
 40
2.923338909759541
100
AcDbArc
 50
156.6028421936737
 51
323.397157806333
  0
LINE
  5
346
330
1F
100
AcDbEntity
  8
LAY-10
  6
CONTINUOUS
 62
     7
100
AcDbLine
 10
484.8030554563991
 20
648.2866323212578
 30
0.0
 11
474.1109297339618
 21
623.5752245020742
 31
0.0
  0
LINE
  5
347
330
1F
100
AcDbEntity
  8
LAY-10
  6
CONTINUOUS
 62
     7
100
AcDbLine
 10
485.7208297817286
 20
647.8895299569143
 30
0.0
 11
475.0287040592911
 21
623.1781221377305
 31
0.0
  0
LINE
  5
348
330
1F
100
AcDbEntity
  8
LAY-10
  6
CONTINUOUS
 62
     7
100
AcDbLine
 10
496.1131346271417
 20
641.8895299569144
 30
0.0
 11
480.05849055367
 21
620.274173551235
 31
0.0
  0
LINE
  5
349
330
1F
100
AcDbEntity
  8
LAY-10
  6
CONTINUOUS
 62
     7
100
AcDbLine
 10
480.8612784517581
 20
619.6779088527301
 30
0.0
 11
496.91592252523
 21
641.2932652584099
 31
0.0
  0
ARC
  5
34A
330
1F
100
AcDbEntity
  8
LAY-10
  6
CONTINUOUS
 62
     7
100
AcDbCircle
 10
467.6574625473906
 20
625.2840671991405
 30
0.0
 40
3.923338909759541
100
AcDbArc
 50
180.6028421936525
 51
347.3971578063317
  0
ARC
  5
34B
330
1F
100
AcDbEntity
  8
LAY-10
  6
CONTINUOUS
 62
     7
100
AcDbCircle
 10
467.6574625473906
 20
625.2840671991405
 30
0.0
 40
2.923338909759541
100
AcDbArc
 50
180.6028421936552
 51
347.3971578063229
  0
LINE
  5
34C
330
1F
100
AcDbEntity
  8
LAY-10
  6
CONTINUOUS
 62
     7
100
AcDbLine
 10
463.4510486238593
 20
652.1666619209146
 30
0.0
 11
463.7343407996354
 21
625.2427882320576
 31
0.0
  0
LINE
  5
34D
330
1F
100
AcDbEntity
  8
LAY-10
  6
CONTINUOUS
 62
     7
100
AcDbLine
 10
464.4509932725352
 20
652.1771833079357
 30
0.0
 11
464.7342854483106
 21
625.2533096190778
 31
0.0
  0
LINE
  5
34E
330
1F
100
AcDbEntity
  8
LAY-10
  6
CONTINUOUS
 62
     7
100
AcDbLine
 10
476.3852560169544
 20
650.9228417487234
 30
0.0
 11
470.5103663528991
 21
624.6462190527687
 31
0.0
  0
LINE
  5
34F
330
1F
100
AcDbEntity
  8
LAY-10
  6
CONTINUOUS
 62
     7
100
AcDbLine
 10
471.4862722925023
 20
624.4280274006682
 30
0.0
 11
477.361161956558
 21
650.7046500966225
 31
0.0
  0
ARC
  5
350
330
1F
100
AcDbEntity
  8
LAY-10
  6
CONTINUOUS
 62
     7
100
AcDbCircle
 10
485.567913231776
 20
614.9434636752046
 30
0.0
 40
3.923338909759541
100
AcDbArc
 50
132.6028421936527
 51
299.3971578063419
  0
ARC
  5
351
330
1F
100
AcDbEntity
  8
LAY-10
  6
CONTINUOUS
 62
     7
100
AcDbCircle
 10
485.567913231776
 20
614.9434636752046
 30
0.0
 40
2.923338909759541
100
AcDbArc
 50
132.602842193656
 51
299.3971578063371
  0
LINE
  5
352
330
1F
100
AcDbEntity
  8
LAY-10
  6
CONTINUOUS
 62
     7
100
AcDbLine
 10
502.7309340954202
 20
636.0574053229723
 30
0.0
 11
482.9121561470922
 21
617.8312902814921
 31
0.0
  0
LINE
  5
353
330
1F
100
AcDbEntity
  8
LAY-10
  6
CONTINUOUS
 62
     7
100
AcDbLine
 10
503.4078465788349
 20
635.3213418136221
 30
0.0
 11
483.5890686305072
 21
617.0952267721424
 31
0.0
  0
LINE
  5
354
330
1F
100
AcDbEntity
  8
LAY-10
  6
CONTINUOUS
 62
     7
100
AcDbLine
 10
510.4612696063445
 20
625.6131378811231
 30
0.0
 11
487.0028649356227
 21
612.3965392576093
 31
0.0
  0
LINE
  5
355
330
1F
100
AcDbEntity
  8
LAY-10
  6
CONTINUOUS
 62
     7
100
AcDbLine
 10
487.4937254715177
 20
611.5253010959678
 30
0.0
 11
510.9521301422394
 21
624.7418997194806
 31
0.0
  0
ARC
  5
356
330
1F
100
AcDbEntity
  8
LAY-10
  6
CONTINUOUS
 62
     7
100
AcDbCircle
 10
489.8677779572525
 20
605.2858093789728
 30
0.0
 40
3.923338909759541
100
AcDbArc
 50
108.6028421936607
 51
275.3971578063482
  0
ARC
  5
357
330
1F
100
AcDbEntity
  8
LAY-10
  6
CONTINUOUS
 62
     7
100
AcDbCircle
 10
489.8677779572525
 20
605.2858093789728
 30
0.0
 40
2.923338909759541
100
AcDbArc
 50
108.6028421936526
 51
275.39715780635
  0
LINE
  5
358
330
1F
100
AcDbEntity
  8
LAY-10
  6
CONTINUOUS
 62
     7
100
AcDbLine
 10
514.1347914545714
 20
617.5935253731036
 30
0.0
 11
488.6162080355639
 21
609.004163979056
 31
0.0
  0
LINE
  5
359
330
1F
100
AcDbEntity
  8
LAY-10
  6
CONTINUOUS
 62
     7
100
AcDbLine
 10
514.453797778133
 20
616.6457727864399
 30
0.0
 11
488.9352143591252
 21
608.0564113923917
 31
0.0
  0
LINE
  5
35A
330
1F
100
AcDbEntity
  8
LAY-10
  6
CONTINUOUS
 62
     7
100
AcDbLine
 10
516.9487380679458
 20
604.9080015776342
 30
0.0
 11
490.1427440804579
 21
602.3754307073207
 31
0.0
  0
LINE
  5
35B
330
1F
100
AcDbEntity
  8
LAY-10
  6
CONTINUOUS
 62
     7
100
AcDbLine
 10
490.2368030081755
 20
601.3798640756402
 30
0.0
 11
517.0427969956625
 21
603.9124349459534
 31
0.0
  0
ARC
  5
35C
330
1F
100
AcDbEntity
  8
LAY-10
  6
CONTINUOUS
 62
     7
100
AcDbCircle
 10
489.8677779572532
 20
594.7141906210477
 30
0.0
 40
3.923338909759541
100
AcDbArc
 50
84.60284219365472
 51
251.3971578063489
  0
ARC
  5
35D
330
1F
100
AcDbEntity
  8
LAY-10
  6
CONTINUOUS
 62
     7
100
AcDbCircle
 10
489.8677779572532
 20
594.7141906210477
 30
0.0
 40
2.923338909759541
100
AcDbArc
 50
84.60284219365514
 51
251.3971578063568
  0
LINE
  5
35E
330
1F
100
AcDbEntity
  8
LAY-10
  6
CONTINUOUS
 62
     7
100
AcDbLine
 10
517.0427969956642
 20
596.0875650540667
 30
0.0
 11
490.2368030081759
 21
598.6201359243801
 31
0.0
  0
LINE
  5
35F
330
1F
100
AcDbEntity
  8
LAY-10
  6
CONTINUOUS
 62
     7
100
AcDbLine
 10
516.9487380679475
 20
595.0919984223859
 30
0.0
 11
490.1427440804588
 21
597.624569292699
 31
0.0
  0
LINE
  5
360
330
1F
100
AcDbEntity
  8
LAY-10
  6
CONTINUOUS
 62
     7
100
AcDbLine
 10
514.4537977781335
 20
583.3542272135797
 30
0.0
 11
488.9352143591266
 21
591.9435886076282
 31
0.0
  0
LINE
  5
361
330
1F
100
AcDbEntity
  8
LAY-10
  6
CONTINUOUS
 62
     7
100
AcDbLine
 10
488.616208035565
 20
590.995836020964
 30
0.0
 11
514.1347914545721
 21
582.4064746269166
 31
0.0
  0
LINE
  5
362
330
1F
100
AcDbEntity
  8
LAY-10
  6
CONTINUOUS
 62
     7
100
AcDbLine
 10
475.0000000000219
 20
533.7504716998044
 30
0.0
 11
475.0000000000219
 21
552.0312601791729
 31
0.0
  0
LINE
  5
363
330
1F
100
AcDbEntity
  8
LAY-10
  6
CONTINUOUS
 62
     7
100
AcDbLine
 10
455.0000000000217
 20
533.7504716998012
 30
0.0
 11
455.0000000000217
 21
548.7871123023205
 31
0.0
  0
ARC
  5
364
330
1F
100
AcDbEntity
  8
LAY-10
  6
CONTINUOUS
 62
     7
100
AcDbCircle
 10
465.0000000000213
 20
600.0000000000083
 30
0.0
 40
48.99999999999012
100
AcDbArc
 50
197.3971578063391
 51
210.6028421936569
  0
ARC
  5
365
330
1F
100
AcDbEntity
  8
LAY-10
  6
CONTINUOUS
 62
     7
100
AcDbCircle
 10
465.0000000000213
 20
600.0000000000083
 30
0.0
 40
52.18007154399069
100
AcDbArc
 50
210.6028421936557
 51
221.3971578063413
  0
ARC
  5
366
330
1F
100
AcDbEntity
  8
LAY-10
  6
CONTINUOUS
 62
     7
100
AcDbCircle
 10
465.0000000000213
 20
600.0000000000083
 30
0.0
 40
48.99999999999012
100
AcDbArc
 50
221.3971578063415
 51
234.6028421936565
  0
ARC
  5
367
330
1F
100
AcDbEntity
  8
LAY-10
  6
CONTINUOUS
 62
     7
100
AcDbCircle
 10
465.0000000000213
 20
600.0000000000083
 30
0.0
 40
52.18007154399069
100
AcDbArc
 50
234.6028421936566
 51
245.3971578063428
  0
ARC
  5
368
330
1F
100
AcDbEntity
  8
LAY-10
  6
CONTINUOUS
 62
     7
100
AcDbCircle
 10
465.0000000000213
 20
600.0000000000083
 30
0.0
 40
48.99999999999012
100
AcDbArc
 50
245.3971578063415
 51
258.6028421936575
  0
ARC
  5
369
330
1F
100
AcDbEntity
  8
LAY-10
  6
CONTINUOUS
 62
     7
100
AcDbCircle
 10
465.0000000000213
 20
600.0000000000083
 30
0.0
 40
48.99999999999012
100
AcDbArc
 50
269.3971578063432
 51
282.6028421936587
  0
ARC
  5
36A
330
1F
100
AcDbEntity
  8
LAY-10
  6
CONTINUOUS
 62
     7
100
AcDbCircle
 10
465.0000000000213
 20
600.0000000000083
 30
0.0
 40
52.18007154399069
100
AcDbArc
 50
258.6028421936578
 51
269.3971578063425
  0
ARC
  5
36B
330
1F
100
AcDbEntity
  8
LAY-10
  6
CONTINUOUS
 62
     7
100
AcDbCircle
 10
465.0000000000213
 20
600.0000000000083
 30
0.0
 40
52.18007154399069
100
AcDbArc
 50
282.6028421936587
 51
293.397157806343
  0
ARC
  5
36C
330
1F
100
AcDbEntity
  8
LAY-10
  6
CONTINUOUS
 62
     7
100
AcDbCircle
 10
465.0000000000213
 20
600.0000000000083
 30
0.0
 40
48.99999999999012
100
AcDbArc
 50
293.3971578063434
 51
306.6028421936603
  0
ARC
  5
36D
330
1F
100
AcDbEntity
  8
LAY-10
  6
CONTINUOUS
 62
     7
100
AcDbCircle
 10
465.0000000000213
 20
600.0000000000083
 30
0.0
 40
52.18007154399069
100
AcDbArc
 50
306.6028421936593
 51
317.3971578063442
  0
ARC
  5
36E
330
1F
100
AcDbEntity
  8
LAY-10
  6
CONTINUOUS
 62
     7
100
AcDbCircle
 10
465.0000000000213
 20
600.0000000000083
 30
0.0
 40
52.18007154399069
100
AcDbArc
 50
330.6028421936608
 51
341.3971578063449
  0
LINE
  5
36F
330
1F
100
AcDbEntity
  8
LAY-10
  6
CONTINUOUS
 62
     7
100
AcDbLine
 10
510.9521301422421
 20
575.2581002805375
 30
0.0
 11
487.4937254715203
 21
588.4746989040519
 31
0.0
  0
LINE
  5
370
330
1F
100
AcDbEntity
  8
LAY-10
  6
CONTINUOUS
 62
     7
100
AcDbLine
 10
482.9121561470945
 20
582.1687097185273
 30
0.0
 11
502.7309340954222
 21
563.9425946770468
 31
0.0
  0
ARC
  5
371
330
1F
100
AcDbEntity
  8
LAY-10
  6
CONTINUOUS
 62
     7
100
AcDbCircle
 10
485.567913231779
 20
585.056536324815
 30
0.0
 40
3.923338909759541
100
AcDbArc
 50
60.60284219365662
 51
227.3971578063338
  0
LINE
  5
372
330
1F
100
AcDbEntity
  8
LAY-10
  6
CONTINUOUS
 62
     7
100
AcDbLine
 10
503.4078465788373
 20
564.6786581863976
 30
0.0
 11
483.5890686305098
 21
582.9047732278773
 31
0.0
  0
LINE
  5
373
330
1F
100
AcDbEntity
  8
LAY-10
  6
CONTINUOUS
 62
     7
100
AcDbLine
 10
510.4612696063475
 20
574.3868621188967
 30
0.0
 11
487.0028649356256
 21
587.6034607424099
 31
0.0
  0
ARC
  5
374
330
1F
100
AcDbEntity
  8
LAY-10
  6
CONTINUOUS
 62
     7
100
AcDbCircle
 10
485.567913231779
 20
585.056536324815
 30
0.0
 40
2.923338909759541
100
AcDbArc
 50
60.60284219365427
 51
227.3971578063238
  0
LINE
  5
375
330
1F
100
AcDbEntity
  8
LAY-10
  6
CONTINUOUS
 62
     7
100
AcDbLine
 10
496.9159225252325
 20
558.7067347416084
 30
0.0
 11
480.8612784517601
 21
580.3220911472881
 31
0.0
  0
LINE
  5
376
330
1F
100
AcDbEntity
  8
LAY-10
  6
CONTINUOUS
 62
     7
100
AcDbLine
 10
474.1109297339644
 20
576.4247754979452
 30
0.0
 11
484.8030554564014
 21
551.7133676787618
 31
0.0
  0
ARC
  5
377
330
1F
100
AcDbEntity
  8
LAY-10
  6
CONTINUOUS
 62
     7
100
AcDbCircle
 10
477.7116694549063
 20
577.9827426551296
 30
0.0
 40
3.923338909759541
100
AcDbArc
 50
36.60284219365123
 51
203.3971578063428
  0
LINE
  5
378
330
1F
100
AcDbEntity
  8
LAY-10
  6
CONTINUOUS
 62
     7
100
AcDbLine
 10
485.7208297817309
 20
552.1104700431049
 30
0.0
 11
475.0287040592933
 21
576.8218778622877
 31
0.0
  0
LINE
  5
379
330
1F
100
AcDbEntity
  8
LAY-10
  6
CONTINUOUS
 62
     7
100
AcDbLine
 10
496.1131346271437
 20
558.1104700431036
 30
0.0
 11
480.058490553672
 21
579.725826448784
 31
0.0
  0
ARC
  5
37A
330
1F
100
AcDbEntity
  8
LAY-10
  6
CONTINUOUS
 62
     7
100
AcDbCircle
 10
477.7116694549063
 20
577.9827426551296
 30
0.0
 40
2.923338909759541
100
AcDbArc
 50
36.60284219366259
 51
203.3971578063473
  0
LINE
  5
37B
330
1F
100
AcDbEntity
  8
LAY-10
  6
CONTINUOUS
 62
     7
100
AcDbLine
 10
477.3611619565602
 20
549.2953499033953
 30
0.0
 11
471.486272292504
 21
575.5719725993498
 31
0.0
  0
LINE
  5
37C
330
1F
100
AcDbEntity
  8
LAY-10
  6
CONTINUOUS
 62
     7
100
AcDbLine
 10
463.7343407996369
 20
574.7572117679604
 30
0.0
 11
463.4510486238615
 21
547.833338079104
 31
0.0
  0
ARC
  5
37D
330
1F
100
AcDbEntity
  8
LAY-10
  6
CONTINUOUS
 62
     7
100
AcDbCircle
 10
467.6574625473928
 20
574.7159328008773
 30
0.0
 40
3.923338909759541
100
AcDbArc
 50
12.60284219366631
 51
179.397157806342
  0
LINE
  5
37E
330
1F
100
AcDbEntity
  8
LAY-10
  6
CONTINUOUS
 62
     7
100
AcDbLine
 10
464.4509932725374
 20
547.8228166920825
 30
0.0
 11
464.7342854483127
 21
574.7466903809401
 31
0.0
  0
LINE
  5
37F
330
1F
100
AcDbEntity
  8
LAY-10
  6
CONTINUOUS
 62
     7
100
AcDbLine
 10
476.3852560169568
 20
549.0771582512933
 30
0.0
 11
470.5103663529008
 21
575.3537809472494
 31
0.0
  0
ARC
  5
380
330
1F
100
AcDbEntity
  8
LAY-10
  6
CONTINUOUS
 62
     7
100
AcDbCircle
 10
467.6574625473928
 20
574.7159328008773
 30
0.0
 40
2.923338909759541
100
AcDbArc
 50
12.60284219365858
 51
179.3971578063416
  0
LINE
  5
381
330
1F
100
AcDbEntity
  8
LAY-10
  6
CONTINUOUS
 62
     7
100
AcDbLine
 10
455.6690441879717
 20
548.6512597041715
 30
0.0
 11
460.9897307279439
 21
575.0456819106489
 31
0.0
  0
LINE
  5
382
330
1F
100
AcDbEntity
  8
LAY-10
  6
CONTINUOUS
 62
     7
100
AcDbLine
 10
453.5765958392093
 20
577.4543554468295
 30
0.0
 11
442.3668695560417
 21
552.9733982448151
 31
0.0
  0
ARC
  5
383
330
1F
100
AcDbEntity
  8
LAY-10
  6
CONTINUOUS
 62
     7
100
AcDbCircle
 10
457.1437562231491
 20
575.8209678638946
 30
0.0
 40
3.923338909759541
100
AcDbArc
 50
348.6028421936711
 51
155.397157806338
  0
LINE
  5
384
330
1F
100
AcDbEntity
  8
LAY-10
  6
CONTINUOUS
 62
     7
100
AcDbLine
 10
443.276085014096
 20
552.5570723498306
 30
0.0
 11
454.4858112972641
 21
577.0380295518447
 31
0.0
  0
LINE
  5
385
330
1F
100
AcDbEntity
  8
LAY-10
  6
CONTINUOUS
 62
     7
100
AcDbLine
 10
454.6887632096371
 20
548.8488684173308
 30
0.0
 11
460.0094497496098
 21
575.2432906238079
 31
0.0
  0
ARC
  5
386
330
1F
100
AcDbEntity
  8
LAY-10
  6
CONTINUOUS
 62
     7
100
AcDbCircle
 10
457.1437562231491
 20
575.8209678638946
 30
0.0
 40
2.923338909759541
100
AcDbArc
 50
348.6028421936618
 51
155.3971578063317
  0
LINE
  5
387
330
1F
100
AcDbEntity
  8
LAY-10
  6
CONTINUOUS
 62
     7
100
AcDbLine
 10
435.5903334483583
 20
556.8858331907586
 30
0.0
 11
451.1866011526783
 21
578.8342195224594
 31
0.0
  0
LINE
  5
388
330
1F
100
AcDbEntity
  8
LAY-10
  6
CONTINUOUS
 62
     7
100
AcDbLine
 10
445.3940612365547
 20
584.049845889694
 30
0.0
 11
425.1961643575204
 21
566.2447850772656
 31
0.0
  0
ARC
  5
389
330
1F
100
AcDbEntity
  8
LAY-10
  6
CONTINUOUS
 62
     7
100
AcDbCircle
 10
447.9884658196616
 20
581.106777242858
 30
0.0
 40
3.923338909759541
100
AcDbArc
 50
324.6028421936475
 51
131.3971578063403
  0
LINE
  5
38A
330
1F
100
AcDbEntity
  8
LAY-10
  6
CONTINUOUS
 62
     7
100
AcDbLine
 10
425.857439012293
 20
565.4946412037623
 30
0.0
 11
446.0553358913272
 21
583.29970201619
 31
0.0
  0
LINE
  5
38B
330
1F
100
AcDbEntity
  8
LAY-10
  6
CONTINUOUS
 62
     7
100
AcDbLine
 10
434.7751769180207
 20
557.4650739274547
 30
0.0
 11
450.371444622341
 21
579.4134602591555
 31
0.0
  0
ARC
  5
38C
330
1F
100
AcDbEntity
  8
LAY-10
  6
CONTINUOUS
 62
     7
100
AcDbCircle
 10
447.9884658196616
 20
581.106777242858
 30
0.0
 40
2.923338909759541
100
AcDbArc
 50
324.6028421936415
 51
131.3971578063591
  0
LINE
  5
38D
330
1F
100
AcDbEntity
  8
LAY-10
  6
CONTINUOUS
 62
     7
100
AcDbLine
 10
420.5968212339608
 20
572.5752377985751
 30
0.0
 11
443.7719337289071
 21
586.2825128639191
 31
0.0
  0
LINE
  5
38E
330
1F
100
AcDbEntity
  8
LAY-10
  6
CONTINUOUS
 62
     7
100
AcDbLine
 10
440.6015715604657
 20
593.4032628808337
 30
0.0
 11
414.9079039480825
 21
585.3527552263589
 31
0.0
  0
ARC
  5
38F
330
1F
100
AcDbEntity
  8
LAY-10
  6
CONTINUOUS
 62
     7
100
AcDbCircle
 10
441.7746242208938
 20
589.6593964760731
 30
0.0
 40
3.923338909759541
100
AcDbArc
 50
300.602842193653
 51
107.3971578063428
  0
LINE
  5
390
330
1F
100
AcDbEntity
  8
LAY-10
  6
CONTINUOUS
 62
     7
100
AcDbLine
 10
415.2068974042712
 20
584.3985000649084
 30
0.0
 11
440.900565016654
 21
592.4490077193827
 31
0.0
  0
LINE
  5
391
330
1F
100
AcDbEntity
  8
LAY-10
  6
CONTINUOUS
 62
     7
100
AcDbLine
 10
420.0877371211802
 20
573.4359545731968
 30
0.0
 11
443.2628496161267
 21
587.1432296385404
 31
0.0
  0
ARC
  5
392
330
1F
100
AcDbEntity
  8
LAY-10
  6
CONTINUOUS
 62
     7
100
AcDbCircle
 10
441.7746242208938
 20
589.6593964760731
 30
0.0
 40
2.923338909759541
100
AcDbArc
 50
300.6028421936436
 51
107.3971578063415
  0
LINE
  5
393
330
1F
100
AcDbEntity
  8
LAY-10
  6
CONTINUOUS
 62
     7
100
AcDbLine
 10
413.2810220184305
 20
593.0066329371629
 30
0.0
 11
440.0277918143398
 21
596.1026843506673
 31
0.0
  0
LINE
  5
394
330
1F
100
AcDbEntity
  8
LAY-10
  6
CONTINUOUS
 62
     7
100
AcDbLine
 10
440.0277918143396
 20
603.8973156493539
 30
0.0
 11
413.2810220184311
 21
606.9933670628583
 31
0.0
  0
ARC
  5
395
330
1F
100
AcDbEntity
  8
LAY-10
  6
CONTINUOUS
 62
     7
100
AcDbCircle
 10
439.5766610902529
 20
600.0000000000109
 30
0.0
 40
3.923338909759541
100
AcDbArc
 50
276.6028421936493
 51
83.39715780634587
  0
ARC
  5
396
330
1F
100
AcDbEntity
  8
LAY-10
  6
CONTINUOUS
 62
     7
100
AcDbCircle
 10
439.5766610902529
 20
600.0000000000109
 30
0.0
 40
2.923338909759541
100
AcDbArc
 50
276.6028421936419
 51
83.39715780633958
  0
LINE
  5
397
330
1F
100
AcDbEntity
  8
LAY-10
  6
CONTINUOUS
 62
     7
100
AcDbLine
 10
413.1660355911901
 20
594.0000000000108
 30
0.0
 11
439.9128053870989
 21
597.0960514135141
 31
0.0
  0
LINE
  5
398
330
1F
100
AcDbEntity
  8
LAY-10
  6
CONTINUOUS
 62
     7
100
AcDbLine
 10
413.1660355911907
 20
606.0000000000109
 30
0.0
 11
439.9128053870991
 21
602.9039485865065
 31
0.0
  0
ARC
  5
399
330
1F
100
AcDbEntity
  8
LAY-10
  6
CONTINUOUS
 62
     7
100
AcDbCircle
 10
465.0000000000213
 20
540.5000000000103
 30
0.0
 40
4.0
100
AcDbArc
 50
0.0000000000084225
 51
179.9999999999984
  0
CIRCLE
  5
39A
330
1F
100
AcDbEntity
  8
LAY-10
  6
CONTINUOUS
 62
     7
100
AcDbCircle
 10
465.0000000000215
 20
535.9999999999985
 30
0.0
 40
5.25
  0
LINE
  5
39B
330
1F
100
AcDbEntity
  8
LAY-10
  6
CONTINUOUS
 62
     7
100
AcDbLine
 10
466.7109156121894
 20
531.0366072321386
 30
0.0
 11
461.5570335801859
 21
539.9633927678027
 31
0.0
  0
LINE
  5
39C
330
1F
100
AcDbEntity
  8
LAY-10
  6
CONTINUOUS
 62
     7
100
AcDbLine
 10
468.4429664197909
 20
532.036607232136
 30
0.0
 11
463.2890843877703
 21
540.9633927678296
 31
0.0
  0
LINE
  5
39D
330
1F
100
AcDbEntity
  8
LAY-10
  6
CONTINUOUS
 62
     7
100
AcDbLine
 10
461.000000000021
 20
540.5000000000108
 30
0.0
 11
461.0000000000211
 21
539.4003676271818
 31
0.0
  0
LINE
  5
39E
330
1F
100
AcDbEntity
  8
LAY-10
  6
CONTINUOUS
 62
     7
100
AcDbLine
 10
469.0000000000212
 20
540.5000000000105
 30
0.0
 11
469.0000000000211
 21
539.4003676271826
 31
0.0
  0
LINE
  5
39F
330
1F
100
AcDbEntity
  8
LAY-10
  6
CONTINUOUS
 62
     7
100
AcDbLine
 10
466.7109156121893
 20
659.036607232139
 30
0.0
 11
461.5570335801857
 21
667.9633927678028
 31
0.0
  0
LINE
  5
3A0
330
1F
100
AcDbEntity
  8
LAY-10
  6
CONTINUOUS
 62
     7
100
AcDbLine
 10
468.4429664197907
 20
660.0366072321359
 30
0.0
 11
463.2890843877701
 21
668.9633927678293
 31
0.0
  0
LINE
  5
3A1
330
1F
100
AcDbEntity
  8
LAY-10
  6
CONTINUOUS
 62
     7
100
AcDbLine
 10
461.0000000000209
 20
659.5000000000107
 30
0.0
 11
461.0000000000207
 21
660.5996323728153
 31
0.0
  0
LINE
  5
3A2
330
1F
100
AcDbEntity
  8
LAY-10
  6
CONTINUOUS
 62
     7
100
AcDbLine
 10
469.0000000000211
 20
659.5000000000103
 30
0.0
 11
469.0000000000213
 21
660.5996323728148
 31
0.0
  0
LINE
  5
3A3
330
1F
100
AcDbEntity
  8
LAY-10
  6
CONTINUOUS
 62
     7
100
AcDbLine
 10
469.0000000000211
 20
663.9999999999984
 30
0.0
 11
469.0000000000211
 21
664.075268239792
 31
0.0
  0
CIRCLE
  5
3A4
330
1F
100
AcDbEntity
  8
LAY-10
  6
CONTINUOUS
 62
     7
100
AcDbCircle
 10
465.0000000000214
 20
663.9999999999985
 30
0.0
 40
5.25
  0
ARC
  5
3A5
330
1F
100
AcDbEntity
  8
LAY-10
  6
CONTINUOUS
 62
     7
100
AcDbCircle
 10
423.0000000000208
 20
599.9999999999976
 30
0.0
 40
3.499999999999887
100
AcDbArc
 50
102.3736251161951
 51
257.6263748838073
  0
CIRCLE
  5
3A6
330
1F
100
AcDbEntity
  8
LAY-10
  6
CONTINUOUS
 62
     7
100
AcDbCircle
 10
423.0000000000208
 20
599.9999999999976
 30
0.0
 40
3.999999999999943
  0
LINE
  5
3A7
330
1F
100
AcDbEntity
  8
LAY-10
  6
CONTINUOUS
 62
     7
100
AcDbLine
 10
422.2500000000208
 20
603.9290584113726
 30
0.0
 11
422.2500000000206
 21
596.0709415886213
 31
0.0
  0
LINE
  5
3A8
330
1F
100
AcDbEntity
  8
LAY-10
  6
CONTINUOUS
 62
     7
100
AcDbLine
 10
423.7500000000211
 20
603.9290584113724
 30
0.0
 11
423.7500000000211
 21
596.0709415886217
 31
0.0
  0
ARC
  5
3A9
330
1F
100
AcDbEntity
  8
LAY-10
  6
CONTINUOUS
 62
     7
100
AcDbCircle
 10
423.0000000000208
 20
599.9999999999976
 30
0.0
 40
3.499999999999887
100
AcDbArc
 50
282.3736251161952
 51
77.62637488380547
  0
ARC
  5
3AA
330
1F
100
AcDbEntity
  8
LAY-10
  6
CONTINUOUS
 62
     7
100
AcDbCircle
 10
486.0000000000312
 20
563.6269330411122
 30
0.0
 40
3.499999999999887
100
AcDbArc
 50
222.373625116193
 51
17.62637488381754
  0
CIRCLE
  5
3AB
330
1F
100
AcDbEntity
  8
LAY-10
  6
CONTINUOUS
 62
     7
100
AcDbCircle
 10
486.0000000000312
 20
563.6269330411122
 30
0.0
 40
3.999999999999943
  0
LINE
  5
3AC
330
1F
100
AcDbEntity
  8
LAY-10
  6
CONTINUOUS
 62
     7
100
AcDbLine
 10
482.9723356028272
 20
561.0128847825866
 30
0.0
 11
489.7776643972353
 21
564.9419431939618
 31
0.0
  0
LINE
  5
3AD
330
1F
100
AcDbEntity
  8
LAY-10
  6
CONTINUOUS
 62
     7
100
AcDbLine
 10
482.2223356028271
 20
562.3119228882633
 30
0.0
 11
489.027664397235
 21
566.2409812996386
 31
0.0
  0
ARC
  5
3AE
330
1F
100
AcDbEntity
  8
LAY-10
  6
CONTINUOUS
 62
     7
100
AcDbCircle
 10
486.0000000000312
 20
563.6269330411122
 30
0.0
 40
3.499999999999887
100
AcDbArc
 50
42.37362511620093
 51
197.6263748838037
  0
ARC
  5
3AF
330
1F
100
AcDbEntity
  8
LAY-10
  6
CONTINUOUS
 62
     7
100
AcDbCircle
 10
486.0000000000126
 20
636.3730669590137
 30
0.0
 40
3.499999999999887
100
AcDbArc
 50
342.3736251162061
 51
137.6263748838112
  0
CIRCLE
  5
3B0
330
1F
100
AcDbEntity
  8
LAY-10
  6
CONTINUOUS
 62
     7
100
AcDbCircle
 10
486.0000000000126
 20
636.3730669590137
 30
0.0
 40
3.999999999999943
  0
LINE
  5
3B1
330
1F
100
AcDbEntity
  8
LAY-10
  6
CONTINUOUS
 62
     7
100
AcDbLine
 10
489.7776643972164
 20
635.0580568061649
 30
0.0
 11
482.9723356028082
 21
638.9871152175399
 31
0.0
  0
LINE
  5
3B2
330
1F
100
AcDbEntity
  8
LAY-10
  6
CONTINUOUS
 62
     7
100
AcDbLine
 10
489.0276643972163
 20
633.7590187004878
 30
0.0
 11
482.2223356028083
 21
637.6880771118629
 31
0.0
  0
ARC
  5
3B3
330
1F
100
AcDbEntity
  8
LAY-10
  6
CONTINUOUS
 62
     7
100
AcDbCircle
 10
486.0000000000126
 20
636.3730669590137
 30
0.0
 40
3.499999999999887
100
AcDbArc
 50
162.3736251161835
 51
317.6263748838054
  0
ARC
  5
3B4
330
1F
100
AcDbEntity
  8
LAY-10
  6
CONTINUOUS
 62
     7
100
AcDbCircle
 10
465.0000000000213
 20
600.0000000000083
 30
0.0
 40
52.18007154399069
100
AcDbArc
 50
162.6028421936581
 51
173.3971578063392
  0
ARC
  5
3B5
330
1F
100
AcDbEntity
  8
LAY-10
  6
CONTINUOUS
 62
     7
100
AcDbCircle
 10
465.0000000000213
 20
600.0000000000083
 30
0.0
 40
52.18007154399069
100
AcDbArc
 50
186.6028421936549
 51
197.3971578063393
  0
ARC
  5
3B6
330
1F
100
AcDbEntity
  8
LAY-10
  6
CONTINUOUS
 62
     7
100
AcDbCircle
 10
465.0000000000213
 20
600.0000000000083
 30
0.0
 40
48.99999999999012
100
AcDbArc
 50
173.3971578063395
 51
186.6028421936557
  0
ARC
  5
3B7
330
1F
100
AcDbEntity
  8
LAY-10
  6
CONTINUOUS
 62
     7
100
AcDbCircle
 10
465.0000000000078
 20
600.0000000000018
 30
0.0
 40
67.0
100
AcDbArc
 50
93.770438343221
 51
266.2295616567742
  0
ARC
  5
3B8
330
1F
100
AcDbEntity
  8
LAY-10
  6
CONTINUOUS
 62
     7
100
AcDbCircle
 10
465.0000000000077
 20
600.0000000000018
 30
0.0
 40
67.0
100
AcDbArc
 50
273.7704383432504
 51
86.22956165675338
  0
LINE
  5
3B9
330
1F
100
AcDbEntity
  8
LAY-10
  6
CENTER
 62
     2
100
AcDbLine
 10
627.5000000000061
 20
600.0000000000011
 30
0.0
 11
302.5000000000061
 21
600.0000000000011
 31
0.0
  0
LINE
  5
3BA
330
1F
100
AcDbEntity
  8
LAY-10
  6
CENTER
 62
     2
100
AcDbLine
 10
465.0000000000065
 20
762.5000000000011
 30
0.0
 11
465.0000000000063
 21
437.5000000000011
 31
0.0
  0
ARC
  5
3BB
330
1F
100
AcDbEntity
  8
LAY-10
  6
CENTER
 62
     2
100
AcDbCircle
 10
333.0000000000063
 20
161.0172625371853
 30
0.0
 40
4.5
100
AcDbArc
 50
270.0000000000002
 51
0.0
  0
LINE
  5
3BC
330
1F
100
AcDbEntity
  8
LAY-10
  6
CENTER
 62
     2
100
AcDbLine
 10
321.0000000000063
 20
156.5172625371853
 30
0.0
 11
333.0000000000063
 21
156.5172625371853
 31
0.0
  0
LINE
  5
3BD
330
1F
100
AcDbEntity
  8
LAY-10
  6
CENTER
 62
     2
100
AcDbLine
 10
337.5000000000036
 20
189.4606382101528
 30
0.0
 11
337.5000000000036
 21
161.0172625371898
 31
0.0
  0
LINE
  5
3BE
330
1F
100
AcDbEntity
  8
LAY-10
  6
CENTER
 62
     2
100
AcDbLine
 10
423.0000000000051
 20
213.2352761804026
 30
0.0
 11
423.0000000000051
 21
154.3266636139265
 31
0.0
  0
LINE
  5
3BF
330
1F
100
AcDbEntity
  8
LAY-10
  6
CENTER
 62
     2
100
AcDbLine
 10
465.0000000000051
 20
304.9999999999998
 30
0.0
 11
465.0000000000051
 21
113.0172625371699
 31
0.0
  0
LINE
  5
3C0
330
1F
100
AcDbEntity
  8
LAY-10
  6
CENTER
 62
     2
100
AcDbLine
 10
471.6000000000218
 20
535.9999999999987
 30
0.0
 11
458.8000000000213
 21
535.9999999999984
 31
0.0
  0
LINE
  5
3C1
330
1F
100
AcDbEntity
  8
LAY-10
  6
CENTER
 62
     2
100
AcDbLine
 10
481.0185842870726
 20
560.7509113382907
 30
0.0
 11
491.0300579580476
 21
566.531038357213
 31
0.0
  0
LINE
  5
3C2
330
1F
100
AcDbEntity
  8
LAY-10
  6
CENTER
 62
     2
100
AcDbLine
 10
488.8760217028442
 20
558.6455173281554
 30
0.0
 11
483.1239782972144
 21
568.6083487540573
 31
0.0
  0
LINE
  5
3C3
330
1F
100
AcDbEntity
  8
LAY-10
  6
CENTER
 62
     2
100
AcDbLine
 10
490.981415712971
 20
633.4970452561918
 30
0.0
 11
480.969942041996
 21
639.2771722751145
 31
0.0
  0
LINE
  5
3C4
330
1F
100
AcDbEntity
  8
LAY-10
  6
CENTER
 62
     2
100
AcDbLine
 10
471.6000000000213
 20
663.9999999999985
 30
0.0
 11
458.8000000000214
 21
663.9999999999986
 31
0.0
  0
LINE
  5
3C5
330
1F
100
AcDbEntity
  8
LAY-10
  6
CENTER
 62
     2
100
AcDbLine
 10
423.000000000021
 20
605.7520434056411
 30
0.0
 11
423.0000000000208
 21
594.1917893677962
 31
0.0
  0
LINE
  5
3C6
330
1F
100
AcDbEntity
  8
LAY-10
  6
CENTER
 62
     2
100
AcDbLine
 10
465.0000000000233
 20
670.5999999999925
 30
0.0
 11
465.0000000000232
 21
657.7999999999927
 31
0.0
  0
LINE
  5
3C7
330
1F
100
AcDbEntity
  8
LAY-10
  6
CENTER
 62
     2
100
AcDbLine
 10
465.0000000000223
 20
542.5999999999909
 30
0.0
 11
465.0000000000223
 21
529.799999999991
 31
0.0
  0
LINE
  5
3C8
330
1F
100
AcDbEntity
  8
LAY-10
  6
CENTER
 62
     2
100
AcDbLine
 10
488.8760217028085
 20
641.3544826718456
 30
0.0
 11
483.1239782971787
 21
631.3916512459438
 31
0.0
  0
LINE
  5
3C9
330
1F
100
AcDbEntity
  8
LAY-10
  6
CENTER
 62
     2
100
AcDbLine
 10
529.0000000000183
 20
195.1891108675313
 30
0.0
 11
529.0000000000183
 21
171.23196223728
 31
0.0
  0
ARC
  5
3CA
330
1F
100
AcDbEntity
  8
LAY-10
  6
CONTINUOUS
 62
     7
100
AcDbCircle
 10
465.0000000000216
 20
600.0000000000114
 30
0.0
 40
64.2
100
AcDbArc
 50
273.5555081597415
 51
273.5721441938081
  0
LINE
  5
3CB
330
1F
100
AcDbEntity
  8
LAY-10
  6
CONTINUOUS
 62
     7
100
AcDbLine
 10
469.0000000000213
 20
536.0000000000227
 30
0.0
 11
469.0000000000213
 21
535.924731760229
 31
0.0
  0
LINE
  5
3CC
330
1F
100
AcDbEntity
  8
LAY-10
  6
CONTINUOUS
 62
     7
100
AcDbLine
 10
508.5858088312967
 20
141.0172625371702
 30
0.0
 11
508.9000000000048
 21
123.0172625371697
 31
0.0
  0
LINE
  5
3CD
330
1F
100
AcDbEntity
  8
LAY-10
  6
CONTINUOUS
 62
     7
100
AcDbLine
 10
421.4141911687135
 20
141.0172625371702
 30
0.0
 11
421.1000000000055
 21
123.0172625371697
 31
0.0
  0
LINE
  5
3CE
330
1F
100
AcDbEntity
  8
LAY-10
  6
HIDDEN
 62
     7
100
AcDbLine
 10
617.3688113315492
 20
189.3291492217326
 30
0.0
 11
617.5000000000056
 21
188.0172625371698
 31
0.0
  0
ARC
  5
3CF
330
1F
100
AcDbEntity
  8
LAY-10
  6
HIDDEN
 62
     7
100
AcDbCircle
 10
615.3787369511293
 20
189.1301417836906
 30
0.0
 40
2.0
100
AcDbArc
 50
5.710593137500615
 51
105.0000000000012
  0
LINE
  5
3D0
330
1F
100
AcDbEntity
  8
LAY-10
  6
HIDDEN
 62
     7
100
AcDbLine
 10
531.3462803547787
 20
168.6842652615133
 30
0.0
 11
614.861098860924
 21
191.0619934362688
 31
0.0
  0
LINE
  5
3D1
330
1F
100
AcDbEntity
  8
LAY-10
  6
HIDDEN
 62
     7
100
AcDbLine
 10
529.5305840199463
 20
163.2205820144198
 30
0.0
 11
529.8723271234768
 21
166.9356184344661
 31
0.0
  0
ARC
  5
3D2
330
1F
100
AcDbEntity
  8
LAY-10
  6
HIDDEN
 62
     7
100
AcDbCircle
 10
531.8639184449836
 20
166.7524136089351
 30
0.0
 40
2.0
100
AcDbArc
 50
105.0000000000011
 51
174.7442005674456
  0
LINE
  5
3D3
330
1F
100
AcDbEntity
  8
LAY-10
  6
CONTINUOUS
 62
     7
100
AcDbLine
 10
334.500000000003
 20
183.5172625371766
 30
0.0
 11
335.0000000000014
 21
184.0172625371775
 31
0.0
  0
LINE
  5
3D4
330
1F
100
AcDbEntity
  8
LAY-10
  6
CONTINUOUS
 62
     7
100
AcDbLine
 10
340.500000000002
 20
183.5172625371766
 30
0.0
 11
340.0000000000007
 21
184.0172625371775
 31
0.0
  0
LINE
  5
3D5
330
1F
100
AcDbEntity
  8
LAY-10
  6
CONTINUOUS
 62
     7
100
AcDbLine
 10
335.0000000000063
 20
182.0172625371798
 30
0.0
 11
335.0000000000063
 21
176.0172625371798
 31
0.0
  0
LINE
  5
3D6
330
1F
100
AcDbEntity
  8
LAY-10
  6
CONTINUOUS
 62
     7
100
AcDbLine
 10
340.0000000000063
 20
182.0172625371798
 30
0.0
 11
340.0000000000063
 21
176.0172625371798
 31
0.0
  0
LINE
  5
3D7
330
1F
100
AcDbEntity
  8
LAY-10
  6
CONTINUOUS
 62
     7
100
AcDbLine
 10
340.0000000000244
 20
175.1512371333848
 30
0.0
 11
340.5000000000244
 21
176.0172625371693
 31
0.0
  0
LINE
  5
3D8
330
1F
100
AcDbEntity
  8
LAY-10
  6
CONTINUOUS
 62
     7
100
AcDbLine
 10
334.9999999999942
 20
175.1512371333883
 30
0.0
 11
334.4999999999942
 21
176.0172625371728
 31
0.0
  0
LINE
  5
3D9
330
1F
100
AcDbEntity
  8
LAY-10
  6
CONTINUOUS
 62
     7
100
AcDbLine
 10
334.500000000003
 20
183.5172625371766
 30
0.0
 11
334.500000000003
 21
181.5172625371898
 31
0.0
  0
LINE
  5
3DA
330
1F
100
AcDbEntity
  8
LAY-10
  6
CONTINUOUS
 62
     7
100
AcDbLine
 10
340.500000000002
 20
183.5172625371766
 30
0.0
 11
340.500000000002
 21
181.5172625371898
 31
0.0
  0
LINE
  5
3DB
330
1F
100
AcDbEntity
  8
LAY-10
  6
CONTINUOUS
 62
     7
100
AcDbLine
 10
419.5000000000119
 20
160.7352761803994
 30
0.0
 11
419.0000000000123
 21
161.2352761804006
 31
0.0
  0
LINE
  5
3DC
330
1F
100
AcDbEntity
  8
LAY-10
  6
CONTINUOUS
 62
     7
100
AcDbLine
 10
426.5000000000128
 20
160.7352761803994
 30
0.0
 11
427.0000000000124
 21
161.2352761804006
 31
0.0
  0
LINE
  5
3DD
330
1F
100
AcDbEntity
  8
LAY-10
  6
CONTINUOUS
 62
     7
100
AcDbLine
 10
427.000000000006
 20
161.2352761803998
 30
0.0
 11
427.000000000006
 21
161.7352761803998
 31
0.0
  0
LINE
  5
3DE
330
1F
100
AcDbEntity
  8
LAY-10
  6
CONTINUOUS
 62
     7
100
AcDbLine
 10
419.000000000006
 20
161.2352761803998
 30
0.0
 11
419.000000000006
 21
161.7352761803998
 31
0.0
  0
LINE
  5
3DF
330
1F
100
AcDbEntity
  8
LAY-10
  6
CONTINUOUS
 62
     7
100
AcDbLine
 10
526.0000000000183
 20
181.6891108675366
 30
0.0
 11
526.0000000000183
 21
172.4281146599908
 31
0.0
  0
LINE
  5
3E0
330
1F
100
AcDbEntity
  8
LAY-10
  6
CONTINUOUS
 62
     7
100
AcDbLine
 10
532.0000000000185
 20
174.0358098145778
 30
0.0
 11
532.0000000000185
 21
181.6891108675366
 31
0.0
  0
LINE
  5
3E1
330
1F
100
AcDbEntity
  8
LAY-10
  6
CONTINUOUS
 62
     7
100
AcDbLine
 10
426.5000000000123
 20
181.4891108675311
 30
0.0
 11
426.5000000000123
 21
212.8891108675286
 31
0.0
  0
LINE
  5
3E2
330
1F
100
AcDbEntity
  8
LAY-10
  6
CONTINUOUS
 62
     7
100
AcDbLine
 10
419.5000000000124
 20
212.8891108675319
 30
0.0
 11
419.5000000000124
 21
181.4891108675318
 31
0.0
  0
LINE
  5
3E3
330
1F
100
AcDbEntity
  8
LAY-10
  6
CONTINUOUS
 62
     7
100
AcDbLine
 10
531.5000000000115
 20
189.1891108675313
 30
0.0
 11
531.5000000000115
 21
177.1891108675332
 31
0.0
  0
LINE
  5
3E4
330
1F
100
AcDbEntity
  8
LAY-10
  6
CONTINUOUS
 62
     7
100
AcDbLine
 10
526.5000000000119
 20
189.1891108675313
 30
0.0
 11
526.5000000000119
 21
177.1891108675332
 31
0.0
  0
LINE
  5
3E5
330
1F
100
AcDbEntity
  8
LAY-10
  6
CONTINUOUS
 62
     7
100
AcDbLine
 10
468.5000000000113
 20
181.4891108675307
 30
0.0
 11
468.5000000000113
 21
212.3891108675283
 31
0.0
  0
LINE
  5
3E6
330
1F
100
AcDbEntity
  8
LAY-10
  6
CONTINUOUS
 62
     7
100
AcDbLine
 10
419.500000000006
 20
161.2352761803998
 30
0.0
 11
419.500000000006
 21
174.68911086753
 31
0.0
  0
LINE
  5
3E7
330
1F
100
AcDbEntity
  8
LAY-10
  6
CONTINUOUS
 62
     7
100
AcDbLine
 10
426.500000000006
 20
161.2352761803998
 30
0.0
 11
426.500000000006
 21
174.68911086753
 31
0.0
  0
DIMENSION
  5
3E9
330
1F
100
AcDbEntity
  8
LAY-20
  6
CONTINUOUS
 62
     4
100
AcDbDimension
  2
*D15
 10
508.9000000000059
 20
88.01726253716993
 30
0.0
 11
465.000000000006
 21
95.51726253716993
 31
0.0
 70
   160
  1
Rｃ3（<>）
  3
ISO-25
100
AcDbAlignedDimension
 13
421.100000000006
 23
123.0172625371699
 33
0.0
 14
508.9000000000059
 24
123.0172625371699
 34
0.0
100
AcDbRotatedDimension
1001
ACAD
1000
DSTYLE
1002
{
1070
   270
1070
     2
1070
     6
1000
EX_BNORM
1070
     7
1000
EX_BNORM
1070
    41
1040
7.5
1070
    42
1040
4.5
1070
    44
1040
4.5
1070
    73
1070
     0
1070
    74
1070
     0
1070
    75
1070
     0
1070
    76
1070
     0
1070
    77
1070
     1
1070
    78
1070
     8
1070
   140
1040
9.3543312
1070
   147
1040
0.0
1070
   173
1070
     1
1070
   176
1070
     4
1070
   177
1070
     4
1070
   178
1070
     7
1070
   271
1070
     1
1070
   277
1070
     2
1070
   279
1070
     2
1070
   280
1070
     0
1070
   287
1070
     5
1070
   340
1005
3E8
1002
}
  0
DIMENSION
  5
3F7
330
1F
100
AcDbEntity
  8
LAY-20
  6
CONTINUOUS
 62
     4
100
AcDbDimension
  2
*D16
 10
652.500000000006
 20
198.0172625371699
 30
0.0
 11
645.000000000006
 21
158.0172625371699
 31
0.0
 70
   160
  3
ISO-25
100
AcDbAlignedDimension
 13
522.000000000006
 23
118.0172625371699
 33
0.0
 14
621.500000000006
 24
198.0172625371699
 34
0.0
 50
90.0
100
AcDbRotatedDimension
1001
ACAD
1000
DSTYLE
1002
{
1070
   270
1070
     2
1070
     6
1000
EX_BNORM
1070
     7
1000
EX_BNORM
1070
    41
1040
7.5
1070
    42
1040
4.5
1070
    44
1040
4.5
1070
    73
1070
     0
1070
    74
1070
     0
1070
    75
1070
     0
1070
    76
1070
     0
1070
    77
1070
     1
1070
    78
1070
     8
1070
   140
1040
9.3543312
1070
   147
1040
0.0
1070
   173
1070
     1
1070
   176
1070
     4
1070
   177
1070
     4
1070
   178
1070
     7
1070
   271
1070
     1
1070
   277
1070
     2
1070
   279
1070
     2
1070
   280
1070
     0
1070
   287
1070
     5
1070
   340
1005
3E8
1002
}
  0
DIMENSION
  5
404
330
1F
100
AcDbEntity
  8
LAY-20
  6
CONTINUOUS
 62
     4
100
AcDbDimension
  2
*D17
 10
531.999999999986
 20
329.9999999999999
 30
0.0
 11
465.000000000006
 21
337.4999999999999
 31
0.0
 70
   160
  1
%%c<>
  3
ISO-25
100
AcDbAlignedDimension
 13
398.000000000026
 23
184.9999999999999
 33
0.0
 14
531.999999999986
 24
190.9999999999999
 34
0.0
100
AcDbRotatedDimension
1001
ACAD
1000
DSTYLE
1002
{
1070
   270
1070
     2
1070
     6
1000
EX_BNORM
1070
     7
1000
EX_BNORM
1070
    41
1040
7.5
1070
    42
1040
4.5
1070
    44
1040
4.5
1070
    73
1070
     0
1070
    74
1070
     0
1070
    75
1070
     0
1070
    76
1070
     0
1070
    77
1070
     1
1070
    78
1070
     8
1070
   140
1040
9.3543312
1070
   147
1040
0.0
1070
   173
1070
     1
1070
   176
1070
     4
1070
   177
1070
     4
1070
   178
1070
     7
1070
   271
1070
     1
1070
   277
1070
     2
1070
   279
1070
     2
1070
   280
1070
     0
1070
   287
1070
     5
1070
   340
1005
3E8
1002
}
  0
DIMENSION
  5
411
330
1F
100
AcDbEntity
  8
LAY-20
  6
CONTINUOUS
 62
     4
100
AcDbDimension
  2
*D18
 10
622.500000000006
 20
371.9999999999999
 30
0.0
 11
465.000000000006
 21
379.4999999999999
 31
0.0
 70
   160
  1
%%c<>
  3
ISO-25
100
AcDbAlignedDimension
 13
307.500000000006
 23
188.0172625371699
 33
0.0
 14
622.500000000006
 24
188.0172625371699
 34
0.0
100
AcDbRotatedDimension
1001
ACAD
1000
DSTYLE
1002
{
1070
   270
1070
     2
1070
     6
1000
EX_BNORM
1070
     7
1000
EX_BNORM
1070
    41
1040
7.5
1070
    42
1040
4.5
1070
    44
1040
4.5
1070
    73
1070
     0
1070
    74
1070
     0
1070
    75
1070
     0
1070
    76
1070
     0
1070
    77
1070
     1
1070
    78
1070
     8
1070
   140
1040
9.3543312
1070
   147
1040
0.0
1070
   173
1070
     1
1070
   176
1070
     4
1070
   177
1070
     4
1070
   178
1070
     7
1070
   271
1070
     1
1070
   277
1070
     2
1070
   279
1070
     2
1070
   280
1070
     0
1070
   287
1070
     5
1070
   340
1005
3E8
1002
}
  0
DIMENSION
  5
41E
330
1F
100
AcDbEntity
  8
LAY-20
  6
CONTINUOUS
 62
     4
100
AcDbDimension
  2
*D19
 10
572.50000000002
 20
351.0
 30
0.0
 11
465.000000000015
 21
358.5
 31
0.0
 70
   160
  1
%%c<>
  3
ISO-25
100
AcDbAlignedDimension
 13
357.50000000001
 23
187.68911086753
 33
0.0
 14
572.50000000002
 24
187.68911086753
 34
0.0
100
AcDbRotatedDimension
1001
ACAD
1000
DSTYLE
1002
{
1070
   270
1070
     2
1070
     6
1000
EX_BNORM
1070
     7
1000
EX_BNORM
1070
    41
1040
7.5
1070
    42
1040
4.5
1070
    44
1040
4.5
1070
    73
1070
     0
1070
    74
1070
     0
1070
    75
1070
     0
1070
    76
1070
     0
1070
    77
1070
     1
1070
    78
1070
     8
1070
   140
1040
9.3543312
1070
   147
1040
0.0
1070
   173
1070
     1
1070
   176
1070
     4
1070
   177
1070
     4
1070
   178
1070
     7
1070
   271
1070
     1
1070
   277
1070
     2
1070
   279
1070
     2
1070
   280
1070
     0
1070
   287
1070
     5
1070
   340
1005
3E8
1002
}
  0
DIMENSION
  5
42B
330
1F
100
AcDbEntity
  8
LAY-20
  6
CONTINUOUS
 62
     4
100
AcDbDimension
  2
*D20
 10
652.50000000001
 20
198.01726253717
 30
0.0
 11
645.00000000001
 21
249.85318670235
 31
0.0
 70
   160
  3
ISO-25
100
AcDbAlignedDimension
 13
465.00000000001
 23
301.68911086753
 33
0.0
 14
652.50000000001
 24
198.01726253717
 34
0.0
 50
90.0
100
AcDbRotatedDimension
1001
ACAD
1000
DSTYLE
1002
{
1070
   270
1070
     2
1070
     6
1000
EX_BNORM
1070
     7
1000
EX_BNORM
1070
    41
1040
7.5
1070
    42
1040
4.5
1070
    44
1040
4.5
1070
    73
1070
     0
1070
    74
1070
     0
1070
    75
1070
     0
1070
    76
1070
     1
1070
    77
1070
     1
1070
    78
1070
     0
1070
   140
1040
9.3543312
1070
   147
1040
0.0
1070
   173
1070
     1
1070
   176
1070
     4
1070
   177
1070
     4
1070
   178
1070
     7
1070
   271
1070
     0
1070
   277
1070
     2
1070
   279
1070
     2
1070
   280
1070
     0
1070
   287
1070
     5
1070
   340
1005
3E8
1002
}
  0
DIMENSION
  5
437
330
1F
100
AcDbEntity
  8
LAY-20
  6
CONTINUOUS
 62
     4
100
AcDbDimension
  2
*D21
 10
277.50000000001
 20
198.01726253717
 30
0.0
 11
270.00000000001
 21
178.01726253717
 31
0.0
 70
   160
  3
ISO-25
100
AcDbAlignedDimension
 13
408.34712708839
 23
158.01726253717
 33
0.0
 14
308.5
 24
198.01726253717
 34
0.0
 50
90.0
100
AcDbRotatedDimension
1001
ACAD
1000
DSTYLE
1002
{
1070
   270
1070
     2
1070
     6
1000
EX_BNORM
1070
     7
1000
EX_BNORM
1070
    41
1040
7.5
1070
    42
1040
4.5
1070
    44
1040
4.5
1070
    73
1070
     0
1070
    74
1070
     0
1070
    75
1070
     0
1070
    76
1070
     0
1070
    77
1070
     1
1070
    78
1070
     8
1070
   140
1040
9.3543312
1070
   147
1040
0.0
1070
   173
1070
     1
1070
   176
1070
     4
1070
   177
1070
     4
1070
   178
1070
     7
1070
   271
1070
     1
1070
   277
1070
     2
1070
   279
1070
     2
1070
   280
1070
     0
1070
   287
1070
     5
1070
   340
1005
3E8
1002
}
  0
LINE
  5
444
330
1F
100
AcDbEntity
  8
LAY-255
  6
CONTINUOUS
 62
     7
100
AcDbLine
 10
1155.0
 20
66.0
 30
0.0
 11
855.0
 21
66.0
 31
0.0
  0
LINE
  5
445
330
1F
100
AcDbEntity
  8
LAY-255
  6
CONTINUOUS
 62
     7
100
AcDbLine
 10
866.4000000000001
 20
48.0
 30
0.0
 11
890.4000000000001
 21
63.0
 31
0.0
  0
LINE
  5
446
330
1F
100
AcDbEntity
  8
LAY-255
  6
CONTINUOUS
 62
     7
100
AcDbLine
 10
890.4000000000001
 20
63.0
 30
0.0
 11
914.4000000000001
 21
48.0
 31
0.0
  0
LINE
  5
447
330
1F
100
AcDbEntity
  8
LAY-255
  6
CONTINUOUS
 62
     7
100
AcDbLine
 10
914.4000000000001
 20
48.0
 30
0.0
 11
890.4000000000001
 21
33.0
 31
0.0
  0
LINE
  5
448
330
1F
100
AcDbEntity
  8
LAY-255
  6
CONTINUOUS
 62
     7
100
AcDbLine
 10
890.4000000000001
 20
33.0
 30
0.0
 11
866.4000000000001
 21
48.0
 31
0.0
  0
LINE
  5
449
330
1F
100
AcDbEntity
  8
LAY-255
  6
CONTINUOUS
 62
     7
100
AcDbLine
 10
15.0
 20
30.0
 30
0.0
 11
1155.0
 21
30.0
 31
0.0
  0
LINE
  5
44A
330
1F
100
AcDbEntity
  8
LAY-255
  6
CONTINUOUS
 62
     7
100
AcDbLine
 10
15.0
 20
840.0
 30
0.0
 11
1155.0
 21
840.0
 31
0.0
  0
LINE
  5
44B
330
1F
100
AcDbEntity
  8
LAY-255
  6
CONTINUOUS
 62
     7
100
AcDbLine
 10
15.0
 20
30.0
 30
0.0
 11
15.0
 21
840.0
 31
0.0
  0
LINE
  5
44C
330
1F
100
AcDbEntity
  8
LAY-255
  6
CONTINUOUS
 62
     4
100
AcDbLine
 10
855.0
 20
84.0
 30
0.0
 11
1155.0
 21
84.0
 31
0.0
  0
LINE
  5
44D
330
1F
100
AcDbEntity
  8
LAY-255
  6
CONTINUOUS
 62
     4
100
AcDbLine
 10
1005.0
 20
84.0
 30
0.0
 11
1005.0
 21
66.0
 31
0.0
  0
POINT
  5
44E
330
1F
100
AcDbEntity
  8
LAY-255
  6
CONTINUOUS
 62
     7
100
AcDbPoint
 10
867.0
 20
150.0
 30
0.0
  0
POINT
  5
44F
330
1F
100
AcDbEntity
  8
LAY-255
  6
CONTINUOUS
 62
     7
100
AcDbPoint
 10
867.0
 20
120.0
 30
0.0
  0
POINT
  5
450
330
1F
100
AcDbEntity
  8
LAY-255
  6
CONTINUOUS
 62
     7
100
AcDbPoint
 10
867.0
 20
135.0
 30
0.0
  0
POINT
  5
451
330
1F
100
AcDbEntity
  8
LAY-255
  6
CONTINUOUS
 62
     7
100
AcDbPoint
 10
867.0
 20
105.0
 30
0.0
  0
POINT
  5
452
330
1F
100
AcDbEntity
  8
LAY-255
  6
CONTINUOUS
 62
     7
100
AcDbPoint
 10
867.0
 20
89.99999999999996
 30
0.0
  0
LINE
  5
453
330
1F
100
AcDbEntity
  8
LAY-255
  6
CONTINUOUS
 62
     7
100
AcDbLine
 10
1155.0
 20
30.0
 30
0.0
 11
1155.0
 21
840.0
 31
0.0
  0
LINE
  5
454
330
1F
100
AcDbEntity
  8
LAY-255
  6
CONTINUOUS
 62
     7
100
AcDbLine
 10
855.0
 20
30.0
 30
0.0
 11
855.0
 21
216.0
 31
0.0
  0
LINE
  5
455
330
1F
100
AcDbEntity
  8
LAY-255
  6
CONTINUOUS
 62
     7
100
AcDbLine
 10
1155.0
 20
216.0
 30
0.0
 11
855.0
 21
216.0
 31
0.0
  0
LINE
  5
456
330
1F
100
AcDbEntity
  8
LAY-255
  6
CONTINUOUS
 62
     4
100
AcDbLine
 10
1149.0
 20
180.0
 30
0.0
 11
861.0
 21
180.0
 31
0.0
  0
LINE
  5
457
330
1F
100
AcDbEntity
  8
LAY-255
  6
CONTINUOUS
 62
     4
100
AcDbLine
 10
1149.0
 20
198.0
 30
0.0
 11
861.0
 21
198.0
 31
0.0
  0
POINT
  5
458
330
1F
100
AcDbEntity
  8
LAY-255
  6
CONTINUOUS
 62
     7
100
AcDbPoint
 10
900.0
 20
183.0
 30
0.0
  0
POINT
  5
459
330
1F
100
AcDbEntity
  8
LAY-255
  6
CONTINUOUS
 62
     7
100
AcDbPoint
 10
900.0
 20
201.0
 30
0.0
  0
POINT
  5
45A
330
1F
100
AcDbEntity
  8
LAY-255
  6
CONTINUOUS
 62
     7
100
AcDbPoint
 10
867.0
 20
165.0
 30
0.0
  0
TEXT
  5
45B
330
1F
100
AcDbEntity
  8
LAY-255
  6
CONTINUOUS
 62
     7
100
AcDbText
 10
924.415136826172
 20
46.63125
 30
0.0
 40
15.46875
  1
福西鋳物株式会社
 41
1.342692141742901
  7
EXCADSTD
100
AcDbText
  0
TEXT
  5
45C
330
1F
100
AcDbEntity
  8
LAY-255
  6
CONTINUOUS
 62
     7
100
AcDbText
 10
925.528125
 20
35.94375
 30
0.0
 40
5.15625
  1
ＦＵＫＵＮＩＳＨＩ
 41
1.204799226045263
  7
EXCADSTD
100
AcDbText
  0
TEXT
  5
45D
330
1F
100
AcDbEntity
  8
LAY-255
  6
CONTINUOUS
 62
     7
100
AcDbText
 10
998.1575892857143
 20
35.94375
 30
0.0
 40
5.15625
  1
ＦＯＵＮＤＲＹ
 41
1.243252752978497
  7
EXCADSTD
100
AcDbText
  0
TEXT
  5
45E
330
1F
100
AcDbEntity
  8
LAY-255
  6
CONTINUOUS
 62
     7
100
AcDbText
 10
1055.983774651442
 20
35.94375
 30
0.0
 40
5.15625
  1
ＣＯ.,ＬＴＤ.
 41
1.243831271314936
  7
EXCADSTD
100
AcDbText
  0
TEXT
  5
45F
330
1F
100
AcDbEntity
  8
LAY-255
  6
CONTINUOUS
 62
     7
100
AcDbText
 10
882.1031250000001
 20
41.15625
 30
0.0
 40
15.46875
  1
S
 41
0.7582677563636363
  7
EXCADSTD
100
AcDbText
  0
TEXT
  5
460
330
1F
100
AcDbEntity
  8
LAY-255
  6
CONTINUOUS
 62
     7
100
AcDbText
 10
891.3140625000001
 20
41.24823113208
 30
0.0
 40
15.46875
  1
F
 41
0.7440945272727273
  7
EXCADSTD
100
AcDbText
  0
TEXT
  5
461
330
1F
100
AcDbEntity
  8
LAY-255
  6
CONTINUOUS
 62
     7
100
AcDbText
 10
1011.31640625
 20
73.26562499999997
 30
0.0
 40
7.734375
  1
縮尺
 41
1.080708718181818
  7
EXCADSTD
100
AcDbText
  0
TEXT
  5
462
330
1F
100
AcDbEntity
  8
LAY-255
  6
CONTINUOUS
 62
     7
100
AcDbText
 10
861.45703125
 20
73.26562499999997
 30
0.0
 40
7.734375
  1
作成日
 41
1.000629973818182
  7
EXCADSTD
100
AcDbText
  0
TEXT
  5
463
330
1F
100
AcDbEntity
  8
LAY-255
  6
CONTINUOUS
 62
     7
100
AcDbText
 10
1044.84375
 20
70.68749999999997
 30
0.0
 40
10.3125
  1
１：３
 41
0.8844094952727272
  7
EXCADSTD
100
AcDbText
  0
TEXT
  5
464
330
1F
100
AcDbEntity
  8
LAY-255
  6
CONTINUOUS
 62
     7
100
AcDbText
 10
861.796875
 20
184.6875
 30
0.0
 40
10.3125
  1
型式
 41
1.056348480681818
  7
EXCADSTD
100
AcDbText
  0
TEXT
  5
465
330
1F
100
AcDbEntity
  8
LAY-255
  6
CONTINUOUS
 62
     7
100
AcDbText
 10
862.265625
 20
202.6875
 30
0.0
 40
10.3125
  1
品名
 41
0.978838634090909
  7
EXCADSTD
100
AcDbText
  0
TEXT
  5
466
330
1F
100
AcDbEntity
  8
LAY-255
  6
CONTINUOUS
 62
     7
100
AcDbText
 10
900.75
 20
202.6875
 30
0.0
 40
10.3125
  1
ルーフドレイン
 41
1.021169538599106
  7
EXCADSTD
100
AcDbText
  0
TEXT
  5
467
330
1F
100
AcDbEntity
  8
LAY-255
  6
CONTINUOUS
 62
     7
100
AcDbText
 10
868.125
 20
166.6875000000001
 30
0.0
 40
10.3125
  1
防水：アスファルト・シート・
 41
0.9866967752199413
  7
EXCADSTD
100
AcDbText
  0
TEXT
  5
468
330
1F
100
AcDbEntity
  8
LAY-255
  6
CONTINUOUS
 62
     7
100
AcDbText
 10
867.0
 20
151.6875
 30
0.0
 40
10.3125
  1
      露出アスファルト防水兼用
 41
0.894274438169777
  7
EXCADSTD
100
AcDbText
  0
TEXT
  5
469
330
1F
100
AcDbEntity
  8
LAY-255
  6
CONTINUOUS
 62
     7
100
AcDbText
 10
867.65625
 20
106.6875
 30
0.0
 40
10.3125
  1
接続：管用テーパねじ
 41
1.013063761157025
  7
EXCADSTD
100
AcDbText
  0
TEXT
  5
46A
330
1F
100
AcDbEntity
  8
LAY-255
  6
CONTINUOUS
 62
     7
100
AcDbText
 10
867.5625
 20
121.6875
 30
0.0
 40
10.3125
  1
施工：打込用
 41
1.018700840909091
  7
EXCADSTD
100
AcDbText
  0
TEXT
  5
46B
330
1F
100
AcDbEntity
  8
LAY-255
  6
CONTINUOUS
 62
     7
100
AcDbText
 10
867.703125
 20
136.6875
 30
0.0
 40
10.3125
  1
用途：屋上用
 41
1.016656625174825
  7
EXCADSTD
100
AcDbText
  0
TEXT
  5
46C
330
1F
100
AcDbEntity
  8
LAY-255
  6
CONTINUOUS
 62
     7
100
AcDbText
 10
868.125
 20
91.68750000000004
 30
0.0
 40
10.3125
  1
※防水層張り掛け幅１００ｍｍ対応型
 41
1.011133181336544
  7
EXCADSTD
100
AcDbText
  0
TEXT
  5
46D
330
1F
100
AcDbEntity
  8
LAY-255
  6
CONTINUOUS
 62
     7
100
AcDbText
 10
902.625
 20
184.6875
 30
0.0
 40
10.3125
  1
ＲＳＧＮＡ－９０７５型
 41
1.001258271602624
  7
EXCADSTD
100
AcDbText
  0
TEXT
  5
46E
330
1F
100
AcDbEntity
  8
LAY-255
  6
CONTINUOUS
 62
     7
100
AcDbText
 10
902.953125
 20
70.68749999999997
 30
0.0
 40
10.3125
  1
２０／０９／０９
 41
0.9739033132467532
  7
EXCADSTD
100
AcDbText
  0
ENDSEC
  0
SECTION
  2
OBJECTS
  0
DICTIONARY
  5
C
330
0
100
AcDbDictionary
  3
ACAD_GROUP
350
D
  3
ACAD_LAYOUT
350
1A
  3
ACAD_MATERIAL
350
43
  3
ACAD_MLEADERSTYLE
350
6B
  3
ACAD_MLINESTYLE
350
17
  3
ACAD_PLOTSETTINGS
350
19
  3
ACAD_SCALELIST
350
47
  3
ACAD_VISUALSTYLE
350
2A
  3
ACDBHEADERROUNDTRIPXREC
350
46F
  3
ACDBVARIABLEDICTIONARY
350
490
  0
DICTIONARY
  5
49B
330
8
100
AcDbDictionary
280
     1
  3
ACAD_XREC_ROUNDTRIP
360
49C
  0
DICTIONARY
  5
D
102
{ACAD_REACTORS
330
C
102
}
330
C
100
AcDbDictionary
  0
DICTIONARY
  5
1A
102
{ACAD_REACTORS
330
C
102
}
330
C
100
AcDbDictionary
  0
DICTIONARY
  5
43
102
{ACAD_REACTORS
330
C
102
}
330
C
100
AcDbDictionary
  3
BYBLOCK
350
45
  3
BYLAYER
350
44
  3
GLOBAL
350
46
  0
DICTIONARY
  5
6B
102
{ACAD_REACTORS
330
C
102
}
330
C
100
AcDbDictionary
  3
STANDARD
350
6C
  0
DICTIONARY
  5
17
102
{ACAD_REACTORS
330
C
102
}
330
C
100
AcDbDictionary
  3
STANDARD
350
18
  0
DICTIONARY
  5
19
102
{ACAD_REACTORS
330
C
102
}
330
C
100
AcDbDictionary
  0
DICTIONARY
  5
47
102
{ACAD_REACTORS
330
C
102
}
330
C
100
AcDbDictionary
  3
A0
350
48
  3
A1
350
49
  3
A2
350
4A
  3
A3
350
4B
  3
A4
350
4C
  3
A5
350
4D
  3
A6
350
4E
  3
A7
350
4F
  3
A8
350
50
  3
A9
350
51
  3
B0
350
52
  3
B1
350
53
  3
B2
350
54
  3
B3
350
55
  3
B4
350
56
  3
B5
350
57
  3
B6
350
58
  3
B7
350
59
  3
B8
350
5A
  3
B9
350
5B
  3
C0
350
5C
  3
C1
350
5D
  3
C2
350
5E
  3
C3
350
5F
  3
C4
350
60
  3
C5
350
61
  3
C6
350
62
  3
C7
350
63
  3
C8
350
64
  3
C9
350
65
  3
D0
350
66
  3
D1
350
67
  3
D2
350
68
  0
DICTIONARY
  5
2A
102
{ACAD_REACTORS
330
C
102
}
330
C
100
AcDbDictionary
  3
2DWIREFRAME
350
2F
  3
BASIC
350
32
  3
BRIGHTEN
350
36
  3
COLORCHANGE
350
3A
  3
CONCEPTUAL
350
34
  3
DIM
350
35
  3
EDGECOLOROFF
350
3D
  3
FACEPATTERN
350
39
  3
FLAT
350
2B
  3
FLATWITHEDGES
350
2C
  3
GOURAUD
350
2D
  3
GOURAUDWITHEDGES
350
2E
  3
HIDDEN
350
31
  3
JITTEROFF
350
3B
  3
LINEPATTERN
350
38
  3
OVERHANGOFF
350
3C
  3
REALISTIC
350
33
  3
SHADED
350
42
  3
SHADED_WITH_EDGES
350
41
  3
SHADES_OF_GRAY
350
3E
  3
SKETCHY
350
3F
  3
THICKEN
350
37
  3
WIREFRAME
350
30
  3
X-RAY
350
40
  0
DICTIONARY
  5
46F
102
{ACAD_REACTORS
330
C
102
}
330
C
100
AcDbDictionary
  3
CEPSNID
350
479
  3
CEPSNTYPE
350
478
  3
DIMSTYLEDATA
350
48F
  3
FINGERPRINTGUID
350
47A
  3
HYPERLINKBASE
350
472
  3
INSUNITS
350
477
  3
LAYOUTDICT
350
474
  3
LWETCUNION
350
476
  3
PLOTSETDICT
350
475
  3
PSVPSCALE
350
47C
  3
PUCSBASE
350
47F
  3
PUCSORGBACK
350
485
  3
PUCSORGBOTTOM
350
481
  3
PUCSORGFRONT
350
484
  3
PUCSORGLEFT
350
482
  3
PUCSORGRIGHT
350
483
  3
PUCSORGTOP
350
480
  3
PUCSORTHOREF
350
47D
  3
PUCSORTHOVIEW
350
47E
  3
STYLESHEET
350
473
  3
TSTACKALIGN
350
470
  3
TSTACKSIZE
350
471
  3
UCSBASE
350
488
  3
UCSORGBACK
350
48E
  3
UCSORGBOTTOM
350
48A
  3
UCSORGFRONT
350
48D
  3
UCSORGLEFT
350
48B
  3
UCSORGRIGHT
350
48C
  3
UCSORGTOP
350
489
  3
UCSORTHOREF
350
486
  3
UCSORTHOVIEW
350
487
  3
VERSIONGUID
350
47B
  0
DICTIONARY
  5
490
102
{ACAD_REACTORS
330
C
102
}
330
C
100
AcDbDictionary
  3
CANNOSCALE
350
49D
  3
CENTEREXE
350
497
  3
CENTERLTYPEFILE
350
498
  3
CMLEADERSTYLE
350
492
  3
CTABLESTYLE
350
491
  3
DIMASSOC
350
499
  3
HIDETEXT
350
49A
  3
MSLTSCALE
350
49E
  3
PSOLHEIGHT
350
494
  3
PSOLWIDTH
350
493
  0
XRECORD
  5
49C
102
{ACAD_REACTORS
330
49B
102
}
330
49B
100
AcDbXrecord
102
VTR_0.000_0.000_1.000_1.000_VISUALSTYLE
340
2F
102
VTR_0.000_0.000_1.000_1.000_GRIDDISPLAY
 70
     3
102
VTR_0.000_0.000_1.000_1.000_GRIDMAJOR
 70
     5
102
VTR_0.000_0.000_1.000_1.000_DEFAULTLIGHTING
280
     1
102
VTR_0.000_0.000_1.000_1.000_DEFAULTLIGHTINGTYPE
 70
     1
102
VTR_0.000_0.000_1.000_1.000_BRIGHTNESS
141
0.0
102
VTR_0.000_0.000_1.000_1.000_CONTRAST
142
0.0
  0
MATERIAL
  5
45
102
{ACAD_REACTORS
330
43
102
}
102
{ACAD_XDICTIONARY
360
4A1
102
}
330
43
100
AcDbMaterial
  1
BYBLOCK
  0
MATERIAL
  5
44
102
{ACAD_REACTORS
330
43
102
}
102
{ACAD_XDICTIONARY
360
49F
102
}
330
43
100
AcDbMaterial
  1
BYLAYER
  0
MATERIAL
  5
46
102
{ACAD_REACTORS
330
43
102
}
102
{ACAD_XDICTIONARY
360
4A3
102
}
330
43
100
AcDbMaterial
  1
GLOBAL
  0
ACAD_PROXY_OBJECT
  5
6C
102
{ACAD_REACTORS
330
6B
102
}
330
6B
100
AcDbProxyObject
 90
      499
 91
      505
 93
      610
310
40901902A4063FBFFFFFE0000000000000020400000000000020404214DD185B99185C990000000000000104090141901A00000000000004100000000000000041025764000000000000039000
340
14
340
0
340
11
340
0
 94
        0
1001
ACAD_MLEADERVER
1070
     2
  0
MLINESTYLE
  5
18
102
{ACAD_REACTORS
330
17
102
}
330
17
100
AcDbMlineStyle
  2
Standard
 70
     0
  3

 62
   256
 51
90.0
 52
90.0
 71
     2
 49
0.5
 62
   256
  6
BYLAYER
 49
-0.5
 62
   256
  6
BYLAYER
  0
ACAD_PROXY_OBJECT
  5
48
102
{ACAD_REACTORS
330
47
102
}
330
47
100
AcDbProxyObject
 90
      499
 91
      503
 93
       41
310
903313A31580
  0
ACAD_PROXY_OBJECT
  5
49
102
{ACAD_REACTORS
330
47
102
}
330
47
100
AcDbProxyObject
 90
      499
 91
      503
 93
      105
310
903313A324000000000000004000
  0
ACAD_PROXY_OBJECT
  5
4A
102
{ACAD_REACTORS
330
47
102
}
330
47
100
AcDbProxyObject
 90
      499
 91
      503
 93
      105
310
903313A344000000000000104000
  0
ACAD_PROXY_OBJECT
  5
4B
102
{ACAD_REACTORS
330
47
102
}
330
47
100
AcDbProxyObject
 90
      499
 91
      503
 93
      105
310
903313A354000000000000144000
  0
ACAD_PROXY_OBJECT
  5
4C
102
{ACAD_REACTORS
330
47
102
}
330
47
100
AcDbProxyObject
 90
      499
 91
      503
 93
      105
310
903313A384000000000000204000
  0
ACAD_PROXY_OBJECT
  5
4D
102
{ACAD_REACTORS
330
47
102
}
330
47
100
AcDbProxyObject
 90
      499
 91
      503
 93
      113
310
904313A31304000000000000244000
  0
ACAD_PROXY_OBJECT
  5
4E
102
{ACAD_REACTORS
330
47
102
}
330
47
100
AcDbProxyObject
 90
      499
 91
      503
 93
      113
310
904313A31364000000000000304000
  0
ACAD_PROXY_OBJECT
  5
4F
102
{ACAD_REACTORS
330
47
102
}
330
47
100
AcDbProxyObject
 90
      499
 91
      503
 93
      113
310
904313A32304000000000000344000
  0
ACAD_PROXY_OBJECT
  5
50
102
{ACAD_REACTORS
330
47
102
}
330
47
100
AcDbProxyObject
 90
      499
 91
      503
 93
      113
310
904313A333040000000000003E4000
  0
ACAD_PROXY_OBJECT
  5
51
102
{ACAD_REACTORS
330
47
102
}
330
47
100
AcDbProxyObject
 90
      499
 91
      503
 93
      113
310
904313A34304000000000000444000
  0
ACAD_PROXY_OBJECT
  5
52
102
{ACAD_REACTORS
330
47
102
}
330
47
100
AcDbProxyObject
 90
      499
 91
      503
 93
      113
310
904313A35304000000000000494000
  0
ACAD_PROXY_OBJECT
  5
53
102
{ACAD_REACTORS
330
47
102
}
330
47
100
AcDbProxyObject
 90
      499
 91
      503
 93
      121
310
905313A3130304000000000000594000
  0
ACAD_PROXY_OBJECT
  5
54
102
{ACAD_REACTORS
330
47
102
}
330
47
100
AcDbProxyObject
 90
      499
 91
      503
 93
      105
310
903323A310000000000000010100
  0
ACAD_PROXY_OBJECT
  5
55
102
{ACAD_REACTORS
330
47
102
}
330
47
100
AcDbProxyObject
 90
      499
 91
      503
 93
      105
310
903343A310000000000000410100
  0
ACAD_PROXY_OBJECT
  5
56
102
{ACAD_REACTORS
330
47
102
}
330
47
100
AcDbProxyObject
 90
      499
 91
      503
 93
      105
310
903383A310000000000000810100
  0
ACAD_PROXY_OBJECT
  5
57
102
{ACAD_REACTORS
330
47
102
}
330
47
100
AcDbProxyObject
 90
      499
 91
      503
 93
      113
310
90431303A310000000000000910100
  0
ACAD_PROXY_OBJECT
  5
58
102
{ACAD_REACTORS
330
47
102
}
330
47
100
AcDbProxyObject
 90
      499
 91
      503
 93
      121
310
9053130303A310000000000001650100
  0
ACAD_PROXY_OBJECT
  5
59
102
{ACAD_REACTORS
330
47
102
}
330
47
100
AcDbProxyObject
 90
      499
 91
      503
 93
      257
310
90E312F31323822203D2031272D3022000000000000200FC000000000000284000
  0
ACAD_PROXY_OBJECT
  5
5A
102
{ACAD_REACTORS
330
47
102
}
330
47
100
AcDbProxyObject
 90
      499
 91
      503
 93
      249
310
90D312F363422203D2031272D3022000000000000240FC000000000000284000
  0
ACAD_PROXY_OBJECT
  5
5B
102
{ACAD_REACTORS
330
47
102
}
330
47
100
AcDbProxyObject
 90
      499
 91
      503
 93
      249
310
90D312F333222203D2031272D3022000000000000280FC000000000000284000
  0
ACAD_PROXY_OBJECT
  5
5C
102
{ACAD_REACTORS
330
47
102
}
330
47
100
AcDbProxyObject
 90
      499
 91
      503
 93
      249
310
90D312F313622203D2031272D30220000000000002C0FC000000000000284000
  0
ACAD_PROXY_OBJECT
  5
5D
102
{ACAD_REACTORS
330
47
102
}
330
47
100
AcDbProxyObject
 90
      499
 91
      503
 93
      249
310
90D332F333222203D2031272D30220000000000002E0FC000000000000284000
  0
ACAD_PROXY_OBJECT
  5
5E
102
{ACAD_REACTORS
330
47
102
}
330
47
100
AcDbProxyObject
 90
      499
 91
      503
 93
      241
310
90C312F3822203D2031272D3022000000000000300FC000000000000284000
  0
ACAD_PROXY_OBJECT
  5
5F
102
{ACAD_REACTORS
330
47
102
}
330
47
100
AcDbProxyObject
 90
      499
 91
      503
 93
      249
310
90D332F313622203D2031272D3022000000000000320FC000000000000284000
  0
ACAD_PROXY_OBJECT
  5
60
102
{ACAD_REACTORS
330
47
102
}
330
47
100
AcDbProxyObject
 90
      499
 91
      503
 93
      241
310
90C312F3422203D2031272D3022000000000000340FC000000000000284000
  0
ACAD_PROXY_OBJECT
  5
61
102
{ACAD_REACTORS
330
47
102
}
330
47
100
AcDbProxyObject
 90
      499
 91
      503
 93
      241
310
90C332F3822203D2031272D3022000000000000360FC000000000000284000
  0
ACAD_PROXY_OBJECT
  5
62
102
{ACAD_REACTORS
330
47
102
}
330
47
100
AcDbProxyObject
 90
      499
 91
      503
 93
      241
310
90C312F3222203D2031272D3022000000000000380FC000000000000284000
  0
ACAD_PROXY_OBJECT
  5
63
102
{ACAD_REACTORS
330
47
102
}
330
47
100
AcDbProxyObject
 90
      499
 91
      503
 93
      241
310
90C332F3422203D2031272D30220000000000003A0FC000000000000284000
  0
ACAD_PROXY_OBJECT
  5
64
102
{ACAD_REACTORS
330
47
102
}
330
47
100
AcDbProxyObject
 90
      499
 91
      503
 93
      161
310
90A3122203D2031272D30224000000000000284000
  0
ACAD_PROXY_OBJECT
  5
65
102
{ACAD_REACTORS
330
47
102
}
330
47
100
AcDbProxyObject
 90
      499
 91
      503
 93
      257
310
90E312D312F3222203D2031272D30220000000000003E0FC000000000000284000
  0
ACAD_PROXY_OBJECT
  5
66
102
{ACAD_REACTORS
330
47
102
}
330
47
100
AcDbProxyObject
 90
      499
 91
      503
 93
      225
310
90A3322203D2031272D302200000000000002100000000000000284000
  0
ACAD_PROXY_OBJECT
  5
67
102
{ACAD_REACTORS
330
47
102
}
330
47
100
AcDbProxyObject
 90
      499
 91
      503
 93
      225
310
90A3622203D2031272D302200000000000006100000000000000284000
  0
ACAD_PROXY_OBJECT
  5
68
102
{ACAD_REACTORS
330
47
102
}
330
47
100
AcDbProxyObject
 90
      499
 91
      503
 93
      249
310
90D31272D3022203D2031272D30220000000000000A100000000000000284000
  0
ACAD_PROXY_OBJECT
  5
2F
102
{ACAD_REACTORS
330
2A
102
}
330
2A
100
AcDbProxyObject
 90
      499
 91
      501
 93
      436
310
42CC9915DA5C99599C985B595049028333333333333E33F0000000000000F90107901411070040501600405405064090741402480A0340
1001
ACAD
1000
AcDbSavedByObjectVersion
1070
     0
  0
ACAD_PROXY_OBJECT
  5
32
102
{ACAD_REACTORS
330
2A
102
}
330
2A
100
AcDbProxyObject
 90
      499
 91
      501
 93
      388
310
4150985CDA58D07406404333333333333E33F0000000000000F90107A41107004050150841D405064090741402480A0350
1001
ACAD
1000
AcDbSavedByObjectVersion
1070
     0
  0
ACAD_PROXY_OBJECT
  5
36
102
{ACAD_REACTORS
330
2A
102
}
330
2A
100
AcDbProxyObject
 90
      499
 91
      501
 93
      428
310
42109C9A59DA1D195B90C409028333333333333E33F0000000000000F9010790141107004050150841D405064090741402480A029950
1001
ACAD
1000
AcDbSavedByObjectVersion
1070
     0
  0
ACAD_PROXY_OBJECT
  5
3A
102
{ACAD_REACTORS
330
2A
102
}
330
2A
100
AcDbProxyObject
 90
      499
 91
      501
 93
      452
310
42D0DBDB1BDC90DA185B99D95104090240C333333333333E33F0000000000000F90108901411070040501508421405064090741402480A0350
1001
ACAD
1000
AcDbSavedByObjectVersion
1070
     0
  0
ACAD_PROXY_OBJECT
  5
34
102
{ACAD_REACTORS
330
2A
102
}
330
2A
100
AcDbProxyObject
 90
      499
 91
      501
 93
      500
310
4290DBDB98D95C1D1D585B10940D028333333333333E33F0000000000000F90107902409070040501000000000018199010841D405064090740C02480A0340
1001
ACAD
1000
AcDbSavedByObjectVersion
1070
     0
  0
ACAD_PROXY_OBJECT
  5
35
102
{ACAD_REACTORS
330
2A
102
}
330
2A
100
AcDbProxyObject
 90
      499
 91
      501
 93
      412
310
40D11A5B50B409028333333333333E33F0000000000000F9010790141107004050150841D405064090741402480A02677FFFFFD0
1001
ACAD
1000
AcDbSavedByObjectVersion
1070
     0
  0
ACAD_PROXY_OBJECT
  5
3D
102
{ACAD_REACTORS
330
2A
102
}
330
2A
100
AcDbProxyObject
 90
      499
 91
      501
 93
      452
310
43115919D950DBDB1BDC93D999916409028333333333333E33F0000000000000F9010790141107004050150841D405064090741402480A0350
1001
ACAD
1000
AcDbSavedByObjectVersion
1070
     0
  0
ACAD_PROXY_OBJECT
  5
39
102
{ACAD_REACTORS
330
2A
102
}
330
2A
100
AcDbProxyObject
 90
      499
 91
      501
 93
      444
310
42D19858D95C185D1D195C9B90F409028333333333333E33F0000000000000F9010790141107004050150841D405064090741402480A0350
1001
ACAD
1000
AcDbSavedByObjectVersion
1070
     0
  0
ACAD_PROXY_OBJECT
  5
2B
102
{ACAD_REACTORS
330
2A
102
}
330
2A
100
AcDbProxyObject
 90
      499
 91
      501
 93
      380
310
41119B185D240901404333333333333E33F0000000000000F9010740A907004050150841D405064090741402480A1B50
1001
ACAD
1000
AcDbSavedByObjectVersion
1070
     0
  0
ACAD_PROXY_OBJECT
  5
2C
102
{ACAD_REACTORS
330
2A
102
}
330
2A
100
AcDbProxyObject
 90
      499
 91
      501
 93
      468
310
43519B185D15DA5D1A115919D95CD0140901404333333333333E33F0000000000000F90107409019070040501600405405064090741402480A1B50
1001
ACAD
1000
AcDbSavedByObjectVersion
1070
     0
  0
ACAD_PROXY_OBJECT
  5
2D
102
{ACAD_REACTORS
330
2A
102
}
330
2A
100
AcDbProxyObject
 90
      499
 91
      501
 93
      404
310
41D1DBDD5C985D5910240902404333333333333E33F0000000000000F9010740A9070040501641D405064090741402480A1B50
1001
ACAD
1000
AcDbSavedByObjectVersion
1070
     0
  0
ACAD_PROXY_OBJECT
  5
2E
102
{ACAD_REACTORS
330
2A
102
}
330
2A
100
AcDbProxyObject
 90
      499
 91
      501
 93
      492
310
4411DBDD5C985D5915DA5D1A115919D95CD0340902404333333333333E33F0000000000000F90107409019070040501600405405064090741402480A1B50
1001
ACAD
1000
AcDbSavedByObjectVersion
1070
     0
  0
ACAD_PROXY_OBJECT
  5
31
102
{ACAD_REACTORS
330
2A
102
}
330
2A
100
AcDbProxyObject
 90
      499
 91
      501
 93
      476
310
41921A5919195B90640502408333333333333E33F0000000000000F901079024090700405020000000000001110200405405064090740C02480A0340
1001
ACAD
1000
AcDbSavedByObjectVersion
1070
     0
  0
ACAD_PROXY_OBJECT
  5
3B
102
{ACAD_REACTORS
330
2A
102
}
330
2A
100
AcDbProxyObject
 90
      499
 91
      501
 93
      428
310
42529A5D1D195C93D999914409028333333333333E33F0000000000000F9010790141107004050150A41D405064090741402480A0350
1001
ACAD
1000
AcDbSavedByObjectVersion
1070
     0
  0
ACAD_PROXY_OBJECT
  5
38
102
{ACAD_REACTORS
330
2A
102
}
330
2A
100
AcDbProxyObject
 90
      499
 91
      501
 93
      444
310
42D31A5B995C185D1D195C9B90E409028333333333333E33F0000000000000F9010790141107004050750841D405064090741402483A0350
1001
ACAD
1000
AcDbSavedByObjectVersion
1070
     0
  0
ACAD_PROXY_OBJECT
  5
3C
102
{ACAD_REACTORS
330
2A
102
}
330
2A
100
AcDbProxyObject
 90
      499
 91
      501
 93
      444
310
42D3DD995C9A185B99D3D999915409028333333333333E33F0000000000000F9010790141107004050150941D405064090741402480A0350
1001
ACAD
1000
AcDbSavedByObjectVersion
1070
     0
  0
ACAD_PROXY_OBJECT
  5
33
102
{ACAD_REACTORS
330
2A
102
}
330
2A
100
AcDbProxyObject
 90
      499
 91
      501
 93
      428
310
425499585B1A5CDD1A58D08409038333333333333E33F0000000000000F9010740A907004050150800405405064090740C02480A1B40
1001
ACAD
1000
AcDbSavedByObjectVersion
1070
     0
  0
ACAD_PROXY_OBJECT
  5
42
102
{ACAD_REACTORS
330
2A
102
}
330
2A
100
AcDbProxyObject
 90
      499
 91
      501
 93
      420
310
4194DA1859195911B40902404333333333333E33F0000000000000F9010740A41107004050150800405405064090840C02480A0B40
1001
ACAD
1000
AcDbSavedByObjectVersion
1070
     0
  0
ACAD_PROXY_OBJECT
  5
41
102
{ACAD_REACTORS
330
2A
102
}
330
2A
100
AcDbProxyObject
 90
      499
 91
      501
 93
      516
310
4454DA18591959081DDA5D1A08195919D95CD1A40902404333333333333E33F0000000000000F901074090142907004050250800405405064090740C02480A0B40
1001
ACAD
1000
AcDbSavedByObjectVersion
1070
     0
  0
ACAD_PROXY_OBJECT
  5
3E
102
{ACAD_REACTORS
330
2A
102
}
330
2A
100
AcDbProxyObject
 90
      499
 91
      501
 93
      532
310
4394DA1859195CC81BD98811DC985E5174090240C333333333333E33F0000000000000F901079024090741D01000000000000111010841D405064090740C02480A0340
1001
ACAD
1000
AcDbSavedByObjectVersion
1070
     0
  0
ACAD_PROXY_OBJECT
  5
3F
102
{ACAD_REACTORS
330
2A
102
}
330
2A
100
AcDbProxyObject
 90
      499
 91
      501
 93
      476
310
41D4DAD95D18DA1E51840502408333333333333E33F0000000000000F901079024090741D01000000000000111010B41D405064090741802480A0340
1001
ACAD
1000
AcDbSavedByObjectVersion
1070
     0
  0
ACAD_PROXY_OBJECT
  5
37
102
{ACAD_REACTORS
330
2A
102
}
330
2A
100
AcDbProxyObject
 90
      499
 91
      501
 93
      412
310
41D51A1A58DAD95B90D409028333333333333E33F0000000000000F9010790141107004050150C41D405064090741402480A0350
1001
ACAD
1000
AcDbSavedByObjectVersion
1070
     0
  0
ACAD_PROXY_OBJECT
  5
30
102
{ACAD_REACTORS
330
2A
102
}
330
2A
100
AcDbProxyObject
 90
      499
 91
      501
 93
      420
310
4255DA5C99599C985B595059028333333333333E33F0000000000000F90107901411070040501600405405064090740C02480A0340
1001
ACAD
1000
AcDbSavedByObjectVersion
1070
     0
  0
ACAD_PROXY_OBJECT
  5
40
102
{ACAD_REACTORS
330
2A
102
}
330
2A
100
AcDbProxyObject
 90
      499
 91
      501
 93
      404
310
41560B54985E51940902404000000000000E03F0000000000000F9010740501907004050150841D405064090740C02480A1B40
1001
ACAD
1000
AcDbSavedByObjectVersion
1070
     0
  0
XRECORD
  5
479
102
{ACAD_REACTORS
330
46F
102
}
330
46F
100
AcDbXrecord
340
0
  0
XRECORD
  5
478
102
{ACAD_REACTORS
330
46F
102
}
330
46F
100
AcDbXrecord
 90
        0
  0
XRECORD
  5
48F
102
{ACAD_REACTORS
330
46F
102
}
330
46F
100
AcDbXrecord
1000
DSTYLE
1002
{
1070
   340
340
11
1002
}
  0
XRECORD
  5
47A
102
{ACAD_REACTORS
330
46F
102
}
330
46F
100
AcDbXrecord
  1
{143373e3-fd72-4deb-8551-a3a6d0806a71}
  0
XRECORD
  5
472
102
{ACAD_REACTORS
330
46F
102
}
330
46F
100
AcDbXrecord
  1

  0
XRECORD
  5
477
102
{ACAD_REACTORS
330
46F
102
}
330
46F
100
AcDbXrecord
 90
        4
  0
XRECORD
  5
474
102
{ACAD_REACTORS
330
46F
102
}
330
46F
100
AcDbXrecord
340
1A
  0
XRECORD
  5
476
102
{ACAD_REACTORS
330
46F
102
}
330
46F
100
AcDbXrecord
 90
    10781
  0
XRECORD
  5
475
102
{ACAD_REACTORS
330
46F
102
}
330
46F
100
AcDbXrecord
340
19
  0
XRECORD
  5
47C
102
{ACAD_REACTORS
330
46F
102
}
330
46F
100
AcDbXrecord
 40
0.0
  0
XRECORD
  5
47F
102
{ACAD_REACTORS
330
46F
102
}
330
46F
100
AcDbXrecord
340
0
  0
XRECORD
  5
485
102
{ACAD_REACTORS
330
46F
102
}
330
46F
100
AcDbXrecord
 10
0.0
 20
0.0
 30
0.0
  0
XRECORD
  5
481
102
{ACAD_REACTORS
330
46F
102
}
330
46F
100
AcDbXrecord
 10
0.0
 20
0.0
 30
0.0
  0
XRECORD
  5
484
102
{ACAD_REACTORS
330
46F
102
}
330
46F
100
AcDbXrecord
 10
0.0
 20
0.0
 30
0.0
  0
XRECORD
  5
482
102
{ACAD_REACTORS
330
46F
102
}
330
46F
100
AcDbXrecord
 10
0.0
 20
0.0
 30
0.0
  0
XRECORD
  5
483
102
{ACAD_REACTORS
330
46F
102
}
330
46F
100
AcDbXrecord
 10
0.0
 20
0.0
 30
0.0
  0
XRECORD
  5
480
102
{ACAD_REACTORS
330
46F
102
}
330
46F
100
AcDbXrecord
 10
0.0
 20
0.0
 30
0.0
  0
XRECORD
  5
47D
102
{ACAD_REACTORS
330
46F
102
}
330
46F
100
AcDbXrecord
340
0
  0
XRECORD
  5
47E
102
{ACAD_REACTORS
330
46F
102
}
330
46F
100
AcDbXrecord
 70
     0
  0
XRECORD
  5
473
102
{ACAD_REACTORS
330
46F
102
}
330
46F
100
AcDbXrecord
  1

  0
XRECORD
  5
470
102
{ACAD_REACTORS
330
46F
102
}
330
46F
100
AcDbXrecord
 90
        1
  0
XRECORD
  5
471
102
{ACAD_REACTORS
330
46F
102
}
330
46F
100
AcDbXrecord
 90
       70
  0
XRECORD
  5
488
102
{ACAD_REACTORS
330
46F
102
}
330
46F
100
AcDbXrecord
340
0
  0
XRECORD
  5
48E
102
{ACAD_REACTORS
330
46F
102
}
330
46F
100
AcDbXrecord
 10
0.0
 20
0.0
 30
0.0
  0
XRECORD
  5
48A
102
{ACAD_REACTORS
330
46F
102
}
330
46F
100
AcDbXrecord
 10
0.0
 20
0.0
 30
0.0
  0
XRECORD
  5
48D
102
{ACAD_REACTORS
330
46F
102
}
330
46F
100
AcDbXrecord
 10
0.0
 20
0.0
 30
0.0
  0
XRECORD
  5
48B
102
{ACAD_REACTORS
330
46F
102
}
330
46F
100
AcDbXrecord
 10
0.0
 20
0.0
 30
0.0
  0
XRECORD
  5
48C
102
{ACAD_REACTORS
330
46F
102
}
330
46F
100
AcDbXrecord
 10
0.0
 20
0.0
 30
0.0
  0
XRECORD
  5
489
102
{ACAD_REACTORS
330
46F
102
}
330
46F
100
AcDbXrecord
 10
0.0
 20
0.0
 30
0.0
  0
XRECORD
  5
486
102
{ACAD_REACTORS
330
46F
102
}
330
46F
100
AcDbXrecord
340
0
  0
XRECORD
  5
487
102
{ACAD_REACTORS
330
46F
102
}
330
46F
100
AcDbXrecord
 70
     0
  0
XRECORD
  5
47B
102
{ACAD_REACTORS
330
46F
102
}
330
46F
100
AcDbXrecord
  1
{FAEB1C32-E019-11D5-929B-00C0DF256EC4}
  0
DICTIONARYVAR
  5
49D
102
{ACAD_REACTORS
330
490
102
}
330
490
100
DictionaryVariables
280
     0
  1
1:1
  0
DICTIONARYVAR
  5
497
102
{ACAD_REACTORS
330
490
102
}
330
490
100
DictionaryVariables
280
     0
  1
3.500000
  0
DICTIONARYVAR
  5
498
102
{ACAD_REACTORS
330
490
102
}
330
490
100
DictionaryVariables
280
     0
  1
acadiso.lin
  0
DICTIONARYVAR
  5
492
102
{ACAD_REACTORS
330
490
102
}
330
490
100
DictionaryVariables
280
     0
  1
Standard
  0
DICTIONARYVAR
  5
491
102
{ACAD_REACTORS
330
490
102
}
330
490
100
DictionaryVariables
280
     0
  1
Standard
  0
DICTIONARYVAR
  5
499
102
{ACAD_REACTORS
330
490
102
}
330
490
100
DictionaryVariables
280
     0
  1
2
  0
DICTIONARYVAR
  5
49A
102
{ACAD_REACTORS
330
490
102
}
330
490
100
DictionaryVariables
280
     0
  1
1
  0
DICTIONARYVAR
  5
49E
102
{ACAD_REACTORS
330
490
102
}
330
490
100
DictionaryVariables
280
     0
  1
1
  0
DICTIONARYVAR
  5
494
102
{ACAD_REACTORS
330
490
102
}
330
490
100
DictionaryVariables
280
     0
  1
80.000000
  0
DICTIONARYVAR
  5
493
102
{ACAD_REACTORS
330
490
102
}
330
490
100
DictionaryVariables
280
     0
  1
5.000000
  0
DICTIONARY
  5
4A1
330
45
100
AcDbDictionary
280
     1
  3
ACAD_XREC_ROUNDTRIP
360
4A2
  0
DICTIONARY
  5
49F
330
44
100
AcDbDictionary
280
     1
  3
ACAD_XREC_ROUNDTRIP
360
4A0
  0
DICTIONARY
  5
4A3
330
46
100
AcDbDictionary
280
     1
  3
ACAD_XREC_ROUNDTRIP
360
4A4
  0
XRECORD
  5
4A2
102
{ACAD_REACTORS
330
4A1
102
}
330
4A1
100
AcDbXrecord
102
MATERIAL
148
0.0
149
0.0
149
0.0
 93
        0
 94
      127
282
     0
 72
     1
 77
     1
171
     1
175
     1
179
     1
273
     0
  0
XRECORD
  5
4A0
102
{ACAD_REACTORS
330
49F
102
}
330
49F
100
AcDbXrecord
102
MATERIAL
148
0.0
149
0.0
149
0.0
 93
        0
 94
      127
282
     0
 72
     1
 77
     1
171
     1
175
     1
179
     1
273
     0
  0
XRECORD
  5
4A4
102
{ACAD_REACTORS
330
4A3
102
}
330
4A3
100
AcDbXrecord
102
MATERIAL
148
0.0
149
0.0
149
0.0
 93
        0
 94
      127
282
     0
 72
     1
 77
     1
171
     1
175
     1
179
     1
273
     0
  0
ENDSEC
  0
EOF
