  0
SECTION
  2
HEADER
  9
$ACADVER
  1
AC1014
  9
$ACADMAINTVER
 70
     9
  9
$DWGCODEPAGE
  3
ANSI_932
  9
$INSBASE
 10
0.0
 20
0.0
 30
0.0
  9
$EXTMIN
 10
15.0
 20
30.0
 30
0.0
  9
$EXTMAX
 10
1155.0
 20
840.0
 30
0.0
  9
$LIMMIN
 10
0.0
 20
0.0
  9
$LIMMAX
 10
420.0
 20
297.0
  9
$ORTHOMODE
 70
     0
  9
$REGENMODE
 70
     1
  9
$FILLMODE
 70
     1
  9
$QTEXTMODE
 70
     0
  9
$MIRRTEXT
 70
     1
  9
$DRAGMODE
 70
     2
  9
$LTSCALE
 40
0.2
  9
$OSMODE
 70
    37
  9
$ATTMODE
 70
     1
  9
$TEXTSIZE
 40
2.5
  9
$TRACEWID
 40
1.0
  9
$TEXTSTYLE
  7
STANDARD
  9
$CLAYER
  8
LAY-10
  9
$CELTYPE
  6
BYLAYER
  9
$CECOLOR
 62
   256
  9
$CELTSCALE
 40
1.0
  9
$DELOBJ
 70
     1
  9
$DISPSILH
 70
     0
  9
$DIMSCALE
 40
1.0
  9
$DIMASZ
 40
2.5
  9
$DIMEXO
 40
0.625
  9
$DIMDLI
 40
3.75
  9
$DIMRND
 40
0.0
  9
$DIMDLE
 40
0.0
  9
$DIMEXE
 40
1.25
  9
$DIMTP
 40
0.0
  9
$DIMTM
 40
0.0
  9
$DIMTXT
 40
2.5
  9
$DIMCEN
 40
2.5
  9
$DIMTSZ
 40
0.0
  9
$DIMTOL
 70
     0
  9
$DIMLIM
 70
     0
  9
$DIMTIH
 70
     0
  9
$DIMTOH
 70
     0
  9
$DIMSE1
 70
     0
  9
$DIMSE2
 70
     0
  9
$DIMTAD
 70
     1
  9
$DIMZIN
 70
     8
  9
$DIMBLK
  1

  9
$DIMASO
 70
     1
  9
$DIMSHO
 70
     1
  9
$DIMPOST
  1

  9
$DIMAPOST
  1

  9
$DIMALT
 70
     0
  9
$DIMALTD
 70
     3
  9
$DIMALTF
 40
0.03937007874016
  9
$DIMLFAC
 40
1.0
  9
$DIMTOFL
 70
     1
  9
$DIMTVP
 40
0.0
  9
$DIMTIX
 70
     0
  9
$DIMSOXD
 70
     0
  9
$DIMSAH
 70
     0
  9
$DIMBLK1
  1

  9
$DIMBLK2
  1

  9
$DIMSTYLE
  2
ISO-25
  9
$DIMCLRD
 70
     0
  9
$DIMCLRE
 70
     0
  9
$DIMCLRT
 70
     0
  9
$DIMTFAC
 40
1.0
  9
$DIMGAP
 40
0.625
  9
$DIMJUST
 70
     0
  9
$DIMSD1
 70
     0
  9
$DIMSD2
 70
     0
  9
$DIMTOLJ
 70
     0
  9
$DIMTZIN
 70
     8
  9
$DIMALTZ
 70
     0
  9
$DIMALTTZ
 70
     0
  9
$DIMFIT
 70
     3
  9
$DIMUPT
 70
     0
  9
$DIMUNIT
 70
     2
  9
$DIMDEC
 70
     2
  9
$DIMTDEC
 70
     2
  9
$DIMALTU
 70
     2
  9
$DIMALTTD
 70
     3
  9
$DIMTXSTY
  7
STANDARD
  9
$DIMAUNIT
 70
     0
  9
$LUNITS
 70
     2
  9
$LUPREC
 70
     4
  9
$SKETCHINC
 40
1.0
  9
$FILLETRAD
 40
10.0
  9
$AUNITS
 70
     0
  9
$AUPREC
 70
     0
  9
$MENU
  1
.
  9
$ELEVATION
 40
0.0
  9
$PELEVATION
 40
0.0
  9
$THICKNESS
 40
0.0
  9
$LIMCHECK
 70
     0
  9
$CHAMFERA
 40
0.0
  9
$CHAMFERB
 40
0.0
  9
$CHAMFERC
 40
0.0
  9
$CHAMFERD
 40
0.0
  9
$SKPOLY
 70
     0
  9
$TDCREATE
 40
2459229.337504873
  9
$TDUPDATE
 40
2459229.337505405
  9
$TDINDWG
 40
0.0000000116
  9
$TDUSRTIMER
 40
0.0000000116
  9
$USRTIMER
 70
     1
  9
$ANGBASE
 50
0.0
  9
$ANGDIR
 70
     0
  9
$PDMODE
 70
     0
  9
$PDSIZE
 40
0.0
  9
$PLINEWID
 40
0.0
  9
$COORDS
 70
     1
  9
$SPLFRAME
 70
     0
  9
$SPLINETYPE
 70
     6
  9
$SPLINESEGS
 70
     8
  9
$ATTDIA
 70
     0
  9
$ATTREQ
 70
     1
  9
$HANDLING
 70
     1
  9
$HANDSEED
  5
4D3
  9
$SURFTAB1
 70
     6
  9
$SURFTAB2
 70
     6
  9
$SURFTYPE
 70
     6
  9
$SURFU
 70
     6
  9
$SURFV
 70
     6
  9
$UCSNAME
  2

  9
$UCSORG
 10
0.0
 20
0.0
 30
0.0
  9
$UCSXDIR
 10
1.0
 20
0.0
 30
0.0
  9
$UCSYDIR
 10
0.0
 20
1.0
 30
0.0
  9
$PUCSNAME
  2

  9
$PUCSORG
 10
0.0
 20
0.0
 30
0.0
  9
$PUCSXDIR
 10
1.0
 20
0.0
 30
0.0
  9
$PUCSYDIR
 10
0.0
 20
1.0
 30
0.0
  9
$USERI1
 70
     0
  9
$USERI2
 70
     0
  9
$USERI3
 70
     0
  9
$USERI4
 70
     0
  9
$USERI5
 70
     0
  9
$USERR1
 40
0.0
  9
$USERR2
 40
0.0
  9
$USERR3
 40
0.0
  9
$USERR4
 40
0.0
  9
$USERR5
 40
0.0
  9
$WORLDVIEW
 70
     1
  9
$SHADEDGE
 70
     3
  9
$SHADEDIF
 70
    70
  9
$TILEMODE
 70
     1
  9
$MAXACTVP
 70
    64
  9
$PINSBASE
 10
0.0
 20
0.0
 30
0.0
  9
$PLIMCHECK
 70
     0
  9
$PEXTMIN
 10
1.000000000000000E+20
 20
1.000000000000000E+20
 30
1.000000000000000E+20
  9
$PEXTMAX
 10
-1.000000000000000E+20
 20
-1.000000000000000E+20
 30
-1.000000000000000E+20
  9
$PLIMMIN
 10
0.0
 20
0.0
  9
$PLIMMAX
 10
420.0
 20
297.0
  9
$UNITMODE
 70
     0
  9
$VISRETAIN
 70
     1
  9
$PLINEGEN
 70
     0
  9
$PSLTSCALE
 70
     1
  9
$TREEDEPTH
 70
  3020
  9
$PICKSTYLE
 70
     1
  9
$CMLSTYLE
  2
STANDARD
  9
$CMLJUST
 70
     0
  9
$CMLSCALE
 40
20.0
  9
$PROXYGRAPHICS
 70
     1
  9
$MEASUREMENT
 70
     1
  0
ENDSEC
  0
SECTION
  2
CLASSES
  0
CLASS
  1
ACDBDICTIONARYWDFLT
  2
AcDbDictionaryWithDefault
  3
ObjectDBX Classes
 90
        0
280
     0
281
     0
  0
CLASS
  1
VISUALSTYLE
  2
AcDbVisualStyle
  3
ObjectDBX Classes
 90
     4095
280
     0
281
     0
  0
CLASS
  1
MATERIAL
  2
AcDbMaterial
  3
ObjectDBX Classes
 90
     1153
280
     0
281
     0
  0
CLASS
  1
SCALE
  2
AcDbScale
  3
ObjectDBX Classes
 90
     1153
280
     0
281
     0
  0
CLASS
  1
TABLESTYLE
  2
AcDbTableStyle
  3
ObjectDBX Classes
 90
     4095
280
     0
281
     0
  0
CLASS
  1
MLEADERSTYLE
  2
AcDbMLeaderStyle
  3
ACDB_MLEADERSTYLE_CLASS
 90
     4095
280
     0
281
     0
  0
CLASS
  1
SUN
  2
AcDbSun
  3
SCENEOE
 90
     1153
280
     0
281
     0
  0
CLASS
  1
DICTIONARYVAR
  2
AcDbDictionaryVar
  3
ObjectDBX Classes
 90
        0
280
     0
281
     0
  0
CLASS
  1
XRECORD
  2
AcDbXrecord
  3
ObjectDBX Classes
 90
        0
280
     0
281
     0
  0
CLASS
  1
LWPOLYLINE
  2
AcDbPolyline
  3
ObjectDBX Classes
 90
        0
280
     0
281
     1
  0
CLASS
  1
HATCH
  2
AcDbHatch
  3
ObjectDBX Classes
 90
        0
280
     0
281
     1
  0
CLASS
  1
ACDBPLACEHOLDER
  2
AcDbPlaceHolder
  3
ObjectDBX Classes
 90
        0
280
     0
281
     0
  0
CLASS
  1
LAYOUT
  2
AcDbLayout
  3
ObjectDBX Classes
 90
        0
280
     0
281
     0
  0
ENDSEC
  0
SECTION
  2
TABLES
  0
TABLE
  2
VPORT
  5
8
102
{ACAD_XDICTIONARY
360
4C8
102
}
330
0
100
AcDbSymbolTable
 70
     1
  0
VPORT
  5
29
330
8
100
AcDbSymbolTableRecord
100
AcDbViewportTableRecord
  2
*ACTIVE
 70
     0
 10
0.0
 20
0.0
 11
1.0
 21
1.0
 12
585.0000000000001
 22
435.0
 13
0.0
 23
0.0
 14
10.0
 24
10.0
 15
10.0
 25
10.0
 16
0.0
 26
0.0
 36
1.0
 17
0.0
 27
0.0
 37
0.0
 40
810.0
 41
1.407407407407408
 42
50.0
 43
0.0
 44
0.0
 50
0.0
 51
0.0
 71
     0
 72
  1000
 73
     1
 74
     3
 75
     0
 76
     0
 77
     0
 78
     0
  0
ENDTAB
  0
TABLE
  2
LTYPE
  5
5
330
0
100
AcDbSymbolTable
 70
     6
  0
LTYPE
  5
14
330
5
100
AcDbSymbolTableRecord
100
AcDbLinetypeTableRecord
  2
BYBLOCK
 70
     0
  3

 72
    65
 73
     0
 40
0.0
  0
LTYPE
  5
15
330
5
100
AcDbSymbolTableRecord
100
AcDbLinetypeTableRecord
  2
BYLAYER
 70
     0
  3

 72
    65
 73
     0
 40
0.0
  0
LTYPE
  5
16
330
5
100
AcDbSymbolTableRecord
100
AcDbLinetypeTableRecord
  2
CONTINUOUS
 70
     0
  3
Solid line
 72
    65
 73
     0
 40
0.0
  0
LTYPE
  5
6E
330
5
100
AcDbSymbolTableRecord
100
AcDbLinetypeTableRecord
  2
HIDDEN
 70
     0
  3
Hidden __ __ __ __ __ __ __ __ __ __ __ __ __ __
 72
    65
 73
     2
 40
9.524999999999999
 49
6.35
 74
     0
 49
-3.175
 74
     0
  0
LTYPE
  5
6F
330
5
100
AcDbSymbolTableRecord
100
AcDbLinetypeTableRecord
  2
CENTER
 70
     0
  3
Center ____ _ ____ _ ____ _ ____ _ ____ _ ____
 72
    65
 73
     4
 40
50.8
 49
31.75
 74
     0
 49
-6.35
 74
     0
 49
6.35
 74
     0
 49
-6.35
 74
     0
  0
LTYPE
  5
70
330
5
100
AcDbSymbolTableRecord
100
AcDbLinetypeTableRecord
  2
PHANTOM
 70
     0
  3
Phantom ______  __  __  ______  __  __  ______ 
 72
    65
 73
     6
 40
63.50000000000001
 49
31.75
 74
     0
 49
-6.35
 74
     0
 49
6.35
 74
     0
 49
-6.35
 74
     0
 49
6.35
 74
     0
 49
-6.35
 74
     0
  0
LTYPE
  5
71
330
5
100
AcDbSymbolTableRecord
100
AcDbLinetypeTableRecord
  2
ACAD_ISO06W100
 70
     0
  3
ISO long-dash triple-dot ____ ... ____ ... ____
 72
    65
 73
     8
 40
36.0
 49
24.0
 74
     0
 49
-3.0
 74
     0
 49
0.0
 74
     0
 49
-3.0
 74
     0
 49
0.0
 74
     0
 49
-3.0
 74
     0
 49
0.0
 74
     0
 49
-3.0
 74
     0
  0
LTYPE
  5
72
330
5
100
AcDbSymbolTableRecord
100
AcDbLinetypeTableRecord
  2
ACAD_ISO15W100
 70
     0
  3
ISO double-dash triple-dot __ __ . . . __ __ . .
 72
    65
 73
    10
 40
39.0
 49
12.0
 74
     0
 49
-3.0
 74
     0
 49
12.0
 74
     0
 49
-3.0
 74
     0
 49
0.0
 74
     0
 49
-3.0
 74
     0
 49
0.0
 74
     0
 49
-3.0
 74
     0
 49
0.0
 74
     0
 49
-3.0
 74
     0
  0
ENDTAB
  0
TABLE
  2
LAYER
  5
2
330
0
100
AcDbSymbolTable
 70
     5
  0
LAYER
  5
10
330
2
100
AcDbSymbolTableRecord
100
AcDbLayerTableRecord
  2
0
 70
     0
 62
     7
  6
CONTINUOUS
  0
LAYER
  5
75
330
2
100
AcDbSymbolTableRecord
100
AcDbLayerTableRecord
  2
LAY-10
 70
     0
 62
     7
  6
CONTINUOUS
  0
LAYER
  5
76
330
2
100
AcDbSymbolTableRecord
100
AcDbLayerTableRecord
  2
LAY-20
 70
     0
 62
     7
  6
CONTINUOUS
  0
LAYER
  5
77
330
2
100
AcDbSymbolTableRecord
100
AcDbLayerTableRecord
  2
LAY-255
 70
     0
 62
     7
  6
CONTINUOUS
  0
LAYER
  5
417
330
2
100
AcDbSymbolTableRecord
100
AcDbLayerTableRecord
  2
DEFPOINTS
 70
     0
 62
     7
  6
CONTINUOUS
  0
ENDTAB
  0
TABLE
  2
STYLE
  5
3
330
0
100
AcDbSymbolTable
 70
     4
  0
STYLE
  5
11
330
3
100
AcDbSymbolTableRecord
100
AcDbTextStyleTableRecord
  2
STANDARD
 70
     0
 40
0.0
 41
1.0
 50
0.0
 71
     0
 42
2.5
  3
simplex
  4
bigfont
  0
STYLE
  5
73
330
3
100
AcDbSymbolTableRecord
100
AcDbTextStyleTableRecord
  2
EXCADSTD
 70
     0
 40
0.0
 41
1.0
 50
0.0
 71
     0
 42
2.5
  3
simplex
  4
bigfont
  0
STYLE
  5
74
330
3
100
AcDbSymbolTableRecord
100
AcDbTextStyleTableRecord
  2
EXCADVERT
 70
     4
 40
0.0
 41
1.0
 50
0.0
 71
     0
 42
2.5
  3
simplex
  4
bigfont
  0
STYLE
  5
415
330
3
100
AcDbSymbolTableRecord
100
AcDbTextStyleTableRecord
  2
EXCADDIM1
 70
     0
 40
0.0
 41
0.84
 50
0.0
 71
     0
 42
2.5
  3
simplex
  4
bigfont
  0
ENDTAB
  0
TABLE
  2
VIEW
  5
6
330
0
100
AcDbSymbolTable
 70
     0
  0
ENDTAB
  0
TABLE
  2
UCS
  5
7
330
0
100
AcDbSymbolTable
 70
     0
  0
ENDTAB
  0
TABLE
  2
APPID
  5
9
330
0
100
AcDbSymbolTable
 70
     2
  0
APPID
  5
12
330
9
100
AcDbSymbolTableRecord
100
AcDbRegAppTableRecord
  2
ACAD
 70
     0
  0
APPID
  5
4D2
330
9
100
AcDbSymbolTableRecord
100
AcDbRegAppTableRecord
  2
ACAD_MLEADERVER
 70
     0
  0
ENDTAB
  0
TABLE
  2
DIMSTYLE
  5
A
330
0
100
AcDbSymbolTable
 70
     1
  0
DIMSTYLE
105
27
102
{ACAD_REACTORS
330
416
330
424
330
431
330
43E
330
44B
330
458
330
464
102
}
330
A
100
AcDbSymbolTableRecord
100
AcDbDimStyleTableRecord
  2
ISO-25
 70
     0
  3

  4

  5

  6

  7

 40
1.0
 41
2.5
 42
0.625
 43
3.75
 44
1.25
 45
0.0
 46
0.0
 47
0.0
 48
0.0
140
2.5
141
2.5
142
0.0
143
0.03937007874016
144
1.0
145
0.0
146
1.0
147
0.625
 71
     0
 72
     0
 73
     0
 74
     0
 75
     0
 76
     0
 77
     1
 78
     8
170
     0
171
     3
172
     1
173
     0
174
     0
175
     0
176
     0
177
     0
178
     0
270
     2
271
     2
272
     2
273
     2
274
     3
340
11
275
     0
280
     0
281
     0
282
     0
283
     0
284
     8
285
     0
286
     0
287
     5
288
     0
  0
ENDTAB
  0
TABLE
  2
BLOCK_RECORD
  5
1
330
0
100
AcDbSymbolTable
 70
    21
  0
BLOCK_RECORD
  5
1F
330
1
100
AcDbSymbolTableRecord
100
AcDbBlockTableRecord
  2
*MODEL_SPACE
  0
BLOCK_RECORD
  5
1B
330
1
100
AcDbSymbolTableRecord
100
AcDbBlockTableRecord
  2
*PAPER_SPACE
  0
BLOCK_RECORD
  5
78
330
1
100
AcDbSymbolTableRecord
100
AcDbBlockTableRecord
  2
EX_NORM
  0
BLOCK_RECORD
  5
7B
330
1
100
AcDbSymbolTableRecord
100
AcDbBlockTableRecord
  2
EX_BNORM
  0
BLOCK_RECORD
  5
7E
330
1
100
AcDbSymbolTableRecord
100
AcDbBlockTableRecord
  2
EX_BCIR
  0
BLOCK_RECORD
  5
81
330
1
100
AcDbSymbolTableRecord
100
AcDbBlockTableRecord
  2
EX_RCIVIL
  0
BLOCK_RECORD
  5
84
330
1
100
AcDbSymbolTableRecord
100
AcDbBlockTableRecord
  2
EX_SLANT
  0
BLOCK_RECORD
  5
87
330
1
100
AcDbSymbolTableRecord
100
AcDbBlockTableRecord
  2
EX_NONE
  0
BLOCK_RECORD
  5
8A
330
1
100
AcDbSymbolTableRecord
100
AcDbBlockTableRecord
  2
EX_CIVIL
  0
BLOCK_RECORD
  5
8D
330
1
100
AcDbSymbolTableRecord
100
AcDbBlockTableRecord
  2
EX_WCIR
  0
BLOCK_RECORD
  5
90
330
1
100
AcDbSymbolTableRecord
100
AcDbBlockTableRecord
  2
EX_WCIR2
  0
BLOCK_RECORD
  5
93
330
1
100
AcDbSymbolTableRecord
100
AcDbBlockTableRecord
  2
EX_WNORM
  0
BLOCK_RECORD
  5
96
330
1
100
AcDbSymbolTableRecord
100
AcDbBlockTableRecord
  2
EX_NNORM
  0
BLOCK_RECORD
  5
99
330
1
100
AcDbSymbolTableRecord
100
AcDbBlockTableRecord
  2
EX_BBOX
  0
BLOCK_RECORD
  5
9C
330
1
100
AcDbSymbolTableRecord
100
AcDbBlockTableRecord
  2
EX_WBOX
  0
BLOCK_RECORD
  5
9F
330
1
100
AcDbSymbolTableRecord
100
AcDbBlockTableRecord
  2
EX_INTEGRAL
  0
BLOCK_RECORD
  5
418
330
1
100
AcDbSymbolTableRecord
100
AcDbBlockTableRecord
  2
*D15
  0
BLOCK_RECORD
  5
425
330
1
100
AcDbSymbolTableRecord
100
AcDbBlockTableRecord
  2
*D16
  0
BLOCK_RECORD
  5
432
330
1
100
AcDbSymbolTableRecord
100
AcDbBlockTableRecord
  2
*D17
  0
BLOCK_RECORD
  5
43F
330
1
100
AcDbSymbolTableRecord
100
AcDbBlockTableRecord
  2
*D18
  0
BLOCK_RECORD
  5
44C
330
1
100
AcDbSymbolTableRecord
100
AcDbBlockTableRecord
  2
*D19
  0
BLOCK_RECORD
  5
459
330
1
100
AcDbSymbolTableRecord
100
AcDbBlockTableRecord
  2
*D20
  0
BLOCK_RECORD
  5
465
330
1
100
AcDbSymbolTableRecord
100
AcDbBlockTableRecord
  2
*D21
  0
ENDTAB
  0
ENDSEC
  0
SECTION
  2
BLOCKS
  0
BLOCK
  5
20
330
1F
100
AcDbEntity
  8
0
100
AcDbBlockBegin
  2
*MODEL_SPACE
 70
     0
 10
0.0
 20
0.0
 30
0.0
  3
*MODEL_SPACE
  1

  0
ENDBLK
  5
21
330
1F
100
AcDbEntity
  8
0
100
AcDbBlockEnd
  0
BLOCK
  5
1C
330
1B
100
AcDbEntity
 67
     1
  8
0
100
AcDbBlockBegin
  2
*PAPER_SPACE
 70
     0
 10
0.0
 20
0.0
 30
0.0
  3
*PAPER_SPACE
  1

  0
ENDBLK
  5
1D
330
1B
100
AcDbEntity
 67
     1
  8
0
100
AcDbBlockEnd
  0
BLOCK
  5
79
330
78
100
AcDbEntity
  8
0
100
AcDbBlockBegin
  2
EX_NORM
 70
     0
 10
0.0
 20
0.0
 30
0.0
  3
EX_NORM
  1

  0
LINE
  5
A2
330
78
100
AcDbEntity
  8
0
  6
CONTINUOUS
 62
     0
100
AcDbLine
 10
0.0
 20
0.0
 30
0.0
 11
-1.0
 21
0.0
 31
0.0
  0
LINE
  5
A3
330
78
100
AcDbEntity
  8
0
  6
CONTINUOUS
 62
     0
100
AcDbLine
 10
0.0
 20
0.0
 30
0.0
 11
-1.0
 21
0.166666667
 31
0.0
  0
LINE
  5
A4
330
78
100
AcDbEntity
  8
0
  6
CONTINUOUS
 62
     0
100
AcDbLine
 10
0.0
 20
0.0
 30
0.0
 11
-1.0
 21
-0.166666667
 31
0.0
  0
ENDBLK
  5
7A
330
78
100
AcDbEntity
  8
0
100
AcDbBlockEnd
  0
BLOCK
  5
7C
330
7B
100
AcDbEntity
  8
0
100
AcDbBlockBegin
  2
EX_BNORM
 70
     0
 10
0.0
 20
0.0
 30
0.0
  3
EX_BNORM
  1

  0
LINE
  5
A5
330
7B
100
AcDbEntity
  8
0
  6
CONTINUOUS
 62
     0
100
AcDbLine
 10
0.0
 20
0.0
 30
0.0
 11
-1.0
 21
0.0
 31
0.0
  0
LINE
  5
A6
330
7B
100
AcDbEntity
  8
0
  6
CONTINUOUS
 62
     0
100
AcDbLine
 10
0.0
 20
0.0
 30
0.0
 11
-1.0
 21
0.166666667
 31
0.0
  0
LINE
  5
A7
330
7B
100
AcDbEntity
  8
0
  6
CONTINUOUS
 62
     0
100
AcDbLine
 10
0.0
 20
0.0
 30
0.0
 11
-1.0
 21
-0.166666667
 31
0.0
  0
LINE
  5
A8
330
7B
100
AcDbEntity
  8
0
  6
CONTINUOUS
 62
     0
100
AcDbLine
 10
0.0
 20
0.0
 30
0.0
 11
-1.0
 21
0.083333333
 31
0.0
  0
LINE
  5
A9
330
7B
100
AcDbEntity
  8
0
  6
CONTINUOUS
 62
     0
100
AcDbLine
 10
0.0
 20
0.0
 30
0.0
 11
-1.0
 21
-0.083333333
 31
0.0
  0
LINE
  5
AA
330
7B
100
AcDbEntity
  8
0
  6
CONTINUOUS
 62
     0
100
AcDbLine
 10
-1.0
 20
0.166666667
 30
0.0
 11
-1.0
 21
-0.166666667
 31
0.0
  0
ENDBLK
  5
7D
330
7B
100
AcDbEntity
  8
0
100
AcDbBlockEnd
  0
BLOCK
  5
7F
330
7E
100
AcDbEntity
  8
0
100
AcDbBlockBegin
  2
EX_BCIR
 70
     0
 10
0.0
 20
0.0
 30
0.0
  3
EX_BCIR
  1

  0
LINE
  5
AB
330
7E
100
AcDbEntity
  8
0
  6
CONTINUOUS
 62
     0
100
AcDbLine
 10
0.0
 20
0.0
 30
0.0
 11
-1.0
 21
0.0
 31
0.0
  0
CIRCLE
  5
AC
330
7E
100
AcDbEntity
  8
0
  6
CONTINUOUS
 62
     0
100
AcDbCircle
 10
0.0
 20
0.0
 30
0.0
 40
0.5
  0
CIRCLE
  5
AD
330
7E
100
AcDbEntity
  8
0
  6
CONTINUOUS
 62
     0
100
AcDbCircle
 10
0.0
 20
0.0
 30
0.0
 40
0.25
  0
ENDBLK
  5
80
330
7E
100
AcDbEntity
  8
0
100
AcDbBlockEnd
  0
BLOCK
  5
82
330
81
100
AcDbEntity
  8
0
100
AcDbBlockBegin
  2
EX_RCIVIL
 70
     0
 10
0.0
 20
0.0
 30
0.0
  3
EX_RCIVIL
  1

  0
LINE
  5
AE
330
81
100
AcDbEntity
  8
0
  6
CONTINUOUS
 62
     0
100
AcDbLine
 10
0.0
 20
0.0
 30
0.0
 11
-1.0
 21
0.0
 31
0.0
  0
LINE
  5
AF
330
81
100
AcDbEntity
  8
0
  6
CONTINUOUS
 62
     0
100
AcDbLine
 10
-1.0
 20
-0.25
 30
0.0
 11
0.0
 21
-0.25
 31
0.0
  0
LINE
  5
B0
330
81
100
AcDbEntity
  8
0
  6
CONTINUOUS
 62
     0
100
AcDbLine
 10
-1.0
 20
-0.125
 30
0.0
 11
0.0
 21
-0.125
 31
0.0
  0
ENDBLK
  5
83
330
81
100
AcDbEntity
  8
0
100
AcDbBlockEnd
  0
BLOCK
  5
85
330
84
100
AcDbEntity
  8
0
100
AcDbBlockBegin
  2
EX_SLANT
 70
     0
 10
0.0
 20
0.0
 30
0.0
  3
EX_SLANT
  1

  0
LINE
  5
B1
330
84
100
AcDbEntity
  8
0
  6
CONTINUOUS
 62
     0
100
AcDbLine
 10
0.0
 20
0.0
 30
0.0
 11
-1.0
 21
0.0
 31
0.0
  0
LINE
  5
B2
330
84
100
AcDbEntity
  8
0
  6
CONTINUOUS
 62
     0
100
AcDbLine
 10
0.707106781
 20
0.707106781
 30
0.0
 11
-0.707106781
 21
-0.707106781
 31
0.0
  0
ENDBLK
  5
86
330
84
100
AcDbEntity
  8
0
100
AcDbBlockEnd
  0
BLOCK
  5
88
330
87
100
AcDbEntity
  8
0
100
AcDbBlockBegin
  2
EX_NONE
 70
     0
 10
0.0
 20
0.0
 30
0.0
  3
EX_NONE
  1

  0
LINE
  5
B3
330
87
100
AcDbEntity
  8
0
  6
CONTINUOUS
 62
     0
100
AcDbLine
 10
0.0
 20
0.0
 30
0.0
 11
-1.0
 21
0.0
 31
0.0
  0
ENDBLK
  5
89
330
87
100
AcDbEntity
  8
0
100
AcDbBlockEnd
  0
BLOCK
  5
8B
330
8A
100
AcDbEntity
  8
0
100
AcDbBlockBegin
  2
EX_CIVIL
 70
     0
 10
0.0
 20
0.0
 30
0.0
  3
EX_CIVIL
  1

  0
LINE
  5
B4
330
8A
100
AcDbEntity
  8
0
  6
CONTINUOUS
 62
     0
100
AcDbLine
 10
0.0
 20
0.0
 30
0.0
 11
-1.0
 21
0.0
 31
0.0
  0
LINE
  5
B5
330
8A
100
AcDbEntity
  8
0
  6
CONTINUOUS
 62
     0
100
AcDbLine
 10
-1.0
 20
0.25
 30
0.0
 11
0.0
 21
0.25
 31
0.0
  0
LINE
  5
B6
330
8A
100
AcDbEntity
  8
0
  6
CONTINUOUS
 62
     0
100
AcDbLine
 10
-1.0
 20
0.125
 30
0.0
 11
0.0
 21
0.125
 31
0.0
  0
ENDBLK
  5
8C
330
8A
100
AcDbEntity
  8
0
100
AcDbBlockEnd
  0
BLOCK
  5
8E
330
8D
100
AcDbEntity
  8
0
100
AcDbBlockBegin
  2
EX_WCIR
 70
     0
 10
0.0
 20
0.0
 30
0.0
  3
EX_WCIR
  1

  0
LINE
  5
B7
330
8D
100
AcDbEntity
  8
0
  6
CONTINUOUS
 62
     0
100
AcDbLine
 10
0.0
 20
0.0
 30
0.0
 11
-1.0
 21
0.0
 31
0.0
  0
CIRCLE
  5
B8
330
8D
100
AcDbEntity
  8
0
  6
CONTINUOUS
 62
     0
100
AcDbCircle
 10
0.0
 20
0.0
 30
0.0
 40
0.5
  0
ENDBLK
  5
8F
330
8D
100
AcDbEntity
  8
0
100
AcDbBlockEnd
  0
BLOCK
  5
91
330
90
100
AcDbEntity
  8
0
100
AcDbBlockBegin
  2
EX_WCIR2
 70
     0
 10
0.0
 20
0.0
 30
0.0
  3
EX_WCIR2
  1

  0
LINE
  5
B9
330
90
100
AcDbEntity
  8
0
  6
CONTINUOUS
 62
     0
100
AcDbLine
 10
-0.5
 20
0.0
 30
0.0
 11
-1.0
 21
0.0
 31
0.0
  0
CIRCLE
  5
BA
330
90
100
AcDbEntity
  8
0
  6
CONTINUOUS
 62
     0
100
AcDbCircle
 10
0.0
 20
0.0
 30
0.0
 40
0.5
  0
ENDBLK
  5
92
330
90
100
AcDbEntity
  8
0
100
AcDbBlockEnd
  0
BLOCK
  5
94
330
93
100
AcDbEntity
  8
0
100
AcDbBlockBegin
  2
EX_WNORM
 70
     0
 10
0.0
 20
0.0
 30
0.0
  3
EX_WNORM
  1

  0
LINE
  5
BB
330
93
100
AcDbEntity
  8
0
  6
CONTINUOUS
 62
     0
100
AcDbLine
 10
-1.0
 20
0.0
 30
0.0
 11
-1.0
 21
0.0
 31
0.0
  0
LINE
  5
BC
330
93
100
AcDbEntity
  8
0
  6
CONTINUOUS
 62
     0
100
AcDbLine
 10
0.0
 20
0.0
 30
0.0
 11
-1.0
 21
0.166666667
 31
0.0
  0
LINE
  5
BD
330
93
100
AcDbEntity
  8
0
  6
CONTINUOUS
 62
     0
100
AcDbLine
 10
0.0
 20
0.0
 30
0.0
 11
-1.0
 21
-0.166666667
 31
0.0
  0
LINE
  5
BE
330
93
100
AcDbEntity
  8
0
  6
CONTINUOUS
 62
     0
100
AcDbLine
 10
-1.0
 20
0.166666667
 30
0.0
 11
-1.0
 21
-0.166666667
 31
0.0
  0
ENDBLK
  5
95
330
93
100
AcDbEntity
  8
0
100
AcDbBlockEnd
  0
BLOCK
  5
97
330
96
100
AcDbEntity
  8
0
100
AcDbBlockBegin
  2
EX_NNORM
 70
     0
 10
0.0
 20
0.0
 30
0.0
  3
EX_NNORM
  1

  0
LINE
  5
BF
330
96
100
AcDbEntity
  8
0
  6
CONTINUOUS
 62
     0
100
AcDbLine
 10
0.0
 20
0.0
 30
0.0
 11
-1.0
 21
0.0
 31
0.0
  0
LINE
  5
C0
330
96
100
AcDbEntity
  8
0
  6
CONTINUOUS
 62
     0
100
AcDbLine
 10
0.0
 20
0.0
 30
0.0
 11
-1.0
 21
0.166666667
 31
0.0
  0
LINE
  5
C1
330
96
100
AcDbEntity
  8
0
  6
CONTINUOUS
 62
     0
100
AcDbLine
 10
0.0
 20
0.0
 30
0.0
 11
-1.0
 21
-0.166666667
 31
0.0
  0
LINE
  5
C2
330
96
100
AcDbEntity
  8
0
  6
CONTINUOUS
 62
     0
100
AcDbLine
 10
-1.0
 20
0.166666667
 30
0.0
 11
-1.0
 21
-0.166666667
 31
0.0
  0
ENDBLK
  5
98
330
96
100
AcDbEntity
  8
0
100
AcDbBlockEnd
  0
BLOCK
  5
9A
330
99
100
AcDbEntity
  8
0
100
AcDbBlockBegin
  2
EX_BBOX
 70
     0
 10
0.0
 20
0.0
 30
0.0
  3
EX_BBOX
  1

  0
LINE
  5
C3
330
99
100
AcDbEntity
  8
0
  6
CONTINUOUS
 62
     0
100
AcDbLine
 10
0.0
 20
0.0
 30
0.0
 11
-1.0
 21
0.0
 31
0.0
  0
LINE
  5
C4
330
99
100
AcDbEntity
  8
0
  6
CONTINUOUS
 62
     0
100
AcDbLine
 10
-0.5
 20
0.5
 30
0.0
 11
0.5
 21
0.5
 31
0.0
  0
LINE
  5
C5
330
99
100
AcDbEntity
  8
0
  6
CONTINUOUS
 62
     0
100
AcDbLine
 10
0.5
 20
0.5
 30
0.0
 11
0.5
 21
-0.5
 31
0.0
  0
LINE
  5
C6
330
99
100
AcDbEntity
  8
0
  6
CONTINUOUS
 62
     0
100
AcDbLine
 10
0.5
 20
-0.5
 30
0.0
 11
-0.5
 21
-0.5
 31
0.0
  0
LINE
  5
C7
330
99
100
AcDbEntity
  8
0
  6
CONTINUOUS
 62
     0
100
AcDbLine
 10
-0.5
 20
-0.5
 30
0.0
 11
-0.5
 21
0.5
 31
0.0
  0
LINE
  5
C8
330
99
100
AcDbEntity
  8
0
  6
CONTINUOUS
 62
     0
100
AcDbLine
 10
-0.25
 20
0.25
 30
0.0
 11
0.25
 21
0.25
 31
0.0
  0
LINE
  5
C9
330
99
100
AcDbEntity
  8
0
  6
CONTINUOUS
 62
     0
100
AcDbLine
 10
0.25
 20
0.25
 30
0.0
 11
0.25
 21
-0.25
 31
0.0
  0
LINE
  5
CA
330
99
100
AcDbEntity
  8
0
  6
CONTINUOUS
 62
     0
100
AcDbLine
 10
0.25
 20
-0.25
 30
0.0
 11
-0.25
 21
-0.25
 31
0.0
  0
LINE
  5
CB
330
99
100
AcDbEntity
  8
0
  6
CONTINUOUS
 62
     0
100
AcDbLine
 10
-0.25
 20
-0.25
 30
0.0
 11
-0.25
 21
0.25
 31
0.0
  0
ENDBLK
  5
9B
330
99
100
AcDbEntity
  8
0
100
AcDbBlockEnd
  0
BLOCK
  5
9D
330
9C
100
AcDbEntity
  8
0
100
AcDbBlockBegin
  2
EX_WBOX
 70
     0
 10
0.0
 20
0.0
 30
0.0
  3
EX_WBOX
  1

  0
LINE
  5
CC
330
9C
100
AcDbEntity
  8
0
  6
CONTINUOUS
 62
     0
100
AcDbLine
 10
-0.5
 20
0.0
 30
0.0
 11
-1.0
 21
0.0
 31
0.0
  0
LINE
  5
CD
330
9C
100
AcDbEntity
  8
0
  6
CONTINUOUS
 62
     0
100
AcDbLine
 10
-0.5
 20
0.5
 30
0.0
 11
0.5
 21
0.5
 31
0.0
  0
LINE
  5
CE
330
9C
100
AcDbEntity
  8
0
  6
CONTINUOUS
 62
     0
100
AcDbLine
 10
0.5
 20
0.5
 30
0.0
 11
0.5
 21
-0.5
 31
0.0
  0
LINE
  5
CF
330
9C
100
AcDbEntity
  8
0
  6
CONTINUOUS
 62
     0
100
AcDbLine
 10
0.5
 20
-0.5
 30
0.0
 11
-0.5
 21
-0.5
 31
0.0
  0
LINE
  5
D0
330
9C
100
AcDbEntity
  8
0
  6
CONTINUOUS
 62
     0
100
AcDbLine
 10
-0.5
 20
-0.5
 30
0.0
 11
-0.5
 21
0.5
 31
0.0
  0
ENDBLK
  5
9E
330
9C
100
AcDbEntity
  8
0
100
AcDbBlockEnd
  0
BLOCK
  5
A0
330
9F
100
AcDbEntity
  8
0
100
AcDbBlockBegin
  2
EX_INTEGRAL
 70
     0
 10
0.0
 20
0.0
 30
0.0
  3
EX_INTEGRAL
  1

  0
LINE
  5
D1
330
9F
100
AcDbEntity
  8
0
  6
CONTINUOUS
 62
     0
100
AcDbLine
 10
0.0
 20
0.0
 30
0.0
 11
-1.0
 21
0.0
 31
0.0
  0
ARC
  5
D2
330
9F
100
AcDbEntity
  8
0
  6
CONTINUOUS
 62
     0
100
AcDbCircle
 10
0.542115
 20
0.164992
 30
0.0
 40
0.56667
100
AcDbArc
 50
73.07249033629006
 51
196.9275130221199
  0
ARC
  5
D3
330
9F
100
AcDbEntity
  8
0
  6
CONTINUOUS
 62
     0
100
AcDbCircle
 10
-0.542115
 20
-0.164992
 30
0.0
 40
0.56667
100
AcDbArc
 50
253.0724869220464
 51
16.9275130559125
  0
ENDBLK
  5
A1
330
9F
100
AcDbEntity
  8
0
100
AcDbBlockEnd
  0
BLOCK
  5
419
330
418
100
AcDbEntity
  8
0
100
AcDbBlockBegin
  2
*D15
 70
     1
 10
0.0
 20
0.0
 30
0.0
  3
*D15
  1

  0
LINE
  5
41B
330
418
100
AcDbEntity
  8
LAY-20
  6
CONTINUOUS
 62
     4
100
AcDbLine
 10
551.99999999999
 20
80.02688148040494
 30
0.0
 11
689.49999999999
 21
80.02688148040494
 31
0.0
  0
LINE
  5
41C
330
418
100
AcDbEntity
  8
LAY-20
  6
CONTINUOUS
 62
     4
100
AcDbLine
 10
658.5
 20
170.0268814804099
 30
0.0
 11
689.49999999999
 21
170.0268814804099
 31
0.0
  0
LINE
  5
41D
330
418
100
AcDbEntity
  8
LAY-20
  6
CONTINUOUS
 62
     4
100
AcDbLine
 10
684.99999999999
 20
87.52688148040494
 30
0.0
 11
684.99999999999
 21
162.5268814804099
 31
0.0
  0
INSERT
  5
41E
330
418
100
AcDbEntity
  8
LAY-20
 62
     4
100
AcDbBlockReference
  2
EX_BNORM
 10
684.99999999999
 20
80.02688148040494
 30
0.0
 41
7.5
 42
7.5
 43
7.5
 50
270.0
  0
INSERT
  5
41F
330
418
100
AcDbEntity
  8
LAY-20
 62
     4
100
AcDbBlockReference
  2
EX_BNORM
 10
684.99999999999
 20
170.0268814804099
 30
0.0
 41
7.5
 42
7.5
 43
7.5
 50
90.0
  0
MTEXT
  5
420
330
418
100
AcDbEntity
  8
LAY-20
 62
     7
100
AcDbMText
 10
677.49999999999
 20
125.0268814804074
 30
0.0
 40
9.3543312
 41
0.0
 71
     5
 72
     1
  1
90
  7
EXCADDIM1
 11
0.0
 21
1.0
 31
0.0
  0
POINT
  5
421
330
418
100
AcDbEntity
  8
DEFPOINTS
 62
     0
100
AcDbPoint
 10
547.49999999999
 20
80.02688148040494
 30
0.0
  0
POINT
  5
422
330
418
100
AcDbEntity
  8
DEFPOINTS
 62
     0
100
AcDbPoint
 10
654.0
 20
170.0268814804099
 30
0.0
  0
POINT
  5
423
330
418
100
AcDbEntity
  8
DEFPOINTS
 62
     0
100
AcDbPoint
 10
684.99999999999
 20
170.0268814804099
 30
0.0
  0
ENDBLK
  5
41A
330
418
100
AcDbEntity
  8
0
100
AcDbBlockEnd
  0
BLOCK
  5
426
330
425
100
AcDbEntity
  8
0
100
AcDbBlockBegin
  2
*D16
 70
     1
 10
0.0
 20
0.0
 30
0.0
  3
*D16
  1

  0
LINE
  5
428
330
425
100
AcDbEntity
  8
LAY-20
  6
CONTINUOUS
 62
     4
100
AcDbLine
 10
395.8
 20
84.52688148040994
 30
0.0
 11
395.8
 21
45.52688148040494
 31
0.0
  0
LINE
  5
429
330
425
100
AcDbEntity
  8
LAY-20
  6
CONTINUOUS
 62
     4
100
AcDbLine
 10
534.1999999999799
 20
84.52688148040994
 30
0.0
 11
534.1999999999799
 21
45.52688148040494
 31
0.0
  0
LINE
  5
42A
330
425
100
AcDbEntity
  8
LAY-20
  6
CONTINUOUS
 62
     4
100
AcDbLine
 10
403.3
 20
50.02688148040494
 30
0.0
 11
526.6999999999799
 21
50.02688148040494
 31
0.0
  0
INSERT
  5
42B
330
425
100
AcDbEntity
  8
LAY-20
 62
     4
100
AcDbBlockReference
  2
EX_BNORM
 10
395.8
 20
50.02688148040494
 30
0.0
 41
7.5
 42
7.5
 43
7.5
 50
180.0
  0
INSERT
  5
42C
330
425
100
AcDbEntity
  8
LAY-20
 62
     4
100
AcDbBlockReference
  2
EX_BNORM
 10
534.1999999999799
 20
50.02688148040494
 30
0.0
 41
7.5
 42
7.5
 43
7.5
  0
MTEXT
  5
42D
330
425
100
AcDbEntity
  8
LAY-20
 62
     7
100
AcDbMText
 10
464.9999999999899
 20
57.52688148040494
 30
0.0
 40
9.3543312
 41
0.0
 71
     5
 72
     1
  1
Rｃ5（138.4）
  7
EXCADDIM1
  0
POINT
  5
42E
330
425
100
AcDbEntity
  8
DEFPOINTS
 62
     0
100
AcDbPoint
 10
395.8
 20
89.02688148040994
 30
0.0
  0
POINT
  5
42F
330
425
100
AcDbEntity
  8
DEFPOINTS
 62
     0
100
AcDbPoint
 10
534.1999999999799
 20
89.02688148040994
 30
0.0
  0
POINT
  5
430
330
425
100
AcDbEntity
  8
DEFPOINTS
 62
     0
100
AcDbPoint
 10
534.1999999999799
 20
50.02688148040494
 30
0.0
  0
ENDBLK
  5
427
330
425
100
AcDbEntity
  8
0
100
AcDbBlockEnd
  0
BLOCK
  5
433
330
432
100
AcDbEntity
  8
0
100
AcDbBlockBegin
  2
*D17
 70
     1
 10
0.0
 20
0.0
 30
0.0
  3
*D17
  1

  0
LINE
  5
435
330
432
100
AcDbEntity
  8
LAY-20
  6
CONTINUOUS
 62
     4
100
AcDbLine
 10
654.99999999999
 20
162.5268814804099
 30
0.0
 11
654.99999999999
 21
406.4999999999799
 31
0.0
  0
LINE
  5
436
330
432
100
AcDbEntity
  8
LAY-20
  6
CONTINUOUS
 62
     4
100
AcDbLine
 10
274.9999999999899
 20
162.5268814804099
 30
0.0
 11
274.9999999999899
 21
406.4999999999799
 31
0.0
  0
LINE
  5
437
330
432
100
AcDbEntity
  8
LAY-20
  6
CONTINUOUS
 62
     4
100
AcDbLine
 10
647.49999999999
 20
401.9999999999799
 30
0.0
 11
282.4999999999899
 21
401.9999999999799
 31
0.0
  0
INSERT
  5
438
330
432
100
AcDbEntity
  8
LAY-20
 62
     4
100
AcDbBlockReference
  2
EX_BNORM
 10
654.99999999999
 20
401.9999999999799
 30
0.0
 41
7.5
 42
7.5
 43
7.5
  0
INSERT
  5
439
330
432
100
AcDbEntity
  8
LAY-20
 62
     4
100
AcDbBlockReference
  2
EX_BNORM
 10
274.9999999999899
 20
401.9999999999799
 30
0.0
 41
7.5
 42
7.5
 43
7.5
 50
180.0
  0
MTEXT
  5
43A
330
432
100
AcDbEntity
  8
LAY-20
 62
     7
100
AcDbMText
 10
464.9999999999899
 20
409.4999999999799
 30
0.0
 40
9.3543312
 41
0.0
 71
     5
 72
     1
  1
%%c380
  7
EXCADDIM1
  0
POINT
  5
43B
330
432
100
AcDbEntity
  8
DEFPOINTS
 62
     0
100
AcDbPoint
 10
654.99999999999
 20
158.0268814804099
 30
0.0
  0
POINT
  5
43C
330
432
100
AcDbEntity
  8
DEFPOINTS
 62
     0
100
AcDbPoint
 10
274.9999999999899
 20
158.0268814804099
 30
0.0
  0
POINT
  5
43D
330
432
100
AcDbEntity
  8
DEFPOINTS
 62
     0
100
AcDbPoint
 10
274.9999999999899
 20
401.9999999999799
 30
0.0
  0
ENDBLK
  5
434
330
432
100
AcDbEntity
  8
0
100
AcDbBlockEnd
  0
BLOCK
  5
440
330
43F
100
AcDbEntity
  8
0
100
AcDbBlockBegin
  2
*D18
 70
     1
 10
0.0
 20
0.0
 30
0.0
  3
*D18
  1

  0
LINE
  5
442
330
43F
100
AcDbEntity
  8
LAY-20
  6
CONTINUOUS
 62
     4
100
AcDbLine
 10
372.9999999999899
 20
159.49999999999
 30
0.0
 11
372.9999999999899
 21
364.4999999999799
 31
0.0
  0
LINE
  5
443
330
43F
100
AcDbEntity
  8
LAY-20
  6
CONTINUOUS
 62
     4
100
AcDbLine
 10
556.99999999999
 20
159.49999999999
 30
0.0
 11
556.99999999999
 21
364.4999999999799
 31
0.0
  0
LINE
  5
444
330
43F
100
AcDbEntity
  8
LAY-20
  6
CONTINUOUS
 62
     4
100
AcDbLine
 10
380.4999999999899
 20
359.9999999999799
 30
0.0
 11
549.49999999999
 21
359.9999999999799
 31
0.0
  0
INSERT
  5
445
330
43F
100
AcDbEntity
  8
LAY-20
 62
     4
100
AcDbBlockReference
  2
EX_BNORM
 10
372.9999999999899
 20
359.9999999999799
 30
0.0
 41
7.5
 42
7.5
 43
7.5
 50
180.0
  0
INSERT
  5
446
330
43F
100
AcDbEntity
  8
LAY-20
 62
     4
100
AcDbBlockReference
  2
EX_BNORM
 10
556.99999999999
 20
359.9999999999799
 30
0.0
 41
7.5
 42
7.5
 43
7.5
  0
MTEXT
  5
447
330
43F
100
AcDbEntity
  8
LAY-20
 62
     7
100
AcDbMText
 10
464.9999999999899
 20
367.4999999999799
 30
0.0
 40
9.3543312
 41
0.0
 71
     5
 72
     1
  1
%%c184
  7
EXCADDIM1
  0
POINT
  5
448
330
43F
100
AcDbEntity
  8
DEFPOINTS
 62
     0
100
AcDbPoint
 10
372.9999999999899
 20
154.9999999999899
 30
0.0
  0
POINT
  5
449
330
43F
100
AcDbEntity
  8
DEFPOINTS
 62
     0
100
AcDbPoint
 10
556.99999999999
 20
154.9999999999899
 30
0.0
  0
POINT
  5
44A
330
43F
100
AcDbEntity
  8
DEFPOINTS
 62
     0
100
AcDbPoint
 10
556.99999999999
 20
359.9999999999799
 30
0.0
  0
ENDBLK
  5
441
330
43F
100
AcDbEntity
  8
0
100
AcDbBlockEnd
  0
BLOCK
  5
44D
330
44C
100
AcDbEntity
  8
0
100
AcDbBlockBegin
  2
*D19
 70
     1
 10
0.0
 20
0.0
 30
0.0
  3
*D19
  1

  0
LINE
  5
44F
330
44C
100
AcDbEntity
  8
LAY-20
  6
CONTINUOUS
 62
     4
100
AcDbLine
 10
327.49999999999
 20
163.22438704795
 30
0.0
 11
327.49999999999
 21
385.49999999998
 31
0.0
  0
LINE
  5
450
330
44C
100
AcDbEntity
  8
LAY-20
  6
CONTINUOUS
 62
     4
100
AcDbLine
 10
602.49999999999
 20
163.22438704795
 30
0.0
 11
602.49999999999
 21
385.49999999998
 31
0.0
  0
LINE
  5
451
330
44C
100
AcDbEntity
  8
LAY-20
  6
CONTINUOUS
 62
     4
100
AcDbLine
 10
334.99999999999
 20
380.99999999998
 30
0.0
 11
594.99999999999
 21
380.99999999998
 31
0.0
  0
INSERT
  5
452
330
44C
100
AcDbEntity
  8
LAY-20
 62
     4
100
AcDbBlockReference
  2
EX_BNORM
 10
327.49999999999
 20
380.99999999998
 30
0.0
 41
7.5
 42
7.5
 43
7.5
 50
180.0
  0
INSERT
  5
453
330
44C
100
AcDbEntity
  8
LAY-20
 62
     4
100
AcDbBlockReference
  2
EX_BNORM
 10
602.49999999999
 20
380.99999999998
 30
0.0
 41
7.5
 42
7.5
 43
7.5
  0
MTEXT
  5
454
330
44C
100
AcDbEntity
  8
LAY-20
 62
     7
100
AcDbMText
 10
464.9999999999899
 20
388.49999999998
 30
0.0
 40
9.3543312
 41
0.0
 71
     5
 72
     1
  1
%%c275
  7
EXCADDIM1
  0
POINT
  5
455
330
44C
100
AcDbEntity
  8
DEFPOINTS
 62
     0
100
AcDbPoint
 10
327.49999999999
 20
158.72438704795
 30
0.0
  0
POINT
  5
456
330
44C
100
AcDbEntity
  8
DEFPOINTS
 62
     0
100
AcDbPoint
 10
602.49999999999
 20
158.72438704795
 30
0.0
  0
POINT
  5
457
330
44C
100
AcDbEntity
  8
DEFPOINTS
 62
     0
100
AcDbPoint
 10
602.49999999999
 20
380.99999999998
 30
0.0
  0
ENDBLK
  5
44E
330
44C
100
AcDbEntity
  8
0
100
AcDbBlockEnd
  0
BLOCK
  5
45A
330
459
100
AcDbEntity
  8
0
100
AcDbBlockBegin
  2
*D20
 70
     1
 10
0.0
 20
0.0
 30
0.0
  3
*D20
  1

  0
LINE
  5
45C
330
459
100
AcDbEntity
  8
LAY-20
  6
CONTINUOUS
 62
     4
100
AcDbLine
 10
469.4999999999899
 20
332.72438704795
 30
0.0
 11
689.49999999999
 21
332.72438704795
 31
0.0
  0
LINE
  5
45D
330
459
100
AcDbEntity
  8
LAY-20
  6
CONTINUOUS
 62
     4
100
AcDbLine
 10
684.99999999999
 20
325.22438704795
 30
0.0
 11
684.99999999999
 21
177.52688148041
 31
0.0
  0
INSERT
  5
45E
330
459
100
AcDbEntity
  8
LAY-20
 62
     4
100
AcDbBlockReference
  2
EX_BNORM
 10
684.99999999999
 20
332.72438704795
 30
0.0
 41
7.5
 42
7.5
 43
7.5
 50
90.0
  0
INSERT
  5
45F
330
459
100
AcDbEntity
  8
LAY-20
 62
     4
100
AcDbBlockReference
  2
EX_BNORM
 10
684.99999999999
 20
170.02688148041
 30
0.0
 41
7.5
 42
7.5
 43
7.5
 50
270.0
  0
MTEXT
  5
460
330
459
100
AcDbEntity
  8
LAY-20
 62
     7
100
AcDbMText
 10
677.49999999999
 20
251.37563426418
 30
0.0
 40
9.3543312
 41
0.0
 71
     5
 72
     1
  1
163
  7
EXCADDIM1
 11
0.0
 21
1.0
 31
0.0
  0
POINT
  5
461
330
459
100
AcDbEntity
  8
DEFPOINTS
 62
     0
100
AcDbPoint
 10
464.9999999999899
 20
332.72438704795
 30
0.0
  0
POINT
  5
462
330
459
100
AcDbEntity
  8
DEFPOINTS
 62
     0
100
AcDbPoint
 10
684.99999999999
 20
170.02688148041
 30
0.0
  0
POINT
  5
463
330
459
100
AcDbEntity
  8
DEFPOINTS
 62
     0
100
AcDbPoint
 10
684.99999999999
 20
170.02688148041
 30
0.0
  0
ENDBLK
  5
45B
330
459
100
AcDbEntity
  8
0
100
AcDbBlockEnd
  0
BLOCK
  5
466
330
465
100
AcDbEntity
  8
0
100
AcDbBlockBegin
  2
*D21
 70
     1
 10
0.0
 20
0.0
 30
0.0
  3
*D21
  1

  0
LINE
  5
468
330
465
100
AcDbEntity
  8
LAY-20
  6
CONTINUOUS
 62
     4
100
AcDbLine
 10
378.34712708836
 20
125.02688148041
 30
0.0
 11
240.49999999999
 21
125.02688148041
 31
0.0
  0
LINE
  5
469
330
465
100
AcDbEntity
  8
LAY-20
  6
CONTINUOUS
 62
     4
100
AcDbLine
 10
271.49999999999
 20
170.02688148041
 30
0.0
 11
240.49999999999
 21
170.02688148041
 31
0.0
  0
LINE
  5
46A
330
465
100
AcDbEntity
  8
LAY-20
  6
CONTINUOUS
 62
     4
100
AcDbLine
 10
244.99999999999
 20
132.52688148041
 30
0.0
 11
244.99999999999
 21
162.52688148041
 31
0.0
  0
INSERT
  5
46B
330
465
100
AcDbEntity
  8
LAY-20
 62
     4
100
AcDbBlockReference
  2
EX_BNORM
 10
244.99999999999
 20
125.02688148041
 30
0.0
 41
7.5
 42
7.5
 43
7.5
 50
270.0
  0
INSERT
  5
46C
330
465
100
AcDbEntity
  8
LAY-20
 62
     4
100
AcDbBlockReference
  2
EX_BNORM
 10
244.99999999999
 20
170.02688148041
 30
0.0
 41
7.5
 42
7.5
 43
7.5
 50
90.0
  0
MTEXT
  5
46D
330
465
100
AcDbEntity
  8
LAY-20
 62
     7
100
AcDbMText
 10
237.49999999999
 20
147.52688148041
 30
0.0
 40
9.3543312
 41
0.0
 71
     5
 72
     1
  1
45
  7
EXCADDIM1
 11
0.0
 21
1.0
 31
0.0
  0
POINT
  5
46E
330
465
100
AcDbEntity
  8
DEFPOINTS
 62
     0
100
AcDbPoint
 10
382.84712708836
 20
125.02688148041
 30
0.0
  0
POINT
  5
46F
330
465
100
AcDbEntity
  8
DEFPOINTS
 62
     0
100
AcDbPoint
 10
275.99999999999
 20
170.02688148041
 30
0.0
  0
POINT
  5
470
330
465
100
AcDbEntity
  8
DEFPOINTS
 62
     0
100
AcDbPoint
 10
244.99999999999
 20
170.02688148041
 30
0.0
  0
ENDBLK
  5
467
330
465
100
AcDbEntity
  8
0
100
AcDbBlockEnd
  0
ENDSEC
  0
SECTION
  2
ENTITIES
  0
LINE
  5
D4
330
1F
100
AcDbEntity
  8
LAY-10
  6
CONTINUOUS
 62
     7
100
AcDbLine
 10
382.4999999999932
 20
122.453288351601
 30
0.0
 11
385.073593128795
 21
125.0268814804029
 31
0.0
  0
LINE
  5
D5
330
1F
100
AcDbEntity
  8
LAY-10
  6
CONTINUOUS
 62
     7
100
AcDbLine
 10
382.4999999999932
 20
119.6248612268547
 30
0.0
 11
387.5999999999921
 21
124.7248612268539
 31
0.0
  0
LINE
  5
D6
330
1F
100
AcDbEntity
  8
LAY-10
  6
CONTINUOUS
 62
     7
100
AcDbLine
 10
382.4999999999932
 20
116.7964341021087
 30
0.0
 11
387.5999999999921
 21
121.8964341021077
 31
0.0
  0
LINE
  5
D7
330
1F
100
AcDbEntity
  8
LAY-10
  6
CONTINUOUS
 62
     7
100
AcDbLine
 10
382.4999999999932
 20
113.9680069773624
 30
0.0
 11
387.5999999999921
 21
119.0680069773614
 31
0.0
  0
LINE
  5
D8
330
1F
100
AcDbEntity
  8
LAY-10
  6
CONTINUOUS
 62
     7
100
AcDbLine
 10
382.4999999999932
 20
111.1395798526162
 30
0.0
 11
387.5999999999921
 21
116.2395798526152
 31
0.0
  0
LINE
  5
D9
330
1F
100
AcDbEntity
  8
LAY-10
  6
CONTINUOUS
 62
     7
100
AcDbLine
 10
382.4999999999932
 20
108.31115272787
 30
0.0
 11
387.5999999999921
 21
113.4111527278691
 31
0.0
  0
LINE
  5
DA
330
1F
100
AcDbEntity
  8
LAY-10
  6
CONTINUOUS
 62
     7
100
AcDbLine
 10
382.4999999999932
 20
105.4827256031238
 30
0.0
 11
387.5999999999921
 21
110.5827256031229
 31
0.0
  0
LINE
  5
DB
330
1F
100
AcDbEntity
  8
LAY-10
  6
CONTINUOUS
 62
     7
100
AcDbLine
 10
382.4999999999932
 20
102.6542984783777
 30
0.0
 11
387.5999999999921
 21
107.7542984783767
 31
0.0
  0
LINE
  5
DC
330
1F
100
AcDbEntity
  8
LAY-10
  6
CONTINUOUS
 62
     7
100
AcDbLine
 10
382.4999999999932
 20
99.82587135363148
 30
0.0
 11
387.5999999999921
 21
104.9258713536305
 31
0.0
  0
LINE
  5
DD
330
1F
100
AcDbEntity
  8
LAY-10
  6
CONTINUOUS
 62
     7
100
AcDbLine
 10
382.4999999999932
 20
96.99744422888529
 30
0.0
 11
387.5999999999921
 21
102.0974442288843
 31
0.0
  0
LINE
  5
DE
330
1F
100
AcDbEntity
  8
LAY-10
  6
CONTINUOUS
 62
     7
100
AcDbLine
 10
382.4999999999932
 20
94.16901710413907
 30
0.0
 11
387.5999999999921
 21
99.26901710413819
 31
0.0
  0
LINE
  5
DF
330
1F
100
AcDbEntity
  8
LAY-10
  6
CONTINUOUS
 62
     7
100
AcDbLine
 10
382.4999999999932
 20
91.34058997939286
 30
0.0
 11
387.5999999999921
 21
96.44058997939196
 31
0.0
  0
LINE
  5
E0
330
1F
100
AcDbEntity
  8
LAY-10
  6
CONTINUOUS
 62
     7
100
AcDbLine
 10
382.4999999999932
 20
88.51216285464676
 30
0.0
 11
387.5999999999921
 21
93.61216285464576
 31
0.0
  0
LINE
  5
E1
330
1F
100
AcDbEntity
  8
LAY-10
  6
CONTINUOUS
 62
     7
100
AcDbLine
 10
382.4999999999932
 20
85.68373572990055
 30
0.0
 11
387.5999999999921
 21
90.78373572989955
 31
0.0
  0
LINE
  5
E2
330
1F
100
AcDbEntity
  8
LAY-10
  6
CONTINUOUS
 62
     7
100
AcDbLine
 10
382.4999999999932
 20
82.85530860515433
 30
0.0
 11
387.5999999999921
 21
87.95530860515333
 31
0.0
  0
LINE
  5
E3
330
1F
100
AcDbEntity
  8
LAY-10
  6
CONTINUOUS
 62
     7
100
AcDbLine
 10
382.4999999999932
 20
80.02688148040812
 30
0.0
 11
387.5999999999921
 21
85.12688148040723
 31
0.0
  0
LINE
  5
E4
330
1F
100
AcDbEntity
  8
LAY-10
  6
CONTINUOUS
 62
     7
100
AcDbLine
 10
385.3284271247393
 20
80.02688148040812
 30
0.0
 11
387.5999999999921
 21
82.29845435566102
 31
0.0
  0
LINE
  5
E5
330
1F
100
AcDbEntity
  8
LAY-10
  6
CONTINUOUS
 62
     7
100
AcDbLine
 10
542.399999999996
 20
122.4532883516038
 30
0.0
 11
544.9735931287978
 21
125.0268814804057
 31
0.0
  0
LINE
  5
E6
330
1F
100
AcDbEntity
  8
LAY-10
  6
CONTINUOUS
 62
     7
100
AcDbLine
 10
542.399999999996
 20
119.6248612268576
 30
0.0
 11
547.49999999999
 21
124.7248612268515
 31
0.0
  0
LINE
  5
E7
330
1F
100
AcDbEntity
  8
LAY-10
  6
CONTINUOUS
 62
     7
100
AcDbLine
 10
542.399999999996
 20
116.7964341021114
 30
0.0
 11
547.49999999999
 21
121.8964341021053
 31
0.0
  0
LINE
  5
E8
330
1F
100
AcDbEntity
  8
LAY-10
  6
CONTINUOUS
 62
     7
100
AcDbLine
 10
542.399999999996
 20
113.9680069773652
 30
0.0
 11
547.49999999999
 21
119.0680069773591
 31
0.0
  0
LINE
  5
E9
330
1F
100
AcDbEntity
  8
LAY-10
  6
CONTINUOUS
 62
     7
100
AcDbLine
 10
542.399999999996
 20
111.1395798526191
 30
0.0
 11
547.49999999999
 21
116.239579852613
 31
0.0
  0
LINE
  5
EA
330
1F
100
AcDbEntity
  8
LAY-10
  6
CONTINUOUS
 62
     7
100
AcDbLine
 10
542.3999999999908
 20
108.3111527278677
 30
0.0
 11
547.49999999999
 21
113.4111527278667
 31
0.0
  0
LINE
  5
EB
330
1F
100
AcDbEntity
  8
LAY-10
  6
CONTINUOUS
 62
     7
100
AcDbLine
 10
542.3999999999908
 20
105.4827256031215
 30
0.0
 11
547.49999999999
 21
110.5827256031205
 31
0.0
  0
LINE
  5
EC
330
1F
100
AcDbEntity
  8
LAY-10
  6
CONTINUOUS
 62
     7
100
AcDbLine
 10
542.3999999999908
 20
102.6542984783753
 30
0.0
 11
547.49999999999
 21
107.7542984783743
 31
0.0
  0
LINE
  5
ED
330
1F
100
AcDbEntity
  8
LAY-10
  6
CONTINUOUS
 62
     7
100
AcDbLine
 10
542.399999999991
 20
99.8258713536291
 30
0.0
 11
547.49999999999
 21
104.9258713536281
 31
0.0
  0
LINE
  5
EE
330
1F
100
AcDbEntity
  8
LAY-10
  6
CONTINUOUS
 62
     7
100
AcDbLine
 10
542.399999999991
 20
96.99744422888301
 30
0.0
 11
547.49999999999
 21
102.097444228882
 31
0.0
  0
LINE
  5
EF
330
1F
100
AcDbEntity
  8
LAY-10
  6
CONTINUOUS
 62
     7
100
AcDbLine
 10
542.3999999999908
 20
94.1690171041368
 30
0.0
 11
547.49999999999
 21
99.2690171041358
 31
0.0
  0
LINE
  5
F0
330
1F
100
AcDbEntity
  8
LAY-10
  6
CONTINUOUS
 62
     7
100
AcDbLine
 10
542.3999999999908
 20
91.34058997939059
 30
0.0
 11
547.49999999999
 21
96.44058997938957
 31
0.0
  0
LINE
  5
F1
330
1F
100
AcDbEntity
  8
LAY-10
  6
CONTINUOUS
 62
     7
100
AcDbLine
 10
542.3999999999908
 20
88.51216285464437
 30
0.0
 11
547.49999999999
 21
93.61216285464337
 31
0.0
  0
LINE
  5
F2
330
1F
100
AcDbEntity
  8
LAY-10
  6
CONTINUOUS
 62
     7
100
AcDbLine
 10
542.399999999991
 20
85.68373572989816
 30
0.0
 11
547.49999999999
 21
90.78373572989716
 31
0.0
  0
LINE
  5
F3
330
1F
100
AcDbEntity
  8
LAY-10
  6
CONTINUOUS
 62
     7
100
AcDbLine
 10
542.399999999991
 20
82.85530860515206
 30
0.0
 11
547.49999999999
 21
87.95530860515106
 31
0.0
  0
LINE
  5
F4
330
1F
100
AcDbEntity
  8
LAY-10
  6
CONTINUOUS
 62
     7
100
AcDbLine
 10
542.3999999999908
 20
80.02688148040585
 30
0.0
 11
547.49999999999
 21
85.12688148040485
 31
0.0
  0
LINE
  5
F5
330
1F
100
AcDbEntity
  8
LAY-10
  6
CONTINUOUS
 62
     7
100
AcDbLine
 10
545.228427124737
 20
80.02688148040585
 30
0.0
 11
547.49999999999
 21
82.29845435565863
 31
0.0
  0
CIRCLE
  5
F6
330
1F
100
AcDbEntity
  8
LAY-10
  6
CONTINUOUS
 62
     7
100
AcDbCircle
 10
464.9999999999899
 20
630.0000000000101
 30
0.0
 40
189.0
  0
CIRCLE
  5
F7
330
1F
100
AcDbEntity
  8
LAY-10
  6
CONTINUOUS
 62
     7
100
AcDbCircle
 10
464.9999999999899
 20
630.0000000000101
 30
0.0
 40
190.0
  0
LINE
  5
F8
330
1F
100
AcDbEntity
  8
LAY-10
  6
CONTINUOUS
 62
     7
100
AcDbLine
 10
654.99999999999
 20
158.0268814804097
 30
0.0
 11
653.99999999999
 21
170.0268814804097
 31
0.0
  0
LINE
  5
F9
330
1F
100
AcDbEntity
  8
LAY-10
  6
CONTINUOUS
 62
     7
100
AcDbLine
 10
274.9999999999899
 20
158.0268814804097
 30
0.0
 11
275.9999999999899
 21
170.0268814804097
 31
0.0
  0
ARC
  5
FA
330
1F
100
AcDbEntity
  8
LAY-10
  6
CONTINUOUS
 62
     7
100
AcDbCircle
 10
283.6191331492543
 20
158.0268814804097
 30
0.0
 40
3.619133149264371
100
AcDbArc
 50
75.00000000000182
 51
180.0
  0
LINE
  5
FB
330
1F
100
AcDbEntity
  8
LAY-10
  6
CONTINUOUS
 62
     7
100
AcDbLine
 10
402.9999999999317
 20
137.026881480414
 30
0.0
 11
402.9999999999317
 21
131.0268814804207
 31
0.0
  0
LINE
  5
FC
330
1F
100
AcDbEntity
  8
LAY-10
  6
CONTINUOUS
 62
     7
100
AcDbLine
 10
394.9999999999317
 20
137.026881480414
 30
0.0
 11
394.9999999999317
 21
131.0268814804207
 31
0.0
  0
LINE
  5
FD
330
1F
100
AcDbEntity
  8
LAY-10
  6
CONTINUOUS
 62
     7
100
AcDbLine
 10
395.4999999999317
 20
137.8351932248102
 30
0.0
 11
395.5259488928858
 21
137.8282402398987
 31
0.0
  0
LINE
  5
FE
330
1F
100
AcDbEntity
  8
LAY-10
  6
CONTINUOUS
 62
     7
100
AcDbLine
 10
407.3711066485818
 20
137.026881480414
 30
0.0
 11
407.9999999999797
 21
125.0268814804092
 31
0.0
  0
LINE
  5
FF
330
1F
100
AcDbEntity
  8
LAY-10
  6
CONTINUOUS
 62
     7
100
AcDbLine
 10
530.2620388964158
 20
130.026881480411
 30
0.0
 11
530.0000000000011
 21
125.0268814804147
 31
0.0
  0
LINE
  5
100
330
1F
100
AcDbEntity
  8
LAY-10
  6
CONTINUOUS
 62
     7
100
AcDbLine
 10
538.4999999999877
 20
89.02688148041005
 30
0.0
 11
391.4999999999922
 21
89.02688148041005
 31
0.0
  0
LINE
  5
101
330
1F
100
AcDbEntity
  8
LAY-10
  6
CONTINUOUS
 62
     7
100
AcDbLine
 10
533.1682618378804
 20
90.02688148040255
 30
0.0
 11
396.8317381620958
 21
90.02688148040255
 31
0.0
  0
LINE
  5
102
330
1F
100
AcDbEntity
  8
LAY-10
  6
CONTINUOUS
 62
     7
100
AcDbLine
 10
396.8317381620958
 20
90.02688148040676
 30
0.0
 11
397.5504881620957
 21
113.0268814804147
 31
0.0
  0
LINE
  5
103
330
1F
100
AcDbEntity
  8
LAY-10
  6
CONTINUOUS
 62
     7
100
AcDbLine
 10
395.7999999999962
 20
89.02688148040676
 30
0.0
 11
396.8317381620963
 21
90.02688148040676
 31
0.0
  0
LINE
  5
104
330
1F
100
AcDbEntity
  8
LAY-10
  6
CONTINUOUS
 62
     7
100
AcDbLine
 10
533.1682618378804
 20
90.02688148040676
 30
0.0
 11
532.4495118378804
 21
113.0268814804147
 31
0.0
  0
LINE
  5
105
330
1F
100
AcDbEntity
  8
LAY-10
  6
CONTINUOUS
 62
     7
100
AcDbLine
 10
534.19999999998
 20
89.02688148040676
 30
0.0
 11
533.16826183788
 21
90.02688148040676
 31
0.0
  0
LINE
  5
106
330
1F
100
AcDbEntity
  8
LAY-10
  6
CONTINUOUS
 62
     7
100
AcDbLine
 10
394.9999999999876
 20
113.0268814804147
 30
0.0
 11
394.9999999999876
 21
125.0268814804147
 31
0.0
  0
LINE
  5
107
330
1F
100
AcDbEntity
  8
LAY-10
  6
CONTINUOUS
 62
     7
100
AcDbLine
 10
534.9999999999882
 20
113.0268814804147
 30
0.0
 11
394.9999999999876
 21
113.0268814804147
 31
0.0
  0
LINE
  5
108
330
1F
100
AcDbEntity
  8
LAY-10
  6
CONTINUOUS
 62
     7
100
AcDbLine
 10
534.9999999999882
 20
113.0268814804147
 30
0.0
 11
534.9999999999882
 21
125.0268814804147
 31
0.0
  0
LINE
  5
109
330
1F
100
AcDbEntity
  8
LAY-10
  6
CONTINUOUS
 62
     7
100
AcDbLine
 10
394.9999999999881
 20
125.0268814804147
 30
0.0
 11
534.9999999999882
 21
125.0268814804147
 31
0.0
  0
LINE
  5
10A
330
1F
100
AcDbEntity
  8
LAY-10
  6
CONTINUOUS
 62
     7
100
AcDbLine
 10
647.8524233607366
 20
158.0268814804097
 30
0.0
 11
654.99999999999
 21
158.0268814804097
 31
0.0
  0
LINE
  5
10B
330
1F
100
AcDbEntity
  8
LAY-10
  6
CONTINUOUS
 62
     7
100
AcDbLine
 10
321.2637612289265
 20
148.0416861226964
 30
0.0
 11
320.9999999999808
 21
145.0268814804083
 31
0.0
  0
ARC
  5
10C
330
1F
100
AcDbEntity
  8
LAY-10
  6
CONTINUOUS
 62
     7
100
AcDbCircle
 10
324.2523453232017
 20
147.7802188944534
 30
0.0
 40
3.0
100
AcDbArc
 50
74.99999999999866
 51
174.9999999999991
  0
LINE
  5
10D
330
1F
100
AcDbEntity
  8
LAY-10
  6
CONTINUOUS
 62
     7
100
AcDbLine
 10
284.555833735046
 20
161.5226956580632
 30
0.0
 11
306.0799018933857
 21
155.7553389772033
 31
0.0
  0
LINE
  5
10E
330
1F
100
AcDbEntity
  8
LAY-10
  6
CONTINUOUS
 62
     7
100
AcDbLine
 10
308.2920288523534
 20
153.1190287265791
 30
0.0
 11
308.9999999999758
 21
145.0268814804083
 31
0.0
  0
ARC
  5
10F
330
1F
100
AcDbEntity
  8
LAY-10
  6
CONTINUOUS
 62
     7
100
AcDbCircle
 10
305.3034447580782
 20
152.8575614983361
 30
0.0
 40
3.0
100
AcDbArc
 50
4.999999999999859
 51
74.99999999999866
  0
LINE
  5
110
330
1F
100
AcDbEntity
  8
LAY-10
  6
CONTINUOUS
 62
     7
100
AcDbLine
 10
297.6023898598677
 20
158.0268814804097
 30
0.0
 11
274.9999999999899
 21
158.0268814804097
 31
0.0
  0
LINE
  5
111
330
1F
100
AcDbEntity
  8
LAY-10
  6
CONTINUOUS
 62
     7
100
AcDbLine
 10
317.4999999999895
 20
152.5268814804056
 30
0.0
 11
312.4999999999895
 21
152.5268814804056
 31
0.0
  0
LINE
  5
112
330
1F
100
AcDbEntity
  8
LAY-10
  6
CONTINUOUS
 62
     7
100
AcDbLine
 10
317.9999999999895
 20
152.0268814804047
 30
0.0
 11
311.9999999999895
 21
152.0268814804047
 31
0.0
  0
LINE
  5
113
330
1F
100
AcDbEntity
  8
LAY-10
  6
CONTINUOUS
 62
     7
100
AcDbLine
 10
314.9999999999899
 20
155.9702571533801
 30
0.0
 11
317.4999999999904
 21
154.5268814804058
 31
0.0
  0
LINE
  5
114
330
1F
100
AcDbEntity
  8
LAY-10
  6
CONTINUOUS
 62
     7
100
AcDbLine
 10
314.9999999999895
 20
155.9702571533806
 30
0.0
 11
312.4999999999886
 21
154.5268814804058
 31
0.0
  0
LINE
  5
115
330
1F
100
AcDbEntity
  8
LAY-10
  6
CONTINUOUS
 62
     7
100
AcDbLine
 10
317.4999999999863
 20
154.5268814804047
 30
0.0
 11
312.4999999999872
 21
154.5268814804047
 31
0.0
  0
LINE
  5
116
330
1F
100
AcDbEntity
  8
LAY-10
  6
CONTINUOUS
 62
     7
100
AcDbLine
 10
317.4999999999863
 20
152.5268814804056
 30
0.0
 11
317.4999999999863
 21
154.5268814804047
 31
0.0
  0
LINE
  5
117
330
1F
100
AcDbEntity
  8
LAY-10
  6
CONTINUOUS
 62
     7
100
AcDbLine
 10
312.4999999999872
 20
152.5268814804056
 30
0.0
 11
312.4999999999872
 21
154.5268814804038
 31
0.0
  0
LINE
  5
118
330
1F
100
AcDbEntity
  8
LAY-10
  6
CONTINUOUS
 62
     7
100
AcDbLine
 10
317.4999999999863
 20
152.5268814804056
 30
0.0
 11
317.4999999999863
 21
151.0268814804083
 31
0.0
  0
LINE
  5
119
330
1F
100
AcDbEntity
  8
LAY-10
  6
CONTINUOUS
 62
     7
100
AcDbLine
 10
312.4999999999872
 20
152.5268814804056
 30
0.0
 11
312.4999999999872
 21
151.0268814804083
 31
0.0
  0
LINE
  5
11A
330
1F
100
AcDbEntity
  8
LAY-10
  6
CONTINUOUS
 62
     7
100
AcDbLine
 10
300.4999999999904
 20
123.0268814804243
 30
0.0
 11
300.4999999999904
 21
128.0268814804242
 31
0.0
  0
LINE
  5
11B
330
1F
100
AcDbEntity
  8
LAY-10
  6
CONTINUOUS
 62
     7
100
AcDbLine
 10
310.4999999999908
 20
128.0268814804242
 30
0.0
 11
300.4999999999904
 21
128.0268814804242
 31
0.0
  0
ARC
  5
11C
330
1F
100
AcDbEntity
  8
LAY-10
  6
CONTINUOUS
 62
     7
100
AcDbCircle
 10
310.4999999999908
 20
130.0268814804243
 30
0.0
 40
2.0
100
AcDbArc
 50
270.0
 51
0.0
  0
LINE
  5
11D
330
1F
100
AcDbEntity
  8
LAY-10
  6
CONTINUOUS
 62
     7
100
AcDbLine
 10
310.4999999999908
 20
123.0268814804243
 30
0.0
 11
300.4999999999904
 21
123.0268814804243
 31
0.0
  0
ARC
  5
11E
330
1F
100
AcDbEntity
  8
LAY-10
  6
CONTINUOUS
 62
     7
100
AcDbCircle
 10
310.4999999999908
 20
130.0268814804243
 30
0.0
 40
7.000000000000004
100
AcDbArc
 50
270.0
 51
0.0
  0
LINE
  5
11F
330
1F
100
AcDbEntity
  8
LAY-10
  6
CONTINUOUS
 62
     7
100
AcDbLine
 10
312.4999999999899
 20
130.0268814804198
 30
0.0
 11
312.4999999999899
 21
145.0268814804195
 31
0.0
  0
LINE
  5
120
330
1F
100
AcDbEntity
  8
LAY-10
  6
CONTINUOUS
 62
     7
100
AcDbLine
 10
317.4999999999899
 20
130.0268814804198
 30
0.0
 11
317.4999999999899
 21
145.0268814804195
 31
0.0
  0
LINE
  5
121
330
1F
100
AcDbEntity
  8
LAY-10
  6
CONTINUOUS
 62
     7
100
AcDbLine
 10
317.4999999999868
 20
151.0268814804244
 30
0.0
 11
312.4999999999877
 21
151.0268814804244
 31
0.0
  0
LINE
  5
122
330
1F
100
AcDbEntity
  8
LAY-10
  6
CONTINUOUS
 62
     7
100
AcDbLine
 10
317.9999999999881
 20
150.5268814804259
 30
0.0
 11
311.999999999989
 21
150.5268814804259
 31
0.0
  0
LINE
  5
123
330
1F
100
AcDbEntity
  8
LAY-10
  6
CONTINUOUS
 62
     7
100
AcDbLine
 10
311.9999999999899
 20
150.5268814804298
 30
0.0
 11
312.4999999999899
 21
151.0268814804198
 31
0.0
  0
LINE
  5
124
330
1F
100
AcDbEntity
  8
LAY-10
  6
CONTINUOUS
 62
     7
100
AcDbLine
 10
317.4999999999899
 20
151.0268814804198
 30
0.0
 11
317.9999999999899
 21
150.5268814804298
 31
0.0
  0
LINE
  5
125
330
1F
100
AcDbEntity
  8
LAY-10
  6
CONTINUOUS
 62
     7
100
AcDbLine
 10
317.9999999999899
 20
150.5268814804298
 30
0.0
 11
317.9999999999899
 21
145.0268814804198
 31
0.0
  0
LINE
  5
126
330
1F
100
AcDbEntity
  8
LAY-10
  6
CONTINUOUS
 62
     7
100
AcDbLine
 10
311.9999999999899
 20
150.5268814804298
 30
0.0
 11
311.9999999999899
 21
145.0268814804198
 31
0.0
  0
LINE
  5
127
330
1F
100
AcDbEntity
  8
LAY-10
  6
CONTINUOUS
 62
     7
100
AcDbLine
 10
395.4999999999053
 20
138.0069529849004
 30
0.0
 11
395.5259488928594
 21
137.9999999999888
 31
0.0
  0
LINE
  5
128
330
1F
100
AcDbEntity
  8
LAY-10
  6
CONTINUOUS
 62
     7
100
AcDbLine
 10
398.9999999999312
 20
126.0047967787809
 30
0.0
 11
395.4999999999344
 21
128.0255227209427
 31
0.0
  0
LINE
  5
129
330
1F
100
AcDbEntity
  8
LAY-10
  6
CONTINUOUS
 62
     7
100
AcDbLine
 10
402.4999999999294
 20
128.0255227209433
 30
0.0
 11
398.9999999999312
 21
126.0047967787806
 31
0.0
  0
LINE
  5
12A
330
1F
100
AcDbEntity
  8
LAY-10
  6
CONTINUOUS
 62
     7
100
AcDbLine
 10
402.4999999999294
 20
128.0255227209427
 30
0.0
 11
395.4999999999339
 21
128.0255227209427
 31
0.0
  0
LINE
  5
12B
330
1F
100
AcDbEntity
  8
LAY-10
  6
CONTINUOUS
 62
     7
100
AcDbLine
 10
402.4999999999294
 20
130.5255227209465
 30
0.0
 11
402.4999999999294
 21
128.0255227209427
 31
0.0
  0
LINE
  5
12C
330
1F
100
AcDbEntity
  8
LAY-10
  6
CONTINUOUS
 62
     7
100
AcDbLine
 10
395.4999999999344
 20
130.5255227209465
 30
0.0
 11
395.4999999999344
 21
128.0255227209427
 31
0.0
  0
LINE
  5
12D
330
1F
100
AcDbEntity
  8
LAY-10
  6
CONTINUOUS
 62
     7
100
AcDbLine
 10
402.4999999999059
 20
130.5268814804195
 30
0.0
 11
402.9999999999053
 21
131.0268814804209
 31
0.0
  0
LINE
  5
12E
330
1F
100
AcDbEntity
  8
LAY-10
  6
CONTINUOUS
 62
     7
100
AcDbLine
 10
395.4999999999048
 20
130.5268814804195
 30
0.0
 11
394.9999999999052
 21
131.0268814804209
 31
0.0
  0
LINE
  5
12F
330
1F
100
AcDbEntity
  8
LAY-10
  6
CONTINUOUS
 62
     7
100
AcDbLine
 10
402.9999999999053
 20
131.0268814804209
 30
0.0
 11
394.9999999999052
 21
131.0268814804209
 31
0.0
  0
LINE
  5
130
330
1F
100
AcDbEntity
  8
LAY-10
  6
CONTINUOUS
 62
     7
100
AcDbLine
 10
402.4999999999059
 20
130.5268814804195
 30
0.0
 11
395.4999999999048
 21
130.5268814804195
 31
0.0
  0
LINE
  5
131
330
1F
100
AcDbEntity
  8
LAY-10
  6
CONTINUOUS
 62
     7
100
AcDbLine
 10
402.4999999999059
 20
137.026881480414
 30
0.0
 11
407.3711066485818
 21
137.026881480414
 31
0.0
  0
LINE
  5
132
330
1F
100
AcDbEntity
  8
LAY-10
  6
CONTINUOUS
 62
     7
100
AcDbLine
 10
647.8524233607366
 20
158.0268814804097
 30
0.0
 11
557.5612219157128
 21
133.8334269695786
 31
0.0
  0
ARC
  5
133
330
1F
100
AcDbEntity
  8
LAY-10
  6
CONTINUOUS
 62
     7
100
AcDbCircle
 10
382.1120799096055
 20
140.558959181027
 30
0.0
 40
1.0
100
AcDbArc
 50
8.992728103804504
 51
74.99999999999885
  0
LINE
  5
134
330
1F
100
AcDbEntity
  8
LAY-10
  6
CONTINUOUS
 62
     7
100
AcDbLine
 10
383.8664822541995
 20
135.8705723725848
 30
0.0
 11
383.0997880966783
 21
140.7152682888546
 31
0.0
  0
ARC
  5
135
330
1F
100
AcDbEntity
  8
LAY-10
  6
CONTINUOUS
 62
     7
100
AcDbCircle
 10
384.8541904412717
 20
136.0268814804137
 30
0.0
 40
1.0
100
AcDbArc
 50
188.9927281038043
 51
270.0
  0
LINE
  5
136
330
1F
100
AcDbEntity
  8
LAY-10
  6
CONTINUOUS
 62
     7
100
AcDbLine
 10
384.8541904412717
 20
135.0268814804137
 30
0.0
 11
387.1900016105538
 21
135.0268814804137
 31
0.0
  0
ARC
  5
137
330
1F
100
AcDbEntity
  8
LAY-10
  6
CONTINUOUS
 62
     7
100
AcDbCircle
 10
387.1900016105538
 20
136.0268814804137
 30
0.0
 40
1.0
100
AcDbArc
 50
270.0
 51
348.0148336626862
  0
ARC
  5
138
330
1F
100
AcDbEntity
  8
LAY-10
  6
CONTINUOUS
 62
     7
100
AcDbCircle
 10
389.7598775917314
 20
138.5014077190174
 30
0.0
 40
1.0
100
AcDbArc
 50
74.99999999999885
 51
168.0148336626861
  0
LINE
  5
139
330
1F
100
AcDbEntity
  8
LAY-10
  6
CONTINUOUS
 62
     7
100
AcDbLine
 10
388.1682030060643
 20
135.8192230353139
 30
0.0
 11
388.7816761962225
 21
138.7090661641243
 31
0.0
  0
ARC
  5
13A
330
1F
100
AcDbEntity
  8
LAY-10
  6
CONTINUOUS
 62
     7
100
AcDbCircle
 10
390.6258183368035
 20
138.2693795956822
 30
0.0
 40
1.0
100
AcDbArc
 50
9.99999999999943
 51
74.99999999999885
  0
LINE
  5
13B
330
1F
100
AcDbEntity
  8
LAY-10
  6
CONTINUOUS
 62
     7
100
AcDbLine
 10
391.6106260898164
 20
138.4430277733442
 30
0.0
 11
391.7146227680576
 21
137.8532333027344
 31
0.0
  0
ARC
  5
13C
330
1F
100
AcDbEntity
  8
LAY-10
  6
CONTINUOUS
 62
     7
100
AcDbCircle
 10
392.699430521069
 20
138.0268814804048
 30
0.0
 40
1.0
100
AcDbArc
 50
189.9999999999938
 51
270.0
  0
ARC
  5
13D
330
1F
100
AcDbEntity
  8
LAY-10
  6
CONTINUOUS
 62
     7
100
AcDbCircle
 10
536.6781992623473
 20
135.0268814804048
 30
0.0
 40
2.0
100
AcDbArc
 50
90.00000000000001
 51
170.0000000000014
  0
LINE
  5
13E
330
1F
100
AcDbEntity
  8
LAY-10
  6
CONTINUOUS
 62
     7
100
AcDbLine
 10
534.2028355005395
 20
132.5059369474102
 30
0.0
 11
534.7085837563229
 21
135.3741778357386
 31
0.0
  0
ARC
  5
13F
330
1F
100
AcDbEntity
  8
LAY-10
  6
CONTINUOUS
 62
     7
100
AcDbCircle
 10
531.2043304963429
 20
133.026881480411
 30
0.0
 40
3.0
100
AcDbArc
 50
270.0
 51
350.0000000000014
  0
LINE
  5
140
330
1F
100
AcDbEntity
  8
LAY-10
  6
CONTINUOUS
 62
     7
100
AcDbLine
 10
536.6781992623473
 20
137.0268814804048
 30
0.0
 11
537.3005694789108
 21
137.0268814804048
 31
0.0
  0
ARC
  5
141
330
1F
100
AcDbEntity
  8
LAY-10
  6
CONTINUOUS
 62
     7
100
AcDbCircle
 10
537.3005694789108
 20
138.0268814804048
 30
0.0
 40
1.0
100
AcDbArc
 50
270.0
 51
350.0000000000046
  0
LINE
  5
142
330
1F
100
AcDbEntity
  8
LAY-10
  6
CONTINUOUS
 62
     7
100
AcDbLine
 10
538.3893739101643
 20
138.4430277733491
 30
0.0
 11
538.2853772319229
 21
137.8532333027379
 31
0.0
  0
ARC
  5
143
330
1F
100
AcDbEntity
  8
LAY-10
  6
CONTINUOUS
 62
     7
100
AcDbCircle
 10
539.3741816631764
 20
138.2693795956822
 30
0.0
 40
1.0
100
AcDbArc
 50
105.0000000000012
 51
169.9999999999998
  0
ARC
  5
144
330
1F
100
AcDbEntity
  8
LAY-10
  6
CONTINUOUS
 62
     7
100
AcDbCircle
 10
540.2401224082485
 20
138.5014077190174
 30
0.0
 40
1.0
100
AcDbArc
 50
11.98516633731362
 51
105.0000000000012
  0
LINE
  5
145
330
1F
100
AcDbEntity
  8
LAY-10
  6
CONTINUOUS
 62
     7
100
AcDbLine
 10
541.8317969939153
 20
135.8192230353139
 30
0.0
 11
541.2183238037574
 21
138.7090661641243
 31
0.0
  0
ARC
  5
146
330
1F
100
AcDbEntity
  8
LAY-10
  6
CONTINUOUS
 62
     7
100
AcDbCircle
 10
542.8099983894258
 20
136.0268814804137
 30
0.0
 40
1.0
100
AcDbArc
 50
191.9851663373143
 51
270.0
  0
LINE
  5
147
330
1F
100
AcDbEntity
  8
LAY-10
  6
CONTINUOUS
 62
     7
100
AcDbLine
 10
545.1458095587082
 20
135.0268814804137
 30
0.0
 11
542.8099983894258
 21
135.0268814804137
 31
0.0
  0
ARC
  5
148
330
1F
100
AcDbEntity
  8
LAY-10
  6
CONTINUOUS
 62
     7
100
AcDbCircle
 10
545.1458095587082
 20
136.0268814804137
 30
0.0
 40
1.0
100
AcDbArc
 50
270.0
 51
351.0072718961957
  0
LINE
  5
149
330
1F
100
AcDbEntity
  8
LAY-10
  6
CONTINUOUS
 62
     7
100
AcDbLine
 10
546.1335177457804
 20
135.8705723725848
 30
0.0
 11
546.9002119033016
 21
140.7152682888546
 31
0.0
  0
ARC
  5
14A
330
1F
100
AcDbEntity
  8
LAY-10
  6
CONTINUOUS
 62
     7
100
AcDbCircle
 10
547.8879200903743
 20
140.558959181027
 30
0.0
 40
1.0
100
AcDbArc
 50
105.0000000000012
 51
171.0072718961958
  0
LINE
  5
14B
330
1F
100
AcDbEntity
  8
LAY-10
  6
CONTINUOUS
 62
     7
100
AcDbLine
 10
531.20433049639
 20
130.026881480411
 30
0.0
 11
407.7379611035638
 21
130.026881480411
 31
0.0
  0
LINE
  5
14C
330
1F
100
AcDbEntity
  8
LAY-10
  6
CONTINUOUS
 62
     7
100
AcDbLine
 10
392.69943052109
 20
137.026881480414
 30
0.0
 11
395.4999999999317
 21
137.026881480414
 31
0.0
  0
LINE
  5
14D
330
1F
100
AcDbEntity
  8
LAY-10
  6
CONTINUOUS
 62
     7
100
AcDbLine
 10
325.0288024585092
 20
150.6779963733205
 30
0.0
 11
372.0578595098092
 21
138.076598515627
 31
0.0
  0
ARC
  5
14E
330
1F
100
AcDbEntity
  8
LAY-10
  6
CONTINUOUS
 62
     7
100
AcDbCircle
 10
558.3017839080915
 20
130.9260314161491
 30
0.0
 40
3.0
100
AcDbArc
 50
105.0000000000009
 51
173.8395138713131
  0
LINE
  5
14F
330
1F
100
AcDbEntity
  8
LAY-10
  6
CONTINUOUS
 62
     7
100
AcDbLine
 10
541.4459864653832
 20
125.0268814804049
 30
0.0
 11
547.1528729115992
 21
125.0268814804049
 31
0.0
  0
ARC
  5
150
330
1F
100
AcDbEntity
  8
LAY-10
  6
CONTINUOUS
 62
     7
100
AcDbCircle
 10
547.1528729115992
 20
124.0268814804049
 30
0.0
 40
1.0
100
AcDbArc
 50
9.462322208118275
 51
90.00000000000001
  0
LINE
  5
151
330
1F
100
AcDbEntity
  8
LAY-10
  6
CONTINUOUS
 62
     7
100
AcDbLine
 10
548.139266835431
 20
124.1912804677119
 30
0.0
 11
548.8607331645405
 21
119.8624824930981
 31
0.0
  0
ARC
  5
152
330
1F
100
AcDbEntity
  8
LAY-10
  6
CONTINUOUS
 62
     7
100
AcDbCircle
 10
549.8471270883724
 20
120.0268814804049
 30
0.0
 40
1.0
100
AcDbArc
 50
189.4623222081183
 51
270.0
  0
ARC
  5
153
330
1F
100
AcDbEntity
  8
LAY-10
  6
CONTINUOUS
 62
     7
100
AcDbCircle
 10
553.1021286975661
 20
120.0268814804049
 30
0.0
 40
1.0
100
AcDbArc
 50
270.0
 51
353.8395138713126
  0
ARC
  5
154
330
1F
100
AcDbEntity
  8
LAY-10
  6
CONTINUOUS
 62
     7
100
AcDbCircle
 10
541.4459864653832
 20
124.0268814804049
 30
0.0
 40
1.0
100
AcDbArc
 50
90.00000000000001
 51
176.8201698801385
  0
LINE
  5
155
330
1F
100
AcDbEntity
  8
LAY-10
  6
CONTINUOUS
 62
     7
100
AcDbLine
 10
540.4475261121777
 20
124.0823515000274
 30
0.0
 11
538.499999999978
 21
89.02688148040926
 31
0.0
  0
ARC
  5
156
330
1F
100
AcDbEntity
  8
LAY-10
  6
CONTINUOUS
 62
     7
100
AcDbCircle
 10
371.2379251770795
 20
135.1904707166904
 30
0.0
 40
3.0
100
AcDbArc
 50
6.160486128686872
 51
74.99999999999885
  0
LINE
  5
157
330
1F
100
AcDbEntity
  8
LAY-10
  6
CONTINUOUS
 62
     7
100
AcDbLine
 10
374.2206008040772
 20
135.5124118667696
 30
0.0
 11
375.9036460933947
 21
119.9195677637112
 31
0.0
  0
ARC
  5
158
330
1F
100
AcDbEntity
  8
LAY-10
  6
CONTINUOUS
 62
     7
100
AcDbCircle
 10
376.8978713023938
 20
120.0268814804051
 30
0.0
 40
1.0
100
AcDbArc
 50
186.1604861286875
 51
270.0
  0
LINE
  5
159
330
1F
100
AcDbEntity
  8
LAY-10
  6
CONTINUOUS
 62
     7
100
AcDbLine
 10
381.8607331645288
 20
124.1912804677119
 30
0.0
 11
381.1392668354193
 21
119.8624824930981
 31
0.0
  0
ARC
  5
15A
330
1F
100
AcDbEntity
  8
LAY-10
  6
CONTINUOUS
 62
     7
100
AcDbCircle
 10
380.1528729115875
 20
120.0268814804051
 30
0.0
 40
1.0
100
AcDbArc
 50
270.0
 51
350.5376777918818
  0
ARC
  5
15B
330
1F
100
AcDbEntity
  8
LAY-10
  6
CONTINUOUS
 62
     7
100
AcDbCircle
 10
382.8471270883607
 20
124.026881480405
 30
0.0
 40
1.0
100
AcDbArc
 50
90.00000000000001
 51
170.5376777918818
  0
LINE
  5
15C
330
1F
100
AcDbEntity
  8
LAY-10
  6
CONTINUOUS
 62
     7
100
AcDbLine
 10
388.5540135345767
 20
125.0268814804051
 30
0.0
 11
382.8471270883607
 21
125.0268814804051
 31
0.0
  0
ARC
  5
15D
330
1F
100
AcDbEntity
  8
LAY-10
  6
CONTINUOUS
 62
     7
100
AcDbCircle
 10
388.5540135345767
 20
124.026881480405
 30
0.0
 40
1.0
100
AcDbArc
 50
3.179830119861551
 51
90.00000000000001
  0
LINE
  5
15E
330
1F
100
AcDbEntity
  8
LAY-10
  6
CONTINUOUS
 62
     7
100
AcDbLine
 10
389.5524738877822
 20
124.0823515000275
 30
0.0
 11
391.4999999999819
 21
89.02688148040937
 31
0.0
  0
LINE
  5
15F
330
1F
100
AcDbEntity
  8
LAY-10
  6
CONTINUOUS
 62
     7
100
AcDbLine
 10
555.319108281094
 20
131.2479725662294
 30
0.0
 11
554.0963539065651
 21
119.9195677637111
 31
0.0
  0
LINE
  5
160
330
1F
100
AcDbEntity
  8
LAY-10
  6
CONTINUOUS
 62
     7
100
AcDbLine
 10
547.4999999999918
 20
119.0268814804049
 30
0.0
 11
553.1021286975661
 21
119.0268814804049
 31
0.0
  0
LINE
  5
161
330
1F
100
AcDbEntity
  8
LAY-10
  6
CONTINUOUS
 62
     7
100
AcDbLine
 10
382.4999999999917
 20
119.0268814804051
 30
0.0
 11
376.8978713023938
 21
119.0268814804051
 31
0.0
  0
LINE
  5
162
330
1F
100
AcDbEntity
  8
LAY-10
  6
CONTINUOUS
 62
     7
100
AcDbLine
 10
308.9999999999758
 20
145.0268814804097
 30
0.0
 11
320.9999999999799
 21
145.0268814804097
 31
0.0
  0
LINE
  5
163
330
1F
100
AcDbEntity
  8
LAY-10
  6
CONTINUOUS
 62
     7
100
AcDbLine
 10
547.4999999999918
 20
80.02688148040482
 30
0.0
 11
382.4999999999899
 21
80.02688148040482
 31
0.0
  0
LINE
  5
164
330
1F
100
AcDbEntity
  8
LAY-10
  6
CONTINUOUS
 62
     7
100
AcDbLine
 10
387.5999999999916
 20
125.0268814804113
 30
0.0
 11
387.5999999999916
 21
80.02688148040482
 31
0.0
  0
LINE
  5
165
330
1F
100
AcDbEntity
  8
LAY-10
  6
CONTINUOUS
 62
     7
100
AcDbLine
 10
382.4999999999917
 20
125.0268814804113
 30
0.0
 11
382.4999999999917
 21
80.02688148040482
 31
0.0
  0
LINE
  5
166
330
1F
100
AcDbEntity
  8
LAY-10
  6
CONTINUOUS
 62
     7
100
AcDbLine
 10
547.4999999999918
 20
124.9646995781745
 30
0.0
 11
547.4999999999918
 21
80.02688148040482
 31
0.0
  0
LINE
  5
167
330
1F
100
AcDbEntity
  8
LAY-10
  6
CONTINUOUS
 62
     7
100
AcDbLine
 10
542.3999999999919
 20
125.0268814804098
 30
0.0
 11
542.3999999999919
 21
80.02688148040482
 31
0.0
  0
CIRCLE
  5
168
330
1F
100
AcDbEntity
  8
LAY-10
  6
CONTINUOUS
 62
     7
100
AcDbCircle
 10
464.9999999999899
 20
630.00000000001
 30
0.0
 40
127.5
  0
CIRCLE
  5
169
330
1F
100
AcDbEntity
  8
LAY-10
  6
CONTINUOUS
 62
     7
100
AcDbCircle
 10
464.9999999999899
 20
630.00000000001
 30
0.0
 40
137.5
  0
ARC
  5
16A
330
1F
100
AcDbEntity
  8
LAY-10
  6
CONTINUOUS
 62
     7
100
AcDbCircle
 10
456.9999999999938
 20
538.0156569260363
 30
0.0
 40
2.0
100
AcDbArc
 50
265.0294175952227
 51
0.0
  0
ARC
  5
16B
330
1F
100
AcDbEntity
  8
LAY-10
  6
CONTINUOUS
 62
     7
100
AcDbCircle
 10
472.9999999999886
 20
538.0156569260363
 30
0.0
 40
2.0
100
AcDbArc
 50
180.0
 51
274.9705824047774
  0
ARC
  5
16C
330
1F
100
AcDbEntity
  8
LAY-10
  6
CONTINUOUS
 62
     7
100
AcDbCircle
 10
464.9999999999899
 20
630.00000000001
 30
0.0
 40
94.33157298968999
100
AcDbArc
 50
265.0294175952232
 51
274.9705824047785
  0
ARC
  5
16D
330
1F
100
AcDbEntity
  8
LAY-10
  6
CONTINUOUS
 62
     7
100
AcDbCircle
 10
557.1364171799028
 20
636.0000000000078
 30
0.0
 40
2.0
100
AcDbArc
 50
270.0
 51
3.725887866205389
  0
ARC
  5
16E
330
1F
100
AcDbEntity
  8
LAY-10
  6
CONTINUOUS
 62
     7
100
AcDbCircle
 10
557.1364171799028
 20
624.0000000000126
 30
0.0
 40
2.0
100
AcDbArc
 50
356.2741121337947
 51
90.00000000000001
  0
ARC
  5
16F
330
1F
100
AcDbEntity
  8
LAY-10
  6
CONTINUOUS
 62
     7
100
AcDbCircle
 10
464.9999999999924
 20
630.00000000001
 30
0.0
 40
94.33157298968999
100
AcDbArc
 50
356.2741121337955
 51
3.725887866204701
  0
ARC
  5
170
330
1F
100
AcDbEntity
  8
LAY-10
  6
CONTINUOUS
 62
     7
100
AcDbCircle
 10
497.8051727885858
 20
539.7790454588927
 30
0.0
 40
1.0
100
AcDbArc
 50
109.9817339797976
 51
199.3848921492924
  0
ARC
  5
171
330
1F
100
AcDbEntity
  8
LAY-10
  6
CONTINUOUS
 62
     7
100
AcDbCircle
 10
498.469032890704
 20
537.8923247641195
 30
0.0
 40
1.0
100
AcDbArc
 50
199.3848921492929
 51
289.9695531070845
  0
ARC
  5
172
330
1F
100
AcDbEntity
  8
LAY-10
  6
CONTINUOUS
 62
     7
100
AcDbCircle
 10
496.5316789262195
 20
540.3855300518306
 30
0.0
 40
1.0
100
AcDbArc
 50
109.3848921492929
 51
199.3848921492924
  0
ARC
  5
173
330
1F
100
AcDbEntity
  8
LAY-10
  6
CONTINUOUS
 62
     7
100
AcDbCircle
 10
497.8593285652186
 20
536.6122892119073
 30
0.0
 40
1.0
100
AcDbArc
 50
199.3848921492909
 51
289.3848921492929
  0
ARC
  5
174
330
1F
100
AcDbEntity
  8
LAY-10
  6
CONTINUOUS
 62
     7
100
AcDbCircle
 10
526.7310521919826
 20
556.4794097189907
 30
0.0
 40
1.0
100
AcDbArc
 50
40.6151078507088
 51
130.0182660202047
  0
ARC
  5
175
330
1F
100
AcDbEntity
  8
LAY-10
  6
CONTINUOUS
 62
     7
100
AcDbCircle
 10
528.0330701924429
 20
554.9611296586107
 30
0.0
 40
1.0
100
AcDbArc
 50
310.0304468929174
 51
40.6151078507088
  0
ARC
  5
176
330
1F
100
AcDbEntity
  8
LAY-10
  6
CONTINUOUS
 62
     7
100
AcDbCircle
 10
526.8425680586774
 20
557.8855300518323
 30
0.0
 40
1.0
100
AcDbArc
 50
40.6151078507088
 51
130.6151078507064
  0
LINE
  5
177
330
1F
100
AcDbEntity
  8
LAY-10
  6
CONTINUOUS
 62
     7
100
AcDbLine
 10
530.2055653448135
 20
555.50010571779
 30
0.0
 11
527.6016677423424
 21
558.5365044524501
 31
0.0
  0
ARC
  5
178
330
1F
100
AcDbEntity
  8
LAY-10
  6
CONTINUOUS
 62
     7
100
AcDbCircle
 10
529.4464656611485
 20
554.8491313171722
 30
0.0
 40
1.0
100
AcDbArc
 50
310.6151078507088
 51
40.6151078507076
  0
ARC
  5
179
330
1F
100
AcDbEntity
  8
LAY-10
  6
CONTINUOUS
 62
     7
100
AcDbCircle
 10
464.9999999999899
 20
630.00000000001
 30
0.0
 40
94.99999999999997
100
AcDbArc
 50
289.9817339797987
 51
310.0182660202027
  0
ARC
  5
17A
330
1F
100
AcDbEntity
  8
LAY-10
  6
CONTINUOUS
 62
     7
100
AcDbCircle
 10
464.9999999999899
 20
630.00000000001
 30
0.0
 40
93.99999999999997
100
AcDbArc
 50
289.3848921492918
 51
310.6151078507108
  0
ARC
  5
17B
330
1F
100
AcDbEntity
  8
LAY-10
  6
CONTINUOUS
 62
     7
100
AcDbCircle
 10
464.9999999999899
 20
630.00000000001
 30
0.0
 40
98.99999999999996
100
AcDbArc
 50
289.9695531070853
 51
310.0304468929126
  0
ARC
  5
17C
330
1F
100
AcDbEntity
  8
LAY-10
  6
CONTINUOUS
 62
     7
100
AcDbCircle
 10
464.9999999999899
 20
630.00000000001
 30
0.0
 40
99.99999999999997
100
AcDbArc
 50
289.3848921492918
 51
310.6151078507123
  0
ARC
  5
17D
330
1F
100
AcDbEntity
  8
LAY-10
  6
CONTINUOUS
 62
     7
100
AcDbCircle
 10
448.2996357398931
 20
535.4637750194236
 30
0.0
 40
1.0
100
AcDbArc
 50
79.9817339797976
 51
169.3848921492924
  0
LINE
  5
17E
330
1F
100
AcDbEntity
  8
LAY-10
  6
CONTINUOUS
 62
     7
100
AcDbLine
 10
446.9483082951323
 20
533.6821074431607
 30
0.0
 11
447.3167489295257
 21
535.6479855457393
 31
0.0
  0
ARC
  5
17F
330
1F
100
AcDbEntity
  8
LAY-10
  6
CONTINUOUS
 62
     7
100
AcDbCircle
 10
447.9311951054998
 20
533.497896916845
 30
0.0
 40
1.0
100
AcDbArc
 50
169.3848921492929
 51
259.9695531070844
  0
ARC
  5
180
330
1F
100
AcDbEntity
  8
LAY-10
  6
CONTINUOUS
 62
     7
100
AcDbCircle
 10
447.4999999999893
 20
536.6257530150947
 30
0.0
 40
1.0
100
AcDbArc
 50
79.38489214929285
 51
169.3848921492924
  0
LINE
  5
181
330
1F
100
AcDbEntity
  8
LAY-10
  6
CONTINUOUS
 62
     7
100
AcDbLine
 10
445.7802710843587
 20
532.8784162999405
 30
0.0
 11
446.5171131896219
 21
536.8099635414105
 31
0.0
  0
ARC
  5
182
330
1F
100
AcDbEntity
  8
LAY-10
  6
CONTINUOUS
 62
     7
100
AcDbCircle
 10
446.7631578947261
 20
532.6942057736246
 30
0.0
 40
1.0
100
AcDbArc
 50
169.3848921492909
 51
259.3848921492928
  0
ARC
  5
183
330
1F
100
AcDbEntity
  8
LAY-10
  6
CONTINUOUS
 62
     7
100
AcDbCircle
 10
481.7003642600893
 20
535.4637750194236
 30
0.0
 40
1.0
100
AcDbArc
 50
10.61510785070919
 51
100.0182660202041
  0
LINE
  5
184
330
1F
100
AcDbEntity
  8
LAY-10
  6
CONTINUOUS
 62
     7
100
AcDbLine
 10
483.05169170485
 20
533.6821074431607
 30
0.0
 11
482.6832510704567
 21
535.6479855457393
 31
0.0
  0
ARC
  5
185
330
1F
100
AcDbEntity
  8
LAY-10
  6
CONTINUOUS
 62
     7
100
AcDbCircle
 10
482.0688048944825
 20
533.497896916845
 30
0.0
 40
1.0
100
AcDbArc
 50
280.0304468929167
 51
10.61510785070919
  0
ARC
  5
186
330
1F
100
AcDbEntity
  8
LAY-10
  6
CONTINUOUS
 62
     7
100
AcDbCircle
 10
482.4999999999931
 20
536.6257530150948
 30
0.0
 40
1.0
100
AcDbArc
 50
10.61510785070758
 51
100.6151078507076
  0
LINE
  5
187
330
1F
100
AcDbEntity
  8
LAY-10
  6
CONTINUOUS
 62
     7
100
AcDbLine
 10
484.2197289156238
 20
532.8784162999405
 30
0.0
 11
483.4828868103605
 21
536.8099635414105
 31
0.0
  0
ARC
  5
188
330
1F
100
AcDbEntity
  8
LAY-10
  6
CONTINUOUS
 62
     7
100
AcDbCircle
 10
483.2368421052562
 20
532.6942057736246
 30
0.0
 40
1.0
100
AcDbArc
 50
280.6151078507073
 51
10.61510785070919
  0
ARC
  5
189
330
1F
100
AcDbEntity
  8
LAY-10
  6
CONTINUOUS
 62
     7
100
AcDbCircle
 10
464.9999999999924
 20
630.00000000001
 30
0.0
 40
93.99999999999997
100
AcDbArc
 50
275.2165867592336
 51
280.6151078507098
  0
ARC
  5
18A
330
1F
100
AcDbEntity
  8
LAY-10
  6
CONTINUOUS
 62
     7
100
AcDbCircle
 10
464.9999999999899
 20
630.00000000001
 30
0.0
 40
93.99999999999997
100
AcDbArc
 50
259.3848921492948
 51
264.7834132407665
  0
ARC
  5
18B
330
1F
100
AcDbEntity
  8
LAY-10
  6
CONTINUOUS
 62
     7
100
AcDbCircle
 10
464.9999999999899
 20
630.00000000001
 30
0.0
 40
94.99999999999997
100
AcDbArc
 50
259.9817339797974
 51
280.0182660202028
  0
ARC
  5
18C
330
1F
100
AcDbEntity
  8
LAY-10
  6
CONTINUOUS
 62
     7
100
AcDbCircle
 10
464.9999999999899
 20
630.00000000001
 30
0.0
 40
98.99999999999996
100
AcDbArc
 50
259.9695531070853
 51
280.0304468929173
  0
ARC
  5
18D
330
1F
100
AcDbEntity
  8
LAY-10
  6
CONTINUOUS
 62
     7
100
AcDbCircle
 10
464.9999999999899
 20
630.00000000001
 30
0.0
 40
99.99999999999997
100
AcDbArc
 50
259.3848921492917
 51
280.6151078507089
  0
ARC
  5
18E
330
1F
100
AcDbEntity
  8
LAY-10
  6
CONTINUOUS
 62
     7
100
AcDbCircle
 10
538.5205902810105
 20
568.2689478080192
 30
0.0
 40
1.0
100
AcDbArc
 50
139.9817339797976
 51
229.3848921492924
  0
LINE
  5
18F
330
1F
100
AcDbEntity
  8
LAY-10
  6
CONTINUOUS
 62
     7
100
AcDbLine
 10
539.3878959407728
 20
566.2078301238939
 30
0.0
 11
537.869615880393
 21
567.5098481243542
 31
0.0
  0
ARC
  5
190
330
1F
100
AcDbEntity
  8
LAY-10
  6
CONTINUOUS
 62
     7
100
AcDbCircle
 10
540.0388703413905
 20
566.9669298075589
 30
0.0
 40
1.0
100
AcDbArc
 50
229.3848921492929
 51
319.9695531070845
  0
ARC
  5
191
330
1F
100
AcDbEntity
  8
LAY-10
  6
CONTINUOUS
 62
     7
100
AcDbCircle
 10
537.114469948169
 20
568.1574319413241
 30
0.0
 40
1.0
100
AcDbArc
 50
139.3848921492929
 51
229.3848921492924
  0
LINE
  5
192
330
1F
100
AcDbEntity
  8
LAY-10
  6
CONTINUOUS
 62
     7
100
AcDbLine
 10
539.4998942822112
 20
564.7944346551883
 30
0.0
 11
536.4634955475512
 21
567.3983322576591
 31
0.0
  0
ARC
  5
193
330
1F
100
AcDbEntity
  8
LAY-10
  6
CONTINUOUS
 62
     7
100
AcDbCircle
 10
540.150868682829
 20
565.5535343388533
 30
0.0
 40
1.0
100
AcDbArc
 50
229.3848921492909
 51
319.384892149293
  0
ARC
  5
194
330
1F
100
AcDbEntity
  8
LAY-10
  6
CONTINUOUS
 62
     7
100
AcDbCircle
 10
555.2209545411083
 20
597.1948272114162
 30
0.0
 40
1.0
100
AcDbArc
 50
70.61510785070887
 51
160.0182660202047
  0
LINE
  5
195
330
1F
100
AcDbEntity
  8
LAY-10
  6
CONTINUOUS
 62
     7
100
AcDbLine
 10
557.4395876456313
 20
597.4742773192788
 30
0.0
 11
555.5528669508581
 21
598.138137421397
 31
0.0
  0
ARC
  5
196
330
1F
100
AcDbEntity
  8
LAY-10
  6
CONTINUOUS
 62
     7
100
AcDbCircle
 10
557.1076752358815
 20
596.530967109298
 30
0.0
 40
1.0
100
AcDbArc
 50
340.0304468929174
 51
70.61510785070887
  0
ARC
  5
197
330
1F
100
AcDbEntity
  8
LAY-10
  6
CONTINUOUS
 62
     7
100
AcDbCircle
 10
554.6144699481704
 20
598.4683210737824
 30
0.0
 40
1.0
100
AcDbArc
 50
70.61510785070887
 51
160.6151078507064
  0
LINE
  5
198
330
1F
100
AcDbEntity
  8
LAY-10
  6
CONTINUOUS
 62
     7
100
AcDbLine
 10
558.7196231978435
 20
598.0839816447642
 30
0.0
 11
554.9463823579201
 21
599.4116312837632
 31
0.0
  0
ARC
  5
199
330
1F
100
AcDbEntity
  8
LAY-10
  6
CONTINUOUS
 62
     7
100
AcDbCircle
 10
558.3877107880937
 20
597.1406714347834
 30
0.0
 40
1.0
100
AcDbArc
 50
340.6151078507089
 51
70.61510785070766
  0
ARC
  5
19A
330
1F
100
AcDbEntity
  8
LAY-10
  6
CONTINUOUS
 62
     7
100
AcDbCircle
 10
464.9999999999899
 20
630.00000000001
 30
0.0
 40
94.99999999999997
100
AcDbArc
 50
319.9817339797987
 51
340.0182660202028
  0
ARC
  5
19B
330
1F
100
AcDbEntity
  8
LAY-10
  6
CONTINUOUS
 62
     7
100
AcDbCircle
 10
464.9999999999899
 20
630.00000000001
 30
0.0
 40
93.99999999999997
100
AcDbArc
 50
319.3848921492919
 51
340.6151078507108
  0
ARC
  5
19C
330
1F
100
AcDbEntity
  8
LAY-10
  6
CONTINUOUS
 62
     7
100
AcDbCircle
 10
464.9999999999899
 20
630.00000000001
 30
0.0
 40
98.99999999999996
100
AcDbArc
 50
319.9695531070854
 51
340.0304468929126
  0
ARC
  5
19D
330
1F
100
AcDbEntity
  8
LAY-10
  6
CONTINUOUS
 62
     7
100
AcDbCircle
 10
464.9999999999899
 20
630.00000000001
 30
0.0
 40
99.99999999999997
100
AcDbArc
 50
319.3848921492919
 51
340.6151078507122
  0
ARC
  5
19E
330
1F
100
AcDbEntity
  8
LAY-10
  6
CONTINUOUS
 62
     7
100
AcDbCircle
 10
559.536224980577
 20
613.2996357399131
 30
0.0
 40
1.0
100
AcDbArc
 50
169.9817339797944
 51
259.3848921492928
  0
LINE
  5
19F
330
1F
100
AcDbEntity
  8
LAY-10
  6
CONTINUOUS
 62
     7
100
AcDbLine
 10
561.3178925568398
 20
611.9483082951522
 30
0.0
 11
559.3520144542613
 21
612.3167489295456
 31
0.0
  0
ARC
  5
1A0
330
1F
100
AcDbEntity
  8
LAY-10
  6
CONTINUOUS
 62
     7
100
AcDbCircle
 10
561.5021030831556
 20
612.9311951055199
 30
0.0
 40
1.0
100
AcDbArc
 50
259.3848921492928
 51
349.9695531070835
  0
ARC
  5
1A1
330
1F
100
AcDbEntity
  8
LAY-10
  6
CONTINUOUS
 62
     7
100
AcDbCircle
 10
558.3742469849058
 20
612.5000000000093
 30
0.0
 40
1.0
100
AcDbArc
 50
169.3848921492946
 51
259.3848921492928
  0
LINE
  5
1A2
330
1F
100
AcDbEntity
  8
LAY-10
  6
CONTINUOUS
 62
     7
100
AcDbLine
 10
562.1215837000601
 20
610.7802710843787
 30
0.0
 11
558.19003645859
 21
611.5171131896418
 31
0.0
  0
ARC
  5
1A3
330
1F
100
AcDbEntity
  8
LAY-10
  6
CONTINUOUS
 62
     7
100
AcDbCircle
 10
562.3057942263758
 20
611.7631578947462
 30
0.0
 40
1.0
100
AcDbArc
 50
259.3848921492928
 51
349.3848921492908
  0
ARC
  5
1A4
330
1F
100
AcDbEntity
  8
LAY-10
  6
CONTINUOUS
 62
     7
100
AcDbCircle
 10
559.5362249805768
 20
646.7003642601087
 30
0.0
 40
1.0
100
AcDbArc
 50
100.6151078507076
 51
190.0182660202041
  0
LINE
  5
1A5
330
1F
100
AcDbEntity
  8
LAY-10
  6
CONTINUOUS
 62
     7
100
AcDbLine
 10
561.3178925568395
 20
648.0516917048695
 30
0.0
 11
559.352014454261
 21
647.6832510704762
 31
0.0
  0
ARC
  5
1A6
330
1F
100
AcDbEntity
  8
LAY-10
  6
CONTINUOUS
 62
     7
100
AcDbCircle
 10
561.5021030831554
 20
647.068804894502
 30
0.0
 40
1.0
100
AcDbArc
 50
10.03044689291615
 51
100.6151078507076
  0
ARC
  5
1A7
330
1F
100
AcDbEntity
  8
LAY-10
  6
CONTINUOUS
 62
     7
100
AcDbCircle
 10
558.3742469849055
 20
647.5000000000125
 30
0.0
 40
1.0
100
AcDbArc
 50
100.6151078507076
 51
190.6151078507108
  0
LINE
  5
1A8
330
1F
100
AcDbEntity
  8
LAY-10
  6
CONTINUOUS
 62
     7
100
AcDbLine
 10
562.1215837000599
 20
649.2197289156433
 30
0.0
 11
558.1900364585898
 21
648.48288681038
 31
0.0
  0
ARC
  5
1A9
330
1F
100
AcDbEntity
  8
LAY-10
  6
CONTINUOUS
 62
     7
100
AcDbCircle
 10
562.3057942263756
 20
648.2368421052757
 30
0.0
 40
1.0
100
AcDbArc
 50
10.61510785070707
 51
100.6151078507076
  0
ARC
  5
1AA
330
1F
100
AcDbEntity
  8
LAY-10
  6
CONTINUOUS
 62
     7
100
AcDbCircle
 10
464.9999999999924
 20
630.00000000001
 30
0.0
 40
93.99999999999997
100
AcDbArc
 50
3.924032907833743
 51
10.61510785070982
  0
ARC
  5
1AB
330
1F
100
AcDbEntity
  8
LAY-10
  6
CONTINUOUS
 62
     7
100
AcDbCircle
 10
464.9999999999924
 20
630.00000000001
 30
0.0
 40
94.99999999999997
100
AcDbArc
 50
349.9817339797984
 51
10.01826602020271
  0
ARC
  5
1AC
330
1F
100
AcDbEntity
  8
LAY-10
  6
CONTINUOUS
 62
     7
100
AcDbCircle
 10
464.9999999999924
 20
630.0000000000076
 30
0.0
 40
93.99999999999997
100
AcDbArc
 50
349.384892149293
 51
356.0759670921681
  0
ARC
  5
1AD
330
1F
100
AcDbEntity
  8
LAY-10
  6
CONTINUOUS
 62
     7
100
AcDbCircle
 10
464.9999999999924
 20
630.00000000001
 30
0.0
 40
98.99999999999996
100
AcDbArc
 50
349.9695531070851
 51
10.03044689291604
  0
ARC
  5
1AE
330
1F
100
AcDbEntity
  8
LAY-10
  6
CONTINUOUS
 62
     7
100
AcDbCircle
 10
464.9999999999924
 20
630.00000000001
 30
0.0
 40
99.99999999999997
100
AcDbArc
 50
349.3848921492915
 51
10.61510785070965
  0
ARC
  5
1AF
330
1F
100
AcDbEntity
  8
LAY-10
  6
CONTINUOUS
 62
     7
100
AcDbCircle
 10
432.1948272113966
 20
539.7790454588927
 30
0.0
 40
1.0
100
AcDbArc
 50
340.6151078507072
 51
70.01826602020243
  0
LINE
  5
1B0
330
1F
100
AcDbEntity
  8
LAY-10
  6
CONTINUOUS
 62
     7
100
AcDbLine
 10
432.4742773192591
 20
537.5604123543696
 30
0.0
 11
433.1381374213773
 21
539.447133049143
 31
0.0
  0
ARC
  5
1B1
330
1F
100
AcDbEntity
  8
LAY-10
  6
CONTINUOUS
 62
     7
100
AcDbCircle
 10
431.5309671092783
 20
537.8923247641194
 30
0.0
 40
1.0
100
AcDbArc
 50
250.0304468929155
 51
340.6151078507072
  0
ARC
  5
1B2
330
1F
100
AcDbEntity
  8
LAY-10
  6
CONTINUOUS
 62
     7
100
AcDbCircle
 10
433.4683210737629
 20
540.3855300518305
 30
0.0
 40
1.0
100
AcDbArc
 50
340.6151078507072
 51
70.6151078507072
  0
LINE
  5
1B3
330
1F
100
AcDbEntity
  8
LAY-10
  6
CONTINUOUS
 62
     7
100
AcDbLine
 10
433.0839816447445
 20
536.2803768021574
 30
0.0
 11
434.4116312837436
 21
540.0536176420808
 31
0.0
  0
ARC
  5
1B4
330
1F
100
AcDbEntity
  8
LAY-10
  6
CONTINUOUS
 62
     7
100
AcDbCircle
 10
432.1406714347637
 20
536.6122892119072
 30
0.0
 40
1.0
100
AcDbArc
 50
250.6151078507072
 51
340.6151078507089
  0
ARC
  5
1B5
330
1F
100
AcDbEntity
  8
LAY-10
  6
CONTINUOUS
 62
     7
100
AcDbCircle
 10
403.2689478079999
 20
556.4794097189906
 30
0.0
 40
1.0
100
AcDbArc
 50
49.98173397979427
 51
139.3848921492925
  0
LINE
  5
1B6
330
1F
100
AcDbEntity
  8
LAY-10
  6
CONTINUOUS
 62
     7
100
AcDbLine
 10
401.2078301238744
 20
555.6121040592285
 30
0.0
 11
402.5098481243349
 21
557.1303841196084
 31
0.0
  0
ARC
  5
1B7
330
1F
100
AcDbEntity
  8
LAY-10
  6
CONTINUOUS
 62
     7
100
AcDbCircle
 10
401.9669298075395
 20
554.9611296586107
 30
0.0
 40
1.0
100
AcDbArc
 50
139.3848921492937
 51
229.9695531070826
  0
ARC
  5
1B8
330
1F
100
AcDbEntity
  8
LAY-10
  6
CONTINUOUS
 62
     7
100
AcDbCircle
 10
403.1574319413049
 20
557.8855300518323
 30
0.0
 40
1.0
100
AcDbArc
 50
49.38489214929369
 51
139.3848921492925
  0
LINE
  5
1B9
330
1F
100
AcDbEntity
  8
LAY-10
  6
CONTINUOUS
 62
     7
100
AcDbLine
 10
399.7944346551689
 20
555.5001057177899
 30
0.0
 11
402.3983322576399
 21
558.53650445245
 31
0.0
  0
ARC
  5
1BA
330
1F
100
AcDbEntity
  8
LAY-10
  6
CONTINUOUS
 62
     7
100
AcDbCircle
 10
400.5535343388338
 20
554.8491313171722
 30
0.0
 40
1.0
100
AcDbArc
 50
139.3848921492912
 51
229.3848921492891
  0
ARC
  5
1BB
330
1F
100
AcDbEntity
  8
LAY-10
  6
CONTINUOUS
 62
     7
100
AcDbCircle
 10
464.9999999999924
 20
630.00000000001
 30
0.0
 40
94.99999999999997
100
AcDbArc
 50
229.9817339797974
 51
250.0182660202014
  0
ARC
  5
1BC
330
1F
100
AcDbEntity
  8
LAY-10
  6
CONTINUOUS
 62
     7
100
AcDbCircle
 10
464.9999999999924
 20
630.00000000001
 30
0.0
 40
93.99999999999997
100
AcDbArc
 50
229.3848921492894
 51
250.6151078507084
  0
ARC
  5
1BD
330
1F
100
AcDbEntity
  8
LAY-10
  6
CONTINUOUS
 62
     7
100
AcDbCircle
 10
464.9999999999924
 20
630.00000000001
 30
0.0
 40
98.99999999999996
100
AcDbArc
 50
229.9695531070876
 51
250.0304468929148
  0
ARC
  5
1BE
330
1F
100
AcDbEntity
  8
LAY-10
  6
CONTINUOUS
 62
     7
100
AcDbCircle
 10
464.9999999999924
 20
630.00000000001
 30
0.0
 40
99.99999999999997
100
AcDbArc
 50
229.3848921492879
 51
250.6151078507084
  0
ARC
  5
1BF
330
1F
100
AcDbEntity
  8
LAY-10
  6
CONTINUOUS
 62
     7
100
AcDbCircle
 10
391.4794097189717
 20
568.2689478080193
 30
0.0
 40
1.0
100
AcDbArc
 50
310.6151078507088
 51
40.01826602020225
  0
LINE
  5
1C0
330
1F
100
AcDbEntity
  8
LAY-10
  6
CONTINUOUS
 62
     7
100
AcDbLine
 10
390.6121040592095
 20
566.2078301238939
 30
0.0
 11
392.1303841195895
 21
567.5098481243543
 31
0.0
  0
ARC
  5
1C1
330
1F
100
AcDbEntity
  8
LAY-10
  6
CONTINUOUS
 62
     7
100
AcDbCircle
 10
389.9611296585917
 20
566.9669298075589
 30
0.0
 40
1.0
100
AcDbArc
 50
220.0304468929175
 51
310.6151078507088
  0
ARC
  5
1C2
330
1F
100
AcDbEntity
  8
LAY-10
  6
CONTINUOUS
 62
     7
100
AcDbCircle
 10
392.8855300518135
 20
568.1574319413243
 30
0.0
 40
1.0
100
AcDbArc
 50
310.6151078507039
 51
40.61510785070851
  0
LINE
  5
1C3
330
1F
100
AcDbEntity
  8
LAY-10
  6
CONTINUOUS
 62
     7
100
AcDbLine
 10
390.500105717771
 20
564.7944346551883
 30
0.0
 11
393.5365044524311
 21
567.3983322576593
 31
0.0
  0
ARC
  5
1C4
330
1F
100
AcDbEntity
  8
LAY-10
  6
CONTINUOUS
 62
     7
100
AcDbCircle
 10
389.8491313171533
 20
565.5535343388532
 30
0.0
 40
1.0
100
AcDbArc
 50
220.6151078507085
 51
310.6151078507109
  0
ARC
  5
1C5
330
1F
100
AcDbEntity
  8
LAY-10
  6
CONTINUOUS
 62
     7
100
AcDbCircle
 10
374.7790454588741
 20
597.1948272114162
 30
0.0
 40
1.0
100
AcDbArc
 50
19.98173397979559
 51
109.3848921492898
  0
LINE
  5
1C6
330
1F
100
AcDbEntity
  8
LAY-10
  6
CONTINUOUS
 62
     7
100
AcDbLine
 10
372.5604123543511
 20
597.4742773192788
 30
0.0
 11
374.4471330491243
 21
598.1381374213969
 31
0.0
  0
ARC
  5
1C7
330
1F
100
AcDbEntity
  8
LAY-10
  6
CONTINUOUS
 62
     7
100
AcDbCircle
 10
372.8923247641009
 20
596.530967109298
 30
0.0
 40
1.0
100
AcDbArc
 50
109.3848921492898
 51
199.9695531070846
  0
ARC
  5
1C8
330
1F
100
AcDbEntity
  8
LAY-10
  6
CONTINUOUS
 62
     7
100
AcDbCircle
 10
375.385530051812
 20
598.4683210737824
 30
0.0
 40
1.0
100
AcDbArc
 50
19.38489214929288
 51
109.3848921492898
  0
LINE
  5
1C9
330
1F
100
AcDbEntity
  8
LAY-10
  6
CONTINUOUS
 62
     7
100
AcDbLine
 10
371.2803768021389
 20
598.0839816447641
 30
0.0
 11
375.0536176420622
 21
599.4116312837632
 31
0.0
  0
ARC
  5
1CA
330
1F
100
AcDbEntity
  8
LAY-10
  6
CONTINUOUS
 62
     7
100
AcDbCircle
 10
371.6122892118887
 20
597.1406714347834
 30
0.0
 40
1.0
100
AcDbArc
 50
109.3848921492929
 51
199.3848921492898
  0
ARC
  5
1CB
330
1F
100
AcDbEntity
  8
LAY-10
  6
CONTINUOUS
 62
     7
100
AcDbCircle
 10
464.9999999999924
 20
630.00000000001
 30
0.0
 40
94.99999999999997
100
AcDbArc
 50
199.9817339797974
 51
220.0182660202014
  0
ARC
  5
1CC
330
1F
100
AcDbEntity
  8
LAY-10
  6
CONTINUOUS
 62
     7
100
AcDbCircle
 10
464.9999999999924
 20
630.00000000001
 30
0.0
 40
93.99999999999997
100
AcDbArc
 50
199.3848921492894
 51
220.6151078507083
  0
ARC
  5
1CD
330
1F
100
AcDbEntity
  8
LAY-10
  6
CONTINUOUS
 62
     7
100
AcDbCircle
 10
464.9999999999924
 20
630.00000000001
 30
0.0
 40
98.99999999999996
100
AcDbArc
 50
199.9695531070875
 51
220.0304468929147
  0
ARC
  5
1CE
330
1F
100
AcDbEntity
  8
LAY-10
  6
CONTINUOUS
 62
     7
100
AcDbCircle
 10
464.9999999999924
 20
630.00000000001
 30
0.0
 40
99.99999999999997
100
AcDbArc
 50
199.3848921492879
 51
220.6151078507083
  0
ARC
  5
1CF
330
1F
100
AcDbEntity
  8
LAY-10
  6
CONTINUOUS
 62
     7
100
AcDbCircle
 10
372.8635828200796
 20
636.0000000000078
 30
0.0
 40
2.0
100
AcDbArc
 50
176.2741121337963
 51
270.0
  0
ARC
  5
1D0
330
1F
100
AcDbEntity
  8
LAY-10
  6
CONTINUOUS
 62
     7
100
AcDbCircle
 10
372.8635828200796
 20
624.0000000000126
 30
0.0
 40
2.0
100
AcDbArc
 50
90.00000000000001
 51
183.7258878662071
  0
ARC
  5
1D1
330
1F
100
AcDbEntity
  8
LAY-10
  6
CONTINUOUS
 62
     7
100
AcDbCircle
 10
464.9999999999899
 20
630.00000000001
 30
0.0
 40
94.33157298968999
100
AcDbArc
 50
176.2741121337954
 51
183.7258878662047
  0
ARC
  5
1D2
330
1F
100
AcDbEntity
  8
LAY-10
  6
CONTINUOUS
 62
     7
100
AcDbCircle
 10
370.4637750194053
 20
613.2996357399131
 30
0.0
 40
1.0
100
AcDbArc
 50
280.6151078507073
 51
10.01826602020569
  0
LINE
  5
1D3
330
1F
100
AcDbEntity
  8
LAY-10
  6
CONTINUOUS
 62
     7
100
AcDbLine
 10
368.6821074431425
 20
611.9483082951522
 30
0.0
 11
370.6479855457211
 21
612.3167489295456
 31
0.0
  0
ARC
  5
1D4
330
1F
100
AcDbEntity
  8
LAY-10
  6
CONTINUOUS
 62
     7
100
AcDbCircle
 10
368.4978969168268
 20
612.9311951055198
 30
0.0
 40
1.0
100
AcDbArc
 50
190.0304468929162
 51
280.6151078507073
  0
ARC
  5
1D5
330
1F
100
AcDbEntity
  8
LAY-10
  6
CONTINUOUS
 62
     7
100
AcDbCircle
 10
371.6257530150765
 20
612.5000000000093
 30
0.0
 40
1.0
100
AcDbArc
 50
280.6151078507073
 51
10.61510785070598
  0
LINE
  5
1D6
330
1F
100
AcDbEntity
  8
LAY-10
  6
CONTINUOUS
 62
     7
100
AcDbLine
 10
367.8784162999222
 20
610.7802710843786
 30
0.0
 11
371.8099635413922
 21
611.5171131896418
 31
0.0
  0
ARC
  5
1D7
330
1F
100
AcDbEntity
  8
LAY-10
  6
CONTINUOUS
 62
     7
100
AcDbCircle
 10
367.6942057736064
 20
611.7631578947461
 30
0.0
 40
1.0
100
AcDbArc
 50
190.6151078507093
 51
280.6151078507073
  0
ARC
  5
1D8
330
1F
100
AcDbEntity
  8
LAY-10
  6
CONTINUOUS
 62
     7
100
AcDbCircle
 10
370.4637750194055
 20
646.7003642601087
 30
0.0
 40
1.0
100
AcDbArc
 50
349.981733979796
 51
79.38489214929255
  0
LINE
  5
1D9
330
1F
100
AcDbEntity
  8
LAY-10
  6
CONTINUOUS
 62
     7
100
AcDbLine
 10
368.6821074431426
 20
648.0516917048695
 30
0.0
 11
370.6479855457213
 21
647.6832510704762
 31
0.0
  0
ARC
  5
1DA
330
1F
100
AcDbEntity
  8
LAY-10
  6
CONTINUOUS
 62
     7
100
AcDbCircle
 10
368.4978969168269
 20
647.068804894502
 30
0.0
 40
1.0
100
AcDbArc
 50
79.38489214929255
 51
169.9695531070807
  0
ARC
  5
1DB
330
1F
100
AcDbEntity
  8
LAY-10
  6
CONTINUOUS
 62
     7
100
AcDbCircle
 10
371.6257530150766
 20
647.5000000000125
 30
0.0
 40
1.0
100
AcDbArc
 50
349.3848921492893
 51
79.38489214929255
  0
LINE
  5
1DC
330
1F
100
AcDbEntity
  8
LAY-10
  6
CONTINUOUS
 62
     7
100
AcDbLine
 10
367.8784162999224
 20
649.2197289156433
 30
0.0
 11
371.8099635413924
 21
648.48288681038
 31
0.0
  0
ARC
  5
1DD
330
1F
100
AcDbEntity
  8
LAY-10
  6
CONTINUOUS
 62
     7
100
AcDbCircle
 10
367.6942057736065
 20
648.2368421052757
 30
0.0
 40
1.0
100
AcDbArc
 50
79.38489214929255
 51
169.3848921492893
  0
ARC
  5
1DE
330
1F
100
AcDbEntity
  8
LAY-10
  6
CONTINUOUS
 62
     7
100
AcDbCircle
 10
464.9999999999899
 20
630.0000000000076
 30
0.0
 40
93.99999999999997
100
AcDbArc
 50
183.9240329078322
 51
190.6151078507072
  0
ARC
  5
1DF
330
1F
100
AcDbEntity
  8
LAY-10
  6
CONTINUOUS
 62
     7
100
AcDbCircle
 10
456.9999999999938
 20
721.984343073984
 30
0.0
 40
2.0
100
AcDbArc
 50
0.0
 51
94.97058240477735
  0
ARC
  5
1E0
330
1F
100
AcDbEntity
  8
LAY-10
  6
CONTINUOUS
 62
     7
100
AcDbCircle
 10
472.9999999999886
 20
721.9843430739838
 30
0.0
 40
2.0
100
AcDbArc
 50
85.02941759522263
 51
180.0
  0
ARC
  5
1E1
330
1F
100
AcDbEntity
  8
LAY-10
  6
CONTINUOUS
 62
     7
100
AcDbCircle
 10
464.9999999999899
 20
630.0000000000101
 30
0.0
 40
94.33157298968999
100
AcDbArc
 50
85.02941759522166
 51
94.97058240477698
  0
ARC
  5
1E2
330
1F
100
AcDbEntity
  8
LAY-10
  6
CONTINUOUS
 62
     7
100
AcDbCircle
 10
497.8051727885858
 20
720.2209545411274
 30
0.0
 40
1.0
100
AcDbArc
 50
160.6151078507072
 51
250.018266020203
  0
LINE
  5
1E3
330
1F
100
AcDbEntity
  8
LAY-10
  6
CONTINUOUS
 62
     7
100
AcDbLine
 10
497.5257226807232
 20
722.4395876456506
 30
0.0
 11
496.861862578605
 21
720.5528669508772
 31
0.0
  0
ARC
  5
1E4
330
1F
100
AcDbEntity
  8
LAY-10
  6
CONTINUOUS
 62
     7
100
AcDbCircle
 10
498.469032890704
 20
722.1076752359007
 30
0.0
 40
1.0
100
AcDbArc
 50
70.03044689291549
 51
160.6151078507072
  0
ARC
  5
1E5
330
1F
100
AcDbEntity
  8
LAY-10
  6
CONTINUOUS
 62
     7
100
AcDbCircle
 10
496.5316789262196
 20
719.6144699481896
 30
0.0
 40
1.0
100
AcDbArc
 50
160.6151078507072
 51
250.6151078507072
  0
LINE
  5
1E6
330
1F
100
AcDbEntity
  8
LAY-10
  6
CONTINUOUS
 62
     7
100
AcDbLine
 10
496.9160183552378
 20
723.7196231978627
 30
0.0
 11
495.5883687162388
 21
719.9463823579395
 31
0.0
  0
ARC
  5
1E7
330
1F
100
AcDbEntity
  8
LAY-10
  6
CONTINUOUS
 62
     7
100
AcDbCircle
 10
497.8593285652186
 20
723.3877107881129
 30
0.0
 40
1.0
100
AcDbArc
 50
70.6151078507072
 51
160.6151078507072
  0
ARC
  5
1E8
330
1F
100
AcDbEntity
  8
LAY-10
  6
CONTINUOUS
 62
     7
100
AcDbCircle
 10
526.7310521919826
 20
703.5205902810295
 30
0.0
 40
1.0
100
AcDbArc
 50
229.9817339797954
 51
319.3848921492891
  0
LINE
  5
1E9
330
1F
100
AcDbEntity
  8
LAY-10
  6
CONTINUOUS
 62
     7
100
AcDbLine
 10
528.7921698761079
 20
704.3878959407916
 30
0.0
 11
527.4901518756476
 21
702.8696158804119
 31
0.0
  0
ARC
  5
1EA
330
1F
100
AcDbEntity
  8
LAY-10
  6
CONTINUOUS
 62
     7
100
AcDbCircle
 10
528.0330701924429
 20
705.0388703414094
 30
0.0
 40
1.0
100
AcDbArc
 50
319.3848921492934
 51
49.96955310708265
  0
ARC
  5
1EB
330
1F
100
AcDbEntity
  8
LAY-10
  6
CONTINUOUS
 62
     7
100
AcDbCircle
 10
526.8425680586774
 20
702.1144699481879
 30
0.0
 40
1.0
100
AcDbArc
 50
229.3848921492962
 51
319.3848921492934
  0
LINE
  5
1EC
330
1F
100
AcDbEntity
  8
LAY-10
  6
CONTINUOUS
 62
     7
100
AcDbLine
 10
530.2055653448135
 20
704.4998942822301
 30
0.0
 11
527.6016677423424
 21
701.4634955475701
 31
0.0
  0
ARC
  5
1ED
330
1F
100
AcDbEntity
  8
LAY-10
  6
CONTINUOUS
 62
     7
100
AcDbCircle
 10
529.4464656611485
 20
705.1508686828479
 30
0.0
 40
1.0
100
AcDbArc
 50
319.3848921492915
 51
49.38489214929123
  0
ARC
  5
1EE
330
1F
100
AcDbEntity
  8
LAY-10
  6
CONTINUOUS
 62
     7
100
AcDbCircle
 10
464.9999999999899
 20
630.0000000000101
 30
0.0
 40
94.99999999999997
100
AcDbArc
 50
49.98173397979737
 51
70.01826602020124
  0
ARC
  5
1EF
330
1F
100
AcDbEntity
  8
LAY-10
  6
CONTINUOUS
 62
     7
100
AcDbCircle
 10
464.9999999999899
 20
630.0000000000101
 30
0.0
 40
93.99999999999997
100
AcDbArc
 50
49.38489214928923
 51
70.61510785070823
  0
ARC
  5
1F0
330
1F
100
AcDbEntity
  8
LAY-10
  6
CONTINUOUS
 62
     7
100
AcDbCircle
 10
464.9999999999899
 20
630.0000000000101
 30
0.0
 40
98.99999999999996
100
AcDbArc
 50
49.96955310708742
 51
70.03044689291474
  0
ARC
  5
1F1
330
1F
100
AcDbEntity
  8
LAY-10
  6
CONTINUOUS
 62
     7
100
AcDbCircle
 10
464.9999999999899
 20
630.0000000000101
 30
0.0
 40
99.99999999999997
100
AcDbArc
 50
49.38489214928785
 51
70.61510785070823
  0
ARC
  5
1F2
330
1F
100
AcDbEntity
  8
LAY-10
  6
CONTINUOUS
 62
     7
100
AcDbCircle
 10
448.2996357398932
 20
724.5362249805967
 30
0.0
 40
1.0
100
AcDbArc
 50
190.6151078507076
 51
280.018266020204
  0
ARC
  5
1F3
330
1F
100
AcDbEntity
  8
LAY-10
  6
CONTINUOUS
 62
     7
100
AcDbCircle
 10
447.9311951055
 20
726.5021030831753
 30
0.0
 40
1.0
100
AcDbArc
 50
100.0304468929161
 51
190.6151078507076
  0
ARC
  5
1F4
330
1F
100
AcDbEntity
  8
LAY-10
  6
CONTINUOUS
 62
     7
100
AcDbCircle
 10
447.4999999999894
 20
723.3742469849255
 30
0.0
 40
1.0
100
AcDbArc
 50
190.6151078507076
 51
280.6151078507102
  0
ARC
  5
1F5
330
1F
100
AcDbEntity
  8
LAY-10
  6
CONTINUOUS
 62
     7
100
AcDbCircle
 10
446.7631578947263
 20
727.3057942263956
 30
0.0
 40
1.0
100
AcDbArc
 50
100.615107850707
 51
190.6151078507076
  0
ARC
  5
1F6
330
1F
100
AcDbEntity
  8
LAY-10
  6
CONTINUOUS
 62
     7
100
AcDbCircle
 10
481.7003642600893
 20
724.5362249805967
 30
0.0
 40
1.0
100
AcDbArc
 50
259.981733979796
 51
349.3848921492926
  0
LINE
  5
1F7
330
1F
100
AcDbEntity
  8
LAY-10
  6
CONTINUOUS
 62
     7
100
AcDbLine
 10
483.0516917048501
 20
726.3178925568595
 30
0.0
 11
482.6832510704567
 21
724.3520144542808
 31
0.0
  0
ARC
  5
1F8
330
1F
100
AcDbEntity
  8
LAY-10
  6
CONTINUOUS
 62
     7
100
AcDbCircle
 10
482.0688048944825
 20
726.5021030831753
 30
0.0
 40
1.0
100
AcDbArc
 50
349.3848921492926
 51
79.96955310708334
  0
ARC
  5
1F9
330
1F
100
AcDbEntity
  8
LAY-10
  6
CONTINUOUS
 62
     7
100
AcDbCircle
 10
482.4999999999931
 20
723.3742469849254
 30
0.0
 40
1.0
100
AcDbArc
 50
259.3848921492898
 51
349.3848921492926
  0
LINE
  5
1FA
330
1F
100
AcDbEntity
  8
LAY-10
  6
CONTINUOUS
 62
     7
100
AcDbLine
 10
484.2197289156238
 20
727.1215837000798
 30
0.0
 11
483.4828868103605
 21
723.1900364586097
 31
0.0
  0
ARC
  5
1FB
330
1F
100
AcDbEntity
  8
LAY-10
  6
CONTINUOUS
 62
     7
100
AcDbCircle
 10
483.2368421052562
 20
727.3057942263956
 30
0.0
 40
1.0
100
AcDbArc
 50
349.3848921492893
 51
79.38489214929255
  0
ARC
  5
1FC
330
1F
100
AcDbEntity
  8
LAY-10
  6
CONTINUOUS
 62
     7
100
AcDbCircle
 10
464.9999999999924
 20
630.0000000000101
 30
0.0
 40
93.99999999999997
100
AcDbArc
 50
79.38489214929038
 51
84.78341324076648
  0
ARC
  5
1FD
330
1F
100
AcDbEntity
  8
LAY-10
  6
CONTINUOUS
 62
     7
100
AcDbCircle
 10
464.9999999999899
 20
630.0000000000101
 30
0.0
 40
93.99999999999997
100
AcDbArc
 50
95.21658675923358
 51
100.6151078507052
  0
ARC
  5
1FE
330
1F
100
AcDbEntity
  8
LAY-10
  6
CONTINUOUS
 62
     7
100
AcDbCircle
 10
464.9999999999899
 20
630.0000000000101
 30
0.0
 40
94.99999999999997
100
AcDbArc
 50
79.98173397979726
 51
100.0182660202027
  0
ARC
  5
1FF
330
1F
100
AcDbEntity
  8
LAY-10
  6
CONTINUOUS
 62
     7
100
AcDbCircle
 10
464.9999999999899
 20
630.0000000000101
 30
0.0
 40
98.99999999999996
100
AcDbArc
 50
79.96955310708283
 51
100.0304468929147
  0
ARC
  5
200
330
1F
100
AcDbEntity
  8
LAY-10
  6
CONTINUOUS
 62
     7
100
AcDbCircle
 10
464.9999999999899
 20
630.0000000000101
 30
0.0
 40
99.99999999999997
100
AcDbArc
 50
79.38489214929112
 51
100.6151078507083
  0
ARC
  5
201
330
1F
100
AcDbEntity
  8
LAY-10
  6
CONTINUOUS
 62
     7
100
AcDbCircle
 10
538.5205902810105
 20
691.7310521920008
 30
0.0
 40
1.0
100
AcDbArc
 50
130.6151078507039
 51
220.0182660202022
  0
LINE
  5
202
330
1F
100
AcDbEntity
  8
LAY-10
  6
CONTINUOUS
 62
     7
100
AcDbLine
 10
539.3878959407728
 20
693.7921698761262
 30
0.0
 11
537.869615880393
 21
692.4901518756658
 31
0.0
  0
ARC
  5
203
330
1F
100
AcDbEntity
  8
LAY-10
  6
CONTINUOUS
 62
     7
100
AcDbCircle
 10
540.0388703413905
 20
693.0330701924612
 30
0.0
 40
1.0
100
AcDbArc
 50
40.03044689291497
 51
130.6151078507039
  0
ARC
  5
204
330
1F
100
AcDbEntity
  8
LAY-10
  6
CONTINUOUS
 62
     7
100
AcDbCircle
 10
537.114469948169
 20
691.8425680586959
 30
0.0
 40
1.0
100
AcDbArc
 50
130.6151078507088
 51
220.6151078507067
  0
LINE
  5
205
330
1F
100
AcDbEntity
  8
LAY-10
  6
CONTINUOUS
 62
     7
100
AcDbLine
 10
539.4998942822112
 20
695.2055653448319
 30
0.0
 11
536.4634955475512
 21
692.6016677423609
 31
0.0
  0
ARC
  5
206
330
1F
100
AcDbEntity
  8
LAY-10
  6
CONTINUOUS
 62
     7
100
AcDbCircle
 10
540.150868682829
 20
694.4464656611669
 30
0.0
 40
1.0
100
AcDbArc
 50
40.61510785070667
 51
130.6151078507109
  0
ARC
  5
207
330
1F
100
AcDbEntity
  8
LAY-10
  6
CONTINUOUS
 62
     7
100
AcDbCircle
 10
555.2209545411083
 20
662.8051727886038
 30
0.0
 40
1.0
100
AcDbArc
 50
199.981733979794
 51
289.3848921492898
  0
LINE
  5
208
330
1F
100
AcDbEntity
  8
LAY-10
  6
CONTINUOUS
 62
     7
100
AcDbLine
 10
557.4395876456313
 20
662.5257226807412
 30
0.0
 11
555.5528669508581
 21
661.8618625786231
 31
0.0
  0
ARC
  5
209
330
1F
100
AcDbEntity
  8
LAY-10
  6
CONTINUOUS
 62
     7
100
AcDbCircle
 10
557.1076752358815
 20
663.4690328907221
 30
0.0
 40
1.0
100
AcDbArc
 50
289.3848921492898
 51
19.96955310708151
  0
ARC
  5
20A
330
1F
100
AcDbEntity
  8
LAY-10
  6
CONTINUOUS
 62
     7
100
AcDbCircle
 10
554.6144699481704
 20
661.5316789262376
 30
0.0
 40
1.0
100
AcDbArc
 50
199.3848921492929
 51
289.3848921492898
  0
LINE
  5
20B
330
1F
100
AcDbEntity
  8
LAY-10
  6
CONTINUOUS
 62
     7
100
AcDbLine
 10
558.7196231978435
 20
661.9160183552559
 30
0.0
 11
554.9463823579201
 21
660.5883687162568
 31
0.0
  0
ARC
  5
20C
330
1F
100
AcDbEntity
  8
LAY-10
  6
CONTINUOUS
 62
     7
100
AcDbCircle
 10
558.3877107880937
 20
662.8593285652366
 30
0.0
 40
1.0
100
AcDbArc
 50
289.3848921492929
 51
19.38489214929288
  0
ARC
  5
20D
330
1F
100
AcDbEntity
  8
LAY-10
  6
CONTINUOUS
 62
     7
100
AcDbCircle
 10
464.9999999999899
 20
630.0000000000101
 30
0.0
 40
94.99999999999997
100
AcDbArc
 50
19.9817339797973
 51
40.01826602020135
  0
ARC
  5
20E
330
1F
100
AcDbEntity
  8
LAY-10
  6
CONTINUOUS
 62
     7
100
AcDbCircle
 10
464.9999999999899
 20
630.0000000000101
 30
0.0
 40
93.99999999999997
100
AcDbArc
 50
19.38489214928933
 51
40.61510785070816
  0
ARC
  5
20F
330
1F
100
AcDbEntity
  8
LAY-10
  6
CONTINUOUS
 62
     7
100
AcDbCircle
 10
464.9999999999899
 20
630.0000000000101
 30
0.0
 40
98.99999999999996
100
AcDbArc
 50
19.96955310708746
 51
40.03044689291468
  0
ARC
  5
210
330
1F
100
AcDbEntity
  8
LAY-10
  6
CONTINUOUS
 62
     7
100
AcDbCircle
 10
464.9999999999899
 20
630.0000000000101
 30
0.0
 40
99.99999999999997
100
AcDbArc
 50
19.38489214928784
 51
40.61510785070816
  0
ARC
  5
211
330
1F
100
AcDbEntity
  8
LAY-10
  6
CONTINUOUS
 62
     7
100
AcDbCircle
 10
432.1948272113967
 20
720.2209545411275
 30
0.0
 40
1.0
100
AcDbArc
 50
289.9817339797982
 51
19.38489214929288
  0
LINE
  5
212
330
1F
100
AcDbEntity
  8
LAY-10
  6
CONTINUOUS
 62
     7
100
AcDbLine
 10
432.4742773192594
 20
722.4395876456506
 30
0.0
 11
433.1381374213776
 21
720.5528669508774
 31
0.0
  0
ARC
  5
213
330
1F
100
AcDbEntity
  8
LAY-10
  6
CONTINUOUS
 62
     7
100
AcDbCircle
 10
431.5309671092785
 20
722.1076752359008
 30
0.0
 40
1.0
100
AcDbArc
 50
19.38489214929288
 51
109.9695531070845
  0
ARC
  5
214
330
1F
100
AcDbEntity
  8
LAY-10
  6
CONTINUOUS
 62
     7
100
AcDbCircle
 10
433.468321073763
 20
719.6144699481897
 30
0.0
 40
1.0
100
AcDbArc
 50
289.3848921492898
 51
19.38489214929288
  0
LINE
  5
215
330
1F
100
AcDbEntity
  8
LAY-10
  6
CONTINUOUS
 62
     7
100
AcDbLine
 10
433.0839816447446
 20
723.7196231978628
 30
0.0
 11
434.4116312837438
 21
719.9463823579395
 31
0.0
  0
ARC
  5
216
330
1F
100
AcDbEntity
  8
LAY-10
  6
CONTINUOUS
 62
     7
100
AcDbCircle
 10
432.1406714347639
 20
723.387710788113
 30
0.0
 40
1.0
100
AcDbArc
 50
19.38489214928979
 51
109.384892149296
  0
LINE
  5
217
330
1F
100
AcDbEntity
  8
LAY-10
  6
CONTINUOUS
 62
     7
100
AcDbLine
 10
401.2078301238746
 20
704.3878959407919
 30
0.0
 11
402.509848124335
 21
702.8696158804119
 31
0.0
  0
ARC
  5
218
330
1F
100
AcDbEntity
  8
LAY-10
  6
CONTINUOUS
 62
     7
100
AcDbCircle
 10
401.9669298075397
 20
705.0388703414096
 30
0.0
 40
1.0
100
AcDbArc
 50
130.0304468929175
 51
220.6151078507042
  0
ARC
  5
219
330
1F
100
AcDbEntity
  8
LAY-10
  6
CONTINUOUS
 62
     7
100
AcDbCircle
 10
403.157431941305
 20
702.1144699481879
 30
0.0
 40
1.0
100
AcDbArc
 50
220.6151078507067
 51
310.6151078507039
  0
LINE
  5
21A
330
1F
100
AcDbEntity
  8
LAY-10
  6
CONTINUOUS
 62
     7
100
AcDbLine
 10
399.7944346551689
 20
704.4998942822303
 30
0.0
 11
402.39833225764
 21
701.4634955475702
 31
0.0
  0
ARC
  5
21B
330
1F
100
AcDbEntity
  8
LAY-10
  6
CONTINUOUS
 62
     7
100
AcDbCircle
 10
400.5535343388338
 20
705.1508686828481
 30
0.0
 40
1.0
100
AcDbArc
 50
130.6151078507109
 51
220.615107850711
  0
ARC
  5
21C
330
1F
100
AcDbEntity
  8
LAY-10
  6
CONTINUOUS
 62
     7
100
AcDbCircle
 10
464.9999999999924
 20
630.0000000000101
 30
0.0
 40
98.99999999999996
100
AcDbArc
 50
109.9695531070853
 51
130.0304468929125
  0
ARC
  5
21D
330
1F
100
AcDbEntity
  8
LAY-10
  6
CONTINUOUS
 62
     7
100
AcDbCircle
 10
464.9999999999924
 20
630.0000000000101
 30
0.0
 40
99.99999999999997
100
AcDbArc
 50
109.3848921492917
 51
130.6151078507121
  0
ARC
  5
21E
330
1F
100
AcDbEntity
  8
LAY-10
  6
CONTINUOUS
 62
     7
100
AcDbCircle
 10
391.4794097189717
 20
691.731052192001
 30
0.0
 40
1.0
100
AcDbArc
 50
319.9817339797978
 51
49.38489214928911
  0
LINE
  5
21F
330
1F
100
AcDbEntity
  8
LAY-10
  6
CONTINUOUS
 62
     7
100
AcDbLine
 10
390.6121040592095
 20
693.7921698761264
 30
0.0
 11
392.1303841195895
 21
692.490151875666
 31
0.0
  0
ARC
  5
220
330
1F
100
AcDbEntity
  8
LAY-10
  6
CONTINUOUS
 62
     7
100
AcDbCircle
 10
389.9611296585917
 20
693.0330701924613
 30
0.0
 40
1.0
100
AcDbArc
 50
49.38489214928911
 51
139.9695531070826
  0
ARC
  5
221
330
1F
100
AcDbEntity
  8
LAY-10
  6
CONTINUOUS
 62
     7
100
AcDbCircle
 10
392.8855300518135
 20
691.8425680586961
 30
0.0
 40
1.0
100
AcDbArc
 50
319.3848921492934
 51
49.38489214929123
  0
LINE
  5
222
330
1F
100
AcDbEntity
  8
LAY-10
  6
CONTINUOUS
 62
     7
100
AcDbLine
 10
390.500105717771
 20
695.2055653448319
 30
0.0
 11
393.5365044524311
 21
692.6016677423611
 31
0.0
  0
ARC
  5
223
330
1F
100
AcDbEntity
  8
LAY-10
  6
CONTINUOUS
 62
     7
100
AcDbCircle
 10
389.8491313171533
 20
694.446465661167
 30
0.0
 40
1.0
100
AcDbArc
 50
49.38489214928911
 51
139.3848921492916
  0
ARC
  5
224
330
1F
100
AcDbEntity
  8
LAY-10
  6
CONTINUOUS
 62
     7
100
AcDbCircle
 10
374.7790454588741
 20
662.8051727886041
 30
0.0
 40
1.0
100
AcDbArc
 50
250.6151078507102
 51
340.018266020206
  0
ARC
  5
225
330
1F
100
AcDbEntity
  8
LAY-10
  6
CONTINUOUS
 62
     7
100
AcDbCircle
 10
372.8923247641009
 20
663.4690328907224
 30
0.0
 40
1.0
100
AcDbArc
 50
160.0304468929144
 51
250.6151078507102
  0
ARC
  5
226
330
1F
100
AcDbEntity
  8
LAY-10
  6
CONTINUOUS
 62
     7
100
AcDbCircle
 10
375.385530051812
 20
661.5316789262379
 30
0.0
 40
1.0
100
AcDbArc
 50
250.6151078507102
 51
340.6151078507072
  0
ARC
  5
227
330
1F
100
AcDbEntity
  8
LAY-10
  6
CONTINUOUS
 62
     7
100
AcDbCircle
 10
371.6122892118887
 20
662.859328565237
 30
0.0
 40
1.0
100
AcDbArc
 50
160.6151078507103
 51
250.6151078507072
  0
LINE
  5
228
330
1F
100
AcDbEntity
  8
LAY-10
  6
CONTINUOUS
 62
     7
100
AcDbLine
 10
446.9483082951323
 20
726.3178925568595
 30
0.0
 11
447.3167489295258
 21
724.3520144542808
 31
0.0
  0
LINE
  5
229
330
1F
100
AcDbEntity
  8
LAY-10
  6
CONTINUOUS
 62
     7
100
AcDbLine
 10
445.7802710843588
 20
727.1215837000798
 30
0.0
 11
446.517113189622
 21
723.1900364586097
 31
0.0
  0
ARC
  5
22A
330
1F
100
AcDbEntity
  8
LAY-10
  6
CONTINUOUS
 62
     7
100
AcDbCircle
 10
403.268947808
 20
703.5205902810296
 30
0.0
 40
1.0
100
AcDbArc
 50
220.615107850711
 51
310.0182660202022
  0
ARC
  5
22B
330
1F
100
AcDbEntity
  8
LAY-10
  6
CONTINUOUS
 62
     7
100
AcDbCircle
 10
464.9999999999924
 20
630.0000000000101
 30
0.0
 40
94.99999999999997
100
AcDbArc
 50
109.9817339797986
 51
130.0182660202025
  0
ARC
  5
22C
330
1F
100
AcDbEntity
  8
LAY-10
  6
CONTINUOUS
 62
     7
100
AcDbCircle
 10
464.9999999999924
 20
630.0000000000101
 30
0.0
 40
93.99999999999997
100
AcDbArc
 50
109.3848921492917
 51
130.6151078507094
  0
ARC
  5
22D
330
1F
100
AcDbEntity
  8
LAY-10
  6
CONTINUOUS
 62
     7
100
AcDbCircle
 10
464.9999999999924
 20
630.0000000000101
 30
0.0
 40
98.99999999999996
100
AcDbArc
 50
139.9695531070847
 51
160.0304468929125
  0
ARC
  5
22E
330
1F
100
AcDbEntity
  8
LAY-10
  6
CONTINUOUS
 62
     7
100
AcDbCircle
 10
464.9999999999924
 20
630.0000000000101
 30
0.0
 40
99.99999999999997
100
AcDbArc
 50
139.3848921492931
 51
160.6151078507121
  0
ARC
  5
22F
330
1F
100
AcDbEntity
  8
LAY-10
  6
CONTINUOUS
 62
     7
100
AcDbCircle
 10
464.9999999999924
 20
630.0000000000101
 30
0.0
 40
94.99999999999997
100
AcDbArc
 50
139.9817339797987
 51
160.0182660202026
  0
ARC
  5
230
330
1F
100
AcDbEntity
  8
LAY-10
  6
CONTINUOUS
 62
     7
100
AcDbCircle
 10
464.9999999999924
 20
630.0000000000101
 30
0.0
 40
93.99999999999997
100
AcDbArc
 50
139.3848921492917
 51
160.6151078507107
  0
LINE
  5
231
330
1F
100
AcDbEntity
  8
LAY-10
  6
CONTINUOUS
 62
     7
100
AcDbLine
 10
372.5604123543511
 20
662.5257226807415
 30
0.0
 11
374.4471330491243
 21
661.8618625786233
 31
0.0
  0
LINE
  5
232
330
1F
100
AcDbEntity
  8
LAY-10
  6
CONTINUOUS
 62
     7
100
AcDbLine
 10
371.2803768021389
 20
661.9160183552561
 30
0.0
 11
375.0536176420622
 21
660.588368716257
 31
0.0
  0
ARC
  5
233
330
1F
100
AcDbEntity
  8
LAY-10
  6
CONTINUOUS
 62
     7
100
AcDbCircle
 10
464.9999999999899
 20
630.00000000001
 30
0.0
 40
98.99999999999996
100
AcDbArc
 50
169.9695531070841
 51
190.030446892915
  0
ARC
  5
234
330
1F
100
AcDbEntity
  8
LAY-10
  6
CONTINUOUS
 62
     7
100
AcDbCircle
 10
464.9999999999899
 20
630.00000000001
 30
0.0
 40
99.99999999999997
100
AcDbArc
 50
169.3848921492905
 51
190.6151078507087
  0
LINE
  5
235
330
1F
100
AcDbEntity
  8
LAY-10
  6
CONTINUOUS
 62
     7
100
AcDbLine
 10
497.5257226807232
 20
537.5604123543696
 30
0.0
 11
496.861862578605
 21
539.447133049143
 31
0.0
  0
LINE
  5
236
330
1F
100
AcDbEntity
  8
LAY-10
  6
CONTINUOUS
 62
     7
100
AcDbLine
 10
496.9160183552378
 20
536.2803768021575
 30
0.0
 11
495.5883687162388
 21
540.0536176420808
 31
0.0
  0
LINE
  5
237
330
1F
100
AcDbEntity
  8
LAY-10
  6
CONTINUOUS
 62
     7
100
AcDbLine
 10
528.7921698761079
 20
555.6121040592285
 30
0.0
 11
527.4901518756476
 21
557.1303841196084
 31
0.0
  0
ARC
  5
238
330
1F
100
AcDbEntity
  8
LAY-10
  6
CONTINUOUS
 62
     7
100
AcDbCircle
 10
464.9999999999899
 20
630.00000000001
 30
0.0
 40
94.99999999999997
100
AcDbArc
 50
169.9817339797974
 51
190.0182660202017
  0
ARC
  5
239
330
1F
100
AcDbEntity
  8
LAY-10
  6
CONTINUOUS
 62
     7
100
AcDbCircle
 10
464.9999999999899
 20
630.00000000001
 30
0.0
 40
93.99999999999997
100
AcDbArc
 50
169.3848921492905
 51
176.0759670921664
  0
LINE
  5
23A
330
1F
100
AcDbEntity
  8
LAY-10
  6
CONTINUOUS
 62
     7
100
AcDbLine
 10
468.9999999999902
 20
545.5000000000018
 30
0.0
 11
468.9999999999902
 21
544.4003676271952
 31
0.0
  0
ARC
  5
23B
330
1F
100
AcDbEntity
  8
LAY-10
  6
CONTINUOUS
 62
     7
100
AcDbCircle
 10
464.9999999999904
 20
630.0000000000078
 30
0.0
 40
92.00000000000007
100
AcDbArc
 50
272.7283053879568
 51
87.27169461204096
  0
ARC
  5
23C
330
1F
100
AcDbEntity
  8
LAY-10
  6
CONTINUOUS
 62
     7
100
AcDbCircle
 10
464.9999999999904
 20
630.0000000000078
 30
0.0
 40
92.00000000000007
100
AcDbArc
 50
92.72830538795847
 51
267.2716946120443
  0
LINE
  5
23D
330
1F
100
AcDbEntity
  8
LAY-10
  6
CONTINUOUS
 62
     7
100
AcDbLine
 10
460.9999999999901
 20
545.5000000000019
 30
0.0
 11
460.9999999999901
 21
544.4003676271934
 31
0.0
  0
LINE
  5
23E
330
1F
100
AcDbEntity
  8
LAY-10
  6
CONTINUOUS
 62
     7
100
AcDbLine
 10
460.99999999999
 20
714.5000000000138
 30
0.0
 11
460.99999999999
 21
715.5996323728278
 31
0.0
  0
LINE
  5
23F
330
1F
100
AcDbEntity
  8
LAY-10
  6
CONTINUOUS
 62
     7
100
AcDbLine
 10
468.9999999999902
 20
714.5000000000138
 30
0.0
 11
468.9999999999902
 21
715.599632372826
 31
0.0
  0
LINE
  5
240
330
1F
100
AcDbEntity
  8
LAY-10
  6
CONTINUOUS
 62
     7
100
AcDbLine
 10
435.2385140011028
 20
623.049658893147
 30
0.0
 11
394.0609455423891
 21
612.0007382416302
 31
0.0
  0
ARC
  5
241
330
1F
100
AcDbEntity
  8
LAY-10
  6
CONTINUOUS
 62
     7
100
AcDbCircle
 10
436.1874588133668
 20
619.5130926345079
 30
0.0
 40
3.66166589935055
100
AcDbArc
 50
294.979977508482
 51
105.0200224915217
  0
LINE
  5
242
330
1F
100
AcDbEntity
  8
LAY-10
  6
CONTINUOUS
 62
     7
100
AcDbLine
 10
435.4976705812902
 20
622.0838235723257
 30
0.0
 11
394.3201021225762
 21
611.0349029208091
 31
0.0
  0
LINE
  5
243
330
1F
100
AcDbEntity
  8
LAY-10
  6
CONTINUOUS
 62
     7
100
AcDbLine
 10
435.4976705812902
 20
637.9161764276898
 30
0.0
 11
394.3201021225764
 21
648.9650970792065
 31
0.0
  0
ARC
  5
244
330
1F
100
AcDbEntity
  8
LAY-10
  6
CONTINUOUS
 62
     7
100
AcDbCircle
 10
464.9999999999899
 20
630.0000000000078
 30
0.0
 40
69.11836509645775
100
AcDbArc
 50
195.0200224915203
 51
204.9799775084799
  0
ARC
  5
245
330
1F
100
AcDbEntity
  8
LAY-10
  6
CONTINUOUS
 62
     7
100
AcDbCircle
 10
464.9999999999899
 20
630.0000000000078
 30
0.0
 40
69.11836509645775
100
AcDbArc
 50
155.0200224915208
 51
164.9799775084799
  0
ARC
  5
246
330
1F
100
AcDbEntity
  8
LAY-10
  6
CONTINUOUS
 62
     7
100
AcDbCircle
 10
464.9999999999899
 20
630.0000000000078
 30
0.0
 40
73.1800715440005
100
AcDbArc
 50
184.9799775084797
 51
195.0200224915203
  0
ARC
  5
247
330
1F
100
AcDbEntity
  8
LAY-10
  6
CONTINUOUS
 62
     7
100
AcDbCircle
 10
464.9999999999899
 20
630.0000000000078
 30
0.0
 40
73.1800715440005
100
AcDbArc
 50
164.9799775084799
 51
175.0200224915206
  0
ARC
  5
248
330
1F
100
AcDbEntity
  8
LAY-10
  6
CONTINUOUS
 62
     7
100
AcDbCircle
 10
464.9999999999901
 20
630.0000000000078
 30
0.0
 40
73.1800715440005
100
AcDbArc
 50
344.97997750848
 51
355.0200224915205
  0
ARC
  5
249
330
1F
100
AcDbEntity
  8
LAY-10
  6
CONTINUOUS
 62
     7
100
AcDbCircle
 10
436.1874588133666
 20
640.486907365508
 30
0.0
 40
3.66166589935055
100
AcDbArc
 50
254.9799775084782
 51
65.02002249151813
  0
LINE
  5
24A
330
1F
100
AcDbEntity
  8
LAY-10
  6
CONTINUOUS
 62
     7
100
AcDbLine
 10
435.2385140011028
 20
636.9503411068689
 30
0.0
 11
394.0609455423891
 21
647.9992617583853
 31
0.0
  0
ARC
  5
24B
330
1F
100
AcDbEntity
  8
LAY-10
  6
CONTINUOUS
 62
     7
100
AcDbCircle
 10
394.1131218604017
 20
624.2665576120313
 30
0.0
 40
2.0
100
AcDbArc
 50
4.624107075257752
 51
72.8573227692632
  0
ARC
  5
24C
330
1F
100
AcDbEntity
  8
LAY-10
  6
CONTINUOUS
 62
     7
100
AcDbCircle
 10
395.8816349035301
 20
630.0000000000111
 30
0.0
 40
4.0
100
AcDbArc
 50
107.1426772307367
 51
252.8573227692532
  0
ARC
  5
24D
330
1F
100
AcDbEntity
  8
LAY-10
  6
CONTINUOUS
 62
     7
100
AcDbCircle
 10
464.9999999999899
 20
630.0000000000078
 30
0.0
 40
69.11836509645775
100
AcDbArc
 50
184.6241070752614
 51
184.9799775084798
  0
ARC
  5
24E
330
1F
100
AcDbEntity
  8
LAY-10
  6
CONTINUOUS
 62
     7
100
AcDbCircle
 10
394.113121860402
 20
635.7334423879912
 30
0.0
 40
2.0
100
AcDbArc
 50
287.1426772307467
 51
355.3758929247327
  0
ARC
  5
24F
330
1F
100
AcDbEntity
  8
LAY-10
  6
CONTINUOUS
 62
     7
100
AcDbCircle
 10
464.9999999999899
 20
630.0000000000078
 30
0.0
 40
69.11836509645775
100
AcDbArc
 50
175.0200224915206
 51
175.3758929247336
  0
LINE
  5
250
330
1F
100
AcDbEntity
  8
LAY-10
  6
CONTINUOUS
 62
     7
100
AcDbLine
 10
392.1829839142961
 20
637.3488121190425
 30
0.0
 11
434.6561945616818
 21
633.6478434568699
 31
0.0
  0
LINE
  5
251
330
1F
100
AcDbEntity
  8
LAY-10
  6
CONTINUOUS
 62
     7
100
AcDbLine
 10
434.6561945616818
 20
626.3521565431458
 30
0.0
 11
392.1829839142961
 21
622.6511878809731
 31
0.0
  0
ARC
  5
252
330
1F
100
AcDbEntity
  8
LAY-10
  6
CONTINUOUS
 62
     7
100
AcDbCircle
 10
434.3383341006386
 20
630.0000000000078
 30
0.0
 40
3.66166589935055
100
AcDbArc
 50
274.979977508482
 51
85.0200224915218
  0
ARC
  5
253
330
1F
100
AcDbEntity
  8
LAY-10
  6
CONTINUOUS
 62
     7
100
AcDbCircle
 10
434.3383341006386
 20
630.0000000000078
 30
0.0
 40
2.66166589935055
100
AcDbArc
 50
274.9799775084822
 51
85.02002249151795
  0
LINE
  5
254
330
1F
100
AcDbEntity
  8
LAY-10
  6
CONTINUOUS
 62
     7
100
AcDbLine
 10
434.5693869528556
 20
632.6516183623004
 30
0.0
 11
392.0961763054699
 21
636.352587024473
 31
0.0
  0
LINE
  5
255
330
1F
100
AcDbEntity
  8
LAY-10
  6
CONTINUOUS
 62
     7
100
AcDbLine
 10
434.5693869528556
 20
627.3483816377153
 30
0.0
 11
392.0961763054701
 21
623.6474129755426
 31
0.0
  0
ARC
  5
256
330
1F
100
AcDbEntity
  8
LAY-10
  6
CONTINUOUS
 62
     7
100
AcDbCircle
 10
464.9999999999901
 20
630.0000000000078
 30
0.0
 40
69.11836509645775
100
AcDbArc
 50
295.0200224915204
 51
295.3758929247347
  0
ARC
  5
257
330
1F
100
AcDbEntity
  8
LAY-10
  6
CONTINUOUS
 62
     7
100
AcDbCircle
 10
464.9999999999901
 20
630.0000000000078
 30
0.0
 40
69.11836509645775
100
AcDbArc
 50
304.6241070752624
 51
304.9799775084797
  0
ARC
  5
258
330
1F
100
AcDbEntity
  8
LAY-10
  6
CONTINUOUS
 62
     7
100
AcDbCircle
 10
505.4087458289093
 20
571.4768839301394
 30
0.0
 40
2.0
100
AcDbArc
 50
124.624107075261
 51
192.8573227692585
  0
ARC
  5
259
330
1F
100
AcDbEntity
  8
LAY-10
  6
CONTINUOUS
 62
     7
100
AcDbCircle
 10
495.4781323106586
 20
565.7434415421598
 30
0.0
 40
2.0
100
AcDbArc
 50
47.14267723073768
 51
115.3758929247345
  0
ARC
  5
25A
330
1F
100
AcDbEntity
  8
LAY-10
  6
CONTINUOUS
 62
     7
100
AcDbCircle
 10
499.55918254822
 20
570.1417399584225
 30
0.0
 40
4.0
100
AcDbArc
 50
227.1426772307389
 51
12.85732276925512
  0
ARC
  5
25B
330
1F
100
AcDbEntity
  8
LAY-10
  6
CONTINUOUS
 62
     7
100
AcDbCircle
 10
464.9999999999901
 20
630.0000000000078
 30
0.0
 40
69.11836509645775
100
AcDbArc
 50
235.0200224915207
 51
235.3758929247374
  0
ARC
  5
25C
330
1F
100
AcDbEntity
  8
LAY-10
  6
CONTINUOUS
 62
     7
100
AcDbCircle
 10
464.9999999999901
 20
630.0000000000078
 30
0.0
 40
69.11836509645775
100
AcDbArc
 50
244.6241070752654
 51
244.9799775084797
  0
ARC
  5
25D
330
1F
100
AcDbEntity
  8
LAY-10
  6
CONTINUOUS
 62
     7
100
AcDbCircle
 10
434.521867689321
 20
565.7434415421594
 30
0.0
 40
2.0
100
AcDbArc
 50
64.62410707525852
 51
132.8573227692581
  0
ARC
  5
25E
330
1F
100
AcDbEntity
  8
LAY-10
  6
CONTINUOUS
 62
     7
100
AcDbCircle
 10
430.44081745176
 20
570.1417399584225
 30
0.0
 40
4.0
100
AcDbArc
 50
167.142677230737
 51
312.8573227692545
  0
ARC
  5
25F
330
1F
100
AcDbEntity
  8
LAY-10
  6
CONTINUOUS
 62
     7
100
AcDbCircle
 10
424.5912541710708
 20
571.4768839301397
 30
0.0
 40
2.0
100
AcDbArc
 50
347.1426772307348
 51
55.37589292474112
  0
LINE
  5
260
330
1F
100
AcDbEntity
  8
LAY-10
  6
CONTINUOUS
 62
     7
100
AcDbLine
 10
454.99999999999
 20
538.5450930786184
 30
0.0
 11
454.99999999999
 21
561.6088573453684
 31
0.0
  0
LINE
  5
261
330
1F
100
AcDbEntity
  8
LAY-10
  6
CONTINUOUS
 62
     7
100
AcDbLine
 10
474.9999999999902
 20
538.5450930786183
 30
0.0
 11
474.9999999999902
 21
561.6088573453685
 31
0.0
  0
LINE
  5
262
330
1F
100
AcDbEntity
  8
LAY-10
  6
CONTINUOUS
 62
     7
100
AcDbLine
 10
437.7337858849941
 20
616.1939557367559
 30
0.0
 11
399.0878290908402
 21
598.1894892020323
 31
0.0
  0
LINE
  5
263
330
1F
100
AcDbEntity
  8
LAY-10
  6
CONTINUOUS
 62
     7
100
AcDbLine
 10
444.1000850370378
 20
607.7009676240272
 30
0.0
 11
413.9426548390686
 21
577.5646075984664
 31
0.0
  0
ARC
  5
264
330
1F
100
AcDbEntity
  8
LAY-10
  6
CONTINUOUS
 62
     7
100
AcDbCircle
 10
441.5118012210214
 20
610.2910610675568
 30
0.0
 40
3.66166589935055
100
AcDbArc
 50
314.9799775084778
 51
125.0200224915234
  0
LINE
  5
265
330
1F
100
AcDbEntity
  8
LAY-10
  6
CONTINUOUS
 62
     7
100
AcDbLine
 10
404.4952040870091
 20
588.82364097309
 30
0.0
 11
439.4105078847437
 21
613.2897880430218
 31
0.0
  0
LINE
  5
266
330
1F
100
AcDbEntity
  8
LAY-10
  6
CONTINUOUS
 62
     7
100
AcDbLine
 10
452.9872223835074
 20
601.8975719145096
 30
0.0
 11
434.9557499398658
 21
563.2642081824995
 31
0.0
  0
ARC
  5
267
330
1F
100
AcDbEntity
  8
LAY-10
  6
CONTINUOUS
 62
     7
100
AcDbCircle
 10
449.6691670503146
 20
603.4462184088189
 30
0.0
 40
3.66166589935055
100
AcDbArc
 50
334.9799775084774
 51
145.0200224915295
  0
LINE
  5
268
330
1F
100
AcDbEntity
  8
LAY-10
  6
CONTINUOUS
 62
     7
100
AcDbLine
 10
422.2272339744203
 20
570.6130203015342
 30
0.0
 11
446.6689721781646
 21
605.5454153713717
 31
0.0
  0
LINE
  5
269
330
1F
100
AcDbEntity
  8
LAY-10
  6
CONTINUOUS
 62
     7
100
AcDbLine
 10
463.3232780002409
 20
599.48374377977
 30
0.0
 11
459.5926250038212
 21
557.0131301751148
 31
0.0
  0
ARC
  5
26A
330
1F
100
AcDbEntity
  8
LAY-10
  6
CONTINUOUS
 62
     7
100
AcDbCircle
 10
459.6756575923356
 20
599.8041537020567
 30
0.0
 40
3.66166589935055
100
AcDbArc
 50
354.9799775084812
 51
165.020022491528
  0
LINE
  5
26B
330
1F
100
AcDbEntity
  8
LAY-10
  6
CONTINUOUS
 62
     7
100
AcDbLine
 10
445.1182907033107
 20
559.5653458400889
 30
0.0
 11
456.1384289640554
 21
600.7506265171666
 31
0.0
  0
LINE
  5
26C
330
1F
100
AcDbEntity
  8
LAY-10
  6
CONTINUOUS
 62
     7
100
AcDbLine
 10
473.8615710359248
 20
600.7506265171666
 30
0.0
 11
484.8817092966697
 21
559.565345840089
 31
0.0
  0
ARC
  5
26D
330
1F
100
AcDbEntity
  8
LAY-10
  6
CONTINUOUS
 62
     7
100
AcDbCircle
 10
470.3243424076445
 20
599.8041537020569
 30
0.0
 40
3.66166589935055
100
AcDbArc
 50
14.97997750847955
 51
185.0200224915244
  0
LINE
  5
26E
330
1F
100
AcDbEntity
  8
LAY-10
  6
CONTINUOUS
 62
     7
100
AcDbLine
 10
470.4073749961591
 20
557.0131301751148
 30
0.0
 11
466.6767219997395
 21
599.4837437797701
 31
0.0
  0
LINE
  5
26F
330
1F
100
AcDbEntity
  8
LAY-10
  6
CONTINUOUS
 62
     7
100
AcDbLine
 10
483.3310278218155
 20
605.5454153713716
 30
0.0
 11
507.7727660255599
 21
570.6130203015343
 31
0.0
  0
ARC
  5
270
330
1F
100
AcDbEntity
  8
LAY-10
  6
CONTINUOUS
 62
     7
100
AcDbCircle
 10
480.3308329496657
 20
603.4462184088189
 30
0.0
 40
3.66166589935055
100
AcDbArc
 50
34.97997750848254
 51
205.0200224915268
  0
LINE
  5
271
330
1F
100
AcDbEntity
  8
LAY-10
  6
CONTINUOUS
 62
     7
100
AcDbLine
 10
495.0442500601142
 20
563.2642081824998
 30
0.0
 11
477.0127776164728
 21
601.8975719145096
 31
0.0
  0
LINE
  5
272
330
1F
100
AcDbEntity
  8
LAY-10
  6
CONTINUOUS
 62
     7
100
AcDbLine
 10
490.5894921152366
 20
613.2897880430216
 30
0.0
 11
525.5047959129707
 21
588.8236409730904
 31
0.0
  0
ARC
  5
273
330
1F
100
AcDbEntity
  8
LAY-10
  6
CONTINUOUS
 62
     7
100
AcDbCircle
 10
488.4881987789587
 20
610.2910610675568
 30
0.0
 40
3.66166589935055
100
AcDbArc
 50
54.97997750847693
 51
225.0200224915225
  0
LINE
  5
274
330
1F
100
AcDbEntity
  8
LAY-10
  6
CONTINUOUS
 62
     7
100
AcDbLine
 10
516.0573451609115
 20
577.5646075984669
 30
0.0
 11
485.8999149629423
 21
607.7009676240273
 31
0.0
  0
LINE
  5
275
330
1F
100
AcDbEntity
  8
LAY-10
  6
CONTINUOUS
 62
     7
100
AcDbLine
 10
494.7614859988772
 20
623.049658893147
 30
0.0
 11
535.9390544575909
 21
612.0007382416304
 31
0.0
  0
ARC
  5
276
330
1F
100
AcDbEntity
  8
LAY-10
  6
CONTINUOUS
 62
     7
100
AcDbCircle
 10
493.8125411866134
 20
619.5130926345082
 30
0.0
 40
3.66166589935055
100
AcDbArc
 50
74.97997750848238
 51
245.0200224915206
  0
LINE
  5
277
330
1F
100
AcDbEntity
  8
LAY-10
  6
CONTINUOUS
 62
     7
100
AcDbLine
 10
530.9121709091398
 20
598.189489202033
 30
0.0
 11
492.2662141149859
 21
616.1939557367559
 31
0.0
  0
ARC
  5
278
330
1F
100
AcDbEntity
  8
LAY-10
  6
CONTINUOUS
 62
     7
100
AcDbCircle
 10
464.9999999999901
 20
630.0000000000078
 30
0.0
 40
69.11836509645775
100
AcDbArc
 50
215.0200224915204
 51
224.9799775084801
  0
ARC
  5
279
330
1F
100
AcDbEntity
  8
LAY-10
  6
CONTINUOUS
 62
     7
100
AcDbCircle
 10
464.9999999999901
 20
630.0000000000078
 30
0.0
 40
69.11836509645775
100
AcDbArc
 50
255.0200224915203
 51
264.97997750848
  0
ARC
  5
27A
330
1F
100
AcDbEntity
  8
LAY-10
  6
CONTINUOUS
 62
     7
100
AcDbCircle
 10
464.9999999999901
 20
630.0000000000078
 30
0.0
 40
69.11836509645775
100
AcDbArc
 50
275.0200224915203
 51
284.9799775084795
  0
ARC
  5
27B
330
1F
100
AcDbEntity
  8
LAY-10
  6
CONTINUOUS
 62
     7
100
AcDbCircle
 10
464.9999999999901
 20
630.0000000000078
 30
0.0
 40
69.11836509645775
100
AcDbArc
 50
315.0200224915203
 51
324.9799775084796
  0
ARC
  5
27C
330
1F
100
AcDbEntity
  8
LAY-10
  6
CONTINUOUS
 62
     7
100
AcDbCircle
 10
464.9999999999901
 20
630.0000000000078
 30
0.0
 40
69.11836509645775
100
AcDbArc
 50
335.0200224915204
 51
344.97997750848
  0
ARC
  5
27D
330
1F
100
AcDbEntity
  8
LAY-10
  6
CONTINUOUS
 62
     7
100
AcDbCircle
 10
464.9999999999901
 20
630.0000000000078
 30
0.0
 40
73.1800715440005
100
AcDbArc
 50
204.9799775084795
 51
215.0200224915209
  0
ARC
  5
27E
330
1F
100
AcDbEntity
  8
LAY-10
  6
CONTINUOUS
 62
     7
100
AcDbCircle
 10
464.9999999999901
 20
630.0000000000078
 30
0.0
 40
73.1800715440005
100
AcDbArc
 50
224.9799775084801
 51
235.0200224915212
  0
ARC
  5
27F
330
1F
100
AcDbEntity
  8
LAY-10
  6
CONTINUOUS
 62
     7
100
AcDbCircle
 10
464.9999999999901
 20
630.0000000000078
 30
0.0
 40
73.1800715440005
100
AcDbArc
 50
244.9799775084802
 51
255.0200224915203
  0
ARC
  5
280
330
1F
100
AcDbEntity
  8
LAY-10
  6
CONTINUOUS
 62
     7
100
AcDbCircle
 10
464.9999999999901
 20
630.0000000000078
 30
0.0
 40
73.1800715440005
100
AcDbArc
 50
264.97997750848
 51
275.0200224915202
  0
ARC
  5
281
330
1F
100
AcDbEntity
  8
LAY-10
  6
CONTINUOUS
 62
     7
100
AcDbCircle
 10
464.9999999999901
 20
630.0000000000078
 30
0.0
 40
73.1800715440005
100
AcDbArc
 50
284.9799775084797
 51
295.0200224915203
  0
ARC
  5
282
330
1F
100
AcDbEntity
  8
LAY-10
  6
CONTINUOUS
 62
     7
100
AcDbCircle
 10
464.9999999999901
 20
630.0000000000078
 30
0.0
 40
73.1800715440005
100
AcDbArc
 50
304.9799775084795
 51
315.0200224915206
  0
ARC
  5
283
330
1F
100
AcDbEntity
  8
LAY-10
  6
CONTINUOUS
 62
     7
100
AcDbCircle
 10
464.9999999999901
 20
630.0000000000078
 30
0.0
 40
73.1800715440005
100
AcDbArc
 50
324.9799775084796
 51
335.0200224915204
  0
LINE
  5
284
330
1F
100
AcDbEntity
  8
LAY-10
  6
CONTINUOUS
 62
     7
100
AcDbLine
 10
437.3114843659226
 20
617.100411155952
 30
0.0
 11
398.6655275717688
 21
599.0959446212286
 31
0.0
  0
ARC
  5
285
330
1F
100
AcDbEntity
  8
LAY-10
  6
CONTINUOUS
 62
     7
100
AcDbCircle
 10
436.1874588133668
 20
619.5130926345079
 30
0.0
 40
2.66166589935055
100
AcDbArc
 50
294.9799775084776
 51
105.0200224915197
  0
LINE
  5
286
330
1F
100
AcDbEntity
  8
LAY-10
  6
CONTINUOUS
 62
     7
100
AcDbLine
 10
439.9843705456298
 20
612.4708364898506
 30
0.0
 11
405.0690667478955
 21
588.0046894199196
 31
0.0
  0
LINE
  5
287
330
1F
100
AcDbEntity
  8
LAY-10
  6
CONTINUOUS
 62
     7
100
AcDbLine
 10
443.3932254034279
 20
608.4083214664377
 30
0.0
 11
413.235795205459
 21
578.2719614408769
 31
0.0
  0
ARC
  5
288
330
1F
100
AcDbEntity
  8
LAY-10
  6
CONTINUOUS
 62
     7
100
AcDbCircle
 10
441.5118012210214
 20
610.2910610675568
 30
0.0
 40
2.66166589935055
100
AcDbArc
 50
314.9799775084757
 51
125.0200224915265
  0
LINE
  5
289
330
1F
100
AcDbEntity
  8
LAY-10
  6
CONTINUOUS
 62
     7
100
AcDbLine
 10
447.488324613536
 20
604.9721252296016
 30
0.0
 11
423.0465864097918
 21
570.0397301597641
 31
0.0
  0
LINE
  5
28A
330
1F
100
AcDbEntity
  8
LAY-10
  6
CONTINUOUS
 62
     7
100
AcDbLine
 10
452.0810623393097
 20
602.320506867309
 30
0.0
 11
434.0495898956681
 21
563.6871431352988
 31
0.0
  0
ARC
  5
28B
330
1F
100
AcDbEntity
  8
LAY-10
  6
CONTINUOUS
 62
     7
100
AcDbCircle
 10
449.6691670503146
 20
603.4462184088189
 30
0.0
 40
2.66166589935055
100
AcDbArc
 50
334.9799775084719
 51
145.0200224915249
  0
LINE
  5
28C
330
1F
100
AcDbEntity
  8
LAY-10
  6
CONTINUOUS
 62
     7
100
AcDbLine
 10
457.1044451778523
 20
600.4921450387557
 30
0.0
 11
446.0843069171075
 21
559.3068643616783
 31
0.0
  0
LINE
  5
28D
330
1F
100
AcDbEntity
  8
LAY-10
  6
CONTINUOUS
 62
     7
100
AcDbLine
 10
462.3271138202831
 20
599.5712476457953
 30
0.0
 11
458.5964608238635
 21
557.1006340411407
 31
0.0
  0
ARC
  5
28E
330
1F
100
AcDbEntity
  8
LAY-10
  6
CONTINUOUS
 62
     7
100
AcDbCircle
 10
459.6756575923356
 20
599.8041537020567
 30
0.0
 40
2.66166589935055
100
AcDbArc
 50
354.9799775084778
 51
165.0200224915283
  0
LINE
  5
28F
330
1F
100
AcDbEntity
  8
LAY-10
  6
CONTINUOUS
 62
     7
100
AcDbLine
 10
467.6728861796971
 20
599.5712476457953
 30
0.0
 11
471.4035391761167
 21
557.1006340411404
 31
0.0
  0
LINE
  5
290
330
1F
100
AcDbEntity
  8
LAY-10
  6
CONTINUOUS
 62
     7
100
AcDbLine
 10
472.895554822128
 20
600.4921450387559
 30
0.0
 11
483.9156930828727
 21
559.3068643616784
 31
0.0
  0
ARC
  5
291
330
1F
100
AcDbEntity
  8
LAY-10
  6
CONTINUOUS
 62
     7
100
AcDbCircle
 10
470.3243424076445
 20
599.8041537020569
 30
0.0
 40
2.66166589935055
100
AcDbArc
 50
14.97997750847967
 51
185.0200224915226
  0
LINE
  5
292
330
1F
100
AcDbEntity
  8
LAY-10
  6
CONTINUOUS
 62
     7
100
AcDbLine
 10
477.9189376606703
 20
602.3205068673091
 30
0.0
 11
495.9504101043118
 21
563.687143135299
 31
0.0
  0
LINE
  5
293
330
1F
100
AcDbEntity
  8
LAY-10
  6
CONTINUOUS
 62
     7
100
AcDbLine
 10
482.511675386444
 20
604.9721252296018
 30
0.0
 11
506.9534135901882
 21
570.0397301597642
 31
0.0
  0
ARC
  5
294
330
1F
100
AcDbEntity
  8
LAY-10
  6
CONTINUOUS
 62
     7
100
AcDbCircle
 10
480.3308329496657
 20
603.4462184088189
 30
0.0
 40
2.66166589935055
100
AcDbArc
 50
34.97997750847985
 51
205.0200224915241
  0
LINE
  5
295
330
1F
100
AcDbEntity
  8
LAY-10
  6
CONTINUOUS
 62
     7
100
AcDbLine
 10
486.6067745965521
 20
608.4083214664377
 30
0.0
 11
516.7642047945212
 21
578.271961440877
 31
0.0
  0
LINE
  5
296
330
1F
100
AcDbEntity
  8
LAY-10
  6
CONTINUOUS
 62
     7
100
AcDbLine
 10
490.0156294543502
 20
612.4708364898511
 30
0.0
 11
524.9309332520844
 21
588.0046894199196
 31
0.0
  0
ARC
  5
297
330
1F
100
AcDbEntity
  8
LAY-10
  6
CONTINUOUS
 62
     7
100
AcDbCircle
 10
488.4881987789587
 20
610.2910610675568
 30
0.0
 40
2.66166589935055
100
AcDbArc
 50
54.97997750847985
 51
225.0200224915229
  0
LINE
  5
298
330
1F
100
AcDbEntity
  8
LAY-10
  6
CONTINUOUS
 62
     7
100
AcDbLine
 10
492.6885156340572
 20
617.1004111559525
 30
0.0
 11
531.334472428211
 21
599.0959446212289
 31
0.0
  0
LINE
  5
299
330
1F
100
AcDbEntity
  8
LAY-10
  6
CONTINUOUS
 62
     7
100
AcDbLine
 10
494.5023294186898
 20
622.083823572326
 30
0.0
 11
535.6798978774037
 21
611.0349029208093
 31
0.0
  0
ARC
  5
29A
330
1F
100
AcDbEntity
  8
LAY-10
  6
CONTINUOUS
 62
     7
100
AcDbCircle
 10
493.8125411866134
 20
619.5130926345082
 30
0.0
 40
2.66166589935055
100
AcDbArc
 50
74.97997750848054
 51
245.0200224915227
  0
ARC
  5
29B
330
1F
100
AcDbEntity
  8
LAY-10
  6
CONTINUOUS
 62
     7
100
AcDbCircle
 10
464.9999999999903
 20
545.5000000000018
 30
0.0
 40
4.000000000000071
100
AcDbArc
 50
0.0000000000001146
 51
180.0000000000002
  0
ARC
  5
29C
330
1F
100
AcDbEntity
  8
LAY-10
  6
CONTINUOUS
 62
     7
100
AcDbCircle
 10
464.9999999999901
 20
630.0000000000078
 30
0.0
 40
69.11836509645775
100
AcDbArc
 50
64.62410707526551
 51
64.97997750847973
  0
ARC
  5
29D
330
1F
100
AcDbEntity
  8
LAY-10
  6
CONTINUOUS
 62
     7
100
AcDbCircle
 10
464.9999999999901
 20
630.0000000000078
 30
0.0
 40
69.11836509645775
100
AcDbArc
 50
55.02002249152086
 51
55.37589292473815
  0
ARC
  5
29E
330
1F
100
AcDbEntity
  8
LAY-10
  6
CONTINUOUS
 62
     7
100
AcDbCircle
 10
505.4087458289092
 20
688.5231160698764
 30
0.0
 40
2.0
100
AcDbArc
 50
167.1426772307452
 51
235.3758929247402
  0
ARC
  5
29F
330
1F
100
AcDbEntity
  8
LAY-10
  6
CONTINUOUS
 62
     7
100
AcDbCircle
 10
495.4781323106584
 20
694.2565584578559
 30
0.0
 40
2.0
100
AcDbArc
 50
244.624107075266
 51
312.8573227692614
  0
ARC
  5
2A0
330
1F
100
AcDbEntity
  8
LAY-10
  6
CONTINUOUS
 62
     7
100
AcDbCircle
 10
499.55918254822
 20
689.8582600415932
 30
0.0
 40
4.0
100
AcDbArc
 50
347.142677230745
 51
132.8573227692614
  0
ARC
  5
2A1
330
1F
100
AcDbEntity
  8
LAY-10
  6
CONTINUOUS
 62
     7
100
AcDbCircle
 10
464.9999999999901
 20
630.0000000000078
 30
0.0
 40
69.11836509645775
100
AcDbArc
 50
124.6241070752626
 51
124.9799775084798
  0
ARC
  5
2A2
330
1F
100
AcDbEntity
  8
LAY-10
  6
CONTINUOUS
 62
     7
100
AcDbCircle
 10
464.9999999999901
 20
630.0000000000078
 30
0.0
 40
69.11836509645775
100
AcDbArc
 50
115.0200224915204
 51
115.3758929247351
  0
ARC
  5
2A3
330
1F
100
AcDbEntity
  8
LAY-10
  6
CONTINUOUS
 62
     7
100
AcDbCircle
 10
434.521867689321
 20
694.2565584578563
 30
0.0
 40
2.0
100
AcDbArc
 50
227.1426772307447
 51
295.3758929247423
  0
ARC
  5
2A4
330
1F
100
AcDbEntity
  8
LAY-10
  6
CONTINUOUS
 62
     7
100
AcDbCircle
 10
430.44081745176
 20
689.8582600415932
 30
0.0
 40
4.0
100
AcDbArc
 50
47.14267723074575
 51
192.8573227692627
  0
ARC
  5
2A5
330
1F
100
AcDbEntity
  8
LAY-10
  6
CONTINUOUS
 62
     7
100
AcDbCircle
 10
424.5912541710708
 20
688.5231160698759
 30
0.0
 40
2.0
100
AcDbArc
 50
304.62410707526
 51
12.85732276925993
  0
ARC
  5
2A6
330
1F
100
AcDbEntity
  8
LAY-10
  6
CONTINUOUS
 62
     7
100
AcDbCircle
 10
535.8868781395784
 20
624.2665576120313
 30
0.0
 40
2.0
100
AcDbArc
 50
107.1426772307437
 51
175.3758929247424
  0
ARC
  5
2A7
330
1F
100
AcDbEntity
  8
LAY-10
  6
CONTINUOUS
 62
     7
100
AcDbCircle
 10
534.11836509645
 20
630.0000000000113
 30
0.0
 40
4.0
100
AcDbArc
 50
287.1426772307436
 51
72.85732276926343
  0
ARC
  5
2A8
330
1F
100
AcDbEntity
  8
LAY-10
  6
CONTINUOUS
 62
     7
100
AcDbCircle
 10
464.9999999999901
 20
630.0000000000078
 30
0.0
 40
69.11836509645775
100
AcDbArc
 50
355.0200224915203
 51
355.3758929247389
  0
ARC
  5
2A9
330
1F
100
AcDbEntity
  8
LAY-10
  6
CONTINUOUS
 62
     7
100
AcDbCircle
 10
535.8868781395777
 20
635.7334423879913
 30
0.0
 40
2.0
100
AcDbArc
 50
184.6241070752676
 51
252.8573227692596
  0
ARC
  5
2AA
330
1F
100
AcDbEntity
  8
LAY-10
  6
CONTINUOUS
 62
     7
100
AcDbCircle
 10
464.9999999999901
 20
630.0000000000078
 30
0.0
 40
69.11836509645775
100
AcDbArc
 50
4.624107075266691
 51
4.979977508479724
  0
LINE
  5
2AB
330
1F
100
AcDbEntity
  8
LAY-10
  6
CONTINUOUS
 62
     7
100
AcDbLine
 10
454.99999999999
 20
721.4549069213973
 30
0.0
 11
454.99999999999
 21
698.3911426546473
 31
0.0
  0
LINE
  5
2AC
330
1F
100
AcDbEntity
  8
LAY-10
  6
CONTINUOUS
 62
     7
100
AcDbLine
 10
474.9999999999901
 20
721.4549069213973
 30
0.0
 11
474.9999999999901
 21
698.3911426546473
 31
0.0
  0
LINE
  5
2AD
330
1F
100
AcDbEntity
  8
LAY-10
  6
CONTINUOUS
 62
     7
100
AcDbLine
 10
437.7337858849941
 20
643.8060442632597
 30
0.0
 11
399.0878290908402
 21
661.8105107979833
 31
0.0
  0
LINE
  5
2AE
330
1F
100
AcDbEntity
  8
LAY-10
  6
CONTINUOUS
 62
     7
100
AcDbLine
 10
444.1000850370378
 20
652.2990323759888
 30
0.0
 11
413.9426548390687
 21
682.4353924015492
 31
0.0
  0
ARC
  5
2AF
330
1F
100
AcDbEntity
  8
LAY-10
  6
CONTINUOUS
 62
     7
100
AcDbCircle
 10
441.5118012210213
 20
649.7089389324591
 30
0.0
 40
3.66166589935055
100
AcDbArc
 50
234.9799775084794
 51
45.02002249152252
  0
LINE
  5
2B0
330
1F
100
AcDbEntity
  8
LAY-10
  6
CONTINUOUS
 62
     7
100
AcDbLine
 10
404.4952040870091
 20
671.1763590269255
 30
0.0
 11
439.4105078847437
 21
646.7102119569942
 31
0.0
  0
LINE
  5
2B1
330
1F
100
AcDbEntity
  8
LAY-10
  6
CONTINUOUS
 62
     7
100
AcDbLine
 10
452.9872223835072
 20
658.1024280855061
 30
0.0
 11
434.9557499398659
 21
696.7357918175161
 31
0.0
  0
ARC
  5
2B2
330
1F
100
AcDbEntity
  8
LAY-10
  6
CONTINUOUS
 62
     7
100
AcDbCircle
 10
449.6691670503145
 20
656.553781591197
 30
0.0
 40
3.66166589935055
100
AcDbArc
 50
214.9799775084734
 51
25.02002249152103
  0
LINE
  5
2B3
330
1F
100
AcDbEntity
  8
LAY-10
  6
CONTINUOUS
 62
     7
100
AcDbLine
 10
422.2272339744201
 20
689.3869796984814
 30
0.0
 11
446.6689721781647
 21
654.454584628644
 31
0.0
  0
LINE
  5
2B4
330
1F
100
AcDbEntity
  8
LAY-10
  6
CONTINUOUS
 62
     7
100
AcDbLine
 10
463.3232780002409
 20
660.516256220246
 30
0.0
 11
459.5926250038211
 21
702.9868698249007
 31
0.0
  0
ARC
  5
2B5
330
1F
100
AcDbEntity
  8
LAY-10
  6
CONTINUOUS
 62
     7
100
AcDbCircle
 10
459.6756575923356
 20
660.1958462979588
 30
0.0
 40
3.66166589935055
100
AcDbArc
 50
194.979977508474
 51
5.02002249152154
  0
LINE
  5
2B6
330
1F
100
AcDbEntity
  8
LAY-10
  6
CONTINUOUS
 62
     7
100
AcDbLine
 10
445.1182907033107
 20
700.4346541599269
 30
0.0
 11
456.1384289640553
 21
659.2493734828494
 31
0.0
  0
LINE
  5
2B7
330
1F
100
AcDbEntity
  8
LAY-10
  6
CONTINUOUS
 62
     7
100
AcDbLine
 10
473.8615710359248
 20
659.2493734828494
 30
0.0
 11
484.8817092966696
 21
700.4346541599269
 31
0.0
  0
ARC
  5
2B8
330
1F
100
AcDbEntity
  8
LAY-10
  6
CONTINUOUS
 62
     7
100
AcDbCircle
 10
470.3243424076446
 20
660.1958462979588
 30
0.0
 40
3.66166589935055
100
AcDbArc
 50
174.9799775084758
 51
345.0200224915232
  0
LINE
  5
2B9
330
1F
100
AcDbEntity
  8
LAY-10
  6
CONTINUOUS
 62
     7
100
AcDbLine
 10
470.4073749961591
 20
702.9868698249007
 30
0.0
 11
466.6767219997394
 21
660.516256220246
 31
0.0
  0
LINE
  5
2BA
330
1F
100
AcDbEntity
  8
LAY-10
  6
CONTINUOUS
 62
     7
100
AcDbLine
 10
483.3310278218155
 20
654.454584628644
 30
0.0
 11
507.7727660255597
 21
689.3869796984815
 31
0.0
  0
ARC
  5
2BB
330
1F
100
AcDbEntity
  8
LAY-10
  6
CONTINUOUS
 62
     7
100
AcDbCircle
 10
480.3308329496657
 20
656.553781591197
 30
0.0
 40
3.66166589935055
100
AcDbArc
 50
154.979977508476
 51
325.0200224915164
  0
LINE
  5
2BC
330
1F
100
AcDbEntity
  8
LAY-10
  6
CONTINUOUS
 62
     7
100
AcDbLine
 10
495.0442500601141
 20
696.7357918175157
 30
0.0
 11
477.0127776164726
 21
658.1024280855062
 31
0.0
  0
LINE
  5
2BD
330
1F
100
AcDbEntity
  8
LAY-10
  6
CONTINUOUS
 62
     7
100
AcDbLine
 10
490.5894921152366
 20
646.7102119569942
 30
0.0
 11
525.5047959129707
 21
671.1763590269253
 31
0.0
  0
ARC
  5
2BE
330
1F
100
AcDbEntity
  8
LAY-10
  6
CONTINUOUS
 62
     7
100
AcDbCircle
 10
488.4881987789587
 20
649.7089389324591
 30
0.0
 40
3.66166589935055
100
AcDbArc
 50
134.9799775084777
 51
305.0200224915228
  0
LINE
  5
2BF
330
1F
100
AcDbEntity
  8
LAY-10
  6
CONTINUOUS
 62
     7
100
AcDbLine
 10
516.0573451609114
 20
682.4353924015489
 30
0.0
 11
485.8999149629422
 21
652.2990323759888
 31
0.0
  0
LINE
  5
2C0
330
1F
100
AcDbEntity
  8
LAY-10
  6
CONTINUOUS
 62
     7
100
AcDbLine
 10
494.7614859988771
 20
636.9503411068688
 30
0.0
 11
535.9390544575908
 21
647.9992617583854
 31
0.0
  0
ARC
  5
2C1
330
1F
100
AcDbEntity
  8
LAY-10
  6
CONTINUOUS
 62
     7
100
AcDbCircle
 10
493.8125411866133
 20
640.4869073655077
 30
0.0
 40
3.66166589935055
100
AcDbArc
 50
114.9799775084801
 51
285.020022491518
  0
LINE
  5
2C2
330
1F
100
AcDbEntity
  8
LAY-10
  6
CONTINUOUS
 62
     7
100
AcDbLine
 10
530.9121709091398
 20
661.810510797983
 30
0.0
 11
492.2662141149859
 21
643.8060442632597
 31
0.0
  0
LINE
  5
2C3
330
1F
100
AcDbEntity
  8
LAY-10
  6
CONTINUOUS
 62
     7
100
AcDbLine
 10
537.8170160856839
 20
637.3488121190425
 30
0.0
 11
495.343805438298
 21
633.64784345687
 31
0.0
  0
LINE
  5
2C4
330
1F
100
AcDbEntity
  8
LAY-10
  6
CONTINUOUS
 62
     7
100
AcDbLine
 10
495.3438054382981
 20
626.352156543146
 30
0.0
 11
537.8170160856839
 21
622.6511878809732
 31
0.0
  0
ARC
  5
2C5
330
1F
100
AcDbEntity
  8
LAY-10
  6
CONTINUOUS
 62
     7
100
AcDbCircle
 10
495.6616658993414
 20
630.0000000000078
 30
0.0
 40
3.66166589935055
100
AcDbArc
 50
94.97997750848002
 51
265.0200224915184
  0
ARC
  5
2C6
330
1F
100
AcDbEntity
  8
LAY-10
  6
CONTINUOUS
 62
     7
100
AcDbCircle
 10
464.9999999999901
 20
630.0000000000078
 30
0.0
 40
69.11836509645775
100
AcDbArc
 50
135.0200224915202
 51
144.9799775084797
  0
ARC
  5
2C7
330
1F
100
AcDbEntity
  8
LAY-10
  6
CONTINUOUS
 62
     7
100
AcDbCircle
 10
464.9999999999901
 20
630.0000000000078
 30
0.0
 40
69.11836509645775
100
AcDbArc
 50
95.02002249152054
 51
104.9799775084797
  0
ARC
  5
2C8
330
1F
100
AcDbEntity
  8
LAY-10
  6
CONTINUOUS
 62
     7
100
AcDbCircle
 10
464.9999999999901
 20
630.0000000000078
 30
0.0
 40
69.11836509645775
100
AcDbArc
 50
75.02002249152054
 51
84.9799775084798
  0
ARC
  5
2C9
330
1F
100
AcDbEntity
  8
LAY-10
  6
CONTINUOUS
 62
     7
100
AcDbCircle
 10
464.9999999999901
 20
630.0000000000078
 30
0.0
 40
69.11836509645775
100
AcDbArc
 50
35.02002249152068
 51
44.97997750847985
  0
ARC
  5
2CA
330
1F
100
AcDbEntity
  8
LAY-10
  6
CONTINUOUS
 62
     7
100
AcDbCircle
 10
464.9999999999901
 20
630.0000000000078
 30
0.0
 40
69.11836509645775
100
AcDbArc
 50
15.02002249152051
 51
24.97997750847991
  0
ARC
  5
2CB
330
1F
100
AcDbEntity
  8
LAY-10
  6
CONTINUOUS
 62
     7
100
AcDbCircle
 10
464.9999999999901
 20
630.0000000000078
 30
0.0
 40
73.1800715440005
100
AcDbArc
 50
144.9799775084797
 51
155.0200224915208
  0
ARC
  5
2CC
330
1F
100
AcDbEntity
  8
LAY-10
  6
CONTINUOUS
 62
     7
100
AcDbCircle
 10
464.9999999999901
 20
630.0000000000078
 30
0.0
 40
73.1800715440005
100
AcDbArc
 50
124.9799775084798
 51
135.0200224915206
  0
ARC
  5
2CD
330
1F
100
AcDbEntity
  8
LAY-10
  6
CONTINUOUS
 62
     7
100
AcDbCircle
 10
464.9999999999901
 20
630.0000000000078
 30
0.0
 40
73.1800715440005
100
AcDbArc
 50
104.9799775084798
 51
115.0200224915205
  0
ARC
  5
2CE
330
1F
100
AcDbEntity
  8
LAY-10
  6
CONTINUOUS
 62
     7
100
AcDbCircle
 10
464.9999999999901
 20
630.0000000000078
 30
0.0
 40
73.1800715440005
100
AcDbArc
 50
84.97997750848003
 51
95.02002249152054
  0
ARC
  5
2CF
330
1F
100
AcDbEntity
  8
LAY-10
  6
CONTINUOUS
 62
     7
100
AcDbCircle
 10
464.9999999999901
 20
630.0000000000078
 30
0.0
 40
73.1800715440005
100
AcDbArc
 50
64.97997750847973
 51
75.02002249152046
  0
ARC
  5
2D0
330
1F
100
AcDbEntity
  8
LAY-10
  6
CONTINUOUS
 62
     7
100
AcDbCircle
 10
464.9999999999901
 20
630.0000000000078
 30
0.0
 40
73.1800715440005
100
AcDbArc
 50
44.97997750847996
 51
55.02002249152058
  0
ARC
  5
2D1
330
1F
100
AcDbEntity
  8
LAY-10
  6
CONTINUOUS
 62
     7
100
AcDbCircle
 10
464.9999999999901
 20
630.0000000000078
 30
0.0
 40
73.1800715440005
100
AcDbArc
 50
24.97997750847984
 51
35.02002249152081
  0
ARC
  5
2D2
330
1F
100
AcDbEntity
  8
LAY-10
  6
CONTINUOUS
 62
     7
100
AcDbCircle
 10
464.9999999999901
 20
630.0000000000078
 30
0.0
 40
73.1800715440005
100
AcDbArc
 50
4.979977508479724
 51
15.02002249152034
  0
LINE
  5
2D3
330
1F
100
AcDbEntity
  8
LAY-10
  6
CONTINUOUS
 62
     7
100
AcDbLine
 10
437.3114843659228
 20
642.8995888440639
 30
0.0
 11
398.6655275717687
 21
660.904055378787
 31
0.0
  0
ARC
  5
2D4
330
1F
100
AcDbEntity
  8
LAY-10
  6
CONTINUOUS
 62
     7
100
AcDbCircle
 10
436.1874588133666
 20
640.486907365508
 30
0.0
 40
2.66166589935055
100
AcDbArc
 50
254.9799775084805
 51
65.02002249152294
  0
LINE
  5
2D5
330
1F
100
AcDbEntity
  8
LAY-10
  6
CONTINUOUS
 62
     7
100
AcDbLine
 10
439.9843705456298
 20
647.529163510165
 30
0.0
 11
405.0690667478955
 21
671.9953105800961
 31
0.0
  0
LINE
  5
2D6
330
1F
100
AcDbEntity
  8
LAY-10
  6
CONTINUOUS
 62
     7
100
AcDbLine
 10
443.3932254034279
 20
651.5916785335779
 30
0.0
 11
413.2357952054588
 21
681.7280385591386
 31
0.0
  0
ARC
  5
2D7
330
1F
100
AcDbEntity
  8
LAY-10
  6
CONTINUOUS
 62
     7
100
AcDbCircle
 10
441.5118012210213
 20
649.7089389324591
 30
0.0
 40
2.66166589935055
100
AcDbArc
 50
234.9799775084746
 51
45.02002249152098
  0
LINE
  5
2D8
330
1F
100
AcDbEntity
  8
LAY-10
  6
CONTINUOUS
 62
     7
100
AcDbLine
 10
447.488324613536
 20
655.0278747704141
 30
0.0
 11
423.0465864097918
 21
689.9602698402515
 31
0.0
  0
LINE
  5
2D9
330
1F
100
AcDbEntity
  8
LAY-10
  6
CONTINUOUS
 62
     7
100
AcDbLine
 10
452.0810623393097
 20
657.6794931327069
 30
0.0
 11
434.0495898956681
 21
696.3128568647168
 31
0.0
  0
ARC
  5
2DA
330
1F
100
AcDbEntity
  8
LAY-10
  6
CONTINUOUS
 62
     7
100
AcDbCircle
 10
449.6691670503145
 20
656.553781591197
 30
0.0
 40
2.66166589935055
100
AcDbArc
 50
214.9799775084774
 51
25.02002249152498
  0
LINE
  5
2DB
330
1F
100
AcDbEntity
  8
LAY-10
  6
CONTINUOUS
 62
     7
100
AcDbLine
 10
457.1044451778522
 20
659.50785496126
 30
0.0
 11
446.0843069171076
 21
700.693135638337
 31
0.0
  0
LINE
  5
2DC
330
1F
100
AcDbEntity
  8
LAY-10
  6
CONTINUOUS
 62
     7
100
AcDbLine
 10
462.3271138202831
 20
660.4287523542204
 30
0.0
 11
458.5964608238633
 21
702.8993659588754
 31
0.0
  0
ARC
  5
2DD
330
1F
100
AcDbEntity
  8
LAY-10
  6
CONTINUOUS
 62
     7
100
AcDbCircle
 10
459.6756575923356
 20
660.1958462979588
 30
0.0
 40
2.66166589935055
100
AcDbArc
 50
194.9799775084722
 51
5.020022491518676
  0
LINE
  5
2DE
330
1F
100
AcDbEntity
  8
LAY-10
  6
CONTINUOUS
 62
     7
100
AcDbLine
 10
467.6728861796969
 20
660.4287523542204
 30
0.0
 11
471.4035391761166
 21
702.8993659588754
 31
0.0
  0
LINE
  5
2DF
330
1F
100
AcDbEntity
  8
LAY-10
  6
CONTINUOUS
 62
     7
100
AcDbLine
 10
472.895554822128
 20
659.5078549612598
 30
0.0
 11
483.9156930828726
 21
700.6931356383373
 31
0.0
  0
ARC
  5
2E0
330
1F
100
AcDbEntity
  8
LAY-10
  6
CONTINUOUS
 62
     7
100
AcDbCircle
 10
470.3243424076446
 20
660.1958462979588
 30
0.0
 40
2.66166589935055
100
AcDbArc
 50
174.9799775084742
 51
345.0200224915205
  0
LINE
  5
2E1
330
1F
100
AcDbEntity
  8
LAY-10
  6
CONTINUOUS
 62
     7
100
AcDbLine
 10
477.9189376606703
 20
657.6794931327066
 30
0.0
 11
495.9504101043118
 21
696.3128568647165
 31
0.0
  0
LINE
  5
2E2
330
1F
100
AcDbEntity
  8
LAY-10
  6
CONTINUOUS
 62
     7
100
AcDbLine
 10
482.511675386444
 20
655.0278747704137
 30
0.0
 11
506.9534135901882
 21
689.9602698402515
 31
0.0
  0
ARC
  5
2E3
330
1F
100
AcDbEntity
  8
LAY-10
  6
CONTINUOUS
 62
     7
100
AcDbCircle
 10
480.3308329496657
 20
656.553781591197
 30
0.0
 40
2.66166589935055
100
AcDbArc
 50
154.9799775084787
 51
325.0200224915183
  0
LINE
  5
2E4
330
1F
100
AcDbEntity
  8
LAY-10
  6
CONTINUOUS
 62
     7
100
AcDbLine
 10
486.6067745965521
 20
651.5916785335779
 30
0.0
 11
516.7642047945212
 21
681.7280385591386
 31
0.0
  0
LINE
  5
2E5
330
1F
100
AcDbEntity
  8
LAY-10
  6
CONTINUOUS
 62
     7
100
AcDbLine
 10
490.0156294543501
 20
647.529163510165
 30
0.0
 11
524.9309332520844
 21
671.9953105800961
 31
0.0
  0
ARC
  5
2E6
330
1F
100
AcDbEntity
  8
LAY-10
  6
CONTINUOUS
 62
     7
100
AcDbCircle
 10
488.4881987789587
 20
649.7089389324591
 30
0.0
 40
2.66166589935055
100
AcDbArc
 50
134.9799775084791
 51
305.0200224915196
  0
LINE
  5
2E7
330
1F
100
AcDbEntity
  8
LAY-10
  6
CONTINUOUS
 62
     7
100
AcDbLine
 10
492.6885156340572
 20
642.8995888440635
 30
0.0
 11
531.3344724282109
 21
660.9040553787869
 31
0.0
  0
LINE
  5
2E8
330
1F
100
AcDbEntity
  8
LAY-10
  6
CONTINUOUS
 62
     7
100
AcDbLine
 10
494.5023294186898
 20
637.91617642769
 30
0.0
 11
535.6798978774038
 21
648.9650970792067
 31
0.0
  0
ARC
  5
2E9
330
1F
100
AcDbEntity
  8
LAY-10
  6
CONTINUOUS
 62
     7
100
AcDbCircle
 10
493.8125411866133
 20
640.4869073655077
 30
0.0
 40
2.66166589935055
100
AcDbArc
 50
114.9799775084779
 51
285.0200224915197
  0
ARC
  5
2EA
330
1F
100
AcDbEntity
  8
LAY-10
  6
CONTINUOUS
 62
     7
100
AcDbCircle
 10
495.6616658993414
 20
630.0000000000078
 30
0.0
 40
2.66166589935055
100
AcDbArc
 50
94.97997750848216
 51
265.0200224915179
  0
LINE
  5
2EB
330
1F
100
AcDbEntity
  8
LAY-10
  6
CONTINUOUS
 62
     7
100
AcDbLine
 10
495.4306130471244
 20
632.6516183623004
 30
0.0
 11
537.90382369451
 21
636.3525870244731
 31
0.0
  0
LINE
  5
2EC
330
1F
100
AcDbEntity
  8
LAY-10
  6
CONTINUOUS
 62
     7
100
AcDbLine
 10
495.4306130471244
 20
627.3483816377153
 30
0.0
 11
537.9038236945102
 21
623.6474129755427
 31
0.0
  0
ARC
  5
2ED
330
1F
100
AcDbEntity
  8
LAY-10
  6
CONTINUOUS
 62
     7
100
AcDbCircle
 10
464.9999999999903
 20
714.5000000000138
 30
0.0
 40
4.000000000000071
100
AcDbArc
 50
180.0000000000002
 51
0.0000000000001146
  0
LINE
  5
2EE
330
1F
100
AcDbEntity
  8
LAY-10
  6
CONTINUOUS
 62
     7
100
AcDbLine
 10
463.2890843878232
 20
545.9633927678703
 30
0.0
 11
468.4429664198268
 21
537.0366072322065
 31
0.0
  0
LINE
  5
2EF
330
1F
100
AcDbEntity
  8
LAY-10
  6
CONTINUOUS
 62
     7
100
AcDbLine
 10
461.5570335802216
 20
544.9633927678731
 30
0.0
 11
466.7109156122422
 21
536.0366072321799
 31
0.0
  0
CIRCLE
  5
2F0
330
1F
100
AcDbEntity
  8
LAY-10
  6
CONTINUOUS
 62
     7
100
AcDbCircle
 10
464.999999999991
 20
541.0000000000107
 30
0.0
 40
5.25
  0
LINE
  5
2F1
330
1F
100
AcDbEntity
  8
LAY-10
  6
CONTINUOUS
 62
     7
100
AcDbLine
 10
463.2890843878231
 20
723.9633927678705
 30
0.0
 11
468.4429664198267
 21
715.0366072322065
 31
0.0
  0
LINE
  5
2F2
330
1F
100
AcDbEntity
  8
LAY-10
  6
CONTINUOUS
 62
     7
100
AcDbLine
 10
461.5570335802215
 20
722.9633927678731
 30
0.0
 11
466.7109156122422
 21
714.0366072321799
 31
0.0
  0
CIRCLE
  5
2F3
330
1F
100
AcDbEntity
  8
LAY-10
  6
CONTINUOUS
 62
     7
100
AcDbCircle
 10
464.9999999999909
 20
719.0000000000107
 30
0.0
 40
5.25
  0
LINE
  5
2F4
330
1F
100
AcDbEntity
  8
LAY-10
  6
CONTINUOUS
 62
     7
100
AcDbLine
 10
372.8635828200796
 20
634.0000000000078
 30
0.0
 11
373.0869976553819
 21
634.0000000000078
 31
0.0
  0
ARC
  5
2F5
330
1F
100
AcDbEntity
  8
LAY-10
  6
CONTINUOUS
 62
     7
100
AcDbCircle
 10
373.2156791119356
 20
636.2959065366964
 30
0.0
 40
2.0
100
AcDbArc
 50
176.0759670921674
 51
266.6987595682479
  0
LINE
  5
2F6
330
1F
100
AcDbEntity
  8
LAY-10
  6
CONTINUOUS
 62
     7
100
AcDbLine
 10
372.8635828200796
 20
626.0000000000126
 30
0.0
 11
373.0869976553817
 21
626.0000000000126
 31
0.0
  0
ARC
  5
2F7
330
1F
100
AcDbEntity
  8
LAY-10
  6
CONTINUOUS
 62
     7
100
AcDbCircle
 10
373.2156791119357
 20
623.704093463324
 30
0.0
 40
2.0
100
AcDbArc
 50
93.30124043176197
 51
183.924032907836
  0
LINE
  5
2F8
330
1F
100
AcDbEntity
  8
LAY-10
  6
CONTINUOUS
 62
     7
100
AcDbLine
 10
458.9999999999939
 20
538.0156569260363
 30
0.0
 11
458.9999999999937
 21
538.1958606597794
 31
0.0
  0
ARC
  5
2F9
330
1F
100
AcDbEntity
  8
LAY-10
  6
CONTINUOUS
 62
     7
100
AcDbCircle
 10
456.6352791764522
 20
538.3810530209912
 30
0.0
 40
2.0
100
AcDbArc
 50
264.7834132407656
 51
355.406205716765
  0
LINE
  5
2FA
330
1F
100
AcDbEntity
  8
LAY-10
  6
CONTINUOUS
 62
     7
100
AcDbLine
 10
470.9999999999886
 20
538.0156569260363
 30
0.0
 11
470.9999999999885
 21
538.1958606597796
 31
0.0
  0
ARC
  5
2FB
330
1F
100
AcDbEntity
  8
LAY-10
  6
CONTINUOUS
 62
     7
100
AcDbCircle
 10
473.3647208235301
 20
538.3810530209912
 30
0.0
 40
2.0
100
AcDbArc
 50
184.5937942832302
 51
275.2165867592344
  0
LINE
  5
2FC
330
1F
100
AcDbEntity
  8
LAY-10
  6
CONTINUOUS
 62
     7
100
AcDbLine
 10
557.1364171799028
 20
626.0000000000126
 30
0.0
 11
556.9130023445991
 21
626.0000000000126
 31
0.0
  0
ARC
  5
2FD
330
1F
100
AcDbEntity
  8
LAY-10
  6
CONTINUOUS
 62
     7
100
AcDbCircle
 10
556.7843208880465
 20
623.704093463324
 30
0.0
 40
2.0
100
AcDbArc
 50
356.0759670921658
 51
86.69875956828209
  0
LINE
  5
2FE
330
1F
100
AcDbEntity
  8
LAY-10
  6
CONTINUOUS
 62
     7
100
AcDbLine
 10
557.1364171799028
 20
634.0000000000078
 30
0.0
 11
556.9130023445989
 21
634.0000000000078
 31
0.0
  0
ARC
  5
2FF
330
1F
100
AcDbEntity
  8
LAY-10
  6
CONTINUOUS
 62
     7
100
AcDbCircle
 10
556.7843208880465
 20
636.2959065366964
 30
0.0
 40
2.0
100
AcDbArc
 50
273.3012404317113
 51
3.924032907834373
  0
LINE
  5
300
330
1F
100
AcDbEntity
  8
LAY-10
  6
CONTINUOUS
 62
     7
100
AcDbLine
 10
470.9999999999886
 20
721.9843430739838
 30
0.0
 11
470.9999999999886
 21
721.804139340236
 31
0.0
  0
ARC
  5
301
330
1F
100
AcDbEntity
  8
LAY-10
  6
CONTINUOUS
 62
     7
100
AcDbCircle
 10
473.3647208235301
 20
721.618946979029
 30
0.0
 40
2.0
100
AcDbArc
 50
84.78341324076574
 51
175.4062057168997
  0
LINE
  5
302
330
1F
100
AcDbEntity
  8
LAY-10
  6
CONTINUOUS
 62
     7
100
AcDbLine
 10
458.9999999999939
 20
721.984343073984
 30
0.0
 11
458.9999999999939
 21
721.8041393402361
 31
0.0
  0
ARC
  5
303
330
1F
100
AcDbEntity
  8
LAY-10
  6
CONTINUOUS
 62
     7
100
AcDbCircle
 10
456.6352791764522
 20
721.618946979029
 30
0.0
 40
2.0
100
AcDbArc
 50
4.593794283102722
 51
95.21658675923432
  0
CIRCLE
  5
304
330
1F
100
AcDbEntity
  8
LAY-10
  6
CONTINUOUS
 62
     7
100
AcDbCircle
 10
398.9999999999118
 20
630.0000000000584
 30
0.0
 40
3.999999999999943
  0
LINE
  5
305
330
1F
100
AcDbEntity
  8
LAY-10
  6
CONTINUOUS
 62
     7
100
AcDbLine
 10
399.749999999912
 20
633.9290584114337
 30
0.0
 11
399.7499999999122
 21
626.0709415886834
 31
0.0
  0
LINE
  5
306
330
1F
100
AcDbEntity
  8
LAY-10
  6
CONTINUOUS
 62
     7
100
AcDbLine
 10
398.2499999999118
 20
633.9290584114339
 30
0.0
 11
398.2499999999118
 21
626.0709415886831
 31
0.0
  0
ARC
  5
307
330
1F
100
AcDbEntity
  8
LAY-10
  6
CONTINUOUS
 62
     7
100
AcDbCircle
 10
398.9999999999118
 20
630.0000000000584
 30
0.0
 40
3.499999999999887
100
AcDbArc
 50
282.3736251161946
 51
77.62637488380324
  0
ARC
  5
308
330
1F
100
AcDbEntity
  8
LAY-10
  6
CONTINUOUS
 62
     7
100
AcDbCircle
 10
398.9999999999118
 20
630.0000000000584
 30
0.0
 40
3.499999999999887
100
AcDbArc
 50
102.3736251161909
 51
257.6263748838112
  0
CIRCLE
  5
309
330
1F
100
AcDbEntity
  8
LAY-10
  6
CONTINUOUS
 62
     7
100
AcDbCircle
 10
497.999999999987
 20
572.8423233501452
 30
0.0
 40
3.999999999999943
  0
LINE
  5
30A
330
1F
100
AcDbEntity
  8
LAY-10
  6
CONTINUOUS
 62
     7
100
AcDbLine
 10
494.2223356027829
 20
571.527313197296
 30
0.0
 11
501.0276643971906
 21
575.4563716086714
 31
0.0
  0
LINE
  5
30B
330
1F
100
AcDbEntity
  8
LAY-10
  6
CONTINUOUS
 62
     7
100
AcDbLine
 10
494.9723356027829
 20
570.2282750916191
 30
0.0
 11
501.777664397191
 21
574.1573335029946
 31
0.0
  0
ARC
  5
30C
330
1F
100
AcDbEntity
  8
LAY-10
  6
CONTINUOUS
 62
     7
100
AcDbCircle
 10
497.999999999987
 20
572.8423233501452
 30
0.0
 40
3.499999999999887
100
AcDbArc
 50
42.37362511619457
 51
197.6263748838032
  0
ARC
  5
30D
330
1F
100
AcDbEntity
  8
LAY-10
  6
CONTINUOUS
 62
     7
100
AcDbCircle
 10
497.999999999987
 20
572.8423233501452
 30
0.0
 40
3.499999999999887
100
AcDbArc
 50
222.3736251161908
 51
17.62637488381112
  0
CIRCLE
  5
30E
330
1F
100
AcDbEntity
  8
LAY-10
  6
CONTINUOUS
 62
     7
100
AcDbCircle
 10
497.999999999987
 20
687.157676649875
 30
0.0
 40
3.999999999999943
  0
LINE
  5
30F
330
1F
100
AcDbEntity
  8
LAY-10
  6
CONTINUOUS
 62
     7
100
AcDbLine
 10
494.2223356027829
 20
688.4726868027242
 30
0.0
 11
501.0276643971906
 21
684.5436283913489
 31
0.0
  0
LINE
  5
310
330
1F
100
AcDbEntity
  8
LAY-10
  6
CONTINUOUS
 62
     7
100
AcDbLine
 10
494.9723356027829
 20
689.7717249084011
 30
0.0
 11
501.777664397191
 21
685.8426664970257
 31
0.0
  0
ARC
  5
311
330
1F
100
AcDbEntity
  8
LAY-10
  6
CONTINUOUS
 62
     7
100
AcDbCircle
 10
497.999999999987
 20
687.157676649875
 30
0.0
 40
3.499999999999887
100
AcDbArc
 50
162.3736251161966
 51
317.6263748838057
  0
ARC
  5
312
330
1F
100
AcDbEntity
  8
LAY-10
  6
CONTINUOUS
 62
     7
100
AcDbCircle
 10
497.999999999987
 20
687.157676649875
 30
0.0
 40
3.499999999999887
100
AcDbArc
 50
342.373625116189
 51
137.6263748838096
  0
LINE
  5
313
330
1F
100
AcDbEntity
  8
LAY-10
  6
CONTINUOUS
 62
     7
100
AcDbLine
 10
539.11536261807
 20
139.23530542197
 30
0.0
 11
539.98130336315
 21
139.46733354531
 31
0.0
  0
LINE
  5
314
330
1F
100
AcDbEntity
  8
LAY-10
  6
CONTINUOUS
 62
     7
100
AcDbLine
 10
390.88463738191
 20
139.23530542197
 30
0.0
 11
390.0186966368299
 21
139.46733354531
 31
0.0
  0
LINE
  5
315
330
1F
100
AcDbEntity
  8
LAY-10
  6
CONTINUOUS
 62
     7
100
AcDbLine
 10
547.6291010452699
 20
141.5248850073205
 30
0.0
 11
653.9999999999907
 21
170.026881480412
 31
0.0
  0
LINE
  5
316
330
1F
100
AcDbEntity
  8
LAY-10
  6
CONTINUOUS
 62
     7
100
AcDbLine
 10
382.3708989547101
 20
141.5248850073205
 30
0.0
 11
275.9999999999893
 21
170.026881480412
 31
0.0
  0
LINE
  5
317
330
1F
100
AcDbEntity
  8
LAY-10
  6
CONTINUOUS
 62
     7
100
AcDbLine
 10
551.4999999999891
 20
152.7243870479501
 30
0.0
 11
551.4999999999891
 21
142.5620892562221
 31
0.0
  0
LINE
  5
318
330
1F
100
AcDbEntity
  8
LAY-10
  6
CONTINUOUS
 62
     7
100
AcDbLine
 10
556.4999999999891
 20
152.7243870479501
 30
0.0
 11
556.4999999999891
 21
143.9018352183778
 31
0.0
  0
LINE
  5
319
330
1F
100
AcDbEntity
  8
LAY-10
  6
CONTINUOUS
 62
     7
100
AcDbLine
 10
602.4999999999903
 20
158.72438704795
 30
0.0
 11
601.8549857837284
 21
156.9410271225266
 31
0.0
  0
ARC
  5
31A
330
1F
100
AcDbEntity
  8
LAY-10
  6
CONTINUOUS
 62
     7
100
AcDbCircle
 10
599.9742229215162
 20
157.6212705025927
 30
0.0
 40
2.0
100
AcDbArc
 50
285.0000000000012
 51
340.1157117446435
  0
LINE
  5
31B
330
1F
100
AcDbEntity
  8
LAY-10
  6
CONTINUOUS
 62
     7
100
AcDbLine
 10
327.4999999999903
 20
158.72438704795
 30
0.0
 11
328.1450142162523
 21
156.9410271225266
 31
0.0
  0
ARC
  5
31C
330
1F
100
AcDbEntity
  8
LAY-10
  6
CONTINUOUS
 62
     7
100
AcDbCircle
 10
330.0257770784644
 20
157.6212705025927
 30
0.0
 40
2.0
100
AcDbArc
 50
199.8842882553566
 51
254.9999999999989
  0
ARC
  5
31D
330
1F
100
AcDbEntity
  8
LAY-10
  6
CONTINUOUS
 62
     7
100
AcDbCircle
 10
558.4367911453351
 20
153.7243870479501
 30
0.0
 40
1.0
100
AcDbArc
 50
270.0
 51
353.6432037462217
  0
ARC
  5
31E
330
1F
100
AcDbEntity
  8
LAY-10
  6
CONTINUOUS
 62
     7
100
AcDbCircle
 10
545.4489645667066
 20
151.7243870479501
 30
0.0
 40
1.0
100
AcDbArc
 50
90.00000000000001
 51
177.0000000000009
  0
ARC
  5
31F
330
1F
100
AcDbEntity
  8
LAY-10
  6
CONTINUOUS
 62
     7
100
AcDbCircle
 10
565.8381888196191
 20
152.6156524538277
 30
0.0
 40
1.0
100
AcDbArc
 50
187.7284486806117
 51
285.0000000000015
  0
LINE
  5
320
330
1F
100
AcDbEntity
  8
LAY-10
  6
CONTINUOUS
 62
     7
100
AcDbLine
 10
566.0970078647208
 20
151.6497266275384
 30
0.0
 11
592.4999999999912
 21
158.72438704795
 31
0.0
  0
ARC
  5
321
330
1F
100
AcDbEntity
  8
LAY-10
  6
CONTINUOUS
 62
     7
100
AcDbCircle
 10
364.1618111803616
 20
152.6156524538277
 30
0.0
 40
1.0
100
AcDbArc
 50
254.9999999999984
 51
352.2715513193879
  0
ARC
  5
322
330
1F
100
AcDbEntity
  8
LAY-10
  6
CONTINUOUS
 62
     7
100
AcDbCircle
 10
371.9182627473121
 20
150.537317520332
 30
0.0
 40
1.0
100
AcDbArc
 50
186.3567962537784
 51
254.9999999999984
  0
LINE
  5
323
330
1F
100
AcDbEntity
  8
LAY-10
  6
CONTINUOUS
 62
     7
100
AcDbLine
 10
559.900930154821
 20
157.8351066002024
 30
0.0
 11
559.4306428348486
 21
153.6136674956978
 31
0.0
  0
ARC
  5
324
330
1F
100
AcDbEntity
  8
LAY-10
  6
CONTINUOUS
 62
     7
100
AcDbCircle
 10
560.8947818443346
 20
157.72438704795
 30
0.0
 40
1.0
100
AcDbArc
 50
90.00000000000001
 51
173.6432037462217
  0
LINE
  5
325
330
1F
100
AcDbEntity
  8
LAY-10
  6
CONTINUOUS
 62
     7
100
AcDbLine
 10
564.1174607736908
 20
157.8588652629264
 30
0.0
 11
564.8472722692998
 21
152.4811742388513
 31
0.0
  0
ARC
  5
326
330
1F
100
AcDbEntity
  8
LAY-10
  6
CONTINUOUS
 62
     7
100
AcDbCircle
 10
563.1265442233715
 20
157.72438704795
 30
0.0
 40
1.0
100
AcDbArc
 50
7.728448680611711
 51
90.00000000000001
  0
ARC
  5
327
330
1F
100
AcDbEntity
  8
LAY-10
  6
CONTINUOUS
 62
     7
100
AcDbCircle
 10
369.105218155646
 20
157.72438704795
 30
0.0
 40
1.0
100
AcDbArc
 50
6.356796253778279
 51
90.00000000000001
  0
ARC
  5
328
330
1F
100
AcDbEntity
  8
LAY-10
  6
CONTINUOUS
 62
     7
100
AcDbCircle
 10
366.8734557766091
 20
157.72438704795
 30
0.0
 40
1.0
100
AcDbArc
 50
90.00000000000001
 51
172.2715513193884
  0
LINE
  5
329
330
1F
100
AcDbEntity
  8
LAY-10
  6
CONTINUOUS
 62
     7
100
AcDbLine
 10
365.8825392262902
 20
157.8588652629301
 30
0.0
 11
365.1527277306807
 21
152.48117423885
 31
0.0
  0
LINE
  5
32A
330
1F
100
AcDbEntity
  8
LAY-10
  6
CONTINUOUS
 62
     7
100
AcDbLine
 10
370.0990698451598
 20
157.8351066002
 30
0.0
 11
370.9244110577984
 21
150.4265979680798
 31
0.0
  0
LINE
  5
32B
330
1F
100
AcDbEntity
  8
LAY-10
  6
CONTINUOUS
 62
     7
100
AcDbLine
 10
363.902992135259
 20
151.6497266275386
 30
0.0
 11
337.499999999989
 21
158.72438704795
 31
0.0
  0
ARC
  5
32C
330
1F
100
AcDbEntity
  8
LAY-10
  6
CONTINUOUS
 62
     7
100
AcDbCircle
 10
373.6759686972962
 20
150.7480891015101
 30
0.0
 40
1.0
100
AcDbArc
 50
187.4408480616192
 51
270.0
  0
LINE
  5
32D
330
1F
100
AcDbEntity
  8
LAY-10
  6
CONTINUOUS
 62
     7
100
AcDbLine
 10
371.7394420265123
 20
157.8538896069997
 30
0.0
 11
372.6843896095783
 21
150.6185865424604
 31
0.0
  0
ARC
  5
32E
330
1F
100
AcDbEntity
  8
LAY-10
  6
CONTINUOUS
 62
     7
100
AcDbCircle
 10
370.7478629387944
 20
157.72438704795
 30
0.0
 40
1.0
100
AcDbArc
 50
7.440848061619261
 51
90.00000000000001
  0
ARC
  5
32F
330
1F
100
AcDbEntity
  8
LAY-10
  6
CONTINUOUS
 62
     7
100
AcDbCircle
 10
372.4807162551778
 20
157.72438704795
 30
0.0
 40
1.0
100
AcDbArc
 50
90.00000000000001
 51
150.046012373576
  0
ARC
  5
330
330
1F
100
AcDbEntity
  8
LAY-10
  6
CONTINUOUS
 62
     7
100
AcDbCircle
 10
374.4518464070509
 20
157.72438704795
 30
0.0
 40
1.0
100
AcDbArc
 50
3.928417815815521
 51
90.00000000000001
  0
LINE
  5
331
330
1F
100
AcDbEntity
  8
LAY-10
  6
CONTINUOUS
 62
     7
100
AcDbLine
 10
373.6759686972962
 20
149.7480891015101
 30
0.0
 11
374.9309190224192
 21
149.7480891015101
 31
0.0
  0
ARC
  5
332
330
1F
100
AcDbEntity
  8
LAY-10
  6
CONTINUOUS
 62
     7
100
AcDbCircle
 10
374.9309190224192
 20
150.7480891015101
 30
0.0
 40
1.0
100
AcDbArc
 50
270.0
 51
3.928417815815521
  0
ARC
  5
333
330
1F
100
AcDbEntity
  8
LAY-10
  6
CONTINUOUS
 62
     7
100
AcDbCircle
 10
435.6131155880225
 20
150.7480891014891
 30
0.0
 40
1.0
100
AcDbArc
 50
188.0966952884433
 51
270.0
  0
ARC
  5
334
330
1F
100
AcDbEntity
  8
LAY-10
  6
CONTINUOUS
 62
     7
100
AcDbCircle
 10
432.6005147207283
 20
157.72438704795
 30
0.0
 40
1.0
100
AcDbArc
 50
8.096695288443268
 51
90.00000000000001
  0
LINE
  5
335
330
1F
100
AcDbEntity
  8
LAY-10
  6
CONTINUOUS
 62
     7
100
AcDbLine
 10
434.5165949374537
 20
151.3557842561004
 30
0.0
 11
444.7427983926216
 21
151.3557842561004
 31
0.0
  0
ARC
  5
336
330
1F
100
AcDbEntity
  8
LAY-10
  6
CONTINUOUS
 62
     7
100
AcDbCircle
 10
444.7427983926216
 20
152.3557842561004
 30
0.0
 40
1.0
100
AcDbArc
 50
270.0
 51
351.0067948693071
  0
LINE
  5
337
330
1F
100
AcDbEntity
  8
LAY-10
  6
CONTINUOUS
 62
     7
100
AcDbLine
 10
435.6131155880225
 20
149.7480891014891
 30
0.0
 11
445.7872296543711
 21
149.7480891014891
 31
0.0
  0
ARC
  5
338
330
1F
100
AcDbEntity
  8
LAY-10
  6
CONTINUOUS
 62
     7
100
AcDbCircle
 10
445.7872296543711
 20
150.7480891014891
 30
0.0
 40
1.0
100
AcDbArc
 50
270.0
 51
354.9216380762239
  0
ARC
  5
339
330
1F
100
AcDbEntity
  8
LAY-10
  6
CONTINUOUS
 62
     7
100
AcDbCircle
 10
494.3868844119581
 20
150.7480891014891
 30
0.0
 40
1.0
100
AcDbArc
 50
270.0
 51
351.9033047115572
  0
LINE
  5
33A
330
1F
100
AcDbEntity
  8
LAY-10
  6
CONTINUOUS
 62
     7
100
AcDbLine
 10
495.4834050625269
 20
151.3557842561004
 30
0.0
 11
485.2572016073589
 21
151.3557842561004
 31
0.0
  0
ARC
  5
33B
330
1F
100
AcDbEntity
  8
LAY-10
  6
CONTINUOUS
 62
     7
100
AcDbCircle
 10
485.2572016073589
 20
152.3557842561004
 30
0.0
 40
1.0
100
AcDbArc
 50
188.9932051306924
 51
270.0
  0
LINE
  5
33C
330
1F
100
AcDbEntity
  8
LAY-10
  6
CONTINUOUS
 62
     7
100
AcDbLine
 10
494.3868844119581
 20
149.7480891014891
 30
0.0
 11
484.2127703456095
 21
149.7480891014891
 31
0.0
  0
ARC
  5
33D
330
1F
100
AcDbEntity
  8
LAY-10
  6
CONTINUOUS
 62
     7
100
AcDbCircle
 10
484.2127703456095
 20
150.7480891014891
 30
0.0
 40
1.0
100
AcDbArc
 50
185.0783619237758
 51
270.0
  0
ARC
  5
33E
330
1F
100
AcDbEntity
  8
LAY-10
  6
CONTINUOUS
 62
     7
100
AcDbCircle
 10
534.845563297142
 20
150.7480891014859
 30
0.0
 40
1.0
100
AcDbArc
 50
270.0
 51
351.0472922975437
  0
LINE
  5
33F
330
1F
100
AcDbEntity
  8
LAY-10
  6
CONTINUOUS
 62
     7
100
AcDbLine
 10
531.6804262905838
 20
151.3557842561002
 30
0.0
 11
535.9536317697474
 21
151.3557842561002
 31
0.0
  0
ARC
  5
340
330
1F
100
AcDbEntity
  8
LAY-10
  6
CONTINUOUS
 62
     7
100
AcDbCircle
 10
531.6804262905838
 20
152.3557842561002
 30
0.0
 40
1.0
100
AcDbArc
 50
190.8088751606805
 51
270.0
  0
LINE
  5
341
330
1F
100
AcDbEntity
  8
LAY-10
  6
CONTINUOUS
 62
     7
100
AcDbLine
 10
534.845563297142
 20
149.7480891014859
 30
0.0
 11
527.9356387082292
 21
149.7480891014859
 31
0.0
  0
ARC
  5
342
330
1F
100
AcDbEntity
  8
LAY-10
  6
CONTINUOUS
 62
     7
100
AcDbCircle
 10
527.9356387082292
 20
150.7480891014859
 30
0.0
 40
1.0
100
AcDbArc
 50
180.6680316307942
 51
270.0
  0
ARC
  5
343
330
1F
100
AcDbEntity
  8
LAY-10
  6
CONTINUOUS
 62
     7
100
AcDbCircle
 10
559.2521370611862
 20
157.72438704795
 30
0.0
 40
1.0
100
AcDbArc
 50
90.00000000000001
 51
172.5591519383812
  0
ARC
  5
344
330
1F
100
AcDbEntity
  8
LAY-10
  6
CONTINUOUS
 62
     7
100
AcDbCircle
 10
557.5192837448028
 20
157.72438704795
 30
0.0
 40
1.0
100
AcDbArc
 50
29.953987626424
 51
90.00000000000001
  0
LINE
  5
345
330
1F
100
AcDbEntity
  8
LAY-10
  6
CONTINUOUS
 62
     7
100
AcDbLine
 10
558.2605579734683
 20
157.8538896069997
 30
0.0
 11
557.5906328850141
 21
152.7243870479501
 31
0.0
  0
LINE
  5
346
330
1F
100
AcDbEntity
  8
LAY-10
  6
CONTINUOUS
 62
     7
100
AcDbLine
 10
530.7620388964084
 20
144.7243870479498
 30
0.0
 11
530.4999999999933
 21
139.7243870479498
 31
0.0
  0
LINE
  5
347
330
1F
100
AcDbEntity
  8
LAY-10
  6
CONTINUOUS
 62
     7
100
AcDbLine
 10
409.7352182922727
 20
144.7767230041928
 30
0.0
 11
409.9999999999312
 21
139.72438704795
 31
0.0
  0
ARC
  5
348
330
1F
100
AcDbEntity
  8
LAY-10
  6
CONTINUOUS
 62
     7
100
AcDbCircle
 10
408.7365887575182
 20
144.7243870479499
 30
0.0
 40
1.0
100
AcDbArc
 50
2.999999999998918
 51
90.00000000000001
  0
LINE
  5
349
330
1F
100
AcDbEntity
  8
LAY-10
  6
CONTINUOUS
 62
     7
100
AcDbLine
 10
475.7352182923302
 20
144.7767230041921
 30
0.0
 11
475.9999999999887
 21
139.7243870479499
 31
0.0
  0
ARC
  5
34A
330
1F
100
AcDbEntity
  8
LAY-10
  6
CONTINUOUS
 62
     7
100
AcDbCircle
 10
474.7365887575758
 20
144.7243870479492
 30
0.0
 40
1.0
100
AcDbArc
 50
2.999999999999033
 51
90.00000000000001
  0
LINE
  5
34B
330
1F
100
AcDbEntity
  8
LAY-10
  6
CONTINUOUS
 62
     7
100
AcDbLine
 10
464.9999999999902
 20
145.7243870479492
 30
0.0
 11
474.7365887575758
 21
145.7243870479492
 31
0.0
  0
LINE
  5
34C
330
1F
100
AcDbEntity
  8
LAY-10
  6
CONTINUOUS
 62
     7
100
AcDbLine
 10
464.9999999999902
 20
144.7243870479499
 30
0.0
 11
409.7379611035161
 21
144.7243870479499
 31
0.0
  0
LINE
  5
34D
330
1F
100
AcDbEntity
  8
LAY-10
  6
CONTINUOUS
 62
     7
100
AcDbLine
 10
386.0166604983808
 20
145.7243870479499
 30
0.0
 11
371.6594437022096
 21
149.5713916940429
 31
0.0
  0
LINE
  5
34E
330
1F
100
AcDbEntity
  8
LAY-10
  6
CONTINUOUS
 62
     7
100
AcDbLine
 10
408.7365887575182
 20
145.7243870479499
 30
0.0
 11
386.0166604983802
 21
145.7243870479499
 31
0.0
  0
LINE
  5
34F
330
1F
100
AcDbEntity
  8
LAY-10
  6
CONTINUOUS
 62
     7
100
AcDbLine
 10
329.5081389882593
 20
155.6894188500146
 30
0.0
 11
389.090448818013
 21
139.7243870479499
 31
0.0
  0
LINE
  5
350
330
1F
100
AcDbEntity
  8
LAY-10
  6
CONTINUOUS
 62
     7
100
AcDbLine
 10
540.251288694027
 20
144.7243870479499
 30
0.0
 11
475.7379611035736
 21
144.7243870479499
 31
0.0
  0
LINE
  5
351
330
1F
100
AcDbEntity
  8
LAY-10
  6
CONTINUOUS
 62
     7
100
AcDbLine
 10
600.4918610117213
 20
155.6894188500146
 30
0.0
 11
540.9095511819677
 21
139.7243870479499
 31
0.0
  0
LINE
  5
352
330
1F
100
AcDbEntity
  8
LAY-10
  6
CONTINUOUS
 62
     7
100
AcDbLine
 10
544.1733034744063
 20
146.4906459878459
 30
0.0
 11
544.450335031952
 21
151.7767230041931
 31
0.0
  0
LINE
  5
353
330
1F
100
AcDbEntity
  8
LAY-10
  6
CONTINUOUS
 62
     7
100
AcDbLine
 10
543.4334929847543
 20
145.5770561177998
 30
0.0
 11
540.2512886940304
 21
144.7243870479494
 31
0.0
  0
ARC
  5
354
330
1F
100
AcDbEntity
  8
LAY-10
  6
CONTINUOUS
 62
     7
100
AcDbCircle
 10
543.1746739396517
 20
146.5429819440889
 30
0.0
 40
1.0
100
AcDbArc
 50
285.0000000000012
 51
357.0000000000009
  0
LINE
  5
355
330
1F
100
AcDbEntity
  8
LAY-10
  6
CONTINUOUS
 62
     7
100
AcDbLine
 10
404.4999999999331
 20
139.7243870479498
 30
0.0
 11
404.7647817075915
 21
144.7767230041927
 31
0.0
  0
ARC
  5
356
330
1F
100
AcDbEntity
  8
LAY-10
  6
CONTINUOUS
 62
     7
100
AcDbCircle
 10
405.7634112423461
 20
144.7243870479498
 30
0.0
 40
1.0
100
AcDbArc
 50
90.00000000000001
 51
177.0000000000008
  0
LINE
  5
357
330
1F
100
AcDbEntity
  8
LAY-10
  6
CONTINUOUS
 62
     7
100
AcDbLine
 10
393.4999999999279
 20
139.7243870479498
 30
0.0
 11
393.2352182922695
 21
144.7767230041927
 31
0.0
  0
ARC
  5
358
330
1F
100
AcDbEntity
  8
LAY-10
  6
CONTINUOUS
 62
     7
100
AcDbCircle
 10
392.2365887575149
 20
144.7243870479498
 30
0.0
 40
1.0
100
AcDbArc
 50
2.999999999998918
 51
90.00000000000001
  0
LINE
  5
359
330
1F
100
AcDbEntity
  8
LAY-10
  6
CONTINUOUS
 62
     7
100
AcDbLine
 10
394.9999999999046
 20
152.7243870479498
 30
0.0
 11
375.1599680298158
 21
152.7243870479498
 31
0.0
  0
LINE
  5
35A
330
1F
100
AcDbEntity
  8
LAY-10
  6
CONTINUOUS
 62
     7
100
AcDbLine
 10
394.9999999999046
 20
175.7594689802052
 30
0.0
 11
391.8199284559606
 21
157.7243870479497
 31
0.0
  0
LINE
  5
35B
330
1F
100
AcDbEntity
  8
LAY-10
  6
CONTINUOUS
 62
     7
100
AcDbLine
 10
550.9999999999641
 20
148.7243870479525
 30
0.0
 11
556.9999999999641
 21
148.7243870479525
 31
0.0
  0
LINE
  5
35C
330
1F
100
AcDbEntity
  8
LAY-10
  6
CONTINUOUS
 62
     7
100
AcDbLine
 10
550.9999999999641
 20
160.2243870479504
 30
0.0
 11
550.9999999999641
 21
148.7243870479525
 31
0.0
  0
LINE
  5
35D
330
1F
100
AcDbEntity
  8
LAY-10
  6
CONTINUOUS
 62
     7
100
AcDbLine
 10
556.4999999999641
 20
148.2243870479523
 30
0.0
 11
551.4999999999641
 21
148.2243870479523
 31
0.0
  0
LINE
  5
35E
330
1F
100
AcDbEntity
  8
LAY-10
  6
CONTINUOUS
 62
     7
100
AcDbLine
 10
556.9999999999641
 20
160.2243870479504
 30
0.0
 11
556.9999999999641
 21
148.7243870479525
 31
0.0
  0
LINE
  5
35F
330
1F
100
AcDbEntity
  8
LAY-10
  6
CONTINUOUS
 62
     7
100
AcDbLine
 10
551.4999999999641
 20
148.2243870479523
 30
0.0
 11
550.9999999999641
 21
148.7243870479525
 31
0.0
  0
LINE
  5
360
330
1F
100
AcDbEntity
  8
LAY-10
  6
CONTINUOUS
 62
     7
100
AcDbLine
 10
556.4999999999641
 20
148.2243870479523
 30
0.0
 11
556.9999999999641
 21
148.7243870479525
 31
0.0
  0
ARC
  5
361
330
1F
100
AcDbEntity
  8
LAY-10
  6
CONTINUOUS
 62
     7
100
AcDbCircle
 10
553.9999999999641
 20
157.9243870479503
 30
0.0
 40
6.300000000000002
100
AcDbArc
 50
51.31781254650546
 51
84.53497620009078
  0
ARC
  5
362
330
1F
100
AcDbEntity
  8
LAY-10
  6
CONTINUOUS
 62
     7
100
AcDbCircle
 10
553.9999999999641
 20
157.9243870479503
 30
0.0
 40
6.300000000000002
100
AcDbArc
 50
95.4650237999009
 51
128.6821874535013
  0
LINE
  5
363
330
1F
100
AcDbEntity
  8
LAY-10
  6
CONTINUOUS
 62
     7
100
AcDbLine
 10
554.599999999964
 20
164.1957505360504
 30
0.0
 11
554.599999999964
 21
161.7243870479504
 31
0.0
  0
LINE
  5
364
330
1F
100
AcDbEntity
  8
LAY-10
  6
CONTINUOUS
 62
     7
100
AcDbLine
 10
553.3999999999642
 20
161.7243870479504
 30
0.0
 11
554.599999999964
 21
161.7243870479504
 31
0.0
  0
LINE
  5
365
330
1F
100
AcDbEntity
  8
LAY-10
  6
CONTINUOUS
 62
     7
100
AcDbLine
 10
553.3999999999642
 20
164.1957505360504
 30
0.0
 11
553.3999999999642
 21
161.7243870479504
 31
0.0
  0
LINE
  5
366
330
1F
100
AcDbEntity
  8
LAY-10
  6
CONTINUOUS
 62
     7
100
AcDbLine
 10
548.751865243064
 20
160.2243870479504
 30
0.0
 11
559.2481347568641
 21
160.2243870479504
 31
0.0
  0
ARC
  5
367
330
1F
100
AcDbEntity
  8
LAY-10
  6
CONTINUOUS
 62
     7
100
AcDbCircle
 10
552.2499999999641
 20
160.1101363473501
 30
0.0
 40
3.500000000000002
100
AcDbArc
 50
128.6821874534994
 51
178.1293582693965
  0
ARC
  5
368
330
1F
100
AcDbEntity
  8
LAY-10
  6
CONTINUOUS
 62
     7
100
AcDbCircle
 10
555.7499999999641
 20
160.1101363473501
 30
0.0
 40
3.500000000000002
100
AcDbArc
 50
1.870641730592565
 51
51.31781254650873
  0
LINE
  5
369
330
1F
100
AcDbEntity
  8
LAY-10
  6
CONTINUOUS
 62
     7
100
AcDbLine
 10
436.9999999999615
 20
319.3335936251042
 30
0.0
 11
437.9999999999612
 21
324.889183252391
 31
0.0
  0
ARC
  5
36A
330
1F
100
AcDbEntity
  8
LAY-10
  6
CONTINUOUS
 62
     7
100
AcDbCircle
 10
543.3400319701223
 20
154.7243870479497
 30
0.0
 40
2.0
100
AcDbArc
 50
270.0
 51
357.0000000000027
  0
LINE
  5
36B
330
1F
100
AcDbEntity
  8
LAY-10
  6
CONTINUOUS
 62
     7
100
AcDbLine
 10
556.9999999999518
 20
160.2243870479497
 30
0.0
 11
537.7392540921908
 21
160.2243870479497
 31
0.0
  0
LINE
  5
36C
330
1F
100
AcDbEntity
  8
LAY-10
  6
CONTINUOUS
 62
     7
100
AcDbLine
 10
545.3372910396315
 20
154.6197151354639
 30
0.0
 11
545.6310194481748
 21
160.2243870479497
 31
0.0
  0
ARC
  5
36D
330
1F
100
AcDbEntity
  8
LAY-10
  6
CONTINUOUS
 62
     7
100
AcDbCircle
 10
464.9999999999612
 20
282.2859786069374
 30
0.0
 40
46.43840844101243
100
AcDbArc
 50
9.99999999999834
 51
170.0000000000015
  0
ARC
  5
36E
330
1F
100
AcDbEntity
  8
LAY-10
  6
CONTINUOUS
 62
     7
100
AcDbCircle
 10
464.9999999999612
 20
282.2859786069374
 30
0.0
 40
50.43840844101248
100
AcDbArc
 50
9.999999999998398
 51
170.0000000000015
  0
LINE
  5
36F
330
1F
100
AcDbEntity
  8
LAY-10
  6
CONTINUOUS
 62
     7
100
AcDbLine
 10
406.9999999999046
 20
145.7243870479436
 30
0.0
 11
390.9999999999044
 21
145.7243870479436
 31
0.0
  0
LINE
  5
370
330
1F
100
AcDbEntity
  8
LAY-10
  6
CONTINUOUS
 62
     7
100
AcDbLine
 10
390.9999999999044
 20
145.7243870479436
 30
0.0
 11
390.9999999999044
 21
151.7763870479435
 31
0.0
  0
ARC
  5
371
330
1F
100
AcDbEntity
  8
LAY-10
  6
CONTINUOUS
 62
     7
100
AcDbCircle
 10
392.9999999999043
 20
149.4765902564998
 30
0.0
 40
3.047796791443853
100
AcDbArc
 50
48.98840640768908
 51
131.0115935922868
  0
LINE
  5
372
330
1F
100
AcDbEntity
  8
LAY-10
  6
CONTINUOUS
 62
     7
100
AcDbLine
 10
394.9999999999046
 20
145.7243870479436
 30
0.0
 11
394.9999999999046
 21
151.7763870479435
 31
0.0
  0
LINE
  5
373
330
1F
100
AcDbEntity
  8
LAY-10
  6
CONTINUOUS
 62
     7
100
AcDbLine
 10
392.9999999999043
 20
152.5243870479435
 30
0.0
 11
404.9999999999043
 21
152.5243870479435
 31
0.0
  0
ARC
  5
374
330
1F
100
AcDbEntity
  8
LAY-10
  6
CONTINUOUS
 62
     7
100
AcDbCircle
 10
398.9999999999043
 20
141.4551998821685
 30
0.0
 40
11.06918716577541
100
AcDbArc
 50
68.81604434177254
 51
111.1839556582263
  0
LINE
  5
375
330
1F
100
AcDbEntity
  8
LAY-10
  6
CONTINUOUS
 62
     7
100
AcDbLine
 10
402.9999999999044
 20
145.7243870479436
 30
0.0
 11
402.9999999999044
 21
151.776387047944
 31
0.0
  0
ARC
  5
376
330
1F
100
AcDbEntity
  8
LAY-10
  6
CONTINUOUS
 62
     7
100
AcDbCircle
 10
404.9999999999043
 20
149.4765902564998
 30
0.0
 40
3.047796791443853
100
AcDbArc
 50
48.98840640770083
 51
131.0115935922868
  0
LINE
  5
377
330
1F
100
AcDbEntity
  8
LAY-10
  6
CONTINUOUS
 62
     7
100
AcDbLine
 10
406.9999999999046
 20
145.7243870479436
 30
0.0
 11
406.9999999999046
 21
151.776387047944
 31
0.0
  0
ARC
  5
378
330
1F
100
AcDbEntity
  8
LAY-10
  6
CONTINUOUS
 62
     7
100
AcDbCircle
 10
375.1599680298233
 20
154.7243870479497
 30
0.0
 40
2.0
100
AcDbArc
 50
182.9999999999973
 51
270.0
  0
LINE
  5
379
330
1F
100
AcDbEntity
  8
LAY-10
  6
CONTINUOUS
 62
     7
100
AcDbLine
 10
373.162708960314
 20
154.619715135464
 30
0.0
 11
372.9999999999783
 21
157.7243870479497
 31
0.0
  0
LINE
  5
37A
330
1F
100
AcDbEntity
  8
LAY-10
  6
CONTINUOUS
 62
     7
100
AcDbLine
 10
394.9999999999046
 20
157.7243870479497
 30
0.0
 11
372.9999999999899
 21
157.7243870479497
 31
0.0
  0
LINE
  5
37B
330
1F
100
AcDbEntity
  8
LAY-10
  6
CONTINUOUS
 62
     7
100
AcDbLine
 10
402.9999999999044
 20
182.7512685283837
 30
0.0
 11
402.4999999999039
 21
183.2512685283799
 31
0.0
  0
LINE
  5
37C
330
1F
100
AcDbEntity
  8
LAY-10
  6
CONTINUOUS
 62
     7
100
AcDbLine
 10
402.4999999999046
 20
183.2512685283799
 30
0.0
 11
399.7499999999043
 21
183.2512685283799
 31
0.0
  0
LINE
  5
37D
330
1F
100
AcDbEntity
  8
LAY-10
  6
CONTINUOUS
 62
     7
100
AcDbLine
 10
402.9999999999044
 20
182.7512685283837
 30
0.0
 11
399.7499999999043
 21
182.7512685283837
 31
0.0
  0
LINE
  5
37E
330
1F
100
AcDbEntity
  8
LAY-10
  6
CONTINUOUS
 62
     7
100
AcDbLine
 10
399.7499999999043
 20
180.7512685283835
 30
0.0
 11
399.7499999999043
 21
183.2512685283799
 31
0.0
  0
LINE
  5
37F
330
1F
100
AcDbEntity
  8
LAY-10
  6
CONTINUOUS
 62
     7
100
AcDbLine
 10
398.2499999999043
 20
180.7512685283835
 30
0.0
 11
398.2499999999043
 21
183.2512685283799
 31
0.0
  0
LINE
  5
380
330
1F
100
AcDbEntity
  8
LAY-10
  6
CONTINUOUS
 62
     7
100
AcDbLine
 10
399.7499999999043
 20
180.7512685283835
 30
0.0
 11
398.2499999999043
 21
180.7512685283835
 31
0.0
  0
LINE
  5
381
330
1F
100
AcDbEntity
  8
LAY-10
  6
CONTINUOUS
 62
     7
100
AcDbLine
 10
398.2499999999043
 20
183.2512685283799
 30
0.0
 11
395.4999999999048
 21
183.2512685283799
 31
0.0
  0
LINE
  5
382
330
1F
100
AcDbEntity
  8
LAY-10
  6
CONTINUOUS
 62
     7
100
AcDbLine
 10
398.2499999999043
 20
182.7512685283837
 30
0.0
 11
394.9999999999046
 21
182.7512685283837
 31
0.0
  0
LINE
  5
383
330
1F
100
AcDbEntity
  8
LAY-10
  6
CONTINUOUS
 62
     7
100
AcDbLine
 10
395.4999999999048
 20
183.2512685283799
 30
0.0
 11
394.9999999999046
 21
182.7512685283837
 31
0.0
  0
LINE
  5
384
330
1F
100
AcDbEntity
  8
LAY-10
  6
CONTINUOUS
 62
     7
100
AcDbLine
 10
394.9999999999046
 20
152.5243870479435
 30
0.0
 11
394.9999999999046
 21
182.7512685283837
 31
0.0
  0
LINE
  5
385
330
1F
100
AcDbEntity
  8
LAY-10
  6
CONTINUOUS
 62
     7
100
AcDbLine
 10
415.3278643176558
 20
291.0445163171383
 30
0.0
 11
396.3210063943071
 21
183.2512685283799
 31
0.0
  0
LINE
  5
386
330
1F
100
AcDbEntity
  8
LAY-10
  6
CONTINUOUS
 62
     7
100
AcDbLine
 10
419.2670953297041
 20
290.3499236064707
 30
0.0
 11
400.3827128418501
 21
183.2512685283799
 31
0.0
  0
LINE
  5
387
330
1F
100
AcDbEntity
  8
LAY-10
  6
CONTINUOUS
 62
     7
100
AcDbLine
 10
510.7329046702187
 20
290.3499236064696
 30
0.0
 11
534.9999999999611
 21
152.7243870479498
 31
0.0
  0
LINE
  5
388
330
1F
100
AcDbEntity
  8
LAY-10
  6
CONTINUOUS
 62
     7
100
AcDbLine
 10
514.6721356822666
 20
291.0445163171393
 30
0.0
 11
537.7392540921908
 21
160.2243870479497
 31
0.0
  0
LINE
  5
389
330
1F
100
AcDbEntity
  8
LAY-10
  6
CONTINUOUS
 62
     7
100
AcDbLine
 10
425.3751226749346
 20
157.72438704795
 30
0.0
 11
448.6822467068856
 21
317.5125019785287
 31
0.0
  0
LINE
  5
38A
330
1F
100
AcDbEntity
  8
LAY-10
  6
CONTINUOUS
 62
     7
100
AcDbLine
 10
425.3751226749346
 20
157.72438704795
 30
0.0
 11
435.7674275203445
 21
157.72438704795
 31
0.0
  0
LINE
  5
38B
330
1F
100
AcDbEntity
  8
LAY-10
  6
CONTINUOUS
 62
     7
100
AcDbLine
 10
451.1864619409097
 20
316.9776119083506
 30
0.0
 11
434.0495898956747
 21
157.72438704795
 31
0.0
  0
LINE
  5
38C
330
1F
100
AcDbEntity
  8
LAY-10
  6
CONTINUOUS
 62
     7
100
AcDbLine
 10
452.9042995655796
 20
316.9776119083506
 30
0.0
 11
435.7674275203445
 21
157.72438704795
 31
0.0
  0
ARC
  5
38D
330
1F
100
AcDbEntity
  8
LAY-10
  6
CONTINUOUS
 62
     7
100
AcDbCircle
 10
450.7882384194057
 20
317.2053163654104
 30
0.0
 40
2.128277259690108
100
AcDbArc
 50
353.8581668969653
 51
171.7012081359272
  0
ARC
  5
38E
330
1F
100
AcDbEntity
  8
LAY-10
  6
CONTINUOUS
 62
     7
100
AcDbCircle
 10
449.0704007947357
 20
317.2053163654104
 30
0.0
 40
2.128277259690108
100
AcDbArc
 50
353.8581668969653
 51
66.1981600005672
  0
ARC
  5
38F
330
1F
100
AcDbEntity
  8
LAY-10
  6
CONTINUOUS
 62
     7
100
AcDbCircle
 10
443.3339499134071
 20
317.7783407820605
 30
0.0
 40
1.555252843040876
100
AcDbArc
 50
349.7975453920874
 51
168.2298883848946
  0
ARC
  5
390
330
1F
100
AcDbEntity
  8
LAY-10
  6
CONTINUOUS
 62
     7
100
AcDbCircle
 10
440.4608862509971
 20
317.7783407820605
 30
0.0
 40
1.555252843040876
100
AcDbArc
 50
349.7975453920874
 51
22.53217390641143
  0
ARC
  5
391
330
1F
100
AcDbEntity
  8
LAY-10
  6
CONTINUOUS
 62
     7
100
AcDbCircle
 10
438.5953159848567
 20
318.518932225272
 30
0.0
 40
0.814661399826377
100
AcDbArc
 50
347.0129461298197
 51
166.1938008033775
  0
LINE
  5
392
330
1F
100
AcDbEntity
  8
LAY-10
  6
CONTINUOUS
 62
     7
100
AcDbLine
 10
413.2357952054646
 20
157.72438704795
 30
0.0
 11
441.99154746809
 21
317.5028636609251
 31
0.0
  0
LINE
  5
393
330
1F
100
AcDbEntity
  8
LAY-10
  6
CONTINUOUS
 62
     7
100
AcDbLine
 10
441.8113979238241
 20
318.0955896509302
 30
0.0
 11
408.3954075516343
 21
157.72438704795
 31
0.0
  0
LINE
  5
394
330
1F
100
AcDbEntity
  8
LAY-10
  6
CONTINUOUS
 62
     7
100
AcDbLine
 10
416.1088588678746
 20
157.72438704795
 30
0.0
 11
444.8646111305
 21
317.5028636609251
 31
0.0
  0
LINE
  5
395
330
1F
100
AcDbEntity
  8
LAY-10
  6
CONTINUOUS
 62
     7
100
AcDbLine
 10
402.9999999999344
 20
160.5545306543136
 30
0.0
 11
439.3891390533541
 21
318.3358526461513
 31
0.0
  0
LINE
  5
396
330
1F
100
AcDbEntity
  8
LAY-10
  6
CONTINUOUS
 62
     7
100
AcDbLine
 10
437.8041914027509
 20
318.713341823692
 30
0.0
 11
402.9999999999344
 21
177.0822104246178
 31
0.0
  0
LINE
  5
397
330
1F
100
AcDbEntity
  8
LAY-10
  6
CONTINUOUS
 62
     7
100
AcDbLine
 10
416.1088588678746
 20
157.72438704795
 30
0.0
 11
408.3954075516343
 21
157.72438704795
 31
0.0
  0
LINE
  5
398
330
1F
100
AcDbEntity
  8
LAY-10
  6
CONTINUOUS
 62
     7
100
AcDbLine
 10
458.9518758406847
 20
157.72438704795
 30
0.0
 11
447.1341828045444
 21
157.72438704795
 31
0.0
  0
LINE
  5
399
330
1F
100
AcDbEntity
  8
LAY-10
  6
CONTINUOUS
 62
     7
100
AcDbLine
 10
447.1341828045444
 20
157.72438704795
 30
0.0
 11
457.6123412107146
 21
317.0500706057599
 31
0.0
  0
LINE
  5
39A
330
1F
100
AcDbEntity
  8
LAY-10
  6
CONTINUOUS
 62
     7
100
AcDbLine
 10
462.1388554209844
 20
316.8352955179999
 30
0.0
 11
458.5964608238647
 21
157.72438704795
 31
0.0
  0
LINE
  5
39B
330
1F
100
AcDbEntity
  8
LAY-10
  6
CONTINUOUS
 62
     7
100
AcDbLine
 10
462.4942704378046
 20
316.8352955179999
 30
0.0
 11
458.9518758406847
 21
157.72438704795
 31
0.0
  0
ARC
  5
39C
330
1F
100
AcDbEntity
  8
LAY-10
  6
CONTINUOUS
 62
     7
100
AcDbCircle
 10
479.5751236861362
 20
315.8495091557403
 30
0.0
 40
3.484084469364689
100
AcDbArc
 50
4.023001071122776
 51
182.4713532238484
  0
ARC
  5
39D
330
1F
100
AcDbEntity
  8
LAY-10
  6
CONTINUOUS
 62
     7
100
AcDbCircle
 10
480.5760546464618
 20
315.8495091557403
 30
0.0
 40
3.484084469364689
100
AcDbArc
 50
98.25872507364511
 51
182.4713532238484
  0
ARC
  5
39E
330
1F
100
AcDbEntity
  8
LAY-10
  6
CONTINUOUS
 62
     7
100
AcDbCircle
 10
492.3233440083617
 20
316.5120192070988
 30
0.0
 40
2.821574418005272
100
AcDbArc
 50
72.49461166917129
 51
185.4592494619879
  0
ARC
  5
39F
330
1F
100
AcDbEntity
  8
LAY-10
  6
CONTINUOUS
 62
     7
100
AcDbCircle
 10
494.3324571142069
 20
316.5120192070988
 30
0.0
 40
2.821574418005272
100
AcDbArc
 50
112.0815329806035
 51
185.4592494619879
  0
ARC
  5
3A0
330
1F
100
AcDbEntity
  8
LAY-10
  6
CONTINUOUS
 62
     7
100
AcDbCircle
 10
464.9999999999912
 20
315.6166249182618
 30
0.0
 40
3.716968706841741
100
AcDbArc
 50
0.828265497127127
 51
90.00000000000001
  0
ARC
  5
3A1
330
1F
100
AcDbEntity
  8
LAY-10
  6
CONTINUOUS
 62
     7
100
AcDbCircle
 10
460.050974553278
 20
316.8896922795043
 30
0.0
 40
2.443901345596361
100
AcDbArc
 50
358.7245957101759
 51
176.2373237981229
  0
LINE
  5
3A2
330
1F
100
AcDbEntity
  8
LAY-10
  6
CONTINUOUS
 62
     7
100
AcDbLine
 10
462.4942704378046
 20
316.8352955179999
 30
0.0
 11
462.4942704378046
 21
316.9440890410257
 31
0.0
  0
ARC
  5
3A3
330
1F
100
AcDbEntity
  8
LAY-10
  6
CONTINUOUS
 62
     7
100
AcDbCircle
 10
459.695559536458
 20
316.8896922795043
 30
0.0
 40
2.443901345596361
100
AcDbArc
 50
358.7245957101759
 51
85.83007541696551
  0
LINE
  5
3A4
330
1F
100
AcDbEntity
  8
LAY-10
  6
CONTINUOUS
 62
     7
100
AcDbLine
 10
470.999999999991
 20
157.7243870479497
 30
0.0
 11
468.7165803372385
 21
315.6703553977981
 31
0.0
  0
LINE
  5
3A5
330
1F
100
AcDbEntity
  8
LAY-10
  6
CONTINUOUS
 62
     7
100
AcDbLine
 10
482.9124791265202
 20
157.7243870479497
 30
0.0
 11
476.0942797443814
 21
315.6992758611244
 31
0.0
  0
LINE
  5
3A6
330
1F
100
AcDbEntity
  8
LAY-10
  6
CONTINUOUS
 62
     7
100
AcDbLine
 10
477.095210704707
 20
315.6992758611244
 30
0.0
 11
483.9134100868458
 21
157.7243870479497
 31
0.0
  0
LINE
  5
3A7
330
1F
100
AcDbEntity
  8
LAY-10
  6
CONTINUOUS
 62
     7
100
AcDbLine
 10
494.1887905759511
 20
157.7243870479497
 30
0.0
 11
483.0506232547578
 21
316.0939418421261
 31
0.0
  0
LINE
  5
3A8
330
1F
100
AcDbEntity
  8
LAY-10
  6
CONTINUOUS
 62
     7
100
AcDbLine
 10
504.6644489103531
 20
157.7243870479497
 30
0.0
 11
489.5145679272178
 21
316.2435809044404
 31
0.0
  0
LINE
  5
3A9
330
1F
100
AcDbEntity
  8
LAY-10
  6
CONTINUOUS
 62
     7
100
AcDbLine
 10
491.5236810330626
 20
316.2435809044404
 30
0.0
 11
506.6735620161979
 21
157.7243870479497
 31
0.0
  0
LINE
  5
3AA
330
1F
100
AcDbEntity
  8
LAY-10
  6
CONTINUOUS
 62
     7
100
AcDbLine
 10
513.8569822277809
 20
157.7243870479497
 30
0.0
 11
495.0228924765223
 21
317.7140988770979
 31
0.0
  0
LINE
  5
3AB
330
1F
100
AcDbEntity
  8
LAY-10
  6
CONTINUOUS
 62
     7
100
AcDbLine
 10
521.632300770676
 20
157.7243870479497
 30
0.0
 11
500.5597277028663
 21
312.1528757379027
 31
0.0
  0
LINE
  5
3AC
330
1F
100
AcDbEntity
  8
LAY-10
  6
CONTINUOUS
 62
     7
100
AcDbLine
 10
504.2836716869295
 20
307.0512550505212
 30
0.0
 11
524.660101992409
 21
157.7243870479497
 31
0.0
  0
LINE
  5
3AD
330
1F
100
AcDbEntity
  8
LAY-10
  6
CONTINUOUS
 62
     7
100
AcDbLine
 10
527.632300770676
 20
157.7243870479497
 30
0.0
 11
505.3709804656583
 21
305.2361357910402
 31
0.0
  0
LINE
  5
3AE
330
1F
100
AcDbEntity
  8
LAY-10
  6
CONTINUOUS
 62
     7
100
AcDbLine
 10
509.711424999184
 20
294.8324623006202
 30
0.0
 11
531.7694613543106
 21
157.7243870479497
 31
0.0
  0
LINE
  5
3AF
330
1F
100
AcDbEntity
  8
LAY-10
  6
CONTINUOUS
 62
     7
100
AcDbLine
 10
468.9999999999935
 20
157.7243870479497
 30
0.0
 11
470.999999999991
 21
157.7243870479497
 31
0.0
  0
LINE
  5
3B0
330
1F
100
AcDbEntity
  8
LAY-10
  6
CONTINUOUS
 62
     7
100
AcDbLine
 10
482.9124791265202
 20
157.7243870479497
 30
0.0
 11
494.1887905759511
 21
157.7243870479497
 31
0.0
  0
LINE
  5
3B1
330
1F
100
AcDbEntity
  8
LAY-10
  6
CONTINUOUS
 62
     7
100
AcDbLine
 10
504.6644489103531
 20
157.7243870479497
 30
0.0
 11
513.8569822277809
 21
157.7243870479497
 31
0.0
  0
LINE
  5
3B2
330
1F
100
AcDbEntity
  8
LAY-10
  6
CONTINUOUS
 62
     7
100
AcDbLine
 10
521.632300770676
 20
157.7243870479497
 30
0.0
 11
527.632300770676
 21
157.7243870479497
 31
0.0
  0
LINE
  5
3B3
330
1F
100
AcDbEntity
  8
LAY-10
  6
CONTINUOUS
 62
     7
100
AcDbLine
 10
531.7694613543106
 20
157.7243870479497
 30
0.0
 11
534.118365096449
 21
157.7243870479497
 31
0.0
  0
LINE
  5
3B4
330
1F
100
AcDbEntity
  8
LAY-10
  6
CONTINUOUS
 62
     7
100
AcDbLine
 10
472.9999999999937
 20
145.7243870479489
 30
0.0
 11
472.9999999999937
 21
151.776387047949
 31
0.0
  0
LINE
  5
3B5
330
1F
100
AcDbEntity
  8
LAY-10
  6
CONTINUOUS
 62
     7
100
AcDbLine
 10
468.9999999999935
 20
145.7243870479489
 30
0.0
 11
468.9999999999935
 21
151.776387047949
 31
0.0
  0
ARC
  5
3B6
330
1F
100
AcDbEntity
  8
LAY-10
  6
CONTINUOUS
 62
     7
100
AcDbCircle
 10
470.9999999999935
 20
149.4765902565051
 30
0.0
 40
3.047796791443853
100
AcDbArc
 50
48.98840640770117
 51
131.0115935922942
  0
ARC
  5
3B7
330
1F
100
AcDbEntity
  8
LAY-10
  6
CONTINUOUS
 62
     7
100
AcDbCircle
 10
464.9999999999935
 20
141.4551998821735
 30
0.0
 40
11.06918716577541
100
AcDbArc
 50
68.81604434177123
 51
90.00000000000001
  0
LINE
  5
3B8
330
1F
100
AcDbEntity
  8
LAY-10
  6
CONTINUOUS
 62
     7
100
AcDbLine
 10
464.9999999999956
 20
152.5243870479489
 30
0.0
 11
470.9999999999935
 21
152.5243870479489
 31
0.0
  0
LINE
  5
3B9
330
1F
100
AcDbEntity
  8
LAY-10
  6
CONTINUOUS
 62
     7
100
AcDbLine
 10
468.9999999999935
 20
152.5243870479489
 30
0.0
 11
468.9999999999935
 21
183.1243870479402
 31
0.0
  0
LINE
  5
3BA
330
1F
100
AcDbEntity
  8
LAY-10
  6
CONTINUOUS
 62
     7
100
AcDbLine
 10
468.4999999999937
 20
183.6243870479363
 30
0.0
 11
465.749999999994
 21
183.6243870479363
 31
0.0
  0
LINE
  5
3BB
330
1F
100
AcDbEntity
  8
LAY-10
  6
CONTINUOUS
 62
     7
100
AcDbLine
 10
468.9999999999935
 20
183.1243870479402
 30
0.0
 11
468.4999999999935
 21
183.6243870479363
 31
0.0
  0
LINE
  5
3BC
330
1F
100
AcDbEntity
  8
LAY-10
  6
CONTINUOUS
 62
     7
100
AcDbLine
 10
468.9999999999935
 20
183.1243870479402
 30
0.0
 11
465.749999999994
 21
183.1243870479402
 31
0.0
  0
LINE
  5
3BD
330
1F
100
AcDbEntity
  8
LAY-10
  6
CONTINUOUS
 62
     7
100
AcDbLine
 10
465.749999999994
 20
181.1243870479399
 30
0.0
 11
465.749999999994
 21
183.6243870479363
 31
0.0
  0
LINE
  5
3BE
330
1F
100
AcDbEntity
  8
LAY-10
  6
CONTINUOUS
 62
     7
100
AcDbLine
 10
465.749999999994
 20
181.1243870479399
 30
0.0
 11
464.9999999999956
 21
181.1243870479399
 31
0.0
  0
LINE
  5
3BF
330
1F
100
AcDbEntity
  8
LAY-10
  6
CONTINUOUS
 62
     7
100
AcDbLine
 10
464.9999999999899
 20
152.7243870479498
 30
0.0
 11
402.9999999999044
 21
152.7243870479498
 31
0.0
  0
LINE
  5
3C0
330
1F
100
AcDbEntity
  8
LAY-10
  6
CONTINUOUS
 62
     7
100
AcDbLine
 10
551.4999999999641
 20
152.7243870479498
 30
0.0
 11
468.9999999999935
 21
152.7243870479498
 31
0.0
  0
LINE
  5
3C1
330
1F
100
AcDbEntity
  8
LAY-10
  6
CONTINUOUS
 62
     7
100
AcDbLine
 10
556.9999999999641
 20
158.72438704795
 30
0.0
 11
602.4999999999903
 21
158.72438704795
 31
0.0
  0
LINE
  5
3C2
330
1F
100
AcDbEntity
  8
LAY-10
  6
CONTINUOUS
 62
     7
100
AcDbLine
 10
550.9999999999886
 20
152.7243870479501
 30
0.0
 11
545.4489645667066
 21
152.7243870479501
 31
0.0
  0
LINE
  5
3C3
330
1F
100
AcDbEntity
  8
LAY-10
  6
CONTINUOUS
 62
     7
100
AcDbLine
 10
558.4367911453351
 20
152.7243870479501
 30
0.0
 11
556.4999999999641
 21
152.7243870479501
 31
0.0
  0
LINE
  5
3C4
330
1F
100
AcDbEntity
  8
LAY-10
  6
CONTINUOUS
 62
     7
100
AcDbLine
 10
536.1692393166262
 20
152.7243870479498
 30
0.0
 11
535.833380423262
 21
150.5924699338238
 31
0.0
  0
LINE
  5
3C5
330
1F
100
AcDbEntity
  8
LAY-10
  6
CONTINUOUS
 62
     7
100
AcDbLine
 10
530.5919901281138
 20
152.7243870479498
 30
0.0
 11
530.6981680771505
 21
152.1682507867062
 31
0.0
  0
LINE
  5
3C6
330
1F
100
AcDbEntity
  8
LAY-10
  6
CONTINUOUS
 62
     7
100
AcDbLine
 10
526.9125273375975
 20
152.7243870479498
 30
0.0
 11
526.9357066776976
 21
150.7364300141822
 31
0.0
  0
ARC
  5
3C7
330
1F
100
AcDbEntity
  8
LAY-10
  6
CONTINUOUS
 62
     7
100
AcDbCircle
 10
527.8542959125882
 20
157.72438704795
 30
0.0
 40
1.0
100
AcDbArc
 50
111.262104386196
 51
180.6680316307942
  0
LINE
  5
3C8
330
1F
100
AcDbEntity
  8
LAY-10
  6
CONTINUOUS
 62
     7
100
AcDbLine
 10
524.52364677455
 20
158.72438704795
 30
0.0
 11
527.4813885857503
 21
158.72438704795
 31
0.0
  0
LINE
  5
3C9
330
1F
100
AcDbEntity
  8
LAY-10
  6
CONTINUOUS
 62
     7
100
AcDbLine
 10
506.5779907442619
 20
158.72438704795
 30
0.0
 11
513.7392615972733
 21
158.72438704795
 31
0.0
  0
LINE
  5
3CA
330
1F
100
AcDbEntity
  8
LAY-10
  6
CONTINUOUS
 62
     7
100
AcDbLine
 10
495.6781055474086
 20
152.7243870479498
 30
0.0
 11
495.3769161949428
 21
150.6072449724669
 31
0.0
  0
LINE
  5
3CB
330
1F
100
AcDbEntity
  8
LAY-10
  6
CONTINUOUS
 62
     7
100
AcDbLine
 10
484.2694947217017
 20
152.1994669249269
 30
0.0
 11
484.1864193539972
 21
152.7243870479498
 31
0.0
  0
LINE
  5
3CC
330
1F
100
AcDbEntity
  8
LAY-10
  6
CONTINUOUS
 62
     7
100
AcDbLine
 10
483.0332018285334
 20
152.7243870479498
 30
0.0
 11
483.2166957797937
 21
150.6595709715127
 31
0.0
  0
LINE
  5
3CD
330
1F
100
AcDbEntity
  8
LAY-10
  6
CONTINUOUS
 62
     7
100
AcDbLine
 10
483.8702500667098
 20
158.72438704795
 30
0.0
 11
494.1184603452723
 21
158.72438704795
 31
0.0
  0
LINE
  5
3CE
330
1F
100
AcDbEntity
  8
LAY-10
  6
CONTINUOUS
 62
     7
100
AcDbLine
 10
468.9999999999935
 20
158.72438704795
 30
0.0
 11
470.9855430329244
 21
158.72438704795
 31
0.0
  0
LINE
  5
3CF
330
1F
100
AcDbEntity
  8
LAY-10
  6
CONTINUOUS
 62
     7
100
AcDbLine
 10
445.7305052782789
 20
152.1994669249269
 30
0.0
 11
445.8135806459833
 21
152.7243870479498
 31
0.0
  0
LINE
  5
3D0
330
1F
100
AcDbEntity
  8
LAY-10
  6
CONTINUOUS
 62
     7
100
AcDbLine
 10
447.4633911141783
 20
158.3124355070613
 30
0.0
 11
447.4111330285666
 21
157.72438704795
 31
0.0
  0
LINE
  5
3D1
330
1F
100
AcDbEntity
  8
LAY-10
  6
CONTINUOUS
 62
     7
100
AcDbLine
 10
446.9667981714471
 20
152.7243870479498
 30
0.0
 11
446.7833042201869
 21
150.6595709715127
 31
0.0
  0
LINE
  5
3D2
330
1F
100
AcDbEntity
  8
LAY-10
  6
CONTINUOUS
 62
     7
100
AcDbLine
 10
447.199948462486
 20
158.72438704795
 30
0.0
 11
458.6187245054135
 21
158.72438704795
 31
0.0
  0
ARC
  5
3D3
330
1F
100
AcDbEntity
  8
LAY-10
  6
CONTINUOUS
 62
     7
100
AcDbCircle
 10
447.0864249976498
 20
158.3459353441666
 30
0.0
 40
0.378451703801488
100
AcDbArc
 50
354.9216380762216
 51
72.7224564022992
  0
LINE
  5
3D4
330
1F
100
AcDbEntity
  8
LAY-10
  6
CONTINUOUS
 62
     7
100
AcDbLine
 10
433.590546503713
 20
157.8652311769722
 30
0.0
 11
433.6105833035622
 21
157.72438704795
 31
0.0
  0
LINE
  5
3D5
330
1F
100
AcDbEntity
  8
LAY-10
  6
CONTINUOUS
 62
     7
100
AcDbLine
 10
434.321894452572
 20
152.7243870479498
 30
0.0
 11
434.6230838050378
 21
150.6072449724669
 31
0.0
  0
LINE
  5
3D6
330
1F
100
AcDbEntity
  8
LAY-10
  6
CONTINUOUS
 62
     7
100
AcDbLine
 10
425.5209853634211
 20
158.72438704795
 30
0.0
 11
434.1571975881423
 21
158.72438704795
 31
0.0
  0
LINE
  5
3D7
330
1F
100
AcDbEntity
  8
LAY-10
  6
CONTINUOUS
 62
     7
100
AcDbLine
 10
408.6037740777301
 20
158.72438704795
 30
0.0
 11
413.4157678330186
 21
158.72438704795
 31
0.0
  0
LINE
  5
3D8
330
1F
100
AcDbEntity
  8
LAY-10
  6
CONTINUOUS
 62
     7
100
AcDbLine
 10
327.4999999999904
 20
158.72438704795
 30
0.0
 11
391.9962554366691
 21
158.72438704795
 31
0.0
  0
LINE
  5
3D9
330
1F
100
AcDbEntity
  8
LAY-10
  6
CONTINUOUS
 62
     7
100
AcDbLine
 10
393.8307606833544
 20
152.7243870479498
 30
0.0
 11
393.8622683710735
 21
152.5243870479435
 31
0.0
  0
LINE
  5
3DA
330
1F
100
AcDbEntity
  8
LAY-10
  6
CONTINUOUS
 62
     7
100
AcDbLine
 10
402.9999999999044
 20
152.5243870479435
 30
0.0
 11
402.9999999999044
 21
182.7512685283837
 31
0.0
  0
LINE
  5
3DB
330
1F
100
AcDbEntity
  8
LAY-10
  6
CONTINUOUS
 62
     7
100
AcDbLine
 10
403.0874726623831
 20
152.7243870479498
 30
0.0
 11
403.0851406864191
 21
152.5243870479435
 31
0.0
  0
LINE
  5
3DC
330
1F
100
AcDbEntity
  8
LAY-10
  6
CONTINUOUS
 62
     7
100
AcDbLine
 10
375.4494968286457
 20
157.7928971661196
 30
0.0
 11
375.4542015189762
 21
157.7243870479497
 31
0.0
  0
LINE
  5
3DD
330
1F
100
AcDbEntity
  8
LAY-10
  6
CONTINUOUS
 62
     7
100
AcDbLine
 10
375.7975588548055
 20
152.7243870479498
 30
0.0
 11
375.928569444014
 21
150.8165992196797
 31
0.0
  0
LINE
  5
3DE
330
1F
100
AcDbEntity
  8
LAY-10
  6
CONTINUOUS
 62
     7
100
AcDbLine
 10
393.9891901544187
 20
170.0268814804098
 30
0.0
 11
275.9999999999786
 21
170.0268814804099
 31
0.0
  0
LINE
  5
3DF
330
1F
100
AcDbEntity
  8
LAY-10
  6
CONTINUOUS
 62
     7
100
AcDbLine
 10
654.0000000000014
 20
170.0268814804097
 30
0.0
 11
536.0108098455037
 21
170.0268814804098
 31
0.0
  0
LINE
  5
3E0
330
1F
100
AcDbEntity
  8
LAY-10
  6
CONTINUOUS
 62
     7
100
AcDbLine
 10
402.9999999999053
 20
145.7243870479436
 30
0.0
 11
402.9999999999053
 21
136.7574338481909
 31
0.0
  0
LINE
  5
3E1
330
1F
100
AcDbEntity
  8
LAY-10
  6
CONTINUOUS
 62
     7
100
AcDbLine
 10
394.9999999999052
 20
145.7243870479436
 30
0.0
 11
394.9999999999052
 21
136.7574338481909
 31
0.0
  0
LINE
  5
3E2
330
1F
100
AcDbEntity
  8
LAY-10
  6
CONTINUOUS
 62
     7
100
AcDbLine
 10
394.9999999999052
 20
139.7243870479499
 30
0.0
 11
389.0904488180129
 21
139.7243870479499
 31
0.0
  0
LINE
  5
3E3
330
1F
100
AcDbEntity
  8
LAY-10
  6
CONTINUOUS
 62
     7
100
AcDbLine
 10
540.9095511819703
 20
139.7243870479499
 30
0.0
 11
402.9999999999053
 21
139.7243870479499
 31
0.0
  0
LINE
  5
3E4
330
1F
100
AcDbEntity
  8
LAY-10
  6
CONTINUOUS
 62
     7
100
AcDbLine
 10
525.7757044558383
 20
170.0268814804099
 30
0.0
 11
522.9813624344196
 21
170.0268814804099
 31
0.0
  0
LINE
  5
3E5
330
1F
100
AcDbEntity
  8
LAY-10
  6
CONTINUOUS
 62
     7
100
AcDbLine
 10
512.4087248263753
 20
170.0268814804099
 30
0.0
 11
505.497796975302
 21
170.0268814804099
 31
0.0
  0
LINE
  5
3E6
330
1F
100
AcDbEntity
  8
LAY-10
  6
CONTINUOUS
 62
     7
100
AcDbLine
 10
493.32355330459
 20
170.0268814804099
 30
0.0
 11
483.3824341794193
 21
170.02688148041
 31
0.0
  0
LINE
  5
3E7
330
1F
100
AcDbEntity
  8
LAY-10
  6
CONTINUOUS
 62
     7
100
AcDbLine
 10
470.8221432431426
 20
170.02688148041
 30
0.0
 11
468.9999999999935
 21
170.02688148041
 31
0.0
  0
LINE
  5
3E8
330
1F
100
AcDbEntity
  8
LAY-10
  6
CONTINUOUS
 62
     7
100
AcDbLine
 10
458.870359642165
 20
170.02688148041
 30
0.0
 11
447.9432644452176
 21
170.02688148041
 31
0.0
  0
LINE
  5
3E9
330
1F
100
AcDbEntity
  8
LAY-10
  6
CONTINUOUS
 62
     7
100
AcDbLine
 10
435.3734329331459
 20
170.02688148041
 30
0.0
 11
427.1695975879424
 21
170.02688148041
 31
0.0
  0
LINE
  5
3EA
330
1F
100
AcDbEntity
  8
LAY-10
  6
CONTINUOUS
 62
     7
100
AcDbLine
 10
415.4499074539438
 20
170.02688148041
 30
0.0
 11
410.9588355788389
 21
170.02688148041
 31
0.0
  0
LINE
  5
3EB
330
1F
100
AcDbEntity
  8
LAY-10
  6
CENTER
 62
     2
100
AcDbLine
 10
659.99999999999
 20
630.0000000000101
 30
0.0
 11
269.9999999999897
 21
630.0000000000101
 31
0.0
  0
LINE
  5
3EC
330
1F
100
AcDbEntity
  8
LAY-10
  6
CENTER
 62
     2
100
AcDbLine
 10
464.9999999999899
 20
825.0000000000101
 30
0.0
 11
464.9999999999899
 21
435.0000000000101
 31
0.0
  0
ARC
  5
3ED
330
1F
100
AcDbEntity
  8
LAY-10
  6
CENTER
 62
     2
100
AcDbCircle
 10
310.4999999999899
 20
130.0268814804254
 30
0.0
 40
4.5
100
AcDbArc
 50
270.0
 51
0.0
  0
LINE
  5
3EE
330
1F
100
AcDbEntity
  8
LAY-10
  6
CENTER
 62
     2
100
AcDbLine
 10
314.9999999999895
 20
157.9702571533798
 30
0.0
 11
314.9999999999895
 21
130.0268814804298
 31
0.0
  0
LINE
  5
3EF
330
1F
100
AcDbEntity
  8
LAY-10
  6
CENTER
 62
     2
100
AcDbLine
 10
298.4999999999899
 20
125.5268814804254
 30
0.0
 11
310.4999999999899
 21
125.5268814804254
 31
0.0
  0
LINE
  5
3F0
330
1F
100
AcDbEntity
  8
LAY-10
  6
CENTER
 62
     2
100
AcDbLine
 10
398.9999999999057
 20
182.4461921961299
 30
0.0
 11
398.9999999999057
 21
124.0047967787798
 31
0.0
  0
LINE
  5
3F1
330
1F
100
AcDbEntity
  8
LAY-10
  6
CENTER
 62
     2
100
AcDbLine
 10
464.9999999999899
 20
334.9999999999898
 30
0.0
 11
464.9999999999899
 21
75.02688148040494
 31
0.0
  0
LINE
  5
3F2
330
1F
100
AcDbEntity
  8
LAY-10
  6
CENTER
 62
     2
100
AcDbLine
 10
471.2749374804447
 20
541.0000000000107
 30
0.0
 11
458.7250625195322
 21
541.0000000000108
 31
0.0
  0
LINE
  5
3F3
330
1F
100
AcDbEntity
  8
LAY-10
  6
CENTER
 62
     2
100
AcDbLine
 10
471.2749374804448
 20
719.0000000000113
 30
0.0
 11
458.7250625195321
 21
719.0000000000113
 31
0.0
  0
LINE
  5
3F4
330
1F
100
AcDbEntity
  8
LAY-10
  6
CENTER
 62
     2
100
AcDbLine
 10
464.999999999996
 20
547.2749374804664
 30
0.0
 11
464.999999999996
 21
534.7250625195538
 31
0.0
  0
LINE
  5
3F5
330
1F
100
AcDbEntity
  8
LAY-10
  6
CENTER
 62
     2
100
AcDbLine
 10
464.9999999999959
 20
725.2749374804664
 30
0.0
 11
464.9999999999959
 21
712.7250625195538
 31
0.0
  0
LINE
  5
3F6
330
1F
100
AcDbEntity
  8
LAY-10
  6
CENTER
 62
     2
100
AcDbLine
 10
398.9999999999119
 20
636.0000000000584
 30
0.0
 11
398.999999999912
 21
624.0000000000584
 31
0.0
  0
LINE
  5
3F7
330
1F
100
AcDbEntity
  8
LAY-10
  6
CENTER
 62
     2
100
AcDbLine
 10
492.8038475772804
 20
569.8423233501453
 30
0.0
 11
503.1961524226936
 21
575.8423233501453
 31
0.0
  0
LINE
  5
3F8
330
1F
100
AcDbEntity
  8
LAY-10
  6
CENTER
 62
     2
100
AcDbLine
 10
500.9999999999945
 20
567.6461709274404
 30
0.0
 11
494.9999999999945
 21
578.0384757728536
 31
0.0
  0
LINE
  5
3F9
330
1F
100
AcDbEntity
  8
LAY-10
  6
CENTER
 62
     2
100
AcDbLine
 10
492.8038475772804
 20
690.1576766498749
 30
0.0
 11
503.1961524226936
 21
684.1576766498749
 31
0.0
  0
LINE
  5
3FA
330
1F
100
AcDbEntity
  8
LAY-10
  6
CENTER
 62
     2
100
AcDbLine
 10
500.9999999999945
 20
692.3538290725799
 30
0.0
 11
494.9999999999945
 21
681.9615242271666
 31
0.0
  0
LINE
  5
3FB
330
1F
100
AcDbEntity
  8
LAY-10
  6
CENTER
 62
     2
100
AcDbLine
 10
553.9999999999627
 20
165.5046595212398
 30
0.0
 11
553.9999999999627
 21
141.23196223729
 31
0.0
  0
LINE
  5
3FC
330
1F
100
AcDbEntity
  8
LAY-10
  6
CONTINUOUS
 62
     7
100
AcDbLine
 10
395.4999999999317
 20
130.5268814804194
 30
0.0
 11
395.4999999999317
 21
137.026881480414
 31
0.0
  0
LINE
  5
3FD
330
1F
100
AcDbEntity
  8
LAY-10
  6
CONTINUOUS
 62
     7
100
AcDbLine
 10
402.4999999999324
 20
130.5268814804194
 30
0.0
 11
402.4999999999324
 21
137.026881480414
 31
0.0
  0
LINE
  5
3FE
330
1F
100
AcDbEntity
  8
LAY-10
  6
CONTINUOUS
 62
     7
100
AcDbLine
 10
396.5499999999964
 20
113.0268814804147
 30
0.0
 11
395.7999999999962
 21
89.02688148040676
 31
0.0
  0
LINE
  5
3FF
330
1F
100
AcDbEntity
  8
LAY-10
  6
CONTINUOUS
 62
     7
100
AcDbLine
 10
533.4499999999798
 20
113.0268814804147
 30
0.0
 11
534.19999999998
 21
89.02688148040676
 31
0.0
  0
ARC
  5
400
330
1F
100
AcDbEntity
  8
LAY-10
  6
HIDDEN
 62
     7
100
AcDbCircle
 10
646.3808668507256
 20
158.0268814804097
 30
0.0
 40
3.619133149264371
100
AcDbArc
 50
0.0
 51
104.9999999999991
  0
LINE
  5
401
330
1F
100
AcDbEntity
  8
LAY-10
  6
CONTINUOUS
 62
     7
100
AcDbLine
 10
317.9999999999877
 20
152.0268814804047
 30
0.0
 11
317.4999999999863
 21
152.5268814804056
 31
0.0
  0
LINE
  5
402
330
1F
100
AcDbEntity
  8
LAY-10
  6
CONTINUOUS
 62
     7
100
AcDbLine
 10
311.9999999999886
 20
152.0268814804047
 30
0.0
 11
312.4999999999872
 21
152.5268814804056
 31
0.0
  0
LINE
  5
403
330
1F
100
AcDbEntity
  8
LAY-10
  6
CONTINUOUS
 62
     7
100
AcDbLine
 10
312.4999999999899
 20
151.0268814804198
 30
0.0
 11
312.4999999999899
 21
145.0268814804198
 31
0.0
  0
LINE
  5
404
330
1F
100
AcDbEntity
  8
LAY-10
  6
CONTINUOUS
 62
     7
100
AcDbLine
 10
317.4999999999899
 20
151.0268814804198
 30
0.0
 11
317.4999999999899
 21
145.0268814804198
 31
0.0
  0
LINE
  5
405
330
1F
100
AcDbEntity
  8
LAY-10
  6
CONTINUOUS
 62
     7
100
AcDbLine
 10
317.5000000000081
 20
144.1608560766248
 30
0.0
 11
318.0000000000081
 21
145.0268814804094
 31
0.0
  0
LINE
  5
406
330
1F
100
AcDbEntity
  8
LAY-10
  6
CONTINUOUS
 62
     7
100
AcDbLine
 10
312.4999999999781
 20
144.1608560766284
 30
0.0
 11
311.9999999999781
 21
145.0268814804129
 31
0.0
  0
LINE
  5
407
330
1F
100
AcDbEntity
  8
LAY-10
  6
CONTINUOUS
 62
     7
100
AcDbLine
 10
311.9999999999886
 20
152.0268814804047
 30
0.0
 11
311.9999999999886
 21
150.5268814804298
 31
0.0
  0
LINE
  5
408
330
1F
100
AcDbEntity
  8
LAY-10
  6
CONTINUOUS
 62
     7
100
AcDbLine
 10
317.9999999999877
 20
152.0268814804047
 30
0.0
 11
317.9999999999877
 21
150.5268814804298
 31
0.0
  0
LINE
  5
409
330
1F
100
AcDbEntity
  8
LAY-10
  6
HIDDEN
 62
     7
100
AcDbLine
 10
645.444166264934
 20
161.5226956580632
 30
0.0
 11
557.9972786048727
 21
138.0913727289333
 31
0.0
  0
ARC
  5
40A
330
1F
100
AcDbEntity
  8
LAY-10
  6
HIDDEN
 62
     7
100
AcDbCircle
 10
558.7620748228803
 20
135.1904707166904
 30
0.0
 40
3.0
100
AcDbArc
 50
105.000000000001
 51
173.8395138713131
  0
LINE
  5
40B
330
1F
100
AcDbEntity
  8
LAY-10
  6
HIDDEN
 62
     7
100
AcDbLine
 10
555.7793991958829
 20
135.512411866772
 30
0.0
 11
555.319108281094
 21
131.2479725662307
 31
0.0
  0
LINE
  5
40C
330
1F
100
AcDbEntity
  8
LAY-10
  6
CONTINUOUS
 62
     7
100
AcDbLine
 10
550.9999999999886
 20
152.7243870479501
 30
0.0
 11
550.9999999999886
 21
142.4281146600064
 31
0.0
  0
LINE
  5
40D
330
1F
100
AcDbEntity
  8
LAY-10
  6
CONTINUOUS
 62
     7
100
AcDbLine
 10
556.9999999999893
 20
152.7243870479501
 30
0.0
 11
556.9999999999893
 21
144.0358098145933
 31
0.0
  0
LINE
  5
40E
330
1F
100
AcDbEntity
  8
LAY-10
  6
CONTINUOUS
 62
     7
100
AcDbLine
 10
551.4999999999641
 20
160.2243870479504
 30
0.0
 11
551.4999999999641
 21
148.2243870479523
 31
0.0
  0
LINE
  5
40F
330
1F
100
AcDbEntity
  8
LAY-10
  6
CONTINUOUS
 62
     7
100
AcDbLine
 10
556.4999999999641
 20
160.2243870479504
 30
0.0
 11
556.4999999999641
 21
148.2243870479523
 31
0.0
  0
LINE
  5
410
330
1F
100
AcDbEntity
  8
LAY-10
  6
CONTINUOUS
 62
     7
100
AcDbLine
 10
395.4999999999048
 20
152.5243870479435
 30
0.0
 11
395.4999999999048
 21
183.2512685283799
 31
0.0
  0
LINE
  5
411
330
1F
100
AcDbEntity
  8
LAY-10
  6
CONTINUOUS
 62
     7
100
AcDbLine
 10
402.4999999999046
 20
152.5243870479435
 30
0.0
 11
402.4999999999046
 21
183.2512685283799
 31
0.0
  0
LINE
  5
412
330
1F
100
AcDbEntity
  8
LAY-10
  6
CONTINUOUS
 62
     7
100
AcDbLine
 10
468.4999999999937
 20
152.5243870479489
 30
0.0
 11
468.4999999999937
 21
183.6243870479363
 31
0.0
  0
LINE
  5
413
330
1F
100
AcDbEntity
  8
LAY-10
  6
CONTINUOUS
 62
     7
100
AcDbLine
 10
395.4999999999053
 20
136.2574338481896
 30
0.0
 11
395.4999999999053
 21
145.7243870479436
 31
0.0
  0
LINE
  5
414
330
1F
100
AcDbEntity
  8
LAY-10
  6
CONTINUOUS
 62
     7
100
AcDbLine
 10
402.4999999999059
 20
136.2574338481896
 30
0.0
 11
402.4999999999059
 21
145.7243870479436
 31
0.0
  0
DIMENSION
  5
416
330
1F
100
AcDbEntity
  8
LAY-20
  6
CONTINUOUS
 62
     4
100
AcDbDimension
  2
*D15
 10
684.99999999999
 20
170.0268814804099
 30
0.0
 11
677.49999999999
 21
125.0268814804074
 31
0.0
 70
   160
  3
ISO-25
100
AcDbAlignedDimension
 13
547.49999999999
 23
80.02688148040494
 33
0.0
 14
654.0
 24
170.0268814804099
 34
0.0
 50
90.0
100
AcDbRotatedDimension
1001
ACAD
1000
DSTYLE
1002
{
1070
   270
1070
     2
1070
     6
1000
EX_BNORM
1070
     7
1000
EX_BNORM
1070
    41
1040
7.5
1070
    42
1040
4.5
1070
    44
1040
4.5
1070
    73
1070
     0
1070
    74
1070
     0
1070
    75
1070
     0
1070
    76
1070
     0
1070
    77
1070
     1
1070
    78
1070
     8
1070
   140
1040
9.3543312
1070
   147
1040
0.0
1070
   173
1070
     1
1070
   176
1070
     4
1070
   177
1070
     4
1070
   178
1070
     7
1070
   271
1070
     1
1070
   277
1070
     2
1070
   279
1070
     2
1070
   280
1070
     0
1070
   287
1070
     5
1070
   340
1005
415
1002
}
  0
DIMENSION
  5
424
330
1F
100
AcDbEntity
  8
LAY-20
  6
CONTINUOUS
 62
     4
100
AcDbDimension
  2
*D16
 10
534.1999999999799
 20
50.02688148040494
 30
0.0
 11
464.9999999999899
 21
57.52688148040494
 31
0.0
 70
   160
  1
Rｃ5（<>）
  3
ISO-25
100
AcDbAlignedDimension
 13
395.8
 23
89.02688148040994
 33
0.0
 14
534.1999999999799
 24
89.02688148040994
 34
0.0
100
AcDbRotatedDimension
1001
ACAD
1000
DSTYLE
1002
{
1070
   270
1070
     2
1070
     6
1000
EX_BNORM
1070
     7
1000
EX_BNORM
1070
    41
1040
7.5
1070
    42
1040
4.5
1070
    44
1040
4.5
1070
    73
1070
     0
1070
    74
1070
     0
1070
    75
1070
     0
1070
    76
1070
     0
1070
    77
1070
     1
1070
    78
1070
     8
1070
   140
1040
9.3543312
1070
   147
1040
0.0
1070
   173
1070
     1
1070
   176
1070
     4
1070
   177
1070
     4
1070
   178
1070
     7
1070
   271
1070
     1
1070
   277
1070
     2
1070
   279
1070
     2
1070
   280
1070
     0
1070
   287
1070
     5
1070
   340
1005
415
1002
}
  0
DIMENSION
  5
431
330
1F
100
AcDbEntity
  8
LAY-20
  6
CONTINUOUS
 62
     4
100
AcDbDimension
  2
*D17
 10
274.9999999999899
 20
401.9999999999799
 30
0.0
 11
464.9999999999899
 21
409.4999999999799
 31
0.0
 70
   160
  1
%%c<>
  3
ISO-25
100
AcDbAlignedDimension
 13
654.99999999999
 23
158.0268814804099
 33
0.0
 14
274.9999999999899
 24
158.0268814804099
 34
0.0
100
AcDbRotatedDimension
1001
ACAD
1000
DSTYLE
1002
{
1070
   270
1070
     2
1070
     6
1000
EX_BNORM
1070
     7
1000
EX_BNORM
1070
    41
1040
7.5
1070
    42
1040
4.5
1070
    44
1040
4.5
1070
    73
1070
     0
1070
    74
1070
     0
1070
    75
1070
     0
1070
    76
1070
     0
1070
    77
1070
     1
1070
    78
1070
     8
1070
   140
1040
9.3543312
1070
   147
1040
0.0
1070
   173
1070
     1
1070
   176
1070
     4
1070
   177
1070
     4
1070
   178
1070
     7
1070
   271
1070
     1
1070
   277
1070
     2
1070
   279
1070
     2
1070
   280
1070
     0
1070
   287
1070
     5
1070
   340
1005
415
1002
}
  0
DIMENSION
  5
43E
330
1F
100
AcDbEntity
  8
LAY-20
  6
CONTINUOUS
 62
     4
100
AcDbDimension
  2
*D18
 10
556.99999999999
 20
359.9999999999799
 30
0.0
 11
464.9999999999899
 21
367.4999999999799
 31
0.0
 70
   160
  1
%%c<>
  3
ISO-25
100
AcDbAlignedDimension
 13
372.9999999999899
 23
154.9999999999899
 33
0.0
 14
556.99999999999
 24
154.9999999999899
 34
0.0
100
AcDbRotatedDimension
1001
ACAD
1000
DSTYLE
1002
{
1070
   270
1070
     2
1070
     6
1000
EX_BNORM
1070
     7
1000
EX_BNORM
1070
    41
1040
7.5
1070
    42
1040
4.500000000000028
1070
    44
1040
4.5
1070
    73
1070
     0
1070
    74
1070
     0
1070
    75
1070
     0
1070
    76
1070
     0
1070
    77
1070
     1
1070
    78
1070
     8
1070
   140
1040
9.3543312
1070
   147
1040
0.0
1070
   173
1070
     1
1070
   176
1070
     4
1070
   177
1070
     4
1070
   178
1070
     7
1070
   271
1070
     1
1070
   277
1070
     2
1070
   279
1070
     2
1070
   280
1070
     0
1070
   287
1070
     5
1070
   340
1005
415
1002
}
  0
DIMENSION
  5
44B
330
1F
100
AcDbEntity
  8
LAY-20
  6
CONTINUOUS
 62
     4
100
AcDbDimension
  2
*D19
 10
602.49999999999
 20
380.99999999998
 30
0.0
 11
464.9999999999899
 21
388.49999999998
 31
0.0
 70
   160
  1
%%c<>
  3
ISO-25
100
AcDbAlignedDimension
 13
327.49999999999
 23
158.72438704795
 33
0.0
 14
602.49999999999
 24
158.72438704795
 34
0.0
100
AcDbRotatedDimension
1001
ACAD
1000
DSTYLE
1002
{
1070
   270
1070
     2
1070
     6
1000
EX_BNORM
1070
     7
1000
EX_BNORM
1070
    41
1040
7.5
1070
    42
1040
4.499999999999972
1070
    44
1040
4.5
1070
    73
1070
     0
1070
    74
1070
     0
1070
    75
1070
     0
1070
    76
1070
     0
1070
    77
1070
     1
1070
    78
1070
     8
1070
   140
1040
9.3543312
1070
   147
1040
0.0
1070
   173
1070
     1
1070
   176
1070
     4
1070
   177
1070
     4
1070
   178
1070
     7
1070
   271
1070
     1
1070
   277
1070
     2
1070
   279
1070
     2
1070
   280
1070
     0
1070
   287
1070
     5
1070
   340
1005
415
1002
}
  0
DIMENSION
  5
458
330
1F
100
AcDbEntity
  8
LAY-20
  6
CONTINUOUS
 62
     4
100
AcDbDimension
  2
*D20
 10
684.99999999999
 20
170.02688148041
 30
0.0
 11
677.49999999999
 21
251.37563426418
 31
0.0
 70
   160
  3
ISO-25
100
AcDbAlignedDimension
 13
464.9999999999899
 23
332.72438704795
 33
0.0
 14
684.99999999999
 24
170.02688148041
 34
0.0
 50
90.0
100
AcDbRotatedDimension
1001
ACAD
1000
DSTYLE
1002
{
1070
   270
1070
     2
1070
     6
1000
EX_BNORM
1070
     7
1000
EX_BNORM
1070
    41
1040
7.5
1070
    42
1040
4.5
1070
    44
1040
4.5
1070
    73
1070
     0
1070
    74
1070
     0
1070
    75
1070
     0
1070
    76
1070
     1
1070
    77
1070
     1
1070
    78
1070
     0
1070
   140
1040
9.3543312
1070
   147
1040
0.0
1070
   173
1070
     1
1070
   176
1070
     4
1070
   177
1070
     4
1070
   178
1070
     7
1070
   271
1070
     0
1070
   277
1070
     2
1070
   279
1070
     2
1070
   280
1070
     0
1070
   287
1070
     5
1070
   340
1005
415
1002
}
  0
DIMENSION
  5
464
330
1F
100
AcDbEntity
  8
LAY-20
  6
CONTINUOUS
 62
     4
100
AcDbDimension
  2
*D21
 10
244.99999999999
 20
170.02688148041
 30
0.0
 11
237.49999999999
 21
147.52688148041
 31
0.0
 70
   160
  3
ISO-25
100
AcDbAlignedDimension
 13
382.84712708836
 23
125.02688148041
 33
0.0
 14
275.99999999999
 24
170.02688148041
 34
0.0
 50
90.0
100
AcDbRotatedDimension
1001
ACAD
1000
DSTYLE
1002
{
1070
   270
1070
     2
1070
     6
1000
EX_BNORM
1070
     7
1000
EX_BNORM
1070
    41
1040
7.5
1070
    42
1040
4.5
1070
    44
1040
4.5
1070
    73
1070
     0
1070
    74
1070
     0
1070
    75
1070
     0
1070
    76
1070
     0
1070
    77
1070
     1
1070
    78
1070
     8
1070
   140
1040
9.3543312
1070
   147
1040
0.0
1070
   173
1070
     1
1070
   176
1070
     4
1070
   177
1070
     4
1070
   178
1070
     7
1070
   271
1070
     1
1070
   277
1070
     2
1070
   279
1070
     2
1070
   280
1070
     0
1070
   287
1070
     5
1070
   340
1005
415
1002
}
  0
LINE
  5
471
330
1F
100
AcDbEntity
  8
LAY-255
  6
CONTINUOUS
 62
     7
100
AcDbLine
 10
1155.0
 20
66.0
 30
0.0
 11
855.0
 21
66.0
 31
0.0
  0
LINE
  5
472
330
1F
100
AcDbEntity
  8
LAY-255
  6
CONTINUOUS
 62
     7
100
AcDbLine
 10
866.4000000000001
 20
48.0
 30
0.0
 11
890.4000000000001
 21
63.0
 31
0.0
  0
LINE
  5
473
330
1F
100
AcDbEntity
  8
LAY-255
  6
CONTINUOUS
 62
     7
100
AcDbLine
 10
890.4000000000001
 20
63.0
 30
0.0
 11
914.4000000000001
 21
48.0
 31
0.0
  0
LINE
  5
474
330
1F
100
AcDbEntity
  8
LAY-255
  6
CONTINUOUS
 62
     7
100
AcDbLine
 10
914.4000000000001
 20
48.0
 30
0.0
 11
890.4000000000001
 21
33.0
 31
0.0
  0
LINE
  5
475
330
1F
100
AcDbEntity
  8
LAY-255
  6
CONTINUOUS
 62
     7
100
AcDbLine
 10
890.4000000000001
 20
33.0
 30
0.0
 11
866.4000000000001
 21
48.0
 31
0.0
  0
LINE
  5
476
330
1F
100
AcDbEntity
  8
LAY-255
  6
CONTINUOUS
 62
     7
100
AcDbLine
 10
15.0
 20
30.0
 30
0.0
 11
1155.0
 21
30.0
 31
0.0
  0
LINE
  5
477
330
1F
100
AcDbEntity
  8
LAY-255
  6
CONTINUOUS
 62
     7
100
AcDbLine
 10
15.0
 20
840.0
 30
0.0
 11
1155.0
 21
840.0
 31
0.0
  0
LINE
  5
478
330
1F
100
AcDbEntity
  8
LAY-255
  6
CONTINUOUS
 62
     7
100
AcDbLine
 10
15.0
 20
30.0
 30
0.0
 11
15.0
 21
840.0
 31
0.0
  0
LINE
  5
479
330
1F
100
AcDbEntity
  8
LAY-255
  6
CONTINUOUS
 62
     4
100
AcDbLine
 10
855.0
 20
84.0
 30
0.0
 11
1155.0
 21
84.0
 31
0.0
  0
LINE
  5
47A
330
1F
100
AcDbEntity
  8
LAY-255
  6
CONTINUOUS
 62
     4
100
AcDbLine
 10
1005.0
 20
84.0
 30
0.0
 11
1005.0
 21
66.0
 31
0.0
  0
POINT
  5
47B
330
1F
100
AcDbEntity
  8
LAY-255
  6
CONTINUOUS
 62
     7
100
AcDbPoint
 10
867.0
 20
150.0
 30
0.0
  0
POINT
  5
47C
330
1F
100
AcDbEntity
  8
LAY-255
  6
CONTINUOUS
 62
     7
100
AcDbPoint
 10
867.0
 20
120.0
 30
0.0
  0
POINT
  5
47D
330
1F
100
AcDbEntity
  8
LAY-255
  6
CONTINUOUS
 62
     7
100
AcDbPoint
 10
867.0
 20
135.0
 30
0.0
  0
POINT
  5
47E
330
1F
100
AcDbEntity
  8
LAY-255
  6
CONTINUOUS
 62
     7
100
AcDbPoint
 10
867.0
 20
105.0
 30
0.0
  0
POINT
  5
47F
330
1F
100
AcDbEntity
  8
LAY-255
  6
CONTINUOUS
 62
     7
100
AcDbPoint
 10
867.0
 20
89.99999999999996
 30
0.0
  0
LINE
  5
480
330
1F
100
AcDbEntity
  8
LAY-255
  6
CONTINUOUS
 62
     7
100
AcDbLine
 10
1155.0
 20
30.0
 30
0.0
 11
1155.0
 21
840.0
 31
0.0
  0
LINE
  5
481
330
1F
100
AcDbEntity
  8
LAY-255
  6
CONTINUOUS
 62
     7
100
AcDbLine
 10
855.0
 20
30.0
 30
0.0
 11
855.0
 21
216.0
 31
0.0
  0
LINE
  5
482
330
1F
100
AcDbEntity
  8
LAY-255
  6
CONTINUOUS
 62
     7
100
AcDbLine
 10
1155.0
 20
216.0
 30
0.0
 11
855.0
 21
216.0
 31
0.0
  0
LINE
  5
483
330
1F
100
AcDbEntity
  8
LAY-255
  6
CONTINUOUS
 62
     4
100
AcDbLine
 10
1149.0
 20
180.0
 30
0.0
 11
861.0
 21
180.0
 31
0.0
  0
LINE
  5
484
330
1F
100
AcDbEntity
  8
LAY-255
  6
CONTINUOUS
 62
     4
100
AcDbLine
 10
1149.0
 20
198.0
 30
0.0
 11
861.0
 21
198.0
 31
0.0
  0
POINT
  5
485
330
1F
100
AcDbEntity
  8
LAY-255
  6
CONTINUOUS
 62
     7
100
AcDbPoint
 10
900.0
 20
183.0
 30
0.0
  0
POINT
  5
486
330
1F
100
AcDbEntity
  8
LAY-255
  6
CONTINUOUS
 62
     7
100
AcDbPoint
 10
900.0
 20
201.0
 30
0.0
  0
POINT
  5
487
330
1F
100
AcDbEntity
  8
LAY-255
  6
CONTINUOUS
 62
     7
100
AcDbPoint
 10
867.0
 20
165.0
 30
0.0
  0
TEXT
  5
488
330
1F
100
AcDbEntity
  8
LAY-255
  6
CONTINUOUS
 62
     7
100
AcDbText
 10
924.415136826172
 20
46.63125
 30
0.0
 40
15.46875
  1
福西鋳物株式会社
 41
1.342692141742901
  7
EXCADSTD
100
AcDbText
  0
TEXT
  5
489
330
1F
100
AcDbEntity
  8
LAY-255
  6
CONTINUOUS
 62
     7
100
AcDbText
 10
925.528125
 20
35.94375
 30
0.0
 40
5.15625
  1
ＦＵＫＵＮＩＳＨＩ
 41
1.204799226045263
  7
EXCADSTD
100
AcDbText
  0
TEXT
  5
48A
330
1F
100
AcDbEntity
  8
LAY-255
  6
CONTINUOUS
 62
     7
100
AcDbText
 10
998.1575892857143
 20
35.94375
 30
0.0
 40
5.15625
  1
ＦＯＵＮＤＲＹ
 41
1.243252752978497
  7
EXCADSTD
100
AcDbText
  0
TEXT
  5
48B
330
1F
100
AcDbEntity
  8
LAY-255
  6
CONTINUOUS
 62
     7
100
AcDbText
 10
1055.983774651442
 20
35.94375
 30
0.0
 40
5.15625
  1
ＣＯ.,ＬＴＤ.
 41
1.243831271314936
  7
EXCADSTD
100
AcDbText
  0
TEXT
  5
48C
330
1F
100
AcDbEntity
  8
LAY-255
  6
CONTINUOUS
 62
     7
100
AcDbText
 10
882.1031250000001
 20
41.15625
 30
0.0
 40
15.46875
  1
S
 41
0.7582677563636363
  7
EXCADSTD
100
AcDbText
  0
TEXT
  5
48D
330
1F
100
AcDbEntity
  8
LAY-255
  6
CONTINUOUS
 62
     7
100
AcDbText
 10
891.3140625000001
 20
41.24823113208
 30
0.0
 40
15.46875
  1
F
 41
0.7440945272727273
  7
EXCADSTD
100
AcDbText
  0
TEXT
  5
48E
330
1F
100
AcDbEntity
  8
LAY-255
  6
CONTINUOUS
 62
     7
100
AcDbText
 10
1011.31640625
 20
73.26562499999997
 30
0.0
 40
7.734375
  1
縮尺
 41
1.080708718181818
  7
EXCADSTD
100
AcDbText
  0
TEXT
  5
48F
330
1F
100
AcDbEntity
  8
LAY-255
  6
CONTINUOUS
 62
     7
100
AcDbText
 10
861.45703125
 20
73.26562499999997
 30
0.0
 40
7.734375
  1
作成日
 41
1.000629973818182
  7
EXCADSTD
100
AcDbText
  0
TEXT
  5
490
330
1F
100
AcDbEntity
  8
LAY-255
  6
CONTINUOUS
 62
     7
100
AcDbText
 10
1044.84375
 20
70.68749999999997
 30
0.0
 40
10.3125
  1
１：３
 41
0.8844094952727272
  7
EXCADSTD
100
AcDbText
  0
TEXT
  5
491
330
1F
100
AcDbEntity
  8
LAY-255
  6
CONTINUOUS
 62
     7
100
AcDbText
 10
861.796875
 20
184.6875
 30
0.0
 40
10.3125
  1
型式
 41
1.056348480681818
  7
EXCADSTD
100
AcDbText
  0
TEXT
  5
492
330
1F
100
AcDbEntity
  8
LAY-255
  6
CONTINUOUS
 62
     7
100
AcDbText
 10
862.265625
 20
202.6875
 30
0.0
 40
10.3125
  1
品名
 41
0.978838634090909
  7
EXCADSTD
100
AcDbText
  0
TEXT
  5
493
330
1F
100
AcDbEntity
  8
LAY-255
  6
CONTINUOUS
 62
     7
100
AcDbText
 10
900.75
 20
202.6875
 30
0.0
 40
10.3125
  1
ルーフドレイン
 41
1.021169538599106
  7
EXCADSTD
100
AcDbText
  0
TEXT
  5
494
330
1F
100
AcDbEntity
  8
LAY-255
  6
CONTINUOUS
 62
     7
100
AcDbText
 10
868.125
 20
166.6875000000001
 30
0.0
 40
10.3125
  1
防水：アスファルト・シート・
 41
0.9866967752199413
  7
EXCADSTD
100
AcDbText
  0
TEXT
  5
495
330
1F
100
AcDbEntity
  8
LAY-255
  6
CONTINUOUS
 62
     7
100
AcDbText
 10
867.0
 20
151.6875
 30
0.0
 40
10.3125
  1
      露出アスファルト防水兼用
 41
0.894274438169777
  7
EXCADSTD
100
AcDbText
  0
TEXT
  5
496
330
1F
100
AcDbEntity
  8
LAY-255
  6
CONTINUOUS
 62
     7
100
AcDbText
 10
867.65625
 20
106.6875
 30
0.0
 40
10.3125
  1
接続：管用テーパねじ
 41
1.013063761157025
  7
EXCADSTD
100
AcDbText
  0
TEXT
  5
497
330
1F
100
AcDbEntity
  8
LAY-255
  6
CONTINUOUS
 62
     7
100
AcDbText
 10
867.5625
 20
121.6875
 30
0.0
 40
10.3125
  1
施工：打込用
 41
1.018700840909091
  7
EXCADSTD
100
AcDbText
  0
TEXT
  5
498
330
1F
100
AcDbEntity
  8
LAY-255
  6
CONTINUOUS
 62
     7
100
AcDbText
 10
867.703125
 20
136.6875
 30
0.0
 40
10.3125
  1
用途：屋上用
 41
1.016656625174825
  7
EXCADSTD
100
AcDbText
  0
TEXT
  5
499
330
1F
100
AcDbEntity
  8
LAY-255
  6
CONTINUOUS
 62
     7
100
AcDbText
 10
868.125
 20
91.68750000000004
 30
0.0
 40
10.3125
  1
※防水層張り掛け幅１００ｍｍ対応型
 41
1.011133181336544
  7
EXCADSTD
100
AcDbText
  0
TEXT
  5
49A
330
1F
100
AcDbEntity
  8
LAY-255
  6
CONTINUOUS
 62
     7
100
AcDbText
 10
902.625
 20
184.6875
 30
0.0
 40
10.3125
  1
ＲＳＧＮＡ－９１２５型
 41
1.001258271602624
  7
EXCADSTD
100
AcDbText
  0
TEXT
  5
49B
330
1F
100
AcDbEntity
  8
LAY-255
  6
CONTINUOUS
 62
     7
100
AcDbText
 10
902.953125
 20
70.68749999999997
 30
0.0
 40
10.3125
  1
２０／０９／０９
 41
0.9739033132467532
  7
EXCADSTD
100
AcDbText
  0
ENDSEC
  0
SECTION
  2
OBJECTS
  0
DICTIONARY
  5
C
330
0
100
AcDbDictionary
  3
ACAD_GROUP
350
D
  3
ACAD_LAYOUT
350
1A
  3
ACAD_MATERIAL
350
43
  3
ACAD_MLEADERSTYLE
350
6B
  3
ACAD_MLINESTYLE
350
17
  3
ACAD_PLOTSETTINGS
350
19
  3
ACAD_SCALELIST
350
47
  3
ACAD_VISUALSTYLE
350
2A
  3
ACDBHEADERROUNDTRIPXREC
350
49C
  3
ACDBVARIABLEDICTIONARY
350
4BD
  0
DICTIONARY
  5
4C8
330
8
100
AcDbDictionary
280
     1
  3
ACAD_XREC_ROUNDTRIP
360
4C9
  0
DICTIONARY
  5
D
102
{ACAD_REACTORS
330
C
102
}
330
C
100
AcDbDictionary
  0
DICTIONARY
  5
1A
102
{ACAD_REACTORS
330
C
102
}
330
C
100
AcDbDictionary
  0
DICTIONARY
  5
43
102
{ACAD_REACTORS
330
C
102
}
330
C
100
AcDbDictionary
  3
BYBLOCK
350
45
  3
BYLAYER
350
44
  3
GLOBAL
350
46
  0
DICTIONARY
  5
6B
102
{ACAD_REACTORS
330
C
102
}
330
C
100
AcDbDictionary
  3
STANDARD
350
6C
  0
DICTIONARY
  5
17
102
{ACAD_REACTORS
330
C
102
}
330
C
100
AcDbDictionary
  3
STANDARD
350
18
  0
DICTIONARY
  5
19
102
{ACAD_REACTORS
330
C
102
}
330
C
100
AcDbDictionary
  0
DICTIONARY
  5
47
102
{ACAD_REACTORS
330
C
102
}
330
C
100
AcDbDictionary
  3
A0
350
48
  3
A1
350
49
  3
A2
350
4A
  3
A3
350
4B
  3
A4
350
4C
  3
A5
350
4D
  3
A6
350
4E
  3
A7
350
4F
  3
A8
350
50
  3
A9
350
51
  3
B0
350
52
  3
B1
350
53
  3
B2
350
54
  3
B3
350
55
  3
B4
350
56
  3
B5
350
57
  3
B6
350
58
  3
B7
350
59
  3
B8
350
5A
  3
B9
350
5B
  3
C0
350
5C
  3
C1
350
5D
  3
C2
350
5E
  3
C3
350
5F
  3
C4
350
60
  3
C5
350
61
  3
C6
350
62
  3
C7
350
63
  3
C8
350
64
  3
C9
350
65
  3
D0
350
66
  3
D1
350
67
  3
D2
350
68
  0
DICTIONARY
  5
2A
102
{ACAD_REACTORS
330
C
102
}
330
C
100
AcDbDictionary
  3
2DWIREFRAME
350
2F
  3
BASIC
350
32
  3
BRIGHTEN
350
36
  3
COLORCHANGE
350
3A
  3
CONCEPTUAL
350
34
  3
DIM
350
35
  3
EDGECOLOROFF
350
3D
  3
FACEPATTERN
350
39
  3
FLAT
350
2B
  3
FLATWITHEDGES
350
2C
  3
GOURAUD
350
2D
  3
GOURAUDWITHEDGES
350
2E
  3
HIDDEN
350
31
  3
JITTEROFF
350
3B
  3
LINEPATTERN
350
38
  3
OVERHANGOFF
350
3C
  3
REALISTIC
350
33
  3
SHADED
350
42
  3
SHADED_WITH_EDGES
350
41
  3
SHADES_OF_GRAY
350
3E
  3
SKETCHY
350
3F
  3
THICKEN
350
37
  3
WIREFRAME
350
30
  3
X-RAY
350
40
  0
DICTIONARY
  5
49C
102
{ACAD_REACTORS
330
C
102
}
330
C
100
AcDbDictionary
  3
CEPSNID
350
4A6
  3
CEPSNTYPE
350
4A5
  3
DIMSTYLEDATA
350
4BC
  3
FINGERPRINTGUID
350
4A7
  3
HYPERLINKBASE
350
49F
  3
INSUNITS
350
4A4
  3
LAYOUTDICT
350
4A1
  3
LWETCUNION
350
4A3
  3
PLOTSETDICT
350
4A2
  3
PSVPSCALE
350
4A9
  3
PUCSBASE
350
4AC
  3
PUCSORGBACK
350
4B2
  3
PUCSORGBOTTOM
350
4AE
  3
PUCSORGFRONT
350
4B1
  3
PUCSORGLEFT
350
4AF
  3
PUCSORGRIGHT
350
4B0
  3
PUCSORGTOP
350
4AD
  3
PUCSORTHOREF
350
4AA
  3
PUCSORTHOVIEW
350
4AB
  3
STYLESHEET
350
4A0
  3
TSTACKALIGN
350
49D
  3
TSTACKSIZE
350
49E
  3
UCSBASE
350
4B5
  3
UCSORGBACK
350
4BB
  3
UCSORGBOTTOM
350
4B7
  3
UCSORGFRONT
350
4BA
  3
UCSORGLEFT
350
4B8
  3
UCSORGRIGHT
350
4B9
  3
UCSORGTOP
350
4B6
  3
UCSORTHOREF
350
4B3
  3
UCSORTHOVIEW
350
4B4
  3
VERSIONGUID
350
4A8
  0
DICTIONARY
  5
4BD
102
{ACAD_REACTORS
330
C
102
}
330
C
100
AcDbDictionary
  3
CANNOSCALE
350
4CA
  3
CENTEREXE
350
4C4
  3
CENTERLTYPEFILE
350
4C5
  3
CMLEADERSTYLE
350
4BF
  3
CTABLESTYLE
350
4BE
  3
DIMASSOC
350
4C6
  3
HIDETEXT
350
4C7
  3
MSLTSCALE
350
4CB
  3
PSOLHEIGHT
350
4C1
  3
PSOLWIDTH
350
4C0
  0
XRECORD
  5
4C9
102
{ACAD_REACTORS
330
4C8
102
}
330
4C8
100
AcDbXrecord
102
VTR_0.000_0.000_1.000_1.000_VISUALSTYLE
340
2F
102
VTR_0.000_0.000_1.000_1.000_GRIDDISPLAY
 70
     3
102
VTR_0.000_0.000_1.000_1.000_GRIDMAJOR
 70
     5
102
VTR_0.000_0.000_1.000_1.000_DEFAULTLIGHTING
280
     1
102
VTR_0.000_0.000_1.000_1.000_DEFAULTLIGHTINGTYPE
 70
     1
102
VTR_0.000_0.000_1.000_1.000_BRIGHTNESS
141
0.0
102
VTR_0.000_0.000_1.000_1.000_CONTRAST
142
0.0
  0
MATERIAL
  5
45
102
{ACAD_REACTORS
330
43
102
}
102
{ACAD_XDICTIONARY
360
4CE
102
}
330
43
100
AcDbMaterial
  1
BYBLOCK
  0
MATERIAL
  5
44
102
{ACAD_REACTORS
330
43
102
}
102
{ACAD_XDICTIONARY
360
4CC
102
}
330
43
100
AcDbMaterial
  1
BYLAYER
  0
MATERIAL
  5
46
102
{ACAD_REACTORS
330
43
102
}
102
{ACAD_XDICTIONARY
360
4D0
102
}
330
43
100
AcDbMaterial
  1
GLOBAL
  0
ACAD_PROXY_OBJECT
  5
6C
102
{ACAD_REACTORS
330
6B
102
}
330
6B
100
AcDbProxyObject
 90
      499
 91
      505
 93
      610
310
40901902A4063FBFFFFFE0000000000000020400000000000020404214DD185B99185C990000000000000104090141901A00000000000004100000000000000041025764000000000000039000
340
14
340
0
340
11
340
0
 94
        0
1001
ACAD_MLEADERVER
1070
     2
  0
MLINESTYLE
  5
18
102
{ACAD_REACTORS
330
17
102
}
330
17
100
AcDbMlineStyle
  2
Standard
 70
     0
  3

 62
   256
 51
90.0
 52
90.0
 71
     2
 49
0.5
 62
   256
  6
BYLAYER
 49
-0.5
 62
   256
  6
BYLAYER
  0
ACAD_PROXY_OBJECT
  5
48
102
{ACAD_REACTORS
330
47
102
}
330
47
100
AcDbProxyObject
 90
      499
 91
      503
 93
       41
310
903313A31580
  0
ACAD_PROXY_OBJECT
  5
49
102
{ACAD_REACTORS
330
47
102
}
330
47
100
AcDbProxyObject
 90
      499
 91
      503
 93
      105
310
903313A324000000000000004000
  0
ACAD_PROXY_OBJECT
  5
4A
102
{ACAD_REACTORS
330
47
102
}
330
47
100
AcDbProxyObject
 90
      499
 91
      503
 93
      105
310
903313A344000000000000104000
  0
ACAD_PROXY_OBJECT
  5
4B
102
{ACAD_REACTORS
330
47
102
}
330
47
100
AcDbProxyObject
 90
      499
 91
      503
 93
      105
310
903313A354000000000000144000
  0
ACAD_PROXY_OBJECT
  5
4C
102
{ACAD_REACTORS
330
47
102
}
330
47
100
AcDbProxyObject
 90
      499
 91
      503
 93
      105
310
903313A384000000000000204000
  0
ACAD_PROXY_OBJECT
  5
4D
102
{ACAD_REACTORS
330
47
102
}
330
47
100
AcDbProxyObject
 90
      499
 91
      503
 93
      113
310
904313A31304000000000000244000
  0
ACAD_PROXY_OBJECT
  5
4E
102
{ACAD_REACTORS
330
47
102
}
330
47
100
AcDbProxyObject
 90
      499
 91
      503
 93
      113
310
904313A31364000000000000304000
  0
ACAD_PROXY_OBJECT
  5
4F
102
{ACAD_REACTORS
330
47
102
}
330
47
100
AcDbProxyObject
 90
      499
 91
      503
 93
      113
310
904313A32304000000000000344000
  0
ACAD_PROXY_OBJECT
  5
50
102
{ACAD_REACTORS
330
47
102
}
330
47
100
AcDbProxyObject
 90
      499
 91
      503
 93
      113
310
904313A333040000000000003E4000
  0
ACAD_PROXY_OBJECT
  5
51
102
{ACAD_REACTORS
330
47
102
}
330
47
100
AcDbProxyObject
 90
      499
 91
      503
 93
      113
310
904313A34304000000000000444000
  0
ACAD_PROXY_OBJECT
  5
52
102
{ACAD_REACTORS
330
47
102
}
330
47
100
AcDbProxyObject
 90
      499
 91
      503
 93
      113
310
904313A35304000000000000494000
  0
ACAD_PROXY_OBJECT
  5
53
102
{ACAD_REACTORS
330
47
102
}
330
47
100
AcDbProxyObject
 90
      499
 91
      503
 93
      121
310
905313A3130304000000000000594000
  0
ACAD_PROXY_OBJECT
  5
54
102
{ACAD_REACTORS
330
47
102
}
330
47
100
AcDbProxyObject
 90
      499
 91
      503
 93
      105
310
903323A310000000000000010100
  0
ACAD_PROXY_OBJECT
  5
55
102
{ACAD_REACTORS
330
47
102
}
330
47
100
AcDbProxyObject
 90
      499
 91
      503
 93
      105
310
903343A310000000000000410100
  0
ACAD_PROXY_OBJECT
  5
56
102
{ACAD_REACTORS
330
47
102
}
330
47
100
AcDbProxyObject
 90
      499
 91
      503
 93
      105
310
903383A310000000000000810100
  0
ACAD_PROXY_OBJECT
  5
57
102
{ACAD_REACTORS
330
47
102
}
330
47
100
AcDbProxyObject
 90
      499
 91
      503
 93
      113
310
90431303A310000000000000910100
  0
ACAD_PROXY_OBJECT
  5
58
102
{ACAD_REACTORS
330
47
102
}
330
47
100
AcDbProxyObject
 90
      499
 91
      503
 93
      121
310
9053130303A310000000000001650100
  0
ACAD_PROXY_OBJECT
  5
59
102
{ACAD_REACTORS
330
47
102
}
330
47
100
AcDbProxyObject
 90
      499
 91
      503
 93
      257
310
90E312F31323822203D2031272D3022000000000000200FC000000000000284000
  0
ACAD_PROXY_OBJECT
  5
5A
102
{ACAD_REACTORS
330
47
102
}
330
47
100
AcDbProxyObject
 90
      499
 91
      503
 93
      249
310
90D312F363422203D2031272D3022000000000000240FC000000000000284000
  0
ACAD_PROXY_OBJECT
  5
5B
102
{ACAD_REACTORS
330
47
102
}
330
47
100
AcDbProxyObject
 90
      499
 91
      503
 93
      249
310
90D312F333222203D2031272D3022000000000000280FC000000000000284000
  0
ACAD_PROXY_OBJECT
  5
5C
102
{ACAD_REACTORS
330
47
102
}
330
47
100
AcDbProxyObject
 90
      499
 91
      503
 93
      249
310
90D312F313622203D2031272D30220000000000002C0FC000000000000284000
  0
ACAD_PROXY_OBJECT
  5
5D
102
{ACAD_REACTORS
330
47
102
}
330
47
100
AcDbProxyObject
 90
      499
 91
      503
 93
      249
310
90D332F333222203D2031272D30220000000000002E0FC000000000000284000
  0
ACAD_PROXY_OBJECT
  5
5E
102
{ACAD_REACTORS
330
47
102
}
330
47
100
AcDbProxyObject
 90
      499
 91
      503
 93
      241
310
90C312F3822203D2031272D3022000000000000300FC000000000000284000
  0
ACAD_PROXY_OBJECT
  5
5F
102
{ACAD_REACTORS
330
47
102
}
330
47
100
AcDbProxyObject
 90
      499
 91
      503
 93
      249
310
90D332F313622203D2031272D3022000000000000320FC000000000000284000
  0
ACAD_PROXY_OBJECT
  5
60
102
{ACAD_REACTORS
330
47
102
}
330
47
100
AcDbProxyObject
 90
      499
 91
      503
 93
      241
310
90C312F3422203D2031272D3022000000000000340FC000000000000284000
  0
ACAD_PROXY_OBJECT
  5
61
102
{ACAD_REACTORS
330
47
102
}
330
47
100
AcDbProxyObject
 90
      499
 91
      503
 93
      241
310
90C332F3822203D2031272D3022000000000000360FC000000000000284000
  0
ACAD_PROXY_OBJECT
  5
62
102
{ACAD_REACTORS
330
47
102
}
330
47
100
AcDbProxyObject
 90
      499
 91
      503
 93
      241
310
90C312F3222203D2031272D3022000000000000380FC000000000000284000
  0
ACAD_PROXY_OBJECT
  5
63
102
{ACAD_REACTORS
330
47
102
}
330
47
100
AcDbProxyObject
 90
      499
 91
      503
 93
      241
310
90C332F3422203D2031272D30220000000000003A0FC000000000000284000
  0
ACAD_PROXY_OBJECT
  5
64
102
{ACAD_REACTORS
330
47
102
}
330
47
100
AcDbProxyObject
 90
      499
 91
      503
 93
      161
310
90A3122203D2031272D30224000000000000284000
  0
ACAD_PROXY_OBJECT
  5
65
102
{ACAD_REACTORS
330
47
102
}
330
47
100
AcDbProxyObject
 90
      499
 91
      503
 93
      257
310
90E312D312F3222203D2031272D30220000000000003E0FC000000000000284000
  0
ACAD_PROXY_OBJECT
  5
66
102
{ACAD_REACTORS
330
47
102
}
330
47
100
AcDbProxyObject
 90
      499
 91
      503
 93
      225
310
90A3322203D2031272D302200000000000002100000000000000284000
  0
ACAD_PROXY_OBJECT
  5
67
102
{ACAD_REACTORS
330
47
102
}
330
47
100
AcDbProxyObject
 90
      499
 91
      503
 93
      225
310
90A3622203D2031272D302200000000000006100000000000000284000
  0
ACAD_PROXY_OBJECT
  5
68
102
{ACAD_REACTORS
330
47
102
}
330
47
100
AcDbProxyObject
 90
      499
 91
      503
 93
      249
310
90D31272D3022203D2031272D30220000000000000A100000000000000284000
  0
ACAD_PROXY_OBJECT
  5
2F
102
{ACAD_REACTORS
330
2A
102
}
330
2A
100
AcDbProxyObject
 90
      499
 91
      501
 93
      436
310
42CC9915DA5C99599C985B595049028333333333333E33F0000000000000F90107901411070040501600405405064090741402480A0340
1001
ACAD
1000
AcDbSavedByObjectVersion
1070
     0
  0
ACAD_PROXY_OBJECT
  5
32
102
{ACAD_REACTORS
330
2A
102
}
330
2A
100
AcDbProxyObject
 90
      499
 91
      501
 93
      388
310
4150985CDA58D07406404333333333333E33F0000000000000F90107A41107004050150841D405064090741402480A0350
1001
ACAD
1000
AcDbSavedByObjectVersion
1070
     0
  0
ACAD_PROXY_OBJECT
  5
36
102
{ACAD_REACTORS
330
2A
102
}
330
2A
100
AcDbProxyObject
 90
      499
 91
      501
 93
      428
310
42109C9A59DA1D195B90C409028333333333333E33F0000000000000F9010790141107004050150841D405064090741402480A029950
1001
ACAD
1000
AcDbSavedByObjectVersion
1070
     0
  0
ACAD_PROXY_OBJECT
  5
3A
102
{ACAD_REACTORS
330
2A
102
}
330
2A
100
AcDbProxyObject
 90
      499
 91
      501
 93
      452
310
42D0DBDB1BDC90DA185B99D95104090240C333333333333E33F0000000000000F90108901411070040501508421405064090741402480A0350
1001
ACAD
1000
AcDbSavedByObjectVersion
1070
     0
  0
ACAD_PROXY_OBJECT
  5
34
102
{ACAD_REACTORS
330
2A
102
}
330
2A
100
AcDbProxyObject
 90
      499
 91
      501
 93
      500
310
4290DBDB98D95C1D1D585B10940D028333333333333E33F0000000000000F90107902409070040501000000000018199010841D405064090740C02480A0340
1001
ACAD
1000
AcDbSavedByObjectVersion
1070
     0
  0
ACAD_PROXY_OBJECT
  5
35
102
{ACAD_REACTORS
330
2A
102
}
330
2A
100
AcDbProxyObject
 90
      499
 91
      501
 93
      412
310
40D11A5B50B409028333333333333E33F0000000000000F9010790141107004050150841D405064090741402480A02677FFFFFD0
1001
ACAD
1000
AcDbSavedByObjectVersion
1070
     0
  0
ACAD_PROXY_OBJECT
  5
3D
102
{ACAD_REACTORS
330
2A
102
}
330
2A
100
AcDbProxyObject
 90
      499
 91
      501
 93
      452
310
43115919D950DBDB1BDC93D999916409028333333333333E33F0000000000000F9010790141107004050150841D405064090741402480A0350
1001
ACAD
1000
AcDbSavedByObjectVersion
1070
     0
  0
ACAD_PROXY_OBJECT
  5
39
102
{ACAD_REACTORS
330
2A
102
}
330
2A
100
AcDbProxyObject
 90
      499
 91
      501
 93
      444
310
42D19858D95C185D1D195C9B90F409028333333333333E33F0000000000000F9010790141107004050150841D405064090741402480A0350
1001
ACAD
1000
AcDbSavedByObjectVersion
1070
     0
  0
ACAD_PROXY_OBJECT
  5
2B
102
{ACAD_REACTORS
330
2A
102
}
330
2A
100
AcDbProxyObject
 90
      499
 91
      501
 93
      380
310
41119B185D240901404333333333333E33F0000000000000F9010740A907004050150841D405064090741402480A1B50
1001
ACAD
1000
AcDbSavedByObjectVersion
1070
     0
  0
ACAD_PROXY_OBJECT
  5
2C
102
{ACAD_REACTORS
330
2A
102
}
330
2A
100
AcDbProxyObject
 90
      499
 91
      501
 93
      468
310
43519B185D15DA5D1A115919D95CD0140901404333333333333E33F0000000000000F90107409019070040501600405405064090741402480A1B50
1001
ACAD
1000
AcDbSavedByObjectVersion
1070
     0
  0
ACAD_PROXY_OBJECT
  5
2D
102
{ACAD_REACTORS
330
2A
102
}
330
2A
100
AcDbProxyObject
 90
      499
 91
      501
 93
      404
310
41D1DBDD5C985D5910240902404333333333333E33F0000000000000F9010740A9070040501641D405064090741402480A1B50
1001
ACAD
1000
AcDbSavedByObjectVersion
1070
     0
  0
ACAD_PROXY_OBJECT
  5
2E
102
{ACAD_REACTORS
330
2A
102
}
330
2A
100
AcDbProxyObject
 90
      499
 91
      501
 93
      492
310
4411DBDD5C985D5915DA5D1A115919D95CD0340902404333333333333E33F0000000000000F90107409019070040501600405405064090741402480A1B50
1001
ACAD
1000
AcDbSavedByObjectVersion
1070
     0
  0
ACAD_PROXY_OBJECT
  5
31
102
{ACAD_REACTORS
330
2A
102
}
330
2A
100
AcDbProxyObject
 90
      499
 91
      501
 93
      476
310
41921A5919195B90640502408333333333333E33F0000000000000F901079024090700405020000000000001110200405405064090740C02480A0340
1001
ACAD
1000
AcDbSavedByObjectVersion
1070
     0
  0
ACAD_PROXY_OBJECT
  5
3B
102
{ACAD_REACTORS
330
2A
102
}
330
2A
100
AcDbProxyObject
 90
      499
 91
      501
 93
      428
310
42529A5D1D195C93D999914409028333333333333E33F0000000000000F9010790141107004050150A41D405064090741402480A0350
1001
ACAD
1000
AcDbSavedByObjectVersion
1070
     0
  0
ACAD_PROXY_OBJECT
  5
38
102
{ACAD_REACTORS
330
2A
102
}
330
2A
100
AcDbProxyObject
 90
      499
 91
      501
 93
      444
310
42D31A5B995C185D1D195C9B90E409028333333333333E33F0000000000000F9010790141107004050750841D405064090741402483A0350
1001
ACAD
1000
AcDbSavedByObjectVersion
1070
     0
  0
ACAD_PROXY_OBJECT
  5
3C
102
{ACAD_REACTORS
330
2A
102
}
330
2A
100
AcDbProxyObject
 90
      499
 91
      501
 93
      444
310
42D3DD995C9A185B99D3D999915409028333333333333E33F0000000000000F9010790141107004050150941D405064090741402480A0350
1001
ACAD
1000
AcDbSavedByObjectVersion
1070
     0
  0
ACAD_PROXY_OBJECT
  5
33
102
{ACAD_REACTORS
330
2A
102
}
330
2A
100
AcDbProxyObject
 90
      499
 91
      501
 93
      428
310
425499585B1A5CDD1A58D08409038333333333333E33F0000000000000F9010740A907004050150800405405064090740C02480A1B40
1001
ACAD
1000
AcDbSavedByObjectVersion
1070
     0
  0
ACAD_PROXY_OBJECT
  5
42
102
{ACAD_REACTORS
330
2A
102
}
330
2A
100
AcDbProxyObject
 90
      499
 91
      501
 93
      420
310
4194DA1859195911B40902404333333333333E33F0000000000000F9010740A41107004050150800405405064090840C02480A0B40
1001
ACAD
1000
AcDbSavedByObjectVersion
1070
     0
  0
ACAD_PROXY_OBJECT
  5
41
102
{ACAD_REACTORS
330
2A
102
}
330
2A
100
AcDbProxyObject
 90
      499
 91
      501
 93
      516
310
4454DA18591959081DDA5D1A08195919D95CD1A40902404333333333333E33F0000000000000F901074090142907004050250800405405064090740C02480A0B40
1001
ACAD
1000
AcDbSavedByObjectVersion
1070
     0
  0
ACAD_PROXY_OBJECT
  5
3E
102
{ACAD_REACTORS
330
2A
102
}
330
2A
100
AcDbProxyObject
 90
      499
 91
      501
 93
      532
310
4394DA1859195CC81BD98811DC985E5174090240C333333333333E33F0000000000000F901079024090741D01000000000000111010841D405064090740C02480A0340
1001
ACAD
1000
AcDbSavedByObjectVersion
1070
     0
  0
ACAD_PROXY_OBJECT
  5
3F
102
{ACAD_REACTORS
330
2A
102
}
330
2A
100
AcDbProxyObject
 90
      499
 91
      501
 93
      476
310
41D4DAD95D18DA1E51840502408333333333333E33F0000000000000F901079024090741D01000000000000111010B41D405064090741802480A0340
1001
ACAD
1000
AcDbSavedByObjectVersion
1070
     0
  0
ACAD_PROXY_OBJECT
  5
37
102
{ACAD_REACTORS
330
2A
102
}
330
2A
100
AcDbProxyObject
 90
      499
 91
      501
 93
      412
310
41D51A1A58DAD95B90D409028333333333333E33F0000000000000F9010790141107004050150C41D405064090741402480A0350
1001
ACAD
1000
AcDbSavedByObjectVersion
1070
     0
  0
ACAD_PROXY_OBJECT
  5
30
102
{ACAD_REACTORS
330
2A
102
}
330
2A
100
AcDbProxyObject
 90
      499
 91
      501
 93
      420
310
4255DA5C99599C985B595059028333333333333E33F0000000000000F90107901411070040501600405405064090740C02480A0340
1001
ACAD
1000
AcDbSavedByObjectVersion
1070
     0
  0
ACAD_PROXY_OBJECT
  5
40
102
{ACAD_REACTORS
330
2A
102
}
330
2A
100
AcDbProxyObject
 90
      499
 91
      501
 93
      404
310
41560B54985E51940902404000000000000E03F0000000000000F9010740501907004050150841D405064090740C02480A1B40
1001
ACAD
1000
AcDbSavedByObjectVersion
1070
     0
  0
XRECORD
  5
4A6
102
{ACAD_REACTORS
330
49C
102
}
330
49C
100
AcDbXrecord
340
0
  0
XRECORD
  5
4A5
102
{ACAD_REACTORS
330
49C
102
}
330
49C
100
AcDbXrecord
 90
        0
  0
XRECORD
  5
4BC
102
{ACAD_REACTORS
330
49C
102
}
330
49C
100
AcDbXrecord
1000
DSTYLE
1002
{
1070
   340
340
11
1002
}
  0
XRECORD
  5
4A7
102
{ACAD_REACTORS
330
49C
102
}
330
49C
100
AcDbXrecord
  1
{d01c2c5a-9c6a-4494-9909-7aaa6634ee1f}
  0
XRECORD
  5
49F
102
{ACAD_REACTORS
330
49C
102
}
330
49C
100
AcDbXrecord
  1

  0
XRECORD
  5
4A4
102
{ACAD_REACTORS
330
49C
102
}
330
49C
100
AcDbXrecord
 90
        4
  0
XRECORD
  5
4A1
102
{ACAD_REACTORS
330
49C
102
}
330
49C
100
AcDbXrecord
340
1A
  0
XRECORD
  5
4A3
102
{ACAD_REACTORS
330
49C
102
}
330
49C
100
AcDbXrecord
 90
    10781
  0
XRECORD
  5
4A2
102
{ACAD_REACTORS
330
49C
102
}
330
49C
100
AcDbXrecord
340
19
  0
XRECORD
  5
4A9
102
{ACAD_REACTORS
330
49C
102
}
330
49C
100
AcDbXrecord
 40
0.0
  0
XRECORD
  5
4AC
102
{ACAD_REACTORS
330
49C
102
}
330
49C
100
AcDbXrecord
340
0
  0
XRECORD
  5
4B2
102
{ACAD_REACTORS
330
49C
102
}
330
49C
100
AcDbXrecord
 10
0.0
 20
0.0
 30
0.0
  0
XRECORD
  5
4AE
102
{ACAD_REACTORS
330
49C
102
}
330
49C
100
AcDbXrecord
 10
0.0
 20
0.0
 30
0.0
  0
XRECORD
  5
4B1
102
{ACAD_REACTORS
330
49C
102
}
330
49C
100
AcDbXrecord
 10
0.0
 20
0.0
 30
0.0
  0
XRECORD
  5
4AF
102
{ACAD_REACTORS
330
49C
102
}
330
49C
100
AcDbXrecord
 10
0.0
 20
0.0
 30
0.0
  0
XRECORD
  5
4B0
102
{ACAD_REACTORS
330
49C
102
}
330
49C
100
AcDbXrecord
 10
0.0
 20
0.0
 30
0.0
  0
XRECORD
  5
4AD
102
{ACAD_REACTORS
330
49C
102
}
330
49C
100
AcDbXrecord
 10
0.0
 20
0.0
 30
0.0
  0
XRECORD
  5
4AA
102
{ACAD_REACTORS
330
49C
102
}
330
49C
100
AcDbXrecord
340
0
  0
XRECORD
  5
4AB
102
{ACAD_REACTORS
330
49C
102
}
330
49C
100
AcDbXrecord
 70
     0
  0
XRECORD
  5
4A0
102
{ACAD_REACTORS
330
49C
102
}
330
49C
100
AcDbXrecord
  1

  0
XRECORD
  5
49D
102
{ACAD_REACTORS
330
49C
102
}
330
49C
100
AcDbXrecord
 90
        1
  0
XRECORD
  5
49E
102
{ACAD_REACTORS
330
49C
102
}
330
49C
100
AcDbXrecord
 90
       70
  0
XRECORD
  5
4B5
102
{ACAD_REACTORS
330
49C
102
}
330
49C
100
AcDbXrecord
340
0
  0
XRECORD
  5
4BB
102
{ACAD_REACTORS
330
49C
102
}
330
49C
100
AcDbXrecord
 10
0.0
 20
0.0
 30
0.0
  0
XRECORD
  5
4B7
102
{ACAD_REACTORS
330
49C
102
}
330
49C
100
AcDbXrecord
 10
0.0
 20
0.0
 30
0.0
  0
XRECORD
  5
4BA
102
{ACAD_REACTORS
330
49C
102
}
330
49C
100
AcDbXrecord
 10
0.0
 20
0.0
 30
0.0
  0
XRECORD
  5
4B8
102
{ACAD_REACTORS
330
49C
102
}
330
49C
100
AcDbXrecord
 10
0.0
 20
0.0
 30
0.0
  0
XRECORD
  5
4B9
102
{ACAD_REACTORS
330
49C
102
}
330
49C
100
AcDbXrecord
 10
0.0
 20
0.0
 30
0.0
  0
XRECORD
  5
4B6
102
{ACAD_REACTORS
330
49C
102
}
330
49C
100
AcDbXrecord
 10
0.0
 20
0.0
 30
0.0
  0
XRECORD
  5
4B3
102
{ACAD_REACTORS
330
49C
102
}
330
49C
100
AcDbXrecord
340
0
  0
XRECORD
  5
4B4
102
{ACAD_REACTORS
330
49C
102
}
330
49C
100
AcDbXrecord
 70
     0
  0
XRECORD
  5
4A8
102
{ACAD_REACTORS
330
49C
102
}
330
49C
100
AcDbXrecord
  1
{FAEB1C32-E019-11D5-929B-00C0DF256EC4}
  0
DICTIONARYVAR
  5
4CA
102
{ACAD_REACTORS
330
4BD
102
}
330
4BD
100
DictionaryVariables
280
     0
  1
1:1
  0
DICTIONARYVAR
  5
4C4
102
{ACAD_REACTORS
330
4BD
102
}
330
4BD
100
DictionaryVariables
280
     0
  1
3.500000
  0
DICTIONARYVAR
  5
4C5
102
{ACAD_REACTORS
330
4BD
102
}
330
4BD
100
DictionaryVariables
280
     0
  1
acadiso.lin
  0
DICTIONARYVAR
  5
4BF
102
{ACAD_REACTORS
330
4BD
102
}
330
4BD
100
DictionaryVariables
280
     0
  1
Standard
  0
DICTIONARYVAR
  5
4BE
102
{ACAD_REACTORS
330
4BD
102
}
330
4BD
100
DictionaryVariables
280
     0
  1
Standard
  0
DICTIONARYVAR
  5
4C6
102
{ACAD_REACTORS
330
4BD
102
}
330
4BD
100
DictionaryVariables
280
     0
  1
2
  0
DICTIONARYVAR
  5
4C7
102
{ACAD_REACTORS
330
4BD
102
}
330
4BD
100
DictionaryVariables
280
     0
  1
1
  0
DICTIONARYVAR
  5
4CB
102
{ACAD_REACTORS
330
4BD
102
}
330
4BD
100
DictionaryVariables
280
     0
  1
1
  0
DICTIONARYVAR
  5
4C1
102
{ACAD_REACTORS
330
4BD
102
}
330
4BD
100
DictionaryVariables
280
     0
  1
80.000000
  0
DICTIONARYVAR
  5
4C0
102
{ACAD_REACTORS
330
4BD
102
}
330
4BD
100
DictionaryVariables
280
     0
  1
5.000000
  0
DICTIONARY
  5
4CE
330
45
100
AcDbDictionary
280
     1
  3
ACAD_XREC_ROUNDTRIP
360
4CF
  0
DICTIONARY
  5
4CC
330
44
100
AcDbDictionary
280
     1
  3
ACAD_XREC_ROUNDTRIP
360
4CD
  0
DICTIONARY
  5
4D0
330
46
100
AcDbDictionary
280
     1
  3
ACAD_XREC_ROUNDTRIP
360
4D1
  0
XRECORD
  5
4CF
102
{ACAD_REACTORS
330
4CE
102
}
330
4CE
100
AcDbXrecord
102
MATERIAL
148
0.0
149
0.0
149
0.0
 93
        0
 94
      127
282
     0
 72
     1
 77
     1
171
     1
175
     1
179
     1
273
     0
  0
XRECORD
  5
4CD
102
{ACAD_REACTORS
330
4CC
102
}
330
4CC
100
AcDbXrecord
102
MATERIAL
148
0.0
149
0.0
149
0.0
 93
        0
 94
      127
282
     0
 72
     1
 77
     1
171
     1
175
     1
179
     1
273
     0
  0
XRECORD
  5
4D1
102
{ACAD_REACTORS
330
4D0
102
}
330
4D0
100
AcDbXrecord
102
MATERIAL
148
0.0
149
0.0
149
0.0
 93
        0
 94
      127
282
     0
 72
     1
 77
     1
171
     1
175
     1
179
     1
273
     0
  0
ENDSEC
  0
EOF
