  0
SECTION
  2
HEADER
  9
$ACADVER
  1
AC1014
  9
$ACADMAINTVER
 70
     9
  9
$DWGCODEPAGE
  3
ANSI_932
  9
$INSBASE
 10
0.0
 20
0.0
 30
0.0
  9
$EXTMIN
 10
15.0
 20
30.0
 30
0.0
  9
$EXTMAX
 10
1155.0
 20
840.0
 30
0.0
  9
$LIMMIN
 10
0.0
 20
0.0
  9
$LIMMAX
 10
420.0
 20
297.0
  9
$ORTHOMODE
 70
     0
  9
$REGENMODE
 70
     1
  9
$FILLMODE
 70
     1
  9
$QTEXTMODE
 70
     0
  9
$MIRRTEXT
 70
     1
  9
$DRAGMODE
 70
     2
  9
$LTSCALE
 40
0.2
  9
$OSMODE
 70
    37
  9
$ATTMODE
 70
     1
  9
$TEXTSIZE
 40
2.5
  9
$TRACEWID
 40
1.0
  9
$TEXTSTYLE
  7
STANDARD
  9
$CLAYER
  8
LAY-10
  9
$CELTYPE
  6
BYLAYER
  9
$CECOLOR
 62
   256
  9
$CELTSCALE
 40
1.0
  9
$DELOBJ
 70
     1
  9
$DISPSILH
 70
     0
  9
$DIMSCALE
 40
1.0
  9
$DIMASZ
 40
2.5
  9
$DIMEXO
 40
0.625
  9
$DIMDLI
 40
3.75
  9
$DIMRND
 40
0.0
  9
$DIMDLE
 40
0.0
  9
$DIMEXE
 40
1.25
  9
$DIMTP
 40
0.0
  9
$DIMTM
 40
0.0
  9
$DIMTXT
 40
2.5
  9
$DIMCEN
 40
2.5
  9
$DIMTSZ
 40
0.0
  9
$DIMTOL
 70
     0
  9
$DIMLIM
 70
     0
  9
$DIMTIH
 70
     0
  9
$DIMTOH
 70
     0
  9
$DIMSE1
 70
     0
  9
$DIMSE2
 70
     0
  9
$DIMTAD
 70
     1
  9
$DIMZIN
 70
     8
  9
$DIMBLK
  1

  9
$DIMASO
 70
     1
  9
$DIMSHO
 70
     1
  9
$DIMPOST
  1

  9
$DIMAPOST
  1

  9
$DIMALT
 70
     0
  9
$DIMALTD
 70
     3
  9
$DIMALTF
 40
0.03937007874016
  9
$DIMLFAC
 40
1.0
  9
$DIMTOFL
 70
     1
  9
$DIMTVP
 40
0.0
  9
$DIMTIX
 70
     0
  9
$DIMSOXD
 70
     0
  9
$DIMSAH
 70
     0
  9
$DIMBLK1
  1

  9
$DIMBLK2
  1

  9
$DIMSTYLE
  2
ISO-25
  9
$DIMCLRD
 70
     0
  9
$DIMCLRE
 70
     0
  9
$DIMCLRT
 70
     0
  9
$DIMTFAC
 40
1.0
  9
$DIMGAP
 40
0.625
  9
$DIMJUST
 70
     0
  9
$DIMSD1
 70
     0
  9
$DIMSD2
 70
     0
  9
$DIMTOLJ
 70
     0
  9
$DIMTZIN
 70
     8
  9
$DIMALTZ
 70
     0
  9
$DIMALTTZ
 70
     0
  9
$DIMFIT
 70
     3
  9
$DIMUPT
 70
     0
  9
$DIMUNIT
 70
     2
  9
$DIMDEC
 70
     2
  9
$DIMTDEC
 70
     2
  9
$DIMALTU
 70
     2
  9
$DIMALTTD
 70
     3
  9
$DIMTXSTY
  7
STANDARD
  9
$DIMAUNIT
 70
     0
  9
$LUNITS
 70
     2
  9
$LUPREC
 70
     4
  9
$SKETCHINC
 40
1.0
  9
$FILLETRAD
 40
10.0
  9
$AUNITS
 70
     0
  9
$AUPREC
 70
     0
  9
$MENU
  1
.
  9
$ELEVATION
 40
0.0
  9
$PELEVATION
 40
0.0
  9
$THICKNESS
 40
0.0
  9
$LIMCHECK
 70
     0
  9
$CHAMFERA
 40
0.0
  9
$CHAMFERB
 40
0.0
  9
$CHAMFERC
 40
0.0
  9
$CHAMFERD
 40
0.0
  9
$SKPOLY
 70
     0
  9
$TDCREATE
 40
2459839.708619931
  9
$TDUPDATE
 40
2459839.708621042
  9
$TDINDWG
 40
0.0000000116
  9
$TDUSRTIMER
 40
0.0000000116
  9
$USRTIMER
 70
     1
  9
$ANGBASE
 50
0.0
  9
$ANGDIR
 70
     0
  9
$PDMODE
 70
     0
  9
$PDSIZE
 40
0.0
  9
$PLINEWID
 40
0.0
  9
$COORDS
 70
     1
  9
$SPLFRAME
 70
     0
  9
$SPLINETYPE
 70
     6
  9
$SPLINESEGS
 70
     8
  9
$ATTDIA
 70
     0
  9
$ATTREQ
 70
     1
  9
$HANDLING
 70
     1
  9
$HANDSEED
  5
4F2
  9
$SURFTAB1
 70
     6
  9
$SURFTAB2
 70
     6
  9
$SURFTYPE
 70
     6
  9
$SURFU
 70
     6
  9
$SURFV
 70
     6
  9
$UCSNAME
  2

  9
$UCSORG
 10
0.0
 20
0.0
 30
0.0
  9
$UCSXDIR
 10
1.0
 20
0.0
 30
0.0
  9
$UCSYDIR
 10
0.0
 20
1.0
 30
0.0
  9
$PUCSNAME
  2

  9
$PUCSORG
 10
0.0
 20
0.0
 30
0.0
  9
$PUCSXDIR
 10
1.0
 20
0.0
 30
0.0
  9
$PUCSYDIR
 10
0.0
 20
1.0
 30
0.0
  9
$USERI1
 70
     0
  9
$USERI2
 70
     0
  9
$USERI3
 70
     0
  9
$USERI4
 70
     0
  9
$USERI5
 70
     0
  9
$USERR1
 40
0.0
  9
$USERR2
 40
0.0
  9
$USERR3
 40
0.0
  9
$USERR4
 40
0.0
  9
$USERR5
 40
0.0
  9
$WORLDVIEW
 70
     1
  9
$SHADEDGE
 70
     3
  9
$SHADEDIF
 70
    70
  9
$TILEMODE
 70
     1
  9
$MAXACTVP
 70
    64
  9
$PINSBASE
 10
0.0
 20
0.0
 30
0.0
  9
$PLIMCHECK
 70
     0
  9
$PEXTMIN
 10
1.000000000000000E+20
 20
1.000000000000000E+20
 30
1.000000000000000E+20
  9
$PEXTMAX
 10
-1.000000000000000E+20
 20
-1.000000000000000E+20
 30
-1.000000000000000E+20
  9
$PLIMMIN
 10
0.0
 20
0.0
  9
$PLIMMAX
 10
420.0
 20
297.0
  9
$UNITMODE
 70
     0
  9
$VISRETAIN
 70
     1
  9
$PLINEGEN
 70
     0
  9
$PSLTSCALE
 70
     1
  9
$TREEDEPTH
 70
  3020
  9
$PICKSTYLE
 70
     1
  9
$CMLSTYLE
  2
STANDARD
  9
$CMLJUST
 70
     0
  9
$CMLSCALE
 40
20.0
  9
$PROXYGRAPHICS
 70
     1
  9
$MEASUREMENT
 70
     1
  0
ENDSEC
  0
SECTION
  2
CLASSES
  0
CLASS
  1
ACDBDICTIONARYWDFLT
  2
AcDbDictionaryWithDefault
  3
ObjectDBX Classes
 90
        0
280
     0
281
     0
  0
CLASS
  1
VISUALSTYLE
  2
AcDbVisualStyle
  3
ObjectDBX Classes
 90
     4095
280
     0
281
     0
  0
CLASS
  1
MATERIAL
  2
AcDbMaterial
  3
ObjectDBX Classes
 90
     1153
280
     0
281
     0
  0
CLASS
  1
SCALE
  2
AcDbScale
  3
ObjectDBX Classes
 90
     1153
280
     0
281
     0
  0
CLASS
  1
TABLESTYLE
  2
AcDbTableStyle
  3
ObjectDBX Classes
 90
     4095
280
     0
281
     0
  0
CLASS
  1
MLEADERSTYLE
  2
AcDbMLeaderStyle
  3
ACDB_MLEADERSTYLE_CLASS
 90
     4095
280
     0
281
     0
  0
CLASS
  1
SUN
  2
AcDbSun
  3
SCENEOE
 90
     1153
280
     0
281
     0
  0
CLASS
  1
DICTIONARYVAR
  2
AcDbDictionaryVar
  3
ObjectDBX Classes
 90
        0
280
     0
281
     0
  0
CLASS
  1
XRECORD
  2
AcDbXrecord
  3
ObjectDBX Classes
 90
        0
280
     0
281
     0
  0
CLASS
  1
LWPOLYLINE
  2
AcDbPolyline
  3
ObjectDBX Classes
 90
        0
280
     0
281
     1
  0
CLASS
  1
HATCH
  2
AcDbHatch
  3
ObjectDBX Classes
 90
        0
280
     0
281
     1
  0
CLASS
  1
ACDBPLACEHOLDER
  2
AcDbPlaceHolder
  3
ObjectDBX Classes
 90
        0
280
     0
281
     0
  0
CLASS
  1
LAYOUT
  2
AcDbLayout
  3
ObjectDBX Classes
 90
        0
280
     0
281
     0
  0
ENDSEC
  0
SECTION
  2
TABLES
  0
TABLE
  2
VPORT
  5
8
102
{ACAD_XDICTIONARY
360
4E7
102
}
330
0
100
AcDbSymbolTable
 70
     1
  0
VPORT
  5
29
330
8
100
AcDbSymbolTableRecord
100
AcDbViewportTableRecord
  2
*ACTIVE
 70
     0
 10
0.0
 20
0.0
 11
1.0
 21
1.0
 12
585.0000000000001
 22
435.0
 13
0.0
 23
0.0
 14
10.0
 24
10.0
 15
10.0
 25
10.0
 16
0.0
 26
0.0
 36
1.0
 17
0.0
 27
0.0
 37
0.0
 40
810.0
 41
1.407407407407408
 42
50.0
 43
0.0
 44
0.0
 50
0.0
 51
0.0
 71
     0
 72
  1000
 73
     1
 74
     3
 75
     0
 76
     0
 77
     0
 78
     0
  0
ENDTAB
  0
TABLE
  2
LTYPE
  5
5
330
0
100
AcDbSymbolTable
 70
     6
  0
LTYPE
  5
14
330
5
100
AcDbSymbolTableRecord
100
AcDbLinetypeTableRecord
  2
BYBLOCK
 70
     0
  3

 72
    65
 73
     0
 40
0.0
  0
LTYPE
  5
15
330
5
100
AcDbSymbolTableRecord
100
AcDbLinetypeTableRecord
  2
BYLAYER
 70
     0
  3

 72
    65
 73
     0
 40
0.0
  0
LTYPE
  5
16
330
5
100
AcDbSymbolTableRecord
100
AcDbLinetypeTableRecord
  2
CONTINUOUS
 70
     0
  3
Solid line
 72
    65
 73
     0
 40
0.0
  0
LTYPE
  5
6E
330
5
100
AcDbSymbolTableRecord
100
AcDbLinetypeTableRecord
  2
HIDDEN
 70
     0
  3
Hidden __ __ __ __ __ __ __ __ __ __ __ __ __ __
 72
    65
 73
     2
 40
9.524999999999999
 49
6.35
 74
     0
 49
-3.175
 74
     0
  0
LTYPE
  5
6F
330
5
100
AcDbSymbolTableRecord
100
AcDbLinetypeTableRecord
  2
CENTER
 70
     0
  3
Center ____ _ ____ _ ____ _ ____ _ ____ _ ____
 72
    65
 73
     4
 40
50.8
 49
31.75
 74
     0
 49
-6.35
 74
     0
 49
6.35
 74
     0
 49
-6.35
 74
     0
  0
LTYPE
  5
70
330
5
100
AcDbSymbolTableRecord
100
AcDbLinetypeTableRecord
  2
PHANTOM
 70
     0
  3
Phantom ______  __  __  ______  __  __  ______ 
 72
    65
 73
     6
 40
63.50000000000001
 49
31.75
 74
     0
 49
-6.35
 74
     0
 49
6.35
 74
     0
 49
-6.35
 74
     0
 49
6.35
 74
     0
 49
-6.35
 74
     0
  0
LTYPE
  5
71
330
5
100
AcDbSymbolTableRecord
100
AcDbLinetypeTableRecord
  2
ACAD_ISO06W100
 70
     0
  3
ISO long-dash triple-dot ____ ... ____ ... ____
 72
    65
 73
     8
 40
36.0
 49
24.0
 74
     0
 49
-3.0
 74
     0
 49
0.0
 74
     0
 49
-3.0
 74
     0
 49
0.0
 74
     0
 49
-3.0
 74
     0
 49
0.0
 74
     0
 49
-3.0
 74
     0
  0
LTYPE
  5
72
330
5
100
AcDbSymbolTableRecord
100
AcDbLinetypeTableRecord
  2
ACAD_ISO15W100
 70
     0
  3
ISO double-dash triple-dot __ __ . . . __ __ . .
 72
    65
 73
    10
 40
39.0
 49
12.0
 74
     0
 49
-3.0
 74
     0
 49
12.0
 74
     0
 49
-3.0
 74
     0
 49
0.0
 74
     0
 49
-3.0
 74
     0
 49
0.0
 74
     0
 49
-3.0
 74
     0
 49
0.0
 74
     0
 49
-3.0
 74
     0
  0
ENDTAB
  0
TABLE
  2
LAYER
  5
2
330
0
100
AcDbSymbolTable
 70
     5
  0
LAYER
  5
10
330
2
100
AcDbSymbolTableRecord
100
AcDbLayerTableRecord
  2
0
 70
     0
 62
     7
  6
CONTINUOUS
  0
LAYER
  5
75
330
2
100
AcDbSymbolTableRecord
100
AcDbLayerTableRecord
  2
LAY-10
 70
     0
 62
     7
  6
CONTINUOUS
  0
LAYER
  5
76
330
2
100
AcDbSymbolTableRecord
100
AcDbLayerTableRecord
  2
LAY-20
 70
     0
 62
     7
  6
CONTINUOUS
  0
LAYER
  5
77
330
2
100
AcDbSymbolTableRecord
100
AcDbLayerTableRecord
  2
LAY-255
 70
     0
 62
     7
  6
CONTINUOUS
  0
LAYER
  5
436
330
2
100
AcDbSymbolTableRecord
100
AcDbLayerTableRecord
  2
DEFPOINTS
 70
     0
 62
     7
  6
CONTINUOUS
  0
ENDTAB
  0
TABLE
  2
STYLE
  5
3
330
0
100
AcDbSymbolTable
 70
     4
  0
STYLE
  5
11
330
3
100
AcDbSymbolTableRecord
100
AcDbTextStyleTableRecord
  2
STANDARD
 70
     0
 40
0.0
 41
1.0
 50
0.0
 71
     0
 42
2.5
  3
simplex
  4
bigfont
  0
STYLE
  5
73
330
3
100
AcDbSymbolTableRecord
100
AcDbTextStyleTableRecord
  2
EXCADSTD
 70
     0
 40
0.0
 41
1.0
 50
0.0
 71
     0
 42
2.5
  3
simplex
  4
bigfont
  0
STYLE
  5
74
330
3
100
AcDbSymbolTableRecord
100
AcDbTextStyleTableRecord
  2
EXCADVERT
 70
     4
 40
0.0
 41
1.0
 50
0.0
 71
     0
 42
2.5
  3
simplex
  4
bigfont
  0
STYLE
  5
434
330
3
100
AcDbSymbolTableRecord
100
AcDbTextStyleTableRecord
  2
EXCADDIM1
 70
     0
 40
0.0
 41
0.84
 50
0.0
 71
     0
 42
2.5
  3
simplex
  4
bigfont
  0
ENDTAB
  0
TABLE
  2
VIEW
  5
6
330
0
100
AcDbSymbolTable
 70
     0
  0
ENDTAB
  0
TABLE
  2
UCS
  5
7
330
0
100
AcDbSymbolTable
 70
     0
  0
ENDTAB
  0
TABLE
  2
APPID
  5
9
330
0
100
AcDbSymbolTable
 70
     2
  0
APPID
  5
12
330
9
100
AcDbSymbolTableRecord
100
AcDbRegAppTableRecord
  2
ACAD
 70
     0
  0
APPID
  5
4F1
330
9
100
AcDbSymbolTableRecord
100
AcDbRegAppTableRecord
  2
ACAD_MLEADERVER
 70
     0
  0
ENDTAB
  0
TABLE
  2
DIMSTYLE
  5
A
330
0
100
AcDbSymbolTable
 70
     1
  0
DIMSTYLE
105
27
102
{ACAD_REACTORS
330
435
330
443
330
450
330
45D
330
46A
330
476
330
483
102
}
330
A
100
AcDbSymbolTableRecord
100
AcDbDimStyleTableRecord
  2
ISO-25
 70
     0
  3

  4

  5

  6

  7

 40
1.0
 41
2.5
 42
0.625
 43
3.75
 44
1.25
 45
0.0
 46
0.0
 47
0.0
 48
0.0
140
2.5
141
2.5
142
0.0
143
0.03937007874016
144
1.0
145
0.0
146
1.0
147
0.625
 71
     0
 72
     0
 73
     0
 74
     0
 75
     0
 76
     0
 77
     1
 78
     8
170
     0
171
     3
172
     1
173
     0
174
     0
175
     0
176
     0
177
     0
178
     0
270
     2
271
     2
272
     2
273
     2
274
     3
340
11
275
     0
280
     0
281
     0
282
     0
283
     0
284
     8
285
     0
286
     0
287
     5
288
     0
  0
ENDTAB
  0
TABLE
  2
BLOCK_RECORD
  5
1
330
0
100
AcDbSymbolTable
 70
    21
  0
BLOCK_RECORD
  5
1F
330
1
100
AcDbSymbolTableRecord
100
AcDbBlockTableRecord
  2
*MODEL_SPACE
  0
BLOCK_RECORD
  5
1B
330
1
100
AcDbSymbolTableRecord
100
AcDbBlockTableRecord
  2
*PAPER_SPACE
  0
BLOCK_RECORD
  5
78
330
1
100
AcDbSymbolTableRecord
100
AcDbBlockTableRecord
  2
EX_NORM
  0
BLOCK_RECORD
  5
7B
330
1
100
AcDbSymbolTableRecord
100
AcDbBlockTableRecord
  2
EX_BNORM
  0
BLOCK_RECORD
  5
7E
330
1
100
AcDbSymbolTableRecord
100
AcDbBlockTableRecord
  2
EX_BCIR
  0
BLOCK_RECORD
  5
81
330
1
100
AcDbSymbolTableRecord
100
AcDbBlockTableRecord
  2
EX_RCIVIL
  0
BLOCK_RECORD
  5
84
330
1
100
AcDbSymbolTableRecord
100
AcDbBlockTableRecord
  2
EX_SLANT
  0
BLOCK_RECORD
  5
87
330
1
100
AcDbSymbolTableRecord
100
AcDbBlockTableRecord
  2
EX_NONE
  0
BLOCK_RECORD
  5
8A
330
1
100
AcDbSymbolTableRecord
100
AcDbBlockTableRecord
  2
EX_CIVIL
  0
BLOCK_RECORD
  5
8D
330
1
100
AcDbSymbolTableRecord
100
AcDbBlockTableRecord
  2
EX_WCIR
  0
BLOCK_RECORD
  5
90
330
1
100
AcDbSymbolTableRecord
100
AcDbBlockTableRecord
  2
EX_WCIR2
  0
BLOCK_RECORD
  5
93
330
1
100
AcDbSymbolTableRecord
100
AcDbBlockTableRecord
  2
EX_WNORM
  0
BLOCK_RECORD
  5
96
330
1
100
AcDbSymbolTableRecord
100
AcDbBlockTableRecord
  2
EX_NNORM
  0
BLOCK_RECORD
  5
99
330
1
100
AcDbSymbolTableRecord
100
AcDbBlockTableRecord
  2
EX_BBOX
  0
BLOCK_RECORD
  5
9C
330
1
100
AcDbSymbolTableRecord
100
AcDbBlockTableRecord
  2
EX_WBOX
  0
BLOCK_RECORD
  5
9F
330
1
100
AcDbSymbolTableRecord
100
AcDbBlockTableRecord
  2
EX_INTEGRAL
  0
BLOCK_RECORD
  5
437
330
1
100
AcDbSymbolTableRecord
100
AcDbBlockTableRecord
  2
*D15
  0
BLOCK_RECORD
  5
444
330
1
100
AcDbSymbolTableRecord
100
AcDbBlockTableRecord
  2
*D16
  0
BLOCK_RECORD
  5
451
330
1
100
AcDbSymbolTableRecord
100
AcDbBlockTableRecord
  2
*D17
  0
BLOCK_RECORD
  5
45E
330
1
100
AcDbSymbolTableRecord
100
AcDbBlockTableRecord
  2
*D18
  0
BLOCK_RECORD
  5
46B
330
1
100
AcDbSymbolTableRecord
100
AcDbBlockTableRecord
  2
*D19
  0
BLOCK_RECORD
  5
477
330
1
100
AcDbSymbolTableRecord
100
AcDbBlockTableRecord
  2
*D20
  0
BLOCK_RECORD
  5
484
330
1
100
AcDbSymbolTableRecord
100
AcDbBlockTableRecord
  2
*D21
  0
ENDTAB
  0
ENDSEC
  0
SECTION
  2
BLOCKS
  0
BLOCK
  5
20
330
1F
100
AcDbEntity
  8
0
100
AcDbBlockBegin
  2
*MODEL_SPACE
 70
     0
 10
0.0
 20
0.0
 30
0.0
  3
*MODEL_SPACE
  1

  0
ENDBLK
  5
21
330
1F
100
AcDbEntity
  8
0
100
AcDbBlockEnd
  0
BLOCK
  5
1C
330
1B
100
AcDbEntity
 67
     1
  8
0
100
AcDbBlockBegin
  2
*PAPER_SPACE
 70
     0
 10
0.0
 20
0.0
 30
0.0
  3
*PAPER_SPACE
  1

  0
ENDBLK
  5
1D
330
1B
100
AcDbEntity
 67
     1
  8
0
100
AcDbBlockEnd
  0
BLOCK
  5
79
330
78
100
AcDbEntity
  8
0
100
AcDbBlockBegin
  2
EX_NORM
 70
     0
 10
0.0
 20
0.0
 30
0.0
  3
EX_NORM
  1

  0
LINE
  5
A2
330
78
100
AcDbEntity
  8
0
  6
CONTINUOUS
 62
     0
100
AcDbLine
 10
0.0
 20
0.0
 30
0.0
 11
-1.0
 21
0.0
 31
0.0
  0
LINE
  5
A3
330
78
100
AcDbEntity
  8
0
  6
CONTINUOUS
 62
     0
100
AcDbLine
 10
0.0
 20
0.0
 30
0.0
 11
-1.0
 21
0.166666667
 31
0.0
  0
LINE
  5
A4
330
78
100
AcDbEntity
  8
0
  6
CONTINUOUS
 62
     0
100
AcDbLine
 10
0.0
 20
0.0
 30
0.0
 11
-1.0
 21
-0.166666667
 31
0.0
  0
ENDBLK
  5
7A
330
78
100
AcDbEntity
  8
0
100
AcDbBlockEnd
  0
BLOCK
  5
7C
330
7B
100
AcDbEntity
  8
0
100
AcDbBlockBegin
  2
EX_BNORM
 70
     0
 10
0.0
 20
0.0
 30
0.0
  3
EX_BNORM
  1

  0
LINE
  5
A5
330
7B
100
AcDbEntity
  8
0
  6
CONTINUOUS
 62
     0
100
AcDbLine
 10
0.0
 20
0.0
 30
0.0
 11
-1.0
 21
0.0
 31
0.0
  0
LINE
  5
A6
330
7B
100
AcDbEntity
  8
0
  6
CONTINUOUS
 62
     0
100
AcDbLine
 10
0.0
 20
0.0
 30
0.0
 11
-1.0
 21
0.166666667
 31
0.0
  0
LINE
  5
A7
330
7B
100
AcDbEntity
  8
0
  6
CONTINUOUS
 62
     0
100
AcDbLine
 10
0.0
 20
0.0
 30
0.0
 11
-1.0
 21
-0.166666667
 31
0.0
  0
LINE
  5
A8
330
7B
100
AcDbEntity
  8
0
  6
CONTINUOUS
 62
     0
100
AcDbLine
 10
0.0
 20
0.0
 30
0.0
 11
-1.0
 21
0.083333333
 31
0.0
  0
LINE
  5
A9
330
7B
100
AcDbEntity
  8
0
  6
CONTINUOUS
 62
     0
100
AcDbLine
 10
0.0
 20
0.0
 30
0.0
 11
-1.0
 21
-0.083333333
 31
0.0
  0
LINE
  5
AA
330
7B
100
AcDbEntity
  8
0
  6
CONTINUOUS
 62
     0
100
AcDbLine
 10
-1.0
 20
0.166666667
 30
0.0
 11
-1.0
 21
-0.166666667
 31
0.0
  0
ENDBLK
  5
7D
330
7B
100
AcDbEntity
  8
0
100
AcDbBlockEnd
  0
BLOCK
  5
7F
330
7E
100
AcDbEntity
  8
0
100
AcDbBlockBegin
  2
EX_BCIR
 70
     0
 10
0.0
 20
0.0
 30
0.0
  3
EX_BCIR
  1

  0
LINE
  5
AB
330
7E
100
AcDbEntity
  8
0
  6
CONTINUOUS
 62
     0
100
AcDbLine
 10
0.0
 20
0.0
 30
0.0
 11
-1.0
 21
0.0
 31
0.0
  0
CIRCLE
  5
AC
330
7E
100
AcDbEntity
  8
0
  6
CONTINUOUS
 62
     0
100
AcDbCircle
 10
0.0
 20
0.0
 30
0.0
 40
0.5
  0
CIRCLE
  5
AD
330
7E
100
AcDbEntity
  8
0
  6
CONTINUOUS
 62
     0
100
AcDbCircle
 10
0.0
 20
0.0
 30
0.0
 40
0.25
  0
ENDBLK
  5
80
330
7E
100
AcDbEntity
  8
0
100
AcDbBlockEnd
  0
BLOCK
  5
82
330
81
100
AcDbEntity
  8
0
100
AcDbBlockBegin
  2
EX_RCIVIL
 70
     0
 10
0.0
 20
0.0
 30
0.0
  3
EX_RCIVIL
  1

  0
LINE
  5
AE
330
81
100
AcDbEntity
  8
0
  6
CONTINUOUS
 62
     0
100
AcDbLine
 10
0.0
 20
0.0
 30
0.0
 11
-1.0
 21
0.0
 31
0.0
  0
LINE
  5
AF
330
81
100
AcDbEntity
  8
0
  6
CONTINUOUS
 62
     0
100
AcDbLine
 10
-1.0
 20
-0.25
 30
0.0
 11
0.0
 21
-0.25
 31
0.0
  0
LINE
  5
B0
330
81
100
AcDbEntity
  8
0
  6
CONTINUOUS
 62
     0
100
AcDbLine
 10
-1.0
 20
-0.125
 30
0.0
 11
0.0
 21
-0.125
 31
0.0
  0
ENDBLK
  5
83
330
81
100
AcDbEntity
  8
0
100
AcDbBlockEnd
  0
BLOCK
  5
85
330
84
100
AcDbEntity
  8
0
100
AcDbBlockBegin
  2
EX_SLANT
 70
     0
 10
0.0
 20
0.0
 30
0.0
  3
EX_SLANT
  1

  0
LINE
  5
B1
330
84
100
AcDbEntity
  8
0
  6
CONTINUOUS
 62
     0
100
AcDbLine
 10
0.0
 20
0.0
 30
0.0
 11
-1.0
 21
0.0
 31
0.0
  0
LINE
  5
B2
330
84
100
AcDbEntity
  8
0
  6
CONTINUOUS
 62
     0
100
AcDbLine
 10
0.707106781
 20
0.707106781
 30
0.0
 11
-0.707106781
 21
-0.707106781
 31
0.0
  0
ENDBLK
  5
86
330
84
100
AcDbEntity
  8
0
100
AcDbBlockEnd
  0
BLOCK
  5
88
330
87
100
AcDbEntity
  8
0
100
AcDbBlockBegin
  2
EX_NONE
 70
     0
 10
0.0
 20
0.0
 30
0.0
  3
EX_NONE
  1

  0
LINE
  5
B3
330
87
100
AcDbEntity
  8
0
  6
CONTINUOUS
 62
     0
100
AcDbLine
 10
0.0
 20
0.0
 30
0.0
 11
-1.0
 21
0.0
 31
0.0
  0
ENDBLK
  5
89
330
87
100
AcDbEntity
  8
0
100
AcDbBlockEnd
  0
BLOCK
  5
8B
330
8A
100
AcDbEntity
  8
0
100
AcDbBlockBegin
  2
EX_CIVIL
 70
     0
 10
0.0
 20
0.0
 30
0.0
  3
EX_CIVIL
  1

  0
LINE
  5
B4
330
8A
100
AcDbEntity
  8
0
  6
CONTINUOUS
 62
     0
100
AcDbLine
 10
0.0
 20
0.0
 30
0.0
 11
-1.0
 21
0.0
 31
0.0
  0
LINE
  5
B5
330
8A
100
AcDbEntity
  8
0
  6
CONTINUOUS
 62
     0
100
AcDbLine
 10
-1.0
 20
0.25
 30
0.0
 11
0.0
 21
0.25
 31
0.0
  0
LINE
  5
B6
330
8A
100
AcDbEntity
  8
0
  6
CONTINUOUS
 62
     0
100
AcDbLine
 10
-1.0
 20
0.125
 30
0.0
 11
0.0
 21
0.125
 31
0.0
  0
ENDBLK
  5
8C
330
8A
100
AcDbEntity
  8
0
100
AcDbBlockEnd
  0
BLOCK
  5
8E
330
8D
100
AcDbEntity
  8
0
100
AcDbBlockBegin
  2
EX_WCIR
 70
     0
 10
0.0
 20
0.0
 30
0.0
  3
EX_WCIR
  1

  0
LINE
  5
B7
330
8D
100
AcDbEntity
  8
0
  6
CONTINUOUS
 62
     0
100
AcDbLine
 10
0.0
 20
0.0
 30
0.0
 11
-1.0
 21
0.0
 31
0.0
  0
CIRCLE
  5
B8
330
8D
100
AcDbEntity
  8
0
  6
CONTINUOUS
 62
     0
100
AcDbCircle
 10
0.0
 20
0.0
 30
0.0
 40
0.5
  0
ENDBLK
  5
8F
330
8D
100
AcDbEntity
  8
0
100
AcDbBlockEnd
  0
BLOCK
  5
91
330
90
100
AcDbEntity
  8
0
100
AcDbBlockBegin
  2
EX_WCIR2
 70
     0
 10
0.0
 20
0.0
 30
0.0
  3
EX_WCIR2
  1

  0
LINE
  5
B9
330
90
100
AcDbEntity
  8
0
  6
CONTINUOUS
 62
     0
100
AcDbLine
 10
-0.5
 20
0.0
 30
0.0
 11
-1.0
 21
0.0
 31
0.0
  0
CIRCLE
  5
BA
330
90
100
AcDbEntity
  8
0
  6
CONTINUOUS
 62
     0
100
AcDbCircle
 10
0.0
 20
0.0
 30
0.0
 40
0.5
  0
ENDBLK
  5
92
330
90
100
AcDbEntity
  8
0
100
AcDbBlockEnd
  0
BLOCK
  5
94
330
93
100
AcDbEntity
  8
0
100
AcDbBlockBegin
  2
EX_WNORM
 70
     0
 10
0.0
 20
0.0
 30
0.0
  3
EX_WNORM
  1

  0
LINE
  5
BB
330
93
100
AcDbEntity
  8
0
  6
CONTINUOUS
 62
     0
100
AcDbLine
 10
-1.0
 20
0.0
 30
0.0
 11
-1.0
 21
0.0
 31
0.0
  0
LINE
  5
BC
330
93
100
AcDbEntity
  8
0
  6
CONTINUOUS
 62
     0
100
AcDbLine
 10
0.0
 20
0.0
 30
0.0
 11
-1.0
 21
0.166666667
 31
0.0
  0
LINE
  5
BD
330
93
100
AcDbEntity
  8
0
  6
CONTINUOUS
 62
     0
100
AcDbLine
 10
0.0
 20
0.0
 30
0.0
 11
-1.0
 21
-0.166666667
 31
0.0
  0
LINE
  5
BE
330
93
100
AcDbEntity
  8
0
  6
CONTINUOUS
 62
     0
100
AcDbLine
 10
-1.0
 20
0.166666667
 30
0.0
 11
-1.0
 21
-0.166666667
 31
0.0
  0
ENDBLK
  5
95
330
93
100
AcDbEntity
  8
0
100
AcDbBlockEnd
  0
BLOCK
  5
97
330
96
100
AcDbEntity
  8
0
100
AcDbBlockBegin
  2
EX_NNORM
 70
     0
 10
0.0
 20
0.0
 30
0.0
  3
EX_NNORM
  1

  0
LINE
  5
BF
330
96
100
AcDbEntity
  8
0
  6
CONTINUOUS
 62
     0
100
AcDbLine
 10
0.0
 20
0.0
 30
0.0
 11
-1.0
 21
0.0
 31
0.0
  0
LINE
  5
C0
330
96
100
AcDbEntity
  8
0
  6
CONTINUOUS
 62
     0
100
AcDbLine
 10
0.0
 20
0.0
 30
0.0
 11
-1.0
 21
0.166666667
 31
0.0
  0
LINE
  5
C1
330
96
100
AcDbEntity
  8
0
  6
CONTINUOUS
 62
     0
100
AcDbLine
 10
0.0
 20
0.0
 30
0.0
 11
-1.0
 21
-0.166666667
 31
0.0
  0
LINE
  5
C2
330
96
100
AcDbEntity
  8
0
  6
CONTINUOUS
 62
     0
100
AcDbLine
 10
-1.0
 20
0.166666667
 30
0.0
 11
-1.0
 21
-0.166666667
 31
0.0
  0
ENDBLK
  5
98
330
96
100
AcDbEntity
  8
0
100
AcDbBlockEnd
  0
BLOCK
  5
9A
330
99
100
AcDbEntity
  8
0
100
AcDbBlockBegin
  2
EX_BBOX
 70
     0
 10
0.0
 20
0.0
 30
0.0
  3
EX_BBOX
  1

  0
LINE
  5
C3
330
99
100
AcDbEntity
  8
0
  6
CONTINUOUS
 62
     0
100
AcDbLine
 10
0.0
 20
0.0
 30
0.0
 11
-1.0
 21
0.0
 31
0.0
  0
LINE
  5
C4
330
99
100
AcDbEntity
  8
0
  6
CONTINUOUS
 62
     0
100
AcDbLine
 10
-0.5
 20
0.5
 30
0.0
 11
0.5
 21
0.5
 31
0.0
  0
LINE
  5
C5
330
99
100
AcDbEntity
  8
0
  6
CONTINUOUS
 62
     0
100
AcDbLine
 10
0.5
 20
0.5
 30
0.0
 11
0.5
 21
-0.5
 31
0.0
  0
LINE
  5
C6
330
99
100
AcDbEntity
  8
0
  6
CONTINUOUS
 62
     0
100
AcDbLine
 10
0.5
 20
-0.5
 30
0.0
 11
-0.5
 21
-0.5
 31
0.0
  0
LINE
  5
C7
330
99
100
AcDbEntity
  8
0
  6
CONTINUOUS
 62
     0
100
AcDbLine
 10
-0.5
 20
-0.5
 30
0.0
 11
-0.5
 21
0.5
 31
0.0
  0
LINE
  5
C8
330
99
100
AcDbEntity
  8
0
  6
CONTINUOUS
 62
     0
100
AcDbLine
 10
-0.25
 20
0.25
 30
0.0
 11
0.25
 21
0.25
 31
0.0
  0
LINE
  5
C9
330
99
100
AcDbEntity
  8
0
  6
CONTINUOUS
 62
     0
100
AcDbLine
 10
0.25
 20
0.25
 30
0.0
 11
0.25
 21
-0.25
 31
0.0
  0
LINE
  5
CA
330
99
100
AcDbEntity
  8
0
  6
CONTINUOUS
 62
     0
100
AcDbLine
 10
0.25
 20
-0.25
 30
0.0
 11
-0.25
 21
-0.25
 31
0.0
  0
LINE
  5
CB
330
99
100
AcDbEntity
  8
0
  6
CONTINUOUS
 62
     0
100
AcDbLine
 10
-0.25
 20
-0.25
 30
0.0
 11
-0.25
 21
0.25
 31
0.0
  0
ENDBLK
  5
9B
330
99
100
AcDbEntity
  8
0
100
AcDbBlockEnd
  0
BLOCK
  5
9D
330
9C
100
AcDbEntity
  8
0
100
AcDbBlockBegin
  2
EX_WBOX
 70
     0
 10
0.0
 20
0.0
 30
0.0
  3
EX_WBOX
  1

  0
LINE
  5
CC
330
9C
100
AcDbEntity
  8
0
  6
CONTINUOUS
 62
     0
100
AcDbLine
 10
-0.5
 20
0.0
 30
0.0
 11
-1.0
 21
0.0
 31
0.0
  0
LINE
  5
CD
330
9C
100
AcDbEntity
  8
0
  6
CONTINUOUS
 62
     0
100
AcDbLine
 10
-0.5
 20
0.5
 30
0.0
 11
0.5
 21
0.5
 31
0.0
  0
LINE
  5
CE
330
9C
100
AcDbEntity
  8
0
  6
CONTINUOUS
 62
     0
100
AcDbLine
 10
0.5
 20
0.5
 30
0.0
 11
0.5
 21
-0.5
 31
0.0
  0
LINE
  5
CF
330
9C
100
AcDbEntity
  8
0
  6
CONTINUOUS
 62
     0
100
AcDbLine
 10
0.5
 20
-0.5
 30
0.0
 11
-0.5
 21
-0.5
 31
0.0
  0
LINE
  5
D0
330
9C
100
AcDbEntity
  8
0
  6
CONTINUOUS
 62
     0
100
AcDbLine
 10
-0.5
 20
-0.5
 30
0.0
 11
-0.5
 21
0.5
 31
0.0
  0
ENDBLK
  5
9E
330
9C
100
AcDbEntity
  8
0
100
AcDbBlockEnd
  0
BLOCK
  5
A0
330
9F
100
AcDbEntity
  8
0
100
AcDbBlockBegin
  2
EX_INTEGRAL
 70
     0
 10
0.0
 20
0.0
 30
0.0
  3
EX_INTEGRAL
  1

  0
LINE
  5
D1
330
9F
100
AcDbEntity
  8
0
  6
CONTINUOUS
 62
     0
100
AcDbLine
 10
0.0
 20
0.0
 30
0.0
 11
-1.0
 21
0.0
 31
0.0
  0
ARC
  5
D2
330
9F
100
AcDbEntity
  8
0
  6
CONTINUOUS
 62
     0
100
AcDbCircle
 10
0.542115
 20
0.164992
 30
0.0
 40
0.56667
100
AcDbArc
 50
73.07249033629006
 51
196.9275130221199
  0
ARC
  5
D3
330
9F
100
AcDbEntity
  8
0
  6
CONTINUOUS
 62
     0
100
AcDbCircle
 10
-0.542115
 20
-0.164992
 30
0.0
 40
0.56667
100
AcDbArc
 50
253.0724869220464
 51
16.9275130559125
  0
ENDBLK
  5
A1
330
9F
100
AcDbEntity
  8
0
100
AcDbBlockEnd
  0
BLOCK
  5
438
330
437
100
AcDbEntity
  8
0
100
AcDbBlockBegin
  2
*D15
 70
     1
 10
0.0
 20
0.0
 30
0.0
  3
*D15
  1

  0
LINE
  5
43A
330
437
100
AcDbEntity
  8
LAY-20
  6
CONTINUOUS
 62
     4
100
AcDbLine
 10
383.10000000004
 20
78.9166975080268
 30
0.0
 11
383.10000000004
 21
42.9166975080268
 31
0.0
  0
LINE
  5
43B
330
437
100
AcDbEntity
  8
LAY-20
  6
CONTINUOUS
 62
     4
100
AcDbLine
 10
546.9000000000301
 20
78.9166975080268
 30
0.0
 11
546.9000000000301
 21
42.9166975080268
 31
0.0
  0
LINE
  5
43C
330
437
100
AcDbEntity
  8
LAY-20
  6
CONTINUOUS
 62
     4
100
AcDbLine
 10
390.60000000004
 20
47.4166975080268
 30
0.0
 11
539.4000000000301
 21
47.4166975080268
 31
0.0
  0
INSERT
  5
43D
330
437
100
AcDbEntity
  8
LAY-20
 62
     4
100
AcDbBlockReference
  2
EX_BNORM
 10
383.10000000004
 20
47.4166975080268
 30
0.0
 41
7.5
 42
7.5
 43
7.5
 50
180.0
  0
INSERT
  5
43E
330
437
100
AcDbEntity
  8
LAY-20
 62
     4
100
AcDbBlockReference
  2
EX_BNORM
 10
546.9000000000301
 20
47.4166975080268
 30
0.0
 41
7.5
 42
7.5
 43
7.5
  0
MTEXT
  5
43F
330
437
100
AcDbEntity
  8
LAY-20
 62
     7
100
AcDbMText
 10
465.000000000035
 20
54.91669750802679
 30
0.0
 40
9.3543312
 41
0.0
 71
     5
 72
     1
  1
Rｃ6（163.8）
  7
EXCADDIM1
  0
POINT
  5
440
330
437
100
AcDbEntity
  8
DEFPOINTS
 62
     0
100
AcDbPoint
 10
383.10000000004
 20
83.4166975080268
 30
0.0
  0
POINT
  5
441
330
437
100
AcDbEntity
  8
DEFPOINTS
 62
     0
100
AcDbPoint
 10
546.9000000000301
 20
83.4166975080268
 30
0.0
  0
POINT
  5
442
330
437
100
AcDbEntity
  8
DEFPOINTS
 62
     0
100
AcDbPoint
 10
546.9000000000301
 20
47.4166975080268
 30
0.0
  0
ENDBLK
  5
439
330
437
100
AcDbEntity
  8
0
100
AcDbBlockEnd
  0
BLOCK
  5
445
330
444
100
AcDbEntity
  8
0
100
AcDbBlockBegin
  2
*D16
 70
     1
 10
0.0
 20
0.0
 30
0.0
  3
*D16
  1

  0
LINE
  5
447
330
444
100
AcDbEntity
  8
LAY-20
  6
CONTINUOUS
 62
     4
100
AcDbLine
 10
265.0000000000101
 20
159.9166975080299
 30
0.0
 11
265.0000000000101
 21
406.4999999999998
 31
0.0
  0
LINE
  5
448
330
444
100
AcDbEntity
  8
LAY-20
  6
CONTINUOUS
 62
     4
100
AcDbLine
 10
665.00000000001
 20
159.9166975080299
 30
0.0
 11
665.00000000001
 21
406.4999999999998
 31
0.0
  0
LINE
  5
449
330
444
100
AcDbEntity
  8
LAY-20
  6
CONTINUOUS
 62
     4
100
AcDbLine
 10
272.5000000000101
 20
401.9999999999998
 30
0.0
 11
657.50000000001
 21
401.9999999999998
 31
0.0
  0
INSERT
  5
44A
330
444
100
AcDbEntity
  8
LAY-20
 62
     4
100
AcDbBlockReference
  2
EX_BNORM
 10
265.0000000000101
 20
401.9999999999998
 30
0.0
 41
7.5
 42
7.5
 43
7.5
 50
180.0
  0
INSERT
  5
44B
330
444
100
AcDbEntity
  8
LAY-20
 62
     4
100
AcDbBlockReference
  2
EX_BNORM
 10
665.00000000001
 20
401.9999999999998
 30
0.0
 41
7.5
 42
7.5
 43
7.5
  0
MTEXT
  5
44C
330
444
100
AcDbEntity
  8
LAY-20
 62
     7
100
AcDbMText
 10
465.00000000001
 20
409.4999999999998
 30
0.0
 40
9.3543312
 41
0.0
 71
     5
 72
     1
  1
%%c400
  7
EXCADDIM1
  0
POINT
  5
44D
330
444
100
AcDbEntity
  8
DEFPOINTS
 62
     0
100
AcDbPoint
 10
265.0000000000101
 20
155.4166975080299
 30
0.0
  0
POINT
  5
44E
330
444
100
AcDbEntity
  8
DEFPOINTS
 62
     0
100
AcDbPoint
 10
665.00000000001
 20
155.4166975080299
 30
0.0
  0
POINT
  5
44F
330
444
100
AcDbEntity
  8
DEFPOINTS
 62
     0
100
AcDbPoint
 10
665.00000000001
 20
401.9999999999998
 30
0.0
  0
ENDBLK
  5
446
330
444
100
AcDbEntity
  8
0
100
AcDbBlockEnd
  0
BLOCK
  5
452
330
451
100
AcDbEntity
  8
0
100
AcDbBlockBegin
  2
*D17
 70
     1
 10
0.0
 20
0.0
 30
0.0
  3
*D17
  1

  0
LINE
  5
454
330
451
100
AcDbEntity
  8
LAY-20
  6
CONTINUOUS
 62
     4
100
AcDbLine
 10
356.5000000000401
 20
159.4999999999999
 30
0.0
 11
356.5000000000401
 21
364.4999999999999
 31
0.0
  0
LINE
  5
455
330
451
100
AcDbEntity
  8
LAY-20
  6
CONTINUOUS
 62
     4
100
AcDbLine
 10
573.49999999997
 20
159.4999999999999
 30
0.0
 11
573.49999999997
 21
364.4999999999999
 31
0.0
  0
LINE
  5
456
330
451
100
AcDbEntity
  8
LAY-20
  6
CONTINUOUS
 62
     4
100
AcDbLine
 10
364.0000000000401
 20
359.9999999999999
 30
0.0
 11
565.99999999997
 21
359.9999999999999
 31
0.0
  0
INSERT
  5
457
330
451
100
AcDbEntity
  8
LAY-20
 62
     4
100
AcDbBlockReference
  2
EX_BNORM
 10
356.5000000000401
 20
359.9999999999999
 30
0.0
 41
7.5
 42
7.5
 43
7.5
 50
180.0
  0
INSERT
  5
458
330
451
100
AcDbEntity
  8
LAY-20
 62
     4
100
AcDbBlockReference
  2
EX_BNORM
 10
573.49999999997
 20
359.9999999999999
 30
0.0
 41
7.5
 42
7.5
 43
7.5
  0
MTEXT
  5
459
330
451
100
AcDbEntity
  8
LAY-20
 62
     7
100
AcDbMText
 10
465.0000000000051
 20
367.4999999999999
 30
0.0
 40
9.3543312
 41
0.0
 71
     5
 72
     1
  1
%%c217
  7
EXCADDIM1
  0
POINT
  5
45A
330
451
100
AcDbEntity
  8
DEFPOINTS
 62
     0
100
AcDbPoint
 10
356.5000000000401
 20
154.9999999999999
 30
0.0
  0
POINT
  5
45B
330
451
100
AcDbEntity
  8
DEFPOINTS
 62
     0
100
AcDbPoint
 10
573.49999999997
 20
154.9999999999999
 30
0.0
  0
POINT
  5
45C
330
451
100
AcDbEntity
  8
DEFPOINTS
 62
     0
100
AcDbPoint
 10
573.49999999997
 20
359.9999999999999
 30
0.0
  0
ENDBLK
  5
453
330
451
100
AcDbEntity
  8
0
100
AcDbBlockEnd
  0
BLOCK
  5
45F
330
45E
100
AcDbEntity
  8
0
100
AcDbBlockBegin
  2
*D18
 70
     1
 10
0.0
 20
0.0
 30
0.0
  3
*D18
  1

  0
LINE
  5
461
330
45E
100
AcDbEntity
  8
LAY-20
  6
CONTINUOUS
 62
     4
100
AcDbLine
 10
577.5
 20
77.4166975080268
 30
0.0
 11
699.5
 21
77.4166975080268
 31
0.0
  0
LINE
  5
462
330
45E
100
AcDbEntity
  8
LAY-20
  6
CONTINUOUS
 62
     4
100
AcDbLine
 10
668.5
 20
167.4166975080349
 30
0.0
 11
699.5
 21
167.4166975080349
 31
0.0
  0
LINE
  5
463
330
45E
100
AcDbEntity
  8
LAY-20
  6
CONTINUOUS
 62
     4
100
AcDbLine
 10
695.0
 20
84.9166975080268
 30
0.0
 11
695.0
 21
159.9166975080349
 31
0.0
  0
INSERT
  5
464
330
45E
100
AcDbEntity
  8
LAY-20
 62
     4
100
AcDbBlockReference
  2
EX_BNORM
 10
695.0
 20
77.4166975080268
 30
0.0
 41
7.5
 42
7.5
 43
7.5
 50
270.0
  0
INSERT
  5
465
330
45E
100
AcDbEntity
  8
LAY-20
 62
     4
100
AcDbBlockReference
  2
EX_BNORM
 10
695.0
 20
167.4166975080349
 30
0.0
 41
7.5
 42
7.5
 43
7.5
 50
90.0
  0
MTEXT
  5
466
330
45E
100
AcDbEntity
  8
LAY-20
 62
     7
100
AcDbMText
 10
687.5
 20
122.4166975080309
 30
0.0
 40
9.3543312
 41
0.0
 71
     5
 72
     1
  1
90
  7
EXCADDIM1
 11
0.0
 21
1.0
 31
0.0
  0
POINT
  5
467
330
45E
100
AcDbEntity
  8
DEFPOINTS
 62
     0
100
AcDbPoint
 10
573.0
 20
77.4166975080268
 30
0.0
  0
POINT
  5
468
330
45E
100
AcDbEntity
  8
DEFPOINTS
 62
     0
100
AcDbPoint
 10
664.0
 20
167.4166975080349
 30
0.0
  0
POINT
  5
469
330
45E
100
AcDbEntity
  8
DEFPOINTS
 62
     0
100
AcDbPoint
 10
695.0
 20
167.4166975080349
 30
0.0
  0
ENDBLK
  5
460
330
45E
100
AcDbEntity
  8
0
100
AcDbBlockEnd
  0
BLOCK
  5
46C
330
46B
100
AcDbEntity
  8
0
100
AcDbBlockBegin
  2
*D19
 70
     1
 10
0.0
 20
0.0
 30
0.0
  3
*D19
  1

  0
LINE
  5
46E
330
46B
100
AcDbEntity
  8
LAY-20
  6
CONTINUOUS
 62
     4
100
AcDbLine
 10
469.50000000001
 20
330.77445711342
 30
0.0
 11
699.5
 21
330.77445711342
 31
0.0
  0
LINE
  5
46F
330
46B
100
AcDbEntity
  8
LAY-20
  6
CONTINUOUS
 62
     4
100
AcDbLine
 10
695.0
 20
323.27445711342
 30
0.0
 11
695.0
 21
174.91669750803
 31
0.0
  0
INSERT
  5
470
330
46B
100
AcDbEntity
  8
LAY-20
 62
     4
100
AcDbBlockReference
  2
EX_BNORM
 10
695.0
 20
330.77445711342
 30
0.0
 41
7.5
 42
7.5
 43
7.5
 50
90.0
  0
INSERT
  5
471
330
46B
100
AcDbEntity
  8
LAY-20
 62
     4
100
AcDbBlockReference
  2
EX_BNORM
 10
695.0
 20
167.41669750803
 30
0.0
 41
7.5
 42
7.5
 43
7.5
 50
270.0
  0
MTEXT
  5
472
330
46B
100
AcDbEntity
  8
LAY-20
 62
     7
100
AcDbMText
 10
687.5
 20
249.095577310725
 30
0.0
 40
9.3543312
 41
0.0
 71
     5
 72
     1
  1
163
  7
EXCADDIM1
 11
0.0
 21
1.0
 31
0.0
  0
POINT
  5
473
330
46B
100
AcDbEntity
  8
DEFPOINTS
 62
     0
100
AcDbPoint
 10
465.00000000001
 20
330.77445711342
 30
0.0
  0
POINT
  5
474
330
46B
100
AcDbEntity
  8
DEFPOINTS
 62
     0
100
AcDbPoint
 10
695.0
 20
167.41669750803
 30
0.0
  0
POINT
  5
475
330
46B
100
AcDbEntity
  8
DEFPOINTS
 62
     0
100
AcDbPoint
 10
695.0
 20
167.41669750803
 30
0.0
  0
ENDBLK
  5
46D
330
46B
100
AcDbEntity
  8
0
100
AcDbBlockEnd
  0
BLOCK
  5
478
330
477
100
AcDbEntity
  8
0
100
AcDbBlockBegin
  2
*D20
 70
     1
 10
0.0
 20
0.0
 30
0.0
  3
*D20
  1

  0
LINE
  5
47A
330
477
100
AcDbEntity
  8
LAY-20
  6
CONTINUOUS
 62
     4
100
AcDbLine
 10
322.50000000001
 20
159.27445711342
 30
0.0
 11
322.50000000001
 21
385.5
 31
0.0
  0
LINE
  5
47B
330
477
100
AcDbEntity
  8
LAY-20
  6
CONTINUOUS
 62
     4
100
AcDbLine
 10
607.50000000001
 20
159.27445711342
 30
0.0
 11
607.50000000001
 21
385.5
 31
0.0
  0
LINE
  5
47C
330
477
100
AcDbEntity
  8
LAY-20
  6
CONTINUOUS
 62
     4
100
AcDbLine
 10
330.00000000001
 20
381.0
 30
0.0
 11
600.00000000001
 21
381.0
 31
0.0
  0
INSERT
  5
47D
330
477
100
AcDbEntity
  8
LAY-20
 62
     4
100
AcDbBlockReference
  2
EX_BNORM
 10
322.50000000001
 20
381.0
 30
0.0
 41
7.5
 42
7.5
 43
7.5
 50
180.0
  0
INSERT
  5
47E
330
477
100
AcDbEntity
  8
LAY-20
 62
     4
100
AcDbBlockReference
  2
EX_BNORM
 10
607.50000000001
 20
381.0
 30
0.0
 41
7.5
 42
7.5
 43
7.5
  0
MTEXT
  5
47F
330
477
100
AcDbEntity
  8
LAY-20
 62
     7
100
AcDbMText
 10
465.00000000001
 20
388.5
 30
0.0
 40
9.3543312
 41
0.0
 71
     5
 72
     1
  1
%%c285
  7
EXCADDIM1
  0
POINT
  5
480
330
477
100
AcDbEntity
  8
DEFPOINTS
 62
     0
100
AcDbPoint
 10
322.50000000001
 20
154.77445711342
 30
0.0
  0
POINT
  5
481
330
477
100
AcDbEntity
  8
DEFPOINTS
 62
     0
100
AcDbPoint
 10
607.50000000001
 20
154.77445711342
 30
0.0
  0
POINT
  5
482
330
477
100
AcDbEntity
  8
DEFPOINTS
 62
     0
100
AcDbPoint
 10
607.50000000001
 20
381.0
 30
0.0
  0
ENDBLK
  5
479
330
477
100
AcDbEntity
  8
0
100
AcDbBlockEnd
  0
BLOCK
  5
485
330
484
100
AcDbEntity
  8
0
100
AcDbBlockBegin
  2
*D21
 70
     1
 10
0.0
 20
0.0
 30
0.0
  3
*D21
  1

  0
LINE
  5
487
330
484
100
AcDbEntity
  8
LAY-20
  6
CONTINUOUS
 62
     4
100
AcDbLine
 10
352.84712708837
 20
127.41669750803
 30
0.0
 11
230.50000000001
 21
127.41669750803
 31
0.0
  0
LINE
  5
488
330
484
100
AcDbEntity
  8
LAY-20
  6
CONTINUOUS
 62
     4
100
AcDbLine
 10
261.50000000001
 20
167.41669750804
 30
0.0
 11
230.50000000001
 21
167.41669750804
 31
0.0
  0
LINE
  5
489
330
484
100
AcDbEntity
  8
LAY-20
  6
CONTINUOUS
 62
     4
100
AcDbLine
 10
235.00000000001
 20
134.91669750803
 30
0.0
 11
235.00000000001
 21
159.91669750804
 31
0.0
  0
INSERT
  5
48A
330
484
100
AcDbEntity
  8
LAY-20
 62
     4
100
AcDbBlockReference
  2
EX_BNORM
 10
235.00000000001
 20
127.41669750803
 30
0.0
 41
7.5
 42
7.5
 43
7.5
 50
270.0
  0
INSERT
  5
48B
330
484
100
AcDbEntity
  8
LAY-20
 62
     4
100
AcDbBlockReference
  2
EX_BNORM
 10
235.00000000001
 20
167.41669750804
 30
0.0
 41
7.5
 42
7.5
 43
7.5
 50
90.0
  0
MTEXT
  5
48C
330
484
100
AcDbEntity
  8
LAY-20
 62
     7
100
AcDbMText
 10
227.50000000001
 20
147.416697508035
 30
0.0
 40
9.3543312
 41
0.0
 71
     5
 72
     1
  1
40
  7
EXCADDIM1
 11
0.0
 21
1.0
 31
0.0
  0
POINT
  5
48D
330
484
100
AcDbEntity
  8
DEFPOINTS
 62
     0
100
AcDbPoint
 10
357.34712708837
 20
127.41669750803
 30
0.0
  0
POINT
  5
48E
330
484
100
AcDbEntity
  8
DEFPOINTS
 62
     0
100
AcDbPoint
 10
266.00000000001
 20
167.41669750804
 30
0.0
  0
POINT
  5
48F
330
484
100
AcDbEntity
  8
DEFPOINTS
 62
     0
100
AcDbPoint
 10
235.00000000001
 20
167.41669750804
 30
0.0
  0
ENDBLK
  5
486
330
484
100
AcDbEntity
  8
0
100
AcDbBlockEnd
  0
ENDSEC
  0
SECTION
  2
ENTITIES
  0
LINE
  5
D4
330
1F
100
AcDbEntity
  8
LAY-10
  6
CONTINUOUS
 62
     7
100
AcDbLine
 10
357.0000000000039
 20
125.4999586287142
 30
0.0
 11
358.9167388793169
 21
127.416697508027
 31
0.0
  0
LINE
  5
D5
330
1F
100
AcDbEntity
  8
LAY-10
  6
CONTINUOUS
 62
     7
100
AcDbLine
 10
357.0000000000039
 20
122.671531503968
 30
0.0
 11
361.7451660040632
 21
127.416697508027
 31
0.0
  0
LINE
  5
D6
330
1F
100
AcDbEntity
  8
LAY-10
  6
CONTINUOUS
 62
     7
100
AcDbLine
 10
357.0000000000039
 20
119.8431043792218
 30
0.0
 11
363.5000000000089
 21
126.3431043792268
 31
0.0
  0
LINE
  5
D7
330
1F
100
AcDbEntity
  8
LAY-10
  6
CONTINUOUS
 62
     7
100
AcDbLine
 10
357.0000000000039
 20
117.0146772544756
 30
0.0
 11
363.5000000000089
 21
123.5146772544805
 31
0.0
  0
LINE
  5
D8
330
1F
100
AcDbEntity
  8
LAY-10
  6
CONTINUOUS
 62
     7
100
AcDbLine
 10
357.0000000000039
 20
114.1862501297294
 30
0.0
 11
363.5000000000089
 21
120.6862501297343
 31
0.0
  0
LINE
  5
D9
330
1F
100
AcDbEntity
  8
LAY-10
  6
CONTINUOUS
 62
     7
100
AcDbLine
 10
357.0000000000039
 20
111.3578230049832
 30
0.0
 11
363.5000000000089
 21
117.8578230049882
 31
0.0
  0
LINE
  5
DA
330
1F
100
AcDbEntity
  8
LAY-10
  6
CONTINUOUS
 62
     7
100
AcDbLine
 10
357.0000000000039
 20
108.529395880237
 30
0.0
 11
363.5000000000089
 21
115.029395880242
 31
0.0
  0
LINE
  5
DB
330
1F
100
AcDbEntity
  8
LAY-10
  6
CONTINUOUS
 62
     7
100
AcDbLine
 10
357.0000000000039
 20
105.7009687554907
 30
0.0
 11
363.5000000000089
 21
112.2009687554958
 31
0.0
  0
LINE
  5
DC
330
1F
100
AcDbEntity
  8
LAY-10
  6
CONTINUOUS
 62
     7
100
AcDbLine
 10
357.0000000000039
 20
102.8725416307445
 30
0.0
 11
363.5000000000089
 21
109.3725416307495
 31
0.0
  0
LINE
  5
DD
330
1F
100
AcDbEntity
  8
LAY-10
  6
CONTINUOUS
 62
     7
100
AcDbLine
 10
357.0000000000039
 20
100.0441145059985
 30
0.0
 11
363.5000000000089
 21
106.5441145060033
 31
0.0
  0
LINE
  5
DE
330
1F
100
AcDbEntity
  8
LAY-10
  6
CONTINUOUS
 62
     7
100
AcDbLine
 10
357.0000000000039
 20
97.21568738125234
 30
0.0
 11
363.5000000000089
 21
103.7156873812571
 31
0.0
  0
LINE
  5
DF
330
1F
100
AcDbEntity
  8
LAY-10
  6
CONTINUOUS
 62
     7
100
AcDbLine
 10
357.0000000000039
 20
94.38726025650612
 30
0.0
 11
363.5000000000037
 21
100.8872602565059
 31
0.0
  0
LINE
  5
E0
330
1F
100
AcDbEntity
  8
LAY-10
  6
CONTINUOUS
 62
     7
100
AcDbLine
 10
357.0000000000039
 20
91.55883313175991
 30
0.0
 11
363.5000000000037
 21
98.05883313175968
 31
0.0
  0
LINE
  5
E1
330
1F
100
AcDbEntity
  8
LAY-10
  6
CONTINUOUS
 62
     7
100
AcDbLine
 10
357.0000000000039
 20
88.7304060070137
 30
0.0
 11
363.5000000000037
 21
95.23040600701347
 31
0.0
  0
LINE
  5
E2
330
1F
100
AcDbEntity
  8
LAY-10
  6
CONTINUOUS
 62
     7
100
AcDbLine
 10
357.0000000000039
 20
85.90197888226749
 30
0.0
 11
363.5000000000037
 21
92.40197888226726
 31
0.0
  0
LINE
  5
E3
330
1F
100
AcDbEntity
  8
LAY-10
  6
CONTINUOUS
 62
     7
100
AcDbLine
 10
357.0000000000039
 20
83.07355175752127
 30
0.0
 11
363.5000000000037
 21
89.57355175752105
 31
0.0
  0
LINE
  5
E4
330
1F
100
AcDbEntity
  8
LAY-10
  6
CONTINUOUS
 62
     7
100
AcDbLine
 10
357.0000000000039
 20
80.24512463277506
 30
0.0
 11
363.5000000000037
 21
86.74512463277506
 31
0.0
  0
LINE
  5
E5
330
1F
100
AcDbEntity
  8
LAY-10
  6
CONTINUOUS
 62
     7
100
AcDbLine
 10
357.0000000000039
 20
77.41669750802885
 30
0.0
 11
363.5000000000037
 21
83.91669750802885
 31
0.0
  0
LINE
  5
E6
330
1F
100
AcDbEntity
  8
LAY-10
  6
CONTINUOUS
 62
     7
100
AcDbLine
 10
359.8284271247501
 20
77.41669750802885
 30
0.0
 11
363.5000000000037
 21
81.08827038328263
 31
0.0
  0
LINE
  5
E7
330
1F
100
AcDbEntity
  8
LAY-10
  6
CONTINUOUS
 62
     7
100
AcDbLine
 10
362.6568542494963
 20
77.41669750802885
 30
0.0
 11
363.5000000000037
 21
78.25984325853642
 31
0.0
  0
LINE
  5
E8
330
1F
100
AcDbEntity
  8
LAY-10
  6
CONTINUOUS
 62
     7
100
AcDbLine
 10
566.5000000000068
 20
125.4999586287169
 30
0.0
 11
568.4167388793146
 21
127.4166975080247
 31
0.0
  0
LINE
  5
E9
330
1F
100
AcDbEntity
  8
LAY-10
  6
CONTINUOUS
 62
     7
100
AcDbLine
 10
566.5000000000068
 20
122.6715315039707
 30
0.0
 11
571.2451660040608
 21
127.4166975080247
 31
0.0
  0
LINE
  5
EA
330
1F
100
AcDbEntity
  8
LAY-10
  6
CONTINUOUS
 62
     7
100
AcDbLine
 10
566.5000000000068
 20
119.8431043792247
 30
0.0
 11
573.0000000000066
 21
126.3431043792245
 31
0.0
  0
LINE
  5
EB
330
1F
100
AcDbEntity
  8
LAY-10
  6
CONTINUOUS
 62
     7
100
AcDbLine
 10
566.5000000000068
 20
117.0146772544785
 30
0.0
 11
573.0000000000066
 21
123.5146772544783
 31
0.0
  0
LINE
  5
EC
330
1F
100
AcDbEntity
  8
LAY-10
  6
CONTINUOUS
 62
     7
100
AcDbLine
 10
566.5000000000068
 20
114.1862501297323
 30
0.0
 11
573.0000000000066
 21
120.6862501297321
 31
0.0
  0
LINE
  5
ED
330
1F
100
AcDbEntity
  8
LAY-10
  6
CONTINUOUS
 62
     7
100
AcDbLine
 10
566.5000000000068
 20
111.3578230049861
 30
0.0
 11
573.0000000000066
 21
117.8578230049859
 31
0.0
  0
LINE
  5
EE
330
1F
100
AcDbEntity
  8
LAY-10
  6
CONTINUOUS
 62
     7
100
AcDbLine
 10
566.5000000000068
 20
108.5293958802399
 30
0.0
 11
573.0000000000066
 21
115.0293958802397
 31
0.0
  0
LINE
  5
EF
330
1F
100
AcDbEntity
  8
LAY-10
  6
CONTINUOUS
 62
     7
100
AcDbLine
 10
566.5000000000068
 20
105.7009687554937
 30
0.0
 11
573.0000000000066
 21
112.2009687554935
 31
0.0
  0
LINE
  5
F0
330
1F
100
AcDbEntity
  8
LAY-10
  6
CONTINUOUS
 62
     7
100
AcDbLine
 10
566.5000000000016
 20
102.8725416307425
 30
0.0
 11
573.0000000000066
 21
109.3725416307473
 31
0.0
  0
LINE
  5
F1
330
1F
100
AcDbEntity
  8
LAY-10
  6
CONTINUOUS
 62
     7
100
AcDbLine
 10
566.5000000000016
 20
100.0441145059963
 30
0.0
 11
573.0000000000066
 21
106.5441145060011
 31
0.0
  0
LINE
  5
F2
330
1F
100
AcDbEntity
  8
LAY-10
  6
CONTINUOUS
 62
     7
100
AcDbLine
 10
566.5000000000016
 20
97.21568738125006
 30
0.0
 11
573.0000000000066
 21
103.7156873812548
 31
0.0
  0
LINE
  5
F3
330
1F
100
AcDbEntity
  8
LAY-10
  6
CONTINUOUS
 62
     7
100
AcDbLine
 10
566.5000000000016
 20
94.38726025650385
 30
0.0
 11
573.0000000000066
 21
100.8872602565088
 31
0.0
  0
LINE
  5
F4
330
1F
100
AcDbEntity
  8
LAY-10
  6
CONTINUOUS
 62
     7
100
AcDbLine
 10
566.5000000000016
 20
91.55883313175764
 30
0.0
 11
573.0000000000066
 21
98.05883313176264
 31
0.0
  0
LINE
  5
F5
330
1F
100
AcDbEntity
  8
LAY-10
  6
CONTINUOUS
 62
     7
100
AcDbLine
 10
566.5000000000016
 20
88.73040600701142
 30
0.0
 11
573.0000000000014
 21
95.2304060070112
 31
0.0
  0
LINE
  5
F6
330
1F
100
AcDbEntity
  8
LAY-10
  6
CONTINUOUS
 62
     7
100
AcDbLine
 10
566.5000000000016
 20
85.90197888226521
 30
0.0
 11
573.0000000000014
 21
92.40197888226498
 31
0.0
  0
LINE
  5
F7
330
1F
100
AcDbEntity
  8
LAY-10
  6
CONTINUOUS
 62
     7
100
AcDbLine
 10
566.5000000000016
 20
83.073551757519
 30
0.0
 11
573.0000000000014
 21
89.57355175751877
 31
0.0
  0
LINE
  5
F8
330
1F
100
AcDbEntity
  8
LAY-10
  6
CONTINUOUS
 62
     7
100
AcDbLine
 10
566.5000000000016
 20
80.24512463277279
 30
0.0
 11
573.0000000000014
 21
86.74512463277279
 31
0.0
  0
LINE
  5
F9
330
1F
100
AcDbEntity
  8
LAY-10
  6
CONTINUOUS
 62
     7
100
AcDbLine
 10
566.5000000000016
 20
77.41669750802657
 30
0.0
 11
573.0000000000014
 21
83.91669750802657
 31
0.0
  0
LINE
  5
FA
330
1F
100
AcDbEntity
  8
LAY-10
  6
CONTINUOUS
 62
     7
100
AcDbLine
 10
569.3284271247478
 20
77.41669750802657
 30
0.0
 11
573.0000000000014
 21
81.08827038328036
 31
0.0
  0
LINE
  5
FB
330
1F
100
AcDbEntity
  8
LAY-10
  6
CONTINUOUS
 62
     7
100
AcDbLine
 10
572.156854249494
 20
77.41669750802657
 30
0.0
 11
573.0000000000014
 21
78.25984325853415
 31
0.0
  0
CIRCLE
  5
FC
330
1F
100
AcDbEntity
  8
LAY-10
  6
CONTINUOUS
 62
     7
100
AcDbCircle
 10
465.0000000000049
 20
630.0000000000101
 30
0.0
 40
199.0
  0
CIRCLE
  5
FD
330
1F
100
AcDbEntity
  8
LAY-10
  6
CONTINUOUS
 62
     7
100
AcDbCircle
 10
465.0000000000049
 20
630.0000000000101
 30
0.0
 40
200.0
  0
LINE
  5
FE
330
1F
100
AcDbEntity
  8
LAY-10
  6
CONTINUOUS
 62
     7
100
AcDbLine
 10
382.000000000036
 20
122.416697508026
 30
0.0
 11
382.000000000036
 21
108.4166975080263
 31
0.0
  0
LINE
  5
FF
330
1F
100
AcDbEntity
  8
LAY-10
  6
CONTINUOUS
 62
     7
100
AcDbLine
 10
548.0000000000364
 20
122.416697508026
 30
0.0
 11
548.0000000000364
 21
108.4166975080263
 31
0.0
  0
LINE
  5
100
330
1F
100
AcDbEntity
  8
LAY-10
  6
CONTINUOUS
 62
     7
100
AcDbLine
 10
382.000000000036
 20
108.4166975080263
 30
0.0
 11
548.0000000000364
 21
108.4166975080263
 31
0.0
  0
LINE
  5
101
330
1F
100
AcDbEntity
  8
LAY-10
  6
CONTINUOUS
 62
     7
100
AcDbLine
 10
383.100000000045
 20
83.41669750802703
 30
0.0
 11
384.1317381621452
 21
84.41669750802703
 31
0.0
  0
LINE
  5
102
330
1F
100
AcDbEntity
  8
LAY-10
  6
CONTINUOUS
 62
     7
100
AcDbLine
 10
384.1317381621448
 20
84.41669750802703
 30
0.0
 11
384.8817381621444
 21
108.4166975080263
 31
0.0
  0
LINE
  5
103
330
1F
100
AcDbEntity
  8
LAY-10
  6
CONTINUOUS
 62
     7
100
AcDbLine
 10
546.9000000000269
 20
83.41669750802703
 30
0.0
 11
545.8682618379271
 21
84.41669750802703
 31
0.0
  0
LINE
  5
104
330
1F
100
AcDbEntity
  8
LAY-10
  6
CONTINUOUS
 62
     7
100
AcDbLine
 10
545.8682618379275
 20
84.41669750802703
 30
0.0
 11
545.1182618379275
 21
108.4166975080263
 31
0.0
  0
LINE
  5
105
330
1F
100
AcDbEntity
  8
LAY-10
  6
CONTINUOUS
 62
     7
100
AcDbLine
 10
384.1317381621444
 20
84.41669750802271
 30
0.0
 11
545.8682618379275
 21
84.41669750802271
 31
0.0
  0
LINE
  5
106
330
1F
100
AcDbEntity
  8
LAY-10
  6
CONTINUOUS
 62
     7
100
AcDbLine
 10
376.5000000000323
 20
83.41669750802953
 30
0.0
 11
553.4999999999777
 21
83.41669750802953
 31
0.0
  0
LINE
  5
107
330
1F
100
AcDbEntity
  8
LAY-10
  6
CONTINUOUS
 62
     7
100
AcDbLine
 10
547.9999999999741
 20
122.416697508026
 30
0.0
 11
381.9999999999737
 21
122.416697508026
 31
0.0
  0
LINE
  5
108
330
1F
100
AcDbEntity
  8
LAY-10
  6
CONTINUOUS
 62
     7
100
AcDbLine
 10
542.8144466757885
 20
128.4166975080265
 30
0.0
 11
542.5000000000896
 21
122.4166975080254
 31
0.0
  0
LINE
  5
109
330
1F
100
AcDbEntity
  8
LAY-10
  6
CONTINUOUS
 62
     7
100
AcDbLine
 10
393.2662910900412
 20
136.4166975080299
 30
0.0
 11
394.0000000000055
 21
122.4166975080299
 31
0.0
  0
LINE
  5
10A
330
1F
100
AcDbEntity
  8
LAY-10
  6
CONTINUOUS
 62
     7
100
AcDbLine
 10
664.000000000005
 20
167.4166975080299
 30
0.0
 11
665.000000000005
 21
155.4166975080299
 31
0.0
  0
LINE
  5
10B
330
1F
100
AcDbEntity
  8
LAY-10
  6
CONTINUOUS
 62
     7
100
AcDbLine
 10
665.000000000005
 20
155.4166975080299
 30
0.0
 11
657.8524233607209
 21
155.4166975080299
 31
0.0
  0
LINE
  5
10C
330
1F
100
AcDbEntity
  8
LAY-10
  6
CONTINUOUS
 62
     7
100
AcDbLine
 10
266.0000000000051
 20
167.4166975080299
 30
0.0
 11
265.0000000000051
 21
155.4166975080299
 31
0.0
  0
ARC
  5
10D
330
1F
100
AcDbEntity
  8
LAY-10
  6
CONTINUOUS
 62
     7
100
AcDbCircle
 10
273.6191331492758
 20
155.4166975080299
 30
0.0
 40
3.619133149270809
100
AcDbArc
 50
75.00000000000057
 51
179.9999999999996
  0
LINE
  5
10E
330
1F
100
AcDbEntity
  8
LAY-10
  6
CONTINUOUS
 62
     7
100
AcDbLine
 10
265.0000000000051
 20
155.4166975080299
 30
0.0
 11
287.6023898599154
 21
155.4166975080297
 31
0.0
  0
LINE
  5
10F
330
1F
100
AcDbEntity
  8
LAY-10
  6
CONTINUOUS
 62
     7
100
AcDbLine
 10
381.5000000000053
 20
127.9166975080379
 30
0.0
 11
388.5000000000007
 21
127.9166975080379
 31
0.0
  0
LINE
  5
110
330
1F
100
AcDbEntity
  8
LAY-10
  6
CONTINUOUS
 62
     7
100
AcDbLine
 10
381.5000000000053
 20
127.9166975080388
 30
0.0
 11
385.0000000000035
 21
125.8959715658761
 31
0.0
  0
LINE
  5
111
330
1F
100
AcDbEntity
  8
LAY-10
  6
CONTINUOUS
 62
     7
100
AcDbLine
 10
385.0000000000035
 20
125.8959715658761
 30
0.0
 11
388.5000000000003
 21
127.9166975080379
 31
0.0
  0
LINE
  5
112
330
1F
100
AcDbEntity
  8
LAY-10
  6
CONTINUOUS
 62
     7
100
AcDbLine
 10
381.5000000000026
 20
129.9166975080347
 30
0.0
 11
381.000000000003
 21
130.4166975080361
 31
0.0
  0
LINE
  5
113
330
1F
100
AcDbEntity
  8
LAY-10
  6
CONTINUOUS
 62
     7
100
AcDbLine
 10
388.5000000000034
 20
129.9166975080347
 30
0.0
 11
389.000000000003
 21
130.4166975080361
 31
0.0
  0
LINE
  5
114
330
1F
100
AcDbEntity
  8
LAY-10
  6
CONTINUOUS
 62
     7
100
AcDbLine
 10
381.5000000000026
 20
129.9166975080347
 30
0.0
 11
388.5000000000034
 21
129.9166975080347
 31
0.0
  0
LINE
  5
115
330
1F
100
AcDbEntity
  8
LAY-10
  6
CONTINUOUS
 62
     7
100
AcDbLine
 10
381.000000000003
 20
130.4166975080361
 30
0.0
 11
389.000000000003
 21
130.4166975080361
 31
0.0
  0
LINE
  5
116
330
1F
100
AcDbEntity
  8
LAY-10
  6
CONTINUOUS
 62
     7
100
AcDbLine
 10
381.5000000000048
 20
129.9166975080302
 30
0.0
 11
381.5000000000048
 21
127.9166975080401
 31
0.0
  0
LINE
  5
117
330
1F
100
AcDbEntity
  8
LAY-10
  6
CONTINUOUS
 62
     7
100
AcDbLine
 10
388.5000000000048
 20
127.9166975080401
 30
0.0
 11
388.5000000000048
 21
129.9166975080302
 31
0.0
  0
LINE
  5
118
330
1F
100
AcDbEntity
  8
LAY-10
  6
CONTINUOUS
 62
     7
100
AcDbLine
 10
381.000000000003
 20
143.0000000000002
 30
0.0
 11
381.000000000003
 21
130.4166975080361
 31
0.0
  0
LINE
  5
119
330
1F
100
AcDbEntity
  8
LAY-10
  6
CONTINUOUS
 62
     7
100
AcDbLine
 10
389.000000000003
 20
143.0000000000002
 30
0.0
 11
389.000000000003
 21
130.4166975080361
 31
0.0
  0
LINE
  5
11A
330
1F
100
AcDbEntity
  8
LAY-10
  6
CONTINUOUS
 62
     7
100
AcDbLine
 10
266.0000000000051
 20
167.4166975080299
 30
0.0
 11
375.5093272380173
 21
167.4166975080299
 31
0.0
  0
LINE
  5
11B
330
1F
100
AcDbEntity
  8
LAY-10
  6
CONTINUOUS
 62
     7
100
AcDbLine
 10
554.4906727621133
 20
167.4166975080299
 30
0.0
 11
664.000000000005
 21
167.4166975080299
 31
0.0
  0
ARC
  5
11C
330
1F
100
AcDbEntity
  8
LAY-10
  6
CONTINUOUS
 62
     7
100
AcDbCircle
 10
295.3034447580933
 20
150.2473775259563
 30
0.0
 40
3.0
100
AcDbArc
 50
4.999999999999859
 51
74.99999999999866
  0
LINE
  5
11D
330
1F
100
AcDbEntity
  8
LAY-10
  6
CONTINUOUS
 62
     7
100
AcDbLine
 10
298.2920288523686
 20
150.5088447541993
 30
0.0
 11
298.9999999999912
 21
142.4166975080288
 31
0.0
  0
ARC
  5
11E
330
1F
100
AcDbEntity
  8
LAY-10
  6
CONTINUOUS
 62
     7
100
AcDbCircle
 10
314.2523453232164
 20
145.1700349220736
 30
0.0
 40
3.0
100
AcDbArc
 50
74.99999999999866
 51
174.9999999999991
  0
LINE
  5
11F
330
1F
100
AcDbEntity
  8
LAY-10
  6
CONTINUOUS
 62
     7
100
AcDbLine
 10
311.2637612289412
 20
145.4315021503166
 30
0.0
 11
310.9999999999957
 21
142.4166975080288
 31
0.0
  0
LINE
  5
120
330
1F
100
AcDbEntity
  8
LAY-10
  6
CONTINUOUS
 62
     7
100
AcDbLine
 10
307.5000000000044
 20
149.9166975080261
 30
0.0
 11
302.5000000000044
 21
149.9166975080261
 31
0.0
  0
LINE
  5
121
330
1F
100
AcDbEntity
  8
LAY-10
  6
CONTINUOUS
 62
     7
100
AcDbLine
 10
308.0000000000044
 20
149.4166975080252
 30
0.0
 11
302.0000000000044
 21
149.4166975080252
 31
0.0
  0
LINE
  5
122
330
1F
100
AcDbEntity
  8
LAY-10
  6
CONTINUOUS
 62
     7
100
AcDbLine
 10
305.0000000000048
 20
153.3600731810006
 30
0.0
 11
307.5000000000053
 21
151.9166975080261
 31
0.0
  0
LINE
  5
123
330
1F
100
AcDbEntity
  8
LAY-10
  6
CONTINUOUS
 62
     7
100
AcDbLine
 10
305.0000000000044
 20
153.360073181001
 30
0.0
 11
302.5000000000035
 21
151.9166975080261
 31
0.0
  0
LINE
  5
124
330
1F
100
AcDbEntity
  8
LAY-10
  6
CONTINUOUS
 62
     7
100
AcDbLine
 10
307.5000000000012
 20
151.9166975080252
 30
0.0
 11
302.5000000000021
 21
151.9166975080252
 31
0.0
  0
LINE
  5
125
330
1F
100
AcDbEntity
  8
LAY-10
  6
CONTINUOUS
 62
     7
100
AcDbLine
 10
307.5000000000012
 20
149.9166975080261
 30
0.0
 11
307.5000000000012
 21
151.9166975080252
 31
0.0
  0
LINE
  5
126
330
1F
100
AcDbEntity
  8
LAY-10
  6
CONTINUOUS
 62
     7
100
AcDbLine
 10
302.5000000000021
 20
149.9166975080261
 30
0.0
 11
302.5000000000021
 21
151.9166975080242
 31
0.0
  0
LINE
  5
127
330
1F
100
AcDbEntity
  8
LAY-10
  6
CONTINUOUS
 62
     7
100
AcDbLine
 10
307.5000000000012
 20
149.9166975080261
 30
0.0
 11
307.5000000000012
 21
148.4166975080288
 31
0.0
  0
LINE
  5
128
330
1F
100
AcDbEntity
  8
LAY-10
  6
CONTINUOUS
 62
     7
100
AcDbLine
 10
302.5000000000021
 20
149.9166975080261
 30
0.0
 11
302.5000000000021
 21
148.4166975080288
 31
0.0
  0
LINE
  5
129
330
1F
100
AcDbEntity
  8
LAY-10
  6
CONTINUOUS
 62
     7
100
AcDbLine
 10
290.5000000000053
 20
120.4166975080447
 30
0.0
 11
290.5000000000053
 21
125.4166975080445
 31
0.0
  0
LINE
  5
12A
330
1F
100
AcDbEntity
  8
LAY-10
  6
CONTINUOUS
 62
     7
100
AcDbLine
 10
300.5000000000057
 20
125.4166975080445
 30
0.0
 11
290.5000000000053
 21
125.4166975080445
 31
0.0
  0
ARC
  5
12B
330
1F
100
AcDbEntity
  8
LAY-10
  6
CONTINUOUS
 62
     7
100
AcDbCircle
 10
300.5000000000057
 20
127.4166975080447
 30
0.0
 40
2.0
100
AcDbArc
 50
270.0
 51
0.0
  0
LINE
  5
12C
330
1F
100
AcDbEntity
  8
LAY-10
  6
CONTINUOUS
 62
     7
100
AcDbLine
 10
300.5000000000057
 20
120.4166975080447
 30
0.0
 11
290.5000000000053
 21
120.4166975080447
 31
0.0
  0
ARC
  5
12D
330
1F
100
AcDbEntity
  8
LAY-10
  6
CONTINUOUS
 62
     7
100
AcDbCircle
 10
300.5000000000057
 20
127.4166975080447
 30
0.0
 40
7.000000000000004
100
AcDbArc
 50
270.0
 51
0.0
  0
LINE
  5
12E
330
1F
100
AcDbEntity
  8
LAY-10
  6
CONTINUOUS
 62
     7
100
AcDbLine
 10
302.5000000000048
 20
127.4166975080402
 30
0.0
 11
302.5000000000048
 21
142.4166975080397
 31
0.0
  0
LINE
  5
12F
330
1F
100
AcDbEntity
  8
LAY-10
  6
CONTINUOUS
 62
     7
100
AcDbLine
 10
307.5000000000048
 20
127.4166975080402
 30
0.0
 11
307.5000000000048
 21
142.4166975080397
 31
0.0
  0
LINE
  5
130
330
1F
100
AcDbEntity
  8
LAY-10
  6
CONTINUOUS
 62
     7
100
AcDbLine
 10
307.5000000000016
 20
148.4166975080447
 30
0.0
 11
302.5000000000026
 21
148.4166975080447
 31
0.0
  0
LINE
  5
131
330
1F
100
AcDbEntity
  8
LAY-10
  6
CONTINUOUS
 62
     7
100
AcDbLine
 10
308.000000000003
 20
147.9166975080461
 30
0.0
 11
302.0000000000039
 21
147.9166975080461
 31
0.0
  0
LINE
  5
132
330
1F
100
AcDbEntity
  8
LAY-10
  6
CONTINUOUS
 62
     7
100
AcDbLine
 10
302.0000000000048
 20
147.9166975080502
 30
0.0
 11
302.5000000000048
 21
148.4166975080402
 31
0.0
  0
LINE
  5
133
330
1F
100
AcDbEntity
  8
LAY-10
  6
CONTINUOUS
 62
     7
100
AcDbLine
 10
307.5000000000048
 20
148.4166975080402
 30
0.0
 11
308.0000000000048
 21
147.9166975080502
 31
0.0
  0
LINE
  5
134
330
1F
100
AcDbEntity
  8
LAY-10
  6
CONTINUOUS
 62
     7
100
AcDbLine
 10
308.0000000000048
 20
147.9166975080502
 30
0.0
 11
308.0000000000048
 21
142.4166975080402
 31
0.0
  0
LINE
  5
135
330
1F
100
AcDbEntity
  8
LAY-10
  6
CONTINUOUS
 62
     7
100
AcDbLine
 10
302.0000000000048
 20
147.9166975080502
 30
0.0
 11
302.0000000000048
 21
142.4166975080402
 31
0.0
  0
LINE
  5
136
330
1F
100
AcDbEntity
  8
LAY-10
  6
CONTINUOUS
 62
     7
100
AcDbLine
 10
315.0288024585262
 20
148.0678124009491
 30
0.0
 11
347.5575868962576
 21
139.351750880093
 31
0.0
  0
LINE
  5
137
330
1F
100
AcDbEntity
  8
LAY-10
  6
CONTINUOUS
 62
     7
100
AcDbLine
 10
274.555833735069
 20
158.9125116856896
 30
0.0
 11
296.0799018934031
 21
153.1451550048316
 31
0.0
  0
LINE
  5
138
330
1F
100
AcDbEntity
  8
LAY-10
  6
CONTINUOUS
 62
     7
100
AcDbLine
 10
582.304580043203
 20
135.1737139011881
 30
0.0
 11
657.8524233607213
 21
155.4166975080299
 31
0.0
  0
ARC
  5
139
330
1F
100
AcDbEntity
  8
LAY-10
  6
CONTINUOUS
 62
     7
100
AcDbCircle
 10
564.7563453659632
 20
139.7891642145207
 30
0.0
 40
1.0
100
AcDbArc
 50
104.9999999999981
 51
170.2711910388162
  0
LINE
  5
13A
330
1F
100
AcDbEntity
  8
LAY-10
  6
CONTINUOUS
 62
     7
100
AcDbLine
 10
563.142478087861
 20
136.2938379088229
 30
0.0
 11
563.7707267398246
 21
139.9581491955366
 31
0.0
  0
ARC
  5
13B
330
1F
100
AcDbEntity
  8
LAY-10
  6
CONTINUOUS
 62
     7
100
AcDbCircle
 10
562.1568594617224
 20
136.4628228898388
 30
0.0
 40
1.0
100
AcDbArc
 50
270.0
 51
350.2711910388162
  0
ARC
  5
13C
330
1F
100
AcDbEntity
  8
LAY-10
  6
CONTINUOUS
 62
     7
100
AcDbCircle
 10
559.7573001084754
 20
136.4628228898388
 30
0.0
 40
1.0
100
AcDbArc
 50
195.726698291767
 51
270.0
  0
ARC
  5
13D
330
1F
100
AcDbEntity
  8
LAY-10
  6
CONTINUOUS
 62
     7
100
AcDbCircle
 10
557.3050672841362
 20
137.7926002699155
 30
0.0
 40
1.0
100
AcDbArc
 50
15.72669829176694
 51
104.9999999999981
  0
LINE
  5
13E
330
1F
100
AcDbEntity
  8
LAY-10
  6
CONTINUOUS
 62
     7
100
AcDbLine
 10
558.7947345590869
 20
136.1917738848035
 30
0.0
 11
558.2676328335247
 21
138.0636492749506
 31
0.0
  0
ARC
  5
13F
330
1F
100
AcDbEntity
  8
LAY-10
  6
CONTINUOUS
 62
     7
100
AcDbCircle
 10
555.8741816632685
 20
137.4091956233426
 30
0.0
 40
1.0
100
AcDbArc
 50
105.0000000000012
 51
169.9999999999966
  0
LINE
  5
140
330
1F
100
AcDbEntity
  8
LAY-10
  6
CONTINUOUS
 62
     7
100
AcDbLine
 10
554.8893739102562
 20
137.5828438010096
 30
0.0
 11
553.7102593751872
 21
130.8957529750296
 31
0.0
  0
ARC
  5
141
330
1F
100
AcDbEntity
  8
LAY-10
  6
CONTINUOUS
 62
     7
100
AcDbCircle
 10
550.75583611615
 20
131.4166975080265
 30
0.0
 40
3.0
100
AcDbArc
 50
270.0
 51
349.9999999999953
  0
ARC
  5
142
330
1F
100
AcDbEntity
  8
LAY-10
  6
CONTINUOUS
 62
     7
100
AcDbCircle
 10
365.2436546340467
 20
139.7891642145207
 30
0.0
 40
1.0
100
AcDbArc
 50
9.72880896118354
 51
75.0000000000004
  0
LINE
  5
143
330
1F
100
AcDbEntity
  8
LAY-10
  6
CONTINUOUS
 62
     7
100
AcDbLine
 10
366.8575219121488
 20
136.2938379088229
 30
0.0
 11
366.2292732601853
 21
139.9581491955366
 31
0.0
  0
ARC
  5
144
330
1F
100
AcDbEntity
  8
LAY-10
  6
CONTINUOUS
 62
     7
100
AcDbCircle
 10
367.8431405382874
 20
136.4628228898388
 30
0.0
 40
1.0
100
AcDbArc
 50
189.7288089611835
 51
270.0
  0
LINE
  5
145
330
1F
100
AcDbEntity
  8
LAY-10
  6
CONTINUOUS
 62
     7
100
AcDbLine
 10
367.8431405382874
 20
135.4628228898388
 30
0.0
 11
370.2426998915344
 21
135.4628228898388
 31
0.0
  0
LINE
  5
146
330
1F
100
AcDbEntity
  8
LAY-10
  6
CONTINUOUS
 62
     7
100
AcDbLine
 10
371.2052654409229
 20
136.1917738848035
 30
0.0
 11
371.7323671664852
 21
138.0636492749508
 31
0.0
  0
ARC
  5
147
330
1F
100
AcDbEntity
  8
LAY-10
  6
CONTINUOUS
 62
     7
100
AcDbCircle
 10
370.2426998915344
 20
136.4628228898388
 30
0.0
 40
1.0
100
AcDbArc
 50
270.0
 51
344.2733017082331
  0
ARC
  5
148
330
1F
100
AcDbEntity
  8
LAY-10
  6
CONTINUOUS
 62
     7
100
AcDbCircle
 10
372.6949327158737
 20
137.7926002699155
 30
0.0
 40
1.0
100
AcDbArc
 50
75.0000000000004
 51
164.273301708233
  0
ARC
  5
149
330
1F
100
AcDbEntity
  8
LAY-10
  6
CONTINUOUS
 62
     7
100
AcDbCircle
 10
374.1258183367414
 20
137.4091956233426
 30
0.0
 40
1.0
100
AcDbArc
 50
10.00000000000344
 51
75.0000000000004
  0
LINE
  5
14A
330
1F
100
AcDbEntity
  8
LAY-10
  6
CONTINUOUS
 62
     7
100
AcDbLine
 10
375.1106260897537
 20
137.5828438010096
 30
0.0
 11
375.3162491446593
 21
136.4166975080299
 31
0.0
  0
LINE
  5
14B
330
1F
100
AcDbEntity
  8
LAY-10
  6
CONTINUOUS
 62
     7
100
AcDbLine
 10
562.1568594617224
 20
135.4628228898388
 30
0.0
 11
559.757300108505
 21
135.4628228898388
 31
0.0
  0
LINE
  5
14C
330
1F
100
AcDbEntity
  8
LAY-10
  6
CONTINUOUS
 62
     7
100
AcDbLine
 10
550.755836116105
 20
128.4166975080265
 30
0.0
 11
393.6855533243047
 21
128.4166975080265
 31
0.0
  0
LINE
  5
14D
330
1F
100
AcDbEntity
  8
LAY-10
  6
CONTINUOUS
 62
     7
100
AcDbLine
 10
298.9999999999907
 20
142.4166975080302
 30
0.0
 11
302.5000000000048
 21
142.4166975080302
 31
0.0
  0
LINE
  5
14E
330
1F
100
AcDbEntity
  8
LAY-10
  6
CONTINUOUS
 62
     7
100
AcDbLine
 10
307.5000000000048
 20
142.4166975080302
 30
0.0
 11
310.9999999999957
 21
142.4166975080302
 31
0.0
  0
ARC
  5
14F
330
1F
100
AcDbEntity
  8
LAY-10
  6
CONTINUOUS
 62
     7
100
AcDbCircle
 10
559.4827011064849
 20
119.4166975080292
 30
0.0
 40
3.0
100
AcDbArc
 50
270.0
 51
349.9999999999947
  0
LINE
  5
150
330
1F
100
AcDbEntity
  8
LAY-10
  6
CONTINUOUS
 62
     7
100
AcDbLine
 10
563.7938886659754
 20
126.5903456856933
 30
0.0
 11
562.4371243655214
 21
118.8957529750282
 31
0.0
  0
ARC
  5
151
330
1F
100
AcDbEntity
  8
LAY-10
  6
CONTINUOUS
 62
     7
100
AcDbCircle
 10
564.7786964189877
 20
126.4166975080263
 30
0.0
 40
1.0
100
AcDbArc
 50
90.00000000000001
 51
169.9999999999934
  0
LINE
  5
152
330
1F
100
AcDbEntity
  8
LAY-10
  6
CONTINUOUS
 62
     7
100
AcDbLine
 10
564.7786964189875
 20
127.4166975080263
 30
0.0
 11
572.6528729116426
 21
127.4166975080263
 31
0.0
  0
ARC
  5
153
330
1F
100
AcDbEntity
  8
LAY-10
  6
CONTINUOUS
 62
     7
100
AcDbCircle
 10
572.6528729116426
 20
126.4166975080263
 30
0.0
 40
1.0
100
AcDbArc
 50
9.462322208025626
 51
90.00000000000001
  0
LINE
  5
154
330
1F
100
AcDbEntity
  8
LAY-10
  6
CONTINUOUS
 62
     7
100
AcDbLine
 10
574.3607331645762
 20
122.2522985207224
 30
0.0
 11
573.6392668354747
 21
126.5810964953316
 31
0.0
  0
ARC
  5
155
330
1F
100
AcDbEntity
  8
LAY-10
  6
CONTINUOUS
 62
     7
100
AcDbCircle
 10
575.3471270884083
 20
122.4166975080279
 30
0.0
 40
1.0
100
AcDbArc
 50
189.4623222080256
 51
270.0
  0
ARC
  5
156
330
1F
100
AcDbEntity
  8
LAY-10
  6
CONTINUOUS
 62
     7
100
AcDbCircle
 10
578.5557757790632
 20
122.4166975080279
 30
0.0
 40
1.0
100
AcDbArc
 50
270.0
 51
356.7135061408602
  0
ARC
  5
157
330
1F
100
AcDbEntity
  8
LAY-10
  6
CONTINUOUS
 62
     7
100
AcDbCircle
 10
583.129255451596
 20
132.2888564696493
 30
0.0
 40
3.0
100
AcDbArc
 50
105.0000000000001
 51
176.7135061408608
  0
ARC
  5
158
330
1F
100
AcDbEntity
  8
LAY-10
  6
CONTINUOUS
 62
     7
100
AcDbCircle
 10
558.0763504164806
 20
113.416697508035
 30
0.0
 40
3.0
100
AcDbArc
 50
90.00000000000001
 51
176.9999999999944
  0
LINE
  5
159
330
1F
100
AcDbEntity
  8
LAY-10
  6
CONTINUOUS
 62
     7
100
AcDbLine
 10
559.4827011064801
 20
116.416697508035
 30
0.0
 11
558.0763504164806
 21
116.416697508035
 31
0.0
  0
LINE
  5
15A
330
1F
100
AcDbEntity
  8
LAY-10
  6
CONTINUOUS
 62
     7
100
AcDbLine
 10
555.0804618122022
 20
113.5737053767602
 30
0.0
 11
553.4999999999777
 21
83.41669750802953
 31
0.0
  0
LINE
  5
15B
330
1F
100
AcDbEntity
  8
LAY-10
  6
CONTINUOUS
 62
     7
100
AcDbLine
 10
573.0000000000048
 20
121.4166975080279
 30
0.0
 11
578.5557757790632
 21
121.4166975080279
 31
0.0
  0
ARC
  5
15C
330
1F
100
AcDbEntity
  8
LAY-10
  6
CONTINUOUS
 62
     7
100
AcDbCircle
 10
351.4442242209469
 20
122.4166975080279
 30
0.0
 40
1.0
100
AcDbArc
 50
183.2864938591366
 51
270.0
  0
LINE
  5
15D
330
1F
100
AcDbEntity
  8
LAY-10
  6
CONTINUOUS
 62
     7
100
AcDbLine
 10
357.0000000000053
 20
121.4166975080279
 30
0.0
 11
351.4442242209469
 21
121.4166975080279
 31
0.0
  0
LINE
  5
15E
330
1F
100
AcDbEntity
  8
LAY-10
  6
CONTINUOUS
 62
     7
100
AcDbLine
 10
355.6392668354338
 20
122.2522985207224
 30
0.0
 11
356.3607331645354
 21
126.5810964953316
 31
0.0
  0
ARC
  5
15F
330
1F
100
AcDbEntity
  8
LAY-10
  6
CONTINUOUS
 62
     7
100
AcDbCircle
 10
354.6528729116017
 20
122.4166975080279
 30
0.0
 40
1.0
100
AcDbArc
 50
270.0
 51
350.5376777919786
  0
ARC
  5
160
330
1F
100
AcDbEntity
  8
LAY-10
  6
CONTINUOUS
 62
     7
100
AcDbCircle
 10
357.3471270883675
 20
126.4166975080263
 30
0.0
 40
1.0
100
AcDbArc
 50
90.00000000000001
 51
170.5376777919722
  0
ARC
  5
161
330
1F
100
AcDbEntity
  8
LAY-10
  6
CONTINUOUS
 62
     7
100
AcDbCircle
 10
365.2213035810224
 20
126.4166975080263
 30
0.0
 40
1.0
100
AcDbArc
 50
10.00000000000613
 51
90.00000000000001
  0
LINE
  5
162
330
1F
100
AcDbEntity
  8
LAY-10
  6
CONTINUOUS
 62
     7
100
AcDbLine
 10
366.2061113340347
 20
126.5903456856933
 30
0.0
 11
367.5628756344886
 21
118.8957529750282
 31
0.0
  0
ARC
  5
163
330
1F
100
AcDbEntity
  8
LAY-10
  6
CONTINUOUS
 62
     7
100
AcDbCircle
 10
370.5172988935252
 20
119.4166975080292
 30
0.0
 40
3.0
100
AcDbArc
 50
190.0000000000054
 51
270.0
  0
LINE
  5
164
330
1F
100
AcDbEntity
  8
LAY-10
  6
CONTINUOUS
 62
     7
100
AcDbLine
 10
365.2213035810226
 20
127.4166975080263
 30
0.0
 11
357.3471270883675
 21
127.4166975080263
 31
0.0
  0
ARC
  5
165
330
1F
100
AcDbEntity
  8
LAY-10
  6
CONTINUOUS
 62
     7
100
AcDbCircle
 10
371.9236495835294
 20
113.416697508035
 30
0.0
 40
3.0
100
AcDbArc
 50
3.000000000005679
 51
90.00000000000001
  0
LINE
  5
166
330
1F
100
AcDbEntity
  8
LAY-10
  6
CONTINUOUS
 62
     7
100
AcDbLine
 10
370.5172988935299
 20
116.416697508035
 30
0.0
 11
371.9236495835294
 21
116.416697508035
 31
0.0
  0
ARC
  5
167
330
1F
100
AcDbEntity
  8
LAY-10
  6
CONTINUOUS
 62
     7
100
AcDbCircle
 10
346.6292333456525
 20
136.4946739230326
 30
0.0
 40
3.0
100
AcDbArc
 50
3.286493859138755
 51
75.0000000000008
  0
LINE
  5
168
330
1F
100
AcDbEntity
  8
LAY-10
  6
CONTINUOUS
 62
     7
100
AcDbLine
 10
349.6242994204038
 20
136.6666599918698
 30
0.0
 11
350.4458688626965
 21
122.3593688184148
 31
0.0
  0
LINE
  5
169
330
1F
100
AcDbEntity
  8
LAY-10
  6
CONTINUOUS
 62
     7
100
AcDbLine
 10
374.9195381878079
 20
113.573705376765
 30
0.0
 11
376.5000000000323
 21
83.41669750802976
 31
0.0
  0
LINE
  5
16A
330
1F
100
AcDbEntity
  8
LAY-10
  6
CONTINUOUS
 62
     7
100
AcDbLine
 10
580.1341893768449
 20
132.4608425384899
 30
0.0
 11
579.5541311373136
 21
122.3593688184148
 31
0.0
  0
LINE
  5
16B
330
1F
100
AcDbEntity
  8
LAY-10
  6
CONTINUOUS
 62
     7
100
AcDbLine
 10
573.0000000000048
 20
77.4166975080268
 30
0.0
 11
357.0000000000048
 21
77.4166975080268
 31
0.0
  0
LINE
  5
16C
330
1F
100
AcDbEntity
  8
LAY-10
  6
CONTINUOUS
 62
     7
100
AcDbLine
 10
566.5000000000048
 20
77.4166975080268
 30
0.0
 11
566.5000000000048
 21
127.4166975080263
 31
0.0
  0
LINE
  5
16D
330
1F
100
AcDbEntity
  8
LAY-10
  6
CONTINUOUS
 62
     7
100
AcDbLine
 10
573.0000000000048
 20
77.4166975080268
 30
0.0
 11
573.0000000000048
 21
127.3545156058071
 31
0.0
  0
LINE
  5
16E
330
1F
100
AcDbEntity
  8
LAY-10
  6
CONTINUOUS
 62
     7
100
AcDbLine
 10
357.0000000000048
 20
77.4166975080268
 30
0.0
 11
357.0000000000048
 21
127.4166975080299
 31
0.0
  0
LINE
  5
16F
330
1F
100
AcDbEntity
  8
LAY-10
  6
CONTINUOUS
 62
     7
100
AcDbLine
 10
363.5000000000048
 20
77.4166975080268
 30
0.0
 11
363.5000000000048
 21
127.4166975080263
 31
0.0
  0
LINE
  5
170
330
1F
100
AcDbEntity
  8
LAY-10
  6
CONTINUOUS
 62
     7
100
AcDbLine
 10
375.3162491446553
 20
136.4166975080299
 30
0.0
 11
381.5000000000026
 21
136.4166975080299
 31
0.0
  0
LINE
  5
171
330
1F
100
AcDbEntity
  8
LAY-10
  6
CONTINUOUS
 62
     7
100
AcDbLine
 10
388.500000000003
 20
136.4166975080299
 30
0.0
 11
393.2662910900449
 21
136.4166975080299
 31
0.0
  0
ARC
  5
172
330
1F
100
AcDbEntity
  8
LAY-10
  6
CONTINUOUS
 62
     7
100
AcDbCircle
 10
465.0
 20
630.00000000001
 30
0.0
 40
111.0
100
AcDbArc
 50
167.8946390872415
 51
176.7219476400958
  0
ARC
  5
173
330
1F
100
AcDbEntity
  8
LAY-10
  6
CONTINUOUS
 62
     7
100
AcDbCircle
 10
465.0
 20
630.00000000001
 30
0.0
 40
112.0
100
AcDbArc
 50
168.4108242636715
 51
191.0821268213779
  0
ARC
  5
174
330
1F
100
AcDbEntity
  8
LAY-10
  6
CONTINUOUS
 62
     7
100
AcDbCircle
 10
465.0
 20
630.00000000001
 30
0.0
 40
116.0
100
AcDbArc
 50
168.4108242636715
 51
191.0909452876184
  0
ARC
  5
175
330
1F
100
AcDbEntity
  8
LAY-10
  6
CONTINUOUS
 62
     7
100
AcDbCircle
 10
465.0
 20
630.00000000001
 30
0.0
 40
117.0
100
AcDbArc
 50
167.92111078397
 51
191.5891757363286
  0
LINE
  5
176
330
1F
100
AcDbEntity
  8
LAY-10
  6
CONTINUOUS
 62
     7
100
AcDbLine
 10
358.4167390968703
 20
664.4239523479707
 30
0.0
 11
354.6214736464718
 21
665.687265516206
 31
0.0
  0
LINE
  5
177
330
1F
100
AcDbEntity
  8
LAY-10
  6
CONTINUOUS
 62
     7
100
AcDbLine
 10
355.8902436676479
 20
666.3188803943003
 30
0.0
 11
357.7879494110167
 21
665.6871995049487
 31
0.0
  0
ARC
  5
178
330
1F
100
AcDbEntity
  8
LAY-10
  6
CONTINUOUS
 62
     7
100
AcDbCircle
 10
465.0
 20
630.00000000001
 30
0.0
 40
111.0
100
AcDbArc
 50
138.4108242636715
 51
161.5891757363286
  0
ARC
  5
179
330
1F
100
AcDbEntity
  8
LAY-10
  6
CONTINUOUS
 62
     7
100
AcDbCircle
 10
465.0
 20
630.00000000001
 30
0.0
 40
112.0
100
AcDbArc
 50
138.9178731786222
 51
161.0821268213778
  0
ARC
  5
17A
330
1F
100
AcDbEntity
  8
LAY-10
  6
CONTINUOUS
 62
     7
100
AcDbCircle
 10
465.0
 20
630.00000000001
 30
0.0
 40
117.0
100
AcDbArc
 50
138.4108242636715
 51
161.5891757363286
  0
ARC
  5
17B
330
1F
100
AcDbEntity
  8
LAY-10
  6
CONTINUOUS
 62
     7
100
AcDbCircle
 10
465.0
 20
630.00000000001
 30
0.0
 40
116.0
100
AcDbArc
 50
138.9090547123817
 51
161.0909452876184
  0
LINE
  5
17C
330
1F
100
AcDbEntity
  8
LAY-10
  6
CONTINUOUS
 62
     7
100
AcDbLine
 10
389.9081646136797
 20
713.1036476835798
 30
0.0
 11
387.253024903652
 21
716.0953417054004
 31
0.0
  0
LINE
  5
17D
330
1F
100
AcDbEntity
  8
LAY-10
  6
CONTINUOUS
 62
     7
100
AcDbLine
 10
388.667619412598
 20
716.0079512246502
 30
0.0
 11
389.9952403505893
 21
714.5120466556996
 31
0.0
  0
ARC
  5
17E
330
1F
100
AcDbEntity
  8
LAY-10
  6
CONTINUOUS
 62
     7
100
AcDbCircle
 10
465.0
 20
630.0000000000105
 30
0.0
 40
111.0
100
AcDbArc
 50
108.4108242636717
 51
131.5891757363287
  0
ARC
  5
17F
330
1F
100
AcDbEntity
  8
LAY-10
  6
CONTINUOUS
 62
     7
100
AcDbCircle
 10
465.0
 20
630.0000000000105
 30
0.0
 40
112.0
100
AcDbArc
 50
108.9178731786225
 51
131.0821268213772
  0
ARC
  5
180
330
1F
100
AcDbEntity
  8
LAY-10
  6
CONTINUOUS
 62
     7
100
AcDbCircle
 10
465.0
 20
630.0000000000105
 30
0.0
 40
117.0
100
AcDbArc
 50
108.4108242636717
 51
131.5891757363288
  0
ARC
  5
181
330
1F
100
AcDbEntity
  8
LAY-10
  6
CONTINUOUS
 62
     7
100
AcDbCircle
 10
465.0
 20
630.0000000000105
 30
0.0
 40
116.0
100
AcDbArc
 50
108.9090547123819
 51
131.0909452876192
  0
ARC
  5
182
330
1F
100
AcDbEntity
  8
LAY-10
  6
CONTINUOUS
 62
     7
100
AcDbCircle
 10
465.0
 20
630.0000000000105
 30
0.0
 40
111.0
100
AcDbArc
 50
94.36717897953756
 51
102.105360912758
  0
LINE
  5
183
330
1F
100
AcDbEntity
  8
LAY-10
  6
CONTINUOUS
 62
     7
100
AcDbLine
 10
441.7221845787189
 20
738.5317617530234
 30
0.0
 11
440.7168153518625
 21
743.434240612554
 31
0.0
  0
ARC
  5
184
330
1F
100
AcDbEntity
  8
LAY-10
  6
CONTINUOUS
 62
     7
100
AcDbCircle
 10
465.0
 20
630.0000000000105
 30
0.0
 40
112.0
100
AcDbArc
 50
78.91787317862293
 51
101.5891757363286
  0
LINE
  5
185
330
1F
100
AcDbEntity
  8
LAY-10
  6
CONTINUOUS
 62
     7
100
AcDbLine
 10
441.8981948922884
 20
742.6512609817025
 30
0.0
 11
442.5000000000002
 21
739.7166805914319
 31
0.0
  0
LINE
  5
186
330
1F
100
AcDbEntity
  8
LAY-10
  6
CONTINUOUS
 62
     7
100
AcDbLine
 10
541.3323805874018
 20
543.99204877537
 30
0.0
 11
540.0047596494126
 21
545.4879533443182
 31
0.0
  0
LINE
  5
187
330
1F
100
AcDbEntity
  8
LAY-10
  6
CONTINUOUS
 62
     7
100
AcDbLine
 10
501.3188803942903
 20
520.8902436676581
 30
0.0
 11
500.6871995049386
 21
522.7879494110268
 31
0.0
  0
ARC
  5
188
330
1F
100
AcDbEntity
  8
LAY-10
  6
CONTINUOUS
 62
     7
100
AcDbCircle
 10
465.0
 20
630.0000000000105
 30
0.0
 40
111.0
100
AcDbArc
 50
348.4108242636719
 51
356.721947640096
  0
ARC
  5
189
330
1F
100
AcDbEntity
  8
LAY-10
  6
CONTINUOUS
 62
     7
100
AcDbCircle
 10
573.8216535201441
 20
623.7672056714836
 30
0.0
 40
2.0
100
AcDbArc
 50
356.7219476400957
 51
90.00000000000001
  0
ARC
  5
18A
330
1F
100
AcDbEntity
  8
LAY-10
  6
CONTINUOUS
 62
     7
100
AcDbCircle
 10
573.8216535201441
 20
636.2327943285372
 30
0.0
 40
2.0
100
AcDbArc
 50
270.0
 51
3.278052359904404
  0
ARC
  5
18B
330
1F
100
AcDbEntity
  8
LAY-10
  6
CONTINUOUS
 62
     7
100
AcDbCircle
 10
465.0
 20
630.00000000001
 30
0.0
 40
111.0
100
AcDbArc
 50
3.278052359904175
 51
11.58917573632841
  0
ARC
  5
18C
330
1F
100
AcDbEntity
  8
LAY-10
  6
CONTINUOUS
 62
     7
100
AcDbCircle
 10
465.0
 20
630.00000000001
 30
0.0
 40
111.2268945488782
100
AcDbArc
 50
356.8510704060366
 51
3.148929593963945
  0
ARC
  5
18D
330
1F
100
AcDbEntity
  8
LAY-10
  6
CONTINUOUS
 62
     7
100
AcDbCircle
 10
574.061975467125
 20
624.0000000000108
 30
0.0
 40
2.0
100
AcDbArc
 50
356.851070406037
 51
90.00000000000001
  0
ARC
  5
18E
330
1F
100
AcDbEntity
  8
LAY-10
  6
CONTINUOUS
 62
     7
100
AcDbCircle
 10
574.061975467125
 20
636.00000000001
 30
0.0
 40
2.0
100
AcDbArc
 50
270.0
 51
3.148929593963201
  0
ARC
  5
18F
330
1F
100
AcDbEntity
  8
LAY-10
  6
CONTINUOUS
 62
     7
100
AcDbCircle
 10
465.0
 20
630.00000000001
 30
0.0
 40
116.0
100
AcDbArc
 50
348.9090547123816
 51
11.09094528761894
  0
ARC
  5
190
330
1F
100
AcDbEntity
  8
LAY-10
  6
CONTINUOUS
 62
     7
100
AcDbCircle
 10
465.0
 20
630.00000000001
 30
0.0
 40
112.0
100
AcDbArc
 50
348.9178731786224
 51
11.08212682137693
  0
ARC
  5
191
330
1F
100
AcDbEntity
  8
LAY-10
  6
CONTINUOUS
 62
     7
100
AcDbCircle
 10
578.6351334696865
 20
653.3035714285818
 30
0.0
 40
1.0
100
AcDbArc
 50
11.58917573632767
 51
101.5891757363303
  0
LINE
  5
192
330
1F
100
AcDbEntity
  8
LAY-10
  6
CONTINUOUS
 62
     7
100
AcDbLine
 10
574.5157877342785
 20
653.4796132195765
 30
0.0
 11
578.4342406125436
 21
654.2831846481481
 31
0.0
  0
ARC
  5
193
330
1F
100
AcDbEntity
  8
LAY-10
  6
CONTINUOUS
 62
     7
100
AcDbCircle
 10
574.7166805914214
 20
652.5000000000103
 30
0.0
 40
1.0
100
AcDbArc
 50
101.5891757363271
 51
191.5891757363271
  0
ARC
  5
194
330
1F
100
AcDbEntity
  8
LAY-10
  6
CONTINUOUS
 62
     7
100
AcDbCircle
 10
577.8521538388349
 20
652.1221918881558
 30
0.0
 40
1.0
100
AcDbArc
 50
11.09094528761419
 51
101.5891757363239
  0
LINE
  5
195
330
1F
100
AcDbEntity
  8
LAY-10
  6
CONTINUOUS
 62
     7
100
AcDbLine
 10
577.6512609816921
 20
653.101805107722
 30
0.0
 11
575.6919591543513
 21
652.7000039333013
 31
0.0
  0
ARC
  5
196
330
1F
100
AcDbEntity
  8
LAY-10
  6
CONTINUOUS
 62
     7
100
AcDbCircle
 10
575.892852011494
 20
651.7203907137351
 30
0.0
 40
1.0
100
AcDbArc
 50
101.5891757363239
 51
191.0821268213776
  0
ARC
  5
197
330
1F
100
AcDbEntity
  8
LAY-10
  6
CONTINUOUS
 62
     7
100
AcDbCircle
 10
578.6351334696865
 20
606.6964285714382
 30
0.0
 40
1.0
100
AcDbArc
 50
258.4108242636698
 51
348.410824263673
  0
LINE
  5
198
330
1F
100
AcDbEntity
  8
LAY-10
  6
CONTINUOUS
 62
     7
100
AcDbLine
 10
574.5157877342785
 20
606.5203867804435
 30
0.0
 11
578.4342406125436
 21
605.7168153518721
 31
0.0
  0
ARC
  5
199
330
1F
100
AcDbEntity
  8
LAY-10
  6
CONTINUOUS
 62
     7
100
AcDbCircle
 10
465.0
 20
630.00000000001
 30
0.0
 40
117.0
100
AcDbArc
 50
348.4108242636715
 51
11.58917573632847
  0
ARC
  5
19A
330
1F
100
AcDbEntity
  8
LAY-10
  6
CONTINUOUS
 62
     7
100
AcDbCircle
 10
574.7166805914214
 20
607.5000000000098
 30
0.0
 40
1.0
100
AcDbArc
 50
168.410824263673
 51
258.4108242636698
  0
ARC
  5
19B
330
1F
100
AcDbEntity
  8
LAY-10
  6
CONTINUOUS
 62
     7
100
AcDbCircle
 10
577.852153838835
 20
607.8778081118644
 30
0.0
 40
1.0
100
AcDbArc
 50
258.4108242636698
 51
348.9090547123826
  0
LINE
  5
19C
330
1F
100
AcDbEntity
  8
LAY-10
  6
CONTINUOUS
 62
     7
100
AcDbLine
 10
577.6512609816921
 20
606.8981948922981
 30
0.0
 11
575.6919591543513
 21
607.2999960667187
 31
0.0
  0
ARC
  5
19D
330
1F
100
AcDbEntity
  8
LAY-10
  6
CONTINUOUS
 62
     7
100
AcDbCircle
 10
575.892852011494
 20
608.279609286285
 30
0.0
 40
1.0
100
AcDbArc
 50
168.9178731786231
 51
258.4108242636698
  0
ARC
  5
19E
330
1F
100
AcDbEntity
  8
LAY-10
  6
CONTINUOUS
 62
     7
100
AcDbCircle
 10
465.0
 20
630.0000000000105
 30
0.0
 40
111.0
100
AcDbArc
 50
183.278052359904
 51
191.5891757363282
  0
ARC
  5
19F
330
1F
100
AcDbEntity
  8
LAY-10
  6
CONTINUOUS
 62
     7
100
AcDbCircle
 10
356.178346479856
 20
623.7672056714836
 30
0.0
 40
2.0
100
AcDbArc
 50
90.00000000000001
 51
183.2780523599044
  0
ARC
  5
1A0
330
1F
100
AcDbEntity
  8
LAY-10
  6
CONTINUOUS
 62
     7
100
AcDbCircle
 10
356.178346479856
 20
636.2327943285372
 30
0.0
 40
2.0
100
AcDbArc
 50
176.7219476400957
 51
270.0
  0
ARC
  5
1A1
330
1F
100
AcDbEntity
  8
LAY-10
  6
CONTINUOUS
 62
     7
100
AcDbCircle
 10
465.0
 20
630.00000000001
 30
0.0
 40
111.2268945488782
100
AcDbArc
 50
176.8510704060362
 51
183.1489295939636
  0
ARC
  5
1A2
330
1F
100
AcDbEntity
  8
LAY-10
  6
CONTINUOUS
 62
     7
100
AcDbCircle
 10
355.9380245328751
 20
624.0000000000108
 30
0.0
 40
2.0
100
AcDbArc
 50
90.00000000000001
 51
183.1489295939631
  0
ARC
  5
1A3
330
1F
100
AcDbEntity
  8
LAY-10
  6
CONTINUOUS
 62
     7
100
AcDbCircle
 10
355.9380245328751
 20
636.00000000001
 30
0.0
 40
2.0
100
AcDbArc
 50
176.8510704060369
 51
270.0
  0
ARC
  5
1A4
330
1F
100
AcDbEntity
  8
LAY-10
  6
CONTINUOUS
 62
     7
100
AcDbCircle
 10
473.3001177194897
 20
738.6835224210408
 30
0.0
 40
2.0
100
AcDbArc
 50
85.6328210204622
 51
180.0
  0
ARC
  5
1A5
330
1F
100
AcDbEntity
  8
LAY-10
  6
CONTINUOUS
 62
     7
100
AcDbCircle
 10
465.0
 20
630.0000000000105
 30
0.0
 40
111.0
100
AcDbArc
 50
78.41082426367133
 51
85.63282102046209
  0
ARC
  5
1A6
330
1F
100
AcDbEntity
  8
LAY-10
  6
CONTINUOUS
 62
     7
100
AcDbCircle
 10
456.6998822805112
 20
738.6835224210408
 30
0.0
 40
2.0
100
AcDbArc
 50
0.0
 51
94.36717897953784
  0
ARC
  5
1A7
330
1F
100
AcDbEntity
  8
LAY-10
  6
CONTINUOUS
 62
     7
100
AcDbCircle
 10
465.0
 20
630.0000000000105
 30
0.0
 40
111.22689454888
100
AcDbArc
 50
85.79977953157432
 51
94.20022046842527
  0
ARC
  5
1A8
330
1F
100
AcDbEntity
  8
LAY-10
  6
CONTINUOUS
 62
     7
100
AcDbCircle
 10
473.0000000000004
 20
738.9335324534848
 30
0.0
 40
2.0
100
AcDbArc
 50
85.79977953157662
 51
180.0
  0
ARC
  5
1A9
330
1F
100
AcDbEntity
  8
LAY-10
  6
CONTINUOUS
 62
     7
100
AcDbCircle
 10
457.0000000000005
 20
738.9335324534848
 30
0.0
 40
2.0
100
AcDbArc
 50
0.0
 51
94.20022046842665
  0
ARC
  5
1AA
330
1F
100
AcDbEntity
  8
LAY-10
  6
CONTINUOUS
 62
     7
100
AcDbCircle
 10
465.0
 20
630.0000000000105
 30
0.0
 40
116.0
100
AcDbArc
 50
78.9090547123808
 51
101.0909452876182
  0
ARC
  5
1AB
330
1F
100
AcDbEntity
  8
LAY-10
  6
CONTINUOUS
 62
     7
100
AcDbCircle
 10
488.3035714285721
 20
743.6351334696967
 30
0.0
 40
1.0
100
AcDbArc
 50
348.4108242636706
 51
78.41082426366977
  0
LINE
  5
1AC
330
1F
100
AcDbEntity
  8
LAY-10
  6
CONTINUOUS
 62
     7
100
AcDbLine
 10
488.479613219567
 20
739.5157877342888
 30
0.0
 11
489.2831846481384
 21
743.4342406125538
 31
0.0
  0
ARC
  5
1AD
330
1F
100
AcDbEntity
  8
LAY-10
  6
CONTINUOUS
 62
     7
100
AcDbCircle
 10
487.5000000000008
 20
739.7166805914317
 30
0.0
 40
1.0
100
AcDbArc
 50
258.4108242636698
 51
348.4108242636692
  0
ARC
  5
1AE
330
1F
100
AcDbEntity
  8
LAY-10
  6
CONTINUOUS
 62
     7
100
AcDbCircle
 10
487.1221918881462
 20
742.8521538388452
 30
0.0
 40
1.0
100
AcDbArc
 50
348.4108242636724
 51
78.9090547123859
  0
LINE
  5
1AF
330
1F
100
AcDbEntity
  8
LAY-10
  6
CONTINUOUS
 62
     7
100
AcDbLine
 10
488.1018051077124
 20
742.6512609817023
 30
0.0
 11
487.7000039332918
 21
740.6919591543615
 31
0.0
  0
ARC
  5
1B0
330
1F
100
AcDbEntity
  8
LAY-10
  6
CONTINUOUS
 62
     7
100
AcDbCircle
 10
486.7203907137255
 20
740.8928520115044
 30
0.0
 40
1.0
100
AcDbArc
 50
258.9178731786263
 51
348.4108242636736
  0
ARC
  5
1B1
330
1F
100
AcDbEntity
  8
LAY-10
  6
CONTINUOUS
 62
     7
100
AcDbCircle
 10
441.6964285714287
 20
743.6351334696969
 30
0.0
 40
1.0
100
AcDbArc
 50
101.5891757363239
 51
191.5891757363277
  0
ARC
  5
1B2
330
1F
100
AcDbEntity
  8
LAY-10
  6
CONTINUOUS
 62
     7
100
AcDbCircle
 10
465.0
 20
630.0000000000105
 30
0.0
 40
117.0
100
AcDbArc
 50
78.41082426367133
 51
101.5891757363283
  0
ARC
  5
1B3
330
1F
100
AcDbEntity
  8
LAY-10
  6
CONTINUOUS
 62
     7
100
AcDbCircle
 10
442.5000000000001
 20
739.7166805914319
 30
0.0
 40
1.0
100
AcDbArc
 50
191.5891757363265
 51
281.5891757363239
  0
ARC
  5
1B4
330
1F
100
AcDbEntity
  8
LAY-10
  6
CONTINUOUS
 62
     7
100
AcDbCircle
 10
442.8778081118547
 20
742.8521538388454
 30
0.0
 40
1.0
100
AcDbArc
 50
101.0909452876206
 51
191.5891757363265
  0
ARC
  5
1B5
330
1F
100
AcDbEntity
  8
LAY-10
  6
CONTINUOUS
 62
     7
100
AcDbCircle
 10
443.2796092862753
 20
740.8928520115046
 30
0.0
 40
1.0
100
AcDbArc
 50
191.5891757363277
 51
281.0821268213802
  0
ARC
  5
1B6
330
1F
100
AcDbEntity
  8
LAY-10
  6
CONTINUOUS
 62
     7
100
AcDbCircle
 10
473.3001177194892
 20
521.3164775789796
 30
0.0
 40
2.0
100
AcDbArc
 50
180.0
 51
274.3671789795379
  0
ARC
  5
1B7
330
1F
100
AcDbEntity
  8
LAY-10
  6
CONTINUOUS
 62
     7
100
AcDbCircle
 10
465.0
 20
630.00000000001
 30
0.0
 40
111.0
100
AcDbArc
 50
274.3671789795378
 51
281.5891757363285
  0
ARC
  5
1B8
330
1F
100
AcDbEntity
  8
LAY-10
  6
CONTINUOUS
 62
     7
100
AcDbCircle
 10
456.6998822805108
 20
521.3164775789796
 30
0.0
 40
2.0
100
AcDbArc
 50
265.6328210204622
 51
0.0
  0
ARC
  5
1B9
330
1F
100
AcDbEntity
  8
LAY-10
  6
CONTINUOUS
 62
     7
100
AcDbCircle
 10
465.0
 20
630.00000000001
 30
0.0
 40
111.0
100
AcDbArc
 50
258.4108242636715
 51
265.6328210204622
  0
ARC
  5
1BA
330
1F
100
AcDbEntity
  8
LAY-10
  6
CONTINUOUS
 62
     7
100
AcDbCircle
 10
465.0
 20
630.00000000001
 30
0.0
 40
111.22689454888
100
AcDbArc
 50
265.7997795315746
 51
274.2002204684255
  0
ARC
  5
1BB
330
1F
100
AcDbEntity
  8
LAY-10
  6
CONTINUOUS
 62
     7
100
AcDbCircle
 10
473.0
 20
521.0664675465357
 30
0.0
 40
2.0
100
AcDbArc
 50
180.0
 51
274.2002204684251
  0
ARC
  5
1BC
330
1F
100
AcDbEntity
  8
LAY-10
  6
CONTINUOUS
 62
     7
100
AcDbCircle
 10
456.9999999999999
 20
521.0664675465357
 30
0.0
 40
2.0
100
AcDbArc
 50
265.799779531575
 51
0.0
  0
ARC
  5
1BD
330
1F
100
AcDbEntity
  8
LAY-10
  6
CONTINUOUS
 62
     7
100
AcDbCircle
 10
378.2408733671021
 20
706.9990515909017
 30
0.0
 40
1.0
100
AcDbArc
 50
48.41082426366994
 51
138.4108242636724
  0
LINE
  5
1BE
330
1F
100
AcDbEntity
  8
LAY-10
  6
CONTINUOUS
 62
     7
100
AcDbLine
 10
381.8963523164338
 20
705.0918353863269
 30
0.0
 11
378.9046582946098
 21
707.7469750963576
 31
0.0
  0
ARC
  5
1BF
330
1F
100
AcDbEntity
  8
LAY-10
  6
CONTINUOUS
 62
     7
100
AcDbCircle
 10
381.2325673889262
 20
704.343911880871
 30
0.0
 40
1.0
100
AcDbArc
 50
318.4108242636723
 51
48.41082426367252
  0
ARC
  5
1C0
330
1F
100
AcDbEntity
  8
LAY-10
  6
CONTINUOUS
 62
     7
100
AcDbCircle
 10
378.3282638478523
 20
705.5844570819559
 30
0.0
 40
1.0
100
AcDbArc
 50
48.41082426367252
 51
138.9090547123843
  0
LINE
  5
1C1
330
1F
100
AcDbEntity
  8
LAY-10
  6
CONTINUOUS
 62
     7
100
AcDbLine
 10
378.9920487753599
 20
706.3323805874118
 30
0.0
 11
380.487953344308
 21
705.0047596494226
 31
0.0
  0
ARC
  5
1C2
330
1F
100
AcDbEntity
  8
LAY-10
  6
CONTINUOUS
 62
     7
100
AcDbCircle
 10
379.8241684168004
 20
704.2568361439667
 30
0.0
 40
1.0
100
AcDbArc
 50
318.9178731786234
 51
48.41082426367252
  0
ARC
  5
1C3
330
1F
100
AcDbEntity
  8
LAY-10
  6
CONTINUOUS
 62
     7
100
AcDbCircle
 10
354.9373019385303
 20
666.6360818788049
 30
0.0
 40
1.0
100
AcDbArc
 50
161.5891757363274
 51
251.5891757363295
  0
ARC
  5
1C4
330
1F
100
AcDbEntity
  8
LAY-10
  6
CONTINUOUS
 62
     7
100
AcDbCircle
 10
358.7325673889258
 20
665.3727687105707
 30
0.0
 40
1.0
100
AcDbArc
 50
251.5891757363295
 51
341.5891757363274
  0
ARC
  5
1C5
330
1F
100
AcDbEntity
  8
LAY-10
  6
CONTINUOUS
 62
     7
100
AcDbCircle
 10
356.2060719597065
 20
667.2676967568993
 30
0.0
 40
1.0
100
AcDbArc
 50
161.0909452876169
 51
251.5891757363295
  0
ARC
  5
1C6
330
1F
100
AcDbEntity
  8
LAY-10
  6
CONTINUOUS
 62
     7
100
AcDbCircle
 10
358.1037777030753
 20
666.6360158675475
 30
0.0
 40
1.0
100
AcDbArc
 50
251.5891757363295
 51
341.0821268213769
  0
ARC
  5
1C7
330
1F
100
AcDbEntity
  8
LAY-10
  6
CONTINUOUS
 62
     7
100
AcDbCircle
 10
351.3648665303136
 20
653.3035714285818
 30
0.0
 40
1.0
100
AcDbArc
 50
78.41082426367
 51
168.4108242636725
  0
LINE
  5
1C8
330
1F
100
AcDbEntity
  8
LAY-10
  6
CONTINUOUS
 62
     7
100
AcDbLine
 10
355.4842122657215
 20
653.4796132195765
 30
0.0
 11
351.5657593874565
 21
654.2831846481481
 31
0.0
  0
ARC
  5
1C9
330
1F
100
AcDbEntity
  8
LAY-10
  6
CONTINUOUS
 62
     7
100
AcDbCircle
 10
355.2833194085786
 20
652.5000000000103
 30
0.0
 40
1.0
100
AcDbArc
 50
348.4108242636726
 51
78.41082426367242
  0
ARC
  5
1CA
330
1F
100
AcDbEntity
  8
LAY-10
  6
CONTINUOUS
 62
     7
100
AcDbCircle
 10
352.1478461611651
 20
652.1221918881558
 30
0.0
 40
1.0
100
AcDbArc
 50
78.41082426367242
 51
168.9090547123843
  0
LINE
  5
1CB
330
1F
100
AcDbEntity
  8
LAY-10
  6
CONTINUOUS
 62
     7
100
AcDbLine
 10
352.348739018308
 20
653.101805107722
 30
0.0
 11
354.3080408456488
 21
652.7000039333013
 31
0.0
  0
ARC
  5
1CC
330
1F
100
AcDbEntity
  8
LAY-10
  6
CONTINUOUS
 62
     7
100
AcDbCircle
 10
354.1071479885059
 20
651.7203907137351
 30
0.0
 40
1.0
100
AcDbArc
 50
348.9178731786233
 51
78.41082426367242
  0
ARC
  5
1CD
330
1F
100
AcDbEntity
  8
LAY-10
  6
CONTINUOUS
 62
     7
100
AcDbCircle
 10
351.3648665303136
 20
606.6964285714382
 30
0.0
 40
1.0
100
AcDbArc
 50
191.5891757363274
 51
281.5891757363295
  0
LINE
  5
1CE
330
1F
100
AcDbEntity
  8
LAY-10
  6
CONTINUOUS
 62
     7
100
AcDbLine
 10
355.4842122657215
 20
606.5203867804435
 30
0.0
 11
351.5657593874565
 21
605.7168153518721
 31
0.0
  0
ARC
  5
1CF
330
1F
100
AcDbEntity
  8
LAY-10
  6
CONTINUOUS
 62
     7
100
AcDbCircle
 10
355.2833194085786
 20
607.5000000000098
 30
0.0
 40
1.0
100
AcDbArc
 50
281.5891757363295
 51
11.5891757363275
  0
ARC
  5
1D0
330
1F
100
AcDbEntity
  8
LAY-10
  6
CONTINUOUS
 62
     7
100
AcDbCircle
 10
352.1478461611651
 20
607.8778081118644
 30
0.0
 40
1.0
100
AcDbArc
 50
191.0909452876169
 51
281.5891757363295
  0
LINE
  5
1D1
330
1F
100
AcDbEntity
  8
LAY-10
  6
CONTINUOUS
 62
     7
100
AcDbLine
 10
352.348739018308
 20
606.8981948922981
 30
0.0
 11
354.3080408456488
 21
607.2999960667187
 31
0.0
  0
ARC
  5
1D2
330
1F
100
AcDbEntity
  8
LAY-10
  6
CONTINUOUS
 62
     7
100
AcDbCircle
 10
354.1071479885059
 20
608.279609286285
 30
0.0
 40
1.0
100
AcDbArc
 50
281.5891757363295
 51
11.08212682137682
  0
ARC
  5
1D3
330
1F
100
AcDbEntity
  8
LAY-10
  6
CONTINUOUS
 62
     7
100
AcDbCircle
 10
465.0
 20
630.00000000001
 30
0.0
 40
116.0
100
AcDbArc
 50
198.9090547123811
 51
221.0909452876184
  0
ARC
  5
1D4
330
1F
100
AcDbEntity
  8
LAY-10
  6
CONTINUOUS
 62
     7
100
AcDbCircle
 10
465.0
 20
630.00000000001
 30
0.0
 40
112.0
100
AcDbArc
 50
198.9178731786231
 51
221.0821268213779
  0
ARC
  5
1D5
330
1F
100
AcDbEntity
  8
LAY-10
  6
CONTINUOUS
 62
     7
100
AcDbCircle
 10
354.9373019385303
 20
593.3639181212152
 30
0.0
 40
1.0
100
AcDbArc
 50
108.41082426367
 51
198.4108242636724
  0
LINE
  5
1D6
330
1F
100
AcDbEntity
  8
LAY-10
  6
CONTINUOUS
 62
     7
100
AcDbLine
 10
358.4167390968673
 20
595.5760476520484
 30
0.0
 11
354.6214736464718
 21
594.3127344838141
 31
0.0
  0
ARC
  5
1D7
330
1F
100
AcDbEntity
  8
LAY-10
  6
CONTINUOUS
 62
     7
100
AcDbCircle
 10
358.7325673889258
 20
594.6272312894496
 30
0.0
 40
1.0
100
AcDbArc
 50
18.41082426367246
 51
108.4108242636724
  0
ARC
  5
1D8
330
1F
100
AcDbEntity
  8
LAY-10
  6
CONTINUOUS
 62
     7
100
AcDbCircle
 10
356.2060719597064
 20
592.7323032431209
 30
0.0
 40
1.0
100
AcDbArc
 50
108.4108242636724
 51
198.9090547123843
  0
LINE
  5
1D9
330
1F
100
AcDbEntity
  8
LAY-10
  6
CONTINUOUS
 62
     7
100
AcDbLine
 10
355.8902436676479
 20
593.6811196057197
 30
0.0
 11
357.7879494110167
 21
594.3128004950714
 31
0.0
  0
ARC
  5
1DA
330
1F
100
AcDbEntity
  8
LAY-10
  6
CONTINUOUS
 62
     7
100
AcDbCircle
 10
358.1037777030753
 20
593.3639841324725
 30
0.0
 40
1.0
100
AcDbArc
 50
18.91787317862342
 51
108.4108242636724
  0
ARC
  5
1DB
330
1F
100
AcDbEntity
  8
LAY-10
  6
CONTINUOUS
 62
     7
100
AcDbCircle
 10
378.2408733671021
 20
553.0009484091186
 30
0.0
 40
1.0
100
AcDbArc
 50
221.5891757363274
 51
311.5891757363295
  0
LINE
  5
1DC
330
1F
100
AcDbEntity
  8
LAY-10
  6
CONTINUOUS
 62
     7
100
AcDbLine
 10
381.8963523164338
 20
554.9081646136933
 30
0.0
 11
378.9046582946096
 21
552.2530249036625
 31
0.0
  0
ARC
  5
1DD
330
1F
100
AcDbEntity
  8
LAY-10
  6
CONTINUOUS
 62
     7
100
AcDbCircle
 10
465.0
 20
630.00000000001
 30
0.0
 40
117.0
100
AcDbArc
 50
198.4108242636715
 51
221.5891757363286
  0
ARC
  5
1DE
330
1F
100
AcDbEntity
  8
LAY-10
  6
CONTINUOUS
 62
     7
100
AcDbCircle
 10
381.2325673889262
 20
555.6560881191492
 30
0.0
 40
1.0
100
AcDbArc
 50
311.5891757363295
 51
41.58917573632756
  0
ARC
  5
1DF
330
1F
100
AcDbEntity
  8
LAY-10
  6
CONTINUOUS
 62
     7
100
AcDbCircle
 10
465.0
 20
630.00000000001
 30
0.0
 40
111.0
100
AcDbArc
 50
198.4108242636716
 51
221.5891757363286
  0
ARC
  5
1E0
330
1F
100
AcDbEntity
  8
LAY-10
  6
CONTINUOUS
 62
     7
100
AcDbCircle
 10
378.3282638478523
 20
554.4155429180644
 30
0.0
 40
1.0
100
AcDbArc
 50
221.0909452876169
 51
311.5891757363295
  0
LINE
  5
1E1
330
1F
100
AcDbEntity
  8
LAY-10
  6
CONTINUOUS
 62
     7
100
AcDbLine
 10
378.9920487753599
 20
553.6676194126084
 30
0.0
 11
380.487953344308
 21
554.9952403505974
 31
0.0
  0
ARC
  5
1E2
330
1F
100
AcDbEntity
  8
LAY-10
  6
CONTINUOUS
 62
     7
100
AcDbCircle
 10
379.8241684168004
 20
555.7431638560536
 30
0.0
 40
1.0
100
AcDbArc
 50
311.5891757363295
 51
41.08212682137688
  0
ARC
  5
1E3
330
1F
100
AcDbEntity
  8
LAY-10
  6
CONTINUOUS
 62
     7
100
AcDbCircle
 10
465.0
 20
630.00000000001
 30
0.0
 40
116.0
100
AcDbArc
 50
228.9090547123811
 51
251.0909452876184
  0
ARC
  5
1E4
330
1F
100
AcDbEntity
  8
LAY-10
  6
CONTINUOUS
 62
     7
100
AcDbCircle
 10
465.0
 20
630.00000000001
 30
0.0
 40
112.0
100
AcDbArc
 50
228.9178731786231
 51
251.0821268213778
  0
ARC
  5
1E5
330
1F
100
AcDbEntity
  8
LAY-10
  6
CONTINUOUS
 62
     7
100
AcDbCircle
 10
388.0009484091083
 20
543.240873367112
 30
0.0
 40
1.0
100
AcDbArc
 50
138.41082426367
 51
228.4108242636724
  0
LINE
  5
1E6
330
1F
100
AcDbEntity
  8
LAY-10
  6
CONTINUOUS
 62
     7
100
AcDbLine
 10
389.9081646136831
 20
546.8963523164439
 30
0.0
 11
387.2530249036524
 21
543.9046582946198
 31
0.0
  0
ARC
  5
1E7
330
1F
100
AcDbEntity
  8
LAY-10
  6
CONTINUOUS
 62
     7
100
AcDbCircle
 10
390.6560881191392
 20
546.2325673889362
 30
0.0
 40
1.0
100
AcDbArc
 50
48.41082426367235
 51
138.4108242636724
  0
ARC
  5
1E8
330
1F
100
AcDbEntity
  8
LAY-10
  6
CONTINUOUS
 62
     7
100
AcDbCircle
 10
389.4155429180543
 20
543.3282638478623
 30
0.0
 40
1.0
100
AcDbArc
 50
138.4108242636724
 51
228.9090547123843
  0
LINE
  5
1E9
330
1F
100
AcDbEntity
  8
LAY-10
  6
CONTINUOUS
 62
     7
100
AcDbLine
 10
388.6676194125983
 20
543.99204877537
 30
0.0
 11
389.9952403505874
 21
545.4879533443182
 31
0.0
  0
ARC
  5
1EA
330
1F
100
AcDbEntity
  8
LAY-10
  6
CONTINUOUS
 62
     7
100
AcDbCircle
 10
390.7431638560433
 20
544.8241684168104
 30
0.0
 40
1.0
100
AcDbArc
 50
48.91787317862337
 51
138.4108242636724
  0
ARC
  5
1EB
330
1F
100
AcDbEntity
  8
LAY-10
  6
CONTINUOUS
 62
     7
100
AcDbCircle
 10
428.3639181212051
 20
519.9373019385404
 30
0.0
 40
1.0
100
AcDbArc
 50
251.5891757363275
 51
341.5891757363295
  0
LINE
  5
1EC
330
1F
100
AcDbEntity
  8
LAY-10
  6
CONTINUOUS
 62
     7
100
AcDbLine
 10
430.5760476520383
 20
523.4167390968773
 30
0.0
 11
429.312734483804
 21
519.6214736464818
 31
0.0
  0
ARC
  5
1ED
330
1F
100
AcDbEntity
  8
LAY-10
  6
CONTINUOUS
 62
     7
100
AcDbCircle
 10
465.0
 20
630.00000000001
 30
0.0
 40
117.0
100
AcDbArc
 50
228.4108242636715
 51
251.5891757363286
  0
ARC
  5
1EE
330
1F
100
AcDbEntity
  8
LAY-10
  6
CONTINUOUS
 62
     7
100
AcDbCircle
 10
429.6272312894394
 20
523.7325673889359
 30
0.0
 40
1.0
100
AcDbArc
 50
341.5891757363295
 51
71.58917573632745
  0
ARC
  5
1EF
330
1F
100
AcDbEntity
  8
LAY-10
  6
CONTINUOUS
 62
     7
100
AcDbCircle
 10
465.0
 20
630.00000000001
 30
0.0
 40
111.0
100
AcDbArc
 50
228.4108242636716
 51
251.5891757363286
  0
ARC
  5
1F0
330
1F
100
AcDbEntity
  8
LAY-10
  6
CONTINUOUS
 62
     7
100
AcDbCircle
 10
427.7323032431108
 20
521.2060719597166
 30
0.0
 40
1.0
100
AcDbArc
 50
251.0909452876169
 51
341.5891757363295
  0
LINE
  5
1F1
330
1F
100
AcDbEntity
  8
LAY-10
  6
CONTINUOUS
 62
     7
100
AcDbLine
 10
428.6811196057097
 20
520.8902436676581
 30
0.0
 11
429.3128004950614
 21
522.7879494110268
 31
0.0
  0
ARC
  5
1F2
330
1F
100
AcDbEntity
  8
LAY-10
  6
CONTINUOUS
 62
     7
100
AcDbCircle
 10
428.3639841324625
 20
523.1037777030854
 30
0.0
 40
1.0
100
AcDbArc
 50
341.5891757363295
 51
71.08212682137678
  0
ARC
  5
1F3
330
1F
100
AcDbEntity
  8
LAY-10
  6
CONTINUOUS
 62
     7
100
AcDbCircle
 10
388.0009484091082
 20
716.759126632908
 30
0.0
 40
1.0
100
AcDbArc
 50
131.5891757363276
 51
221.5891757363277
  0
ARC
  5
1F4
330
1F
100
AcDbEntity
  8
LAY-10
  6
CONTINUOUS
 62
     7
100
AcDbCircle
 10
390.6560881191388
 20
713.7674326110839
 30
0.0
 40
1.0
100
AcDbArc
 50
221.5891757363301
 51
311.5891757363277
  0
ARC
  5
1F5
330
1F
100
AcDbEntity
  8
LAY-10
  6
CONTINUOUS
 62
     7
100
AcDbCircle
 10
389.4155429180539
 20
716.6717361521578
 30
0.0
 40
1.0
100
AcDbArc
 50
131.0909452876179
 51
221.5891757363322
  0
ARC
  5
1F6
330
1F
100
AcDbEntity
  8
LAY-10
  6
CONTINUOUS
 62
     7
100
AcDbCircle
 10
390.7431638560432
 20
715.1758315832099
 30
0.0
 40
1.0
100
AcDbArc
 50
221.5891757363301
 51
311.0821268213767
  0
ARC
  5
1F7
330
1F
100
AcDbEntity
  8
LAY-10
  6
CONTINUOUS
 62
     7
100
AcDbCircle
 10
428.3639181212046
 20
740.06269806148
 30
0.0
 40
1.0
100
AcDbArc
 50
18.41082426366908
 51
108.4108242636763
  0
LINE
  5
1F8
330
1F
100
AcDbEntity
  8
LAY-10
  6
CONTINUOUS
 62
     7
100
AcDbLine
 10
430.5760476520379
 20
736.5832609031429
 30
0.0
 11
429.3127344838035
 21
740.3785263535385
 31
0.0
  0
ARC
  5
1F9
330
1F
100
AcDbEntity
  8
LAY-10
  6
CONTINUOUS
 62
     7
100
AcDbCircle
 10
429.627231289439
 20
736.2674326110844
 30
0.0
 40
1.0
100
AcDbArc
 50
288.4108242636763
 51
18.41082426367205
  0
ARC
  5
1FA
330
1F
100
AcDbEntity
  8
LAY-10
  6
CONTINUOUS
 62
     7
100
AcDbCircle
 10
427.7323032431103
 20
738.7939280403036
 30
0.0
 40
1.0
100
AcDbArc
 50
18.41082426367308
 51
108.9090547123837
  0
LINE
  5
1FB
330
1F
100
AcDbEntity
  8
LAY-10
  6
CONTINUOUS
 62
     7
100
AcDbLine
 10
428.6811196057092
 20
739.1097563323624
 30
0.0
 11
429.3128004950609
 21
737.2120505889936
 31
0.0
  0
ARC
  5
1FC
330
1F
100
AcDbEntity
  8
LAY-10
  6
CONTINUOUS
 62
     7
100
AcDbCircle
 10
428.363984132462
 20
736.8962222969349
 30
0.0
 40
1.0
100
AcDbArc
 50
288.9178731786228
 51
18.41082426367205
  0
ARC
  5
1FD
330
1F
100
AcDbEntity
  8
LAY-10
  6
CONTINUOUS
 62
     7
100
AcDbCircle
 10
465.0000000000002
 20
630.0000000000103
 30
0.0
 40
116.0
100
AcDbArc
 50
18.90905471238084
 51
41.09094528761809
  0
ARC
  5
1FE
330
1F
100
AcDbEntity
  8
LAY-10
  6
CONTINUOUS
 62
     7
100
AcDbCircle
 10
465.0000000000002
 20
630.0000000000103
 30
0.0
 40
112.0
100
AcDbArc
 50
18.91787317862284
 51
41.08212682137763
  0
ARC
  5
1FF
330
1F
100
AcDbEntity
  8
LAY-10
  6
CONTINUOUS
 62
     7
100
AcDbCircle
 10
575.06269806147
 20
666.6360818788048
 30
0.0
 40
1.0
100
AcDbArc
 50
288.4108242636724
 51
18.41082426367246
  0
LINE
  5
200
330
1F
100
AcDbEntity
  8
LAY-10
  6
CONTINUOUS
 62
     7
100
AcDbLine
 10
571.583260903133
 20
664.4239523479716
 30
0.0
 11
575.3785263535285
 21
665.6872655162059
 31
0.0
  0
ARC
  5
201
330
1F
100
AcDbEntity
  8
LAY-10
  6
CONTINUOUS
 62
     7
100
AcDbCircle
 10
571.2674326110745
 20
665.3727687105704
 30
0.0
 40
1.0
100
AcDbArc
 50
198.4108242636724
 51
288.41082426367
  0
ARC
  5
202
330
1F
100
AcDbEntity
  8
LAY-10
  6
CONTINUOUS
 62
     7
100
AcDbCircle
 10
573.7939280402938
 20
667.2676967568991
 30
0.0
 40
1.0
100
AcDbArc
 50
288.4108242636678
 51
18.90905471238221
  0
LINE
  5
203
330
1F
100
AcDbEntity
  8
LAY-10
  6
CONTINUOUS
 62
     7
100
AcDbLine
 10
574.1097563323524
 20
666.3188803943003
 30
0.0
 11
572.2120505889836
 21
665.6871995049485
 31
0.0
  0
ARC
  5
204
330
1F
100
AcDbEntity
  8
LAY-10
  6
CONTINUOUS
 62
     7
100
AcDbCircle
 10
571.8962222969251
 20
666.6360158675475
 30
0.0
 40
1.0
100
AcDbArc
 50
198.9178731786234
 51
288.41082426367
  0
ARC
  5
205
330
1F
100
AcDbEntity
  8
LAY-10
  6
CONTINUOUS
 62
     7
100
AcDbCircle
 10
551.7591266328984
 20
706.9990515909017
 30
0.0
 40
1.0
100
AcDbArc
 50
41.58917573632384
 51
131.589175736331
  0
LINE
  5
206
330
1F
100
AcDbEntity
  8
LAY-10
  6
CONTINUOUS
 62
     7
100
AcDbLine
 10
548.1036476835666
 20
705.0918353863269
 30
0.0
 11
551.0953417053908
 21
707.7469750963576
 31
0.0
  0
ARC
  5
207
330
1F
100
AcDbEntity
  8
LAY-10
  6
CONTINUOUS
 62
     7
100
AcDbCircle
 10
465.0000000000002
 20
630.0000000000103
 30
0.0
 40
117.0
100
AcDbArc
 50
18.41082426367114
 51
41.58917573632831
  0
ARC
  5
208
330
1F
100
AcDbEntity
  8
LAY-10
  6
CONTINUOUS
 62
     7
100
AcDbCircle
 10
548.7674326110744
 20
704.3439118808708
 30
0.0
 40
1.0
100
AcDbArc
 50
131.5891757363279
 51
221.589175736327
  0
ARC
  5
209
330
1F
100
AcDbEntity
  8
LAY-10
  6
CONTINUOUS
 62
     7
100
AcDbCircle
 10
465.0000000000002
 20
630.0000000000103
 30
0.0
 40
111.0
100
AcDbArc
 50
18.41082426367137
 51
41.58917573632848
  0
ARC
  5
20A
330
1F
100
AcDbEntity
  8
LAY-10
  6
CONTINUOUS
 62
     7
100
AcDbCircle
 10
551.6717361521482
 20
705.5844570819556
 30
0.0
 40
1.0
100
AcDbArc
 50
41.09094528761758
 51
131.5891757363279
  0
LINE
  5
20B
330
1F
100
AcDbEntity
  8
LAY-10
  6
CONTINUOUS
 62
     7
100
AcDbLine
 10
551.0079512246406
 20
706.3323805874118
 30
0.0
 11
549.5120466556924
 21
705.0047596494226
 31
0.0
  0
ARC
  5
20C
330
1F
100
AcDbEntity
  8
LAY-10
  6
CONTINUOUS
 62
     7
100
AcDbCircle
 10
550.1758315832001
 20
704.2568361439667
 30
0.0
 40
1.0
100
AcDbArc
 50
131.5891757363279
 51
221.0821268213763
  0
ARC
  5
20D
330
1F
100
AcDbEntity
  8
LAY-10
  6
CONTINUOUS
 62
     7
100
AcDbCircle
 10
465.0
 20
630.0000000000105
 30
0.0
 40
116.0
100
AcDbArc
 50
48.90905471238079
 51
71.09094528761815
  0
ARC
  5
20E
330
1F
100
AcDbEntity
  8
LAY-10
  6
CONTINUOUS
 62
     7
100
AcDbCircle
 10
465.0
 20
630.0000000000105
 30
0.0
 40
112.0
100
AcDbArc
 50
48.91787317862286
 51
71.08212682137757
  0
ARC
  5
20F
330
1F
100
AcDbEntity
  8
LAY-10
  6
CONTINUOUS
 62
     7
100
AcDbCircle
 10
541.9990515908919
 20
716.759126632908
 30
0.0
 40
1.0
100
AcDbArc
 50
318.4108242636725
 51
48.41082426367235
  0
LINE
  5
210
330
1F
100
AcDbEntity
  8
LAY-10
  6
CONTINUOUS
 62
     7
100
AcDbLine
 10
540.0918353863171
 20
713.1036476835764
 30
0.0
 11
542.7469750963479
 21
716.0953417054004
 31
0.0
  0
ARC
  5
211
330
1F
100
AcDbEntity
  8
LAY-10
  6
CONTINUOUS
 62
     7
100
AcDbCircle
 10
539.3439118808611
 20
713.7674326110839
 30
0.0
 40
1.0
100
AcDbArc
 50
228.4108242636724
 51
318.41082426367
  0
ARC
  5
212
330
1F
100
AcDbEntity
  8
LAY-10
  6
CONTINUOUS
 62
     7
100
AcDbCircle
 10
540.5844570819461
 20
716.6717361521578
 30
0.0
 40
1.0
100
AcDbArc
 50
318.4108242636677
 51
48.90905471238217
  0
LINE
  5
213
330
1F
100
AcDbEntity
  8
LAY-10
  6
CONTINUOUS
 62
     7
100
AcDbLine
 10
541.332380587402
 20
716.0079512246502
 30
0.0
 11
540.0047596494129
 21
714.5120466557021
 31
0.0
  0
ARC
  5
214
330
1F
100
AcDbEntity
  8
LAY-10
  6
CONTINUOUS
 62
     7
100
AcDbCircle
 10
539.2568361439569
 20
715.1758315832099
 30
0.0
 40
1.0
100
AcDbArc
 50
228.9178731786234
 51
318.41082426367
  0
ARC
  5
215
330
1F
100
AcDbEntity
  8
LAY-10
  6
CONTINUOUS
 62
     7
100
AcDbCircle
 10
501.6360818787952
 20
740.06269806148
 30
0.0
 40
1.0
100
AcDbArc
 50
71.58917573632378
 51
161.589175736331
  0
LINE
  5
216
330
1F
100
AcDbEntity
  8
LAY-10
  6
CONTINUOUS
 62
     7
100
AcDbLine
 10
499.423952347962
 20
736.5832609031429
 30
0.0
 11
500.6872655161965
 21
740.3785263535385
 31
0.0
  0
ARC
  5
217
330
1F
100
AcDbEntity
  8
LAY-10
  6
CONTINUOUS
 62
     7
100
AcDbCircle
 10
465.0
 20
630.0000000000105
 30
0.0
 40
117.0
100
AcDbArc
 50
48.41082426367125
 51
71.58917573632826
  0
ARC
  5
218
330
1F
100
AcDbEntity
  8
LAY-10
  6
CONTINUOUS
 62
     7
100
AcDbCircle
 10
500.3727687105609
 20
736.2674326110844
 30
0.0
 40
1.0
100
AcDbArc
 50
161.5891757363279
 51
251.589175736327
  0
ARC
  5
219
330
1F
100
AcDbEntity
  8
LAY-10
  6
CONTINUOUS
 62
     7
100
AcDbCircle
 10
465.0
 20
630.0000000000105
 30
0.0
 40
111.0
100
AcDbArc
 50
48.41082426367132
 51
71.58917573632837
  0
ARC
  5
21A
330
1F
100
AcDbEntity
  8
LAY-10
  6
CONTINUOUS
 62
     7
100
AcDbCircle
 10
502.2676967568897
 20
738.7939280403036
 30
0.0
 40
1.0
100
AcDbArc
 50
71.09094528761752
 51
161.5891757363279
  0
LINE
  5
21B
330
1F
100
AcDbEntity
  8
LAY-10
  6
CONTINUOUS
 62
     7
100
AcDbLine
 10
501.3188803942908
 20
739.1097563323624
 30
0.0
 11
500.687199504939
 21
737.2120505889936
 31
0.0
  0
ARC
  5
21C
330
1F
100
AcDbEntity
  8
LAY-10
  6
CONTINUOUS
 62
     7
100
AcDbCircle
 10
501.6360158675378
 20
736.8962222969349
 30
0.0
 40
1.0
100
AcDbArc
 50
161.5891757363279
 51
251.0821268213763
  0
ARC
  5
21D
330
1F
100
AcDbEntity
  8
LAY-10
  6
CONTINUOUS
 62
     7
100
AcDbCircle
 10
465.0
 20
630.00000000001
 30
0.0
 40
116.0
100
AcDbArc
 50
318.9090547123817
 51
341.090945287619
  0
ARC
  5
21E
330
1F
100
AcDbEntity
  8
LAY-10
  6
CONTINUOUS
 62
     7
100
AcDbCircle
 10
465.0
 20
630.00000000001
 30
0.0
 40
112.0
100
AcDbArc
 50
318.9178731786222
 51
341.0821268213769
  0
ARC
  5
21F
330
1F
100
AcDbEntity
  8
LAY-10
  6
CONTINUOUS
 62
     7
100
AcDbCircle
 10
575.0626980614696
 20
593.3639181212152
 30
0.0
 40
1.0
100
AcDbArc
 50
341.5891757363271
 51
71.58917573632871
  0
LINE
  5
220
330
1F
100
AcDbEntity
  8
LAY-10
  6
CONTINUOUS
 62
     7
100
AcDbLine
 10
571.5832609031327
 20
595.5760476520484
 30
0.0
 11
575.3785263535283
 21
594.312734483814
 31
0.0
  0
ARC
  5
221
330
1F
100
AcDbEntity
  8
LAY-10
  6
CONTINUOUS
 62
     7
100
AcDbCircle
 10
571.2674326110741
 20
594.6272312894496
 30
0.0
 40
1.0
100
AcDbArc
 50
71.58917573632871
 51
161.5891757363271
  0
ARC
  5
222
330
1F
100
AcDbEntity
  8
LAY-10
  6
CONTINUOUS
 62
     7
100
AcDbCircle
 10
573.7939280402934
 20
592.7323032431209
 30
0.0
 40
1.0
100
AcDbArc
 50
341.0909452876174
 51
71.58917573632871
  0
LINE
  5
223
330
1F
100
AcDbEntity
  8
LAY-10
  6
CONTINUOUS
 62
     7
100
AcDbLine
 10
574.109756332352
 20
593.6811196057197
 30
0.0
 11
572.2120505889833
 21
594.3128004950713
 31
0.0
  0
ARC
  5
224
330
1F
100
AcDbEntity
  8
LAY-10
  6
CONTINUOUS
 62
     7
100
AcDbCircle
 10
571.8962222969246
 20
593.3639841324725
 30
0.0
 40
1.0
100
AcDbArc
 50
71.58917573632871
 51
161.082126821377
  0
ARC
  5
225
330
1F
100
AcDbEntity
  8
LAY-10
  6
CONTINUOUS
 62
     7
100
AcDbCircle
 10
551.759126632898
 20
553.0009484091185
 30
0.0
 40
1.0
100
AcDbArc
 50
228.4108242636714
 51
318.410824263673
  0
LINE
  5
226
330
1F
100
AcDbEntity
  8
LAY-10
  6
CONTINUOUS
 62
     7
100
AcDbLine
 10
548.1036476835661
 20
554.9081646136932
 30
0.0
 11
551.0953417053902
 21
552.2530249036624
 31
0.0
  0
ARC
  5
227
330
1F
100
AcDbEntity
  8
LAY-10
  6
CONTINUOUS
 62
     7
100
AcDbCircle
 10
465.0
 20
630.00000000001
 30
0.0
 40
117.0
100
AcDbArc
 50
318.4108242636716
 51
341.5891757363285
  0
ARC
  5
228
330
1F
100
AcDbEntity
  8
LAY-10
  6
CONTINUOUS
 62
     7
100
AcDbCircle
 10
548.7674326110739
 20
555.6560881191492
 30
0.0
 40
1.0
100
AcDbArc
 50
138.4108242636731
 51
228.4108242636707
  0
ARC
  5
229
330
1F
100
AcDbEntity
  8
LAY-10
  6
CONTINUOUS
 62
     7
100
AcDbCircle
 10
465.0
 20
630.00000000001
 30
0.0
 40
111.0
100
AcDbArc
 50
318.4108242636716
 51
341.5891757363285
  0
ARC
  5
22A
330
1F
100
AcDbEntity
  8
LAY-10
  6
CONTINUOUS
 62
     7
100
AcDbCircle
 10
551.6717361521478
 20
554.4155429180644
 30
0.0
 40
1.0
100
AcDbArc
 50
228.4108242636714
 51
318.9090547123827
  0
LINE
  5
22B
330
1F
100
AcDbEntity
  8
LAY-10
  6
CONTINUOUS
 62
     7
100
AcDbLine
 10
551.00795122464
 20
553.6676194126084
 30
0.0
 11
549.512046655692
 21
554.9952403505974
 31
0.0
  0
ARC
  5
22C
330
1F
100
AcDbEntity
  8
LAY-10
  6
CONTINUOUS
 62
     7
100
AcDbCircle
 10
550.1758315831996
 20
555.7431638560535
 30
0.0
 40
1.0
100
AcDbArc
 50
138.9178731786231
 51
228.4108242636714
  0
ARC
  5
22D
330
1F
100
AcDbEntity
  8
LAY-10
  6
CONTINUOUS
 62
     7
100
AcDbCircle
 10
465.0
 20
630.00000000001
 30
0.0
 40
116.0
100
AcDbArc
 50
288.9090547123816
 51
311.090945287619
  0
ARC
  5
22E
330
1F
100
AcDbEntity
  8
LAY-10
  6
CONTINUOUS
 62
     7
100
AcDbCircle
 10
465.0
 20
630.00000000001
 30
0.0
 40
112.0
100
AcDbArc
 50
288.9178731786223
 51
311.082126821377
  0
ARC
  5
22F
330
1F
100
AcDbEntity
  8
LAY-10
  6
CONTINUOUS
 62
     7
100
AcDbCircle
 10
541.9990515908916
 20
543.240873367112
 30
0.0
 40
1.0
100
AcDbArc
 50
311.5891757363271
 51
41.58917573632876
  0
LINE
  5
230
330
1F
100
AcDbEntity
  8
LAY-10
  6
CONTINUOUS
 62
     7
100
AcDbLine
 10
540.0918353863168
 20
546.8963523164439
 30
0.0
 11
542.7469750963476
 21
543.9046582946198
 31
0.0
  0
ARC
  5
231
330
1F
100
AcDbEntity
  8
LAY-10
  6
CONTINUOUS
 62
     7
100
AcDbCircle
 10
539.3439118808608
 20
546.2325673889362
 30
0.0
 40
1.0
100
AcDbArc
 50
41.58917573632876
 51
131.5891757363271
  0
ARC
  5
232
330
1F
100
AcDbEntity
  8
LAY-10
  6
CONTINUOUS
 62
     7
100
AcDbCircle
 10
540.5844570819456
 20
543.3282638478623
 30
0.0
 40
1.0
100
AcDbArc
 50
311.0909452876174
 51
41.58917573632876
  0
ARC
  5
233
330
1F
100
AcDbEntity
  8
LAY-10
  6
CONTINUOUS
 62
     7
100
AcDbCircle
 10
539.2568361439565
 20
544.8241684168104
 30
0.0
 40
1.0
100
AcDbArc
 50
41.58917573632876
 51
131.082126821377
  0
ARC
  5
234
330
1F
100
AcDbEntity
  8
LAY-10
  6
CONTINUOUS
 62
     7
100
AcDbCircle
 10
501.6360818787949
 20
519.9373019385404
 30
0.0
 40
1.0
100
AcDbArc
 50
198.4108242636714
 51
288.410824263673
  0
LINE
  5
235
330
1F
100
AcDbEntity
  8
LAY-10
  6
CONTINUOUS
 62
     7
100
AcDbLine
 10
499.4239523479617
 20
523.4167390968773
 30
0.0
 11
500.687265516196
 21
519.6214736464818
 31
0.0
  0
ARC
  5
236
330
1F
100
AcDbEntity
  8
LAY-10
  6
CONTINUOUS
 62
     7
100
AcDbCircle
 10
465.0
 20
630.00000000001
 30
0.0
 40
117.0
100
AcDbArc
 50
288.4108242636715
 51
311.5891757363286
  0
ARC
  5
237
330
1F
100
AcDbEntity
  8
LAY-10
  6
CONTINUOUS
 62
     7
100
AcDbCircle
 10
500.3727687105605
 20
523.7325673889359
 30
0.0
 40
1.0
100
AcDbArc
 50
108.4108242636731
 51
198.4108242636707
  0
ARC
  5
238
330
1F
100
AcDbEntity
  8
LAY-10
  6
CONTINUOUS
 62
     7
100
AcDbCircle
 10
465.0
 20
630.00000000001
 30
0.0
 40
111.0
100
AcDbArc
 50
288.4108242636715
 51
311.5891757363285
  0
ARC
  5
239
330
1F
100
AcDbEntity
  8
LAY-10
  6
CONTINUOUS
 62
     7
100
AcDbCircle
 10
502.2676967568892
 20
521.2060719597166
 30
0.0
 40
1.0
100
AcDbArc
 50
198.4108242636714
 51
288.9090547123826
  0
ARC
  5
23A
330
1F
100
AcDbEntity
  8
LAY-10
  6
CONTINUOUS
 62
     7
100
AcDbCircle
 10
501.6360158675375
 20
523.1037777030854
 30
0.0
 40
1.0
100
AcDbArc
 50
108.9178731786232
 51
198.4108242636714
  0
ARC
  5
23B
330
1F
100
AcDbEntity
  8
LAY-10
  6
CONTINUOUS
 62
     7
100
AcDbCircle
 10
465.0
 20
630.00000000001
 30
0.0
 40
116.0
100
AcDbArc
 50
258.9090547123816
 51
281.090945287619
  0
ARC
  5
23C
330
1F
100
AcDbEntity
  8
LAY-10
  6
CONTINUOUS
 62
     7
100
AcDbCircle
 10
465.0
 20
630.00000000001
 30
0.0
 40
112.0
100
AcDbArc
 50
258.9178731786222
 51
281.0821268213769
  0
ARC
  5
23D
330
1F
100
AcDbEntity
  8
LAY-10
  6
CONTINUOUS
 62
     7
100
AcDbCircle
 10
488.3035714285717
 20
516.3648665303235
 30
0.0
 40
1.0
100
AcDbArc
 50
281.5891757363271
 51
11.5891757363287
  0
LINE
  5
23E
330
1F
100
AcDbEntity
  8
LAY-10
  6
CONTINUOUS
 62
     7
100
AcDbLine
 10
488.4796132195665
 20
520.4842122657315
 30
0.0
 11
489.283184648138
 21
516.5657593874664
 31
0.0
  0
ARC
  5
23F
330
1F
100
AcDbEntity
  8
LAY-10
  6
CONTINUOUS
 62
     7
100
AcDbCircle
 10
487.5000000000003
 20
520.2833194085886
 30
0.0
 40
1.0
100
AcDbArc
 50
11.5891757363287
 51
101.5891757363271
  0
ARC
  5
240
330
1F
100
AcDbEntity
  8
LAY-10
  6
CONTINUOUS
 62
     7
100
AcDbCircle
 10
487.1221918881457
 20
517.1478461611752
 30
0.0
 40
1.0
100
AcDbArc
 50
281.0909452876174
 51
11.5891757363287
  0
LINE
  5
241
330
1F
100
AcDbEntity
  8
LAY-10
  6
CONTINUOUS
 62
     7
100
AcDbLine
 10
488.101805107712
 20
517.3487390183179
 30
0.0
 11
487.7000039332913
 21
519.3080408456588
 31
0.0
  0
ARC
  5
242
330
1F
100
AcDbEntity
  8
LAY-10
  6
CONTINUOUS
 62
     7
100
AcDbCircle
 10
486.7203907137251
 20
519.107147988516
 30
0.0
 40
1.0
100
AcDbArc
 50
11.5891757363287
 51
101.082126821377
  0
ARC
  5
243
330
1F
100
AcDbEntity
  8
LAY-10
  6
CONTINUOUS
 62
     7
100
AcDbCircle
 10
441.6964285714283
 20
516.3648665303235
 30
0.0
 40
1.0
100
AcDbArc
 50
168.4108242636714
 51
258.4108242636729
  0
LINE
  5
244
330
1F
100
AcDbEntity
  8
LAY-10
  6
CONTINUOUS
 62
     7
100
AcDbLine
 10
441.5203867804335
 20
520.4842122657315
 30
0.0
 11
440.716815351862
 21
516.5657593874664
 31
0.0
  0
ARC
  5
245
330
1F
100
AcDbEntity
  8
LAY-10
  6
CONTINUOUS
 62
     7
100
AcDbCircle
 10
465.0
 20
630.00000000001
 30
0.0
 40
117.0
100
AcDbArc
 50
258.4108242636715
 51
281.5891757363285
  0
ARC
  5
246
330
1F
100
AcDbEntity
  8
LAY-10
  6
CONTINUOUS
 62
     7
100
AcDbCircle
 10
442.4999999999997
 20
520.2833194085886
 30
0.0
 40
1.0
100
AcDbArc
 50
78.41082426367305
 51
168.4108242636707
  0
ARC
  5
247
330
1F
100
AcDbEntity
  8
LAY-10
  6
CONTINUOUS
 62
     7
100
AcDbCircle
 10
442.8778081118543
 20
517.1478461611752
 30
0.0
 40
1.0
100
AcDbArc
 50
168.4108242636714
 51
258.9090547123827
  0
LINE
  5
248
330
1F
100
AcDbEntity
  8
LAY-10
  6
CONTINUOUS
 62
     7
100
AcDbLine
 10
441.898194892288
 20
517.3487390183179
 30
0.0
 11
442.2999960667087
 21
519.3080408456588
 31
0.0
  0
ARC
  5
249
330
1F
100
AcDbEntity
  8
LAY-10
  6
CONTINUOUS
 62
     7
100
AcDbCircle
 10
443.2796092862749
 20
519.107147988516
 30
0.0
 40
1.0
100
AcDbArc
 50
78.9178731786231
 51
168.4108242636714
  0
CIRCLE
  5
24A
330
1F
100
AcDbEntity
  8
LAY-10
  6
CONTINUOUS
 62
     7
100
AcDbCircle
 10
465.0
 20
630.00000000001
 30
0.0
 40
142.5
  0
CIRCLE
  5
24B
330
1F
100
AcDbEntity
  8
LAY-10
  6
CONTINUOUS
 62
     7
100
AcDbCircle
 10
465.0
 20
630.00000000001
 30
0.0
 40
132.5
  0
CIRCLE
  5
24C
330
1F
100
AcDbEntity
  8
LAY-10
  6
CONTINUOUS
 62
     7
100
AcDbCircle
 10
464.9999999998915
 20
524.5000000000055
 30
0.0
 40
5.25
  0
LINE
  5
24D
330
1F
100
AcDbEntity
  8
LAY-10
  6
CONTINUOUS
 62
     7
100
AcDbLine
 10
468.4429664196609
 20
520.5366072321431
 30
0.0
 11
463.2890843876401
 21
529.4633927678362
 31
0.0
  0
LINE
  5
24E
330
1F
100
AcDbEntity
  8
LAY-10
  6
CONTINUOUS
 62
     7
100
AcDbLine
 10
466.7109156120592
 20
519.536607232146
 30
0.0
 11
461.5570335800556
 21
528.4633927678096
 31
0.0
  0
CIRCLE
  5
24F
330
1F
100
AcDbEntity
  8
LAY-10
  6
CONTINUOUS
 62
     7
100
AcDbCircle
 10
464.9999999998915
 20
735.5000000000057
 30
0.0
 40
5.25
  0
LINE
  5
250
330
1F
100
AcDbEntity
  8
LAY-10
  6
CONTINUOUS
 62
     7
100
AcDbLine
 10
468.4429664196609
 20
731.5366072321433
 30
0.0
 11
463.2890843876402
 21
740.4633927678365
 31
0.0
  0
LINE
  5
251
330
1F
100
AcDbEntity
  8
LAY-10
  6
CONTINUOUS
 62
     7
100
AcDbLine
 10
466.7109156120592
 20
730.536607232146
 30
0.0
 11
461.5570335800556
 21
739.4633927678099
 31
0.0
  0
ARC
  5
252
330
1F
100
AcDbEntity
  8
LAY-10
  6
CONTINUOUS
 62
     7
100
AcDbCircle
 10
464.9999999997844
 20
528.499999999984
 30
0.0
 40
4.0
100
AcDbArc
 50
0.0000000000000573
 51
180.0
  0
LINE
  5
253
330
1F
100
AcDbEntity
  8
LAY-10
  6
CONTINUOUS
 62
     7
100
AcDbLine
 10
373.5351408083267
 20
623.7218592396733
 30
0.0
 11
422.2608482280495
 21
627.066387974873
 31
0.0
  0
LINE
  5
254
330
1F
100
AcDbEntity
  8
LAY-10
  6
CONTINUOUS
 62
     7
100
AcDbLine
 10
373.5351408083226
 20
636.2781407602967
 30
0.0
 11
422.2608482280485
 21
632.9336120251132
 31
0.0
  0
ARC
  5
255
330
1F
100
AcDbEntity
  8
LAY-10
  6
CONTINUOUS
 62
     7
100
AcDbCircle
 10
464.9999999997844
 20
630.0000000000148
 30
0.0
 40
91.6800715440378
100
AcDbArc
 50
183.9266188652426
 51
191.0733811348118
  0
ARC
  5
256
330
1F
100
AcDbEntity
  8
LAY-10
  6
CONTINUOUS
 62
     7
100
AcDbCircle
 10
422.0594853287608
 20
629.9999999999931
 30
0.0
 40
2.94051467113142
100
AcDbArc
 50
273.9266188652284
 51
86.07338113479838
  0
ARC
  5
257
330
1F
100
AcDbEntity
  8
LAY-10
  6
CONTINUOUS
 62
     7
100
AcDbCircle
 10
422.0594853287608
 20
629.9999999999931
 30
0.0
 40
3.940514671131423
100
AcDbArc
 50
273.9266188652295
 51
86.07338113479564
  0
LINE
  5
258
330
1F
100
AcDbEntity
  8
LAY-10
  6
CONTINUOUS
 62
     7
100
AcDbLine
 10
422.3293270223441
 20
633.9312645972705
 30
0.0
 11
373.6036196026184
 21
637.275793332454
 31
0.0
  0
LINE
  5
259
330
1F
100
AcDbEntity
  8
LAY-10
  6
CONTINUOUS
 62
     7
100
AcDbLine
 10
373.6036196026226
 20
622.7242066675163
 30
0.0
 11
422.3293270223456
 21
626.0687354027158
 31
0.0
  0
ARC
  5
25A
330
1F
100
AcDbEntity
  8
LAY-10
  6
CONTINUOUS
 62
     7
100
AcDbCircle
 10
423.5226478848997
 20
618.8861769965997
 30
0.0
 40
2.94051467113142
100
AcDbArc
 50
288.9266188652325
 51
101.0733811347971
  0
LINE
  5
25B
330
1F
100
AcDbEntity
  8
LAY-10
  6
CONTINUOUS
 62
     7
100
AcDbLine
 10
375.0268279122593
 20
612.3913707850496
 30
0.0
 11
422.9578748467355
 21
621.7719451692881
 31
0.0
  0
LINE
  5
25C
330
1F
100
AcDbEntity
  8
LAY-10
  6
CONTINUOUS
 62
     7
100
AcDbLine
 10
378.2766327054692
 20
600.2629341821246
 30
0.0
 11
424.4764241728221
 21
616.104641930537
 31
0.0
  0
ARC
  5
25D
330
1F
100
AcDbEntity
  8
LAY-10
  6
CONTINUOUS
 62
     7
100
AcDbCircle
 10
423.5226478848997
 20
618.8861769965997
 30
0.0
 40
3.940514671131423
100
AcDbArc
 50
288.9266188652309
 51
101.0733811347946
  0
LINE
  5
25E
330
1F
100
AcDbEntity
  8
LAY-10
  6
CONTINUOUS
 62
     7
100
AcDbLine
 10
422.7658087966291
 20
622.7533271705477
 30
0.0
 11
374.8347618621526
 21
613.3727527863093
 31
0.0
  0
LINE
  5
25F
330
1F
100
AcDbEntity
  8
LAY-10
  6
CONTINUOUS
 62
     7
100
AcDbLine
 10
378.6009896275025
 20
599.3169994131638
 30
0.0
 11
424.8007810948555
 21
615.1587071615763
 31
0.0
  0
ARC
  5
260
330
1F
100
AcDbEntity
  8
LAY-10
  6
CONTINUOUS
 62
     7
100
AcDbCircle
 10
427.8124234431103
 20
608.5297426644263
 30
0.0
 40
2.94051467113142
100
AcDbArc
 50
303.9266188652308
 51
116.0733811347966
  0
LINE
  5
261
330
1F
100
AcDbEntity
  8
LAY-10
  6
CONTINUOUS
 62
     7
100
AcDbLine
 10
382.6500380062707
 20
589.7045997911648
 30
0.0
 11
426.5200028167131
 21
611.1710066526718
 31
0.0
  0
LINE
  5
262
330
1F
100
AcDbEntity
  8
LAY-10
  6
CONTINUOUS
 62
     7
100
AcDbLine
 10
388.928178766586
 20
578.8305410172379
 30
0.0
 11
429.4536148418341
 21
606.0898415754691
 31
0.0
  0
ARC
  5
263
330
1F
100
AcDbEntity
  8
LAY-10
  6
CONTINUOUS
 62
     7
100
AcDbCircle
 10
427.8124234431103
 20
608.5297426644263
 30
0.0
 40
3.940514671131423
100
AcDbArc
 50
303.9266188652299
 51
116.0733811347962
  0
LINE
  5
264
330
1F
100
AcDbEntity
  8
LAY-10
  6
CONTINUOUS
 62
     7
100
AcDbLine
 10
426.0804809061152
 20
612.0692385214586
 30
0.0
 11
382.2105160956729
 21
590.6028316599516
 31
0.0
  0
LINE
  5
265
330
1F
100
AcDbEntity
  8
LAY-10
  6
CONTINUOUS
 62
     7
100
AcDbLine
 10
389.4863094281454
 20
578.0007879427469
 30
0.0
 11
430.0117455033935
 21
605.2600885009782
 31
0.0
  0
ARC
  5
266
330
1F
100
AcDbEntity
  8
LAY-10
  6
CONTINUOUS
 62
     7
100
AcDbCircle
 10
434.6364708882897
 20
599.6364708883932
 30
0.0
 40
2.94051467113142
100
AcDbArc
 50
318.9266188652319
 51
131.0733811347949
  0
LINE
  5
267
330
1F
100
AcDbEntity
  8
LAY-10
  6
CONTINUOUS
 62
     7
100
AcDbLine
 10
395.8852619204009
 20
569.7638937302136
 30
0.0
 11
432.7044790035223
 21
601.853232916292
 31
0.0
  0
LINE
  5
268
330
1F
100
AcDbEntity
  8
LAY-10
  6
CONTINUOUS
 62
     7
100
AcDbLine
 10
404.7638937301239
 20
560.8852619204963
 30
0.0
 11
436.8532329161889
 21
597.7044790036268
 31
0.0
  0
ARC
  5
269
330
1F
100
AcDbEntity
  8
LAY-10
  6
CONTINUOUS
 62
     7
100
AcDbCircle
 10
434.6364708882897
 20
599.6364708883932
 30
0.0
 40
3.940514671131423
100
AcDbArc
 50
318.9266188652306
 51
131.073381134797
  0
LINE
  5
26A
330
1F
100
AcDbEntity
  8
LAY-10
  6
CONTINUOUS
 62
     7
100
AcDbLine
 10
432.0474539242957
 20
602.6071016351465
 30
0.0
 11
395.2282368411741
 21
570.5177624490682
 31
0.0
  0
LINE
  5
26B
330
1F
100
AcDbEntity
  8
LAY-10
  6
CONTINUOUS
 62
     7
100
AcDbLine
 10
405.5177624489786
 20
560.2282368412702
 30
0.0
 11
437.6071016350434
 21
597.0474539244005
 31
0.0
  0
ARC
  5
26C
330
1F
100
AcDbEntity
  8
LAY-10
  6
CONTINUOUS
 62
     7
100
AcDbCircle
 10
443.5297426643201
 20
592.8124234432111
 30
0.0
 40
2.94051467113142
100
AcDbArc
 50
333.9266188652327
 51
146.0733811347974
  0
LINE
  5
26D
330
1F
100
AcDbEntity
  8
LAY-10
  6
CONTINUOUS
 62
     7
100
AcDbLine
 10
413.8305410171432
 20
553.9281787666753
 30
0.0
 11
441.0898415753622
 21
594.453614841934
 31
0.0
  0
LINE
  5
26E
330
1F
100
AcDbEntity
  8
LAY-10
  6
CONTINUOUS
 62
     7
100
AcDbLine
 10
424.7045997910741
 20
547.6500380063671
 30
0.0
 11
446.1710066525659
 21
591.5200028168149
 31
0.0
  0
ARC
  5
26F
330
1F
100
AcDbEntity
  8
LAY-10
  6
CONTINUOUS
 62
     7
100
AcDbCircle
 10
443.5297426643201
 20
592.8124234432111
 30
0.0
 40
3.940514671131423
100
AcDbArc
 50
333.9266188652335
 51
146.0733811347919
  0
LINE
  5
270
330
1F
100
AcDbEntity
  8
LAY-10
  6
CONTINUOUS
 62
     7
100
AcDbLine
 10
440.2600885008713
 20
595.0117455034933
 30
0.0
 11
413.0007879426524
 21
554.4863094282346
 31
0.0
  0
LINE
  5
271
330
1F
100
AcDbEntity
  8
LAY-10
  6
CONTINUOUS
 62
     7
100
AcDbLine
 10
425.6028316598614
 20
547.2105160957692
 30
0.0
 11
447.0692385213529
 21
591.0804809062171
 31
0.0
  0
ARC
  5
272
330
1F
100
AcDbEntity
  8
LAY-10
  6
CONTINUOUS
 62
     7
100
AcDbCircle
 10
453.8861769964921
 20
588.5226478849968
 30
0.0
 40
2.94051467113142
100
AcDbArc
 50
348.926618865235
 51
161.0733811347924
  0
LINE
  5
273
330
1F
100
AcDbEntity
  8
LAY-10
  6
CONTINUOUS
 62
     7
100
AcDbLine
 10
435.2629341820312
 20
543.2766327055582
 30
0.0
 11
451.104641930429
 21
589.4764241729183
 31
0.0
  0
LINE
  5
274
330
1F
100
AcDbEntity
  8
LAY-10
  6
CONTINUOUS
 62
     7
100
AcDbLine
 10
447.3913707849584
 20
540.0268279123559
 30
0.0
 11
456.7719451691809
 21
587.9578748468339
 31
0.0
  0
ARC
  5
275
330
1F
100
AcDbEntity
  8
LAY-10
  6
CONTINUOUS
 62
     7
100
AcDbCircle
 10
453.8861769964921
 20
588.5226478849968
 30
0.0
 40
3.940514671131423
100
AcDbArc
 50
348.9266188652341
 51
161.0733811347919
  0
LINE
  5
276
330
1F
100
AcDbEntity
  8
LAY-10
  6
CONTINUOUS
 62
     7
100
AcDbLine
 10
450.1587071614683
 20
589.8007810949514
 30
0.0
 11
434.3169994130702
 21
543.6009896275914
 31
0.0
  0
LINE
  5
277
330
1F
100
AcDbEntity
  8
LAY-10
  6
CONTINUOUS
 62
     7
100
AcDbLine
 10
448.372752786218
 20
539.8347618622499
 30
0.0
 11
457.7533271704406
 21
587.7658087967275
 31
0.0
  0
ARC
  5
278
330
1F
100
AcDbEntity
  8
LAY-10
  6
CONTINUOUS
 62
     7
100
AcDbCircle
 10
464.9999999998847
 20
587.0594853288542
 30
0.0
 40
2.94051467113142
100
AcDbArc
 50
3.926618865229542
 51
176.0733811347972
  0
LINE
  5
279
330
1F
100
AcDbEntity
  8
LAY-10
  6
CONTINUOUS
 62
     7
100
AcDbLine
 10
458.721859239581
 20
538.5351408084157
 30
0.0
 11
462.0663879747646
 21
587.2608482281419
 31
0.0
  0
LINE
  5
27A
330
1F
100
AcDbEntity
  8
LAY-10
  6
CONTINUOUS
 62
     7
100
AcDbLine
 10
471.2781407602045
 20
538.5351408084198
 30
0.0
 11
467.9336120250048
 21
587.2608482281428
 31
0.0
  0
ARC
  5
27B
330
1F
100
AcDbEntity
  8
LAY-10
  6
CONTINUOUS
 62
     7
100
AcDbCircle
 10
464.9999999998847
 20
587.0594853288542
 30
0.0
 40
3.940514671131423
100
AcDbArc
 50
3.926618865230344
 51
176.0733811347972
  0
LINE
  5
27C
330
1F
100
AcDbEntity
  8
LAY-10
  6
CONTINUOUS
 62
     7
100
AcDbLine
 10
461.0687354026076
 20
587.3293270224375
 30
0.0
 11
457.7242066674239
 21
538.6036196027118
 31
0.0
  0
LINE
  5
27D
330
1F
100
AcDbEntity
  8
LAY-10
  6
CONTINUOUS
 62
     7
100
AcDbLine
 10
472.2757933323616
 20
538.6036196027158
 30
0.0
 11
468.9312645971621
 21
587.3293270224389
 31
0.0
  0
ARC
  5
27E
330
1F
100
AcDbEntity
  8
LAY-10
  6
CONTINUOUS
 62
     7
100
AcDbCircle
 10
476.1138230032781
 20
588.5226478849933
 30
0.0
 40
2.94051467113142
100
AcDbArc
 50
18.92661886522671
 51
191.073381134796
  0
LINE
  5
27F
330
1F
100
AcDbEntity
  8
LAY-10
  6
CONTINUOUS
 62
     7
100
AcDbLine
 10
482.6086292148282
 20
540.0268279123525
 30
0.0
 11
473.2280548305895
 21
587.9578748468288
 31
0.0
  0
LINE
  5
280
330
1F
100
AcDbEntity
  8
LAY-10
  6
CONTINUOUS
 62
     7
100
AcDbLine
 10
494.7370658177534
 20
543.2766327055626
 30
0.0
 11
478.8953580693406
 21
589.4764241729156
 31
0.0
  0
ARC
  5
281
330
1F
100
AcDbEntity
  8
LAY-10
  6
CONTINUOUS
 62
     7
100
AcDbCircle
 10
476.1138230032781
 20
588.5226478849933
 30
0.0
 40
3.940514671131423
100
AcDbArc
 50
18.92661886522688
 51
191.0733811347964
  0
LINE
  5
282
330
1F
100
AcDbEntity
  8
LAY-10
  6
CONTINUOUS
 62
     7
100
AcDbLine
 10
472.24667282933
 20
587.7658087967225
 30
0.0
 11
481.6272472135685
 21
539.8347618622461
 31
0.0
  0
LINE
  5
283
330
1F
100
AcDbEntity
  8
LAY-10
  6
CONTINUOUS
 62
     7
100
AcDbLine
 10
495.6830005867141
 20
543.6009896275957
 30
0.0
 11
479.8412928383016
 21
589.8007810949489
 31
0.0
  0
ARC
  5
284
330
1F
100
AcDbEntity
  8
LAY-10
  6
CONTINUOUS
 62
     7
100
AcDbCircle
 10
486.4702573354517
 20
592.8124234432036
 30
0.0
 40
2.94051467113142
100
AcDbArc
 50
33.92661886523064
 51
206.0733811347932
  0
LINE
  5
285
330
1F
100
AcDbEntity
  8
LAY-10
  6
CONTINUOUS
 62
     7
100
AcDbLine
 10
505.2954002087131
 20
547.6500380063641
 30
0.0
 11
483.8289933472063
 21
591.5200028168065
 31
0.0
  0
LINE
  5
286
330
1F
100
AcDbEntity
  8
LAY-10
  6
CONTINUOUS
 62
     7
100
AcDbLine
 10
516.1694589826401
 20
553.9281787666794
 30
0.0
 11
488.9101584244085
 21
594.4536148419276
 31
0.0
  0
ARC
  5
287
330
1F
100
AcDbEntity
  8
LAY-10
  6
CONTINUOUS
 62
     7
100
AcDbCircle
 10
486.4702573354517
 20
592.8124234432036
 30
0.0
 40
3.940514671131423
100
AcDbArc
 50
33.92661886523362
 51
206.0733811347932
  0
LINE
  5
288
330
1F
100
AcDbEntity
  8
LAY-10
  6
CONTINUOUS
 62
     7
100
AcDbLine
 10
482.9307614784192
 20
591.0804809062085
 30
0.0
 11
504.3971683399265
 21
547.210516095766
 31
0.0
  0
LINE
  5
289
330
1F
100
AcDbEntity
  8
LAY-10
  6
CONTINUOUS
 62
     7
100
AcDbLine
 10
516.999212057131
 20
554.4863094282387
 30
0.0
 11
489.7399114988996
 21
595.0117455034867
 31
0.0
  0
ARC
  5
28A
330
1F
100
AcDbEntity
  8
LAY-10
  6
CONTINUOUS
 62
     7
100
AcDbCircle
 10
495.3635291114845
 20
599.636470888383
 30
0.0
 40
2.94051467113142
100
AcDbArc
 50
48.92661886523113
 51
221.0733811348011
  0
LINE
  5
28B
330
1F
100
AcDbEntity
  8
LAY-10
  6
CONTINUOUS
 62
     7
100
AcDbLine
 10
534.1147380793814
 20
569.7638937302174
 30
0.0
 11
497.2955209962509
 21
601.8532329162822
 31
0.0
  0
ARC
  5
28C
330
1F
100
AcDbEntity
  8
LAY-10
  6
CONTINUOUS
 62
     7
100
AcDbCircle
 10
495.3635291114845
 20
599.636470888383
 30
0.0
 40
3.940514671131423
100
AcDbArc
 50
48.92661886523228
 51
221.0733811347983
  0
LINE
  5
28D
330
1F
100
AcDbEntity
  8
LAY-10
  6
CONTINUOUS
 62
     7
100
AcDbLine
 10
534.7717631586079
 20
570.517762449072
 30
0.0
 11
497.9525460754771
 21
602.607101635137
 31
0.0
  0
ARC
  5
28E
330
1F
100
AcDbEntity
  8
LAY-10
  6
CONTINUOUS
 62
     7
100
AcDbCircle
 10
502.1875765566668
 20
608.5297426644133
 30
0.0
 40
2.94051467113142
100
AcDbArc
 50
63.92661886523322
 51
236.0733811347959
  0
LINE
  5
28F
330
1F
100
AcDbEntity
  8
LAY-10
  6
CONTINUOUS
 62
     7
100
AcDbLine
 10
541.0718212332026
 20
578.830541017237
 30
0.0
 11
500.5463851579439
 21
606.0898415754557
 31
0.0
  0
LINE
  5
290
330
1F
100
AcDbEntity
  8
LAY-10
  6
CONTINUOUS
 62
     7
100
AcDbLine
 10
547.3499619935109
 20
589.7045997911677
 30
0.0
 11
503.479997183063
 21
611.1710066526596
 31
0.0
  0
ARC
  5
291
330
1F
100
AcDbEntity
  8
LAY-10
  6
CONTINUOUS
 62
     7
100
AcDbCircle
 10
502.1875765566668
 20
608.5297426644133
 30
0.0
 40
3.940514671131423
100
AcDbArc
 50
63.92661886523163
 51
236.0733811347942
  0
LINE
  5
292
330
1F
100
AcDbEntity
  8
LAY-10
  6
CONTINUOUS
 62
     7
100
AcDbLine
 10
499.9882544963847
 20
605.2600885009646
 30
0.0
 11
540.5136905716436
 21
578.0007879427457
 31
0.0
  0
LINE
  5
293
330
1F
100
AcDbEntity
  8
LAY-10
  6
CONTINUOUS
 62
     7
100
AcDbLine
 10
547.7894839041085
 20
590.6028316599547
 30
0.0
 11
503.9195190936608
 21
612.0692385214463
 31
0.0
  0
ARC
  5
294
330
1F
100
AcDbEntity
  8
LAY-10
  6
CONTINUOUS
 62
     7
100
AcDbCircle
 10
464.9999999997844
 20
630.0000000000148
 30
0.0
 40
91.6800715440378
100
AcDbArc
 50
198.9266188652588
 51
206.0733811348271
  0
ARC
  5
295
330
1F
100
AcDbEntity
  8
LAY-10
  6
CONTINUOUS
 62
     7
100
AcDbCircle
 10
464.9999999997844
 20
630.0000000000148
 30
0.0
 40
91.6800715440378
100
AcDbArc
 50
213.9266188652725
 51
221.073381134839
  0
ARC
  5
296
330
1F
100
AcDbEntity
  8
LAY-10
  6
CONTINUOUS
 62
     7
100
AcDbCircle
 10
464.9999999997844
 20
630.0000000000148
 30
0.0
 40
91.6800715440378
100
AcDbArc
 50
228.9266188652829
 51
236.0733811348474
  0
ARC
  5
297
330
1F
100
AcDbEntity
  8
LAY-10
  6
CONTINUOUS
 62
     7
100
AcDbCircle
 10
464.9999999997844
 20
630.0000000000148
 30
0.0
 40
91.6800715440378
100
AcDbArc
 50
243.9266188652886
 51
251.0733811348507
  0
ARC
  5
298
330
1F
100
AcDbEntity
  8
LAY-10
  6
CONTINUOUS
 62
     7
100
AcDbCircle
 10
464.9999999997844
 20
630.0000000000148
 30
0.0
 40
91.6800715440378
100
AcDbArc
 50
258.9266188652895
 51
266.0733811348496
  0
ARC
  5
299
330
1F
100
AcDbEntity
  8
LAY-10
  6
CONTINUOUS
 62
     7
100
AcDbCircle
 10
464.9999999997844
 20
630.0000000000148
 30
0.0
 40
91.6800715440378
100
AcDbArc
 50
273.9266188652859
 51
281.0733811348439
  0
ARC
  5
29A
330
1F
100
AcDbEntity
  8
LAY-10
  6
CONTINUOUS
 62
     7
100
AcDbCircle
 10
464.9999999997844
 20
630.0000000000148
 30
0.0
 40
91.6800715440378
100
AcDbArc
 50
288.9266188652778
 51
296.0733811348336
  0
ARC
  5
29B
330
1F
100
AcDbEntity
  8
LAY-10
  6
CONTINUOUS
 62
     7
100
AcDbCircle
 10
464.9999999997844
 20
630.0000000000148
 30
0.0
 40
91.6800715440378
100
AcDbArc
 50
303.9266188652655
 51
311.0733811348205
  0
ARC
  5
29C
330
1F
100
AcDbEntity
  8
LAY-10
  6
CONTINUOUS
 62
     7
100
AcDbCircle
 10
464.9999999997844
 20
630.0000000000148
 30
0.0
 40
91.6800715440378
100
AcDbArc
 50
318.9266188652504
 51
326.0733811348036
  0
ARC
  5
29D
330
1F
100
AcDbEntity
  8
LAY-10
  6
CONTINUOUS
 62
     7
100
AcDbCircle
 10
464.9999999997844
 20
630.0000000000148
 30
0.0
 40
91.6800715440378
100
AcDbArc
 50
333.9266188652331
 51
341.0733811347859
  0
ARC
  5
29E
330
1F
100
AcDbEntity
  8
LAY-10
  6
CONTINUOUS
 62
     7
100
AcDbCircle
 10
464.9999999997844
 20
630.0000000000148
 30
0.0
 40
87.61836509649484
100
AcDbArc
 50
326.0733811348041
 51
333.9266188652335
  0
ARC
  5
29F
330
1F
100
AcDbEntity
  8
LAY-10
  6
CONTINUOUS
 62
     7
100
AcDbCircle
 10
464.9999999997844
 20
630.0000000000148
 30
0.0
 40
87.61836509649484
100
AcDbArc
 50
311.0733811348211
 51
318.9266188652517
  0
ARC
  5
2A0
330
1F
100
AcDbEntity
  8
LAY-10
  6
CONTINUOUS
 62
     7
100
AcDbCircle
 10
464.9999999997844
 20
630.0000000000148
 30
0.0
 40
87.61836509649484
100
AcDbArc
 50
296.0733811348356
 51
303.9266188652678
  0
ARC
  5
2A1
330
1F
100
AcDbEntity
  8
LAY-10
  6
CONTINUOUS
 62
     7
100
AcDbCircle
 10
464.9999999997844
 20
630.0000000000148
 30
0.0
 40
87.61836509649484
100
AcDbArc
 50
281.0733811348463
 51
288.9266188652801
  0
ARC
  5
2A2
330
1F
100
AcDbEntity
  8
LAY-10
  6
CONTINUOUS
 62
     7
100
AcDbCircle
 10
464.9999999997844
 20
630.0000000000148
 30
0.0
 40
87.61836509649484
100
AcDbArc
 50
266.0733811348524
 51
273.9266188652887
  0
ARC
  5
2A3
330
1F
100
AcDbEntity
  8
LAY-10
  6
CONTINUOUS
 62
     7
100
AcDbCircle
 10
464.9999999997844
 20
630.0000000000148
 30
0.0
 40
87.61836509649484
100
AcDbArc
 50
251.0733811348535
 51
258.9266188652925
  0
ARC
  5
2A4
330
1F
100
AcDbEntity
  8
LAY-10
  6
CONTINUOUS
 62
     7
100
AcDbCircle
 10
464.9999999997844
 20
630.0000000000148
 30
0.0
 40
87.61836509649484
100
AcDbArc
 50
236.0733811348497
 51
243.9266188652914
  0
ARC
  5
2A5
330
1F
100
AcDbEntity
  8
LAY-10
  6
CONTINUOUS
 62
     7
100
AcDbCircle
 10
464.9999999997844
 20
630.0000000000148
 30
0.0
 40
87.61836509649484
100
AcDbArc
 50
221.0733811348411
 51
228.9266188652856
  0
ARC
  5
2A6
330
1F
100
AcDbEntity
  8
LAY-10
  6
CONTINUOUS
 62
     7
100
AcDbCircle
 10
464.9999999997844
 20
630.0000000000148
 30
0.0
 40
87.61836509649484
100
AcDbArc
 50
206.0733811348285
 51
213.9266188652747
  0
ARC
  5
2A7
330
1F
100
AcDbEntity
  8
LAY-10
  6
CONTINUOUS
 62
     7
100
AcDbCircle
 10
464.9999999997844
 20
630.0000000000148
 30
0.0
 40
87.61836509649484
100
AcDbArc
 50
191.0733811348127
 51
198.9266188652606
  0
ARC
  5
2A8
330
1F
100
AcDbEntity
  8
LAY-10
  6
CONTINUOUS
 62
     7
100
AcDbCircle
 10
464.9999999997844
 20
630.0000000000148
 30
0.0
 40
87.61836509649484
100
AcDbArc
 50
176.0733811347947
 51
183.9266188652434
  0
LINE
  5
2A9
330
1F
100
AcDbEntity
  8
LAY-10
  6
CONTINUOUS
 62
     7
100
AcDbLine
 10
454.9999999998923
 20
521.9618123069197
 30
0.0
 11
454.9999999998925
 21
538.8669350986188
 31
0.0
  0
LINE
  5
2AA
330
1F
100
AcDbEntity
  8
LAY-10
  6
CONTINUOUS
 62
     7
100
AcDbLine
 10
474.9999999998925
 20
521.9618123069395
 30
0.0
 11
474.9999999998925
 21
538.8669350986424
 31
0.0
  0
LINE
  5
2AB
330
1F
100
AcDbEntity
  8
LAY-10
  6
CONTINUOUS
 62
     7
100
AcDbLine
 10
492.3928983647316
 20
597.0474539243892
 30
0.0
 11
524.4786541949286
 21
560.2323483736747
 31
0.0
  0
LINE
  5
2AC
330
1F
100
AcDbEntity
  8
LAY-10
  6
CONTINUOUS
 62
     7
100
AcDbLine
 10
525.2361062695006
 20
560.8852619206198
 30
0.0
 11
493.146767083586
 21
597.7044790036157
 31
0.0
  0
LINE
  5
2AD
330
1F
100
AcDbEntity
  8
LAY-10
  6
CONTINUOUS
 62
     7
100
AcDbLine
 10
556.4648591914585
 20
623.7218592396734
 30
0.0
 11
507.7391517717355
 21
627.0663879748729
 31
0.0
  0
LINE
  5
2AE
330
1F
100
AcDbEntity
  8
LAY-10
  6
CONTINUOUS
 62
     7
100
AcDbLine
 10
556.4648591914626
 20
636.2781407602968
 30
0.0
 11
507.7391517717364
 21
632.9336120251132
 31
0.0
  0
ARC
  5
2AF
330
1F
100
AcDbEntity
  8
LAY-10
  6
CONTINUOUS
 62
     7
100
AcDbCircle
 10
465.0000000000003
 20
630.0000000000148
 30
0.0
 40
91.6800715440378
100
AcDbArc
 50
348.9266188651886
 51
356.0733811347578
  0
ARC
  5
2B0
330
1F
100
AcDbEntity
  8
LAY-10
  6
CONTINUOUS
 62
     7
100
AcDbCircle
 10
507.9405146710243
 20
629.999999999993
 30
0.0
 40
2.94051467113142
100
AcDbArc
 50
93.92661886520624
 51
266.0733811347673
  0
ARC
  5
2B1
330
1F
100
AcDbEntity
  8
LAY-10
  6
CONTINUOUS
 62
     7
100
AcDbCircle
 10
507.9405146710243
 20
629.999999999993
 30
0.0
 40
3.940514671131423
100
AcDbArc
 50
93.92661886520287
 51
266.0733811347673
  0
LINE
  5
2B2
330
1F
100
AcDbEntity
  8
LAY-10
  6
CONTINUOUS
 62
     7
100
AcDbLine
 10
507.6706729774406
 20
633.9312645972705
 30
0.0
 11
556.3963803971667
 21
637.2757933324538
 31
0.0
  0
LINE
  5
2B3
330
1F
100
AcDbEntity
  8
LAY-10
  6
CONTINUOUS
 62
     7
100
AcDbLine
 10
556.3963803971623
 20
622.7242066675163
 30
0.0
 11
507.6706729774392
 21
626.0687354027158
 31
0.0
  0
ARC
  5
2B4
330
1F
100
AcDbEntity
  8
LAY-10
  6
CONTINUOUS
 62
     7
100
AcDbCircle
 10
506.4773521148852
 20
618.8861769965998
 30
0.0
 40
2.94051467113142
100
AcDbArc
 50
78.92661886520095
 51
251.0733811347701
  0
LINE
  5
2B5
330
1F
100
AcDbEntity
  8
LAY-10
  6
CONTINUOUS
 62
     7
100
AcDbLine
 10
554.9731720875259
 20
612.3913707850497
 30
0.0
 11
507.0421251530495
 21
621.7719451692882
 31
0.0
  0
LINE
  5
2B6
330
1F
100
AcDbEntity
  8
LAY-10
  6
CONTINUOUS
 62
     7
100
AcDbLine
 10
551.7233672943157
 20
600.2629341821246
 30
0.0
 11
505.5235758269627
 21
616.104641930537
 31
0.0
  0
ARC
  5
2B7
330
1F
100
AcDbEntity
  8
LAY-10
  6
CONTINUOUS
 62
     7
100
AcDbCircle
 10
506.4773521148852
 20
618.8861769965998
 30
0.0
 40
3.940514671131423
100
AcDbArc
 50
78.92661886520884
 51
251.0733811347708
  0
LINE
  5
2B8
330
1F
100
AcDbEntity
  8
LAY-10
  6
CONTINUOUS
 62
     7
100
AcDbLine
 10
507.2341912031559
 20
622.7533271705477
 30
0.0
 11
555.1652381376322
 21
613.3727527863094
 31
0.0
  0
LINE
  5
2B9
330
1F
100
AcDbEntity
  8
LAY-10
  6
CONTINUOUS
 62
     7
100
AcDbLine
 10
551.3990103722826
 20
599.3169994131636
 30
0.0
 11
505.1992189049296
 21
615.1587071615762
 31
0.0
  0
ARC
  5
2BA
330
1F
100
AcDbEntity
  8
LAY-10
  6
CONTINUOUS
 62
     7
100
AcDbCircle
 10
465.0000000000003
 20
630.0000000000148
 30
0.0
 40
87.61836509649484
100
AcDbArc
 50
341.0733811347397
 51
348.9266188651877
  0
ARC
  5
2BB
330
1F
100
AcDbEntity
  8
LAY-10
  6
CONTINUOUS
 62
     7
100
AcDbCircle
 10
465.0000000000003
 20
630.0000000000148
 30
0.0
 40
87.61836509649484
100
AcDbArc
 50
356.0733811347567
 51
3.926618865205421
  0
ARC
  5
2BC
330
1F
100
AcDbEntity
  8
LAY-10
  6
CONTINUOUS
 62
     7
100
AcDbCircle
 10
464.9999999997844
 20
731.5000000000457
 30
0.0
 40
4.0
100
AcDbArc
 50
180.0
 51
0.0000000000000573
  0
ARC
  5
2BD
330
1F
100
AcDbEntity
  8
LAY-10
  6
CONTINUOUS
 62
     7
100
AcDbCircle
 10
423.5226478848998
 20
641.1138230034297
 30
0.0
 40
2.94051467113142
100
AcDbArc
 50
258.9266188652033
 51
71.07338113476776
  0
LINE
  5
2BE
330
1F
100
AcDbEntity
  8
LAY-10
  6
CONTINUOUS
 62
     7
100
AcDbLine
 10
375.0268279122594
 20
647.6086292149798
 30
0.0
 11
422.9578748467354
 21
638.2280548307414
 31
0.0
  0
LINE
  5
2BF
330
1F
100
AcDbEntity
  8
LAY-10
  6
CONTINUOUS
 62
     7
100
AcDbLine
 10
378.2766327054692
 20
659.737065817905
 30
0.0
 11
424.4764241728222
 21
643.8953580694925
 31
0.0
  0
ARC
  5
2C0
330
1F
100
AcDbEntity
  8
LAY-10
  6
CONTINUOUS
 62
     7
100
AcDbCircle
 10
423.5226478848998
 20
641.1138230034297
 30
0.0
 40
3.940514671131423
100
AcDbArc
 50
258.9266188652056
 51
71.07338113476891
  0
LINE
  5
2C1
330
1F
100
AcDbEntity
  8
LAY-10
  6
CONTINUOUS
 62
     7
100
AcDbLine
 10
422.765808796629
 20
637.2466728294819
 30
0.0
 11
374.8347618621526
 21
646.6272472137202
 31
0.0
  0
LINE
  5
2C2
330
1F
100
AcDbEntity
  8
LAY-10
  6
CONTINUOUS
 62
     7
100
AcDbLine
 10
378.6009896275026
 20
660.683000586866
 30
0.0
 11
424.8007810948556
 21
644.8412928384533
 31
0.0
  0
ARC
  5
2C3
330
1F
100
AcDbEntity
  8
LAY-10
  6
CONTINUOUS
 62
     7
100
AcDbCircle
 10
427.8124234431104
 20
651.4702573356033
 30
0.0
 40
2.94051467113142
100
AcDbArc
 50
243.926618865204
 51
56.07338113476955
  0
LINE
  5
2C4
330
1F
100
AcDbEntity
  8
LAY-10
  6
CONTINUOUS
 62
     7
100
AcDbLine
 10
382.6500380062707
 20
670.2954002088647
 30
0.0
 11
426.5200028167131
 21
648.8289933473577
 31
0.0
  0
LINE
  5
2C5
330
1F
100
AcDbEntity
  8
LAY-10
  6
CONTINUOUS
 62
     7
100
AcDbLine
 10
388.9281787665861
 20
681.1694589827919
 30
0.0
 11
429.453614841834
 21
653.9101584245603
 31
0.0
  0
ARC
  5
2C6
330
1F
100
AcDbEntity
  8
LAY-10
  6
CONTINUOUS
 62
     7
100
AcDbCircle
 10
427.8124234431104
 20
651.4702573356033
 30
0.0
 40
3.940514671131423
100
AcDbArc
 50
243.9266188652064
 51
56.07338113477047
  0
LINE
  5
2C7
330
1F
100
AcDbEntity
  8
LAY-10
  6
CONTINUOUS
 62
     7
100
AcDbLine
 10
426.0804809061152
 20
647.930761478571
 30
0.0
 11
382.2105160956729
 21
669.397168340078
 31
0.0
  0
LINE
  5
2C8
330
1F
100
AcDbEntity
  8
LAY-10
  6
CONTINUOUS
 62
     7
100
AcDbLine
 10
389.4863094281454
 20
681.9992120572826
 30
0.0
 11
430.0117455033935
 21
654.7399114990515
 31
0.0
  0
ARC
  5
2C9
330
1F
100
AcDbEntity
  8
LAY-10
  6
CONTINUOUS
 62
     7
100
AcDbCircle
 10
434.6364708882896
 20
660.3635291116364
 30
0.0
 40
2.94051467113142
100
AcDbArc
 50
228.9266188652053
 51
41.07338113476969
  0
LINE
  5
2CA
330
1F
100
AcDbEntity
  8
LAY-10
  6
CONTINUOUS
 62
     7
100
AcDbLine
 10
395.885261920401
 20
690.2361062698159
 30
0.0
 11
432.7044790035223
 21
658.1467670837376
 31
0.0
  0
LINE
  5
2CB
330
1F
100
AcDbEntity
  8
LAY-10
  6
CONTINUOUS
 62
     7
100
AcDbLine
 10
404.7638937301238
 20
699.114738079533
 30
0.0
 11
436.8532329161887
 21
662.2955209964026
 31
0.0
  0
ARC
  5
2CC
330
1F
100
AcDbEntity
  8
LAY-10
  6
CONTINUOUS
 62
     7
100
AcDbCircle
 10
434.6364708882896
 20
660.3635291116364
 30
0.0
 40
3.940514671131423
100
AcDbArc
 50
228.9266188652031
 51
41.07338113477091
  0
LINE
  5
2CD
330
1F
100
AcDbEntity
  8
LAY-10
  6
CONTINUOUS
 62
     7
100
AcDbLine
 10
432.0474539242957
 20
657.392898364883
 30
0.0
 11
395.2282368411743
 21
689.4822375509615
 31
0.0
  0
LINE
  5
2CE
330
1F
100
AcDbEntity
  8
LAY-10
  6
CONTINUOUS
 62
     7
100
AcDbLine
 10
405.5177624489786
 20
699.7717631587593
 30
0.0
 11
437.6071016350435
 21
662.9525460756288
 31
0.0
  0
ARC
  5
2CF
330
1F
100
AcDbEntity
  8
LAY-10
  6
CONTINUOUS
 62
     7
100
AcDbCircle
 10
443.5297426643201
 20
667.1875765568184
 30
0.0
 40
2.94051467113142
100
AcDbArc
 50
213.9266188652018
 51
26.07338113476858
  0
LINE
  5
2D0
330
1F
100
AcDbEntity
  8
LAY-10
  6
CONTINUOUS
 62
     7
100
AcDbLine
 10
413.8305410171433
 20
706.0718212333543
 30
0.0
 11
441.0898415753622
 21
665.5463851580955
 31
0.0
  0
LINE
  5
2D1
330
1F
100
AcDbEntity
  8
LAY-10
  6
CONTINUOUS
 62
     7
100
AcDbLine
 10
424.7045997910743
 20
712.3499619936624
 30
0.0
 11
446.171006652566
 21
668.4799971832148
 31
0.0
  0
ARC
  5
2D2
330
1F
100
AcDbEntity
  8
LAY-10
  6
CONTINUOUS
 62
     7
100
AcDbCircle
 10
443.5297426643201
 20
667.1875765568184
 30
0.0
 40
3.940514671131423
100
AcDbArc
 50
213.9266188652066
 51
26.07338113476674
  0
LINE
  5
2D3
330
1F
100
AcDbEntity
  8
LAY-10
  6
CONTINUOUS
 62
     7
100
AcDbLine
 10
440.2600885008713
 20
664.9882544965363
 30
0.0
 11
413.0007879426523
 21
705.513690571795
 31
0.0
  0
LINE
  5
2D4
330
1F
100
AcDbEntity
  8
LAY-10
  6
CONTINUOUS
 62
     7
100
AcDbLine
 10
425.6028316598614
 20
712.7894839042601
 30
0.0
 11
447.069238521353
 21
668.9195190938124
 31
0.0
  0
ARC
  5
2D5
330
1F
100
AcDbEntity
  8
LAY-10
  6
CONTINUOUS
 62
     7
100
AcDbCircle
 10
453.8861769964921
 20
671.4773521150328
 30
0.0
 40
2.94051467113142
100
AcDbArc
 50
198.9266188652076
 51
11.07338113476551
  0
LINE
  5
2D6
330
1F
100
AcDbEntity
  8
LAY-10
  6
CONTINUOUS
 62
     7
100
AcDbLine
 10
435.2629341820311
 20
716.7233672944712
 30
0.0
 11
451.104641930429
 21
670.5235758271112
 31
0.0
  0
LINE
  5
2D7
330
1F
100
AcDbEntity
  8
LAY-10
  6
CONTINUOUS
 62
     7
100
AcDbLine
 10
447.3913707849584
 20
719.9731720876737
 30
0.0
 11
456.7719451691809
 21
672.0421251531956
 31
0.0
  0
ARC
  5
2D8
330
1F
100
AcDbEntity
  8
LAY-10
  6
CONTINUOUS
 62
     7
100
AcDbCircle
 10
453.8861769964921
 20
671.4773521150328
 30
0.0
 40
3.940514671131423
100
AcDbArc
 50
198.9266188652074
 51
11.07338113476602
  0
LINE
  5
2D9
330
1F
100
AcDbEntity
  8
LAY-10
  6
CONTINUOUS
 62
     7
100
AcDbLine
 10
450.1587071614682
 20
670.1992189050782
 30
0.0
 11
434.3169994130702
 21
716.3990103724379
 31
0.0
  0
LINE
  5
2DA
330
1F
100
AcDbEntity
  8
LAY-10
  6
CONTINUOUS
 62
     7
100
AcDbLine
 10
448.3727527862181
 20
720.1652381377796
 30
0.0
 11
457.7533271704405
 21
672.2341912033021
 31
0.0
  0
ARC
  5
2DB
330
1F
100
AcDbEntity
  8
LAY-10
  6
CONTINUOUS
 62
     7
100
AcDbCircle
 10
464.9999999998847
 20
672.9405146711754
 30
0.0
 40
2.94051467113142
100
AcDbArc
 50
183.9266188652029
 51
356.0733811347706
  0
LINE
  5
2DC
330
1F
100
AcDbEntity
  8
LAY-10
  6
CONTINUOUS
 62
     7
100
AcDbLine
 10
458.7218592395812
 20
721.4648591916136
 30
0.0
 11
462.0663879747646
 21
672.7391517718877
 31
0.0
  0
LINE
  5
2DD
330
1F
100
AcDbEntity
  8
LAY-10
  6
CONTINUOUS
 62
     7
100
AcDbLine
 10
471.2781407602043
 20
721.4648591916095
 30
0.0
 11
467.9336120250049
 21
672.7391517718866
 31
0.0
  0
ARC
  5
2DE
330
1F
100
AcDbEntity
  8
LAY-10
  6
CONTINUOUS
 62
     7
100
AcDbCircle
 10
464.9999999998847
 20
672.9405146711754
 30
0.0
 40
3.940514671131423
100
AcDbArc
 50
183.9266188652037
 51
356.0733811347699
  0
LINE
  5
2DF
330
1F
100
AcDbEntity
  8
LAY-10
  6
CONTINUOUS
 62
     7
100
AcDbLine
 10
461.0687354026075
 20
672.6706729775922
 30
0.0
 11
457.724206667424
 21
721.3963803973181
 31
0.0
  0
LINE
  5
2E0
330
1F
100
AcDbEntity
  8
LAY-10
  6
CONTINUOUS
 62
     7
100
AcDbLine
 10
472.2757933323614
 20
721.3963803973136
 30
0.0
 11
468.9312645971622
 21
672.6706729775908
 31
0.0
  0
ARC
  5
2E1
330
1F
100
AcDbEntity
  8
LAY-10
  6
CONTINUOUS
 62
     7
100
AcDbCircle
 10
476.1138230032783
 20
671.4773521150363
 30
0.0
 40
2.94051467113142
100
AcDbArc
 50
168.9266188652041
 51
341.0733811347736
  0
LINE
  5
2E2
330
1F
100
AcDbEntity
  8
LAY-10
  6
CONTINUOUS
 62
     7
100
AcDbLine
 10
482.6086292148282
 20
719.9731720876771
 30
0.0
 11
473.2280548305897
 21
672.0421251532009
 31
0.0
  0
LINE
  5
2E3
330
1F
100
AcDbEntity
  8
LAY-10
  6
CONTINUOUS
 62
     7
100
AcDbLine
 10
494.7370658177534
 20
716.7233672944667
 30
0.0
 11
478.8953580693406
 21
670.523575827114
 31
0.0
  0
ARC
  5
2E4
330
1F
100
AcDbEntity
  8
LAY-10
  6
CONTINUOUS
 62
     7
100
AcDbCircle
 10
476.1138230032783
 20
671.4773521150363
 30
0.0
 40
3.940514671131423
100
AcDbArc
 50
168.9266188652036
 51
341.0733811347727
  0
LINE
  5
2E5
330
1F
100
AcDbEntity
  8
LAY-10
  6
CONTINUOUS
 62
     7
100
AcDbLine
 10
472.24667282933
 20
672.2341912033071
 30
0.0
 11
481.6272472135687
 21
720.1652381377835
 31
0.0
  0
LINE
  5
2E6
330
1F
100
AcDbEntity
  8
LAY-10
  6
CONTINUOUS
 62
     7
100
AcDbLine
 10
495.6830005867139
 20
716.3990103724338
 30
0.0
 11
479.8412928383017
 21
670.1992189050804
 31
0.0
  0
ARC
  5
2E7
330
1F
100
AcDbEntity
  8
LAY-10
  6
CONTINUOUS
 62
     7
100
AcDbCircle
 10
486.4702573354517
 20
667.1875765568261
 30
0.0
 40
2.94051467113142
100
AcDbArc
 50
153.9266188652059
 51
326.0733811347704
  0
LINE
  5
2E8
330
1F
100
AcDbEntity
  8
LAY-10
  6
CONTINUOUS
 62
     7
100
AcDbLine
 10
505.2954002087132
 20
712.3499619936654
 30
0.0
 11
483.8289933472063
 21
668.4799971832231
 31
0.0
  0
LINE
  5
2E9
330
1F
100
AcDbEntity
  8
LAY-10
  6
CONTINUOUS
 62
     7
100
AcDbLine
 10
516.1694589826401
 20
706.0718212333502
 30
0.0
 11
488.9101584244087
 21
665.5463851581021
 31
0.0
  0
ARC
  5
2EA
330
1F
100
AcDbEntity
  8
LAY-10
  6
CONTINUOUS
 62
     7
100
AcDbCircle
 10
486.4702573354517
 20
667.1875765568261
 30
0.0
 40
3.940514671131423
100
AcDbArc
 50
153.9266188652061
 51
326.0733811347667
  0
LINE
  5
2EB
330
1F
100
AcDbEntity
  8
LAY-10
  6
CONTINUOUS
 62
     7
100
AcDbLine
 10
482.9307614784194
 20
668.919519093821
 30
0.0
 11
504.3971683399263
 21
712.7894839042633
 31
0.0
  0
LINE
  5
2EC
330
1F
100
AcDbEntity
  8
LAY-10
  6
CONTINUOUS
 62
     7
100
AcDbLine
 10
516.999212057131
 20
705.5136905717909
 30
0.0
 11
489.7399114988997
 21
664.9882544965426
 31
0.0
  0
ARC
  5
2ED
330
1F
100
AcDbEntity
  8
LAY-10
  6
CONTINUOUS
 62
     7
100
AcDbCircle
 10
495.3635291114844
 20
660.3635291116466
 30
0.0
 40
2.94051467113142
100
AcDbArc
 50
138.9266188652012
 51
311.073381134769
  0
LINE
  5
2EE
330
1F
100
AcDbEntity
  8
LAY-10
  6
CONTINUOUS
 62
     7
100
AcDbLine
 10
534.1147380793814
 20
690.2361062698119
 30
0.0
 11
497.2955209962511
 21
658.1467670837475
 31
0.0
  0
ARC
  5
2EF
330
1F
100
AcDbEntity
  8
LAY-10
  6
CONTINUOUS
 62
     7
100
AcDbCircle
 10
495.3635291114844
 20
660.3635291116466
 30
0.0
 40
3.940514671131423
100
AcDbArc
 50
138.9266188652024
 51
311.0733811347701
  0
LINE
  5
2F0
330
1F
100
AcDbEntity
  8
LAY-10
  6
CONTINUOUS
 62
     7
100
AcDbLine
 10
534.771763158608
 20
689.4822375509575
 30
0.0
 11
497.9525460754771
 21
657.3928983648925
 31
0.0
  0
ARC
  5
2F1
330
1F
100
AcDbEntity
  8
LAY-10
  6
CONTINUOUS
 62
     7
100
AcDbCircle
 10
502.1875765566668
 20
651.4702573356162
 30
0.0
 40
2.94051467113142
100
AcDbArc
 50
123.9266188652048
 51
296.0733811347664
  0
LINE
  5
2F2
330
1F
100
AcDbEntity
  8
LAY-10
  6
CONTINUOUS
 62
     7
100
AcDbLine
 10
541.0718212332027
 20
681.1694589827925
 30
0.0
 11
500.5463851579439
 21
653.9101584245739
 31
0.0
  0
LINE
  5
2F3
330
1F
100
AcDbEntity
  8
LAY-10
  6
CONTINUOUS
 62
     7
100
AcDbLine
 10
547.3499619935108
 20
670.295400208862
 30
0.0
 11
503.479997183063
 21
648.82899334737
 31
0.0
  0
ARC
  5
2F4
330
1F
100
AcDbEntity
  8
LAY-10
  6
CONTINUOUS
 62
     7
100
AcDbCircle
 10
502.1875765566668
 20
651.4702573356162
 30
0.0
 40
3.940514671131423
100
AcDbArc
 50
123.9266188652055
 51
296.0733811347681
  0
LINE
  5
2F5
330
1F
100
AcDbEntity
  8
LAY-10
  6
CONTINUOUS
 62
     7
100
AcDbLine
 10
499.9882544963849
 20
654.7399114990651
 30
0.0
 11
540.5136905716437
 21
681.9992120572838
 31
0.0
  0
LINE
  5
2F6
330
1F
100
AcDbEntity
  8
LAY-10
  6
CONTINUOUS
 62
     7
100
AcDbLine
 10
547.7894839041085
 20
669.3971683400749
 30
0.0
 11
503.9195190936608
 21
647.9307614785832
 31
0.0
  0
ARC
  5
2F7
330
1F
100
AcDbEntity
  8
LAY-10
  6
CONTINUOUS
 62
     7
100
AcDbCircle
 10
464.9999999997844
 20
630.0000000000148
 30
0.0
 40
91.6800715440378
100
AcDbArc
 50
153.9266188651731
 51
161.0733811347414
  0
ARC
  5
2F8
330
1F
100
AcDbEntity
  8
LAY-10
  6
CONTINUOUS
 62
     7
100
AcDbCircle
 10
464.9999999997844
 20
630.0000000000148
 30
0.0
 40
91.6800715440378
100
AcDbArc
 50
138.926618865161
 51
146.0733811347276
  0
ARC
  5
2F9
330
1F
100
AcDbEntity
  8
LAY-10
  6
CONTINUOUS
 62
     7
100
AcDbCircle
 10
464.9999999997844
 20
630.0000000000148
 30
0.0
 40
91.6800715440378
100
AcDbArc
 50
123.9266188651528
 51
131.0733811347173
  0
ARC
  5
2FA
330
1F
100
AcDbEntity
  8
LAY-10
  6
CONTINUOUS
 62
     7
100
AcDbCircle
 10
464.9999999997844
 20
630.0000000000148
 30
0.0
 40
91.6800715440378
100
AcDbArc
 50
108.9266188651493
 51
116.0733811347116
  0
ARC
  5
2FB
330
1F
100
AcDbEntity
  8
LAY-10
  6
CONTINUOUS
 62
     7
100
AcDbCircle
 10
464.9999999997844
 20
630.0000000000148
 30
0.0
 40
91.6800715440378
100
AcDbArc
 50
93.92661886515045
 51
101.0733811347105
  0
ARC
  5
2FC
330
1F
100
AcDbEntity
  8
LAY-10
  6
CONTINUOUS
 62
     7
100
AcDbCircle
 10
464.9999999997844
 20
630.0000000000148
 30
0.0
 40
91.6800715440378
100
AcDbArc
 50
78.92661886515637
 51
86.07338113471462
  0
ARC
  5
2FD
330
1F
100
AcDbEntity
  8
LAY-10
  6
CONTINUOUS
 62
     7
100
AcDbCircle
 10
464.9999999997844
 20
630.0000000000148
 30
0.0
 40
91.6800715440378
100
AcDbArc
 50
63.92661886516642
 51
71.0733811347225
  0
ARC
  5
2FE
330
1F
100
AcDbEntity
  8
LAY-10
  6
CONTINUOUS
 62
     7
100
AcDbCircle
 10
464.9999999997844
 20
630.0000000000148
 30
0.0
 40
91.6800715440378
100
AcDbArc
 50
48.92661886518008
 51
56.07338113473472
  0
ARC
  5
2FF
330
1F
100
AcDbEntity
  8
LAY-10
  6
CONTINUOUS
 62
     7
100
AcDbCircle
 10
464.9999999997844
 20
630.0000000000148
 30
0.0
 40
91.6800715440378
100
AcDbArc
 50
33.9266188651965
 51
41.0733811347501
  0
ARC
  5
300
330
1F
100
AcDbEntity
  8
LAY-10
  6
CONTINUOUS
 62
     7
100
AcDbCircle
 10
464.9999999997844
 20
630.0000000000148
 30
0.0
 40
91.6800715440378
100
AcDbArc
 50
18.92661886521411
 51
26.07338113476697
  0
ARC
  5
301
330
1F
100
AcDbEntity
  8
LAY-10
  6
CONTINUOUS
 62
     7
100
AcDbCircle
 10
464.9999999997844
 20
630.0000000000148
 30
0.0
 40
87.61836509649484
100
AcDbArc
 50
26.07338113476651
 51
33.92661886519598
  0
ARC
  5
302
330
1F
100
AcDbEntity
  8
LAY-10
  6
CONTINUOUS
 62
     7
100
AcDbCircle
 10
464.9999999997844
 20
630.0000000000148
 30
0.0
 40
87.61836509649484
100
AcDbArc
 50
41.07338113474873
 51
48.92661886517917
  0
ARC
  5
303
330
1F
100
AcDbEntity
  8
LAY-10
  6
CONTINUOUS
 62
     7
100
AcDbCircle
 10
464.9999999997844
 20
630.0000000000148
 30
0.0
 40
87.61836509649484
100
AcDbArc
 50
56.07338113473283
 51
63.92661886516459
  0
ARC
  5
304
330
1F
100
AcDbEntity
  8
LAY-10
  6
CONTINUOUS
 62
     7
100
AcDbCircle
 10
464.9999999997844
 20
630.0000000000148
 30
0.0
 40
87.61836509649484
100
AcDbArc
 50
71.07338113472008
 51
78.92661886515408
  0
ARC
  5
305
330
1F
100
AcDbEntity
  8
LAY-10
  6
CONTINUOUS
 62
     7
100
AcDbCircle
 10
464.9999999997844
 20
630.0000000000148
 30
0.0
 40
87.61836509649484
100
AcDbArc
 50
86.07338113471152
 51
93.92661886514769
  0
ARC
  5
306
330
1F
100
AcDbEntity
  8
LAY-10
  6
CONTINUOUS
 62
     7
100
AcDbCircle
 10
464.9999999997844
 20
630.0000000000148
 30
0.0
 40
87.61836509649484
100
AcDbArc
 50
101.0733811347075
 51
108.9266188651467
  0
ARC
  5
307
330
1F
100
AcDbEntity
  8
LAY-10
  6
CONTINUOUS
 62
     7
100
AcDbCircle
 10
464.9999999997844
 20
630.0000000000148
 30
0.0
 40
87.61836509649484
100
AcDbArc
 50
116.0733811347087
 51
123.9266188651505
  0
ARC
  5
308
330
1F
100
AcDbEntity
  8
LAY-10
  6
CONTINUOUS
 62
     7
100
AcDbCircle
 10
464.9999999997844
 20
630.0000000000148
 30
0.0
 40
87.61836509649484
100
AcDbArc
 50
131.0733811347147
 51
138.926618865159
  0
ARC
  5
309
330
1F
100
AcDbEntity
  8
LAY-10
  6
CONTINUOUS
 62
     7
100
AcDbCircle
 10
464.9999999997844
 20
630.0000000000148
 30
0.0
 40
87.61836509649484
100
AcDbArc
 50
146.0733811347254
 51
153.9266188651717
  0
ARC
  5
30A
330
1F
100
AcDbEntity
  8
LAY-10
  6
CONTINUOUS
 62
     7
100
AcDbCircle
 10
464.9999999997844
 20
630.0000000000148
 30
0.0
 40
87.61836509649484
100
AcDbArc
 50
161.0733811347396
 51
168.9266188651874
  0
LINE
  5
30B
330
1F
100
AcDbEntity
  8
LAY-10
  6
CONTINUOUS
 62
     7
100
AcDbLine
 10
454.9999999998925
 20
738.0381876931096
 30
0.0
 11
454.9999999998924
 21
721.1330649014108
 31
0.0
  0
LINE
  5
30C
330
1F
100
AcDbEntity
  8
LAY-10
  6
CONTINUOUS
 62
     7
100
AcDbLine
 10
474.9999999998925
 20
738.0381876930901
 30
0.0
 11
474.9999999998925
 21
721.1330649013869
 31
0.0
  0
LINE
  5
30D
330
1F
100
AcDbEntity
  8
LAY-10
  6
CONTINUOUS
 62
     7
100
AcDbLine
 10
492.3928983647316
 20
662.9525460756404
 30
0.0
 11
524.4786541949286
 21
699.7676516263548
 31
0.0
  0
LINE
  5
30E
330
1F
100
AcDbEntity
  8
LAY-10
  6
CONTINUOUS
 62
     7
100
AcDbLine
 10
525.2361062695005
 20
699.1147380794098
 30
0.0
 11
493.1467670835859
 21
662.2955209964136
 31
0.0
  0
ARC
  5
30F
330
1F
100
AcDbEntity
  8
LAY-10
  6
CONTINUOUS
 62
     7
100
AcDbCircle
 10
506.4773521148852
 20
641.1138230034297
 30
0.0
 40
2.94051467113142
100
AcDbArc
 50
108.9266188652304
 51
281.0733811347991
  0
LINE
  5
310
330
1F
100
AcDbEntity
  8
LAY-10
  6
CONTINUOUS
 62
     7
100
AcDbLine
 10
554.9731720875259
 20
647.6086292149797
 30
0.0
 11
507.0421251530496
 21
638.2280548307413
 31
0.0
  0
LINE
  5
311
330
1F
100
AcDbEntity
  8
LAY-10
  6
CONTINUOUS
 62
     7
100
AcDbLine
 10
551.7233672943158
 20
659.737065817905
 30
0.0
 11
505.5235758269628
 21
643.8953580694924
 31
0.0
  0
ARC
  5
312
330
1F
100
AcDbEntity
  8
LAY-10
  6
CONTINUOUS
 62
     7
100
AcDbCircle
 10
506.4773521148852
 20
641.1138230034297
 30
0.0
 40
3.940514671131423
100
AcDbArc
 50
108.9266188652293
 51
281.0733811347913
  0
LINE
  5
313
330
1F
100
AcDbEntity
  8
LAY-10
  6
CONTINUOUS
 62
     7
100
AcDbLine
 10
507.2341912031559
 20
637.2466728294819
 30
0.0
 11
555.1652381376321
 21
646.6272472137202
 31
0.0
  0
LINE
  5
314
330
1F
100
AcDbEntity
  8
LAY-10
  6
CONTINUOUS
 62
     7
100
AcDbLine
 10
551.3990103722825
 20
660.683000586866
 30
0.0
 11
505.1992189049296
 21
644.8412928384535
 31
0.0
  0
ARC
  5
315
330
1F
100
AcDbEntity
  8
LAY-10
  6
CONTINUOUS
 62
     7
100
AcDbCircle
 10
465.0000000000003
 20
630.0000000000148
 30
0.0
 40
87.61836509649484
100
AcDbArc
 50
11.07338113481283
 51
18.92661886526063
  0
ARC
  5
316
330
1F
100
AcDbEntity
  8
LAY-10
  6
CONTINUOUS
 62
     7
100
AcDbCircle
 10
464.9999999997844
 20
630.0000000000148
 30
0.0
 40
91.6800715440378
100
AcDbArc
 50
168.9266188651882
 51
176.0733811347575
  0
ARC
  5
317
330
1F
100
AcDbEntity
  8
LAY-10
  6
CONTINUOUS
 62
     7
100
AcDbCircle
 10
465.0000000000003
 20
630.0000000000148
 30
0.0
 40
91.6800715440378
100
AcDbArc
 50
3.92661886524272
 51
11.07338113481192
  0
LINE
  5
318
330
1F
100
AcDbEntity
  8
LAY-10
  6
CONTINUOUS
 62
     7
100
AcDbLine
 10
460.9999999997845
 20
528.4999999999839
 30
0.0
 11
460.9999999997844
 21
527.9003676270638
 31
0.0
  0
LINE
  5
319
330
1F
100
AcDbEntity
  8
LAY-10
  6
CONTINUOUS
 62
     7
100
AcDbLine
 10
468.9999999997844
 20
528.4999999999841
 30
0.0
 11
468.9999999997846
 21
527.9003676273153
 31
0.0
  0
ARC
  5
31A
330
1F
100
AcDbEntity
  8
LAY-10
  6
CONTINUOUS
 62
     7
100
AcDbCircle
 10
464.9999999997844
 20
629.9999999999857
 30
0.0
 40
108.5000000000001
100
AcDbArc
 50
272.3074330865902
 51
87.69256691339551
  0
LINE
  5
31B
330
1F
100
AcDbEntity
  8
LAY-10
  6
CONTINUOUS
 62
     7
100
AcDbLine
 10
468.9999999997845
 20
731.5000000000455
 30
0.0
 11
468.9999999997845
 21
732.0996323726959
 31
0.0
  0
LINE
  5
31C
330
1F
100
AcDbEntity
  8
LAY-10
  6
CONTINUOUS
 62
     7
100
AcDbLine
 10
460.9999999997844
 20
731.5000000000455
 30
0.0
 11
460.9999999997845
 21
732.0996323729476
 31
0.0
  0
ARC
  5
31D
330
1F
100
AcDbEntity
  8
LAY-10
  6
CONTINUOUS
 62
     7
100
AcDbCircle
 10
464.9999999997844
 20
629.9999999999857
 30
0.0
 40
108.5000000000001
100
AcDbArc
 50
92.30743308649171
 51
267.6925669135231
  0
LINE
  5
31E
330
1F
100
AcDbEntity
  8
LAY-10
  6
CONTINUOUS
 62
     7
100
AcDbLine
 10
356.178346479856
 20
634.2327943285372
 30
0.0
 11
356.5825961746965
 21
634.2327943285372
 31
0.0
  0
LINE
  5
31F
330
1F
100
AcDbEntity
  8
LAY-10
  6
CONTINUOUS
 62
     7
100
AcDbLine
 10
355.9380245328751
 20
634.00000000001
 30
0.0
 11
356.573757788778
 21
634.00000000001
 31
0.0
  0
LINE
  5
320
330
1F
100
AcDbEntity
  8
LAY-10
  6
CONTINUOUS
 62
     7
100
AcDbLine
 10
355.9380245328751
 20
626.0000000000108
 30
0.0
 11
356.5737577887763
 21
626.0000000000108
 31
0.0
  0
LINE
  5
321
330
1F
100
AcDbEntity
  8
LAY-10
  6
CONTINUOUS
 62
     7
100
AcDbLine
 10
356.178346479856
 20
625.7672056714835
 30
0.0
 11
356.5825961746945
 21
625.7672056714835
 31
0.0
  0
LINE
  5
322
330
1F
100
AcDbEntity
  8
LAY-10
  6
CONTINUOUS
 62
     7
100
AcDbLine
 10
458.6998822805107
 20
521.3164775789796
 30
0.0
 11
458.6998822805107
 21
521.6830644971599
 31
0.0
  0
LINE
  5
323
330
1F
100
AcDbEntity
  8
LAY-10
  6
CONTINUOUS
 62
     7
100
AcDbLine
 10
459.0
 20
521.0664675465357
 30
0.0
 11
458.9999999999999
 21
521.6660256428958
 31
0.0
  0
LINE
  5
324
330
1F
100
AcDbEntity
  8
LAY-10
  6
CONTINUOUS
 62
     7
100
AcDbLine
 10
471.3001177194892
 20
521.3164775789796
 30
0.0
 11
471.3001177194891
 21
521.6830644971849
 31
0.0
  0
LINE
  5
325
330
1F
100
AcDbEntity
  8
LAY-10
  6
CONTINUOUS
 62
     7
100
AcDbLine
 10
471.0
 20
521.0664675465357
 30
0.0
 11
470.9999999999999
 21
521.6660256429196
 31
0.0
  0
LINE
  5
326
330
1F
100
AcDbEntity
  8
LAY-10
  6
CONTINUOUS
 62
     7
100
AcDbLine
 10
574.061975467125
 20
626.0000000000108
 30
0.0
 11
573.4262422107926
 21
626.0000000000108
 31
0.0
  0
LINE
  5
327
330
1F
100
AcDbEntity
  8
LAY-10
  6
CONTINUOUS
 62
     7
100
AcDbLine
 10
573.8216535201441
 20
625.7672056714835
 30
0.0
 11
573.4174038248743
 21
625.7672056714835
 31
0.0
  0
LINE
  5
328
330
1F
100
AcDbEntity
  8
LAY-10
  6
CONTINUOUS
 62
     7
100
AcDbLine
 10
573.8216535201441
 20
634.2327943285372
 30
0.0
 11
573.4174038248723
 21
634.2327943285372
 31
0.0
  0
LINE
  5
329
330
1F
100
AcDbEntity
  8
LAY-10
  6
CONTINUOUS
 62
     7
100
AcDbLine
 10
574.061975467125
 20
634.00000000001
 30
0.0
 11
573.4262422107907
 21
634.00000000001
 31
0.0
  0
LINE
  5
32A
330
1F
100
AcDbEntity
  8
LAY-10
  6
CONTINUOUS
 62
     7
100
AcDbLine
 10
458.6998822805112
 20
738.6835224210408
 30
0.0
 11
458.6998822805112
 21
738.3169355028112
 31
0.0
  0
LINE
  5
32B
330
1F
100
AcDbEntity
  8
LAY-10
  6
CONTINUOUS
 62
     7
100
AcDbLine
 10
459.0000000000005
 20
738.9335324534848
 30
0.0
 11
459.0000000000005
 21
738.3339743570755
 31
0.0
  0
LINE
  5
32C
330
1F
100
AcDbEntity
  8
LAY-10
  6
CONTINUOUS
 62
     7
100
AcDbLine
 10
471.3001177194896
 20
738.6835224210408
 30
0.0
 11
471.3001177194896
 21
738.3169355027862
 31
0.0
  0
LINE
  5
32D
330
1F
100
AcDbEntity
  8
LAY-10
  6
CONTINUOUS
 62
     7
100
AcDbLine
 10
471.0000000000005
 20
738.9335324534848
 30
0.0
 11
471.0000000000005
 21
738.3339743570516
 31
0.0
  0
CIRCLE
  5
32E
330
1F
100
AcDbEntity
  8
LAY-10
  6
CONTINUOUS
 62
     7
100
AcDbCircle
 10
385.0000000000018
 20
630.0000000000084
 30
0.0
 40
3.999999999999943
  0
LINE
  5
32F
330
1F
100
AcDbEntity
  8
LAY-10
  6
CONTINUOUS
 62
     7
100
AcDbLine
 10
385.750000000002
 20
633.9290584113837
 30
0.0
 11
385.7500000000022
 21
626.0709415886333
 31
0.0
  0
LINE
  5
330
330
1F
100
AcDbEntity
  8
LAY-10
  6
CONTINUOUS
 62
     7
100
AcDbLine
 10
384.2500000000018
 20
633.9290584113838
 30
0.0
 11
384.2500000000018
 21
626.0709415886331
 31
0.0
  0
ARC
  5
331
330
1F
100
AcDbEntity
  8
LAY-10
  6
CONTINUOUS
 62
     7
100
AcDbCircle
 10
385.0000000000018
 20
630.0000000000084
 30
0.0
 40
3.499999999999887
100
AcDbArc
 50
282.3736251161946
 51
77.62637488380324
  0
ARC
  5
332
330
1F
100
AcDbEntity
  8
LAY-10
  6
CONTINUOUS
 62
     7
100
AcDbCircle
 10
385.0000000000018
 20
630.0000000000084
 30
0.0
 40
3.499999999999887
100
AcDbArc
 50
102.3736251161909
 51
257.6263748838112
  0
CIRCLE
  5
333
330
1F
100
AcDbEntity
  8
LAY-10
  6
CONTINUOUS
 62
     7
100
AcDbCircle
 10
504.9999999996532
 20
560.7179676974177
 30
0.0
 40
3.999999999999943
  0
LINE
  5
334
330
1F
100
AcDbEntity
  8
LAY-10
  6
CONTINUOUS
 62
     7
100
AcDbLine
 10
501.2223356024491
 20
559.4029575445686
 30
0.0
 11
508.0276643968567
 21
563.332015955944
 31
0.0
  0
LINE
  5
335
330
1F
100
AcDbEntity
  8
LAY-10
  6
CONTINUOUS
 62
     7
100
AcDbLine
 10
501.9723356024491
 20
558.1039194388917
 30
0.0
 11
508.777664396857
 21
562.0329778502671
 31
0.0
  0
ARC
  5
336
330
1F
100
AcDbEntity
  8
LAY-10
  6
CONTINUOUS
 62
     7
100
AcDbCircle
 10
504.9999999996532
 20
560.7179676974177
 30
0.0
 40
3.499999999999887
100
AcDbArc
 50
42.37362511619457
 51
197.6263748838032
  0
ARC
  5
337
330
1F
100
AcDbEntity
  8
LAY-10
  6
CONTINUOUS
 62
     7
100
AcDbCircle
 10
504.9999999996532
 20
560.7179676974177
 30
0.0
 40
3.499999999999887
100
AcDbArc
 50
222.3736251161908
 51
17.62637488381112
  0
CIRCLE
  5
338
330
1F
100
AcDbEntity
  8
LAY-10
  6
CONTINUOUS
 62
     7
100
AcDbCircle
 10
504.9999999996532
 20
699.2820323026025
 30
0.0
 40
3.999999999999943
  0
LINE
  5
339
330
1F
100
AcDbEntity
  8
LAY-10
  6
CONTINUOUS
 62
     7
100
AcDbLine
 10
501.2223356024491
 20
700.5970424554516
 30
0.0
 11
508.0276643968567
 21
696.6679840440762
 31
0.0
  0
LINE
  5
33A
330
1F
100
AcDbEntity
  8
LAY-10
  6
CONTINUOUS
 62
     7
100
AcDbLine
 10
501.9723356024491
 20
701.8960805611285
 30
0.0
 11
508.777664396857
 21
697.9670221497531
 31
0.0
  0
ARC
  5
33B
330
1F
100
AcDbEntity
  8
LAY-10
  6
CONTINUOUS
 62
     7
100
AcDbCircle
 10
504.9999999996532
 20
699.2820323026025
 30
0.0
 40
3.499999999999887
100
AcDbArc
 50
162.3736251161966
 51
317.6263748838057
  0
ARC
  5
33C
330
1F
100
AcDbEntity
  8
LAY-10
  6
CONTINUOUS
 62
     7
100
AcDbCircle
 10
504.9999999996532
 20
699.2820323026025
 30
0.0
 40
3.499999999999887
100
AcDbArc
 50
342.373625116189
 51
137.6263748838096
  0
LINE
  5
33D
330
1F
100
AcDbEntity
  8
LAY-10
  6
CONTINUOUS
 62
     7
100
AcDbLine
 10
374.3846373818404
 20
138.3751214496315
 30
0.0
 11
266.0000000000069
 21
167.4166975080363
 31
0.0
  0
LINE
  5
33E
330
1F
100
AcDbEntity
  8
LAY-10
  6
CONTINUOUS
 62
     7
100
AcDbLine
 10
555.6153626181693
 20
138.3751214496326
 30
0.0
 11
664.0000000000036
 21
167.4166975080349
 31
0.0
  0
LINE
  5
33F
330
1F
100
AcDbEntity
  8
LAY-10
  6
CONTINUOUS
 62
     7
100
AcDbLine
 10
574.587046223284
 20
155.9253859996965
 30
0.0
 11
573.8006133783231
 21
150.7744571134209
 31
0.0
  0
ARC
  5
340
330
1F
100
AcDbEntity
  8
LAY-10
  6
CONTINUOUS
 62
     7
100
AcDbCircle
 10
487.9597602039001
 20
156.3584718395173
 30
0.0
 40
0.415985273901242
100
AcDbArc
 50
10.85263578414197
 51
185.7231992754553
  0
ARC
  5
341
330
1F
100
AcDbEntity
  8
LAY-10
  6
CONTINUOUS
 62
     7
100
AcDbCircle
 10
489.1826028961194
 20
150.0135494761479
 30
0.0
 40
1.0
100
AcDbArc
 50
185.7231992754696
 51
270.0
  0
LINE
  5
342
330
1F
100
AcDbEntity
  8
LAY-10
  6
CONTINUOUS
 62
     7
100
AcDbLine
 10
498.2566163348765
 20
149.0135494761479
 30
0.0
 11
489.1826028961194
 21
149.0135494761479
 31
0.0
  0
LINE
  5
343
330
1F
100
AcDbEntity
  8
LAY-10
  6
CONTINUOUS
 62
     7
100
AcDbLine
 10
490.3097175206712
 20
150.62124463074
 30
0.0
 11
499.368970999729
 21
150.62124463074
 31
0.0
  0
ARC
  5
344
330
1F
100
AcDbEntity
  8
LAY-10
  6
CONTINUOUS
 62
     7
100
AcDbCircle
 10
498.2566163348765
 20
150.0135494761479
 30
0.0
 40
1.0
100
AcDbArc
 50
270.0
 51
350.7347304522883
  0
ARC
  5
345
330
1F
100
AcDbEntity
  8
LAY-10
  6
CONTINUOUS
 62
     7
100
AcDbCircle
 10
540.4146589817078
 20
150.0135494761503
 30
0.0
 40
1.0
100
AcDbArc
 50
180.5990661234034
 51
270.0
  0
LINE
  5
346
330
1F
100
AcDbEntity
  8
LAY-10
  6
CONTINUOUS
 62
     7
100
AcDbLine
 10
540.4146589817078
 20
149.0135494761503
 30
0.0
 11
546.5182021710895
 21
149.0135494761503
 31
0.0
  0
LINE
  5
347
330
1F
100
AcDbEntity
  8
LAY-10
  6
CONTINUOUS
 62
     7
100
AcDbLine
 10
544.2048357669194
 20
150.6212446307408
 30
0.0
 11
547.6454926132553
 21
150.6212446307408
 31
0.0
  0
ARC
  5
348
330
1F
100
AcDbEntity
  8
LAY-10
  6
CONTINUOUS
 62
     7
100
AcDbCircle
 10
541.2021391083113
 20
155.7744571134214
 30
0.0
 40
1.0
100
AcDbArc
 50
12.89644244487271
 51
90.00000000000001
  0
ARC
  5
349
330
1F
100
AcDbEntity
  8
LAY-10
  6
CONTINUOUS
 62
     7
100
AcDbCircle
 10
540.3544226012598
 20
155.7744571134214
 30
0.0
 40
1.0
100
AcDbArc
 50
90.00000000000001
 51
180.5990661234034
  0
ARC
  5
34A
330
1F
100
AcDbEntity
  8
LAY-10
  6
CONTINUOUS
 62
     7
100
AcDbCircle
 10
546.5182021710895
 20
150.0135494761503
 30
0.0
 40
1.0
100
AcDbArc
 50
270.0
 51
349.6665462814097
  0
ARC
  5
34B
330
1F
100
AcDbEntity
  8
LAY-10
  6
CONTINUOUS
 62
     7
100
AcDbCircle
 10
549.6015855249518
 20
155.7744571134214
 30
0.0
 40
1.0
100
AcDbArc
 50
90.00000000000001
 51
169.6665462814097
  0
ARC
  5
34C
330
1F
100
AcDbEntity
  8
LAY-10
  6
CONTINUOUS
 62
     7
100
AcDbCircle
 10
575.5755908460947
 20
155.7744571134214
 30
0.0
 40
1.0
100
AcDbArc
 50
90.00000000000001
 51
171.319239296967
  0
ARC
  5
34D
330
1F
100
AcDbEntity
  8
LAY-10
  6
CONTINUOUS
 62
     7
100
AcDbCircle
 10
442.0402397961206
 20
156.3584718395173
 30
0.0
 40
0.415985273901242
100
AcDbArc
 50
354.2768007245368
 51
169.1473642158542
  0
ARC
  5
34E
330
1F
100
AcDbEntity
  8
LAY-10
  6
CONTINUOUS
 62
     7
100
AcDbCircle
 10
440.8173971039013
 20
150.0135494761479
 30
0.0
 40
1.0
100
AcDbArc
 50
270.0
 51
354.2768007245304
  0
LINE
  5
34F
330
1F
100
AcDbEntity
  8
LAY-10
  6
CONTINUOUS
 62
     7
100
AcDbLine
 10
431.7433836651441
 20
149.0135494761479
 30
0.0
 11
440.8173971039013
 21
149.0135494761479
 31
0.0
  0
LINE
  5
350
330
1F
100
AcDbEntity
  8
LAY-10
  6
CONTINUOUS
 62
     7
100
AcDbLine
 10
439.6902824793494
 20
150.62124463074
 30
0.0
 11
430.6310290002917
 21
150.62124463074
 31
0.0
  0
ARC
  5
351
330
1F
100
AcDbEntity
  8
LAY-10
  6
CONTINUOUS
 62
     7
100
AcDbCircle
 10
431.7433836651441
 20
150.0135494761479
 30
0.0
 40
1.0
100
AcDbArc
 50
189.2652695477117
 51
270.0
  0
ARC
  5
352
330
1F
100
AcDbEntity
  8
LAY-10
  6
CONTINUOUS
 62
     7
100
AcDbCircle
 10
389.6455773987608
 20
155.7744571134214
 30
0.0
 40
1.0
100
AcDbArc
 50
359.4009338765967
 51
90.00000000000001
  0
ARC
  5
353
330
1F
100
AcDbEntity
  8
LAY-10
  6
CONTINUOUS
 62
     7
100
AcDbCircle
 10
357.8113136794988
 20
155.7744571134214
 30
0.0
 40
1.0
100
AcDbArc
 50
4.694128740579727
 51
90.00000000000001
  0
ARC
  5
354
330
1F
100
AcDbEntity
  8
LAY-10
  6
CONTINUOUS
 62
     7
100
AcDbCircle
 10
358.2843521819912
 20
150.0135494761502
 30
0.0
 40
1.0
100
AcDbArc
 50
270.0
 51
4.694128740579727
  0
LINE
  5
355
330
1F
100
AcDbEntity
  8
LAY-10
  6
CONTINUOUS
 62
     7
100
AcDbLine
 10
357.3271485016641
 20
149.0135494761502
 30
0.0
 11
358.2843521819912
 21
149.0135494761502
 31
0.0
  0
ARC
  5
356
330
1F
100
AcDbEntity
  8
LAY-10
  6
CONTINUOUS
 62
     7
100
AcDbCircle
 10
357.3271485016641
 20
150.0135494761502
 30
0.0
 40
1.0
100
AcDbArc
 50
188.680760703033
 51
270.0
  0
LINE
  5
357
330
1F
100
AcDbEntity
  8
LAY-10
  6
CONTINUOUS
 62
     7
100
AcDbLine
 10
355.4129537767367
 20
155.9253859996965
 30
0.0
 11
356.3386038788535
 21
149.8626205898751
 31
0.0
  0
ARC
  5
358
330
1F
100
AcDbEntity
  8
LAY-10
  6
CONTINUOUS
 62
     7
100
AcDbCircle
 10
354.4244091539261
 20
155.7744571134214
 30
0.0
 40
1.0
100
AcDbArc
 50
8.680760703033027
 51
90.00000000000001
  0
LINE
  5
359
330
1F
100
AcDbEntity
  8
LAY-10
  6
CONTINUOUS
 62
     7
100
AcDbLine
 10
348.863552926215
 20
155.9348692757137
 30
0.0
 11
348.177435697498
 21
151.7130441793904
 31
0.0
  0
LINE
  5
35A
330
1F
100
AcDbEntity
  8
LAY-10
  6
CONTINUOUS
 62
     7
100
AcDbLine
 10
353.1123844815976
 20
155.9022515319631
 30
0.0
 11
353.9143556479652
 21
149.6782273820307
 31
0.0
  0
LINE
  5
35B
330
1F
100
AcDbEntity
  8
LAY-10
  6
CONTINUOUS
 62
     7
100
AcDbLine
 10
465.0000000000102
 20
142.7744571134209
 30
0.0
 11
395.737961103596
 21
142.774457113421
 31
0.0
  0
LINE
  5
35C
330
1F
100
AcDbEntity
  8
LAY-10
  6
CONTINUOUS
 62
     7
100
AcDbLine
 10
552.7153903091889
 20
142.7744571134209
 30
0.0
 11
475.7379611035963
 21
142.7744571134209
 31
0.0
  0
ARC
  5
35D
330
1F
100
AcDbEntity
  8
LAY-10
  6
CONTINUOUS
 62
     7
100
AcDbCircle
 10
474.7365887575984
 20
142.7744571134194
 30
0.0
 40
1.0
100
AcDbArc
 50
2.99999999999909
 51
90.00000000000001
  0
LINE
  5
35E
330
1F
100
AcDbEntity
  8
LAY-10
  6
CONTINUOUS
 62
     7
100
AcDbLine
 10
475.735218292353
 20
142.8267930696624
 30
0.0
 11
476.0000000000116
 21
137.7744571134199
 31
0.0
  0
LINE
  5
35F
330
1F
100
AcDbEntity
  8
LAY-10
  6
CONTINUOUS
 62
     7
100
AcDbLine
 10
465.0000000000102
 20
143.7744571134194
 30
0.0
 11
474.7365887575984
 21
143.7744571134194
 31
0.0
  0
LINE
  5
360
330
1F
100
AcDbEntity
  8
LAY-10
  6
CONTINUOUS
 62
     7
100
AcDbLine
 10
346.9315665330042
 20
150.9075305153885
 30
0.0
 11
332.5000000000078
 21
154.774457113421
 31
0.0
  0
LINE
  5
361
330
1F
100
AcDbEntity
  8
LAY-10
  6
CONTINUOUS
 62
     7
100
AcDbLine
 10
373.5525588832608
 20
143.7744571134219
 30
0.0
 11
354.6473372817237
 21
148.8400959742854
 31
0.0
  0
ARC
  5
362
330
1F
100
AcDbEntity
  8
LAY-10
  6
CONTINUOUS
 62
     7
100
AcDbCircle
 10
354.9061563268262
 20
149.8060218005745
 30
0.0
 40
1.0
100
AcDbArc
 50
187.342158723981
 51
254.9999999999989
  0
ARC
  5
363
330
1F
100
AcDbEntity
  8
LAY-10
  6
CONTINUOUS
 62
     7
100
AcDbCircle
 10
347.1903855781067
 20
151.8734563416776
 30
0.0
 40
1.0
100
AcDbArc
 50
254.9999999999989
 51
350.769179604178
  0
ARC
  5
364
330
1F
100
AcDbEntity
  8
LAY-10
  6
CONTINUOUS
 62
     7
100
AcDbCircle
 10
352.1205838027364
 20
155.7744571134214
 30
0.0
 40
1.0
100
AcDbArc
 50
7.3421587239806
 51
90.00000000000001
  0
ARC
  5
365
330
1F
100
AcDbEntity
  8
LAY-10
  6
CONTINUOUS
 62
     7
100
AcDbCircle
 10
349.8506030456054
 20
155.7744571134214
 30
0.0
 40
1.0
100
AcDbArc
 50
90.00000000000001
 51
170.7691796041779
  0
LINE
  5
366
330
1F
100
AcDbEntity
  8
LAY-10
  6
CONTINUOUS
 62
     7
100
AcDbLine
 10
576.8876155184234
 20
155.9022515319627
 30
0.0
 11
576.3392790304788
 21
151.6466626948792
 31
0.0
  0
LINE
  5
367
330
1F
100
AcDbEntity
  8
LAY-10
  6
CONTINUOUS
 62
     7
100
AcDbLine
 10
583.068433467017
 20
150.9075305153885
 30
0.0
 11
597.5000000000123
 21
154.7744571134209
 31
0.0
  0
LINE
  5
368
330
1F
100
AcDbEntity
  8
LAY-10
  6
CONTINUOUS
 62
     7
100
AcDbLine
 10
552.71539030919
 20
142.7744571134212
 30
0.0
 11
560.4980960888206
 21
144.8598268420025
 31
0.0
  0
ARC
  5
369
330
1F
100
AcDbEntity
  8
LAY-10
  6
CONTINUOUS
 62
     7
100
AcDbCircle
 10
560.2392770437182
 20
145.8257526682916
 30
0.0
 40
1.0
100
AcDbArc
 50
285.0000000000012
 51
357.0000000000009
  0
LINE
  5
36A
330
1F
100
AcDbEntity
  8
LAY-10
  6
CONTINUOUS
 62
     7
100
AcDbLine
 10
561.2379065784727
 20
145.7734167120486
 30
0.0
 11
561.4503350319737
 21
149.8267930696638
 31
0.0
  0
ARC
  5
36B
330
1F
100
AcDbEntity
  8
LAY-10
  6
CONTINUOUS
 62
     7
100
AcDbCircle
 10
562.4489645667284
 20
149.7744571134209
 30
0.0
 40
1.0
100
AcDbArc
 50
90.00000000000001
 51
177.0000000000009
  0
ARC
  5
36C
330
1F
100
AcDbEntity
  8
LAY-10
  6
CONTINUOUS
 62
     7
100
AcDbCircle
 10
575.3474783516176
 20
151.7744571134209
 30
0.0
 40
1.0
100
AcDbArc
 50
270.0
 51
352.6578412760194
  0
ARC
  5
36D
330
1F
100
AcDbEntity
  8
LAY-10
  6
CONTINUOUS
 62
     7
100
AcDbCircle
 10
582.8096144219145
 20
151.8734563416775
 30
0.0
 40
1.0
100
AcDbArc
 50
189.2308203958221
 51
285.0000000000012
  0
LINE
  5
36E
330
1F
100
AcDbEntity
  8
LAY-10
  6
CONTINUOUS
 62
     7
100
AcDbLine
 10
581.1364470738063
 20
155.9348692757133
 30
0.0
 11
581.822564302524
 21
151.7130441793853
 31
0.0
  0
ARC
  5
36F
330
1F
100
AcDbEntity
  8
LAY-10
  6
CONTINUOUS
 62
     7
100
AcDbCircle
 10
577.8794161972847
 20
155.774457113421
 30
0.0
 40
1.0
100
AcDbArc
 50
90.00000000000001
 51
172.6578412760195
  0
ARC
  5
370
330
1F
100
AcDbEntity
  8
LAY-10
  6
CONTINUOUS
 62
     7
100
AcDbCircle
 10
580.1493969544158
 20
155.774457113421
 30
0.0
 40
1.0
100
AcDbArc
 50
9.230820395822109
 51
90.00000000000001
  0
ARC
  5
371
330
1F
100
AcDbEntity
  8
LAY-10
  6
CONTINUOUS
 62
     7
100
AcDbCircle
 10
394.736588757598
 20
142.7744571134211
 30
0.0
 40
1.0
100
AcDbArc
 50
2.99999999999909
 51
90.00000000000001
  0
LINE
  5
372
330
1F
100
AcDbEntity
  8
LAY-10
  6
CONTINUOUS
 62
     7
100
AcDbLine
 10
395.7352182923526
 20
142.826793069664
 30
0.0
 11
396.0000000000113
 21
137.7744571134199
 31
0.0
  0
LINE
  5
373
330
1F
100
AcDbEntity
  8
LAY-10
  6
CONTINUOUS
 62
     7
100
AcDbLine
 10
373.5525588832631
 20
143.7744571134211
 30
0.0
 11
394.736588757598
 21
143.7744571134211
 31
0.0
  0
ARC
  5
374
330
1F
100
AcDbEntity
  8
LAY-10
  6
CONTINUOUS
 62
     7
100
AcDbCircle
 10
325.0257770784849
 20
153.6713405680632
 30
0.0
 40
2.0
100
AcDbArc
 50
199.8842882553566
 51
254.9999999999989
  0
LINE
  5
375
330
1F
100
AcDbEntity
  8
LAY-10
  6
CONTINUOUS
 62
     7
100
AcDbLine
 10
324.5081389882798
 20
151.7394889154851
 30
0.0
 11
376.6263472028944
 21
137.7744571134211
 31
0.0
  0
LINE
  5
376
330
1F
100
AcDbEntity
  8
LAY-10
  6
CONTINUOUS
 62
     7
100
AcDbLine
 10
322.5000000000109
 20
154.7744571134201
 30
0.0
 11
323.1450142162727
 21
152.9910971879971
 31
0.0
  0
ARC
  5
377
330
1F
100
AcDbEntity
  8
LAY-10
  6
CONTINUOUS
 62
     7
100
AcDbCircle
 10
604.9742229215364
 20
153.6713405680631
 30
0.0
 40
2.0
100
AcDbArc
 50
285.0000000000012
 51
340.1157117446435
  0
LINE
  5
378
330
1F
100
AcDbEntity
  8
LAY-10
  6
CONTINUOUS
 62
     7
100
AcDbLine
 10
605.4918610117414
 20
151.739488915485
 30
0.0
 11
553.3736527971267
 21
137.774457113421
 31
0.0
  0
LINE
  5
379
330
1F
100
AcDbEntity
  8
LAY-10
  6
CONTINUOUS
 62
     7
100
AcDbLine
 10
607.5000000000102
 20
154.77445711342
 30
0.0
 11
606.8549857837485
 21
152.9910971879971
 31
0.0
  0
LINE
  5
37A
330
1F
100
AcDbEntity
  8
LAY-10
  6
CONTINUOUS
 62
     7
100
AcDbLine
 10
543.2620388964167
 20
142.7744571134215
 30
0.0
 11
543.0000000000014
 21
137.7744571134205
 31
0.0
  0
LINE
  5
37B
330
1F
100
AcDbEntity
  8
LAY-10
  6
CONTINUOUS
 62
     7
100
AcDbLine
 10
581.325033469215
 20
154.7744571134209
 30
0.0
 11
607.5000000000102
 21
154.7744571134209
 31
0.0
  0
LINE
  5
37C
330
1F
100
AcDbEntity
  8
LAY-10
  6
CONTINUOUS
 62
     7
100
AcDbLine
 10
322.5000000000102
 20
154.774457113421
 30
0.0
 11
348.6749665308062
 21
154.774457113421
 31
0.0
  0
LINE
  5
37D
330
1F
100
AcDbEntity
  8
LAY-10
  6
CONTINUOUS
 62
     7
100
AcDbLine
 10
553.3736527971266
 20
137.774457113421
 30
0.0
 11
376.6263472028944
 21
137.7744571134211
 31
0.0
  0
LINE
  5
37E
330
1F
100
AcDbEntity
  8
LAY-10
  6
CONTINUOUS
 62
     7
100
AcDbLine
 10
573.0000000000089
 20
150.7744571134209
 30
0.0
 11
573.0000000000089
 21
143.0333209968064
 31
0.0
  0
LINE
  5
37F
330
1F
100
AcDbEntity
  8
LAY-10
  6
CONTINUOUS
 62
     7
100
AcDbLine
 10
568.0000000000089
 20
150.7744571134209
 30
0.0
 11
568.0000000000089
 21
141.6935750346507
 31
0.0
  0
LINE
  5
380
330
1F
100
AcDbEntity
  8
LAY-10
  6
CONTINUOUS
 62
     7
100
AcDbLine
 10
469.2327943285397
 20
145.04786988533
 30
0.0
 11
465.0000000000102
 21
145.04786988533
 31
0.0
  0
LINE
  5
381
330
1F
100
AcDbEntity
  8
LAY-10
  6
CONTINUOUS
 62
     7
100
AcDbLine
 10
465.0000000000102
 20
150.7744571134199
 30
0.0
 11
468.0398255634838
 21
150.7744571134199
 31
0.0
  0
LINE
  5
382
330
1F
100
AcDbEntity
  8
LAY-10
  6
CONTINUOUS
 62
     7
100
AcDbLine
 10
469.039000314166
 20
149.815075060182
 30
0.0
 11
469.2327943285404
 21
145.04786988533
 31
0.0
  0
ARC
  5
383
330
1F
100
AcDbEntity
  8
LAY-10
  6
CONTINUOUS
 62
     7
100
AcDbCircle
 10
468.0398255634838
 20
149.7744571134199
 30
0.0
 40
1.0
100
AcDbArc
 50
2.32787731691682
 51
90.00000000000001
  0
LINE
  5
384
330
1F
100
AcDbEntity
  8
LAY-10
  6
CONTINUOUS
 62
     7
100
AcDbLine
 10
393.0000000000353
 20
143.7744571134238
 30
0.0
 11
393.0000000000353
 21
149.8264571134244
 31
0.0
  0
ARC
  5
385
330
1F
100
AcDbEntity
  8
LAY-10
  6
CONTINUOUS
 62
     7
100
AcDbCircle
 10
391.0000000000348
 20
147.52666032198
 30
0.0
 40
3.047796791443853
100
AcDbArc
 50
48.98840640770437
 51
131.0115935922929
  0
ARC
  5
386
330
1F
100
AcDbEntity
  8
LAY-10
  6
CONTINUOUS
 62
     7
100
AcDbCircle
 10
385.0000000000348
 20
139.505269947649
 30
0.0
 40
11.06918716577541
100
AcDbArc
 50
68.81604434176987
 51
111.1839556582252
  0
LINE
  5
387
330
1F
100
AcDbEntity
  8
LAY-10
  6
CONTINUOUS
 62
     7
100
AcDbLine
 10
379.0000000000348
 20
150.574457113424
 30
0.0
 11
391.0000000000348
 21
150.574457113424
 31
0.0
  0
LINE
  5
388
330
1F
100
AcDbEntity
  8
LAY-10
  6
CONTINUOUS
 62
     7
100
AcDbLine
 10
381.0000000000353
 20
143.7744571134238
 30
0.0
 11
381.0000000000353
 21
149.8264571134239
 31
0.0
  0
LINE
  5
389
330
1F
100
AcDbEntity
  8
LAY-10
  6
CONTINUOUS
 62
     7
100
AcDbLine
 10
389.0000000000353
 20
143.7744571134238
 30
0.0
 11
389.0000000000353
 21
149.8264571134244
 31
0.0
  0
LINE
  5
38A
330
1F
100
AcDbEntity
  8
LAY-10
  6
CONTINUOUS
 62
     7
100
AcDbLine
 10
377.0000000000353
 20
143.7744571134238
 30
0.0
 11
377.0000000000353
 21
149.8264571134239
 31
0.0
  0
ARC
  5
38B
330
1F
100
AcDbEntity
  8
LAY-10
  6
CONTINUOUS
 62
     7
100
AcDbCircle
 10
379.0000000000348
 20
147.52666032198
 30
0.0
 40
3.047796791443853
100
AcDbArc
 50
48.98840640769372
 51
131.0115935922929
  0
ARC
  5
38C
330
1F
100
AcDbEntity
  8
LAY-10
  6
CONTINUOUS
 62
     7
100
AcDbCircle
 10
465.0000000000653
 20
258.2886072094054
 30
0.0
 40
68.485849904014
100
AcDbArc
 50
9.999999999998627
 51
170.0000000000015
  0
ARC
  5
38D
330
1F
100
AcDbEntity
  8
LAY-10
  6
CONTINUOUS
 62
     7
100
AcDbCircle
 10
465.0000000000653
 20
258.2886072094054
 30
0.0
 40
72.485849904014
100
AcDbArc
 50
9.999999999998627
 51
170.0000000000015
  0
LINE
  5
38E
330
1F
100
AcDbEntity
  8
LAY-10
  6
CONTINUOUS
 62
     7
100
AcDbLine
 10
425.0000000000654
 20
313.8791786858268
 30
0.0
 11
426.0795628485178
 21
319.4392246080849
 31
0.0
  0
LINE
  5
38F
330
1F
100
AcDbEntity
  8
LAY-10
  6
CONTINUOUS
 62
     7
100
AcDbLine
 10
505.0000000000653
 20
313.8791786858268
 30
0.0
 11
503.9204371516128
 21
319.4392246080849
 31
0.0
  0
LINE
  5
390
330
1F
100
AcDbEntity
  8
LAY-10
  6
CONTINUOUS
 62
     7
100
AcDbLine
 10
562.2062715914883
 20
152.6697852009341
 30
0.0
 11
562.5000000000316
 21
158.2744571134197
 31
0.0
  0
ARC
  5
391
330
1F
100
AcDbEntity
  8
LAY-10
  6
CONTINUOUS
 62
     7
100
AcDbCircle
 10
560.2090125219795
 20
152.7744571134202
 30
0.0
 40
2.0
100
AcDbArc
 50
270.0
 51
357.0000000000011
  0
LINE
  5
392
330
1F
100
AcDbEntity
  8
LAY-10
  6
CONTINUOUS
 62
     7
100
AcDbLine
 10
373.3199284560563
 20
155.7744571134197
 30
0.0
 11
393.6153730309122
 21
270.8756429518741
 31
0.0
  0
LINE
  5
393
330
1F
100
AcDbEntity
  8
LAY-10
  6
CONTINUOUS
 62
     7
100
AcDbLine
 10
573.5000000000268
 20
158.2744571134197
 30
0.0
 11
552.1775476447599
 21
158.2744571134197
 31
0.0
  0
LINE
  5
394
330
1F
100
AcDbEntity
  8
LAY-10
  6
CONTINUOUS
 62
     7
100
AcDbLine
 10
390.9379702503177
 20
150.7744571134202
 30
0.0
 11
390.9379702503177
 21
150.574457113424
 31
0.0
  0
LINE
  5
395
330
1F
100
AcDbEntity
  8
LAY-10
  6
CONTINUOUS
 62
     7
100
AcDbLine
 10
381.0000000000353
 20
176.2952253015786
 30
0.0
 11
376.5000000000571
 21
150.7744571134202
 31
0.0
  0
ARC
  5
396
330
1F
100
AcDbEntity
  8
LAY-10
  6
CONTINUOUS
 62
     7
100
AcDbCircle
 10
572.2500000000152
 20
158.1602064128313
 30
0.0
 40
3.500000000000002
100
AcDbArc
 50
1.870641730592336
 51
51.31781254650231
  0
ARC
  5
397
330
1F
100
AcDbEntity
  8
LAY-10
  6
CONTINUOUS
 62
     7
100
AcDbCircle
 10
568.7500000000152
 20
158.1602064128313
 30
0.0
 40
3.500000000000002
100
AcDbArc
 50
128.6821874534989
 51
178.1293582693965
  0
LINE
  5
398
330
1F
100
AcDbEntity
  8
LAY-10
  6
CONTINUOUS
 62
     7
100
AcDbLine
 10
565.2518652431152
 20
158.2744571134315
 30
0.0
 11
575.7481347569151
 21
158.2744571134315
 31
0.0
  0
LINE
  5
399
330
1F
100
AcDbEntity
  8
LAY-10
  6
CONTINUOUS
 62
     7
100
AcDbLine
 10
569.9000000000153
 20
162.2458206015315
 30
0.0
 11
569.9000000000153
 21
159.7744571134315
 31
0.0
  0
LINE
  5
39A
330
1F
100
AcDbEntity
  8
LAY-10
  6
CONTINUOUS
 62
     7
100
AcDbLine
 10
569.9000000000153
 20
159.7744571134315
 30
0.0
 11
571.1000000000151
 21
159.7744571134315
 31
0.0
  0
LINE
  5
39B
330
1F
100
AcDbEntity
  8
LAY-10
  6
CONTINUOUS
 62
     7
100
AcDbLine
 10
571.1000000000151
 20
162.2458206015315
 30
0.0
 11
571.1000000000151
 21
159.7744571134315
 31
0.0
  0
ARC
  5
39C
330
1F
100
AcDbEntity
  8
LAY-10
  6
CONTINUOUS
 62
     7
100
AcDbCircle
 10
570.5000000000152
 20
155.9744571134318
 30
0.0
 40
6.300000000000002
100
AcDbArc
 50
95.46502379990096
 51
128.6821874535046
  0
ARC
  5
39D
330
1F
100
AcDbEntity
  8
LAY-10
  6
CONTINUOUS
 62
     7
100
AcDbCircle
 10
570.5000000000152
 20
155.9744571134318
 30
0.0
 40
6.300000000000002
100
AcDbArc
 50
51.31781254650581
 51
84.53497620009085
  0
LINE
  5
39E
330
1F
100
AcDbEntity
  8
LAY-10
  6
CONTINUOUS
 62
     7
100
AcDbLine
 10
573.000000000015
 20
146.2744571134338
 30
0.0
 11
573.500000000015
 21
146.7744571134338
 31
0.0
  0
LINE
  5
39F
330
1F
100
AcDbEntity
  8
LAY-10
  6
CONTINUOUS
 62
     7
100
AcDbLine
 10
568.0000000000152
 20
146.2744571134338
 30
0.0
 11
567.5000000000152
 21
146.7744571134338
 31
0.0
  0
LINE
  5
3A0
330
1F
100
AcDbEntity
  8
LAY-10
  6
CONTINUOUS
 62
     7
100
AcDbLine
 10
573.500000000015
 20
158.2744571134315
 30
0.0
 11
573.500000000015
 21
146.7744571134338
 31
0.0
  0
LINE
  5
3A1
330
1F
100
AcDbEntity
  8
LAY-10
  6
CONTINUOUS
 62
     7
100
AcDbLine
 10
573.000000000015
 20
146.2744571134338
 30
0.0
 11
568.0000000000152
 21
146.2744571134338
 31
0.0
  0
LINE
  5
3A2
330
1F
100
AcDbEntity
  8
LAY-10
  6
CONTINUOUS
 62
     7
100
AcDbLine
 10
567.5000000000152
 20
158.2744571134315
 30
0.0
 11
567.5000000000152
 21
146.7744571134338
 31
0.0
  0
LINE
  5
3A3
330
1F
100
AcDbEntity
  8
LAY-10
  6
CONTINUOUS
 62
     7
100
AcDbLine
 10
567.5000000000152
 20
146.7744571134338
 30
0.0
 11
573.500000000015
 21
146.7744571134338
 31
0.0
  0
ARC
  5
3A4
330
1F
100
AcDbEntity
  8
LAY-10
  6
CONTINUOUS
 62
     7
100
AcDbCircle
 10
358.6599680298776
 20
152.7744571134202
 30
0.0
 40
2.0
100
AcDbArc
 50
182.9999999999989
 51
270.0
  0
LINE
  5
3A5
330
1F
100
AcDbEntity
  8
LAY-10
  6
CONTINUOUS
 62
     7
100
AcDbLine
 10
356.6627089603683
 20
152.6697852009341
 30
0.0
 11
356.5000000000326
 21
155.7744571134202
 31
0.0
  0
LINE
  5
3A6
330
1F
100
AcDbEntity
  8
LAY-10
  6
CONTINUOUS
 62
     7
100
AcDbLine
 10
377.3816349035995
 20
155.7744571134197
 30
0.0
 11
356.5000000000358
 21
155.7744571134197
 31
0.0
  0
LINE
  5
3A7
330
1F
100
AcDbEntity
  8
LAY-10
  6
CONTINUOUS
 62
     7
100
AcDbLine
 10
381.0000000000353
 20
150.7744571134202
 30
0.0
 11
358.6599680298776
 21
150.7744571134202
 31
0.0
  0
LINE
  5
3A8
330
1F
100
AcDbEntity
  8
LAY-10
  6
CONTINUOUS
 62
     7
100
AcDbLine
 10
381.5000000000353
 20
180.6911546214599
 30
0.0
 11
381.0000000000353
 21
180.1911546214638
 31
0.0
  0
LINE
  5
3A9
330
1F
100
AcDbEntity
  8
LAY-10
  6
CONTINUOUS
 62
     7
100
AcDbLine
 10
384.2500000000348
 20
180.1911546214638
 30
0.0
 11
381.0000000000353
 21
180.1911546214638
 31
0.0
  0
LINE
  5
3AA
330
1F
100
AcDbEntity
  8
LAY-10
  6
CONTINUOUS
 62
     7
100
AcDbLine
 10
384.2500000000348
 20
180.6911546214599
 30
0.0
 11
381.5000000000353
 21
180.6911546214599
 31
0.0
  0
LINE
  5
3AB
330
1F
100
AcDbEntity
  8
LAY-10
  6
CONTINUOUS
 62
     7
100
AcDbLine
 10
385.7500000000358
 20
178.1911546214636
 30
0.0
 11
384.2500000000348
 21
178.1911546214636
 31
0.0
  0
LINE
  5
3AC
330
1F
100
AcDbEntity
  8
LAY-10
  6
CONTINUOUS
 62
     7
100
AcDbLine
 10
384.2500000000348
 20
178.1911546214636
 30
0.0
 11
384.2500000000348
 21
180.6911546214599
 31
0.0
  0
LINE
  5
3AD
330
1F
100
AcDbEntity
  8
LAY-10
  6
CONTINUOUS
 62
     7
100
AcDbLine
 10
385.7500000000358
 20
178.1911546214636
 30
0.0
 11
385.7500000000358
 21
180.6911546214599
 31
0.0
  0
LINE
  5
3AE
330
1F
100
AcDbEntity
  8
LAY-10
  6
CONTINUOUS
 62
     7
100
AcDbLine
 10
389.0000000000353
 20
180.1911546214638
 30
0.0
 11
385.7500000000358
 21
180.1911546214638
 31
0.0
  0
LINE
  5
3AF
330
1F
100
AcDbEntity
  8
LAY-10
  6
CONTINUOUS
 62
     7
100
AcDbLine
 10
388.5000000000353
 20
180.6911546214599
 30
0.0
 11
385.7500000000358
 21
180.6911546214599
 31
0.0
  0
LINE
  5
3B0
330
1F
100
AcDbEntity
  8
LAY-10
  6
CONTINUOUS
 62
     7
100
AcDbLine
 10
389.0000000000353
 20
180.1911546214638
 30
0.0
 11
388.5000000000353
 21
180.6911546214599
 31
0.0
  0
LINE
  5
3B1
330
1F
100
AcDbEntity
  8
LAY-10
  6
CONTINUOUS
 62
     7
100
AcDbLine
 10
389.0000000000353
 20
150.574457113424
 30
0.0
 11
389.0000000000353
 21
180.1911546214638
 31
0.0
  0
LINE
  5
3B2
330
1F
100
AcDbEntity
  8
LAY-10
  6
CONTINUOUS
 62
     7
100
AcDbLine
 10
381.0000000000353
 20
150.574457113424
 30
0.0
 11
381.0000000000353
 21
180.1911546214638
 31
0.0
  0
LINE
  5
3B3
330
1F
100
AcDbEntity
  8
LAY-10
  6
CONTINUOUS
 62
     7
100
AcDbLine
 10
397.5546040429611
 20
270.1810502412065
 30
0.0
 11
381.7751209444173
 21
180.6911546214599
 31
0.0
  0
LINE
  5
3B4
330
1F
100
AcDbEntity
  8
LAY-10
  6
CONTINUOUS
 62
     7
100
AcDbLine
 10
532.4453959571695
 20
270.1810502412106
 30
0.0
 11
553.5000000000734
 21
150.7744571134202
 31
0.0
  0
LINE
  5
3B5
330
1F
100
AcDbEntity
  8
LAY-10
  6
CONTINUOUS
 62
     7
100
AcDbLine
 10
536.3846269692192
 20
270.8756429518706
 30
0.0
 11
556.2392540923031
 21
158.2744571134197
 31
0.0
  0
LINE
  5
3B6
330
1F
100
AcDbEntity
  8
LAY-10
  6
CONTINUOUS
 62
     7
100
AcDbLine
 10
381.0000000000055
 20
167.7265188125912
 30
0.0
 11
379.0236416174819
 21
155.7744571134193
 31
0.0
  0
LINE
  5
3B7
330
1F
100
AcDbEntity
  8
LAY-10
  6
CONTINUOUS
 62
     7
100
AcDbLine
 10
379.0236416174858
 20
155.7744571134197
 30
0.0
 11
381.0000000000055
 21
155.7744571134197
 31
0.0
  0
LINE
  5
3B8
330
1F
100
AcDbEntity
  8
LAY-10
  6
CONTINUOUS
 62
     7
100
AcDbLine
 10
392.3249712884806
 20
155.7744571134193
 30
0.0
 11
389.0000000000057
 21
155.7744571134193
 31
0.0
  0
LINE
  5
3B9
330
1F
100
AcDbEntity
  8
LAY-10
  6
CONTINUOUS
 62
     7
100
AcDbLine
 10
412.8605507697026
 20
302.6934433315286
 30
0.0
 11
392.3249712884806
 21
155.7744571134193
 31
0.0
  0
LINE
  5
3BA
330
1F
100
AcDbEntity
  8
LAY-10
  6
CONTINUOUS
 62
     7
100
AcDbLine
 10
407.43373251573
 20
295.3889641483956
 30
0.0
 11
389.0000000000057
 21
173.6009161460607
 31
0.0
  0
LINE
  5
3BB
330
1F
100
AcDbEntity
  8
LAY-10
  6
CONTINUOUS
 62
     7
100
AcDbLine
 10
448.1983471328541
 20
155.7744571134193
 30
0.0
 11
436.5624790173052
 21
155.7744571134193
 31
0.0
  0
LINE
  5
3BC
330
1F
100
AcDbEntity
  8
LAY-10
  6
CONTINUOUS
 62
     7
100
AcDbLine
 10
426.5185305933165
 20
155.7744571134193
 30
0.0
 11
416.086096643533
 21
155.7744571134193
 31
0.0
  0
LINE
  5
3BD
330
1F
100
AcDbEntity
  8
LAY-10
  6
CONTINUOUS
 62
     7
100
AcDbLine
 10
407.4611626002119
 20
155.7744571134193
 30
0.0
 11
398.9431159494596
 21
155.7744571134193
 31
0.0
  0
LINE
  5
3BE
330
1F
100
AcDbEntity
  8
LAY-10
  6
CONTINUOUS
 62
     7
100
AcDbLine
 10
493.4375209827663
 20
155.7744571134193
 30
0.0
 11
481.8016528672175
 21
155.7744571134193
 31
0.0
  0
LINE
  5
3BF
330
1F
100
AcDbEntity
  8
LAY-10
  6
CONTINUOUS
 62
     7
100
AcDbLine
 10
513.9139033565382
 20
155.7744571134193
 30
0.0
 11
503.4814694067547
 21
155.7744571134193
 31
0.0
  0
LINE
  5
3C0
330
1F
100
AcDbEntity
  8
LAY-10
  6
CONTINUOUS
 62
     7
100
AcDbLine
 10
531.0568840506119
 20
155.7744571134193
 30
0.0
 11
522.5388373998596
 21
155.7744571134193
 31
0.0
  0
LINE
  5
3C1
330
1F
100
AcDbEntity
  8
LAY-10
  6
CONTINUOUS
 62
     7
100
AcDbLine
 10
543.6981972608012
 20
155.7744571134193
 30
0.0
 11
537.6750287115908
 21
155.7744571134193
 31
0.0
  0
LINE
  5
3C2
330
1F
100
AcDbEntity
  8
LAY-10
  6
CONTINUOUS
 62
     7
100
AcDbLine
 10
550.9763583825895
 20
155.7744571134193
 30
0.0
 11
547.8585369177931
 21
155.7744571134193
 31
0.0
  0
LINE
  5
3C3
330
1F
100
AcDbEntity
  8
LAY-10
  6
CONTINUOUS
 62
     7
100
AcDbLine
 10
471.0231685492466
 20
155.7744571134193
 30
0.0
 11
469.000000000006
 21
155.7744571134193
 31
0.0
  0
LINE
  5
3C4
330
1F
100
AcDbEntity
  8
LAY-10
  6
CONTINUOUS
 62
     7
100
AcDbLine
 10
465.000000000006
 20
155.7744571134193
 30
0.0
 11
458.9768314508247
 21
155.7744571134193
 31
0.0
  0
LINE
  5
3C5
330
1F
100
AcDbEntity
  8
LAY-10
  6
CONTINUOUS
 62
     7
100
AcDbLine
 10
418.3356470492866
 20
308.4159430728145
 30
0.0
 11
398.9431159494596
 21
155.7744571134193
 31
0.0
  0
LINE
  5
3C6
330
1F
100
AcDbEntity
  8
LAY-10
  6
CONTINUOUS
 62
     7
100
AcDbLine
 10
424.5931192407867
 20
310.5855428702126
 30
0.0
 11
407.4611626002119
 21
155.7744571134193
 31
0.0
  0
LINE
  5
3C7
330
1F
100
AcDbEntity
  8
LAY-10
  6
CONTINUOUS
 62
     7
100
AcDbLine
 10
430.6483380826036
 20
310.5677284859623
 30
0.0
 11
416.086096643533
 21
155.7744571134193
 31
0.0
  0
ARC
  5
3C8
330
1F
100
AcDbEntity
  8
LAY-10
  6
CONTINUOUS
 62
     7
100
AcDbCircle
 10
449.0826280274588
 20
309.7887192152174
 30
0.0
 40
4.090459470605653
100
AcDbArc
 50
358.1491664227634
 51
176.869413496934
  0
ARC
  5
3C9
330
1F
100
AcDbEntity
  8
LAY-10
  6
CONTINUOUS
 62
     7
100
AcDbCircle
 10
434.2859355313499
 20
310.2255199917744
 30
0.0
 40
3.653658694049798
100
AcDbArc
 50
355.7672071201807
 51
174.6256929824136
  0
ARC
  5
3CA
330
1F
100
AcDbEntity
  8
LAY-10
  6
CONTINUOUS
 62
     7
100
AcDbCircle
 10
421.6438628342522
 20
310.9119182885598
 30
0.0
 40
2.967260397269002
100
AcDbArc
 50
353.6851356342807
 51
44.0975006854048
  0
ARC
  5
3CB
330
1F
100
AcDbEntity
  8
LAY-10
  6
CONTINUOUS
 62
     7
100
AcDbCircle
 10
465.0000000000358
 20
309.6387002984156
 30
0.0
 40
4.240478387406484
100
AcDbArc
 50
0.6637003561408616
 51
179.3362996438591
  0
ARC
  5
3CC
330
1F
100
AcDbEntity
  8
LAY-10
  6
CONTINUOUS
 62
     7
100
AcDbCircle
 10
480.9173719726128
 20
309.7887192152174
 30
0.0
 40
4.090459470605653
100
AcDbArc
 50
3.130586503066043
 51
181.8508335772368
  0
ARC
  5
3CD
330
1F
100
AcDbEntity
  8
LAY-10
  6
CONTINUOUS
 62
     7
100
AcDbCircle
 10
495.7140644687215
 20
310.2255199917744
 30
0.0
 40
3.653658694049798
100
AcDbArc
 50
5.374307017586429
 51
184.2327928798194
  0
ARC
  5
3CE
330
1F
100
AcDbEntity
  8
LAY-10
  6
CONTINUOUS
 62
     7
100
AcDbCircle
 10
508.3561371658193
 20
310.9119182885598
 30
0.0
 40
2.967260397269002
100
AcDbArc
 50
135.9024993145953
 51
186.3148643657193
  0
LINE
  5
3CF
330
1F
100
AcDbEntity
  8
LAY-10
  6
CONTINUOUS
 62
     7
100
AcDbLine
 10
437.9296284929973
 20
309.955847127248
 30
0.0
 11
426.5185305933165
 21
155.7744571134193
 31
0.0
  0
LINE
  5
3D0
330
1F
100
AcDbEntity
  8
LAY-10
  6
CONTINUOUS
 62
     7
100
AcDbLine
 10
444.998272917746
 20
310.0121068121434
 30
0.0
 11
436.5624790173052
 21
155.7744571134193
 31
0.0
  0
LINE
  5
3D1
330
1F
100
AcDbEntity
  8
LAY-10
  6
CONTINUOUS
 62
     7
100
AcDbLine
 10
453.1709535010544
 20
309.6566075100399
 30
0.0
 11
448.1983471328541
 21
155.7744571134193
 31
0.0
  0
LINE
  5
3D2
330
1F
100
AcDbEntity
  8
LAY-10
  6
CONTINUOUS
 62
     7
100
AcDbLine
 10
458.9768314508247
 20
155.7744571134193
 30
0.0
 11
460.7598061103766
 21
309.6878198688124
 31
0.0
  0
LINE
  5
3D3
330
1F
100
AcDbEntity
  8
LAY-10
  6
CONTINUOUS
 62
     7
100
AcDbLine
 10
471.0231685492466
 20
155.7744571134193
 30
0.0
 11
469.2401938896948
 21
309.6878198688124
 31
0.0
  0
LINE
  5
3D4
330
1F
100
AcDbEntity
  8
LAY-10
  6
CONTINUOUS
 62
     7
100
AcDbLine
 10
476.8290464990172
 20
309.6566075100399
 30
0.0
 11
481.8016528672175
 21
155.7744571134193
 31
0.0
  0
LINE
  5
3D5
330
1F
100
AcDbEntity
  8
LAY-10
  6
CONTINUOUS
 62
     7
100
AcDbLine
 10
485.0017270823253
 20
310.0121068121434
 30
0.0
 11
493.4375209827663
 21
155.7744571134193
 31
0.0
  0
LINE
  5
3D6
330
1F
100
AcDbEntity
  8
LAY-10
  6
CONTINUOUS
 62
     7
100
AcDbLine
 10
492.0703715070741
 20
309.955847127248
 30
0.0
 11
503.4814694067547
 21
155.7744571134193
 31
0.0
  0
LINE
  5
3D7
330
1F
100
AcDbEntity
  8
LAY-10
  6
CONTINUOUS
 62
     7
100
AcDbLine
 10
499.3516619174678
 20
310.5677284859623
 30
0.0
 11
513.9139033565382
 21
155.7744571134193
 31
0.0
  0
LINE
  5
3D8
330
1F
100
AcDbEntity
  8
LAY-10
  6
CONTINUOUS
 62
     7
100
AcDbLine
 10
505.4068807592847
 20
310.5855428702126
 30
0.0
 11
522.5388373998596
 21
155.7744571134193
 31
0.0
  0
LINE
  5
3D9
330
1F
100
AcDbEntity
  8
LAY-10
  6
CONTINUOUS
 62
     7
100
AcDbLine
 10
511.6643529507847
 20
308.4159430728145
 30
0.0
 11
531.0568840506119
 21
155.7744571134193
 31
0.0
  0
LINE
  5
3DA
330
1F
100
AcDbEntity
  8
LAY-10
  6
CONTINUOUS
 62
     7
100
AcDbLine
 10
517.1394492303689
 20
302.6934433315286
 30
0.0
 11
537.6750287115908
 21
155.7744571134193
 31
0.0
  0
LINE
  5
3DB
330
1F
100
AcDbEntity
  8
LAY-10
  6
CONTINUOUS
 62
     7
100
AcDbLine
 10
522.5662674843416
 20
295.3889641483956
 30
0.0
 11
543.6981972608012
 21
155.7744571134193
 31
0.0
  0
LINE
  5
3DC
330
1F
100
AcDbEntity
  8
LAY-10
  6
CONTINUOUS
 62
     7
100
AcDbLine
 10
526.8277180389657
 20
287.7444202040196
 30
0.0
 11
547.8585369177931
 21
155.7744571134193
 31
0.0
  0
LINE
  5
3DD
330
1F
100
AcDbEntity
  8
LAY-10
  6
CONTINUOUS
 62
     7
100
AcDbLine
 10
531.0037078311764
 20
276.5594087686299
 30
0.0
 11
550.9763583825895
 21
155.7744571134193
 31
0.0
  0
LINE
  5
3DE
330
1F
100
AcDbEntity
  8
LAY-10
  6
CONTINUOUS
 62
     7
100
AcDbLine
 10
473.0000000000062
 20
143.7744571134188
 30
0.0
 11
473.0000000000062
 21
149.8264571134187
 31
0.0
  0
LINE
  5
3DF
330
1F
100
AcDbEntity
  8
LAY-10
  6
CONTINUOUS
 62
     7
100
AcDbLine
 10
469.000000000006
 20
143.7744571134188
 30
0.0
 11
469.000000000006
 21
149.8264571134187
 31
0.0
  0
ARC
  5
3E0
330
1F
100
AcDbEntity
  8
LAY-10
  6
CONTINUOUS
 62
     7
100
AcDbCircle
 10
471.000000000006
 20
147.5266603219748
 30
0.0
 40
3.047796791443853
100
AcDbArc
 50
48.98840640770117
 51
131.0115935922958
  0
ARC
  5
3E1
330
1F
100
AcDbEntity
  8
LAY-10
  6
CONTINUOUS
 62
     7
100
AcDbCircle
 10
465.000000000006
 20
139.5052699476433
 30
0.0
 40
11.06918716577541
100
AcDbArc
 50
68.81604434177181
 51
90.00000000000001
  0
LINE
  5
3E2
330
1F
100
AcDbEntity
  8
LAY-10
  6
CONTINUOUS
 62
     7
100
AcDbLine
 10
465.000000000008
 20
150.5744571134188
 30
0.0
 11
471.000000000006
 21
150.5744571134188
 31
0.0
  0
LINE
  5
3E3
330
1F
100
AcDbEntity
  8
LAY-10
  6
CONTINUOUS
 62
     7
100
AcDbLine
 10
469.000000000006
 20
150.5744571134188
 30
0.0
 11
469.000000000006
 21
180.9758158729399
 31
0.0
  0
LINE
  5
3E4
330
1F
100
AcDbEntity
  8
LAY-10
  6
CONTINUOUS
 62
     7
100
AcDbLine
 10
468.5000000000062
 20
181.475815872936
 30
0.0
 11
465.7500000000063
 21
181.475815872936
 31
0.0
  0
LINE
  5
3E5
330
1F
100
AcDbEntity
  8
LAY-10
  6
CONTINUOUS
 62
     7
100
AcDbLine
 10
469.000000000006
 20
180.9758158729399
 30
0.0
 11
465.7500000000063
 21
180.9758158729399
 31
0.0
  0
LINE
  5
3E6
330
1F
100
AcDbEntity
  8
LAY-10
  6
CONTINUOUS
 62
     7
100
AcDbLine
 10
465.7500000000063
 20
178.9758158729397
 30
0.0
 11
465.7500000000063
 21
181.475815872936
 31
0.0
  0
LINE
  5
3E7
330
1F
100
AcDbEntity
  8
LAY-10
  6
CONTINUOUS
 62
     7
100
AcDbLine
 10
465.7500000000063
 20
178.9758158729397
 30
0.0
 11
465.000000000008
 21
178.9758158729397
 31
0.0
  0
LINE
  5
3E8
330
1F
100
AcDbEntity
  8
LAY-10
  6
CONTINUOUS
 62
     7
100
AcDbLine
 10
469.000000000006
 20
180.9758158729399
 30
0.0
 11
468.5000000000058
 21
181.475815872936
 31
0.0
  0
LINE
  5
3E9
330
1F
100
AcDbEntity
  8
LAY-10
  6
CONTINUOUS
 62
     7
100
AcDbLine
 10
465.0000000000051
 20
150.7744571134202
 30
0.0
 11
389.0000000000353
 21
150.7744571134202
 31
0.0
  0
LINE
  5
3EA
330
1F
100
AcDbEntity
  8
LAY-10
  6
CONTINUOUS
 62
     7
100
AcDbLine
 10
568.0000000000152
 20
150.7744571134202
 30
0.0
 11
469.000000000006
 21
150.7744571134202
 31
0.0
  0
LINE
  5
3EB
330
1F
100
AcDbEntity
  8
LAY-10
  6
CONTINUOUS
 62
     7
100
AcDbLine
 10
403.1722819611058
 20
287.7444202040196
 30
0.0
 11
386.1122041515196
 21
180.6911546214599
 31
0.0
  0
LINE
  5
3EC
330
1F
100
AcDbEntity
  8
LAY-10
  6
CONTINUOUS
 62
     7
100
AcDbLine
 10
398.9962921688951
 20
276.5594087686299
 30
0.0
 11
383.1437947110887
 21
180.6911546214599
 31
0.0
  0
LINE
  5
3ED
330
1F
100
AcDbEntity
  8
LAY-10
  6
CONTINUOUS
 62
     7
100
AcDbLine
 10
358.8079594575533
 20
155.8562934933897
 30
0.0
 11
358.8146791901142
 21
155.7744571134197
 31
0.0
  0
LINE
  5
3EE
330
1F
100
AcDbEntity
  8
LAY-10
  6
CONTINUOUS
 62
     7
100
AcDbLine
 10
359.2252381959833
 20
150.7744571134202
 30
0.0
 11
359.2809979600457
 21
150.0953858561185
 31
0.0
  0
LINE
  5
3EF
330
1F
100
AcDbEntity
  8
LAY-10
  6
CONTINUOUS
 62
     7
100
AcDbLine
 10
390.5933517752537
 20
150.7744571134202
 30
0.0
 11
390.5912605637906
 21
150.574457113424
 31
0.0
  0
LINE
  5
3F0
330
1F
100
AcDbEntity
  8
LAY-10
  6
CONTINUOUS
 62
     7
100
AcDbLine
 10
373.496255436765
 20
156.7744571134214
 30
0.0
 11
349.8506030456103
 21
156.7744571134214
 31
0.0
  0
LINE
  5
3F1
330
1F
100
AcDbEntity
  8
LAY-10
  6
CONTINUOUS
 62
     7
100
AcDbLine
 10
392.4647461399812
 20
156.7744571134214
 30
0.0
 11
389.0000000000353
 21
156.7744571134214
 31
0.0
  0
LINE
  5
3F2
330
1F
100
AcDbEntity
  8
LAY-10
  6
CONTINUOUS
 62
     7
100
AcDbLine
 10
407.5718262297372
 20
156.7744571134214
 30
0.0
 11
399.0701622172419
 21
156.7744571134214
 31
0.0
  0
LINE
  5
3F3
330
1F
100
AcDbEntity
  8
LAY-10
  6
CONTINUOUS
 62
     7
100
AcDbLine
 10
426.5925414573948
 20
156.7744571134214
 30
0.0
 11
416.1801720597962
 21
156.7744571134214
 31
0.0
  0
LINE
  5
3F4
330
1F
100
AcDbEntity
  8
LAY-10
  6
CONTINUOUS
 62
     7
100
AcDbLine
 10
430.6060348464542
 20
150.7744571134202
 30
0.0
 11
430.7564301721517
 21
149.8525438778914
 31
0.0
  0
ARC
  5
3F5
330
1F
100
AcDbEntity
  8
LAY-10
  6
CONTINUOUS
 62
     7
100
AcDbCircle
 10
439.6902824793494
 20
151.62124463074
 30
0.0
 40
1.0
100
AcDbArc
 50
270.0
 51
302.1360376234795
  0
LINE
  5
3F6
330
1F
100
AcDbEntity
  8
LAY-10
  6
CONTINUOUS
 62
     7
100
AcDbLine
 10
441.6316945456809
 20
156.4367950573284
 30
0.0
 11
441.5047161045179
 21
155.7744571134193
 31
0.0
  0
LINE
  5
3F7
330
1F
100
AcDbEntity
  8
LAY-10
  6
CONTINUOUS
 62
     7
100
AcDbLine
 10
442.4541514971879
 20
156.316988688424
 30
0.0
 11
442.3997777763175
 21
155.7744571134193
 31
0.0
  0
LINE
  5
3F8
330
1F
100
AcDbEntity
  8
LAY-10
  6
CONTINUOUS
 62
     7
100
AcDbLine
 10
441.8986666578547
 20
150.7744571134202
 30
0.0
 11
441.8124123773572
 21
149.913826832834
 31
0.0
  0
LINE
  5
3F9
330
1F
100
AcDbEntity
  8
LAY-10
  6
CONTINUOUS
 62
     7
100
AcDbLine
 10
448.230661513407
 20
156.7744571134214
 30
0.0
 11
442.0402397961206
 21
156.7744571134214
 31
0.0
  0
LINE
  5
3FA
330
1F
100
AcDbEntity
  8
LAY-10
  6
CONTINUOUS
 62
     7
100
AcDbLine
 10
465.0000000000102
 20
156.7744571134214
 30
0.0
 11
458.9884157254298
 21
156.7744571134214
 31
0.0
  0
LINE
  5
3FB
330
1F
100
AcDbEntity
  8
LAY-10
  6
CONTINUOUS
 62
     7
100
AcDbLine
 10
487.9597602039001
 20
156.7744571134214
 30
0.0
 11
481.7693384866646
 21
156.7744571134214
 31
0.0
  0
LINE
  5
3FC
330
1F
100
AcDbEntity
  8
LAY-10
  6
CONTINUOUS
 62
     7
100
AcDbLine
 10
471.0115842746415
 20
156.7744571134214
 30
0.0
 11
469.000000000006
 21
156.7744571134214
 31
0.0
  0
LINE
  5
3FD
330
1F
100
AcDbEntity
  8
LAY-10
  6
CONTINUOUS
 62
     7
100
AcDbLine
 10
487.5458485028327
 20
156.316988688424
 30
0.0
 11
487.6002222237031
 21
155.7744571134193
 31
0.0
  0
LINE
  5
3FE
330
1F
100
AcDbEntity
  8
LAY-10
  6
CONTINUOUS
 62
     7
100
AcDbLine
 10
488.1013333421659
 20
150.7744571134202
 30
0.0
 11
488.1875876226634
 21
149.913826832834
 31
0.0
  0
LINE
  5
3FF
330
1F
100
AcDbEntity
  8
LAY-10
  6
CONTINUOUS
 62
     7
100
AcDbLine
 10
488.3683054543397
 20
156.4367950573284
 30
0.0
 11
488.4952838955027
 21
155.7744571134193
 31
0.0
  0
LINE
  5
400
330
1F
100
AcDbEntity
  8
LAY-10
  6
CONTINUOUS
 62
     7
100
AcDbLine
 10
499.3939651535664
 20
150.7744571134202
 30
0.0
 11
499.2435698278691
 21
149.8525438778914
 31
0.0
  0
ARC
  5
401
330
1F
100
AcDbEntity
  8
LAY-10
  6
CONTINUOUS
 62
     7
100
AcDbCircle
 10
490.3097175206712
 20
151.62124463074
 30
0.0
 40
1.0
100
AcDbArc
 50
237.8639623765205
 51
270.0
  0
LINE
  5
402
330
1F
100
AcDbEntity
  8
LAY-10
  6
CONTINUOUS
 62
     7
100
AcDbLine
 10
503.4074585426767
 20
156.7744571134198
 30
0.0
 11
513.8198279402752
 21
156.7744571134198
 31
0.0
  0
LINE
  5
403
330
1F
100
AcDbEntity
  8
LAY-10
  6
CONTINUOUS
 62
     7
100
AcDbLine
 10
522.4281737703344
 20
156.7744571134198
 30
0.0
 11
530.92983778283
 21
156.7744571134198
 31
0.0
  0
LINE
  5
404
330
1F
100
AcDbEntity
  8
LAY-10
  6
CONTINUOUS
 62
     7
100
AcDbLine
 10
537.5352538600904
 20
156.7744571134198
 30
0.0
 11
541.2021391083103
 21
156.7744571134198
 31
0.0
  0
LINE
  5
405
330
1F
100
AcDbEntity
  8
LAY-10
  6
CONTINUOUS
 62
     7
100
AcDbLine
 10
539.406648224767
 20
150.7744571134202
 30
0.0
 11
539.4147136417931
 21
150.0030939903631
 31
0.0
  0
LINE
  5
406
330
1F
100
AcDbEntity
  8
LAY-10
  6
CONTINUOUS
 62
     7
100
AcDbLine
 10
542.1769141624576
 20
155.9976467050557
 30
0.0
 11
542.2280168179907
 21
155.7744571134193
 31
0.0
  0
ARC
  5
407
330
1F
100
AcDbEntity
  8
LAY-10
  6
CONTINUOUS
 62
     7
100
AcDbCircle
 10
544.2048357669194
 20
151.6212446307408
 30
0.0
 40
1.0
100
AcDbArc
 50
237.8639623766039
 51
270.0
  0
LINE
  5
408
330
1F
100
AcDbEntity
  8
LAY-10
  6
CONTINUOUS
 62
     7
100
AcDbLine
 10
548.6178050533188
 20
155.9538337663992
 30
0.0
 11
548.5850985862139
 21
155.7744571134193
 31
0.0
  0
LINE
  5
409
330
1F
100
AcDbEntity
  8
LAY-10
  6
CONTINUOUS
 62
     7
100
AcDbLine
 10
547.6734284618819
 20
150.7744571134202
 30
0.0
 11
547.5019826427224
 21
149.8341728231725
 31
0.0
  0
LINE
  5
40A
330
1F
100
AcDbEntity
  8
LAY-10
  6
CONTINUOUS
 62
     7
100
AcDbLine
 10
550.8110012724717
 20
156.7744571134198
 30
0.0
 11
549.6015855249502
 21
156.7744571134198
 31
0.0
  0
LINE
  5
40B
330
1F
100
AcDbEntity
  8
LAY-10
  6
CONTINUOUS
 62
     7
100
AcDbLine
 10
580.1493969544204
 20
156.7744571134198
 30
0.0
 11
573.500000000015
 21
156.7744571134198
 31
0.0
  0
LINE
  5
40C
330
1F
100
AcDbEntity
  8
LAY-10
  6
CONTINUOUS
 62
     7
100
AcDbLine
 10
568.0000000000152
 20
150.7744571134209
 30
0.0
 11
562.4489645667284
 21
150.7744571134209
 31
0.0
  0
LINE
  5
40D
330
1F
100
AcDbEntity
  8
LAY-10
  6
CONTINUOUS
 62
     7
100
AcDbLine
 10
575.3474783516176
 20
150.7744571134209
 30
0.0
 11
573.0000000000089
 21
150.7744571134209
 31
0.0
  0
LINE
  5
40E
330
1F
100
AcDbEntity
  8
LAY-10
  6
CENTER
 62
     2
100
AcDbLine
 10
465.0000000000049
 20
835.00000000001
 30
0.0
 11
465.0000000000049
 21
425.0000000000101
 31
0.0
  0
LINE
  5
40F
330
1F
100
AcDbEntity
  8
LAY-10
  6
CENTER
 62
     2
100
AcDbLine
 10
260.0000000000051
 20
630.0000000000101
 30
0.0
 11
670.000000000005
 21
630.0000000000101
 31
0.0
  0
LINE
  5
410
330
1F
100
AcDbEntity
  8
LAY-10
  6
CENTER
 62
     2
100
AcDbLine
 10
385.0000000000025
 20
181.9520362565501
 30
0.0
 11
385.0000000000025
 21
123.8959715658752
 31
0.0
  0
ARC
  5
411
330
1F
100
AcDbEntity
  8
LAY-10
  6
CENTER
 62
     2
100
AcDbCircle
 10
300.5000000000048
 20
127.4166975080456
 30
0.0
 40
4.5
100
AcDbArc
 50
270.0
 51
0.0
  0
LINE
  5
412
330
1F
100
AcDbEntity
  8
LAY-10
  6
CENTER
 62
     2
100
AcDbLine
 10
305.0000000000044
 20
155.3600731810001
 30
0.0
 11
305.0000000000044
 21
127.4166975080501
 31
0.0
  0
LINE
  5
413
330
1F
100
AcDbEntity
  8
LAY-10
  6
CENTER
 62
     2
100
AcDbLine
 10
288.5000000000048
 20
122.9166975080456
 30
0.0
 11
300.5000000000048
 21
122.9166975080456
 31
0.0
  0
LINE
  5
414
330
1F
100
AcDbEntity
  8
LAY-10
  6
CENTER
 62
     2
100
AcDbLine
 10
465.0000000000051
 20
335.0
 30
0.0
 11
465.0000000000051
 21
72.41669750802998
 31
0.0
  0
LINE
  5
415
330
1F
100
AcDbEntity
  8
LAY-10
  6
CENTER
 62
     2
100
AcDbLine
 10
458.8142135407104
 20
735.5000000000057
 30
0.0
 11
471.185786459075
 21
735.5000000000057
 31
0.0
  0
LINE
  5
416
330
1F
100
AcDbEntity
  8
LAY-10
  6
CENTER
 62
     2
100
AcDbLine
 10
458.8142135407105
 20
524.5000000000059
 30
0.0
 11
471.185786459075
 21
524.5000000000059
 31
0.0
  0
LINE
  5
417
330
1F
100
AcDbEntity
  8
LAY-10
  6
CENTER
 62
     2
100
AcDbLine
 10
385.0000000000019
 20
636.0000000000084
 30
0.0
 11
385.000000000002
 21
624.0000000000084
 31
0.0
  0
LINE
  5
418
330
1F
100
AcDbEntity
  8
LAY-10
  6
CENTER
 62
     2
100
AcDbLine
 10
499.8038475769464
 20
557.7179676974179
 30
0.0
 11
510.1961524223597
 21
563.7179676974179
 31
0.0
  0
LINE
  5
419
330
1F
100
AcDbEntity
  8
LAY-10
  6
CENTER
 62
     2
100
AcDbLine
 10
507.9999999996522
 20
555.5218152747165
 30
0.0
 11
501.9999999996522
 21
565.9141201201297
 31
0.0
  0
LINE
  5
41A
330
1F
100
AcDbEntity
  8
LAY-10
  6
CENTER
 62
     2
100
AcDbLine
 10
499.8038475769464
 20
702.2820323026024
 30
0.0
 11
510.1961524223597
 21
696.2820323026024
 31
0.0
  0
LINE
  5
41B
330
1F
100
AcDbEntity
  8
LAY-10
  6
CENTER
 62
     2
100
AcDbLine
 10
507.9999999996522
 20
704.4781847253038
 30
0.0
 11
501.9999999996522
 21
694.0858798798905
 31
0.0
  0
LINE
  5
41C
330
1F
100
AcDbEntity
  8
LAY-10
  6
CENTER
 62
     2
100
AcDbLine
 10
570.5000000000339
 20
140.36344801574
 30
0.0
 11
570.5000000000339
 21
163.7872686253302
 31
0.0
  0
LINE
  5
41D
330
1F
100
AcDbEntity
  8
LAY-10
  6
CONTINUOUS
 62
     7
100
AcDbLine
 10
383.881250000045
 20
108.4166975080263
 30
0.0
 11
383.100000000045
 21
83.41669750802703
 31
0.0
  0
LINE
  5
41E
330
1F
100
AcDbEntity
  8
LAY-10
  6
CONTINUOUS
 62
     7
100
AcDbLine
 10
546.1187500000274
 20
108.4166975080263
 30
0.0
 11
546.9000000000269
 21
83.41669750802703
 31
0.0
  0
LINE
  5
41F
330
1F
100
AcDbEntity
  8
LAY-10
  6
HIDDEN
 62
     7
100
AcDbLine
 10
655.444166264941
 20
158.9125116856896
 30
0.0
 11
582.4424131037522
 21
139.3517508800928
 31
0.0
  0
ARC
  5
420
330
1F
100
AcDbEntity
  8
LAY-10
  6
HIDDEN
 62
     7
100
AcDbCircle
 10
656.380866850734
 20
155.4166975080299
 30
0.0
 40
3.619133149270851
100
AcDbArc
 50
0.0
 51
104.9999999999998
  0
LINE
  5
421
330
1F
100
AcDbEntity
  8
LAY-10
  6
CONTINUOUS
 62
     7
100
AcDbLine
 10
381.5000000000026
 20
129.9166975080347
 30
0.0
 11
381.5000000000026
 21
143.0000000000002
 31
0.0
  0
LINE
  5
422
330
1F
100
AcDbEntity
  8
LAY-10
  6
CONTINUOUS
 62
     7
100
AcDbLine
 10
388.500000000003
 20
129.9166975080347
 30
0.0
 11
388.500000000003
 21
143.0000000000002
 31
0.0
  0
LINE
  5
423
330
1F
100
AcDbEntity
  8
LAY-10
  6
CONTINUOUS
 62
     7
100
AcDbLine
 10
308.0000000000026
 20
149.4166975080252
 30
0.0
 11
307.5000000000012
 21
149.9166975080261
 31
0.0
  0
LINE
  5
424
330
1F
100
AcDbEntity
  8
LAY-10
  6
CONTINUOUS
 62
     7
100
AcDbLine
 10
302.0000000000035
 20
149.4166975080252
 30
0.0
 11
302.5000000000021
 21
149.9166975080261
 31
0.0
  0
LINE
  5
425
330
1F
100
AcDbEntity
  8
LAY-10
  6
CONTINUOUS
 62
     7
100
AcDbLine
 10
302.5000000000048
 20
148.4166975080402
 30
0.0
 11
302.5000000000048
 21
142.4166975080402
 31
0.0
  0
LINE
  5
426
330
1F
100
AcDbEntity
  8
LAY-10
  6
CONTINUOUS
 62
     7
100
AcDbLine
 10
307.5000000000048
 20
148.4166975080402
 30
0.0
 11
307.5000000000048
 21
142.4166975080402
 31
0.0
  0
LINE
  5
427
330
1F
100
AcDbEntity
  8
LAY-10
  6
CONTINUOUS
 62
     7
100
AcDbLine
 10
307.500000000023
 20
141.5506721042452
 30
0.0
 11
308.000000000023
 21
142.4166975080297
 31
0.0
  0
LINE
  5
428
330
1F
100
AcDbEntity
  8
LAY-10
  6
CONTINUOUS
 62
     7
100
AcDbLine
 10
302.499999999993
 20
141.5506721042488
 30
0.0
 11
301.999999999993
 21
142.4166975080333
 31
0.0
  0
LINE
  5
429
330
1F
100
AcDbEntity
  8
LAY-10
  6
CONTINUOUS
 62
     7
100
AcDbLine
 10
302.0000000000035
 20
149.4166975080252
 30
0.0
 11
302.0000000000035
 21
147.9166975080502
 31
0.0
  0
LINE
  5
42A
330
1F
100
AcDbEntity
  8
LAY-10
  6
CONTINUOUS
 62
     7
100
AcDbLine
 10
308.0000000000026
 20
149.4166975080252
 30
0.0
 11
308.0000000000026
 21
147.9166975080502
 31
0.0
  0
LINE
  5
42B
330
1F
100
AcDbEntity
  8
LAY-10
  6
HIDDEN
 62
     7
100
AcDbLine
 10
580.3757005796065
 20
136.6666599918721
 30
0.0
 11
580.1341893768449
 21
132.4608425384885
 31
0.0
  0
ARC
  5
42C
330
1F
100
AcDbEntity
  8
LAY-10
  6
HIDDEN
 62
     7
100
AcDbCircle
 10
583.3707666543576
 20
136.4946739230326
 30
0.0
 40
3.0
100
AcDbArc
 50
105.0000000000001
 51
176.7135061408608
  0
LINE
  5
42D
330
1F
100
AcDbEntity
  8
LAY-10
  6
CONTINUOUS
 62
     7
100
AcDbLine
 10
573.5000000000086
 20
150.7744571134209
 30
0.0
 11
573.5000000000086
 21
143.167295593022
 31
0.0
  0
LINE
  5
42E
330
1F
100
AcDbEntity
  8
LAY-10
  6
CONTINUOUS
 62
     7
100
AcDbLine
 10
567.5000000000086
 20
150.7744571134209
 30
0.0
 11
567.5000000000086
 21
141.5596004384352
 31
0.0
  0
LINE
  5
42F
330
1F
100
AcDbEntity
  8
LAY-10
  6
CONTINUOUS
 62
     7
100
AcDbLine
 10
573.000000000015
 20
158.2744571134315
 30
0.0
 11
573.000000000015
 21
146.2744571134338
 31
0.0
  0
LINE
  5
430
330
1F
100
AcDbEntity
  8
LAY-10
  6
CONTINUOUS
 62
     7
100
AcDbLine
 10
568.0000000000152
 20
158.2744571134315
 30
0.0
 11
568.0000000000152
 21
146.2744571134338
 31
0.0
  0
LINE
  5
431
330
1F
100
AcDbEntity
  8
LAY-10
  6
CONTINUOUS
 62
     7
100
AcDbLine
 10
388.5000000000353
 20
150.574457113424
 30
0.0
 11
388.5000000000353
 21
180.6911546214599
 31
0.0
  0
LINE
  5
432
330
1F
100
AcDbEntity
  8
LAY-10
  6
CONTINUOUS
 62
     7
100
AcDbLine
 10
381.5000000000353
 20
150.574457113424
 30
0.0
 11
381.5000000000353
 21
180.6911546214599
 31
0.0
  0
LINE
  5
433
330
1F
100
AcDbEntity
  8
LAY-10
  6
CONTINUOUS
 62
     7
100
AcDbLine
 10
468.5000000000062
 20
150.5744571134188
 30
0.0
 11
468.5000000000062
 21
181.475815872936
 31
0.0
  0
DIMENSION
  5
435
330
1F
100
AcDbEntity
  8
LAY-20
  6
CONTINUOUS
 62
     4
100
AcDbDimension
  2
*D15
 10
546.9000000000301
 20
47.4166975080268
 30
0.0
 11
465.000000000035
 21
54.91669750802679
 31
0.0
 70
   160
  1
Rｃ6（<>）
  3
ISO-25
100
AcDbAlignedDimension
 13
383.10000000004
 23
83.4166975080268
 33
0.0
 14
546.9000000000301
 24
83.4166975080268
 34
0.0
100
AcDbRotatedDimension
1001
ACAD
1000
DSTYLE
1002
{
1070
   270
1070
     2
1070
     6
1000
EX_BNORM
1070
     7
1000
EX_BNORM
1070
    41
1040
7.5
1070
    42
1040
4.5
1070
    44
1040
4.5
1070
    73
1070
     0
1070
    74
1070
     0
1070
    75
1070
     0
1070
    76
1070
     0
1070
    77
1070
     1
1070
    78
1070
     8
1070
   140
1040
9.3543312
1070
   147
1040
0.0
1070
   173
1070
     1
1070
   176
1070
     4
1070
   177
1070
     4
1070
   178
1070
     7
1070
   271
1070
     1
1070
   277
1070
     2
1070
   279
1070
     2
1070
   280
1070
     0
1070
   287
1070
     5
1070
   340
1005
434
1002
}
  0
DIMENSION
  5
443
330
1F
100
AcDbEntity
  8
LAY-20
  6
CONTINUOUS
 62
     4
100
AcDbDimension
  2
*D16
 10
665.00000000001
 20
401.9999999999998
 30
0.0
 11
465.00000000001
 21
409.4999999999998
 31
0.0
 70
   160
  1
%%c<>
  3
ISO-25
100
AcDbAlignedDimension
 13
265.0000000000101
 23
155.4166975080299
 33
0.0
 14
665.00000000001
 24
155.4166975080299
 34
0.0
100
AcDbRotatedDimension
1001
ACAD
1000
DSTYLE
1002
{
1070
   270
1070
     2
1070
     6
1000
EX_BNORM
1070
     7
1000
EX_BNORM
1070
    41
1040
7.5
1070
    42
1040
4.5
1070
    44
1040
4.5
1070
    73
1070
     0
1070
    74
1070
     0
1070
    75
1070
     0
1070
    76
1070
     0
1070
    77
1070
     1
1070
    78
1070
     8
1070
   140
1040
9.3543312
1070
   147
1040
0.0
1070
   173
1070
     1
1070
   176
1070
     4
1070
   177
1070
     4
1070
   178
1070
     7
1070
   271
1070
     1
1070
   277
1070
     2
1070
   279
1070
     2
1070
   280
1070
     0
1070
   287
1070
     5
1070
   340
1005
434
1002
}
  0
DIMENSION
  5
450
330
1F
100
AcDbEntity
  8
LAY-20
  6
CONTINUOUS
 62
     4
100
AcDbDimension
  2
*D17
 10
573.49999999997
 20
359.9999999999999
 30
0.0
 11
465.0000000000051
 21
367.4999999999999
 31
0.0
 70
   160
  1
%%c<>
  3
ISO-25
100
AcDbAlignedDimension
 13
356.5000000000401
 23
154.9999999999999
 33
0.0
 14
573.49999999997
 24
154.9999999999999
 34
0.0
100
AcDbRotatedDimension
1001
ACAD
1000
DSTYLE
1002
{
1070
   270
1070
     2
1070
     6
1000
EX_BNORM
1070
     7
1000
EX_BNORM
1070
    41
1040
7.5
1070
    42
1040
4.5
1070
    44
1040
4.5
1070
    73
1070
     0
1070
    74
1070
     0
1070
    75
1070
     0
1070
    76
1070
     0
1070
    77
1070
     1
1070
    78
1070
     8
1070
   140
1040
9.3543312
1070
   147
1040
0.0
1070
   173
1070
     1
1070
   176
1070
     4
1070
   177
1070
     4
1070
   178
1070
     7
1070
   271
1070
     1
1070
   277
1070
     2
1070
   279
1070
     2
1070
   280
1070
     0
1070
   287
1070
     5
1070
   340
1005
434
1002
}
  0
DIMENSION
  5
45D
330
1F
100
AcDbEntity
  8
LAY-20
  6
CONTINUOUS
 62
     4
100
AcDbDimension
  2
*D18
 10
695.0
 20
167.4166975080349
 30
0.0
 11
687.5
 21
122.4166975080309
 31
0.0
 70
   160
  3
ISO-25
100
AcDbAlignedDimension
 13
573.0
 23
77.4166975080268
 33
0.0
 14
664.0
 24
167.4166975080349
 34
0.0
 50
90.0
100
AcDbRotatedDimension
1001
ACAD
1000
DSTYLE
1002
{
1070
   270
1070
     2
1070
     6
1000
EX_BNORM
1070
     7
1000
EX_BNORM
1070
    41
1040
7.5
1070
    42
1040
4.5
1070
    44
1040
4.5
1070
    73
1070
     0
1070
    74
1070
     0
1070
    75
1070
     0
1070
    76
1070
     0
1070
    77
1070
     1
1070
    78
1070
     8
1070
   140
1040
9.3543312
1070
   147
1040
0.0
1070
   173
1070
     1
1070
   176
1070
     4
1070
   177
1070
     4
1070
   178
1070
     7
1070
   271
1070
     1
1070
   277
1070
     2
1070
   279
1070
     2
1070
   280
1070
     0
1070
   287
1070
     5
1070
   340
1005
434
1002
}
  0
DIMENSION
  5
46A
330
1F
100
AcDbEntity
  8
LAY-20
  6
CONTINUOUS
 62
     4
100
AcDbDimension
  2
*D19
 10
695.0
 20
167.41669750803
 30
0.0
 11
687.5
 21
249.095577310725
 31
0.0
 70
   160
  3
ISO-25
100
AcDbAlignedDimension
 13
465.00000000001
 23
330.77445711342
 33
0.0
 14
695.0
 24
167.41669750803
 34
0.0
 50
90.0
100
AcDbRotatedDimension
1001
ACAD
1000
DSTYLE
1002
{
1070
   270
1070
     2
1070
     6
1000
EX_BNORM
1070
     7
1000
EX_BNORM
1070
    41
1040
7.5
1070
    42
1040
4.5
1070
    44
1040
4.5
1070
    73
1070
     0
1070
    74
1070
     0
1070
    75
1070
     0
1070
    76
1070
     1
1070
    77
1070
     1
1070
    78
1070
     0
1070
   140
1040
9.3543312
1070
   147
1040
0.0
1070
   173
1070
     1
1070
   176
1070
     4
1070
   177
1070
     4
1070
   178
1070
     7
1070
   271
1070
     0
1070
   277
1070
     2
1070
   279
1070
     2
1070
   280
1070
     0
1070
   287
1070
     5
1070
   340
1005
434
1002
}
  0
DIMENSION
  5
476
330
1F
100
AcDbEntity
  8
LAY-20
  6
CONTINUOUS
 62
     4
100
AcDbDimension
  2
*D20
 10
607.50000000001
 20
381.0
 30
0.0
 11
465.00000000001
 21
388.5
 31
0.0
 70
   160
  1
%%c285
  3
ISO-25
100
AcDbAlignedDimension
 13
322.50000000001
 23
154.77445711342
 33
0.0
 14
607.50000000001
 24
154.77445711342
 34
0.0
100
AcDbRotatedDimension
1001
ACAD
1000
DSTYLE
1002
{
1070
   270
1070
     2
1070
     6
1000
EX_BNORM
1070
     7
1000
EX_BNORM
1070
    41
1040
7.5
1070
    42
1040
4.5
1070
    44
1040
4.5
1070
    73
1070
     0
1070
    74
1070
     0
1070
    75
1070
     0
1070
    76
1070
     0
1070
    77
1070
     1
1070
    78
1070
     8
1070
   140
1040
9.3543312
1070
   147
1040
0.0
1070
   173
1070
     1
1070
   176
1070
     4
1070
   177
1070
     4
1070
   178
1070
     7
1070
   271
1070
     1
1070
   277
1070
     2
1070
   279
1070
     2
1070
   280
1070
     0
1070
   287
1070
     5
1070
   340
1005
434
1002
}
  0
DIMENSION
  5
483
330
1F
100
AcDbEntity
  8
LAY-20
  6
CONTINUOUS
 62
     4
100
AcDbDimension
  2
*D21
 10
235.00000000001
 20
167.41669750804
 30
0.0
 11
227.50000000001
 21
147.416697508035
 31
0.0
 70
   160
  3
ISO-25
100
AcDbAlignedDimension
 13
357.34712708837
 23
127.41669750803
 33
0.0
 14
266.00000000001
 24
167.41669750804
 34
0.0
 50
90.0
100
AcDbRotatedDimension
1001
ACAD
1000
DSTYLE
1002
{
1070
   270
1070
     2
1070
     6
1000
EX_BNORM
1070
     7
1000
EX_BNORM
1070
    41
1040
7.5
1070
    42
1040
4.5
1070
    44
1040
4.5
1070
    73
1070
     0
1070
    74
1070
     0
1070
    75
1070
     0
1070
    76
1070
     0
1070
    77
1070
     1
1070
    78
1070
     8
1070
   140
1040
9.3543312
1070
   147
1040
0.0
1070
   173
1070
     1
1070
   176
1070
     4
1070
   177
1070
     4
1070
   178
1070
     7
1070
   271
1070
     1
1070
   277
1070
     2
1070
   279
1070
     2
1070
   280
1070
     0
1070
   287
1070
     5
1070
   340
1005
434
1002
}
  0
LINE
  5
490
330
1F
100
AcDbEntity
  8
LAY-255
  6
CONTINUOUS
 62
     7
100
AcDbLine
 10
1155.0
 20
66.0
 30
0.0
 11
855.0
 21
66.0
 31
0.0
  0
LINE
  5
491
330
1F
100
AcDbEntity
  8
LAY-255
  6
CONTINUOUS
 62
     7
100
AcDbLine
 10
866.4000000000001
 20
48.0
 30
0.0
 11
890.4000000000001
 21
63.0
 31
0.0
  0
LINE
  5
492
330
1F
100
AcDbEntity
  8
LAY-255
  6
CONTINUOUS
 62
     7
100
AcDbLine
 10
890.4000000000001
 20
63.0
 30
0.0
 11
914.4000000000001
 21
48.0
 31
0.0
  0
LINE
  5
493
330
1F
100
AcDbEntity
  8
LAY-255
  6
CONTINUOUS
 62
     7
100
AcDbLine
 10
914.4000000000001
 20
48.0
 30
0.0
 11
890.4000000000001
 21
33.0
 31
0.0
  0
LINE
  5
494
330
1F
100
AcDbEntity
  8
LAY-255
  6
CONTINUOUS
 62
     7
100
AcDbLine
 10
890.4000000000001
 20
33.0
 30
0.0
 11
866.4000000000001
 21
48.0
 31
0.0
  0
LINE
  5
495
330
1F
100
AcDbEntity
  8
LAY-255
  6
CONTINUOUS
 62
     7
100
AcDbLine
 10
15.0
 20
30.0
 30
0.0
 11
1155.0
 21
30.0
 31
0.0
  0
LINE
  5
496
330
1F
100
AcDbEntity
  8
LAY-255
  6
CONTINUOUS
 62
     7
100
AcDbLine
 10
15.0
 20
840.0
 30
0.0
 11
1155.0
 21
840.0
 31
0.0
  0
LINE
  5
497
330
1F
100
AcDbEntity
  8
LAY-255
  6
CONTINUOUS
 62
     7
100
AcDbLine
 10
15.0
 20
30.0
 30
0.0
 11
15.0
 21
840.0
 31
0.0
  0
LINE
  5
498
330
1F
100
AcDbEntity
  8
LAY-255
  6
CONTINUOUS
 62
     4
100
AcDbLine
 10
855.0
 20
84.0
 30
0.0
 11
1155.0
 21
84.0
 31
0.0
  0
LINE
  5
499
330
1F
100
AcDbEntity
  8
LAY-255
  6
CONTINUOUS
 62
     4
100
AcDbLine
 10
1005.0
 20
84.0
 30
0.0
 11
1005.0
 21
66.0
 31
0.0
  0
POINT
  5
49A
330
1F
100
AcDbEntity
  8
LAY-255
  6
CONTINUOUS
 62
     7
100
AcDbPoint
 10
867.0
 20
150.0
 30
0.0
  0
POINT
  5
49B
330
1F
100
AcDbEntity
  8
LAY-255
  6
CONTINUOUS
 62
     7
100
AcDbPoint
 10
867.0
 20
120.0
 30
0.0
  0
POINT
  5
49C
330
1F
100
AcDbEntity
  8
LAY-255
  6
CONTINUOUS
 62
     7
100
AcDbPoint
 10
867.0
 20
135.0
 30
0.0
  0
POINT
  5
49D
330
1F
100
AcDbEntity
  8
LAY-255
  6
CONTINUOUS
 62
     7
100
AcDbPoint
 10
867.0
 20
105.0
 30
0.0
  0
POINT
  5
49E
330
1F
100
AcDbEntity
  8
LAY-255
  6
CONTINUOUS
 62
     7
100
AcDbPoint
 10
867.0
 20
89.99999999999996
 30
0.0
  0
LINE
  5
49F
330
1F
100
AcDbEntity
  8
LAY-255
  6
CONTINUOUS
 62
     7
100
AcDbLine
 10
1155.0
 20
30.0
 30
0.0
 11
1155.0
 21
840.0
 31
0.0
  0
LINE
  5
4A0
330
1F
100
AcDbEntity
  8
LAY-255
  6
CONTINUOUS
 62
     7
100
AcDbLine
 10
855.0
 20
30.0
 30
0.0
 11
855.0
 21
216.0
 31
0.0
  0
LINE
  5
4A1
330
1F
100
AcDbEntity
  8
LAY-255
  6
CONTINUOUS
 62
     7
100
AcDbLine
 10
1155.0
 20
216.0
 30
0.0
 11
855.0
 21
216.0
 31
0.0
  0
LINE
  5
4A2
330
1F
100
AcDbEntity
  8
LAY-255
  6
CONTINUOUS
 62
     4
100
AcDbLine
 10
1149.0
 20
180.0
 30
0.0
 11
861.0
 21
180.0
 31
0.0
  0
LINE
  5
4A3
330
1F
100
AcDbEntity
  8
LAY-255
  6
CONTINUOUS
 62
     4
100
AcDbLine
 10
1149.0
 20
198.0
 30
0.0
 11
861.0
 21
198.0
 31
0.0
  0
POINT
  5
4A4
330
1F
100
AcDbEntity
  8
LAY-255
  6
CONTINUOUS
 62
     7
100
AcDbPoint
 10
900.0
 20
183.0
 30
0.0
  0
POINT
  5
4A5
330
1F
100
AcDbEntity
  8
LAY-255
  6
CONTINUOUS
 62
     7
100
AcDbPoint
 10
900.0
 20
201.0
 30
0.0
  0
POINT
  5
4A6
330
1F
100
AcDbEntity
  8
LAY-255
  6
CONTINUOUS
 62
     7
100
AcDbPoint
 10
867.0
 20
165.0
 30
0.0
  0
TEXT
  5
4A7
330
1F
100
AcDbEntity
  8
LAY-255
  6
CONTINUOUS
 62
     7
100
AcDbText
 10
924.415136826172
 20
46.63125
 30
0.0
 40
15.46875
  1
福西鋳物株式会社
 41
1.342692141742901
  7
EXCADSTD
100
AcDbText
  0
TEXT
  5
4A8
330
1F
100
AcDbEntity
  8
LAY-255
  6
CONTINUOUS
 62
     7
100
AcDbText
 10
925.528125
 20
35.94375
 30
0.0
 40
5.15625
  1
ＦＵＫＵＮＩＳＨＩ
 41
1.204799226045263
  7
EXCADSTD
100
AcDbText
  0
TEXT
  5
4A9
330
1F
100
AcDbEntity
  8
LAY-255
  6
CONTINUOUS
 62
     7
100
AcDbText
 10
998.1575892857143
 20
35.94375
 30
0.0
 40
5.15625
  1
ＦＯＵＮＤＲＹ
 41
1.243252752978497
  7
EXCADSTD
100
AcDbText
  0
TEXT
  5
4AA
330
1F
100
AcDbEntity
  8
LAY-255
  6
CONTINUOUS
 62
     7
100
AcDbText
 10
1055.983774651442
 20
35.94375
 30
0.0
 40
5.15625
  1
ＣＯ.,ＬＴＤ.
 41
1.243831271314936
  7
EXCADSTD
100
AcDbText
  0
TEXT
  5
4AB
330
1F
100
AcDbEntity
  8
LAY-255
  6
CONTINUOUS
 62
     7
100
AcDbText
 10
882.1031250000001
 20
41.15625
 30
0.0
 40
15.46875
  1
S
 41
0.7582677563636363
  7
EXCADSTD
100
AcDbText
  0
TEXT
  5
4AC
330
1F
100
AcDbEntity
  8
LAY-255
  6
CONTINUOUS
 62
     7
100
AcDbText
 10
891.3140625000001
 20
41.24823113208
 30
0.0
 40
15.46875
  1
F
 41
0.7440945272727273
  7
EXCADSTD
100
AcDbText
  0
TEXT
  5
4AD
330
1F
100
AcDbEntity
  8
LAY-255
  6
CONTINUOUS
 62
     7
100
AcDbText
 10
1011.31640625
 20
73.26562499999997
 30
0.0
 40
7.734375
  1
縮尺
 41
1.080708718181818
  7
EXCADSTD
100
AcDbText
  0
TEXT
  5
4AE
330
1F
100
AcDbEntity
  8
LAY-255
  6
CONTINUOUS
 62
     7
100
AcDbText
 10
861.45703125
 20
73.26562499999997
 30
0.0
 40
7.734375
  1
作成日
 41
1.000629973818182
  7
EXCADSTD
100
AcDbText
  0
TEXT
  5
4AF
330
1F
100
AcDbEntity
  8
LAY-255
  6
CONTINUOUS
 62
     7
100
AcDbText
 10
1044.84375
 20
70.68749999999997
 30
0.0
 40
10.3125
  1
１：３
 41
0.8844094952727272
  7
EXCADSTD
100
AcDbText
  0
TEXT
  5
4B0
330
1F
100
AcDbEntity
  8
LAY-255
  6
CONTINUOUS
 62
     7
100
AcDbText
 10
903.84375
 20
70.68749999999997
 30
0.0
 40
10.3125
  1
１３／１０／０９
 41
0.9642857649350649
  7
EXCADSTD
100
AcDbText
  0
TEXT
  5
4B1
330
1F
100
AcDbEntity
  8
LAY-255
  6
CONTINUOUS
 62
     7
100
AcDbText
 10
861.796875
 20
184.6875
 30
0.0
 40
10.3125
  1
型式
 41
1.056348480681818
  7
EXCADSTD
100
AcDbText
  0
TEXT
  5
4B2
330
1F
100
AcDbEntity
  8
LAY-255
  6
CONTINUOUS
 62
     7
100
AcDbText
 10
862.265625
 20
202.6875
 30
0.0
 40
10.3125
  1
品名
 41
0.978838634090909
  7
EXCADSTD
100
AcDbText
  0
TEXT
  5
4B3
330
1F
100
AcDbEntity
  8
LAY-255
  6
CONTINUOUS
 62
     7
100
AcDbText
 10
900.75
 20
202.6875
 30
0.0
 40
10.3125
  1
ルーフドレイン
 41
1.021169538599106
  7
EXCADSTD
100
AcDbText
  0
TEXT
  5
4B4
330
1F
100
AcDbEntity
  8
LAY-255
  6
CONTINUOUS
 62
     7
100
AcDbText
 10
868.125
 20
166.6875000000001
 30
0.0
 40
10.3125
  1
防水：アスファルト・シート・
 41
0.9866967752199413
  7
EXCADSTD
100
AcDbText
  0
TEXT
  5
4B5
330
1F
100
AcDbEntity
  8
LAY-255
  6
CONTINUOUS
 62
     7
100
AcDbText
 10
867.0
 20
151.6875
 30
0.0
 40
10.3125
  1
      露出アスファルト防水兼用
 41
0.894274438169777
  7
EXCADSTD
100
AcDbText
  0
TEXT
  5
4B6
330
1F
100
AcDbEntity
  8
LAY-255
  6
CONTINUOUS
 62
     7
100
AcDbText
 10
867.65625
 20
106.6875
 30
0.0
 40
10.3125
  1
接続：管用テーパねじ
 41
1.013063761157025
  7
EXCADSTD
100
AcDbText
  0
TEXT
  5
4B7
330
1F
100
AcDbEntity
  8
LAY-255
  6
CONTINUOUS
 62
     7
100
AcDbText
 10
867.5625
 20
121.6875
 30
0.0
 40
10.3125
  1
施工：打込用
 41
1.018700840909091
  7
EXCADSTD
100
AcDbText
  0
TEXT
  5
4B8
330
1F
100
AcDbEntity
  8
LAY-255
  6
CONTINUOUS
 62
     7
100
AcDbText
 10
867.703125
 20
136.6875
 30
0.0
 40
10.3125
  1
用途：屋上用
 41
1.016656625174825
  7
EXCADSTD
100
AcDbText
  0
TEXT
  5
4B9
330
1F
100
AcDbEntity
  8
LAY-255
  6
CONTINUOUS
 62
     7
100
AcDbText
 10
868.125
 20
91.68750000000004
 30
0.0
 40
10.3125
  1
※防水層張り掛け幅１００ｍｍ対応型
 41
1.011133181336544
  7
EXCADSTD
100
AcDbText
  0
TEXT
  5
4BA
330
1F
100
AcDbEntity
  8
LAY-255
  6
CONTINUOUS
 62
     7
100
AcDbText
 10
902.625
 20
184.6875
 30
0.0
 40
10.3125
  1
ＲＳＧＮＡ－９１５０型
 41
1.001258271602624
  7
EXCADSTD
100
AcDbText
  0
ENDSEC
  0
SECTION
  2
OBJECTS
  0
DICTIONARY
  5
C
330
0
100
AcDbDictionary
  3
ACAD_GROUP
350
D
  3
ACAD_LAYOUT
350
1A
  3
ACAD_MATERIAL
350
43
  3
ACAD_MLEADERSTYLE
350
6B
  3
ACAD_MLINESTYLE
350
17
  3
ACAD_PLOTSETTINGS
350
19
  3
ACAD_SCALELIST
350
47
  3
ACAD_VISUALSTYLE
350
2A
  3
ACDBHEADERROUNDTRIPXREC
350
4BB
  3
ACDBVARIABLEDICTIONARY
350
4DC
  0
DICTIONARY
  5
4E7
330
8
100
AcDbDictionary
280
     1
  3
ACAD_XREC_ROUNDTRIP
360
4E8
  0
DICTIONARY
  5
D
102
{ACAD_REACTORS
330
C
102
}
330
C
100
AcDbDictionary
  0
DICTIONARY
  5
1A
102
{ACAD_REACTORS
330
C
102
}
330
C
100
AcDbDictionary
  0
DICTIONARY
  5
43
102
{ACAD_REACTORS
330
C
102
}
330
C
100
AcDbDictionary
  3
BYBLOCK
350
45
  3
BYLAYER
350
44
  3
GLOBAL
350
46
  0
DICTIONARY
  5
6B
102
{ACAD_REACTORS
330
C
102
}
330
C
100
AcDbDictionary
  3
STANDARD
350
6C
  0
DICTIONARY
  5
17
102
{ACAD_REACTORS
330
C
102
}
330
C
100
AcDbDictionary
  3
STANDARD
350
18
  0
DICTIONARY
  5
19
102
{ACAD_REACTORS
330
C
102
}
330
C
100
AcDbDictionary
  0
DICTIONARY
  5
47
102
{ACAD_REACTORS
330
C
102
}
330
C
100
AcDbDictionary
  3
A0
350
48
  3
A1
350
49
  3
A2
350
4A
  3
A3
350
4B
  3
A4
350
4C
  3
A5
350
4D
  3
A6
350
4E
  3
A7
350
4F
  3
A8
350
50
  3
A9
350
51
  3
B0
350
52
  3
B1
350
53
  3
B2
350
54
  3
B3
350
55
  3
B4
350
56
  3
B5
350
57
  3
B6
350
58
  3
B7
350
59
  3
B8
350
5A
  3
B9
350
5B
  3
C0
350
5C
  3
C1
350
5D
  3
C2
350
5E
  3
C3
350
5F
  3
C4
350
60
  3
C5
350
61
  3
C6
350
62
  3
C7
350
63
  3
C8
350
64
  3
C9
350
65
  3
D0
350
66
  3
D1
350
67
  3
D2
350
68
  0
DICTIONARY
  5
2A
102
{ACAD_REACTORS
330
C
102
}
330
C
100
AcDbDictionary
  3
2DWIREFRAME
350
2F
  3
BASIC
350
32
  3
BRIGHTEN
350
36
  3
COLORCHANGE
350
3A
  3
CONCEPTUAL
350
34
  3
DIM
350
35
  3
EDGECOLOROFF
350
3D
  3
FACEPATTERN
350
39
  3
FLAT
350
2B
  3
FLATWITHEDGES
350
2C
  3
GOURAUD
350
2D
  3
GOURAUDWITHEDGES
350
2E
  3
HIDDEN
350
31
  3
JITTEROFF
350
3B
  3
LINEPATTERN
350
38
  3
OVERHANGOFF
350
3C
  3
REALISTIC
350
33
  3
SHADED
350
42
  3
SHADED_WITH_EDGES
350
41
  3
SHADES_OF_GRAY
350
3E
  3
SKETCHY
350
3F
  3
THICKEN
350
37
  3
WIREFRAME
350
30
  3
X-RAY
350
40
  0
DICTIONARY
  5
4BB
102
{ACAD_REACTORS
330
C
102
}
330
C
100
AcDbDictionary
  3
CEPSNID
350
4C5
  3
CEPSNTYPE
350
4C4
  3
DIMSTYLEDATA
350
4DB
  3
FINGERPRINTGUID
350
4C6
  3
HYPERLINKBASE
350
4BE
  3
INSUNITS
350
4C3
  3
LAYOUTDICT
350
4C0
  3
LWETCUNION
350
4C2
  3
PLOTSETDICT
350
4C1
  3
PSVPSCALE
350
4C8
  3
PUCSBASE
350
4CB
  3
PUCSORGBACK
350
4D1
  3
PUCSORGBOTTOM
350
4CD
  3
PUCSORGFRONT
350
4D0
  3
PUCSORGLEFT
350
4CE
  3
PUCSORGRIGHT
350
4CF
  3
PUCSORGTOP
350
4CC
  3
PUCSORTHOREF
350
4C9
  3
PUCSORTHOVIEW
350
4CA
  3
STYLESHEET
350
4BF
  3
TSTACKALIGN
350
4BC
  3
TSTACKSIZE
350
4BD
  3
UCSBASE
350
4D4
  3
UCSORGBACK
350
4DA
  3
UCSORGBOTTOM
350
4D6
  3
UCSORGFRONT
350
4D9
  3
UCSORGLEFT
350
4D7
  3
UCSORGRIGHT
350
4D8
  3
UCSORGTOP
350
4D5
  3
UCSORTHOREF
350
4D2
  3
UCSORTHOVIEW
350
4D3
  3
VERSIONGUID
350
4C7
  0
DICTIONARY
  5
4DC
102
{ACAD_REACTORS
330
C
102
}
330
C
100
AcDbDictionary
  3
CANNOSCALE
350
4E9
  3
CENTEREXE
350
4E3
  3
CENTERLTYPEFILE
350
4E4
  3
CMLEADERSTYLE
350
4DE
  3
CTABLESTYLE
350
4DD
  3
DIMASSOC
350
4E5
  3
HIDETEXT
350
4E6
  3
MSLTSCALE
350
4EA
  3
PSOLHEIGHT
350
4E0
  3
PSOLWIDTH
350
4DF
  0
XRECORD
  5
4E8
102
{ACAD_REACTORS
330
4E7
102
}
330
4E7
100
AcDbXrecord
102
VTR_0.000_0.000_1.000_1.000_VISUALSTYLE
340
2F
102
VTR_0.000_0.000_1.000_1.000_GRIDDISPLAY
 70
     3
102
VTR_0.000_0.000_1.000_1.000_GRIDMAJOR
 70
     5
102
VTR_0.000_0.000_1.000_1.000_DEFAULTLIGHTING
280
     1
102
VTR_0.000_0.000_1.000_1.000_DEFAULTLIGHTINGTYPE
 70
     1
102
VTR_0.000_0.000_1.000_1.000_BRIGHTNESS
141
0.0
102
VTR_0.000_0.000_1.000_1.000_CONTRAST
142
0.0
  0
MATERIAL
  5
45
102
{ACAD_REACTORS
330
43
102
}
102
{ACAD_XDICTIONARY
360
4ED
102
}
330
43
100
AcDbMaterial
  1
BYBLOCK
  0
MATERIAL
  5
44
102
{ACAD_REACTORS
330
43
102
}
102
{ACAD_XDICTIONARY
360
4EB
102
}
330
43
100
AcDbMaterial
  1
BYLAYER
  0
MATERIAL
  5
46
102
{ACAD_REACTORS
330
43
102
}
102
{ACAD_XDICTIONARY
360
4EF
102
}
330
43
100
AcDbMaterial
  1
GLOBAL
  0
ACAD_PROXY_OBJECT
  5
6C
102
{ACAD_REACTORS
330
6B
102
}
330
6B
100
AcDbProxyObject
 90
      499
 91
      505
 93
      610
310
40901902A4063FBFFFFFE0000000000000020400000000000020404214DD185B99185C990000000000000104090141901A00000000000004100000000000000041025764000000000000039000
340
14
340
0
340
11
340
0
 94
        0
1001
ACAD_MLEADERVER
1070
     2
  0
MLINESTYLE
  5
18
102
{ACAD_REACTORS
330
17
102
}
330
17
100
AcDbMlineStyle
  2
Standard
 70
     0
  3

 62
   256
 51
90.0
 52
90.0
 71
     2
 49
0.5
 62
   256
  6
BYLAYER
 49
-0.5
 62
   256
  6
BYLAYER
  0
ACAD_PROXY_OBJECT
  5
48
102
{ACAD_REACTORS
330
47
102
}
330
47
100
AcDbProxyObject
 90
      499
 91
      503
 93
       41
310
903313A31580
  0
ACAD_PROXY_OBJECT
  5
49
102
{ACAD_REACTORS
330
47
102
}
330
47
100
AcDbProxyObject
 90
      499
 91
      503
 93
      105
310
903313A324000000000000004000
  0
ACAD_PROXY_OBJECT
  5
4A
102
{ACAD_REACTORS
330
47
102
}
330
47
100
AcDbProxyObject
 90
      499
 91
      503
 93
      105
310
903313A344000000000000104000
  0
ACAD_PROXY_OBJECT
  5
4B
102
{ACAD_REACTORS
330
47
102
}
330
47
100
AcDbProxyObject
 90
      499
 91
      503
 93
      105
310
903313A354000000000000144000
  0
ACAD_PROXY_OBJECT
  5
4C
102
{ACAD_REACTORS
330
47
102
}
330
47
100
AcDbProxyObject
 90
      499
 91
      503
 93
      105
310
903313A384000000000000204000
  0
ACAD_PROXY_OBJECT
  5
4D
102
{ACAD_REACTORS
330
47
102
}
330
47
100
AcDbProxyObject
 90
      499
 91
      503
 93
      113
310
904313A31304000000000000244000
  0
ACAD_PROXY_OBJECT
  5
4E
102
{ACAD_REACTORS
330
47
102
}
330
47
100
AcDbProxyObject
 90
      499
 91
      503
 93
      113
310
904313A31364000000000000304000
  0
ACAD_PROXY_OBJECT
  5
4F
102
{ACAD_REACTORS
330
47
102
}
330
47
100
AcDbProxyObject
 90
      499
 91
      503
 93
      113
310
904313A32304000000000000344000
  0
ACAD_PROXY_OBJECT
  5
50
102
{ACAD_REACTORS
330
47
102
}
330
47
100
AcDbProxyObject
 90
      499
 91
      503
 93
      113
310
904313A333040000000000003E4000
  0
ACAD_PROXY_OBJECT
  5
51
102
{ACAD_REACTORS
330
47
102
}
330
47
100
AcDbProxyObject
 90
      499
 91
      503
 93
      113
310
904313A34304000000000000444000
  0
ACAD_PROXY_OBJECT
  5
52
102
{ACAD_REACTORS
330
47
102
}
330
47
100
AcDbProxyObject
 90
      499
 91
      503
 93
      113
310
904313A35304000000000000494000
  0
ACAD_PROXY_OBJECT
  5
53
102
{ACAD_REACTORS
330
47
102
}
330
47
100
AcDbProxyObject
 90
      499
 91
      503
 93
      121
310
905313A3130304000000000000594000
  0
ACAD_PROXY_OBJECT
  5
54
102
{ACAD_REACTORS
330
47
102
}
330
47
100
AcDbProxyObject
 90
      499
 91
      503
 93
      105
310
903323A310000000000000010100
  0
ACAD_PROXY_OBJECT
  5
55
102
{ACAD_REACTORS
330
47
102
}
330
47
100
AcDbProxyObject
 90
      499
 91
      503
 93
      105
310
903343A310000000000000410100
  0
ACAD_PROXY_OBJECT
  5
56
102
{ACAD_REACTORS
330
47
102
}
330
47
100
AcDbProxyObject
 90
      499
 91
      503
 93
      105
310
903383A310000000000000810100
  0
ACAD_PROXY_OBJECT
  5
57
102
{ACAD_REACTORS
330
47
102
}
330
47
100
AcDbProxyObject
 90
      499
 91
      503
 93
      113
310
90431303A310000000000000910100
  0
ACAD_PROXY_OBJECT
  5
58
102
{ACAD_REACTORS
330
47
102
}
330
47
100
AcDbProxyObject
 90
      499
 91
      503
 93
      121
310
9053130303A310000000000001650100
  0
ACAD_PROXY_OBJECT
  5
59
102
{ACAD_REACTORS
330
47
102
}
330
47
100
AcDbProxyObject
 90
      499
 91
      503
 93
      257
310
90E312F31323822203D2031272D3022000000000000200FC000000000000284000
  0
ACAD_PROXY_OBJECT
  5
5A
102
{ACAD_REACTORS
330
47
102
}
330
47
100
AcDbProxyObject
 90
      499
 91
      503
 93
      249
310
90D312F363422203D2031272D3022000000000000240FC000000000000284000
  0
ACAD_PROXY_OBJECT
  5
5B
102
{ACAD_REACTORS
330
47
102
}
330
47
100
AcDbProxyObject
 90
      499
 91
      503
 93
      249
310
90D312F333222203D2031272D3022000000000000280FC000000000000284000
  0
ACAD_PROXY_OBJECT
  5
5C
102
{ACAD_REACTORS
330
47
102
}
330
47
100
AcDbProxyObject
 90
      499
 91
      503
 93
      249
310
90D312F313622203D2031272D30220000000000002C0FC000000000000284000
  0
ACAD_PROXY_OBJECT
  5
5D
102
{ACAD_REACTORS
330
47
102
}
330
47
100
AcDbProxyObject
 90
      499
 91
      503
 93
      249
310
90D332F333222203D2031272D30220000000000002E0FC000000000000284000
  0
ACAD_PROXY_OBJECT
  5
5E
102
{ACAD_REACTORS
330
47
102
}
330
47
100
AcDbProxyObject
 90
      499
 91
      503
 93
      241
310
90C312F3822203D2031272D3022000000000000300FC000000000000284000
  0
ACAD_PROXY_OBJECT
  5
5F
102
{ACAD_REACTORS
330
47
102
}
330
47
100
AcDbProxyObject
 90
      499
 91
      503
 93
      249
310
90D332F313622203D2031272D3022000000000000320FC000000000000284000
  0
ACAD_PROXY_OBJECT
  5
60
102
{ACAD_REACTORS
330
47
102
}
330
47
100
AcDbProxyObject
 90
      499
 91
      503
 93
      241
310
90C312F3422203D2031272D3022000000000000340FC000000000000284000
  0
ACAD_PROXY_OBJECT
  5
61
102
{ACAD_REACTORS
330
47
102
}
330
47
100
AcDbProxyObject
 90
      499
 91
      503
 93
      241
310
90C332F3822203D2031272D3022000000000000360FC000000000000284000
  0
ACAD_PROXY_OBJECT
  5
62
102
{ACAD_REACTORS
330
47
102
}
330
47
100
AcDbProxyObject
 90
      499
 91
      503
 93
      241
310
90C312F3222203D2031272D3022000000000000380FC000000000000284000
  0
ACAD_PROXY_OBJECT
  5
63
102
{ACAD_REACTORS
330
47
102
}
330
47
100
AcDbProxyObject
 90
      499
 91
      503
 93
      241
310
90C332F3422203D2031272D30220000000000003A0FC000000000000284000
  0
ACAD_PROXY_OBJECT
  5
64
102
{ACAD_REACTORS
330
47
102
}
330
47
100
AcDbProxyObject
 90
      499
 91
      503
 93
      161
310
90A3122203D2031272D30224000000000000284000
  0
ACAD_PROXY_OBJECT
  5
65
102
{ACAD_REACTORS
330
47
102
}
330
47
100
AcDbProxyObject
 90
      499
 91
      503
 93
      257
310
90E312D312F3222203D2031272D30220000000000003E0FC000000000000284000
  0
ACAD_PROXY_OBJECT
  5
66
102
{ACAD_REACTORS
330
47
102
}
330
47
100
AcDbProxyObject
 90
      499
 91
      503
 93
      225
310
90A3322203D2031272D302200000000000002100000000000000284000
  0
ACAD_PROXY_OBJECT
  5
67
102
{ACAD_REACTORS
330
47
102
}
330
47
100
AcDbProxyObject
 90
      499
 91
      503
 93
      225
310
90A3622203D2031272D302200000000000006100000000000000284000
  0
ACAD_PROXY_OBJECT
  5
68
102
{ACAD_REACTORS
330
47
102
}
330
47
100
AcDbProxyObject
 90
      499
 91
      503
 93
      249
310
90D31272D3022203D2031272D30220000000000000A100000000000000284000
  0
ACAD_PROXY_OBJECT
  5
2F
102
{ACAD_REACTORS
330
2A
102
}
330
2A
100
AcDbProxyObject
 90
      499
 91
      501
 93
      436
310
42CC9915DA5C99599C985B595049028333333333333E33F0000000000000F90107901411070040501600405405064090741402480A0340
1001
ACAD
1000
AcDbSavedByObjectVersion
1070
     0
  0
ACAD_PROXY_OBJECT
  5
32
102
{ACAD_REACTORS
330
2A
102
}
330
2A
100
AcDbProxyObject
 90
      499
 91
      501
 93
      388
310
4150985CDA58D07406404333333333333E33F0000000000000F90107A41107004050150841D405064090741402480A0350
1001
ACAD
1000
AcDbSavedByObjectVersion
1070
     0
  0
ACAD_PROXY_OBJECT
  5
36
102
{ACAD_REACTORS
330
2A
102
}
330
2A
100
AcDbProxyObject
 90
      499
 91
      501
 93
      428
310
42109C9A59DA1D195B90C409028333333333333E33F0000000000000F9010790141107004050150841D405064090741402480A029950
1001
ACAD
1000
AcDbSavedByObjectVersion
1070
     0
  0
ACAD_PROXY_OBJECT
  5
3A
102
{ACAD_REACTORS
330
2A
102
}
330
2A
100
AcDbProxyObject
 90
      499
 91
      501
 93
      452
310
42D0DBDB1BDC90DA185B99D95104090240C333333333333E33F0000000000000F90108901411070040501508421405064090741402480A0350
1001
ACAD
1000
AcDbSavedByObjectVersion
1070
     0
  0
ACAD_PROXY_OBJECT
  5
34
102
{ACAD_REACTORS
330
2A
102
}
330
2A
100
AcDbProxyObject
 90
      499
 91
      501
 93
      500
310
4290DBDB98D95C1D1D585B10940D028333333333333E33F0000000000000F90107902409070040501000000000018199010841D405064090740C02480A0340
1001
ACAD
1000
AcDbSavedByObjectVersion
1070
     0
  0
ACAD_PROXY_OBJECT
  5
35
102
{ACAD_REACTORS
330
2A
102
}
330
2A
100
AcDbProxyObject
 90
      499
 91
      501
 93
      412
310
40D11A5B50B409028333333333333E33F0000000000000F9010790141107004050150841D405064090741402480A02677FFFFFD0
1001
ACAD
1000
AcDbSavedByObjectVersion
1070
     0
  0
ACAD_PROXY_OBJECT
  5
3D
102
{ACAD_REACTORS
330
2A
102
}
330
2A
100
AcDbProxyObject
 90
      499
 91
      501
 93
      452
310
43115919D950DBDB1BDC93D999916409028333333333333E33F0000000000000F9010790141107004050150841D405064090741402480A0350
1001
ACAD
1000
AcDbSavedByObjectVersion
1070
     0
  0
ACAD_PROXY_OBJECT
  5
39
102
{ACAD_REACTORS
330
2A
102
}
330
2A
100
AcDbProxyObject
 90
      499
 91
      501
 93
      444
310
42D19858D95C185D1D195C9B90F409028333333333333E33F0000000000000F9010790141107004050150841D405064090741402480A0350
1001
ACAD
1000
AcDbSavedByObjectVersion
1070
     0
  0
ACAD_PROXY_OBJECT
  5
2B
102
{ACAD_REACTORS
330
2A
102
}
330
2A
100
AcDbProxyObject
 90
      499
 91
      501
 93
      380
310
41119B185D240901404333333333333E33F0000000000000F9010740A907004050150841D405064090741402480A1B50
1001
ACAD
1000
AcDbSavedByObjectVersion
1070
     0
  0
ACAD_PROXY_OBJECT
  5
2C
102
{ACAD_REACTORS
330
2A
102
}
330
2A
100
AcDbProxyObject
 90
      499
 91
      501
 93
      468
310
43519B185D15DA5D1A115919D95CD0140901404333333333333E33F0000000000000F90107409019070040501600405405064090741402480A1B50
1001
ACAD
1000
AcDbSavedByObjectVersion
1070
     0
  0
ACAD_PROXY_OBJECT
  5
2D
102
{ACAD_REACTORS
330
2A
102
}
330
2A
100
AcDbProxyObject
 90
      499
 91
      501
 93
      404
310
41D1DBDD5C985D5910240902404333333333333E33F0000000000000F9010740A9070040501641D405064090741402480A1B50
1001
ACAD
1000
AcDbSavedByObjectVersion
1070
     0
  0
ACAD_PROXY_OBJECT
  5
2E
102
{ACAD_REACTORS
330
2A
102
}
330
2A
100
AcDbProxyObject
 90
      499
 91
      501
 93
      492
310
4411DBDD5C985D5915DA5D1A115919D95CD0340902404333333333333E33F0000000000000F90107409019070040501600405405064090741402480A1B50
1001
ACAD
1000
AcDbSavedByObjectVersion
1070
     0
  0
ACAD_PROXY_OBJECT
  5
31
102
{ACAD_REACTORS
330
2A
102
}
330
2A
100
AcDbProxyObject
 90
      499
 91
      501
 93
      476
310
41921A5919195B90640502408333333333333E33F0000000000000F901079024090700405020000000000001110200405405064090740C02480A0340
1001
ACAD
1000
AcDbSavedByObjectVersion
1070
     0
  0
ACAD_PROXY_OBJECT
  5
3B
102
{ACAD_REACTORS
330
2A
102
}
330
2A
100
AcDbProxyObject
 90
      499
 91
      501
 93
      428
310
42529A5D1D195C93D999914409028333333333333E33F0000000000000F9010790141107004050150A41D405064090741402480A0350
1001
ACAD
1000
AcDbSavedByObjectVersion
1070
     0
  0
ACAD_PROXY_OBJECT
  5
38
102
{ACAD_REACTORS
330
2A
102
}
330
2A
100
AcDbProxyObject
 90
      499
 91
      501
 93
      444
310
42D31A5B995C185D1D195C9B90E409028333333333333E33F0000000000000F9010790141107004050750841D405064090741402483A0350
1001
ACAD
1000
AcDbSavedByObjectVersion
1070
     0
  0
ACAD_PROXY_OBJECT
  5
3C
102
{ACAD_REACTORS
330
2A
102
}
330
2A
100
AcDbProxyObject
 90
      499
 91
      501
 93
      444
310
42D3DD995C9A185B99D3D999915409028333333333333E33F0000000000000F9010790141107004050150941D405064090741402480A0350
1001
ACAD
1000
AcDbSavedByObjectVersion
1070
     0
  0
ACAD_PROXY_OBJECT
  5
33
102
{ACAD_REACTORS
330
2A
102
}
330
2A
100
AcDbProxyObject
 90
      499
 91
      501
 93
      428
310
425499585B1A5CDD1A58D08409038333333333333E33F0000000000000F9010740A907004050150800405405064090740C02480A1B40
1001
ACAD
1000
AcDbSavedByObjectVersion
1070
     0
  0
ACAD_PROXY_OBJECT
  5
42
102
{ACAD_REACTORS
330
2A
102
}
330
2A
100
AcDbProxyObject
 90
      499
 91
      501
 93
      420
310
4194DA1859195911B40902404333333333333E33F0000000000000F9010740A41107004050150800405405064090840C02480A0B40
1001
ACAD
1000
AcDbSavedByObjectVersion
1070
     0
  0
ACAD_PROXY_OBJECT
  5
41
102
{ACAD_REACTORS
330
2A
102
}
330
2A
100
AcDbProxyObject
 90
      499
 91
      501
 93
      516
310
4454DA18591959081DDA5D1A08195919D95CD1A40902404333333333333E33F0000000000000F901074090142907004050250800405405064090740C02480A0B40
1001
ACAD
1000
AcDbSavedByObjectVersion
1070
     0
  0
ACAD_PROXY_OBJECT
  5
3E
102
{ACAD_REACTORS
330
2A
102
}
330
2A
100
AcDbProxyObject
 90
      499
 91
      501
 93
      532
310
4394DA1859195CC81BD98811DC985E5174090240C333333333333E33F0000000000000F901079024090741D01000000000000111010841D405064090740C02480A0340
1001
ACAD
1000
AcDbSavedByObjectVersion
1070
     0
  0
ACAD_PROXY_OBJECT
  5
3F
102
{ACAD_REACTORS
330
2A
102
}
330
2A
100
AcDbProxyObject
 90
      499
 91
      501
 93
      476
310
41D4DAD95D18DA1E51840502408333333333333E33F0000000000000F901079024090741D01000000000000111010B41D405064090741802480A0340
1001
ACAD
1000
AcDbSavedByObjectVersion
1070
     0
  0
ACAD_PROXY_OBJECT
  5
37
102
{ACAD_REACTORS
330
2A
102
}
330
2A
100
AcDbProxyObject
 90
      499
 91
      501
 93
      412
310
41D51A1A58DAD95B90D409028333333333333E33F0000000000000F9010790141107004050150C41D405064090741402480A0350
1001
ACAD
1000
AcDbSavedByObjectVersion
1070
     0
  0
ACAD_PROXY_OBJECT
  5
30
102
{ACAD_REACTORS
330
2A
102
}
330
2A
100
AcDbProxyObject
 90
      499
 91
      501
 93
      420
310
4255DA5C99599C985B595059028333333333333E33F0000000000000F90107901411070040501600405405064090740C02480A0340
1001
ACAD
1000
AcDbSavedByObjectVersion
1070
     0
  0
ACAD_PROXY_OBJECT
  5
40
102
{ACAD_REACTORS
330
2A
102
}
330
2A
100
AcDbProxyObject
 90
      499
 91
      501
 93
      404
310
41560B54985E51940902404000000000000E03F0000000000000F9010740501907004050150841D405064090740C02480A1B40
1001
ACAD
1000
AcDbSavedByObjectVersion
1070
     0
  0
XRECORD
  5
4C5
102
{ACAD_REACTORS
330
4BB
102
}
330
4BB
100
AcDbXrecord
340
0
  0
XRECORD
  5
4C4
102
{ACAD_REACTORS
330
4BB
102
}
330
4BB
100
AcDbXrecord
 90
        0
  0
XRECORD
  5
4DB
102
{ACAD_REACTORS
330
4BB
102
}
330
4BB
100
AcDbXrecord
1000
DSTYLE
1002
{
1070
   340
340
11
1002
}
  0
XRECORD
  5
4C6
102
{ACAD_REACTORS
330
4BB
102
}
330
4BB
100
AcDbXrecord
  1
{46678562-211b-4c44-bed3-7c87a169cd22}
  0
XRECORD
  5
4BE
102
{ACAD_REACTORS
330
4BB
102
}
330
4BB
100
AcDbXrecord
  1

  0
XRECORD
  5
4C3
102
{ACAD_REACTORS
330
4BB
102
}
330
4BB
100
AcDbXrecord
 90
        4
  0
XRECORD
  5
4C0
102
{ACAD_REACTORS
330
4BB
102
}
330
4BB
100
AcDbXrecord
340
1A
  0
XRECORD
  5
4C2
102
{ACAD_REACTORS
330
4BB
102
}
330
4BB
100
AcDbXrecord
 90
    10781
  0
XRECORD
  5
4C1
102
{ACAD_REACTORS
330
4BB
102
}
330
4BB
100
AcDbXrecord
340
19
  0
XRECORD
  5
4C8
102
{ACAD_REACTORS
330
4BB
102
}
330
4BB
100
AcDbXrecord
 40
0.0
  0
XRECORD
  5
4CB
102
{ACAD_REACTORS
330
4BB
102
}
330
4BB
100
AcDbXrecord
340
0
  0
XRECORD
  5
4D1
102
{ACAD_REACTORS
330
4BB
102
}
330
4BB
100
AcDbXrecord
 10
0.0
 20
0.0
 30
0.0
  0
XRECORD
  5
4CD
102
{ACAD_REACTORS
330
4BB
102
}
330
4BB
100
AcDbXrecord
 10
0.0
 20
0.0
 30
0.0
  0
XRECORD
  5
4D0
102
{ACAD_REACTORS
330
4BB
102
}
330
4BB
100
AcDbXrecord
 10
0.0
 20
0.0
 30
0.0
  0
XRECORD
  5
4CE
102
{ACAD_REACTORS
330
4BB
102
}
330
4BB
100
AcDbXrecord
 10
0.0
 20
0.0
 30
0.0
  0
XRECORD
  5
4CF
102
{ACAD_REACTORS
330
4BB
102
}
330
4BB
100
AcDbXrecord
 10
0.0
 20
0.0
 30
0.0
  0
XRECORD
  5
4CC
102
{ACAD_REACTORS
330
4BB
102
}
330
4BB
100
AcDbXrecord
 10
0.0
 20
0.0
 30
0.0
  0
XRECORD
  5
4C9
102
{ACAD_REACTORS
330
4BB
102
}
330
4BB
100
AcDbXrecord
340
0
  0
XRECORD
  5
4CA
102
{ACAD_REACTORS
330
4BB
102
}
330
4BB
100
AcDbXrecord
 70
     0
  0
XRECORD
  5
4BF
102
{ACAD_REACTORS
330
4BB
102
}
330
4BB
100
AcDbXrecord
  1

  0
XRECORD
  5
4BC
102
{ACAD_REACTORS
330
4BB
102
}
330
4BB
100
AcDbXrecord
 90
        1
  0
XRECORD
  5
4BD
102
{ACAD_REACTORS
330
4BB
102
}
330
4BB
100
AcDbXrecord
 90
       70
  0
XRECORD
  5
4D4
102
{ACAD_REACTORS
330
4BB
102
}
330
4BB
100
AcDbXrecord
340
0
  0
XRECORD
  5
4DA
102
{ACAD_REACTORS
330
4BB
102
}
330
4BB
100
AcDbXrecord
 10
0.0
 20
0.0
 30
0.0
  0
XRECORD
  5
4D6
102
{ACAD_REACTORS
330
4BB
102
}
330
4BB
100
AcDbXrecord
 10
0.0
 20
0.0
 30
0.0
  0
XRECORD
  5
4D9
102
{ACAD_REACTORS
330
4BB
102
}
330
4BB
100
AcDbXrecord
 10
0.0
 20
0.0
 30
0.0
  0
XRECORD
  5
4D7
102
{ACAD_REACTORS
330
4BB
102
}
330
4BB
100
AcDbXrecord
 10
0.0
 20
0.0
 30
0.0
  0
XRECORD
  5
4D8
102
{ACAD_REACTORS
330
4BB
102
}
330
4BB
100
AcDbXrecord
 10
0.0
 20
0.0
 30
0.0
  0
XRECORD
  5
4D5
102
{ACAD_REACTORS
330
4BB
102
}
330
4BB
100
AcDbXrecord
 10
0.0
 20
0.0
 30
0.0
  0
XRECORD
  5
4D2
102
{ACAD_REACTORS
330
4BB
102
}
330
4BB
100
AcDbXrecord
340
0
  0
XRECORD
  5
4D3
102
{ACAD_REACTORS
330
4BB
102
}
330
4BB
100
AcDbXrecord
 70
     0
  0
XRECORD
  5
4C7
102
{ACAD_REACTORS
330
4BB
102
}
330
4BB
100
AcDbXrecord
  1
{FAEB1C32-E019-11D5-929B-00C0DF256EC4}
  0
DICTIONARYVAR
  5
4E9
102
{ACAD_REACTORS
330
4DC
102
}
330
4DC
100
DictionaryVariables
280
     0
  1
1:1
  0
DICTIONARYVAR
  5
4E3
102
{ACAD_REACTORS
330
4DC
102
}
330
4DC
100
DictionaryVariables
280
     0
  1
3.500000
  0
DICTIONARYVAR
  5
4E4
102
{ACAD_REACTORS
330
4DC
102
}
330
4DC
100
DictionaryVariables
280
     0
  1
acadiso.lin
  0
DICTIONARYVAR
  5
4DE
102
{ACAD_REACTORS
330
4DC
102
}
330
4DC
100
DictionaryVariables
280
     0
  1
Standard
  0
DICTIONARYVAR
  5
4DD
102
{ACAD_REACTORS
330
4DC
102
}
330
4DC
100
DictionaryVariables
280
     0
  1
Standard
  0
DICTIONARYVAR
  5
4E5
102
{ACAD_REACTORS
330
4DC
102
}
330
4DC
100
DictionaryVariables
280
     0
  1
2
  0
DICTIONARYVAR
  5
4E6
102
{ACAD_REACTORS
330
4DC
102
}
330
4DC
100
DictionaryVariables
280
     0
  1
1
  0
DICTIONARYVAR
  5
4EA
102
{ACAD_REACTORS
330
4DC
102
}
330
4DC
100
DictionaryVariables
280
     0
  1
1
  0
DICTIONARYVAR
  5
4E0
102
{ACAD_REACTORS
330
4DC
102
}
330
4DC
100
DictionaryVariables
280
     0
  1
80.000000
  0
DICTIONARYVAR
  5
4DF
102
{ACAD_REACTORS
330
4DC
102
}
330
4DC
100
DictionaryVariables
280
     0
  1
5.000000
  0
DICTIONARY
  5
4ED
330
45
100
AcDbDictionary
280
     1
  3
ACAD_XREC_ROUNDTRIP
360
4EE
  0
DICTIONARY
  5
4EB
330
44
100
AcDbDictionary
280
     1
  3
ACAD_XREC_ROUNDTRIP
360
4EC
  0
DICTIONARY
  5
4EF
330
46
100
AcDbDictionary
280
     1
  3
ACAD_XREC_ROUNDTRIP
360
4F0
  0
XRECORD
  5
4EE
102
{ACAD_REACTORS
330
4ED
102
}
330
4ED
100
AcDbXrecord
102
MATERIAL
148
0.0
149
0.0
149
0.0
 93
        0
 94
      127
282
     0
 72
     1
 77
     1
171
     1
175
     1
179
     1
273
     0
  0
XRECORD
  5
4EC
102
{ACAD_REACTORS
330
4EB
102
}
330
4EB
100
AcDbXrecord
102
MATERIAL
148
0.0
149
0.0
149
0.0
 93
        0
 94
      127
282
     0
 72
     1
 77
     1
171
     1
175
     1
179
     1
273
     0
  0
XRECORD
  5
4F0
102
{ACAD_REACTORS
330
4EF
102
}
330
4EF
100
AcDbXrecord
102
MATERIAL
148
0.0
149
0.0
149
0.0
 93
        0
 94
      127
282
     0
 72
     1
 77
     1
171
     1
175
     1
179
     1
273
     0
  0
ENDSEC
  0
EOF
