  0
SECTION
  2
HEADER
  9
$ACADVER
  1
AC1014
  9
$ACADMAINTVER
 70
     9
  9
$DWGCODEPAGE
  3
ANSI_932
  9
$INSBASE
 10
0.0
 20
0.0
 30
0.0
  9
$EXTMIN
 10
20.0
 20
40.0
 30
0.0
  9
$EXTMAX
 10
1540.0
 20
1120.0
 30
0.0
  9
$LIMMIN
 10
0.0
 20
0.0
  9
$LIMMAX
 10
420.0
 20
297.0
  9
$ORTHOMODE
 70
     0
  9
$REGENMODE
 70
     1
  9
$FILLMODE
 70
     1
  9
$QTEXTMODE
 70
     0
  9
$MIRRTEXT
 70
     1
  9
$DRAGMODE
 70
     2
  9
$LTSCALE
 40
0.2
  9
$OSMODE
 70
    37
  9
$ATTMODE
 70
     1
  9
$TEXTSIZE
 40
2.5
  9
$TRACEWID
 40
1.0
  9
$TEXTSTYLE
  7
STANDARD
  9
$CLAYER
  8
LAY-10
  9
$CELTYPE
  6
BYLAYER
  9
$CECOLOR
 62
   256
  9
$CELTSCALE
 40
1.0
  9
$DELOBJ
 70
     1
  9
$DISPSILH
 70
     0
  9
$DIMSCALE
 40
1.0
  9
$DIMASZ
 40
2.5
  9
$DIMEXO
 40
0.625
  9
$DIMDLI
 40
3.75
  9
$DIMRND
 40
0.0
  9
$DIMDLE
 40
0.0
  9
$DIMEXE
 40
1.25
  9
$DIMTP
 40
0.0
  9
$DIMTM
 40
0.0
  9
$DIMTXT
 40
2.5
  9
$DIMCEN
 40
2.5
  9
$DIMTSZ
 40
0.0
  9
$DIMTOL
 70
     0
  9
$DIMLIM
 70
     0
  9
$DIMTIH
 70
     0
  9
$DIMTOH
 70
     0
  9
$DIMSE1
 70
     0
  9
$DIMSE2
 70
     0
  9
$DIMTAD
 70
     1
  9
$DIMZIN
 70
     8
  9
$DIMBLK
  1

  9
$DIMASO
 70
     1
  9
$DIMSHO
 70
     1
  9
$DIMPOST
  1

  9
$DIMAPOST
  1

  9
$DIMALT
 70
     0
  9
$DIMALTD
 70
     3
  9
$DIMALTF
 40
0.03937007874016
  9
$DIMLFAC
 40
1.0
  9
$DIMTOFL
 70
     1
  9
$DIMTVP
 40
0.0
  9
$DIMTIX
 70
     0
  9
$DIMSOXD
 70
     0
  9
$DIMSAH
 70
     0
  9
$DIMBLK1
  1

  9
$DIMBLK2
  1

  9
$DIMSTYLE
  2
ISO-25
  9
$DIMCLRD
 70
     0
  9
$DIMCLRE
 70
     0
  9
$DIMCLRT
 70
     0
  9
$DIMTFAC
 40
1.0
  9
$DIMGAP
 40
0.625
  9
$DIMJUST
 70
     0
  9
$DIMSD1
 70
     0
  9
$DIMSD2
 70
     0
  9
$DIMTOLJ
 70
     0
  9
$DIMTZIN
 70
     8
  9
$DIMALTZ
 70
     0
  9
$DIMALTTZ
 70
     0
  9
$DIMFIT
 70
     3
  9
$DIMUPT
 70
     0
  9
$DIMUNIT
 70
     2
  9
$DIMDEC
 70
     2
  9
$DIMTDEC
 70
     2
  9
$DIMALTU
 70
     2
  9
$DIMALTTD
 70
     3
  9
$DIMTXSTY
  7
STANDARD
  9
$DIMAUNIT
 70
     0
  9
$LUNITS
 70
     2
  9
$LUPREC
 70
     4
  9
$SKETCHINC
 40
1.0
  9
$FILLETRAD
 40
10.0
  9
$AUNITS
 70
     0
  9
$AUPREC
 70
     0
  9
$MENU
  1
.
  9
$ELEVATION
 40
0.0
  9
$PELEVATION
 40
0.0
  9
$THICKNESS
 40
0.0
  9
$LIMCHECK
 70
     0
  9
$CHAMFERA
 40
0.0
  9
$CHAMFERB
 40
0.0
  9
$CHAMFERC
 40
0.0
  9
$CHAMFERD
 40
0.0
  9
$SKPOLY
 70
     0
  9
$TDCREATE
 40
2459229.337508438
  9
$TDUPDATE
 40
2459229.337509132
  9
$TDINDWG
 40
0.0000000116
  9
$TDUSRTIMER
 40
0.0000000116
  9
$USRTIMER
 70
     1
  9
$ANGBASE
 50
0.0
  9
$ANGDIR
 70
     0
  9
$PDMODE
 70
     0
  9
$PDSIZE
 40
0.0
  9
$PLINEWID
 40
0.0
  9
$COORDS
 70
     1
  9
$SPLFRAME
 70
     0
  9
$SPLINETYPE
 70
     6
  9
$SPLINESEGS
 70
     8
  9
$ATTDIA
 70
     0
  9
$ATTREQ
 70
     1
  9
$HANDLING
 70
     1
  9
$HANDSEED
  5
5E5
  9
$SURFTAB1
 70
     6
  9
$SURFTAB2
 70
     6
  9
$SURFTYPE
 70
     6
  9
$SURFU
 70
     6
  9
$SURFV
 70
     6
  9
$UCSNAME
  2

  9
$UCSORG
 10
0.0
 20
0.0
 30
0.0
  9
$UCSXDIR
 10
1.0
 20
0.0
 30
0.0
  9
$UCSYDIR
 10
0.0
 20
1.0
 30
0.0
  9
$PUCSNAME
  2

  9
$PUCSORG
 10
0.0
 20
0.0
 30
0.0
  9
$PUCSXDIR
 10
1.0
 20
0.0
 30
0.0
  9
$PUCSYDIR
 10
0.0
 20
1.0
 30
0.0
  9
$USERI1
 70
     0
  9
$USERI2
 70
     0
  9
$USERI3
 70
     0
  9
$USERI4
 70
     0
  9
$USERI5
 70
     0
  9
$USERR1
 40
0.0
  9
$USERR2
 40
0.0
  9
$USERR3
 40
0.0
  9
$USERR4
 40
0.0
  9
$USERR5
 40
0.0
  9
$WORLDVIEW
 70
     1
  9
$SHADEDGE
 70
     3
  9
$SHADEDIF
 70
    70
  9
$TILEMODE
 70
     1
  9
$MAXACTVP
 70
    64
  9
$PINSBASE
 10
0.0
 20
0.0
 30
0.0
  9
$PLIMCHECK
 70
     0
  9
$PEXTMIN
 10
1.000000000000000E+20
 20
1.000000000000000E+20
 30
1.000000000000000E+20
  9
$PEXTMAX
 10
-1.000000000000000E+20
 20
-1.000000000000000E+20
 30
-1.000000000000000E+20
  9
$PLIMMIN
 10
0.0
 20
0.0
  9
$PLIMMAX
 10
420.0
 20
297.0
  9
$UNITMODE
 70
     0
  9
$VISRETAIN
 70
     1
  9
$PLINEGEN
 70
     0
  9
$PSLTSCALE
 70
     1
  9
$TREEDEPTH
 70
  3020
  9
$PICKSTYLE
 70
     1
  9
$CMLSTYLE
  2
STANDARD
  9
$CMLJUST
 70
     0
  9
$CMLSCALE
 40
20.0
  9
$PROXYGRAPHICS
 70
     1
  9
$MEASUREMENT
 70
     1
  0
ENDSEC
  0
SECTION
  2
CLASSES
  0
CLASS
  1
ACDBDICTIONARYWDFLT
  2
AcDbDictionaryWithDefault
  3
ObjectDBX Classes
 90
        0
280
     0
281
     0
  0
CLASS
  1
VISUALSTYLE
  2
AcDbVisualStyle
  3
ObjectDBX Classes
 90
     4095
280
     0
281
     0
  0
CLASS
  1
MATERIAL
  2
AcDbMaterial
  3
ObjectDBX Classes
 90
     1153
280
     0
281
     0
  0
CLASS
  1
SCALE
  2
AcDbScale
  3
ObjectDBX Classes
 90
     1153
280
     0
281
     0
  0
CLASS
  1
TABLESTYLE
  2
AcDbTableStyle
  3
ObjectDBX Classes
 90
     4095
280
     0
281
     0
  0
CLASS
  1
MLEADERSTYLE
  2
AcDbMLeaderStyle
  3
ACDB_MLEADERSTYLE_CLASS
 90
     4095
280
     0
281
     0
  0
CLASS
  1
SUN
  2
AcDbSun
  3
SCENEOE
 90
     1153
280
     0
281
     0
  0
CLASS
  1
DICTIONARYVAR
  2
AcDbDictionaryVar
  3
ObjectDBX Classes
 90
        0
280
     0
281
     0
  0
CLASS
  1
XRECORD
  2
AcDbXrecord
  3
ObjectDBX Classes
 90
        0
280
     0
281
     0
  0
CLASS
  1
LWPOLYLINE
  2
AcDbPolyline
  3
ObjectDBX Classes
 90
        0
280
     0
281
     1
  0
CLASS
  1
HATCH
  2
AcDbHatch
  3
ObjectDBX Classes
 90
        0
280
     0
281
     1
  0
CLASS
  1
ACDBPLACEHOLDER
  2
AcDbPlaceHolder
  3
ObjectDBX Classes
 90
        0
280
     0
281
     0
  0
CLASS
  1
LAYOUT
  2
AcDbLayout
  3
ObjectDBX Classes
 90
        0
280
     0
281
     0
  0
ENDSEC
  0
SECTION
  2
TABLES
  0
TABLE
  2
VPORT
  5
8
102
{ACAD_XDICTIONARY
360
5DA
102
}
330
0
100
AcDbSymbolTable
 70
     1
  0
VPORT
  5
29
330
8
100
AcDbSymbolTableRecord
100
AcDbViewportTableRecord
  2
*ACTIVE
 70
     0
 10
0.0
 20
0.0
 11
1.0
 21
1.0
 12
780.0000000000001
 22
580.0
 13
0.0
 23
0.0
 14
10.0
 24
10.0
 15
10.0
 25
10.0
 16
0.0
 26
0.0
 36
1.0
 17
0.0
 27
0.0
 37
0.0
 40
1080.0
 41
1.407407407407408
 42
50.0
 43
0.0
 44
0.0
 50
0.0
 51
0.0
 71
     0
 72
  1000
 73
     1
 74
     3
 75
     0
 76
     0
 77
     0
 78
     0
  0
ENDTAB
  0
TABLE
  2
LTYPE
  5
5
330
0
100
AcDbSymbolTable
 70
     6
  0
LTYPE
  5
14
330
5
100
AcDbSymbolTableRecord
100
AcDbLinetypeTableRecord
  2
BYBLOCK
 70
     0
  3

 72
    65
 73
     0
 40
0.0
  0
LTYPE
  5
15
330
5
100
AcDbSymbolTableRecord
100
AcDbLinetypeTableRecord
  2
BYLAYER
 70
     0
  3

 72
    65
 73
     0
 40
0.0
  0
LTYPE
  5
16
330
5
100
AcDbSymbolTableRecord
100
AcDbLinetypeTableRecord
  2
CONTINUOUS
 70
     0
  3
Solid line
 72
    65
 73
     0
 40
0.0
  0
LTYPE
  5
6E
330
5
100
AcDbSymbolTableRecord
100
AcDbLinetypeTableRecord
  2
HIDDEN
 70
     0
  3
Hidden __ __ __ __ __ __ __ __ __ __ __ __ __ __
 72
    65
 73
     2
 40
9.524999999999999
 49
6.35
 74
     0
 49
-3.175
 74
     0
  0
LTYPE
  5
6F
330
5
100
AcDbSymbolTableRecord
100
AcDbLinetypeTableRecord
  2
CENTER
 70
     0
  3
Center ____ _ ____ _ ____ _ ____ _ ____ _ ____
 72
    65
 73
     4
 40
50.8
 49
31.75
 74
     0
 49
-6.35
 74
     0
 49
6.35
 74
     0
 49
-6.35
 74
     0
  0
LTYPE
  5
70
330
5
100
AcDbSymbolTableRecord
100
AcDbLinetypeTableRecord
  2
PHANTOM
 70
     0
  3
Phantom ______  __  __  ______  __  __  ______ 
 72
    65
 73
     6
 40
63.50000000000001
 49
31.75
 74
     0
 49
-6.35
 74
     0
 49
6.35
 74
     0
 49
-6.35
 74
     0
 49
6.35
 74
     0
 49
-6.35
 74
     0
  0
LTYPE
  5
71
330
5
100
AcDbSymbolTableRecord
100
AcDbLinetypeTableRecord
  2
ACAD_ISO06W100
 70
     0
  3
ISO long-dash triple-dot ____ ... ____ ... ____
 72
    65
 73
     8
 40
36.0
 49
24.0
 74
     0
 49
-3.0
 74
     0
 49
0.0
 74
     0
 49
-3.0
 74
     0
 49
0.0
 74
     0
 49
-3.0
 74
     0
 49
0.0
 74
     0
 49
-3.0
 74
     0
  0
LTYPE
  5
72
330
5
100
AcDbSymbolTableRecord
100
AcDbLinetypeTableRecord
  2
ACAD_ISO15W100
 70
     0
  3
ISO double-dash triple-dot __ __ . . . __ __ . .
 72
    65
 73
    10
 40
39.0
 49
12.0
 74
     0
 49
-3.0
 74
     0
 49
12.0
 74
     0
 49
-3.0
 74
     0
 49
0.0
 74
     0
 49
-3.0
 74
     0
 49
0.0
 74
     0
 49
-3.0
 74
     0
 49
0.0
 74
     0
 49
-3.0
 74
     0
  0
ENDTAB
  0
TABLE
  2
LAYER
  5
2
330
0
100
AcDbSymbolTable
 70
     5
  0
LAYER
  5
10
330
2
100
AcDbSymbolTableRecord
100
AcDbLayerTableRecord
  2
0
 70
     0
 62
     7
  6
CONTINUOUS
  0
LAYER
  5
75
330
2
100
AcDbSymbolTableRecord
100
AcDbLayerTableRecord
  2
LAY-10
 70
     0
 62
     7
  6
CONTINUOUS
  0
LAYER
  5
76
330
2
100
AcDbSymbolTableRecord
100
AcDbLayerTableRecord
  2
LAY-20
 70
     0
 62
     7
  6
CONTINUOUS
  0
LAYER
  5
77
330
2
100
AcDbSymbolTableRecord
100
AcDbLayerTableRecord
  2
LAY-255
 70
     0
 62
     7
  6
CONTINUOUS
  0
LAYER
  5
529
330
2
100
AcDbSymbolTableRecord
100
AcDbLayerTableRecord
  2
DEFPOINTS
 70
     0
 62
     7
  6
CONTINUOUS
  0
ENDTAB
  0
TABLE
  2
STYLE
  5
3
330
0
100
AcDbSymbolTable
 70
     4
  0
STYLE
  5
11
330
3
100
AcDbSymbolTableRecord
100
AcDbTextStyleTableRecord
  2
STANDARD
 70
     0
 40
0.0
 41
1.0
 50
0.0
 71
     0
 42
2.5
  3
simplex
  4
bigfont
  0
STYLE
  5
73
330
3
100
AcDbSymbolTableRecord
100
AcDbTextStyleTableRecord
  2
EXCADSTD
 70
     0
 40
0.0
 41
1.0
 50
0.0
 71
     0
 42
2.5
  3
simplex
  4
bigfont
  0
STYLE
  5
74
330
3
100
AcDbSymbolTableRecord
100
AcDbTextStyleTableRecord
  2
EXCADVERT
 70
     4
 40
0.0
 41
1.0
 50
0.0
 71
     0
 42
2.5
  3
simplex
  4
bigfont
  0
STYLE
  5
527
330
3
100
AcDbSymbolTableRecord
100
AcDbTextStyleTableRecord
  2
EXCADDIM1
 70
     0
 40
0.0
 41
0.84
 50
0.0
 71
     0
 42
2.5
  3
simplex
  4
bigfont
  0
ENDTAB
  0
TABLE
  2
VIEW
  5
6
330
0
100
AcDbSymbolTable
 70
     0
  0
ENDTAB
  0
TABLE
  2
UCS
  5
7
330
0
100
AcDbSymbolTable
 70
     0
  0
ENDTAB
  0
TABLE
  2
APPID
  5
9
330
0
100
AcDbSymbolTable
 70
     2
  0
APPID
  5
12
330
9
100
AcDbSymbolTableRecord
100
AcDbRegAppTableRecord
  2
ACAD
 70
     0
  0
APPID
  5
5E4
330
9
100
AcDbSymbolTableRecord
100
AcDbRegAppTableRecord
  2
ACAD_MLEADERVER
 70
     0
  0
ENDTAB
  0
TABLE
  2
DIMSTYLE
  5
A
330
0
100
AcDbSymbolTable
 70
     1
  0
DIMSTYLE
105
27
102
{ACAD_REACTORS
330
528
330
536
330
543
330
550
330
55D
330
569
330
576
102
}
330
A
100
AcDbSymbolTableRecord
100
AcDbDimStyleTableRecord
  2
ISO-25
 70
     0
  3

  4

  5

  6

  7

 40
1.0
 41
2.5
 42
0.625
 43
3.75
 44
1.25
 45
0.0
 46
0.0
 47
0.0
 48
0.0
140
2.5
141
2.5
142
0.0
143
0.03937007874016
144
1.0
145
0.0
146
1.0
147
0.625
 71
     0
 72
     0
 73
     0
 74
     0
 75
     0
 76
     0
 77
     1
 78
     8
170
     0
171
     3
172
     1
173
     0
174
     0
175
     0
176
     0
177
     0
178
     0
270
     2
271
     2
272
     2
273
     2
274
     3
340
11
275
     0
280
     0
281
     0
282
     0
283
     0
284
     8
285
     0
286
     0
287
     5
288
     0
  0
ENDTAB
  0
TABLE
  2
BLOCK_RECORD
  5
1
330
0
100
AcDbSymbolTable
 70
    21
  0
BLOCK_RECORD
  5
1F
330
1
100
AcDbSymbolTableRecord
100
AcDbBlockTableRecord
  2
*MODEL_SPACE
  0
BLOCK_RECORD
  5
1B
330
1
100
AcDbSymbolTableRecord
100
AcDbBlockTableRecord
  2
*PAPER_SPACE
  0
BLOCK_RECORD
  5
78
330
1
100
AcDbSymbolTableRecord
100
AcDbBlockTableRecord
  2
EX_NORM
  0
BLOCK_RECORD
  5
7B
330
1
100
AcDbSymbolTableRecord
100
AcDbBlockTableRecord
  2
EX_BNORM
  0
BLOCK_RECORD
  5
7E
330
1
100
AcDbSymbolTableRecord
100
AcDbBlockTableRecord
  2
EX_BCIR
  0
BLOCK_RECORD
  5
81
330
1
100
AcDbSymbolTableRecord
100
AcDbBlockTableRecord
  2
EX_RCIVIL
  0
BLOCK_RECORD
  5
84
330
1
100
AcDbSymbolTableRecord
100
AcDbBlockTableRecord
  2
EX_SLANT
  0
BLOCK_RECORD
  5
87
330
1
100
AcDbSymbolTableRecord
100
AcDbBlockTableRecord
  2
EX_NONE
  0
BLOCK_RECORD
  5
8A
330
1
100
AcDbSymbolTableRecord
100
AcDbBlockTableRecord
  2
EX_CIVIL
  0
BLOCK_RECORD
  5
8D
330
1
100
AcDbSymbolTableRecord
100
AcDbBlockTableRecord
  2
EX_WCIR
  0
BLOCK_RECORD
  5
90
330
1
100
AcDbSymbolTableRecord
100
AcDbBlockTableRecord
  2
EX_WCIR2
  0
BLOCK_RECORD
  5
93
330
1
100
AcDbSymbolTableRecord
100
AcDbBlockTableRecord
  2
EX_WNORM
  0
BLOCK_RECORD
  5
96
330
1
100
AcDbSymbolTableRecord
100
AcDbBlockTableRecord
  2
EX_NNORM
  0
BLOCK_RECORD
  5
99
330
1
100
AcDbSymbolTableRecord
100
AcDbBlockTableRecord
  2
EX_BBOX
  0
BLOCK_RECORD
  5
9C
330
1
100
AcDbSymbolTableRecord
100
AcDbBlockTableRecord
  2
EX_WBOX
  0
BLOCK_RECORD
  5
9F
330
1
100
AcDbSymbolTableRecord
100
AcDbBlockTableRecord
  2
EX_INTEGRAL
  0
BLOCK_RECORD
  5
52A
330
1
100
AcDbSymbolTableRecord
100
AcDbBlockTableRecord
  2
*D15
  0
BLOCK_RECORD
  5
537
330
1
100
AcDbSymbolTableRecord
100
AcDbBlockTableRecord
  2
*D16
  0
BLOCK_RECORD
  5
544
330
1
100
AcDbSymbolTableRecord
100
AcDbBlockTableRecord
  2
*D17
  0
BLOCK_RECORD
  5
551
330
1
100
AcDbSymbolTableRecord
100
AcDbBlockTableRecord
  2
*D18
  0
BLOCK_RECORD
  5
55E
330
1
100
AcDbSymbolTableRecord
100
AcDbBlockTableRecord
  2
*D19
  0
BLOCK_RECORD
  5
56A
330
1
100
AcDbSymbolTableRecord
100
AcDbBlockTableRecord
  2
*D20
  0
BLOCK_RECORD
  5
577
330
1
100
AcDbSymbolTableRecord
100
AcDbBlockTableRecord
  2
*D21
  0
ENDTAB
  0
ENDSEC
  0
SECTION
  2
BLOCKS
  0
BLOCK
  5
20
330
1F
100
AcDbEntity
  8
0
100
AcDbBlockBegin
  2
*MODEL_SPACE
 70
     0
 10
0.0
 20
0.0
 30
0.0
  3
*MODEL_SPACE
  1

  0
ENDBLK
  5
21
330
1F
100
AcDbEntity
  8
0
100
AcDbBlockEnd
  0
BLOCK
  5
1C
330
1B
100
AcDbEntity
 67
     1
  8
0
100
AcDbBlockBegin
  2
*PAPER_SPACE
 70
     0
 10
0.0
 20
0.0
 30
0.0
  3
*PAPER_SPACE
  1

  0
ENDBLK
  5
1D
330
1B
100
AcDbEntity
 67
     1
  8
0
100
AcDbBlockEnd
  0
BLOCK
  5
79
330
78
100
AcDbEntity
  8
0
100
AcDbBlockBegin
  2
EX_NORM
 70
     0
 10
0.0
 20
0.0
 30
0.0
  3
EX_NORM
  1

  0
LINE
  5
A2
330
78
100
AcDbEntity
  8
0
  6
CONTINUOUS
 62
     0
100
AcDbLine
 10
0.0
 20
0.0
 30
0.0
 11
-1.0
 21
0.0
 31
0.0
  0
LINE
  5
A3
330
78
100
AcDbEntity
  8
0
  6
CONTINUOUS
 62
     0
100
AcDbLine
 10
0.0
 20
0.0
 30
0.0
 11
-1.0
 21
0.166666667
 31
0.0
  0
LINE
  5
A4
330
78
100
AcDbEntity
  8
0
  6
CONTINUOUS
 62
     0
100
AcDbLine
 10
0.0
 20
0.0
 30
0.0
 11
-1.0
 21
-0.166666667
 31
0.0
  0
ENDBLK
  5
7A
330
78
100
AcDbEntity
  8
0
100
AcDbBlockEnd
  0
BLOCK
  5
7C
330
7B
100
AcDbEntity
  8
0
100
AcDbBlockBegin
  2
EX_BNORM
 70
     0
 10
0.0
 20
0.0
 30
0.0
  3
EX_BNORM
  1

  0
LINE
  5
A5
330
7B
100
AcDbEntity
  8
0
  6
CONTINUOUS
 62
     0
100
AcDbLine
 10
0.0
 20
0.0
 30
0.0
 11
-1.0
 21
0.0
 31
0.0
  0
LINE
  5
A6
330
7B
100
AcDbEntity
  8
0
  6
CONTINUOUS
 62
     0
100
AcDbLine
 10
0.0
 20
0.0
 30
0.0
 11
-1.0
 21
0.166666667
 31
0.0
  0
LINE
  5
A7
330
7B
100
AcDbEntity
  8
0
  6
CONTINUOUS
 62
     0
100
AcDbLine
 10
0.0
 20
0.0
 30
0.0
 11
-1.0
 21
-0.166666667
 31
0.0
  0
LINE
  5
A8
330
7B
100
AcDbEntity
  8
0
  6
CONTINUOUS
 62
     0
100
AcDbLine
 10
0.0
 20
0.0
 30
0.0
 11
-1.0
 21
0.083333333
 31
0.0
  0
LINE
  5
A9
330
7B
100
AcDbEntity
  8
0
  6
CONTINUOUS
 62
     0
100
AcDbLine
 10
0.0
 20
0.0
 30
0.0
 11
-1.0
 21
-0.083333333
 31
0.0
  0
LINE
  5
AA
330
7B
100
AcDbEntity
  8
0
  6
CONTINUOUS
 62
     0
100
AcDbLine
 10
-1.0
 20
0.166666667
 30
0.0
 11
-1.0
 21
-0.166666667
 31
0.0
  0
ENDBLK
  5
7D
330
7B
100
AcDbEntity
  8
0
100
AcDbBlockEnd
  0
BLOCK
  5
7F
330
7E
100
AcDbEntity
  8
0
100
AcDbBlockBegin
  2
EX_BCIR
 70
     0
 10
0.0
 20
0.0
 30
0.0
  3
EX_BCIR
  1

  0
LINE
  5
AB
330
7E
100
AcDbEntity
  8
0
  6
CONTINUOUS
 62
     0
100
AcDbLine
 10
0.0
 20
0.0
 30
0.0
 11
-1.0
 21
0.0
 31
0.0
  0
CIRCLE
  5
AC
330
7E
100
AcDbEntity
  8
0
  6
CONTINUOUS
 62
     0
100
AcDbCircle
 10
0.0
 20
0.0
 30
0.0
 40
0.5
  0
CIRCLE
  5
AD
330
7E
100
AcDbEntity
  8
0
  6
CONTINUOUS
 62
     0
100
AcDbCircle
 10
0.0
 20
0.0
 30
0.0
 40
0.25
  0
ENDBLK
  5
80
330
7E
100
AcDbEntity
  8
0
100
AcDbBlockEnd
  0
BLOCK
  5
82
330
81
100
AcDbEntity
  8
0
100
AcDbBlockBegin
  2
EX_RCIVIL
 70
     0
 10
0.0
 20
0.0
 30
0.0
  3
EX_RCIVIL
  1

  0
LINE
  5
AE
330
81
100
AcDbEntity
  8
0
  6
CONTINUOUS
 62
     0
100
AcDbLine
 10
0.0
 20
0.0
 30
0.0
 11
-1.0
 21
0.0
 31
0.0
  0
LINE
  5
AF
330
81
100
AcDbEntity
  8
0
  6
CONTINUOUS
 62
     0
100
AcDbLine
 10
-1.0
 20
-0.25
 30
0.0
 11
0.0
 21
-0.25
 31
0.0
  0
LINE
  5
B0
330
81
100
AcDbEntity
  8
0
  6
CONTINUOUS
 62
     0
100
AcDbLine
 10
-1.0
 20
-0.125
 30
0.0
 11
0.0
 21
-0.125
 31
0.0
  0
ENDBLK
  5
83
330
81
100
AcDbEntity
  8
0
100
AcDbBlockEnd
  0
BLOCK
  5
85
330
84
100
AcDbEntity
  8
0
100
AcDbBlockBegin
  2
EX_SLANT
 70
     0
 10
0.0
 20
0.0
 30
0.0
  3
EX_SLANT
  1

  0
LINE
  5
B1
330
84
100
AcDbEntity
  8
0
  6
CONTINUOUS
 62
     0
100
AcDbLine
 10
0.0
 20
0.0
 30
0.0
 11
-1.0
 21
0.0
 31
0.0
  0
LINE
  5
B2
330
84
100
AcDbEntity
  8
0
  6
CONTINUOUS
 62
     0
100
AcDbLine
 10
0.707106781
 20
0.707106781
 30
0.0
 11
-0.707106781
 21
-0.707106781
 31
0.0
  0
ENDBLK
  5
86
330
84
100
AcDbEntity
  8
0
100
AcDbBlockEnd
  0
BLOCK
  5
88
330
87
100
AcDbEntity
  8
0
100
AcDbBlockBegin
  2
EX_NONE
 70
     0
 10
0.0
 20
0.0
 30
0.0
  3
EX_NONE
  1

  0
LINE
  5
B3
330
87
100
AcDbEntity
  8
0
  6
CONTINUOUS
 62
     0
100
AcDbLine
 10
0.0
 20
0.0
 30
0.0
 11
-1.0
 21
0.0
 31
0.0
  0
ENDBLK
  5
89
330
87
100
AcDbEntity
  8
0
100
AcDbBlockEnd
  0
BLOCK
  5
8B
330
8A
100
AcDbEntity
  8
0
100
AcDbBlockBegin
  2
EX_CIVIL
 70
     0
 10
0.0
 20
0.0
 30
0.0
  3
EX_CIVIL
  1

  0
LINE
  5
B4
330
8A
100
AcDbEntity
  8
0
  6
CONTINUOUS
 62
     0
100
AcDbLine
 10
0.0
 20
0.0
 30
0.0
 11
-1.0
 21
0.0
 31
0.0
  0
LINE
  5
B5
330
8A
100
AcDbEntity
  8
0
  6
CONTINUOUS
 62
     0
100
AcDbLine
 10
-1.0
 20
0.25
 30
0.0
 11
0.0
 21
0.25
 31
0.0
  0
LINE
  5
B6
330
8A
100
AcDbEntity
  8
0
  6
CONTINUOUS
 62
     0
100
AcDbLine
 10
-1.0
 20
0.125
 30
0.0
 11
0.0
 21
0.125
 31
0.0
  0
ENDBLK
  5
8C
330
8A
100
AcDbEntity
  8
0
100
AcDbBlockEnd
  0
BLOCK
  5
8E
330
8D
100
AcDbEntity
  8
0
100
AcDbBlockBegin
  2
EX_WCIR
 70
     0
 10
0.0
 20
0.0
 30
0.0
  3
EX_WCIR
  1

  0
LINE
  5
B7
330
8D
100
AcDbEntity
  8
0
  6
CONTINUOUS
 62
     0
100
AcDbLine
 10
0.0
 20
0.0
 30
0.0
 11
-1.0
 21
0.0
 31
0.0
  0
CIRCLE
  5
B8
330
8D
100
AcDbEntity
  8
0
  6
CONTINUOUS
 62
     0
100
AcDbCircle
 10
0.0
 20
0.0
 30
0.0
 40
0.5
  0
ENDBLK
  5
8F
330
8D
100
AcDbEntity
  8
0
100
AcDbBlockEnd
  0
BLOCK
  5
91
330
90
100
AcDbEntity
  8
0
100
AcDbBlockBegin
  2
EX_WCIR2
 70
     0
 10
0.0
 20
0.0
 30
0.0
  3
EX_WCIR2
  1

  0
LINE
  5
B9
330
90
100
AcDbEntity
  8
0
  6
CONTINUOUS
 62
     0
100
AcDbLine
 10
-0.5
 20
0.0
 30
0.0
 11
-1.0
 21
0.0
 31
0.0
  0
CIRCLE
  5
BA
330
90
100
AcDbEntity
  8
0
  6
CONTINUOUS
 62
     0
100
AcDbCircle
 10
0.0
 20
0.0
 30
0.0
 40
0.5
  0
ENDBLK
  5
92
330
90
100
AcDbEntity
  8
0
100
AcDbBlockEnd
  0
BLOCK
  5
94
330
93
100
AcDbEntity
  8
0
100
AcDbBlockBegin
  2
EX_WNORM
 70
     0
 10
0.0
 20
0.0
 30
0.0
  3
EX_WNORM
  1

  0
LINE
  5
BB
330
93
100
AcDbEntity
  8
0
  6
CONTINUOUS
 62
     0
100
AcDbLine
 10
-1.0
 20
0.0
 30
0.0
 11
-1.0
 21
0.0
 31
0.0
  0
LINE
  5
BC
330
93
100
AcDbEntity
  8
0
  6
CONTINUOUS
 62
     0
100
AcDbLine
 10
0.0
 20
0.0
 30
0.0
 11
-1.0
 21
0.166666667
 31
0.0
  0
LINE
  5
BD
330
93
100
AcDbEntity
  8
0
  6
CONTINUOUS
 62
     0
100
AcDbLine
 10
0.0
 20
0.0
 30
0.0
 11
-1.0
 21
-0.166666667
 31
0.0
  0
LINE
  5
BE
330
93
100
AcDbEntity
  8
0
  6
CONTINUOUS
 62
     0
100
AcDbLine
 10
-1.0
 20
0.166666667
 30
0.0
 11
-1.0
 21
-0.166666667
 31
0.0
  0
ENDBLK
  5
95
330
93
100
AcDbEntity
  8
0
100
AcDbBlockEnd
  0
BLOCK
  5
97
330
96
100
AcDbEntity
  8
0
100
AcDbBlockBegin
  2
EX_NNORM
 70
     0
 10
0.0
 20
0.0
 30
0.0
  3
EX_NNORM
  1

  0
LINE
  5
BF
330
96
100
AcDbEntity
  8
0
  6
CONTINUOUS
 62
     0
100
AcDbLine
 10
0.0
 20
0.0
 30
0.0
 11
-1.0
 21
0.0
 31
0.0
  0
LINE
  5
C0
330
96
100
AcDbEntity
  8
0
  6
CONTINUOUS
 62
     0
100
AcDbLine
 10
0.0
 20
0.0
 30
0.0
 11
-1.0
 21
0.166666667
 31
0.0
  0
LINE
  5
C1
330
96
100
AcDbEntity
  8
0
  6
CONTINUOUS
 62
     0
100
AcDbLine
 10
0.0
 20
0.0
 30
0.0
 11
-1.0
 21
-0.166666667
 31
0.0
  0
LINE
  5
C2
330
96
100
AcDbEntity
  8
0
  6
CONTINUOUS
 62
     0
100
AcDbLine
 10
-1.0
 20
0.166666667
 30
0.0
 11
-1.0
 21
-0.166666667
 31
0.0
  0
ENDBLK
  5
98
330
96
100
AcDbEntity
  8
0
100
AcDbBlockEnd
  0
BLOCK
  5
9A
330
99
100
AcDbEntity
  8
0
100
AcDbBlockBegin
  2
EX_BBOX
 70
     0
 10
0.0
 20
0.0
 30
0.0
  3
EX_BBOX
  1

  0
LINE
  5
C3
330
99
100
AcDbEntity
  8
0
  6
CONTINUOUS
 62
     0
100
AcDbLine
 10
0.0
 20
0.0
 30
0.0
 11
-1.0
 21
0.0
 31
0.0
  0
LINE
  5
C4
330
99
100
AcDbEntity
  8
0
  6
CONTINUOUS
 62
     0
100
AcDbLine
 10
-0.5
 20
0.5
 30
0.0
 11
0.5
 21
0.5
 31
0.0
  0
LINE
  5
C5
330
99
100
AcDbEntity
  8
0
  6
CONTINUOUS
 62
     0
100
AcDbLine
 10
0.5
 20
0.5
 30
0.0
 11
0.5
 21
-0.5
 31
0.0
  0
LINE
  5
C6
330
99
100
AcDbEntity
  8
0
  6
CONTINUOUS
 62
     0
100
AcDbLine
 10
0.5
 20
-0.5
 30
0.0
 11
-0.5
 21
-0.5
 31
0.0
  0
LINE
  5
C7
330
99
100
AcDbEntity
  8
0
  6
CONTINUOUS
 62
     0
100
AcDbLine
 10
-0.5
 20
-0.5
 30
0.0
 11
-0.5
 21
0.5
 31
0.0
  0
LINE
  5
C8
330
99
100
AcDbEntity
  8
0
  6
CONTINUOUS
 62
     0
100
AcDbLine
 10
-0.25
 20
0.25
 30
0.0
 11
0.25
 21
0.25
 31
0.0
  0
LINE
  5
C9
330
99
100
AcDbEntity
  8
0
  6
CONTINUOUS
 62
     0
100
AcDbLine
 10
0.25
 20
0.25
 30
0.0
 11
0.25
 21
-0.25
 31
0.0
  0
LINE
  5
CA
330
99
100
AcDbEntity
  8
0
  6
CONTINUOUS
 62
     0
100
AcDbLine
 10
0.25
 20
-0.25
 30
0.0
 11
-0.25
 21
-0.25
 31
0.0
  0
LINE
  5
CB
330
99
100
AcDbEntity
  8
0
  6
CONTINUOUS
 62
     0
100
AcDbLine
 10
-0.25
 20
-0.25
 30
0.0
 11
-0.25
 21
0.25
 31
0.0
  0
ENDBLK
  5
9B
330
99
100
AcDbEntity
  8
0
100
AcDbBlockEnd
  0
BLOCK
  5
9D
330
9C
100
AcDbEntity
  8
0
100
AcDbBlockBegin
  2
EX_WBOX
 70
     0
 10
0.0
 20
0.0
 30
0.0
  3
EX_WBOX
  1

  0
LINE
  5
CC
330
9C
100
AcDbEntity
  8
0
  6
CONTINUOUS
 62
     0
100
AcDbLine
 10
-0.5
 20
0.0
 30
0.0
 11
-1.0
 21
0.0
 31
0.0
  0
LINE
  5
CD
330
9C
100
AcDbEntity
  8
0
  6
CONTINUOUS
 62
     0
100
AcDbLine
 10
-0.5
 20
0.5
 30
0.0
 11
0.5
 21
0.5
 31
0.0
  0
LINE
  5
CE
330
9C
100
AcDbEntity
  8
0
  6
CONTINUOUS
 62
     0
100
AcDbLine
 10
0.5
 20
0.5
 30
0.0
 11
0.5
 21
-0.5
 31
0.0
  0
LINE
  5
CF
330
9C
100
AcDbEntity
  8
0
  6
CONTINUOUS
 62
     0
100
AcDbLine
 10
0.5
 20
-0.5
 30
0.0
 11
-0.5
 21
-0.5
 31
0.0
  0
LINE
  5
D0
330
9C
100
AcDbEntity
  8
0
  6
CONTINUOUS
 62
     0
100
AcDbLine
 10
-0.5
 20
-0.5
 30
0.0
 11
-0.5
 21
0.5
 31
0.0
  0
ENDBLK
  5
9E
330
9C
100
AcDbEntity
  8
0
100
AcDbBlockEnd
  0
BLOCK
  5
A0
330
9F
100
AcDbEntity
  8
0
100
AcDbBlockBegin
  2
EX_INTEGRAL
 70
     0
 10
0.0
 20
0.0
 30
0.0
  3
EX_INTEGRAL
  1

  0
LINE
  5
D1
330
9F
100
AcDbEntity
  8
0
  6
CONTINUOUS
 62
     0
100
AcDbLine
 10
0.0
 20
0.0
 30
0.0
 11
-1.0
 21
0.0
 31
0.0
  0
ARC
  5
D2
330
9F
100
AcDbEntity
  8
0
  6
CONTINUOUS
 62
     0
100
AcDbCircle
 10
0.542115
 20
0.164992
 30
0.0
 40
0.56667
100
AcDbArc
 50
73.07249033629006
 51
196.9275130221199
  0
ARC
  5
D3
330
9F
100
AcDbEntity
  8
0
  6
CONTINUOUS
 62
     0
100
AcDbCircle
 10
-0.542115
 20
-0.164992
 30
0.0
 40
0.56667
100
AcDbArc
 50
253.0724869220464
 51
16.9275130559125
  0
ENDBLK
  5
A1
330
9F
100
AcDbEntity
  8
0
100
AcDbBlockEnd
  0
BLOCK
  5
52B
330
52A
100
AcDbEntity
  8
0
100
AcDbBlockBegin
  2
*D15
 70
     1
 10
0.0
 20
0.0
 30
0.0
  3
*D15
  1

  0
LINE
  5
52D
330
52A
100
AcDbEntity
  8
LAY-20
  6
CONTINUOUS
 62
     4
100
AcDbLine
 10
334.00000000002
 20
229.80453818632
 30
0.0
 11
334.00000000002
 21
541.99999999998
 31
0.0
  0
LINE
  5
52E
330
52A
100
AcDbEntity
  8
LAY-20
  6
CONTINUOUS
 62
     4
100
AcDbLine
 10
826.00000000002
 20
229.80453818632
 30
0.0
 11
826.00000000002
 21
541.99999999998
 31
0.0
  0
LINE
  5
52F
330
52A
100
AcDbEntity
  8
LAY-20
  6
CONTINUOUS
 62
     4
100
AcDbLine
 10
344.00000000002
 20
535.99999999998
 30
0.0
 11
816.00000000002
 21
535.99999999998
 31
0.0
  0
INSERT
  5
530
330
52A
100
AcDbEntity
  8
LAY-20
 62
     4
100
AcDbBlockReference
  2
EX_BNORM
 10
334.00000000002
 20
535.99999999998
 30
0.0
 41
10.0
 42
10.0
 43
10.0
 50
180.0
  0
INSERT
  5
531
330
52A
100
AcDbEntity
  8
LAY-20
 62
     4
100
AcDbBlockReference
  2
EX_BNORM
 10
826.00000000002
 20
535.99999999998
 30
0.0
 41
10.0
 42
10.0
 43
10.0
  0
MTEXT
  5
532
330
52A
100
AcDbEntity
  8
LAY-20
 62
     7
100
AcDbMText
 10
580.00000000002
 20
545.99999999998
 30
0.0
 40
12.4724416
 41
0.0
 71
     5
 72
     1
  1
%%c492
  7
EXCADDIM1
  0
POINT
  5
533
330
52A
100
AcDbEntity
  8
DEFPOINTS
 62
     0
100
AcDbPoint
 10
334.00000000002
 20
223.80453818632
 30
0.0
  0
POINT
  5
534
330
52A
100
AcDbEntity
  8
DEFPOINTS
 62
     0
100
AcDbPoint
 10
826.00000000002
 20
223.80453818632
 30
0.0
  0
POINT
  5
535
330
52A
100
AcDbEntity
  8
DEFPOINTS
 62
     0
100
AcDbPoint
 10
826.00000000002
 20
535.99999999998
 30
0.0
  0
ENDBLK
  5
52C
330
52A
100
AcDbEntity
  8
0
100
AcDbBlockEnd
  0
BLOCK
  5
538
330
537
100
AcDbEntity
  8
0
100
AcDbBlockBegin
  2
*D16
 70
     1
 10
0.0
 20
0.0
 30
0.0
  3
*D16
  1

  0
LINE
  5
53A
330
537
100
AcDbEntity
  8
LAY-20
  6
CONTINUOUS
 62
     4
100
AcDbLine
 10
770.00000000002
 20
232.99999999998
 30
0.0
 11
770.00000000002
 21
513.99999999998
 31
0.0
  0
LINE
  5
53B
330
537
100
AcDbEntity
  8
LAY-20
  6
CONTINUOUS
 62
     4
100
AcDbLine
 10
390.00000000002
 20
232.99999999998
 30
0.0
 11
390.00000000002
 21
513.99999999998
 31
0.0
  0
LINE
  5
53C
330
537
100
AcDbEntity
  8
LAY-20
  6
CONTINUOUS
 62
     4
100
AcDbLine
 10
760.00000000002
 20
507.99999999998
 30
0.0
 11
400.00000000002
 21
507.99999999998
 31
0.0
  0
INSERT
  5
53D
330
537
100
AcDbEntity
  8
LAY-20
 62
     4
100
AcDbBlockReference
  2
EX_BNORM
 10
770.00000000002
 20
507.99999999998
 30
0.0
 41
10.0
 42
10.0
 43
10.0
  0
INSERT
  5
53E
330
537
100
AcDbEntity
  8
LAY-20
 62
     4
100
AcDbBlockReference
  2
EX_BNORM
 10
390.00000000002
 20
507.99999999998
 30
0.0
 41
10.0
 42
10.0
 43
10.0
 50
180.0
  0
MTEXT
  5
53F
330
537
100
AcDbEntity
  8
LAY-20
 62
     7
100
AcDbMText
 10
580.00000000002
 20
517.99999999998
 30
0.0
 40
12.4724416
 41
0.0
 71
     5
 72
     1
  1
%%c380
  7
EXCADDIM1
  0
POINT
  5
540
330
537
100
AcDbEntity
  8
DEFPOINTS
 62
     0
100
AcDbPoint
 10
770.00000000002
 20
226.99999999998
 30
0.0
  0
POINT
  5
541
330
537
100
AcDbEntity
  8
DEFPOINTS
 62
     0
100
AcDbPoint
 10
390.00000000002
 20
226.99999999998
 30
0.0
  0
POINT
  5
542
330
537
100
AcDbEntity
  8
DEFPOINTS
 62
     0
100
AcDbPoint
 10
390.00000000002
 20
507.99999999998
 30
0.0
  0
ENDBLK
  5
539
330
537
100
AcDbEntity
  8
0
100
AcDbBlockEnd
  0
BLOCK
  5
545
330
544
100
AcDbEntity
  8
0
100
AcDbBlockBegin
  2
*D17
 70
     1
 10
0.0
 20
0.0
 30
0.0
  3
*D17
  1

  0
LINE
  5
547
330
544
100
AcDbEntity
  8
LAY-20
  6
CONTINUOUS
 62
     4
100
AcDbLine
 10
405.00000000003
 20
237.99999999998
 30
0.0
 11
405.00000000003
 21
485.99999999998
 31
0.0
  0
LINE
  5
548
330
544
100
AcDbEntity
  8
LAY-20
  6
CONTINUOUS
 62
     4
100
AcDbLine
 10
755.00000000003
 20
237.99999999998
 30
0.0
 11
755.00000000003
 21
485.99999999998
 31
0.0
  0
LINE
  5
549
330
544
100
AcDbEntity
  8
LAY-20
  6
CONTINUOUS
 62
     4
100
AcDbLine
 10
415.00000000003
 20
479.99999999998
 30
0.0
 11
745.00000000003
 21
479.99999999998
 31
0.0
  0
INSERT
  5
54A
330
544
100
AcDbEntity
  8
LAY-20
 62
     4
100
AcDbBlockReference
  2
EX_BNORM
 10
405.00000000003
 20
479.99999999998
 30
0.0
 41
10.0
 42
10.0
 43
10.0
 50
180.0
  0
INSERT
  5
54B
330
544
100
AcDbEntity
  8
LAY-20
 62
     4
100
AcDbBlockReference
  2
EX_BNORM
 10
755.00000000003
 20
479.99999999998
 30
0.0
 41
10.0
 42
10.0
 43
10.0
  0
MTEXT
  5
54C
330
544
100
AcDbEntity
  8
LAY-20
 62
     7
100
AcDbMText
 10
580.00000000003
 20
489.99999999998
 30
0.0
 40
12.4724416
 41
0.0
 71
     5
 72
     1
  1
%%c350
  7
EXCADDIM1
  0
POINT
  5
54D
330
544
100
AcDbEntity
  8
DEFPOINTS
 62
     0
100
AcDbPoint
 10
405.00000000003
 20
231.99999999998
 30
0.0
  0
POINT
  5
54E
330
544
100
AcDbEntity
  8
DEFPOINTS
 62
     0
100
AcDbPoint
 10
755.00000000003
 20
231.99999999998
 30
0.0
  0
POINT
  5
54F
330
544
100
AcDbEntity
  8
DEFPOINTS
 62
     0
100
AcDbPoint
 10
755.00000000003
 20
479.99999999998
 30
0.0
  0
ENDBLK
  5
546
330
544
100
AcDbEntity
  8
0
100
AcDbBlockEnd
  0
BLOCK
  5
552
330
551
100
AcDbEntity
  8
0
100
AcDbBlockBegin
  2
*D18
 70
     1
 10
0.0
 20
0.0
 30
0.0
  3
*D18
  1

  0
LINE
  5
554
330
551
100
AcDbEntity
  8
LAY-20
  6
CONTINUOUS
 62
     4
100
AcDbLine
 10
831.00000000002
 20
235.80453818633
 30
0.0
 11
872.00000000003
 21
235.80453818633
 31
0.0
  0
LINE
  5
555
330
551
100
AcDbEntity
  8
LAY-20
  6
CONTINUOUS
 62
     4
100
AcDbLine
 10
600.90000000002
 20
439.99999999998
 30
0.0
 11
872.00000000003
 21
439.99999999998
 31
0.0
  0
LINE
  5
556
330
551
100
AcDbEntity
  8
LAY-20
  6
CONTINUOUS
 62
     4
100
AcDbLine
 10
866.00000000003
 20
245.80453818633
 30
0.0
 11
866.00000000003
 21
429.99999999998
 31
0.0
  0
INSERT
  5
557
330
551
100
AcDbEntity
  8
LAY-20
 62
     4
100
AcDbBlockReference
  2
EX_BNORM
 10
866.00000000003
 20
235.80453818633
 30
0.0
 41
10.0
 42
10.0
 43
10.0
 50
270.0
  0
INSERT
  5
558
330
551
100
AcDbEntity
  8
LAY-20
 62
     4
100
AcDbBlockReference
  2
EX_BNORM
 10
866.00000000003
 20
439.99999999998
 30
0.0
 41
10.0
 42
10.0
 43
10.0
 50
90.0
  0
MTEXT
  5
559
330
551
100
AcDbEntity
  8
LAY-20
 62
     7
100
AcDbMText
 10
856.00000000003
 20
337.902269093155
 30
0.0
 40
12.4724416
 41
0.0
 71
     5
 72
     1
  1
204
  7
EXCADDIM1
 11
0.0
 21
1.0
 31
0.0
  0
POINT
  5
55A
330
551
100
AcDbEntity
  8
DEFPOINTS
 62
     0
100
AcDbPoint
 10
825.00000000002
 20
235.80453818633
 30
0.0
  0
POINT
  5
55B
330
551
100
AcDbEntity
  8
DEFPOINTS
 62
     0
100
AcDbPoint
 10
594.90000000002
 20
439.99999999998
 30
0.0
  0
POINT
  5
55C
330
551
100
AcDbEntity
  8
DEFPOINTS
 62
     0
100
AcDbPoint
 10
866.00000000003
 20
439.99999999998
 30
0.0
  0
ENDBLK
  5
553
330
551
100
AcDbEntity
  8
0
100
AcDbBlockEnd
  0
BLOCK
  5
55F
330
55E
100
AcDbEntity
  8
0
100
AcDbBlockBegin
  2
*D19
 70
     1
 10
0.0
 20
0.0
 30
0.0
  3
*D19
  1

  0
LINE
  5
561
330
55E
100
AcDbEntity
  8
LAY-20
  6
CONTINUOUS
 62
     4
100
AcDbLine
 10
719.50000000002
 20
125.80453818633
 30
0.0
 11
872.00000000003
 21
125.80453818633
 31
0.0
  0
LINE
  5
562
330
55E
100
AcDbEntity
  8
LAY-20
  6
CONTINUOUS
 62
     4
100
AcDbLine
 10
866.00000000003
 20
135.80453818633
 30
0.0
 11
866.00000000003
 21
225.80453818633
 31
0.0
  0
INSERT
  5
563
330
55E
100
AcDbEntity
  8
LAY-20
 62
     4
100
AcDbBlockReference
  2
EX_BNORM
 10
866.00000000003
 20
125.80453818633
 30
0.0
 41
10.0
 42
10.0
 43
10.0
 50
270.0
  0
INSERT
  5
564
330
55E
100
AcDbEntity
  8
LAY-20
 62
     4
100
AcDbBlockReference
  2
EX_BNORM
 10
866.00000000003
 20
235.80453818633
 30
0.0
 41
10.0
 42
10.0
 43
10.0
 50
90.0
  0
MTEXT
  5
565
330
55E
100
AcDbEntity
  8
LAY-20
 62
     7
100
AcDbMText
 10
856.00000000003
 20
180.80453818633
 30
0.0
 40
12.4724416
 41
0.0
 71
     5
 72
     1
  1
110
  7
EXCADDIM1
 11
0.0
 21
1.0
 31
0.0
  0
POINT
  5
566
330
55E
100
AcDbEntity
  8
DEFPOINTS
 62
     0
100
AcDbPoint
 10
713.50000000002
 20
125.80453818633
 30
0.0
  0
POINT
  5
567
330
55E
100
AcDbEntity
  8
DEFPOINTS
 62
     0
100
AcDbPoint
 10
866.00000000003
 20
235.80453818633
 30
0.0
  0
POINT
  5
568
330
55E
100
AcDbEntity
  8
DEFPOINTS
 62
     0
100
AcDbPoint
 10
866.00000000003
 20
235.80453818633
 30
0.0
  0
ENDBLK
  5
560
330
55E
100
AcDbEntity
  8
0
100
AcDbBlockEnd
  0
BLOCK
  5
56B
330
56A
100
AcDbEntity
  8
0
100
AcDbBlockBegin
  2
*D20
 70
     1
 10
0.0
 20
0.0
 30
0.0
  3
*D20
  1

  0
LINE
  5
56D
330
56A
100
AcDbEntity
  8
LAY-20
  6
CONTINUOUS
 62
     4
100
AcDbLine
 10
472.70000000003
 20
129.80453818632
 30
0.0
 11
472.70000000003
 21
79.80453818632998
 31
0.0
  0
LINE
  5
56E
330
56A
100
AcDbEntity
  8
LAY-20
  6
CONTINUOUS
 62
     4
100
AcDbLine
 10
687.30000000002
 20
129.80453818632
 30
0.0
 11
687.30000000002
 21
79.80453818632998
 31
0.0
  0
LINE
  5
56F
330
56A
100
AcDbEntity
  8
LAY-20
  6
CONTINUOUS
 62
     4
100
AcDbLine
 10
482.70000000003
 20
85.80453818632998
 30
0.0
 11
677.30000000002
 21
85.80453818632998
 31
0.0
  0
INSERT
  5
570
330
56A
100
AcDbEntity
  8
LAY-20
 62
     4
100
AcDbBlockReference
  2
EX_BNORM
 10
472.70000000003
 20
85.80453818632998
 30
0.0
 41
10.0
 42
10.0
 43
10.0
 50
180.0
  0
INSERT
  5
571
330
56A
100
AcDbEntity
  8
LAY-20
 62
     4
100
AcDbBlockReference
  2
EX_BNORM
 10
687.30000000002
 20
85.80453818632998
 30
0.0
 41
10.0
 42
10.0
 43
10.0
  0
MTEXT
  5
572
330
56A
100
AcDbEntity
  8
LAY-20
 62
     7
100
AcDbMText
 10
580.000000000025
 20
95.80453818632998
 30
0.0
 40
12.4724416
 41
0.0
 71
     5
 72
     1
  1
ＰＴ8（214.6）
  7
EXCADDIM1
  0
POINT
  5
573
330
56A
100
AcDbEntity
  8
DEFPOINTS
 62
     0
100
AcDbPoint
 10
472.70000000003
 20
135.80453818632
 30
0.0
  0
POINT
  5
574
330
56A
100
AcDbEntity
  8
DEFPOINTS
 62
     0
100
AcDbPoint
 10
687.30000000002
 20
135.80453818632
 30
0.0
  0
POINT
  5
575
330
56A
100
AcDbEntity
  8
DEFPOINTS
 62
     0
100
AcDbPoint
 10
687.30000000002
 20
85.80453818632998
 30
0.0
  0
ENDBLK
  5
56C
330
56A
100
AcDbEntity
  8
0
100
AcDbBlockEnd
  0
BLOCK
  5
578
330
577
100
AcDbEntity
  8
0
100
AcDbBlockBegin
  2
*D21
 70
     1
 10
0.0
 20
0.0
 30
0.0
  3
*D21
  1

  0
LINE
  5
57A
330
577
100
AcDbEntity
  8
LAY-20
  6
CONTINUOUS
 62
     4
100
AcDbLine
 10
439.88564002367
 20
190.80453818633
 30
0.0
 11
288.00000000002
 21
190.80453818633
 31
0.0
  0
LINE
  5
57B
330
577
100
AcDbEntity
  8
LAY-20
  6
CONTINUOUS
 62
     4
100
AcDbLine
 10
329.00000000002
 20
235.80453818633
 30
0.0
 11
288.00000000002
 21
235.80453818633
 31
0.0
  0
LINE
  5
57C
330
577
100
AcDbEntity
  8
LAY-20
  6
CONTINUOUS
 62
     4
100
AcDbLine
 10
294.00000000002
 20
200.80453818633
 30
0.0
 11
294.00000000002
 21
225.80453818633
 31
0.0
  0
INSERT
  5
57D
330
577
100
AcDbEntity
  8
LAY-20
 62
     4
100
AcDbBlockReference
  2
EX_BNORM
 10
294.00000000002
 20
190.80453818633
 30
0.0
 41
10.0
 42
10.0
 43
10.0
 50
270.0
  0
INSERT
  5
57E
330
577
100
AcDbEntity
  8
LAY-20
 62
     4
100
AcDbBlockReference
  2
EX_BNORM
 10
294.00000000002
 20
235.80453818633
 30
0.0
 41
10.0
 42
10.0
 43
10.0
 50
90.0
  0
MTEXT
  5
57F
330
577
100
AcDbEntity
  8
LAY-20
 62
     7
100
AcDbMText
 10
284.00000000002
 20
213.30453818633
 30
0.0
 40
12.4724416
 41
0.0
 71
     5
 72
     1
  1
45
  7
EXCADDIM1
 11
0.0
 21
1.0
 31
0.0
  0
POINT
  5
580
330
577
100
AcDbEntity
  8
DEFPOINTS
 62
     0
100
AcDbPoint
 10
445.88564002367
 20
190.80453818633
 30
0.0
  0
POINT
  5
581
330
577
100
AcDbEntity
  8
DEFPOINTS
 62
     0
100
AcDbPoint
 10
335.00000000002
 20
235.80453818633
 30
0.0
  0
POINT
  5
582
330
577
100
AcDbEntity
  8
DEFPOINTS
 62
     0
100
AcDbPoint
 10
294.00000000002
 20
235.80453818633
 30
0.0
  0
ENDBLK
  5
579
330
577
100
AcDbEntity
  8
0
100
AcDbBlockEnd
  0
ENDSEC
  0
SECTION
  2
ENTITIES
  0
LINE
  5
D4
330
1F
100
AcDbEntity
  8
LAY-10
  6
CONTINUOUS
 62
     7
100
AcDbLine
 10
705.0000000000192
 20
188.0299349307405
 30
0.0
 11
707.7746032556063
 21
190.8045381863277
 31
0.0
  0
LINE
  5
D5
330
1F
100
AcDbEntity
  8
LAY-10
  6
CONTINUOUS
 62
     7
100
AcDbLine
 10
705.0000000000206
 20
185.2015078059957
 30
0.0
 11
710.6030303803512
 21
190.8045381863263
 31
0.0
  0
LINE
  5
D6
330
1F
100
AcDbEntity
  8
LAY-10
  6
CONTINUOUS
 62
     7
100
AcDbLine
 10
705.0000000000219
 20
182.3730806812507
 30
0.0
 11
713.4314575051026
 21
190.8045381863315
 31
0.0
  0
LINE
  5
D7
330
1F
100
AcDbEntity
  8
LAY-10
  6
CONTINUOUS
 62
     7
100
AcDbLine
 10
705.0000000000167
 20
179.5446535564994
 30
0.0
 11
713.5000000000194
 21
188.0446535565021
 31
0.0
  0
LINE
  5
D8
330
1F
100
AcDbEntity
  8
LAY-10
  6
CONTINUOUS
 62
     7
100
AcDbLine
 10
705.0000000000181
 20
176.7162264317544
 30
0.0
 11
713.5000000000208
 21
185.2162264317571
 31
0.0
  0
LINE
  5
D9
330
1F
100
AcDbEntity
  8
LAY-10
  6
CONTINUOUS
 62
     7
100
AcDbLine
 10
705.0000000000194
 20
173.8877993070095
 30
0.0
 11
713.5000000000222
 21
182.3877993070122
 31
0.0
  0
LINE
  5
DA
330
1F
100
AcDbEntity
  8
LAY-10
  6
CONTINUOUS
 62
     7
100
AcDbLine
 10
705.0000000000207
 20
171.0593721822646
 30
0.0
 11
713.5000000000234
 21
179.5593721822673
 31
0.0
  0
LINE
  5
DB
330
1F
100
AcDbEntity
  8
LAY-10
  6
CONTINUOUS
 62
     7
100
AcDbLine
 10
705.0000000000219
 20
168.2309450575196
 30
0.0
 11
713.5000000000183
 21
176.7309450575159
 31
0.0
  0
LINE
  5
DC
330
1F
100
AcDbEntity
  8
LAY-10
  6
CONTINUOUS
 62
     7
100
AcDbLine
 10
705.0000000000233
 20
165.4025179327748
 30
0.0
 11
713.5000000000196
 21
173.902517932771
 31
0.0
  0
LINE
  5
DD
330
1F
100
AcDbEntity
  8
LAY-10
  6
CONTINUOUS
 62
     7
100
AcDbLine
 10
705.0000000000181
 20
162.5740908080234
 30
0.0
 11
713.5000000000208
 21
171.0740908080261
 31
0.0
  0
LINE
  5
DE
330
1F
100
AcDbEntity
  8
LAY-10
  6
CONTINUOUS
 62
     7
100
AcDbLine
 10
705.0000000000194
 20
159.7456636832784
 30
0.0
 11
713.5000000000222
 21
168.2456636832811
 31
0.0
  0
LINE
  5
DF
330
1F
100
AcDbEntity
  8
LAY-10
  6
CONTINUOUS
 62
     7
100
AcDbLine
 10
705.0000000000208
 20
156.9172365585335
 30
0.0
 11
713.5000000000234
 21
165.4172365585363
 31
0.0
  0
LINE
  5
E0
330
1F
100
AcDbEntity
  8
LAY-10
  6
CONTINUOUS
 62
     7
100
AcDbLine
 10
705.000000000022
 20
154.0888094337886
 30
0.0
 11
713.5000000000183
 21
162.5888094337848
 31
0.0
  0
LINE
  5
E1
330
1F
100
AcDbEntity
  8
LAY-10
  6
CONTINUOUS
 62
     7
100
AcDbLine
 10
705.0000000000234
 20
151.2603823090436
 30
0.0
 11
713.5000000000197
 21
159.76038230904
 31
0.0
  0
LINE
  5
E2
330
1F
100
AcDbEntity
  8
LAY-10
  6
CONTINUOUS
 62
     7
100
AcDbLine
 10
705.0000000000183
 20
148.4319551842923
 30
0.0
 11
713.500000000021
 21
156.931955184295
 31
0.0
  0
LINE
  5
E3
330
1F
100
AcDbEntity
  8
LAY-10
  6
CONTINUOUS
 62
     7
100
AcDbLine
 10
705.0000000000196
 20
145.6035280595474
 30
0.0
 11
713.5000000000223
 21
154.1035280595502
 31
0.0
  0
LINE
  5
E4
330
1F
100
AcDbEntity
  8
LAY-10
  6
CONTINUOUS
 62
     7
100
AcDbLine
 10
705.0000000000209
 20
142.7751009348025
 30
0.0
 11
713.5000000000236
 21
151.2751009348052
 31
0.0
  0
LINE
  5
E5
330
1F
100
AcDbEntity
  8
LAY-10
  6
CONTINUOUS
 62
     7
100
AcDbLine
 10
705.0000000000222
 20
139.9466738100576
 30
0.0
 11
713.5000000000184
 21
148.4466738100539
 31
0.0
  0
LINE
  5
E6
330
1F
100
AcDbEntity
  8
LAY-10
  6
CONTINUOUS
 62
     7
100
AcDbLine
 10
705.0000000000234
 20
137.1182466853127
 30
0.0
 11
713.5000000000198
 21
145.6182466853089
 31
0.0
  0
LINE
  5
E7
330
1F
100
AcDbEntity
  8
LAY-10
  6
CONTINUOUS
 62
     7
100
AcDbLine
 10
705.0000000000183
 20
134.2898195605613
 30
0.0
 11
713.500000000021
 21
142.7898195605641
 31
0.0
  0
LINE
  5
E8
330
1F
100
AcDbEntity
  8
LAY-10
  6
CONTINUOUS
 62
     7
100
AcDbLine
 10
705.0000000000197
 20
131.4613924358164
 30
0.0
 11
713.5000000000223
 21
139.9613924358191
 31
0.0
  0
LINE
  5
E9
330
1F
100
AcDbEntity
  8
LAY-10
  6
CONTINUOUS
 62
     7
100
AcDbLine
 10
705.0000000000209
 20
128.6329653110714
 30
0.0
 11
713.5000000000236
 21
137.1329653110741
 31
0.0
  0
LINE
  5
EA
330
1F
100
AcDbEntity
  8
LAY-10
  6
CONTINUOUS
 62
     7
100
AcDbLine
 10
705.0000000000223
 20
125.8045381863266
 30
0.0
 11
713.500000000025
 21
134.3045381863293
 31
0.0
  0
LINE
  5
EB
330
1F
100
AcDbEntity
  8
LAY-10
  6
CONTINUOUS
 62
     7
100
AcDbLine
 10
707.8284271247736
 20
125.8045381863316
 30
0.0
 11
713.5000000000199
 21
131.4761110615779
 31
0.0
  0
LINE
  5
EC
330
1F
100
AcDbEntity
  8
LAY-10
  6
CONTINUOUS
 62
     7
100
AcDbLine
 10
710.6568542495186
 20
125.8045381863303
 30
0.0
 11
713.5000000000211
 21
128.647683936833
 31
0.0
  0
LINE
  5
ED
330
1F
100
AcDbEntity
  8
LAY-10
  6
CONTINUOUS
 62
     7
100
AcDbLine
 10
713.4852813742635
 20
125.8045381863291
 30
0.0
 11
713.5000000000225
 21
125.819256812088
 31
0.0
  0
LINE
  5
EE
330
1F
100
AcDbEntity
  8
LAY-10
  6
CONTINUOUS
 62
     7
100
AcDbLine
 10
446.5000000000226
 20
188.0299349307437
 30
0.0
 11
449.2746032556098
 21
190.8045381863309
 31
0.0
  0
LINE
  5
EF
330
1F
100
AcDbEntity
  8
LAY-10
  6
CONTINUOUS
 62
     7
100
AcDbLine
 10
446.500000000024
 20
185.2015078059989
 30
0.0
 11
452.1030303803547
 21
190.8045381863295
 31
0.0
  0
LINE
  5
F0
330
1F
100
AcDbEntity
  8
LAY-10
  6
CONTINUOUS
 62
     7
100
AcDbLine
 10
446.5000000000251
 20
182.373080681254
 30
0.0
 11
454.9314575051059
 21
190.8045381863348
 31
0.0
  0
LINE
  5
F1
330
1F
100
AcDbEntity
  8
LAY-10
  6
CONTINUOUS
 62
     7
100
AcDbLine
 10
446.5000000000201
 20
179.5446535565026
 30
0.0
 11
455.0000000000229
 21
188.0446535565053
 31
0.0
  0
LINE
  5
F2
330
1F
100
AcDbEntity
  8
LAY-10
  6
CONTINUOUS
 62
     7
100
AcDbLine
 10
446.5000000000215
 20
176.7162264317577
 30
0.0
 11
455.0000000000242
 21
185.2162264317603
 31
0.0
  0
LINE
  5
F3
330
1F
100
AcDbEntity
  8
LAY-10
  6
CONTINUOUS
 62
     7
100
AcDbLine
 10
446.5000000000226
 20
173.8877993070128
 30
0.0
 11
455.0000000000254
 21
182.3877993070155
 31
0.0
  0
LINE
  5
F4
330
1F
100
AcDbEntity
  8
LAY-10
  6
CONTINUOUS
 62
     7
100
AcDbLine
 10
446.500000000024
 20
171.0593721822678
 30
0.0
 11
455.0000000000267
 21
179.5593721822705
 31
0.0
  0
LINE
  5
F5
330
1F
100
AcDbEntity
  8
LAY-10
  6
CONTINUOUS
 62
     7
100
AcDbLine
 10
446.5000000000254
 20
168.2309450575229
 30
0.0
 11
455.0000000000215
 21
176.7309450575192
 31
0.0
  0
LINE
  5
F6
330
1F
100
AcDbEntity
  8
LAY-10
  6
CONTINUOUS
 62
     7
100
AcDbLine
 10
446.5000000000201
 20
165.4025179327715
 30
0.0
 11
455.0000000000229
 21
173.9025179327742
 31
0.0
  0
LINE
  5
F7
330
1F
100
AcDbEntity
  8
LAY-10
  6
CONTINUOUS
 62
     7
100
AcDbLine
 10
446.5000000000215
 20
162.5740908080267
 30
0.0
 11
455.0000000000242
 21
171.0740908080293
 31
0.0
  0
LINE
  5
F8
330
1F
100
AcDbEntity
  8
LAY-10
  6
CONTINUOUS
 62
     7
100
AcDbLine
 10
446.5000000000229
 20
159.7456636832817
 30
0.0
 11
455.0000000000256
 21
168.2456636832844
 31
0.0
  0
LINE
  5
F9
330
1F
100
AcDbEntity
  8
LAY-10
  6
CONTINUOUS
 62
     7
100
AcDbLine
 10
446.500000000024
 20
156.9172365585367
 30
0.0
 11
455.0000000000269
 21
165.4172365585395
 31
0.0
  0
LINE
  5
FA
330
1F
100
AcDbEntity
  8
LAY-10
  6
CONTINUOUS
 62
     7
100
AcDbLine
 10
446.5000000000254
 20
154.0888094337918
 30
0.0
 11
455.0000000000217
 21
162.588809433788
 31
0.0
  0
LINE
  5
FB
330
1F
100
AcDbEntity
  8
LAY-10
  6
CONTINUOUS
 62
     7
100
AcDbLine
 10
446.5000000000203
 20
151.2603823090404
 30
0.0
 11
455.0000000000231
 21
159.7603823090432
 31
0.0
  0
LINE
  5
FC
330
1F
100
AcDbEntity
  8
LAY-10
  6
CONTINUOUS
 62
     7
100
AcDbLine
 10
446.5000000000217
 20
148.4319551842956
 30
0.0
 11
455.0000000000242
 21
156.9319551842983
 31
0.0
  0
LINE
  5
FD
330
1F
100
AcDbEntity
  8
LAY-10
  6
CONTINUOUS
 62
     7
100
AcDbLine
 10
446.5000000000229
 20
145.6035280595506
 30
0.0
 11
455.0000000000256
 21
154.1035280595534
 31
0.0
  0
LINE
  5
FE
330
1F
100
AcDbEntity
  8
LAY-10
  6
CONTINUOUS
 62
     7
100
AcDbLine
 10
446.5000000000242
 20
142.7751009348057
 30
0.0
 11
455.0000000000269
 21
151.2751009348084
 31
0.0
  0
LINE
  5
FF
330
1F
100
AcDbEntity
  8
LAY-10
  6
CONTINUOUS
 62
     7
100
AcDbLine
 10
446.5000000000256
 20
139.9466738100608
 30
0.0
 11
455.0000000000217
 21
148.4466738100571
 31
0.0
  0
LINE
  5
100
330
1F
100
AcDbEntity
  8
LAY-10
  6
CONTINUOUS
 62
     7
100
AcDbLine
 10
446.5000000000267
 20
137.118246685316
 30
0.0
 11
455.0000000000231
 21
145.6182466853122
 31
0.0
  0
LINE
  5
101
330
1F
100
AcDbEntity
  8
LAY-10
  6
CONTINUOUS
 62
     7
100
AcDbLine
 10
446.5000000000217
 20
134.2898195605645
 30
0.0
 11
455.0000000000244
 21
142.7898195605673
 31
0.0
  0
LINE
  5
102
330
1F
100
AcDbEntity
  8
LAY-10
  6
CONTINUOUS
 62
     7
100
AcDbLine
 10
446.5000000000231
 20
131.4613924358196
 30
0.0
 11
455.0000000000258
 21
139.9613924358223
 31
0.0
  0
LINE
  5
103
330
1F
100
AcDbEntity
  8
LAY-10
  6
CONTINUOUS
 62
     7
100
AcDbLine
 10
446.5000000000244
 20
128.6329653110747
 30
0.0
 11
455.0000000000269
 21
137.1329653110774
 31
0.0
  0
LINE
  5
104
330
1F
100
AcDbEntity
  8
LAY-10
  6
CONTINUOUS
 62
     7
100
AcDbLine
 10
446.5000000000256
 20
125.8045381863298
 30
0.0
 11
455.0000000000219
 21
134.304538186326
 31
0.0
  0
LINE
  5
105
330
1F
100
AcDbEntity
  8
LAY-10
  6
CONTINUOUS
 62
     7
100
AcDbLine
 10
449.328427124777
 20
125.8045381863349
 30
0.0
 11
455.0000000000233
 21
131.4761110615812
 31
0.0
  0
LINE
  5
106
330
1F
100
AcDbEntity
  8
LAY-10
  6
CONTINUOUS
 62
     7
100
AcDbLine
 10
452.1568542495219
 20
125.8045381863336
 30
0.0
 11
455.0000000000244
 21
128.6476839368362
 31
0.0
  0
LINE
  5
107
330
1F
100
AcDbEntity
  8
LAY-10
  6
CONTINUOUS
 62
     7
100
AcDbLine
 10
454.9852813742669
 20
125.8045381863323
 30
0.0
 11
455.0000000000258
 21
125.8192568120912
 31
0.0
  0
LINE
  5
108
330
1F
100
AcDbEntity
  8
LAY-10
  6
CONTINUOUS
 62
     7
100
AcDbLine
 10
579.9999999999973
 20
831.6859651006986
 30
0.0
 11
593.039907368342
 21
839.9999999999787
 31
0.0
  0
LINE
  5
109
330
1F
100
AcDbEntity
  8
LAY-10
  6
CONTINUOUS
 62
     7
100
AcDbLine
 10
579.9999999999973
 20
830.4999999999787
 30
0.0
 11
594.8999999999969
 21
839.9999999999787
 31
0.0
  0
LINE
  5
10A
330
1F
100
AcDbEntity
  8
LAY-10
  6
CONTINUOUS
 62
     7
100
AcDbLine
 10
565.0999999999967
 20
839.9999999999787
 30
0.0
 11
579.9999999999973
 21
849.4999999999787
 31
0.0
  0
LINE
  5
10B
330
1F
100
AcDbEntity
  8
LAY-10
  6
CONTINUOUS
 62
     7
100
AcDbLine
 10
579.9999999999973
 20
848.3140348992589
 30
0.0
 11
566.9600926316525
 21
839.9999999999787
 31
0.0
  0
LINE
  5
10C
330
1F
100
AcDbEntity
  8
LAY-10
  6
CONTINUOUS
 62
     7
100
AcDbLine
 10
593.039907368342
 20
839.9999999999787
 30
0.0
 11
579.9999999999973
 21
848.3140348992589
 31
0.0
  0
LINE
  5
10D
330
1F
100
AcDbEntity
  8
LAY-10
  6
CONTINUOUS
 62
     7
100
AcDbLine
 10
579.9999999999973
 20
849.4999999999787
 30
0.0
 11
594.8999999999969
 21
839.9999999999787
 31
0.0
  0
LINE
  5
10E
330
1F
100
AcDbEntity
  8
LAY-10
  6
CONTINUOUS
 62
     7
100
AcDbLine
 10
566.9600926316525
 20
839.9999999999787
 30
0.0
 11
579.9999999999973
 21
831.6859651006986
 31
0.0
  0
LINE
  5
10F
330
1F
100
AcDbEntity
  8
LAY-10
  6
CONTINUOUS
 62
     7
100
AcDbLine
 10
565.0999999999967
 20
839.9999999999787
 30
0.0
 11
579.9999999999973
 21
830.4999999999787
 31
0.0
  0
ARC
  5
110
330
1F
100
AcDbEntity
  8
LAY-10
  6
CONTINUOUS
 62
     7
100
AcDbCircle
 10
579.99999999999
 20
840.0000000000001
 30
0.0
 40
176.59780664801
100
AcDbArc
 50
184.5429189988011
 51
264.6069437449768
  0
ARC
  5
111
330
1F
100
AcDbEntity
  8
LAY-10
  6
CONTINUOUS
 62
     7
100
AcDbCircle
 10
579.99999999999
 20
840.0000000000001
 30
0.0
 40
176.59780664801
100
AcDbArc
 50
95.39305625501665
 51
175.4570810011992
  0
CIRCLE
  5
112
330
1F
100
AcDbEntity
  8
LAY-10
  6
CONTINUOUS
 62
     7
100
AcDbCircle
 10
580.0
 20
840.0000000000001
 30
0.0
 40
190.0000000000001
  0
LINE
  5
113
330
1F
100
AcDbEntity
  8
LAY-10
  6
CONTINUOUS
 62
     7
100
AcDbLine
 10
401.9263151999539
 20
879.9501286823198
 30
0.0
 11
406.7601429969973
 21
878.6549084277514
 31
0.0
  0
ARC
  5
114
330
1F
100
AcDbEntity
  8
LAY-10
  6
CONTINUOUS
 62
     7
100
AcDbCircle
 10
580.0
 20
840.0000000000001
 30
0.0
 40
182.5
100
AcDbArc
 50
167.355284355778
 51
192.6447156442219
  0
ARC
  5
115
330
1F
100
AcDbEntity
  8
LAY-10
  6
CONTINUOUS
 62
     7
100
AcDbCircle
 10
580.0
 20
840.0000000000001
 30
0.0
 40
177.49999999994
100
AcDbArc
 50
167.4216693869446
 51
192.5783306130555
  0
LINE
  5
116
330
1F
100
AcDbEntity
  8
LAY-10
  6
CONTINUOUS
 62
     7
100
AcDbLine
 10
401.6011380189857
 20
881.2795910618471
 30
0.0
 11
407.786682801483
 21
879.6221793326305
 31
0.0
  0
LINE
  5
117
330
1F
100
AcDbEntity
  8
LAY-10
  6
CONTINUOUS
 62
     7
100
AcDbLine
 10
401.9263151999503
 20
879.9501286823198
 30
0.0
 11
401.6011380189902
 21
881.2795910618498
 31
0.0
  0
LINE
  5
118
330
1F
100
AcDbEntity
  8
LAY-10
  6
CONTINUOUS
 62
     7
100
AcDbLine
 10
406.760142997
 20
878.65490842775
 30
0.0
 11
407.7866828014803
 21
879.62217933263
 31
0.0
  0
LINE
  5
119
330
1F
100
AcDbEntity
  8
LAY-10
  6
CONTINUOUS
 62
     7
100
AcDbLine
 10
401.9263151999539
 20
800.0498713176804
 30
0.0
 11
406.7601429969973
 21
801.3450915722489
 31
0.0
  0
LINE
  5
11A
330
1F
100
AcDbEntity
  8
LAY-10
  6
CONTINUOUS
 62
     7
100
AcDbLine
 10
401.6011380189857
 20
798.7204089381531
 30
0.0
 11
407.786682801483
 21
800.3778206673697
 31
0.0
  0
LINE
  5
11B
330
1F
100
AcDbEntity
  8
LAY-10
  6
CONTINUOUS
 62
     7
100
AcDbLine
 10
401.9263151999494
 20
800.04987131768
 30
0.0
 11
401.6011380189902
 21
798.72040893815
 31
0.0
  0
LINE
  5
11C
330
1F
100
AcDbEntity
  8
LAY-10
  6
CONTINUOUS
 62
     7
100
AcDbLine
 10
406.760142997
 20
801.3450915722498
 30
0.0
 11
407.7866828014794
 21
800.3778206673697
 31
0.0
  0
CIRCLE
  5
11D
330
1F
100
AcDbEntity
  8
LAY-10
  6
CONTINUOUS
 62
     7
100
AcDbCircle
 10
580.0
 20
840.0000000000001
 30
0.0
 40
183.11242064468
  0
LINE
  5
11E
330
1F
100
AcDbEntity
  8
LAY-10
  6
CONTINUOUS
 62
     7
100
AcDbLine
 10
405.8086008764922
 20
894.4390160766562
 30
0.0
 11
410.6424286735355
 21
893.1437958220873
 31
0.0
  0
LINE
  5
11F
330
1F
100
AcDbEntity
  8
LAY-10
  6
CONTINUOUS
 62
     7
100
AcDbLine
 10
404.862257987279
 20
893.4502564730943
 30
0.0
 11
411.0478027697764
 21
891.7928447438777
 31
0.0
  0
LINE
  5
120
330
1F
100
AcDbEntity
  8
LAY-10
  6
CONTINUOUS
 62
     7
100
AcDbLine
 10
405.8086008764885
 20
894.4390160766585
 30
0.0
 11
404.8622579872808
 21
893.4502564730898
 31
0.0
  0
LINE
  5
121
330
1F
100
AcDbEntity
  8
LAY-10
  6
CONTINUOUS
 62
     7
100
AcDbLine
 10
410.6424286735382
 20
893.1437958220869
 30
0.0
 11
411.0478027697736
 21
891.7928447438795
 31
0.0
  0
LINE
  5
122
330
1F
100
AcDbEntity
  8
LAY-10
  6
CONTINUOUS
 62
     7
100
AcDbLine
 10
445.7587295588701
 20
963.634668723456
 30
0.0
 11
449.297337101345
 21
960.096061180982
 31
0.0
  0
LINE
  5
123
330
1F
100
AcDbEntity
  8
LAY-10
  6
CONTINUOUS
 62
     7
100
AcDbLine
 10
446.1418490491833
 20
964.9486055079866
 30
0.0
 11
450.6699821024649
 21
960.4204724547063
 31
0.0
  0
LINE
  5
124
330
1F
100
AcDbEntity
  8
LAY-10
  6
CONTINUOUS
 62
     7
100
AcDbLine
 10
445.7587295588664
 20
963.6346687234587
 30
0.0
 11
446.1418490491887
 21
964.9486055079875
 31
0.0
  0
LINE
  5
125
330
1F
100
AcDbEntity
  8
LAY-10
  6
CONTINUOUS
 62
     7
100
AcDbLine
 10
449.2973371013459
 20
960.0960611809802
 30
0.0
 11
450.6699821024613
 21
960.4204724547077
 31
0.0
  0
ARC
  5
126
330
1F
100
AcDbEntity
  8
LAY-10
  6
CONTINUOUS
 62
     7
100
AcDbCircle
 10
579.9999999999973
 20
839.9999999999974
 30
0.0
 40
177.49999999994
100
AcDbArc
 50
137.4216693869027
 51
162.5783306130603
  0
ARC
  5
127
330
1F
100
AcDbEntity
  8
LAY-10
  6
CONTINUOUS
 62
     7
100
AcDbCircle
 10
579.9999999999973
 20
839.9999999999974
 30
0.0
 40
182.5
100
AcDbArc
 50
137.3552843557458
 51
162.6447156442269
  0
LINE
  5
128
330
1F
100
AcDbEntity
  8
LAY-10
  6
CONTINUOUS
 62
     7
100
AcDbLine
 10
456.3653312765518
 20
974.2412704405666
 30
0.0
 11
459.9039388190258
 21
970.7026628980917
 31
0.0
  0
LINE
  5
129
330
1F
100
AcDbEntity
  8
LAY-10
  6
CONTINUOUS
 62
     7
100
AcDbLine
 10
455.0513944920212
 20
973.8581509502525
 30
0.0
 11
459.579527545302
 21
969.3300178969718
 31
0.0
  0
LINE
  5
12A
330
1F
100
AcDbEntity
  8
LAY-10
  6
CONTINUOUS
 62
     7
100
AcDbLine
 10
456.3653312765491
 20
974.2412704405702
 30
0.0
 11
455.0513944920203
 21
973.8581509502475
 31
0.0
  0
LINE
  5
12B
330
1F
100
AcDbEntity
  8
LAY-10
  6
CONTINUOUS
 62
     7
100
AcDbLine
 10
459.9039388190276
 20
970.7026628980904
 30
0.0
 11
459.5795275453002
 21
969.3300178969745
 31
0.0
  0
LINE
  5
12C
330
1F
100
AcDbEntity
  8
LAY-10
  6
CONTINUOUS
 62
     7
100
AcDbLine
 10
525.5609839233475
 20
1014.19139912295
 30
0.0
 11
526.8562041779169
 21
1009.357571325908
 31
0.0
  0
LINE
  5
12D
330
1F
100
AcDbEntity
  8
LAY-10
  6
CONTINUOUS
 62
     7
100
AcDbLine
 10
526.549743526909
 20
1015.137742012164
 30
0.0
 11
528.2071552561274
 21
1008.952197229666
 31
0.0
  0
LINE
  5
12E
330
1F
100
AcDbEntity
  8
LAY-10
  6
CONTINUOUS
 62
     7
100
AcDbLine
 10
525.5609839233457
 20
1014.191399122954
 30
0.0
 11
526.5497435269144
 21
1015.137742012161
 31
0.0
  0
LINE
  5
12F
330
1F
100
AcDbEntity
  8
LAY-10
  6
CONTINUOUS
 62
     7
100
AcDbLine
 10
526.8562041779178
 20
1009.357571325905
 30
0.0
 11
528.2071552561247
 21
1008.952197229669
 31
0.0
  0
ARC
  5
130
330
1F
100
AcDbEntity
  8
LAY-10
  6
CONTINUOUS
 62
     7
100
AcDbCircle
 10
579.9999999999318
 20
839.9999999993976
 30
0.0
 40
177.49999999994
100
AcDbArc
 50
107.4216693869027
 51
132.5783306130603
  0
ARC
  5
131
330
1F
100
AcDbEntity
  8
LAY-10
  6
CONTINUOUS
 62
     7
100
AcDbCircle
 10
579.9999999999318
 20
839.9999999993976
 30
0.0
 40
182.5
100
AcDbArc
 50
107.3552843557457
 51
132.6447156442269
  0
LINE
  5
132
330
1F
100
AcDbEntity
  8
LAY-10
  6
CONTINUOUS
 62
     7
100
AcDbLine
 10
540.0498713172392
 20
1018.073684799591
 30
0.0
 11
541.3450915718076
 21
1013.239857002548
 31
0.0
  0
LINE
  5
133
330
1F
100
AcDbEntity
  8
LAY-10
  6
CONTINUOUS
 62
     7
100
AcDbLine
 10
538.7204089377119
 20
1018.398861980559
 30
0.0
 11
540.3778206669285
 21
1012.213317198061
 31
0.0
  0
LINE
  5
134
330
1F
100
AcDbEntity
  8
LAY-10
  6
CONTINUOUS
 62
     7
100
AcDbLine
 10
540.0498713172383
 20
1018.073684799595
 30
0.0
 11
538.7204089377083
 21
1018.398861980555
 31
0.0
  0
LINE
  5
135
330
1F
100
AcDbEntity
  8
LAY-10
  6
CONTINUOUS
 62
     7
100
AcDbLine
 10
541.3450915718086
 20
1013.239857002545
 30
0.0
 11
540.3778206669285
 21
1012.213317198065
 31
0.0
  0
LINE
  5
136
330
1F
100
AcDbEntity
  8
LAY-10
  6
CONTINUOUS
 62
     7
100
AcDbLine
 10
619.9501286820005
 20
1018.073684799594
 30
0.0
 11
618.654908427432
 21
1013.239857002551
 31
0.0
  0
LINE
  5
137
330
1F
100
AcDbEntity
  8
LAY-10
  6
CONTINUOUS
 62
     7
100
AcDbLine
 10
621.2795910615268
 20
1018.398861980563
 30
0.0
 11
619.6221793323111
 21
1012.213317198065
 31
0.0
  0
LINE
  5
138
330
1F
100
AcDbEntity
  8
LAY-10
  6
CONTINUOUS
 62
     7
100
AcDbLine
 10
619.9501286820005
 20
1018.073684799598
 30
0.0
 11
621.2795910615305
 21
1018.398861980558
 31
0.0
  0
LINE
  5
139
330
1F
100
AcDbEntity
  8
LAY-10
  6
CONTINUOUS
 62
     7
100
AcDbLine
 10
618.6549084274311
 20
1013.239857002549
 30
0.0
 11
619.6221793323111
 21
1012.213317198069
 31
0.0
  0
ARC
  5
13A
330
1F
100
AcDbEntity
  8
LAY-10
  6
CONTINUOUS
 62
     7
100
AcDbCircle
 10
579.9999999995753
 20
839.9999999995508
 30
0.0
 40
177.49999999994
100
AcDbArc
 50
77.42166938690272
 51
102.5783306130602
  0
ARC
  5
13B
330
1F
100
AcDbEntity
  8
LAY-10
  6
CONTINUOUS
 62
     7
100
AcDbCircle
 10
579.9999999995753
 20
839.9999999995508
 30
0.0
 40
182.5
100
AcDbArc
 50
77.35528435574571
 51
102.6447156442269
  0
LINE
  5
13C
330
1F
100
AcDbEntity
  8
LAY-10
  6
CONTINUOUS
 62
     7
100
AcDbLine
 10
703.6346687234482
 20
974.2412704405662
 30
0.0
 11
700.0960611809742
 21
970.7026628980917
 31
0.0
  0
LINE
  5
13D
330
1F
100
AcDbEntity
  8
LAY-10
  6
CONTINUOUS
 62
     7
100
AcDbLine
 10
704.9486055079788
 20
973.8581509502525
 30
0.0
 11
700.420472454698
 21
969.3300178969718
 31
0.0
  0
LINE
  5
13E
330
1F
100
AcDbEntity
  8
LAY-10
  6
CONTINUOUS
 62
     7
100
AcDbLine
 10
703.6346687234509
 20
974.2412704405698
 30
0.0
 11
704.9486055079797
 21
973.858150950247
 31
0.0
  0
LINE
  5
13F
330
1F
100
AcDbEntity
  8
LAY-10
  6
CONTINUOUS
 62
     7
100
AcDbLine
 10
700.0960611809724
 20
970.7026628980899
 30
0.0
 11
700.4204724546998
 21
969.3300178969745
 31
0.0
  0
LINE
  5
140
330
1F
100
AcDbEntity
  8
LAY-10
  6
CONTINUOUS
 62
     7
100
AcDbLine
 10
634.4390160766525
 20
1014.19139912295
 30
0.0
 11
633.1437958220831
 21
1009.357571325907
 31
0.0
  0
LINE
  5
141
330
1F
100
AcDbEntity
  8
LAY-10
  6
CONTINUOUS
 62
     7
100
AcDbLine
 10
633.450256473091
 20
1015.137742012163
 30
0.0
 11
631.7928447438726
 21
1008.952197229666
 31
0.0
  0
LINE
  5
142
330
1F
100
AcDbEntity
  8
LAY-10
  6
CONTINUOUS
 62
     7
100
AcDbLine
 10
634.4390160766543
 20
1014.191399122954
 30
0.0
 11
633.4502564730856
 21
1015.137742012161
 31
0.0
  0
LINE
  5
143
330
1F
100
AcDbEntity
  8
LAY-10
  6
CONTINUOUS
 62
     7
100
AcDbLine
 10
633.1437958220822
 20
1009.357571325904
 30
0.0
 11
631.7928447438753
 21
1008.952197229669
 31
0.0
  0
ARC
  5
144
330
1F
100
AcDbEntity
  8
LAY-10
  6
CONTINUOUS
 62
     7
100
AcDbCircle
 10
580.0000000000682
 20
839.9999999993976
 30
0.0
 40
177.49999999994
100
AcDbArc
 50
47.42166938693961
 51
72.57833061309721
  0
ARC
  5
145
330
1F
100
AcDbEntity
  8
LAY-10
  6
CONTINUOUS
 62
     7
100
AcDbCircle
 10
580.0000000000682
 20
839.9999999993976
 30
0.0
 40
182.5
100
AcDbArc
 50
47.35528435577302
 51
72.64471564425423
  0
LINE
  5
146
330
1F
100
AcDbEntity
  8
LAY-10
  6
CONTINUOUS
 62
     7
100
AcDbLine
 10
754.1913991235078
 20
894.4390160766558
 30
0.0
 11
749.3575713264645
 21
893.1437958220873
 31
0.0
  0
LINE
  5
147
330
1F
100
AcDbEntity
  8
LAY-10
  6
CONTINUOUS
 62
     7
100
AcDbLine
 10
755.137742012721
 20
893.4502564730943
 30
0.0
 11
748.9521972302236
 21
891.7928447438773
 31
0.0
  0
LINE
  5
148
330
1F
100
AcDbEntity
  8
LAY-10
  6
CONTINUOUS
 62
     7
100
AcDbLine
 10
754.1913991235115
 20
894.439016076658
 30
0.0
 11
755.1377420127192
 21
893.4502564730893
 31
0.0
  0
LINE
  5
149
330
1F
100
AcDbEntity
  8
LAY-10
  6
CONTINUOUS
 62
     7
100
AcDbLine
 10
749.3575713264618
 20
893.1437958220864
 30
0.0
 11
748.9521972302264
 21
891.7928447438791
 31
0.0
  0
LINE
  5
14A
330
1F
100
AcDbEntity
  8
LAY-10
  6
CONTINUOUS
 62
     7
100
AcDbLine
 10
714.2412704411299
 20
963.634668723456
 30
0.0
 11
710.702662898655
 21
960.096061180982
 31
0.0
  0
LINE
  5
14B
330
1F
100
AcDbEntity
  8
LAY-10
  6
CONTINUOUS
 62
     7
100
AcDbLine
 10
713.8581509508167
 20
964.9486055079861
 30
0.0
 11
709.3300178975351
 21
960.4204724547059
 31
0.0
  0
LINE
  5
14C
330
1F
100
AcDbEntity
  8
LAY-10
  6
CONTINUOUS
 62
     7
100
AcDbLine
 10
714.2412704411336
 20
963.6346687234583
 30
0.0
 11
713.8581509508113
 21
964.948605507987
 31
0.0
  0
LINE
  5
14D
330
1F
100
AcDbEntity
  8
LAY-10
  6
CONTINUOUS
 62
     7
100
AcDbLine
 10
710.7026628986541
 20
960.0960611809802
 30
0.0
 11
709.3300178975387
 21
960.4204724547077
 31
0.0
  0
ARC
  5
14E
330
1F
100
AcDbEntity
  8
LAY-10
  6
CONTINUOUS
 62
     7
100
AcDbCircle
 10
580.0000000000018
 20
839.9999999999974
 30
0.0
 40
177.49999999994
100
AcDbArc
 50
17.4216693869396
 51
42.57833061309721
  0
ARC
  5
14F
330
1F
100
AcDbEntity
  8
LAY-10
  6
CONTINUOUS
 62
     7
100
AcDbCircle
 10
580.0000000000018
 20
839.9999999999974
 30
0.0
 40
182.5
100
AcDbArc
 50
17.35528435577307
 51
42.64471564425416
  0
ARC
  5
150
330
1F
100
AcDbEntity
  8
LAY-10
  6
CONTINUOUS
 62
     7
100
AcDbCircle
 10
579.99999999999
 20
840.0000000000001
 30
0.0
 40
176.59780664801
100
AcDbArc
 50
4.542918998798262
 51
84.60694374497676
  0
ARC
  5
151
330
1F
100
AcDbEntity
  8
LAY-10
  6
CONTINUOUS
 62
     7
100
AcDbCircle
 10
579.99999999999
 20
840.0000000000001
 30
0.0
 40
176.59780664801
100
AcDbArc
 50
275.3930562550167
 51
355.4570810012019
  0
LINE
  5
152
330
1F
100
AcDbEntity
  8
LAY-10
  6
CONTINUOUS
 62
     7
100
AcDbLine
 10
758.0736848000324
 20
879.9501286823698
 30
0.0
 11
753.2398570029891
 21
878.6549084278005
 31
0.0
  0
LINE
  5
153
330
1F
100
AcDbEntity
  8
LAY-10
  6
CONTINUOUS
 62
     7
100
AcDbLine
 10
758.3988619810007
 20
881.2795910618962
 30
0.0
 11
752.2133171985033
 21
879.6221793326796
 31
0.0
  0
LINE
  5
154
330
1F
100
AcDbEntity
  8
LAY-10
  6
CONTINUOUS
 62
     7
100
AcDbLine
 10
758.073684800037
 20
879.9501286823698
 30
0.0
 11
758.398861980997
 21
881.2795910618999
 31
0.0
  0
LINE
  5
155
330
1F
100
AcDbEntity
  8
LAY-10
  6
CONTINUOUS
 62
     7
100
AcDbLine
 10
753.2398570029864
 20
878.6549084277996
 30
0.0
 11
752.213317198507
 21
879.6221793326796
 31
0.0
  0
LINE
  5
156
330
1F
100
AcDbEntity
  8
LAY-10
  6
CONTINUOUS
 62
     7
100
AcDbLine
 10
758.0736848000379
 20
800.0498713176081
 30
0.0
 11
753.2398570029945
 21
801.3450915721761
 31
0.0
  0
LINE
  5
157
330
1F
100
AcDbEntity
  8
LAY-10
  6
CONTINUOUS
 62
     7
100
AcDbLine
 10
758.398861981007
 20
798.7204089380813
 30
0.0
 11
752.2133171985088
 21
800.377820667297
 31
0.0
  0
LINE
  5
158
330
1F
100
AcDbEntity
  8
LAY-10
  6
CONTINUOUS
 62
     7
100
AcDbLine
 10
758.0736848000424
 20
800.0498713176077
 30
0.0
 11
758.3988619810025
 21
798.7204089380776
 31
0.0
  0
LINE
  5
159
330
1F
100
AcDbEntity
  8
LAY-10
  6
CONTINUOUS
 62
     7
100
AcDbLine
 10
753.2398570029927
 20
801.345091572177
 30
0.0
 11
752.2133171985124
 21
800.377820667297
 31
0.0
  0
ARC
  5
15A
330
1F
100
AcDbEntity
  8
LAY-10
  6
CONTINUOUS
 62
     7
100
AcDbCircle
 10
579.9999999999936
 20
840.0000000000283
 30
0.0
 40
177.49999999994
100
AcDbArc
 50
347.4216693869045
 51
12.57833061306184
  0
ARC
  5
15B
330
1F
100
AcDbEntity
  8
LAY-10
  6
CONTINUOUS
 62
     7
100
AcDbCircle
 10
579.9999999999936
 20
840.0000000000283
 30
0.0
 40
182.5
100
AcDbArc
 50
347.3552843557473
 51
12.64471564422837
  0
LINE
  5
15C
330
1F
100
AcDbEntity
  8
LAY-10
  6
CONTINUOUS
 62
     7
100
AcDbLine
 10
714.2412704411363
 20
716.3653312765665
 30
0.0
 11
710.7026628986623
 21
719.9039388190405
 31
0.0
  0
LINE
  5
15D
330
1F
100
AcDbEntity
  8
LAY-10
  6
CONTINUOUS
 62
     7
100
AcDbLine
 10
713.8581509508222
 20
715.0513944920359
 30
0.0
 11
709.3300178975414
 21
719.5795275453166
 31
0.0
  0
LINE
  5
15E
330
1F
100
AcDbEntity
  8
LAY-10
  6
CONTINUOUS
 62
     7
100
AcDbLine
 10
714.2412704411399
 20
716.3653312765638
 30
0.0
 11
713.8581509508176
 21
715.051394492035
 31
0.0
  0
LINE
  5
15F
330
1F
100
AcDbEntity
  8
LAY-10
  6
CONTINUOUS
 62
     7
100
AcDbLine
 10
710.7026628986605
 20
719.9039388190428
 30
0.0
 11
709.3300178975451
 21
719.5795275453148
 31
0.0
  0
LINE
  5
160
330
1F
100
AcDbEntity
  8
LAY-10
  6
CONTINUOUS
 62
     7
100
AcDbLine
 10
754.1913991235233
 20
785.5609839233604
 30
0.0
 11
749.3575713264809
 21
786.8562041779297
 31
0.0
  0
LINE
  5
161
330
1F
100
AcDbEntity
  8
LAY-10
  6
CONTINUOUS
 62
     7
100
AcDbLine
 10
755.1377420127374
 20
786.5497435269218
 30
0.0
 11
748.95219723024
 21
788.2071552561398
 31
0.0
  0
LINE
  5
162
330
1F
100
AcDbEntity
  8
LAY-10
  6
CONTINUOUS
 62
     7
100
AcDbLine
 10
754.1913991235278
 20
785.5609839233581
 30
0.0
 11
755.1377420127355
 21
786.5497435269268
 31
0.0
  0
LINE
  5
163
330
1F
100
AcDbEntity
  8
LAY-10
  6
CONTINUOUS
 62
     7
100
AcDbLine
 10
749.3575713264781
 20
786.8562041779302
 30
0.0
 11
748.9521972302427
 21
788.2071552561375
 31
0.0
  0
ARC
  5
164
330
1F
100
AcDbEntity
  8
LAY-10
  6
CONTINUOUS
 62
     7
100
AcDbCircle
 10
579.9999999999736
 20
839.9999999999537
 30
0.0
 40
177.49999999994
100
AcDbArc
 50
317.4216693869367
 51
342.5783306130943
  0
ARC
  5
165
330
1F
100
AcDbEntity
  8
LAY-10
  6
CONTINUOUS
 62
     7
100
AcDbCircle
 10
579.9999999999736
 20
839.9999999999537
 30
0.0
 40
182.5
100
AcDbArc
 50
317.3552843557704
 51
342.6447156442513
  0
LINE
  5
166
330
1F
100
AcDbEntity
  8
LAY-10
  6
CONTINUOUS
 62
     7
100
AcDbLine
 10
703.634668723389
 20
705.7587295588202
 30
0.0
 11
700.0960611809151
 21
709.2973371012941
 31
0.0
  0
LINE
  5
167
330
1F
100
AcDbEntity
  8
LAY-10
  6
CONTINUOUS
 62
     7
100
AcDbLine
 10
704.9486055079196
 20
706.1418490491334
 30
0.0
 11
700.4204724546389
 21
710.6699821024146
 31
0.0
  0
LINE
  5
168
330
1F
100
AcDbEntity
  8
LAY-10
  6
CONTINUOUS
 62
     7
100
AcDbLine
 10
703.6346687233918
 20
705.7587295588165
 30
0.0
 11
704.9486055079205
 21
706.1418490491388
 31
0.0
  0
LINE
  5
169
330
1F
100
AcDbEntity
  8
LAY-10
  6
CONTINUOUS
 62
     7
100
AcDbLine
 10
700.0960611809132
 20
709.297337101296
 30
0.0
 11
700.4204724546407
 21
710.6699821024114
 31
0.0
  0
LINE
  5
16A
330
1F
100
AcDbEntity
  8
LAY-10
  6
CONTINUOUS
 62
     7
100
AcDbLine
 10
634.4390160765943
 20
665.8086008764341
 30
0.0
 11
633.1437958220249
 21
670.6424286734774
 31
0.0
  0
LINE
  5
16B
330
1F
100
AcDbEntity
  8
LAY-10
  6
CONTINUOUS
 62
     7
100
AcDbLine
 10
633.4502564730328
 20
664.8622579872209
 30
0.0
 11
631.7928447438153
 21
671.0478027697183
 31
0.0
  0
LINE
  5
16C
330
1F
100
AcDbEntity
  8
LAY-10
  6
CONTINUOUS
 62
     7
100
AcDbLine
 10
634.4390160765961
 20
665.8086008764304
 30
0.0
 11
633.4502564730274
 21
664.8622579872227
 31
0.0
  0
LINE
  5
16D
330
1F
100
AcDbEntity
  8
LAY-10
  6
CONTINUOUS
 62
     7
100
AcDbLine
 10
633.1437958220249
 20
670.6424286734797
 30
0.0
 11
631.7928447438171
 21
671.0478027697151
 31
0.0
  0
ARC
  5
16E
330
1F
100
AcDbEntity
  8
LAY-10
  6
CONTINUOUS
 62
     7
100
AcDbCircle
 10
580.0000000000055
 20
839.9999999999856
 30
0.0
 40
177.49999999994
100
AcDbArc
 50
287.4216693869043
 51
312.5783306130616
  0
ARC
  5
16F
330
1F
100
AcDbEntity
  8
LAY-10
  6
CONTINUOUS
 62
     7
100
AcDbCircle
 10
580.0000000000055
 20
839.9999999999856
 30
0.0
 40
182.5
100
AcDbArc
 50
287.3552843557471
 51
312.6447156442283
  0
LINE
  5
170
330
1F
100
AcDbEntity
  8
LAY-10
  6
CONTINUOUS
 62
     7
100
AcDbLine
 10
540.0498713174065
 20
661.9263151998808
 30
0.0
 11
541.3450915719759
 21
666.7601429969237
 31
0.0
  0
LINE
  5
171
330
1F
100
AcDbEntity
  8
LAY-10
  6
CONTINUOUS
 62
     7
100
AcDbLine
 10
538.7204089378802
 20
661.6011380189121
 30
0.0
 11
540.3778206670968
 21
667.7866828014095
 31
0.0
  0
LINE
  5
172
330
1F
100
AcDbEntity
  8
LAY-10
  6
CONTINUOUS
 62
     7
100
AcDbLine
 10
540.0498713174065
 20
661.9263151998763
 30
0.0
 11
538.7204089378765
 21
661.6011380189158
 31
0.0
  0
LINE
  5
173
330
1F
100
AcDbEntity
  8
LAY-10
  6
CONTINUOUS
 62
     7
100
AcDbLine
 10
541.3450915719768
 20
666.7601429969264
 30
0.0
 11
540.3778206670968
 21
667.7866828014058
 31
0.0
  0
LINE
  5
174
330
1F
100
AcDbEntity
  8
LAY-10
  6
CONTINUOUS
 62
     7
100
AcDbLine
 10
619.9501286821678
 20
661.9263151998726
 30
0.0
 11
618.6549084276003
 21
666.760142996916
 31
0.0
  0
LINE
  5
175
330
1F
100
AcDbEntity
  8
LAY-10
  6
CONTINUOUS
 62
     7
100
AcDbLine
 10
621.2795910616951
 20
661.601138018904
 30
0.0
 11
619.6221793324794
 21
667.7866828014018
 31
0.0
  0
LINE
  5
176
330
1F
100
AcDbEntity
  8
LAY-10
  6
CONTINUOUS
 62
     7
100
AcDbLine
 10
619.9501286821678
 20
661.9263151998686
 30
0.0
 11
621.2795910616987
 21
661.6011380189076
 31
0.0
  0
LINE
  5
177
330
1F
100
AcDbEntity
  8
LAY-10
  6
CONTINUOUS
 62
     7
100
AcDbLine
 10
618.6549084275994
 20
666.7601429969183
 30
0.0
 11
619.6221793324794
 21
667.7866828013981
 31
0.0
  0
ARC
  5
178
330
1F
100
AcDbEntity
  8
LAY-10
  6
CONTINUOUS
 62
     7
100
AcDbCircle
 10
579.9999999997526
 20
839.9999999999178
 30
0.0
 40
177.49999999994
100
AcDbArc
 50
257.4216693869367
 51
282.5783306130942
  0
ARC
  5
179
330
1F
100
AcDbEntity
  8
LAY-10
  6
CONTINUOUS
 62
     7
100
AcDbCircle
 10
579.9999999997526
 20
839.9999999999178
 30
0.0
 40
182.5
100
AcDbArc
 50
257.3552843557703
 51
282.6447156442515
  0
CIRCLE
  5
17A
330
1F
100
AcDbEntity
  8
LAY-10
  6
CONTINUOUS
 62
     7
100
AcDbCircle
 10
579.99999999999
 20
840.0000000000001
 30
0.0
 40
176.7126020282101
  0
LINE
  5
17B
330
1F
100
AcDbEntity
  8
LAY-10
  6
CONTINUOUS
 62
     7
100
AcDbLine
 10
525.5609839234457
 20
665.8086008763181
 30
0.0
 11
526.8562041780151
 21
670.642428673361
 31
0.0
  0
LINE
  5
17C
330
1F
100
AcDbEntity
  8
LAY-10
  6
CONTINUOUS
 62
     7
100
AcDbLine
 10
526.5497435270081
 20
664.862257987105
 30
0.0
 11
528.2071552562247
 21
671.0478027696023
 31
0.0
  0
LINE
  5
17D
330
1F
100
AcDbEntity
  8
LAY-10
  6
CONTINUOUS
 62
     7
100
AcDbLine
 10
525.5609839234439
 20
665.808600876314
 30
0.0
 11
526.5497435270127
 21
664.8622579871063
 31
0.0
  0
LINE
  5
17E
330
1F
100
AcDbEntity
  8
LAY-10
  6
CONTINUOUS
 62
     7
100
AcDbLine
 10
526.8562041780151
 20
670.6424286733637
 30
0.0
 11
528.2071552562229
 21
671.0478027695991
 31
0.0
  0
LINE
  5
17F
330
1F
100
AcDbEntity
  8
LAY-10
  6
CONTINUOUS
 62
     7
100
AcDbLine
 10
456.3653312766455
 20
705.7587295586937
 30
0.0
 11
459.9039388191186
 21
709.2973371011686
 31
0.0
  0
LINE
  5
180
330
1F
100
AcDbEntity
  8
LAY-10
  6
CONTINUOUS
 62
     7
100
AcDbLine
 10
455.0513944921149
 20
706.141849049007
 30
0.0
 11
459.5795275453947
 21
710.6699821022886
 31
0.0
  0
LINE
  5
181
330
1F
100
AcDbEntity
  8
LAY-10
  6
CONTINUOUS
 62
     7
100
AcDbLine
 10
456.3653312766428
 20
705.7587295586901
 30
0.0
 11
455.051394492114
 21
706.1418490490124
 31
0.0
  0
LINE
  5
182
330
1F
100
AcDbEntity
  8
LAY-10
  6
CONTINUOUS
 62
     7
100
AcDbLine
 10
459.9039388191213
 20
709.29733710117
 30
0.0
 11
459.5795275453929
 21
710.6699821022859
 31
0.0
  0
ARC
  5
183
330
1F
100
AcDbEntity
  8
LAY-10
  6
CONTINUOUS
 62
     7
100
AcDbCircle
 10
580.000000000101
 20
839.9999999998246
 30
0.0
 40
177.49999999994
100
AcDbArc
 50
227.4216693869043
 51
252.5783306130619
  0
ARC
  5
184
330
1F
100
AcDbEntity
  8
LAY-10
  6
CONTINUOUS
 62
     7
100
AcDbCircle
 10
580.000000000101
 20
839.9999999998246
 30
0.0
 40
182.5
100
AcDbArc
 50
227.3552843557472
 51
252.6447156442283
  0
LINE
  5
185
330
1F
100
AcDbEntity
  8
LAY-10
  6
CONTINUOUS
 62
     7
100
AcDbLine
 10
405.8086008762621
 20
785.5609839235059
 30
0.0
 11
410.6424286733045
 21
786.8562041780743
 31
0.0
  0
LINE
  5
186
330
1F
100
AcDbEntity
  8
LAY-10
  6
CONTINUOUS
 62
     7
100
AcDbLine
 10
404.8622579870489
 20
786.5497435270673
 30
0.0
 11
411.0478027695463
 21
788.2071552562849
 31
0.0
  0
LINE
  5
187
330
1F
100
AcDbEntity
  8
LAY-10
  6
CONTINUOUS
 62
     7
100
AcDbLine
 10
405.8086008762575
 20
785.5609839235041
 30
0.0
 11
404.8622579870498
 21
786.5497435270728
 31
0.0
  0
LINE
  5
188
330
1F
100
AcDbEntity
  8
LAY-10
  6
CONTINUOUS
 62
     7
100
AcDbLine
 10
410.6424286733072
 20
786.8562041780752
 30
0.0
 11
411.0478027695426
 21
788.2071552562826
 31
0.0
  0
LINE
  5
189
330
1F
100
AcDbEntity
  8
LAY-10
  6
CONTINUOUS
 62
     7
100
AcDbLine
 10
445.7587295586354
 20
716.3653312767038
 30
0.0
 11
449.2973371011103
 21
719.9039388191778
 31
0.0
  0
LINE
  5
18A
330
1F
100
AcDbEntity
  8
LAY-10
  6
CONTINUOUS
 62
     7
100
AcDbLine
 10
446.1418490489486
 20
715.0513944921732
 30
0.0
 11
450.6699821022303
 21
719.5795275454535
 31
0.0
  0
LINE
  5
18B
330
1F
100
AcDbEntity
  8
LAY-10
  6
CONTINUOUS
 62
     7
100
AcDbLine
 10
445.7587295586318
 20
716.3653312767016
 30
0.0
 11
446.1418490489541
 21
715.0513944921723
 31
0.0
  0
LINE
  5
18C
330
1F
100
AcDbEntity
  8
LAY-10
  6
CONTINUOUS
 62
     7
100
AcDbLine
 10
449.2973371011112
 20
719.9039388191796
 30
0.0
 11
450.6699821022276
 21
719.5795275454517
 31
0.0
  0
ARC
  5
18D
330
1F
100
AcDbEntity
  8
LAY-10
  6
CONTINUOUS
 62
     7
100
AcDbCircle
 10
579.9999999997699
 20
840.0000000001556
 30
0.0
 40
177.49999999994
100
AcDbArc
 50
197.4216693869367
 51
222.5783306130942
  0
ARC
  5
18E
330
1F
100
AcDbEntity
  8
LAY-10
  6
CONTINUOUS
 62
     7
100
AcDbCircle
 10
579.9999999997699
 20
840.0000000001556
 30
0.0
 40
182.5
100
AcDbArc
 50
197.3552843557701
 51
222.6447156442513
  0
CIRCLE
  5
18F
330
1F
100
AcDbEntity
  8
LAY-10
  6
CONTINUOUS
 62
     7
100
AcDbCircle
 10
638.9999999999764
 20
942.1909976465773
 30
0.0
 40
5.0
  0
CIRCLE
  5
190
330
1F
100
AcDbEntity
  8
LAY-10
  6
CONTINUOUS
 62
     7
100
AcDbCircle
 10
639.0000000000236
 20
737.8090023534497
 30
0.0
 40
5.0
  0
CIRCLE
  5
191
330
1F
100
AcDbEntity
  8
LAY-10
  6
CONTINUOUS
 62
     7
100
AcDbCircle
 10
462.0
 20
839.9999999999728
 30
0.0
 40
5.0
  0
ARC
  5
192
330
1F
100
AcDbEntity
  8
LAY-10
  6
CONTINUOUS
 62
     7
100
AcDbCircle
 10
753.0524113070783
 20
853.7499605020854
 30
0.0
 40
3.000000000000002
100
AcDbArc
 50
301.9716399567229
 51
4.542918998802273
  0
ARC
  5
193
330
1F
100
AcDbEntity
  8
LAY-10
  6
CONTINUOUS
 62
     7
100
AcDbCircle
 10
754.300345667305
 20
851.9951159948197
 30
0.0
 40
2.0
100
AcDbArc
 50
281.8743513733246
 51
3.936811599813904
  0
ARC
  5
194
330
1F
100
AcDbEntity
  8
LAY-10
  6
CONTINUOUS
 62
     7
100
AcDbCircle
 10
754.300345667305
 20
828.0048840051796
 30
0.0
 40
2.0
100
AcDbArc
 50
356.0631884001895
 51
78.12564862664463
  0
ARC
  5
195
330
1F
100
AcDbEntity
  8
LAY-10
  6
CONTINUOUS
 62
     7
100
AcDbCircle
 10
753.0524113070783
 20
826.2500394979139
 30
0.0
 40
3.000000000000002
100
AcDbArc
 50
355.4570810011977
 51
58.02836004326068
  0
ARC
  5
196
330
1F
100
AcDbEntity
  8
LAY-10
  6
CONTINUOUS
 62
     7
100
AcDbCircle
 10
565.4999999999795
 20
665.890140119902
 30
0.0
 40
2.0
100
AcDbArc
 50
265.239350253683
 51
347.3018104805146
  0
ARC
  5
197
330
1F
100
AcDbEntity
  8
LAY-10
  6
CONTINUOUS
 62
     7
100
AcDbCircle
 10
563.6839484993793
 20
667.1706479315363
 30
0.0
 40
3.000000000000002
100
AcDbArc
 50
264.6069437449767
 51
327.1782227857954
  0
ARC
  5
198
330
1F
100
AcDbEntity
  8
LAY-10
  6
CONTINUOUS
 62
     7
100
AcDbCircle
 10
596.3160515005793
 20
667.1706479315345
 30
0.0
 40
3.000000000000002
100
AcDbArc
 50
212.8217772143172
 51
275.3930562550171
  0
ARC
  5
199
330
1F
100
AcDbEntity
  8
LAY-10
  6
CONTINUOUS
 62
     7
100
AcDbCircle
 10
594.49999999998
 20
665.8901401199201
 30
0.0
 40
2.0
100
AcDbArc
 50
192.6981895202178
 51
274.7606497463106
  0
ARC
  5
19A
330
1F
100
AcDbEntity
  8
LAY-10
  6
CONTINUOUS
 62
     7
100
AcDbCircle
 10
406.9475886929213
 20
853.7499605020859
 30
0.0
 40
3.000000000000002
100
AcDbArc
 50
175.4570810011989
 51
238.0283600444615
  0
ARC
  5
19B
330
1F
100
AcDbEntity
  8
LAY-10
  6
CONTINUOUS
 62
     7
100
AcDbCircle
 10
405.699654332695
 20
851.9951159948201
 30
0.0
 40
2.0
100
AcDbArc
 50
176.0631884001879
 51
258.1256486282573
  0
ARC
  5
19C
330
1F
100
AcDbEntity
  8
LAY-10
  6
CONTINUOUS
 62
     7
100
AcDbCircle
 10
406.9475886929213
 20
826.2500394979144
 30
0.0
 40
3.000000000000002
100
AcDbArc
 50
121.9716399555552
 51
184.5429189988017
  0
ARC
  5
19D
330
1F
100
AcDbEntity
  8
LAY-10
  6
CONTINUOUS
 62
     7
100
AcDbCircle
 10
405.699654332695
 20
828.0048840051801
 30
0.0
 40
2.0
100
AcDbArc
 50
101.8743513717667
 51
183.9368115998123
  0
ARC
  5
19E
330
1F
100
AcDbEntity
  8
LAY-10
  6
CONTINUOUS
 62
     7
100
AcDbCircle
 10
563.6839484993998
 20
1012.829352068466
 30
0.0
 40
3.000000000000002
100
AcDbArc
 50
32.8217772138616
 51
95.39305625429294
  0
ARC
  5
19F
330
1F
100
AcDbEntity
  8
LAY-10
  6
CONTINUOUS
 62
     7
100
AcDbCircle
 10
565.5
 20
1014.10985988008
 30
0.0
 40
2.0
100
AcDbArc
 50
12.6981895196067
 51
94.76064974588905
  0
ARC
  5
1A0
330
1F
100
AcDbEntity
  8
LAY-10
  6
CONTINUOUS
 62
     7
100
AcDbCircle
 10
596.3160515005998
 20
1012.829352068464
 30
0.0
 40
3.000000000000002
100
AcDbArc
 50
84.60694374497653
 51
147.1782227860172
  0
ARC
  5
1A1
330
1F
100
AcDbEntity
  8
LAY-10
  6
CONTINUOUS
 62
     7
100
AcDbCircle
 10
594.4999999999995
 20
1014.109859880098
 30
0.0
 40
2.0
100
AcDbArc
 50
85.23935025368287
 51
167.3018104808022
  0
LINE
  5
1A2
330
1F
100
AcDbEntity
  8
LAY-10
  6
CONTINUOUS
 62
     7
100
AcDbLine
 10
576.0030111771807
 20
747.5863905986986
 30
0.0
 11
574.3483472458502
 21
700.114122152566
 31
0.0
  0
LINE
  5
1A3
330
1F
100
AcDbEntity
  8
LAY-10
  6
CONTINUOUS
 62
     7
100
AcDbLine
 10
583.9969888229821
 20
747.5863905986986
 30
0.0
 11
585.6516527543131
 21
700.1141221525696
 31
0.0
  0
ARC
  5
1A4
330
1F
100
AcDbEntity
  8
LAY-10
  6
CONTINUOUS
 62
     7
100
AcDbCircle
 10
580.0000000000891
 20
840.0000000001879
 30
0.0
 40
146.23428886493
100
AcDbArc
 50
267.2297368959093
 51
267.2297381913586
  0
ARC
  5
1A5
330
1F
100
AcDbEntity
  8
LAY-10
  6
CONTINUOUS
 62
     7
100
AcDbCircle
 10
580.0000000000891
 20
840.0000000001879
 30
0.0
 40
146.23428886493
100
AcDbArc
 50
272.770261808635
 51
272.7702631040911
  0
LINE
  5
1A6
330
1F
100
AcDbEntity
  8
LAY-10
  6
CONTINUOUS
 62
     7
100
AcDbLine
 10
587.0677009953606
 20
693.9366101859106
 30
0.0
 11
587.0677044167892
 21
693.936606933648
 31
0.0
  0
LINE
  5
1A7
330
1F
100
AcDbEntity
  8
LAY-10
  6
CONTINUOUS
 62
     7
100
AcDbLine
 10
587.0677011142889
 20
693.9366067738493
 30
0.0
 11
587.0677009953606
 21
693.9366101859106
 31
0.0
  0
ARC
  5
1A8
330
1F
100
AcDbEntity
  8
LAY-10
  6
CONTINUOUS
 62
     7
100
AcDbCircle
 10
580.00000000004
 20
839.9999999999965
 30
0.0
 40
140.0
100
AcDbArc
 50
267.6864009582759
 51
272.3135990417352
  0
LINE
  5
1A9
330
1F
100
AcDbEntity
  8
LAY-10
  6
CONTINUOUS
 62
     7
100
AcDbLine
 10
576.0030111771266
 20
932.4136094013808
 30
0.0
 11
574.3483472457992
 21
979.8858778474238
 31
0.0
  0
LINE
  5
1AA
330
1F
100
AcDbEntity
  8
LAY-10
  6
CONTINUOUS
 62
     7
100
AcDbLine
 10
583.996988822928
 20
932.4136094013808
 30
0.0
 11
585.6516527542553
 21
979.8858778474251
 31
0.0
  0
ARC
  5
1AB
330
1F
100
AcDbEntity
  8
LAY-10
  6
CONTINUOUS
 62
     7
100
AcDbCircle
 10
580.00000000004
 20
839.9999999999965
 30
0.0
 40
140.0
100
AcDbArc
 50
87.68640095827553
 51
92.31359904173505
  0
ARC
  5
1AC
330
1F
100
AcDbEntity
  8
LAY-10
  6
CONTINUOUS
 62
     7
100
AcDbCircle
 10
580.0000000001219
 20
840.0000000000556
 30
0.0
 40
150.0000000000301
100
AcDbArc
 50
257.707557224027
 51
262.3026561403975
  0
ARC
  5
1AD
330
1F
100
AcDbEntity
  8
LAY-10
  6
CONTINUOUS
 62
     7
100
AcDbCircle
 10
580.0000000001219
 20
840.0000000000556
 30
0.0
 40
150.0000000000301
100
AcDbArc
 50
247.7075572240454
 51
252.2924427759414
  0
LINE
  5
1AE
330
1F
100
AcDbEntity
  8
LAY-10
  6
CONTINUOUS
 62
     7
100
AcDbLine
 10
567.8888107174025
 20
748.2962911525066
 30
0.0
 11
559.8824855686889
 21
691.3553114561793
 31
0.0
  0
LINE
  5
1AF
330
1F
100
AcDbEntity
  8
LAY-10
  6
CONTINUOUS
 62
     7
100
AcDbLine
 10
560.0162795544111
 20
749.6844308030105
 30
0.0
 11
548.0647729550665
 21
693.4389503531935
 31
0.0
  0
ARC
  5
1B0
330
1F
100
AcDbEntity
  8
LAY-10
  6
CONTINUOUS
 62
     7
100
AcDbCircle
 10
580.0000000000819
 20
840.0000000000883
 30
0.0
 40
175.0000000000301
100
AcDbArc
 50
240.0000000000034
 51
268.6902681210013
  0
ARC
  5
1B1
330
1F
100
AcDbEntity
  8
LAY-10
  6
CONTINUOUS
 62
     7
100
AcDbCircle
 10
580.0000000000764
 20
682.0000000000701
 30
0.0
 40
3.999999999997616
100
AcDbArc
 50
0.0000000000135791
 51
180.0000000000132
  0
ARC
  5
1B2
330
1F
100
AcDbEntity
  8
LAY-10
  6
CONTINUOUS
 62
     7
100
AcDbCircle
 10
580.0000000000273
 20
839.9999999999992
 30
0.0
 40
150.0000000000301
100
AcDbArc
 50
77.70755722404368
 51
82.30265614041241
  0
ARC
  5
1B3
330
1F
100
AcDbEntity
  8
LAY-10
  6
CONTINUOUS
 62
     7
100
AcDbCircle
 10
580.0000000000273
 20
839.9999999999992
 30
0.0
 40
150.0000000000301
100
AcDbArc
 50
67.70755722404448
 51
72.29244277595448
  0
LINE
  5
1B4
330
1F
100
AcDbEntity
  8
LAY-10
  6
CONTINUOUS
 62
     7
100
AcDbLine
 10
599.983720445698
 20
930.3155691970702
 30
0.0
 11
611.9352270450399
 21
986.56104964687
 31
0.0
  0
LINE
  5
1B5
330
1F
100
AcDbEntity
  8
LAY-10
  6
CONTINUOUS
 62
     7
100
AcDbLine
 10
592.1111892827066
 20
931.7037088475741
 30
0.0
 11
600.1175144314211
 21
988.6446885439065
 31
0.0
  0
ARC
  5
1B6
330
1F
100
AcDbEntity
  8
LAY-10
  6
CONTINUOUS
 62
     7
100
AcDbCircle
 10
580.0000000000273
 20
839.9999999999924
 30
0.0
 40
175.0000000000301
100
AcDbArc
 50
60.0000000000003
 51
88.69026812099573
  0
ARC
  5
1B7
330
1F
100
AcDbEntity
  8
LAY-10
  6
CONTINUOUS
 62
     7
100
AcDbCircle
 10
580.0000000000273
 20
839.9999999999924
 30
0.0
 40
175.0000000000301
100
AcDbArc
 50
91.30973187901267
 51
240.000000000003
  0
ARC
  5
1B8
330
1F
100
AcDbEntity
  8
LAY-10
  6
CONTINUOUS
 62
     7
100
AcDbCircle
 10
580.0000000000314
 20
997.9999999999446
 30
0.0
 40
3.999999999997616
100
AcDbArc
 50
180.000000000013
 51
0.0000000000144958
  0
ARC
  5
1B9
330
1F
100
AcDbEntity
  8
LAY-10
  6
CONTINUOUS
 62
     7
100
AcDbCircle
 10
580.0000000000646
 20
840.0000000000938
 30
0.0
 40
150.0000000000301
100
AcDbArc
 50
57.70755722404471
 51
62.29244277595556
  0
LINE
  5
1BA
330
1F
100
AcDbEntity
  8
LAY-10
  6
CONTINUOUS
 62
     7
100
AcDbLine
 10
615.3632568349767
 20
925.4733361245895
 30
0.0
 11
636.9001183763035
 21
978.7889640021259
 31
0.0
  0
LINE
  5
1BB
330
1F
100
AcDbEntity
  8
LAY-10
  6
CONTINUOUS
 62
     7
100
AcDbLine
 10
607.8513750304892
 20
928.2074375047483
 30
0.0
 11
625.6238069268716
 21
982.8932057220364
 31
0.0
  0
ARC
  5
1BC
330
1F
100
AcDbEntity
  8
LAY-10
  6
CONTINUOUS
 62
     7
100
AcDbCircle
 10
580.000000000131
 20
840.0000000000401
 30
0.0
 40
150.0000000000301
100
AcDbArc
 50
237.7075572240456
 51
242.2924427759561
  0
LINE
  5
1BD
330
1F
100
AcDbEntity
  8
LAY-10
  6
CONTINUOUS
 62
     7
100
AcDbLine
 10
552.14862496962
 20
751.7925624953324
 30
0.0
 11
534.376193073238
 21
697.1067942780429
 31
0.0
  0
LINE
  5
1BE
330
1F
100
AcDbEntity
  8
LAY-10
  6
CONTINUOUS
 62
     7
100
AcDbLine
 10
544.6367431651324
 20
754.5266638754912
 30
0.0
 11
523.0998816238052
 21
701.2110359979571
 31
0.0
  0
ARC
  5
1BF
330
1F
100
AcDbEntity
  8
LAY-10
  6
CONTINUOUS
 62
     7
100
AcDbCircle
 10
580.0000000000819
 20
840.0000000000883
 30
0.0
 40
92.50000000004002
100
AcDbArc
 50
257.5234382329037
 51
262.4761126737419
  0
ARC
  5
1C0
330
1F
100
AcDbEntity
  8
LAY-10
  6
CONTINUOUS
 62
     7
100
AcDbCircle
 10
580.0000000000819
 20
840.0000000000883
 30
0.0
 40
92.50000000004002
100
AcDbArc
 50
57.52388732629252
 51
60.00000000000001
  0
ARC
  5
1C1
330
1F
100
AcDbEntity
  8
LAY-10
  6
CONTINUOUS
 62
     7
100
AcDbCircle
 10
580.0000000000819
 20
840.0000000000883
 30
0.0
 40
150.0000000000301
100
AcDbArc
 50
327.7075572240449
 51
332.2924427759559
  0
LINE
  5
1C2
330
1F
100
AcDbEntity
  8
LAY-10
  6
CONTINUOUS
 62
     7
100
AcDbLine
 10
662.0310278085472
 20
797.2546891586682
 30
0.0
 11
712.7998459168098
 21
770.2561764419999
 31
0.0
  0
LINE
  5
1C3
330
1F
100
AcDbEntity
  8
LAY-10
  6
CONTINUOUS
 62
     7
100
AcDbLine
 10
658.0340389856465
 20
790.3317014401192
 30
0.0
 11
706.7998459168098
 21
759.8638715965864
 31
0.0
  0
ARC
  5
1C4
330
1F
100
AcDbEntity
  8
LAY-10
  6
CONTINUOUS
 62
     7
100
AcDbCircle
 10
580.0000000000819
 20
840.0000000000883
 30
0.0
 40
92.50000000004002
100
AcDbArc
 50
327.5238873262927
 51
332.476112673708
  0
ARC
  5
1C5
330
1F
100
AcDbEntity
  8
LAY-10
  6
CONTINUOUS
 62
     7
100
AcDbCircle
 10
580.0000000000819
 20
840.0000000000883
 30
0.0
 40
150.0000000000301
100
AcDbArc
 50
337.7075572240446
 51
342.2924427759557
  0
LINE
  5
1C6
330
1F
100
AcDbEntity
  8
LAY-10
  6
CONTINUOUS
 62
     7
100
AcDbLine
 10
668.2074375048378
 20
812.1486249696255
 30
0.0
 11
722.8932057220882
 21
794.3761930732568
 31
0.0
  0
LINE
  5
1C7
330
1F
100
AcDbEntity
  8
LAY-10
  6
CONTINUOUS
 62
     7
100
AcDbLine
 10
665.4733361246781
 20
804.6367431651389
 30
0.0
 11
718.7889640021804
 21
783.0998816238254
 31
0.0
  0
ARC
  5
1C8
330
1F
100
AcDbEntity
  8
LAY-10
  6
CONTINUOUS
 62
     7
100
AcDbCircle
 10
580.0000000000819
 20
840.0000000000883
 30
0.0
 40
92.50000000004002
100
AcDbArc
 50
337.5238873262925
 51
342.4761126737078
  0
ARC
  5
1C9
330
1F
100
AcDbEntity
  8
LAY-10
  6
CONTINUOUS
 62
     7
100
AcDbCircle
 10
580.0000000000819
 20
840.0000000000883
 30
0.0
 40
150.0000000000301
100
AcDbArc
 50
47.70755722404469
 51
52.29244277595556
  0
LINE
  5
1CA
330
1F
100
AcDbEntity
  8
LAY-10
  6
CONTINUOUS
 62
     7
100
AcDbLine
 10
636.3404520127146
 20
913.3621468420062
 30
0.0
 11
671.7447094026911
 21
958.6714299933225
 31
0.0
  0
LINE
  5
1CB
330
1F
100
AcDbEntity
  8
LAY-10
  6
CONTINUOUS
 62
     7
100
AcDbLine
 10
642.4641941666978
 20
908.2237170591735
 30
0.0
 11
680.9372427201188
 21
950.9579786770838
 31
0.0
  0
ARC
  5
1CC
330
1F
100
AcDbEntity
  8
LAY-10
  6
CONTINUOUS
 62
     7
100
AcDbCircle
 10
580.0000000000819
 20
840.0000000000883
 30
0.0
 40
92.50000000004002
100
AcDbArc
 50
47.52388732629245
 51
52.47611267370792
  0
ARC
  5
1CD
330
1F
100
AcDbEntity
  8
LAY-10
  6
CONTINUOUS
 62
     7
100
AcDbCircle
 10
580.0000000000819
 20
840.0000000000883
 30
0.0
 40
150.0000000000301
100
AcDbArc
 50
37.70755722404464
 51
42.29244277595561
  0
LINE
  5
1CE
330
1F
100
AcDbEntity
  8
LAY-10
  6
CONTINUOUS
 62
     7
100
AcDbLine
 10
648.2237170591675
 20
902.4641941667038
 30
0.0
 11
690.9579786770778
 21
940.9372427201257
 31
0.0
  0
LINE
  5
1CF
330
1F
100
AcDbEntity
  8
LAY-10
  6
CONTINUOUS
 62
     7
100
AcDbLine
 10
653.3621468419997
 20
896.3404520127202
 30
0.0
 11
698.671429993316
 21
931.744709402698
 31
0.0
  0
ARC
  5
1D0
330
1F
100
AcDbEntity
  8
LAY-10
  6
CONTINUOUS
 62
     7
100
AcDbCircle
 10
580.0000000000819
 20
840.0000000000883
 30
0.0
 40
92.50000000004002
100
AcDbArc
 50
37.5238873262924
 51
42.47611267370786
  0
ARC
  5
1D1
330
1F
100
AcDbEntity
  8
LAY-10
  6
CONTINUOUS
 62
     7
100
AcDbCircle
 10
580.0000000000819
 20
840.0000000000883
 30
0.0
 40
150.0000000000301
100
AcDbArc
 50
27.70755722404463
 51
32.29244277595561
  0
LINE
  5
1D2
330
1F
100
AcDbEntity
  8
LAY-10
  6
CONTINUOUS
 62
     7
100
AcDbLine
 10
658.0340389856474
 20
889.6682985600575
 30
0.0
 11
706.7998459168102
 21
920.1361284035899
 31
0.0
  0
LINE
  5
1D3
330
1F
100
AcDbEntity
  8
LAY-10
  6
CONTINUOUS
 62
     7
100
AcDbLine
 10
662.0310278085472
 20
882.7453108415076
 30
0.0
 11
712.7998459168098
 21
909.7438235581768
 31
0.0
  0
ARC
  5
1D4
330
1F
100
AcDbEntity
  8
LAY-10
  6
CONTINUOUS
 62
     7
100
AcDbCircle
 10
580.0000000000819
 20
840.0000000000883
 30
0.0
 40
92.50000000004002
100
AcDbArc
 50
27.52388732629233
 51
32.47611267370785
  0
ARC
  5
1D5
330
1F
100
AcDbEntity
  8
LAY-10
  6
CONTINUOUS
 62
     7
100
AcDbCircle
 10
580.0000000000819
 20
840.0000000000883
 30
0.0
 40
150.0000000000301
100
AcDbArc
 50
17.70755722404463
 51
22.29244277595567
  0
LINE
  5
1D6
330
1F
100
AcDbEntity
  8
LAY-10
  6
CONTINUOUS
 62
     7
100
AcDbLine
 10
665.4733361246786
 20
875.3632568350369
 30
0.0
 11
718.7889640021799
 21
896.9001183763509
 31
0.0
  0
LINE
  5
1D7
330
1F
100
AcDbEntity
  8
LAY-10
  6
CONTINUOUS
 62
     7
100
AcDbLine
 10
668.2074375048378
 20
867.8513750305493
 30
0.0
 11
722.8932057220882
 21
885.6238069269203
 31
0.0
  0
ARC
  5
1D8
330
1F
100
AcDbEntity
  8
LAY-10
  6
CONTINUOUS
 62
     7
100
AcDbCircle
 10
580.0000000000819
 20
840.0000000000883
 30
0.0
 40
92.50000000004002
100
AcDbArc
 50
17.52388732629244
 51
22.47611267370786
  0
ARC
  5
1D9
330
1F
100
AcDbEntity
  8
LAY-10
  6
CONTINUOUS
 62
     7
100
AcDbCircle
 10
580.0000000000819
 20
840.0000000000883
 30
0.0
 40
150.0000000000301
100
AcDbArc
 50
7.707557224044627
 51
12.29244277595567
  0
LINE
  5
1DA
330
1F
100
AcDbEntity
  8
LAY-10
  6
CONTINUOUS
 62
     7
100
AcDbLine
 10
670.3155691971597
 20
859.9837204457582
 30
0.0
 11
726.5610496469508
 21
871.9352270450992
 31
0.0
  0
LINE
  5
1DB
330
1F
100
AcDbEntity
  8
LAY-10
  6
CONTINUOUS
 62
     7
100
AcDbLine
 10
671.7037088476636
 20
852.1111892827668
 30
0.0
 11
728.6448277789546
 21
860.1175340089522
 31
0.0
  0
ARC
  5
1DC
330
1F
100
AcDbEntity
  8
LAY-10
  6
CONTINUOUS
 62
     7
100
AcDbCircle
 10
580.0000000000819
 20
840.0000000000883
 30
0.0
 40
92.50000000004002
100
AcDbArc
 50
7.523887326292383
 51
12.47611267370785
  0
ARC
  5
1DD
330
1F
100
AcDbEntity
  8
LAY-10
  6
CONTINUOUS
 62
     7
100
AcDbCircle
 10
580.0000000000819
 20
840.0000000000883
 30
0.0
 40
150.0000000000301
100
AcDbArc
 50
357.7075572240449
 51
2.292442775955605
  0
ARC
  5
1DE
330
1F
100
AcDbEntity
  8
LAY-10
  6
CONTINUOUS
 62
     7
100
AcDbCircle
 10
580.0000000000819
 20
840.0000000000883
 30
0.0
 40
92.50000000004002
100
AcDbArc
 50
357.5238873262924
 51
2.476112673707792
  0
ARC
  5
1DF
330
1F
100
AcDbEntity
  8
LAY-10
  6
CONTINUOUS
 62
     7
100
AcDbCircle
 10
580.0000000000819
 20
840.0000000000883
 30
0.0
 40
150.0000000000301
100
AcDbArc
 50
347.7075572240446
 51
352.2924427759556
  0
LINE
  5
1E0
330
1F
100
AcDbEntity
  8
LAY-10
  6
CONTINUOUS
 62
     7
100
AcDbLine
 10
671.7037088476632
 20
827.888810717409
 30
0.0
 11
728.6448277789541
 21
819.8824659912244
 31
0.0
  0
LINE
  5
1E1
330
1F
100
AcDbEntity
  8
LAY-10
  6
CONTINUOUS
 62
     7
100
AcDbLine
 10
670.3155691971597
 20
820.0162795544176
 30
0.0
 11
726.5610496469512
 21
808.0647729550775
 31
0.0
  0
ARC
  5
1E2
330
1F
100
AcDbEntity
  8
LAY-10
  6
CONTINUOUS
 62
     7
100
AcDbCircle
 10
580.0000000000819
 20
840.0000000000883
 30
0.0
 40
92.50000000004002
100
AcDbArc
 50
347.5238873262924
 51
352.4761126737078
  0
ARC
  5
1E3
330
1F
100
AcDbEntity
  8
LAY-10
  6
CONTINUOUS
 62
     7
100
AcDbCircle
 10
580.0000000000819
 20
840.0000000000883
 30
0.0
 40
150.0000000000301
100
AcDbArc
 50
317.7075572240448
 51
322.2924427759556
  0
LINE
  5
1E4
330
1F
100
AcDbEntity
  8
LAY-10
  6
CONTINUOUS
 62
     7
100
AcDbLine
 10
653.3621468419997
 20
783.6595479874551
 30
0.0
 11
698.6714299933165
 21
748.2552905974782
 31
0.0
  0
LINE
  5
1E5
330
1F
100
AcDbEntity
  8
LAY-10
  6
CONTINUOUS
 62
     7
100
AcDbLine
 10
648.223717059167
 20
777.5358058334715
 30
0.0
 11
690.9579786770782
 21
739.0627572800505
 31
0.0
  0
ARC
  5
1E6
330
1F
100
AcDbEntity
  8
LAY-10
  6
CONTINUOUS
 62
     7
100
AcDbCircle
 10
580.0000000000819
 20
840.0000000000883
 30
0.0
 40
92.50000000004002
100
AcDbArc
 50
317.5238873262927
 51
322.4761126737078
  0
ARC
  5
1E7
330
1F
100
AcDbEntity
  8
LAY-10
  6
CONTINUOUS
 62
     7
100
AcDbCircle
 10
580.0000000000819
 20
840.0000000000883
 30
0.0
 40
150.0000000000301
100
AcDbArc
 50
307.7075572240451
 51
312.2924427759561
  0
LINE
  5
1E8
330
1F
100
AcDbEntity
  8
LAY-10
  6
CONTINUOUS
 62
     7
100
AcDbLine
 10
642.4641941666978
 20
771.7762829410023
 30
0.0
 11
680.9372427201192
 21
729.042021323092
 31
0.0
  0
LINE
  5
1E9
330
1F
100
AcDbEntity
  8
LAY-10
  6
CONTINUOUS
 62
     7
100
AcDbLine
 10
636.3404520127142
 20
766.6378531581696
 30
0.0
 11
671.7447094026911
 21
721.3285700068537
 31
0.0
  0
ARC
  5
1EA
330
1F
100
AcDbEntity
  8
LAY-10
  6
CONTINUOUS
 62
     7
100
AcDbCircle
 10
580.0000000000819
 20
840.0000000000883
 30
0.0
 40
92.50000000004002
100
AcDbArc
 50
307.5238873262928
 51
312.4761126737083
  0
ARC
  5
1EB
330
1F
100
AcDbEntity
  8
LAY-10
  6
CONTINUOUS
 62
     7
100
AcDbCircle
 10
580.0000000000819
 20
840.0000000000883
 30
0.0
 40
150.0000000000301
100
AcDbArc
 50
297.7075572240452
 51
302.2924427759561
  0
ARC
  5
1EC
330
1F
100
AcDbEntity
  8
LAY-10
  6
CONTINUOUS
 62
     7
100
AcDbCircle
 10
580.0000000000819
 20
840.0000000000883
 30
0.0
 40
92.50000000004002
100
AcDbArc
 50
297.5238873262927
 51
302.476112673708
  0
ARC
  5
1ED
330
1F
100
AcDbEntity
  8
LAY-10
  6
CONTINUOUS
 62
     7
100
AcDbCircle
 10
580.0000000000819
 20
840.0000000000883
 30
0.0
 40
150.0000000000301
100
AcDbArc
 50
287.707557224045
 51
292.2924427759563
  0
LINE
  5
1EE
330
1F
100
AcDbEntity
  8
LAY-10
  6
CONTINUOUS
 62
     7
100
AcDbLine
 10
615.3632568350304
 20
754.5266638754907
 30
0.0
 11
636.9001183763448
 21
701.2110359979889
 31
0.0
  0
LINE
  5
1EF
330
1F
100
AcDbEntity
  8
LAY-10
  6
CONTINUOUS
 62
     7
100
AcDbLine
 10
607.8513750305437
 20
751.7925624953324
 30
0.0
 11
625.6238069269139
 21
697.1067942780811
 31
0.0
  0
ARC
  5
1F0
330
1F
100
AcDbEntity
  8
LAY-10
  6
CONTINUOUS
 62
     7
100
AcDbCircle
 10
580.0000000000819
 20
840.0000000000883
 30
0.0
 40
92.50000000004002
100
AcDbArc
 50
287.5238873262931
 51
292.4761126737084
  0
ARC
  5
1F1
330
1F
100
AcDbEntity
  8
LAY-10
  6
CONTINUOUS
 62
     7
100
AcDbCircle
 10
580.0000000000819
 20
840.0000000000883
 30
0.0
 40
150.0000000000301
100
AcDbArc
 50
277.7075572240454
 51
282.292442775956
  0
LINE
  5
1F2
330
1F
100
AcDbEntity
  8
LAY-10
  6
CONTINUOUS
 62
     7
100
AcDbLine
 10
599.9837204457517
 20
749.6844308030096
 30
0.0
 11
611.9352270450918
 21
693.4389503532185
 31
0.0
  0
LINE
  5
1F3
330
1F
100
AcDbEntity
  8
LAY-10
  6
CONTINUOUS
 62
     7
100
AcDbLine
 10
592.1111892827607
 20
748.2962911525066
 30
0.0
 11
600.1175340089458
 21
691.3551722212152
 31
0.0
  0
ARC
  5
1F4
330
1F
100
AcDbEntity
  8
LAY-10
  6
CONTINUOUS
 62
     7
100
AcDbCircle
 10
580.0000000000819
 20
840.0000000000883
 30
0.0
 40
92.50000000004002
100
AcDbArc
 50
277.5238873262927
 51
282.4761126737083
  0
ARC
  5
1F5
330
1F
100
AcDbEntity
  8
LAY-10
  6
CONTINUOUS
 62
     7
100
AcDbCircle
 10
580.0000000000819
 20
840.0000000000883
 30
0.0
 40
92.50000000004002
100
AcDbArc
 50
267.5238873262925
 51
272.4761126737084
  0
ARC
  5
1F6
330
1F
100
AcDbEntity
  8
LAY-10
  6
CONTINUOUS
 62
     7
100
AcDbCircle
 10
580.0000000000273
 20
839.9999999999924
 30
0.0
 40
92.50000000004002
100
AcDbArc
 50
60.0000000000006
 51
62.47611267370792
  0
ARC
  5
1F7
330
1F
100
AcDbEntity
  8
LAY-10
  6
CONTINUOUS
 62
     7
100
AcDbCircle
 10
580.0000000000273
 20
839.9999999999924
 30
0.0
 40
92.50000000004002
100
AcDbArc
 50
237.5238873262925
 51
239.9999999999997
  0
ARC
  5
1F8
330
1F
100
AcDbEntity
  8
LAY-10
  6
CONTINUOUS
 62
     7
100
AcDbCircle
 10
579.999999999985
 20
840.0000000000347
 30
0.0
 40
88.35322300770997
100
AcDbArc
 50
99.80500130154276
 51
102.7297068883788
  0
ARC
  5
1F9
330
1F
100
AcDbEntity
  8
LAY-10
  6
CONTINUOUS
 62
     7
100
AcDbCircle
 10
579.999999999985
 20
840.0000000000347
 30
0.0
 40
88.35322300770997
100
AcDbArc
 50
87.27029311161581
 51
90.19499869858564
  0
ARC
  5
1FA
330
1F
100
AcDbEntity
  8
LAY-10
  6
CONTINUOUS
 62
     7
100
AcDbCircle
 10
579.999999999985
 20
840.0000000000347
 30
0.0
 40
88.35322300770997
100
AcDbArc
 50
79.8050013015311
 51
82.72970688836355
  0
ARC
  5
1FB
330
1F
100
AcDbEntity
  8
LAY-10
  6
CONTINUOUS
 62
     7
100
AcDbCircle
 10
579.999999999985
 20
840.0000000000347
 30
0.0
 40
88.35322300770997
100
AcDbArc
 50
67.27029311161529
 51
70.19499869857995
  0
ARC
  5
1FC
330
1F
100
AcDbEntity
  8
LAY-10
  6
CONTINUOUS
 62
     7
100
AcDbCircle
 10
579.999999999985
 20
840.0000000000347
 30
0.0
 40
88.35322300770997
100
AcDbArc
 50
219.8050013015787
 51
222.7297068884203
  0
ARC
  5
1FD
330
1F
100
AcDbEntity
  8
LAY-10
  6
CONTINUOUS
 62
     7
100
AcDbCircle
 10
579.999999999985
 20
840.0000000000347
 30
0.0
 40
88.35322300770997
100
AcDbArc
 50
207.2702931116738
 51
210.1949986986366
  0
ARC
  5
1FE
330
1F
100
AcDbEntity
  8
LAY-10
  6
CONTINUOUS
 62
     7
100
AcDbCircle
 10
579.999999999985
 20
840.0000000000347
 30
0.0
 40
88.35322300770997
100
AcDbArc
 50
199.8050013015775
 51
202.7297068884252
  0
ARC
  5
1FF
330
1F
100
AcDbEntity
  8
LAY-10
  6
CONTINUOUS
 62
     7
100
AcDbCircle
 10
579.999999999985
 20
840.0000000000347
 30
0.0
 40
88.35322300770997
100
AcDbArc
 50
187.2702931116679
 51
190.1949986986282
  0
ARC
  5
200
330
1F
100
AcDbEntity
  8
LAY-10
  6
CONTINUOUS
 62
     7
100
AcDbCircle
 10
579.999999999985
 20
840.0000000000347
 30
0.0
 40
88.35322300770997
100
AcDbArc
 50
179.8050013015694
 51
182.7297068884244
  0
ARC
  5
201
330
1F
100
AcDbEntity
  8
LAY-10
  6
CONTINUOUS
 62
     7
100
AcDbCircle
 10
579.999999999985
 20
840.0000000000347
 30
0.0
 40
88.35322300770997
100
AcDbArc
 50
167.2702931116528
 51
170.1949986986109
  0
ARC
  5
202
330
1F
100
AcDbEntity
  8
LAY-10
  6
CONTINUOUS
 62
     7
100
AcDbCircle
 10
579.999999999985
 20
840.0000000000347
 30
0.0
 40
88.35322300770997
100
AcDbArc
 50
159.8050013015546
 51
162.7297068884186
  0
ARC
  5
203
330
1F
100
AcDbEntity
  8
LAY-10
  6
CONTINUOUS
 62
     7
100
AcDbCircle
 10
579.999999999985
 20
840.0000000000347
 30
0.0
 40
88.35322300770997
100
AcDbArc
 50
147.2702931116335
 51
150.1949986985911
  0
ARC
  5
204
330
1F
100
AcDbEntity
  8
LAY-10
  6
CONTINUOUS
 62
     7
100
AcDbCircle
 10
580.0000000000678
 20
840.0000000000806
 30
0.0
 40
150.0000000000301
100
AcDbArc
 50
157.7075572240451
 51
162.2924427759558
  0
LINE
  5
205
330
1F
100
AcDbEntity
  8
LAY-10
  6
CONTINUOUS
 62
     7
100
AcDbLine
 10
491.7925624953114
 20
867.851375030543
 30
0.0
 11
437.106794278061
 21
885.6238069269122
 31
0.0
  0
LINE
  5
206
330
1F
100
AcDbEntity
  8
LAY-10
  6
CONTINUOUS
 62
     7
100
AcDbLine
 10
494.5266638754706
 20
875.3632568350305
 30
0.0
 11
441.2110359979688
 21
896.9001183763436
 31
0.0
  0
ARC
  5
207
330
1F
100
AcDbEntity
  8
LAY-10
  6
CONTINUOUS
 62
     7
100
AcDbCircle
 10
580.0000000000678
 20
840.0000000000806
 30
0.0
 40
92.50000000004002
100
AcDbArc
 50
157.5238873262927
 51
162.476112673708
  0
ARC
  5
208
330
1F
100
AcDbEntity
  8
LAY-10
  6
CONTINUOUS
 62
     7
100
AcDbCircle
 10
580.0000000000678
 20
840.0000000000824
 30
0.0
 40
150.0000000000301
100
AcDbArc
 50
147.7075572240449
 51
152.2924427759559
  0
LINE
  5
209
330
1F
100
AcDbEntity
  8
LAY-10
  6
CONTINUOUS
 62
     7
100
AcDbLine
 10
497.968972191602
 20
882.7453108415026
 30
0.0
 11
447.2001540833398
 21
909.7438235581709
 31
0.0
  0
LINE
  5
20A
330
1F
100
AcDbEntity
  8
LAY-10
  6
CONTINUOUS
 62
     7
100
AcDbLine
 10
501.9659610145027
 20
889.6682985600515
 30
0.0
 11
453.2001540833398
 21
920.1361284035839
 31
0.0
  0
ARC
  5
20B
330
1F
100
AcDbEntity
  8
LAY-10
  6
CONTINUOUS
 62
     7
100
AcDbCircle
 10
580.0000000000678
 20
840.0000000000824
 30
0.0
 40
92.50000000004002
100
AcDbArc
 50
147.5238873262927
 51
152.4761126737081
  0
LINE
  5
20C
330
1F
100
AcDbEntity
  8
LAY-10
  6
CONTINUOUS
 62
     7
100
AcDbLine
 10
501.9659610144627
 20
790.3317014400228
 30
0.0
 11
453.2001540832994
 21
759.8638715964909
 31
0.0
  0
LINE
  5
20D
330
1F
100
AcDbEntity
  8
LAY-10
  6
CONTINUOUS
 62
     7
100
AcDbLine
 10
521.8576251134828
 20
858.167392847935
 30
0.0
 11
495.6301948647833
 21
866.2302877830172
 31
0.0
  0
LINE
  5
20E
330
1F
100
AcDbEntity
  8
LAY-10
  6
CONTINUOUS
 62
     7
100
AcDbLine
 10
525.1413875935327
 20
861.1824449057891
 30
0.0
 11
502.1866735769136
 21
869.6646825038689
 31
0.0
  0
LINE
  5
20F
330
1F
100
AcDbEntity
  8
LAY-10
  6
CONTINUOUS
 62
     7
100
AcDbLine
 10
524.7225556018802
 20
860.2859082402102
 30
0.0
 11
497.0784539483097
 21
870.5009707428472
 31
0.0
  0
ARC
  5
210
330
1F
100
AcDbEntity
  8
LAY-10
  6
CONTINUOUS
 62
     7
100
AcDbCircle
 10
579.999999999985
 20
840.0000000000347
 30
0.0
 40
88.35322300770997
100
AcDbArc
 50
127.2702931116323
 51
130.1949986985209
  0
ARC
  5
211
330
1F
100
AcDbEntity
  8
LAY-10
  6
CONTINUOUS
 62
     7
100
AcDbCircle
 10
579.999999999985
 20
840.0000000000347
 30
0.0
 40
88.35322300770997
100
AcDbArc
 50
119.8050013015546
 51
122.7297068883941
  0
ARC
  5
212
330
1F
100
AcDbEntity
  8
LAY-10
  6
CONTINUOUS
 62
     7
100
AcDbCircle
 10
579.999999999985
 20
840.0000000000347
 30
0.0
 40
88.35322300770997
100
AcDbArc
 50
107.2702931116217
 51
110.1949986985836
  0
ARC
  5
213
330
1F
100
AcDbEntity
  8
LAY-10
  6
CONTINUOUS
 62
     7
100
AcDbCircle
 10
579.999999999985
 20
840.0000000000347
 30
0.0
 40
88.35322300770997
100
AcDbArc
 50
139.8050013014927
 51
142.7297068884082
  0
ARC
  5
214
330
1F
100
AcDbEntity
  8
LAY-10
  6
CONTINUOUS
 62
     7
100
AcDbCircle
 10
509.2108534445797
 20
889.5670940415117
 30
0.0
 40
3.966484956560522
100
AcDbArc
 50
83.06756504281448
 51
206.9324349572071
  0
ARC
  5
215
330
1F
100
AcDbEntity
  8
LAY-10
  6
CONTINUOUS
 62
     7
100
AcDbCircle
 10
496.5270167418239
 20
862.3665184538132
 30
0.0
 40
3.966484956560522
100
AcDbArc
 50
103.0675650428147
 51
226.9324349572071
  0
ARC
  5
216
330
1F
100
AcDbEntity
  8
LAY-10
  6
CONTINUOUS
 62
     7
100
AcDbCircle
 10
493.911253750035
 20
832.4682106459278
 30
0.0
 40
3.966484956560522
100
AcDbArc
 50
123.0675650428145
 51
246.9324349572069
  0
ARC
  5
217
330
1F
100
AcDbEntity
  8
LAY-10
  6
CONTINUOUS
 62
     7
100
AcDbCircle
 10
501.6790640905756
 20
803.4783477915149
 30
0.0
 40
3.966484956560522
100
AcDbArc
 50
143.0675650428147
 51
266.9324349572071
  0
ARC
  5
218
330
1F
100
AcDbEntity
  8
LAY-10
  6
CONTINUOUS
 62
     7
100
AcDbCircle
 10
518.8935351957034
 20
778.8935351956258
 30
0.0
 40
3.966484956560522
100
AcDbArc
 50
163.0675650428148
 51
286.9324349572069
  0
ARC
  5
219
330
1F
100
AcDbEntity
  8
LAY-10
  6
CONTINUOUS
 62
     7
100
AcDbCircle
 10
587.5317893540314
 20
926.0887462499892
 30
0.0
 40
3.966484956560522
100
AcDbArc
 50
23.0675650428144
 51
146.9324349572069
  0
ARC
  5
21A
330
1F
100
AcDbEntity
  8
LAY-10
  6
CONTINUOUS
 62
     7
100
AcDbCircle
 10
557.6334815461482
 20
923.4729832581799
 30
0.0
 40
3.966484956560522
100
AcDbArc
 50
43.06756504281446
 51
166.9324349572068
  0
LINE
  5
21B
330
1F
100
AcDbEntity
  8
LAY-10
  6
CONTINUOUS
 62
     7
100
AcDbLine
 10
503.3339584745372
 20
883.9159434906697
 30
0.0
 11
507.2580927177492
 21
880.540375948212
 31
0.0
  0
LINE
  5
21C
330
1F
100
AcDbEntity
  8
LAY-10
  6
CONTINUOUS
 62
     7
100
AcDbLine
 10
528.928436364668
 20
869.3054486428788
 30
0.0
 11
503.3339584745377
 21
883.9159434906707
 31
0.0
  0
ARC
  5
21D
330
1F
100
AcDbEntity
  8
LAY-10
  6
CONTINUOUS
 62
     7
100
AcDbCircle
 10
526.5278405648137
 20
864.9344774426546
 30
0.0
 40
4.9861
100
AcDbArc
 50
248.7760449851712
 51
61.22382111588775
  0
LINE
  5
21E
330
1F
100
AcDbEntity
  8
LAY-10
  6
CONTINUOUS
 62
     7
100
AcDbLine
 10
497.0784539483107
 20
870.5009707428477
 30
0.0
 11
502.1866735768681
 21
869.6646825037479
 31
0.0
  0
LINE
  5
21F
330
1F
100
AcDbEntity
  8
LAY-10
  6
CONTINUOUS
 62
     7
100
AcDbLine
 10
528.709771488097
 20
872.861868168649
 30
0.0
 11
505.6745684298389
 21
887.7705164054729
 31
0.0
  0
ARC
  5
220
330
1F
100
AcDbEntity
  8
LAY-10
  6
CONTINUOUS
 62
     7
100
AcDbCircle
 10
523.9881820675873
 20
866.1187396490978
 30
0.0
 40
8.231839945437176
100
AcDbArc
 50
255.0000000000074
 51
55.00000000001373
  0
ARC
  5
221
330
1F
100
AcDbEntity
  8
LAY-10
  6
CONTINUOUS
 62
     7
100
AcDbCircle
 10
526.5278405648523
 20
864.9344774427383
 30
0.0
 40
4.0
100
AcDbArc
 50
249.7196947480812
 51
60.28030525191915
  0
LINE
  5
222
330
1F
100
AcDbEntity
  8
LAY-10
  6
CONTINUOUS
 62
     7
100
AcDbLine
 10
528.5108694488063
 20
868.4083220629547
 30
0.0
 11
507.2580927178014
 21
880.540375948308
 31
0.0
  0
LINE
  5
223
330
1F
100
AcDbEntity
  8
LAY-10
  6
CONTINUOUS
 62
     7
100
AcDbLine
 10
492.9373492266886
 20
855.0461575222636
 30
0.0
 11
497.7793413126847
 21
853.2162945679448
 31
0.0
  0
LINE
  5
224
330
1F
100
AcDbEntity
  8
LAY-10
  6
CONTINUOUS
 62
     7
100
AcDbLine
 10
521.985374774813
 20
850.0706103240924
 30
0.0
 11
492.9373492266886
 21
855.0461575222654
 31
0.0
  0
ARC
  5
225
330
1F
100
AcDbEntity
  8
LAY-10
  6
CONTINUOUS
 62
     7
100
AcDbCircle
 10
521.2245128125733
 20
845.1421888220426
 30
0.0
 40
4.9861
100
AcDbArc
 50
268.7760449851714
 51
81.22382111588782
  0
LINE
  5
226
330
1F
100
AcDbEntity
  8
LAY-10
  6
CONTINUOUS
 62
     7
100
AcDbLine
 10
521.1180041593689
 20
840.1565188235255
 30
0.0
 11
491.6472886860201
 21
840.300698068456
 31
0.0
  0
LINE
  5
227
330
1F
100
AcDbEntity
  8
LAY-10
  6
CONTINUOUS
 62
     7
100
AcDbLine
 10
491.6472886860211
 20
840.3006980684578
 30
0.0
 11
496.7334723997278
 21
841.261958190824
 31
0.0
  0
LINE
  5
228
330
1F
100
AcDbEntity
  8
LAY-10
  6
CONTINUOUS
 62
     7
100
AcDbLine
 10
520.5635298879442
 20
853.3377637164532
 30
0.0
 11
493.8184615490431
 21
859.4688069989676
 31
0.0
  0
ARC
  5
229
330
1F
100
AcDbEntity
  8
LAY-10
  6
CONTINUOUS
 62
     7
100
AcDbCircle
 10
518.4329729338315
 20
845.3864169152922
 30
0.0
 40
8.231839945437176
100
AcDbArc
 50
275.0000000000073
 51
75.0000000000138
  0
LINE
  5
22A
330
1F
100
AcDbEntity
  8
LAY-10
  6
CONTINUOUS
 62
     7
100
AcDbLine
 10
519.1504250584603
 20
837.1859016061236
 30
0.0
 11
491.7470299102638
 21
835.7922350260679
 31
0.0
  0
ARC
  5
22B
330
1F
100
AcDbEntity
  8
LAY-10
  6
CONTINUOUS
 62
     7
100
AcDbCircle
 10
521.224512812581
 20
845.1421888221336
 30
0.0
 40
4.0
100
AcDbArc
 50
269.7196947480813
 51
80.28030525191927
  0
LINE
  5
22C
330
1F
100
AcDbEntity
  8
LAY-10
  6
CONTINUOUS
 62
     7
100
AcDbLine
 10
521.2049438924159
 20
841.142236690249
 30
0.0
 11
496.733472399731
 21
841.2619581909531
 31
0.0
  0
LINE
  5
22D
330
1F
100
AcDbEntity
  8
LAY-10
  6
CONTINUOUS
 62
     7
100
AcDbLine
 10
521.8998255867409
 20
849.084770800616
 30
0.0
 11
497.7793413127019
 21
853.216294568054
 31
0.0
  0
LINE
  5
22E
330
1F
100
AcDbEntity
  8
LAY-10
  6
CONTINUOUS
 62
     7
100
AcDbLine
 10
493.0417805699867
 20
824.3615828990352
 30
0.0
 11
498.217614793004
 21
824.2981330110462
 31
0.0
  0
LINE
  5
22F
330
1F
100
AcDbEntity
  8
LAY-10
  6
CONTINUOUS
 62
     7
100
AcDbLine
 10
522.0397331918016
 20
829.6211077738386
 30
0.0
 11
493.0417805699863
 21
824.3615828990361
 31
0.0
  0
ARC
  5
230
330
1F
100
AcDbEntity
  8
LAY-10
  6
CONTINUOUS
 62
     7
100
AcDbCircle
 10
523.0103762489489
 20
824.7296763388632
 30
0.0
 40
4.9861
100
AcDbArc
 50
288.7760449851712
 51
101.2238211158876
  0
LINE
  5
231
330
1F
100
AcDbEntity
  8
LAY-10
  6
CONTINUOUS
 62
     7
100
AcDbLine
 10
524.6154904209498
 20
820.0082509267487
 30
0.0
 11
496.8727643553475
 21
810.0641567691756
 31
0.0
  0
LINE
  5
232
330
1F
100
AcDbEntity
  8
LAY-10
  6
CONTINUOUS
 62
     7
100
AcDbLine
 10
496.8727643553475
 20
810.0641567691774
 30
0.0
 11
501.3234433342545
 21
812.7070230955634
 31
0.0
  0
LINE
  5
233
330
1F
100
AcDbEntity
  8
LAY-10
  6
CONTINUOUS
 62
     7
100
AcDbLine
 10
519.5862037721877
 20
832.204928115622
 30
0.0
 11
492.3571201094851
 21
828.8188721393946
 31
0.0
  0
ARC
  5
234
330
1F
100
AcDbEntity
  8
LAY-10
  6
CONTINUOUS
 62
     7
100
AcDbCircle
 10
520.3036558968079
 20
824.004412806452
 30
0.0
 40
8.231839945437176
100
AcDbArc
 50
295.0000000000074
 51
95.00000000001369
  0
LINE
  5
235
330
1F
100
AcDbEntity
  8
LAY-10
  6
CONTINUOUS
 62
     7
100
AcDbLine
 10
523.7825817854746
 20
816.5438321622788
 30
0.0
 11
498.5084756236938
 21
805.8617008249686
 31
0.0
  0
ARC
  5
236
330
1F
100
AcDbEntity
  8
LAY-10
  6
CONTINUOUS
 62
     7
100
AcDbCircle
 10
523.0103762489252
 20
824.7296763389514
 30
0.0
 40
4.0
100
AcDbArc
 50
289.7196947480815
 51
100.2803052519191
  0
LINE
  5
237
330
1F
100
AcDbEntity
  8
LAY-10
  6
CONTINUOUS
 62
     7
100
AcDbLine
 10
524.3600516804918
 20
820.9642578722434
 30
0.0
 11
501.3234433342127
 21
812.7070230956853
 31
0.0
  0
LINE
  5
238
330
1F
100
AcDbEntity
  8
LAY-10
  6
CONTINUOUS
 62
     7
100
AcDbLine
 10
522.2965202261712
 20
828.6654621027825
 30
0.0
 11
498.2176147929822
 21
824.2981330111539
 31
0.0
  0
LINE
  5
239
330
1F
100
AcDbEntity
  8
LAY-10
  6
CONTINUOUS
 62
     7
100
AcDbLine
 10
503.6346565431922
 20
795.563232176643
 30
0.0
 11
508.5200509087563
 21
797.2738483478967
 31
0.0
  0
LINE
  5
23A
330
1F
100
AcDbEntity
  8
LAY-10
  6
CONTINUOUS
 62
     7
100
AcDbLine
 10
529.0849551883057
 20
810.4234528021994
 30
0.0
 11
503.6346565431913
 21
795.5632321766435
 31
0.0
  0
ARC
  5
23B
330
1F
100
AcDbEntity
  8
LAY-10
  6
CONTINUOUS
 62
     7
100
AcDbCircle
 10
531.6700293869826
 20
806.158990255197
 30
0.0
 40
4.9861
100
AcDbArc
 50
308.7760449851714
 51
121.2238211158878
  0
LINE
  5
23C
330
1F
100
AcDbEntity
  8
LAY-10
  6
CONTINUOUS
 62
     7
100
AcDbLine
 10
534.793165926083
 20
802.2712830150032
 30
0.0
 11
512.1246114707692
 21
783.4383199695304
 31
0.0
  0
LINE
  5
23D
330
1F
100
AcDbEntity
  8
LAY-10
  6
CONTINUOUS
 62
     7
100
AcDbLine
 10
512.1246114707683
 20
783.4383199695318
 30
0.0
 11
515.4029681449938
 21
787.4440238164226
 31
0.0
  0
LINE
  5
23E
330
1F
100
AcDbEntity
  8
LAY-10
  6
CONTINUOUS
 62
     7
100
AcDbLine
 10
525.8956730941882
 20
812.0122932270598
 30
0.0
 11
501.466803455884
 21
799.5175463156876
 31
0.0
  0
ARC
  5
23F
330
1F
100
AcDbEntity
  8
LAY-10
  6
CONTINUOUS
 62
     7
100
AcDbCircle
 10
529.374598982848
 20
804.5517125828825
 30
0.0
 40
8.231839945437176
100
AcDbArc
 50
315.0000000000072
 51
115.0000000000138
  0
LINE
  5
240
330
1F
100
AcDbEntity
  8
LAY-10
  6
CONTINUOUS
 62
     7
100
AcDbLine
 10
535.1953888299031
 20
798.730922735837
 30
0.0
 11
515.0990018637276
 21
780.0487493320198
 31
0.0
  0
ARC
  5
241
330
1F
100
AcDbEntity
  8
LAY-10
  6
CONTINUOUS
 62
     7
100
AcDbCircle
 10
531.6700293869303
 20
806.158990255272
 30
0.0
 40
4.0
100
AcDbArc
 50
309.7196947480817
 51
120.2803052519193
  0
LINE
  5
242
330
1F
100
AcDbEntity
  8
LAY-10
  6
CONTINUOUS
 62
     7
100
AcDbLine
 10
534.2261583940935
 20
803.0822704924823
 30
0.0
 11
515.4029681449124
 21
787.4440238165231
 31
0.0
  0
LINE
  5
243
330
1F
100
AcDbEntity
  8
LAY-10
  6
CONTINUOUS
 62
     7
100
AcDbLine
 10
529.6531061390006
 20
809.6132659553224
 30
0.0
 11
508.5200509086994
 21
797.2738483479908
 31
0.0
  0
LINE
  5
244
330
1F
100
AcDbEntity
  8
LAY-10
  6
CONTINUOUS
 62
     7
100
AcDbLine
 10
531.5776536698731
 20
876.9576283900784
 30
0.0
 11
509.6896034843103
 21
893.5045807154721
 31
0.0
  0
LINE
  5
245
330
1F
100
AcDbEntity
  8
LAY-10
  6
CONTINUOUS
 62
     7
100
AcDbLine
 10
609.9358432306112
 20
923.1272356447504
 30
0.0
 11
607.2929769042375
 21
918.6765566658347
 31
0.0
  0
LINE
  5
246
330
1F
100
AcDbEntity
  8
LAY-10
  6
CONTINUOUS
 62
     7
100
AcDbLine
 10
599.9917490731204
 20
895.3845095791199
 30
0.0
 11
609.9358432306126
 21
923.1272356447504
 31
0.0
  0
ARC
  5
247
330
1F
100
AcDbEntity
  8
LAY-10
  6
CONTINUOUS
 62
     7
100
AcDbCircle
 10
595.2703236609877
 20
896.9896237511099
 30
0.0
 40
4.9861
100
AcDbArc
 50
168.7760449851712
 51
341.2238211158877
  0
LINE
  5
248
330
1F
100
AcDbEntity
  8
LAY-10
  6
CONTINUOUS
 62
     7
100
AcDbLine
 10
590.3788922260228
 20
897.9602668082404
 30
0.0
 11
595.6384171007412
 21
926.9582194300707
 31
0.0
  0
LINE
  5
249
330
1F
100
AcDbEntity
  8
LAY-10
  6
CONTINUOUS
 62
     7
100
AcDbLine
 10
595.638417100743
 20
926.9582194300707
 30
0.0
 11
595.7018669887466
 21
921.7823852070538
 31
0.0
  0
LINE
  5
24A
330
1F
100
AcDbEntity
  8
LAY-10
  6
CONTINUOUS
 62
     7
100
AcDbLine
 10
603.4561678377268
 20
896.217418214546
 30
0.0
 11
614.1382991750279
 21
921.4915243763318
 31
0.0
  0
ARC
  5
24B
330
1F
100
AcDbEntity
  8
LAY-10
  6
CONTINUOUS
 62
     7
100
AcDbCircle
 10
595.9955871935522
 20
899.6963441032109
 30
0.0
 40
8.231839945437176
100
AcDbArc
 50
175.0000000000073
 51
335.0000000000137
  0
LINE
  5
24C
330
1F
100
AcDbEntity
  8
LAY-10
  6
CONTINUOUS
 62
     7
100
AcDbLine
 10
587.7950718843822
 20
900.4137962278274
 30
0.0
 11
591.1811278606001
 21
927.6428798905305
 31
0.0
  0
ARC
  5
24D
330
1F
100
AcDbEntity
  8
LAY-10
  6
CONTINUOUS
 62
     7
100
AcDbCircle
 10
595.2703236610764
 20
896.9896237510872
 30
0.0
 40
4.0
100
AcDbArc
 50
169.7196947480812
 51
340.2803052519191
  0
LINE
  5
24E
330
1F
100
AcDbEntity
  8
LAY-10
  6
CONTINUOUS
 62
     7
100
AcDbLine
 10
591.3345378972444
 20
897.7034797738407
 30
0.0
 11
595.701866988873
 21
921.7823852070293
 31
0.0
  0
LINE
  5
24F
330
1F
100
AcDbEntity
  8
LAY-10
  6
CONTINUOUS
 62
     7
100
AcDbLine
 10
599.035742127784
 20
895.6399483195197
 30
0.0
 11
607.2929769043412
 21
918.6765566657992
 31
0.0
  0
LINE
  5
250
330
1F
100
AcDbEntity
  8
LAY-10
  6
CONTINUOUS
 62
     7
100
AcDbLine
 10
579.699301931324
 20
928.3527113140018
 30
0.0
 11
578.7380418089724
 21
923.2665276002914
 31
0.0
  0
LINE
  5
251
330
1F
100
AcDbEntity
  8
LAY-10
  6
CONTINUOUS
 62
     7
100
AcDbLine
 10
579.8434811763409
 20
898.8819958406544
 30
0.0
 11
579.6993019313259
 21
928.3527113140018
 31
0.0
  0
ARC
  5
252
330
1F
100
AcDbEntity
  8
LAY-10
  6
CONTINUOUS
 62
     7
100
AcDbCircle
 10
574.8578111778106
 20
898.7754871874341
 30
0.0
 40
4.9861
100
AcDbArc
 50
188.7760449851712
 51
1.223821115887731
  0
LINE
  5
253
330
1F
100
AcDbEntity
  8
LAY-10
  6
CONTINUOUS
 62
     7
100
AcDbLine
 10
569.9293896757763
 20
898.0146252251822
 30
0.0
 11
564.953842477521
 21
927.0626507732919
 31
0.0
  0
LINE
  5
254
330
1F
100
AcDbEntity
  8
LAY-10
  6
CONTINUOUS
 62
     7
100
AcDbLine
 10
564.9538424775219
 20
927.0626507732919
 30
0.0
 11
566.7837054318543
 21
922.2206586873014
 31
0.0
  0
LINE
  5
255
330
1F
100
AcDbEntity
  8
LAY-10
  6
CONTINUOUS
 62
     7
100
AcDbLine
 10
582.8140983938883
 20
900.8495749415648
 30
0.0
 11
584.2077649739344
 21
928.2529700897618
 31
0.0
  0
ARC
  5
256
330
1F
100
AcDbEntity
  8
LAY-10
  6
CONTINUOUS
 62
     7
100
AcDbCircle
 10
574.6135830847193
 20
901.5670270661909
 30
0.0
 40
8.231839945437176
100
AcDbArc
 50
195.0000000000075
 51
355.0000000000139
  0
LINE
  5
257
330
1F
100
AcDbEntity
  8
LAY-10
  6
CONTINUOUS
 62
     7
100
AcDbLine
 10
566.6622362835597
 20
899.4364701120741
 30
0.0
 11
560.5311930010353
 21
926.1815384509733
 31
0.0
  0
ARC
  5
258
330
1F
100
AcDbEntity
  8
LAY-10
  6
CONTINUOUS
 62
     7
100
AcDbCircle
 10
574.857811177902
 20
898.7754871874423
 30
0.0
 40
4.0
100
AcDbArc
 50
189.7196947480812
 51
0.2803052519189597
  0
LINE
  5
259
330
1F
100
AcDbEntity
  8
LAY-10
  6
CONTINUOUS
 62
     7
100
AcDbLine
 10
570.9152291994192
 20
898.1001744132828
 30
0.0
 11
566.7837054319816
 21
922.2206586873214
 31
0.0
  0
LINE
  5
25A
330
1F
100
AcDbEntity
  8
LAY-10
  6
CONTINUOUS
 62
     7
100
AcDbLine
 10
578.8577633097866
 20
898.7950561076078
 30
0.0
 11
578.7380418090825
 21
923.2665276002932
 31
0.0
  0
LINE
  5
25B
330
1F
100
AcDbEntity
  8
LAY-10
  6
CONTINUOUS
 62
     7
100
AcDbLine
 10
549.4990292569746
 20
922.9215460516185
 30
0.0
 11
550.3353174960885
 21
917.8133264230624
 31
0.0
  0
LINE
  5
25C
330
1F
100
AcDbEntity
  8
LAY-10
  6
CONTINUOUS
 62
     7
100
AcDbLine
 10
559.7140917596917
 20
895.2774443980776
 30
0.0
 11
549.4990292569755
 21
922.9215460516185
 31
0.0
  0
ARC
  5
25D
330
1F
100
AcDbEntity
  8
LAY-10
  6
CONTINUOUS
 62
     7
100
AcDbCircle
 10
555.0655225572391
 20
893.4721594351246
 30
0.0
 40
4.9861
100
AcDbArc
 50
208.7760449851714
 51
21.22382111588768
  0
LINE
  5
25E
330
1F
100
AcDbEntity
  8
LAY-10
  6
CONTINUOUS
 62
     7
100
AcDbLine
 10
550.6945513570354
 20
891.0715636352644
 30
0.0
 11
536.0840565091694
 21
916.6660415253524
 31
0.0
  0
LINE
  5
25F
330
1F
100
AcDbEntity
  8
LAY-10
  6
CONTINUOUS
 62
     7
100
AcDbLine
 10
536.0840565091712
 20
916.6660415253538
 30
0.0
 11
539.4596240516394
 21
912.7419072821509
 31
0.0
  0
LINE
  5
260
330
1F
100
AcDbEntity
  8
LAY-10
  6
CONTINUOUS
 62
     7
100
AcDbLine
 10
512.5111814561783
 20
897.0223761993049
 30
0.0
 11
517.0253103230862
 21
894.4894083026685
 31
0.0
  0
ARC
  5
261
330
1F
100
AcDbEntity
  8
LAY-10
  6
CONTINUOUS
 62
     7
100
AcDbCircle
 10
538.2806999100139
 20
881.7193000900062
 30
0.0
 40
4.9861
100
AcDbArc
 50
228.7761788842008
 51
41.22395501491678
  0
LINE
  5
262
330
1F
100
AcDbEntity
  8
LAY-10
  6
CONTINUOUS
 62
     7
100
AcDbLine
 10
534.9943826470353
 20
877.9685177350162
 30
0.0
 11
512.5111814561769
 21
897.0223761993035
 31
0.0
  0
LINE
  5
263
330
1F
100
AcDbEntity
  8
LAY-10
  6
CONTINUOUS
 62
     7
100
AcDbLine
 10
542.031482264993
 20
885.0056173529753
 30
0.0
 11
522.9776238007007
 21
907.4888185438291
 31
0.0
  0
ARC
  5
264
330
1F
100
AcDbEntity
  8
LAY-10
  6
CONTINUOUS
 62
     7
100
AcDbCircle
 10
530.4329059584584
 20
910.7891465554054
 30
0.0
 40
3.966484956560522
100
AcDbArc
 50
63.06756504281435
 51
186.9324349572069
  0
LINE
  5
265
330
1F
100
AcDbEntity
  8
LAY-10
  6
CONTINUOUS
 62
     7
100
AcDbLine
 10
522.9776238006998
 20
907.4888185438282
 30
0.0
 11
525.5105916973366
 21
902.9746896769217
 31
0.0
  0
LINE
  5
266
330
1F
100
AcDbEntity
  8
LAY-10
  6
CONTINUOUS
 62
     7
100
AcDbLine
 10
561.8326071521024
 20
898.1423748865269
 30
0.0
 11
553.7697122170116
 21
924.3698051352236
 31
0.0
  0
ARC
  5
267
330
1F
100
AcDbEntity
  8
LAY-10
  6
CONTINUOUS
 62
     7
100
AcDbCircle
 10
553.8812603509405
 20
896.0118179324187
 30
0.0
 40
8.231839945437176
100
AcDbArc
 50
215.0000000000073
 51
15.00000000001355
  0
LINE
  5
268
330
1F
100
AcDbEntity
  8
LAY-10
  6
CONTINUOUS
 62
     7
100
AcDbLine
 10
547.1381318313915
 20
891.2902285119068
 30
0.0
 11
532.2294835945595
 21
914.3254315701594
 31
0.0
  0
LINE
  5
269
330
1F
100
AcDbEntity
  8
LAY-10
  6
CONTINUOUS
 62
     7
100
AcDbLine
 10
543.0423716099303
 20
888.4223463301383
 30
0.0
 11
526.4954192845316
 21
910.3103965156967
 31
0.0
  0
ARC
  5
26A
330
1F
100
AcDbEntity
  8
LAY-10
  6
CONTINUOUS
 62
     7
100
AcDbCircle
 10
536.299243090376
 20
883.7007569096346
 30
0.0
 40
8.231839945437176
100
AcDbArc
 50
235.000000000005
 51
35.0000000000096
  0
ARC
  5
26B
330
1F
100
AcDbEntity
  8
LAY-10
  6
CONTINUOUS
 62
     7
100
AcDbCircle
 10
555.0655225573219
 20
893.4721594351641
 30
0.0
 40
4.0
100
AcDbArc
 50
209.7196947480812
 51
20.28030525191896
  0
LINE
  5
26C
330
1F
100
AcDbEntity
  8
LAY-10
  6
CONTINUOUS
 62
     7
100
AcDbLine
 10
551.5916779371059
 20
891.4891305512098
 30
0.0
 11
539.4596240517512
 21
912.7419072822137
 31
0.0
  0
LINE
  5
26D
330
1F
100
AcDbEntity
  8
LAY-10
  6
CONTINUOUS
 62
     7
100
AcDbLine
 10
558.8175550942701
 20
894.8586124064828
 30
0.0
 11
550.3353174961917
 21
917.8133264231016
 31
0.0
  0
ARC
  5
26E
330
1F
100
AcDbEntity
  8
LAY-10
  6
CONTINUOUS
 62
     7
100
AcDbCircle
 10
538.2806999100139
 20
881.7193000900062
 30
0.0
 40
4.0
100
AcDbArc
 50
229.7196947480813
 51
40.28030525191897
  0
LINE
  5
26F
330
1F
100
AcDbEntity
  8
LAY-10
  6
CONTINUOUS
 62
     7
100
AcDbLine
 10
535.694589577749
 20
878.6677376460513
 30
0.0
 11
517.025310323098
 21
894.4894083026826
 31
0.0
  0
LINE
  5
270
330
1F
100
AcDbEntity
  8
LAY-10
  6
CONTINUOUS
 62
     7
100
AcDbLine
 10
541.3322623539689
 20
884.3054104222707
 30
0.0
 11
525.5105916973366
 21
902.9746896769217
 31
0.0
  0
ARC
  5
271
330
1F
100
AcDbEntity
  8
LAY-10
  6
CONTINUOUS
 62
     7
100
AcDbCircle
 10
580.0000000000273
 20
839.9999999999924
 30
0.0
 40
83.27608994833002
100
AcDbArc
 50
110.868288195965
 51
119.1317118041238
  0
ARC
  5
272
330
1F
100
AcDbEntity
  8
LAY-10
  6
CONTINUOUS
 62
     7
100
AcDbCircle
 10
580.0000000000273
 20
839.9999999999924
 30
0.0
 40
83.27608994833002
100
AcDbArc
 50
90.86828819597339
 51
99.13171180412544
  0
ARC
  5
273
330
1F
100
AcDbEntity
  8
LAY-10
  6
CONTINUOUS
 62
     7
100
AcDbCircle
 10
580.0000000000273
 20
839.9999999999924
 30
0.0
 40
83.27608994833002
100
AcDbArc
 50
70.86828819597338
 51
79.13171180412526
  0
ARC
  5
274
330
1F
100
AcDbEntity
  8
LAY-10
  6
CONTINUOUS
 62
     7
100
AcDbCircle
 10
580.0000000000273
 20
839.9999999999924
 30
0.0
 40
83.27608994833002
100
AcDbArc
 50
210.8682881959536
 51
219.1317118041047
  0
ARC
  5
275
330
1F
100
AcDbEntity
  8
LAY-10
  6
CONTINUOUS
 62
     7
100
AcDbCircle
 10
580.0000000000273
 20
839.9999999999924
 30
0.0
 40
83.27608994833002
100
AcDbArc
 50
190.8682881959538
 51
199.1317118041047
  0
ARC
  5
276
330
1F
100
AcDbEntity
  8
LAY-10
  6
CONTINUOUS
 62
     7
100
AcDbCircle
 10
580.0000000000273
 20
839.9999999999924
 30
0.0
 40
83.27608994833002
100
AcDbArc
 50
170.8682881959484
 51
179.1317118041015
  0
ARC
  5
277
330
1F
100
AcDbEntity
  8
LAY-10
  6
CONTINUOUS
 62
     7
100
AcDbCircle
 10
580.0000000000273
 20
839.9999999999924
 30
0.0
 40
83.27608994833002
100
AcDbArc
 50
150.8682881959423
 51
159.1317118040961
  0
ARC
  5
278
330
1F
100
AcDbEntity
  8
LAY-10
  6
CONTINUOUS
 62
     7
100
AcDbCircle
 10
580.0000000000273
 20
839.9999999999924
 30
0.0
 40
83.27608994833002
100
AcDbArc
 50
130.8682881959644
 51
139.1317118040481
  0
ARC
  5
279
330
1F
100
AcDbEntity
  8
LAY-10
  6
CONTINUOUS
 62
     7
100
AcDbCircle
 10
580.0000000000273
 20
839.9999999999924
 30
0.0
 40
150.0000000000301
100
AcDbArc
 50
137.707557224045
 51
142.2924427759558
  0
LINE
  5
27A
330
1F
100
AcDbEntity
  8
LAY-10
  6
CONTINUOUS
 62
     7
100
AcDbLine
 10
506.6378531581099
 20
896.3404520126256
 30
0.0
 11
461.3285700067931
 21
931.7447094026021
 31
0.0
  0
LINE
  5
27B
330
1F
100
AcDbEntity
  8
LAY-10
  6
CONTINUOUS
 62
     7
100
AcDbLine
 10
511.7762829409417
 20
902.4641941666092
 30
0.0
 11
469.0420213230318
 21
940.9372427200302
 31
0.0
  0
ARC
  5
27C
330
1F
100
AcDbEntity
  8
LAY-10
  6
CONTINUOUS
 62
     7
100
AcDbCircle
 10
580.0000000000273
 20
839.9999999999924
 30
0.0
 40
92.50000000004002
100
AcDbArc
 50
137.5238873262925
 51
142.476112673708
  0
ARC
  5
27D
330
1F
100
AcDbEntity
  8
LAY-10
  6
CONTINUOUS
 62
     7
100
AcDbCircle
 10
580.0000000000273
 20
839.9999999999924
 30
0.0
 40
150.0000000000301
100
AcDbArc
 50
127.7075572240447
 51
132.2924427759556
  0
LINE
  5
27E
330
1F
100
AcDbEntity
  8
LAY-10
  6
CONTINUOUS
 62
     7
100
AcDbLine
 10
517.5358058334114
 20
908.223717059078
 30
0.0
 11
479.0627572799904
 21
950.9579786769888
 31
0.0
  0
LINE
  5
27F
330
1F
100
AcDbEntity
  8
LAY-10
  6
CONTINUOUS
 62
     7
100
AcDbLine
 10
523.659547987395
 20
913.3621468419107
 30
0.0
 11
488.2552905974176
 21
958.671429993227
 31
0.0
  0
ARC
  5
280
330
1F
100
AcDbEntity
  8
LAY-10
  6
CONTINUOUS
 62
     7
100
AcDbCircle
 10
580.0000000000273
 20
839.9999999999924
 30
0.0
 40
92.50000000004002
100
AcDbArc
 50
127.5238873262925
 51
132.4761126737081
  0
ARC
  5
281
330
1F
100
AcDbEntity
  8
LAY-10
  6
CONTINUOUS
 62
     7
100
AcDbCircle
 10
580.0000000000273
 20
839.9999999999924
 30
0.0
 40
150.0000000000301
100
AcDbArc
 50
117.7075572240447
 51
122.2924427759558
  0
ARC
  5
282
330
1F
100
AcDbEntity
  8
LAY-10
  6
CONTINUOUS
 62
     7
100
AcDbCircle
 10
580.0000000000273
 20
839.9999999999924
 30
0.0
 40
92.50000000004002
100
AcDbArc
 50
117.5238873262923
 51
122.476112673708
  0
ARC
  5
283
330
1F
100
AcDbEntity
  8
LAY-10
  6
CONTINUOUS
 62
     7
100
AcDbCircle
 10
580.0000000000273
 20
839.9999999999924
 30
0.0
 40
150.0000000000301
100
AcDbArc
 50
107.7075572240445
 51
112.2924427759556
  0
LINE
  5
284
330
1F
100
AcDbEntity
  8
LAY-10
  6
CONTINUOUS
 62
     7
100
AcDbLine
 10
544.6367431650788
 20
925.4733361245886
 30
0.0
 11
523.0998816237648
 21
978.7889640020913
 31
0.0
  0
LINE
  5
285
330
1F
100
AcDbEntity
  8
LAY-10
  6
CONTINUOUS
 62
     7
100
AcDbLine
 10
552.1486249695658
 20
928.2074375047483
 30
0.0
 11
534.3761930731957
 21
982.8932057219992
 31
0.0
  0
ARC
  5
286
330
1F
100
AcDbEntity
  8
LAY-10
  6
CONTINUOUS
 62
     7
100
AcDbCircle
 10
580.0000000000273
 20
839.9999999999924
 30
0.0
 40
92.50000000004002
100
AcDbArc
 50
107.5238873262923
 51
112.4761126737082
  0
ARC
  5
287
330
1F
100
AcDbEntity
  8
LAY-10
  6
CONTINUOUS
 62
     7
100
AcDbCircle
 10
580.0000000000273
 20
839.9999999999924
 30
0.0
 40
150.0000000000301
100
AcDbArc
 50
97.70755722404448
 51
102.2924427759556
  0
LINE
  5
288
330
1F
100
AcDbEntity
  8
LAY-10
  6
CONTINUOUS
 62
     7
100
AcDbLine
 10
560.0162795543574
 20
930.3155691970702
 30
0.0
 11
548.0647729550169
 21
986.5610496468622
 31
0.0
  0
LINE
  5
289
330
1F
100
AcDbEntity
  8
LAY-10
  6
CONTINUOUS
 62
     7
100
AcDbLine
 10
567.8888107173489
 20
931.7037088475737
 30
0.0
 11
559.8824659911634
 21
988.6448277788651
 31
0.0
  0
ARC
  5
28A
330
1F
100
AcDbEntity
  8
LAY-10
  6
CONTINUOUS
 62
     7
100
AcDbCircle
 10
580.0000000000273
 20
839.9999999999924
 30
0.0
 40
92.50000000004002
100
AcDbArc
 50
97.52388732629247
 51
102.4761126737079
  0
ARC
  5
28B
330
1F
100
AcDbEntity
  8
LAY-10
  6
CONTINUOUS
 62
     7
100
AcDbCircle
 10
580.0000000000273
 20
839.9999999999924
 30
0.0
 40
92.50000000004002
100
AcDbArc
 50
87.52388732629241
 51
92.47611267370793
  0
ARC
  5
28C
330
1F
100
AcDbEntity
  8
LAY-10
  6
CONTINUOUS
 62
     7
100
AcDbCircle
 10
580.0000000000273
 20
839.9999999999924
 30
0.0
 40
92.50000000004002
100
AcDbArc
 50
77.52388732629228
 51
82.47611267370799
  0
ARC
  5
28D
330
1F
100
AcDbEntity
  8
LAY-10
  6
CONTINUOUS
 62
     7
100
AcDbCircle
 10
580.0000000000273
 20
839.9999999999924
 30
0.0
 40
92.50000000004002
100
AcDbArc
 50
67.52388732629241
 51
72.47611267370787
  0
ARC
  5
28E
330
1F
100
AcDbEntity
  8
LAY-10
  6
CONTINUOUS
 62
     7
100
AcDbCircle
 10
580.0000000000273
 20
839.9999999999924
 30
0.0
 40
150.0000000000301
100
AcDbArc
 50
227.7075572240452
 51
232.2924427759559
  0
LINE
  5
28F
330
1F
100
AcDbEntity
  8
LAY-10
  6
CONTINUOUS
 62
     7
100
AcDbLine
 10
523.659547987395
 20
766.6378531580741
 30
0.0
 11
488.2552905974176
 21
721.3285700067573
 31
0.0
  0
LINE
  5
290
330
1F
100
AcDbEntity
  8
LAY-10
  6
CONTINUOUS
 62
     7
100
AcDbLine
 10
517.5358058334114
 20
771.7762829409072
 30
0.0
 11
479.0627572799899
 21
729.042021322996
 31
0.0
  0
ARC
  5
291
330
1F
100
AcDbEntity
  8
LAY-10
  6
CONTINUOUS
 62
     7
100
AcDbCircle
 10
580.0000000000273
 20
839.9999999999924
 30
0.0
 40
92.50000000004002
100
AcDbArc
 50
227.5238873262928
 51
232.4761126737084
  0
ARC
  5
292
330
1F
100
AcDbEntity
  8
LAY-10
  6
CONTINUOUS
 62
     7
100
AcDbCircle
 10
580.0000000000273
 20
839.9999999999924
 30
0.0
 40
150.0000000000301
100
AcDbArc
 50
217.7075572240451
 51
222.2924427759561
  0
LINE
  5
293
330
1F
100
AcDbEntity
  8
LAY-10
  6
CONTINUOUS
 62
     7
100
AcDbLine
 10
511.7762829409417
 20
777.5358058333765
 30
0.0
 11
469.0420213230309
 21
739.0627572799541
 31
0.0
  0
LINE
  5
294
330
1F
100
AcDbEntity
  8
LAY-10
  6
CONTINUOUS
 62
     7
100
AcDbLine
 10
506.6378531581095
 20
783.6595479873596
 30
0.0
 11
461.3285700067927
 21
748.2552905973827
 31
0.0
  0
ARC
  5
295
330
1F
100
AcDbEntity
  8
LAY-10
  6
CONTINUOUS
 62
     7
100
AcDbCircle
 10
580.0000000000273
 20
839.9999999999924
 30
0.0
 40
92.50000000004002
100
AcDbArc
 50
217.5238873262929
 51
222.4761126737081
  0
ARC
  5
296
330
1F
100
AcDbEntity
  8
LAY-10
  6
CONTINUOUS
 62
     7
100
AcDbCircle
 10
580.0000000000273
 20
839.9999999999924
 30
0.0
 40
150.0000000000301
100
AcDbArc
 50
207.7075572240452
 51
212.2924427759558
  0
LINE
  5
297
330
1F
100
AcDbEntity
  8
LAY-10
  6
CONTINUOUS
 62
     7
100
AcDbLine
 10
497.9689721915611
 20
797.2546891585718
 30
0.0
 11
447.2001540832998
 21
770.2561764419034
 31
0.0
  0
ARC
  5
298
330
1F
100
AcDbEntity
  8
LAY-10
  6
CONTINUOUS
 62
     7
100
AcDbCircle
 10
580.0000000000273
 20
839.9999999999924
 30
0.0
 40
92.50000000004002
100
AcDbArc
 50
207.5238873262926
 51
212.476112673708
  0
ARC
  5
299
330
1F
100
AcDbEntity
  8
LAY-10
  6
CONTINUOUS
 62
     7
100
AcDbCircle
 10
580.0000000000273
 20
839.9999999999924
 30
0.0
 40
150.0000000000301
100
AcDbArc
 50
197.7075572240452
 51
202.2924427759559
  0
LINE
  5
29A
330
1F
100
AcDbEntity
  8
LAY-10
  6
CONTINUOUS
 62
     7
100
AcDbLine
 10
494.5266638754301
 20
804.6367431650439
 30
0.0
 11
441.2110359979288
 21
783.099881623729
 31
0.0
  0
LINE
  5
29B
330
1F
100
AcDbEntity
  8
LAY-10
  6
CONTINUOUS
 62
     7
100
AcDbLine
 10
491.7925624952713
 20
812.14862496953
 30
0.0
 11
437.106794278021
 21
794.3761930731604
 31
0.0
  0
ARC
  5
29C
330
1F
100
AcDbEntity
  8
LAY-10
  6
CONTINUOUS
 62
     7
100
AcDbCircle
 10
580.0000000000273
 20
839.9999999999924
 30
0.0
 40
92.50000000004002
100
AcDbArc
 50
197.5238873262927
 51
202.4761126737084
  0
ARC
  5
29D
330
1F
100
AcDbEntity
  8
LAY-10
  6
CONTINUOUS
 62
     7
100
AcDbCircle
 10
580.0000000000273
 20
839.9999999999924
 30
0.0
 40
150.0000000000301
100
AcDbArc
 50
187.7075572240453
 51
192.2924427759561
  0
LINE
  5
29E
330
1F
100
AcDbEntity
  8
LAY-10
  6
CONTINUOUS
 62
     7
100
AcDbLine
 10
489.6844308029495
 20
820.0162795543221
 30
0.0
 11
433.4389503531579
 21
808.064772954982
 31
0.0
  0
LINE
  5
29F
330
1F
100
AcDbEntity
  8
LAY-10
  6
CONTINUOUS
 62
     7
100
AcDbLine
 10
488.2962911524451
 20
827.888810717313
 30
0.0
 11
431.355172221155
 21
819.882465991128
 31
0.0
  0
ARC
  5
2A0
330
1F
100
AcDbEntity
  8
LAY-10
  6
CONTINUOUS
 62
     7
100
AcDbCircle
 10
580.0000000000273
 20
839.9999999999924
 30
0.0
 40
92.50000000004002
100
AcDbArc
 50
187.5238873262926
 51
192.4761126737082
  0
ARC
  5
2A1
330
1F
100
AcDbEntity
  8
LAY-10
  6
CONTINUOUS
 62
     7
100
AcDbCircle
 10
580.0000000000273
 20
839.9999999999924
 30
0.0
 40
150.0000000000301
100
AcDbArc
 50
177.7075572240453
 51
182.292442775956
  0
ARC
  5
2A2
330
1F
100
AcDbEntity
  8
LAY-10
  6
CONTINUOUS
 62
     7
100
AcDbCircle
 10
580.0000000000273
 20
839.9999999999924
 30
0.0
 40
92.50000000004002
100
AcDbArc
 50
177.5238873262927
 51
182.4761126737082
  0
ARC
  5
2A3
330
1F
100
AcDbEntity
  8
LAY-10
  6
CONTINUOUS
 62
     7
100
AcDbCircle
 10
580.0000000000273
 20
839.9999999999924
 30
0.0
 40
150.0000000000301
100
AcDbArc
 50
167.7075572240451
 51
172.2924427759558
  0
LINE
  5
2A4
330
1F
100
AcDbEntity
  8
LAY-10
  6
CONTINUOUS
 62
     7
100
AcDbLine
 10
488.2962911524455
 20
852.1111892826713
 30
0.0
 11
431.3551722211541
 21
860.1175340088554
 31
0.0
  0
LINE
  5
2A5
330
1F
100
AcDbEntity
  8
LAY-10
  6
CONTINUOUS
 62
     7
100
AcDbLine
 10
489.6844308029495
 20
859.9837204456632
 30
0.0
 11
433.4389503531575
 21
871.9352270450019
 31
0.0
  0
ARC
  5
2A6
330
1F
100
AcDbEntity
  8
LAY-10
  6
CONTINUOUS
 62
     7
100
AcDbCircle
 10
580.0000000000273
 20
839.9999999999924
 30
0.0
 40
92.50000000004002
100
AcDbArc
 50
167.5238873262929
 51
172.4761126737083
  0
ARC
  5
2A7
330
1F
100
AcDbEntity
  8
LAY-10
  6
CONTINUOUS
 62
     7
100
AcDbCircle
 10
580.0000000000819
 20
840.0000000000883
 30
0.0
 40
175.0000000000301
100
AcDbArc
 50
271.3097318790083
 51
60.00000000000008
  0
LINE
  5
2A8
330
1F
100
AcDbEntity
  8
LAY-10
  6
CONTINUOUS
 62
     7
100
AcDbLine
 10
487.586390598638
 20
843.9969888228931
 30
0.0
 11
467.8569536466043
 21
844.6846658347259
 31
0.0
  0
LINE
  5
2A9
330
1F
100
AcDbEntity
  8
LAY-10
  6
CONTINUOUS
 62
     7
100
AcDbLine
 10
456.4834356226256
 20
845.0810941214423
 30
0.0
 11
430.1200480384368
 21
845.9999999999915
 31
0.0
  0
LINE
  5
2AA
330
1F
100
AcDbEntity
  8
LAY-10
  6
CONTINUOUS
 62
     7
100
AcDbLine
 10
456.4834356228375
 20
834.9189058785497
 30
0.0
 11
430.1200480384377
 21
833.9999999999919
 31
0.0
  0
LINE
  5
2AB
330
1F
100
AcDbEntity
  8
LAY-10
  6
CONTINUOUS
 62
     7
100
AcDbLine
 10
487.586390598638
 20
836.0030111770917
 30
0.0
 11
467.8569536464088
 21
835.3153341652511
 31
0.0
  0
ARC
  5
2AC
330
1F
100
AcDbEntity
  8
LAY-10
  6
CONTINUOUS
 62
     7
100
AcDbCircle
 10
462.0000000000414
 20
840.0000000001111
 30
0.0
 40
7.500000000000004
100
AcDbArc
 50
38.6544567988684
 51
137.3530272354444
  0
ARC
  5
2AD
330
1F
100
AcDbEntity
  8
LAY-10
  6
CONTINUOUS
 62
     7
100
AcDbCircle
 10
462.0000000000414
 20
840.0000000001111
 30
0.0
 40
7.500000000000004
100
AcDbArc
 50
222.6469727669452
 51
321.3455431987394
  0
ARC
  5
2AE
330
1F
100
AcDbEntity
  8
LAY-10
  6
CONTINUOUS
 62
     7
100
AcDbCircle
 10
521.000000000166
 20
942.190997646631
 30
0.0
 40
7.500000000000004
100
AcDbArc
 50
338.6544567988684
 51
77.35302723544436
  0
ARC
  5
2AF
330
1F
100
AcDbEntity
  8
LAY-10
  6
CONTINUOUS
 62
     7
100
AcDbCircle
 10
521.000000000166
 20
942.190997646631
 30
0.0
 40
7.500000000000004
100
AcDbArc
 50
162.6469727669453
 51
261.3455431987397
  0
LINE
  5
2B0
330
1F
100
AcDbEntity
  8
LAY-10
  6
CONTINUOUS
 62
     7
100
AcDbLine
 10
537.2546891586071
 20
922.0310278084586
 30
0.0
 11
527.9855164444471
 21
939.4610599171807
 31
0.0
  0
LINE
  5
2B1
330
1F
100
AcDbEntity
  8
LAY-10
  6
CONTINUOUS
 62
     7
100
AcDbLine
 10
522.6420743995022
 20
949.5090295997621
 30
0.0
 11
510.2561764419397
 21
972.7998459167208
 31
0.0
  0
LINE
  5
2B2
330
1F
100
AcDbEntity
  8
LAY-10
  6
CONTINUOUS
 62
     7
100
AcDbLine
 10
513.8413612232571
 20
944.4279354780725
 30
0.0
 11
499.8638715965258
 21
966.7998459167208
 31
0.0
  0
LINE
  5
2B3
330
1F
100
AcDbEntity
  8
LAY-10
  6
CONTINUOUS
 62
     7
100
AcDbLine
 10
530.3317014400591
 20
918.0340389855575
 30
0.0
 11
519.8714372020695
 21
934.7763940826668
 31
0.0
  0
ARC
  5
2B4
330
1F
100
AcDbEntity
  8
LAY-10
  6
CONTINUOUS
 62
     7
100
AcDbCircle
 10
639.0000000001646
 20
942.1909976464864
 30
0.0
 40
7.500000000000004
100
AcDbArc
 50
278.6544567988688
 51
17.3530272354444
  0
ARC
  5
2B5
330
1F
100
AcDbEntity
  8
LAY-10
  6
CONTINUOUS
 62
     7
100
AcDbCircle
 10
639.0000000001646
 20
942.1909976464864
 30
0.0
 40
7.500000000000004
100
AcDbArc
 50
102.6469727669453
 51
201.3455431987396
  0
LINE
  5
2B6
330
1F
100
AcDbEntity
  8
LAY-10
  6
CONTINUOUS
 62
     7
100
AcDbLine
 10
622.7453108414479
 20
922.0310278084581
 30
0.0
 11
632.0144835557339
 21
939.4610599174176
 31
0.0
  0
LINE
  5
2B7
330
1F
100
AcDbEntity
  8
LAY-10
  6
CONTINUOUS
 62
     7
100
AcDbLine
 10
637.3579256004286
 20
949.5090295995275
 30
0.0
 11
649.7438235581722
 21
972.7998459168272
 31
0.0
  0
LINE
  5
2B8
330
1F
100
AcDbEntity
  8
LAY-10
  6
CONTINUOUS
 62
     7
100
AcDbLine
 10
646.1586387769503
 20
944.4279354783245
 30
0.0
 11
660.1361284035875
 21
966.799845916824
 31
0.0
  0
LINE
  5
2B9
330
1F
100
AcDbEntity
  8
LAY-10
  6
CONTINUOUS
 62
     7
100
AcDbLine
 10
629.668298560051
 20
918.0340389856534
 30
0.0
 11
640.1285627978505
 21
934.7763940824594
 31
0.0
  0
ARC
  5
2BA
330
1F
100
AcDbEntity
  8
LAY-10
  6
CONTINUOUS
 62
     7
100
AcDbCircle
 10
521.0000000001564
 20
737.8090023533447
 30
0.0
 40
7.500000000000004
100
AcDbArc
 50
282.6469727645552
 51
21.34554320113088
  0
ARC
  5
2BB
330
1F
100
AcDbEntity
  8
LAY-10
  6
CONTINUOUS
 62
     7
100
AcDbCircle
 10
521.0000000001564
 20
737.8090023533447
 30
0.0
 40
7.500000000000004
100
AcDbArc
 50
98.6544568012615
 51
197.3530272330552
  0
LINE
  5
2BC
330
1F
100
AcDbEntity
  8
LAY-10
  6
CONTINUOUS
 62
     7
100
AcDbLine
 10
530.3317014400582
 20
761.9659610144273
 30
0.0
 11
519.8714372020636
 21
745.2236059173098
 31
0.0
  0
LINE
  5
2BD
330
1F
100
AcDbEntity
  8
LAY-10
  6
CONTINUOUS
 62
     7
100
AcDbLine
 10
513.8413612232489
 20
735.5720645219
 30
0.0
 11
499.8638715965799
 21
713.2001540833509
 31
0.0
  0
LINE
  5
2BE
330
1F
100
AcDbEntity
  8
LAY-10
  6
CONTINUOUS
 62
     7
100
AcDbLine
 10
537.2546891586617
 20
757.9689721916221
 30
0.0
 11
527.9855164444407
 21
740.5389400827863
 31
0.0
  0
LINE
  5
2BF
330
1F
100
AcDbEntity
  8
LAY-10
  6
CONTINUOUS
 62
     7
100
AcDbLine
 10
522.6420743995013
 20
730.4909704002158
 30
0.0
 11
510.2561764419879
 21
707.2001540833486
 31
0.0
  0
ARC
  5
2C0
330
1F
100
AcDbEntity
  8
LAY-10
  6
CONTINUOUS
 62
     7
100
AcDbCircle
 10
580.0000000000819
 20
840.0000000000883
 30
0.0
 40
92.50000000004002
100
AcDbArc
 50
240.0000000000065
 51
242.4761126737111
  0
ARC
  5
2C1
330
1F
100
AcDbEntity
  8
LAY-10
  6
CONTINUOUS
 62
     7
100
AcDbCircle
 10
580.0000000000819
 20
840.0000000000883
 30
0.0
 40
92.50000000004002
100
AcDbArc
 50
247.5238873262888
 51
252.4761126737114
  0
ARC
  5
2C2
330
1F
100
AcDbEntity
  8
LAY-10
  6
CONTINUOUS
 62
     7
100
AcDbCircle
 10
639.0000000001737
 20
737.8090023534897
 30
0.0
 40
7.500000000000004
100
AcDbArc
 50
342.6469727645553
 51
81.3455432011309
  0
ARC
  5
2C3
330
1F
100
AcDbEntity
  8
LAY-10
  6
CONTINUOUS
 62
     7
100
AcDbCircle
 10
639.0000000001737
 20
737.8090023534897
 30
0.0
 40
7.500000000000004
100
AcDbArc
 50
158.6544568012617
 51
257.3530272330551
  0
LINE
  5
2C4
330
1F
100
AcDbEntity
  8
LAY-10
  6
CONTINUOUS
 62
     7
100
AcDbLine
 10
629.6682985600505
 20
761.9659610145228
 30
0.0
 11
640.1285627979878
 21
745.2236059174967
 31
0.0
  0
LINE
  5
2C5
330
1F
100
AcDbEntity
  8
LAY-10
  6
CONTINUOUS
 62
     7
100
AcDbLine
 10
646.1586387769976
 20
735.5720645217754
 30
0.0
 11
660.1361284035829
 21
713.20015408336
 31
0.0
  0
LINE
  5
2C6
330
1F
100
AcDbEntity
  8
LAY-10
  6
CONTINUOUS
 62
     7
100
AcDbLine
 10
637.3579256005519
 20
730.4909704004223
 30
0.0
 11
649.7438235581699
 21
707.20015408336
 31
0.0
  0
LINE
  5
2C7
330
1F
100
AcDbEntity
  8
LAY-10
  6
CONTINUOUS
 62
     7
100
AcDbLine
 10
622.7453108415016
 20
757.9689721916221
 30
0.0
 11
632.0144835557858
 21
740.5389400826663
 31
0.0
  0
ARC
  5
2C8
330
1F
100
AcDbEntity
  8
LAY-10
  6
CONTINUOUS
 62
     7
100
AcDbCircle
 10
698.0000000000578
 20
840.0000000001411
 30
0.0
 40
7.500000000000004
100
AcDbArc
 50
42.64697276455522
 51
141.345543201131
  0
ARC
  5
2C9
330
1F
100
AcDbEntity
  8
LAY-10
  6
CONTINUOUS
 62
     7
100
AcDbCircle
 10
698.0000000000578
 20
840.0000000001411
 30
0.0
 40
7.500000000000004
100
AcDbArc
 50
218.6544568012614
 51
317.3530272330553
  0
LINE
  5
2CA
330
1F
100
AcDbEntity
  8
LAY-10
  6
CONTINUOUS
 62
     7
100
AcDbLine
 10
672.4136094014702
 20
843.9969888229881
 30
0.0
 11
692.1430463535489
 21
844.6846658348232
 31
0.0
  0
LINE
  5
2CB
330
1F
100
AcDbEntity
  8
LAY-10
  6
CONTINUOUS
 62
     7
100
AcDbLine
 10
672.4136094014702
 20
836.0030111771867
 30
0.0
 11
692.1430463536358
 21
835.3153341653489
 31
0.0
  0
LINE
  5
2CC
330
1F
100
AcDbEntity
  8
LAY-10
  6
CONTINUOUS
 62
     7
100
AcDbLine
 10
703.5165643773207
 20
834.9189058786434
 30
0.0
 11
729.8799519616718
 21
834.0000000000883
 31
0.0
  0
LINE
  5
2CD
330
1F
100
AcDbEntity
  8
LAY-10
  6
CONTINUOUS
 62
     7
100
AcDbLine
 10
703.5165643774149
 20
845.0810941215356
 30
0.0
 11
729.8799519616718
 21
846.0000000000883
 31
0.0
  0
CIRCLE
  5
2CE
330
1F
100
AcDbEntity
  8
LAY-10
  6
CONTINUOUS
 62
     7
100
AcDbCircle
 10
580.0000000000273
 20
839.9999999999924
 30
0.0
 40
90.38407623154
  0
ARC
  5
2CF
330
1F
100
AcDbEntity
  8
LAY-10
  6
CONTINUOUS
 62
     7
100
AcDbCircle
 10
580.0000000000146
 20
839.9999999999992
 30
0.0
 40
88.35322300770997
100
AcDbArc
 50
239.8050013015786
 51
242.7297068884204
  0
ARC
  5
2D0
330
1F
100
AcDbEntity
  8
LAY-10
  6
CONTINUOUS
 62
     7
100
AcDbCircle
 10
580.0000000000146
 20
839.9999999999992
 30
0.0
 40
88.35322300770997
100
AcDbArc
 50
227.2702931116737
 51
230.1949986986366
  0
ARC
  5
2D1
330
1F
100
AcDbEntity
  8
LAY-10
  6
CONTINUOUS
 62
     7
100
AcDbCircle
 10
543.4783477916462
 20
761.6790640904966
 30
0.0
 40
3.966484956560522
100
AcDbArc
 50
183.0675650428146
 51
306.932434957207
  0
LINE
  5
2D2
330
1F
100
AcDbEntity
  8
LAY-10
  6
CONTINUOUS
 62
     7
100
AcDbLine
 10
523.4383199697704
 20
772.1246114705751
 30
0.0
 11
527.444023816653
 21
775.402968144812
 31
0.0
  0
LINE
  5
2D3
330
1F
100
AcDbEntity
  8
LAY-10
  6
CONTINUOUS
 62
     7
100
AcDbLine
 10
542.2712830151777
 20
794.793165925944
 30
0.0
 11
523.4383199697695
 21
772.1246114705756
 31
0.0
  0
ARC
  5
2D4
330
1F
100
AcDbEntity
  8
LAY-10
  6
CONTINUOUS
 62
     7
100
AcDbCircle
 10
546.1589902553906
 20
791.6700293868467
 30
0.0
 40
4.9861
100
AcDbArc
 50
328.7760449851715
 51
141.2238211158879
  0
LINE
  5
2D5
330
1F
100
AcDbEntity
  8
LAY-10
  6
CONTINUOUS
 62
     7
100
AcDbLine
 10
550.4234528023899
 20
789.0849551881894
 30
0.0
 11
535.5632321769071
 21
763.6346565430332
 31
0.0
  0
LINE
  5
2D6
330
1F
100
AcDbEntity
  8
LAY-10
  6
CONTINUOUS
 62
     7
100
AcDbLine
 10
535.5632321769062
 20
763.6346565430341
 30
0.0
 11
537.2738483481462
 21
768.5200509086022
 31
0.0
  0
LINE
  5
2D7
330
1F
100
AcDbEntity
  8
LAY-10
  6
CONTINUOUS
 62
     7
100
AcDbLine
 10
538.7309227358983
 20
795.1953888298559
 30
0.0
 11
520.0487493320884
 21
775.0990018636741
 31
0.0
  0
ARC
  5
2D8
330
1F
100
AcDbEntity
  8
LAY-10
  6
CONTINUOUS
 62
     7
100
AcDbCircle
 10
544.5517125829474
 20
789.3745989828031
 30
0.0
 40
8.231839945437176
100
AcDbArc
 50
335.0000000000072
 51
135.000000000014
  0
LINE
  5
2D9
330
1F
100
AcDbEntity
  8
LAY-10
  6
CONTINUOUS
 62
     7
100
AcDbLine
 10
552.0122932271252
 20
785.8956730941474
 30
0.0
 11
539.5175463157611
 21
761.4668034558373
 31
0.0
  0
ARC
  5
2DA
330
1F
100
AcDbEntity
  8
LAY-10
  6
CONTINUOUS
 62
     7
100
AcDbCircle
 10
546.158990255316
 20
791.6700293868995
 30
0.0
 40
4.0
100
AcDbArc
 50
329.7196947480815
 51
140.2803052519194
  0
LINE
  5
2DB
330
1F
100
AcDbEntity
  8
LAY-10
  6
CONTINUOUS
 62
     7
100
AcDbLine
 10
549.6132659553668
 20
789.6531061389688
 30
0.0
 11
537.2738483480357
 21
768.5200509086686
 31
0.0
  0
LINE
  5
2DC
330
1F
100
AcDbEntity
  8
LAY-10
  6
CONTINUOUS
 62
     7
100
AcDbLine
 10
543.0822704925276
 20
794.2261583940627
 30
0.0
 11
527.4440238165671
 21
775.4029681448811
 31
0.0
  0
ARC
  5
2DD
330
1F
100
AcDbEntity
  8
LAY-10
  6
CONTINUOUS
 62
     7
100
AcDbCircle
 10
580.0000000000687
 20
839.9999999999742
 30
0.0
 40
83.27608994833002
100
AcDbArc
 50
230.8682881959536
 51
239.1317118041046
  0
ARC
  5
2DE
330
1F
100
AcDbEntity
  8
LAY-10
  6
CONTINUOUS
 62
     7
100
AcDbCircle
 10
580.0000000000541
 20
839.999999999976
 30
0.0
 40
88.35322300770997
100
AcDbArc
 50
259.8050013015788
 51
262.7297068884205
  0
ARC
  5
2DF
330
1F
100
AcDbEntity
  8
LAY-10
  6
CONTINUOUS
 62
     7
100
AcDbCircle
 10
580.0000000000541
 20
839.999999999976
 30
0.0
 40
88.35322300770997
100
AcDbArc
 50
247.2702931116739
 51
250.1949986986368
  0
ARC
  5
2E0
330
1F
100
AcDbEntity
  8
LAY-10
  6
CONTINUOUS
 62
     7
100
AcDbCircle
 10
572.4682106461096
 20
753.9112537499742
 30
0.0
 40
3.966484956560522
100
AcDbArc
 50
203.0675650428147
 51
326.9324349572071
  0
LINE
  5
2E1
330
1F
100
AcDbEntity
  8
LAY-10
  6
CONTINUOUS
 62
     7
100
AcDbLine
 10
550.0641567694993
 20
756.8727643552148
 30
0.0
 11
552.7070230958734
 21
761.3234433341305
 31
0.0
  0
LINE
  5
2E2
330
1F
100
AcDbEntity
  8
LAY-10
  6
CONTINUOUS
 62
     7
100
AcDbLine
 10
560.008250926991
 20
784.6154904208462
 30
0.0
 11
550.0641567694984
 21
756.8727643552148
 31
0.0
  0
ARC
  5
2E3
330
1F
100
AcDbEntity
  8
LAY-10
  6
CONTINUOUS
 62
     7
100
AcDbCircle
 10
564.7296763391232
 20
783.0103762488553
 30
0.0
 40
4.9861
100
AcDbArc
 50
348.7760449851717
 51
161.2238211158878
  0
LINE
  5
2E4
330
1F
100
AcDbEntity
  8
LAY-10
  6
CONTINUOUS
 62
     7
100
AcDbLine
 10
569.6211077740882
 20
782.0397331917248
 30
0.0
 11
564.3615828993688
 21
753.0417805698945
 31
0.0
  0
LINE
  5
2E5
330
1F
100
AcDbEntity
  8
LAY-10
  6
CONTINUOUS
 62
     7
100
AcDbLine
 10
564.3615828993679
 20
753.0417805698954
 30
0.0
 11
564.2981330113648
 21
758.2176147929114
 31
0.0
  0
LINE
  5
2E6
330
1F
100
AcDbEntity
  8
LAY-10
  6
CONTINUOUS
 62
     7
100
AcDbLine
 10
556.5438321623842
 20
783.7825817854192
 30
0.0
 11
545.8617008250822
 21
758.5084756236344
 31
0.0
  0
ARC
  5
2E7
330
1F
100
AcDbEntity
  8
LAY-10
  6
CONTINUOUS
 62
     7
100
AcDbCircle
 10
564.0044128065588
 20
780.3036558967543
 30
0.0
 40
8.231839945437176
100
AcDbArc
 50
355.0000000000075
 51
155.000000000014
  0
LINE
  5
2E8
330
1F
100
AcDbEntity
  8
LAY-10
  6
CONTINUOUS
 62
     7
100
AcDbLine
 10
572.2049281157288
 20
779.5862037721378
 30
0.0
 11
568.8188721395109
 21
752.3571201094352
 31
0.0
  0
ARC
  5
2E9
330
1F
100
AcDbEntity
  8
LAY-10
  6
CONTINUOUS
 62
     7
100
AcDbCircle
 10
564.729676339035
 20
783.0103762488794
 30
0.0
 40
4.0
100
AcDbArc
 50
349.7196947480816
 51
160.2803052519194
  0
LINE
  5
2EA
330
1F
100
AcDbEntity
  8
LAY-10
  6
CONTINUOUS
 62
     7
100
AcDbLine
 10
568.6654621028665
 20
782.2965202261249
 30
0.0
 11
564.298133011238
 21
758.2176147929359
 31
0.0
  0
LINE
  5
2EB
330
1F
100
AcDbEntity
  8
LAY-10
  6
CONTINUOUS
 62
     7
100
AcDbLine
 10
560.9642578723269
 20
784.3600516804455
 30
0.0
 11
552.7070230957693
 21
761.323443334166
 31
0.0
  0
ARC
  5
2EC
330
1F
100
AcDbEntity
  8
LAY-10
  6
CONTINUOUS
 62
     7
100
AcDbCircle
 10
580.0000000001137
 20
839.999999999971
 30
0.0
 40
83.27608994833002
100
AcDbArc
 50
250.8682881959537
 51
259.1317118041048
  0
ARC
  5
2ED
330
1F
100
AcDbEntity
  8
LAY-10
  6
CONTINUOUS
 62
     7
100
AcDbCircle
 10
580.0000000000991
 20
839.9999999999678
 30
0.0
 40
88.35322300770997
100
AcDbArc
 50
279.8050013015786
 51
282.7297068884204
  0
ARC
  5
2EE
330
1F
100
AcDbEntity
  8
LAY-10
  6
CONTINUOUS
 62
     7
100
AcDbCircle
 10
580.0000000000991
 20
839.9999999999678
 30
0.0
 40
88.35322300770997
100
AcDbArc
 50
267.2702931116738
 51
270.1949986986366
  0
ARC
  5
2EF
330
1F
100
AcDbEntity
  8
LAY-10
  6
CONTINUOUS
 62
     7
100
AcDbCircle
 10
602.3665184540359
 20
756.5270167417958
 30
0.0
 40
3.966484956560522
100
AcDbArc
 50
223.0675650428147
 51
346.9324349572069
  0
LINE
  5
2F0
330
1F
100
AcDbEntity
  8
LAY-10
  6
CONTINUOUS
 62
     7
100
AcDbLine
 10
580.3006980688306
 20
751.6472886859657
 30
0.0
 11
581.2619581911831
 21
756.7334723996765
 31
0.0
  0
LINE
  5
2F1
330
1F
100
AcDbEntity
  8
LAY-10
  6
CONTINUOUS
 62
     7
100
AcDbLine
 10
580.1565188238146
 20
781.118004159313
 30
0.0
 11
580.3006980688301
 21
751.6472886859652
 31
0.0
  0
ARC
  5
2F2
330
1F
100
AcDbEntity
  8
LAY-10
  6
CONTINUOUS
 62
     7
100
AcDbCircle
 10
585.142188822344
 20
781.2245128125334
 30
0.0
 40
4.9861
100
AcDbArc
 50
8.776044985171351
 51
181.2238211158879
  0
LINE
  5
2F3
330
1F
100
AcDbEntity
  8
LAY-10
  6
CONTINUOUS
 62
     7
100
AcDbLine
 10
590.0706103243792
 20
781.9853747747849
 30
0.0
 11
595.0461575226345
 21
752.9373492266756
 31
0.0
  0
LINE
  5
2F4
330
1F
100
AcDbEntity
  8
LAY-10
  6
CONTINUOUS
 62
     7
100
AcDbLine
 10
595.0461575226336
 20
752.937349226676
 30
0.0
 11
593.2162945683012
 21
757.7793413126666
 31
0.0
  0
LINE
  5
2F5
330
1F
100
AcDbEntity
  8
LAY-10
  6
CONTINUOUS
 62
     7
100
AcDbLine
 10
577.1859016062672
 20
779.1504250584027
 30
0.0
 11
575.7922350262206
 21
751.7470299102062
 31
0.0
  0
ARC
  5
2F6
330
1F
100
AcDbEntity
  8
LAY-10
  6
CONTINUOUS
 62
     7
100
AcDbCircle
 10
585.3864169154367
 20
778.4329729337766
 30
0.0
 40
8.231839945437176
100
AcDbArc
 50
15.00000000000719
 51
175.000000000014
  0
LINE
  5
2F7
330
1F
100
AcDbEntity
  8
LAY-10
  6
CONTINUOUS
 62
     7
100
AcDbLine
 10
593.3377637165959
 20
780.5635298878939
 30
0.0
 11
599.4688069991198
 21
753.8184615489951
 31
0.0
  0
ARC
  5
2F8
330
1F
100
AcDbEntity
  8
LAY-10
  6
CONTINUOUS
 62
     7
100
AcDbCircle
 10
585.142188822253
 20
781.2245128125256
 30
0.0
 40
4.0
100
AcDbArc
 50
9.71969474808133
 51
180.2803052519194
  0
LINE
  5
2F9
330
1F
100
AcDbEntity
  8
LAY-10
  6
CONTINUOUS
 62
     7
100
AcDbLine
 10
589.0847708007359
 20
781.8998255866846
 30
0.0
 11
593.2162945681739
 21
757.7793413126466
 31
0.0
  0
LINE
  5
2FA
330
1F
100
AcDbEntity
  8
LAY-10
  6
CONTINUOUS
 62
     7
100
AcDbLine
 10
581.1422366903689
 20
781.2049438923601
 30
0.0
 11
581.2619581910731
 21
756.7334723996738
 31
0.0
  0
ARC
  5
2FB
330
1F
100
AcDbEntity
  8
LAY-10
  6
CONTINUOUS
 62
     7
100
AcDbCircle
 10
580.0000000001569
 20
839.9999999999833
 30
0.0
 40
83.27608994833002
100
AcDbArc
 50
270.8682881959535
 51
279.1317118041047
  0
ARC
  5
2FC
330
1F
100
AcDbEntity
  8
LAY-10
  6
CONTINUOUS
 62
     7
100
AcDbCircle
 10
580.0000000001446
 20
839.9999999999756
 30
0.0
 40
88.35322300770997
100
AcDbArc
 50
299.8050013015787
 51
302.7297068884205
  0
ARC
  5
2FD
330
1F
100
AcDbEntity
  8
LAY-10
  6
CONTINUOUS
 62
     7
100
AcDbCircle
 10
580.0000000001446
 20
839.9999999999756
 30
0.0
 40
88.35322300770997
100
AcDbArc
 50
287.2702931116738
 51
290.1949986986367
  0
ARC
  5
2FE
330
1F
100
AcDbEntity
  8
LAY-10
  6
CONTINUOUS
 62
     7
100
AcDbCircle
 10
629.5670940417622
 20
769.2108534445971
 30
0.0
 40
3.966484956560522
100
AcDbArc
 50
243.0675650428147
 51
6.932434957206809
  0
LINE
  5
2FF
330
1F
100
AcDbEntity
  8
LAY-10
  6
CONTINUOUS
 62
     7
100
AcDbLine
 10
610.5009707432428
 20
757.0784539483453
 30
0.0
 11
609.6646825041289
 21
762.186673576901
 31
0.0
  0
LINE
  5
300
330
1F
100
AcDbEntity
  8
LAY-10
  6
CONTINUOUS
 62
     7
100
AcDbLine
 10
600.2859082405262
 20
784.7225556018858
 30
0.0
 11
610.5009707432419
 21
757.0784539483449
 31
0.0
  0
ARC
  5
301
330
1F
100
AcDbEntity
  8
LAY-10
  6
CONTINUOUS
 62
     7
100
AcDbCircle
 10
604.9344774429783
 20
786.5278405648388
 30
0.0
 40
4.9861
100
AcDbArc
 50
28.77604498517136
 51
201.2238211158878
  0
LINE
  5
302
330
1F
100
AcDbEntity
  8
LAY-10
  6
CONTINUOUS
 62
     7
100
AcDbLine
 10
609.305448643182
 20
788.9284363646985
 30
0.0
 11
623.9159434910471
 21
763.333958474611
 31
0.0
  0
LINE
  5
303
330
1F
100
AcDbEntity
  8
LAY-10
  6
CONTINUOUS
 62
     7
100
AcDbLine
 10
623.9159434910462
 20
763.3339584746105
 30
0.0
 11
620.5403759485789
 21
767.2580927178125
 31
0.0
  0
LINE
  5
304
330
1F
100
AcDbEntity
  8
LAY-10
  6
CONTINUOUS
 62
     7
100
AcDbLine
 10
598.167392848115
 20
781.8576251134365
 30
0.0
 11
606.2302877832053
 21
755.6301948647407
 31
0.0
  0
ARC
  5
305
330
1F
100
AcDbEntity
  8
LAY-10
  6
CONTINUOUS
 62
     7
100
AcDbCircle
 10
606.1187396492778
 20
783.9881820675447
 30
0.0
 40
8.231839945437176
100
AcDbArc
 50
35.0000000000072
 51
195.0000000000139
  0
LINE
  5
306
330
1F
100
AcDbEntity
  8
LAY-10
  6
CONTINUOUS
 62
     7
100
AcDbLine
 10
612.8618681688258
 20
788.7097714880575
 30
0.0
 11
627.7705164056579
 21
765.674568429804
 31
0.0
  0
ARC
  5
307
330
1F
100
AcDbEntity
  8
LAY-10
  6
CONTINUOUS
 62
     7
100
AcDbCircle
 10
604.9344774428951
 20
786.5278405648002
 30
0.0
 40
4.0
100
AcDbArc
 50
29.71969474808139
 51
200.2803052519193
  0
LINE
  5
308
330
1F
100
AcDbEntity
  8
LAY-10
  6
CONTINUOUS
 62
     7
100
AcDbLine
 10
608.4083220631123
 20
788.5108694487536
 30
0.0
 11
620.5403759484661
 21
767.2580927177497
 31
0.0
  0
LINE
  5
309
330
1F
100
AcDbEntity
  8
LAY-10
  6
CONTINUOUS
 62
     7
100
AcDbLine
 10
601.1824449059468
 20
785.1413875934815
 30
0.0
 11
609.6646825040261
 21
762.1866735768609
 31
0.0
  0
ARC
  5
30A
330
1F
100
AcDbEntity
  8
LAY-10
  6
CONTINUOUS
 62
     7
100
AcDbCircle
 10
580.0000000001937
 20
840.0000000000101
 30
0.0
 40
83.27608994833002
100
AcDbArc
 50
290.8682881959537
 51
299.1317118041047
  0
ARC
  5
30B
330
1F
100
AcDbEntity
  8
LAY-10
  6
CONTINUOUS
 62
     7
100
AcDbCircle
 10
580.0000000001846
 20
839.9999999999983
 30
0.0
 40
88.35322300770997
100
AcDbArc
 50
319.8050013015785
 51
322.7297068884203
  0
ARC
  5
30C
330
1F
100
AcDbEntity
  8
LAY-10
  6
CONTINUOUS
 62
     7
100
AcDbCircle
 10
580.0000000001846
 20
839.9999999999983
 30
0.0
 40
88.35322300770997
100
AcDbArc
 50
307.2702931116736
 51
310.1949986986365
  0
ARC
  5
30D
330
1F
100
AcDbEntity
  8
LAY-10
  6
CONTINUOUS
 62
     7
100
AcDbCircle
 10
650.7891465556659
 20
790.4329059585281
 30
0.0
 40
3.966484956560522
100
AcDbArc
 50
263.0675650428149
 51
26.93243495720676
  0
LINE
  5
30E
330
1F
100
AcDbEntity
  8
LAY-10
  6
CONTINUOUS
 62
     7
100
AcDbLine
 10
637.0223761996454
 20
772.5111814562489
 30
0.0
 11
634.4894083030022
 21
777.0253103231536
 31
0.0
  0
LINE
  5
30F
330
1F
100
AcDbEntity
  8
LAY-10
  6
CONTINUOUS
 62
     7
100
AcDbLine
 10
617.9685177353222
 20
794.9943826470768
 30
0.0
 11
637.0223761996449
 21
772.511181456248
 31
0.0
  0
ARC
  5
310
330
1F
100
AcDbEntity
  8
LAY-10
  6
CONTINUOUS
 62
     7
100
AcDbCircle
 10
621.7193000903062
 20
798.2806999100609
 30
0.0
 40
4.9861
100
AcDbArc
 50
48.7760449851713
 51
221.2238211158881
  0
LINE
  5
311
330
1F
100
AcDbEntity
  8
LAY-10
  6
CONTINUOUS
 62
     7
100
AcDbLine
 10
625.0056173532712
 20
802.0314822650454
 30
0.0
 11
647.4888185441537
 21
782.9776238007872
 31
0.0
  0
LINE
  5
312
330
1F
100
AcDbEntity
  8
LAY-10
  6
CONTINUOUS
 62
     7
100
AcDbLine
 10
647.4888185441528
 20
782.9776238007868
 30
0.0
 11
642.9746896772426
 21
785.5105916974168
 31
0.0
  0
LINE
  5
313
330
1F
100
AcDbEntity
  8
LAY-10
  6
CONTINUOUS
 62
     7
100
AcDbLine
 10
616.9576283903298
 20
791.577653669866
 30
0.0
 11
633.5045807157294
 21
769.6896034843086
 31
0.0
  0
ARC
  5
314
330
1F
100
AcDbEntity
  8
LAY-10
  6
CONTINUOUS
 62
     7
100
AcDbCircle
 10
623.7007569098841
 20
796.2992430903715
 30
0.0
 40
8.231839945437176
100
AcDbArc
 50
55.00000000000721
 51
215.0000000000139
  0
LINE
  5
315
330
1F
100
AcDbEntity
  8
LAY-10
  6
CONTINUOUS
 62
     7
100
AcDbLine
 10
628.4223463303865
 20
803.0423716099277
 30
0.0
 11
650.3103965159498
 21
786.4954192845354
 31
0.0
  0
ARC
  5
316
330
1F
100
AcDbEntity
  8
LAY-10
  6
CONTINUOUS
 62
     7
100
AcDbCircle
 10
621.7193000902416
 20
798.2806999099968
 30
0.0
 40
4.0
100
AcDbArc
 50
49.71969474808134
 51
220.2803052519195
  0
LINE
  5
317
330
1F
100
AcDbEntity
  8
LAY-10
  6
CONTINUOUS
 62
     7
100
AcDbLine
 10
624.3054104225075
 20
801.3322623539508
 30
0.0
 11
642.9746896771576
 21
785.5105916973199
 31
0.0
  0
LINE
  5
318
330
1F
100
AcDbEntity
  8
LAY-10
  6
CONTINUOUS
 62
     7
100
AcDbLine
 10
618.6677376462876
 20
795.6945895777318
 30
0.0
 11
634.4894083029194
 21
777.0253103230808
 31
0.0
  0
ARC
  5
319
330
1F
100
AcDbEntity
  8
LAY-10
  6
CONTINUOUS
 62
     7
100
AcDbCircle
 10
580.0000000002187
 20
840.0000000000474
 30
0.0
 40
83.27608994833002
100
AcDbArc
 50
310.8682881959534
 51
319.1317118041045
  0
ARC
  5
31A
330
1F
100
AcDbEntity
  8
LAY-10
  6
CONTINUOUS
 62
     7
100
AcDbCircle
 10
580.0000000002142
 20
840.0000000000333
 30
0.0
 40
88.35322300770997
100
AcDbArc
 50
339.8050013015786
 51
342.7297068884204
  0
ARC
  5
31B
330
1F
100
AcDbEntity
  8
LAY-10
  6
CONTINUOUS
 62
     7
100
AcDbCircle
 10
580.0000000002142
 20
840.0000000000333
 30
0.0
 40
88.35322300770997
100
AcDbArc
 50
327.2702931116738
 51
330.1949986986366
  0
ARC
  5
31C
330
1F
100
AcDbEntity
  8
LAY-10
  6
CONTINUOUS
 62
     7
100
AcDbCircle
 10
663.472983258433
 20
817.6334815462702
 30
0.0
 40
3.966484956560522
100
AcDbArc
 50
283.0675650428147
 51
46.93243495720676
  0
LINE
  5
31D
330
1F
100
AcDbEntity
  8
LAY-10
  6
CONTINUOUS
 62
     7
100
AcDbLine
 10
656.6660415257388
 20
796.0840565094228
 30
0.0
 11
652.7419072825264
 21
799.4596240518796
 31
0.0
  0
LINE
  5
31E
330
1F
100
AcDbEntity
  8
LAY-10
  6
CONTINUOUS
 62
     7
100
AcDbLine
 10
631.0715636356085
 20
810.6945513572138
 30
0.0
 11
656.6660415257384
 21
796.0840565094219
 31
0.0
  0
ARC
  5
31F
330
1F
100
AcDbEntity
  8
LAY-10
  6
CONTINUOUS
 62
     7
100
AcDbCircle
 10
633.4721594354614
 20
815.0655225574366
 30
0.0
 40
4.9861
100
AcDbArc
 50
68.77604498517142
 51
241.2238211158877
  0
LINE
  5
320
330
1F
100
AcDbEntity
  8
LAY-10
  6
CONTINUOUS
 62
     7
100
AcDbLine
 10
635.2774443983963
 20
819.7140917598819
 30
0.0
 11
662.9215460519663
 21
809.4990292572453
 31
0.0
  0
LINE
  5
321
330
1F
100
AcDbEntity
  8
LAY-10
  6
CONTINUOUS
 62
     7
100
AcDbLine
 10
662.9215460519649
 20
809.4990292572439
 30
0.0
 11
657.813326423408
 21
810.3353174963441
 31
0.0
  0
LINE
  5
322
330
1F
100
AcDbEntity
  8
LAY-10
  6
CONTINUOUS
 62
     7
100
AcDbLine
 10
631.2902285121786
 20
807.138131831443
 30
0.0
 11
654.3254315704366
 21
792.2294835946192
 31
0.0
  0
ARC
  5
323
330
1F
100
AcDbEntity
  8
LAY-10
  6
CONTINUOUS
 62
     7
100
AcDbCircle
 10
636.0118179326887
 20
813.8812603509942
 30
0.0
 40
8.231839945437176
100
AcDbArc
 50
75.00000000000722
 51
235.0000000000141
  0
LINE
  5
324
330
1F
100
AcDbEntity
  8
LAY-10
  6
CONTINUOUS
 62
     7
100
AcDbLine
 10
638.1423748867933
 20
821.832607152157
 30
0.0
 11
664.3698051354922
 21
813.7697122170754
 31
0.0
  0
ARC
  5
325
330
1F
100
AcDbEntity
  8
LAY-10
  6
CONTINUOUS
 62
     7
100
AcDbCircle
 10
633.4721594354228
 20
815.0655225573538
 30
0.0
 40
4.0
100
AcDbArc
 50
69.7196947480814
 51
240.2803052519191
  0
LINE
  5
326
330
1F
100
AcDbEntity
  8
LAY-10
  6
CONTINUOUS
 62
     7
100
AcDbLine
 10
634.8586124067424
 20
818.8175550943025
 30
0.0
 11
657.8133264233616
 21
810.3353174962236
 31
0.0
  0
LINE
  5
327
330
1F
100
AcDbEntity
  8
LAY-10
  6
CONTINUOUS
 62
     7
100
AcDbLine
 10
631.4891305514689
 20
811.5916779371379
 30
0.0
 11
652.7419072824732
 21
799.4596240517836
 31
0.0
  0
ARC
  5
328
330
1F
100
AcDbEntity
  8
LAY-10
  6
CONTINUOUS
 62
     7
100
AcDbCircle
 10
580.0000000002296
 20
840.0000000000911
 30
0.0
 40
83.27608994833002
100
AcDbArc
 50
330.8682881959535
 51
339.1317118041047
  0
ARC
  5
329
330
1F
100
AcDbEntity
  8
LAY-10
  6
CONTINUOUS
 62
     7
100
AcDbCircle
 10
580.0000000002301
 20
840.0000000000765
 30
0.0
 40
88.35322300770997
100
AcDbArc
 50
359.8050013015789
 51
2.729706888420259
  0
ARC
  5
32A
330
1F
100
AcDbEntity
  8
LAY-10
  6
CONTINUOUS
 62
     7
100
AcDbCircle
 10
580.0000000002301
 20
840.0000000000765
 30
0.0
 40
88.35322300770997
100
AcDbArc
 50
347.2702931116737
 51
350.1949986986365
  0
ARC
  5
32B
330
1F
100
AcDbEntity
  8
LAY-10
  6
CONTINUOUS
 62
     7
100
AcDbCircle
 10
666.0887462502164
 20
847.5317893542002
 30
0.0
 40
3.966484956560522
100
AcDbArc
 50
303.0675650428149
 51
66.93243495720677
  0
LINE
  5
32C
330
1F
100
AcDbEntity
  8
LAY-10
  6
CONTINUOUS
 62
     7
100
AcDbLine
 10
667.0626507735724
 20
824.9538424778704
 30
0.0
 11
662.2206586875755
 21
826.7837054321891
 31
0.0
  0
LINE
  5
32D
330
1F
100
AcDbEntity
  8
LAY-10
  6
CONTINUOUS
 62
     7
100
AcDbLine
 10
638.0146252254485
 20
829.929389676042
 30
0.0
 11
667.0626507735724
 21
824.9538424778694
 31
0.0
  0
ARC
  5
32E
330
1F
100
AcDbEntity
  8
LAY-10
  6
CONTINUOUS
 62
     7
100
AcDbCircle
 10
638.7754871876878
 20
834.8578111780918
 30
0.0
 40
4.9861
100
AcDbArc
 50
88.77604498517131
 51
261.2238211158878
  0
LINE
  5
32F
330
1F
100
AcDbEntity
  8
LAY-10
  6
CONTINUOUS
 62
     7
100
AcDbLine
 10
638.8819958408926
 20
839.8434811766089
 30
0.0
 11
668.3527113142404
 21
839.699301931678
 31
0.0
  0
LINE
  5
330
330
1F
100
AcDbEntity
  8
LAY-10
  6
CONTINUOUS
 62
     7
100
AcDbLine
 10
668.35271131424
 20
839.6993019316766
 30
0.0
 11
663.2665276005328
 21
838.7380418093104
 31
0.0
  0
LINE
  5
331
330
1F
100
AcDbEntity
  8
LAY-10
  6
CONTINUOUS
 62
     7
100
AcDbLine
 10
639.4364701123168
 20
826.6622362836807
 30
0.0
 11
666.1815384512174
 21
820.5311930011659
 31
0.0
  0
ARC
  5
332
330
1F
100
AcDbEntity
  8
LAY-10
  6
CONTINUOUS
 62
     7
100
AcDbCircle
 10
641.5670270664305
 20
834.6135830848422
 30
0.0
 40
8.231839945437176
100
AcDbArc
 50
95.00000000000716
 51
255.0000000000138
  0
LINE
  5
333
330
1F
100
AcDbEntity
  8
LAY-10
  6
CONTINUOUS
 62
     7
100
AcDbLine
 10
640.8495749418007
 20
842.8140983940108
 30
0.0
 11
668.2529700899977
 21
844.2077649740669
 31
0.0
  0
ARC
  5
334
330
1F
100
AcDbEntity
  8
LAY-10
  6
CONTINUOUS
 62
     7
100
AcDbCircle
 10
638.7754871876791
 20
834.8578111780008
 30
0.0
 40
4.0
100
AcDbArc
 50
89.71969474808135
 51
260.2803052519192
  0
LINE
  5
335
330
1F
100
AcDbEntity
  8
LAY-10
  6
CONTINUOUS
 62
     7
100
AcDbLine
 10
638.7950561078455
 20
838.857763309885
 30
0.0
 11
663.26652760053
 21
838.7380418091817
 31
0.0
  0
LINE
  5
336
330
1F
100
AcDbEntity
  8
LAY-10
  6
CONTINUOUS
 62
     7
100
AcDbLine
 10
638.1001744135201
 20
830.915229199518
 30
0.0
 11
662.2206586875591
 21
826.7837054320804
 31
0.0
  0
ARC
  5
337
330
1F
100
AcDbEntity
  8
LAY-10
  6
CONTINUOUS
 62
     7
100
AcDbCircle
 10
580.0000000002251
 20
840.0000000001356
 30
0.0
 40
83.27608994833002
100
AcDbArc
 50
350.8682881959538
 51
359.1317118041046
  0
ARC
  5
338
330
1F
100
AcDbEntity
  8
LAY-10
  6
CONTINUOUS
 62
     7
100
AcDbCircle
 10
580.0000000002301
 20
840.000000000122
 30
0.0
 40
88.35322300770997
100
AcDbArc
 50
19.8050013015786
 51
22.72970688842026
  0
ARC
  5
339
330
1F
100
AcDbEntity
  8
LAY-10
  6
CONTINUOUS
 62
     7
100
AcDbCircle
 10
580.0000000002301
 20
840.000000000122
 30
0.0
 40
88.35322300770997
100
AcDbArc
 50
7.270293111673709
 51
10.19499869863644
  0
ARC
  5
33A
330
1F
100
AcDbEntity
  8
LAY-10
  6
CONTINUOUS
 62
     7
100
AcDbCircle
 10
658.3209359096568
 20
876.521652208654
 30
0.0
 40
3.966484956560522
100
AcDbArc
 50
323.0675650428147
 51
86.9324349572069
  0
LINE
  5
33B
330
1F
100
AcDbEntity
  8
LAY-10
  6
CONTINUOUS
 62
     7
100
AcDbLine
 10
666.9582194302461
 20
855.6384171011338
 30
0.0
 11
661.7823852072288
 21
855.7018669891223
 31
0.0
  0
LINE
  5
33C
330
1F
100
AcDbEntity
  8
LAY-10
  6
CONTINUOUS
 62
     7
100
AcDbLine
 10
637.9602668084308
 20
850.3788922263308
 30
0.0
 11
666.9582194302466
 21
855.6384171011333
 31
0.0
  0
ARC
  5
33D
330
1F
100
AcDbEntity
  8
LAY-10
  6
CONTINUOUS
 62
     7
100
AcDbCircle
 10
636.989623751284
 20
855.2703236613062
 30
0.0
 40
4.9861
100
AcDbArc
 50
108.7760449851714
 51
281.2238211158881
  0
LINE
  5
33E
330
1F
100
AcDbEntity
  8
LAY-10
  6
CONTINUOUS
 62
     7
100
AcDbLine
 10
635.3845095792831
 20
859.9917490734207
 30
0.0
 11
663.1272356448853
 21
869.9358432309929
 31
0.0
  0
LINE
  5
33F
330
1F
100
AcDbEntity
  8
LAY-10
  6
CONTINUOUS
 62
     7
100
AcDbLine
 10
663.1272356448849
 20
869.935843230991
 30
0.0
 11
658.6765566659778
 21
867.2929769046056
 31
0.0
  0
LINE
  5
340
330
1F
100
AcDbEntity
  8
LAY-10
  6
CONTINUOUS
 62
     7
100
AcDbLine
 10
640.4137962280456
 20
847.7950718845474
 30
0.0
 11
667.6428798907473
 21
851.1811278607748
 31
0.0
  0
ARC
  5
341
330
1F
100
AcDbEntity
  8
LAY-10
  6
CONTINUOUS
 62
     7
100
AcDbCircle
 10
639.6963441034259
 20
855.9955871937174
 30
0.0
 40
8.231839945437176
100
AcDbArc
 50
115.0000000000072
 51
275.0000000000141
  0
LINE
  5
342
330
1F
100
AcDbEntity
  8
LAY-10
  6
CONTINUOUS
 62
     7
100
AcDbLine
 10
636.2174182147573
 20
863.4561678378897
 30
0.0
 11
661.491524376539
 21
874.1382991752008
 31
0.0
  0
ARC
  5
343
330
1F
100
AcDbEntity
  8
LAY-10
  6
CONTINUOUS
 62
     7
100
AcDbCircle
 10
636.9896237513067
 20
855.2703236612175
 30
0.0
 40
4.0
100
AcDbArc
 50
109.7196947480814
 51
280.2803052519195
  0
LINE
  5
344
330
1F
100
AcDbEntity
  8
LAY-10
  6
CONTINUOUS
 62
     7
100
AcDbLine
 10
635.639948319741
 20
859.035742127926
 30
0.0
 11
658.6765566660197
 21
867.2929769044832
 31
0.0
  0
LINE
  5
345
330
1F
100
AcDbEntity
  8
LAY-10
  6
CONTINUOUS
 62
     7
100
AcDbLine
 10
637.7034797740607
 20
851.334537897386
 30
0.0
 11
661.7823852072502
 21
855.701866989015
 31
0.0
  0
ARC
  5
346
330
1F
100
AcDbEntity
  8
LAY-10
  6
CONTINUOUS
 62
     7
100
AcDbCircle
 10
580.0000000002051
 20
840.0000000001766
 30
0.0
 40
83.27608994833002
100
AcDbArc
 50
10.86828819595349
 51
19.13171180410462
  0
ARC
  5
347
330
1F
100
AcDbEntity
  8
LAY-10
  6
CONTINUOUS
 62
     7
100
AcDbCircle
 10
580.0000000002151
 20
840.0000000001656
 30
0.0
 40
88.35322300770997
100
AcDbArc
 50
39.80500130157861
 51
42.72970688842027
  0
ARC
  5
348
330
1F
100
AcDbEntity
  8
LAY-10
  6
CONTINUOUS
 62
     7
100
AcDbCircle
 10
580.0000000002151
 20
840.0000000001656
 30
0.0
 40
88.35322300770997
100
AcDbArc
 50
27.27029311167366
 51
30.19499869863645
  0
ARC
  5
349
330
1F
100
AcDbEntity
  8
LAY-10
  6
CONTINUOUS
 62
     7
100
AcDbCircle
 10
641.1064648044967
 20
901.1064648045746
 30
0.0
 40
3.966484956560522
100
AcDbArc
 50
343.0675650428147
 51
106.9324349572068
  0
LINE
  5
34A
330
1F
100
AcDbEntity
  8
LAY-10
  6
CONTINUOUS
 62
     7
100
AcDbLine
 10
656.3653434570078
 20
884.4367678235573
 30
0.0
 11
651.4799490914438
 21
882.7261516523037
 31
0.0
  0
LINE
  5
34B
330
1F
100
AcDbEntity
  8
LAY-10
  6
CONTINUOUS
 62
     7
100
AcDbLine
 10
630.9150448118944
 20
869.5765471980009
 30
0.0
 11
656.3653434570087
 21
884.4367678235568
 31
0.0
  0
ARC
  5
34C
330
1F
100
AcDbEntity
  8
LAY-10
  6
CONTINUOUS
 62
     7
100
AcDbCircle
 10
628.3299706132175
 20
873.8410097450034
 30
0.0
 40
4.9861
100
AcDbArc
 50
128.7760449851713
 51
301.2238211158879
  0
LINE
  5
34D
330
1F
100
AcDbEntity
  8
LAY-10
  6
CONTINUOUS
 62
     7
100
AcDbLine
 10
625.2068340741171
 20
877.7287169851971
 30
0.0
 11
647.8753885294309
 21
896.5616800306694
 31
0.0
  0
LINE
  5
34E
330
1F
100
AcDbEntity
  8
LAY-10
  6
CONTINUOUS
 62
     7
100
AcDbLine
 10
647.8753885294318
 20
896.5616800306685
 30
0.0
 11
644.5970318552063
 21
892.5559761837777
 31
0.0
  0
LINE
  5
34F
330
1F
100
AcDbEntity
  8
LAY-10
  6
CONTINUOUS
 62
     7
100
AcDbLine
 10
634.1043269060119
 20
867.9877067731405
 30
0.0
 11
658.5331965443161
 21
880.4824536845127
 31
0.0
  0
ARC
  5
350
330
1F
100
AcDbEntity
  8
LAY-10
  6
CONTINUOUS
 62
     7
100
AcDbCircle
 10
630.625401017352
 20
875.4482874173178
 30
0.0
 40
8.231839945437176
100
AcDbArc
 50
135.0000000000074
 51
295.000000000014
  0
LINE
  5
351
330
1F
100
AcDbEntity
  8
LAY-10
  6
CONTINUOUS
 62
     7
100
AcDbLine
 10
624.804611170297
 20
881.2690772643633
 30
0.0
 11
644.9009981364725
 21
899.9512506681805
 31
0.0
  0
ARC
  5
352
330
1F
100
AcDbEntity
  8
LAY-10
  6
CONTINUOUS
 62
     7
100
AcDbCircle
 10
628.3299706132698
 20
873.8410097449283
 30
0.0
 40
4.0
100
AcDbArc
 50
129.7196947480815
 51
300.2803052519193
  0
LINE
  5
353
330
1F
100
AcDbEntity
  8
LAY-10
  6
CONTINUOUS
 62
     7
100
AcDbLine
 10
625.7738416061065
 20
876.917729507718
 30
0.0
 11
644.5970318552877
 21
892.5559761836772
 31
0.0
  0
LINE
  5
354
330
1F
100
AcDbEntity
  8
LAY-10
  6
CONTINUOUS
 62
     7
100
AcDbLine
 10
630.3468938611995
 20
870.3867340448779
 30
0.0
 11
651.4799490915007
 21
882.7261516522095
 31
0.0
  0
ARC
  5
355
330
1F
100
AcDbEntity
  8
LAY-10
  6
CONTINUOUS
 62
     7
100
AcDbCircle
 10
580.0000000001728
 20
840.0000000002079
 30
0.0
 40
83.27608994833002
100
AcDbArc
 50
30.86828819595349
 51
39.13171180410457
  0
ARC
  5
356
330
1F
100
AcDbEntity
  8
LAY-10
  6
CONTINUOUS
 62
     7
100
AcDbCircle
 10
580.0000000001855
 20
840.0000000002011
 30
0.0
 40
88.35322300770997
100
AcDbArc
 50
59.80500130157856
 51
62.72970688842033
  0
ARC
  5
357
330
1F
100
AcDbEntity
  8
LAY-10
  6
CONTINUOUS
 62
     7
100
AcDbCircle
 10
580.0000000001855
 20
840.0000000002011
 30
0.0
 40
88.35322300770997
100
AcDbArc
 50
47.27029311167367
 51
50.1949986986365
  0
ARC
  5
358
330
1F
100
AcDbEntity
  8
LAY-10
  6
CONTINUOUS
 62
     7
100
AcDbCircle
 10
616.5216522085539
 20
918.3209359097033
 30
0.0
 40
3.966484956560522
100
AcDbArc
 50
3.067565042814623
 51
126.9324349572068
  0
LINE
  5
359
330
1F
100
AcDbEntity
  8
LAY-10
  6
CONTINUOUS
 62
     7
100
AcDbLine
 10
636.5616800304297
 20
907.8753885296252
 30
0.0
 11
632.555976183547
 21
904.5970318553883
 31
0.0
  0
LINE
  5
35A
330
1F
100
AcDbEntity
  8
LAY-10
  6
CONTINUOUS
 62
     7
100
AcDbLine
 10
617.7287169850224
 20
885.2068340742563
 30
0.0
 11
636.5616800304306
 21
907.8753885296252
 31
0.0
  0
ARC
  5
35B
330
1F
100
AcDbEntity
  8
LAY-10
  6
CONTINUOUS
 62
     7
100
AcDbCircle
 10
613.8410097448095
 20
888.3299706133536
 30
0.0
 40
4.9861
100
AcDbArc
 50
148.7760449851715
 51
321.223821115888
  0
LINE
  5
35C
330
1F
100
AcDbEntity
  8
LAY-10
  6
CONTINUOUS
 62
     7
100
AcDbLine
 10
609.5765471978102
 20
890.9150448120105
 30
0.0
 11
624.4367678232929
 21
916.3653434571676
 31
0.0
  0
LINE
  5
35D
330
1F
100
AcDbEntity
  8
LAY-10
  6
CONTINUOUS
 62
     7
100
AcDbLine
 10
624.4367678232938
 20
916.3653434571662
 30
0.0
 11
622.7261516520539
 21
911.4799490915981
 31
0.0
  0
LINE
  5
35E
330
1F
100
AcDbEntity
  8
LAY-10
  6
CONTINUOUS
 62
     7
100
AcDbLine
 10
621.2690772643018
 20
884.8046111703444
 30
0.0
 11
639.9512506681117
 21
904.9009981365258
 31
0.0
  0
ARC
  5
35F
330
1F
100
AcDbEntity
  8
LAY-10
  6
CONTINUOUS
 62
     7
100
AcDbCircle
 10
615.4482874172527
 20
890.6254010173976
 30
0.0
 40
8.231839945437176
100
AcDbArc
 50
155.0000000000073
 51
315.000000000014
  0
LINE
  5
360
330
1F
100
AcDbEntity
  8
LAY-10
  6
CONTINUOUS
 62
     7
100
AcDbLine
 10
607.9877067730749
 20
894.1043269060534
 30
0.0
 11
620.482453684439
 21
918.5331965443626
 31
0.0
  0
ARC
  5
361
330
1F
100
AcDbEntity
  8
LAY-10
  6
CONTINUOUS
 62
     7
100
AcDbCircle
 10
613.8410097448841
 20
888.3299706133008
 30
0.0
 40
4.0
100
AcDbArc
 50
149.7196947480814
 51
320.2803052519194
  0
LINE
  5
362
330
1F
100
AcDbEntity
  8
LAY-10
  6
CONTINUOUS
 62
     7
100
AcDbLine
 10
610.3867340448332
 20
890.3468938612319
 30
0.0
 11
622.7261516521644
 21
911.4799490915317
 31
0.0
  0
LINE
  5
363
330
1F
100
AcDbEntity
  8
LAY-10
  6
CONTINUOUS
 62
     7
100
AcDbLine
 10
616.9177295076724
 20
885.7738416061371
 30
0.0
 11
632.555976183633
 21
904.5970318553196
 31
0.0
  0
ARC
  5
364
330
1F
100
AcDbEntity
  8
LAY-10
  6
CONTINUOUS
 62
     7
100
AcDbCircle
 10
580.0000000001314
 20
840.0000000002261
 30
0.0
 40
83.27608994833002
100
AcDbArc
 50
50.8682881959535
 51
59.13171180410458
  0
CIRCLE
  5
365
330
1F
100
AcDbEntity
  8
LAY-10
  6
CONTINUOUS
 62
     7
100
AcDbCircle
 10
580.0000000000009
 20
1002.500000000001
 30
0.0
 40
5.25
  0
LINE
  5
366
330
1F
100
AcDbEntity
  8
LAY-10
  6
CONTINUOUS
 62
     7
100
AcDbLine
 10
576.0366072321385
 20
999.0570335802319
 30
0.0
 11
584.9633927678315
 21
1004.210915612253
 31
0.0
  0
LINE
  5
367
330
1F
100
AcDbEntity
  8
LAY-10
  6
CONTINUOUS
 62
     7
100
AcDbLine
 10
575.0366072321413
 20
1000.789084387834
 30
0.0
 11
583.9633927678051
 21
1005.942966419837
 31
0.0
  0
CIRCLE
  5
368
330
1F
100
AcDbEntity
  8
LAY-10
  6
CONTINUOUS
 62
     7
100
AcDbCircle
 10
580.0000000000009
 20
677.500000000001
 30
0.0
 40
5.25
  0
LINE
  5
369
330
1F
100
AcDbEntity
  8
LAY-10
  6
CONTINUOUS
 62
     7
100
AcDbLine
 10
576.0366072321385
 20
674.0570335802319
 30
0.0
 11
584.9633927678315
 21
679.2109156122525
 31
0.0
  0
LINE
  5
36A
330
1F
100
AcDbEntity
  8
LAY-10
  6
CONTINUOUS
 62
     7
100
AcDbLine
 10
575.0366072321413
 20
675.7890843878332
 30
0.0
 11
583.9633927678051
 21
680.942966419837
 31
0.0
  0
LINE
  5
36B
330
1F
100
AcDbEntity
  8
LAY-10
  6
CONTINUOUS
 62
     7
100
AcDbLine
 10
584.0000000000755
 20
680.9003676270978
 30
0.0
 11
584.000000000075
 21
682.0000000000715
 31
0.0
  0
LINE
  5
36C
330
1F
100
AcDbEntity
  8
LAY-10
  6
CONTINUOUS
 62
     7
100
AcDbLine
 10
584.0000000000791
 20
665.0457202581875
 30
0.0
 11
584.0000000000773
 21
674.099632372907
 31
0.0
  0
LINE
  5
36D
330
1F
100
AcDbEntity
  8
LAY-10
  6
CONTINUOUS
 62
     7
100
AcDbLine
 10
576.0000000000805
 20
665.0457202581857
 30
0.0
 11
576.0000000000782
 21
674.0996323727264
 31
0.0
  0
LINE
  5
36E
330
1F
100
AcDbEntity
  8
LAY-10
  6
CONTINUOUS
 62
     7
100
AcDbLine
 10
576.0000000000764
 20
680.9003676272742
 30
0.0
 11
576.0000000000764
 21
682.0000000000701
 31
0.0
  0
LINE
  5
36F
330
1F
100
AcDbEntity
  8
LAY-10
  6
CONTINUOUS
 62
     7
100
AcDbLine
 10
584.0000000000268
 20
1014.954279741829
 30
0.0
 11
584.0000000000286
 21
1005.900367627152
 31
0.0
  0
LINE
  5
370
330
1F
100
AcDbEntity
  8
LAY-10
  6
CONTINUOUS
 62
     7
100
AcDbLine
 10
584.00000000003
 20
999.099632372851
 30
0.0
 11
584.00000000003
 21
997.9999999999442
 31
0.0
  0
LINE
  5
371
330
1F
100
AcDbEntity
  8
LAY-10
  6
CONTINUOUS
 62
     7
100
AcDbLine
 10
576.0000000000282
 20
1014.954279741827
 30
0.0
 11
576.00000000003
 21
1005.900367627219
 31
0.0
  0
LINE
  5
372
330
1F
100
AcDbEntity
  8
LAY-10
  6
CONTINUOUS
 62
     7
100
AcDbLine
 10
576.0000000000309
 20
999.0996323727815
 30
0.0
 11
576.0000000000314
 21
997.9999999999424
 31
0.0
  0
LINE
  5
373
330
1F
100
AcDbEntity
  8
LAY-10
  6
CONTINUOUS
 62
     7
100
AcDbLine
 10
463.0003018905059
 20
844.8989178527091
 30
0.0
 11
463.0003018905059
 21
835.1010821472374
 31
0.0
  0
LINE
  5
374
330
1F
100
AcDbEntity
  8
LAY-10
  6
CONTINUOUS
 62
     7
100
AcDbLine
 10
461.0003018904972
 20
844.8989178527091
 30
0.0
 11
461.0003018904972
 21
835.1010821472374
 31
0.0
  0
LINE
  5
375
330
1F
100
AcDbEntity
  8
LAY-10
  6
CONTINUOUS
 62
     7
100
AcDbLine
 10
634.2572617432479
 20
736.2258302757137
 30
0.0
 11
642.7424363662922
 21
741.1247481284496
 31
0.0
  0
LINE
  5
376
330
1F
100
AcDbEntity
  8
LAY-10
  6
CONTINUOUS
 62
     7
100
AcDbLine
 10
635.257261743252
 20
734.4937794681374
 30
0.0
 11
643.7424363662967
 21
739.3926973208733
 31
0.0
  0
LINE
  5
377
330
1F
100
AcDbEntity
  8
LAY-10
  6
CONTINUOUS
 62
     7
100
AcDbLine
 10
642.7424363662458
 20
938.8752518715775
 30
0.0
 11
634.2572617432015
 21
943.7741697243133
 31
0.0
  0
LINE
  5
378
330
1F
100
AcDbEntity
  8
LAY-10
  6
CONTINUOUS
 62
     7
100
AcDbLine
 10
643.7424363662503
 20
940.6073026791538
 30
0.0
 11
635.2572617432056
 21
945.5062205318897
 31
0.0
  0
CIRCLE
  5
379
330
1F
100
AcDbEntity
  8
LAY-10
  6
CONTINUOUS
 62
     7
100
AcDbCircle
 10
580.0
 20
840.0000000000001
 30
0.0
 40
244.9999999999999
  0
CIRCLE
  5
37A
330
1F
100
AcDbEntity
  8
LAY-10
  6
CONTINUOUS
 62
     7
100
AcDbCircle
 10
580.0
 20
840.0000000000001
 30
0.0
 40
245.9999999999996
  0
LINE
  5
37B
330
1F
100
AcDbEntity
  8
LAY-10
  6
CONTINUOUS
 62
     7
100
AcDbLine
 10
446.5000000000226
 20
190.8045381863333
 30
0.0
 11
446.5000000000226
 21
125.8045381863303
 31
0.0
  0
LINE
  5
37C
330
1F
100
AcDbEntity
  8
LAY-10
  6
CONTINUOUS
 62
     7
100
AcDbLine
 10
455.0000000000226
 20
190.8045381863333
 30
0.0
 11
455.0000000000226
 21
125.8045381863303
 31
0.0
  0
LINE
  5
37D
330
1F
100
AcDbEntity
  8
LAY-10
  6
CONTINUOUS
 62
     7
100
AcDbLine
 10
705.0000000000226
 20
190.8045381863333
 30
0.0
 11
705.0000000000226
 21
125.8045381863302
 31
0.0
  0
LINE
  5
37E
330
1F
100
AcDbEntity
  8
LAY-10
  6
CONTINUOUS
 62
     7
100
AcDbLine
 10
713.5000000000227
 20
190.8045381863333
 30
0.0
 11
713.5000000000227
 21
125.8045381863302
 31
0.0
  0
LINE
  5
37F
330
1F
100
AcDbEntity
  8
LAY-10
  6
CONTINUOUS
 62
     7
100
AcDbLine
 10
713.5000000000227
 20
125.8045381863302
 30
0.0
 11
446.5000000000226
 21
125.8045381863302
 31
0.0
  0
LINE
  5
380
330
1F
100
AcDbEntity
  8
LAY-10
  6
CONTINUOUS
 62
     7
100
AcDbLine
 10
659.3525205999847
 20
291.9999999999804
 30
0.0
 11
668.0482766510725
 21
238.4360708802933
 31
0.0
  0
LINE
  5
381
330
1F
100
AcDbEntity
  8
LAY-10
  6
CONTINUOUS
 62
     7
100
AcDbLine
 10
661.0631362910647
 20
291.9999999999804
 30
0.0
 11
669.8326700644177
 21
240.0063075576782
 31
0.0
  0
LINE
  5
382
330
1F
100
AcDbEntity
  8
LAY-10
  6
CONTINUOUS
 62
     7
100
AcDbLine
 10
663.6243967466546
 20
291.9999999999804
 30
0.0
 11
672.5687051679163
 21
239.9514657611148
 31
0.0
  0
ARC
  5
383
330
1F
100
AcDbEntity
  8
LAY-10
  6
CONTINUOUS
 62
     7
100
AcDbCircle
 10
690.3086724450693
 20
242.9999999999804
 30
0.0
 40
18.0
100
AcDbArc
 50
189.7507853776832
 51
270.0000000000002
  0
ARC
  5
384
330
1F
100
AcDbEntity
  8
LAY-10
  6
CONTINUOUS
 62
     7
100
AcDbCircle
 10
687.5819744327839
 20
242.9999999999804
 30
0.0
 40
18.0
100
AcDbArc
 50
189.5737064556806
 51
270.0000000000002
  0
ARC
  5
385
330
1F
100
AcDbEntity
  8
LAY-10
  6
CONTINUOUS
 62
     7
100
AcDbCircle
 10
683.8415115150649
 20
240.9999999999804
 30
0.0
 40
16.0
100
AcDbArc
 50
189.2211502632521
 51
270.0000000000002
  0
ARC
  5
386
330
1F
100
AcDbEntity
  8
LAY-10
  6
CONTINUOUS
 62
     7
100
AcDbCircle
 10
679.381359878251
 20
240.9999999999804
 30
0.0
 40
16.0
100
AcDbArc
 50
188.9310257947969
 51
270.0000000000002
  0
ARC
  5
387
330
1F
100
AcDbEntity
  8
LAY-10
  6
CONTINUOUS
 62
     7
100
AcDbCircle
 10
674.6610323693969
 20
238.9999999999804
 30
0.0
 40
14.00000000000001
100
AcDbArc
 50
188.4135465116092
 51
270.0000000000002
  0
ARC
  5
388
330
1F
100
AcDbEntity
  8
LAY-10
  6
CONTINUOUS
 62
     7
100
AcDbCircle
 10
668.5973185436935
 20
238.9999999999804
 30
0.0
 40
14.00000000000001
100
AcDbArc
 50
188.0179889309331
 51
270.0000000000002
  0
LINE
  5
389
330
1F
100
AcDbEntity
  8
LAY-10
  6
CONTINUOUS
 62
     7
100
AcDbLine
 10
608.2049752017749
 20
231.9999999999806
 30
0.0
 11
609.9365713781547
 21
231.9999999999806
 31
0.0
  0
LINE
  5
38A
330
1F
100
AcDbEntity
  8
LAY-10
  6
CONTINUOUS
 62
     7
100
AcDbLine
 10
606.8433237811248
 20
291.9999999999804
 30
0.0
 11
610.0040513226015
 21
230.6910854886802
 31
0.0
  0
ARC
  5
38B
330
1F
100
AcDbEntity
  8
LAY-10
  6
CONTINUOUS
 62
     7
100
AcDbCircle
 10
615.9960936976775
 20
230.9999999999806
 30
0.0
 40
6.000000000000004
100
AcDbArc
 50
182.9512211095173
 51
270.0000000000002
  0
LINE
  5
38C
330
1F
100
AcDbEntity
  8
LAY-10
  6
CONTINUOUS
 62
     7
100
AcDbLine
 10
661.0631362910647
 20
291.9999999999804
 30
0.0
 11
663.6243967466546
 21
291.9999999999804
 31
0.0
  0
LINE
  5
38D
330
1F
100
AcDbEntity
  8
LAY-10
  6
CONTINUOUS
 62
     7
100
AcDbLine
 10
655.170311138055
 20
291.9999999999804
 30
0.0
 11
659.3525205999847
 21
291.9999999999804
 31
0.0
  0
LINE
  5
38E
330
1F
100
AcDbEntity
  8
LAY-10
  6
CONTINUOUS
 62
     7
100
AcDbLine
 10
646.9934741191148
 20
291.9999999999804
 30
0.0
 11
652.6695582694049
 21
291.9999999999804
 31
0.0
  0
LINE
  5
38F
330
1F
100
AcDbEntity
  8
LAY-10
  6
CONTINUOUS
 62
     7
100
AcDbLine
 10
636.7810729933146
 20
291.9999999999804
 30
0.0
 11
643.778568183365
 21
291.9999999999804
 31
0.0
  0
LINE
  5
390
330
1F
100
AcDbEntity
  8
LAY-10
  6
CONTINUOUS
 62
     7
100
AcDbLine
 10
624.8434102500148
 20
291.9999999999804
 30
0.0
 11
632.9496985765948
 21
291.9999999999804
 31
0.0
  0
LINE
  5
391
330
1F
100
AcDbEntity
  8
LAY-10
  6
CONTINUOUS
 62
     7
100
AcDbLine
 10
611.543201882035
 20
291.9999999999804
 30
0.0
 11
620.5119791724148
 21
291.9999999999804
 31
0.0
  0
LINE
  5
392
330
1F
100
AcDbEntity
  8
LAY-10
  6
CONTINUOUS
 62
     7
100
AcDbLine
 10
622.6616114660749
 20
232.3999999999807
 30
0.0
 11
622.061611466075
 21
225.8999999999807
 31
0.0
  0
LINE
  5
393
330
1F
100
AcDbEntity
  8
LAY-10
  6
CONTINUOUS
 62
     7
100
AcDbLine
 10
655.170311138055
 20
291.9999999999804
 30
0.0
 11
663.5753447598411
 21
238.5160744623308
 31
0.0
  0
LINE
  5
394
330
1F
100
AcDbEntity
  8
LAY-10
  6
CONTINUOUS
 62
     7
100
AcDbLine
 10
652.6695582694049
 20
291.9999999999804
 30
0.0
 11
660.8117036352726
 21
236.9515631290598
 31
0.0
  0
ARC
  5
395
330
1F
100
AcDbEntity
  8
LAY-10
  6
CONTINUOUS
 62
     7
100
AcDbCircle
 10
660.3793674850688
 20
243.9999999999804
 30
0.0
 40
12.00000000000001
100
AcDbArc
 50
186.8573472703241
 51
217.9931073261225
  0
ARC
  5
396
330
1F
100
AcDbEntity
  8
LAY-10
  6
CONTINUOUS
 62
     7
100
AcDbCircle
 10
662.9718634371663
 20
236.9999999999806
 30
0.0
 40
12.00000000000001
100
AcDbArc
 50
187.3494261542246
 51
270.0000000000002
  0
ARC
  5
397
330
1F
100
AcDbEntity
  8
LAY-10
  6
CONTINUOUS
 62
     7
100
AcDbCircle
 10
655.4836089747921
 20
236.9999999999806
 30
0.0
 40
12.00000000000001
100
AcDbArc
 50
186.8592325024803
 51
270.0000000000002
  0
LINE
  5
398
330
1F
100
AcDbEntity
  8
LAY-10
  6
CONTINUOUS
 62
     7
100
AcDbLine
 10
646.9934741191148
 20
291.9999999999804
 30
0.0
 11
654.7341780034583
 21
237.0472239345592
 31
0.0
  0
LINE
  5
399
330
1F
100
AcDbEntity
  8
LAY-10
  6
CONTINUOUS
 62
     7
100
AcDbLine
 10
642.5205214348146
 20
291.9999999999804
 30
0.0
 11
648.4652094805713
 21
242.5672267995487
 31
0.0
  0
LINE
  5
39A
330
1F
100
AcDbEntity
  8
LAY-10
  6
CONTINUOUS
 62
     7
100
AcDbLine
 10
643.778568183365
 20
291.9999999999804
 30
0.0
 11
651.0704499007982
 21
235.4649573828693
 31
0.0
  0
LINE
  5
39B
330
1F
100
AcDbEntity
  8
LAY-10
  6
CONTINUOUS
 62
     7
100
AcDbLine
 10
636.7810729933146
 20
291.9999999999804
 30
0.0
 11
643.5694981200093
 21
235.5668347827278
 31
0.0
  0
ARC
  5
39C
330
1F
100
AcDbEntity
  8
LAY-10
  6
CONTINUOUS
 62
     7
100
AcDbCircle
 10
644.5805975175383
 20
241.9999999999804
 30
0.0
 40
10.0
100
AcDbArc
 50
185.4856949143449
 51
237.1336268524324
  0
LINE
  5
39D
330
1F
100
AcDbEntity
  8
LAY-10
  6
CONTINUOUS
 62
     7
100
AcDbLine
 10
639.5159916224304
 20
231.9999999999806
 30
0.0
 11
639.3176172982278
 21
231.9999999999806
 31
0.0
  0
LINE
  5
39E
330
1F
100
AcDbEntity
  8
LAY-10
  6
CONTINUOUS
 62
     7
100
AcDbLine
 10
629.7327343415848
 20
291.9999999999804
 30
0.0
 11
634.626396545212
 21
241.0440277187195
 31
0.0
  0
ARC
  5
39F
330
1F
100
AcDbEntity
  8
LAY-10
  6
CONTINUOUS
 62
     7
100
AcDbCircle
 10
640.3652546277133
 20
234.9999999999806
 30
0.0
 40
10.0
100
AcDbArc
 50
185.4873814592197
 51
270.0000000000002
  0
ARC
  5
3A0
330
1F
100
AcDbEntity
  8
LAY-10
  6
CONTINUOUS
 62
     7
100
AcDbCircle
 10
649.0553836366
 20
234.9999999999806
 30
0.0
 40
10.0
100
AcDbArc
 50
186.058235725693
 51
270.0000000000002
  0
LINE
  5
3A1
330
1F
100
AcDbEntity
  8
LAY-10
  6
CONTINUOUS
 62
     7
100
AcDbLine
 10
632.9496985765948
 20
291.9999999999804
 30
0.0
 11
639.1112322525239
 21
233.9446075371571
 31
0.0
  0
LINE
  5
3A2
330
1F
100
AcDbEntity
  8
LAY-10
  6
CONTINUOUS
 62
     7
100
AcDbLine
 10
624.8434102500148
 20
291.9999999999804
 30
0.0
 11
630.4110817994713
 21
234.0437347096523
 31
0.0
  0
LINE
  5
3A3
330
1F
100
AcDbEntity
  8
LAY-10
  6
CONTINUOUS
 62
     7
100
AcDbLine
 10
625.3238229723331
 20
231.9999999999806
 30
0.0
 11
625.3155392021433
 21
231.9999999999806
 31
0.0
  0
ARC
  5
3A4
330
1F
100
AcDbEntity
  8
LAY-10
  6
CONTINUOUS
 62
     7
100
AcDbCircle
 10
627.0355080545044
 20
239.9999999999804
 30
0.0
 40
8.0
100
AcDbArc
 50
183.9413398854161
 51
257.4867536260659
  0
LINE
  5
3A5
330
1F
100
AcDbEntity
  8
LAY-10
  6
CONTINUOUS
 62
     7
100
AcDbLine
 10
619.0544284948803
 20
239.4501190465458
 30
0.0
 11
615.4338432813549
 21
291.9999999999804
 31
0.0
  0
ARC
  5
3A6
330
1F
100
AcDbEntity
  8
LAY-10
  6
CONTINUOUS
 62
     7
100
AcDbCircle
 10
623.6286509175013
 20
232.9999999999806
 30
0.0
 40
8.0
100
AcDbArc
 50
183.94277417107
 51
270.0000000000002
  0
LINE
  5
3A7
330
1F
100
AcDbEntity
  8
LAY-10
  6
CONTINUOUS
 62
     7
100
AcDbLine
 10
611.543201882035
 20
291.9999999999804
 30
0.0
 11
615.6475851255516
 21
232.4499192562972
 31
0.0
  0
ARC
  5
3A8
330
1F
100
AcDbEntity
  8
LAY-10
  6
CONTINUOUS
 62
     7
100
AcDbCircle
 10
633.261076905527
 20
232.9999999999806
 30
0.0
 40
8.0
100
AcDbArc
 50
184.5772992029999
 51
270.0000000000002
  0
LINE
  5
3A9
330
1F
100
AcDbEntity
  8
LAY-10
  6
CONTINUOUS
 62
     7
100
AcDbLine
 10
620.5119791724148
 20
291.9999999999804
 30
0.0
 11
625.2865923029178
 21
232.3615680750673
 31
0.0
  0
ARC
  5
3AA
330
1F
100
AcDbEntity
  8
LAY-10
  6
CONTINUOUS
 62
     7
100
AcDbCircle
 10
577.6841004466798
 20
233.9999999999806
 30
0.0
 40
2.0
100
AcDbArc
 50
179.6842198316756
 51
270.0000000000002
  0
LINE
  5
3AB
330
1F
100
AcDbEntity
  8
LAY-10
  6
CONTINUOUS
 62
     7
100
AcDbLine
 10
577.6841004466798
 20
231.9999999999806
 30
0.0
 11
579.9999999999948
 21
231.9999999999806
 31
0.0
  0
LINE
  5
3AC
330
1F
100
AcDbEntity
  8
LAY-10
  6
CONTINUOUS
 62
     7
100
AcDbLine
 10
588.5902577341128
 20
231.9999999999806
 30
0.0
 11
593.647995981489
 21
231.9999999999806
 31
0.0
  0
ARC
  5
3AD
330
1F
100
AcDbEntity
  8
LAY-10
  6
CONTINUOUS
 62
     7
100
AcDbCircle
 10
588.5902577341128
 20
235.9999999999806
 30
0.0
 40
4.0
100
AcDbArc
 50
180.5287091634393
 51
270.0000000000002
  0
ARC
  5
3AE
330
1F
100
AcDbEntity
  8
LAY-10
  6
CONTINUOUS
 62
     7
100
AcDbCircle
 10
608.2049752017717
 20
237.9999999999804
 30
0.0
 40
6.000000000000004
100
AcDbArc
 50
182.271482535784
 51
270.0000000000002
  0
LINE
  5
3AF
330
1F
100
AcDbEntity
  8
LAY-10
  6
CONTINUOUS
 62
     7
100
AcDbLine
 10
558.1244733359065
 20
231.9999999999806
 30
0.0
 11
562.5126390111648
 21
231.9999999999806
 31
0.0
  0
ARC
  5
3B0
330
1F
100
AcDbEntity
  8
LAY-10
  6
CONTINUOUS
 62
     7
100
AcDbCircle
 10
562.5126390111657
 20
235.9999999999806
 30
0.0
 40
4.0
100
AcDbArc
 50
270.0000000000002
 51
358.5942329594327
  0
LINE
  5
3B1
330
1F
100
AcDbEntity
  8
LAY-10
  6
CONTINUOUS
 62
     7
100
AcDbLine
 10
575.0520236785849
 20
291.9999999999804
 30
0.0
 11
579.9999999999948
 21
291.9999999999804
 31
0.0
  0
LINE
  5
3B2
330
1F
100
AcDbEntity
  8
LAY-10
  6
CONTINUOUS
 62
     7
100
AcDbLine
 10
582.5007537996146
 20
291.9999999999804
 30
0.0
 11
592.359047580095
 21
291.9999999999804
 31
0.0
  0
LINE
  5
3B3
330
1F
100
AcDbEntity
  8
LAY-10
  6
CONTINUOUS
 62
     7
100
AcDbLine
 10
597.2845675596748
 20
291.9999999999804
 30
0.0
 11
606.8433237811248
 21
291.9999999999804
 31
0.0
  0
LINE
  5
3B4
330
1F
100
AcDbEntity
  8
LAY-10
  6
CONTINUOUS
 62
     7
100
AcDbLine
 10
560.3239409658947
 20
291.9999999999804
 30
0.0
 11
570.0695518577047
 21
291.9999999999804
 31
0.0
  0
LINE
  5
3B5
330
1F
100
AcDbEntity
  8
LAY-10
  6
CONTINUOUS
 62
     7
100
AcDbLine
 10
576.0037347190848
 20
291.9999999999804
 30
0.0
 11
575.6841308221731
 21
234.0110227514762
 31
0.0
  0
LINE
  5
3B6
330
1F
100
AcDbEntity
  8
LAY-10
  6
CONTINUOUS
 62
     7
100
AcDbLine
 10
575.0520236785849
 20
291.9999999999804
 30
0.0
 11
574.6648222406232
 21
228.975425831196
 31
0.0
  0
LINE
  5
3B7
330
1F
100
AcDbEntity
  8
LAY-10
  6
CONTINUOUS
 62
     7
100
AcDbLine
 10
584.073320680325
 20
291.9999999999804
 30
0.0
 11
584.5904280343782
 21
235.9630896610594
 31
0.0
  0
LINE
  5
3B8
330
1F
100
AcDbEntity
  8
LAY-10
  6
CONTINUOUS
 62
     7
100
AcDbLine
 10
582.5007537996146
 20
291.9999999999804
 30
0.0
 11
583.0833343499392
 21
228.9630340284676
 31
0.0
  0
LINE
  5
3B9
330
1F
100
AcDbEntity
  8
LAY-10
  6
CONTINUOUS
 62
     7
100
AcDbLine
 10
592.359047580095
 20
291.9999999999804
 30
0.0
 11
593.7142889623935
 21
228.9140899278733
 31
0.0
  0
LINE
  5
3BA
330
1F
100
AcDbEntity
  8
LAY-10
  6
CONTINUOUS
 62
     7
100
AcDbLine
 10
600.058312823415
 20
291.9999999999804
 30
0.0
 11
602.2096897264253
 21
237.7621932105449
 31
0.0
  0
LINE
  5
3BB
330
1F
100
AcDbEntity
  8
LAY-10
  6
CONTINUOUS
 62
     7
100
AcDbLine
 10
597.2845675596748
 20
291.9999999999804
 30
0.0
 11
599.7148246650843
 21
230.7620743434883
 31
0.0
  0
LINE
  5
3BC
330
1F
100
AcDbEntity
  8
LAY-10
  6
CONTINUOUS
 62
     7
100
AcDbLine
 10
570.0695518577047
 20
291.9999999999804
 30
0.0
 11
568.520039946339
 21
228.9018010067963
 31
0.0
  0
LINE
  5
3BD
330
1F
100
AcDbEntity
  8
LAY-10
  6
CONTINUOUS
 62
     7
100
AcDbLine
 10
560.3239409658947
 20
291.9999999999804
 30
0.0
 11
558.0091283869403
 21
228.8534672465008
 31
0.0
  0
LINE
  5
3BE
330
1F
100
AcDbEntity
  8
LAY-10
  6
CONTINUOUS
 62
     7
100
AcDbLine
 10
567.8880937882448
 20
291.9999999999804
 30
0.0
 11
566.5114351132631
 21
235.9018687926665
 31
0.0
  0
LINE
  5
3BF
330
1F
100
AcDbEntity
  8
LAY-10
  6
CONTINUOUS
 62
     7
100
AcDbLine
 10
605.561611466075
 20
232.0999999999805
 30
0.0
 11
604.6616114660749
 21
225.9999999999806
 31
0.0
  0
LINE
  5
3C0
330
1F
100
AcDbEntity
  8
LAY-10
  6
CONTINUOUS
 62
     7
100
AcDbLine
 10
586.8016114660747
 20
231.9999999999806
 30
0.0
 11
586.7616114660748
 21
225.5599999999805
 31
0.0
  0
ARC
  5
3C1
330
1F
100
AcDbEntity
  8
LAY-10
  6
CONTINUOUS
 62
     7
100
AcDbCircle
 10
570.664897727557
 20
228.9999999999806
 30
0.0
 40
4.0
100
AcDbArc
 50
270.0000000000002
 51
359.6479987466076
  0
ARC
  5
3C2
330
1F
100
AcDbEntity
  8
LAY-10
  6
CONTINUOUS
 62
     7
100
AcDbCircle
 10
587.0831635359111
 20
228.9999999999806
 30
0.0
 40
4.0
100
AcDbArc
 50
180.5295060756007
 51
270.0000000000002
  0
ARC
  5
3C3
330
1F
100
AcDbEntity
  8
LAY-10
  6
CONTINUOUS
 62
     7
100
AcDbCircle
 10
605.7101054243137
 20
230.9999999999806
 30
0.0
 40
6.000000000000004
100
AcDbArc
 50
182.2726185256187
 51
270.0000000000002
  0
ARC
  5
3C4
330
1F
100
AcDbEntity
  8
LAY-10
  6
CONTINUOUS
 62
     7
100
AcDbCircle
 10
597.7133662884164
 20
228.9999999999806
 30
0.0
 40
4.0
100
AcDbArc
 50
181.2306657640792
 51
270.0000000000002
  0
LINE
  5
3C5
330
1F
100
AcDbEntity
  8
LAY-10
  6
CONTINUOUS
 62
     7
100
AcDbLine
 10
565.041611466075
 20
232.2599999999803
 30
0.0
 11
565.9816114660746
 21
225.9699999999804
 31
0.0
  0
ARC
  5
3C6
330
1F
100
AcDbEntity
  8
LAY-10
  6
CONTINUOUS
 62
     7
100
AcDbCircle
 10
564.5212455082944
 20
228.9999999999806
 30
0.0
 40
4.0
100
AcDbArc
 50
270.0000000000002
 51
358.5932617058439
  0
ARC
  5
3C7
330
1F
100
AcDbEntity
  8
LAY-10
  6
CONTINUOUS
 62
     7
100
AcDbCircle
 10
486.5633681774535
 20
238.9999999999804
 30
0.0
 40
14.00000000000001
100
AcDbArc
 50
270.0000000000002
 51
351.4930493234921
  0
ARC
  5
3C8
330
1F
100
AcDbEntity
  8
LAY-10
  6
CONTINUOUS
 62
     7
100
AcDbCircle
 10
481.2767991744632
 20
238.9999999999804
 30
0.0
 40
14.00000000000001
100
AcDbArc
 50
270.0000000000002
 51
351.1490592770959
  0
ARC
  5
3C9
330
1F
100
AcDbEntity
  8
LAY-10
  6
CONTINUOUS
 62
     7
100
AcDbCircle
 10
477.0323134050601
 20
240.9999999999804
 30
0.0
 40
16.0
100
AcDbArc
 50
270.0000000000002
 51
350.7126107578849
  0
ARC
  5
3CA
330
1F
100
AcDbEntity
  8
LAY-10
  6
CONTINUOUS
 62
     7
100
AcDbCircle
 10
473.4223829979029
 20
240.9999999999804
 30
0.0
 40
16.0
100
AcDbArc
 50
270.0000000000002
 51
350.4782538646125
  0
LINE
  5
3CB
330
1F
100
AcDbEntity
  8
LAY-10
  6
CONTINUOUS
 62
     7
100
AcDbLine
 10
498.2002691617346
 20
291.9999999999804
 30
0.0
 11
489.2019492068299
 21
238.3532491129326
 31
0.0
  0
LINE
  5
3CC
330
1F
100
AcDbEntity
  8
LAY-10
  6
CONTINUOUS
 62
     7
100
AcDbLine
 10
521.4129264018449
 20
291.9999999999804
 30
0.0
 11
528.9936646413645
 21
291.9999999999804
 31
0.0
  0
LINE
  5
3CD
330
1F
100
AcDbEntity
  8
LAY-10
  6
CONTINUOUS
 62
     7
100
AcDbLine
 10
531.6616114660748
 20
233.7999999999803
 30
0.0
 11
532.2616114660747
 21
226.9999999999806
 31
0.0
  0
ARC
  5
3CE
330
1F
100
AcDbEntity
  8
LAY-10
  6
CONTINUOUS
 62
     7
100
AcDbCircle
 10
519.5421757266323
 20
232.9999999999806
 30
0.0
 40
8.0
100
AcDbArc
 50
270.0000000000002
 51
354.661141213707
  0
LINE
  5
3CF
330
1F
100
AcDbEntity
  8
LAY-10
  6
CONTINUOUS
 62
     7
100
AcDbLine
 10
528.9936646413645
 20
291.9999999999804
 30
0.0
 11
522.6866679722795
 21
233.9204233669903
 31
0.0
  0
ARC
  5
3D0
330
1F
100
AcDbEntity
  8
LAY-10
  6
CONTINUOUS
 62
     7
100
AcDbCircle
 10
524.9220689373016
 20
239.9999999999804
 30
0.0
 40
8.0
100
AcDbArc
 50
288.9819829513866
 51
355.2670916739694
  0
ARC
  5
3D1
330
1F
100
AcDbEntity
  8
LAY-10
  6
CONTINUOUS
 62
     7
100
AcDbCircle
 10
528.7476219127735
 20
232.9999999999806
 30
0.0
 40
8.0
100
AcDbArc
 50
270.0000000000002
 51
355.2661297162723
  0
LINE
  5
3D2
330
1F
100
AcDbEntity
  8
LAY-10
  6
CONTINUOUS
 62
     7
100
AcDbLine
 10
537.2546891584846
 20
291.9999999999804
 30
0.0
 11
532.894790220029
 21
239.339912620957
 31
0.0
  0
LINE
  5
3D3
330
1F
100
AcDbEntity
  8
LAY-10
  6
CONTINUOUS
 62
     7
100
AcDbLine
 10
533.0906583940448
 20
291.9999999999804
 30
0.0
 11
527.5074703040874
 21
232.2556329572095
 31
0.0
  0
LINE
  5
3D4
330
1F
100
AcDbEntity
  8
LAY-10
  6
CONTINUOUS
 62
     7
100
AcDbLine
 10
498.2002691617346
 20
291.9999999999804
 30
0.0
 11
501.5848837932346
 21
291.9999999999804
 31
0.0
  0
LINE
  5
3D5
330
1F
100
AcDbEntity
  8
LAY-10
  6
CONTINUOUS
 62
     7
100
AcDbLine
 10
503.6986115390747
 20
291.9999999999804
 30
0.0
 11
508.6465870631347
 21
291.9999999999804
 31
0.0
  0
LINE
  5
3D6
330
1F
100
AcDbEntity
  8
LAY-10
  6
CONTINUOUS
 62
     7
100
AcDbLine
 10
511.5153329944347
 20
291.9999999999804
 30
0.0
 11
517.876327678555
 21
291.9999999999804
 31
0.0
  0
LINE
  5
3D7
330
1F
100
AcDbEntity
  8
LAY-10
  6
CONTINUOUS
 62
     7
100
AcDbLine
 10
492.8225735871766
 20
238.4178142241176
 30
0.0
 11
501.5848837932346
 21
291.9999999999804
 31
0.0
  0
LINE
  5
3D8
330
1F
100
AcDbEntity
  8
LAY-10
  6
CONTINUOUS
 62
     7
100
AcDbLine
 10
500.4093391274679
 20
236.9289885438681
 30
0.0
 11
508.6465870631347
 21
291.9999999999804
 31
0.0
  0
LINE
  5
3D9
330
1F
100
AcDbEntity
  8
LAY-10
  6
CONTINUOUS
 62
     7
100
AcDbLine
 10
503.6986115390747
 20
291.9999999999804
 30
0.0
 11
495.1100868066056
 21
236.8458984967048
 31
0.0
  0
ARC
  5
3DA
330
1F
100
AcDbEntity
  8
LAY-10
  6
CONTINUOUS
 62
     7
100
AcDbCircle
 10
493.3833639421752
 20
243.9999999999804
 30
0.0
 40
12.00000000000001
100
AcDbArc
 50
333.17531786119
 51
352.5340339077572
  0
ARC
  5
3DB
330
1F
100
AcDbEntity
  8
LAY-10
  6
CONTINUOUS
 62
     7
100
AcDbCircle
 10
504.617257284308
 20
234.9999999999806
 30
0.0
 40
10.0
100
AcDbArc
 50
270.0000000000002
 51
353.269936531189
  0
ARC
  5
3DC
330
1F
100
AcDbEntity
  8
LAY-10
  6
CONTINUOUS
 62
     7
100
AcDbCircle
 10
498.5645576024095
 20
236.9999999999806
 30
0.0
 40
12.00000000000001
100
AcDbArc
 50
270.0000000000002
 51
352.5325267346053
  0
ARC
  5
3DD
330
1F
100
AcDbEntity
  8
LAY-10
  6
CONTINUOUS
 62
     7
100
AcDbCircle
 10
491.7564825365149
 20
236.9999999999806
 30
0.0
 40
12.00000000000001
100
AcDbArc
 50
270.0000000000002
 51
352.0881007435813
  0
LINE
  5
3DE
330
1F
100
AcDbEntity
  8
LAY-10
  6
CONTINUOUS
 62
     7
100
AcDbLine
 10
511.7762829407649
 20
291.9999999999804
 30
0.0
 11
505.2816305762432
 21
242.4407530328131
 31
0.0
  0
LINE
  5
3DF
330
1F
100
AcDbEntity
  8
LAY-10
  6
CONTINUOUS
 62
     7
100
AcDbLine
 10
517.876327678555
 20
291.9999999999804
 30
0.0
 11
510.4627832161606
 21
235.4404400478558
 31
0.0
  0
LINE
  5
3E0
330
1F
100
AcDbEntity
  8
LAY-10
  6
CONTINUOUS
 62
     7
100
AcDbLine
 10
511.5153329944347
 20
291.9999999999804
 30
0.0
 11
503.6422533032602
 21
235.3481969607579
 31
0.0
  0
ARC
  5
3E1
330
1F
100
AcDbEntity
  8
LAY-10
  6
CONTINUOUS
 62
     7
100
AcDbCircle
 10
508.172275022219
 20
241.9999999999804
 30
0.0
 40
10.0
100
AcDbArc
 50
310.0710704570893
 51
353.8036581512392
  0
ARC
  5
3E2
330
1F
100
AcDbEntity
  8
LAY-10
  6
CONTINUOUS
 62
     7
100
AcDbCircle
 10
512.7451130489536
 20
234.9999999999806
 30
0.0
 40
10.0
100
AcDbArc
 50
270.0000000000002
 51
353.8024028478616
  0
LINE
  5
3E3
330
1F
100
AcDbEntity
  8
LAY-10
  6
CONTINUOUS
 62
     7
100
AcDbLine
 10
518.1138535957945
 20
240.9206411785362
 30
0.0
 11
523.6595479872445
 21
291.9999999999804
 31
0.0
  0
LINE
  5
3E4
330
1F
100
AcDbEntity
  8
LAY-10
  6
CONTINUOUS
 62
     7
100
AcDbLine
 10
521.4129264018449
 20
291.9999999999804
 30
0.0
 11
514.5483502335784
 21
233.8280815587269
 31
0.0
  0
LINE
  5
3E5
330
1F
100
AcDbEntity
  8
LAY-10
  6
CONTINUOUS
 62
     7
100
AcDbLine
 10
533.0906583940448
 20
291.9999999999804
 30
0.0
 11
541.6608032935949
 21
291.9999999999804
 31
0.0
  0
LINE
  5
3E6
330
1F
100
AcDbEntity
  8
LAY-10
  6
CONTINUOUS
 62
     7
100
AcDbLine
 10
546.193706993665
 20
291.9999999999804
 30
0.0
 11
555.4928590371849
 21
291.9999999999804
 31
0.0
  0
LINE
  5
3E7
330
1F
100
AcDbEntity
  8
LAY-10
  6
CONTINUOUS
 62
     7
100
AcDbLine
 10
547.2616114660748
 20
232.6999999999804
 30
0.0
 11
548.961611466075
 21
226.4999999999806
 31
0.0
  0
LINE
  5
3E8
330
1F
100
AcDbEntity
  8
LAY-10
  6
CONTINUOUS
 62
     7
100
AcDbLine
 10
543.1966842642248
 20
231.9999999999806
 30
0.0
 11
542.2302194613005
 21
231.9999999999806
 31
0.0
  0
ARC
  5
3E9
330
1F
100
AcDbEntity
  8
LAY-10
  6
CONTINUOUS
 62
     7
100
AcDbCircle
 10
543.196684264228
 20
237.9999999999804
 30
0.0
 40
6.000000000000004
100
AcDbArc
 50
270.0000000000002
 51
356.880427726051
  0
ARC
  5
3EA
330
1F
100
AcDbEntity
  8
LAY-10
  6
CONTINUOUS
 62
     7
100
AcDbCircle
 10
536.1510845580881
 20
230.9999999999806
 30
0.0
 40
6.000000000000004
100
AcDbArc
 50
270.0000000000002
 51
356.2206391237627
  0
ARC
  5
3EB
330
1F
100
AcDbEntity
  8
LAY-10
  6
CONTINUOUS
 62
     7
100
AcDbCircle
 10
554.0118132689947
 20
228.9999999999806
 30
0.0
 40
4.0
100
AcDbArc
 50
270.0000000000002
 51
357.9006031758679
  0
ARC
  5
3EC
330
1F
100
AcDbEntity
  8
LAY-10
  6
CONTINUOUS
 62
     7
100
AcDbCircle
 10
546.158731193673
 20
230.9999999999806
 30
0.0
 40
6.000000000000004
100
AcDbArc
 50
270.0000000000002
 51
356.8797920408926
  0
LINE
  5
3ED
330
1F
100
AcDbEntity
  8
LAY-10
  6
CONTINUOUS
 62
     7
100
AcDbLine
 10
541.6608032935949
 20
291.9999999999804
 30
0.0
 11
536.720332111953
 21
232.3397787644086
 31
0.0
  0
LINE
  5
3EE
330
1F
100
AcDbEntity
  8
LAY-10
  6
CONTINUOUS
 62
     7
100
AcDbLine
 10
546.193706993665
 20
291.9999999999804
 30
0.0
 11
542.1380362187867
 21
230.6045131955794
 31
0.0
  0
LINE
  5
3EF
330
1F
100
AcDbEntity
  8
LAY-10
  6
CONTINUOUS
 62
     7
100
AcDbLine
 10
552.1486249694647
 20
291.9999999999804
 30
0.0
 11
549.1877930964895
 21
237.6734805365542
 31
0.0
  0
LINE
  5
3F0
330
1F
100
AcDbEntity
  8
LAY-10
  6
CONTINUOUS
 62
     7
100
AcDbLine
 10
555.4928590371849
 20
291.9999999999804
 30
0.0
 11
552.1498364028978
 21
230.6734140664258
 31
0.0
  0
ARC
  5
3F1
330
1F
100
AcDbEntity
  8
LAY-10
  6
CONTINUOUS
 62
     7
100
AcDbCircle
 10
638.2468368420693
 20
417.7410629053356
 30
0.0
 40
0.684524253231996
100
AcDbArc
 50
11.86352374359934
 51
191.5323176086549
  0
ARC
  5
3F2
330
1F
100
AcDbEntity
  8
LAY-10
  6
CONTINUOUS
 62
     7
100
AcDbCircle
 10
631.1675113357799
 20
418.0222048334349
 30
0.0
 40
1.977795166538044
100
AcDbArc
 50
10.79995483109432
 51
189.8373323249974
  0
LINE
  5
3F3
330
1F
100
AcDbEntity
  8
LAY-10
  6
CONTINUOUS
 62
     7
100
AcDbLine
 10
615.0779532128124
 20
416.5626840340435
 30
0.0
 11
628.7934538002148
 21
303.9999999999804
 31
0.0
  0
LINE
  5
3F4
330
1F
100
AcDbEntity
  8
LAY-10
  6
CONTINUOUS
 62
     7
100
AcDbLine
 10
617.6851216120756
 20
419.9687387826632
 30
0.0
 11
631.8156420287071
 21
303.9999999999804
 31
0.0
  0
LINE
  5
3F5
330
1F
100
AcDbEntity
  8
LAY-10
  6
CONTINUOUS
 62
     7
100
AcDbLine
 10
621.155049420647
 20
417.3838300122907
 30
0.0
 11
637.9859871175447
 21
303.9999999999804
 31
0.0
  0
LINE
  5
3F6
330
1F
100
AcDbEntity
  8
LAY-10
  6
CONTINUOUS
 62
     7
100
AcDbLine
 10
630.8515016590625
 20
419.9745909645583
 30
0.0
 11
650.9616210360375
 21
303.9999999999804
 31
0.0
  0
LINE
  5
3F7
330
1F
100
AcDbEntity
  8
LAY-10
  6
CONTINUOUS
 62
     7
100
AcDbLine
 10
629.2187961156599
 20
417.6842955087895
 30
0.0
 11
648.9317757860747
 21
303.9999999999804
 31
0.0
  0
LINE
  5
3F8
330
1F
100
AcDbEntity
  8
LAY-10
  6
CONTINUOUS
 62
     7
100
AcDbLine
 10
654.9317757865349
 20
303.9999999999804
 30
0.0
 11
633.1102746045929
 21
418.392805160152
 31
0.0
  0
LINE
  5
3F9
330
1F
100
AcDbEntity
  8
LAY-10
  6
CONTINUOUS
 62
     7
100
AcDbLine
 10
638.9167397001918
 20
417.8817882191297
 30
0.0
 11
662.8396864204349
 21
303.9999999999804
 31
0.0
  0
LINE
  5
3FA
330
1F
100
AcDbEntity
  8
LAY-10
  6
CONTINUOUS
 62
     7
100
AcDbLine
 10
660.7559082878449
 20
303.9999999999905
 30
0.0
 11
637.5761316990727
 21
417.6042123868101
 31
0.0
  0
LINE
  5
3FB
330
1F
100
AcDbEntity
  8
LAY-10
  6
CONTINUOUS
 62
     7
100
AcDbLine
 10
515.4029681448548
 20
303.9999999999804
 30
0.0
 11
533.7977588499127
 21
417.359940240279
 31
0.0
  0
LINE
  5
3FC
330
1F
100
AcDbEntity
  8
LAY-10
  6
CONTINUOUS
 62
     7
100
AcDbLine
 10
531.1820164670709
 20
419.9697922746309
 30
0.0
 11
512.3637279916244
 21
303.9999999999804
 31
0.0
  0
LINE
  5
3FD
330
1F
100
AcDbEntity
  8
LAY-10
  6
CONTINUOUS
 62
     7
100
AcDbLine
 10
529.3128423623904
 20
418.132281505983
 30
0.0
 11
508.5200509092748
 21
303.9999999999804
 31
0.0
  0
LINE
  5
3FE
330
1F
100
AcDbEntity
  8
LAY-10
  6
CONTINUOUS
 62
     7
100
AcDbLine
 10
523.9219440814733
 20
417.7939251853827
 30
0.0
 11
501.3234433342246
 21
303.9999999999804
 31
0.0
  0
LINE
  5
3FF
330
1F
100
AcDbEntity
  8
LAY-10
  6
CONTINUOUS
 62
     7
100
AcDbLine
 10
498.2176147930846
 20
303.9999999999804
 30
0.0
 11
521.9228611352315
 21
418.1998992989811
 31
0.0
  0
ARC
  5
400
330
1F
100
AcDbEntity
  8
LAY-10
  6
CONTINUOUS
 62
     7
100
AcDbCircle
 10
522.921526777871
 20
417.9925995096187
 30
0.0
 40
1.01995405213075
100
AcDbArc
 50
348.7676884059574
 51
168.2732620131566
  0
LINE
  5
401
330
1F
100
AcDbEntity
  8
LAY-10
  6
CONTINUOUS
 62
     7
100
AcDbLine
 10
602.7699211706747
 20
303.9999999999804
 30
0.0
 11
614.0462326205145
 21
303.9999999999804
 31
0.0
  0
LINE
  5
402
330
1F
100
AcDbEntity
  8
LAY-10
  6
CONTINUOUS
 62
     7
100
AcDbLine
 10
579.9999999999948
 20
303.9999999999804
 30
0.0
 11
585.9999999998947
 21
303.9999999999804
 31
0.0
  0
LINE
  5
403
330
1F
100
AcDbEntity
  8
LAY-10
  6
CONTINUOUS
 62
     7
100
AcDbLine
 10
552.7070230958846
 20
303.9999999999804
 30
0.0
 11
564.2981330111345
 21
303.9999999999804
 31
0.0
  0
LINE
  5
404
330
1F
100
AcDbEntity
  8
LAY-10
  6
CONTINUOUS
 62
     7
100
AcDbLine
 10
527.4440238169246
 20
303.9999999999804
 30
0.0
 11
537.2738483478845
 21
303.9999999999804
 31
0.0
  0
LINE
  5
405
330
1F
100
AcDbEntity
  8
LAY-10
  6
CONTINUOUS
 62
     7
100
AcDbLine
 10
566.6424926669208
 20
419.4275481741031
 30
0.0
 11
562.2995489824536
 21
304.0752454669678
 31
0.0
  0
LINE
  5
406
330
1F
100
AcDbEntity
  8
LAY-10
  6
CONTINUOUS
 62
     7
100
AcDbLine
 10
598.3546733530764
 20
419.4426301103153
 30
0.0
 11
604.7730098820005
 21
303.9999999999804
 31
0.0
  0
LINE
  5
407
330
1F
100
AcDbEntity
  8
LAY-10
  6
CONTINUOUS
 62
     7
100
AcDbLine
 10
547.5577271166469
 20
419.5839673335961
 30
0.0
 11
535.2625646886133
 21
303.9999999999804
 31
0.0
  0
LINE
  5
408
330
1F
100
AcDbEntity
  8
LAY-10
  6
CONTINUOUS
 62
     7
100
AcDbLine
 10
604.1182360586924
 20
416.5360725774904
 30
0.0
 11
614.0462326205145
 21
303.9999999999804
 31
0.0
  0
LINE
  5
409
330
1F
100
AcDbEntity
  8
LAY-10
  6
CONTINUOUS
 62
     7
100
AcDbLine
 10
596.5434581118946
 20
415.9915212533806
 30
0.0
 11
602.7699211706747
 21
303.9999999999804
 31
0.0
  0
ARC
  5
40A
330
1F
100
AcDbEntity
  8
LAY-10
  6
CONTINUOUS
 62
     7
100
AcDbCircle
 10
618.1218628937679
 20
416.9335773311886
 30
0.0
 40
3.066422668787254
100
AcDbArc
 50
8.443450717967098
 51
186.947111291992
  0
ARC
  5
40B
330
1F
100
AcDbEntity
  8
LAY-10
  6
CONTINUOUS
 62
     7
100
AcDbCircle
 10
600.3352654608104
 20
416.2023367519141
 30
0.0
 40
3.797663248067239
100
AcDbArc
 50
5.041614002829415
 51
183.1822333323197
  0
ARC
  5
40C
330
1F
100
AcDbEntity
  8
LAY-10
  6
CONTINUOUS
 62
     7
100
AcDbCircle
 10
579.9999999999948
 20
415.9437650347322
 30
0.0
 40
4.05623496524288
100
AcDbArc
 50
0.9944577287971446
 51
90.00000000000001
  0
LINE
  5
40D
330
1F
100
AcDbEntity
  8
LAY-10
  6
CONTINUOUS
 62
     7
100
AcDbLine
 10
584.0556240097187
 20
416.0141637922006
 30
0.0
 11
585.9999999998947
 21
303.9999999999804
 31
0.0
  0
LINE
  5
40E
330
1F
100
AcDbEntity
  8
LAY-10
  6
CONTINUOUS
 62
     7
100
AcDbLine
 10
542.6982166901764
 20
417.1511997482803
 30
0.0
 11
527.4440238169246
 21
303.9999999999804
 31
0.0
  0
LINE
  5
40F
330
1F
100
AcDbEntity
  8
LAY-10
  6
CONTINUOUS
 62
     7
100
AcDbLine
 10
549.2264985088252
 20
416.3640890340794
 30
0.0
 11
537.2738483478845
 21
303.9999999999804
 31
0.0
  0
ARC
  5
410
330
1F
100
AcDbEntity
  8
LAY-10
  6
CONTINUOUS
 62
     7
100
AcDbCircle
 10
531.5515665179229
 20
417.7244273575557
 30
0.0
 40
2.275572642417274
100
AcDbArc
 50
350.7830156665013
 51
169.6750037653044
  0
ARC
  5
411
330
1F
100
AcDbEntity
  8
LAY-10
  6
CONTINUOUS
 62
     7
100
AcDbCircle
 10
545.9568417991347
 20
416.7118964441697
 30
0.0
 40
3.288103555807995
100
AcDbArc
 50
353.9280358653077
 51
172.3221047776531
  0
LINE
  5
412
330
1F
100
AcDbEntity
  8
LAY-10
  6
CONTINUOUS
 62
     7
100
AcDbLine
 10
552.7070230958846
 20
303.9999999999804
 30
0.0
 11
560.705705698065
 21
416.3677849771805
 31
0.0
  0
LINE
  5
413
330
1F
100
AcDbEntity
  8
LAY-10
  6
CONTINUOUS
 62
     7
100
AcDbLine
 10
568.5127213831872
 20
415.9430757109806
 30
0.0
 11
564.2981330111345
 21
303.9999999999804
 31
0.0
  0
ARC
  5
414
330
1F
100
AcDbEntity
  8
LAY-10
  6
CONTINUOUS
 62
     7
100
AcDbCircle
 10
564.6056635346333
 20
416.0901740507213
 30
0.0
 40
3.909825949266178
100
AcDbArc
 50
357.8438672960399
 51
175.9283789179613
  0
LINE
  5
415
330
1F
100
AcDbEntity
  8
LAY-10
  6
CONTINUOUS
 62
     7
100
AcDbLine
 10
660.7559082878449
 20
303.9999999999804
 30
0.0
 11
662.8396864204349
 21
303.9999999999804
 31
0.0
  0
LINE
  5
416
330
1F
100
AcDbEntity
  8
LAY-10
  6
CONTINUOUS
 62
     7
100
AcDbLine
 10
648.9317757860747
 20
303.9999999999804
 30
0.0
 11
654.9317757865349
 21
303.9999999999804
 31
0.0
  0
LINE
  5
417
330
1F
100
AcDbEntity
  8
LAY-10
  6
CONTINUOUS
 62
     7
100
AcDbLine
 10
628.7934538002148
 20
303.9999999999804
 30
0.0
 11
637.9859871175447
 21
303.9999999999804
 31
0.0
  0
LINE
  5
418
330
1F
100
AcDbEntity
  8
LAY-10
  6
CONTINUOUS
 62
     7
100
AcDbLine
 10
498.2176147930846
 20
303.9999999999804
 30
0.0
 11
501.3234433342246
 21
303.9999999999804
 31
0.0
  0
LINE
  5
419
330
1F
100
AcDbEntity
  8
LAY-10
  6
CONTINUOUS
 62
     7
100
AcDbLine
 10
508.5200509092748
 20
303.9999999999804
 30
0.0
 11
515.4029681448548
 21
303.9999999999804
 31
0.0
  0
LINE
  5
41A
330
1F
100
AcDbEntity
  8
LAY-10
  6
CONTINUOUS
 62
     7
100
AcDbLine
 10
442.5000000000294
 20
206.9999999999802
 30
0.0
 11
335.000000000019
 21
235.8045381863298
 31
0.0
  0
LINE
  5
41B
330
1F
100
AcDbEntity
  8
LAY-10
  6
CONTINUOUS
 62
     7
100
AcDbLine
 10
717.6153626181041
 20
207.0309113203332
 30
0.0
 11
825.0000000000213
 21
235.8045381863279
 31
0.0
  0
LINE
  5
41C
330
1F
100
AcDbEntity
  8
LAY-10
  6
CONTINUOUS
 62
     7
100
AcDbLine
 10
818.852423360728
 20
223.8045381863199
 30
0.0
 11
731.8599920749197
 21
200.4949864756669
 31
0.0
  0
LINE
  5
41D
330
1F
100
AcDbEntity
  8
LAY-10
  6
CONTINUOUS
 62
     7
100
AcDbLine
 10
712.026508519857
 20
199.2400556283243
 30
0.0
 11
712.7085837563503
 21
203.1082965166635
 31
0.0
  0
LINE
  5
41E
330
1F
100
AcDbEntity
  8
LAY-10
  6
CONTINUOUS
 62
     7
100
AcDbLine
 10
697.7334329564941
 20
187.9615460550616
 30
0.0
 11
695.0000000000458
 21
135.8045381863203
 31
0.0
  0
LINE
  5
41F
330
1F
100
AcDbEntity
  8
LAY-10
  6
CONTINUOUS
 62
     7
100
AcDbLine
 10
690.0000000000244
 20
173.8045381863199
 30
0.0
 11
690.0000000000244
 21
189.76100016133
 31
0.0
  0
LINE
  5
420
330
1F
100
AcDbEntity
  8
LAY-10
  6
CONTINUOUS
 62
     7
100
AcDbLine
 10
470.0000000000244
 20
173.8045381863199
 30
0.0
 11
470.0000000000244
 21
189.76100016133
 31
0.0
  0
LINE
  5
421
330
1F
100
AcDbEntity
  8
LAY-10
  6
CONTINUOUS
 62
     7
100
AcDbLine
 10
472.791207055366
 20
196.76100016133
 30
0.0
 11
472.000000000014
 21
205.8045381863193
 31
0.0
  0
LINE
  5
422
330
1F
100
AcDbEntity
  8
LAY-10
  6
CONTINUOUS
 62
     7
100
AcDbLine
 10
384.0288024585456
 20
216.4556530792408
 30
0.0
 11
426.6862674304213
 21
205.0256197888674
 31
0.0
  0
LINE
  5
423
330
1F
100
AcDbEntity
  8
LAY-10
  6
CONTINUOUS
 62
     7
100
AcDbLine
 10
463.0232886699754
 20
173.5224372667874
 30
0.0
 11
465.000000000004
 21
135.8045381863203
 31
0.0
  0
ARC
  5
424
330
1F
100
AcDbEntity
  8
LAY-10
  6
CONTINUOUS
 62
     7
100
AcDbCircle
 10
460.0274000657113
 20
173.3654293980643
 30
0.0
 40
3.0
100
AcDbArc
 50
2.99999999999909
 51
29.99999999999978
  0
LINE
  5
425
330
1F
100
AcDbEntity
  8
LAY-10
  6
CONTINUOUS
 62
     7
100
AcDbLine
 10
456.2720846191802
 20
186.5237874047746
 30
0.0
 11
456.0974049450944
 21
189.8568741425738
 31
0.0
  0
LINE
  5
426
330
1F
100
AcDbEntity
  8
LAY-10
  6
CONTINUOUS
 62
     7
100
AcDbLine
 10
456.6698970120905
 20
185.1807952735033
 30
0.0
 11
462.6254762770646
 21
174.8654293980643
 31
0.0
  0
ARC
  5
427
330
1F
100
AcDbEntity
  8
LAY-10
  6
CONTINUOUS
 62
     7
100
AcDbCircle
 10
459.2679732234438
 20
186.6807952735033
 30
0.0
 40
3.0
100
AcDbArc
 50
182.9999999999997
 51
209.9999999999997
  0
ARC
  5
428
330
1F
100
AcDbEntity
  8
LAY-10
  6
CONTINUOUS
 62
     7
100
AcDbCircle
 10
455.0987754103397
 20
189.8045381863309
 30
0.0
 40
1.0
100
AcDbArc
 50
2.99999999999909
 51
90.00000000000001
  0
LINE
  5
429
330
1F
100
AcDbEntity
  8
LAY-10
  6
CONTINUOUS
 62
     7
100
AcDbLine
 10
445.8856400236704
 20
190.8045381863309
 30
0.0
 11
455.0987754103397
 21
190.8045381863309
 31
0.0
  0
ARC
  5
42A
330
1F
100
AcDbEntity
  8
LAY-10
  6
CONTINUOUS
 62
     7
100
AcDbCircle
 10
425.9098102950805
 20
202.1278423100105
 30
0.0
 40
3.0
100
AcDbArc
 50
10.91471323335558
 51
74.99999999999885
  0
LINE
  5
42B
330
1F
100
AcDbEntity
  8
LAY-10
  6
CONTINUOUS
 62
     7
100
AcDbLine
 10
428.855540660108
 20
202.6958851046617
 30
0.0
 11
429.5602318143723
 21
199.0415299211624
 31
0.0
  0
ARC
  5
42C
330
1F
100
AcDbEntity
  8
LAY-10
  6
CONTINUOUS
 62
     7
100
AcDbCircle
 10
432.4767615199083
 20
199.7610001613385
 30
0.0
 40
3.0
100
AcDbArc
 50
193.8613438482961
 51
270.0
  0
LINE
  5
42D
330
1F
100
AcDbEntity
  8
LAY-10
  6
CONTINUOUS
 62
     7
100
AcDbLine
 10
432.4767615199049
 20
196.7610001613385
 30
0.0
 11
439.8007572808477
 21
196.7610001613385
 31
0.0
  0
ARC
  5
42E
330
1F
100
AcDbEntity
  8
LAY-10
  6
CONTINUOUS
 62
     7
100
AcDbCircle
 10
439.661818653787
 20
193.7610001613385
 30
0.0
 40
3.0
100
AcDbArc
 50
14.13474135956369
 51
90.00000000000001
  0
LINE
  5
42F
330
1F
100
AcDbEntity
  8
LAY-10
  6
CONTINUOUS
 62
     7
100
AcDbLine
 10
442.9290089839586
 20
193.0719290365107
 30
0.0
 11
442.5709910160921
 21
194.4936093111586
 31
0.0
  0
ARC
  5
430
330
1F
100
AcDbEntity
  8
LAY-10
  6
CONTINUOUS
 62
     7
100
AcDbCircle
 10
445.8381813462637
 20
193.8045381863309
 30
0.0
 40
3.0
100
AcDbArc
 50
194.1347413595638
 51
270.0
  0
LINE
  5
431
330
1F
100
AcDbEntity
  8
LAY-10
  6
CONTINUOUS
 62
     7
100
AcDbLine
 10
477.1331455450583
 20
196.7610001613309
 30
0.0
 11
477.5000000000394
 21
189.7610001613298
 31
0.0
  0
ARC
  5
432
330
1F
100
AcDbEntity
  8
LAY-10
  6
CONTINUOUS
 62
     7
100
AcDbCircle
 10
709.0720852608214
 20
199.76100016133
 30
0.0
 40
3.0
100
AcDbArc
 50
270.0
 51
350.0000000000014
  0
LINE
  5
433
330
1F
100
AcDbEntity
  8
LAY-10
  6
CONTINUOUS
 62
     7
100
AcDbLine
 10
472.7912070553665
 20
196.76100016133
 30
0.0
 11
709.0720852608214
 21
196.76100016133
 31
0.0
  0
LINE
  5
434
330
1F
100
AcDbEntity
  8
LAY-10
  6
CONTINUOUS
 62
     7
100
AcDbLine
 10
682.8668544549913
 20
196.761000161331
 30
0.0
 11
682.5000000000103
 21
189.7610001613298
 31
0.0
  0
LINE
  5
435
330
1F
100
AcDbEntity
  8
LAY-10
  6
CONTINUOUS
 62
     7
100
AcDbLine
 10
470.0000000000249
 20
189.76100016133
 30
0.0
 11
690.0000000000249
 21
189.76100016133
 31
0.0
  0
ARC
  5
436
330
1F
100
AcDbEntity
  8
LAY-10
  6
CONTINUOUS
 62
     7
100
AcDbCircle
 10
700.7293215607573
 20
187.80453818633
 30
0.0
 40
3.0
100
AcDbArc
 50
90.00000000000001
 51
177.0000000000009
  0
LINE
  5
437
330
1F
100
AcDbEntity
  8
LAY-10
  6
CONTINUOUS
 62
     7
100
AcDbLine
 10
714.1618186537847
 20
190.80453818633
 30
0.0
 11
700.7293215607573
 21
190.80453818633
 31
0.0
  0
LINE
  5
438
330
1F
100
AcDbEntity
  8
LAY-10
  6
CONTINUOUS
 62
     7
100
AcDbLine
 10
717.0709910160912
 20
193.0719290365107
 30
0.0
 11
717.4290089839577
 21
194.4936093111586
 31
0.0
  0
ARC
  5
439
330
1F
100
AcDbEntity
  8
LAY-10
  6
CONTINUOUS
 62
     7
100
AcDbCircle
 10
714.1618186537861
 20
193.8045381863309
 30
0.0
 40
3.0
100
AcDbArc
 50
270.0
 51
345.8652586404363
  0
ARC
  5
43A
330
1F
100
AcDbEntity
  8
LAY-10
  6
CONTINUOUS
 62
     7
100
AcDbCircle
 10
720.3381813462628
 20
193.7610001613385
 30
0.0
 40
3.0
100
AcDbArc
 50
90.00000000000001
 51
165.8652586404363
  0
LINE
  5
43B
330
1F
100
AcDbEntity
  8
LAY-10
  6
CONTINUOUS
 62
     7
100
AcDbLine
 10
727.5232384801415
 20
196.7610001613385
 30
0.0
 11
720.3381813462628
 21
196.7610001613385
 31
0.0
  0
ARC
  5
43C
330
1F
100
AcDbEntity
  8
LAY-10
  6
CONTINUOUS
 62
     7
100
AcDbCircle
 10
727.5232384801415
 20
199.7610001613385
 30
0.0
 40
3.0
100
AcDbArc
 50
270.0
 51
346.1386561517039
  0
ARC
  5
43D
330
1F
100
AcDbEntity
  8
LAY-10
  6
CONTINUOUS
 62
     7
100
AcDbCircle
 10
732.377630165145
 20
198.5631348230938
 30
0.0
 40
2.0
100
AcDbArc
 50
105.0000000000012
 51
164.5451461722838
  0
LINE
  5
43E
330
1F
100
AcDbEntity
  8
LAY-10
  6
CONTINUOUS
 62
     7
100
AcDbLine
 10
685.1120118379257
 20
173.8045381863201
 30
0.0
 11
686.2682618379257
 21
136.8045381863203
 31
0.0
  0
LINE
  5
43F
330
1F
100
AcDbEntity
  8
LAY-10
  6
CONTINUOUS
 62
     7
100
AcDbLine
 10
474.8879881621241
 20
173.80453818632
 30
0.0
 11
473.7317381621241
 21
136.8045381863203
 31
0.0
  0
LINE
  5
440
330
1F
100
AcDbEntity
  8
LAY-10
  6
CONTINUOUS
 62
     7
100
AcDbLine
 10
470.0000000000249
 20
173.80453818632
 30
0.0
 11
690.0000000000249
 21
173.8045381863201
 31
0.0
  0
LINE
  5
441
330
1F
100
AcDbEntity
  8
LAY-10
  6
CONTINUOUS
 62
     7
100
AcDbLine
 10
695.0000000000449
 20
135.8045381863203
 30
0.0
 11
465.0000000000049
 21
135.8045381863203
 31
0.0
  0
LINE
  5
442
330
1F
100
AcDbEntity
  8
LAY-10
  6
CONTINUOUS
 62
     7
100
AcDbLine
 10
687.3000000000246
 20
135.8045381863203
 30
0.0
 11
686.2682618379248
 21
136.8045381863203
 31
0.0
  0
LINE
  5
443
330
1F
100
AcDbEntity
  8
LAY-10
  6
CONTINUOUS
 62
     7
100
AcDbLine
 10
472.7000000000252
 20
135.8045381863203
 30
0.0
 11
473.731738162125
 21
136.8045381863203
 31
0.0
  0
LINE
  5
444
330
1F
100
AcDbEntity
  8
LAY-10
  6
CONTINUOUS
 62
     7
100
AcDbLine
 10
686.2682618379248
 20
136.8045381863203
 30
0.0
 11
473.731738162125
 21
136.8045381863203
 31
0.0
  0
ARC
  5
445
330
1F
100
AcDbEntity
  8
LAY-10
  6
CONTINUOUS
 62
     7
100
AcDbCircle
 10
460.1383885339363
 20
251.9999999999802
 30
0.0
 40
20.0
100
AcDbArc
 50
290.0646707835143
 51
350.0000000000028
  0
LINE
  5
446
330
1F
100
AcDbEntity
  8
LAY-10
  6
CONTINUOUS
 62
     7
100
AcDbLine
 10
479.8345435941809
 20
248.5270364466426
 30
0.0
 11
508.4252220470179
 21
410.6728313667955
 31
0.0
  0
LINE
  5
447
330
1F
100
AcDbEntity
  8
LAY-10
  6
CONTINUOUS
 62
     7
100
AcDbLine
 10
717.5000000000244
 20
206.9999999999798
 30
0.0
 11
467.0000000000244
 21
206.9999999999802
 31
0.0
  0
LINE
  5
448
330
1F
100
AcDbEntity
  8
LAY-10
  6
CONTINUOUS
 62
     7
100
AcDbLine
 10
744.0571170577567
 20
235.8045381863298
 30
0.0
 11
825.000000000029
 21
235.80453818633
 31
0.0
  0
LINE
  5
449
330
1F
100
AcDbEntity
  8
LAY-10
  6
CONTINUOUS
 62
     7
100
AcDbLine
 10
741.9000000000459
 20
235.8045381863298
 30
0.0
 11
743.1000000000457
 21
235.8045381863298
 31
0.0
  0
LINE
  5
44A
330
1F
100
AcDbEntity
  8
LAY-10
  6
CONTINUOUS
 62
     7
100
AcDbLine
 10
688.126748167267
 20
235.8045381863298
 30
0.0
 11
740.9428829423344
 21
235.8045381863298
 31
0.0
  0
LINE
  5
44B
330
1F
100
AcDbEntity
  8
LAY-10
  6
CONTINUOUS
 62
     7
100
AcDbLine
 10
467.0000000000247
 20
235.8045381863298
 30
0.0
 11
471.8732518327816
 21
235.8045381863298
 31
0.0
  0
LINE
  5
44C
330
1F
100
AcDbEntity
  8
LAY-10
  6
CONTINUOUS
 62
     7
100
AcDbLine
 10
335.0000000000226
 20
235.8045381863298
 30
0.0
 11
457.0000000000242
 21
235.8045381863298
 31
0.0
  0
LINE
  5
44D
330
1F
100
AcDbEntity
  8
LAY-10
  6
CONTINUOUS
 62
     7
100
AcDbLine
 10
463.0000000000376
 20
245.8045381863253
 30
0.0
 11
463.0000000000376
 21
242.8045381863253
 31
0.0
  0
LINE
  5
44E
330
1F
100
AcDbEntity
  8
LAY-10
  6
CONTINUOUS
 62
     7
100
AcDbLine
 10
461.0000000000376
 20
245.8045381863253
 30
0.0
 11
461.0000000000376
 21
242.8045381863253
 31
0.0
  0
LINE
  5
44F
330
1F
100
AcDbEntity
  8
LAY-10
  6
CONTINUOUS
 62
     7
100
AcDbLine
 10
461.0000000000376
 20
242.8045381863253
 30
0.0
 11
463.0000000000376
 21
242.8045381863253
 31
0.0
  0
LINE
  5
450
330
1F
100
AcDbEntity
  8
LAY-10
  6
CONTINUOUS
 62
     7
100
AcDbLine
 10
463.0000000000376
 20
244.8045381863257
 30
0.0
 11
467.0000000000247
 21
244.8045381863257
 31
0.0
  0
LINE
  5
451
330
1F
100
AcDbEntity
  8
LAY-10
  6
CONTINUOUS
 62
     7
100
AcDbLine
 10
457.0000000000242
 20
244.8045381863257
 30
0.0
 11
461.0000000000369
 21
244.8045381863257
 31
0.0
  0
LINE
  5
452
330
1F
100
AcDbEntity
  8
LAY-10
  6
CONTINUOUS
 62
     7
100
AcDbLine
 10
458.0000000000247
 20
245.8045381863302
 30
0.0
 11
457.0000000000249
 21
244.8045381863303
 31
0.0
  0
LINE
  5
453
330
1F
100
AcDbEntity
  8
LAY-10
  6
CONTINUOUS
 62
     7
100
AcDbLine
 10
466.0000000000249
 20
245.8045381863302
 30
0.0
 11
467.0000000000247
 21
244.8045381863303
 31
0.0
  0
LINE
  5
454
330
1F
100
AcDbEntity
  8
LAY-10
  6
CONTINUOUS
 62
     7
100
AcDbLine
 10
467.0000000000247
 20
223.3999999999752
 30
0.0
 11
467.0000000000247
 21
244.8045381863303
 31
0.0
  0
LINE
  5
455
330
1F
100
AcDbEntity
  8
LAY-10
  6
CONTINUOUS
 62
     7
100
AcDbLine
 10
463.0000000000376
 20
245.8045381863302
 30
0.0
 11
466.0000000000242
 21
245.8045381863302
 31
0.0
  0
LINE
  5
456
330
1F
100
AcDbEntity
  8
LAY-10
  6
CONTINUOUS
 62
     7
100
AcDbLine
 10
458.0000000000247
 20
245.8045381863302
 30
0.0
 11
461.0000000000369
 21
245.8045381863302
 31
0.0
  0
LINE
  5
457
330
1F
100
AcDbEntity
  8
LAY-10
  6
CONTINUOUS
 62
     7
100
AcDbLine
 10
457.0000000000242
 20
223.3999999999752
 30
0.0
 11
457.0000000000242
 21
244.8045381863303
 31
0.0
  0
LINE
  5
458
330
1F
100
AcDbEntity
  8
LAY-10
  6
CONTINUOUS
 62
     7
100
AcDbLine
 10
467.0000000000244
 20
196.8045381863202
 30
0.0
 11
467.0000000000244
 21
214.9999999999798
 31
0.0
  0
LINE
  5
459
330
1F
100
AcDbEntity
  8
LAY-10
  6
CONTINUOUS
 62
     7
100
AcDbLine
 10
457.000000000024
 20
196.8045381863202
 30
0.0
 11
457.000000000024
 21
214.9999999999798
 31
0.0
  0
LINE
  5
45A
330
1F
100
AcDbEntity
  8
LAY-10
  6
CONTINUOUS
 62
     7
100
AcDbLine
 10
457.000000000024
 20
206.8660254037699
 30
0.0
 11
443.1106260898542
 21
206.8660254037699
 31
0.0
  0
LINE
  5
45B
330
1F
100
AcDbEntity
  8
LAY-10
  6
CONTINUOUS
 62
     7
100
AcDbLine
 10
443.1871688361244
 20
205.8045381863199
 30
0.0
 11
457.000000000024
 21
205.8045381863199
 31
0.0
  0
LINE
  5
45C
330
1F
100
AcDbEntity
  8
LAY-10
  6
CONTINUOUS
 62
     7
100
AcDbLine
 10
467.0000000000244
 20
205.8045381863199
 30
0.0
 11
472.0000000000144
 21
205.8045381863199
 31
0.0
  0
LINE
  5
45D
330
1F
100
AcDbEntity
  8
LAY-10
  6
CONTINUOUS
 62
     7
100
AcDbLine
 10
717.0000000000344
 20
206.8660254037699
 30
0.0
 11
467.0000000000244
 21
206.8660254037699
 31
0.0
  0
LINE
  5
45E
330
1F
100
AcDbEntity
  8
LAY-10
  6
CONTINUOUS
 62
     7
100
AcDbLine
 10
469.5000000000376
 20
223.3999999999753
 30
0.0
 11
454.5000000000376
 21
223.3999999999753
 31
0.0
  0
ARC
  5
45F
330
1F
100
AcDbEntity
  8
LAY-10
  6
CONTINUOUS
 62
     7
100
AcDbCircle
 10
454.5000000000376
 20
219.5559653679404
 30
0.0
 40
3.84403463203463
100
AcDbArc
 50
49.43137502659217
 51
130.5686249734102
  0
ARC
  5
460
330
1F
100
AcDbEntity
  8
LAY-10
  6
CONTINUOUS
 62
     7
100
AcDbCircle
 10
462.0000000000376
 20
209.4098614718366
 30
0.0
 40
13.99013852813853
100
AcDbArc
 50
69.05972439385741
 51
110.9402756061436
  0
ARC
  5
461
330
1F
100
AcDbEntity
  8
LAY-10
  6
CONTINUOUS
 62
     7
100
AcDbCircle
 10
469.5000000000376
 20
219.5559653679404
 30
0.0
 40
3.844034632034633
100
AcDbArc
 50
49.43137502659217
 51
130.5686249734078
  0
LINE
  5
462
330
1F
100
AcDbEntity
  8
LAY-10
  6
CONTINUOUS
 62
     7
100
AcDbLine
 10
452.0000000000376
 20
214.9999999999752
 30
0.0
 11
452.0000000000376
 21
222.4759999999749
 31
0.0
  0
LINE
  5
463
330
1F
100
AcDbEntity
  8
LAY-10
  6
CONTINUOUS
 62
     7
100
AcDbLine
 10
457.0000000000376
 20
214.9999999999752
 30
0.0
 11
457.0000000000376
 21
222.4759999999749
 31
0.0
  0
LINE
  5
464
330
1F
100
AcDbEntity
  8
LAY-10
  6
CONTINUOUS
 62
     7
100
AcDbLine
 10
467.0000000000376
 20
214.9999999999752
 30
0.0
 11
467.0000000000376
 21
222.4759999999749
 31
0.0
  0
LINE
  5
465
330
1F
100
AcDbEntity
  8
LAY-10
  6
CONTINUOUS
 62
     7
100
AcDbLine
 10
472.0000000000376
 20
214.9999999999752
 30
0.0
 11
472.0000000000376
 21
222.4759999999749
 31
0.0
  0
LINE
  5
466
330
1F
100
AcDbEntity
  8
LAY-10
  6
CONTINUOUS
 62
     7
100
AcDbLine
 10
716.7100850144942
 20
212.9999999999802
 30
0.0
 11
726.6839484994229
 21
215.6724886661857
 31
0.0
  0
LINE
  5
467
330
1F
100
AcDbEntity
  8
LAY-10
  6
CONTINUOUS
 62
     7
100
AcDbLine
 10
726.6839484993983
 20
215.6724886661816
 30
0.0
 11
727.5000000000163
 21
224.9999999999907
 31
0.0
  0
ARC
  5
468
330
1F
100
AcDbEntity
  8
LAY-10
  6
CONTINUOUS
 62
     7
100
AcDbCircle
 10
393.3370036296295
 20
223.2790137161539
 30
0.0
 40
3.000000000000002
100
AcDbArc
 50
184.9999999999999
 51
254.9999999999988
  0
LINE
  5
469
330
1F
100
AcDbEntity
  8
LAY-10
  6
CONTINUOUS
 62
     7
100
AcDbLine
 10
390.3484195353543
 20
223.017546487911
 30
0.0
 11
390.0000000000294
 21
226.9999999999802
 31
0.0
  0
ARC
  5
46A
330
1F
100
AcDbEntity
  8
LAY-10
  6
CONTINUOUS
 62
     7
100
AcDbCircle
 10
766.6629963704194
 20
223.2790137161539
 30
0.0
 40
3.000000000000002
100
AcDbArc
 50
284.9999999999993
 51
355.0000000000003
  0
LINE
  5
46B
330
1F
100
AcDbEntity
  8
LAY-10
  6
CONTINUOUS
 62
     7
100
AcDbLine
 10
769.6515804646946
 20
223.017546487911
 30
0.0
 11
770.0000000000199
 21
226.9999999999802
 31
0.0
  0
LINE
  5
46C
330
1F
100
AcDbEntity
  8
LAY-10
  6
CONTINUOUS
 62
     7
100
AcDbLine
 10
473.1917535926244
 20
212.9999999999798
 30
0.0
 11
473.9420381157746
 21
212.9999999999798
 31
0.0
  0
ARC
  5
46D
330
1F
100
AcDbEntity
  8
LAY-10
  6
CONTINUOUS
 62
     7
100
AcDbCircle
 10
473.1917535926226
 20
213.9999999999798
 30
0.0
 40
1.0
100
AcDbArc
 50
189.9999999999987
 51
270.0000000000002
  0
LINE
  5
46E
330
1F
100
AcDbEntity
  8
LAY-10
  6
CONTINUOUS
 62
     7
100
AcDbLine
 10
472.0000000000281
 20
214.9999999999802
 30
0.0
 11
472.2069458396103
 21
213.8263518223127
 31
0.0
  0
LINE
  5
46F
330
1F
100
AcDbEntity
  8
LAY-10
  6
CONTINUOUS
 62
     7
100
AcDbLine
 10
390.0000000000244
 20
226.9999999999798
 30
0.0
 11
396.8875793553447
 21
226.9999999999798
 31
0.0
  0
LINE
  5
470
330
1F
100
AcDbEntity
  8
LAY-10
  6
CONTINUOUS
 62
     7
100
AcDbLine
 10
435.8258133704179
 20
214.9999999999798
 30
0.0
 11
472.0000000000244
 21
214.9999999999798
 31
0.0
  0
LINE
  5
471
330
1F
100
AcDbEntity
  8
LAY-10
  6
CONTINUOUS
 62
     7
100
AcDbLine
 10
473.9420381157778
 20
212.9999999999798
 30
0.0
 11
716.7100850144924
 21
212.9999999999798
 31
0.0
  0
LINE
  5
472
330
1F
100
AcDbEntity
  8
LAY-10
  6
CONTINUOUS
 62
     7
100
AcDbLine
 10
470.0000000000244
 20
214.9999999999798
 30
0.0
 11
469.0000000000244
 21
206.9999999999798
 31
0.0
  0
LINE
  5
473
330
1F
100
AcDbEntity
  8
LAY-10
  6
CONTINUOUS
 62
     7
100
AcDbLine
 10
454.0000000000244
 20
214.9999999999798
 30
0.0
 11
455.0000000000244
 21
206.9999999999798
 31
0.0
  0
LINE
  5
474
330
1F
100
AcDbEntity
  8
LAY-10
  6
CONTINUOUS
 62
     7
100
AcDbLine
 10
473.9420381157778
 20
212.9999999999807
 30
0.0
 11
475.000000000029
 21
206.9999999999793
 31
0.0
  0
LINE
  5
475
330
1F
100
AcDbEntity
  8
LAY-10
  6
CONTINUOUS
 62
     7
100
AcDbLine
 10
686.0579618842711
 20
212.9999999999807
 30
0.0
 11
685.0000000000203
 21
206.9999999999793
 31
0.0
  0
LINE
  5
476
330
1F
100
AcDbEntity
  8
LAY-10
  6
CONTINUOUS
 62
     7
100
AcDbLine
 10
756.7126020282275
 20
224.9999999999898
 30
0.0
 11
757.4999999999603
 21
233.9999999999857
 31
0.0
  0
LINE
  5
477
330
1F
100
AcDbEntity
  8
LAY-10
  6
CONTINUOUS
 62
     7
100
AcDbLine
 10
770.0000000000244
 20
226.9999999999798
 30
0.0
 11
763.1124206447038
 21
226.9999999999798
 31
0.0
  0
LINE
  5
478
330
1F
100
AcDbEntity
  8
LAY-10
  6
CONTINUOUS
 62
     7
100
AcDbLine
 10
763.1124206447038
 20
226.9999999999798
 30
0.0
 11
762.5000000000226
 21
233.9999999999798
 31
0.0
  0
LINE
  5
479
330
1F
100
AcDbEntity
  8
LAY-10
  6
CONTINUOUS
 62
     7
100
AcDbLine
 10
430.7560383495264
 20
216.3584421226358
 30
0.0
 11
430.0000000000549
 21
224.9999999999898
 31
0.0
  0
LINE
  5
47A
330
1F
100
AcDbEntity
  8
LAY-10
  6
CONTINUOUS
 62
     7
100
AcDbLine
 10
435.8258133704147
 20
214.9999999999811
 30
0.0
 11
430.7560383495237
 21
216.3584421226362
 31
0.0
  0
LINE
  5
47B
330
1F
100
AcDbEntity
  8
LAY-10
  6
CONTINUOUS
 62
     7
100
AcDbLine
 10
396.8875793553451
 20
226.9999999999798
 30
0.0
 11
397.5000000000267
 21
233.9999999999798
 31
0.0
  0
LINE
  5
47C
330
1F
100
AcDbEntity
  8
LAY-10
  6
CONTINUOUS
 62
     7
100
AcDbLine
 10
403.2873979718219
 20
224.9999999999898
 30
0.0
 11
402.5000000000886
 21
233.9999999999857
 31
0.0
  0
LINE
  5
47D
330
1F
100
AcDbEntity
  8
LAY-10
  6
CONTINUOUS
 62
     7
100
AcDbLine
 10
590.135061655661
 20
223.6878827995899
 30
0.0
 11
727.3852046197638
 21
223.6878827995899
 31
0.0
  0
ARC
  5
47E
330
1F
100
AcDbEntity
  8
LAY-10
  6
CONTINUOUS
 62
     7
100
AcDbCircle
 10
564.8429524279431
 20
217.6724886661898
 30
0.0
 40
2.0
100
AcDbArc
 50
270.0000000000002
 51
355.2590134403877
  0
ARC
  5
47F
330
1F
100
AcDbEntity
  8
LAY-10
  6
CONTINUOUS
 62
     7
100
AcDbCircle
 10
592.6024075471073
 20
217.6724886661898
 30
0.0
 40
2.0
100
AcDbArc
 50
184.3868383396693
 51
270.0000000000002
  0
LINE
  5
480
330
1F
100
AcDbEntity
  8
LAY-10
  6
CONTINUOUS
 62
     7
100
AcDbLine
 10
566.5500000000247
 20
215.6724886661898
 30
0.0
 11
590.6200000000244
 21
215.6724886661898
 31
0.0
  0
LINE
  5
481
330
1F
100
AcDbEntity
  8
LAY-10
  6
CONTINUOUS
 62
     7
100
AcDbLine
 10
590.0344029307744
 20
224.9999999999798
 30
0.0
 11
590.60826684835
 21
217.5195086885462
 31
0.0
  0
LINE
  5
482
330
1F
100
AcDbEntity
  8
LAY-10
  6
CONTINUOUS
 62
     7
100
AcDbLine
 10
567.4578176016294
 20
225.0034984053711
 30
0.0
 11
566.8361094620918
 21
217.5071858010463
 31
0.0
  0
LINE
  5
483
330
1F
100
AcDbEntity
  8
LAY-10
  6
CONTINUOUS
 62
     7
100
AcDbLine
 10
457.000000000024
 20
206.9999999999802
 30
0.0
 11
442.5000000000244
 21
206.9999999999802
 31
0.0
  0
LINE
  5
484
330
1F
100
AcDbEntity
  8
LAY-10
  6
CONTINUOUS
 62
     7
100
AcDbLine
 10
430.1147953803073
 20
223.6878827995899
 30
0.0
 11
457.0000000000244
 21
223.6878827995899
 31
0.0
  0
LINE
  5
485
330
1F
100
AcDbEntity
  8
LAY-10
  6
CONTINUOUS
 62
     7
100
AcDbLine
 10
467.0000000000249
 20
223.6878827995899
 30
0.0
 11
567.3487067662372
 21
223.6878827995899
 31
0.0
  0
LINE
  5
486
330
1F
100
AcDbEntity
  8
LAY-10
  6
CONTINUOUS
 62
     7
100
AcDbLine
 10
565.1000000000245
 20
439.9999999999801
 30
0.0
 11
594.9000000000246
 21
439.9999999999801
 31
0.0
  0
ARC
  5
487
330
1F
100
AcDbEntity
  8
LAY-10
  6
CONTINUOUS
 62
     7
100
AcDbCircle
 10
528.1213771072624
 20
407.1998678134579
 30
0.0
 40
20.0
100
AcDbArc
 50
113.5198232216924
 51
170.0000000000028
  0
ARC
  5
488
330
1F
100
AcDbEntity
  8
LAY-10
  6
CONTINUOUS
 62
     7
100
AcDbCircle
 10
528.1213771072624
 20
407.1998678134579
 30
0.0
 40
13.00000000000001
100
AcDbArc
 50
113.5198232216925
 51
170.0000000002157
  0
LINE
  5
489
330
1F
100
AcDbEntity
  8
LAY-10
  6
CONTINUOUS
 62
     7
100
AcDbLine
 10
515.3188763180955
 20
409.4572941230819
 30
0.0
 11
486.7281978652662
 21
247.3114992029743
 31
0.0
  0
LINE
  5
48A
330
1F
100
AcDbEntity
  8
LAY-10
  6
CONTINUOUS
 62
     7
100
AcDbLine
 10
644.6811236819535
 20
409.4572941230819
 30
0.0
 11
673.2718021347827
 21
247.3114992029743
 31
0.0
  0
LINE
  5
48B
330
1F
100
AcDbEntity
  8
LAY-10
  6
CONTINUOUS
 62
     7
100
AcDbLine
 10
680.165456405868
 20
248.5270364466426
 30
0.0
 11
651.574777953031
 21
410.6728313667955
 31
0.0
  0
ARC
  5
48C
330
1F
100
AcDbEntity
  8
LAY-10
  6
CONTINUOUS
 62
     7
100
AcDbCircle
 10
699.8616114661125
 20
251.9999999999802
 30
0.0
 40
20.0
100
AcDbArc
 50
189.9999999999973
 51
270.0000000000002
  0
ARC
  5
48D
330
1F
100
AcDbEntity
  8
LAY-10
  6
CONTINUOUS
 62
     7
100
AcDbCircle
 10
699.8616114661125
 20
251.9999999999802
 30
0.0
 40
27.00000000000002
100
AcDbArc
 50
189.9999999999973
 51
270.0000000000002
  0
LINE
  5
48E
330
1F
100
AcDbEntity
  8
LAY-10
  6
CONTINUOUS
 62
     7
100
AcDbLine
 10
699.8616114661125
 20
231.9999999999802
 30
0.0
 11
755.0000000000344
 21
231.9999999999802
 31
0.0
  0
ARC
  5
48F
330
1F
100
AcDbEntity
  8
LAY-10
  6
CONTINUOUS
 62
     7
100
AcDbCircle
 10
631.8786228927866
 20
407.1998678134579
 30
0.0
 40
20.0
100
AcDbArc
 50
9.999999999997193
 51
66.48017677830748
  0
ARC
  5
490
330
1F
100
AcDbEntity
  8
LAY-10
  6
CONTINUOUS
 62
     7
100
AcDbCircle
 10
631.8786228927866
 20
407.1998678134579
 30
0.0
 40
13.00000000000001
100
AcDbArc
 50
9.999999999784341
 51
66.48017677830731
  0
ARC
  5
491
330
1F
100
AcDbEntity
  8
LAY-10
  6
CONTINUOUS
 62
     7
100
AcDbCircle
 10
580.0000000000246
 20
287.9999999999802
 30
0.0
 40
143.0
100
AcDbArc
 50
66.48017677830303
 51
113.5198232216924
  0
LINE
  5
492
330
1F
100
AcDbEntity
  8
LAY-10
  6
CONTINUOUS
 62
     7
100
AcDbLine
 10
526.4296368378663
 20
428.1078734071367
 30
0.0
 11
525.0000000000163
 21
419.9999999999792
 31
0.0
  0
LINE
  5
493
330
1F
100
AcDbEntity
  8
LAY-10
  6
CONTINUOUS
 62
     7
100
AcDbLine
 10
633.5703631621827
 20
428.1078734071367
 30
0.0
 11
635.0000000000327
 21
419.9999999999792
 31
0.0
  0
LINE
  5
494
330
1F
100
AcDbEntity
  8
LAY-10
  6
CONTINUOUS
 62
     7
100
AcDbLine
 10
753.7657111350962
 20
224.9999999999802
 30
0.0
 11
755.0000000000554
 21
231.9999999999802
 31
0.0
  0
LINE
  5
495
330
1F
100
AcDbEntity
  8
LAY-10
  6
CONTINUOUS
 62
     7
100
AcDbLine
 10
406.2342888649404
 20
224.9999999999707
 30
0.0
 11
404.9999999999812
 21
231.9999999999707
 31
0.0
  0
LINE
  5
496
330
1F
100
AcDbEntity
  8
LAY-10
  6
CONTINUOUS
 62
     7
100
AcDbLine
 10
428.765711134908
 20
225.0000000000007
 30
0.0
 11
429.9999999998671
 21
232.0000000000011
 31
0.0
  0
LINE
  5
497
330
1F
100
AcDbEntity
  8
LAY-10
  6
CONTINUOUS
 62
     7
100
AcDbLine
 10
732.7657111352563
 20
224.9999999999802
 30
0.0
 11
734.0000000002154
 21
231.9999999999802
 31
0.0
  0
LINE
  5
498
330
1F
100
AcDbEntity
  8
LAY-10
  6
CONTINUOUS
 62
     7
100
AcDbLine
 10
487.4999999999881
 20
291.9999999999797
 30
0.0
 11
494.6079862831879
 21
291.9999999999797
 31
0.0
  0
LINE
  5
499
330
1F
100
AcDbEntity
  8
LAY-10
  6
CONTINUOUS
 62
     7
100
AcDbLine
 10
565.1000000000245
 20
439.0575718062288
 30
0.0
 11
565.1000000000245
 21
439.9999999999801
 31
0.0
  0
ARC
  5
49A
330
1F
100
AcDbEntity
  8
LAY-10
  6
CONTINUOUS
 62
     7
100
AcDbCircle
 10
563.1000000000245
 20
439.0575718062288
 30
0.0
 40
2.0
100
AcDbArc
 50
276.3835846092567
 51
0.0
  0
LINE
  5
49B
330
1F
100
AcDbEntity
  8
LAY-10
  6
CONTINUOUS
 62
     7
100
AcDbLine
 10
594.9000000000246
 20
439.0575718062288
 30
0.0
 11
594.9000000000246
 21
439.9999999999801
 31
0.0
  0
ARC
  5
49C
330
1F
100
AcDbEntity
  8
LAY-10
  6
CONTINUOUS
 62
     7
100
AcDbCircle
 10
580.0000000000246
 20
287.9999999999802
 30
0.0
 40
150.0
100
AcDbArc
 50
66.48017677831459
 51
83.61641539074355
  0
ARC
  5
49D
330
1F
100
AcDbEntity
  8
LAY-10
  6
CONTINUOUS
 62
     7
100
AcDbCircle
 10
596.9000000000246
 20
439.0575718062288
 30
0.0
 40
2.0
100
AcDbArc
 50
180.0
 51
263.6164153907434
  0
ARC
  5
49E
330
1F
100
AcDbEntity
  8
LAY-10
  6
CONTINUOUS
 62
     7
100
AcDbCircle
 10
580.0000000000246
 20
287.9999999999802
 30
0.0
 40
150.0
100
AcDbArc
 50
96.38358460925821
 51
113.5198232216924
  0
LINE
  5
49F
330
1F
100
AcDbEntity
  8
LAY-10
  6
CONTINUOUS
 62
     7
100
AcDbLine
 10
720.0000000000545
 20
231.9999999999802
 30
0.0
 11
721.2342888649845
 21
224.9999999999802
 31
0.0
  0
LINE
  5
4A0
330
1F
100
AcDbEntity
  8
LAY-10
  6
CONTINUOUS
 62
     7
100
AcDbLine
 10
672.5000000000608
 20
291.9999999999797
 30
0.0
 11
665.392013716861
 21
291.9999999999797
 31
0.0
  0
LINE
  5
4A1
330
1F
100
AcDbEntity
  8
LAY-10
  6
CONTINUOUS
 62
     7
100
AcDbLine
 10
403.2873979718246
 20
224.9999999999898
 30
0.0
 11
457.0000000000244
 21
224.9999999999898
 31
0.0
  0
ARC
  5
4A2
330
1F
100
AcDbEntity
  8
LAY-10
  6
CONTINUOUS
 62
     7
100
AcDbCircle
 10
460.1383885339363
 20
251.9999999999802
 30
0.0
 40
27.00000000000002
100
AcDbArc
 50
284.7222623164593
 51
350.0000000000028
  0
LINE
  5
4A3
330
1F
100
AcDbEntity
  8
LAY-10
  6
CONTINUOUS
 62
     7
100
AcDbLine
 10
405.0000000000344
 20
231.9999999999802
 30
0.0
 11
457.0000000000244
 21
231.9999999999802
 31
0.0
  0
ARC
  5
4A4
330
1F
100
AcDbEntity
  8
LAY-10
  6
CONTINUOUS
 62
     7
100
AcDbCircle
 10
740.7500000000458
 20
231.8857492993814
 30
0.0
 40
3.500000000000002
100
AcDbArc
 50
128.6821874534945
 51
178.1293582694076
  0
ARC
  5
4A5
330
1F
100
AcDbEntity
  8
LAY-10
  6
CONTINUOUS
 62
     7
100
AcDbCircle
 10
744.2500000000458
 20
231.8857492993814
 30
0.0
 40
3.500000000000002
100
AcDbArc
 50
1.870641730603566
 51
51.31781254650088
  0
LINE
  5
4A6
330
1F
100
AcDbEntity
  8
LAY-10
  6
CONTINUOUS
 62
     7
100
AcDbLine
 10
747.7481347569459
 20
231.9999999999816
 30
0.0
 11
737.2518652431457
 21
231.9999999999816
 31
0.0
  0
LINE
  5
4A7
330
1F
100
AcDbEntity
  8
LAY-10
  6
CONTINUOUS
 62
     7
100
AcDbLine
 10
743.1000000000457
 20
235.9713634880816
 30
0.0
 11
743.1000000000457
 21
233.4999999999816
 31
0.0
  0
LINE
  5
4A8
330
1F
100
AcDbEntity
  8
LAY-10
  6
CONTINUOUS
 62
     7
100
AcDbLine
 10
743.1000000000457
 20
233.4999999999816
 30
0.0
 11
741.9000000000459
 21
233.4999999999816
 31
0.0
  0
LINE
  5
4A9
330
1F
100
AcDbEntity
  8
LAY-10
  6
CONTINUOUS
 62
     7
100
AcDbLine
 10
741.9000000000459
 20
235.9713634880816
 30
0.0
 11
741.9000000000459
 21
233.4999999999816
 31
0.0
  0
ARC
  5
4AA
330
1F
100
AcDbEntity
  8
LAY-10
  6
CONTINUOUS
 62
     7
100
AcDbCircle
 10
742.5000000000458
 20
229.6999999999814
 30
0.0
 40
6.300000000000002
100
AcDbArc
 50
51.31781254649636
 51
84.5349762000991
  0
ARC
  5
4AB
330
1F
100
AcDbEntity
  8
LAY-10
  6
CONTINUOUS
 62
     7
100
AcDbCircle
 10
742.5000000000458
 20
229.6999999999814
 30
0.0
 40
6.300000000000002
100
AcDbArc
 50
95.46502379991023
 51
128.6821874534941
  0
LINE
  5
4AC
330
1F
100
AcDbEntity
  8
LAY-10
  6
CONTINUOUS
 62
     7
100
AcDbLine
 10
740.0000000000458
 20
219.9999999999834
 30
0.0
 11
739.5000000000458
 21
220.4999999999834
 31
0.0
  0
LINE
  5
4AD
330
1F
100
AcDbEntity
  8
LAY-10
  6
CONTINUOUS
 62
     7
100
AcDbLine
 10
745.0000000000458
 20
219.9999999999834
 30
0.0
 11
745.5000000000458
 21
220.4999999999834
 31
0.0
  0
LINE
  5
4AE
330
1F
100
AcDbEntity
  8
LAY-10
  6
CONTINUOUS
 62
     7
100
AcDbLine
 10
740.0000000000458
 20
219.9999999999834
 30
0.0
 11
745.0000000000458
 21
219.9999999999834
 31
0.0
  0
LINE
  5
4AF
330
1F
100
AcDbEntity
  8
LAY-10
  6
CONTINUOUS
 62
     7
100
AcDbLine
 10
745.5000000000458
 20
231.9999999999816
 30
0.0
 11
745.5000000000458
 21
220.4999999999834
 31
0.0
  0
LINE
  5
4B0
330
1F
100
AcDbEntity
  8
LAY-10
  6
CONTINUOUS
 62
     7
100
AcDbLine
 10
745.5000000000458
 20
220.4999999999834
 30
0.0
 11
739.5000000000458
 21
220.4999999999834
 31
0.0
  0
LINE
  5
4B1
330
1F
100
AcDbEntity
  8
LAY-10
  6
CONTINUOUS
 62
     7
100
AcDbLine
 10
739.5000000000458
 20
231.9999999999816
 30
0.0
 11
739.5000000000458
 21
220.4999999999834
 31
0.0
  0
LINE
  5
4B2
330
1F
100
AcDbEntity
  8
LAY-10
  6
CONTINUOUS
 62
     7
100
AcDbLine
 10
740.0000000000244
 20
219.9999999999802
 30
0.0
 11
740.0000000000244
 21
212.9615242270604
 31
0.0
  0
LINE
  5
4B3
330
1F
100
AcDbEntity
  8
LAY-10
  6
CONTINUOUS
 62
     7
100
AcDbLine
 10
745.0000000000244
 20
219.9999999999802
 30
0.0
 11
745.0000000000244
 21
214.3686027918377
 31
0.0
  0
LINE
  5
4B4
330
1F
100
AcDbEntity
  8
LAY-10
  6
CONTINUOUS
 62
     7
100
AcDbLine
 10
467.0000000000249
 20
224.9999999999798
 30
0.0
 11
739.5000000000458
 21
224.9999999999798
 31
0.0
  0
LINE
  5
4B5
330
1F
100
AcDbEntity
  8
LAY-10
  6
CONTINUOUS
 62
     7
100
AcDbLine
 10
745.5000000000458
 20
224.9999999999798
 30
0.0
 11
756.7126020282248
 21
224.9999999999798
 31
0.0
  0
LINE
  5
4B6
330
1F
100
AcDbEntity
  8
LAY-10
  6
CONTINUOUS
 62
     7
100
AcDbLine
 10
397.5000000000244
 20
233.9999999999802
 30
0.0
 11
457.0000000000244
 21
233.9999999999802
 31
0.0
  0
LINE
  5
4B7
330
1F
100
AcDbEntity
  8
LAY-10
  6
CONTINUOUS
 62
     7
100
AcDbLine
 10
467.0000000000249
 20
233.9999999999802
 30
0.0
 11
468.8561864210182
 21
233.9999999999802
 31
0.0
  0
LINE
  5
4B8
330
1F
100
AcDbEntity
  8
LAY-10
  6
CONTINUOUS
 62
     7
100
AcDbLine
 10
691.1438135790307
 20
233.9999999999802
 30
0.0
 11
737.9607449068325
 21
233.9999999999802
 31
0.0
  0
LINE
  5
4B9
330
1F
100
AcDbEntity
  8
LAY-10
  6
CONTINUOUS
 62
     7
100
AcDbLine
 10
747.0392550932592
 20
233.9999999999802
 30
0.0
 11
762.5000000000645
 21
233.9999999999802
 31
0.0
  0
LINE
  5
4BA
330
1F
100
AcDbEntity
  8
LAY-10
  6
CONTINUOUS
 62
     7
100
AcDbLine
 10
376.5000000000181
 20
210.8045381863197
 30
0.0
 11
380.0000000000124
 21
210.8045381863197
 31
0.0
  0
LINE
  5
4BB
330
1F
100
AcDbEntity
  8
LAY-10
  6
CONTINUOUS
 62
     7
100
AcDbLine
 10
368.0000000000069
 20
210.8045381863197
 30
0.0
 11
371.5000000000263
 21
210.8045381863197
 31
0.0
  0
LINE
  5
4BC
330
1F
100
AcDbEntity
  8
LAY-10
  6
CONTINUOUS
 62
     7
100
AcDbLine
 10
369.5000000000149
 20
186.8045381863201
 30
0.0
 11
359.5000000000149
 21
186.8045381863201
 31
0.0
  0
ARC
  5
4BD
330
1F
100
AcDbEntity
  8
LAY-10
  6
CONTINUOUS
 62
     7
100
AcDbCircle
 10
369.5000000000149
 20
193.8045381863201
 30
0.0
 40
7.000000000000004
100
AcDbArc
 50
270.0
 51
0.0
  0
ARC
  5
4BE
330
1F
100
AcDbEntity
  8
LAY-10
  6
CONTINUOUS
 62
     7
100
AcDbCircle
 10
369.5000000000149
 20
193.8045381863201
 30
0.0
 40
2.0
100
AcDbArc
 50
270.0
 51
0.0
  0
LINE
  5
4BF
330
1F
100
AcDbEntity
  8
LAY-10
  6
CONTINUOUS
 62
     7
100
AcDbLine
 10
369.5000000000149
 20
191.8045381863201
 30
0.0
 11
359.5000000000149
 21
191.8045381863201
 31
0.0
  0
LINE
  5
4C0
330
1F
100
AcDbEntity
  8
LAY-10
  6
CONTINUOUS
 62
     7
100
AcDbLine
 10
359.5000000000149
 20
191.8045381863201
 30
0.0
 11
359.5000000000149
 21
186.8045381863201
 31
0.0
  0
LINE
  5
4C1
330
1F
100
AcDbEntity
  8
LAY-10
  6
CONTINUOUS
 62
     7
100
AcDbLine
 10
376.5000000000267
 20
214.8045381863219
 30
0.0
 11
377.0000000000249
 21
214.3045381863242
 31
0.0
  0
LINE
  5
4C2
330
1F
100
AcDbEntity
  8
LAY-10
  6
CONTINUOUS
 62
     7
100
AcDbLine
 10
377.0000000000249
 20
214.3045381863201
 30
0.0
 11
377.0000000000249
 21
210.8045381863201
 31
0.0
  0
LINE
  5
4C3
330
1F
100
AcDbEntity
  8
LAY-10
  6
CONTINUOUS
 62
     7
100
AcDbLine
 10
371.5000000000222
 20
214.8045381863219
 30
0.0
 11
371.0000000000244
 21
214.3045381863242
 31
0.0
  0
LINE
  5
4C4
330
1F
100
AcDbEntity
  8
LAY-10
  6
CONTINUOUS
 62
     7
100
AcDbLine
 10
371.0000000000249
 20
214.3045381863201
 30
0.0
 11
371.0000000000249
 21
210.8045381863201
 31
0.0
  0
LINE
  5
4C5
330
1F
100
AcDbEntity
  8
LAY-10
  6
CONTINUOUS
 62
     7
100
AcDbLine
 10
376.5000000000263
 20
210.8045381863201
 30
0.0
 11
376.5000000000263
 21
193.8045381863201
 31
0.0
  0
LINE
  5
4C6
330
1F
100
AcDbEntity
  8
LAY-10
  6
CONTINUOUS
 62
     7
100
AcDbLine
 10
371.5000000000263
 20
210.8045381863201
 30
0.0
 11
371.5000000000263
 21
193.8045381863201
 31
0.0
  0
LINE
  5
4C7
330
1F
100
AcDbEntity
  8
LAY-10
  6
CONTINUOUS
 62
     7
100
AcDbLine
 10
371.5000000000249
 20
214.8045381863201
 30
0.0
 11
376.5000000000249
 21
214.8045381863201
 31
0.0
  0
ARC
  5
4C8
330
1F
100
AcDbEntity
  8
LAY-10
  6
CONTINUOUS
 62
     7
100
AcDbCircle
 10
714.678199262375
 20
202.7610001613297
 30
0.0
 40
2.0
100
AcDbArc
 50
90.0000000000033
 51
170.0000000000014
  0
LINE
  5
4C9
330
1F
100
AcDbEntity
  8
LAY-10
  6
CONTINUOUS
 62
     7
100
AcDbLine
 10
715.7897276235407
 20
204.7610001613298
 30
0.0
 11
714.6781992623745
 21
204.7610001613297
 31
0.0
  0
LINE
  5
4CA
330
1F
100
AcDbEntity
  8
LAY-10
  6
CONTINUOUS
 62
     7
100
AcDbLine
 10
434.0990215215023
 20
208.6322876600195
 30
0.0
 11
434.8698209687008
 21
203.6093206677893
 31
0.0
  0
LINE
  5
4CB
330
1F
100
AcDbEntity
  8
LAY-10
  6
CONTINUOUS
 62
     7
100
AcDbLine
 10
439.7878582948846
 20
206.6284963308199
 30
0.0
 11
439.1630490405261
 21
203.5613871645895
 31
0.0
  0
LINE
  5
4CC
330
1F
100
AcDbEntity
  8
LAY-10
  6
CONTINUOUS
 62
     7
100
AcDbLine
 10
716.7745353765525
 20
205.5873519836606
 30
0.0
 11
716.8893739101994
 21
206.2386336717144
 31
0.0
  0
LINE
  5
4CD
330
1F
100
AcDbEntity
  8
LAY-10
  6
CONTINUOUS
 62
     7
100
AcDbLine
 10
725.9009784785466
 20
208.6322876600195
 30
0.0
 11
725.1301790313477
 21
203.6093206677862
 31
0.0
  0
LINE
  5
4CE
330
1F
100
AcDbEntity
  8
LAY-10
  6
CONTINUOUS
 62
     7
100
AcDbLine
 10
720.2121417051638
 20
206.6284963308218
 30
0.0
 11
720.836950959523
 21
203.561387164588
 31
0.0
  0
LINE
  5
4CF
330
1F
100
AcDbEntity
  8
LAY-10
  6
CONTINUOUS
 62
     7
100
AcDbLine
 10
713.0000000000244
 20
204.7610001613299
 30
0.0
 11
472.0000000000144
 21
204.7610001613299
 31
0.0
  0
LINE
  5
4D0
330
1F
100
AcDbEntity
  8
LAY-10
  6
CONTINUOUS
 62
     7
100
AcDbLine
 10
443.1871688361297
 20
205.8045381863199
 30
0.0
 11
443.1106260898499
 21
206.2386336717145
 31
0.0
  0
ARC
  5
4D1
330
1F
100
AcDbEntity
  8
LAY-10
  6
CONTINUOUS
 62
     7
100
AcDbCircle
 10
433.1105917914584
 20
208.4806081664635
 30
0.0
 40
1.0
100
AcDbArc
 50
8.724268224457383
 51
74.99999999999758
  0
ARC
  5
4D2
330
1F
100
AcDbEntity
  8
LAY-10
  6
CONTINUOUS
 62
     7
100
AcDbCircle
 10
435.8582506987458
 20
203.7610001613388
 30
0.0
 40
1.0
100
AcDbArc
 50
188.7242682244564
 51
270.0
  0
LINE
  5
4D3
330
1F
100
AcDbEntity
  8
LAY-10
  6
CONTINUOUS
 62
     7
100
AcDbLine
 10
435.8582506987458
 20
202.7610001613388
 30
0.0
 11
438.1831742263133
 21
202.7610001613388
 31
0.0
  0
ARC
  5
4D4
330
1F
100
AcDbEntity
  8
LAY-10
  6
CONTINUOUS
 62
     7
100
AcDbCircle
 10
438.1831742263133
 20
203.7610001613388
 30
0.0
 40
1.0
100
AcDbArc
 50
270.0
 51
348.4856709451961
  0
ARC
  5
4D5
330
1F
100
AcDbEntity
  8
LAY-10
  6
CONTINUOUS
 62
     7
100
AcDbCircle
 10
440.7677331090978
 20
206.428883334071
 30
0.0
 40
1.0
100
AcDbArc
 50
74.99999999999926
 51
168.4856709451891
  0
ARC
  5
4D6
330
1F
100
AcDbEntity
  8
LAY-10
  6
CONTINUOUS
 62
     7
100
AcDbCircle
 10
442.1258183368381
 20
206.0649854940453
 30
0.0
 40
1.0
100
AcDbArc
 50
10.00000000013087
 51
74.99999999999758
  0
LINE
  5
4D7
330
1F
100
AcDbEntity
  8
LAY-10
  6
CONTINUOUS
 62
     7
100
AcDbLine
 10
467.0000000000244
 20
196.8045381863201
 30
0.0
 11
467.0000000000244
 21
205.8045381863199
 31
0.0
  0
LINE
  5
4D8
330
1F
100
AcDbEntity
  8
LAY-10
  6
CONTINUOUS
 62
     7
100
AcDbLine
 10
457.000000000024
 20
196.8045381863202
 30
0.0
 11
457.000000000024
 21
205.8045381863199
 31
0.0
  0
ARC
  5
4D9
330
1F
100
AcDbEntity
  8
LAY-10
  6
CONTINUOUS
 62
     7
100
AcDbCircle
 10
726.8894082085907
 20
208.4806081664635
 30
0.0
 40
1.0
100
AcDbArc
 50
105.0000000000007
 51
171.2757317755431
  0
ARC
  5
4DA
330
1F
100
AcDbEntity
  8
LAY-10
  6
CONTINUOUS
 62
     7
100
AcDbCircle
 10
724.1417493013031
 20
203.7610001613388
 30
0.0
 40
1.0
100
AcDbArc
 50
270.0
 51
351.2757317755431
  0
LINE
  5
4DB
330
1F
100
AcDbEntity
  8
LAY-10
  6
CONTINUOUS
 62
     7
100
AcDbLine
 10
724.1417493013031
 20
202.7610001613388
 30
0.0
 11
721.8168257737356
 21
202.7610001613388
 31
0.0
  0
ARC
  5
4DC
330
1F
100
AcDbEntity
  8
LAY-10
  6
CONTINUOUS
 62
     7
100
AcDbCircle
 10
721.8168257737356
 20
203.7610001613388
 30
0.0
 40
1.0
100
AcDbArc
 50
191.5143290548041
 51
270.0
  0
ARC
  5
4DD
330
1F
100
AcDbEntity
  8
LAY-10
  6
CONTINUOUS
 62
     7
100
AcDbCircle
 10
719.2322668909513
 20
206.428883334071
 30
0.0
 40
1.0
100
AcDbArc
 50
11.51432905480701
 51
105.0000000000016
  0
ARC
  5
4DE
330
1F
100
AcDbEntity
  8
LAY-10
  6
CONTINUOUS
 62
     7
100
AcDbCircle
 10
717.8741816632108
 20
206.0649854940453
 30
0.0
 40
1.0
100
AcDbArc
 50
105.0000000000007
 51
169.9999999998692
  0
ARC
  5
4DF
330
1F
100
AcDbEntity
  8
LAY-10
  6
CONTINUOUS
 62
     7
100
AcDbCircle
 10
715.7897276235407
 20
205.7610001613298
 30
0.0
 40
1.0
100
AcDbArc
 50
270.0000000000049
 51
349.9999999998692
  0
ARC
  5
4E0
330
1F
100
AcDbEntity
  8
LAY-10
  6
CONTINUOUS
 62
     7
100
AcDbCircle
 10
383.2523453232333
 20
213.5578756003634
 30
0.0
 40
3.0
100
AcDbArc
 50
74.99999999999866
 51
174.9999999999991
  0
LINE
  5
4E1
330
1F
100
AcDbEntity
  8
LAY-10
  6
CONTINUOUS
 62
     7
100
AcDbLine
 10
380.2637612289581
 20
213.8193428286064
 30
0.0
 11
380.0000000000126
 21
210.8045381863184
 31
0.0
  0
LINE
  5
4E2
330
1F
100
AcDbEntity
  8
LAY-10
  6
CONTINUOUS
 62
     7
100
AcDbLine
 10
376.5000000000181
 20
218.3045381863157
 30
0.0
 11
376.5000000000181
 21
210.8045381863184
 31
0.0
  0
LINE
  5
4E3
330
1F
100
AcDbEntity
  8
LAY-10
  6
CONTINUOUS
 62
     7
100
AcDbLine
 10
376.5000000000181
 20
218.3045381863157
 30
0.0
 11
376.5000000000181
 21
220.3045381863147
 31
0.0
  0
LINE
  5
4E4
330
1F
100
AcDbEntity
  8
LAY-10
  6
CONTINUOUS
 62
     7
100
AcDbLine
 10
374.0000000000213
 20
221.7479138592902
 30
0.0
 11
376.5000000000217
 21
220.3045381863159
 31
0.0
  0
LINE
  5
4E5
330
1F
100
AcDbEntity
  8
LAY-10
  6
CONTINUOUS
 62
     7
100
AcDbLine
 10
374.0000000000208
 20
221.7479138592906
 30
0.0
 11
371.5000000000199
 21
220.3045381863159
 31
0.0
  0
LINE
  5
4E6
330
1F
100
AcDbEntity
  8
LAY-10
  6
CONTINUOUS
 62
     7
100
AcDbLine
 10
376.5000000000181
 20
220.3045381863147
 30
0.0
 11
371.5000000000185
 21
220.3045381863147
 31
0.0
  0
LINE
  5
4E7
330
1F
100
AcDbEntity
  8
LAY-10
  6
CONTINUOUS
 62
     7
100
AcDbLine
 10
371.5000000000185
 20
218.3045381863157
 30
0.0
 11
371.5000000000185
 21
220.3045381863138
 31
0.0
  0
LINE
  5
4E8
330
1F
100
AcDbEntity
  8
LAY-10
  6
CONTINUOUS
 62
     7
100
AcDbLine
 10
376.5000000000213
 20
218.3045381863157
 30
0.0
 11
371.5000000000213
 21
218.3045381863157
 31
0.0
  0
LINE
  5
4E9
330
1F
100
AcDbEntity
  8
LAY-10
  6
CONTINUOUS
 62
     7
100
AcDbLine
 10
377.0000000000213
 20
217.8045381863147
 30
0.0
 11
371.0000000000213
 21
217.8045381863147
 31
0.0
  0
LINE
  5
4EA
330
1F
100
AcDbEntity
  8
LAY-10
  6
CONTINUOUS
 62
     7
100
AcDbLine
 10
371.5000000000185
 20
218.3045381863157
 30
0.0
 11
371.5000000000185
 21
210.8045381863184
 31
0.0
  0
LINE
  5
4EB
330
1F
100
AcDbEntity
  8
LAY-10
  6
CONTINUOUS
 62
     7
100
AcDbLine
 10
367.292028852385
 20
218.8966854324891
 30
0.0
 11
368.0000000000076
 21
210.8045381863184
 31
0.0
  0
ARC
  5
4EC
330
1F
100
AcDbEntity
  8
LAY-10
  6
CONTINUOUS
 62
     7
100
AcDbCircle
 10
364.3034447581098
 20
218.6352182042461
 30
0.0
 40
3.0
100
AcDbArc
 50
4.999999999999859
 51
74.99999999999866
  0
LINE
  5
4ED
330
1F
100
AcDbEntity
  8
LAY-10
  6
CONTINUOUS
 62
     7
100
AcDbLine
 10
334.0000000000217
 20
223.80453818632
 30
0.0
 11
356.6023898599318
 21
223.8045381863196
 31
0.0
  0
LINE
  5
4EE
330
1F
100
AcDbEntity
  8
LAY-10
  6
CONTINUOUS
 62
     7
100
AcDbLine
 10
343.5558337350825
 20
227.3003523639802
 30
0.0
 11
365.0799018934184
 21
221.5329956831217
 31
0.0
  0
ARC
  5
4EF
330
1F
100
AcDbEntity
  8
LAY-10
  6
CONTINUOUS
 62
     7
100
AcDbCircle
 10
342.6191331492922
 20
223.8045381863199
 30
0.0
 40
3.619133149270809
100
AcDbArc
 50
75.00000000000057
 51
179.9999999999996
  0
LINE
  5
4F0
330
1F
100
AcDbEntity
  8
LAY-10
  6
CONTINUOUS
 62
     7
100
AcDbLine
 10
335.0000000000217
 20
235.8045381863199
 30
0.0
 11
334.0000000000217
 21
223.80453818632
 31
0.0
  0
LINE
  5
4F1
330
1F
100
AcDbEntity
  8
LAY-10
  6
CONTINUOUS
 62
     7
100
AcDbLine
 10
826.0000000000235
 20
223.8045381863199
 30
0.0
 11
818.852423360728
 21
223.8045381863199
 31
0.0
  0
LINE
  5
4F2
330
1F
100
AcDbEntity
  8
LAY-10
  6
CONTINUOUS
 62
     7
100
AcDbLine
 10
825.0000000000235
 20
235.8045381863199
 30
0.0
 11
826.0000000000235
 21
223.8045381863199
 31
0.0
  0
LINE
  5
4F3
330
1F
100
AcDbEntity
  8
LAY-10
  6
CONTINUOUS
 62
     7
100
AcDbLine
 10
466.0000000000249
 20
195.8045381863199
 30
0.0
 11
466.0000000000249
 21
194.1139392630802
 31
0.0
  0
LINE
  5
4F4
330
1F
100
AcDbEntity
  8
LAY-10
  6
CONTINUOUS
 62
     7
100
AcDbLine
 10
458.0000000000249
 20
195.8045381863199
 30
0.0
 11
458.0000000000249
 21
194.1139392630802
 31
0.0
  0
LINE
  5
4F5
330
1F
100
AcDbEntity
  8
LAY-10
  6
CONTINUOUS
 62
     7
100
AcDbLine
 10
457.0000000000244
 20
196.8045381863202
 30
0.0
 11
467.0000000000244
 21
196.8045381863202
 31
0.0
  0
LINE
  5
4F6
330
1F
100
AcDbEntity
  8
LAY-10
  6
CONTINUOUS
 62
     7
100
AcDbLine
 10
467.0000000000244
 20
196.8045381863202
 30
0.0
 11
466.0000000000244
 21
195.8045381863202
 31
0.0
  0
LINE
  5
4F7
330
1F
100
AcDbEntity
  8
LAY-10
  6
CONTINUOUS
 62
     7
100
AcDbLine
 10
457.0000000000244
 20
196.8045381863202
 30
0.0
 11
458.0000000000244
 21
195.8045381863202
 31
0.0
  0
LINE
  5
4F8
330
1F
100
AcDbEntity
  8
LAY-10
  6
CONTINUOUS
 62
     7
100
AcDbLine
 10
458.000000000024
 20
195.8045381863202
 30
0.0
 11
466.0000000000244
 21
195.8045381863202
 31
0.0
  0
LINE
  5
4F9
330
1F
100
AcDbEntity
  8
LAY-10
  6
CONTINUOUS
 62
     7
100
AcDbLine
 10
458.0000000000244
 20
194.1139392630802
 30
0.0
 11
466.0000000000244
 21
194.1139392630802
 31
0.0
  0
LINE
  5
4FA
330
1F
100
AcDbEntity
  8
LAY-10
  6
CONTINUOUS
 62
     7
100
AcDbLine
 10
462.0000000000254
 20
191.8045381863202
 30
0.0
 11
466.0000000000254
 21
194.1139392630784
 31
0.0
  0
LINE
  5
4FB
330
1F
100
AcDbEntity
  8
LAY-10
  6
CONTINUOUS
 62
     7
100
AcDbLine
 10
462.0000000000231
 20
191.8045381863202
 30
0.0
 11
458.0000000000235
 21
194.1139392630784
 31
0.0
  0
TEXT
  5
4FC
330
1F
100
AcDbEntity
  8
LAY-10
  6
CONTINUOUS
 62
     7
100
AcDbText
 10
577.0666666665625
 20
835.1480646318103
 30
0.0
 40
9.744095
  1
Ｆ
 50
0.0000000000000573
 41
1.2
  7
EXCADSTD
100
AcDbText
  0
TEXT
  5
4FD
330
1F
100
AcDbEntity
  8
LAY-10
  6
CONTINUOUS
 62
     7
100
AcDbText
 10
571.3333333333173
 20
835.1480646318103
 30
0.0
 40
9.744095
  1
Ｓ
 50
0.0000000000000573
 41
1.2
  7
EXCADSTD
100
AcDbText
  0
LINE
  5
4FE
330
1F
100
AcDbEntity
  8
LAY-10
  6
CENTER
 62
     2
100
AcDbLine
 10
329.0000000000005
 20
840.0000000000001
 30
0.0
 11
830.9999999999997
 21
840.0000000000001
 31
0.0
  0
LINE
  5
4FF
330
1F
100
AcDbEntity
  8
LAY-10
  6
CENTER
 62
     2
100
AcDbLine
 10
580.0000000000001
 20
589.0000000000005
 30
0.0
 11
579.9999999999998
 21
1091.0
 31
0.0
  0
LINE
  5
500
330
1F
100
AcDbEntity
  8
LAY-10
  6
CENTER
 62
     2
100
AcDbLine
 10
646.9959312456103
 20
937.574195996364
 30
0.0
 11
630.2816409525703
 21
947.2241959963641
 31
0.0
  0
LINE
  5
501
330
1F
100
AcDbEntity
  8
LAY-10
  6
CENTER
 62
     2
100
AcDbLine
 10
586.0
 20
677.5000000000001
 30
0.0
 11
574.0
 21
677.5000000000001
 31
0.0
  0
LINE
  5
502
330
1F
100
AcDbEntity
  8
LAY-10
  6
CENTER
 62
     2
100
AcDbLine
 10
634.2499999999882
 20
933.963756310644
 30
0.0
 11
643.8999999999883
 21
950.6780466036836
 31
0.0
  0
LINE
  5
503
330
1F
100
AcDbEntity
  8
LAY-10
  6
CENTER
 62
     2
100
AcDbLine
 10
586.0
 20
1002.5
 30
0.0
 11
574.0
 21
1002.5
 31
0.0
  0
LINE
  5
504
330
1F
100
AcDbEntity
  8
LAY-10
  6
CENTER
 62
     2
100
AcDbLine
 10
462.0003018905018
 20
849.2330804107124
 30
0.0
 11
462.0003018905018
 21
829.9330804107123
 31
0.0
  0
LINE
  5
505
330
1F
100
AcDbEntity
  8
LAY-10
  6
CENTER
 62
     2
100
AcDbLine
 10
634.2500000000337
 20
746.0362436893821
 30
0.0
 11
643.9000000000333
 21
729.321953396343
 31
0.0
  0
LINE
  5
506
330
1F
100
AcDbEntity
  8
LAY-10
  6
CENTER
 62
     2
100
AcDbLine
 10
631.0037668638879
 20
733.1927235929239
 30
0.0
 11
647.718057156927
 21
742.842723592924
 31
0.0
  0
LINE
  5
507
330
1F
100
AcDbEntity
  8
LAY-10
  6
CENTER
 62
     2
100
AcDbLine
 10
580.0000000000246
 20
444.9999999999801
 30
0.0
 11
580.0000000000246
 21
121.0534168849
 31
0.0
  0
LINE
  5
508
330
1F
100
AcDbEntity
  8
LAY-10
  6
CENTER
 62
     2
100
AcDbLine
 10
462.0000000000244
 20
245.8045381863302
 30
0.0
 11
462.0000000000244
 21
191.8045381863199
 31
0.0
  0
LINE
  5
509
330
1F
100
AcDbEntity
  8
LAY-10
  6
CENTER
 62
     2
100
AcDbLine
 10
374.0000000000206
 20
223.7479138592898
 30
0.0
 11
374.0000000000206
 21
193.8045381863199
 31
0.0
  0
LINE
  5
50A
330
1F
100
AcDbEntity
  8
LAY-10
  6
CENTER
 62
     2
100
AcDbLine
 10
357.627410089547
 20
189.3045381863201
 30
0.0
 11
369.5000000000149
 21
189.3045381863201
 31
0.0
  0
ARC
  5
50B
330
1F
100
AcDbEntity
  8
LAY-10
  6
CENTER
 62
     2
100
AcDbCircle
 10
369.5000000000149
 20
193.8045381863201
 30
0.0
 40
4.5
100
AcDbArc
 50
270.0
 51
0.0
  0
ARC
  5
50C
330
1F
100
AcDbEntity
  8
LAY-10
  6
CONTINUOUS
 62
     7
100
AcDbCircle
 10
462.0
 20
839.9999999999728
 30
0.0
 40
4.0
100
AcDbArc
 50
104.4730461514037
 51
255.5269538485963
  0
ARC
  5
50D
330
1F
100
AcDbEntity
  8
LAY-10
  6
CONTINUOUS
 62
     7
100
AcDbCircle
 10
462.0
 20
839.9999999999728
 30
0.0
 40
4.0
100
AcDbArc
 50
284.4819783104686
 51
75.5180216895317
  0
ARC
  5
50E
330
1F
100
AcDbEntity
  8
LAY-10
  6
CONTINUOUS
 62
     7
100
AcDbCircle
 10
638.9999999999764
 20
942.1909976465773
 30
0.0
 40
4.0
100
AcDbArc
 50
344.4730461514106
 51
135.5269538485895
  0
ARC
  5
50F
330
1F
100
AcDbEntity
  8
LAY-10
  6
CONTINUOUS
 62
     7
100
AcDbCircle
 10
638.9999999999764
 20
942.1909976465773
 30
0.0
 40
4.0
100
AcDbArc
 50
164.4819783104649
 51
315.5180216895346
  0
ARC
  5
510
330
1F
100
AcDbEntity
  8
LAY-10
  6
CONTINUOUS
 62
     7
100
AcDbCircle
 10
639.0000000000232
 20
737.8090023534497
 30
0.0
 40
4.0
100
AcDbArc
 50
44.48197831046548
 51
195.5180216895353
  0
ARC
  5
511
330
1F
100
AcDbEntity
  8
LAY-10
  6
CONTINUOUS
 62
     7
100
AcDbCircle
 10
639.0000000000232
 20
737.8090023534497
 30
0.0
 40
4.0
100
AcDbArc
 50
224.4730461514072
 51
15.52695384858951
  0
LINE
  5
512
330
1F
100
AcDbEntity
  8
LAY-10
  6
HIDDEN
 62
     7
100
AcDbLine
 10
816.4441662649618
 20
227.3003523639831
 30
0.0
 11
733.3137325696279
 21
205.0256197888685
 31
0.0
  0
LINE
  5
513
330
1F
100
AcDbEntity
  8
LAY-10
  6
HIDDEN
 62
     7
100
AcDbLine
 10
731.1444593399418
 20
202.6958851046617
 30
0.0
 11
730.4689688451689
 21
199.1929573666873
 31
0.0
  0
ARC
  5
514
330
1F
100
AcDbEntity
  8
LAY-10
  6
HIDDEN
 62
     7
100
AcDbCircle
 10
734.0901897049692
 20
202.1278423100105
 30
0.0
 40
3.0
100
AcDbArc
 50
105.000000000001
 51
169.0852867666444
  0
LINE
  5
515
330
1F
100
AcDbEntity
  8
LAY-10
  6
CONTINUOUS
 62
     7
100
AcDbLine
 10
687.3000000000246
 20
135.8045381863203
 30
0.0
 11
686.1125000000251
 21
173.8045381863201
 31
0.0
  0
LINE
  5
516
330
1F
100
AcDbEntity
  8
LAY-10
  6
CONTINUOUS
 62
     7
100
AcDbLine
 10
472.7000000000252
 20
135.8045381863203
 30
0.0
 11
473.8875000000247
 21
173.80453818632
 31
0.0
  0
LINE
  5
517
330
1F
100
AcDbEntity
  8
LAY-10
  6
CONTINUOUS
 62
     7
100
AcDbLine
 10
466.0000000000242
 20
223.3999999999752
 30
0.0
 11
466.0000000000242
 21
245.8045381863302
 31
0.0
  0
LINE
  5
518
330
1F
100
AcDbEntity
  8
LAY-10
  6
CONTINUOUS
 62
     7
100
AcDbLine
 10
458.0000000000247
 20
223.3999999999752
 30
0.0
 11
458.0000000000247
 21
245.8045381863302
 31
0.0
  0
LINE
  5
519
330
1F
100
AcDbEntity
  8
LAY-10
  6
CONTINUOUS
 62
     7
100
AcDbLine
 10
466.0000000000242
 20
214.9999999999798
 30
0.0
 11
466.0000000000242
 21
195.8045381863202
 31
0.0
  0
LINE
  5
51A
330
1F
100
AcDbEntity
  8
LAY-10
  6
CONTINUOUS
 62
     7
100
AcDbLine
 10
458.000000000024
 20
214.9999999999798
 30
0.0
 11
458.000000000024
 21
195.8045381863202
 31
0.0
  0
LINE
  5
51B
330
1F
100
AcDbEntity
  8
LAY-10
  6
CONTINUOUS
 62
     7
100
AcDbLine
 10
740.0000000000458
 20
231.9999999999816
 30
0.0
 11
740.0000000000458
 21
219.9999999999834
 31
0.0
  0
LINE
  5
51C
330
1F
100
AcDbEntity
  8
LAY-10
  6
CONTINUOUS
 62
     7
100
AcDbLine
 10
745.0000000000458
 20
231.9999999999816
 30
0.0
 11
745.0000000000458
 21
219.9999999999834
 31
0.0
  0
LINE
  5
51D
330
1F
100
AcDbEntity
  8
LAY-10
  6
CONTINUOUS
 62
     7
100
AcDbLine
 10
739.5000000000244
 20
220.4999999999802
 30
0.0
 11
739.5000000000244
 21
212.8948822334667
 31
0.0
  0
LINE
  5
51E
330
1F
100
AcDbEntity
  8
LAY-10
  6
CONTINUOUS
 62
     7
100
AcDbLine
 10
745.5000000000244
 20
220.4999999999802
 30
0.0
 11
745.5000000000244
 21
214.5025773880536
 31
0.0
  0
LINE
  5
51F
330
1F
100
AcDbEntity
  8
LAY-10
  6
CONTINUOUS
 62
     7
100
AcDbLine
 10
376.5000000000249
 20
210.8045381863201
 30
0.0
 11
376.5000000000249
 21
214.8045381863201
 31
0.0
  0
LINE
  5
520
330
1F
100
AcDbEntity
  8
LAY-10
  6
CONTINUOUS
 62
     7
100
AcDbLine
 10
371.5000000000249
 20
210.8045381863201
 30
0.0
 11
371.5000000000249
 21
214.8045381863201
 31
0.0
  0
LINE
  5
521
330
1F
100
AcDbEntity
  8
LAY-10
  6
CONTINUOUS
 62
     7
100
AcDbLine
 10
377.0000000000194
 20
217.8045381863147
 30
0.0
 11
377.0000000000194
 21
210.8045381863184
 31
0.0
  0
LINE
  5
522
330
1F
100
AcDbEntity
  8
LAY-10
  6
CONTINUOUS
 62
     7
100
AcDbLine
 10
371.0000000000203
 20
217.8045381863147
 30
0.0
 11
371.0000000000203
 21
210.8045381863184
 31
0.0
  0
ARC
  5
523
330
1F
100
AcDbEntity
  8
LAY-10
  6
HIDDEN
 62
     7
100
AcDbCircle
 10
817.3808668507526
 20
223.8045381863199
 30
0.0
 40
3.619133149270809
100
AcDbArc
 50
0.0
 51
104.9999999999996
  0
LINE
  5
524
330
1F
100
AcDbEntity
  8
LAY-10
  6
CONTINUOUS
 62
     7
100
AcDbLine
 10
371.0000000000222
 20
217.6090763726547
 30
0.0
 11
371.5000000000208
 21
218.1090763726556
 31
0.0
  0
LINE
  5
525
330
1F
100
AcDbEntity
  8
LAY-10
  6
CONTINUOUS
 62
     7
100
AcDbLine
 10
377.0000000000213
 20
217.6090763726547
 30
0.0
 11
376.5000000000199
 21
218.1090763726556
 31
0.0
  0
LINE
  5
526
330
1F
100
AcDbEntity
  8
LAY-10
  6
CENTER
 62
     2
100
AcDbLine
 10
742.5000000000244
 20
210.8999999999799
 30
0.0
 11
742.5000000000244
 21
237.12
 31
0.0
  0
DIMENSION
  5
528
330
1F
100
AcDbEntity
  8
LAY-20
  6
CONTINUOUS
 62
     4
100
AcDbDimension
  2
*D15
 10
826.00000000002
 20
535.99999999998
 30
0.0
 11
580.00000000002
 21
545.99999999998
 31
0.0
 70
   160
  1
%%c<>
  3
ISO-25
100
AcDbAlignedDimension
 13
334.00000000002
 23
223.80453818632
 33
0.0
 14
826.00000000002
 24
223.80453818632
 34
0.0
100
AcDbRotatedDimension
1001
ACAD
1000
DSTYLE
1002
{
1070
   270
1070
     2
1070
     6
1000
EX_BNORM
1070
     7
1000
EX_BNORM
1070
    41
1040
10.0
1070
    42
1040
6.0
1070
    44
1040
6.0
1070
    73
1070
     0
1070
    74
1070
     0
1070
    75
1070
     0
1070
    76
1070
     0
1070
    77
1070
     1
1070
    78
1070
     8
1070
   140
1040
12.4724416
1070
   147
1040
0.0
1070
   173
1070
     1
1070
   176
1070
     4
1070
   177
1070
     4
1070
   178
1070
     7
1070
   271
1070
     1
1070
   277
1070
     2
1070
   279
1070
     2
1070
   280
1070
     0
1070
   287
1070
     5
1070
   340
1005
527
1002
}
  0
DIMENSION
  5
536
330
1F
100
AcDbEntity
  8
LAY-20
  6
CONTINUOUS
 62
     4
100
AcDbDimension
  2
*D16
 10
390.00000000002
 20
507.99999999998
 30
0.0
 11
580.00000000002
 21
517.99999999998
 31
0.0
 70
   160
  1
%%c<>
  3
ISO-25
100
AcDbAlignedDimension
 13
770.00000000002
 23
226.99999999998
 33
0.0
 14
390.00000000002
 24
226.99999999998
 34
0.0
100
AcDbRotatedDimension
1001
ACAD
1000
DSTYLE
1002
{
1070
   270
1070
     2
1070
     6
1000
EX_BNORM
1070
     7
1000
EX_BNORM
1070
    41
1040
10.0
1070
    42
1040
6.0
1070
    44
1040
6.0
1070
    73
1070
     0
1070
    74
1070
     0
1070
    75
1070
     0
1070
    76
1070
     0
1070
    77
1070
     1
1070
    78
1070
     8
1070
   140
1040
12.4724416
1070
   147
1040
0.0
1070
   173
1070
     1
1070
   176
1070
     4
1070
   177
1070
     4
1070
   178
1070
     7
1070
   271
1070
     1
1070
   277
1070
     2
1070
   279
1070
     2
1070
   280
1070
     0
1070
   287
1070
     5
1070
   340
1005
527
1002
}
  0
DIMENSION
  5
543
330
1F
100
AcDbEntity
  8
LAY-20
  6
CONTINUOUS
 62
     4
100
AcDbDimension
  2
*D17
 10
755.00000000003
 20
479.99999999998
 30
0.0
 11
580.00000000003
 21
489.99999999998
 31
0.0
 70
   160
  1
%%c<>
  3
ISO-25
100
AcDbAlignedDimension
 13
405.00000000003
 23
231.99999999998
 33
0.0
 14
755.00000000003
 24
231.99999999998
 34
0.0
100
AcDbRotatedDimension
1001
ACAD
1000
DSTYLE
1002
{
1070
   270
1070
     2
1070
     6
1000
EX_BNORM
1070
     7
1000
EX_BNORM
1070
    41
1040
10.0
1070
    42
1040
6.0
1070
    44
1040
6.0
1070
    73
1070
     0
1070
    74
1070
     0
1070
    75
1070
     0
1070
    76
1070
     0
1070
    77
1070
     1
1070
    78
1070
     8
1070
   140
1040
12.4724416
1070
   147
1040
0.0
1070
   173
1070
     1
1070
   176
1070
     4
1070
   177
1070
     4
1070
   178
1070
     7
1070
   271
1070
     1
1070
   277
1070
     2
1070
   279
1070
     2
1070
   280
1070
     0
1070
   287
1070
     5
1070
   340
1005
527
1002
}
  0
DIMENSION
  5
550
330
1F
100
AcDbEntity
  8
LAY-20
  6
CONTINUOUS
 62
     4
100
AcDbDimension
  2
*D18
 10
866.00000000003
 20
439.99999999998
 30
0.0
 11
856.00000000003
 21
337.902269093155
 31
0.0
 70
   160
  3
ISO-25
100
AcDbAlignedDimension
 13
825.00000000002
 23
235.80453818633
 33
0.0
 14
594.90000000002
 24
439.99999999998
 34
0.0
 50
90.0
100
AcDbRotatedDimension
1001
ACAD
1000
DSTYLE
1002
{
1070
   270
1070
     2
1070
     6
1000
EX_BNORM
1070
     7
1000
EX_BNORM
1070
    41
1040
10.0
1070
    42
1040
6.0
1070
    44
1040
6.0
1070
    73
1070
     0
1070
    74
1070
     0
1070
    75
1070
     0
1070
    76
1070
     0
1070
    77
1070
     1
1070
    78
1070
     0
1070
   140
1040
12.4724416
1070
   147
1040
0.0
1070
   173
1070
     1
1070
   176
1070
     4
1070
   177
1070
     4
1070
   178
1070
     7
1070
   271
1070
     0
1070
   277
1070
     2
1070
   279
1070
     2
1070
   280
1070
     0
1070
   287
1070
     5
1070
   340
1005
527
1002
}
  0
DIMENSION
  5
55D
330
1F
100
AcDbEntity
  8
LAY-20
  6
CONTINUOUS
 62
     4
100
AcDbDimension
  2
*D19
 10
866.00000000003
 20
235.80453818633
 30
0.0
 11
856.00000000003
 21
180.80453818633
 31
0.0
 70
   160
  3
ISO-25
100
AcDbAlignedDimension
 13
713.50000000002
 23
125.80453818633
 33
0.0
 14
866.00000000003
 24
235.80453818633
 34
0.0
 50
90.0
100
AcDbRotatedDimension
1001
ACAD
1000
DSTYLE
1002
{
1070
   270
1070
     2
1070
     6
1000
EX_BNORM
1070
     7
1000
EX_BNORM
1070
    41
1040
10.0
1070
    42
1040
6.0
1070
    44
1040
6.0
1070
    73
1070
     0
1070
    74
1070
     0
1070
    75
1070
     0
1070
    76
1070
     1
1070
    77
1070
     1
1070
    78
1070
     8
1070
   140
1040
12.4724416
1070
   147
1040
0.0
1070
   173
1070
     1
1070
   176
1070
     4
1070
   177
1070
     4
1070
   178
1070
     7
1070
   271
1070
     1
1070
   277
1070
     2
1070
   279
1070
     2
1070
   280
1070
     0
1070
   287
1070
     5
1070
   340
1005
527
1002
}
  0
DIMENSION
  5
569
330
1F
100
AcDbEntity
  8
LAY-20
  6
CONTINUOUS
 62
     4
100
AcDbDimension
  2
*D20
 10
687.30000000002
 20
85.80453818632998
 30
0.0
 11
580.000000000025
 21
95.80453818632998
 31
0.0
 70
   160
  1
ＰＴ8（<>）
  3
ISO-25
100
AcDbAlignedDimension
 13
472.70000000003
 23
135.80453818632
 33
0.0
 14
687.30000000002
 24
135.80453818632
 34
0.0
100
AcDbRotatedDimension
1001
ACAD
1000
DSTYLE
1002
{
1070
   270
1070
     2
1070
     6
1000
EX_BNORM
1070
     7
1000
EX_BNORM
1070
    41
1040
10.0
1070
    42
1040
6.0
1070
    44
1040
6.0
1070
    73
1070
     0
1070
    74
1070
     0
1070
    75
1070
     0
1070
    76
1070
     0
1070
    77
1070
     1
1070
    78
1070
     8
1070
   140
1040
12.4724416
1070
   147
1040
0.0
1070
   173
1070
     1
1070
   176
1070
     4
1070
   177
1070
     4
1070
   178
1070
     7
1070
   271
1070
     1
1070
   277
1070
     2
1070
   279
1070
     2
1070
   280
1070
     0
1070
   287
1070
     5
1070
   340
1005
527
1002
}
  0
DIMENSION
  5
576
330
1F
100
AcDbEntity
  8
LAY-20
  6
CONTINUOUS
 62
     4
100
AcDbDimension
  2
*D21
 10
294.00000000002
 20
235.80453818633
 30
0.0
 11
284.00000000002
 21
213.30453818633
 31
0.0
 70
   160
  3
ISO-25
100
AcDbAlignedDimension
 13
445.88564002367
 23
190.80453818633
 33
0.0
 14
335.00000000002
 24
235.80453818633
 34
0.0
 50
90.0
100
AcDbRotatedDimension
1001
ACAD
1000
DSTYLE
1002
{
1070
   270
1070
     2
1070
     6
1000
EX_BNORM
1070
     7
1000
EX_BNORM
1070
    41
1040
10.0
1070
    42
1040
6.0
1070
    44
1040
6.0
1070
    73
1070
     0
1070
    74
1070
     0
1070
    75
1070
     0
1070
    76
1070
     0
1070
    77
1070
     1
1070
    78
1070
     8
1070
   140
1040
12.4724416
1070
   147
1040
0.0
1070
   173
1070
     1
1070
   176
1070
     4
1070
   177
1070
     4
1070
   178
1070
     7
1070
   271
1070
     1
1070
   277
1070
     2
1070
   279
1070
     2
1070
   280
1070
     0
1070
   287
1070
     5
1070
   340
1005
527
1002
}
  0
LINE
  5
583
330
1F
100
AcDbEntity
  8
LAY-255
  6
CONTINUOUS
 62
     7
100
AcDbLine
 10
1540.0
 20
87.99999999999999
 30
0.0
 11
1140.0
 21
87.99999999999999
 31
0.0
  0
LINE
  5
584
330
1F
100
AcDbEntity
  8
LAY-255
  6
CONTINUOUS
 62
     7
100
AcDbLine
 10
1155.2
 20
63.99999999999999
 30
0.0
 11
1187.2
 21
84.0
 31
0.0
  0
LINE
  5
585
330
1F
100
AcDbEntity
  8
LAY-255
  6
CONTINUOUS
 62
     7
100
AcDbLine
 10
1187.2
 20
84.0
 30
0.0
 11
1219.2
 21
63.99999999999999
 31
0.0
  0
LINE
  5
586
330
1F
100
AcDbEntity
  8
LAY-255
  6
CONTINUOUS
 62
     7
100
AcDbLine
 10
1219.2
 20
63.99999999999999
 30
0.0
 11
1187.2
 21
44.0
 31
0.0
  0
LINE
  5
587
330
1F
100
AcDbEntity
  8
LAY-255
  6
CONTINUOUS
 62
     7
100
AcDbLine
 10
1187.2
 20
44.0
 30
0.0
 11
1155.2
 21
63.99999999999999
 31
0.0
  0
LINE
  5
588
330
1F
100
AcDbEntity
  8
LAY-255
  6
CONTINUOUS
 62
     7
100
AcDbLine
 10
20.0
 20
40.0
 30
0.0
 11
1540.0
 21
40.0
 31
0.0
  0
LINE
  5
589
330
1F
100
AcDbEntity
  8
LAY-255
  6
CONTINUOUS
 62
     7
100
AcDbLine
 10
20.0
 20
1120.0
 30
0.0
 11
1540.0
 21
1120.0
 31
0.0
  0
LINE
  5
58A
330
1F
100
AcDbEntity
  8
LAY-255
  6
CONTINUOUS
 62
     7
100
AcDbLine
 10
20.0
 20
40.0
 30
0.0
 11
20.0
 21
1120.0
 31
0.0
  0
LINE
  5
58B
330
1F
100
AcDbEntity
  8
LAY-255
  6
CONTINUOUS
 62
     4
100
AcDbLine
 10
1140.0
 20
112.0
 30
0.0
 11
1540.0
 21
112.0
 31
0.0
  0
LINE
  5
58C
330
1F
100
AcDbEntity
  8
LAY-255
  6
CONTINUOUS
 62
     4
100
AcDbLine
 10
1340.0
 20
112.0
 30
0.0
 11
1340.0
 21
88.0
 31
0.0
  0
POINT
  5
58D
330
1F
100
AcDbEntity
  8
LAY-255
  6
CONTINUOUS
 62
     7
100
AcDbPoint
 10
1156.0
 20
200.0
 30
0.0
  0
POINT
  5
58E
330
1F
100
AcDbEntity
  8
LAY-255
  6
CONTINUOUS
 62
     7
100
AcDbPoint
 10
1156.0
 20
160.0
 30
0.0
  0
POINT
  5
58F
330
1F
100
AcDbEntity
  8
LAY-255
  6
CONTINUOUS
 62
     7
100
AcDbPoint
 10
1156.0
 20
180.0
 30
0.0
  0
POINT
  5
590
330
1F
100
AcDbEntity
  8
LAY-255
  6
CONTINUOUS
 62
     7
100
AcDbPoint
 10
1156.0
 20
140.0
 30
0.0
  0
POINT
  5
591
330
1F
100
AcDbEntity
  8
LAY-255
  6
CONTINUOUS
 62
     7
100
AcDbPoint
 10
1156.0
 20
119.9999999999999
 30
0.0
  0
LINE
  5
592
330
1F
100
AcDbEntity
  8
LAY-255
  6
CONTINUOUS
 62
     7
100
AcDbLine
 10
1540.0
 20
40.0
 30
0.0
 11
1540.0
 21
1120.0
 31
0.0
  0
LINE
  5
593
330
1F
100
AcDbEntity
  8
LAY-255
  6
CONTINUOUS
 62
     7
100
AcDbLine
 10
1140.0
 20
40.0
 30
0.0
 11
1140.0
 21
288.0
 31
0.0
  0
LINE
  5
594
330
1F
100
AcDbEntity
  8
LAY-255
  6
CONTINUOUS
 62
     7
100
AcDbLine
 10
1540.0
 20
288.0
 30
0.0
 11
1140.0
 21
288.0
 31
0.0
  0
LINE
  5
595
330
1F
100
AcDbEntity
  8
LAY-255
  6
CONTINUOUS
 62
     4
100
AcDbLine
 10
1532.0
 20
240.0
 30
0.0
 11
1148.0
 21
240.0
 31
0.0
  0
LINE
  5
596
330
1F
100
AcDbEntity
  8
LAY-255
  6
CONTINUOUS
 62
     4
100
AcDbLine
 10
1532.0
 20
264.0
 30
0.0
 11
1148.0
 21
264.0
 31
0.0
  0
POINT
  5
597
330
1F
100
AcDbEntity
  8
LAY-255
  6
CONTINUOUS
 62
     7
100
AcDbPoint
 10
1200.0
 20
244.0
 30
0.0
  0
POINT
  5
598
330
1F
100
AcDbEntity
  8
LAY-255
  6
CONTINUOUS
 62
     7
100
AcDbPoint
 10
1200.0
 20
268.0
 30
0.0
  0
POINT
  5
599
330
1F
100
AcDbEntity
  8
LAY-255
  6
CONTINUOUS
 62
     7
100
AcDbPoint
 10
1156.0
 20
220.0
 30
0.0
  0
TEXT
  5
59A
330
1F
100
AcDbEntity
  8
LAY-255
  6
CONTINUOUS
 62
     7
100
AcDbText
 10
1232.553515517578
 20
62.175
 30
0.0
 40
20.625
  1
福西鋳物株式会社
 41
1.342691893096234
  7
EXCADSTD
100
AcDbText
  0
TEXT
  5
59B
330
1F
100
AcDbEntity
  8
LAY-255
  6
CONTINUOUS
 62
     7
100
AcDbText
 10
1234.0375
 20
47.925
 30
0.0
 40
6.875
  1
ＦＵＫＵＮＩＳＨＩ
 41
1.204799226045263
  7
EXCADSTD
100
AcDbText
  0
TEXT
  5
59C
330
1F
100
AcDbEntity
  8
LAY-255
  6
CONTINUOUS
 62
     7
100
AcDbText
 10
1330.876785714286
 20
47.925
 30
0.0
 40
6.875
  1
ＦＯＵＮＤＲＹ
 41
1.243252752978497
  7
EXCADSTD
100
AcDbText
  0
TEXT
  5
59D
330
1F
100
AcDbEntity
  8
LAY-255
  6
CONTINUOUS
 62
     7
100
AcDbText
 10
1407.978364771634
 20
47.925
 30
0.0
 40
6.875
  1
ＣＯ.,ＬＴＤ.
 41
1.243830523306697
  7
EXCADSTD
100
AcDbText
  0
TEXT
  5
59E
330
1F
100
AcDbEntity
  8
LAY-255
  6
CONTINUOUS
 62
     7
100
AcDbText
 10
1176.1375
 20
54.875
 30
0.0
 40
20.625
  1
S
 41
0.7582677563636363
  7
EXCADSTD
100
AcDbText
  0
TEXT
  5
59F
330
1F
100
AcDbEntity
  8
LAY-255
  6
CONTINUOUS
 62
     7
100
AcDbText
 10
1188.41875
 20
54.99764150943999
 30
0.0
 40
20.625
  1
F
 41
0.7440945272727272
  7
EXCADSTD
100
AcDbText
  0
TEXT
  5
5A0
330
1F
100
AcDbEntity
  8
LAY-255
  6
CONTINUOUS
 62
     7
100
AcDbText
 10
1348.421875
 20
97.68749999999996
 30
0.0
 40
10.3125
  1
縮尺
 41
1.080708718181818
  7
EXCADSTD
100
AcDbText
  0
TEXT
  5
5A1
330
1F
100
AcDbEntity
  8
LAY-255
  6
CONTINUOUS
 62
     7
100
AcDbText
 10
1148.609375
 20
97.68749999999996
 30
0.0
 40
10.3125
  1
作成日
 41
1.000629973818182
  7
EXCADSTD
100
AcDbText
  0
TEXT
  5
5A2
330
1F
100
AcDbEntity
  8
LAY-255
  6
CONTINUOUS
 62
     7
100
AcDbText
 10
1149.0625
 20
246.25
 30
0.0
 40
13.75
  1
型式
 41
1.056348480681818
  7
EXCADSTD
100
AcDbText
  0
TEXT
  5
5A3
330
1F
100
AcDbEntity
  8
LAY-255
  6
CONTINUOUS
 62
     7
100
AcDbText
 10
1149.6875
 20
270.25
 30
0.0
 40
13.75
  1
品名
 41
0.978838634090909
  7
EXCADSTD
100
AcDbText
  0
TEXT
  5
5A4
330
1F
100
AcDbEntity
  8
LAY-255
  6
CONTINUOUS
 62
     7
100
AcDbText
 10
1201.0
 20
270.25
 30
0.0
 40
13.75
  1
ルーフドレイン
 41
1.021169538599106
  7
EXCADSTD
100
AcDbText
  0
TEXT
  5
5A5
330
1F
100
AcDbEntity
  8
LAY-255
  6
CONTINUOUS
 62
     7
100
AcDbText
 10
1157.5
 20
222.2500000000001
 30
0.0
 40
13.75
  1
防水：アスファルト・シート・
 41
0.9866967752199411
  7
EXCADSTD
100
AcDbText
  0
TEXT
  5
5A6
330
1F
100
AcDbEntity
  8
LAY-255
  6
CONTINUOUS
 62
     7
100
AcDbText
 10
1156.0
 20
202.25
 30
0.0
 40
13.75
  1
      露出アスファルト防水兼用
 41
0.8942744381697771
  7
EXCADSTD
100
AcDbText
  0
TEXT
  5
5A7
330
1F
100
AcDbEntity
  8
LAY-255
  6
CONTINUOUS
 62
     7
100
AcDbText
 10
1156.875
 20
142.25
 30
0.0
 40
13.75
  1
接続：管用テーパねじ
 41
1.013063761157025
  7
EXCADSTD
100
AcDbText
  0
TEXT
  5
5A8
330
1F
100
AcDbEntity
  8
LAY-255
  6
CONTINUOUS
 62
     7
100
AcDbText
 10
1156.75
 20
162.25
 30
0.0
 40
13.75
  1
施工：打込用
 41
1.018700840909091
  7
EXCADSTD
100
AcDbText
  0
TEXT
  5
5A9
330
1F
100
AcDbEntity
  8
LAY-255
  6
CONTINUOUS
 62
     7
100
AcDbText
 10
1156.9375
 20
182.25
 30
0.0
 40
13.75
  1
用途：屋上用
 41
1.016656625174825
  7
EXCADSTD
100
AcDbText
  0
TEXT
  5
5AA
330
1F
100
AcDbEntity
  8
LAY-255
  6
CONTINUOUS
 62
     7
100
AcDbText
 10
1157.5
 20
122.2500000000001
 30
0.0
 40
13.75
  1
※防水層張り掛け幅１００ｍｍ対応型
 41
1.011133181336544
  7
EXCADSTD
100
AcDbText
  0
TEXT
  5
5AB
330
1F
100
AcDbEntity
  8
LAY-255
  6
CONTINUOUS
 62
     7
100
AcDbText
 10
1393.125
 20
94.24999999999996
 30
0.0
 40
13.75
  1
１：４
 41
0.8929134327272726
  7
EXCADSTD
100
AcDbText
  0
TEXT
  5
5AC
330
1F
100
AcDbEntity
  8
LAY-255
  6
CONTINUOUS
 62
     7
100
AcDbText
 10
1203.5
 20
246.25
 30
0.0
 40
13.75
  1
ＲＳＧＮＡ－９２００型
 41
1.001258271602624
  7
EXCADSTD
100
AcDbText
  0
TEXT
  5
5AD
330
1F
100
AcDbEntity
  8
LAY-255
  6
CONTINUOUS
 62
     7
100
AcDbText
 10
1203.9375
 20
94.24999999999996
 30
0.0
 40
13.75
  1
２０／０９／０９
 41
0.973903313246753
  7
EXCADSTD
100
AcDbText
  0
ENDSEC
  0
SECTION
  2
OBJECTS
  0
DICTIONARY
  5
C
330
0
100
AcDbDictionary
  3
ACAD_GROUP
350
D
  3
ACAD_LAYOUT
350
1A
  3
ACAD_MATERIAL
350
43
  3
ACAD_MLEADERSTYLE
350
6B
  3
ACAD_MLINESTYLE
350
17
  3
ACAD_PLOTSETTINGS
350
19
  3
ACAD_SCALELIST
350
47
  3
ACAD_VISUALSTYLE
350
2A
  3
ACDBHEADERROUNDTRIPXREC
350
5AE
  3
ACDBVARIABLEDICTIONARY
350
5CF
  0
DICTIONARY
  5
5DA
330
8
100
AcDbDictionary
280
     1
  3
ACAD_XREC_ROUNDTRIP
360
5DB
  0
DICTIONARY
  5
D
102
{ACAD_REACTORS
330
C
102
}
330
C
100
AcDbDictionary
  0
DICTIONARY
  5
1A
102
{ACAD_REACTORS
330
C
102
}
330
C
100
AcDbDictionary
  0
DICTIONARY
  5
43
102
{ACAD_REACTORS
330
C
102
}
330
C
100
AcDbDictionary
  3
BYBLOCK
350
45
  3
BYLAYER
350
44
  3
GLOBAL
350
46
  0
DICTIONARY
  5
6B
102
{ACAD_REACTORS
330
C
102
}
330
C
100
AcDbDictionary
  3
STANDARD
350
6C
  0
DICTIONARY
  5
17
102
{ACAD_REACTORS
330
C
102
}
330
C
100
AcDbDictionary
  3
STANDARD
350
18
  0
DICTIONARY
  5
19
102
{ACAD_REACTORS
330
C
102
}
330
C
100
AcDbDictionary
  0
DICTIONARY
  5
47
102
{ACAD_REACTORS
330
C
102
}
330
C
100
AcDbDictionary
  3
A0
350
48
  3
A1
350
49
  3
A2
350
4A
  3
A3
350
4B
  3
A4
350
4C
  3
A5
350
4D
  3
A6
350
4E
  3
A7
350
4F
  3
A8
350
50
  3
A9
350
51
  3
B0
350
52
  3
B1
350
53
  3
B2
350
54
  3
B3
350
55
  3
B4
350
56
  3
B5
350
57
  3
B6
350
58
  3
B7
350
59
  3
B8
350
5A
  3
B9
350
5B
  3
C0
350
5C
  3
C1
350
5D
  3
C2
350
5E
  3
C3
350
5F
  3
C4
350
60
  3
C5
350
61
  3
C6
350
62
  3
C7
350
63
  3
C8
350
64
  3
C9
350
65
  3
D0
350
66
  3
D1
350
67
  3
D2
350
68
  0
DICTIONARY
  5
2A
102
{ACAD_REACTORS
330
C
102
}
330
C
100
AcDbDictionary
  3
2DWIREFRAME
350
2F
  3
BASIC
350
32
  3
BRIGHTEN
350
36
  3
COLORCHANGE
350
3A
  3
CONCEPTUAL
350
34
  3
DIM
350
35
  3
EDGECOLOROFF
350
3D
  3
FACEPATTERN
350
39
  3
FLAT
350
2B
  3
FLATWITHEDGES
350
2C
  3
GOURAUD
350
2D
  3
GOURAUDWITHEDGES
350
2E
  3
HIDDEN
350
31
  3
JITTEROFF
350
3B
  3
LINEPATTERN
350
38
  3
OVERHANGOFF
350
3C
  3
REALISTIC
350
33
  3
SHADED
350
42
  3
SHADED_WITH_EDGES
350
41
  3
SHADES_OF_GRAY
350
3E
  3
SKETCHY
350
3F
  3
THICKEN
350
37
  3
WIREFRAME
350
30
  3
X-RAY
350
40
  0
DICTIONARY
  5
5AE
102
{ACAD_REACTORS
330
C
102
}
330
C
100
AcDbDictionary
  3
CEPSNID
350
5B8
  3
CEPSNTYPE
350
5B7
  3
DIMSTYLEDATA
350
5CE
  3
FINGERPRINTGUID
350
5B9
  3
HYPERLINKBASE
350
5B1
  3
INSUNITS
350
5B6
  3
LAYOUTDICT
350
5B3
  3
LWETCUNION
350
5B5
  3
PLOTSETDICT
350
5B4
  3
PSVPSCALE
350
5BB
  3
PUCSBASE
350
5BE
  3
PUCSORGBACK
350
5C4
  3
PUCSORGBOTTOM
350
5C0
  3
PUCSORGFRONT
350
5C3
  3
PUCSORGLEFT
350
5C1
  3
PUCSORGRIGHT
350
5C2
  3
PUCSORGTOP
350
5BF
  3
PUCSORTHOREF
350
5BC
  3
PUCSORTHOVIEW
350
5BD
  3
STYLESHEET
350
5B2
  3
TSTACKALIGN
350
5AF
  3
TSTACKSIZE
350
5B0
  3
UCSBASE
350
5C7
  3
UCSORGBACK
350
5CD
  3
UCSORGBOTTOM
350
5C9
  3
UCSORGFRONT
350
5CC
  3
UCSORGLEFT
350
5CA
  3
UCSORGRIGHT
350
5CB
  3
UCSORGTOP
350
5C8
  3
UCSORTHOREF
350
5C5
  3
UCSORTHOVIEW
350
5C6
  3
VERSIONGUID
350
5BA
  0
DICTIONARY
  5
5CF
102
{ACAD_REACTORS
330
C
102
}
330
C
100
AcDbDictionary
  3
CANNOSCALE
350
5DC
  3
CENTEREXE
350
5D6
  3
CENTERLTYPEFILE
350
5D7
  3
CMLEADERSTYLE
350
5D1
  3
CTABLESTYLE
350
5D0
  3
DIMASSOC
350
5D8
  3
HIDETEXT
350
5D9
  3
MSLTSCALE
350
5DD
  3
PSOLHEIGHT
350
5D3
  3
PSOLWIDTH
350
5D2
  0
XRECORD
  5
5DB
102
{ACAD_REACTORS
330
5DA
102
}
330
5DA
100
AcDbXrecord
102
VTR_0.000_0.000_1.000_1.000_VISUALSTYLE
340
2F
102
VTR_0.000_0.000_1.000_1.000_GRIDDISPLAY
 70
     3
102
VTR_0.000_0.000_1.000_1.000_GRIDMAJOR
 70
     5
102
VTR_0.000_0.000_1.000_1.000_DEFAULTLIGHTING
280
     1
102
VTR_0.000_0.000_1.000_1.000_DEFAULTLIGHTINGTYPE
 70
     1
102
VTR_0.000_0.000_1.000_1.000_BRIGHTNESS
141
0.0
102
VTR_0.000_0.000_1.000_1.000_CONTRAST
142
0.0
  0
MATERIAL
  5
45
102
{ACAD_REACTORS
330
43
102
}
102
{ACAD_XDICTIONARY
360
5E0
102
}
330
43
100
AcDbMaterial
  1
BYBLOCK
  0
MATERIAL
  5
44
102
{ACAD_REACTORS
330
43
102
}
102
{ACAD_XDICTIONARY
360
5DE
102
}
330
43
100
AcDbMaterial
  1
BYLAYER
  0
MATERIAL
  5
46
102
{ACAD_REACTORS
330
43
102
}
102
{ACAD_XDICTIONARY
360
5E2
102
}
330
43
100
AcDbMaterial
  1
GLOBAL
  0
ACAD_PROXY_OBJECT
  5
6C
102
{ACAD_REACTORS
330
6B
102
}
330
6B
100
AcDbProxyObject
 90
      499
 91
      505
 93
      610
310
40901902A4063FBFFFFFE0000000000000020400000000000020404214DD185B99185C990000000000000104090141901A00000000000004100000000000000041025764000000000000039000
340
14
340
0
340
11
340
0
 94
        0
1001
ACAD_MLEADERVER
1070
     2
  0
MLINESTYLE
  5
18
102
{ACAD_REACTORS
330
17
102
}
330
17
100
AcDbMlineStyle
  2
Standard
 70
     0
  3

 62
   256
 51
90.0
 52
90.0
 71
     2
 49
0.5
 62
   256
  6
BYLAYER
 49
-0.5
 62
   256
  6
BYLAYER
  0
ACAD_PROXY_OBJECT
  5
48
102
{ACAD_REACTORS
330
47
102
}
330
47
100
AcDbProxyObject
 90
      499
 91
      503
 93
       41
310
903313A31580
  0
ACAD_PROXY_OBJECT
  5
49
102
{ACAD_REACTORS
330
47
102
}
330
47
100
AcDbProxyObject
 90
      499
 91
      503
 93
      105
310
903313A324000000000000004000
  0
ACAD_PROXY_OBJECT
  5
4A
102
{ACAD_REACTORS
330
47
102
}
330
47
100
AcDbProxyObject
 90
      499
 91
      503
 93
      105
310
903313A344000000000000104000
  0
ACAD_PROXY_OBJECT
  5
4B
102
{ACAD_REACTORS
330
47
102
}
330
47
100
AcDbProxyObject
 90
      499
 91
      503
 93
      105
310
903313A354000000000000144000
  0
ACAD_PROXY_OBJECT
  5
4C
102
{ACAD_REACTORS
330
47
102
}
330
47
100
AcDbProxyObject
 90
      499
 91
      503
 93
      105
310
903313A384000000000000204000
  0
ACAD_PROXY_OBJECT
  5
4D
102
{ACAD_REACTORS
330
47
102
}
330
47
100
AcDbProxyObject
 90
      499
 91
      503
 93
      113
310
904313A31304000000000000244000
  0
ACAD_PROXY_OBJECT
  5
4E
102
{ACAD_REACTORS
330
47
102
}
330
47
100
AcDbProxyObject
 90
      499
 91
      503
 93
      113
310
904313A31364000000000000304000
  0
ACAD_PROXY_OBJECT
  5
4F
102
{ACAD_REACTORS
330
47
102
}
330
47
100
AcDbProxyObject
 90
      499
 91
      503
 93
      113
310
904313A32304000000000000344000
  0
ACAD_PROXY_OBJECT
  5
50
102
{ACAD_REACTORS
330
47
102
}
330
47
100
AcDbProxyObject
 90
      499
 91
      503
 93
      113
310
904313A333040000000000003E4000
  0
ACAD_PROXY_OBJECT
  5
51
102
{ACAD_REACTORS
330
47
102
}
330
47
100
AcDbProxyObject
 90
      499
 91
      503
 93
      113
310
904313A34304000000000000444000
  0
ACAD_PROXY_OBJECT
  5
52
102
{ACAD_REACTORS
330
47
102
}
330
47
100
AcDbProxyObject
 90
      499
 91
      503
 93
      113
310
904313A35304000000000000494000
  0
ACAD_PROXY_OBJECT
  5
53
102
{ACAD_REACTORS
330
47
102
}
330
47
100
AcDbProxyObject
 90
      499
 91
      503
 93
      121
310
905313A3130304000000000000594000
  0
ACAD_PROXY_OBJECT
  5
54
102
{ACAD_REACTORS
330
47
102
}
330
47
100
AcDbProxyObject
 90
      499
 91
      503
 93
      105
310
903323A310000000000000010100
  0
ACAD_PROXY_OBJECT
  5
55
102
{ACAD_REACTORS
330
47
102
}
330
47
100
AcDbProxyObject
 90
      499
 91
      503
 93
      105
310
903343A310000000000000410100
  0
ACAD_PROXY_OBJECT
  5
56
102
{ACAD_REACTORS
330
47
102
}
330
47
100
AcDbProxyObject
 90
      499
 91
      503
 93
      105
310
903383A310000000000000810100
  0
ACAD_PROXY_OBJECT
  5
57
102
{ACAD_REACTORS
330
47
102
}
330
47
100
AcDbProxyObject
 90
      499
 91
      503
 93
      113
310
90431303A310000000000000910100
  0
ACAD_PROXY_OBJECT
  5
58
102
{ACAD_REACTORS
330
47
102
}
330
47
100
AcDbProxyObject
 90
      499
 91
      503
 93
      121
310
9053130303A310000000000001650100
  0
ACAD_PROXY_OBJECT
  5
59
102
{ACAD_REACTORS
330
47
102
}
330
47
100
AcDbProxyObject
 90
      499
 91
      503
 93
      257
310
90E312F31323822203D2031272D3022000000000000200FC000000000000284000
  0
ACAD_PROXY_OBJECT
  5
5A
102
{ACAD_REACTORS
330
47
102
}
330
47
100
AcDbProxyObject
 90
      499
 91
      503
 93
      249
310
90D312F363422203D2031272D3022000000000000240FC000000000000284000
  0
ACAD_PROXY_OBJECT
  5
5B
102
{ACAD_REACTORS
330
47
102
}
330
47
100
AcDbProxyObject
 90
      499
 91
      503
 93
      249
310
90D312F333222203D2031272D3022000000000000280FC000000000000284000
  0
ACAD_PROXY_OBJECT
  5
5C
102
{ACAD_REACTORS
330
47
102
}
330
47
100
AcDbProxyObject
 90
      499
 91
      503
 93
      249
310
90D312F313622203D2031272D30220000000000002C0FC000000000000284000
  0
ACAD_PROXY_OBJECT
  5
5D
102
{ACAD_REACTORS
330
47
102
}
330
47
100
AcDbProxyObject
 90
      499
 91
      503
 93
      249
310
90D332F333222203D2031272D30220000000000002E0FC000000000000284000
  0
ACAD_PROXY_OBJECT
  5
5E
102
{ACAD_REACTORS
330
47
102
}
330
47
100
AcDbProxyObject
 90
      499
 91
      503
 93
      241
310
90C312F3822203D2031272D3022000000000000300FC000000000000284000
  0
ACAD_PROXY_OBJECT
  5
5F
102
{ACAD_REACTORS
330
47
102
}
330
47
100
AcDbProxyObject
 90
      499
 91
      503
 93
      249
310
90D332F313622203D2031272D3022000000000000320FC000000000000284000
  0
ACAD_PROXY_OBJECT
  5
60
102
{ACAD_REACTORS
330
47
102
}
330
47
100
AcDbProxyObject
 90
      499
 91
      503
 93
      241
310
90C312F3422203D2031272D3022000000000000340FC000000000000284000
  0
ACAD_PROXY_OBJECT
  5
61
102
{ACAD_REACTORS
330
47
102
}
330
47
100
AcDbProxyObject
 90
      499
 91
      503
 93
      241
310
90C332F3822203D2031272D3022000000000000360FC000000000000284000
  0
ACAD_PROXY_OBJECT
  5
62
102
{ACAD_REACTORS
330
47
102
}
330
47
100
AcDbProxyObject
 90
      499
 91
      503
 93
      241
310
90C312F3222203D2031272D3022000000000000380FC000000000000284000
  0
ACAD_PROXY_OBJECT
  5
63
102
{ACAD_REACTORS
330
47
102
}
330
47
100
AcDbProxyObject
 90
      499
 91
      503
 93
      241
310
90C332F3422203D2031272D30220000000000003A0FC000000000000284000
  0
ACAD_PROXY_OBJECT
  5
64
102
{ACAD_REACTORS
330
47
102
}
330
47
100
AcDbProxyObject
 90
      499
 91
      503
 93
      161
310
90A3122203D2031272D30224000000000000284000
  0
ACAD_PROXY_OBJECT
  5
65
102
{ACAD_REACTORS
330
47
102
}
330
47
100
AcDbProxyObject
 90
      499
 91
      503
 93
      257
310
90E312D312F3222203D2031272D30220000000000003E0FC000000000000284000
  0
ACAD_PROXY_OBJECT
  5
66
102
{ACAD_REACTORS
330
47
102
}
330
47
100
AcDbProxyObject
 90
      499
 91
      503
 93
      225
310
90A3322203D2031272D302200000000000002100000000000000284000
  0
ACAD_PROXY_OBJECT
  5
67
102
{ACAD_REACTORS
330
47
102
}
330
47
100
AcDbProxyObject
 90
      499
 91
      503
 93
      225
310
90A3622203D2031272D302200000000000006100000000000000284000
  0
ACAD_PROXY_OBJECT
  5
68
102
{ACAD_REACTORS
330
47
102
}
330
47
100
AcDbProxyObject
 90
      499
 91
      503
 93
      249
310
90D31272D3022203D2031272D30220000000000000A100000000000000284000
  0
ACAD_PROXY_OBJECT
  5
2F
102
{ACAD_REACTORS
330
2A
102
}
330
2A
100
AcDbProxyObject
 90
      499
 91
      501
 93
      436
310
42CC9915DA5C99599C985B595049028333333333333E33F0000000000000F90107901411070040501600405405064090741402480A0340
1001
ACAD
1000
AcDbSavedByObjectVersion
1070
     0
  0
ACAD_PROXY_OBJECT
  5
32
102
{ACAD_REACTORS
330
2A
102
}
330
2A
100
AcDbProxyObject
 90
      499
 91
      501
 93
      388
310
4150985CDA58D07406404333333333333E33F0000000000000F90107A41107004050150841D405064090741402480A0350
1001
ACAD
1000
AcDbSavedByObjectVersion
1070
     0
  0
ACAD_PROXY_OBJECT
  5
36
102
{ACAD_REACTORS
330
2A
102
}
330
2A
100
AcDbProxyObject
 90
      499
 91
      501
 93
      428
310
42109C9A59DA1D195B90C409028333333333333E33F0000000000000F9010790141107004050150841D405064090741402480A029950
1001
ACAD
1000
AcDbSavedByObjectVersion
1070
     0
  0
ACAD_PROXY_OBJECT
  5
3A
102
{ACAD_REACTORS
330
2A
102
}
330
2A
100
AcDbProxyObject
 90
      499
 91
      501
 93
      452
310
42D0DBDB1BDC90DA185B99D95104090240C333333333333E33F0000000000000F90108901411070040501508421405064090741402480A0350
1001
ACAD
1000
AcDbSavedByObjectVersion
1070
     0
  0
ACAD_PROXY_OBJECT
  5
34
102
{ACAD_REACTORS
330
2A
102
}
330
2A
100
AcDbProxyObject
 90
      499
 91
      501
 93
      500
310
4290DBDB98D95C1D1D585B10940D028333333333333E33F0000000000000F90107902409070040501000000000018199010841D405064090740C02480A0340
1001
ACAD
1000
AcDbSavedByObjectVersion
1070
     0
  0
ACAD_PROXY_OBJECT
  5
35
102
{ACAD_REACTORS
330
2A
102
}
330
2A
100
AcDbProxyObject
 90
      499
 91
      501
 93
      412
310
40D11A5B50B409028333333333333E33F0000000000000F9010790141107004050150841D405064090741402480A02677FFFFFD0
1001
ACAD
1000
AcDbSavedByObjectVersion
1070
     0
  0
ACAD_PROXY_OBJECT
  5
3D
102
{ACAD_REACTORS
330
2A
102
}
330
2A
100
AcDbProxyObject
 90
      499
 91
      501
 93
      452
310
43115919D950DBDB1BDC93D999916409028333333333333E33F0000000000000F9010790141107004050150841D405064090741402480A0350
1001
ACAD
1000
AcDbSavedByObjectVersion
1070
     0
  0
ACAD_PROXY_OBJECT
  5
39
102
{ACAD_REACTORS
330
2A
102
}
330
2A
100
AcDbProxyObject
 90
      499
 91
      501
 93
      444
310
42D19858D95C185D1D195C9B90F409028333333333333E33F0000000000000F9010790141107004050150841D405064090741402480A0350
1001
ACAD
1000
AcDbSavedByObjectVersion
1070
     0
  0
ACAD_PROXY_OBJECT
  5
2B
102
{ACAD_REACTORS
330
2A
102
}
330
2A
100
AcDbProxyObject
 90
      499
 91
      501
 93
      380
310
41119B185D240901404333333333333E33F0000000000000F9010740A907004050150841D405064090741402480A1B50
1001
ACAD
1000
AcDbSavedByObjectVersion
1070
     0
  0
ACAD_PROXY_OBJECT
  5
2C
102
{ACAD_REACTORS
330
2A
102
}
330
2A
100
AcDbProxyObject
 90
      499
 91
      501
 93
      468
310
43519B185D15DA5D1A115919D95CD0140901404333333333333E33F0000000000000F90107409019070040501600405405064090741402480A1B50
1001
ACAD
1000
AcDbSavedByObjectVersion
1070
     0
  0
ACAD_PROXY_OBJECT
  5
2D
102
{ACAD_REACTORS
330
2A
102
}
330
2A
100
AcDbProxyObject
 90
      499
 91
      501
 93
      404
310
41D1DBDD5C985D5910240902404333333333333E33F0000000000000F9010740A9070040501641D405064090741402480A1B50
1001
ACAD
1000
AcDbSavedByObjectVersion
1070
     0
  0
ACAD_PROXY_OBJECT
  5
2E
102
{ACAD_REACTORS
330
2A
102
}
330
2A
100
AcDbProxyObject
 90
      499
 91
      501
 93
      492
310
4411DBDD5C985D5915DA5D1A115919D95CD0340902404333333333333E33F0000000000000F90107409019070040501600405405064090741402480A1B50
1001
ACAD
1000
AcDbSavedByObjectVersion
1070
     0
  0
ACAD_PROXY_OBJECT
  5
31
102
{ACAD_REACTORS
330
2A
102
}
330
2A
100
AcDbProxyObject
 90
      499
 91
      501
 93
      476
310
41921A5919195B90640502408333333333333E33F0000000000000F901079024090700405020000000000001110200405405064090740C02480A0340
1001
ACAD
1000
AcDbSavedByObjectVersion
1070
     0
  0
ACAD_PROXY_OBJECT
  5
3B
102
{ACAD_REACTORS
330
2A
102
}
330
2A
100
AcDbProxyObject
 90
      499
 91
      501
 93
      428
310
42529A5D1D195C93D999914409028333333333333E33F0000000000000F9010790141107004050150A41D405064090741402480A0350
1001
ACAD
1000
AcDbSavedByObjectVersion
1070
     0
  0
ACAD_PROXY_OBJECT
  5
38
102
{ACAD_REACTORS
330
2A
102
}
330
2A
100
AcDbProxyObject
 90
      499
 91
      501
 93
      444
310
42D31A5B995C185D1D195C9B90E409028333333333333E33F0000000000000F9010790141107004050750841D405064090741402483A0350
1001
ACAD
1000
AcDbSavedByObjectVersion
1070
     0
  0
ACAD_PROXY_OBJECT
  5
3C
102
{ACAD_REACTORS
330
2A
102
}
330
2A
100
AcDbProxyObject
 90
      499
 91
      501
 93
      444
310
42D3DD995C9A185B99D3D999915409028333333333333E33F0000000000000F9010790141107004050150941D405064090741402480A0350
1001
ACAD
1000
AcDbSavedByObjectVersion
1070
     0
  0
ACAD_PROXY_OBJECT
  5
33
102
{ACAD_REACTORS
330
2A
102
}
330
2A
100
AcDbProxyObject
 90
      499
 91
      501
 93
      428
310
425499585B1A5CDD1A58D08409038333333333333E33F0000000000000F9010740A907004050150800405405064090740C02480A1B40
1001
ACAD
1000
AcDbSavedByObjectVersion
1070
     0
  0
ACAD_PROXY_OBJECT
  5
42
102
{ACAD_REACTORS
330
2A
102
}
330
2A
100
AcDbProxyObject
 90
      499
 91
      501
 93
      420
310
4194DA1859195911B40902404333333333333E33F0000000000000F9010740A41107004050150800405405064090840C02480A0B40
1001
ACAD
1000
AcDbSavedByObjectVersion
1070
     0
  0
ACAD_PROXY_OBJECT
  5
41
102
{ACAD_REACTORS
330
2A
102
}
330
2A
100
AcDbProxyObject
 90
      499
 91
      501
 93
      516
310
4454DA18591959081DDA5D1A08195919D95CD1A40902404333333333333E33F0000000000000F901074090142907004050250800405405064090740C02480A0B40
1001
ACAD
1000
AcDbSavedByObjectVersion
1070
     0
  0
ACAD_PROXY_OBJECT
  5
3E
102
{ACAD_REACTORS
330
2A
102
}
330
2A
100
AcDbProxyObject
 90
      499
 91
      501
 93
      532
310
4394DA1859195CC81BD98811DC985E5174090240C333333333333E33F0000000000000F901079024090741D01000000000000111010841D405064090740C02480A0340
1001
ACAD
1000
AcDbSavedByObjectVersion
1070
     0
  0
ACAD_PROXY_OBJECT
  5
3F
102
{ACAD_REACTORS
330
2A
102
}
330
2A
100
AcDbProxyObject
 90
      499
 91
      501
 93
      476
310
41D4DAD95D18DA1E51840502408333333333333E33F0000000000000F901079024090741D01000000000000111010B41D405064090741802480A0340
1001
ACAD
1000
AcDbSavedByObjectVersion
1070
     0
  0
ACAD_PROXY_OBJECT
  5
37
102
{ACAD_REACTORS
330
2A
102
}
330
2A
100
AcDbProxyObject
 90
      499
 91
      501
 93
      412
310
41D51A1A58DAD95B90D409028333333333333E33F0000000000000F9010790141107004050150C41D405064090741402480A0350
1001
ACAD
1000
AcDbSavedByObjectVersion
1070
     0
  0
ACAD_PROXY_OBJECT
  5
30
102
{ACAD_REACTORS
330
2A
102
}
330
2A
100
AcDbProxyObject
 90
      499
 91
      501
 93
      420
310
4255DA5C99599C985B595059028333333333333E33F0000000000000F90107901411070040501600405405064090740C02480A0340
1001
ACAD
1000
AcDbSavedByObjectVersion
1070
     0
  0
ACAD_PROXY_OBJECT
  5
40
102
{ACAD_REACTORS
330
2A
102
}
330
2A
100
AcDbProxyObject
 90
      499
 91
      501
 93
      404
310
41560B54985E51940902404000000000000E03F0000000000000F9010740501907004050150841D405064090740C02480A1B40
1001
ACAD
1000
AcDbSavedByObjectVersion
1070
     0
  0
XRECORD
  5
5B8
102
{ACAD_REACTORS
330
5AE
102
}
330
5AE
100
AcDbXrecord
340
0
  0
XRECORD
  5
5B7
102
{ACAD_REACTORS
330
5AE
102
}
330
5AE
100
AcDbXrecord
 90
        0
  0
XRECORD
  5
5CE
102
{ACAD_REACTORS
330
5AE
102
}
330
5AE
100
AcDbXrecord
1000
DSTYLE
1002
{
1070
   340
340
11
1002
}
  0
XRECORD
  5
5B9
102
{ACAD_REACTORS
330
5AE
102
}
330
5AE
100
AcDbXrecord
  1
{87ae4607-b17e-42c2-9ca1-4f16bff7f723}
  0
XRECORD
  5
5B1
102
{ACAD_REACTORS
330
5AE
102
}
330
5AE
100
AcDbXrecord
  1

  0
XRECORD
  5
5B6
102
{ACAD_REACTORS
330
5AE
102
}
330
5AE
100
AcDbXrecord
 90
        4
  0
XRECORD
  5
5B3
102
{ACAD_REACTORS
330
5AE
102
}
330
5AE
100
AcDbXrecord
340
1A
  0
XRECORD
  5
5B5
102
{ACAD_REACTORS
330
5AE
102
}
330
5AE
100
AcDbXrecord
 90
    10781
  0
XRECORD
  5
5B4
102
{ACAD_REACTORS
330
5AE
102
}
330
5AE
100
AcDbXrecord
340
19
  0
XRECORD
  5
5BB
102
{ACAD_REACTORS
330
5AE
102
}
330
5AE
100
AcDbXrecord
 40
0.0
  0
XRECORD
  5
5BE
102
{ACAD_REACTORS
330
5AE
102
}
330
5AE
100
AcDbXrecord
340
0
  0
XRECORD
  5
5C4
102
{ACAD_REACTORS
330
5AE
102
}
330
5AE
100
AcDbXrecord
 10
0.0
 20
0.0
 30
0.0
  0
XRECORD
  5
5C0
102
{ACAD_REACTORS
330
5AE
102
}
330
5AE
100
AcDbXrecord
 10
0.0
 20
0.0
 30
0.0
  0
XRECORD
  5
5C3
102
{ACAD_REACTORS
330
5AE
102
}
330
5AE
100
AcDbXrecord
 10
0.0
 20
0.0
 30
0.0
  0
XRECORD
  5
5C1
102
{ACAD_REACTORS
330
5AE
102
}
330
5AE
100
AcDbXrecord
 10
0.0
 20
0.0
 30
0.0
  0
XRECORD
  5
5C2
102
{ACAD_REACTORS
330
5AE
102
}
330
5AE
100
AcDbXrecord
 10
0.0
 20
0.0
 30
0.0
  0
XRECORD
  5
5BF
102
{ACAD_REACTORS
330
5AE
102
}
330
5AE
100
AcDbXrecord
 10
0.0
 20
0.0
 30
0.0
  0
XRECORD
  5
5BC
102
{ACAD_REACTORS
330
5AE
102
}
330
5AE
100
AcDbXrecord
340
0
  0
XRECORD
  5
5BD
102
{ACAD_REACTORS
330
5AE
102
}
330
5AE
100
AcDbXrecord
 70
     0
  0
XRECORD
  5
5B2
102
{ACAD_REACTORS
330
5AE
102
}
330
5AE
100
AcDbXrecord
  1

  0
XRECORD
  5
5AF
102
{ACAD_REACTORS
330
5AE
102
}
330
5AE
100
AcDbXrecord
 90
        1
  0
XRECORD
  5
5B0
102
{ACAD_REACTORS
330
5AE
102
}
330
5AE
100
AcDbXrecord
 90
       70
  0
XRECORD
  5
5C7
102
{ACAD_REACTORS
330
5AE
102
}
330
5AE
100
AcDbXrecord
340
0
  0
XRECORD
  5
5CD
102
{ACAD_REACTORS
330
5AE
102
}
330
5AE
100
AcDbXrecord
 10
0.0
 20
0.0
 30
0.0
  0
XRECORD
  5
5C9
102
{ACAD_REACTORS
330
5AE
102
}
330
5AE
100
AcDbXrecord
 10
0.0
 20
0.0
 30
0.0
  0
XRECORD
  5
5CC
102
{ACAD_REACTORS
330
5AE
102
}
330
5AE
100
AcDbXrecord
 10
0.0
 20
0.0
 30
0.0
  0
XRECORD
  5
5CA
102
{ACAD_REACTORS
330
5AE
102
}
330
5AE
100
AcDbXrecord
 10
0.0
 20
0.0
 30
0.0
  0
XRECORD
  5
5CB
102
{ACAD_REACTORS
330
5AE
102
}
330
5AE
100
AcDbXrecord
 10
0.0
 20
0.0
 30
0.0
  0
XRECORD
  5
5C8
102
{ACAD_REACTORS
330
5AE
102
}
330
5AE
100
AcDbXrecord
 10
0.0
 20
0.0
 30
0.0
  0
XRECORD
  5
5C5
102
{ACAD_REACTORS
330
5AE
102
}
330
5AE
100
AcDbXrecord
340
0
  0
XRECORD
  5
5C6
102
{ACAD_REACTORS
330
5AE
102
}
330
5AE
100
AcDbXrecord
 70
     0
  0
XRECORD
  5
5BA
102
{ACAD_REACTORS
330
5AE
102
}
330
5AE
100
AcDbXrecord
  1
{FAEB1C32-E019-11D5-929B-00C0DF256EC4}
  0
DICTIONARYVAR
  5
5DC
102
{ACAD_REACTORS
330
5CF
102
}
330
5CF
100
DictionaryVariables
280
     0
  1
1:1
  0
DICTIONARYVAR
  5
5D6
102
{ACAD_REACTORS
330
5CF
102
}
330
5CF
100
DictionaryVariables
280
     0
  1
3.500000
  0
DICTIONARYVAR
  5
5D7
102
{ACAD_REACTORS
330
5CF
102
}
330
5CF
100
DictionaryVariables
280
     0
  1
acadiso.lin
  0
DICTIONARYVAR
  5
5D1
102
{ACAD_REACTORS
330
5CF
102
}
330
5CF
100
DictionaryVariables
280
     0
  1
Standard
  0
DICTIONARYVAR
  5
5D0
102
{ACAD_REACTORS
330
5CF
102
}
330
5CF
100
DictionaryVariables
280
     0
  1
Standard
  0
DICTIONARYVAR
  5
5D8
102
{ACAD_REACTORS
330
5CF
102
}
330
5CF
100
DictionaryVariables
280
     0
  1
2
  0
DICTIONARYVAR
  5
5D9
102
{ACAD_REACTORS
330
5CF
102
}
330
5CF
100
DictionaryVariables
280
     0
  1
1
  0
DICTIONARYVAR
  5
5DD
102
{ACAD_REACTORS
330
5CF
102
}
330
5CF
100
DictionaryVariables
280
     0
  1
1
  0
DICTIONARYVAR
  5
5D3
102
{ACAD_REACTORS
330
5CF
102
}
330
5CF
100
DictionaryVariables
280
     0
  1
80.000000
  0
DICTIONARYVAR
  5
5D2
102
{ACAD_REACTORS
330
5CF
102
}
330
5CF
100
DictionaryVariables
280
     0
  1
5.000000
  0
DICTIONARY
  5
5E0
330
45
100
AcDbDictionary
280
     1
  3
ACAD_XREC_ROUNDTRIP
360
5E1
  0
DICTIONARY
  5
5DE
330
44
100
AcDbDictionary
280
     1
  3
ACAD_XREC_ROUNDTRIP
360
5DF
  0
DICTIONARY
  5
5E2
330
46
100
AcDbDictionary
280
     1
  3
ACAD_XREC_ROUNDTRIP
360
5E3
  0
XRECORD
  5
5E1
102
{ACAD_REACTORS
330
5E0
102
}
330
5E0
100
AcDbXrecord
102
MATERIAL
148
0.0
149
0.0
149
0.0
 93
        0
 94
      127
282
     0
 72
     1
 77
     1
171
     1
175
     1
179
     1
273
     0
  0
XRECORD
  5
5DF
102
{ACAD_REACTORS
330
5DE
102
}
330
5DE
100
AcDbXrecord
102
MATERIAL
148
0.0
149
0.0
149
0.0
 93
        0
 94
      127
282
     0
 72
     1
 77
     1
171
     1
175
     1
179
     1
273
     0
  0
XRECORD
  5
5E3
102
{ACAD_REACTORS
330
5E2
102
}
330
5E2
100
AcDbXrecord
102
MATERIAL
148
0.0
149
0.0
149
0.0
 93
        0
 94
      127
282
     0
 72
     1
 77
     1
171
     1
175
     1
179
     1
273
     0
  0
ENDSEC
  0
EOF
