  0
SECTION
  2
HEADER
  9
$ACADVER
  1
AC1014
  9
$ACADMAINTVER
 70
     9
  9
$DWGCODEPAGE
  3
ANSI_932
  9
$INSBASE
 10
0.0
 20
0.0
 30
0.0
  9
$EXTMIN
 10
20.0
 20
40.0
 30
0.0
  9
$EXTMAX
 10
1540.0
 20
1120.0
 30
0.0
  9
$LIMMIN
 10
0.0
 20
0.0
  9
$LIMMAX
 10
420.0
 20
297.0
  9
$ORTHOMODE
 70
     0
  9
$REGENMODE
 70
     1
  9
$FILLMODE
 70
     1
  9
$QTEXTMODE
 70
     0
  9
$MIRRTEXT
 70
     1
  9
$DRAGMODE
 70
     2
  9
$LTSCALE
 40
0.2
  9
$OSMODE
 70
    37
  9
$ATTMODE
 70
     1
  9
$TEXTSIZE
 40
2.5
  9
$TRACEWID
 40
1.0
  9
$TEXTSTYLE
  7
STANDARD
  9
$CLAYER
  8
LAY-10
  9
$CELTYPE
  6
BYLAYER
  9
$CECOLOR
 62
   256
  9
$CELTSCALE
 40
1.0
  9
$DELOBJ
 70
     1
  9
$DISPSILH
 70
     0
  9
$DIMSCALE
 40
1.0
  9
$DIMASZ
 40
2.5
  9
$DIMEXO
 40
0.625
  9
$DIMDLI
 40
3.75
  9
$DIMRND
 40
0.0
  9
$DIMDLE
 40
0.0
  9
$DIMEXE
 40
1.25
  9
$DIMTP
 40
0.0
  9
$DIMTM
 40
0.0
  9
$DIMTXT
 40
2.5
  9
$DIMCEN
 40
2.5
  9
$DIMTSZ
 40
0.0
  9
$DIMTOL
 70
     0
  9
$DIMLIM
 70
     0
  9
$DIMTIH
 70
     0
  9
$DIMTOH
 70
     0
  9
$DIMSE1
 70
     0
  9
$DIMSE2
 70
     0
  9
$DIMTAD
 70
     1
  9
$DIMZIN
 70
     8
  9
$DIMBLK
  1

  9
$DIMASO
 70
     1
  9
$DIMSHO
 70
     1
  9
$DIMPOST
  1

  9
$DIMAPOST
  1

  9
$DIMALT
 70
     0
  9
$DIMALTD
 70
     3
  9
$DIMALTF
 40
0.03937007874016
  9
$DIMLFAC
 40
1.0
  9
$DIMTOFL
 70
     1
  9
$DIMTVP
 40
0.0
  9
$DIMTIX
 70
     0
  9
$DIMSOXD
 70
     0
  9
$DIMSAH
 70
     0
  9
$DIMBLK1
  1

  9
$DIMBLK2
  1

  9
$DIMSTYLE
  2
ISO-25
  9
$DIMCLRD
 70
     0
  9
$DIMCLRE
 70
     0
  9
$DIMCLRT
 70
     0
  9
$DIMTFAC
 40
1.0
  9
$DIMGAP
 40
0.625
  9
$DIMJUST
 70
     0
  9
$DIMSD1
 70
     0
  9
$DIMSD2
 70
     0
  9
$DIMTOLJ
 70
     0
  9
$DIMTZIN
 70
     8
  9
$DIMALTZ
 70
     0
  9
$DIMALTTZ
 70
     0
  9
$DIMFIT
 70
     3
  9
$DIMUPT
 70
     0
  9
$DIMUNIT
 70
     2
  9
$DIMDEC
 70
     2
  9
$DIMTDEC
 70
     2
  9
$DIMALTU
 70
     2
  9
$DIMALTTD
 70
     3
  9
$DIMTXSTY
  7
STANDARD
  9
$DIMAUNIT
 70
     0
  9
$LUNITS
 70
     2
  9
$LUPREC
 70
     4
  9
$SKETCHINC
 40
1.0
  9
$FILLETRAD
 40
10.0
  9
$AUNITS
 70
     0
  9
$AUPREC
 70
     0
  9
$MENU
  1
.
  9
$ELEVATION
 40
0.0
  9
$PELEVATION
 40
0.0
  9
$THICKNESS
 40
0.0
  9
$LIMCHECK
 70
     0
  9
$CHAMFERA
 40
0.0
  9
$CHAMFERB
 40
0.0
  9
$CHAMFERC
 40
0.0
  9
$CHAMFERD
 40
0.0
  9
$SKPOLY
 70
     0
  9
$TDCREATE
 40
2459794.579837558
  9
$TDUPDATE
 40
2459794.579838588
  9
$TDINDWG
 40
0.0000000116
  9
$TDUSRTIMER
 40
0.0000000116
  9
$USRTIMER
 70
     1
  9
$ANGBASE
 50
0.0
  9
$ANGDIR
 70
     0
  9
$PDMODE
 70
     0
  9
$PDSIZE
 40
0.0
  9
$PLINEWID
 40
0.0
  9
$COORDS
 70
     1
  9
$SPLFRAME
 70
     0
  9
$SPLINETYPE
 70
     6
  9
$SPLINESEGS
 70
     8
  9
$ATTDIA
 70
     0
  9
$ATTREQ
 70
     1
  9
$HANDLING
 70
     1
  9
$HANDSEED
  5
509
  9
$SURFTAB1
 70
     6
  9
$SURFTAB2
 70
     6
  9
$SURFTYPE
 70
     6
  9
$SURFU
 70
     6
  9
$SURFV
 70
     6
  9
$UCSNAME
  2

  9
$UCSORG
 10
0.0
 20
0.0
 30
0.0
  9
$UCSXDIR
 10
1.0
 20
0.0
 30
0.0
  9
$UCSYDIR
 10
0.0
 20
1.0
 30
0.0
  9
$PUCSNAME
  2

  9
$PUCSORG
 10
0.0
 20
0.0
 30
0.0
  9
$PUCSXDIR
 10
1.0
 20
0.0
 30
0.0
  9
$PUCSYDIR
 10
0.0
 20
1.0
 30
0.0
  9
$USERI1
 70
     0
  9
$USERI2
 70
     0
  9
$USERI3
 70
     0
  9
$USERI4
 70
     0
  9
$USERI5
 70
     0
  9
$USERR1
 40
0.0
  9
$USERR2
 40
0.0
  9
$USERR3
 40
0.0
  9
$USERR4
 40
0.0
  9
$USERR5
 40
0.0
  9
$WORLDVIEW
 70
     1
  9
$SHADEDGE
 70
     3
  9
$SHADEDIF
 70
    70
  9
$TILEMODE
 70
     1
  9
$MAXACTVP
 70
    64
  9
$PINSBASE
 10
0.0
 20
0.0
 30
0.0
  9
$PLIMCHECK
 70
     0
  9
$PEXTMIN
 10
1.000000000000000E+20
 20
1.000000000000000E+20
 30
1.000000000000000E+20
  9
$PEXTMAX
 10
-1.000000000000000E+20
 20
-1.000000000000000E+20
 30
-1.000000000000000E+20
  9
$PLIMMIN
 10
0.0
 20
0.0
  9
$PLIMMAX
 10
420.0
 20
297.0
  9
$UNITMODE
 70
     0
  9
$VISRETAIN
 70
     1
  9
$PLINEGEN
 70
     0
  9
$PSLTSCALE
 70
     1
  9
$TREEDEPTH
 70
  3020
  9
$PICKSTYLE
 70
     1
  9
$CMLSTYLE
  2
STANDARD
  9
$CMLJUST
 70
     0
  9
$CMLSCALE
 40
20.0
  9
$PROXYGRAPHICS
 70
     1
  9
$MEASUREMENT
 70
     1
  0
ENDSEC
  0
SECTION
  2
CLASSES
  0
CLASS
  1
ACDBDICTIONARYWDFLT
  2
AcDbDictionaryWithDefault
  3
ObjectDBX Classes
 90
        0
280
     0
281
     0
  0
CLASS
  1
VISUALSTYLE
  2
AcDbVisualStyle
  3
ObjectDBX Classes
 90
     4095
280
     0
281
     0
  0
CLASS
  1
MATERIAL
  2
AcDbMaterial
  3
ObjectDBX Classes
 90
     1153
280
     0
281
     0
  0
CLASS
  1
SCALE
  2
AcDbScale
  3
ObjectDBX Classes
 90
     1153
280
     0
281
     0
  0
CLASS
  1
TABLESTYLE
  2
AcDbTableStyle
  3
ObjectDBX Classes
 90
     4095
280
     0
281
     0
  0
CLASS
  1
MLEADERSTYLE
  2
AcDbMLeaderStyle
  3
ACDB_MLEADERSTYLE_CLASS
 90
     4095
280
     0
281
     0
  0
CLASS
  1
SUN
  2
AcDbSun
  3
SCENEOE
 90
     1153
280
     0
281
     0
  0
CLASS
  1
DICTIONARYVAR
  2
AcDbDictionaryVar
  3
ObjectDBX Classes
 90
        0
280
     0
281
     0
  0
CLASS
  1
XRECORD
  2
AcDbXrecord
  3
ObjectDBX Classes
 90
        0
280
     0
281
     0
  0
CLASS
  1
LWPOLYLINE
  2
AcDbPolyline
  3
ObjectDBX Classes
 90
        0
280
     0
281
     1
  0
CLASS
  1
HATCH
  2
AcDbHatch
  3
ObjectDBX Classes
 90
        0
280
     0
281
     1
  0
CLASS
  1
ACDBPLACEHOLDER
  2
AcDbPlaceHolder
  3
ObjectDBX Classes
 90
        0
280
     0
281
     0
  0
CLASS
  1
LAYOUT
  2
AcDbLayout
  3
ObjectDBX Classes
 90
        0
280
     0
281
     0
  0
ENDSEC
  0
SECTION
  2
TABLES
  0
TABLE
  2
VPORT
  5
8
102
{ACAD_XDICTIONARY
360
4FE
102
}
330
0
100
AcDbSymbolTable
 70
     1
  0
VPORT
  5
29
330
8
100
AcDbSymbolTableRecord
100
AcDbViewportTableRecord
  2
*ACTIVE
 70
     0
 10
0.0
 20
0.0
 11
1.0
 21
1.0
 12
780.0000000000001
 22
580.0
 13
0.0
 23
0.0
 14
10.0
 24
10.0
 15
10.0
 25
10.0
 16
0.0
 26
0.0
 36
1.0
 17
0.0
 27
0.0
 37
0.0
 40
1080.0
 41
1.407407407407408
 42
50.0
 43
0.0
 44
0.0
 50
0.0
 51
0.0
 71
     0
 72
  1000
 73
     1
 74
     3
 75
     0
 76
     0
 77
     0
 78
     0
  0
ENDTAB
  0
TABLE
  2
LTYPE
  5
5
330
0
100
AcDbSymbolTable
 70
     6
  0
LTYPE
  5
14
330
5
100
AcDbSymbolTableRecord
100
AcDbLinetypeTableRecord
  2
BYBLOCK
 70
     0
  3

 72
    65
 73
     0
 40
0.0
  0
LTYPE
  5
15
330
5
100
AcDbSymbolTableRecord
100
AcDbLinetypeTableRecord
  2
BYLAYER
 70
     0
  3

 72
    65
 73
     0
 40
0.0
  0
LTYPE
  5
16
330
5
100
AcDbSymbolTableRecord
100
AcDbLinetypeTableRecord
  2
CONTINUOUS
 70
     0
  3
Solid line
 72
    65
 73
     0
 40
0.0
  0
LTYPE
  5
6E
330
5
100
AcDbSymbolTableRecord
100
AcDbLinetypeTableRecord
  2
HIDDEN
 70
     0
  3
Hidden __ __ __ __ __ __ __ __ __ __ __ __ __ __
 72
    65
 73
     2
 40
9.524999999999999
 49
6.35
 74
     0
 49
-3.175
 74
     0
  0
LTYPE
  5
6F
330
5
100
AcDbSymbolTableRecord
100
AcDbLinetypeTableRecord
  2
CENTER
 70
     0
  3
Center ____ _ ____ _ ____ _ ____ _ ____ _ ____
 72
    65
 73
     4
 40
50.8
 49
31.75
 74
     0
 49
-6.35
 74
     0
 49
6.35
 74
     0
 49
-6.35
 74
     0
  0
LTYPE
  5
70
330
5
100
AcDbSymbolTableRecord
100
AcDbLinetypeTableRecord
  2
PHANTOM
 70
     0
  3
Phantom ______  __  __  ______  __  __  ______ 
 72
    65
 73
     6
 40
63.50000000000001
 49
31.75
 74
     0
 49
-6.35
 74
     0
 49
6.35
 74
     0
 49
-6.35
 74
     0
 49
6.35
 74
     0
 49
-6.35
 74
     0
  0
LTYPE
  5
71
330
5
100
AcDbSymbolTableRecord
100
AcDbLinetypeTableRecord
  2
ACAD_ISO06W100
 70
     0
  3
ISO long-dash triple-dot ____ ... ____ ... ____
 72
    65
 73
     8
 40
36.0
 49
24.0
 74
     0
 49
-3.0
 74
     0
 49
0.0
 74
     0
 49
-3.0
 74
     0
 49
0.0
 74
     0
 49
-3.0
 74
     0
 49
0.0
 74
     0
 49
-3.0
 74
     0
  0
LTYPE
  5
72
330
5
100
AcDbSymbolTableRecord
100
AcDbLinetypeTableRecord
  2
ACAD_ISO15W100
 70
     0
  3
ISO double-dash triple-dot __ __ . . . __ __ . .
 72
    65
 73
    10
 40
39.0
 49
12.0
 74
     0
 49
-3.0
 74
     0
 49
12.0
 74
     0
 49
-3.0
 74
     0
 49
0.0
 74
     0
 49
-3.0
 74
     0
 49
0.0
 74
     0
 49
-3.0
 74
     0
 49
0.0
 74
     0
 49
-3.0
 74
     0
  0
ENDTAB
  0
TABLE
  2
LAYER
  5
2
330
0
100
AcDbSymbolTable
 70
     5
  0
LAYER
  5
10
330
2
100
AcDbSymbolTableRecord
100
AcDbLayerTableRecord
  2
0
 70
     0
 62
     7
  6
CONTINUOUS
  0
LAYER
  5
75
330
2
100
AcDbSymbolTableRecord
100
AcDbLayerTableRecord
  2
LAY-10
 70
     0
 62
     7
  6
CONTINUOUS
  0
LAYER
  5
76
330
2
100
AcDbSymbolTableRecord
100
AcDbLayerTableRecord
  2
LAY-20
 70
     0
 62
     7
  6
CONTINUOUS
  0
LAYER
  5
77
330
2
100
AcDbSymbolTableRecord
100
AcDbLayerTableRecord
  2
LAY-255
 70
     0
 62
     7
  6
CONTINUOUS
  0
LAYER
  5
104
330
2
100
AcDbSymbolTableRecord
100
AcDbLayerTableRecord
  2
DEFPOINTS
 70
     0
 62
     7
  6
CONTINUOUS
  0
ENDTAB
  0
TABLE
  2
STYLE
  5
3
330
0
100
AcDbSymbolTable
 70
     4
  0
STYLE
  5
11
330
3
100
AcDbSymbolTableRecord
100
AcDbTextStyleTableRecord
  2
STANDARD
 70
     0
 40
0.0
 41
1.0
 50
0.0
 71
     0
 42
2.5
  3
simplex
  4
bigfont
  0
STYLE
  5
73
330
3
100
AcDbSymbolTableRecord
100
AcDbTextStyleTableRecord
  2
EXCADSTD
 70
     0
 40
0.0
 41
1.0
 50
0.0
 71
     0
 42
2.5
  3
simplex
  4
bigfont
  0
STYLE
  5
74
330
3
100
AcDbSymbolTableRecord
100
AcDbTextStyleTableRecord
  2
EXCADVERT
 70
     4
 40
0.0
 41
1.0
 50
0.0
 71
     0
 42
2.5
  3
simplex
  4
bigfont
  0
STYLE
  5
102
330
3
100
AcDbSymbolTableRecord
100
AcDbTextStyleTableRecord
  2
EXCADDIM1
 70
     0
 40
0.0
 41
0.84
 50
0.0
 71
     0
 42
2.5
  3
simplex
  4
bigfont
  0
ENDTAB
  0
TABLE
  2
VIEW
  5
6
330
0
100
AcDbSymbolTable
 70
     0
  0
ENDTAB
  0
TABLE
  2
UCS
  5
7
330
0
100
AcDbSymbolTable
 70
     0
  0
ENDTAB
  0
TABLE
  2
APPID
  5
9
330
0
100
AcDbSymbolTable
 70
     2
  0
APPID
  5
12
330
9
100
AcDbSymbolTableRecord
100
AcDbRegAppTableRecord
  2
ACAD
 70
     0
  0
APPID
  5
508
330
9
100
AcDbSymbolTableRecord
100
AcDbRegAppTableRecord
  2
ACAD_MLEADERVER
 70
     0
  0
ENDTAB
  0
TABLE
  2
DIMSTYLE
  5
A
330
0
100
AcDbSymbolTable
 70
     1
  0
DIMSTYLE
105
27
102
{ACAD_REACTORS
330
103
330
111
330
11E
330
12B
330
138
330
145
102
}
330
A
100
AcDbSymbolTableRecord
100
AcDbDimStyleTableRecord
  2
ISO-25
 70
     0
  3

  4

  5

  6

  7

 40
1.0
 41
2.5
 42
0.625
 43
3.75
 44
1.25
 45
0.0
 46
0.0
 47
0.0
 48
0.0
140
2.5
141
2.5
142
0.0
143
0.03937007874016
144
1.0
145
0.0
146
1.0
147
0.625
 71
     0
 72
     0
 73
     0
 74
     0
 75
     0
 76
     0
 77
     1
 78
     8
170
     0
171
     3
172
     1
173
     0
174
     0
175
     0
176
     0
177
     0
178
     0
270
     2
271
     2
272
     2
273
     2
274
     3
340
11
275
     0
280
     0
281
     0
282
     0
283
     0
284
     8
285
     0
286
     0
287
     5
288
     0
  0
ENDTAB
  0
TABLE
  2
BLOCK_RECORD
  5
1
330
0
100
AcDbSymbolTable
 70
    20
  0
BLOCK_RECORD
  5
1F
330
1
100
AcDbSymbolTableRecord
100
AcDbBlockTableRecord
  2
*MODEL_SPACE
  0
BLOCK_RECORD
  5
1B
330
1
100
AcDbSymbolTableRecord
100
AcDbBlockTableRecord
  2
*PAPER_SPACE
  0
BLOCK_RECORD
  5
78
330
1
100
AcDbSymbolTableRecord
100
AcDbBlockTableRecord
  2
EX_NORM
  0
BLOCK_RECORD
  5
7B
330
1
100
AcDbSymbolTableRecord
100
AcDbBlockTableRecord
  2
EX_BNORM
  0
BLOCK_RECORD
  5
7E
330
1
100
AcDbSymbolTableRecord
100
AcDbBlockTableRecord
  2
EX_BCIR
  0
BLOCK_RECORD
  5
81
330
1
100
AcDbSymbolTableRecord
100
AcDbBlockTableRecord
  2
EX_RCIVIL
  0
BLOCK_RECORD
  5
84
330
1
100
AcDbSymbolTableRecord
100
AcDbBlockTableRecord
  2
EX_SLANT
  0
BLOCK_RECORD
  5
87
330
1
100
AcDbSymbolTableRecord
100
AcDbBlockTableRecord
  2
EX_NONE
  0
BLOCK_RECORD
  5
8A
330
1
100
AcDbSymbolTableRecord
100
AcDbBlockTableRecord
  2
EX_CIVIL
  0
BLOCK_RECORD
  5
8D
330
1
100
AcDbSymbolTableRecord
100
AcDbBlockTableRecord
  2
EX_WCIR
  0
BLOCK_RECORD
  5
90
330
1
100
AcDbSymbolTableRecord
100
AcDbBlockTableRecord
  2
EX_WCIR2
  0
BLOCK_RECORD
  5
93
330
1
100
AcDbSymbolTableRecord
100
AcDbBlockTableRecord
  2
EX_WNORM
  0
BLOCK_RECORD
  5
96
330
1
100
AcDbSymbolTableRecord
100
AcDbBlockTableRecord
  2
EX_NNORM
  0
BLOCK_RECORD
  5
99
330
1
100
AcDbSymbolTableRecord
100
AcDbBlockTableRecord
  2
EX_BBOX
  0
BLOCK_RECORD
  5
9C
330
1
100
AcDbSymbolTableRecord
100
AcDbBlockTableRecord
  2
EX_WBOX
  0
BLOCK_RECORD
  5
9F
330
1
100
AcDbSymbolTableRecord
100
AcDbBlockTableRecord
  2
EX_INTEGRAL
  0
BLOCK_RECORD
  5
105
330
1
100
AcDbSymbolTableRecord
100
AcDbBlockTableRecord
  2
*D15
  0
BLOCK_RECORD
  5
112
330
1
100
AcDbSymbolTableRecord
100
AcDbBlockTableRecord
  2
*D16
  0
BLOCK_RECORD
  5
11F
330
1
100
AcDbSymbolTableRecord
100
AcDbBlockTableRecord
  2
*D17
  0
BLOCK_RECORD
  5
12C
330
1
100
AcDbSymbolTableRecord
100
AcDbBlockTableRecord
  2
*D18
  0
BLOCK_RECORD
  5
139
330
1
100
AcDbSymbolTableRecord
100
AcDbBlockTableRecord
  2
*D19
  0
BLOCK_RECORD
  5
146
330
1
100
AcDbSymbolTableRecord
100
AcDbBlockTableRecord
  2
*D20
  0
ENDTAB
  0
ENDSEC
  0
SECTION
  2
BLOCKS
  0
BLOCK
  5
20
330
1F
100
AcDbEntity
  8
0
100
AcDbBlockBegin
  2
*MODEL_SPACE
 70
     0
 10
0.0
 20
0.0
 30
0.0
  3
*MODEL_SPACE
  1

  0
ENDBLK
  5
21
330
1F
100
AcDbEntity
  8
0
100
AcDbBlockEnd
  0
BLOCK
  5
1C
330
1B
100
AcDbEntity
 67
     1
  8
0
100
AcDbBlockBegin
  2
*PAPER_SPACE
 70
     0
 10
0.0
 20
0.0
 30
0.0
  3
*PAPER_SPACE
  1

  0
ENDBLK
  5
1D
330
1B
100
AcDbEntity
 67
     1
  8
0
100
AcDbBlockEnd
  0
BLOCK
  5
79
330
78
100
AcDbEntity
  8
0
100
AcDbBlockBegin
  2
EX_NORM
 70
     0
 10
0.0
 20
0.0
 30
0.0
  3
EX_NORM
  1

  0
LINE
  5
A2
330
78
100
AcDbEntity
  8
0
  6
CONTINUOUS
 62
     0
100
AcDbLine
 10
0.0
 20
0.0
 30
0.0
 11
-1.0
 21
0.0
 31
0.0
  0
LINE
  5
A3
330
78
100
AcDbEntity
  8
0
  6
CONTINUOUS
 62
     0
100
AcDbLine
 10
0.0
 20
0.0
 30
0.0
 11
-1.0
 21
0.166666667
 31
0.0
  0
LINE
  5
A4
330
78
100
AcDbEntity
  8
0
  6
CONTINUOUS
 62
     0
100
AcDbLine
 10
0.0
 20
0.0
 30
0.0
 11
-1.0
 21
-0.166666667
 31
0.0
  0
ENDBLK
  5
7A
330
78
100
AcDbEntity
  8
0
100
AcDbBlockEnd
  0
BLOCK
  5
7C
330
7B
100
AcDbEntity
  8
0
100
AcDbBlockBegin
  2
EX_BNORM
 70
     0
 10
0.0
 20
0.0
 30
0.0
  3
EX_BNORM
  1

  0
LINE
  5
A5
330
7B
100
AcDbEntity
  8
0
  6
CONTINUOUS
 62
     0
100
AcDbLine
 10
0.0
 20
0.0
 30
0.0
 11
-1.0
 21
0.0
 31
0.0
  0
LINE
  5
A6
330
7B
100
AcDbEntity
  8
0
  6
CONTINUOUS
 62
     0
100
AcDbLine
 10
0.0
 20
0.0
 30
0.0
 11
-1.0
 21
0.166666667
 31
0.0
  0
LINE
  5
A7
330
7B
100
AcDbEntity
  8
0
  6
CONTINUOUS
 62
     0
100
AcDbLine
 10
0.0
 20
0.0
 30
0.0
 11
-1.0
 21
-0.166666667
 31
0.0
  0
LINE
  5
A8
330
7B
100
AcDbEntity
  8
0
  6
CONTINUOUS
 62
     0
100
AcDbLine
 10
0.0
 20
0.0
 30
0.0
 11
-1.0
 21
0.083333333
 31
0.0
  0
LINE
  5
A9
330
7B
100
AcDbEntity
  8
0
  6
CONTINUOUS
 62
     0
100
AcDbLine
 10
0.0
 20
0.0
 30
0.0
 11
-1.0
 21
-0.083333333
 31
0.0
  0
LINE
  5
AA
330
7B
100
AcDbEntity
  8
0
  6
CONTINUOUS
 62
     0
100
AcDbLine
 10
-1.0
 20
0.166666667
 30
0.0
 11
-1.0
 21
-0.166666667
 31
0.0
  0
ENDBLK
  5
7D
330
7B
100
AcDbEntity
  8
0
100
AcDbBlockEnd
  0
BLOCK
  5
7F
330
7E
100
AcDbEntity
  8
0
100
AcDbBlockBegin
  2
EX_BCIR
 70
     0
 10
0.0
 20
0.0
 30
0.0
  3
EX_BCIR
  1

  0
LINE
  5
AB
330
7E
100
AcDbEntity
  8
0
  6
CONTINUOUS
 62
     0
100
AcDbLine
 10
0.0
 20
0.0
 30
0.0
 11
-1.0
 21
0.0
 31
0.0
  0
CIRCLE
  5
AC
330
7E
100
AcDbEntity
  8
0
  6
CONTINUOUS
 62
     0
100
AcDbCircle
 10
0.0
 20
0.0
 30
0.0
 40
0.5
  0
CIRCLE
  5
AD
330
7E
100
AcDbEntity
  8
0
  6
CONTINUOUS
 62
     0
100
AcDbCircle
 10
0.0
 20
0.0
 30
0.0
 40
0.25
  0
ENDBLK
  5
80
330
7E
100
AcDbEntity
  8
0
100
AcDbBlockEnd
  0
BLOCK
  5
82
330
81
100
AcDbEntity
  8
0
100
AcDbBlockBegin
  2
EX_RCIVIL
 70
     0
 10
0.0
 20
0.0
 30
0.0
  3
EX_RCIVIL
  1

  0
LINE
  5
AE
330
81
100
AcDbEntity
  8
0
  6
CONTINUOUS
 62
     0
100
AcDbLine
 10
0.0
 20
0.0
 30
0.0
 11
-1.0
 21
0.0
 31
0.0
  0
LINE
  5
AF
330
81
100
AcDbEntity
  8
0
  6
CONTINUOUS
 62
     0
100
AcDbLine
 10
-1.0
 20
-0.25
 30
0.0
 11
0.0
 21
-0.25
 31
0.0
  0
LINE
  5
B0
330
81
100
AcDbEntity
  8
0
  6
CONTINUOUS
 62
     0
100
AcDbLine
 10
-1.0
 20
-0.125
 30
0.0
 11
0.0
 21
-0.125
 31
0.0
  0
ENDBLK
  5
83
330
81
100
AcDbEntity
  8
0
100
AcDbBlockEnd
  0
BLOCK
  5
85
330
84
100
AcDbEntity
  8
0
100
AcDbBlockBegin
  2
EX_SLANT
 70
     0
 10
0.0
 20
0.0
 30
0.0
  3
EX_SLANT
  1

  0
LINE
  5
B1
330
84
100
AcDbEntity
  8
0
  6
CONTINUOUS
 62
     0
100
AcDbLine
 10
0.0
 20
0.0
 30
0.0
 11
-1.0
 21
0.0
 31
0.0
  0
LINE
  5
B2
330
84
100
AcDbEntity
  8
0
  6
CONTINUOUS
 62
     0
100
AcDbLine
 10
0.707106781
 20
0.707106781
 30
0.0
 11
-0.707106781
 21
-0.707106781
 31
0.0
  0
ENDBLK
  5
86
330
84
100
AcDbEntity
  8
0
100
AcDbBlockEnd
  0
BLOCK
  5
88
330
87
100
AcDbEntity
  8
0
100
AcDbBlockBegin
  2
EX_NONE
 70
     0
 10
0.0
 20
0.0
 30
0.0
  3
EX_NONE
  1

  0
LINE
  5
B3
330
87
100
AcDbEntity
  8
0
  6
CONTINUOUS
 62
     0
100
AcDbLine
 10
0.0
 20
0.0
 30
0.0
 11
-1.0
 21
0.0
 31
0.0
  0
ENDBLK
  5
89
330
87
100
AcDbEntity
  8
0
100
AcDbBlockEnd
  0
BLOCK
  5
8B
330
8A
100
AcDbEntity
  8
0
100
AcDbBlockBegin
  2
EX_CIVIL
 70
     0
 10
0.0
 20
0.0
 30
0.0
  3
EX_CIVIL
  1

  0
LINE
  5
B4
330
8A
100
AcDbEntity
  8
0
  6
CONTINUOUS
 62
     0
100
AcDbLine
 10
0.0
 20
0.0
 30
0.0
 11
-1.0
 21
0.0
 31
0.0
  0
LINE
  5
B5
330
8A
100
AcDbEntity
  8
0
  6
CONTINUOUS
 62
     0
100
AcDbLine
 10
-1.0
 20
0.25
 30
0.0
 11
0.0
 21
0.25
 31
0.0
  0
LINE
  5
B6
330
8A
100
AcDbEntity
  8
0
  6
CONTINUOUS
 62
     0
100
AcDbLine
 10
-1.0
 20
0.125
 30
0.0
 11
0.0
 21
0.125
 31
0.0
  0
ENDBLK
  5
8C
330
8A
100
AcDbEntity
  8
0
100
AcDbBlockEnd
  0
BLOCK
  5
8E
330
8D
100
AcDbEntity
  8
0
100
AcDbBlockBegin
  2
EX_WCIR
 70
     0
 10
0.0
 20
0.0
 30
0.0
  3
EX_WCIR
  1

  0
LINE
  5
B7
330
8D
100
AcDbEntity
  8
0
  6
CONTINUOUS
 62
     0
100
AcDbLine
 10
0.0
 20
0.0
 30
0.0
 11
-1.0
 21
0.0
 31
0.0
  0
CIRCLE
  5
B8
330
8D
100
AcDbEntity
  8
0
  6
CONTINUOUS
 62
     0
100
AcDbCircle
 10
0.0
 20
0.0
 30
0.0
 40
0.5
  0
ENDBLK
  5
8F
330
8D
100
AcDbEntity
  8
0
100
AcDbBlockEnd
  0
BLOCK
  5
91
330
90
100
AcDbEntity
  8
0
100
AcDbBlockBegin
  2
EX_WCIR2
 70
     0
 10
0.0
 20
0.0
 30
0.0
  3
EX_WCIR2
  1

  0
LINE
  5
B9
330
90
100
AcDbEntity
  8
0
  6
CONTINUOUS
 62
     0
100
AcDbLine
 10
-0.5
 20
0.0
 30
0.0
 11
-1.0
 21
0.0
 31
0.0
  0
CIRCLE
  5
BA
330
90
100
AcDbEntity
  8
0
  6
CONTINUOUS
 62
     0
100
AcDbCircle
 10
0.0
 20
0.0
 30
0.0
 40
0.5
  0
ENDBLK
  5
92
330
90
100
AcDbEntity
  8
0
100
AcDbBlockEnd
  0
BLOCK
  5
94
330
93
100
AcDbEntity
  8
0
100
AcDbBlockBegin
  2
EX_WNORM
 70
     0
 10
0.0
 20
0.0
 30
0.0
  3
EX_WNORM
  1

  0
LINE
  5
BB
330
93
100
AcDbEntity
  8
0
  6
CONTINUOUS
 62
     0
100
AcDbLine
 10
-1.0
 20
0.0
 30
0.0
 11
-1.0
 21
0.0
 31
0.0
  0
LINE
  5
BC
330
93
100
AcDbEntity
  8
0
  6
CONTINUOUS
 62
     0
100
AcDbLine
 10
0.0
 20
0.0
 30
0.0
 11
-1.0
 21
0.166666667
 31
0.0
  0
LINE
  5
BD
330
93
100
AcDbEntity
  8
0
  6
CONTINUOUS
 62
     0
100
AcDbLine
 10
0.0
 20
0.0
 30
0.0
 11
-1.0
 21
-0.166666667
 31
0.0
  0
LINE
  5
BE
330
93
100
AcDbEntity
  8
0
  6
CONTINUOUS
 62
     0
100
AcDbLine
 10
-1.0
 20
0.166666667
 30
0.0
 11
-1.0
 21
-0.166666667
 31
0.0
  0
ENDBLK
  5
95
330
93
100
AcDbEntity
  8
0
100
AcDbBlockEnd
  0
BLOCK
  5
97
330
96
100
AcDbEntity
  8
0
100
AcDbBlockBegin
  2
EX_NNORM
 70
     0
 10
0.0
 20
0.0
 30
0.0
  3
EX_NNORM
  1

  0
LINE
  5
BF
330
96
100
AcDbEntity
  8
0
  6
CONTINUOUS
 62
     0
100
AcDbLine
 10
0.0
 20
0.0
 30
0.0
 11
-1.0
 21
0.0
 31
0.0
  0
LINE
  5
C0
330
96
100
AcDbEntity
  8
0
  6
CONTINUOUS
 62
     0
100
AcDbLine
 10
0.0
 20
0.0
 30
0.0
 11
-1.0
 21
0.166666667
 31
0.0
  0
LINE
  5
C1
330
96
100
AcDbEntity
  8
0
  6
CONTINUOUS
 62
     0
100
AcDbLine
 10
0.0
 20
0.0
 30
0.0
 11
-1.0
 21
-0.166666667
 31
0.0
  0
LINE
  5
C2
330
96
100
AcDbEntity
  8
0
  6
CONTINUOUS
 62
     0
100
AcDbLine
 10
-1.0
 20
0.166666667
 30
0.0
 11
-1.0
 21
-0.166666667
 31
0.0
  0
ENDBLK
  5
98
330
96
100
AcDbEntity
  8
0
100
AcDbBlockEnd
  0
BLOCK
  5
9A
330
99
100
AcDbEntity
  8
0
100
AcDbBlockBegin
  2
EX_BBOX
 70
     0
 10
0.0
 20
0.0
 30
0.0
  3
EX_BBOX
  1

  0
LINE
  5
C3
330
99
100
AcDbEntity
  8
0
  6
CONTINUOUS
 62
     0
100
AcDbLine
 10
0.0
 20
0.0
 30
0.0
 11
-1.0
 21
0.0
 31
0.0
  0
LINE
  5
C4
330
99
100
AcDbEntity
  8
0
  6
CONTINUOUS
 62
     0
100
AcDbLine
 10
-0.5
 20
0.5
 30
0.0
 11
0.5
 21
0.5
 31
0.0
  0
LINE
  5
C5
330
99
100
AcDbEntity
  8
0
  6
CONTINUOUS
 62
     0
100
AcDbLine
 10
0.5
 20
0.5
 30
0.0
 11
0.5
 21
-0.5
 31
0.0
  0
LINE
  5
C6
330
99
100
AcDbEntity
  8
0
  6
CONTINUOUS
 62
     0
100
AcDbLine
 10
0.5
 20
-0.5
 30
0.0
 11
-0.5
 21
-0.5
 31
0.0
  0
LINE
  5
C7
330
99
100
AcDbEntity
  8
0
  6
CONTINUOUS
 62
     0
100
AcDbLine
 10
-0.5
 20
-0.5
 30
0.0
 11
-0.5
 21
0.5
 31
0.0
  0
LINE
  5
C8
330
99
100
AcDbEntity
  8
0
  6
CONTINUOUS
 62
     0
100
AcDbLine
 10
-0.25
 20
0.25
 30
0.0
 11
0.25
 21
0.25
 31
0.0
  0
LINE
  5
C9
330
99
100
AcDbEntity
  8
0
  6
CONTINUOUS
 62
     0
100
AcDbLine
 10
0.25
 20
0.25
 30
0.0
 11
0.25
 21
-0.25
 31
0.0
  0
LINE
  5
CA
330
99
100
AcDbEntity
  8
0
  6
CONTINUOUS
 62
     0
100
AcDbLine
 10
0.25
 20
-0.25
 30
0.0
 11
-0.25
 21
-0.25
 31
0.0
  0
LINE
  5
CB
330
99
100
AcDbEntity
  8
0
  6
CONTINUOUS
 62
     0
100
AcDbLine
 10
-0.25
 20
-0.25
 30
0.0
 11
-0.25
 21
0.25
 31
0.0
  0
ENDBLK
  5
9B
330
99
100
AcDbEntity
  8
0
100
AcDbBlockEnd
  0
BLOCK
  5
9D
330
9C
100
AcDbEntity
  8
0
100
AcDbBlockBegin
  2
EX_WBOX
 70
     0
 10
0.0
 20
0.0
 30
0.0
  3
EX_WBOX
  1

  0
LINE
  5
CC
330
9C
100
AcDbEntity
  8
0
  6
CONTINUOUS
 62
     0
100
AcDbLine
 10
-0.5
 20
0.0
 30
0.0
 11
-1.0
 21
0.0
 31
0.0
  0
LINE
  5
CD
330
9C
100
AcDbEntity
  8
0
  6
CONTINUOUS
 62
     0
100
AcDbLine
 10
-0.5
 20
0.5
 30
0.0
 11
0.5
 21
0.5
 31
0.0
  0
LINE
  5
CE
330
9C
100
AcDbEntity
  8
0
  6
CONTINUOUS
 62
     0
100
AcDbLine
 10
0.5
 20
0.5
 30
0.0
 11
0.5
 21
-0.5
 31
0.0
  0
LINE
  5
CF
330
9C
100
AcDbEntity
  8
0
  6
CONTINUOUS
 62
     0
100
AcDbLine
 10
0.5
 20
-0.5
 30
0.0
 11
-0.5
 21
-0.5
 31
0.0
  0
LINE
  5
D0
330
9C
100
AcDbEntity
  8
0
  6
CONTINUOUS
 62
     0
100
AcDbLine
 10
-0.5
 20
-0.5
 30
0.0
 11
-0.5
 21
0.5
 31
0.0
  0
ENDBLK
  5
9E
330
9C
100
AcDbEntity
  8
0
100
AcDbBlockEnd
  0
BLOCK
  5
A0
330
9F
100
AcDbEntity
  8
0
100
AcDbBlockBegin
  2
EX_INTEGRAL
 70
     0
 10
0.0
 20
0.0
 30
0.0
  3
EX_INTEGRAL
  1

  0
LINE
  5
D1
330
9F
100
AcDbEntity
  8
0
  6
CONTINUOUS
 62
     0
100
AcDbLine
 10
0.0
 20
0.0
 30
0.0
 11
-1.0
 21
0.0
 31
0.0
  0
ARC
  5
D2
330
9F
100
AcDbEntity
  8
0
  6
CONTINUOUS
 62
     0
100
AcDbCircle
 10
0.542115
 20
0.164992
 30
0.0
 40
0.56667
100
AcDbArc
 50
73.07249033629006
 51
196.9275130221199
  0
ARC
  5
D3
330
9F
100
AcDbEntity
  8
0
  6
CONTINUOUS
 62
     0
100
AcDbCircle
 10
-0.542115
 20
-0.164992
 30
0.0
 40
0.56667
100
AcDbArc
 50
253.0724869220464
 51
16.9275130559125
  0
ENDBLK
  5
A1
330
9F
100
AcDbEntity
  8
0
100
AcDbBlockEnd
  0
BLOCK
  5
106
330
105
100
AcDbEntity
  8
0
100
AcDbBlockBegin
  2
*D15
 70
     1
 10
0.0
 20
0.0
 30
0.0
  3
*D15
  1

  0
LINE
  5
108
330
105
100
AcDbEntity
  8
LAY-10
  6
CONTINUOUS
 62
     4
100
AcDbLine
 10
474.50000000001
 20
260.2
 30
0.0
 11
474.50000000001
 21
460.2000000000099
 31
0.0
  0
LINE
  5
109
330
105
100
AcDbEntity
  8
LAY-10
  6
CONTINUOUS
 62
     4
100
AcDbLine
 10
869.5
 20
260.1999999999999
 30
0.0
 11
869.5
 21
460.2000000000099
 31
0.0
  0
LINE
  5
10A
330
105
100
AcDbEntity
  8
LAY-10
  6
CONTINUOUS
 62
     4
100
AcDbLine
 10
486.50000000001
 20
454.2000000000099
 30
0.0
 11
857.5
 21
454.2000000000099
 31
0.0
  0
INSERT
  5
10B
330
105
100
AcDbEntity
  8
LAY-10
 62
     4
100
AcDbBlockReference
  2
EX_BNORM
 10
474.50000000001
 20
454.2000000000099
 30
0.0
 41
12.0
 42
12.0
 43
12.0
 50
180.0
  0
INSERT
  5
10C
330
105
100
AcDbEntity
  8
LAY-10
 62
     4
100
AcDbBlockReference
  2
EX_BNORM
 10
869.5
 20
454.2000000000099
 30
0.0
 41
12.0
 42
12.0
 43
12.0
  0
MTEXT
  5
10D
330
105
100
AcDbEntity
  8
LAY-10
 62
     7
100
AcDbMText
 10
672.0000000000049
 20
464.2000000000099
 30
0.0
 40
12.4724416
 41
0.0
 71
     5
 72
     1
  1
%%c395
  7
EXCADDIM1
  0
POINT
  5
10E
330
105
100
AcDbEntity
  8
DEFPOINTS
 62
     0
100
AcDbPoint
 10
474.50000000001
 20
254.2
 30
0.0
  0
POINT
  5
10F
330
105
100
AcDbEntity
  8
DEFPOINTS
 62
     0
100
AcDbPoint
 10
869.5
 20
254.1999999999999
 30
0.0
  0
POINT
  5
110
330
105
100
AcDbEntity
  8
DEFPOINTS
 62
     0
100
AcDbPoint
 10
869.5
 20
454.2000000000099
 30
0.0
  0
ENDBLK
  5
107
330
105
100
AcDbEntity
  8
0
100
AcDbBlockEnd
  0
BLOCK
  5
113
330
112
100
AcDbEntity
  8
0
100
AcDbBlockBegin
  2
*D16
 70
     1
 10
0.0
 20
0.0
 30
0.0
  3
*D16
  1

  0
LINE
  5
115
330
112
100
AcDbEntity
  8
LAY-10
  6
CONTINUOUS
 62
     4
100
AcDbLine
 10
861.99999999999
 20
276.1999999999999
 30
0.0
 11
861.99999999999
 21
432.20000000001
 31
0.0
  0
LINE
  5
116
330
112
100
AcDbEntity
  8
LAY-10
  6
CONTINUOUS
 62
     4
100
AcDbLine
 10
482.0
 20
276.2
 30
0.0
 11
482.0
 21
432.20000000001
 31
0.0
  0
LINE
  5
117
330
112
100
AcDbEntity
  8
LAY-10
  6
CONTINUOUS
 62
     4
100
AcDbLine
 10
849.99999999999
 20
426.20000000001
 30
0.0
 11
494.0
 21
426.20000000001
 31
0.0
  0
INSERT
  5
118
330
112
100
AcDbEntity
  8
LAY-10
 62
     4
100
AcDbBlockReference
  2
EX_BNORM
 10
861.99999999999
 20
426.20000000001
 30
0.0
 41
12.0
 42
12.0
 43
12.0
  0
INSERT
  5
119
330
112
100
AcDbEntity
  8
LAY-10
 62
     4
100
AcDbBlockReference
  2
EX_BNORM
 10
482.0
 20
426.20000000001
 30
0.0
 41
12.0
 42
12.0
 43
12.0
 50
180.0
  0
MTEXT
  5
11A
330
112
100
AcDbEntity
  8
LAY-10
 62
     7
100
AcDbMText
 10
671.999999999995
 20
436.20000000001
 30
0.0
 40
12.4724416
 41
0.0
 71
     5
 72
     1
  1
%%c380
  7
EXCADDIM1
  0
POINT
  5
11B
330
112
100
AcDbEntity
  8
DEFPOINTS
 62
     0
100
AcDbPoint
 10
861.99999999999
 20
270.1999999999999
 30
0.0
  0
POINT
  5
11C
330
112
100
AcDbEntity
  8
DEFPOINTS
 62
     0
100
AcDbPoint
 10
482.0
 20
270.2
 30
0.0
  0
POINT
  5
11D
330
112
100
AcDbEntity
  8
DEFPOINTS
 62
     0
100
AcDbPoint
 10
482.0
 20
426.20000000001
 30
0.0
  0
ENDBLK
  5
114
330
112
100
AcDbEntity
  8
0
100
AcDbBlockEnd
  0
BLOCK
  5
120
330
11F
100
AcDbEntity
  8
0
100
AcDbBlockBegin
  2
*D17
 70
     1
 10
0.0
 20
0.0
 30
0.0
  3
*D17
  1

  0
LINE
  5
122
330
11F
100
AcDbEntity
  8
LAY-10
  6
CONTINUOUS
 62
     4
100
AcDbLine
 10
846.99999999997
 20
281.1999999999999
 30
0.0
 11
846.99999999997
 21
404.20000000001
 31
0.0
  0
LINE
  5
123
330
11F
100
AcDbEntity
  8
LAY-10
  6
CONTINUOUS
 62
     4
100
AcDbLine
 10
496.99999999997
 20
281.2
 30
0.0
 11
496.99999999997
 21
404.20000000001
 31
0.0
  0
LINE
  5
124
330
11F
100
AcDbEntity
  8
LAY-10
  6
CONTINUOUS
 62
     4
100
AcDbLine
 10
834.99999999997
 20
398.20000000001
 30
0.0
 11
508.99999999997
 21
398.20000000001
 31
0.0
  0
INSERT
  5
125
330
11F
100
AcDbEntity
  8
LAY-10
 62
     4
100
AcDbBlockReference
  2
EX_BNORM
 10
846.99999999997
 20
398.20000000001
 30
0.0
 41
12.0
 42
12.0
 43
12.0
  0
INSERT
  5
126
330
11F
100
AcDbEntity
  8
LAY-10
 62
     4
100
AcDbBlockReference
  2
EX_BNORM
 10
496.99999999997
 20
398.20000000001
 30
0.0
 41
12.0
 42
12.0
 43
12.0
 50
180.0
  0
MTEXT
  5
127
330
11F
100
AcDbEntity
  8
LAY-10
 62
     7
100
AcDbMText
 10
671.99999999997
 20
408.20000000001
 30
0.0
 40
12.4724416
 41
0.0
 71
     5
 72
     1
  1
%%c350
  7
EXCADDIM1
  0
POINT
  5
128
330
11F
100
AcDbEntity
  8
DEFPOINTS
 62
     0
100
AcDbPoint
 10
846.99999999997
 20
275.1999999999999
 30
0.0
  0
POINT
  5
129
330
11F
100
AcDbEntity
  8
DEFPOINTS
 62
     0
100
AcDbPoint
 10
496.99999999997
 20
275.2
 30
0.0
  0
POINT
  5
12A
330
11F
100
AcDbEntity
  8
DEFPOINTS
 62
     0
100
AcDbPoint
 10
496.99999999997
 20
398.20000000001
 30
0.0
  0
ENDBLK
  5
121
330
11F
100
AcDbEntity
  8
0
100
AcDbBlockEnd
  0
BLOCK
  5
12D
330
12C
100
AcDbEntity
  8
0
100
AcDbBlockBegin
  2
*D18
 70
     1
 10
0.0
 20
0.0
 30
0.0
  3
*D18
  1

  0
LINE
  5
12F
330
12C
100
AcDbEntity
  8
LAY-10
  6
CONTINUOUS
 62
     4
100
AcDbLine
 10
779.3
 20
188.2
 30
0.0
 11
779.3
 21
138.2
 31
0.0
  0
LINE
  5
130
330
12C
100
AcDbEntity
  8
LAY-10
  6
CONTINUOUS
 62
     4
100
AcDbLine
 10
564.7
 20
188.2
 30
0.0
 11
564.7
 21
138.2
 31
0.0
  0
LINE
  5
131
330
12C
100
AcDbEntity
  8
LAY-10
  6
CONTINUOUS
 62
     4
100
AcDbLine
 10
767.3
 20
144.2
 30
0.0
 11
576.7
 21
144.2
 31
0.0
  0
INSERT
  5
132
330
12C
100
AcDbEntity
  8
LAY-10
 62
     4
100
AcDbBlockReference
  2
EX_BNORM
 10
779.3
 20
144.2
 30
0.0
 41
12.0
 42
12.0
 43
12.0
  0
INSERT
  5
133
330
12C
100
AcDbEntity
  8
LAY-10
 62
     4
100
AcDbBlockReference
  2
EX_BNORM
 10
564.7
 20
144.2
 30
0.0
 41
12.0
 42
12.0
 43
12.0
 50
180.0
  0
MTEXT
  5
134
330
12C
100
AcDbEntity
  8
LAY-10
 62
     7
100
AcDbMText
 10
672.0
 20
154.2
 30
0.0
 40
12.4724416
 41
0.0
 71
     5
 72
     1
  1
ＰＴ8（214.6）
  7
EXCADDIM1
  0
POINT
  5
135
330
12C
100
AcDbEntity
  8
DEFPOINTS
 62
     0
100
AcDbPoint
 10
779.3
 20
194.2
 30
0.0
  0
POINT
  5
136
330
12C
100
AcDbEntity
  8
DEFPOINTS
 62
     0
100
AcDbPoint
 10
564.7
 20
194.2
 30
0.0
  0
POINT
  5
137
330
12C
100
AcDbEntity
  8
DEFPOINTS
 62
     0
100
AcDbPoint
 10
564.7
 20
144.2
 30
0.0
  0
ENDBLK
  5
12E
330
12C
100
AcDbEntity
  8
0
100
AcDbBlockEnd
  0
BLOCK
  5
13A
330
139
100
AcDbEntity
  8
0
100
AcDbBlockBegin
  2
*D19
 70
     1
 10
0.0
 20
0.0
 30
0.0
  3
*D19
  1

  0
LINE
  5
13C
330
139
100
AcDbEntity
  8
LAY-10
  6
CONTINUOUS
 62
     4
100
AcDbLine
 10
651.09999999997
 20
358.2
 30
0.0
 11
428.50000000001
 21
358.2
 31
0.0
  0
LINE
  5
13D
330
139
100
AcDbEntity
  8
LAY-10
  6
CONTINUOUS
 62
     4
100
AcDbLine
 10
470.26326980709
 20
264.2
 30
0.0
 11
428.50000000001
 21
264.2000000000001
 31
0.0
  0
LINE
  5
13E
330
139
100
AcDbEntity
  8
LAY-10
  6
CONTINUOUS
 62
     4
100
AcDbLine
 10
434.50000000001
 20
346.2
 30
0.0
 11
434.50000000001
 21
276.2000000000001
 31
0.0
  0
INSERT
  5
13F
330
139
100
AcDbEntity
  8
LAY-10
 62
     4
100
AcDbBlockReference
  2
EX_BNORM
 10
434.50000000001
 20
358.2
 30
0.0
 41
12.0
 42
12.0
 43
12.0
 50
90.0
  0
INSERT
  5
140
330
139
100
AcDbEntity
  8
LAY-10
 62
     4
100
AcDbBlockReference
  2
EX_BNORM
 10
434.50000000001
 20
264.2000000000001
 30
0.0
 41
12.0
 42
12.0
 43
12.0
 50
270.0
  0
MTEXT
  5
141
330
139
100
AcDbEntity
  8
LAY-10
 62
     7
100
AcDbMText
 10
424.50000000001
 20
311.2
 30
0.0
 40
12.4724416
 41
0.0
 71
     5
 72
     1
  1
94
  7
EXCADDIM1
 11
0.0
 21
1.0
 31
0.0
  0
POINT
  5
142
330
139
100
AcDbEntity
  8
DEFPOINTS
 62
     0
100
AcDbPoint
 10
657.09999999997
 20
358.2
 30
0.0
  0
POINT
  5
143
330
139
100
AcDbEntity
  8
DEFPOINTS
 62
     0
100
AcDbPoint
 10
476.26326980709
 20
264.2
 30
0.0
  0
POINT
  5
144
330
139
100
AcDbEntity
  8
DEFPOINTS
 62
     0
100
AcDbPoint
 10
434.50000000001
 20
264.2000000000001
 30
0.0
  0
ENDBLK
  5
13B
330
139
100
AcDbEntity
  8
0
100
AcDbBlockEnd
  0
BLOCK
  5
147
330
146
100
AcDbEntity
  8
0
100
AcDbBlockBegin
  2
*D20
 70
     1
 10
0.0
 20
0.0
 30
0.0
  3
*D20
  1

  0
LINE
  5
149
330
146
100
AcDbEntity
  8
LAY-10
  6
CONTINUOUS
 62
     4
100
AcDbLine
 10
532.5
 20
184.2
 30
0.0
 11
428.5000000000099
 21
184.2
 31
0.0
  0
LINE
  5
14A
330
146
100
AcDbEntity
  8
LAY-10
  6
CONTINUOUS
 62
     4
100
AcDbLine
 10
434.50000000001
 20
252.2
 30
0.0
 11
434.5000000000099
 21
196.2
 31
0.0
  0
INSERT
  5
14B
330
146
100
AcDbEntity
  8
LAY-10
 62
     4
100
AcDbBlockReference
  2
EX_BNORM
 10
434.50000000001
 20
264.2
 30
0.0
 41
12.0
 42
12.0
 43
12.0
 50
89.99999999999996
  0
INSERT
  5
14C
330
146
100
AcDbEntity
  8
LAY-10
 62
     4
100
AcDbBlockReference
  2
EX_BNORM
 10
434.5000000000099
 20
184.2
 30
0.0
 41
12.0
 42
12.0
 43
12.0
 50
269.9999999999999
  0
MTEXT
  5
14D
330
146
100
AcDbEntity
  8
LAY-10
 62
     7
100
AcDbMText
 10
424.50000000001
 20
224.2
 30
0.0
 40
12.4724416
 41
0.0
 71
     5
 72
     1
  1
80
  7
EXCADDIM1
 11
7.105427357600999E-16
 21
1.0
 31
0.0
  0
POINT
  5
14E
330
146
100
AcDbEntity
  8
DEFPOINTS
 62
     0
100
AcDbPoint
 10
434.50000000001
 20
264.2
 30
0.0
  0
POINT
  5
14F
330
146
100
AcDbEntity
  8
DEFPOINTS
 62
     0
100
AcDbPoint
 10
538.5
 20
184.2
 30
0.0
  0
POINT
  5
150
330
146
100
AcDbEntity
  8
DEFPOINTS
 62
     0
100
AcDbPoint
 10
434.5000000000099
 20
184.2
 30
0.0
  0
ENDBLK
  5
148
330
146
100
AcDbEntity
  8
0
100
AcDbBlockEnd
  0
ENDSEC
  0
SECTION
  2
ENTITIES
  0
LINE
  5
D4
330
1F
100
AcDbEntity
  8
LAY-10
  6
CONTINUOUS
 62
     7
100
AcDbLine
 10
779.9999999999868
 20
258.1999999999953
 30
0.0
 11
779.9999999999868
 21
265.6759999999949
 31
0.0
  0
LINE
  5
D5
330
1F
100
AcDbEntity
  8
LAY-10
  6
CONTINUOUS
 62
     7
100
AcDbLine
 10
784.9999999999868
 20
258.1999999999953
 30
0.0
 11
784.9999999999868
 21
265.6759999999949
 31
0.0
  0
LINE
  5
D6
330
1F
100
AcDbEntity
  8
LAY-10
  6
CONTINUOUS
 62
     7
100
AcDbLine
 10
794.9999999999868
 20
258.1999999999953
 30
0.0
 11
794.9999999999868
 21
265.6759999999949
 31
0.0
  0
LINE
  5
D7
330
1F
100
AcDbEntity
  8
LAY-10
  6
CONTINUOUS
 62
     7
100
AcDbLine
 10
799.9999999999868
 20
258.1999999999953
 30
0.0
 11
799.9999999999868
 21
265.6759999999949
 31
0.0
  0
ARC
  5
D8
330
1F
100
AcDbEntity
  8
LAY-10
  6
CONTINUOUS
 62
     7
100
AcDbCircle
 10
782.4999999999868
 20
262.7559653679605
 30
0.0
 40
3.844034632034633
100
AcDbArc
 50
49.43137502659166
 51
130.5686249734084
  0
ARC
  5
D9
330
1F
100
AcDbEntity
  8
LAY-10
  6
CONTINUOUS
 62
     7
100
AcDbCircle
 10
789.9999999999868
 20
252.6098614718566
 30
0.0
 40
13.99013852813853
100
AcDbArc
 50
69.05972439385633
 51
110.9402756061426
  0
ARC
  5
DA
330
1F
100
AcDbEntity
  8
LAY-10
  6
CONTINUOUS
 62
     7
100
AcDbCircle
 10
797.4999999999868
 20
262.7559653679605
 30
0.0
 40
3.84403463203463
100
AcDbArc
 50
49.43137502658926
 51
130.5686249734084
  0
LINE
  5
DB
330
1F
100
AcDbEntity
  8
LAY-10
  6
CONTINUOUS
 62
     7
100
AcDbLine
 10
782.4999999999868
 20
266.5999999999954
 30
0.0
 11
797.4999999999868
 21
266.5999999999954
 31
0.0
  0
LINE
  5
DC
330
1F
100
AcDbEntity
  8
LAY-10
  6
CONTINUOUS
 62
     7
100
AcDbLine
 10
805.5000000000018
 20
229.0615770707868
 30
0.0
 11
804.3615728752557
 21
230.2000041955334
 31
0.0
  0
LINE
  5
DD
330
1F
100
AcDbEntity
  8
LAY-10
  6
CONTINUOUS
 62
     7
100
AcDbLine
 10
805.5000000000018
 20
226.233149946041
 30
0.0
 11
801.5331457505099
 21
230.2000041955334
 31
0.0
  0
LINE
  5
DE
330
1F
100
AcDbEntity
  8
LAY-10
  6
CONTINUOUS
 62
     7
100
AcDbLine
 10
805.5000000000018
 20
223.4047228212944
 30
0.0
 11
798.7047186257632
 21
230.2000041955334
 31
0.0
  0
LINE
  5
DF
330
1F
100
AcDbEntity
  8
LAY-10
  6
CONTINUOUS
 62
     7
100
AcDbLine
 10
805.5000000000018
 20
220.5762956965486
 30
0.0
 11
797.0000000000018
 21
229.0762956965486
 31
0.0
  0
LINE
  5
E0
330
1F
100
AcDbEntity
  8
LAY-10
  6
CONTINUOUS
 62
     7
100
AcDbLine
 10
805.5000000000018
 20
217.7478685718019
 30
0.0
 11
797.0000000000018
 21
226.2478685718024
 31
0.0
  0
LINE
  5
E1
330
1F
100
AcDbEntity
  8
LAY-10
  6
CONTINUOUS
 62
     7
100
AcDbLine
 10
805.5000000000018
 20
214.9194414470562
 30
0.0
 11
797.0000000000018
 21
223.4194414470562
 31
0.0
  0
LINE
  5
E2
330
1F
100
AcDbEntity
  8
LAY-10
  6
CONTINUOUS
 62
     7
100
AcDbLine
 10
805.5000000000018
 20
212.0910143223095
 30
0.0
 11
797.0000000000018
 21
220.59101432231
 31
0.0
  0
LINE
  5
E3
330
1F
100
AcDbEntity
  8
LAY-10
  6
CONTINUOUS
 62
     7
100
AcDbLine
 10
805.5000000000018
 20
209.2625871975638
 30
0.0
 11
797.0000000000018
 21
217.7625871975638
 31
0.0
  0
LINE
  5
E4
330
1F
100
AcDbEntity
  8
LAY-10
  6
CONTINUOUS
 62
     7
100
AcDbLine
 10
805.5000000000018
 20
206.4341600728171
 30
0.0
 11
797.0000000000018
 21
214.9341600728175
 31
0.0
  0
LINE
  5
E5
330
1F
100
AcDbEntity
  8
LAY-10
  6
CONTINUOUS
 62
     7
100
AcDbLine
 10
805.5000000000018
 20
203.6057329480713
 30
0.0
 11
797.0000000000018
 21
212.1057329480713
 31
0.0
  0
LINE
  5
E6
330
1F
100
AcDbEntity
  8
LAY-10
  6
CONTINUOUS
 62
     7
100
AcDbLine
 10
805.5000000000018
 20
200.7773058233247
 30
0.0
 11
797.0000000000018
 21
209.2773058233251
 31
0.0
  0
LINE
  5
E7
330
1F
100
AcDbEntity
  8
LAY-10
  6
CONTINUOUS
 62
     7
100
AcDbLine
 10
805.5000000000018
 20
197.9488786985789
 30
0.0
 11
797.0000000000018
 21
206.4488786985789
 31
0.0
  0
LINE
  5
E8
330
1F
100
AcDbEntity
  8
LAY-10
  6
CONTINUOUS
 62
     7
100
AcDbLine
 10
805.5000000000018
 20
195.1204515738327
 30
0.0
 11
797.0000000000018
 21
203.6204515738327
 31
0.0
  0
LINE
  5
E9
330
1F
100
AcDbEntity
  8
LAY-10
  6
CONTINUOUS
 62
     7
100
AcDbLine
 10
805.5000000000027
 20
192.2920244490865
 30
0.0
 11
797.0000000000018
 21
200.7920244490865
 31
0.0
  0
LINE
  5
EA
330
1F
100
AcDbEntity
  8
LAY-10
  6
CONTINUOUS
 62
     7
100
AcDbLine
 10
805.5000000000018
 20
189.4635973243403
 30
0.0
 11
797.0000000000018
 21
197.9635973243403
 31
0.0
  0
LINE
  5
EB
330
1F
100
AcDbEntity
  8
LAY-10
  6
CONTINUOUS
 62
     7
100
AcDbLine
 10
805.5000000000018
 20
186.6351701995941
 30
0.0
 11
797.0000000000018
 21
195.1351701995941
 31
0.0
  0
LINE
  5
EC
330
1F
100
AcDbEntity
  8
LAY-10
  6
CONTINUOUS
 62
     7
100
AcDbLine
 10
805.1067430748499
 20
184.1999999999998
 30
0.0
 11
797.0000000000018
 21
192.3067430748478
 31
0.0
  0
LINE
  5
ED
330
1F
100
AcDbEntity
  8
LAY-10
  6
CONTINUOUS
 62
     7
100
AcDbLine
 10
802.2783159501037
 20
184.1999999999998
 30
0.0
 11
797.0000000000018
 21
189.4783159501016
 31
0.0
  0
LINE
  5
EE
330
1F
100
AcDbEntity
  8
LAY-10
  6
CONTINUOUS
 62
     7
100
AcDbLine
 10
799.4498888253574
 20
184.1999999999998
 30
0.0
 11
797.0000000000018
 21
186.6498888253554
 31
0.0
  0
LINE
  5
EF
330
1F
100
AcDbEntity
  8
LAY-10
  6
CONTINUOUS
 62
     7
100
AcDbLine
 10
547.0000000000018
 20
229.0615770707869
 30
0.0
 11
545.8615728752557
 21
230.2000041955335
 31
0.0
  0
LINE
  5
F0
330
1F
100
AcDbEntity
  8
LAY-10
  6
CONTINUOUS
 62
     7
100
AcDbLine
 10
547.0000000000018
 20
226.2331499460411
 30
0.0
 11
543.0331457505099
 21
230.2000041955335
 31
0.0
  0
LINE
  5
F1
330
1F
100
AcDbEntity
  8
LAY-10
  6
CONTINUOUS
 62
     7
100
AcDbLine
 10
547.0000000000018
 20
223.4047228212944
 30
0.0
 11
540.2047186257632
 21
230.2000041955335
 31
0.0
  0
LINE
  5
F2
330
1F
100
AcDbEntity
  8
LAY-10
  6
CONTINUOUS
 62
     7
100
AcDbLine
 10
547.0000000000018
 20
220.5762956965487
 30
0.0
 11
538.5000000000018
 21
229.0762956965487
 31
0.0
  0
LINE
  5
F3
330
1F
100
AcDbEntity
  8
LAY-10
  6
CONTINUOUS
 62
     7
100
AcDbLine
 10
547.0000000000018
 20
217.747868571802
 30
0.0
 11
538.5000000000018
 21
226.2478685718025
 31
0.0
  0
LINE
  5
F4
330
1F
100
AcDbEntity
  8
LAY-10
  6
CONTINUOUS
 62
     7
100
AcDbLine
 10
547.0000000000018
 20
214.9194414470562
 30
0.0
 11
538.5000000000018
 21
223.4194414470562
 31
0.0
  0
LINE
  5
F5
330
1F
100
AcDbEntity
  8
LAY-10
  6
CONTINUOUS
 62
     7
100
AcDbLine
 10
547.0000000000018
 20
212.0910143223096
 30
0.0
 11
538.5000000000018
 21
220.59101432231
 31
0.0
  0
LINE
  5
F6
330
1F
100
AcDbEntity
  8
LAY-10
  6
CONTINUOUS
 62
     7
100
AcDbLine
 10
547.0000000000018
 20
209.2625871975638
 30
0.0
 11
538.5000000000018
 21
217.7625871975638
 31
0.0
  0
LINE
  5
F7
330
1F
100
AcDbEntity
  8
LAY-10
  6
CONTINUOUS
 62
     7
100
AcDbLine
 10
547.0000000000018
 20
206.4341600728171
 30
0.0
 11
538.5000000000018
 21
214.9341600728176
 31
0.0
  0
LINE
  5
F8
330
1F
100
AcDbEntity
  8
LAY-10
  6
CONTINUOUS
 62
     7
100
AcDbLine
 10
547.0000000000018
 20
203.6057329480714
 30
0.0
 11
538.5000000000018
 21
212.1057329480714
 31
0.0
  0
LINE
  5
F9
330
1F
100
AcDbEntity
  8
LAY-10
  6
CONTINUOUS
 62
     7
100
AcDbLine
 10
547.0000000000018
 20
200.7773058233247
 30
0.0
 11
538.5000000000018
 21
209.2773058233252
 31
0.0
  0
LINE
  5
FA
330
1F
100
AcDbEntity
  8
LAY-10
  6
CONTINUOUS
 62
     7
100
AcDbLine
 10
547.0000000000018
 20
197.948878698579
 30
0.0
 11
538.5000000000018
 21
206.448878698579
 31
0.0
  0
LINE
  5
FB
330
1F
100
AcDbEntity
  8
LAY-10
  6
CONTINUOUS
 62
     7
100
AcDbLine
 10
547.0000000000018
 20
195.1204515738328
 30
0.0
 11
538.5000000000018
 21
203.6204515738328
 31
0.0
  0
LINE
  5
FC
330
1F
100
AcDbEntity
  8
LAY-10
  6
CONTINUOUS
 62
     7
100
AcDbLine
 10
547.0000000000027
 20
192.2920244490865
 30
0.0
 11
538.5000000000018
 21
200.7920244490865
 31
0.0
  0
LINE
  5
FD
330
1F
100
AcDbEntity
  8
LAY-10
  6
CONTINUOUS
 62
     7
100
AcDbLine
 10
547.0000000000018
 20
189.4635973243403
 30
0.0
 11
538.5000000000018
 21
197.9635973243403
 31
0.0
  0
LINE
  5
FE
330
1F
100
AcDbEntity
  8
LAY-10
  6
CONTINUOUS
 62
     7
100
AcDbLine
 10
547.0000000000018
 20
186.6351701995941
 30
0.0
 11
538.5000000000018
 21
195.1351701995941
 31
0.0
  0
LINE
  5
FF
330
1F
100
AcDbEntity
  8
LAY-10
  6
CONTINUOUS
 62
     7
100
AcDbLine
 10
546.6067430748499
 20
184.1999999999998
 30
0.0
 11
538.5000000000018
 21
192.3067430748479
 31
0.0
  0
LINE
  5
100
330
1F
100
AcDbEntity
  8
LAY-10
  6
CONTINUOUS
 62
     7
100
AcDbLine
 10
543.7783159501037
 20
184.1999999999998
 30
0.0
 11
538.5000000000018
 21
189.4783159501017
 31
0.0
  0
LINE
  5
101
330
1F
100
AcDbEntity
  8
LAY-10
  6
CONTINUOUS
 62
     7
100
AcDbLine
 10
540.9498888253574
 20
184.1999999999998
 30
0.0
 11
538.5000000000018
 21
186.6498888253555
 31
0.0
  0
DIMENSION
  5
103
330
1F
100
AcDbEntity
  8
LAY-10
  6
CONTINUOUS
 62
     4
100
AcDbDimension
  2
*D15
 10
869.5
 20
454.2000000000099
 30
0.0
 11
672.0000000000049
 21
464.2000000000099
 31
0.0
 70
   160
  1
%%c<>
  3
ISO-25
100
AcDbAlignedDimension
 13
474.50000000001
 23
254.2
 33
0.0
 14
869.5
 24
254.1999999999999
 34
0.0
100
AcDbRotatedDimension
1001
ACAD
1000
DSTYLE
1002
{
1070
   270
1070
     2
1070
     6
1000
EX_BNORM
1070
     7
1000
EX_BNORM
1070
    41
1040
12.0
1070
    42
1040
6.0
1070
    44
1040
6.0
1070
    73
1070
     0
1070
    74
1070
     0
1070
    75
1070
     0
1070
    76
1070
     0
1070
    77
1070
     1
1070
    78
1070
     8
1070
   140
1040
12.4724416
1070
   147
1040
0.0
1070
   173
1070
     1
1070
   176
1070
     4
1070
   177
1070
     4
1070
   178
1070
     7
1070
   271
1070
     1
1070
   277
1070
     2
1070
   279
1070
     2
1070
   280
1070
     0
1070
   287
1070
     5
1070
   340
1005
102
1002
}
  0
DIMENSION
  5
111
330
1F
100
AcDbEntity
  8
LAY-10
  6
CONTINUOUS
 62
     4
100
AcDbDimension
  2
*D16
 10
482.0
 20
426.20000000001
 30
0.0
 11
671.999999999995
 21
436.20000000001
 31
0.0
 70
   160
  1
%%c<>
  3
ISO-25
100
AcDbAlignedDimension
 13
861.99999999999
 23
270.1999999999999
 33
0.0
 14
482.0
 24
270.2
 34
0.0
100
AcDbRotatedDimension
1001
ACAD
1000
DSTYLE
1002
{
1070
   270
1070
     2
1070
     6
1000
EX_BNORM
1070
     7
1000
EX_BNORM
1070
    41
1040
12.0
1070
    42
1040
6.0
1070
    44
1040
6.0
1070
    73
1070
     0
1070
    74
1070
     0
1070
    75
1070
     0
1070
    76
1070
     0
1070
    77
1070
     1
1070
    78
1070
     8
1070
   140
1040
12.4724416
1070
   147
1040
0.0
1070
   173
1070
     1
1070
   176
1070
     4
1070
   177
1070
     4
1070
   178
1070
     7
1070
   271
1070
     1
1070
   277
1070
     2
1070
   279
1070
     2
1070
   280
1070
     0
1070
   287
1070
     5
1070
   340
1005
102
1002
}
  0
DIMENSION
  5
11E
330
1F
100
AcDbEntity
  8
LAY-10
  6
CONTINUOUS
 62
     4
100
AcDbDimension
  2
*D17
 10
496.99999999997
 20
398.20000000001
 30
0.0
 11
671.99999999997
 21
408.20000000001
 31
0.0
 70
   160
  1
%%c<>
  3
ISO-25
100
AcDbAlignedDimension
 13
846.99999999997
 23
275.1999999999999
 33
0.0
 14
496.99999999997
 24
275.2
 34
0.0
100
AcDbRotatedDimension
1001
ACAD
1000
DSTYLE
1002
{
1070
   270
1070
     2
1070
     6
1000
EX_BNORM
1070
     7
1000
EX_BNORM
1070
    41
1040
12.0
1070
    42
1040
6.0
1070
    44
1040
6.0
1070
    73
1070
     0
1070
    74
1070
     0
1070
    75
1070
     0
1070
    76
1070
     0
1070
    77
1070
     1
1070
    78
1070
     8
1070
   140
1040
12.4724416
1070
   147
1040
0.0
1070
   173
1070
     1
1070
   176
1070
     4
1070
   177
1070
     4
1070
   178
1070
     7
1070
   271
1070
     1
1070
   277
1070
     2
1070
   279
1070
     2
1070
   280
1070
     0
1070
   287
1070
     5
1070
   340
1005
102
1002
}
  0
DIMENSION
  5
12B
330
1F
100
AcDbEntity
  8
LAY-10
  6
CONTINUOUS
 62
     4
100
AcDbDimension
  2
*D18
 10
564.7
 20
144.2
 30
0.0
 11
672.0
 21
154.2
 31
0.0
 70
   160
  1
ＰＴ8（<>）
  3
ISO-25
100
AcDbAlignedDimension
 13
779.3
 23
194.2
 33
0.0
 14
564.7
 24
194.2
 34
0.0
100
AcDbRotatedDimension
1001
ACAD
1000
DSTYLE
1002
{
1070
   270
1070
     2
1070
     6
1000
EX_BNORM
1070
     7
1000
EX_BNORM
1070
    41
1040
12.0
1070
    42
1040
6.0
1070
    44
1040
6.0
1070
    73
1070
     0
1070
    74
1070
     0
1070
    75
1070
     0
1070
    76
1070
     0
1070
    77
1070
     1
1070
    78
1070
     8
1070
   140
1040
12.4724416
1070
   147
1040
0.0
1070
   173
1070
     1
1070
   176
1070
     4
1070
   177
1070
     4
1070
   178
1070
     7
1070
   271
1070
     1
1070
   277
1070
     2
1070
   279
1070
     2
1070
   280
1070
     0
1070
   287
1070
     5
1070
   340
1005
102
1002
}
  0
DIMENSION
  5
138
330
1F
100
AcDbEntity
  8
LAY-10
  6
CONTINUOUS
 62
     4
100
AcDbDimension
  2
*D19
 10
434.50000000001
 20
264.2000000000001
 30
0.0
 11
424.50000000001
 21
311.2
 31
0.0
 70
   160
  3
ISO-25
100
AcDbAlignedDimension
 13
657.09999999997
 23
358.2
 33
0.0
 14
476.26326980709
 24
264.2
 34
0.0
 50
90.0
100
AcDbRotatedDimension
1001
ACAD
1000
DSTYLE
1002
{
1070
   270
1070
     2
1070
     6
1000
EX_BNORM
1070
     7
1000
EX_BNORM
1070
    41
1040
12.0
1070
    42
1040
6.0
1070
    44
1040
6.0
1070
    73
1070
     0
1070
    74
1070
     0
1070
    75
1070
     0
1070
    76
1070
     0
1070
    77
1070
     1
1070
    78
1070
     8
1070
   140
1040
12.4724416
1070
   147
1040
0.0
1070
   173
1070
     1
1070
   176
1070
     4
1070
   177
1070
     4
1070
   178
1070
     7
1070
   271
1070
     1
1070
   277
1070
     2
1070
   279
1070
     2
1070
   280
1070
     0
1070
   287
1070
     5
1070
   340
1005
102
1002
}
  0
DIMENSION
  5
145
330
1F
100
AcDbEntity
  8
LAY-10
  6
CONTINUOUS
 62
     4
100
AcDbDimension
  2
*D20
 10
434.5000000000099
 20
184.2
 30
0.0
 11
424.50000000001
 21
224.2
 31
0.0
 70
   160
  3
ISO-25
100
AcDbAlignedDimension
 13
434.50000000001
 23
264.2
 33
0.0
 14
538.5
 24
184.2
 34
0.0
 50
90.0
100
AcDbRotatedDimension
1001
ACAD
1000
DSTYLE
1002
{
1070
   270
1070
     2
1070
     6
1000
EX_BNORM
1070
     7
1000
EX_BNORM
1070
    41
1040
12.0
1070
    42
1040
6.0
1070
    44
1040
6.0
1070
    73
1070
     0
1070
    74
1070
     0
1070
    75
1070
     1
1070
    76
1070
     0
1070
    77
1070
     1
1070
    78
1070
     8
1070
   140
1040
12.4724416
1070
   147
1040
0.0
1070
   173
1070
     1
1070
   176
1070
     4
1070
   177
1070
     4
1070
   178
1070
     7
1070
   271
1070
     1
1070
   277
1070
     2
1070
   279
1070
     2
1070
   280
1070
     0
1070
   287
1070
     5
1070
   340
1005
102
1002
}
  0
ARC
  5
151
330
1F
100
AcDbEntity
  8
LAY-10
  6
CONTINUOUS
 62
     7
100
AcDbCircle
 10
822.9992940161055
 20
237.1853734408246
 30
0.0
 40
10.0
100
AcDbArc
 50
105.0000000000127
 51
174.9999999999826
  0
LINE
  5
152
330
1F
100
AcDbEntity
  8
LAY-10
  6
CONTINUOUS
 62
     7
100
AcDbLine
 10
820.4111035650785
 20
246.8446317037146
 30
0.0
 11
859.4823619097947
 21
257.3137438244493
 31
0.0
  0
ARC
  5
153
330
1F
100
AcDbEntity
  8
LAY-10
  6
CONTINUOUS
 62
     7
100
AcDbCircle
 10
803.6885201652804
 20
242.2000000000002
 30
0.0
 40
2.0
100
AcDbArc
 50
270.0
 51
349.9999999993292
  0
LINE
  5
154
330
1F
100
AcDbEntity
  8
LAY-10
  6
CONTINUOUS
 62
     7
100
AcDbLine
 10
805.8937391016498
 20
243.1888770957302
 30
0.0
 11
805.6581356713009
 21
241.8527036446435
 31
0.0
  0
ARC
  5
155
330
1F
100
AcDbEntity
  8
LAY-10
  6
CONTINUOUS
 62
     7
100
AcDbCircle
 10
802.707548983291
 20
242.2000000000002
 30
0.0
 40
2.0
100
AcDbArc
 50
184.9999999999997
 51
270.0
  0
LINE
  5
156
330
1F
100
AcDbEntity
  8
LAY-10
  6
CONTINUOUS
 62
     7
100
AcDbLine
 10
800.7151595871078
 20
242.0256885145049
 30
0.0
 11
799.9999999999973
 21
250.2000000000002
 31
0.0
  0
LINE
  5
157
330
1F
100
AcDbEntity
  8
LAY-10
  6
CONTINUOUS
 62
     7
100
AcDbLine
 10
813.1536261807505
 20
251.1116535819574
 30
0.0
 11
861.9999999999964
 21
264.2000000000139
 31
0.0
  0
ARC
  5
158
330
1F
100
AcDbEntity
  8
LAY-10
  6
CONTINUOUS
 62
     7
100
AcDbCircle
 10
815.7418166317707
 20
241.4523953190655
 30
0.0
 40
10.0
100
AcDbArc
 50
105.0000000000006
 51
170.0000000000019
  0
ARC
  5
159
330
1F
100
AcDbEntity
  8
LAY-10
  6
CONTINUOUS
 62
     7
100
AcDbCircle
 10
528.2581833682293
 20
241.4523953190651
 30
0.0
 40
10.0
100
AcDbArc
 50
9.99999999999817
 51
74.99999999999878
  0
LINE
  5
15A
330
1F
100
AcDbEntity
  8
LAY-10
  6
CONTINUOUS
 62
     7
100
AcDbLine
 10
530.8463738192545
 20
251.1116535819561
 30
0.0
 11
482.0000000000036
 21
264.200000000014
 31
0.0
  0
LINE
  5
15B
330
1F
100
AcDbEntity
  8
LAY-10
  6
CONTINUOUS
 62
     7
100
AcDbLine
 10
564.7000000000003
 20
194.2000000000003
 30
0.0
 11
565.8874999999998
 21
232.2000000000003
 31
0.0
  0
ARC
  5
15C
330
1F
100
AcDbEntity
  8
LAY-10
  6
CONTINUOUS
 62
     7
100
AcDbCircle
 10
546.3761198426878
 20
243.2000000000003
 30
0.0
 40
3.000000000000002
100
AcDbArc
 50
270.0
 51
355.0000000000007
  0
LINE
  5
15D
330
1F
100
AcDbEntity
  8
LAY-10
  6
CONTINUOUS
 62
     7
100
AcDbLine
 10
549.364703936963
 20
242.9385327717578
 30
0.0
 11
549.9999999999995
 21
250.2000000000003
 31
0.0
  0
ARC
  5
15E
330
1F
100
AcDbEntity
  8
LAY-10
  6
CONTINUOUS
 62
     7
100
AcDbCircle
 10
541.1505794658824
 20
243.2000000000003
 30
0.0
 40
3.000000000000002
100
AcDbArc
 50
189.9999999999986
 51
270.0
  0
LINE
  5
15F
330
1F
100
AcDbEntity
  8
LAY-10
  6
CONTINUOUS
 62
     7
100
AcDbLine
 10
476.2632698070897
 20
264.2000000000003
 30
0.0
 11
474.500000000005
 21
254.1999999999994
 31
0.0
  0
LINE
  5
160
330
1F
100
AcDbEntity
  8
LAY-10
  6
CONTINUOUS
 62
     7
100
AcDbLine
 10
867.7367301929166
 20
264.2000000000002
 30
0.0
 11
869.5000000000014
 21
254.2000000000002
 31
0.0
  0
ARC
  5
161
330
1F
100
AcDbEntity
  8
LAY-10
  6
CONTINUOUS
 62
     7
100
AcDbCircle
 10
658.655282823433
 20
236.5000000000005
 30
0.0
 40
2.0
100
AcDbArc
 50
270.0
 51
354.3644993270658
  0
LINE
  5
162
330
1F
100
AcDbEntity
  8
LAY-10
  6
CONTINUOUS
 62
     7
100
AcDbLine
 10
662.0168637237098
 20
250.2000000000003
 30
0.0
 11
660.64561631589
 21
236.3036009450057
 31
0.0
  0
ARC
  5
163
330
1F
100
AcDbEntity
  8
LAY-10
  6
CONTINUOUS
 62
     7
100
AcDbCircle
 10
672.0
 20
262.2620107638472
 30
0.0
 40
30.06201076384719
100
AcDbArc
 50
249.1739611151474
 51
269.9999999999998
  0
LINE
  5
164
330
1F
100
AcDbEntity
  8
LAY-10
  6
CONTINUOUS
 62
     7
100
AcDbLine
 10
564.7000000000003
 20
194.2000000000003
 30
0.0
 11
565.7317381621001
 21
195.2000000000003
 31
0.0
  0
LINE
  5
165
330
1F
100
AcDbEntity
  8
LAY-10
  6
CONTINUOUS
 62
     7
100
AcDbLine
 10
566.8879881620992
 20
232.2000000000003
 30
0.0
 11
565.7317381620992
 21
195.2000000000003
 31
0.0
  0
LINE
  5
166
330
1F
100
AcDbEntity
  8
LAY-10
  6
CONTINUOUS
 62
     7
100
AcDbLine
 10
496.138288244802
 20
254.2000000000003
 30
0.0
 11
474.5
 21
254.2000000000003
 31
0.0
  0
LINE
  5
167
330
1F
100
AcDbEntity
  8
LAY-10
  6
CONTINUOUS
 62
     7
100
AcDbLine
 10
532.0
 20
226.2000000000017
 30
0.0
 11
536.2946920771701
 21
226.2000000000017
 31
0.0
  0
ARC
  5
168
330
1F
100
AcDbEntity
  8
LAY-10
  6
CONTINUOUS
 62
     7
100
AcDbCircle
 10
547.368497112237
 20
225.2000000000003
 30
0.0
 40
5.0
100
AcDbArc
 50
2.99999999999972
 51
90.00000000000001
  0
LINE
  5
169
330
1F
100
AcDbEntity
  8
LAY-10
  6
CONTINUOUS
 62
     7
100
AcDbLine
 10
552.36164478601
 20
225.4616797812155
 30
0.0
 11
554.0000002198803
 21
194.1999958044494
 31
0.0
  0
LINE
  5
16A
330
1F
100
AcDbEntity
  8
LAY-10
  6
CONTINUOUS
 62
     7
100
AcDbLine
 10
779.2999999999997
 20
194.2000000000002
 30
0.0
 11
778.2682618378999
 21
195.2000000000002
 31
0.0
  0
LINE
  5
16B
330
1F
100
AcDbEntity
  8
LAY-10
  6
CONTINUOUS
 62
     7
100
AcDbLine
 10
777.1120118379008
 20
232.2000000000002
 30
0.0
 11
778.2682618379008
 21
195.2000000000002
 31
0.0
  0
LINE
  5
16C
330
1F
100
AcDbEntity
  8
LAY-10
  6
CONTINUOUS
 62
     7
100
AcDbLine
 10
847.8617117551976
 20
254.2000000000002
 30
0.0
 11
869.5
 21
254.2000000000002
 31
0.0
  0
LINE
  5
16D
330
1F
100
AcDbEntity
  8
LAY-10
  6
CONTINUOUS
 62
     7
100
AcDbLine
 10
812.0
 20
226.2000000000016
 30
0.0
 11
807.7053079228299
 21
226.2000000000016
 31
0.0
  0
ARC
  5
16E
330
1F
100
AcDbEntity
  8
LAY-10
  6
CONTINUOUS
 62
     7
100
AcDbCircle
 10
796.631502887763
 20
225.2000000000007
 30
0.0
 40
5.0
100
AcDbArc
 50
90.00000000000001
 51
177.0000000000009
  0
LINE
  5
16F
330
1F
100
AcDbEntity
  8
LAY-10
  6
CONTINUOUS
 62
     7
100
AcDbLine
 10
791.63835521399
 20
225.4616797812155
 30
0.0
 11
789.9999997801197
 21
194.1999958044493
 31
0.0
  0
LINE
  5
170
330
1F
100
AcDbEntity
  8
LAY-10
  6
CONTINUOUS
 62
     7
100
AcDbLine
 10
790.0000000000014
 20
234.2000000000002
 30
0.0
 11
794.0000000000009
 21
236.5094010767584
 31
0.0
  0
LINE
  5
171
330
1F
100
AcDbEntity
  8
LAY-10
  6
CONTINUOUS
 62
     7
100
AcDbLine
 10
789.9999999999991
 20
234.2000000000002
 30
0.0
 11
785.9999999999991
 21
236.5094010767584
 31
0.0
  0
LINE
  5
172
330
1F
100
AcDbEntity
  8
LAY-10
  6
CONTINUOUS
 62
     7
100
AcDbLine
 10
794.0
 20
236.5094010767602
 30
0.0
 11
786.0
 21
236.5094010767602
 31
0.0
  0
LINE
  5
173
330
1F
100
AcDbEntity
  8
LAY-10
  6
CONTINUOUS
 62
     7
100
AcDbLine
 10
794.0000000000005
 20
237.2000000000002
 30
0.0
 11
786.0
 21
237.2000000000002
 31
0.0
  0
LINE
  5
174
330
1F
100
AcDbEntity
  8
LAY-10
  6
CONTINUOUS
 62
     7
100
AcDbLine
 10
795.0
 20
238.2000000000002
 30
0.0
 11
794.0
 21
237.2000000000002
 31
0.0
  0
LINE
  5
175
330
1F
100
AcDbEntity
  8
LAY-10
  6
CONTINUOUS
 62
     7
100
AcDbLine
 10
785.0
 20
238.2000000000002
 30
0.0
 11
786.0
 21
237.2000000000002
 31
0.0
  0
LINE
  5
176
330
1F
100
AcDbEntity
  8
LAY-10
  6
CONTINUOUS
 62
     7
100
AcDbLine
 10
795.0
 20
238.2000000000002
 30
0.0
 11
785.0
 21
238.2000000000002
 31
0.0
  0
LINE
  5
177
330
1F
100
AcDbEntity
  8
LAY-10
  6
CONTINUOUS
 62
     7
100
AcDbLine
 10
807.705307922834
 20
226.2000000000016
 30
0.0
 11
807.2914162436705
 21
228.5472963553343
 31
0.0
  0
LINE
  5
178
330
1F
100
AcDbEntity
  8
LAY-10
  6
CONTINUOUS
 62
     7
100
AcDbLine
 10
796.631502887763
 20
230.2000000000007
 30
0.0
 11
805.3218007376458
 21
230.2000000000007
 31
0.0
  0
ARC
  5
179
330
1F
100
AcDbEntity
  8
LAY-10
  6
CONTINUOUS
 62
     7
100
AcDbCircle
 10
805.3218007376458
 20
228.2000000000007
 30
0.0
 40
2.0
100
AcDbArc
 50
9.999999999998627
 51
90.00000000000001
  0
LINE
  5
17A
330
1F
100
AcDbEntity
  8
LAY-10
  6
CONTINUOUS
 62
     7
100
AcDbLine
 10
482.0
 20
255.3818921718717
 30
0.0
 11
482.0
 21
254.2000000000003
 31
0.0
  0
ARC
  5
17B
330
1F
100
AcDbEntity
  8
LAY-10
  6
CONTINUOUS
 62
     7
100
AcDbCircle
 10
484.0
 20
255.3818921718717
 30
0.0
 40
2.0
100
AcDbArc
 50
74.99999999999885
 51
180.0
  0
LINE
  5
17C
330
1F
100
AcDbEntity
  8
LAY-10
  6
CONTINUOUS
 62
     7
100
AcDbLine
 10
862.0
 20
255.3818921718716
 30
0.0
 11
862.0
 21
254.2000000000002
 31
0.0
  0
ARC
  5
17D
330
1F
100
AcDbEntity
  8
LAY-10
  6
CONTINUOUS
 62
     7
100
AcDbCircle
 10
860.0
 20
255.3818921718716
 30
0.0
 40
2.0
100
AcDbArc
 50
0.0
 51
105.0000000000012
  0
LINE
  5
17E
330
1F
100
AcDbEntity
  8
LAY-10
  6
CONTINUOUS
 62
     7
100
AcDbLine
 10
511.8014811935391
 20
250.0030600984933
 30
0.0
 11
515.5000000000082
 21
236.2000000000026
 31
0.0
  0
LINE
  5
17F
330
1F
100
AcDbEntity
  8
LAY-10
  6
CONTINUOUS
 62
     7
100
AcDbLine
 10
511.8014811935404
 20
250.0030600984929
 30
0.0
 11
484.5176380902049
 21
257.3137438244494
 31
0.0
  0
LINE
  5
180
330
1F
100
AcDbEntity
  8
LAY-10
  6
CONTINUOUS
 62
     7
100
AcDbLine
 10
531.3647039369598
 20
233.4614672282433
 30
0.0
 11
531.9999999999959
 21
226.1999999999998
 31
0.0
  0
ARC
  5
181
330
1F
100
AcDbEntity
  8
LAY-10
  6
CONTINUOUS
 62
     7
100
AcDbCircle
 10
528.3761198426846
 20
233.2000000000003
 30
0.0
 40
3.000000000000002
100
AcDbArc
 50
4.999999999999859
 51
90.00000000000001
  0
LINE
  5
182
330
1F
100
AcDbEntity
  8
LAY-10
  6
CONTINUOUS
 62
     7
100
AcDbLine
 10
528.37611984268
 20
236.2000000000003
 30
0.0
 11
515.50000000001
 21
236.2000000000003
 31
0.0
  0
LINE
  5
183
330
1F
100
AcDbEntity
  8
LAY-10
  6
CONTINUOUS
 62
     7
100
AcDbLine
 10
547.368497112237
 20
230.2000000000003
 30
0.0
 11
538.6781992623542
 21
230.2000000000003
 31
0.0
  0
LINE
  5
184
330
1F
100
AcDbEntity
  8
LAY-10
  6
CONTINUOUS
 62
     7
100
AcDbLine
 10
536.2946920771656
 20
226.2000000000017
 30
0.0
 11
536.7085837563295
 21
228.5472963553343
 31
0.0
  0
ARC
  5
185
330
1F
100
AcDbEntity
  8
LAY-10
  6
CONTINUOUS
 62
     7
100
AcDbCircle
 10
538.6781992623542
 20
228.2000000000003
 30
0.0
 40
2.0
100
AcDbArc
 50
90.00000000000001
 51
170.0000000000014
  0
LINE
  5
186
330
1F
100
AcDbEntity
  8
LAY-10
  6
CONTINUOUS
 62
     7
100
AcDbLine
 10
565.7317381621001
 20
195.2000000000003
 30
0.0
 11
778.2682618378999
 21
195.2000000000002
 31
0.0
  0
LINE
  5
187
330
1F
100
AcDbEntity
  8
LAY-10
  6
CONTINUOUS
 62
     7
100
AcDbLine
 10
554.0000002198799
 20
194.2000000000003
 30
0.0
 11
789.99991972424
 21
194.2000000000002
 31
0.0
  0
LINE
  5
188
330
1F
100
AcDbEntity
  8
LAY-10
  6
CONTINUOUS
 62
     7
100
AcDbLine
 10
557.2374759223753
 20
236.055585483814
 30
0.0
 11
555.9999999999973
 21
250.2000000000003
 31
0.0
  0
LINE
  5
189
330
1F
100
AcDbEntity
  8
LAY-10
  6
CONTINUOUS
 62
     7
100
AcDbLine
 10
559.4496028813428
 20
233.4192752331897
 30
0.0
 11
564.0000000000009
 21
232.2000000000048
 31
0.0
  0
ARC
  5
18A
330
1F
100
AcDbEntity
  8
LAY-10
  6
CONTINUOUS
 62
     7
100
AcDbCircle
 10
560.2260600166505
 20
236.3170527120569
 30
0.0
 40
3.000000000000002
100
AcDbArc
 50
184.9999999999998
 51
255.0000000000011
  0
LINE
  5
18B
330
1F
100
AcDbEntity
  8
LAY-10
  6
CONTINUOUS
 62
     7
100
AcDbLine
 10
538.1961562068459
 20
242.6790554669992
 30
0.0
 11
538.1062608983511
 21
243.1888770957344
 31
0.0
  0
LINE
  5
18C
330
1F
100
AcDbEntity
  8
LAY-10
  6
CONTINUOUS
 62
     7
100
AcDbLine
 10
546.3761198426878
 20
240.2000000000003
 30
0.0
 11
541.1505794658797
 21
240.2000000000003
 31
0.0
  0
LINE
  5
18D
330
1F
100
AcDbEntity
  8
LAY-10
  6
CONTINUOUS
 62
     7
100
AcDbLine
 10
813.0373470351888
 20
238.0569308683002
 30
0.0
 11
812.0000000000018
 21
226.1999999999998
 31
0.0
  0
LINE
  5
18E
330
1F
100
AcDbEntity
  8
LAY-10
  6
CONTINUOUS
 62
     7
100
AcDbLine
 10
778.5050675806183
 20
233.112844257253
 30
0.0
 11
780.0000000000105
 21
250.1999999999993
 31
0.0
  0
ARC
  5
18F
330
1F
100
AcDbEntity
  8
LAY-10
  6
CONTINUOUS
 62
     7
100
AcDbCircle
 10
777.5088728825267
 20
233.2000000000002
 30
0.0
 40
1.0
100
AcDbArc
 50
270.0
 51
355.0
  0
LINE
  5
190
330
1F
100
AcDbEntity
  8
LAY-10
  6
CONTINUOUS
 62
     7
100
AcDbLine
 10
564.0
 20
232.2000000000003
 30
0.0
 11
777.5088728825267
 21
232.2000000000002
 31
0.0
  0
LINE
  5
191
330
1F
100
AcDbEntity
  8
LAY-10
  6
CONTINUOUS
 62
     7
100
AcDbLine
 10
779.2999999999997
 20
194.2000000000002
 30
0.0
 11
778.1063098706009
 21
232.3980841407724
 31
0.0
  0
LINE
  5
192
330
1F
100
AcDbEntity
  8
LAY-10
  6
CONTINUOUS
 62
     7
100
AcDbLine
 10
861.999999999945
 20
264.2000000000002
 30
0.0
 11
867.7367301929166
 21
264.2000000000002
 31
0.0
  0
LINE
  5
193
330
1F
100
AcDbEntity
  8
LAY-10
  6
CONTINUOUS
 62
     7
100
AcDbLine
 10
476.2632698070897
 20
264.2000000000003
 30
0.0
 11
482.0000000000546
 21
264.2000000000003
 31
0.0
  0
LINE
  5
194
330
1F
100
AcDbEntity
  8
LAY-10
  6
CONTINUOUS
 62
     7
100
AcDbLine
 10
535.2899149855302
 20
256.2000000000003
 30
0.0
 11
525.3160515006016
 21
258.8724886662058
 31
0.0
  0
LINE
  5
195
330
1F
100
AcDbEntity
  8
LAY-10
  6
CONTINUOUS
 62
     7
100
AcDbLine
 10
525.3160515006261
 20
258.8724886662017
 30
0.0
 11
524.5000000000082
 21
268.2000000000108
 31
0.0
  0
ARC
  5
196
330
1F
100
AcDbEntity
  8
LAY-10
  6
CONTINUOUS
 62
     7
100
AcDbCircle
 10
858.6629963703949
 20
266.4790137161739
 30
0.0
 40
3.000000000000002
100
AcDbArc
 50
285.0000000000013
 51
355.0000000000003
  0
LINE
  5
197
330
1F
100
AcDbEntity
  8
LAY-10
  6
CONTINUOUS
 62
     7
100
AcDbLine
 10
809.499999999995
 20
250.2000000000002
 30
0.0
 11
859.4394535057027
 21
263.5812362373067
 31
0.0
  0
LINE
  5
198
330
1F
100
AcDbEntity
  8
LAY-10
  6
CONTINUOUS
 62
     7
100
AcDbLine
 10
861.6515804646701
 20
266.217546487931
 30
0.0
 11
861.999999999995
 21
270.2000000000002
 31
0.0
  0
ARC
  5
199
330
1F
100
AcDbEntity
  8
LAY-10
  6
CONTINUOUS
 62
     7
100
AcDbCircle
 10
485.3370036296051
 20
266.4790137161741
 30
0.0
 40
3.000000000000002
100
AcDbArc
 50
184.9999999999998
 51
255.0000000000011
  0
LINE
  5
19A
330
1F
100
AcDbEntity
  8
LAY-10
  6
CONTINUOUS
 62
     7
100
AcDbLine
 10
534.500000000005
 20
250.2000000000003
 30
0.0
 11
484.5605464942973
 21
263.5812362373068
 31
0.0
  0
LINE
  5
19B
330
1F
100
AcDbEntity
  8
LAY-10
  6
CONTINUOUS
 62
     7
100
AcDbLine
 10
482.3484195353299
 20
266.2175464879311
 30
0.0
 11
482.0000000000045
 21
270.2000000000003
 31
0.0
  0
LINE
  5
19C
330
1F
100
AcDbEntity
  8
LAY-10
  6
CONTINUOUS
 62
     7
100
AcDbLine
 10
778.8082464074
 20
256.1999999999998
 30
0.0
 11
778.0579618842498
 21
256.1999999999998
 31
0.0
  0
ARC
  5
19D
330
1F
100
AcDbEntity
  8
LAY-10
  6
CONTINUOUS
 62
     7
100
AcDbCircle
 10
778.8082464074018
 20
257.1999999999998
 30
0.0
 40
1.0
100
AcDbArc
 50
270.0
 51
350.0000000000014
  0
LINE
  5
19E
330
1F
100
AcDbEntity
  8
LAY-10
  6
CONTINUOUS
 62
     7
100
AcDbLine
 10
779.9999999999964
 20
258.2000000000003
 30
0.0
 11
779.7930541604142
 21
257.0263518223328
 31
0.0
  0
LINE
  5
19F
330
1F
100
AcDbEntity
  8
LAY-10
  6
CONTINUOUS
 62
     7
100
AcDbLine
 10
862.0
 20
270.1999999999998
 30
0.0
 11
855.1124206446798
 21
270.1999999999998
 31
0.0
  0
LINE
  5
1A0
330
1F
100
AcDbEntity
  8
LAY-10
  6
CONTINUOUS
 62
     7
100
AcDbLine
 10
816.1741866296065
 20
258.1999999999998
 30
0.0
 11
780.0
 21
258.1999999999998
 31
0.0
  0
LINE
  5
1A1
330
1F
100
AcDbEntity
  8
LAY-10
  6
CONTINUOUS
 62
     7
100
AcDbLine
 10
778.0579618842467
 20
256.1999999999998
 30
0.0
 11
535.289914985532
 21
256.1999999999998
 31
0.0
  0
LINE
  5
1A2
330
1F
100
AcDbEntity
  8
LAY-10
  6
CONTINUOUS
 62
     7
100
AcDbLine
 10
782.0
 20
258.1999999999998
 30
0.0
 11
783.0
 21
250.1999999999998
 31
0.0
  0
LINE
  5
1A3
330
1F
100
AcDbEntity
  8
LAY-10
  6
CONTINUOUS
 62
     7
100
AcDbLine
 10
798.0
 20
258.1999999999998
 30
0.0
 11
797.0
 21
250.1999999999998
 31
0.0
  0
LINE
  5
1A4
330
1F
100
AcDbEntity
  8
LAY-10
  6
CONTINUOUS
 62
     7
100
AcDbLine
 10
778.0579618842467
 20
256.2000000000007
 30
0.0
 11
776.9999999999955
 21
250.1999999999993
 31
0.0
  0
LINE
  5
1A5
330
1F
100
AcDbEntity
  8
LAY-10
  6
CONTINUOUS
 62
     7
100
AcDbLine
 10
565.9420381157533
 20
256.2000000000007
 30
0.0
 11
567.0000000000041
 21
250.1999999999994
 31
0.0
  0
LINE
  5
1A6
330
1F
100
AcDbEntity
  8
LAY-10
  6
CONTINUOUS
 62
     7
100
AcDbLine
 10
482.0
 20
270.1999999999999
 30
0.0
 11
488.8875793553207
 21
270.1999999999999
 31
0.0
  0
LINE
  5
1A7
330
1F
100
AcDbEntity
  8
LAY-10
  6
CONTINUOUS
 62
     7
100
AcDbLine
 10
488.8875793553207
 20
270.1999999999999
 30
0.0
 11
489.5000000000018
 21
277.1999999999999
 31
0.0
  0
LINE
  5
1A8
330
1F
100
AcDbEntity
  8
LAY-10
  6
CONTINUOUS
 62
     7
100
AcDbLine
 10
821.243961650498
 20
259.5584421226558
 30
0.0
 11
821.9999999999695
 21
268.2000000000098
 31
0.0
  0
LINE
  5
1A9
330
1F
100
AcDbEntity
  8
LAY-10
  6
CONTINUOUS
 62
     7
100
AcDbLine
 10
816.1741866296097
 20
258.2000000000012
 30
0.0
 11
821.2439616505008
 21
259.5584421226562
 31
0.0
  0
LINE
  5
1AA
330
1F
100
AcDbEntity
  8
LAY-10
  6
CONTINUOUS
 62
     7
100
AcDbLine
 10
855.1124206446793
 20
270.1999999999998
 30
0.0
 11
854.4999999999977
 21
277.1999999999998
 31
0.0
  0
LINE
  5
1AB
330
1F
100
AcDbEntity
  8
LAY-10
  6
CONTINUOUS
 62
     7
100
AcDbLine
 10
848.7126020282026
 20
268.2000000000098
 30
0.0
 11
849.4999999999359
 21
277.2000000000057
 31
0.0
  0
LINE
  5
1AC
330
1F
100
AcDbEntity
  8
LAY-10
  6
CONTINUOUS
 62
     7
100
AcDbLine
 10
661.8649383443635
 20
266.88788279961
 30
0.0
 11
524.6147953802606
 21
266.8878827996101
 31
0.0
  0
ARC
  5
1AD
330
1F
100
AcDbEntity
  8
LAY-10
  6
CONTINUOUS
 62
     7
100
AcDbCircle
 10
687.1570475720814
 20
260.8724886662098
 30
0.0
 40
2.0
100
AcDbArc
 50
184.7409865596125
 51
270.0
  0
ARC
  5
1AE
330
1F
100
AcDbEntity
  8
LAY-10
  6
CONTINUOUS
 62
     7
100
AcDbCircle
 10
659.3975924529173
 20
260.8724886662098
 30
0.0
 40
2.0
100
AcDbArc
 50
270.0
 51
355.6131616603309
  0
LINE
  5
1AF
330
1F
100
AcDbEntity
  8
LAY-10
  6
CONTINUOUS
 62
     7
100
AcDbLine
 10
685.4499999999998
 20
258.8724886662098
 30
0.0
 11
661.3800000000001
 21
258.8724886662098
 31
0.0
  0
LINE
  5
1B0
330
1F
100
AcDbEntity
  8
LAY-10
  6
CONTINUOUS
 62
     7
100
AcDbLine
 10
661.9655970692502
 20
268.1999999999998
 30
0.0
 11
661.3917331516745
 21
260.7195086885663
 31
0.0
  0
LINE
  5
1B1
330
1F
100
AcDbEntity
  8
LAY-10
  6
CONTINUOUS
 62
     7
100
AcDbLine
 10
684.5421823983952
 20
268.2034984053912
 30
0.0
 11
685.1638905379327
 21
260.7071858010663
 31
0.0
  0
LINE
  5
1B2
330
1F
100
AcDbEntity
  8
LAY-10
  6
CONTINUOUS
 62
     7
100
AcDbLine
 10
525.9999999999991
 20
242.2000000000003
 30
0.0
 11
525.5000000000005
 21
242.7000000000012
 31
0.0
  0
LINE
  5
1B3
330
1F
100
AcDbEntity
  8
LAY-10
  6
CONTINUOUS
 62
     7
100
AcDbLine
 10
520.5000000000009
 20
242.7000000000012
 30
0.0
 11
525.5000000000005
 21
242.7000000000012
 31
0.0
  0
LINE
  5
1B4
330
1F
100
AcDbEntity
  8
LAY-10
  6
CONTINUOUS
 62
     7
100
AcDbLine
 10
519.9999999999995
 20
242.2000000000003
 30
0.0
 11
525.9999999999991
 21
242.2000000000003
 31
0.0
  0
LINE
  5
1B5
330
1F
100
AcDbEntity
  8
LAY-10
  6
CONTINUOUS
 62
     7
100
AcDbLine
 10
519.9999999999995
 20
242.2000000000003
 30
0.0
 11
520.5000000000009
 21
242.7000000000012
 31
0.0
  0
LINE
  5
1B6
330
1F
100
AcDbEntity
  8
LAY-10
  6
CONTINUOUS
 62
     7
100
AcDbLine
 10
522.9999999999995
 20
246.2000000000039
 30
0.0
 11
520.5000000000005
 21
244.7566243270303
 31
0.0
  0
LINE
  5
1B7
330
1F
100
AcDbEntity
  8
LAY-10
  6
CONTINUOUS
 62
     7
100
AcDbLine
 10
522.9999999999995
 20
246.2000000000039
 30
0.0
 11
525.4999999999986
 21
244.7566243270303
 31
0.0
  0
LINE
  5
1B8
330
1F
100
AcDbEntity
  8
LAY-10
  6
CONTINUOUS
 62
     7
100
AcDbLine
 10
520.5000000000009
 20
244.7566243270303
 30
0.0
 11
525.5000000000005
 21
244.7566243270303
 31
0.0
  0
LINE
  5
1B9
330
1F
100
AcDbEntity
  8
LAY-10
  6
CONTINUOUS
 62
     7
100
AcDbLine
 10
520.4999999999995
 20
244.7566243270303
 30
0.0
 11
520.4999999999995
 21
238.6200000000004
 31
0.0
  0
LINE
  5
1BA
330
1F
100
AcDbEntity
  8
LAY-10
  6
CONTINUOUS
 62
     7
100
AcDbLine
 10
525.4999999999995
 20
238.6200000000004
 30
0.0
 11
525.4999999999995
 21
244.7566243270303
 31
0.0
  0
LINE
  5
1BB
330
1F
100
AcDbEntity
  8
LAY-10
  6
CONTINUOUS
 62
     7
100
AcDbLine
 10
525.4999999999995
 20
240.2000000000003
 30
0.0
 11
520.4999999999995
 21
240.2000000000003
 31
0.0
  0
LINE
  5
1BC
330
1F
100
AcDbEntity
  8
LAY-10
  6
CONTINUOUS
 62
     7
100
AcDbLine
 10
525.4999999999982
 20
236.2000000000003
 30
0.0
 11
525.4999999999982
 21
219.2000000000003
 31
0.0
  0
LINE
  5
1BD
330
1F
100
AcDbEntity
  8
LAY-10
  6
CONTINUOUS
 62
     7
100
AcDbLine
 10
520.4999999999982
 20
236.2000000000003
 30
0.0
 11
520.4999999999982
 21
219.2000000000003
 31
0.0
  0
LINE
  5
1BE
330
1F
100
AcDbEntity
  8
LAY-10
  6
CONTINUOUS
 62
     7
100
AcDbLine
 10
508.4999999999982
 20
217.2000000000003
 30
0.0
 11
508.4999999999982
 21
212.2000000000003
 31
0.0
  0
LINE
  5
1BF
330
1F
100
AcDbEntity
  8
LAY-10
  6
CONTINUOUS
 62
     7
100
AcDbLine
 10
518.4999999999982
 20
217.2000000000003
 30
0.0
 11
508.4999999999982
 21
217.2000000000003
 31
0.0
  0
ARC
  5
1C0
330
1F
100
AcDbEntity
  8
LAY-10
  6
CONTINUOUS
 62
     7
100
AcDbCircle
 10
518.4999999999982
 20
219.2000000000003
 30
0.0
 40
2.0
100
AcDbArc
 50
270.0
 51
0.0
  0
ARC
  5
1C1
330
1F
100
AcDbEntity
  8
LAY-10
  6
CONTINUOUS
 62
     7
100
AcDbCircle
 10
518.4999999999982
 20
219.2000000000003
 30
0.0
 40
7.000000000000004
100
AcDbArc
 50
270.0
 51
0.0
  0
LINE
  5
1C2
330
1F
100
AcDbEntity
  8
LAY-10
  6
CONTINUOUS
 62
     7
100
AcDbLine
 10
518.4999999999982
 20
212.2000000000003
 30
0.0
 11
508.4999999999982
 21
212.2000000000003
 31
0.0
  0
LINE
  5
1C3
330
1F
100
AcDbEntity
  8
LAY-10
  6
CONTINUOUS
 62
     7
100
AcDbLine
 10
525.9999999999995
 20
239.7000000000003
 30
0.0
 11
525.9999999999995
 21
236.2000000000003
 31
0.0
  0
LINE
  5
1C4
330
1F
100
AcDbEntity
  8
LAY-10
  6
CONTINUOUS
 62
     7
100
AcDbLine
 10
525.5000000000023
 20
240.2000000000021
 30
0.0
 11
526.0
 21
239.7000000000044
 31
0.0
  0
LINE
  5
1C5
330
1F
100
AcDbEntity
  8
LAY-10
  6
CONTINUOUS
 62
     7
100
AcDbLine
 10
519.9999999999995
 20
239.7000000000003
 30
0.0
 11
519.9999999999995
 21
236.2000000000003
 31
0.0
  0
LINE
  5
1C6
330
1F
100
AcDbEntity
  8
LAY-10
  6
CONTINUOUS
 62
     7
100
AcDbLine
 10
520.4999999999977
 20
240.2000000000021
 30
0.0
 11
519.9999999999995
 21
239.7000000000044
 31
0.0
  0
LINE
  5
1C7
330
1F
100
AcDbEntity
  8
LAY-10
  6
CONTINUOUS
 62
     7
100
AcDbLine
 10
525.4999999999995
 20
236.2000000000003
 30
0.0
 11
525.4999999999995
 21
240.2000000000003
 31
0.0
  0
LINE
  5
1C8
330
1F
100
AcDbEntity
  8
LAY-10
  6
CONTINUOUS
 62
     7
100
AcDbLine
 10
520.4999999999995
 20
236.2000000000003
 30
0.0
 11
520.4999999999995
 21
240.2000000000003
 31
0.0
  0
LINE
  5
1C9
330
1F
100
AcDbEntity
  8
LAY-10
  6
CONTINUOUS
 62
     7
100
AcDbLine
 10
519.9999999999995
 20
242.2000000000003
 30
0.0
 11
519.9999999999995
 21
239.7000000000003
 31
0.0
  0
LINE
  5
1CA
330
1F
100
AcDbEntity
  8
LAY-10
  6
CONTINUOUS
 62
     7
100
AcDbLine
 10
525.9999999999995
 20
242.2000000000003
 30
0.0
 11
525.9999999999995
 21
239.7000000000003
 31
0.0
  0
LINE
  5
1CB
330
1F
100
AcDbEntity
  8
LAY-10
  6
CONTINUOUS
 62
     7
100
AcDbLine
 10
793.9999999999995
 20
237.2000000000002
 30
0.0
 11
793.9999999999995
 21
236.5094010767602
 31
0.0
  0
LINE
  5
1CC
330
1F
100
AcDbEntity
  8
LAY-10
  6
CONTINUOUS
 62
     7
100
AcDbLine
 10
785.9999999999995
 20
237.2000000000002
 30
0.0
 11
785.9999999999995
 21
236.5094010767602
 31
0.0
  0
LINE
  5
1CD
330
1F
100
AcDbEntity
  8
LAY-10
  6
CONTINUOUS
 62
     7
100
AcDbLine
 10
795.0000000000005
 20
238.2000000000002
 30
0.0
 11
795.0000000000005
 21
258.1999999999998
 31
0.0
  0
LINE
  5
1CE
330
1F
100
AcDbEntity
  8
LAY-10
  6
CONTINUOUS
 62
     7
100
AcDbLine
 10
785.0
 20
238.2000000000002
 30
0.0
 11
785.0
 21
258.1999999999998
 31
0.0
  0
LINE
  5
1CF
330
1F
100
AcDbEntity
  8
LAY-10
  6
CONTINUOUS
 62
     7
100
AcDbLine
 10
794.0000000000005
 20
258.1999999999998
 30
0.0
 11
794.0000000000005
 21
237.2000000000002
 31
0.0
  0
LINE
  5
1D0
330
1F
100
AcDbEntity
  8
LAY-10
  6
CONTINUOUS
 62
     7
100
AcDbLine
 10
786.0
 20
258.1999999999998
 30
0.0
 11
786.0
 21
237.2000000000002
 31
0.0
  0
LINE
  5
1D1
330
1F
100
AcDbEntity
  8
LAY-10
  6
CONTINUOUS
 62
     7
100
AcDbLine
 10
534.5
 20
250.1999999999998
 30
0.0
 11
785.0
 21
250.2000000000002
 31
0.0
  0
LINE
  5
1D2
330
1F
100
AcDbEntity
  8
LAY-10
  6
CONTINUOUS
 62
     7
100
AcDbLine
 10
795.0000000000005
 20
250.2000000000002
 30
0.0
 11
809.5
 21
250.2000000000002
 31
0.0
  0
LINE
  5
1D3
330
1F
100
AcDbEntity
  8
LAY-10
  6
CONTINUOUS
 62
     7
100
AcDbLine
 10
821.8852046197171
 20
266.8878827996099
 30
0.0
 11
795.0
 21
266.88788279961
 31
0.0
  0
LINE
  5
1D4
330
1F
100
AcDbEntity
  8
LAY-10
  6
CONTINUOUS
 62
     7
100
AcDbLine
 10
784.9999999999995
 20
266.88788279961
 30
0.0
 11
684.6512932337873
 21
266.88788279961
 31
0.0
  0
LINE
  5
1D5
330
1F
100
AcDbEntity
  8
LAY-10
  6
CONTINUOUS
 62
     7
100
AcDbLine
 10
786.0
 20
266.5999999999954
 30
0.0
 11
786.0
 21
287.2000000000003
 31
0.0
  0
LINE
  5
1D6
330
1F
100
AcDbEntity
  8
LAY-10
  6
CONTINUOUS
 62
     7
100
AcDbLine
 10
793.9999999999995
 20
266.5999999999954
 30
0.0
 11
793.9999999999995
 21
287.2000000000003
 31
0.0
  0
LINE
  5
1D7
330
1F
100
AcDbEntity
  8
LAY-10
  6
CONTINUOUS
 62
     7
100
AcDbLine
 10
788.9999999999868
 20
287.1999999999953
 30
0.0
 11
788.9999999999868
 21
284.1999999999953
 31
0.0
  0
LINE
  5
1D8
330
1F
100
AcDbEntity
  8
LAY-10
  6
CONTINUOUS
 62
     7
100
AcDbLine
 10
790.9999999999868
 20
287.1999999999953
 30
0.0
 11
790.9999999999868
 21
284.1999999999953
 31
0.0
  0
LINE
  5
1D9
330
1F
100
AcDbEntity
  8
LAY-10
  6
CONTINUOUS
 62
     7
100
AcDbLine
 10
790.9999999999868
 20
284.1999999999953
 30
0.0
 11
788.9999999999868
 21
284.1999999999953
 31
0.0
  0
LINE
  5
1DA
330
1F
100
AcDbEntity
  8
LAY-10
  6
CONTINUOUS
 62
     7
100
AcDbLine
 10
788.9999999999868
 20
286.1999999999957
 30
0.0
 11
784.9999999999995
 21
286.1999999999957
 31
0.0
  0
LINE
  5
1DB
330
1F
100
AcDbEntity
  8
LAY-10
  6
CONTINUOUS
 62
     7
100
AcDbLine
 10
795.0
 20
286.1999999999957
 30
0.0
 11
790.9999999999873
 21
286.1999999999957
 31
0.0
  0
LINE
  5
1DC
330
1F
100
AcDbEntity
  8
LAY-10
  6
CONTINUOUS
 62
     7
100
AcDbLine
 10
793.9999999999995
 20
287.2000000000003
 30
0.0
 11
794.9999999999995
 21
286.2000000000003
 31
0.0
  0
LINE
  5
1DD
330
1F
100
AcDbEntity
  8
LAY-10
  6
CONTINUOUS
 62
     7
100
AcDbLine
 10
785.9999999999995
 20
287.2000000000003
 30
0.0
 11
784.9999999999995
 21
286.2000000000003
 31
0.0
  0
LINE
  5
1DE
330
1F
100
AcDbEntity
  8
LAY-10
  6
CONTINUOUS
 62
     7
100
AcDbLine
 10
784.9999999999995
 20
266.5999999999954
 30
0.0
 11
784.9999999999995
 21
286.2000000000003
 31
0.0
  0
LINE
  5
1DF
330
1F
100
AcDbEntity
  8
LAY-10
  6
CONTINUOUS
 62
     7
100
AcDbLine
 10
788.9999999999868
 20
287.2000000000003
 30
0.0
 11
786.0
 21
287.2000000000003
 31
0.0
  0
LINE
  5
1E0
330
1F
100
AcDbEntity
  8
LAY-10
  6
CONTINUOUS
 62
     7
100
AcDbLine
 10
793.9999999999995
 20
287.2000000000003
 30
0.0
 11
790.9999999999873
 21
287.2000000000003
 31
0.0
  0
LINE
  5
1E1
330
1F
100
AcDbEntity
  8
LAY-10
  6
CONTINUOUS
 62
     7
100
AcDbLine
 10
795.0
 20
266.5999999999954
 30
0.0
 11
795.0
 21
286.2000000000003
 31
0.0
  0
LINE
  5
1E2
330
1F
100
AcDbEntity
  8
LAY-10
  6
CONTINUOUS
 62
     7
100
AcDbLine
 10
802.7075489833001
 20
240.2000000000002
 30
0.0
 11
803.6885201652999
 21
240.2000000000002
 31
0.0
  0
LINE
  5
1E3
330
1F
100
AcDbEntity
  8
LAY-10
  6
CONTINUOUS
 62
     7
100
AcDbLine
 10
848.7126020281999
 20
268.2000000000098
 30
0.0
 11
795.0
 21
268.2000000000098
 31
0.0
  0
ARC
  5
1E4
330
1F
100
AcDbEntity
  8
LAY-10
  6
CONTINUOUS
 62
     7
100
AcDbCircle
 10
511.2499999999786
 20
275.0857492994015
 30
0.0
 40
3.500000000000002
100
AcDbArc
 50
1.870641730592451
 51
51.31781254650581
  0
ARC
  5
1E5
330
1F
100
AcDbEntity
  8
LAY-10
  6
CONTINUOUS
 62
     7
100
AcDbCircle
 10
507.7499999999786
 20
275.0857492994015
 30
0.0
 40
3.500000000000002
100
AcDbArc
 50
128.6821874534989
 51
178.1293582693964
  0
LINE
  5
1E6
330
1F
100
AcDbEntity
  8
LAY-10
  6
CONTINUOUS
 62
     7
100
AcDbLine
 10
508.8999999999787
 20
279.1713634881017
 30
0.0
 11
508.8999999999787
 21
276.7000000000017
 31
0.0
  0
LINE
  5
1E7
330
1F
100
AcDbEntity
  8
LAY-10
  6
CONTINUOUS
 62
     7
100
AcDbLine
 10
508.8999999999787
 20
276.7000000000017
 30
0.0
 11
510.0999999999785
 21
276.7000000000017
 31
0.0
  0
LINE
  5
1E8
330
1F
100
AcDbEntity
  8
LAY-10
  6
CONTINUOUS
 62
     7
100
AcDbLine
 10
510.0999999999785
 20
279.1713634881017
 30
0.0
 11
510.0999999999785
 21
276.7000000000017
 31
0.0
  0
ARC
  5
1E9
330
1F
100
AcDbEntity
  8
LAY-10
  6
CONTINUOUS
 62
     7
100
AcDbCircle
 10
509.4999999999786
 20
272.9000000000015
 30
0.0
 40
6.300000000000002
100
AcDbArc
 50
95.4650237999009
 51
128.6821874535038
  0
ARC
  5
1EA
330
1F
100
AcDbEntity
  8
LAY-10
  6
CONTINUOUS
 62
     7
100
AcDbCircle
 10
509.4999999999786
 20
272.9000000000015
 30
0.0
 40
6.300000000000002
100
AcDbArc
 50
51.31781254650546
 51
84.53497620008976
  0
LINE
  5
1EB
330
1F
100
AcDbEntity
  8
LAY-10
  6
CONTINUOUS
 62
     7
100
AcDbLine
 10
511.9999999999786
 20
263.2000000000035
 30
0.0
 11
512.4999999999786
 21
263.7000000000035
 31
0.0
  0
LINE
  5
1EC
330
1F
100
AcDbEntity
  8
LAY-10
  6
CONTINUOUS
 62
     7
100
AcDbLine
 10
506.9999999999786
 20
263.2000000000035
 30
0.0
 11
506.4999999999786
 21
263.7000000000035
 31
0.0
  0
LINE
  5
1ED
330
1F
100
AcDbEntity
  8
LAY-10
  6
CONTINUOUS
 62
     7
100
AcDbLine
 10
511.9999999999786
 20
263.2000000000035
 30
0.0
 11
506.9999999999786
 21
263.2000000000035
 31
0.0
  0
LINE
  5
1EE
330
1F
100
AcDbEntity
  8
LAY-10
  6
CONTINUOUS
 62
     7
100
AcDbLine
 10
506.4999999999786
 20
275.2000000000017
 30
0.0
 11
506.4999999999786
 21
263.7000000000035
 31
0.0
  0
LINE
  5
1EF
330
1F
100
AcDbEntity
  8
LAY-10
  6
CONTINUOUS
 62
     7
100
AcDbLine
 10
511.9999999999786
 20
275.2000000000017
 30
0.0
 11
511.9999999999786
 21
263.2000000000035
 31
0.0
  0
LINE
  5
1F0
330
1F
100
AcDbEntity
  8
LAY-10
  6
CONTINUOUS
 62
     7
100
AcDbLine
 10
506.9999999999786
 20
275.2000000000017
 30
0.0
 11
506.9999999999786
 21
263.2000000000035
 31
0.0
  0
LINE
  5
1F1
330
1F
100
AcDbEntity
  8
LAY-10
  6
CONTINUOUS
 62
     7
100
AcDbLine
 10
506.4999999999786
 20
263.7000000000035
 30
0.0
 11
512.4999999999786
 21
263.7000000000035
 31
0.0
  0
LINE
  5
1F2
330
1F
100
AcDbEntity
  8
LAY-10
  6
CONTINUOUS
 62
     7
100
AcDbLine
 10
512.4999999999786
 20
275.2000000000017
 30
0.0
 11
512.4999999999786
 21
263.7000000000035
 31
0.0
  0
LINE
  5
1F3
330
1F
100
AcDbEntity
  8
LAY-10
  6
CONTINUOUS
 62
     7
100
AcDbLine
 10
512.0
 20
263.2000000000003
 30
0.0
 11
512.0
 21
256.1615242270805
 31
0.0
  0
LINE
  5
1F4
330
1F
100
AcDbEntity
  8
LAY-10
  6
CONTINUOUS
 62
     7
100
AcDbLine
 10
507.0
 20
263.2000000000003
 30
0.0
 11
507.0
 21
257.5686027918578
 31
0.0
  0
LINE
  5
1F5
330
1F
100
AcDbEntity
  8
LAY-10
  6
CONTINUOUS
 62
     7
100
AcDbLine
 10
512.5
 20
263.7000000000003
 30
0.0
 11
512.5
 21
256.0948822334868
 31
0.0
  0
LINE
  5
1F6
330
1F
100
AcDbEntity
  8
LAY-10
  6
CONTINUOUS
 62
     7
100
AcDbLine
 10
506.5
 20
263.7000000000003
 30
0.0
 11
506.5
 21
257.7025773880737
 31
0.0
  0
LINE
  5
1F7
330
1F
100
AcDbEntity
  8
LAY-10
  6
CONTINUOUS
 62
     7
100
AcDbLine
 10
805.5000000000018
 20
230.2000041955334
 30
0.0
 11
805.5
 21
184.1999999999998
 31
0.0
  0
LINE
  5
1F8
330
1F
100
AcDbEntity
  8
LAY-10
  6
CONTINUOUS
 62
     7
100
AcDbLine
 10
805.5
 20
184.1999999999998
 30
0.0
 11
538.5
 21
184.1999999999998
 31
0.0
  0
LINE
  5
1F9
330
1F
100
AcDbEntity
  8
LAY-10
  6
CONTINUOUS
 62
     7
100
AcDbLine
 10
797.0000000000018
 20
230.2000041955334
 30
0.0
 11
797.0000000000018
 21
184.1999999999998
 31
0.0
  0
LINE
  5
1FA
330
1F
100
AcDbEntity
  8
LAY-10
  6
CONTINUOUS
 62
     7
100
AcDbLine
 10
547.0000000000018
 20
230.2000041955335
 30
0.0
 11
547.0000000000018
 21
184.1999999999998
 31
0.0
  0
LINE
  5
1FB
330
1F
100
AcDbEntity
  8
LAY-10
  6
CONTINUOUS
 62
     7
100
AcDbLine
 10
538.5000000000018
 20
230.2000041955335
 30
0.0
 11
538.5000000000018
 21
184.1999999999998
 31
0.0
  0
LINE
  5
1FC
330
1F
100
AcDbEntity
  8
LAY-10
  6
CONTINUOUS
 62
     7
100
AcDbLine
 10
489.5
 20
277.2
 30
0.0
 11
504.9607449067649
 21
277.2
 31
0.0
  0
LINE
  5
1FD
330
1F
100
AcDbEntity
  8
LAY-10
  6
CONTINUOUS
 62
     7
100
AcDbLine
 10
845.7657111350138
 20
268.1999999999905
 30
0.0
 11
846.9999999999729
 21
275.1999999999905
 31
0.0
  0
LINE
  5
1FE
330
1F
100
AcDbEntity
  8
LAY-10
  6
CONTINUOUS
 62
     7
100
AcDbLine
 10
498.234288864928
 20
268.2000000000002
 30
0.0
 11
496.9999999999688
 21
275.2000000000002
 31
0.0
  0
LINE
  5
1FF
330
1F
100
AcDbEntity
  8
LAY-10
  6
CONTINUOUS
 62
     7
100
AcDbLine
 10
801.6515181391617
 20
347.9190651773929
 30
0.0
 11
706.9999999999693
 21
356.2000000000906
 31
0.0
  0
ARC
  5
200
330
1F
100
AcDbEntity
  8
LAY-10
  6
CONTINUOUS
 62
     7
100
AcDbCircle
 10
800.7799607116851
 20
337.9571181964754
 30
0.0
 40
10.0
100
AcDbArc
 50
9.999999999997193
 51
85.00000000000021
  0
LINE
  5
201
330
1F
100
AcDbEntity
  8
LAY-10
  6
CONTINUOUS
 62
     7
100
AcDbLine
 10
542.3484818607769
 20
347.919065177393
 30
0.0
 11
636.9999999999693
 21
356.2000000000906
 31
0.0
  0
ARC
  5
202
330
1F
100
AcDbEntity
  8
LAY-10
  6
CONTINUOUS
 62
     7
100
AcDbCircle
 10
543.2200392882535
 20
337.9571181964756
 30
0.0
 40
10.0
100
AcDbArc
 50
95.00000000000045
 51
170.0000000000028
  0
LINE
  5
203
330
1F
100
AcDbEntity
  8
LAY-10
  6
CONTINUOUS
 62
     7
100
AcDbLine
 10
686.8999999999699
 20
358.2000000000003
 30
0.0
 11
657.0999999999697
 21
358.2000000000003
 31
0.0
  0
ARC
  5
204
330
1F
100
AcDbEntity
  8
LAY-10
  6
CONTINUOUS
 62
     7
100
AcDbCircle
 10
688.8999999999689
 20
358.2000000000001
 30
0.0
 40
2.0
100
AcDbArc
 50
180.0
 51
270.0
  0
ARC
  5
205
330
1F
100
AcDbEntity
  8
LAY-10
  6
CONTINUOUS
 62
     7
100
AcDbCircle
 10
655.0999999999706
 20
358.2000000000001
 30
0.0
 40
2.0
100
AcDbArc
 50
270.0
 51
0.0
  0
LINE
  5
206
330
1F
100
AcDbEntity
  8
LAY-10
  6
CONTINUOUS
 62
     7
100
AcDbLine
 10
655.0999999999706
 20
356.2000000000001
 30
0.0
 11
636.9999999999693
 21
356.2000000000001
 31
0.0
  0
LINE
  5
207
330
1F
100
AcDbEntity
  8
LAY-10
  6
CONTINUOUS
 62
     7
100
AcDbLine
 10
706.9999999999693
 20
356.2000000000001
 30
0.0
 11
688.8999999999689
 21
356.2000000000001
 31
0.0
  0
LINE
  5
208
330
1F
100
AcDbEntity
  8
LAY-10
  6
CONTINUOUS
 62
     7
100
AcDbLine
 10
705.7657111350138
 20
349.2000000000906
 30
0.0
 11
706.9999999999729
 21
356.2000000000906
 31
0.0
  0
ARC
  5
209
330
1F
100
AcDbEntity
  8
LAY-10
  6
CONTINUOUS
 62
     7
100
AcDbCircle
 10
826.195498155975
 20
280.2
 30
0.0
 40
5.0
100
AcDbArc
 50
189.999999999997
 51
270.0
  0
ARC
  5
20A
330
1F
100
AcDbEntity
  8
LAY-10
  6
CONTINUOUS
 62
     7
100
AcDbCircle
 10
824.5172988936222
 20
278.2
 30
0.0
 40
10.0
100
AcDbArc
 50
189.9999999999972
 51
270.0
  0
ARC
  5
20B
330
1F
100
AcDbEntity
  8
LAY-10
  6
CONTINUOUS
 62
     7
100
AcDbCircle
 10
519.4827011063173
 20
278.2000000000002
 30
0.0
 40
10.0
100
AcDbArc
 50
270.0
 51
350.0000000000022
  0
LINE
  5
20C
330
1F
100
AcDbEntity
  8
LAY-10
  6
CONTINUOUS
 62
     7
100
AcDbLine
 10
533.3719617581312
 20
339.6935999731444
 30
0.0
 11
522.7285406090252
 21
279.3317591116657
 31
0.0
  0
LINE
  5
20D
330
1F
100
AcDbEntity
  8
LAY-10
  6
CONTINUOUS
 62
     7
100
AcDbLine
 10
517.8045018439636
 20
275.2000000000002
 30
0.0
 11
496.9999999999698
 21
275.2000000000002
 31
0.0
  0
ARC
  5
20E
330
1F
100
AcDbEntity
  8
LAY-10
  6
CONTINUOUS
 62
     7
100
AcDbCircle
 10
517.8045018439636
 20
280.2000000000002
 30
0.0
 40
5.0
100
AcDbArc
 50
270.0
 51
350.0000000000029
  0
LINE
  5
20F
330
1F
100
AcDbEntity
  8
LAY-10
  6
CONTINUOUS
 62
     7
100
AcDbLine
 10
838.2342888649293
 20
268.2000000000335
 30
0.0
 11
836.9999999999702
 21
275.2000000000335
 31
0.0
  0
LINE
  5
210
330
1F
100
AcDbEntity
  8
LAY-10
  6
CONTINUOUS
 62
     7
100
AcDbLine
 10
539.9991261629414
 20
336.9667235957623
 30
0.0
 11
529.3307786364396
 21
276.4635182233313
 31
0.0
  0
ARC
  5
211
330
1F
100
AcDbEntity
  8
LAY-10
  6
CONTINUOUS
 62
     7
100
AcDbCircle
 10
544.923164928003
 20
336.0984827074279
 30
0.0
 40
5.0
100
AcDbArc
 50
94.99999999999983
 51
170.0000000000029
  0
LINE
  5
212
330
1F
100
AcDbEntity
  8
LAY-10
  6
CONTINUOUS
 62
     7
100
AcDbLine
 10
804.0008738369972
 20
336.9667235957629
 30
0.0
 11
814.6692213634999
 21
276.4635182233312
 31
0.0
  0
ARC
  5
213
330
1F
100
AcDbEntity
  8
LAY-10
  6
CONTINUOUS
 62
     7
100
AcDbCircle
 10
799.0768350719366
 20
336.0984827074285
 30
0.0
 40
5.0
100
AcDbArc
 50
9.99999999999708
 51
85.00000000000021
  0
LINE
  5
214
330
1F
100
AcDbEntity
  8
LAY-10
  6
CONTINUOUS
 62
     7
100
AcDbLine
 10
810.6280382418074
 20
339.6935999731443
 30
0.0
 11
821.271459390907
 21
279.3317591117066
 31
0.0
  0
LINE
  5
215
330
1F
100
AcDbEntity
  8
LAY-10
  6
CONTINUOUS
 62
     7
100
AcDbLine
 10
846.9999999999693
 20
275.2
 30
0.0
 11
826.1954981559695
 21
275.2
 31
0.0
  0
LINE
  5
216
330
1F
100
AcDbEntity
  8
LAY-10
  6
CONTINUOUS
 62
     7
100
AcDbLine
 10
519.2349630361225
 20
268.2000000000002
 30
0.0
 11
517.9999999999848
 21
275.2038234147509
 31
0.0
  0
LINE
  5
217
330
1F
100
AcDbEntity
  8
LAY-10
  6
CONTINUOUS
 62
     7
100
AcDbLine
 10
812.6546700225397
 20
328.2
 30
0.0
 11
805.5466837393435
 21
328.2
 31
0.0
  0
LINE
  5
218
330
1F
100
AcDbEntity
  8
LAY-10
  6
CONTINUOUS
 62
     7
100
AcDbLine
 10
795.7584167547068
 20
341.4079058787293
 30
0.0
 11
794.4999999999311
 21
348.544741941593
 31
0.0
  0
ARC
  5
219
330
1F
100
AcDbEntity
  8
LAY-10
  6
CONTINUOUS
 62
     7
100
AcDbCircle
 10
686.0280513959835
 20
323.9490356256695
 30
0.0
 40
4.250964374333649
100
AcDbArc
 50
2.918948698460851
 51
179.1775812548448
  0
LINE
  5
21A
330
1F
100
AcDbEntity
  8
LAY-10
  6
CONTINUOUS
 62
     7
100
AcDbLine
 10
690.2735004442131
 20
324.1655084662657
 30
0.0
 11
693.0303616788799
 21
270.0981535380991
 31
0.0
  0
LINE
  5
21B
330
1F
100
AcDbEntity
  8
LAY-10
  6
CONTINUOUS
 62
     7
100
AcDbLine
 10
681.7775249375884
 20
324.0100515113984
 30
0.0
 11
681.0054990691026
 21
270.228706844074
 31
0.0
  0
ARC
  5
21C
330
1F
100
AcDbEntity
  8
LAY-10
  6
CONTINUOUS
 62
     7
100
AcDbCircle
 10
683.0052930377663
 20
270.2000000000001
 30
0.0
 40
2.0
100
AcDbArc
 50
179.1775812548468
 51
270.0
  0
ARC
  5
21D
330
1F
100
AcDbEntity
  8
LAY-10
  6
CONTINUOUS
 62
     7
100
AcDbCircle
 10
684.1058803697663
 20
277.2000000000001
 30
0.0
 40
2.0
100
AcDbArc
 50
179.1775812548468
 51
270.0
  0
LINE
  5
21E
330
1F
100
AcDbEntity
  8
LAY-10
  6
CONTINUOUS
 62
     7
100
AcDbLine
 10
692.7702216599212
 20
275.2000000000001
 30
0.0
 11
684.1058803697699
 21
275.2000000000001
 31
0.0
  0
ARC
  5
21F
330
1F
100
AcDbEntity
  8
LAY-10
  6
CONTINUOUS
 62
     7
100
AcDbCircle
 10
713.4610632464885
 20
324.1460374221352
 30
0.0
 40
4.053962577884704
100
AcDbArc
 50
4.880953871480793
 51
181.3122427805255
  0
LINE
  5
220
330
1F
100
AcDbEntity
  8
LAY-10
  6
CONTINUOUS
 62
     7
100
AcDbLine
 10
717.5003246773006
 20
324.4909717293306
 30
0.0
 11
722.0729258017275
 21
270.9447428530207
 31
0.0
  0
ARC
  5
221
330
1F
100
AcDbEntity
  8
LAY-10
  6
CONTINUOUS
 62
     7
100
AcDbCircle
 10
725.0620467074316
 20
271.2000000000001
 30
0.0
 40
3.000000000000002
100
AcDbArc
 50
184.8809538714825
 51
270.0
  0
LINE
  5
222
330
1F
100
AcDbEntity
  8
LAY-10
  6
CONTINUOUS
 62
     7
100
AcDbLine
 10
709.4081638659475
 20
324.053197808036
 30
0.0
 11
710.6204438597335
 21
271.1312971353466
 31
0.0
  0
ARC
  5
223
330
1F
100
AcDbEntity
  8
LAY-10
  6
CONTINUOUS
 62
     7
100
AcDbCircle
 10
713.6196570759596
 20
271.2000000000001
 30
0.0
 40
3.000000000000002
100
AcDbArc
 50
181.3122427805227
 51
270.0
  0
ARC
  5
224
330
1F
100
AcDbEntity
  8
LAY-10
  6
CONTINUOUS
 62
     7
100
AcDbCircle
 10
691.0225703605204
 20
270.2000000000001
 30
0.0
 40
2.0
100
AcDbArc
 50
270.0
 51
2.918948698460508
  0
ARC
  5
225
330
1F
100
AcDbEntity
  8
LAY-10
  6
CONTINUOUS
 62
     7
100
AcDbCircle
 10
714.9597018335901
 20
278.2000000000001
 30
0.0
 40
3.000000000000002
100
AcDbArc
 50
181.3122427805227
 51
270.0
  0
ARC
  5
226
330
1F
100
AcDbEntity
  8
LAY-10
  6
CONTINUOUS
 62
     7
100
AcDbCircle
 10
739.0539307917236
 20
324.5276845289471
 30
0.0
 40
3.672315471053367
100
AcDbArc
 50
6.620650463579775
 51
183.3861107407425
  0
LINE
  5
227
330
1F
100
AcDbEntity
  8
LAY-10
  6
CONTINUOUS
 62
     7
100
AcDbLine
 10
742.7017566029765
 20
324.9510847765769
 30
0.0
 11
748.8780620358941
 21
271.7388193079085
 31
0.0
  0
ARC
  5
228
330
1F
100
AcDbEntity
  8
LAY-10
  6
CONTINUOUS
 62
     7
100
AcDbCircle
 10
752.8513871382786
 20
272.2000000000001
 30
0.0
 40
4.0
100
AcDbArc
 50
186.6206504635776
 51
270.0
  0
LINE
  5
229
330
1F
100
AcDbEntity
  8
LAY-10
  6
CONTINUOUS
 62
     7
100
AcDbLine
 10
735.3880265399196
 20
324.3107814733146
 30
0.0
 11
738.4852794782366
 21
271.9637424591193
 31
0.0
  0
ARC
  5
22A
330
1F
100
AcDbEntity
  8
LAY-10
  6
CONTINUOUS
 62
     7
100
AcDbCircle
 10
742.4782961792255
 20
272.2000000000001
 30
0.0
 40
4.0
100
AcDbArc
 50
183.3861107407426
 51
270.0
  0
LINE
  5
22B
330
1F
100
AcDbEntity
  8
LAY-10
  6
CONTINUOUS
 62
     7
100
AcDbLine
 10
721.7095464560045
 20
275.2000000000001
 30
0.0
 11
714.9597018335901
 21
275.2000000000001
 31
0.0
  0
ARC
  5
22C
330
1F
100
AcDbEntity
  8
LAY-10
  6
CONTINUOUS
 62
     7
100
AcDbCircle
 10
744.0676201638373
 20
279.2000000000001
 30
0.0
 40
4.0
100
AcDbArc
 50
183.3861107407426
 51
270.0
  0
ARC
  5
22D
330
1F
100
AcDbEntity
  8
LAY-10
  6
CONTINUOUS
 62
     7
100
AcDbCircle
 10
761.6752693930932
 20
325.0710322645685
 30
0.0
 40
3.128967735444576
100
AcDbArc
 50
8.063446950978463
 51
185.3042771868081
  0
LINE
  5
22E
330
1F
100
AcDbEntity
  8
LAY-10
  6
CONTINUOUS
 62
     7
100
AcDbLine
 10
748.4763255391556
 20
275.2000000000001
 30
0.0
 11
744.0676201638373
 21
275.2000000000001
 31
0.0
  0
LINE
  5
22F
330
1F
100
AcDbEntity
  8
LAY-10
  6
CONTINUOUS
 62
     7
100
AcDbLine
 10
764.7733021107308
 20
325.5099313074246
 30
0.0
 11
772.283422842974
 21
272.4986520156647
 31
0.0
  0
ARC
  5
230
330
1F
100
AcDbEntity
  8
LAY-10
  6
CONTINUOUS
 62
     7
100
AcDbCircle
 10
777.2339895786984
 20
273.2
 30
0.0
 40
5.0
100
AcDbArc
 50
188.0634469509787
 51
270.0
  0
LINE
  5
231
330
1F
100
AcDbEntity
  8
LAY-10
  6
CONTINUOUS
 62
     7
100
AcDbLine
 10
758.5597005237544
 20
324.7817750956286
 30
0.0
 11
763.3915950001931
 21
272.7377754048696
 31
0.0
  0
ARC
  5
232
330
1F
100
AcDbEntity
  8
LAY-10
  6
CONTINUOUS
 62
     7
100
AcDbCircle
 10
768.370183999463
 20
273.2
 30
0.0
 40
5.0
100
AcDbArc
 50
185.304277186807
 51
270.0
  0
ARC
  5
233
330
1F
100
AcDbEntity
  8
LAY-10
  6
CONTINUOUS
 62
     7
100
AcDbCircle
 10
770.7331884241723
 20
280.2
 30
0.0
 40
5.0
100
AcDbArc
 50
185.304277186807
 51
270.0
  0
ARC
  5
234
330
1F
100
AcDbEntity
  8
LAY-10
  6
CONTINUOUS
 62
     7
100
AcDbCircle
 10
780.3309881569787
 20
325.7454982989805
 30
0.0
 40
2.45450170102072
100
AcDbArc
 50
9.150579644625866
 51
186.9816588628321
  0
LINE
  5
235
330
1F
100
AcDbEntity
  8
LAY-10
  6
CONTINUOUS
 62
     7
100
AcDbLine
 10
771.9007222220264
 20
275.2
 30
0.0
 11
770.7331884241696
 21
275.2
 31
0.0
  0
LINE
  5
236
330
1F
100
AcDbEntity
  8
LAY-10
  6
CONTINUOUS
 62
     7
100
AcDbLine
 10
777.8946863092644
 20
325.4471496654494
 30
0.0
 11
784.2597045150662
 21
273.4706903399413
 31
0.0
  0
ARC
  5
237
330
1F
100
AcDbEntity
  8
LAY-10
  6
CONTINUOUS
 62
     7
100
AcDbCircle
 10
794.2084042012405
 20
326.5161213152085
 30
0.0
 40
1.683878684819661
100
AcDbArc
 50
9.839998885990537
 51
188.3471469377415
  0
LINE
  5
238
330
1F
100
AcDbEntity
  8
LAY-10
  6
CONTINUOUS
 62
     7
100
AcDbLine
 10
795.8675110655442
 20
326.8038917756755
 30
0.0
 11
805.0256494320331
 21
274.0037183192385
 31
0.0
  0
ARC
  5
239
330
1F
100
AcDbEntity
  8
LAY-10
  6
CONTINUOUS
 62
     7
100
AcDbCircle
 10
811.9226712632492
 20
275.2
 30
0.0
 40
7.000000000000004
100
AcDbArc
 50
189.8399988859767
 51
270.0
  0
LINE
  5
23A
330
1F
100
AcDbEntity
  8
LAY-10
  6
CONTINUOUS
 62
     7
100
AcDbLine
 10
792.5423634027659
 20
326.2716719688995
 30
0.0
 11
800.1849400485992
 21
274.1838071830211
 31
0.0
  0
ARC
  5
23B
330
1F
100
AcDbEntity
  8
LAY-10
  6
CONTINUOUS
 62
     7
100
AcDbCircle
 10
807.1107867231024
 20
275.2
 30
0.0
 40
7.000000000000004
100
AcDbArc
 50
188.3471469377424
 51
270.0
  0
LINE
  5
23C
330
1F
100
AcDbEntity
  8
LAY-10
  6
CONTINUOUS
 62
     7
100
AcDbLine
 10
682.795327682252
 20
325.2430602661109
 30
0.0
 11
682.1060864011026
 21
277.228706844074
 31
0.0
  0
ARC
  5
23D
330
1F
100
AcDbEntity
  8
LAY-10
  6
CONTINUOUS
 62
     7
100
AcDbCircle
 10
685.7950186352475
 20
325.2000000000001
 30
0.0
 40
3.000000000000002
100
AcDbArc
 50
113.1367683090197
 51
179.1775812548467
  0
LINE
  5
23E
330
1F
100
AcDbEntity
  8
LAY-10
  6
CONTINUOUS
 62
     7
100
AcDbLine
 10
710.9072929339848
 20
324.1083961804619
 30
0.0
 11
711.960488617364
 21
278.1312971353466
 31
0.0
  0
ARC
  5
23F
330
1F
100
AcDbEntity
  8
LAY-10
  6
CONTINUOUS
 62
     7
100
AcDbCircle
 10
714.9062438889534
 20
324.2000000000001
 30
0.0
 40
4.0
100
AcDbArc
 50
100.371940641732
 51
181.3122427805232
  0
LINE
  5
240
330
1F
100
AcDbEntity
  8
LAY-10
  6
CONTINUOUS
 62
     7
100
AcDbLine
 10
737.349395405434
 20
325.0228068443396
 30
0.0
 11
740.0746034628485
 21
278.9637424591193
 31
0.0
  0
ARC
  5
241
330
1F
100
AcDbEntity
  8
LAY-10
  6
CONTINUOUS
 62
     7
100
AcDbCircle
 10
740.3441579311759
 20
325.2000000000001
 30
0.0
 40
3.000000000000002
100
AcDbArc
 50
90.00000000000001
 51
183.3861107407415
  0
LINE
  5
242
330
1F
100
AcDbEntity
  8
LAY-10
  6
CONTINUOUS
 62
     7
100
AcDbLine
 10
761.5595217805187
 20
324.9226652429218
 30
0.0
 11
765.7545994249015
 21
279.7377754048696
 31
0.0
  0
ARC
  5
243
330
1F
100
AcDbEntity
  8
LAY-10
  6
CONTINUOUS
 62
     7
100
AcDbCircle
 10
764.5466751800816
 20
325.2000000000001
 30
0.0
 40
3.000000000000002
100
AcDbArc
 50
118.2435368517188
 51
185.3042771868071
  0
ARC
  5
244
330
1F
100
AcDbEntity
  8
LAY-10
  6
CONTINUOUS
 62
     7
100
AcDbCircle
 10
782.7173842906388
 20
327.2
 30
0.0
 40
1.0
100
AcDbArc
 50
151.2576426650544
 51
186.9816588628367
  0
LINE
  5
245
330
1F
100
AcDbEntity
  8
LAY-10
  6
CONTINUOUS
 62
     7
100
AcDbLine
 10
682.7899999999693
 20
275.0391853366
 30
0.0
 11
682.2299999999698
 21
269.1691853365999
 31
0.0
  0
LINE
  5
246
330
1F
100
AcDbEntity
  8
LAY-10
  6
CONTINUOUS
 62
     7
100
AcDbLine
 10
713.0999999999697
 20
275.2991853366
 30
0.0
 11
712.4999999999693
 21
269.2991853366
 31
0.0
  0
LINE
  5
247
330
1F
100
AcDbEntity
  8
LAY-10
  6
CONTINUOUS
 62
     7
100
AcDbLine
 10
741.3999999999699
 20
275.4991853366001
 30
0.0
 11
740.3999999999699
 21
269.6991853366001
 31
0.0
  0
LINE
  5
248
330
1F
100
AcDbEntity
  8
LAY-10
  6
CONTINUOUS
 62
     7
100
AcDbLine
 10
767.3999999999699
 20
275.0991853366002
 30
0.0
 11
766.4999999999693
 21
269.6991853366001
 31
0.0
  0
ARC
  5
249
330
1F
100
AcDbEntity
  8
LAY-10
  6
CONTINUOUS
 62
     7
100
AcDbCircle
 10
671.9999999999693
 20
323.9241114497252
 30
0.0
 40
4.275888550280797
100
AcDbArc
 50
90.00000000000001
 51
178.118389427732
  0
LINE
  5
24A
330
1F
100
AcDbEntity
  8
LAY-10
  6
CONTINUOUS
 62
     7
100
AcDbLine
 10
667.7264169839193
 20
324.0645076722606
 30
0.0
 11
665.9590115709645
 21
270.2656687941629
 31
0.0
  0
ARC
  5
24B
330
1F
100
AcDbEntity
  8
LAY-10
  6
CONTINUOUS
 62
     7
100
AcDbCircle
 10
667.9579331826028
 20
270.2000000000001
 30
0.0
 40
2.0
100
AcDbArc
 50
178.1183894277313
 51
270.0
  0
ARC
  5
24C
330
1F
100
AcDbEntity
  8
LAY-10
  6
CONTINUOUS
 62
     7
100
AcDbCircle
 10
669.2905196982249
 20
277.2000000000001
 30
0.0
 40
2.0
100
AcDbArc
 50
179.2735629413947
 51
270.0
  0
LINE
  5
24D
330
1F
100
AcDbEntity
  8
LAY-10
  6
CONTINUOUS
 62
     7
100
AcDbLine
 10
671.9999999999693
 20
275.2000000000001
 30
0.0
 11
669.2905196982695
 21
275.2000000000001
 31
0.0
  0
LINE
  5
24E
330
1F
100
AcDbEntity
  8
LAY-10
  6
CONTINUOUS
 62
     7
100
AcDbLine
 10
667.8744150116547
 20
323.2633918940103
 30
0.0
 11
667.2906804459737
 21
277.2253567576002
 31
0.0
  0
ARC
  5
24F
330
1F
100
AcDbEntity
  8
LAY-10
  6
CONTINUOUS
 62
     7
100
AcDbCircle
 10
672.8740131422821
 20
323.2000000000101
 30
0.0
 40
5.0
100
AcDbArc
 50
100.0671725123462
 51
179.273562941394
  0
ARC
  5
250
330
1F
100
AcDbEntity
  8
LAY-10
  6
CONTINUOUS
 62
     7
100
AcDbCircle
 10
644.1001285079576
 20
324.0234069718265
 30
0.0
 40
4.176593028182424
100
AcDbArc
 50
359.7536534775658
 51
176.0774820041209
  0
LINE
  5
251
330
1F
100
AcDbEntity
  8
LAY-10
  6
CONTINUOUS
 62
     7
100
AcDbLine
 10
648.2766829315271
 20
324.0054495235325
 30
0.0
 11
648.0495859851392
 21
271.1871013659896
 31
0.0
  0
ARC
  5
252
330
1F
100
AcDbEntity
  8
LAY-10
  6
CONTINUOUS
 62
     7
100
AcDbCircle
 10
645.0496137143939
 20
271.2000000000001
 30
0.0
 40
3.000000000000002
100
AcDbArc
 50
270.0
 51
359.7536534775656
  0
LINE
  5
253
330
1F
100
AcDbEntity
  8
LAY-10
  6
CONTINUOUS
 62
     7
100
AcDbLine
 10
639.9333192705728
 20
324.3091167935548
 30
0.0
 11
636.2776610890453
 21
270.9947778346125
 31
0.0
  0
ARC
  5
254
330
1F
100
AcDbEntity
  8
LAY-10
  6
CONTINUOUS
 62
     7
100
AcDbCircle
 10
633.2846886764039
 20
271.2000000000001
 30
0.0
 40
3.000000000000002
100
AcDbArc
 50
270.0
 51
356.0774820041187
  0
LINE
  5
255
330
1F
100
AcDbEntity
  8
LAY-10
  6
CONTINUOUS
 62
     7
100
AcDbLine
 10
643.5796969405203
 20
275.2000000000001
 30
0.0
 11
636.5660048088441
 21
275.2000000000001
 31
0.0
  0
ARC
  5
256
330
1F
100
AcDbEntity
  8
LAY-10
  6
CONTINUOUS
 62
     7
100
AcDbCircle
 10
643.5796969405203
 20
278.2000000000001
 30
0.0
 40
3.000000000000002
100
AcDbArc
 50
270.0
 51
359.7536534775656
  0
LINE
  5
257
330
1F
100
AcDbEntity
  8
LAY-10
  6
CONTINUOUS
 62
     7
100
AcDbLine
 10
646.7817496786131
 20
325.1871013659994
 30
0.0
 11
646.5796692112656
 21
278.1871013659893
 31
0.0
  0
ARC
  5
258
330
1F
100
AcDbEntity
  8
LAY-10
  6
CONTINUOUS
 62
     7
100
AcDbCircle
 10
643.7817774078678
 20
325.2000000000101
 30
0.0
 40
3.000000000000002
100
AcDbArc
 50
359.7536534775656
 51
90.00000000000001
  0
LINE
  5
259
330
1F
100
AcDbEntity
  8
LAY-10
  6
CONTINUOUS
 62
     7
100
AcDbLine
 10
668.2699999999697
 20
274.9995926683003
 30
0.0
 11
667.0499999999695
 21
269.2795926683
 31
0.0
  0
LINE
  5
25A
330
1F
100
AcDbEntity
  8
LAY-10
  6
CONTINUOUS
 62
     7
100
AcDbLine
 10
645.1099999999699
 20
274.8695926683002
 30
0.0
 11
645.9299999999696
 21
269.1795926683001
 31
0.0
  0
ARC
  5
25B
330
1F
100
AcDbEntity
  8
LAY-10
  6
CONTINUOUS
 62
     7
100
AcDbCircle
 10
617.4391294473428
 20
324.3149970427092
 30
0.0
 40
3.885002957284544
100
AcDbArc
 50
357.6371236708574
 51
174.2163975463169
  0
LINE
  5
25C
330
1F
100
AcDbEntity
  8
LAY-10
  6
CONTINUOUS
 62
     7
100
AcDbLine
 10
613.573902749876
 20
324.7064948783994
 30
0.0
 11
608.2148415284612
 21
271.7969137321132
 31
0.0
  0
ARC
  5
25D
330
1F
100
AcDbEntity
  8
LAY-10
  6
CONTINUOUS
 62
     7
100
AcDbCircle
 10
604.2352031704397
 20
272.2000000000001
 30
0.0
 40
4.0
100
AcDbArc
 50
270.0
 51
354.2163975463159
  0
LINE
  5
25E
330
1F
100
AcDbEntity
  8
LAY-10
  6
CONTINUOUS
 62
     7
100
AcDbLine
 10
621.3208291920521
 20
324.1548250411609
 30
0.0
 11
619.1701933025636
 21
272.03508686783
 31
0.0
  0
ARC
  5
25F
330
1F
100
AcDbEntity
  8
LAY-10
  6
CONTINUOUS
 62
     7
100
AcDbCircle
 10
615.1735942910493
 20
272.2000000000001
 30
0.0
 40
4.0
100
AcDbArc
 50
270.0
 51
357.6371236708563
  0
LINE
  5
260
330
1F
100
AcDbEntity
  8
LAY-10
  6
CONTINUOUS
 62
     7
100
AcDbLine
 10
613.4607359194463
 20
275.2000000000001
 30
0.0
 11
608.5595304724341
 21
275.2000000000001
 31
0.0
  0
ARC
  5
261
330
1F
100
AcDbEntity
  8
LAY-10
  6
CONTINUOUS
 62
     7
100
AcDbCircle
 10
613.4607359194463
 20
279.2000000000001
 30
0.0
 40
4.0
100
AcDbArc
 50
270.0
 51
357.6371236708579
  0
LINE
  5
262
330
1F
100
AcDbEntity
  8
LAY-10
  6
CONTINUOUS
 62
     7
100
AcDbLine
 10
615.7999999999695
 20
275.0995926683002
 30
0.0
 11
616.1999999999691
 21
269.1995926683001
 31
0.0
  0
ARC
  5
263
330
1F
100
AcDbEntity
  8
LAY-10
  6
CONTINUOUS
 62
     7
100
AcDbCircle
 10
593.1980513266328
 20
324.7809170719905
 30
0.0
 40
3.419082927977345
100
AcDbArc
 50
355.6297371828983
 51
172.6167774219652
  0
LINE
  5
264
330
1F
100
AcDbEntity
  8
LAY-10
  6
CONTINUOUS
 62
     7
100
AcDbLine
 10
619.3141864505362
 20
324.03508686783
 30
0.0
 11
617.4573349309605
 21
279.0350868678309
 31
0.0
  0
ARC
  5
265
330
1F
100
AcDbEntity
  8
LAY-10
  6
CONTINUOUS
 62
     7
100
AcDbCircle
 10
615.317587439022
 20
324.2000000000001
 30
0.0
 40
4.0
100
AcDbArc
 50
357.6371236708579
 51
74.50448108621242
  0
LINE
  5
266
330
1F
100
AcDbEntity
  8
LAY-10
  6
CONTINUOUS
 62
     7
100
AcDbLine
 10
589.8073165828994
 20
325.2202870371091
 30
0.0
 11
582.9832916753851
 21
272.5574739566633
 31
0.0
  0
ARC
  5
267
330
1F
100
AcDbEntity
  8
LAY-10
  6
CONTINUOUS
 62
     7
100
AcDbCircle
 10
578.0247475056078
 20
273.2000000000002
 30
0.0
 40
5.0
100
AcDbArc
 50
270.0
 51
352.6167774219629
  0
LINE
  5
268
330
1F
100
AcDbEntity
  8
LAY-10
  6
CONTINUOUS
 62
     7
100
AcDbLine
 10
596.6071930522514
 20
324.5203777021139
 30
0.0
 11
592.6559796816111
 21
272.818992321393
 31
0.0
  0
ARC
  5
269
330
1F
100
AcDbEntity
  8
LAY-10
  6
CONTINUOUS
 62
     7
100
AcDbCircle
 10
587.6705175015479
 20
273.2000000000001
 30
0.0
 40
5.0
100
AcDbArc
 50
270.0
 51
355.6297371828961
  0
LINE
  5
26A
330
1F
100
AcDbEntity
  8
LAY-10
  6
CONTINUOUS
 62
     7
100
AcDbLine
 10
585.1967355723466
 20
275.2000000000001
 30
0.0
 11
583.3257090755144
 21
275.2000000000002
 31
0.0
  0
ARC
  5
26B
330
1F
100
AcDbEntity
  8
LAY-10
  6
CONTINUOUS
 62
     7
100
AcDbCircle
 10
585.1967355723466
 20
280.2000000000001
 30
0.0
 40
5.0
100
AcDbArc
 50
270.0
 51
355.6297371828961
  0
ARC
  5
26C
330
1F
100
AcDbEntity
  8
LAY-10
  6
CONTINUOUS
 62
     7
100
AcDbCircle
 10
572.4456678513836
 20
325.3939944259581
 30
0.0
 40
2.806005574028973
100
AcDbArc
 50
353.822127011343
 51
171.3455079728139
  0
LINE
  5
26D
330
1F
100
AcDbEntity
  8
LAY-10
  6
CONTINUOUS
 62
     7
100
AcDbLine
 10
593.5506660352714
 20
323.8951938571143
 30
0.0
 11
590.1821977524098
 21
279.818992321393
 31
0.0
  0
ARC
  5
26E
330
1F
100
AcDbEntity
  8
LAY-10
  6
CONTINUOUS
 62
     7
100
AcDbCircle
 10
589.5622962912205
 20
324.2000000000001
 30
0.0
 40
4.0
100
AcDbArc
 50
355.6297371828977
 51
61.73713019086726
  0
LINE
  5
26F
330
1F
100
AcDbEntity
  8
LAY-10
  6
CONTINUOUS
 62
     7
100
AcDbLine
 10
575.2353778231038
 20
325.0920249651766
 30
0.0
 11
569.6567273856647
 21
273.5543074962305
 31
0.0
  0
ARC
  5
270
330
1F
100
AcDbEntity
  8
LAY-10
  6
CONTINUOUS
 62
     7
100
AcDbCircle
 10
563.6915717975364
 20
274.2000000000002
 30
0.0
 40
6.000000000000004
100
AcDbArc
 50
270.0
 51
353.8221270113416
  0
LINE
  5
271
330
1F
100
AcDbEntity
  8
LAY-10
  6
CONTINUOUS
 62
     7
100
AcDbLine
 10
569.6716122536675
 20
325.8162299317304
 30
0.0
 11
561.6777487072361
 21
273.2971461147157
 31
0.0
  0
ARC
  5
272
330
1F
100
AcDbEntity
  8
LAY-10
  6
CONTINUOUS
 62
     7
100
AcDbCircle
 10
555.7460664111388
 20
274.2000000000002
 30
0.0
 40
6.000000000000004
100
AcDbArc
 50
270.0
 51
351.345507972815
  0
ARC
  5
273
330
1F
100
AcDbEntity
  8
LAY-10
  6
CONTINUOUS
 62
     7
100
AcDbCircle
 10
560.4259147353107
 20
281.2000000000002
 30
0.0
 40
6.000000000000004
100
AcDbArc
 50
285.2028764887181
 51
353.8221270113362
  0
LINE
  5
274
330
1F
100
AcDbEntity
  8
LAY-10
  6
CONTINUOUS
 62
     7
100
AcDbLine
 10
571.3086467569849
 20
325.98476916541
 30
0.0
 11
566.391070323438
 21
280.5543074962299
 31
0.0
  0
ARC
  5
275
330
1F
100
AcDbEntity
  8
LAY-10
  6
CONTINUOUS
 62
     7
100
AcDbCircle
 10
569.3202615609418
 20
326.2000000000002
 30
0.0
 40
2.0
100
AcDbArc
 50
353.8221270113347
 51
45.08299260631595
  0
ARC
  5
276
330
1F
100
AcDbEntity
  8
LAY-10
  6
CONTINUOUS
 62
     7
100
AcDbCircle
 10
556.0903297013967
 20
326.121064319091
 30
0.0
 40
2.078935680922768
100
AcDbArc
 50
352.2927845965889
 51
170.4530194464708
  0
LINE
  5
277
330
1F
100
AcDbEntity
  8
LAY-10
  6
CONTINUOUS
 62
     7
100
AcDbLine
 10
587.8999999999699
 20
275.1995926683001
 30
0.0
 11
587.9999999999693
 21
269.0995926683002
 31
0.0
  0
LINE
  5
278
330
1F
100
AcDbEntity
  8
LAY-10
  6
CONTINUOUS
 62
     7
100
AcDbLine
 10
564.1999999999691
 20
275.4995926683004
 30
0.0
 11
564.5999999999697
 21
269.1995926683002
 31
0.0
  0
ARC
  5
279
330
1F
100
AcDbEntity
  8
LAY-10
  6
CONTINUOUS
 62
     7
100
AcDbCircle
 10
544.8403470594733
 20
326.9260743090407
 30
0.0
 40
1.273925690937858
100
AcDbArc
 50
351.1048932878746
 51
169.9730481400468
  0
LINE
  5
27A
330
1F
100
AcDbEntity
  8
LAY-10
  6
CONTINUOUS
 62
     7
100
AcDbLine
 10
558.1504849397863
 20
325.8422562146678
 30
0.0
 11
551.1698410590163
 21
274.2612231302472
 31
0.0
  0
ARC
  5
27B
330
1F
100
AcDbEntity
  8
LAY-10
  6
CONTINUOUS
 62
     7
100
AcDbCircle
 10
544.2330768285694
 20
275.2000000000002
 30
0.0
 40
7.000000000000004
100
AcDbArc
 50
270.0
 51
352.2927845965883
  0
LINE
  5
27C
330
1F
100
AcDbEntity
  8
LAY-10
  6
CONTINUOUS
 62
     7
100
AcDbLine
 10
554.0401874113179
 20
326.4658688373121
 30
0.0
 11
545.2227413087141
 21
274.0390061079155
 31
0.0
  0
ARC
  5
27D
330
1F
100
AcDbEntity
  8
LAY-10
  6
CONTINUOUS
 62
     7
100
AcDbCircle
 10
538.3196917519929
 20
275.2000000000002
 30
0.0
 40
7.000000000000004
100
AcDbArc
 50
270.0
 51
350.4530194464697
  0
LINE
  5
27E
330
1F
100
AcDbEntity
  8
LAY-10
  6
CONTINUOUS
 62
     7
100
AcDbLine
 10
546.0989513417555
 20
326.7290922623823
 30
0.0
 11
537.9971257427289
 21
274.9629919197913
 31
0.0
  0
ARC
  5
27F
330
1F
100
AcDbEntity
  8
LAY-10
  6
CONTINUOUS
 62
     7
100
AcDbCircle
 10
530.0933411423305
 20
276.2000000000002
 30
0.0
 40
8.0
100
AcDbArc
 50
270.0
 51
351.1048932878746
  0
LINE
  5
280
330
1F
100
AcDbEntity
  8
LAY-10
  6
CONTINUOUS
 62
     7
100
AcDbLine
 10
543.5858793602413
 20
327.1478793082453
 30
0.0
 11
534.3314006780413
 21
274.807108714237
 31
0.0
  0
ARC
  5
281
330
1F
100
AcDbEntity
  8
LAY-10
  6
CONTINUOUS
 62
     7
100
AcDbCircle
 10
526.4535929965834
 20
276.2000000000002
 30
0.0
 40
8.0
100
AcDbArc
 50
270.0
 51
349.9730481400471
  0
LINE
  5
282
330
1F
100
AcDbEntity
  8
LAY-10
  6
CONTINUOUS
 62
     7
100
AcDbLine
 10
637.3056265993093
 20
349.2000000000021
 30
0.0
 11
544.4873862142642
 21
341.0794561978868
 31
0.0
  0
LINE
  5
283
330
1F
100
AcDbEntity
  8
LAY-10
  6
CONTINUOUS
 62
     7
100
AcDbLine
 10
799.5126137856744
 20
341.0794561978873
 30
0.0
 11
706.6943734006693
 21
349.1999999999992
 31
0.0
  0
LINE
  5
284
330
1F
100
AcDbEntity
  8
LAY-10
  6
CONTINUOUS
 62
     7
100
AcDbLine
 10
706.6943734006693
 20
349.2000000000021
 30
0.0
 11
637.3056265993093
 21
349.2000000000021
 31
0.0
  0
LINE
  5
285
330
1F
100
AcDbEntity
  8
LAY-10
  6
CONTINUOUS
 62
     7
100
AcDbLine
 10
548.2415832452327
 20
341.4079058787294
 30
0.0
 11
549.5000000000084
 21
348.5447419415931
 31
0.0
  0
LINE
  5
286
330
1F
100
AcDbEntity
  8
LAY-10
  6
CONTINUOUS
 62
     7
100
AcDbLine
 10
638.2342888649257
 20
349.2000000000906
 30
0.0
 11
636.9999999999666
 21
356.2000000000906
 31
0.0
  0
LINE
  5
287
330
1F
100
AcDbEntity
  8
LAY-10
  6
CONTINUOUS
 62
     7
100
AcDbLine
 10
782.7542533858943
 20
326.1358369092138
 30
0.0
 11
789.5092615058502
 21
284.1999999999953
 31
0.0
  0
LINE
  5
288
330
1F
100
AcDbEntity
  8
LAY-10
  6
CONTINUOUS
 62
     7
100
AcDbLine
 10
781.7247991778625
 20
327.0784483899902
 30
0.0
 11
786.6082993876755
 21
287.2000000000003
 31
0.0
  0
ARC
  5
289
330
1F
100
AcDbEntity
  8
LAY-10
  6
CONTINUOUS
 62
     7
100
AcDbCircle
 10
790.215215191721
 20
274.2
 30
0.0
 40
6.000000000000004
100
AcDbArc
 50
186.9816588628333
 51
209.633899590263
  0
LINE
  5
28A
330
1F
100
AcDbEntity
  8
LAY-10
  6
CONTINUOUS
 62
     7
100
AcDbLine
 10
845.7657111350093
 20
268.2
 30
0.0
 11
793.9999999999995
 21
268.2
 31
0.0
  0
LINE
  5
28B
330
1F
100
AcDbEntity
  8
LAY-10
  6
CONTINUOUS
 62
     7
100
AcDbLine
 10
790.215215191721
 20
268.2000000000004
 30
0.0
 11
790.0
 21
268.2000000000004
 31
0.0
  0
ARC
  5
28C
330
1F
100
AcDbEntity
  8
LAY-10
  6
CONTINUOUS
 62
     7
100
AcDbCircle
 10
790.215215191721
 20
274.2
 30
0.0
 40
6.000000000000004
100
AcDbArc
 50
267.9444053559494
 51
270.0
  0
LINE
  5
28D
330
1F
100
AcDbEntity
  8
LAY-10
  6
CONTINUOUS
 62
     7
100
AcDbLine
 10
506.9999999999786
 20
268.2000000000002
 30
0.0
 11
498.2342888649698
 21
268.2000000000002
 31
0.0
  0
LINE
  5
28E
330
1F
100
AcDbEntity
  8
LAY-10
  6
CONTINUOUS
 62
     7
100
AcDbLine
 10
786.0
 20
268.2
 30
0.0
 11
511.9999999999786
 21
268.2000000000002
 31
0.0
  0
LINE
  5
28F
330
1F
100
AcDbEntity
  8
LAY-10
  6
CONTINUOUS
 62
     7
100
AcDbLine
 10
854.5
 20
277.1999999999999
 30
0.0
 11
822.1954981559751
 21
277.1999999999999
 31
0.0
  0
LINE
  5
290
330
1F
100
AcDbEntity
  8
LAY-10
  6
CONTINUOUS
 62
     7
100
AcDbLine
 10
836.2109156121669
 20
776.1366072321413
 30
0.0
 11
831.0570335801631
 21
785.0633927678051
 31
0.0
  0
LINE
  5
291
330
1F
100
AcDbEntity
  8
LAY-10
  6
CONTINUOUS
 62
     7
100
AcDbLine
 10
837.9429664197683
 20
777.1366072321385
 30
0.0
 11
832.7890843877476
 21
786.0633927678315
 31
0.0
  0
CIRCLE
  5
292
330
1F
100
AcDbEntity
  8
LAY-10
  6
CONTINUOUS
 62
     7
100
AcDbCircle
 10
834.4999999999991
 20
781.1000000000009
 30
0.0
 40
5.25
  0
LINE
  5
293
330
1F
100
AcDbEntity
  8
LAY-10
  6
CONTINUOUS
 62
     7
100
AcDbLine
 10
511.2109156121664
 20
776.1366072321413
 30
0.0
 11
506.0570335801631
 21
785.0633927678051
 31
0.0
  0
LINE
  5
294
330
1F
100
AcDbEntity
  8
LAY-10
  6
CONTINUOUS
 62
     7
100
AcDbLine
 10
512.9429664197683
 20
777.1366072321385
 30
0.0
 11
507.7890843877476
 21
786.0633927678315
 31
0.0
  0
CIRCLE
  5
295
330
1F
100
AcDbEntity
  8
LAY-10
  6
CONTINUOUS
 62
     7
100
AcDbCircle
 10
509.4999999999986
 20
781.1000000000009
 30
0.0
 40
5.25
  0
ARC
  5
296
330
1F
100
AcDbEntity
  8
LAY-10
  6
CONTINUOUS
 62
     7
100
AcDbCircle
 10
671.9999999998445
 20
781.0999999997699
 30
0.0
 40
182.5
100
AcDbArc
 50
287.35528435577
 51
312.6447156442514
  0
ARC
  5
297
330
1F
100
AcDbEntity
  8
LAY-10
  6
CONTINUOUS
 62
     7
100
AcDbCircle
 10
671.9999999998445
 20
781.0999999997699
 30
0.0
 40
177.49999999994
100
AcDbArc
 50
287.4216693869367
 51
312.5783306130942
  0
LINE
  5
298
330
1F
100
AcDbEntity
  8
LAY-10
  6
CONTINUOUS
 62
     7
100
AcDbLine
 10
792.0960611808205
 20
650.3973371011112
 30
0.0
 11
792.4204724545484
 21
651.7699821022276
 31
0.0
  0
LINE
  5
299
330
1F
100
AcDbEntity
  8
LAY-10
  6
CONTINUOUS
 62
     7
100
AcDbLine
 10
795.6346687232985
 20
646.8587295586318
 30
0.0
 11
796.9486055078278
 21
647.2418490489541
 31
0.0
  0
LINE
  5
29A
330
1F
100
AcDbEntity
  8
LAY-10
  6
CONTINUOUS
 62
     7
100
AcDbLine
 10
796.9486055078269
 20
647.2418490489487
 30
0.0
 11
792.4204724545466
 21
651.7699821022303
 31
0.0
  0
LINE
  5
29B
330
1F
100
AcDbEntity
  8
LAY-10
  6
CONTINUOUS
 62
     7
100
AcDbLine
 10
795.6346687232963
 20
646.8587295586354
 30
0.0
 11
792.0960611808223
 21
650.3973371011103
 31
0.0
  0
LINE
  5
29C
330
1F
100
AcDbEntity
  8
LAY-10
  6
CONTINUOUS
 62
     7
100
AcDbLine
 10
725.1437958219249
 20
611.7424286733072
 30
0.0
 11
723.7928447437175
 21
612.1478027695426
 31
0.0
  0
LINE
  5
29D
330
1F
100
AcDbEntity
  8
LAY-10
  6
CONTINUOUS
 62
     7
100
AcDbLine
 10
726.439016076496
 20
606.9086008762575
 30
0.0
 11
725.4502564729273
 21
605.9622579870498
 31
0.0
  0
LINE
  5
29E
330
1F
100
AcDbEntity
  8
LAY-10
  6
CONTINUOUS
 62
     7
100
AcDbLine
 10
725.4502564729328
 20
605.9622579870489
 30
0.0
 11
723.7928447437152
 21
612.1478027695463
 31
0.0
  0
LINE
  5
29F
330
1F
100
AcDbEntity
  8
LAY-10
  6
CONTINUOUS
 62
     7
100
AcDbLine
 10
726.4390160764942
 20
606.9086008762621
 30
0.0
 11
725.1437958219258
 21
611.7424286733045
 31
0.0
  0
ARC
  5
2A0
330
1F
100
AcDbEntity
  8
LAY-10
  6
CONTINUOUS
 62
     7
100
AcDbCircle
 10
672.0000000001755
 20
781.100000000101
 30
0.0
 40
182.5
100
AcDbArc
 50
317.3552843557472
 51
342.6447156442283
  0
ARC
  5
2A1
330
1F
100
AcDbEntity
  8
LAY-10
  6
CONTINUOUS
 62
     7
100
AcDbCircle
 10
672.0000000001755
 20
781.100000000101
 30
0.0
 40
177.49999999994
100
AcDbArc
 50
317.4216693869043
 51
342.5783306130618
  0
LINE
  5
2A2
330
1F
100
AcDbEntity
  8
LAY-10
  6
CONTINUOUS
 62
     7
100
AcDbLine
 10
802.7026628988301
 20
661.0039388191213
 30
0.0
 11
801.3300178977142
 21
660.679527545393
 31
0.0
  0
LINE
  5
2A3
330
1F
100
AcDbEntity
  8
LAY-10
  6
CONTINUOUS
 62
     7
100
AcDbLine
 10
806.24127044131
 20
657.4653312766428
 30
0.0
 11
805.8581509509877
 21
656.151394492114
 31
0.0
  0
LINE
  5
2A4
330
1F
100
AcDbEntity
  8
LAY-10
  6
CONTINUOUS
 62
     7
100
AcDbLine
 10
805.8581509509931
 20
656.151394492115
 30
0.0
 11
801.3300178977115
 21
660.6795275453948
 31
0.0
  0
LINE
  5
2A5
330
1F
100
AcDbEntity
  8
LAY-10
  6
CONTINUOUS
 62
     7
100
AcDbLine
 10
806.2412704413064
 20
657.4653312766455
 30
0.0
 11
802.7026628988315
 21
661.0039388191186
 31
0.0
  0
LINE
  5
2A6
330
1F
100
AcDbEntity
  8
LAY-10
  6
CONTINUOUS
 62
     7
100
AcDbLine
 10
841.3575713266364
 20
727.9562041780151
 30
0.0
 11
840.952197230401
 21
729.3071552562229
 31
0.0
  0
LINE
  5
2A7
330
1F
100
AcDbEntity
  8
LAY-10
  6
CONTINUOUS
 62
     7
100
AcDbLine
 10
846.1913991236861
 20
726.660983923444
 30
0.0
 11
847.1377420128938
 21
727.6497435270127
 31
0.0
  0
LINE
  5
2A8
330
1F
100
AcDbEntity
  8
LAY-10
  6
CONTINUOUS
 62
     7
100
AcDbLine
 10
847.1377420128952
 20
727.6497435270081
 30
0.0
 11
840.9521972303978
 21
729.3071552562247
 31
0.0
  0
LINE
  5
2A9
330
1F
100
AcDbEntity
  8
LAY-10
  6
CONTINUOUS
 62
     7
100
AcDbLine
 10
846.191399123682
 20
726.6609839234458
 30
0.0
 11
841.3575713266391
 21
727.9562041780151
 31
0.0
  0
CIRCLE
  5
2AA
330
1F
100
AcDbEntity
  8
LAY-10
  6
CONTINUOUS
 62
     7
100
AcDbCircle
 10
672.0
 20
781.09999999999
 30
0.0
 40
176.7126020282101
  0
ARC
  5
2AB
330
1F
100
AcDbEntity
  8
LAY-10
  6
CONTINUOUS
 62
     7
100
AcDbCircle
 10
672.0000000000823
 20
781.0999999997526
 30
0.0
 40
182.5
100
AcDbArc
 50
347.3552843557703
 51
12.64471564425152
  0
ARC
  5
2AC
330
1F
100
AcDbEntity
  8
LAY-10
  6
CONTINUOUS
 62
     7
100
AcDbCircle
 10
672.0000000000823
 20
781.0999999997526
 30
0.0
 40
177.49999999994
100
AcDbArc
 50
347.4216693869368
 51
12.57833061309421
  0
LINE
  5
2AD
330
1F
100
AcDbEntity
  8
LAY-10
  6
CONTINUOUS
 62
     7
100
AcDbLine
 10
845.2398570030819
 20
819.7549084275994
 30
0.0
 11
844.213317198602
 21
820.7221793324794
 31
0.0
  0
LINE
  5
2AE
330
1F
100
AcDbEntity
  8
LAY-10
  6
CONTINUOUS
 62
     7
100
AcDbLine
 10
850.0736848001316
 20
821.0501286821678
 30
0.0
 11
850.3988619810925
 21
822.3795910616988
 31
0.0
  0
LINE
  5
2AF
330
1F
100
AcDbEntity
  8
LAY-10
  6
CONTINUOUS
 62
     7
100
AcDbLine
 10
850.3988619810962
 20
822.3795910616951
 30
0.0
 11
844.2133171985984
 21
820.7221793324794
 31
0.0
  0
LINE
  5
2B0
330
1F
100
AcDbEntity
  8
LAY-10
  6
CONTINUOUS
 62
     7
100
AcDbLine
 10
850.0736848001275
 20
821.0501286821678
 30
0.0
 11
845.2398570030841
 21
819.7549084276003
 31
0.0
  0
LINE
  5
2B1
330
1F
100
AcDbEntity
  8
LAY-10
  6
CONTINUOUS
 62
     7
100
AcDbLine
 10
845.2398570030737
 20
742.4450915719768
 30
0.0
 11
844.2133171985943
 21
741.4778206670968
 31
0.0
  0
LINE
  5
2B2
330
1F
100
AcDbEntity
  8
LAY-10
  6
CONTINUOUS
 62
     7
100
AcDbLine
 10
850.0736848001238
 20
741.1498713174066
 30
0.0
 11
850.3988619810843
 21
739.8204089378766
 31
0.0
  0
LINE
  5
2B3
330
1F
100
AcDbEntity
  8
LAY-10
  6
CONTINUOUS
 62
     7
100
AcDbLine
 10
850.398861981088
 20
739.8204089378802
 30
0.0
 11
844.2133171985906
 21
741.4778206670968
 31
0.0
  0
LINE
  5
2B4
330
1F
100
AcDbEntity
  8
LAY-10
  6
CONTINUOUS
 62
     7
100
AcDbLine
 10
850.0736848001193
 20
741.1498713174066
 30
0.0
 11
845.2398570030764
 21
742.4450915719759
 31
0.0
  0
ARC
  5
2B5
330
1F
100
AcDbEntity
  8
LAY-10
  6
CONTINUOUS
 62
     7
100
AcDbCircle
 10
672.0000000000146
 20
781.1000000000055
 30
0.0
 40
182.5
100
AcDbArc
 50
17.35528435574706
 51
42.64471564422832
  0
ARC
  5
2B6
330
1F
100
AcDbEntity
  8
LAY-10
  6
CONTINUOUS
 62
     7
100
AcDbCircle
 10
672.0000000000146
 20
781.1000000000055
 30
0.0
 40
177.49999999994
100
AcDbArc
 50
17.42166938690436
 51
42.57833061306162
  0
LINE
  5
2B7
330
1F
100
AcDbEntity
  8
LAY-10
  6
CONTINUOUS
 62
     7
100
AcDbLine
 10
841.3575713265204
 20
834.2437958220249
 30
0.0
 11
840.952197230285
 21
832.8928447438171
 31
0.0
  0
LINE
  5
2B8
330
1F
100
AcDbEntity
  8
LAY-10
  6
CONTINUOUS
 62
     7
100
AcDbLine
 10
846.1913991235697
 20
835.5390160765961
 30
0.0
 11
847.1377420127774
 21
834.5502564730274
 31
0.0
  0
LINE
  5
2B9
330
1F
100
AcDbEntity
  8
LAY-10
  6
CONTINUOUS
 62
     7
100
AcDbLine
 10
847.1377420127792
 20
834.5502564730328
 30
0.0
 11
840.9521972302819
 21
832.8928447438153
 31
0.0
  0
LINE
  5
2BA
330
1F
100
AcDbEntity
  8
LAY-10
  6
CONTINUOUS
 62
     7
100
AcDbLine
 10
846.191399123566
 20
835.5390160765943
 30
0.0
 11
841.3575713265227
 21
834.2437958220249
 31
0.0
  0
LINE
  5
2BB
330
1F
100
AcDbEntity
  8
LAY-10
  6
CONTINUOUS
 62
     7
100
AcDbLine
 10
802.7026628987041
 20
901.1960611809133
 30
0.0
 11
801.3300178975887
 21
901.5204724546408
 31
0.0
  0
LINE
  5
2BC
330
1F
100
AcDbEntity
  8
LAY-10
  6
CONTINUOUS
 62
     7
100
AcDbLine
 10
806.2412704411836
 20
904.7346687233918
 30
0.0
 11
805.8581509508613
 21
906.0486055079206
 31
0.0
  0
LINE
  5
2BD
330
1F
100
AcDbEntity
  8
LAY-10
  6
CONTINUOUS
 62
     7
100
AcDbLine
 10
805.8581509508667
 20
906.0486055079197
 30
0.0
 11
801.3300178975855
 21
901.5204724546389
 31
0.0
  0
LINE
  5
2BE
330
1F
100
AcDbEntity
  8
LAY-10
  6
CONTINUOUS
 62
     7
100
AcDbLine
 10
806.24127044118
 20
904.7346687233891
 30
0.0
 11
802.702662898706
 21
901.1960611809151
 31
0.0
  0
ARC
  5
2BF
330
1F
100
AcDbEntity
  8
LAY-10
  6
CONTINUOUS
 62
     7
100
AcDbCircle
 10
672.0000000000464
 20
781.0999999999736
 30
0.0
 40
182.5
100
AcDbArc
 50
47.35528435577039
 51
72.6447156442513
  0
ARC
  5
2C0
330
1F
100
AcDbEntity
  8
LAY-10
  6
CONTINUOUS
 62
     7
100
AcDbCircle
 10
672.0000000000464
 20
781.0999999999736
 30
0.0
 40
177.49999999994
100
AcDbArc
 50
47.42166938693674
 51
72.57833061309428
  0
LINE
  5
2C1
330
1F
100
AcDbEntity
  8
LAY-10
  6
CONTINUOUS
 62
     7
100
AcDbLine
 10
725.1437958220699
 20
950.4575713264782
 30
0.0
 11
723.7928447438626
 21
950.0521972302428
 31
0.0
  0
LINE
  5
2C2
330
1F
100
AcDbEntity
  8
LAY-10
  6
CONTINUOUS
 62
     7
100
AcDbLine
 10
726.439016076642
 20
955.2913991235279
 30
0.0
 11
725.4502564730733
 21
956.2377420127356
 31
0.0
  0
LINE
  5
2C3
330
1F
100
AcDbEntity
  8
LAY-10
  6
CONTINUOUS
 62
     7
100
AcDbLine
 10
725.4502564730783
 20
956.2377420127374
 30
0.0
 11
723.7928447438603
 21
950.05219723024
 31
0.0
  0
LINE
  5
2C4
330
1F
100
AcDbEntity
  8
LAY-10
  6
CONTINUOUS
 62
     7
100
AcDbLine
 10
726.4390160766397
 20
955.2913991235233
 30
0.0
 11
725.1437958220704
 21
950.4575713264809
 31
0.0
  0
LINE
  5
2C5
330
1F
100
AcDbEntity
  8
LAY-10
  6
CONTINUOUS
 62
     7
100
AcDbLine
 10
792.0960611809573
 20
911.8026628986605
 30
0.0
 11
792.4204724546853
 21
910.4300178975451
 31
0.0
  0
LINE
  5
2C6
330
1F
100
AcDbEntity
  8
LAY-10
  6
CONTINUOUS
 62
     7
100
AcDbLine
 10
795.6346687234363
 20
915.34127044114
 30
0.0
 11
796.9486055079651
 21
914.9581509508176
 31
0.0
  0
LINE
  5
2C7
330
1F
100
AcDbEntity
  8
LAY-10
  6
CONTINUOUS
 62
     7
100
AcDbLine
 10
796.9486055079642
 20
914.9581509508222
 30
0.0
 11
792.4204724546835
 21
910.4300178975415
 31
0.0
  0
LINE
  5
2C8
330
1F
100
AcDbEntity
  8
LAY-10
  6
CONTINUOUS
 62
     7
100
AcDbLine
 10
795.6346687234336
 20
915.3412704411363
 30
0.0
 11
792.0960611809596
 21
911.8026628986623
 31
0.0
  0
ARC
  5
2C9
330
1F
100
AcDbEntity
  8
LAY-10
  6
CONTINUOUS
 62
     7
100
AcDbCircle
 10
671.9999999999718
 20
781.0999999999937
 30
0.0
 40
182.5
100
AcDbArc
 50
77.3552843557473
 51
102.6447156442284
  0
ARC
  5
2CA
330
1F
100
AcDbEntity
  8
LAY-10
  6
CONTINUOUS
 62
     7
100
AcDbCircle
 10
671.9999999999718
 20
781.0999999999937
 30
0.0
 40
177.49999999994
100
AcDbArc
 50
77.4216693869045
 51
102.5783306130619
  0
LINE
  5
2CB
330
1F
100
AcDbEntity
  8
LAY-10
  6
CONTINUOUS
 62
     7
100
AcDbLine
 10
710.6549084278231
 20
954.3398570029927
 30
0.0
 11
711.6221793327031
 21
953.3133171985124
 31
0.0
  0
LINE
  5
2CC
330
1F
100
AcDbEntity
  8
LAY-10
  6
CONTINUOUS
 62
     7
100
AcDbLine
 10
711.9501286823925
 20
959.1736848000425
 30
0.0
 11
713.2795910619225
 21
959.4988619810025
 31
0.0
  0
LINE
  5
2CD
330
1F
100
AcDbEntity
  8
LAY-10
  6
CONTINUOUS
 62
     7
100
AcDbLine
 10
713.2795910619188
 20
959.498861981007
 30
0.0
 11
711.6221793327031
 21
953.3133171985088
 31
0.0
  0
LINE
  5
2CE
330
1F
100
AcDbEntity
  8
LAY-10
  6
CONTINUOUS
 62
     7
100
AcDbLine
 10
711.950128682392
 20
959.1736848000379
 30
0.0
 11
710.654908427824
 21
954.3398570029946
 31
0.0
  0
LINE
  5
2CF
330
1F
100
AcDbEntity
  8
LAY-10
  6
CONTINUOUS
 62
     7
100
AcDbLine
 10
633.3450915722005
 20
954.3398570029864
 30
0.0
 11
632.3778206673205
 21
953.313317198507
 31
0.0
  0
LINE
  5
2D0
330
1F
100
AcDbEntity
  8
LAY-10
  6
CONTINUOUS
 62
     7
100
AcDbLine
 10
632.0498713176303
 20
959.173684800037
 30
0.0
 11
630.7204089381003
 21
959.498861980997
 31
0.0
  0
LINE
  5
2D1
330
1F
100
AcDbEntity
  8
LAY-10
  6
CONTINUOUS
 62
     7
100
AcDbLine
 10
630.7204089381039
 20
959.4988619810007
 30
0.0
 11
632.3778206673205
 21
953.3133171985033
 31
0.0
  0
LINE
  5
2D2
330
1F
100
AcDbEntity
  8
LAY-10
  6
CONTINUOUS
 62
     7
100
AcDbLine
 10
632.0498713176303
 20
959.1736848000324
 30
0.0
 11
633.3450915721996
 21
954.3398570029891
 31
0.0
  0
ARC
  5
2D3
330
1F
100
AcDbEntity
  8
LAY-10
  6
CONTINUOUS
 62
     7
100
AcDbCircle
 10
672.0
 20
781.09999999999
 30
0.0
 40
176.59780664801
100
AcDbArc
 50
5.393056255016736
 51
85.45708100120189
  0
ARC
  5
2D4
330
1F
100
AcDbEntity
  8
LAY-10
  6
CONTINUOUS
 62
     7
100
AcDbCircle
 10
672.0
 20
781.09999999999
 30
0.0
 40
176.59780664801
100
AcDbArc
 50
94.54291899879829
 51
174.6069437449768
  0
ARC
  5
2D5
330
1F
100
AcDbEntity
  8
LAY-10
  6
CONTINUOUS
 62
     7
100
AcDbCircle
 10
672.0000000000027
 20
781.1000000000018
 30
0.0
 40
182.5
100
AcDbArc
 50
107.3552843557731
 51
132.6447156442542
  0
ARC
  5
2D6
330
1F
100
AcDbEntity
  8
LAY-10
  6
CONTINUOUS
 62
     7
100
AcDbCircle
 10
672.0000000000027
 20
781.1000000000018
 30
0.0
 40
177.49999999994
100
AcDbArc
 50
107.4216693869396
 51
132.5783306130972
  0
LINE
  5
2D7
330
1F
100
AcDbEntity
  8
LAY-10
  6
CONTINUOUS
 62
     7
100
AcDbLine
 10
551.9039388190199
 20
911.8026628986541
 30
0.0
 11
551.5795275452924
 21
910.4300178975387
 31
0.0
  0
LINE
  5
2D8
330
1F
100
AcDbEntity
  8
LAY-10
  6
CONTINUOUS
 62
     7
100
AcDbLine
 10
548.3653312765418
 20
915.3412704411336
 30
0.0
 11
547.0513944920131
 21
914.9581509508113
 31
0.0
  0
LINE
  5
2D9
330
1F
100
AcDbEntity
  8
LAY-10
  6
CONTINUOUS
 62
     7
100
AcDbLine
 10
547.051394492014
 20
914.9581509508167
 30
0.0
 11
551.5795275452942
 21
910.4300178975351
 31
0.0
  0
LINE
  5
2DA
330
1F
100
AcDbEntity
  8
LAY-10
  6
CONTINUOUS
 62
     7
100
AcDbLine
 10
548.3653312765441
 20
915.34127044113
 30
0.0
 11
551.9039388190181
 21
911.8026628986551
 31
0.0
  0
LINE
  5
2DB
330
1F
100
AcDbEntity
  8
LAY-10
  6
CONTINUOUS
 62
     7
100
AcDbLine
 10
618.8562041779137
 20
950.4575713264618
 30
0.0
 11
620.207155256121
 21
950.0521972302264
 31
0.0
  0
LINE
  5
2DC
330
1F
100
AcDbEntity
  8
LAY-10
  6
CONTINUOUS
 62
     7
100
AcDbLine
 10
617.5609839233421
 20
955.2913991235115
 30
0.0
 11
618.5497435269108
 21
956.2377420127192
 31
0.0
  0
LINE
  5
2DD
330
1F
100
AcDbEntity
  8
LAY-10
  6
CONTINUOUS
 62
     7
100
AcDbLine
 10
618.5497435269058
 20
956.237742012721
 30
0.0
 11
620.2071552561229
 21
950.0521972302237
 31
0.0
  0
LINE
  5
2DE
330
1F
100
AcDbEntity
  8
LAY-10
  6
CONTINUOUS
 62
     7
100
AcDbLine
 10
617.5609839233443
 20
955.2913991235079
 30
0.0
 11
618.8562041779128
 21
950.4575713264645
 31
0.0
  0
ARC
  5
2DF
330
1F
100
AcDbEntity
  8
LAY-10
  6
CONTINUOUS
 62
     7
100
AcDbCircle
 10
672.0000000006025
 20
781.1000000000682
 30
0.0
 40
182.5
100
AcDbArc
 50
137.3552843557731
 51
162.6447156442543
  0
ARC
  5
2E0
330
1F
100
AcDbEntity
  8
LAY-10
  6
CONTINUOUS
 62
     7
100
AcDbCircle
 10
672.0000000006025
 20
781.1000000000682
 30
0.0
 40
177.49999999994
100
AcDbArc
 50
137.4216693869396
 51
162.5783306130972
  0
LINE
  5
2E1
330
1F
100
AcDbEntity
  8
LAY-10
  6
CONTINUOUS
 62
     7
100
AcDbLine
 10
502.6424286740958
 20
834.2437958220822
 30
0.0
 11
503.0478027703307
 21
832.8928447438753
 31
0.0
  0
LINE
  5
2E2
330
1F
100
AcDbEntity
  8
LAY-10
  6
CONTINUOUS
 62
     7
100
AcDbLine
 10
497.808600877046
 20
835.5390160766543
 30
0.0
 11
496.8622579878388
 21
834.5502564730856
 31
0.0
  0
LINE
  5
2E3
330
1F
100
AcDbEntity
  8
LAY-10
  6
CONTINUOUS
 62
     7
100
AcDbLine
 10
496.862257987837
 20
834.550256473091
 30
0.0
 11
503.0478027703343
 21
832.8928447438726
 31
0.0
  0
LINE
  5
2E4
330
1F
100
AcDbEntity
  8
LAY-10
  6
CONTINUOUS
 62
     7
100
AcDbLine
 10
497.8086008770501
 20
835.5390160766525
 30
0.0
 11
502.642428674093
 21
834.2437958220831
 31
0.0
  0
LINE
  5
2E5
330
1F
100
AcDbEntity
  8
LAY-10
  6
CONTINUOUS
 62
     7
100
AcDbLine
 10
541.2973371019102
 20
901.1960611809724
 30
0.0
 11
542.6699821030256
 21
901.5204724546999
 31
0.0
  0
LINE
  5
2E6
330
1F
100
AcDbEntity
  8
LAY-10
  6
CONTINUOUS
 62
     7
100
AcDbLine
 10
537.7587295594303
 20
904.7346687234509
 30
0.0
 11
538.1418490497531
 21
906.0486055079797
 31
0.0
  0
LINE
  5
2E7
330
1F
100
AcDbEntity
  8
LAY-10
  6
CONTINUOUS
 62
     7
100
AcDbLine
 10
538.1418490497476
 20
906.0486055079788
 30
0.0
 11
542.6699821030284
 21
901.520472454698
 31
0.0
  0
LINE
  5
2E8
330
1F
100
AcDbEntity
  8
LAY-10
  6
CONTINUOUS
 62
     7
100
AcDbLine
 10
537.758729559434
 20
904.7346687234482
 30
0.0
 11
541.2973371019084
 21
901.1960611809742
 31
0.0
  0
ARC
  5
2E9
330
1F
100
AcDbEntity
  8
LAY-10
  6
CONTINUOUS
 62
     7
100
AcDbCircle
 10
672.0000000004493
 20
781.0999999995753
 30
0.0
 40
182.5
100
AcDbArc
 50
167.3552843557457
 51
192.6447156442269
  0
ARC
  5
2EA
330
1F
100
AcDbEntity
  8
LAY-10
  6
CONTINUOUS
 62
     7
100
AcDbCircle
 10
672.0000000004493
 20
781.0999999995753
 30
0.0
 40
177.49999999994
100
AcDbArc
 50
167.4216693869027
 51
192.5783306130602
  0
LINE
  5
2EB
330
1F
100
AcDbEntity
  8
LAY-10
  6
CONTINUOUS
 62
     7
100
AcDbLine
 10
498.7601429974516
 20
819.7549084274311
 30
0.0
 11
499.7866828019314
 21
820.7221793323112
 31
0.0
  0
LINE
  5
2EC
330
1F
100
AcDbEntity
  8
LAY-10
  6
CONTINUOUS
 62
     7
100
AcDbLine
 10
493.9263152004019
 20
821.0501286820005
 30
0.0
 11
493.6011380194418
 21
822.3795910615305
 31
0.0
  0
LINE
  5
2ED
330
1F
100
AcDbEntity
  8
LAY-10
  6
CONTINUOUS
 62
     7
100
AcDbLine
 10
493.6011380194373
 20
822.3795910615269
 30
0.0
 11
499.7866828019351
 21
820.7221793323112
 31
0.0
  0
LINE
  5
2EE
330
1F
100
AcDbEntity
  8
LAY-10
  6
CONTINUOUS
 62
     7
100
AcDbLine
 10
493.9263152004064
 20
821.0501286820005
 30
0.0
 11
498.7601429974493
 21
819.754908427432
 31
0.0
  0
LINE
  5
2EF
330
1F
100
AcDbEntity
  8
LAY-10
  6
CONTINUOUS
 62
     7
100
AcDbLine
 10
498.7601429974552
 20
742.4450915718086
 30
0.0
 11
499.7866828019355
 21
741.4778206669286
 31
0.0
  0
LINE
  5
2F0
330
1F
100
AcDbEntity
  8
LAY-10
  6
CONTINUOUS
 62
     7
100
AcDbLine
 10
493.926315200405
 20
741.1498713172383
 30
0.0
 11
493.6011380194454
 21
739.8204089377083
 31
0.0
  0
LINE
  5
2F1
330
1F
100
AcDbEntity
  8
LAY-10
  6
CONTINUOUS
 62
     7
100
AcDbLine
 10
493.6011380194409
 20
739.8204089377119
 30
0.0
 11
499.7866828019387
 21
741.4778206669286
 31
0.0
  0
LINE
  5
2F2
330
1F
100
AcDbEntity
  8
LAY-10
  6
CONTINUOUS
 62
     7
100
AcDbLine
 10
493.9263152004096
 20
741.1498713172392
 30
0.0
 11
498.7601429974525
 21
742.4450915718077
 31
0.0
  0
ARC
  5
2F3
330
1F
100
AcDbEntity
  8
LAY-10
  6
CONTINUOUS
 62
     7
100
AcDbCircle
 10
672.0000000006025
 20
781.0999999999318
 30
0.0
 40
182.5
100
AcDbArc
 50
197.3552843557457
 51
222.6447156442269
  0
ARC
  5
2F4
330
1F
100
AcDbEntity
  8
LAY-10
  6
CONTINUOUS
 62
     7
100
AcDbCircle
 10
672.0000000006025
 20
781.0999999999318
 30
0.0
 40
177.49999999994
100
AcDbArc
 50
197.4216693869027
 51
222.5783306130603
  0
LINE
  5
2F5
330
1F
100
AcDbEntity
  8
LAY-10
  6
CONTINUOUS
 62
     7
100
AcDbLine
 10
502.6424286740953
 20
727.9562041779178
 30
0.0
 11
503.0478027703307
 21
729.3071552561247
 31
0.0
  0
LINE
  5
2F6
330
1F
100
AcDbEntity
  8
LAY-10
  6
CONTINUOUS
 62
     7
100
AcDbLine
 10
497.808600877046
 20
726.6609839233457
 30
0.0
 11
496.8622579878388
 21
727.6497435269144
 31
0.0
  0
LINE
  5
2F7
330
1F
100
AcDbEntity
  8
LAY-10
  6
CONTINUOUS
 62
     7
100
AcDbLine
 10
496.8622579878365
 20
727.649743526909
 30
0.0
 11
503.0478027703339
 21
729.3071552561274
 31
0.0
  0
LINE
  5
2F8
330
1F
100
AcDbEntity
  8
LAY-10
  6
CONTINUOUS
 62
     7
100
AcDbLine
 10
497.8086008770501
 20
726.6609839233475
 30
0.0
 11
502.6424286740926
 21
727.9562041779169
 31
0.0
  0
LINE
  5
2F9
330
1F
100
AcDbEntity
  8
LAY-10
  6
CONTINUOUS
 62
     7
100
AcDbLine
 10
541.2973371019098
 20
661.0039388190277
 30
0.0
 11
542.6699821030256
 21
660.6795275453002
 31
0.0
  0
LINE
  5
2FA
330
1F
100
AcDbEntity
  8
LAY-10
  6
CONTINUOUS
 62
     7
100
AcDbLine
 10
537.7587295594299
 20
657.4653312765491
 30
0.0
 11
538.1418490497526
 21
656.1513944920204
 31
0.0
  0
LINE
  5
2FB
330
1F
100
AcDbEntity
  8
LAY-10
  6
CONTINUOUS
 62
     7
100
AcDbLine
 10
538.1418490497476
 20
656.1513944920213
 30
0.0
 11
542.6699821030284
 21
660.679527545302
 31
0.0
  0
LINE
  5
2FC
330
1F
100
AcDbEntity
  8
LAY-10
  6
CONTINUOUS
 62
     7
100
AcDbLine
 10
537.7587295594335
 20
657.4653312765519
 30
0.0
 11
541.2973371019084
 21
661.0039388190258
 31
0.0
  0
ARC
  5
2FD
330
1F
100
AcDbEntity
  8
LAY-10
  6
CONTINUOUS
 62
     7
100
AcDbCircle
 10
672.0000000000027
 20
781.0999999999973
 30
0.0
 40
182.5
100
AcDbArc
 50
227.3552843557459
 51
252.6447156442269
  0
ARC
  5
2FE
330
1F
100
AcDbEntity
  8
LAY-10
  6
CONTINUOUS
 62
     7
100
AcDbCircle
 10
672.0000000000027
 20
781.0999999999973
 30
0.0
 40
177.49999999994
100
AcDbArc
 50
227.4216693869027
 51
252.5783306130603
  0
LINE
  5
2FF
330
1F
100
AcDbEntity
  8
LAY-10
  6
CONTINUOUS
 62
     7
100
AcDbLine
 10
551.9039388190199
 20
650.3973371013459
 30
0.0
 11
551.5795275452924
 21
651.7699821024613
 31
0.0
  0
LINE
  5
300
330
1F
100
AcDbEntity
  8
LAY-10
  6
CONTINUOUS
 62
     7
100
AcDbLine
 10
548.3653312765414
 20
646.8587295588665
 30
0.0
 11
547.0513944920126
 21
647.2418490491888
 31
0.0
  0
LINE
  5
301
330
1F
100
AcDbEntity
  8
LAY-10
  6
CONTINUOUS
 62
     7
100
AcDbLine
 10
547.0513944920135
 20
647.2418490491833
 30
0.0
 11
551.5795275452938
 21
651.769982102465
 31
0.0
  0
LINE
  5
302
330
1F
100
AcDbEntity
  8
LAY-10
  6
CONTINUOUS
 62
     7
100
AcDbLine
 10
548.3653312765441
 20
646.8587295588701
 30
0.0
 11
551.9039388190181
 21
650.397337101345
 31
0.0
  0
LINE
  5
303
330
1F
100
AcDbEntity
  8
LAY-10
  6
CONTINUOUS
 62
     7
100
AcDbLine
 10
618.8562041779132
 20
611.7424286735383
 30
0.0
 11
620.2071552561206
 21
612.1478027697736
 31
0.0
  0
LINE
  5
304
330
1F
100
AcDbEntity
  8
LAY-10
  6
CONTINUOUS
 62
     7
100
AcDbLine
 10
617.5609839233416
 20
606.9086008764885
 30
0.0
 11
618.5497435269103
 21
605.9622579872809
 31
0.0
  0
LINE
  5
305
330
1F
100
AcDbEntity
  8
LAY-10
  6
CONTINUOUS
 62
     7
100
AcDbLine
 10
618.5497435269058
 20
605.962257987279
 30
0.0
 11
620.2071552561224
 21
612.1478027697764
 31
0.0
  0
LINE
  5
306
330
1F
100
AcDbEntity
  8
LAY-10
  6
CONTINUOUS
 62
     7
100
AcDbLine
 10
617.5609839233439
 20
606.9086008764922
 30
0.0
 11
618.8562041779128
 21
611.7424286735355
 31
0.0
  0
CIRCLE
  5
307
330
1F
100
AcDbEntity
  8
LAY-10
  6
CONTINUOUS
 62
     7
100
AcDbCircle
 10
672.0
 20
781.1
 30
0.0
 40
183.11242064468
  0
LINE
  5
308
330
1F
100
AcDbEntity
  8
LAY-10
  6
CONTINUOUS
 62
     7
100
AcDbLine
 10
710.6549084277503
 20
607.860142997
 30
0.0
 11
711.6221793326304
 21
608.8866828014794
 31
0.0
  0
LINE
  5
309
330
1F
100
AcDbEntity
  8
LAY-10
  6
CONTINUOUS
 62
     7
100
AcDbLine
 10
711.9501286823202
 20
603.0263151999494
 30
0.0
 11
713.2795910618502
 21
602.7011380189903
 31
0.0
  0
LINE
  5
30A
330
1F
100
AcDbEntity
  8
LAY-10
  6
CONTINUOUS
 62
     7
100
AcDbLine
 10
713.279591061847
 20
602.7011380189857
 30
0.0
 11
711.6221793326304
 21
608.8866828014831
 31
0.0
  0
LINE
  5
30B
330
1F
100
AcDbEntity
  8
LAY-10
  6
CONTINUOUS
 62
     7
100
AcDbLine
 10
711.9501286823197
 20
603.026315199954
 30
0.0
 11
710.6549084277513
 21
607.8601429969973
 31
0.0
  0
LINE
  5
30C
330
1F
100
AcDbEntity
  8
LAY-10
  6
CONTINUOUS
 62
     7
100
AcDbLine
 10
633.3450915722501
 20
607.860142997
 30
0.0
 11
632.3778206673701
 21
608.8866828014803
 31
0.0
  0
LINE
  5
30D
330
1F
100
AcDbEntity
  8
LAY-10
  6
CONTINUOUS
 62
     7
100
AcDbLine
 10
632.0498713176803
 20
603.0263151999503
 30
0.0
 11
630.7204089381503
 21
602.7011380189903
 31
0.0
  0
LINE
  5
30E
330
1F
100
AcDbEntity
  8
LAY-10
  6
CONTINUOUS
 62
     7
100
AcDbLine
 10
630.720408938153
 20
602.7011380189857
 30
0.0
 11
632.3778206673696
 21
608.8866828014831
 31
0.0
  0
ARC
  5
30F
330
1F
100
AcDbEntity
  8
LAY-10
  6
CONTINUOUS
 62
     7
100
AcDbCircle
 10
672.0
 20
781.1
 30
0.0
 40
177.49999999994
100
AcDbArc
 50
257.4216693869446
 51
282.5783306130556
  0
ARC
  5
310
330
1F
100
AcDbEntity
  8
LAY-10
  6
CONTINUOUS
 62
     7
100
AcDbCircle
 10
672.0
 20
781.1
 30
0.0
 40
182.5
100
AcDbArc
 50
257.355284355778
 51
282.644715644222
  0
LINE
  5
311
330
1F
100
AcDbEntity
  8
LAY-10
  6
CONTINUOUS
 62
     7
100
AcDbLine
 10
632.0498713176803
 20
603.026315199954
 30
0.0
 11
633.3450915722487
 21
607.8601429969973
 31
0.0
  0
CIRCLE
  5
312
330
1F
100
AcDbEntity
  8
LAY-10
  6
CONTINUOUS
 62
     7
100
AcDbCircle
 10
672.0
 20
781.1
 30
0.0
 40
190.0000000000001
  0
ARC
  5
313
330
1F
100
AcDbEntity
  8
LAY-10
  6
CONTINUOUS
 62
     7
100
AcDbCircle
 10
672.0
 20
781.09999999999
 30
0.0
 40
176.59780664801
100
AcDbArc
 50
185.3930562550166
 51
265.4570810011992
  0
ARC
  5
314
330
1F
100
AcDbEntity
  8
LAY-10
  6
CONTINUOUS
 62
     7
100
AcDbCircle
 10
672.0
 20
781.09999999999
 30
0.0
 40
176.59780664801
100
AcDbArc
 50
274.542918998801
 51
354.6069437449769
  0
CIRCLE
  5
315
330
1F
100
AcDbEntity
  8
LAY-10
  6
CONTINUOUS
 62
     7
100
AcDbCircle
 10
672.0
 20
781.1
 30
0.0
 40
195.73673019291
  0
CIRCLE
  5
316
330
1F
100
AcDbEntity
  8
LAY-10
  6
CONTINUOUS
 62
     7
100
AcDbCircle
 10
672.0
 20
781.1
 30
0.0
 40
197.5000000000001
  0
ARC
  5
317
330
1F
100
AcDbEntity
  8
LAY-10
  6
CONTINUOUS
 62
     7
100
AcDbCircle
 10
657.4999999999998
 20
606.9901401199019
 30
0.0
 40
2.0
100
AcDbArc
 50
265.2393502536829
 51
0.0
  0
ARC
  5
318
330
1F
100
AcDbEntity
  8
LAY-10
  6
CONTINUOUS
 62
     7
100
AcDbCircle
 10
686.5
 20
606.9901401199203
 30
0.0
 40
2.0
100
AcDbArc
 50
180.0
 51
274.7606497458891
  0
LINE
  5
319
330
1F
100
AcDbEntity
  8
LAY-10
  6
CONTINUOUS
 62
     7
100
AcDbLine
 10
659.5
 20
941.1
 30
0.0
 11
659.5
 21
941.1302013422763
 31
0.0
  0
LINE
  5
31A
330
1F
100
AcDbEntity
  8
LAY-10
  6
CONTINUOUS
 62
     7
100
AcDbLine
 10
684.5000000000002
 20
941.1
 30
0.0
 11
684.5000000000002
 21
941.1302013422716
 31
0.0
  0
ARC
  5
31B
330
1F
100
AcDbEntity
  8
LAY-10
  6
CONTINUOUS
 62
     7
100
AcDbCircle
 10
716.0360634900806
 20
733.8238420370748
 30
0.0
 40
25.00000000000002
100
AcDbArc
 50
236.8598803788894
 51
236.9261690650499
  0
ARC
  5
31C
330
1F
100
AcDbEntity
  8
LAY-10
  6
CONTINUOUS
 62
     7
100
AcDbCircle
 10
677.6671542690908
 20
716.7409030278917
 30
0.0
 40
25.00000000000002
100
AcDbArc
 50
351.0738309349506
 51
351.140119621111
  0
ARC
  5
31D
330
1F
100
AcDbEntity
  8
LAY-10
  6
CONTINUOUS
 62
     7
100
AcDbCircle
 10
671.9999999999998
 20
781.1000000000307
 30
0.0
 40
175.0
100
AcDbArc
 50
181.309731879009
 51
358.6902681209914
  0
ARC
  5
31E
330
1F
100
AcDbEntity
  8
LAY-10
  6
CONTINUOUS
 62
     7
100
AcDbCircle
 10
671.9999999999998
 20
781.1000000000307
 30
0.0
 40
137.2955889105001
100
AcDbArc
 50
180.0
 51
0.0000000000001719
  0
ARC
  5
31F
330
1F
100
AcDbEntity
  8
LAY-10
  6
CONTINUOUS
 62
     7
100
AcDbCircle
 10
830.0
 20
781.1000000000307
 30
0.0
 40
4.0
100
AcDbArc
 50
180.0
 51
270.0000000000002
  0
ARC
  5
320
330
1F
100
AcDbEntity
  8
LAY-10
  6
CONTINUOUS
 62
     7
100
AcDbCircle
 10
513.9999999999998
 20
781.1000000000307
 30
0.0
 40
4.0
100
AcDbArc
 50
270.0000000000002
 51
0.0000000000001719
  0
LINE
  5
321
330
1F
100
AcDbEntity
  8
LAY-10
  6
CONTINUOUS
 62
     7
100
AcDbLine
 10
528.6583188579859
 20
761.1100129907803
 30
0.0
 11
523.448886474265
 21
759.4535991376628
 31
0.0
  0
LINE
  5
322
330
1F
100
AcDbEntity
  8
LAY-10
  6
CONTINUOUS
 62
     7
100
AcDbLine
 10
527.6345265072712
 20
770.8507465409315
 30
0.0
 11
522.1945449150533
 21
771.3878618820812
 31
0.0
  0
ARC
  5
323
330
1F
100
AcDbEntity
  8
LAY-10
  6
CONTINUOUS
 62
     7
100
AcDbCircle
 10
527.1432414998833
 20
765.8749411748107
 30
0.0
 40
5.0
100
AcDbArc
 50
287.6388096921431
 51
84.36119030785561
  0
LINE
  5
324
330
1F
100
AcDbEntity
  8
LAY-10
  6
CONTINUOUS
 62
     7
100
AcDbLine
 10
518.9279119428209
 20
737.6726369921847
 30
0.0
 11
527.4874205893818
 21
740.4537899415285
 31
0.0
  0
ARC
  5
325
330
1F
100
AcDbEntity
  8
LAY-10
  6
CONTINUOUS
 62
     7
100
AcDbCircle
 10
520.7820139090707
 20
731.9662978944137
 30
0.0
 40
6.000000000000004
100
AcDbArc
 50
108.0000000000009
 51
288.0000000000011
  0
LINE
  5
326
330
1F
100
AcDbEntity
  8
LAY-10
  6
CONTINUOUS
 62
     7
100
AcDbLine
 10
522.6361158753205
 20
726.2599587966428
 30
0.0
 11
531.1956245218814
 21
729.0411117459865
 31
0.0
  0
LINE
  5
327
330
1F
100
AcDbEntity
  8
LAY-10
  6
CONTINUOUS
 62
     7
100
AcDbLine
 10
535.9468305043072
 20
731.7444308773369
 30
0.0
 11
531.1956245218814
 21
729.0411117459865
 31
0.0
  0
LINE
  5
328
330
1F
100
AcDbEntity
  8
LAY-10
  6
CONTINUOUS
 62
     7
100
AcDbLine
 10
532.920198090588
 20
741.0594476301206
 30
0.0
 11
527.4874205893818
 21
740.4537899415285
 31
0.0
  0
ARC
  5
329
330
1F
100
AcDbEntity
  8
LAY-10
  6
CONTINUOUS
 62
     7
100
AcDbCircle
 10
533.4741769461859
 20
736.0902316529722
 30
0.0
 40
5.0
100
AcDbArc
 50
299.6388096921445
 51
96.36119030785804
  0
LINE
  5
32A
330
1F
100
AcDbEntity
  8
LAY-10
  6
CONTINUOUS
 62
     7
100
AcDbLine
 10
531.301960798274
 20
706.7961524227375
 30
0.0
 11
539.0961894322479
 21
711.296152422687
 31
0.0
  0
ARC
  5
32B
330
1F
100
AcDbEntity
  8
LAY-10
  6
CONTINUOUS
 62
     7
100
AcDbCircle
 10
534.3019607982749
 20
701.6000000000307
 30
0.0
 40
6.000000000000004
100
AcDbArc
 50
120.000000000001
 51
300.000000000001
  0
LINE
  5
32C
330
1F
100
AcDbEntity
  8
LAY-10
  6
CONTINUOUS
 62
     7
100
AcDbLine
 10
537.301960798274
 20
696.403847577324
 30
0.0
 11
545.0961894322479
 21
700.903847577274
 31
0.0
  0
LINE
  5
32D
330
1F
100
AcDbEntity
  8
LAY-10
  6
CONTINUOUS
 62
     7
100
AcDbLine
 10
549.1815185131306
 20
704.5359239688513
 30
0.0
 11
545.0961894322479
 21
700.903847577274
 31
0.0
  0
LINE
  5
32E
330
1F
100
AcDbEntity
  8
LAY-10
  6
CONTINUOUS
 62
     7
100
AcDbLine
 10
544.2843243962805
 20
713.0181129937622
 30
0.0
 11
539.0961894322479
 21
711.296152422687
 31
0.0
  0
ARC
  5
32F
330
1F
100
AcDbEntity
  8
LAY-10
  6
CONTINUOUS
 62
     7
100
AcDbCircle
 10
545.859355580589
 20
708.2726649887308
 30
0.0
 40
5.0
100
AcDbArc
 50
311.6388096921447
 51
108.3611903078581
  0
LINE
  5
330
330
1F
100
AcDbEntity
  8
LAY-10
  6
CONTINUOUS
 62
     7
100
AcDbLine
 10
549.825189110941
 20
679.1671025418367
 30
0.0
 11
556.5134925401633
 21
685.1892779989988
 31
0.0
  0
ARC
  5
331
330
1F
100
AcDbEntity
  8
LAY-10
  6
CONTINUOUS
 62
     7
100
AcDbCircle
 10
553.8399727490948
 20
674.7082335889721
 30
0.0
 40
6.000000000000004
100
AcDbArc
 50
132.0000000000009
 51
312.000000000001
  0
LINE
  5
332
330
1F
100
AcDbEntity
  8
LAY-10
  6
CONTINUOUS
 62
     7
100
AcDbLine
 10
557.8547563872478
 20
670.2493646361075
 30
0.0
 11
564.5430598164701
 21
676.2715400932706
 31
0.0
  0
LINE
  5
333
330
1F
100
AcDbEntity
  8
LAY-10
  6
CONTINUOUS
 62
     7
100
AcDbLine
 10
567.7839635113912
 20
680.6736345781272
 30
0.0
 11
564.5430598164701
 21
676.2715400932706
 31
0.0
  0
LINE
  5
334
330
1F
100
AcDbEntity
  8
LAY-10
  6
CONTINUOUS
 62
     7
100
AcDbLine
 10
561.2302385736618
 20
687.9522835127176
 30
0.0
 11
556.5134925401633
 21
685.1892779989988
 31
0.0
  0
ARC
  5
335
330
1F
100
AcDbEntity
  8
LAY-10
  6
CONTINUOUS
 62
     7
100
AcDbCircle
 10
563.7574856660874
 20
683.6380023288087
 30
0.0
 40
5.0
100
AcDbArc
 50
323.6388096921447
 51
120.3611903078581
  0
LINE
  5
336
330
1F
100
AcDbEntity
  8
LAY-10
  6
CONTINUOUS
 62
     7
100
AcDbLine
 10
573.6880429192468
 20
655.9930094081691
 30
0.0
 11
578.9781101898204
 21
663.2741623574624
 31
0.0
  0
ARC
  5
337
330
1F
100
AcDbEntity
  8
LAY-10
  6
CONTINUOUS
 62
     7
100
AcDbCircle
 10
578.5421448854966
 20
652.4662978944142
 30
0.0
 40
6.000000000000004
100
AcDbArc
 50
144.0000000000009
 51
324.0000000000009
  0
LINE
  5
338
330
1F
100
AcDbEntity
  8
LAY-10
  6
CONTINUOUS
 62
     7
100
AcDbLine
 10
583.3962468517464
 20
648.9395863806589
 30
0.0
 11
588.68631412232
 21
656.2207393299526
 31
0.0
  0
LINE
  5
339
330
1F
100
AcDbEntity
  8
LAY-10
  6
CONTINUOUS
 62
     7
100
AcDbLine
 10
590.9411493882305
 20
661.2004592555076
 30
0.0
 11
588.68631412232
 21
656.2207393299526
 31
0.0
  0
LINE
  5
33A
330
1F
100
AcDbEntity
  8
LAY-10
  6
CONTINUOUS
 62
     7
100
AcDbLine
 10
583.0173228576621
 20
666.9574562145029
 30
0.0
 11
578.9781101898204
 21
663.2741623574624
 31
0.0
  0
ARC
  5
33B
330
1F
100
AcDbEntity
  8
LAY-10
  6
CONTINUOUS
 62
     7
100
AcDbCircle
 10
586.3863330331894
 20
663.2628966416722
 30
0.0
 40
5.0
100
AcDbArc
 50
335.6388096921445
 51
132.361190307858
  0
LINE
  5
33C
330
1F
100
AcDbEntity
  8
LAY-10
  6
CONTINUOUS
 62
     7
100
AcDbLine
 10
601.8476010050924
 20
638.2866920933119
 30
0.0
 11
605.5082307927339
 21
646.5086012120036
 31
0.0
  0
ARC
  5
33D
330
1F
100
AcDbEntity
  8
LAY-10
  6
CONTINUOUS
 62
     7
100
AcDbCircle
 10
607.3288737509481
 20
635.8462722348571
 30
0.0
 40
6.000000000000004
100
AcDbArc
 50
156.0000000000009
 51
336.0000000000013
  0
LINE
  5
33E
330
1F
100
AcDbEntity
  8
LAY-10
  6
CONTINUOUS
 62
     7
100
AcDbLine
 10
612.8101464968029
 20
633.4058523764019
 30
0.0
 11
616.4707762844444
 21
641.6277614950944
 31
0.0
  0
LINE
  5
33F
330
1F
100
AcDbEntity
  8
LAY-10
  6
CONTINUOUS
 62
     7
100
AcDbLine
 10
617.6409960003245
 20
646.967469205253
 30
0.0
 11
616.4707762844444
 21
641.6277614950944
 31
0.0
  0
LINE
  5
340
330
1F
100
AcDbEntity
  8
LAY-10
  6
CONTINUOUS
 62
     7
100
AcDbLine
 10
608.6933771190404
 20
650.9512057964088
 30
0.0
 11
605.5082307927339
 21
646.5086012120036
 31
0.0
  0
ARC
  5
341
330
1F
100
AcDbEntity
  8
LAY-10
  6
CONTINUOUS
 62
     7
100
AcDbCircle
 10
612.7569084666945
 20
648.0378378164527
 30
0.0
 40
5.0
100
AcDbArc
 50
347.6388096921445
 51
144.361190307858
  0
LINE
  5
342
330
1F
100
AcDbEntity
  8
LAY-10
  6
CONTINUOUS
 62
     7
100
AcDbLine
 10
633.0731555555737
 20
626.8220016282625
 30
0.0
 11
634.9443607729124
 21
635.6253300347684
 31
0.0
  0
ARC
  5
343
330
1F
100
AcDbEntity
  8
LAY-10
  6
CONTINUOUS
 62
     7
100
AcDbCircle
 10
638.9420411599765
 20
625.5745314833556
 30
0.0
 40
6.000000000000004
100
AcDbArc
 50
168.0000000000009
 51
348.0000000000012
  0
LINE
  5
344
330
1F
100
AcDbEntity
  8
LAY-10
  6
CONTINUOUS
 62
     7
100
AcDbLine
 10
644.8109267643792
 20
624.3270613384487
 30
0.0
 11
646.6821319817179
 21
633.1303897449556
 31
0.0
  0
LINE
  5
345
330
1F
100
AcDbEntity
  8
LAY-10
  6
CONTINUOUS
 62
     7
100
AcDbLine
 10
646.7165919306451
 20
638.5967143900237
 30
0.0
 11
646.6821319817179
 21
633.1303897449556
 31
0.0
  0
LINE
  5
346
330
1F
100
AcDbEntity
  8
LAY-10
  6
CONTINUOUS
 62
     7
100
AcDbLine
 10
637.1362345791974
 20
640.6330822082176
 30
0.0
 11
634.9443607729124
 21
635.6253300347684
 31
0.0
  0
ARC
  5
347
330
1F
100
AcDbEntity
  8
LAY-10
  6
CONTINUOUS
 62
     7
100
AcDbCircle
 10
641.7166912800983
 20
638.6282339817502
 30
0.0
 40
5.0
100
AcDbArc
 50
359.6388096921447
 51
156.361190307858
  0
LINE
  5
348
330
1F
100
AcDbEntity
  8
LAY-10
  6
CONTINUOUS
 62
     7
100
AcDbLine
 10
665.9999999999998
 20
622.1000000000307
 30
0.0
 11
665.9999999999998
 21
631.0999999999302
 31
0.0
  0
ARC
  5
349
330
1F
100
AcDbEntity
  8
LAY-10
  6
CONTINUOUS
 62
     7
100
AcDbCircle
 10
671.9999999999998
 20
622.1000000000307
 30
0.0
 40
6.000000000000004
100
AcDbArc
 50
180.000000000001
 51
0.0000000000010886
  0
LINE
  5
34A
330
1F
100
AcDbEntity
  8
LAY-10
  6
CONTINUOUS
 62
     7
100
AcDbLine
 10
677.9999999999998
 20
622.1000000000307
 30
0.0
 11
677.9999999999998
 21
631.0999999999307
 31
0.0
  0
LINE
  5
34B
330
1F
100
AcDbEntity
  8
LAY-10
  6
CONTINUOUS
 62
     7
100
AcDbLine
 10
676.89719411685
 20
636.4540369625832
 30
0.0
 11
677.9999999999998
 21
631.0999999999307
 31
0.0
  0
LINE
  5
34C
330
1F
100
AcDbEntity
  8
LAY-10
  6
CONTINUOUS
 62
     7
100
AcDbLine
 10
667.1028058831505
 20
636.4540369625832
 30
0.0
 11
665.9999999999998
 21
631.0999999999302
 31
0.0
  0
ARC
  5
34D
330
1F
100
AcDbEntity
  8
LAY-10
  6
CONTINUOUS
 62
     7
100
AcDbCircle
 10
671.9999999999998
 20
635.4453299774308
 30
0.0
 40
5.0
100
AcDbArc
 50
11.63880969214484
 51
168.3611903078581
  0
LINE
  5
34E
330
1F
100
AcDbEntity
  8
LAY-10
  6
CONTINUOUS
 62
     7
100
AcDbLine
 10
699.1890732356212
 20
624.3270613384492
 30
0.0
 11
697.3178680182816
 21
633.1303897449551
 31
0.0
  0
ARC
  5
34F
330
1F
100
AcDbEntity
  8
LAY-10
  6
CONTINUOUS
 62
     7
100
AcDbCircle
 10
705.057958840024
 20
625.5745314833556
 30
0.0
 40
6.000000000000004
100
AcDbArc
 50
192.0000000000009
 51
12.000000000001
  0
LINE
  5
350
330
1F
100
AcDbEntity
  8
LAY-10
  6
CONTINUOUS
 62
     7
100
AcDbLine
 10
710.9268444444267
 20
626.822001628262
 30
0.0
 11
709.0556392270871
 21
635.6253300347684
 31
0.0
  0
LINE
  5
351
330
1F
100
AcDbEntity
  8
LAY-10
  6
CONTINUOUS
 62
     7
100
AcDbLine
 10
706.863765420803
 20
640.6330822082176
 30
0.0
 11
709.0556392270871
 21
635.6253300347684
 31
0.0
  0
LINE
  5
352
330
1F
100
AcDbEntity
  8
LAY-10
  6
CONTINUOUS
 62
     7
100
AcDbLine
 10
697.2834080693544
 20
638.5967143900237
 30
0.0
 11
697.3178680182816
 21
633.1303897449551
 31
0.0
  0
ARC
  5
353
330
1F
100
AcDbEntity
  8
LAY-10
  6
CONTINUOUS
 62
     7
100
AcDbCircle
 10
702.2833087199012
 20
638.6282339817502
 30
0.0
 40
5.0
100
AcDbArc
 50
23.63880969214475
 51
180.361190307858
  0
LINE
  5
354
330
1F
100
AcDbEntity
  8
LAY-10
  6
CONTINUOUS
 62
     7
100
AcDbLine
 10
731.1898535031967
 20
633.4058523764023
 30
0.0
 11
727.5292237155552
 21
641.627761495094
 31
0.0
  0
ARC
  5
355
330
1F
100
AcDbEntity
  8
LAY-10
  6
CONTINUOUS
 62
     7
100
AcDbCircle
 10
736.6711262490523
 20
635.8462722348571
 30
0.0
 40
6.000000000000004
100
AcDbArc
 50
204.000000000001
 51
24.00000000000102
  0
LINE
  5
356
330
1F
100
AcDbEntity
  8
LAY-10
  6
CONTINUOUS
 62
     7
100
AcDbLine
 10
742.152398994908
 20
638.2866920933114
 30
0.0
 11
738.4917692072656
 21
646.508601212004
 31
0.0
  0
LINE
  5
357
330
1F
100
AcDbEntity
  8
LAY-10
  6
CONTINUOUS
 62
     7
100
AcDbLine
 10
735.3066228809591
 20
650.9512057964088
 30
0.0
 11
738.4917692072656
 21
646.508601212004
 31
0.0
  0
LINE
  5
358
330
1F
100
AcDbEntity
  8
LAY-10
  6
CONTINUOUS
 62
     7
100
AcDbLine
 10
726.3590039996759
 20
646.967469205253
 30
0.0
 11
727.5292237155552
 21
641.627761495094
 31
0.0
  0
ARC
  5
359
330
1F
100
AcDbEntity
  8
LAY-10
  6
CONTINUOUS
 62
     7
100
AcDbCircle
 10
731.2430915333059
 20
648.0378378164527
 30
0.0
 40
5.0
100
AcDbArc
 50
35.63880969214466
 51
192.3611903078581
  0
LINE
  5
35A
330
1F
100
AcDbEntity
  8
LAY-10
  6
CONTINUOUS
 62
     7
100
AcDbLine
 10
760.6037531482532
 20
648.9395863806593
 30
0.0
 11
755.3136858776804
 21
656.2207393299526
 31
0.0
  0
ARC
  5
35B
330
1F
100
AcDbEntity
  8
LAY-10
  6
CONTINUOUS
 62
     7
100
AcDbCircle
 10
765.457855114503
 20
652.4662978944142
 30
0.0
 40
6.000000000000004
100
AcDbArc
 50
216.0000000000009
 51
36.00000000000094
  0
LINE
  5
35C
330
1F
100
AcDbEntity
  8
LAY-10
  6
CONTINUOUS
 62
     7
100
AcDbLine
 10
770.3119570807528
 20
655.9930094081686
 30
0.0
 11
765.0218898101791
 21
663.2741623574624
 31
0.0
  0
LINE
  5
35D
330
1F
100
AcDbEntity
  8
LAY-10
  6
CONTINUOUS
 62
     7
100
AcDbLine
 10
760.9826771423384
 20
666.9574562145029
 30
0.0
 11
765.0218898101791
 21
663.2741623574624
 31
0.0
  0
LINE
  5
35E
330
1F
100
AcDbEntity
  8
LAY-10
  6
CONTINUOUS
 62
     7
100
AcDbLine
 10
753.058850611769
 20
661.2004592555076
 30
0.0
 11
755.3136858776804
 21
656.2207393299526
 31
0.0
  0
ARC
  5
35F
330
1F
100
AcDbEntity
  8
LAY-10
  6
CONTINUOUS
 62
     7
100
AcDbCircle
 10
757.613666966811
 20
663.2628966416722
 30
0.0
 40
5.0
100
AcDbArc
 50
47.63880969214452
 51
204.361190307858
  0
LINE
  5
360
330
1F
100
AcDbEntity
  8
LAY-10
  6
CONTINUOUS
 62
     7
100
AcDbLine
 10
786.1452436127522
 20
670.2493646361075
 30
0.0
 11
779.4569401835304
 21
676.2715400932706
 31
0.0
  0
ARC
  5
361
330
1F
100
AcDbEntity
  8
LAY-10
  6
CONTINUOUS
 62
     7
100
AcDbCircle
 10
790.1600272509056
 20
674.7082335889721
 30
0.0
 40
6.000000000000004
100
AcDbArc
 50
228.0000000000009
 51
48.00000000000097
  0
LINE
  5
362
330
1F
100
AcDbEntity
  8
LAY-10
  6
CONTINUOUS
 62
     7
100
AcDbLine
 10
794.1748108890586
 20
679.1671025418362
 30
0.0
 11
787.4865074598363
 21
685.1892779989993
 31
0.0
  0
LINE
  5
363
330
1F
100
AcDbEntity
  8
LAY-10
  6
CONTINUOUS
 62
     7
100
AcDbLine
 10
782.7697614263377
 20
687.9522835127176
 30
0.0
 11
787.4865074598363
 21
685.1892779989993
 31
0.0
  0
LINE
  5
364
330
1F
100
AcDbEntity
  8
LAY-10
  6
CONTINUOUS
 62
     7
100
AcDbLine
 10
776.2160364886088
 20
680.6736345781272
 30
0.0
 11
779.4569401835304
 21
676.2715400932706
 31
0.0
  0
ARC
  5
365
330
1F
100
AcDbEntity
  8
LAY-10
  6
CONTINUOUS
 62
     7
100
AcDbCircle
 10
780.2425143339121
 20
683.6380023288087
 30
0.0
 40
5.0
100
AcDbArc
 50
59.6388096921446
 51
216.3611903078581
  0
ARC
  5
366
330
1F
100
AcDbEntity
  8
LAY-10
  6
CONTINUOUS
 62
     7
100
AcDbCircle
 10
671.9999999999998
 20
781.1000000000307
 30
0.0
 40
150.119952038444
100
AcDbArc
 50
200.2906100426359
 51
207.7093899573642
  0
ARC
  5
367
330
1F
100
AcDbEntity
  8
LAY-10
  6
CONTINUOUS
 62
     7
100
AcDbCircle
 10
671.9999999999998
 20
781.1000000000307
 30
0.0
 40
150.119952038444
100
AcDbArc
 50
212.2906100426359
 51
219.7093899573643
  0
ARC
  5
368
330
1F
100
AcDbEntity
  8
LAY-10
  6
CONTINUOUS
 62
     7
100
AcDbCircle
 10
671.9999999999998
 20
781.1000000000307
 30
0.0
 40
150.119952038444
100
AcDbArc
 50
224.2906100426359
 51
231.7093899573642
  0
ARC
  5
369
330
1F
100
AcDbEntity
  8
LAY-10
  6
CONTINUOUS
 62
     7
100
AcDbCircle
 10
671.9999999999998
 20
781.1000000000307
 30
0.0
 40
150.119952038444
100
AcDbArc
 50
236.2906100426359
 51
243.7093899573642
  0
ARC
  5
36A
330
1F
100
AcDbEntity
  8
LAY-10
  6
CONTINUOUS
 62
     7
100
AcDbCircle
 10
671.9999999999998
 20
781.1000000000307
 30
0.0
 40
150.119952038444
100
AcDbArc
 50
248.2906100426359
 51
255.7093899573643
  0
ARC
  5
36B
330
1F
100
AcDbEntity
  8
LAY-10
  6
CONTINUOUS
 62
     7
100
AcDbCircle
 10
671.9999999999998
 20
781.1000000000307
 30
0.0
 40
150.119952038444
100
AcDbArc
 50
260.290610042636
 51
267.7093899573642
  0
ARC
  5
36C
330
1F
100
AcDbEntity
  8
LAY-10
  6
CONTINUOUS
 62
     7
100
AcDbCircle
 10
671.9999999999998
 20
781.1000000000307
 30
0.0
 40
150.119952038444
100
AcDbArc
 50
272.290610042636
 51
279.7093899573642
  0
ARC
  5
36D
330
1F
100
AcDbEntity
  8
LAY-10
  6
CONTINUOUS
 62
     7
100
AcDbCircle
 10
671.9999999999998
 20
781.1000000000307
 30
0.0
 40
150.119952038444
100
AcDbArc
 50
284.2906100426359
 51
291.7093899573642
  0
ARC
  5
36E
330
1F
100
AcDbEntity
  8
LAY-10
  6
CONTINUOUS
 62
     7
100
AcDbCircle
 10
671.9999999999998
 20
781.1000000000307
 30
0.0
 40
150.119952038444
100
AcDbArc
 50
296.2906100426361
 51
303.7093899573643
  0
ARC
  5
36F
330
1F
100
AcDbEntity
  8
LAY-10
  6
CONTINUOUS
 62
     7
100
AcDbCircle
 10
671.9999999999998
 20
781.1000000000307
 30
0.0
 40
150.119952038444
100
AcDbArc
 50
308.290610042636
 51
315.7093899573642
  0
LINE
  5
370
330
1F
100
AcDbEntity
  8
LAY-10
  6
CONTINUOUS
 62
     7
100
AcDbLine
 10
806.6980392017256
 20
696.403847577324
 30
0.0
 11
798.9038105677525
 21
700.903847577274
 31
0.0
  0
ARC
  5
371
330
1F
100
AcDbEntity
  8
LAY-10
  6
CONTINUOUS
 62
     7
100
AcDbCircle
 10
809.6980392017256
 20
701.6000000000307
 30
0.0
 40
6.000000000000004
100
AcDbArc
 50
240.0000000000011
 51
60.00000000000122
  0
LINE
  5
372
330
1F
100
AcDbEntity
  8
LAY-10
  6
CONTINUOUS
 62
     7
100
AcDbLine
 10
812.6980392017256
 20
706.796152422737
 30
0.0
 11
804.9038105677521
 21
711.296152422687
 31
0.0
  0
LINE
  5
373
330
1F
100
AcDbEntity
  8
LAY-10
  6
CONTINUOUS
 62
     7
100
AcDbLine
 10
799.7156756037191
 20
713.0181129937622
 30
0.0
 11
804.9038105677521
 21
711.296152422687
 31
0.0
  0
LINE
  5
374
330
1F
100
AcDbEntity
  8
LAY-10
  6
CONTINUOUS
 62
     7
100
AcDbLine
 10
794.8184814868698
 20
704.5359239688513
 30
0.0
 11
798.9038105677525
 21
700.903847577274
 31
0.0
  0
ARC
  5
375
330
1F
100
AcDbEntity
  8
LAY-10
  6
CONTINUOUS
 62
     7
100
AcDbCircle
 10
798.140644419411
 20
708.2726649887308
 30
0.0
 40
5.0
100
AcDbArc
 50
71.63880969214462
 51
228.3611903078582
  0
LINE
  5
376
330
1F
100
AcDbEntity
  8
LAY-10
  6
CONTINUOUS
 62
     7
100
AcDbLine
 10
821.3638841246793
 20
726.2599587966428
 30
0.0
 11
812.804375478119
 21
729.0411117459865
 31
0.0
  0
ARC
  5
377
330
1F
100
AcDbEntity
  8
LAY-10
  6
CONTINUOUS
 62
     7
100
AcDbCircle
 10
823.2179860909291
 20
731.9662978944137
 30
0.0
 40
6.000000000000004
100
AcDbArc
 50
252.000000000001
 51
72.00000000000108
  0
LINE
  5
378
330
1F
100
AcDbEntity
  8
LAY-10
  6
CONTINUOUS
 62
     7
100
AcDbLine
 10
825.0720880571791
 20
737.6726369921847
 30
0.0
 11
816.5125794106177
 21
740.4537899415285
 31
0.0
  0
LINE
  5
379
330
1F
100
AcDbEntity
  8
LAY-10
  6
CONTINUOUS
 62
     7
100
AcDbLine
 10
811.0798019094116
 20
741.0594476301211
 30
0.0
 11
816.5125794106177
 21
740.4537899415285
 31
0.0
  0
LINE
  5
37A
330
1F
100
AcDbEntity
  8
LAY-10
  6
CONTINUOUS
 62
     7
100
AcDbLine
 10
808.0531694956924
 20
731.7444308773369
 30
0.0
 11
812.804375478119
 21
729.0411117459865
 31
0.0
  0
ARC
  5
37B
330
1F
100
AcDbEntity
  8
LAY-10
  6
CONTINUOUS
 62
     7
100
AcDbCircle
 10
810.5258230538136
 20
736.0902316529722
 30
0.0
 40
5.0
100
AcDbArc
 50
83.63880969214487
 51
240.3611903078582
  0
LINE
  5
37C
330
1F
100
AcDbEntity
  8
LAY-10
  6
CONTINUOUS
 62
     7
100
AcDbLine
 10
816.3654734927288
 20
770.8507465409319
 30
0.0
 11
821.8054550849461
 21
771.3878618820817
 31
0.0
  0
LINE
  5
37D
330
1F
100
AcDbEntity
  8
LAY-10
  6
CONTINUOUS
 62
     7
100
AcDbLine
 10
815.3416811420136
 20
761.1100129907808
 30
0.0
 11
820.5511135257348
 21
759.4535991376628
 31
0.0
  0
ARC
  5
37E
330
1F
100
AcDbEntity
  8
LAY-10
  6
CONTINUOUS
 62
     7
100
AcDbCircle
 10
816.8567585001163
 20
765.8749411748112
 30
0.0
 40
5.0
100
AcDbArc
 50
95.63880969214462
 51
252.3611903078581
  0
ARC
  5
37F
330
1F
100
AcDbEntity
  8
LAY-10
  6
CONTINUOUS
 62
     7
100
AcDbCircle
 10
671.9999999999998
 20
781.1000000000307
 30
0.0
 40
150.119952038444
100
AcDbArc
 50
320.2906100426359
 51
327.7093899573642
  0
ARC
  5
380
330
1F
100
AcDbEntity
  8
LAY-10
  6
CONTINUOUS
 62
     7
100
AcDbCircle
 10
671.9999999999998
 20
781.1000000000307
 30
0.0
 40
150.119952038444
100
AcDbArc
 50
332.2906100426361
 51
339.7093899573642
  0
ARC
  5
381
330
1F
100
AcDbEntity
  8
LAY-10
  6
CONTINUOUS
 62
     7
100
AcDbCircle
 10
671.9999999999998
 20
781.1000000000307
 30
0.0
 40
150.119952038444
100
AcDbArc
 50
344.290610042636
 51
0.0000000000001719
  0
ARC
  5
382
330
1F
100
AcDbEntity
  8
LAY-10
  6
CONTINUOUS
 62
     7
100
AcDbCircle
 10
657.9999999864501
 20
678.3459666923658
 30
0.0
 40
28.00000000000002
100
AcDbArc
 50
331.0449756281405
 51
31.16703841852462
  0
ARC
  5
383
330
1F
100
AcDbEntity
  8
LAY-10
  6
CONTINUOUS
 62
     7
100
AcDbCircle
 10
671.9999999864506
 20
670.5999999999502
 30
0.0
 40
12.00000000000001
100
AcDbArc
 50
270.0000000000002
 51
331.044975628141
  0
ARC
  5
384
330
1F
100
AcDbEntity
  8
LAY-10
  6
CONTINUOUS
 62
     7
100
AcDbCircle
 10
671.9999999864506
 20
670.5999999999502
 30
0.0
 40
12.00000000000001
100
AcDbArc
 50
208.95502437186
 51
270.0000000000002
  0
ARC
  5
385
330
1F
100
AcDbEntity
  8
LAY-10
  6
CONTINUOUS
 62
     7
100
AcDbCircle
 10
685.9999999864501
 20
678.3459666923658
 30
0.0
 40
28.00000000000002
100
AcDbArc
 50
148.8329615814761
 51
208.9550243718602
  0
ARC
  5
386
330
1F
100
AcDbEntity
  8
LAY-10
  6
CONTINUOUS
 62
     7
100
AcDbCircle
 10
638.5744890815433
 20
707.0305997644213
 30
0.0
 40
27.4255109049067
100
AcDbArc
 50
328.8329615814844
 51
9.880154391372411
  0
ARC
  5
387
330
1F
100
AcDbEntity
  8
LAY-10
  6
CONTINUOUS
 62
     7
100
AcDbCircle
 10
705.4255108913583
 20
707.0305997644213
 30
0.0
 40
27.4255109049067
100
AcDbArc
 50
170.1198456086283
 51
211.1670384185166
  0
ARC
  5
388
330
1F
100
AcDbEntity
  8
LAY-10
  6
CONTINUOUS
 62
     7
100
AcDbCircle
 10
638.9999999864501
 20
718.5999999999507
 30
0.0
 40
40.0
100
AcDbArc
 50
350.1198456085384
 51
24.14684794613356
  0
ARC
  5
389
330
1F
100
AcDbEntity
  8
LAY-10
  6
CONTINUOUS
 62
     7
100
AcDbCircle
 10
704.9999999864506
 20
718.5999999999502
 30
0.0
 40
40.0
100
AcDbArc
 50
155.8531519531343
 51
189.8801543914627
  0
LINE
  5
38A
330
1F
100
AcDbEntity
  8
LAY-10
  6
CONTINUOUS
 62
     7
100
AcDbLine
 10
668.5000000008333
 20
746.2754397011144
 30
0.0
 11
668.5000000008338
 21
734.9630682039877
 31
0.0
  0
LINE
  5
38B
330
1F
100
AcDbEntity
  8
LAY-10
  6
CONTINUOUS
 62
     7
100
AcDbLine
 10
675.5000000008347
 20
746.2754397011148
 30
0.0
 11
675.5000000008351
 21
734.9630682039882
 31
0.0
  0
ARC
  5
38C
330
1F
100
AcDbEntity
  8
LAY-10
  6
CONTINUOUS
 62
     7
100
AcDbCircle
 10
671.9999999999998
 20
781.1000000000307
 30
0.0
 40
35.00000000010004
100
AcDbArc
 50
264.2608295241209
 51
275.739170478601
  0
ARC
  5
38D
330
1F
100
AcDbEntity
  8
LAY-10
  6
CONTINUOUS
 62
     7
100
AcDbCircle
 10
720.736533467779
 20
738.6858478219568
 30
0.0
 40
25.00000000000002
100
AcDbArc
 50
242.8598803788896
 51
242.9261690650501
  0
ARC
  5
38E
330
1F
100
AcDbEntity
  8
LAY-10
  6
CONTINUOUS
 62
     7
100
AcDbCircle
 10
684.3634665088323
 20
717.6858478219568
 30
0.0
 40
25.00000000000002
100
AcDbArc
 50
357.0738309349509
 51
357.140119621111
  0
ARC
  5
38F
330
1F
100
AcDbEntity
  8
LAY-10
  6
CONTINUOUS
 62
     7
100
AcDbCircle
 10
711.2526609891158
 20
685.1123968075057
 30
0.0
 40
28.00000000000002
100
AcDbArc
 50
1.044975628140578
 51
61.16703841852468
  0
ARC
  5
390
330
1F
100
AcDbEntity
  8
LAY-10
  6
CONTINUOUS
 62
     7
100
AcDbCircle
 10
727.249999988306
 20
685.4041928750061
 30
0.0
 40
12.00000000000001
100
AcDbArc
 50
300.0000000000003
 51
1.044975628141037
  0
ARC
  5
391
330
1F
100
AcDbEntity
  8
LAY-10
  6
CONTINUOUS
 62
     7
100
AcDbCircle
 10
727.249999988306
 20
685.4041928750061
 30
0.0
 40
12.00000000000001
100
AcDbArc
 50
238.95502437186
 51
300.0000000000003
  0
ARC
  5
392
330
1F
100
AcDbEntity
  8
LAY-10
  6
CONTINUOUS
 62
     7
100
AcDbCircle
 10
735.5013722950796
 20
699.1123968075057
 30
0.0
 40
28.00000000000002
100
AcDbArc
 50
178.832961581476
 51
238.9550243718602
  0
ARC
  5
393
330
1F
100
AcDbEntity
  8
LAY-10
  6
CONTINUOUS
 62
     7
100
AcDbCircle
 10
680.0873585279467
 20
700.2412622936876
 30
0.0
 40
27.4255109049067
100
AcDbArc
 50
358.8329615814843
 51
39.88015439137247
  0
ARC
  5
394
330
1F
100
AcDbEntity
  8
LAY-10
  6
CONTINUOUS
 62
     7
100
AcDbCircle
 10
737.9820416841942
 20
733.6667731985948
 30
0.0
 40
27.4255109049067
100
AcDbArc
 50
200.1198456086283
 51
241.1670384185168
  0
ARC
  5
395
330
1F
100
AcDbEntity
  8
LAY-10
  6
CONTINUOUS
 62
     7
100
AcDbCircle
 10
674.6711616634191
 20
710.4734122566591
 30
0.0
 40
40.0
100
AcDbArc
 50
20.11984560853839
 51
54.14684794613363
  0
ARC
  5
396
330
1F
100
AcDbEntity
  8
LAY-10
  6
CONTINUOUS
 62
     7
100
AcDbCircle
 10
731.8288383131924
 20
743.4734122566591
 30
0.0
 40
40.0
100
AcDbArc
 50
185.8531519531342
 51
219.8801543914628
  0
LINE
  5
397
330
1F
100
AcDbEntity
  8
LAY-10
  6
CONTINUOUS
 62
     7
100
AcDbLine
 10
686.381191236934
 20
749.1910461059628
 30
0.0
 11
692.037376985498
 21
739.3942450124044
 31
0.0
  0
LINE
  5
398
330
1F
100
AcDbEntity
  8
LAY-10
  6
CONTINUOUS
 62
     7
100
AcDbLine
 10
692.4433690634262
 20
752.6910461059637
 30
0.0
 11
698.0995548119902
 21
742.8942450124053
 31
0.0
  0
ARC
  5
399
330
1F
100
AcDbEntity
  8
LAY-10
  6
CONTINUOUS
 62
     7
100
AcDbCircle
 10
671.9999999999998
 20
781.1000000000307
 30
0.0
 40
35.00000000010004
100
AcDbArc
 50
294.260829524121
 51
305.739170478601
  0
ARC
  5
39A
330
1F
100
AcDbEntity
  8
LAY-10
  6
CONTINUOUS
 62
     7
100
AcDbCircle
 10
733.774428646552
 20
762.1756779558253
 30
0.0
 40
25.00000000000002
100
AcDbArc
 50
266.8598803788895
 51
266.92616906505
  0
ARC
  5
39B
330
1F
100
AcDbEntity
  8
LAY-10
  6
CONTINUOUS
 62
     7
100
AcDbCircle
 10
709.0874480502678
 20
728.1969641920772
 30
0.0
 40
25.00000000000002
100
AcDbArc
 50
21.07383093495066
 51
21.14011962111099
  0
ARC
  5
39C
330
1F
100
AcDbEntity
  8
LAY-10
  6
CONTINUOUS
 62
     7
100
AcDbCircle
 10
735.414152164524
 20
768.7365334677291
 30
0.0
 40
25.00000000000002
100
AcDbArc
 50
272.8598803788896
 51
272.92616906505
  0
ARC
  5
39D
330
1F
100
AcDbEntity
  8
LAY-10
  6
CONTINUOUS
 62
     7
100
AcDbCircle
 10
714.4141521645236
 20
732.3634665087828
 30
0.0
 40
25.00000000000002
100
AcDbArc
 50
27.07383093495096
 51
27.14011962111124
  0
ARC
  5
39E
330
1F
100
AcDbEntity
  8
LAY-10
  6
CONTINUOUS
 62
     7
100
AcDbCircle
 10
753.9876031789752
 20
717.5986276814814
 30
0.0
 40
28.00000000000002
100
AcDbArc
 50
31.04497562814064
 51
91.1670384185247
  0
ARC
  5
39F
330
1F
100
AcDbEntity
  8
LAY-10
  6
CONTINUOUS
 62
     7
100
AcDbCircle
 10
767.6958071114752
 20
725.8499999882564
 30
0.0
 40
12.00000000000001
100
AcDbArc
 50
330.0000000000003
 51
31.0449756281411
  0
ARC
  5
3A0
330
1F
100
AcDbEntity
  8
LAY-10
  6
CONTINUOUS
 62
     7
100
AcDbCircle
 10
767.6958071114752
 20
725.8499999882564
 30
0.0
 40
12.00000000000001
100
AcDbArc
 50
268.95502437186
 51
330.0000000000003
  0
ARC
  5
3A1
330
1F
100
AcDbEntity
  8
LAY-10
  6
CONTINUOUS
 62
     7
100
AcDbCircle
 10
767.9876031789747
 20
741.8473389874456
 30
0.0
 40
28.00000000000002
100
AcDbArc
 50
208.8329615814761
 51
268.9550243718603
  0
ARC
  5
3A2
330
1F
100
AcDbEntity
  8
LAY-10
  6
CONTINUOUS
 62
     7
100
AcDbCircle
 10
719.433226787886
 20
715.1179582923681
 30
0.0
 40
27.4255109049067
100
AcDbArc
 50
28.83296158148457
 51
69.88015439137254
  0
ARC
  5
3A3
330
1F
100
AcDbEntity
  8
LAY-10
  6
CONTINUOUS
 62
     7
100
AcDbCircle
 10
752.8587376927937
 20
773.0126414486152
 30
0.0
 40
27.4255109049067
100
AcDbArc
 50
230.1198456086284
 51
271.1670384185168
  0
ARC
  5
3A4
330
1F
100
AcDbEntity
  8
LAY-10
  6
CONTINUOUS
 62
     7
100
AcDbCircle
 10
709.6265877298217
 20
721.27116166337
 30
0.0
 40
40.0
100
AcDbArc
 50
50.11984560853845
 51
84.14684794613363
  0
ARC
  5
3A5
330
1F
100
AcDbEntity
  8
LAY-10
  6
CONTINUOUS
 62
     7
100
AcDbCircle
 10
742.6265877298222
 20
778.4288383131428
 30
0.0
 40
40.0
100
AcDbArc
 50
215.8531519531343
 51
249.8801543914629
  0
LINE
  5
3A6
330
1F
100
AcDbEntity
  8
LAY-10
  6
CONTINUOUS
 62
     7
100
AcDbLine
 10
700.4089538949008
 20
760.6566309380486
 30
0.0
 11
710.2057549884601
 21
755.0004451894855
 31
0.0
  0
LINE
  5
3A7
330
1F
100
AcDbEntity
  8
LAY-10
  6
CONTINUOUS
 62
     7
100
AcDbLine
 10
703.9089538949013
 20
766.7188087645412
 30
0.0
 11
713.7057549884605
 21
761.0626230159781
 31
0.0
  0
ARC
  5
3A8
330
1F
100
AcDbEntity
  8
LAY-10
  6
CONTINUOUS
 62
     7
100
AcDbCircle
 10
671.9999999999998
 20
781.1000000000307
 30
0.0
 40
35.00000000010004
100
AcDbArc
 50
324.260829524121
 51
335.7391704786011
  0
ARC
  5
3A9
330
1F
100
AcDbEntity
  8
LAY-10
  6
CONTINUOUS
 62
     7
100
AcDbCircle
 10
734.9603855342855
 20
795.598270683627
 30
0.0
 40
25.00000000000002
100
AcDbArc
 50
296.8598803788896
 51
296.92616906505
  0
ARC
  5
3AA
330
1F
100
AcDbEntity
  8
LAY-10
  6
CONTINUOUS
 62
     7
100
AcDbCircle
 10
730.5701900770439
 20
753.8283510781588
 30
0.0
 40
25.00000000000002
100
AcDbArc
 50
51.07383093495073
 51
51.14011962111106
  0
ARC
  5
3AB
330
1F
100
AcDbEntity
  8
LAY-10
  6
CONTINUOUS
 62
     7
100
AcDbCircle
 10
774.7540333076645
 20
795.0999999864806
 30
0.0
 40
28.00000000000002
100
AcDbArc
 50
238.8329615814762
 51
298.9550243718604
  0
ARC
  5
3AC
330
1F
100
AcDbEntity
  8
LAY-10
  6
CONTINUOUS
 62
     7
100
AcDbCircle
 10
746.0694002356092
 20
747.6744890815738
 30
0.0
 40
27.4255109049067
100
AcDbArc
 50
58.83296158148464
 51
99.88015439137244
  0
ARC
  5
3AD
330
1F
100
AcDbEntity
  8
LAY-10
  6
CONTINUOUS
 62
     7
100
AcDbCircle
 10
734.5000000000803
 20
814.0999999864811
 30
0.0
 40
40.0
100
AcDbArc
 50
245.8531519531345
 51
279.8801543914627
  0
LINE
  5
3AE
330
1F
100
AcDbEntity
  8
LAY-10
  6
CONTINUOUS
 62
     7
100
AcDbLine
 10
706.8245602989161
 20
777.6000000008638
 30
0.0
 11
718.1369317960427
 21
777.6000000008643
 31
0.0
  0
ARC
  5
3AF
330
1F
100
AcDbEntity
  8
LAY-10
  6
CONTINUOUS
 62
     7
100
AcDbCircle
 10
569.2459666923353
 20
795.1000000135804
 30
0.0
 40
28.00000000000002
100
AcDbArc
 50
241.0449756281405
 51
301.1670384185247
  0
ARC
  5
3B0
330
1F
100
AcDbEntity
  8
LAY-10
  6
CONTINUOUS
 62
     7
100
AcDbCircle
 10
561.4999999999197
 20
781.1000000135799
 30
0.0
 40
12.00000000000001
100
AcDbArc
 50
180.0000000000002
 51
241.044975628141
  0
ARC
  5
3B1
330
1F
100
AcDbEntity
  8
LAY-10
  6
CONTINUOUS
 62
     7
100
AcDbCircle
 10
597.9305997643908
 20
747.6744891086722
 30
0.0
 40
27.4255109049067
100
AcDbArc
 50
80.11984560862837
 51
121.1670384185166
  0
ARC
  5
3B2
330
1F
100
AcDbEntity
  8
LAY-10
  6
CONTINUOUS
 62
     7
100
AcDbCircle
 10
609.4999999999202
 20
814.1000000135804
 30
0.0
 40
40.0
100
AcDbArc
 50
260.1198456085386
 51
294.1468479461337
  0
LINE
  5
3B3
330
1F
100
AcDbEntity
  8
LAY-10
  6
CONTINUOUS
 62
     7
100
AcDbLine
 10
637.1754397010843
 20
777.5999999991958
 30
0.0
 11
625.8630682039573
 21
777.5999999991953
 31
0.0
  0
ARC
  5
3B4
330
1F
100
AcDbEntity
  8
LAY-10
  6
CONTINUOUS
 62
     7
100
AcDbCircle
 10
624.7238420370447
 20
737.0639365099499
 30
0.0
 40
25.00000000000002
100
AcDbArc
 50
146.8598803788895
 51
146.9261690650499
  0
ARC
  5
3B5
330
1F
100
AcDbEntity
  8
LAY-10
  6
CONTINUOUS
 62
     7
100
AcDbCircle
 10
607.6409030278608
 20
775.4328457309397
 30
0.0
 40
25.00000000000002
100
AcDbArc
 50
261.0738309349508
 51
261.1401196211109
  0
ARC
  5
3B6
330
1F
100
AcDbEntity
  8
LAY-10
  6
CONTINUOUS
 62
     7
100
AcDbCircle
 10
576.0123968074747
 20
741.8473390109147
 30
0.0
 40
28.00000000000002
100
AcDbArc
 50
271.0449756281407
 51
331.167038418525
  0
ARC
  5
3B7
330
1F
100
AcDbEntity
  8
LAY-10
  6
CONTINUOUS
 62
     7
100
AcDbCircle
 10
576.3041928749756
 20
725.8500000117245
 30
0.0
 40
12.00000000000001
100
AcDbArc
 50
210.0000000000002
 51
271.0449756281409
  0
ARC
  5
3B8
330
1F
100
AcDbEntity
  8
LAY-10
  6
CONTINUOUS
 62
     7
100
AcDbCircle
 10
576.3041928749756
 20
725.8500000117245
 30
0.0
 40
12.00000000000001
100
AcDbArc
 50
148.95502437186
 51
210.0000000000002
  0
ARC
  5
3B9
330
1F
100
AcDbEntity
  8
LAY-10
  6
CONTINUOUS
 62
     7
100
AcDbCircle
 10
590.0123968074752
 20
717.5986277049509
 30
0.0
 40
28.00000000000002
100
AcDbArc
 50
88.83296158147638
 51
148.9550243718602
  0
ARC
  5
3BA
330
1F
100
AcDbEntity
  8
LAY-10
  6
CONTINUOUS
 62
     7
100
AcDbCircle
 10
591.1412622936571
 20
773.0126414720838
 30
0.0
 40
27.4255109049067
100
AcDbArc
 50
268.8329615814845
 51
309.8801543913726
  0
ARC
  5
3BB
330
1F
100
AcDbEntity
  8
LAY-10
  6
CONTINUOUS
 62
     7
100
AcDbCircle
 10
624.5667731985643
 20
715.1179583158363
 30
0.0
 40
27.4255109049067
100
AcDbArc
 50
110.1198456086284
 51
151.1670384185166
  0
ARC
  5
3BC
330
1F
100
AcDbEntity
  8
LAY-10
  6
CONTINUOUS
 62
     7
100
AcDbCircle
 10
601.3734122566286
 20
778.4288383366114
 30
0.0
 40
40.0
100
AcDbArc
 50
290.1198456085385
 51
324.1468479461336
  0
ARC
  5
3BD
330
1F
100
AcDbEntity
  8
LAY-10
  6
CONTINUOUS
 62
     7
100
AcDbCircle
 10
634.3734122566286
 20
721.2711616868381
 30
0.0
 40
40.0
100
AcDbArc
 50
95.85315195313437
 51
129.8801543914627
  0
LINE
  5
3BE
330
1F
100
AcDbEntity
  8
LAY-10
  6
CONTINUOUS
 62
     7
100
AcDbLine
 10
640.0910461059327
 20
766.7188087630965
 30
0.0
 11
630.2942450123735
 21
761.0626230145325
 31
0.0
  0
LINE
  5
3BF
330
1F
100
AcDbEntity
  8
LAY-10
  6
CONTINUOUS
 62
     7
100
AcDbLine
 10
643.5910461059336
 20
760.6566309366043
 30
0.0
 11
633.7942450123749
 21
755.0004451880403
 31
0.0
  0
ARC
  5
3C0
330
1F
100
AcDbEntity
  8
LAY-10
  6
CONTINUOUS
 62
     7
100
AcDbCircle
 10
672.0000000000002
 20
781.1000000000307
 30
0.0
 40
35.00000000010004
100
AcDbArc
 50
204.2608295241209
 51
215.739170478601
  0
ARC
  5
3C1
330
1F
100
AcDbEntity
  8
LAY-10
  6
CONTINUOUS
 62
     7
100
AcDbCircle
 10
653.0756779557948
 20
719.3255713534785
 30
0.0
 40
25.00000000000002
100
AcDbArc
 50
176.8598803788895
 51
176.9261690650499
  0
ARC
  5
3C2
330
1F
100
AcDbEntity
  8
LAY-10
  6
CONTINUOUS
 62
     7
100
AcDbCircle
 10
619.0969641920467
 20
744.0125519497627
 30
0.0
 40
25.00000000000002
100
AcDbArc
 50
291.0738309349508
 51
291.1401196211111
  0
ARC
  5
3C3
330
1F
100
AcDbEntity
  8
LAY-10
  6
CONTINUOUS
 62
     7
100
AcDbCircle
 10
608.4986276814509
 20
699.1123968210553
 30
0.0
 40
28.00000000000002
100
AcDbArc
 50
301.0449756281406
 51
1.16703841852501
  0
ARC
  5
3C4
330
1F
100
AcDbEntity
  8
LAY-10
  6
CONTINUOUS
 62
     7
100
AcDbCircle
 10
616.7499999882259
 20
685.4041928885553
 30
0.0
 40
12.00000000000001
100
AcDbArc
 50
240.0000000000003
 51
301.0449756281409
  0
ARC
  5
3C5
330
1F
100
AcDbEntity
  8
LAY-10
  6
CONTINUOUS
 62
     7
100
AcDbCircle
 10
616.7499999882259
 20
685.4041928885553
 30
0.0
 40
12.00000000000001
100
AcDbArc
 50
178.95502437186
 51
240.0000000000003
  0
ARC
  5
3C6
330
1F
100
AcDbEntity
  8
LAY-10
  6
CONTINUOUS
 62
     7
100
AcDbCircle
 10
632.7473389874151
 20
685.1123968210558
 30
0.0
 40
28.00000000000002
100
AcDbArc
 50
118.8329615814762
 51
178.9550243718602
  0
ARC
  5
3C7
330
1F
100
AcDbEntity
  8
LAY-10
  6
CONTINUOUS
 62
     7
100
AcDbCircle
 10
606.0179582923381
 20
733.6667732121444
 30
0.0
 40
27.4255109049067
100
AcDbArc
 50
298.8329615814844
 51
339.8801543913725
  0
ARC
  5
3C8
330
1F
100
AcDbEntity
  8
LAY-10
  6
CONTINUOUS
 62
     7
100
AcDbCircle
 10
663.9126414485847
 20
700.2412623072368
 30
0.0
 40
27.4255109049067
100
AcDbArc
 50
140.1198456086283
 51
181.1670384185167
  0
ARC
  5
3C9
330
1F
100
AcDbEntity
  8
LAY-10
  6
CONTINUOUS
 62
     7
100
AcDbCircle
 10
612.171161663339
 20
743.4734122702088
 30
0.0
 40
40.0
100
AcDbArc
 50
320.1198456085388
 51
354.1468479461337
  0
ARC
  5
3CA
330
1F
100
AcDbEntity
  8
LAY-10
  6
CONTINUOUS
 62
     7
100
AcDbCircle
 10
669.3288383131123
 20
710.4734122702083
 30
0.0
 40
40.0
100
AcDbArc
 50
125.8531519531343
 51
159.8801543914628
  0
LINE
  5
3CB
330
1F
100
AcDbEntity
  8
LAY-10
  6
CONTINUOUS
 62
     7
100
AcDbLine
 10
651.5566309380181
 20
752.6910461051297
 30
0.0
 11
645.900445189455
 21
742.8942450115704
 31
0.0
  0
LINE
  5
3CC
330
1F
100
AcDbEntity
  8
LAY-10
  6
CONTINUOUS
 62
     7
100
AcDbLine
 10
657.6188087645107
 20
749.1910461051292
 30
0.0
 11
651.9626230159477
 21
739.39424501157
 31
0.0
  0
ARC
  5
3CD
330
1F
100
AcDbEntity
  8
LAY-10
  6
CONTINUOUS
 62
     7
100
AcDbCircle
 10
671.9999999999998
 20
781.1000000000307
 30
0.0
 40
35.00000000010004
100
AcDbArc
 50
234.260829524121
 51
245.7391704786011
  0
ARC
  5
3CE
330
1F
100
AcDbEntity
  8
LAY-10
  6
CONTINUOUS
 62
     7
100
AcDbCircle
 10
716.0360634900806
 20
828.3761579629867
 30
0.0
 40
25.00000000000002
100
AcDbArc
 50
123.0738309349503
 51
123.1401196211107
  0
ARC
  5
3CF
330
1F
100
AcDbEntity
  8
LAY-10
  6
CONTINUOUS
 62
     7
100
AcDbCircle
 10
677.6671542690908
 20
845.4590969721697
 30
0.0
 40
25.00000000000002
100
AcDbArc
 50
8.859880378888327
 51
8.926169065049232
  0
ARC
  5
3D0
330
1F
100
AcDbEntity
  8
LAY-10
  6
CONTINUOUS
 62
     7
100
AcDbCircle
 10
671.9999999999998
 20
781.1000000000307
 30
0.0
 40
175.0
100
AcDbArc
 50
1.30973187900871
 51
178.6902681209911
  0
ARC
  5
3D1
330
1F
100
AcDbEntity
  8
LAY-10
  6
CONTINUOUS
 62
     7
100
AcDbCircle
 10
671.9999999999998
 20
781.1000000000307
 30
0.0
 40
137.2955889105001
100
AcDbArc
 50
0.0
 51
180.0
  0
ARC
  5
3D2
330
1F
100
AcDbEntity
  8
LAY-10
  6
CONTINUOUS
 62
     7
100
AcDbCircle
 10
830.0
 20
781.1000000000307
 30
0.0
 40
4.0
100
AcDbArc
 50
90.00000000000001
 51
180.0
  0
ARC
  5
3D3
330
1F
100
AcDbEntity
  8
LAY-10
  6
CONTINUOUS
 62
     7
100
AcDbCircle
 10
513.9999999999998
 20
781.1000000000307
 30
0.0
 40
4.0
100
AcDbArc
 50
0.0
 51
90.00000000000001
  0
LINE
  5
3D4
330
1F
100
AcDbEntity
  8
LAY-10
  6
CONTINUOUS
 62
     7
100
AcDbLine
 10
528.6583188579859
 20
801.0899870092811
 30
0.0
 11
523.448886474265
 21
802.7464008623987
 31
0.0
  0
LINE
  5
3D5
330
1F
100
AcDbEntity
  8
LAY-10
  6
CONTINUOUS
 62
     7
100
AcDbLine
 10
527.6345265072712
 20
791.34925345913
 30
0.0
 11
522.1945449150533
 21
790.8121381179802
 31
0.0
  0
ARC
  5
3D6
330
1F
100
AcDbEntity
  8
LAY-10
  6
CONTINUOUS
 62
     7
100
AcDbCircle
 10
527.1432414998833
 20
796.3250588252507
 30
0.0
 40
5.0
100
AcDbArc
 50
275.6388096921446
 51
72.36119030785707
  0
LINE
  5
3D7
330
1F
100
AcDbEntity
  8
LAY-10
  6
CONTINUOUS
 62
     7
100
AcDbLine
 10
518.9279119428209
 20
824.5273630078767
 30
0.0
 11
527.4874205893818
 21
821.7462100585329
 31
0.0
  0
ARC
  5
3D8
330
1F
100
AcDbEntity
  8
LAY-10
  6
CONTINUOUS
 62
     7
100
AcDbCircle
 10
520.7820139090707
 20
830.2337021056477
 30
0.0
 40
6.000000000000004
100
AcDbArc
 50
71.99999999999912
 51
251.9999999999992
  0
LINE
  5
3D9
330
1F
100
AcDbEntity
  8
LAY-10
  6
CONTINUOUS
 62
     7
100
AcDbLine
 10
522.6361158753205
 20
835.9400412034187
 30
0.0
 11
531.1956245218814
 21
833.1588882540749
 31
0.0
  0
LINE
  5
3DA
330
1F
100
AcDbEntity
  8
LAY-10
  6
CONTINUOUS
 62
     7
100
AcDbLine
 10
535.9468305043072
 20
830.4555691227246
 30
0.0
 11
531.1956245218814
 21
833.1588882540749
 31
0.0
  0
LINE
  5
3DB
330
1F
100
AcDbEntity
  8
LAY-10
  6
CONTINUOUS
 62
     7
100
AcDbLine
 10
532.920198090588
 20
821.1405523699408
 30
0.0
 11
527.4874205893818
 21
821.7462100585329
 31
0.0
  0
ARC
  5
3DC
330
1F
100
AcDbEntity
  8
LAY-10
  6
CONTINUOUS
 62
     7
100
AcDbCircle
 10
533.4741769461859
 20
826.1097683470892
 30
0.0
 40
5.0
100
AcDbArc
 50
263.6388096921422
 51
60.3611903078543
  0
LINE
  5
3DD
330
1F
100
AcDbEntity
  8
LAY-10
  6
CONTINUOUS
 62
     7
100
AcDbLine
 10
531.301960798274
 20
855.403847577324
 30
0.0
 11
539.0961894322479
 21
850.9038475773744
 31
0.0
  0
ARC
  5
3DE
330
1F
100
AcDbEntity
  8
LAY-10
  6
CONTINUOUS
 62
     7
100
AcDbCircle
 10
534.3019607982749
 20
860.6000000000307
 30
0.0
 40
6.000000000000004
100
AcDbArc
 50
59.99999999999968
 51
239.9999999999997
  0
LINE
  5
3DF
330
1F
100
AcDbEntity
  8
LAY-10
  6
CONTINUOUS
 62
     7
100
AcDbLine
 10
537.301960798274
 20
865.7961524227375
 30
0.0
 11
545.0961894322479
 21
861.2961524227875
 31
0.0
  0
LINE
  5
3E0
330
1F
100
AcDbEntity
  8
LAY-10
  6
CONTINUOUS
 62
     7
100
AcDbLine
 10
549.1815185131306
 20
857.6640760312101
 30
0.0
 11
545.0961894322479
 21
861.2961524227875
 31
0.0
  0
LINE
  5
3E1
330
1F
100
AcDbEntity
  8
LAY-10
  6
CONTINUOUS
 62
     7
100
AcDbLine
 10
544.2843243962805
 20
849.1818870062992
 30
0.0
 11
539.0961894322479
 21
850.9038475773744
 31
0.0
  0
ARC
  5
3E2
330
1F
100
AcDbEntity
  8
LAY-10
  6
CONTINUOUS
 62
     7
100
AcDbCircle
 10
545.859355580589
 20
853.9273350113307
 30
0.0
 40
5.0
100
AcDbArc
 50
251.6388096921416
 51
48.36119030785547
  0
LINE
  5
3E3
330
1F
100
AcDbEntity
  8
LAY-10
  6
CONTINUOUS
 62
     7
100
AcDbLine
 10
549.825189110941
 20
883.0328974582247
 30
0.0
 11
556.5134925401633
 21
877.0107220010626
 31
0.0
  0
ARC
  5
3E4
330
1F
100
AcDbEntity
  8
LAY-10
  6
CONTINUOUS
 62
     7
100
AcDbCircle
 10
553.8399727490948
 20
887.4917664110893
 30
0.0
 40
6.000000000000004
100
AcDbArc
 50
47.99999999999827
 51
227.9999999999983
  0
LINE
  5
3E5
330
1F
100
AcDbEntity
  8
LAY-10
  6
CONTINUOUS
 62
     7
100
AcDbLine
 10
557.8547563872478
 20
891.9506353639539
 30
0.0
 11
564.5430598164701
 21
885.9284599067909
 31
0.0
  0
LINE
  5
3E6
330
1F
100
AcDbEntity
  8
LAY-10
  6
CONTINUOUS
 62
     7
100
AcDbLine
 10
567.7839635113912
 20
881.5263654219342
 30
0.0
 11
564.5430598164701
 21
885.9284599067909
 31
0.0
  0
LINE
  5
3E7
330
1F
100
AcDbEntity
  8
LAY-10
  6
CONTINUOUS
 62
     7
100
AcDbLine
 10
561.2302385736618
 20
874.2477164873438
 30
0.0
 11
556.5134925401633
 21
877.0107220010626
 31
0.0
  0
ARC
  5
3E8
330
1F
100
AcDbEntity
  8
LAY-10
  6
CONTINUOUS
 62
     7
100
AcDbCircle
 10
563.7574856660874
 20
878.5619976712527
 30
0.0
 40
5.0
100
AcDbArc
 50
239.6388096921421
 51
36.3611903078559
  0
LINE
  5
3E9
330
1F
100
AcDbEntity
  8
LAY-10
  6
CONTINUOUS
 62
     7
100
AcDbLine
 10
573.6880429192468
 20
906.2069905918923
 30
0.0
 11
578.9781101898204
 21
898.925837642599
 31
0.0
  0
ARC
  5
3EA
330
1F
100
AcDbEntity
  8
LAY-10
  6
CONTINUOUS
 62
     7
100
AcDbCircle
 10
578.5421448854966
 20
909.7337021056472
 30
0.0
 40
6.000000000000004
100
AcDbArc
 50
35.99999999999973
 51
215.9999999999998
  0
LINE
  5
3EB
330
1F
100
AcDbEntity
  8
LAY-10
  6
CONTINUOUS
 62
     7
100
AcDbLine
 10
583.3962468517464
 20
913.2604136194026
 30
0.0
 11
588.68631412232
 21
905.9792606701088
 31
0.0
  0
LINE
  5
3EC
330
1F
100
AcDbEntity
  8
LAY-10
  6
CONTINUOUS
 62
     7
100
AcDbLine
 10
590.9411493882305
 20
900.9995407445539
 30
0.0
 11
588.68631412232
 21
905.9792606701088
 31
0.0
  0
LINE
  5
3ED
330
1F
100
AcDbEntity
  8
LAY-10
  6
CONTINUOUS
 62
     7
100
AcDbLine
 10
583.0173228576621
 20
895.2425437855585
 30
0.0
 11
578.9781101898204
 21
898.925837642599
 31
0.0
  0
ARC
  5
3EE
330
1F
100
AcDbEntity
  8
LAY-10
  6
CONTINUOUS
 62
     7
100
AcDbCircle
 10
586.3863330331894
 20
898.9371033583892
 30
0.0
 40
5.0
100
AcDbArc
 50
227.6388096921405
 51
24.36119030785811
  0
LINE
  5
3EF
330
1F
100
AcDbEntity
  8
LAY-10
  6
CONTINUOUS
 62
     7
100
AcDbLine
 10
601.8476010050924
 20
923.9133079067495
 30
0.0
 11
605.5082307927339
 21
915.6913987880579
 31
0.0
  0
ARC
  5
3F0
330
1F
100
AcDbEntity
  8
LAY-10
  6
CONTINUOUS
 62
     7
100
AcDbCircle
 10
607.3288737509481
 20
926.3537277652043
 30
0.0
 40
6.000000000000004
100
AcDbArc
 50
23.99999999999965
 51
203.9999999999996
  0
LINE
  5
3F1
330
1F
100
AcDbEntity
  8
LAY-10
  6
CONTINUOUS
 62
     7
100
AcDbLine
 10
612.8101464968029
 20
928.7941476236596
 30
0.0
 11
616.4707762844444
 21
920.572238504967
 31
0.0
  0
LINE
  5
3F2
330
1F
100
AcDbEntity
  8
LAY-10
  6
CONTINUOUS
 62
     7
100
AcDbLine
 10
617.6409960003245
 20
915.2325307948084
 30
0.0
 11
616.4707762844444
 21
920.572238504967
 31
0.0
  0
LINE
  5
3F3
330
1F
100
AcDbEntity
  8
LAY-10
  6
CONTINUOUS
 62
     7
100
AcDbLine
 10
608.6933771190404
 20
911.2487942036527
 30
0.0
 11
605.5082307927339
 21
915.6913987880579
 31
0.0
  0
ARC
  5
3F4
330
1F
100
AcDbEntity
  8
LAY-10
  6
CONTINUOUS
 62
     7
100
AcDbCircle
 10
612.7569084666945
 20
914.1621621836088
 30
0.0
 40
5.0
100
AcDbArc
 50
215.6388096921416
 51
12.3611903078582
  0
LINE
  5
3F5
330
1F
100
AcDbEntity
  8
LAY-10
  6
CONTINUOUS
 62
     7
100
AcDbLine
 10
633.0731555555737
 20
935.377998371799
 30
0.0
 11
634.9443607729124
 21
926.5746699652931
 31
0.0
  0
ARC
  5
3F6
330
1F
100
AcDbEntity
  8
LAY-10
  6
CONTINUOUS
 62
     7
100
AcDbCircle
 10
638.9420411599765
 20
936.6254685167058
 30
0.0
 40
6.000000000000004
100
AcDbArc
 50
11.99999999999854
 51
191.9999999999986
  0
LINE
  5
3F7
330
1F
100
AcDbEntity
  8
LAY-10
  6
CONTINUOUS
 62
     7
100
AcDbLine
 10
644.8109267643792
 20
937.8729386616127
 30
0.0
 11
646.6821319817179
 21
929.0696102551059
 31
0.0
  0
LINE
  5
3F8
330
1F
100
AcDbEntity
  8
LAY-10
  6
CONTINUOUS
 62
     7
100
AcDbLine
 10
646.7165919306451
 20
923.6032856100377
 30
0.0
 11
646.6821319817179
 21
929.0696102551059
 31
0.0
  0
LINE
  5
3F9
330
1F
100
AcDbEntity
  8
LAY-10
  6
CONTINUOUS
 62
     7
100
AcDbLine
 10
637.1362345791974
 20
921.5669177918438
 30
0.0
 11
634.9443607729124
 21
926.5746699652931
 31
0.0
  0
ARC
  5
3FA
330
1F
100
AcDbEntity
  8
LAY-10
  6
CONTINUOUS
 62
     7
100
AcDbCircle
 10
641.7166912800983
 20
923.5717660183112
 30
0.0
 40
5.0
100
AcDbArc
 50
203.6388096921402
 51
0.3611903078542157
  0
LINE
  5
3FB
330
1F
100
AcDbEntity
  8
LAY-10
  6
CONTINUOUS
 62
     7
100
AcDbLine
 10
665.9999999999998
 20
940.1000000000307
 30
0.0
 11
665.9999999999998
 21
931.1000000001312
 31
0.0
  0
ARC
  5
3FC
330
1F
100
AcDbEntity
  8
LAY-10
  6
CONTINUOUS
 62
     7
100
AcDbCircle
 10
671.9999999999998
 20
940.1000000000307
 30
0.0
 40
6.000000000000004
100
AcDbArc
 50
0.0
 51
180.0
  0
LINE
  5
3FD
330
1F
100
AcDbEntity
  8
LAY-10
  6
CONTINUOUS
 62
     7
100
AcDbLine
 10
677.9999999999998
 20
940.1000000000307
 30
0.0
 11
677.9999999999998
 21
931.1000000001308
 31
0.0
  0
LINE
  5
3FE
330
1F
100
AcDbEntity
  8
LAY-10
  6
CONTINUOUS
 62
     7
100
AcDbLine
 10
676.89719411685
 20
925.7459630374782
 30
0.0
 11
677.9999999999998
 21
931.1000000001308
 31
0.0
  0
LINE
  5
3FF
330
1F
100
AcDbEntity
  8
LAY-10
  6
CONTINUOUS
 62
     7
100
AcDbLine
 10
667.1028058831505
 20
925.7459630374782
 30
0.0
 11
665.9999999999998
 21
931.1000000001312
 31
0.0
  0
ARC
  5
400
330
1F
100
AcDbEntity
  8
LAY-10
  6
CONTINUOUS
 62
     7
100
AcDbCircle
 10
671.9999999999998
 20
926.7546700226306
 30
0.0
 40
5.0
100
AcDbArc
 50
191.6388096921385
 51
348.3611903078561
  0
LINE
  5
401
330
1F
100
AcDbEntity
  8
LAY-10
  6
CONTINUOUS
 62
     7
100
AcDbLine
 10
699.1890732356212
 20
937.8729386616122
 30
0.0
 11
697.3178680182816
 21
929.0696102551063
 31
0.0
  0
ARC
  5
402
330
1F
100
AcDbEntity
  8
LAY-10
  6
CONTINUOUS
 62
     7
100
AcDbCircle
 10
705.057958840024
 20
936.6254685167058
 30
0.0
 40
6.000000000000004
100
AcDbArc
 50
348.0000000000017
 51
168.0000000000015
  0
LINE
  5
403
330
1F
100
AcDbEntity
  8
LAY-10
  6
CONTINUOUS
 62
     7
100
AcDbLine
 10
710.9268444444267
 20
935.3779983717994
 30
0.0
 11
709.0556392270871
 21
926.5746699652931
 31
0.0
  0
LINE
  5
404
330
1F
100
AcDbEntity
  8
LAY-10
  6
CONTINUOUS
 62
     7
100
AcDbLine
 10
706.863765420803
 20
921.5669177918438
 30
0.0
 11
709.0556392270871
 21
926.5746699652931
 31
0.0
  0
LINE
  5
405
330
1F
100
AcDbEntity
  8
LAY-10
  6
CONTINUOUS
 62
     7
100
AcDbLine
 10
697.2834080693544
 20
923.6032856100377
 30
0.0
 11
697.3178680182816
 21
929.0696102551063
 31
0.0
  0
ARC
  5
406
330
1F
100
AcDbEntity
  8
LAY-10
  6
CONTINUOUS
 62
     7
100
AcDbCircle
 10
702.2833087199012
 20
923.5717660183112
 30
0.0
 40
5.0
100
AcDbArc
 50
179.6388096921406
 51
336.3611903078545
  0
LINE
  5
407
330
1F
100
AcDbEntity
  8
LAY-10
  6
CONTINUOUS
 62
     7
100
AcDbLine
 10
731.1898535031967
 20
928.7941476236591
 30
0.0
 11
727.5292237155552
 21
920.5722385049675
 31
0.0
  0
ARC
  5
408
330
1F
100
AcDbEntity
  8
LAY-10
  6
CONTINUOUS
 62
     7
100
AcDbCircle
 10
736.6711262490523
 20
926.3537277652043
 30
0.0
 40
6.000000000000004
100
AcDbArc
 50
336.0000000000001
 51
156.0
  0
LINE
  5
409
330
1F
100
AcDbEntity
  8
LAY-10
  6
CONTINUOUS
 62
     7
100
AcDbLine
 10
742.152398994908
 20
923.91330790675
 30
0.0
 11
738.4917692072656
 21
915.6913987880574
 31
0.0
  0
LINE
  5
40A
330
1F
100
AcDbEntity
  8
LAY-10
  6
CONTINUOUS
 62
     7
100
AcDbLine
 10
735.3066228809591
 20
911.2487942036527
 30
0.0
 11
738.4917692072656
 21
915.6913987880574
 31
0.0
  0
LINE
  5
40B
330
1F
100
AcDbEntity
  8
LAY-10
  6
CONTINUOUS
 62
     7
100
AcDbLine
 10
726.3590039996759
 20
915.2325307948084
 30
0.0
 11
727.5292237155552
 21
920.5722385049675
 31
0.0
  0
ARC
  5
40C
330
1F
100
AcDbEntity
  8
LAY-10
  6
CONTINUOUS
 62
     7
100
AcDbCircle
 10
731.2430915333059
 20
914.1621621836088
 30
0.0
 40
5.0
100
AcDbArc
 50
167.6388096921419
 51
324.3611903078534
  0
LINE
  5
40D
330
1F
100
AcDbEntity
  8
LAY-10
  6
CONTINUOUS
 62
     7
100
AcDbLine
 10
760.6037531482532
 20
913.2604136194021
 30
0.0
 11
755.3136858776804
 21
905.9792606701088
 31
0.0
  0
ARC
  5
40E
330
1F
100
AcDbEntity
  8
LAY-10
  6
CONTINUOUS
 62
     7
100
AcDbCircle
 10
765.457855114503
 20
909.7337021056472
 30
0.0
 40
6.000000000000004
100
AcDbArc
 50
323.9999999999997
 51
143.9999999999996
  0
LINE
  5
40F
330
1F
100
AcDbEntity
  8
LAY-10
  6
CONTINUOUS
 62
     7
100
AcDbLine
 10
770.3119570807528
 20
906.2069905918928
 30
0.0
 11
765.0218898101791
 21
898.925837642599
 31
0.0
  0
LINE
  5
410
330
1F
100
AcDbEntity
  8
LAY-10
  6
CONTINUOUS
 62
     7
100
AcDbLine
 10
760.9826771423384
 20
895.2425437855585
 30
0.0
 11
765.0218898101791
 21
898.925837642599
 31
0.0
  0
LINE
  5
411
330
1F
100
AcDbEntity
  8
LAY-10
  6
CONTINUOUS
 62
     7
100
AcDbLine
 10
753.058850611769
 20
900.9995407445539
 30
0.0
 11
755.3136858776804
 21
905.9792606701088
 31
0.0
  0
ARC
  5
412
330
1F
100
AcDbEntity
  8
LAY-10
  6
CONTINUOUS
 62
     7
100
AcDbCircle
 10
757.613666966811
 20
898.9371033583892
 30
0.0
 40
5.0
100
AcDbArc
 50
155.6388096921415
 51
312.3611903078551
  0
LINE
  5
413
330
1F
100
AcDbEntity
  8
LAY-10
  6
CONTINUOUS
 62
     7
100
AcDbLine
 10
786.1452436127522
 20
891.9506353639539
 30
0.0
 11
779.4569401835304
 21
885.9284599067909
 31
0.0
  0
ARC
  5
414
330
1F
100
AcDbEntity
  8
LAY-10
  6
CONTINUOUS
 62
     7
100
AcDbCircle
 10
790.1600272509056
 20
887.4917664110893
 30
0.0
 40
6.000000000000004
100
AcDbArc
 50
312.000000000001
 51
132.000000000001
  0
LINE
  5
415
330
1F
100
AcDbEntity
  8
LAY-10
  6
CONTINUOUS
 62
     7
100
AcDbLine
 10
794.1748108890586
 20
883.0328974582252
 30
0.0
 11
787.4865074598363
 21
877.0107220010622
 31
0.0
  0
LINE
  5
416
330
1F
100
AcDbEntity
  8
LAY-10
  6
CONTINUOUS
 62
     7
100
AcDbLine
 10
782.7697614263377
 20
874.2477164873438
 30
0.0
 11
787.4865074598363
 21
877.0107220010622
 31
0.0
  0
LINE
  5
417
330
1F
100
AcDbEntity
  8
LAY-10
  6
CONTINUOUS
 62
     7
100
AcDbLine
 10
776.2160364886088
 20
881.5263654219342
 30
0.0
 11
779.4569401835304
 21
885.9284599067909
 31
0.0
  0
ARC
  5
418
330
1F
100
AcDbEntity
  8
LAY-10
  6
CONTINUOUS
 62
     7
100
AcDbCircle
 10
780.2425143339121
 20
878.5619976712527
 30
0.0
 40
5.0
100
AcDbArc
 50
143.6388096921434
 51
300.3611903078558
  0
ARC
  5
419
330
1F
100
AcDbEntity
  8
LAY-10
  6
CONTINUOUS
 62
     7
100
AcDbCircle
 10
671.9999999999998
 20
781.1000000000307
 30
0.0
 40
150.119952038444
100
AcDbArc
 50
152.2906100426359
 51
159.7093899573642
  0
ARC
  5
41A
330
1F
100
AcDbEntity
  8
LAY-10
  6
CONTINUOUS
 62
     7
100
AcDbCircle
 10
671.9999999999998
 20
781.1000000000307
 30
0.0
 40
150.119952038444
100
AcDbArc
 50
140.2906100426358
 51
147.7093899573641
  0
ARC
  5
41B
330
1F
100
AcDbEntity
  8
LAY-10
  6
CONTINUOUS
 62
     7
100
AcDbCircle
 10
671.9999999999998
 20
781.1000000000307
 30
0.0
 40
150.119952038444
100
AcDbArc
 50
128.2906100426359
 51
135.7093899573642
  0
ARC
  5
41C
330
1F
100
AcDbEntity
  8
LAY-10
  6
CONTINUOUS
 62
     7
100
AcDbCircle
 10
671.9999999999998
 20
781.1000000000307
 30
0.0
 40
150.119952038444
100
AcDbArc
 50
116.2906100426358
 51
123.7093899573642
  0
ARC
  5
41D
330
1F
100
AcDbEntity
  8
LAY-10
  6
CONTINUOUS
 62
     7
100
AcDbCircle
 10
671.9999999999998
 20
781.1000000000307
 30
0.0
 40
150.119952038444
100
AcDbArc
 50
104.2906100426358
 51
111.7093899573643
  0
ARC
  5
41E
330
1F
100
AcDbEntity
  8
LAY-10
  6
CONTINUOUS
 62
     7
100
AcDbCircle
 10
671.9999999999998
 20
781.1000000000307
 30
0.0
 40
150.119952038444
100
AcDbArc
 50
92.2906100426358
 51
99.70938995736404
  0
ARC
  5
41F
330
1F
100
AcDbEntity
  8
LAY-10
  6
CONTINUOUS
 62
     7
100
AcDbCircle
 10
671.9999999999998
 20
781.1000000000307
 30
0.0
 40
150.119952038444
100
AcDbArc
 50
80.29061004263602
 51
87.70938995736414
  0
ARC
  5
420
330
1F
100
AcDbEntity
  8
LAY-10
  6
CONTINUOUS
 62
     7
100
AcDbCircle
 10
671.9999999999998
 20
781.1000000000307
 30
0.0
 40
150.119952038444
100
AcDbArc
 50
68.2906100426358
 51
75.70938995736417
  0
ARC
  5
421
330
1F
100
AcDbEntity
  8
LAY-10
  6
CONTINUOUS
 62
     7
100
AcDbCircle
 10
671.9999999999998
 20
781.1000000000307
 30
0.0
 40
150.119952038444
100
AcDbArc
 50
56.29061004263572
 51
63.70938995736407
  0
ARC
  5
422
330
1F
100
AcDbEntity
  8
LAY-10
  6
CONTINUOUS
 62
     7
100
AcDbCircle
 10
671.9999999999998
 20
781.1000000000307
 30
0.0
 40
150.119952038444
100
AcDbArc
 50
44.29061004263587
 51
51.70938995736417
  0
LINE
  5
423
330
1F
100
AcDbEntity
  8
LAY-10
  6
CONTINUOUS
 62
     7
100
AcDbLine
 10
806.6980392017256
 20
865.7961524227375
 30
0.0
 11
798.9038105677525
 21
861.2961524227875
 31
0.0
  0
ARC
  5
424
330
1F
100
AcDbEntity
  8
LAY-10
  6
CONTINUOUS
 62
     7
100
AcDbCircle
 10
809.6980392017256
 20
860.6000000000307
 30
0.0
 40
6.000000000000004
100
AcDbArc
 50
299.9999999999986
 51
119.9999999999985
  0
LINE
  5
425
330
1F
100
AcDbEntity
  8
LAY-10
  6
CONTINUOUS
 62
     7
100
AcDbLine
 10
812.6980392017256
 20
855.4038475773244
 30
0.0
 11
804.9038105677521
 21
850.9038475773744
 31
0.0
  0
LINE
  5
426
330
1F
100
AcDbEntity
  8
LAY-10
  6
CONTINUOUS
 62
     7
100
AcDbLine
 10
799.7156756037191
 20
849.1818870062992
 30
0.0
 11
804.9038105677521
 21
850.9038475773744
 31
0.0
  0
LINE
  5
427
330
1F
100
AcDbEntity
  8
LAY-10
  6
CONTINUOUS
 62
     7
100
AcDbLine
 10
794.8184814868698
 20
857.6640760312101
 30
0.0
 11
798.9038105677525
 21
861.2961524227875
 31
0.0
  0
ARC
  5
428
330
1F
100
AcDbEntity
  8
LAY-10
  6
CONTINUOUS
 62
     7
100
AcDbCircle
 10
798.140644419411
 20
853.9273350113307
 30
0.0
 40
5.0
100
AcDbArc
 50
131.6388096921402
 51
288.361190307856
  0
LINE
  5
429
330
1F
100
AcDbEntity
  8
LAY-10
  6
CONTINUOUS
 62
     7
100
AcDbLine
 10
821.3638841246793
 20
835.9400412034187
 30
0.0
 11
812.804375478119
 21
833.1588882540749
 31
0.0
  0
ARC
  5
42A
330
1F
100
AcDbEntity
  8
LAY-10
  6
CONTINUOUS
 62
     7
100
AcDbCircle
 10
823.2179860909291
 20
830.2337021056477
 30
0.0
 40
6.000000000000004
100
AcDbArc
 50
287.9999999999989
 51
107.9999999999989
  0
LINE
  5
42B
330
1F
100
AcDbEntity
  8
LAY-10
  6
CONTINUOUS
 62
     7
100
AcDbLine
 10
825.0720880571791
 20
824.5273630078767
 30
0.0
 11
816.5125794106177
 21
821.7462100585329
 31
0.0
  0
LINE
  5
42C
330
1F
100
AcDbEntity
  8
LAY-10
  6
CONTINUOUS
 62
     7
100
AcDbLine
 10
811.0798019094116
 20
821.1405523699403
 30
0.0
 11
816.5125794106177
 21
821.7462100585329
 31
0.0
  0
LINE
  5
42D
330
1F
100
AcDbEntity
  8
LAY-10
  6
CONTINUOUS
 62
     7
100
AcDbLine
 10
808.0531694956924
 20
830.4555691227246
 30
0.0
 11
812.804375478119
 21
833.1588882540749
 31
0.0
  0
ARC
  5
42E
330
1F
100
AcDbEntity
  8
LAY-10
  6
CONTINUOUS
 62
     7
100
AcDbCircle
 10
810.5258230538136
 20
826.1097683470892
 30
0.0
 40
5.0
100
AcDbArc
 50
119.6388096921435
 51
276.3611903078553
  0
LINE
  5
42F
330
1F
100
AcDbEntity
  8
LAY-10
  6
CONTINUOUS
 62
     7
100
AcDbLine
 10
816.3654734927288
 20
791.3492534591295
 30
0.0
 11
821.8054550849461
 21
790.8121381179798
 31
0.0
  0
LINE
  5
430
330
1F
100
AcDbEntity
  8
LAY-10
  6
CONTINUOUS
 62
     7
100
AcDbLine
 10
815.3416811420136
 20
801.0899870092807
 30
0.0
 11
820.5511135257348
 21
802.7464008623987
 31
0.0
  0
ARC
  5
431
330
1F
100
AcDbEntity
  8
LAY-10
  6
CONTINUOUS
 62
     7
100
AcDbCircle
 10
816.8567585001163
 20
796.3250588252503
 30
0.0
 40
5.0
100
AcDbArc
 50
107.6388096921417
 51
264.3611903078556
  0
ARC
  5
432
330
1F
100
AcDbEntity
  8
LAY-10
  6
CONTINUOUS
 62
     7
100
AcDbCircle
 10
671.9999999999998
 20
781.1000000000307
 30
0.0
 40
150.119952038444
100
AcDbArc
 50
32.29061004263578
 51
39.70938995736425
  0
ARC
  5
433
330
1F
100
AcDbEntity
  8
LAY-10
  6
CONTINUOUS
 62
     7
100
AcDbCircle
 10
671.9999999999998
 20
781.1000000000307
 30
0.0
 40
150.119952038444
100
AcDbArc
 50
20.29061004263588
 51
27.70938995736395
  0
ARC
  5
434
330
1F
100
AcDbEntity
  8
LAY-10
  6
CONTINUOUS
 62
     7
100
AcDbCircle
 10
671.9999999999998
 20
781.1000000000307
 30
0.0
 40
150.119952038444
100
AcDbArc
 50
0.0
 51
15.70938995736403
  0
ARC
  5
435
330
1F
100
AcDbEntity
  8
LAY-10
  6
CONTINUOUS
 62
     7
100
AcDbCircle
 10
657.9999999864501
 20
883.8540333076957
 30
0.0
 40
28.00000000000002
100
AcDbArc
 50
328.8329615814759
 51
28.95502437185983
  0
ARC
  5
436
330
1F
100
AcDbEntity
  8
LAY-10
  6
CONTINUOUS
 62
     7
100
AcDbCircle
 10
671.9999999864506
 20
891.6000000001112
 30
0.0
 40
12.00000000000001
100
AcDbArc
 50
28.95502437185857
 51
90.00000000000001
  0
ARC
  5
437
330
1F
100
AcDbEntity
  8
LAY-10
  6
CONTINUOUS
 62
     7
100
AcDbCircle
 10
671.9999999864506
 20
891.6000000001112
 30
0.0
 40
12.00000000000001
100
AcDbArc
 50
90.00000000000001
 51
151.0449756281394
  0
ARC
  5
438
330
1F
100
AcDbEntity
  8
LAY-10
  6
CONTINUOUS
 62
     7
100
AcDbCircle
 10
685.9999999864501
 20
883.8540333076957
 30
0.0
 40
28.00000000000002
100
AcDbArc
 50
151.04497562814
 51
211.167038418524
  0
ARC
  5
439
330
1F
100
AcDbEntity
  8
LAY-10
  6
CONTINUOUS
 62
     7
100
AcDbCircle
 10
638.5744890815433
 20
855.1694002356402
 30
0.0
 40
27.4255109049067
100
AcDbArc
 50
350.1198456086281
 51
31.16703841851574
  0
ARC
  5
43A
330
1F
100
AcDbEntity
  8
LAY-10
  6
CONTINUOUS
 62
     7
100
AcDbCircle
 10
705.4255108913583
 20
855.1694002356402
 30
0.0
 40
27.4255109049067
100
AcDbArc
 50
148.8329615814833
 51
189.8801543913721
  0
ARC
  5
43B
330
1F
100
AcDbEntity
  8
LAY-10
  6
CONTINUOUS
 62
     7
100
AcDbCircle
 10
638.9999999864501
 20
843.6000000001108
 30
0.0
 40
40.0
100
AcDbArc
 50
335.8531520538665
 51
9.880154391461563
  0
ARC
  5
43C
330
1F
100
AcDbEntity
  8
LAY-10
  6
CONTINUOUS
 62
     7
100
AcDbCircle
 10
704.9999999864506
 20
843.6000000001112
 30
0.0
 40
40.0
100
AcDbArc
 50
170.1198456085373
 51
204.146848046866
  0
LINE
  5
43D
330
1F
100
AcDbEntity
  8
LAY-10
  6
CONTINUOUS
 62
     7
100
AcDbLine
 10
668.5000000008333
 20
815.9245602989471
 30
0.0
 11
668.5000000008338
 21
827.2369317960737
 31
0.0
  0
LINE
  5
43E
330
1F
100
AcDbEntity
  8
LAY-10
  6
CONTINUOUS
 62
     7
100
AcDbLine
 10
675.5000000008347
 20
815.9245602989466
 30
0.0
 11
675.5000000008351
 21
827.2369317960732
 31
0.0
  0
ARC
  5
43F
330
1F
100
AcDbEntity
  8
LAY-10
  6
CONTINUOUS
 62
     7
100
AcDbCircle
 10
671.9999999999998
 20
781.1000000000307
 30
0.0
 40
35.00000000010004
100
AcDbArc
 50
84.26082952139903
 51
95.73917047587912
  0
ARC
  5
440
330
1F
100
AcDbEntity
  8
LAY-10
  6
CONTINUOUS
 62
     7
100
AcDbCircle
 10
720.736533467779
 20
823.5141521781046
 30
0.0
 40
25.00000000000002
100
AcDbArc
 50
117.0738309349502
 51
117.1401196211102
  0
ARC
  5
441
330
1F
100
AcDbEntity
  8
LAY-10
  6
CONTINUOUS
 62
     7
100
AcDbCircle
 10
684.3634665088323
 20
844.5141521781046
 30
0.0
 40
25.00000000000002
100
AcDbArc
 50
2.859880378888829
 51
2.926169065049907
  0
ARC
  5
442
330
1F
100
AcDbEntity
  8
LAY-10
  6
CONTINUOUS
 62
     7
100
AcDbCircle
 10
711.2526609891158
 20
877.0876031925558
 30
0.0
 40
28.00000000000002
100
AcDbArc
 50
298.8329615814754
 51
358.9550243718598
  0
ARC
  5
443
330
1F
100
AcDbEntity
  8
LAY-10
  6
CONTINUOUS
 62
     7
100
AcDbCircle
 10
727.249999988306
 20
876.7958071250554
 30
0.0
 40
12.00000000000001
100
AcDbArc
 50
358.9550243718585
 51
59.99999999999904
  0
ARC
  5
444
330
1F
100
AcDbEntity
  8
LAY-10
  6
CONTINUOUS
 62
     7
100
AcDbCircle
 10
727.249999988306
 20
876.7958071250554
 30
0.0
 40
12.00000000000001
100
AcDbArc
 50
59.99999999999904
 51
121.0449756281409
  0
ARC
  5
445
330
1F
100
AcDbEntity
  8
LAY-10
  6
CONTINUOUS
 62
     7
100
AcDbCircle
 10
735.5013722950796
 20
863.0876031925558
 30
0.0
 40
28.00000000000002
100
AcDbArc
 50
121.0449756281399
 51
181.1670384185235
  0
ARC
  5
446
330
1F
100
AcDbEntity
  8
LAY-10
  6
CONTINUOUS
 62
     7
100
AcDbCircle
 10
680.0873585279467
 20
861.9587377063739
 30
0.0
 40
27.4255109049067
100
AcDbArc
 50
320.1198456086273
 51
1.167038418515384
  0
ARC
  5
447
330
1F
100
AcDbEntity
  8
LAY-10
  6
CONTINUOUS
 62
     7
100
AcDbCircle
 10
737.9820416841942
 20
828.5332268014666
 30
0.0
 40
27.4255109049067
100
AcDbArc
 50
118.8329615814832
 51
159.8801543913719
  0
ARC
  5
448
330
1F
100
AcDbEntity
  8
LAY-10
  6
CONTINUOUS
 62
     7
100
AcDbCircle
 10
674.6711616634191
 20
851.7265877434023
 30
0.0
 40
40.0
100
AcDbArc
 50
305.8531520538664
 51
339.8801543914618
  0
ARC
  5
449
330
1F
100
AcDbEntity
  8
LAY-10
  6
CONTINUOUS
 62
     7
100
AcDbCircle
 10
731.8288383131924
 20
818.7265877434023
 30
0.0
 40
40.0
100
AcDbArc
 50
140.1198456085373
 51
174.1468480468658
  0
LINE
  5
44A
330
1F
100
AcDbEntity
  8
LAY-10
  6
CONTINUOUS
 62
     7
100
AcDbLine
 10
686.381191236934
 20
813.0089538940987
 30
0.0
 11
692.037376985498
 21
822.805754987657
 31
0.0
  0
LINE
  5
44B
330
1F
100
AcDbEntity
  8
LAY-10
  6
CONTINUOUS
 62
     7
100
AcDbLine
 10
692.4433690634262
 20
809.5089538940978
 30
0.0
 11
698.0995548119902
 21
819.3057549876561
 31
0.0
  0
ARC
  5
44C
330
1F
100
AcDbEntity
  8
LAY-10
  6
CONTINUOUS
 62
     7
100
AcDbCircle
 10
671.9999999999998
 20
781.1000000000307
 30
0.0
 40
35.00000000010004
100
AcDbArc
 50
54.26082952139897
 51
65.73917047587912
  0
ARC
  5
44D
330
1F
100
AcDbEntity
  8
LAY-10
  6
CONTINUOUS
 62
     7
100
AcDbCircle
 10
733.774428646552
 20
800.0243220442361
 30
0.0
 40
25.00000000000002
100
AcDbArc
 50
93.07383093495001
 51
93.14011962111064
  0
ARC
  5
44E
330
1F
100
AcDbEntity
  8
LAY-10
  6
CONTINUOUS
 62
     7
100
AcDbCircle
 10
709.0874480502678
 20
834.0030358079842
 30
0.0
 40
25.00000000000002
100
AcDbArc
 50
338.8598803788894
 51
338.9261690650487
  0
ARC
  5
44F
330
1F
100
AcDbEntity
  8
LAY-10
  6
CONTINUOUS
 62
     7
100
AcDbCircle
 10
735.414152164524
 20
793.4634665323323
 30
0.0
 40
25.00000000000002
100
AcDbArc
 50
87.07383093495001
 51
87.14011962111044
  0
ARC
  5
450
330
1F
100
AcDbEntity
  8
LAY-10
  6
CONTINUOUS
 62
     7
100
AcDbCircle
 10
714.4141521645236
 20
829.8365334912786
 30
0.0
 40
25.00000000000002
100
AcDbArc
 50
332.8598803788888
 51
332.9261690650494
  0
ARC
  5
451
330
1F
100
AcDbEntity
  8
LAY-10
  6
CONTINUOUS
 62
     7
100
AcDbCircle
 10
753.9876031789752
 20
844.60137231858
 30
0.0
 40
28.00000000000002
100
AcDbArc
 50
268.8329615814754
 51
328.9550243718597
  0
ARC
  5
452
330
1F
100
AcDbEntity
  8
LAY-10
  6
CONTINUOUS
 62
     7
100
AcDbCircle
 10
767.6958071114752
 20
836.350000011805
 30
0.0
 40
12.00000000000001
100
AcDbArc
 50
328.9550243718588
 51
29.99999999999995
  0
ARC
  5
453
330
1F
100
AcDbEntity
  8
LAY-10
  6
CONTINUOUS
 62
     7
100
AcDbCircle
 10
767.6958071114752
 20
836.350000011805
 30
0.0
 40
12.00000000000001
100
AcDbArc
 50
29.99999999999995
 51
91.04497562813992
  0
ARC
  5
454
330
1F
100
AcDbEntity
  8
LAY-10
  6
CONTINUOUS
 62
     7
100
AcDbCircle
 10
767.9876031789747
 20
820.3526610126158
 30
0.0
 40
28.00000000000002
100
AcDbArc
 50
91.0449756281398
 51
151.1670384185239
  0
ARC
  5
455
330
1F
100
AcDbEntity
  8
LAY-10
  6
CONTINUOUS
 62
     7
100
AcDbCircle
 10
719.433226787886
 20
847.0820417076933
 30
0.0
 40
27.4255109049067
100
AcDbArc
 50
290.1198456086277
 51
331.1670384185157
  0
ARC
  5
456
330
1F
100
AcDbEntity
  8
LAY-10
  6
CONTINUOUS
 62
     7
100
AcDbCircle
 10
752.8587376927937
 20
789.1873585514462
 30
0.0
 40
27.4255109049067
100
AcDbArc
 50
88.8329615814835
 51
129.8801543913719
  0
ARC
  5
457
330
1F
100
AcDbEntity
  8
LAY-10
  6
CONTINUOUS
 62
     7
100
AcDbCircle
 10
709.6265877298217
 20
840.9288383366915
 30
0.0
 40
40.0
100
AcDbArc
 50
275.8531520538665
 51
309.8801543914615
  0
ARC
  5
458
330
1F
100
AcDbEntity
  8
LAY-10
  6
CONTINUOUS
 62
     7
100
AcDbCircle
 10
742.6265877298222
 20
783.7711616869186
 30
0.0
 40
40.0
100
AcDbArc
 50
110.1198456085373
 51
144.1468480468658
  0
LINE
  5
459
330
1F
100
AcDbEntity
  8
LAY-10
  6
CONTINUOUS
 62
     7
100
AcDbLine
 10
700.4089538949008
 20
801.5433690620129
 30
0.0
 11
710.2057549884601
 21
807.1995548105759
 31
0.0
  0
LINE
  5
45A
330
1F
100
AcDbEntity
  8
LAY-10
  6
CONTINUOUS
 62
     7
100
AcDbLine
 10
703.9089538949013
 20
795.4811912355202
 30
0.0
 11
713.7057549884605
 21
801.1373769840833
 31
0.0
  0
ARC
  5
45B
330
1F
100
AcDbEntity
  8
LAY-10
  6
CONTINUOUS
 62
     7
100
AcDbCircle
 10
671.9999999999998
 20
781.1000000000307
 30
0.0
 40
35.00000000010004
100
AcDbArc
 50
24.26082952139896
 51
35.73917047587899
  0
ARC
  5
45C
330
1F
100
AcDbEntity
  8
LAY-10
  6
CONTINUOUS
 62
     7
100
AcDbCircle
 10
734.9603855342855
 20
766.6017293164344
 30
0.0
 40
25.00000000000002
100
AcDbArc
 50
63.07383093494995
 51
63.14011962111063
  0
ARC
  5
45D
330
1F
100
AcDbEntity
  8
LAY-10
  6
CONTINUOUS
 62
     7
100
AcDbCircle
 10
730.5701900770439
 20
808.3716489219026
 30
0.0
 40
25.00000000000002
100
AcDbArc
 50
308.8598803788891
 51
308.9261690650494
  0
ARC
  5
45E
330
1F
100
AcDbEntity
  8
LAY-10
  6
CONTINUOUS
 62
     7
100
AcDbCircle
 10
782.5000000000803
 20
781.1000000135804
 30
0.0
 40
12.00000000000001
100
AcDbArc
 50
298.9550243718594
 51
0.0
  0
ARC
  5
45F
330
1F
100
AcDbEntity
  8
LAY-10
  6
CONTINUOUS
 62
     7
100
AcDbCircle
 10
782.5000000000803
 20
781.1000000135804
 30
0.0
 40
12.00000000000001
100
AcDbArc
 50
0.0
 51
61.04497562813991
  0
ARC
  5
460
330
1F
100
AcDbEntity
  8
LAY-10
  6
CONTINUOUS
 62
     7
100
AcDbCircle
 10
774.7540333076645
 20
767.1000000135808
 30
0.0
 40
28.00000000000002
100
AcDbArc
 50
61.04497562813979
 51
121.1670384185241
  0
ARC
  5
461
330
1F
100
AcDbEntity
  8
LAY-10
  6
CONTINUOUS
 62
     7
100
AcDbCircle
 10
746.0694002356092
 20
814.5255109184876
 30
0.0
 40
27.4255109049067
100
AcDbArc
 50
260.1198456086274
 51
301.1670384185156
  0
ARC
  5
462
330
1F
100
AcDbEntity
  8
LAY-10
  6
CONTINUOUS
 62
     7
100
AcDbCircle
 10
734.5000000000803
 20
748.1000000135804
 30
0.0
 40
40.0
100
AcDbArc
 50
80.1198456085373
 51
114.1468480468656
  0
LINE
  5
463
330
1F
100
AcDbEntity
  8
LAY-10
  6
CONTINUOUS
 62
     7
100
AcDbLine
 10
706.8245602989161
 20
784.5999999991976
 30
0.0
 11
718.1369317960427
 21
784.5999999991972
 31
0.0
  0
ARC
  5
464
330
1F
100
AcDbEntity
  8
LAY-10
  6
CONTINUOUS
 62
     7
100
AcDbCircle
 10
671.9999999999998
 20
781.1000000000312
 30
0.0
 40
35.00000000010004
100
AcDbArc
 50
354.2608295213989
 51
5.739170475878865
  0
ARC
  5
465
330
1F
100
AcDbEntity
  8
LAY-10
  6
CONTINUOUS
 62
     7
100
AcDbCircle
 10
569.2459666923353
 20
767.0999999864811
 30
0.0
 40
28.00000000000002
100
AcDbArc
 50
58.83296158147559
 51
118.9550243718597
  0
ARC
  5
466
330
1F
100
AcDbEntity
  8
LAY-10
  6
CONTINUOUS
 62
     7
100
AcDbCircle
 10
561.4999999999197
 20
781.0999999864815
 30
0.0
 40
12.00000000000001
100
AcDbArc
 50
118.9550243718593
 51
180.0
  0
ARC
  5
467
330
1F
100
AcDbEntity
  8
LAY-10
  6
CONTINUOUS
 62
     7
100
AcDbCircle
 10
597.9305997643908
 20
814.5255108913892
 30
0.0
 40
27.4255109049067
100
AcDbArc
 50
238.8329615814835
 51
279.8801543913718
  0
ARC
  5
468
330
1F
100
AcDbEntity
  8
LAY-10
  6
CONTINUOUS
 62
     7
100
AcDbCircle
 10
609.4999999999202
 20
748.0999999864811
 30
0.0
 40
40.0
100
AcDbArc
 50
65.85315205386635
 51
99.88015439146142
  0
LINE
  5
469
330
1F
100
AcDbEntity
  8
LAY-10
  6
CONTINUOUS
 62
     7
100
AcDbLine
 10
637.1754397010843
 20
784.6000000008656
 30
0.0
 11
625.8630682039573
 21
784.6000000008661
 31
0.0
  0
ARC
  5
46A
330
1F
100
AcDbEntity
  8
LAY-10
  6
CONTINUOUS
 62
     7
100
AcDbCircle
 10
672.0000000000002
 20
781.1000000000307
 30
0.0
 40
35.00000000010004
100
AcDbArc
 50
174.2608295213989
 51
185.7391704758793
  0
ARC
  5
46B
330
1F
100
AcDbEntity
  8
LAY-10
  6
CONTINUOUS
 62
     7
100
AcDbCircle
 10
624.7238420370447
 20
825.1360634901115
 30
0.0
 40
25.00000000000002
100
AcDbArc
 50
213.0738309349502
 51
213.1401196211103
  0
ARC
  5
46C
330
1F
100
AcDbEntity
  8
LAY-10
  6
CONTINUOUS
 62
     7
100
AcDbCircle
 10
607.6409030278608
 20
786.7671542691218
 30
0.0
 40
25.00000000000002
100
AcDbArc
 50
98.85988037888916
 51
98.92616906504927
  0
ARC
  5
46D
330
1F
100
AcDbEntity
  8
LAY-10
  6
CONTINUOUS
 62
     7
100
AcDbCircle
 10
576.0123968074747
 20
820.3526609891468
 30
0.0
 40
28.00000000000002
100
AcDbArc
 50
28.83296158147522
 51
88.95502437185944
  0
ARC
  5
46E
330
1F
100
AcDbEntity
  8
LAY-10
  6
CONTINUOUS
 62
     7
100
AcDbCircle
 10
576.3041928749756
 20
836.3499999883369
 30
0.0
 40
12.00000000000001
100
AcDbArc
 50
88.95502437185898
 51
150.0
  0
ARC
  5
46F
330
1F
100
AcDbEntity
  8
LAY-10
  6
CONTINUOUS
 62
     7
100
AcDbCircle
 10
576.3041928749756
 20
836.3499999883369
 30
0.0
 40
12.00000000000001
100
AcDbArc
 50
150.0
 51
211.0449756281409
  0
ARC
  5
470
330
1F
100
AcDbEntity
  8
LAY-10
  6
CONTINUOUS
 62
     7
100
AcDbCircle
 10
590.0123968074752
 20
844.6013722951105
 30
0.0
 40
28.00000000000002
100
AcDbArc
 50
211.0449756281402
 51
271.1670384185238
  0
ARC
  5
471
330
1F
100
AcDbEntity
  8
LAY-10
  6
CONTINUOUS
 62
     7
100
AcDbCircle
 10
591.1412622936571
 20
789.1873585279776
 30
0.0
 40
27.4255109049067
100
AcDbArc
 50
50.11984560862755
 51
91.16703841851565
  0
ARC
  5
472
330
1F
100
AcDbEntity
  8
LAY-10
  6
CONTINUOUS
 62
     7
100
AcDbCircle
 10
624.5667731985643
 20
847.0820416842251
 30
0.0
 40
27.4255109049067
100
AcDbArc
 50
208.8329615814833
 51
249.8801543913719
  0
ARC
  5
473
330
1F
100
AcDbEntity
  8
LAY-10
  6
CONTINUOUS
 62
     7
100
AcDbCircle
 10
601.3734122566286
 20
783.77116166345
 30
0.0
 40
40.0
100
AcDbArc
 50
35.85315205386657
 51
69.88015439146169
  0
ARC
  5
474
330
1F
100
AcDbEntity
  8
LAY-10
  6
CONTINUOUS
 62
     7
100
AcDbCircle
 10
634.3734122566286
 20
840.9288383132233
 30
0.0
 40
40.0
100
AcDbArc
 50
230.1198456085372
 51
264.1468480468657
  0
LINE
  5
475
330
1F
100
AcDbEntity
  8
LAY-10
  6
CONTINUOUS
 62
     7
100
AcDbLine
 10
640.0910461059327
 20
795.481191236965
 30
0.0
 11
630.2942450123735
 21
801.1373769855289
 31
0.0
  0
LINE
  5
476
330
1F
100
AcDbEntity
  8
LAY-10
  6
CONTINUOUS
 62
     7
100
AcDbLine
 10
643.5910461059336
 20
801.5433690634571
 30
0.0
 11
633.7942450123749
 21
807.1995548120211
 31
0.0
  0
ARC
  5
477
330
1F
100
AcDbEntity
  8
LAY-10
  6
CONTINUOUS
 62
     7
100
AcDbCircle
 10
672.0000000000002
 20
781.1000000000307
 30
0.0
 40
35.00000000010004
100
AcDbArc
 50
144.260829521399
 51
155.7391704758791
  0
ARC
  5
478
330
1F
100
AcDbEntity
  8
LAY-10
  6
CONTINUOUS
 62
     7
100
AcDbCircle
 10
653.0756779557948
 20
842.8744286465829
 30
0.0
 40
25.00000000000002
100
AcDbArc
 50
183.0738309349508
 51
183.1401196211109
  0
ARC
  5
479
330
1F
100
AcDbEntity
  8
LAY-10
  6
CONTINUOUS
 62
     7
100
AcDbCircle
 10
619.0969641920467
 20
818.1874480502987
 30
0.0
 40
25.00000000000002
100
AcDbArc
 50
68.85988037888892
 51
68.92616906504901
  0
ARC
  5
47A
330
1F
100
AcDbEntity
  8
LAY-10
  6
CONTINUOUS
 62
     7
100
AcDbCircle
 10
608.4986276814509
 20
863.0876031790061
 30
0.0
 40
28.00000000000002
100
AcDbArc
 50
358.8329615814747
 51
58.95502437185956
  0
ARC
  5
47B
330
1F
100
AcDbEntity
  8
LAY-10
  6
CONTINUOUS
 62
     7
100
AcDbCircle
 10
616.7499999882259
 20
876.7958071115062
 30
0.0
 40
12.00000000000001
100
AcDbArc
 50
58.95502437185984
 51
119.9999999999995
  0
ARC
  5
47C
330
1F
100
AcDbEntity
  8
LAY-10
  6
CONTINUOUS
 62
     7
100
AcDbCircle
 10
616.7499999882259
 20
876.7958071115062
 30
0.0
 40
12.00000000000001
100
AcDbArc
 50
119.9999999999995
 51
181.0449756281394
  0
ARC
  5
47D
330
1F
100
AcDbEntity
  8
LAY-10
  6
CONTINUOUS
 62
     7
100
AcDbCircle
 10
632.7473389874151
 20
877.0876031790057
 30
0.0
 40
28.00000000000002
100
AcDbArc
 50
181.0449756281394
 51
241.1670384185237
  0
ARC
  5
47E
330
1F
100
AcDbEntity
  8
LAY-10
  6
CONTINUOUS
 62
     7
100
AcDbCircle
 10
606.0179582923381
 20
828.533226787917
 30
0.0
 40
27.4255109049067
100
AcDbArc
 50
20.11984560862811
 51
61.16703841851564
  0
ARC
  5
47F
330
1F
100
AcDbEntity
  8
LAY-10
  6
CONTINUOUS
 62
     7
100
AcDbCircle
 10
663.9126414485847
 20
861.9587376928247
 30
0.0
 40
27.4255109049067
100
AcDbArc
 50
178.8329615814837
 51
219.8801543913717
  0
ARC
  5
480
330
1F
100
AcDbEntity
  8
LAY-10
  6
CONTINUOUS
 62
     7
100
AcDbCircle
 10
612.171161663339
 20
818.7265877298527
 30
0.0
 40
40.0
100
AcDbArc
 50
5.853152053866848
 51
39.88015439146117
  0
ARC
  5
481
330
1F
100
AcDbEntity
  8
LAY-10
  6
CONTINUOUS
 62
     7
100
AcDbCircle
 10
669.3288383131123
 20
851.7265877298531
 30
0.0
 40
40.0
100
AcDbArc
 50
200.1198456085375
 51
234.1468480468658
  0
LINE
  5
482
330
1F
100
AcDbEntity
  8
LAY-10
  6
CONTINUOUS
 62
     7
100
AcDbLine
 10
651.5566309380181
 20
809.5089538949318
 30
0.0
 11
645.900445189455
 21
819.305754988491
 31
0.0
  0
LINE
  5
483
330
1F
100
AcDbEntity
  8
LAY-10
  6
CONTINUOUS
 62
     7
100
AcDbLine
 10
657.6188087645107
 20
813.0089538949322
 30
0.0
 11
651.9626230159477
 21
822.8057549884915
 31
0.0
  0
ARC
  5
484
330
1F
100
AcDbEntity
  8
LAY-10
  6
CONTINUOUS
 62
     7
100
AcDbCircle
 10
671.9999999999998
 20
781.1000000000307
 30
0.0
 40
35.00000000010004
100
AcDbArc
 50
114.2608295213991
 51
125.739170475879
  0
ARC
  5
485
330
1F
100
AcDbEntity
  8
LAY-10
  6
CONTINUOUS
 62
     7
100
AcDbCircle
 10
561.4999999999197
 20
781.0999999864815
 30
0.0
 40
13.20000000000001
100
AcDbArc
 50
179.9999999411876
 51
180.0
  0
ARC
  5
486
330
1F
100
AcDbEntity
  8
LAY-10
  6
CONTINUOUS
 62
     7
100
AcDbCircle
 10
671.9999999999998
 20
781.1000000000307
 30
0.0
 40
150.119952038444
100
AcDbArc
 50
164.290610042636
 51
180.0
  0
ARC
  5
487
330
1F
100
AcDbEntity
  8
LAY-10
  6
CONTINUOUS
 62
     7
100
AcDbCircle
 10
671.9999999999998
 20
781.1000000000307
 30
0.0
 40
150.119952038444
100
AcDbArc
 50
180.0
 51
195.7093899573642
  0
ARC
  5
488
330
1F
100
AcDbEntity
  8
LAY-10
  6
CONTINUOUS
 62
     7
100
AcDbCircle
 10
499.1706479315362
 20
797.4160515006002
 30
0.0
 40
3.000000000000002
100
AcDbArc
 50
174.6069437449765
 51
237.1782227864853
  0
ARC
  5
489
330
1F
100
AcDbEntity
  8
LAY-10
  6
CONTINUOUS
 62
     7
100
AcDbCircle
 10
497.8901401199018
 20
795.6000000000003
 30
0.0
 40
2.0
100
AcDbArc
 50
175.2393502536829
 51
257.3018104814407
  0
ARC
  5
48A
330
1F
100
AcDbEntity
  8
LAY-10
  6
CONTINUOUS
 62
     7
100
AcDbCircle
 10
499.1706479315344
 20
764.7839484994003
 30
0.0
 40
3.000000000000002
100
AcDbArc
 50
122.8217772133732
 51
185.393056254293
  0
ARC
  5
48B
330
1F
100
AcDbEntity
  8
LAY-10
  6
CONTINUOUS
 62
     7
100
AcDbCircle
 10
497.8901401199203
 20
766.6
 30
0.0
 40
2.0
100
AcDbArc
 50
102.6981895189632
 51
184.7606497458891
  0
LINE
  5
48C
330
1F
100
AcDbEntity
  8
LAY-10
  6
CONTINUOUS
 62
     7
100
AcDbLine
 10
497.0457202581198
 20
777.1000000000307
 30
0.0
 11
506.0996323727798
 21
777.1000000000307
 31
0.0
  0
LINE
  5
48D
330
1F
100
AcDbEntity
  8
LAY-10
  6
CONTINUOUS
 62
     7
100
AcDbLine
 10
512.9003676272175
 20
777.1000000000307
 30
0.0
 11
513.9999999999998
 21
777.1000000000307
 31
0.0
  0
LINE
  5
48E
330
1F
100
AcDbEntity
  8
LAY-10
  6
CONTINUOUS
 62
     7
100
AcDbLine
 10
512.9003676271475
 20
785.1000000000307
 30
0.0
 11
513.9999999999998
 21
785.1000000000307
 31
0.0
  0
LINE
  5
48F
330
1F
100
AcDbEntity
  8
LAY-10
  6
CONTINUOUS
 62
     7
100
AcDbLine
 10
497.0457202581198
 20
785.1000000000307
 30
0.0
 11
506.0996323728498
 21
785.1000000000307
 31
0.0
  0
ARC
  5
490
330
1F
100
AcDbEntity
  8
LAY-10
  6
CONTINUOUS
 62
     7
100
AcDbCircle
 10
655.6839484994002
 20
953.9293520684656
 30
0.0
 40
3.000000000000002
100
AcDbArc
 50
32.82177721408328
 51
95.39305625429294
  0
ARC
  5
491
330
1F
100
AcDbEntity
  8
LAY-10
  6
CONTINUOUS
 62
     7
100
AcDbCircle
 10
657.5
 20
955.2098598800798
 30
0.0
 40
2.0
100
AcDbArc
 50
12.69818951990808
 51
94.76064974588905
  0
ARC
  5
492
330
1F
100
AcDbEntity
  8
LAY-10
  6
CONTINUOUS
 62
     7
100
AcDbCircle
 10
688.3160515006002
 20
953.9293520684638
 30
0.0
 40
3.000000000000002
100
AcDbArc
 50
84.60694374497658
 51
147.1782227858777
  0
ARC
  5
493
330
1F
100
AcDbEntity
  8
LAY-10
  6
CONTINUOUS
 62
     7
100
AcDbCircle
 10
686.5000000000002
 20
955.2098598800982
 30
0.0
 40
2.0
100
AcDbArc
 50
85.23935025368287
 51
167.3018104806261
  0
ARC
  5
494
330
1F
100
AcDbEntity
  8
LAY-10
  6
CONTINUOUS
 62
     7
100
AcDbCircle
 10
844.8293520684656
 20
797.4160515005998
 30
0.0
 40
3.000000000000002
100
AcDbArc
 50
302.8217772134678
 51
5.393056254292919
  0
ARC
  5
495
330
1F
100
AcDbEntity
  8
LAY-10
  6
CONTINUOUS
 62
     7
100
AcDbCircle
 10
846.1098598800797
 20
795.6
 30
0.0
 40
2.0
100
AcDbArc
 50
282.6981895190769
 51
4.76064974588909
  0
ARC
  5
496
330
1F
100
AcDbEntity
  8
LAY-10
  6
CONTINUOUS
 62
     7
100
AcDbCircle
 10
844.8293520684638
 20
764.7839484993998
 30
0.0
 40
3.000000000000002
100
AcDbArc
 50
354.6069437449765
 51
57.17822278659862
  0
ARC
  5
497
330
1F
100
AcDbEntity
  8
LAY-10
  6
CONTINUOUS
 62
     7
100
AcDbCircle
 10
846.1098598800982
 20
766.5999999999998
 30
0.0
 40
2.0
100
AcDbArc
 50
355.239350253683
 51
77.30181048158055
  0
LINE
  5
498
330
1F
100
AcDbEntity
  8
LAY-10
  6
CONTINUOUS
 62
     7
100
AcDbLine
 10
846.9542797418799
 20
777.1000000000307
 30
0.0
 11
837.900367627218
 21
777.1000000000307
 31
0.0
  0
LINE
  5
499
330
1F
100
AcDbEntity
  8
LAY-10
  6
CONTINUOUS
 62
     7
100
AcDbLine
 10
831.0996323727802
 20
777.1000000000307
 30
0.0
 11
830.0
 21
777.1000000000307
 31
0.0
  0
LINE
  5
49A
330
1F
100
AcDbEntity
  8
LAY-10
  6
CONTINUOUS
 62
     7
100
AcDbLine
 10
831.0996323728502
 20
785.1000000000307
 30
0.0
 11
830.0
 21
785.1000000000307
 31
0.0
  0
LINE
  5
49B
330
1F
100
AcDbEntity
  8
LAY-10
  6
CONTINUOUS
 62
     7
100
AcDbLine
 10
846.9542797418799
 20
785.1000000000307
 30
0.0
 11
837.900367627148
 21
785.1000000000307
 31
0.0
  0
ARC
  5
49C
330
1F
100
AcDbEntity
  8
LAY-10
  6
CONTINUOUS
 62
     7
100
AcDbCircle
 10
655.6839484993998
 20
608.2706479315362
 30
0.0
 40
3.000000000000002
100
AcDbArc
 50
264.6069437449765
 51
327.1782227872042
  0
ARC
  5
49D
330
1F
100
AcDbEntity
  8
LAY-10
  6
CONTINUOUS
 62
     7
100
AcDbCircle
 10
688.3160515005998
 20
608.2706479315344
 30
0.0
 40
3.000000000000002
100
AcDbArc
 50
212.8217772127568
 51
275.3930562542931
  0
LINE
  5
49E
330
1F
100
AcDbEntity
  8
LAY-10
  6
CENTER
 62
     2
100
AcDbLine
 10
879.5
 20
781.1
 30
0.0
 11
464.5
 21
781.1
 31
0.0
  0
LINE
  5
49F
330
1F
100
AcDbEntity
  8
LAY-10
  6
CENTER
 62
     2
100
AcDbLine
 10
672.0
 20
573.6
 30
0.0
 11
672.0
 21
988.6
 31
0.0
  0
ARC
  5
4A0
330
1F
100
AcDbEntity
  8
LAY-10
  6
CENTER
 62
     2
100
AcDbCircle
 10
518.4999999999982
 20
219.2000000000003
 30
0.0
 40
4.5
100
AcDbArc
 50
270.0
 51
0.0
  0
LINE
  5
4A1
330
1F
100
AcDbEntity
  8
LAY-10
  6
CENTER
 62
     2
100
AcDbLine
 10
506.6274100895303
 20
214.7000000000003
 30
0.0
 11
518.4999999999982
 21
214.7000000000003
 31
0.0
  0
LINE
  5
4A2
330
1F
100
AcDbEntity
  8
LAY-10
  6
CENTER
 62
     2
100
AcDbLine
 10
523.0
 20
248.6600000000004
 30
0.0
 11
523.0
 21
219.2000000000003
 31
0.0
  0
LINE
  5
4A3
330
1F
100
AcDbEntity
  8
LAY-10
  6
CENTER
 62
     2
100
AcDbLine
 10
790.0
 20
287.2000000000003
 30
0.0
 11
790.0
 21
228.1200000000003
 31
0.0
  0
LINE
  5
4A4
330
1F
100
AcDbEntity
  8
LAY-10
  6
CENTER
 62
     2
100
AcDbLine
 10
509.5
 20
254.1
 30
0.0
 11
509.5
 21
275.2000000000003
 31
0.0
  0
LINE
  5
4A5
330
1F
100
AcDbEntity
  8
LAY-10
  6
CENTER
 62
     2
100
AcDbLine
 10
509.5000000000005
 20
277.2
 30
0.0
 11
509.5000000000005
 21
266.2
 31
0.0
  0
LINE
  5
4A6
330
1F
100
AcDbEntity
  8
LAY-10
  6
CENTER
 62
     2
100
AcDbLine
 10
672.0
 20
375.2
 30
0.0
 11
672.0
 21
163.6
 31
0.0
  0
LINE
  5
4A7
330
1F
100
AcDbEntity
  8
LAY-10
  6
CENTER
 62
     2
100
AcDbLine
 10
834.5
 20
787.1
 30
0.0
 11
834.5
 21
775.1
 31
0.0
  0
LINE
  5
4A8
330
1F
100
AcDbEntity
  8
LAY-10
  6
CENTER
 62
     2
100
AcDbLine
 10
509.5
 20
787.1
 30
0.0
 11
509.5
 21
775.1
 31
0.0
  0
LINE
  5
4A9
330
1F
100
AcDbEntity
  8
LAY-255
  6
CONTINUOUS
 62
     7
100
AcDbLine
 10
1540.0
 20
87.99999999999999
 30
0.0
 11
1140.0
 21
87.99999999999999
 31
0.0
  0
LINE
  5
4AA
330
1F
100
AcDbEntity
  8
LAY-255
  6
CONTINUOUS
 62
     7
100
AcDbLine
 10
1155.2
 20
63.99999999999999
 30
0.0
 11
1187.2
 21
84.0
 31
0.0
  0
LINE
  5
4AB
330
1F
100
AcDbEntity
  8
LAY-255
  6
CONTINUOUS
 62
     7
100
AcDbLine
 10
1187.2
 20
84.0
 30
0.0
 11
1219.2
 21
63.99999999999999
 31
0.0
  0
LINE
  5
4AC
330
1F
100
AcDbEntity
  8
LAY-255
  6
CONTINUOUS
 62
     7
100
AcDbLine
 10
1219.2
 20
63.99999999999999
 30
0.0
 11
1187.2
 21
44.0
 31
0.0
  0
LINE
  5
4AD
330
1F
100
AcDbEntity
  8
LAY-255
  6
CONTINUOUS
 62
     7
100
AcDbLine
 10
1187.2
 20
44.0
 30
0.0
 11
1155.2
 21
63.99999999999999
 31
0.0
  0
LINE
  5
4AE
330
1F
100
AcDbEntity
  8
LAY-255
  6
CONTINUOUS
 62
     7
100
AcDbLine
 10
20.0
 20
40.0
 30
0.0
 11
1540.0
 21
40.0
 31
0.0
  0
LINE
  5
4AF
330
1F
100
AcDbEntity
  8
LAY-255
  6
CONTINUOUS
 62
     7
100
AcDbLine
 10
20.0
 20
1120.0
 30
0.0
 11
1540.0
 21
1120.0
 31
0.0
  0
LINE
  5
4B0
330
1F
100
AcDbEntity
  8
LAY-255
  6
CONTINUOUS
 62
     7
100
AcDbLine
 10
20.0
 20
40.0
 30
0.0
 11
20.0
 21
1120.0
 31
0.0
  0
LINE
  5
4B1
330
1F
100
AcDbEntity
  8
LAY-255
  6
CONTINUOUS
 62
     7
100
AcDbLine
 10
1540.0
 20
40.0
 30
0.0
 11
1540.0
 21
1120.0
 31
0.0
  0
LINE
  5
4B2
330
1F
100
AcDbEntity
  8
LAY-255
  6
CONTINUOUS
 62
     4
100
AcDbLine
 10
1140.0
 20
112.0
 30
0.0
 11
1540.0
 21
112.0
 31
0.0
  0
LINE
  5
4B3
330
1F
100
AcDbEntity
  8
LAY-255
  6
CONTINUOUS
 62
     7
100
AcDbLine
 10
1140.0
 20
40.0
 30
0.0
 11
1140.0
 21
268.0
 31
0.0
  0
LINE
  5
4B4
330
1F
100
AcDbEntity
  8
LAY-255
  6
CONTINUOUS
 62
     4
100
AcDbLine
 10
1340.0
 20
112.0
 30
0.0
 11
1340.0
 21
88.0
 31
0.0
  0
LINE
  5
4B5
330
1F
100
AcDbEntity
  8
LAY-255
  6
CONTINUOUS
 62
     7
100
AcDbLine
 10
1540.0
 20
268.0
 30
0.0
 11
1140.0
 21
268.0
 31
0.0
  0
LINE
  5
4B6
330
1F
100
AcDbEntity
  8
LAY-255
  6
CONTINUOUS
 62
     4
100
AcDbLine
 10
1532.0
 20
220.0
 30
0.0
 11
1148.0
 21
220.0
 31
0.0
  0
LINE
  5
4B7
330
1F
100
AcDbEntity
  8
LAY-255
  6
CONTINUOUS
 62
     4
100
AcDbLine
 10
1532.0
 20
244.0
 30
0.0
 11
1148.0
 21
244.0
 31
0.0
  0
POINT
  5
4B8
330
1F
100
AcDbEntity
  8
LAY-255
  6
CONTINUOUS
 62
     7
100
AcDbPoint
 10
1156.0
 20
200.0
 30
0.0
  0
POINT
  5
4B9
330
1F
100
AcDbEntity
  8
LAY-255
  6
CONTINUOUS
 62
     7
100
AcDbPoint
 10
1200.0
 20
224.0
 30
0.0
  0
POINT
  5
4BA
330
1F
100
AcDbEntity
  8
LAY-255
  6
CONTINUOUS
 62
     7
100
AcDbPoint
 10
1200.0
 20
248.0
 30
0.0
  0
POINT
  5
4BB
330
1F
100
AcDbEntity
  8
LAY-255
  6
CONTINUOUS
 62
     7
100
AcDbPoint
 10
1156.0
 20
160.0
 30
0.0
  0
POINT
  5
4BC
330
1F
100
AcDbEntity
  8
LAY-255
  6
CONTINUOUS
 62
     7
100
AcDbPoint
 10
1156.0
 20
180.0
 30
0.0
  0
POINT
  5
4BD
330
1F
100
AcDbEntity
  8
LAY-255
  6
CONTINUOUS
 62
     7
100
AcDbPoint
 10
1156.0
 20
140.0
 30
0.0
  0
POINT
  5
4BE
330
1F
100
AcDbEntity
  8
LAY-255
  6
CONTINUOUS
 62
     7
100
AcDbPoint
 10
1156.0
 20
119.9999999999999
 30
0.0
  0
TEXT
  5
4BF
330
1F
100
AcDbEntity
  8
LAY-255
  6
CONTINUOUS
 62
     7
100
AcDbText
 10
1232.553515517578
 20
62.175
 30
0.0
 40
20.625
  1
福西鋳物株式会社
 41
1.342691893096234
  7
EXCADSTD
100
AcDbText
  0
TEXT
  5
4C0
330
1F
100
AcDbEntity
  8
LAY-255
  6
CONTINUOUS
 62
     7
100
AcDbText
 10
1234.0375
 20
47.925
 30
0.0
 40
6.875
  1
ＦＵＫＵＮＩＳＨＩ
 41
1.204799226045263
  7
EXCADSTD
100
AcDbText
  0
TEXT
  5
4C1
330
1F
100
AcDbEntity
  8
LAY-255
  6
CONTINUOUS
 62
     7
100
AcDbText
 10
1330.876785714286
 20
47.925
 30
0.0
 40
6.875
  1
ＦＯＵＮＤＲＹ
 41
1.243252752978497
  7
EXCADSTD
100
AcDbText
  0
TEXT
  5
4C2
330
1F
100
AcDbEntity
  8
LAY-255
  6
CONTINUOUS
 62
     7
100
AcDbText
 10
1407.978364771634
 20
47.925
 30
0.0
 40
6.875
  1
ＣＯ.,ＬＴＤ.
 41
1.243830523306697
  7
EXCADSTD
100
AcDbText
  0
TEXT
  5
4C3
330
1F
100
AcDbEntity
  8
LAY-255
  6
CONTINUOUS
 62
     7
100
AcDbText
 10
1176.1375
 20
54.875
 30
0.0
 40
20.625
  1
S
 41
0.7582677563636363
  7
EXCADSTD
100
AcDbText
  0
TEXT
  5
4C4
330
1F
100
AcDbEntity
  8
LAY-255
  6
CONTINUOUS
 62
     7
100
AcDbText
 10
1188.41875
 20
54.99764150943999
 30
0.0
 40
20.625
  1
F
 41
0.7440945272727272
  7
EXCADSTD
100
AcDbText
  0
TEXT
  5
4C5
330
1F
100
AcDbEntity
  8
LAY-255
  6
CONTINUOUS
 62
     7
100
AcDbText
 10
1348.421875
 20
97.68749999999996
 30
0.0
 40
10.3125
  1
縮尺
 41
1.080708718181818
  7
EXCADSTD
100
AcDbText
  0
TEXT
  5
4C6
330
1F
100
AcDbEntity
  8
LAY-255
  6
CONTINUOUS
 62
     7
100
AcDbText
 10
1149.0625
 20
226.25
 30
0.0
 40
13.75
  1
型式
 41
1.056348480681818
  7
EXCADSTD
100
AcDbText
  0
TEXT
  5
4C7
330
1F
100
AcDbEntity
  8
LAY-255
  6
CONTINUOUS
 62
     7
100
AcDbText
 10
1149.6875
 20
250.25
 30
0.0
 40
13.75
  1
品名
 41
0.978838634090909
  7
EXCADSTD
100
AcDbText
  0
TEXT
  5
4C8
330
1F
100
AcDbEntity
  8
LAY-255
  6
CONTINUOUS
 62
     7
100
AcDbText
 10
1148.609375
 20
97.68749999999996
 30
0.0
 40
10.3125
  1
作成日
 41
1.000629973818182
  7
EXCADSTD
100
AcDbText
  0
TEXT
  5
4C9
330
1F
100
AcDbEntity
  8
LAY-255
  6
CONTINUOUS
 62
     7
100
AcDbText
 10
1156.75
 20
142.25
 30
0.0
 40
13.75
  1
施工：打込用
 41
1.018700840909091
  7
EXCADSTD
100
AcDbText
  0
TEXT
  5
4CA
330
1F
100
AcDbEntity
  8
LAY-255
  6
CONTINUOUS
 62
     7
100
AcDbText
 10
1201.0
 20
250.25
 30
0.0
 40
13.75
  1
ルーフドレイン
 41
1.021169538599106
  7
EXCADSTD
100
AcDbText
  0
TEXT
  5
4CB
330
1F
100
AcDbEntity
  8
LAY-255
  6
CONTINUOUS
 62
     7
100
AcDbText
 10
1157.5
 20
202.2500000000001
 30
0.0
 40
13.75
  1
防水：アスファルト・シート・
 41
0.9866967752199411
  7
EXCADSTD
100
AcDbText
  0
TEXT
  5
4CC
330
1F
100
AcDbEntity
  8
LAY-255
  6
CONTINUOUS
 62
     7
100
AcDbText
 10
1156.0
 20
182.25
 30
0.0
 40
13.75
  1
      露出アスファルト防水兼用
 41
0.8942744381697771
  7
EXCADSTD
100
AcDbText
  0
TEXT
  5
4CD
330
1F
100
AcDbEntity
  8
LAY-255
  6
CONTINUOUS
 62
     7
100
AcDbText
 10
1156.875
 20
122.25
 30
0.0
 40
13.75
  1
接続：管用テーパねじ
 41
1.013063761157025
  7
EXCADSTD
100
AcDbText
  0
TEXT
  5
4CE
330
1F
100
AcDbEntity
  8
LAY-255
  6
CONTINUOUS
 62
     7
100
AcDbText
 10
1156.9375
 20
162.25
 30
0.0
 40
13.75
  1
用途：屋上用
 41
1.016656625174825
  7
EXCADSTD
100
AcDbText
  0
TEXT
  5
4CF
330
1F
100
AcDbEntity
  8
LAY-255
  6
CONTINUOUS
 62
     7
100
AcDbText
 10
1203.9375
 20
94.24999999999996
 30
0.0
 40
13.75
  1
２１／０９／１５
 41
0.9749156867532468
  7
EXCADSTD
100
AcDbText
  0
TEXT
  5
4D0
330
1F
100
AcDbEntity
  8
LAY-255
  6
CONTINUOUS
 62
     7
100
AcDbText
 10
1393.125
 20
94.24999999999996
 30
0.0
 40
13.75
  1
１：４
 41
0.8929134327272726
  7
EXCADSTD
100
AcDbText
  0
TEXT
  5
4D1
330
1F
100
AcDbEntity
  8
LAY-255
  6
CONTINUOUS
 62
     7
100
AcDbText
 10
1203.5
 20
226.25
 30
0.0
 40
13.75
  1
ＲＳＧＮ－３２００型
 41
1.000581655991735
  7
EXCADSTD
100
AcDbText
  0
ENDSEC
  0
SECTION
  2
OBJECTS
  0
DICTIONARY
  5
C
330
0
100
AcDbDictionary
  3
ACAD_GROUP
350
D
  3
ACAD_LAYOUT
350
1A
  3
ACAD_MATERIAL
350
43
  3
ACAD_MLEADERSTYLE
350
6B
  3
ACAD_MLINESTYLE
350
17
  3
ACAD_PLOTSETTINGS
350
19
  3
ACAD_SCALELIST
350
47
  3
ACAD_VISUALSTYLE
350
2A
  3
ACDBHEADERROUNDTRIPXREC
350
4D2
  3
ACDBVARIABLEDICTIONARY
350
4F3
  0
DICTIONARY
  5
4FE
330
8
100
AcDbDictionary
280
     1
  3
ACAD_XREC_ROUNDTRIP
360
4FF
  0
DICTIONARY
  5
D
102
{ACAD_REACTORS
330
C
102
}
330
C
100
AcDbDictionary
  0
DICTIONARY
  5
1A
102
{ACAD_REACTORS
330
C
102
}
330
C
100
AcDbDictionary
  0
DICTIONARY
  5
43
102
{ACAD_REACTORS
330
C
102
}
330
C
100
AcDbDictionary
  3
BYBLOCK
350
45
  3
BYLAYER
350
44
  3
GLOBAL
350
46
  0
DICTIONARY
  5
6B
102
{ACAD_REACTORS
330
C
102
}
330
C
100
AcDbDictionary
  3
STANDARD
350
6C
  0
DICTIONARY
  5
17
102
{ACAD_REACTORS
330
C
102
}
330
C
100
AcDbDictionary
  3
STANDARD
350
18
  0
DICTIONARY
  5
19
102
{ACAD_REACTORS
330
C
102
}
330
C
100
AcDbDictionary
  0
DICTIONARY
  5
47
102
{ACAD_REACTORS
330
C
102
}
330
C
100
AcDbDictionary
  3
A0
350
48
  3
A1
350
49
  3
A2
350
4A
  3
A3
350
4B
  3
A4
350
4C
  3
A5
350
4D
  3
A6
350
4E
  3
A7
350
4F
  3
A8
350
50
  3
A9
350
51
  3
B0
350
52
  3
B1
350
53
  3
B2
350
54
  3
B3
350
55
  3
B4
350
56
  3
B5
350
57
  3
B6
350
58
  3
B7
350
59
  3
B8
350
5A
  3
B9
350
5B
  3
C0
350
5C
  3
C1
350
5D
  3
C2
350
5E
  3
C3
350
5F
  3
C4
350
60
  3
C5
350
61
  3
C6
350
62
  3
C7
350
63
  3
C8
350
64
  3
C9
350
65
  3
D0
350
66
  3
D1
350
67
  3
D2
350
68
  0
DICTIONARY
  5
2A
102
{ACAD_REACTORS
330
C
102
}
330
C
100
AcDbDictionary
  3
2DWIREFRAME
350
2F
  3
BASIC
350
32
  3
BRIGHTEN
350
36
  3
COLORCHANGE
350
3A
  3
CONCEPTUAL
350
34
  3
DIM
350
35
  3
EDGECOLOROFF
350
3D
  3
FACEPATTERN
350
39
  3
FLAT
350
2B
  3
FLATWITHEDGES
350
2C
  3
GOURAUD
350
2D
  3
GOURAUDWITHEDGES
350
2E
  3
HIDDEN
350
31
  3
JITTEROFF
350
3B
  3
LINEPATTERN
350
38
  3
OVERHANGOFF
350
3C
  3
REALISTIC
350
33
  3
SHADED
350
42
  3
SHADED_WITH_EDGES
350
41
  3
SHADES_OF_GRAY
350
3E
  3
SKETCHY
350
3F
  3
THICKEN
350
37
  3
WIREFRAME
350
30
  3
X-RAY
350
40
  0
DICTIONARY
  5
4D2
102
{ACAD_REACTORS
330
C
102
}
330
C
100
AcDbDictionary
  3
CEPSNID
350
4DC
  3
CEPSNTYPE
350
4DB
  3
DIMSTYLEDATA
350
4F2
  3
FINGERPRINTGUID
350
4DD
  3
HYPERLINKBASE
350
4D5
  3
INSUNITS
350
4DA
  3
LAYOUTDICT
350
4D7
  3
LWETCUNION
350
4D9
  3
PLOTSETDICT
350
4D8
  3
PSVPSCALE
350
4DF
  3
PUCSBASE
350
4E2
  3
PUCSORGBACK
350
4E8
  3
PUCSORGBOTTOM
350
4E4
  3
PUCSORGFRONT
350
4E7
  3
PUCSORGLEFT
350
4E5
  3
PUCSORGRIGHT
350
4E6
  3
PUCSORGTOP
350
4E3
  3
PUCSORTHOREF
350
4E0
  3
PUCSORTHOVIEW
350
4E1
  3
STYLESHEET
350
4D6
  3
TSTACKALIGN
350
4D3
  3
TSTACKSIZE
350
4D4
  3
UCSBASE
350
4EB
  3
UCSORGBACK
350
4F1
  3
UCSORGBOTTOM
350
4ED
  3
UCSORGFRONT
350
4F0
  3
UCSORGLEFT
350
4EE
  3
UCSORGRIGHT
350
4EF
  3
UCSORGTOP
350
4EC
  3
UCSORTHOREF
350
4E9
  3
UCSORTHOVIEW
350
4EA
  3
VERSIONGUID
350
4DE
  0
DICTIONARY
  5
4F3
102
{ACAD_REACTORS
330
C
102
}
330
C
100
AcDbDictionary
  3
CANNOSCALE
350
500
  3
CENTEREXE
350
4FA
  3
CENTERLTYPEFILE
350
4FB
  3
CMLEADERSTYLE
350
4F5
  3
CTABLESTYLE
350
4F4
  3
DIMASSOC
350
4FC
  3
HIDETEXT
350
4FD
  3
MSLTSCALE
350
501
  3
PSOLHEIGHT
350
4F7
  3
PSOLWIDTH
350
4F6
  0
XRECORD
  5
4FF
102
{ACAD_REACTORS
330
4FE
102
}
330
4FE
100
AcDbXrecord
102
VTR_0.000_0.000_1.000_1.000_VISUALSTYLE
340
2F
102
VTR_0.000_0.000_1.000_1.000_GRIDDISPLAY
 70
     3
102
VTR_0.000_0.000_1.000_1.000_GRIDMAJOR
 70
     5
102
VTR_0.000_0.000_1.000_1.000_DEFAULTLIGHTING
280
     1
102
VTR_0.000_0.000_1.000_1.000_DEFAULTLIGHTINGTYPE
 70
     1
102
VTR_0.000_0.000_1.000_1.000_BRIGHTNESS
141
0.0
102
VTR_0.000_0.000_1.000_1.000_CONTRAST
142
0.0
  0
MATERIAL
  5
45
102
{ACAD_REACTORS
330
43
102
}
102
{ACAD_XDICTIONARY
360
504
102
}
330
43
100
AcDbMaterial
  1
BYBLOCK
  0
MATERIAL
  5
44
102
{ACAD_REACTORS
330
43
102
}
102
{ACAD_XDICTIONARY
360
502
102
}
330
43
100
AcDbMaterial
  1
BYLAYER
  0
MATERIAL
  5
46
102
{ACAD_REACTORS
330
43
102
}
102
{ACAD_XDICTIONARY
360
506
102
}
330
43
100
AcDbMaterial
  1
GLOBAL
  0
ACAD_PROXY_OBJECT
  5
6C
102
{ACAD_REACTORS
330
6B
102
}
330
6B
100
AcDbProxyObject
 90
      499
 91
      505
 93
      610
310
40901902A4063FBFFFFFE0000000000000020400000000000020404214DD185B99185C990000000000000104090141901A00000000000004100000000000000041025764000000000000039000
340
14
340
0
340
11
340
0
 94
        0
1001
ACAD_MLEADERVER
1070
     2
  0
MLINESTYLE
  5
18
102
{ACAD_REACTORS
330
17
102
}
330
17
100
AcDbMlineStyle
  2
Standard
 70
     0
  3

 62
   256
 51
90.0
 52
90.0
 71
     2
 49
0.5
 62
   256
  6
BYLAYER
 49
-0.5
 62
   256
  6
BYLAYER
  0
ACAD_PROXY_OBJECT
  5
48
102
{ACAD_REACTORS
330
47
102
}
330
47
100
AcDbProxyObject
 90
      499
 91
      503
 93
       41
310
903313A31580
  0
ACAD_PROXY_OBJECT
  5
49
102
{ACAD_REACTORS
330
47
102
}
330
47
100
AcDbProxyObject
 90
      499
 91
      503
 93
      105
310
903313A324000000000000004000
  0
ACAD_PROXY_OBJECT
  5
4A
102
{ACAD_REACTORS
330
47
102
}
330
47
100
AcDbProxyObject
 90
      499
 91
      503
 93
      105
310
903313A344000000000000104000
  0
ACAD_PROXY_OBJECT
  5
4B
102
{ACAD_REACTORS
330
47
102
}
330
47
100
AcDbProxyObject
 90
      499
 91
      503
 93
      105
310
903313A354000000000000144000
  0
ACAD_PROXY_OBJECT
  5
4C
102
{ACAD_REACTORS
330
47
102
}
330
47
100
AcDbProxyObject
 90
      499
 91
      503
 93
      105
310
903313A384000000000000204000
  0
ACAD_PROXY_OBJECT
  5
4D
102
{ACAD_REACTORS
330
47
102
}
330
47
100
AcDbProxyObject
 90
      499
 91
      503
 93
      113
310
904313A31304000000000000244000
  0
ACAD_PROXY_OBJECT
  5
4E
102
{ACAD_REACTORS
330
47
102
}
330
47
100
AcDbProxyObject
 90
      499
 91
      503
 93
      113
310
904313A31364000000000000304000
  0
ACAD_PROXY_OBJECT
  5
4F
102
{ACAD_REACTORS
330
47
102
}
330
47
100
AcDbProxyObject
 90
      499
 91
      503
 93
      113
310
904313A32304000000000000344000
  0
ACAD_PROXY_OBJECT
  5
50
102
{ACAD_REACTORS
330
47
102
}
330
47
100
AcDbProxyObject
 90
      499
 91
      503
 93
      113
310
904313A333040000000000003E4000
  0
ACAD_PROXY_OBJECT
  5
51
102
{ACAD_REACTORS
330
47
102
}
330
47
100
AcDbProxyObject
 90
      499
 91
      503
 93
      113
310
904313A34304000000000000444000
  0
ACAD_PROXY_OBJECT
  5
52
102
{ACAD_REACTORS
330
47
102
}
330
47
100
AcDbProxyObject
 90
      499
 91
      503
 93
      113
310
904313A35304000000000000494000
  0
ACAD_PROXY_OBJECT
  5
53
102
{ACAD_REACTORS
330
47
102
}
330
47
100
AcDbProxyObject
 90
      499
 91
      503
 93
      121
310
905313A3130304000000000000594000
  0
ACAD_PROXY_OBJECT
  5
54
102
{ACAD_REACTORS
330
47
102
}
330
47
100
AcDbProxyObject
 90
      499
 91
      503
 93
      105
310
903323A310000000000000010100
  0
ACAD_PROXY_OBJECT
  5
55
102
{ACAD_REACTORS
330
47
102
}
330
47
100
AcDbProxyObject
 90
      499
 91
      503
 93
      105
310
903343A310000000000000410100
  0
ACAD_PROXY_OBJECT
  5
56
102
{ACAD_REACTORS
330
47
102
}
330
47
100
AcDbProxyObject
 90
      499
 91
      503
 93
      105
310
903383A310000000000000810100
  0
ACAD_PROXY_OBJECT
  5
57
102
{ACAD_REACTORS
330
47
102
}
330
47
100
AcDbProxyObject
 90
      499
 91
      503
 93
      113
310
90431303A310000000000000910100
  0
ACAD_PROXY_OBJECT
  5
58
102
{ACAD_REACTORS
330
47
102
}
330
47
100
AcDbProxyObject
 90
      499
 91
      503
 93
      121
310
9053130303A310000000000001650100
  0
ACAD_PROXY_OBJECT
  5
59
102
{ACAD_REACTORS
330
47
102
}
330
47
100
AcDbProxyObject
 90
      499
 91
      503
 93
      257
310
90E312F31323822203D2031272D3022000000000000200FC000000000000284000
  0
ACAD_PROXY_OBJECT
  5
5A
102
{ACAD_REACTORS
330
47
102
}
330
47
100
AcDbProxyObject
 90
      499
 91
      503
 93
      249
310
90D312F363422203D2031272D3022000000000000240FC000000000000284000
  0
ACAD_PROXY_OBJECT
  5
5B
102
{ACAD_REACTORS
330
47
102
}
330
47
100
AcDbProxyObject
 90
      499
 91
      503
 93
      249
310
90D312F333222203D2031272D3022000000000000280FC000000000000284000
  0
ACAD_PROXY_OBJECT
  5
5C
102
{ACAD_REACTORS
330
47
102
}
330
47
100
AcDbProxyObject
 90
      499
 91
      503
 93
      249
310
90D312F313622203D2031272D30220000000000002C0FC000000000000284000
  0
ACAD_PROXY_OBJECT
  5
5D
102
{ACAD_REACTORS
330
47
102
}
330
47
100
AcDbProxyObject
 90
      499
 91
      503
 93
      249
310
90D332F333222203D2031272D30220000000000002E0FC000000000000284000
  0
ACAD_PROXY_OBJECT
  5
5E
102
{ACAD_REACTORS
330
47
102
}
330
47
100
AcDbProxyObject
 90
      499
 91
      503
 93
      241
310
90C312F3822203D2031272D3022000000000000300FC000000000000284000
  0
ACAD_PROXY_OBJECT
  5
5F
102
{ACAD_REACTORS
330
47
102
}
330
47
100
AcDbProxyObject
 90
      499
 91
      503
 93
      249
310
90D332F313622203D2031272D3022000000000000320FC000000000000284000
  0
ACAD_PROXY_OBJECT
  5
60
102
{ACAD_REACTORS
330
47
102
}
330
47
100
AcDbProxyObject
 90
      499
 91
      503
 93
      241
310
90C312F3422203D2031272D3022000000000000340FC000000000000284000
  0
ACAD_PROXY_OBJECT
  5
61
102
{ACAD_REACTORS
330
47
102
}
330
47
100
AcDbProxyObject
 90
      499
 91
      503
 93
      241
310
90C332F3822203D2031272D3022000000000000360FC000000000000284000
  0
ACAD_PROXY_OBJECT
  5
62
102
{ACAD_REACTORS
330
47
102
}
330
47
100
AcDbProxyObject
 90
      499
 91
      503
 93
      241
310
90C312F3222203D2031272D3022000000000000380FC000000000000284000
  0
ACAD_PROXY_OBJECT
  5
63
102
{ACAD_REACTORS
330
47
102
}
330
47
100
AcDbProxyObject
 90
      499
 91
      503
 93
      241
310
90C332F3422203D2031272D30220000000000003A0FC000000000000284000
  0
ACAD_PROXY_OBJECT
  5
64
102
{ACAD_REACTORS
330
47
102
}
330
47
100
AcDbProxyObject
 90
      499
 91
      503
 93
      161
310
90A3122203D2031272D30224000000000000284000
  0
ACAD_PROXY_OBJECT
  5
65
102
{ACAD_REACTORS
330
47
102
}
330
47
100
AcDbProxyObject
 90
      499
 91
      503
 93
      257
310
90E312D312F3222203D2031272D30220000000000003E0FC000000000000284000
  0
ACAD_PROXY_OBJECT
  5
66
102
{ACAD_REACTORS
330
47
102
}
330
47
100
AcDbProxyObject
 90
      499
 91
      503
 93
      225
310
90A3322203D2031272D302200000000000002100000000000000284000
  0
ACAD_PROXY_OBJECT
  5
67
102
{ACAD_REACTORS
330
47
102
}
330
47
100
AcDbProxyObject
 90
      499
 91
      503
 93
      225
310
90A3622203D2031272D302200000000000006100000000000000284000
  0
ACAD_PROXY_OBJECT
  5
68
102
{ACAD_REACTORS
330
47
102
}
330
47
100
AcDbProxyObject
 90
      499
 91
      503
 93
      249
310
90D31272D3022203D2031272D30220000000000000A100000000000000284000
  0
ACAD_PROXY_OBJECT
  5
2F
102
{ACAD_REACTORS
330
2A
102
}
330
2A
100
AcDbProxyObject
 90
      499
 91
      501
 93
      436
310
42CC9915DA5C99599C985B595049028333333333333E33F0000000000000F90107901411070040501600405405064090741402480A0340
1001
ACAD
1000
AcDbSavedByObjectVersion
1070
     0
  0
ACAD_PROXY_OBJECT
  5
32
102
{ACAD_REACTORS
330
2A
102
}
330
2A
100
AcDbProxyObject
 90
      499
 91
      501
 93
      388
310
4150985CDA58D07406404333333333333E33F0000000000000F90107A41107004050150841D405064090741402480A0350
1001
ACAD
1000
AcDbSavedByObjectVersion
1070
     0
  0
ACAD_PROXY_OBJECT
  5
36
102
{ACAD_REACTORS
330
2A
102
}
330
2A
100
AcDbProxyObject
 90
      499
 91
      501
 93
      428
310
42109C9A59DA1D195B90C409028333333333333E33F0000000000000F9010790141107004050150841D405064090741402480A029950
1001
ACAD
1000
AcDbSavedByObjectVersion
1070
     0
  0
ACAD_PROXY_OBJECT
  5
3A
102
{ACAD_REACTORS
330
2A
102
}
330
2A
100
AcDbProxyObject
 90
      499
 91
      501
 93
      452
310
42D0DBDB1BDC90DA185B99D95104090240C333333333333E33F0000000000000F90108901411070040501508421405064090741402480A0350
1001
ACAD
1000
AcDbSavedByObjectVersion
1070
     0
  0
ACAD_PROXY_OBJECT
  5
34
102
{ACAD_REACTORS
330
2A
102
}
330
2A
100
AcDbProxyObject
 90
      499
 91
      501
 93
      500
310
4290DBDB98D95C1D1D585B10940D028333333333333E33F0000000000000F90107902409070040501000000000018199010841D405064090740C02480A0340
1001
ACAD
1000
AcDbSavedByObjectVersion
1070
     0
  0
ACAD_PROXY_OBJECT
  5
35
102
{ACAD_REACTORS
330
2A
102
}
330
2A
100
AcDbProxyObject
 90
      499
 91
      501
 93
      412
310
40D11A5B50B409028333333333333E33F0000000000000F9010790141107004050150841D405064090741402480A02677FFFFFD0
1001
ACAD
1000
AcDbSavedByObjectVersion
1070
     0
  0
ACAD_PROXY_OBJECT
  5
3D
102
{ACAD_REACTORS
330
2A
102
}
330
2A
100
AcDbProxyObject
 90
      499
 91
      501
 93
      452
310
43115919D950DBDB1BDC93D999916409028333333333333E33F0000000000000F9010790141107004050150841D405064090741402480A0350
1001
ACAD
1000
AcDbSavedByObjectVersion
1070
     0
  0
ACAD_PROXY_OBJECT
  5
39
102
{ACAD_REACTORS
330
2A
102
}
330
2A
100
AcDbProxyObject
 90
      499
 91
      501
 93
      444
310
42D19858D95C185D1D195C9B90F409028333333333333E33F0000000000000F9010790141107004050150841D405064090741402480A0350
1001
ACAD
1000
AcDbSavedByObjectVersion
1070
     0
  0
ACAD_PROXY_OBJECT
  5
2B
102
{ACAD_REACTORS
330
2A
102
}
330
2A
100
AcDbProxyObject
 90
      499
 91
      501
 93
      380
310
41119B185D240901404333333333333E33F0000000000000F9010740A907004050150841D405064090741402480A1B50
1001
ACAD
1000
AcDbSavedByObjectVersion
1070
     0
  0
ACAD_PROXY_OBJECT
  5
2C
102
{ACAD_REACTORS
330
2A
102
}
330
2A
100
AcDbProxyObject
 90
      499
 91
      501
 93
      468
310
43519B185D15DA5D1A115919D95CD0140901404333333333333E33F0000000000000F90107409019070040501600405405064090741402480A1B50
1001
ACAD
1000
AcDbSavedByObjectVersion
1070
     0
  0
ACAD_PROXY_OBJECT
  5
2D
102
{ACAD_REACTORS
330
2A
102
}
330
2A
100
AcDbProxyObject
 90
      499
 91
      501
 93
      404
310
41D1DBDD5C985D5910240902404333333333333E33F0000000000000F9010740A9070040501641D405064090741402480A1B50
1001
ACAD
1000
AcDbSavedByObjectVersion
1070
     0
  0
ACAD_PROXY_OBJECT
  5
2E
102
{ACAD_REACTORS
330
2A
102
}
330
2A
100
AcDbProxyObject
 90
      499
 91
      501
 93
      492
310
4411DBDD5C985D5915DA5D1A115919D95CD0340902404333333333333E33F0000000000000F90107409019070040501600405405064090741402480A1B50
1001
ACAD
1000
AcDbSavedByObjectVersion
1070
     0
  0
ACAD_PROXY_OBJECT
  5
31
102
{ACAD_REACTORS
330
2A
102
}
330
2A
100
AcDbProxyObject
 90
      499
 91
      501
 93
      476
310
41921A5919195B90640502408333333333333E33F0000000000000F901079024090700405020000000000001110200405405064090740C02480A0340
1001
ACAD
1000
AcDbSavedByObjectVersion
1070
     0
  0
ACAD_PROXY_OBJECT
  5
3B
102
{ACAD_REACTORS
330
2A
102
}
330
2A
100
AcDbProxyObject
 90
      499
 91
      501
 93
      428
310
42529A5D1D195C93D999914409028333333333333E33F0000000000000F9010790141107004050150A41D405064090741402480A0350
1001
ACAD
1000
AcDbSavedByObjectVersion
1070
     0
  0
ACAD_PROXY_OBJECT
  5
38
102
{ACAD_REACTORS
330
2A
102
}
330
2A
100
AcDbProxyObject
 90
      499
 91
      501
 93
      444
310
42D31A5B995C185D1D195C9B90E409028333333333333E33F0000000000000F9010790141107004050750841D405064090741402483A0350
1001
ACAD
1000
AcDbSavedByObjectVersion
1070
     0
  0
ACAD_PROXY_OBJECT
  5
3C
102
{ACAD_REACTORS
330
2A
102
}
330
2A
100
AcDbProxyObject
 90
      499
 91
      501
 93
      444
310
42D3DD995C9A185B99D3D999915409028333333333333E33F0000000000000F9010790141107004050150941D405064090741402480A0350
1001
ACAD
1000
AcDbSavedByObjectVersion
1070
     0
  0
ACAD_PROXY_OBJECT
  5
33
102
{ACAD_REACTORS
330
2A
102
}
330
2A
100
AcDbProxyObject
 90
      499
 91
      501
 93
      428
310
425499585B1A5CDD1A58D08409038333333333333E33F0000000000000F9010740A907004050150800405405064090740C02480A1B40
1001
ACAD
1000
AcDbSavedByObjectVersion
1070
     0
  0
ACAD_PROXY_OBJECT
  5
42
102
{ACAD_REACTORS
330
2A
102
}
330
2A
100
AcDbProxyObject
 90
      499
 91
      501
 93
      420
310
4194DA1859195911B40902404333333333333E33F0000000000000F9010740A41107004050150800405405064090840C02480A0B40
1001
ACAD
1000
AcDbSavedByObjectVersion
1070
     0
  0
ACAD_PROXY_OBJECT
  5
41
102
{ACAD_REACTORS
330
2A
102
}
330
2A
100
AcDbProxyObject
 90
      499
 91
      501
 93
      516
310
4454DA18591959081DDA5D1A08195919D95CD1A40902404333333333333E33F0000000000000F901074090142907004050250800405405064090740C02480A0B40
1001
ACAD
1000
AcDbSavedByObjectVersion
1070
     0
  0
ACAD_PROXY_OBJECT
  5
3E
102
{ACAD_REACTORS
330
2A
102
}
330
2A
100
AcDbProxyObject
 90
      499
 91
      501
 93
      532
310
4394DA1859195CC81BD98811DC985E5174090240C333333333333E33F0000000000000F901079024090741D01000000000000111010841D405064090740C02480A0340
1001
ACAD
1000
AcDbSavedByObjectVersion
1070
     0
  0
ACAD_PROXY_OBJECT
  5
3F
102
{ACAD_REACTORS
330
2A
102
}
330
2A
100
AcDbProxyObject
 90
      499
 91
      501
 93
      476
310
41D4DAD95D18DA1E51840502408333333333333E33F0000000000000F901079024090741D01000000000000111010B41D405064090741802480A0340
1001
ACAD
1000
AcDbSavedByObjectVersion
1070
     0
  0
ACAD_PROXY_OBJECT
  5
37
102
{ACAD_REACTORS
330
2A
102
}
330
2A
100
AcDbProxyObject
 90
      499
 91
      501
 93
      412
310
41D51A1A58DAD95B90D409028333333333333E33F0000000000000F9010790141107004050150C41D405064090741402480A0350
1001
ACAD
1000
AcDbSavedByObjectVersion
1070
     0
  0
ACAD_PROXY_OBJECT
  5
30
102
{ACAD_REACTORS
330
2A
102
}
330
2A
100
AcDbProxyObject
 90
      499
 91
      501
 93
      420
310
4255DA5C99599C985B595059028333333333333E33F0000000000000F90107901411070040501600405405064090740C02480A0340
1001
ACAD
1000
AcDbSavedByObjectVersion
1070
     0
  0
ACAD_PROXY_OBJECT
  5
40
102
{ACAD_REACTORS
330
2A
102
}
330
2A
100
AcDbProxyObject
 90
      499
 91
      501
 93
      404
310
41560B54985E51940902404000000000000E03F0000000000000F9010740501907004050150841D405064090740C02480A1B40
1001
ACAD
1000
AcDbSavedByObjectVersion
1070
     0
  0
XRECORD
  5
4DC
102
{ACAD_REACTORS
330
4D2
102
}
330
4D2
100
AcDbXrecord
340
0
  0
XRECORD
  5
4DB
102
{ACAD_REACTORS
330
4D2
102
}
330
4D2
100
AcDbXrecord
 90
        0
  0
XRECORD
  5
4F2
102
{ACAD_REACTORS
330
4D2
102
}
330
4D2
100
AcDbXrecord
1000
DSTYLE
1002
{
1070
   340
340
11
1002
}
  0
XRECORD
  5
4DD
102
{ACAD_REACTORS
330
4D2
102
}
330
4D2
100
AcDbXrecord
  1
{2cce131c-2aa4-49af-a09f-8be93f061b2a}
  0
XRECORD
  5
4D5
102
{ACAD_REACTORS
330
4D2
102
}
330
4D2
100
AcDbXrecord
  1

  0
XRECORD
  5
4DA
102
{ACAD_REACTORS
330
4D2
102
}
330
4D2
100
AcDbXrecord
 90
        4
  0
XRECORD
  5
4D7
102
{ACAD_REACTORS
330
4D2
102
}
330
4D2
100
AcDbXrecord
340
1A
  0
XRECORD
  5
4D9
102
{ACAD_REACTORS
330
4D2
102
}
330
4D2
100
AcDbXrecord
 90
    10781
  0
XRECORD
  5
4D8
102
{ACAD_REACTORS
330
4D2
102
}
330
4D2
100
AcDbXrecord
340
19
  0
XRECORD
  5
4DF
102
{ACAD_REACTORS
330
4D2
102
}
330
4D2
100
AcDbXrecord
 40
0.0
  0
XRECORD
  5
4E2
102
{ACAD_REACTORS
330
4D2
102
}
330
4D2
100
AcDbXrecord
340
0
  0
XRECORD
  5
4E8
102
{ACAD_REACTORS
330
4D2
102
}
330
4D2
100
AcDbXrecord
 10
0.0
 20
0.0
 30
0.0
  0
XRECORD
  5
4E4
102
{ACAD_REACTORS
330
4D2
102
}
330
4D2
100
AcDbXrecord
 10
0.0
 20
0.0
 30
0.0
  0
XRECORD
  5
4E7
102
{ACAD_REACTORS
330
4D2
102
}
330
4D2
100
AcDbXrecord
 10
0.0
 20
0.0
 30
0.0
  0
XRECORD
  5
4E5
102
{ACAD_REACTORS
330
4D2
102
}
330
4D2
100
AcDbXrecord
 10
0.0
 20
0.0
 30
0.0
  0
XRECORD
  5
4E6
102
{ACAD_REACTORS
330
4D2
102
}
330
4D2
100
AcDbXrecord
 10
0.0
 20
0.0
 30
0.0
  0
XRECORD
  5
4E3
102
{ACAD_REACTORS
330
4D2
102
}
330
4D2
100
AcDbXrecord
 10
0.0
 20
0.0
 30
0.0
  0
XRECORD
  5
4E0
102
{ACAD_REACTORS
330
4D2
102
}
330
4D2
100
AcDbXrecord
340
0
  0
XRECORD
  5
4E1
102
{ACAD_REACTORS
330
4D2
102
}
330
4D2
100
AcDbXrecord
 70
     0
  0
XRECORD
  5
4D6
102
{ACAD_REACTORS
330
4D2
102
}
330
4D2
100
AcDbXrecord
  1

  0
XRECORD
  5
4D3
102
{ACAD_REACTORS
330
4D2
102
}
330
4D2
100
AcDbXrecord
 90
        1
  0
XRECORD
  5
4D4
102
{ACAD_REACTORS
330
4D2
102
}
330
4D2
100
AcDbXrecord
 90
       70
  0
XRECORD
  5
4EB
102
{ACAD_REACTORS
330
4D2
102
}
330
4D2
100
AcDbXrecord
340
0
  0
XRECORD
  5
4F1
102
{ACAD_REACTORS
330
4D2
102
}
330
4D2
100
AcDbXrecord
 10
0.0
 20
0.0
 30
0.0
  0
XRECORD
  5
4ED
102
{ACAD_REACTORS
330
4D2
102
}
330
4D2
100
AcDbXrecord
 10
0.0
 20
0.0
 30
0.0
  0
XRECORD
  5
4F0
102
{ACAD_REACTORS
330
4D2
102
}
330
4D2
100
AcDbXrecord
 10
0.0
 20
0.0
 30
0.0
  0
XRECORD
  5
4EE
102
{ACAD_REACTORS
330
4D2
102
}
330
4D2
100
AcDbXrecord
 10
0.0
 20
0.0
 30
0.0
  0
XRECORD
  5
4EF
102
{ACAD_REACTORS
330
4D2
102
}
330
4D2
100
AcDbXrecord
 10
0.0
 20
0.0
 30
0.0
  0
XRECORD
  5
4EC
102
{ACAD_REACTORS
330
4D2
102
}
330
4D2
100
AcDbXrecord
 10
0.0
 20
0.0
 30
0.0
  0
XRECORD
  5
4E9
102
{ACAD_REACTORS
330
4D2
102
}
330
4D2
100
AcDbXrecord
340
0
  0
XRECORD
  5
4EA
102
{ACAD_REACTORS
330
4D2
102
}
330
4D2
100
AcDbXrecord
 70
     0
  0
XRECORD
  5
4DE
102
{ACAD_REACTORS
330
4D2
102
}
330
4D2
100
AcDbXrecord
  1
{FAEB1C32-E019-11D5-929B-00C0DF256EC4}
  0
DICTIONARYVAR
  5
500
102
{ACAD_REACTORS
330
4F3
102
}
330
4F3
100
DictionaryVariables
280
     0
  1
1:1
  0
DICTIONARYVAR
  5
4FA
102
{ACAD_REACTORS
330
4F3
102
}
330
4F3
100
DictionaryVariables
280
     0
  1
3.500000
  0
DICTIONARYVAR
  5
4FB
102
{ACAD_REACTORS
330
4F3
102
}
330
4F3
100
DictionaryVariables
280
     0
  1
acadiso.lin
  0
DICTIONARYVAR
  5
4F5
102
{ACAD_REACTORS
330
4F3
102
}
330
4F3
100
DictionaryVariables
280
     0
  1
Standard
  0
DICTIONARYVAR
  5
4F4
102
{ACAD_REACTORS
330
4F3
102
}
330
4F3
100
DictionaryVariables
280
     0
  1
Standard
  0
DICTIONARYVAR
  5
4FC
102
{ACAD_REACTORS
330
4F3
102
}
330
4F3
100
DictionaryVariables
280
     0
  1
2
  0
DICTIONARYVAR
  5
4FD
102
{ACAD_REACTORS
330
4F3
102
}
330
4F3
100
DictionaryVariables
280
     0
  1
1
  0
DICTIONARYVAR
  5
501
102
{ACAD_REACTORS
330
4F3
102
}
330
4F3
100
DictionaryVariables
280
     0
  1
1
  0
DICTIONARYVAR
  5
4F7
102
{ACAD_REACTORS
330
4F3
102
}
330
4F3
100
DictionaryVariables
280
     0
  1
80.000000
  0
DICTIONARYVAR
  5
4F6
102
{ACAD_REACTORS
330
4F3
102
}
330
4F3
100
DictionaryVariables
280
     0
  1
5.000000
  0
DICTIONARY
  5
504
330
45
100
AcDbDictionary
280
     1
  3
ACAD_XREC_ROUNDTRIP
360
505
  0
DICTIONARY
  5
502
330
44
100
AcDbDictionary
280
     1
  3
ACAD_XREC_ROUNDTRIP
360
503
  0
DICTIONARY
  5
506
330
46
100
AcDbDictionary
280
     1
  3
ACAD_XREC_ROUNDTRIP
360
507
  0
XRECORD
  5
505
102
{ACAD_REACTORS
330
504
102
}
330
504
100
AcDbXrecord
102
MATERIAL
148
0.0
149
0.0
149
0.0
 93
        0
 94
      127
282
     0
 72
     1
 77
     1
171
     1
175
     1
179
     1
273
     0
  0
XRECORD
  5
503
102
{ACAD_REACTORS
330
502
102
}
330
502
100
AcDbXrecord
102
MATERIAL
148
0.0
149
0.0
149
0.0
 93
        0
 94
      127
282
     0
 72
     1
 77
     1
171
     1
175
     1
179
     1
273
     0
  0
XRECORD
  5
507
102
{ACAD_REACTORS
330
506
102
}
330
506
100
AcDbXrecord
102
MATERIAL
148
0.0
149
0.0
149
0.0
 93
        0
 94
      127
282
     0
 72
     1
 77
     1
171
     1
175
     1
179
     1
273
     0
  0
ENDSEC
  0
EOF
