  0
SECTION
  2
HEADER
  9
$ACADVER
  1
AC1014
  9
$ACADMAINTVER
 70
     9
  9
$DWGCODEPAGE
  3
ANSI_932
  9
$INSBASE
 10
0.0
 20
0.0
 30
0.0
  9
$EXTMIN
 10
15.0
 20
30.0
 30
0.0
  9
$EXTMAX
 10
1155.0
 20
840.0
 30
0.0
  9
$LIMMIN
 10
0.0
 20
0.0
  9
$LIMMAX
 10
420.0
 20
297.0
  9
$ORTHOMODE
 70
     0
  9
$REGENMODE
 70
     1
  9
$FILLMODE
 70
     1
  9
$QTEXTMODE
 70
     0
  9
$MIRRTEXT
 70
     1
  9
$DRAGMODE
 70
     2
  9
$LTSCALE
 40
0.2
  9
$OSMODE
 70
    37
  9
$ATTMODE
 70
     1
  9
$TEXTSIZE
 40
2.5
  9
$TRACEWID
 40
1.0
  9
$TEXTSTYLE
  7
STANDARD
  9
$CLAYER
  8
LAY-10
  9
$CELTYPE
  6
BYLAYER
  9
$CECOLOR
 62
   256
  9
$CELTSCALE
 40
1.0
  9
$DELOBJ
 70
     1
  9
$DISPSILH
 70
     0
  9
$DIMSCALE
 40
1.0
  9
$DIMASZ
 40
2.5
  9
$DIMEXO
 40
0.625
  9
$DIMDLI
 40
3.75
  9
$DIMRND
 40
0.0
  9
$DIMDLE
 40
0.0
  9
$DIMEXE
 40
1.25
  9
$DIMTP
 40
0.0
  9
$DIMTM
 40
0.0
  9
$DIMTXT
 40
2.5
  9
$DIMCEN
 40
2.5
  9
$DIMTSZ
 40
0.0
  9
$DIMTOL
 70
     0
  9
$DIMLIM
 70
     0
  9
$DIMTIH
 70
     0
  9
$DIMTOH
 70
     0
  9
$DIMSE1
 70
     0
  9
$DIMSE2
 70
     0
  9
$DIMTAD
 70
     1
  9
$DIMZIN
 70
     8
  9
$DIMBLK
  1

  9
$DIMASO
 70
     1
  9
$DIMSHO
 70
     1
  9
$DIMPOST
  1

  9
$DIMAPOST
  1

  9
$DIMALT
 70
     0
  9
$DIMALTD
 70
     3
  9
$DIMALTF
 40
0.03937007874016
  9
$DIMLFAC
 40
1.0
  9
$DIMTOFL
 70
     1
  9
$DIMTVP
 40
0.0
  9
$DIMTIX
 70
     0
  9
$DIMSOXD
 70
     0
  9
$DIMSAH
 70
     0
  9
$DIMBLK1
  1

  9
$DIMBLK2
  1

  9
$DIMSTYLE
  2
ISO-25
  9
$DIMCLRD
 70
     0
  9
$DIMCLRE
 70
     0
  9
$DIMCLRT
 70
     0
  9
$DIMTFAC
 40
1.0
  9
$DIMGAP
 40
0.625
  9
$DIMJUST
 70
     0
  9
$DIMSD1
 70
     0
  9
$DIMSD2
 70
     0
  9
$DIMTOLJ
 70
     0
  9
$DIMTZIN
 70
     8
  9
$DIMALTZ
 70
     0
  9
$DIMALTTZ
 70
     0
  9
$DIMFIT
 70
     3
  9
$DIMUPT
 70
     0
  9
$DIMUNIT
 70
     2
  9
$DIMDEC
 70
     2
  9
$DIMTDEC
 70
     2
  9
$DIMALTU
 70
     2
  9
$DIMALTTD
 70
     3
  9
$DIMTXSTY
  7
STANDARD
  9
$DIMAUNIT
 70
     0
  9
$LUNITS
 70
     2
  9
$LUPREC
 70
     4
  9
$SKETCHINC
 40
1.0
  9
$FILLETRAD
 40
10.0
  9
$AUNITS
 70
     0
  9
$AUPREC
 70
     0
  9
$MENU
  1
.
  9
$ELEVATION
 40
0.0
  9
$PELEVATION
 40
0.0
  9
$THICKNESS
 40
0.0
  9
$LIMCHECK
 70
     0
  9
$CHAMFERA
 40
0.0
  9
$CHAMFERB
 40
0.0
  9
$CHAMFERC
 40
0.0
  9
$CHAMFERD
 40
0.0
  9
$SKPOLY
 70
     0
  9
$TDCREATE
 40
2459794.576555151
  9
$TDUPDATE
 40
2459794.576556065
  9
$TDINDWG
 40
0.0000000116
  9
$TDUSRTIMER
 40
0.0000000116
  9
$USRTIMER
 70
     1
  9
$ANGBASE
 50
0.0
  9
$ANGDIR
 70
     0
  9
$PDMODE
 70
     0
  9
$PDSIZE
 40
0.0
  9
$PLINEWID
 40
0.0
  9
$COORDS
 70
     1
  9
$SPLFRAME
 70
     0
  9
$SPLINETYPE
 70
     6
  9
$SPLINESEGS
 70
     8
  9
$ATTDIA
 70
     0
  9
$ATTREQ
 70
     1
  9
$HANDLING
 70
     1
  9
$HANDSEED
  5
78A
  9
$SURFTAB1
 70
     6
  9
$SURFTAB2
 70
     6
  9
$SURFTYPE
 70
     6
  9
$SURFU
 70
     6
  9
$SURFV
 70
     6
  9
$UCSNAME
  2

  9
$UCSORG
 10
0.0
 20
0.0
 30
0.0
  9
$UCSXDIR
 10
1.0
 20
0.0
 30
0.0
  9
$UCSYDIR
 10
0.0
 20
1.0
 30
0.0
  9
$PUCSNAME
  2

  9
$PUCSORG
 10
0.0
 20
0.0
 30
0.0
  9
$PUCSXDIR
 10
1.0
 20
0.0
 30
0.0
  9
$PUCSYDIR
 10
0.0
 20
1.0
 30
0.0
  9
$USERI1
 70
     0
  9
$USERI2
 70
     0
  9
$USERI3
 70
     0
  9
$USERI4
 70
     0
  9
$USERI5
 70
     0
  9
$USERR1
 40
0.0
  9
$USERR2
 40
0.0
  9
$USERR3
 40
0.0
  9
$USERR4
 40
0.0
  9
$USERR5
 40
0.0
  9
$WORLDVIEW
 70
     1
  9
$SHADEDGE
 70
     3
  9
$SHADEDIF
 70
    70
  9
$TILEMODE
 70
     1
  9
$MAXACTVP
 70
    64
  9
$PINSBASE
 10
0.0
 20
0.0
 30
0.0
  9
$PLIMCHECK
 70
     0
  9
$PEXTMIN
 10
1.000000000000000E+20
 20
1.000000000000000E+20
 30
1.000000000000000E+20
  9
$PEXTMAX
 10
-1.000000000000000E+20
 20
-1.000000000000000E+20
 30
-1.000000000000000E+20
  9
$PLIMMIN
 10
0.0
 20
0.0
  9
$PLIMMAX
 10
420.0
 20
297.0
  9
$UNITMODE
 70
     0
  9
$VISRETAIN
 70
     1
  9
$PLINEGEN
 70
     0
  9
$PSLTSCALE
 70
     1
  9
$TREEDEPTH
 70
  3020
  9
$PICKSTYLE
 70
     1
  9
$CMLSTYLE
  2
STANDARD
  9
$CMLJUST
 70
     0
  9
$CMLSCALE
 40
20.0
  9
$PROXYGRAPHICS
 70
     1
  9
$MEASUREMENT
 70
     1
  0
ENDSEC
  0
SECTION
  2
CLASSES
  0
CLASS
  1
ACDBDICTIONARYWDFLT
  2
AcDbDictionaryWithDefault
  3
ObjectDBX Classes
 90
        0
280
     0
281
     0
  0
CLASS
  1
VISUALSTYLE
  2
AcDbVisualStyle
  3
ObjectDBX Classes
 90
     4095
280
     0
281
     0
  0
CLASS
  1
MATERIAL
  2
AcDbMaterial
  3
ObjectDBX Classes
 90
     1153
280
     0
281
     0
  0
CLASS
  1
SCALE
  2
AcDbScale
  3
ObjectDBX Classes
 90
     1153
280
     0
281
     0
  0
CLASS
  1
TABLESTYLE
  2
AcDbTableStyle
  3
ObjectDBX Classes
 90
     4095
280
     0
281
     0
  0
CLASS
  1
MLEADERSTYLE
  2
AcDbMLeaderStyle
  3
ACDB_MLEADERSTYLE_CLASS
 90
     4095
280
     0
281
     0
  0
CLASS
  1
SUN
  2
AcDbSun
  3
SCENEOE
 90
     1153
280
     0
281
     0
  0
CLASS
  1
DICTIONARYVAR
  2
AcDbDictionaryVar
  3
ObjectDBX Classes
 90
        0
280
     0
281
     0
  0
CLASS
  1
XRECORD
  2
AcDbXrecord
  3
ObjectDBX Classes
 90
        0
280
     0
281
     0
  0
CLASS
  1
LWPOLYLINE
  2
AcDbPolyline
  3
ObjectDBX Classes
 90
        0
280
     0
281
     1
  0
CLASS
  1
HATCH
  2
AcDbHatch
  3
ObjectDBX Classes
 90
        0
280
     0
281
     1
  0
CLASS
  1
ACDBPLACEHOLDER
  2
AcDbPlaceHolder
  3
ObjectDBX Classes
 90
        0
280
     0
281
     0
  0
CLASS
  1
LAYOUT
  2
AcDbLayout
  3
ObjectDBX Classes
 90
        0
280
     0
281
     0
  0
ENDSEC
  0
SECTION
  2
TABLES
  0
TABLE
  2
VPORT
  5
8
102
{ACAD_XDICTIONARY
360
77F
102
}
330
0
100
AcDbSymbolTable
 70
     1
  0
VPORT
  5
29
330
8
100
AcDbSymbolTableRecord
100
AcDbViewportTableRecord
  2
*ACTIVE
 70
     0
 10
0.0
 20
0.0
 11
1.0
 21
1.0
 12
585.0000000000001
 22
435.0
 13
0.0
 23
0.0
 14
10.0
 24
10.0
 15
10.0
 25
10.0
 16
0.0
 26
0.0
 36
1.0
 17
0.0
 27
0.0
 37
0.0
 40
810.0
 41
1.407407407407408
 42
50.0
 43
0.0
 44
0.0
 50
0.0
 51
0.0
 71
     0
 72
  1000
 73
     1
 74
     3
 75
     0
 76
     0
 77
     0
 78
     0
  0
ENDTAB
  0
TABLE
  2
LTYPE
  5
5
330
0
100
AcDbSymbolTable
 70
     6
  0
LTYPE
  5
14
330
5
100
AcDbSymbolTableRecord
100
AcDbLinetypeTableRecord
  2
BYBLOCK
 70
     0
  3

 72
    65
 73
     0
 40
0.0
  0
LTYPE
  5
15
330
5
100
AcDbSymbolTableRecord
100
AcDbLinetypeTableRecord
  2
BYLAYER
 70
     0
  3

 72
    65
 73
     0
 40
0.0
  0
LTYPE
  5
16
330
5
100
AcDbSymbolTableRecord
100
AcDbLinetypeTableRecord
  2
CONTINUOUS
 70
     0
  3
Solid line
 72
    65
 73
     0
 40
0.0
  0
LTYPE
  5
6E
330
5
100
AcDbSymbolTableRecord
100
AcDbLinetypeTableRecord
  2
HIDDEN
 70
     0
  3
Hidden __ __ __ __ __ __ __ __ __ __ __ __ __ __
 72
    65
 73
     2
 40
9.524999999999999
 49
6.35
 74
     0
 49
-3.175
 74
     0
  0
LTYPE
  5
6F
330
5
100
AcDbSymbolTableRecord
100
AcDbLinetypeTableRecord
  2
CENTER
 70
     0
  3
Center ____ _ ____ _ ____ _ ____ _ ____ _ ____
 72
    65
 73
     4
 40
50.8
 49
31.75
 74
     0
 49
-6.35
 74
     0
 49
6.35
 74
     0
 49
-6.35
 74
     0
  0
LTYPE
  5
70
330
5
100
AcDbSymbolTableRecord
100
AcDbLinetypeTableRecord
  2
PHANTOM
 70
     0
  3
Phantom ______  __  __  ______  __  __  ______ 
 72
    65
 73
     6
 40
63.50000000000001
 49
31.75
 74
     0
 49
-6.35
 74
     0
 49
6.35
 74
     0
 49
-6.35
 74
     0
 49
6.35
 74
     0
 49
-6.35
 74
     0
  0
LTYPE
  5
71
330
5
100
AcDbSymbolTableRecord
100
AcDbLinetypeTableRecord
  2
ACAD_ISO06W100
 70
     0
  3
ISO long-dash triple-dot ____ ... ____ ... ____
 72
    65
 73
     8
 40
36.0
 49
24.0
 74
     0
 49
-3.0
 74
     0
 49
0.0
 74
     0
 49
-3.0
 74
     0
 49
0.0
 74
     0
 49
-3.0
 74
     0
 49
0.0
 74
     0
 49
-3.0
 74
     0
  0
LTYPE
  5
72
330
5
100
AcDbSymbolTableRecord
100
AcDbLinetypeTableRecord
  2
ACAD_ISO15W100
 70
     0
  3
ISO double-dash triple-dot __ __ . . . __ __ . .
 72
    65
 73
    10
 40
39.0
 49
12.0
 74
     0
 49
-3.0
 74
     0
 49
12.0
 74
     0
 49
-3.0
 74
     0
 49
0.0
 74
     0
 49
-3.0
 74
     0
 49
0.0
 74
     0
 49
-3.0
 74
     0
 49
0.0
 74
     0
 49
-3.0
 74
     0
  0
ENDTAB
  0
TABLE
  2
LAYER
  5
2
330
0
100
AcDbSymbolTable
 70
     5
  0
LAYER
  5
10
330
2
100
AcDbSymbolTableRecord
100
AcDbLayerTableRecord
  2
0
 70
     0
 62
     7
  6
CONTINUOUS
  0
LAYER
  5
75
330
2
100
AcDbSymbolTableRecord
100
AcDbLayerTableRecord
  2
LAY-10
 70
     0
 62
     7
  6
CONTINUOUS
  0
LAYER
  5
76
330
2
100
AcDbSymbolTableRecord
100
AcDbLayerTableRecord
  2
LAY-20
 70
     0
 62
     7
  6
CONTINUOUS
  0
LAYER
  5
77
330
2
100
AcDbSymbolTableRecord
100
AcDbLayerTableRecord
  2
LAY-255
 70
     0
 62
     7
  6
CONTINUOUS
  0
LAYER
  5
D6
330
2
100
AcDbSymbolTableRecord
100
AcDbLayerTableRecord
  2
DEFPOINTS
 70
     0
 62
     7
  6
CONTINUOUS
  0
ENDTAB
  0
TABLE
  2
STYLE
  5
3
330
0
100
AcDbSymbolTable
 70
     4
  0
STYLE
  5
11
330
3
100
AcDbSymbolTableRecord
100
AcDbTextStyleTableRecord
  2
STANDARD
 70
     0
 40
0.0
 41
1.0
 50
0.0
 71
     0
 42
2.5
  3
simplex
  4
bigfont
  0
STYLE
  5
73
330
3
100
AcDbSymbolTableRecord
100
AcDbTextStyleTableRecord
  2
EXCADSTD
 70
     0
 40
0.0
 41
1.0
 50
0.0
 71
     0
 42
2.5
  3
simplex
  4
bigfont
  0
STYLE
  5
74
330
3
100
AcDbSymbolTableRecord
100
AcDbTextStyleTableRecord
  2
EXCADVERT
 70
     4
 40
0.0
 41
1.0
 50
0.0
 71
     0
 42
2.5
  3
simplex
  4
bigfont
  0
STYLE
  5
D4
330
3
100
AcDbSymbolTableRecord
100
AcDbTextStyleTableRecord
  2
EXCADDIM1
 70
     0
 40
0.0
 41
0.84
 50
0.0
 71
     0
 42
2.5
  3
simplex
  4
bigfont
  0
ENDTAB
  0
TABLE
  2
VIEW
  5
6
330
0
100
AcDbSymbolTable
 70
     0
  0
ENDTAB
  0
TABLE
  2
UCS
  5
7
330
0
100
AcDbSymbolTable
 70
     0
  0
ENDTAB
  0
TABLE
  2
APPID
  5
9
330
0
100
AcDbSymbolTable
 70
     2
  0
APPID
  5
12
330
9
100
AcDbSymbolTableRecord
100
AcDbRegAppTableRecord
  2
ACAD
 70
     0
  0
APPID
  5
789
330
9
100
AcDbSymbolTableRecord
100
AcDbRegAppTableRecord
  2
ACAD_MLEADERVER
 70
     0
  0
ENDTAB
  0
TABLE
  2
DIMSTYLE
  5
A
330
0
100
AcDbSymbolTable
 70
     1
  0
DIMSTYLE
105
27
102
{ACAD_REACTORS
330
D5
330
E3
330
F0
330
FD
330
711
330
71D
102
}
330
A
100
AcDbSymbolTableRecord
100
AcDbDimStyleTableRecord
  2
ISO-25
 70
     0
  3

  4

  5

  6

  7

 40
1.0
 41
2.5
 42
0.625
 43
3.75
 44
1.25
 45
0.0
 46
0.0
 47
0.0
 48
0.0
140
2.5
141
2.5
142
0.0
143
0.03937007874016
144
1.0
145
0.0
146
1.0
147
0.625
 71
     0
 72
     0
 73
     0
 74
     0
 75
     0
 76
     0
 77
     1
 78
     8
170
     0
171
     3
172
     1
173
     0
174
     0
175
     0
176
     0
177
     0
178
     0
270
     2
271
     2
272
     2
273
     2
274
     3
340
11
275
     0
280
     0
281
     0
282
     0
283
     0
284
     8
285
     0
286
     0
287
     5
288
     0
  0
ENDTAB
  0
TABLE
  2
BLOCK_RECORD
  5
1
330
0
100
AcDbSymbolTable
 70
    20
  0
BLOCK_RECORD
  5
1F
330
1
100
AcDbSymbolTableRecord
100
AcDbBlockTableRecord
  2
*MODEL_SPACE
  0
BLOCK_RECORD
  5
1B
330
1
100
AcDbSymbolTableRecord
100
AcDbBlockTableRecord
  2
*PAPER_SPACE
  0
BLOCK_RECORD
  5
78
330
1
100
AcDbSymbolTableRecord
100
AcDbBlockTableRecord
  2
EX_NORM
  0
BLOCK_RECORD
  5
7B
330
1
100
AcDbSymbolTableRecord
100
AcDbBlockTableRecord
  2
EX_BNORM
  0
BLOCK_RECORD
  5
7E
330
1
100
AcDbSymbolTableRecord
100
AcDbBlockTableRecord
  2
EX_BCIR
  0
BLOCK_RECORD
  5
81
330
1
100
AcDbSymbolTableRecord
100
AcDbBlockTableRecord
  2
EX_RCIVIL
  0
BLOCK_RECORD
  5
84
330
1
100
AcDbSymbolTableRecord
100
AcDbBlockTableRecord
  2
EX_SLANT
  0
BLOCK_RECORD
  5
87
330
1
100
AcDbSymbolTableRecord
100
AcDbBlockTableRecord
  2
EX_NONE
  0
BLOCK_RECORD
  5
8A
330
1
100
AcDbSymbolTableRecord
100
AcDbBlockTableRecord
  2
EX_CIVIL
  0
BLOCK_RECORD
  5
8D
330
1
100
AcDbSymbolTableRecord
100
AcDbBlockTableRecord
  2
EX_WCIR
  0
BLOCK_RECORD
  5
90
330
1
100
AcDbSymbolTableRecord
100
AcDbBlockTableRecord
  2
EX_WCIR2
  0
BLOCK_RECORD
  5
93
330
1
100
AcDbSymbolTableRecord
100
AcDbBlockTableRecord
  2
EX_WNORM
  0
BLOCK_RECORD
  5
96
330
1
100
AcDbSymbolTableRecord
100
AcDbBlockTableRecord
  2
EX_NNORM
  0
BLOCK_RECORD
  5
99
330
1
100
AcDbSymbolTableRecord
100
AcDbBlockTableRecord
  2
EX_BBOX
  0
BLOCK_RECORD
  5
9C
330
1
100
AcDbSymbolTableRecord
100
AcDbBlockTableRecord
  2
EX_WBOX
  0
BLOCK_RECORD
  5
9F
330
1
100
AcDbSymbolTableRecord
100
AcDbBlockTableRecord
  2
EX_INTEGRAL
  0
BLOCK_RECORD
  5
D7
330
1
100
AcDbSymbolTableRecord
100
AcDbBlockTableRecord
  2
*D15
  0
BLOCK_RECORD
  5
E4
330
1
100
AcDbSymbolTableRecord
100
AcDbBlockTableRecord
  2
*D16
  0
BLOCK_RECORD
  5
F1
330
1
100
AcDbSymbolTableRecord
100
AcDbBlockTableRecord
  2
*D17
  0
BLOCK_RECORD
  5
FE
330
1
100
AcDbSymbolTableRecord
100
AcDbBlockTableRecord
  2
*D18
  0
BLOCK_RECORD
  5
712
330
1
100
AcDbSymbolTableRecord
100
AcDbBlockTableRecord
  2
*D19
  0
BLOCK_RECORD
  5
71E
330
1
100
AcDbSymbolTableRecord
100
AcDbBlockTableRecord
  2
*D20
  0
ENDTAB
  0
ENDSEC
  0
SECTION
  2
BLOCKS
  0
BLOCK
  5
20
330
1F
100
AcDbEntity
  8
0
100
AcDbBlockBegin
  2
*MODEL_SPACE
 70
     0
 10
0.0
 20
0.0
 30
0.0
  3
*MODEL_SPACE
  1

  0
ENDBLK
  5
21
330
1F
100
AcDbEntity
  8
0
100
AcDbBlockEnd
  0
BLOCK
  5
1C
330
1B
100
AcDbEntity
 67
     1
  8
0
100
AcDbBlockBegin
  2
*PAPER_SPACE
 70
     0
 10
0.0
 20
0.0
 30
0.0
  3
*PAPER_SPACE
  1

  0
ENDBLK
  5
1D
330
1B
100
AcDbEntity
 67
     1
  8
0
100
AcDbBlockEnd
  0
BLOCK
  5
79
330
78
100
AcDbEntity
  8
0
100
AcDbBlockBegin
  2
EX_NORM
 70
     0
 10
0.0
 20
0.0
 30
0.0
  3
EX_NORM
  1

  0
LINE
  5
A2
330
78
100
AcDbEntity
  8
0
  6
CONTINUOUS
 62
     0
100
AcDbLine
 10
0.0
 20
0.0
 30
0.0
 11
-1.0
 21
0.0
 31
0.0
  0
LINE
  5
A3
330
78
100
AcDbEntity
  8
0
  6
CONTINUOUS
 62
     0
100
AcDbLine
 10
0.0
 20
0.0
 30
0.0
 11
-1.0
 21
0.166666667
 31
0.0
  0
LINE
  5
A4
330
78
100
AcDbEntity
  8
0
  6
CONTINUOUS
 62
     0
100
AcDbLine
 10
0.0
 20
0.0
 30
0.0
 11
-1.0
 21
-0.166666667
 31
0.0
  0
ENDBLK
  5
7A
330
78
100
AcDbEntity
  8
0
100
AcDbBlockEnd
  0
BLOCK
  5
7C
330
7B
100
AcDbEntity
  8
0
100
AcDbBlockBegin
  2
EX_BNORM
 70
     0
 10
0.0
 20
0.0
 30
0.0
  3
EX_BNORM
  1

  0
LINE
  5
A5
330
7B
100
AcDbEntity
  8
0
  6
CONTINUOUS
 62
     0
100
AcDbLine
 10
0.0
 20
0.0
 30
0.0
 11
-1.0
 21
0.0
 31
0.0
  0
LINE
  5
A6
330
7B
100
AcDbEntity
  8
0
  6
CONTINUOUS
 62
     0
100
AcDbLine
 10
0.0
 20
0.0
 30
0.0
 11
-1.0
 21
0.166666667
 31
0.0
  0
LINE
  5
A7
330
7B
100
AcDbEntity
  8
0
  6
CONTINUOUS
 62
     0
100
AcDbLine
 10
0.0
 20
0.0
 30
0.0
 11
-1.0
 21
-0.166666667
 31
0.0
  0
LINE
  5
A8
330
7B
100
AcDbEntity
  8
0
  6
CONTINUOUS
 62
     0
100
AcDbLine
 10
0.0
 20
0.0
 30
0.0
 11
-1.0
 21
0.083333333
 31
0.0
  0
LINE
  5
A9
330
7B
100
AcDbEntity
  8
0
  6
CONTINUOUS
 62
     0
100
AcDbLine
 10
0.0
 20
0.0
 30
0.0
 11
-1.0
 21
-0.083333333
 31
0.0
  0
LINE
  5
AA
330
7B
100
AcDbEntity
  8
0
  6
CONTINUOUS
 62
     0
100
AcDbLine
 10
-1.0
 20
0.166666667
 30
0.0
 11
-1.0
 21
-0.166666667
 31
0.0
  0
ENDBLK
  5
7D
330
7B
100
AcDbEntity
  8
0
100
AcDbBlockEnd
  0
BLOCK
  5
7F
330
7E
100
AcDbEntity
  8
0
100
AcDbBlockBegin
  2
EX_BCIR
 70
     0
 10
0.0
 20
0.0
 30
0.0
  3
EX_BCIR
  1

  0
LINE
  5
AB
330
7E
100
AcDbEntity
  8
0
  6
CONTINUOUS
 62
     0
100
AcDbLine
 10
0.0
 20
0.0
 30
0.0
 11
-1.0
 21
0.0
 31
0.0
  0
CIRCLE
  5
AC
330
7E
100
AcDbEntity
  8
0
  6
CONTINUOUS
 62
     0
100
AcDbCircle
 10
0.0
 20
0.0
 30
0.0
 40
0.5
  0
CIRCLE
  5
AD
330
7E
100
AcDbEntity
  8
0
  6
CONTINUOUS
 62
     0
100
AcDbCircle
 10
0.0
 20
0.0
 30
0.0
 40
0.25
  0
ENDBLK
  5
80
330
7E
100
AcDbEntity
  8
0
100
AcDbBlockEnd
  0
BLOCK
  5
82
330
81
100
AcDbEntity
  8
0
100
AcDbBlockBegin
  2
EX_RCIVIL
 70
     0
 10
0.0
 20
0.0
 30
0.0
  3
EX_RCIVIL
  1

  0
LINE
  5
AE
330
81
100
AcDbEntity
  8
0
  6
CONTINUOUS
 62
     0
100
AcDbLine
 10
0.0
 20
0.0
 30
0.0
 11
-1.0
 21
0.0
 31
0.0
  0
LINE
  5
AF
330
81
100
AcDbEntity
  8
0
  6
CONTINUOUS
 62
     0
100
AcDbLine
 10
-1.0
 20
-0.25
 30
0.0
 11
0.0
 21
-0.25
 31
0.0
  0
LINE
  5
B0
330
81
100
AcDbEntity
  8
0
  6
CONTINUOUS
 62
     0
100
AcDbLine
 10
-1.0
 20
-0.125
 30
0.0
 11
0.0
 21
-0.125
 31
0.0
  0
ENDBLK
  5
83
330
81
100
AcDbEntity
  8
0
100
AcDbBlockEnd
  0
BLOCK
  5
85
330
84
100
AcDbEntity
  8
0
100
AcDbBlockBegin
  2
EX_SLANT
 70
     0
 10
0.0
 20
0.0
 30
0.0
  3
EX_SLANT
  1

  0
LINE
  5
B1
330
84
100
AcDbEntity
  8
0
  6
CONTINUOUS
 62
     0
100
AcDbLine
 10
0.0
 20
0.0
 30
0.0
 11
-1.0
 21
0.0
 31
0.0
  0
LINE
  5
B2
330
84
100
AcDbEntity
  8
0
  6
CONTINUOUS
 62
     0
100
AcDbLine
 10
0.707106781
 20
0.707106781
 30
0.0
 11
-0.707106781
 21
-0.707106781
 31
0.0
  0
ENDBLK
  5
86
330
84
100
AcDbEntity
  8
0
100
AcDbBlockEnd
  0
BLOCK
  5
88
330
87
100
AcDbEntity
  8
0
100
AcDbBlockBegin
  2
EX_NONE
 70
     0
 10
0.0
 20
0.0
 30
0.0
  3
EX_NONE
  1

  0
LINE
  5
B3
330
87
100
AcDbEntity
  8
0
  6
CONTINUOUS
 62
     0
100
AcDbLine
 10
0.0
 20
0.0
 30
0.0
 11
-1.0
 21
0.0
 31
0.0
  0
ENDBLK
  5
89
330
87
100
AcDbEntity
  8
0
100
AcDbBlockEnd
  0
BLOCK
  5
8B
330
8A
100
AcDbEntity
  8
0
100
AcDbBlockBegin
  2
EX_CIVIL
 70
     0
 10
0.0
 20
0.0
 30
0.0
  3
EX_CIVIL
  1

  0
LINE
  5
B4
330
8A
100
AcDbEntity
  8
0
  6
CONTINUOUS
 62
     0
100
AcDbLine
 10
0.0
 20
0.0
 30
0.0
 11
-1.0
 21
0.0
 31
0.0
  0
LINE
  5
B5
330
8A
100
AcDbEntity
  8
0
  6
CONTINUOUS
 62
     0
100
AcDbLine
 10
-1.0
 20
0.25
 30
0.0
 11
0.0
 21
0.25
 31
0.0
  0
LINE
  5
B6
330
8A
100
AcDbEntity
  8
0
  6
CONTINUOUS
 62
     0
100
AcDbLine
 10
-1.0
 20
0.125
 30
0.0
 11
0.0
 21
0.125
 31
0.0
  0
ENDBLK
  5
8C
330
8A
100
AcDbEntity
  8
0
100
AcDbBlockEnd
  0
BLOCK
  5
8E
330
8D
100
AcDbEntity
  8
0
100
AcDbBlockBegin
  2
EX_WCIR
 70
     0
 10
0.0
 20
0.0
 30
0.0
  3
EX_WCIR
  1

  0
LINE
  5
B7
330
8D
100
AcDbEntity
  8
0
  6
CONTINUOUS
 62
     0
100
AcDbLine
 10
0.0
 20
0.0
 30
0.0
 11
-1.0
 21
0.0
 31
0.0
  0
CIRCLE
  5
B8
330
8D
100
AcDbEntity
  8
0
  6
CONTINUOUS
 62
     0
100
AcDbCircle
 10
0.0
 20
0.0
 30
0.0
 40
0.5
  0
ENDBLK
  5
8F
330
8D
100
AcDbEntity
  8
0
100
AcDbBlockEnd
  0
BLOCK
  5
91
330
90
100
AcDbEntity
  8
0
100
AcDbBlockBegin
  2
EX_WCIR2
 70
     0
 10
0.0
 20
0.0
 30
0.0
  3
EX_WCIR2
  1

  0
LINE
  5
B9
330
90
100
AcDbEntity
  8
0
  6
CONTINUOUS
 62
     0
100
AcDbLine
 10
-0.5
 20
0.0
 30
0.0
 11
-1.0
 21
0.0
 31
0.0
  0
CIRCLE
  5
BA
330
90
100
AcDbEntity
  8
0
  6
CONTINUOUS
 62
     0
100
AcDbCircle
 10
0.0
 20
0.0
 30
0.0
 40
0.5
  0
ENDBLK
  5
92
330
90
100
AcDbEntity
  8
0
100
AcDbBlockEnd
  0
BLOCK
  5
94
330
93
100
AcDbEntity
  8
0
100
AcDbBlockBegin
  2
EX_WNORM
 70
     0
 10
0.0
 20
0.0
 30
0.0
  3
EX_WNORM
  1

  0
LINE
  5
BB
330
93
100
AcDbEntity
  8
0
  6
CONTINUOUS
 62
     0
100
AcDbLine
 10
-1.0
 20
0.0
 30
0.0
 11
-1.0
 21
0.0
 31
0.0
  0
LINE
  5
BC
330
93
100
AcDbEntity
  8
0
  6
CONTINUOUS
 62
     0
100
AcDbLine
 10
0.0
 20
0.0
 30
0.0
 11
-1.0
 21
0.166666667
 31
0.0
  0
LINE
  5
BD
330
93
100
AcDbEntity
  8
0
  6
CONTINUOUS
 62
     0
100
AcDbLine
 10
0.0
 20
0.0
 30
0.0
 11
-1.0
 21
-0.166666667
 31
0.0
  0
LINE
  5
BE
330
93
100
AcDbEntity
  8
0
  6
CONTINUOUS
 62
     0
100
AcDbLine
 10
-1.0
 20
0.166666667
 30
0.0
 11
-1.0
 21
-0.166666667
 31
0.0
  0
ENDBLK
  5
95
330
93
100
AcDbEntity
  8
0
100
AcDbBlockEnd
  0
BLOCK
  5
97
330
96
100
AcDbEntity
  8
0
100
AcDbBlockBegin
  2
EX_NNORM
 70
     0
 10
0.0
 20
0.0
 30
0.0
  3
EX_NNORM
  1

  0
LINE
  5
BF
330
96
100
AcDbEntity
  8
0
  6
CONTINUOUS
 62
     0
100
AcDbLine
 10
0.0
 20
0.0
 30
0.0
 11
-1.0
 21
0.0
 31
0.0
  0
LINE
  5
C0
330
96
100
AcDbEntity
  8
0
  6
CONTINUOUS
 62
     0
100
AcDbLine
 10
0.0
 20
0.0
 30
0.0
 11
-1.0
 21
0.166666667
 31
0.0
  0
LINE
  5
C1
330
96
100
AcDbEntity
  8
0
  6
CONTINUOUS
 62
     0
100
AcDbLine
 10
0.0
 20
0.0
 30
0.0
 11
-1.0
 21
-0.166666667
 31
0.0
  0
LINE
  5
C2
330
96
100
AcDbEntity
  8
0
  6
CONTINUOUS
 62
     0
100
AcDbLine
 10
-1.0
 20
0.166666667
 30
0.0
 11
-1.0
 21
-0.166666667
 31
0.0
  0
ENDBLK
  5
98
330
96
100
AcDbEntity
  8
0
100
AcDbBlockEnd
  0
BLOCK
  5
9A
330
99
100
AcDbEntity
  8
0
100
AcDbBlockBegin
  2
EX_BBOX
 70
     0
 10
0.0
 20
0.0
 30
0.0
  3
EX_BBOX
  1

  0
LINE
  5
C3
330
99
100
AcDbEntity
  8
0
  6
CONTINUOUS
 62
     0
100
AcDbLine
 10
0.0
 20
0.0
 30
0.0
 11
-1.0
 21
0.0
 31
0.0
  0
LINE
  5
C4
330
99
100
AcDbEntity
  8
0
  6
CONTINUOUS
 62
     0
100
AcDbLine
 10
-0.5
 20
0.5
 30
0.0
 11
0.5
 21
0.5
 31
0.0
  0
LINE
  5
C5
330
99
100
AcDbEntity
  8
0
  6
CONTINUOUS
 62
     0
100
AcDbLine
 10
0.5
 20
0.5
 30
0.0
 11
0.5
 21
-0.5
 31
0.0
  0
LINE
  5
C6
330
99
100
AcDbEntity
  8
0
  6
CONTINUOUS
 62
     0
100
AcDbLine
 10
0.5
 20
-0.5
 30
0.0
 11
-0.5
 21
-0.5
 31
0.0
  0
LINE
  5
C7
330
99
100
AcDbEntity
  8
0
  6
CONTINUOUS
 62
     0
100
AcDbLine
 10
-0.5
 20
-0.5
 30
0.0
 11
-0.5
 21
0.5
 31
0.0
  0
LINE
  5
C8
330
99
100
AcDbEntity
  8
0
  6
CONTINUOUS
 62
     0
100
AcDbLine
 10
-0.25
 20
0.25
 30
0.0
 11
0.25
 21
0.25
 31
0.0
  0
LINE
  5
C9
330
99
100
AcDbEntity
  8
0
  6
CONTINUOUS
 62
     0
100
AcDbLine
 10
0.25
 20
0.25
 30
0.0
 11
0.25
 21
-0.25
 31
0.0
  0
LINE
  5
CA
330
99
100
AcDbEntity
  8
0
  6
CONTINUOUS
 62
     0
100
AcDbLine
 10
0.25
 20
-0.25
 30
0.0
 11
-0.25
 21
-0.25
 31
0.0
  0
LINE
  5
CB
330
99
100
AcDbEntity
  8
0
  6
CONTINUOUS
 62
     0
100
AcDbLine
 10
-0.25
 20
-0.25
 30
0.0
 11
-0.25
 21
0.25
 31
0.0
  0
ENDBLK
  5
9B
330
99
100
AcDbEntity
  8
0
100
AcDbBlockEnd
  0
BLOCK
  5
9D
330
9C
100
AcDbEntity
  8
0
100
AcDbBlockBegin
  2
EX_WBOX
 70
     0
 10
0.0
 20
0.0
 30
0.0
  3
EX_WBOX
  1

  0
LINE
  5
CC
330
9C
100
AcDbEntity
  8
0
  6
CONTINUOUS
 62
     0
100
AcDbLine
 10
-0.5
 20
0.0
 30
0.0
 11
-1.0
 21
0.0
 31
0.0
  0
LINE
  5
CD
330
9C
100
AcDbEntity
  8
0
  6
CONTINUOUS
 62
     0
100
AcDbLine
 10
-0.5
 20
0.5
 30
0.0
 11
0.5
 21
0.5
 31
0.0
  0
LINE
  5
CE
330
9C
100
AcDbEntity
  8
0
  6
CONTINUOUS
 62
     0
100
AcDbLine
 10
0.5
 20
0.5
 30
0.0
 11
0.5
 21
-0.5
 31
0.0
  0
LINE
  5
CF
330
9C
100
AcDbEntity
  8
0
  6
CONTINUOUS
 62
     0
100
AcDbLine
 10
0.5
 20
-0.5
 30
0.0
 11
-0.5
 21
-0.5
 31
0.0
  0
LINE
  5
D0
330
9C
100
AcDbEntity
  8
0
  6
CONTINUOUS
 62
     0
100
AcDbLine
 10
-0.5
 20
-0.5
 30
0.0
 11
-0.5
 21
0.5
 31
0.0
  0
ENDBLK
  5
9E
330
9C
100
AcDbEntity
  8
0
100
AcDbBlockEnd
  0
BLOCK
  5
A0
330
9F
100
AcDbEntity
  8
0
100
AcDbBlockBegin
  2
EX_INTEGRAL
 70
     0
 10
0.0
 20
0.0
 30
0.0
  3
EX_INTEGRAL
  1

  0
LINE
  5
D1
330
9F
100
AcDbEntity
  8
0
  6
CONTINUOUS
 62
     0
100
AcDbLine
 10
0.0
 20
0.0
 30
0.0
 11
-1.0
 21
0.0
 31
0.0
  0
ARC
  5
D2
330
9F
100
AcDbEntity
  8
0
  6
CONTINUOUS
 62
     0
100
AcDbCircle
 10
0.542115
 20
0.164992
 30
0.0
 40
0.56667
100
AcDbArc
 50
73.07249033629006
 51
196.9275130221199
  0
ARC
  5
D3
330
9F
100
AcDbEntity
  8
0
  6
CONTINUOUS
 62
     0
100
AcDbCircle
 10
-0.542115
 20
-0.164992
 30
0.0
 40
0.56667
100
AcDbArc
 50
253.0724869220464
 51
16.9275130559125
  0
ENDBLK
  5
A1
330
9F
100
AcDbEntity
  8
0
100
AcDbBlockEnd
  0
BLOCK
  5
D8
330
D7
100
AcDbEntity
  8
0
100
AcDbBlockBegin
  2
*D15
 70
     1
 10
0.0
 20
0.0
 30
0.0
  3
*D15
  1

  0
LINE
  5
DA
330
D7
100
AcDbEntity
  8
LAY-10
  6
CONTINUOUS
 62
     4
100
AcDbLine
 10
597.4999999999993
 20
187.9499814951901
 30
0.0
 11
597.4999999999993
 21
414.803899138
 31
0.0
  0
LINE
  5
DB
330
D7
100
AcDbEntity
  8
LAY-10
  6
CONTINUOUS
 62
     4
100
AcDbLine
 10
332.4999999999993
 20
187.94998149519
 30
0.0
 11
332.4999999999993
 21
414.803899138
 31
0.0
  0
LINE
  5
DC
330
D7
100
AcDbEntity
  8
LAY-10
  6
CONTINUOUS
 62
     4
100
AcDbLine
 10
588.4999999999993
 20
410.303899138
 30
0.0
 11
341.4999999999993
 21
410.303899138
 31
0.0
  0
INSERT
  5
DD
330
D7
100
AcDbEntity
  8
LAY-10
 62
     4
100
AcDbBlockReference
  2
EX_BNORM
 10
597.4999999999993
 20
410.303899138
 30
0.0
 41
9.0
 42
9.0
 43
9.0
  0
INSERT
  5
DE
330
D7
100
AcDbEntity
  8
LAY-10
 62
     4
100
AcDbBlockReference
  2
EX_BNORM
 10
332.4999999999993
 20
410.303899138
 30
0.0
 41
9.0
 42
9.0
 43
9.0
 50
180.0
  0
MTEXT
  5
DF
330
D7
100
AcDbEntity
  8
LAY-10
 62
     7
100
AcDbMText
 10
464.9999999999991
 20
417.8038991380001
 30
0.0
 40
9.3543312
 41
0.0
 71
     5
 72
     1
  1
%%c265
  7
EXCADDIM1
  0
POINT
  5
E0
330
D7
100
AcDbEntity
  8
DEFPOINTS
 62
     0
100
AcDbPoint
 10
597.4999999999993
 20
183.4499814951901
 30
0.0
  0
POINT
  5
E1
330
D7
100
AcDbEntity
  8
DEFPOINTS
 62
     0
100
AcDbPoint
 10
332.4999999999993
 20
183.44998149519
 30
0.0
  0
POINT
  5
E2
330
D7
100
AcDbEntity
  8
DEFPOINTS
 62
     0
100
AcDbPoint
 10
332.4999999999993
 20
410.303899138
 30
0.0
  0
ENDBLK
  5
D9
330
D7
100
AcDbEntity
  8
0
100
AcDbBlockEnd
  0
BLOCK
  5
E5
330
E4
100
AcDbEntity
  8
0
100
AcDbBlockBegin
  2
*D16
 70
     1
 10
0.0
 20
0.0
 30
0.0
  3
*D16
  1

  0
LINE
  5
E7
330
E4
100
AcDbEntity
  8
LAY-10
  6
CONTINUOUS
 62
     4
100
AcDbLine
 10
587.4999999999993
 20
197.8038991380001
 30
0.0
 11
587.4999999999993
 21
393.803899138
 31
0.0
  0
LINE
  5
E8
330
E4
100
AcDbEntity
  8
LAY-10
  6
CONTINUOUS
 62
     4
100
AcDbLine
 10
342.4999999999993
 20
197.8038991380099
 30
0.0
 11
342.4999999999993
 21
393.803899138
 31
0.0
  0
LINE
  5
E9
330
E4
100
AcDbEntity
  8
LAY-10
  6
CONTINUOUS
 62
     4
100
AcDbLine
 10
578.4999999999993
 20
389.303899138
 30
0.0
 11
351.4999999999993
 21
389.303899138
 31
0.0
  0
INSERT
  5
EA
330
E4
100
AcDbEntity
  8
LAY-10
 62
     4
100
AcDbBlockReference
  2
EX_BNORM
 10
587.4999999999993
 20
389.303899138
 30
0.0
 41
9.0
 42
9.0
 43
9.0
  0
INSERT
  5
EB
330
E4
100
AcDbEntity
  8
LAY-10
 62
     4
100
AcDbBlockReference
  2
EX_BNORM
 10
342.4999999999993
 20
389.303899138
 30
0.0
 41
9.0
 42
9.0
 43
9.0
 50
180.0
  0
MTEXT
  5
EC
330
E4
100
AcDbEntity
  8
LAY-10
 62
     7
100
AcDbMText
 10
464.9999999999991
 20
396.8038991380001
 30
0.0
 40
9.3543312
 41
0.0
 71
     5
 72
     1
  1
%%c245
  7
EXCADDIM1
  0
POINT
  5
ED
330
E4
100
AcDbEntity
  8
DEFPOINTS
 62
     0
100
AcDbPoint
 10
587.4999999999993
 20
193.3038991380001
 30
0.0
  0
POINT
  5
EE
330
E4
100
AcDbEntity
  8
DEFPOINTS
 62
     0
100
AcDbPoint
 10
342.4999999999993
 20
193.3038991380099
 30
0.0
  0
POINT
  5
EF
330
E4
100
AcDbEntity
  8
DEFPOINTS
 62
     0
100
AcDbPoint
 10
342.4999999999993
 20
389.303899138
 30
0.0
  0
ENDBLK
  5
E6
330
E4
100
AcDbEntity
  8
0
100
AcDbBlockEnd
  0
BLOCK
  5
F2
330
F1
100
AcDbEntity
  8
0
100
AcDbBlockBegin
  2
*D17
 70
     1
 10
0.0
 20
0.0
 30
0.0
  3
*D17
  1

  0
LINE
  5
F4
330
F1
100
AcDbEntity
  8
LAY-10
  6
CONTINUOUS
 62
     4
100
AcDbLine
 10
546.0000000000093
 20
199.303899138
 30
0.0
 11
546.0000000000093
 21
372.803899138
 31
0.0
  0
LINE
  5
F5
330
F1
100
AcDbEntity
  8
LAY-10
  6
CONTINUOUS
 62
     4
100
AcDbLine
 10
383.9999999999893
 20
199.303899138
 30
0.0
 11
383.9999999999893
 21
372.803899138
 31
0.0
  0
LINE
  5
F6
330
F1
100
AcDbEntity
  8
LAY-10
  6
CONTINUOUS
 62
     4
100
AcDbLine
 10
537.0000000000093
 20
368.303899138
 30
0.0
 11
392.9999999999893
 21
368.303899138
 31
0.0
  0
INSERT
  5
F7
330
F1
100
AcDbEntity
  8
LAY-10
 62
     4
100
AcDbBlockReference
  2
EX_BNORM
 10
546.0000000000093
 20
368.303899138
 30
0.0
 41
9.0
 42
9.0
 43
9.0
  0
INSERT
  5
F8
330
F1
100
AcDbEntity
  8
LAY-10
 62
     4
100
AcDbBlockReference
  2
EX_BNORM
 10
383.9999999999893
 20
368.303899138
 30
0.0
 41
9.0
 42
9.0
 43
9.0
 50
180.0
  0
MTEXT
  5
F9
330
F1
100
AcDbEntity
  8
LAY-10
 62
     7
100
AcDbMText
 10
464.9999999999991
 20
375.803899138
 30
0.0
 40
9.3543312
 41
0.0
 71
     5
 72
     1
  1
%%c162
  7
EXCADDIM1
  0
POINT
  5
FA
330
F1
100
AcDbEntity
  8
DEFPOINTS
 62
     0
100
AcDbPoint
 10
546.0000000000093
 20
194.803899138
 30
0.0
  0
POINT
  5
FB
330
F1
100
AcDbEntity
  8
DEFPOINTS
 62
     0
100
AcDbPoint
 10
383.9999999999893
 20
194.803899138
 30
0.0
  0
POINT
  5
FC
330
F1
100
AcDbEntity
  8
DEFPOINTS
 62
     0
100
AcDbPoint
 10
383.9999999999893
 20
368.303899138
 30
0.0
  0
ENDBLK
  5
F3
330
F1
100
AcDbEntity
  8
0
100
AcDbBlockEnd
  0
BLOCK
  5
FF
330
FE
100
AcDbEntity
  8
0
100
AcDbBlockBegin
  2
*D18
 70
     1
 10
0.0
 20
0.0
 30
0.0
  3
*D18
  1

  0
LINE
  5
101
330
FE
100
AcDbEntity
  8
LAY-10
  6
CONTINUOUS
 62
     4
100
AcDbLine
 10
521.4999999999893
 20
121.94998149519
 30
0.0
 11
521.4999999999893
 21
83.949981495189
 31
0.0
  0
LINE
  5
102
330
FE
100
AcDbEntity
  8
LAY-10
  6
CONTINUOUS
 62
     4
100
AcDbLine
 10
408.5000000000093
 20
121.94998149519
 30
0.0
 11
408.5000000000093
 21
83.949981495189
 31
0.0
  0
LINE
  5
103
330
FE
100
AcDbEntity
  8
LAY-10
  6
CONTINUOUS
 62
     4
100
AcDbLine
 10
512.4999999999893
 20
88.449981495189
 30
0.0
 11
417.5000000000093
 21
88.449981495189
 31
0.0
  0
INSERT
  5
104
330
FE
100
AcDbEntity
  8
LAY-10
 62
     4
100
AcDbBlockReference
  2
EX_BNORM
 10
521.4999999999893
 20
88.449981495189
 30
0.0
 41
9.0
 42
9.0
 43
9.0
  0
INSERT
  5
105
330
FE
100
AcDbEntity
  8
LAY-10
 62
     4
100
AcDbBlockReference
  2
EX_BNORM
 10
408.5000000000093
 20
88.449981495189
 30
0.0
 41
9.0
 42
9.0
 43
9.0
 50
180.0
  0
MTEXT
  5
106
330
FE
100
AcDbEntity
  8
LAY-10
 62
     7
100
AcDbMText
 10
464.9999999999993
 20
95.94998149518892
 30
0.0
 40
9.3543312
 41
0.0
 71
     5
 72
     1
  1
Rｃ4（113）
  7
EXCADDIM1
  0
POINT
  5
107
330
FE
100
AcDbEntity
  8
DEFPOINTS
 62
     0
100
AcDbPoint
 10
521.4999999999893
 20
126.44998149519
 30
0.0
  0
POINT
  5
108
330
FE
100
AcDbEntity
  8
DEFPOINTS
 62
     0
100
AcDbPoint
 10
408.5000000000093
 20
126.44998149519
 30
0.0
  0
POINT
  5
109
330
FE
100
AcDbEntity
  8
DEFPOINTS
 62
     0
100
AcDbPoint
 10
408.5000000000093
 20
88.449981495189
 30
0.0
  0
ENDBLK
  5
100
330
FE
100
AcDbEntity
  8
0
100
AcDbBlockEnd
  0
BLOCK
  5
713
330
712
100
AcDbEntity
  8
0
100
AcDbBlockBegin
  2
*D19
 70
     1
 10
0.0
 20
0.0
 30
0.0
  3
*D19
  1

  0
LINE
  5
715
330
712
100
AcDbEntity
  8
LAY-20
  6
CONTINUOUS
 62
     4
100
AcDbLine
 10
390.5
 20
118.44998149519
 30
0.0
 11
298.0
 21
118.44998149519
 31
0.0
  0
LINE
  5
716
330
712
100
AcDbEntity
  8
LAY-20
  6
CONTINUOUS
 62
     4
100
AcDbLine
 10
302.5
 20
125.94998149519
 30
0.0
 11
302.5
 21
185.9499814951899
 31
0.0
  0
INSERT
  5
717
330
712
100
AcDbEntity
  8
LAY-20
 62
     4
100
AcDbBlockReference
  2
EX_BNORM
 10
302.5
 20
118.44998149519
 30
0.0
 41
7.5
 42
7.5
 43
7.5
 50
270.0
  0
INSERT
  5
718
330
712
100
AcDbEntity
  8
LAY-20
 62
     4
100
AcDbBlockReference
  2
EX_BNORM
 10
302.5
 20
193.4499814951899
 30
0.0
 41
7.5
 42
7.5
 43
7.5
 50
90.0
  0
MTEXT
  5
719
330
712
100
AcDbEntity
  8
LAY-20
 62
     7
100
AcDbMText
 10
295.0
 20
155.94998149519
 30
0.0
 40
9.3543312
 41
0.0
 71
     5
 72
     1
  1
75
  7
EXCADDIM1
 11
0.0
 21
1.0
 31
0.0
  0
POINT
  5
71A
330
712
100
AcDbEntity
  8
DEFPOINTS
 62
     0
100
AcDbPoint
 10
395.0
 20
118.44998149519
 30
0.0
  0
POINT
  5
71B
330
712
100
AcDbEntity
  8
DEFPOINTS
 62
     0
100
AcDbPoint
 10
302.5
 20
193.4499814951899
 30
0.0
  0
POINT
  5
71C
330
712
100
AcDbEntity
  8
DEFPOINTS
 62
     0
100
AcDbPoint
 10
302.5
 20
193.4499814951899
 30
0.0
  0
ENDBLK
  5
714
330
712
100
AcDbEntity
  8
0
100
AcDbBlockEnd
  0
BLOCK
  5
71F
330
71E
100
AcDbEntity
  8
0
100
AcDbBlockBegin
  2
*D20
 70
     1
 10
0.0
 20
0.0
 30
0.0
  3
*D20
  1

  0
LINE
  5
721
330
71E
100
AcDbEntity
  8
LAY-20
  6
CONTINUOUS
 62
     4
100
AcDbLine
 10
329.0
 20
193.44998149519
 30
0.0
 11
298.0
 21
193.44998149519
 31
0.0
  0
LINE
  5
722
330
71E
100
AcDbEntity
  8
LAY-20
  6
CONTINUOUS
 62
     4
100
AcDbLine
 10
460.5
 20
338.303899138
 30
0.0
 11
298.0
 21
338.3038991380001
 31
0.0
  0
LINE
  5
723
330
71E
100
AcDbEntity
  8
LAY-20
  6
CONTINUOUS
 62
     4
100
AcDbLine
 10
302.5
 20
200.94998149519
 30
0.0
 11
302.5
 21
330.8038991380001
 31
0.0
  0
INSERT
  5
724
330
71E
100
AcDbEntity
  8
LAY-20
 62
     4
100
AcDbBlockReference
  2
EX_BNORM
 10
302.5
 20
193.44998149519
 30
0.0
 41
7.5
 42
7.5
 43
7.5
 50
270.0
  0
INSERT
  5
725
330
71E
100
AcDbEntity
  8
LAY-20
 62
     4
100
AcDbBlockReference
  2
EX_BNORM
 10
302.5
 20
338.3038991380001
 30
0.0
 41
7.5
 42
7.5
 43
7.5
 50
90.0
  0
MTEXT
  5
726
330
71E
100
AcDbEntity
  8
LAY-20
 62
     7
100
AcDbMText
 10
295.0
 20
265.876940316595
 30
0.0
 40
9.3543312
 41
0.0
 71
     5
 72
     1
  1
145
  7
EXCADDIM1
 11
0.0
 21
1.0
 31
0.0
  0
POINT
  5
727
330
71E
100
AcDbEntity
  8
DEFPOINTS
 62
     0
100
AcDbPoint
 10
333.5
 20
193.44998149519
 30
0.0
  0
POINT
  5
728
330
71E
100
AcDbEntity
  8
DEFPOINTS
 62
     0
100
AcDbPoint
 10
465.0
 20
338.303899138
 30
0.0
  0
POINT
  5
729
330
71E
100
AcDbEntity
  8
DEFPOINTS
 62
     0
100
AcDbPoint
 10
302.5
 20
338.3038991380001
 30
0.0
  0
ENDBLK
  5
720
330
71E
100
AcDbEntity
  8
0
100
AcDbBlockEnd
  0
ENDSEC
  0
SECTION
  2
ENTITIES
  0
DIMENSION
  5
D5
330
1F
100
AcDbEntity
  8
LAY-10
  6
CONTINUOUS
 62
     4
100
AcDbDimension
  2
*D15
 10
332.4999999999993
 20
410.303899138
 30
0.0
 11
464.9999999999991
 21
417.8038991380001
 31
0.0
 70
   160
  1
%%c<>
  3
ISO-25
100
AcDbAlignedDimension
 13
597.4999999999993
 23
183.4499814951901
 33
0.0
 14
332.4999999999993
 24
183.44998149519
 34
0.0
100
AcDbRotatedDimension
1001
ACAD
1000
DSTYLE
1002
{
1070
   270
1070
     2
1070
     6
1000
EX_BNORM
1070
     7
1000
EX_BNORM
1070
    41
1040
9.0
1070
    42
1040
4.5
1070
    44
1040
4.5
1070
    73
1070
     0
1070
    74
1070
     0
1070
    75
1070
     0
1070
    76
1070
     0
1070
    77
1070
     1
1070
    78
1070
     8
1070
   140
1040
9.3543312
1070
   147
1040
0.0
1070
   173
1070
     1
1070
   176
1070
     4
1070
   177
1070
     4
1070
   178
1070
     7
1070
   271
1070
     1
1070
   277
1070
     2
1070
   279
1070
     2
1070
   280
1070
     0
1070
   287
1070
     5
1070
   340
1005
D4
1002
}
  0
DIMENSION
  5
E3
330
1F
100
AcDbEntity
  8
LAY-10
  6
CONTINUOUS
 62
     4
100
AcDbDimension
  2
*D16
 10
342.4999999999993
 20
389.303899138
 30
0.0
 11
464.9999999999991
 21
396.8038991380001
 31
0.0
 70
   160
  1
%%c<>
  3
ISO-25
100
AcDbAlignedDimension
 13
587.4999999999993
 23
193.3038991380001
 33
0.0
 14
342.4999999999993
 24
193.3038991380099
 34
0.0
100
AcDbRotatedDimension
1001
ACAD
1000
DSTYLE
1002
{
1070
   270
1070
     2
1070
     6
1000
EX_BNORM
1070
     7
1000
EX_BNORM
1070
    41
1040
9.0
1070
    42
1040
4.5
1070
    44
1040
4.5
1070
    73
1070
     0
1070
    74
1070
     0
1070
    75
1070
     0
1070
    76
1070
     0
1070
    77
1070
     1
1070
    78
1070
     8
1070
   140
1040
9.3543312
1070
   147
1040
0.0
1070
   173
1070
     1
1070
   176
1070
     4
1070
   177
1070
     4
1070
   178
1070
     7
1070
   271
1070
     1
1070
   277
1070
     2
1070
   279
1070
     2
1070
   280
1070
     0
1070
   287
1070
     5
1070
   340
1005
D4
1002
}
  0
DIMENSION
  5
F0
330
1F
100
AcDbEntity
  8
LAY-10
  6
CONTINUOUS
 62
     4
100
AcDbDimension
  2
*D17
 10
383.9999999999893
 20
368.303899138
 30
0.0
 11
464.9999999999991
 21
375.803899138
 31
0.0
 70
   160
  1
%%c<>
  3
ISO-25
100
AcDbAlignedDimension
 13
546.0000000000093
 23
194.803899138
 33
0.0
 14
383.9999999999893
 24
194.803899138
 34
0.0
100
AcDbRotatedDimension
1001
ACAD
1000
DSTYLE
1002
{
1070
   270
1070
     2
1070
     6
1000
EX_BNORM
1070
     7
1000
EX_BNORM
1070
    41
1040
9.0
1070
    42
1040
4.5
1070
    44
1040
4.5
1070
    73
1070
     0
1070
    74
1070
     0
1070
    75
1070
     0
1070
    76
1070
     0
1070
    77
1070
     1
1070
    78
1070
     8
1070
   140
1040
9.3543312
1070
   147
1040
0.0
1070
   173
1070
     1
1070
   176
1070
     4
1070
   177
1070
     4
1070
   178
1070
     7
1070
   271
1070
     1
1070
   277
1070
     2
1070
   279
1070
     2
1070
   280
1070
     0
1070
   287
1070
     5
1070
   340
1005
D4
1002
}
  0
DIMENSION
  5
FD
330
1F
100
AcDbEntity
  8
LAY-10
  6
CONTINUOUS
 62
     4
100
AcDbDimension
  2
*D18
 10
408.5000000000093
 20
88.449981495189
 30
0.0
 11
464.9999999999993
 21
95.94998149518892
 31
0.0
 70
   160
  1
Rｃ4（<>）
  3
ISO-25
100
AcDbAlignedDimension
 13
521.4999999999893
 23
126.44998149519
 33
0.0
 14
408.5000000000093
 24
126.44998149519
 34
0.0
100
AcDbRotatedDimension
1001
ACAD
1000
DSTYLE
1002
{
1070
   270
1070
     2
1070
     6
1000
EX_BNORM
1070
     7
1000
EX_BNORM
1070
    41
1040
9.0
1070
    42
1040
4.5
1070
    44
1040
4.5
1070
    73
1070
     0
1070
    74
1070
     0
1070
    75
1070
     0
1070
    76
1070
     0
1070
    77
1070
     1
1070
    78
1070
     8
1070
   140
1040
9.3543312
1070
   147
1040
0.0
1070
   173
1070
     1
1070
   176
1070
     4
1070
   177
1070
     4
1070
   178
1070
     7
1070
   271
1070
     1
1070
   277
1070
     2
1070
   279
1070
     2
1070
   280
1070
     0
1070
   287
1070
     5
1070
   340
1005
D4
1002
}
  0
LINE
  5
10A
330
1F
100
AcDbEntity
  8
LAY-10
  6
CONTINUOUS
 62
     7
100
AcDbLine
 10
395.0
 20
161.1408903542001
 30
0.0
 11
397.3090911409952
 21
163.4499814951952
 31
0.0
  0
LINE
  5
10B
330
1F
100
AcDbEntity
  8
LAY-10
  6
CONTINUOUS
 62
     7
100
AcDbLine
 10
395.0
 20
158.3124632294539
 30
0.0
 11
399.5
 21
162.8124632294539
 31
0.0
  0
LINE
  5
10C
330
1F
100
AcDbEntity
  8
LAY-10
  6
CONTINUOUS
 62
     7
100
AcDbLine
 10
395.0
 20
155.4840361047077
 30
0.0
 11
399.5
 21
159.9840361047077
 31
0.0
  0
LINE
  5
10D
330
1F
100
AcDbEntity
  8
LAY-10
  6
CONTINUOUS
 62
     7
100
AcDbLine
 10
395.0
 20
152.6556089799616
 30
0.0
 11
399.5
 21
157.1556089799615
 31
0.0
  0
LINE
  5
10E
330
1F
100
AcDbEntity
  8
LAY-10
  6
CONTINUOUS
 62
     7
100
AcDbLine
 10
395.0
 20
149.8271818552154
 30
0.0
 11
399.5
 21
154.3271818552153
 31
0.0
  0
LINE
  5
10F
330
1F
100
AcDbEntity
  8
LAY-10
  6
CONTINUOUS
 62
     7
100
AcDbLine
 10
395.0
 20
146.9987547304692
 30
0.0
 11
399.5
 21
151.4987547304692
 31
0.0
  0
LINE
  5
110
330
1F
100
AcDbEntity
  8
LAY-10
  6
CONTINUOUS
 62
     7
100
AcDbLine
 10
395.0
 20
144.170327605723
 30
0.0
 11
399.5
 21
148.670327605723
 31
0.0
  0
LINE
  5
111
330
1F
100
AcDbEntity
  8
LAY-10
  6
CONTINUOUS
 62
     7
100
AcDbLine
 10
395.0
 20
141.3419004809769
 30
0.0
 11
399.5
 21
145.8419004809768
 31
0.0
  0
LINE
  5
112
330
1F
100
AcDbEntity
  8
LAY-10
  6
CONTINUOUS
 62
     7
100
AcDbLine
 10
395.0
 20
138.5134733562307
 30
0.0
 11
399.5
 21
143.0134733562306
 31
0.0
  0
LINE
  5
113
330
1F
100
AcDbEntity
  8
LAY-10
  6
CONTINUOUS
 62
     7
100
AcDbLine
 10
395.0
 20
135.6850462314844
 30
0.0
 11
399.5
 21
140.1850462314845
 31
0.0
  0
LINE
  5
114
330
1F
100
AcDbEntity
  8
LAY-10
  6
CONTINUOUS
 62
     7
100
AcDbLine
 10
395.0
 20
132.8566191067383
 30
0.0
 11
399.5
 21
137.3566191067383
 31
0.0
  0
LINE
  5
115
330
1F
100
AcDbEntity
  8
LAY-10
  6
CONTINUOUS
 62
     7
100
AcDbLine
 10
395.0
 20
130.0281919819921
 30
0.0
 11
399.5
 21
134.5281919819921
 31
0.0
  0
LINE
  5
116
330
1F
100
AcDbEntity
  8
LAY-10
  6
CONTINUOUS
 62
     7
100
AcDbLine
 10
395.0
 20
127.199764857246
 30
0.0
 11
399.5
 21
131.6997648572459
 31
0.0
  0
LINE
  5
117
330
1F
100
AcDbEntity
  8
LAY-10
  6
CONTINUOUS
 62
     7
100
AcDbLine
 10
395.0
 20
124.3713377324998
 30
0.0
 11
399.5
 21
128.8713377324998
 31
0.0
  0
LINE
  5
118
330
1F
100
AcDbEntity
  8
LAY-10
  6
CONTINUOUS
 62
     7
100
AcDbLine
 10
395.0
 20
121.5429106077535
 30
0.0
 11
399.5
 21
126.0429106077536
 31
0.0
  0
LINE
  5
119
330
1F
100
AcDbEntity
  8
LAY-10
  6
CONTINUOUS
 62
     7
100
AcDbLine
 10
395.0
 20
118.7144834830074
 30
0.0
 11
399.5
 21
123.2144834830074
 31
0.0
  0
LINE
  5
11A
330
1F
100
AcDbEntity
  8
LAY-10
  6
CONTINUOUS
 62
     7
100
AcDbLine
 10
397.5639251369289
 20
118.44998149519
 30
0.0
 11
399.5
 21
120.3860563582612
 31
0.0
  0
LINE
  5
11B
330
1F
100
AcDbEntity
  8
LAY-10
  6
CONTINUOUS
 62
     7
100
AcDbLine
 10
530.5000000000001
 20
160.8763883663826
 30
0.0
 11
533.0735931288117
 21
163.4499814951942
 31
0.0
  0
LINE
  5
11C
330
1F
100
AcDbEntity
  8
LAY-10
  6
CONTINUOUS
 62
     7
100
AcDbLine
 10
530.5000000000001
 20
158.0479612416364
 30
0.0
 11
535.0000000000001
 21
162.5479612416364
 31
0.0
  0
LINE
  5
11D
330
1F
100
AcDbEntity
  8
LAY-10
  6
CONTINUOUS
 62
     7
100
AcDbLine
 10
530.5000000000001
 20
155.2195341168902
 30
0.0
 11
535.0
 21
159.7195341168901
 31
0.0
  0
LINE
  5
11E
330
1F
100
AcDbEntity
  8
LAY-10
  6
CONTINUOUS
 62
     7
100
AcDbLine
 10
530.5
 20
152.3911069921439
 30
0.0
 11
535.0000000000001
 21
156.891106992144
 31
0.0
  0
LINE
  5
11F
330
1F
100
AcDbEntity
  8
LAY-10
  6
CONTINUOUS
 62
     7
100
AcDbLine
 10
530.5000000000001
 20
149.5626798673978
 30
0.0
 11
535.0000000000001
 21
154.0626798673978
 31
0.0
  0
LINE
  5
120
330
1F
100
AcDbEntity
  8
LAY-10
  6
CONTINUOUS
 62
     7
100
AcDbLine
 10
530.5
 20
146.7342527426515
 30
0.0
 11
535.0000000000001
 21
151.2342527426515
 31
0.0
  0
LINE
  5
121
330
1F
100
AcDbEntity
  8
LAY-10
  6
CONTINUOUS
 62
     7
100
AcDbLine
 10
530.5000000000001
 20
143.9058256179054
 30
0.0
 11
535.0000000000001
 21
148.4058256179053
 31
0.0
  0
LINE
  5
122
330
1F
100
AcDbEntity
  8
LAY-10
  6
CONTINUOUS
 62
     7
100
AcDbLine
 10
530.5000000000001
 20
141.0773984931591
 30
0.0
 11
535.0000000000001
 21
145.5773984931591
 31
0.0
  0
LINE
  5
123
330
1F
100
AcDbEntity
  8
LAY-10
  6
CONTINUOUS
 62
     7
100
AcDbLine
 10
530.5000000000001
 20
138.2489713684129
 30
0.0
 11
535.0000000000001
 21
142.748971368413
 31
0.0
  0
LINE
  5
124
330
1F
100
AcDbEntity
  8
LAY-10
  6
CONTINUOUS
 62
     7
100
AcDbLine
 10
530.5
 20
135.4205442436667
 30
0.0
 11
535.0000000000001
 21
139.9205442436667
 31
0.0
  0
LINE
  5
125
330
1F
100
AcDbEntity
  8
LAY-10
  6
CONTINUOUS
 62
     7
100
AcDbLine
 10
530.5000000000001
 20
132.5921171189205
 30
0.0
 11
535.0
 21
137.0921171189204
 31
0.0
  0
LINE
  5
126
330
1F
100
AcDbEntity
  8
LAY-10
  6
CONTINUOUS
 62
     7
100
AcDbLine
 10
530.5
 20
129.7636899941743
 30
0.0
 11
535.0000000000001
 21
134.2636899941743
 31
0.0
  0
LINE
  5
127
330
1F
100
AcDbEntity
  8
LAY-10
  6
CONTINUOUS
 62
     7
100
AcDbLine
 10
530.5000000000001
 20
126.9352628694281
 30
0.0
 11
535.0000000000001
 21
131.435262869428
 31
0.0
  0
LINE
  5
128
330
1F
100
AcDbEntity
  8
LAY-10
  6
CONTINUOUS
 62
     7
100
AcDbLine
 10
530.5
 20
124.1068357446818
 30
0.0
 11
535.0000000000001
 21
128.6068357446819
 31
0.0
  0
LINE
  5
129
330
1F
100
AcDbEntity
  8
LAY-10
  6
CONTINUOUS
 62
     7
100
AcDbLine
 10
530.5
 20
121.2784086199356
 30
0.0
 11
535.0
 21
125.7784086199356
 31
0.0
  0
LINE
  5
12A
330
1F
100
AcDbEntity
  8
LAY-10
  6
CONTINUOUS
 62
     7
100
AcDbLine
 10
530.5000000000007
 20
118.44998149519
 30
0.0
 11
535.0
 21
122.9499814951894
 31
0.0
  0
LINE
  5
12B
330
1F
100
AcDbEntity
  8
LAY-10
  6
CONTINUOUS
 62
     7
100
AcDbLine
 10
533.3284271247468
 20
118.44998149519
 30
0.0
 11
535.0000000000001
 21
120.1215543704433
 31
0.0
  0
CIRCLE
  5
12C
330
1F
100
AcDbEntity
  8
LAY-10
  6
CONTINUOUS
 62
     7
100
AcDbCircle
 10
465.0
 20
630.0
 30
0.0
 40
131.5
  0
CIRCLE
  5
12D
330
1F
100
AcDbEntity
  8
LAY-10
  6
CONTINUOUS
 62
     7
100
AcDbCircle
 10
465.0
 20
630.0
 30
0.0
 40
132.5
  0
CIRCLE
  5
12E
330
1F
100
AcDbEntity
  8
LAY-10
  6
CONTINUOUS
 62
     7
100
AcDbCircle
 10
465.0000000000002
 20
630.0
 30
0.0
 40
115.5
  0
CIRCLE
  5
12F
330
1F
100
AcDbEntity
  8
LAY-10
  6
CONTINUOUS
 62
     7
100
AcDbCircle
 10
465.0000000000002
 20
630.0
 30
0.0
 40
122.5
  0
ARC
  5
130
330
1F
100
AcDbEntity
  8
LAY-10
  6
CONTINUOUS
 62
     7
100
AcDbCircle
 10
450.4492389717608
 20
715.7745612259199
 30
0.0
 40
1.0
100
AcDbArc
 50
99.627973930777
 51
190.2865606114788
  0
LINE
  5
131
330
1F
100
AcDbEntity
  8
LAY-10
  6
CONTINUOUS
 62
     7
100
AcDbLine
 10
449.8224790279469
 20
713.6280028288545
 30
0.0
 11
449.465312020764
 21
715.5959897973485
 31
0.0
  0
ARC
  5
132
330
1F
100
AcDbEntity
  8
LAY-10
  6
CONTINUOUS
 62
     7
100
AcDbCircle
 10
450.8064059789438
 20
713.806574257426
 30
0.0
 40
1.0
100
AcDbArc
 50
190.2865606114759
 51
279.6124770667991
  0
ARC
  5
133
330
1F
100
AcDbEntity
  8
LAY-10
  6
CONTINUOUS
 62
     7
100
AcDbCircle
 10
465.0000000000002
 20
630.0000000000001
 30
0.0
 40
88.0
100
AcDbArc
 50
80.37202606922247
 51
99.62797393077764
  0
ARC
  5
134
330
1F
100
AcDbEntity
  8
LAY-10
  6
CONTINUOUS
 62
     7
100
AcDbCircle
 10
479.5507610282393
 20
715.77456122592
 30
0.0
 40
1.0
100
AcDbArc
 50
349.7134393885239
 51
80.37202606922304
  0
LINE
  5
135
330
1F
100
AcDbEntity
  8
LAY-10
  6
CONTINUOUS
 62
     7
100
AcDbLine
 10
480.1775209720533
 20
713.6280028288545
 30
0.0
 11
480.534687979236
 21
715.5959897973486
 31
0.0
  0
ARC
  5
136
330
1F
100
AcDbEntity
  8
LAY-10
  6
CONTINUOUS
 62
     7
100
AcDbCircle
 10
465.0000000000002
 20
630.0000000000001
 30
0.0
 40
84.0
100
AcDbArc
 50
80.3875229332006
 51
99.61247706679963
  0
ARC
  5
137
330
1F
100
AcDbEntity
  8
LAY-10
  6
CONTINUOUS
 62
     7
100
AcDbCircle
 10
479.1935940210564
 20
713.806574257426
 30
0.0
 40
1.0
100
AcDbArc
 50
260.3875229331993
 51
349.7134393885244
  0
ARC
  5
138
330
1F
100
AcDbEntity
  8
LAY-10
  6
CONTINUOUS
 62
     7
100
AcDbCircle
 10
480.7142857142846
 20
716.5855716877232
 30
0.0
 40
1.0
100
AcDbArc
 50
349.7134393885239
 51
79.7134393885276
  0
LINE
  5
139
330
1F
100
AcDbEntity
  8
LAY-10
  6
CONTINUOUS
 62
     7
100
AcDbLine
 10
481.6982126652815
 20
716.4070002591517
 30
0.0
 11
480.9839269509957
 21
712.4712924551644
 31
0.0
  0
ARC
  5
13A
330
1F
100
AcDbEntity
  8
LAY-10
  6
CONTINUOUS
 62
     7
100
AcDbCircle
 10
479.9999999999988
 20
712.6498638837357
 30
0.0
 40
1.0
100
AcDbArc
 50
259.7134393885277
 51
349.7134393885244
  0
ARC
  5
13B
330
1F
100
AcDbEntity
  8
LAY-10
  6
CONTINUOUS
 62
     7
100
AcDbCircle
 10
450.0000000000011
 20
712.6498638837357
 30
0.0
 40
1.0
100
AcDbArc
 50
190.2865606114756
 51
280.286560611474
  0
LINE
  5
13C
330
1F
100
AcDbEntity
  8
LAY-10
  6
CONTINUOUS
 62
     7
100
AcDbLine
 10
448.3017873347184
 20
716.4070002591517
 30
0.0
 11
449.0160730490043
 21
712.4712924551643
 31
0.0
  0
ARC
  5
13D
330
1F
100
AcDbEntity
  8
LAY-10
  6
CONTINUOUS
 62
     7
100
AcDbCircle
 10
465.0000000000002
 20
630.0000000000001
 30
0.0
 40
89.0
100
AcDbArc
 50
79.71343938852588
 51
100.2865606114743
  0
ARC
  5
13E
330
1F
100
AcDbEntity
  8
LAY-10
  6
CONTINUOUS
 62
     7
100
AcDbCircle
 10
449.2857142857153
 20
716.5855716877231
 30
0.0
 40
1.0
100
AcDbArc
 50
100.286560611474
 51
190.2865606114756
  0
ARC
  5
13F
330
1F
100
AcDbEntity
  8
LAY-10
  6
CONTINUOUS
 62
     7
100
AcDbCircle
 10
495.2859519180983
 20
711.55832953423
 30
0.0
 40
1.0
100
AcDbArc
 50
69.62797393077672
 51
160.2865606114764
  0
ARC
  5
140
330
1F
100
AcDbEntity
  8
LAY-10
  6
CONTINUOUS
 62
     7
100
AcDbCircle
 10
494.6838152129544
 20
712.8424475399091
 30
0.0
 40
1.0
100
AcDbArc
 50
70.2865606114733
 51
160.2865606114764
  0
LINE
  5
141
330
1F
100
AcDbEntity
  8
LAY-10
  6
CONTINUOUS
 62
     7
100
AcDbLine
 10
493.7424237636371
 20
713.1797636218747
 30
0.0
 11
492.3931594357753
 21
709.414197824606
 31
0.0
  0
ARC
  5
142
330
1F
100
AcDbEntity
  8
LAY-10
  6
CONTINUOUS
 62
     7
100
AcDbCircle
 10
493.3345508850925
 20
709.0768817426405
 30
0.0
 40
1.0
100
AcDbArc
 50
160.2865606114764
 51
250.2865606114733
  0
LINE
  5
143
330
1F
100
AcDbEntity
  8
LAY-10
  6
CONTINUOUS
 62
     7
100
AcDbLine
 10
493.6698826861482
 20
710.0127354035716
 30
0.0
 11
494.3445604687813
 21
711.8956456161953
 31
0.0
  0
ARC
  5
144
330
1F
100
AcDbEntity
  8
LAY-10
  6
CONTINUOUS
 62
     7
100
AcDbCircle
 10
494.6112741354655
 20
709.675419321606
 30
0.0
 40
1.0
100
AcDbArc
 50
160.2865606114744
 51
249.6124770667988
  0
ARC
  5
145
330
1F
100
AcDbEntity
  8
LAY-10
  6
CONTINUOUS
 62
     7
100
AcDbCircle
 10
464.9999999999902
 20
630.0
 30
0.0
 40
88.0
100
AcDbArc
 50
50.37202606922245
 51
69.62797393077763
  0
ARC
  5
146
330
1F
100
AcDbEntity
  8
LAY-10
  6
CONTINUOUS
 62
     7
100
AcDbCircle
 10
520.4886093078021
 20
697.0075685059908
 30
0.0
 40
1.0
100
AcDbArc
 50
319.7134393885233
 51
50.3720260692228
  0
ARC
  5
147
330
1F
100
AcDbEntity
  8
LAY-10
  6
CONTINUOUS
 62
     7
100
AcDbCircle
 10
464.9999999999902
 20
630.0
 30
0.0
 40
84.0
100
AcDbArc
 50
50.38752293320052
 51
69.61247706679957
  0
LINE
  5
148
330
1F
100
AcDbEntity
  8
LAY-10
  6
CONTINUOUS
 62
     7
100
AcDbLine
 10
519.9581201426868
 20
694.8352144315182
 30
0.0
 11
521.2514293285476
 21
696.3609576369594
 31
0.0
  0
ARC
  5
149
330
1F
100
AcDbEntity
  8
LAY-10
  6
CONTINUOUS
 62
     7
100
AcDbCircle
 10
519.1953001219408
 20
695.4818253005496
 30
0.0
 40
1.0
100
AcDbArc
 50
230.3875229332007
 51
319.713439388523
  0
ARC
  5
14A
330
1F
100
AcDbEntity
  8
LAY-10
  6
CONTINUOUS
 62
     7
100
AcDbCircle
 10
464.9999999999902
 20
630.0
 30
0.0
 40
89.0
100
AcDbArc
 50
49.71343938852581
 51
70.28656061147427
  0
ARC
  5
14B
330
1F
100
AcDbEntity
  8
LAY-10
  6
CONTINUOUS
 62
     7
100
AcDbCircle
 10
521.9017564747492
 20
697.1281618256245
 30
0.0
 40
1.0
100
AcDbArc
 50
319.713439388523
 51
49.71343938852542
  0
LINE
  5
14C
330
1F
100
AcDbEntity
  8
LAY-10
  6
CONTINUOUS
 62
     7
100
AcDbLine
 10
522.6645764954951
 20
696.4815509565932
 30
0.0
 11
520.0781330193695
 21
693.4302708736103
 31
0.0
  0
ARC
  5
14D
330
1F
100
AcDbEntity
  8
LAY-10
  6
CONTINUOUS
 62
     7
100
AcDbCircle
 10
464.9999999999902
 20
630.0
 30
0.0
 40
83.0
100
AcDbArc
 50
49.71343938852593
 51
70.28656061147427
  0
ARC
  5
14E
330
1F
100
AcDbEntity
  8
LAY-10
  6
CONTINUOUS
 62
     7
100
AcDbCircle
 10
519.3153129986235
 20
694.0768817426417
 30
0.0
 40
1.0
100
AcDbArc
 50
229.7134393885255
 51
319.713439388523
  0
ARC
  5
14F
330
1F
100
AcDbEntity
  8
LAY-10
  6
CONTINUOUS
 62
     7
100
AcDbCircle
 10
550.77456122592
 20
644.5507610282391
 30
0.0
 40
1.0
100
AcDbArc
 50
9.627973930776985
 51
100.286560611475
  0
LINE
  5
150
330
1F
100
AcDbEntity
  8
LAY-10
  6
CONTINUOUS
 62
     7
100
AcDbLine
 10
548.6280028288547
 20
645.1775209720533
 30
0.0
 11
550.5959897973485
 21
645.534687979236
 31
0.0
  0
ARC
  5
151
330
1F
100
AcDbEntity
  8
LAY-10
  6
CONTINUOUS
 62
     7
100
AcDbCircle
 10
548.8065742574258
 20
644.1935940210565
 30
0.0
 40
1.0
100
AcDbArc
 50
100.2865606114756
 51
189.6124770668007
  0
ARC
  5
152
330
1F
100
AcDbEntity
  8
LAY-10
  6
CONTINUOUS
 62
     7
100
AcDbCircle
 10
547.6498638837356
 20
644.9999999999989
 30
0.0
 40
1.0
100
AcDbArc
 50
100.286560611475
 51
190.2865606114724
  0
LINE
  5
153
330
1F
100
AcDbEntity
  8
LAY-10
  6
CONTINUOUS
 62
     7
100
AcDbLine
 10
551.4070002591516
 20
646.6982126652815
 30
0.0
 11
547.4712924551645
 21
645.9839269509957
 31
0.0
  0
ARC
  5
154
330
1F
100
AcDbEntity
  8
LAY-10
  6
CONTINUOUS
 62
     7
100
AcDbCircle
 10
551.5855716877231
 20
645.7142857142846
 30
0.0
 40
1.0
100
AcDbArc
 50
10.28656061147242
 51
100.2865606114756
  0
ARC
  5
155
330
1F
100
AcDbEntity
  8
LAY-10
  6
CONTINUOUS
 62
     7
100
AcDbCircle
 10
465.0000000000002
 20
630.0
 30
0.0
 40
88.0
100
AcDbArc
 50
350.3720260692224
 51
9.627973930777559
  0
ARC
  5
156
330
1F
100
AcDbEntity
  8
LAY-10
  6
CONTINUOUS
 62
     7
100
AcDbCircle
 10
550.77456122592
 20
615.4492389717609
 30
0.0
 40
1.0
100
AcDbArc
 50
259.7134393885245
 51
350.3720260692231
  0
LINE
  5
157
330
1F
100
AcDbEntity
  8
LAY-10
  6
CONTINUOUS
 62
     7
100
AcDbLine
 10
548.6280028288547
 20
614.8224790279468
 30
0.0
 11
550.5959897973485
 21
614.465312020764
 31
0.0
  0
ARC
  5
158
330
1F
100
AcDbEntity
  8
LAY-10
  6
CONTINUOUS
 62
     7
100
AcDbCircle
 10
465.0000000000002
 20
630.0
 30
0.0
 40
84.0
100
AcDbArc
 50
350.3875229332005
 51
9.612477066799546
  0
ARC
  5
159
330
1F
100
AcDbEntity
  8
LAY-10
  6
CONTINUOUS
 62
     7
100
AcDbCircle
 10
548.8065742574258
 20
615.8064059789435
 30
0.0
 40
1.0
100
AcDbArc
 50
170.3875229331993
 51
259.7134393885239
  0
ARC
  5
15A
330
1F
100
AcDbEntity
  8
LAY-10
  6
CONTINUOUS
 62
     7
100
AcDbCircle
 10
547.6498638837356
 20
615.0000000000011
 30
0.0
 40
1.0
100
AcDbArc
 50
169.7134393885276
 51
259.7134393885245
  0
LINE
  5
15B
330
1F
100
AcDbEntity
  8
LAY-10
  6
CONTINUOUS
 62
     7
100
AcDbLine
 10
551.4070002591516
 20
613.3017873347185
 30
0.0
 11
547.4712924551645
 21
614.0160730490043
 31
0.0
  0
ARC
  5
15C
330
1F
100
AcDbEntity
  8
LAY-10
  6
CONTINUOUS
 62
     7
100
AcDbCircle
 10
465.0000000000002
 20
630.0
 30
0.0
 40
89.0
100
AcDbArc
 50
349.7134393885258
 51
10.2865606114742
  0
ARC
  5
15D
330
1F
100
AcDbEntity
  8
LAY-10
  6
CONTINUOUS
 62
     7
100
AcDbCircle
 10
551.5855716877231
 20
614.2857142857154
 30
0.0
 40
1.0
100
AcDbArc
 50
259.7134393885245
 51
349.7134393885277
  0
ARC
  5
15E
330
1F
100
AcDbEntity
  8
LAY-10
  6
CONTINUOUS
 62
     7
100
AcDbCircle
 10
532.007568505981
 20
685.4886093078117
 30
0.0
 40
1.0
100
AcDbArc
 50
39.62797393077722
 51
130.2865606114746
  0
ARC
  5
15F
330
1F
100
AcDbEntity
  8
LAY-10
  6
CONTINUOUS
 62
     7
100
AcDbCircle
 10
532.1281618256148
 20
686.901756474759
 30
0.0
 40
1.0
100
AcDbArc
 50
40.28656061147456
 51
130.2865606114746
  0
LINE
  5
160
330
1F
100
AcDbEntity
  8
LAY-10
  6
CONTINUOUS
 62
     7
100
AcDbLine
 10
531.4815509565833
 20
687.6645764955048
 30
0.0
 11
528.4302708736004
 21
685.0781330193792
 31
0.0
  0
ARC
  5
161
330
1F
100
AcDbEntity
  8
LAY-10
  6
CONTINUOUS
 62
     7
100
AcDbCircle
 10
529.0768817426319
 20
684.3153129986334
 30
0.0
 40
1.0
100
AcDbArc
 50
130.2865606114746
 51
220.2865606114746
  0
LINE
  5
162
330
1F
100
AcDbEntity
  8
LAY-10
  6
CONTINUOUS
 62
     7
100
AcDbLine
 10
529.8352144315086
 20
684.9581201426964
 30
0.0
 11
531.3609576369495
 21
686.2514293285574
 31
0.0
  0
ARC
  5
163
330
1F
100
AcDbEntity
  8
LAY-10
  6
CONTINUOUS
 62
     7
100
AcDbCircle
 10
530.4818253005396
 20
684.1953001219507
 30
0.0
 40
1.0
100
AcDbArc
 50
130.2865606114774
 51
219.6124770667993
  0
ARC
  5
164
330
1F
100
AcDbEntity
  8
LAY-10
  6
CONTINUOUS
 62
     7
100
AcDbCircle
 10
464.9999999999902
 20
630.0
 30
0.0
 40
88.0
100
AcDbArc
 50
20.37202606922251
 51
39.62797393077769
  0
ARC
  5
165
330
1F
100
AcDbEntity
  8
LAY-10
  6
CONTINUOUS
 62
     7
100
AcDbCircle
 10
546.5583295342203
 20
660.2859519181083
 30
0.0
 40
1.0
100
AcDbArc
 50
289.7134393885249
 51
20.37202606922331
  0
LINE
  5
166
330
1F
100
AcDbEntity
  8
LAY-10
  6
CONTINUOUS
 62
     7
100
AcDbLine
 10
545.0127354035617
 20
658.6698826861581
 30
0.0
 11
546.8956456161854
 21
659.3445604687912
 31
0.0
  0
ARC
  5
167
330
1F
100
AcDbEntity
  8
LAY-10
  6
CONTINUOUS
 62
     7
100
AcDbCircle
 10
464.9999999999902
 20
630.0
 30
0.0
 40
84.0
100
AcDbArc
 50
20.38752293320058
 51
39.61247706679956
  0
ARC
  5
168
330
1F
100
AcDbEntity
  8
LAY-10
  6
CONTINUOUS
 62
     7
100
AcDbCircle
 10
544.6754193215961
 20
659.6112741354752
 30
0.0
 40
1.0
100
AcDbArc
 50
200.3875229332012
 51
289.7134393885237
  0
ARC
  5
169
330
1F
100
AcDbEntity
  8
LAY-10
  6
CONTINUOUS
 62
     7
100
AcDbCircle
 10
464.9999999999902
 20
630.0
 30
0.0
 40
83.0
100
AcDbArc
 50
19.71343938852592
 51
40.28656061147427
  0
ARC
  5
16A
330
1F
100
AcDbEntity
  8
LAY-10
  6
CONTINUOUS
 62
     7
100
AcDbCircle
 10
544.0768817426306
 20
658.3345508851022
 30
0.0
 40
1.0
100
AcDbArc
 50
199.7134393885267
 51
289.7134393885249
  0
LINE
  5
16B
330
1F
100
AcDbEntity
  8
LAY-10
  6
CONTINUOUS
 62
     7
100
AcDbLine
 10
548.1797636218648
 20
658.742423763647
 30
0.0
 11
544.4141978245962
 21
657.3931594357852
 31
0.0
  0
ARC
  5
16C
330
1F
100
AcDbEntity
  8
LAY-10
  6
CONTINUOUS
 62
     7
100
AcDbCircle
 10
464.9999999999902
 20
630.0
 30
0.0
 40
89.0
100
AcDbArc
 50
19.71343938852586
 51
40.28656061147433
  0
ARC
  5
16D
330
1F
100
AcDbEntity
  8
LAY-10
  6
CONTINUOUS
 62
     7
100
AcDbCircle
 10
547.8424475398992
 20
659.6838152129642
 30
0.0
 40
1.0
100
AcDbArc
 50
289.7134393885249
 51
19.71343938852673
  0
ARC
  5
16E
330
1F
100
AcDbEntity
  8
LAY-10
  6
CONTINUOUS
 62
     7
100
AcDbCircle
 10
379.2254387740804
 20
644.5507610282391
 30
0.0
 40
1.0
100
AcDbArc
 50
79.71343938852439
 51
170.3720260692231
  0
LINE
  5
16F
330
1F
100
AcDbEntity
  8
LAY-10
  6
CONTINUOUS
 62
     7
100
AcDbLine
 10
381.3719971711459
 20
645.1775209720533
 30
0.0
 11
379.4040102026518
 21
645.534687979236
 31
0.0
  0
ARC
  5
170
330
1F
100
AcDbEntity
  8
LAY-10
  6
CONTINUOUS
 62
     7
100
AcDbCircle
 10
381.1934257425744
 20
644.1935940210565
 30
0.0
 40
1.0
100
AcDbArc
 50
350.3875229331993
 51
79.71343938852439
  0
ARC
  5
171
330
1F
100
AcDbEntity
  8
LAY-10
  6
CONTINUOUS
 62
     7
100
AcDbCircle
 10
382.3501361162646
 20
644.9999999999989
 30
0.0
 40
1.0
100
AcDbArc
 50
349.7134393885277
 51
79.71343938852439
  0
LINE
  5
172
330
1F
100
AcDbEntity
  8
LAY-10
  6
CONTINUOUS
 62
     7
100
AcDbLine
 10
378.5929997408487
 20
646.6982126652815
 30
0.0
 11
382.5287075448362
 21
645.9839269509957
 31
0.0
  0
ARC
  5
173
330
1F
100
AcDbEntity
  8
LAY-10
  6
CONTINUOUS
 62
     7
100
AcDbCircle
 10
378.4144283122773
 20
645.7142857142846
 30
0.0
 40
1.0
100
AcDbArc
 50
79.71343938852439
 51
169.7134393885244
  0
ARC
  5
174
330
1F
100
AcDbEntity
  8
LAY-10
  6
CONTINUOUS
 62
     7
100
AcDbCircle
 10
465.0000000000002
 20
630.0
 30
0.0
 40
88.0
100
AcDbArc
 50
170.3720260692225
 51
189.6279739307776
  0
ARC
  5
175
330
1F
100
AcDbEntity
  8
LAY-10
  6
CONTINUOUS
 62
     7
100
AcDbCircle
 10
379.2254387740804
 20
615.4492389717609
 30
0.0
 40
1.0
100
AcDbArc
 50
189.627973930777
 51
280.2865606114756
  0
LINE
  5
176
330
1F
100
AcDbEntity
  8
LAY-10
  6
CONTINUOUS
 62
     7
100
AcDbLine
 10
381.3719971711459
 20
614.8224790279468
 30
0.0
 11
379.4040102026518
 21
614.465312020764
 31
0.0
  0
ARC
  5
177
330
1F
100
AcDbEntity
  8
LAY-10
  6
CONTINUOUS
 62
     7
100
AcDbCircle
 10
465.0000000000002
 20
630.0
 30
0.0
 40
84.0
100
AcDbArc
 50
170.3875229332004
 51
189.6124770667995
  0
ARC
  5
178
330
1F
100
AcDbEntity
  8
LAY-10
  6
CONTINUOUS
 62
     7
100
AcDbCircle
 10
381.1934257425744
 20
615.8064059789436
 30
0.0
 40
1.0
100
AcDbArc
 50
280.286560611474
 51
9.61247706680075
  0
ARC
  5
179
330
1F
100
AcDbEntity
  8
LAY-10
  6
CONTINUOUS
 62
     7
100
AcDbCircle
 10
382.3501361162646
 20
615.0000000000011
 30
0.0
 40
1.0
100
AcDbArc
 50
280.2865606114756
 51
10.28656061147563
  0
LINE
  5
17A
330
1F
100
AcDbEntity
  8
LAY-10
  6
CONTINUOUS
 62
     7
100
AcDbLine
 10
378.5929997408487
 20
613.3017873347185
 30
0.0
 11
382.5287075448359
 21
614.0160730490043
 31
0.0
  0
ARC
  5
17B
330
1F
100
AcDbEntity
  8
LAY-10
  6
CONTINUOUS
 62
     7
100
AcDbCircle
 10
465.0000000000002
 20
630.0
 30
0.0
 40
89.0
100
AcDbArc
 50
169.7134393885258
 51
190.2865606114742
  0
ARC
  5
17C
330
1F
100
AcDbEntity
  8
LAY-10
  6
CONTINUOUS
 62
     7
100
AcDbCircle
 10
378.4144283122773
 20
614.2857142857154
 30
0.0
 40
1.0
100
AcDbArc
 50
190.2865606114692
 51
280.2865606114756
  0
ARC
  5
17D
330
1F
100
AcDbEntity
  8
LAY-10
  6
CONTINUOUS
 62
     7
100
AcDbCircle
 10
434.714048081902
 20
711.55832953423
 30
0.0
 40
1.0
100
AcDbArc
 50
19.71343938852369
 51
110.3720260692233
  0
ARC
  5
17E
330
1F
100
AcDbEntity
  8
LAY-10
  6
CONTINUOUS
 62
     7
100
AcDbCircle
 10
435.316184787046
 20
712.8424475399091
 30
0.0
 40
1.0
100
AcDbArc
 50
19.71343938852369
 51
109.7134393885268
  0
LINE
  5
17F
330
1F
100
AcDbEntity
  8
LAY-10
  6
CONTINUOUS
 62
     7
100
AcDbLine
 10
436.2575762363633
 20
713.1797636218747
 30
0.0
 11
437.6068405642252
 21
709.414197824606
 31
0.0
  0
ARC
  5
180
330
1F
100
AcDbEntity
  8
LAY-10
  6
CONTINUOUS
 62
     7
100
AcDbCircle
 10
436.6654491149081
 20
709.0768817426405
 30
0.0
 40
1.0
100
AcDbArc
 50
289.7134393885268
 51
19.71343938852369
  0
LINE
  5
181
330
1F
100
AcDbEntity
  8
LAY-10
  6
CONTINUOUS
 62
     7
100
AcDbLine
 10
436.3301173138523
 20
710.0127354035716
 30
0.0
 11
435.6554395312191
 21
711.8956456161953
 31
0.0
  0
ARC
  5
182
330
1F
100
AcDbEntity
  8
LAY-10
  6
CONTINUOUS
 62
     7
100
AcDbCircle
 10
435.388725864535
 20
709.675419321606
 30
0.0
 40
1.0
100
AcDbArc
 50
290.3875229332013
 51
19.71343938852673
  0
ARC
  5
183
330
1F
100
AcDbEntity
  8
LAY-10
  6
CONTINUOUS
 62
     7
100
AcDbCircle
 10
465.0000000000102
 20
630.0
 30
0.0
 40
88.0
100
AcDbArc
 50
110.3720260692223
 51
129.6279739307776
  0
ARC
  5
184
330
1F
100
AcDbEntity
  8
LAY-10
  6
CONTINUOUS
 62
     7
100
AcDbCircle
 10
409.5113906921986
 20
697.0075685059908
 30
0.0
 40
1.0
100
AcDbArc
 50
129.6279739307772
 51
220.2865606114771
  0
ARC
  5
185
330
1F
100
AcDbEntity
  8
LAY-10
  6
CONTINUOUS
 62
     7
100
AcDbCircle
 10
465.0000000000102
 20
630.0
 30
0.0
 40
84.0
100
AcDbArc
 50
110.3875229332004
 51
129.6124770667995
  0
LINE
  5
186
330
1F
100
AcDbEntity
  8
LAY-10
  6
CONTINUOUS
 62
     7
100
AcDbLine
 10
410.0418798573139
 20
694.8352144315182
 30
0.0
 11
408.7485706714529
 21
696.3609576369594
 31
0.0
  0
ARC
  5
187
330
1F
100
AcDbEntity
  8
LAY-10
  6
CONTINUOUS
 62
     7
100
AcDbCircle
 10
410.8046998780596
 20
695.4818253005496
 30
0.0
 40
1.0
100
AcDbArc
 50
220.2865606114771
 51
309.6124770667992
  0
ARC
  5
188
330
1F
100
AcDbEntity
  8
LAY-10
  6
CONTINUOUS
 62
     7
100
AcDbCircle
 10
465.0000000000102
 20
630.0
 30
0.0
 40
89.0
100
AcDbArc
 50
109.7134393885257
 51
130.2865606114742
  0
ARC
  5
189
330
1F
100
AcDbEntity
  8
LAY-10
  6
CONTINUOUS
 62
     7
100
AcDbCircle
 10
408.0982435252513
 20
697.1281618256245
 30
0.0
 40
1.0
100
AcDbArc
 50
130.2865606114746
 51
220.2865606114771
  0
LINE
  5
18A
330
1F
100
AcDbEntity
  8
LAY-10
  6
CONTINUOUS
 62
     7
100
AcDbLine
 10
407.3354235045056
 20
696.4815509565932
 30
0.0
 11
409.921866980631
 21
693.4302708736103
 31
0.0
  0
ARC
  5
18B
330
1F
100
AcDbEntity
  8
LAY-10
  6
CONTINUOUS
 62
     7
100
AcDbCircle
 10
465.0000000000102
 20
630.0
 30
0.0
 40
83.0
100
AcDbArc
 50
109.7134393885257
 51
130.286560611474
  0
ARC
  5
18C
330
1F
100
AcDbEntity
  8
LAY-10
  6
CONTINUOUS
 62
     7
100
AcDbCircle
 10
410.6846870013769
 20
694.0768817426417
 30
0.0
 40
1.0
100
AcDbArc
 50
220.2865606114771
 51
310.2865606114746
  0
ARC
  5
18D
330
1F
100
AcDbEntity
  8
LAY-10
  6
CONTINUOUS
 62
     7
100
AcDbCircle
 10
397.9924314940194
 20
685.4886093078117
 30
0.0
 40
1.0
100
AcDbArc
 50
49.71343938852542
 51
140.3720260692228
  0
ARC
  5
18E
330
1F
100
AcDbEntity
  8
LAY-10
  6
CONTINUOUS
 62
     7
100
AcDbCircle
 10
397.8718381743859
 20
686.901756474759
 30
0.0
 40
1.0
100
AcDbArc
 50
49.71343938852542
 51
139.7134393885254
  0
LINE
  5
18F
330
1F
100
AcDbEntity
  8
LAY-10
  6
CONTINUOUS
 62
     7
100
AcDbLine
 10
398.5184490434171
 20
687.6645764955048
 30
0.0
 11
401.5697291264
 21
685.0781330193792
 31
0.0
  0
ARC
  5
190
330
1F
100
AcDbEntity
  8
LAY-10
  6
CONTINUOUS
 62
     7
100
AcDbCircle
 10
400.9231182573687
 20
684.3153129986334
 30
0.0
 40
1.0
100
AcDbArc
 50
319.7134393885245
 51
49.71343938852667
  0
LINE
  5
191
330
1F
100
AcDbEntity
  8
LAY-10
  6
CONTINUOUS
 62
     7
100
AcDbLine
 10
400.1647855684921
 20
684.9581201426964
 30
0.0
 11
398.6390423630509
 21
686.2514293285574
 31
0.0
  0
ARC
  5
192
330
1F
100
AcDbEntity
  8
LAY-10
  6
CONTINUOUS
 62
     7
100
AcDbCircle
 10
399.5181746994608
 20
684.1953001219507
 30
0.0
 40
1.0
100
AcDbArc
 50
320.3875229332008
 51
49.71343938852294
  0
ARC
  5
193
330
1F
100
AcDbEntity
  8
LAY-10
  6
CONTINUOUS
 62
     7
100
AcDbCircle
 10
465.0000000000102
 20
630.0
 30
0.0
 40
88.0
100
AcDbArc
 50
140.3720260692223
 51
159.6279739307776
  0
ARC
  5
194
330
1F
100
AcDbEntity
  8
LAY-10
  6
CONTINUOUS
 62
     7
100
AcDbCircle
 10
383.4416704657804
 20
660.2859519181083
 30
0.0
 40
1.0
100
AcDbArc
 50
159.6279739307768
 51
250.2865606114763
  0
LINE
  5
195
330
1F
100
AcDbEntity
  8
LAY-10
  6
CONTINUOUS
 62
     7
100
AcDbLine
 10
384.9872645964388
 20
658.6698826861581
 30
0.0
 11
383.1043543838148
 21
659.3445604687912
 31
0.0
  0
ARC
  5
196
330
1F
100
AcDbEntity
  8
LAY-10
  6
CONTINUOUS
 62
     7
100
AcDbCircle
 10
465.0000000000102
 20
630.0
 30
0.0
 40
84.0
100
AcDbArc
 50
140.3875229332004
 51
159.6124770667994
  0
ARC
  5
197
330
1F
100
AcDbEntity
  8
LAY-10
  6
CONTINUOUS
 62
     7
100
AcDbCircle
 10
385.3245806784043
 20
659.6112741354752
 30
0.0
 40
1.0
100
AcDbArc
 50
250.2865606114763
 51
339.6124770667988
  0
ARC
  5
198
330
1F
100
AcDbEntity
  8
LAY-10
  6
CONTINUOUS
 62
     7
100
AcDbCircle
 10
465.0000000000102
 20
630.0
 30
0.0
 40
83.0
100
AcDbArc
 50
139.7134393885258
 51
160.2865606114741
  0
ARC
  5
199
330
1F
100
AcDbEntity
  8
LAY-10
  6
CONTINUOUS
 62
     7
100
AcDbCircle
 10
385.9231182573697
 20
658.3345508851022
 30
0.0
 40
1.0
100
AcDbArc
 50
250.2865606114763
 51
340.2865606114734
  0
LINE
  5
19A
330
1F
100
AcDbEntity
  8
LAY-10
  6
CONTINUOUS
 62
     7
100
AcDbLine
 10
381.8202363781356
 20
658.742423763647
 30
0.0
 11
385.5858021754043
 21
657.3931594357852
 31
0.0
  0
ARC
  5
19B
330
1F
100
AcDbEntity
  8
LAY-10
  6
CONTINUOUS
 62
     7
100
AcDbCircle
 10
465.0000000000102
 20
630.0
 30
0.0
 40
89.0
100
AcDbArc
 50
139.7134393885257
 51
160.2865606114742
  0
ARC
  5
19C
330
1F
100
AcDbEntity
  8
LAY-10
  6
CONTINUOUS
 62
     7
100
AcDbCircle
 10
382.157552460101
 20
659.6838152129642
 30
0.0
 40
1.0
100
AcDbArc
 50
160.2865606114733
 51
250.2865606114763
  0
ARC
  5
19D
330
1F
100
AcDbEntity
  8
LAY-10
  6
CONTINUOUS
 62
     7
100
AcDbCircle
 10
532.007568505981
 20
574.5113906921886
 30
0.0
 40
1.0
100
AcDbArc
 50
229.7134393885255
 51
320.3720260692228
  0
ARC
  5
19E
330
1F
100
AcDbEntity
  8
LAY-10
  6
CONTINUOUS
 62
     7
100
AcDbCircle
 10
532.1281618256148
 20
573.0982435252412
 30
0.0
 40
1.0
100
AcDbArc
 50
229.7134393885255
 51
319.7134393885279
  0
LINE
  5
19F
330
1F
100
AcDbEntity
  8
LAY-10
  6
CONTINUOUS
 62
     7
100
AcDbLine
 10
531.4815509565833
 20
572.3354235044955
 30
0.0
 11
528.4302708736004
 21
574.921866980621
 31
0.0
  0
ARC
  5
1A0
330
1F
100
AcDbEntity
  8
LAY-10
  6
CONTINUOUS
 62
     7
100
AcDbCircle
 10
529.0768817426319
 20
575.6846870013667
 30
0.0
 40
1.0
100
AcDbArc
 50
139.713439388523
 51
229.7134393885255
  0
LINE
  5
1A1
330
1F
100
AcDbEntity
  8
LAY-10
  6
CONTINUOUS
 62
     7
100
AcDbLine
 10
529.8352144315086
 20
575.0418798573038
 30
0.0
 11
531.3609576369495
 21
573.7485706714428
 31
0.0
  0
ARC
  5
1A2
330
1F
100
AcDbEntity
  8
LAY-10
  6
CONTINUOUS
 62
     7
100
AcDbCircle
 10
530.4818253005396
 20
575.8046998780495
 30
0.0
 40
1.0
100
AcDbArc
 50
140.3875229331983
 51
229.7134393885229
  0
ARC
  5
1A3
330
1F
100
AcDbEntity
  8
LAY-10
  6
CONTINUOUS
 62
     7
100
AcDbCircle
 10
464.9999999999905
 20
630.0000000000002
 30
0.0
 40
88.0
100
AcDbArc
 50
320.3720260692224
 51
339.6279739307777
  0
ARC
  5
1A4
330
1F
100
AcDbEntity
  8
LAY-10
  6
CONTINUOUS
 62
     7
100
AcDbCircle
 10
546.5583295342203
 20
599.7140480818919
 30
0.0
 40
1.0
100
AcDbArc
 50
339.6279739307768
 51
70.28656061147633
  0
LINE
  5
1A5
330
1F
100
AcDbEntity
  8
LAY-10
  6
CONTINUOUS
 62
     7
100
AcDbLine
 10
545.0127354035617
 20
601.3301173138422
 30
0.0
 11
546.8956456161854
 21
600.655439531209
 31
0.0
  0
ARC
  5
1A6
330
1F
100
AcDbEntity
  8
LAY-10
  6
CONTINUOUS
 62
     7
100
AcDbCircle
 10
464.9999999999905
 20
630.0000000000002
 30
0.0
 40
84.0
100
AcDbArc
 50
320.3875229332006
 51
339.6124770667995
  0
ARC
  5
1A7
330
1F
100
AcDbEntity
  8
LAY-10
  6
CONTINUOUS
 62
     7
100
AcDbCircle
 10
544.6754193215961
 20
600.388725864525
 30
0.0
 40
1.0
100
AcDbArc
 50
70.28656061147633
 51
159.6124770667988
  0
ARC
  5
1A8
330
1F
100
AcDbEntity
  8
LAY-10
  6
CONTINUOUS
 62
     7
100
AcDbCircle
 10
464.9999999999905
 20
630.0000000000002
 30
0.0
 40
83.0
100
AcDbArc
 50
319.7134393885258
 51
340.2865606114742
  0
ARC
  5
1A9
330
1F
100
AcDbEntity
  8
LAY-10
  6
CONTINUOUS
 62
     7
100
AcDbCircle
 10
544.0768817426306
 20
601.6654491148979
 30
0.0
 40
1.0
100
AcDbArc
 50
70.28656061147633
 51
160.2865606114733
  0
LINE
  5
1AA
330
1F
100
AcDbEntity
  8
LAY-10
  6
CONTINUOUS
 62
     7
100
AcDbLine
 10
548.1797636218648
 20
601.2575762363531
 30
0.0
 11
544.4141978245962
 21
602.6068405642151
 31
0.0
  0
ARC
  5
1AB
330
1F
100
AcDbEntity
  8
LAY-10
  6
CONTINUOUS
 62
     7
100
AcDbCircle
 10
464.9999999999905
 20
630.0000000000002
 30
0.0
 40
89.0
100
AcDbArc
 50
319.7134393885257
 51
340.2865606114742
  0
ARC
  5
1AC
330
1F
100
AcDbEntity
  8
LAY-10
  6
CONTINUOUS
 62
     7
100
AcDbCircle
 10
547.8424475398992
 20
600.316184787036
 30
0.0
 40
1.0
100
AcDbArc
 50
340.2865606114734
 51
70.28656061147633
  0
ARC
  5
1AD
330
1F
100
AcDbEntity
  8
LAY-10
  6
CONTINUOUS
 62
     7
100
AcDbCircle
 10
495.2859519180986
 20
548.4416704657702
 30
0.0
 40
1.0
100
AcDbArc
 50
199.7134393885237
 51
290.3720260692232
  0
ARC
  5
1AE
330
1F
100
AcDbEntity
  8
LAY-10
  6
CONTINUOUS
 62
     7
100
AcDbCircle
 10
494.6838152129544
 20
547.157552460091
 30
0.0
 40
1.0
100
AcDbArc
 50
199.7134393885237
 51
289.7134393885268
  0
LINE
  5
1AF
330
1F
100
AcDbEntity
  8
LAY-10
  6
CONTINUOUS
 62
     7
100
AcDbLine
 10
493.7424237636374
 20
546.8202363781255
 30
0.0
 11
492.3931594357753
 21
550.5858021753942
 31
0.0
  0
ARC
  5
1B0
330
1F
100
AcDbEntity
  8
LAY-10
  6
CONTINUOUS
 62
     7
100
AcDbCircle
 10
493.3345508850925
 20
550.9231182573596
 30
0.0
 40
1.0
100
AcDbArc
 50
109.7134393885268
 51
199.7134393885237
  0
LINE
  5
1B1
330
1F
100
AcDbEntity
  8
LAY-10
  6
CONTINUOUS
 62
     7
100
AcDbLine
 10
493.6698826861482
 20
549.9872645964286
 30
0.0
 11
494.3445604687813
 21
548.1043543838048
 31
0.0
  0
ARC
  5
1B2
330
1F
100
AcDbEntity
  8
LAY-10
  6
CONTINUOUS
 62
     7
100
AcDbCircle
 10
494.6112741354655
 20
550.3245806783941
 30
0.0
 40
1.0
100
AcDbArc
 50
110.3875229332012
 51
199.7134393885267
  0
ARC
  5
1B3
330
1F
100
AcDbEntity
  8
LAY-10
  6
CONTINUOUS
 62
     7
100
AcDbCircle
 10
464.9999999999905
 20
630.0000000000001
 30
0.0
 40
88.0
100
AcDbArc
 50
290.3720260692223
 51
309.6279739307776
  0
ARC
  5
1B4
330
1F
100
AcDbEntity
  8
LAY-10
  6
CONTINUOUS
 62
     7
100
AcDbCircle
 10
520.4886093078021
 20
562.9924314940095
 30
0.0
 40
1.0
100
AcDbArc
 50
309.6279739307772
 51
40.28656061147707
  0
ARC
  5
1B5
330
1F
100
AcDbEntity
  8
LAY-10
  6
CONTINUOUS
 62
     7
100
AcDbCircle
 10
464.9999999999905
 20
630.0000000000001
 30
0.0
 40
84.0
100
AcDbArc
 50
290.3875229332005
 51
309.6124770667996
  0
LINE
  5
1B6
330
1F
100
AcDbEntity
  8
LAY-10
  6
CONTINUOUS
 62
     7
100
AcDbLine
 10
519.9581201426868
 20
565.1647855684819
 30
0.0
 11
521.2514293285476
 21
563.6390423630407
 31
0.0
  0
ARC
  5
1B7
330
1F
100
AcDbEntity
  8
LAY-10
  6
CONTINUOUS
 62
     7
100
AcDbCircle
 10
519.1953001219408
 20
564.5181746994506
 30
0.0
 40
1.0
100
AcDbArc
 50
40.28656061147707
 51
129.6124770667993
  0
ARC
  5
1B8
330
1F
100
AcDbEntity
  8
LAY-10
  6
CONTINUOUS
 62
     7
100
AcDbCircle
 10
464.9999999999905
 20
630.0000000000001
 30
0.0
 40
89.0
100
AcDbArc
 50
289.7134393885258
 51
310.2865606114743
  0
ARC
  5
1B9
330
1F
100
AcDbEntity
  8
LAY-10
  6
CONTINUOUS
 62
     7
100
AcDbCircle
 10
521.9017564747492
 20
562.8718381743756
 30
0.0
 40
1.0
100
AcDbArc
 50
310.2865606114746
 51
40.28656061147707
  0
LINE
  5
1BA
330
1F
100
AcDbEntity
  8
LAY-10
  6
CONTINUOUS
 62
     7
100
AcDbLine
 10
522.6645764954951
 20
563.518449043407
 30
0.0
 11
520.0781330193695
 21
566.5697291263898
 31
0.0
  0
ARC
  5
1BB
330
1F
100
AcDbEntity
  8
LAY-10
  6
CONTINUOUS
 62
     7
100
AcDbCircle
 10
464.9999999999905
 20
630.0000000000001
 30
0.0
 40
83.0
100
AcDbArc
 50
289.7134393885259
 51
310.2865606114742
  0
ARC
  5
1BC
330
1F
100
AcDbEntity
  8
LAY-10
  6
CONTINUOUS
 62
     7
100
AcDbCircle
 10
519.315312998624
 20
565.9231182573585
 30
0.0
 40
1.0
100
AcDbArc
 50
40.28656061147707
 51
130.2865606114746
  0
ARC
  5
1BD
330
1F
100
AcDbEntity
  8
LAY-10
  6
CONTINUOUS
 62
     7
100
AcDbCircle
 10
434.7140480819019
 20
548.4416704657702
 30
0.0
 40
1.0
100
AcDbArc
 50
249.6279739307767
 51
340.2865606114764
  0
ARC
  5
1BE
330
1F
100
AcDbEntity
  8
LAY-10
  6
CONTINUOUS
 62
     7
100
AcDbCircle
 10
435.316184787046
 20
547.157552460091
 30
0.0
 40
1.0
100
AcDbArc
 50
250.2865606114733
 51
340.2865606114764
  0
LINE
  5
1BF
330
1F
100
AcDbEntity
  8
LAY-10
  6
CONTINUOUS
 62
     7
100
AcDbLine
 10
436.2575762363631
 20
546.8202363781255
 30
0.0
 11
437.6068405642252
 21
550.5858021753942
 31
0.0
  0
ARC
  5
1C0
330
1F
100
AcDbEntity
  8
LAY-10
  6
CONTINUOUS
 62
     7
100
AcDbCircle
 10
436.6654491149079
 20
550.9231182573596
 30
0.0
 40
1.0
100
AcDbArc
 50
340.2865606114764
 51
70.2865606114733
  0
LINE
  5
1C1
330
1F
100
AcDbEntity
  8
LAY-10
  6
CONTINUOUS
 62
     7
100
AcDbLine
 10
436.3301173138523
 20
549.9872645964286
 30
0.0
 11
435.6554395312191
 21
548.1043543838048
 31
0.0
  0
ARC
  5
1C2
330
1F
100
AcDbEntity
  8
LAY-10
  6
CONTINUOUS
 62
     7
100
AcDbCircle
 10
435.388725864535
 20
550.3245806783941
 30
0.0
 40
1.0
100
AcDbArc
 50
340.2865606114734
 51
69.61247706679876
  0
ARC
  5
1C3
330
1F
100
AcDbEntity
  8
LAY-10
  6
CONTINUOUS
 62
     7
100
AcDbCircle
 10
465.0000000000102
 20
630.0000000000001
 30
0.0
 40
88.0
100
AcDbArc
 50
230.3720260692224
 51
249.6279739307776
  0
ARC
  5
1C4
330
1F
100
AcDbEntity
  8
LAY-10
  6
CONTINUOUS
 62
     7
100
AcDbCircle
 10
409.5113906921986
 20
562.9924314940095
 30
0.0
 40
1.0
100
AcDbArc
 50
139.713439388523
 51
230.3720260692228
  0
ARC
  5
1C5
330
1F
100
AcDbEntity
  8
LAY-10
  6
CONTINUOUS
 62
     7
100
AcDbCircle
 10
465.0000000000102
 20
630.0000000000001
 30
0.0
 40
84.0
100
AcDbArc
 50
230.3875229332006
 51
249.6124770667997
  0
LINE
  5
1C6
330
1F
100
AcDbEntity
  8
LAY-10
  6
CONTINUOUS
 62
     7
100
AcDbLine
 10
410.0418798573136
 20
565.1647855684819
 30
0.0
 11
408.7485706714529
 21
563.6390423630407
 31
0.0
  0
ARC
  5
1C7
330
1F
100
AcDbEntity
  8
LAY-10
  6
CONTINUOUS
 62
     7
100
AcDbCircle
 10
410.8046998780594
 20
564.5181746994506
 30
0.0
 40
1.0
100
AcDbArc
 50
50.38752293320075
 51
139.713439388523
  0
ARC
  5
1C8
330
1F
100
AcDbEntity
  8
LAY-10
  6
CONTINUOUS
 62
     7
100
AcDbCircle
 10
465.0000000000102
 20
630.0000000000001
 30
0.0
 40
89.0
100
AcDbArc
 50
229.7134393885258
 51
250.2865606114742
  0
ARC
  5
1C9
330
1F
100
AcDbEntity
  8
LAY-10
  6
CONTINUOUS
 62
     7
100
AcDbCircle
 10
408.0982435252513
 20
562.8718381743756
 30
0.0
 40
1.0
100
AcDbArc
 50
139.713439388523
 51
229.7134393885255
  0
LINE
  5
1CA
330
1F
100
AcDbEntity
  8
LAY-10
  6
CONTINUOUS
 62
     7
100
AcDbLine
 10
407.3354235045053
 20
563.518449043407
 30
0.0
 11
409.921866980631
 21
566.5697291263898
 31
0.0
  0
ARC
  5
1CB
330
1F
100
AcDbEntity
  8
LAY-10
  6
CONTINUOUS
 62
     7
100
AcDbCircle
 10
465.0000000000102
 20
630.0000000000001
 30
0.0
 40
83.0
100
AcDbArc
 50
229.7134393885258
 51
250.2865606114741
  0
ARC
  5
1CC
330
1F
100
AcDbEntity
  8
LAY-10
  6
CONTINUOUS
 62
     7
100
AcDbCircle
 10
410.6846870013767
 20
565.9231182573585
 30
0.0
 40
1.0
100
AcDbArc
 50
49.71343938852542
 51
139.713439388523
  0
ARC
  5
1CD
330
1F
100
AcDbEntity
  8
LAY-10
  6
CONTINUOUS
 62
     7
100
AcDbCircle
 10
397.9924314940194
 20
574.5113906921886
 30
0.0
 40
1.0
100
AcDbArc
 50
219.6279739307772
 51
310.2865606114746
  0
ARC
  5
1CE
330
1F
100
AcDbEntity
  8
LAY-10
  6
CONTINUOUS
 62
     7
100
AcDbCircle
 10
397.8718381743856
 20
573.0982435252412
 30
0.0
 40
1.0
100
AcDbArc
 50
220.28656061147
 51
310.2865606114746
  0
LINE
  5
1CF
330
1F
100
AcDbEntity
  8
LAY-10
  6
CONTINUOUS
 62
     7
100
AcDbLine
 10
398.5184490434171
 20
572.3354235044955
 30
0.0
 11
401.5697291264
 21
574.921866980621
 31
0.0
  0
ARC
  5
1D0
330
1F
100
AcDbEntity
  8
LAY-10
  6
CONTINUOUS
 62
     7
100
AcDbCircle
 10
400.9231182573685
 20
575.6846870013667
 30
0.0
 40
1.0
100
AcDbArc
 50
310.2865606114746
 51
40.28656061147707
  0
LINE
  5
1D1
330
1F
100
AcDbEntity
  8
LAY-10
  6
CONTINUOUS
 62
     7
100
AcDbLine
 10
400.1647855684921
 20
575.0418798573038
 30
0.0
 11
398.6390423630507
 21
573.7485706714428
 31
0.0
  0
ARC
  5
1D2
330
1F
100
AcDbEntity
  8
LAY-10
  6
CONTINUOUS
 62
     7
100
AcDbCircle
 10
399.5181746994606
 20
575.8046998780495
 30
0.0
 40
1.0
100
AcDbArc
 50
310.286560611477
 51
39.61247706680179
  0
ARC
  5
1D3
330
1F
100
AcDbEntity
  8
LAY-10
  6
CONTINUOUS
 62
     7
100
AcDbCircle
 10
465.0000000000102
 20
630.0000000000002
 30
0.0
 40
88.0
100
AcDbArc
 50
200.3720260692223
 51
219.6279739307776
  0
ARC
  5
1D4
330
1F
100
AcDbEntity
  8
LAY-10
  6
CONTINUOUS
 62
     7
100
AcDbCircle
 10
383.4416704657804
 20
599.714048081892
 30
0.0
 40
1.0
100
AcDbArc
 50
109.7134393885237
 51
200.3720260692233
  0
LINE
  5
1D5
330
1F
100
AcDbEntity
  8
LAY-10
  6
CONTINUOUS
 62
     7
100
AcDbLine
 10
384.9872645964388
 20
601.3301173138422
 30
0.0
 11
383.1043543838148
 21
600.655439531209
 31
0.0
  0
ARC
  5
1D6
330
1F
100
AcDbEntity
  8
LAY-10
  6
CONTINUOUS
 62
     7
100
AcDbCircle
 10
465.0000000000102
 20
630.0000000000002
 30
0.0
 40
84.0
100
AcDbArc
 50
200.3875229332004
 51
219.6124770667995
  0
ARC
  5
1D7
330
1F
100
AcDbEntity
  8
LAY-10
  6
CONTINUOUS
 62
     7
100
AcDbCircle
 10
385.3245806784043
 20
600.388725864525
 30
0.0
 40
1.0
100
AcDbArc
 50
20.3875229332043
 51
109.7134393885237
  0
ARC
  5
1D8
330
1F
100
AcDbEntity
  8
LAY-10
  6
CONTINUOUS
 62
     7
100
AcDbCircle
 10
465.0000000000102
 20
630.0000000000002
 30
0.0
 40
83.0
100
AcDbArc
 50
199.7134393885259
 51
220.2865606114741
  0
ARC
  5
1D9
330
1F
100
AcDbEntity
  8
LAY-10
  6
CONTINUOUS
 62
     7
100
AcDbCircle
 10
385.9231182573697
 20
601.665449114898
 30
0.0
 40
1.0
100
AcDbArc
 50
19.71343938852369
 51
109.7134393885237
  0
LINE
  5
1DA
330
1F
100
AcDbEntity
  8
LAY-10
  6
CONTINUOUS
 62
     7
100
AcDbLine
 10
381.8202363781356
 20
601.2575762363532
 30
0.0
 11
385.5858021754043
 21
602.6068405642151
 31
0.0
  0
ARC
  5
1DB
330
1F
100
AcDbEntity
  8
LAY-10
  6
CONTINUOUS
 62
     7
100
AcDbCircle
 10
465.0000000000102
 20
630.0000000000002
 30
0.0
 40
89.0
100
AcDbArc
 50
199.7134393885258
 51
220.2865606114742
  0
ARC
  5
1DC
330
1F
100
AcDbEntity
  8
LAY-10
  6
CONTINUOUS
 62
     7
100
AcDbCircle
 10
382.157552460101
 20
600.316184787036
 30
0.0
 40
1.0
100
AcDbArc
 50
109.7134393885237
 51
199.7134393885237
  0
ARC
  5
1DD
330
1F
100
AcDbEntity
  8
LAY-10
  6
CONTINUOUS
 62
     7
100
AcDbCircle
 10
450.4492389717611
 20
544.2254387740802
 30
0.0
 40
1.0
100
AcDbArc
 50
169.7134393885209
 51
260.3720260692231
  0
LINE
  5
1DE
330
1F
100
AcDbEntity
  8
LAY-10
  6
CONTINUOUS
 62
     7
100
AcDbLine
 10
449.8224790279469
 20
546.3719971711456
 30
0.0
 11
449.465312020764
 21
544.4040102026516
 31
0.0
  0
ARC
  5
1DF
330
1F
100
AcDbEntity
  8
LAY-10
  6
CONTINUOUS
 62
     7
100
AcDbCircle
 10
450.8064059789438
 20
546.1934257425742
 30
0.0
 40
1.0
100
AcDbArc
 50
80.38752293320088
 51
169.7134393885241
  0
ARC
  5
1E0
330
1F
100
AcDbEntity
  8
LAY-10
  6
CONTINUOUS
 62
     7
100
AcDbCircle
 10
465.0000000000002
 20
630.0
 30
0.0
 40
88.0
100
AcDbArc
 50
260.3720260692224
 51
279.6279739307776
  0
ARC
  5
1E1
330
1F
100
AcDbEntity
  8
LAY-10
  6
CONTINUOUS
 62
     7
100
AcDbCircle
 10
479.5507610282393
 20
544.2254387740801
 30
0.0
 40
1.0
100
AcDbArc
 50
279.6279739307769
 51
10.28656061147563
  0
LINE
  5
1E2
330
1F
100
AcDbEntity
  8
LAY-10
  6
CONTINUOUS
 62
     7
100
AcDbLine
 10
480.1775209720533
 20
546.3719971711456
 30
0.0
 11
480.5346879792362
 21
544.4040102026515
 31
0.0
  0
ARC
  5
1E3
330
1F
100
AcDbEntity
  8
LAY-10
  6
CONTINUOUS
 62
     7
100
AcDbCircle
 10
465.0000000000002
 20
630.0
 30
0.0
 40
84.0
100
AcDbArc
 50
260.3875229332004
 51
279.6124770667995
  0
ARC
  5
1E4
330
1F
100
AcDbEntity
  8
LAY-10
  6
CONTINUOUS
 62
     7
100
AcDbCircle
 10
479.1935940210564
 20
546.1934257425742
 30
0.0
 40
1.0
100
AcDbArc
 50
10.28656061147563
 51
99.61247706680072
  0
ARC
  5
1E5
330
1F
100
AcDbEntity
  8
LAY-10
  6
CONTINUOUS
 62
     7
100
AcDbCircle
 10
480.7142857142849
 20
543.414428312277
 30
0.0
 40
1.0
100
AcDbArc
 50
280.2865606114725
 51
10.28656061147563
  0
LINE
  5
1E6
330
1F
100
AcDbEntity
  8
LAY-10
  6
CONTINUOUS
 62
     7
100
AcDbLine
 10
481.6982126652815
 20
543.5929997408484
 30
0.0
 11
480.9839269509957
 21
547.5287075448358
 31
0.0
  0
ARC
  5
1E7
330
1F
100
AcDbEntity
  8
LAY-10
  6
CONTINUOUS
 62
     7
100
AcDbCircle
 10
479.9999999999991
 20
547.3501361162644
 30
0.0
 40
1.0
100
AcDbArc
 50
10.28656061147563
 51
100.2865606114724
  0
ARC
  5
1E8
330
1F
100
AcDbEntity
  8
LAY-10
  6
CONTINUOUS
 62
     7
100
AcDbCircle
 10
450.0000000000014
 20
547.3501361162644
 30
0.0
 40
1.0
100
AcDbArc
 50
79.713439388526
 51
169.7134393885241
  0
LINE
  5
1E9
330
1F
100
AcDbEntity
  8
LAY-10
  6
CONTINUOUS
 62
     7
100
AcDbLine
 10
448.3017873347187
 20
543.5929997408484
 30
0.0
 11
449.0160730490043
 21
547.5287075448358
 31
0.0
  0
ARC
  5
1EA
330
1F
100
AcDbEntity
  8
LAY-10
  6
CONTINUOUS
 62
     7
100
AcDbCircle
 10
465.0000000000002
 20
630.0
 30
0.0
 40
89.0
100
AcDbArc
 50
259.7134393885257
 51
280.2865606114742
  0
ARC
  5
1EB
330
1F
100
AcDbEntity
  8
LAY-10
  6
CONTINUOUS
 62
     7
100
AcDbCircle
 10
449.2857142857156
 20
543.414428312277
 30
0.0
 40
1.0
100
AcDbArc
 50
169.7134393885241
 51
259.713439388526
  0
ARC
  5
1EC
330
1F
100
AcDbEntity
  8
LAY-10
  6
CONTINUOUS
 62
     7
100
AcDbCircle
 10
475.7542760515316
 20
695.1010494415665
 30
0.0
 40
1.0
100
AcDbArc
 50
80.61981733855433
 51
180.7937548961265
  0
ARC
  5
1ED
330
1F
100
AcDbEntity
  8
LAY-10
  6
CONTINUOUS
 62
     7
100
AcDbCircle
 10
475.7379611035806
 20
695.1037424663423
 30
0.0
 40
1.0
100
AcDbArc
 50
80.63417591387343
 51
180.0
  0
ARC
  5
1EE
330
1F
100
AcDbEntity
  8
LAY-10
  6
CONTINUOUS
 62
     7
100
AcDbCircle
 10
459.0000000000002
 20
711.0893315887246
 30
0.0
 40
2.0
100
AcDbArc
 50
0.0000000000016043
 51
94.23174476252807
  0
ARC
  5
1EF
330
1F
100
AcDbEntity
  8
LAY-10
  6
CONTINUOUS
 62
     7
100
AcDbCircle
 10
465.0000000000002
 20
630.0000000000001
 30
0.0
 40
83.0
100
AcDbArc
 50
94.44804210350968
 51
100.2865606114743
  0
ARC
  5
1F0
330
1F
100
AcDbEntity
  8
LAY-10
  6
CONTINUOUS
 62
     7
100
AcDbCircle
 10
458.7180431613846
 20
710.7560339434632
 30
0.0
 40
2.0
100
AcDbArc
 50
0.0
 51
94.44804210350974
  0
ARC
  5
1F1
330
1F
100
AcDbEntity
  8
LAY-10
  6
CONTINUOUS
 62
     7
100
AcDbCircle
 10
471.0000000000005
 20
711.0893315887246
 30
0.0
 40
2.0
100
AcDbArc
 50
85.76825523747112
 51
179.9999999999984
  0
ARC
  5
1F2
330
1F
100
AcDbEntity
  8
LAY-10
  6
CONTINUOUS
 62
     7
100
AcDbCircle
 10
471.281956838616
 20
710.7560339434632
 30
0.0
 40
2.0
100
AcDbArc
 50
85.55195789649025
 51
180.0
  0
ARC
  5
1F3
330
1F
100
AcDbEntity
  8
LAY-10
  6
CONTINUOUS
 62
     7
100
AcDbCircle
 10
465.0000000000002
 20
630.0000000000001
 30
0.0
 40
83.0
100
AcDbArc
 50
79.71343938852594
 51
85.55195789649306
  0
ARC
  5
1F4
330
1F
100
AcDbEntity
  8
LAY-10
  6
CONTINUOUS
 62
     7
100
AcDbCircle
 10
465.0000000000002
 20
630.0000000000001
 30
0.0
 40
83.31100600475997
100
AcDbArc
 50
85.76825523747164
 51
94.23174476252835
  0
ARC
  5
1F5
330
1F
100
AcDbEntity
  8
LAY-10
  6
CONTINUOUS
 62
     7
100
AcDbCircle
 10
459.0000000000002
 20
548.9106684112755
 30
0.0
 40
2.0
100
AcDbArc
 50
265.768255237472
 51
0.0
  0
ARC
  5
1F6
330
1F
100
AcDbEntity
  8
LAY-10
  6
CONTINUOUS
 62
     7
100
AcDbCircle
 10
458.7180431613846
 20
549.2439660565369
 30
0.0
 40
2.0
100
AcDbArc
 50
265.5519578964903
 51
0.0
  0
ARC
  5
1F7
330
1F
100
AcDbEntity
  8
LAY-10
  6
CONTINUOUS
 62
     7
100
AcDbCircle
 10
471.0000000000005
 20
548.9106684112755
 30
0.0
 40
2.0
100
AcDbArc
 50
180.0000000000032
 51
274.2317447625289
  0
ARC
  5
1F8
330
1F
100
AcDbEntity
  8
LAY-10
  6
CONTINUOUS
 62
     7
100
AcDbCircle
 10
471.281956838616
 20
549.2439660565369
 30
0.0
 40
2.0
100
AcDbArc
 50
180.0
 51
274.4480421035097
  0
ARC
  5
1F9
330
1F
100
AcDbEntity
  8
LAY-10
  6
CONTINUOUS
 62
     7
100
AcDbCircle
 10
465.0000000000002
 20
630.0
 30
0.0
 40
83.31100600475997
100
AcDbArc
 50
265.7682552374717
 51
274.2317447625284
  0
ARC
  5
1FA
330
1F
100
AcDbEntity
  8
LAY-10
  6
CONTINUOUS
 62
     7
100
AcDbCircle
 10
465.0000000000002
 20
630.0
 30
0.0
 40
83.0
100
AcDbArc
 50
274.4480421035097
 51
280.2865606114741
  0
ARC
  5
1FB
330
1F
100
AcDbEntity
  8
LAY-10
  6
CONTINUOUS
 62
     7
100
AcDbCircle
 10
465.0000000000002
 20
630.0
 30
0.0
 40
83.0
100
AcDbArc
 50
259.7134393885258
 51
265.5519578964904
  0
ARC
  5
1FC
330
1F
100
AcDbEntity
  8
LAY-10
  6
CONTINUOUS
 62
     7
100
AcDbCircle
 10
465.0000000000002
 20
630.0
 30
0.0
 40
83.0
100
AcDbArc
 50
169.7134393885259
 51
174.0877960088166
  0
ARC
  5
1FD
330
1F
100
AcDbEntity
  8
LAY-10
  6
CONTINUOUS
 62
     7
100
AcDbCircle
 10
384.4308471194094
 20
638.3433568846103
 30
0.0
 40
2.0
100
AcDbArc
 50
174.0877960088174
 51
270.0
  0
ARC
  5
1FE
330
1F
100
AcDbEntity
  8
LAY-10
  6
CONTINUOUS
 62
     7
100
AcDbCircle
 10
384.0835016977003
 20
637.9999999999989
 30
0.0
 40
2.0
100
AcDbArc
 50
174.353667401958
 51
270.0
  0
ARC
  5
1FF
330
1F
100
AcDbEntity
  8
LAY-10
  6
CONTINUOUS
 62
     7
100
AcDbCircle
 10
384.4308471194094
 20
621.6566431153897
 30
0.0
 40
2.0
100
AcDbArc
 50
90.00000000000001
 51
185.9122039911826
  0
ARC
  5
200
330
1F
100
AcDbEntity
  8
LAY-10
  6
CONTINUOUS
 62
     7
100
AcDbCircle
 10
384.0835016977003
 20
622.0000000000011
 30
0.0
 40
2.0
100
AcDbArc
 50
90.00000000000001
 51
185.646332598042
  0
ARC
  5
201
330
1F
100
AcDbEntity
  8
LAY-10
  6
CONTINUOUS
 62
     7
100
AcDbCircle
 10
465.0000000000002
 20
630.0
 30
0.0
 40
83.0
100
AcDbArc
 50
185.9122039911834
 51
190.2865606114741
  0
ARC
  5
202
330
1F
100
AcDbEntity
  8
LAY-10
  6
CONTINUOUS
 62
     7
100
AcDbCircle
 10
465.0000000000002
 20
630.0
 30
0.0
 40
83.31100600475997
100
AcDbArc
 50
174.3536674019586
 51
185.6463325980414
  0
ARC
  5
203
330
1F
100
AcDbEntity
  8
LAY-10
  6
CONTINUOUS
 62
     7
100
AcDbCircle
 10
545.569152880591
 20
638.3433568846103
 30
0.0
 40
2.0
100
AcDbArc
 50
270.0
 51
5.91220399118259
  0
ARC
  5
204
330
1F
100
AcDbEntity
  8
LAY-10
  6
CONTINUOUS
 62
     7
100
AcDbCircle
 10
545.9164983023002
 20
637.9999999999989
 30
0.0
 40
2.0
100
AcDbArc
 50
270.0
 51
5.646332598041918
  0
ARC
  5
205
330
1F
100
AcDbEntity
  8
LAY-10
  6
CONTINUOUS
 62
     7
100
AcDbCircle
 10
545.569152880591
 20
621.6566431153897
 30
0.0
 40
2.0
100
AcDbArc
 50
354.0877960088191
 51
90.00000000000001
  0
ARC
  5
206
330
1F
100
AcDbEntity
  8
LAY-10
  6
CONTINUOUS
 62
     7
100
AcDbCircle
 10
545.9164983023002
 20
622.0000000000011
 30
0.0
 40
2.0
100
AcDbArc
 50
354.3536674019581
 51
90.00000000000001
  0
ARC
  5
207
330
1F
100
AcDbEntity
  8
LAY-10
  6
CONTINUOUS
 62
     7
100
AcDbCircle
 10
465.0000000000002
 20
630.0
 30
0.0
 40
83.31100600475997
100
AcDbArc
 50
354.3536674019585
 51
5.646332598041402
  0
ARC
  5
208
330
1F
100
AcDbEntity
  8
LAY-10
  6
CONTINUOUS
 62
     7
100
AcDbCircle
 10
465.0000000000002
 20
630.0
 30
0.0
 40
83.0
100
AcDbArc
 50
5.912203991183449
 51
10.2865606114742
  0
ARC
  5
209
330
1F
100
AcDbEntity
  8
LAY-10
  6
CONTINUOUS
 62
     7
100
AcDbCircle
 10
465.0000000000002
 20
630.0
 30
0.0
 40
83.0
100
AcDbArc
 50
349.7134393885259
 51
354.0877960088166
  0
LINE
  5
20A
330
1F
100
AcDbEntity
  8
LAY-10
  6
PHANTOM
 62
     7
100
AcDbLine
 10
457.1732230694768
 20
557.999999999998
 30
0.0
 11
465.0
 21
562.9862068204085
 31
0.0
  0
LINE
  5
20B
330
1F
100
AcDbEntity
  8
LAY-10
  6
PHANTOM
 62
     7
100
AcDbLine
 10
457.1732230694768
 20
558.0000000000005
 30
0.0
 11
465.0
 21
553.01379317959
 31
0.0
  0
LINE
  5
20C
330
1F
100
AcDbEntity
  8
LAY-10
  6
PHANTOM
 62
     7
100
AcDbLine
 10
472.8267769305232
 20
557.999999999998
 30
0.0
 11
465.0
 21
562.9862068204085
 31
0.0
  0
ARC
  5
20D
330
1F
100
AcDbEntity
  8
LAY-10
  6
CONTINUOUS
 62
     7
100
AcDbCircle
 10
465.0
 20
629.9999999999998
 30
0.0
 40
81.0
100
AcDbArc
 50
182.8305724702753
 51
357.1694275297247
  0
ARC
  5
20E
330
1F
100
AcDbEntity
  8
LAY-10
  6
CONTINUOUS
 62
     7
100
AcDbCircle
 10
465.0
 20
661.0205850119598
 30
0.0
 40
3.0205850119601
100
AcDbArc
 50
185.5879487220513
 51
354.4120512779533
  0
ARC
  5
20F
330
1F
100
AcDbEntity
  8
LAY-10
  6
CONTINUOUS
 62
     7
100
AcDbCircle
 10
465.0
 20
661.0205850119598
 30
0.0
 40
4.0205850119601
100
AcDbArc
 50
185.5879487220512
 51
354.4120512779521
  0
ARC
  5
210
330
1F
100
AcDbEntity
  8
LAY-10
  6
CONTINUOUS
 62
     7
100
AcDbCircle
 10
452.3827913859884
 20
658.338714531089
 30
0.0
 40
3.0205850119601
100
AcDbArc
 50
209.587948722053
 51
18.41205127795457
  0
ARC
  5
211
330
1F
100
AcDbEntity
  8
LAY-10
  6
CONTINUOUS
 62
     7
100
AcDbCircle
 10
452.3827913859884
 20
658.338714531089
 30
0.0
 40
4.0205850119601
100
AcDbArc
 50
209.5879487220507
 51
18.41205127795337
  0
ARC
  5
212
330
1F
100
AcDbEntity
  8
LAY-10
  6
CONTINUOUS
 62
     7
100
AcDbCircle
 10
441.9472127650827
 20
650.7568228586535
 30
0.0
 40
3.0205850119601
100
AcDbArc
 50
233.5879487220501
 51
42.41205127795239
  0
ARC
  5
213
330
1F
100
AcDbEntity
  8
LAY-10
  6
CONTINUOUS
 62
     7
100
AcDbCircle
 10
441.9472127650827
 20
650.7568228586535
 30
0.0
 40
4.0205850119601
100
AcDbArc
 50
233.5879487220495
 51
42.41205127795177
  0
ARC
  5
214
330
1F
100
AcDbEntity
  8
LAY-10
  6
CONTINUOUS
 62
     7
100
AcDbCircle
 10
435.4976704850928
 20
639.585887944141
 30
0.0
 40
3.0205850119601
100
AcDbArc
 50
257.5879487220481
 51
66.41205127795205
  0
ARC
  5
215
330
1F
100
AcDbEntity
  8
LAY-10
  6
CONTINUOUS
 62
     7
100
AcDbCircle
 10
435.4976704850928
 20
639.585887944141
 30
0.0
 40
4.0205850119601
100
AcDbArc
 50
257.5879487220517
 51
66.41205127795119
  0
ARC
  5
216
330
1F
100
AcDbEntity
  8
LAY-10
  6
CONTINUOUS
 62
     7
100
AcDbCircle
 10
434.1493489984811
 20
626.7574659190284
 30
0.0
 40
3.0205850119601
100
AcDbArc
 50
281.5879487220499
 51
90.41205127795445
  0
ARC
  5
217
330
1F
100
AcDbEntity
  8
LAY-10
  6
CONTINUOUS
 62
     7
100
AcDbCircle
 10
434.1493489984811
 20
626.7574659190284
 30
0.0
 40
4.0205850119601
100
AcDbArc
 50
281.5879487220508
 51
90.41205127795226
  0
ARC
  5
218
330
1F
100
AcDbEntity
  8
LAY-10
  6
CONTINUOUS
 62
     7
100
AcDbCircle
 10
438.1353853393991
 20
614.4897074940131
 30
0.0
 40
3.0205850119601
100
AcDbArc
 50
305.5879487220523
 51
114.4120512779539
  0
ARC
  5
219
330
1F
100
AcDbEntity
  8
LAY-10
  6
CONTINUOUS
 62
     7
100
AcDbCircle
 10
438.1353853393991
 20
614.4897074940131
 30
0.0
 40
4.0205850119601
100
AcDbArc
 50
305.5879487220524
 51
114.4120512779528
  0
ARC
  5
21A
330
1F
100
AcDbEntity
  8
LAY-10
  6
CONTINUOUS
 62
     7
100
AcDbCircle
 10
446.7665576124987
 20
604.903819549867
 30
0.0
 40
3.0205850119601
100
AcDbArc
 50
329.587948722048
 51
138.4120512779558
  0
ARC
  5
21B
330
1F
100
AcDbEntity
  8
LAY-10
  6
CONTINUOUS
 62
     7
100
AcDbCircle
 10
446.7665576124987
 20
604.903819549867
 30
0.0
 40
4.0205850119601
100
AcDbArc
 50
329.5879487220477
 51
138.4120512779528
  0
ARC
  5
21C
330
1F
100
AcDbEntity
  8
LAY-10
  6
CONTINUOUS
 62
     7
100
AcDbCircle
 10
458.5504577200225
 20
599.6572891971905
 30
0.0
 40
3.0205850119601
100
AcDbArc
 50
353.5879487220505
 51
162.4120512779559
  0
ARC
  5
21D
330
1F
100
AcDbEntity
  8
LAY-10
  6
CONTINUOUS
 62
     7
100
AcDbCircle
 10
465.0
 20
629.9999999999714
 30
0.0
 40
61.61836509645718
100
AcDbArc
 50
228.4120512779462
 51
239.5879487220483
  0
ARC
  5
21E
330
1F
100
AcDbEntity
  8
LAY-10
  6
CONTINUOUS
 62
     7
100
AcDbCircle
 10
465.0
 20
629.9999999999714
 30
0.0
 40
61.61836509645718
100
AcDbArc
 50
204.4120512779371
 51
215.5879487220381
  0
ARC
  5
21F
330
1F
100
AcDbEntity
  8
LAY-10
  6
CONTINUOUS
 62
     7
100
AcDbCircle
 10
465.0
 20
629.9999999999714
 30
0.0
 40
61.61836509645718
100
AcDbArc
 50
84.41205127795386
 51
95.58794872204601
  0
ARC
  5
220
330
1F
100
AcDbEntity
  8
LAY-10
  6
CONTINUOUS
 62
     7
100
AcDbCircle
 10
465.0
 20
629.9999999999998
 30
0.0
 40
81.0
100
AcDbArc
 50
75.00000000000085
 51
177.1694275297246
  0
ARC
  5
221
330
1F
100
AcDbEntity
  8
LAY-10
  6
CONTINUOUS
 62
     7
100
AcDbCircle
 10
465.0
 20
629.9999999999998
 30
0.0
 40
81.0
100
AcDbArc
 50
2.830572470275225
 51
75.00000000000085
  0
POLYLINE
  5
222
330
1F
100
AcDbEntity
  8
LAY-10
  6
CONTINUOUS
 62
     7
100
AcDb2dPolyline
 66
     1
 10
0.0
 20
0.0
 30
0.0
 70
   128
  0
VERTEX
  5
223
330
222
100
AcDbEntity
  8
LAY-10
  6
CONTINUOUS
 62
     7
100
AcDbVertex
100
AcDb2dVertex
 10
461.1491829866397
 20
698.384623431818
 30
0.0
  0
VERTEX
  5
224
330
222
100
AcDbEntity
  8
LAY-10
  6
CONTINUOUS
 62
     7
100
AcDbVertex
100
AcDb2dVertex
 10
461.0980986743793
 20
698.3854662993194
 30
0.0
  0
VERTEX
  5
225
330
222
100
AcDbEntity
  8
LAY-10
  6
CONTINUOUS
 62
     7
100
AcDbVertex
100
AcDb2dVertex
 10
461.0520043435652
 20
698.3936108463936
 30
0.0
  0
VERTEX
  5
226
330
222
100
AcDbEntity
  8
LAY-10
  6
CONTINUOUS
 62
     7
100
AcDbVertex
100
AcDb2dVertex
 10
461.010899994197
 20
698.4090570730405
 30
0.0
  0
VERTEX
  5
227
330
222
100
AcDbEntity
  8
LAY-10
  6
CONTINUOUS
 62
     7
100
AcDbVertex
100
AcDb2dVertex
 10
460.974785626275
 20
698.43180497926
 30
0.0
  0
VERTEX
  5
228
330
222
100
AcDbEntity
  8
LAY-10
  6
CONTINUOUS
 62
     7
100
AcDbVertex
100
AcDb2dVertex
 10
460.943661239799
 20
698.4618545650521
 30
0.0
  0
VERTEX
  5
229
330
222
100
AcDbEntity
  8
LAY-10
  6
CONTINUOUS
 62
     7
100
AcDbVertex
100
AcDb2dVertex
 10
460.917526834769
 20
698.4992058304172
 30
0.0
  0
VERTEX
  5
22A
330
222
100
AcDbEntity
  8
LAY-10
  6
CONTINUOUS
 62
     7
100
AcDbVertex
100
AcDb2dVertex
 10
460.8963824111852
 20
698.5438587753547
 30
0.0
  0
VERTEX
  5
22B
330
222
100
AcDbEntity
  8
LAY-10
  6
CONTINUOUS
 62
     7
100
AcDbVertex
100
AcDb2dVertex
 10
460.8802279690473
 20
698.5958133998652
 30
0.0
  0
VERTEX
  5
22C
330
222
100
AcDbEntity
  8
LAY-10
  6
CONTINUOUS
 62
     7
100
AcDbVertex
100
AcDb2dVertex
 10
460.8690635083556
 20
698.6550697039481
 30
0.0
  0
VERTEX
  5
22D
330
222
100
AcDbEntity
  8
LAY-10
  6
CONTINUOUS
 62
     7
100
AcDbVertex
100
AcDb2dVertex
 10
460.8628890291097
 20
698.7216276876038
 30
0.0
  0
VERTEX
  5
22E
330
222
100
AcDbEntity
  8
LAY-10
  6
CONTINUOUS
 62
     7
100
AcDbVertex
100
AcDb2dVertex
 10
460.5385298879286
 20
704.9107687963938
 30
0.0
  0
VERTEX
  5
22F
330
222
100
AcDbEntity
  8
LAY-10
  6
CONTINUOUS
 62
     7
100
AcDbVertex
100
AcDb2dVertex
 10
460.5375181935383
 20
704.996590909032
 30
0.0
  0
VERTEX
  5
230
330
222
100
AcDbEntity
  8
LAY-10
  6
CONTINUOUS
 62
     7
100
AcDbVertex
100
AcDb2dVertex
 10
460.5439319479624
 20
705.0737626852376
 30
0.0
  0
VERTEX
  5
231
330
222
100
AcDbEntity
  8
LAY-10
  6
CONTINUOUS
 62
     7
100
AcDbVertex
100
AcDb2dVertex
 10
460.5577711512016
 20
705.1422841250105
 30
0.0
  0
VERTEX
  5
232
330
222
100
AcDbEntity
  8
LAY-10
  6
CONTINUOUS
 62
     7
100
AcDbVertex
100
AcDb2dVertex
 10
460.5790358032556
 20
705.2021552283509
 30
0.0
  0
VERTEX
  5
233
330
222
100
AcDbEntity
  8
LAY-10
  6
CONTINUOUS
 62
     7
100
AcDbVertex
100
AcDb2dVertex
 10
460.6077259041244
 20
705.2533759952585
 30
0.0
  0
VERTEX
  5
234
330
222
100
AcDbEntity
  8
LAY-10
  6
CONTINUOUS
 62
     7
100
AcDbVertex
100
AcDb2dVertex
 10
460.6438414538079
 20
705.2959464257335
 30
0.0
  0
VERTEX
  5
235
330
222
100
AcDbEntity
  8
LAY-10
  6
CONTINUOUS
 62
     7
100
AcDbVertex
100
AcDb2dVertex
 10
460.6873824523066
 20
705.3298665197758
 30
0.0
  0
VERTEX
  5
236
330
222
100
AcDbEntity
  8
LAY-10
  6
CONTINUOUS
 62
     7
100
AcDbVertex
100
AcDb2dVertex
 10
460.73834889962
 20
705.3551362773856
 30
0.0
  0
VERTEX
  5
237
330
222
100
AcDbEntity
  8
LAY-10
  6
CONTINUOUS
 62
     7
100
AcDbVertex
100
AcDb2dVertex
 10
460.796740795748
 20
705.3717556985625
 30
0.0
  0
VERTEX
  5
238
330
222
100
AcDbEntity
  8
LAY-10
  6
CONTINUOUS
 62
     7
100
AcDbVertex
100
AcDb2dVertex
 10
460.8625581406911
 20
705.379724783307
 30
0.0
  0
VERTEX
  5
239
330
222
100
AcDbEntity
  8
LAY-10
  6
CONTINUOUS
 62
     7
100
AcDbVertex
100
AcDb2dVertex
 10
460.9262686546544
 20
705.378543966003
 30
0.0
  0
VERTEX
  5
23A
330
222
100
AcDbEntity
  8
LAY-10
  6
CONTINUOUS
 62
     7
100
AcDbVertex
100
AcDb2dVertex
 10
460.9837701059689
 20
705.3679982577992
 30
0.0
  0
VERTEX
  5
23B
330
222
100
AcDbEntity
  8
LAY-10
  6
CONTINUOUS
 62
     7
100
AcDbVertex
100
AcDb2dVertex
 10
461.0350624946345
 20
705.3480876586952
 30
0.0
  0
VERTEX
  5
23C
330
222
100
AcDbEntity
  8
LAY-10
  6
CONTINUOUS
 62
     7
100
AcDbVertex
100
AcDb2dVertex
 10
461.0801458206508
 20
705.3188121686912
 30
0.0
  0
VERTEX
  5
23D
330
222
100
AcDbEntity
  8
LAY-10
  6
CONTINUOUS
 62
     7
100
AcDbVertex
100
AcDb2dVertex
 10
461.1190200840182
 20
705.2801717877871
 30
0.0
  0
VERTEX
  5
23E
330
222
100
AcDbEntity
  8
LAY-10
  6
CONTINUOUS
 62
     7
100
AcDbVertex
100
AcDb2dVertex
 10
461.1516852847369
 20
705.232166515983
 30
0.0
  0
VERTEX
  5
23F
330
222
100
AcDbEntity
  8
LAY-10
  6
CONTINUOUS
 62
     7
100
AcDbVertex
100
AcDb2dVertex
 10
461.1781414228064
 20
705.1747963532785
 30
0.0
  0
VERTEX
  5
240
330
222
100
AcDbEntity
  8
LAY-10
  6
CONTINUOUS
 62
     7
100
AcDbVertex
100
AcDb2dVertex
 10
461.1983884982268
 20
705.1080612996741
 30
0.0
  0
VERTEX
  5
241
330
222
100
AcDbEntity
  8
LAY-10
  6
CONTINUOUS
 62
     7
100
AcDbVertex
100
AcDb2dVertex
 10
461.2124265109982
 20
705.0319613551696
 30
0.0
  0
VERTEX
  5
242
330
222
100
AcDbEntity
  8
LAY-10
  6
CONTINUOUS
 62
     7
100
AcDbVertex
100
AcDb2dVertex
 10
461.2202554611208
 20
704.9464965197651
 30
0.0
  0
VERTEX
  5
243
330
222
100
AcDbEntity
  8
LAY-10
  6
CONTINUOUS
 62
     7
100
AcDbVertex
100
AcDb2dVertex
 10
461.4704134364745
 20
700.173197998515
 30
0.0
  0
VERTEX
  5
244
330
222
100
AcDbEntity
  8
LAY-10
  6
CONTINUOUS
 62
     7
100
AcDbVertex
100
AcDb2dVertex
 10
461.560015239816
 20
700.2737203758477
 30
0.0
  0
VERTEX
  5
245
330
222
100
AcDbEntity
  8
LAY-10
  6
CONTINUOUS
 62
     7
100
AcDbVertex
100
AcDb2dVertex
 10
461.6580783900715
 20
700.368959412247
 30
0.0
  0
VERTEX
  5
246
330
222
100
AcDbEntity
  8
LAY-10
  6
CONTINUOUS
 62
     7
100
AcDbVertex
100
AcDb2dVertex
 10
461.7646028872409
 20
700.4589151077132
 30
0.0
  0
VERTEX
  5
247
330
222
100
AcDbEntity
  8
LAY-10
  6
CONTINUOUS
 62
     7
100
AcDbVertex
100
AcDb2dVertex
 10
461.8795887313247
 20
700.5435874622458
 30
0.0
  0
VERTEX
  5
248
330
222
100
AcDbEntity
  8
LAY-10
  6
CONTINUOUS
 62
     7
100
AcDbVertex
100
AcDb2dVertex
 10
462.0030359223224
 20
700.622976475845
 30
0.0
  0
VERTEX
  5
249
330
222
100
AcDbEntity
  8
LAY-10
  6
CONTINUOUS
 62
     7
100
AcDbVertex
100
AcDb2dVertex
 10
462.134944460234
 20
700.6970821485111
 30
0.0
  0
VERTEX
  5
24A
330
222
100
AcDbEntity
  8
LAY-10
  6
CONTINUOUS
 62
     7
100
AcDbVertex
100
AcDb2dVertex
 10
462.2753143450599
 20
700.7659044802435
 30
0.0
  0
VERTEX
  5
24B
330
222
100
AcDbEntity
  8
LAY-10
  6
CONTINUOUS
 62
     7
100
AcDbVertex
100
AcDb2dVertex
 10
462.4241455767999
 20
700.8294434710429
 30
0.0
  0
VERTEX
  5
24C
330
222
100
AcDbEntity
  8
LAY-10
  6
CONTINUOUS
 62
     7
100
AcDbVertex
100
AcDb2dVertex
 10
462.581438155454
 20
700.8876991209086
 30
0.0
  0
VERTEX
  5
24D
330
222
100
AcDbEntity
  8
LAY-10
  6
CONTINUOUS
 62
     7
100
AcDbVertex
100
AcDb2dVertex
 10
462.7471920810219
 20
700.9406714298411
 30
0.0
  0
VERTEX
  5
24E
330
222
100
AcDbEntity
  8
LAY-10
  6
CONTINUOUS
 62
     7
100
AcDbVertex
100
AcDb2dVertex
 10
462.7925946489217
 20
700.9467411155247
 30
0.0
  0
VERTEX
  5
24F
330
222
100
AcDbEntity
  8
LAY-10
  6
CONTINUOUS
 62
     7
100
AcDbVertex
100
AcDb2dVertex
 10
462.8350707475574
 20
700.9466381961035
 30
0.0
  0
VERTEX
  5
250
330
222
100
AcDbEntity
  8
LAY-10
  6
CONTINUOUS
 62
     7
100
AcDbVertex
100
AcDb2dVertex
 10
462.874620376929
 20
700.9403626715782
 30
0.0
  0
VERTEX
  5
251
330
222
100
AcDbEntity
  8
LAY-10
  6
CONTINUOUS
 62
     7
100
AcDbVertex
100
AcDb2dVertex
 10
462.9112435370366
 20
700.9279145419482
 30
0.0
  0
VERTEX
  5
252
330
222
100
AcDbEntity
  8
LAY-10
  6
CONTINUOUS
 62
     7
100
AcDbVertex
100
AcDb2dVertex
 10
462.9449402278804
 20
700.9092938072138
 30
0.0
  0
VERTEX
  5
253
330
222
100
AcDbEntity
  8
LAY-10
  6
CONTINUOUS
 62
     7
100
AcDbVertex
100
AcDb2dVertex
 10
462.9757104494597
 20
700.8845004673751
 30
0.0
  0
VERTEX
  5
254
330
222
100
AcDbEntity
  8
LAY-10
  6
CONTINUOUS
 62
     7
100
AcDbVertex
100
AcDb2dVertex
 10
463.0035542017752
 20
700.8535345224318
 30
0.0
  0
VERTEX
  5
255
330
222
100
AcDbEntity
  8
LAY-10
  6
CONTINUOUS
 62
     7
100
AcDbVertex
100
AcDb2dVertex
 10
463.0284714848264
 20
700.816395972384
 30
0.0
  0
VERTEX
  5
256
330
222
100
AcDbEntity
  8
LAY-10
  6
CONTINUOUS
 62
     7
100
AcDbVertex
100
AcDb2dVertex
 10
463.0504622986139
 20
700.7730848172316
 30
0.0
  0
VERTEX
  5
257
330
222
100
AcDbEntity
  8
LAY-10
  6
CONTINUOUS
 62
     7
100
AcDbVertex
100
AcDb2dVertex
 10
463.0695266431371
 20
700.723601056975
 30
0.0
  0
VERTEX
  5
258
330
222
100
AcDbEntity
  8
LAY-10
  6
CONTINUOUS
 62
     7
100
AcDbVertex
100
AcDb2dVertex
 10
463.0756122910102
 20
700.6715627476844
 30
0.0
  0
VERTEX
  5
259
330
222
100
AcDbEntity
  8
LAY-10
  6
CONTINUOUS
 62
     7
100
AcDbVertex
100
AcDb2dVertex
 10
463.0774357966033
 20
700.6228477385737
 30
0.0
  0
VERTEX
  5
25A
330
222
100
AcDbEntity
  8
LAY-10
  6
CONTINUOUS
 62
     7
100
AcDbVertex
100
AcDb2dVertex
 10
463.0749971599166
 20
700.5774560296429
 30
0.0
  0
VERTEX
  5
25B
330
222
100
AcDbEntity
  8
LAY-10
  6
CONTINUOUS
 62
     7
100
AcDbVertex
100
AcDb2dVertex
 10
463.06829638095
 20
700.5353876208922
 30
0.0
  0
VERTEX
  5
25C
330
222
100
AcDbEntity
  8
LAY-10
  6
CONTINUOUS
 62
     7
100
AcDbVertex
100
AcDb2dVertex
 10
463.0573334597033
 20
700.4966425123212
 30
0.0
  0
VERTEX
  5
25D
330
222
100
AcDbEntity
  8
LAY-10
  6
CONTINUOUS
 62
     7
100
AcDbVertex
100
AcDb2dVertex
 10
463.0421083961771
 20
700.4612207039302
 30
0.0
  0
VERTEX
  5
25E
330
222
100
AcDbEntity
  8
LAY-10
  6
CONTINUOUS
 62
     7
100
AcDbVertex
100
AcDb2dVertex
 10
463.0226211903707
 20
700.4291221957192
 30
0.0
  0
VERTEX
  5
25F
330
222
100
AcDbEntity
  8
LAY-10
  6
CONTINUOUS
 62
     7
100
AcDbVertex
100
AcDb2dVertex
 10
462.9988718422844
 20
700.400346987688
 30
0.0
  0
VERTEX
  5
260
330
222
100
AcDbEntity
  8
LAY-10
  6
CONTINUOUS
 62
     7
100
AcDbVertex
100
AcDb2dVertex
 10
462.9708603519182
 20
700.3748950798367
 30
0.0
  0
VERTEX
  5
261
330
222
100
AcDbEntity
  8
LAY-10
  6
CONTINUOUS
 62
     7
100
AcDbVertex
100
AcDb2dVertex
 10
462.9385867192721
 20
700.3527664721653
 30
0.0
  0
VERTEX
  5
262
330
222
100
AcDbEntity
  8
LAY-10
  6
CONTINUOUS
 62
     7
100
AcDbVertex
100
AcDb2dVertex
 10
462.8019466958037
 20
700.2978796355108
 30
0.0
  0
VERTEX
  5
263
330
222
100
AcDbEntity
  8
LAY-10
  6
CONTINUOUS
 62
     7
100
AcDbVertex
100
AcDb2dVertex
 10
462.6714312416274
 20
700.2401712226142
 30
0.0
  0
VERTEX
  5
264
330
222
100
AcDbEntity
  8
LAY-10
  6
CONTINUOUS
 62
     7
100
AcDbVertex
100
AcDb2dVertex
 10
462.5470403567438
 20
700.1796412334759
 30
0.0
  0
VERTEX
  5
265
330
222
100
AcDbEntity
  8
LAY-10
  6
CONTINUOUS
 62
     7
100
AcDbVertex
100
AcDb2dVertex
 10
462.4287740411518
 20
700.116289668096
 30
0.0
  0
VERTEX
  5
266
330
222
100
AcDbEntity
  8
LAY-10
  6
CONTINUOUS
 62
     7
100
AcDbVertex
100
AcDb2dVertex
 10
462.3166322948523
 20
700.0501165264741
 30
0.0
  0
VERTEX
  5
267
330
222
100
AcDbEntity
  8
LAY-10
  6
CONTINUOUS
 62
     7
100
AcDbVertex
100
AcDb2dVertex
 10
462.210615117845
 20
699.9811218086104
 30
0.0
  0
VERTEX
  5
268
330
222
100
AcDbEntity
  8
LAY-10
  6
CONTINUOUS
 62
     7
100
AcDbVertex
100
AcDb2dVertex
 10
462.1107225101298
 20
699.9093055145049
 30
0.0
  0
VERTEX
  5
269
330
222
100
AcDbEntity
  8
LAY-10
  6
CONTINUOUS
 62
     7
100
AcDbVertex
100
AcDb2dVertex
 10
462.0169544717066
 20
699.8346676441577
 30
0.0
  0
VERTEX
  5
26A
330
222
100
AcDbEntity
  8
LAY-10
  6
CONTINUOUS
 62
     7
100
AcDbVertex
100
AcDb2dVertex
 10
461.9293110025758
 20
699.7572081975686
 30
0.0
  0
VERTEX
  5
26B
330
222
100
AcDbEntity
  8
LAY-10
  6
CONTINUOUS
 62
     7
100
AcDbVertex
100
AcDb2dVertex
 10
461.847792102737
 20
699.6769271747378
 30
0.0
  0
VERTEX
  5
26C
330
222
100
AcDbEntity
  8
LAY-10
  6
CONTINUOUS
 62
     7
100
AcDbVertex
100
AcDb2dVertex
 10
461.7739815776012
 20
699.5829219431428
 30
0.0
  0
VERTEX
  5
26D
330
222
100
AcDbEntity
  8
LAY-10
  6
CONTINUOUS
 62
     7
100
AcDbVertex
100
AcDb2dVertex
 10
461.7069121929044
 20
699.4886159662249
 30
0.0
  0
VERTEX
  5
26E
330
222
100
AcDbEntity
  8
LAY-10
  6
CONTINUOUS
 62
     7
100
AcDbVertex
100
AcDb2dVertex
 10
461.6465839486464
 20
699.3940092439843
 30
0.0
  0
VERTEX
  5
26F
330
222
100
AcDbEntity
  8
LAY-10
  6
CONTINUOUS
 62
     7
100
AcDbVertex
100
AcDb2dVertex
 10
461.5929968448272
 20
699.2991017764214
 30
0.0
  0
VERTEX
  5
270
330
222
100
AcDbEntity
  8
LAY-10
  6
CONTINUOUS
 62
     7
100
AcDbVertex
100
AcDb2dVertex
 10
461.5461508814471
 20
699.2038935635353
 30
0.0
  0
VERTEX
  5
271
330
222
100
AcDbEntity
  8
LAY-10
  6
CONTINUOUS
 62
     7
100
AcDbVertex
100
AcDb2dVertex
 10
461.5060460585057
 20
699.1083846053268
 30
0.0
  0
VERTEX
  5
272
330
222
100
AcDbEntity
  8
LAY-10
  6
CONTINUOUS
 62
     7
100
AcDbVertex
100
AcDb2dVertex
 10
461.4726823760034
 20
699.0125749017957
 30
0.0
  0
VERTEX
  5
273
330
222
100
AcDbEntity
  8
LAY-10
  6
CONTINUOUS
 62
     7
100
AcDbVertex
100
AcDb2dVertex
 10
461.4460598339401
 20
698.9164644529417
 30
0.0
  0
VERTEX
  5
274
330
222
100
AcDbEntity
  8
LAY-10
  6
CONTINUOUS
 62
     7
100
AcDbVertex
100
AcDb2dVertex
 10
461.4261784323155
 20
698.8200532587653
 30
0.0
  0
VERTEX
  5
275
330
222
100
AcDbEntity
  8
LAY-10
  6
CONTINUOUS
 62
     7
100
AcDbVertex
100
AcDb2dVertex
 10
461.41303817113
 20
698.723341319266
 30
0.0
  0
VERTEX
  5
276
330
222
100
AcDbEntity
  8
LAY-10
  6
CONTINUOUS
 62
     7
100
AcDbVertex
100
AcDb2dVertex
 10
461.4071563360703
 20
698.6613039989488
 30
0.0
  0
VERTEX
  5
277
330
222
100
AcDbEntity
  8
LAY-10
  6
CONTINUOUS
 62
     7
100
AcDbVertex
100
AcDb2dVertex
 10
461.3967181269243
 20
698.6055256856478
 30
0.0
  0
VERTEX
  5
278
330
222
100
AcDbEntity
  8
LAY-10
  6
CONTINUOUS
 62
     7
100
AcDbVertex
100
AcDb2dVertex
 10
461.3817235436915
 20
698.5560063793628
 30
0.0
  0
VERTEX
  5
279
330
222
100
AcDbEntity
  8
LAY-10
  6
CONTINUOUS
 62
     7
100
AcDbVertex
100
AcDb2dVertex
 10
461.3621725863724
 20
698.5127460800938
 30
0.0
  0
VERTEX
  5
27A
330
222
100
AcDbEntity
  8
LAY-10
  6
CONTINUOUS
 62
     7
100
AcDbVertex
100
AcDb2dVertex
 10
461.3380652549665
 20
698.475744787841
 30
0.0
  0
VERTEX
  5
27B
330
222
100
AcDbEntity
  8
LAY-10
  6
CONTINUOUS
 62
     7
100
AcDbVertex
100
AcDb2dVertex
 10
461.3094015494743
 20
698.4450025026042
 30
0.0
  0
VERTEX
  5
27C
330
222
100
AcDbEntity
  8
LAY-10
  6
CONTINUOUS
 62
     7
100
AcDbVertex
100
AcDb2dVertex
 10
461.2761814698953
 20
698.4205192243837
 30
0.0
  0
VERTEX
  5
27D
330
222
100
AcDbEntity
  8
LAY-10
  6
CONTINUOUS
 62
     7
100
AcDbVertex
100
AcDb2dVertex
 10
461.23840501623
 20
698.4022949531791
 30
0.0
  0
VERTEX
  5
27E
330
222
100
AcDbEntity
  8
LAY-10
  6
CONTINUOUS
 62
     7
100
AcDbVertex
100
AcDb2dVertex
 10
461.1960721884781
 20
698.3903296889905
 30
0.0
  0
VERTEX
  5
27F
330
222
100
AcDbEntity
  8
LAY-10
  6
CONTINUOUS
 62
     7
100
AcDbVertex
100
AcDb2dVertex
 10
461.1491829866397
 20
698.384623431818
 30
0.0
  0
SEQEND
  5
280
330
222
100
AcDbEntity
  8
LAY-10
  6
CONTINUOUS
 62
     7
  0
POLYLINE
  5
281
330
1F
100
AcDbEntity
  8
LAY-10
  6
CONTINUOUS
 62
     7
100
AcDb2dPolyline
 66
     1
 10
0.0
 20
0.0
 30
0.0
 70
   128
  0
VERTEX
  5
282
330
281
100
AcDbEntity
  8
LAY-10
  6
CONTINUOUS
 62
     7
100
AcDbVertex
100
AcDb2dVertex
 10
472.5596540136683
 20
701.9088850937881
 30
0.0
  0
VERTEX
  5
283
330
281
100
AcDbEntity
  8
LAY-10
  6
CONTINUOUS
 62
     7
100
AcDbVertex
100
AcDb2dVertex
 10
474.9937716891579
 20
701.6100130238169
 30
0.0
  0
VERTEX
  5
284
330
281
100
AcDbEntity
  8
LAY-10
  6
CONTINUOUS
 62
     7
100
AcDbVertex
100
AcDb2dVertex
 10
475.0464177166411
 20
701.6003442927315
 30
0.0
  0
VERTEX
  5
285
330
281
100
AcDbEntity
  8
LAY-10
  6
CONTINUOUS
 62
     7
100
AcDbVertex
100
AcDb2dVertex
 10
475.0927059878192
 20
701.5850469725267
 30
0.0
  0
VERTEX
  5
286
330
281
100
AcDbEntity
  8
LAY-10
  6
CONTINUOUS
 62
     7
100
AcDbVertex
100
AcDb2dVertex
 10
475.1326365026925
 20
701.564121063203
 30
0.0
  0
VERTEX
  5
287
330
281
100
AcDbEntity
  8
LAY-10
  6
CONTINUOUS
 62
     7
100
AcDbVertex
100
AcDb2dVertex
 10
475.1662092612607
 20
701.5375665647598
 30
0.0
  0
VERTEX
  5
288
330
281
100
AcDbEntity
  8
LAY-10
  6
CONTINUOUS
 62
     7
100
AcDbVertex
100
AcDb2dVertex
 10
475.1934242635241
 20
701.5053834771975
 30
0.0
  0
VERTEX
  5
289
330
281
100
AcDbEntity
  8
LAY-10
  6
CONTINUOUS
 62
     7
100
AcDbVertex
100
AcDb2dVertex
 10
475.2142815094824
 20
701.467571800516
 30
0.0
  0
VERTEX
  5
28A
330
281
100
AcDbEntity
  8
LAY-10
  6
CONTINUOUS
 62
     7
100
AcDbVertex
100
AcDb2dVertex
 10
475.2287809991358
 20
701.4241315347153
 30
0.0
  0
VERTEX
  5
28B
330
281
100
AcDbEntity
  8
LAY-10
  6
CONTINUOUS
 62
     7
100
AcDbVertex
100
AcDb2dVertex
 10
475.2369227324841
 20
701.3750626797953
 30
0.0
  0
VERTEX
  5
28C
330
281
100
AcDbEntity
  8
LAY-10
  6
CONTINUOUS
 62
     7
100
AcDbVertex
100
AcDb2dVertex
 10
475.2387067095274
 20
701.3203652357563
 30
0.0
  0
VERTEX
  5
28D
330
281
100
AcDbEntity
  8
LAY-10
  6
CONTINUOUS
 62
     7
100
AcDbVertex
100
AcDb2dVertex
 10
475.2341329302658
 20
701.2600392025979
 30
0.0
  0
VERTEX
  5
28E
330
281
100
AcDbEntity
  8
LAY-10
  6
CONTINUOUS
 62
     7
100
AcDbVertex
100
AcDb2dVertex
 10
475.2239705126739
 20
701.2003485435503
 30
0.0
  0
VERTEX
  5
28F
330
281
100
AcDbEntity
  8
LAY-10
  6
CONTINUOUS
 62
     7
100
AcDbVertex
100
AcDb2dVertex
 10
475.2090015173931
 20
701.147662631405
 30
0.0
  0
VERTEX
  5
290
330
281
100
AcDbEntity
  8
LAY-10
  6
CONTINUOUS
 62
     7
100
AcDbVertex
100
AcDb2dVertex
 10
475.1892259444237
 20
701.1019814661622
 30
0.0
  0
VERTEX
  5
291
330
281
100
AcDbEntity
  8
LAY-10
  6
CONTINUOUS
 62
     7
100
AcDbVertex
100
AcDb2dVertex
 10
475.1646437937652
 20
701.063305047822
 30
0.0
  0
VERTEX
  5
292
330
281
100
AcDbEntity
  8
LAY-10
  6
CONTINUOUS
 62
     7
100
AcDbVertex
100
AcDb2dVertex
 10
475.135255065418
 20
701.0316333763842
 30
0.0
  0
VERTEX
  5
293
330
281
100
AcDbEntity
  8
LAY-10
  6
CONTINUOUS
 62
     7
100
AcDbVertex
100
AcDb2dVertex
 10
475.101059759382
 20
701.0069664518489
 30
0.0
  0
VERTEX
  5
294
330
281
100
AcDbEntity
  8
LAY-10
  6
CONTINUOUS
 62
     7
100
AcDbVertex
100
AcDb2dVertex
 10
475.0620578756573
 20
700.9893042742162
 30
0.0
  0
VERTEX
  5
295
330
281
100
AcDbEntity
  8
LAY-10
  6
CONTINUOUS
 62
     7
100
AcDbVertex
100
AcDb2dVertex
 10
475.0182494142437
 20
700.9786468434859
 30
0.0
  0
VERTEX
  5
296
330
281
100
AcDbEntity
  8
LAY-10
  6
CONTINUOUS
 62
     7
100
AcDbVertex
100
AcDb2dVertex
 10
474.9696343751411
 20
700.9749941596581
 30
0.0
  0
VERTEX
  5
297
330
281
100
AcDbEntity
  8
LAY-10
  6
CONTINUOUS
 62
     7
100
AcDbVertex
100
AcDb2dVertex
 10
474.9162127583497
 20
700.9783462227329
 30
0.0
  0
VERTEX
  5
298
330
281
100
AcDbEntity
  8
LAY-10
  6
CONTINUOUS
 62
     7
100
AcDbVertex
100
AcDb2dVertex
 10
472.4820950828603
 20
701.2772182927038
 30
0.0
  0
VERTEX
  5
299
330
281
100
AcDbEntity
  8
LAY-10
  6
CONTINUOUS
 62
     7
100
AcDbVertex
100
AcDb2dVertex
 10
472.4268858183224
 20
701.2872044246935
 30
0.0
  0
VERTEX
  5
29A
330
281
100
AcDbEntity
  8
LAY-10
  6
CONTINUOUS
 62
     7
100
AcDbVertex
100
AcDb2dVertex
 10
472.3783048057094
 20
701.3027912830528
 30
0.0
  0
VERTEX
  5
29B
330
281
100
AcDbEntity
  8
LAY-10
  6
CONTINUOUS
 62
     7
100
AcDbVertex
100
AcDb2dVertex
 10
472.3363520450209
 20
701.3239788677813
 30
0.0
  0
VERTEX
  5
29C
330
281
100
AcDbEntity
  8
LAY-10
  6
CONTINUOUS
 62
     7
100
AcDbVertex
100
AcDb2dVertex
 10
472.3010275362574
 20
701.3507671788793
 30
0.0
  0
VERTEX
  5
29D
330
281
100
AcDbEntity
  8
LAY-10
  6
CONTINUOUS
 62
     7
100
AcDbVertex
100
AcDb2dVertex
 10
472.2723312794187
 20
701.3831562163466
 30
0.0
  0
VERTEX
  5
29E
330
281
100
AcDbEntity
  8
LAY-10
  6
CONTINUOUS
 62
     7
100
AcDbVertex
100
AcDb2dVertex
 10
472.2502632745047
 20
701.4211459801834
 30
0.0
  0
VERTEX
  5
29F
330
281
100
AcDbEntity
  8
LAY-10
  6
CONTINUOUS
 62
     7
100
AcDbVertex
100
AcDb2dVertex
 10
472.2348235215154
 20
701.4647364703894
 30
0.0
  0
VERTEX
  5
2A0
330
281
100
AcDbEntity
  8
LAY-10
  6
CONTINUOUS
 62
     7
100
AcDbVertex
100
AcDb2dVertex
 10
472.2260120204509
 20
701.513927686965
 30
0.0
  0
VERTEX
  5
2A1
330
281
100
AcDbEntity
  8
LAY-10
  6
CONTINUOUS
 62
     7
100
AcDbVertex
100
AcDb2dVertex
 10
472.2238287713114
 20
701.5687196299098
 30
0.0
  0
VERTEX
  5
2A2
330
281
100
AcDbEntity
  8
LAY-10
  6
CONTINUOUS
 62
     7
100
AcDbVertex
100
AcDb2dVertex
 10
472.2282737740965
 20
701.6291122992241
 30
0.0
  0
VERTEX
  5
2A3
330
281
100
AcDbEntity
  8
LAY-10
  6
CONTINUOUS
 62
     7
100
AcDbVertex
100
AcDb2dVertex
 10
472.238564968165
 20
701.6887363221158
 30
0.0
  0
VERTEX
  5
2A4
330
281
100
AcDbEntity
  8
LAY-10
  6
CONTINUOUS
 62
     7
100
AcDbVertex
100
AcDb2dVertex
 10
472.253933235542
 20
701.7413277353553
 30
0.0
  0
VERTEX
  5
2A5
330
281
100
AcDbEntity
  8
LAY-10
  6
CONTINUOUS
 62
     7
100
AcDbVertex
100
AcDb2dVertex
 10
472.2743785762277
 20
701.7868865389426
 30
0.0
  0
VERTEX
  5
2A6
330
281
100
AcDbEntity
  8
LAY-10
  6
CONTINUOUS
 62
     7
100
AcDbVertex
100
AcDb2dVertex
 10
472.2999009902219
 20
701.8254127328773
 30
0.0
  0
VERTEX
  5
2A7
330
281
100
AcDbEntity
  8
LAY-10
  6
CONTINUOUS
 62
     7
100
AcDbVertex
100
AcDb2dVertex
 10
472.3305004775247
 20
701.8569063171599
 30
0.0
  0
VERTEX
  5
2A8
330
281
100
AcDbEntity
  8
LAY-10
  6
CONTINUOUS
 62
     7
100
AcDbVertex
100
AcDb2dVertex
 10
472.3661770381361
 20
701.88136729179
 30
0.0
  0
VERTEX
  5
2A9
330
281
100
AcDbEntity
  8
LAY-10
  6
CONTINUOUS
 62
     7
100
AcDbVertex
100
AcDb2dVertex
 10
472.4069306720564
 20
701.898795656768
 30
0.0
  0
VERTEX
  5
2AA
330
281
100
AcDbEntity
  8
LAY-10
  6
CONTINUOUS
 62
     7
100
AcDbVertex
100
AcDb2dVertex
 10
472.4527613792849
 20
701.9091914120936
 30
0.0
  0
VERTEX
  5
2AB
330
281
100
AcDbEntity
  8
LAY-10
  6
CONTINUOUS
 62
     7
100
AcDbVertex
100
AcDb2dVertex
 10
472.5036691598223
 20
701.912554557767
 30
0.0
  0
VERTEX
  5
2AC
330
281
100
AcDbEntity
  8
LAY-10
  6
CONTINUOUS
 62
     7
100
AcDbVertex
100
AcDb2dVertex
 10
472.5596540136683
 20
701.9088850937881
 30
0.0
  0
SEQEND
  5
2AD
330
281
100
AcDbEntity
  8
LAY-10
  6
CONTINUOUS
 62
     7
  0
POLYLINE
  5
2AE
330
1F
100
AcDbEntity
  8
LAY-10
  6
CONTINUOUS
 62
     7
100
AcDb2dPolyline
 66
     1
 10
0.0
 20
0.0
 30
0.0
 70
   128
  0
VERTEX
  5
2AF
330
2AE
100
AcDbEntity
  8
LAY-10
  6
CONTINUOUS
 62
     7
100
AcDbVertex
100
AcDb2dVertex
 10
466.3416820437885
 20
699.3248169730953
 30
0.0
  0
VERTEX
  5
2B0
330
2AE
100
AcDbEntity
  8
LAY-10
  6
CONTINUOUS
 62
     7
100
AcDbVertex
100
AcDb2dVertex
 10
466.213683779486
 20
699.5175587505069
 30
0.0
  0
VERTEX
  5
2B1
330
2AE
100
AcDbEntity
  8
LAY-10
  6
CONTINUOUS
 62
     7
100
AcDbVertex
100
AcDb2dVertex
 10
466.1006852804528
 20
699.7249691071738
 30
0.0
  0
VERTEX
  5
2B2
330
2AE
100
AcDbEntity
  8
LAY-10
  6
CONTINUOUS
 62
     7
100
AcDbVertex
100
AcDb2dVertex
 10
466.0026865466884
 20
699.9470480430966
 30
0.0
  0
VERTEX
  5
2B3
330
2AE
100
AcDbEntity
  8
LAY-10
  6
CONTINUOUS
 62
     7
100
AcDbVertex
100
AcDb2dVertex
 10
465.9196875781928
 20
700.1837955582748
 30
0.0
  0
VERTEX
  5
2B4
330
2AE
100
AcDbEntity
  8
LAY-10
  6
CONTINUOUS
 62
     7
100
AcDbVertex
100
AcDb2dVertex
 10
465.8516883749666
 20
700.4352116527089
 30
0.0
  0
VERTEX
  5
2B5
330
2AE
100
AcDbEntity
  8
LAY-10
  6
CONTINUOUS
 62
     7
100
AcDbVertex
100
AcDb2dVertex
 10
465.7986889370092
 20
700.7012963263985
 30
0.0
  0
VERTEX
  5
2B6
330
2AE
100
AcDbEntity
  8
LAY-10
  6
CONTINUOUS
 62
     7
100
AcDbVertex
100
AcDb2dVertex
 10
465.7606892643209
 20
700.982049579344
 30
0.0
  0
VERTEX
  5
2B7
330
2AE
100
AcDbEntity
  8
LAY-10
  6
CONTINUOUS
 62
     7
100
AcDbVertex
100
AcDb2dVertex
 10
465.7376893569016
 20
701.2774714115449
 30
0.0
  0
VERTEX
  5
2B8
330
2AE
100
AcDbEntity
  8
LAY-10
  6
CONTINUOUS
 62
     7
100
AcDbVertex
100
AcDb2dVertex
 10
465.7296892147514
 20
701.5875618230014
 30
0.0
  0
VERTEX
  5
2B9
330
2AE
100
AcDbEntity
  8
LAY-10
  6
CONTINUOUS
 62
     7
100
AcDbVertex
100
AcDb2dVertex
 10
465.7366888378701
 20
701.9123208137137
 30
0.0
  0
VERTEX
  5
2BA
330
2AE
100
AcDbEntity
  8
LAY-10
  6
CONTINUOUS
 62
     7
100
AcDbVertex
100
AcDb2dVertex
 10
465.7596905682889
 20
702.2747057905615
 30
0.0
  0
VERTEX
  5
2BB
330
2AE
100
AcDbEntity
  8
LAY-10
  6
CONTINUOUS
 62
     7
100
AcDbVertex
100
AcDb2dVertex
 10
465.7961807337046
 20
702.6171441924441
 30
0.0
  0
VERTEX
  5
2BC
330
2AE
100
AcDbEntity
  8
LAY-10
  6
CONTINUOUS
 62
     7
100
AcDbVertex
100
AcDb2dVertex
 10
465.8461593341171
 20
702.9396360193616
 30
0.0
  0
VERTEX
  5
2BD
330
2AE
100
AcDbEntity
  8
LAY-10
  6
CONTINUOUS
 62
     7
100
AcDbVertex
100
AcDb2dVertex
 10
465.9096263695264
 20
703.2421812713139
 30
0.0
  0
VERTEX
  5
2BE
330
2AE
100
AcDbEntity
  8
LAY-10
  6
CONTINUOUS
 62
     7
100
AcDbVertex
100
AcDb2dVertex
 10
465.9865818399325
 20
703.5247799483013
 30
0.0
  0
VERTEX
  5
2BF
330
2AE
100
AcDbEntity
  8
LAY-10
  6
CONTINUOUS
 62
     7
100
AcDbVertex
100
AcDb2dVertex
 10
466.0770257453353
 20
703.7874320503236
 30
0.0
  0
VERTEX
  5
2C0
330
2AE
100
AcDbEntity
  8
LAY-10
  6
CONTINUOUS
 62
     7
100
AcDbVertex
100
AcDb2dVertex
 10
466.180958085735
 20
704.0301375773806
 30
0.0
  0
VERTEX
  5
2C1
330
2AE
100
AcDbEntity
  8
LAY-10
  6
CONTINUOUS
 62
     7
100
AcDbVertex
100
AcDb2dVertex
 10
466.2983788611316
 20
704.2528965294725
 30
0.0
  0
VERTEX
  5
2C2
330
2AE
100
AcDbEntity
  8
LAY-10
  6
CONTINUOUS
 62
     7
100
AcDbVertex
100
AcDb2dVertex
 10
466.429288071525
 20
704.4557089065995
 30
0.0
  0
VERTEX
  5
2C3
330
2AE
100
AcDbEntity
  8
LAY-10
  6
CONTINUOUS
 62
     7
100
AcDbVertex
100
AcDb2dVertex
 10
466.5736857169152
 20
704.6385747087613
 30
0.0
  0
VERTEX
  5
2C4
330
2AE
100
AcDbEntity
  8
LAY-10
  6
CONTINUOUS
 62
     7
100
AcDbVertex
100
AcDb2dVertex
 10
466.7227653211018
 20
704.7950086459136
 30
0.0
  0
VERTEX
  5
2C5
330
2AE
100
AcDbEntity
  8
LAY-10
  6
CONTINUOUS
 62
     7
100
AcDbVertex
100
AcDb2dVertex
 10
466.8810624034006
 20
704.9338882557815
 30
0.0
  0
VERTEX
  5
2C6
330
2AE
100
AcDbEntity
  8
LAY-10
  6
CONTINUOUS
 62
     7
100
AcDbVertex
100
AcDb2dVertex
 10
467.0485769638116
 20
705.0552135383648
 30
0.0
  0
VERTEX
  5
2C7
330
2AE
100
AcDbEntity
  8
LAY-10
  6
CONTINUOUS
 62
     7
100
AcDbVertex
100
AcDb2dVertex
 10
467.225309002335
 20
705.1589844936636
 30
0.0
  0
VERTEX
  5
2C8
330
2AE
100
AcDbEntity
  8
LAY-10
  6
CONTINUOUS
 62
     7
100
AcDbVertex
100
AcDb2dVertex
 10
467.4112585189702
 20
705.2452011216781
 30
0.0
  0
VERTEX
  5
2C9
330
2AE
100
AcDbEntity
  8
LAY-10
  6
CONTINUOUS
 62
     7
100
AcDbVertex
100
AcDb2dVertex
 10
467.6064255137178
 20
705.3138634224078
 30
0.0
  0
VERTEX
  5
2CA
330
2AE
100
AcDbEntity
  8
LAY-10
  6
CONTINUOUS
 62
     7
100
AcDbVertex
100
AcDb2dVertex
 10
467.8108099865774
 20
705.364971395853
 30
0.0
  0
VERTEX
  5
2CB
330
2AE
100
AcDbEntity
  8
LAY-10
  6
CONTINUOUS
 62
     7
100
AcDbVertex
100
AcDb2dVertex
 10
468.024411937549
 20
705.3985250420137
 30
0.0
  0
VERTEX
  5
2CC
330
2AE
100
AcDbEntity
  8
LAY-10
  6
CONTINUOUS
 62
     7
100
AcDbVertex
100
AcDb2dVertex
 10
468.247231366633
 20
705.41452436089
 30
0.0
  0
VERTEX
  5
2CD
330
2AE
100
AcDbEntity
  8
LAY-10
  6
CONTINUOUS
 62
     7
100
AcDbVertex
100
AcDb2dVertex
 10
468.4792682738291
 20
705.4129693524817
 30
0.0
  0
VERTEX
  5
2CE
330
2AE
100
AcDbEntity
  8
LAY-10
  6
CONTINUOUS
 62
     7
100
AcDbVertex
100
AcDb2dVertex
 10
468.6776166246871
 20
705.3970674291495
 30
0.0
  0
VERTEX
  5
2CF
330
2AE
100
AcDbEntity
  8
LAY-10
  6
CONTINUOUS
 62
     7
100
AcDbVertex
100
AcDb2dVertex
 10
468.8665954033478
 20
705.3670908955555
 30
0.0
  0
VERTEX
  5
2D0
330
2AE
100
AcDbEntity
  8
LAY-10
  6
CONTINUOUS
 62
     7
100
AcDbVertex
100
AcDb2dVertex
 10
469.0462046098114
 20
705.3230397516995
 30
0.0
  0
VERTEX
  5
2D1
330
2AE
100
AcDbEntity
  8
LAY-10
  6
CONTINUOUS
 62
     7
100
AcDbVertex
100
AcDb2dVertex
 10
469.2164442440778
 20
705.2649139975815
 30
0.0
  0
VERTEX
  5
2D2
330
2AE
100
AcDbEntity
  8
LAY-10
  6
CONTINUOUS
 62
     7
100
AcDbVertex
100
AcDb2dVertex
 10
469.3773143061471
 20
705.1927136332017
 30
0.0
  0
VERTEX
  5
2D3
330
2AE
100
AcDbEntity
  8
LAY-10
  6
CONTINUOUS
 62
     7
100
AcDbVertex
100
AcDb2dVertex
 10
469.5288147960191
 20
705.1064386585601
 30
0.0
  0
VERTEX
  5
2D4
330
2AE
100
AcDbEntity
  8
LAY-10
  6
CONTINUOUS
 62
     7
100
AcDbVertex
100
AcDb2dVertex
 10
469.670945713694
 20
705.0060890736565
 30
0.0
  0
VERTEX
  5
2D5
330
2AE
100
AcDbEntity
  8
LAY-10
  6
CONTINUOUS
 62
     7
100
AcDbVertex
100
AcDb2dVertex
 10
469.8037070591715
 20
704.8916648784909
 30
0.0
  0
VERTEX
  5
2D6
330
2AE
100
AcDbEntity
  8
LAY-10
  6
CONTINUOUS
 62
     7
100
AcDbVertex
100
AcDb2dVertex
 10
469.9270988324519
 20
704.7631660730635
 30
0.0
  0
VERTEX
  5
2D7
330
2AE
100
AcDbEntity
  8
LAY-10
  6
CONTINUOUS
 62
     7
100
AcDbVertex
100
AcDb2dVertex
 10
470.0411210335353
 20
704.6205926573741
 30
0.0
  0
VERTEX
  5
2D8
330
2AE
100
AcDbEntity
  8
LAY-10
  6
CONTINUOUS
 62
     7
100
AcDbVertex
100
AcDb2dVertex
 10
470.0918209744172
 20
704.5488679462146
 30
0.0
  0
VERTEX
  5
2D9
330
2AE
100
AcDbEntity
  8
LAY-10
  6
CONTINUOUS
 62
     7
100
AcDbVertex
100
AcDb2dVertex
 10
470.1381544022381
 20
704.47841816506
 30
0.0
  0
VERTEX
  5
2DA
330
2AE
100
AcDbEntity
  8
LAY-10
  6
CONTINUOUS
 62
     7
100
AcDbVertex
100
AcDb2dVertex
 10
470.1801213169974
 20
704.4092433139106
 30
0.0
  0
VERTEX
  5
2DB
330
2AE
100
AcDbEntity
  8
LAY-10
  6
CONTINUOUS
 62
     7
100
AcDbVertex
100
AcDb2dVertex
 10
470.2177217186954
 20
704.3413433927658
 30
0.0
  0
VERTEX
  5
2DC
330
2AE
100
AcDbEntity
  8
LAY-10
  6
CONTINUOUS
 62
     7
100
AcDbVertex
100
AcDb2dVertex
 10
470.2509556073319
 20
704.2747184016259
 30
0.0
  0
VERTEX
  5
2DD
330
2AE
100
AcDbEntity
  8
LAY-10
  6
CONTINUOUS
 62
     7
100
AcDbVertex
100
AcDb2dVertex
 10
470.2798229829073
 20
704.209368340491
 30
0.0
  0
VERTEX
  5
2DE
330
2AE
100
AcDbEntity
  8
LAY-10
  6
CONTINUOUS
 62
     7
100
AcDbVertex
100
AcDb2dVertex
 10
470.3043238454211
 20
704.145293209361
 30
0.0
  0
VERTEX
  5
2DF
330
2AE
100
AcDbEntity
  8
LAY-10
  6
CONTINUOUS
 62
     7
100
AcDbVertex
100
AcDb2dVertex
 10
470.3244581948736
 20
704.0824930082358
 30
0.0
  0
VERTEX
  5
2E0
330
2AE
100
AcDbEntity
  8
LAY-10
  6
CONTINUOUS
 62
     7
100
AcDbVertex
100
AcDb2dVertex
 10
470.3402260312648
 20
704.0209677371154
 30
0.0
  0
VERTEX
  5
2E1
330
2AE
100
AcDbEntity
  8
LAY-10
  6
CONTINUOUS
 62
     7
100
AcDbVertex
100
AcDb2dVertex
 10
470.3516273545947
 20
703.9607173960001
 30
0.0
  0
VERTEX
  5
2E2
330
2AE
100
AcDbEntity
  8
LAY-10
  6
CONTINUOUS
 62
     7
100
AcDbVertex
100
AcDb2dVertex
 10
470.3615482212244
 20
703.8913445127823
 30
0.0
  0
VERTEX
  5
2E3
330
2AE
100
AcDbEntity
  8
LAY-10
  6
CONTINUOUS
 62
     7
100
AcDbVertex
100
AcDb2dVertex
 10
470.3654767974913
 20
703.8258422232527
 30
0.0
  0
VERTEX
  5
2E4
330
2AE
100
AcDbEntity
  8
LAY-10
  6
CONTINUOUS
 62
     7
100
AcDbVertex
100
AcDb2dVertex
 10
470.3634130833952
 20
703.7642105274113
 30
0.0
  0
VERTEX
  5
2E5
330
2AE
100
AcDbEntity
  8
LAY-10
  6
CONTINUOUS
 62
     7
100
AcDbVertex
100
AcDb2dVertex
 10
470.3553570789365
 20
703.7064494252579
 30
0.0
  0
VERTEX
  5
2E6
330
2AE
100
AcDbEntity
  8
LAY-10
  6
CONTINUOUS
 62
     7
100
AcDbVertex
100
AcDb2dVertex
 10
470.341308784115
 20
703.6525589167929
 30
0.0
  0
VERTEX
  5
2E7
330
2AE
100
AcDbEntity
  8
LAY-10
  6
CONTINUOUS
 62
     7
100
AcDbVertex
100
AcDb2dVertex
 10
470.3212681989305
 20
703.6025390020159
 30
0.0
  0
VERTEX
  5
2E8
330
2AE
100
AcDbEntity
  8
LAY-10
  6
CONTINUOUS
 62
     7
100
AcDbVertex
100
AcDb2dVertex
 10
470.2952353233832
 20
703.5563896809272
 30
0.0
  0
VERTEX
  5
2E9
330
2AE
100
AcDbEntity
  8
LAY-10
  6
CONTINUOUS
 62
     7
100
AcDbVertex
100
AcDb2dVertex
 10
470.2632101574732
 20
703.5141109535266
 30
0.0
  0
VERTEX
  5
2EA
330
2AE
100
AcDbEntity
  8
LAY-10
  6
CONTINUOUS
 62
     7
100
AcDbVertex
100
AcDb2dVertex
 10
470.2251927012003
 20
703.4757028198144
 30
0.0
  0
VERTEX
  5
2EB
330
2AE
100
AcDbEntity
  8
LAY-10
  6
CONTINUOUS
 62
     7
100
AcDbVertex
100
AcDb2dVertex
 10
470.1811829545645
 20
703.4411652797903
 30
0.0
  0
VERTEX
  5
2EC
330
2AE
100
AcDbEntity
  8
LAY-10
  6
CONTINUOUS
 62
     7
100
AcDbVertex
100
AcDb2dVertex
 10
470.1206938736457
 20
703.4205951728879
 30
0.0
  0
VERTEX
  5
2ED
330
2AE
100
AcDbEntity
  8
LAY-10
  6
CONTINUOUS
 62
     7
100
AcDbVertex
100
AcDb2dVertex
 10
470.0633905799893
 20
703.4095913756835
 30
0.0
  0
VERTEX
  5
2EE
330
2AE
100
AcDbEntity
  8
LAY-10
  6
CONTINUOUS
 62
     7
100
AcDbVertex
100
AcDb2dVertex
 10
470.0092730735959
 20
703.4081538881774
 30
0.0
  0
VERTEX
  5
2EF
330
2AE
100
AcDbEntity
  8
LAY-10
  6
CONTINUOUS
 62
     7
100
AcDbVertex
100
AcDb2dVertex
 10
469.9583413544653
 20
703.4162827103692
 30
0.0
  0
VERTEX
  5
2F0
330
2AE
100
AcDbEntity
  8
LAY-10
  6
CONTINUOUS
 62
     7
100
AcDbVertex
100
AcDb2dVertex
 10
469.9105954225972
 20
703.4339778422591
 30
0.0
  0
VERTEX
  5
2F1
330
2AE
100
AcDbEntity
  8
LAY-10
  6
CONTINUOUS
 62
     7
100
AcDbVertex
100
AcDb2dVertex
 10
469.8660352779921
 20
703.4612392838469
 30
0.0
  0
VERTEX
  5
2F2
330
2AE
100
AcDbEntity
  8
LAY-10
  6
CONTINUOUS
 62
     7
100
AcDbVertex
100
AcDb2dVertex
 10
469.8246609206494
 20
703.4980670351329
 30
0.0
  0
VERTEX
  5
2F3
330
2AE
100
AcDbEntity
  8
LAY-10
  6
CONTINUOUS
 62
     7
100
AcDbVertex
100
AcDb2dVertex
 10
469.7864723505697
 20
703.5444610961167
 30
0.0
  0
VERTEX
  5
2F4
330
2AE
100
AcDbEntity
  8
LAY-10
  6
CONTINUOUS
 62
     7
100
AcDbVertex
100
AcDb2dVertex
 10
469.7514695677525
 20
703.6004214667989
 30
0.0
  0
VERTEX
  5
2F5
330
2AE
100
AcDbEntity
  8
LAY-10
  6
CONTINUOUS
 62
     7
100
AcDbVertex
100
AcDb2dVertex
 10
469.7196525721981
 20
703.6659481471788
 30
0.0
  0
VERTEX
  5
2F6
330
2AE
100
AcDbEntity
  8
LAY-10
  6
CONTINUOUS
 62
     7
100
AcDbVertex
100
AcDb2dVertex
 10
469.6908540265794
 20
703.7391562616069
 30
0.0
  0
VERTEX
  5
2F7
330
2AE
100
AcDbEntity
  8
LAY-10
  6
CONTINUOUS
 62
     7
100
AcDbVertex
100
AcDb2dVertex
 10
469.6623862027436
 20
703.8091289753313
 30
0.0
  0
VERTEX
  5
2F8
330
2AE
100
AcDbEntity
  8
LAY-10
  6
CONTINUOUS
 62
     7
100
AcDbVertex
100
AcDb2dVertex
 10
469.6342491006908
 20
703.8758662883527
 30
0.0
  0
VERTEX
  5
2F9
330
2AE
100
AcDbEntity
  8
LAY-10
  6
CONTINUOUS
 62
     7
100
AcDbVertex
100
AcDb2dVertex
 10
469.6064427204209
 20
703.9393682006703
 30
0.0
  0
VERTEX
  5
2FA
330
2AE
100
AcDbEntity
  8
LAY-10
  6
CONTINUOUS
 62
     7
100
AcDbVertex
100
AcDb2dVertex
 10
469.5789670619342
 20
703.9996347122847
 30
0.0
  0
VERTEX
  5
2FB
330
2AE
100
AcDbEntity
  8
LAY-10
  6
CONTINUOUS
 62
     7
100
AcDbVertex
100
AcDb2dVertex
 10
469.5518221252305
 20
704.0566658231955
 30
0.0
  0
VERTEX
  5
2FC
330
2AE
100
AcDbEntity
  8
LAY-10
  6
CONTINUOUS
 62
     7
100
AcDbVertex
100
AcDb2dVertex
 10
469.5250079103096
 20
704.1104615334032
 30
0.0
  0
VERTEX
  5
2FD
330
2AE
100
AcDbEntity
  8
LAY-10
  6
CONTINUOUS
 62
     7
100
AcDbVertex
100
AcDb2dVertex
 10
469.4985244171719
 20
704.1610218429073
 30
0.0
  0
VERTEX
  5
2FE
330
2AE
100
AcDbEntity
  8
LAY-10
  6
CONTINUOUS
 62
     7
100
AcDbVertex
100
AcDb2dVertex
 10
469.472371645817
 20
704.2083467517082
 30
0.0
  0
VERTEX
  5
2FF
330
2AE
100
AcDbEntity
  8
LAY-10
  6
CONTINUOUS
 62
     7
100
AcDbVertex
100
AcDb2dVertex
 10
469.4465495962451
 20
704.2524362598056
 30
0.0
  0
VERTEX
  5
300
330
2AE
100
AcDbEntity
  8
LAY-10
  6
CONTINUOUS
 62
     7
100
AcDbVertex
100
AcDb2dVertex
 10
469.3884887352449
 20
704.3337412899994
 30
0.0
  0
VERTEX
  5
301
330
2AE
100
AcDbEntity
  8
LAY-10
  6
CONTINUOUS
 62
     7
100
AcDbVertex
100
AcDb2dVertex
 10
469.3205642204263
 20
704.4071853936452
 30
0.0
  0
VERTEX
  5
302
330
2AE
100
AcDbEntity
  8
LAY-10
  6
CONTINUOUS
 62
     7
100
AcDbVertex
100
AcDb2dVertex
 10
469.2427760517894
 20
704.4727685707428
 30
0.0
  0
VERTEX
  5
303
330
2AE
100
AcDbEntity
  8
LAY-10
  6
CONTINUOUS
 62
     7
100
AcDbVertex
100
AcDb2dVertex
 10
469.1551242293344
 20
704.5304908212922
 30
0.0
  0
VERTEX
  5
304
330
2AE
100
AcDbEntity
  8
LAY-10
  6
CONTINUOUS
 62
     7
100
AcDbVertex
100
AcDb2dVertex
 10
469.0576087530612
 20
704.5803521452935
 30
0.0
  0
VERTEX
  5
305
330
2AE
100
AcDbEntity
  8
LAY-10
  6
CONTINUOUS
 62
     7
100
AcDbVertex
100
AcDb2dVertex
 10
468.9502296229696
 20
704.6223525427465
 30
0.0
  0
VERTEX
  5
306
330
2AE
100
AcDbEntity
  8
LAY-10
  6
CONTINUOUS
 62
     7
100
AcDbVertex
100
AcDb2dVertex
 10
468.8329868390599
 20
704.6564920136518
 30
0.0
  0
VERTEX
  5
307
330
2AE
100
AcDbEntity
  8
LAY-10
  6
CONTINUOUS
 62
     7
100
AcDbVertex
100
AcDb2dVertex
 10
468.7058804013317
 20
704.6827705580085
 30
0.0
  0
VERTEX
  5
308
330
2AE
100
AcDbEntity
  8
LAY-10
  6
CONTINUOUS
 62
     7
100
AcDbVertex
100
AcDb2dVertex
 10
468.5689103097856
 20
704.7011881758172
 30
0.0
  0
VERTEX
  5
309
330
2AE
100
AcDbEntity
  8
LAY-10
  6
CONTINUOUS
 62
     7
100
AcDbVertex
100
AcDb2dVertex
 10
468.422076564421
 20
704.7117448670779
 30
0.0
  0
VERTEX
  5
30A
330
2AE
100
AcDbEntity
  8
LAY-10
  6
CONTINUOUS
 62
     7
100
AcDbVertex
100
AcDb2dVertex
 10
468.2652377070112
 20
704.712174595348
 30
0.0
  0
VERTEX
  5
30B
330
2AE
100
AcDbEntity
  8
LAY-10
  6
CONTINUOUS
 62
     7
100
AcDbVertex
100
AcDb2dVertex
 10
468.1135306926446
 20
704.6995442542534
 30
0.0
  0
VERTEX
  5
30C
330
2AE
100
AcDbEntity
  8
LAY-10
  6
CONTINUOUS
 62
     7
100
AcDbVertex
100
AcDb2dVertex
 10
467.9669555213216
 20
704.6738538437942
 30
0.0
  0
VERTEX
  5
30D
330
2AE
100
AcDbEntity
  8
LAY-10
  6
CONTINUOUS
 62
     7
100
AcDbVertex
100
AcDb2dVertex
 10
467.825512193042
 20
704.6351033639708
 30
0.0
  0
VERTEX
  5
30E
330
2AE
100
AcDbEntity
  8
LAY-10
  6
CONTINUOUS
 62
     7
100
AcDbVertex
100
AcDb2dVertex
 10
467.6892007078056
 20
704.5832928147827
 30
0.0
  0
VERTEX
  5
30F
330
2AE
100
AcDbEntity
  8
LAY-10
  6
CONTINUOUS
 62
     7
100
AcDbVertex
100
AcDb2dVertex
 10
467.5580210656128
 20
704.51842219623
 30
0.0
  0
VERTEX
  5
310
330
2AE
100
AcDbEntity
  8
LAY-10
  6
CONTINUOUS
 62
     7
100
AcDbVertex
100
AcDb2dVertex
 10
467.4319732664632
 20
704.4404915083128
 30
0.0
  0
VERTEX
  5
311
330
2AE
100
AcDbEntity
  8
LAY-10
  6
CONTINUOUS
 62
     7
100
AcDbVertex
100
AcDb2dVertex
 10
467.3110573103574
 20
704.349500751031
 30
0.0
  0
VERTEX
  5
312
330
2AE
100
AcDbEntity
  8
LAY-10
  6
CONTINUOUS
 62
     7
100
AcDbVertex
100
AcDb2dVertex
 10
467.1952731972949
 20
704.2454499243847
 30
0.0
  0
VERTEX
  5
313
330
2AE
100
AcDbEntity
  8
LAY-10
  6
CONTINUOUS
 62
     7
100
AcDbVertex
100
AcDb2dVertex
 10
467.0846209272756
 20
704.1283390283741
 30
0.0
  0
VERTEX
  5
314
330
2AE
100
AcDbEntity
  8
LAY-10
  6
CONTINUOUS
 62
     7
100
AcDbVertex
100
AcDb2dVertex
 10
466.9810378091045
 20
703.9948678323083
 30
0.0
  0
VERTEX
  5
315
330
2AE
100
AcDbEntity
  8
LAY-10
  6
CONTINUOUS
 62
     7
100
AcDbVertex
100
AcDb2dVertex
 10
466.8869087141054
 20
703.8422480762251
 30
0.0
  0
VERTEX
  5
316
330
2AE
100
AcDbEntity
  8
LAY-10
  6
CONTINUOUS
 62
     7
100
AcDbVertex
100
AcDb2dVertex
 10
466.8022336422787
 20
703.670479760124
 30
0.0
  0
VERTEX
  5
317
330
2AE
100
AcDbEntity
  8
LAY-10
  6
CONTINUOUS
 62
     7
100
AcDbVertex
100
AcDb2dVertex
 10
466.7270125936238
 20
703.4795628840054
 30
0.0
  0
VERTEX
  5
318
330
2AE
100
AcDbEntity
  8
LAY-10
  6
CONTINUOUS
 62
     7
100
AcDbVertex
100
AcDb2dVertex
 10
466.6612455681413
 20
703.2694974478691
 30
0.0
  0
VERTEX
  5
319
330
2AE
100
AcDbEntity
  8
LAY-10
  6
CONTINUOUS
 62
     7
100
AcDbVertex
100
AcDb2dVertex
 10
466.6049325658309
 20
703.0402834517149
 30
0.0
  0
VERTEX
  5
31A
330
2AE
100
AcDbEntity
  8
LAY-10
  6
CONTINUOUS
 62
     7
100
AcDbVertex
100
AcDb2dVertex
 10
466.5580735866928
 20
702.7919208955434
 30
0.0
  0
VERTEX
  5
31B
330
2AE
100
AcDbEntity
  8
LAY-10
  6
CONTINUOUS
 62
     7
100
AcDbVertex
100
AcDb2dVertex
 10
466.5206686307267
 20
702.5244097793538
 30
0.0
  0
VERTEX
  5
31C
330
2AE
100
AcDbEntity
  8
LAY-10
  6
CONTINUOUS
 62
     7
100
AcDbVertex
100
AcDb2dVertex
 10
466.4927176979329
 20
702.2377501031469
 30
0.0
  0
VERTEX
  5
31D
330
2AE
100
AcDbEntity
  8
LAY-10
  6
CONTINUOUS
 62
     7
100
AcDbVertex
100
AcDb2dVertex
 10
466.4742207883112
 20
701.9319418669222
 30
0.0
  0
VERTEX
  5
31E
330
2AE
100
AcDbEntity
  8
LAY-10
  6
CONTINUOUS
 62
     7
100
AcDbVertex
100
AcDb2dVertex
 10
466.6022531585563
 20
702.1418081049917
 30
0.0
  0
VERTEX
  5
31F
330
2AE
100
AcDbEntity
  8
LAY-10
  6
CONTINUOUS
 62
     7
100
AcDbVertex
100
AcDb2dVertex
 10
466.7452164577455
 20
702.3283428391433
 30
0.0
  0
VERTEX
  5
320
330
2AE
100
AcDbEntity
  8
LAY-10
  6
CONTINUOUS
 62
     7
100
AcDbVertex
100
AcDb2dVertex
 10
466.9031106858788
 20
702.4915460693767
 30
0.0
  0
VERTEX
  5
321
330
2AE
100
AcDbEntity
  8
LAY-10
  6
CONTINUOUS
 62
     7
100
AcDbVertex
100
AcDb2dVertex
 10
467.0759358429563
 20
702.6314177956922
 30
0.0
  0
VERTEX
  5
322
330
2AE
100
AcDbEntity
  8
LAY-10
  6
CONTINUOUS
 62
     7
100
AcDbVertex
100
AcDb2dVertex
 10
467.2636919289782
 20
702.7479580180898
 30
0.0
  0
VERTEX
  5
323
330
2AE
100
AcDbEntity
  8
LAY-10
  6
CONTINUOUS
 62
     7
100
AcDbVertex
100
AcDb2dVertex
 10
467.4663789439442
 20
702.8411667365692
 30
0.0
  0
VERTEX
  5
324
330
2AE
100
AcDbEntity
  8
LAY-10
  6
CONTINUOUS
 62
     7
100
AcDbVertex
100
AcDb2dVertex
 10
467.6839968878541
 20
702.9110439511308
 30
0.0
  0
VERTEX
  5
325
330
2AE
100
AcDbEntity
  8
LAY-10
  6
CONTINUOUS
 62
     7
100
AcDbVertex
100
AcDb2dVertex
 10
467.9165457607085
 20
702.9575896617739
 30
0.0
  0
VERTEX
  5
326
330
2AE
100
AcDbEntity
  8
LAY-10
  6
CONTINUOUS
 62
     7
100
AcDbVertex
100
AcDb2dVertex
 10
468.1640255625068
 20
702.9808038684994
 30
0.0
  0
VERTEX
  5
327
330
2AE
100
AcDbEntity
  8
LAY-10
  6
CONTINUOUS
 62
     7
100
AcDbVertex
100
AcDb2dVertex
 10
468.4264362932495
 20
702.9806865713067
 30
0.0
  0
VERTEX
  5
328
330
2AE
100
AcDbEntity
  8
LAY-10
  6
CONTINUOUS
 62
     7
100
AcDbVertex
100
AcDb2dVertex
 10
468.6243855314749
 20
702.9654797510632
 30
0.0
  0
VERTEX
  5
329
330
2AE
100
AcDbEntity
  8
LAY-10
  6
CONTINUOUS
 62
     7
100
AcDbVertex
100
AcDb2dVertex
 10
468.8125064925336
 20
702.9375737029584
 30
0.0
  0
VERTEX
  5
32A
330
2AE
100
AcDbEntity
  8
LAY-10
  6
CONTINUOUS
 62
     7
100
AcDbVertex
100
AcDb2dVertex
 10
468.990799176426
 20
702.8969684269923
 30
0.0
  0
VERTEX
  5
32B
330
2AE
100
AcDbEntity
  8
LAY-10
  6
CONTINUOUS
 62
     7
100
AcDbVertex
100
AcDb2dVertex
 10
469.1592635831516
 20
702.8436639231652
 30
0.0
  0
VERTEX
  5
32C
330
2AE
100
AcDbEntity
  8
LAY-10
  6
CONTINUOUS
 62
     7
100
AcDbVertex
100
AcDb2dVertex
 10
469.3178997127106
 20
702.777660191477
 30
0.0
  0
VERTEX
  5
32D
330
2AE
100
AcDbEntity
  8
LAY-10
  6
CONTINUOUS
 62
     7
100
AcDbVertex
100
AcDb2dVertex
 10
469.4667075651031
 20
702.6989572319276
 30
0.0
  0
VERTEX
  5
32E
330
2AE
100
AcDbEntity
  8
LAY-10
  6
CONTINUOUS
 62
     7
100
AcDbVertex
100
AcDb2dVertex
 10
469.6056871403293
 20
702.6075550445169
 30
0.0
  0
VERTEX
  5
32F
330
2AE
100
AcDbEntity
  8
LAY-10
  6
CONTINUOUS
 62
     7
100
AcDbVertex
100
AcDb2dVertex
 10
469.7348384383886
 20
702.5034536292451
 30
0.0
  0
VERTEX
  5
330
330
2AE
100
AcDbEntity
  8
LAY-10
  6
CONTINUOUS
 62
     7
100
AcDbVertex
100
AcDb2dVertex
 10
469.8541614592816
 20
702.3866529861123
 30
0.0
  0
VERTEX
  5
331
330
2AE
100
AcDbEntity
  8
LAY-10
  6
CONTINUOUS
 62
     7
100
AcDbVertex
100
AcDb2dVertex
 10
469.9636562030078
 20
702.2571531151182
 30
0.0
  0
VERTEX
  5
332
330
2AE
100
AcDbEntity
  8
LAY-10
  6
CONTINUOUS
 62
     7
100
AcDbVertex
100
AcDb2dVertex
 10
470.0580121110584
 20
702.124699940206
 30
0.0
  0
VERTEX
  5
333
330
2AE
100
AcDbEntity
  8
LAY-10
  6
CONTINUOUS
 62
     7
100
AcDbVertex
100
AcDb2dVertex
 10
470.1415437097776
 20
701.9857565611942
 30
0.0
  0
VERTEX
  5
334
330
2AE
100
AcDbEntity
  8
LAY-10
  6
CONTINUOUS
 62
     7
100
AcDbVertex
100
AcDb2dVertex
 10
470.2142509991651
 20
701.8403229780827
 30
0.0
  0
VERTEX
  5
335
330
2AE
100
AcDbEntity
  8
LAY-10
  6
CONTINUOUS
 62
     7
100
AcDbVertex
100
AcDb2dVertex
 10
470.2761339792209
 20
701.6883991908712
 30
0.0
  0
VERTEX
  5
336
330
2AE
100
AcDbEntity
  8
LAY-10
  6
CONTINUOUS
 62
     7
100
AcDbVertex
100
AcDb2dVertex
 10
470.3271926499456
 20
701.5299851995601
 30
0.0
  0
VERTEX
  5
337
330
2AE
100
AcDbEntity
  8
LAY-10
  6
CONTINUOUS
 62
     7
100
AcDbVertex
100
AcDb2dVertex
 10
470.3674270113383
 20
701.365081004149
 30
0.0
  0
VERTEX
  5
338
330
2AE
100
AcDbEntity
  8
LAY-10
  6
CONTINUOUS
 62
     7
100
AcDbVertex
100
AcDb2dVertex
 10
470.3968370633995
 20
701.1936866046381
 30
0.0
  0
VERTEX
  5
339
330
2AE
100
AcDbEntity
  8
LAY-10
  6
CONTINUOUS
 62
     7
100
AcDbVertex
100
AcDb2dVertex
 10
470.4154228061292
 20
701.0158020010274
 30
0.0
  0
VERTEX
  5
33A
330
2AE
100
AcDbEntity
  8
LAY-10
  6
CONTINUOUS
 62
     7
100
AcDbVertex
100
AcDb2dVertex
 10
470.4231842395275
 20
700.831427193317
 30
0.0
  0
VERTEX
  5
33B
330
2AE
100
AcDbEntity
  8
LAY-10
  6
CONTINUOUS
 62
     7
100
AcDbVertex
100
AcDb2dVertex
 10
470.420121363594
 20
700.6405621815068
 30
0.0
  0
VERTEX
  5
33C
330
2AE
100
AcDbEntity
  8
LAY-10
  6
CONTINUOUS
 62
     7
100
AcDbVertex
100
AcDb2dVertex
 10
470.40710804166
 20
700.4629782540442
 30
0.0
  0
VERTEX
  5
33D
330
2AE
100
AcDbEntity
  8
LAY-10
  6
CONTINUOUS
 62
     7
100
AcDbVertex
100
AcDb2dVertex
 10
470.3838090728386
 20
700.2907545760004
 30
0.0
  0
VERTEX
  5
33E
330
2AE
100
AcDbEntity
  8
LAY-10
  6
CONTINUOUS
 62
     7
100
AcDbVertex
100
AcDb2dVertex
 10
470.35022445713
 20
700.1238911473752
 30
0.0
  0
VERTEX
  5
33F
330
2AE
100
AcDbEntity
  8
LAY-10
  6
CONTINUOUS
 62
     7
100
AcDbVertex
100
AcDb2dVertex
 10
470.3063541945342
 20
699.9623879681685
 30
0.0
  0
VERTEX
  5
340
330
2AE
100
AcDbEntity
  8
LAY-10
  6
CONTINUOUS
 62
     7
100
AcDbVertex
100
AcDb2dVertex
 10
470.252198285051
 20
699.8062450383807
 30
0.0
  0
VERTEX
  5
341
330
2AE
100
AcDbEntity
  8
LAY-10
  6
CONTINUOUS
 62
     7
100
AcDbVertex
100
AcDb2dVertex
 10
470.1877567286803
 20
699.6554623580114
 30
0.0
  0
VERTEX
  5
342
330
2AE
100
AcDbEntity
  8
LAY-10
  6
CONTINUOUS
 62
     7
100
AcDbVertex
100
AcDb2dVertex
 10
470.1130295254226
 20
699.5100399270609
 30
0.0
  0
VERTEX
  5
343
330
2AE
100
AcDbEntity
  8
LAY-10
  6
CONTINUOUS
 62
     7
100
AcDbVertex
100
AcDb2dVertex
 10
470.0280166752775
 20
699.3699777455288
 30
0.0
  0
VERTEX
  5
344
330
2AE
100
AcDbEntity
  8
LAY-10
  6
CONTINUOUS
 62
     7
100
AcDbVertex
100
AcDb2dVertex
 10
469.9327181782451
 20
699.2352758134155
 30
0.0
  0
VERTEX
  5
345
330
2AE
100
AcDbEntity
  8
LAY-10
  6
CONTINUOUS
 62
     7
100
AcDbVertex
100
AcDb2dVertex
 10
469.8271340343251
 20
699.1059341307209
 30
0.0
  0
VERTEX
  5
346
330
2AE
100
AcDbEntity
  8
LAY-10
  6
CONTINUOUS
 62
     7
100
AcDbVertex
100
AcDb2dVertex
 10
469.6944950797244
 20
698.9675155101986
 30
0.0
  0
VERTEX
  5
347
330
2AE
100
AcDbEntity
  8
LAY-10
  6
CONTINUOUS
 62
     7
100
AcDbVertex
100
AcDb2dVertex
 10
469.5522259271513
 20
698.8446973281839
 30
0.0
  0
VERTEX
  5
348
330
2AE
100
AcDbEntity
  8
LAY-10
  6
CONTINUOUS
 62
     7
100
AcDbVertex
100
AcDb2dVertex
 10
469.4003265766055
 20
698.7374795846772
 30
0.0
  0
VERTEX
  5
349
330
2AE
100
AcDbEntity
  8
LAY-10
  6
CONTINUOUS
 62
     7
100
AcDbVertex
100
AcDb2dVertex
 10
469.238797028087
 20
698.6458622796781
 30
0.0
  0
VERTEX
  5
34A
330
2AE
100
AcDbEntity
  8
LAY-10
  6
CONTINUOUS
 62
     7
100
AcDbVertex
100
AcDb2dVertex
 10
469.067637281596
 20
698.5698454131868
 30
0.0
  0
VERTEX
  5
34B
330
2AE
100
AcDbEntity
  8
LAY-10
  6
CONTINUOUS
 62
     7
100
AcDbVertex
100
AcDb2dVertex
 10
468.8868473371323
 20
698.5094289852032
 30
0.0
  0
VERTEX
  5
34C
330
2AE
100
AcDbEntity
  8
LAY-10
  6
CONTINUOUS
 62
     7
100
AcDbVertex
100
AcDb2dVertex
 10
468.6964271946961
 20
698.4646129957273
 30
0.0
  0
VERTEX
  5
34D
330
2AE
100
AcDbEntity
  8
LAY-10
  6
CONTINUOUS
 62
     7
100
AcDbVertex
100
AcDb2dVertex
 10
468.4963768542873
 20
698.435397444759
 30
0.0
  0
VERTEX
  5
34E
330
2AE
100
AcDbEntity
  8
LAY-10
  6
CONTINUOUS
 62
     7
100
AcDbVertex
100
AcDb2dVertex
 10
468.2866963159058
 20
698.4217823322986
 30
0.0
  0
VERTEX
  5
34F
330
2AE
100
AcDbEntity
  8
LAY-10
  6
CONTINUOUS
 62
     7
100
AcDbVertex
100
AcDb2dVertex
 10
468.0673855795519
 20
698.4237676583457
 30
0.0
  0
VERTEX
  5
350
330
2AE
100
AcDbEntity
  8
LAY-10
  6
CONTINUOUS
 62
     7
100
AcDbVertex
100
AcDb2dVertex
 10
467.8517001512509
 20
698.441441722229
 30
0.0
  0
VERTEX
  5
351
330
2AE
100
AcDbEntity
  8
LAY-10
  6
CONTINUOUS
 62
     7
100
AcDbVertex
100
AcDb2dVertex
 10
467.6455958506667
 20
698.4752115344659
 30
0.0
  0
VERTEX
  5
352
330
2AE
100
AcDbEntity
  8
LAY-10
  6
CONTINUOUS
 62
     7
100
AcDbVertex
100
AcDb2dVertex
 10
467.449072677799
 20
698.5250770950565
 30
0.0
  0
VERTEX
  5
353
330
2AE
100
AcDbEntity
  8
LAY-10
  6
CONTINUOUS
 62
     7
100
AcDbVertex
100
AcDb2dVertex
 10
467.2621306326477
 20
698.591038404001
 30
0.0
  0
VERTEX
  5
354
330
2AE
100
AcDbEntity
  8
LAY-10
  6
CONTINUOUS
 62
     7
100
AcDbVertex
100
AcDb2dVertex
 10
467.084769715213
 20
698.673095461299
 30
0.0
  0
VERTEX
  5
355
330
2AE
100
AcDbEntity
  8
LAY-10
  6
CONTINUOUS
 62
     7
100
AcDbVertex
100
AcDb2dVertex
 10
466.916989925495
 20
698.7712482669508
 30
0.0
  0
VERTEX
  5
356
330
2AE
100
AcDbEntity
  8
LAY-10
  6
CONTINUOUS
 62
     7
100
AcDbVertex
100
AcDb2dVertex
 10
466.7587912634935
 20
698.8854968209564
 30
0.0
  0
VERTEX
  5
357
330
2AE
100
AcDbEntity
  8
LAY-10
  6
CONTINUOUS
 62
     7
100
AcDbVertex
100
AcDb2dVertex
 10
466.6101737292085
 20
699.0158411233158
 30
0.0
  0
VERTEX
  5
358
330
2AE
100
AcDbEntity
  8
LAY-10
  6
CONTINUOUS
 62
     7
100
AcDbVertex
100
AcDb2dVertex
 10
466.4711373226402
 20
699.1622811740287
 30
0.0
  0
VERTEX
  5
359
330
2AE
100
AcDbEntity
  8
LAY-10
  6
CONTINUOUS
 62
     7
100
AcDbVertex
100
AcDb2dVertex
 10
466.3416820437885
 20
699.3248169730953
 30
0.0
  0
SEQEND
  5
35A
330
2AE
100
AcDbEntity
  8
LAY-10
  6
CONTINUOUS
 62
     7
  0
POLYLINE
  5
35B
330
1F
100
AcDbEntity
  8
LAY-10
  6
CONTINUOUS
 62
     7
100
AcDb2dPolyline
 66
     1
 10
0.0
 20
0.0
 30
0.0
 70
   128
  0
VERTEX
  5
35C
330
35B
100
AcDbEntity
  8
LAY-10
  6
CONTINUOUS
 62
     7
100
AcDbVertex
100
AcDb2dVertex
 10
469.2626224542664
 20
699.5528673073798
 30
0.0
  0
VERTEX
  5
35D
330
35B
100
AcDbEntity
  8
LAY-10
  6
CONTINUOUS
 62
     7
100
AcDbVertex
100
AcDb2dVertex
 10
469.342676321327
 20
699.6451850419114
 30
0.0
  0
VERTEX
  5
35E
330
35B
100
AcDbEntity
  8
LAY-10
  6
CONTINUOUS
 62
     7
100
AcDbVertex
100
AcDb2dVertex
 10
469.4149173844139
 20
699.7418461741515
 30
0.0
  0
VERTEX
  5
35F
330
35B
100
AcDbEntity
  8
LAY-10
  6
CONTINUOUS
 62
     7
100
AcDbVertex
100
AcDb2dVertex
 10
469.4793456435273
 20
699.8428507041003
 30
0.0
  0
VERTEX
  5
360
330
35B
100
AcDbEntity
  8
LAY-10
  6
CONTINUOUS
 62
     7
100
AcDbVertex
100
AcDb2dVertex
 10
469.5359610986668
 20
699.9481986317576
 30
0.0
  0
VERTEX
  5
361
330
35B
100
AcDbEntity
  8
LAY-10
  6
CONTINUOUS
 62
     7
100
AcDbVertex
100
AcDb2dVertex
 10
469.584763749833
 20
700.0578899571235
 30
0.0
  0
VERTEX
  5
362
330
35B
100
AcDbEntity
  8
LAY-10
  6
CONTINUOUS
 62
     7
100
AcDbVertex
100
AcDb2dVertex
 10
469.6257535970253
 20
700.1719246801979
 30
0.0
  0
VERTEX
  5
363
330
35B
100
AcDbEntity
  8
LAY-10
  6
CONTINUOUS
 62
     7
100
AcDbVertex
100
AcDb2dVertex
 10
469.6589306402441
 20
700.290302800981
 30
0.0
  0
VERTEX
  5
364
330
35B
100
AcDbEntity
  8
LAY-10
  6
CONTINUOUS
 62
     7
100
AcDbVertex
100
AcDb2dVertex
 10
469.684294879489
 20
700.4130243194727
 30
0.0
  0
VERTEX
  5
365
330
35B
100
AcDbEntity
  8
LAY-10
  6
CONTINUOUS
 62
     7
100
AcDbVertex
100
AcDb2dVertex
 10
469.7018463147606
 20
700.5400892356727
 30
0.0
  0
VERTEX
  5
366
330
35B
100
AcDbEntity
  8
LAY-10
  6
CONTINUOUS
 62
     7
100
AcDbVertex
100
AcDb2dVertex
 10
469.7115849460583
 20
700.6714975495815
 30
0.0
  0
VERTEX
  5
367
330
35B
100
AcDbEntity
  8
LAY-10
  6
CONTINUOUS
 62
     7
100
AcDbVertex
100
AcDb2dVertex
 10
469.7138817499969
 20
700.8218815272646
 30
0.0
  0
VERTEX
  5
368
330
35B
100
AcDbEntity
  8
LAY-10
  6
CONTINUOUS
 62
     7
100
AcDbVertex
100
AcDb2dVertex
 10
469.7074122338281
 20
700.9670408020072
 30
0.0
  0
VERTEX
  5
369
330
35B
100
AcDbEntity
  8
LAY-10
  6
CONTINUOUS
 62
     7
100
AcDbVertex
100
AcDb2dVertex
 10
469.6921763975517
 20
701.1069753738095
 30
0.0
  0
VERTEX
  5
36A
330
35B
100
AcDbEntity
  8
LAY-10
  6
CONTINUOUS
 62
     7
100
AcDbVertex
100
AcDb2dVertex
 10
469.6681742411681
 20
701.2416852426709
 30
0.0
  0
VERTEX
  5
36B
330
35B
100
AcDbEntity
  8
LAY-10
  6
CONTINUOUS
 62
     7
100
AcDbVertex
100
AcDb2dVertex
 10
469.6354057646768
 20
701.371170408592
 30
0.0
  0
VERTEX
  5
36C
330
35B
100
AcDbEntity
  8
LAY-10
  6
CONTINUOUS
 62
     7
100
AcDbVertex
100
AcDb2dVertex
 10
469.5938709680781
 20
701.4954308715726
 30
0.0
  0
VERTEX
  5
36D
330
35B
100
AcDbEntity
  8
LAY-10
  6
CONTINUOUS
 62
     7
100
AcDbVertex
100
AcDb2dVertex
 10
469.543569851372
 20
701.6144666316125
 30
0.0
  0
VERTEX
  5
36E
330
35B
100
AcDbEntity
  8
LAY-10
  6
CONTINUOUS
 62
     7
100
AcDbVertex
100
AcDb2dVertex
 10
469.4845024145584
 20
701.7282776887118
 30
0.0
  0
VERTEX
  5
36F
330
35B
100
AcDbEntity
  8
LAY-10
  6
CONTINUOUS
 62
     7
100
AcDbVertex
100
AcDb2dVertex
 10
469.4166686576373
 20
701.8368640428705
 30
0.0
  0
VERTEX
  5
370
330
35B
100
AcDbEntity
  8
LAY-10
  6
CONTINUOUS
 62
     7
100
AcDbVertex
100
AcDb2dVertex
 10
469.3400685806086
 20
701.9402256940889
 30
0.0
  0
VERTEX
  5
371
330
35B
100
AcDbEntity
  8
LAY-10
  6
CONTINUOUS
 62
     7
100
AcDbVertex
100
AcDb2dVertex
 10
469.2698181607609
 20
701.9996942607954
 30
0.0
  0
VERTEX
  5
372
330
35B
100
AcDbEntity
  8
LAY-10
  6
CONTINUOUS
 62
     7
100
AcDbVertex
100
AcDb2dVertex
 10
469.1930109182113
 20
702.0535121185492
 30
0.0
  0
VERTEX
  5
373
330
35B
100
AcDbEntity
  8
LAY-10
  6
CONTINUOUS
 62
     7
100
AcDbVertex
100
AcDb2dVertex
 10
469.1096468529595
 20
702.1016792673504
 30
0.0
  0
VERTEX
  5
374
330
35B
100
AcDbEntity
  8
LAY-10
  6
CONTINUOUS
 62
     7
100
AcDbVertex
100
AcDb2dVertex
 10
469.0197259650056
 20
702.1441957071988
 30
0.0
  0
VERTEX
  5
375
330
35B
100
AcDbEntity
  8
LAY-10
  6
CONTINUOUS
 62
     7
100
AcDbVertex
100
AcDb2dVertex
 10
468.9232482543496
 20
702.1810614380945
 30
0.0
  0
VERTEX
  5
376
330
35B
100
AcDbEntity
  8
LAY-10
  6
CONTINUOUS
 62
     7
100
AcDbVertex
100
AcDb2dVertex
 10
468.8202137209914
 20
702.2122764600376
 30
0.0
  0
VERTEX
  5
377
330
35B
100
AcDbEntity
  8
LAY-10
  6
CONTINUOUS
 62
     7
100
AcDbVertex
100
AcDb2dVertex
 10
468.7106223649313
 20
702.237840773028
 30
0.0
  0
VERTEX
  5
378
330
35B
100
AcDbEntity
  8
LAY-10
  6
CONTINUOUS
 62
     7
100
AcDbVertex
100
AcDb2dVertex
 10
468.594474186169
 20
702.2577543770658
 30
0.0
  0
VERTEX
  5
379
330
35B
100
AcDbEntity
  8
LAY-10
  6
CONTINUOUS
 62
     7
100
AcDbVertex
100
AcDb2dVertex
 10
468.4717691847047
 20
702.2720172721508
 30
0.0
  0
VERTEX
  5
37A
330
35B
100
AcDbEntity
  8
LAY-10
  6
CONTINUOUS
 62
     7
100
AcDbVertex
100
AcDb2dVertex
 10
468.3425073605383
 20
702.2806294582831
 30
0.0
  0
VERTEX
  5
37B
330
35B
100
AcDbEntity
  8
LAY-10
  6
CONTINUOUS
 62
     7
100
AcDbVertex
100
AcDb2dVertex
 10
468.1093747676334
 20
702.2790990437195
 30
0.0
  0
VERTEX
  5
37C
330
35B
100
AcDbEntity
  8
LAY-10
  6
CONTINUOUS
 62
     7
100
AcDbVertex
100
AcDb2dVertex
 10
467.8858146836426
 20
702.2537322776052
 30
0.0
  0
VERTEX
  5
37D
330
35B
100
AcDbEntity
  8
LAY-10
  6
CONTINUOUS
 62
     7
100
AcDbVertex
100
AcDb2dVertex
 10
467.6718271085653
 20
702.2045291599404
 30
0.0
  0
VERTEX
  5
37E
330
35B
100
AcDbEntity
  8
LAY-10
  6
CONTINUOUS
 62
     7
100
AcDbVertex
100
AcDb2dVertex
 10
467.467412042402
 20
702.1314896907254
 30
0.0
  0
VERTEX
  5
37F
330
35B
100
AcDbEntity
  8
LAY-10
  6
CONTINUOUS
 62
     7
100
AcDbVertex
100
AcDb2dVertex
 10
467.2725694851526
 20
702.0346138699597
 30
0.0
  0
VERTEX
  5
380
330
35B
100
AcDbEntity
  8
LAY-10
  6
CONTINUOUS
 62
     7
100
AcDbVertex
100
AcDb2dVertex
 10
467.0872994368169
 20
701.9139016976435
 30
0.0
  0
VERTEX
  5
381
330
35B
100
AcDbEntity
  8
LAY-10
  6
CONTINUOUS
 62
     7
100
AcDbVertex
100
AcDb2dVertex
 10
466.911601897395
 20
701.7693531737771
 30
0.0
  0
VERTEX
  5
382
330
35B
100
AcDbEntity
  8
LAY-10
  6
CONTINUOUS
 62
     7
100
AcDbVertex
100
AcDb2dVertex
 10
466.7454768668872
 20
701.6009682983599
 30
0.0
  0
VERTEX
  5
383
330
35B
100
AcDbEntity
  8
LAY-10
  6
CONTINUOUS
 62
     7
100
AcDbVertex
100
AcDb2dVertex
 10
466.5889243452932
 20
701.4087470713923
 30
0.0
  0
VERTEX
  5
384
330
35B
100
AcDbEntity
  8
LAY-10
  6
CONTINUOUS
 62
     7
100
AcDbVertex
100
AcDb2dVertex
 10
466.4419443326128
 20
701.1926894928743
 30
0.0
  0
VERTEX
  5
385
330
35B
100
AcDbEntity
  8
LAY-10
  6
CONTINUOUS
 62
     7
100
AcDbVertex
100
AcDb2dVertex
 10
466.4538646813478
 20
701.0326703419739
 30
0.0
  0
VERTEX
  5
386
330
35B
100
AcDbEntity
  8
LAY-10
  6
CONTINUOUS
 62
     7
100
AcDbVertex
100
AcDb2dVertex
 10
466.4726607372536
 20
700.8769379374376
 30
0.0
  0
VERTEX
  5
387
330
35B
100
AcDbEntity
  8
LAY-10
  6
CONTINUOUS
 62
     7
100
AcDbVertex
100
AcDb2dVertex
 10
466.4983325003302
 20
700.7254922792654
 30
0.0
  0
VERTEX
  5
388
330
35B
100
AcDbEntity
  8
LAY-10
  6
CONTINUOUS
 62
     7
100
AcDbVertex
100
AcDb2dVertex
 10
466.5308799705779
 20
700.5783333674574
 30
0.0
  0
VERTEX
  5
389
330
35B
100
AcDbEntity
  8
LAY-10
  6
CONTINUOUS
 62
     7
100
AcDbVertex
100
AcDb2dVertex
 10
466.5703031479961
 20
700.4354612020134
 30
0.0
  0
VERTEX
  5
38A
330
35B
100
AcDbEntity
  8
LAY-10
  6
CONTINUOUS
 62
     7
100
AcDbVertex
100
AcDb2dVertex
 10
466.6166020325854
 20
700.2968757829335
 30
0.0
  0
VERTEX
  5
38B
330
35B
100
AcDbEntity
  8
LAY-10
  6
CONTINUOUS
 62
     7
100
AcDbVertex
100
AcDb2dVertex
 10
466.6697766243458
 20
700.1625771102179
 30
0.0
  0
VERTEX
  5
38C
330
35B
100
AcDbEntity
  8
LAY-10
  6
CONTINUOUS
 62
     7
100
AcDbVertex
100
AcDb2dVertex
 10
466.7298269232767
 20
700.0325651838664
 30
0.0
  0
VERTEX
  5
38D
330
35B
100
AcDbEntity
  8
LAY-10
  6
CONTINUOUS
 62
     7
100
AcDbVertex
100
AcDb2dVertex
 10
466.7967529293787
 20
699.9068400038786
 30
0.0
  0
VERTEX
  5
38E
330
35B
100
AcDbEntity
  8
LAY-10
  6
CONTINUOUS
 62
     7
100
AcDbVertex
100
AcDb2dVertex
 10
466.8705546426518
 20
699.7854015702553
 30
0.0
  0
VERTEX
  5
38F
330
35B
100
AcDbEntity
  8
LAY-10
  6
CONTINUOUS
 62
     7
100
AcDbVertex
100
AcDb2dVertex
 10
466.9564931646883
 20
699.6665744664367
 30
0.0
  0
VERTEX
  5
390
330
35B
100
AcDbEntity
  8
LAY-10
  6
CONTINUOUS
 62
     7
100
AcDbVertex
100
AcDb2dVertex
 10
467.0517955678195
 20
699.5594516790468
 30
0.0
  0
VERTEX
  5
391
330
35B
100
AcDbEntity
  8
LAY-10
  6
CONTINUOUS
 62
     7
100
AcDbVertex
100
AcDb2dVertex
 10
467.1564618520447
 20
699.4640332080858
 30
0.0
  0
VERTEX
  5
392
330
35B
100
AcDbEntity
  8
LAY-10
  6
CONTINUOUS
 62
     7
100
AcDbVertex
100
AcDb2dVertex
 10
467.2704920173643
 20
699.3803190535539
 30
0.0
  0
VERTEX
  5
393
330
35B
100
AcDbEntity
  8
LAY-10
  6
CONTINUOUS
 62
     7
100
AcDbVertex
100
AcDb2dVertex
 10
467.3938860637784
 20
699.3083092154509
 30
0.0
  0
VERTEX
  5
394
330
35B
100
AcDbEntity
  8
LAY-10
  6
CONTINUOUS
 62
     7
100
AcDbVertex
100
AcDb2dVertex
 10
467.5266439912866
 20
699.2480036937768
 30
0.0
  0
VERTEX
  5
395
330
35B
100
AcDbEntity
  8
LAY-10
  6
CONTINUOUS
 62
     7
100
AcDbVertex
100
AcDb2dVertex
 10
467.6687657998893
 20
699.1994024885316
 30
0.0
  0
VERTEX
  5
396
330
35B
100
AcDbEntity
  8
LAY-10
  6
CONTINUOUS
 62
     7
100
AcDbVertex
100
AcDb2dVertex
 10
467.8202514895861
 20
699.1625055997154
 30
0.0
  0
VERTEX
  5
397
330
35B
100
AcDbEntity
  8
LAY-10
  6
CONTINUOUS
 62
     7
100
AcDbVertex
100
AcDb2dVertex
 10
467.9811010603773
 20
699.137313027328
 30
0.0
  0
VERTEX
  5
398
330
35B
100
AcDbEntity
  8
LAY-10
  6
CONTINUOUS
 62
     7
100
AcDbVertex
100
AcDb2dVertex
 10
468.1513145122631
 20
699.1238247713695
 30
0.0
  0
VERTEX
  5
399
330
35B
100
AcDbEntity
  8
LAY-10
  6
CONTINUOUS
 62
     7
100
AcDbVertex
100
AcDb2dVertex
 10
468.2854952109446
 20
699.1227419484312
 30
0.0
  0
VERTEX
  5
39A
330
35B
100
AcDbEntity
  8
LAY-10
  6
CONTINUOUS
 62
     7
100
AcDbVertex
100
AcDb2dVertex
 10
468.4145537086301
 20
699.1314340313904
 30
0.0
  0
VERTEX
  5
39B
330
35B
100
AcDbEntity
  8
LAY-10
  6
CONTINUOUS
 62
     7
100
AcDbVertex
100
AcDb2dVertex
 10
468.5384900053199
 20
699.1499010202474
 30
0.0
  0
VERTEX
  5
39C
330
35B
100
AcDbEntity
  8
LAY-10
  6
CONTINUOUS
 62
     7
100
AcDbVertex
100
AcDb2dVertex
 10
468.6573041010142
 20
699.1781429150019
 30
0.0
  0
VERTEX
  5
39D
330
35B
100
AcDbEntity
  8
LAY-10
  6
CONTINUOUS
 62
     7
100
AcDbVertex
100
AcDb2dVertex
 10
468.7709959957124
 20
699.2161597156542
 30
0.0
  0
VERTEX
  5
39E
330
35B
100
AcDbEntity
  8
LAY-10
  6
CONTINUOUS
 62
     7
100
AcDbVertex
100
AcDb2dVertex
 10
468.8795656894149
 20
699.263951422204
 30
0.0
  0
VERTEX
  5
39F
330
35B
100
AcDbEntity
  8
LAY-10
  6
CONTINUOUS
 62
     7
100
AcDbVertex
100
AcDb2dVertex
 10
468.9830131821213
 20
699.3215180346515
 30
0.0
  0
VERTEX
  5
3A0
330
35B
100
AcDbEntity
  8
LAY-10
  6
CONTINUOUS
 62
     7
100
AcDbVertex
100
AcDb2dVertex
 10
469.0813384738321
 20
699.3888595529966
 30
0.0
  0
VERTEX
  5
3A1
330
35B
100
AcDbEntity
  8
LAY-10
  6
CONTINUOUS
 62
     7
100
AcDbVertex
100
AcDb2dVertex
 10
469.1745415645473
 20
699.4659759772394
 30
0.0
  0
VERTEX
  5
3A2
330
35B
100
AcDbEntity
  8
LAY-10
  6
CONTINUOUS
 62
     7
100
AcDbVertex
100
AcDb2dVertex
 10
469.2626224542664
 20
699.5528673073798
 30
0.0
  0
SEQEND
  5
3A3
330
35B
100
AcDbEntity
  8
LAY-10
  6
CONTINUOUS
 62
     7
  0
POLYLINE
  5
3A4
330
1F
100
AcDbEntity
  8
LAY-10
  6
CONTINUOUS
 62
     7
100
AcDb2dPolyline
 66
     1
 10
0.0
 20
0.0
 30
0.0
 70
   128
  0
VERTEX
  5
3A5
330
3A4
100
AcDbEntity
  8
LAY-10
  6
CONTINUOUS
 62
     7
100
AcDbVertex
100
AcDb2dVertex
 10
480.9913367524891
 20
697.2216870739605
 30
0.0
  0
VERTEX
  5
3A6
330
3A4
100
AcDbEntity
  8
LAY-10
  6
CONTINUOUS
 62
     7
100
AcDbVertex
100
AcDb2dVertex
 10
481.0003383984269
 20
697.1607360873561
 30
0.0
  0
VERTEX
  5
3A7
330
3A4
100
AcDbEntity
  8
LAY-10
  6
CONTINUOUS
 62
     7
100
AcDbVertex
100
AcDb2dVertex
 10
481.0041349389123
 20
697.1016027294947
 30
0.0
  0
VERTEX
  5
3A8
330
3A4
100
AcDbEntity
  8
LAY-10
  6
CONTINUOUS
 62
     7
100
AcDbVertex
100
AcDb2dVertex
 10
481.0027263739451
 20
697.0442870003769
 30
0.0
  0
VERTEX
  5
3A9
330
3A4
100
AcDbEntity
  8
LAY-10
  6
CONTINUOUS
 62
     7
100
AcDbVertex
100
AcDb2dVertex
 10
480.9961127035253
 20
696.988788900002
 30
0.0
  0
VERTEX
  5
3AA
330
3A4
100
AcDbEntity
  8
LAY-10
  6
CONTINUOUS
 62
     7
100
AcDbVertex
100
AcDb2dVertex
 10
480.9842939276529
 20
696.9351084283705
 30
0.0
  0
VERTEX
  5
3AB
330
3A4
100
AcDbEntity
  8
LAY-10
  6
CONTINUOUS
 62
     7
100
AcDbVertex
100
AcDb2dVertex
 10
480.9672700463282
 20
696.8832455854822
 30
0.0
  0
VERTEX
  5
3AC
330
3A4
100
AcDbEntity
  8
LAY-10
  6
CONTINUOUS
 62
     7
100
AcDbVertex
100
AcDb2dVertex
 10
480.9450410595507
 20
696.8332003713372
 30
0.0
  0
VERTEX
  5
3AD
330
3A4
100
AcDbEntity
  8
LAY-10
  6
CONTINUOUS
 62
     7
100
AcDbVertex
100
AcDb2dVertex
 10
480.9176069673208
 20
696.7849727859355
 30
0.0
  0
VERTEX
  5
3AE
330
3A4
100
AcDbEntity
  8
LAY-10
  6
CONTINUOUS
 62
     7
100
AcDbVertex
100
AcDb2dVertex
 10
480.8849677696383
 20
696.7385628292768
 30
0.0
  0
VERTEX
  5
3AF
330
3A4
100
AcDbEntity
  8
LAY-10
  6
CONTINUOUS
 62
     7
100
AcDbVertex
100
AcDb2dVertex
 10
480.8471234665033
 20
696.6939705013615
 30
0.0
  0
VERTEX
  5
3B0
330
3A4
100
AcDbEntity
  8
LAY-10
  6
CONTINUOUS
 62
     7
100
AcDbVertex
100
AcDb2dVertex
 10
480.7864418530678
 20
696.6659974111399
 30
0.0
  0
VERTEX
  5
3B1
330
3A4
100
AcDbEntity
  8
LAY-10
  6
CONTINUOUS
 62
     7
100
AcDbVertex
100
AcDb2dVertex
 10
480.7283315218106
 20
696.6474664405825
 30
0.0
  0
VERTEX
  5
3B2
330
3A4
100
AcDbEntity
  8
LAY-10
  6
CONTINUOUS
 62
     7
100
AcDbVertex
100
AcDb2dVertex
 10
480.6727924727313
 20
696.6383775896898
 30
0.0
  0
VERTEX
  5
3B3
330
3A4
100
AcDbEntity
  8
LAY-10
  6
CONTINUOUS
 62
     7
100
AcDbVertex
100
AcDb2dVertex
 10
480.6198247058298
 20
696.6387308584613
 30
0.0
  0
VERTEX
  5
3B4
330
3A4
100
AcDbEntity
  8
LAY-10
  6
CONTINUOUS
 62
     7
100
AcDbVertex
100
AcDb2dVertex
 10
480.5694282211065
 20
696.6485262468973
 30
0.0
  0
VERTEX
  5
3B5
330
3A4
100
AcDbEntity
  8
LAY-10
  6
CONTINUOUS
 62
     7
100
AcDbVertex
100
AcDb2dVertex
 10
480.5216030185613
 20
696.6677637549976
 30
0.0
  0
VERTEX
  5
3B6
330
3A4
100
AcDbEntity
  8
LAY-10
  6
CONTINUOUS
 62
     7
100
AcDbVertex
100
AcDb2dVertex
 10
480.4763490981938
 20
696.6964433827627
 30
0.0
  0
VERTEX
  5
3B7
330
3A4
100
AcDbEntity
  8
LAY-10
  6
CONTINUOUS
 62
     7
100
AcDbVertex
100
AcDb2dVertex
 10
480.4336664600046
 20
696.7345651301921
 30
0.0
  0
VERTEX
  5
3B8
330
3A4
100
AcDbEntity
  8
LAY-10
  6
CONTINUOUS
 62
     7
100
AcDbVertex
100
AcDb2dVertex
 10
480.3935551039931
 20
696.782128997286
 30
0.0
  0
VERTEX
  5
3B9
330
3A4
100
AcDbEntity
  8
LAY-10
  6
CONTINUOUS
 62
     7
100
AcDbVertex
100
AcDb2dVertex
 10
480.3560150301598
 20
696.8391349840444
 30
0.0
  0
VERTEX
  5
3BA
330
3A4
100
AcDbEntity
  8
LAY-10
  6
CONTINUOUS
 62
     7
100
AcDbVertex
100
AcDb2dVertex
 10
479.2150431314028
 20
699.89367290363
 30
0.0
  0
VERTEX
  5
3BB
330
3A4
100
AcDbEntity
  8
LAY-10
  6
CONTINUOUS
 62
     7
100
AcDbVertex
100
AcDb2dVertex
 10
476.9657838272712
 20
697.522111763652
 30
0.0
  0
VERTEX
  5
3BC
330
3A4
100
AcDbEntity
  8
LAY-10
  6
CONTINUOUS
 62
     7
100
AcDbVertex
100
AcDb2dVertex
 10
476.9103462377054
 20
697.4853742977252
 30
0.0
  0
VERTEX
  5
3BD
330
3A4
100
AcDbEntity
  8
LAY-10
  6
CONTINUOUS
 62
     7
100
AcDbVertex
100
AcDb2dVertex
 10
476.8559886013977
 20
697.4583769469175
 30
0.0
  0
VERTEX
  5
3BE
330
3A4
100
AcDbEntity
  8
LAY-10
  6
CONTINUOUS
 62
     7
100
AcDbVertex
100
AcDb2dVertex
 10
476.8027109183479
 20
697.4411197112288
 30
0.0
  0
VERTEX
  5
3BF
330
3A4
100
AcDbEntity
  8
LAY-10
  6
CONTINUOUS
 62
     7
100
AcDbVertex
100
AcDb2dVertex
 10
476.7505131885564
 20
697.4336025906591
 30
0.0
  0
VERTEX
  5
3C0
330
3A4
100
AcDbEntity
  8
LAY-10
  6
CONTINUOUS
 62
     7
100
AcDbVertex
100
AcDb2dVertex
 10
476.699395412023
 20
697.4358255852085
 30
0.0
  0
VERTEX
  5
3C1
330
3A4
100
AcDbEntity
  8
LAY-10
  6
CONTINUOUS
 62
     7
100
AcDbVertex
100
AcDb2dVertex
 10
476.6493575887475
 20
697.4477886948769
 30
0.0
  0
VERTEX
  5
3C2
330
3A4
100
AcDbEntity
  8
LAY-10
  6
CONTINUOUS
 62
     7
100
AcDbVertex
100
AcDb2dVertex
 10
476.6003997187302
 20
697.4694919196645
 30
0.0
  0
VERTEX
  5
3C3
330
3A4
100
AcDbEntity
  8
LAY-10
  6
CONTINUOUS
 62
     7
100
AcDbVertex
100
AcDb2dVertex
 10
476.5525218019709
 20
697.500935259571
 30
0.0
  0
VERTEX
  5
3C4
330
3A4
100
AcDbEntity
  8
LAY-10
  6
CONTINUOUS
 62
     7
100
AcDbVertex
100
AcDb2dVertex
 10
476.5057238384697
 20
697.5421187145964
 30
0.0
  0
VERTEX
  5
3C5
330
3A4
100
AcDbEntity
  8
LAY-10
  6
CONTINUOUS
 62
     7
100
AcDbVertex
100
AcDb2dVertex
 10
476.4600058282267
 20
697.5930422847412
 30
0.0
  0
VERTEX
  5
3C6
330
3A4
100
AcDbEntity
  8
LAY-10
  6
CONTINUOUS
 62
     7
100
AcDbVertex
100
AcDb2dVertex
 10
476.4423412021845
 20
697.6478280067345
 30
0.0
  0
VERTEX
  5
3C7
330
3A4
100
AcDbEntity
  8
LAY-10
  6
CONTINUOUS
 62
     7
100
AcDbVertex
100
AcDb2dVertex
 10
476.430180078704
 20
697.7022201534867
 30
0.0
  0
VERTEX
  5
3C8
330
3A4
100
AcDbEntity
  8
LAY-10
  6
CONTINUOUS
 62
     7
100
AcDbVertex
100
AcDb2dVertex
 10
476.4235224577853
 20
697.7562187249978
 30
0.0
  0
VERTEX
  5
3C9
330
3A4
100
AcDbEntity
  8
LAY-10
  6
CONTINUOUS
 62
     7
100
AcDbVertex
100
AcDb2dVertex
 10
476.4223683394282
 20
697.8098237212678
 30
0.0
  0
VERTEX
  5
3CA
330
3A4
100
AcDbEntity
  8
LAY-10
  6
CONTINUOUS
 62
     7
100
AcDbVertex
100
AcDb2dVertex
 10
476.4267177236326
 20
697.8630351422971
 30
0.0
  0
VERTEX
  5
3CB
330
3A4
100
AcDbEntity
  8
LAY-10
  6
CONTINUOUS
 62
     7
100
AcDbVertex
100
AcDb2dVertex
 10
476.436570610399
 20
697.9158529880849
 30
0.0
  0
VERTEX
  5
3CC
330
3A4
100
AcDbEntity
  8
LAY-10
  6
CONTINUOUS
 62
     7
100
AcDbVertex
100
AcDb2dVertex
 10
476.451926999727
 20
697.968277258632
 30
0.0
  0
VERTEX
  5
3CD
330
3A4
100
AcDbEntity
  8
LAY-10
  6
CONTINUOUS
 62
     7
100
AcDbVertex
100
AcDb2dVertex
 10
476.4727868916165
 20
698.0203079539381
 30
0.0
  0
VERTEX
  5
3CE
330
3A4
100
AcDbEntity
  8
LAY-10
  6
CONTINUOUS
 62
     7
100
AcDbVertex
100
AcDb2dVertex
 10
476.4991502860678
 20
698.071945074003
 30
0.0
  0
VERTEX
  5
3CF
330
3A4
100
AcDbEntity
  8
LAY-10
  6
CONTINUOUS
 62
     7
100
AcDbVertex
100
AcDb2dVertex
 10
476.5310171830808
 20
698.1231886188268
 30
0.0
  0
VERTEX
  5
3D0
330
3A4
100
AcDbEntity
  8
LAY-10
  6
CONTINUOUS
 62
     7
100
AcDbVertex
100
AcDb2dVertex
 10
478.9363902780581
 20
700.5131123501503
 30
0.0
  0
VERTEX
  5
3D1
330
3A4
100
AcDbEntity
  8
LAY-10
  6
CONTINUOUS
 62
     7
100
AcDbVertex
100
AcDb2dVertex
 10
477.523989751988
 20
703.8220155415122
 30
0.0
  0
VERTEX
  5
3D2
330
3A4
100
AcDbEntity
  8
LAY-10
  6
CONTINUOUS
 62
     7
100
AcDbVertex
100
AcDb2dVertex
 10
477.5071654975363
 20
703.889348313335
 30
0.0
  0
VERTEX
  5
3D3
330
3A4
100
AcDbEntity
  8
LAY-10
  6
CONTINUOUS
 62
     7
100
AcDbVertex
100
AcDb2dVertex
 10
477.4976635438077
 20
703.9539341745797
 30
0.0
  0
VERTEX
  5
3D4
330
3A4
100
AcDbEntity
  8
LAY-10
  6
CONTINUOUS
 62
     7
100
AcDbVertex
100
AcDb2dVertex
 10
477.495483890802
 20
704.0157731252459
 30
0.0
  0
VERTEX
  5
3D5
330
3A4
100
AcDbEntity
  8
LAY-10
  6
CONTINUOUS
 62
     7
100
AcDbVertex
100
AcDb2dVertex
 10
477.500626538519
 20
704.0748651653339
 30
0.0
  0
VERTEX
  5
3D6
330
3A4
100
AcDbEntity
  8
LAY-10
  6
CONTINUOUS
 62
     7
100
AcDbVertex
100
AcDb2dVertex
 10
477.5130914869594
 20
704.1312102948434
 30
0.0
  0
VERTEX
  5
3D7
330
3A4
100
AcDbEntity
  8
LAY-10
  6
CONTINUOUS
 62
     7
100
AcDbVertex
100
AcDb2dVertex
 10
477.5328787361224
 20
704.1848085137749
 30
0.0
  0
VERTEX
  5
3D8
330
3A4
100
AcDbEntity
  8
LAY-10
  6
CONTINUOUS
 62
     7
100
AcDbVertex
100
AcDb2dVertex
 10
477.5599882860083
 20
704.2356598221279
 30
0.0
  0
VERTEX
  5
3D9
330
3A4
100
AcDbEntity
  8
LAY-10
  6
CONTINUOUS
 62
     7
100
AcDbVertex
100
AcDb2dVertex
 10
477.5944201366173
 20
704.2837642199027
 30
0.0
  0
VERTEX
  5
3DA
330
3A4
100
AcDbEntity
  8
LAY-10
  6
CONTINUOUS
 62
     7
100
AcDbVertex
100
AcDb2dVertex
 10
477.6361742879492
 20
704.3291217070991
 30
0.0
  0
VERTEX
  5
3DB
330
3A4
100
AcDbEntity
  8
LAY-10
  6
CONTINUOUS
 62
     7
100
AcDbVertex
100
AcDb2dVertex
 10
477.685250740004
 20
704.3717322837174
 30
0.0
  0
VERTEX
  5
3DC
330
3A4
100
AcDbEntity
  8
LAY-10
  6
CONTINUOUS
 62
     7
100
AcDbVertex
100
AcDb2dVertex
 10
477.7325967810191
 20
704.3957804436982
 30
0.0
  0
VERTEX
  5
3DD
330
3A4
100
AcDbEntity
  8
LAY-10
  6
CONTINUOUS
 62
     7
100
AcDbVertex
100
AcDb2dVertex
 10
477.7795146890478
 20
704.4116302968248
 30
0.0
  0
VERTEX
  5
3DE
330
3A4
100
AcDbEntity
  8
LAY-10
  6
CONTINUOUS
 62
     7
100
AcDbVertex
100
AcDb2dVertex
 10
477.8260044640899
 20
704.4192818430968
 30
0.0
  0
VERTEX
  5
3DF
330
3A4
100
AcDbEntity
  8
LAY-10
  6
CONTINUOUS
 62
     7
100
AcDbVertex
100
AcDb2dVertex
 10
477.8720661061454
 20
704.4187350825143
 30
0.0
  0
VERTEX
  5
3E0
330
3A4
100
AcDbEntity
  8
LAY-10
  6
CONTINUOUS
 62
     7
100
AcDbVertex
100
AcDb2dVertex
 10
477.9176996152145
 20
704.4099900150777
 30
0.0
  0
VERTEX
  5
3E1
330
3A4
100
AcDbEntity
  8
LAY-10
  6
CONTINUOUS
 62
     7
100
AcDbVertex
100
AcDb2dVertex
 10
477.9629049912971
 20
704.3930466407867
 30
0.0
  0
VERTEX
  5
3E2
330
3A4
100
AcDbEntity
  8
LAY-10
  6
CONTINUOUS
 62
     7
100
AcDbVertex
100
AcDb2dVertex
 10
478.0076822343931
 20
704.367904959641
 30
0.0
  0
VERTEX
  5
3E3
330
3A4
100
AcDbEntity
  8
LAY-10
  6
CONTINUOUS
 62
     7
100
AcDbVertex
100
AcDb2dVertex
 10
478.0520313445027
 20
704.3345649716412
 30
0.0
  0
VERTEX
  5
3E4
330
3A4
100
AcDbEntity
  8
LAY-10
  6
CONTINUOUS
 62
     7
100
AcDbVertex
100
AcDb2dVertex
 10
478.0959523216256
 20
704.2930266767871
 30
0.0
  0
VERTEX
  5
3E5
330
3A4
100
AcDbEntity
  8
LAY-10
  6
CONTINUOUS
 62
     7
100
AcDbVertex
100
AcDb2dVertex
 10
478.139445165762
 20
704.2432900750784
 30
0.0
  0
VERTEX
  5
3E6
330
3A4
100
AcDbEntity
  8
LAY-10
  6
CONTINUOUS
 62
     7
100
AcDbVertex
100
AcDb2dVertex
 10
479.435133994265
 20
700.9743886770314
 30
0.0
  0
VERTEX
  5
3E7
330
3A4
100
AcDbEntity
  8
LAY-10
  6
CONTINUOUS
 62
     7
100
AcDbVertex
100
AcDb2dVertex
 10
481.8501947448878
 20
703.4279094371739
 30
0.0
  0
VERTEX
  5
3E8
330
3A4
100
AcDbEntity
  8
LAY-10
  6
CONTINUOUS
 62
     7
100
AcDbVertex
100
AcDb2dVertex
 10
481.9039412244022
 20
703.4755116477097
 30
0.0
  0
VERTEX
  5
3E9
330
3A4
100
AcDbEntity
  8
LAY-10
  6
CONTINUOUS
 62
     7
100
AcDbVertex
100
AcDb2dVertex
 10
481.9567124808358
 20
703.5126100539908
 30
0.0
  0
VERTEX
  5
3EA
330
3A4
100
AcDbEntity
  8
LAY-10
  6
CONTINUOUS
 62
     7
100
AcDbVertex
100
AcDb2dVertex
 10
482.008508514189
 20
703.5392046560171
 30
0.0
  0
VERTEX
  5
3EB
330
3A4
100
AcDbEntity
  8
LAY-10
  6
CONTINUOUS
 62
     7
100
AcDbVertex
100
AcDb2dVertex
 10
482.0593293244619
 20
703.5552954537889
 30
0.0
  0
VERTEX
  5
3EC
330
3A4
100
AcDbEntity
  8
LAY-10
  6
CONTINUOUS
 62
     7
100
AcDbVertex
100
AcDb2dVertex
 10
482.1091749116544
 20
703.5608824473061
 30
0.0
  0
VERTEX
  5
3ED
330
3A4
100
AcDbEntity
  8
LAY-10
  6
CONTINUOUS
 62
     7
100
AcDbVertex
100
AcDb2dVertex
 10
482.1580452757666
 20
703.5559656365688
 30
0.0
  0
VERTEX
  5
3EE
330
3A4
100
AcDbEntity
  8
LAY-10
  6
CONTINUOUS
 62
     7
100
AcDbVertex
100
AcDb2dVertex
 10
482.2059404167983
 20
703.5405450215769
 30
0.0
  0
VERTEX
  5
3EF
330
3A4
100
AcDbEntity
  8
LAY-10
  6
CONTINUOUS
 62
     7
100
AcDbVertex
100
AcDb2dVertex
 10
482.2528603347493
 20
703.5146206023301
 30
0.0
  0
VERTEX
  5
3F0
330
3A4
100
AcDbEntity
  8
LAY-10
  6
CONTINUOUS
 62
     7
100
AcDbVertex
100
AcDb2dVertex
 10
482.2988050296201
 20
703.4781923788289
 30
0.0
  0
VERTEX
  5
3F1
330
3A4
100
AcDbEntity
  8
LAY-10
  6
CONTINUOUS
 62
     7
100
AcDbVertex
100
AcDb2dVertex
 10
482.3437745014105
 20
703.4312603510732
 30
0.0
  0
VERTEX
  5
3F2
330
3A4
100
AcDbEntity
  8
LAY-10
  6
CONTINUOUS
 62
     7
100
AcDbVertex
100
AcDb2dVertex
 10
482.3721907258436
 20
703.3716834374311
 30
0.0
  0
VERTEX
  5
3F3
330
3A4
100
AcDbEntity
  8
LAY-10
  6
CONTINUOUS
 62
     7
100
AcDbVertex
100
AcDb2dVertex
 10
482.3927902574867
 20
703.3124234197219
 30
0.0
  0
VERTEX
  5
3F4
330
3A4
100
AcDbEntity
  8
LAY-10
  6
CONTINUOUS
 62
     7
100
AcDbVertex
100
AcDb2dVertex
 10
482.4055730963393
 20
703.2534802979455
 30
0.0
  0
VERTEX
  5
3F5
330
3A4
100
AcDbEntity
  8
LAY-10
  6
CONTINUOUS
 62
     7
100
AcDbVertex
100
AcDb2dVertex
 10
482.4105392424021
 20
703.1948540721021
 30
0.0
  0
VERTEX
  5
3F6
330
3A4
100
AcDbEntity
  8
LAY-10
  6
CONTINUOUS
 62
     7
100
AcDbVertex
100
AcDb2dVertex
 10
482.4076886956745
 20
703.1365447421913
 30
0.0
  0
VERTEX
  5
3F7
330
3A4
100
AcDbEntity
  8
LAY-10
  6
CONTINUOUS
 62
     7
100
AcDbVertex
100
AcDb2dVertex
 10
482.3970214561566
 20
703.0785523082134
 30
0.0
  0
VERTEX
  5
3F8
330
3A4
100
AcDbEntity
  8
LAY-10
  6
CONTINUOUS
 62
     7
100
AcDbVertex
100
AcDb2dVertex
 10
482.3785375238488
 20
703.0208767701683
 30
0.0
  0
VERTEX
  5
3F9
330
3A4
100
AcDbEntity
  8
LAY-10
  6
CONTINUOUS
 62
     7
100
AcDbVertex
100
AcDb2dVertex
 10
482.3522368987508
 20
702.963518128056
 30
0.0
  0
VERTEX
  5
3FA
330
3A4
100
AcDbEntity
  8
LAY-10
  6
CONTINUOUS
 62
     7
100
AcDbVertex
100
AcDb2dVertex
 10
482.3181195808625
 20
702.9064763818767
 30
0.0
  0
VERTEX
  5
3FB
330
3A4
100
AcDbEntity
  8
LAY-10
  6
CONTINUOUS
 62
     7
100
AcDbVertex
100
AcDb2dVertex
 10
482.276185570184
 20
702.8497515316301
 30
0.0
  0
VERTEX
  5
3FC
330
3A4
100
AcDbEntity
  8
LAY-10
  6
CONTINUOUS
 62
     7
100
AcDbVertex
100
AcDb2dVertex
 10
479.709885152582
 20
700.3560139815038
 30
0.0
  0
VERTEX
  5
3FD
330
3A4
100
AcDbEntity
  8
LAY-10
  6
CONTINUOUS
 62
     7
100
AcDbVertex
100
AcDb2dVertex
 10
480.9913367524891
 20
697.2216870739605
 30
0.0
  0
SEQEND
  5
3FE
330
3A4
100
AcDbEntity
  8
LAY-10
  6
CONTINUOUS
 62
     7
  0
POLYLINE
  5
3FF
330
1F
100
AcDbEntity
  8
LAY-10
  6
CONTINUOUS
 62
     7
100
AcDb2dPolyline
 66
     1
 10
0.0
 20
0.0
 30
0.0
 70
   128
  0
VERTEX
  5
400
330
3FF
100
AcDbEntity
  8
LAY-10
  6
CONTINUOUS
 62
     7
100
AcDbVertex
100
AcDb2dVertex
 10
450.4251982554055
 20
698.2074506097015
 30
0.0
  0
VERTEX
  5
401
330
3FF
100
AcDbEntity
  8
LAY-10
  6
CONTINUOUS
 62
     7
100
AcDbVertex
100
AcDb2dVertex
 10
450.4993924243274
 20
698.3835593476724
 30
0.0
  0
VERTEX
  5
402
330
3FF
100
AcDbEntity
  8
LAY-10
  6
CONTINUOUS
 62
     7
100
AcDbVertex
100
AcDb2dVertex
 10
450.558663728202
 20
698.5719399060272
 30
0.0
  0
VERTEX
  5
403
330
3FF
100
AcDbEntity
  8
LAY-10
  6
CONTINUOUS
 62
     7
100
AcDbVertex
100
AcDb2dVertex
 10
450.6030121670291
 20
698.7725922847658
 30
0.0
  0
VERTEX
  5
404
330
3FF
100
AcDbEntity
  8
LAY-10
  6
CONTINUOUS
 62
     7
100
AcDbVertex
100
AcDb2dVertex
 10
450.6324377408091
 20
698.985516483888
 30
0.0
  0
VERTEX
  5
405
330
3FF
100
AcDbEntity
  8
LAY-10
  6
CONTINUOUS
 62
     7
100
AcDbVertex
100
AcDb2dVertex
 10
450.6469404495414
 20
699.2107125033942
 30
0.0
  0
VERTEX
  5
406
330
3FF
100
AcDbEntity
  8
LAY-10
  6
CONTINUOUS
 62
     7
100
AcDbVertex
100
AcDb2dVertex
 10
450.6465202932268
 20
699.4481803432841
 30
0.0
  0
VERTEX
  5
407
330
3FF
100
AcDbEntity
  8
LAY-10
  6
CONTINUOUS
 62
     7
100
AcDbVertex
100
AcDb2dVertex
 10
450.6311772718643
 20
699.6979200035578
 30
0.0
  0
VERTEX
  5
408
330
3FF
100
AcDbEntity
  8
LAY-10
  6
CONTINUOUS
 62
     7
100
AcDbVertex
100
AcDb2dVertex
 10
450.6009113854547
 20
699.9599314842153
 30
0.0
  0
VERTEX
  5
409
330
3FF
100
AcDbEntity
  8
LAY-10
  6
CONTINUOUS
 62
     7
100
AcDbVertex
100
AcDb2dVertex
 10
450.5557226339976
 20
700.2342147852567
 30
0.0
  0
VERTEX
  5
40A
330
3FF
100
AcDbEntity
  8
LAY-10
  6
CONTINUOUS
 62
     7
100
AcDbVertex
100
AcDb2dVertex
 10
450.4956110174932
 20
700.5207699066818
 30
0.0
  0
VERTEX
  5
40B
330
3FF
100
AcDbEntity
  8
LAY-10
  6
CONTINUOUS
 62
     7
100
AcDbVertex
100
AcDb2dVertex
 10
450.4225462718059
 20
700.8110649851153
 30
0.0
  0
VERTEX
  5
40C
330
3FF
100
AcDbEntity
  8
LAY-10
  6
CONTINUOUS
 62
     7
100
AcDbVertex
100
AcDb2dVertex
 10
450.3416038412579
 20
701.0831158559238
 30
0.0
  0
VERTEX
  5
40D
330
3FF
100
AcDbEntity
  8
LAY-10
  6
CONTINUOUS
 62
     7
100
AcDbVertex
100
AcDb2dVertex
 10
450.2527837258494
 20
701.3369225191068
 30
0.0
  0
VERTEX
  5
40E
330
3FF
100
AcDbEntity
  8
LAY-10
  6
CONTINUOUS
 62
     7
100
AcDbVertex
100
AcDb2dVertex
 10
450.1560859255803
 20
701.5724849746643
 30
0.0
  0
VERTEX
  5
40F
330
3FF
100
AcDbEntity
  8
LAY-10
  6
CONTINUOUS
 62
     7
100
AcDbVertex
100
AcDb2dVertex
 10
450.0515104404506
 20
701.7898032225967
 30
0.0
  0
VERTEX
  5
410
330
3FF
100
AcDbEntity
  8
LAY-10
  6
CONTINUOUS
 62
     7
100
AcDbVertex
100
AcDb2dVertex
 10
449.9390572704604
 20
701.9888772629038
 30
0.0
  0
VERTEX
  5
411
330
3FF
100
AcDbEntity
  8
LAY-10
  6
CONTINUOUS
 62
     7
100
AcDbVertex
100
AcDb2dVertex
 10
449.8187264156095
 20
702.1697070955854
 30
0.0
  0
VERTEX
  5
412
330
3FF
100
AcDbEntity
  8
LAY-10
  6
CONTINUOUS
 62
     7
100
AcDbVertex
100
AcDb2dVertex
 10
449.6905178758981
 20
702.3322927206416
 30
0.0
  0
VERTEX
  5
413
330
3FF
100
AcDbEntity
  8
LAY-10
  6
CONTINUOUS
 62
     7
100
AcDbVertex
100
AcDb2dVertex
 10
449.5544316513262
 20
702.4766341380725
 30
0.0
  0
VERTEX
  5
414
330
3FF
100
AcDbEntity
  8
LAY-10
  6
CONTINUOUS
 62
     7
100
AcDbVertex
100
AcDb2dVertex
 10
449.4104677418936
 20
702.602731347878
 30
0.0
  0
VERTEX
  5
415
330
3FF
100
AcDbEntity
  8
LAY-10
  6
CONTINUOUS
 62
     7
100
AcDbVertex
100
AcDb2dVertex
 10
449.3002921553721
 20
702.6828076255149
 30
0.0
  0
VERTEX
  5
416
330
3FF
100
AcDbEntity
  8
LAY-10
  6
CONTINUOUS
 62
     7
100
AcDbVertex
100
AcDb2dVertex
 10
449.1871659066598
 20
702.75109612953
 30
0.0
  0
VERTEX
  5
417
330
3FF
100
AcDbEntity
  8
LAY-10
  6
CONTINUOUS
 62
     7
100
AcDbVertex
100
AcDb2dVertex
 10
449.0710889957568
 20
702.8075968599228
 30
0.0
  0
VERTEX
  5
418
330
3FF
100
AcDbEntity
  8
LAY-10
  6
CONTINUOUS
 62
     7
100
AcDbVertex
100
AcDb2dVertex
 10
448.9520614226626
 20
702.8523098166938
 30
0.0
  0
VERTEX
  5
419
330
3FF
100
AcDbEntity
  8
LAY-10
  6
CONTINUOUS
 62
     7
100
AcDbVertex
100
AcDb2dVertex
 10
448.8300831873778
 20
702.8852349998431
 30
0.0
  0
VERTEX
  5
41A
330
3FF
100
AcDbEntity
  8
LAY-10
  6
CONTINUOUS
 62
     7
100
AcDbVertex
100
AcDb2dVertex
 10
448.7051542899021
 20
702.9063724093703
 30
0.0
  0
VERTEX
  5
41B
330
3FF
100
AcDbEntity
  8
LAY-10
  6
CONTINUOUS
 62
     7
100
AcDbVertex
100
AcDb2dVertex
 10
448.5772747302356
 20
702.9157220452757
 30
0.0
  0
VERTEX
  5
41C
330
3FF
100
AcDbEntity
  8
LAY-10
  6
CONTINUOUS
 62
     7
100
AcDbVertex
100
AcDb2dVertex
 10
448.4464445083783
 20
702.9132839075592
 30
0.0
  0
VERTEX
  5
41D
330
3FF
100
AcDbEntity
  8
LAY-10
  6
CONTINUOUS
 62
     7
100
AcDbVertex
100
AcDb2dVertex
 10
448.3126636243301
 20
702.8990579962206
 30
0.0
  0
VERTEX
  5
41E
330
3FF
100
AcDbEntity
  8
LAY-10
  6
CONTINUOUS
 62
     7
100
AcDbVertex
100
AcDb2dVertex
 10
448.1759320780911
 20
702.8730443112602
 30
0.0
  0
VERTEX
  5
41F
330
3FF
100
AcDbEntity
  8
LAY-10
  6
CONTINUOUS
 62
     7
100
AcDbVertex
100
AcDb2dVertex
 10
448.0400599753989
 20
702.8361224848977
 30
0.0
  0
VERTEX
  5
420
330
3FF
100
AcDbEntity
  8
LAY-10
  6
CONTINUOUS
 62
     7
100
AcDbVertex
100
AcDb2dVertex
 10
447.912168757777
 20
702.7899366314555
 30
0.0
  0
VERTEX
  5
421
330
3FF
100
AcDbEntity
  8
LAY-10
  6
CONTINUOUS
 62
     7
100
AcDbVertex
100
AcDb2dVertex
 10
447.7922584252249
 20
702.7344867509337
 30
0.0
  0
VERTEX
  5
422
330
3FF
100
AcDbEntity
  8
LAY-10
  6
CONTINUOUS
 62
     7
100
AcDbVertex
100
AcDb2dVertex
 10
447.6803289777428
 20
702.6697728433323
 30
0.0
  0
VERTEX
  5
423
330
3FF
100
AcDbEntity
  8
LAY-10
  6
CONTINUOUS
 62
     7
100
AcDbVertex
100
AcDb2dVertex
 10
447.576380415331
 20
702.5957949086514
 30
0.0
  0
VERTEX
  5
424
330
3FF
100
AcDbEntity
  8
LAY-10
  6
CONTINUOUS
 62
     7
100
AcDbVertex
100
AcDb2dVertex
 10
447.4804127379888
 20
702.512552946891
 30
0.0
  0
VERTEX
  5
425
330
3FF
100
AcDbEntity
  8
LAY-10
  6
CONTINUOUS
 62
     7
100
AcDbVertex
100
AcDb2dVertex
 10
447.3924259457172
 20
702.4200469580508
 30
0.0
  0
VERTEX
  5
426
330
3FF
100
AcDbEntity
  8
LAY-10
  6
CONTINUOUS
 62
     7
100
AcDbVertex
100
AcDb2dVertex
 10
447.3124200385152
 20
702.3182769421312
 30
0.0
  0
VERTEX
  5
427
330
3FF
100
AcDbEntity
  8
LAY-10
  6
CONTINUOUS
 62
     7
100
AcDbVertex
100
AcDb2dVertex
 10
447.2403950163832
 20
702.2072428991319
 30
0.0
  0
VERTEX
  5
428
330
3FF
100
AcDbEntity
  8
LAY-10
  6
CONTINUOUS
 62
     7
100
AcDbVertex
100
AcDb2dVertex
 10
447.1763508793215
 20
702.086944829053
 30
0.0
  0
VERTEX
  5
429
330
3FF
100
AcDbEntity
  8
LAY-10
  6
CONTINUOUS
 62
     7
100
AcDbVertex
100
AcDb2dVertex
 10
447.1015879572274
 20
701.9091734085794
 30
0.0
  0
VERTEX
  5
42A
330
3FF
100
AcDbEntity
  8
LAY-10
  6
CONTINUOUS
 62
     7
100
AcDbVertex
100
AcDb2dVertex
 10
447.0419410503509
 20
701.7187278816966
 30
0.0
  0
VERTEX
  5
42B
330
3FF
100
AcDbEntity
  8
LAY-10
  6
CONTINUOUS
 62
     7
100
AcDbVertex
100
AcDb2dVertex
 10
446.9974101586926
 20
701.5156082484045
 30
0.0
  0
VERTEX
  5
42C
330
3FF
100
AcDbEntity
  8
LAY-10
  6
CONTINUOUS
 62
     7
100
AcDbVertex
100
AcDb2dVertex
 10
446.9679952822526
 20
701.2998145087033
 30
0.0
  0
VERTEX
  5
42D
330
3FF
100
AcDbEntity
  8
LAY-10
  6
CONTINUOUS
 62
     7
100
AcDbVertex
100
AcDb2dVertex
 10
446.9536964210301
 20
701.071346662593
 30
0.0
  0
VERTEX
  5
42E
330
3FF
100
AcDbEntity
  8
LAY-10
  6
CONTINUOUS
 62
     7
100
AcDbVertex
100
AcDb2dVertex
 10
446.9545135750257
 20
700.8302047100733
 30
0.0
  0
VERTEX
  5
42F
330
3FF
100
AcDbEntity
  8
LAY-10
  6
CONTINUOUS
 62
     7
100
AcDbVertex
100
AcDb2dVertex
 10
446.9704467442393
 20
700.5763886511447
 30
0.0
  0
VERTEX
  5
430
330
3FF
100
AcDbEntity
  8
LAY-10
  6
CONTINUOUS
 62
     7
100
AcDbVertex
100
AcDb2dVertex
 10
447.0014959286707
 20
700.3098984858066
 30
0.0
  0
VERTEX
  5
431
330
3FF
100
AcDbEntity
  8
LAY-10
  6
CONTINUOUS
 62
     7
100
AcDbVertex
100
AcDb2dVertex
 10
447.0476611283202
 20
700.0307342140595
 30
0.0
  0
VERTEX
  5
432
330
3FF
100
AcDbEntity
  8
LAY-10
  6
CONTINUOUS
 62
     7
100
AcDbVertex
100
AcDb2dVertex
 10
447.1089423431877
 20
699.7388958359031
 30
0.0
  0
VERTEX
  5
433
330
3FF
100
AcDbEntity
  8
LAY-10
  6
CONTINUOUS
 62
     7
100
AcDbVertex
100
AcDb2dVertex
 10
447.1803214651065
 20
699.4561191657945
 30
0.0
  0
VERTEX
  5
434
330
3FF
100
AcDbEntity
  8
LAY-10
  6
CONTINUOUS
 62
     7
100
AcDbVertex
100
AcDb2dVertex
 10
447.2598860943692
 20
699.1906877169315
 30
0.0
  0
VERTEX
  5
435
330
3FF
100
AcDbEntity
  8
LAY-10
  6
CONTINUOUS
 62
     7
100
AcDbVertex
100
AcDb2dVertex
 10
447.3476362309752
 20
698.9426014893145
 30
0.0
  0
VERTEX
  5
436
330
3FF
100
AcDbEntity
  8
LAY-10
  6
CONTINUOUS
 62
     7
100
AcDbVertex
100
AcDb2dVertex
 10
447.4435718749245
 20
698.7118604829432
 30
0.0
  0
VERTEX
  5
437
330
3FF
100
AcDbEntity
  8
LAY-10
  6
CONTINUOUS
 62
     7
100
AcDbVertex
100
AcDb2dVertex
 10
447.5476930262173
 20
698.4984646978176
 30
0.0
  0
VERTEX
  5
438
330
3FF
100
AcDbEntity
  8
LAY-10
  6
CONTINUOUS
 62
     7
100
AcDbVertex
100
AcDb2dVertex
 10
447.6599996848535
 20
698.3024141339379
 30
0.0
  0
VERTEX
  5
439
330
3FF
100
AcDbEntity
  8
LAY-10
  6
CONTINUOUS
 62
     7
100
AcDbVertex
100
AcDb2dVertex
 10
447.7804918508334
 20
698.1237087913037
 30
0.0
  0
VERTEX
  5
43A
330
3FF
100
AcDbEntity
  8
LAY-10
  6
CONTINUOUS
 62
     7
100
AcDbVertex
100
AcDb2dVertex
 10
447.9091695241565
 20
697.9623486699154
 30
0.0
  0
VERTEX
  5
43B
330
3FF
100
AcDbEntity
  8
LAY-10
  6
CONTINUOUS
 62
     7
100
AcDbVertex
100
AcDb2dVertex
 10
448.0460327048233
 20
697.8183337697731
 30
0.0
  0
VERTEX
  5
43C
330
3FF
100
AcDbEntity
  8
LAY-10
  6
CONTINUOUS
 62
     7
100
AcDbVertex
100
AcDb2dVertex
 10
448.1910813928332
 20
697.6916640908764
 30
0.0
  0
VERTEX
  5
43D
330
3FF
100
AcDbEntity
  8
LAY-10
  6
CONTINUOUS
 62
     7
100
AcDbVertex
100
AcDb2dVertex
 10
448.3016220864042
 20
697.6114132424393
 30
0.0
  0
VERTEX
  5
43E
330
3FF
100
AcDbEntity
  8
LAY-10
  6
CONTINUOUS
 62
     7
100
AcDbVertex
100
AcDb2dVertex
 10
448.4152275055721
 20
697.5430037499107
 30
0.0
  0
VERTEX
  5
43F
330
3FF
100
AcDbEntity
  8
LAY-10
  6
CONTINUOUS
 62
     7
100
AcDbVertex
100
AcDb2dVertex
 10
448.5318976503365
 20
697.48643561329
 30
0.0
  0
VERTEX
  5
440
330
3FF
100
AcDbEntity
  8
LAY-10
  6
CONTINUOUS
 62
     7
100
AcDbVertex
100
AcDb2dVertex
 10
448.6516325206981
 20
697.4417088325779
 30
0.0
  0
VERTEX
  5
441
330
3FF
100
AcDbEntity
  8
LAY-10
  6
CONTINUOUS
 62
     7
100
AcDbVertex
100
AcDb2dVertex
 10
448.7744321166563
 20
697.4088234077738
 30
0.0
  0
VERTEX
  5
442
330
3FF
100
AcDbEntity
  8
LAY-10
  6
CONTINUOUS
 62
     7
100
AcDbVertex
100
AcDb2dVertex
 10
448.9002964382112
 20
697.3877793388781
 30
0.0
  0
VERTEX
  5
443
330
3FF
100
AcDbEntity
  8
LAY-10
  6
CONTINUOUS
 62
     7
100
AcDbVertex
100
AcDb2dVertex
 10
449.0292254853628
 20
697.3785766258904
 30
0.0
  0
VERTEX
  5
444
330
3FF
100
AcDbEntity
  8
LAY-10
  6
CONTINUOUS
 62
     7
100
AcDbVertex
100
AcDb2dVertex
 10
449.1612192581113
 20
697.3812152688113
 30
0.0
  0
VERTEX
  5
445
330
3FF
100
AcDbEntity
  8
LAY-10
  6
CONTINUOUS
 62
     7
100
AcDbVertex
100
AcDb2dVertex
 10
449.2962777564567
 20
697.3956952676403
 30
0.0
  0
VERTEX
  5
446
330
3FF
100
AcDbEntity
  8
LAY-10
  6
CONTINUOUS
 62
     7
100
AcDbVertex
100
AcDb2dVertex
 10
449.4344009803987
 20
697.4220166223774
 30
0.0
  0
VERTEX
  5
447
330
3FF
100
AcDbEntity
  8
LAY-10
  6
CONTINUOUS
 62
     7
100
AcDbVertex
100
AcDb2dVertex
 10
449.5685088801119
 20
697.4585447747265
 30
0.0
  0
VERTEX
  5
448
330
3FF
100
AcDbEntity
  8
LAY-10
  6
CONTINUOUS
 62
     7
100
AcDbVertex
100
AcDb2dVertex
 10
449.6948327415557
 20
697.5044096484944
 30
0.0
  0
VERTEX
  5
449
330
3FF
100
AcDbEntity
  8
LAY-10
  6
CONTINUOUS
 62
     7
100
AcDbVertex
100
AcDb2dVertex
 10
449.8133725647299
 20
697.5596112436804
 30
0.0
  0
VERTEX
  5
44A
330
3FF
100
AcDbEntity
  8
LAY-10
  6
CONTINUOUS
 62
     7
100
AcDbVertex
100
AcDb2dVertex
 10
449.9241283496348
 20
697.6241495602851
 30
0.0
  0
VERTEX
  5
44B
330
3FF
100
AcDbEntity
  8
LAY-10
  6
CONTINUOUS
 62
     7
100
AcDbVertex
100
AcDb2dVertex
 10
450.0271000962703
 20
697.6980245983082
 30
0.0
  0
VERTEX
  5
44C
330
3FF
100
AcDbEntity
  8
LAY-10
  6
CONTINUOUS
 62
     7
100
AcDbVertex
100
AcDb2dVertex
 10
450.1222878046362
 20
697.7812363577498
 30
0.0
  0
VERTEX
  5
44D
330
3FF
100
AcDbEntity
  8
LAY-10
  6
CONTINUOUS
 62
     7
100
AcDbVertex
100
AcDb2dVertex
 10
450.2096914747326
 20
697.8737848386099
 30
0.0
  0
VERTEX
  5
44E
330
3FF
100
AcDbEntity
  8
LAY-10
  6
CONTINUOUS
 62
     7
100
AcDbVertex
100
AcDb2dVertex
 10
450.2893111065595
 20
697.9756700408886
 30
0.0
  0
VERTEX
  5
44F
330
3FF
100
AcDbEntity
  8
LAY-10
  6
CONTINUOUS
 62
     7
100
AcDbVertex
100
AcDb2dVertex
 10
450.3611467001174
 20
698.0868919645859
 30
0.0
  0
VERTEX
  5
450
330
3FF
100
AcDbEntity
  8
LAY-10
  6
CONTINUOUS
 62
     7
100
AcDbVertex
100
AcDb2dVertex
 10
450.4251982554055
 20
698.2074506097015
 30
0.0
  0
SEQEND
  5
451
330
3FF
100
AcDbEntity
  8
LAY-10
  6
CONTINUOUS
 62
     7
  0
POLYLINE
  5
452
330
1F
100
AcDbEntity
  8
LAY-10
  6
CONTINUOUS
 62
     7
100
AcDb2dPolyline
 66
     1
 10
0.0
 20
0.0
 30
0.0
 70
   128
  0
VERTEX
  5
453
330
452
100
AcDbEntity
  8
LAY-10
  6
CONTINUOUS
 62
     7
100
AcDbVertex
100
AcDb2dVertex
 10
447.7332987099965
 20
697.188418475265
 30
0.0
  0
VERTEX
  5
454
330
452
100
AcDbEntity
  8
LAY-10
  6
CONTINUOUS
 62
     7
100
AcDbVertex
100
AcDb2dVertex
 10
447.5519880246915
 20
697.3453196090932
 30
0.0
  0
VERTEX
  5
455
330
452
100
AcDbEntity
  8
LAY-10
  6
CONTINUOUS
 62
     7
100
AcDbVertex
100
AcDb2dVertex
 10
447.3817330980771
 20
697.5204847514406
 30
0.0
  0
VERTEX
  5
456
330
452
100
AcDbEntity
  8
LAY-10
  6
CONTINUOUS
 62
     7
100
AcDbVertex
100
AcDb2dVertex
 10
447.2225339301535
 20
697.7139139023072
 30
0.0
  0
VERTEX
  5
457
330
452
100
AcDbEntity
  8
LAY-10
  6
CONTINUOUS
 62
     7
100
AcDbVertex
100
AcDb2dVertex
 10
447.0743905209208
 20
697.9256070616934
 30
0.0
  0
VERTEX
  5
458
330
452
100
AcDbEntity
  8
LAY-10
  6
CONTINUOUS
 62
     7
100
AcDbVertex
100
AcDb2dVertex
 10
446.9373028703787
 20
698.1555642295987
 30
0.0
  0
VERTEX
  5
459
330
452
100
AcDbEntity
  8
LAY-10
  6
CONTINUOUS
 62
     7
100
AcDbVertex
100
AcDb2dVertex
 10
446.811270978527
 20
698.4037854060234
 30
0.0
  0
VERTEX
  5
45A
330
452
100
AcDbEntity
  8
LAY-10
  6
CONTINUOUS
 62
     7
100
AcDbVertex
100
AcDb2dVertex
 10
446.6962948453665
 20
698.6702705909672
 30
0.0
  0
VERTEX
  5
45B
330
452
100
AcDbEntity
  8
LAY-10
  6
CONTINUOUS
 62
     7
100
AcDbVertex
100
AcDb2dVertex
 10
446.5923744708964
 20
698.9550197844305
 30
0.0
  0
VERTEX
  5
45C
330
452
100
AcDbEntity
  8
LAY-10
  6
CONTINUOUS
 62
     7
100
AcDbVertex
100
AcDb2dVertex
 10
446.4995098551171
 20
699.2580329864131
 30
0.0
  0
VERTEX
  5
45D
330
452
100
AcDbEntity
  8
LAY-10
  6
CONTINUOUS
 62
     7
100
AcDbVertex
100
AcDb2dVertex
 10
446.4177009980285
 20
699.579310196915
 30
0.0
  0
VERTEX
  5
45E
330
452
100
AcDbEntity
  8
LAY-10
  6
CONTINUOUS
 62
     7
100
AcDbVertex
100
AcDb2dVertex
 10
446.3489164409918
 20
699.9103247265232
 30
0.0
  0
VERTEX
  5
45F
330
452
100
AcDbEntity
  8
LAY-10
  6
CONTINUOUS
 62
     7
100
AcDbVertex
100
AcDb2dVertex
 10
446.2982304338261
 20
700.2290975845654
 30
0.0
  0
VERTEX
  5
460
330
452
100
AcDbEntity
  8
LAY-10
  6
CONTINUOUS
 62
     7
100
AcDbVertex
100
AcDb2dVertex
 10
446.2656429765314
 20
700.535628771042
 30
0.0
  0
VERTEX
  5
461
330
452
100
AcDbEntity
  8
LAY-10
  6
CONTINUOUS
 62
     7
100
AcDbVertex
100
AcDb2dVertex
 10
446.2511540691077
 20
700.8299182859525
 30
0.0
  0
VERTEX
  5
462
330
452
100
AcDbEntity
  8
LAY-10
  6
CONTINUOUS
 62
     7
100
AcDbVertex
100
AcDb2dVertex
 10
446.2547637115549
 20
701.1119661292976
 30
0.0
  0
VERTEX
  5
463
330
452
100
AcDbEntity
  8
LAY-10
  6
CONTINUOUS
 62
     7
100
AcDbVertex
100
AcDb2dVertex
 10
446.2764719038732
 20
701.3817723010766
 30
0.0
  0
VERTEX
  5
464
330
452
100
AcDbEntity
  8
LAY-10
  6
CONTINUOUS
 62
     7
100
AcDbVertex
100
AcDb2dVertex
 10
446.3162786460627
 20
701.6393368012898
 30
0.0
  0
VERTEX
  5
465
330
452
100
AcDbEntity
  8
LAY-10
  6
CONTINUOUS
 62
     7
100
AcDbVertex
100
AcDb2dVertex
 10
446.374183938123
 20
701.8846596299375
 30
0.0
  0
VERTEX
  5
466
330
452
100
AcDbEntity
  8
LAY-10
  6
CONTINUOUS
 62
     7
100
AcDbVertex
100
AcDb2dVertex
 10
446.4501877800544
 20
702.1177407870191
 30
0.0
  0
VERTEX
  5
467
330
452
100
AcDbEntity
  8
LAY-10
  6
CONTINUOUS
 62
     7
100
AcDbVertex
100
AcDb2dVertex
 10
446.5442901718568
 20
702.3385802725352
 30
0.0
  0
VERTEX
  5
468
330
452
100
AcDbEntity
  8
LAY-10
  6
CONTINUOUS
 62
     7
100
AcDbVertex
100
AcDb2dVertex
 10
446.6445470171439
 20
702.5287961848064
 30
0.0
  0
VERTEX
  5
469
330
452
100
AcDbEntity
  8
LAY-10
  6
CONTINUOUS
 62
     7
100
AcDbVertex
100
AcDb2dVertex
 10
446.7552687784898
 20
702.7038418190289
 30
0.0
  0
VERTEX
  5
46A
330
452
100
AcDbEntity
  8
LAY-10
  6
CONTINUOUS
 62
     7
100
AcDbVertex
100
AcDb2dVertex
 10
446.8764554558948
 20
702.8637171752023
 30
0.0
  0
VERTEX
  5
46B
330
452
100
AcDbEntity
  8
LAY-10
  6
CONTINUOUS
 62
     7
100
AcDbVertex
100
AcDb2dVertex
 10
447.0081070493586
 20
703.0084222533271
 30
0.0
  0
VERTEX
  5
46C
330
452
100
AcDbEntity
  8
LAY-10
  6
CONTINUOUS
 62
     7
100
AcDbVertex
100
AcDb2dVertex
 10
447.1502235588814
 20
703.1379570534029
 30
0.0
  0
VERTEX
  5
46D
330
452
100
AcDbEntity
  8
LAY-10
  6
CONTINUOUS
 62
     7
100
AcDbVertex
100
AcDb2dVertex
 10
447.3028049844631
 20
703.25232157543
 30
0.0
  0
VERTEX
  5
46E
330
452
100
AcDbEntity
  8
LAY-10
  6
CONTINUOUS
 62
     7
100
AcDbVertex
100
AcDb2dVertex
 10
447.465851326104
 20
703.351515819408
 30
0.0
  0
VERTEX
  5
46F
330
452
100
AcDbEntity
  8
LAY-10
  6
CONTINUOUS
 62
     7
100
AcDbVertex
100
AcDb2dVertex
 10
447.6393625838036
 20
703.4355397853371
 30
0.0
  0
VERTEX
  5
470
330
452
100
AcDbEntity
  8
LAY-10
  6
CONTINUOUS
 62
     7
100
AcDbVertex
100
AcDb2dVertex
 10
447.8233387575624
 20
703.5043934732175
 30
0.0
  0
VERTEX
  5
471
330
452
100
AcDbEntity
  8
LAY-10
  6
CONTINUOUS
 62
     7
100
AcDbVertex
100
AcDb2dVertex
 10
448.0177798473801
 20
703.5580768830491
 30
0.0
  0
VERTEX
  5
472
330
452
100
AcDbEntity
  8
LAY-10
  6
CONTINUOUS
 62
     7
100
AcDbVertex
100
AcDb2dVertex
 10
448.21446546217
 20
703.5946921880111
 30
0.0
  0
VERTEX
  5
473
330
452
100
AcDbEntity
  8
LAY-10
  6
CONTINUOUS
 62
     7
100
AcDbVertex
100
AcDb2dVertex
 10
448.4085693300251
 20
703.6131251554389
 30
0.0
  0
VERTEX
  5
474
330
452
100
AcDbEntity
  8
LAY-10
  6
CONTINUOUS
 62
     7
100
AcDbVertex
100
AcDb2dVertex
 10
448.6000914509455
 20
703.613375785332
 30
0.0
  0
VERTEX
  5
475
330
452
100
AcDbEntity
  8
LAY-10
  6
CONTINUOUS
 62
     7
100
AcDbVertex
100
AcDb2dVertex
 10
448.7890318249312
 20
703.5954440776909
 30
0.0
  0
VERTEX
  5
476
330
452
100
AcDbEntity
  8
LAY-10
  6
CONTINUOUS
 62
     7
100
AcDbVertex
100
AcDb2dVertex
 10
448.9753904519823
 20
703.5593300325154
 30
0.0
  0
VERTEX
  5
477
330
452
100
AcDbEntity
  8
LAY-10
  6
CONTINUOUS
 62
     7
100
AcDbVertex
100
AcDb2dVertex
 10
449.1591673320986
 20
703.5050336498052
 30
0.0
  0
VERTEX
  5
478
330
452
100
AcDbEntity
  8
LAY-10
  6
CONTINUOUS
 62
     7
100
AcDbVertex
100
AcDb2dVertex
 10
449.3403624652804
 20
703.4325549295609
 30
0.0
  0
VERTEX
  5
479
330
452
100
AcDbEntity
  8
LAY-10
  6
CONTINUOUS
 62
     7
100
AcDbVertex
100
AcDb2dVertex
 10
449.5189758515271
 20
703.3418938717821
 30
0.0
  0
VERTEX
  5
47A
330
452
100
AcDbEntity
  8
LAY-10
  6
CONTINUOUS
 62
     7
100
AcDbVertex
100
AcDb2dVertex
 10
449.6950074908395
 20
703.2330504764686
 30
0.0
  0
VERTEX
  5
47B
330
452
100
AcDbEntity
  8
LAY-10
  6
CONTINUOUS
 62
     7
100
AcDbVertex
100
AcDb2dVertex
 10
449.868457383217
 20
703.106024743621
 30
0.0
  0
VERTEX
  5
47C
330
452
100
AcDbEntity
  8
LAY-10
  6
CONTINUOUS
 62
     7
100
AcDbVertex
100
AcDb2dVertex
 10
450.0486046457195
 20
702.9496779224339
 30
0.0
  0
VERTEX
  5
47D
330
452
100
AcDbEntity
  8
LAY-10
  6
CONTINUOUS
 62
     7
100
AcDbVertex
100
AcDb2dVertex
 10
450.2180122503536
 20
702.7741700175532
 30
0.0
  0
VERTEX
  5
47E
330
452
100
AcDbEntity
  8
LAY-10
  6
CONTINUOUS
 62
     7
100
AcDbVertex
100
AcDb2dVertex
 10
450.3766801971196
 20
702.5795010289792
 30
0.0
  0
VERTEX
  5
47F
330
452
100
AcDbEntity
  8
LAY-10
  6
CONTINUOUS
 62
     7
100
AcDbVertex
100
AcDb2dVertex
 10
450.5246084860169
 20
702.3656709567113
 30
0.0
  0
VERTEX
  5
480
330
452
100
AcDbEntity
  8
LAY-10
  6
CONTINUOUS
 62
     7
100
AcDbVertex
100
AcDb2dVertex
 10
450.661797117046
 20
702.1326798007499
 30
0.0
  0
VERTEX
  5
481
330
452
100
AcDbEntity
  8
LAY-10
  6
CONTINUOUS
 62
     7
100
AcDbVertex
100
AcDb2dVertex
 10
450.7882460902067
 20
701.8805275610948
 30
0.0
  0
VERTEX
  5
482
330
452
100
AcDbEntity
  8
LAY-10
  6
CONTINUOUS
 62
     7
100
AcDbVertex
100
AcDb2dVertex
 10
450.9039554054991
 20
701.6092142377461
 30
0.0
  0
VERTEX
  5
483
330
452
100
AcDbEntity
  8
LAY-10
  6
CONTINUOUS
 62
     7
100
AcDbVertex
100
AcDb2dVertex
 10
451.008925062923
 20
701.3187398307039
 30
0.0
  0
VERTEX
  5
484
330
452
100
AcDbEntity
  8
LAY-10
  6
CONTINUOUS
 62
     7
100
AcDbVertex
100
AcDb2dVertex
 10
451.1031550624784
 20
701.009104339968
 30
0.0
  0
VERTEX
  5
485
330
452
100
AcDbEntity
  8
LAY-10
  6
CONTINUOUS
 62
     7
100
AcDbVertex
100
AcDb2dVertex
 10
451.1866454041658
 20
700.6803077655384
 30
0.0
  0
VERTEX
  5
486
330
452
100
AcDbEntity
  8
LAY-10
  6
CONTINUOUS
 62
     7
100
AcDbVertex
100
AcDb2dVertex
 10
451.2542645020092
 20
700.3545774482643
 30
0.0
  0
VERTEX
  5
487
330
452
100
AcDbEntity
  8
LAY-10
  6
CONTINUOUS
 62
     7
100
AcDbVertex
100
AcDb2dVertex
 10
451.3039864784917
 20
700.0406884277356
 30
0.0
  0
VERTEX
  5
488
330
452
100
AcDbEntity
  8
LAY-10
  6
CONTINUOUS
 62
     7
100
AcDbVertex
100
AcDb2dVertex
 10
451.3358113336133
 20
699.7386407039528
 30
0.0
  0
VERTEX
  5
489
330
452
100
AcDbEntity
  8
LAY-10
  6
CONTINUOUS
 62
     7
100
AcDbVertex
100
AcDb2dVertex
 10
451.3497390673737
 20
699.4484342769156
 30
0.0
  0
VERTEX
  5
48A
330
452
100
AcDbEntity
  8
LAY-10
  6
CONTINUOUS
 62
     7
100
AcDbVertex
100
AcDb2dVertex
 10
451.3457696797734
 20
699.170069146624
 30
0.0
  0
VERTEX
  5
48B
330
452
100
AcDbEntity
  8
LAY-10
  6
CONTINUOUS
 62
     7
100
AcDbVertex
100
AcDb2dVertex
 10
451.3239031708119
 20
698.903545313078
 30
0.0
  0
VERTEX
  5
48C
330
452
100
AcDbEntity
  8
LAY-10
  6
CONTINUOUS
 62
     7
100
AcDbVertex
100
AcDb2dVertex
 10
451.2841395404896
 20
698.6488627762778
 30
0.0
  0
VERTEX
  5
48D
330
452
100
AcDbEntity
  8
LAY-10
  6
CONTINUOUS
 62
     7
100
AcDbVertex
100
AcDb2dVertex
 10
451.2264787888064
 20
698.4060215362231
 30
0.0
  0
VERTEX
  5
48E
330
452
100
AcDbEntity
  8
LAY-10
  6
CONTINUOUS
 62
     7
100
AcDbVertex
100
AcDb2dVertex
 10
451.150920915762
 20
698.1750215929142
 30
0.0
  0
VERTEX
  5
48F
330
452
100
AcDbEntity
  8
LAY-10
  6
CONTINUOUS
 62
     7
100
AcDbVertex
100
AcDb2dVertex
 10
451.0574659213567
 20
697.9558629463509
 30
0.0
  0
VERTEX
  5
490
330
452
100
AcDbEntity
  8
LAY-10
  6
CONTINUOUS
 62
     7
100
AcDbVertex
100
AcDb2dVertex
 10
450.9571250832034
 20
697.765368780394
 30
0.0
  0
VERTEX
  5
491
330
452
100
AcDbEntity
  8
LAY-10
  6
CONTINUOUS
 62
     7
100
AcDbVertex
100
AcDb2dVertex
 10
450.8465285933007
 20
697.5901204536331
 30
0.0
  0
VERTEX
  5
492
330
452
100
AcDbEntity
  8
LAY-10
  6
CONTINUOUS
 62
     7
100
AcDbVertex
100
AcDb2dVertex
 10
450.7256764516492
 20
697.4301179660677
 30
0.0
  0
VERTEX
  5
493
330
452
100
AcDbEntity
  8
LAY-10
  6
CONTINUOUS
 62
     7
100
AcDbVertex
100
AcDb2dVertex
 10
450.5945686582481
 20
697.2853613176981
 30
0.0
  0
VERTEX
  5
494
330
452
100
AcDbEntity
  8
LAY-10
  6
CONTINUOUS
 62
     7
100
AcDbVertex
100
AcDb2dVertex
 10
450.453205213098
 20
697.1558505085238
 30
0.0
  0
VERTEX
  5
495
330
452
100
AcDbEntity
  8
LAY-10
  6
CONTINUOUS
 62
     7
100
AcDbVertex
100
AcDb2dVertex
 10
450.3015861161986
 20
697.0415855385456
 30
0.0
  0
VERTEX
  5
496
330
452
100
AcDbEntity
  8
LAY-10
  6
CONTINUOUS
 62
     7
100
AcDbVertex
100
AcDb2dVertex
 10
450.1397113675503
 20
696.9425664077628
 30
0.0
  0
VERTEX
  5
497
330
452
100
AcDbEntity
  8
LAY-10
  6
CONTINUOUS
 62
     7
100
AcDbVertex
100
AcDb2dVertex
 10
449.9675809671526
 20
696.8587931161758
 30
0.0
  0
VERTEX
  5
498
330
452
100
AcDbEntity
  8
LAY-10
  6
CONTINUOUS
 62
     7
100
AcDbVertex
100
AcDb2dVertex
 10
449.7851949150058
 20
696.7902656637843
 30
0.0
  0
VERTEX
  5
499
330
452
100
AcDbEntity
  8
LAY-10
  6
CONTINUOUS
 62
     7
100
AcDbVertex
100
AcDb2dVertex
 10
449.5925532111098
 20
696.7369840505887
 30
0.0
  0
VERTEX
  5
49A
330
452
100
AcDbEntity
  8
LAY-10
  6
CONTINUOUS
 62
     7
100
AcDbVertex
100
AcDb2dVertex
 10
449.3944407356741
 20
696.7000529532274
 30
0.0
  0
VERTEX
  5
49B
330
452
100
AcDbEntity
  8
LAY-10
  6
CONTINUOUS
 62
     7
100
AcDbVertex
100
AcDb2dVertex
 10
449.1990364880882
 20
696.6813606424946
 30
0.0
  0
VERTEX
  5
49C
330
452
100
AcDbEntity
  8
LAY-10
  6
CONTINUOUS
 62
     7
100
AcDbVertex
100
AcDb2dVertex
 10
449.0063404683524
 20
696.6809071183907
 30
0.0
  0
VERTEX
  5
49D
330
452
100
AcDbEntity
  8
LAY-10
  6
CONTINUOUS
 62
     7
100
AcDbVertex
100
AcDb2dVertex
 10
448.8163526764663
 20
696.6986923809154
 30
0.0
  0
VERTEX
  5
49E
330
452
100
AcDbEntity
  8
LAY-10
  6
CONTINUOUS
 62
     7
100
AcDbVertex
100
AcDb2dVertex
 10
448.6290731124299
 20
696.7347164300686
 30
0.0
  0
VERTEX
  5
49F
330
452
100
AcDbEntity
  8
LAY-10
  6
CONTINUOUS
 62
     7
100
AcDbVertex
100
AcDb2dVertex
 10
448.4445017762436
 20
696.7889792658507
 30
0.0
  0
VERTEX
  5
4A0
330
452
100
AcDbEntity
  8
LAY-10
  6
CONTINUOUS
 62
     7
100
AcDbVertex
100
AcDb2dVertex
 10
448.2626386679071
 20
696.8614808882612
 30
0.0
  0
VERTEX
  5
4A1
330
452
100
AcDbEntity
  8
LAY-10
  6
CONTINUOUS
 62
     7
100
AcDbVertex
100
AcDb2dVertex
 10
448.0834837874203
 20
696.9522212973006
 30
0.0
  0
VERTEX
  5
4A2
330
452
100
AcDbEntity
  8
LAY-10
  6
CONTINUOUS
 62
     7
100
AcDbVertex
100
AcDb2dVertex
 10
447.9070371347834
 20
697.0612004929685
 30
0.0
  0
VERTEX
  5
4A3
330
452
100
AcDbEntity
  8
LAY-10
  6
CONTINUOUS
 62
     7
100
AcDbVertex
100
AcDb2dVertex
 10
447.7332987099965
 20
697.188418475265
 30
0.0
  0
SEQEND
  5
4A4
330
452
100
AcDbEntity
  8
LAY-10
  6
CONTINUOUS
 62
     7
  0
POLYLINE
  5
4A5
330
1F
100
AcDbEntity
  8
LAY-10
  6
CONTINUOUS
 62
     7
100
AcDb2dPolyline
 66
     1
 10
0.0
 20
0.0
 30
0.0
 70
   128
  0
VERTEX
  5
4A6
330
4A5
100
AcDbEntity
  8
LAY-10
  6
CONTINUOUS
 62
     7
100
AcDbVertex
100
AcDb2dVertex
 10
457.0296921826266
 20
699.2903698782548
 30
0.0
  0
VERTEX
  5
4A7
330
4A5
100
AcDbEntity
  8
LAY-10
  6
CONTINUOUS
 62
     7
100
AcDbVertex
100
AcDb2dVertex
 10
457.1204240508287
 20
699.4585566505773
 30
0.0
  0
VERTEX
  5
4A8
330
4A5
100
AcDbEntity
  8
LAY-10
  6
CONTINUOUS
 62
     7
100
AcDbVertex
100
AcDb2dVertex
 10
457.1974779577535
 20
699.6403890394872
 30
0.0
  0
VERTEX
  5
4A9
330
4A5
100
AcDbEntity
  8
LAY-10
  6
CONTINUOUS
 62
     7
100
AcDbVertex
100
AcDb2dVertex
 10
457.2608539034009
 20
699.8358670449843
 30
0.0
  0
VERTEX
  5
4AA
330
4A5
100
AcDbEntity
  8
LAY-10
  6
CONTINUOUS
 62
     7
100
AcDbVertex
100
AcDb2dVertex
 10
457.3105518877708
 20
700.0449906670688
 30
0.0
  0
VERTEX
  5
4AB
330
4A5
100
AcDbEntity
  8
LAY-10
  6
CONTINUOUS
 62
     7
100
AcDbVertex
100
AcDb2dVertex
 10
457.3465719108631
 20
700.2677599057406
 30
0.0
  0
VERTEX
  5
4AC
330
4A5
100
AcDbEntity
  8
LAY-10
  6
CONTINUOUS
 62
     7
100
AcDbVertex
100
AcDb2dVertex
 10
457.3689139726782
 20
700.5041747609996
 30
0.0
  0
VERTEX
  5
4AD
330
4A5
100
AcDbEntity
  8
LAY-10
  6
CONTINUOUS
 62
     7
100
AcDbVertex
100
AcDb2dVertex
 10
457.3775780732157
 20
700.754235232846
 30
0.0
  0
VERTEX
  5
4AE
330
4A5
100
AcDbEntity
  8
LAY-10
  6
CONTINUOUS
 62
     7
100
AcDbVertex
100
AcDb2dVertex
 10
457.3725642124759
 20
701.0179413212797
 30
0.0
  0
VERTEX
  5
4AF
330
4A5
100
AcDbEntity
  8
LAY-10
  6
CONTINUOUS
 62
     7
100
AcDbVertex
100
AcDb2dVertex
 10
457.3538723904587
 20
701.2952930263007
 30
0.0
  0
VERTEX
  5
4B0
330
4A5
100
AcDbEntity
  8
LAY-10
  6
CONTINUOUS
 62
     7
100
AcDbVertex
100
AcDb2dVertex
 10
457.3215026071639
 20
701.5862903479087
 30
0.0
  0
VERTEX
  5
4B1
330
4A5
100
AcDbEntity
  8
LAY-10
  6
CONTINUOUS
 62
     7
100
AcDbVertex
100
AcDb2dVertex
 10
457.2765977873175
 20
701.8822519109194
 30
0.0
  0
VERTEX
  5
4B2
330
4A5
100
AcDbEntity
  8
LAY-10
  6
CONTINUOUS
 62
     7
100
AcDbVertex
100
AcDb2dVertex
 10
457.2221029200998
 20
702.1608083016513
 30
0.0
  0
VERTEX
  5
4B3
330
4A5
100
AcDbEntity
  8
LAY-10
  6
CONTINUOUS
 62
     7
100
AcDbVertex
100
AcDb2dVertex
 10
457.1580180055109
 20
702.4219595201043
 30
0.0
  0
VERTEX
  5
4B4
330
4A5
100
AcDbEntity
  8
LAY-10
  6
CONTINUOUS
 62
     7
100
AcDbVertex
100
AcDb2dVertex
 10
457.0843430435511
 20
702.6657055662783
 30
0.0
  0
VERTEX
  5
4B5
330
4A5
100
AcDbEntity
  8
LAY-10
  6
CONTINUOUS
 62
     7
100
AcDbVertex
100
AcDb2dVertex
 10
457.0010780342199
 20
702.8920464401733
 30
0.0
  0
VERTEX
  5
4B6
330
4A5
100
AcDbEntity
  8
LAY-10
  6
CONTINUOUS
 62
     7
100
AcDbVertex
100
AcDb2dVertex
 10
456.9082229775179
 20
703.1009821417895
 30
0.0
  0
VERTEX
  5
4B7
330
4A5
100
AcDbEntity
  8
LAY-10
  6
CONTINUOUS
 62
     7
100
AcDbVertex
100
AcDb2dVertex
 10
456.8057778734446
 20
703.2925126711268
 30
0.0
  0
VERTEX
  5
4B8
330
4A5
100
AcDbEntity
  8
LAY-10
  6
CONTINUOUS
 62
     7
100
AcDbVertex
100
AcDb2dVertex
 10
456.6937427220002
 20
703.4666380281851
 30
0.0
  0
VERTEX
  5
4B9
330
4A5
100
AcDbEntity
  8
LAY-10
  6
CONTINUOUS
 62
     7
100
AcDbVertex
100
AcDb2dVertex
 10
456.5721175231845
 20
703.6233582129644
 30
0.0
  0
VERTEX
  5
4BA
330
4A5
100
AcDbEntity
  8
LAY-10
  6
CONTINUOUS
 62
     7
100
AcDbVertex
100
AcDb2dVertex
 10
456.4409022769978
 20
703.762673225465
 30
0.0
  0
VERTEX
  5
4BB
330
4A5
100
AcDbEntity
  8
LAY-10
  6
CONTINUOUS
 62
     7
100
AcDbVertex
100
AcDb2dVertex
 10
456.3389088881106
 20
703.8529407098035
 30
0.0
  0
VERTEX
  5
4BC
330
4A5
100
AcDbEntity
  8
LAY-10
  6
CONTINUOUS
 62
     7
100
AcDbVertex
100
AcDb2dVertex
 10
456.2328486132625
 20
703.9317574975298
 30
0.0
  0
VERTEX
  5
4BD
330
4A5
100
AcDbEntity
  8
LAY-10
  6
CONTINUOUS
 62
     7
100
AcDbVertex
100
AcDb2dVertex
 10
456.122721452454
 20
703.9991235886437
 30
0.0
  0
VERTEX
  5
4BE
330
4A5
100
AcDbEntity
  8
LAY-10
  6
CONTINUOUS
 62
     7
100
AcDbVertex
100
AcDb2dVertex
 10
456.0085274056844
 20
704.0550389831451
 30
0.0
  0
VERTEX
  5
4BF
330
4A5
100
AcDbEntity
  8
LAY-10
  6
CONTINUOUS
 62
     7
100
AcDbVertex
100
AcDb2dVertex
 10
455.8902664729542
 20
704.0995036810343
 30
0.0
  0
VERTEX
  5
4C0
330
4A5
100
AcDbEntity
  8
LAY-10
  6
CONTINUOUS
 62
     7
100
AcDbVertex
100
AcDb2dVertex
 10
455.7679386542632
 20
704.1325176823111
 30
0.0
  0
VERTEX
  5
4C1
330
4A5
100
AcDbEntity
  8
LAY-10
  6
CONTINUOUS
 62
     7
100
AcDbVertex
100
AcDb2dVertex
 10
455.6415439496113
 20
704.1540809869757
 30
0.0
  0
VERTEX
  5
4C2
330
4A5
100
AcDbEntity
  8
LAY-10
  6
CONTINUOUS
 62
     7
100
AcDbVertex
100
AcDb2dVertex
 10
455.5110823589987
 20
704.1641935950279
 30
0.0
  0
VERTEX
  5
4C3
330
4A5
100
AcDbEntity
  8
LAY-10
  6
CONTINUOUS
 62
     7
100
AcDbVertex
100
AcDb2dVertex
 10
455.3765538824254
 20
704.1628555064676
 30
0.0
  0
VERTEX
  5
4C4
330
4A5
100
AcDbEntity
  8
LAY-10
  6
CONTINUOUS
 62
     7
100
AcDbVertex
100
AcDb2dVertex
 10
455.2379585198914
 20
704.1500667212952
 30
0.0
  0
VERTEX
  5
4C5
330
4A5
100
AcDbEntity
  8
LAY-10
  6
CONTINUOUS
 62
     7
100
AcDbVertex
100
AcDb2dVertex
 10
455.0991731451754
 20
704.126337639626
 30
0.0
  0
VERTEX
  5
4C6
330
4A5
100
AcDbEntity
  8
LAY-10
  6
CONTINUOUS
 62
     7
100
AcDbVertex
100
AcDb2dVertex
 10
454.9674439954711
 20
704.0926222466851
 30
0.0
  0
VERTEX
  5
4C7
330
4A5
100
AcDbEntity
  8
LAY-10
  6
CONTINUOUS
 62
     7
100
AcDbVertex
100
AcDb2dVertex
 10
454.8427710707779
 20
704.0489205424722
 30
0.0
  0
VERTEX
  5
4C8
330
4A5
100
AcDbEntity
  8
LAY-10
  6
CONTINUOUS
 62
     7
100
AcDbVertex
100
AcDb2dVertex
 10
454.7251543710966
 20
703.9952325269874
 30
0.0
  0
VERTEX
  5
4C9
330
4A5
100
AcDbEntity
  8
LAY-10
  6
CONTINUOUS
 62
     7
100
AcDbVertex
100
AcDb2dVertex
 10
454.6145938964264
 20
703.9315582002307
 30
0.0
  0
VERTEX
  5
4CA
330
4A5
100
AcDbEntity
  8
LAY-10
  6
CONTINUOUS
 62
     7
100
AcDbVertex
100
AcDb2dVertex
 10
454.5110896467679
 20
703.8578975622022
 30
0.0
  0
VERTEX
  5
4CB
330
4A5
100
AcDbEntity
  8
LAY-10
  6
CONTINUOUS
 62
     7
100
AcDbVertex
100
AcDb2dVertex
 10
454.4146416221211
 20
703.7742506129016
 30
0.0
  0
VERTEX
  5
4CC
330
4A5
100
AcDbEntity
  8
LAY-10
  6
CONTINUOUS
 62
     7
100
AcDbVertex
100
AcDb2dVertex
 10
454.3252498224855
 20
703.6806173523291
 30
0.0
  0
VERTEX
  5
4CD
330
4A5
100
AcDbEntity
  8
LAY-10
  6
CONTINUOUS
 62
     7
100
AcDbVertex
100
AcDb2dVertex
 10
454.2429142478615
 20
703.576997780485
 30
0.0
  0
VERTEX
  5
4CE
330
4A5
100
AcDbEntity
  8
LAY-10
  6
CONTINUOUS
 62
     7
100
AcDbVertex
100
AcDb2dVertex
 10
454.1676348982489
 20
703.4633918973686
 30
0.0
  0
VERTEX
  5
4CF
330
4A5
100
AcDbEntity
  8
LAY-10
  6
CONTINUOUS
 62
     7
100
AcDbVertex
100
AcDb2dVertex
 10
454.0761775342457
 20
703.2936046097798
 30
0.0
  0
VERTEX
  5
4D0
330
4A5
100
AcDbEntity
  8
LAY-10
  6
CONTINUOUS
 62
     7
100
AcDbVertex
100
AcDb2dVertex
 10
453.9985518350585
 20
703.1097527589995
 30
0.0
  0
VERTEX
  5
4D1
330
4A5
100
AcDbEntity
  8
LAY-10
  6
CONTINUOUS
 62
     7
100
AcDbVertex
100
AcDb2dVertex
 10
453.9347578006875
 20
702.9118363450284
 30
0.0
  0
VERTEX
  5
4D2
330
4A5
100
AcDbEntity
  8
LAY-10
  6
CONTINUOUS
 62
     7
100
AcDbVertex
100
AcDb2dVertex
 10
453.8847954311324
 20
702.6998553678659
 30
0.0
  0
VERTEX
  5
4D3
330
4A5
100
AcDbEntity
  8
LAY-10
  6
CONTINUOUS
 62
     7
100
AcDbVertex
100
AcDb2dVertex
 10
453.8486647263937
 20
702.4738098275127
 30
0.0
  0
VERTEX
  5
4D4
330
4A5
100
AcDbEntity
  8
LAY-10
  6
CONTINUOUS
 62
     7
100
AcDbVertex
100
AcDb2dVertex
 10
453.826365686471
 20
702.2336997239681
 30
0.0
  0
VERTEX
  5
4D5
330
4A5
100
AcDbEntity
  8
LAY-10
  6
CONTINUOUS
 62
     7
100
AcDbVertex
100
AcDb2dVertex
 10
453.8178983113643
 20
701.9795250572326
 30
0.0
  0
VERTEX
  5
4D6
330
4A5
100
AcDbEntity
  8
LAY-10
  6
CONTINUOUS
 62
     7
100
AcDbVertex
100
AcDb2dVertex
 10
453.8232626010738
 20
701.711285827306
 30
0.0
  0
VERTEX
  5
4D7
330
4A5
100
AcDbEntity
  8
LAY-10
  6
CONTINUOUS
 62
     7
100
AcDbVertex
100
AcDb2dVertex
 10
453.8424585555992
 20
701.4289820341883
 30
0.0
  0
VERTEX
  5
4D8
330
4A5
100
AcDbEntity
  8
LAY-10
  6
CONTINUOUS
 62
     7
100
AcDbVertex
100
AcDb2dVertex
 10
453.875486174941
 20
701.1326136778794
 30
0.0
  0
VERTEX
  5
4D9
330
4A5
100
AcDbEntity
  8
LAY-10
  6
CONTINUOUS
 62
     7
100
AcDbVertex
100
AcDb2dVertex
 10
453.9194337388003
 20
700.8442974698119
 30
0.0
  0
VERTEX
  5
4DA
330
4A5
100
AcDbEntity
  8
LAY-10
  6
CONTINUOUS
 62
     7
100
AcDbVertex
100
AcDb2dVertex
 10
453.9731915913339
 20
700.572462082921
 30
0.0
  0
VERTEX
  5
4DB
330
4A5
100
AcDbEntity
  8
LAY-10
  6
CONTINUOUS
 62
     7
100
AcDbVertex
100
AcDb2dVertex
 10
454.0367597325419
 20
700.3171075172068
 30
0.0
  0
VERTEX
  5
4DC
330
4A5
100
AcDbEntity
  8
LAY-10
  6
CONTINUOUS
 62
     7
100
AcDbVertex
100
AcDb2dVertex
 10
454.1101381624239
 20
700.0782337726696
 30
0.0
  0
VERTEX
  5
4DD
330
4A5
100
AcDbEntity
  8
LAY-10
  6
CONTINUOUS
 62
     7
100
AcDbVertex
100
AcDb2dVertex
 10
454.1933268809805
 20
699.8558408493091
 30
0.0
  0
VERTEX
  5
4DE
330
4A5
100
AcDbEntity
  8
LAY-10
  6
CONTINUOUS
 62
     7
100
AcDbVertex
100
AcDb2dVertex
 10
454.2863258882114
 20
699.6499287471254
 30
0.0
  0
VERTEX
  5
4DF
330
4A5
100
AcDbEntity
  8
LAY-10
  6
CONTINUOUS
 62
     7
100
AcDbVertex
100
AcDb2dVertex
 10
454.3891351841164
 20
699.4604974661183
 30
0.0
  0
VERTEX
  5
4E0
330
4A5
100
AcDbEntity
  8
LAY-10
  6
CONTINUOUS
 62
     7
100
AcDbVertex
100
AcDb2dVertex
 10
454.5017547686959
 20
699.2875470062884
 30
0.0
  0
VERTEX
  5
4E1
330
4A5
100
AcDbEntity
  8
LAY-10
  6
CONTINUOUS
 62
     7
100
AcDbVertex
100
AcDb2dVertex
 10
454.6241846419496
 20
699.131077367635
 30
0.0
  0
VERTEX
  5
4E2
330
4A5
100
AcDbEntity
  8
LAY-10
  6
CONTINUOUS
 62
     7
100
AcDbVertex
100
AcDb2dVertex
 10
454.7564248038777
 20
698.9910885501586
 30
0.0
  0
VERTEX
  5
4E3
330
4A5
100
AcDbEntity
  8
LAY-10
  6
CONTINUOUS
 62
     7
100
AcDbVertex
100
AcDb2dVertex
 10
454.8587648870644
 20
698.9006123047491
 30
0.0
  0
VERTEX
  5
4E4
330
4A5
100
AcDbEntity
  8
LAY-10
  6
CONTINUOUS
 62
     7
100
AcDbVertex
100
AcDb2dVertex
 10
454.9652905301268
 20
698.8216291590631
 30
0.0
  0
VERTEX
  5
4E5
330
4A5
100
AcDbEntity
  8
LAY-10
  6
CONTINUOUS
 62
     7
100
AcDbVertex
100
AcDb2dVertex
 10
455.0760017330654
 20
698.7541391131008
 30
0.0
  0
VERTEX
  5
4E6
330
4A5
100
AcDbEntity
  8
LAY-10
  6
CONTINUOUS
 62
     7
100
AcDbVertex
100
AcDb2dVertex
 10
455.1908984958798
 20
698.698142166862
 30
0.0
  0
VERTEX
  5
4E7
330
4A5
100
AcDbEntity
  8
LAY-10
  6
CONTINUOUS
 62
     7
100
AcDbVertex
100
AcDb2dVertex
 10
455.3099808185702
 20
698.6536383203465
 30
0.0
  0
VERTEX
  5
4E8
330
4A5
100
AcDbEntity
  8
LAY-10
  6
CONTINUOUS
 62
     7
100
AcDbVertex
100
AcDb2dVertex
 10
455.4332487011368
 20
698.6206275735547
 30
0.0
  0
VERTEX
  5
4E9
330
4A5
100
AcDbEntity
  8
LAY-10
  6
CONTINUOUS
 62
     7
100
AcDbVertex
100
AcDb2dVertex
 10
455.5607021435791
 20
698.5991099264863
 30
0.0
  0
VERTEX
  5
4EA
330
4A5
100
AcDbEntity
  8
LAY-10
  6
CONTINUOUS
 62
     7
100
AcDbVertex
100
AcDb2dVertex
 10
455.6923411458977
 20
698.5890853791414
 30
0.0
  0
VERTEX
  5
4EB
330
4A5
100
AcDbEntity
  8
LAY-10
  6
CONTINUOUS
 62
     7
100
AcDbVertex
100
AcDb2dVertex
 10
455.8281657080919
 20
698.5905539315199
 30
0.0
  0
VERTEX
  5
4EC
330
4A5
100
AcDbEntity
  8
LAY-10
  6
CONTINUOUS
 62
     7
100
AcDbVertex
100
AcDb2dVertex
 10
455.9681758301621
 20
698.6035155836219
 30
0.0
  0
VERTEX
  5
4ED
330
4A5
100
AcDbEntity
  8
LAY-10
  6
CONTINUOUS
 62
     7
100
AcDbVertex
100
AcDb2dVertex
 10
456.1051673919578
 20
698.6270218950367
 30
0.0
  0
VERTEX
  5
4EE
330
4A5
100
AcDbEntity
  8
LAY-10
  6
CONTINUOUS
 62
     7
100
AcDbVertex
100
AcDb2dVertex
 10
456.2353056367426
 20
698.6605680104624
 30
0.0
  0
VERTEX
  5
4EF
330
4A5
100
AcDbEntity
  8
LAY-10
  6
CONTINUOUS
 62
     7
100
AcDbVertex
100
AcDb2dVertex
 10
456.3585905645164
 20
698.7041539298987
 30
0.0
  0
VERTEX
  5
4F0
330
4A5
100
AcDbEntity
  8
LAY-10
  6
CONTINUOUS
 62
     7
100
AcDbVertex
100
AcDb2dVertex
 10
456.475022175279
 20
698.7577796533458
 30
0.0
  0
VERTEX
  5
4F1
330
4A5
100
AcDbEntity
  8
LAY-10
  6
CONTINUOUS
 62
     7
100
AcDbVertex
100
AcDb2dVertex
 10
456.5846004690308
 20
698.8214451808037
 30
0.0
  0
VERTEX
  5
4F2
330
4A5
100
AcDbEntity
  8
LAY-10
  6
CONTINUOUS
 62
     7
100
AcDbVertex
100
AcDb2dVertex
 10
456.6873254457719
 20
698.8951505122723
 30
0.0
  0
VERTEX
  5
4F3
330
4A5
100
AcDbEntity
  8
LAY-10
  6
CONTINUOUS
 62
     7
100
AcDbVertex
100
AcDb2dVertex
 10
456.783197105502
 20
698.9788956477516
 30
0.0
  0
VERTEX
  5
4F4
330
4A5
100
AcDbEntity
  8
LAY-10
  6
CONTINUOUS
 62
     7
100
AcDbVertex
100
AcDb2dVertex
 10
456.8722154482211
 20
699.0726805872418
 30
0.0
  0
VERTEX
  5
4F5
330
4A5
100
AcDbEntity
  8
LAY-10
  6
CONTINUOUS
 62
     7
100
AcDbVertex
100
AcDb2dVertex
 10
456.9543804739293
 20
699.1765053307429
 30
0.0
  0
VERTEX
  5
4F6
330
4A5
100
AcDbEntity
  8
LAY-10
  6
CONTINUOUS
 62
     7
100
AcDbVertex
100
AcDb2dVertex
 10
457.0296921826266
 20
699.2903698782548
 30
0.0
  0
SEQEND
  5
4F7
330
4A5
100
AcDbEntity
  8
LAY-10
  6
CONTINUOUS
 62
     7
  0
POLYLINE
  5
4F8
330
1F
100
AcDbEntity
  8
LAY-10
  6
CONTINUOUS
 62
     7
100
AcDb2dPolyline
 66
     1
 10
0.0
 20
0.0
 30
0.0
 70
   128
  0
VERTEX
  5
4F9
330
4F8
100
AcDbEntity
  8
LAY-10
  6
CONTINUOUS
 62
     7
100
AcDbVertex
100
AcDb2dVertex
 10
454.2525157069729
 20
698.5340363032612
 30
0.0
  0
VERTEX
  5
4FA
330
4F8
100
AcDbEntity
  8
LAY-10
  6
CONTINUOUS
 62
     7
100
AcDbVertex
100
AcDb2dVertex
 10
454.0870780473399
 20
698.7075929544662
 30
0.0
  0
VERTEX
  5
4FB
330
4F8
100
AcDbEntity
  8
LAY-10
  6
CONTINUOUS
 62
     7
100
AcDbVertex
100
AcDb2dVertex
 10
453.9343957755184
 20
698.898269882807
 30
0.0
  0
VERTEX
  5
4FC
330
4F8
100
AcDbEntity
  8
LAY-10
  6
CONTINUOUS
 62
     7
100
AcDbVertex
100
AcDb2dVertex
 10
453.7944688915081
 20
699.1060670882832
 30
0.0
  0
VERTEX
  5
4FD
330
4F8
100
AcDbEntity
  8
LAY-10
  6
CONTINUOUS
 62
     7
100
AcDbVertex
100
AcDb2dVertex
 10
453.6672973953093
 20
699.3309845708952
 30
0.0
  0
VERTEX
  5
4FE
330
4F8
100
AcDbEntity
  8
LAY-10
  6
CONTINUOUS
 62
     7
100
AcDbVertex
100
AcDb2dVertex
 10
453.552881286922
 20
699.573022330643
 30
0.0
  0
VERTEX
  5
4FF
330
4F8
100
AcDbEntity
  8
LAY-10
  6
CONTINUOUS
 62
     7
100
AcDbVertex
100
AcDb2dVertex
 10
453.4512205663459
 20
699.8321803675265
 30
0.0
  0
VERTEX
  5
500
330
4F8
100
AcDbEntity
  8
LAY-10
  6
CONTINUOUS
 62
     7
100
AcDbVertex
100
AcDb2dVertex
 10
453.3623152335812
 20
700.1084586815455
 30
0.0
  0
VERTEX
  5
501
330
4F8
100
AcDbEntity
  8
LAY-10
  6
CONTINUOUS
 62
     7
100
AcDbVertex
100
AcDb2dVertex
 10
453.2861652886279
 20
700.4018572727002
 30
0.0
  0
VERTEX
  5
502
330
4F8
100
AcDbEntity
  8
LAY-10
  6
CONTINUOUS
 62
     7
100
AcDbVertex
100
AcDb2dVertex
 10
453.2227707314859
 20
700.7123761409905
 30
0.0
  0
VERTEX
  5
503
330
4F8
100
AcDbEntity
  8
LAY-10
  6
CONTINUOUS
 62
     7
100
AcDbVertex
100
AcDb2dVertex
 10
453.1721315621553
 20
701.0400152864167
 30
0.0
  0
VERTEX
  5
504
330
4F8
100
AcDbEntity
  8
LAY-10
  6
CONTINUOUS
 62
     7
100
AcDbVertex
100
AcDb2dVertex
 10
453.1353900122598
 20
701.3760985984238
 30
0.0
  0
VERTEX
  5
505
330
4F8
100
AcDbEntity
  8
LAY-10
  6
CONTINUOUS
 62
     7
100
AcDbVertex
100
AcDb2dVertex
 10
453.1154903778788
 20
701.6982619279606
 30
0.0
  0
VERTEX
  5
506
330
4F8
100
AcDbEntity
  8
LAY-10
  6
CONTINUOUS
 62
     7
100
AcDbVertex
100
AcDb2dVertex
 10
453.112432659012
 20
702.0065052750274
 30
0.0
  0
VERTEX
  5
507
330
4F8
100
AcDbEntity
  8
LAY-10
  6
CONTINUOUS
 62
     7
100
AcDbVertex
100
AcDb2dVertex
 10
453.1262168556593
 20
702.3008286396241
 30
0.0
  0
VERTEX
  5
508
330
4F8
100
AcDbEntity
  8
LAY-10
  6
CONTINUOUS
 62
     7
100
AcDbVertex
100
AcDb2dVertex
 10
453.1568429678209
 20
702.5812320217506
 30
0.0
  0
VERTEX
  5
509
330
4F8
100
AcDbEntity
  8
LAY-10
  6
CONTINUOUS
 62
     7
100
AcDbVertex
100
AcDb2dVertex
 10
453.2043109954968
 20
702.847715421407
 30
0.0
  0
VERTEX
  5
50A
330
4F8
100
AcDbEntity
  8
LAY-10
  6
CONTINUOUS
 62
     7
100
AcDbVertex
100
AcDb2dVertex
 10
453.268620938687
 20
703.1002788385931
 30
0.0
  0
VERTEX
  5
50B
330
4F8
100
AcDbEntity
  8
LAY-10
  6
CONTINUOUS
 62
     7
100
AcDbVertex
100
AcDb2dVertex
 10
453.3497727973913
 20
703.3389222733092
 30
0.0
  0
VERTEX
  5
50C
330
4F8
100
AcDbEntity
  8
LAY-10
  6
CONTINUOUS
 62
     7
100
AcDbVertex
100
AcDb2dVertex
 10
453.4477665716099
 20
703.563645725555
 30
0.0
  0
VERTEX
  5
50D
330
4F8
100
AcDbEntity
  8
LAY-10
  6
CONTINUOUS
 62
     7
100
AcDbVertex
100
AcDb2dVertex
 10
453.5626022613426
 20
703.7744491953308
 30
0.0
  0
VERTEX
  5
50E
330
4F8
100
AcDbEntity
  8
LAY-10
  6
CONTINUOUS
 62
     7
100
AcDbVertex
100
AcDb2dVertex
 10
453.6806289312547
 20
703.9541801984926
 30
0.0
  0
VERTEX
  5
50F
330
4F8
100
AcDbEntity
  8
LAY-10
  6
CONTINUOUS
 62
     7
100
AcDbVertex
100
AcDb2dVertex
 10
453.8076183321123
 20
704.1178077468019
 30
0.0
  0
VERTEX
  5
510
330
4F8
100
AcDbEntity
  8
LAY-10
  6
CONTINUOUS
 62
     7
100
AcDbVertex
100
AcDb2dVertex
 10
453.9435704639158
 20
704.2653318402581
 30
0.0
  0
VERTEX
  5
511
330
4F8
100
AcDbEntity
  8
LAY-10
  6
CONTINUOUS
 62
     7
100
AcDbVertex
100
AcDb2dVertex
 10
454.088485326665
 20
704.3967524788618
 30
0.0
  0
VERTEX
  5
512
330
4F8
100
AcDbEntity
  8
LAY-10
  6
CONTINUOUS
 62
     7
100
AcDbVertex
100
AcDb2dVertex
 10
454.2423629203602
 20
704.5120696626129
 30
0.0
  0
VERTEX
  5
513
330
4F8
100
AcDbEntity
  8
LAY-10
  6
CONTINUOUS
 62
     7
100
AcDbVertex
100
AcDb2dVertex
 10
454.4052032450011
 20
704.611283391511
 30
0.0
  0
VERTEX
  5
514
330
4F8
100
AcDbEntity
  8
LAY-10
  6
CONTINUOUS
 62
     7
100
AcDbVertex
100
AcDb2dVertex
 10
454.5770063005877
 20
704.6943936655566
 30
0.0
  0
VERTEX
  5
515
330
4F8
100
AcDbEntity
  8
LAY-10
  6
CONTINUOUS
 62
     7
100
AcDbVertex
100
AcDb2dVertex
 10
454.7577720871202
 20
704.7614004847494
 30
0.0
  0
VERTEX
  5
516
330
4F8
100
AcDbEntity
  8
LAY-10
  6
CONTINUOUS
 62
     7
100
AcDbVertex
100
AcDb2dVertex
 10
454.9475006045984
 20
704.8123038490894
 30
0.0
  0
VERTEX
  5
517
330
4F8
100
AcDbEntity
  8
LAY-10
  6
CONTINUOUS
 62
     7
100
AcDbVertex
100
AcDb2dVertex
 10
455.1461918530223
 20
704.8471037585766
 30
0.0
  0
VERTEX
  5
518
330
4F8
100
AcDbEntity
  8
LAY-10
  6
CONTINUOUS
 62
     7
100
AcDbVertex
100
AcDb2dVertex
 10
455.3454813877156
 20
704.8646990131786
 30
0.0
  0
VERTEX
  5
519
330
4F8
100
AcDbEntity
  8
LAY-10
  6
CONTINUOUS
 62
     7
100
AcDbVertex
100
AcDb2dVertex
 10
455.5404583615011
 20
704.864443087599
 30
0.0
  0
VERTEX
  5
51A
330
4F8
100
AcDbEntity
  8
LAY-10
  6
CONTINUOUS
 62
     7
100
AcDbVertex
100
AcDb2dVertex
 10
455.7311227743794
 20
704.8463359818381
 30
0.0
  0
VERTEX
  5
51B
330
4F8
100
AcDbEntity
  8
LAY-10
  6
CONTINUOUS
 62
     7
100
AcDbVertex
100
AcDb2dVertex
 10
455.9174746263499
 20
704.8103776958958
 30
0.0
  0
VERTEX
  5
51C
330
4F8
100
AcDbEntity
  8
LAY-10
  6
CONTINUOUS
 62
     7
100
AcDbVertex
100
AcDb2dVertex
 10
456.0995139174131
 20
704.7565682297718
 30
0.0
  0
VERTEX
  5
51D
330
4F8
100
AcDbEntity
  8
LAY-10
  6
CONTINUOUS
 62
     7
100
AcDbVertex
100
AcDb2dVertex
 10
456.2772406475688
 20
704.6849075834666
 30
0.0
  0
VERTEX
  5
51E
330
4F8
100
AcDbEntity
  8
LAY-10
  6
CONTINUOUS
 62
     7
100
AcDbVertex
100
AcDb2dVertex
 10
456.4506548168169
 20
704.59539575698
 30
0.0
  0
VERTEX
  5
51F
330
4F8
100
AcDbEntity
  8
LAY-10
  6
CONTINUOUS
 62
     7
100
AcDbVertex
100
AcDb2dVertex
 10
456.6197564251574
 20
704.488032750312
 30
0.0
  0
VERTEX
  5
520
330
4F8
100
AcDbEntity
  8
LAY-10
  6
CONTINUOUS
 62
     7
100
AcDbVertex
100
AcDb2dVertex
 10
456.7845454725907
 20
704.3628185634623
 30
0.0
  0
VERTEX
  5
521
330
4F8
100
AcDbEntity
  8
LAY-10
  6
CONTINUOUS
 62
     7
100
AcDbVertex
100
AcDb2dVertex
 10
456.9450219591163
 20
704.2197531964314
 30
0.0
  0
VERTEX
  5
522
330
4F8
100
AcDbEntity
  8
LAY-10
  6
CONTINUOUS
 62
     7
100
AcDbVertex
100
AcDb2dVertex
 10
457.1093546806266
 20
704.046859815056
 30
0.0
  0
VERTEX
  5
523
330
4F8
100
AcDbEntity
  8
LAY-10
  6
CONTINUOUS
 62
     7
100
AcDbVertex
100
AcDb2dVertex
 10
457.2611606790373
 20
703.8559229144057
 30
0.0
  0
VERTEX
  5
524
330
4F8
100
AcDbEntity
  8
LAY-10
  6
CONTINUOUS
 62
     7
100
AcDbVertex
100
AcDb2dVertex
 10
457.4004399543487
 20
703.6469424944805
 30
0.0
  0
VERTEX
  5
525
330
4F8
100
AcDbEntity
  8
LAY-10
  6
CONTINUOUS
 62
     7
100
AcDbVertex
100
AcDb2dVertex
 10
457.5271925065601
 20
703.41991855528
 30
0.0
  0
VERTEX
  5
526
330
4F8
100
AcDbEntity
  8
LAY-10
  6
CONTINUOUS
 62
     7
100
AcDbVertex
100
AcDb2dVertex
 10
457.6414183356719
 20
703.1748510968048
 30
0.0
  0
VERTEX
  5
527
330
4F8
100
AcDbEntity
  8
LAY-10
  6
CONTINUOUS
 62
     7
100
AcDbVertex
100
AcDb2dVertex
 10
457.7431174416842
 20
702.9117401190542
 30
0.0
  0
VERTEX
  5
528
330
4F8
100
AcDbEntity
  8
LAY-10
  6
CONTINUOUS
 62
     7
100
AcDbVertex
100
AcDb2dVertex
 10
457.8322898245967
 20
702.6305856220288
 30
0.0
  0
VERTEX
  5
529
330
4F8
100
AcDbEntity
  8
LAY-10
  6
CONTINUOUS
 62
     7
100
AcDbVertex
100
AcDb2dVertex
 10
457.9089354844095
 20
702.3313876057284
 30
0.0
  0
VERTEX
  5
52A
330
4F8
100
AcDbEntity
  8
LAY-10
  6
CONTINUOUS
 62
     7
100
AcDbVertex
100
AcDb2dVertex
 10
457.9730544211226
 20
702.014146070153
 30
0.0
  0
VERTEX
  5
52B
330
4F8
100
AcDbEntity
  8
LAY-10
  6
CONTINUOUS
 62
     7
100
AcDbVertex
100
AcDb2dVertex
 10
458.0246466347362
 20
701.6788610153023
 30
0.0
  0
VERTEX
  5
52C
330
4F8
100
AcDbEntity
  8
LAY-10
  6
CONTINUOUS
 62
     7
100
AcDbVertex
100
AcDb2dVertex
 10
458.0607345602889
 20
701.3481492924773
 30
0.0
  0
VERTEX
  5
52D
330
4F8
100
AcDbEntity
  8
LAY-10
  6
CONTINUOUS
 62
     7
100
AcDbVertex
100
AcDb2dVertex
 10
458.0801426972746
 20
701.0309397144813
 30
0.0
  0
VERTEX
  5
52E
330
4F8
100
AcDbEntity
  8
LAY-10
  6
CONTINUOUS
 62
     7
100
AcDbVertex
100
AcDb2dVertex
 10
458.0828710456931
 20
700.7272322813144
 30
0.0
  0
VERTEX
  5
52F
330
4F8
100
AcDbEntity
  8
LAY-10
  6
CONTINUOUS
 62
     7
100
AcDbVertex
100
AcDb2dVertex
 10
458.0689196055446
 20
700.4370269929766
 30
0.0
  0
VERTEX
  5
530
330
4F8
100
AcDbEntity
  8
LAY-10
  6
CONTINUOUS
 62
     7
100
AcDbVertex
100
AcDb2dVertex
 10
458.0382883768291
 20
700.1603238494679
 30
0.0
  0
VERTEX
  5
531
330
4F8
100
AcDbEntity
  8
LAY-10
  6
CONTINUOUS
 62
     7
100
AcDbVertex
100
AcDb2dVertex
 10
457.9909773595466
 20
699.8971228507885
 30
0.0
  0
VERTEX
  5
532
330
4F8
100
AcDbEntity
  8
LAY-10
  6
CONTINUOUS
 62
     7
100
AcDbVertex
100
AcDb2dVertex
 10
457.9269865536971
 20
699.6474239969382
 30
0.0
  0
VERTEX
  5
533
330
4F8
100
AcDbEntity
  8
LAY-10
  6
CONTINUOUS
 62
     7
100
AcDbVertex
100
AcDb2dVertex
 10
457.8463159592804
 20
699.4112272879167
 30
0.0
  0
VERTEX
  5
534
330
4F8
100
AcDbEntity
  8
LAY-10
  6
CONTINUOUS
 62
     7
100
AcDbVertex
100
AcDb2dVertex
 10
457.7489655762969
 20
699.1885327237248
 30
0.0
  0
VERTEX
  5
535
330
4F8
100
AcDbEntity
  8
LAY-10
  6
CONTINUOUS
 62
     7
100
AcDbVertex
100
AcDb2dVertex
 10
457.6349354047463
 20
698.979340304362
 30
0.0
  0
VERTEX
  5
536
330
4F8
100
AcDbEntity
  8
LAY-10
  6
CONTINUOUS
 62
     7
100
AcDbVertex
100
AcDb2dVertex
 10
457.5167984592206
 20
698.7993403788989
 30
0.0
  0
VERTEX
  5
537
330
4F8
100
AcDbEntity
  8
LAY-10
  6
CONTINUOUS
 62
     7
100
AcDbVertex
100
AcDb2dVertex
 10
457.3899143258625
 20
698.6354990644716
 30
0.0
  0
VERTEX
  5
538
330
4F8
100
AcDbEntity
  8
LAY-10
  6
CONTINUOUS
 62
     7
100
AcDbVertex
100
AcDb2dVertex
 10
457.254283004672
 20
698.4878163610799
 30
0.0
  0
VERTEX
  5
539
330
4F8
100
AcDbEntity
  8
LAY-10
  6
CONTINUOUS
 62
     7
100
AcDbVertex
100
AcDb2dVertex
 10
457.109904495649
 20
698.356292268724
 30
0.0
  0
VERTEX
  5
53A
330
4F8
100
AcDbEntity
  8
LAY-10
  6
CONTINUOUS
 62
     7
100
AcDbVertex
100
AcDb2dVertex
 10
456.9567787987939
 20
698.2409267874041
 30
0.0
  0
VERTEX
  5
53B
330
4F8
100
AcDbEntity
  8
LAY-10
  6
CONTINUOUS
 62
     7
100
AcDbVertex
100
AcDb2dVertex
 10
456.7949059141063
 20
698.1417199171199
 30
0.0
  0
VERTEX
  5
53C
330
4F8
100
AcDbEntity
  8
LAY-10
  6
CONTINUOUS
 62
     7
100
AcDbVertex
100
AcDb2dVertex
 10
456.624285841586
 20
698.0586716578714
 30
0.0
  0
VERTEX
  5
53D
330
4F8
100
AcDbEntity
  8
LAY-10
  6
CONTINUOUS
 62
     7
100
AcDbVertex
100
AcDb2dVertex
 10
456.4449185812336
 20
697.9917820096584
 30
0.0
  0
VERTEX
  5
53E
330
4F8
100
AcDbEntity
  8
LAY-10
  6
CONTINUOUS
 62
     7
100
AcDbVertex
100
AcDb2dVertex
 10
456.2568041330487
 20
697.9410509724817
 30
0.0
  0
VERTEX
  5
53F
330
4F8
100
AcDbEntity
  8
LAY-10
  6
CONTINUOUS
 62
     7
100
AcDbVertex
100
AcDb2dVertex
 10
456.0599424970312
 20
697.9064785463404
 30
0.0
  0
VERTEX
  5
540
330
4F8
100
AcDbEntity
  8
LAY-10
  6
CONTINUOUS
 62
     7
100
AcDbVertex
100
AcDb2dVertex
 10
455.8592024033155
 20
697.8887057117172
 30
0.0
  0
VERTEX
  5
541
330
4F8
100
AcDbEntity
  8
LAY-10
  6
CONTINUOUS
 62
     7
100
AcDbVertex
100
AcDb2dVertex
 10
455.6629061795354
 20
697.8888281238308
 30
0.0
  0
VERTEX
  5
542
330
4F8
100
AcDbEntity
  8
LAY-10
  6
CONTINUOUS
 62
     7
100
AcDbVertex
100
AcDb2dVertex
 10
455.4710538256907
 20
697.9068457826809
 30
0.0
  0
VERTEX
  5
543
330
4F8
100
AcDbEntity
  8
LAY-10
  6
CONTINUOUS
 62
     7
100
AcDbVertex
100
AcDb2dVertex
 10
455.2836453417815
 20
697.942758688268
 30
0.0
  0
VERTEX
  5
544
330
4F8
100
AcDbEntity
  8
LAY-10
  6
CONTINUOUS
 62
     7
100
AcDbVertex
100
AcDb2dVertex
 10
455.1006807278079
 20
697.9965668405916
 30
0.0
  0
VERTEX
  5
545
330
4F8
100
AcDbEntity
  8
LAY-10
  6
CONTINUOUS
 62
     7
100
AcDbVertex
100
AcDb2dVertex
 10
454.9221599837699
 20
698.0682702396521
 30
0.0
  0
VERTEX
  5
546
330
4F8
100
AcDbEntity
  8
LAY-10
  6
CONTINUOUS
 62
     7
100
AcDbVertex
100
AcDb2dVertex
 10
454.7480831096673
 20
698.1578688854493
 30
0.0
  0
VERTEX
  5
547
330
4F8
100
AcDbEntity
  8
LAY-10
  6
CONTINUOUS
 62
     7
100
AcDbVertex
100
AcDb2dVertex
 10
454.5784501055002
 20
698.2653627779832
 30
0.0
  0
VERTEX
  5
548
330
4F8
100
AcDbEntity
  8
LAY-10
  6
CONTINUOUS
 62
     7
100
AcDbVertex
100
AcDb2dVertex
 10
454.4132609712688
 20
698.390751917254
 30
0.0
  0
VERTEX
  5
549
330
4F8
100
AcDbEntity
  8
LAY-10
  6
CONTINUOUS
 62
     7
100
AcDbVertex
100
AcDb2dVertex
 10
454.2525157069729
 20
698.5340363032612
 30
0.0
  0
SEQEND
  5
54A
330
4F8
100
AcDbEntity
  8
LAY-10
  6
CONTINUOUS
 62
     7
  0
ARC
  5
54B
330
1F
100
AcDbEntity
  8
LAY-10
  6
CONTINUOUS
 62
     7
100
AcDbCircle
 10
465.00000000001
 20
630.0
 30
0.0
 40
67.27010731601001
100
AcDbArc
 50
269.6589139941778
 51
270.3410860058052
  0
ARC
  5
54C
330
1F
100
AcDbEntity
  8
LAY-10
  6
CONTINUOUS
 62
     7
100
AcDbCircle
 10
465.0
 20
629.9999999999714
 30
0.0
 40
61.61836509645718
100
AcDbArc
 50
108.4120512779433
 51
119.5879487220362
  0
ARC
  5
54D
330
1F
100
AcDbEntity
  8
LAY-10
  6
CONTINUOUS
 62
     7
100
AcDbCircle
 10
465.0
 20
629.9999999999714
 30
0.0
 40
61.61836509645718
100
AcDbArc
 50
132.4120512779351
 51
143.5879487220301
  0
ARC
  5
54E
330
1F
100
AcDbEntity
  8
LAY-10
  6
CONTINUOUS
 62
     7
100
AcDbCircle
 10
465.0
 20
629.9999999999714
 30
0.0
 40
61.61836509645718
100
AcDbArc
 50
156.4120512779311
 51
167.5879487220282
  0
ARC
  5
54F
330
1F
100
AcDbEntity
  8
LAY-10
  6
CONTINUOUS
 62
     7
100
AcDbCircle
 10
465.0
 20
629.9999999999714
 30
0.0
 40
61.61836509645718
100
AcDbArc
 50
180.4120512779319
 51
191.5879487220313
  0
LINE
  5
550
330
1F
100
AcDbEntity
  8
LAY-10
  6
CONTINUOUS
 62
     7
100
AcDbLine
 10
398.7470326296113
 20
629.5235235342059
 30
0.0
 11
434.1276261910384
 21
629.7779728192218
 31
0.0
  0
LINE
  5
551
330
1F
100
AcDbEntity
  8
LAY-10
  6
CONTINUOUS
 62
     7
100
AcDbLine
 10
434.1204346015429
 20
630.7779469594077
 30
0.0
 11
398.7473879114184
 21
630.5235519497958
 31
0.0
  0
LINE
  5
552
330
1F
100
AcDbEntity
  8
LAY-10
  6
CONTINUOUS
 62
     7
100
AcDbLine
 10
400.2938839528007
 20
644.2408307794792
 30
0.0
 11
434.8484236763657
 21
636.6359027923418
 31
0.0
  0
LINE
  5
553
330
1F
100
AcDbEntity
  8
LAY-10
  6
CONTINUOUS
 62
     7
100
AcDbLine
 10
400.0863138720963
 20
643.262581516863
 30
0.0
 11
434.633482926095
 21
635.6592757018548
 31
0.0
  0
ARC
  5
554
330
1F
100
AcDbEntity
  8
LAY-10
  6
CONTINUOUS
 62
     7
100
AcDbCircle
 10
465.0
 20
629.99999999997
 30
0.0
 40
66.254680704115
100
AcDbArc
 50
167.5879487220284
 51
180.4120512779321
  0
LINE
  5
555
330
1F
100
AcDbEntity
  8
LAY-10
  6
CONTINUOUS
 62
     7
100
AcDbLine
 10
404.2811021652487
 20
656.5122266310407
 30
0.0
 11
436.7063765499981
 21
642.3540937643681
 31
0.0
  0
LINE
  5
556
330
1F
100
AcDbEntity
  8
LAY-10
  6
CONTINUOUS
 62
     7
100
AcDbLine
 10
437.1065328310231
 20
643.2705406808648
 30
0.0
 11
404.6881749320673
 21
657.4256535414867
 31
0.0
  0
LINE
  5
557
330
1F
100
AcDbEntity
  8
LAY-10
  6
CONTINUOUS
 62
     7
100
AcDbLine
 10
411.092774783715
 20
668.5187458866801
 30
0.0
 11
439.5606410639211
 21
647.5211808275237
 31
0.0
  0
LINE
  5
558
330
1F
100
AcDbEntity
  8
LAY-10
  6
CONTINUOUS
 62
     7
100
AcDbLine
 10
411.6802893092529
 20
669.3279946991568
 30
0.0
 11
440.1542292343149
 21
648.3259497906236
 31
0.0
  0
ARC
  5
559
330
1F
100
AcDbEntity
  8
LAY-10
  6
CONTINUOUS
 62
     7
100
AcDbCircle
 10
465.0
 20
629.99999999997
 30
0.0
 40
66.254680704115
100
AcDbArc
 50
143.5879487220304
 51
156.4120512779315
  0
LINE
  5
55A
330
1F
100
AcDbEntity
  8
LAY-10
  6
CONTINUOUS
 62
     7
100
AcDbLine
 10
444.9156649382145
 20
653.4685373595232
 30
0.0
 11
421.057424422688
 21
679.585610481605
 31
0.0
  0
LINE
  5
55B
330
1F
100
AcDbEntity
  8
LAY-10
  6
CONTINUOUS
 62
     7
100
AcDbLine
 10
420.3140207503808
 20
678.9167248873418
 30
0.0
 11
444.1773514429642
 21
652.7940796642367
 31
0.0
  0
LINE
  5
55C
330
1F
100
AcDbEntity
  8
LAY-10
  6
CONTINUOUS
 62
     7
100
AcDbLine
 10
431.4202846669902
 20
687.1146691608628
 30
0.0
 11
448.8864954711173
 21
656.353514613183
 31
0.0
  0
LINE
  5
55D
330
1F
100
AcDbEntity
  8
LAY-10
  6
CONTINUOUS
 62
     7
100
AcDbLine
 10
432.2861570384941
 20
687.6149910517279
 30
0.0
 11
449.7560942743937
 21
656.8472735840792
 31
0.0
  0
ARC
  5
55E
330
1F
100
AcDbEntity
  8
LAY-10
  6
CONTINUOUS
 62
     7
100
AcDbCircle
 10
465.0
 20
629.99999999997
 30
0.0
 40
66.254680704115
100
AcDbArc
 50
119.5879487220367
 51
132.4120512779356
  0
LINE
  5
55F
330
1F
100
AcDbEntity
  8
LAY-10
  6
CONTINUOUS
 62
     7
100
AcDbLine
 10
444.0735511071425
 20
692.8630770161235
 30
0.0
 11
455.2487514392664
 21
659.2927621124461
 31
0.0
  0
LINE
  5
560
330
1F
100
AcDbEntity
  8
LAY-10
  6
CONTINUOUS
 62
     7
100
AcDbLine
 10
456.1975610380462
 20
659.6086107237513
 30
0.0
 11
445.0247444363856
 21
693.1717648983208
 31
0.0
  0
LINE
  5
561
330
1F
100
AcDbEntity
  8
LAY-10
  6
CONTINUOUS
 62
     7
100
AcDbLine
 10
457.5540323934731
 20
695.8349472666519
 30
0.0
 11
460.9985211979515
 21
660.6290863080587
 31
0.0
  0
LINE
  5
562
330
1F
100
AcDbEntity
  8
LAY-10
  6
CONTINUOUS
 62
     7
100
AcDbLine
 10
458.5485454117062
 20
695.9398320356934
 30
0.0
 11
461.993769100967
 21
660.7264598750239
 31
0.0
  0
ARC
  5
563
330
1F
100
AcDbEntity
  8
LAY-10
  6
CONTINUOUS
 62
     7
100
AcDbCircle
 10
465.0
 20
629.99999999997
 30
0.0
 40
66.254680704115
100
AcDbArc
 50
95.58794872204614
 51
108.4120512779434
  0
LINE
  5
564
330
1F
100
AcDbEntity
  8
LAY-10
  6
CONTINUOUS
 62
     7
100
AcDbLine
 10
471.4514545882937
 20
695.9398320356934
 30
0.0
 11
468.0062308990329
 21
660.7264598750239
 31
0.0
  0
LINE
  5
565
330
1F
100
AcDbEntity
  8
LAY-10
  6
CONTINUOUS
 62
     7
100
AcDbLine
 10
400.0957538975188
 20
616.6912978441334
 30
0.0
 11
434.7560995832457
 21
623.7984479159798
 31
0.0
  0
LINE
  5
566
330
1F
100
AcDbEntity
  8
LAY-10
  6
CONTINUOUS
 62
     7
100
AcDbLine
 10
400.3040190143165
 20
615.7131963159998
 30
0.0
 11
434.9569714614954
 21
622.8188303944294
 31
0.0
  0
LINE
  5
567
330
1F
100
AcDbEntity
  8
LAY-10
  6
CONTINUOUS
 62
     7
100
AcDbLine
 10
436.4736937615021
 20
618.1508391412426
 30
0.0
 11
404.2622794069734
 21
603.5309234696554
 31
0.0
  0
LINE
  5
568
330
1F
100
AcDbEntity
  8
LAY-10
  6
CONTINUOUS
 62
     7
100
AcDbLine
 10
404.6687030416297
 20
602.6172075469499
 30
0.0
 11
436.8869897303607
 21
617.2402423906854
 31
0.0
  0
ARC
  5
569
330
1F
100
AcDbEntity
  8
LAY-10
  6
CONTINUOUS
 62
     7
100
AcDbCircle
 10
465.0
 20
629.99999999997
 30
0.0
 40
66.254680704115
100
AcDbArc
 50
191.5879487220312
 51
204.412051277937
  0
LINE
  5
56A
330
1F
100
AcDbEntity
  8
LAY-10
  6
CONTINUOUS
 62
     7
100
AcDbLine
 10
411.1201576299258
 20
591.4429604172919
 30
0.0
 11
439.8932206293936
 21
612.0332977342769
 31
0.0
  0
LINE
  5
56B
330
1F
100
AcDbEntity
  8
LAY-10
  6
CONTINUOUS
 62
     7
100
AcDbLine
 10
411.7082470135026
 20
590.6341292636282
 30
0.0
 11
440.4751725635504
 21
611.220074550685
 31
0.0
  0
LINE
  5
56C
330
1F
100
AcDbEntity
  8
LAY-10
  6
CONTINUOUS
 62
     7
100
AcDbLine
 10
443.7594104234551
 20
607.5725588818036
 30
0.0
 11
420.279274577939
 21
581.1150387856162
 31
0.0
  0
LINE
  5
56D
330
1F
100
AcDbEntity
  8
LAY-10
  6
CONTINUOUS
 62
     7
100
AcDbLine
 10
421.0222027903842
 20
580.44562513968
 30
0.0
 11
444.5073481439854
 21
606.9087899715585
 31
0.0
  0
ARC
  5
56E
330
1F
100
AcDbEntity
  8
LAY-10
  6
CONTINUOUS
 62
     7
100
AcDbCircle
 10
465.0
 20
629.99999999997
 30
0.0
 40
66.254680704115
100
AcDbArc
 50
215.5879487220379
 51
228.4120512779456
  0
LINE
  5
56F
330
1F
100
AcDbEntity
  8
LAY-10
  6
CONTINUOUS
 62
     7
100
AcDbLine
 10
431.4608755911286
 20
572.8614854140055
 30
0.0
 11
449.3715319166508
 21
603.3747535966834
 31
0.0
  0
LINE
  5
570
330
1F
100
AcDbEntity
  8
LAY-10
  6
CONTINUOUS
 62
     7
100
AcDbLine
 10
432.3271032444391
 20
572.3617788892809
 30
0.0
 11
450.2339391304315
 21
602.8685384273936
 31
0.0
  0
LINE
  5
571
330
1F
100
AcDbEntity
  8
LAY-10
  6
CONTINUOUS
 62
     7
100
AcDbLine
 10
454.7178179878927
 20
600.872186938607
 30
0.0
 11
444.0288894494228
 21
567.1518080014748
 31
0.0
  0
LINE
  5
572
330
1F
100
AcDbEntity
  8
LAY-10
  6
CONTINUOUS
 62
     7
100
AcDbLine
 10
444.979863202434
 20
566.8424443331222
 30
0.0
 11
455.6710722334137
 21
600.5700175434063
 31
0.0
  0
ARC
  5
573
330
1F
100
AcDbEntity
  8
LAY-10
  6
CONTINUOUS
 62
     7
100
AcDbCircle
 10
465.0
 20
629.99999999997
 30
0.0
 40
66.254680704115
100
AcDbArc
 50
239.5879487220478
 51
252.4120512779562
  0
ARC
  5
574
330
1F
100
AcDbEntity
  8
LAY-10
  6
CONTINUOUS
 62
     7
100
AcDbCircle
 10
465.0
 20
629.9999999999998
 30
0.0
 40
80.6
100
AcDbArc
 50
182.8305724702753
 51
182.8446315012138
  0
ARC
  5
575
330
1F
100
AcDbEntity
  8
LAY-10
  6
CONTINUOUS
 62
     7
100
AcDbCircle
 10
477.6172086140116
 20
658.338714531089
 30
0.0
 40
3.0205850119601
100
AcDbArc
 50
161.5879487220454
 51
330.4120512779471
  0
ARC
  5
576
330
1F
100
AcDbEntity
  8
LAY-10
  6
CONTINUOUS
 62
     7
100
AcDbCircle
 10
477.6172086140116
 20
658.338714531089
 30
0.0
 40
4.0205850119601
100
AcDbArc
 50
161.5879487220461
 51
330.4120512779493
  0
ARC
  5
577
330
1F
100
AcDbEntity
  8
LAY-10
  6
CONTINUOUS
 62
     7
100
AcDbCircle
 10
488.0527872349173
 20
650.7568228586535
 30
0.0
 40
3.0205850119601
100
AcDbArc
 50
137.5879487220483
 51
306.4120512779498
  0
ARC
  5
578
330
1F
100
AcDbEntity
  8
LAY-10
  6
CONTINUOUS
 62
     7
100
AcDbCircle
 10
488.0527872349173
 20
650.7568228586535
 30
0.0
 40
4.0205850119601
100
AcDbArc
 50
137.5879487220488
 51
306.4120512779492
  0
ARC
  5
579
330
1F
100
AcDbEntity
  8
LAY-10
  6
CONTINUOUS
 62
     7
100
AcDbCircle
 10
494.5023295149071
 20
639.585887944141
 30
0.0
 40
3.0205850119601
100
AcDbArc
 50
113.5879487220495
 51
282.4120512779539
  0
ARC
  5
57A
330
1F
100
AcDbEntity
  8
LAY-10
  6
CONTINUOUS
 62
     7
100
AcDbCircle
 10
494.5023295149071
 20
639.585887944141
 30
0.0
 40
4.0205850119601
100
AcDbArc
 50
113.5879487220503
 51
282.41205127795
  0
ARC
  5
57B
330
1F
100
AcDbEntity
  8
LAY-10
  6
CONTINUOUS
 62
     7
100
AcDbCircle
 10
495.8506510015188
 20
626.7574659190284
 30
0.0
 40
3.0205850119601
100
AcDbArc
 50
89.58794872204555
 51
258.41205127795
  0
ARC
  5
57C
330
1F
100
AcDbEntity
  8
LAY-10
  6
CONTINUOUS
 62
     7
100
AcDbCircle
 10
495.8506510015188
 20
626.7574659190284
 30
0.0
 40
4.0205850119601
100
AcDbArc
 50
89.58794872204773
 51
258.4120512779507
  0
ARC
  5
57D
330
1F
100
AcDbEntity
  8
LAY-10
  6
CONTINUOUS
 62
     7
100
AcDbCircle
 10
491.8646146606009
 20
614.4897074940131
 30
0.0
 40
3.0205850119601
100
AcDbArc
 50
65.58794872204612
 51
234.4120512779483
  0
ARC
  5
57E
330
1F
100
AcDbEntity
  8
LAY-10
  6
CONTINUOUS
 62
     7
100
AcDbCircle
 10
491.8646146606009
 20
614.4897074940131
 30
0.0
 40
4.0205850119601
100
AcDbArc
 50
65.58794872204835
 51
234.4120512779477
  0
ARC
  5
57F
330
1F
100
AcDbEntity
  8
LAY-10
  6
CONTINUOUS
 62
     7
100
AcDbCircle
 10
483.2334423875013
 20
604.903819549867
 30
0.0
 40
3.0205850119601
100
AcDbArc
 50
41.58794872204487
 51
210.4120512779529
  0
ARC
  5
580
330
1F
100
AcDbEntity
  8
LAY-10
  6
CONTINUOUS
 62
     7
100
AcDbCircle
 10
483.2334423875013
 20
604.903819549867
 30
0.0
 40
4.0205850119601
100
AcDbArc
 50
41.58794872204716
 51
210.4120512779523
  0
ARC
  5
581
330
1F
100
AcDbEntity
  8
LAY-10
  6
CONTINUOUS
 62
     7
100
AcDbCircle
 10
471.4495422799775
 20
599.6572891971905
 30
0.0
 40
3.0205850119601
100
AcDbArc
 50
17.58794872204481
 51
186.4120512779496
  0
ARC
  5
582
330
1F
100
AcDbEntity
  8
LAY-10
  6
CONTINUOUS
 62
     7
100
AcDbCircle
 10
465.0
 20
629.9999999999714
 30
0.0
 40
61.61836509645718
100
AcDbArc
 50
300.4120512779517
 51
311.5879487220539
  0
ARC
  5
583
330
1F
100
AcDbEntity
  8
LAY-10
  6
CONTINUOUS
 62
     7
100
AcDbCircle
 10
465.0
 20
629.9999999999714
 30
0.0
 40
61.61836509645718
100
AcDbArc
 50
324.412051277962
 51
335.5879487220629
  0
ARC
  5
584
330
1F
100
AcDbEntity
  8
LAY-10
  6
CONTINUOUS
 62
     7
100
AcDbCircle
 10
465.0
 20
629.9999999999714
 30
0.0
 40
61.61836509645718
100
AcDbArc
 50
60.41205127796389
 51
71.58794872205685
  0
ARC
  5
585
330
1F
100
AcDbEntity
  8
LAY-10
  6
CONTINUOUS
 62
     7
100
AcDbCircle
 10
465.0
 20
629.9999999999714
 30
0.0
 40
61.61836509645718
100
AcDbArc
 50
36.41205127796992
 51
47.58794872206487
  0
ARC
  5
586
330
1F
100
AcDbEntity
  8
LAY-10
  6
CONTINUOUS
 62
     7
100
AcDbCircle
 10
465.0
 20
629.9999999999714
 30
0.0
 40
61.61836509645718
100
AcDbArc
 50
12.41205127797181
 51
23.58794872206895
  0
ARC
  5
587
330
1F
100
AcDbEntity
  8
LAY-10
  6
CONTINUOUS
 62
     7
100
AcDbCircle
 10
465.0
 20
629.9999999999714
 30
0.0
 40
61.61836509645718
100
AcDbArc
 50
348.4120512779688
 51
359.5879487220682
  0
LINE
  5
588
330
1F
100
AcDbEntity
  8
LAY-10
  6
CONTINUOUS
 62
     7
100
AcDbLine
 10
531.2529673703887
 20
629.5235235342059
 30
0.0
 11
495.8723738089616
 21
629.7779728192218
 31
0.0
  0
LINE
  5
589
330
1F
100
AcDbEntity
  8
LAY-10
  6
CONTINUOUS
 62
     7
100
AcDbLine
 10
495.879565398457
 20
630.7779469594077
 30
0.0
 11
531.2526120885816
 21
630.5235519497958
 31
0.0
  0
LINE
  5
58A
330
1F
100
AcDbEntity
  8
LAY-10
  6
CONTINUOUS
 62
     7
100
AcDbLine
 10
529.7061160471992
 20
644.2408307794792
 30
0.0
 11
495.1515763236343
 21
636.6359027923418
 31
0.0
  0
LINE
  5
58B
330
1F
100
AcDbEntity
  8
LAY-10
  6
CONTINUOUS
 62
     7
100
AcDbLine
 10
529.9136861279037
 20
643.262581516863
 30
0.0
 11
495.366517073905
 21
635.6592757018548
 31
0.0
  0
ARC
  5
58C
330
1F
100
AcDbEntity
  8
LAY-10
  6
CONTINUOUS
 62
     7
100
AcDbCircle
 10
465.0
 20
629.99999999997
 30
0.0
 40
66.254680704115
100
AcDbArc
 50
359.5879487220679
 51
12.41205127797158
  0
LINE
  5
58D
330
1F
100
AcDbEntity
  8
LAY-10
  6
CONTINUOUS
 62
     7
100
AcDbLine
 10
525.7188978347513
 20
656.5122266310407
 30
0.0
 11
493.2936234500018
 21
642.3540937643681
 31
0.0
  0
LINE
  5
58E
330
1F
100
AcDbEntity
  8
LAY-10
  6
CONTINUOUS
 62
     7
100
AcDbLine
 10
492.8934671689769
 20
643.2705406808648
 30
0.0
 11
525.3118250679327
 21
657.4256535414867
 31
0.0
  0
LINE
  5
58F
330
1F
100
AcDbEntity
  8
LAY-10
  6
CONTINUOUS
 62
     7
100
AcDbLine
 10
518.907225216285
 20
668.5187458866801
 30
0.0
 11
490.4393589360789
 21
647.5211808275237
 31
0.0
  0
LINE
  5
590
330
1F
100
AcDbEntity
  8
LAY-10
  6
CONTINUOUS
 62
     7
100
AcDbLine
 10
518.3197106907471
 20
669.3279946991568
 30
0.0
 11
489.8457707656851
 21
648.3259497906236
 31
0.0
  0
ARC
  5
591
330
1F
100
AcDbEntity
  8
LAY-10
  6
CONTINUOUS
 62
     7
100
AcDbCircle
 10
465.0
 20
629.99999999997
 30
0.0
 40
66.254680704115
100
AcDbArc
 50
23.58794872206861
 51
36.41205127796963
  0
LINE
  5
592
330
1F
100
AcDbEntity
  8
LAY-10
  6
CONTINUOUS
 62
     7
100
AcDbLine
 10
485.0843350617854
 20
653.4685373595232
 30
0.0
 11
508.942575577312
 21
679.585610481605
 31
0.0
  0
LINE
  5
593
330
1F
100
AcDbEntity
  8
LAY-10
  6
CONTINUOUS
 62
     7
100
AcDbLine
 10
509.6859792496191
 20
678.9167248873418
 30
0.0
 11
485.8226485570358
 21
652.7940796642367
 31
0.0
  0
LINE
  5
594
330
1F
100
AcDbEntity
  8
LAY-10
  6
CONTINUOUS
 62
     7
100
AcDbLine
 10
498.5797153330097
 20
687.1146691608628
 30
0.0
 11
481.1135045288827
 21
656.353514613183
 31
0.0
  0
LINE
  5
595
330
1F
100
AcDbEntity
  8
LAY-10
  6
CONTINUOUS
 62
     7
100
AcDbLine
 10
497.7138429615058
 20
687.6149910517279
 30
0.0
 11
480.2439057256062
 21
656.8472735840792
 31
0.0
  0
ARC
  5
596
330
1F
100
AcDbEntity
  8
LAY-10
  6
CONTINUOUS
 62
     7
100
AcDbCircle
 10
465.0
 20
629.99999999997
 30
0.0
 40
66.254680704115
100
AcDbArc
 50
47.58794872206453
 51
60.41205127796331
  0
LINE
  5
597
330
1F
100
AcDbEntity
  8
LAY-10
  6
CONTINUOUS
 62
     7
100
AcDbLine
 10
485.9264488928575
 20
692.8630770161235
 30
0.0
 11
474.7512485607335
 21
659.2927621124461
 31
0.0
  0
LINE
  5
598
330
1F
100
AcDbEntity
  8
LAY-10
  6
CONTINUOUS
 62
     7
100
AcDbLine
 10
473.8024389619538
 20
659.6086107237513
 30
0.0
 11
484.9752555636144
 21
693.1717648983208
 31
0.0
  0
LINE
  5
599
330
1F
100
AcDbEntity
  8
LAY-10
  6
CONTINUOUS
 62
     7
100
AcDbLine
 10
472.4459676065268
 20
695.8349472666519
 30
0.0
 11
469.0014788020484
 21
660.6290863080587
 31
0.0
  0
ARC
  5
59A
330
1F
100
AcDbEntity
  8
LAY-10
  6
CONTINUOUS
 62
     7
100
AcDbCircle
 10
465.0
 20
629.99999999997
 30
0.0
 40
66.254680704115
100
AcDbArc
 50
71.58794872205674
 51
84.41205127795381
  0
LINE
  5
59B
330
1F
100
AcDbEntity
  8
LAY-10
  6
CONTINUOUS
 62
     7
100
AcDbLine
 10
529.9042461024812
 20
616.6912978441334
 30
0.0
 11
495.2439004167543
 21
623.7984479159798
 31
0.0
  0
LINE
  5
59C
330
1F
100
AcDbEntity
  8
LAY-10
  6
CONTINUOUS
 62
     7
100
AcDbLine
 10
529.6959809856835
 20
615.7131963159998
 30
0.0
 11
495.0430285385045
 21
622.8188303944294
 31
0.0
  0
LINE
  5
59D
330
1F
100
AcDbEntity
  8
LAY-10
  6
CONTINUOUS
 62
     7
100
AcDbLine
 10
493.5263062384979
 20
618.1508391412426
 30
0.0
 11
525.7377205930266
 21
603.5309234696554
 31
0.0
  0
LINE
  5
59E
330
1F
100
AcDbEntity
  8
LAY-10
  6
CONTINUOUS
 62
     7
100
AcDbLine
 10
525.3312969583703
 20
602.6172075469499
 30
0.0
 11
493.1130102696393
 21
617.2402423906854
 31
0.0
  0
ARC
  5
59F
330
1F
100
AcDbEntity
  8
LAY-10
  6
CONTINUOUS
 62
     7
100
AcDbCircle
 10
465.0
 20
629.99999999997
 30
0.0
 40
66.254680704115
100
AcDbArc
 50
335.5879487220631
 51
348.4120512779688
  0
LINE
  5
5A0
330
1F
100
AcDbEntity
  8
LAY-10
  6
CONTINUOUS
 62
     7
100
AcDbLine
 10
518.8798423700741
 20
591.4429604172919
 30
0.0
 11
490.1067793706063
 21
612.0332977342769
 31
0.0
  0
LINE
  5
5A1
330
1F
100
AcDbEntity
  8
LAY-10
  6
CONTINUOUS
 62
     7
100
AcDbLine
 10
518.2917529864974
 20
590.6341292636282
 30
0.0
 11
489.5248274364496
 21
611.220074550685
 31
0.0
  0
LINE
  5
5A2
330
1F
100
AcDbEntity
  8
LAY-10
  6
CONTINUOUS
 62
     7
100
AcDbLine
 10
486.2405895765448
 20
607.5725588818036
 30
0.0
 11
509.7207254220609
 21
581.1150387856162
 31
0.0
  0
LINE
  5
5A3
330
1F
100
AcDbEntity
  8
LAY-10
  6
CONTINUOUS
 62
     7
100
AcDbLine
 10
508.9777972096158
 20
580.44562513968
 30
0.0
 11
485.4926518560146
 21
606.9087899715585
 31
0.0
  0
ARC
  5
5A4
330
1F
100
AcDbEntity
  8
LAY-10
  6
CONTINUOUS
 62
     7
100
AcDbCircle
 10
465.0
 20
629.99999999997
 30
0.0
 40
66.254680704115
100
AcDbArc
 50
311.5879487220545
 51
324.4120512779621
  0
LINE
  5
5A5
330
1F
100
AcDbEntity
  8
LAY-10
  6
CONTINUOUS
 62
     7
100
AcDbLine
 10
498.5391244088714
 20
572.8614854140055
 30
0.0
 11
480.6284680833491
 21
603.3747535966834
 31
0.0
  0
LINE
  5
5A6
330
1F
100
AcDbEntity
  8
LAY-10
  6
CONTINUOUS
 62
     7
100
AcDbLine
 10
497.6728967555609
 20
572.3617788892809
 30
0.0
 11
479.7660608695685
 21
602.8685384273936
 31
0.0
  0
LINE
  5
5A7
330
1F
100
AcDbEntity
  8
LAY-10
  6
CONTINUOUS
 62
     7
100
AcDbLine
 10
475.2821820121073
 20
600.872186938607
 30
0.0
 11
485.9711105505771
 21
567.1518080014748
 31
0.0
  0
LINE
  5
5A8
330
1F
100
AcDbEntity
  8
LAY-10
  6
CONTINUOUS
 62
     7
100
AcDbLine
 10
485.020136797566
 20
566.8424443331222
 30
0.0
 11
474.3289277665862
 21
600.5700175434063
 31
0.0
  0
ARC
  5
5A9
330
1F
100
AcDbEntity
  8
LAY-10
  6
CONTINUOUS
 62
     7
100
AcDbCircle
 10
465.0
 20
629.99999999997
 30
0.0
 40
66.254680704115
100
AcDbArc
 50
287.5879487220438
 51
300.4120512779521
  0
LINE
  5
5AA
330
1F
100
AcDbEntity
  8
LAY-10
  6
CONTINUOUS
 62
     7
100
AcDbLine
 10
462.5458917671155
 20
599.2082784916056
 30
0.0
 11
458.5954001484008
 21
564.0556005717954
 31
0.0
  0
LINE
  5
5AB
330
1F
100
AcDbEntity
  8
LAY-10
  6
CONTINUOUS
 62
     7
100
AcDbLine
 10
471.4045998516944
 20
564.0556005718103
 30
0.0
 11
467.4541082329172
 21
599.2082784916068
 31
0.0
  0
ARC
  5
5AC
330
1F
100
AcDbEntity
  8
LAY-10
  6
CONTINUOUS
 62
     7
100
AcDbCircle
 10
464.9999999999702
 20
629.9999999999916
 30
0.0
 40
66.254680704115
100
AcDbArc
 50
263.5879487221144
 51
276.41205127802
  0
ARC
  5
5AD
330
1F
100
AcDbEntity
  8
LAY-10
  6
CONTINUOUS
 62
     7
100
AcDbCircle
 10
465.0
 20
629.9999999999714
 30
0.0
 40
61.61836509645718
100
AcDbArc
 50
252.412051277957
 51
263.5879487220599
  0
LINE
  5
5AE
330
1F
100
AcDbEntity
  8
LAY-10
  6
CONTINUOUS
 62
     7
100
AcDbLine
 10
457.600812856012
 20
564.1597786697586
 30
0.0
 11
461.5521473156957
 21
599.3199564449933
 31
0.0
  0
LINE
  5
5AF
330
1F
100
AcDbEntity
  8
LAY-10
  6
CONTINUOUS
 62
     7
100
AcDbLine
 10
472.3991871439871
 20
564.1597786697672
 30
0.0
 11
468.4478526843042
 21
599.3199564449933
 31
0.0
  0
ARC
  5
5B0
330
1F
100
AcDbEntity
  8
LAY-10
  6
CONTINUOUS
 62
     7
100
AcDbCircle
 10
465.0
 20
629.9999999999714
 30
0.0
 40
61.61836509645718
100
AcDbArc
 50
276.4120512779402
 51
287.5879487220431
  0
ARC
  5
5B1
330
1F
100
AcDbEntity
  8
LAY-10
  6
CONTINUOUS
 62
     7
100
AcDbCircle
 10
458.5504577200225
 20
599.6572891971905
 30
0.0
 40
4.0205850119601
100
AcDbArc
 50
353.5879487219929
 51
162.4120512779531
  0
ARC
  5
5B2
330
1F
100
AcDbEntity
  8
LAY-10
  6
CONTINUOUS
 62
     7
100
AcDbCircle
 10
471.4495422799775
 20
599.6572891971905
 30
0.0
 40
4.0205850119601
100
AcDbArc
 50
17.58794872204694
 51
186.4120512777837
  0
LINE
  5
5B3
330
1F
100
AcDbEntity
  8
LAY-10
  6
CONTINUOUS
 62
     7
100
AcDbLine
 10
468.9999999999998
 20
711.08933158872
 30
0.0
 11
468.9999999999998
 21
710.9011742807234
 31
0.0
  0
LINE
  5
5B4
330
1F
100
AcDbEntity
  8
LAY-10
  6
CONTINUOUS
 62
     7
100
AcDbLine
 10
461.0000000000002
 20
711.0893315887246
 30
0.0
 11
461.0000000000002
 21
710.9011742807234
 31
0.0
  0
ARC
  5
5B5
330
1F
100
AcDbEntity
  8
LAY-10
  6
CONTINUOUS
 62
     7
100
AcDbCircle
 10
464.99999999997
 20
686.5000000000399
 30
0.0
 40
5.5
100
AcDbArc
 50
112.4682307104011
 51
67.53176928966062
  0
ARC
  5
5B6
330
1F
100
AcDbEntity
  8
LAY-10
  6
CONTINUOUS
 62
     7
100
AcDbCircle
 10
464.99999999994
 20
686.5000000000599
 30
0.0
 40
5.76203889640999
100
AcDbArc
 50
11.70410226051965
 51
61.34636504528595
  0
ARC
  5
5B7
330
1F
100
AcDbEntity
  8
LAY-10
  6
CONTINUOUS
 62
     7
100
AcDbCircle
 10
465.0
 20
630.0
 30
0.0
 40
61.79331008287993
100
AcDbArc
 50
84.41205127795122
 51
95.5879487220491
  0
ARC
  5
5B8
330
1F
100
AcDbEntity
  8
LAY-10
  6
CONTINUOUS
 62
     7
100
AcDbCircle
 10
464.99999999994
 20
686.5000000000599
 30
0.0
 40
5.76203889640999
100
AcDbArc
 50
118.6536349548343
 51
168.2958977354952
  0
ARC
  5
5B9
330
1F
100
AcDbEntity
  8
LAY-10
  6
CONTINUOUS
 62
     7
100
AcDbCircle
 10
464.99999999994
 20
686.5000000000599
 30
0.0
 40
5.76203889640999
100
AcDbArc
 50
202.8799997086029
 51
337.1200002953829
  0
ARC
  5
5BA
330
1F
100
AcDbEntity
  8
LAY-10
  6
CONTINUOUS
 62
     7
100
AcDbCircle
 10
465.0
 20
686.50000000002
 30
0.0
 40
11.0
100
AcDbArc
 50
245.5782857603796
 51
294.4217142396187
  0
ARC
  5
5BB
330
1F
100
AcDbEntity
  8
LAY-10
  6
CONTINUOUS
 62
     7
100
AcDbCircle
 10
465.0
 20
686.50000000002
 30
0.0
 40
10.73796110359996
100
AcDbArc
 50
244.7673839301633
 51
295.2326160698329
  0
ARC
  5
5BC
330
1F
100
AcDbEntity
  8
LAY-10
  6
CONTINUOUS
 62
     7
100
AcDbCircle
 10
465.0
 20
686.5000000000001
 30
0.0
 40
9.0
100
AcDbArc
 50
237.9051396838599
 51
302.0948603161379
  0
ARC
  5
5BD
330
1F
100
AcDbEntity
  8
LAY-10
  6
CONTINUOUS
 62
     7
100
AcDbCircle
 10
465.0
 20
686.5000000000001
 30
0.0
 40
8.37110664860001
100
AcDbArc
 50
234.5002253207723
 51
305.4997746792248
  0
ARC
  5
5BE
330
1F
100
AcDbEntity
  8
LAY-10
  6
CONTINUOUS
 62
     7
100
AcDbCircle
 10
416.0695646861302
 20
601.75000000001
 30
0.0
 40
5.76203889640999
100
AcDbArc
 50
131.7041022640578
 51
181.3463650466429
  0
ARC
  5
5BF
330
1F
100
AcDbEntity
  8
LAY-10
  6
CONTINUOUS
 62
     7
100
AcDbCircle
 10
416.0695646861302
 20
601.75000000001
 30
0.0
 40
5.5
100
AcDbArc
 50
232.4682307089677
 51
187.5317692909146
  0
ARC
  5
5C0
330
1F
100
AcDbEntity
  8
LAY-10
  6
CONTINUOUS
 62
     7
100
AcDbCircle
 10
416.0695646861302
 20
601.75000000001
 30
0.0
 40
5.76203889640999
100
AcDbArc
 50
238.6536349532388
 51
288.2958977389164
  0
ARC
  5
5C1
330
1F
100
AcDbEntity
  8
LAY-10
  6
CONTINUOUS
 62
     7
100
AcDbCircle
 10
416.0695646861302
 20
601.75000000001
 30
0.0
 40
5.76203889640999
100
AcDbArc
 50
322.8799997051792
 51
97.12000029184351
  0
ARC
  5
5C2
330
1F
100
AcDbEntity
  8
LAY-10
  6
CONTINUOUS
 62
     7
100
AcDbCircle
 10
416.0695646861793
 20
601.75
 30
0.0
 40
9.0
100
AcDbArc
 50
357.9051396837655
 51
62.09486031605154
  0
ARC
  5
5C3
330
1F
100
AcDbEntity
  8
LAY-10
  6
CONTINUOUS
 62
     7
100
AcDbCircle
 10
416.0695646861793
 20
601.75
 30
0.0
 40
8.37110664860001
100
AcDbArc
 50
354.5002253206672
 51
65.49977467912616
  0
ARC
  5
5C4
330
1F
100
AcDbEntity
  8
LAY-10
  6
CONTINUOUS
 62
     7
100
AcDbCircle
 10
416.0695646861618
 20
601.74999999999
 30
0.0
 40
11.0
100
AcDbArc
 50
5.578285760308813
 51
54.42171423955289
  0
ARC
  5
5C5
330
1F
100
AcDbEntity
  8
LAY-10
  6
CONTINUOUS
 62
     7
100
AcDbCircle
 10
416.0695646861618
 20
601.74999999999
 30
0.0
 40
10.73796110359996
100
AcDbArc
 50
4.767383930090993
 51
55.23261606976727
  0
ARC
  5
5C6
330
1F
100
AcDbEntity
  8
LAY-10
  6
CONTINUOUS
 62
     7
100
AcDbCircle
 10
465.0
 20
630.0
 30
0.0
 40
61.79331008287993
100
AcDbArc
 50
204.4120512779614
 51
215.5879487220598
  0
ARC
  5
5C7
330
1F
100
AcDbEntity
  8
LAY-10
  6
CONTINUOUS
 62
     7
100
AcDbCircle
 10
513.93043531381
 20
601.75000000001
 30
0.0
 40
5.5
100
AcDbArc
 50
352.4682307075103
 51
307.5317692925465
  0
ARC
  5
5C8
330
1F
100
AcDbEntity
  8
LAY-10
  6
CONTINUOUS
 62
     7
100
AcDbCircle
 10
465.0
 20
630.0
 30
0.0
 40
61.79331008287993
100
AcDbArc
 50
324.4120512779401
 51
335.5879487220386
  0
ARC
  5
5C9
330
1F
100
AcDbEntity
  8
LAY-10
  6
CONTINUOUS
 62
     7
100
AcDbCircle
 10
513.9304353138209
 20
601.7499999999999
 30
0.0
 40
8.37110664860001
100
AcDbArc
 50
114.5002253208739
 51
185.499774679334
  0
ARC
  5
5CA
330
1F
100
AcDbEntity
  8
LAY-10
  6
CONTINUOUS
 62
     7
100
AcDbCircle
 10
513.93043531381
 20
601.75000000001
 30
0.0
 40
5.76203889640999
100
AcDbArc
 50
251.7041022622447
 51
301.3463650479052
  0
ARC
  5
5CB
330
1F
100
AcDbEntity
  8
LAY-10
  6
CONTINUOUS
 62
     7
100
AcDbCircle
 10
513.9304353138209
 20
601.7499999999999
 30
0.0
 40
9.0
100
AcDbArc
 50
117.9051396839484
 51
182.0948603162356
  0
ARC
  5
5CC
330
1F
100
AcDbEntity
  8
LAY-10
  6
CONTINUOUS
 62
     7
100
AcDbCircle
 10
513.9304353138382
 20
601.74999999999
 30
0.0
 40
10.73796110359996
100
AcDbArc
 50
124.767383930233
 51
175.2326160699104
  0
ARC
  5
5CD
330
1F
100
AcDbEntity
  8
LAY-10
  6
CONTINUOUS
 62
     7
100
AcDbCircle
 10
513.9304353138382
 20
601.74999999999
 30
0.0
 40
11.0
100
AcDbArc
 50
125.5782857604471
 51
174.4217142396926
  0
ARC
  5
5CE
330
1F
100
AcDbEntity
  8
LAY-10
  6
CONTINUOUS
 62
     7
100
AcDbCircle
 10
513.93043531381
 20
601.75000000001
 30
0.0
 40
5.76203889640999
100
AcDbArc
 50
358.653634952152
 51
48.29589773677023
  0
ARC
  5
5CF
330
1F
100
AcDbEntity
  8
LAY-10
  6
CONTINUOUS
 62
     7
100
AcDbCircle
 10
513.93043531381
 20
601.75000000001
 30
0.0
 40
5.76203889640999
100
AcDbArc
 50
82.87999970732605
 51
217.1200002936584
  0
LINE
  5
5D0
330
1F
100
AcDbEntity
  8
LAY-10
  6
CONTINUOUS
 62
     7
100
AcDbLine
 10
468.9999999999998
 20
548.9106684112755
 30
0.0
 11
468.9999999999998
 21
549.0988257192763
 31
0.0
  0
LINE
  5
5D1
330
1F
100
AcDbEntity
  8
LAY-10
  6
CONTINUOUS
 62
     7
100
AcDbLine
 10
461.0000000000002
 20
548.9106684112754
 30
0.0
 11
461.0000000000002
 21
549.0988257192763
 31
0.0
  0
LINE
  5
5D2
330
1F
100
AcDbEntity
  8
LAY-10
  6
CONTINUOUS
 62
     7
100
AcDbLine
 10
545.7774721070177
 20
624.0000000000011
 30
0.0
 11
545.9164983023002
 21
624.0000000000011
 31
0.0
  0
LINE
  5
5D3
330
1F
100
AcDbEntity
  8
LAY-10
  6
CONTINUOUS
 62
     7
100
AcDbLine
 10
545.7774721070177
 20
635.9999999999989
 30
0.0
 11
545.9164983023002
 21
635.9999999999989
 31
0.0
  0
LINE
  5
5D4
330
1F
100
AcDbEntity
  8
LAY-10
  6
CONTINUOUS
 62
     7
100
AcDbLine
 10
384.2225278929823
 20
624.0000000000011
 30
0.0
 11
384.0835016977003
 21
624.0000000000011
 31
0.0
  0
LINE
  5
5D5
330
1F
100
AcDbEntity
  8
LAY-10
  6
CONTINUOUS
 62
     7
100
AcDbLine
 10
384.2225278929823
 20
635.9999999999989
 30
0.0
 11
384.0835016977003
 21
635.9999999999989
 31
0.0
  0
LINE
  5
5D6
330
1F
100
AcDbEntity
  8
LAY-10
  6
PHANTOM
 62
     7
100
AcDbLine
 10
472.8267769305232
 20
558.0000000000005
 30
0.0
 11
465.0
 21
553.01379317959
 31
0.0
  0
CIRCLE
  5
5D7
330
1F
100
AcDbEntity
  8
LAY-10
  6
CONTINUOUS
 62
     7
100
AcDbCircle
 10
542.0000000000006
 20
630.0000000000001
 30
0.0
 40
5.25
  0
LINE
  5
5D8
330
1F
100
AcDbEntity
  8
LAY-10
  6
CONTINUOUS
 62
     7
100
AcDbLine
 10
538.0366072321382
 20
626.5570335802307
 30
0.0
 11
546.9633927678316
 21
631.7109156122514
 31
0.0
  0
LINE
  5
5D9
330
1F
100
AcDbEntity
  8
LAY-10
  6
CONTINUOUS
 62
     7
100
AcDbLine
 10
537.0366072321409
 20
628.2890843878323
 30
0.0
 11
545.9633927678047
 21
633.4429664198359
 31
0.0
  0
LINE
  5
5DA
330
1F
100
AcDbEntity
  8
LAY-10
  6
CONTINUOUS
 62
     7
100
AcDbLine
 10
545.400367627184
 20
625.9999999999998
 30
0.0
 11
545.9011742807236
 21
625.9999999999998
 31
0.0
  0
ARC
  5
5DB
330
1F
100
AcDbEntity
  8
LAY-10
  6
CONTINUOUS
 62
     7
100
AcDbCircle
 10
539.0000000000002
 20
629.9999999999998
 30
0.0
 40
4.0
100
AcDbArc
 50
96.12920145594133
 51
263.8707985440722
  0
LINE
  5
5DC
330
1F
100
AcDbEntity
  8
LAY-10
  6
CONTINUOUS
 62
     7
100
AcDbLine
 10
545.4003676271849
 20
633.9999999999998
 30
0.0
 11
545.9011742807236
 21
633.9999999999998
 31
0.0
  0
CIRCLE
  5
5DD
330
1F
100
AcDbEntity
  8
LAY-10
  6
CONTINUOUS
 62
     7
100
AcDbCircle
 10
388.0000000000005
 20
630.0000000000001
 30
0.0
 40
5.25
  0
LINE
  5
5DE
330
1F
100
AcDbEntity
  8
LAY-10
  6
CONTINUOUS
 62
     7
100
AcDbLine
 10
384.0366072321381
 20
626.5570335802307
 30
0.0
 11
392.9633927678315
 21
631.7109156122514
 31
0.0
  0
LINE
  5
5DF
330
1F
100
AcDbEntity
  8
LAY-10
  6
CONTINUOUS
 62
     7
100
AcDbLine
 10
383.0366072321409
 20
628.2890843878323
 30
0.0
 11
391.9633927678047
 21
633.4429664198359
 31
0.0
  0
LINE
  5
5E0
330
1F
100
AcDbEntity
  8
LAY-10
  6
CONTINUOUS
 62
     7
100
AcDbLine
 10
384.5996323728162
 20
633.9999999999998
 30
0.0
 11
384.0988257192766
 21
633.9999999999998
 31
0.0
  0
LINE
  5
5E1
330
1F
100
AcDbEntity
  8
LAY-10
  6
CONTINUOUS
 62
     7
100
AcDbLine
 10
384.599632372817
 20
625.9999999999998
 30
0.0
 11
384.0988257192766
 21
625.9999999999998
 31
0.0
  0
ARC
  5
5E2
330
1F
100
AcDbEntity
  8
LAY-10
  6
CONTINUOUS
 62
     7
100
AcDbCircle
 10
390.9999999999999
 20
629.9999999999998
 30
0.0
 40
4.0
100
AcDbArc
 50
276.1292014559493
 51
83.87079854405178
  0
CIRCLE
  5
5E3
330
1F
100
AcDbEntity
  8
LAY-10
  6
CONTINUOUS
 62
     7
100
AcDbCircle
 10
513.9304353138393
 20
601.7499999999908
 30
0.0
 40
3.999999999999943
  0
LINE
  5
5E4
330
1F
100
AcDbEntity
  8
LAY-10
  6
CONTINUOUS
 62
     7
100
AcDbLine
 10
517.8594937252144
 20
600.9999999999906
 30
0.0
 11
510.001376902464
 21
600.9999999999906
 31
0.0
  0
LINE
  5
5E5
330
1F
100
AcDbEntity
  8
LAY-10
  6
CONTINUOUS
 62
     7
100
AcDbLine
 10
517.8594937252146
 20
602.4999999999908
 30
0.0
 11
510.0013769024638
 21
602.4999999999908
 31
0.0
  0
ARC
  5
5E6
330
1F
100
AcDbEntity
  8
LAY-10
  6
CONTINUOUS
 62
     7
100
AcDbCircle
 10
513.9304353138393
 20
601.7499999999908
 30
0.0
 40
3.499999999999887
100
AcDbArc
 50
192.3736251161928
 51
347.6263748838072
  0
ARC
  5
5E7
330
1F
100
AcDbEntity
  8
LAY-10
  6
CONTINUOUS
 62
     7
100
AcDbCircle
 10
513.9304353138393
 20
601.7499999999908
 30
0.0
 40
3.499999999999887
100
AcDbArc
 50
12.37362511619284
 51
167.6263748838108
  0
CIRCLE
  5
5E8
330
1F
100
AcDbEntity
  8
LAY-10
  6
CONTINUOUS
 62
     7
100
AcDbCircle
 10
416.0695646861793
 20
601.7500000000008
 30
0.0
 40
3.999999999999943
  0
LINE
  5
5E9
330
1F
100
AcDbEntity
  8
LAY-10
  6
CONTINUOUS
 62
     7
100
AcDbLine
 10
419.9986230975544
 20
601.0000000000006
 30
0.0
 11
412.140506274804
 21
601.0000000000006
 31
0.0
  0
LINE
  5
5EA
330
1F
100
AcDbEntity
  8
LAY-10
  6
CONTINUOUS
 62
     7
100
AcDbLine
 10
419.9986230975546
 20
602.5000000000008
 30
0.0
 11
412.1405062748038
 21
602.5000000000008
 31
0.0
  0
ARC
  5
5EB
330
1F
100
AcDbEntity
  8
LAY-10
  6
CONTINUOUS
 62
     7
100
AcDbCircle
 10
416.0695646861793
 20
601.7500000000008
 30
0.0
 40
3.499999999999887
100
AcDbArc
 50
192.3736251161928
 51
347.6263748838072
  0
ARC
  5
5EC
330
1F
100
AcDbEntity
  8
LAY-10
  6
CONTINUOUS
 62
     7
100
AcDbCircle
 10
416.0695646861793
 20
601.7500000000008
 30
0.0
 40
3.499999999999887
100
AcDbArc
 50
12.37362511619284
 51
167.6263748838108
  0
CIRCLE
  5
5ED
330
1F
100
AcDbEntity
  8
LAY-10
  6
CONTINUOUS
 62
     7
100
AcDbCircle
 10
464.9999999999993
 20
686.5000000000008
 30
0.0
 40
3.999999999999943
  0
LINE
  5
5EE
330
1F
100
AcDbEntity
  8
LAY-10
  6
CONTINUOUS
 62
     7
100
AcDbLine
 10
468.9290584113744
 20
685.7500000000006
 30
0.0
 11
461.070941588624
 21
685.7500000000006
 31
0.0
  0
LINE
  5
5EF
330
1F
100
AcDbEntity
  8
LAY-10
  6
CONTINUOUS
 62
     7
100
AcDbLine
 10
468.9290584113746
 20
687.2500000000008
 30
0.0
 11
461.0709415886237
 21
687.2500000000008
 31
0.0
  0
ARC
  5
5F0
330
1F
100
AcDbEntity
  8
LAY-10
  6
CONTINUOUS
 62
     7
100
AcDbCircle
 10
464.9999999999993
 20
686.5000000000008
 30
0.0
 40
3.499999999999887
100
AcDbArc
 50
192.3736251161928
 51
347.6263748838072
  0
ARC
  5
5F1
330
1F
100
AcDbEntity
  8
LAY-10
  6
CONTINUOUS
 62
     7
100
AcDbCircle
 10
464.9999999999993
 20
686.5000000000008
 30
0.0
 40
3.499999999999887
100
AcDbArc
 50
12.37362511619284
 51
167.6263748838108
  0
LINE
  5
5F2
330
1F
100
AcDbEntity
  8
LAY-10
  6
CONTINUOUS
 62
     7
100
AcDbLine
 10
412.5000000000014
 20
159.44998149519
 30
0.0
 11
412.2903688828692
 21
163.44998149519
 31
0.0
  0
LINE
  5
5F3
330
1F
100
AcDbEntity
  8
LAY-10
  6
CONTINUOUS
 62
     7
100
AcDbLine
 10
519.954634146341
 20
127.9016888122505
 30
0.0
 11
521.4999999999891
 21
126.4499814951868
 31
0.0
  0
LINE
  5
5F4
330
1F
100
AcDbEntity
  8
LAY-10
  6
CONTINUOUS
 62
     7
100
AcDbLine
 10
521.9999999999991
 20
147.44998149519
 30
0.0
 11
521.9999999999991
 21
159.44998149519
 31
0.0
  0
LINE
  5
5F5
330
1F
100
AcDbEntity
  8
LAY-10
  6
CONTINUOUS
 62
     7
100
AcDbLine
 10
519.3437499999991
 20
147.44998149519
 30
0.0
 11
519.954634146341
 21
127.9016888122505
 31
0.0
  0
LINE
  5
5F6
330
1F
100
AcDbEntity
  8
LAY-10
  6
CONTINUOUS
 62
     7
100
AcDbLine
 10
520.8437499999891
 20
147.44998149519
 30
0.0
 11
521.4999999999891
 21
126.4499814951871
 31
0.0
  0
LINE
  5
5F7
330
1F
100
AcDbEntity
  8
LAY-10
  6
CONTINUOUS
 62
     7
100
AcDbLine
 10
410.0453658536571
 20
127.9016888122505
 30
0.0
 11
408.5000000000091
 21
126.4499814951868
 31
0.0
  0
LINE
  5
5F8
330
1F
100
AcDbEntity
  8
LAY-10
  6
CONTINUOUS
 62
     7
100
AcDbLine
 10
407.9999999999991
 20
147.44998149519
 30
0.0
 11
407.9999999999991
 21
159.44998149519
 31
0.0
  0
LINE
  5
5F9
330
1F
100
AcDbEntity
  8
LAY-10
  6
CONTINUOUS
 62
     7
100
AcDbLine
 10
410.656249999999
 20
147.44998149519
 30
0.0
 11
410.0453658536571
 21
127.9016888122505
 31
0.0
  0
LINE
  5
5FA
330
1F
100
AcDbEntity
  8
LAY-10
  6
CONTINUOUS
 62
     7
100
AcDbLine
 10
409.1562500000091
 20
147.44998149519
 30
0.0
 11
408.5000000000091
 21
126.449981495187
 31
0.0
  0
ARC
  5
5FB
330
1F
100
AcDbEntity
  8
LAY-10
  6
CONTINUOUS
 62
     7
100
AcDbCircle
 10
408.3392308142857
 20
166.44998149519
 30
0.0
 40
3.0
100
AcDbArc
 50
199.9999999999974
 51
270.0
  0
LINE
  5
5FC
330
1F
100
AcDbEntity
  8
LAY-10
  6
CONTINUOUS
 62
     7
100
AcDbLine
 10
333.4999999999991
 20
193.4499814951899
 30
0.0
 11
332.4999999999991
 21
183.4499814951899
 31
0.0
  0
LINE
  5
5FD
330
1F
100
AcDbEntity
  8
LAY-10
  6
CONTINUOUS
 62
     7
100
AcDbLine
 10
351.5019915499233
 20
183.4499814951899
 30
0.0
 11
332.4999999999991
 21
183.4499814951899
 31
0.0
  0
LINE
  5
5FE
330
1F
100
AcDbEntity
  8
LAY-10
  6
CONTINUOUS
 62
     7
100
AcDbLine
 10
337.6311886684553
 20
184.7618681797607
 30
0.0
 11
337.4999999999982
 21
183.4499814951899
 31
0.0
  0
ARC
  5
5FF
330
1F
100
AcDbEntity
  8
LAY-10
  6
CONTINUOUS
 62
     7
100
AcDbCircle
 10
339.6212630488753
 20
184.5628607417187
 30
0.0
 40
2.0
100
AcDbArc
 50
75.00000000000554
 51
174.2894068624994
  0
ARC
  5
600
330
1F
100
AcDbEntity
  8
LAY-10
  6
CONTINUOUS
 62
     7
100
AcDbCircle
 10
398.7061477839834
 20
174.942770674522
 30
0.0
 40
1.0
100
AcDbArc
 50
75.00000000000554
 51
164.9430869576935
  0
LINE
  5
601
330
1F
100
AcDbEntity
  8
LAY-10
  6
CONTINUOUS
 62
     7
100
AcDbLine
 10
397.7404795243119
 20
175.2025490651985
 30
0.0
 11
397.199130059922
 21
173.1902031045132
 31
0.0
  0
ARC
  5
602
330
1F
100
AcDbEntity
  8
LAY-10
  6
CONTINUOUS
 62
     7
100
AcDbCircle
 10
396.2334618002505
 20
173.44998149519
 30
0.0
 40
1.0
100
AcDbArc
 50
270.0
 51
344.9430869576935
  0
LINE
  5
603
330
1F
100
AcDbEntity
  8
LAY-10
  6
CONTINUOUS
 62
     7
100
AcDbLine
 10
393.829686177945
 20
172.44998149519
 30
0.0
 11
396.2334618002505
 21
172.44998149519
 31
0.0
  0
ARC
  5
604
330
1F
100
AcDbEntity
  8
LAY-10
  6
CONTINUOUS
 62
     7
100
AcDbCircle
 10
393.829686177945
 20
173.44998149519
 30
0.0
 40
1.0
100
AcDbArc
 50
190.6359497523506
 51
270.0
  0
LINE
  5
605
330
1F
100
AcDbEntity
  8
LAY-10
  6
CONTINUOUS
 62
     7
100
AcDbLine
 10
392.116147854359
 20
177.1564696374443
 30
0.0
 11
392.8468664409892
 21
173.2654134463541
 31
0.0
  0
ARC
  5
606
330
1F
100
AcDbEntity
  8
LAY-10
  6
CONTINUOUS
 62
     7
100
AcDbCircle
 10
391.1333281174038
 20
176.9719015886084
 30
0.0
 40
1.0
100
AcDbArc
 50
10.63594975235057
 51
75.00000000000554
  0
LINE
  5
607
330
1F
100
AcDbEntity
  8
LAY-10
  6
CONTINUOUS
 62
     7
100
AcDbLine
 10
400.5511364725389
 20
162.503956753205
 30
0.0
 11
402.499999999999
 21
126.44998149519
 31
0.0
  0
ARC
  5
608
330
1F
100
AcDbEntity
  8
LAY-10
  6
CONTINUOUS
 62
     7
100
AcDbCircle
 10
399.5525941992614
 20
162.44998149519
 30
0.0
 40
1.0
100
AcDbArc
 50
3.094058058919558
 51
90.00000000000001
  0
LINE
  5
609
330
1F
100
AcDbEntity
  8
LAY-10
  6
CONTINUOUS
 62
     7
100
AcDbLine
 10
596.4999999999991
 20
193.44998149519
 30
0.0
 11
597.4999999999991
 21
183.4499814951901
 31
0.0
  0
LINE
  5
60A
330
1F
100
AcDbEntity
  8
LAY-10
  6
CONTINUOUS
 62
     7
100
AcDbLine
 10
578.4980084500748
 20
183.4499814951901
 30
0.0
 11
597.4999999999991
 21
183.4499814951901
 31
0.0
  0
LINE
  5
60B
330
1F
100
AcDbEntity
  8
LAY-10
  6
CONTINUOUS
 62
     7
100
AcDbLine
 10
592.3688113315429
 20
184.7618681797608
 30
0.0
 11
592.5
 21
183.4499814951901
 31
0.0
  0
ARC
  5
60C
330
1F
100
AcDbEntity
  8
LAY-10
  6
CONTINUOUS
 62
     7
100
AcDbCircle
 10
590.3787369511228
 20
184.5628607417189
 30
0.0
 40
2.0
100
AcDbArc
 50
5.710593137500615
 51
104.9999999999976
  0
ARC
  5
60D
330
1F
100
AcDbEntity
  8
LAY-10
  6
CONTINUOUS
 62
     7
100
AcDbCircle
 10
531.2938522160148
 20
174.9427706745221
 30
0.0
 40
1.0
100
AcDbArc
 50
15.05691304230824
 51
104.9999999999945
  0
LINE
  5
60E
330
1F
100
AcDbEntity
  8
LAY-10
  6
CONTINUOUS
 62
     7
100
AcDbLine
 10
532.2595204756863
 20
175.2025490651986
 30
0.0
 11
532.8008699400762
 21
173.1902031045133
 31
0.0
  0
ARC
  5
60F
330
1F
100
AcDbEntity
  8
LAY-10
  6
CONTINUOUS
 62
     7
100
AcDbCircle
 10
533.7665381997476
 20
173.44998149519
 30
0.0
 40
1.0
100
AcDbArc
 50
195.0569130423066
 51
270.0
  0
LINE
  5
610
330
1F
100
AcDbEntity
  8
LAY-10
  6
CONTINUOUS
 62
     7
100
AcDbLine
 10
536.1703138220537
 20
172.44998149519
 30
0.0
 11
533.7665381997476
 21
172.44998149519
 31
0.0
  0
ARC
  5
611
330
1F
100
AcDbEntity
  8
LAY-10
  6
CONTINUOUS
 62
     7
100
AcDbCircle
 10
536.1703138220537
 20
173.44998149519
 30
0.0
 40
1.0
100
AcDbArc
 50
270.0
 51
349.3640502476495
  0
LINE
  5
612
330
1F
100
AcDbEntity
  8
LAY-10
  6
CONTINUOUS
 62
     7
100
AcDbLine
 10
537.8838521456391
 20
177.1564696374444
 30
0.0
 11
537.1531335590089
 21
173.2654134463541
 31
0.0
  0
ARC
  5
613
330
1F
100
AcDbEntity
  8
LAY-10
  6
CONTINUOUS
 62
     7
100
AcDbCircle
 10
538.8666718825943
 20
176.9719015886085
 30
0.0
 40
1.0
100
AcDbArc
 50
104.9999999999945
 51
169.3640502476495
  0
ARC
  5
614
330
1F
100
AcDbEntity
  8
LAY-10
  6
CONTINUOUS
 62
     7
100
AcDbCircle
 10
530.4474058007372
 20
162.44998149519
 30
0.0
 40
1.0
100
AcDbArc
 50
90.00000000000001
 51
176.9059419410934
  0
LINE
  5
615
330
1F
100
AcDbEntity
  8
LAY-10
  6
CONTINUOUS
 62
     7
100
AcDbLine
 10
529.4488635274593
 20
162.5039567532051
 30
0.0
 11
527.4999999999991
 21
126.44998149519
 31
0.0
  0
ARC
  5
616
330
1F
100
AcDbEntity
  8
LAY-10
  6
CONTINUOUS
 62
     7
100
AcDbCircle
 10
525.9729461362613
 20
172.4499814951896
 30
0.0
 40
1.0
100
AcDbArc
 50
270.0
 51
339.999999999998
  0
LINE
  5
617
330
1F
100
AcDbEntity
  8
LAY-10
  6
CONTINUOUS
 62
     7
100
AcDbLine
 10
589.861098860918
 20
186.494712394297
 30
0.0
 11
573.9241202091789
 21
182.2244118347717
 31
0.0
  0
LINE
  5
618
330
1F
100
AcDbEntity
  8
LAY-10
  6
CONTINUOUS
 62
     7
100
AcDbLine
 10
340.1389011390802
 20
186.4947123942969
 30
0.0
 11
356.0758797908193
 21
182.2244118347716
 31
0.0
  0
LINE
  5
619
330
1F
100
AcDbEntity
  8
LAY-10
  6
CONTINUOUS
 62
     7
100
AcDbLine
 10
513.0295634153172
 20
169.5546534076754
 30
0.0
 11
512.5
 21
159.44998149519
 31
0.0
  0
ARC
  5
61A
330
1F
100
AcDbEntity
  8
LAY-10
  6
CONTINUOUS
 62
     7
100
AcDbCircle
 10
515.0268224848269
 20
169.4499814951896
 30
0.0
 40
2.0
100
AcDbArc
 50
90.00000000000001
 51
177.0000000000009
  0
ARC
  5
61B
330
1F
100
AcDbEntity
  8
LAY-10
  6
CONTINUOUS
 62
     7
100
AcDbCircle
 10
374.2561831688172
 20
174.2471856852543
 30
0.0
 40
3.0
100
AcDbArc
 50
74.9999999999966
 51
174.9999999999959
  0
ARC
  5
61C
330
1F
100
AcDbEntity
  8
LAY-10
  6
CONTINUOUS
 62
     7
100
AcDbCircle
 10
355.299422655512
 20
179.3266343559043
 30
0.0
 40
3.0
100
AcDbArc
 50
4.999999999999859
 51
74.9999999999966
  0
LINE
  5
61D
330
1F
100
AcDbEntity
  8
LAY-10
  6
CONTINUOUS
 62
     7
100
AcDbLine
 10
358.2880067497872
 20
179.5881015841472
 30
0.0
 11
358.9201364759092
 21
172.3628257524409
 31
0.0
  0
ARC
  5
61E
330
1F
100
AcDbEntity
  8
LAY-10
  6
CONTINUOUS
 62
     7
100
AcDbCircle
 10
359.9163311740012
 20
172.4499814951886
 30
0.0
 40
1.0
100
AcDbArc
 50
185.0
 51
270.0
  0
LINE
  5
61F
330
1F
100
AcDbEntity
  8
LAY-10
  6
CONTINUOUS
 62
     7
100
AcDbLine
 10
370.0836688259715
 20
171.4499814951886
 30
0.0
 11
359.9163311740012
 21
171.4499814951886
 31
0.0
  0
LINE
  5
620
330
1F
100
AcDbEntity
  8
LAY-10
  6
CONTINUOUS
 62
     7
100
AcDbLine
 10
371.267599074542
 20
174.5086529134975
 30
0.0
 11
371.0798635240635
 21
172.3628257524409
 31
0.0
  0
ARC
  5
621
330
1F
100
AcDbEntity
  8
LAY-10
  6
CONTINUOUS
 62
     7
100
AcDbCircle
 10
370.0836688259715
 20
172.4499814951886
 30
0.0
 40
1.0
100
AcDbArc
 50
270.0
 51
355.0
  0
LINE
  5
622
330
1F
100
AcDbEntity
  8
LAY-10
  6
CONTINUOUS
 62
     7
100
AcDbLine
 10
521.9999999999991
 20
159.44998149519
 30
0.0
 11
407.9999999999991
 21
159.4499814951897
 31
0.0
  0
LINE
  5
623
330
1F
100
AcDbEntity
  8
LAY-10
  6
CONTINUOUS
 62
     7
100
AcDbLine
 10
410.0453658536616
 20
127.90168881225
 30
0.0
 11
519.954634146341
 21
127.90168881225
 31
0.0
  0
LINE
  5
624
330
1F
100
AcDbEntity
  8
LAY-10
  6
CONTINUOUS
 62
     7
100
AcDbLine
 10
527.4999999999991
 20
126.44998149519
 30
0.0
 11
402.499999999999
 21
126.44998149519
 31
0.0
  0
LINE
  5
625
330
1F
100
AcDbEntity
  8
LAY-10
  6
CONTINUOUS
 62
     7
100
AcDbLine
 10
521.9999999999991
 20
147.44998149519
 30
0.0
 11
407.9999999999991
 21
147.4499814951897
 31
0.0
  0
LINE
  5
626
330
1F
100
AcDbEntity
  8
LAY-10
  6
CONTINUOUS
 62
     7
100
AcDbLine
 10
512.7096311171326
 20
163.44998149519
 30
0.0
 11
408.3392308142857
 21
163.44998149519
 31
0.0
  0
LINE
  5
627
330
1F
100
AcDbEntity
  8
LAY-10
  6
CONTINUOUS
 62
     7
100
AcDbLine
 10
405.5201529519281
 20
165.423921065213
 30
0.0
 11
402.17804441724
 21
174.6062887976354
 31
0.0
  0
ARC
  5
628
330
1F
100
AcDbEntity
  8
LAY-10
  6
CONTINUOUS
 62
     7
100
AcDbCircle
 10
401.238351796454
 20
174.2642686543099
 30
0.0
 40
1.0
100
AcDbArc
 50
19.99999999999381
 51
75.00000000000554
  0
LINE
  5
629
330
1F
100
AcDbEntity
  8
LAY-10
  6
CONTINUOUS
 62
     7
100
AcDbLine
 10
526.9126387570473
 20
172.1079613518638
 30
0.0
 11
527.8219555827582
 21
174.6062887976354
 31
0.0
  0
ARC
  5
62A
330
1F
100
AcDbEntity
  8
LAY-10
  6
CONTINUOUS
 62
     7
100
AcDbCircle
 10
528.7616482035442
 20
174.2642686543099
 30
0.0
 40
1.0
100
AcDbArc
 50
104.9999999999945
 51
160.0000000000062
  0
LINE
  5
62B
330
1F
100
AcDbEntity
  8
LAY-10
  6
CONTINUOUS
 62
     7
100
AcDbLine
 10
367.4999999999964
 20
178.9499814952015
 30
0.0
 11
367.4999999999964
 21
171.4499814952043
 31
0.0
  0
LINE
  5
62C
330
1F
100
AcDbEntity
  8
LAY-10
  6
CONTINUOUS
 62
     7
100
AcDbLine
 10
362.4999999999968
 20
178.9499814952015
 30
0.0
 11
362.4999999999968
 21
171.4499814952043
 31
0.0
  0
LINE
  5
62D
330
1F
100
AcDbEntity
  8
LAY-10
  6
CONTINUOUS
 62
     7
100
AcDbLine
 10
361.9999999999982
 20
178.4499814952006
 30
0.0
 11
361.9999999999982
 21
171.4499814952043
 31
0.0
  0
LINE
  5
62E
330
1F
100
AcDbEntity
  8
LAY-10
  6
CONTINUOUS
 62
     7
100
AcDbLine
 10
367.9999999999973
 20
178.4499814952006
 30
0.0
 11
367.9999999999973
 21
171.4499814952043
 31
0.0
  0
LINE
  5
62F
330
1F
100
AcDbEntity
  8
LAY-10
  6
CONTINUOUS
 62
     7
100
AcDbLine
 10
367.9999999999973
 20
178.4499814952006
 30
0.0
 11
367.4999999999964
 21
178.9499814952015
 31
0.0
  0
LINE
  5
630
330
1F
100
AcDbEntity
  8
LAY-10
  6
CONTINUOUS
 62
     7
100
AcDbLine
 10
361.9999999999982
 20
178.4499814952006
 30
0.0
 11
362.4999999999968
 21
178.9499814952015
 31
0.0
  0
LINE
  5
631
330
1F
100
AcDbEntity
  8
LAY-10
  6
CONTINUOUS
 62
     7
100
AcDbLine
 10
367.4999999999991
 20
178.9499814952015
 30
0.0
 11
362.4999999999991
 21
178.9499814952015
 31
0.0
  0
LINE
  5
632
330
1F
100
AcDbEntity
  8
LAY-10
  6
CONTINUOUS
 62
     7
100
AcDbLine
 10
367.9999999999991
 20
178.4499814952006
 30
0.0
 11
361.9999999999991
 21
178.4499814952006
 31
0.0
  0
LINE
  5
633
330
1F
100
AcDbEntity
  8
LAY-10
  6
CONTINUOUS
 62
     7
100
AcDbLine
 10
350.5
 20
149.4499814952202
 30
0.0
 11
350.5
 21
154.4499814952202
 31
0.0
  0
LINE
  5
634
330
1F
100
AcDbEntity
  8
LAY-10
  6
CONTINUOUS
 62
     7
100
AcDbLine
 10
360.5000000000009
 20
154.4499814952202
 30
0.0
 11
350.5
 21
154.4499814952202
 31
0.0
  0
ARC
  5
635
330
1F
100
AcDbEntity
  8
LAY-10
  6
CONTINUOUS
 62
     7
100
AcDbCircle
 10
360.5000000000009
 20
156.4499814952202
 30
0.0
 40
2.0
100
AcDbArc
 50
270.0
 51
0.0
  0
LINE
  5
636
330
1F
100
AcDbEntity
  8
LAY-10
  6
CONTINUOUS
 62
     7
100
AcDbLine
 10
360.5000000000009
 20
149.4499814952202
 30
0.0
 11
350.5
 21
149.4499814952202
 31
0.0
  0
ARC
  5
637
330
1F
100
AcDbEntity
  8
LAY-10
  6
CONTINUOUS
 62
     7
100
AcDbCircle
 10
360.5000000000009
 20
156.4499814952202
 30
0.0
 40
7.000000000000004
100
AcDbArc
 50
270.0
 51
0.0
  0
LINE
  5
638
330
1F
100
AcDbEntity
  8
LAY-10
  6
CONTINUOUS
 62
     7
100
AcDbLine
 10
362.5
 20
156.4499814952161
 30
0.0
 11
362.5
 21
171.4499814952156
 31
0.0
  0
LINE
  5
639
330
1F
100
AcDbEntity
  8
LAY-10
  6
CONTINUOUS
 62
     7
100
AcDbLine
 10
367.5
 20
156.4499814952161
 30
0.0
 11
367.5
 21
171.4499814952156
 31
0.0
  0
LINE
  5
63A
330
1F
100
AcDbEntity
  8
LAY-10
  6
CONTINUOUS
 62
     7
100
AcDbLine
 10
367.4999999999964
 20
177.4499814952206
 30
0.0
 11
362.4999999999973
 21
177.4499814952206
 31
0.0
  0
LINE
  5
63B
330
1F
100
AcDbEntity
  8
LAY-10
  6
CONTINUOUS
 62
     7
100
AcDbLine
 10
367.9999999999982
 20
176.949981495222
 30
0.0
 11
361.9999999999991
 21
176.949981495222
 31
0.0
  0
LINE
  5
63C
330
1F
100
AcDbEntity
  8
LAY-10
  6
CONTINUOUS
 62
     7
100
AcDbLine
 10
362.0
 20
176.9499814952261
 30
0.0
 11
362.5
 21
177.4499814952161
 31
0.0
  0
LINE
  5
63D
330
1F
100
AcDbEntity
  8
LAY-10
  6
CONTINUOUS
 62
     7
100
AcDbLine
 10
367.5
 20
177.4499814952161
 30
0.0
 11
368.0
 21
176.9499814952261
 31
0.0
  0
LINE
  5
63E
330
1F
100
AcDbEntity
  8
LAY-10
  6
CONTINUOUS
 62
     7
100
AcDbLine
 10
367.5000000000182
 20
170.5839560914211
 30
0.0
 11
368.0000000000182
 21
171.4499814952052
 31
0.0
  0
LINE
  5
63F
330
1F
100
AcDbEntity
  8
LAY-10
  6
CONTINUOUS
 62
     7
100
AcDbLine
 10
362.4999999999877
 20
170.5839560914247
 30
0.0
 11
361.9999999999877
 21
171.4499814952088
 31
0.0
  0
LINE
  5
640
330
1F
100
AcDbEntity
  8
LAY-10
  6
CONTINUOUS
 62
     7
100
AcDbLine
 10
364.9999999999995
 20
181.3933571681765
 30
0.0
 11
367.5
 21
179.949981495202
 31
0.0
  0
LINE
  5
641
330
1F
100
AcDbEntity
  8
LAY-10
  6
CONTINUOUS
 62
     7
100
AcDbLine
 10
364.9999999999991
 20
181.3933571681765
 30
0.0
 11
362.4999999999982
 21
179.949981495202
 31
0.0
  0
LINE
  5
642
330
1F
100
AcDbEntity
  8
LAY-10
  6
CONTINUOUS
 62
     7
100
AcDbLine
 10
367.4999999999964
 20
179.9499814952006
 30
0.0
 11
362.4999999999968
 21
179.9499814952006
 31
0.0
  0
LINE
  5
643
330
1F
100
AcDbEntity
  8
LAY-10
  6
CONTINUOUS
 62
     7
100
AcDbLine
 10
367.4999999999964
 20
178.9499814952015
 30
0.0
 11
367.4999999999964
 21
179.9499814952006
 31
0.0
  0
LINE
  5
644
330
1F
100
AcDbEntity
  8
LAY-10
  6
CONTINUOUS
 62
     7
100
AcDbLine
 10
362.4999999999968
 20
178.9499814952015
 30
0.0
 11
362.4999999999968
 21
179.9499814951997
 31
0.0
  0
LINE
  5
645
330
1F
100
AcDbEntity
  8
LAY-10
  6
CONTINUOUS
 62
     7
100
AcDbLine
 10
522.2500000000009
 20
214.949981495153
 30
0.0
 11
525.0000000000009
 21
214.949981495153
 31
0.0
  0
LINE
  5
646
330
1F
100
AcDbEntity
  8
LAY-10
  6
CONTINUOUS
 62
     7
100
AcDbLine
 10
522.2500000000009
 20
214.4499814951566
 30
0.0
 11
525.5000000000009
 21
214.4499814951566
 31
0.0
  0
LINE
  5
647
330
1F
100
AcDbEntity
  8
LAY-10
  6
CONTINUOUS
 62
     7
100
AcDbLine
 10
520.7500000000009
 20
213.4499814951566
 30
0.0
 11
520.7500000000009
 21
214.949981495153
 31
0.0
  0
LINE
  5
648
330
1F
100
AcDbEntity
  8
LAY-10
  6
CONTINUOUS
 62
     7
100
AcDbLine
 10
522.2500000000009
 20
213.4499814951566
 30
0.0
 11
522.2500000000009
 21
214.949981495153
 31
0.0
  0
LINE
  5
649
330
1F
100
AcDbEntity
  8
LAY-10
  6
CONTINUOUS
 62
     7
100
AcDbLine
 10
525.0000000000009
 20
214.949981495153
 30
0.0
 11
525.5000000000009
 21
214.4499814951566
 31
0.0
  0
LINE
  5
64A
330
1F
100
AcDbEntity
  8
LAY-10
  6
CONTINUOUS
 62
     7
100
AcDbLine
 10
517.5000000000009
 20
214.4499814951566
 30
0.0
 11
518.0000000000014
 21
214.949981495153
 31
0.0
  0
LINE
  5
64B
330
1F
100
AcDbEntity
  8
LAY-10
  6
CONTINUOUS
 62
     7
100
AcDbLine
 10
517.5000000000009
 20
214.4499814951566
 30
0.0
 11
520.7500000000009
 21
214.4499814951566
 31
0.0
  0
LINE
  5
64C
330
1F
100
AcDbEntity
  8
LAY-10
  6
CONTINUOUS
 62
     7
100
AcDbLine
 10
518.0000000000009
 20
214.949981495153
 30
0.0
 11
520.7500000000009
 21
214.949981495153
 31
0.0
  0
LINE
  5
64D
330
1F
100
AcDbEntity
  8
LAY-10
  6
CONTINUOUS
 62
     7
100
AcDbLine
 10
520.7500000000009
 20
213.4499814951566
 30
0.0
 11
522.2500000000009
 21
213.4499814951566
 31
0.0
  0
LINE
  5
64E
330
1F
100
AcDbEntity
  8
LAY-10
  6
CONTINUOUS
 62
     7
100
AcDbLine
 10
518.0000000000018
 20
171.4499814951896
 30
0.0
 11
515.0268224848269
 21
171.4499814951896
 31
0.0
  0
LINE
  5
64F
330
1F
100
AcDbEntity
  8
LAY-10
  6
CONTINUOUS
 62
     7
100
AcDbLine
 10
525.9729461362613
 20
171.4499814951896
 30
0.0
 11
524.9999999999968
 21
171.4499814951896
 31
0.0
  0
LINE
  5
650
330
1F
100
AcDbEntity
  8
LAY-10
  6
CONTINUOUS
 62
     7
100
AcDbLine
 10
524.9999999999964
 20
171.4499814951996
 30
0.0
 11
524.9999999999964
 21
163.9499814952
 31
0.0
  0
LINE
  5
651
330
1F
100
AcDbEntity
  8
LAY-10
  6
CONTINUOUS
 62
     7
100
AcDbLine
 10
518.0000000000014
 20
171.4499814951996
 30
0.0
 11
518.0000000000014
 21
163.9499814952
 31
0.0
  0
LINE
  5
652
330
1F
100
AcDbEntity
  8
LAY-10
  6
CONTINUOUS
 62
     7
100
AcDbLine
 10
518.0000000000014
 20
163.9499814951996
 30
0.0
 11
521.4999999999995
 21
161.9292555530369
 31
0.0
  0
LINE
  5
653
330
1F
100
AcDbEntity
  8
LAY-10
  6
CONTINUOUS
 62
     7
100
AcDbLine
 10
521.4999999999995
 20
161.9292555530373
 30
0.0
 11
524.9999999999964
 21
163.9499814951991
 31
0.0
  0
LINE
  5
654
330
1F
100
AcDbEntity
  8
LAY-10
  6
CONTINUOUS
 62
     7
100
AcDbLine
 10
518.0000000000014
 20
163.9499814951991
 30
0.0
 11
524.9999999999968
 21
163.9499814951991
 31
0.0
  0
LINE
  5
655
330
1F
100
AcDbEntity
  8
LAY-10
  6
CONTINUOUS
 62
     7
100
AcDbLine
 10
517.5000000000009
 20
171.4499814951996
 30
0.0
 11
517.5000000000009
 21
165.4499814951991
 31
0.0
  0
LINE
  5
656
330
1F
100
AcDbEntity
  8
LAY-10
  6
CONTINUOUS
 62
     7
100
AcDbLine
 10
518.0000000000005
 20
164.9499814951978
 30
0.0
 11
517.5000000000009
 21
165.4499814951991
 31
0.0
  0
LINE
  5
657
330
1F
100
AcDbEntity
  8
LAY-10
  6
CONTINUOUS
 62
     7
100
AcDbLine
 10
517.5000000000009
 20
165.4499814951991
 30
0.0
 11
525.5000000000009
 21
165.4499814951991
 31
0.0
  0
LINE
  5
658
330
1F
100
AcDbEntity
  8
LAY-10
  6
CONTINUOUS
 62
     7
100
AcDbLine
 10
518.0000000000005
 20
164.9499814951978
 30
0.0
 11
525.0000000000014
 21
164.9499814951978
 31
0.0
  0
LINE
  5
659
330
1F
100
AcDbEntity
  8
LAY-10
  6
CONTINUOUS
 62
     7
100
AcDbLine
 10
525.0000000000014
 20
164.9499814951978
 30
0.0
 11
525.5000000000009
 21
165.4499814951991
 31
0.0
  0
LINE
  5
65A
330
1F
100
AcDbEntity
  8
LAY-10
  6
CONTINUOUS
 62
     7
100
AcDbLine
 10
525.5000000000009
 20
171.4499814951996
 30
0.0
 11
525.5000000000009
 21
165.4499814951991
 31
0.0
  0
LINE
  5
65B
330
1F
100
AcDbEntity
  8
LAY-10
  6
CONTINUOUS
 62
     7
100
AcDbLine
 10
411.7903688828674
 20
179.3038991380146
 30
0.0
 11
411.9999999999995
 21
175.3038991380101
 31
0.0
  0
ARC
  5
65C
330
1F
100
AcDbEntity
  8
LAY-10
  6
CONTINUOUS
 62
     7
100
AcDbCircle
 10
344.9905177860965
 20
192.4416588946875
 30
0.0
 40
2.0
100
AcDbArc
 50
201.5403870957632
 51
254.9999999999989
  0
LINE
  5
65D
330
1F
100
AcDbEntity
  8
LAY-10
  6
CONTINUOUS
 62
     7
100
AcDbLine
 10
587.4999999999991
 20
193.3038991380101
 30
0.0
 11
586.869800203131
 21
191.7073449434715
 31
0.0
  0
ARC
  5
65E
330
1F
100
AcDbEntity
  8
LAY-10
  6
CONTINUOUS
 62
     7
100
AcDbCircle
 10
585.0094822139017
 20
192.4416588946876
 30
0.0
 40
2.0
100
AcDbArc
 50
285.0000000000012
 51
338.4596129042369
  0
ARC
  5
65F
330
1F
100
AcDbEntity
  8
LAY-10
  6
CONTINUOUS
 62
     7
100
AcDbCircle
 10
552.1309639551123
 20
192.3038991380147
 30
0.0
 40
1.0
100
AcDbArc
 50
8.016364711306379
 51
90.00000000000001
  0
ARC
  5
660
330
1F
100
AcDbEntity
  8
LAY-10
  6
CONTINUOUS
 62
     7
100
AcDbCircle
 10
549.8917393065376
 20
192.3038991380147
 30
0.0
 40
1.0
100
AcDbArc
 50
90.00000000000001
 51
173.4492850280492
  0
LINE
  5
661
330
1F
100
AcDbEntity
  8
LAY-10
  6
CONTINUOUS
 62
     7
100
AcDbLine
 10
531.983339501618
 20
180.3038991380142
 30
0.0
 11
547.3429499985969
 21
184.4194943667364
 31
0.0
  0
ARC
  5
662
330
1F
100
AcDbEntity
  8
LAY-10
  6
CONTINUOUS
 62
     7
100
AcDbCircle
 10
547.0841309534944
 20
185.3854201930255
 30
0.0
 40
1.0
100
AcDbArc
 50
284.9999999999944
 51
353.4492850280493
  0
ARC
  5
663
330
1F
100
AcDbEntity
  8
LAY-10
  6
CONTINUOUS
 62
     7
100
AcDbCircle
 10
554.8326473706138
 20
187.4616289095318
 30
0.0
 40
1.0
100
AcDbArc
 50
188.0163647113064
 51
284.9999999999944
  0
ARC
  5
664
330
1F
100
AcDbEntity
  8
LAY-10
  6
CONTINUOUS
 62
     7
100
AcDbCircle
 10
377.8690360448859
 20
192.3038991380148
 30
0.0
 40
1.0
100
AcDbArc
 50
90.00000000000001
 51
171.9836352886937
  0
ARC
  5
665
330
1F
100
AcDbEntity
  8
LAY-10
  6
CONTINUOUS
 62
     7
100
AcDbCircle
 10
380.1082606934606
 20
192.3038991380148
 30
0.0
 40
1.0
100
AcDbArc
 50
6.550714971950775
 51
90.00000000000001
  0
LINE
  5
666
330
1F
100
AcDbEntity
  8
LAY-10
  6
CONTINUOUS
 62
     7
100
AcDbLine
 10
376.8788077668914
 20
192.4433550717721
 30
0.0
 11
376.1575809073784
 21
187.3221729757744
 31
0.0
  0
ARC
  5
667
330
1F
100
AcDbEntity
  8
LAY-10
  6
CONTINUOUS
 62
     7
100
AcDbCircle
 10
375.1673526293844
 20
187.4616289095317
 30
0.0
 40
1.0
100
AcDbArc
 50
255.0000000000056
 51
351.9836352886937
  0
LINE
  5
668
330
1F
100
AcDbEntity
  8
LAY-10
  6
CONTINUOUS
 62
     7
100
AcDbLine
 10
374.9085335842815
 20
186.4957030832426
 30
0.0
 11
349.4999999999991
 21
193.30389913801
 31
0.0
  0
LINE
  5
669
330
1F
100
AcDbEntity
  8
LAY-10
  6
CONTINUOUS
 62
     7
100
AcDbLine
 10
460.7180431613787
 20
180.7522594900203
 30
0.0
 11
471.3433568846089
 21
180.7522594900203
 31
0.0
  0
LINE
  5
66A
330
1F
100
AcDbEntity
  8
LAY-10
  6
CONTINUOUS
 62
     7
100
AcDbLine
 10
555.0914664157162
 20
186.4957030832427
 30
0.0
 11
580.4999999999991
 21
193.3038991380101
 31
0.0
  0
LINE
  5
66B
330
1F
100
AcDbEntity
  8
LAY-10
  6
CONTINUOUS
 62
     7
100
AcDbLine
 10
553.1211922331067
 20
192.4433550717722
 30
0.0
 11
553.8424190926198
 21
187.3221729757745
 31
0.0
  0
ARC
  5
66C
330
1F
100
AcDbEntity
  8
LAY-10
  6
CONTINUOUS
 62
     7
100
AcDbCircle
 10
545.6066500300276
 20
185.5955503840003
 30
0.0
 40
1.0
100
AcDbArc
 50
270.0
 51
352.3580890220773
  0
LINE
  5
66D
330
1F
100
AcDbEntity
  8
LAY-10
  6
CONTINUOUS
 62
     7
100
AcDbLine
 10
548.8982680411282
 20
192.4179817607339
 30
0.0
 11
548.0776022189038
 21
185.2713375703095
 31
0.0
  0
LINE
  5
66E
330
1F
100
AcDbEntity
  8
LAY-10
  6
CONTINUOUS
 62
     7
100
AcDbLine
 10
547.5335333404028
 20
192.4368805516849
 30
0.0
 11
546.5977685615958
 21
185.46256897033
 31
0.0
  0
ARC
  5
66F
330
1F
100
AcDbEntity
  8
LAY-10
  6
CONTINUOUS
 62
     7
100
AcDbCircle
 10
548.5246518719714
 20
192.3038991380147
 30
0.0
 40
1.0
100
AcDbArc
 50
90.00000000000001
 51
172.3580890220772
  0
ARC
  5
670
330
1F
100
AcDbEntity
  8
LAY-10
  6
CONTINUOUS
 62
     7
100
AcDbCircle
 10
547.0058319319987
 20
192.3038991380147
 30
0.0
 40
1.0
100
AcDbArc
 50
40.58779027760932
 51
90.00000000000001
  0
LINE
  5
671
330
1F
100
AcDbEntity
  8
LAY-10
  6
CONTINUOUS
 62
     7
100
AcDbLine
 10
544.5396020684857
 20
184.5955503840002
 30
0.0
 11
545.6066500300276
 21
184.5955503840003
 31
0.0
  0
ARC
  5
672
330
1F
100
AcDbEntity
  8
LAY-10
  6
CONTINUOUS
 62
     7
100
AcDbCircle
 10
544.5396020684857
 20
185.5955503840002
 30
0.0
 40
1.0
100
AcDbArc
 50
175.9947651288325
 51
270.0
  0
ARC
  5
673
330
1F
100
AcDbEntity
  8
LAY-10
  6
CONTINUOUS
 62
     7
100
AcDbCircle
 10
382.9941680679995
 20
192.3038991380148
 30
0.0
 40
1.0
100
AcDbArc
 50
90.00000000000001
 51
139.4122097223924
  0
ARC
  5
674
330
1F
100
AcDbEntity
  8
LAY-10
  6
CONTINUOUS
 62
     7
100
AcDbCircle
 10
381.4753481280268
 20
192.3038991380148
 30
0.0
 40
1.0
100
AcDbArc
 50
7.641910977922825
 51
90.00000000000001
  0
LINE
  5
675
330
1F
100
AcDbEntity
  8
LAY-10
  6
CONTINUOUS
 62
     7
100
AcDbLine
 10
382.4664666595954
 20
192.4368805516848
 30
0.0
 11
383.1551745214615
 21
187.3038991380146
 31
0.0
  0
LINE
  5
676
330
1F
100
AcDbEntity
  8
LAY-10
  6
CONTINUOUS
 62
     7
100
AcDbLine
 10
342.4999999999991
 20
193.30389913801
 30
0.0
 11
343.1301997968671
 21
191.7073449434714
 31
0.0
  0
LINE
  5
677
330
1F
100
AcDbEntity
  8
LAY-10
  6
CONTINUOUS
 62
     7
100
AcDbLine
 10
464.9999999999991
 20
179.3038991380146
 30
0.0
 11
510.7096311171353
 21
179.3038991380147
 31
0.0
  0
LINE
  5
678
330
1F
100
AcDbEntity
  8
LAY-10
  6
CONTINUOUS
 62
     7
100
AcDbLine
 10
526.999999999995
 20
180.3038991380147
 30
0.0
 11
527.2123739283707
 21
176.2515631817718
 31
0.0
  0
ARC
  5
679
330
1F
100
AcDbEntity
  8
LAY-10
  6
CONTINUOUS
 62
     7
100
AcDbCircle
 10
528.211003463125
 20
176.3038991380147
 30
0.0
 40
1.0
100
AcDbArc
 50
182.9999999999989
 51
270.0
  0
ARC
  5
67A
330
1F
100
AcDbEntity
  8
LAY-10
  6
CONTINUOUS
 62
     7
100
AcDbCircle
 10
514.7889965368731
 20
176.3038991380147
 30
0.0
 40
1.0
100
AcDbArc
 50
270.0
 51
357.0000000000008
  0
LINE
  5
67B
330
1F
100
AcDbEntity
  8
LAY-10
  6
CONTINUOUS
 62
     7
100
AcDbLine
 10
516.0000000000036
 20
180.3038991380147
 30
0.0
 11
515.787626071628
 21
176.2515631817703
 31
0.0
  0
LINE
  5
67C
330
1F
100
AcDbEntity
  8
LAY-10
  6
CONTINUOUS
 62
     7
100
AcDbLine
 10
401.7487113059492
 20
179.3038991380146
 30
0.0
 11
455.2096311171353
 21
179.3038991380146
 31
0.0
  0
LINE
  5
67D
330
1F
100
AcDbEntity
  8
LAY-10
  6
CONTINUOUS
 62
     7
100
AcDbLine
 10
381.10173195887
 20
192.4179817607338
 30
0.0
 11
381.5872620363707
 21
188.1898165152958
 31
0.0
  0
LINE
  5
67E
330
1F
100
AcDbEntity
  8
LAY-10
  6
CONTINUOUS
 62
     7
100
AcDbLine
 10
396.3053325866586
 20
181.4778063167368
 30
0.0
 11
396.0496649680381
 21
186.3562350942576
 31
0.0
  0
LINE
  5
67F
330
1F
100
AcDbEntity
  8
LAY-10
  6
CONTINUOUS
 62
     7
100
AcDbLine
 10
401.7487113059474
 20
179.3038991380146
 30
0.0
 11
397.0451430763105
 21
180.5642164466905
 31
0.0
  0
LINE
  5
680
330
1F
100
AcDbEntity
  8
LAY-10
  6
CONTINUOUS
 62
     7
100
AcDbLine
 10
456.2110034631332
 20
180.3038991380101
 30
0.0
 11
464.9999999999991
 21
180.3038991380101
 31
0.0
  0
LINE
  5
681
330
1F
100
AcDbEntity
  8
LAY-10
  6
CONTINUOUS
 62
     7
100
AcDbLine
 10
455.0000000000031
 20
175.3038991380146
 30
0.0
 11
455.2123739283783
 21
179.3562350942531
 31
0.0
  0
LINE
  5
682
330
1F
100
AcDbEntity
  8
LAY-10
  6
CONTINUOUS
 62
     7
100
AcDbLine
 10
460.9588143183072
 20
186.3468954121133
 30
0.0
 11
460.7180431613787
 21
180.7522594900201
 31
0.0
  0
LINE
  5
683
330
1F
100
AcDbEntity
  8
LAY-10
  6
CONTINUOUS
 62
     7
100
AcDbLine
 10
471.049664968038
 20
186.3562350942524
 30
0.0
 11
471.3433568846089
 21
180.7522594900201
 31
0.0
  0
LINE
  5
684
330
1F
100
AcDbEntity
  8
LAY-10
  6
CONTINUOUS
 62
     7
100
AcDbLine
 10
531.9833395016194
 20
180.3038991380147
 30
0.0
 11
511.7110034631332
 21
180.3038991380147
 31
0.0
  0
LINE
  5
685
330
1F
100
AcDbEntity
  8
LAY-10
  6
CONTINUOUS
 62
     7
100
AcDbLine
 10
510.5000000000036
 20
175.3038991380147
 30
0.0
 11
510.7123739283788
 21
179.3562350942577
 31
0.0
  0
ARC
  5
686
330
1F
100
AcDbEntity
  8
LAY-10
  6
CONTINUOUS
 62
     7
100
AcDbCircle
 10
395.0510354332837
 20
186.3038991380146
 30
0.0
 40
1.0
100
AcDbArc
 50
2.999999999998918
 51
90.00000000000001
  0
ARC
  5
687
330
1F
100
AcDbEntity
  8
LAY-10
  6
CONTINUOUS
 62
     7
100
AcDbCircle
 10
382.5807333017797
 20
188.3038991380146
 30
0.0
 40
1.0
100
AcDbArc
 50
186.5507149719508
 51
270.0
  0
ARC
  5
688
330
1F
100
AcDbEntity
  8
LAY-10
  6
CONTINUOUS
 62
     7
100
AcDbCircle
 10
397.303962121413
 20
181.5301422729796
 30
0.0
 40
1.0
100
AcDbArc
 50
182.9999999999989
 51
255.0000000000056
  0
ARC
  5
689
330
1F
100
AcDbEntity
  8
LAY-10
  6
CONTINUOUS
 62
     7
100
AcDbCircle
 10
456.2110034631332
 20
179.3038991380101
 30
0.0
 40
1.0
100
AcDbArc
 50
90.00000000000001
 51
177.0000000000009
  0
ARC
  5
68A
330
1F
100
AcDbEntity
  8
LAY-10
  6
CONTINUOUS
 62
     7
100
AcDbCircle
 10
461.9578895509166
 20
186.3038991380101
 30
0.0
 40
1.0
100
AcDbArc
 50
90.00000000000001
 51
177.5357352883752
  0
ARC
  5
68B
330
1F
100
AcDbEntity
  8
LAY-10
  6
CONTINUOUS
 62
     7
100
AcDbCircle
 10
470.0510354332836
 20
186.3038991380101
 30
0.0
 40
1.0
100
AcDbArc
 50
2.999999999966374
 51
90.00000000000001
  0
ARC
  5
68C
330
1F
100
AcDbEntity
  8
LAY-10
  6
CONTINUOUS
 62
     7
100
AcDbCircle
 10
511.7110034631332
 20
179.3038991380147
 30
0.0
 40
1.0
100
AcDbArc
 50
90.00000000000001
 51
177.0000000000011
  0
LINE
  5
68D
330
1F
100
AcDbEntity
  8
LAY-10
  6
CONTINUOUS
 62
     7
100
AcDbLine
 10
391.0000000000018
 20
183.3038991379975
 30
0.0
 11
385.0000000000018
 21
183.3038991379975
 31
0.0
  0
LINE
  5
68E
330
1F
100
AcDbEntity
  8
LAY-10
  6
CONTINUOUS
 62
     7
100
AcDbLine
 10
390.5000000000018
 20
194.8038991379957
 30
0.0
 11
390.5000000000018
 21
182.8038991379975
 31
0.0
  0
LINE
  5
68F
330
1F
100
AcDbEntity
  8
LAY-10
  6
CONTINUOUS
 62
     7
100
AcDbLine
 10
385.5000000000018
 20
194.8038991379957
 30
0.0
 11
385.5000000000018
 21
182.8038991379975
 31
0.0
  0
LINE
  5
690
330
1F
100
AcDbEntity
  8
LAY-10
  6
CONTINUOUS
 62
     7
100
AcDbLine
 10
391.0000000000018
 20
194.8038991379957
 30
0.0
 11
391.0000000000018
 21
183.3038991379975
 31
0.0
  0
LINE
  5
691
330
1F
100
AcDbEntity
  8
LAY-10
  6
CONTINUOUS
 62
     7
100
AcDbLine
 10
385.5000000000018
 20
182.8038991379975
 30
0.0
 11
390.5000000000018
 21
182.8038991379975
 31
0.0
  0
LINE
  5
692
330
1F
100
AcDbEntity
  8
LAY-10
  6
CONTINUOUS
 62
     7
100
AcDbLine
 10
385.0000000000018
 20
194.8038991379957
 30
0.0
 11
385.0000000000018
 21
183.3038991379975
 31
0.0
  0
LINE
  5
693
330
1F
100
AcDbEntity
  8
LAY-10
  6
CONTINUOUS
 62
     7
100
AcDbLine
 10
390.5000000000018
 20
182.8038991379975
 30
0.0
 11
391.0000000000018
 21
183.3038991379975
 31
0.0
  0
LINE
  5
694
330
1F
100
AcDbEntity
  8
LAY-10
  6
CONTINUOUS
 62
     7
100
AcDbLine
 10
385.5000000000018
 20
182.8038991379975
 30
0.0
 11
385.0000000000018
 21
183.3038991379975
 31
0.0
  0
ARC
  5
695
330
1F
100
AcDbEntity
  8
LAY-10
  6
CONTINUOUS
 62
     7
100
AcDbCircle
 10
388.0000000000018
 20
192.5038991379955
 30
0.0
 40
6.299999999999999
100
AcDbArc
 50
95.46502379990919
 51
128.682187453495
  0
ARC
  5
696
330
1F
100
AcDbEntity
  8
LAY-10
  6
CONTINUOUS
 62
     7
100
AcDbCircle
 10
388.0000000000018
 20
192.5038991379955
 30
0.0
 40
6.299999999999999
100
AcDbArc
 50
51.31781254649727
 51
84.53497620009915
  0
LINE
  5
697
330
1F
100
AcDbEntity
  8
LAY-10
  6
CONTINUOUS
 62
     7
100
AcDbLine
 10
387.4000000000019
 20
198.7752626260957
 30
0.0
 11
387.4000000000019
 21
196.3038991379957
 31
0.0
  0
LINE
  5
698
330
1F
100
AcDbEntity
  8
LAY-10
  6
CONTINUOUS
 62
     7
100
AcDbLine
 10
388.6000000000017
 20
196.3038991379957
 30
0.0
 11
387.4000000000019
 21
196.3038991379957
 31
0.0
  0
LINE
  5
699
330
1F
100
AcDbEntity
  8
LAY-10
  6
CONTINUOUS
 62
     7
100
AcDbLine
 10
388.6000000000017
 20
198.7752626260957
 30
0.0
 11
388.6000000000017
 21
196.3038991379957
 31
0.0
  0
LINE
  5
69A
330
1F
100
AcDbEntity
  8
LAY-10
  6
CONTINUOUS
 62
     7
100
AcDbLine
 10
393.2481347569018
 20
194.8038991379957
 30
0.0
 11
382.7518652431017
 21
194.8038991379957
 31
0.0
  0
ARC
  5
69B
330
1F
100
AcDbEntity
  8
LAY-10
  6
CONTINUOUS
 62
     7
100
AcDbCircle
 10
389.7500000000018
 20
194.6896484373955
 30
0.0
 40
3.5
100
AcDbArc
 50
1.870641730603566
 51
51.31781254650117
  0
ARC
  5
69C
330
1F
100
AcDbEntity
  8
LAY-10
  6
CONTINUOUS
 62
     7
100
AcDbCircle
 10
386.2500000000018
 20
194.6896484373955
 30
0.0
 40
3.5
100
AcDbArc
 50
128.6821874534945
 51
178.1293582694081
  0
ARC
  5
69D
330
1F
100
AcDbEntity
  8
LAY-10
  6
CONTINUOUS
 62
     7
100
AcDbCircle
 10
384.9906885755713
 20
192.3038991380148
 30
0.0
 40
1.0
100
AcDbArc
 50
89.46648696919085
 51
90.00000000000001
  0
LINE
  5
69E
330
1F
100
AcDbEntity
  8
LAY-10
  6
CONTINUOUS
 62
     7
100
AcDbLine
 10
384.0786116689177
 20
193.3038991380145
 30
0.0
 11
342.4999999999991
 21
193.3038991380145
 31
0.0
  0
LINE
  5
69F
330
1F
100
AcDbEntity
  8
LAY-10
  6
CONTINUOUS
 62
     7
100
AcDbLine
 10
385.0000000000018
 20
193.3038991380146
 30
0.0
 11
384.9906885755713
 21
193.3038991380145
 31
0.0
  0
LINE
  5
6A0
330
1F
100
AcDbEntity
  8
LAY-10
  6
CONTINUOUS
 62
     7
100
AcDbLine
 10
384.9999999999991
 20
179.6505980850651
 30
0.0
 11
384.9999999999991
 21
183.3038991380002
 31
0.0
  0
LINE
  5
6A1
330
1F
100
AcDbEntity
  8
LAY-10
  6
CONTINUOUS
 62
     7
100
AcDbLine
 10
385.4999999999995
 20
182.8038991380003
 30
0.0
 11
385.4999999999995
 21
179.5166234888494
 31
0.0
  0
LINE
  5
6A2
330
1F
100
AcDbEntity
  8
LAY-10
  6
CONTINUOUS
 62
     7
100
AcDbLine
 10
390.4999999999995
 20
182.8038991380003
 30
0.0
 11
390.4999999999995
 21
178.1768775266939
 31
0.0
  0
LINE
  5
6A3
330
1F
100
AcDbEntity
  8
LAY-10
  6
CONTINUOUS
 62
     7
100
AcDbLine
 10
390.9999999999995
 20
183.3038991380003
 30
0.0
 11
390.9999999999995
 21
178.0429029304784
 31
0.0
  0
LINE
  5
6A4
330
1F
100
AcDbEntity
  8
LAY-10
  6
CONTINUOUS
 62
     7
100
AcDbLine
 10
544.0117537516826
 20
192.3737467546432
 30
0.0
 11
544.0068631176036
 21
192.3038991379958
 31
0.0
  0
LINE
  5
6A5
330
1F
100
AcDbEntity
  8
LAY-10
  6
CONTINUOUS
 62
     7
100
AcDbLine
 10
543.6567699924808
 20
187.3038991379958
 30
0.0
 11
543.542044395741
 21
185.6653980006283
 31
0.0
  0
LINE
  5
6A6
330
1F
100
AcDbEntity
  8
LAY-10
  6
CONTINUOUS
 62
     7
100
AcDbLine
 10
333.4999999999991
 20
193.4499814951899
 30
0.0
 11
384.0709558169856
 21
193.4499814951899
 31
0.0
  0
LINE
  5
6A7
330
1F
100
AcDbEntity
  8
LAY-10
  6
CONTINUOUS
 62
     7
100
AcDbLine
 10
528.5028291584417
 20
175.2301944805988
 30
0.0
 11
596.4999999999982
 21
193.4499814951939
 31
0.0
  0
LINE
  5
6A8
330
1F
100
AcDbEntity
  8
LAY-10
  6
CONTINUOUS
 62
     7
100
AcDbLine
 10
527.5000000000014
 20
187.1038991379955
 30
0.0
 11
515.5000000000014
 21
187.1038991379955
 31
0.0
  0
ARC
  5
6A9
330
1F
100
AcDbEntity
  8
LAY-10
  6
CONTINUOUS
 62
     7
100
AcDbCircle
 10
515.5000000000014
 20
184.0561023465516
 30
0.0
 40
3.047796791443853
100
AcDbArc
 50
48.98840640770312
 51
131.0115935922985
  0
ARC
  5
6AA
330
1F
100
AcDbEntity
  8
LAY-10
  6
CONTINUOUS
 62
     7
100
AcDbCircle
 10
521.5000000000014
 20
176.03471197222
 30
0.0
 40
11.06918716577541
100
AcDbArc
 50
68.81604434177301
 51
111.1839556582276
  0
ARC
  5
6AB
330
1F
100
AcDbEntity
  8
LAY-10
  6
CONTINUOUS
 62
     7
100
AcDbCircle
 10
527.5000000000014
 20
184.056102346552
 30
0.0
 40
3.047796791443853
100
AcDbArc
 50
48.98840640770312
 51
131.0115935922985
  0
LINE
  5
6AC
330
1F
100
AcDbEntity
  8
LAY-10
  6
CONTINUOUS
 62
     7
100
AcDbLine
 10
513.5000000000014
 20
180.3038991379958
 30
0.0
 11
513.5000000000014
 21
186.3558991379955
 31
0.0
  0
LINE
  5
6AD
330
1F
100
AcDbEntity
  8
LAY-10
  6
CONTINUOUS
 62
     7
100
AcDbLine
 10
529.5000000000014
 20
180.3038991379958
 30
0.0
 11
529.5000000000014
 21
186.3558991379955
 31
0.0
  0
LINE
  5
6AE
330
1F
100
AcDbEntity
  8
LAY-10
  6
CONTINUOUS
 62
     7
100
AcDbLine
 10
517.5000000000014
 20
187.1038991379955
 30
0.0
 11
517.5000000000009
 21
214.4499814951562
 31
0.0
  0
LINE
  5
6AF
330
1F
100
AcDbEntity
  8
LAY-10
  6
CONTINUOUS
 62
     7
100
AcDbLine
 10
518.0000000000014
 20
187.1038991379955
 30
0.0
 11
518.0000000000009
 21
214.9499814951562
 31
0.0
  0
LINE
  5
6B0
330
1F
100
AcDbEntity
  8
LAY-10
  6
CONTINUOUS
 62
     7
100
AcDbLine
 10
517.5000000000014
 20
171.44998149519
 30
0.0
 11
517.5000000000014
 21
186.355899138
 31
0.0
  0
LINE
  5
6B1
330
1F
100
AcDbEntity
  8
LAY-10
  6
CONTINUOUS
 62
     7
100
AcDbLine
 10
525.0000000000014
 20
187.1038991379955
 30
0.0
 11
525.0000000000009
 21
214.9499814951562
 31
0.0
  0
LINE
  5
6B2
330
1F
100
AcDbEntity
  8
LAY-10
  6
CONTINUOUS
 62
     7
100
AcDbLine
 10
525.5000000000014
 20
187.1038991379955
 30
0.0
 11
525.5000000000009
 21
214.4499814951562
 31
0.0
  0
LINE
  5
6B3
330
1F
100
AcDbEntity
  8
LAY-10
  6
CONTINUOUS
 62
     7
100
AcDbLine
 10
525.5000000000014
 20
171.44998149519
 30
0.0
 11
525.5000000000014
 21
186.355899138
 31
0.0
  0
LINE
  5
6B4
330
1F
100
AcDbEntity
  8
LAY-10
  6
CONTINUOUS
 62
     7
100
AcDbLine
 10
517.9999999999995
 20
171.44998149519
 30
0.0
 11
517.9999999999995
 21
180.3038991380147
 31
0.0
  0
LINE
  5
6B5
330
1F
100
AcDbEntity
  8
LAY-10
  6
CONTINUOUS
 62
     7
100
AcDbLine
 10
524.9999999999995
 20
171.44998149519
 30
0.0
 11
524.9999999999995
 21
180.3038991380147
 31
0.0
  0
LINE
  5
6B6
330
1F
100
AcDbEntity
  8
LAY-10
  6
CONTINUOUS
 62
     7
100
AcDbLine
 10
401.222101315599
 20
175.3038991380146
 30
0.0
 11
517.5000000000014
 21
175.3038991380147
 31
0.0
  0
LINE
  5
6B7
330
1F
100
AcDbEntity
  8
LAY-10
  6
CONTINUOUS
 62
     7
100
AcDbLine
 10
525.5000000000014
 20
175.3038991380147
 30
0.0
 11
528.7778986844005
 21
175.3038991380147
 31
0.0
  0
LINE
  5
6B8
330
1F
100
AcDbEntity
  8
LAY-10
  6
CONTINUOUS
 62
     7
100
AcDbLine
 10
401.4971708415565
 20
175.2301944805988
 30
0.0
 11
333.5
 21
193.4499814951938
 31
0.0
  0
LINE
  5
6B9
330
1F
100
AcDbEntity
  8
LAY-10
  6
CONTINUOUS
 62
     7
100
AcDbLine
 10
382.5807333017797
 20
187.3038991380146
 30
0.0
 11
385.5000000000018
 21
187.3038991380146
 31
0.0
  0
ARC
  5
6BA
330
1F
100
AcDbEntity
  8
LAY-10
  6
CONTINUOUS
 62
     7
100
AcDbCircle
 10
546.3647564352407
 20
171.7340740263997
 30
0.0
 40
3.0
100
AcDbArc
 50
104.9999999999989
 51
176.5572293901689
  0
LINE
  5
6BB
330
1F
100
AcDbEntity
  8
LAY-10
  6
CONTINUOUS
 62
     7
100
AcDbLine
 10
543.3701706003344
 20
171.9142286193998
 30
0.0
 11
542.556547396938
 21
158.3899299641898
 31
0.0
  0
ARC
  5
6BC
330
1F
100
AcDbEntity
  8
LAY-10
  6
CONTINUOUS
 62
     7
100
AcDbCircle
 10
541.5583521186359
 20
158.4499814951899
 30
0.0
 40
1.0
100
AcDbArc
 50
270.0
 51
356.5572293901689
  0
ARC
  5
6BD
330
1F
100
AcDbEntity
  8
LAY-10
  6
CONTINUOUS
 62
     7
100
AcDbCircle
 10
538.3471270883822
 20
158.4499814951899
 30
0.0
 40
1.0
100
AcDbArc
 50
189.4623222080251
 51
270.0
  0
LINE
  5
6BE
330
1F
100
AcDbEntity
  8
LAY-10
  6
CONTINUOUS
 62
     7
100
AcDbLine
 10
537.3607331645501
 20
158.2855825078845
 30
0.0
 11
536.6392668354483
 21
162.6143804824954
 31
0.0
  0
ARC
  5
6BF
330
1F
100
AcDbEntity
  8
LAY-10
  6
CONTINUOUS
 62
     7
100
AcDbCircle
 10
535.652872911616
 20
162.44998149519
 30
0.0
 40
1.0
100
AcDbArc
 50
9.462322208026144
 51
90.00000000000001
  0
ARC
  5
6C0
330
1F
100
AcDbEntity
  8
LAY-10
  6
CONTINUOUS
 62
     7
100
AcDbCircle
 10
394.347127088382
 20
162.44998149519
 30
0.0
 40
1.0
100
AcDbArc
 50
90.00000000000001
 51
170.5376777919755
  0
LINE
  5
6C1
330
1F
100
AcDbEntity
  8
LAY-10
  6
CONTINUOUS
 62
     7
100
AcDbLine
 10
392.6392668354481
 20
158.2855825078844
 30
0.0
 11
393.3607331645498
 21
162.6143804824953
 31
0.0
  0
ARC
  5
6C2
330
1F
100
AcDbEntity
  8
LAY-10
  6
CONTINUOUS
 62
     7
100
AcDbCircle
 10
391.652872911616
 20
158.4499814951898
 30
0.0
 40
1.0
100
AcDbArc
 50
270.0
 51
350.5376777919739
  0
ARC
  5
6C3
330
1F
100
AcDbEntity
  8
LAY-10
  6
CONTINUOUS
 62
     7
100
AcDbCircle
 10
388.4416478813623
 20
158.4499814951898
 30
0.0
 40
1.0
100
AcDbArc
 50
183.4427706098311
 51
270.0
  0
LINE
  5
6C4
330
1F
100
AcDbEntity
  8
LAY-10
  6
CONTINUOUS
 62
     7
100
AcDbLine
 10
386.6298293996638
 20
171.9142286193997
 30
0.0
 11
387.4434526030602
 21
158.3899299641897
 31
0.0
  0
ARC
  5
6C5
330
1F
100
AcDbEntity
  8
LAY-10
  6
CONTINUOUS
 62
     7
100
AcDbCircle
 10
383.6352435647575
 20
171.7340740263996
 30
0.0
 40
3.0
100
AcDbArc
 50
3.442770609831286
 51
75.00000000000108
  0
LINE
  5
6C6
330
1F
100
AcDbEntity
  8
LAY-10
  6
CONTINUOUS
 62
     7
100
AcDbLine
 10
530.4474058007372
 20
163.44998149519
 30
0.0
 11
535.6528729115992
 21
163.44998149519
 31
0.0
  0
LINE
  5
6C7
330
1F
100
AcDbEntity
  8
LAY-10
  6
CONTINUOUS
 62
     7
100
AcDbLine
 10
399.5525941992614
 20
163.44998149519
 30
0.0
 11
394.347127088399
 21
163.44998149519
 31
0.0
  0
LINE
  5
6C8
330
1F
100
AcDbEntity
  8
LAY-10
  6
CONTINUOUS
 62
     7
100
AcDbLine
 10
388.4416478813991
 20
157.44998149519
 30
0.0
 11
395.0000000000004
 21
157.44998149519
 31
0.0
  0
LINE
  5
6C9
330
1F
100
AcDbEntity
  8
LAY-10
  6
CONTINUOUS
 62
     7
100
AcDbLine
 10
541.558352118599
 20
157.4499814951901
 30
0.0
 11
535.0000000000005
 21
157.4499814951901
 31
0.0
  0
LINE
  5
6CA
330
1F
100
AcDbEntity
  8
LAY-10
  6
CONTINUOUS
 62
     7
100
AcDbLine
 10
375.0326403041245
 20
177.1449631641216
 30
0.0
 11
384.4117007000959
 21
174.6318515052584
 31
0.0
  0
LINE
  5
6CB
330
1F
100
AcDbEntity
  8
LAY-10
  6
HIDDEN
 62
     7
100
AcDbLine
 10
438.2363668424228
 20
330.3109864122831
 30
0.0
 11
436.9999999999992
 21
323.1866714489509
 31
0.0
  0
LINE
  5
6CC
330
1F
100
AcDbEntity
  8
LAY-10
  6
HIDDEN
 62
     7
100
AcDbLine
 10
491.7636331575755
 20
330.3109864122831
 30
0.0
 11
492.9999999999992
 21
323.1866714489509
 31
0.0
  0
LINE
  5
6CD
330
1F
100
AcDbEntity
  8
LAY-10
  6
CONTINUOUS
 62
     7
100
AcDbLine
 10
421.8610814747857
 20
297.1060485141056
 30
0.0
 11
402.5
 21
187.303899138
 31
0.0
  0
ARC
  5
6CE
330
1F
100
AcDbEntity
  8
LAY-10
  6
CONTINUOUS
 62
     7
100
AcDbCircle
 10
464.9999999999993
 20
289.4994932595274
 30
0.0
 40
43.80440587847261
100
AcDbArc
 50
9.999999999998742
 51
170.0000000000013
  0
ARC
  5
6CF
330
1F
100
AcDbEntity
  8
LAY-10
  6
CONTINUOUS
 62
     7
100
AcDbCircle
 10
455.4559504278137
 20
320.5240347824193
 30
0.0
 40
2.662636666528101
100
AcDbArc
 50
0.0
 51
177.1384119164717
  0
ARC
  5
6D0
330
1F
100
AcDbEntity
  8
LAY-10
  6
CONTINUOUS
 62
     7
100
AcDbCircle
 10
441.6330416643621
 20
319.658314266965
 30
0.0
 40
3.52835718199367
100
AcDbArc
 50
354.8993309570181
 51
173.7338823290445
  0
ARC
  5
6D1
330
1F
100
AcDbEntity
  8
LAY-10
  6
CONTINUOUS
 62
     7
100
AcDbCircle
 10
454.4559504278173
 20
320.5240347824193
 30
0.0
 40
2.662636666528101
100
AcDbArc
 50
0.0
 51
79.17652321686886
  0
ARC
  5
6D2
330
1F
100
AcDbEntity
  8
LAY-10
  6
CONTINUOUS
 62
     7
100
AcDbCircle
 10
439.6250902315536
 20
319.658314266965
 30
0.0
 40
3.52835718199367
100
AcDbArc
 50
354.8993309570181
 51
73.46835850785816
  0
ARC
  5
6D3
330
1F
100
AcDbEntity
  8
LAY-10
  6
CONTINUOUS
 62
     7
100
AcDbCircle
 10
474.5440495721846
 20
320.5240347824193
 30
0.0
 40
2.662636666528101
100
AcDbArc
 50
2.86158808352828
 51
180.0
  0
ARC
  5
6D4
330
1F
100
AcDbEntity
  8
LAY-10
  6
CONTINUOUS
 62
     7
100
AcDbCircle
 10
488.3669583356365
 20
319.658314266965
 30
0.0
 40
3.52835718199367
100
AcDbArc
 50
6.266117670955435
 51
185.100669042982
  0
ARC
  5
6D5
330
1F
100
AcDbEntity
  8
LAY-10
  6
CONTINUOUS
 62
     7
100
AcDbCircle
 10
475.5440495721813
 20
320.5240347824193
 30
0.0
 40
2.662636666528101
100
AcDbArc
 50
100.8234767831312
 51
180.0
  0
ARC
  5
6D6
330
1F
100
AcDbEntity
  8
LAY-10
  6
CONTINUOUS
 62
     7
100
AcDbCircle
 10
490.374909768445
 20
319.658314266965
 30
0.0
 40
3.52835718199367
100
AcDbArc
 50
106.5316414921419
 51
185.100669042982
  0
LINE
  5
6D7
330
1F
100
AcDbEntity
  8
LAY-10
  6
CONTINUOUS
 62
     7
100
AcDbLine
 10
384.2937284085351
 20
189.1992272255141
 30
0.0
 11
383.9999999999916
 21
194.803899138
 31
0.0
  0
LINE
  5
6D8
330
1F
100
AcDbEntity
  8
LAY-10
  6
CONTINUOUS
 62
     7
100
AcDbLine
 10
395.3930583446227
 20
187.3038991380001
 30
0.0
 11
394.9999999999997
 21
194.803899138
 31
0.0
  0
LINE
  5
6D9
330
1F
100
AcDbEntity
  8
LAY-10
  6
CONTINUOUS
 62
     7
100
AcDbLine
 10
545.7062715914635
 20
189.1992272255142
 30
0.0
 11
546.000000000007
 21
194.803899138
 31
0.0
  0
ARC
  5
6DA
330
1F
100
AcDbEntity
  8
LAY-10
  6
CONTINUOUS
 62
     7
100
AcDbCircle
 10
543.7090125219545
 20
189.3038991380001
 30
0.0
 40
2.0
100
AcDbArc
 50
270.0
 51
356.9999999999993
  0
LINE
  5
6DB
330
1F
100
AcDbEntity
  8
LAY-10
  6
CONTINUOUS
 62
     7
100
AcDbLine
 10
534.606941655376
 20
187.3038991380001
 30
0.0
 11
534.9999999999991
 21
194.803899138
 31
0.0
  0
LINE
  5
6DC
330
1F
100
AcDbEntity
  8
LAY-10
  6
CONTINUOUS
 62
     7
100
AcDbLine
 10
415.2489999400208
 20
194.8038991380004
 30
0.0
 11
433.1382200947252
 21
319.5603142003109
 31
0.0
  0
LINE
  5
6DD
330
1F
100
AcDbEntity
  8
LAY-10
  6
CONTINUOUS
 62
     7
100
AcDbLine
 10
426.7462201361262
 20
310.8413371464158
 30
0.0
 11
409.2671005919555
 21
194.8038991380004
 31
0.0
  0
LINE
  5
6DE
330
1F
100
AcDbEntity
  8
LAY-10
  6
CONTINUOUS
 62
     7
100
AcDbLine
 10
438.1257640386382
 20
320.0434221216872
 30
0.0
 11
424.3741512011099
 21
194.8038991380004
 31
0.0
  0
LINE
  5
6DF
330
1F
100
AcDbEntity
  8
LAY-10
  6
CONTINUOUS
 62
     7
100
AcDbLine
 10
443.1394752155071
 20
319.3446223986737
 30
0.0
 11
432.0230459294804
 21
194.8038991380004
 31
0.0
  0
LINE
  5
6E0
330
1F
100
AcDbEntity
  8
LAY-10
  6
CONTINUOUS
 62
     7
100
AcDbLine
 10
445.1474266483159
 20
319.3446223986737
 30
0.0
 11
434.0309973622892
 21
194.8038991380004
 31
0.0
  0
LINE
  5
6E1
330
1F
100
AcDbEntity
  8
LAY-10
  6
CONTINUOUS
 62
     7
100
AcDbLine
 10
446.5057801418483
 20
194.8038991380004
 30
0.0
 11
452.7966339334693
 21
320.656962585631
 31
0.0
  0
LINE
  5
6E2
330
1F
100
AcDbEntity
  8
LAY-10
  6
CONTINUOUS
 62
     7
100
AcDbLine
 10
457.1185870943453
 20
320.5240347824193
 30
0.0
 11
457.1185870943453
 21
194.8038991380004
 31
0.0
  0
LINE
  5
6E3
330
1F
100
AcDbEntity
  8
LAY-10
  6
CONTINUOUS
 62
     7
100
AcDbLine
 10
458.1185870943456
 20
320.5240347824193
 30
0.0
 11
458.1185870943456
 21
194.8038991380004
 31
0.0
  0
LINE
  5
6E4
330
1F
100
AcDbEntity
  8
LAY-10
  6
CONTINUOUS
 62
     7
100
AcDbLine
 10
471.881412905653
 20
320.5240347824193
 30
0.0
 11
471.8814129056531
 21
194.8038991380004
 31
0.0
  0
LINE
  5
6E5
330
1F
100
AcDbEntity
  8
LAY-10
  6
CONTINUOUS
 62
     7
100
AcDbLine
 10
472.8814129056531
 20
320.5240347824193
 30
0.0
 11
472.8814129056531
 21
194.8038991380004
 31
0.0
  0
LINE
  5
6E6
330
1F
100
AcDbEntity
  8
LAY-10
  6
CONTINUOUS
 62
     7
100
AcDbLine
 10
483.4942198581502
 20
194.8038991380005
 30
0.0
 11
477.2033660665293
 21
320.656962585631
 31
0.0
  0
LINE
  5
6E7
330
1F
100
AcDbEntity
  8
LAY-10
  6
CONTINUOUS
 62
     7
100
AcDbLine
 10
484.8525733516827
 20
319.3446223986737
 30
0.0
 11
495.9690026377093
 21
194.8038991380005
 31
0.0
  0
LINE
  5
6E8
330
1F
100
AcDbEntity
  8
LAY-10
  6
CONTINUOUS
 62
     7
100
AcDbLine
 10
486.8605247844913
 20
319.3446223986737
 30
0.0
 11
497.9769540705178
 21
194.8038991380005
 31
0.0
  0
LINE
  5
6E9
330
1F
100
AcDbEntity
  8
LAY-10
  6
CONTINUOUS
 62
     7
100
AcDbLine
 10
491.8742359613601
 20
320.0434221216872
 30
0.0
 11
505.6258487988889
 21
194.8038991380005
 31
0.0
  0
LINE
  5
6EA
330
1F
100
AcDbEntity
  8
LAY-10
  6
CONTINUOUS
 62
     7
100
AcDbLine
 10
514.751000059978
 20
194.8038991380005
 30
0.0
 11
496.8617799052732
 21
319.5603142003109
 31
0.0
  0
ARC
  5
6EB
330
1F
100
AcDbEntity
  8
LAY-10
  6
CONTINUOUS
 62
     7
100
AcDbCircle
 10
464.9999999999993
 20
289.4994932595274
 30
0.0
 40
48.80440587847317
100
AcDbArc
 50
9.999999999998856
 51
170.0000000000013
  0
LINE
  5
6EC
330
1F
100
AcDbEntity
  8
LAY-10
  6
CONTINUOUS
 62
     7
100
AcDbLine
 10
399.0367355395545
 20
196.4566027826667
 30
0.0
 11
416.9370427097248
 21
297.9742894024401
 31
0.0
  0
LINE
  5
6ED
330
1F
100
AcDbEntity
  8
LAY-10
  6
CONTINUOUS
 62
     7
100
AcDbLine
 10
397.0671200335303
 20
194.8038991380005
 30
0.0
 11
383.9999999999905
 21
194.803899138
 31
0.0
  0
ARC
  5
6EE
330
1F
100
AcDbEntity
  8
LAY-10
  6
CONTINUOUS
 62
     7
100
AcDbCircle
 10
397.0671200335303
 20
196.8038991380004
 30
0.0
 40
2.0
100
AcDbArc
 50
270.0
 51
350.0000000000014
  0
LINE
  5
6EF
330
1F
100
AcDbEntity
  8
LAY-10
  6
CONTINUOUS
 62
     7
100
AcDbLine
 10
513.0629572902736
 20
297.9742894024403
 30
0.0
 11
530.9632644604442
 21
196.4566027826663
 31
0.0
  0
LINE
  5
6F0
330
1F
100
AcDbEntity
  8
LAY-10
  6
CONTINUOUS
 62
     7
100
AcDbLine
 10
532.9328799664686
 20
194.8038991380001
 30
0.0
 11
546.0000000000084
 21
194.803899138
 31
0.0
  0
ARC
  5
6F1
330
1F
100
AcDbEntity
  8
LAY-10
  6
CONTINUOUS
 62
     7
100
AcDbCircle
 10
532.9328799664686
 20
196.8038991380001
 30
0.0
 40
2.0
100
AcDbArc
 50
189.9999999999986
 51
270.0
  0
ARC
  5
6F2
330
1F
100
AcDbEntity
  8
LAY-10
  6
CONTINUOUS
 62
     7
100
AcDbCircle
 10
386.2909874780441
 20
189.303899138
 30
0.0
 40
2.0
100
AcDbArc
 50
183.0000000000007
 51
246.7032291449418
  0
LINE
  5
6F3
330
1F
100
AcDbEntity
  8
LAY-10
  6
CONTINUOUS
 62
     7
100
AcDbLine
 10
545.9290441830152
 20
193.44998149519
 30
0.0
 11
596.4999999999836
 21
193.44998149519
 31
0.0
  0
LINE
  5
6F4
330
1F
100
AcDbEntity
  8
LAY-10
  6
CONTINUOUS
 62
     7
100
AcDbLine
 10
587.4999999999991
 20
193.3038991380001
 30
0.0
 11
545.9213883310824
 21
193.3038991380001
 31
0.0
  0
LINE
  5
6F5
330
1F
100
AcDbEntity
  8
LAY-10
  6
CONTINUOUS
 62
     7
100
AcDbLine
 10
503.2537798638723
 20
310.8413371464159
 30
0.0
 11
517.7377318823582
 21
214.6877133775119
 31
0.0
  0
LINE
  5
6F6
330
1F
100
AcDbEntity
  8
LAY-10
  6
CONTINUOUS
 62
     7
100
AcDbLine
 10
508.138918525213
 20
297.1060485141057
 30
0.0
 11
522.6252497695452
 21
214.949981495153
 31
0.0
  0
LINE
  5
6F7
330
1F
100
AcDbEntity
  8
LAY-10
  6
CONTINUOUS
 62
     7
100
AcDbLine
 10
525.5000000000011
 20
198.646462777224
 30
0.0
 11
527.4999999999989
 21
187.3038991380001
 31
0.0
  0
LINE
  5
6F8
330
1F
100
AcDbEntity
  8
LAY-10
  6
CONTINUOUS
 62
     7
100
AcDbLine
 10
518.0000000000014
 20
194.8038991380005
 30
0.0
 11
403.8224523553133
 21
194.8038991380004
 31
0.0
  0
LINE
  5
6F9
330
1F
100
AcDbEntity
  8
LAY-10
  6
CONTINUOUS
 62
     7
100
AcDbLine
 10
526.1775476446855
 20
194.8038991380005
 30
0.0
 11
525.0000000000014
 21
194.8038991380005
 31
0.0
  0
LINE
  5
6FA
330
1F
100
AcDbEntity
  8
LAY-10
  6
CONTINUOUS
 62
     7
100
AcDbLine
 10
518.0000000000014
 20
187.3038991380001
 30
0.0
 11
390.5000000000018
 21
187.303899138
 31
0.0
  0
LINE
  5
6FB
330
1F
100
AcDbEntity
  8
LAY-10
  6
CONTINUOUS
 62
     7
100
AcDbLine
 10
543.8400319701634
 20
187.3038991380001
 30
0.0
 11
525.0000000000014
 21
187.3038991380001
 31
0.0
  0
LINE
  5
6FC
330
1F
100
AcDbEntity
  8
LAY-10
  6
CONTINUOUS
 62
     7
100
AcDbLine
 10
573.9241202091795
 20
182.224411834772
 30
0.0
 11
545.5882992999022
 21
174.6318515052585
 31
0.0
  0
LINE
  5
6FD
330
1F
100
AcDbEntity
  8
LAY-10
  6
CONTINUOUS
 62
     7
100
AcDbLine
 10
535.0
 20
118.44998149519
 30
0.0
 11
395.0
 21
118.44998149519
 31
0.0
  0
LINE
  5
6FE
330
1F
100
AcDbEntity
  8
LAY-10
  6
CONTINUOUS
 62
     7
100
AcDbLine
 10
399.5000000000004
 20
163.4499814951998
 30
0.0
 11
399.5000000000004
 21
118.44998149519
 31
0.0
  0
LINE
  5
6FF
330
1F
100
AcDbEntity
  8
LAY-10
  6
CONTINUOUS
 62
     7
100
AcDbLine
 10
395.0000000000004
 20
163.44998149519
 30
0.0
 11
395.0000000000004
 21
118.44998149519
 31
0.0
  0
LINE
  5
700
330
1F
100
AcDbEntity
  8
LAY-10
  6
CONTINUOUS
 62
     7
100
AcDbLine
 10
535.0000000000005
 20
163.44998149519
 30
0.0
 11
535.0000000000005
 21
118.44998149519
 31
0.0
  0
LINE
  5
701
330
1F
100
AcDbEntity
  8
LAY-10
  6
CONTINUOUS
 62
     7
100
AcDbLine
 10
530.5000000000005
 20
163.4499814952002
 30
0.0
 11
530.5000000000005
 21
118.44998149519
 31
0.0
  0
LINE
  5
702
330
1F
100
AcDbEntity
  8
LAY-10
  6
CENTER
 62
     2
100
AcDbLine
 10
412.8032395254728
 20
607.4074411323855
 30
0.0
 11
419.9865894719504
 21
594.965514056539
 31
0.0
  0
LINE
  5
703
330
1F
100
AcDbEntity
  8
LAY-10
  6
CENTER
 62
     2
100
AcDbLine
 10
410.2688211260889
 20
598.4009391440829
 30
0.0
 11
423.3191557016552
 21
605.9355533243007
 31
0.0
  0
LINE
  5
704
330
1F
100
AcDbEntity
  8
LAY-10
  6
CENTER
 62
     2
100
AcDbLine
 10
519.5857365875696
 20
598.4849102872521
 30
0.0
 11
507.4525066581727
 21
605.490033853129
 31
0.0
  0
LINE
  5
705
330
1F
100
AcDbEntity
  8
LAY-10
  6
CENTER
 62
     2
100
AcDbLine
 10
510.6641101531199
 20
596.0925588675822
 30
0.0
 11
517.1967604745477
 21
607.4074411323762
 31
0.0
  0
LINE
  5
706
330
1F
100
AcDbEntity
  8
LAY-10
  6
CENTER
 62
     2
100
AcDbLine
 10
387.9999999999991
 20
622.2
 30
0.0
 11
387.9999999999991
 21
637.5
 31
0.0
  0
LINE
  5
707
330
1F
100
AcDbEntity
  8
LAY-10
  6
CENTER
 62
     2
100
AcDbLine
 10
542.0000000000014
 20
621.9
 30
0.0
 11
542.0000000000014
 21
637.5
 31
0.0
  0
LINE
  5
708
330
1F
100
AcDbEntity
  8
LAY-10
  6
CENTER
 62
     2
100
AcDbLine
 10
458.467349678575
 20
686.5
 30
0.0
 11
472.5
 21
686.5
 31
0.0
  0
LINE
  5
709
330
1F
100
AcDbEntity
  8
LAY-10
  6
CENTER
 62
     2
100
AcDbLine
 10
464.9999999999997
 20
480.6
 30
0.0
 11
464.9999999999996
 21
777.8999999999999
 31
0.0
  0
LINE
  5
70A
330
1F
100
AcDbEntity
  8
LAY-10
  6
CENTER
 62
     2
100
AcDbLine
 10
317.1
 20
630.0000000000001
 30
0.0
 11
614.4
 21
630.0000000000002
 31
0.0
  0
ARC
  5
70B
330
1F
100
AcDbEntity
  8
LAY-10
  6
CENTER
 62
     2
100
AcDbCircle
 10
360.5
 20
156.4499814952216
 30
0.0
 40
4.5
100
AcDbArc
 50
270.0
 51
0.0
  0
LINE
  5
70C
330
1F
100
AcDbEntity
  8
LAY-10
  6
CENTER
 62
     2
100
AcDbLine
 10
348.5
 20
151.9499814952216
 30
0.0
 11
360.5
 21
151.9499814952216
 31
0.0
  0
LINE
  5
70D
330
1F
100
AcDbEntity
  8
LAY-10
  6
CENTER
 62
     2
100
AcDbLine
 10
364.9999999999991
 20
184.3933571681761
 30
0.0
 11
364.9999999999991
 21
156.4499814952261
 31
0.0
  0
LINE
  5
70E
330
1F
100
AcDbEntity
  8
LAY-10
  6
CENTER
 62
     2
100
AcDbLine
 10
521.4999999999995
 20
159.2593825719268
 30
0.0
 11
521.4999999999991
 21
216.07088913243
 31
0.0
  0
LINE
  5
70F
330
1F
100
AcDbEntity
  8
LAY-10
  6
CENTER
 62
     2
100
AcDbLine
 10
388.0000000000018
 20
177.5980392018058
 30
0.0
 11
388.0000000000018
 21
200.7752626261075
 31
0.0
  0
LINE
  5
710
330
1F
100
AcDbEntity
  8
LAY-10
  6
CENTER
 62
     2
100
AcDbLine
 10
464.9999999999997
 20
115.5
 30
0.0
 11
464.9999999999996
 21
342.6
 31
0.0
  0
DIMENSION
  5
711
330
1F
100
AcDbEntity
  8
LAY-20
  6
CONTINUOUS
 62
     4
100
AcDbDimension
  2
*D19
 10
302.5
 20
193.4499814951899
 30
0.0
 11
295.0
 21
155.94998149519
 31
0.0
 70
   160
  3
ISO-25
100
AcDbAlignedDimension
 13
395.0
 23
118.44998149519
 33
0.0
 14
302.5
 24
193.4499814951899
 34
0.0
 50
90.0
100
AcDbRotatedDimension
1001
ACAD
1000
DSTYLE
1002
{
1070
   270
1070
     2
1070
     6
1000
EX_BNORM
1070
     7
1000
EX_BNORM
1070
    41
1040
7.5
1070
    42
1040
4.5
1070
    44
1040
4.5
1070
    73
1070
     0
1070
    74
1070
     0
1070
    75
1070
     0
1070
    76
1070
     1
1070
    77
1070
     1
1070
    78
1070
     8
1070
   140
1040
9.3543312
1070
   147
1040
0.0
1070
   173
1070
     1
1070
   176
1070
     4
1070
   177
1070
     4
1070
   178
1070
     7
1070
   271
1070
     1
1070
   277
1070
     2
1070
   279
1070
     2
1070
   280
1070
     0
1070
   287
1070
     5
1070
   340
1005
D4
1002
}
  0
DIMENSION
  5
71D
330
1F
100
AcDbEntity
  8
LAY-20
  6
CONTINUOUS
 62
     4
100
AcDbDimension
  2
*D20
 10
302.5
 20
338.3038991380001
 30
0.0
 11
295.0
 21
265.876940316595
 31
0.0
 70
   160
  3
ISO-25
100
AcDbAlignedDimension
 13
333.5
 23
193.44998149519
 33
0.0
 14
465.0
 24
338.303899138
 34
0.0
 50
90.0
100
AcDbRotatedDimension
1001
ACAD
1000
DSTYLE
1002
{
1070
   270
1070
     2
1070
     6
1000
EX_BNORM
1070
     7
1000
EX_BNORM
1070
    41
1040
7.5
1070
    42
1040
4.5
1070
    44
1040
4.5
1070
    73
1070
     0
1070
    74
1070
     0
1070
    75
1070
     0
1070
    76
1070
     0
1070
    77
1070
     1
1070
    78
1070
     0
1070
   140
1040
9.3543312
1070
   147
1040
0.0
1070
   173
1070
     1
1070
   176
1070
     4
1070
   177
1070
     4
1070
   178
1070
     7
1070
   271
1070
     0
1070
   277
1070
     2
1070
   279
1070
     2
1070
   280
1070
     0
1070
   287
1070
     5
1070
   340
1005
D4
1002
}
  0
LINE
  5
72A
330
1F
100
AcDbEntity
  8
LAY-255
  6
CONTINUOUS
 62
     7
100
AcDbLine
 10
1155.0
 20
66.0
 30
0.0
 11
855.0
 21
66.0
 31
0.0
  0
LINE
  5
72B
330
1F
100
AcDbEntity
  8
LAY-255
  6
CONTINUOUS
 62
     7
100
AcDbLine
 10
866.4000000000001
 20
48.0
 30
0.0
 11
890.4000000000001
 21
63.0
 31
0.0
  0
LINE
  5
72C
330
1F
100
AcDbEntity
  8
LAY-255
  6
CONTINUOUS
 62
     7
100
AcDbLine
 10
890.4000000000001
 20
63.0
 30
0.0
 11
914.4000000000001
 21
48.0
 31
0.0
  0
LINE
  5
72D
330
1F
100
AcDbEntity
  8
LAY-255
  6
CONTINUOUS
 62
     7
100
AcDbLine
 10
914.4000000000001
 20
48.0
 30
0.0
 11
890.4000000000001
 21
33.0
 31
0.0
  0
LINE
  5
72E
330
1F
100
AcDbEntity
  8
LAY-255
  6
CONTINUOUS
 62
     7
100
AcDbLine
 10
890.4000000000001
 20
33.0
 30
0.0
 11
866.4000000000001
 21
48.0
 31
0.0
  0
LINE
  5
72F
330
1F
100
AcDbEntity
  8
LAY-255
  6
CONTINUOUS
 62
     7
100
AcDbLine
 10
15.0
 20
30.0
 30
0.0
 11
1155.0
 21
30.0
 31
0.0
  0
LINE
  5
730
330
1F
100
AcDbEntity
  8
LAY-255
  6
CONTINUOUS
 62
     7
100
AcDbLine
 10
15.0
 20
840.0
 30
0.0
 11
1155.0
 21
840.0
 31
0.0
  0
LINE
  5
731
330
1F
100
AcDbEntity
  8
LAY-255
  6
CONTINUOUS
 62
     7
100
AcDbLine
 10
15.0
 20
30.0
 30
0.0
 11
15.0
 21
840.0
 31
0.0
  0
LINE
  5
732
330
1F
100
AcDbEntity
  8
LAY-255
  6
CONTINUOUS
 62
     7
100
AcDbLine
 10
1155.0
 20
30.0
 30
0.0
 11
1155.0
 21
840.0
 31
0.0
  0
LINE
  5
733
330
1F
100
AcDbEntity
  8
LAY-255
  6
CONTINUOUS
 62
     4
100
AcDbLine
 10
855.0
 20
84.0
 30
0.0
 11
1155.0
 21
84.0
 31
0.0
  0
LINE
  5
734
330
1F
100
AcDbEntity
  8
LAY-255
  6
CONTINUOUS
 62
     7
100
AcDbLine
 10
855.0
 20
30.0
 30
0.0
 11
855.0
 21
201.0
 31
0.0
  0
LINE
  5
735
330
1F
100
AcDbEntity
  8
LAY-255
  6
CONTINUOUS
 62
     4
100
AcDbLine
 10
1005.0
 20
84.0
 30
0.0
 11
1005.0
 21
66.0
 31
0.0
  0
LINE
  5
736
330
1F
100
AcDbEntity
  8
LAY-255
  6
CONTINUOUS
 62
     7
100
AcDbLine
 10
1155.0
 20
201.0
 30
0.0
 11
855.0
 21
201.0
 31
0.0
  0
LINE
  5
737
330
1F
100
AcDbEntity
  8
LAY-255
  6
CONTINUOUS
 62
     4
100
AcDbLine
 10
1149.0
 20
165.0
 30
0.0
 11
861.0
 21
165.0
 31
0.0
  0
LINE
  5
738
330
1F
100
AcDbEntity
  8
LAY-255
  6
CONTINUOUS
 62
     4
100
AcDbLine
 10
1149.0
 20
183.0
 30
0.0
 11
861.0
 21
183.0
 31
0.0
  0
POINT
  5
739
330
1F
100
AcDbEntity
  8
LAY-255
  6
CONTINUOUS
 62
     7
100
AcDbPoint
 10
867.0
 20
150.0
 30
0.0
  0
POINT
  5
73A
330
1F
100
AcDbEntity
  8
LAY-255
  6
CONTINUOUS
 62
     7
100
AcDbPoint
 10
900.0
 20
168.0
 30
0.0
  0
POINT
  5
73B
330
1F
100
AcDbEntity
  8
LAY-255
  6
CONTINUOUS
 62
     7
100
AcDbPoint
 10
900.0
 20
186.0
 30
0.0
  0
POINT
  5
73C
330
1F
100
AcDbEntity
  8
LAY-255
  6
CONTINUOUS
 62
     7
100
AcDbPoint
 10
867.0
 20
120.0
 30
0.0
  0
POINT
  5
73D
330
1F
100
AcDbEntity
  8
LAY-255
  6
CONTINUOUS
 62
     7
100
AcDbPoint
 10
867.0
 20
135.0
 30
0.0
  0
POINT
  5
73E
330
1F
100
AcDbEntity
  8
LAY-255
  6
CONTINUOUS
 62
     7
100
AcDbPoint
 10
867.0
 20
105.0
 30
0.0
  0
POINT
  5
73F
330
1F
100
AcDbEntity
  8
LAY-255
  6
CONTINUOUS
 62
     7
100
AcDbPoint
 10
867.0
 20
89.99999999999996
 30
0.0
  0
TEXT
  5
740
330
1F
100
AcDbEntity
  8
LAY-255
  6
CONTINUOUS
 62
     7
100
AcDbText
 10
924.415136826172
 20
46.63125
 30
0.0
 40
15.46875
  1
福西鋳物株式会社
 41
1.342692141742901
  7
EXCADSTD
100
AcDbText
  0
TEXT
  5
741
330
1F
100
AcDbEntity
  8
LAY-255
  6
CONTINUOUS
 62
     7
100
AcDbText
 10
925.528125
 20
35.94375
 30
0.0
 40
5.15625
  1
ＦＵＫＵＮＩＳＨＩ
 41
1.204799226045263
  7
EXCADSTD
100
AcDbText
  0
TEXT
  5
742
330
1F
100
AcDbEntity
  8
LAY-255
  6
CONTINUOUS
 62
     7
100
AcDbText
 10
998.1575892857143
 20
35.94375
 30
0.0
 40
5.15625
  1
ＦＯＵＮＤＲＹ
 41
1.243252752978497
  7
EXCADSTD
100
AcDbText
  0
TEXT
  5
743
330
1F
100
AcDbEntity
  8
LAY-255
  6
CONTINUOUS
 62
     7
100
AcDbText
 10
1055.983774651442
 20
35.94375
 30
0.0
 40
5.15625
  1
ＣＯ.,ＬＴＤ.
 41
1.243831271314936
  7
EXCADSTD
100
AcDbText
  0
TEXT
  5
744
330
1F
100
AcDbEntity
  8
LAY-255
  6
CONTINUOUS
 62
     7
100
AcDbText
 10
882.1031250000001
 20
41.15625
 30
0.0
 40
15.46875
  1
S
 41
0.7582677563636363
  7
EXCADSTD
100
AcDbText
  0
TEXT
  5
745
330
1F
100
AcDbEntity
  8
LAY-255
  6
CONTINUOUS
 62
     7
100
AcDbText
 10
891.3140625000001
 20
41.24823113208
 30
0.0
 40
15.46875
  1
F
 41
0.7440945272727273
  7
EXCADSTD
100
AcDbText
  0
TEXT
  5
746
330
1F
100
AcDbEntity
  8
LAY-255
  6
CONTINUOUS
 62
     7
100
AcDbText
 10
1011.31640625
 20
73.26562499999997
 30
0.0
 40
7.734375
  1
縮尺
 41
1.080708718181818
  7
EXCADSTD
100
AcDbText
  0
TEXT
  5
747
330
1F
100
AcDbEntity
  8
LAY-255
  6
CONTINUOUS
 62
     7
100
AcDbText
 10
861.796875
 20
169.6875
 30
0.0
 40
10.3125
  1
型式
 41
1.056348480681818
  7
EXCADSTD
100
AcDbText
  0
TEXT
  5
748
330
1F
100
AcDbEntity
  8
LAY-255
  6
CONTINUOUS
 62
     7
100
AcDbText
 10
862.265625
 20
187.6875
 30
0.0
 40
10.3125
  1
品名
 41
0.978838634090909
  7
EXCADSTD
100
AcDbText
  0
TEXT
  5
749
330
1F
100
AcDbEntity
  8
LAY-255
  6
CONTINUOUS
 62
     7
100
AcDbText
 10
861.45703125
 20
73.26562499999997
 30
0.0
 40
7.734375
  1
作成日
 41
1.000629973818182
  7
EXCADSTD
100
AcDbText
  0
TEXT
  5
74A
330
1F
100
AcDbEntity
  8
LAY-255
  6
CONTINUOUS
 62
     7
100
AcDbText
 10
1044.84375
 20
70.68749999999997
 30
0.0
 40
10.3125
  1
１：３
 41
0.8844094952727272
  7
EXCADSTD
100
AcDbText
  0
TEXT
  5
74B
330
1F
100
AcDbEntity
  8
LAY-255
  6
CONTINUOUS
 62
     7
100
AcDbText
 10
867.5625
 20
106.6875
 30
0.0
 40
10.3125
  1
施工：打込用
 41
1.018700840909091
  7
EXCADSTD
100
AcDbText
  0
TEXT
  5
74C
330
1F
100
AcDbEntity
  8
LAY-255
  6
CONTINUOUS
 62
     7
100
AcDbText
 10
900.75
 20
187.6875
 30
0.0
 40
10.3125
  1
ルーフドレイン
 41
1.021169538599106
  7
EXCADSTD
100
AcDbText
  0
TEXT
  5
74D
330
1F
100
AcDbEntity
  8
LAY-255
  6
CONTINUOUS
 62
     7
100
AcDbText
 10
868.125
 20
151.6875000000001
 30
0.0
 40
10.3125
  1
防水：アスファルト・シート・
 41
0.9866967752199413
  7
EXCADSTD
100
AcDbText
  0
TEXT
  5
74E
330
1F
100
AcDbEntity
  8
LAY-255
  6
CONTINUOUS
 62
     7
100
AcDbText
 10
867.0
 20
136.6875
 30
0.0
 40
10.3125
  1
      露出アスファルト防水兼用
 41
0.894274438169777
  7
EXCADSTD
100
AcDbText
  0
TEXT
  5
74F
330
1F
100
AcDbEntity
  8
LAY-255
  6
CONTINUOUS
 62
     7
100
AcDbText
 10
867.65625
 20
91.68750000000003
 30
0.0
 40
10.3125
  1
接続：管用テーパねじ
 41
1.013063761157025
  7
EXCADSTD
100
AcDbText
  0
TEXT
  5
750
330
1F
100
AcDbEntity
  8
LAY-255
  6
CONTINUOUS
 62
     7
100
AcDbText
 10
867.703125
 20
121.6875
 30
0.0
 40
10.3125
  1
用途：屋上用
 41
1.016656625174825
  7
EXCADSTD
100
AcDbText
  0
TEXT
  5
751
330
1F
100
AcDbEntity
  8
LAY-255
  6
CONTINUOUS
 62
     7
100
AcDbText
 10
902.625
 20
169.6875
 30
0.0
 40
10.3125
  1
ＲＳＧＮ－９１００型
 41
1.000581655991735
  7
EXCADSTD
100
AcDbText
  0
TEXT
  5
752
330
1F
100
AcDbEntity
  8
LAY-255
  6
CONTINUOUS
 62
     7
100
AcDbText
 10
902.953125
 20
70.68749999999997
 30
0.0
 40
10.3125
  1
２１／０９／１４
 41
0.9764342470129869
  7
EXCADSTD
100
AcDbText
  0
ENDSEC
  0
SECTION
  2
OBJECTS
  0
DICTIONARY
  5
C
330
0
100
AcDbDictionary
  3
ACAD_GROUP
350
D
  3
ACAD_LAYOUT
350
1A
  3
ACAD_MATERIAL
350
43
  3
ACAD_MLEADERSTYLE
350
6B
  3
ACAD_MLINESTYLE
350
17
  3
ACAD_PLOTSETTINGS
350
19
  3
ACAD_SCALELIST
350
47
  3
ACAD_VISUALSTYLE
350
2A
  3
ACDBHEADERROUNDTRIPXREC
350
753
  3
ACDBVARIABLEDICTIONARY
350
774
  0
DICTIONARY
  5
77F
330
8
100
AcDbDictionary
280
     1
  3
ACAD_XREC_ROUNDTRIP
360
780
  0
DICTIONARY
  5
D
102
{ACAD_REACTORS
330
C
102
}
330
C
100
AcDbDictionary
  0
DICTIONARY
  5
1A
102
{ACAD_REACTORS
330
C
102
}
330
C
100
AcDbDictionary
  0
DICTIONARY
  5
43
102
{ACAD_REACTORS
330
C
102
}
330
C
100
AcDbDictionary
  3
BYBLOCK
350
45
  3
BYLAYER
350
44
  3
GLOBAL
350
46
  0
DICTIONARY
  5
6B
102
{ACAD_REACTORS
330
C
102
}
330
C
100
AcDbDictionary
  3
STANDARD
350
6C
  0
DICTIONARY
  5
17
102
{ACAD_REACTORS
330
C
102
}
330
C
100
AcDbDictionary
  3
STANDARD
350
18
  0
DICTIONARY
  5
19
102
{ACAD_REACTORS
330
C
102
}
330
C
100
AcDbDictionary
  0
DICTIONARY
  5
47
102
{ACAD_REACTORS
330
C
102
}
330
C
100
AcDbDictionary
  3
A0
350
48
  3
A1
350
49
  3
A2
350
4A
  3
A3
350
4B
  3
A4
350
4C
  3
A5
350
4D
  3
A6
350
4E
  3
A7
350
4F
  3
A8
350
50
  3
A9
350
51
  3
B0
350
52
  3
B1
350
53
  3
B2
350
54
  3
B3
350
55
  3
B4
350
56
  3
B5
350
57
  3
B6
350
58
  3
B7
350
59
  3
B8
350
5A
  3
B9
350
5B
  3
C0
350
5C
  3
C1
350
5D
  3
C2
350
5E
  3
C3
350
5F
  3
C4
350
60
  3
C5
350
61
  3
C6
350
62
  3
C7
350
63
  3
C8
350
64
  3
C9
350
65
  3
D0
350
66
  3
D1
350
67
  3
D2
350
68
  0
DICTIONARY
  5
2A
102
{ACAD_REACTORS
330
C
102
}
330
C
100
AcDbDictionary
  3
2DWIREFRAME
350
2F
  3
BASIC
350
32
  3
BRIGHTEN
350
36
  3
COLORCHANGE
350
3A
  3
CONCEPTUAL
350
34
  3
DIM
350
35
  3
EDGECOLOROFF
350
3D
  3
FACEPATTERN
350
39
  3
FLAT
350
2B
  3
FLATWITHEDGES
350
2C
  3
GOURAUD
350
2D
  3
GOURAUDWITHEDGES
350
2E
  3
HIDDEN
350
31
  3
JITTEROFF
350
3B
  3
LINEPATTERN
350
38
  3
OVERHANGOFF
350
3C
  3
REALISTIC
350
33
  3
SHADED
350
42
  3
SHADED_WITH_EDGES
350
41
  3
SHADES_OF_GRAY
350
3E
  3
SKETCHY
350
3F
  3
THICKEN
350
37
  3
WIREFRAME
350
30
  3
X-RAY
350
40
  0
DICTIONARY
  5
753
102
{ACAD_REACTORS
330
C
102
}
330
C
100
AcDbDictionary
  3
CEPSNID
350
75D
  3
CEPSNTYPE
350
75C
  3
DIMSTYLEDATA
350
773
  3
FINGERPRINTGUID
350
75E
  3
HYPERLINKBASE
350
756
  3
INSUNITS
350
75B
  3
LAYOUTDICT
350
758
  3
LWETCUNION
350
75A
  3
PLOTSETDICT
350
759
  3
PSVPSCALE
350
760
  3
PUCSBASE
350
763
  3
PUCSORGBACK
350
769
  3
PUCSORGBOTTOM
350
765
  3
PUCSORGFRONT
350
768
  3
PUCSORGLEFT
350
766
  3
PUCSORGRIGHT
350
767
  3
PUCSORGTOP
350
764
  3
PUCSORTHOREF
350
761
  3
PUCSORTHOVIEW
350
762
  3
STYLESHEET
350
757
  3
TSTACKALIGN
350
754
  3
TSTACKSIZE
350
755
  3
UCSBASE
350
76C
  3
UCSORGBACK
350
772
  3
UCSORGBOTTOM
350
76E
  3
UCSORGFRONT
350
771
  3
UCSORGLEFT
350
76F
  3
UCSORGRIGHT
350
770
  3
UCSORGTOP
350
76D
  3
UCSORTHOREF
350
76A
  3
UCSORTHOVIEW
350
76B
  3
VERSIONGUID
350
75F
  0
DICTIONARY
  5
774
102
{ACAD_REACTORS
330
C
102
}
330
C
100
AcDbDictionary
  3
CANNOSCALE
350
781
  3
CENTEREXE
350
77B
  3
CENTERLTYPEFILE
350
77C
  3
CMLEADERSTYLE
350
776
  3
CTABLESTYLE
350
775
  3
DIMASSOC
350
77D
  3
HIDETEXT
350
77E
  3
MSLTSCALE
350
782
  3
PSOLHEIGHT
350
778
  3
PSOLWIDTH
350
777
  0
XRECORD
  5
780
102
{ACAD_REACTORS
330
77F
102
}
330
77F
100
AcDbXrecord
102
VTR_0.000_0.000_1.000_1.000_VISUALSTYLE
340
2F
102
VTR_0.000_0.000_1.000_1.000_GRIDDISPLAY
 70
     3
102
VTR_0.000_0.000_1.000_1.000_GRIDMAJOR
 70
     5
102
VTR_0.000_0.000_1.000_1.000_DEFAULTLIGHTING
280
     1
102
VTR_0.000_0.000_1.000_1.000_DEFAULTLIGHTINGTYPE
 70
     1
102
VTR_0.000_0.000_1.000_1.000_BRIGHTNESS
141
0.0
102
VTR_0.000_0.000_1.000_1.000_CONTRAST
142
0.0
  0
MATERIAL
  5
45
102
{ACAD_REACTORS
330
43
102
}
102
{ACAD_XDICTIONARY
360
785
102
}
330
43
100
AcDbMaterial
  1
BYBLOCK
  0
MATERIAL
  5
44
102
{ACAD_REACTORS
330
43
102
}
102
{ACAD_XDICTIONARY
360
783
102
}
330
43
100
AcDbMaterial
  1
BYLAYER
  0
MATERIAL
  5
46
102
{ACAD_REACTORS
330
43
102
}
102
{ACAD_XDICTIONARY
360
787
102
}
330
43
100
AcDbMaterial
  1
GLOBAL
  0
ACAD_PROXY_OBJECT
  5
6C
102
{ACAD_REACTORS
330
6B
102
}
330
6B
100
AcDbProxyObject
 90
      499
 91
      505
 93
      610
310
40901902A4063FBFFFFFE0000000000000020400000000000020404214DD185B99185C990000000000000104090141901A00000000000004100000000000000041025764000000000000039000
340
14
340
0
340
11
340
0
 94
        0
1001
ACAD_MLEADERVER
1070
     2
  0
MLINESTYLE
  5
18
102
{ACAD_REACTORS
330
17
102
}
330
17
100
AcDbMlineStyle
  2
Standard
 70
     0
  3

 62
   256
 51
90.0
 52
90.0
 71
     2
 49
0.5
 62
   256
  6
BYLAYER
 49
-0.5
 62
   256
  6
BYLAYER
  0
ACAD_PROXY_OBJECT
  5
48
102
{ACAD_REACTORS
330
47
102
}
330
47
100
AcDbProxyObject
 90
      499
 91
      503
 93
       41
310
903313A31580
  0
ACAD_PROXY_OBJECT
  5
49
102
{ACAD_REACTORS
330
47
102
}
330
47
100
AcDbProxyObject
 90
      499
 91
      503
 93
      105
310
903313A324000000000000004000
  0
ACAD_PROXY_OBJECT
  5
4A
102
{ACAD_REACTORS
330
47
102
}
330
47
100
AcDbProxyObject
 90
      499
 91
      503
 93
      105
310
903313A344000000000000104000
  0
ACAD_PROXY_OBJECT
  5
4B
102
{ACAD_REACTORS
330
47
102
}
330
47
100
AcDbProxyObject
 90
      499
 91
      503
 93
      105
310
903313A354000000000000144000
  0
ACAD_PROXY_OBJECT
  5
4C
102
{ACAD_REACTORS
330
47
102
}
330
47
100
AcDbProxyObject
 90
      499
 91
      503
 93
      105
310
903313A384000000000000204000
  0
ACAD_PROXY_OBJECT
  5
4D
102
{ACAD_REACTORS
330
47
102
}
330
47
100
AcDbProxyObject
 90
      499
 91
      503
 93
      113
310
904313A31304000000000000244000
  0
ACAD_PROXY_OBJECT
  5
4E
102
{ACAD_REACTORS
330
47
102
}
330
47
100
AcDbProxyObject
 90
      499
 91
      503
 93
      113
310
904313A31364000000000000304000
  0
ACAD_PROXY_OBJECT
  5
4F
102
{ACAD_REACTORS
330
47
102
}
330
47
100
AcDbProxyObject
 90
      499
 91
      503
 93
      113
310
904313A32304000000000000344000
  0
ACAD_PROXY_OBJECT
  5
50
102
{ACAD_REACTORS
330
47
102
}
330
47
100
AcDbProxyObject
 90
      499
 91
      503
 93
      113
310
904313A333040000000000003E4000
  0
ACAD_PROXY_OBJECT
  5
51
102
{ACAD_REACTORS
330
47
102
}
330
47
100
AcDbProxyObject
 90
      499
 91
      503
 93
      113
310
904313A34304000000000000444000
  0
ACAD_PROXY_OBJECT
  5
52
102
{ACAD_REACTORS
330
47
102
}
330
47
100
AcDbProxyObject
 90
      499
 91
      503
 93
      113
310
904313A35304000000000000494000
  0
ACAD_PROXY_OBJECT
  5
53
102
{ACAD_REACTORS
330
47
102
}
330
47
100
AcDbProxyObject
 90
      499
 91
      503
 93
      121
310
905313A3130304000000000000594000
  0
ACAD_PROXY_OBJECT
  5
54
102
{ACAD_REACTORS
330
47
102
}
330
47
100
AcDbProxyObject
 90
      499
 91
      503
 93
      105
310
903323A310000000000000010100
  0
ACAD_PROXY_OBJECT
  5
55
102
{ACAD_REACTORS
330
47
102
}
330
47
100
AcDbProxyObject
 90
      499
 91
      503
 93
      105
310
903343A310000000000000410100
  0
ACAD_PROXY_OBJECT
  5
56
102
{ACAD_REACTORS
330
47
102
}
330
47
100
AcDbProxyObject
 90
      499
 91
      503
 93
      105
310
903383A310000000000000810100
  0
ACAD_PROXY_OBJECT
  5
57
102
{ACAD_REACTORS
330
47
102
}
330
47
100
AcDbProxyObject
 90
      499
 91
      503
 93
      113
310
90431303A310000000000000910100
  0
ACAD_PROXY_OBJECT
  5
58
102
{ACAD_REACTORS
330
47
102
}
330
47
100
AcDbProxyObject
 90
      499
 91
      503
 93
      121
310
9053130303A310000000000001650100
  0
ACAD_PROXY_OBJECT
  5
59
102
{ACAD_REACTORS
330
47
102
}
330
47
100
AcDbProxyObject
 90
      499
 91
      503
 93
      257
310
90E312F31323822203D2031272D3022000000000000200FC000000000000284000
  0
ACAD_PROXY_OBJECT
  5
5A
102
{ACAD_REACTORS
330
47
102
}
330
47
100
AcDbProxyObject
 90
      499
 91
      503
 93
      249
310
90D312F363422203D2031272D3022000000000000240FC000000000000284000
  0
ACAD_PROXY_OBJECT
  5
5B
102
{ACAD_REACTORS
330
47
102
}
330
47
100
AcDbProxyObject
 90
      499
 91
      503
 93
      249
310
90D312F333222203D2031272D3022000000000000280FC000000000000284000
  0
ACAD_PROXY_OBJECT
  5
5C
102
{ACAD_REACTORS
330
47
102
}
330
47
100
AcDbProxyObject
 90
      499
 91
      503
 93
      249
310
90D312F313622203D2031272D30220000000000002C0FC000000000000284000
  0
ACAD_PROXY_OBJECT
  5
5D
102
{ACAD_REACTORS
330
47
102
}
330
47
100
AcDbProxyObject
 90
      499
 91
      503
 93
      249
310
90D332F333222203D2031272D30220000000000002E0FC000000000000284000
  0
ACAD_PROXY_OBJECT
  5
5E
102
{ACAD_REACTORS
330
47
102
}
330
47
100
AcDbProxyObject
 90
      499
 91
      503
 93
      241
310
90C312F3822203D2031272D3022000000000000300FC000000000000284000
  0
ACAD_PROXY_OBJECT
  5
5F
102
{ACAD_REACTORS
330
47
102
}
330
47
100
AcDbProxyObject
 90
      499
 91
      503
 93
      249
310
90D332F313622203D2031272D3022000000000000320FC000000000000284000
  0
ACAD_PROXY_OBJECT
  5
60
102
{ACAD_REACTORS
330
47
102
}
330
47
100
AcDbProxyObject
 90
      499
 91
      503
 93
      241
310
90C312F3422203D2031272D3022000000000000340FC000000000000284000
  0
ACAD_PROXY_OBJECT
  5
61
102
{ACAD_REACTORS
330
47
102
}
330
47
100
AcDbProxyObject
 90
      499
 91
      503
 93
      241
310
90C332F3822203D2031272D3022000000000000360FC000000000000284000
  0
ACAD_PROXY_OBJECT
  5
62
102
{ACAD_REACTORS
330
47
102
}
330
47
100
AcDbProxyObject
 90
      499
 91
      503
 93
      241
310
90C312F3222203D2031272D3022000000000000380FC000000000000284000
  0
ACAD_PROXY_OBJECT
  5
63
102
{ACAD_REACTORS
330
47
102
}
330
47
100
AcDbProxyObject
 90
      499
 91
      503
 93
      241
310
90C332F3422203D2031272D30220000000000003A0FC000000000000284000
  0
ACAD_PROXY_OBJECT
  5
64
102
{ACAD_REACTORS
330
47
102
}
330
47
100
AcDbProxyObject
 90
      499
 91
      503
 93
      161
310
90A3122203D2031272D30224000000000000284000
  0
ACAD_PROXY_OBJECT
  5
65
102
{ACAD_REACTORS
330
47
102
}
330
47
100
AcDbProxyObject
 90
      499
 91
      503
 93
      257
310
90E312D312F3222203D2031272D30220000000000003E0FC000000000000284000
  0
ACAD_PROXY_OBJECT
  5
66
102
{ACAD_REACTORS
330
47
102
}
330
47
100
AcDbProxyObject
 90
      499
 91
      503
 93
      225
310
90A3322203D2031272D302200000000000002100000000000000284000
  0
ACAD_PROXY_OBJECT
  5
67
102
{ACAD_REACTORS
330
47
102
}
330
47
100
AcDbProxyObject
 90
      499
 91
      503
 93
      225
310
90A3622203D2031272D302200000000000006100000000000000284000
  0
ACAD_PROXY_OBJECT
  5
68
102
{ACAD_REACTORS
330
47
102
}
330
47
100
AcDbProxyObject
 90
      499
 91
      503
 93
      249
310
90D31272D3022203D2031272D30220000000000000A100000000000000284000
  0
ACAD_PROXY_OBJECT
  5
2F
102
{ACAD_REACTORS
330
2A
102
}
330
2A
100
AcDbProxyObject
 90
      499
 91
      501
 93
      436
310
42CC9915DA5C99599C985B595049028333333333333E33F0000000000000F90107901411070040501600405405064090741402480A0340
1001
ACAD
1000
AcDbSavedByObjectVersion
1070
     0
  0
ACAD_PROXY_OBJECT
  5
32
102
{ACAD_REACTORS
330
2A
102
}
330
2A
100
AcDbProxyObject
 90
      499
 91
      501
 93
      388
310
4150985CDA58D07406404333333333333E33F0000000000000F90107A41107004050150841D405064090741402480A0350
1001
ACAD
1000
AcDbSavedByObjectVersion
1070
     0
  0
ACAD_PROXY_OBJECT
  5
36
102
{ACAD_REACTORS
330
2A
102
}
330
2A
100
AcDbProxyObject
 90
      499
 91
      501
 93
      428
310
42109C9A59DA1D195B90C409028333333333333E33F0000000000000F9010790141107004050150841D405064090741402480A029950
1001
ACAD
1000
AcDbSavedByObjectVersion
1070
     0
  0
ACAD_PROXY_OBJECT
  5
3A
102
{ACAD_REACTORS
330
2A
102
}
330
2A
100
AcDbProxyObject
 90
      499
 91
      501
 93
      452
310
42D0DBDB1BDC90DA185B99D95104090240C333333333333E33F0000000000000F90108901411070040501508421405064090741402480A0350
1001
ACAD
1000
AcDbSavedByObjectVersion
1070
     0
  0
ACAD_PROXY_OBJECT
  5
34
102
{ACAD_REACTORS
330
2A
102
}
330
2A
100
AcDbProxyObject
 90
      499
 91
      501
 93
      500
310
4290DBDB98D95C1D1D585B10940D028333333333333E33F0000000000000F90107902409070040501000000000018199010841D405064090740C02480A0340
1001
ACAD
1000
AcDbSavedByObjectVersion
1070
     0
  0
ACAD_PROXY_OBJECT
  5
35
102
{ACAD_REACTORS
330
2A
102
}
330
2A
100
AcDbProxyObject
 90
      499
 91
      501
 93
      412
310
40D11A5B50B409028333333333333E33F0000000000000F9010790141107004050150841D405064090741402480A02677FFFFFD0
1001
ACAD
1000
AcDbSavedByObjectVersion
1070
     0
  0
ACAD_PROXY_OBJECT
  5
3D
102
{ACAD_REACTORS
330
2A
102
}
330
2A
100
AcDbProxyObject
 90
      499
 91
      501
 93
      452
310
43115919D950DBDB1BDC93D999916409028333333333333E33F0000000000000F9010790141107004050150841D405064090741402480A0350
1001
ACAD
1000
AcDbSavedByObjectVersion
1070
     0
  0
ACAD_PROXY_OBJECT
  5
39
102
{ACAD_REACTORS
330
2A
102
}
330
2A
100
AcDbProxyObject
 90
      499
 91
      501
 93
      444
310
42D19858D95C185D1D195C9B90F409028333333333333E33F0000000000000F9010790141107004050150841D405064090741402480A0350
1001
ACAD
1000
AcDbSavedByObjectVersion
1070
     0
  0
ACAD_PROXY_OBJECT
  5
2B
102
{ACAD_REACTORS
330
2A
102
}
330
2A
100
AcDbProxyObject
 90
      499
 91
      501
 93
      380
310
41119B185D240901404333333333333E33F0000000000000F9010740A907004050150841D405064090741402480A1B50
1001
ACAD
1000
AcDbSavedByObjectVersion
1070
     0
  0
ACAD_PROXY_OBJECT
  5
2C
102
{ACAD_REACTORS
330
2A
102
}
330
2A
100
AcDbProxyObject
 90
      499
 91
      501
 93
      468
310
43519B185D15DA5D1A115919D95CD0140901404333333333333E33F0000000000000F90107409019070040501600405405064090741402480A1B50
1001
ACAD
1000
AcDbSavedByObjectVersion
1070
     0
  0
ACAD_PROXY_OBJECT
  5
2D
102
{ACAD_REACTORS
330
2A
102
}
330
2A
100
AcDbProxyObject
 90
      499
 91
      501
 93
      404
310
41D1DBDD5C985D5910240902404333333333333E33F0000000000000F9010740A9070040501641D405064090741402480A1B50
1001
ACAD
1000
AcDbSavedByObjectVersion
1070
     0
  0
ACAD_PROXY_OBJECT
  5
2E
102
{ACAD_REACTORS
330
2A
102
}
330
2A
100
AcDbProxyObject
 90
      499
 91
      501
 93
      492
310
4411DBDD5C985D5915DA5D1A115919D95CD0340902404333333333333E33F0000000000000F90107409019070040501600405405064090741402480A1B50
1001
ACAD
1000
AcDbSavedByObjectVersion
1070
     0
  0
ACAD_PROXY_OBJECT
  5
31
102
{ACAD_REACTORS
330
2A
102
}
330
2A
100
AcDbProxyObject
 90
      499
 91
      501
 93
      476
310
41921A5919195B90640502408333333333333E33F0000000000000F901079024090700405020000000000001110200405405064090740C02480A0340
1001
ACAD
1000
AcDbSavedByObjectVersion
1070
     0
  0
ACAD_PROXY_OBJECT
  5
3B
102
{ACAD_REACTORS
330
2A
102
}
330
2A
100
AcDbProxyObject
 90
      499
 91
      501
 93
      428
310
42529A5D1D195C93D999914409028333333333333E33F0000000000000F9010790141107004050150A41D405064090741402480A0350
1001
ACAD
1000
AcDbSavedByObjectVersion
1070
     0
  0
ACAD_PROXY_OBJECT
  5
38
102
{ACAD_REACTORS
330
2A
102
}
330
2A
100
AcDbProxyObject
 90
      499
 91
      501
 93
      444
310
42D31A5B995C185D1D195C9B90E409028333333333333E33F0000000000000F9010790141107004050750841D405064090741402483A0350
1001
ACAD
1000
AcDbSavedByObjectVersion
1070
     0
  0
ACAD_PROXY_OBJECT
  5
3C
102
{ACAD_REACTORS
330
2A
102
}
330
2A
100
AcDbProxyObject
 90
      499
 91
      501
 93
      444
310
42D3DD995C9A185B99D3D999915409028333333333333E33F0000000000000F9010790141107004050150941D405064090741402480A0350
1001
ACAD
1000
AcDbSavedByObjectVersion
1070
     0
  0
ACAD_PROXY_OBJECT
  5
33
102
{ACAD_REACTORS
330
2A
102
}
330
2A
100
AcDbProxyObject
 90
      499
 91
      501
 93
      428
310
425499585B1A5CDD1A58D08409038333333333333E33F0000000000000F9010740A907004050150800405405064090740C02480A1B40
1001
ACAD
1000
AcDbSavedByObjectVersion
1070
     0
  0
ACAD_PROXY_OBJECT
  5
42
102
{ACAD_REACTORS
330
2A
102
}
330
2A
100
AcDbProxyObject
 90
      499
 91
      501
 93
      420
310
4194DA1859195911B40902404333333333333E33F0000000000000F9010740A41107004050150800405405064090840C02480A0B40
1001
ACAD
1000
AcDbSavedByObjectVersion
1070
     0
  0
ACAD_PROXY_OBJECT
  5
41
102
{ACAD_REACTORS
330
2A
102
}
330
2A
100
AcDbProxyObject
 90
      499
 91
      501
 93
      516
310
4454DA18591959081DDA5D1A08195919D95CD1A40902404333333333333E33F0000000000000F901074090142907004050250800405405064090740C02480A0B40
1001
ACAD
1000
AcDbSavedByObjectVersion
1070
     0
  0
ACAD_PROXY_OBJECT
  5
3E
102
{ACAD_REACTORS
330
2A
102
}
330
2A
100
AcDbProxyObject
 90
      499
 91
      501
 93
      532
310
4394DA1859195CC81BD98811DC985E5174090240C333333333333E33F0000000000000F901079024090741D01000000000000111010841D405064090740C02480A0340
1001
ACAD
1000
AcDbSavedByObjectVersion
1070
     0
  0
ACAD_PROXY_OBJECT
  5
3F
102
{ACAD_REACTORS
330
2A
102
}
330
2A
100
AcDbProxyObject
 90
      499
 91
      501
 93
      476
310
41D4DAD95D18DA1E51840502408333333333333E33F0000000000000F901079024090741D01000000000000111010B41D405064090741802480A0340
1001
ACAD
1000
AcDbSavedByObjectVersion
1070
     0
  0
ACAD_PROXY_OBJECT
  5
37
102
{ACAD_REACTORS
330
2A
102
}
330
2A
100
AcDbProxyObject
 90
      499
 91
      501
 93
      412
310
41D51A1A58DAD95B90D409028333333333333E33F0000000000000F9010790141107004050150C41D405064090741402480A0350
1001
ACAD
1000
AcDbSavedByObjectVersion
1070
     0
  0
ACAD_PROXY_OBJECT
  5
30
102
{ACAD_REACTORS
330
2A
102
}
330
2A
100
AcDbProxyObject
 90
      499
 91
      501
 93
      420
310
4255DA5C99599C985B595059028333333333333E33F0000000000000F90107901411070040501600405405064090740C02480A0340
1001
ACAD
1000
AcDbSavedByObjectVersion
1070
     0
  0
ACAD_PROXY_OBJECT
  5
40
102
{ACAD_REACTORS
330
2A
102
}
330
2A
100
AcDbProxyObject
 90
      499
 91
      501
 93
      404
310
41560B54985E51940902404000000000000E03F0000000000000F9010740501907004050150841D405064090740C02480A1B40
1001
ACAD
1000
AcDbSavedByObjectVersion
1070
     0
  0
XRECORD
  5
75D
102
{ACAD_REACTORS
330
753
102
}
330
753
100
AcDbXrecord
340
0
  0
XRECORD
  5
75C
102
{ACAD_REACTORS
330
753
102
}
330
753
100
AcDbXrecord
 90
        0
  0
XRECORD
  5
773
102
{ACAD_REACTORS
330
753
102
}
330
753
100
AcDbXrecord
1000
DSTYLE
1002
{
1070
   340
340
11
1002
}
  0
XRECORD
  5
75E
102
{ACAD_REACTORS
330
753
102
}
330
753
100
AcDbXrecord
  1
{03e9aef8-c583-4801-91a7-c5249bfb4a05}
  0
XRECORD
  5
756
102
{ACAD_REACTORS
330
753
102
}
330
753
100
AcDbXrecord
  1

  0
XRECORD
  5
75B
102
{ACAD_REACTORS
330
753
102
}
330
753
100
AcDbXrecord
 90
        4
  0
XRECORD
  5
758
102
{ACAD_REACTORS
330
753
102
}
330
753
100
AcDbXrecord
340
1A
  0
XRECORD
  5
75A
102
{ACAD_REACTORS
330
753
102
}
330
753
100
AcDbXrecord
 90
    10781
  0
XRECORD
  5
759
102
{ACAD_REACTORS
330
753
102
}
330
753
100
AcDbXrecord
340
19
  0
XRECORD
  5
760
102
{ACAD_REACTORS
330
753
102
}
330
753
100
AcDbXrecord
 40
0.0
  0
XRECORD
  5
763
102
{ACAD_REACTORS
330
753
102
}
330
753
100
AcDbXrecord
340
0
  0
XRECORD
  5
769
102
{ACAD_REACTORS
330
753
102
}
330
753
100
AcDbXrecord
 10
0.0
 20
0.0
 30
0.0
  0
XRECORD
  5
765
102
{ACAD_REACTORS
330
753
102
}
330
753
100
AcDbXrecord
 10
0.0
 20
0.0
 30
0.0
  0
XRECORD
  5
768
102
{ACAD_REACTORS
330
753
102
}
330
753
100
AcDbXrecord
 10
0.0
 20
0.0
 30
0.0
  0
XRECORD
  5
766
102
{ACAD_REACTORS
330
753
102
}
330
753
100
AcDbXrecord
 10
0.0
 20
0.0
 30
0.0
  0
XRECORD
  5
767
102
{ACAD_REACTORS
330
753
102
}
330
753
100
AcDbXrecord
 10
0.0
 20
0.0
 30
0.0
  0
XRECORD
  5
764
102
{ACAD_REACTORS
330
753
102
}
330
753
100
AcDbXrecord
 10
0.0
 20
0.0
 30
0.0
  0
XRECORD
  5
761
102
{ACAD_REACTORS
330
753
102
}
330
753
100
AcDbXrecord
340
0
  0
XRECORD
  5
762
102
{ACAD_REACTORS
330
753
102
}
330
753
100
AcDbXrecord
 70
     0
  0
XRECORD
  5
757
102
{ACAD_REACTORS
330
753
102
}
330
753
100
AcDbXrecord
  1

  0
XRECORD
  5
754
102
{ACAD_REACTORS
330
753
102
}
330
753
100
AcDbXrecord
 90
        1
  0
XRECORD
  5
755
102
{ACAD_REACTORS
330
753
102
}
330
753
100
AcDbXrecord
 90
       70
  0
XRECORD
  5
76C
102
{ACAD_REACTORS
330
753
102
}
330
753
100
AcDbXrecord
340
0
  0
XRECORD
  5
772
102
{ACAD_REACTORS
330
753
102
}
330
753
100
AcDbXrecord
 10
0.0
 20
0.0
 30
0.0
  0
XRECORD
  5
76E
102
{ACAD_REACTORS
330
753
102
}
330
753
100
AcDbXrecord
 10
0.0
 20
0.0
 30
0.0
  0
XRECORD
  5
771
102
{ACAD_REACTORS
330
753
102
}
330
753
100
AcDbXrecord
 10
0.0
 20
0.0
 30
0.0
  0
XRECORD
  5
76F
102
{ACAD_REACTORS
330
753
102
}
330
753
100
AcDbXrecord
 10
0.0
 20
0.0
 30
0.0
  0
XRECORD
  5
770
102
{ACAD_REACTORS
330
753
102
}
330
753
100
AcDbXrecord
 10
0.0
 20
0.0
 30
0.0
  0
XRECORD
  5
76D
102
{ACAD_REACTORS
330
753
102
}
330
753
100
AcDbXrecord
 10
0.0
 20
0.0
 30
0.0
  0
XRECORD
  5
76A
102
{ACAD_REACTORS
330
753
102
}
330
753
100
AcDbXrecord
340
0
  0
XRECORD
  5
76B
102
{ACAD_REACTORS
330
753
102
}
330
753
100
AcDbXrecord
 70
     0
  0
XRECORD
  5
75F
102
{ACAD_REACTORS
330
753
102
}
330
753
100
AcDbXrecord
  1
{FAEB1C32-E019-11D5-929B-00C0DF256EC4}
  0
DICTIONARYVAR
  5
781
102
{ACAD_REACTORS
330
774
102
}
330
774
100
DictionaryVariables
280
     0
  1
1:1
  0
DICTIONARYVAR
  5
77B
102
{ACAD_REACTORS
330
774
102
}
330
774
100
DictionaryVariables
280
     0
  1
3.500000
  0
DICTIONARYVAR
  5
77C
102
{ACAD_REACTORS
330
774
102
}
330
774
100
DictionaryVariables
280
     0
  1
acadiso.lin
  0
DICTIONARYVAR
  5
776
102
{ACAD_REACTORS
330
774
102
}
330
774
100
DictionaryVariables
280
     0
  1
Standard
  0
DICTIONARYVAR
  5
775
102
{ACAD_REACTORS
330
774
102
}
330
774
100
DictionaryVariables
280
     0
  1
Standard
  0
DICTIONARYVAR
  5
77D
102
{ACAD_REACTORS
330
774
102
}
330
774
100
DictionaryVariables
280
     0
  1
2
  0
DICTIONARYVAR
  5
77E
102
{ACAD_REACTORS
330
774
102
}
330
774
100
DictionaryVariables
280
     0
  1
1
  0
DICTIONARYVAR
  5
782
102
{ACAD_REACTORS
330
774
102
}
330
774
100
DictionaryVariables
280
     0
  1
1
  0
DICTIONARYVAR
  5
778
102
{ACAD_REACTORS
330
774
102
}
330
774
100
DictionaryVariables
280
     0
  1
80.000000
  0
DICTIONARYVAR
  5
777
102
{ACAD_REACTORS
330
774
102
}
330
774
100
DictionaryVariables
280
     0
  1
5.000000
  0
DICTIONARY
  5
785
330
45
100
AcDbDictionary
280
     1
  3
ACAD_XREC_ROUNDTRIP
360
786
  0
DICTIONARY
  5
783
330
44
100
AcDbDictionary
280
     1
  3
ACAD_XREC_ROUNDTRIP
360
784
  0
DICTIONARY
  5
787
330
46
100
AcDbDictionary
280
     1
  3
ACAD_XREC_ROUNDTRIP
360
788
  0
XRECORD
  5
786
102
{ACAD_REACTORS
330
785
102
}
330
785
100
AcDbXrecord
102
MATERIAL
148
0.0
149
0.0
149
0.0
 93
        0
 94
      127
282
     0
 72
     1
 77
     1
171
     1
175
     1
179
     1
273
     0
  0
XRECORD
  5
784
102
{ACAD_REACTORS
330
783
102
}
330
783
100
AcDbXrecord
102
MATERIAL
148
0.0
149
0.0
149
0.0
 93
        0
 94
      127
282
     0
 72
     1
 77
     1
171
     1
175
     1
179
     1
273
     0
  0
XRECORD
  5
788
102
{ACAD_REACTORS
330
787
102
}
330
787
100
AcDbXrecord
102
MATERIAL
148
0.0
149
0.0
149
0.0
 93
        0
 94
      127
282
     0
 72
     1
 77
     1
171
     1
175
     1
179
     1
273
     0
  0
ENDSEC
  0
EOF
