  0
SECTION
  2
HEADER
  9
$ACADVER
  1
AC1014
  9
$ACADMAINTVER
 70
     9
  9
$DWGCODEPAGE
  3
ANSI_932
  9
$INSBASE
 10
0.0
 20
0.0
 30
0.0
  9
$EXTMIN
 10
10.0
 20
20.0
 30
0.0
  9
$EXTMAX
 10
770.0000000000001
 20
560.0
 30
0.0
  9
$LIMMIN
 10
0.0
 20
0.0
  9
$LIMMAX
 10
420.0
 20
297.0
  9
$ORTHOMODE
 70
     0
  9
$REGENMODE
 70
     1
  9
$FILLMODE
 70
     1
  9
$QTEXTMODE
 70
     0
  9
$MIRRTEXT
 70
     1
  9
$DRAGMODE
 70
     2
  9
$LTSCALE
 40
0.2
  9
$OSMODE
 70
    37
  9
$ATTMODE
 70
     1
  9
$TEXTSIZE
 40
2.5
  9
$TRACEWID
 40
1.0
  9
$TEXTSTYLE
  7
STANDARD
  9
$CLAYER
  8
LAY-10
  9
$CELTYPE
  6
BYLAYER
  9
$CECOLOR
 62
   256
  9
$CELTSCALE
 40
1.0
  9
$DELOBJ
 70
     1
  9
$DISPSILH
 70
     0
  9
$DIMSCALE
 40
1.0
  9
$DIMASZ
 40
2.5
  9
$DIMEXO
 40
0.625
  9
$DIMDLI
 40
3.75
  9
$DIMRND
 40
0.0
  9
$DIMDLE
 40
0.0
  9
$DIMEXE
 40
1.25
  9
$DIMTP
 40
0.0
  9
$DIMTM
 40
0.0
  9
$DIMTXT
 40
2.5
  9
$DIMCEN
 40
2.5
  9
$DIMTSZ
 40
0.0
  9
$DIMTOL
 70
     0
  9
$DIMLIM
 70
     0
  9
$DIMTIH
 70
     0
  9
$DIMTOH
 70
     0
  9
$DIMSE1
 70
     0
  9
$DIMSE2
 70
     0
  9
$DIMTAD
 70
     1
  9
$DIMZIN
 70
     8
  9
$DIMBLK
  1

  9
$DIMASO
 70
     1
  9
$DIMSHO
 70
     1
  9
$DIMPOST
  1

  9
$DIMAPOST
  1

  9
$DIMALT
 70
     0
  9
$DIMALTD
 70
     3
  9
$DIMALTF
 40
0.03937007874016
  9
$DIMLFAC
 40
1.0
  9
$DIMTOFL
 70
     1
  9
$DIMTVP
 40
0.0
  9
$DIMTIX
 70
     0
  9
$DIMSOXD
 70
     0
  9
$DIMSAH
 70
     0
  9
$DIMBLK1
  1

  9
$DIMBLK2
  1

  9
$DIMSTYLE
  2
ISO-25
  9
$DIMCLRD
 70
     0
  9
$DIMCLRE
 70
     0
  9
$DIMCLRT
 70
     0
  9
$DIMTFAC
 40
1.0
  9
$DIMGAP
 40
0.625
  9
$DIMJUST
 70
     0
  9
$DIMSD1
 70
     0
  9
$DIMSD2
 70
     0
  9
$DIMTOLJ
 70
     0
  9
$DIMTZIN
 70
     8
  9
$DIMALTZ
 70
     0
  9
$DIMALTTZ
 70
     0
  9
$DIMFIT
 70
     3
  9
$DIMUPT
 70
     0
  9
$DIMUNIT
 70
     2
  9
$DIMDEC
 70
     2
  9
$DIMTDEC
 70
     2
  9
$DIMALTU
 70
     2
  9
$DIMALTTD
 70
     3
  9
$DIMTXSTY
  7
STANDARD
  9
$DIMAUNIT
 70
     0
  9
$LUNITS
 70
     2
  9
$LUPREC
 70
     4
  9
$SKETCHINC
 40
1.0
  9
$FILLETRAD
 40
10.0
  9
$AUNITS
 70
     0
  9
$AUPREC
 70
     0
  9
$MENU
  1
.
  9
$ELEVATION
 40
0.0
  9
$PELEVATION
 40
0.0
  9
$THICKNESS
 40
0.0
  9
$LIMCHECK
 70
     0
  9
$CHAMFERA
 40
0.0
  9
$CHAMFERB
 40
0.0
  9
$CHAMFERC
 40
0.0
  9
$CHAMFERD
 40
0.0
  9
$SKPOLY
 70
     0
  9
$TDCREATE
 40
2459229.337521215
  9
$TDUPDATE
 40
2459229.337521678
  9
$TDINDWG
 40
0.0000000116
  9
$TDUSRTIMER
 40
0.0000000116
  9
$USRTIMER
 70
     1
  9
$ANGBASE
 50
0.0
  9
$ANGDIR
 70
     0
  9
$PDMODE
 70
     0
  9
$PDSIZE
 40
0.0
  9
$PLINEWID
 40
0.0
  9
$COORDS
 70
     1
  9
$SPLFRAME
 70
     0
  9
$SPLINETYPE
 70
     6
  9
$SPLINESEGS
 70
     8
  9
$ATTDIA
 70
     0
  9
$ATTREQ
 70
     1
  9
$HANDLING
 70
     1
  9
$HANDSEED
  5
44B
  9
$SURFTAB1
 70
     6
  9
$SURFTAB2
 70
     6
  9
$SURFTYPE
 70
     6
  9
$SURFU
 70
     6
  9
$SURFV
 70
     6
  9
$UCSNAME
  2

  9
$UCSORG
 10
0.0
 20
0.0
 30
0.0
  9
$UCSXDIR
 10
1.0
 20
0.0
 30
0.0
  9
$UCSYDIR
 10
0.0
 20
1.0
 30
0.0
  9
$PUCSNAME
  2

  9
$PUCSORG
 10
0.0
 20
0.0
 30
0.0
  9
$PUCSXDIR
 10
1.0
 20
0.0
 30
0.0
  9
$PUCSYDIR
 10
0.0
 20
1.0
 30
0.0
  9
$USERI1
 70
     0
  9
$USERI2
 70
     0
  9
$USERI3
 70
     0
  9
$USERI4
 70
     0
  9
$USERI5
 70
     0
  9
$USERR1
 40
0.0
  9
$USERR2
 40
0.0
  9
$USERR3
 40
0.0
  9
$USERR4
 40
0.0
  9
$USERR5
 40
0.0
  9
$WORLDVIEW
 70
     1
  9
$SHADEDGE
 70
     3
  9
$SHADEDIF
 70
    70
  9
$TILEMODE
 70
     1
  9
$MAXACTVP
 70
    64
  9
$PINSBASE
 10
0.0
 20
0.0
 30
0.0
  9
$PLIMCHECK
 70
     0
  9
$PEXTMIN
 10
1.000000000000000E+20
 20
1.000000000000000E+20
 30
1.000000000000000E+20
  9
$PEXTMAX
 10
-1.000000000000000E+20
 20
-1.000000000000000E+20
 30
-1.000000000000000E+20
  9
$PLIMMIN
 10
0.0
 20
0.0
  9
$PLIMMAX
 10
420.0
 20
297.0
  9
$UNITMODE
 70
     0
  9
$VISRETAIN
 70
     1
  9
$PLINEGEN
 70
     0
  9
$PSLTSCALE
 70
     1
  9
$TREEDEPTH
 70
  3020
  9
$PICKSTYLE
 70
     1
  9
$CMLSTYLE
  2
STANDARD
  9
$CMLJUST
 70
     0
  9
$CMLSCALE
 40
20.0
  9
$PROXYGRAPHICS
 70
     1
  9
$MEASUREMENT
 70
     1
  0
ENDSEC
  0
SECTION
  2
CLASSES
  0
CLASS
  1
ACDBDICTIONARYWDFLT
  2
AcDbDictionaryWithDefault
  3
ObjectDBX Classes
 90
        0
280
     0
281
     0
  0
CLASS
  1
VISUALSTYLE
  2
AcDbVisualStyle
  3
ObjectDBX Classes
 90
     4095
280
     0
281
     0
  0
CLASS
  1
MATERIAL
  2
AcDbMaterial
  3
ObjectDBX Classes
 90
     1153
280
     0
281
     0
  0
CLASS
  1
SCALE
  2
AcDbScale
  3
ObjectDBX Classes
 90
     1153
280
     0
281
     0
  0
CLASS
  1
TABLESTYLE
  2
AcDbTableStyle
  3
ObjectDBX Classes
 90
     4095
280
     0
281
     0
  0
CLASS
  1
MLEADERSTYLE
  2
AcDbMLeaderStyle
  3
ACDB_MLEADERSTYLE_CLASS
 90
     4095
280
     0
281
     0
  0
CLASS
  1
SUN
  2
AcDbSun
  3
SCENEOE
 90
     1153
280
     0
281
     0
  0
CLASS
  1
DICTIONARYVAR
  2
AcDbDictionaryVar
  3
ObjectDBX Classes
 90
        0
280
     0
281
     0
  0
CLASS
  1
XRECORD
  2
AcDbXrecord
  3
ObjectDBX Classes
 90
        0
280
     0
281
     0
  0
CLASS
  1
LWPOLYLINE
  2
AcDbPolyline
  3
ObjectDBX Classes
 90
        0
280
     0
281
     1
  0
CLASS
  1
HATCH
  2
AcDbHatch
  3
ObjectDBX Classes
 90
        0
280
     0
281
     1
  0
CLASS
  1
ACDBPLACEHOLDER
  2
AcDbPlaceHolder
  3
ObjectDBX Classes
 90
        0
280
     0
281
     0
  0
CLASS
  1
LAYOUT
  2
AcDbLayout
  3
ObjectDBX Classes
 90
        0
280
     0
281
     0
  0
ENDSEC
  0
SECTION
  2
TABLES
  0
TABLE
  2
VPORT
  5
8
102
{ACAD_XDICTIONARY
360
440
102
}
330
0
100
AcDbSymbolTable
 70
     1
  0
VPORT
  5
29
330
8
100
AcDbSymbolTableRecord
100
AcDbViewportTableRecord
  2
*ACTIVE
 70
     0
 10
0.0
 20
0.0
 11
1.0
 21
1.0
 12
390.0000000000001
 22
290.0
 13
0.0
 23
0.0
 14
10.0
 24
10.0
 15
10.0
 25
10.0
 16
0.0
 26
0.0
 36
1.0
 17
0.0
 27
0.0
 37
0.0
 40
540.0
 41
1.407407407407408
 42
50.0
 43
0.0
 44
0.0
 50
0.0
 51
0.0
 71
     0
 72
  1000
 73
     1
 74
     3
 75
     0
 76
     0
 77
     0
 78
     0
  0
ENDTAB
  0
TABLE
  2
LTYPE
  5
5
330
0
100
AcDbSymbolTable
 70
     6
  0
LTYPE
  5
14
330
5
100
AcDbSymbolTableRecord
100
AcDbLinetypeTableRecord
  2
BYBLOCK
 70
     0
  3

 72
    65
 73
     0
 40
0.0
  0
LTYPE
  5
15
330
5
100
AcDbSymbolTableRecord
100
AcDbLinetypeTableRecord
  2
BYLAYER
 70
     0
  3

 72
    65
 73
     0
 40
0.0
  0
LTYPE
  5
16
330
5
100
AcDbSymbolTableRecord
100
AcDbLinetypeTableRecord
  2
CONTINUOUS
 70
     0
  3
Solid line
 72
    65
 73
     0
 40
0.0
  0
LTYPE
  5
6E
330
5
100
AcDbSymbolTableRecord
100
AcDbLinetypeTableRecord
  2
HIDDEN
 70
     0
  3
Hidden __ __ __ __ __ __ __ __ __ __ __ __ __ __
 72
    65
 73
     2
 40
9.524999999999999
 49
6.35
 74
     0
 49
-3.175
 74
     0
  0
LTYPE
  5
6F
330
5
100
AcDbSymbolTableRecord
100
AcDbLinetypeTableRecord
  2
CENTER
 70
     0
  3
Center ____ _ ____ _ ____ _ ____ _ ____ _ ____
 72
    65
 73
     4
 40
50.8
 49
31.75
 74
     0
 49
-6.35
 74
     0
 49
6.35
 74
     0
 49
-6.35
 74
     0
  0
LTYPE
  5
70
330
5
100
AcDbSymbolTableRecord
100
AcDbLinetypeTableRecord
  2
PHANTOM
 70
     0
  3
Phantom ______  __  __  ______  __  __  ______ 
 72
    65
 73
     6
 40
63.50000000000001
 49
31.75
 74
     0
 49
-6.35
 74
     0
 49
6.35
 74
     0
 49
-6.35
 74
     0
 49
6.35
 74
     0
 49
-6.35
 74
     0
  0
LTYPE
  5
71
330
5
100
AcDbSymbolTableRecord
100
AcDbLinetypeTableRecord
  2
ACAD_ISO06W100
 70
     0
  3
ISO long-dash triple-dot ____ ... ____ ... ____
 72
    65
 73
     8
 40
36.0
 49
24.0
 74
     0
 49
-3.0
 74
     0
 49
0.0
 74
     0
 49
-3.0
 74
     0
 49
0.0
 74
     0
 49
-3.0
 74
     0
 49
0.0
 74
     0
 49
-3.0
 74
     0
  0
LTYPE
  5
72
330
5
100
AcDbSymbolTableRecord
100
AcDbLinetypeTableRecord
  2
ACAD_ISO15W100
 70
     0
  3
ISO double-dash triple-dot __ __ . . . __ __ . .
 72
    65
 73
    10
 40
39.0
 49
12.0
 74
     0
 49
-3.0
 74
     0
 49
12.0
 74
     0
 49
-3.0
 74
     0
 49
0.0
 74
     0
 49
-3.0
 74
     0
 49
0.0
 74
     0
 49
-3.0
 74
     0
 49
0.0
 74
     0
 49
-3.0
 74
     0
  0
ENDTAB
  0
TABLE
  2
LAYER
  5
2
330
0
100
AcDbSymbolTable
 70
     5
  0
LAYER
  5
10
330
2
100
AcDbSymbolTableRecord
100
AcDbLayerTableRecord
  2
0
 70
     0
 62
     7
  6
CONTINUOUS
  0
LAYER
  5
75
330
2
100
AcDbSymbolTableRecord
100
AcDbLayerTableRecord
  2
LAY-10
 70
     0
 62
     7
  6
CONTINUOUS
  0
LAYER
  5
76
330
2
100
AcDbSymbolTableRecord
100
AcDbLayerTableRecord
  2
LAY-20
 70
     0
 62
     7
  6
CONTINUOUS
  0
LAYER
  5
77
330
2
100
AcDbSymbolTableRecord
100
AcDbLayerTableRecord
  2
LAY-255
 70
     0
 62
     7
  6
CONTINUOUS
  0
LAYER
  5
391
330
2
100
AcDbSymbolTableRecord
100
AcDbLayerTableRecord
  2
DEFPOINTS
 70
     0
 62
     7
  6
CONTINUOUS
  0
ENDTAB
  0
TABLE
  2
STYLE
  5
3
330
0
100
AcDbSymbolTable
 70
     4
  0
STYLE
  5
11
330
3
100
AcDbSymbolTableRecord
100
AcDbTextStyleTableRecord
  2
STANDARD
 70
     0
 40
0.0
 41
1.0
 50
0.0
 71
     0
 42
2.5
  3
simplex
  4
bigfont
  0
STYLE
  5
73
330
3
100
AcDbSymbolTableRecord
100
AcDbTextStyleTableRecord
  2
EXCADSTD
 70
     0
 40
0.0
 41
1.0
 50
0.0
 71
     0
 42
2.5
  3
simplex
  4
bigfont
  0
STYLE
  5
74
330
3
100
AcDbSymbolTableRecord
100
AcDbTextStyleTableRecord
  2
EXCADVERT
 70
     4
 40
0.0
 41
1.0
 50
0.0
 71
     0
 42
2.5
  3
simplex
  4
bigfont
  0
STYLE
  5
38F
330
3
100
AcDbSymbolTableRecord
100
AcDbTextStyleTableRecord
  2
EXCADDIM1
 70
     0
 40
0.0
 41
0.84
 50
0.0
 71
     0
 42
2.5
  3
simplex
  4
bigfont
  0
ENDTAB
  0
TABLE
  2
VIEW
  5
6
330
0
100
AcDbSymbolTable
 70
     0
  0
ENDTAB
  0
TABLE
  2
UCS
  5
7
330
0
100
AcDbSymbolTable
 70
     0
  0
ENDTAB
  0
TABLE
  2
APPID
  5
9
330
0
100
AcDbSymbolTable
 70
     2
  0
APPID
  5
12
330
9
100
AcDbSymbolTableRecord
100
AcDbRegAppTableRecord
  2
ACAD
 70
     0
  0
APPID
  5
44A
330
9
100
AcDbSymbolTableRecord
100
AcDbRegAppTableRecord
  2
ACAD_MLEADERVER
 70
     0
  0
ENDTAB
  0
TABLE
  2
DIMSTYLE
  5
A
330
0
100
AcDbSymbolTable
 70
     1
  0
DIMSTYLE
105
27
102
{ACAD_REACTORS
330
390
330
39E
330
3AB
330
3B8
330
3C5
330
3D2
330
3DE
102
}
330
A
100
AcDbSymbolTableRecord
100
AcDbDimStyleTableRecord
  2
ISO-25
 70
     0
  3

  4

  5

  6

  7

 40
1.0
 41
2.5
 42
0.625
 43
3.75
 44
1.25
 45
0.0
 46
0.0
 47
0.0
 48
0.0
140
2.5
141
2.5
142
0.0
143
0.03937007874016
144
1.0
145
0.0
146
1.0
147
0.625
 71
     0
 72
     0
 73
     0
 74
     0
 75
     0
 76
     0
 77
     1
 78
     8
170
     0
171
     3
172
     1
173
     0
174
     0
175
     0
176
     0
177
     0
178
     0
270
     2
271
     2
272
     2
273
     2
274
     3
340
11
275
     0
280
     0
281
     0
282
     0
283
     0
284
     8
285
     0
286
     0
287
     5
288
     0
  0
ENDTAB
  0
TABLE
  2
BLOCK_RECORD
  5
1
330
0
100
AcDbSymbolTable
 70
    21
  0
BLOCK_RECORD
  5
1F
330
1
100
AcDbSymbolTableRecord
100
AcDbBlockTableRecord
  2
*MODEL_SPACE
  0
BLOCK_RECORD
  5
1B
330
1
100
AcDbSymbolTableRecord
100
AcDbBlockTableRecord
  2
*PAPER_SPACE
  0
BLOCK_RECORD
  5
78
330
1
100
AcDbSymbolTableRecord
100
AcDbBlockTableRecord
  2
EX_NORM
  0
BLOCK_RECORD
  5
7B
330
1
100
AcDbSymbolTableRecord
100
AcDbBlockTableRecord
  2
EX_BNORM
  0
BLOCK_RECORD
  5
7E
330
1
100
AcDbSymbolTableRecord
100
AcDbBlockTableRecord
  2
EX_BCIR
  0
BLOCK_RECORD
  5
81
330
1
100
AcDbSymbolTableRecord
100
AcDbBlockTableRecord
  2
EX_RCIVIL
  0
BLOCK_RECORD
  5
84
330
1
100
AcDbSymbolTableRecord
100
AcDbBlockTableRecord
  2
EX_SLANT
  0
BLOCK_RECORD
  5
87
330
1
100
AcDbSymbolTableRecord
100
AcDbBlockTableRecord
  2
EX_NONE
  0
BLOCK_RECORD
  5
8A
330
1
100
AcDbSymbolTableRecord
100
AcDbBlockTableRecord
  2
EX_CIVIL
  0
BLOCK_RECORD
  5
8D
330
1
100
AcDbSymbolTableRecord
100
AcDbBlockTableRecord
  2
EX_WCIR
  0
BLOCK_RECORD
  5
90
330
1
100
AcDbSymbolTableRecord
100
AcDbBlockTableRecord
  2
EX_WCIR2
  0
BLOCK_RECORD
  5
93
330
1
100
AcDbSymbolTableRecord
100
AcDbBlockTableRecord
  2
EX_WNORM
  0
BLOCK_RECORD
  5
96
330
1
100
AcDbSymbolTableRecord
100
AcDbBlockTableRecord
  2
EX_NNORM
  0
BLOCK_RECORD
  5
99
330
1
100
AcDbSymbolTableRecord
100
AcDbBlockTableRecord
  2
EX_BBOX
  0
BLOCK_RECORD
  5
9C
330
1
100
AcDbSymbolTableRecord
100
AcDbBlockTableRecord
  2
EX_WBOX
  0
BLOCK_RECORD
  5
9F
330
1
100
AcDbSymbolTableRecord
100
AcDbBlockTableRecord
  2
EX_INTEGRAL
  0
BLOCK_RECORD
  5
392
330
1
100
AcDbSymbolTableRecord
100
AcDbBlockTableRecord
  2
*D15
  0
BLOCK_RECORD
  5
39F
330
1
100
AcDbSymbolTableRecord
100
AcDbBlockTableRecord
  2
*D16
  0
BLOCK_RECORD
  5
3AC
330
1
100
AcDbSymbolTableRecord
100
AcDbBlockTableRecord
  2
*D17
  0
BLOCK_RECORD
  5
3B9
330
1
100
AcDbSymbolTableRecord
100
AcDbBlockTableRecord
  2
*D18
  0
BLOCK_RECORD
  5
3C6
330
1
100
AcDbSymbolTableRecord
100
AcDbBlockTableRecord
  2
*D19
  0
BLOCK_RECORD
  5
3D3
330
1
100
AcDbSymbolTableRecord
100
AcDbBlockTableRecord
  2
*D20
  0
BLOCK_RECORD
  5
3DF
330
1
100
AcDbSymbolTableRecord
100
AcDbBlockTableRecord
  2
*D21
  0
ENDTAB
  0
ENDSEC
  0
SECTION
  2
BLOCKS
  0
BLOCK
  5
20
330
1F
100
AcDbEntity
  8
0
100
AcDbBlockBegin
  2
*MODEL_SPACE
 70
     0
 10
0.0
 20
0.0
 30
0.0
  3
*MODEL_SPACE
  1

  0
ENDBLK
  5
21
330
1F
100
AcDbEntity
  8
0
100
AcDbBlockEnd
  0
BLOCK
  5
1C
330
1B
100
AcDbEntity
 67
     1
  8
0
100
AcDbBlockBegin
  2
*PAPER_SPACE
 70
     0
 10
0.0
 20
0.0
 30
0.0
  3
*PAPER_SPACE
  1

  0
ENDBLK
  5
1D
330
1B
100
AcDbEntity
 67
     1
  8
0
100
AcDbBlockEnd
  0
BLOCK
  5
79
330
78
100
AcDbEntity
  8
0
100
AcDbBlockBegin
  2
EX_NORM
 70
     0
 10
0.0
 20
0.0
 30
0.0
  3
EX_NORM
  1

  0
LINE
  5
A2
330
78
100
AcDbEntity
  8
0
  6
CONTINUOUS
 62
     0
100
AcDbLine
 10
0.0
 20
0.0
 30
0.0
 11
-1.0
 21
0.0
 31
0.0
  0
LINE
  5
A3
330
78
100
AcDbEntity
  8
0
  6
CONTINUOUS
 62
     0
100
AcDbLine
 10
0.0
 20
0.0
 30
0.0
 11
-1.0
 21
0.166666667
 31
0.0
  0
LINE
  5
A4
330
78
100
AcDbEntity
  8
0
  6
CONTINUOUS
 62
     0
100
AcDbLine
 10
0.0
 20
0.0
 30
0.0
 11
-1.0
 21
-0.166666667
 31
0.0
  0
ENDBLK
  5
7A
330
78
100
AcDbEntity
  8
0
100
AcDbBlockEnd
  0
BLOCK
  5
7C
330
7B
100
AcDbEntity
  8
0
100
AcDbBlockBegin
  2
EX_BNORM
 70
     0
 10
0.0
 20
0.0
 30
0.0
  3
EX_BNORM
  1

  0
LINE
  5
A5
330
7B
100
AcDbEntity
  8
0
  6
CONTINUOUS
 62
     0
100
AcDbLine
 10
0.0
 20
0.0
 30
0.0
 11
-1.0
 21
0.0
 31
0.0
  0
LINE
  5
A6
330
7B
100
AcDbEntity
  8
0
  6
CONTINUOUS
 62
     0
100
AcDbLine
 10
0.0
 20
0.0
 30
0.0
 11
-1.0
 21
0.166666667
 31
0.0
  0
LINE
  5
A7
330
7B
100
AcDbEntity
  8
0
  6
CONTINUOUS
 62
     0
100
AcDbLine
 10
0.0
 20
0.0
 30
0.0
 11
-1.0
 21
-0.166666667
 31
0.0
  0
LINE
  5
A8
330
7B
100
AcDbEntity
  8
0
  6
CONTINUOUS
 62
     0
100
AcDbLine
 10
0.0
 20
0.0
 30
0.0
 11
-1.0
 21
0.083333333
 31
0.0
  0
LINE
  5
A9
330
7B
100
AcDbEntity
  8
0
  6
CONTINUOUS
 62
     0
100
AcDbLine
 10
0.0
 20
0.0
 30
0.0
 11
-1.0
 21
-0.083333333
 31
0.0
  0
LINE
  5
AA
330
7B
100
AcDbEntity
  8
0
  6
CONTINUOUS
 62
     0
100
AcDbLine
 10
-1.0
 20
0.166666667
 30
0.0
 11
-1.0
 21
-0.166666667
 31
0.0
  0
ENDBLK
  5
7D
330
7B
100
AcDbEntity
  8
0
100
AcDbBlockEnd
  0
BLOCK
  5
7F
330
7E
100
AcDbEntity
  8
0
100
AcDbBlockBegin
  2
EX_BCIR
 70
     0
 10
0.0
 20
0.0
 30
0.0
  3
EX_BCIR
  1

  0
LINE
  5
AB
330
7E
100
AcDbEntity
  8
0
  6
CONTINUOUS
 62
     0
100
AcDbLine
 10
0.0
 20
0.0
 30
0.0
 11
-1.0
 21
0.0
 31
0.0
  0
CIRCLE
  5
AC
330
7E
100
AcDbEntity
  8
0
  6
CONTINUOUS
 62
     0
100
AcDbCircle
 10
0.0
 20
0.0
 30
0.0
 40
0.5
  0
CIRCLE
  5
AD
330
7E
100
AcDbEntity
  8
0
  6
CONTINUOUS
 62
     0
100
AcDbCircle
 10
0.0
 20
0.0
 30
0.0
 40
0.25
  0
ENDBLK
  5
80
330
7E
100
AcDbEntity
  8
0
100
AcDbBlockEnd
  0
BLOCK
  5
82
330
81
100
AcDbEntity
  8
0
100
AcDbBlockBegin
  2
EX_RCIVIL
 70
     0
 10
0.0
 20
0.0
 30
0.0
  3
EX_RCIVIL
  1

  0
LINE
  5
AE
330
81
100
AcDbEntity
  8
0
  6
CONTINUOUS
 62
     0
100
AcDbLine
 10
0.0
 20
0.0
 30
0.0
 11
-1.0
 21
0.0
 31
0.0
  0
LINE
  5
AF
330
81
100
AcDbEntity
  8
0
  6
CONTINUOUS
 62
     0
100
AcDbLine
 10
-1.0
 20
-0.25
 30
0.0
 11
0.0
 21
-0.25
 31
0.0
  0
LINE
  5
B0
330
81
100
AcDbEntity
  8
0
  6
CONTINUOUS
 62
     0
100
AcDbLine
 10
-1.0
 20
-0.125
 30
0.0
 11
0.0
 21
-0.125
 31
0.0
  0
ENDBLK
  5
83
330
81
100
AcDbEntity
  8
0
100
AcDbBlockEnd
  0
BLOCK
  5
85
330
84
100
AcDbEntity
  8
0
100
AcDbBlockBegin
  2
EX_SLANT
 70
     0
 10
0.0
 20
0.0
 30
0.0
  3
EX_SLANT
  1

  0
LINE
  5
B1
330
84
100
AcDbEntity
  8
0
  6
CONTINUOUS
 62
     0
100
AcDbLine
 10
0.0
 20
0.0
 30
0.0
 11
-1.0
 21
0.0
 31
0.0
  0
LINE
  5
B2
330
84
100
AcDbEntity
  8
0
  6
CONTINUOUS
 62
     0
100
AcDbLine
 10
0.707106781
 20
0.707106781
 30
0.0
 11
-0.707106781
 21
-0.707106781
 31
0.0
  0
ENDBLK
  5
86
330
84
100
AcDbEntity
  8
0
100
AcDbBlockEnd
  0
BLOCK
  5
88
330
87
100
AcDbEntity
  8
0
100
AcDbBlockBegin
  2
EX_NONE
 70
     0
 10
0.0
 20
0.0
 30
0.0
  3
EX_NONE
  1

  0
LINE
  5
B3
330
87
100
AcDbEntity
  8
0
  6
CONTINUOUS
 62
     0
100
AcDbLine
 10
0.0
 20
0.0
 30
0.0
 11
-1.0
 21
0.0
 31
0.0
  0
ENDBLK
  5
89
330
87
100
AcDbEntity
  8
0
100
AcDbBlockEnd
  0
BLOCK
  5
8B
330
8A
100
AcDbEntity
  8
0
100
AcDbBlockBegin
  2
EX_CIVIL
 70
     0
 10
0.0
 20
0.0
 30
0.0
  3
EX_CIVIL
  1

  0
LINE
  5
B4
330
8A
100
AcDbEntity
  8
0
  6
CONTINUOUS
 62
     0
100
AcDbLine
 10
0.0
 20
0.0
 30
0.0
 11
-1.0
 21
0.0
 31
0.0
  0
LINE
  5
B5
330
8A
100
AcDbEntity
  8
0
  6
CONTINUOUS
 62
     0
100
AcDbLine
 10
-1.0
 20
0.25
 30
0.0
 11
0.0
 21
0.25
 31
0.0
  0
LINE
  5
B6
330
8A
100
AcDbEntity
  8
0
  6
CONTINUOUS
 62
     0
100
AcDbLine
 10
-1.0
 20
0.125
 30
0.0
 11
0.0
 21
0.125
 31
0.0
  0
ENDBLK
  5
8C
330
8A
100
AcDbEntity
  8
0
100
AcDbBlockEnd
  0
BLOCK
  5
8E
330
8D
100
AcDbEntity
  8
0
100
AcDbBlockBegin
  2
EX_WCIR
 70
     0
 10
0.0
 20
0.0
 30
0.0
  3
EX_WCIR
  1

  0
LINE
  5
B7
330
8D
100
AcDbEntity
  8
0
  6
CONTINUOUS
 62
     0
100
AcDbLine
 10
0.0
 20
0.0
 30
0.0
 11
-1.0
 21
0.0
 31
0.0
  0
CIRCLE
  5
B8
330
8D
100
AcDbEntity
  8
0
  6
CONTINUOUS
 62
     0
100
AcDbCircle
 10
0.0
 20
0.0
 30
0.0
 40
0.5
  0
ENDBLK
  5
8F
330
8D
100
AcDbEntity
  8
0
100
AcDbBlockEnd
  0
BLOCK
  5
91
330
90
100
AcDbEntity
  8
0
100
AcDbBlockBegin
  2
EX_WCIR2
 70
     0
 10
0.0
 20
0.0
 30
0.0
  3
EX_WCIR2
  1

  0
LINE
  5
B9
330
90
100
AcDbEntity
  8
0
  6
CONTINUOUS
 62
     0
100
AcDbLine
 10
-0.5
 20
0.0
 30
0.0
 11
-1.0
 21
0.0
 31
0.0
  0
CIRCLE
  5
BA
330
90
100
AcDbEntity
  8
0
  6
CONTINUOUS
 62
     0
100
AcDbCircle
 10
0.0
 20
0.0
 30
0.0
 40
0.5
  0
ENDBLK
  5
92
330
90
100
AcDbEntity
  8
0
100
AcDbBlockEnd
  0
BLOCK
  5
94
330
93
100
AcDbEntity
  8
0
100
AcDbBlockBegin
  2
EX_WNORM
 70
     0
 10
0.0
 20
0.0
 30
0.0
  3
EX_WNORM
  1

  0
LINE
  5
BB
330
93
100
AcDbEntity
  8
0
  6
CONTINUOUS
 62
     0
100
AcDbLine
 10
-1.0
 20
0.0
 30
0.0
 11
-1.0
 21
0.0
 31
0.0
  0
LINE
  5
BC
330
93
100
AcDbEntity
  8
0
  6
CONTINUOUS
 62
     0
100
AcDbLine
 10
0.0
 20
0.0
 30
0.0
 11
-1.0
 21
0.166666667
 31
0.0
  0
LINE
  5
BD
330
93
100
AcDbEntity
  8
0
  6
CONTINUOUS
 62
     0
100
AcDbLine
 10
0.0
 20
0.0
 30
0.0
 11
-1.0
 21
-0.166666667
 31
0.0
  0
LINE
  5
BE
330
93
100
AcDbEntity
  8
0
  6
CONTINUOUS
 62
     0
100
AcDbLine
 10
-1.0
 20
0.166666667
 30
0.0
 11
-1.0
 21
-0.166666667
 31
0.0
  0
ENDBLK
  5
95
330
93
100
AcDbEntity
  8
0
100
AcDbBlockEnd
  0
BLOCK
  5
97
330
96
100
AcDbEntity
  8
0
100
AcDbBlockBegin
  2
EX_NNORM
 70
     0
 10
0.0
 20
0.0
 30
0.0
  3
EX_NNORM
  1

  0
LINE
  5
BF
330
96
100
AcDbEntity
  8
0
  6
CONTINUOUS
 62
     0
100
AcDbLine
 10
0.0
 20
0.0
 30
0.0
 11
-1.0
 21
0.0
 31
0.0
  0
LINE
  5
C0
330
96
100
AcDbEntity
  8
0
  6
CONTINUOUS
 62
     0
100
AcDbLine
 10
0.0
 20
0.0
 30
0.0
 11
-1.0
 21
0.166666667
 31
0.0
  0
LINE
  5
C1
330
96
100
AcDbEntity
  8
0
  6
CONTINUOUS
 62
     0
100
AcDbLine
 10
0.0
 20
0.0
 30
0.0
 11
-1.0
 21
-0.166666667
 31
0.0
  0
LINE
  5
C2
330
96
100
AcDbEntity
  8
0
  6
CONTINUOUS
 62
     0
100
AcDbLine
 10
-1.0
 20
0.166666667
 30
0.0
 11
-1.0
 21
-0.166666667
 31
0.0
  0
ENDBLK
  5
98
330
96
100
AcDbEntity
  8
0
100
AcDbBlockEnd
  0
BLOCK
  5
9A
330
99
100
AcDbEntity
  8
0
100
AcDbBlockBegin
  2
EX_BBOX
 70
     0
 10
0.0
 20
0.0
 30
0.0
  3
EX_BBOX
  1

  0
LINE
  5
C3
330
99
100
AcDbEntity
  8
0
  6
CONTINUOUS
 62
     0
100
AcDbLine
 10
0.0
 20
0.0
 30
0.0
 11
-1.0
 21
0.0
 31
0.0
  0
LINE
  5
C4
330
99
100
AcDbEntity
  8
0
  6
CONTINUOUS
 62
     0
100
AcDbLine
 10
-0.5
 20
0.5
 30
0.0
 11
0.5
 21
0.5
 31
0.0
  0
LINE
  5
C5
330
99
100
AcDbEntity
  8
0
  6
CONTINUOUS
 62
     0
100
AcDbLine
 10
0.5
 20
0.5
 30
0.0
 11
0.5
 21
-0.5
 31
0.0
  0
LINE
  5
C6
330
99
100
AcDbEntity
  8
0
  6
CONTINUOUS
 62
     0
100
AcDbLine
 10
0.5
 20
-0.5
 30
0.0
 11
-0.5
 21
-0.5
 31
0.0
  0
LINE
  5
C7
330
99
100
AcDbEntity
  8
0
  6
CONTINUOUS
 62
     0
100
AcDbLine
 10
-0.5
 20
-0.5
 30
0.0
 11
-0.5
 21
0.5
 31
0.0
  0
LINE
  5
C8
330
99
100
AcDbEntity
  8
0
  6
CONTINUOUS
 62
     0
100
AcDbLine
 10
-0.25
 20
0.25
 30
0.0
 11
0.25
 21
0.25
 31
0.0
  0
LINE
  5
C9
330
99
100
AcDbEntity
  8
0
  6
CONTINUOUS
 62
     0
100
AcDbLine
 10
0.25
 20
0.25
 30
0.0
 11
0.25
 21
-0.25
 31
0.0
  0
LINE
  5
CA
330
99
100
AcDbEntity
  8
0
  6
CONTINUOUS
 62
     0
100
AcDbLine
 10
0.25
 20
-0.25
 30
0.0
 11
-0.25
 21
-0.25
 31
0.0
  0
LINE
  5
CB
330
99
100
AcDbEntity
  8
0
  6
CONTINUOUS
 62
     0
100
AcDbLine
 10
-0.25
 20
-0.25
 30
0.0
 11
-0.25
 21
0.25
 31
0.0
  0
ENDBLK
  5
9B
330
99
100
AcDbEntity
  8
0
100
AcDbBlockEnd
  0
BLOCK
  5
9D
330
9C
100
AcDbEntity
  8
0
100
AcDbBlockBegin
  2
EX_WBOX
 70
     0
 10
0.0
 20
0.0
 30
0.0
  3
EX_WBOX
  1

  0
LINE
  5
CC
330
9C
100
AcDbEntity
  8
0
  6
CONTINUOUS
 62
     0
100
AcDbLine
 10
-0.5
 20
0.0
 30
0.0
 11
-1.0
 21
0.0
 31
0.0
  0
LINE
  5
CD
330
9C
100
AcDbEntity
  8
0
  6
CONTINUOUS
 62
     0
100
AcDbLine
 10
-0.5
 20
0.5
 30
0.0
 11
0.5
 21
0.5
 31
0.0
  0
LINE
  5
CE
330
9C
100
AcDbEntity
  8
0
  6
CONTINUOUS
 62
     0
100
AcDbLine
 10
0.5
 20
0.5
 30
0.0
 11
0.5
 21
-0.5
 31
0.0
  0
LINE
  5
CF
330
9C
100
AcDbEntity
  8
0
  6
CONTINUOUS
 62
     0
100
AcDbLine
 10
0.5
 20
-0.5
 30
0.0
 11
-0.5
 21
-0.5
 31
0.0
  0
LINE
  5
D0
330
9C
100
AcDbEntity
  8
0
  6
CONTINUOUS
 62
     0
100
AcDbLine
 10
-0.5
 20
-0.5
 30
0.0
 11
-0.5
 21
0.5
 31
0.0
  0
ENDBLK
  5
9E
330
9C
100
AcDbEntity
  8
0
100
AcDbBlockEnd
  0
BLOCK
  5
A0
330
9F
100
AcDbEntity
  8
0
100
AcDbBlockBegin
  2
EX_INTEGRAL
 70
     0
 10
0.0
 20
0.0
 30
0.0
  3
EX_INTEGRAL
  1

  0
LINE
  5
D1
330
9F
100
AcDbEntity
  8
0
  6
CONTINUOUS
 62
     0
100
AcDbLine
 10
0.0
 20
0.0
 30
0.0
 11
-1.0
 21
0.0
 31
0.0
  0
ARC
  5
D2
330
9F
100
AcDbEntity
  8
0
  6
CONTINUOUS
 62
     0
100
AcDbCircle
 10
0.542115
 20
0.164992
 30
0.0
 40
0.56667
100
AcDbArc
 50
73.07249033629006
 51
196.9275130221199
  0
ARC
  5
D3
330
9F
100
AcDbEntity
  8
0
  6
CONTINUOUS
 62
     0
100
AcDbCircle
 10
-0.542115
 20
-0.164992
 30
0.0
 40
0.56667
100
AcDbArc
 50
253.0724869220464
 51
16.9275130559125
  0
ENDBLK
  5
A1
330
9F
100
AcDbEntity
  8
0
100
AcDbBlockEnd
  0
BLOCK
  5
393
330
392
100
AcDbEntity
  8
0
100
AcDbBlockBegin
  2
*D15
 70
     1
 10
0.0
 20
0.0
 30
0.0
  3
*D15
  1

  0
LINE
  5
395
330
392
100
AcDbEntity
  8
LAY-20
  6
CONTINUOUS
 62
     4
100
AcDbLine
 10
382.500000000005
 20
191.00000000001
 30
0.0
 11
382.500000000005
 21
267.0000000000001
 31
0.0
  0
LINE
  5
396
330
392
100
AcDbEntity
  8
LAY-20
  6
CONTINUOUS
 62
     4
100
AcDbLine
 10
237.49999999999
 20
191.00000000001
 30
0.0
 11
237.49999999999
 21
267.0000000000001
 31
0.0
  0
LINE
  5
397
330
392
100
AcDbEntity
  8
LAY-20
  6
CONTINUOUS
 62
     4
100
AcDbLine
 10
377.500000000005
 20
264.0
 30
0.0
 11
242.49999999999
 21
264.0
 31
0.0
  0
INSERT
  5
398
330
392
100
AcDbEntity
  8
LAY-20
 62
     4
100
AcDbBlockReference
  2
EX_BNORM
 10
382.500000000005
 20
264.0
 30
0.0
 41
5.0
 42
5.0
 43
5.0
  0
INSERT
  5
399
330
392
100
AcDbEntity
  8
LAY-20
 62
     4
100
AcDbBlockReference
  2
EX_BNORM
 10
237.49999999999
 20
264.0
 30
0.0
 41
5.0
 42
5.0
 43
5.0
 50
180.0
  0
MTEXT
  5
39A
330
392
100
AcDbEntity
  8
LAY-20
 62
     7
100
AcDbMText
 10
309.9999999999976
 20
268.9999999999999
 30
0.0
 40
6.2362208
 41
0.0
 71
     5
 72
     1
  1
%%c145
  7
EXCADDIM1
  0
POINT
  5
39B
330
392
100
AcDbEntity
  8
DEFPOINTS
 62
     0
100
AcDbPoint
 10
382.500000000005
 20
188.00000000001
 30
0.0
  0
POINT
  5
39C
330
392
100
AcDbEntity
  8
DEFPOINTS
 62
     0
100
AcDbPoint
 10
237.49999999999
 20
188.00000000001
 30
0.0
  0
POINT
  5
39D
330
392
100
AcDbEntity
  8
DEFPOINTS
 62
     0
100
AcDbPoint
 10
237.49999999999
 20
264.0
 30
0.0
  0
ENDBLK
  5
394
330
392
100
AcDbEntity
  8
0
100
AcDbBlockEnd
  0
BLOCK
  5
3A0
330
39F
100
AcDbEntity
  8
0
100
AcDbBlockBegin
  2
*D16
 70
     1
 10
0.0
 20
0.0
 30
0.0
  3
*D16
  1

  0
LINE
  5
3A2
330
39F
100
AcDbEntity
  8
LAY-20
  6
CONTINUOUS
 62
     4
100
AcDbLine
 10
227.5
 20
181.19864124052
 30
0.0
 11
227.5
 21
281.0
 31
0.0
  0
LINE
  5
3A3
330
39F
100
AcDbEntity
  8
LAY-20
  6
CONTINUOUS
 62
     4
100
AcDbLine
 10
392.5
 20
181.19864124052
 30
0.0
 11
392.5
 21
281.0
 31
0.0
  0
LINE
  5
3A4
330
39F
100
AcDbEntity
  8
LAY-20
  6
CONTINUOUS
 62
     4
100
AcDbLine
 10
232.5
 20
278.0
 30
0.0
 11
387.5
 21
278.0
 31
0.0
  0
INSERT
  5
3A5
330
39F
100
AcDbEntity
  8
LAY-20
 62
     4
100
AcDbBlockReference
  2
EX_BNORM
 10
227.5
 20
278.0
 30
0.0
 41
5.0
 42
5.0
 43
5.0
 50
180.0
  0
INSERT
  5
3A6
330
39F
100
AcDbEntity
  8
LAY-20
 62
     4
100
AcDbBlockReference
  2
EX_BNORM
 10
392.5
 20
278.0
 30
0.0
 41
5.0
 42
5.0
 43
5.0
  0
MTEXT
  5
3A7
330
39F
100
AcDbEntity
  8
LAY-20
 62
     7
100
AcDbMText
 10
310.0
 20
283.0
 30
0.0
 40
6.2362208
 41
0.0
 71
     5
 72
     1
  1
%%c165
  7
EXCADDIM1
  0
POINT
  5
3A8
330
39F
100
AcDbEntity
  8
DEFPOINTS
 62
     0
100
AcDbPoint
 10
227.5
 20
178.19864124052
 30
0.0
  0
POINT
  5
3A9
330
39F
100
AcDbEntity
  8
DEFPOINTS
 62
     0
100
AcDbPoint
 10
392.5
 20
178.19864124052
 30
0.0
  0
POINT
  5
3AA
330
39F
100
AcDbEntity
  8
DEFPOINTS
 62
     0
100
AcDbPoint
 10
392.5
 20
278.0
 30
0.0
  0
ENDBLK
  5
3A1
330
39F
100
AcDbEntity
  8
0
100
AcDbBlockEnd
  0
BLOCK
  5
3AD
330
3AC
100
AcDbEntity
  8
0
100
AcDbBlockBegin
  2
*D17
 70
     1
 10
0.0
 20
0.0
 30
0.0
  3
*D17
  1

  0
LINE
  5
3AF
330
3AC
100
AcDbEntity
  8
LAY-20
  6
CONTINUOUS
 62
     4
100
AcDbLine
 10
269.0
 20
145.19864124052
 30
0.0
 11
204.5
 21
145.19864124052
 31
0.0
  0
LINE
  5
3B0
330
3AC
100
AcDbEntity
  8
LAY-20
  6
CONTINUOUS
 62
     4
100
AcDbLine
 10
226.3672954017
 20
185.19864124052
 30
0.0
 11
204.5
 21
185.19864124052
 31
0.0
  0
LINE
  5
3B1
330
3AC
100
AcDbEntity
  8
LAY-20
  6
CONTINUOUS
 62
     4
100
AcDbLine
 10
207.5
 20
150.19864124052
 30
0.0
 11
207.5
 21
180.19864124052
 31
0.0
  0
INSERT
  5
3B2
330
3AC
100
AcDbEntity
  8
LAY-20
 62
     4
100
AcDbBlockReference
  2
EX_BNORM
 10
207.5
 20
145.19864124052
 30
0.0
 41
5.0
 42
5.0
 43
5.0
 50
270.0
  0
INSERT
  5
3B3
330
3AC
100
AcDbEntity
  8
LAY-20
 62
     4
100
AcDbBlockReference
  2
EX_BNORM
 10
207.5
 20
185.19864124052
 30
0.0
 41
5.0
 42
5.0
 43
5.0
 50
90.0
  0
MTEXT
  5
3B4
330
3AC
100
AcDbEntity
  8
LAY-20
 62
     7
100
AcDbMText
 10
202.5
 20
165.19864124052
 30
0.0
 40
6.2362208
 41
0.0
 71
     5
 72
     1
  1
40
  7
EXCADDIM1
 11
0.0
 21
1.0
 31
0.0
  0
POINT
  5
3B5
330
3AC
100
AcDbEntity
  8
DEFPOINTS
 62
     0
100
AcDbPoint
 10
272.0
 20
145.19864124052
 30
0.0
  0
POINT
  5
3B6
330
3AC
100
AcDbEntity
  8
DEFPOINTS
 62
     0
100
AcDbPoint
 10
229.3672954017
 20
185.19864124052
 30
0.0
  0
POINT
  5
3B7
330
3AC
100
AcDbEntity
  8
DEFPOINTS
 62
     0
100
AcDbPoint
 10
207.5
 20
185.19864124052
 30
0.0
  0
ENDBLK
  5
3AE
330
3AC
100
AcDbEntity
  8
0
100
AcDbBlockEnd
  0
BLOCK
  5
3BA
330
3B9
100
AcDbEntity
  8
0
100
AcDbBlockBegin
  2
*D18
 70
     1
 10
0.0
 20
0.0
 30
0.0
  3
*D18
  1

  0
LINE
  5
3BC
330
3B9
100
AcDbEntity
  8
LAY-20
  6
CONTINUOUS
 62
     4
100
AcDbLine
 10
280.2
 20
135.19864124052
 30
0.0
 11
280.2
 21
102.19864124052
 31
0.0
  0
LINE
  5
3BD
330
3B9
100
AcDbEntity
  8
LAY-20
  6
CONTINUOUS
 62
     4
100
AcDbLine
 10
339.8
 20
135.19864124052
 30
0.0
 11
339.8
 21
102.19864124052
 31
0.0
  0
LINE
  5
3BE
330
3B9
100
AcDbEntity
  8
LAY-20
  6
CONTINUOUS
 62
     4
100
AcDbLine
 10
285.2
 20
105.19864124052
 30
0.0
 11
334.8
 21
105.19864124052
 31
0.0
  0
INSERT
  5
3BF
330
3B9
100
AcDbEntity
  8
LAY-20
 62
     4
100
AcDbBlockReference
  2
EX_BNORM
 10
280.2
 20
105.19864124052
 30
0.0
 41
5.0
 42
5.0
 43
5.0
 50
180.0
  0
INSERT
  5
3C0
330
3B9
100
AcDbEntity
  8
LAY-20
 62
     4
100
AcDbBlockReference
  2
EX_BNORM
 10
339.8
 20
105.19864124052
 30
0.0
 41
5.0
 42
5.0
 43
5.0
  0
MTEXT
  5
3C1
330
3B9
100
AcDbEntity
  8
LAY-20
 62
     7
100
AcDbMText
 10
310.0
 20
110.19864124052
 30
0.0
 40
6.2362208
 41
0.0
 71
     5
 72
     1
  1
Rｃ2（59.6）
  7
EXCADDIM1
  0
POINT
  5
3C2
330
3B9
100
AcDbEntity
  8
DEFPOINTS
 62
     0
100
AcDbPoint
 10
280.2
 20
138.19864124052
 30
0.0
  0
POINT
  5
3C3
330
3B9
100
AcDbEntity
  8
DEFPOINTS
 62
     0
100
AcDbPoint
 10
339.8
 20
138.19864124052
 30
0.0
  0
POINT
  5
3C4
330
3B9
100
AcDbEntity
  8
DEFPOINTS
 62
     0
100
AcDbPoint
 10
339.8
 20
105.19864124052
 30
0.0
  0
ENDBLK
  5
3BB
330
3B9
100
AcDbEntity
  8
0
100
AcDbBlockEnd
  0
BLOCK
  5
3C7
330
3C6
100
AcDbEntity
  8
0
100
AcDbBlockBegin
  2
*D19
 70
     1
 10
0.0
 20
0.0
 30
0.0
  3
*D19
  1

  0
LINE
  5
3C9
330
3C6
100
AcDbEntity
  8
LAY-20
  6
CONTINUOUS
 62
     4
100
AcDbLine
 10
351.0
 20
125.19864124052
 30
0.0
 11
415.5
 21
125.19864124052
 31
0.0
  0
LINE
  5
3CA
330
3C6
100
AcDbEntity
  8
LAY-20
  6
CONTINUOUS
 62
     4
100
AcDbLine
 10
393.63270459831
 20
185.19864124052
 30
0.0
 11
415.5
 21
185.19864124052
 31
0.0
  0
LINE
  5
3CB
330
3C6
100
AcDbEntity
  8
LAY-20
  6
CONTINUOUS
 62
     4
100
AcDbLine
 10
412.5
 20
130.19864124052
 30
0.0
 11
412.5
 21
180.19864124052
 31
0.0
  0
INSERT
  5
3CC
330
3C6
100
AcDbEntity
  8
LAY-20
 62
     4
100
AcDbBlockReference
  2
EX_BNORM
 10
412.5
 20
125.19864124052
 30
0.0
 41
5.0
 42
5.0
 43
5.0
 50
270.0
  0
INSERT
  5
3CD
330
3C6
100
AcDbEntity
  8
LAY-20
 62
     4
100
AcDbBlockReference
  2
EX_BNORM
 10
412.5
 20
185.19864124052
 30
0.0
 41
5.0
 42
5.0
 43
5.0
 50
90.0
  0
MTEXT
  5
3CE
330
3C6
100
AcDbEntity
  8
LAY-20
 62
     7
100
AcDbMText
 10
407.5
 20
155.19864124052
 30
0.0
 40
6.2362208
 41
0.0
 71
     5
 72
     1
  1
60
  7
EXCADDIM1
 11
0.0
 21
1.0
 31
0.0
  0
POINT
  5
3CF
330
3C6
100
AcDbEntity
  8
DEFPOINTS
 62
     0
100
AcDbPoint
 10
348.0
 20
125.19864124052
 30
0.0
  0
POINT
  5
3D0
330
3C6
100
AcDbEntity
  8
DEFPOINTS
 62
     0
100
AcDbPoint
 10
390.63270459831
 20
185.19864124052
 30
0.0
  0
POINT
  5
3D1
330
3C6
100
AcDbEntity
  8
DEFPOINTS
 62
     0
100
AcDbPoint
 10
412.5
 20
185.19864124052
 30
0.0
  0
ENDBLK
  5
3C8
330
3C6
100
AcDbEntity
  8
0
100
AcDbBlockEnd
  0
BLOCK
  5
3D4
330
3D3
100
AcDbEntity
  8
0
100
AcDbBlockBegin
  2
*D20
 70
     1
 10
0.0
 20
0.0
 30
0.0
  3
*D20
  1

  0
LINE
  5
3D6
330
3D3
100
AcDbEntity
  8
LAY-20
  6
CONTINUOUS
 62
     4
100
AcDbLine
 10
335.97942913437
 20
230.00000000001
 30
0.0
 11
415.5
 21
230.00000000001
 31
0.0
  0
LINE
  5
3D7
330
3D3
100
AcDbEntity
  8
LAY-20
  6
CONTINUOUS
 62
     4
100
AcDbLine
 10
412.5
 20
225.00000000001
 30
0.0
 11
412.5
 21
190.19864124052
 31
0.0
  0
INSERT
  5
3D8
330
3D3
100
AcDbEntity
  8
LAY-20
 62
     4
100
AcDbBlockReference
  2
EX_BNORM
 10
412.5
 20
230.00000000001
 30
0.0
 41
5.0
 42
5.0
 43
5.0
 50
90.0
  0
INSERT
  5
3D9
330
3D3
100
AcDbEntity
  8
LAY-20
 62
     4
100
AcDbBlockReference
  2
EX_BNORM
 10
412.5
 20
185.19864124052
 30
0.0
 41
5.0
 42
5.0
 43
5.0
 50
270.0
  0
MTEXT
  5
3DA
330
3D3
100
AcDbEntity
  8
LAY-20
 62
     7
100
AcDbMText
 10
407.5
 20
207.599320620265
 30
0.0
 40
6.2362208
 41
0.0
 71
     5
 72
     1
  1
45
  7
EXCADDIM1
 11
0.0
 21
1.0
 31
0.0
  0
POINT
  5
3DB
330
3D3
100
AcDbEntity
  8
DEFPOINTS
 62
     0
100
AcDbPoint
 10
332.97942913437
 20
230.00000000001
 30
0.0
  0
POINT
  5
3DC
330
3D3
100
AcDbEntity
  8
DEFPOINTS
 62
     0
100
AcDbPoint
 10
412.5
 20
185.19864124052
 30
0.0
  0
POINT
  5
3DD
330
3D3
100
AcDbEntity
  8
DEFPOINTS
 62
     0
100
AcDbPoint
 10
412.5
 20
185.19864124052
 30
0.0
  0
ENDBLK
  5
3D5
330
3D3
100
AcDbEntity
  8
0
100
AcDbBlockEnd
  0
BLOCK
  5
3E0
330
3DF
100
AcDbEntity
  8
0
100
AcDbBlockBegin
  2
*D21
 70
     1
 10
0.0
 20
0.0
 30
0.0
  3
*D21
  1

  0
LINE
  5
3E2
330
3DF
100
AcDbEntity
  8
LAY-20
  6
CONTINUOUS
 62
     4
100
AcDbLine
 10
363.5
 20
193.00000000001
 30
0.0
 11
363.5
 21
253.0
 31
0.0
  0
LINE
  5
3E3
330
3DF
100
AcDbEntity
  8
LAY-20
  6
CONTINUOUS
 62
     4
100
AcDbLine
 10
256.5
 20
193.00000000001
 30
0.0
 11
256.5
 21
253.0
 31
0.0
  0
LINE
  5
3E4
330
3DF
100
AcDbEntity
  8
LAY-20
  6
CONTINUOUS
 62
     4
100
AcDbLine
 10
358.5
 20
250.0
 30
0.0
 11
261.5
 21
250.0
 31
0.0
  0
INSERT
  5
3E5
330
3DF
100
AcDbEntity
  8
LAY-20
 62
     4
100
AcDbBlockReference
  2
EX_BNORM
 10
363.5
 20
250.0
 30
0.0
 41
5.0
 42
5.0
 43
5.0
  0
INSERT
  5
3E6
330
3DF
100
AcDbEntity
  8
LAY-20
 62
     4
100
AcDbBlockReference
  2
EX_BNORM
 10
256.5
 20
250.0
 30
0.0
 41
5.0
 42
5.0
 43
5.0
 50
180.0
  0
MTEXT
  5
3E7
330
3DF
100
AcDbEntity
  8
LAY-20
 62
     7
100
AcDbMText
 10
310.0
 20
255.0
 30
0.0
 40
6.2362208
 41
0.0
 71
     5
 72
     1
  1
%%c107
  7
EXCADDIM1
  0
POINT
  5
3E8
330
3DF
100
AcDbEntity
  8
DEFPOINTS
 62
     0
100
AcDbPoint
 10
363.5
 20
190.00000000001
 30
0.0
  0
POINT
  5
3E9
330
3DF
100
AcDbEntity
  8
DEFPOINTS
 62
     0
100
AcDbPoint
 10
256.5
 20
190.00000000001
 30
0.0
  0
POINT
  5
3EA
330
3DF
100
AcDbEntity
  8
DEFPOINTS
 62
     0
100
AcDbPoint
 10
256.5
 20
250.0
 30
0.0
  0
ENDBLK
  5
3E1
330
3DF
100
AcDbEntity
  8
0
100
AcDbBlockEnd
  0
ENDSEC
  0
SECTION
  2
ENTITIES
  0
LINE
  5
D4
330
1F
100
AcDbEntity
  8
LAY-10
  6
CONTINUOUS
 62
     7
100
AcDbLine
 10
271.9999999999991
 20
144.9976311137424
 30
0.0
 11
272.2010101267791
 21
145.1986412405224
 31
0.0
  0
LINE
  5
D5
330
1F
100
AcDbEntity
  8
LAY-10
  6
CONTINUOUS
 62
     7
100
AcDbLine
 10
271.9999999999991
 20
142.1692039889962
 30
0.0
 11
274.4999999999931
 21
144.6692039889902
 31
0.0
  0
LINE
  5
D6
330
1F
100
AcDbEntity
  8
LAY-10
  6
CONTINUOUS
 62
     7
100
AcDbLine
 10
271.9999999999991
 20
139.34077686425
 30
0.0
 11
274.4999999999931
 21
141.840776864244
 31
0.0
  0
LINE
  5
D7
330
1F
100
AcDbEntity
  8
LAY-10
  6
CONTINUOUS
 62
     7
100
AcDbLine
 10
271.9999999999991
 20
136.5123497395039
 30
0.0
 11
274.4999999999957
 21
139.0123497395004
 31
0.0
  0
LINE
  5
D8
330
1F
100
AcDbEntity
  8
LAY-10
  6
CONTINUOUS
 62
     7
100
AcDbLine
 10
271.9999999999991
 20
133.6839226147576
 30
0.0
 11
274.4999999999957
 21
136.1839226147542
 31
0.0
  0
LINE
  5
D9
330
1F
100
AcDbEntity
  8
LAY-10
  6
CONTINUOUS
 62
     7
100
AcDbLine
 10
271.9999999999991
 20
130.8554954900114
 30
0.0
 11
274.4999999999957
 21
133.355495490008
 31
0.0
  0
LINE
  5
DA
330
1F
100
AcDbEntity
  8
LAY-10
  6
CONTINUOUS
 62
     7
100
AcDbLine
 10
271.9999999999965
 20
128.0270683652627
 30
0.0
 11
274.4999999999931
 21
130.5270683652593
 31
0.0
  0
LINE
  5
DB
330
1F
100
AcDbEntity
  8
LAY-10
  6
CONTINUOUS
 62
     7
100
AcDbLine
 10
272.0000000000017
 20
125.1986412405216
 30
0.0
 11
274.4999999999931
 21
127.698641240513
 31
0.0
  0
LINE
  5
DC
330
1F
100
AcDbEntity
  8
LAY-10
  6
CONTINUOUS
 62
     7
100
AcDbLine
 10
345.5000000000059
 20
144.9976311137493
 30
0.0
 11
345.7010101267783
 21
145.1986412405216
 31
0.0
  0
LINE
  5
DD
330
1F
100
AcDbEntity
  8
LAY-10
  6
CONTINUOUS
 62
     7
100
AcDbLine
 10
345.5000000000059
 20
142.1692039890031
 30
0.0
 11
348.0000000000051
 21
144.6692039890023
 31
0.0
  0
LINE
  5
DE
330
1F
100
AcDbEntity
  8
LAY-10
  6
CONTINUOUS
 62
     7
100
AcDbLine
 10
345.5000000000085
 20
139.3407768642595
 30
0.0
 11
348.0000000000051
 21
141.840776864256
 31
0.0
  0
LINE
  5
DF
330
1F
100
AcDbEntity
  8
LAY-10
  6
CONTINUOUS
 62
     7
100
AcDbLine
 10
345.5000000000034
 20
136.5123497395081
 30
0.0
 11
348.0000000000025
 21
139.0123497395073
 31
0.0
  0
LINE
  5
E0
330
1F
100
AcDbEntity
  8
LAY-10
  6
CONTINUOUS
 62
     7
100
AcDbLine
 10
345.5000000000034
 20
133.683922614762
 30
0.0
 11
348.0000000000025
 21
136.1839226147611
 31
0.0
  0
LINE
  5
E1
330
1F
100
AcDbEntity
  8
LAY-10
  6
CONTINUOUS
 62
     7
100
AcDbLine
 10
345.5000000000034
 20
130.8554954900158
 30
0.0
 11
348.0000000000025
 21
133.3554954900149
 31
0.0
  0
LINE
  5
E2
330
1F
100
AcDbEntity
  8
LAY-10
  6
CONTINUOUS
 62
     7
100
AcDbLine
 10
345.5000000000059
 20
128.0270683652722
 30
0.0
 11
348.0000000000051
 21
130.5270683652712
 31
0.0
  0
LINE
  5
E3
330
1F
100
AcDbEntity
  8
LAY-10
  6
CONTINUOUS
 62
     7
100
AcDbLine
 10
345.4999999999982
 20
125.1986412405182
 30
0.0
 11
348.0000000000051
 21
127.6986412405251
 31
0.0
  0
CIRCLE
  5
E4
330
1F
100
AcDbEntity
  8
LAY-10
  6
CONTINUOUS
 62
     7
100
AcDbCircle
 10
310.0000000000001
 20
379.9999999999969
 30
0.0
 40
82.5
  0
CIRCLE
  5
E5
330
1F
100
AcDbEntity
  8
LAY-10
  6
CONTINUOUS
 62
     7
100
AcDbCircle
 10
310.0000000000001
 20
379.9999999999969
 30
0.0
 40
76.50000000000007
  0
CIRCLE
  5
E6
330
1F
100
AcDbEntity
  8
LAY-10
  6
CONTINUOUS
 62
     7
100
AcDbCircle
 10
310.0000000000001
 20
379.9999999999969
 30
0.0
 40
81.50000000000007
  0
CIRCLE
  5
E7
330
1F
100
AcDbEntity
  8
LAY-10
  6
CONTINUOUS
 62
     7
100
AcDbCircle
 10
310.0
 20
380.000000000004
 30
0.0
 40
71.49999999997883
  0
CIRCLE
  5
E8
330
1F
100
AcDbEntity
  8
LAY-10
  6
CONTINUOUS
 62
     7
100
AcDbCircle
 10
310.0
 20
380.000000000004
 30
0.0
 40
72.50000000000007
  0
LINE
  5
E9
330
1F
100
AcDbEntity
  8
LAY-10
  6
CONTINUOUS
 62
     7
100
AcDbLine
 10
250.1670929347
 20
391.8753202952702
 30
0.0
 11
256.0715346535694
 21
390.8037320116206
 31
0.0
  0
LINE
  5
EA
330
1F
100
AcDbEntity
  8
LAY-10
  6
CONTINUOUS
 62
     7
100
AcDbLine
 10
250.1670929347
 20
368.1246797047378
 30
0.0
 11
256.0715346535694
 21
369.1962679883874
 31
0.0
  0
LINE
  5
EB
330
1F
100
AcDbEntity
  8
LAY-10
  6
CONTINUOUS
 62
     7
100
AcDbLine
 10
254.9000907441765
 20
370.000000000004
 30
0.0
 11
256.0715346535694
 21
369.1962679883874
 31
0.0
  0
LINE
  5
EC
330
1F
100
AcDbEntity
  8
LAY-10
  6
CONTINUOUS
 62
     7
100
AcDbLine
 10
250.9643829401887
 20
369.2857142857182
 30
0.0
 11
250.1670929347
 21
368.1246797047378
 31
0.0
  0
LINE
  5
ED
330
1F
100
AcDbEntity
  8
LAY-10
  6
CONTINUOUS
 62
     7
100
AcDbLine
 10
254.9000907441765
 20
390.000000000004
 30
0.0
 11
256.0715346535694
 21
390.8037320116206
 31
0.0
  0
LINE
  5
EE
330
1F
100
AcDbEntity
  8
LAY-10
  6
CONTINUOUS
 62
     7
100
AcDbLine
 10
250.9643829401887
 20
390.7142857142898
 30
0.0
 11
250.1670929347
 21
391.8753202952702
 31
0.0
  0
ARC
  5
EF
330
1F
100
AcDbEntity
  8
LAY-10
  6
CONTINUOUS
 62
     7
100
AcDbCircle
 10
310.0
 20
380.000000000004
 30
0.0
 40
60.99999999999997
100
AcDbArc
 50
168.7741222385444
 51
191.2258777614559
  0
ARC
  5
F0
330
1F
100
AcDbEntity
  8
LAY-10
  6
CONTINUOUS
 62
     7
100
AcDbCircle
 10
310.0
 20
380.000000000004
 30
0.0
 40
60.00000000000036
100
AcDbArc
 50
170.6846007975119
 51
189.3153992024882
  0
ARC
  5
F1
330
1F
100
AcDbEntity
  8
LAY-10
  6
CONTINUOUS
 62
     7
100
AcDbCircle
 10
310.0
 20
380.000000000004
 30
0.0
 40
55.99999999999991
100
AcDbArc
 50
170.7186800739584
 51
189.2813199260419
  0
LINE
  5
F2
330
1F
100
AcDbEntity
  8
LAY-10
  6
CONTINUOUS
 62
     7
100
AcDbLine
 10
253.9247953955711
 20
390.177004891986
 30
0.0
 11
251.9566488541113
 21
390.5342008598271
 31
0.0
  0
ARC
  5
F3
330
1F
100
AcDbEntity
  8
LAY-10
  6
CONTINUOUS
 62
     7
100
AcDbCircle
 10
310.0
 20
380.000000000004
 30
0.0
 40
55.00000000000004
100
AcDbArc
 50
168.6716405380695
 51
173.4488726909056
  0
LINE
  5
F4
330
1F
100
AcDbEntity
  8
LAY-10
  6
CONTINUOUS
 62
     7
100
AcDbLine
 10
253.9247953955712
 20
369.8229951080217
 30
0.0
 11
251.9566488541113
 21
369.4657991401806
 31
0.0
  0
LINE
  5
F5
330
1F
100
AcDbEntity
  8
LAY-10
  6
CONTINUOUS
 62
     7
100
AcDbLine
 10
252.2455223515436
 20
360.3678755211314
 30
0.0
 11
257.894713017074
 21
362.3920737045277
 31
0.0
  0
LINE
  5
F6
330
1F
100
AcDbEntity
  8
LAY-10
  6
CONTINUOUS
 62
     7
100
AcDbLine
 10
264.1208426468098
 20
339.7992174135765
 30
0.0
 11
268.6984450286906
 21
343.6794609490495
 31
0.0
  0
LINE
  5
F7
330
1F
100
AcDbEntity
  8
LAY-10
  6
CONTINUOUS
 62
     7
100
AcDbLine
 10
267.2820788382395
 20
343.7897913342478
 30
0.0
 11
268.6984450286906
 21
343.6794609490495
 31
0.0
  0
LINE
  5
F8
330
1F
100
AcDbEntity
  8
LAY-10
  6
CONTINUOUS
 62
     7
100
AcDbLine
 10
264.2307987552563
 20
341.2033478581221
 30
0.0
 11
264.1208426468098
 21
339.7992174135765
 31
0.0
  0
LINE
  5
F9
330
1F
100
AcDbEntity
  8
LAY-10
  6
CONTINUOUS
 62
     7
100
AcDbLine
 10
257.2820788382395
 20
361.1102994099366
 30
0.0
 11
257.894713017074
 21
362.3920737045279
 31
0.0
  0
LINE
  5
FA
330
1F
100
AcDbEntity
  8
LAY-10
  6
CONTINUOUS
 62
     7
100
AcDbLine
 10
253.5165130409705
 20
359.7610350820745
 30
0.0
 11
252.2455223515436
 21
360.3678755211314
 31
0.0
  0
ARC
  5
FB
330
1F
100
AcDbEntity
  8
LAY-10
  6
CONTINUOUS
 62
     7
100
AcDbCircle
 10
310.0
 20
380.000000000004
 30
0.0
 40
55.00000000000004
100
AcDbArc
 50
198.6716405380695
 51
221.3283594619302
  0
ARC
  5
FC
330
1F
100
AcDbEntity
  8
LAY-10
  6
CONTINUOUS
 62
     7
100
AcDbCircle
 10
310.0
 20
380.000000000004
 30
0.0
 40
60.99999999999997
100
AcDbArc
 50
198.7741222385439
 51
221.2258777614557
  0
LINE
  5
FD
330
1F
100
AcDbEntity
  8
LAY-10
  6
CONTINUOUS
 62
     7
100
AcDbLine
 10
266.5259507361455
 20
343.1488529268944
 30
0.0
 11
265.0000838167915
 21
341.8554388738847
 31
0.0
  0
LINE
  5
FE
330
1F
100
AcDbEntity
  8
LAY-10
  6
CONTINUOUS
 62
     7
100
AcDbLine
 10
256.3489458441634
 20
360.7759424686845
 30
0.0
 11
254.4658829569681
 21
360.1012099802346
 31
0.0
  0
ARC
  5
FF
330
1F
100
AcDbEntity
  8
LAY-10
  6
CONTINUOUS
 62
     7
100
AcDbCircle
 10
310.0
 20
380.000000000004
 30
0.0
 40
55.99999999999991
100
AcDbArc
 50
200.7186800739584
 51
219.2813199260417
  0
ARC
  5
100
330
1F
100
AcDbEntity
  8
LAY-10
  6
CONTINUOUS
 62
     7
100
AcDbCircle
 10
310.0
 20
380.000000000004
 30
0.0
 40
60.00000000000036
100
AcDbArc
 50
200.6846007975122
 51
219.3153992024884
  0
LINE
  5
101
330
1F
100
AcDbEntity
  8
LAY-10
  6
CONTINUOUS
 62
     7
100
AcDbLine
 10
269.7992174135726
 20
334.1208426468137
 30
0.0
 11
273.6794609490455
 21
338.6984450286944
 31
0.0
  0
LINE
  5
102
330
1F
100
AcDbEntity
  8
LAY-10
  6
CONTINUOUS
 62
     7
100
AcDbLine
 10
290.3678755211274
 20
322.2455223515475
 30
0.0
 11
292.3920737045238
 21
327.8947130170778
 31
0.0
  0
LINE
  5
103
330
1F
100
AcDbEntity
  8
LAY-10
  6
CONTINUOUS
 62
     7
100
AcDbLine
 10
291.1102994099326
 20
327.2820788382434
 30
0.0
 11
292.3920737045238
 21
327.8947130170778
 31
0.0
  0
LINE
  5
104
330
1F
100
AcDbEntity
  8
LAY-10
  6
CONTINUOUS
 62
     7
100
AcDbLine
 10
289.7610350820704
 20
323.5165130409745
 30
0.0
 11
290.3678755211274
 21
322.2455223515475
 31
0.0
  0
LINE
  5
105
330
1F
100
AcDbEntity
  8
LAY-10
  6
CONTINUOUS
 62
     7
100
AcDbLine
 10
273.7897913342439
 20
337.2820788382434
 30
0.0
 11
273.6794609490455
 21
338.6984450286947
 31
0.0
  0
LINE
  5
106
330
1F
100
AcDbEntity
  8
LAY-10
  6
CONTINUOUS
 62
     7
100
AcDbLine
 10
271.203347858118
 20
334.2307987552603
 30
0.0
 11
269.7992174135725
 21
334.1208426468137
 31
0.0
  0
ARC
  5
107
330
1F
100
AcDbEntity
  8
LAY-10
  6
CONTINUOUS
 62
     7
100
AcDbCircle
 10
310.0
 20
380.000000000004
 30
0.0
 40
55.00000000000004
100
AcDbArc
 50
228.6716405380694
 51
251.3283594619303
  0
ARC
  5
108
330
1F
100
AcDbEntity
  8
LAY-10
  6
CONTINUOUS
 62
     7
100
AcDbCircle
 10
310.0
 20
380.000000000004
 30
0.0
 40
60.99999999999997
100
AcDbArc
 50
228.7741222385443
 51
251.2258777614561
  0
LINE
  5
109
330
1F
100
AcDbEntity
  8
LAY-10
  6
CONTINUOUS
 62
     7
100
AcDbLine
 10
290.7759424686807
 20
326.3489458441674
 30
0.0
 11
290.1012099802306
 21
324.465882956972
 31
0.0
  0
LINE
  5
10A
330
1F
100
AcDbEntity
  8
LAY-10
  6
CONTINUOUS
 62
     7
100
AcDbLine
 10
273.1488529268905
 20
336.5259507361494
 30
0.0
 11
271.8554388738808
 21
335.0000838167954
 31
0.0
  0
ARC
  5
10B
330
1F
100
AcDbEntity
  8
LAY-10
  6
CONTINUOUS
 62
     7
100
AcDbCircle
 10
310.0
 20
380.000000000004
 30
0.0
 40
55.99999999999991
100
AcDbArc
 50
230.7186800739584
 51
249.2813199260418
  0
ARC
  5
10C
330
1F
100
AcDbEntity
  8
LAY-10
  6
CONTINUOUS
 62
     7
100
AcDbCircle
 10
310.0
 20
380.000000000004
 30
0.0
 40
60.00000000000036
100
AcDbArc
 50
230.684600797512
 51
249.3153992024882
  0
LINE
  5
10D
330
1F
100
AcDbEntity
  8
LAY-10
  6
CONTINUOUS
 62
     7
100
AcDbLine
 10
298.1246797047338
 20
320.1670929347039
 30
0.0
 11
299.1962679883834
 21
326.0715346535732
 31
0.0
  0
LINE
  5
10E
330
1F
100
AcDbEntity
  8
LAY-10
  6
CONTINUOUS
 62
     7
100
AcDbLine
 10
321.8753202952662
 20
320.1670929347039
 30
0.0
 11
320.8037320116166
 21
326.0715346535732
 31
0.0
  0
LINE
  5
10F
330
1F
100
AcDbEntity
  8
LAY-10
  6
CONTINUOUS
 62
     7
100
AcDbLine
 10
320.0
 20
324.9000907441804
 30
0.0
 11
320.8037320116166
 21
326.0715346535732
 31
0.0
  0
LINE
  5
110
330
1F
100
AcDbEntity
  8
LAY-10
  6
CONTINUOUS
 62
     7
100
AcDbLine
 10
320.7142857142858
 20
320.9643829401924
 30
0.0
 11
321.8753202952662
 21
320.1670929347039
 31
0.0
  0
LINE
  5
111
330
1F
100
AcDbEntity
  8
LAY-10
  6
CONTINUOUS
 62
     7
100
AcDbLine
 10
300.0
 20
324.9000907441804
 30
0.0
 11
299.1962679883833
 21
326.0715346535732
 31
0.0
  0
LINE
  5
112
330
1F
100
AcDbEntity
  8
LAY-10
  6
CONTINUOUS
 62
     7
100
AcDbLine
 10
299.2857142857142
 20
320.9643829401924
 30
0.0
 11
298.1246797047338
 21
320.1670929347039
 31
0.0
  0
ARC
  5
113
330
1F
100
AcDbEntity
  8
LAY-10
  6
CONTINUOUS
 62
     7
100
AcDbCircle
 10
310.0
 20
380.000000000004
 30
0.0
 40
55.00000000000004
100
AcDbArc
 50
258.6716405380695
 51
265.5159357841754
  0
ARC
  5
114
330
1F
100
AcDbEntity
  8
LAY-10
  6
CONTINUOUS
 62
     7
100
AcDbCircle
 10
310.0
 20
380.000000000004
 30
0.0
 40
60.99999999999997
100
AcDbArc
 50
258.7741222385442
 51
281.2258777614562
  0
LINE
  5
115
330
1F
100
AcDbEntity
  8
LAY-10
  6
CONTINUOUS
 62
     7
100
AcDbLine
 10
320.1770048919822
 20
323.924795395575
 30
0.0
 11
320.5342008598234
 21
321.9566488541153
 31
0.0
  0
LINE
  5
116
330
1F
100
AcDbEntity
  8
LAY-10
  6
CONTINUOUS
 62
     7
100
AcDbLine
 10
299.8229951080179
 20
323.924795395575
 30
0.0
 11
299.4657991401766
 21
321.9566488541153
 31
0.0
  0
ARC
  5
117
330
1F
100
AcDbEntity
  8
LAY-10
  6
CONTINUOUS
 62
     7
100
AcDbCircle
 10
310.0
 20
380.000000000004
 30
0.0
 40
55.99999999999991
100
AcDbArc
 50
260.7186800739585
 51
279.2813199260418
  0
ARC
  5
118
330
1F
100
AcDbEntity
  8
LAY-10
  6
CONTINUOUS
 62
     7
100
AcDbCircle
 10
310.0
 20
380.000000000004
 30
0.0
 40
60.00000000000036
100
AcDbArc
 50
260.684600797512
 51
279.3153992024884
  0
LINE
  5
119
330
1F
100
AcDbEntity
  8
LAY-10
  6
CONTINUOUS
 62
     7
100
AcDbLine
 10
329.6321244788726
 20
322.2455223515475
 30
0.0
 11
327.6079262954761
 21
327.8947130170778
 31
0.0
  0
LINE
  5
11A
330
1F
100
AcDbEntity
  8
LAY-10
  6
CONTINUOUS
 62
     7
100
AcDbLine
 10
350.2007825864274
 20
334.1208426468137
 30
0.0
 11
346.3205390509545
 21
338.6984450286944
 31
0.0
  0
LINE
  5
11B
330
1F
100
AcDbEntity
  8
LAY-10
  6
CONTINUOUS
 62
     7
100
AcDbLine
 10
346.2102086657561
 20
337.2820788382434
 30
0.0
 11
346.3205390509544
 21
338.6984450286944
 31
0.0
  0
LINE
  5
11C
330
1F
100
AcDbEntity
  8
LAY-10
  6
CONTINUOUS
 62
     7
100
AcDbLine
 10
348.7966521418819
 20
334.23079875526
 30
0.0
 11
350.2007825864274
 21
334.1208426468137
 31
0.0
  0
LINE
  5
11D
330
1F
100
AcDbEntity
  8
LAY-10
  6
CONTINUOUS
 62
     7
100
AcDbLine
 10
328.8897005900674
 20
327.2820788382434
 30
0.0
 11
327.6079262954761
 21
327.8947130170778
 31
0.0
  0
LINE
  5
11E
330
1F
100
AcDbEntity
  8
LAY-10
  6
CONTINUOUS
 62
     7
100
AcDbLine
 10
330.2389649179295
 20
323.5165130409742
 30
0.0
 11
329.6321244788725
 21
322.2455223515475
 31
0.0
  0
ARC
  5
11F
330
1F
100
AcDbEntity
  8
LAY-10
  6
CONTINUOUS
 62
     7
100
AcDbCircle
 10
310.0
 20
380.000000000004
 30
0.0
 40
55.00000000000004
100
AcDbArc
 50
288.6716405380697
 51
311.3283594619308
  0
ARC
  5
120
330
1F
100
AcDbEntity
  8
LAY-10
  6
CONTINUOUS
 62
     7
100
AcDbCircle
 10
310.0
 20
380.000000000004
 30
0.0
 40
60.99999999999997
100
AcDbArc
 50
288.7741222385446
 51
311.2258777614562
  0
LINE
  5
121
330
1F
100
AcDbEntity
  8
LAY-10
  6
CONTINUOUS
 62
     7
100
AcDbLine
 10
346.8511470731095
 20
336.5259507361494
 30
0.0
 11
348.1445611261192
 21
335.0000838167954
 31
0.0
  0
LINE
  5
122
330
1F
100
AcDbEntity
  8
LAY-10
  6
CONTINUOUS
 62
     7
100
AcDbLine
 10
329.2240575313194
 20
326.3489458441674
 30
0.0
 11
329.8987900197694
 21
324.465882956972
 31
0.0
  0
ARC
  5
123
330
1F
100
AcDbEntity
  8
LAY-10
  6
CONTINUOUS
 62
     7
100
AcDbCircle
 10
310.0
 20
380.000000000004
 30
0.0
 40
55.99999999999991
100
AcDbArc
 50
290.7186800739585
 51
309.2813199260416
  0
ARC
  5
124
330
1F
100
AcDbEntity
  8
LAY-10
  6
CONTINUOUS
 62
     7
100
AcDbCircle
 10
310.0
 20
380.000000000004
 30
0.0
 40
60.00000000000036
100
AcDbArc
 50
290.6846007975118
 51
309.315399202488
  0
LINE
  5
125
330
1F
100
AcDbEntity
  8
LAY-10
  6
CONTINUOUS
 62
     7
100
AcDbLine
 10
355.8791573531902
 20
339.7992174135765
 30
0.0
 11
351.3015549713093
 21
343.6794609490495
 31
0.0
  0
LINE
  5
126
330
1F
100
AcDbEntity
  8
LAY-10
  6
CONTINUOUS
 62
     7
100
AcDbLine
 10
367.7544776484563
 20
360.3678755211312
 30
0.0
 11
362.105286982926
 21
362.3920737045277
 31
0.0
  0
LINE
  5
127
330
1F
100
AcDbEntity
  8
LAY-10
  6
CONTINUOUS
 62
     7
100
AcDbLine
 10
362.7179211617605
 20
361.1102994099366
 30
0.0
 11
362.1052869829259
 21
362.3920737045277
 31
0.0
  0
LINE
  5
128
330
1F
100
AcDbEntity
  8
LAY-10
  6
CONTINUOUS
 62
     7
100
AcDbLine
 10
366.4834869590295
 20
359.7610350820743
 30
0.0
 11
367.7544776484563
 21
360.3678755211312
 31
0.0
  0
LINE
  5
129
330
1F
100
AcDbEntity
  8
LAY-10
  6
CONTINUOUS
 62
     7
100
AcDbLine
 10
352.7179211617605
 20
343.7897913342478
 30
0.0
 11
351.3015549713093
 21
343.6794609490493
 31
0.0
  0
LINE
  5
12A
330
1F
100
AcDbEntity
  8
LAY-10
  6
CONTINUOUS
 62
     7
100
AcDbLine
 10
355.7692012447437
 20
341.2033478581219
 30
0.0
 11
355.8791573531901
 21
339.7992174135765
 31
0.0
  0
ARC
  5
12B
330
1F
100
AcDbEntity
  8
LAY-10
  6
CONTINUOUS
 62
     7
100
AcDbCircle
 10
310.0
 20
380.000000000004
 30
0.0
 40
55.00000000000004
100
AcDbArc
 50
318.6716405380697
 51
341.3283594619305
  0
ARC
  5
12C
330
1F
100
AcDbEntity
  8
LAY-10
  6
CONTINUOUS
 62
     7
100
AcDbCircle
 10
310.0
 20
380.000000000004
 30
0.0
 40
60.99999999999997
100
AcDbArc
 50
318.774122238544
 51
341.2258777614559
  0
LINE
  5
12D
330
1F
100
AcDbEntity
  8
LAY-10
  6
CONTINUOUS
 62
     7
100
AcDbLine
 10
363.6510541558366
 20
360.7759424686845
 30
0.0
 11
365.5341170430319
 21
360.1012099802343
 31
0.0
  0
LINE
  5
12E
330
1F
100
AcDbEntity
  8
LAY-10
  6
CONTINUOUS
 62
     7
100
AcDbLine
 10
353.4740492638545
 20
343.1488529268944
 30
0.0
 11
354.9999161832085
 21
341.8554388738845
 31
0.0
  0
ARC
  5
12F
330
1F
100
AcDbEntity
  8
LAY-10
  6
CONTINUOUS
 62
     7
100
AcDbCircle
 10
310.0
 20
380.000000000004
 30
0.0
 40
55.99999999999991
100
AcDbArc
 50
320.7186800739584
 51
339.2813199260416
  0
ARC
  5
130
330
1F
100
AcDbEntity
  8
LAY-10
  6
CONTINUOUS
 62
     7
100
AcDbCircle
 10
310.0
 20
380.000000000004
 30
0.0
 40
60.00000000000036
100
AcDbArc
 50
320.6846007975119
 51
339.3153992024884
  0
LINE
  5
131
330
1F
100
AcDbEntity
  8
LAY-10
  6
CONTINUOUS
 62
     7
100
AcDbLine
 10
367.7544776484564
 20
399.6321244788763
 30
0.0
 11
362.105286982926
 21
397.6079262954801
 31
0.0
  0
LINE
  5
132
330
1F
100
AcDbEntity
  8
LAY-10
  6
CONTINUOUS
 62
     7
100
AcDbLine
 10
355.8791573531903
 20
420.2007825864313
 30
0.0
 11
351.3015549713094
 21
416.3205390509582
 31
0.0
  0
LINE
  5
133
330
1F
100
AcDbEntity
  8
LAY-10
  6
CONTINUOUS
 62
     7
100
AcDbLine
 10
352.7179211617606
 20
416.21020866576
 30
0.0
 11
351.3015549713094
 21
416.3205390509582
 31
0.0
  0
LINE
  5
134
330
1F
100
AcDbEntity
  8
LAY-10
  6
CONTINUOUS
 62
     7
100
AcDbLine
 10
355.7692012447437
 20
418.7966521418856
 30
0.0
 11
355.8791573531902
 21
420.2007825864313
 31
0.0
  0
LINE
  5
135
330
1F
100
AcDbEntity
  8
LAY-10
  6
CONTINUOUS
 62
     7
100
AcDbLine
 10
362.7179211617605
 20
398.8897005900714
 30
0.0
 11
362.105286982926
 21
397.6079262954798
 31
0.0
  0
LINE
  5
136
330
1F
100
AcDbEntity
  8
LAY-10
  6
CONTINUOUS
 62
     7
100
AcDbLine
 10
366.4834869590295
 20
400.2389649179335
 30
0.0
 11
367.7544776484564
 21
399.6321244788763
 31
0.0
  0
ARC
  5
137
330
1F
100
AcDbEntity
  8
LAY-10
  6
CONTINUOUS
 62
     7
100
AcDbCircle
 10
310.0
 20
380.000000000004
 30
0.0
 40
55.00000000000004
100
AcDbArc
 50
18.6716405380693
 51
41.32835946193031
  0
ARC
  5
138
330
1F
100
AcDbEntity
  8
LAY-10
  6
CONTINUOUS
 62
     7
100
AcDbCircle
 10
310.0
 20
380.000000000004
 30
0.0
 40
60.99999999999997
100
AcDbArc
 50
18.77412223854388
 51
41.22587776145568
  0
LINE
  5
139
330
1F
100
AcDbEntity
  8
LAY-10
  6
CONTINUOUS
 62
     7
100
AcDbLine
 10
353.4740492638545
 20
416.8511470731133
 30
0.0
 11
354.9999161832086
 21
418.1445611261232
 31
0.0
  0
LINE
  5
13A
330
1F
100
AcDbEntity
  8
LAY-10
  6
CONTINUOUS
 62
     7
100
AcDbLine
 10
363.6510541558366
 20
399.2240575313234
 30
0.0
 11
365.534117043032
 21
399.8987900197734
 31
0.0
  0
ARC
  5
13B
330
1F
100
AcDbEntity
  8
LAY-10
  6
CONTINUOUS
 62
     7
100
AcDbCircle
 10
310.0
 20
380.000000000004
 30
0.0
 40
55.99999999999991
100
AcDbArc
 50
20.71868007395838
 51
39.2813199260417
  0
ARC
  5
13C
330
1F
100
AcDbEntity
  8
LAY-10
  6
CONTINUOUS
 62
     7
100
AcDbCircle
 10
310.0
 20
380.000000000004
 30
0.0
 40
60.00000000000036
100
AcDbArc
 50
20.68460079751181
 51
39.31539920248758
  0
LINE
  5
13D
330
1F
100
AcDbEntity
  8
LAY-10
  6
CONTINUOUS
 62
     7
100
AcDbLine
 10
350.2007825864275
 20
425.879157353194
 30
0.0
 11
346.3205390509545
 21
421.3015549713133
 31
0.0
  0
LINE
  5
13E
330
1F
100
AcDbEntity
  8
LAY-10
  6
CONTINUOUS
 62
     7
100
AcDbLine
 10
329.6321244788727
 20
437.7544776484602
 30
0.0
 11
327.6079262954762
 21
432.1052869829299
 31
0.0
  0
LINE
  5
13F
330
1F
100
AcDbEntity
  8
LAY-10
  6
CONTINUOUS
 62
     7
100
AcDbLine
 10
328.8897005900674
 20
432.7179211617644
 30
0.0
 11
327.6079262954763
 21
432.1052869829299
 31
0.0
  0
LINE
  5
140
330
1F
100
AcDbEntity
  8
LAY-10
  6
CONTINUOUS
 62
     7
100
AcDbLine
 10
330.2389649179296
 20
436.4834869590335
 30
0.0
 11
329.6321244788727
 21
437.7544776484602
 31
0.0
  0
LINE
  5
141
330
1F
100
AcDbEntity
  8
LAY-10
  6
CONTINUOUS
 62
     7
100
AcDbLine
 10
346.2102086657562
 20
422.7179211617644
 30
0.0
 11
346.3205390509545
 21
421.3015549713133
 31
0.0
  0
LINE
  5
142
330
1F
100
AcDbEntity
  8
LAY-10
  6
CONTINUOUS
 62
     7
100
AcDbLine
 10
348.7966521418819
 20
425.7692012447477
 30
0.0
 11
350.2007825864275
 21
425.879157353194
 31
0.0
  0
ARC
  5
143
330
1F
100
AcDbEntity
  8
LAY-10
  6
CONTINUOUS
 62
     7
100
AcDbCircle
 10
310.0
 20
380.000000000004
 30
0.0
 40
55.00000000000004
100
AcDbArc
 50
48.67164053806921
 51
71.32835946193028
  0
ARC
  5
144
330
1F
100
AcDbEntity
  8
LAY-10
  6
CONTINUOUS
 62
     7
100
AcDbCircle
 10
310.0
 20
380.000000000004
 30
0.0
 40
60.99999999999997
100
AcDbArc
 50
48.77412223854366
 51
71.22587776145568
  0
LINE
  5
145
330
1F
100
AcDbEntity
  8
LAY-10
  6
CONTINUOUS
 62
     7
100
AcDbLine
 10
329.2240575313194
 20
433.6510541558404
 30
0.0
 11
329.8987900197694
 21
435.534117043036
 31
0.0
  0
LINE
  5
146
330
1F
100
AcDbEntity
  8
LAY-10
  6
CONTINUOUS
 62
     7
100
AcDbLine
 10
346.8511470731095
 20
423.4740492638583
 30
0.0
 11
348.1445611261192
 21
424.9999161832123
 31
0.0
  0
ARC
  5
147
330
1F
100
AcDbEntity
  8
LAY-10
  6
CONTINUOUS
 62
     7
100
AcDbCircle
 10
310.0
 20
380.000000000004
 30
0.0
 40
55.99999999999991
100
AcDbArc
 50
50.71868007395817
 51
69.28131992604159
  0
ARC
  5
148
330
1F
100
AcDbEntity
  8
LAY-10
  6
CONTINUOUS
 62
     7
100
AcDbCircle
 10
310.0
 20
380.000000000004
 30
0.0
 40
60.00000000000036
100
AcDbArc
 50
50.68460079751171
 51
69.315399202488
  0
LINE
  5
149
330
1F
100
AcDbEntity
  8
LAY-10
  6
CONTINUOUS
 62
     7
100
AcDbLine
 10
321.8753202952662
 20
439.8329070653039
 30
0.0
 11
320.8037320116166
 21
433.9284653464346
 31
0.0
  0
LINE
  5
14A
330
1F
100
AcDbEntity
  8
LAY-10
  6
CONTINUOUS
 62
     7
100
AcDbLine
 10
298.1246797047339
 20
439.8329070653039
 30
0.0
 11
299.1962679883834
 21
433.9284653464346
 31
0.0
  0
LINE
  5
14B
330
1F
100
AcDbEntity
  8
LAY-10
  6
CONTINUOUS
 62
     7
100
AcDbLine
 10
300.0
 20
435.0999092558276
 30
0.0
 11
299.1962679883835
 21
433.9284653464346
 31
0.0
  0
LINE
  5
14C
330
1F
100
AcDbEntity
  8
LAY-10
  6
CONTINUOUS
 62
     7
100
AcDbLine
 10
299.2857142857143
 20
439.0356170598153
 30
0.0
 11
298.1246797047339
 21
439.8329070653039
 31
0.0
  0
LINE
  5
14D
330
1F
100
AcDbEntity
  8
LAY-10
  6
CONTINUOUS
 62
     7
100
AcDbLine
 10
320.0
 20
435.0999092558276
 30
0.0
 11
320.8037320116167
 21
433.9284653464346
 31
0.0
  0
LINE
  5
14E
330
1F
100
AcDbEntity
  8
LAY-10
  6
CONTINUOUS
 62
     7
100
AcDbLine
 10
320.7142857142858
 20
439.0356170598153
 30
0.0
 11
321.8753202952662
 21
439.8329070653039
 31
0.0
  0
ARC
  5
14F
330
1F
100
AcDbEntity
  8
LAY-10
  6
CONTINUOUS
 62
     7
100
AcDbCircle
 10
310.0
 20
380.000000000004
 30
0.0
 40
55.00000000000004
100
AcDbArc
 50
78.67164053806938
 51
85.5159357841752
  0
ARC
  5
150
330
1F
100
AcDbEntity
  8
LAY-10
  6
CONTINUOUS
 62
     7
100
AcDbCircle
 10
310.0
 20
380.000000000004
 30
0.0
 40
60.99999999999997
100
AcDbArc
 50
78.77412223854391
 51
101.2258777614558
  0
LINE
  5
151
330
1F
100
AcDbEntity
  8
LAY-10
  6
CONTINUOUS
 62
     7
100
AcDbLine
 10
299.8229951080178
 20
436.0752046044328
 30
0.0
 11
299.4657991401766
 21
438.0433511458926
 31
0.0
  0
LINE
  5
152
330
1F
100
AcDbEntity
  8
LAY-10
  6
CONTINUOUS
 62
     7
100
AcDbLine
 10
320.1770048919821
 20
436.0752046044328
 30
0.0
 11
320.5342008598234
 21
438.0433511458926
 31
0.0
  0
LINE
  5
153
330
1F
100
AcDbEntity
  8
LAY-10
  6
CONTINUOUS
 62
     7
100
AcDbLine
 10
290.3678755211274
 20
437.7544776484602
 30
0.0
 11
292.3920737045239
 21
432.1052869829299
 31
0.0
  0
LINE
  5
154
330
1F
100
AcDbEntity
  8
LAY-10
  6
CONTINUOUS
 62
     7
100
AcDbLine
 10
269.7992174135726
 20
425.879157353194
 30
0.0
 11
273.6794609490455
 21
421.3015549713133
 31
0.0
  0
LINE
  5
155
330
1F
100
AcDbEntity
  8
LAY-10
  6
CONTINUOUS
 62
     7
100
AcDbLine
 10
273.7897913342439
 20
422.7179211617644
 30
0.0
 11
273.6794609490456
 21
421.3015549713133
 31
0.0
  0
LINE
  5
156
330
1F
100
AcDbEntity
  8
LAY-10
  6
CONTINUOUS
 62
     7
100
AcDbLine
 10
271.2033478581181
 20
425.7692012447477
 30
0.0
 11
269.7992174135726
 21
425.879157353194
 31
0.0
  0
LINE
  5
157
330
1F
100
AcDbEntity
  8
LAY-10
  6
CONTINUOUS
 62
     7
100
AcDbLine
 10
291.1102994099326
 20
432.7179211617644
 30
0.0
 11
292.3920737045239
 21
432.1052869829299
 31
0.0
  0
LINE
  5
158
330
1F
100
AcDbEntity
  8
LAY-10
  6
CONTINUOUS
 62
     7
100
AcDbLine
 10
289.7610350820705
 20
436.4834869590335
 30
0.0
 11
290.3678755211275
 21
437.7544776484602
 31
0.0
  0
ARC
  5
159
330
1F
100
AcDbEntity
  8
LAY-10
  6
CONTINUOUS
 62
     7
100
AcDbCircle
 10
310.0
 20
380.000000000004
 30
0.0
 40
55.00000000000004
100
AcDbArc
 50
108.6716405380696
 51
131.3283594619305
  0
ARC
  5
15A
330
1F
100
AcDbEntity
  8
LAY-10
  6
CONTINUOUS
 62
     7
100
AcDbCircle
 10
310.0
 20
380.000000000004
 30
0.0
 40
60.99999999999997
100
AcDbArc
 50
108.7741222385443
 51
131.2258777614558
  0
LINE
  5
15B
330
1F
100
AcDbEntity
  8
LAY-10
  6
CONTINUOUS
 62
     7
100
AcDbLine
 10
273.1488529268905
 20
423.4740492638583
 30
0.0
 11
271.8554388738808
 21
424.9999161832123
 31
0.0
  0
LINE
  5
15C
330
1F
100
AcDbEntity
  8
LAY-10
  6
CONTINUOUS
 62
     7
100
AcDbLine
 10
290.7759424686806
 20
433.6510541558404
 30
0.0
 11
290.1012099802306
 21
435.5341170430357
 31
0.0
  0
ARC
  5
15D
330
1F
100
AcDbEntity
  8
LAY-10
  6
CONTINUOUS
 62
     7
100
AcDbCircle
 10
310.0
 20
380.000000000004
 30
0.0
 40
55.99999999999991
100
AcDbArc
 50
110.7186800739582
 51
111.3416600285325
  0
ARC
  5
15E
330
1F
100
AcDbEntity
  8
LAY-10
  6
CONTINUOUS
 62
     7
100
AcDbCircle
 10
310.0
 20
380.000000000004
 30
0.0
 40
60.00000000000036
100
AcDbArc
 50
110.6846007975119
 51
114.0165182901687
  0
LINE
  5
15F
330
1F
100
AcDbEntity
  8
LAY-10
  6
CONTINUOUS
 62
     7
100
AcDbLine
 10
264.1208426468098
 20
420.2007825864315
 30
0.0
 11
268.6984450286907
 21
416.3205390509585
 31
0.0
  0
LINE
  5
160
330
1F
100
AcDbEntity
  8
LAY-10
  6
CONTINUOUS
 62
     7
100
AcDbLine
 10
252.2455223515436
 20
399.6321244788766
 30
0.0
 11
257.894713017074
 21
397.6079262954801
 31
0.0
  0
LINE
  5
161
330
1F
100
AcDbEntity
  8
LAY-10
  6
CONTINUOUS
 62
     7
100
AcDbLine
 10
257.2820788382395
 20
398.8897005900714
 30
0.0
 11
257.8947130170741
 21
397.6079262954801
 31
0.0
  0
LINE
  5
162
330
1F
100
AcDbEntity
  8
LAY-10
  6
CONTINUOUS
 62
     7
100
AcDbLine
 10
253.5165130409705
 20
400.2389649179335
 30
0.0
 11
252.2455223515437
 21
399.6321244788766
 31
0.0
  0
LINE
  5
163
330
1F
100
AcDbEntity
  8
LAY-10
  6
CONTINUOUS
 62
     7
100
AcDbLine
 10
267.2820788382395
 20
416.21020866576
 30
0.0
 11
268.6984450286907
 21
416.3205390509585
 31
0.0
  0
LINE
  5
164
330
1F
100
AcDbEntity
  8
LAY-10
  6
CONTINUOUS
 62
     7
100
AcDbLine
 10
264.2307987552563
 20
418.7966521418858
 30
0.0
 11
264.1208426468099
 21
420.2007825864315
 31
0.0
  0
ARC
  5
165
330
1F
100
AcDbEntity
  8
LAY-10
  6
CONTINUOUS
 62
     7
100
AcDbCircle
 10
310.0
 20
380.000000000004
 30
0.0
 40
55.00000000000004
100
AcDbArc
 50
138.6716405380697
 51
161.3283594619302
  0
ARC
  5
166
330
1F
100
AcDbEntity
  8
LAY-10
  6
CONTINUOUS
 62
     7
100
AcDbCircle
 10
310.0
 20
380.000000000004
 30
0.0
 40
60.99999999999997
100
AcDbArc
 50
138.7741222385441
 51
161.2258777614559
  0
LINE
  5
167
330
1F
100
AcDbEntity
  8
LAY-10
  6
CONTINUOUS
 62
     7
100
AcDbLine
 10
256.3489458441634
 20
399.2240575313234
 30
0.0
 11
254.4658829569681
 21
399.8987900197734
 31
0.0
  0
LINE
  5
168
330
1F
100
AcDbEntity
  8
LAY-10
  6
CONTINUOUS
 62
     7
100
AcDbLine
 10
266.5259507361455
 20
416.8511470731133
 30
0.0
 11
265.0000838167914
 21
418.1445611261232
 31
0.0
  0
ARC
  5
169
330
1F
100
AcDbEntity
  8
LAY-10
  6
CONTINUOUS
 62
     7
100
AcDbCircle
 10
310.0
 20
380.000000000004
 30
0.0
 40
55.99999999999991
100
AcDbArc
 50
140.7186800739584
 51
159.2813199260416
  0
ARC
  5
16A
330
1F
100
AcDbEntity
  8
LAY-10
  6
CONTINUOUS
 62
     7
100
AcDbCircle
 10
310.0
 20
380.000000000004
 30
0.0
 40
60.00000000000036
100
AcDbArc
 50
140.684600797512
 51
159.3153992024882
  0
ARC
  5
16B
330
1F
100
AcDbEntity
  8
LAY-10
  6
CONTINUOUS
 62
     7
100
AcDbCircle
 10
310.0
 20
380.000000000004
 30
0.0
 40
55.00000000000004
100
AcDbArc
 50
186.5511273090948
 51
191.3283594619303
  0
LINE
  5
16C
330
1F
100
AcDbEntity
  8
LAY-10
  6
CONTINUOUS
 62
     7
100
AcDbLine
 10
255.1356052680375
 20
386.000000000004
 30
0.0
 11
255.3591255595559
 21
386.2749374804588
 31
0.0
  0
LINE
  5
16D
330
1F
100
AcDbEntity
  8
LAY-10
  6
CONTINUOUS
 62
     7
100
AcDbLine
 10
255.1356052680375
 20
374.000000000004
 30
0.0
 11
255.3591255595559
 21
373.7250625195492
 31
0.0
  0
LINE
  5
16E
330
1F
100
AcDbEntity
  8
LAY-10
  6
CONTINUOUS
 62
     7
100
AcDbLine
 10
369.8329070653001
 20
391.8753202952702
 30
0.0
 11
363.9284653464306
 21
390.8037320116206
 31
0.0
  0
LINE
  5
16F
330
1F
100
AcDbEntity
  8
LAY-10
  6
CONTINUOUS
 62
     7
100
AcDbLine
 10
369.8329070653001
 20
368.1246797047378
 30
0.0
 11
363.9284653464306
 21
369.1962679883874
 31
0.0
  0
LINE
  5
170
330
1F
100
AcDbEntity
  8
LAY-10
  6
CONTINUOUS
 62
     7
100
AcDbLine
 10
365.0999092558236
 20
370.000000000004
 30
0.0
 11
363.9284653464306
 21
369.1962679883874
 31
0.0
  0
LINE
  5
171
330
1F
100
AcDbEntity
  8
LAY-10
  6
CONTINUOUS
 62
     7
100
AcDbLine
 10
369.0356170598113
 20
369.2857142857182
 30
0.0
 11
369.8329070653001
 21
368.1246797047378
 31
0.0
  0
LINE
  5
172
330
1F
100
AcDbEntity
  8
LAY-10
  6
CONTINUOUS
 62
     7
100
AcDbLine
 10
365.0999092558236
 20
390.000000000004
 30
0.0
 11
363.9284653464306
 21
390.8037320116206
 31
0.0
  0
LINE
  5
173
330
1F
100
AcDbEntity
  8
LAY-10
  6
CONTINUOUS
 62
     7
100
AcDbLine
 10
369.0356170598113
 20
390.7142857142898
 30
0.0
 11
369.8329070653001
 21
391.8753202952702
 31
0.0
  0
ARC
  5
174
330
1F
100
AcDbEntity
  8
LAY-10
  6
CONTINUOUS
 62
     7
100
AcDbCircle
 10
310.0
 20
380.000000000004
 30
0.0
 40
60.99999999999997
100
AcDbArc
 50
348.774122238544
 51
11.22587776145544
  0
ARC
  5
175
330
1F
100
AcDbEntity
  8
LAY-10
  6
CONTINUOUS
 62
     7
100
AcDbCircle
 10
310.0
 20
380.000000000004
 30
0.0
 40
60.00000000000036
100
AcDbArc
 50
350.6846007975118
 51
9.315399202487683
  0
ARC
  5
176
330
1F
100
AcDbEntity
  8
LAY-10
  6
CONTINUOUS
 62
     7
100
AcDbCircle
 10
310.0
 20
380.000000000004
 30
0.0
 40
55.99999999999991
100
AcDbArc
 50
350.7186800739584
 51
9.281319926041341
  0
LINE
  5
177
330
1F
100
AcDbEntity
  8
LAY-10
  6
CONTINUOUS
 62
     7
100
AcDbLine
 10
366.0752046044289
 20
390.177004891986
 30
0.0
 11
368.0433511458887
 21
390.5342008598274
 31
0.0
  0
LINE
  5
178
330
1F
100
AcDbEntity
  8
LAY-10
  6
CONTINUOUS
 62
     7
100
AcDbLine
 10
366.0752046044289
 20
369.8229951080217
 30
0.0
 11
368.0433511458887
 21
369.4657991401806
 31
0.0
  0
LINE
  5
179
330
1F
100
AcDbEntity
  8
LAY-10
  6
CONTINUOUS
 62
     7
100
AcDbLine
 10
364.8643947319624
 20
386.000000000004
 30
0.0
 11
364.6408744404441
 21
386.2749374804588
 31
0.0
  0
LINE
  5
17A
330
1F
100
AcDbEntity
  8
LAY-10
  6
CONTINUOUS
 62
     7
100
AcDbLine
 10
364.8643947319624
 20
374.000000000004
 30
0.0
 11
364.6408744404441
 21
373.7250625195492
 31
0.0
  0
ARC
  5
17B
330
1F
100
AcDbEntity
  8
LAY-10
  6
CONTINUOUS
 62
     7
100
AcDbCircle
 10
310.0
 20
380.000000000004
 30
0.0
 40
55.00000000000004
100
AcDbArc
 50
348.6716405380698
 51
353.4488726909055
  0
ARC
  5
17C
330
1F
100
AcDbEntity
  8
LAY-10
  6
CONTINUOUS
 62
     7
100
AcDbCircle
 10
310.0
 20
380.000000000004
 30
0.0
 40
55.00000000000004
100
AcDbArc
 50
6.551127309094371
 51
11.32835946193053
  0
ARC
  5
17D
330
1F
100
AcDbEntity
  8
LAY-10
  6
CONTINUOUS
 62
     7
100
AcDbCircle
 10
254.8031990389336
 20
400.8401814690905
 30
0.0
 40
1.0
100
AcDbArc
 50
159.3153992024846
 51
250.2865606114691
  0
ARC
  5
17E
330
1F
100
AcDbEntity
  8
LAY-10
  6
CONTINUOUS
 62
     7
100
AcDbCircle
 10
256.686261926129
 20
400.1654489806405
 30
0.0
 40
1.0
100
AcDbArc
 50
250.2865606114691
 51
339.2813199260488
  0
ARC
  5
17F
330
1F
100
AcDbEntity
  8
LAY-10
  6
CONTINUOUS
 62
     7
100
AcDbCircle
 10
265.8793398671141
 20
416.0883270523676
 30
0.0
 40
1.0
100
AcDbArc
 50
320.7186800739702
 51
49.71343938852296
  0
ARC
  5
180
330
1F
100
AcDbEntity
  8
LAY-10
  6
CONTINUOUS
 62
     7
100
AcDbCircle
 10
264.3534729477601
 20
417.3817411053775
 30
0.0
 40
1.0
100
AcDbArc
 50
49.71343938852296
 51
140.6846007975135
  0
ARC
  5
181
330
1F
100
AcDbEntity
  8
LAY-10
  6
CONTINUOUS
 62
     7
100
AcDbCircle
 10
272.6182588946265
 20
425.6465270522439
 30
0.0
 40
1.0
100
AcDbArc
 50
129.3153992024957
 51
220.2865606114862
  0
ARC
  5
182
330
1F
100
AcDbEntity
  8
LAY-10
  6
CONTINUOUS
 62
     7
100
AcDbCircle
 10
273.9116729476362
 20
424.1206601328898
 30
0.0
 40
1.0
100
AcDbArc
 50
220.2865606114862
 51
309.28131992603
  0
ARC
  5
183
330
1F
100
AcDbEntity
  8
LAY-10
  6
CONTINUOUS
 62
     7
100
AcDbCircle
 10
289.8345510193634
 20
433.313738073875
 30
0.0
 40
1.0
100
AcDbArc
 50
290.7186800739689
 51
19.71343938851647
  0
ARC
  5
184
330
1F
100
AcDbEntity
  8
LAY-10
  6
CONTINUOUS
 62
     7
100
AcDbCircle
 10
289.1598185309134
 20
435.1968009610704
 30
0.0
 40
1.0
100
AcDbArc
 50
19.71343938851647
 51
110.684600797516
  0
ARC
  5
185
330
1F
100
AcDbEntity
  8
LAY-10
  6
CONTINUOUS
 62
     7
100
AcDbCircle
 10
300.4497260911735
 20
438.221922574464
 30
0.0
 40
1.0
100
AcDbArc
 50
99.31539920248822
 51
190.2865606114692
  0
ARC
  5
186
330
1F
100
AcDbEntity
  8
LAY-10
  6
CONTINUOUS
 62
     7
100
AcDbCircle
 10
300.8069220590147
 20
436.2537760330041
 30
0.0
 40
1.0
100
AcDbArc
 50
190.2865606114692
 51
279.2813199260455
  0
ARC
  5
187
330
1F
100
AcDbEntity
  8
LAY-10
  6
CONTINUOUS
 62
     7
100
AcDbCircle
 10
319.1930779409853
 20
436.2537760330041
 30
0.0
 40
1.0
100
AcDbArc
 50
260.7186800739545
 51
349.7134393885309
  0
ARC
  5
188
330
1F
100
AcDbEntity
  8
LAY-10
  6
CONTINUOUS
 62
     7
100
AcDbCircle
 10
319.5502739088265
 20
438.221922574464
 30
0.0
 40
1.0
100
AcDbArc
 50
349.7134393885309
 51
80.68460079751183
  0
ARC
  5
189
330
1F
100
AcDbEntity
  8
LAY-10
  6
CONTINUOUS
 62
     7
100
AcDbCircle
 10
330.8401814690866
 20
435.1968009610704
 30
0.0
 40
1.0
100
AcDbArc
 50
69.31539920248099
 51
160.2865606114692
  0
ARC
  5
18A
330
1F
100
AcDbEntity
  8
LAY-10
  6
CONTINUOUS
 62
     7
100
AcDbCircle
 10
330.1654489806366
 20
433.313738073875
 30
0.0
 40
1.0
100
AcDbArc
 50
160.2865606114836
 51
249.2813199260414
  0
ARC
  5
18B
330
1F
100
AcDbEntity
  8
LAY-10
  6
CONTINUOUS
 62
     7
100
AcDbCircle
 10
346.0883270523638
 20
424.1206601328898
 30
0.0
 40
1.0
100
AcDbArc
 50
230.7186800739727
 51
319.7134393885138
  0
ARC
  5
18C
330
1F
100
AcDbEntity
  8
LAY-10
  6
CONTINUOUS
 62
     7
100
AcDbCircle
 10
347.3817411053735
 20
425.6465270522439
 30
0.0
 40
1.0
100
AcDbArc
 50
319.7134393885138
 51
50.68460079750179
  0
ARC
  5
18D
330
1F
100
AcDbEntity
  8
LAY-10
  6
CONTINUOUS
 62
     7
100
AcDbCircle
 10
355.6465270522399
 20
417.3817411053775
 30
0.0
 40
1.0
100
AcDbArc
 50
39.31539920248655
 51
130.28656061147
  0
ARC
  5
18E
330
1F
100
AcDbEntity
  8
LAY-10
  6
CONTINUOUS
 62
     7
100
AcDbCircle
 10
354.1206601328859
 20
416.0883270523676
 30
0.0
 40
1.0
100
AcDbArc
 50
130.2865606114746
 51
219.2813199260366
  0
ARC
  5
18F
330
1F
100
AcDbEntity
  8
LAY-10
  6
CONTINUOUS
 62
     7
100
AcDbCircle
 10
363.3137380738711
 20
400.1654489806405
 30
0.0
 40
1.0
100
AcDbArc
 50
200.7186800739514
 51
289.7134393885237
  0
ARC
  5
190
330
1F
100
AcDbEntity
  8
LAY-10
  6
CONTINUOUS
 62
     7
100
AcDbCircle
 10
365.1968009610664
 20
400.8401814690905
 30
0.0
 40
1.0
100
AcDbArc
 50
289.713439388534
 51
20.68460079751485
  0
ARC
  5
191
330
1F
100
AcDbEntity
  8
LAY-10
  6
CONTINUOUS
 62
     7
100
AcDbCircle
 10
366.2537760330003
 20
389.1930779409892
 30
0.0
 40
1.0
100
AcDbArc
 50
100.2865606114756
 51
189.2813199260385
  0
ARC
  5
192
330
1F
100
AcDbEntity
  8
LAY-10
  6
CONTINUOUS
 62
     7
100
AcDbCircle
 10
368.2219225744601
 20
389.5502739088305
 30
0.0
 40
1.0
100
AcDbArc
 50
9.3153992024882
 51
100.2865606114756
  0
ARC
  5
193
330
1F
100
AcDbEntity
  8
LAY-10
  6
CONTINUOUS
 62
     7
100
AcDbCircle
 10
366.2537760330003
 20
370.8069220590186
 30
0.0
 40
1.0
100
AcDbArc
 50
170.7186800739615
 51
259.7134393885245
  0
ARC
  5
194
330
1F
100
AcDbEntity
  8
LAY-10
  6
CONTINUOUS
 62
     7
100
AcDbCircle
 10
368.2219225744601
 20
370.4497260911775
 30
0.0
 40
1.0
100
AcDbArc
 50
259.7134393885245
 51
350.6846007975118
  0
ARC
  5
195
330
1F
100
AcDbEntity
  8
LAY-10
  6
CONTINUOUS
 62
     7
100
AcDbCircle
 10
363.313738073871
 20
359.8345510193673
 30
0.0
 40
1.0
100
AcDbArc
 50
70.28656061146603
 51
159.2813199260342
  0
ARC
  5
196
330
1F
100
AcDbEntity
  8
LAY-10
  6
CONTINUOUS
 62
     7
100
AcDbCircle
 10
365.1968009610664
 20
359.1598185309173
 30
0.0
 40
1.0
100
AcDbArc
 50
339.3153992024852
 51
70.2865606114733
  0
ARC
  5
197
330
1F
100
AcDbEntity
  8
LAY-10
  6
CONTINUOUS
 62
     7
100
AcDbCircle
 10
354.1206601328859
 20
343.9116729476401
 30
0.0
 40
1.0
100
AcDbArc
 50
140.7186800739518
 51
229.7134393885254
  0
ARC
  5
198
330
1F
100
AcDbEntity
  8
LAY-10
  6
CONTINUOUS
 62
     7
100
AcDbCircle
 10
355.6465270522399
 20
342.6182588946302
 30
0.0
 40
1.0
100
AcDbArc
 50
229.7134393885254
 51
320.6846007975136
  0
ARC
  5
199
330
1F
100
AcDbEntity
  8
LAY-10
  6
CONTINUOUS
 62
     7
100
AcDbCircle
 10
330.1654489806366
 20
326.6862619261327
 30
0.0
 40
1.0
100
AcDbArc
 50
110.7186800739586
 51
199.7134393885165
  0
ARC
  5
19A
330
1F
100
AcDbEntity
  8
LAY-10
  6
CONTINUOUS
 62
     7
100
AcDbCircle
 10
330.8401814690866
 20
324.8031990389376
 30
0.0
 40
1.0
100
AcDbArc
 50
199.7134393885309
 51
290.6846007975088
  0
ARC
  5
19B
330
1F
100
AcDbEntity
  8
LAY-10
  6
CONTINUOUS
 62
     7
100
AcDbCircle
 10
347.3817411053735
 20
334.3534729477641
 30
0.0
 40
1.0
100
AcDbArc
 50
309.315399202482
 51
40.28656061147456
  0
ARC
  5
19C
330
1F
100
AcDbEntity
  8
LAY-10
  6
CONTINUOUS
 62
     7
100
AcDbCircle
 10
346.0883270523638
 20
335.8793398671181
 30
0.0
 40
1.0
100
AcDbArc
 50
40.28656061147456
 51
129.2813199260412
  0
ARC
  5
19D
330
1F
100
AcDbEntity
  8
LAY-10
  6
CONTINUOUS
 62
     7
100
AcDbCircle
 10
319.1930779409853
 20
323.7462239670036
 30
0.0
 40
1.0
100
AcDbArc
 50
10.28656061146922
 51
99.2813199260385
  0
ARC
  5
19E
330
1F
100
AcDbEntity
  8
LAY-10
  6
CONTINUOUS
 62
     7
100
AcDbCircle
 10
319.5502739088265
 20
321.7780774255438
 30
0.0
 40
1.0
100
AcDbArc
 50
279.3153992024882
 51
10.28656061148262
  0
ARC
  5
19F
330
1F
100
AcDbEntity
  8
LAY-10
  6
CONTINUOUS
 62
     7
100
AcDbCircle
 10
300.8069220590148
 20
323.7462239670036
 30
0.0
 40
1.0
100
AcDbArc
 50
80.7186800739615
 51
169.7134393885308
  0
ARC
  5
1A0
330
1F
100
AcDbEntity
  8
LAY-10
  6
CONTINUOUS
 62
     7
100
AcDbCircle
 10
300.4497260911735
 20
321.7780774255438
 30
0.0
 40
1.0
100
AcDbArc
 50
169.7134393885175
 51
260.6846007975119
  0
ARC
  5
1A1
330
1F
100
AcDbEntity
  8
LAY-10
  6
CONTINUOUS
 62
     7
100
AcDbCircle
 10
289.8345510193635
 20
326.6862619261327
 30
0.0
 40
1.0
100
AcDbArc
 50
340.2865606114837
 51
69.28131992604567
  0
ARC
  5
1A2
330
1F
100
AcDbEntity
  8
LAY-10
  6
CONTINUOUS
 62
     7
100
AcDbCircle
 10
289.1598185309134
 20
324.8031990389376
 30
0.0
 40
1.0
100
AcDbArc
 50
249.3153992024986
 51
340.2865606114691
  0
ARC
  5
1A3
330
1F
100
AcDbEntity
  8
LAY-10
  6
CONTINUOUS
 62
     7
100
AcDbCircle
 10
272.6182588946265
 20
334.3534729477641
 30
0.0
 40
1.0
100
AcDbArc
 50
139.7134393885255
 51
230.6846007975226
  0
ARC
  5
1A4
330
1F
100
AcDbEntity
  8
LAY-10
  6
CONTINUOUS
 62
     7
100
AcDbCircle
 10
273.9116729476362
 20
335.8793398671181
 30
0.0
 40
1.0
100
AcDbArc
 50
50.7186800739518
 51
139.7134393885255
  0
ARC
  5
1A5
330
1F
100
AcDbEntity
  8
LAY-10
  6
CONTINUOUS
 62
     7
100
AcDbCircle
 10
264.3534729477601
 20
342.6182588946305
 30
0.0
 40
1.0
100
AcDbArc
 50
219.3153992025028
 51
310.2865606114771
  0
ARC
  5
1A6
330
1F
100
AcDbEntity
  8
LAY-10
  6
CONTINUOUS
 62
     7
100
AcDbCircle
 10
265.8793398671143
 20
343.9116729476401
 30
0.0
 40
1.0
100
AcDbArc
 50
310.2865606114771
 51
39.28131992604823
  0
ARC
  5
1A7
330
1F
100
AcDbEntity
  8
LAY-10
  6
CONTINUOUS
 62
     7
100
AcDbCircle
 10
254.8031990389336
 20
359.1598185309173
 30
0.0
 40
1.0
100
AcDbArc
 50
109.7134393885278
 51
200.6846007975154
  0
ARC
  5
1A8
330
1F
100
AcDbEntity
  8
LAY-10
  6
CONTINUOUS
 62
     7
100
AcDbCircle
 10
256.686261926129
 20
359.8345510193673
 30
0.0
 40
1.0
100
AcDbArc
 50
20.71868007396577
 51
109.7134393885278
  0
ARC
  5
1A9
330
1F
100
AcDbEntity
  8
LAY-10
  6
CONTINUOUS
 62
     7
100
AcDbCircle
 10
251.7780774255399
 20
389.5502739088305
 30
0.0
 40
1.0
100
AcDbArc
 50
79.71343938852439
 51
170.6846007975252
  0
ARC
  5
1AA
330
1F
100
AcDbEntity
  8
LAY-10
  6
CONTINUOUS
 62
     7
100
AcDbCircle
 10
253.7462239669997
 20
389.1930779409892
 30
0.0
 40
1.0
100
AcDbArc
 50
350.7186800739613
 51
79.71343938852439
  0
ARC
  5
1AB
330
1F
100
AcDbEntity
  8
LAY-10
  6
CONTINUOUS
 62
     7
100
AcDbCircle
 10
251.7780774255399
 20
370.4497260911775
 30
0.0
 40
1.0
100
AcDbArc
 50
189.315399202488
 51
280.2865606114756
  0
ARC
  5
1AC
330
1F
100
AcDbEntity
  8
LAY-10
  6
CONTINUOUS
 62
     7
100
AcDbCircle
 10
253.7462239669997
 20
370.8069220590186
 30
0.0
 40
1.0
100
AcDbArc
 50
280.2865606114826
 51
9.281319926038766
  0
ARC
  5
1AD
330
1F
100
AcDbEntity
  8
LAY-10
  6
CONTINUOUS
 62
     7
100
AcDbCircle
 10
310.0
 20
380.000000000004
 30
0.0
 40
60.00000000000036
100
AcDbArc
 50
80.68460079751178
 51
99.31539920248822
  0
ARC
  5
1AE
330
1F
100
AcDbEntity
  8
LAY-10
  6
CONTINUOUS
 62
     7
100
AcDbCircle
 10
310.0
 20
380.000000000004
 30
0.0
 40
55.99999999999991
100
AcDbArc
 50
128.5622305230462
 51
129.2813199260419
  0
ARC
  5
1AF
330
1F
100
AcDbEntity
  8
LAY-10
  6
CONTINUOUS
 62
     7
100
AcDbCircle
 10
310.0
 20
380.000000000004
 30
0.0
 40
60.00000000000036
100
AcDbArc
 50
124.4344719611345
 51
129.3153992024884
  0
ARC
  5
1B0
330
1F
100
AcDbEntity
  8
LAY-10
  6
CONTINUOUS
 62
     7
100
AcDbCircle
 10
310.0
 20
380.000000000004
 30
0.0
 40
55.99999999999991
100
AcDbArc
 50
80.71868007395823
 51
99.2813199260416
  0
ARC
  5
1B1
330
1F
100
AcDbEntity
  8
LAY-10
  6
CONTINUOUS
 62
     7
100
AcDbCircle
 10
310.0
 20
380.000000000004
 30
0.0
 40
55.19150124162775
100
AcDbArc
 50
85.84384871348325
 51
94.1561512865164
  0
ARC
  5
1B2
330
1F
100
AcDbEntity
  8
LAY-10
  6
CONTINUOUS
 62
     7
100
AcDbCircle
 10
310.0
 20
380.000000000004
 30
0.0
 40
55.00000000000004
100
AcDbArc
 50
94.48406421582482
 51
101.3283594619303
  0
LINE
  5
1B3
330
1F
100
AcDbEntity
  8
LAY-10
  6
CONTINUOUS
 62
     7
100
AcDbLine
 10
314.3000000000001
 20
434.831651443308
 30
0.0
 11
314.0000000000001
 21
435.0463605454987
 31
0.0
  0
LINE
  5
1B4
330
1F
100
AcDbEntity
  8
LAY-10
  6
CONTINUOUS
 62
     7
100
AcDbLine
 10
305.7000000000003
 20
434.831651443308
 30
0.0
 11
306.0000000000002
 21
435.0463605454987
 31
0.0
  0
ARC
  5
1B5
330
1F
100
AcDbEntity
  8
LAY-10
  6
CONTINUOUS
 62
     7
100
AcDbCircle
 10
310.0
 20
380.000000000004
 30
0.0
 40
55.19150124162775
100
AcDbArc
 50
265.8438487134836
 51
274.1561512865168
  0
LINE
  5
1B6
330
1F
100
AcDbEntity
  8
LAY-10
  6
CONTINUOUS
 62
     7
100
AcDbLine
 10
314.3000000000001
 20
325.1683485566997
 30
0.0
 11
314.0000000000001
 21
324.9536394545092
 31
0.0
  0
LINE
  5
1B7
330
1F
100
AcDbEntity
  8
LAY-10
  6
CONTINUOUS
 62
     7
100
AcDbLine
 10
305.7000000000003
 20
325.1683485566997
 30
0.0
 11
306.0000000000002
 21
324.9536394545092
 31
0.0
  0
ARC
  5
1B8
330
1F
100
AcDbEntity
  8
LAY-10
  6
CONTINUOUS
 62
     7
100
AcDbCircle
 10
310.0
 20
380.000000000004
 30
0.0
 40
55.00000000000004
100
AcDbArc
 50
274.484064215825
 51
281.3283594619312
  0
CIRCLE
  5
1B9
330
1F
100
AcDbEntity
  8
LAY-10
  6
CONTINUOUS
 62
     7
100
AcDbCircle
 10
259.5000000000004
 20
380.0000000000009
 30
0.0
 40
5.25
  0
LINE
  5
1BA
330
1F
100
AcDbEntity
  8
LAY-10
  6
CONTINUOUS
 62
     7
100
AcDbLine
 10
255.536607232138
 20
376.5570335802315
 30
0.0
 11
264.463392767831
 21
381.7109156122522
 31
0.0
  0
LINE
  5
1BB
330
1F
100
AcDbEntity
  8
LAY-10
  6
CONTINUOUS
 62
     7
100
AcDbLine
 10
254.5366072321405
 20
378.289084387833
 30
0.0
 11
263.4633927678044
 21
383.4429664198366
 31
0.0
  0
CIRCLE
  5
1BC
330
1F
100
AcDbEntity
  8
LAY-10
  6
CONTINUOUS
 62
     7
100
AcDbCircle
 10
360.5000000000004
 20
380.0000000000009
 30
0.0
 40
5.25
  0
LINE
  5
1BD
330
1F
100
AcDbEntity
  8
LAY-10
  6
CONTINUOUS
 62
     7
100
AcDbLine
 10
356.536607232138
 20
376.5570335802315
 30
0.0
 11
365.463392767831
 21
381.7109156122522
 31
0.0
  0
LINE
  5
1BE
330
1F
100
AcDbEntity
  8
LAY-10
  6
CONTINUOUS
 62
     7
100
AcDbLine
 10
355.5366072321405
 20
378.289084387833
 30
0.0
 11
364.4633927678044
 21
383.4429664198366
 31
0.0
  0
ARC
  5
1BF
330
1F
100
AcDbEntity
  8
LAY-10
  6
CONTINUOUS
 62
     7
100
AcDbCircle
 10
310.0
 20
380.000000000004
 30
0.0
 40
55.19150124162775
100
AcDbArc
 50
2.557490245883762
 51
6.241095813843032
  0
ARC
  5
1C0
330
1F
100
AcDbEntity
  8
LAY-10
  6
CONTINUOUS
 62
     7
100
AcDbCircle
 10
310.0
 20
380.000000000004
 30
0.0
 40
55.19150124162775
100
AcDbArc
 50
353.758904186157
 51
357.4425097541099
  0
ARC
  5
1C1
330
1F
100
AcDbEntity
  8
LAY-10
  6
CONTINUOUS
 62
     7
100
AcDbCircle
 10
310.0
 20
380.000000000004
 30
0.0
 40
55.19150124162775
100
AcDbArc
 50
173.7589041861568
 51
177.442509754118
  0
ARC
  5
1C2
330
1F
100
AcDbEntity
  8
LAY-10
  6
CONTINUOUS
 62
     7
100
AcDbCircle
 10
310.0
 20
380.000000000004
 30
0.0
 40
55.19150124162775
100
AcDbArc
 50
182.5574902458885
 51
186.2410958138432
  0
LINE
  5
1C3
330
1F
100
AcDbEntity
  8
LAY-10
  6
CONTINUOUS
 62
     7
100
AcDbLine
 10
307.5000000000002
 20
409.0838359663858
 30
0.0
 11
307.5000000000002
 21
418.2196818775968
 31
0.0
  0
LINE
  5
1C4
330
1F
100
AcDbEntity
  8
LAY-10
  6
CONTINUOUS
 62
     7
100
AcDbLine
 10
300.4544018353712
 20
407.5862478456061
 30
0.0
 11
296.7385185377877
 21
415.9322583795156
 31
0.0
  0
LINE
  5
1C5
330
1F
100
AcDbEntity
  8
LAY-10
  6
CONTINUOUS
 62
     7
100
AcDbLine
 10
295.8866745471584
 20
405.552564630227
 30
0.0
 11
292.1707912495746
 21
413.8985751641366
 31
0.0
  0
LINE
  5
1C6
330
1F
100
AcDbEntity
  8
LAY-10
  6
CONTINUOUS
 62
     7
100
AcDbLine
 10
290.0593243124428
 20
401.3187468591271
 30
0.0
 11
283.2700676971676
 21
407.4318209732968
 31
0.0
  0
LINE
  5
1C7
330
1F
100
AcDbEntity
  8
LAY-10
  6
CONTINUOUS
 62
     7
100
AcDbLine
 10
286.7136712806484
 20
397.6030227317401
 30
0.0
 11
279.9244146653731
 21
403.7160968459099
 31
0.0
  0
LINE
  5
1C8
330
1F
100
AcDbEntity
  8
LAY-10
  6
CONTINUOUS
 62
     7
100
AcDbLine
 10
283.1121707712434
 20
391.36504086597
 30
0.0
 11
274.4234649855179
 21
394.1881725105252
 31
0.0
  0
LINE
  5
1C9
330
1F
100
AcDbEntity
  8
LAY-10
  6
CONTINUOUS
 62
     7
100
AcDbLine
 10
281.5670857993688
 20
386.6097582844943
 30
0.0
 11
272.8783800136432
 21
389.4328899290493
 31
0.0
  0
LINE
  5
1CA
330
1F
100
AcDbEntity
  8
LAY-10
  6
CONTINUOUS
 62
     7
100
AcDbLine
 10
280.8141671719551
 20
379.446216058932
 30
0.0
 11
271.7283683805451
 21
378.4912601251831
 31
0.0
  0
LINE
  5
1CB
330
1F
100
AcDbEntity
  8
LAY-10
  6
CONTINUOUS
 62
     7
100
AcDbLine
 10
281.3368094882937
 20
374.4736065820906
 30
0.0
 11
272.2510106968836
 21
373.5186506483416
 31
0.0
  0
LINE
  5
1CC
330
1F
100
AcDbEntity
  8
LAY-10
  6
CONTINUOUS
 62
     7
100
AcDbLine
 10
283.5626592136024
 20
367.6231455262738
 30
0.0
 11
275.6507845694336
 21
363.0552225706683
 31
0.0
  0
LINE
  5
1CD
330
1F
100
AcDbEntity
  8
LAY-10
  6
CONTINUOUS
 62
     7
100
AcDbLine
 10
286.0626592136024
 20
363.2930185073516
 30
0.0
 11
278.1507845694336
 21
358.7250955517461
 31
0.0
  0
LINE
  5
1CE
330
1F
100
AcDbEntity
  8
LAY-10
  6
CONTINUOUS
 62
     7
100
AcDbLine
 10
290.8824076529181
 20
357.9401455723159
 30
0.0
 11
285.5124921590913
 21
350.5490909721553
 31
0.0
  0
LINE
  5
1CF
330
1F
100
AcDbEntity
  8
LAY-10
  6
CONTINUOUS
 62
     7
100
AcDbLine
 10
294.9274926247928
 20
355.0012193108535
 30
0.0
 11
289.5575771309663
 21
347.6101647106929
 31
0.0
  0
LINE
  5
1D0
330
1F
100
AcDbEntity
  8
LAY-10
  6
CONTINUOUS
 62
     7
100
AcDbLine
 10
301.5077614869171
 20
352.0714948563908
 30
0.0
 11
299.6083123164667
 21
343.1352890976659
 31
0.0
  0
ARC
  5
1D1
330
1F
100
AcDbEntity
  8
LAY-10
  6
CONTINUOUS
 62
     7
100
AcDbCircle
 10
309.9999999999999
 20
380.0000000000213
 30
0.0
 40
29.1910862168299
100
AcDbArc
 50
94.91297686248886
 51
109.0870231375272
  0
ARC
  5
1D2
330
1F
100
AcDbEntity
  8
LAY-10
  6
CONTINUOUS
 62
     7
100
AcDbCircle
 10
309.9999999999999
 20
380.0000000000213
 30
0.0
 40
29.1910862168299
100
AcDbArc
 50
118.9129768625048
 51
133.0870231375379
  0
ARC
  5
1D3
330
1F
100
AcDbEntity
  8
LAY-10
  6
CONTINUOUS
 62
     7
100
AcDbCircle
 10
309.9999999999999
 20
380.0000000000213
 30
0.0
 40
29.1910862168299
100
AcDbArc
 50
142.9129768625162
 51
157.087023137543
  0
ARC
  5
1D4
330
1F
100
AcDbEntity
  8
LAY-10
  6
CONTINUOUS
 62
     7
100
AcDbCircle
 10
309.9999999999999
 20
380.0000000000213
 30
0.0
 40
29.1910862168299
100
AcDbArc
 50
166.9129768625202
 51
181.08702313754
  0
ARC
  5
1D5
330
1F
100
AcDbEntity
  8
LAY-10
  6
CONTINUOUS
 62
     7
100
AcDbCircle
 10
309.9999999999999
 20
380.0000000000213
 30
0.0
 40
29.1910862168299
100
AcDbArc
 50
190.9129768625177
 51
205.0870231375301
  0
ARC
  5
1D6
330
1F
100
AcDbEntity
  8
LAY-10
  6
CONTINUOUS
 62
     7
100
AcDbCircle
 10
309.9999999999999
 20
380.0000000000213
 30
0.0
 40
29.1910862168299
100
AcDbArc
 50
214.9129768625086
 51
229.0870231375159
  0
ARC
  5
1D7
330
1F
100
AcDbEntity
  8
LAY-10
  6
CONTINUOUS
 62
     7
100
AcDbCircle
 10
309.9999999999999
 20
380.0000000000213
 30
0.0
 40
29.1910862168299
100
AcDbArc
 50
238.9129768624936
 51
253.0870231374983
  0
LINE
  5
1D8
330
1F
100
AcDbEntity
  8
LAY-10
  6
CONTINUOUS
 62
     7
100
AcDbLine
 10
306.4621940951785
 20
393.3971612433522
 30
0.0
 11
304.5344405203556
 21
400.6972862852923
 31
0.0
  0
LINE
  5
1D9
330
1F
100
AcDbEntity
  8
LAY-10
  6
CONTINUOUS
 62
     7
100
AcDbLine
 10
313.5378059048216
 20
393.3971612433522
 30
0.0
 11
315.4655594796447
 21
400.6972862852923
 31
0.0
  0
ARC
  5
1DA
330
1F
100
AcDbEntity
  8
LAY-10
  6
CONTINUOUS
 62
     7
100
AcDbCircle
 10
309.9999999999999
 20
380.0000000000213
 30
0.0
 40
23.50000000000002
100
AcDbArc
 50
80.54505980801308
 51
99.45494019198635
  0
ARC
  5
1DB
330
1F
100
AcDbEntity
  8
LAY-10
  6
CONTINUOUS
 62
     7
100
AcDbCircle
 10
306.468154182909
 20
401.2079245831646
 30
0.0
 40
2.0
100
AcDbArc
 50
99.45494019198588
 51
194.792497041403
  0
ARC
  5
1DC
330
1F
100
AcDbEntity
  8
LAY-10
  6
CONTINUOUS
 62
     7
100
AcDbCircle
 10
313.5318458170909
 20
401.2079245831646
 30
0.0
 40
2.0
100
AcDbArc
 50
345.2075029586023
 51
80.54505980800747
  0
ARC
  5
1DD
330
1F
100
AcDbEntity
  8
LAY-10
  6
CONTINUOUS
 62
     7
100
AcDbCircle
 10
309.9999999999999
 20
380.0000000000213
 30
0.0
 40
12.00000000000001
100
AcDbArc
 50
83.4207136603359
 51
96.57928633966198
  0
ARC
  5
1DE
330
1F
100
AcDbEntity
  8
LAY-10
  6
CONTINUOUS
 62
     7
100
AcDbCircle
 10
308.3959077577319
 20
393.9077995412246
 30
0.0
 40
2.0
100
AcDbArc
 50
194.792497041403
 51
276.5792863396719
  0
ARC
  5
1DF
330
1F
100
AcDbEntity
  8
LAY-10
  6
CONTINUOUS
 62
     7
100
AcDbCircle
 10
311.604092242268
 20
393.9077995412246
 30
0.0
 40
2.0
100
AcDbArc
 50
263.4207136603413
 51
345.2075029585988
  0
ARC
  5
1E0
330
1F
100
AcDbEntity
  8
LAY-10
  6
CONTINUOUS
 62
     7
100
AcDbCircle
 10
288.7920754168567
 20
376.4681541829302
 30
0.0
 40
2.0
100
AcDbArc
 50
189.4549401919859
 51
284.7924970414045
  0
ARC
  5
1E1
330
1F
100
AcDbEntity
  8
LAY-10
  6
CONTINUOUS
 62
     7
100
AcDbCircle
 10
309.9999999999999
 20
380.0000000000213
 30
0.0
 40
23.50000000000002
100
AcDbArc
 50
170.5450598080135
 51
189.4549401919871
  0
ARC
  5
1E2
330
1F
100
AcDbEntity
  8
LAY-10
  6
CONTINUOUS
 62
     7
100
AcDbCircle
 10
288.7920754168567
 20
383.5318458171124
 30
0.0
 40
2.0
100
AcDbArc
 50
75.2075029585955
 51
170.5450598080141
  0
LINE
  5
1E3
330
1F
100
AcDbEntity
  8
LAY-10
  6
CONTINUOUS
 62
     7
100
AcDbLine
 10
296.6028387566689
 20
376.4621940951998
 30
0.0
 11
289.3027137147291
 21
374.5344405203767
 31
0.0
  0
ARC
  5
1E4
330
1F
100
AcDbEntity
  8
LAY-10
  6
CONTINUOUS
 62
     7
100
AcDbCircle
 10
296.0922004587969
 20
378.3959077577533
 30
0.0
 40
2.0
100
AcDbArc
 50
284.7924970413911
 51
6.57928633966682
  0
LINE
  5
1E5
330
1F
100
AcDbEntity
  8
LAY-10
  6
CONTINUOUS
 62
     7
100
AcDbLine
 10
296.6028387566689
 20
383.5378059048428
 30
0.0
 11
289.3027137147291
 21
385.4655594796659
 31
0.0
  0
ARC
  5
1E6
330
1F
100
AcDbEntity
  8
LAY-10
  6
CONTINUOUS
 62
     7
100
AcDbCircle
 10
309.9999999999999
 20
380.0000000000213
 30
0.0
 40
12.00000000000001
100
AcDbArc
 50
173.4207136603373
 51
186.5792863396628
  0
ARC
  5
1E7
330
1F
100
AcDbEntity
  8
LAY-10
  6
CONTINUOUS
 62
     7
100
AcDbCircle
 10
296.0922004587969
 20
381.6040922422893
 30
0.0
 40
2.0
100
AcDbArc
 50
353.4207136603349
 51
75.20750295860896
  0
ARC
  5
1E8
330
1F
100
AcDbEntity
  8
LAY-10
  6
CONTINUOUS
 62
     7
100
AcDbCircle
 10
297.501124839737
 20
362.5063405850173
 30
0.0
 40
2.0
100
AcDbArc
 50
234.4549401919847
 51
329.7924970414035
  0
ARC
  5
1E9
330
1F
100
AcDbEntity
  8
LAY-10
  6
CONTINUOUS
 62
     7
100
AcDbCircle
 10
309.9999999999999
 20
380.0000000000213
 30
0.0
 40
23.50000000000002
100
AcDbArc
 50
215.5450598080133
 51
234.454940191987
  0
ARC
  5
1EA
330
1F
100
AcDbEntity
  8
LAY-10
  6
CONTINUOUS
 62
     7
100
AcDbCircle
 10
292.5063405849962
 20
367.5011248397582
 30
0.0
 40
2.0
100
AcDbArc
 50
120.2075029586046
 51
215.5450598080095
  0
LINE
  5
1EB
330
1F
100
AcDbEntity
  8
LAY-10
  6
CONTINUOUS
 62
     7
100
AcDbLine
 10
303.0283829820123
 20
368.0251698903912
 30
0.0
 11
299.2295426865607
 21
361.5000743445117
 31
0.0
  0
ARC
  5
1EC
330
1F
100
AcDbEntity
  8
LAY-10
  6
CONTINUOUS
 62
     7
100
AcDbCircle
 10
301.2999651351883
 20
369.0314361308969
 30
0.0
 40
2.0
100
AcDbArc
 50
329.7924970414035
 51
51.57928633965873
  0
LINE
  5
1ED
330
1F
100
AcDbEntity
  8
LAY-10
  6
CONTINUOUS
 62
     7
100
AcDbLine
 10
298.02516989037
 20
373.0283829820335
 30
0.0
 11
291.5000743444904
 21
369.2295426865819
 31
0.0
  0
ARC
  5
1EE
330
1F
100
AcDbEntity
  8
LAY-10
  6
CONTINUOUS
 62
     7
100
AcDbCircle
 10
309.9999999999999
 20
380.0000000000213
 30
0.0
 40
12.00000000000001
100
AcDbArc
 50
218.4207136603369
 51
231.5792863396639
  0
ARC
  5
1EF
330
1F
100
AcDbEntity
  8
LAY-10
  6
CONTINUOUS
 62
     7
100
AcDbCircle
 10
299.0314361308755
 20
371.2999651352097
 30
0.0
 40
2.0
100
AcDbArc
 50
38.4207136603413
 51
120.2075029585965
  0
LINE
  5
1F0
330
1F
100
AcDbEntity
  8
LAY-10
  6
CONTINUOUS
 62
     7
100
AcDbLine
 10
257.4428882072045
 20
390.0000000000003
 30
0.0
 11
273.0271169257321
 21
390.0000000000003
 31
0.0
  0
LINE
  5
1F1
330
1F
100
AcDbEntity
  8
LAY-10
  6
CONTINUOUS
 62
     7
100
AcDbLine
 10
257.4428882072122
 20
370.0000000000003
 30
0.0
 11
273.0271169257434
 21
370.0000000000003
 31
0.0
  0
LINE
  5
1F2
330
1F
100
AcDbEntity
  8
LAY-10
  6
CONTINUOUS
 62
     7
100
AcDbLine
 10
310.0000000000074
 20
375.3811978465028
 30
0.0
 11
318.0000000000077
 21
380.0000000000198
 31
0.0
  0
LINE
  5
1F3
330
1F
100
AcDbEntity
  8
LAY-10
  6
CONTINUOUS
 62
     7
100
AcDbLine
 10
310.0000000000063
 20
384.6188021535388
 30
0.0
 11
318.0000000000063
 21
380.0000000000218
 31
0.0
  0
LINE
  5
1F4
330
1F
100
AcDbEntity
  8
LAY-10
  6
CONTINUOUS
 62
     7
100
AcDbLine
 10
310.0000000000054
 20
375.3811978465028
 30
0.0
 11
302.0000000000052
 21
380.0000000000198
 31
0.0
  0
LINE
  5
1F5
330
1F
100
AcDbEntity
  8
LAY-10
  6
CONTINUOUS
 62
     7
100
AcDbLine
 10
310.0000000000061
 20
384.6188021535388
 30
0.0
 11
302.0000000000065
 21
380.0000000000218
 31
0.0
  0
CIRCLE
  5
1F6
330
1F
100
AcDbEntity
  8
LAY-10
  6
CONTINUOUS
 62
     7
100
AcDbCircle
 10
309.9999999999999
 20
380.0000000000213
 30
0.0
 40
38.30135875948883
  0
ARC
  5
1F7
330
1F
100
AcDbEntity
  8
LAY-10
  6
CONTINUOUS
 62
     7
100
AcDbCircle
 10
299.0314361308755
 20
388.7000348647912
 30
0.0
 40
2.0
100
AcDbArc
 50
239.7924970414035
 51
321.5792863396611
  0
ARC
  5
1F8
330
1F
100
AcDbEntity
  8
LAY-10
  6
CONTINUOUS
 62
     7
100
AcDbCircle
 10
309.9999999999999
 20
379.9999999999795
 30
0.0
 40
12.00000000000001
100
AcDbArc
 50
128.4207136603361
 51
141.5792863396632
  0
LINE
  5
1F9
330
1F
100
AcDbEntity
  8
LAY-10
  6
CONTINUOUS
 62
     7
100
AcDbLine
 10
298.02516989037
 20
386.9716170179674
 30
0.0
 11
291.5000743444904
 21
390.770457313419
 31
0.0
  0
ARC
  5
1FA
330
1F
100
AcDbEntity
  8
LAY-10
  6
CONTINUOUS
 62
     7
100
AcDbCircle
 10
301.2999651351883
 20
390.968563869104
 30
0.0
 40
2.0
100
AcDbArc
 50
308.4207136603449
 51
30.20750295859872
  0
LINE
  5
1FB
330
1F
100
AcDbEntity
  8
LAY-10
  6
CONTINUOUS
 62
     7
100
AcDbLine
 10
303.0283829820123
 20
391.9748301096096
 30
0.0
 11
299.2295426865607
 21
398.4999256554892
 31
0.0
  0
ARC
  5
1FC
330
1F
100
AcDbEntity
  8
LAY-10
  6
CONTINUOUS
 62
     7
100
AcDbCircle
 10
292.5063405849962
 20
392.4988751602427
 30
0.0
 40
2.0
100
AcDbArc
 50
144.4549401919928
 51
239.7924970413954
  0
ARC
  5
1FD
330
1F
100
AcDbEntity
  8
LAY-10
  6
CONTINUOUS
 62
     7
100
AcDbCircle
 10
309.9999999999999
 20
379.9999999999795
 30
0.0
 40
23.50000000000002
100
AcDbArc
 50
125.545059808013
 51
144.4549401919869
  0
ARC
  5
1FE
330
1F
100
AcDbEntity
  8
LAY-10
  6
CONTINUOUS
 62
     7
100
AcDbCircle
 10
297.501124839737
 20
397.4936594149836
 30
0.0
 40
2.0
100
AcDbArc
 50
30.20750295859872
 51
125.5450598080154
  0
ARC
  5
1FF
330
1F
100
AcDbEntity
  8
LAY-10
  6
CONTINUOUS
 62
     7
100
AcDbCircle
 10
311.604092242268
 20
366.0922004587763
 30
0.0
 40
2.0
100
AcDbArc
 50
14.79249704140132
 51
96.57928633965872
  0
ARC
  5
200
330
1F
100
AcDbEntity
  8
LAY-10
  6
CONTINUOUS
 62
     7
100
AcDbCircle
 10
308.3959077577319
 20
366.0922004587763
 30
0.0
 40
2.0
100
AcDbArc
 50
83.42071366032818
 51
165.2075029585987
  0
ARC
  5
201
330
1F
100
AcDbEntity
  8
LAY-10
  6
CONTINUOUS
 62
     7
100
AcDbCircle
 10
309.9999999999999
 20
379.9999999999795
 30
0.0
 40
12.00000000000001
100
AcDbArc
 50
263.4207136603384
 51
276.5792863396644
  0
ARC
  5
202
330
1F
100
AcDbEntity
  8
LAY-10
  6
CONTINUOUS
 62
     7
100
AcDbCircle
 10
313.5318458170909
 20
358.7920754168362
 30
0.0
 40
2.0
100
AcDbArc
 50
279.4549401919926
 51
14.79249704139978
  0
ARC
  5
203
330
1F
100
AcDbEntity
  8
LAY-10
  6
CONTINUOUS
 62
     7
100
AcDbCircle
 10
306.468154182909
 20
358.7920754168362
 30
0.0
 40
2.0
100
AcDbArc
 50
165.2075029585987
 51
260.5450598080142
  0
ARC
  5
204
330
1F
100
AcDbEntity
  8
LAY-10
  6
CONTINUOUS
 62
     7
100
AcDbCircle
 10
309.9999999999999
 20
379.9999999999795
 30
0.0
 40
23.50000000000002
100
AcDbArc
 50
260.5450598080136
 51
279.454940191987
  0
LINE
  5
205
330
1F
100
AcDbEntity
  8
LAY-10
  6
CONTINUOUS
 62
     7
100
AcDbLine
 10
313.5378059048216
 20
366.6028387566486
 30
0.0
 11
315.4655594796447
 21
359.3027137147085
 31
0.0
  0
LINE
  5
206
330
1F
100
AcDbEntity
  8
LAY-10
  6
CONTINUOUS
 62
     7
100
AcDbLine
 10
306.4621940951785
 20
366.6028387566486
 30
0.0
 11
304.5344405203556
 21
359.3027137147085
 31
0.0
  0
ARC
  5
207
330
1F
100
AcDbEntity
  8
LAY-10
  6
CONTINUOUS
 62
     7
100
AcDbCircle
 10
322.4988751602629
 20
397.4936594149836
 30
0.0
 40
2.0
100
AcDbArc
 50
54.45494019198464
 51
149.792497041399
  0
ARC
  5
208
330
1F
100
AcDbEntity
  8
LAY-10
  6
CONTINUOUS
 62
     7
100
AcDbCircle
 10
309.9999999999999
 20
379.9999999999795
 30
0.0
 40
23.50000000000002
100
AcDbArc
 50
35.54505980801385
 51
54.45494019198711
  0
ARC
  5
209
330
1F
100
AcDbEntity
  8
LAY-10
  6
CONTINUOUS
 62
     7
100
AcDbCircle
 10
327.4936594150039
 20
392.4988751602427
 30
0.0
 40
2.0
100
AcDbArc
 50
300.2075029585966
 51
35.54505980800954
  0
LINE
  5
20A
330
1F
100
AcDbEntity
  8
LAY-10
  6
CONTINUOUS
 62
     7
100
AcDbLine
 10
316.9716170179876
 20
391.9748301096096
 30
0.0
 11
320.7704573134394
 21
398.4999256554892
 31
0.0
  0
ARC
  5
20B
330
1F
100
AcDbEntity
  8
LAY-10
  6
CONTINUOUS
 62
     7
100
AcDbCircle
 10
318.7000348648116
 20
390.968563869104
 30
0.0
 40
2.0
100
AcDbArc
 50
149.7924970414035
 51
231.5792863396633
  0
LINE
  5
20C
330
1F
100
AcDbEntity
  8
LAY-10
  6
CONTINUOUS
 62
     7
100
AcDbLine
 10
321.9748301096299
 20
386.9716170179674
 30
0.0
 11
328.4999256555095
 21
390.770457313419
 31
0.0
  0
ARC
  5
20D
330
1F
100
AcDbEntity
  8
LAY-10
  6
CONTINUOUS
 62
     7
100
AcDbCircle
 10
309.9999999999999
 20
379.9999999999795
 30
0.0
 40
12.00000000000001
100
AcDbArc
 50
38.42071366033689
 51
51.57928633966257
  0
ARC
  5
20E
330
1F
100
AcDbEntity
  8
LAY-10
  6
CONTINUOUS
 62
     7
100
AcDbCircle
 10
320.9685638691246
 20
388.7000348647912
 30
0.0
 40
2.0
100
AcDbArc
 50
218.4207136603332
 51
300.2075029585894
  0
ARC
  5
20F
330
1F
100
AcDbEntity
  8
LAY-10
  6
CONTINUOUS
 62
     7
100
AcDbCircle
 10
331.2079245831434
 20
376.4681541829302
 30
0.0
 40
2.0
100
AcDbArc
 50
255.2075029585888
 51
350.5450598080142
  0
ARC
  5
210
330
1F
100
AcDbEntity
  8
LAY-10
  6
CONTINUOUS
 62
     7
100
AcDbCircle
 10
309.9999999999999
 20
380.0000000000213
 30
0.0
 40
23.50000000000002
100
AcDbArc
 50
350.5450598080135
 51
9.454940191986775
  0
ARC
  5
211
330
1F
100
AcDbEntity
  8
LAY-10
  6
CONTINUOUS
 62
     7
100
AcDbCircle
 10
331.2079245831434
 20
383.5318458171124
 30
0.0
 40
2.0
100
AcDbArc
 50
9.454940191985859
 51
104.7924970414112
  0
LINE
  5
212
330
1F
100
AcDbEntity
  8
LAY-10
  6
CONTINUOUS
 62
     7
100
AcDbLine
 10
323.397161243331
 20
376.4621940951998
 30
0.0
 11
330.6972862852708
 21
374.5344405203767
 31
0.0
  0
ARC
  5
213
330
1F
100
AcDbEntity
  8
LAY-10
  6
CONTINUOUS
 62
     7
100
AcDbCircle
 10
323.907799541203
 20
378.3959077577533
 30
0.0
 40
2.0
100
AcDbArc
 50
173.4207136603332
 51
255.2075029586089
  0
LINE
  5
214
330
1F
100
AcDbEntity
  8
LAY-10
  6
CONTINUOUS
 62
     7
100
AcDbLine
 10
323.397161243331
 20
383.5378059048428
 30
0.0
 11
330.6972862852708
 21
385.4655594796659
 31
0.0
  0
ARC
  5
215
330
1F
100
AcDbEntity
  8
LAY-10
  6
CONTINUOUS
 62
     7
100
AcDbCircle
 10
309.9999999999999
 20
380.0000000000213
 30
0.0
 40
12.00000000000001
100
AcDbArc
 50
353.4207136603373
 51
6.579286339662752
  0
ARC
  5
216
330
1F
100
AcDbEntity
  8
LAY-10
  6
CONTINUOUS
 62
     7
100
AcDbCircle
 10
323.907799541203
 20
381.6040922422893
 30
0.0
 40
2.0
100
AcDbArc
 50
104.7924970413911
 51
186.5792863396652
  0
ARC
  5
217
330
1F
100
AcDbEntity
  8
LAY-10
  6
CONTINUOUS
 62
     7
100
AcDbCircle
 10
322.4988751602629
 20
362.5063405850173
 30
0.0
 40
2.0
100
AcDbArc
 50
210.207502958601
 51
305.5450598080154
  0
ARC
  5
218
330
1F
100
AcDbEntity
  8
LAY-10
  6
CONTINUOUS
 62
     7
100
AcDbCircle
 10
309.9999999999999
 20
380.0000000000213
 30
0.0
 40
23.50000000000002
100
AcDbArc
 50
305.5450598080129
 51
324.4549401919872
  0
ARC
  5
219
330
1F
100
AcDbEntity
  8
LAY-10
  6
CONTINUOUS
 62
     7
100
AcDbCircle
 10
327.4936594150039
 20
367.5011248397582
 30
0.0
 40
2.0
100
AcDbArc
 50
324.4549401919883
 51
59.79249704140125
  0
LINE
  5
21A
330
1F
100
AcDbEntity
  8
LAY-10
  6
CONTINUOUS
 62
     7
100
AcDbLine
 10
316.9716170179876
 20
368.0251698903912
 30
0.0
 11
320.7704573134394
 21
361.5000743445117
 31
0.0
  0
ARC
  5
21B
330
1F
100
AcDbEntity
  8
LAY-10
  6
CONTINUOUS
 62
     7
100
AcDbCircle
 10
318.7000348648116
 20
369.0314361308969
 30
0.0
 40
2.0
100
AcDbArc
 50
128.4207136603368
 51
210.2075029585965
  0
LINE
  5
21C
330
1F
100
AcDbEntity
  8
LAY-10
  6
CONTINUOUS
 62
     7
100
AcDbLine
 10
321.9748301096299
 20
373.0283829820335
 30
0.0
 11
328.4999256555095
 21
369.2295426865819
 31
0.0
  0
ARC
  5
21D
330
1F
100
AcDbEntity
  8
LAY-10
  6
CONTINUOUS
 62
     7
100
AcDbCircle
 10
309.9999999999999
 20
380.0000000000213
 30
0.0
 40
12.00000000000001
100
AcDbArc
 50
308.4207136603379
 51
321.5792863396635
  0
ARC
  5
21E
330
1F
100
AcDbEntity
  8
LAY-10
  6
CONTINUOUS
 62
     7
100
AcDbCircle
 10
320.9685638691246
 20
371.2999651352097
 30
0.0
 40
2.0
100
AcDbArc
 50
59.79249704141077
 51
141.5792863396669
  0
ARC
  5
21F
330
1F
100
AcDbEntity
  8
LAY-10
  6
CONTINUOUS
 62
     7
100
AcDbCircle
 10
309.9999999999999
 20
380.0000000000213
 30
0.0
 40
29.1910862168299
100
AcDbArc
 50
286.9129768625017
 51
301.087023137507
  0
ARC
  5
220
330
1F
100
AcDbEntity
  8
LAY-10
  6
CONTINUOUS
 62
     7
100
AcDbCircle
 10
309.9999999999999
 20
380.0000000000213
 30
0.0
 40
29.1910862168299
100
AcDbArc
 50
310.9129768624842
 51
325.0870231374915
  0
ARC
  5
221
330
1F
100
AcDbEntity
  8
LAY-10
  6
CONTINUOUS
 62
     7
100
AcDbCircle
 10
309.9999999999999
 20
380.0000000000213
 30
0.0
 40
29.1910862168299
100
AcDbArc
 50
334.9129768624699
 51
349.0870231374823
  0
ARC
  5
222
330
1F
100
AcDbEntity
  8
LAY-10
  6
CONTINUOUS
 62
     7
100
AcDbCircle
 10
309.9999999999999
 20
380.0000000000213
 30
0.0
 40
29.1910862168299
100
AcDbArc
 50
358.9129768624603
 51
13.08702313747986
  0
ARC
  5
223
330
1F
100
AcDbEntity
  8
LAY-10
  6
CONTINUOUS
 62
     7
100
AcDbCircle
 10
309.9999999999999
 20
380.0000000000213
 30
0.0
 40
29.1910862168299
100
AcDbArc
 50
22.91297686245703
 51
37.08702313748381
  0
ARC
  5
224
330
1F
100
AcDbEntity
  8
LAY-10
  6
CONTINUOUS
 62
     7
100
AcDbCircle
 10
309.9999999999999
 20
380.0000000000213
 30
0.0
 40
29.1910862168299
100
AcDbArc
 50
46.91297686246167
 51
61.08702313749515
  0
ARC
  5
225
330
1F
100
AcDbEntity
  8
LAY-10
  6
CONTINUOUS
 62
     7
100
AcDbCircle
 10
309.9999999999999
 20
380.0000000000213
 30
0.0
 40
29.1910862168299
100
AcDbArc
 50
70.91297686247279
 51
85.08702313751084
  0
LINE
  5
226
330
1F
100
AcDbEntity
  8
LAY-10
  6
CONTINUOUS
 62
     7
100
AcDbLine
 10
318.4922385130828
 20
352.0714948563908
 30
0.0
 11
320.3916876835332
 21
343.1352890976659
 31
0.0
  0
LINE
  5
227
330
1F
100
AcDbEntity
  8
LAY-10
  6
CONTINUOUS
 62
     7
100
AcDbLine
 10
325.0725073752073
 20
355.0012193108535
 30
0.0
 11
330.4424228690336
 21
347.6101647106929
 31
0.0
  0
LINE
  5
228
330
1F
100
AcDbEntity
  8
LAY-10
  6
CONTINUOUS
 62
     7
100
AcDbLine
 10
329.1175923470818
 20
357.9401455723159
 30
0.0
 11
334.4875078409086
 21
350.5490909721553
 31
0.0
  0
LINE
  5
229
330
1F
100
AcDbEntity
  8
LAY-10
  6
CONTINUOUS
 62
     7
100
AcDbLine
 10
333.9373407863974
 20
363.2930185073516
 30
0.0
 11
341.8492154305663
 21
358.7250955517461
 31
0.0
  0
LINE
  5
22A
330
1F
100
AcDbEntity
  8
LAY-10
  6
CONTINUOUS
 62
     7
100
AcDbLine
 10
336.4373407863977
 20
367.6231455262738
 30
0.0
 11
344.3492154305665
 21
363.0552225706683
 31
0.0
  0
LINE
  5
22B
330
1F
100
AcDbEntity
  8
LAY-10
  6
CONTINUOUS
 62
     7
100
AcDbLine
 10
338.6631905117064
 20
374.4736065820906
 30
0.0
 11
347.7489893031165
 21
373.5186506483416
 31
0.0
  0
LINE
  5
22C
330
1F
100
AcDbEntity
  8
LAY-10
  6
CONTINUOUS
 62
     7
100
AcDbLine
 10
339.1858328280447
 20
379.446216058932
 30
0.0
 11
348.2716316194548
 21
378.4912601251831
 31
0.0
  0
LINE
  5
22D
330
1F
100
AcDbEntity
  8
LAY-10
  6
CONTINUOUS
 62
     7
100
AcDbLine
 10
338.432914200631
 20
386.6097582844943
 30
0.0
 11
347.121619986357
 21
389.4328899290493
 31
0.0
  0
LINE
  5
22E
330
1F
100
AcDbEntity
  8
LAY-10
  6
CONTINUOUS
 62
     7
100
AcDbLine
 10
336.8878292287565
 20
391.36504086597
 30
0.0
 11
345.576535014482
 21
394.1881725105252
 31
0.0
  0
LINE
  5
22F
330
1F
100
AcDbEntity
  8
LAY-10
  6
CONTINUOUS
 62
     7
100
AcDbLine
 10
333.2863287193515
 20
397.6030227317401
 30
0.0
 11
340.075585334627
 21
403.7160968459099
 31
0.0
  0
LINE
  5
230
330
1F
100
AcDbEntity
  8
LAY-10
  6
CONTINUOUS
 62
     7
100
AcDbLine
 10
329.9406756875571
 20
401.3187468591271
 30
0.0
 11
336.7299323028325
 21
407.4318209732968
 31
0.0
  0
LINE
  5
231
330
1F
100
AcDbEntity
  8
LAY-10
  6
CONTINUOUS
 62
     7
100
AcDbLine
 10
324.1133254528417
 20
405.552564630227
 30
0.0
 11
327.8292087504253
 21
413.8985751641366
 31
0.0
  0
LINE
  5
232
330
1F
100
AcDbEntity
  8
LAY-10
  6
CONTINUOUS
 62
     7
100
AcDbLine
 10
319.5455981646289
 20
407.5862478456061
 30
0.0
 11
323.2614814622122
 21
415.9322583795156
 31
0.0
  0
LINE
  5
233
330
1F
100
AcDbEntity
  8
LAY-10
  6
CONTINUOUS
 62
     7
100
AcDbLine
 10
312.4999999999997
 20
409.0838359663858
 30
0.0
 11
312.4999999999997
 21
418.2196818775968
 31
0.0
  0
ARC
  5
234
330
1F
100
AcDbEntity
  8
LAY-10
  6
CONTINUOUS
 62
     7
100
AcDbCircle
 10
310.0000000000054
 20
380.0000000000032
 30
0.0
 40
29.1910862168299
100
AcDbArc
 50
262.9129768625018
 51
277.0870231375062
  0
LINE
  5
235
330
1F
100
AcDbEntity
  8
LAY-10
  6
CONTINUOUS
 62
     7
100
AcDbLine
 10
306.398499490604
 20
351.0319364022812
 30
0.0
 11
304.4990503201538
 21
342.0957306435562
 31
0.0
  0
LINE
  5
236
330
1F
100
AcDbEntity
  8
LAY-10
  6
CONTINUOUS
 62
     7
100
AcDbLine
 10
313.6015005094102
 20
351.0319364022833
 30
0.0
 11
315.5009496798606
 21
342.0957306435586
 31
0.0
  0
TEXT
  5
237
330
1F
100
AcDbEntity
  8
LAY-10
  6
CONTINUOUS
 62
     7
100
AcDbText
 10
304.1632244740279
 20
428.0679053286416
 30
0.0
 40
3.637794971056366
  1
５
 50
190.452481589275
 41
1.2
  7
EXCADSTD
100
AcDbText
  0
TEXT
  5
238
330
1F
100
AcDbEntity
  8
LAY-10
  6
CONTINUOUS
 62
     7
100
AcDbText
 10
310.0379629416779
 20
428.4209668432896
 30
0.0
 40
3.637794971056366
  1
０
 50
183.4841605297578
 41
1.2
  7
EXCADSTD
100
AcDbText
  0
TEXT
  5
239
330
1F
100
AcDbEntity
  8
LAY-10
  6
CONTINUOUS
 62
     7
100
AcDbText
 10
315.9121405738092
 20
428.0586939591519
 30
0.0
 40
3.637794971056366
  1
３
 50
176.5158394702422
 41
1.2
  7
EXCADSTD
100
AcDbText
  0
TEXT
  5
23A
330
1F
100
AcDbEntity
  8
LAY-10
  6
CONTINUOUS
 62
     7
100
AcDbText
 10
321.6989767545277
 20
426.9864386192539
 30
0.0
 40
3.637794971056366
  1
－
 50
169.547518410725
 41
1.2
  7
EXCADSTD
100
AcDbText
  0
TEXT
  5
23B
330
1F
100
AcDbEntity
  8
LAY-10
  6
CONTINUOUS
 62
     7
100
AcDbText
 10
298.3747141103282
 20
427.0047251546908
 30
0.0
 40
3.637795714471817
  1
０
 50
197.4208026487914
 41
1.2
  7
EXCADSTD
100
AcDbText
  0
TEXT
  5
23C
330
1F
100
AcDbEntity
  8
LAY-10
  6
CONTINUOUS
 62
     7
100
AcDbText
 10
327.3074584858643
 20
425.2218024705887
 30
0.0
 40
3.637795714471817
  1
Ｘ
 50
162.0475184107256
 41
1.2
  7
EXCADSTD
100
AcDbText
  0
TEXT
  5
23D
330
1F
100
AcDbEntity
  8
LAY-10
  6
CONTINUOUS
 62
     7
100
AcDbText
 10
305.4600000000066
 20
377.5431498000219
 30
0.0
 40
4.6771656
  1
ＳＦ
 41
0.9583333333333331
  7
EXCADSTD
100
AcDbText
  0
ARC
  5
23E
330
1F
100
AcDbEntity
  8
LAY-10
  6
CONTINUOUS
 62
     7
100
AcDbCircle
 10
264.0000000000106
 20
380.0000000000005
 30
0.0
 40
3.999999999999831
100
AcDbArc
 50
270.0
 51
90.0
  0
ARC
  5
23F
330
1F
100
AcDbEntity
  8
LAY-10
  6
CONTINUOUS
 62
     7
100
AcDbCircle
 10
355.9999999999893
 20
380.0000000000005
 30
0.0
 40
3.999999999999831
100
AcDbArc
 50
90.0
 51
270.0
  0
LINE
  5
240
330
1F
100
AcDbEntity
  8
LAY-10
  6
CONTINUOUS
 62
     7
100
AcDbLine
 10
362.5571117927954
 20
390.0000000000003
 30
0.0
 11
346.9728830742678
 21
390.0000000000003
 31
0.0
  0
LINE
  5
241
330
1F
100
AcDbEntity
  8
LAY-10
  6
CONTINUOUS
 62
     7
100
AcDbLine
 10
362.5571117927877
 20
370.0000000000003
 30
0.0
 11
346.9728830742565
 21
370.0000000000003
 31
0.0
  0
LINE
  5
242
330
1F
100
AcDbEntity
  8
LAY-10
  6
CONTINUOUS
 62
     7
100
AcDbLine
 10
256.869263513324
 20
386.2749374804588
 30
0.0
 11
255.3591255595559
 21
386.2749374804588
 31
0.0
  0
LINE
  5
243
330
1F
100
AcDbEntity
  8
LAY-10
  6
CONTINUOUS
 62
     7
100
AcDbLine
 10
256.8375132259578
 20
386.000000000004
 30
0.0
 11
255.1356052680375
 21
386.000000000004
 31
0.0
  0
ARC
  5
244
330
1F
100
AcDbEntity
  8
LAY-10
  6
CONTINUOUS
 62
     7
100
AcDbCircle
 10
309.9999999999999
 20
380.0000000000211
 30
0.0
 40
53.50000000000004
100
AcDbArc
 50
4.750536844101631
 51
175.2494631558675
  0
LINE
  5
245
330
1F
100
AcDbEntity
  8
LAY-10
  6
CONTINUOUS
 62
     7
100
AcDbLine
 10
262.900367627185
 20
384.0000000000003
 30
0.0
 11
264.0000000000106
 21
384.0000000000003
 31
0.0
  0
ARC
  5
246
330
1F
100
AcDbEntity
  8
LAY-10
  6
CONTINUOUS
 62
     7
100
AcDbCircle
 10
309.9999999999999
 20
380.0000000000211
 30
0.0
 40
53.50000000000004
100
AcDbArc
 50
184.7505368441759
 51
355.2494631558555
  0
LINE
  5
247
330
1F
100
AcDbEntity
  8
LAY-10
  6
CONTINUOUS
 62
     7
100
AcDbLine
 10
262.9003676271836
 20
376.0000000000004
 30
0.0
 11
264.0000000000106
 21
376.0000000000004
 31
0.0
  0
LINE
  5
248
330
1F
100
AcDbEntity
  8
LAY-10
  6
CONTINUOUS
 62
     7
100
AcDbLine
 10
256.8375132259616
 20
374.000000000004
 30
0.0
 11
255.1356052680375
 21
374.000000000004
 31
0.0
  0
LINE
  5
249
330
1F
100
AcDbEntity
  8
LAY-10
  6
CONTINUOUS
 62
     7
100
AcDbLine
 10
256.869263513328
 20
373.7250625195492
 30
0.0
 11
255.3591255595559
 21
373.7250625195492
 31
0.0
  0
LINE
  5
24A
330
1F
100
AcDbEntity
  8
LAY-10
  6
CONTINUOUS
 62
     7
100
AcDbLine
 10
305.7000000000003
 20
325.1683485566997
 30
0.0
 11
305.7000000000003
 21
326.6730837194035
 31
0.0
  0
LINE
  5
24B
330
1F
100
AcDbEntity
  8
LAY-10
  6
CONTINUOUS
 62
     7
100
AcDbLine
 10
306.0000000000002
 20
324.9536394545092
 30
0.0
 11
306.0000000000002
 21
326.6497422686849
 31
0.0
  0
LINE
  5
24C
330
1F
100
AcDbEntity
  8
LAY-10
  6
CONTINUOUS
 62
     7
100
AcDbLine
 10
314.0000000000001
 20
324.9536394545092
 30
0.0
 11
314.0000000000001
 21
326.6497422686849
 31
0.0
  0
LINE
  5
24D
330
1F
100
AcDbEntity
  8
LAY-10
  6
CONTINUOUS
 62
     7
100
AcDbLine
 10
314.3000000000001
 20
326.6730837194035
 30
0.0
 11
314.3000000000001
 21
325.1683485566997
 31
0.0
  0
LINE
  5
24E
330
1F
100
AcDbEntity
  8
LAY-10
  6
CONTINUOUS
 62
     7
100
AcDbLine
 10
363.1307364866719
 20
373.7250625195492
 30
0.0
 11
364.6408744404441
 21
373.7250625195492
 31
0.0
  0
LINE
  5
24F
330
1F
100
AcDbEntity
  8
LAY-10
  6
CONTINUOUS
 62
     7
100
AcDbLine
 10
363.1624867740383
 20
374.000000000004
 30
0.0
 11
364.8643947319624
 21
374.000000000004
 31
0.0
  0
LINE
  5
250
330
1F
100
AcDbEntity
  8
LAY-10
  6
CONTINUOUS
 62
     7
100
AcDbLine
 10
357.0996323728172
 20
376.0000000000004
 30
0.0
 11
355.9999999999893
 21
376.0000000000004
 31
0.0
  0
LINE
  5
251
330
1F
100
AcDbEntity
  8
LAY-10
  6
CONTINUOUS
 62
     7
100
AcDbLine
 10
357.0996323728158
 20
384.0000000000003
 30
0.0
 11
355.9999999999893
 21
384.0000000000003
 31
0.0
  0
LINE
  5
252
330
1F
100
AcDbEntity
  8
LAY-10
  6
CONTINUOUS
 62
     7
100
AcDbLine
 10
363.1307364866759
 20
386.2749374804588
 30
0.0
 11
364.6408744404441
 21
386.2749374804588
 31
0.0
  0
LINE
  5
253
330
1F
100
AcDbEntity
  8
LAY-10
  6
CONTINUOUS
 62
     7
100
AcDbLine
 10
363.1624867740421
 20
386.000000000004
 30
0.0
 11
364.8643947319624
 21
386.000000000004
 31
0.0
  0
LINE
  5
254
330
1F
100
AcDbEntity
  8
LAY-10
  6
CONTINUOUS
 62
     7
100
AcDbLine
 10
314.3000000000001
 20
433.3269162806388
 30
0.0
 11
314.3000000000001
 21
434.831651443308
 31
0.0
  0
LINE
  5
255
330
1F
100
AcDbEntity
  8
LAY-10
  6
CONTINUOUS
 62
     7
100
AcDbLine
 10
314.0000000000001
 20
435.0463605454987
 30
0.0
 11
314.0000000000001
 21
433.3502577313574
 31
0.0
  0
LINE
  5
256
330
1F
100
AcDbEntity
  8
LAY-10
  6
CONTINUOUS
 62
     7
100
AcDbLine
 10
305.7000000000003
 20
434.831651443308
 30
0.0
 11
305.7000000000003
 21
433.3269162806388
 31
0.0
  0
LINE
  5
257
330
1F
100
AcDbEntity
  8
LAY-10
  6
CONTINUOUS
 62
     7
100
AcDbLine
 10
306.0000000000002
 20
435.0463605454987
 30
0.0
 11
306.0000000000002
 21
433.3502577313574
 31
0.0
  0
LINE
  5
258
330
1F
100
AcDbEntity
  8
LAY-10
  6
CONTINUOUS
 62
     7
100
AcDbLine
 10
233.5000000000001
 20
185.19864124052
 30
0.0
 11
270.2739938727367
 21
175.3450792798524
 31
0.0
  0
LINE
  5
259
330
1F
100
AcDbEntity
  8
LAY-10
  6
CONTINUOUS
 62
     7
100
AcDbLine
 10
238.0376247012161
 20
178.1986412405201
 30
0.0
 11
227.5000000000002
 21
178.1986412405201
 31
0.0
  0
LINE
  5
25A
330
1F
100
AcDbEntity
  8
LAY-10
  6
CONTINUOUS
 62
     7
100
AcDbLine
 10
227.5000000000002
 20
178.1986412405201
 30
0.0
 11
228.377345908034
 21
184.3400625967573
 31
0.0
  0
LINE
  5
25B
330
1F
100
AcDbEntity
  8
LAY-10
  6
CONTINUOUS
 62
     7
100
AcDbLine
 10
234.1847759934253
 20
180.8740513444451
 30
0.0
 11
236.5377293291303
 21
180.2435793983149
 31
0.0
  0
LINE
  5
25C
330
1F
100
AcDbEntity
  8
LAY-10
  6
CONTINUOUS
 62
     7
100
AcDbLine
 10
231.6872389158978
 20
179.2250424043417
 30
0.0
 11
231.5406101782091
 21
178.1986412405201
 31
0.0
  0
ARC
  5
25D
330
1F
100
AcDbEntity
  8
LAY-10
  6
CONTINUOUS
 62
     7
100
AcDbCircle
 10
233.6671379032202
 20
178.942199691867
 30
0.0
 40
2.0
100
AcDbArc
 50
74.99999999999885
 51
171.8698976458419
  0
LINE
  5
25E
330
1F
100
AcDbEntity
  8
LAY-10
  6
CONTINUOUS
 62
     7
100
AcDbLine
 10
386.5000000000001
 20
185.19864124052
 30
0.0
 11
349.7260061272638
 21
175.3450792798525
 31
0.0
  0
LINE
  5
25F
330
1F
100
AcDbEntity
  8
LAY-10
  6
CONTINUOUS
 62
     7
100
AcDbLine
 10
375.8304575676444
 20
178.1986412405201
 30
0.0
 11
392.5000000000001
 21
178.1986412405201
 31
0.0
  0
LINE
  5
260
330
1F
100
AcDbEntity
  8
LAY-10
  6
CONTINUOUS
 62
     7
100
AcDbLine
 10
392.5000000000001
 20
178.1986412405201
 30
0.0
 11
391.6226540919663
 21
184.3400625967573
 31
0.0
  0
LINE
  5
261
330
1F
100
AcDbEntity
  8
LAY-10
  6
CONTINUOUS
 62
     7
100
AcDbLine
 10
385.815224006575
 20
180.8740513444451
 30
0.0
 11
350.7612823076737
 21
171.4813759746961
 31
0.0
  0
LINE
  5
262
330
1F
100
AcDbEntity
  8
LAY-10
  6
CONTINUOUS
 62
     7
100
AcDbLine
 10
388.3127610841024
 20
179.2250424043417
 30
0.0
 11
388.4593898217912
 21
178.1986412405201
 31
0.0
  0
ARC
  5
263
330
1F
100
AcDbEntity
  8
LAY-10
  6
CONTINUOUS
 62
     7
100
AcDbCircle
 10
386.3328620967801
 20
178.942199691867
 30
0.0
 40
2.0
100
AcDbArc
 50
8.130102354158046
 51
105.0000000000012
  0
LINE
  5
264
330
1F
100
AcDbEntity
  8
LAY-10
  6
CONTINUOUS
 62
     7
100
AcDbLine
 10
282.1
 20
164.1986412405184
 30
0.0
 11
301.209631117135
 21
164.1986412405184
 31
0.0
  0
LINE
  5
265
330
1F
100
AcDbEntity
  8
LAY-10
  6
CONTINUOUS
 62
     7
100
AcDbLine
 10
342.5000000000001
 20
160.1986412405183
 30
0.0
 11
277.5000000000002
 21
160.1986412405183
 31
0.0
  0
LINE
  5
266
330
1F
100
AcDbEntity
  8
LAY-10
  6
CONTINUOUS
 62
     7
100
AcDbLine
 10
342.5000000000001
 20
152.1986412405184
 30
0.0
 11
277.5000000000002
 21
152.1986412405184
 31
0.0
  0
LINE
  5
267
330
1F
100
AcDbEntity
  8
LAY-10
  6
CONTINUOUS
 62
     7
100
AcDbLine
 10
342.5000000000001
 20
160.1986412405183
 30
0.0
 11
342.5000000000001
 21
152.1986412405184
 31
0.0
  0
LINE
  5
268
330
1F
100
AcDbEntity
  8
LAY-10
  6
CONTINUOUS
 62
     7
100
AcDbLine
 10
277.5000000000002
 20
160.1986412405183
 30
0.0
 11
277.5000000000002
 21
152.1986412405184
 31
0.0
  0
LINE
  5
269
330
1F
100
AcDbEntity
  8
LAY-10
  6
CONTINUOUS
 62
     7
100
AcDbLine
 10
283.500000000004
 20
164.1986412405184
 30
0.0
 11
276.8028551524751
 21
164.1986412405184
 31
0.0
  0
LINE
  5
26A
330
1F
100
AcDbEntity
  8
LAY-10
  6
CONTINUOUS
 62
     7
100
AcDbLine
 10
239.0000000000014
 20
167.19864124052
 30
0.0
 11
250.9999999999952
 21
167.19864124052
 31
0.0
  0
LINE
  5
26B
330
1F
100
AcDbEntity
  8
LAY-10
  6
CONTINUOUS
 62
     7
100
AcDbLine
 10
238.0124806351088
 20
178.486039231232
 30
0.0
 11
239.0000000000014
 21
167.19864124052
 31
0.0
  0
LINE
  5
26C
330
1F
100
AcDbEntity
  8
LAY-10
  6
CONTINUOUS
 62
     7
100
AcDbLine
 10
251.5761398140091
 20
173.783949448403
 30
0.0
 11
250.9999999999952
 21
167.19864124052
 31
0.0
  0
ARC
  5
26D
330
1F
100
AcDbEntity
  8
LAY-10
  6
CONTINUOUS
 62
     7
100
AcDbCircle
 10
253.5685292101925
 20
173.6096379629076
 30
0.0
 40
2.0
100
AcDbArc
 50
74.99999999999885
 51
175.0000000000002
  0
ARC
  5
26E
330
1F
100
AcDbEntity
  8
LAY-10
  6
CONTINUOUS
 62
     7
100
AcDbCircle
 10
236.0200912389253
 20
178.3117277457367
 30
0.0
 40
2.0
100
AcDbArc
 50
4.999999999999801
 51
74.99999999999885
  0
LINE
  5
26F
330
1F
100
AcDbEntity
  8
LAY-10
  6
CONTINUOUS
 62
     7
100
AcDbLine
 10
254.0861673003976
 20
175.5414896154857
 30
0.0
 11
269.2387176923266
 21
171.4813759746961
 31
0.0
  0
LINE
  5
270
330
1F
100
AcDbEntity
  8
LAY-10
  6
CONTINUOUS
 62
     7
100
AcDbLine
 10
283.2903688828552
 20
164.1986412405178
 30
0.0
 11
283.4999999999872
 21
160.1986412405183
 31
0.0
  0
LINE
  5
271
330
1F
100
AcDbEntity
  8
LAY-10
  6
CONTINUOUS
 62
     7
100
AcDbLine
 10
330.5792283833531
 20
171.2509771967614
 30
0.0
 11
329.9999999999965
 21
160.1986412405183
 31
0.0
  0
LINE
  5
272
330
1F
100
AcDbEntity
  8
LAY-10
  6
CONTINUOUS
 62
     7
100
AcDbLine
 10
344.9999999999994
 20
145.1986412405184
 30
0.0
 11
347.0510354332802
 21
145.1986412405184
 31
0.0
  0
LINE
  5
273
330
1F
100
AcDbEntity
  8
LAY-10
  6
CONTINUOUS
 62
     7
100
AcDbLine
 10
349.2816613283698
 20
169.6541962346039
 30
0.0
 11
348.0496649680348
 21
146.1463052842755
 31
0.0
  0
ARC
  5
274
330
1F
100
AcDbEntity
  8
LAY-10
  6
CONTINUOUS
 62
     7
100
AcDbCircle
 10
351.2789203978788
 20
169.5495243221179
 30
0.0
 40
2.0
100
AcDbArc
 50
105.0000000000012
 51
176.9999999999977
  0
LINE
  5
275
330
1F
100
AcDbEntity
  8
LAY-10
  6
CONTINUOUS
 62
     7
100
AcDbLine
 10
344.6331455450185
 20
138.1986412405184
 30
0.0
 11
344.9999999999999
 21
145.1986412405184
 31
0.0
  0
ARC
  5
276
330
1F
100
AcDbEntity
  8
LAY-10
  6
CONTINUOUS
 62
     7
100
AcDbCircle
 10
351.278920397879
 20
169.5495243221181
 30
0.0
 40
6.000000000000004
100
AcDbArc
 50
105.0000000000024
 51
153.7991294022303
  0
ARC
  5
277
330
1F
100
AcDbEntity
  8
LAY-10
  6
CONTINUOUS
 62
     7
100
AcDbCircle
 10
268.7210796021214
 20
169.5495243221181
 30
0.0
 40
6.000000000000004
100
AcDbArc
 50
3.000000000001267
 51
74.99999999999885
  0
ARC
  5
278
330
1F
100
AcDbEntity
  8
LAY-10
  6
CONTINUOUS
 62
     7
100
AcDbCircle
 10
268.7210796021216
 20
169.5495243221179
 30
0.0
 40
2.0
100
AcDbArc
 50
3.000000000002355
 51
74.99999999999885
  0
LINE
  5
279
330
1F
100
AcDbEntity
  8
LAY-10
  6
CONTINUOUS
 62
     7
100
AcDbLine
 10
270.7183386716307
 20
169.6541962346039
 30
0.0
 11
271.9503350319657
 21
146.1463052842755
 31
0.0
  0
LINE
  5
27A
330
1F
100
AcDbEntity
  8
LAY-10
  6
CONTINUOUS
 62
     7
100
AcDbLine
 10
275.0000000000009
 20
145.1986412405184
 30
0.0
 11
272.9489645667202
 21
145.1986412405184
 31
0.0
  0
LINE
  5
27B
330
1F
100
AcDbEntity
  8
LAY-10
  6
CONTINUOUS
 62
     7
100
AcDbLine
 10
275.3668544549819
 20
138.1986412405184
 30
0.0
 11
275.0000000000006
 21
145.1986412405184
 31
0.0
  0
LINE
  5
27C
330
1F
100
AcDbEntity
  8
LAY-10
  6
CONTINUOUS
 62
     7
100
AcDbLine
 10
274.9104116415396
 20
166.0939693280326
 30
0.0
 11
274.7128568106489
 21
169.8635400595759
 31
0.0
  0
ARC
  5
27D
330
1F
100
AcDbEntity
  8
LAY-10
  6
CONTINUOUS
 62
     7
100
AcDbCircle
 10
276.9076707110486
 20
166.1986412405184
 30
0.0
 40
2.0
100
AcDbArc
 50
182.9999999999991
 51
270.0
  0
LINE
  5
27E
330
1F
100
AcDbEntity
  8
LAY-10
  6
CONTINUOUS
 62
     7
100
AcDbLine
 10
301.5792283833597
 20
171.2509771967631
 30
0.0
 11
301.0000000000027
 21
160.1986412405183
 31
0.0
  0
LINE
  5
27F
330
1F
100
AcDbEntity
  8
LAY-10
  6
CONTINUOUS
 62
     7
100
AcDbLine
 10
302.5778579181143
 20
172.19864124052
 30
0.0
 11
310.0000000000001
 21
172.19864124052
 31
0.0
  0
LINE
  5
280
330
1F
100
AcDbEntity
  8
LAY-10
  6
CONTINUOUS
 62
     7
100
AcDbLine
 10
310.0000000000001
 20
164.1986412405184
 30
0.0
 11
330.2096311171284
 21
164.1986412405184
 31
0.0
  0
ARC
  5
281
330
1F
100
AcDbEntity
  8
LAY-10
  6
CONTINUOUS
 62
     7
100
AcDbCircle
 10
390.6327045983052
 20
184.19864124052
 30
0.0
 40
1.0
100
AcDbArc
 50
8.130102354154609
 51
90.0
  0
ARC
  5
282
330
1F
100
AcDbEntity
  8
LAY-10
  6
CONTINUOUS
 62
     7
100
AcDbCircle
 10
229.3672954016952
 20
184.19864124052
 30
0.0
 40
1.0
100
AcDbArc
 50
90.0
 51
171.8698976458452
  0
ARC
  5
283
330
1F
100
AcDbEntity
  8
LAY-10
  6
CONTINUOUS
 62
     7
100
AcDbCircle
 10
331.5778579181076
 20
171.1986412405184
 30
0.0
 40
1.0
100
AcDbArc
 50
90.0
 51
177.000000000001
  0
ARC
  5
284
330
1F
100
AcDbEntity
  8
LAY-10
  6
CONTINUOUS
 62
     7
100
AcDbCircle
 10
302.5778579181143
 20
171.19864124052
 30
0.0
 40
1.0
100
AcDbArc
 50
90.0
 51
176.9999999999944
  0
ARC
  5
285
330
1F
100
AcDbEntity
  8
LAY-10
  6
CONTINUOUS
 62
     7
100
AcDbCircle
 10
347.0510354332802
 20
146.1986412405184
 30
0.0
 40
1.0
100
AcDbArc
 50
270.0
 51
357.000000000001
  0
ARC
  5
286
330
1F
100
AcDbEntity
  8
LAY-10
  6
CONTINUOUS
 62
     7
100
AcDbCircle
 10
272.9489645667202
 20
146.1986412405184
 30
0.0
 40
1.0
100
AcDbArc
 50
182.9999999999991
 51
270.0
  0
LINE
  5
287
330
1F
100
AcDbEntity
  8
LAY-10
  6
CONTINUOUS
 62
     7
100
AcDbLine
 10
331.0000000000008
 20
178.0000000000138
 30
0.0
 11
331.0000000000008
 21
184.0520000000139
 31
0.0
  0
ARC
  5
288
330
1F
100
AcDbEntity
  8
LAY-10
  6
CONTINUOUS
 62
     7
100
AcDbCircle
 10
333.000000000001
 20
181.75220320857
 30
0.0
 40
3.047796791443853
100
AcDbArc
 50
48.98840640770953
 51
131.0115935922989
  0
LINE
  5
289
330
1F
100
AcDbEntity
  8
LAY-10
  6
CONTINUOUS
 62
     7
100
AcDbLine
 10
335.0000000000009
 20
178.0000000000138
 30
0.0
 11
335.0000000000009
 21
184.0520000000139
 31
0.0
  0
ARC
  5
28A
330
1F
100
AcDbEntity
  8
LAY-10
  6
CONTINUOUS
 62
     7
100
AcDbCircle
 10
339.000000000001
 20
173.7308128342385
 30
0.0
 40
11.06918716577541
100
AcDbArc
 50
68.81604434177433
 51
111.1839556582283
  0
LINE
  5
28B
330
1F
100
AcDbEntity
  8
LAY-10
  6
CONTINUOUS
 62
     7
100
AcDbLine
 10
345.000000000001
 20
184.8000000000137
 30
0.0
 11
333.000000000001
 21
184.8000000000137
 31
0.0
  0
LINE
  5
28C
330
1F
100
AcDbEntity
  8
LAY-10
  6
CONTINUOUS
 62
     7
100
AcDbLine
 10
343.0000000000008
 20
178.0000000000138
 30
0.0
 11
343.0000000000008
 21
184.0520000000137
 31
0.0
  0
ARC
  5
28D
330
1F
100
AcDbEntity
  8
LAY-10
  6
CONTINUOUS
 62
     7
100
AcDbCircle
 10
345.000000000001
 20
181.75220320857
 30
0.0
 40
3.047796791443853
100
AcDbArc
 50
48.98840640770953
 51
131.0115935923019
  0
LINE
  5
28E
330
1F
100
AcDbEntity
  8
LAY-10
  6
CONTINUOUS
 62
     7
100
AcDbLine
 10
347.0000000000008
 20
178.0000000000138
 30
0.0
 11
347.0000000000008
 21
184.0520000000137
 31
0.0
  0
LINE
  5
28F
330
1F
100
AcDbEntity
  8
LAY-10
  6
CONTINUOUS
 62
     7
100
AcDbLine
 10
331.0000000000008
 20
178.0000000000138
 30
0.0
 11
347.0000000000008
 21
178.0000000000138
 31
0.0
  0
LINE
  5
290
330
1F
100
AcDbEntity
  8
LAY-10
  6
CONTINUOUS
 62
     7
100
AcDbLine
 10
342.5000000000006
 20
215.9000000000098
 30
0.0
 11
343.0000000000008
 21
215.4000000000136
 31
0.0
  0
LINE
  5
291
330
1F
100
AcDbEntity
  8
LAY-10
  6
CONTINUOUS
 62
     7
100
AcDbLine
 10
339.750000000001
 20
215.4000000000136
 30
0.0
 11
343.0000000000008
 21
215.4000000000136
 31
0.0
  0
LINE
  5
292
330
1F
100
AcDbEntity
  8
LAY-10
  6
CONTINUOUS
 62
     7
100
AcDbLine
 10
339.750000000001
 20
215.9000000000098
 30
0.0
 11
342.5000000000006
 21
215.9000000000098
 31
0.0
  0
LINE
  5
293
330
1F
100
AcDbEntity
  8
LAY-10
  6
CONTINUOUS
 62
     7
100
AcDbLine
 10
338.2500000000007
 20
213.4000000000134
 30
0.0
 11
339.750000000001
 21
213.4000000000134
 31
0.0
  0
LINE
  5
294
330
1F
100
AcDbEntity
  8
LAY-10
  6
CONTINUOUS
 62
     7
100
AcDbLine
 10
339.750000000001
 20
213.4000000000134
 30
0.0
 11
339.750000000001
 21
215.9000000000098
 31
0.0
  0
LINE
  5
295
330
1F
100
AcDbEntity
  8
LAY-10
  6
CONTINUOUS
 62
     7
100
AcDbLine
 10
338.2500000000007
 20
213.4000000000134
 30
0.0
 11
338.2500000000007
 21
215.9000000000098
 31
0.0
  0
LINE
  5
296
330
1F
100
AcDbEntity
  8
LAY-10
  6
CONTINUOUS
 62
     7
100
AcDbLine
 10
335.0000000000009
 20
215.4000000000136
 30
0.0
 11
338.2500000000007
 21
215.4000000000136
 31
0.0
  0
LINE
  5
297
330
1F
100
AcDbEntity
  8
LAY-10
  6
CONTINUOUS
 62
     7
100
AcDbLine
 10
335.5000000000008
 20
215.9000000000098
 30
0.0
 11
338.2500000000007
 21
215.9000000000098
 31
0.0
  0
LINE
  5
298
330
1F
100
AcDbEntity
  8
LAY-10
  6
CONTINUOUS
 62
     7
100
AcDbLine
 10
335.0000000000009
 20
215.4000000000136
 30
0.0
 11
335.5000000000011
 21
215.9000000000098
 31
0.0
  0
LINE
  5
299
330
1F
100
AcDbEntity
  8
LAY-10
  6
CONTINUOUS
 62
     7
100
AcDbLine
 10
335.0000000000009
 20
184.8000000000137
 30
0.0
 11
335.0000000000009
 21
215.4000000000136
 31
0.0
  0
LINE
  5
29A
330
1F
100
AcDbEntity
  8
LAY-10
  6
CONTINUOUS
 62
     7
100
AcDbLine
 10
343.0000000000008
 20
184.8000000000137
 30
0.0
 11
343.0000000000008
 21
215.4000000000136
 31
0.0
  0
LINE
  5
29B
330
1F
100
AcDbEntity
  8
LAY-10
  6
CONTINUOUS
 62
     7
100
AcDbLine
 10
342.4999999999974
 20
165.6986412405168
 30
0.0
 11
342.4999999999974
 21
165.198641240513
 31
0.0
  0
LINE
  5
29C
330
1F
100
AcDbEntity
  8
LAY-10
  6
CONTINUOUS
 62
     7
100
AcDbLine
 10
335.5000000000024
 20
165.6986412405168
 30
0.0
 11
335.5000000000024
 21
165.198641240513
 31
0.0
  0
LINE
  5
29D
330
1F
100
AcDbEntity
  8
LAY-10
  6
CONTINUOUS
 62
     7
100
AcDbLine
 10
335.5000000000024
 20
165.198641240513
 30
0.0
 11
342.4999999999976
 21
165.198641240513
 31
0.0
  0
LINE
  5
29E
330
1F
100
AcDbEntity
  8
LAY-10
  6
CONTINUOUS
 62
     7
100
AcDbLine
 10
335.5000000000024
 20
165.1986412405134
 30
0.0
 11
339.0000000000006
 21
163.1779152983507
 31
0.0
  0
LINE
  5
29F
330
1F
100
AcDbEntity
  8
LAY-10
  6
CONTINUOUS
 62
     7
100
AcDbLine
 10
339.0000000000006
 20
163.1779152983512
 30
0.0
 11
342.4999999999974
 21
165.198641240513
 31
0.0
  0
LINE
  5
2A0
330
1F
100
AcDbEntity
  8
LAY-10
  6
CONTINUOUS
 62
     7
100
AcDbLine
 10
342.9999999999999
 20
177.9999999999897
 30
0.0
 11
342.9999999999999
 21
166.1999999999908
 31
0.0
  0
LINE
  5
2A1
330
1F
100
AcDbEntity
  8
LAY-10
  6
CONTINUOUS
 62
     7
100
AcDbLine
 10
335.0000000000001
 20
177.9999999999897
 30
0.0
 11
335.0000000000001
 21
166.1999999999908
 31
0.0
  0
LINE
  5
2A2
330
1F
100
AcDbEntity
  8
LAY-10
  6
CONTINUOUS
 62
     7
100
AcDbLine
 10
335.4999999999994
 20
165.6999999999897
 30
0.0
 11
342.5000000000001
 21
165.6999999999897
 31
0.0
  0
LINE
  5
2A3
330
1F
100
AcDbEntity
  8
LAY-10
  6
CONTINUOUS
 62
     7
100
AcDbLine
 10
335.0000000000001
 20
166.1999999999908
 30
0.0
 11
342.9999999999999
 21
166.1999999999908
 31
0.0
  0
LINE
  5
2A4
330
1F
100
AcDbEntity
  8
LAY-10
  6
CONTINUOUS
 62
     7
100
AcDbLine
 10
342.5000000000001
 20
165.6999999999897
 30
0.0
 11
342.9999999999999
 21
166.1999999999911
 31
0.0
  0
LINE
  5
2A5
330
1F
100
AcDbEntity
  8
LAY-10
  6
CONTINUOUS
 62
     7
100
AcDbLine
 10
335.4999999999994
 20
165.6999999999897
 30
0.0
 11
335.0000000000001
 21
166.1999999999911
 31
0.0
  0
LINE
  5
2A6
330
1F
100
AcDbEntity
  8
LAY-10
  6
CONTINUOUS
 62
     7
100
AcDbLine
 10
335.4999999999994
 20
172.1986412405184
 30
0.0
 11
331.5778579181076
 21
172.1986412405184
 31
0.0
  0
LINE
  5
2A7
330
1F
100
AcDbEntity
  8
LAY-10
  6
CONTINUOUS
 62
     7
100
AcDbLine
 10
345.8954104320068
 20
172.1986412405184
 30
0.0
 11
342.5000000000001
 21
172.1986412405184
 31
0.0
  0
LINE
  5
2A8
330
1F
100
AcDbEntity
  8
LAY-10
  6
CONTINUOUS
 62
     7
100
AcDbLine
 10
237.4999999999948
 20
188.0000000000076
 30
0.0
 11
249.4839567770493
 21
188.0000000000076
 31
0.0
  0
LINE
  5
2A9
330
1F
100
AcDbEntity
  8
LAY-10
  6
CONTINUOUS
 62
     7
100
AcDbLine
 10
279.5525588832526
 20
177.0000000000067
 30
0.0
 11
269.2749374804547
 21
179.7538803549995
 31
0.0
  0
LINE
  5
2AA
330
1F
100
AcDbEntity
  8
LAY-10
  6
CONTINUOUS
 62
     7
100
AcDbLine
 10
239.1094468812752
 20
183.6955944786969
 30
0.0
 11
279.0259488928949
 21
173.0000000000076
 31
0.0
  0
LINE
  5
2AB
330
1F
100
AcDbEntity
  8
LAY-10
  6
CONTINUOUS
 62
     7
100
AcDbLine
 10
237.6298259019711
 20
185.522774218789
 30
0.0
 11
237.4999999999948
 21
188.0000000000076
 31
0.0
  0
ARC
  5
2AC
330
1F
100
AcDbEntity
  8
LAY-10
  6
CONTINUOUS
 62
     7
100
AcDbCircle
 10
239.6270849714803
 20
185.6274461312749
 30
0.0
 40
2.0
100
AcDbArc
 50
182.9999999999991
 51
254.9999999999989
  0
LINE
  5
2AD
330
1F
100
AcDbEntity
  8
LAY-10
  6
CONTINUOUS
 62
     7
100
AcDbLine
 10
249.1857827935784
 20
186.2665755298347
 30
0.0
 11
249.8571462766554
 21
190.1695246617454
 31
0.0
  0
LINE
  5
2AE
330
1F
100
AcDbEntity
  8
LAY-10
  6
CONTINUOUS
 62
     7
100
AcDbLine
 10
382.3701740980289
 20
185.522774218789
 30
0.0
 11
382.5000000000052
 21
188.0000000000076
 31
0.0
  0
ARC
  5
2AF
330
1F
100
AcDbEntity
  8
LAY-10
  6
CONTINUOUS
 62
     7
100
AcDbCircle
 10
380.3729150285197
 20
185.6274461312749
 30
0.0
 40
2.0
100
AcDbArc
 50
285.000000000003
 51
357.000000000001
  0
LINE
  5
2B0
330
1F
100
AcDbEntity
  8
LAY-10
  6
CONTINUOUS
 62
     7
100
AcDbLine
 10
370.8142172064216
 20
186.2665755298347
 30
0.0
 11
370.1428537233446
 21
190.1695246617454
 31
0.0
  0
LINE
  5
2B1
330
1F
100
AcDbEntity
  8
LAY-10
  6
CONTINUOUS
 62
     7
100
AcDbLine
 10
382.5000000000052
 20
188.0000000000076
 30
0.0
 11
370.5160432229507
 21
188.0000000000076
 31
0.0
  0
LINE
  5
2B2
330
1F
100
AcDbEntity
  8
LAY-10
  6
CONTINUOUS
 62
     7
100
AcDbLine
 10
283.2903688828878
 20
177.0000000000076
 30
0.0
 11
283.5000000000199
 21
173.0000000000076
 31
0.0
  0
LINE
  5
2B3
330
1F
100
AcDbEntity
  8
LAY-10
  6
CONTINUOUS
 62
     7
100
AcDbLine
 10
269.2749374804546
 20
179.7538803550023
 30
0.0
 11
269.0000000000068
 21
185.0000000000073
 31
0.0
  0
LINE
  5
2B4
330
1F
100
AcDbEntity
  8
LAY-10
  6
CONTINUOUS
 62
     7
100
AcDbLine
 10
247.9414378030727
 20
185.4701743652839
 30
0.0
 11
238.4999999999943
 21
188.0000000000076
 31
0.0
  0
LINE
  5
2B5
330
1F
100
AcDbEntity
  8
LAY-10
  6
CONTINUOUS
 62
     7
100
AcDbLine
 10
254.8084987583723
 20
185.0000000000073
 30
0.0
 11
254.1167549223808
 21
190.1335428446651
 31
0.0
  0
LINE
  5
2B6
330
1F
100
AcDbEntity
  8
LAY-10
  6
CONTINUOUS
 62
     7
100
AcDbLine
 10
372.0585621969273
 20
185.4701743652839
 30
0.0
 11
381.5000000000057
 21
188.0000000000076
 31
0.0
  0
LINE
  5
2B7
330
1F
100
AcDbEntity
  8
LAY-10
  6
CONTINUOUS
 62
     7
100
AcDbLine
 10
330.2620388964342
 20
178.0000000000069
 30
0.0
 11
330.0000000000191
 21
173.0000000000076
 31
0.0
  0
LINE
  5
2B8
330
1F
100
AcDbEntity
  8
LAY-10
  6
CONTINUOUS
 62
     7
100
AcDbLine
 10
333.737961103606
 20
178.000000000009
 30
0.0
 11
334.0000000000213
 21
173.0000000000076
 31
0.0
  0
LINE
  5
2B9
330
1F
100
AcDbEntity
  8
LAY-10
  6
CONTINUOUS
 62
     7
100
AcDbLine
 10
279.5525588832498
 20
177.0000000000067
 30
0.0
 11
301.2096311171322
 21
177.0000000000067
 31
0.0
  0
LINE
  5
2BA
330
1F
100
AcDbEntity
  8
LAY-10
  6
CONTINUOUS
 62
     7
100
AcDbLine
 10
344.2201171238722
 20
178.010885489408
 30
0.0
 11
344.0000000000375
 21
173.8108005622067
 31
0.0
  0
LINE
  5
2BB
330
1F
100
AcDbEntity
  8
LAY-10
  6
CONTINUOUS
 62
     7
100
AcDbLine
 10
330.2620388964342
 20
178.0000000000078
 30
0.0
 11
344.2195466395464
 21
178.0000000000078
 31
0.0
  0
LINE
  5
2BC
330
1F
100
AcDbEntity
  8
LAY-10
  6
CONTINUOUS
 62
     7
100
AcDbLine
 10
269.0744799274017
 20
183.5788383248922
 30
0.0
 11
272.6942174379319
 21
183.5788383248922
 31
0.0
  0
LINE
  5
2BD
330
1F
100
AcDbEntity
  8
LAY-10
  6
CONTINUOUS
 62
     7
100
AcDbLine
 10
255.8472016904217
 20
185.0000000000073
 30
0.0
 11
255.0333301200264
 21
190.155921216767
 31
0.0
  0
ARC
  5
2BE
330
1F
100
AcDbEntity
  8
LAY-10
  6
CONTINUOUS
 62
     7
100
AcDbCircle
 10
250.8426722220584
 20
190.0000000000071
 30
0.0
 40
1.0
100
AcDbArc
 50
90.0
 51
170.2398169556093
  0
ARC
  5
2BF
330
1F
100
AcDbEntity
  8
LAY-10
  6
CONTINUOUS
 62
     7
100
AcDbCircle
 10
253.1257118816198
 20
190.0000000000071
 30
0.0
 40
1.0
100
AcDbArc
 50
7.674368095125249
 51
90.0
  0
ARC
  5
2C0
330
1F
100
AcDbEntity
  8
LAY-10
  6
CONTINUOUS
 62
     7
100
AcDbCircle
 10
254.0455606255774
 20
190.0000000000071
 30
0.0
 40
1.0
100
AcDbArc
 50
8.97022770203302
 51
90.0
  0
ARC
  5
2C1
330
1F
100
AcDbEntity
  8
LAY-10
  6
CONTINUOUS
 62
     7
100
AcDbCircle
 10
272.6942174379319
 20
184.5788383248922
 30
0.0
 40
1.0
100
AcDbArc
 50
270.0
 51
359.148246592244
  0
ARC
  5
2C2
330
1F
100
AcDbEntity
  8
LAY-10
  6
CONTINUOUS
 62
     7
100
AcDbCircle
 10
298.3773427992637
 20
184.5788383248922
 30
0.0
 40
1.0
100
AcDbArc
 50
270.0
 51
354.5022251437688
  0
ARC
  5
2C3
330
1F
100
AcDbEntity
  8
LAY-10
  6
CONTINUOUS
 62
     7
100
AcDbCircle
 10
293.2341611661291
 20
184.5788383248922
 30
0.0
 40
1.0
100
AcDbArc
 50
189.7993784458832
 51
270.0
  0
LINE
  5
2C4
330
1F
100
AcDbEntity
  8
LAY-10
  6
CONTINUOUS
 62
     7
100
AcDbLine
 10
293.2341611661291
 20
183.5788383248922
 30
0.0
 11
298.3773427992637
 21
183.5788383248922
 31
0.0
  0
ARC
  5
2C5
330
1F
100
AcDbEntity
  8
LAY-10
  6
CONTINUOUS
 62
     7
100
AcDbCircle
 10
321.6226572007363
 20
184.5788383248922
 30
0.0
 40
1.0
100
AcDbArc
 50
185.4977748562312
 51
270.0
  0
ARC
  5
2C6
330
1F
100
AcDbEntity
  8
LAY-10
  6
CONTINUOUS
 62
     7
100
AcDbCircle
 10
326.7658388338709
 20
184.5788383248922
 30
0.0
 40
1.0
100
AcDbArc
 50
270.0
 51
350.2006215541169
  0
LINE
  5
2C7
330
1F
100
AcDbEntity
  8
LAY-10
  6
CONTINUOUS
 62
     7
100
AcDbLine
 10
326.7658388338709
 20
183.5788383248922
 30
0.0
 11
321.6226572007363
 21
183.5788383248922
 31
0.0
  0
ARC
  5
2C8
330
1F
100
AcDbEntity
  8
LAY-10
  6
CONTINUOUS
 62
     7
100
AcDbCircle
 10
353.5451160360529
 20
190.0000000000071
 30
0.0
 40
1.0
100
AcDbArc
 50
90.0
 51
169.1947564657618
  0
ARC
  5
2C9
330
1F
100
AcDbEntity
  8
LAY-10
  6
CONTINUOUS
 62
     7
100
AcDbCircle
 10
348.0094277050922
 20
190.0000000000071
 30
0.0
 40
1.0
100
AcDbArc
 50
13.57862873097603
 51
90.0
  0
LINE
  5
2CA
330
1F
100
AcDbEntity
  8
LAY-10
  6
CONTINUOUS
 62
     7
100
AcDbLine
 10
350.4743600970169
 20
183.5788383248922
 30
0.0
 11
347.3057825620681
 21
183.5788383248922
 31
0.0
  0
ARC
  5
2CB
330
1F
100
AcDbEntity
  8
LAY-10
  6
CONTINUOUS
 62
     7
100
AcDbCircle
 10
350.4743600970169
 20
184.5788383248922
 30
0.0
 40
1.0
100
AcDbArc
 50
270.0
 51
349.1947564657618
  0
LINE
  5
2CC
330
1F
100
AcDbEntity
  8
LAY-10
  6
CONTINUOUS
 62
     7
100
AcDbLine
 10
353.5451160360529
 20
191.0000000000071
 30
0.0
 11
369.1573277779416
 21
191.0000000000071
 31
0.0
  0
LINE
  5
2CD
330
1F
100
AcDbEntity
  8
LAY-10
  6
CONTINUOUS
 62
     7
100
AcDbLine
 10
364.9999999999986
 20
183.5788383248917
 30
0.0
 11
365.8832450776192
 21
190.1335428446651
 31
0.0
  0
ARC
  5
2CE
330
1F
100
AcDbEntity
  8
LAY-10
  6
CONTINUOUS
 62
     7
100
AcDbCircle
 10
366.8742881183802
 20
190.0000000000071
 30
0.0
 40
1.0
100
AcDbArc
 50
90.0
 51
172.3256319048747
  0
LINE
  5
2CF
330
1F
100
AcDbEntity
  8
LAY-10
  6
CONTINUOUS
 62
     7
100
AcDbLine
 10
364.0536501632275
 20
184.371891032982
 30
0.0
 11
364.9666698799736
 21
190.155921216767
 31
0.0
  0
ARC
  5
2D0
330
1F
100
AcDbEntity
  8
LAY-10
  6
CONTINUOUS
 62
     7
100
AcDbCircle
 10
365.9544393744226
 20
190.0000000000071
 30
0.0
 40
1.0
100
AcDbArc
 50
90.0
 51
171.029772297967
  0
ARC
  5
2D1
330
1F
100
AcDbEntity
  8
LAY-10
  6
CONTINUOUS
 62
     7
100
AcDbCircle
 10
363.6387704907987
 20
190.0000000000071
 30
0.0
 40
1.0
100
AcDbArc
 50
90.0
 51
175.2808008265496
  0
ARC
  5
2D2
330
1F
100
AcDbEntity
  8
LAY-10
  6
CONTINUOUS
 62
     7
100
AcDbCircle
 10
369.1573277779416
 20
190.0000000000071
 30
0.0
 40
1.0
100
AcDbArc
 50
9.76018304439084
 51
90.0
  0
ARC
  5
2D3
330
1F
100
AcDbEntity
  8
LAY-10
  6
CONTINUOUS
 62
     7
100
AcDbCircle
 10
363.1255931049343
 20
184.518386532757
 30
0.0
 40
0.93954820786405
100
AcDbArc
 50
175.2808008265601
 51
351.0297722979643
  0
LINE
  5
2D4
330
1F
100
AcDbEntity
  8
LAY-10
  6
CONTINUOUS
 62
     7
100
AcDbLine
 10
310.0
 20
179.7538803549998
 30
0.0
 11
316.2749374804492
 21
179.7538803549998
 31
0.0
  0
LINE
  5
2D5
330
1F
100
AcDbEntity
  8
LAY-10
  6
CONTINUOUS
 62
     7
100
AcDbLine
 10
316.2749374804492
 20
179.7538803549998
 30
0.0
 11
316.0000000000014
 21
185.0000000000073
 31
0.0
  0
LINE
  5
2D6
330
1F
100
AcDbEntity
  8
LAY-10
  6
CONTINUOUS
 62
     7
100
AcDbLine
 10
310.0
 20
178.0000000000067
 30
0.0
 11
301.2620388964152
 21
178.0000000000067
 31
0.0
  0
LINE
  5
2D7
330
1F
100
AcDbEntity
  8
LAY-10
  6
CONTINUOUS
 62
     7
100
AcDbLine
 10
301.2620388964152
 20
178.0000000000067
 30
0.0
 11
301.0
 21
173.0000000000076
 31
0.0
  0
LINE
  5
2D8
330
1F
100
AcDbEntity
  8
LAY-10
  6
CONTINUOUS
 62
     7
100
AcDbLine
 10
310.0
 20
177.0000000000067
 30
0.0
 11
330.2096311171512
 21
177.0000000000067
 31
0.0
  0
ARC
  5
2D9
330
1F
100
AcDbEntity
  8
LAY-10
  6
CONTINUOUS
 62
     7
100
AcDbCircle
 10
248.2002568481753
 20
186.436100191573
 30
0.0
 40
1.0
100
AcDbArc
 50
254.9999999999989
 51
350.2398169556093
  0
ARC
  5
2DA
330
1F
100
AcDbEntity
  8
LAY-10
  6
CONTINUOUS
 62
     7
100
AcDbCircle
 10
371.7997431518247
 20
186.436100191573
 30
0.0
 40
1.0
100
AcDbArc
 50
189.7601830443908
 51
285.0000000000012
  0
LINE
  5
2DB
330
1F
100
AcDbEntity
  8
LAY-10
  6
CONTINUOUS
 62
     7
100
AcDbLine
 10
390.6327045983052
 20
185.19864124052
 30
0.0
 11
382.32640584387
 21
185.19864124052
 31
0.0
  0
LINE
  5
2DC
330
1F
100
AcDbEntity
  8
LAY-10
  6
CONTINUOUS
 62
     7
100
AcDbLine
 10
237.67359415613
 20
185.19864124052
 30
0.0
 11
229.3672954016952
 21
185.19864124052
 31
0.0
  0
LINE
  5
2DD
330
1F
100
AcDbEntity
  8
LAY-10
  6
CONTINUOUS
 62
     7
100
AcDbLine
 10
344.1794919243201
 20
178.0000000000078
 30
0.0
 11
344.2201171238729
 21
178.0108854894203
 31
0.0
  0
LINE
  5
2DE
330
1F
100
AcDbEntity
  8
LAY-10
  6
CONTINUOUS
 62
     7
100
AcDbLine
 10
347.0000000000008
 20
178.755752861132
 30
0.0
 11
364.9999999999985
 21
183.5788383248917
 31
0.0
  0
LINE
  5
2DF
330
1F
100
AcDbEntity
  8
LAY-10
  6
CONTINUOUS
 62
     7
100
AcDbLine
 10
279.0259488928962
 20
173.0000000000076
 30
0.0
 11
335.0000000000001
 21
173.0000000000076
 31
0.0
  0
LINE
  5
2E0
330
1F
100
AcDbEntity
  8
LAY-10
  6
CONTINUOUS
 62
     7
100
AcDbLine
 10
380.8905531187248
 20
183.6955944786969
 30
0.0
 11
342.9999999999999
 21
173.5428513697655
 31
0.0
  0
ARC
  5
2E1
330
1F
100
AcDbEntity
  8
LAY-10
  6
CONTINUOUS
 62
     7
100
AcDbCircle
 10
347.3057825620681
 20
184.5788383248922
 30
0.0
 40
1.0
100
AcDbArc
 50
180.8517534077561
 51
184.2456134485311
  0
ARC
  5
2E2
330
1F
100
AcDbEntity
  8
LAY-10
  6
CONTINUOUS
 62
     7
100
AcDbCircle
 10
347.3057825620681
 20
184.5788383248922
 30
0.0
 40
1.0
100
AcDbArc
 50
252.1947490988084
 51
270.0
  0
LINE
  5
2E3
330
1F
100
AcDbEntity
  8
LAY-10
  6
CONTINUOUS
 62
     7
100
AcDbLine
 10
302.0000000000038
 20
178.0000000000138
 30
0.0
 11
302.0000000000038
 21
184.0520000000138
 31
0.0
  0
ARC
  5
2E4
330
1F
100
AcDbEntity
  8
LAY-10
  6
CONTINUOUS
 62
     7
100
AcDbCircle
 10
304.000000000004
 20
181.75220320857
 30
0.0
 40
3.047796791443853
100
AcDbArc
 50
48.98840640770953
 51
131.0115935922989
  0
LINE
  5
2E5
330
1F
100
AcDbEntity
  8
LAY-10
  6
CONTINUOUS
 62
     7
100
AcDbLine
 10
306.0000000000039
 20
178.0000000000138
 30
0.0
 11
306.0000000000039
 21
184.0520000000138
 31
0.0
  0
ARC
  5
2E6
330
1F
100
AcDbEntity
  8
LAY-10
  6
CONTINUOUS
 62
     7
100
AcDbCircle
 10
310.000000000004
 20
173.7308128342383
 30
0.0
 40
11.06918716577541
100
AcDbArc
 50
90.0
 51
111.1839556582283
  0
LINE
  5
2E7
330
1F
100
AcDbEntity
  8
LAY-10
  6
CONTINUOUS
 62
     7
100
AcDbLine
 10
310.0000000000077
 20
184.8000000000138
 30
0.0
 11
304.000000000004
 21
184.8000000000138
 31
0.0
  0
LINE
  5
2E8
330
1F
100
AcDbEntity
  8
LAY-10
  6
CONTINUOUS
 62
     7
100
AcDbLine
 10
306.0000000000039
 20
184.8000000000137
 30
0.0
 11
306.0000000000039
 21
215.4000000000237
 31
0.0
  0
LINE
  5
2E9
330
1F
100
AcDbEntity
  8
LAY-10
  6
CONTINUOUS
 62
     7
100
AcDbLine
 10
306.0000000000039
 20
215.4000000000237
 30
0.0
 11
309.2500000000036
 21
215.4000000000237
 31
0.0
  0
LINE
  5
2EA
330
1F
100
AcDbEntity
  8
LAY-10
  6
CONTINUOUS
 62
     7
100
AcDbLine
 10
306.0000000000039
 20
215.4000000000237
 30
0.0
 11
306.5000000000041
 21
215.9000000000199
 31
0.0
  0
LINE
  5
2EB
330
1F
100
AcDbEntity
  8
LAY-10
  6
CONTINUOUS
 62
     7
100
AcDbLine
 10
306.5000000000038
 20
215.9000000000199
 30
0.0
 11
309.2500000000036
 21
215.9000000000199
 31
0.0
  0
LINE
  5
2EC
330
1F
100
AcDbEntity
  8
LAY-10
  6
CONTINUOUS
 62
     7
100
AcDbLine
 10
309.2500000000036
 20
213.4000000000235
 30
0.0
 11
309.2500000000036
 21
215.9000000000199
 31
0.0
  0
LINE
  5
2ED
330
1F
100
AcDbEntity
  8
LAY-10
  6
CONTINUOUS
 62
     7
100
AcDbLine
 10
309.2500000000036
 20
213.4000000000235
 30
0.0
 11
310.000000000004
 21
213.4000000000235
 31
0.0
  0
LINE
  5
2EE
330
1F
100
AcDbEntity
  8
LAY-10
  6
CONTINUOUS
 62
     7
100
AcDbLine
 10
345.5
 20
145.19864124052
 30
0.0
 11
348.0000000000043
 21
145.19864124052
 31
0.0
  0
LINE
  5
2EF
330
1F
100
AcDbEntity
  8
LAY-10
  6
CONTINUOUS
 62
     7
100
AcDbLine
 10
345.5000000000043
 20
145.19864124052
 30
0.0
 11
345.5000000000043
 21
125.19864124052
 31
0.0
  0
LINE
  5
2F0
330
1F
100
AcDbEntity
  8
LAY-10
  6
CONTINUOUS
 62
     7
100
AcDbLine
 10
348.0000000000043
 20
145.19864124052
 30
0.0
 11
348.0000000000043
 21
125.19864124052
 31
0.0
  0
LINE
  5
2F1
330
1F
100
AcDbEntity
  8
LAY-10
  6
CONTINUOUS
 62
     7
100
AcDbLine
 10
274.4999999999959
 20
145.19864124052
 30
0.0
 11
274.4999999999959
 21
125.19864124052
 31
0.0
  0
LINE
  5
2F2
330
1F
100
AcDbEntity
  8
LAY-10
  6
CONTINUOUS
 62
     7
100
AcDbLine
 10
271.9999999999959
 20
145.19864124052
 30
0.0
 11
271.9999999999959
 21
125.19864124052
 31
0.0
  0
LINE
  5
2F3
330
1F
100
AcDbEntity
  8
LAY-10
  6
CONTINUOUS
 62
     7
100
AcDbLine
 10
274.5000000000002
 20
145.19864124052
 30
0.0
 11
271.9999999999959
 21
145.19864124052
 31
0.0
  0
LINE
  5
2F4
330
1F
100
AcDbEntity
  8
LAY-10
  6
CONTINUOUS
 62
     7
100
AcDbLine
 10
271.9999999999959
 20
125.19864124052
 30
0.0
 11
348.0000000000043
 21
125.19864124052
 31
0.0
  0
LINE
  5
2F5
330
1F
100
AcDbEntity
  8
LAY-10
  6
CONTINUOUS
 62
     7
100
AcDbLine
 10
275.3668544549819
 20
138.1986412405184
 30
0.0
 11
344.6331455450185
 21
138.1986412405184
 31
0.0
  0
LINE
  5
2F6
330
1F
100
AcDbEntity
  8
LAY-10
  6
CONTINUOUS
 62
     7
100
AcDbLine
 10
287.020570865631
 20
230.0000000000098
 30
0.0
 11
332.9794291343696
 21
230.0000000000098
 31
0.0
  0
ARC
  5
2F7
330
1F
100
AcDbEntity
  8
LAY-10
  6
CONTINUOUS
 62
     7
100
AcDbCircle
 10
332.9794291343696
 20
224.0000000000098
 30
0.0
 40
6.000000000000004
100
AcDbArc
 50
15.00000000000238
 51
90.0
  0
LINE
  5
2F8
330
1F
100
AcDbEntity
  8
LAY-10
  6
CONTINUOUS
 62
     7
100
AcDbLine
 10
321.7903688828691
 20
226.0000000000097
 30
0.0
 11
322.0000000000009
 21
230.0000000000098
 31
0.0
  0
LINE
  5
2F9
330
1F
100
AcDbEntity
  8
LAY-10
  6
CONTINUOUS
 62
     7
100
AcDbLine
 10
333.715808586985
 20
225.8595013583746
 30
0.0
 11
333.4988142480528
 21
230.0000000000098
 31
0.0
  0
ARC
  5
2FA
330
1F
100
AcDbEntity
  8
LAY-10
  6
CONTINUOUS
 62
     7
100
AcDbCircle
 10
287.020570865631
 20
224.0000000000098
 30
0.0
 40
6.000000000000004
100
AcDbArc
 50
90.0
 51
164.9999999999977
  0
LINE
  5
2FB
330
1F
100
AcDbEntity
  8
LAY-10
  6
CONTINUOUS
 62
     7
100
AcDbLine
 10
298.2096311171314
 20
226.0000000000097
 30
0.0
 11
297.9999999999995
 21
230.0000000000098
 31
0.0
  0
LINE
  5
2FC
330
1F
100
AcDbEntity
  8
LAY-10
  6
CONTINUOUS
 62
     7
100
AcDbLine
 10
286.2841914130153
 20
225.8595013583746
 30
0.0
 11
286.5011857519475
 21
230.0000000000098
 31
0.0
  0
LINE
  5
2FD
330
1F
100
AcDbEntity
  8
LAY-10
  6
CONTINUOUS
 62
     7
100
AcDbLine
 10
306.764737480285
 20
224.0000000000097
 30
0.0
 11
315.8140454825599
 21
224.0000000000097
 31
0.0
  0
LINE
  5
2FE
330
1F
100
AcDbEntity
  8
LAY-10
  6
CONTINUOUS
 62
     7
100
AcDbLine
 10
323.826232557837
 20
190.0000000000099
 30
0.0
 11
331.331631108424
 21
190.0000000000099
 31
0.0
  0
LINE
  5
2FF
330
1F
100
AcDbEntity
  8
LAY-10
  6
CONTINUOUS
 62
     7
100
AcDbLine
 10
319.61827154766
 20
224.0000000000097
 30
0.0
 11
325.2219106076599
 21
224.0000000000097
 31
0.0
  0
LINE
  5
300
330
1F
100
AcDbEntity
  8
LAY-10
  6
CONTINUOUS
 62
     7
100
AcDbLine
 10
328.1944899095596
 20
224.0000000000097
 30
0.0
 11
331.99776910236
 21
224.0000000000097
 31
0.0
  0
LINE
  5
301
330
1F
100
AcDbEntity
  8
LAY-10
  6
CONTINUOUS
 62
     7
100
AcDbLine
 10
333.6247156746599
 20
224.0000000000097
 30
0.0
 11
335.0499814951897
 21
224.0000000000097
 31
0.0
  0
LINE
  5
302
330
1F
100
AcDbEntity
  8
LAY-10
  6
CONTINUOUS
 62
     7
100
AcDbLine
 10
268.3930583446281
 20
185.0000000000102
 30
0.0
 11
268.0000000000054
 21
192.500000000009
 31
0.0
  0
ARC
  5
303
330
1F
100
AcDbEntity
  8
LAY-10
  6
CONTINUOUS
 62
     7
100
AcDbCircle
 10
287.020570865631
 20
224.0000000000098
 30
0.0
 40
2.0
100
AcDbArc
 50
90.0
 51
165.000000000002
  0
LINE
  5
304
330
1F
100
AcDbEntity
  8
LAY-10
  6
CONTINUOUS
 62
     7
100
AcDbLine
 10
276.2950174482257
 20
190.0000000000099
 30
0.0
 11
275.8397459621514
 21
190.0000000000099
 31
0.0
  0
LINE
  5
305
330
1F
100
AcDbEntity
  8
LAY-10
  6
CONTINUOUS
 62
     7
100
AcDbLine
 10
284.9500185048107
 20
224.0000000000097
 30
0.0
 11
280.8089137831702
 21
224.0000000000097
 31
0.0
  0
LINE
  5
306
330
1F
100
AcDbEntity
  8
LAY-10
  6
CONTINUOUS
 62
     7
100
AcDbLine
 10
274.9596035731628
 20
185.0000000000099
 30
0.0
 11
285.3758317986537
 21
224.0000000000097
 31
0.0
  0
LINE
  5
307
330
1F
100
AcDbEntity
  8
LAY-10
  6
CONTINUOUS
 62
     7
100
AcDbLine
 10
287.3753339983761
 20
224.0000000000097
 30
0.0
 11
285.3758317986537
 21
224.0000000000097
 31
0.0
  0
LINE
  5
308
330
1F
100
AcDbEntity
  8
LAY-10
  6
CONTINUOUS
 62
     7
100
AcDbLine
 10
278.3049271054712
 20
185.0000000000099
 30
0.0
 11
287.3753339983761
 21
224.0000000000097
 31
0.0
  0
LINE
  5
309
330
1F
100
AcDbEntity
  8
LAY-10
  6
CONTINUOUS
 62
     7
100
AcDbLine
 10
280.3049271054755
 20
185.0000000000099
 30
0.0
 11
289.3753339983784
 21
224.0000000000097
 31
0.0
  0
LINE
  5
30A
330
1F
100
AcDbEntity
  8
LAY-10
  6
CONTINUOUS
 62
     7
100
AcDbLine
 10
285.5130019034086
 20
190.0000000000099
 30
0.0
 11
281.4677997840531
 21
190.0000000000099
 31
0.0
  0
LINE
  5
30B
330
1F
100
AcDbEntity
  8
LAY-10
  6
CONTINUOUS
 62
     7
100
AcDbLine
 10
299.6084926234889
 20
190.0000000000099
 30
0.0
 11
291.5740587441118
 21
190.0000000000099
 31
0.0
  0
LINE
  5
30C
330
1F
100
AcDbEntity
  8
LAY-10
  6
CONTINUOUS
 62
     7
100
AcDbLine
 10
302.8521470773484
 20
224.0000000000097
 30
0.0
 11
296.9410283189922
 21
224.0000000000097
 31
0.0
  0
LINE
  5
30D
330
1F
100
AcDbEntity
  8
LAY-10
  6
CONTINUOUS
 62
     7
100
AcDbLine
 10
293.7049603414898
 20
224.0000000000097
 30
0.0
 11
289.3753339983784
 21
224.0000000000097
 31
0.0
  0
LINE
  5
30E
330
1F
100
AcDbEntity
  8
LAY-10
  6
CONTINUOUS
 62
     7
100
AcDbLine
 10
290.8824076529474
 20
224.0000000000097
 30
0.0
 11
284.7233834108292
 21
185.0000000000099
 31
0.0
  0
LINE
  5
30F
330
1F
100
AcDbEntity
  8
LAY-10
  6
CONTINUOUS
 62
     7
100
AcDbLine
 10
287.5487305350111
 20
185.0000000000099
 30
0.0
 11
293.7049603414898
 21
224.0000000000097
 31
0.0
  0
LINE
  5
310
330
1F
100
AcDbEntity
  8
LAY-10
  6
CONTINUOUS
 62
     7
100
AcDbLine
 10
290.7847985125117
 20
185.0000000000099
 30
0.0
 11
296.9410283189922
 21
224.0000000000097
 31
0.0
  0
LINE
  5
311
330
1F
100
AcDbEntity
  8
LAY-10
  6
CONTINUOUS
 62
     7
100
AcDbLine
 10
301.507761486941
 20
224.0000000000097
 30
0.0
 11
299.3291883788633
 21
185.0000000000099
 31
0.0
  0
LINE
  5
312
330
1F
100
AcDbEntity
  8
LAY-10
  6
CONTINUOUS
 62
     7
100
AcDbLine
 10
302.8521470773484
 20
224.0000000000097
 30
0.0
 11
300.6745624184441
 21
185.0000000000099
 31
0.0
  0
LINE
  5
313
330
1F
100
AcDbEntity
  8
LAY-10
  6
CONTINUOUS
 62
     7
100
AcDbLine
 10
270.3588952783556
 20
185.0000000000099
 30
0.0
 11
281.2250159078966
 21
225.5529142706251
 31
0.0
  0
LINE
  5
314
330
1F
100
AcDbEntity
  8
LAY-10
  6
CONTINUOUS
 62
     7
100
AcDbLine
 10
285.0887192130526
 20
224.5176380902149
 30
0.0
 11
274.4999999999961
 21
185.0000000000099
 31
0.0
  0
LINE
  5
315
330
1F
100
AcDbEntity
  8
LAY-10
  6
CONTINUOUS
 62
     7
100
AcDbLine
 10
309.9999999999999
 20
226.0000000000099
 30
0.0
 11
287.020570865631
 21
226.0000000000099
 31
0.0
  0
ARC
  5
316
330
1F
100
AcDbEntity
  8
LAY-10
  6
CONTINUOUS
 62
     7
100
AcDbCircle
 10
332.9794291343696
 20
224.0000000000098
 30
0.0
 40
2.0
100
AcDbArc
 50
15.00000000000118
 51
90.0
  0
LINE
  5
317
330
1F
100
AcDbEntity
  8
LAY-10
  6
CONTINUOUS
 62
     7
100
AcDbLine
 10
309.9999999999999
 20
226.0000000000099
 30
0.0
 11
332.9794291343696
 21
226.0000000000099
 31
0.0
  0
LINE
  5
318
330
1F
100
AcDbEntity
  8
LAY-10
  6
CONTINUOUS
 62
     7
100
AcDbLine
 10
319.05056702516
 20
185.0000000000099
 30
0.0
 11
315.8140454825599
 21
224.0000000000097
 31
0.0
  0
LINE
  5
319
330
1F
100
AcDbEntity
  8
LAY-10
  6
CONTINUOUS
 62
     7
100
AcDbLine
 10
319.61827154766
 20
224.0000000000097
 30
0.0
 11
322.8547930903596
 21
185.0000000000099
 31
0.0
  0
LINE
  5
31A
330
1F
100
AcDbEntity
  8
LAY-10
  6
CONTINUOUS
 62
     7
100
AcDbLine
 10
324.1881725122598
 20
185.0000000000099
 30
0.0
 11
321.3650408677599
 21
224.0000000000097
 31
0.0
  0
LINE
  5
31B
330
1F
100
AcDbEntity
  8
LAY-10
  6
CONTINUOUS
 62
     7
100
AcDbLine
 10
325.2219106076599
 20
224.0000000000097
 30
0.0
 11
332.2301194173598
 21
185.0000000000099
 31
0.0
  0
LINE
  5
31C
330
1F
100
AcDbEntity
  8
LAY-10
  6
CONTINUOUS
 62
     7
100
AcDbLine
 10
272.3685142215895
 20
192.500000000009
 30
0.0
 11
256.4999999999998
 21
192.500000000009
 31
0.0
  0
LINE
  5
31D
330
1F
100
AcDbEntity
  8
LAY-10
  6
CONTINUOUS
 62
     7
100
AcDbLine
 10
273.6941069424549
 20
184.5639729710541
 30
0.0
 11
273.7005893548005
 21
185.0000000000099
 31
0.0
  0
LINE
  5
31E
330
1F
100
AcDbEntity
  8
LAY-10
  6
CONTINUOUS
 62
     7
100
AcDbLine
 10
276.1076951545822
 20
191.0000000000071
 30
0.0
 11
276.5621002232376
 21
191.0000000000071
 31
0.0
  0
LINE
  5
31F
330
1F
100
AcDbEntity
  8
LAY-10
  6
CONTINUOUS
 62
     7
100
AcDbLine
 10
281.7003743197677
 20
191.0000000000071
 30
0.0
 11
285.6709256019238
 21
191.0000000000071
 31
0.0
  0
LINE
  5
320
330
1F
100
AcDbEntity
  8
LAY-10
  6
CONTINUOUS
 62
     7
100
AcDbLine
 10
292.2487514212427
 20
184.4086395156044
 30
0.0
 11
292.1466123356208
 21
185.0000000000099
 31
0.0
  0
LINE
  5
321
330
1F
100
AcDbEntity
  8
LAY-10
  6
CONTINUOUS
 62
     7
100
AcDbLine
 10
299.3727427191541
 20
184.4830312297357
 30
0.0
 11
299.4225008868783
 21
185.0000000000099
 31
0.0
  0
LINE
  5
322
330
1F
100
AcDbEntity
  8
LAY-10
  6
CONTINUOUS
 62
     7
100
AcDbLine
 10
299.0859996099909
 20
190.0000000000099
 30
0.0
 11
299.2259949720832
 21
190.700976839017
 31
0.0
  0
ARC
  5
323
330
1F
100
AcDbEntity
  8
LAY-10
  6
CONTINUOUS
 62
     7
100
AcDbCircle
 10
299.5906425514247
 20
190.6281513659551
 30
0.0
 40
0.371848634056903
100
AcDbArc
 50
78.63069606731652
 51
168.7057875004543
  0
LINE
  5
324
330
1F
100
AcDbEntity
  8
LAY-10
  6
CONTINUOUS
 62
     7
100
AcDbLine
 10
299.5906425514247
 20
191.0000000000071
 30
0.0
 11
299.6643534724136
 21
191.0000000000071
 31
0.0
  0
LINE
  5
325
330
1F
100
AcDbEntity
  8
LAY-10
  6
CONTINUOUS
 62
     7
100
AcDbLine
 10
304.9221658458215
 20
191.0000000000071
 30
0.0
 11
306.0000000000039
 21
191.0000000000071
 31
0.0
  0
LINE
  5
326
330
1F
100
AcDbEntity
  8
LAY-10
  6
CONTINUOUS
 62
     7
100
AcDbLine
 10
304.866330341747
 20
190.0000000000099
 30
0.0
 11
306.0000000000039
 21
190.0000000000099
 31
0.0
  0
LINE
  5
327
330
1F
100
AcDbEntity
  8
LAY-10
  6
CONTINUOUS
 62
     7
100
AcDbLine
 10
310.0000000000001
 20
190.0000000000099
 30
0.0
 11
318.6356283658519
 21
190.0000000000099
 31
0.0
  0
LINE
  5
328
330
1F
100
AcDbEntity
  8
LAY-10
  6
CONTINUOUS
 62
     7
100
AcDbLine
 10
306.0000000000039
 20
210.3037418045303
 30
0.0
 11
304.5871528213738
 21
185.0000000000099
 31
0.0
  0
LINE
  5
329
330
1F
100
AcDbEntity
  8
LAY-10
  6
CONTINUOUS
 62
     7
100
AcDbLine
 10
306.764737480285
 20
224.0000000000097
 30
0.0
 11
306.301379840559
 21
215.7013798405764
 31
0.0
  0
LINE
  5
32A
330
1F
100
AcDbEntity
  8
LAY-10
  6
CONTINUOUS
 62
     7
100
AcDbLine
 10
310.0000000000001
 20
191.0000000000071
 30
0.0
 11
318.552640633991
 21
191.0000000000071
 31
0.0
  0
LINE
  5
32B
330
1F
100
AcDbEntity
  8
LAY-10
  6
CONTINUOUS
 62
     7
100
AcDbLine
 10
320.6272572808459
 20
184.4830312297357
 30
0.0
 11
320.5774991131217
 21
185.0000000000099
 31
0.0
  0
LINE
  5
32C
330
1F
100
AcDbEntity
  8
LAY-10
  6
CONTINUOUS
 62
     7
100
AcDbLine
 10
327.7512485787572
 20
184.4086395156044
 30
0.0
 11
327.8533876643791
 21
185.0000000000099
 31
0.0
  0
ARC
  5
32D
330
1F
100
AcDbEntity
  8
LAY-10
  6
CONTINUOUS
 62
     7
100
AcDbCircle
 10
330.5738755132777
 20
189.0000000000071
 30
0.0
 40
2.0
100
AcDbArc
 50
90.0
 51
149.9999999999062
  0
LINE
  5
32E
330
1F
100
AcDbEntity
  8
LAY-10
  6
CONTINUOUS
 62
     7
100
AcDbLine
 10
330.5738755132777
 20
191.0000000000071
 30
0.0
 11
331.1519334466373
 21
191.0000000000071
 31
0.0
  0
LINE
  5
32F
330
1F
100
AcDbEntity
  8
LAY-10
  6
CONTINUOUS
 62
     7
100
AcDbLine
 10
335.0000000000009
 20
186.1279986464193
 30
0.0
 11
328.1944899095596
 21
224.0000000000097
 31
0.0
  0
LINE
  5
330
330
1F
100
AcDbEntity
  8
LAY-10
  6
CONTINUOUS
 62
     7
100
AcDbLine
 10
335.0000000000009
 20
200.5144557804483
 30
0.0
 11
331.3187468608598
 21
224.0000000000097
 31
0.0
  0
LINE
  5
331
330
1F
100
AcDbEntity
  8
LAY-10
  6
CONTINUOUS
 62
     7
100
AcDbLine
 10
335.0000000000009
 20
211.7627904570123
 30
0.0
 11
331.99776910236
 21
224.0000000000097
 31
0.0
  0
LINE
  5
332
330
1F
100
AcDbEntity
  8
LAY-10
  6
CONTINUOUS
 62
     7
100
AcDbLine
 10
343.1928287805599
 20
185.0000000000099
 30
0.0
 11
343.0000000000008
 21
185.7859775860364
 31
0.0
  0
LINE
  5
333
330
1F
100
AcDbEntity
  8
LAY-10
  6
CONTINUOUS
 62
     7
100
AcDbLine
 10
335.6119391658852
 20
215.9000000000098
 30
0.0
 11
333.6247156746599
 21
224.0000000000097
 31
0.0
  0
LINE
  5
334
330
1F
100
AcDbEntity
  8
LAY-10
  6
CONTINUOUS
 62
     7
100
AcDbLine
 10
334.9112807869473
 20
224.5176380902149
 30
0.0
 11
337.2203699538818
 21
215.9000000000098
 31
0.0
  0
LINE
  5
335
330
1F
100
AcDbEntity
  8
LAY-10
  6
CONTINUOUS
 62
     7
100
AcDbLine
 10
343.0000000000008
 20
194.3301270189447
 30
0.0
 11
345.5000000000045
 21
185.0000000000099
 31
0.0
  0
LINE
  5
336
330
1F
100
AcDbEntity
  8
LAY-10
  6
CONTINUOUS
 62
     7
100
AcDbLine
 10
341.3614746755222
 20
215.9000000000098
 30
0.0
 11
338.7749840921037
 21
225.5529142706251
 31
0.0
  0
LINE
  5
337
330
1F
100
AcDbEntity
  8
LAY-10
  6
CONTINUOUS
 62
     7
100
AcDbLine
 10
349.6411047216447
 20
185.0000000000099
 30
0.0
 11
343.0000000000008
 21
209.784940239568
 31
0.0
  0
LINE
  5
338
330
1F
100
AcDbEntity
  8
LAY-10
  6
CONTINUOUS
 62
     7
100
AcDbLine
 10
349.0381828085816
 20
190.0000000000099
 30
0.0
 11
348.9814763458305
 21
190.2347795562699
 31
0.0
  0
LINE
  5
339
330
1F
100
AcDbEntity
  8
LAY-10
  6
CONTINUOUS
 62
     7
100
AcDbLine
 10
352.5628459380017
 20
190.1874712097284
 30
0.0
 11
352.5270661106981
 21
190.0000000000099
 31
0.0
  0
LINE
  5
33A
330
1F
100
AcDbEntity
  8
LAY-10
  6
CONTINUOUS
 62
     7
100
AcDbLine
 10
362.6353688329401
 20
190.0000000000099
 30
0.0
 11
362.6421606166093
 21
190.0822724660471
 31
0.0
  0
LINE
  5
33B
330
1F
100
AcDbEntity
  8
LAY-10
  6
CONTINUOUS
 62
     7
100
AcDbLine
 10
351.5727908553827
 20
185.0000000000099
 30
0.0
 11
351.4566301950681
 21
184.3913671151709
 31
0.0
  0
LINE
  5
33C
330
1F
100
AcDbEntity
  8
LAY-10
  6
CONTINUOUS
 62
     7
100
AcDbLine
 10
346.3058930575451
 20
184.5639729710541
 30
0.0
 11
346.2994106451995
 21
185.0000000000099
 31
0.0
  0
ARC
  5
33D
330
1F
100
AcDbEntity
  8
LAY-10
  6
CONTINUOUS
 62
     7
100
AcDbCircle
 10
257.7500000000004
 20
192.3857492994102
 30
0.0
 40
3.500000000000002
100
AcDbArc
 50
128.6821874534895
 51
178.1293582694076
  0
ARC
  5
33E
330
1F
100
AcDbEntity
  8
LAY-10
  6
CONTINUOUS
 62
     7
100
AcDbCircle
 10
261.2500000000004
 20
192.3857492994102
 30
0.0
 40
3.500000000000002
100
AcDbArc
 50
1.870641730603566
 51
51.31781254650117
  0
LINE
  5
33F
330
1F
100
AcDbEntity
  8
LAY-10
  6
CONTINUOUS
 62
     7
100
AcDbLine
 10
264.7481347569005
 20
192.5000000000105
 30
0.0
 11
254.2518652431003
 21
192.5000000000105
 31
0.0
  0
LINE
  5
340
330
1F
100
AcDbEntity
  8
LAY-10
  6
CONTINUOUS
 62
     7
100
AcDbLine
 10
260.1000000000003
 20
196.4713634881105
 30
0.0
 11
260.1000000000003
 21
194.0000000000105
 31
0.0
  0
LINE
  5
341
330
1F
100
AcDbEntity
  8
LAY-10
  6
CONTINUOUS
 62
     7
100
AcDbLine
 10
260.1000000000003
 20
194.0000000000105
 30
0.0
 11
258.9000000000005
 21
194.0000000000105
 31
0.0
  0
LINE
  5
342
330
1F
100
AcDbEntity
  8
LAY-10
  6
CONTINUOUS
 62
     7
100
AcDbLine
 10
258.9000000000005
 20
196.4713634881105
 30
0.0
 11
258.9000000000005
 21
194.0000000000105
 31
0.0
  0
ARC
  5
343
330
1F
100
AcDbEntity
  8
LAY-10
  6
CONTINUOUS
 62
     7
100
AcDbCircle
 10
259.5000000000004
 20
190.2000000000106
 30
0.0
 40
6.300000000000002
100
AcDbArc
 50
51.31781254649739
 51
84.53497620009915
  0
ARC
  5
344
330
1F
100
AcDbEntity
  8
LAY-10
  6
CONTINUOUS
 62
     7
100
AcDbCircle
 10
259.5000000000004
 20
190.2000000000106
 30
0.0
 40
6.300000000000002
100
AcDbArc
 50
95.46502379991128
 51
128.682187453495
  0
LINE
  5
345
330
1F
100
AcDbEntity
  8
LAY-10
  6
CONTINUOUS
 62
     7
100
AcDbLine
 10
257.0000000000004
 20
180.5000000000125
 30
0.0
 11
256.5000000000004
 21
181.0000000000126
 31
0.0
  0
LINE
  5
346
330
1F
100
AcDbEntity
  8
LAY-10
  6
CONTINUOUS
 62
     7
100
AcDbLine
 10
262.0000000000004
 20
180.5000000000125
 30
0.0
 11
262.5000000000004
 21
181.0000000000126
 31
0.0
  0
LINE
  5
347
330
1F
100
AcDbEntity
  8
LAY-10
  6
CONTINUOUS
 62
     7
100
AcDbLine
 10
256.5000000000004
 20
192.5000000000105
 30
0.0
 11
256.5000000000004
 21
181.0000000000126
 31
0.0
  0
LINE
  5
348
330
1F
100
AcDbEntity
  8
LAY-10
  6
CONTINUOUS
 62
     7
100
AcDbLine
 10
257.0000000000004
 20
180.5000000000125
 30
0.0
 11
262.0000000000004
 21
180.5000000000125
 31
0.0
  0
LINE
  5
349
330
1F
100
AcDbEntity
  8
LAY-10
  6
CONTINUOUS
 62
     7
100
AcDbLine
 10
262.5000000000004
 20
192.5000000000105
 30
0.0
 11
262.5000000000004
 21
181.0000000000126
 31
0.0
  0
LINE
  5
34A
330
1F
100
AcDbEntity
  8
LAY-10
  6
CONTINUOUS
 62
     7
100
AcDbLine
 10
262.5000000000004
 20
181.0000000000126
 30
0.0
 11
256.5000000000004
 21
181.0000000000126
 31
0.0
  0
ARC
  5
34B
330
1F
100
AcDbEntity
  8
LAY-10
  6
CONTINUOUS
 62
     7
100
AcDbCircle
 10
256.3612295092013
 20
190.0000000000071
 30
0.0
 40
1.0
100
AcDbArc
 50
82.02329389927071
 51
90.0
  0
LINE
  5
34C
330
1F
100
AcDbEntity
  8
LAY-10
  6
CONTINUOUS
 62
     7
100
AcDbLine
 10
250.8426722220584
 20
191.0000000000071
 30
0.0
 11
256.5000000000004
 21
191.0000000000071
 31
0.0
  0
LINE
  5
34D
330
1F
100
AcDbEntity
  8
LAY-10
  6
CONTINUOUS
 62
     7
100
AcDbLine
 10
256.9999999999995
 20
180.50000000001
 30
0.0
 11
256.9999999999995
 21
178.9018352183883
 31
0.0
  0
LINE
  5
34E
330
1F
100
AcDbEntity
  8
LAY-10
  6
CONTINUOUS
 62
     7
100
AcDbLine
 10
261.9999999999995
 20
180.50000000001
 30
0.0
 11
261.9999999999995
 21
177.5620892562328
 31
0.0
  0
LINE
  5
34F
330
1F
100
AcDbEntity
  8
LAY-10
  6
CONTINUOUS
 62
     7
100
AcDbLine
 10
257.0000000000004
 20
185.0000000000073
 30
0.0
 11
254.8084987583723
 21
185.0000000000073
 31
0.0
  0
LINE
  5
350
330
1F
100
AcDbEntity
  8
LAY-10
  6
CONTINUOUS
 62
     7
100
AcDbLine
 10
262.0000000000004
 20
185.0000000000099
 30
0.0
 11
306.0000000000039
 21
185.0000000000099
 31
0.0
  0
LINE
  5
351
330
1F
100
AcDbEntity
  8
LAY-10
  6
CONTINUOUS
 62
     7
100
AcDbLine
 10
310.0000000000001
 20
185.0000000000099
 30
0.0
 11
335.0000000000009
 21
185.0000000000099
 31
0.0
  0
LINE
  5
352
330
1F
100
AcDbEntity
  8
LAY-10
  6
CONTINUOUS
 62
     7
100
AcDbLine
 10
242.5000000000074
 20
175.1986412405257
 30
0.0
 11
242.5000000000074
 21
176.1986412405239
 31
0.0
  0
LINE
  5
353
330
1F
100
AcDbEntity
  8
LAY-10
  6
CONTINUOUS
 62
     7
100
AcDbLine
 10
247.5000000000068
 20
175.1986412405257
 30
0.0
 11
247.5000000000068
 21
176.1986412405251
 31
0.0
  0
LINE
  5
354
330
1F
100
AcDbEntity
  8
LAY-10
  6
CONTINUOUS
 62
     7
100
AcDbLine
 10
247.5000000000068
 20
176.1986412405251
 30
0.0
 11
242.5000000000074
 21
176.1986412405251
 31
0.0
  0
LINE
  5
355
330
1F
100
AcDbEntity
  8
LAY-10
  6
CONTINUOUS
 62
     7
100
AcDbLine
 10
248.0000000000099
 20
174.6986412405251
 30
0.0
 11
242.0000000000099
 21
174.6986412405251
 31
0.0
  0
LINE
  5
356
330
1F
100
AcDbEntity
  8
LAY-10
  6
CONTINUOUS
 62
     7
100
AcDbLine
 10
247.5000000000099
 20
175.1986412405257
 30
0.0
 11
242.5000000000099
 21
175.1986412405257
 31
0.0
  0
LINE
  5
357
330
1F
100
AcDbEntity
  8
LAY-10
  6
CONTINUOUS
 62
     7
100
AcDbLine
 10
245.0000000000097
 20
177.6420169135007
 30
0.0
 11
242.5000000000088
 21
176.1986412405261
 31
0.0
  0
LINE
  5
358
330
1F
100
AcDbEntity
  8
LAY-10
  6
CONTINUOUS
 62
     7
100
AcDbLine
 10
245.0000000000102
 20
177.6420169135005
 30
0.0
 11
247.5000000000106
 21
176.1986412405261
 31
0.0
  0
LINE
  5
359
330
1F
100
AcDbEntity
  8
LAY-10
  6
CONTINUOUS
 62
     7
100
AcDbLine
 10
230.5000000000104
 20
145.1986412405344
 30
0.0
 11
230.5000000000104
 21
150.1986412405343
 31
0.0
  0
LINE
  5
35A
330
1F
100
AcDbEntity
  8
LAY-10
  6
CONTINUOUS
 62
     7
100
AcDbLine
 10
240.5000000000109
 20
150.1986412405343
 30
0.0
 11
230.5000000000104
 21
150.1986412405343
 31
0.0
  0
ARC
  5
35B
330
1F
100
AcDbEntity
  8
LAY-10
  6
CONTINUOUS
 62
     7
100
AcDbCircle
 10
240.5000000000109
 20
152.1986412405343
 30
0.0
 40
2.0
100
AcDbArc
 50
270.0000000000002
 51
0.0
  0
LINE
  5
35C
330
1F
100
AcDbEntity
  8
LAY-10
  6
CONTINUOUS
 62
     7
100
AcDbLine
 10
240.5000000000109
 20
145.1986412405344
 30
0.0
 11
230.5000000000104
 21
145.1986412405344
 31
0.0
  0
ARC
  5
35D
330
1F
100
AcDbEntity
  8
LAY-10
  6
CONTINUOUS
 62
     7
100
AcDbCircle
 10
240.5000000000109
 20
152.1986412405343
 30
0.0
 40
7.000000000000004
100
AcDbArc
 50
270.0000000000002
 51
0.0
  0
LINE
  5
35E
330
1F
100
AcDbEntity
  8
LAY-10
  6
CONTINUOUS
 62
     7
100
AcDbLine
 10
242.5000000000099
 20
152.19864124053
 30
0.0
 11
242.5000000000099
 21
167.1986412405296
 31
0.0
  0
LINE
  5
35F
330
1F
100
AcDbEntity
  8
LAY-10
  6
CONTINUOUS
 62
     7
100
AcDbLine
 10
247.5000000000099
 20
152.19864124053
 30
0.0
 11
247.5000000000099
 21
167.1986412405296
 31
0.0
  0
LINE
  5
360
330
1F
100
AcDbEntity
  8
LAY-10
  6
CONTINUOUS
 62
     7
100
AcDbLine
 10
247.5000000000068
 20
173.1986412405345
 30
0.0
 11
242.5000000000074
 21
173.1986412405345
 31
0.0
  0
LINE
  5
361
330
1F
100
AcDbEntity
  8
LAY-10
  6
CONTINUOUS
 62
     7
100
AcDbLine
 10
248.0000000000081
 20
172.698641240536
 30
0.0
 11
242.000000000009
 21
172.698641240536
 31
0.0
  0
LINE
  5
362
330
1F
100
AcDbEntity
  8
LAY-10
  6
CONTINUOUS
 62
     7
100
AcDbLine
 10
242.5000000000074
 20
175.1986412405257
 30
0.0
 11
242.5000000000074
 21
173.1986412405345
 31
0.0
  0
LINE
  5
363
330
1F
100
AcDbEntity
  8
LAY-10
  6
CONTINUOUS
 62
     7
100
AcDbLine
 10
247.5000000000068
 20
175.1986412405257
 30
0.0
 11
247.5000000000068
 21
173.1986412405345
 31
0.0
  0
LINE
  5
364
330
1F
100
AcDbEntity
  8
LAY-10
  6
CONTINUOUS
 62
     7
100
AcDbLine
 10
242.0000000000099
 20
172.69864124054
 30
0.0
 11
242.5000000000099
 21
173.19864124053
 31
0.0
  0
LINE
  5
365
330
1F
100
AcDbEntity
  8
LAY-10
  6
CONTINUOUS
 62
     7
100
AcDbLine
 10
247.5000000000099
 20
173.19864124053
 30
0.0
 11
248.0000000000099
 21
172.69864124054
 31
0.0
  0
LINE
  5
366
330
1F
100
AcDbEntity
  8
LAY-10
  6
CONTINUOUS
 62
     7
100
AcDbLine
 10
248.0000000000099
 20
172.69864124054
 30
0.0
 11
248.0000000000099
 21
167.19864124053
 31
0.0
  0
LINE
  5
367
330
1F
100
AcDbEntity
  8
LAY-10
  6
CONTINUOUS
 62
     7
100
AcDbLine
 10
242.0000000000099
 20
172.69864124054
 30
0.0
 11
242.0000000000099
 21
167.19864124053
 31
0.0
  0
LINE
  5
368
330
1F
100
AcDbEntity
  8
LAY-10
  6
CONTINUOUS
 62
     7
100
AcDbLine
 10
280.19999999999
 20
138.198641240519
 30
0.0
 11
281.23173816209
 21
139.198641240519
 31
0.0
  0
LINE
  5
369
330
1F
100
AcDbEntity
  8
LAY-10
  6
CONTINUOUS
 62
     7
100
AcDbLine
 10
281.2317381620895
 20
139.198641240519
 30
0.0
 11
281.6379881620895
 21
152.1986412405204
 31
0.0
  0
LINE
  5
36A
330
1F
100
AcDbEntity
  8
LAY-10
  6
CONTINUOUS
 62
     7
100
AcDbLine
 10
281.2317381620894
 20
139.1986412405148
 30
0.0
 11
338.7682618378668
 21
139.1986412405148
 31
0.0
  0
LINE
  5
36B
330
1F
100
AcDbEntity
  8
LAY-10
  6
CONTINUOUS
 62
     7
100
AcDbLine
 10
339.8000000000102
 20
138.198641240519
 30
0.0
 11
338.7682618379102
 21
139.198641240519
 31
0.0
  0
LINE
  5
36C
330
1F
100
AcDbEntity
  8
LAY-10
  6
CONTINUOUS
 62
     7
100
AcDbLine
 10
338.7682618379107
 20
139.198641240519
 30
0.0
 11
338.3620118379107
 21
152.1986412405204
 31
0.0
  0
ARC
  5
36D
330
1F
100
AcDbEntity
  8
LAY-10
  6
CONTINUOUS
 62
     7
100
AcDbCircle
 10
361.3400319701569
 20
187.0000000000099
 30
0.0
 40
2.0
100
AcDbArc
 50
270.0000000000001
 51
357.000000000001
  0
LINE
  5
36E
330
1F
100
AcDbEntity
  8
LAY-10
  6
CONTINUOUS
 62
     7
100
AcDbLine
 10
363.3372910396664
 20
186.895328087524
 30
0.0
 11
363.5000000000024
 21
190.0000000000099
 31
0.0
  0
LINE
  5
36F
330
1F
100
AcDbEntity
  8
LAY-10
  6
CONTINUOUS
 62
     7
100
AcDbLine
 10
343.0000000000008
 20
185.0000000000099
 30
0.0
 11
361.3400319701569
 21
185.0000000000099
 31
0.0
  0
LINE
  5
370
330
1F
100
AcDbEntity
  8
LAY-10
  6
CONTINUOUS
 62
     7
100
AcDbLine
 10
362.1892300836992
 20
184.5956854807815
 30
0.0
 11
362.2402789483064
 21
185.2140673645703
 31
0.0
  0
LINE
  5
371
330
1F
100
AcDbEntity
  8
LAY-10
  6
CONTINUOUS
 62
     7
100
AcDbLine
 10
348.3013587594891
 20
190.0000000000099
 30
0.0
 11
363.5000000000024
 21
190.0000000000099
 31
0.0
  0
LINE
  5
372
330
1F
100
AcDbEntity
  8
LAY-10
  6
CENTER
 62
     2
100
AcDbLine
 10
360.5
 20
386.2749374804588
 30
0.0
 11
360.5
 21
373.7250625195492
 31
0.0
  0
LINE
  5
373
330
1F
100
AcDbEntity
  8
LAY-10
  6
CENTER
 62
     2
100
AcDbLine
 10
259.5
 20
386.2749374804588
 30
0.0
 11
259.5
 21
373.7250625195492
 31
0.0
  0
LINE
  5
374
330
1F
100
AcDbEntity
  8
LAY-10
  6
CENTER
 62
     2
100
AcDbLine
 10
310.0000000000001
 20
467.7
 30
0.0
 11
310.0000000000001
 21
292.8
 31
0.0
  0
LINE
  5
375
330
1F
100
AcDbEntity
  8
LAY-10
  6
CENTER
 62
     2
100
AcDbLine
 10
223.5
 20
379.9999999999969
 30
0.0
 11
396.4
 21
379.9999999999969
 31
0.0
  0
LINE
  5
376
330
1F
100
AcDbEntity
  8
LAY-10
  6
CENTER
 62
     2
100
AcDbLine
 10
338.9999999999997
 20
217.8193107157198
 30
0.0
 11
338.9999999999997
 21
161.7999999999969
 31
0.0
  0
LINE
  5
377
330
1F
100
AcDbEntity
  8
LAY-10
  6
CENTER
 62
     2
100
AcDbLine
 10
259.4999999999999
 20
197.39864124054
 30
0.0
 11
259.4999999999999
 21
176.49864124054
 31
0.0
  0
LINE
  5
378
330
1F
100
AcDbEntity
  8
LAY-10
  6
CENTER
 62
     2
100
AcDbLine
 10
310.0000000000001
 20
233.89864124054
 30
0.0
 11
310.0000000000001
 21
121.69864124054
 31
0.0
  0
LINE
  5
379
330
1F
100
AcDbEntity
  8
LAY-10
  6
CENTER
 62
     2
100
AcDbLine
 10
229.300000000011
 20
147.6986412405355
 30
0.0
 11
240.5000000000099
 21
147.6986412405355
 31
0.0
  0
ARC
  5
37A
330
1F
100
AcDbEntity
  8
LAY-10
  6
CENTER
 62
     2
100
AcDbCircle
 10
240.5000000000099
 20
152.1986412405355
 30
0.0
 40
4.5
100
AcDbArc
 50
270.0000000000002
 51
0.0
  0
LINE
  5
37B
330
1F
100
AcDbEntity
  8
LAY-10
  6
CENTER
 62
     2
100
AcDbLine
 10
245.0000000000097
 20
178.4000000000198
 30
0.0
 11
245.0000000000097
 21
152.1986412405355
 31
0.0
  0
LINE
  5
37C
330
1F
100
AcDbEntity
  8
LAY-10
  6
CONTINUOUS
 62
     7
100
AcDbLine
 10
335.5000000000008
 20
184.8000000000137
 30
0.0
 11
335.5000000000008
 21
215.9000000000098
 31
0.0
  0
LINE
  5
37D
330
1F
100
AcDbEntity
  8
LAY-10
  6
CONTINUOUS
 62
     7
100
AcDbLine
 10
342.5000000000006
 20
184.8000000000137
 30
0.0
 11
342.5000000000006
 21
215.9000000000098
 31
0.0
  0
LINE
  5
37E
330
1F
100
AcDbEntity
  8
LAY-10
  6
CONTINUOUS
 62
     7
100
AcDbLine
 10
335.4999999999994
 20
165.6999999999897
 30
0.0
 11
335.4999999999994
 21
177.9999999999897
 31
0.0
  0
LINE
  5
37F
330
1F
100
AcDbEntity
  8
LAY-10
  6
CONTINUOUS
 62
     7
100
AcDbLine
 10
342.5000000000001
 20
165.6999999999897
 30
0.0
 11
342.5000000000001
 21
177.9999999999897
 31
0.0
  0
LINE
  5
380
330
1F
100
AcDbEntity
  8
LAY-10
  6
CONTINUOUS
 62
     7
100
AcDbLine
 10
306.5000000000038
 20
184.8000000000137
 30
0.0
 11
306.5000000000038
 21
215.9000000000199
 31
0.0
  0
LINE
  5
381
330
1F
100
AcDbEntity
  8
LAY-10
  6
CONTINUOUS
 62
     7
100
AcDbLine
 10
257.0000000000004
 20
192.5000000000105
 30
0.0
 11
257.0000000000004
 21
180.5000000000125
 31
0.0
  0
LINE
  5
382
330
1F
100
AcDbEntity
  8
LAY-10
  6
CONTINUOUS
 62
     7
100
AcDbLine
 10
262.0000000000004
 20
192.5000000000105
 30
0.0
 11
262.0000000000004
 21
180.5000000000125
 31
0.0
  0
LINE
  5
383
330
1F
100
AcDbEntity
  8
LAY-10
  6
CONTINUOUS
 62
     7
100
AcDbLine
 10
256.4999999999992
 20
181.0000000000126
 30
0.0
 11
256.4999999999992
 21
179.035809814604
 31
0.0
  0
LINE
  5
384
330
1F
100
AcDbEntity
  8
LAY-10
  6
CONTINUOUS
 62
     7
100
AcDbLine
 10
262.5
 20
181.0000000000126
 30
0.0
 11
262.5
 21
177.4281146600171
 31
0.0
  0
LINE
  5
385
330
1F
100
AcDbEntity
  8
LAY-10
  6
CONTINUOUS
 62
     7
100
AcDbLine
 10
242.000000000009
 20
174.6986412405251
 30
0.0
 11
242.5000000000074
 21
175.1986412405257
 31
0.0
  0
LINE
  5
386
330
1F
100
AcDbEntity
  8
LAY-10
  6
CONTINUOUS
 62
     7
100
AcDbLine
 10
248.0000000000081
 20
174.6986412405251
 30
0.0
 11
247.5000000000068
 21
175.1986412405257
 31
0.0
  0
LINE
  5
387
330
1F
100
AcDbEntity
  8
LAY-10
  6
CONTINUOUS
 62
     7
100
AcDbLine
 10
242.000000000009
 20
174.6986412405251
 30
0.0
 11
242.000000000009
 21
172.698641240536
 31
0.0
  0
LINE
  5
388
330
1F
100
AcDbEntity
  8
LAY-10
  6
CONTINUOUS
 62
     7
100
AcDbLine
 10
248.0000000000081
 20
174.6986412405251
 30
0.0
 11
248.0000000000081
 21
172.698641240536
 31
0.0
  0
LINE
  5
389
330
1F
100
AcDbEntity
  8
LAY-10
  6
CONTINUOUS
 62
     7
100
AcDbLine
 10
242.5000000000099
 20
173.19864124053
 30
0.0
 11
242.5000000000099
 21
167.19864124053
 31
0.0
  0
LINE
  5
38A
330
1F
100
AcDbEntity
  8
LAY-10
  6
CONTINUOUS
 62
     7
100
AcDbLine
 10
247.5000000000099
 20
173.19864124053
 30
0.0
 11
247.5000000000099
 21
167.19864124053
 31
0.0
  0
LINE
  5
38B
330
1F
100
AcDbEntity
  8
LAY-10
  6
CONTINUOUS
 62
     7
100
AcDbLine
 10
247.5000000000281
 20
166.332615836735
 30
0.0
 11
248.0000000000281
 21
167.1986412405195
 31
0.0
  0
LINE
  5
38C
330
1F
100
AcDbEntity
  8
LAY-10
  6
CONTINUOUS
 62
     7
100
AcDbLine
 10
242.4999999999979
 20
166.3326158367385
 30
0.0
 11
241.9999999999979
 21
167.198641240523
 31
0.0
  0
LINE
  5
38D
330
1F
100
AcDbEntity
  8
LAY-10
  6
CONTINUOUS
 62
     7
100
AcDbLine
 10
280.63749999999
 20
152.1986412405204
 30
0.0
 11
280.19999999999
 21
138.198641240519
 31
0.0
  0
LINE
  5
38E
330
1F
100
AcDbEntity
  8
LAY-10
  6
CONTINUOUS
 62
     7
100
AcDbLine
 10
339.3625000000102
 20
152.1986412405204
 30
0.0
 11
339.8000000000102
 21
138.198641240519
 31
0.0
  0
DIMENSION
  5
390
330
1F
100
AcDbEntity
  8
LAY-20
  6
CONTINUOUS
 62
     4
100
AcDbDimension
  2
*D15
 10
237.49999999999
 20
264.0
 30
0.0
 11
309.9999999999976
 21
268.9999999999999
 31
0.0
 70
   160
  1
%%c<>
  3
ISO-25
100
AcDbAlignedDimension
 13
382.500000000005
 23
188.00000000001
 33
0.0
 14
237.49999999999
 24
188.00000000001
 34
0.0
100
AcDbRotatedDimension
1001
ACAD
1000
DSTYLE
1002
{
1070
   270
1070
     2
1070
     6
1000
EX_BNORM
1070
     7
1000
EX_BNORM
1070
    41
1040
5.0
1070
    42
1040
3.0
1070
    44
1040
3.000000000000114
1070
    73
1070
     0
1070
    74
1070
     0
1070
    75
1070
     0
1070
    76
1070
     0
1070
    77
1070
     1
1070
    78
1070
     8
1070
   140
1040
6.2362208
1070
   147
1040
0.0
1070
   173
1070
     1
1070
   176
1070
     4
1070
   177
1070
     4
1070
   178
1070
     7
1070
   271
1070
     1
1070
   277
1070
     2
1070
   279
1070
     2
1070
   280
1070
     0
1070
   287
1070
     5
1070
   340
1005
38F
1002
}
  0
DIMENSION
  5
39E
330
1F
100
AcDbEntity
  8
LAY-20
  6
CONTINUOUS
 62
     4
100
AcDbDimension
  2
*D16
 10
392.5
 20
278.0
 30
0.0
 11
310.0
 21
283.0
 31
0.0
 70
   160
  1
%%c<>
  3
ISO-25
100
AcDbAlignedDimension
 13
227.5
 23
178.19864124052
 33
0.0
 14
392.5
 24
178.19864124052
 34
0.0
100
AcDbRotatedDimension
1001
ACAD
1000
DSTYLE
1002
{
1070
   270
1070
     2
1070
     6
1000
EX_BNORM
1070
     7
1000
EX_BNORM
1070
    41
1040
5.0
1070
    42
1040
3.0
1070
    44
1040
3.0
1070
    73
1070
     0
1070
    74
1070
     0
1070
    75
1070
     0
1070
    76
1070
     0
1070
    77
1070
     1
1070
    78
1070
     8
1070
   140
1040
6.2362208
1070
   147
1040
0.0
1070
   173
1070
     1
1070
   176
1070
     4
1070
   177
1070
     4
1070
   178
1070
     7
1070
   271
1070
     1
1070
   277
1070
     2
1070
   279
1070
     2
1070
   280
1070
     0
1070
   287
1070
     5
1070
   340
1005
38F
1002
}
  0
DIMENSION
  5
3AB
330
1F
100
AcDbEntity
  8
LAY-20
  6
CONTINUOUS
 62
     4
100
AcDbDimension
  2
*D17
 10
207.5
 20
185.19864124052
 30
0.0
 11
202.5
 21
165.19864124052
 31
0.0
 70
   160
  3
ISO-25
100
AcDbAlignedDimension
 13
272.0
 23
145.19864124052
 33
0.0
 14
229.3672954017
 24
185.19864124052
 34
0.0
 50
90.0
100
AcDbRotatedDimension
1001
ACAD
1000
DSTYLE
1002
{
1070
   270
1070
     2
1070
     6
1000
EX_BNORM
1070
     7
1000
EX_BNORM
1070
    41
1040
5.0
1070
    42
1040
3.0
1070
    44
1040
3.0
1070
    73
1070
     0
1070
    74
1070
     0
1070
    75
1070
     0
1070
    76
1070
     0
1070
    77
1070
     1
1070
    78
1070
     8
1070
   140
1040
6.2362208
1070
   147
1040
0.0
1070
   173
1070
     1
1070
   176
1070
     4
1070
   177
1070
     4
1070
   178
1070
     7
1070
   271
1070
     1
1070
   277
1070
     2
1070
   279
1070
     2
1070
   280
1070
     0
1070
   287
1070
     5
1070
   340
1005
38F
1002
}
  0
DIMENSION
  5
3B8
330
1F
100
AcDbEntity
  8
LAY-20
  6
CONTINUOUS
 62
     4
100
AcDbDimension
  2
*D18
 10
339.8
 20
105.19864124052
 30
0.0
 11
310.0
 21
110.19864124052
 31
0.0
 70
   160
  1
Rｃ2（<>）
  3
ISO-25
100
AcDbAlignedDimension
 13
280.2
 23
138.19864124052
 33
0.0
 14
339.8
 24
138.19864124052
 34
0.0
100
AcDbRotatedDimension
1001
ACAD
1000
DSTYLE
1002
{
1070
   270
1070
     2
1070
     6
1000
EX_BNORM
1070
     7
1000
EX_BNORM
1070
    41
1040
5.0
1070
    42
1040
3.0
1070
    44
1040
3.0
1070
    73
1070
     0
1070
    74
1070
     0
1070
    75
1070
     0
1070
    76
1070
     0
1070
    77
1070
     1
1070
    78
1070
     8
1070
   140
1040
6.2362208
1070
   147
1040
0.0
1070
   173
1070
     1
1070
   176
1070
     4
1070
   177
1070
     4
1070
   178
1070
     7
1070
   271
1070
     1
1070
   277
1070
     2
1070
   279
1070
     2
1070
   280
1070
     0
1070
   287
1070
     5
1070
   340
1005
38F
1002
}
  0
DIMENSION
  5
3C5
330
1F
100
AcDbEntity
  8
LAY-20
  6
CONTINUOUS
 62
     4
100
AcDbDimension
  2
*D19
 10
412.5
 20
185.19864124052
 30
0.0
 11
407.5
 21
155.19864124052
 31
0.0
 70
   160
  3
ISO-25
100
AcDbAlignedDimension
 13
348.0
 23
125.19864124052
 33
0.0
 14
390.63270459831
 24
185.19864124052
 34
0.0
 50
90.0
100
AcDbRotatedDimension
1001
ACAD
1000
DSTYLE
1002
{
1070
   270
1070
     2
1070
     6
1000
EX_BNORM
1070
     7
1000
EX_BNORM
1070
    41
1040
5.0
1070
    42
1040
3.0
1070
    44
1040
3.0
1070
    73
1070
     0
1070
    74
1070
     0
1070
    75
1070
     0
1070
    76
1070
     0
1070
    77
1070
     1
1070
    78
1070
     8
1070
   140
1040
6.2362208
1070
   147
1040
0.0
1070
   173
1070
     1
1070
   176
1070
     4
1070
   177
1070
     4
1070
   178
1070
     7
1070
   271
1070
     1
1070
   277
1070
     2
1070
   279
1070
     2
1070
   280
1070
     0
1070
   287
1070
     5
1070
   340
1005
38F
1002
}
  0
DIMENSION
  5
3D2
330
1F
100
AcDbEntity
  8
LAY-20
  6
CONTINUOUS
 62
     4
100
AcDbDimension
  2
*D20
 10
412.5
 20
185.19864124052
 30
0.0
 11
407.5
 21
207.599320620265
 31
0.0
 70
   160
  3
ISO-25
100
AcDbAlignedDimension
 13
332.97942913437
 23
230.00000000001
 33
0.0
 14
412.5
 24
185.19864124052
 34
0.0
 50
90.0
100
AcDbRotatedDimension
1001
ACAD
1000
DSTYLE
1002
{
1070
   270
1070
     2
1070
     6
1000
EX_BNORM
1070
     7
1000
EX_BNORM
1070
    41
1040
5.0
1070
    42
1040
3.0
1070
    44
1040
3.0
1070
    73
1070
     0
1070
    74
1070
     0
1070
    75
1070
     0
1070
    76
1070
     1
1070
    77
1070
     1
1070
    78
1070
     0
1070
   140
1040
6.2362208
1070
   147
1040
0.0
1070
   173
1070
     1
1070
   176
1070
     4
1070
   177
1070
     4
1070
   178
1070
     7
1070
   271
1070
     0
1070
   277
1070
     2
1070
   279
1070
     2
1070
   280
1070
     0
1070
   287
1070
     5
1070
   340
1005
38F
1002
}
  0
DIMENSION
  5
3DE
330
1F
100
AcDbEntity
  8
LAY-20
  6
CONTINUOUS
 62
     4
100
AcDbDimension
  2
*D21
 10
256.5
 20
250.0
 30
0.0
 11
310.0
 21
255.0
 31
0.0
 70
   160
  1
%%c<>
  3
ISO-25
100
AcDbAlignedDimension
 13
363.5
 23
190.00000000001
 33
0.0
 14
256.5
 24
190.00000000001
 34
0.0
100
AcDbRotatedDimension
1001
ACAD
1000
DSTYLE
1002
{
1070
   270
1070
     2
1070
     6
1000
EX_BNORM
1070
     7
1000
EX_BNORM
1070
    41
1040
5.0
1070
    42
1040
3.0
1070
    44
1040
3.0
1070
    73
1070
     0
1070
    74
1070
     0
1070
    75
1070
     0
1070
    76
1070
     0
1070
    77
1070
     1
1070
    78
1070
     8
1070
   140
1040
6.2362208
1070
   147
1040
0.0
1070
   173
1070
     1
1070
   176
1070
     4
1070
   177
1070
     4
1070
   178
1070
     7
1070
   271
1070
     1
1070
   277
1070
     2
1070
   279
1070
     2
1070
   280
1070
     0
1070
   287
1070
     5
1070
   340
1005
38F
1002
}
  0
LINE
  5
3EB
330
1F
100
AcDbEntity
  8
LAY-255
  6
CONTINUOUS
 62
     7
100
AcDbLine
 10
770.0
 20
43.99999999999999
 30
0.0
 11
570.0
 21
43.99999999999999
 31
0.0
  0
LINE
  5
3EC
330
1F
100
AcDbEntity
  8
LAY-255
  6
CONTINUOUS
 62
     7
100
AcDbLine
 10
577.6
 20
32.0
 30
0.0
 11
593.6
 21
42.0
 31
0.0
  0
LINE
  5
3ED
330
1F
100
AcDbEntity
  8
LAY-255
  6
CONTINUOUS
 62
     7
100
AcDbLine
 10
593.6
 20
42.0
 30
0.0
 11
609.6
 21
32.0
 31
0.0
  0
LINE
  5
3EE
330
1F
100
AcDbEntity
  8
LAY-255
  6
CONTINUOUS
 62
     7
100
AcDbLine
 10
609.6
 20
32.0
 30
0.0
 11
593.6
 21
22.0
 31
0.0
  0
LINE
  5
3EF
330
1F
100
AcDbEntity
  8
LAY-255
  6
CONTINUOUS
 62
     7
100
AcDbLine
 10
593.6
 20
22.0
 30
0.0
 11
577.6
 21
32.0
 31
0.0
  0
LINE
  5
3F0
330
1F
100
AcDbEntity
  8
LAY-255
  6
CONTINUOUS
 62
     7
100
AcDbLine
 10
10.0
 20
20.0
 30
0.0
 11
770.0000000000001
 21
20.0
 31
0.0
  0
LINE
  5
3F1
330
1F
100
AcDbEntity
  8
LAY-255
  6
CONTINUOUS
 62
     7
100
AcDbLine
 10
10.0
 20
560.0
 30
0.0
 11
770.0000000000001
 21
560.0
 31
0.0
  0
LINE
  5
3F2
330
1F
100
AcDbEntity
  8
LAY-255
  6
CONTINUOUS
 62
     7
100
AcDbLine
 10
10.0
 20
20.0
 30
0.0
 11
10.0
 21
560.0
 31
0.0
  0
LINE
  5
3F3
330
1F
100
AcDbEntity
  8
LAY-255
  6
CONTINUOUS
 62
     7
100
AcDbLine
 10
770.0
 20
20.0
 30
0.0
 11
770.0
 21
560.0
 31
0.0
  0
LINE
  5
3F4
330
1F
100
AcDbEntity
  8
LAY-255
  6
CONTINUOUS
 62
     4
100
AcDbLine
 10
570.0
 20
55.99999999999999
 30
0.0
 11
770.0000000000001
 21
55.99999999999999
 31
0.0
  0
LINE
  5
3F5
330
1F
100
AcDbEntity
  8
LAY-255
  6
CONTINUOUS
 62
     7
100
AcDbLine
 10
570.0
 20
20.0
 30
0.0
 11
570.0
 21
134.0
 31
0.0
  0
LINE
  5
3F6
330
1F
100
AcDbEntity
  8
LAY-255
  6
CONTINUOUS
 62
     4
100
AcDbLine
 10
670.0
 20
55.99999999999999
 30
0.0
 11
670.0
 21
44.0
 31
0.0
  0
LINE
  5
3F7
330
1F
100
AcDbEntity
  8
LAY-255
  6
CONTINUOUS
 62
     7
100
AcDbLine
 10
770.0000000000001
 20
134.0
 30
0.0
 11
570.0
 21
134.0
 31
0.0
  0
LINE
  5
3F8
330
1F
100
AcDbEntity
  8
LAY-255
  6
CONTINUOUS
 62
     4
100
AcDbLine
 10
766.0
 20
110.0
 30
0.0
 11
574.0
 21
110.0
 31
0.0
  0
LINE
  5
3F9
330
1F
100
AcDbEntity
  8
LAY-255
  6
CONTINUOUS
 62
     4
100
AcDbLine
 10
766.0
 20
122.0
 30
0.0
 11
574.0
 21
122.0
 31
0.0
  0
POINT
  5
3FA
330
1F
100
AcDbEntity
  8
LAY-255
  6
CONTINUOUS
 62
     7
100
AcDbPoint
 10
578.0
 20
100.0
 30
0.0
  0
POINT
  5
3FB
330
1F
100
AcDbEntity
  8
LAY-255
  6
CONTINUOUS
 62
     7
100
AcDbPoint
 10
600.0
 20
112.0
 30
0.0
  0
POINT
  5
3FC
330
1F
100
AcDbEntity
  8
LAY-255
  6
CONTINUOUS
 62
     7
100
AcDbPoint
 10
600.0
 20
124.0
 30
0.0
  0
POINT
  5
3FD
330
1F
100
AcDbEntity
  8
LAY-255
  6
CONTINUOUS
 62
     7
100
AcDbPoint
 10
578.0
 20
80.0
 30
0.0
  0
POINT
  5
3FE
330
1F
100
AcDbEntity
  8
LAY-255
  6
CONTINUOUS
 62
     7
100
AcDbPoint
 10
578.0
 20
90.0
 30
0.0
  0
POINT
  5
3FF
330
1F
100
AcDbEntity
  8
LAY-255
  6
CONTINUOUS
 62
     7
100
AcDbPoint
 10
578.0
 20
69.99999999999999
 30
0.0
  0
POINT
  5
400
330
1F
100
AcDbEntity
  8
LAY-255
  6
CONTINUOUS
 62
     7
100
AcDbPoint
 10
578.0
 20
59.99999999999997
 30
0.0
  0
TEXT
  5
401
330
1F
100
AcDbEntity
  8
LAY-255
  6
CONTINUOUS
 62
     7
100
AcDbText
 10
616.2767579736328
 20
31.0875
 30
0.0
 40
10.3125
  1
福西鋳物株式会社
 41
1.342692319347662
  7
EXCADSTD
100
AcDbText
  0
TEXT
  5
402
330
1F
100
AcDbEntity
  8
LAY-255
  6
CONTINUOUS
 62
     7
100
AcDbText
 10
617.0187500000001
 20
23.9625
 30
0.0
 40
3.4375
  1
ＦＵＫＵＮＩＳＨＩ
 41
1.204799226045263
  7
EXCADSTD
100
AcDbText
  0
TEXT
  5
403
330
1F
100
AcDbEntity
  8
LAY-255
  6
CONTINUOUS
 62
     7
100
AcDbText
 10
665.4383928571428
 20
23.9625
 30
0.0
 40
3.4375
  1
ＦＯＵＮＤＲＹ
 41
1.243252752978497
  7
EXCADSTD
100
AcDbText
  0
TEXT
  5
404
330
1F
100
AcDbEntity
  8
LAY-255
  6
CONTINUOUS
 62
     7
100
AcDbText
 10
703.9891823858172
 20
23.9625
 30
0.0
 40
3.4375
  1
ＣＯ.,ＬＴＤ.
 41
1.243830523306697
  7
EXCADSTD
100
AcDbText
  0
TEXT
  5
405
330
1F
100
AcDbEntity
  8
LAY-255
  6
CONTINUOUS
 62
     7
100
AcDbText
 10
588.06875
 20
27.4375
 30
0.0
 40
10.3125
  1
S
 41
0.7582677563636363
  7
EXCADSTD
100
AcDbText
  0
TEXT
  5
406
330
1F
100
AcDbEntity
  8
LAY-255
  6
CONTINUOUS
 62
     7
100
AcDbText
 10
594.209375
 20
27.49882075472
 30
0.0
 40
10.3125
  1
F
 41
0.7440945272727272
  7
EXCADSTD
100
AcDbText
  0
TEXT
  5
407
330
1F
100
AcDbEntity
  8
LAY-255
  6
CONTINUOUS
 62
     7
100
AcDbText
 10
674.2109375
 20
48.84374999999998
 30
0.0
 40
5.15625
  1
縮尺
 41
1.080708718181818
  7
EXCADSTD
100
AcDbText
  0
TEXT
  5
408
330
1F
100
AcDbEntity
  8
LAY-255
  6
CONTINUOUS
 62
     7
100
AcDbText
 10
574.53125
 20
113.125
 30
0.0
 40
6.875
  1
型式
 41
1.056348480681818
  7
EXCADSTD
100
AcDbText
  0
TEXT
  5
409
330
1F
100
AcDbEntity
  8
LAY-255
  6
CONTINUOUS
 62
     7
100
AcDbText
 10
574.84375
 20
125.125
 30
0.0
 40
6.875
  1
品名
 41
0.978838634090909
  7
EXCADSTD
100
AcDbText
  0
TEXT
  5
40A
330
1F
100
AcDbEntity
  8
LAY-255
  6
CONTINUOUS
 62
     7
100
AcDbText
 10
574.3046875
 20
48.84374999999998
 30
0.0
 40
5.15625
  1
作成日
 41
1.000629973818182
  7
EXCADSTD
100
AcDbText
  0
TEXT
  5
40B
330
1F
100
AcDbEntity
  8
LAY-255
  6
CONTINUOUS
 62
     7
100
AcDbText
 10
578.375
 20
71.12500000000001
 30
0.0
 40
6.875
  1
施工：打込用
 41
1.018700840909091
  7
EXCADSTD
100
AcDbText
  0
TEXT
  5
40C
330
1F
100
AcDbEntity
  8
LAY-255
  6
CONTINUOUS
 62
     7
100
AcDbText
 10
600.5
 20
125.125
 30
0.0
 40
6.875
  1
ルーフドレイン
 41
1.021169538599106
  7
EXCADSTD
100
AcDbText
  0
TEXT
  5
40D
330
1F
100
AcDbEntity
  8
LAY-255
  6
CONTINUOUS
 62
     7
100
AcDbText
 10
578.75
 20
101.125
 30
0.0
 40
6.875
  1
防水：アスファルト・シート・
 41
0.9866967752199411
  7
EXCADSTD
100
AcDbText
  0
TEXT
  5
40E
330
1F
100
AcDbEntity
  8
LAY-255
  6
CONTINUOUS
 62
     7
100
AcDbText
 10
578.0
 20
91.12500000000001
 30
0.0
 40
6.875
  1
      露出アスファルト防水兼用
 41
0.8942744381697771
  7
EXCADSTD
100
AcDbText
  0
TEXT
  5
40F
330
1F
100
AcDbEntity
  8
LAY-255
  6
CONTINUOUS
 62
     7
100
AcDbText
 10
578.46875
 20
81.12500000000001
 30
0.0
 40
6.875
  1
用途：屋上・庇・バルコニー用
 41
1.011557076246334
  7
EXCADSTD
100
AcDbText
  0
TEXT
  5
410
330
1F
100
AcDbEntity
  8
LAY-255
  6
CONTINUOUS
 62
     7
100
AcDbText
 10
696.5625
 20
47.12499999999998
 30
0.0
 40
6.875
  1
１：２
 41
0.888661464
  7
EXCADSTD
100
AcDbText
  0
TEXT
  5
411
330
1F
100
AcDbEntity
  8
LAY-255
  6
CONTINUOUS
 62
     7
100
AcDbText
 10
601.75
 20
113.125
 30
0.0
 40
6.875
  1
ＲＳＧＸ－３０５０型
 41
1.000581655991735
  7
EXCADSTD
100
AcDbText
  0
TEXT
  5
412
330
1F
100
AcDbEntity
  8
LAY-255
  6
CONTINUOUS
 62
     7
100
AcDbText
 10
578.4375
 20
61.12500000000001
 30
0.0
 40
6.875
  1
接続：管用テーパねじ
 41
1.013063761157025
  7
EXCADSTD
100
AcDbText
  0
TEXT
  5
413
330
1F
100
AcDbEntity
  8
LAY-255
  6
CONTINUOUS
 62
     7
100
AcDbText
 10
601.78125
 20
47.12499999999998
 30
0.0
 40
6.875
  1
０７／０１／０５
 41
0.9779528072727272
  7
EXCADSTD
100
AcDbText
  0
ENDSEC
  0
SECTION
  2
OBJECTS
  0
DICTIONARY
  5
C
330
0
100
AcDbDictionary
  3
ACAD_GROUP
350
D
  3
ACAD_LAYOUT
350
1A
  3
ACAD_MATERIAL
350
43
  3
ACAD_MLEADERSTYLE
350
6B
  3
ACAD_MLINESTYLE
350
17
  3
ACAD_PLOTSETTINGS
350
19
  3
ACAD_SCALELIST
350
47
  3
ACAD_VISUALSTYLE
350
2A
  3
ACDBHEADERROUNDTRIPXREC
350
414
  3
ACDBVARIABLEDICTIONARY
350
435
  0
DICTIONARY
  5
440
330
8
100
AcDbDictionary
280
     1
  3
ACAD_XREC_ROUNDTRIP
360
441
  0
DICTIONARY
  5
D
102
{ACAD_REACTORS
330
C
102
}
330
C
100
AcDbDictionary
  0
DICTIONARY
  5
1A
102
{ACAD_REACTORS
330
C
102
}
330
C
100
AcDbDictionary
  0
DICTIONARY
  5
43
102
{ACAD_REACTORS
330
C
102
}
330
C
100
AcDbDictionary
  3
BYBLOCK
350
45
  3
BYLAYER
350
44
  3
GLOBAL
350
46
  0
DICTIONARY
  5
6B
102
{ACAD_REACTORS
330
C
102
}
330
C
100
AcDbDictionary
  3
STANDARD
350
6C
  0
DICTIONARY
  5
17
102
{ACAD_REACTORS
330
C
102
}
330
C
100
AcDbDictionary
  3
STANDARD
350
18
  0
DICTIONARY
  5
19
102
{ACAD_REACTORS
330
C
102
}
330
C
100
AcDbDictionary
  0
DICTIONARY
  5
47
102
{ACAD_REACTORS
330
C
102
}
330
C
100
AcDbDictionary
  3
A0
350
48
  3
A1
350
49
  3
A2
350
4A
  3
A3
350
4B
  3
A4
350
4C
  3
A5
350
4D
  3
A6
350
4E
  3
A7
350
4F
  3
A8
350
50
  3
A9
350
51
  3
B0
350
52
  3
B1
350
53
  3
B2
350
54
  3
B3
350
55
  3
B4
350
56
  3
B5
350
57
  3
B6
350
58
  3
B7
350
59
  3
B8
350
5A
  3
B9
350
5B
  3
C0
350
5C
  3
C1
350
5D
  3
C2
350
5E
  3
C3
350
5F
  3
C4
350
60
  3
C5
350
61
  3
C6
350
62
  3
C7
350
63
  3
C8
350
64
  3
C9
350
65
  3
D0
350
66
  3
D1
350
67
  3
D2
350
68
  0
DICTIONARY
  5
2A
102
{ACAD_REACTORS
330
C
102
}
330
C
100
AcDbDictionary
  3
2DWIREFRAME
350
2F
  3
BASIC
350
32
  3
BRIGHTEN
350
36
  3
COLORCHANGE
350
3A
  3
CONCEPTUAL
350
34
  3
DIM
350
35
  3
EDGECOLOROFF
350
3D
  3
FACEPATTERN
350
39
  3
FLAT
350
2B
  3
FLATWITHEDGES
350
2C
  3
GOURAUD
350
2D
  3
GOURAUDWITHEDGES
350
2E
  3
HIDDEN
350
31
  3
JITTEROFF
350
3B
  3
LINEPATTERN
350
38
  3
OVERHANGOFF
350
3C
  3
REALISTIC
350
33
  3
SHADED
350
42
  3
SHADED_WITH_EDGES
350
41
  3
SHADES_OF_GRAY
350
3E
  3
SKETCHY
350
3F
  3
THICKEN
350
37
  3
WIREFRAME
350
30
  3
X-RAY
350
40
  0
DICTIONARY
  5
414
102
{ACAD_REACTORS
330
C
102
}
330
C
100
AcDbDictionary
  3
CEPSNID
350
41E
  3
CEPSNTYPE
350
41D
  3
DIMSTYLEDATA
350
434
  3
FINGERPRINTGUID
350
41F
  3
HYPERLINKBASE
350
417
  3
INSUNITS
350
41C
  3
LAYOUTDICT
350
419
  3
LWETCUNION
350
41B
  3
PLOTSETDICT
350
41A
  3
PSVPSCALE
350
421
  3
PUCSBASE
350
424
  3
PUCSORGBACK
350
42A
  3
PUCSORGBOTTOM
350
426
  3
PUCSORGFRONT
350
429
  3
PUCSORGLEFT
350
427
  3
PUCSORGRIGHT
350
428
  3
PUCSORGTOP
350
425
  3
PUCSORTHOREF
350
422
  3
PUCSORTHOVIEW
350
423
  3
STYLESHEET
350
418
  3
TSTACKALIGN
350
415
  3
TSTACKSIZE
350
416
  3
UCSBASE
350
42D
  3
UCSORGBACK
350
433
  3
UCSORGBOTTOM
350
42F
  3
UCSORGFRONT
350
432
  3
UCSORGLEFT
350
430
  3
UCSORGRIGHT
350
431
  3
UCSORGTOP
350
42E
  3
UCSORTHOREF
350
42B
  3
UCSORTHOVIEW
350
42C
  3
VERSIONGUID
350
420
  0
DICTIONARY
  5
435
102
{ACAD_REACTORS
330
C
102
}
330
C
100
AcDbDictionary
  3
CANNOSCALE
350
442
  3
CENTEREXE
350
43C
  3
CENTERLTYPEFILE
350
43D
  3
CMLEADERSTYLE
350
437
  3
CTABLESTYLE
350
436
  3
DIMASSOC
350
43E
  3
HIDETEXT
350
43F
  3
MSLTSCALE
350
443
  3
PSOLHEIGHT
350
439
  3
PSOLWIDTH
350
438
  0
XRECORD
  5
441
102
{ACAD_REACTORS
330
440
102
}
330
440
100
AcDbXrecord
102
VTR_0.000_0.000_1.000_1.000_VISUALSTYLE
340
2F
102
VTR_0.000_0.000_1.000_1.000_GRIDDISPLAY
 70
     3
102
VTR_0.000_0.000_1.000_1.000_GRIDMAJOR
 70
     5
102
VTR_0.000_0.000_1.000_1.000_DEFAULTLIGHTING
280
     1
102
VTR_0.000_0.000_1.000_1.000_DEFAULTLIGHTINGTYPE
 70
     1
102
VTR_0.000_0.000_1.000_1.000_BRIGHTNESS
141
0.0
102
VTR_0.000_0.000_1.000_1.000_CONTRAST
142
0.0
  0
MATERIAL
  5
45
102
{ACAD_REACTORS
330
43
102
}
102
{ACAD_XDICTIONARY
360
446
102
}
330
43
100
AcDbMaterial
  1
BYBLOCK
  0
MATERIAL
  5
44
102
{ACAD_REACTORS
330
43
102
}
102
{ACAD_XDICTIONARY
360
444
102
}
330
43
100
AcDbMaterial
  1
BYLAYER
  0
MATERIAL
  5
46
102
{ACAD_REACTORS
330
43
102
}
102
{ACAD_XDICTIONARY
360
448
102
}
330
43
100
AcDbMaterial
  1
GLOBAL
  0
ACAD_PROXY_OBJECT
  5
6C
102
{ACAD_REACTORS
330
6B
102
}
330
6B
100
AcDbProxyObject
 90
      499
 91
      505
 93
      610
310
40901902A4063FBFFFFFE0000000000000020400000000000020404214DD185B99185C990000000000000104090141901A00000000000004100000000000000041025764000000000000039000
340
14
340
0
340
11
340
0
 94
        0
1001
ACAD_MLEADERVER
1070
     2
  0
MLINESTYLE
  5
18
102
{ACAD_REACTORS
330
17
102
}
330
17
100
AcDbMlineStyle
  2
Standard
 70
     0
  3

 62
   256
 51
90.0
 52
90.0
 71
     2
 49
0.5
 62
   256
  6
BYLAYER
 49
-0.5
 62
   256
  6
BYLAYER
  0
ACAD_PROXY_OBJECT
  5
48
102
{ACAD_REACTORS
330
47
102
}
330
47
100
AcDbProxyObject
 90
      499
 91
      503
 93
       41
310
903313A31580
  0
ACAD_PROXY_OBJECT
  5
49
102
{ACAD_REACTORS
330
47
102
}
330
47
100
AcDbProxyObject
 90
      499
 91
      503
 93
      105
310
903313A324000000000000004000
  0
ACAD_PROXY_OBJECT
  5
4A
102
{ACAD_REACTORS
330
47
102
}
330
47
100
AcDbProxyObject
 90
      499
 91
      503
 93
      105
310
903313A344000000000000104000
  0
ACAD_PROXY_OBJECT
  5
4B
102
{ACAD_REACTORS
330
47
102
}
330
47
100
AcDbProxyObject
 90
      499
 91
      503
 93
      105
310
903313A354000000000000144000
  0
ACAD_PROXY_OBJECT
  5
4C
102
{ACAD_REACTORS
330
47
102
}
330
47
100
AcDbProxyObject
 90
      499
 91
      503
 93
      105
310
903313A384000000000000204000
  0
ACAD_PROXY_OBJECT
  5
4D
102
{ACAD_REACTORS
330
47
102
}
330
47
100
AcDbProxyObject
 90
      499
 91
      503
 93
      113
310
904313A31304000000000000244000
  0
ACAD_PROXY_OBJECT
  5
4E
102
{ACAD_REACTORS
330
47
102
}
330
47
100
AcDbProxyObject
 90
      499
 91
      503
 93
      113
310
904313A31364000000000000304000
  0
ACAD_PROXY_OBJECT
  5
4F
102
{ACAD_REACTORS
330
47
102
}
330
47
100
AcDbProxyObject
 90
      499
 91
      503
 93
      113
310
904313A32304000000000000344000
  0
ACAD_PROXY_OBJECT
  5
50
102
{ACAD_REACTORS
330
47
102
}
330
47
100
AcDbProxyObject
 90
      499
 91
      503
 93
      113
310
904313A333040000000000003E4000
  0
ACAD_PROXY_OBJECT
  5
51
102
{ACAD_REACTORS
330
47
102
}
330
47
100
AcDbProxyObject
 90
      499
 91
      503
 93
      113
310
904313A34304000000000000444000
  0
ACAD_PROXY_OBJECT
  5
52
102
{ACAD_REACTORS
330
47
102
}
330
47
100
AcDbProxyObject
 90
      499
 91
      503
 93
      113
310
904313A35304000000000000494000
  0
ACAD_PROXY_OBJECT
  5
53
102
{ACAD_REACTORS
330
47
102
}
330
47
100
AcDbProxyObject
 90
      499
 91
      503
 93
      121
310
905313A3130304000000000000594000
  0
ACAD_PROXY_OBJECT
  5
54
102
{ACAD_REACTORS
330
47
102
}
330
47
100
AcDbProxyObject
 90
      499
 91
      503
 93
      105
310
903323A310000000000000010100
  0
ACAD_PROXY_OBJECT
  5
55
102
{ACAD_REACTORS
330
47
102
}
330
47
100
AcDbProxyObject
 90
      499
 91
      503
 93
      105
310
903343A310000000000000410100
  0
ACAD_PROXY_OBJECT
  5
56
102
{ACAD_REACTORS
330
47
102
}
330
47
100
AcDbProxyObject
 90
      499
 91
      503
 93
      105
310
903383A310000000000000810100
  0
ACAD_PROXY_OBJECT
  5
57
102
{ACAD_REACTORS
330
47
102
}
330
47
100
AcDbProxyObject
 90
      499
 91
      503
 93
      113
310
90431303A310000000000000910100
  0
ACAD_PROXY_OBJECT
  5
58
102
{ACAD_REACTORS
330
47
102
}
330
47
100
AcDbProxyObject
 90
      499
 91
      503
 93
      121
310
9053130303A310000000000001650100
  0
ACAD_PROXY_OBJECT
  5
59
102
{ACAD_REACTORS
330
47
102
}
330
47
100
AcDbProxyObject
 90
      499
 91
      503
 93
      257
310
90E312F31323822203D2031272D3022000000000000200FC000000000000284000
  0
ACAD_PROXY_OBJECT
  5
5A
102
{ACAD_REACTORS
330
47
102
}
330
47
100
AcDbProxyObject
 90
      499
 91
      503
 93
      249
310
90D312F363422203D2031272D3022000000000000240FC000000000000284000
  0
ACAD_PROXY_OBJECT
  5
5B
102
{ACAD_REACTORS
330
47
102
}
330
47
100
AcDbProxyObject
 90
      499
 91
      503
 93
      249
310
90D312F333222203D2031272D3022000000000000280FC000000000000284000
  0
ACAD_PROXY_OBJECT
  5
5C
102
{ACAD_REACTORS
330
47
102
}
330
47
100
AcDbProxyObject
 90
      499
 91
      503
 93
      249
310
90D312F313622203D2031272D30220000000000002C0FC000000000000284000
  0
ACAD_PROXY_OBJECT
  5
5D
102
{ACAD_REACTORS
330
47
102
}
330
47
100
AcDbProxyObject
 90
      499
 91
      503
 93
      249
310
90D332F333222203D2031272D30220000000000002E0FC000000000000284000
  0
ACAD_PROXY_OBJECT
  5
5E
102
{ACAD_REACTORS
330
47
102
}
330
47
100
AcDbProxyObject
 90
      499
 91
      503
 93
      241
310
90C312F3822203D2031272D3022000000000000300FC000000000000284000
  0
ACAD_PROXY_OBJECT
  5
5F
102
{ACAD_REACTORS
330
47
102
}
330
47
100
AcDbProxyObject
 90
      499
 91
      503
 93
      249
310
90D332F313622203D2031272D3022000000000000320FC000000000000284000
  0
ACAD_PROXY_OBJECT
  5
60
102
{ACAD_REACTORS
330
47
102
}
330
47
100
AcDbProxyObject
 90
      499
 91
      503
 93
      241
310
90C312F3422203D2031272D3022000000000000340FC000000000000284000
  0
ACAD_PROXY_OBJECT
  5
61
102
{ACAD_REACTORS
330
47
102
}
330
47
100
AcDbProxyObject
 90
      499
 91
      503
 93
      241
310
90C332F3822203D2031272D3022000000000000360FC000000000000284000
  0
ACAD_PROXY_OBJECT
  5
62
102
{ACAD_REACTORS
330
47
102
}
330
47
100
AcDbProxyObject
 90
      499
 91
      503
 93
      241
310
90C312F3222203D2031272D3022000000000000380FC000000000000284000
  0
ACAD_PROXY_OBJECT
  5
63
102
{ACAD_REACTORS
330
47
102
}
330
47
100
AcDbProxyObject
 90
      499
 91
      503
 93
      241
310
90C332F3422203D2031272D30220000000000003A0FC000000000000284000
  0
ACAD_PROXY_OBJECT
  5
64
102
{ACAD_REACTORS
330
47
102
}
330
47
100
AcDbProxyObject
 90
      499
 91
      503
 93
      161
310
90A3122203D2031272D30224000000000000284000
  0
ACAD_PROXY_OBJECT
  5
65
102
{ACAD_REACTORS
330
47
102
}
330
47
100
AcDbProxyObject
 90
      499
 91
      503
 93
      257
310
90E312D312F3222203D2031272D30220000000000003E0FC000000000000284000
  0
ACAD_PROXY_OBJECT
  5
66
102
{ACAD_REACTORS
330
47
102
}
330
47
100
AcDbProxyObject
 90
      499
 91
      503
 93
      225
310
90A3322203D2031272D302200000000000002100000000000000284000
  0
ACAD_PROXY_OBJECT
  5
67
102
{ACAD_REACTORS
330
47
102
}
330
47
100
AcDbProxyObject
 90
      499
 91
      503
 93
      225
310
90A3622203D2031272D302200000000000006100000000000000284000
  0
ACAD_PROXY_OBJECT
  5
68
102
{ACAD_REACTORS
330
47
102
}
330
47
100
AcDbProxyObject
 90
      499
 91
      503
 93
      249
310
90D31272D3022203D2031272D30220000000000000A100000000000000284000
  0
ACAD_PROXY_OBJECT
  5
2F
102
{ACAD_REACTORS
330
2A
102
}
330
2A
100
AcDbProxyObject
 90
      499
 91
      501
 93
      436
310
42CC9915DA5C99599C985B595049028333333333333E33F0000000000000F90107901411070040501600405405064090741402480A0340
1001
ACAD
1000
AcDbSavedByObjectVersion
1070
     0
  0
ACAD_PROXY_OBJECT
  5
32
102
{ACAD_REACTORS
330
2A
102
}
330
2A
100
AcDbProxyObject
 90
      499
 91
      501
 93
      388
310
4150985CDA58D07406404333333333333E33F0000000000000F90107A41107004050150841D405064090741402480A0350
1001
ACAD
1000
AcDbSavedByObjectVersion
1070
     0
  0
ACAD_PROXY_OBJECT
  5
36
102
{ACAD_REACTORS
330
2A
102
}
330
2A
100
AcDbProxyObject
 90
      499
 91
      501
 93
      428
310
42109C9A59DA1D195B90C409028333333333333E33F0000000000000F9010790141107004050150841D405064090741402480A029950
1001
ACAD
1000
AcDbSavedByObjectVersion
1070
     0
  0
ACAD_PROXY_OBJECT
  5
3A
102
{ACAD_REACTORS
330
2A
102
}
330
2A
100
AcDbProxyObject
 90
      499
 91
      501
 93
      452
310
42D0DBDB1BDC90DA185B99D95104090240C333333333333E33F0000000000000F90108901411070040501508421405064090741402480A0350
1001
ACAD
1000
AcDbSavedByObjectVersion
1070
     0
  0
ACAD_PROXY_OBJECT
  5
34
102
{ACAD_REACTORS
330
2A
102
}
330
2A
100
AcDbProxyObject
 90
      499
 91
      501
 93
      500
310
4290DBDB98D95C1D1D585B10940D028333333333333E33F0000000000000F90107902409070040501000000000018199010841D405064090740C02480A0340
1001
ACAD
1000
AcDbSavedByObjectVersion
1070
     0
  0
ACAD_PROXY_OBJECT
  5
35
102
{ACAD_REACTORS
330
2A
102
}
330
2A
100
AcDbProxyObject
 90
      499
 91
      501
 93
      412
310
40D11A5B50B409028333333333333E33F0000000000000F9010790141107004050150841D405064090741402480A02677FFFFFD0
1001
ACAD
1000
AcDbSavedByObjectVersion
1070
     0
  0
ACAD_PROXY_OBJECT
  5
3D
102
{ACAD_REACTORS
330
2A
102
}
330
2A
100
AcDbProxyObject
 90
      499
 91
      501
 93
      452
310
43115919D950DBDB1BDC93D999916409028333333333333E33F0000000000000F9010790141107004050150841D405064090741402480A0350
1001
ACAD
1000
AcDbSavedByObjectVersion
1070
     0
  0
ACAD_PROXY_OBJECT
  5
39
102
{ACAD_REACTORS
330
2A
102
}
330
2A
100
AcDbProxyObject
 90
      499
 91
      501
 93
      444
310
42D19858D95C185D1D195C9B90F409028333333333333E33F0000000000000F9010790141107004050150841D405064090741402480A0350
1001
ACAD
1000
AcDbSavedByObjectVersion
1070
     0
  0
ACAD_PROXY_OBJECT
  5
2B
102
{ACAD_REACTORS
330
2A
102
}
330
2A
100
AcDbProxyObject
 90
      499
 91
      501
 93
      380
310
41119B185D240901404333333333333E33F0000000000000F9010740A907004050150841D405064090741402480A1B50
1001
ACAD
1000
AcDbSavedByObjectVersion
1070
     0
  0
ACAD_PROXY_OBJECT
  5
2C
102
{ACAD_REACTORS
330
2A
102
}
330
2A
100
AcDbProxyObject
 90
      499
 91
      501
 93
      468
310
43519B185D15DA5D1A115919D95CD0140901404333333333333E33F0000000000000F90107409019070040501600405405064090741402480A1B50
1001
ACAD
1000
AcDbSavedByObjectVersion
1070
     0
  0
ACAD_PROXY_OBJECT
  5
2D
102
{ACAD_REACTORS
330
2A
102
}
330
2A
100
AcDbProxyObject
 90
      499
 91
      501
 93
      404
310
41D1DBDD5C985D5910240902404333333333333E33F0000000000000F9010740A9070040501641D405064090741402480A1B50
1001
ACAD
1000
AcDbSavedByObjectVersion
1070
     0
  0
ACAD_PROXY_OBJECT
  5
2E
102
{ACAD_REACTORS
330
2A
102
}
330
2A
100
AcDbProxyObject
 90
      499
 91
      501
 93
      492
310
4411DBDD5C985D5915DA5D1A115919D95CD0340902404333333333333E33F0000000000000F90107409019070040501600405405064090741402480A1B50
1001
ACAD
1000
AcDbSavedByObjectVersion
1070
     0
  0
ACAD_PROXY_OBJECT
  5
31
102
{ACAD_REACTORS
330
2A
102
}
330
2A
100
AcDbProxyObject
 90
      499
 91
      501
 93
      476
310
41921A5919195B90640502408333333333333E33F0000000000000F901079024090700405020000000000001110200405405064090740C02480A0340
1001
ACAD
1000
AcDbSavedByObjectVersion
1070
     0
  0
ACAD_PROXY_OBJECT
  5
3B
102
{ACAD_REACTORS
330
2A
102
}
330
2A
100
AcDbProxyObject
 90
      499
 91
      501
 93
      428
310
42529A5D1D195C93D999914409028333333333333E33F0000000000000F9010790141107004050150A41D405064090741402480A0350
1001
ACAD
1000
AcDbSavedByObjectVersion
1070
     0
  0
ACAD_PROXY_OBJECT
  5
38
102
{ACAD_REACTORS
330
2A
102
}
330
2A
100
AcDbProxyObject
 90
      499
 91
      501
 93
      444
310
42D31A5B995C185D1D195C9B90E409028333333333333E33F0000000000000F9010790141107004050750841D405064090741402483A0350
1001
ACAD
1000
AcDbSavedByObjectVersion
1070
     0
  0
ACAD_PROXY_OBJECT
  5
3C
102
{ACAD_REACTORS
330
2A
102
}
330
2A
100
AcDbProxyObject
 90
      499
 91
      501
 93
      444
310
42D3DD995C9A185B99D3D999915409028333333333333E33F0000000000000F9010790141107004050150941D405064090741402480A0350
1001
ACAD
1000
AcDbSavedByObjectVersion
1070
     0
  0
ACAD_PROXY_OBJECT
  5
33
102
{ACAD_REACTORS
330
2A
102
}
330
2A
100
AcDbProxyObject
 90
      499
 91
      501
 93
      428
310
425499585B1A5CDD1A58D08409038333333333333E33F0000000000000F9010740A907004050150800405405064090740C02480A1B40
1001
ACAD
1000
AcDbSavedByObjectVersion
1070
     0
  0
ACAD_PROXY_OBJECT
  5
42
102
{ACAD_REACTORS
330
2A
102
}
330
2A
100
AcDbProxyObject
 90
      499
 91
      501
 93
      420
310
4194DA1859195911B40902404333333333333E33F0000000000000F9010740A41107004050150800405405064090840C02480A0B40
1001
ACAD
1000
AcDbSavedByObjectVersion
1070
     0
  0
ACAD_PROXY_OBJECT
  5
41
102
{ACAD_REACTORS
330
2A
102
}
330
2A
100
AcDbProxyObject
 90
      499
 91
      501
 93
      516
310
4454DA18591959081DDA5D1A08195919D95CD1A40902404333333333333E33F0000000000000F901074090142907004050250800405405064090740C02480A0B40
1001
ACAD
1000
AcDbSavedByObjectVersion
1070
     0
  0
ACAD_PROXY_OBJECT
  5
3E
102
{ACAD_REACTORS
330
2A
102
}
330
2A
100
AcDbProxyObject
 90
      499
 91
      501
 93
      532
310
4394DA1859195CC81BD98811DC985E5174090240C333333333333E33F0000000000000F901079024090741D01000000000000111010841D405064090740C02480A0340
1001
ACAD
1000
AcDbSavedByObjectVersion
1070
     0
  0
ACAD_PROXY_OBJECT
  5
3F
102
{ACAD_REACTORS
330
2A
102
}
330
2A
100
AcDbProxyObject
 90
      499
 91
      501
 93
      476
310
41D4DAD95D18DA1E51840502408333333333333E33F0000000000000F901079024090741D01000000000000111010B41D405064090741802480A0340
1001
ACAD
1000
AcDbSavedByObjectVersion
1070
     0
  0
ACAD_PROXY_OBJECT
  5
37
102
{ACAD_REACTORS
330
2A
102
}
330
2A
100
AcDbProxyObject
 90
      499
 91
      501
 93
      412
310
41D51A1A58DAD95B90D409028333333333333E33F0000000000000F9010790141107004050150C41D405064090741402480A0350
1001
ACAD
1000
AcDbSavedByObjectVersion
1070
     0
  0
ACAD_PROXY_OBJECT
  5
30
102
{ACAD_REACTORS
330
2A
102
}
330
2A
100
AcDbProxyObject
 90
      499
 91
      501
 93
      420
310
4255DA5C99599C985B595059028333333333333E33F0000000000000F90107901411070040501600405405064090740C02480A0340
1001
ACAD
1000
AcDbSavedByObjectVersion
1070
     0
  0
ACAD_PROXY_OBJECT
  5
40
102
{ACAD_REACTORS
330
2A
102
}
330
2A
100
AcDbProxyObject
 90
      499
 91
      501
 93
      404
310
41560B54985E51940902404000000000000E03F0000000000000F9010740501907004050150841D405064090740C02480A1B40
1001
ACAD
1000
AcDbSavedByObjectVersion
1070
     0
  0
XRECORD
  5
41E
102
{ACAD_REACTORS
330
414
102
}
330
414
100
AcDbXrecord
340
0
  0
XRECORD
  5
41D
102
{ACAD_REACTORS
330
414
102
}
330
414
100
AcDbXrecord
 90
        0
  0
XRECORD
  5
434
102
{ACAD_REACTORS
330
414
102
}
330
414
100
AcDbXrecord
1000
DSTYLE
1002
{
1070
   340
340
11
1002
}
  0
XRECORD
  5
41F
102
{ACAD_REACTORS
330
414
102
}
330
414
100
AcDbXrecord
  1
{61367d5a-20a4-4f1d-975c-2cb917b2061c}
  0
XRECORD
  5
417
102
{ACAD_REACTORS
330
414
102
}
330
414
100
AcDbXrecord
  1

  0
XRECORD
  5
41C
102
{ACAD_REACTORS
330
414
102
}
330
414
100
AcDbXrecord
 90
        4
  0
XRECORD
  5
419
102
{ACAD_REACTORS
330
414
102
}
330
414
100
AcDbXrecord
340
1A
  0
XRECORD
  5
41B
102
{ACAD_REACTORS
330
414
102
}
330
414
100
AcDbXrecord
 90
    10781
  0
XRECORD
  5
41A
102
{ACAD_REACTORS
330
414
102
}
330
414
100
AcDbXrecord
340
19
  0
XRECORD
  5
421
102
{ACAD_REACTORS
330
414
102
}
330
414
100
AcDbXrecord
 40
0.0
  0
XRECORD
  5
424
102
{ACAD_REACTORS
330
414
102
}
330
414
100
AcDbXrecord
340
0
  0
XRECORD
  5
42A
102
{ACAD_REACTORS
330
414
102
}
330
414
100
AcDbXrecord
 10
0.0
 20
0.0
 30
0.0
  0
XRECORD
  5
426
102
{ACAD_REACTORS
330
414
102
}
330
414
100
AcDbXrecord
 10
0.0
 20
0.0
 30
0.0
  0
XRECORD
  5
429
102
{ACAD_REACTORS
330
414
102
}
330
414
100
AcDbXrecord
 10
0.0
 20
0.0
 30
0.0
  0
XRECORD
  5
427
102
{ACAD_REACTORS
330
414
102
}
330
414
100
AcDbXrecord
 10
0.0
 20
0.0
 30
0.0
  0
XRECORD
  5
428
102
{ACAD_REACTORS
330
414
102
}
330
414
100
AcDbXrecord
 10
0.0
 20
0.0
 30
0.0
  0
XRECORD
  5
425
102
{ACAD_REACTORS
330
414
102
}
330
414
100
AcDbXrecord
 10
0.0
 20
0.0
 30
0.0
  0
XRECORD
  5
422
102
{ACAD_REACTORS
330
414
102
}
330
414
100
AcDbXrecord
340
0
  0
XRECORD
  5
423
102
{ACAD_REACTORS
330
414
102
}
330
414
100
AcDbXrecord
 70
     0
  0
XRECORD
  5
418
102
{ACAD_REACTORS
330
414
102
}
330
414
100
AcDbXrecord
  1

  0
XRECORD
  5
415
102
{ACAD_REACTORS
330
414
102
}
330
414
100
AcDbXrecord
 90
        1
  0
XRECORD
  5
416
102
{ACAD_REACTORS
330
414
102
}
330
414
100
AcDbXrecord
 90
       70
  0
XRECORD
  5
42D
102
{ACAD_REACTORS
330
414
102
}
330
414
100
AcDbXrecord
340
0
  0
XRECORD
  5
433
102
{ACAD_REACTORS
330
414
102
}
330
414
100
AcDbXrecord
 10
0.0
 20
0.0
 30
0.0
  0
XRECORD
  5
42F
102
{ACAD_REACTORS
330
414
102
}
330
414
100
AcDbXrecord
 10
0.0
 20
0.0
 30
0.0
  0
XRECORD
  5
432
102
{ACAD_REACTORS
330
414
102
}
330
414
100
AcDbXrecord
 10
0.0
 20
0.0
 30
0.0
  0
XRECORD
  5
430
102
{ACAD_REACTORS
330
414
102
}
330
414
100
AcDbXrecord
 10
0.0
 20
0.0
 30
0.0
  0
XRECORD
  5
431
102
{ACAD_REACTORS
330
414
102
}
330
414
100
AcDbXrecord
 10
0.0
 20
0.0
 30
0.0
  0
XRECORD
  5
42E
102
{ACAD_REACTORS
330
414
102
}
330
414
100
AcDbXrecord
 10
0.0
 20
0.0
 30
0.0
  0
XRECORD
  5
42B
102
{ACAD_REACTORS
330
414
102
}
330
414
100
AcDbXrecord
340
0
  0
XRECORD
  5
42C
102
{ACAD_REACTORS
330
414
102
}
330
414
100
AcDbXrecord
 70
     0
  0
XRECORD
  5
420
102
{ACAD_REACTORS
330
414
102
}
330
414
100
AcDbXrecord
  1
{FAEB1C32-E019-11D5-929B-00C0DF256EC4}
  0
DICTIONARYVAR
  5
442
102
{ACAD_REACTORS
330
435
102
}
330
435
100
DictionaryVariables
280
     0
  1
1:1
  0
DICTIONARYVAR
  5
43C
102
{ACAD_REACTORS
330
435
102
}
330
435
100
DictionaryVariables
280
     0
  1
3.500000
  0
DICTIONARYVAR
  5
43D
102
{ACAD_REACTORS
330
435
102
}
330
435
100
DictionaryVariables
280
     0
  1
acadiso.lin
  0
DICTIONARYVAR
  5
437
102
{ACAD_REACTORS
330
435
102
}
330
435
100
DictionaryVariables
280
     0
  1
Standard
  0
DICTIONARYVAR
  5
436
102
{ACAD_REACTORS
330
435
102
}
330
435
100
DictionaryVariables
280
     0
  1
Standard
  0
DICTIONARYVAR
  5
43E
102
{ACAD_REACTORS
330
435
102
}
330
435
100
DictionaryVariables
280
     0
  1
2
  0
DICTIONARYVAR
  5
43F
102
{ACAD_REACTORS
330
435
102
}
330
435
100
DictionaryVariables
280
     0
  1
1
  0
DICTIONARYVAR
  5
443
102
{ACAD_REACTORS
330
435
102
}
330
435
100
DictionaryVariables
280
     0
  1
1
  0
DICTIONARYVAR
  5
439
102
{ACAD_REACTORS
330
435
102
}
330
435
100
DictionaryVariables
280
     0
  1
80.000000
  0
DICTIONARYVAR
  5
438
102
{ACAD_REACTORS
330
435
102
}
330
435
100
DictionaryVariables
280
     0
  1
5.000000
  0
DICTIONARY
  5
446
330
45
100
AcDbDictionary
280
     1
  3
ACAD_XREC_ROUNDTRIP
360
447
  0
DICTIONARY
  5
444
330
44
100
AcDbDictionary
280
     1
  3
ACAD_XREC_ROUNDTRIP
360
445
  0
DICTIONARY
  5
448
330
46
100
AcDbDictionary
280
     1
  3
ACAD_XREC_ROUNDTRIP
360
449
  0
XRECORD
  5
447
102
{ACAD_REACTORS
330
446
102
}
330
446
100
AcDbXrecord
102
MATERIAL
148
0.0
149
0.0
149
0.0
 93
        0
 94
      127
282
     0
 72
     1
 77
     1
171
     1
175
     1
179
     1
273
     0
  0
XRECORD
  5
445
102
{ACAD_REACTORS
330
444
102
}
330
444
100
AcDbXrecord
102
MATERIAL
148
0.0
149
0.0
149
0.0
 93
        0
 94
      127
282
     0
 72
     1
 77
     1
171
     1
175
     1
179
     1
273
     0
  0
XRECORD
  5
449
102
{ACAD_REACTORS
330
448
102
}
330
448
100
AcDbXrecord
102
MATERIAL
148
0.0
149
0.0
149
0.0
 93
        0
 94
      127
282
     0
 72
     1
 77
     1
171
     1
175
     1
179
     1
273
     0
  0
ENDSEC
  0
EOF
