  0
SECTION
  2
HEADER
  9
$ACADVER
  1
AC1014
  9
$ACADMAINTVER
 70
     9
  9
$DWGCODEPAGE
  3
ANSI_932
  9
$INSBASE
 10
0.0
 20
0.0
 30
0.0
  9
$EXTMIN
 10
15.0
 20
30.0
 30
0.0
  9
$EXTMAX
 10
1155.0
 20
840.0
 30
0.0
  9
$LIMMIN
 10
0.0
 20
0.0
  9
$LIMMAX
 10
420.0
 20
297.0
  9
$ORTHOMODE
 70
     0
  9
$REGENMODE
 70
     1
  9
$FILLMODE
 70
     1
  9
$QTEXTMODE
 70
     0
  9
$MIRRTEXT
 70
     1
  9
$DRAGMODE
 70
     2
  9
$LTSCALE
 40
0.2
  9
$OSMODE
 70
    37
  9
$ATTMODE
 70
     1
  9
$TEXTSIZE
 40
2.5
  9
$TRACEWID
 40
1.0
  9
$TEXTSTYLE
  7
STANDARD
  9
$CLAYER
  8
LAY-10
  9
$CELTYPE
  6
BYLAYER
  9
$CECOLOR
 62
   256
  9
$CELTSCALE
 40
1.0
  9
$DELOBJ
 70
     1
  9
$DISPSILH
 70
     0
  9
$DIMSCALE
 40
1.0
  9
$DIMASZ
 40
2.5
  9
$DIMEXO
 40
0.625
  9
$DIMDLI
 40
3.75
  9
$DIMRND
 40
0.0
  9
$DIMDLE
 40
0.0
  9
$DIMEXE
 40
1.25
  9
$DIMTP
 40
0.0
  9
$DIMTM
 40
0.0
  9
$DIMTXT
 40
2.5
  9
$DIMCEN
 40
2.5
  9
$DIMTSZ
 40
0.0
  9
$DIMTOL
 70
     0
  9
$DIMLIM
 70
     0
  9
$DIMTIH
 70
     0
  9
$DIMTOH
 70
     0
  9
$DIMSE1
 70
     0
  9
$DIMSE2
 70
     0
  9
$DIMTAD
 70
     1
  9
$DIMZIN
 70
     8
  9
$DIMBLK
  1

  9
$DIMASO
 70
     1
  9
$DIMSHO
 70
     1
  9
$DIMPOST
  1

  9
$DIMAPOST
  1

  9
$DIMALT
 70
     0
  9
$DIMALTD
 70
     3
  9
$DIMALTF
 40
0.03937007874016
  9
$DIMLFAC
 40
1.0
  9
$DIMTOFL
 70
     1
  9
$DIMTVP
 40
0.0
  9
$DIMTIX
 70
     0
  9
$DIMSOXD
 70
     0
  9
$DIMSAH
 70
     0
  9
$DIMBLK1
  1

  9
$DIMBLK2
  1

  9
$DIMSTYLE
  2
ISO-25
  9
$DIMCLRD
 70
     0
  9
$DIMCLRE
 70
     0
  9
$DIMCLRT
 70
     0
  9
$DIMTFAC
 40
1.0
  9
$DIMGAP
 40
0.625
  9
$DIMJUST
 70
     0
  9
$DIMSD1
 70
     0
  9
$DIMSD2
 70
     0
  9
$DIMTOLJ
 70
     0
  9
$DIMTZIN
 70
     8
  9
$DIMALTZ
 70
     0
  9
$DIMALTTZ
 70
     0
  9
$DIMFIT
 70
     3
  9
$DIMUPT
 70
     0
  9
$DIMUNIT
 70
     2
  9
$DIMDEC
 70
     2
  9
$DIMTDEC
 70
     2
  9
$DIMALTU
 70
     2
  9
$DIMALTTD
 70
     3
  9
$DIMTXSTY
  7
STANDARD
  9
$DIMAUNIT
 70
     0
  9
$LUNITS
 70
     2
  9
$LUPREC
 70
     4
  9
$SKETCHINC
 40
1.0
  9
$FILLETRAD
 40
10.0
  9
$AUNITS
 70
     0
  9
$AUPREC
 70
     0
  9
$MENU
  1
.
  9
$ELEVATION
 40
0.0
  9
$PELEVATION
 40
0.0
  9
$THICKNESS
 40
0.0
  9
$LIMCHECK
 70
     0
  9
$CHAMFERA
 40
0.0
  9
$CHAMFERB
 40
0.0
  9
$CHAMFERC
 40
0.0
  9
$CHAMFERD
 40
0.0
  9
$SKPOLY
 70
     0
  9
$TDCREATE
 40
2459229.337529803
  9
$TDUPDATE
 40
2459229.337530324
  9
$TDINDWG
 40
0.0000000116
  9
$TDUSRTIMER
 40
0.0000000116
  9
$USRTIMER
 70
     1
  9
$ANGBASE
 50
0.0
  9
$ANGDIR
 70
     0
  9
$PDMODE
 70
     0
  9
$PDSIZE
 40
0.0
  9
$PLINEWID
 40
0.0
  9
$COORDS
 70
     1
  9
$SPLFRAME
 70
     0
  9
$SPLINETYPE
 70
     6
  9
$SPLINESEGS
 70
     8
  9
$ATTDIA
 70
     0
  9
$ATTREQ
 70
     1
  9
$HANDLING
 70
     1
  9
$HANDSEED
  5
4DF
  9
$SURFTAB1
 70
     6
  9
$SURFTAB2
 70
     6
  9
$SURFTYPE
 70
     6
  9
$SURFU
 70
     6
  9
$SURFV
 70
     6
  9
$UCSNAME
  2

  9
$UCSORG
 10
0.0
 20
0.0
 30
0.0
  9
$UCSXDIR
 10
1.0
 20
0.0
 30
0.0
  9
$UCSYDIR
 10
0.0
 20
1.0
 30
0.0
  9
$PUCSNAME
  2

  9
$PUCSORG
 10
0.0
 20
0.0
 30
0.0
  9
$PUCSXDIR
 10
1.0
 20
0.0
 30
0.0
  9
$PUCSYDIR
 10
0.0
 20
1.0
 30
0.0
  9
$USERI1
 70
     0
  9
$USERI2
 70
     0
  9
$USERI3
 70
     0
  9
$USERI4
 70
     0
  9
$USERI5
 70
     0
  9
$USERR1
 40
0.0
  9
$USERR2
 40
0.0
  9
$USERR3
 40
0.0
  9
$USERR4
 40
0.0
  9
$USERR5
 40
0.0
  9
$WORLDVIEW
 70
     1
  9
$SHADEDGE
 70
     3
  9
$SHADEDIF
 70
    70
  9
$TILEMODE
 70
     1
  9
$MAXACTVP
 70
    64
  9
$PINSBASE
 10
0.0
 20
0.0
 30
0.0
  9
$PLIMCHECK
 70
     0
  9
$PEXTMIN
 10
1.000000000000000E+20
 20
1.000000000000000E+20
 30
1.000000000000000E+20
  9
$PEXTMAX
 10
-1.000000000000000E+20
 20
-1.000000000000000E+20
 30
-1.000000000000000E+20
  9
$PLIMMIN
 10
0.0
 20
0.0
  9
$PLIMMAX
 10
420.0
 20
297.0
  9
$UNITMODE
 70
     0
  9
$VISRETAIN
 70
     1
  9
$PLINEGEN
 70
     0
  9
$PSLTSCALE
 70
     1
  9
$TREEDEPTH
 70
  3020
  9
$PICKSTYLE
 70
     1
  9
$CMLSTYLE
  2
STANDARD
  9
$CMLJUST
 70
     0
  9
$CMLSCALE
 40
20.0
  9
$PROXYGRAPHICS
 70
     1
  9
$MEASUREMENT
 70
     1
  0
ENDSEC
  0
SECTION
  2
CLASSES
  0
CLASS
  1
ACDBDICTIONARYWDFLT
  2
AcDbDictionaryWithDefault
  3
ObjectDBX Classes
 90
        0
280
     0
281
     0
  0
CLASS
  1
VISUALSTYLE
  2
AcDbVisualStyle
  3
ObjectDBX Classes
 90
     4095
280
     0
281
     0
  0
CLASS
  1
MATERIAL
  2
AcDbMaterial
  3
ObjectDBX Classes
 90
     1153
280
     0
281
     0
  0
CLASS
  1
SCALE
  2
AcDbScale
  3
ObjectDBX Classes
 90
     1153
280
     0
281
     0
  0
CLASS
  1
TABLESTYLE
  2
AcDbTableStyle
  3
ObjectDBX Classes
 90
     4095
280
     0
281
     0
  0
CLASS
  1
MLEADERSTYLE
  2
AcDbMLeaderStyle
  3
ACDB_MLEADERSTYLE_CLASS
 90
     4095
280
     0
281
     0
  0
CLASS
  1
SUN
  2
AcDbSun
  3
SCENEOE
 90
     1153
280
     0
281
     0
  0
CLASS
  1
DICTIONARYVAR
  2
AcDbDictionaryVar
  3
ObjectDBX Classes
 90
        0
280
     0
281
     0
  0
CLASS
  1
XRECORD
  2
AcDbXrecord
  3
ObjectDBX Classes
 90
        0
280
     0
281
     0
  0
CLASS
  1
LWPOLYLINE
  2
AcDbPolyline
  3
ObjectDBX Classes
 90
        0
280
     0
281
     1
  0
CLASS
  1
HATCH
  2
AcDbHatch
  3
ObjectDBX Classes
 90
        0
280
     0
281
     1
  0
CLASS
  1
ACDBPLACEHOLDER
  2
AcDbPlaceHolder
  3
ObjectDBX Classes
 90
        0
280
     0
281
     0
  0
CLASS
  1
LAYOUT
  2
AcDbLayout
  3
ObjectDBX Classes
 90
        0
280
     0
281
     0
  0
ENDSEC
  0
SECTION
  2
TABLES
  0
TABLE
  2
VPORT
  5
8
102
{ACAD_XDICTIONARY
360
4D4
102
}
330
0
100
AcDbSymbolTable
 70
     1
  0
VPORT
  5
29
330
8
100
AcDbSymbolTableRecord
100
AcDbViewportTableRecord
  2
*ACTIVE
 70
     0
 10
0.0
 20
0.0
 11
1.0
 21
1.0
 12
585.0000000000001
 22
435.0
 13
0.0
 23
0.0
 14
10.0
 24
10.0
 15
10.0
 25
10.0
 16
0.0
 26
0.0
 36
1.0
 17
0.0
 27
0.0
 37
0.0
 40
810.0
 41
1.407407407407408
 42
50.0
 43
0.0
 44
0.0
 50
0.0
 51
0.0
 71
     0
 72
  1000
 73
     1
 74
     3
 75
     0
 76
     0
 77
     0
 78
     0
  0
ENDTAB
  0
TABLE
  2
LTYPE
  5
5
330
0
100
AcDbSymbolTable
 70
     6
  0
LTYPE
  5
14
330
5
100
AcDbSymbolTableRecord
100
AcDbLinetypeTableRecord
  2
BYBLOCK
 70
     0
  3

 72
    65
 73
     0
 40
0.0
  0
LTYPE
  5
15
330
5
100
AcDbSymbolTableRecord
100
AcDbLinetypeTableRecord
  2
BYLAYER
 70
     0
  3

 72
    65
 73
     0
 40
0.0
  0
LTYPE
  5
16
330
5
100
AcDbSymbolTableRecord
100
AcDbLinetypeTableRecord
  2
CONTINUOUS
 70
     0
  3
Solid line
 72
    65
 73
     0
 40
0.0
  0
LTYPE
  5
6E
330
5
100
AcDbSymbolTableRecord
100
AcDbLinetypeTableRecord
  2
HIDDEN
 70
     0
  3
Hidden __ __ __ __ __ __ __ __ __ __ __ __ __ __
 72
    65
 73
     2
 40
9.524999999999999
 49
6.35
 74
     0
 49
-3.175
 74
     0
  0
LTYPE
  5
6F
330
5
100
AcDbSymbolTableRecord
100
AcDbLinetypeTableRecord
  2
CENTER
 70
     0
  3
Center ____ _ ____ _ ____ _ ____ _ ____ _ ____
 72
    65
 73
     4
 40
50.8
 49
31.75
 74
     0
 49
-6.35
 74
     0
 49
6.35
 74
     0
 49
-6.35
 74
     0
  0
LTYPE
  5
70
330
5
100
AcDbSymbolTableRecord
100
AcDbLinetypeTableRecord
  2
PHANTOM
 70
     0
  3
Phantom ______  __  __  ______  __  __  ______ 
 72
    65
 73
     6
 40
63.50000000000001
 49
31.75
 74
     0
 49
-6.35
 74
     0
 49
6.35
 74
     0
 49
-6.35
 74
     0
 49
6.35
 74
     0
 49
-6.35
 74
     0
  0
LTYPE
  5
71
330
5
100
AcDbSymbolTableRecord
100
AcDbLinetypeTableRecord
  2
ACAD_ISO06W100
 70
     0
  3
ISO long-dash triple-dot ____ ... ____ ... ____
 72
    65
 73
     8
 40
36.0
 49
24.0
 74
     0
 49
-3.0
 74
     0
 49
0.0
 74
     0
 49
-3.0
 74
     0
 49
0.0
 74
     0
 49
-3.0
 74
     0
 49
0.0
 74
     0
 49
-3.0
 74
     0
  0
LTYPE
  5
72
330
5
100
AcDbSymbolTableRecord
100
AcDbLinetypeTableRecord
  2
ACAD_ISO15W100
 70
     0
  3
ISO double-dash triple-dot __ __ . . . __ __ . .
 72
    65
 73
    10
 40
39.0
 49
12.0
 74
     0
 49
-3.0
 74
     0
 49
12.0
 74
     0
 49
-3.0
 74
     0
 49
0.0
 74
     0
 49
-3.0
 74
     0
 49
0.0
 74
     0
 49
-3.0
 74
     0
 49
0.0
 74
     0
 49
-3.0
 74
     0
  0
ENDTAB
  0
TABLE
  2
LAYER
  5
2
330
0
100
AcDbSymbolTable
 70
     5
  0
LAYER
  5
10
330
2
100
AcDbSymbolTableRecord
100
AcDbLayerTableRecord
  2
0
 70
     0
 62
     7
  6
CONTINUOUS
  0
LAYER
  5
75
330
2
100
AcDbSymbolTableRecord
100
AcDbLayerTableRecord
  2
LAY-10
 70
     0
 62
     7
  6
CONTINUOUS
  0
LAYER
  5
76
330
2
100
AcDbSymbolTableRecord
100
AcDbLayerTableRecord
  2
LAY-20
 70
     0
 62
     7
  6
CONTINUOUS
  0
LAYER
  5
77
330
2
100
AcDbSymbolTableRecord
100
AcDbLayerTableRecord
  2
LAY-255
 70
     0
 62
     7
  6
CONTINUOUS
  0
LAYER
  5
425
330
2
100
AcDbSymbolTableRecord
100
AcDbLayerTableRecord
  2
DEFPOINTS
 70
     0
 62
     7
  6
CONTINUOUS
  0
ENDTAB
  0
TABLE
  2
STYLE
  5
3
330
0
100
AcDbSymbolTable
 70
     4
  0
STYLE
  5
11
330
3
100
AcDbSymbolTableRecord
100
AcDbTextStyleTableRecord
  2
STANDARD
 70
     0
 40
0.0
 41
1.0
 50
0.0
 71
     0
 42
2.5
  3
simplex
  4
bigfont
  0
STYLE
  5
73
330
3
100
AcDbSymbolTableRecord
100
AcDbTextStyleTableRecord
  2
EXCADSTD
 70
     0
 40
0.0
 41
1.0
 50
0.0
 71
     0
 42
2.5
  3
simplex
  4
bigfont
  0
STYLE
  5
74
330
3
100
AcDbSymbolTableRecord
100
AcDbTextStyleTableRecord
  2
EXCADVERT
 70
     4
 40
0.0
 41
1.0
 50
0.0
 71
     0
 42
2.5
  3
simplex
  4
bigfont
  0
STYLE
  5
423
330
3
100
AcDbSymbolTableRecord
100
AcDbTextStyleTableRecord
  2
EXCADDIM1
 70
     0
 40
0.0
 41
0.84
 50
0.0
 71
     0
 42
2.5
  3
simplex
  4
bigfont
  0
ENDTAB
  0
TABLE
  2
VIEW
  5
6
330
0
100
AcDbSymbolTable
 70
     0
  0
ENDTAB
  0
TABLE
  2
UCS
  5
7
330
0
100
AcDbSymbolTable
 70
     0
  0
ENDTAB
  0
TABLE
  2
APPID
  5
9
330
0
100
AcDbSymbolTable
 70
     2
  0
APPID
  5
12
330
9
100
AcDbSymbolTableRecord
100
AcDbRegAppTableRecord
  2
ACAD
 70
     0
  0
APPID
  5
4DE
330
9
100
AcDbSymbolTableRecord
100
AcDbRegAppTableRecord
  2
ACAD_MLEADERVER
 70
     0
  0
ENDTAB
  0
TABLE
  2
DIMSTYLE
  5
A
330
0
100
AcDbSymbolTable
 70
     1
  0
DIMSTYLE
105
27
102
{ACAD_REACTORS
330
424
330
432
330
43F
330
44C
330
459
330
466
330
472
102
}
330
A
100
AcDbSymbolTableRecord
100
AcDbDimStyleTableRecord
  2
ISO-25
 70
     0
  3

  4

  5

  6

  7

 40
1.0
 41
2.5
 42
0.625
 43
3.75
 44
1.25
 45
0.0
 46
0.0
 47
0.0
 48
0.0
140
2.5
141
2.5
142
0.0
143
0.03937007874016
144
1.0
145
0.0
146
1.0
147
0.625
 71
     0
 72
     0
 73
     0
 74
     0
 75
     0
 76
     0
 77
     1
 78
     8
170
     0
171
     3
172
     1
173
     0
174
     0
175
     0
176
     0
177
     0
178
     0
270
     2
271
     2
272
     2
273
     2
274
     3
340
11
275
     0
280
     0
281
     0
282
     0
283
     0
284
     8
285
     0
286
     0
287
     5
288
     0
  0
ENDTAB
  0
TABLE
  2
BLOCK_RECORD
  5
1
330
0
100
AcDbSymbolTable
 70
    21
  0
BLOCK_RECORD
  5
1F
330
1
100
AcDbSymbolTableRecord
100
AcDbBlockTableRecord
  2
*MODEL_SPACE
  0
BLOCK_RECORD
  5
1B
330
1
100
AcDbSymbolTableRecord
100
AcDbBlockTableRecord
  2
*PAPER_SPACE
  0
BLOCK_RECORD
  5
78
330
1
100
AcDbSymbolTableRecord
100
AcDbBlockTableRecord
  2
EX_NORM
  0
BLOCK_RECORD
  5
7B
330
1
100
AcDbSymbolTableRecord
100
AcDbBlockTableRecord
  2
EX_BNORM
  0
BLOCK_RECORD
  5
7E
330
1
100
AcDbSymbolTableRecord
100
AcDbBlockTableRecord
  2
EX_BCIR
  0
BLOCK_RECORD
  5
81
330
1
100
AcDbSymbolTableRecord
100
AcDbBlockTableRecord
  2
EX_RCIVIL
  0
BLOCK_RECORD
  5
84
330
1
100
AcDbSymbolTableRecord
100
AcDbBlockTableRecord
  2
EX_SLANT
  0
BLOCK_RECORD
  5
87
330
1
100
AcDbSymbolTableRecord
100
AcDbBlockTableRecord
  2
EX_NONE
  0
BLOCK_RECORD
  5
8A
330
1
100
AcDbSymbolTableRecord
100
AcDbBlockTableRecord
  2
EX_CIVIL
  0
BLOCK_RECORD
  5
8D
330
1
100
AcDbSymbolTableRecord
100
AcDbBlockTableRecord
  2
EX_WCIR
  0
BLOCK_RECORD
  5
90
330
1
100
AcDbSymbolTableRecord
100
AcDbBlockTableRecord
  2
EX_WCIR2
  0
BLOCK_RECORD
  5
93
330
1
100
AcDbSymbolTableRecord
100
AcDbBlockTableRecord
  2
EX_WNORM
  0
BLOCK_RECORD
  5
96
330
1
100
AcDbSymbolTableRecord
100
AcDbBlockTableRecord
  2
EX_NNORM
  0
BLOCK_RECORD
  5
99
330
1
100
AcDbSymbolTableRecord
100
AcDbBlockTableRecord
  2
EX_BBOX
  0
BLOCK_RECORD
  5
9C
330
1
100
AcDbSymbolTableRecord
100
AcDbBlockTableRecord
  2
EX_WBOX
  0
BLOCK_RECORD
  5
9F
330
1
100
AcDbSymbolTableRecord
100
AcDbBlockTableRecord
  2
EX_INTEGRAL
  0
BLOCK_RECORD
  5
426
330
1
100
AcDbSymbolTableRecord
100
AcDbBlockTableRecord
  2
*D15
  0
BLOCK_RECORD
  5
433
330
1
100
AcDbSymbolTableRecord
100
AcDbBlockTableRecord
  2
*D16
  0
BLOCK_RECORD
  5
440
330
1
100
AcDbSymbolTableRecord
100
AcDbBlockTableRecord
  2
*D17
  0
BLOCK_RECORD
  5
44D
330
1
100
AcDbSymbolTableRecord
100
AcDbBlockTableRecord
  2
*D18
  0
BLOCK_RECORD
  5
45A
330
1
100
AcDbSymbolTableRecord
100
AcDbBlockTableRecord
  2
*D19
  0
BLOCK_RECORD
  5
467
330
1
100
AcDbSymbolTableRecord
100
AcDbBlockTableRecord
  2
*D20
  0
BLOCK_RECORD
  5
473
330
1
100
AcDbSymbolTableRecord
100
AcDbBlockTableRecord
  2
*D21
  0
ENDTAB
  0
ENDSEC
  0
SECTION
  2
BLOCKS
  0
BLOCK
  5
20
330
1F
100
AcDbEntity
  8
0
100
AcDbBlockBegin
  2
*MODEL_SPACE
 70
     0
 10
0.0
 20
0.0
 30
0.0
  3
*MODEL_SPACE
  1

  0
ENDBLK
  5
21
330
1F
100
AcDbEntity
  8
0
100
AcDbBlockEnd
  0
BLOCK
  5
1C
330
1B
100
AcDbEntity
 67
     1
  8
0
100
AcDbBlockBegin
  2
*PAPER_SPACE
 70
     0
 10
0.0
 20
0.0
 30
0.0
  3
*PAPER_SPACE
  1

  0
ENDBLK
  5
1D
330
1B
100
AcDbEntity
 67
     1
  8
0
100
AcDbBlockEnd
  0
BLOCK
  5
79
330
78
100
AcDbEntity
  8
0
100
AcDbBlockBegin
  2
EX_NORM
 70
     0
 10
0.0
 20
0.0
 30
0.0
  3
EX_NORM
  1

  0
LINE
  5
A2
330
78
100
AcDbEntity
  8
0
  6
CONTINUOUS
 62
     0
100
AcDbLine
 10
0.0
 20
0.0
 30
0.0
 11
-1.0
 21
0.0
 31
0.0
  0
LINE
  5
A3
330
78
100
AcDbEntity
  8
0
  6
CONTINUOUS
 62
     0
100
AcDbLine
 10
0.0
 20
0.0
 30
0.0
 11
-1.0
 21
0.166666667
 31
0.0
  0
LINE
  5
A4
330
78
100
AcDbEntity
  8
0
  6
CONTINUOUS
 62
     0
100
AcDbLine
 10
0.0
 20
0.0
 30
0.0
 11
-1.0
 21
-0.166666667
 31
0.0
  0
ENDBLK
  5
7A
330
78
100
AcDbEntity
  8
0
100
AcDbBlockEnd
  0
BLOCK
  5
7C
330
7B
100
AcDbEntity
  8
0
100
AcDbBlockBegin
  2
EX_BNORM
 70
     0
 10
0.0
 20
0.0
 30
0.0
  3
EX_BNORM
  1

  0
LINE
  5
A5
330
7B
100
AcDbEntity
  8
0
  6
CONTINUOUS
 62
     0
100
AcDbLine
 10
0.0
 20
0.0
 30
0.0
 11
-1.0
 21
0.0
 31
0.0
  0
LINE
  5
A6
330
7B
100
AcDbEntity
  8
0
  6
CONTINUOUS
 62
     0
100
AcDbLine
 10
0.0
 20
0.0
 30
0.0
 11
-1.0
 21
0.166666667
 31
0.0
  0
LINE
  5
A7
330
7B
100
AcDbEntity
  8
0
  6
CONTINUOUS
 62
     0
100
AcDbLine
 10
0.0
 20
0.0
 30
0.0
 11
-1.0
 21
-0.166666667
 31
0.0
  0
LINE
  5
A8
330
7B
100
AcDbEntity
  8
0
  6
CONTINUOUS
 62
     0
100
AcDbLine
 10
0.0
 20
0.0
 30
0.0
 11
-1.0
 21
0.083333333
 31
0.0
  0
LINE
  5
A9
330
7B
100
AcDbEntity
  8
0
  6
CONTINUOUS
 62
     0
100
AcDbLine
 10
0.0
 20
0.0
 30
0.0
 11
-1.0
 21
-0.083333333
 31
0.0
  0
LINE
  5
AA
330
7B
100
AcDbEntity
  8
0
  6
CONTINUOUS
 62
     0
100
AcDbLine
 10
-1.0
 20
0.166666667
 30
0.0
 11
-1.0
 21
-0.166666667
 31
0.0
  0
ENDBLK
  5
7D
330
7B
100
AcDbEntity
  8
0
100
AcDbBlockEnd
  0
BLOCK
  5
7F
330
7E
100
AcDbEntity
  8
0
100
AcDbBlockBegin
  2
EX_BCIR
 70
     0
 10
0.0
 20
0.0
 30
0.0
  3
EX_BCIR
  1

  0
LINE
  5
AB
330
7E
100
AcDbEntity
  8
0
  6
CONTINUOUS
 62
     0
100
AcDbLine
 10
0.0
 20
0.0
 30
0.0
 11
-1.0
 21
0.0
 31
0.0
  0
CIRCLE
  5
AC
330
7E
100
AcDbEntity
  8
0
  6
CONTINUOUS
 62
     0
100
AcDbCircle
 10
0.0
 20
0.0
 30
0.0
 40
0.5
  0
CIRCLE
  5
AD
330
7E
100
AcDbEntity
  8
0
  6
CONTINUOUS
 62
     0
100
AcDbCircle
 10
0.0
 20
0.0
 30
0.0
 40
0.25
  0
ENDBLK
  5
80
330
7E
100
AcDbEntity
  8
0
100
AcDbBlockEnd
  0
BLOCK
  5
82
330
81
100
AcDbEntity
  8
0
100
AcDbBlockBegin
  2
EX_RCIVIL
 70
     0
 10
0.0
 20
0.0
 30
0.0
  3
EX_RCIVIL
  1

  0
LINE
  5
AE
330
81
100
AcDbEntity
  8
0
  6
CONTINUOUS
 62
     0
100
AcDbLine
 10
0.0
 20
0.0
 30
0.0
 11
-1.0
 21
0.0
 31
0.0
  0
LINE
  5
AF
330
81
100
AcDbEntity
  8
0
  6
CONTINUOUS
 62
     0
100
AcDbLine
 10
-1.0
 20
-0.25
 30
0.0
 11
0.0
 21
-0.25
 31
0.0
  0
LINE
  5
B0
330
81
100
AcDbEntity
  8
0
  6
CONTINUOUS
 62
     0
100
AcDbLine
 10
-1.0
 20
-0.125
 30
0.0
 11
0.0
 21
-0.125
 31
0.0
  0
ENDBLK
  5
83
330
81
100
AcDbEntity
  8
0
100
AcDbBlockEnd
  0
BLOCK
  5
85
330
84
100
AcDbEntity
  8
0
100
AcDbBlockBegin
  2
EX_SLANT
 70
     0
 10
0.0
 20
0.0
 30
0.0
  3
EX_SLANT
  1

  0
LINE
  5
B1
330
84
100
AcDbEntity
  8
0
  6
CONTINUOUS
 62
     0
100
AcDbLine
 10
0.0
 20
0.0
 30
0.0
 11
-1.0
 21
0.0
 31
0.0
  0
LINE
  5
B2
330
84
100
AcDbEntity
  8
0
  6
CONTINUOUS
 62
     0
100
AcDbLine
 10
0.707106781
 20
0.707106781
 30
0.0
 11
-0.707106781
 21
-0.707106781
 31
0.0
  0
ENDBLK
  5
86
330
84
100
AcDbEntity
  8
0
100
AcDbBlockEnd
  0
BLOCK
  5
88
330
87
100
AcDbEntity
  8
0
100
AcDbBlockBegin
  2
EX_NONE
 70
     0
 10
0.0
 20
0.0
 30
0.0
  3
EX_NONE
  1

  0
LINE
  5
B3
330
87
100
AcDbEntity
  8
0
  6
CONTINUOUS
 62
     0
100
AcDbLine
 10
0.0
 20
0.0
 30
0.0
 11
-1.0
 21
0.0
 31
0.0
  0
ENDBLK
  5
89
330
87
100
AcDbEntity
  8
0
100
AcDbBlockEnd
  0
BLOCK
  5
8B
330
8A
100
AcDbEntity
  8
0
100
AcDbBlockBegin
  2
EX_CIVIL
 70
     0
 10
0.0
 20
0.0
 30
0.0
  3
EX_CIVIL
  1

  0
LINE
  5
B4
330
8A
100
AcDbEntity
  8
0
  6
CONTINUOUS
 62
     0
100
AcDbLine
 10
0.0
 20
0.0
 30
0.0
 11
-1.0
 21
0.0
 31
0.0
  0
LINE
  5
B5
330
8A
100
AcDbEntity
  8
0
  6
CONTINUOUS
 62
     0
100
AcDbLine
 10
-1.0
 20
0.25
 30
0.0
 11
0.0
 21
0.25
 31
0.0
  0
LINE
  5
B6
330
8A
100
AcDbEntity
  8
0
  6
CONTINUOUS
 62
     0
100
AcDbLine
 10
-1.0
 20
0.125
 30
0.0
 11
0.0
 21
0.125
 31
0.0
  0
ENDBLK
  5
8C
330
8A
100
AcDbEntity
  8
0
100
AcDbBlockEnd
  0
BLOCK
  5
8E
330
8D
100
AcDbEntity
  8
0
100
AcDbBlockBegin
  2
EX_WCIR
 70
     0
 10
0.0
 20
0.0
 30
0.0
  3
EX_WCIR
  1

  0
LINE
  5
B7
330
8D
100
AcDbEntity
  8
0
  6
CONTINUOUS
 62
     0
100
AcDbLine
 10
0.0
 20
0.0
 30
0.0
 11
-1.0
 21
0.0
 31
0.0
  0
CIRCLE
  5
B8
330
8D
100
AcDbEntity
  8
0
  6
CONTINUOUS
 62
     0
100
AcDbCircle
 10
0.0
 20
0.0
 30
0.0
 40
0.5
  0
ENDBLK
  5
8F
330
8D
100
AcDbEntity
  8
0
100
AcDbBlockEnd
  0
BLOCK
  5
91
330
90
100
AcDbEntity
  8
0
100
AcDbBlockBegin
  2
EX_WCIR2
 70
     0
 10
0.0
 20
0.0
 30
0.0
  3
EX_WCIR2
  1

  0
LINE
  5
B9
330
90
100
AcDbEntity
  8
0
  6
CONTINUOUS
 62
     0
100
AcDbLine
 10
-0.5
 20
0.0
 30
0.0
 11
-1.0
 21
0.0
 31
0.0
  0
CIRCLE
  5
BA
330
90
100
AcDbEntity
  8
0
  6
CONTINUOUS
 62
     0
100
AcDbCircle
 10
0.0
 20
0.0
 30
0.0
 40
0.5
  0
ENDBLK
  5
92
330
90
100
AcDbEntity
  8
0
100
AcDbBlockEnd
  0
BLOCK
  5
94
330
93
100
AcDbEntity
  8
0
100
AcDbBlockBegin
  2
EX_WNORM
 70
     0
 10
0.0
 20
0.0
 30
0.0
  3
EX_WNORM
  1

  0
LINE
  5
BB
330
93
100
AcDbEntity
  8
0
  6
CONTINUOUS
 62
     0
100
AcDbLine
 10
-1.0
 20
0.0
 30
0.0
 11
-1.0
 21
0.0
 31
0.0
  0
LINE
  5
BC
330
93
100
AcDbEntity
  8
0
  6
CONTINUOUS
 62
     0
100
AcDbLine
 10
0.0
 20
0.0
 30
0.0
 11
-1.0
 21
0.166666667
 31
0.0
  0
LINE
  5
BD
330
93
100
AcDbEntity
  8
0
  6
CONTINUOUS
 62
     0
100
AcDbLine
 10
0.0
 20
0.0
 30
0.0
 11
-1.0
 21
-0.166666667
 31
0.0
  0
LINE
  5
BE
330
93
100
AcDbEntity
  8
0
  6
CONTINUOUS
 62
     0
100
AcDbLine
 10
-1.0
 20
0.166666667
 30
0.0
 11
-1.0
 21
-0.166666667
 31
0.0
  0
ENDBLK
  5
95
330
93
100
AcDbEntity
  8
0
100
AcDbBlockEnd
  0
BLOCK
  5
97
330
96
100
AcDbEntity
  8
0
100
AcDbBlockBegin
  2
EX_NNORM
 70
     0
 10
0.0
 20
0.0
 30
0.0
  3
EX_NNORM
  1

  0
LINE
  5
BF
330
96
100
AcDbEntity
  8
0
  6
CONTINUOUS
 62
     0
100
AcDbLine
 10
0.0
 20
0.0
 30
0.0
 11
-1.0
 21
0.0
 31
0.0
  0
LINE
  5
C0
330
96
100
AcDbEntity
  8
0
  6
CONTINUOUS
 62
     0
100
AcDbLine
 10
0.0
 20
0.0
 30
0.0
 11
-1.0
 21
0.166666667
 31
0.0
  0
LINE
  5
C1
330
96
100
AcDbEntity
  8
0
  6
CONTINUOUS
 62
     0
100
AcDbLine
 10
0.0
 20
0.0
 30
0.0
 11
-1.0
 21
-0.166666667
 31
0.0
  0
LINE
  5
C2
330
96
100
AcDbEntity
  8
0
  6
CONTINUOUS
 62
     0
100
AcDbLine
 10
-1.0
 20
0.166666667
 30
0.0
 11
-1.0
 21
-0.166666667
 31
0.0
  0
ENDBLK
  5
98
330
96
100
AcDbEntity
  8
0
100
AcDbBlockEnd
  0
BLOCK
  5
9A
330
99
100
AcDbEntity
  8
0
100
AcDbBlockBegin
  2
EX_BBOX
 70
     0
 10
0.0
 20
0.0
 30
0.0
  3
EX_BBOX
  1

  0
LINE
  5
C3
330
99
100
AcDbEntity
  8
0
  6
CONTINUOUS
 62
     0
100
AcDbLine
 10
0.0
 20
0.0
 30
0.0
 11
-1.0
 21
0.0
 31
0.0
  0
LINE
  5
C4
330
99
100
AcDbEntity
  8
0
  6
CONTINUOUS
 62
     0
100
AcDbLine
 10
-0.5
 20
0.5
 30
0.0
 11
0.5
 21
0.5
 31
0.0
  0
LINE
  5
C5
330
99
100
AcDbEntity
  8
0
  6
CONTINUOUS
 62
     0
100
AcDbLine
 10
0.5
 20
0.5
 30
0.0
 11
0.5
 21
-0.5
 31
0.0
  0
LINE
  5
C6
330
99
100
AcDbEntity
  8
0
  6
CONTINUOUS
 62
     0
100
AcDbLine
 10
0.5
 20
-0.5
 30
0.0
 11
-0.5
 21
-0.5
 31
0.0
  0
LINE
  5
C7
330
99
100
AcDbEntity
  8
0
  6
CONTINUOUS
 62
     0
100
AcDbLine
 10
-0.5
 20
-0.5
 30
0.0
 11
-0.5
 21
0.5
 31
0.0
  0
LINE
  5
C8
330
99
100
AcDbEntity
  8
0
  6
CONTINUOUS
 62
     0
100
AcDbLine
 10
-0.25
 20
0.25
 30
0.0
 11
0.25
 21
0.25
 31
0.0
  0
LINE
  5
C9
330
99
100
AcDbEntity
  8
0
  6
CONTINUOUS
 62
     0
100
AcDbLine
 10
0.25
 20
0.25
 30
0.0
 11
0.25
 21
-0.25
 31
0.0
  0
LINE
  5
CA
330
99
100
AcDbEntity
  8
0
  6
CONTINUOUS
 62
     0
100
AcDbLine
 10
0.25
 20
-0.25
 30
0.0
 11
-0.25
 21
-0.25
 31
0.0
  0
LINE
  5
CB
330
99
100
AcDbEntity
  8
0
  6
CONTINUOUS
 62
     0
100
AcDbLine
 10
-0.25
 20
-0.25
 30
0.0
 11
-0.25
 21
0.25
 31
0.0
  0
ENDBLK
  5
9B
330
99
100
AcDbEntity
  8
0
100
AcDbBlockEnd
  0
BLOCK
  5
9D
330
9C
100
AcDbEntity
  8
0
100
AcDbBlockBegin
  2
EX_WBOX
 70
     0
 10
0.0
 20
0.0
 30
0.0
  3
EX_WBOX
  1

  0
LINE
  5
CC
330
9C
100
AcDbEntity
  8
0
  6
CONTINUOUS
 62
     0
100
AcDbLine
 10
-0.5
 20
0.0
 30
0.0
 11
-1.0
 21
0.0
 31
0.0
  0
LINE
  5
CD
330
9C
100
AcDbEntity
  8
0
  6
CONTINUOUS
 62
     0
100
AcDbLine
 10
-0.5
 20
0.5
 30
0.0
 11
0.5
 21
0.5
 31
0.0
  0
LINE
  5
CE
330
9C
100
AcDbEntity
  8
0
  6
CONTINUOUS
 62
     0
100
AcDbLine
 10
0.5
 20
0.5
 30
0.0
 11
0.5
 21
-0.5
 31
0.0
  0
LINE
  5
CF
330
9C
100
AcDbEntity
  8
0
  6
CONTINUOUS
 62
     0
100
AcDbLine
 10
0.5
 20
-0.5
 30
0.0
 11
-0.5
 21
-0.5
 31
0.0
  0
LINE
  5
D0
330
9C
100
AcDbEntity
  8
0
  6
CONTINUOUS
 62
     0
100
AcDbLine
 10
-0.5
 20
-0.5
 30
0.0
 11
-0.5
 21
0.5
 31
0.0
  0
ENDBLK
  5
9E
330
9C
100
AcDbEntity
  8
0
100
AcDbBlockEnd
  0
BLOCK
  5
A0
330
9F
100
AcDbEntity
  8
0
100
AcDbBlockBegin
  2
EX_INTEGRAL
 70
     0
 10
0.0
 20
0.0
 30
0.0
  3
EX_INTEGRAL
  1

  0
LINE
  5
D1
330
9F
100
AcDbEntity
  8
0
  6
CONTINUOUS
 62
     0
100
AcDbLine
 10
0.0
 20
0.0
 30
0.0
 11
-1.0
 21
0.0
 31
0.0
  0
ARC
  5
D2
330
9F
100
AcDbEntity
  8
0
  6
CONTINUOUS
 62
     0
100
AcDbCircle
 10
0.542115
 20
0.164992
 30
0.0
 40
0.56667
100
AcDbArc
 50
73.07249033629006
 51
196.9275130221199
  0
ARC
  5
D3
330
9F
100
AcDbEntity
  8
0
  6
CONTINUOUS
 62
     0
100
AcDbCircle
 10
-0.542115
 20
-0.164992
 30
0.0
 40
0.56667
100
AcDbArc
 50
253.0724869220464
 51
16.9275130559125
  0
ENDBLK
  5
A1
330
9F
100
AcDbEntity
  8
0
100
AcDbBlockEnd
  0
BLOCK
  5
427
330
426
100
AcDbEntity
  8
0
100
AcDbBlockBegin
  2
*D15
 70
     1
 10
0.0
 20
0.0
 30
0.0
  3
*D15
  1

  0
LINE
  5
429
330
426
100
AcDbEntity
  8
LAY-20
  6
CONTINUOUS
 62
     4
100
AcDbLine
 10
383.100000000001
 20
197.5
 30
0.0
 11
383.100000000001
 21
155.4999999999999
 31
0.0
  0
LINE
  5
42A
330
426
100
AcDbEntity
  8
LAY-20
  6
CONTINUOUS
 62
     4
100
AcDbLine
 10
546.9000000000011
 20
197.5
 30
0.0
 11
546.9000000000011
 21
155.4999999999999
 31
0.0
  0
LINE
  5
42B
330
426
100
AcDbEntity
  8
LAY-20
  6
CONTINUOUS
 62
     4
100
AcDbLine
 10
390.600000000001
 20
159.9999999999999
 30
0.0
 11
539.4000000000011
 21
159.9999999999999
 31
0.0
  0
INSERT
  5
42C
330
426
100
AcDbEntity
  8
LAY-20
 62
     4
100
AcDbBlockReference
  2
EX_BNORM
 10
383.100000000001
 20
159.9999999999999
 30
0.0
 41
7.5
 42
7.5
 43
7.5
 50
180.0
  0
INSERT
  5
42D
330
426
100
AcDbEntity
  8
LAY-20
 62
     4
100
AcDbBlockReference
  2
EX_BNORM
 10
546.9000000000011
 20
159.9999999999999
 30
0.0
 41
7.5
 42
7.5
 43
7.5
  0
MTEXT
  5
42E
330
426
100
AcDbEntity
  8
LAY-20
 62
     7
100
AcDbMText
 10
465.000000000001
 20
167.4999999999999
 30
0.0
 40
9.3543312
 41
0.0
 71
     5
 72
     1
  1
Rｃ6（163.8）
  7
EXCADDIM1
  0
POINT
  5
42F
330
426
100
AcDbEntity
  8
DEFPOINTS
 62
     0
100
AcDbPoint
 10
383.100000000001
 20
202.0
 30
0.0
  0
POINT
  5
430
330
426
100
AcDbEntity
  8
DEFPOINTS
 62
     0
100
AcDbPoint
 10
546.9000000000011
 20
202.0
 30
0.0
  0
POINT
  5
431
330
426
100
AcDbEntity
  8
DEFPOINTS
 62
     0
100
AcDbPoint
 10
546.9000000000011
 20
159.9999999999999
 30
0.0
  0
ENDBLK
  5
428
330
426
100
AcDbEntity
  8
0
100
AcDbBlockEnd
  0
BLOCK
  5
434
330
433
100
AcDbEntity
  8
0
100
AcDbBlockBegin
  2
*D16
 70
     1
 10
0.0
 20
0.0
 30
0.0
  3
*D16
  1

  0
LINE
  5
436
330
433
100
AcDbEntity
  8
LAY-20
  6
CONTINUOUS
 62
     4
100
AcDbLine
 10
352.500000000001
 20
244.89354956092
 30
0.0
 11
290.500000000011
 21
244.89354956092
 31
0.0
  0
LINE
  5
437
330
433
100
AcDbEntity
  8
LAY-20
  6
CONTINUOUS
 62
     4
100
AcDbLine
 10
321.500000000001
 20
270.0
 30
0.0
 11
290.500000000011
 21
270.0
 31
0.0
  0
LINE
  5
438
330
433
100
AcDbEntity
  8
LAY-20
  6
CONTINUOUS
 62
     4
100
AcDbLine
 10
295.000000000011
 20
252.39354956092
 30
0.0
 11
295.000000000011
 21
262.5
 31
0.0
  0
INSERT
  5
439
330
433
100
AcDbEntity
  8
LAY-20
 62
     4
100
AcDbBlockReference
  2
EX_BNORM
 10
295.000000000011
 20
244.89354956092
 30
0.0
 41
7.5
 42
7.5
 43
7.5
 50
270.0
  0
INSERT
  5
43A
330
433
100
AcDbEntity
  8
LAY-20
 62
     4
100
AcDbBlockReference
  2
EX_BNORM
 10
295.000000000011
 20
270.0
 30
0.0
 41
7.5
 42
7.5
 43
7.5
 50
90.0
  0
MTEXT
  5
43B
330
433
100
AcDbEntity
  8
LAY-20
 62
     7
100
AcDbMText
 10
287.500000000011
 20
257.44677478046
 30
0.0
 40
9.3543312
 41
0.0
 71
     5
 72
     1
  1
25
  7
EXCADDIM1
 11
0.0
 21
1.0
 31
0.0
  0
POINT
  5
43C
330
433
100
AcDbEntity
  8
DEFPOINTS
 62
     0
100
AcDbPoint
 10
357.000000000001
 20
244.89354956092
 30
0.0
  0
POINT
  5
43D
330
433
100
AcDbEntity
  8
DEFPOINTS
 62
     0
100
AcDbPoint
 10
326.000000000001
 20
270.0
 30
0.0
  0
POINT
  5
43E
330
433
100
AcDbEntity
  8
DEFPOINTS
 62
     0
100
AcDbPoint
 10
295.000000000011
 20
270.0
 30
0.0
  0
ENDBLK
  5
435
330
433
100
AcDbEntity
  8
0
100
AcDbBlockEnd
  0
BLOCK
  5
441
330
440
100
AcDbEntity
  8
0
100
AcDbBlockBegin
  2
*D17
 70
     1
 10
0.0
 20
0.0
 30
0.0
  3
*D17
  1

  0
LINE
  5
443
330
440
100
AcDbEntity
  8
LAY-20
  6
CONTINUOUS
 62
     4
100
AcDbLine
 10
595.000000000002
 20
277.49999999999
 30
0.0
 11
595.000000000002
 21
370.5000000000002
 31
0.0
  0
LINE
  5
444
330
440
100
AcDbEntity
  8
LAY-20
  6
CONTINUOUS
 62
     4
100
AcDbLine
 10
335.000000000001
 20
277.49999999999
 30
0.0
 11
335.000000000001
 21
370.5000000000002
 31
0.0
  0
LINE
  5
445
330
440
100
AcDbEntity
  8
LAY-20
  6
CONTINUOUS
 62
     4
100
AcDbLine
 10
587.500000000002
 20
366.0000000000001
 30
0.0
 11
342.500000000001
 21
366.0000000000001
 31
0.0
  0
INSERT
  5
446
330
440
100
AcDbEntity
  8
LAY-20
 62
     4
100
AcDbBlockReference
  2
EX_BNORM
 10
595.000000000002
 20
366.0000000000001
 30
0.0
 41
7.5
 42
7.5
 43
7.5
  0
INSERT
  5
447
330
440
100
AcDbEntity
  8
LAY-20
 62
     4
100
AcDbBlockReference
  2
EX_BNORM
 10
335.000000000001
 20
366.0000000000001
 30
0.0
 41
7.5
 42
7.5
 43
7.5
 50
180.0
  0
MTEXT
  5
448
330
440
100
AcDbEntity
  8
LAY-20
 62
     7
100
AcDbMText
 10
465.0000000000015
 20
373.5
 30
0.0
 40
9.3543312
 41
0.0
 71
     5
 72
     1
  1
%%c260
  7
EXCADDIM1
  0
POINT
  5
449
330
440
100
AcDbEntity
  8
DEFPOINTS
 62
     0
100
AcDbPoint
 10
595.000000000002
 20
272.99999999999
 30
0.0
  0
POINT
  5
44A
330
440
100
AcDbEntity
  8
DEFPOINTS
 62
     0
100
AcDbPoint
 10
335.000000000001
 20
272.99999999999
 30
0.0
  0
POINT
  5
44B
330
440
100
AcDbEntity
  8
DEFPOINTS
 62
     0
100
AcDbPoint
 10
335.000000000001
 20
366.0000000000001
 30
0.0
  0
ENDBLK
  5
442
330
440
100
AcDbEntity
  8
0
100
AcDbBlockEnd
  0
BLOCK
  5
44E
330
44D
100
AcDbEntity
  8
0
100
AcDbBlockBegin
  2
*D18
 70
     1
 10
0.0
 20
0.0
 30
0.0
  3
*D18
  1

  0
LINE
  5
450
330
44D
100
AcDbEntity
  8
LAY-20
  6
CONTINUOUS
 62
     4
100
AcDbLine
 10
325.000000000011
 20
267.50000000007
 30
0.0
 11
325.000000000011
 21
391.5
 31
0.0
  0
LINE
  5
451
330
44D
100
AcDbEntity
  8
LAY-20
  6
CONTINUOUS
 62
     4
100
AcDbLine
 10
605.000000000001
 20
267.5000000000001
 30
0.0
 11
605.000000000001
 21
391.5
 31
0.0
  0
LINE
  5
452
330
44D
100
AcDbEntity
  8
LAY-20
  6
CONTINUOUS
 62
     4
100
AcDbLine
 10
332.500000000011
 20
387.0
 30
0.0
 11
597.500000000001
 21
387.0
 31
0.0
  0
INSERT
  5
453
330
44D
100
AcDbEntity
  8
LAY-20
 62
     4
100
AcDbBlockReference
  2
EX_BNORM
 10
325.000000000011
 20
387.0
 30
0.0
 41
7.5
 42
7.5
 43
7.5
 50
180.0
  0
INSERT
  5
454
330
44D
100
AcDbEntity
  8
LAY-20
 62
     4
100
AcDbBlockReference
  2
EX_BNORM
 10
605.000000000001
 20
387.0
 30
0.0
 41
7.5
 42
7.5
 43
7.5
  0
MTEXT
  5
455
330
44D
100
AcDbEntity
  8
LAY-20
 62
     7
100
AcDbMText
 10
465.000000000006
 20
394.5
 30
0.0
 40
9.3543312
 41
0.0
 71
     5
 72
     1
  1
%%c280
  7
EXCADDIM1
  0
POINT
  5
456
330
44D
100
AcDbEntity
  8
DEFPOINTS
 62
     0
100
AcDbPoint
 10
325.000000000011
 20
263.00000000007
 30
0.0
  0
POINT
  5
457
330
44D
100
AcDbEntity
  8
DEFPOINTS
 62
     0
100
AcDbPoint
 10
605.000000000001
 20
263.0000000000001
 30
0.0
  0
POINT
  5
458
330
44D
100
AcDbEntity
  8
DEFPOINTS
 62
     0
100
AcDbPoint
 10
605.000000000001
 20
387.0
 30
0.0
  0
ENDBLK
  5
44F
330
44D
100
AcDbEntity
  8
0
100
AcDbBlockEnd
  0
BLOCK
  5
45B
330
45A
100
AcDbEntity
  8
0
100
AcDbBlockBegin
  2
*D19
 70
     1
 10
0.0
 20
0.0
 30
0.0
  3
*D19
  1

  0
LINE
  5
45D
330
45A
100
AcDbEntity
  8
LAY-20
  6
CONTINUOUS
 62
     4
100
AcDbLine
 10
577.5
 20
190.0
 30
0.0
 11
639.5
 21
190.0
 31
0.0
  0
LINE
  5
45E
330
45A
100
AcDbEntity
  8
LAY-20
  6
CONTINUOUS
 62
     4
100
AcDbLine
 10
608.5
 20
270.0
 30
0.0
 11
639.5
 21
270.0
 31
0.0
  0
LINE
  5
45F
330
45A
100
AcDbEntity
  8
LAY-20
  6
CONTINUOUS
 62
     4
100
AcDbLine
 10
635.0
 20
197.5
 30
0.0
 11
635.0
 21
262.5
 31
0.0
  0
INSERT
  5
460
330
45A
100
AcDbEntity
  8
LAY-20
 62
     4
100
AcDbBlockReference
  2
EX_BNORM
 10
635.0
 20
190.0
 30
0.0
 41
7.5
 42
7.5
 43
7.5
 50
270.0
  0
INSERT
  5
461
330
45A
100
AcDbEntity
  8
LAY-20
 62
     4
100
AcDbBlockReference
  2
EX_BNORM
 10
635.0
 20
270.0
 30
0.0
 41
7.5
 42
7.5
 43
7.5
 50
90.0
  0
MTEXT
  5
462
330
45A
100
AcDbEntity
  8
LAY-20
 62
     7
100
AcDbMText
 10
627.5
 20
230.0
 30
0.0
 40
9.3543312
 41
0.0
 71
     5
 72
     1
  1
80
  7
EXCADDIM1
 11
0.0
 21
1.0
 31
0.0
  0
POINT
  5
463
330
45A
100
AcDbEntity
  8
DEFPOINTS
 62
     0
100
AcDbPoint
 10
573.0
 20
190.0
 30
0.0
  0
POINT
  5
464
330
45A
100
AcDbEntity
  8
DEFPOINTS
 62
     0
100
AcDbPoint
 10
604.0
 20
270.0
 30
0.0
  0
POINT
  5
465
330
45A
100
AcDbEntity
  8
DEFPOINTS
 62
     0
100
AcDbPoint
 10
635.0
 20
270.0
 30
0.0
  0
ENDBLK
  5
45C
330
45A
100
AcDbEntity
  8
0
100
AcDbBlockEnd
  0
BLOCK
  5
468
330
467
100
AcDbEntity
  8
0
100
AcDbBlockBegin
  2
*D20
 70
     1
 10
0.0
 20
0.0
 30
0.0
  3
*D20
  1

  0
LINE
  5
46A
330
467
100
AcDbEntity
  8
LAY-20
  6
CONTINUOUS
 62
     4
100
AcDbLine
 10
545.47942913437
 20
314.99999999999
 30
0.0
 11
639.5
 21
314.99999999999
 31
0.0
  0
LINE
  5
46B
330
467
100
AcDbEntity
  8
LAY-20
  6
CONTINUOUS
 62
     4
100
AcDbLine
 10
635.0
 20
307.49999999999
 30
0.0
 11
635.0
 21
277.5
 31
0.0
  0
INSERT
  5
46C
330
467
100
AcDbEntity
  8
LAY-20
 62
     4
100
AcDbBlockReference
  2
EX_BNORM
 10
635.0
 20
314.99999999999
 30
0.0
 41
7.5
 42
7.5
 43
7.5
 50
90.0
  0
INSERT
  5
46D
330
467
100
AcDbEntity
  8
LAY-20
 62
     4
100
AcDbBlockReference
  2
EX_BNORM
 10
635.0
 20
270.0
 30
0.0
 41
7.5
 42
7.5
 43
7.5
 50
270.0
  0
MTEXT
  5
46E
330
467
100
AcDbEntity
  8
LAY-20
 62
     7
100
AcDbMText
 10
627.5
 20
292.499999999995
 30
0.0
 40
9.3543312
 41
0.0
 71
     5
 72
     1
  1
45
  7
EXCADDIM1
 11
0.0
 21
1.0
 31
0.0
  0
POINT
  5
46F
330
467
100
AcDbEntity
  8
DEFPOINTS
 62
     0
100
AcDbPoint
 10
540.97942913437
 20
314.99999999999
 30
0.0
  0
POINT
  5
470
330
467
100
AcDbEntity
  8
DEFPOINTS
 62
     0
100
AcDbPoint
 10
635.0
 20
270.0
 30
0.0
  0
POINT
  5
471
330
467
100
AcDbEntity
  8
DEFPOINTS
 62
     0
100
AcDbPoint
 10
635.0
 20
270.0
 30
0.0
  0
ENDBLK
  5
469
330
467
100
AcDbEntity
  8
0
100
AcDbBlockEnd
  0
BLOCK
  5
474
330
473
100
AcDbEntity
  8
0
100
AcDbBlockBegin
  2
*D21
 70
     1
 10
0.0
 20
0.0
 30
0.0
  3
*D21
  1

  0
LINE
  5
476
330
473
100
AcDbEntity
  8
LAY-20
  6
CONTINUOUS
 62
     4
100
AcDbLine
 10
356.5
 20
279.49999999999
 30
0.0
 11
356.5
 21
349.5
 31
0.0
  0
LINE
  5
477
330
473
100
AcDbEntity
  8
LAY-20
  6
CONTINUOUS
 62
     4
100
AcDbLine
 10
573.5
 20
279.49999999999
 30
0.0
 11
573.5
 21
349.5
 31
0.0
  0
LINE
  5
478
330
473
100
AcDbEntity
  8
LAY-20
  6
CONTINUOUS
 62
     4
100
AcDbLine
 10
364.0
 20
345.0
 30
0.0
 11
566.0
 21
345.0
 31
0.0
  0
INSERT
  5
479
330
473
100
AcDbEntity
  8
LAY-20
 62
     4
100
AcDbBlockReference
  2
EX_BNORM
 10
356.5
 20
345.0
 30
0.0
 41
7.5
 42
7.5
 43
7.5
 50
180.0
  0
INSERT
  5
47A
330
473
100
AcDbEntity
  8
LAY-20
 62
     4
100
AcDbBlockReference
  2
EX_BNORM
 10
573.5
 20
345.0
 30
0.0
 41
7.5
 42
7.5
 43
7.5
  0
MTEXT
  5
47B
330
473
100
AcDbEntity
  8
LAY-20
 62
     7
100
AcDbMText
 10
465.0
 20
352.5
 30
0.0
 40
9.3543312
 41
0.0
 71
     5
 72
     1
  1
%%c217
  7
EXCADDIM1
  0
POINT
  5
47C
330
473
100
AcDbEntity
  8
DEFPOINTS
 62
     0
100
AcDbPoint
 10
356.5
 20
274.99999999999
 30
0.0
  0
POINT
  5
47D
330
473
100
AcDbEntity
  8
DEFPOINTS
 62
     0
100
AcDbPoint
 10
573.5
 20
274.99999999999
 30
0.0
  0
POINT
  5
47E
330
473
100
AcDbEntity
  8
DEFPOINTS
 62
     0
100
AcDbPoint
 10
573.5
 20
345.0
 30
0.0
  0
ENDBLK
  5
475
330
473
100
AcDbEntity
  8
0
100
AcDbBlockEnd
  0
ENDSEC
  0
SECTION
  2
ENTITIES
  0
LINE
  5
D4
330
1F
100
AcDbEntity
  8
LAY-10
  6
CONTINUOUS
 62
     7
100
AcDbLine
 10
357.0000000000034
 20
243.7401153701798
 30
0.0
 11
358.1534341907375
 21
244.893549560914
 31
0.0
  0
LINE
  5
D5
330
1F
100
AcDbEntity
  8
LAY-10
  6
CONTINUOUS
 62
     7
100
AcDbLine
 10
357.0000000000046
 20
240.911688245435
 30
0.0
 11
360.9818613154824
 21
244.8935495609128
 31
0.0
  0
LINE
  5
D6
330
1F
100
AcDbEntity
  8
LAY-10
  6
CONTINUOUS
 62
     7
100
AcDbLine
 10
357.000000000002
 20
238.0832611206863
 30
0.0
 11
363.8102884402311
 21
244.8935495609153
 31
0.0
  0
LINE
  5
D7
330
1F
100
AcDbEntity
  8
LAY-10
  6
CONTINUOUS
 62
     7
100
AcDbLine
 10
356.9999999999994
 20
235.2548339959375
 30
0.0
 11
364.0000000000006
 21
242.2548339959387
 31
0.0
  0
LINE
  5
D8
330
1F
100
AcDbEntity
  8
LAY-10
  6
CONTINUOUS
 62
     7
100
AcDbLine
 10
357.0000000000045
 20
232.4264068711964
 30
0.0
 11
364.0000000000018
 21
239.4264068711937
 31
0.0
  0
LINE
  5
D9
330
1F
100
AcDbEntity
  8
LAY-10
  6
CONTINUOUS
 62
     7
100
AcDbLine
 10
357.0000000000019
 20
229.5979797464477
 30
0.0
 11
364.0000000000031
 21
236.5979797464489
 31
0.0
  0
LINE
  5
DA
330
1F
100
AcDbEntity
  8
LAY-10
  6
CONTINUOUS
 62
     7
100
AcDbLine
 10
356.9999999999993
 20
226.7695526216989
 30
0.0
 11
364.0000000000005
 21
233.7695526217001
 31
0.0
  0
LINE
  5
DB
330
1F
100
AcDbEntity
  8
LAY-10
  6
CONTINUOUS
 62
     7
100
AcDbLine
 10
357.0000000000044
 20
223.9411254969579
 30
0.0
 11
364.0000000000018
 21
230.9411254969553
 31
0.0
  0
LINE
  5
DC
330
1F
100
AcDbEntity
  8
LAY-10
  6
CONTINUOUS
 62
     7
100
AcDbLine
 10
357.0000000000018
 20
221.1126983722092
 30
0.0
 11
364.000000000003
 21
228.1126983722103
 31
0.0
  0
LINE
  5
DD
330
1F
100
AcDbEntity
  8
LAY-10
  6
CONTINUOUS
 62
     7
100
AcDbLine
 10
357.0000000000031
 20
218.2842712474643
 30
0.0
 11
364.0000000000043
 21
225.2842712474655
 31
0.0
  0
LINE
  5
DE
330
1F
100
AcDbEntity
  8
LAY-10
  6
CONTINUOUS
 62
     7
100
AcDbLine
 10
357.0000000000005
 20
215.4558441227155
 30
0.0
 11
364.0000000000018
 21
222.4558441227168
 31
0.0
  0
LINE
  5
DF
330
1F
100
AcDbEntity
  8
LAY-10
  6
CONTINUOUS
 62
     7
100
AcDbLine
 10
357.0000000000018
 20
212.6274169979707
 30
0.0
 11
364.000000000003
 21
219.6274169979718
 31
0.0
  0
LINE
  5
E0
330
1F
100
AcDbEntity
  8
LAY-10
  6
CONTINUOUS
 62
     7
100
AcDbLine
 10
357.0000000000031
 20
209.7989898732257
 30
0.0
 11
364.0000000000004
 21
216.7989898732231
 31
0.0
  0
LINE
  5
E1
330
1F
100
AcDbEntity
  8
LAY-10
  6
CONTINUOUS
 62
     7
100
AcDbLine
 10
357.0000000000044
 20
206.9705627484809
 30
0.0
 11
364.0000000000016
 21
213.9705627484782
 31
0.0
  0
LINE
  5
E2
330
1F
100
AcDbEntity
  8
LAY-10
  6
CONTINUOUS
 62
     7
100
AcDbLine
 10
357.0000000000018
 20
204.1421356237321
 30
0.0
 11
364.000000000003
 21
211.1421356237334
 31
0.0
  0
LINE
  5
E3
330
1F
100
AcDbEntity
  8
LAY-10
  6
CONTINUOUS
 62
     7
100
AcDbLine
 10
357.000000000003
 20
201.3137084989873
 30
0.0
 11
364.0000000000042
 21
208.3137084989885
 31
0.0
  0
LINE
  5
E4
330
1F
100
AcDbEntity
  8
LAY-10
  6
CONTINUOUS
 62
     7
100
AcDbLine
 10
357.0000000000043
 20
198.4852813742425
 30
0.0
 11
364.0000000000016
 21
205.4852813742397
 31
0.0
  0
LINE
  5
E5
330
1F
100
AcDbEntity
  8
LAY-10
  6
CONTINUOUS
 62
     7
100
AcDbLine
 10
357.0000000000016
 20
195.6568542494937
 30
0.0
 11
364.0000000000028
 21
202.6568542494949
 31
0.0
  0
LINE
  5
E6
330
1F
100
AcDbEntity
  8
LAY-10
  6
CONTINUOUS
 62
     7
100
AcDbLine
 10
357.000000000003
 20
192.8284271247488
 30
0.0
 11
364.0000000000002
 21
199.8284271247461
 31
0.0
  0
LINE
  5
E7
330
1F
100
AcDbEntity
  8
LAY-10
  6
CONTINUOUS
 62
     7
100
AcDbLine
 10
356.9999999999965
 20
189.9999999999962
 30
0.0
 11
364.0000000000015
 21
197.0000000000012
 31
0.0
  0
LINE
  5
E8
330
1F
100
AcDbEntity
  8
LAY-10
  6
CONTINUOUS
 62
     7
100
AcDbLine
 10
359.8284271247375
 20
189.999999999991
 30
0.0
 11
364.0000000000028
 21
194.1715728752563
 31
0.0
  0
LINE
  5
E9
330
1F
100
AcDbEntity
  8
LAY-10
  6
CONTINUOUS
 62
     7
100
AcDbLine
 10
362.6568542494863
 20
189.9999999999936
 30
0.0
 11
364.0000000000002
 21
191.3431457505075
 31
0.0
  0
LINE
  5
EA
330
1F
100
AcDbEntity
  8
LAY-10
  6
CONTINUOUS
 62
     7
100
AcDbLine
 10
566.0000000000016
 20
243.7401153701782
 30
0.0
 11
567.1534341907474
 21
244.893549560924
 31
0.0
  0
LINE
  5
EB
330
1F
100
AcDbEntity
  8
LAY-10
  6
CONTINUOUS
 62
     7
100
AcDbLine
 10
566.000000000003
 20
240.9116882454333
 30
0.0
 11
569.9818613154885
 21
244.8935495609189
 31
0.0
  0
LINE
  5
EC
330
1F
100
AcDbEntity
  8
LAY-10
  6
CONTINUOUS
 62
     7
100
AcDbLine
 10
565.9999999999965
 20
238.0832611206806
 30
0.0
 11
572.8102884402373
 21
244.8935495609214
 31
0.0
  0
LINE
  5
ED
330
1F
100
AcDbEntity
  8
LAY-10
  6
CONTINUOUS
 62
     7
100
AcDbLine
 10
566.0000000000016
 20
235.2548339959396
 30
0.0
 11
572.999999999999
 21
242.2548339959369
 31
0.0
  0
LINE
  5
EE
330
1F
100
AcDbEntity
  8
LAY-10
  6
CONTINUOUS
 62
     7
100
AcDbLine
 10
566.000000000003
 20
232.4264068711947
 30
0.0
 11
573.0000000000003
 21
239.426406871192
 31
0.0
  0
LINE
  5
EF
330
1F
100
AcDbEntity
  8
LAY-10
  6
CONTINUOUS
 62
     7
100
AcDbLine
 10
566.0000000000043
 20
229.5979797464498
 30
0.0
 11
573.0000000000016
 21
236.5979797464471
 31
0.0
  0
LINE
  5
F0
330
1F
100
AcDbEntity
  8
LAY-10
  6
CONTINUOUS
 62
     7
100
AcDbLine
 10
565.9999999999978
 20
226.7695526216971
 30
0.0
 11
572.999999999999
 21
233.7695526216984
 31
0.0
  0
LINE
  5
F1
330
1F
100
AcDbEntity
  8
LAY-10
  6
CONTINUOUS
 62
     7
100
AcDbLine
 10
565.9999999999992
 20
223.9411254969523
 30
0.0
 11
573.0000000000003
 21
230.9411254969534
 31
0.0
  0
LINE
  5
F2
330
1F
100
AcDbEntity
  8
LAY-10
  6
CONTINUOUS
 62
     7
100
AcDbLine
 10
566.0000000000043
 20
221.1126983722112
 30
0.0
 11
573.0000000000017
 21
228.1126983722085
 31
0.0
  0
LINE
  5
F3
330
1F
100
AcDbEntity
  8
LAY-10
  6
CONTINUOUS
 62
     7
100
AcDbLine
 10
565.9999999999978
 20
218.2842712474586
 30
0.0
 11
572.999999999999
 21
225.2842712474597
 31
0.0
  0
LINE
  5
F4
330
1F
100
AcDbEntity
  8
LAY-10
  6
CONTINUOUS
 62
     7
100
AcDbLine
 10
565.9999999999992
 20
215.4558441227136
 30
0.0
 11
573.0000000000003
 21
222.4558441227148
 31
0.0
  0
LINE
  5
F5
330
1F
100
AcDbEntity
  8
LAY-10
  6
CONTINUOUS
 62
     7
100
AcDbLine
 10
566.0000000000005
 20
212.6274169979687
 30
0.0
 11
573.0000000000017
 21
219.62741699797
 31
0.0
  0
LINE
  5
F6
330
1F
100
AcDbEntity
  8
LAY-10
  6
CONTINUOUS
 62
     7
100
AcDbLine
 10
565.9999999999978
 20
209.7989898732199
 30
0.0
 11
573.000000000003
 21
216.798989873225
 31
0.0
  0
LINE
  5
F7
330
1F
100
AcDbEntity
  8
LAY-10
  6
CONTINUOUS
 62
     7
100
AcDbLine
 10
565.9999999999992
 20
206.9705627484751
 30
0.0
 11
573.0000000000003
 21
213.9705627484763
 31
0.0
  0
LINE
  5
F8
330
1F
100
AcDbEntity
  8
LAY-10
  6
CONTINUOUS
 62
     7
100
AcDbLine
 10
566.0000000000005
 20
204.1421356237301
 30
0.0
 11
573.0000000000017
 21
211.1421356237313
 31
0.0
  0
LINE
  5
F9
330
1F
100
AcDbEntity
  8
LAY-10
  6
CONTINUOUS
 62
     7
100
AcDbLine
 10
566.0000000000018
 20
201.3137084989852
 30
0.0
 11
573.000000000003
 21
208.3137084989864
 31
0.0
  0
LINE
  5
FA
330
1F
100
AcDbEntity
  8
LAY-10
  6
CONTINUOUS
 62
     7
100
AcDbLine
 10
565.9999999999992
 20
198.4852813742364
 30
0.0
 11
573.0000000000003
 21
205.4852813742376
 31
0.0
  0
LINE
  5
FB
330
1F
100
AcDbEntity
  8
LAY-10
  6
CONTINUOUS
 62
     7
100
AcDbLine
 10
566.0000000000006
 20
195.6568542494915
 30
0.0
 11
573.0000000000017
 21
202.6568542494927
 31
0.0
  0
LINE
  5
FC
330
1F
100
AcDbEntity
  8
LAY-10
  6
CONTINUOUS
 62
     7
100
AcDbLine
 10
566.0000000000018
 20
192.8284271247466
 30
0.0
 11
573.0000000000031
 21
199.8284271247478
 31
0.0
  0
LINE
  5
FD
330
1F
100
AcDbEntity
  8
LAY-10
  6
CONTINUOUS
 62
     7
100
AcDbLine
 10
565.9999999999955
 20
189.9999999999939
 30
0.0
 11
573.0000000000043
 21
197.0000000000029
 31
0.0
  0
LINE
  5
FE
330
1F
100
AcDbEntity
  8
LAY-10
  6
CONTINUOUS
 62
     7
100
AcDbLine
 10
568.8284271247364
 20
189.9999999999888
 30
0.0
 11
573.0000000000017
 21
194.1715728752541
 31
0.0
  0
LINE
  5
FF
330
1F
100
AcDbEntity
  8
LAY-10
  6
CONTINUOUS
 62
     7
100
AcDbLine
 10
571.6568542494891
 20
189.9999999999953
 30
0.0
 11
573.0000000000031
 21
191.3431457505093
 31
0.0
  0
CIRCLE
  5
100
330
1F
100
AcDbEntity
  8
LAY-10
  6
CONTINUOUS
 62
     7
100
AcDbCircle
 10
465.000000000001
 20
554.9999999999862
 30
0.0
 40
140.0000000000002
  0
CIRCLE
  5
101
330
1F
100
AcDbEntity
  8
LAY-10
  6
CONTINUOUS
 62
     7
100
AcDbCircle
 10
465.000000000001
 20
554.9999999999862
 30
0.0
 40
133.9999999999841
  0
CIRCLE
  5
102
330
1F
100
AcDbEntity
  8
LAY-10
  6
CONTINUOUS
 62
     7
100
AcDbCircle
 10
465.000000000001
 20
554.9999999999862
 30
0.0
 40
138.9999999999997
  0
CIRCLE
  5
103
330
1F
100
AcDbEntity
  8
LAY-10
  6
CONTINUOUS
 62
     7
100
AcDbCircle
 10
464.9999999999915
 20
554.9999999999897
 30
0.0
 40
130.0000000000001
  0
LINE
  5
104
330
1F
100
AcDbEntity
  8
LAY-10
  6
CONTINUOUS
 62
     7
100
AcDbLine
 10
355.7937730712937
 20
577.4999999999897
 30
0.0
 11
351.8760608944813
 21
578.3071748878816
 31
0.0
  0
LINE
  5
105
330
1F
100
AcDbEntity
  8
LAY-10
  6
CONTINUOUS
 62
     7
100
AcDbLine
 10
355.7937730712937
 20
532.4999999999897
 30
0.0
 11
351.8760608944813
 21
531.6928251120977
 31
0.0
  0
LINE
  5
106
330
1F
100
AcDbEntity
  8
LAY-10
  6
CONTINUOUS
 62
     7
100
AcDbLine
 10
351.1026302035191
 20
579.4875305706292
 30
0.0
 11
357.1363904651947
 21
578.2443816247697
 31
0.0
  0
LINE
  5
107
330
1F
100
AcDbEntity
  8
LAY-10
  6
CONTINUOUS
 62
     7
100
AcDbLine
 10
351.1026302035194
 20
530.5124694293487
 30
0.0
 11
357.1363904651951
 21
531.7556183752082
 31
0.0
  0
ARC
  5
108
330
1F
100
AcDbEntity
  8
LAY-10
  6
CONTINUOUS
 62
     7
100
AcDbCircle
 10
464.9999999999915
 20
554.9999999999897
 30
0.0
 40
116.5000000000101
100
AcDbArc
 50
167.8663140504153
 51
192.1336859495863
  0
ARC
  5
109
330
1F
100
AcDbEntity
  8
LAY-10
  6
CONTINUOUS
 62
     7
100
AcDbCircle
 10
464.9999999999915
 20
554.9999999999897
 30
0.0
 40
115.5000000000086
100
AcDbArc
 50
168.3581293562194
 51
191.641870643781
  0
ARC
  5
10A
330
1F
100
AcDbEntity
  8
LAY-10
  6
CONTINUOUS
 62
     7
100
AcDbCircle
 10
464.9999999999915
 20
554.9999999999897
 30
0.0
 40
111.5000000000101
100
AcDbArc
 50
168.3581293562191
 51
191.6418706437806
  0
LINE
  5
10B
330
1F
100
AcDbEntity
  8
LAY-10
  6
CONTINUOUS
 62
     7
100
AcDbLine
 10
355.7937730712937
 20
577.4999999999897
 30
0.0
 11
357.1363904651951
 21
578.2443816247697
 31
0.0
  0
LINE
  5
10C
330
1F
100
AcDbEntity
  8
LAY-10
  6
CONTINUOUS
 62
     7
100
AcDbLine
 10
351.8760608944813
 20
578.3071748878816
 30
0.0
 11
351.1026302035191
 21
579.4875305706292
 31
0.0
  0
LINE
  5
10D
330
1F
100
AcDbEntity
  8
LAY-10
  6
CONTINUOUS
 62
     7
100
AcDbLine
 10
351.8760608944813
 20
531.6928251120977
 30
0.0
 11
351.1026302035194
 21
530.5124694293487
 31
0.0
  0
LINE
  5
10E
330
1F
100
AcDbEntity
  8
LAY-10
  6
CONTINUOUS
 62
     7
100
AcDbLine
 10
355.7937730712937
 20
532.4999999999897
 30
0.0
 11
357.1363904651951
 21
531.7556183752082
 31
0.0
  0
LINE
  5
10F
330
1F
100
AcDbEntity
  8
LAY-10
  6
CONTINUOUS
 62
     7
100
AcDbLine
 10
359.1746332282909
 20
519.8824581207904
 30
0.0
 11
355.3782075145098
 21
518.622635990596
 31
0.0
  0
LINE
  5
110
330
1F
100
AcDbEntity
  8
LAY-10
  6
CONTINUOUS
 62
     7
100
AcDbLine
 10
381.6746332282909
 20
480.9113149504911
 30
0.0
 11
378.6853824024017
 21
478.2534249038734
 31
0.0
  0
LINE
  5
111
330
1F
100
AcDbEntity
  8
LAY-10
  6
CONTINUOUS
 62
     7
100
AcDbLine
 10
354.1182190466963
 20
519.2581386518754
 30
0.0
 11
359.9651831865822
 21
521.1984202149109
 31
0.0
  0
LINE
  5
112
330
1F
100
AcDbEntity
  8
LAY-10
  6
CONTINUOUS
 62
     7
100
AcDbLine
 10
378.6057496173369
 20
476.8444915516305
 30
0.0
 11
383.209564811363
 21
480.9379702502709
 31
0.0
  0
ARC
  5
113
330
1F
100
AcDbEntity
  8
LAY-10
  6
CONTINUOUS
 62
     7
100
AcDbCircle
 10
464.9999999999915
 20
554.9999999999897
 30
0.0
 40
110.3397459621576
100
AcDbArc
 50
197.8388553322671
 51
222.1611446677341
  0
ARC
  5
114
330
1F
100
AcDbEntity
  8
LAY-10
  6
CONTINUOUS
 62
     7
100
AcDbCircle
 10
464.9999999999915
 20
554.9999999999897
 30
0.0
 40
116.5000000000101
100
AcDbArc
 50
197.8663140504141
 51
222.1336859495862
  0
LINE
  5
115
330
1F
100
AcDbEntity
  8
LAY-10
  6
CONTINUOUS
 62
     7
100
AcDbLine
 10
359.1746332282909
 20
519.8824581207904
 30
0.0
 11
359.9651831865822
 21
521.1984202149109
 31
0.0
  0
LINE
  5
116
330
1F
100
AcDbEntity
  8
LAY-10
  6
CONTINUOUS
 62
     7
100
AcDbLine
 10
355.3782075145098
 20
518.622635990596
 30
0.0
 11
354.1182190466963
 21
519.2581386518754
 31
0.0
  0
LINE
  5
117
330
1F
100
AcDbEntity
  8
LAY-10
  6
CONTINUOUS
 62
     7
100
AcDbLine
 10
378.6853824024017
 20
478.2534249038734
 30
0.0
 11
378.6057496173369
 21
476.8444915516305
 31
0.0
  0
LINE
  5
118
330
1F
100
AcDbEntity
  8
LAY-10
  6
CONTINUOUS
 62
     7
100
AcDbLine
 10
381.6746332282909
 20
480.9113149504911
 30
0.0
 11
383.2095648113633
 21
480.9379702502709
 31
0.0
  0
ARC
  5
119
330
1F
100
AcDbEntity
  8
LAY-10
  6
CONTINUOUS
 62
     7
100
AcDbCircle
 10
464.9999999999915
 20
554.9999999999897
 30
0.0
 40
111.5000000000101
100
AcDbArc
 50
198.3581293562187
 51
221.6418706437812
  0
ARC
  5
11A
330
1F
100
AcDbEntity
  8
LAY-10
  6
CONTINUOUS
 62
     7
100
AcDbCircle
 10
464.9999999999915
 20
554.9999999999897
 30
0.0
 40
115.5000000000086
100
AcDbArc
 50
198.3581293562189
 51
221.6418706437811
  0
LINE
  5
11B
330
1F
100
AcDbEntity
  8
LAY-10
  6
CONTINUOUS
 62
     7
100
AcDbLine
 10
390.9113149504926
 20
471.674633228289
 30
0.0
 11
388.2534249038749
 21
468.6853824024002
 31
0.0
  0
LINE
  5
11C
330
1F
100
AcDbEntity
  8
LAY-10
  6
CONTINUOUS
 62
     7
100
AcDbLine
 10
429.8824581207925
 20
449.174633228289
 30
0.0
 11
428.6226359905975
 21
445.3782075145082
 31
0.0
  0
LINE
  5
11D
330
1F
100
AcDbEntity
  8
LAY-10
  6
CONTINUOUS
 62
     7
100
AcDbLine
 10
386.8444915516334
 20
468.605749617334
 30
0.0
 11
390.9379702502735
 21
473.2095648113607
 31
0.0
  0
LINE
  5
11E
330
1F
100
AcDbEntity
  8
LAY-10
  6
CONTINUOUS
 62
     7
100
AcDbLine
 10
429.2581386518782
 20
444.1182190466944
 30
0.0
 11
431.1984202149141
 21
449.96518318658
 31
0.0
  0
ARC
  5
11F
330
1F
100
AcDbEntity
  8
LAY-10
  6
CONTINUOUS
 62
     7
100
AcDbCircle
 10
464.9999999999915
 20
554.9999999999897
 30
0.0
 40
110.3397459621576
100
AcDbArc
 50
227.8388553322673
 51
252.1611446677337
  0
ARC
  5
120
330
1F
100
AcDbEntity
  8
LAY-10
  6
CONTINUOUS
 62
     7
100
AcDbCircle
 10
464.9999999999915
 20
554.9999999999897
 30
0.0
 40
116.5000000000101
100
AcDbArc
 50
227.8663140504152
 51
252.1336859495863
  0
LINE
  5
121
330
1F
100
AcDbEntity
  8
LAY-10
  6
CONTINUOUS
 62
     7
100
AcDbLine
 10
390.9113149504926
 20
471.674633228289
 30
0.0
 11
390.9379702502735
 21
473.2095648113607
 31
0.0
  0
LINE
  5
122
330
1F
100
AcDbEntity
  8
LAY-10
  6
CONTINUOUS
 62
     7
100
AcDbLine
 10
388.2534249038749
 20
468.6853824024002
 30
0.0
 11
386.8444915516334
 21
468.605749617334
 31
0.0
  0
LINE
  5
123
330
1F
100
AcDbEntity
  8
LAY-10
  6
CONTINUOUS
 62
     7
100
AcDbLine
 10
428.6226359905975
 20
445.3782075145082
 30
0.0
 11
429.2581386518782
 21
444.1182190466944
 31
0.0
  0
LINE
  5
124
330
1F
100
AcDbEntity
  8
LAY-10
  6
CONTINUOUS
 62
     7
100
AcDbLine
 10
429.8824581207922
 20
449.174633228289
 30
0.0
 11
431.1984202149141
 21
449.96518318658
 31
0.0
  0
ARC
  5
125
330
1F
100
AcDbEntity
  8
LAY-10
  6
CONTINUOUS
 62
     7
100
AcDbCircle
 10
464.9999999999915
 20
554.9999999999897
 30
0.0
 40
111.5000000000101
100
AcDbArc
 50
228.3581293562193
 51
251.6418706437809
  0
ARC
  5
126
330
1F
100
AcDbEntity
  8
LAY-10
  6
CONTINUOUS
 62
     7
100
AcDbCircle
 10
464.9999999999915
 20
554.9999999999897
 30
0.0
 40
115.5000000000086
100
AcDbArc
 50
228.3581293562193
 51
251.6418706437809
  0
LINE
  5
127
330
1F
100
AcDbEntity
  8
LAY-10
  6
CONTINUOUS
 62
     7
100
AcDbLine
 10
442.4999999999915
 20
445.7937730712918
 30
0.0
 11
441.6928251120995
 21
441.8760608944797
 31
0.0
  0
LINE
  5
128
330
1F
100
AcDbEntity
  8
LAY-10
  6
CONTINUOUS
 62
     7
100
AcDbLine
 10
487.4999999999915
 20
445.7937730712918
 30
0.0
 11
488.3071748878834
 21
441.8760608944797
 31
0.0
  0
LINE
  5
129
330
1F
100
AcDbEntity
  8
LAY-10
  6
CONTINUOUS
 62
     7
100
AcDbLine
 10
440.5124694293522
 20
441.1026302035175
 30
0.0
 11
441.7556183752114
 21
447.1363904651928
 31
0.0
  0
LINE
  5
12A
330
1F
100
AcDbEntity
  8
LAY-10
  6
CONTINUOUS
 62
     7
100
AcDbLine
 10
489.4875305706321
 20
441.1026302035175
 30
0.0
 11
488.2443816247729
 21
447.1363904651935
 31
0.0
  0
ARC
  5
12B
330
1F
100
AcDbEntity
  8
LAY-10
  6
CONTINUOUS
 62
     7
100
AcDbCircle
 10
464.9999999999915
 20
554.9999999999897
 30
0.0
 40
110.3397459621576
100
AcDbArc
 50
257.8388553322667
 51
267.766586705688
  0
ARC
  5
12C
330
1F
100
AcDbEntity
  8
LAY-10
  6
CONTINUOUS
 62
     7
100
AcDbCircle
 10
464.9999999999915
 20
554.9999999999897
 30
0.0
 40
116.5000000000101
100
AcDbArc
 50
257.866314050415
 51
282.1336859495863
  0
LINE
  5
12D
330
1F
100
AcDbEntity
  8
LAY-10
  6
CONTINUOUS
 62
     7
100
AcDbLine
 10
442.4999999999915
 20
445.7937730712918
 30
0.0
 11
441.7556183752114
 21
447.1363904651928
 31
0.0
  0
LINE
  5
12E
330
1F
100
AcDbEntity
  8
LAY-10
  6
CONTINUOUS
 62
     7
100
AcDbLine
 10
441.6928251120995
 20
441.8760608944797
 30
0.0
 11
440.5124694293522
 21
441.1026302035175
 31
0.0
  0
LINE
  5
12F
330
1F
100
AcDbEntity
  8
LAY-10
  6
CONTINUOUS
 62
     7
100
AcDbLine
 10
488.3071748878831
 20
441.8760608944797
 30
0.0
 11
489.4875305706321
 21
441.1026302035175
 31
0.0
  0
LINE
  5
130
330
1F
100
AcDbEntity
  8
LAY-10
  6
CONTINUOUS
 62
     7
100
AcDbLine
 10
487.4999999999911
 20
445.7937730712918
 30
0.0
 11
488.2443816247729
 21
447.1363904651935
 31
0.0
  0
ARC
  5
131
330
1F
100
AcDbEntity
  8
LAY-10
  6
CONTINUOUS
 62
     7
100
AcDbCircle
 10
464.9999999999915
 20
554.9999999999897
 30
0.0
 40
111.5000000000101
100
AcDbArc
 50
258.3581293562189
 51
281.641870643781
  0
ARC
  5
132
330
1F
100
AcDbEntity
  8
LAY-10
  6
CONTINUOUS
 62
     7
100
AcDbCircle
 10
464.9999999999915
 20
554.9999999999897
 30
0.0
 40
115.5000000000086
100
AcDbArc
 50
258.3581293562194
 51
281.6418706437809
  0
LINE
  5
133
330
1F
100
AcDbEntity
  8
LAY-10
  6
CONTINUOUS
 62
     7
100
AcDbLine
 10
359.1746332282909
 20
590.1175418791889
 30
0.0
 11
355.3782075145098
 21
591.3773640093833
 31
0.0
  0
LINE
  5
134
330
1F
100
AcDbEntity
  8
LAY-10
  6
CONTINUOUS
 62
     7
100
AcDbLine
 10
381.6746332282909
 20
629.0886850494882
 30
0.0
 11
378.6853824024017
 21
631.7465750961059
 31
0.0
  0
LINE
  5
135
330
1F
100
AcDbEntity
  8
LAY-10
  6
CONTINUOUS
 62
     7
100
AcDbLine
 10
354.1182190466963
 20
590.741861348104
 30
0.0
 11
359.9651831865822
 21
588.8015797850684
 31
0.0
  0
LINE
  5
136
330
1F
100
AcDbEntity
  8
LAY-10
  6
CONTINUOUS
 62
     7
100
AcDbLine
 10
378.6057496173369
 20
633.1555084483488
 30
0.0
 11
383.209564811363
 21
629.062029749709
 31
0.0
  0
ARC
  5
137
330
1F
100
AcDbEntity
  8
LAY-10
  6
CONTINUOUS
 62
     7
100
AcDbCircle
 10
464.9999999999915
 20
554.9999999999897
 30
0.0
 40
110.3397459621576
100
AcDbArc
 50
137.8388553322663
 51
162.161144667733
  0
ARC
  5
138
330
1F
100
AcDbEntity
  8
LAY-10
  6
CONTINUOUS
 62
     7
100
AcDbCircle
 10
464.9999999999915
 20
554.9999999999897
 30
0.0
 40
116.5000000000101
100
AcDbArc
 50
137.8663140504142
 51
162.1336859495854
  0
LINE
  5
139
330
1F
100
AcDbEntity
  8
LAY-10
  6
CONTINUOUS
 62
     7
100
AcDbLine
 10
359.1746332282909
 20
590.1175418791889
 30
0.0
 11
359.9651831865822
 21
588.8015797850684
 31
0.0
  0
LINE
  5
13A
330
1F
100
AcDbEntity
  8
LAY-10
  6
CONTINUOUS
 62
     7
100
AcDbLine
 10
355.3782075145098
 20
591.3773640093833
 30
0.0
 11
354.1182190466963
 21
590.741861348104
 31
0.0
  0
LINE
  5
13B
330
1F
100
AcDbEntity
  8
LAY-10
  6
CONTINUOUS
 62
     7
100
AcDbLine
 10
378.6853824024017
 20
631.7465750961059
 30
0.0
 11
378.6057496173369
 21
633.1555084483488
 31
0.0
  0
LINE
  5
13C
330
1F
100
AcDbEntity
  8
LAY-10
  6
CONTINUOUS
 62
     7
100
AcDbLine
 10
381.6746332282909
 20
629.0886850494882
 30
0.0
 11
383.2095648113633
 21
629.062029749709
 31
0.0
  0
ARC
  5
13D
330
1F
100
AcDbEntity
  8
LAY-10
  6
CONTINUOUS
 62
     7
100
AcDbCircle
 10
464.9999999999915
 20
554.9999999999897
 30
0.0
 40
111.5000000000101
100
AcDbArc
 50
138.3581293562194
 51
161.6418706437809
  0
ARC
  5
13E
330
1F
100
AcDbEntity
  8
LAY-10
  6
CONTINUOUS
 62
     7
100
AcDbCircle
 10
464.9999999999915
 20
554.9999999999897
 30
0.0
 40
115.5000000000086
100
AcDbArc
 50
138.3581293562195
 51
161.6418706437814
  0
LINE
  5
13F
330
1F
100
AcDbEntity
  8
LAY-10
  6
CONTINUOUS
 62
     7
100
AcDbLine
 10
390.9113149504926
 20
638.3253667716903
 30
0.0
 11
388.2534249038749
 21
641.3146175975797
 31
0.0
  0
LINE
  5
140
330
1F
100
AcDbEntity
  8
LAY-10
  6
CONTINUOUS
 62
     7
100
AcDbLine
 10
429.8824581207925
 20
660.8253667716903
 30
0.0
 11
428.6226359905975
 21
664.6217924854717
 31
0.0
  0
LINE
  5
141
330
1F
100
AcDbEntity
  8
LAY-10
  6
CONTINUOUS
 62
     7
100
AcDbLine
 10
386.8444915516334
 20
641.3942503826453
 30
0.0
 11
390.9379702502735
 21
636.7904351886192
 31
0.0
  0
LINE
  5
142
330
1F
100
AcDbEntity
  8
LAY-10
  6
CONTINUOUS
 62
     7
100
AcDbLine
 10
429.2581386518782
 20
665.8817809532856
 30
0.0
 11
431.1984202149141
 21
660.0348168133993
 31
0.0
  0
LINE
  5
143
330
1F
100
AcDbEntity
  8
LAY-10
  6
CONTINUOUS
 62
     7
100
AcDbLine
 10
390.9113149504926
 20
638.3253667716903
 30
0.0
 11
390.9379702502735
 21
636.7904351886192
 31
0.0
  0
LINE
  5
144
330
1F
100
AcDbEntity
  8
LAY-10
  6
CONTINUOUS
 62
     7
100
AcDbLine
 10
388.2534249038749
 20
641.3146175975797
 30
0.0
 11
386.8444915516334
 21
641.3942503826453
 31
0.0
  0
LINE
  5
145
330
1F
100
AcDbEntity
  8
LAY-10
  6
CONTINUOUS
 62
     7
100
AcDbLine
 10
428.6226359905975
 20
664.6217924854717
 30
0.0
 11
429.2581386518782
 21
665.8817809532856
 31
0.0
  0
LINE
  5
146
330
1F
100
AcDbEntity
  8
LAY-10
  6
CONTINUOUS
 62
     7
100
AcDbLine
 10
429.8824581207922
 20
660.8253667716903
 30
0.0
 11
431.1984202149141
 21
660.0348168133993
 31
0.0
  0
LINE
  5
147
330
1F
100
AcDbEntity
  8
LAY-10
  6
CONTINUOUS
 62
     7
100
AcDbLine
 10
442.4999999999915
 20
664.2062269286874
 30
0.0
 11
441.6928251120995
 21
668.1239391055002
 31
0.0
  0
LINE
  5
148
330
1F
100
AcDbEntity
  8
LAY-10
  6
CONTINUOUS
 62
     7
100
AcDbLine
 10
487.4999999999915
 20
664.2062269286874
 30
0.0
 11
488.3071748878834
 21
668.1239391055002
 31
0.0
  0
LINE
  5
149
330
1F
100
AcDbEntity
  8
LAY-10
  6
CONTINUOUS
 62
     7
100
AcDbLine
 10
440.5124694293522
 20
668.8973697964617
 30
0.0
 11
441.7556183752114
 21
662.8636095347864
 31
0.0
  0
LINE
  5
14A
330
1F
100
AcDbEntity
  8
LAY-10
  6
CONTINUOUS
 62
     7
100
AcDbLine
 10
489.4875305706321
 20
668.8973697964617
 30
0.0
 11
488.2443816247729
 21
662.8636095347857
 31
0.0
  0
LINE
  5
14B
330
1F
100
AcDbEntity
  8
LAY-10
  6
CONTINUOUS
 62
     7
100
AcDbLine
 10
442.4999999999915
 20
664.2062269286874
 30
0.0
 11
441.7556183752114
 21
662.8636095347864
 31
0.0
  0
LINE
  5
14C
330
1F
100
AcDbEntity
  8
LAY-10
  6
CONTINUOUS
 62
     7
100
AcDbLine
 10
441.6928251120995
 20
668.1239391055002
 30
0.0
 11
440.5124694293522
 21
668.8973697964617
 31
0.0
  0
LINE
  5
14D
330
1F
100
AcDbEntity
  8
LAY-10
  6
CONTINUOUS
 62
     7
100
AcDbLine
 10
488.3071748878831
 20
668.1239391055002
 30
0.0
 11
489.4875305706321
 21
668.8973697964617
 31
0.0
  0
LINE
  5
14E
330
1F
100
AcDbEntity
  8
LAY-10
  6
CONTINUOUS
 62
     7
100
AcDbLine
 10
487.4999999999911
 20
664.2062269286874
 30
0.0
 11
488.2443816247729
 21
662.8636095347857
 31
0.0
  0
LINE
  5
14F
330
1F
100
AcDbEntity
  8
LAY-10
  6
CONTINUOUS
 62
     7
100
AcDbLine
 10
574.2062269286893
 20
577.4999999999897
 30
0.0
 11
578.1239391055017
 21
578.3071748878816
 31
0.0
  0
LINE
  5
150
330
1F
100
AcDbEntity
  8
LAY-10
  6
CONTINUOUS
 62
     7
100
AcDbLine
 10
574.2062269286893
 20
532.4999999999897
 30
0.0
 11
578.1239391055017
 21
531.6928251120977
 31
0.0
  0
LINE
  5
151
330
1F
100
AcDbEntity
  8
LAY-10
  6
CONTINUOUS
 62
     7
100
AcDbLine
 10
578.8973697964639
 20
579.4875305706292
 30
0.0
 11
572.8636095347879
 21
578.2443816247697
 31
0.0
  0
LINE
  5
152
330
1F
100
AcDbEntity
  8
LAY-10
  6
CONTINUOUS
 62
     7
100
AcDbLine
 10
578.8973697964635
 20
530.5124694293487
 30
0.0
 11
572.8636095347879
 21
531.7556183752082
 31
0.0
  0
ARC
  5
153
330
1F
100
AcDbEntity
  8
LAY-10
  6
CONTINUOUS
 62
     7
100
AcDbCircle
 10
464.9999999999915
 20
554.9999999999897
 30
0.0
 40
116.5000000000101
100
AcDbArc
 50
347.8663140504142
 51
12.13368594958483
  0
LINE
  5
154
330
1F
100
AcDbEntity
  8
LAY-10
  6
CONTINUOUS
 62
     7
100
AcDbLine
 10
574.2062269286893
 20
577.4999999999897
 30
0.0
 11
572.8636095347879
 21
578.2443816247697
 31
0.0
  0
LINE
  5
155
330
1F
100
AcDbEntity
  8
LAY-10
  6
CONTINUOUS
 62
     7
100
AcDbLine
 10
578.1239391055017
 20
578.3071748878816
 30
0.0
 11
578.8973697964639
 21
579.4875305706292
 31
0.0
  0
LINE
  5
156
330
1F
100
AcDbEntity
  8
LAY-10
  6
CONTINUOUS
 62
     7
100
AcDbLine
 10
578.1239391055017
 20
531.6928251120977
 30
0.0
 11
578.8973697964635
 21
530.5124694293487
 31
0.0
  0
LINE
  5
157
330
1F
100
AcDbEntity
  8
LAY-10
  6
CONTINUOUS
 62
     7
100
AcDbLine
 10
574.2062269286893
 20
532.4999999999897
 30
0.0
 11
572.8636095347879
 21
531.7556183752082
 31
0.0
  0
ARC
  5
158
330
1F
100
AcDbEntity
  8
LAY-10
  6
CONTINUOUS
 62
     7
100
AcDbCircle
 10
464.9999999999915
 20
554.9999999999897
 30
0.0
 40
111.5000000000101
100
AcDbArc
 50
348.3581293562196
 51
11.64187064378115
  0
ARC
  5
159
330
1F
100
AcDbEntity
  8
LAY-10
  6
CONTINUOUS
 62
     7
100
AcDbCircle
 10
464.9999999999915
 20
554.9999999999897
 30
0.0
 40
115.5000000000086
100
AcDbArc
 50
348.3581293562193
 51
11.64187064378092
  0
LINE
  5
15A
330
1F
100
AcDbEntity
  8
LAY-10
  6
CONTINUOUS
 62
     7
100
AcDbLine
 10
570.8253667716921
 20
519.8824581207904
 30
0.0
 11
574.6217924854732
 21
518.622635990596
 31
0.0
  0
LINE
  5
15B
330
1F
100
AcDbEntity
  8
LAY-10
  6
CONTINUOUS
 62
     7
100
AcDbLine
 10
548.3253667716921
 20
480.9113149504911
 30
0.0
 11
551.3146175975812
 21
478.2534249038734
 31
0.0
  0
LINE
  5
15C
330
1F
100
AcDbEntity
  8
LAY-10
  6
CONTINUOUS
 62
     7
100
AcDbLine
 10
575.8817809532864
 20
519.2581386518754
 30
0.0
 11
570.0348168134008
 21
521.1984202149109
 31
0.0
  0
LINE
  5
15D
330
1F
100
AcDbEntity
  8
LAY-10
  6
CONTINUOUS
 62
     7
100
AcDbLine
 10
551.3942503826461
 20
476.8444915516305
 30
0.0
 11
546.7904351886197
 21
480.9379702502709
 31
0.0
  0
ARC
  5
15E
330
1F
100
AcDbEntity
  8
LAY-10
  6
CONTINUOUS
 62
     7
100
AcDbCircle
 10
464.9999999999915
 20
554.9999999999897
 30
0.0
 40
110.3397459621576
100
AcDbArc
 50
317.8388553322667
 51
342.161144667733
  0
ARC
  5
15F
330
1F
100
AcDbEntity
  8
LAY-10
  6
CONTINUOUS
 62
     7
100
AcDbCircle
 10
464.9999999999915
 20
554.9999999999897
 30
0.0
 40
116.5000000000101
100
AcDbArc
 50
317.8663140504142
 51
342.1336859495857
  0
LINE
  5
160
330
1F
100
AcDbEntity
  8
LAY-10
  6
CONTINUOUS
 62
     7
100
AcDbLine
 10
570.8253667716921
 20
519.8824581207904
 30
0.0
 11
570.0348168134008
 21
521.1984202149109
 31
0.0
  0
LINE
  5
161
330
1F
100
AcDbEntity
  8
LAY-10
  6
CONTINUOUS
 62
     7
100
AcDbLine
 10
574.6217924854732
 20
518.622635990596
 30
0.0
 11
575.8817809532867
 21
519.2581386518754
 31
0.0
  0
LINE
  5
162
330
1F
100
AcDbEntity
  8
LAY-10
  6
CONTINUOUS
 62
     7
100
AcDbLine
 10
551.3146175975812
 20
478.2534249038734
 30
0.0
 11
551.3942503826461
 21
476.8444915516305
 31
0.0
  0
LINE
  5
163
330
1F
100
AcDbEntity
  8
LAY-10
  6
CONTINUOUS
 62
     7
100
AcDbLine
 10
548.3253667716921
 20
480.9113149504911
 30
0.0
 11
546.7904351886197
 21
480.9379702502709
 31
0.0
  0
ARC
  5
164
330
1F
100
AcDbEntity
  8
LAY-10
  6
CONTINUOUS
 62
     7
100
AcDbCircle
 10
464.9999999999915
 20
554.9999999999897
 30
0.0
 40
111.5000000000101
100
AcDbArc
 50
318.3581293562195
 51
341.6418706437811
  0
ARC
  5
165
330
1F
100
AcDbEntity
  8
LAY-10
  6
CONTINUOUS
 62
     7
100
AcDbCircle
 10
464.9999999999915
 20
554.9999999999897
 30
0.0
 40
115.5000000000086
100
AcDbArc
 50
318.3581293562192
 51
341.6418706437815
  0
LINE
  5
166
330
1F
100
AcDbEntity
  8
LAY-10
  6
CONTINUOUS
 62
     7
100
AcDbLine
 10
539.0886850494903
 20
471.674633228289
 30
0.0
 11
541.7465750961077
 21
468.6853824024002
 31
0.0
  0
LINE
  5
167
330
1F
100
AcDbEntity
  8
LAY-10
  6
CONTINUOUS
 62
     7
100
AcDbLine
 10
500.1175418791904
 20
449.174633228289
 30
0.0
 11
501.3773640093855
 21
445.3782075145082
 31
0.0
  0
LINE
  5
168
330
1F
100
AcDbEntity
  8
LAY-10
  6
CONTINUOUS
 62
     7
100
AcDbLine
 10
543.1555084483496
 20
468.605749617334
 30
0.0
 11
539.0620297497095
 21
473.2095648113607
 31
0.0
  0
LINE
  5
169
330
1F
100
AcDbEntity
  8
LAY-10
  6
CONTINUOUS
 62
     7
100
AcDbLine
 10
500.7418613481044
 20
444.1182190466944
 30
0.0
 11
498.8015797850685
 21
449.96518318658
 31
0.0
  0
ARC
  5
16A
330
1F
100
AcDbEntity
  8
LAY-10
  6
CONTINUOUS
 62
     7
100
AcDbCircle
 10
464.9999999999915
 20
554.9999999999897
 30
0.0
 40
110.3397459621576
100
AcDbArc
 50
287.8388553322667
 51
312.1611446677329
  0
ARC
  5
16B
330
1F
100
AcDbEntity
  8
LAY-10
  6
CONTINUOUS
 62
     7
100
AcDbCircle
 10
464.9999999999915
 20
554.9999999999897
 30
0.0
 40
116.5000000000101
100
AcDbArc
 50
287.8663140504141
 51
312.1336859495855
  0
LINE
  5
16C
330
1F
100
AcDbEntity
  8
LAY-10
  6
CONTINUOUS
 62
     7
100
AcDbLine
 10
539.0886850494903
 20
471.674633228289
 30
0.0
 11
539.0620297497095
 21
473.2095648113607
 31
0.0
  0
LINE
  5
16D
330
1F
100
AcDbEntity
  8
LAY-10
  6
CONTINUOUS
 62
     7
100
AcDbLine
 10
541.7465750961077
 20
468.6853824024002
 30
0.0
 11
543.1555084483496
 21
468.605749617334
 31
0.0
  0
LINE
  5
16E
330
1F
100
AcDbEntity
  8
LAY-10
  6
CONTINUOUS
 62
     7
100
AcDbLine
 10
501.3773640093855
 20
445.3782075145082
 30
0.0
 11
500.7418613481044
 21
444.1182190466944
 31
0.0
  0
LINE
  5
16F
330
1F
100
AcDbEntity
  8
LAY-10
  6
CONTINUOUS
 62
     7
100
AcDbLine
 10
500.1175418791904
 20
449.174633228289
 30
0.0
 11
498.8015797850685
 21
449.96518318658
 31
0.0
  0
ARC
  5
170
330
1F
100
AcDbEntity
  8
LAY-10
  6
CONTINUOUS
 62
     7
100
AcDbCircle
 10
464.9999999999915
 20
554.9999999999897
 30
0.0
 40
111.5000000000101
100
AcDbArc
 50
288.3581293562194
 51
311.6418706437811
  0
ARC
  5
171
330
1F
100
AcDbEntity
  8
LAY-10
  6
CONTINUOUS
 62
     7
100
AcDbCircle
 10
464.9999999999915
 20
554.9999999999897
 30
0.0
 40
115.5000000000086
100
AcDbArc
 50
288.3581293562195
 51
311.6418706437815
  0
LINE
  5
172
330
1F
100
AcDbEntity
  8
LAY-10
  6
CONTINUOUS
 62
     7
100
AcDbLine
 10
570.8253667716921
 20
590.1175418791889
 30
0.0
 11
574.6217924854732
 21
591.3773640093833
 31
0.0
  0
LINE
  5
173
330
1F
100
AcDbEntity
  8
LAY-10
  6
CONTINUOUS
 62
     7
100
AcDbLine
 10
548.3253667716921
 20
629.0886850494882
 30
0.0
 11
551.3146175975812
 21
631.7465750961059
 31
0.0
  0
LINE
  5
174
330
1F
100
AcDbEntity
  8
LAY-10
  6
CONTINUOUS
 62
     7
100
AcDbLine
 10
575.8817809532864
 20
590.741861348104
 30
0.0
 11
570.0348168134008
 21
588.8015797850684
 31
0.0
  0
LINE
  5
175
330
1F
100
AcDbEntity
  8
LAY-10
  6
CONTINUOUS
 62
     7
100
AcDbLine
 10
551.3942503826461
 20
633.1555084483488
 30
0.0
 11
546.7904351886197
 21
629.062029749709
 31
0.0
  0
ARC
  5
176
330
1F
100
AcDbEntity
  8
LAY-10
  6
CONTINUOUS
 62
     7
100
AcDbCircle
 10
464.9999999999915
 20
554.9999999999897
 30
0.0
 40
110.3397459621576
100
AcDbArc
 50
17.83885533226699
 51
42.16114466773361
  0
ARC
  5
177
330
1F
100
AcDbEntity
  8
LAY-10
  6
CONTINUOUS
 62
     7
100
AcDbCircle
 10
464.9999999999915
 20
554.9999999999897
 30
0.0
 40
116.5000000000101
100
AcDbArc
 50
17.86631405041472
 51
42.13368594958622
  0
LINE
  5
178
330
1F
100
AcDbEntity
  8
LAY-10
  6
CONTINUOUS
 62
     7
100
AcDbLine
 10
570.8253667716921
 20
590.1175418791889
 30
0.0
 11
570.0348168134008
 21
588.8015797850684
 31
0.0
  0
LINE
  5
179
330
1F
100
AcDbEntity
  8
LAY-10
  6
CONTINUOUS
 62
     7
100
AcDbLine
 10
574.6217924854732
 20
591.3773640093833
 30
0.0
 11
575.8817809532867
 21
590.741861348104
 31
0.0
  0
LINE
  5
17A
330
1F
100
AcDbEntity
  8
LAY-10
  6
CONTINUOUS
 62
     7
100
AcDbLine
 10
551.3146175975812
 20
631.7465750961059
 30
0.0
 11
551.3942503826461
 21
633.1555084483488
 31
0.0
  0
LINE
  5
17B
330
1F
100
AcDbEntity
  8
LAY-10
  6
CONTINUOUS
 62
     7
100
AcDbLine
 10
548.3253667716921
 20
629.0886850494882
 30
0.0
 11
546.7904351886197
 21
629.062029749709
 31
0.0
  0
ARC
  5
17C
330
1F
100
AcDbEntity
  8
LAY-10
  6
CONTINUOUS
 62
     7
100
AcDbCircle
 10
464.9999999999915
 20
554.9999999999897
 30
0.0
 40
111.5000000000101
100
AcDbArc
 50
18.35812935621897
 51
41.64187064378071
  0
ARC
  5
17D
330
1F
100
AcDbEntity
  8
LAY-10
  6
CONTINUOUS
 62
     7
100
AcDbCircle
 10
464.9999999999915
 20
554.9999999999897
 30
0.0
 40
115.5000000000086
100
AcDbArc
 50
18.35812935621891
 51
41.64187064378093
  0
LINE
  5
17E
330
1F
100
AcDbEntity
  8
LAY-10
  6
CONTINUOUS
 62
     7
100
AcDbLine
 10
539.0886850494903
 20
638.3253667716903
 30
0.0
 11
541.7465750961077
 21
641.3146175975797
 31
0.0
  0
LINE
  5
17F
330
1F
100
AcDbEntity
  8
LAY-10
  6
CONTINUOUS
 62
     7
100
AcDbLine
 10
500.1175418791904
 20
660.8253667716903
 30
0.0
 11
501.3773640093855
 21
664.6217924854717
 31
0.0
  0
LINE
  5
180
330
1F
100
AcDbEntity
  8
LAY-10
  6
CONTINUOUS
 62
     7
100
AcDbLine
 10
543.1555084483496
 20
641.3942503826453
 30
0.0
 11
539.0620297497095
 21
636.7904351886192
 31
0.0
  0
LINE
  5
181
330
1F
100
AcDbEntity
  8
LAY-10
  6
CONTINUOUS
 62
     7
100
AcDbLine
 10
500.7418613481044
 20
665.8817809532856
 30
0.0
 11
498.8015797850685
 21
660.0348168133993
 31
0.0
  0
ARC
  5
182
330
1F
100
AcDbEntity
  8
LAY-10
  6
CONTINUOUS
 62
     7
100
AcDbCircle
 10
464.9999999999915
 20
554.9999999999897
 30
0.0
 40
110.3397459621576
100
AcDbArc
 50
47.83885533226712
 51
72.16114466773395
  0
ARC
  5
183
330
1F
100
AcDbEntity
  8
LAY-10
  6
CONTINUOUS
 62
     7
100
AcDbCircle
 10
464.9999999999915
 20
554.9999999999897
 30
0.0
 40
116.5000000000101
100
AcDbArc
 50
47.86631405041432
 51
72.133685949586
  0
LINE
  5
184
330
1F
100
AcDbEntity
  8
LAY-10
  6
CONTINUOUS
 62
     7
100
AcDbLine
 10
539.0886850494903
 20
638.3253667716903
 30
0.0
 11
539.0620297497095
 21
636.7904351886192
 31
0.0
  0
LINE
  5
185
330
1F
100
AcDbEntity
  8
LAY-10
  6
CONTINUOUS
 62
     7
100
AcDbLine
 10
541.7465750961077
 20
641.3146175975797
 30
0.0
 11
543.1555084483496
 21
641.3942503826453
 31
0.0
  0
LINE
  5
186
330
1F
100
AcDbEntity
  8
LAY-10
  6
CONTINUOUS
 62
     7
100
AcDbLine
 10
501.3773640093855
 20
664.6217924854717
 30
0.0
 11
500.7418613481044
 21
665.8817809532856
 31
0.0
  0
LINE
  5
187
330
1F
100
AcDbEntity
  8
LAY-10
  6
CONTINUOUS
 62
     7
100
AcDbLine
 10
500.1175418791904
 20
660.8253667716903
 30
0.0
 11
498.8015797850685
 21
660.0348168133993
 31
0.0
  0
ARC
  5
188
330
1F
100
AcDbEntity
  8
LAY-10
  6
CONTINUOUS
 62
     7
100
AcDbCircle
 10
464.9999999999915
 20
554.9999999999897
 30
0.0
 40
111.5000000000101
100
AcDbArc
 50
48.35812935621905
 51
71.64187064378078
  0
ARC
  5
189
330
1F
100
AcDbEntity
  8
LAY-10
  6
CONTINUOUS
 62
     7
100
AcDbCircle
 10
464.9999999999915
 20
554.9999999999897
 30
0.0
 40
115.5000000000086
100
AcDbArc
 50
48.35812935621887
 51
71.64187064378078
  0
CIRCLE
  5
18A
330
1F
100
AcDbEntity
  8
LAY-10
  6
CONTINUOUS
 62
     7
100
AcDbCircle
 10
464.9999999999911
 20
554.9999999999897
 30
0.0
 40
129.7413392020667
  0
ARC
  5
18B
330
1F
100
AcDbEntity
  8
LAY-10
  6
CONTINUOUS
 62
     7
100
AcDbCircle
 10
464.9999999999915
 20
554.9999999999897
 30
0.0
 40
110.3397459621576
100
AcDbArc
 50
77.83885533226632
 51
87.76658670568813
  0
ARC
  5
18C
330
1F
100
AcDbEntity
  8
LAY-10
  6
CONTINUOUS
 62
     7
100
AcDbCircle
 10
464.9999999999915
 20
554.9999999999897
 30
0.0
 40
116.5000000000101
100
AcDbArc
 50
77.866314050414
 51
102.1336859495856
  0
ARC
  5
18D
330
1F
100
AcDbEntity
  8
LAY-10
  6
CONTINUOUS
 62
     7
100
AcDbCircle
 10
464.9999999999915
 20
554.9999999999897
 30
0.0
 40
111.5000000000101
100
AcDbArc
 50
78.35812935621928
 51
101.6418706437808
  0
ARC
  5
18E
330
1F
100
AcDbEntity
  8
LAY-10
  6
CONTINUOUS
 62
     7
100
AcDbCircle
 10
464.9999999999915
 20
554.9999999999897
 30
0.0
 40
115.5000000000086
100
AcDbArc
 50
78.35812935621945
 51
101.6418706437809
  0
ARC
  5
18F
330
1F
100
AcDbEntity
  8
LAY-10
  6
CONTINUOUS
 62
     7
100
AcDbCircle
 10
464.9999999999915
 20
554.9999999999897
 30
0.0
 40
110.8
100
AcDbArc
 50
87.93111074717358
 51
92.06888925282644
  0
ARC
  5
190
330
1F
100
AcDbEntity
  8
LAY-10
  6
CONTINUOUS
 62
     7
100
AcDbCircle
 10
464.9999999999915
 20
554.9999999999897
 30
0.0
 40
110.3397459621576
100
AcDbArc
 50
92.23341329431211
 51
102.1611446677331
  0
LINE
  5
191
330
1F
100
AcDbEntity
  8
LAY-10
  6
CONTINUOUS
 62
     7
100
AcDbLine
 10
460.6999999999916
 20
665.2559274551312
 30
0.0
 11
460.9999999999917
 21
665.7277742935245
 31
0.0
  0
LINE
  5
192
330
1F
100
AcDbEntity
  8
LAY-10
  6
CONTINUOUS
 62
     7
100
AcDbLine
 10
469.2999999999913
 20
665.2559274551312
 30
0.0
 11
468.9999999999912
 21
665.7277742935245
 31
0.0
  0
ARC
  5
193
330
1F
100
AcDbEntity
  8
LAY-10
  6
CONTINUOUS
 62
     7
100
AcDbCircle
 10
464.9999999999915
 20
554.9999999999897
 30
0.0
 40
110.8
100
AcDbArc
 50
267.9311107471738
 51
272.068889252827
  0
LINE
  5
194
330
1F
100
AcDbEntity
  8
LAY-10
  6
CONTINUOUS
 62
     7
100
AcDbLine
 10
460.6999999999916
 20
444.7440725448481
 30
0.0
 11
460.9999999999917
 21
444.2722257064548
 31
0.0
  0
LINE
  5
195
330
1F
100
AcDbEntity
  8
LAY-10
  6
CONTINUOUS
 62
     7
100
AcDbLine
 10
469.2999999999913
 20
444.7440725448481
 30
0.0
 11
468.9999999999912
 21
444.2722257064548
 31
0.0
  0
ARC
  5
196
330
1F
100
AcDbEntity
  8
LAY-10
  6
CONTINUOUS
 62
     7
100
AcDbCircle
 10
464.9999999999915
 20
554.9999999999897
 30
0.0
 40
110.3397459621576
100
AcDbArc
 50
272.2334132943123
 51
282.1611446677337
  0
ARC
  5
197
330
1F
100
AcDbEntity
  8
LAY-10
  6
CONTINUOUS
 62
     7
100
AcDbCircle
 10
464.9999999999915
 20
554.9999999999897
 30
0.0
 40
115.5000000000086
100
AcDbArc
 50
108.3581293562205
 51
131.6418706437813
  0
ARC
  5
198
330
1F
100
AcDbEntity
  8
LAY-10
  6
CONTINUOUS
 62
     7
100
AcDbCircle
 10
464.9999999999915
 20
554.9999999999897
 30
0.0
 40
111.5000000000101
100
AcDbArc
 50
108.3581293562205
 51
131.6418706437813
  0
ARC
  5
199
330
1F
100
AcDbEntity
  8
LAY-10
  6
CONTINUOUS
 62
     7
100
AcDbCircle
 10
464.9999999999915
 20
554.9999999999897
 30
0.0
 40
116.5000000000101
100
AcDbArc
 50
107.8663140504121
 51
132.1336859495855
  0
ARC
  5
19A
330
1F
100
AcDbEntity
  8
LAY-10
  6
CONTINUOUS
 62
     7
100
AcDbCircle
 10
464.9999999999915
 20
554.9999999999897
 30
0.0
 40
110.3397459621576
100
AcDbArc
 50
107.8388553322697
 51
132.1611446677335
  0
CIRCLE
  5
19B
330
1F
100
AcDbEntity
  8
LAY-10
  6
CONTINUOUS
 62
     7
100
AcDbCircle
 10
359.4999999999912
 20
554.999999999991
 30
0.0
 40
5.25
  0
LINE
  5
19C
330
1F
100
AcDbEntity
  8
LAY-10
  6
CONTINUOUS
 62
     7
100
AcDbLine
 10
355.5366072321288
 20
551.5570335802216
 30
0.0
 11
364.463392767822
 21
556.7109156122423
 31
0.0
  0
LINE
  5
19D
330
1F
100
AcDbEntity
  8
LAY-10
  6
CONTINUOUS
 62
     7
100
AcDbLine
 10
354.5366072321314
 20
553.2890843878231
 30
0.0
 11
363.4633927677953
 21
558.4429664198267
 31
0.0
  0
CIRCLE
  5
19E
330
1F
100
AcDbEntity
  8
LAY-10
  6
CONTINUOUS
 62
     7
100
AcDbCircle
 10
570.4999999999912
 20
554.999999999991
 30
0.0
 40
5.25
  0
LINE
  5
19F
330
1F
100
AcDbEntity
  8
LAY-10
  6
CONTINUOUS
 62
     7
100
AcDbLine
 10
566.5366072321289
 20
551.5570335802216
 30
0.0
 11
575.463392767822
 21
556.7109156122423
 31
0.0
  0
LINE
  5
1A0
330
1F
100
AcDbEntity
  8
LAY-10
  6
CONTINUOUS
 62
     7
100
AcDbLine
 10
565.5366072321315
 20
553.2890843878231
 30
0.0
 11
574.4633927677953
 21
558.4429664198267
 31
0.0
  0
ARC
  5
1A1
330
1F
100
AcDbEntity
  8
LAY-10
  6
CONTINUOUS
 62
     7
100
AcDbCircle
 10
464.9999999999915
 20
554.9999999999897
 30
0.0
 40
110.3397459621576
100
AcDbArc
 50
1.0804468198078
 51
12.16114466773325
  0
ARC
  5
1A2
330
1F
100
AcDbEntity
  8
LAY-10
  6
CONTINUOUS
 62
     7
100
AcDbCircle
 10
464.9999999999915
 20
554.9999999999897
 30
0.0
 40
110.3397459621576
100
AcDbArc
 50
347.8388553322669
 51
358.9195531801937
  0
ARC
  5
1A3
330
1F
100
AcDbEntity
  8
LAY-10
  6
CONTINUOUS
 62
     7
100
AcDbCircle
 10
464.9999999999915
 20
554.9999999999897
 30
0.0
 40
110.3397459621576
100
AcDbArc
 50
181.0804468198073
 51
192.1611446677338
  0
ARC
  5
1A4
330
1F
100
AcDbEntity
  8
LAY-10
  6
CONTINUOUS
 62
     7
100
AcDbCircle
 10
464.9999999999915
 20
554.9999999999897
 30
0.0
 40
110.3397459621576
100
AcDbArc
 50
167.8388553322675
 51
178.9195531801914
  0
ARC
  5
1A5
330
1F
100
AcDbEntity
  8
LAY-10
  6
CONTINUOUS
 62
     7
100
AcDbCircle
 10
363.4999999999972
 20
554.9999999999898
 30
0.0
 40
4.0
100
AcDbArc
 50
270.0
 51
90.0
  0
ARC
  5
1A6
330
1F
100
AcDbEntity
  8
LAY-10
  6
CONTINUOUS
 62
     7
100
AcDbCircle
 10
464.999999999999
 20
554.9999999999898
 30
0.0
 40
108.0000000000001
100
AcDbArc
 50
182.1127655733879
 51
182.1225513621433
  0
LINE
  5
1A7
330
1F
100
AcDbEntity
  8
LAY-10
  6
CONTINUOUS
 62
     7
100
AcDbLine
 10
469.8529040114549
 20
637.0476933017782
 30
0.0
 11
470.8060803314326
 21
646.116560199179
 31
0.0
  0
LINE
  5
1A8
330
1F
100
AcDbEntity
  8
LAY-10
  6
CONTINUOUS
 62
     7
100
AcDbLine
 10
460.1470959886038
 20
637.0476933017816
 30
0.0
 11
459.1939196686263
 21
646.1165601991808
 31
0.0
  0
LINE
  5
1A9
330
1F
100
AcDbEntity
  8
LAY-10
  6
CONTINUOUS
 62
     7
100
AcDbLine
 10
452.6881817733412
 20
636.2637298272786
 30
0.0
 11
451.7350054533645
 21
645.3325967246716
 31
0.0
  0
LINE
  5
1AA
330
1F
100
AcDbEntity
  8
LAY-10
  6
CONTINUOUS
 62
     7
100
AcDbLine
 10
443.1944689426026
 20
634.2457788705019
 30
0.0
 11
440.3765983617047
 21
642.9182927672217
 31
0.0
  0
LINE
  5
1AB
330
1F
100
AcDbEntity
  8
LAY-10
  6
CONTINUOUS
 62
     7
100
AcDbLine
 10
436.0615450703866
 20
631.9281514126966
 30
0.0
 11
433.2436744894918
 21
640.600665309408
 31
0.0
  0
LINE
  5
1AC
330
1F
100
AcDbEntity
  8
LAY-10
  6
CONTINUOUS
 62
     7
100
AcDbLine
 10
427.1948482383499
 20
627.9804436391518
 30
0.0
 11
422.6354378625684
 21
635.8775740625631
 31
0.0
  0
LINE
  5
1AD
330
1F
100
AcDbEntity
  8
LAY-10
  6
CONTINUOUS
 62
     7
100
AcDbLine
 10
420.6996577099622
 20
624.2304436391606
 30
0.0
 11
416.1402473341861
 21
632.1275740625614
 31
0.0
  0
LINE
  5
1AE
330
1F
100
AcDbEntity
  8
LAY-10
  6
CONTINUOUS
 62
     7
100
AcDbLine
 10
412.847494075318
 20
618.525512821752
 30
0.0
 11
406.7458120165624
 21
625.3021172777146
 31
0.0
  0
LINE
  5
1AF
330
1F
100
AcDbEntity
  8
LAY-10
  6
CONTINUOUS
 62
     7
100
AcDbLine
 10
407.2739078842296
 20
613.5070332740696
 30
0.0
 11
401.1722258254832
 21
620.2836377300216
 31
0.0
  0
LINE
  5
1B0
330
1F
100
AcDbEntity
  8
LAY-10
  6
CONTINUOUS
 62
     7
100
AcDbLine
 10
400.7794546766732
 20
606.2942122648099
 30
0.0
 11
393.402173720042
 21
611.6541206208462
 31
0.0
  0
LINE
  5
1B1
330
1F
100
AcDbEntity
  8
LAY-10
  6
CONTINUOUS
 62
     7
100
AcDbLine
 10
396.3710652844686
 20
600.2265848070057
 30
0.0
 11
388.9937843278498
 21
605.5864931630333
 31
0.0
  0
LINE
  5
1B2
330
1F
100
AcDbEntity
  8
LAY-10
  6
CONTINUOUS
 62
     7
100
AcDbLine
 10
391.5181612730154
 20
591.8211084949512
 30
0.0
 11
383.1877039964454
 21
595.5300670362176
 31
0.0
  0
LINE
  5
1B3
330
1F
100
AcDbEntity
  8
LAY-10
  6
CONTINUOUS
 62
     7
100
AcDbLine
 10
388.4676364499335
 20
584.9695175626379
 30
0.0
 11
380.1371791733783
 21
588.6784761038977
 31
0.0
  0
LINE
  5
1B4
330
1F
100
AcDbEntity
  8
LAY-10
  6
CONTINUOUS
 62
     7
100
AcDbLine
 10
385.4683768267041
 20
575.738745596573
 30
0.0
 11
376.5488241871573
 21
577.6346550372698
 31
0.0
  0
LINE
  5
1B5
330
1F
100
AcDbEntity
  8
LAY-10
  6
CONTINUOUS
 62
     7
100
AcDbLine
 10
383.9090391455561
 20
568.4026385910728
 30
0.0
 11
374.9894865060256
 21
570.2985480317659
 31
0.0
  0
LINE
  5
1B6
330
1F
100
AcDbEntity
  8
LAY-10
  6
CONTINUOUS
 62
     7
100
AcDbLine
 10
382.8945059481333
 20
558.7500000000712
 30
0.0
 11
373.7756851967239
 21
558.7500000000712
 31
0.0
  0
LINE
  5
1B7
330
1F
100
AcDbEntity
  8
LAY-10
  6
CONTINUOUS
 62
     7
100
AcDbLine
 10
382.8945059481183
 20
551.2500000000715
 30
0.0
 11
373.7756851967256
 21
551.2500000000715
 31
0.0
  0
LINE
  5
1B8
330
1F
100
AcDbEntity
  8
LAY-10
  6
CONTINUOUS
 62
     7
100
AcDbLine
 10
383.9090391455039
 20
541.5973614090585
 30
0.0
 11
374.9894865060243
 21
539.7014519683762
 31
0.0
  0
LINE
  5
1B9
330
1F
100
AcDbEntity
  8
LAY-10
  6
CONTINUOUS
 62
     7
100
AcDbLine
 10
385.4683768266233
 20
534.2612544035524
 30
0.0
 11
376.548824187159
 21
532.365344962873
 31
0.0
  0
LINE
  5
1BA
330
1F
100
AcDbEntity
  8
LAY-10
  6
CONTINUOUS
 62
     7
100
AcDbLine
 10
388.4676364498244
 20
525.0304824374562
 30
0.0
 11
380.1371791733766
 21
521.3215238962443
 31
0.0
  0
LINE
  5
1BB
330
1F
100
AcDbEntity
  8
LAY-10
  6
CONTINUOUS
 62
     7
100
AcDbLine
 10
391.5181612728815
 20
518.1788915051314
 30
0.0
 11
383.1877039964469
 21
514.4699329639258
 31
0.0
  0
LINE
  5
1BC
330
1F
100
AcDbEntity
  8
LAY-10
  6
CONTINUOUS
 62
     7
100
AcDbLine
 10
396.3710652843228
 20
509.7734151930308
 30
0.0
 11
388.9937843278484
 21
504.4135068371083
 31
0.0
  0
LINE
  5
1BD
330
1F
100
AcDbEntity
  8
LAY-10
  6
CONTINUOUS
 62
     7
100
AcDbLine
 10
400.7794546765078
 20
503.7057877352127
 30
0.0
 11
393.4021737200433
 21
498.3458793792972
 31
0.0
  0
LINE
  5
1BE
330
1F
100
AcDbEntity
  8
LAY-10
  6
CONTINUOUS
 62
     7
100
AcDbLine
 10
407.2739078840734
 20
496.4929667258997
 30
0.0
 11
401.1722258254821
 21
489.7163622701196
 31
0.0
  0
LINE
  5
1BF
330
1F
100
AcDbEntity
  8
LAY-10
  6
CONTINUOUS
 62
     7
100
AcDbLine
 10
412.8474940751486
 20
491.4744871782023
 30
0.0
 11
406.7458120165639
 21
484.6978827224293
 31
0.0
  0
LINE
  5
1C0
330
1F
100
AcDbEntity
  8
LAY-10
  6
CONTINUOUS
 62
     7
100
AcDbLine
 10
420.6996577098242
 20
485.7695563607431
 30
0.0
 11
416.1402473341851
 21
477.8724259375797
 31
0.0
  0
LINE
  5
1C1
330
1F
100
AcDbEntity
  8
LAY-10
  6
CONTINUOUS
 62
     7
100
AcDbLine
 10
427.194848238205
 20
482.0195563607388
 30
0.0
 11
422.6354378625694
 21
474.1224259375812
 31
0.0
  0
LINE
  5
1C2
330
1F
100
AcDbEntity
  8
LAY-10
  6
CONTINUOUS
 62
     7
100
AcDbLine
 10
436.0615450702768
 20
478.07184858716
 30
0.0
 11
433.243674489474
 21
469.399334690733
 31
0.0
  0
LINE
  5
1C3
330
1F
100
AcDbEntity
  8
LAY-10
  6
CONTINUOUS
 62
     7
100
AcDbLine
 10
470.6200490617356
 20
593.499999999909
 30
0.0
 11
467.0047274575389
 21
568.7333333333347
 31
0.0
  0
ARC
  5
1C4
330
1F
100
AcDbEntity
  8
LAY-10
  6
CONTINUOUS
 62
     7
100
AcDbCircle
 10
465.0000000000003
 20
594.3203883494223
 30
0.0
 40
5.679611650485314
100
AcDbArc
 50
351.6948904719654
 51
188.3051095280647
  0
ARC
  5
1C5
330
1F
100
AcDbEntity
  8
LAY-10
  6
CONTINUOUS
 62
     7
100
AcDbCircle
 10
441.8880556137909
 20
586.810862400104
 30
0.0
 40
5.679611650485314
100
AcDbArc
 50
27.69489047196703
 51
224.3051095280625
  0
ARC
  5
1C6
330
1F
100
AcDbEntity
  8
LAY-10
  6
CONTINUOUS
 62
     7
100
AcDbCircle
 10
456.7557393184925
 20
566.3472513496795
 30
0.0
 40
2.025974025987109
100
AcDbArc
 50
224.3051095280713
 51
27.69489047196938
  0
LINE
  5
1C7
330
1F
100
AcDbEntity
  8
LAY-10
  6
CONTINUOUS
 62
     7
100
AcDbLine
 10
446.9169829869521
 20
589.450536239009
 30
0.0
 11
458.5496077840823
 21
567.2888492904896
 31
0.0
  0
LINE
  5
1C8
330
1F
100
AcDbEntity
  8
LAY-10
  6
CONTINUOUS
 62
     7
100
AcDbLine
 10
437.8235525866245
 20
582.8437723277107
 30
0.0
 11
455.3058906196148
 21
564.9321508216824
 31
0.0
  0
ARC
  5
1C9
330
1F
100
AcDbEntity
  8
LAY-10
  6
CONTINUOUS
 62
     7
100
AcDbCircle
 10
427.6040884370155
 20
567.1506682253886
 30
0.0
 40
5.679611650485314
100
AcDbArc
 50
63.69489047196459
 51
260.305109528065
  0
ARC
  5
1CA
330
1F
100
AcDbEntity
  8
LAY-10
  6
CONTINUOUS
 62
     7
100
AcDbCircle
 10
451.6605060051999
 20
559.3342643366886
 30
0.0
 40
2.025974025987109
100
AcDbArc
 50
260.3051095280662
 51
63.69489047197094
  0
LINE
  5
1CB
330
1F
100
AcDbEntity
  8
LAY-10
  6
CONTINUOUS
 62
     7
100
AcDbLine
 10
426.6476334534182
 20
561.5521700013394
 30
0.0
 11
451.3193289894032
 21
557.3372242775346
 31
0.0
  0
ARC
  5
1CC
330
1F
100
AcDbEntity
  8
LAY-10
  6
CONTINUOUS
 62
     7
100
AcDbCircle
 10
427.6040884370146
 20
542.8493317745938
 30
0.0
 40
5.679611650485314
100
AcDbArc
 50
99.694890471963
 51
296.3051095280662
  0
LINE
  5
1CD
330
1F
100
AcDbEntity
  8
LAY-10
  6
CONTINUOUS
 62
     7
100
AcDbLine
 10
426.6476334534146
 20
548.4478299986423
 30
0.0
 11
451.3193289893981
 21
552.6627757224594
 31
0.0
  0
ARC
  5
1CE
330
1F
100
AcDbEntity
  8
LAY-10
  6
CONTINUOUS
 62
     7
100
AcDbCircle
 10
456.7557393184803
 20
543.6527486503091
 30
0.0
 40
2.025974025987109
100
AcDbArc
 50
332.3051095280701
 51
135.6948904719697
  0
LINE
  5
1CF
330
1F
100
AcDbEntity
  8
LAY-10
  6
CONTINUOUS
 62
     7
100
AcDbLine
 10
437.8235525866204
 20
527.1562276722684
 30
0.0
 11
455.3058906196022
 21
545.0678491783056
 31
0.0
  0
LINE
  5
1D0
330
1F
100
AcDbEntity
  8
LAY-10
  6
CONTINUOUS
 62
     7
100
AcDbLine
 10
470.9659386723649
 20
624.4999999999899
 30
0.0
 11
469.6591247677987
 21
609.2763157894661
 31
0.0
  0
LINE
  5
1D1
330
1F
100
AcDbEntity
  8
LAY-10
  6
CONTINUOUS
 62
     7
100
AcDbLine
 10
459.0340613276329
 20
624.4999999999899
 30
0.0
 11
460.3408752321989
 21
609.2763157894661
 31
0.0
  0
ARC
  5
1D2
330
1F
100
AcDbEntity
  8
LAY-10
  6
CONTINUOUS
 62
     7
100
AcDbCircle
 10
464.9999999999988
 20
625.0121212121105
 30
0.0
 40
5.987878787879314
100
AcDbArc
 50
355.0937092423649
 51
184.9062907576363
  0
ARC
  5
1D3
330
1F
100
AcDbEntity
  8
LAY-10
  6
CONTINUOUS
 62
     7
100
AcDbCircle
 10
464.9999999999988
 20
609.6762589927978
 30
0.0
 40
4.676258992807934
100
AcDbArc
 50
184.9062907576347
 51
355.0937092423654
  0
ARC
  5
1D4
330
1F
100
AcDbEntity
  8
LAY-10
  6
CONTINUOUS
 62
     7
100
AcDbCircle
 10
446.8795296422761
 20
622.626516032058
 30
0.0
 40
5.987878787879314
100
AcDbArc
 50
10.09370924236336
 51
199.9062907576382
  0
ARC
  5
1D5
330
1F
100
AcDbEntity
  8
LAY-10
  6
CONTINUOUS
 62
     7
100
AcDbCircle
 10
450.8487428577022
 20
607.813210646013
 30
0.0
 40
4.676258992807934
100
AcDbArc
 50
199.906290757637
 51
10.09370924236285
  0
LINE
  5
1D6
330
1F
100
AcDbEntity
  8
LAY-10
  6
CONTINUOUS
 62
     7
100
AcDbLine
 10
452.7747306070688
 20
623.675943477402
 30
0.0
 11
455.4526247168047
 21
608.6327654002814
 31
0.0
  0
LINE
  5
1D7
330
1F
100
AcDbEntity
  8
LAY-10
  6
CONTINUOUS
 62
     7
100
AcDbLine
 10
441.2494221236785
 20
620.5877463767581
 30
0.0
 11
446.4518868345628
 21
606.2210249534505
 31
0.0
  0
ARC
  5
1D8
330
1F
100
AcDbEntity
  8
LAY-10
  6
CONTINUOUS
 62
     7
100
AcDbCircle
 10
429.9939393939386
 20
615.6322755425217
 30
0.0
 40
5.987878787879314
100
AcDbArc
 50
25.09370924236586
 51
214.9062907576385
  0
ARC
  5
1D9
330
1F
100
AcDbEntity
  8
LAY-10
  6
CONTINUOUS
 62
     7
100
AcDbCircle
 10
437.661870503595
 20
602.3510292716587
 30
0.0
 40
4.676258992807934
100
AcDbArc
 50
214.9062907576329
 51
25.09370924236472
  0
LINE
  5
1DA
330
1F
100
AcDbEntity
  8
LAY-10
  6
CONTINUOUS
 62
     7
100
AcDbLine
 10
435.4166544476877
 20
618.1717348991913
 30
0.0
 11
441.8967625135766
 21
604.3342306814025
 31
0.0
  0
LINE
  5
1DB
330
1F
100
AcDbEntity
  8
LAY-10
  6
CONTINUOUS
 62
     7
100
AcDbLine
 10
425.0833455523099
 20
612.2057962268252
 30
0.0
 11
433.8269216969449
 21
599.6751059136028
 31
0.0
  0
ARC
  5
1DC
330
1F
100
AcDbEntity
  8
LAY-10
  6
CONTINUOUS
 62
     7
100
AcDbCircle
 10
415.4939543256539
 20
604.5060456743347
 30
0.0
 40
5.987878787879314
100
AcDbArc
 50
40.09370924236773
 51
229.9062907576366
  0
ARC
  5
1DD
330
1F
100
AcDbEntity
  8
LAY-10
  6
CONTINUOUS
 62
     7
100
AcDbCircle
 10
426.3380464962726
 20
593.6619535037162
 30
0.0
 40
4.676258992807934
100
AcDbArc
 50
229.9062907576313
 51
40.09370924236779
  0
LINE
  5
1DE
330
1F
100
AcDbEntity
  8
LAY-10
  6
CONTINUOUS
 62
     7
100
AcDbLine
 10
420.0746343989068
 20
608.3624769838277
 30
0.0
 11
429.9153477651432
 21
596.6736496702564
 31
0.0
  0
LINE
  5
1DF
330
1F
100
AcDbEntity
  8
LAY-10
  6
CONTINUOUS
 62
     7
100
AcDbLine
 10
411.6375230161609
 20
599.9253656010817
 30
0.0
 11
423.3263503297322
 21
590.0846522348454
 31
0.0
  0
LINE
  5
1E0
330
1F
100
AcDbEntity
  8
LAY-10
  6
CONTINUOUS
 62
     7
100
AcDbLine
 10
401.8282651007975
 20
584.5833455523008
 30
0.0
 11
415.6657693185863
 21
578.103237486412
 31
0.0
  0
ARC
  5
1E1
330
1F
100
AcDbEntity
  8
LAY-10
  6
CONTINUOUS
 62
     7
100
AcDbCircle
 10
397.3734839679308
 20
573.1204703577127
 30
0.0
 40
5.987878787879314
100
AcDbArc
 50
70.09370924236407
 51
259.906290757636
  0
ARC
  5
1E2
330
1F
100
AcDbEntity
  8
LAY-10
  6
CONTINUOUS
 62
     7
100
AcDbCircle
 10
412.1867893539758
 20
569.1512571422863
 30
0.0
 40
4.676258992807934
100
AcDbArc
 50
259.9062907576345
 51
70.09370924236299
  0
LINE
  5
1E3
330
1F
100
AcDbEntity
  8
LAY-10
  6
CONTINUOUS
 62
     7
100
AcDbLine
 10
399.4122536232307
 20
578.7505778763098
 30
0.0
 11
413.7789750465383
 21
573.5481131654258
 31
0.0
  0
LINE
  5
1E4
330
1F
100
AcDbEntity
  8
LAY-10
  6
CONTINUOUS
 62
     7
100
AcDbLine
 10
396.3240565225866
 20
567.2252693929199
 30
0.0
 11
411.3672345997072
 21
564.5473752831838
 31
0.0
  0
ARC
  5
1E5
330
1F
100
AcDbEntity
  8
LAY-10
  6
CONTINUOUS
 62
     7
100
AcDbCircle
 10
394.9878787878782
 20
554.9999999999898
 30
0.0
 40
5.987878787879314
100
AcDbArc
 50
85.09370924236485
 51
274.9062907576368
  0
ARC
  5
1E6
330
1F
100
AcDbEntity
  8
LAY-10
  6
CONTINUOUS
 62
     7
100
AcDbCircle
 10
410.323741007191
 20
554.9999999999898
 30
0.0
 40
4.676258992807934
100
AcDbArc
 50
274.9062907576354
 51
85.09370924236462
  0
LINE
  5
1E7
330
1F
100
AcDbEntity
  8
LAY-10
  6
CONTINUOUS
 62
     7
100
AcDbLine
 10
395.4999999999989
 20
560.9659386723557
 30
0.0
 11
410.7236842105227
 21
559.6591247677895
 31
0.0
  0
LINE
  5
1E8
330
1F
100
AcDbEntity
  8
LAY-10
  6
CONTINUOUS
 62
     7
100
AcDbLine
 10
395.4999999999989
 20
549.0340613276237
 30
0.0
 11
410.7236842105227
 21
550.3408752321898
 31
0.0
  0
ARC
  5
1E9
330
1F
100
AcDbEntity
  8
LAY-10
  6
CONTINUOUS
 62
     7
100
AcDbCircle
 10
397.3734839679308
 20
536.8795296422666
 30
0.0
 40
5.987878787879314
100
AcDbArc
 50
100.093709242364
 51
289.9062907576399
  0
ARC
  5
1EA
330
1F
100
AcDbEntity
  8
LAY-10
  6
CONTINUOUS
 62
     7
100
AcDbCircle
 10
412.1867893539758
 20
540.8487428576931
 30
0.0
 40
4.676258992807934
100
AcDbArc
 50
289.9062907576372
 51
100.0937092423636
  0
LINE
  5
1EB
330
1F
100
AcDbEntity
  8
LAY-10
  6
CONTINUOUS
 62
     7
100
AcDbLine
 10
396.3240565225868
 20
542.7747306070595
 30
0.0
 11
411.3672345997072
 21
545.4526247167955
 31
0.0
  0
LINE
  5
1EC
330
1F
100
AcDbEntity
  8
LAY-10
  6
CONTINUOUS
 62
     7
100
AcDbLine
 10
399.4122536232309
 20
531.2494221236697
 30
0.0
 11
413.7789750465383
 21
536.4518868345536
 31
0.0
  0
ARC
  5
1ED
330
1F
100
AcDbEntity
  8
LAY-10
  6
CONTINUOUS
 62
     7
100
AcDbCircle
 10
404.367724457467
 20
519.9939393939294
 30
0.0
 40
5.987878787879314
100
AcDbArc
 50
115.0937092423652
 51
304.9062907576363
  0
ARC
  5
1EE
330
1F
100
AcDbEntity
  8
LAY-10
  6
CONTINUOUS
 62
     7
100
AcDbCircle
 10
417.6489707283301
 20
527.6618705035858
 30
0.0
 40
4.676258992807934
100
AcDbArc
 50
304.9062907576326
 51
115.0937092423654
  0
LINE
  5
1EF
330
1F
100
AcDbEntity
  8
LAY-10
  6
CONTINUOUS
 62
     7
100
AcDbLine
 10
401.8282651007976
 20
525.4166544476786
 30
0.0
 11
415.6657693185863
 21
531.8967625135676
 31
0.0
  0
LINE
  5
1F0
330
1F
100
AcDbEntity
  8
LAY-10
  6
CONTINUOUS
 62
     7
100
AcDbLine
 10
407.7942037731635
 20
515.0833455523007
 30
0.0
 11
420.324894086386
 21
523.8269216969356
 31
0.0
  0
ARC
  5
1F1
330
1F
100
AcDbEntity
  8
LAY-10
  6
CONTINUOUS
 62
     7
100
AcDbCircle
 10
415.4939543256539
 20
505.4939543256447
 30
0.0
 40
5.987878787879314
100
AcDbArc
 50
130.0937092423658
 51
319.9062907576365
  0
ARC
  5
1F2
330
1F
100
AcDbEntity
  8
LAY-10
  6
CONTINUOUS
 62
     7
100
AcDbCircle
 10
426.3380464962726
 20
516.3380464962634
 30
0.0
 40
4.676258992807934
100
AcDbArc
 50
319.9062907576323
 51
130.0937092423648
  0
LINE
  5
1F3
330
1F
100
AcDbEntity
  8
LAY-10
  6
CONTINUOUS
 62
     7
100
AcDbLine
 10
411.6375230161609
 20
510.0746343988976
 30
0.0
 11
423.3263503297322
 21
519.915347765134
 31
0.0
  0
LINE
  5
1F4
330
1F
100
AcDbEntity
  8
LAY-10
  6
CONTINUOUS
 62
     7
100
AcDbLine
 10
420.0746343989071
 20
501.6375230161516
 30
0.0
 11
429.9153477651435
 21
513.326350329723
 31
0.0
  0
ARC
  5
1F5
330
1F
100
AcDbEntity
  8
LAY-10
  6
CONTINUOUS
 62
     7
100
AcDbCircle
 10
429.9939393939386
 20
494.3677244574578
 30
0.0
 40
5.987878787879314
100
AcDbArc
 50
145.0937092423635
 51
334.9062907576383
  0
ARC
  5
1F6
330
1F
100
AcDbEntity
  8
LAY-10
  6
CONTINUOUS
 62
     7
100
AcDbCircle
 10
437.661870503595
 20
507.6489707283205
 30
0.0
 40
4.676258992807934
100
AcDbArc
 50
334.9062907576369
 51
145.0937092423604
  0
LINE
  5
1F7
330
1F
100
AcDbEntity
  8
LAY-10
  6
CONTINUOUS
 62
     7
100
AcDbLine
 10
425.0833455523104
 20
497.7942037731542
 30
0.0
 11
433.8269216969449
 21
510.3248940863768
 31
0.0
  0
LINE
  5
1F8
330
1F
100
AcDbEntity
  8
LAY-10
  6
CONTINUOUS
 62
     7
100
AcDbLine
 10
435.416654447688
 20
491.8282651007883
 30
0.0
 11
441.8967625135771
 21
505.6657693185769
 31
0.0
  0
TEXT
  5
1F9
330
1F
100
AcDbEntity
  8
LAY-10
  6
CONTINUOUS
 62
     7
100
AcDbText
 10
489.8117688508369
 20
655.0534256557174
 30
0.0
 40
5.456692828292274
  1
Ｘ
 50
168.4112657214682
 41
1.2
  7
EXCADSTD
100
AcDbText
  0
TEXT
  5
1FA
330
1F
100
AcDbEntity
  8
LAY-10
  6
CONTINUOUS
 62
     7
100
AcDbText
 10
481.6446524597705
 20
656.7313491675217
 30
0.0
 40
5.456692828292274
  1
－
 50
173.04675943288
 41
1.2
  7
EXCADSTD
100
AcDbText
  0
TEXT
  5
1FB
330
1F
100
AcDbEntity
  8
LAY-10
  6
CONTINUOUS
 62
     7
100
AcDbText
 10
473.3686469320132
 20
657.7437472913925
 30
0.0
 40
5.456692828292274
  1
３
 50
177.682253144294
 41
1.2
  7
EXCADSTD
100
AcDbText
  0
TEXT
  5
1FC
330
1F
100
AcDbEntity
  8
LAY-10
  6
CONTINUOUS
 62
     7
100
AcDbText
 10
465.0378938063769
 20
658.0839969297331
 30
0.0
 40
5.456692828292274
  1
１
 50
182.317746855706
 41
1.2
  7
EXCADSTD
100
AcDbText
  0
TEXT
  5
1FD
330
1F
100
AcDbEntity
  8
LAY-10
  6
CONTINUOUS
 62
     7
100
AcDbText
 10
456.7068927798688
 20
657.7498721730831
 30
0.0
 40
5.456692828292274
  1
５
 50
186.9532405671201
 41
1.2
  7
EXCADSTD
100
AcDbText
  0
TEXT
  5
1FE
330
1F
100
AcDbEntity
  8
LAY-10
  6
CONTINUOUS
 62
     7
100
AcDbText
 10
448.4301451712599
 20
656.743558861993
 30
0.0
 40
5.456692828292274
  1
０
 50
191.5887342785318
 41
1.2
  7
EXCADSTD
100
AcDbText
  0
ARC
  5
1FF
330
1F
100
AcDbEntity
  8
LAY-10
  6
CONTINUOUS
 62
     7
100
AcDbCircle
 10
464.999999999999
 20
554.9999999999078
 30
0.0
 40
82.19108621682881
100
AcDbArc
 50
110.6150498491151
 51
117.3849501507543
  0
ARC
  5
200
330
1F
100
AcDbEntity
  8
LAY-10
  6
CONTINUOUS
 62
     7
100
AcDbCircle
 10
464.999999999999
 20
554.9999999999078
 30
0.0
 40
82.19108621682881
100
AcDbArc
 50
122.6150498490947
 51
129.3849501507375
  0
ARC
  5
201
330
1F
100
AcDbEntity
  8
LAY-10
  6
CONTINUOUS
 62
     7
100
AcDbCircle
 10
464.999999999999
 20
554.9999999999078
 30
0.0
 40
82.19108621682881
100
AcDbArc
 50
134.6150498490784
 51
141.3849501507248
  0
ARC
  5
202
330
1F
100
AcDbEntity
  8
LAY-10
  6
CONTINUOUS
 62
     7
100
AcDbCircle
 10
464.999999999999
 20
554.9999999999078
 30
0.0
 40
82.19108621682881
100
AcDbArc
 50
158.6150498490577
 51
165.3849501507136
  0
ARC
  5
203
330
1F
100
AcDbEntity
  8
LAY-10
  6
CONTINUOUS
 62
     7
100
AcDbCircle
 10
464.999999999999
 20
554.9999999999078
 30
0.0
 40
82.19108621682881
100
AcDbArc
 50
146.6150498490659
 51
153.3849501507168
  0
ARC
  5
204
330
1F
100
AcDbEntity
  8
LAY-10
  6
CONTINUOUS
 62
     7
100
AcDbCircle
 10
464.999999999999
 20
554.9999999999078
 30
0.0
 40
82.19108621682881
100
AcDbArc
 50
170.6150498490544
 51
177.3849501507156
  0
ARC
  5
205
330
1F
100
AcDbEntity
  8
LAY-10
  6
CONTINUOUS
 62
     7
100
AcDbCircle
 10
464.999999999999
 20
554.9999999999078
 30
0.0
 40
82.19108621682881
100
AcDbArc
 50
182.6150498490562
 51
189.3849501507227
  0
ARC
  5
206
330
1F
100
AcDbEntity
  8
LAY-10
  6
CONTINUOUS
 62
     7
100
AcDbCircle
 10
464.999999999999
 20
554.9999999999078
 30
0.0
 40
82.19108621682881
100
AcDbArc
 50
194.6150498490633
 51
201.3849501507341
  0
ARC
  5
207
330
1F
100
AcDbEntity
  8
LAY-10
  6
CONTINUOUS
 62
     7
100
AcDbCircle
 10
464.999999999999
 20
554.9999999999078
 30
0.0
 40
82.19108621682881
100
AcDbArc
 50
206.615049849075
 51
213.3849501507501
  0
ARC
  5
208
330
1F
100
AcDbEntity
  8
LAY-10
  6
CONTINUOUS
 62
     7
100
AcDbCircle
 10
464.999999999999
 20
554.9999999999078
 30
0.0
 40
82.19108621682881
100
AcDbArc
 50
218.6150498490908
 51
225.3849501507692
  0
ARC
  5
209
330
1F
100
AcDbEntity
  8
LAY-10
  6
CONTINUOUS
 62
     7
100
AcDbCircle
 10
464.999999999999
 20
554.9999999999078
 30
0.0
 40
82.19108621682881
100
AcDbArc
 50
230.6150498491101
 51
237.3849501507913
  0
ARC
  5
20A
330
1F
100
AcDbEntity
  8
LAY-10
  6
CONTINUOUS
 62
     7
100
AcDbCircle
 10
464.999999999999
 20
554.9999999999078
 30
0.0
 40
82.19108621682881
100
AcDbArc
 50
242.6150498491319
 51
249.3849501508033
  0
LINE
  5
20B
330
1F
100
AcDbEntity
  8
LAY-10
  6
CONTINUOUS
 62
     7
100
AcDbLine
 10
356.9618123069429
 20
564.9999999999898
 30
0.0
 11
374.2479305397132
 21
564.9999999999898
 31
0.0
  0
LINE
  5
20C
330
1F
100
AcDbEntity
  8
LAY-10
  6
CONTINUOUS
 62
     7
100
AcDbLine
 10
356.9618123069429
 20
544.9999999999899
 30
0.0
 11
374.2479305397306
 21
544.9999999999899
 31
0.0
  0
ARC
  5
20D
330
1F
100
AcDbEntity
  8
LAY-10
  6
CONTINUOUS
 62
     7
100
AcDbCircle
 10
451.6605060051948
 20
550.6657356633054
 30
0.0
 40
2.025974025987109
100
AcDbArc
 50
296.3051095280723
 51
99.69489047196346
  0
LINE
  5
20E
330
1F
100
AcDbEntity
  8
LAY-10
  6
CONTINUOUS
 62
     7
100
AcDbLine
 10
430.1210147920116
 20
537.7578614345201
 30
0.0
 11
452.5583186963337
 21
548.8495574986958
 31
0.0
  0
LINE
  5
20F
330
1F
100
AcDbEntity
  8
LAY-10
  6
CONTINUOUS
 62
     7
100
AcDbLine
 10
430.1210147920097
 20
572.2421385654634
 30
0.0
 11
452.558318696338
 21
561.1504425012989
 31
0.0
  0
ARC
  5
210
330
1F
100
AcDbEntity
  8
LAY-10
  6
CONTINUOUS
 62
     7
100
AcDbCircle
 10
465.0000000000065
 20
569.0259740259769
 30
0.0
 40
2.025974025987109
100
AcDbArc
 50
188.3051095280617
 51
351.6948904719675
  0
LINE
  5
211
330
1F
100
AcDbEntity
  8
LAY-10
  6
CONTINUOUS
 62
     7
100
AcDbLine
 10
459.3799509382656
 20
593.4999999999063
 30
0.0
 11
462.9952725424743
 21
568.7333333333339
 31
0.0
  0
ARC
  5
212
330
1F
100
AcDbEntity
  8
LAY-10
  6
CONTINUOUS
 62
     7
100
AcDbCircle
 10
404.367724457467
 20
590.0060606060501
 30
0.0
 40
5.987878787879314
100
AcDbArc
 50
55.09370924236427
 51
244.9062907576368
  0
LINE
  5
213
330
1F
100
AcDbEntity
  8
LAY-10
  6
CONTINUOUS
 62
     7
100
AcDbLine
 10
407.7942037731634
 20
594.9166544476788
 30
0.0
 11
420.324894086386
 21
586.1730783030436
 31
0.0
  0
ARC
  5
214
330
1F
100
AcDbEntity
  8
LAY-10
  6
CONTINUOUS
 62
     7
100
AcDbCircle
 10
417.6489707283297
 20
582.3381294963938
 30
0.0
 40
4.676258992807934
100
AcDbArc
 50
244.9062907576372
 51
55.09370924236249
  0
LINE
  5
215
330
1F
100
AcDbEntity
  8
LAY-10
  6
CONTINUOUS
 62
     7
100
AcDbLine
 10
458.549607784071
 20
542.7111507094993
 30
0.0
 11
446.9169829869512
 21
520.5494637609747
 31
0.0
  0
ARC
  5
216
330
1F
100
AcDbEntity
  8
LAY-10
  6
CONTINUOUS
 62
     7
100
AcDbCircle
 10
441.8880556137887
 20
523.1891375998771
 30
0.0
 40
5.679611650485314
100
AcDbArc
 50
135.6948904719647
 51
332.3051095280641
  0
LINE
  5
217
330
1F
100
AcDbEntity
  8
LAY-10
  6
CONTINUOUS
 62
     7
100
AcDbLine
 10
470.6200490617356
 20
516.5000000000705
 30
0.0
 11
467.0047274575389
 21
541.2666666666448
 31
0.0
  0
ARC
  5
218
330
1F
100
AcDbEntity
  8
LAY-10
  6
CONTINUOUS
 62
     7
100
AcDbCircle
 10
465.0000000000003
 20
515.6796116505574
 30
0.0
 40
5.679611650485314
100
AcDbArc
 50
171.6948904719365
 51
8.305109528034652
  0
ARC
  5
219
330
1F
100
AcDbEntity
  8
LAY-10
  6
CONTINUOUS
 62
     7
100
AcDbCircle
 10
465.0000000000065
 20
540.9740259740028
 30
0.0
 40
2.025974025987109
100
AcDbArc
 50
8.305109528032533
 51
171.6948904719384
  0
LINE
  5
21A
330
1F
100
AcDbEntity
  8
LAY-10
  6
CONTINUOUS
 62
     7
100
AcDbLine
 10
459.3799509382656
 20
516.5000000000732
 30
0.0
 11
462.9952725424743
 21
541.2666666666457
 31
0.0
  0
CIRCLE
  5
21B
330
1F
100
AcDbEntity
  8
LAY-10
  6
CONTINUOUS
 62
     7
100
AcDbCircle
 10
464.999999999999
 20
554.99999999999
 30
0.0
 40
80.58339106224196
  0
CIRCLE
  5
21C
330
1F
100
AcDbEntity
  8
LAY-10
  6
CONTINUOUS
 62
     7
100
AcDbCircle
 10
465.0000000000515
 20
555.0000000000691
 30
0.0
 40
91.3013587595085
  0
ARC
  5
21D
330
1F
100
AcDbEntity
  8
LAY-10
  6
CONTINUOUS
 62
     7
100
AcDbCircle
 10
464.999999999999
 20
554.9999999999078
 30
0.0
 40
82.19108621682881
100
AcDbArc
 50
86.61504984916121
 51
93.38495015079644
  0
ARC
  5
21E
330
1F
100
AcDbEntity
  8
LAY-10
  6
CONTINUOUS
 62
     7
100
AcDbCircle
 10
464.999999999999
 20
554.9999999999078
 30
0.0
 40
82.19108621682881
100
AcDbArc
 50
98.61504984913728
 51
105.3849501507742
  0
LINE
  5
21F
330
1F
100
AcDbEntity
  8
LAY-10
  6
CONTINUOUS
 62
     7
100
AcDbLine
 10
469.8529040114549
 20
472.9523066982014
 30
0.0
 11
470.8060803314326
 21
463.8834398008005
 31
0.0
  0
LINE
  5
220
330
1F
100
AcDbEntity
  8
LAY-10
  6
CONTINUOUS
 62
     7
100
AcDbLine
 10
460.1470959886038
 20
472.952306698198
 30
0.0
 11
459.1939196686263
 21
463.8834398007988
 31
0.0
  0
LINE
  5
221
330
1F
100
AcDbEntity
  8
LAY-10
  6
CONTINUOUS
 62
     7
100
AcDbLine
 10
452.6881817733412
 20
473.736270172701
 30
0.0
 11
451.7350054533645
 21
464.6674032753078
 31
0.0
  0
LINE
  5
222
330
1F
100
AcDbEntity
  8
LAY-10
  6
CONTINUOUS
 62
     7
100
AcDbLine
 10
443.1944689426026
 20
475.7542211294777
 30
0.0
 11
440.3765983617047
 21
467.0817072327577
 31
0.0
  0
LINE
  5
223
330
1F
100
AcDbEntity
  8
LAY-10
  6
CONTINUOUS
 62
     7
100
AcDbLine
 10
470.9659386723649
 20
485.4999999999897
 30
0.0
 11
469.6591247677987
 21
500.7236842105135
 31
0.0
  0
LINE
  5
224
330
1F
100
AcDbEntity
  8
LAY-10
  6
CONTINUOUS
 62
     7
100
AcDbLine
 10
459.0340613276329
 20
485.4999999999897
 30
0.0
 11
460.3408752321989
 21
500.7236842105135
 31
0.0
  0
ARC
  5
225
330
1F
100
AcDbEntity
  8
LAY-10
  6
CONTINUOUS
 62
     7
100
AcDbCircle
 10
464.9999999999988
 20
484.987878787869
 30
0.0
 40
5.987878787879314
100
AcDbArc
 50
175.0937092423632
 51
4.90629075763518
  0
ARC
  5
226
330
1F
100
AcDbEntity
  8
LAY-10
  6
CONTINUOUS
 62
     7
100
AcDbCircle
 10
464.9999999999988
 20
500.3237410071818
 30
0.0
 40
4.676258992807934
100
AcDbArc
 50
4.906290757635409
 51
175.0937092423647
  0
ARC
  5
227
330
1F
100
AcDbEntity
  8
LAY-10
  6
CONTINUOUS
 62
     7
100
AcDbCircle
 10
446.8795296422761
 20
487.3734839679216
 30
0.0
 40
5.987878787879314
100
AcDbArc
 50
160.0937092423619
 51
349.9062907576361
  0
ARC
  5
228
330
1F
100
AcDbEntity
  8
LAY-10
  6
CONTINUOUS
 62
     7
100
AcDbCircle
 10
450.8487428577022
 20
502.1867893539666
 30
0.0
 40
4.676258992807934
100
AcDbArc
 50
349.9062907576364
 51
160.093709242363
  0
LINE
  5
229
330
1F
100
AcDbEntity
  8
LAY-10
  6
CONTINUOUS
 62
     7
100
AcDbLine
 10
452.7747306070688
 20
486.3240565225776
 30
0.0
 11
455.4526247168047
 21
501.3672345996981
 31
0.0
  0
LINE
  5
22A
330
1F
100
AcDbEntity
  8
LAY-10
  6
CONTINUOUS
 62
     7
100
AcDbLine
 10
441.2494221236785
 20
489.4122536232215
 30
0.0
 11
446.4518868345628
 21
503.7789750465291
 31
0.0
  0
ARC
  5
22B
330
1F
100
AcDbEntity
  8
LAY-10
  6
CONTINUOUS
 62
     7
100
AcDbCircle
 10
464.999999999999
 20
555.0000000000719
 30
0.0
 40
82.19108621682881
100
AcDbArc
 50
266.6150498492037
 51
273.384950150839
  0
ARC
  5
22C
330
1F
100
AcDbEntity
  8
LAY-10
  6
CONTINUOUS
 62
     7
100
AcDbCircle
 10
464.999999999999
 20
555.0000000000719
 30
0.0
 40
82.19108621682881
100
AcDbArc
 50
254.615049849226
 51
261.3849501508628
  0
LINE
  5
22D
330
1F
100
AcDbEntity
  8
LAY-10
  6
CONTINUOUS
 62
     7
100
AcDbLine
 10
475.1748100096799
 20
455.0993206202768
 30
0.0
 11
464.9999999999998
 21
448.6172517537429
 31
0.0
  0
LINE
  5
22E
330
1F
100
AcDbEntity
  8
LAY-10
  6
CONTINUOUS
 62
     7
100
AcDbLine
 10
454.8251899903198
 20
455.0993206202768
 30
0.0
 11
464.9999999999998
 21
448.6172517537429
 31
0.0
  0
LINE
  5
22F
330
1F
100
AcDbEntity
  8
LAY-10
  6
CONTINUOUS
 62
     7
100
AcDbLine
 10
475.1748100096799
 20
455.0993206202734
 30
0.0
 11
464.9999999999998
 21
461.581389486807
 31
0.0
  0
LINE
  5
230
330
1F
100
AcDbEntity
  8
LAY-10
  6
CONTINUOUS
 62
     7
100
AcDbLine
 10
454.8251899903198
 20
455.0993206202734
 30
0.0
 11
464.9999999999998
 21
461.581389486807
 31
0.0
  0
TEXT
  5
231
330
1F
100
AcDbEntity
  8
LAY-10
  6
CONTINUOUS
 62
     7
100
AcDbText
 10
458.8268182525493
 20
451.9491670027251
 30
0.0
 40
5.846457
  1
ＳＦ
 41
1.035
  7
EXCADSTD
100
AcDbText
  0
ARC
  5
232
330
1F
100
AcDbEntity
  8
LAY-10
  6
CONTINUOUS
 62
     7
100
AcDbCircle
 10
566.5000000000008
 20
554.9999999999898
 30
0.0
 40
4.0
100
AcDbArc
 50
90.0
 51
270.0
  0
ARC
  5
233
330
1F
100
AcDbEntity
  8
LAY-10
  6
CONTINUOUS
 62
     7
100
AcDbCircle
 10
464.999999999999
 20
554.9999999999898
 30
0.0
 40
108.0000000000001
100
AcDbArc
 50
357.877448637857
 51
357.8872344266123
  0
LINE
  5
234
330
1F
100
AcDbEntity
  8
LAY-10
  6
CONTINUOUS
 62
     7
100
AcDbLine
 10
477.3118182266568
 20
636.2637298272786
 30
0.0
 11
478.2649945466334
 21
645.3325967246716
 31
0.0
  0
LINE
  5
235
330
1F
100
AcDbEntity
  8
LAY-10
  6
CONTINUOUS
 62
     7
100
AcDbLine
 10
486.8055310573953
 20
634.2457788705019
 30
0.0
 11
489.6234016382933
 21
642.9182927672217
 31
0.0
  0
LINE
  5
236
330
1F
100
AcDbEntity
  8
LAY-10
  6
CONTINUOUS
 62
     7
100
AcDbLine
 10
493.9384549296113
 20
631.9281514126966
 30
0.0
 11
496.7563255105062
 21
640.600665309408
 31
0.0
  0
LINE
  5
237
330
1F
100
AcDbEntity
  8
LAY-10
  6
CONTINUOUS
 62
     7
100
AcDbLine
 10
502.805151761648
 20
627.9804436391518
 30
0.0
 11
507.3645621374296
 21
635.8775740625631
 31
0.0
  0
LINE
  5
238
330
1F
100
AcDbEntity
  8
LAY-10
  6
CONTINUOUS
 62
     7
100
AcDbLine
 10
509.3003422900358
 20
624.2304436391606
 30
0.0
 11
513.8597526658119
 21
632.1275740625614
 31
0.0
  0
LINE
  5
239
330
1F
100
AcDbEntity
  8
LAY-10
  6
CONTINUOUS
 62
     7
100
AcDbLine
 10
517.15250592468
 20
618.525512821752
 30
0.0
 11
523.2541879834356
 21
625.3021172777146
 31
0.0
  0
LINE
  5
23A
330
1F
100
AcDbEntity
  8
LAY-10
  6
CONTINUOUS
 62
     7
100
AcDbLine
 10
522.7260921157684
 20
613.5070332740696
 30
0.0
 11
528.8277741745148
 21
620.2836377300216
 31
0.0
  0
LINE
  5
23B
330
1F
100
AcDbEntity
  8
LAY-10
  6
CONTINUOUS
 62
     7
100
AcDbLine
 10
529.2205453233248
 20
606.2942122648099
 30
0.0
 11
536.597826279956
 21
611.6541206208462
 31
0.0
  0
LINE
  5
23C
330
1F
100
AcDbEntity
  8
LAY-10
  6
CONTINUOUS
 62
     7
100
AcDbLine
 10
533.6289347155295
 20
600.2265848070057
 30
0.0
 11
541.0062156721482
 21
605.5864931630333
 31
0.0
  0
LINE
  5
23D
330
1F
100
AcDbEntity
  8
LAY-10
  6
CONTINUOUS
 62
     7
100
AcDbLine
 10
538.4818387269826
 20
591.8211084949512
 30
0.0
 11
546.8122960035527
 21
595.5300670362176
 31
0.0
  0
LINE
  5
23E
330
1F
100
AcDbEntity
  8
LAY-10
  6
CONTINUOUS
 62
     7
100
AcDbLine
 10
541.5323635500645
 20
584.9695175626379
 30
0.0
 11
549.8628208266197
 21
588.6784761038977
 31
0.0
  0
LINE
  5
23F
330
1F
100
AcDbEntity
  8
LAY-10
  6
CONTINUOUS
 62
     7
100
AcDbLine
 10
544.5316231732938
 20
575.738745596573
 30
0.0
 11
553.4511758128407
 21
577.6346550372698
 31
0.0
  0
LINE
  5
240
330
1F
100
AcDbEntity
  8
LAY-10
  6
CONTINUOUS
 62
     7
100
AcDbLine
 10
546.090960854442
 20
568.4026385910728
 30
0.0
 11
555.0105134939723
 21
570.2985480317659
 31
0.0
  0
LINE
  5
241
330
1F
100
AcDbEntity
  8
LAY-10
  6
CONTINUOUS
 62
     7
100
AcDbLine
 10
547.1054940518648
 20
558.7500000000712
 30
0.0
 11
556.2243148032741
 21
558.7500000000712
 31
0.0
  0
LINE
  5
242
330
1F
100
AcDbEntity
  8
LAY-10
  6
CONTINUOUS
 62
     7
100
AcDbLine
 10
547.1054940518798
 20
551.2500000000715
 30
0.0
 11
556.2243148032724
 21
551.2500000000715
 31
0.0
  0
LINE
  5
243
330
1F
100
AcDbEntity
  8
LAY-10
  6
CONTINUOUS
 62
     7
100
AcDbLine
 10
546.0909608544941
 20
541.5973614090585
 30
0.0
 11
555.0105134939737
 21
539.7014519683762
 31
0.0
  0
LINE
  5
244
330
1F
100
AcDbEntity
  8
LAY-10
  6
CONTINUOUS
 62
     7
100
AcDbLine
 10
544.5316231733747
 20
534.2612544035524
 30
0.0
 11
553.451175812839
 21
532.365344962873
 31
0.0
  0
LINE
  5
245
330
1F
100
AcDbEntity
  8
LAY-10
  6
CONTINUOUS
 62
     7
100
AcDbLine
 10
541.5323635501736
 20
525.0304824374562
 30
0.0
 11
549.8628208266214
 21
521.3215238962443
 31
0.0
  0
LINE
  5
246
330
1F
100
AcDbEntity
  8
LAY-10
  6
CONTINUOUS
 62
     7
100
AcDbLine
 10
538.4818387271165
 20
518.1788915051314
 30
0.0
 11
546.8122960035511
 21
514.4699329639258
 31
0.0
  0
LINE
  5
247
330
1F
100
AcDbEntity
  8
LAY-10
  6
CONTINUOUS
 62
     7
100
AcDbLine
 10
533.6289347156752
 20
509.7734151930308
 30
0.0
 11
541.0062156721496
 21
504.4135068371083
 31
0.0
  0
LINE
  5
248
330
1F
100
AcDbEntity
  8
LAY-10
  6
CONTINUOUS
 62
     7
100
AcDbLine
 10
529.2205453234902
 20
503.7057877352127
 30
0.0
 11
536.5978262799547
 21
498.3458793792972
 31
0.0
  0
LINE
  5
249
330
1F
100
AcDbEntity
  8
LAY-10
  6
CONTINUOUS
 62
     7
100
AcDbLine
 10
522.7260921159246
 20
496.4929667258997
 30
0.0
 11
528.8277741745159
 21
489.7163622701196
 31
0.0
  0
LINE
  5
24A
330
1F
100
AcDbEntity
  8
LAY-10
  6
CONTINUOUS
 62
     7
100
AcDbLine
 10
517.1525059248494
 20
491.4744871782023
 30
0.0
 11
523.2541879834341
 21
484.6978827224293
 31
0.0
  0
LINE
  5
24B
330
1F
100
AcDbEntity
  8
LAY-10
  6
CONTINUOUS
 62
     7
100
AcDbLine
 10
509.3003422901737
 20
485.7695563607431
 30
0.0
 11
513.859752665813
 21
477.8724259375797
 31
0.0
  0
LINE
  5
24C
330
1F
100
AcDbEntity
  8
LAY-10
  6
CONTINUOUS
 62
     7
100
AcDbLine
 10
502.805151761793
 20
482.0195563607388
 30
0.0
 11
507.3645621374285
 21
474.1224259375812
 31
0.0
  0
LINE
  5
24D
330
1F
100
AcDbEntity
  8
LAY-10
  6
CONTINUOUS
 62
     7
100
AcDbLine
 10
493.9384549297212
 20
478.07184858716
 30
0.0
 11
496.7563255105239
 21
469.399334690733
 31
0.0
  0
ARC
  5
24E
330
1F
100
AcDbEntity
  8
LAY-10
  6
CONTINUOUS
 62
     7
100
AcDbCircle
 10
488.111944386207
 20
586.810862400104
 30
0.0
 40
5.679611650485314
100
AcDbArc
 50
315.6948904719375
 51
152.3051095280333
  0
ARC
  5
24F
330
1F
100
AcDbEntity
  8
LAY-10
  6
CONTINUOUS
 62
     7
100
AcDbCircle
 10
473.2442606815054
 20
566.3472513496795
 30
0.0
 40
2.025974025987109
100
AcDbArc
 50
152.3051095280306
 51
315.6948904719288
  0
LINE
  5
250
330
1F
100
AcDbEntity
  8
LAY-10
  6
CONTINUOUS
 62
     7
100
AcDbLine
 10
483.0830170130459
 20
589.450536239009
 30
0.0
 11
471.4503922159157
 21
567.2888492904896
 31
0.0
  0
LINE
  5
251
330
1F
100
AcDbEntity
  8
LAY-10
  6
CONTINUOUS
 62
     7
100
AcDbLine
 10
492.1764474133735
 20
582.8437723277107
 30
0.0
 11
474.6941093803832
 21
564.9321508216824
 31
0.0
  0
ARC
  5
252
330
1F
100
AcDbEntity
  8
LAY-10
  6
CONTINUOUS
 62
     7
100
AcDbCircle
 10
502.3959115629825
 20
567.1506682253886
 30
0.0
 40
5.679611650485314
100
AcDbArc
 50
279.6948904719351
 51
116.3051095280355
  0
ARC
  5
253
330
1F
100
AcDbEntity
  8
LAY-10
  6
CONTINUOUS
 62
     7
100
AcDbCircle
 10
478.339493994798
 20
559.3342643366886
 30
0.0
 40
2.025974025987109
100
AcDbArc
 50
116.305109528029
 51
279.6948904719339
  0
LINE
  5
254
330
1F
100
AcDbEntity
  8
LAY-10
  6
CONTINUOUS
 62
     7
100
AcDbLine
 10
503.3523665465797
 20
561.5521700013394
 30
0.0
 11
478.6806710105947
 21
557.3372242775346
 31
0.0
  0
ARC
  5
255
330
1F
100
AcDbEntity
  8
LAY-10
  6
CONTINUOUS
 62
     7
100
AcDbCircle
 10
502.3959115629833
 20
542.8493317745938
 30
0.0
 40
5.679611650485314
100
AcDbArc
 50
243.6948904719337
 51
80.30510952803698
  0
LINE
  5
256
330
1F
100
AcDbEntity
  8
LAY-10
  6
CONTINUOUS
 62
     7
100
AcDbLine
 10
503.3523665465833
 20
548.4478299986423
 30
0.0
 11
478.6806710105998
 21
552.6627757224594
 31
0.0
  0
ARC
  5
257
330
1F
100
AcDbEntity
  8
LAY-10
  6
CONTINUOUS
 62
     7
100
AcDbCircle
 10
473.2442606815177
 20
543.6527486503091
 30
0.0
 40
2.025974025987109
100
AcDbArc
 50
44.30510952803032
 51
207.6948904719291
  0
LINE
  5
258
330
1F
100
AcDbEntity
  8
LAY-10
  6
CONTINUOUS
 62
     7
100
AcDbLine
 10
492.1764474133776
 20
527.1562276722684
 30
0.0
 11
474.6941093803958
 21
545.0678491783056
 31
0.0
  0
ARC
  5
259
330
1F
100
AcDbEntity
  8
LAY-10
  6
CONTINUOUS
 62
     7
100
AcDbCircle
 10
483.1204703577219
 20
622.626516032058
 30
0.0
 40
5.987878787879314
100
AcDbArc
 50
340.0937092423619
 51
169.9062907576367
  0
ARC
  5
25A
330
1F
100
AcDbEntity
  8
LAY-10
  6
CONTINUOUS
 62
     7
100
AcDbCircle
 10
479.1512571422957
 20
607.813210646013
 30
0.0
 40
4.676258992807934
100
AcDbArc
 50
169.9062907576373
 51
340.0937092423628
  0
LINE
  5
25B
330
1F
100
AcDbEntity
  8
LAY-10
  6
CONTINUOUS
 62
     7
100
AcDbLine
 10
477.2252693929291
 20
623.675943477402
 30
0.0
 11
474.5473752831933
 21
608.6327654002814
 31
0.0
  0
LINE
  5
25C
330
1F
100
AcDbEntity
  8
LAY-10
  6
CONTINUOUS
 62
     7
100
AcDbLine
 10
488.7505778763195
 20
620.5877463767581
 30
0.0
 11
483.5481131654352
 21
606.2210249534505
 31
0.0
  0
ARC
  5
25D
330
1F
100
AcDbEntity
  8
LAY-10
  6
CONTINUOUS
 62
     7
100
AcDbCircle
 10
500.0060606060593
 20
615.6322755425217
 30
0.0
 40
5.987878787879314
100
AcDbArc
 50
325.0937092423641
 51
154.9062907576344
  0
ARC
  5
25E
330
1F
100
AcDbEntity
  8
LAY-10
  6
CONTINUOUS
 62
     7
100
AcDbCircle
 10
492.338129496403
 20
602.3510292716587
 30
0.0
 40
4.676258992807934
100
AcDbArc
 50
154.9062907576356
 51
325.0937092423676
  0
LINE
  5
25F
330
1F
100
AcDbEntity
  8
LAY-10
  6
CONTINUOUS
 62
     7
100
AcDbLine
 10
494.5833455523103
 20
618.1717348991913
 30
0.0
 11
488.1032374864213
 21
604.3342306814025
 31
0.0
  0
LINE
  5
260
330
1F
100
AcDbEntity
  8
LAY-10
  6
CONTINUOUS
 62
     7
100
AcDbLine
 10
504.9166544476881
 20
612.2057962268252
 30
0.0
 11
496.1730783030531
 21
599.6751059136028
 31
0.0
  0
ARC
  5
261
330
1F
100
AcDbEntity
  8
LAY-10
  6
CONTINUOUS
 62
     7
100
AcDbCircle
 10
514.5060456743441
 20
604.5060456743347
 30
0.0
 40
5.987878787879314
100
AcDbArc
 50
310.0937092423636
 51
139.9062907576327
  0
ARC
  5
262
330
1F
100
AcDbEntity
  8
LAY-10
  6
CONTINUOUS
 62
     7
100
AcDbCircle
 10
503.6619535037254
 20
593.6619535037162
 30
0.0
 40
4.676258992807934
100
AcDbArc
 50
139.9062907576347
 51
310.0937092423649
  0
LINE
  5
263
330
1F
100
AcDbEntity
  8
LAY-10
  6
CONTINUOUS
 62
     7
100
AcDbLine
 10
509.9253656010912
 20
608.3624769838277
 30
0.0
 11
500.0846522348548
 21
596.6736496702564
 31
0.0
  0
LINE
  5
264
330
1F
100
AcDbEntity
  8
LAY-10
  6
CONTINUOUS
 62
     7
100
AcDbLine
 10
518.3624769838372
 20
599.9253656010817
 30
0.0
 11
506.6736496702657
 21
590.0846522348454
 31
0.0
  0
LINE
  5
265
330
1F
100
AcDbEntity
  8
LAY-10
  6
CONTINUOUS
 62
     7
100
AcDbLine
 10
528.1717348992005
 20
584.5833455523008
 30
0.0
 11
514.3342306814117
 21
578.103237486412
 31
0.0
  0
ARC
  5
266
330
1F
100
AcDbEntity
  8
LAY-10
  6
CONTINUOUS
 62
     7
100
AcDbCircle
 10
532.6265160320672
 20
573.1204703577127
 30
0.0
 40
5.987878787879314
100
AcDbArc
 50
280.0937092423635
 51
109.906290757637
  0
ARC
  5
267
330
1F
100
AcDbEntity
  8
LAY-10
  6
CONTINUOUS
 62
     7
100
AcDbCircle
 10
517.8132106460222
 20
569.1512571422863
 30
0.0
 40
4.676258992807934
100
AcDbArc
 50
109.9062907576371
 51
280.0937092423657
  0
LINE
  5
268
330
1F
100
AcDbEntity
  8
LAY-10
  6
CONTINUOUS
 62
     7
100
AcDbLine
 10
530.5877463767673
 20
578.7505778763098
 30
0.0
 11
516.2210249534597
 21
573.5481131654258
 31
0.0
  0
LINE
  5
269
330
1F
100
AcDbEntity
  8
LAY-10
  6
CONTINUOUS
 62
     7
100
AcDbLine
 10
533.6759434774114
 20
567.2252693929199
 30
0.0
 11
518.6327654002909
 21
564.5473752831838
 31
0.0
  0
ARC
  5
26A
330
1F
100
AcDbEntity
  8
LAY-10
  6
CONTINUOUS
 62
     7
100
AcDbCircle
 10
535.0121212121197
 20
554.9999999999898
 30
0.0
 40
5.987878787879314
100
AcDbArc
 50
265.0937092423637
 51
94.90629075763515
  0
ARC
  5
26B
330
1F
100
AcDbEntity
  8
LAY-10
  6
CONTINUOUS
 62
     7
100
AcDbCircle
 10
519.676258992807
 20
554.9999999999898
 30
0.0
 40
4.676258992807934
100
AcDbArc
 50
94.9062907576347
 51
265.0937092423654
  0
LINE
  5
26C
330
1F
100
AcDbEntity
  8
LAY-10
  6
CONTINUOUS
 62
     7
100
AcDbLine
 10
534.4999999999991
 20
560.9659386723557
 30
0.0
 11
519.2763157894753
 21
559.6591247677895
 31
0.0
  0
LINE
  5
26D
330
1F
100
AcDbEntity
  8
LAY-10
  6
CONTINUOUS
 62
     7
100
AcDbLine
 10
534.4999999999991
 20
549.0340613276237
 30
0.0
 11
519.2763157894753
 21
550.3408752321898
 31
0.0
  0
ARC
  5
26E
330
1F
100
AcDbEntity
  8
LAY-10
  6
CONTINUOUS
 62
     7
100
AcDbCircle
 10
532.6265160320672
 20
536.8795296422666
 30
0.0
 40
5.987878787879314
100
AcDbArc
 50
250.0937092423596
 51
79.90629075763678
  0
ARC
  5
26F
330
1F
100
AcDbEntity
  8
LAY-10
  6
CONTINUOUS
 62
     7
100
AcDbCircle
 10
517.8132106460222
 20
540.8487428576931
 30
0.0
 40
4.676258992807934
100
AcDbArc
 50
79.90629075763718
 51
250.093709242363
  0
LINE
  5
270
330
1F
100
AcDbEntity
  8
LAY-10
  6
CONTINUOUS
 62
     7
100
AcDbLine
 10
533.6759434774112
 20
542.7747306070595
 30
0.0
 11
518.6327654002909
 21
545.4526247167955
 31
0.0
  0
LINE
  5
271
330
1F
100
AcDbEntity
  8
LAY-10
  6
CONTINUOUS
 62
     7
100
AcDbLine
 10
530.5877463767671
 20
531.2494221236697
 30
0.0
 11
516.2210249534597
 21
536.4518868345536
 31
0.0
  0
ARC
  5
272
330
1F
100
AcDbEntity
  8
LAY-10
  6
CONTINUOUS
 62
     7
100
AcDbCircle
 10
525.6322755425309
 20
519.9939393939294
 30
0.0
 40
5.987878787879314
100
AcDbArc
 50
235.0937092423643
 51
64.90629075763434
  0
ARC
  5
273
330
1F
100
AcDbEntity
  8
LAY-10
  6
CONTINUOUS
 62
     7
100
AcDbCircle
 10
512.3510292716679
 20
527.6618705035858
 30
0.0
 40
4.676258992807934
100
AcDbArc
 50
64.90629075763532
 51
235.093709242367
  0
LINE
  5
274
330
1F
100
AcDbEntity
  8
LAY-10
  6
CONTINUOUS
 62
     7
100
AcDbLine
 10
528.1717348992004
 20
525.4166544476786
 30
0.0
 11
514.3342306814117
 21
531.8967625135676
 31
0.0
  0
LINE
  5
275
330
1F
100
AcDbEntity
  8
LAY-10
  6
CONTINUOUS
 62
     7
100
AcDbLine
 10
522.2057962268344
 20
515.0833455523007
 30
0.0
 11
509.675105913612
 21
523.8269216969356
 31
0.0
  0
ARC
  5
276
330
1F
100
AcDbEntity
  8
LAY-10
  6
CONTINUOUS
 62
     7
100
AcDbCircle
 10
514.5060456743441
 20
505.4939543256447
 30
0.0
 40
5.987878787879314
100
AcDbArc
 50
220.0937092423635
 51
49.90629075763499
  0
ARC
  5
277
330
1F
100
AcDbEntity
  8
LAY-10
  6
CONTINUOUS
 62
     7
100
AcDbCircle
 10
503.6619535037254
 20
516.3380464962634
 30
0.0
 40
4.676258992807934
100
AcDbArc
 50
49.90629075763523
 51
220.0937092423678
  0
LINE
  5
278
330
1F
100
AcDbEntity
  8
LAY-10
  6
CONTINUOUS
 62
     7
100
AcDbLine
 10
518.3624769838372
 20
510.0746343988976
 30
0.0
 11
506.6736496702657
 21
519.915347765134
 31
0.0
  0
LINE
  5
279
330
1F
100
AcDbEntity
  8
LAY-10
  6
CONTINUOUS
 62
     7
100
AcDbLine
 10
509.9253656010908
 20
501.6375230161516
 30
0.0
 11
500.0846522348544
 21
513.326350329723
 31
0.0
  0
ARC
  5
27A
330
1F
100
AcDbEntity
  8
LAY-10
  6
CONTINUOUS
 62
     7
100
AcDbCircle
 10
500.0060606060593
 20
494.3677244574578
 30
0.0
 40
5.987878787879314
100
AcDbArc
 50
205.0937092423615
 51
34.90629075763656
  0
ARC
  5
27B
330
1F
100
AcDbEntity
  8
LAY-10
  6
CONTINUOUS
 62
     7
100
AcDbCircle
 10
492.338129496403
 20
507.6489707283205
 30
0.0
 40
4.676258992807934
100
AcDbArc
 50
34.90629075763795
 51
205.0937092423632
  0
LINE
  5
27C
330
1F
100
AcDbEntity
  8
LAY-10
  6
CONTINUOUS
 62
     7
100
AcDbLine
 10
504.9166544476876
 20
497.7942037731542
 30
0.0
 11
496.1730783030531
 21
510.3248940863768
 31
0.0
  0
LINE
  5
27D
330
1F
100
AcDbEntity
  8
LAY-10
  6
CONTINUOUS
 62
     7
100
AcDbLine
 10
494.5833455523099
 20
491.8282651007883
 30
0.0
 11
488.1032374864208
 21
505.6657693185769
 31
0.0
  0
ARC
  5
27E
330
1F
100
AcDbEntity
  8
LAY-10
  6
CONTINUOUS
 62
     7
100
AcDbCircle
 10
464.999999999999
 20
554.9999999999078
 30
0.0
 40
82.19108621682881
100
AcDbArc
 50
62.61504984924585
 51
69.38495015088509
  0
ARC
  5
27F
330
1F
100
AcDbEntity
  8
LAY-10
  6
CONTINUOUS
 62
     7
100
AcDbCircle
 10
464.999999999999
 20
554.9999999999078
 30
0.0
 40
82.19108621682881
100
AcDbArc
 50
50.61504984926266
 51
57.38495015090528
  0
ARC
  5
280
330
1F
100
AcDbEntity
  8
LAY-10
  6
CONTINUOUS
 62
     7
100
AcDbCircle
 10
464.999999999999
 20
554.9999999999078
 30
0.0
 40
82.19108621682881
100
AcDbArc
 50
38.6150498492753
 51
45.38495015092188
  0
ARC
  5
281
330
1F
100
AcDbEntity
  8
LAY-10
  6
CONTINUOUS
 62
     7
100
AcDbCircle
 10
464.999999999999
 20
554.9999999999078
 30
0.0
 40
82.19108621682881
100
AcDbArc
 50
14.61504984928642
 51
21.38495015094256
  0
ARC
  5
282
330
1F
100
AcDbEntity
  8
LAY-10
  6
CONTINUOUS
 62
     7
100
AcDbCircle
 10
464.999999999999
 20
554.9999999999078
 30
0.0
 40
82.19108621682881
100
AcDbArc
 50
26.61504984928317
 51
33.38495015093422
  0
ARC
  5
283
330
1F
100
AcDbEntity
  8
LAY-10
  6
CONTINUOUS
 62
     7
100
AcDbCircle
 10
464.999999999999
 20
554.9999999999078
 30
0.0
 40
82.19108621682881
100
AcDbArc
 50
2.615049849284385
 51
9.384950150945627
  0
ARC
  5
284
330
1F
100
AcDbEntity
  8
LAY-10
  6
CONTINUOUS
 62
     7
100
AcDbCircle
 10
464.999999999999
 20
554.9999999999078
 30
0.0
 40
82.19108621682881
100
AcDbArc
 50
350.6150498492774
 51
357.3849501509439
  0
ARC
  5
285
330
1F
100
AcDbEntity
  8
LAY-10
  6
CONTINUOUS
 62
     7
100
AcDbCircle
 10
464.999999999999
 20
554.9999999999078
 30
0.0
 40
82.19108621682881
100
AcDbArc
 50
338.615049849266
 51
345.384950150937
  0
ARC
  5
286
330
1F
100
AcDbEntity
  8
LAY-10
  6
CONTINUOUS
 62
     7
100
AcDbCircle
 10
464.999999999999
 20
554.9999999999078
 30
0.0
 40
82.19108621682881
100
AcDbArc
 50
326.6150498492502
 51
333.3849501509251
  0
ARC
  5
287
330
1F
100
AcDbEntity
  8
LAY-10
  6
CONTINUOUS
 62
     7
100
AcDbCircle
 10
464.999999999999
 20
554.9999999999078
 30
0.0
 40
82.19108621682881
100
AcDbArc
 50
314.6150498492311
 51
321.3849501509094
  0
ARC
  5
288
330
1F
100
AcDbEntity
  8
LAY-10
  6
CONTINUOUS
 62
     7
100
AcDbCircle
 10
464.999999999999
 20
554.9999999999078
 30
0.0
 40
82.19108621682881
100
AcDbArc
 50
302.6150498492089
 51
309.3849501508899
  0
ARC
  5
289
330
1F
100
AcDbEntity
  8
LAY-10
  6
CONTINUOUS
 62
     7
100
AcDbCircle
 10
464.999999999999
 20
554.9999999999078
 30
0.0
 40
82.19108621682881
100
AcDbArc
 50
290.6150498491968
 51
297.3849501508685
  0
LINE
  5
28A
330
1F
100
AcDbEntity
  8
LAY-10
  6
CONTINUOUS
 62
     7
100
AcDbLine
 10
573.0381876930551
 20
564.9999999999898
 30
0.0
 11
555.7520694602848
 21
564.9999999999898
 31
0.0
  0
LINE
  5
28B
330
1F
100
AcDbEntity
  8
LAY-10
  6
CONTINUOUS
 62
     7
100
AcDbLine
 10
573.0381876930551
 20
544.9999999999899
 30
0.0
 11
555.7520694602674
 21
544.9999999999899
 31
0.0
  0
ARC
  5
28C
330
1F
100
AcDbEntity
  8
LAY-10
  6
CONTINUOUS
 62
     7
100
AcDbCircle
 10
478.3394939948031
 20
550.6657356633054
 30
0.0
 40
2.025974025987109
100
AcDbArc
 50
80.3051095280366
 51
243.6948904719321
  0
LINE
  5
28D
330
1F
100
AcDbEntity
  8
LAY-10
  6
CONTINUOUS
 62
     7
100
AcDbLine
 10
499.8789852079864
 20
537.7578614345201
 30
0.0
 11
477.4416813036642
 21
548.8495574986958
 31
0.0
  0
LINE
  5
28E
330
1F
100
AcDbEntity
  8
LAY-10
  6
CONTINUOUS
 62
     7
100
AcDbLine
 10
499.8789852079883
 20
572.2421385654634
 30
0.0
 11
477.4416813036599
 21
561.1504425012989
 31
0.0
  0
ARC
  5
28F
330
1F
100
AcDbEntity
  8
LAY-10
  6
CONTINUOUS
 62
     7
100
AcDbCircle
 10
525.6322755425309
 20
590.0060606060501
 30
0.0
 40
5.987878787879314
100
AcDbArc
 50
295.0937092423632
 51
124.9062907576358
  0
LINE
  5
290
330
1F
100
AcDbEntity
  8
LAY-10
  6
CONTINUOUS
 62
     7
100
AcDbLine
 10
522.2057962268347
 20
594.9166544476788
 30
0.0
 11
509.675105913612
 21
586.1730783030436
 31
0.0
  0
ARC
  5
291
330
1F
100
AcDbEntity
  8
LAY-10
  6
CONTINUOUS
 62
     7
100
AcDbCircle
 10
512.3510292716683
 20
582.3381294963938
 30
0.0
 40
4.676258992807934
100
AcDbArc
 50
124.9062907576381
 51
295.0937092423617
  0
LINE
  5
292
330
1F
100
AcDbEntity
  8
LAY-10
  6
CONTINUOUS
 62
     7
100
AcDbLine
 10
471.4503922159269
 20
542.7111507094993
 30
0.0
 11
483.0830170130467
 21
520.5494637609747
 31
0.0
  0
ARC
  5
293
330
1F
100
AcDbEntity
  8
LAY-10
  6
CONTINUOUS
 62
     7
100
AcDbCircle
 10
488.1119443862092
 20
523.1891375998771
 30
0.0
 40
5.679611650485314
100
AcDbArc
 50
207.694890471936
 51
44.30510952803537
  0
ARC
  5
294
330
1F
100
AcDbEntity
  8
LAY-10
  6
CONTINUOUS
 62
     7
100
AcDbCircle
 10
464.999999999999
 20
554.9999999999078
 30
0.0
 40
82.19108621682881
100
AcDbArc
 50
74.61504984922593
 51
81.38495015086289
  0
LINE
  5
295
330
1F
100
AcDbEntity
  8
LAY-10
  6
CONTINUOUS
 62
     7
100
AcDbLine
 10
477.3118182266568
 20
473.736270172701
 30
0.0
 11
478.2649945466334
 21
464.6674032753078
 31
0.0
  0
LINE
  5
296
330
1F
100
AcDbEntity
  8
LAY-10
  6
CONTINUOUS
 62
     7
100
AcDbLine
 10
486.8055310573953
 20
475.7542211294777
 30
0.0
 11
489.6234016382933
 21
467.0817072327577
 31
0.0
  0
ARC
  5
297
330
1F
100
AcDbEntity
  8
LAY-10
  6
CONTINUOUS
 62
     7
100
AcDbCircle
 10
483.1204703577219
 20
487.3734839679216
 30
0.0
 40
5.987878787879314
100
AcDbArc
 50
190.0937092423639
 51
19.90629075763819
  0
ARC
  5
298
330
1F
100
AcDbEntity
  8
LAY-10
  6
CONTINUOUS
 62
     7
100
AcDbCircle
 10
479.1512571422957
 20
502.1867893539666
 30
0.0
 40
4.676258992807934
100
AcDbArc
 50
19.90629075763728
 51
190.0937092423634
  0
LINE
  5
299
330
1F
100
AcDbEntity
  8
LAY-10
  6
CONTINUOUS
 62
     7
100
AcDbLine
 10
477.2252693929291
 20
486.3240565225776
 30
0.0
 11
474.5473752831933
 21
501.3672345996981
 31
0.0
  0
LINE
  5
29A
330
1F
100
AcDbEntity
  8
LAY-10
  6
CONTINUOUS
 62
     7
100
AcDbLine
 10
488.7505778763195
 20
489.4122536232215
 30
0.0
 11
483.5481131654352
 21
503.7789750465291
 31
0.0
  0
ARC
  5
29B
330
1F
100
AcDbEntity
  8
LAY-10
  6
CONTINUOUS
 62
     7
100
AcDbCircle
 10
464.999999999999
 20
555.0000000000719
 30
0.0
 40
82.19108621682881
100
AcDbArc
 50
278.6150498491376
 51
285.3849501507744
  0
LINE
  5
29C
330
1F
100
AcDbEntity
  8
LAY-10
  6
CONTINUOUS
 62
     7
100
AcDbLine
 10
354.8235073212288
 20
548.9999999999897
 30
0.0
 11
356.6701136330745
 21
548.9266385148454
 31
0.0
  0
LINE
  5
29D
330
1F
100
AcDbEntity
  8
LAY-10
  6
CONTINUOUS
 62
     7
100
AcDbLine
 10
356.6660256429211
 20
548.9999999999897
 30
0.0
 11
354.8235073212288
 21
548.9999999999897
 31
0.0
  0
LINE
  5
29E
330
1F
100
AcDbEntity
  8
LAY-10
  6
CONTINUOUS
 62
     7
100
AcDbLine
 10
363.4999999999972
 20
550.9999999999899
 30
0.0
 11
362.9003676271738
 21
550.9999999999899
 31
0.0
  0
LINE
  5
29F
330
1F
100
AcDbEntity
  8
LAY-10
  6
CONTINUOUS
 62
     7
100
AcDbLine
 10
363.4999999999972
 20
558.9999999999898
 30
0.0
 11
362.9003676271764
 21
558.9999999999898
 31
0.0
  0
LINE
  5
2A0
330
1F
100
AcDbEntity
  8
LAY-10
  6
CONTINUOUS
 62
     7
100
AcDbLine
 10
354.8235073212288
 20
560.9999999999897
 30
0.0
 11
356.6701136330745
 21
561.0733614851342
 31
0.0
  0
LINE
  5
2A1
330
1F
100
AcDbEntity
  8
LAY-10
  6
CONTINUOUS
 62
     7
100
AcDbLine
 10
356.6660256429211
 20
560.9999999999897
 30
0.0
 11
354.8235073212288
 21
560.9999999999897
 31
0.0
  0
LINE
  5
2A2
330
1F
100
AcDbEntity
  8
LAY-10
  6
CONTINUOUS
 62
     7
100
AcDbLine
 10
460.9999999999917
 20
444.2722257064548
 30
0.0
 11
460.9999999999917
 21
446.5737577889827
 31
0.0
  0
LINE
  5
2A3
330
1F
100
AcDbEntity
  8
LAY-10
  6
CONTINUOUS
 62
     7
100
AcDbLine
 10
460.6999999999916
 20
444.7440725448481
 30
0.0
 11
460.6999999999916
 21
446.5852408571502
 31
0.0
  0
LINE
  5
2A4
330
1F
100
AcDbEntity
  8
LAY-10
  6
CONTINUOUS
 62
     7
100
AcDbLine
 10
469.2999999999913
 20
446.5852408571495
 30
0.0
 11
469.2999999999913
 21
444.7440725448481
 31
0.0
  0
LINE
  5
2A5
330
1F
100
AcDbEntity
  8
LAY-10
  6
CONTINUOUS
 62
     7
100
AcDbLine
 10
468.9999999999912
 20
444.2722257064548
 30
0.0
 11
468.9999999999912
 21
446.5737577889822
 31
0.0
  0
LINE
  5
2A6
330
1F
100
AcDbEntity
  8
LAY-10
  6
CONTINUOUS
 62
     7
100
AcDbLine
 10
573.333974357077
 20
548.9999999999897
 30
0.0
 11
575.1764926787541
 21
548.9999999999897
 31
0.0
  0
LINE
  5
2A7
330
1F
100
AcDbEntity
  8
LAY-10
  6
CONTINUOUS
 62
     7
100
AcDbLine
 10
575.1764926787541
 20
548.9999999999897
 30
0.0
 11
573.3298863669235
 21
548.9266385148459
 31
0.0
  0
ARC
  5
2A8
330
1F
100
AcDbEntity
  8
LAY-10
  6
CONTINUOUS
 62
     7
100
AcDbCircle
 10
464.999999999999
 20
554.9999999999898
 30
0.0
 40
108.5000000000001
100
AcDbArc
 50
182.3074330865433
 51
357.6925669134625
  0
LINE
  5
2A9
330
1F
100
AcDbEntity
  8
LAY-10
  6
CONTINUOUS
 62
     7
100
AcDbLine
 10
566.5000000000008
 20
550.9999999999899
 30
0.0
 11
567.0996323728086
 21
550.9999999999899
 31
0.0
  0
LINE
  5
2AA
330
1F
100
AcDbEntity
  8
LAY-10
  6
CONTINUOUS
 62
     7
100
AcDbLine
 10
566.5000000000008
 20
558.9999999999898
 30
0.0
 11
567.0996323728059
 21
558.9999999999898
 31
0.0
  0
ARC
  5
2AB
330
1F
100
AcDbEntity
  8
LAY-10
  6
CONTINUOUS
 62
     7
100
AcDbCircle
 10
464.999999999999
 20
554.9999999999898
 30
0.0
 40
108.5000000000001
100
AcDbArc
 50
2.307433086538783
 51
177.6925669134555
  0
LINE
  5
2AC
330
1F
100
AcDbEntity
  8
LAY-10
  6
CONTINUOUS
 62
     7
100
AcDbLine
 10
573.333974357077
 20
560.9999999999897
 30
0.0
 11
575.1764926787541
 21
560.9999999999897
 31
0.0
  0
LINE
  5
2AD
330
1F
100
AcDbEntity
  8
LAY-10
  6
CONTINUOUS
 62
     7
100
AcDbLine
 10
575.1764926787541
 20
560.9999999999897
 30
0.0
 11
573.3298863669236
 21
561.0733614851335
 31
0.0
  0
LINE
  5
2AE
330
1F
100
AcDbEntity
  8
LAY-10
  6
CONTINUOUS
 62
     7
100
AcDbLine
 10
460.9999999999917
 20
665.7277742935245
 30
0.0
 11
460.9999999999917
 21
663.4262422109969
 31
0.0
  0
LINE
  5
2AF
330
1F
100
AcDbEntity
  8
LAY-10
  6
CONTINUOUS
 62
     7
100
AcDbLine
 10
460.6999999999916
 20
665.2559274551312
 30
0.0
 11
460.6999999999916
 21
663.4147591428296
 31
0.0
  0
LINE
  5
2B0
330
1F
100
AcDbEntity
  8
LAY-10
  6
CONTINUOUS
 62
     7
100
AcDbLine
 10
468.9999999999912
 20
665.7277742935245
 30
0.0
 11
468.9999999999912
 21
663.4262422109973
 31
0.0
  0
LINE
  5
2B1
330
1F
100
AcDbEntity
  8
LAY-10
  6
CONTINUOUS
 62
     7
100
AcDbLine
 10
469.2999999999913
 20
663.4147591428301
 30
0.0
 11
469.2999999999913
 21
665.2559274551312
 31
0.0
  0
LINE
  5
2B2
330
1F
100
AcDbEntity
  8
LAY-10
  6
CONTINUOUS
 62
     7
100
AcDbLine
 10
329.0447948573351
 20
263.0292927538704
 30
0.0
 11
329.0406101782103
 21
262.9999999999963
 31
0.0
  0
LINE
  5
2B3
330
1F
100
AcDbEntity
  8
LAY-10
  6
CONTINUOUS
 62
     7
100
AcDbLine
 10
358.8979291334298
 20
244.9999999999963
 30
0.0
 11
368.0000000000023
 21
244.9999999999963
 31
0.0
  0
LINE
  5
2B4
330
1F
100
AcDbEntity
  8
LAY-10
  6
CONTINUOUS
 62
     7
100
AcDbLine
 10
325.0000000000008
 20
262.9999999999963
 30
0.0
 11
337.8058391272156
 21
262.9999999999963
 31
0.0
  0
LINE
  5
2B5
330
1F
100
AcDbEntity
  8
LAY-10
  6
CONTINUOUS
 62
     7
100
AcDbLine
 10
356.7379611035848
 20
249.9999999999962
 30
0.0
 11
356.9006700639206
 21
246.8953280875102
 31
0.0
  0
ARC
  5
2B6
330
1F
100
AcDbEntity
  8
LAY-10
  6
CONTINUOUS
 62
     7
100
AcDbCircle
 10
358.8979291334298
 20
246.9999999999962
 30
0.0
 40
2.0
100
AcDbArc
 50
183.0000000000024
 51
270.0
  0
LINE
  5
2B7
330
1F
100
AcDbEntity
  8
LAY-10
  6
CONTINUOUS
 62
     7
100
AcDbLine
 10
356.7379611035848
 20
249.9999999999962
 30
0.0
 11
344.0000000000009
 21
249.9999999999962
 31
0.0
  0
LINE
  5
2B8
330
1F
100
AcDbEntity
  8
LAY-10
  6
CONTINUOUS
 62
     7
100
AcDbLine
 10
605.0000000000013
 20
262.9999999999963
 30
0.0
 11
604.0000000000008
 21
269.9999999999964
 31
0.0
  0
LINE
  5
2B9
330
1F
100
AcDbEntity
  8
LAY-10
  6
CONTINUOUS
 62
     7
100
AcDbLine
 10
605.0000000000013
 20
262.9999999999963
 30
0.0
 11
592.1941608727868
 21
262.9999999999963
 31
0.0
  0
ARC
  5
2BA
330
1F
100
AcDbEntity
  8
LAY-10
  6
CONTINUOUS
 62
     7
100
AcDbCircle
 10
571.1020708665723
 20
246.9999999999962
 30
0.0
 40
2.0
100
AcDbArc
 50
270.0
 51
357.0000000000074
  0
LINE
  5
2BB
330
1F
100
AcDbEntity
  8
LAY-10
  6
CONTINUOUS
 62
     7
100
AcDbLine
 10
573.6073518165944
 20
256.5889630299342
 30
0.0
 11
573.0993299360814
 21
246.8953280875105
 31
0.0
  0
LINE
  5
2BC
330
1F
100
AcDbEntity
  8
LAY-10
  6
CONTINUOUS
 62
     7
100
AcDbLine
 10
571.1020708665723
 20
244.9999999999963
 30
0.0
 11
566.4489645667212
 21
244.9999999999963
 31
0.0
  0
LINE
  5
2BD
330
1F
100
AcDbEntity
  8
LAY-10
  6
CONTINUOUS
 62
     7
100
AcDbLine
 10
343.4732650644539
 20
260.0507013033665
 30
0.0
 11
344.0000000000009
 21
249.9999999999962
 31
0.0
  0
LINE
  5
2BE
330
1F
100
AcDbEntity
  8
LAY-10
  6
CONTINUOUS
 62
     7
100
AcDbLine
 10
382.0000000000008
 20
240.9999999999962
 30
0.0
 11
382.0000000000008
 21
226.9999999999963
 31
0.0
  0
LINE
  5
2BF
330
1F
100
AcDbEntity
  8
LAY-10
  6
CONTINUOUS
 62
     7
100
AcDbLine
 10
548.0000000000013
 20
240.9999999999962
 30
0.0
 11
548.0000000000013
 21
226.9999999999963
 31
0.0
  0
LINE
  5
2C0
330
1F
100
AcDbEntity
  8
LAY-10
  6
CONTINUOUS
 62
     7
100
AcDbLine
 10
382.0000000000008
 20
240.9999999999962
 30
0.0
 11
548.0000000000013
 21
240.9999999999962
 31
0.0
  0
LINE
  5
2C1
330
1F
100
AcDbEntity
  8
LAY-10
  6
CONTINUOUS
 62
     7
100
AcDbLine
 10
382.0000000000008
 20
226.9999999999963
 30
0.0
 11
548.0000000000013
 21
226.9999999999963
 31
0.0
  0
LINE
  5
2C2
330
1F
100
AcDbEntity
  8
LAY-10
  6
CONTINUOUS
 62
     7
100
AcDbLine
 10
377.5000000000008
 20
201.9999999999962
 30
0.0
 11
552.5000000000013
 21
201.9999999999965
 31
0.0
  0
LINE
  5
2C3
330
1F
100
AcDbEntity
  8
LAY-10
  6
CONTINUOUS
 62
     7
100
AcDbLine
 10
555.3521120034213
 20
243.2187037799404
 30
0.0
 11
559.3130449029055
 21
244.2800325516312
 31
0.0
  0
LINE
  5
2C4
330
1F
100
AcDbEntity
  8
LAY-10
  6
CONTINUOUS
 62
     7
100
AcDbLine
 10
554.6123015137691
 20
242.3051139098943
 30
0.0
 11
552.5000000000013
 21
201.9999999999965
 31
0.0
  0
ARC
  5
2C5
330
1F
100
AcDbEntity
  8
LAY-10
  6
CONTINUOUS
 62
     7
100
AcDbCircle
 10
555.6109310485239
 20
242.2527779536515
 30
0.0
 40
1.0
100
AcDbArc
 50
105.0000000000012
 51
177.0000000000076
  0
LINE
  5
2C6
330
1F
100
AcDbEntity
  8
LAY-10
  6
CONTINUOUS
 62
     7
100
AcDbLine
 10
375.3876984862329
 20
242.3051139098943
 30
0.0
 11
377.5000000000008
 21
201.9999999999962
 31
0.0
  0
LINE
  5
2C7
330
1F
100
AcDbEntity
  8
LAY-10
  6
CONTINUOUS
 62
     7
100
AcDbLine
 10
374.6478879965811
 20
243.2187037799404
 30
0.0
 11
368.0000000000023
 21
244.9999999999963
 31
0.0
  0
ARC
  5
2C8
330
1F
100
AcDbEntity
  8
LAY-10
  6
CONTINUOUS
 62
     7
100
AcDbCircle
 10
374.3890689514785
 20
242.2527779536515
 30
0.0
 40
1.0
100
AcDbArc
 50
2.999999999992558
 51
74.99999999999885
  0
LINE
  5
2C9
330
1F
100
AcDbEntity
  8
LAY-10
  6
CONTINUOUS
 62
     7
100
AcDbLine
 10
325.0000000000008
 20
262.9999999999963
 30
0.0
 11
326.0000000000013
 21
269.9999999999961
 31
0.0
  0
LINE
  5
2CA
330
1F
100
AcDbEntity
  8
LAY-10
  6
CONTINUOUS
 62
     7
100
AcDbLine
 10
356.2071224296167
 20
263.245771901472
 30
0.0
 11
331.0000000000168
 21
269.9999999999961
 31
0.0
  0
LINE
  5
2CB
330
1F
100
AcDbEntity
  8
LAY-10
  6
CONTINUOUS
 62
     7
100
AcDbLine
 10
598.9999999999873
 20
269.9999999999964
 30
0.0
 11
573.7928775703854
 21
263.2457719014713
 31
0.0
  0
LINE
  5
2CC
330
1F
100
AcDbEntity
  8
LAY-10
  6
CONTINUOUS
 62
     7
100
AcDbLine
 10
536.1614755314703
 20
240.9999999999965
 30
0.0
 11
536.999999999999
 21
256.9999999999963
 31
0.0
  0
LINE
  5
2CD
330
1F
100
AcDbEntity
  8
LAY-10
  6
CONTINUOUS
 62
     7
100
AcDbLine
 10
553.3480328460228
 20
250.3591376932816
 30
0.0
 11
553.0000000000032
 21
256.9999999999963
 31
0.0
  0
LINE
  5
2CE
330
1F
100
AcDbEntity
  8
LAY-10
  6
CONTINUOUS
 62
     7
100
AcDbLine
 10
387.2379611035867
 20
245.999999999996
 30
0.0
 11
387.5000000000019
 21
240.9999999999962
 31
0.0
  0
LINE
  5
2CF
330
1F
100
AcDbEntity
  8
LAY-10
  6
CONTINUOUS
 62
     7
100
AcDbLine
 10
331.5423319348624
 20
264.678301693974
 30
0.0
 11
341.9936440851499
 21
261.8778810434586
 31
0.0
  0
ARC
  5
2D0
330
1F
100
AcDbEntity
  8
LAY-10
  6
CONTINUOUS
 62
     7
100
AcDbCircle
 10
331.0246938446573
 20
262.7464500413959
 30
0.0
 40
2.0
100
AcDbArc
 50
74.99999999999885
 51
171.8698976458487
  0
ARC
  5
2D1
330
1F
100
AcDbEntity
  8
LAY-10
  6
CONTINUOUS
 62
     7
100
AcDbCircle
 10
341.4760059949448
 20
259.9460293908805
 30
0.0
 40
2.0
100
AcDbArc
 50
3.000000000002355
 51
74.99999999999885
  0
LINE
  5
2D2
330
1F
100
AcDbEntity
  8
LAY-10
  6
CONTINUOUS
 62
     7
100
AcDbLine
 10
361.3857958571807
 20
256.8506428111489
 30
0.0
 11
361.7448228335746
 21
249.9999999999958
 31
0.0
  0
ARC
  5
2D3
330
1F
100
AcDbEntity
  8
LAY-10
  6
CONTINUOUS
 62
     7
100
AcDbCircle
 10
354.3953891138989
 20
256.4842911174485
 30
0.0
 40
7.000000000000004
100
AcDbArc
 50
2.999999999998117
 51
74.99999999999879
  0
LINE
  5
2D4
330
1F
100
AcDbEntity
  8
LAY-10
  6
CONTINUOUS
 62
     7
100
AcDbLine
 10
361.7448228335746
 20
249.9999999999958
 30
0.0
 11
368.6582624879354
 21
249.9999999999958
 31
0.0
  0
LINE
  5
2D5
330
1F
100
AcDbEntity
  8
LAY-10
  6
CONTINUOUS
 62
     7
100
AcDbLine
 10
368.6582624879399
 20
249.9999999999948
 30
0.0
 11
383.5864657182104
 21
245.999999999996
 31
0.0
  0
LINE
  5
2D6
330
1F
100
AcDbEntity
  8
LAY-10
  6
CONTINUOUS
 62
     7
100
AcDbLine
 10
383.5864657182104
 20
245.999999999996
 30
0.0
 11
536.4235144278855
 21
245.999999999996
 31
0.0
  0
LINE
  5
2D7
330
1F
100
AcDbEntity
  8
LAY-10
  6
CONTINUOUS
 62
     7
100
AcDbLine
 10
568.6142041428213
 20
256.8506428111489
 30
0.0
 11
568.3545071025068
 21
251.8953280875101
 31
0.0
  0
ARC
  5
2D8
330
1F
100
AcDbEntity
  8
LAY-10
  6
CONTINUOUS
 62
     7
100
AcDbCircle
 10
575.6046108861032
 20
256.4842911174485
 30
0.0
 40
7.000000000000004
100
AcDbArc
 50
105.0000000000013
 51
177.0000000000019
  0
LINE
  5
2D9
330
1F
100
AcDbEntity
  8
LAY-10
  6
CONTINUOUS
 62
     7
100
AcDbLine
 10
566.3572480329976
 20
249.9999999999958
 30
0.0
 11
561.3417375120666
 21
249.9999999999958
 31
0.0
  0
LINE
  5
2DA
330
1F
100
AcDbEntity
  8
LAY-10
  6
CONTINUOUS
 62
     7
100
AcDbLine
 10
561.3417375120622
 20
249.9999999999948
 30
0.0
 11
555.8629300057366
 21
248.5319579531895
 31
0.0
  0
LINE
  5
2DB
330
1F
100
AcDbEntity
  8
LAY-10
  6
CONTINUOUS
 62
     7
100
AcDbLine
 10
598.4576680651396
 20
264.678301693974
 30
0.0
 11
575.0869727958984
 21
258.4161427700263
 31
0.0
  0
ARC
  5
2DC
330
1F
100
AcDbEntity
  8
LAY-10
  6
CONTINUOUS
 62
     7
100
AcDbCircle
 10
598.9753061553447
 20
262.7464500413959
 30
0.0
 40
2.0
100
AcDbArc
 50
7.283270168930796
 51
105.0000000000012
  0
ARC
  5
2DD
330
1F
100
AcDbEntity
  8
LAY-10
  6
CONTINUOUS
 62
     7
100
AcDbCircle
 10
575.6046108861035
 20
256.4842911174482
 30
0.0
 40
2.0
100
AcDbArc
 50
105.0000000000012
 51
176.9999999999977
  0
ARC
  5
2DE
330
1F
100
AcDbEntity
  8
LAY-10
  6
CONTINUOUS
 62
     7
100
AcDbCircle
 10
555.3452919155319
 20
250.4638096057676
 30
0.0
 40
2.0
100
AcDbArc
 50
183.0000000000024
 51
284.9999999999979
  0
LINE
  5
2DF
330
1F
100
AcDbEntity
  8
LAY-10
  6
CONTINUOUS
 62
     7
100
AcDbLine
 10
368.6582624879354
 20
249.9999999999958
 30
0.0
 11
536.6331455450177
 21
249.9999999999958
 31
0.0
  0
ARC
  5
2E0
330
1F
100
AcDbEntity
  8
LAY-10
  6
CONTINUOUS
 62
     7
100
AcDbCircle
 10
566.3572480329976
 20
251.9999999999961
 30
0.0
 40
2.0
100
AcDbArc
 50
270.0
 51
356.9999999999977
  0
ARC
  5
2E1
330
1F
100
AcDbEntity
  8
LAY-10
  6
CONTINUOUS
 62
     7
100
AcDbCircle
 10
566.4489645667212
 20
243.9999999999962
 30
0.0
 40
1.0
100
AcDbArc
 50
90.0
 51
176.9999999999878
  0
LINE
  5
2E2
330
1F
100
AcDbEntity
  8
LAY-10
  6
CONTINUOUS
 62
     7
100
AcDbLine
 10
560.7496640790316
 20
239.9476640437526
 30
0.0
 11
560.5704934827625
 21
243.3664426815851
 31
0.0
  0
ARC
  5
2E3
330
1F
100
AcDbEntity
  8
LAY-10
  6
CONTINUOUS
 62
     7
100
AcDbCircle
 10
561.7482936137864
 20
239.9999999999957
 30
0.0
 40
1.0
100
AcDbArc
 50
183.0000000000123
 51
270.0
  0
LINE
  5
2E4
330
1F
100
AcDbEntity
  8
LAY-10
  6
CONTINUOUS
 62
     7
100
AcDbLine
 10
565.2352182923476
 20
239.9476640437526
 30
0.0
 11
565.4503350319665
 21
244.0523359562393
 31
0.0
  0
LINE
  5
2E5
330
1F
100
AcDbEntity
  8
LAY-10
  6
CONTINUOUS
 62
     7
100
AcDbLine
 10
561.7482936137864
 20
238.9999999999956
 30
0.0
 11
564.2365887575932
 21
238.9999999999956
 31
0.0
  0
ARC
  5
2E6
330
1F
100
AcDbEntity
  8
LAY-10
  6
CONTINUOUS
 62
     7
100
AcDbCircle
 10
564.2365887575932
 20
239.9999999999957
 30
0.0
 40
1.0
100
AcDbArc
 50
270.0
 51
356.9999999999878
  0
ARC
  5
2E7
330
1F
100
AcDbEntity
  8
LAY-10
  6
CONTINUOUS
 62
     7
100
AcDbCircle
 10
559.5718639480081
 20
243.314106725342
 30
0.0
 40
1.0
100
AcDbArc
 50
3.000000000012268
 51
105.0000000000012
  0
LINE
  5
2E8
330
1F
100
AcDbEntity
  8
LAY-10
  6
CONTINUOUS
 62
     7
100
AcDbLine
 10
548.5000000000011
 20
300.7013587595099
 30
0.0
 11
549.0000000000014
 21
300.2013587595138
 31
0.0
  0
LINE
  5
2E9
330
1F
100
AcDbEntity
  8
LAY-10
  6
CONTINUOUS
 62
     7
100
AcDbLine
 10
545.7500000000016
 20
300.2013587595138
 30
0.0
 11
549.0000000000014
 21
300.2013587595138
 31
0.0
  0
LINE
  5
2EA
330
1F
100
AcDbEntity
  8
LAY-10
  6
CONTINUOUS
 62
     7
100
AcDbLine
 10
545.7500000000016
 20
300.7013587595099
 30
0.0
 11
548.5000000000011
 21
300.7013587595099
 31
0.0
  0
LINE
  5
2EB
330
1F
100
AcDbEntity
  8
LAY-10
  6
CONTINUOUS
 62
     7
100
AcDbLine
 10
544.2500000000009
 20
298.2013587595135
 30
0.0
 11
545.7500000000016
 21
298.2013587595135
 31
0.0
  0
LINE
  5
2EC
330
1F
100
AcDbEntity
  8
LAY-10
  6
CONTINUOUS
 62
     7
100
AcDbLine
 10
545.7500000000016
 20
298.2013587595135
 30
0.0
 11
545.7500000000016
 21
300.7013587595099
 31
0.0
  0
LINE
  5
2ED
330
1F
100
AcDbEntity
  8
LAY-10
  6
CONTINUOUS
 62
     7
100
AcDbLine
 10
544.2500000000009
 20
298.2013587595135
 30
0.0
 11
544.2500000000009
 21
300.7013587595099
 31
0.0
  0
LINE
  5
2EE
330
1F
100
AcDbEntity
  8
LAY-10
  6
CONTINUOUS
 62
     7
100
AcDbLine
 10
541.0000000000011
 20
300.2013587595138
 30
0.0
 11
544.2500000000009
 21
300.2013587595138
 31
0.0
  0
LINE
  5
2EF
330
1F
100
AcDbEntity
  8
LAY-10
  6
CONTINUOUS
 62
     7
100
AcDbLine
 10
541.5000000000014
 20
300.7013587595099
 30
0.0
 11
544.2500000000009
 21
300.7013587595099
 31
0.0
  0
LINE
  5
2F0
330
1F
100
AcDbEntity
  8
LAY-10
  6
CONTINUOUS
 62
     7
100
AcDbLine
 10
541.0000000000011
 20
300.2013587595138
 30
0.0
 11
541.5000000000014
 21
300.7013587595099
 31
0.0
  0
LINE
  5
2F1
330
1F
100
AcDbEntity
  8
LAY-10
  6
CONTINUOUS
 62
     7
100
AcDbLine
 10
548.4999999999977
 20
250.5000000000169
 30
0.0
 11
548.4999999999977
 21
250.0000000000129
 31
0.0
  0
LINE
  5
2F2
330
1F
100
AcDbEntity
  8
LAY-10
  6
CONTINUOUS
 62
     7
100
AcDbLine
 10
541.5000000000027
 20
250.5000000000169
 30
0.0
 11
541.5000000000027
 21
250.0000000000129
 31
0.0
  0
LINE
  5
2F3
330
1F
100
AcDbEntity
  8
LAY-10
  6
CONTINUOUS
 62
     7
100
AcDbLine
 10
541.5000000000027
 20
250.0000000000129
 30
0.0
 11
548.4999999999981
 21
250.0000000000129
 31
0.0
  0
LINE
  5
2F4
330
1F
100
AcDbEntity
  8
LAY-10
  6
CONTINUOUS
 62
     7
100
AcDbLine
 10
541.5000000000027
 20
250.0000000000136
 30
0.0
 11
545.0000000000009
 21
247.9792740578509
 31
0.0
  0
LINE
  5
2F5
330
1F
100
AcDbEntity
  8
LAY-10
  6
CONTINUOUS
 62
     7
100
AcDbLine
 10
545.0000000000009
 20
247.9792740578512
 30
0.0
 11
548.4999999999977
 21
250.0000000000129
 31
0.0
  0
LINE
  5
2F6
330
1F
100
AcDbEntity
  8
LAY-10
  6
CONTINUOUS
 62
     7
100
AcDbLine
 10
541.5
 20
250.5013587594897
 30
0.0
 11
548.5000000000005
 21
250.5013587594897
 31
0.0
  0
LINE
  5
2F7
330
1F
100
AcDbEntity
  8
LAY-10
  6
CONTINUOUS
 62
     7
100
AcDbLine
 10
541.0000000000005
 20
251.001358759491
 30
0.0
 11
549.0000000000003
 21
251.001358759491
 31
0.0
  0
LINE
  5
2F8
330
1F
100
AcDbEntity
  8
LAY-10
  6
CONTINUOUS
 62
     7
100
AcDbLine
 10
548.5000000000005
 20
250.5013587594897
 30
0.0
 11
549.0000000000003
 21
251.001358759491
 31
0.0
  0
LINE
  5
2F9
330
1F
100
AcDbEntity
  8
LAY-10
  6
CONTINUOUS
 62
     7
100
AcDbLine
 10
541.5
 20
250.5013587594897
 30
0.0
 11
541.0000000000005
 21
251.001358759491
 31
0.0
  0
LINE
  5
2FA
330
1F
100
AcDbEntity
  8
LAY-10
  6
CONTINUOUS
 62
     7
100
AcDbLine
 10
541.5
 20
256.9999999999963
 30
0.0
 11
536.999999999999
 21
256.9999999999963
 31
0.0
  0
LINE
  5
2FB
330
1F
100
AcDbEntity
  8
LAY-10
  6
CONTINUOUS
 62
     7
100
AcDbLine
 10
553.0000000000032
 20
256.9999999999963
 30
0.0
 11
548.5000000000005
 21
256.9999999999963
 31
0.0
  0
LINE
  5
2FC
330
1F
100
AcDbEntity
  8
LAY-10
  6
CONTINUOUS
 62
     7
100
AcDbLine
 10
375.7846096908387
 20
257.9999999999898
 30
0.0
 11
336.6200054982382
 21
268.4941240652829
 31
0.0
  0
LINE
  5
2FD
330
1F
100
AcDbEntity
  8
LAY-10
  6
CONTINUOUS
 62
     7
100
AcDbLine
 10
579.6411240258831
 20
275.9999999999898
 30
0.0
 11
575.0550635702928
 21
275.9999999999898
 31
0.0
  0
LINE
  5
2FE
330
1F
100
AcDbEntity
  8
LAY-10
  6
CONTINUOUS
 62
     7
100
AcDbLine
 10
335.0000000000004
 20
272.9999999999898
 30
0.0
 11
349.0418452681401
 21
272.9999999999898
 31
0.0
  0
LINE
  5
2FF
330
1F
100
AcDbEntity
  8
LAY-10
  6
CONTINUOUS
 62
     7
100
AcDbLine
 10
335.140384518934
 20
270.321303805375
 30
0.0
 11
335.0000000000004
 21
272.9999999999898
 31
0.0
  0
ARC
  5
300
330
1F
100
AcDbEntity
  8
LAY-10
  6
CONTINUOUS
 62
     7
100
AcDbCircle
 10
337.1376435884429
 20
270.4259757178606
 30
0.0
 40
2.0
100
AcDbArc
 50
182.9999999999926
 51
255.0000000000138
  0
LINE
  5
301
330
1F
100
AcDbEntity
  8
LAY-10
  6
CONTINUOUS
 62
     7
100
AcDbLine
 10
335.2586607979344
 20
272.9999999999898
 30
0.0
 11
346.3424893756401
 21
270.0300970835483
 31
0.0
  0
LINE
  5
302
330
1F
100
AcDbEntity
  8
LAY-10
  6
CONTINUOUS
 62
     7
100
AcDbLine
 10
376.311219681188
 20
261.9999999999895
 30
0.0
 11
456.2096311171461
 21
261.9999999999895
 31
0.0
  0
LINE
  5
303
330
1F
100
AcDbEntity
  8
LAY-10
  6
CONTINUOUS
 62
     7
100
AcDbLine
 10
387.2903688828691
 20
261.9999999999895
 30
0.0
 11
387.5000000000013
 21
257.9999999999898
 31
0.0
  0
LINE
  5
304
330
1F
100
AcDbEntity
  8
LAY-10
  6
CONTINUOUS
 62
     7
100
AcDbLine
 10
368.8139813493077
 20
264.0088789564811
 30
0.0
 11
368.5000000000014
 21
269.9999999999898
 31
0.0
  0
LINE
  5
305
330
1F
100
AcDbEntity
  8
LAY-10
  6
CONTINUOUS
 62
     7
100
AcDbLine
 10
368.8139813493077
 20
264.0088789564811
 30
0.0
 11
376.311219681188
 21
261.9999999999895
 31
0.0
  0
LINE
  5
306
330
1F
100
AcDbEntity
  8
LAY-10
  6
CONTINUOUS
 62
     7
100
AcDbLine
 10
348.8372048000874
 20
271.6600129574801
 30
0.0
 11
349.3703373069982
 21
275.1509678893126
 31
0.0
  0
LINE
  5
307
330
1F
100
AcDbEntity
  8
LAY-10
  6
CONTINUOUS
 62
     7
100
AcDbLine
 10
353.6076912681633
 20
275.1217021841862
 30
0.0
 11
354.2356816757924
 21
269.9999999999898
 31
0.0
  0
ARC
  5
308
330
1F
100
AcDbEntity
  8
LAY-10
  6
CONTINUOUS
 62
     7
100
AcDbCircle
 10
346.8601274658452
 20
271.961948736126
 30
0.0
 40
2.0
100
AcDbArc
 50
255.000000000004
 51
351.3169786840323
  0
ARC
  5
309
330
1F
100
AcDbEntity
  8
LAY-10
  6
CONTINUOUS
 62
     7
100
AcDbCircle
 10
350.3588759741191
 20
274.99999999999
 30
0.0
 40
1.0
100
AcDbArc
 50
90.0
 51
171.316978684052
  0
ARC
  5
30A
330
1F
100
AcDbEntity
  8
LAY-10
  6
CONTINUOUS
 62
     7
100
AcDbCircle
 10
352.6151246062401
 20
274.99999999999
 30
0.0
 40
1.0
100
AcDbArc
 50
6.990350657061835
 51
90.0
  0
LINE
  5
30B
330
1F
100
AcDbEntity
  8
LAY-10
  6
CONTINUOUS
 62
     7
100
AcDbLine
 10
594.8596154810684
 20
270.321303805375
 30
0.0
 11
595.0000000000022
 21
272.9999999999898
 31
0.0
  0
ARC
  5
30C
330
1F
100
AcDbEntity
  8
LAY-10
  6
CONTINUOUS
 62
     7
100
AcDbCircle
 10
592.8623564115593
 20
270.4259757178606
 30
0.0
 40
2.0
100
AcDbArc
 50
284.9999999999976
 51
357.0000000000074
  0
LINE
  5
30D
330
1F
100
AcDbEntity
  8
LAY-10
  6
CONTINUOUS
 62
     7
100
AcDbLine
 10
575.5567375629317
 20
267.8595014836703
 30
0.0
 11
557.4208311263828
 21
262.99999999999
 31
0.0
  0
ARC
  5
30E
330
1F
100
AcDbEntity
  8
LAY-10
  6
CONTINUOUS
 62
     7
100
AcDbCircle
 10
583.139872534157
 20
271.961948736126
 30
0.0
 40
2.0
100
AcDbArc
 50
188.6830213159678
 51
285.0000000000012
  0
LINE
  5
30F
330
1F
100
AcDbEntity
  8
LAY-10
  6
CONTINUOUS
 62
     7
100
AcDbLine
 10
581.1627951999152
 20
271.6600129574801
 30
0.0
 11
580.629662693004
 21
275.1509678893126
 31
0.0
  0
ARC
  5
310
330
1F
100
AcDbEntity
  8
LAY-10
  6
CONTINUOUS
 62
     7
100
AcDbCircle
 10
579.6411240258831
 20
274.99999999999
 30
0.0
 40
1.0
100
AcDbArc
 50
8.683021315948492
 51
90.0
  0
LINE
  5
311
330
1F
100
AcDbEntity
  8
LAY-10
  6
CONTINUOUS
 62
     7
100
AcDbLine
 10
576.3923087318391
 20
275.1217021841862
 30
0.0
 11
575.5000000000022
 21
267.8442986995021
 31
0.0
  0
LINE
  5
312
330
1F
100
AcDbEntity
  8
LAY-10
  6
CONTINUOUS
 62
     7
100
AcDbLine
 10
595.0000000000022
 20
272.9999999999898
 30
0.0
 11
580.9581547318625
 21
272.9999999999898
 31
0.0
  0
LINE
  5
313
330
1F
100
AcDbEntity
  8
LAY-10
  6
CONTINUOUS
 62
     7
100
AcDbLine
 10
594.7413392020678
 20
272.9999999999898
 30
0.0
 11
583.6575106243621
 21
270.0300970835483
 31
0.0
  0
LINE
  5
314
330
1F
100
AcDbEntity
  8
LAY-10
  6
CONTINUOUS
 62
     7
100
AcDbLine
 10
554.2153903091636
 20
257.9999999999898
 30
0.0
 11
593.3799945017644
 21
268.4941240652829
 31
0.0
  0
LINE
  5
315
330
1F
100
AcDbEntity
  8
LAY-10
  6
CONTINUOUS
 62
     7
100
AcDbLine
 10
536.2620388964172
 20
262.99999999999
 30
0.0
 11
557.4208311263828
 21
262.99999999999
 31
0.0
  0
LINE
  5
316
330
1F
100
AcDbEntity
  8
LAY-10
  6
CONTINUOUS
 62
     7
100
AcDbLine
 10
354.2356816757924
 20
269.9999999999898
 30
0.0
 11
368.5000000000014
 21
269.9999999999898
 31
0.0
  0
LINE
  5
317
330
1F
100
AcDbEntity
  8
LAY-10
  6
CONTINUOUS
 62
     7
100
AcDbLine
 10
539.7379611035858
 20
262.99999999999
 30
0.0
 11
540.000000000001
 21
257.9999999999898
 31
0.0
  0
LINE
  5
318
330
1F
100
AcDbEntity
  8
LAY-10
  6
CONTINUOUS
 62
     7
100
AcDbLine
 10
550.2620388964273
 20
262.9999999999893
 30
0.0
 11
550.0000000000124
 21
257.9999999999898
 31
0.0
  0
LINE
  5
319
330
1F
100
AcDbEntity
  8
LAY-10
  6
CONTINUOUS
 62
     7
100
AcDbLine
 10
536.2620388964172
 20
262.99999999999
 30
0.0
 11
536.0000000000019
 21
257.9999999999898
 31
0.0
  0
LINE
  5
31A
330
1F
100
AcDbEntity
  8
LAY-10
  6
CONTINUOUS
 62
     7
100
AcDbLine
 10
384.0389174752081
 20
267.8442986995021
 30
0.0
 11
389.9379702502832
 21
267.8442986995021
 31
0.0
  0
LINE
  5
31B
330
1F
100
AcDbEntity
  8
LAY-10
  6
CONTINUOUS
 62
     7
100
AcDbLine
 10
382.906990945827
 20
269.4519938540891
 30
0.0
 11
386.0367742618013
 21
269.4519938540891
 31
0.0
  0
ARC
  5
31C
330
1F
100
AcDbEntity
  8
LAY-10
  6
CONTINUOUS
 62
     7
100
AcDbCircle
 10
354.9449364297096
 20
274.99999999999
 30
0.0
 40
1.0
100
AcDbArc
 50
9.34836523318158
 51
90.0
  0
ARC
  5
31D
330
1F
100
AcDbEntity
  8
LAY-10
  6
CONTINUOUS
 62
     7
100
AcDbCircle
 10
356.2041293663606
 20
274.99999999999
 30
0.0
 40
1.0
100
AcDbArc
 50
90.0
 51
129.0203569724408
  0
LINE
  5
31E
330
1F
100
AcDbEntity
  8
LAY-10
  6
CONTINUOUS
 62
     7
100
AcDbLine
 10
354.9449364297096
 20
275.9999999999898
 30
0.0
 11
350.3588759741191
 21
275.9999999999898
 31
0.0
  0
LINE
  5
31F
330
1F
100
AcDbEntity
  8
LAY-10
  6
CONTINUOUS
 62
     7
100
AcDbLine
 10
430.9390107779682
 20
269.4519938540891
 30
0.0
 11
439.6766139931214
 21
269.4519938540891
 31
0.0
  0
ARC
  5
320
330
1F
100
AcDbEntity
  8
LAY-10
  6
CONTINUOUS
 62
     7
100
AcDbCircle
 10
384.0389174752081
 20
268.8442986995026
 30
0.0
 40
1.0
100
AcDbArc
 50
190.6585893152461
 51
270.0
  0
ARC
  5
321
330
1F
100
AcDbEntity
  8
LAY-10
  6
CONTINUOUS
 62
     7
100
AcDbCircle
 10
389.9379702502832
 20
268.8442986995026
 30
0.0
 40
1.0
100
AcDbArc
 50
270.0
 51
0.0
  0
ARC
  5
322
330
1F
100
AcDbEntity
  8
LAY-10
  6
CONTINUOUS
 62
     7
100
AcDbCircle
 10
389.0611421937271
 20
274.99999999999
 30
0.0
 40
1.0
100
AcDbArc
 50
90.0
 51
167.8568196752726
  0
LINE
  5
323
330
1F
100
AcDbEntity
  8
LAY-10
  6
CONTINUOUS
 62
     7
100
AcDbLine
 10
432.0499994000946
 20
267.8442986995021
 30
0.0
 11
440.7869100832608
 21
267.8442986995021
 31
0.0
  0
ARC
  5
324
330
1F
100
AcDbEntity
  8
LAY-10
  6
CONTINUOUS
 62
     7
100
AcDbCircle
 10
429.0308789356317
 20
274.99999999999
 30
0.0
 40
1.0
100
AcDbArc
 50
9.16595133529417
 51
90.0
  0
ARC
  5
325
330
1F
100
AcDbEntity
  8
LAY-10
  6
CONTINUOUS
 62
     7
100
AcDbCircle
 10
432.0499994000946
 20
268.8442986995026
 30
0.0
 40
1.0
100
AcDbArc
 50
189.1659513352937
 51
270.0
  0
ARC
  5
326
330
1F
100
AcDbEntity
  8
LAY-10
  6
CONTINUOUS
 62
     7
100
AcDbCircle
 10
440.7869100832608
 20
268.8442986995026
 30
0.0
 40
1.0
100
AcDbArc
 50
270.0
 51
354.3478074598059
  0
ARC
  5
327
330
1F
100
AcDbEntity
  8
LAY-10
  6
CONTINUOUS
 62
     7
100
AcDbCircle
 10
442.0406507760928
 20
275.583868634561
 30
0.0
 40
0.4161313654307721
100
AcDbArc
 50
354.3478074598361
 51
169.7814950412832
  0
ARC
  5
328
330
1F
100
AcDbEntity
  8
LAY-10
  6
CONTINUOUS
 62
     7
100
AcDbCircle
 10
497.950000599908
 20
268.8442986995026
 30
0.0
 40
1.0
100
AcDbArc
 50
270.0
 51
350.8340486647058
  0
LINE
  5
329
330
1F
100
AcDbEntity
  8
LAY-10
  6
CONTINUOUS
 62
     7
100
AcDbLine
 10
499.0609892220344
 20
269.4519938540891
 30
0.0
 11
490.323386006881
 21
269.4519938540891
 31
0.0
  0
LINE
  5
32A
330
1F
100
AcDbEntity
  8
LAY-10
  6
CONTINUOUS
 62
     7
100
AcDbLine
 10
497.950000599908
 20
267.8442986995021
 30
0.0
 11
489.2130899167418
 21
267.8442986995021
 31
0.0
  0
ARC
  5
32B
330
1F
100
AcDbEntity
  8
LAY-10
  6
CONTINUOUS
 62
     7
100
AcDbCircle
 10
489.2130899167418
 20
268.8442986995026
 30
0.0
 40
1.0
100
AcDbArc
 50
185.6521925401939
 51
270.0
  0
LINE
  5
32C
330
1F
100
AcDbEntity
  8
LAY-10
  6
CONTINUOUS
 62
     7
100
AcDbLine
 10
573.0014918429825
 20
268.6818618990296
 30
0.0
 11
574.0683446205144
 21
275.162436800463
 31
0.0
  0
ARC
  5
32D
330
1F
100
AcDbEntity
  8
LAY-10
  6
CONTINUOUS
 62
     7
100
AcDbCircle
 10
575.0550635702928
 20
274.99999999999
 30
0.0
 40
1.0
100
AcDbArc
 50
90.0
 51
170.651634766819
  0
ARC
  5
32E
330
1F
100
AcDbEntity
  8
LAY-10
  6
CONTINUOUS
 62
     7
100
AcDbCircle
 10
573.7958706336418
 20
274.99999999999
 30
0.0
 40
1.0
100
AcDbArc
 50
50.97964302756382
 51
90.0
  0
ARC
  5
32F
330
1F
100
AcDbEntity
  8
LAY-10
  6
CONTINUOUS
 62
     7
100
AcDbCircle
 10
571.7331215260187
 20
274.99999999999
 30
0.0
 40
1.0
100
AcDbArc
 50
90.0
 51
174.4634916540224
  0
ARC
  5
330
330
1F
100
AcDbEntity
  8
LAY-10
  6
CONTINUOUS
 62
     7
100
AcDbCircle
 10
577.3848753937626
 20
274.99999999999
 30
0.0
 40
1.0
100
AcDbArc
 50
90.0
 51
173.0096493429382
  0
LINE
  5
331
330
1F
100
AcDbEntity
  8
LAY-10
  6
CONTINUOUS
 62
     7
100
AcDbLine
 10
572.0147728932038
 20
267.8442986995021
 30
0.0
 11
571.1364359404315
 21
267.8442986995021
 31
0.0
  0
ARC
  5
332
330
1F
100
AcDbEntity
  8
LAY-10
  6
CONTINUOUS
 62
     7
100
AcDbCircle
 10
571.1364359404315
 20
268.8442986995026
 30
0.0
 40
1.0
100
AcDbArc
 50
174.4634916540224
 51
270.0
  0
ARC
  5
333
330
1F
100
AcDbEntity
  8
LAY-10
  6
CONTINUOUS
 62
     7
100
AcDbCircle
 10
572.0147728932038
 20
268.8442986995026
 30
0.0
 40
1.0
100
AcDbArc
 50
270.0
 51
350.651634766819
  0
LINE
  5
334
330
1F
100
AcDbEntity
  8
LAY-10
  6
CONTINUOUS
 62
     7
100
AcDbLine
 10
465.000000000001
 20
262.99999999999
 30
0.0
 11
456.2620388964289
 21
262.99999999999
 31
0.0
  0
LINE
  5
335
330
1F
100
AcDbEntity
  8
LAY-10
  6
CONTINUOUS
 62
     7
100
AcDbLine
 10
456.2620388964289
 20
262.9999999999893
 30
0.0
 11
456.0000000000139
 21
257.9999999999898
 31
0.0
  0
LINE
  5
336
330
1F
100
AcDbEntity
  8
LAY-10
  6
CONTINUOUS
 62
     7
100
AcDbLine
 10
465.000000000001
 20
261.9999999999895
 30
0.0
 11
536.2096311171341
 21
261.9999999999895
 31
0.0
  0
LINE
  5
337
330
1F
100
AcDbEntity
  8
LAY-10
  6
CONTINUOUS
 62
     7
100
AcDbLine
 10
465.000000000001
 20
264.0088789564811
 30
0.0
 11
471.3139813493072
 21
264.0088789564811
 31
0.0
  0
LINE
  5
338
330
1F
100
AcDbEntity
  8
LAY-10
  6
CONTINUOUS
 62
     7
100
AcDbLine
 10
471.3139813493072
 20
264.0088789564811
 30
0.0
 11
471.000000000001
 21
269.9999999999877
 31
0.0
  0
LINE
  5
339
330
1F
100
AcDbEntity
  8
LAY-10
  6
CONTINUOUS
 62
     7
100
AcDbLine
 10
326.0000000000013
 20
269.9999999999961
 30
0.0
 11
335.1835338965911
 21
269.9999999999961
 31
0.0
  0
LINE
  5
33A
330
1F
100
AcDbEntity
  8
LAY-10
  6
CONTINUOUS
 62
     7
100
AcDbLine
 10
604.0000000000008
 20
269.9999999999964
 30
0.0
 11
594.8164661034112
 21
269.9999999999964
 31
0.0
  0
LINE
  5
33B
330
1F
100
AcDbEntity
  8
LAY-10
  6
CONTINUOUS
 62
     7
100
AcDbLine
 10
537.0000000000014
 20
262.9999999999936
 30
0.0
 11
537.0000000000014
 21
269.0519999999939
 31
0.0
  0
ARC
  5
33C
330
1F
100
AcDbEntity
  8
LAY-10
  6
CONTINUOUS
 62
     7
100
AcDbCircle
 10
539.0000000000016
 20
266.7522032085499
 30
0.0
 40
3.047796791443853
100
AcDbArc
 50
48.98840640770953
 51
131.0115935922989
  0
ARC
  5
33D
330
1F
100
AcDbEntity
  8
LAY-10
  6
CONTINUOUS
 62
     7
100
AcDbCircle
 10
545.0000000000016
 20
258.7308128342185
 30
0.0
 40
11.06918716577541
100
AcDbArc
 50
68.81604434177302
 51
111.1839556582301
  0
LINE
  5
33E
330
1F
100
AcDbEntity
  8
LAY-10
  6
CONTINUOUS
 62
     7
100
AcDbLine
 10
551.0000000000016
 20
269.7999999999935
 30
0.0
 11
539.0000000000016
 21
269.7999999999935
 31
0.0
  0
LINE
  5
33F
330
1F
100
AcDbEntity
  8
LAY-10
  6
CONTINUOUS
 62
     7
100
AcDbLine
 10
549.0000000000014
 20
262.9999999999936
 30
0.0
 11
549.0000000000014
 21
269.0519999999936
 31
0.0
  0
LINE
  5
340
330
1F
100
AcDbEntity
  8
LAY-10
  6
CONTINUOUS
 62
     7
100
AcDbLine
 10
541.0000000000011
 20
262.9999999999936
 30
0.0
 11
541.0000000000011
 21
269.0519999999939
 31
0.0
  0
LINE
  5
341
330
1F
100
AcDbEntity
  8
LAY-10
  6
CONTINUOUS
 62
     7
100
AcDbLine
 10
553.0000000000011
 20
262.9999999999936
 30
0.0
 11
553.0000000000011
 21
269.0519999999936
 31
0.0
  0
ARC
  5
342
330
1F
100
AcDbEntity
  8
LAY-10
  6
CONTINUOUS
 62
     7
100
AcDbCircle
 10
551.0000000000016
 20
266.7522032085499
 30
0.0
 40
3.047796791443853
100
AcDbArc
 50
48.98840640770953
 51
131.0115935923079
  0
LINE
  5
343
330
1F
100
AcDbEntity
  8
LAY-10
  6
CONTINUOUS
 62
     7
100
AcDbLine
 10
549.0000000000003
 20
262.99999999999
 30
0.0
 11
549.0000000000003
 21
251.001358759491
 31
0.0
  0
LINE
  5
344
330
1F
100
AcDbEntity
  8
LAY-10
  6
CONTINUOUS
 62
     7
100
AcDbLine
 10
541.0000000000005
 20
262.99999999999
 30
0.0
 11
541.0000000000005
 21
251.001358759491
 31
0.0
  0
LINE
  5
345
330
1F
100
AcDbEntity
  8
LAY-10
  6
CONTINUOUS
 62
     7
100
AcDbLine
 10
541.0000000000011
 20
269.7999999999935
 30
0.0
 11
541.0000000000011
 21
300.2013587595138
 31
0.0
  0
LINE
  5
346
330
1F
100
AcDbEntity
  8
LAY-10
  6
CONTINUOUS
 62
     7
100
AcDbLine
 10
549.0000000000014
 20
269.7999999999935
 30
0.0
 11
549.0000000000014
 21
300.2013587595138
 31
0.0
  0
LINE
  5
347
330
1F
100
AcDbEntity
  8
LAY-10
  6
CONTINUOUS
 62
     7
100
AcDbLine
 10
375.7846096908387
 20
257.9999999999898
 30
0.0
 11
541.5
 21
257.9999999999898
 31
0.0
  0
LINE
  5
348
330
1F
100
AcDbEntity
  8
LAY-10
  6
CONTINUOUS
 62
     7
100
AcDbLine
 10
548.5000000000005
 20
257.9999999999898
 30
0.0
 11
554.2153903091636
 21
257.9999999999898
 31
0.0
  0
ARC
  5
349
330
1F
100
AcDbEntity
  8
LAY-10
  6
CONTINUOUS
 62
     7
100
AcDbCircle
 10
540.9388578062752
 20
274.99999999999
 30
0.0
 40
1.0
100
AcDbArc
 50
86.49462396732893
 51
90.0
  0
LINE
  5
34A
330
1F
100
AcDbEntity
  8
LAY-10
  6
CONTINUOUS
 62
     7
100
AcDbLine
 10
457.0000000000008
 20
262.999999999989
 30
0.0
 11
457.0000000000008
 21
269.051999999989
 31
0.0
  0
LINE
  5
34B
330
1F
100
AcDbEntity
  8
LAY-10
  6
CONTINUOUS
 62
     7
100
AcDbLine
 10
461.0000000000009
 20
262.999999999989
 30
0.0
 11
461.0000000000009
 21
269.051999999989
 31
0.0
  0
ARC
  5
34C
330
1F
100
AcDbEntity
  8
LAY-10
  6
CONTINUOUS
 62
     7
100
AcDbCircle
 10
459.000000000001
 20
266.7522032085452
 30
0.0
 40
3.047796791443853
100
AcDbArc
 50
48.9884064077057
 51
131.0115935922989
  0
ARC
  5
34D
330
1F
100
AcDbEntity
  8
LAY-10
  6
CONTINUOUS
 62
     7
100
AcDbCircle
 10
465.000000000001
 20
258.7308128342136
 30
0.0
 40
11.06918716577541
100
AcDbArc
 50
90.0
 51
111.1839556582283
  0
LINE
  5
34E
330
1F
100
AcDbEntity
  8
LAY-10
  6
CONTINUOUS
 62
     7
100
AcDbLine
 10
464.999999999999
 20
269.7999999999889
 30
0.0
 11
459.000000000001
 21
269.7999999999889
 31
0.0
  0
LINE
  5
34F
330
1F
100
AcDbEntity
  8
LAY-10
  6
CONTINUOUS
 62
     7
100
AcDbLine
 10
461.0000000000009
 20
269.7999999999889
 30
0.0
 11
461.0000000000009
 21
300.2013587595102
 31
0.0
  0
LINE
  5
350
330
1F
100
AcDbEntity
  8
LAY-10
  6
CONTINUOUS
 62
     7
100
AcDbLine
 10
461.5000000000008
 20
300.7013587595063
 30
0.0
 11
464.2500000000007
 21
300.7013587595063
 31
0.0
  0
LINE
  5
351
330
1F
100
AcDbEntity
  8
LAY-10
  6
CONTINUOUS
 62
     7
100
AcDbLine
 10
461.0000000000009
 20
300.2013587595102
 30
0.0
 11
461.5000000000011
 21
300.7013587595063
 31
0.0
  0
LINE
  5
352
330
1F
100
AcDbEntity
  8
LAY-10
  6
CONTINUOUS
 62
     7
100
AcDbLine
 10
461.0000000000009
 20
300.2013587595102
 30
0.0
 11
464.2500000000007
 21
300.2013587595102
 31
0.0
  0
LINE
  5
353
330
1F
100
AcDbEntity
  8
LAY-10
  6
CONTINUOUS
 62
     7
100
AcDbLine
 10
464.2500000000007
 20
298.20135875951
 30
0.0
 11
464.2500000000007
 21
300.7013587595063
 31
0.0
  0
LINE
  5
354
330
1F
100
AcDbEntity
  8
LAY-10
  6
CONTINUOUS
 62
     7
100
AcDbLine
 10
464.2500000000007
 20
298.20135875951
 30
0.0
 11
464.999999999999
 21
298.20135875951
 31
0.0
  0
LINE
  5
355
330
1F
100
AcDbEntity
  8
LAY-10
  6
CONTINUOUS
 62
     7
100
AcDbLine
 10
566.000000000001
 20
244.89354956092
 30
0.0
 11
573.000000000001
 21
244.89354956092
 31
0.0
  0
LINE
  5
356
330
1F
100
AcDbEntity
  8
LAY-10
  6
CONTINUOUS
 62
     7
100
AcDbLine
 10
566.0000000000011
 20
189.9999999999965
 30
0.0
 11
566.0000000000011
 21
244.89354956092
 31
0.0
  0
LINE
  5
357
330
1F
100
AcDbEntity
  8
LAY-10
  6
CONTINUOUS
 62
     7
100
AcDbLine
 10
573.000000000001
 20
189.9999999999965
 30
0.0
 11
573.000000000001
 21
244.89354956092
 31
0.0
  0
LINE
  5
358
330
1F
100
AcDbEntity
  8
LAY-10
  6
CONTINUOUS
 62
     7
100
AcDbLine
 10
364.000000000001
 20
189.9999999999965
 30
0.0
 11
364.000000000001
 21
244.89354956092
 31
0.0
  0
LINE
  5
359
330
1F
100
AcDbEntity
  8
LAY-10
  6
CONTINUOUS
 62
     7
100
AcDbLine
 10
357.000000000001
 20
189.9999999999965
 30
0.0
 11
357.000000000001
 21
244.89354956092
 31
0.0
  0
LINE
  5
35A
330
1F
100
AcDbEntity
  8
LAY-10
  6
CONTINUOUS
 62
     7
100
AcDbLine
 10
364.0000000000011
 20
244.89354956092
 30
0.0
 11
357.000000000001
 21
244.89354956092
 31
0.0
  0
LINE
  5
35B
330
1F
100
AcDbEntity
  8
LAY-10
  6
CONTINUOUS
 62
     7
100
AcDbLine
 10
357.000000000001
 20
189.9999999999965
 30
0.0
 11
573.000000000001
 21
189.9999999999965
 31
0.0
  0
LINE
  5
35C
330
1F
100
AcDbEntity
  8
LAY-10
  6
CONTINUOUS
 62
     7
100
AcDbLine
 10
541.1896408205805
 20
310.9889220816636
 30
0.0
 11
540.9794291343497
 21
314.9999999999899
 31
0.0
  0
LINE
  5
35D
330
1F
100
AcDbEntity
  8
LAY-10
  6
CONTINUOUS
 62
     7
100
AcDbLine
 10
514.7903688828713
 20
310.9999999999899
 30
0.0
 11
515.0000000000033
 21
314.9999999999899
 31
0.0
  0
LINE
  5
35E
330
1F
100
AcDbEntity
  8
LAY-10
  6
CONTINUOUS
 62
     7
100
AcDbLine
 10
389.020570865631
 20
314.9999999999899
 30
0.0
 11
540.9794291343674
 21
314.9999999999899
 31
0.0
  0
ARC
  5
35F
330
1F
100
AcDbEntity
  8
LAY-10
  6
CONTINUOUS
 62
     7
100
AcDbCircle
 10
540.9794291343674
 20
308.9999999999899
 30
0.0
 40
6.000000000000004
100
AcDbArc
 50
14.99999999999946
 51
90.0
  0
LINE
  5
360
330
1F
100
AcDbEntity
  8
LAY-10
  6
CONTINUOUS
 62
     7
100
AcDbLine
 10
540.9794291343667
 20
310.9999999999902
 30
0.0
 11
464.9999999999988
 21
310.9999999999902
 31
0.0
  0
ARC
  5
361
330
1F
100
AcDbEntity
  8
LAY-10
  6
CONTINUOUS
 62
     7
100
AcDbCircle
 10
540.9794291343667
 20
308.9999999999901
 30
0.0
 40
2.0
100
AcDbArc
 50
14.99999999999763
 51
90.0
  0
LINE
  5
362
330
1F
100
AcDbEntity
  8
LAY-10
  6
CONTINUOUS
 62
     7
100
AcDbLine
 10
374.3685142215903
 20
277.4999999999912
 30
0.0
 11
383.2250159078959
 21
310.552914270605
 31
0.0
  0
LINE
  5
363
330
1F
100
AcDbEntity
  8
LAY-10
  6
CONTINUOUS
 62
     7
100
AcDbLine
 10
387.0887192130529
 20
309.5176380901951
 30
0.0
 11
376.4999999999974
 21
269.9999999999899
 31
0.0
  0
LINE
  5
364
330
1F
100
AcDbEntity
  8
LAY-10
  6
CONTINUOUS
 62
     7
100
AcDbLine
 10
459.8311499164067
 20
308.9999999999897
 30
0.0
 11
458.738113221282
 21
269.99999999999
 31
0.0
  0
LINE
  5
365
330
1F
100
AcDbEntity
  8
LAY-10
  6
CONTINUOUS
 62
     7
100
AcDbLine
 10
460.1470959885605
 20
308.9999999999897
 30
0.0
 11
459.0537615217402
 21
269.99999999999
 31
0.0
  0
LINE
  5
366
330
1F
100
AcDbEntity
  8
LAY-10
  6
CONTINUOUS
 62
     7
100
AcDbLine
 10
452.6881817732984
 20
308.9999999999897
 30
0.0
 11
451.5948473064768
 21
269.99999999999
 31
0.0
  0
LINE
  5
367
330
1F
100
AcDbEntity
  8
LAY-10
  6
CONTINUOUS
 62
     7
100
AcDbLine
 10
453.8640185441961
 20
308.9999999999897
 30
0.0
 11
452.7709818490713
 21
269.99999999999
 31
0.0
  0
LINE
  5
368
330
1F
100
AcDbEntity
  8
LAY-10
  6
CONTINUOUS
 62
     7
100
AcDbLine
 10
443.7522219285073
 20
308.9999999999897
 30
0.0
 11
440.5208827916796
 21
269.99999999999
 31
0.0
  0
LINE
  5
369
330
1F
100
AcDbEntity
  8
LAY-10
  6
CONTINUOUS
 62
     7
100
AcDbLine
 10
438.0458828307352
 20
308.9999999999897
 30
0.0
 11
434.8145436939072
 21
269.99999999999
 31
0.0
  0
LINE
  5
36A
330
1F
100
AcDbEntity
  8
LAY-10
  6
CONTINUOUS
 62
     7
100
AcDbLine
 10
436.0615450702807
 20
308.9999999999897
 30
0.0
 11
432.8293256324156
 21
269.99999999999
 31
0.0
  0
LINE
  5
36B
330
1F
100
AcDbEntity
  8
LAY-10
  6
CONTINUOUS
 62
     7
100
AcDbLine
 10
428.6019238005058
 20
308.9999999999897
 30
0.0
 11
423.3735072479387
 21
269.99999999999
 31
0.0
  0
LINE
  5
36C
330
1F
100
AcDbEntity
  8
LAY-10
  6
CONTINUOUS
 62
     7
100
AcDbLine
 10
423.4057713777984
 20
308.9999999999897
 30
0.0
 11
418.1773548252307
 21
269.99999999999
 31
0.0
  0
LINE
  5
36D
330
1F
100
AcDbEntity
  8
LAY-10
  6
CONTINUOUS
 62
     7
100
AcDbLine
 10
420.6996577098309
 20
308.9999999999897
 30
0.0
 11
415.469816800261
 21
269.99999999999
 31
0.0
  0
LINE
  5
36E
330
1F
100
AcDbEntity
  8
LAY-10
  6
CONTINUOUS
 62
     7
100
AcDbLine
 10
408.0454091835355
 20
269.99999999999
 30
0.0
 11
415.0423962597699
 21
308.9999999999897
 31
0.0
  0
LINE
  5
36F
330
1F
100
AcDbEntity
  8
LAY-10
  6
CONTINUOUS
 62
     7
100
AcDbLine
 10
410.5835273069045
 20
308.9999999999897
 30
0.0
 11
403.5865402306698
 21
269.99999999999
 31
0.0
  0
LINE
  5
370
330
1F
100
AcDbEntity
  8
LAY-10
  6
CONTINUOUS
 62
     7
100
AcDbLine
 10
407.2739078840933
 20
308.9999999999897
 30
0.0
 11
400.2750146461223
 21
269.99999999999
 31
0.0
  0
LINE
  5
371
330
1F
100
AcDbEntity
  8
LAY-10
  6
CONTINUOUS
 62
     7
100
AcDbLine
 10
403.6662557256611
 20
308.9999999999897
 30
0.0
 11
395.2065000362587
 21
269.99999999999
 31
0.0
  0
LINE
  5
372
330
1F
100
AcDbEntity
  8
LAY-10
  6
CONTINUOUS
 62
     7
100
AcDbLine
 10
391.6797885225035
 20
269.99999999999
 30
0.0
 11
400.1395442119061
 21
308.9999999999897
 31
0.0
  0
LINE
  5
373
330
1F
100
AcDbEntity
  8
LAY-10
  6
CONTINUOUS
 62
     7
100
AcDbLine
 10
396.3710652843488
 20
308.9999999999897
 30
0.0
 11
387.9090049368855
 21
269.99999999999
 31
0.0
  0
LINE
  5
374
330
1F
100
AcDbEntity
  8
LAY-10
  6
CONTINUOUS
 62
     7
100
AcDbLine
 10
385.417901743768
 20
269.99999999999
 30
0.0
 11
394.9706941282988
 21
308.9999999999897
 31
0.0
  0
LINE
  5
375
330
1F
100
AcDbEntity
  8
LAY-10
  6
CONTINUOUS
 62
     7
100
AcDbLine
 10
382.9774818853117
 20
269.99999999999
 30
0.0
 11
392.5302742698432
 21
308.9999999999897
 31
0.0
  0
LINE
  5
376
330
1F
100
AcDbEntity
  8
LAY-10
  6
CONTINUOUS
 62
     7
100
AcDbLine
 10
379.1074230223489
 20
269.99999999999
 30
0.0
 11
389.3357492354207
 21
308.9999999999897
 31
0.0
  0
LINE
  5
377
330
1F
100
AcDbEntity
  8
LAY-10
  6
CONTINUOUS
 62
     7
100
AcDbLine
 10
377.859952877441
 20
269.99999999999
 30
0.0
 11
388.0882790905128
 21
308.9999999999897
 31
0.0
  0
LINE
  5
378
330
1F
100
AcDbEntity
  8
LAY-10
  6
CONTINUOUS
 62
     7
100
AcDbLine
 10
388.9938844686117
 20
274.9999999999899
 30
0.0
 11
386.6426187161437
 21
274.9999999999899
 31
0.0
  0
LINE
  5
379
330
1F
100
AcDbEntity
  8
LAY-10
  6
CONTINUOUS
 62
     7
100
AcDbLine
 10
401.1723086509903
 20
274.9999999999899
 30
0.0
 11
396.2910840990026
 21
274.9999999999899
 31
0.0
  0
LINE
  5
37A
330
1F
100
AcDbEntity
  8
LAY-10
  6
CONTINUOUS
 62
     7
100
AcDbLine
 10
416.1403092245648
 20
274.9999999999899
 30
0.0
 11
408.9424588086938
 21
274.9999999999899
 31
0.0
  0
LINE
  5
37B
330
1F
100
AcDbEntity
  8
LAY-10
  6
CONTINUOUS
 62
     7
100
AcDbLine
 10
433.2437127398343
 20
274.9999999999899
 30
0.0
 11
424.0438170623704
 21
274.9999999999899
 31
0.0
  0
LINE
  5
37C
330
1F
100
AcDbEntity
  8
LAY-10
  6
CONTINUOUS
 62
     7
100
AcDbLine
 10
451.7350183919666
 20
274.9999999999899
 30
0.0
 11
440.9351570399909
 21
274.9999999999899
 31
0.0
  0
LINE
  5
37D
330
1F
100
AcDbEntity
  8
LAY-10
  6
CONTINUOUS
 62
     7
100
AcDbLine
 10
374.36851422159
 20
277.4999999999912
 30
0.0
 11
356.4999999999768
 21
277.4999999999912
 31
0.0
  0
LINE
  5
37E
330
1F
100
AcDbEntity
  8
LAY-10
  6
CONTINUOUS
 62
     7
100
AcDbLine
 10
367.7937284085445
 20
271.895328087504
 30
0.0
 11
367.5000000000009
 21
277.4999999999912
 31
0.0
  0
ARC
  5
37F
330
1F
100
AcDbEntity
  8
LAY-10
  6
CONTINUOUS
 62
     7
100
AcDbCircle
 10
369.7909874780536
 20
271.9999999999899
 30
0.0
 40
2.0
100
AcDbArc
 50
182.9999999999991
 51
270.0
  0
LINE
  5
380
330
1F
100
AcDbEntity
  8
LAY-10
  6
CONTINUOUS
 62
     7
100
AcDbLine
 10
388.8103591794173
 20
310.9889220816636
 30
0.0
 11
389.0205708656479
 21
314.9999999999899
 31
0.0
  0
LINE
  5
381
330
1F
100
AcDbEntity
  8
LAY-10
  6
CONTINUOUS
 62
     7
100
AcDbLine
 10
415.2096311171263
 20
310.9999999999899
 30
0.0
 11
414.9999999999943
 21
314.9999999999899
 31
0.0
  0
ARC
  5
382
330
1F
100
AcDbEntity
  8
LAY-10
  6
CONTINUOUS
 62
     7
100
AcDbCircle
 10
389.0205708656303
 20
308.9999999999899
 30
0.0
 40
6.000000000000004
100
AcDbArc
 50
90.0
 51
165.0000000000006
  0
LINE
  5
383
330
1F
100
AcDbEntity
  8
LAY-10
  6
CONTINUOUS
 62
     7
100
AcDbLine
 10
389.020570865631
 20
310.9999999999902
 30
0.0
 11
464.9999999999988
 21
310.9999999999902
 31
0.0
  0
ARC
  5
384
330
1F
100
AcDbEntity
  8
LAY-10
  6
CONTINUOUS
 62
     7
100
AcDbCircle
 10
389.020570865631
 20
308.9999999999901
 30
0.0
 40
2.0
100
AcDbArc
 50
90.0
 51
165.0000000000045
  0
LINE
  5
385
330
1F
100
AcDbEntity
  8
LAY-10
  6
CONTINUOUS
 62
     7
100
AcDbLine
 10
443.7522219285073
 20
308.9999999999897
 30
0.0
 11
453.8640185441961
 21
308.9999999999897
 31
0.0
  0
LINE
  5
386
330
1F
100
AcDbEntity
  8
LAY-10
  6
CONTINUOUS
 62
     7
100
AcDbLine
 10
428.6019238005058
 20
308.9999999999897
 30
0.0
 11
438.0458828307352
 21
308.9999999999897
 31
0.0
  0
LINE
  5
387
330
1F
100
AcDbEntity
  8
LAY-10
  6
CONTINUOUS
 62
     7
100
AcDbLine
 10
415.0423962597699
 20
308.9999999999897
 30
0.0
 11
423.4057713777984
 21
308.9999999999897
 31
0.0
  0
LINE
  5
388
330
1F
100
AcDbEntity
  8
LAY-10
  6
CONTINUOUS
 62
     7
100
AcDbLine
 10
403.6662557256611
 20
308.9999999999897
 30
0.0
 11
410.5835273069045
 21
308.9999999999897
 31
0.0
  0
LINE
  5
389
330
1F
100
AcDbEntity
  8
LAY-10
  6
CONTINUOUS
 62
     7
100
AcDbLine
 10
394.9706941282988
 20
308.9999999999897
 30
0.0
 11
400.1395442119061
 21
308.9999999999897
 31
0.0
  0
LINE
  5
38A
330
1F
100
AcDbEntity
  8
LAY-10
  6
CONTINUOUS
 62
     7
100
AcDbLine
 10
386.9500185048107
 20
308.9999999999897
 30
0.0
 11
388.088279090513
 21
308.9999999999897
 31
0.0
  0
LINE
  5
38B
330
1F
100
AcDbEntity
  8
LAY-10
  6
CONTINUOUS
 62
     7
100
AcDbLine
 10
389.3357492354207
 20
308.9999999999897
 30
0.0
 11
392.5302742698432
 21
308.9999999999897
 31
0.0
  0
LINE
  5
38C
330
1F
100
AcDbEntity
  8
LAY-10
  6
CONTINUOUS
 62
     7
100
AcDbLine
 10
543.049981495187
 20
308.9999999999897
 30
0.0
 11
547.1910862168278
 21
308.9999999999897
 31
0.0
  0
LINE
  5
38D
330
1F
100
AcDbEntity
  8
LAY-10
  6
CONTINUOUS
 62
     7
100
AcDbLine
 10
476.7903688828714
 20
310.9999999999899
 30
0.0
 11
477.0000000000032
 21
314.9999999999899
 31
0.0
  0
LINE
  5
38E
330
1F
100
AcDbEntity
  8
LAY-10
  6
CONTINUOUS
 62
     7
100
AcDbLine
 10
510.2102116861504
 20
310.9889220816636
 30
0.0
 11
509.9999999999198
 21
314.9999999999899
 31
0.0
  0
LINE
  5
38F
330
1F
100
AcDbEntity
  8
LAY-10
  6
CONTINUOUS
 62
     7
100
AcDbLine
 10
557.641104721641
 20
269.9999999999899
 30
0.0
 11
546.7749840921017
 21
310.552914270605
 31
0.0
  0
LINE
  5
390
330
1F
100
AcDbEntity
  8
LAY-10
  6
CONTINUOUS
 62
     7
100
AcDbLine
 10
464.9999999999988
 20
308.9999999999897
 30
0.0
 11
460.1470959885608
 21
308.9999999999897
 31
0.0
  0
LINE
  5
391
330
1F
100
AcDbEntity
  8
LAY-10
  6
CONTINUOUS
 62
     7
100
AcDbLine
 10
467.9999999999408
 20
308.9999999999899
 30
0.0
 11
467.9999999999408
 21
269.9999999999899
 31
0.0
  0
LINE
  5
392
330
1F
100
AcDbEntity
  8
LAY-10
  6
CONTINUOUS
 62
     7
100
AcDbLine
 10
467.9999999999408
 20
308.9999999999899
 30
0.0
 11
478.2810691639808
 21
308.9999999999899
 31
0.0
  0
LINE
  5
393
330
1F
100
AcDbEntity
  8
LAY-10
  6
CONTINUOUS
 62
     7
100
AcDbLine
 10
478.2810691639808
 20
308.9999999999899
 30
0.0
 11
480.4551670154709
 21
269.9999999999899
 31
0.0
  0
LINE
  5
394
330
1F
100
AcDbEntity
  8
LAY-10
  6
CONTINUOUS
 62
     7
100
AcDbLine
 10
468.7499999999308
 20
269.9999999999899
 30
0.0
 11
468.7499999999308
 21
308.9999999999899
 31
0.0
  0
LINE
  5
395
330
1F
100
AcDbEntity
  8
LAY-10
  6
CONTINUOUS
 62
     7
100
AcDbLine
 10
468.7499999999308
 20
274.9999999999899
 30
0.0
 11
480.1764365216907
 21
274.9999999999899
 31
0.0
  0
LINE
  5
396
330
1F
100
AcDbEntity
  8
LAY-10
  6
CONTINUOUS
 62
     7
100
AcDbLine
 10
484.1499547683808
 20
308.9999999999899
 30
0.0
 11
486.3240526198709
 21
269.9999999999899
 31
0.0
  0
LINE
  5
397
330
1F
100
AcDbEntity
  8
LAY-10
  6
CONTINUOUS
 62
     7
100
AcDbLine
 10
498.2348690703108
 20
269.9999999999899
 30
0.0
 11
493.9816918759208
 21
308.9999999999899
 31
0.0
  0
LINE
  5
398
330
1F
100
AcDbEntity
  8
LAY-10
  6
CONTINUOUS
 62
     7
100
AcDbLine
 10
493.9816918759208
 20
308.9999999999899
 30
0.0
 11
484.1499547683808
 21
308.9999999999899
 31
0.0
  0
LINE
  5
399
330
1F
100
AcDbEntity
  8
LAY-10
  6
CONTINUOUS
 62
     7
100
AcDbLine
 10
485.7387455964408
 20
308.9999999999899
 30
0.0
 11
487.9134357288809
 21
269.9999999999899
 31
0.0
  0
LINE
  5
39A
330
1F
100
AcDbEntity
  8
LAY-10
  6
CONTINUOUS
 62
     7
100
AcDbLine
 10
487.6346293016408
 20
274.9999999999899
 30
0.0
 11
497.6895899428208
 21
274.9999999999899
 31
0.0
  0
LINE
  5
39B
330
1F
100
AcDbEntity
  8
LAY-10
  6
CONTINUOUS
 62
     7
100
AcDbLine
 10
499.4629646217708
 20
308.9999999999899
 30
0.0
 11
503.7161418161608
 21
269.9999999999899
 31
0.0
  0
LINE
  5
39C
330
1F
100
AcDbEntity
  8
LAY-10
  6
CONTINUOUS
 62
     7
100
AcDbLine
 10
514.5620478681708
 20
269.9999999999899
 30
0.0
 11
508.4156755832908
 21
308.9999999999899
 31
0.0
  0
LINE
  5
39D
330
1F
100
AcDbEntity
  8
LAY-10
  6
CONTINUOUS
 62
     7
100
AcDbLine
 10
508.4156755832908
 20
308.9999999999899
 30
0.0
 11
499.4629646217708
 21
308.9999999999899
 31
0.0
  0
LINE
  5
39E
330
1F
100
AcDbEntity
  8
LAY-10
  6
CONTINUOUS
 62
     7
100
AcDbLine
 10
501.8211084948408
 20
308.9999999999899
 30
0.0
 11
506.0754443656108
 21
269.9999999999899
 31
0.0
  0
LINE
  5
39F
330
1F
100
AcDbEntity
  8
LAY-10
  6
CONTINUOUS
 62
     7
100
AcDbLine
 10
505.5300166898708
 20
274.9999999999899
 30
0.0
 11
513.7740514213908
 21
274.9999999999899
 31
0.0
  0
LINE
  5
3A0
330
1F
100
AcDbEntity
  8
LAY-10
  6
CONTINUOUS
 62
     7
100
AcDbLine
 10
513.2697775495409
 20
308.9999999999899
 30
0.0
 11
519.4161498344209
 21
269.9999999999899
 31
0.0
  0
LINE
  5
3A1
330
1F
100
AcDbEntity
  8
LAY-10
  6
CONTINUOUS
 62
     7
100
AcDbLine
 10
528.7231273491009
 20
269.9999999999899
 30
0.0
 11
520.952185936141
 21
308.9999999999899
 31
0.0
  0
LINE
  5
3A2
330
1F
100
AcDbEntity
  8
LAY-10
  6
CONTINUOUS
 62
     7
100
AcDbLine
 10
520.952185936141
 20
308.9999999999899
 30
0.0
 11
513.2697775495409
 21
308.9999999999899
 31
0.0
  0
LINE
  5
3A3
330
1F
100
AcDbEntity
  8
LAY-10
  6
CONTINUOUS
 62
     7
100
AcDbLine
 10
516.294212264741
 20
308.9999999999899
 30
0.0
 11
522.4422589817109
 21
269.9999999999899
 31
0.0
  0
LINE
  5
3A4
330
1F
100
AcDbEntity
  8
LAY-10
  6
CONTINUOUS
 62
     7
100
AcDbLine
 10
521.6540478641508
 20
274.9999999999899
 30
0.0
 11
527.7268528089809
 21
274.9999999999899
 31
0.0
  0
LINE
  5
3A5
330
1F
100
AcDbEntity
  8
LAY-10
  6
CONTINUOUS
 62
     7
100
AcDbLine
 10
524.9669695742908
 20
308.9999999999899
 30
0.0
 11
532.7379109872508
 21
269.9999999999899
 31
0.0
  0
LINE
  5
3A6
330
1F
100
AcDbEntity
  8
LAY-10
  6
CONTINUOUS
 62
     7
100
AcDbLine
 10
540.0992003873808
 20
269.9999999999899
 30
0.0
 11
531.0433172752008
 21
308.9999999999899
 31
0.0
  0
LINE
  5
3A7
330
1F
100
AcDbEntity
  8
LAY-10
  6
CONTINUOUS
 62
     7
100
AcDbLine
 10
531.0433172752008
 20
308.9999999999899
 30
0.0
 11
524.9669695742908
 21
308.9999999999899
 31
0.0
  0
LINE
  5
3A8
330
1F
100
AcDbEntity
  8
LAY-10
  6
CONTINUOUS
 62
     7
100
AcDbLine
 10
528.5255128217309
 20
308.9999999999899
 30
0.0
 11
536.2985712417708
 21
269.9999999999899
 31
0.0
  0
LINE
  5
3A9
330
1F
100
AcDbEntity
  8
LAY-10
  6
CONTINUOUS
 62
     7
100
AcDbLine
 10
535.302025290481
 20
274.9999999999899
 30
0.0
 11
538.9381897319709
 21
274.9999999999899
 31
0.0
  0
LINE
  5
3AA
330
1F
100
AcDbEntity
  8
LAY-10
  6
CONTINUOUS
 62
     7
100
AcDbLine
 10
538.2480387383408
 20
308.9999999999899
 30
0.0
 11
534.0433172752008
 21
308.9999999999899
 31
0.0
  0
LINE
  5
3AB
330
1F
100
AcDbEntity
  8
LAY-10
  6
CONTINUOUS
 62
     7
100
AcDbLine
 10
540.102140704591
 20
308.9999999999899
 30
0.0
 11
542.2514694255309
 21
308.9999999999899
 31
0.0
  0
LINE
  5
3AC
330
1F
100
AcDbEntity
  8
LAY-10
  6
CONTINUOUS
 62
     7
100
AcDbLine
 10
388.0835172113204
 20
275.2103553987183
 30
0.0
 11
388.0382550764829
 21
274.9999999999899
 31
0.0
  0
LINE
  5
3AD
330
1F
100
AcDbEntity
  8
LAY-10
  6
CONTINUOUS
 62
     7
100
AcDbLine
 10
389.2108603749567
 20
275.9999999999898
 30
0.0
 11
389.0611421937271
 21
275.9999999999898
 31
0.0
  0
LINE
  5
3AE
330
1F
100
AcDbEntity
  8
LAY-10
  6
CONTINUOUS
 62
     7
100
AcDbLine
 10
383.0561707442557
 20
268.6593423186932
 30
0.0
 11
382.8038542675612
 21
269.9999999999899
 31
0.0
  0
ARC
  5
3AF
330
1F
100
AcDbEntity
  8
LAY-10
  6
CONTINUOUS
 62
     7
100
AcDbCircle
 10
386.0367742618013
 20
270.4519938540889
 30
0.0
 40
1.0
100
AcDbArc
 50
270.0
 51
333.1283203043511
  0
LINE
  5
3B0
330
1F
100
AcDbEntity
  8
LAY-10
  6
CONTINUOUS
 62
     7
100
AcDbLine
 10
390.9379702502833
 20
269.9999999999899
 30
0.0
 11
390.9379702502833
 21
268.8442986995026
 31
0.0
  0
LINE
  5
3B1
330
1F
100
AcDbEntity
  8
LAY-10
  6
CONTINUOUS
 62
     7
100
AcDbLine
 10
401.3517674519639
 20
275.9999999999898
 30
0.0
 11
396.5080009115513
 21
275.9999999999898
 31
0.0
  0
LINE
  5
3B2
330
1F
100
AcDbEntity
  8
LAY-10
  6
CONTINUOUS
 62
     7
100
AcDbLine
 10
416.2744077094256
 20
275.9999999999898
 30
0.0
 11
409.1218687337254
 21
275.9999999999898
 31
0.0
  0
LINE
  5
3B3
330
1F
100
AcDbEntity
  8
LAY-10
  6
CONTINUOUS
 62
     7
100
AcDbLine
 10
429.0308789356317
 20
275.9999999999898
 30
0.0
 11
424.1778790252567
 21
275.9999999999898
 31
0.0
  0
LINE
  5
3B4
330
1F
100
AcDbEntity
  8
LAY-10
  6
CONTINUOUS
 62
     7
100
AcDbLine
 10
430.0438129872493
 20
274.9999999999899
 30
0.0
 11
430.0181100376006
 21
275.1592945426005
 31
0.0
  0
LINE
  5
3B5
330
1F
100
AcDbEntity
  8
LAY-10
  6
CONTINUOUS
 62
     7
100
AcDbLine
 10
431.0627682981257
 20
268.6850041568921
 30
0.0
 11
430.8505873194842
 21
269.9999999999899
 31
0.0
  0
ARC
  5
3B6
330
1F
100
AcDbEntity
  8
LAY-10
  6
CONTINUOUS
 62
     7
100
AcDbCircle
 10
439.6766139931214
 20
270.4519938540889
 30
0.0
 40
1.0
100
AcDbArc
 50
270.0
 51
333.1283203043511
  0
LINE
  5
3B7
330
1F
100
AcDbEntity
  8
LAY-10
  6
CONTINUOUS
 62
     7
100
AcDbLine
 10
441.782048178983
 20
268.7458092561969
 30
0.0
 11
441.90617622582
 21
269.9999999999899
 31
0.0
  0
LINE
  5
3B8
330
1F
100
AcDbEntity
  8
LAY-10
  6
CONTINUOUS
 62
     7
100
AcDbLine
 10
442.4010293709711
 20
274.9999999999899
 30
0.0
 11
442.4547589506557
 21
275.5428840880386
 31
0.0
  0
LINE
  5
3B9
330
1F
100
AcDbEntity
  8
LAY-10
  6
CONTINUOUS
 62
     7
100
AcDbLine
 10
441.5125632649993
 20
274.9999999999899
 30
0.0
 11
441.6311199352667
 21
275.6576914203772
 31
0.0
  0
LINE
  5
3BA
330
1F
100
AcDbEntity
  8
LAY-10
  6
CONTINUOUS
 62
     7
100
AcDbLine
 10
451.7630526090647
 20
275.9999999999898
 30
0.0
 11
442.0406507760928
 21
275.9999999999898
 31
0.0
  0
LINE
  5
3BB
330
1F
100
AcDbEntity
  8
LAY-10
  6
CONTINUOUS
 62
     7
100
AcDbLine
 10
461.0000000000009
 20
275.9999999999898
 30
0.0
 11
459.221966824328
 21
275.9999999999898
 31
0.0
  0
LINE
  5
3BC
330
1F
100
AcDbEntity
  8
LAY-10
  6
CONTINUOUS
 62
     7
100
AcDbLine
 10
459.1939326072299
 20
274.9999999999899
 30
0.0
 11
461.0000000000009
 21
274.9999999999899
 31
0.0
  0
LINE
  5
3BD
330
1F
100
AcDbEntity
  8
LAY-10
  6
CONTINUOUS
 62
     7
100
AcDbLine
 10
480.1206904229339
 20
275.9999999999898
 30
0.0
 11
468.7499999999308
 21
275.9999999999898
 31
0.0
  0
ARC
  5
3BE
330
1F
100
AcDbEntity
  8
LAY-10
  6
CONTINUOUS
 62
     7
100
AcDbCircle
 10
487.9593492239095
 20
275.583868634561
 30
0.0
 40
0.4161313654307721
100
AcDbArc
 50
10.21850495871689
 51
152.1992908104604
  0
LINE
  5
3BF
330
1F
100
AcDbEntity
  8
LAY-10
  6
CONTINUOUS
 62
     7
100
AcDbLine
 10
487.9593492239095
 20
275.9999999999898
 30
0.0
 11
487.5788680161978
 21
275.9999999999898
 31
0.0
  0
LINE
  5
3C0
330
1F
100
AcDbEntity
  8
LAY-10
  6
CONTINUOUS
 62
     7
100
AcDbLine
 10
488.4874367350031
 20
274.9999999999899
 30
0.0
 11
488.3688800647357
 21
275.6576914203772
 31
0.0
  0
LINE
  5
3C1
330
1F
100
AcDbEntity
  8
LAY-10
  6
CONTINUOUS
 62
     7
100
AcDbLine
 10
488.2179518210197
 20
268.7458092561969
 30
0.0
 11
488.0938237741825
 21
269.9999999999899
 31
0.0
  0
ARC
  5
3C2
330
1F
100
AcDbEntity
  8
LAY-10
  6
CONTINUOUS
 62
     7
100
AcDbCircle
 10
490.323386006881
 20
270.4519938540889
 30
0.0
 40
1.0
100
AcDbArc
 50
206.871679695649
 51
270.0
  0
LINE
  5
3C3
330
1F
100
AcDbEntity
  8
LAY-10
  6
CONTINUOUS
 62
     7
100
AcDbLine
 10
498.9372317018766
 20
268.6850041568921
 30
0.0
 11
499.1494126805181
 21
269.9999999999899
 31
0.0
  0
LINE
  5
3C4
330
1F
100
AcDbEntity
  8
LAY-10
  6
CONTINUOUS
 62
     7
100
AcDbLine
 10
513.6164521320355
 20
275.9999999999898
 30
0.0
 11
505.4209311547232
 21
275.9999999999898
 31
0.0
  0
LINE
  5
3C5
330
1F
100
AcDbEntity
  8
LAY-10
  6
CONTINUOUS
 62
     7
100
AcDbLine
 10
527.5275979009532
 20
275.9999999999898
 30
0.0
 11
521.4964056406386
 21
275.9999999999898
 31
0.0
  0
LINE
  5
3C6
330
1F
100
AcDbEntity
  8
LAY-10
  6
CONTINUOUS
 62
     7
100
AcDbLine
 10
539.062029749719
 20
269.9999999999899
 30
0.0
 11
539.062029749719
 21
269.7999999999935
 31
0.0
  0
LINE
  5
3C7
330
1F
100
AcDbEntity
  8
LAY-10
  6
CONTINUOUS
 62
     7
100
AcDbLine
 10
538.7059876008917
 20
275.9999999999898
 30
0.0
 11
535.1027161002263
 21
275.9999999999898
 31
0.0
  0
LINE
  5
3C8
330
1F
100
AcDbEntity
  8
LAY-10
  6
CONTINUOUS
 62
     7
100
AcDbLine
 10
573.7958706336418
 20
275.9999999999898
 30
0.0
 11
556.0334095670544
 21
275.9999999999898
 31
0.0
  0
LINE
  5
3C9
330
1F
100
AcDbEntity
  8
LAY-10
  6
CONTINUOUS
 62
     7
100
AcDbLine
 10
570.7377866017547
 20
275.0964799903516
 30
0.0
 11
570.7284345853498
 21
274.9999999999899
 31
0.0
  0
LINE
  5
3CA
330
1F
100
AcDbEntity
  8
LAY-10
  6
CONTINUOUS
 62
     7
100
AcDbLine
 10
570.2437736535887
 20
269.9999999999899
 30
0.0
 11
570.1411010161675
 21
268.9407786898641
 31
0.0
  0
LINE
  5
3CB
330
1F
100
AcDbEntity
  8
LAY-10
  6
CONTINUOUS
 62
     7
100
AcDbLine
 10
534.0433172752008
 20
308.9999999999899
 30
0.0
 11
541.0000000000011
 21
279.0404010402481
 31
0.0
  0
LINE
  5
3CC
330
1F
100
AcDbEntity
  8
LAY-10
  6
CONTINUOUS
 62
     7
100
AcDbLine
 10
537.9804436391809
 20
308.9999999999899
 30
0.0
 11
541.0000000000011
 21
295.9995423172326
 31
0.0
  0
LINE
  5
3CD
330
1F
100
AcDbEntity
  8
LAY-10
  6
CONTINUOUS
 62
     7
100
AcDbLine
 10
541.0
 20
298.2080376606998
 30
0.0
 11
538.2480387383408
 21
308.9999999999899
 31
0.0
  0
LINE
  5
3CE
330
1F
100
AcDbEntity
  8
LAY-10
  6
CONTINUOUS
 62
     7
100
AcDbLine
 10
549.0000000000014
 20
274.1065719004329
 30
0.0
 11
550.0471799690309
 21
269.9999999999899
 31
0.0
  0
LINE
  5
3CF
330
1F
100
AcDbEntity
  8
LAY-10
  6
CONTINUOUS
 62
     7
100
AcDbLine
 10
552.6510189047809
 20
269.9999999999899
 30
0.0
 11
549.0000000000014
 21
283.6919140170833
 31
0.0
  0
LINE
  5
3D0
330
1F
100
AcDbEntity
  8
LAY-10
  6
CONTINUOUS
 62
     7
100
AcDbLine
 10
549.0000000000014
 20
286.7942286340461
 30
0.0
 11
553.5000000000002
 21
269.9999999999899
 31
0.0
  0
LINE
  5
3D1
330
1F
100
AcDbEntity
  8
LAY-10
  6
CONTINUOUS
 62
     7
100
AcDbLine
 10
540.102140704591
 20
308.9999999999899
 30
0.0
 11
542.2183025758236
 21
300.7013587595099
 31
0.0
  0
LINE
  5
3D2
330
1F
100
AcDbEntity
  8
LAY-10
  6
CONTINUOUS
 62
     7
100
AcDbLine
 10
545.1309823457617
 20
298.2013587595135
 30
0.0
 11
542.2514694255309
 21
308.9999999999899
 31
0.0
  0
LINE
  5
3D3
330
1F
100
AcDbEntity
  8
LAY-10
  6
CONTINUOUS
 62
     7
100
AcDbLine
 10
542.9112807869449
 20
309.5176380901951
 30
0.0
 11
545.7500000000016
 21
298.9233937586447
 31
0.0
  0
ARC
  5
3D4
330
1F
100
AcDbEntity
  8
LAY-10
  6
CONTINUOUS
 62
     7
100
AcDbCircle
 10
357.7500000000014
 20
277.3857492993902
 30
0.0
 40
3.500000000000001
100
AcDbArc
 50
128.6821874534949
 51
178.1293582694076
  0
ARC
  5
3D5
330
1F
100
AcDbEntity
  8
LAY-10
  6
CONTINUOUS
 62
     7
100
AcDbCircle
 10
361.2500000000013
 20
277.3857492993902
 30
0.0
 40
3.500000000000001
100
AcDbArc
 50
1.870641730603566
 51
51.31781254650249
  0
LINE
  5
3D6
330
1F
100
AcDbEntity
  8
LAY-10
  6
CONTINUOUS
 62
     7
100
AcDbLine
 10
364.7481347569014
 20
277.4999999999905
 30
0.0
 11
354.2518652431013
 21
277.4999999999905
 31
0.0
  0
LINE
  5
3D7
330
1F
100
AcDbEntity
  8
LAY-10
  6
CONTINUOUS
 62
     7
100
AcDbLine
 10
360.1000000000013
 20
281.4713634880904
 30
0.0
 11
360.1000000000013
 21
278.9999999999905
 31
0.0
  0
LINE
  5
3D8
330
1F
100
AcDbEntity
  8
LAY-10
  6
CONTINUOUS
 62
     7
100
AcDbLine
 10
360.1000000000013
 20
278.9999999999905
 30
0.0
 11
358.9000000000014
 21
278.9999999999905
 31
0.0
  0
LINE
  5
3D9
330
1F
100
AcDbEntity
  8
LAY-10
  6
CONTINUOUS
 62
     7
100
AcDbLine
 10
358.9000000000014
 20
281.4713634880904
 30
0.0
 11
358.9000000000014
 21
278.9999999999905
 31
0.0
  0
ARC
  5
3DA
330
1F
100
AcDbEntity
  8
LAY-10
  6
CONTINUOUS
 62
     7
100
AcDbCircle
 10
359.5000000000012
 20
275.1999999999905
 30
0.0
 40
6.300000000000002
100
AcDbArc
 50
51.3178125464967
 51
84.53497620009915
  0
ARC
  5
3DB
330
1F
100
AcDbEntity
  8
LAY-10
  6
CONTINUOUS
 62
     7
100
AcDbCircle
 10
359.5000000000012
 20
275.1999999999905
 30
0.0
 40
6.300000000000002
100
AcDbArc
 50
95.46502379991026
 51
128.6821874534941
  0
LINE
  5
3DC
330
1F
100
AcDbEntity
  8
LAY-10
  6
CONTINUOUS
 62
     7
100
AcDbLine
 10
357.0000000000014
 20
265.4999999999925
 30
0.0
 11
356.5000000000012
 21
265.9999999999926
 31
0.0
  0
LINE
  5
3DD
330
1F
100
AcDbEntity
  8
LAY-10
  6
CONTINUOUS
 62
     7
100
AcDbLine
 10
362.0000000000013
 20
265.4999999999925
 30
0.0
 11
362.5000000000012
 21
265.9999999999926
 31
0.0
  0
LINE
  5
3DE
330
1F
100
AcDbEntity
  8
LAY-10
  6
CONTINUOUS
 62
     7
100
AcDbLine
 10
356.5000000000012
 20
277.4999999999905
 30
0.0
 11
356.5000000000012
 21
265.9999999999926
 31
0.0
  0
LINE
  5
3DF
330
1F
100
AcDbEntity
  8
LAY-10
  6
CONTINUOUS
 62
     7
100
AcDbLine
 10
357.0000000000014
 20
265.4999999999925
 30
0.0
 11
362.0000000000013
 21
265.4999999999925
 31
0.0
  0
LINE
  5
3E0
330
1F
100
AcDbEntity
  8
LAY-10
  6
CONTINUOUS
 62
     7
100
AcDbLine
 10
362.5000000000012
 20
277.4999999999905
 30
0.0
 11
362.5000000000012
 21
265.9999999999926
 31
0.0
  0
LINE
  5
3E1
330
1F
100
AcDbEntity
  8
LAY-10
  6
CONTINUOUS
 62
     7
100
AcDbLine
 10
362.5000000000012
 20
265.9999999999926
 30
0.0
 11
356.5000000000012
 21
265.9999999999926
 31
0.0
  0
LINE
  5
3E2
330
1F
100
AcDbEntity
  8
LAY-10
  6
CONTINUOUS
 62
     7
100
AcDbLine
 10
356.5000000000012
 20
271.7100392807399
 30
0.0
 11
355.9316553794883
 21
275.162436800463
 31
0.0
  0
LINE
  5
3E3
330
1F
100
AcDbEntity
  8
LAY-10
  6
CONTINUOUS
 62
     7
100
AcDbLine
 10
356.5000000000012
 20
275.9999999999898
 30
0.0
 11
356.2041293663606
 21
275.9999999999898
 31
0.0
  0
LINE
  5
3E4
330
1F
100
AcDbEntity
  8
LAY-10
  6
CONTINUOUS
 62
     7
100
AcDbLine
 10
361.200000000001
 20
269.9999999999899
 30
0.0
 11
461.0000000000009
 21
269.9999999999899
 31
0.0
  0
LINE
  5
3E5
330
1F
100
AcDbEntity
  8
LAY-10
  6
CONTINUOUS
 62
     7
100
AcDbLine
 10
357.0000000000024
 20
265.49999999999
 30
0.0
 11
357.0000000000024
 21
263.0333209967835
 31
0.0
  0
LINE
  5
3E6
330
1F
100
AcDbEntity
  8
LAY-10
  6
CONTINUOUS
 62
     7
100
AcDbLine
 10
362.0000000000026
 20
265.49999999999
 30
0.0
 11
362.0000000000026
 21
261.6935750346281
 31
0.0
  0
LINE
  5
3E7
330
1F
100
AcDbEntity
  8
LAY-10
  6
CONTINUOUS
 62
     7
100
AcDbLine
 10
347.5000000000074
 20
258.0000000000057
 30
0.0
 11
347.5000000000074
 21
259.0000000000039
 31
0.0
  0
LINE
  5
3E8
330
1F
100
AcDbEntity
  8
LAY-10
  6
CONTINUOUS
 62
     7
100
AcDbLine
 10
352.5000000000068
 20
258.0000000000057
 30
0.0
 11
352.5000000000068
 21
259.0000000000051
 31
0.0
  0
LINE
  5
3E9
330
1F
100
AcDbEntity
  8
LAY-10
  6
CONTINUOUS
 62
     7
100
AcDbLine
 10
352.5000000000068
 20
259.0000000000051
 30
0.0
 11
347.5000000000074
 21
259.0000000000051
 31
0.0
  0
LINE
  5
3EA
330
1F
100
AcDbEntity
  8
LAY-10
  6
CONTINUOUS
 62
     7
100
AcDbLine
 10
353.0000000000099
 20
257.5000000000051
 30
0.0
 11
347.0000000000099
 21
257.5000000000051
 31
0.0
  0
LINE
  5
3EB
330
1F
100
AcDbEntity
  8
LAY-10
  6
CONTINUOUS
 62
     7
100
AcDbLine
 10
352.5000000000099
 20
258.0000000000057
 30
0.0
 11
347.5000000000099
 21
258.0000000000057
 31
0.0
  0
LINE
  5
3EC
330
1F
100
AcDbEntity
  8
LAY-10
  6
CONTINUOUS
 62
     7
100
AcDbLine
 10
350.0000000000097
 20
260.4433756729807
 30
0.0
 11
347.5000000000088
 21
259.0000000000061
 31
0.0
  0
LINE
  5
3ED
330
1F
100
AcDbEntity
  8
LAY-10
  6
CONTINUOUS
 62
     7
100
AcDbLine
 10
350.0000000000102
 20
260.4433756729805
 30
0.0
 11
352.5000000000106
 21
259.0000000000061
 31
0.0
  0
LINE
  5
3EE
330
1F
100
AcDbEntity
  8
LAY-10
  6
CONTINUOUS
 62
     7
100
AcDbLine
 10
335.5000000000104
 20
228.0000000000144
 30
0.0
 11
335.5000000000104
 21
233.0000000000143
 31
0.0
  0
LINE
  5
3EF
330
1F
100
AcDbEntity
  8
LAY-10
  6
CONTINUOUS
 62
     7
100
AcDbLine
 10
345.5000000000109
 20
233.0000000000143
 30
0.0
 11
335.5000000000104
 21
233.0000000000143
 31
0.0
  0
ARC
  5
3F0
330
1F
100
AcDbEntity
  8
LAY-10
  6
CONTINUOUS
 62
     7
100
AcDbCircle
 10
345.5000000000109
 20
235.0000000000143
 30
0.0
 40
2.0
100
AcDbArc
 50
270.0000000000002
 51
0.0
  0
LINE
  5
3F1
330
1F
100
AcDbEntity
  8
LAY-10
  6
CONTINUOUS
 62
     7
100
AcDbLine
 10
345.5000000000109
 20
228.0000000000144
 30
0.0
 11
335.5000000000104
 21
228.0000000000144
 31
0.0
  0
ARC
  5
3F2
330
1F
100
AcDbEntity
  8
LAY-10
  6
CONTINUOUS
 62
     7
100
AcDbCircle
 10
345.5000000000109
 20
235.0000000000143
 30
0.0
 40
7.000000000000004
100
AcDbArc
 50
270.0000000000002
 51
0.0
  0
LINE
  5
3F3
330
1F
100
AcDbEntity
  8
LAY-10
  6
CONTINUOUS
 62
     7
100
AcDbLine
 10
347.5000000000099
 20
235.0000000000099
 30
0.0
 11
347.5000000000099
 21
250.0000000000096
 31
0.0
  0
LINE
  5
3F4
330
1F
100
AcDbEntity
  8
LAY-10
  6
CONTINUOUS
 62
     7
100
AcDbLine
 10
352.5000000000099
 20
235.0000000000099
 30
0.0
 11
352.5000000000099
 21
250.0000000000096
 31
0.0
  0
LINE
  5
3F5
330
1F
100
AcDbEntity
  8
LAY-10
  6
CONTINUOUS
 62
     7
100
AcDbLine
 10
352.5000000000068
 20
256.0000000000145
 30
0.0
 11
347.5000000000074
 21
256.0000000000145
 31
0.0
  0
LINE
  5
3F6
330
1F
100
AcDbEntity
  8
LAY-10
  6
CONTINUOUS
 62
     7
100
AcDbLine
 10
353.0000000000081
 20
255.500000000016
 30
0.0
 11
347.000000000009
 21
255.500000000016
 31
0.0
  0
LINE
  5
3F7
330
1F
100
AcDbEntity
  8
LAY-10
  6
CONTINUOUS
 62
     7
100
AcDbLine
 10
347.5000000000074
 20
258.0000000000057
 30
0.0
 11
347.5000000000074
 21
256.0000000000145
 31
0.0
  0
LINE
  5
3F8
330
1F
100
AcDbEntity
  8
LAY-10
  6
CONTINUOUS
 62
     7
100
AcDbLine
 10
352.5000000000068
 20
258.0000000000057
 30
0.0
 11
352.5000000000068
 21
256.0000000000145
 31
0.0
  0
LINE
  5
3F9
330
1F
100
AcDbEntity
  8
LAY-10
  6
CONTINUOUS
 62
     7
100
AcDbLine
 10
347.0000000000099
 20
255.5000000000199
 30
0.0
 11
347.5000000000099
 21
256.0000000000099
 31
0.0
  0
LINE
  5
3FA
330
1F
100
AcDbEntity
  8
LAY-10
  6
CONTINUOUS
 62
     7
100
AcDbLine
 10
352.5000000000099
 20
256.0000000000099
 30
0.0
 11
353.0000000000099
 21
255.5000000000199
 31
0.0
  0
LINE
  5
3FB
330
1F
100
AcDbEntity
  8
LAY-10
  6
CONTINUOUS
 62
     7
100
AcDbLine
 10
353.0000000000099
 20
255.5000000000199
 30
0.0
 11
353.0000000000099
 21
250.0000000000099
 31
0.0
  0
LINE
  5
3FC
330
1F
100
AcDbEntity
  8
LAY-10
  6
CONTINUOUS
 62
     7
100
AcDbLine
 10
347.0000000000099
 20
255.5000000000199
 30
0.0
 11
347.0000000000099
 21
250.0000000000099
 31
0.0
  0
LINE
  5
3FD
330
1F
100
AcDbEntity
  8
LAY-10
  6
CONTINUOUS
 62
     7
100
AcDbLine
 10
383.09999999999
 20
201.999999999999
 30
0.0
 11
384.13173816209
 21
202.9999999999989
 31
0.0
  0
LINE
  5
3FE
330
1F
100
AcDbEntity
  8
LAY-10
  6
CONTINUOUS
 62
     7
100
AcDbLine
 10
384.1317381620896
 20
202.9999999999989
 30
0.0
 11
384.8817381620893
 21
226.9999999999963
 31
0.0
  0
LINE
  5
3FF
330
1F
100
AcDbEntity
  8
LAY-10
  6
CONTINUOUS
 62
     7
100
AcDbLine
 10
546.900000000012
 20
201.999999999999
 30
0.0
 11
545.868261837912
 21
202.9999999999989
 31
0.0
  0
LINE
  5
400
330
1F
100
AcDbEntity
  8
LAY-10
  6
CONTINUOUS
 62
     7
100
AcDbLine
 10
545.8682618379124
 20
202.9999999999989
 30
0.0
 11
545.1182618379128
 21
226.9999999999962
 31
0.0
  0
LINE
  5
401
330
1F
100
AcDbEntity
  8
LAY-10
  6
CONTINUOUS
 62
     7
100
AcDbLine
 10
384.1317381620894
 20
202.9999999999948
 30
0.0
 11
545.8682618379125
 21
202.9999999999948
 31
0.0
  0
ARC
  5
402
330
1F
100
AcDbEntity
  8
LAY-10
  6
CONTINUOUS
 62
     7
100
AcDbCircle
 10
571.3400319701569
 20
271.9999999999899
 30
0.0
 40
2.0
100
AcDbArc
 50
270.0000000000001
 51
357.0000000000025
  0
LINE
  5
403
330
1F
100
AcDbEntity
  8
LAY-10
  6
CONTINUOUS
 62
     7
100
AcDbLine
 10
573.3372910396661
 20
271.8953280875041
 30
0.0
 11
573.5000000000017
 21
274.9999999999899
 31
0.0
  0
LINE
  5
404
330
1F
100
AcDbEntity
  8
LAY-10
  6
CONTINUOUS
 62
     7
100
AcDbLine
 10
573.5
 20
274.9999999999899
 30
0.0
 11
556.3013587594855
 21
274.9999999999899
 31
0.0
  0
LINE
  5
405
330
1F
100
AcDbEntity
  8
LAY-10
  6
CONTINUOUS
 62
     7
100
AcDbLine
 10
465.000000000001
 20
269.9999999999899
 30
0.0
 11
571.3400319701569
 21
269.9999999999899
 31
0.0
  0
LINE
  5
406
330
1F
100
AcDbEntity
  8
LAY-10
  6
CENTER
 62
     2
100
AcDbLine
 10
570.4999999999914
 20
561.1857864591719
 30
0.0
 11
570.4999999999914
 21
548.8142135408074
 31
0.0
  0
LINE
  5
407
330
1F
100
AcDbEntity
  8
LAY-10
  6
CENTER
 62
     2
100
AcDbLine
 10
359.4999999999916
 20
561.1857864591719
 30
0.0
 11
359.4999999999916
 21
548.8142135408074
 31
0.0
  0
LINE
  5
408
330
1F
100
AcDbEntity
  8
LAY-10
  6
CENTER
 62
     2
100
AcDbLine
 10
465.000000000001
 20
702.5000000000001
 30
0.0
 11
465.000000000001
 21
408.8000000000001
 31
0.0
  0
LINE
  5
409
330
1F
100
AcDbEntity
  8
LAY-10
  6
CENTER
 62
     2
100
AcDbLine
 10
318.6999999999912
 20
554.9999999999862
 30
0.0
 11
612.099999999991
 21
554.9999999999862
 31
0.0
  0
LINE
  5
40A
330
1F
100
AcDbEntity
  8
LAY-10
  6
CENTER
 62
     2
100
AcDbLine
 10
545.0000000000002
 20
302.6206694752199
 30
0.0
 11
545.0000000000002
 21
246.601358759497
 31
0.0
  0
LINE
  5
40B
330
1F
100
AcDbEntity
  8
LAY-10
  6
CENTER
 62
     2
100
AcDbLine
 10
465.000000000001
 20
320.3028115119
 30
0.0
 11
465.000000000001
 21
184.7028115119
 31
0.0
  0
LINE
  5
40C
330
1F
100
AcDbEntity
  8
LAY-10
  6
CENTER
 62
     2
100
AcDbLine
 10
359.5000000000028
 20
260.50281151191
 30
0.0
 11
359.5000000000028
 21
283.1028115119
 31
0.0
  0
LINE
  5
40D
330
1F
100
AcDbEntity
  8
LAY-10
  6
CENTER
 62
     2
100
AcDbLine
 10
334.300000000011
 20
230.5000000000155
 30
0.0
 11
345.5000000000099
 21
230.5000000000155
 31
0.0
  0
ARC
  5
40E
330
1F
100
AcDbEntity
  8
LAY-10
  6
CENTER
 62
     2
100
AcDbCircle
 10
345.5000000000099
 20
235.0000000000155
 30
0.0
 40
4.5
100
AcDbArc
 50
270.0000000000002
 51
0.0
  0
LINE
  5
40F
330
1F
100
AcDbEntity
  8
LAY-10
  6
CENTER
 62
     2
100
AcDbLine
 10
350.0000000000097
 20
261.2013587594998
 30
0.0
 11
350.0000000000097
 21
235.0000000000155
 31
0.0
  0
LINE
  5
410
330
1F
100
AcDbEntity
  8
LAY-10
  6
CONTINUOUS
 62
     7
100
AcDbLine
 10
541.5
 20
250.5013587594897
 30
0.0
 11
541.5
 21
262.99999999999
 31
0.0
  0
LINE
  5
411
330
1F
100
AcDbEntity
  8
LAY-10
  6
CONTINUOUS
 62
     7
100
AcDbLine
 10
548.5000000000005
 20
250.5013587594897
 30
0.0
 11
548.5000000000005
 21
262.99999999999
 31
0.0
  0
LINE
  5
412
330
1F
100
AcDbEntity
  8
LAY-10
  6
CONTINUOUS
 62
     7
100
AcDbLine
 10
541.5000000000014
 20
269.7999999999935
 30
0.0
 11
541.5000000000014
 21
300.7013587595099
 31
0.0
  0
LINE
  5
413
330
1F
100
AcDbEntity
  8
LAY-10
  6
CONTINUOUS
 62
     7
100
AcDbLine
 10
548.5000000000011
 20
269.7999999999935
 30
0.0
 11
548.5000000000011
 21
300.7013587595099
 31
0.0
  0
LINE
  5
414
330
1F
100
AcDbEntity
  8
LAY-10
  6
CONTINUOUS
 62
     7
100
AcDbLine
 10
461.5000000000008
 20
269.7999999999889
 30
0.0
 11
461.5000000000008
 21
300.7013587595063
 31
0.0
  0
LINE
  5
415
330
1F
100
AcDbEntity
  8
LAY-10
  6
CONTINUOUS
 62
     7
100
AcDbLine
 10
357.0000000000014
 20
277.4999999999905
 30
0.0
 11
357.0000000000014
 21
265.4999999999925
 31
0.0
  0
LINE
  5
416
330
1F
100
AcDbEntity
  8
LAY-10
  6
CONTINUOUS
 62
     7
100
AcDbLine
 10
362.0000000000013
 20
277.4999999999905
 30
0.0
 11
362.0000000000013
 21
265.4999999999925
 31
0.0
  0
LINE
  5
417
330
1F
100
AcDbEntity
  8
LAY-10
  6
CONTINUOUS
 62
     7
100
AcDbLine
 10
356.5000000000028
 20
265.9999999999926
 30
0.0
 11
356.5000000000028
 21
263.1672955929996
 31
0.0
  0
LINE
  5
418
330
1F
100
AcDbEntity
  8
LAY-10
  6
CONTINUOUS
 62
     7
100
AcDbLine
 10
362.5000000000028
 20
265.9999999999926
 30
0.0
 11
362.5000000000028
 21
261.5596004384126
 31
0.0
  0
LINE
  5
419
330
1F
100
AcDbEntity
  8
LAY-10
  6
CONTINUOUS
 62
     7
100
AcDbLine
 10
347.000000000009
 20
257.5000000000051
 30
0.0
 11
347.5000000000074
 21
258.0000000000057
 31
0.0
  0
LINE
  5
41A
330
1F
100
AcDbEntity
  8
LAY-10
  6
CONTINUOUS
 62
     7
100
AcDbLine
 10
353.0000000000081
 20
257.5000000000051
 30
0.0
 11
352.5000000000068
 21
258.0000000000057
 31
0.0
  0
LINE
  5
41B
330
1F
100
AcDbEntity
  8
LAY-10
  6
CONTINUOUS
 62
     7
100
AcDbLine
 10
347.000000000009
 20
257.5000000000051
 30
0.0
 11
347.000000000009
 21
255.500000000016
 31
0.0
  0
LINE
  5
41C
330
1F
100
AcDbEntity
  8
LAY-10
  6
CONTINUOUS
 62
     7
100
AcDbLine
 10
353.0000000000081
 20
257.5000000000051
 30
0.0
 11
353.0000000000081
 21
255.500000000016
 31
0.0
  0
LINE
  5
41D
330
1F
100
AcDbEntity
  8
LAY-10
  6
CONTINUOUS
 62
     7
100
AcDbLine
 10
347.5000000000099
 20
256.0000000000099
 30
0.0
 11
347.5000000000099
 21
250.0000000000099
 31
0.0
  0
LINE
  5
41E
330
1F
100
AcDbEntity
  8
LAY-10
  6
CONTINUOUS
 62
     7
100
AcDbLine
 10
352.5000000000099
 20
256.0000000000099
 30
0.0
 11
352.5000000000099
 21
250.0000000000099
 31
0.0
  0
LINE
  5
41F
330
1F
100
AcDbEntity
  8
LAY-10
  6
CONTINUOUS
 62
     7
100
AcDbLine
 10
352.5000000000281
 20
249.133974596215
 30
0.0
 11
353.0000000000281
 21
249.9999999999995
 31
0.0
  0
LINE
  5
420
330
1F
100
AcDbEntity
  8
LAY-10
  6
CONTINUOUS
 62
     7
100
AcDbLine
 10
347.4999999999979
 20
249.1339745962185
 30
0.0
 11
346.9999999999979
 21
250.000000000003
 31
0.0
  0
LINE
  5
421
330
1F
100
AcDbEntity
  8
LAY-10
  6
CONTINUOUS
 62
     7
100
AcDbLine
 10
383.8812499999898
 20
226.9999999999963
 30
0.0
 11
383.09999999999
 21
201.999999999999
 31
0.0
  0
LINE
  5
422
330
1F
100
AcDbEntity
  8
LAY-10
  6
CONTINUOUS
 62
     7
100
AcDbLine
 10
546.1187500000121
 20
226.9999999999962
 30
0.0
 11
546.900000000012
 21
201.999999999999
 31
0.0
  0
DIMENSION
  5
424
330
1F
100
AcDbEntity
  8
LAY-20
  6
CONTINUOUS
 62
     4
100
AcDbDimension
  2
*D15
 10
546.9000000000011
 20
159.9999999999999
 30
0.0
 11
465.000000000001
 21
167.4999999999999
 31
0.0
 70
   160
  1
Rｃ6（<>）
  3
ISO-25
100
AcDbAlignedDimension
 13
383.100000000001
 23
202.0
 33
0.0
 14
546.9000000000011
 24
202.0
 34
0.0
100
AcDbRotatedDimension
1001
ACAD
1000
DSTYLE
1002
{
1070
   270
1070
     2
1070
     6
1000
EX_BNORM
1070
     7
1000
EX_BNORM
1070
    41
1040
7.5
1070
    42
1040
4.5
1070
    44
1040
4.5
1070
    73
1070
     0
1070
    74
1070
     0
1070
    75
1070
     0
1070
    76
1070
     0
1070
    77
1070
     1
1070
    78
1070
     8
1070
   140
1040
9.3543312
1070
   147
1040
0.0
1070
   173
1070
     1
1070
   176
1070
     4
1070
   177
1070
     4
1070
   178
1070
     7
1070
   271
1070
     1
1070
   277
1070
     2
1070
   279
1070
     2
1070
   280
1070
     0
1070
   287
1070
     5
1070
   340
1005
423
1002
}
  0
DIMENSION
  5
432
330
1F
100
AcDbEntity
  8
LAY-20
  6
CONTINUOUS
 62
     4
100
AcDbDimension
  2
*D16
 10
295.000000000011
 20
270.0
 30
0.0
 11
287.500000000011
 21
257.44677478046
 31
0.0
 70
   160
  3
ISO-25
100
AcDbAlignedDimension
 13
357.000000000001
 23
244.89354956092
 33
0.0
 14
326.000000000001
 24
270.0
 34
0.0
 50
90.0
100
AcDbRotatedDimension
1001
ACAD
1000
DSTYLE
1002
{
1070
   270
1070
     2
1070
     6
1000
EX_BNORM
1070
     7
1000
EX_BNORM
1070
    41
1040
7.5
1070
    42
1040
4.5
1070
    44
1040
4.5
1070
    73
1070
     0
1070
    74
1070
     0
1070
    75
1070
     0
1070
    76
1070
     0
1070
    77
1070
     1
1070
    78
1070
     0
1070
   140
1040
9.3543312
1070
   147
1040
0.0
1070
   173
1070
     1
1070
   176
1070
     4
1070
   177
1070
     4
1070
   178
1070
     7
1070
   271
1070
     0
1070
   277
1070
     2
1070
   279
1070
     2
1070
   280
1070
     0
1070
   287
1070
     5
1070
   340
1005
423
1002
}
  0
DIMENSION
  5
43F
330
1F
100
AcDbEntity
  8
LAY-20
  6
CONTINUOUS
 62
     4
100
AcDbDimension
  2
*D17
 10
335.000000000001
 20
366.0000000000001
 30
0.0
 11
465.0000000000015
 21
373.5
 31
0.0
 70
   160
  1
%%c<>
  3
ISO-25
100
AcDbAlignedDimension
 13
595.000000000002
 23
272.99999999999
 33
0.0
 14
335.000000000001
 24
272.99999999999
 34
0.0
100
AcDbRotatedDimension
1001
ACAD
1000
DSTYLE
1002
{
1070
   270
1070
     2
1070
     6
1000
EX_BNORM
1070
     7
1000
EX_BNORM
1070
    41
1040
7.5
1070
    42
1040
4.5
1070
    44
1040
4.500000000000171
1070
    73
1070
     0
1070
    74
1070
     0
1070
    75
1070
     0
1070
    76
1070
     0
1070
    77
1070
     1
1070
    78
1070
     8
1070
   140
1040
9.3543312
1070
   147
1040
0.0
1070
   173
1070
     1
1070
   176
1070
     4
1070
   177
1070
     4
1070
   178
1070
     7
1070
   271
1070
     1
1070
   277
1070
     2
1070
   279
1070
     2
1070
   280
1070
     0
1070
   287
1070
     5
1070
   340
1005
423
1002
}
  0
DIMENSION
  5
44C
330
1F
100
AcDbEntity
  8
LAY-20
  6
CONTINUOUS
 62
     4
100
AcDbDimension
  2
*D18
 10
605.000000000001
 20
387.0
 30
0.0
 11
465.000000000006
 21
394.5
 31
0.0
 70
   160
  1
%%c<>
  3
ISO-25
100
AcDbAlignedDimension
 13
325.000000000011
 23
263.00000000007
 33
0.0
 14
605.000000000001
 24
263.0000000000001
 34
0.0
100
AcDbRotatedDimension
1001
ACAD
1000
DSTYLE
1002
{
1070
   270
1070
     2
1070
     6
1000
EX_BNORM
1070
     7
1000
EX_BNORM
1070
    41
1040
7.5
1070
    42
1040
4.5
1070
    44
1040
4.5
1070
    73
1070
     0
1070
    74
1070
     0
1070
    75
1070
     0
1070
    76
1070
     0
1070
    77
1070
     1
1070
    78
1070
     8
1070
   140
1040
9.3543312
1070
   147
1040
0.0
1070
   173
1070
     1
1070
   176
1070
     4
1070
   177
1070
     4
1070
   178
1070
     7
1070
   271
1070
     1
1070
   277
1070
     2
1070
   279
1070
     2
1070
   280
1070
     0
1070
   287
1070
     5
1070
   340
1005
423
1002
}
  0
DIMENSION
  5
459
330
1F
100
AcDbEntity
  8
LAY-20
  6
CONTINUOUS
 62
     4
100
AcDbDimension
  2
*D19
 10
635.0
 20
270.0
 30
0.0
 11
627.5
 21
230.0
 31
0.0
 70
   160
  3
ISO-25
100
AcDbAlignedDimension
 13
573.0
 23
190.0
 33
0.0
 14
604.0
 24
270.0
 34
0.0
 50
90.0
100
AcDbRotatedDimension
1001
ACAD
1000
DSTYLE
1002
{
1070
   270
1070
     2
1070
     6
1000
EX_BNORM
1070
     7
1000
EX_BNORM
1070
    41
1040
7.5
1070
    42
1040
4.5
1070
    44
1040
4.5
1070
    73
1070
     0
1070
    74
1070
     0
1070
    75
1070
     0
1070
    76
1070
     0
1070
    77
1070
     1
1070
    78
1070
     8
1070
   140
1040
9.3543312
1070
   147
1040
0.0
1070
   173
1070
     1
1070
   176
1070
     4
1070
   177
1070
     4
1070
   178
1070
     7
1070
   271
1070
     1
1070
   277
1070
     2
1070
   279
1070
     2
1070
   280
1070
     0
1070
   287
1070
     5
1070
   340
1005
423
1002
}
  0
DIMENSION
  5
466
330
1F
100
AcDbEntity
  8
LAY-20
  6
CONTINUOUS
 62
     4
100
AcDbDimension
  2
*D20
 10
635.0
 20
270.0
 30
0.0
 11
627.5
 21
292.499999999995
 31
0.0
 70
   160
  3
ISO-25
100
AcDbAlignedDimension
 13
540.97942913437
 23
314.99999999999
 33
0.0
 14
635.0
 24
270.0
 34
0.0
 50
90.0
100
AcDbRotatedDimension
1001
ACAD
1000
DSTYLE
1002
{
1070
   270
1070
     2
1070
     6
1000
EX_BNORM
1070
     7
1000
EX_BNORM
1070
    41
1040
7.5
1070
    42
1040
4.5
1070
    44
1040
4.5
1070
    73
1070
     0
1070
    74
1070
     0
1070
    75
1070
     0
1070
    76
1070
     1
1070
    77
1070
     1
1070
    78
1070
     8
1070
   140
1040
9.3543312
1070
   147
1040
0.0
1070
   173
1070
     1
1070
   176
1070
     4
1070
   177
1070
     4
1070
   178
1070
     7
1070
   271
1070
     1
1070
   277
1070
     2
1070
   279
1070
     2
1070
   280
1070
     0
1070
   287
1070
     5
1070
   340
1005
423
1002
}
  0
DIMENSION
  5
472
330
1F
100
AcDbEntity
  8
LAY-20
  6
CONTINUOUS
 62
     4
100
AcDbDimension
  2
*D21
 10
573.5
 20
345.0
 30
0.0
 11
465.0
 21
352.5
 31
0.0
 70
   160
  1
%%c<>
  3
ISO-25
100
AcDbAlignedDimension
 13
356.5
 23
274.99999999999
 33
0.0
 14
573.5
 24
274.99999999999
 34
0.0
100
AcDbRotatedDimension
1001
ACAD
1000
DSTYLE
1002
{
1070
   270
1070
     2
1070
     6
1000
EX_BNORM
1070
     7
1000
EX_BNORM
1070
    41
1040
7.5
1070
    42
1040
4.5
1070
    44
1040
4.5
1070
    73
1070
     0
1070
    74
1070
     0
1070
    75
1070
     0
1070
    76
1070
     0
1070
    77
1070
     1
1070
    78
1070
     8
1070
   140
1040
9.3543312
1070
   147
1040
0.0
1070
   173
1070
     1
1070
   176
1070
     4
1070
   177
1070
     4
1070
   178
1070
     7
1070
   271
1070
     1
1070
   277
1070
     2
1070
   279
1070
     2
1070
   280
1070
     0
1070
   287
1070
     5
1070
   340
1005
423
1002
}
  0
LINE
  5
47F
330
1F
100
AcDbEntity
  8
LAY-255
  6
CONTINUOUS
 62
     7
100
AcDbLine
 10
1155.0
 20
66.0
 30
0.0
 11
855.0
 21
66.0
 31
0.0
  0
LINE
  5
480
330
1F
100
AcDbEntity
  8
LAY-255
  6
CONTINUOUS
 62
     7
100
AcDbLine
 10
866.4000000000001
 20
48.0
 30
0.0
 11
890.4000000000001
 21
63.0
 31
0.0
  0
LINE
  5
481
330
1F
100
AcDbEntity
  8
LAY-255
  6
CONTINUOUS
 62
     7
100
AcDbLine
 10
890.4000000000001
 20
63.0
 30
0.0
 11
914.4000000000001
 21
48.0
 31
0.0
  0
LINE
  5
482
330
1F
100
AcDbEntity
  8
LAY-255
  6
CONTINUOUS
 62
     7
100
AcDbLine
 10
914.4000000000001
 20
48.0
 30
0.0
 11
890.4000000000001
 21
33.0
 31
0.0
  0
LINE
  5
483
330
1F
100
AcDbEntity
  8
LAY-255
  6
CONTINUOUS
 62
     7
100
AcDbLine
 10
890.4000000000001
 20
33.0
 30
0.0
 11
866.4000000000001
 21
48.0
 31
0.0
  0
LINE
  5
484
330
1F
100
AcDbEntity
  8
LAY-255
  6
CONTINUOUS
 62
     7
100
AcDbLine
 10
15.0
 20
30.0
 30
0.0
 11
1155.0
 21
30.0
 31
0.0
  0
LINE
  5
485
330
1F
100
AcDbEntity
  8
LAY-255
  6
CONTINUOUS
 62
     7
100
AcDbLine
 10
15.0
 20
840.0
 30
0.0
 11
1155.0
 21
840.0
 31
0.0
  0
LINE
  5
486
330
1F
100
AcDbEntity
  8
LAY-255
  6
CONTINUOUS
 62
     7
100
AcDbLine
 10
15.0
 20
30.0
 30
0.0
 11
15.0
 21
840.0
 31
0.0
  0
LINE
  5
487
330
1F
100
AcDbEntity
  8
LAY-255
  6
CONTINUOUS
 62
     7
100
AcDbLine
 10
1155.0
 20
30.0
 30
0.0
 11
1155.0
 21
840.0
 31
0.0
  0
LINE
  5
488
330
1F
100
AcDbEntity
  8
LAY-255
  6
CONTINUOUS
 62
     4
100
AcDbLine
 10
855.0
 20
84.0
 30
0.0
 11
1155.0
 21
84.0
 31
0.0
  0
LINE
  5
489
330
1F
100
AcDbEntity
  8
LAY-255
  6
CONTINUOUS
 62
     7
100
AcDbLine
 10
855.0
 20
30.0
 30
0.0
 11
855.0
 21
201.0
 31
0.0
  0
LINE
  5
48A
330
1F
100
AcDbEntity
  8
LAY-255
  6
CONTINUOUS
 62
     4
100
AcDbLine
 10
1005.0
 20
84.0
 30
0.0
 11
1005.0
 21
66.0
 31
0.0
  0
LINE
  5
48B
330
1F
100
AcDbEntity
  8
LAY-255
  6
CONTINUOUS
 62
     7
100
AcDbLine
 10
1155.0
 20
201.0
 30
0.0
 11
855.0
 21
201.0
 31
0.0
  0
LINE
  5
48C
330
1F
100
AcDbEntity
  8
LAY-255
  6
CONTINUOUS
 62
     4
100
AcDbLine
 10
1149.0
 20
165.0
 30
0.0
 11
861.0
 21
165.0
 31
0.0
  0
LINE
  5
48D
330
1F
100
AcDbEntity
  8
LAY-255
  6
CONTINUOUS
 62
     4
100
AcDbLine
 10
1149.0
 20
183.0
 30
0.0
 11
861.0
 21
183.0
 31
0.0
  0
POINT
  5
48E
330
1F
100
AcDbEntity
  8
LAY-255
  6
CONTINUOUS
 62
     7
100
AcDbPoint
 10
867.0
 20
150.0
 30
0.0
  0
POINT
  5
48F
330
1F
100
AcDbEntity
  8
LAY-255
  6
CONTINUOUS
 62
     7
100
AcDbPoint
 10
900.0
 20
168.0
 30
0.0
  0
POINT
  5
490
330
1F
100
AcDbEntity
  8
LAY-255
  6
CONTINUOUS
 62
     7
100
AcDbPoint
 10
900.0
 20
186.0
 30
0.0
  0
POINT
  5
491
330
1F
100
AcDbEntity
  8
LAY-255
  6
CONTINUOUS
 62
     7
100
AcDbPoint
 10
867.0
 20
120.0
 30
0.0
  0
POINT
  5
492
330
1F
100
AcDbEntity
  8
LAY-255
  6
CONTINUOUS
 62
     7
100
AcDbPoint
 10
867.0
 20
135.0
 30
0.0
  0
POINT
  5
493
330
1F
100
AcDbEntity
  8
LAY-255
  6
CONTINUOUS
 62
     7
100
AcDbPoint
 10
867.0
 20
105.0
 30
0.0
  0
POINT
  5
494
330
1F
100
AcDbEntity
  8
LAY-255
  6
CONTINUOUS
 62
     7
100
AcDbPoint
 10
867.0
 20
89.99999999999996
 30
0.0
  0
TEXT
  5
495
330
1F
100
AcDbEntity
  8
LAY-255
  6
CONTINUOUS
 62
     7
100
AcDbText
 10
924.415136826172
 20
46.63125
 30
0.0
 40
15.46875
  1
福西鋳物株式会社
 41
1.342692141742901
  7
EXCADSTD
100
AcDbText
  0
TEXT
  5
496
330
1F
100
AcDbEntity
  8
LAY-255
  6
CONTINUOUS
 62
     7
100
AcDbText
 10
925.528125
 20
35.94375
 30
0.0
 40
5.15625
  1
ＦＵＫＵＮＩＳＨＩ
 41
1.204799226045263
  7
EXCADSTD
100
AcDbText
  0
TEXT
  5
497
330
1F
100
AcDbEntity
  8
LAY-255
  6
CONTINUOUS
 62
     7
100
AcDbText
 10
998.1575892857143
 20
35.94375
 30
0.0
 40
5.15625
  1
ＦＯＵＮＤＲＹ
 41
1.243252752978497
  7
EXCADSTD
100
AcDbText
  0
TEXT
  5
498
330
1F
100
AcDbEntity
  8
LAY-255
  6
CONTINUOUS
 62
     7
100
AcDbText
 10
1055.983774651442
 20
35.94375
 30
0.0
 40
5.15625
  1
ＣＯ.,ＬＴＤ.
 41
1.243831271314936
  7
EXCADSTD
100
AcDbText
  0
TEXT
  5
499
330
1F
100
AcDbEntity
  8
LAY-255
  6
CONTINUOUS
 62
     7
100
AcDbText
 10
882.1031250000001
 20
41.15625
 30
0.0
 40
15.46875
  1
S
 41
0.7582677563636363
  7
EXCADSTD
100
AcDbText
  0
TEXT
  5
49A
330
1F
100
AcDbEntity
  8
LAY-255
  6
CONTINUOUS
 62
     7
100
AcDbText
 10
891.3140625000001
 20
41.24823113208
 30
0.0
 40
15.46875
  1
F
 41
0.7440945272727273
  7
EXCADSTD
100
AcDbText
  0
TEXT
  5
49B
330
1F
100
AcDbEntity
  8
LAY-255
  6
CONTINUOUS
 62
     7
100
AcDbText
 10
1011.31640625
 20
73.26562499999997
 30
0.0
 40
7.734375
  1
縮尺
 41
1.080708718181818
  7
EXCADSTD
100
AcDbText
  0
TEXT
  5
49C
330
1F
100
AcDbEntity
  8
LAY-255
  6
CONTINUOUS
 62
     7
100
AcDbText
 10
861.796875
 20
169.6875
 30
0.0
 40
10.3125
  1
型式
 41
1.056348480681818
  7
EXCADSTD
100
AcDbText
  0
TEXT
  5
49D
330
1F
100
AcDbEntity
  8
LAY-255
  6
CONTINUOUS
 62
     7
100
AcDbText
 10
862.265625
 20
187.6875
 30
0.0
 40
10.3125
  1
品名
 41
0.978838634090909
  7
EXCADSTD
100
AcDbText
  0
TEXT
  5
49E
330
1F
100
AcDbEntity
  8
LAY-255
  6
CONTINUOUS
 62
     7
100
AcDbText
 10
861.45703125
 20
73.26562499999997
 30
0.0
 40
7.734375
  1
作成日
 41
1.000629973818182
  7
EXCADSTD
100
AcDbText
  0
TEXT
  5
49F
330
1F
100
AcDbEntity
  8
LAY-255
  6
CONTINUOUS
 62
     7
100
AcDbText
 10
1044.84375
 20
70.68749999999997
 30
0.0
 40
10.3125
  1
１：３
 41
0.8844094952727272
  7
EXCADSTD
100
AcDbText
  0
TEXT
  5
4A0
330
1F
100
AcDbEntity
  8
LAY-255
  6
CONTINUOUS
 62
     7
100
AcDbText
 10
867.5625
 20
106.6875
 30
0.0
 40
10.3125
  1
施工：打込用
 41
1.018700840909091
  7
EXCADSTD
100
AcDbText
  0
TEXT
  5
4A1
330
1F
100
AcDbEntity
  8
LAY-255
  6
CONTINUOUS
 62
     7
100
AcDbText
 10
900.75
 20
187.6875
 30
0.0
 40
10.3125
  1
ルーフドレイン
 41
1.021169538599106
  7
EXCADSTD
100
AcDbText
  0
TEXT
  5
4A2
330
1F
100
AcDbEntity
  8
LAY-255
  6
CONTINUOUS
 62
     7
100
AcDbText
 10
868.125
 20
151.6875000000001
 30
0.0
 40
10.3125
  1
防水：アスファルト・シート・
 41
0.9866967752199413
  7
EXCADSTD
100
AcDbText
  0
TEXT
  5
4A3
330
1F
100
AcDbEntity
  8
LAY-255
  6
CONTINUOUS
 62
     7
100
AcDbText
 10
867.0
 20
136.6875
 30
0.0
 40
10.3125
  1
      露出アスファルト防水兼用
 41
0.894274438169777
  7
EXCADSTD
100
AcDbText
  0
TEXT
  5
4A4
330
1F
100
AcDbEntity
  8
LAY-255
  6
CONTINUOUS
 62
     7
100
AcDbText
 10
867.65625
 20
91.68750000000003
 30
0.0
 40
10.3125
  1
接続：管用テーパねじ
 41
1.013063761157025
  7
EXCADSTD
100
AcDbText
  0
TEXT
  5
4A5
330
1F
100
AcDbEntity
  8
LAY-255
  6
CONTINUOUS
 62
     7
100
AcDbText
 10
902.625
 20
169.6875
 30
0.0
 40
10.3125
  1
ＲＳＧＸ－３１５０型
 41
1.000581655991735
  7
EXCADSTD
100
AcDbText
  0
TEXT
  5
4A6
330
1F
100
AcDbEntity
  8
LAY-255
  6
CONTINUOUS
 62
     7
100
AcDbText
 10
902.671875
 20
70.68749999999997
 30
0.0
 40
10.3125
  1
０７／０１／０５
 41
0.9779528072727272
  7
EXCADSTD
100
AcDbText
  0
TEXT
  5
4A7
330
1F
100
AcDbEntity
  8
LAY-255
  6
CONTINUOUS
 62
     7
100
AcDbText
 10
867.703125
 20
121.6875
 30
0.0
 40
10.3125
  1
用途：屋上・庇・バルコニー用
 41
1.011557076246334
  7
EXCADSTD
100
AcDbText
  0
ENDSEC
  0
SECTION
  2
OBJECTS
  0
DICTIONARY
  5
C
330
0
100
AcDbDictionary
  3
ACAD_GROUP
350
D
  3
ACAD_LAYOUT
350
1A
  3
ACAD_MATERIAL
350
43
  3
ACAD_MLEADERSTYLE
350
6B
  3
ACAD_MLINESTYLE
350
17
  3
ACAD_PLOTSETTINGS
350
19
  3
ACAD_SCALELIST
350
47
  3
ACAD_VISUALSTYLE
350
2A
  3
ACDBHEADERROUNDTRIPXREC
350
4A8
  3
ACDBVARIABLEDICTIONARY
350
4C9
  0
DICTIONARY
  5
4D4
330
8
100
AcDbDictionary
280
     1
  3
ACAD_XREC_ROUNDTRIP
360
4D5
  0
DICTIONARY
  5
D
102
{ACAD_REACTORS
330
C
102
}
330
C
100
AcDbDictionary
  0
DICTIONARY
  5
1A
102
{ACAD_REACTORS
330
C
102
}
330
C
100
AcDbDictionary
  0
DICTIONARY
  5
43
102
{ACAD_REACTORS
330
C
102
}
330
C
100
AcDbDictionary
  3
BYBLOCK
350
45
  3
BYLAYER
350
44
  3
GLOBAL
350
46
  0
DICTIONARY
  5
6B
102
{ACAD_REACTORS
330
C
102
}
330
C
100
AcDbDictionary
  3
STANDARD
350
6C
  0
DICTIONARY
  5
17
102
{ACAD_REACTORS
330
C
102
}
330
C
100
AcDbDictionary
  3
STANDARD
350
18
  0
DICTIONARY
  5
19
102
{ACAD_REACTORS
330
C
102
}
330
C
100
AcDbDictionary
  0
DICTIONARY
  5
47
102
{ACAD_REACTORS
330
C
102
}
330
C
100
AcDbDictionary
  3
A0
350
48
  3
A1
350
49
  3
A2
350
4A
  3
A3
350
4B
  3
A4
350
4C
  3
A5
350
4D
  3
A6
350
4E
  3
A7
350
4F
  3
A8
350
50
  3
A9
350
51
  3
B0
350
52
  3
B1
350
53
  3
B2
350
54
  3
B3
350
55
  3
B4
350
56
  3
B5
350
57
  3
B6
350
58
  3
B7
350
59
  3
B8
350
5A
  3
B9
350
5B
  3
C0
350
5C
  3
C1
350
5D
  3
C2
350
5E
  3
C3
350
5F
  3
C4
350
60
  3
C5
350
61
  3
C6
350
62
  3
C7
350
63
  3
C8
350
64
  3
C9
350
65
  3
D0
350
66
  3
D1
350
67
  3
D2
350
68
  0
DICTIONARY
  5
2A
102
{ACAD_REACTORS
330
C
102
}
330
C
100
AcDbDictionary
  3
2DWIREFRAME
350
2F
  3
BASIC
350
32
  3
BRIGHTEN
350
36
  3
COLORCHANGE
350
3A
  3
CONCEPTUAL
350
34
  3
DIM
350
35
  3
EDGECOLOROFF
350
3D
  3
FACEPATTERN
350
39
  3
FLAT
350
2B
  3
FLATWITHEDGES
350
2C
  3
GOURAUD
350
2D
  3
GOURAUDWITHEDGES
350
2E
  3
HIDDEN
350
31
  3
JITTEROFF
350
3B
  3
LINEPATTERN
350
38
  3
OVERHANGOFF
350
3C
  3
REALISTIC
350
33
  3
SHADED
350
42
  3
SHADED_WITH_EDGES
350
41
  3
SHADES_OF_GRAY
350
3E
  3
SKETCHY
350
3F
  3
THICKEN
350
37
  3
WIREFRAME
350
30
  3
X-RAY
350
40
  0
DICTIONARY
  5
4A8
102
{ACAD_REACTORS
330
C
102
}
330
C
100
AcDbDictionary
  3
CEPSNID
350
4B2
  3
CEPSNTYPE
350
4B1
  3
DIMSTYLEDATA
350
4C8
  3
FINGERPRINTGUID
350
4B3
  3
HYPERLINKBASE
350
4AB
  3
INSUNITS
350
4B0
  3
LAYOUTDICT
350
4AD
  3
LWETCUNION
350
4AF
  3
PLOTSETDICT
350
4AE
  3
PSVPSCALE
350
4B5
  3
PUCSBASE
350
4B8
  3
PUCSORGBACK
350
4BE
  3
PUCSORGBOTTOM
350
4BA
  3
PUCSORGFRONT
350
4BD
  3
PUCSORGLEFT
350
4BB
  3
PUCSORGRIGHT
350
4BC
  3
PUCSORGTOP
350
4B9
  3
PUCSORTHOREF
350
4B6
  3
PUCSORTHOVIEW
350
4B7
  3
STYLESHEET
350
4AC
  3
TSTACKALIGN
350
4A9
  3
TSTACKSIZE
350
4AA
  3
UCSBASE
350
4C1
  3
UCSORGBACK
350
4C7
  3
UCSORGBOTTOM
350
4C3
  3
UCSORGFRONT
350
4C6
  3
UCSORGLEFT
350
4C4
  3
UCSORGRIGHT
350
4C5
  3
UCSORGTOP
350
4C2
  3
UCSORTHOREF
350
4BF
  3
UCSORTHOVIEW
350
4C0
  3
VERSIONGUID
350
4B4
  0
DICTIONARY
  5
4C9
102
{ACAD_REACTORS
330
C
102
}
330
C
100
AcDbDictionary
  3
CANNOSCALE
350
4D6
  3
CENTEREXE
350
4D0
  3
CENTERLTYPEFILE
350
4D1
  3
CMLEADERSTYLE
350
4CB
  3
CTABLESTYLE
350
4CA
  3
DIMASSOC
350
4D2
  3
HIDETEXT
350
4D3
  3
MSLTSCALE
350
4D7
  3
PSOLHEIGHT
350
4CD
  3
PSOLWIDTH
350
4CC
  0
XRECORD
  5
4D5
102
{ACAD_REACTORS
330
4D4
102
}
330
4D4
100
AcDbXrecord
102
VTR_0.000_0.000_1.000_1.000_VISUALSTYLE
340
2F
102
VTR_0.000_0.000_1.000_1.000_GRIDDISPLAY
 70
     3
102
VTR_0.000_0.000_1.000_1.000_GRIDMAJOR
 70
     5
102
VTR_0.000_0.000_1.000_1.000_DEFAULTLIGHTING
280
     1
102
VTR_0.000_0.000_1.000_1.000_DEFAULTLIGHTINGTYPE
 70
     1
102
VTR_0.000_0.000_1.000_1.000_BRIGHTNESS
141
0.0
102
VTR_0.000_0.000_1.000_1.000_CONTRAST
142
0.0
  0
MATERIAL
  5
45
102
{ACAD_REACTORS
330
43
102
}
102
{ACAD_XDICTIONARY
360
4DA
102
}
330
43
100
AcDbMaterial
  1
BYBLOCK
  0
MATERIAL
  5
44
102
{ACAD_REACTORS
330
43
102
}
102
{ACAD_XDICTIONARY
360
4D8
102
}
330
43
100
AcDbMaterial
  1
BYLAYER
  0
MATERIAL
  5
46
102
{ACAD_REACTORS
330
43
102
}
102
{ACAD_XDICTIONARY
360
4DC
102
}
330
43
100
AcDbMaterial
  1
GLOBAL
  0
ACAD_PROXY_OBJECT
  5
6C
102
{ACAD_REACTORS
330
6B
102
}
330
6B
100
AcDbProxyObject
 90
      499
 91
      505
 93
      610
310
40901902A4063FBFFFFFE0000000000000020400000000000020404214DD185B99185C990000000000000104090141901A00000000000004100000000000000041025764000000000000039000
340
14
340
0
340
11
340
0
 94
        0
1001
ACAD_MLEADERVER
1070
     2
  0
MLINESTYLE
  5
18
102
{ACAD_REACTORS
330
17
102
}
330
17
100
AcDbMlineStyle
  2
Standard
 70
     0
  3

 62
   256
 51
90.0
 52
90.0
 71
     2
 49
0.5
 62
   256
  6
BYLAYER
 49
-0.5
 62
   256
  6
BYLAYER
  0
ACAD_PROXY_OBJECT
  5
48
102
{ACAD_REACTORS
330
47
102
}
330
47
100
AcDbProxyObject
 90
      499
 91
      503
 93
       41
310
903313A31580
  0
ACAD_PROXY_OBJECT
  5
49
102
{ACAD_REACTORS
330
47
102
}
330
47
100
AcDbProxyObject
 90
      499
 91
      503
 93
      105
310
903313A324000000000000004000
  0
ACAD_PROXY_OBJECT
  5
4A
102
{ACAD_REACTORS
330
47
102
}
330
47
100
AcDbProxyObject
 90
      499
 91
      503
 93
      105
310
903313A344000000000000104000
  0
ACAD_PROXY_OBJECT
  5
4B
102
{ACAD_REACTORS
330
47
102
}
330
47
100
AcDbProxyObject
 90
      499
 91
      503
 93
      105
310
903313A354000000000000144000
  0
ACAD_PROXY_OBJECT
  5
4C
102
{ACAD_REACTORS
330
47
102
}
330
47
100
AcDbProxyObject
 90
      499
 91
      503
 93
      105
310
903313A384000000000000204000
  0
ACAD_PROXY_OBJECT
  5
4D
102
{ACAD_REACTORS
330
47
102
}
330
47
100
AcDbProxyObject
 90
      499
 91
      503
 93
      113
310
904313A31304000000000000244000
  0
ACAD_PROXY_OBJECT
  5
4E
102
{ACAD_REACTORS
330
47
102
}
330
47
100
AcDbProxyObject
 90
      499
 91
      503
 93
      113
310
904313A31364000000000000304000
  0
ACAD_PROXY_OBJECT
  5
4F
102
{ACAD_REACTORS
330
47
102
}
330
47
100
AcDbProxyObject
 90
      499
 91
      503
 93
      113
310
904313A32304000000000000344000
  0
ACAD_PROXY_OBJECT
  5
50
102
{ACAD_REACTORS
330
47
102
}
330
47
100
AcDbProxyObject
 90
      499
 91
      503
 93
      113
310
904313A333040000000000003E4000
  0
ACAD_PROXY_OBJECT
  5
51
102
{ACAD_REACTORS
330
47
102
}
330
47
100
AcDbProxyObject
 90
      499
 91
      503
 93
      113
310
904313A34304000000000000444000
  0
ACAD_PROXY_OBJECT
  5
52
102
{ACAD_REACTORS
330
47
102
}
330
47
100
AcDbProxyObject
 90
      499
 91
      503
 93
      113
310
904313A35304000000000000494000
  0
ACAD_PROXY_OBJECT
  5
53
102
{ACAD_REACTORS
330
47
102
}
330
47
100
AcDbProxyObject
 90
      499
 91
      503
 93
      121
310
905313A3130304000000000000594000
  0
ACAD_PROXY_OBJECT
  5
54
102
{ACAD_REACTORS
330
47
102
}
330
47
100
AcDbProxyObject
 90
      499
 91
      503
 93
      105
310
903323A310000000000000010100
  0
ACAD_PROXY_OBJECT
  5
55
102
{ACAD_REACTORS
330
47
102
}
330
47
100
AcDbProxyObject
 90
      499
 91
      503
 93
      105
310
903343A310000000000000410100
  0
ACAD_PROXY_OBJECT
  5
56
102
{ACAD_REACTORS
330
47
102
}
330
47
100
AcDbProxyObject
 90
      499
 91
      503
 93
      105
310
903383A310000000000000810100
  0
ACAD_PROXY_OBJECT
  5
57
102
{ACAD_REACTORS
330
47
102
}
330
47
100
AcDbProxyObject
 90
      499
 91
      503
 93
      113
310
90431303A310000000000000910100
  0
ACAD_PROXY_OBJECT
  5
58
102
{ACAD_REACTORS
330
47
102
}
330
47
100
AcDbProxyObject
 90
      499
 91
      503
 93
      121
310
9053130303A310000000000001650100
  0
ACAD_PROXY_OBJECT
  5
59
102
{ACAD_REACTORS
330
47
102
}
330
47
100
AcDbProxyObject
 90
      499
 91
      503
 93
      257
310
90E312F31323822203D2031272D3022000000000000200FC000000000000284000
  0
ACAD_PROXY_OBJECT
  5
5A
102
{ACAD_REACTORS
330
47
102
}
330
47
100
AcDbProxyObject
 90
      499
 91
      503
 93
      249
310
90D312F363422203D2031272D3022000000000000240FC000000000000284000
  0
ACAD_PROXY_OBJECT
  5
5B
102
{ACAD_REACTORS
330
47
102
}
330
47
100
AcDbProxyObject
 90
      499
 91
      503
 93
      249
310
90D312F333222203D2031272D3022000000000000280FC000000000000284000
  0
ACAD_PROXY_OBJECT
  5
5C
102
{ACAD_REACTORS
330
47
102
}
330
47
100
AcDbProxyObject
 90
      499
 91
      503
 93
      249
310
90D312F313622203D2031272D30220000000000002C0FC000000000000284000
  0
ACAD_PROXY_OBJECT
  5
5D
102
{ACAD_REACTORS
330
47
102
}
330
47
100
AcDbProxyObject
 90
      499
 91
      503
 93
      249
310
90D332F333222203D2031272D30220000000000002E0FC000000000000284000
  0
ACAD_PROXY_OBJECT
  5
5E
102
{ACAD_REACTORS
330
47
102
}
330
47
100
AcDbProxyObject
 90
      499
 91
      503
 93
      241
310
90C312F3822203D2031272D3022000000000000300FC000000000000284000
  0
ACAD_PROXY_OBJECT
  5
5F
102
{ACAD_REACTORS
330
47
102
}
330
47
100
AcDbProxyObject
 90
      499
 91
      503
 93
      249
310
90D332F313622203D2031272D3022000000000000320FC000000000000284000
  0
ACAD_PROXY_OBJECT
  5
60
102
{ACAD_REACTORS
330
47
102
}
330
47
100
AcDbProxyObject
 90
      499
 91
      503
 93
      241
310
90C312F3422203D2031272D3022000000000000340FC000000000000284000
  0
ACAD_PROXY_OBJECT
  5
61
102
{ACAD_REACTORS
330
47
102
}
330
47
100
AcDbProxyObject
 90
      499
 91
      503
 93
      241
310
90C332F3822203D2031272D3022000000000000360FC000000000000284000
  0
ACAD_PROXY_OBJECT
  5
62
102
{ACAD_REACTORS
330
47
102
}
330
47
100
AcDbProxyObject
 90
      499
 91
      503
 93
      241
310
90C312F3222203D2031272D3022000000000000380FC000000000000284000
  0
ACAD_PROXY_OBJECT
  5
63
102
{ACAD_REACTORS
330
47
102
}
330
47
100
AcDbProxyObject
 90
      499
 91
      503
 93
      241
310
90C332F3422203D2031272D30220000000000003A0FC000000000000284000
  0
ACAD_PROXY_OBJECT
  5
64
102
{ACAD_REACTORS
330
47
102
}
330
47
100
AcDbProxyObject
 90
      499
 91
      503
 93
      161
310
90A3122203D2031272D30224000000000000284000
  0
ACAD_PROXY_OBJECT
  5
65
102
{ACAD_REACTORS
330
47
102
}
330
47
100
AcDbProxyObject
 90
      499
 91
      503
 93
      257
310
90E312D312F3222203D2031272D30220000000000003E0FC000000000000284000
  0
ACAD_PROXY_OBJECT
  5
66
102
{ACAD_REACTORS
330
47
102
}
330
47
100
AcDbProxyObject
 90
      499
 91
      503
 93
      225
310
90A3322203D2031272D302200000000000002100000000000000284000
  0
ACAD_PROXY_OBJECT
  5
67
102
{ACAD_REACTORS
330
47
102
}
330
47
100
AcDbProxyObject
 90
      499
 91
      503
 93
      225
310
90A3622203D2031272D302200000000000006100000000000000284000
  0
ACAD_PROXY_OBJECT
  5
68
102
{ACAD_REACTORS
330
47
102
}
330
47
100
AcDbProxyObject
 90
      499
 91
      503
 93
      249
310
90D31272D3022203D2031272D30220000000000000A100000000000000284000
  0
ACAD_PROXY_OBJECT
  5
2F
102
{ACAD_REACTORS
330
2A
102
}
330
2A
100
AcDbProxyObject
 90
      499
 91
      501
 93
      436
310
42CC9915DA5C99599C985B595049028333333333333E33F0000000000000F90107901411070040501600405405064090741402480A0340
1001
ACAD
1000
AcDbSavedByObjectVersion
1070
     0
  0
ACAD_PROXY_OBJECT
  5
32
102
{ACAD_REACTORS
330
2A
102
}
330
2A
100
AcDbProxyObject
 90
      499
 91
      501
 93
      388
310
4150985CDA58D07406404333333333333E33F0000000000000F90107A41107004050150841D405064090741402480A0350
1001
ACAD
1000
AcDbSavedByObjectVersion
1070
     0
  0
ACAD_PROXY_OBJECT
  5
36
102
{ACAD_REACTORS
330
2A
102
}
330
2A
100
AcDbProxyObject
 90
      499
 91
      501
 93
      428
310
42109C9A59DA1D195B90C409028333333333333E33F0000000000000F9010790141107004050150841D405064090741402480A029950
1001
ACAD
1000
AcDbSavedByObjectVersion
1070
     0
  0
ACAD_PROXY_OBJECT
  5
3A
102
{ACAD_REACTORS
330
2A
102
}
330
2A
100
AcDbProxyObject
 90
      499
 91
      501
 93
      452
310
42D0DBDB1BDC90DA185B99D95104090240C333333333333E33F0000000000000F90108901411070040501508421405064090741402480A0350
1001
ACAD
1000
AcDbSavedByObjectVersion
1070
     0
  0
ACAD_PROXY_OBJECT
  5
34
102
{ACAD_REACTORS
330
2A
102
}
330
2A
100
AcDbProxyObject
 90
      499
 91
      501
 93
      500
310
4290DBDB98D95C1D1D585B10940D028333333333333E33F0000000000000F90107902409070040501000000000018199010841D405064090740C02480A0340
1001
ACAD
1000
AcDbSavedByObjectVersion
1070
     0
  0
ACAD_PROXY_OBJECT
  5
35
102
{ACAD_REACTORS
330
2A
102
}
330
2A
100
AcDbProxyObject
 90
      499
 91
      501
 93
      412
310
40D11A5B50B409028333333333333E33F0000000000000F9010790141107004050150841D405064090741402480A02677FFFFFD0
1001
ACAD
1000
AcDbSavedByObjectVersion
1070
     0
  0
ACAD_PROXY_OBJECT
  5
3D
102
{ACAD_REACTORS
330
2A
102
}
330
2A
100
AcDbProxyObject
 90
      499
 91
      501
 93
      452
310
43115919D950DBDB1BDC93D999916409028333333333333E33F0000000000000F9010790141107004050150841D405064090741402480A0350
1001
ACAD
1000
AcDbSavedByObjectVersion
1070
     0
  0
ACAD_PROXY_OBJECT
  5
39
102
{ACAD_REACTORS
330
2A
102
}
330
2A
100
AcDbProxyObject
 90
      499
 91
      501
 93
      444
310
42D19858D95C185D1D195C9B90F409028333333333333E33F0000000000000F9010790141107004050150841D405064090741402480A0350
1001
ACAD
1000
AcDbSavedByObjectVersion
1070
     0
  0
ACAD_PROXY_OBJECT
  5
2B
102
{ACAD_REACTORS
330
2A
102
}
330
2A
100
AcDbProxyObject
 90
      499
 91
      501
 93
      380
310
41119B185D240901404333333333333E33F0000000000000F9010740A907004050150841D405064090741402480A1B50
1001
ACAD
1000
AcDbSavedByObjectVersion
1070
     0
  0
ACAD_PROXY_OBJECT
  5
2C
102
{ACAD_REACTORS
330
2A
102
}
330
2A
100
AcDbProxyObject
 90
      499
 91
      501
 93
      468
310
43519B185D15DA5D1A115919D95CD0140901404333333333333E33F0000000000000F90107409019070040501600405405064090741402480A1B50
1001
ACAD
1000
AcDbSavedByObjectVersion
1070
     0
  0
ACAD_PROXY_OBJECT
  5
2D
102
{ACAD_REACTORS
330
2A
102
}
330
2A
100
AcDbProxyObject
 90
      499
 91
      501
 93
      404
310
41D1DBDD5C985D5910240902404333333333333E33F0000000000000F9010740A9070040501641D405064090741402480A1B50
1001
ACAD
1000
AcDbSavedByObjectVersion
1070
     0
  0
ACAD_PROXY_OBJECT
  5
2E
102
{ACAD_REACTORS
330
2A
102
}
330
2A
100
AcDbProxyObject
 90
      499
 91
      501
 93
      492
310
4411DBDD5C985D5915DA5D1A115919D95CD0340902404333333333333E33F0000000000000F90107409019070040501600405405064090741402480A1B50
1001
ACAD
1000
AcDbSavedByObjectVersion
1070
     0
  0
ACAD_PROXY_OBJECT
  5
31
102
{ACAD_REACTORS
330
2A
102
}
330
2A
100
AcDbProxyObject
 90
      499
 91
      501
 93
      476
310
41921A5919195B90640502408333333333333E33F0000000000000F901079024090700405020000000000001110200405405064090740C02480A0340
1001
ACAD
1000
AcDbSavedByObjectVersion
1070
     0
  0
ACAD_PROXY_OBJECT
  5
3B
102
{ACAD_REACTORS
330
2A
102
}
330
2A
100
AcDbProxyObject
 90
      499
 91
      501
 93
      428
310
42529A5D1D195C93D999914409028333333333333E33F0000000000000F9010790141107004050150A41D405064090741402480A0350
1001
ACAD
1000
AcDbSavedByObjectVersion
1070
     0
  0
ACAD_PROXY_OBJECT
  5
38
102
{ACAD_REACTORS
330
2A
102
}
330
2A
100
AcDbProxyObject
 90
      499
 91
      501
 93
      444
310
42D31A5B995C185D1D195C9B90E409028333333333333E33F0000000000000F9010790141107004050750841D405064090741402483A0350
1001
ACAD
1000
AcDbSavedByObjectVersion
1070
     0
  0
ACAD_PROXY_OBJECT
  5
3C
102
{ACAD_REACTORS
330
2A
102
}
330
2A
100
AcDbProxyObject
 90
      499
 91
      501
 93
      444
310
42D3DD995C9A185B99D3D999915409028333333333333E33F0000000000000F9010790141107004050150941D405064090741402480A0350
1001
ACAD
1000
AcDbSavedByObjectVersion
1070
     0
  0
ACAD_PROXY_OBJECT
  5
33
102
{ACAD_REACTORS
330
2A
102
}
330
2A
100
AcDbProxyObject
 90
      499
 91
      501
 93
      428
310
425499585B1A5CDD1A58D08409038333333333333E33F0000000000000F9010740A907004050150800405405064090740C02480A1B40
1001
ACAD
1000
AcDbSavedByObjectVersion
1070
     0
  0
ACAD_PROXY_OBJECT
  5
42
102
{ACAD_REACTORS
330
2A
102
}
330
2A
100
AcDbProxyObject
 90
      499
 91
      501
 93
      420
310
4194DA1859195911B40902404333333333333E33F0000000000000F9010740A41107004050150800405405064090840C02480A0B40
1001
ACAD
1000
AcDbSavedByObjectVersion
1070
     0
  0
ACAD_PROXY_OBJECT
  5
41
102
{ACAD_REACTORS
330
2A
102
}
330
2A
100
AcDbProxyObject
 90
      499
 91
      501
 93
      516
310
4454DA18591959081DDA5D1A08195919D95CD1A40902404333333333333E33F0000000000000F901074090142907004050250800405405064090740C02480A0B40
1001
ACAD
1000
AcDbSavedByObjectVersion
1070
     0
  0
ACAD_PROXY_OBJECT
  5
3E
102
{ACAD_REACTORS
330
2A
102
}
330
2A
100
AcDbProxyObject
 90
      499
 91
      501
 93
      532
310
4394DA1859195CC81BD98811DC985E5174090240C333333333333E33F0000000000000F901079024090741D01000000000000111010841D405064090740C02480A0340
1001
ACAD
1000
AcDbSavedByObjectVersion
1070
     0
  0
ACAD_PROXY_OBJECT
  5
3F
102
{ACAD_REACTORS
330
2A
102
}
330
2A
100
AcDbProxyObject
 90
      499
 91
      501
 93
      476
310
41D4DAD95D18DA1E51840502408333333333333E33F0000000000000F901079024090741D01000000000000111010B41D405064090741802480A0340
1001
ACAD
1000
AcDbSavedByObjectVersion
1070
     0
  0
ACAD_PROXY_OBJECT
  5
37
102
{ACAD_REACTORS
330
2A
102
}
330
2A
100
AcDbProxyObject
 90
      499
 91
      501
 93
      412
310
41D51A1A58DAD95B90D409028333333333333E33F0000000000000F9010790141107004050150C41D405064090741402480A0350
1001
ACAD
1000
AcDbSavedByObjectVersion
1070
     0
  0
ACAD_PROXY_OBJECT
  5
30
102
{ACAD_REACTORS
330
2A
102
}
330
2A
100
AcDbProxyObject
 90
      499
 91
      501
 93
      420
310
4255DA5C99599C985B595059028333333333333E33F0000000000000F90107901411070040501600405405064090740C02480A0340
1001
ACAD
1000
AcDbSavedByObjectVersion
1070
     0
  0
ACAD_PROXY_OBJECT
  5
40
102
{ACAD_REACTORS
330
2A
102
}
330
2A
100
AcDbProxyObject
 90
      499
 91
      501
 93
      404
310
41560B54985E51940902404000000000000E03F0000000000000F9010740501907004050150841D405064090740C02480A1B40
1001
ACAD
1000
AcDbSavedByObjectVersion
1070
     0
  0
XRECORD
  5
4B2
102
{ACAD_REACTORS
330
4A8
102
}
330
4A8
100
AcDbXrecord
340
0
  0
XRECORD
  5
4B1
102
{ACAD_REACTORS
330
4A8
102
}
330
4A8
100
AcDbXrecord
 90
        0
  0
XRECORD
  5
4C8
102
{ACAD_REACTORS
330
4A8
102
}
330
4A8
100
AcDbXrecord
1000
DSTYLE
1002
{
1070
   340
340
11
1002
}
  0
XRECORD
  5
4B3
102
{ACAD_REACTORS
330
4A8
102
}
330
4A8
100
AcDbXrecord
  1
{d9efa18a-a4cc-42c7-8407-879422d57b1a}
  0
XRECORD
  5
4AB
102
{ACAD_REACTORS
330
4A8
102
}
330
4A8
100
AcDbXrecord
  1

  0
XRECORD
  5
4B0
102
{ACAD_REACTORS
330
4A8
102
}
330
4A8
100
AcDbXrecord
 90
        4
  0
XRECORD
  5
4AD
102
{ACAD_REACTORS
330
4A8
102
}
330
4A8
100
AcDbXrecord
340
1A
  0
XRECORD
  5
4AF
102
{ACAD_REACTORS
330
4A8
102
}
330
4A8
100
AcDbXrecord
 90
    10781
  0
XRECORD
  5
4AE
102
{ACAD_REACTORS
330
4A8
102
}
330
4A8
100
AcDbXrecord
340
19
  0
XRECORD
  5
4B5
102
{ACAD_REACTORS
330
4A8
102
}
330
4A8
100
AcDbXrecord
 40
0.0
  0
XRECORD
  5
4B8
102
{ACAD_REACTORS
330
4A8
102
}
330
4A8
100
AcDbXrecord
340
0
  0
XRECORD
  5
4BE
102
{ACAD_REACTORS
330
4A8
102
}
330
4A8
100
AcDbXrecord
 10
0.0
 20
0.0
 30
0.0
  0
XRECORD
  5
4BA
102
{ACAD_REACTORS
330
4A8
102
}
330
4A8
100
AcDbXrecord
 10
0.0
 20
0.0
 30
0.0
  0
XRECORD
  5
4BD
102
{ACAD_REACTORS
330
4A8
102
}
330
4A8
100
AcDbXrecord
 10
0.0
 20
0.0
 30
0.0
  0
XRECORD
  5
4BB
102
{ACAD_REACTORS
330
4A8
102
}
330
4A8
100
AcDbXrecord
 10
0.0
 20
0.0
 30
0.0
  0
XRECORD
  5
4BC
102
{ACAD_REACTORS
330
4A8
102
}
330
4A8
100
AcDbXrecord
 10
0.0
 20
0.0
 30
0.0
  0
XRECORD
  5
4B9
102
{ACAD_REACTORS
330
4A8
102
}
330
4A8
100
AcDbXrecord
 10
0.0
 20
0.0
 30
0.0
  0
XRECORD
  5
4B6
102
{ACAD_REACTORS
330
4A8
102
}
330
4A8
100
AcDbXrecord
340
0
  0
XRECORD
  5
4B7
102
{ACAD_REACTORS
330
4A8
102
}
330
4A8
100
AcDbXrecord
 70
     0
  0
XRECORD
  5
4AC
102
{ACAD_REACTORS
330
4A8
102
}
330
4A8
100
AcDbXrecord
  1

  0
XRECORD
  5
4A9
102
{ACAD_REACTORS
330
4A8
102
}
330
4A8
100
AcDbXrecord
 90
        1
  0
XRECORD
  5
4AA
102
{ACAD_REACTORS
330
4A8
102
}
330
4A8
100
AcDbXrecord
 90
       70
  0
XRECORD
  5
4C1
102
{ACAD_REACTORS
330
4A8
102
}
330
4A8
100
AcDbXrecord
340
0
  0
XRECORD
  5
4C7
102
{ACAD_REACTORS
330
4A8
102
}
330
4A8
100
AcDbXrecord
 10
0.0
 20
0.0
 30
0.0
  0
XRECORD
  5
4C3
102
{ACAD_REACTORS
330
4A8
102
}
330
4A8
100
AcDbXrecord
 10
0.0
 20
0.0
 30
0.0
  0
XRECORD
  5
4C6
102
{ACAD_REACTORS
330
4A8
102
}
330
4A8
100
AcDbXrecord
 10
0.0
 20
0.0
 30
0.0
  0
XRECORD
  5
4C4
102
{ACAD_REACTORS
330
4A8
102
}
330
4A8
100
AcDbXrecord
 10
0.0
 20
0.0
 30
0.0
  0
XRECORD
  5
4C5
102
{ACAD_REACTORS
330
4A8
102
}
330
4A8
100
AcDbXrecord
 10
0.0
 20
0.0
 30
0.0
  0
XRECORD
  5
4C2
102
{ACAD_REACTORS
330
4A8
102
}
330
4A8
100
AcDbXrecord
 10
0.0
 20
0.0
 30
0.0
  0
XRECORD
  5
4BF
102
{ACAD_REACTORS
330
4A8
102
}
330
4A8
100
AcDbXrecord
340
0
  0
XRECORD
  5
4C0
102
{ACAD_REACTORS
330
4A8
102
}
330
4A8
100
AcDbXrecord
 70
     0
  0
XRECORD
  5
4B4
102
{ACAD_REACTORS
330
4A8
102
}
330
4A8
100
AcDbXrecord
  1
{FAEB1C32-E019-11D5-929B-00C0DF256EC4}
  0
DICTIONARYVAR
  5
4D6
102
{ACAD_REACTORS
330
4C9
102
}
330
4C9
100
DictionaryVariables
280
     0
  1
1:1
  0
DICTIONARYVAR
  5
4D0
102
{ACAD_REACTORS
330
4C9
102
}
330
4C9
100
DictionaryVariables
280
     0
  1
3.500000
  0
DICTIONARYVAR
  5
4D1
102
{ACAD_REACTORS
330
4C9
102
}
330
4C9
100
DictionaryVariables
280
     0
  1
acadiso.lin
  0
DICTIONARYVAR
  5
4CB
102
{ACAD_REACTORS
330
4C9
102
}
330
4C9
100
DictionaryVariables
280
     0
  1
Standard
  0
DICTIONARYVAR
  5
4CA
102
{ACAD_REACTORS
330
4C9
102
}
330
4C9
100
DictionaryVariables
280
     0
  1
Standard
  0
DICTIONARYVAR
  5
4D2
102
{ACAD_REACTORS
330
4C9
102
}
330
4C9
100
DictionaryVariables
280
     0
  1
2
  0
DICTIONARYVAR
  5
4D3
102
{ACAD_REACTORS
330
4C9
102
}
330
4C9
100
DictionaryVariables
280
     0
  1
1
  0
DICTIONARYVAR
  5
4D7
102
{ACAD_REACTORS
330
4C9
102
}
330
4C9
100
DictionaryVariables
280
     0
  1
1
  0
DICTIONARYVAR
  5
4CD
102
{ACAD_REACTORS
330
4C9
102
}
330
4C9
100
DictionaryVariables
280
     0
  1
80.000000
  0
DICTIONARYVAR
  5
4CC
102
{ACAD_REACTORS
330
4C9
102
}
330
4C9
100
DictionaryVariables
280
     0
  1
5.000000
  0
DICTIONARY
  5
4DA
330
45
100
AcDbDictionary
280
     1
  3
ACAD_XREC_ROUNDTRIP
360
4DB
  0
DICTIONARY
  5
4D8
330
44
100
AcDbDictionary
280
     1
  3
ACAD_XREC_ROUNDTRIP
360
4D9
  0
DICTIONARY
  5
4DC
330
46
100
AcDbDictionary
280
     1
  3
ACAD_XREC_ROUNDTRIP
360
4DD
  0
XRECORD
  5
4DB
102
{ACAD_REACTORS
330
4DA
102
}
330
4DA
100
AcDbXrecord
102
MATERIAL
148
0.0
149
0.0
149
0.0
 93
        0
 94
      127
282
     0
 72
     1
 77
     1
171
     1
175
     1
179
     1
273
     0
  0
XRECORD
  5
4D9
102
{ACAD_REACTORS
330
4D8
102
}
330
4D8
100
AcDbXrecord
102
MATERIAL
148
0.0
149
0.0
149
0.0
 93
        0
 94
      127
282
     0
 72
     1
 77
     1
171
     1
175
     1
179
     1
273
     0
  0
XRECORD
  5
4DD
102
{ACAD_REACTORS
330
4DC
102
}
330
4DC
100
AcDbXrecord
102
MATERIAL
148
0.0
149
0.0
149
0.0
 93
        0
 94
      127
282
     0
 72
     1
 77
     1
171
     1
175
     1
179
     1
273
     0
  0
ENDSEC
  0
EOF
