  0
SECTION
  2
HEADER
  9
$ACADVER
  1
AC1014
  9
$ACADMAINTVER
 70
     9
  9
$DWGCODEPAGE
  3
ANSI_932
  9
$INSBASE
 10
0.0
 20
0.0
 30
0.0
  9
$EXTMIN
 10
15.0
 20
30.0
 30
0.0
  9
$EXTMAX
 10
1155.0
 20
840.0
 30
0.0
  9
$LIMMIN
 10
0.0
 20
0.0
  9
$LIMMAX
 10
420.0
 20
297.0
  9
$ORTHOMODE
 70
     0
  9
$REGENMODE
 70
     1
  9
$FILLMODE
 70
     1
  9
$QTEXTMODE
 70
     0
  9
$MIRRTEXT
 70
     1
  9
$DRAGMODE
 70
     2
  9
$LTSCALE
 40
0.2
  9
$OSMODE
 70
    37
  9
$ATTMODE
 70
     1
  9
$TEXTSIZE
 40
2.5
  9
$TRACEWID
 40
1.0
  9
$TEXTSTYLE
  7
STANDARD
  9
$CLAYER
  8
LAY-10
  9
$CELTYPE
  6
BYLAYER
  9
$CECOLOR
 62
   256
  9
$CELTSCALE
 40
1.0
  9
$DELOBJ
 70
     1
  9
$DISPSILH
 70
     0
  9
$DIMSCALE
 40
1.0
  9
$DIMASZ
 40
2.5
  9
$DIMEXO
 40
0.625
  9
$DIMDLI
 40
3.75
  9
$DIMRND
 40
0.0
  9
$DIMDLE
 40
0.0
  9
$DIMEXE
 40
1.25
  9
$DIMTP
 40
0.0
  9
$DIMTM
 40
0.0
  9
$DIMTXT
 40
2.5
  9
$DIMCEN
 40
2.5
  9
$DIMTSZ
 40
0.0
  9
$DIMTOL
 70
     0
  9
$DIMLIM
 70
     0
  9
$DIMTIH
 70
     0
  9
$DIMTOH
 70
     0
  9
$DIMSE1
 70
     0
  9
$DIMSE2
 70
     0
  9
$DIMTAD
 70
     1
  9
$DIMZIN
 70
     8
  9
$DIMBLK
  1

  9
$DIMASO
 70
     1
  9
$DIMSHO
 70
     1
  9
$DIMPOST
  1

  9
$DIMAPOST
  1

  9
$DIMALT
 70
     0
  9
$DIMALTD
 70
     3
  9
$DIMALTF
 40
0.03937007874016
  9
$DIMLFAC
 40
1.0
  9
$DIMTOFL
 70
     1
  9
$DIMTVP
 40
0.0
  9
$DIMTIX
 70
     0
  9
$DIMSOXD
 70
     0
  9
$DIMSAH
 70
     0
  9
$DIMBLK1
  1

  9
$DIMBLK2
  1

  9
$DIMSTYLE
  2
ISO-25
  9
$DIMCLRD
 70
     0
  9
$DIMCLRE
 70
     0
  9
$DIMCLRT
 70
     0
  9
$DIMTFAC
 40
1.0
  9
$DIMGAP
 40
0.625
  9
$DIMJUST
 70
     0
  9
$DIMSD1
 70
     0
  9
$DIMSD2
 70
     0
  9
$DIMTOLJ
 70
     0
  9
$DIMTZIN
 70
     8
  9
$DIMALTZ
 70
     0
  9
$DIMALTTZ
 70
     0
  9
$DIMFIT
 70
     3
  9
$DIMUPT
 70
     0
  9
$DIMUNIT
 70
     2
  9
$DIMDEC
 70
     2
  9
$DIMTDEC
 70
     2
  9
$DIMALTU
 70
     2
  9
$DIMALTTD
 70
     3
  9
$DIMTXSTY
  7
STANDARD
  9
$DIMAUNIT
 70
     0
  9
$LUNITS
 70
     2
  9
$LUPREC
 70
     4
  9
$SKETCHINC
 40
1.0
  9
$FILLETRAD
 40
10.0
  9
$AUNITS
 70
     0
  9
$AUPREC
 70
     0
  9
$MENU
  1
.
  9
$ELEVATION
 40
0.0
  9
$PELEVATION
 40
0.0
  9
$THICKNESS
 40
0.0
  9
$LIMCHECK
 70
     0
  9
$CHAMFERA
 40
0.0
  9
$CHAMFERB
 40
0.0
  9
$CHAMFERC
 40
0.0
  9
$CHAMFERD
 40
0.0
  9
$SKPOLY
 70
     0
  9
$TDCREATE
 40
2459229.337691146
  9
$TDUPDATE
 40
2459229.337691644
  9
$TDINDWG
 40
0.0000000116
  9
$TDUSRTIMER
 40
0.0000000116
  9
$USRTIMER
 70
     1
  9
$ANGBASE
 50
0.0
  9
$ANGDIR
 70
     0
  9
$PDMODE
 70
     0
  9
$PDSIZE
 40
0.0
  9
$PLINEWID
 40
0.0
  9
$COORDS
 70
     1
  9
$SPLFRAME
 70
     0
  9
$SPLINETYPE
 70
     6
  9
$SPLINESEGS
 70
     8
  9
$ATTDIA
 70
     0
  9
$ATTREQ
 70
     1
  9
$HANDLING
 70
     1
  9
$HANDSEED
  5
477
  9
$SURFTAB1
 70
     6
  9
$SURFTAB2
 70
     6
  9
$SURFTYPE
 70
     6
  9
$SURFU
 70
     6
  9
$SURFV
 70
     6
  9
$UCSNAME
  2

  9
$UCSORG
 10
0.0
 20
0.0
 30
0.0
  9
$UCSXDIR
 10
1.0
 20
0.0
 30
0.0
  9
$UCSYDIR
 10
0.0
 20
1.0
 30
0.0
  9
$PUCSNAME
  2

  9
$PUCSORG
 10
0.0
 20
0.0
 30
0.0
  9
$PUCSXDIR
 10
1.0
 20
0.0
 30
0.0
  9
$PUCSYDIR
 10
0.0
 20
1.0
 30
0.0
  9
$USERI1
 70
     0
  9
$USERI2
 70
     0
  9
$USERI3
 70
     0
  9
$USERI4
 70
     0
  9
$USERI5
 70
     0
  9
$USERR1
 40
0.0
  9
$USERR2
 40
0.0
  9
$USERR3
 40
0.0
  9
$USERR4
 40
0.0
  9
$USERR5
 40
0.0
  9
$WORLDVIEW
 70
     1
  9
$SHADEDGE
 70
     3
  9
$SHADEDIF
 70
    70
  9
$TILEMODE
 70
     1
  9
$MAXACTVP
 70
    64
  9
$PINSBASE
 10
0.0
 20
0.0
 30
0.0
  9
$PLIMCHECK
 70
     0
  9
$PEXTMIN
 10
1.000000000000000E+20
 20
1.000000000000000E+20
 30
1.000000000000000E+20
  9
$PEXTMAX
 10
-1.000000000000000E+20
 20
-1.000000000000000E+20
 30
-1.000000000000000E+20
  9
$PLIMMIN
 10
0.0
 20
0.0
  9
$PLIMMAX
 10
420.0
 20
297.0
  9
$UNITMODE
 70
     0
  9
$VISRETAIN
 70
     1
  9
$PLINEGEN
 70
     0
  9
$PSLTSCALE
 70
     1
  9
$TREEDEPTH
 70
  3020
  9
$PICKSTYLE
 70
     1
  9
$CMLSTYLE
  2
STANDARD
  9
$CMLJUST
 70
     0
  9
$CMLSCALE
 40
20.0
  9
$PROXYGRAPHICS
 70
     1
  9
$MEASUREMENT
 70
     1
  0
ENDSEC
  0
SECTION
  2
CLASSES
  0
CLASS
  1
ACDBDICTIONARYWDFLT
  2
AcDbDictionaryWithDefault
  3
ObjectDBX Classes
 90
        0
280
     0
281
     0
  0
CLASS
  1
VISUALSTYLE
  2
AcDbVisualStyle
  3
ObjectDBX Classes
 90
     4095
280
     0
281
     0
  0
CLASS
  1
MATERIAL
  2
AcDbMaterial
  3
ObjectDBX Classes
 90
     1153
280
     0
281
     0
  0
CLASS
  1
SCALE
  2
AcDbScale
  3
ObjectDBX Classes
 90
     1153
280
     0
281
     0
  0
CLASS
  1
TABLESTYLE
  2
AcDbTableStyle
  3
ObjectDBX Classes
 90
     4095
280
     0
281
     0
  0
CLASS
  1
MLEADERSTYLE
  2
AcDbMLeaderStyle
  3
ACDB_MLEADERSTYLE_CLASS
 90
     4095
280
     0
281
     0
  0
CLASS
  1
SUN
  2
AcDbSun
  3
SCENEOE
 90
     1153
280
     0
281
     0
  0
CLASS
  1
DICTIONARYVAR
  2
AcDbDictionaryVar
  3
ObjectDBX Classes
 90
        0
280
     0
281
     0
  0
CLASS
  1
XRECORD
  2
AcDbXrecord
  3
ObjectDBX Classes
 90
        0
280
     0
281
     0
  0
CLASS
  1
LWPOLYLINE
  2
AcDbPolyline
  3
ObjectDBX Classes
 90
        0
280
     0
281
     1
  0
CLASS
  1
HATCH
  2
AcDbHatch
  3
ObjectDBX Classes
 90
        0
280
     0
281
     1
  0
CLASS
  1
ACDBPLACEHOLDER
  2
AcDbPlaceHolder
  3
ObjectDBX Classes
 90
        0
280
     0
281
     0
  0
CLASS
  1
LAYOUT
  2
AcDbLayout
  3
ObjectDBX Classes
 90
        0
280
     0
281
     0
  0
ENDSEC
  0
SECTION
  2
TABLES
  0
TABLE
  2
VPORT
  5
8
102
{ACAD_XDICTIONARY
360
46C
102
}
330
0
100
AcDbSymbolTable
 70
     1
  0
VPORT
  5
29
330
8
100
AcDbSymbolTableRecord
100
AcDbViewportTableRecord
  2
*ACTIVE
 70
     0
 10
0.0
 20
0.0
 11
1.0
 21
1.0
 12
585.0000000000001
 22
435.0
 13
0.0
 23
0.0
 14
10.0
 24
10.0
 15
10.0
 25
10.0
 16
0.0
 26
0.0
 36
1.0
 17
0.0
 27
0.0
 37
0.0
 40
810.0
 41
1.407407407407408
 42
50.0
 43
0.0
 44
0.0
 50
0.0
 51
0.0
 71
     0
 72
  1000
 73
     1
 74
     3
 75
     0
 76
     0
 77
     0
 78
     0
  0
ENDTAB
  0
TABLE
  2
LTYPE
  5
5
330
0
100
AcDbSymbolTable
 70
     6
  0
LTYPE
  5
14
330
5
100
AcDbSymbolTableRecord
100
AcDbLinetypeTableRecord
  2
BYBLOCK
 70
     0
  3

 72
    65
 73
     0
 40
0.0
  0
LTYPE
  5
15
330
5
100
AcDbSymbolTableRecord
100
AcDbLinetypeTableRecord
  2
BYLAYER
 70
     0
  3

 72
    65
 73
     0
 40
0.0
  0
LTYPE
  5
16
330
5
100
AcDbSymbolTableRecord
100
AcDbLinetypeTableRecord
  2
CONTINUOUS
 70
     0
  3
Solid line
 72
    65
 73
     0
 40
0.0
  0
LTYPE
  5
6E
330
5
100
AcDbSymbolTableRecord
100
AcDbLinetypeTableRecord
  2
HIDDEN
 70
     0
  3
Hidden __ __ __ __ __ __ __ __ __ __ __ __ __ __
 72
    65
 73
     2
 40
9.524999999999999
 49
6.35
 74
     0
 49
-3.175
 74
     0
  0
LTYPE
  5
6F
330
5
100
AcDbSymbolTableRecord
100
AcDbLinetypeTableRecord
  2
CENTER
 70
     0
  3
Center ____ _ ____ _ ____ _ ____ _ ____ _ ____
 72
    65
 73
     4
 40
50.8
 49
31.75
 74
     0
 49
-6.35
 74
     0
 49
6.35
 74
     0
 49
-6.35
 74
     0
  0
LTYPE
  5
70
330
5
100
AcDbSymbolTableRecord
100
AcDbLinetypeTableRecord
  2
PHANTOM
 70
     0
  3
Phantom ______  __  __  ______  __  __  ______ 
 72
    65
 73
     6
 40
63.50000000000001
 49
31.75
 74
     0
 49
-6.35
 74
     0
 49
6.35
 74
     0
 49
-6.35
 74
     0
 49
6.35
 74
     0
 49
-6.35
 74
     0
  0
LTYPE
  5
71
330
5
100
AcDbSymbolTableRecord
100
AcDbLinetypeTableRecord
  2
ACAD_ISO06W100
 70
     0
  3
ISO long-dash triple-dot ____ ... ____ ... ____
 72
    65
 73
     8
 40
36.0
 49
24.0
 74
     0
 49
-3.0
 74
     0
 49
0.0
 74
     0
 49
-3.0
 74
     0
 49
0.0
 74
     0
 49
-3.0
 74
     0
 49
0.0
 74
     0
 49
-3.0
 74
     0
  0
LTYPE
  5
72
330
5
100
AcDbSymbolTableRecord
100
AcDbLinetypeTableRecord
  2
ACAD_ISO15W100
 70
     0
  3
ISO double-dash triple-dot __ __ . . . __ __ . .
 72
    65
 73
    10
 40
39.0
 49
12.0
 74
     0
 49
-3.0
 74
     0
 49
12.0
 74
     0
 49
-3.0
 74
     0
 49
0.0
 74
     0
 49
-3.0
 74
     0
 49
0.0
 74
     0
 49
-3.0
 74
     0
 49
0.0
 74
     0
 49
-3.0
 74
     0
  0
ENDTAB
  0
TABLE
  2
LAYER
  5
2
330
0
100
AcDbSymbolTable
 70
     5
  0
LAYER
  5
10
330
2
100
AcDbSymbolTableRecord
100
AcDbLayerTableRecord
  2
0
 70
     0
 62
     7
  6
CONTINUOUS
  0
LAYER
  5
75
330
2
100
AcDbSymbolTableRecord
100
AcDbLayerTableRecord
  2
LAY-10
 70
     0
 62
     7
  6
CONTINUOUS
  0
LAYER
  5
76
330
2
100
AcDbSymbolTableRecord
100
AcDbLayerTableRecord
  2
LAY-20
 70
     0
 62
     7
  6
CONTINUOUS
  0
LAYER
  5
77
330
2
100
AcDbSymbolTableRecord
100
AcDbLayerTableRecord
  2
LAY-255
 70
     0
 62
     7
  6
CONTINUOUS
  0
LAYER
  5
364
330
2
100
AcDbSymbolTableRecord
100
AcDbLayerTableRecord
  2
DEFPOINTS
 70
     0
 62
     7
  6
CONTINUOUS
  0
ENDTAB
  0
TABLE
  2
STYLE
  5
3
330
0
100
AcDbSymbolTable
 70
     4
  0
STYLE
  5
11
330
3
100
AcDbSymbolTableRecord
100
AcDbTextStyleTableRecord
  2
STANDARD
 70
     0
 40
0.0
 41
1.0
 50
0.0
 71
     0
 42
2.5
  3
simplex
  4
bigfont
  0
STYLE
  5
73
330
3
100
AcDbSymbolTableRecord
100
AcDbTextStyleTableRecord
  2
EXCADSTD
 70
     0
 40
0.0
 41
1.0
 50
0.0
 71
     0
 42
2.5
  3
simplex
  4
bigfont
  0
STYLE
  5
74
330
3
100
AcDbSymbolTableRecord
100
AcDbTextStyleTableRecord
  2
EXCADVERT
 70
     4
 40
0.0
 41
1.0
 50
0.0
 71
     0
 42
2.5
  3
simplex
  4
bigfont
  0
STYLE
  5
362
330
3
100
AcDbSymbolTableRecord
100
AcDbTextStyleTableRecord
  2
EXCADDIM1
 70
     0
 40
0.0
 41
0.84
 50
0.0
 71
     0
 42
2.5
  3
simplex
  4
bigfont
  0
ENDTAB
  0
TABLE
  2
VIEW
  5
6
330
0
100
AcDbSymbolTable
 70
     0
  0
ENDTAB
  0
TABLE
  2
UCS
  5
7
330
0
100
AcDbSymbolTable
 70
     0
  0
ENDTAB
  0
TABLE
  2
APPID
  5
9
330
0
100
AcDbSymbolTable
 70
     2
  0
APPID
  5
12
330
9
100
AcDbSymbolTableRecord
100
AcDbRegAppTableRecord
  2
ACAD
 70
     0
  0
APPID
  5
476
330
9
100
AcDbSymbolTableRecord
100
AcDbRegAppTableRecord
  2
ACAD_MLEADERVER
 70
     0
  0
ENDTAB
  0
TABLE
  2
DIMSTYLE
  5
A
330
0
100
AcDbSymbolTable
 70
     1
  0
DIMSTYLE
105
27
102
{ACAD_REACTORS
330
363
330
370
330
37C
330
38A
330
397
330
3A5
330
3AE
330
3BB
330
3C8
330
3D4
330
3E4
330
3F1
330
3FE
330
40B
102
}
330
A
100
AcDbSymbolTableRecord
100
AcDbDimStyleTableRecord
  2
ISO-25
 70
     0
  3

  4

  5

  6

  7

 40
1.0
 41
2.5
 42
0.625
 43
3.75
 44
1.25
 45
0.0
 46
0.0
 47
0.0
 48
0.0
140
2.5
141
2.5
142
0.0
143
0.03937007874016
144
1.0
145
0.0
146
1.0
147
0.625
 71
     0
 72
     0
 73
     0
 74
     0
 75
     0
 76
     0
 77
     1
 78
     8
170
     0
171
     3
172
     1
173
     0
174
     0
175
     0
176
     0
177
     0
178
     0
270
     2
271
     2
272
     2
273
     2
274
     3
340
11
275
     0
280
     0
281
     0
282
     0
283
     0
284
     8
285
     0
286
     0
287
     5
288
     0
  0
ENDTAB
  0
TABLE
  2
BLOCK_RECORD
  5
1
330
0
100
AcDbSymbolTable
 70
    28
  0
BLOCK_RECORD
  5
1F
330
1
100
AcDbSymbolTableRecord
100
AcDbBlockTableRecord
  2
*MODEL_SPACE
  0
BLOCK_RECORD
  5
1B
330
1
100
AcDbSymbolTableRecord
100
AcDbBlockTableRecord
  2
*PAPER_SPACE
  0
BLOCK_RECORD
  5
78
330
1
100
AcDbSymbolTableRecord
100
AcDbBlockTableRecord
  2
EX_NORM
  0
BLOCK_RECORD
  5
7B
330
1
100
AcDbSymbolTableRecord
100
AcDbBlockTableRecord
  2
EX_BNORM
  0
BLOCK_RECORD
  5
7E
330
1
100
AcDbSymbolTableRecord
100
AcDbBlockTableRecord
  2
EX_BCIR
  0
BLOCK_RECORD
  5
81
330
1
100
AcDbSymbolTableRecord
100
AcDbBlockTableRecord
  2
EX_RCIVIL
  0
BLOCK_RECORD
  5
84
330
1
100
AcDbSymbolTableRecord
100
AcDbBlockTableRecord
  2
EX_SLANT
  0
BLOCK_RECORD
  5
87
330
1
100
AcDbSymbolTableRecord
100
AcDbBlockTableRecord
  2
EX_NONE
  0
BLOCK_RECORD
  5
8A
330
1
100
AcDbSymbolTableRecord
100
AcDbBlockTableRecord
  2
EX_CIVIL
  0
BLOCK_RECORD
  5
8D
330
1
100
AcDbSymbolTableRecord
100
AcDbBlockTableRecord
  2
EX_WCIR
  0
BLOCK_RECORD
  5
90
330
1
100
AcDbSymbolTableRecord
100
AcDbBlockTableRecord
  2
EX_WCIR2
  0
BLOCK_RECORD
  5
93
330
1
100
AcDbSymbolTableRecord
100
AcDbBlockTableRecord
  2
EX_WNORM
  0
BLOCK_RECORD
  5
96
330
1
100
AcDbSymbolTableRecord
100
AcDbBlockTableRecord
  2
EX_NNORM
  0
BLOCK_RECORD
  5
99
330
1
100
AcDbSymbolTableRecord
100
AcDbBlockTableRecord
  2
EX_BBOX
  0
BLOCK_RECORD
  5
9C
330
1
100
AcDbSymbolTableRecord
100
AcDbBlockTableRecord
  2
EX_WBOX
  0
BLOCK_RECORD
  5
9F
330
1
100
AcDbSymbolTableRecord
100
AcDbBlockTableRecord
  2
EX_INTEGRAL
  0
BLOCK_RECORD
  5
365
330
1
100
AcDbSymbolTableRecord
100
AcDbBlockTableRecord
  2
*D15
  0
BLOCK_RECORD
  5
371
330
1
100
AcDbSymbolTableRecord
100
AcDbBlockTableRecord
  2
*D16
  0
BLOCK_RECORD
  5
37D
330
1
100
AcDbSymbolTableRecord
100
AcDbBlockTableRecord
  2
*D17
  0
BLOCK_RECORD
  5
38B
330
1
100
AcDbSymbolTableRecord
100
AcDbBlockTableRecord
  2
*D18
  0
BLOCK_RECORD
  5
398
330
1
100
AcDbSymbolTableRecord
100
AcDbBlockTableRecord
  2
*D19
  0
BLOCK_RECORD
  5
3A6
330
1
100
AcDbSymbolTableRecord
100
AcDbBlockTableRecord
  2
*D20
  0
BLOCK_RECORD
  5
3AF
330
1
100
AcDbSymbolTableRecord
100
AcDbBlockTableRecord
  2
*D21
  0
BLOCK_RECORD
  5
3BC
330
1
100
AcDbSymbolTableRecord
100
AcDbBlockTableRecord
  2
*D22
  0
BLOCK_RECORD
  5
3C9
330
1
100
AcDbSymbolTableRecord
100
AcDbBlockTableRecord
  2
*D23
  0
BLOCK_RECORD
  5
3D5
330
1
100
AcDbSymbolTableRecord
100
AcDbBlockTableRecord
  2
*D24
  0
BLOCK_RECORD
  5
3E5
330
1
100
AcDbSymbolTableRecord
100
AcDbBlockTableRecord
  2
*D25
  0
BLOCK_RECORD
  5
3F2
330
1
100
AcDbSymbolTableRecord
100
AcDbBlockTableRecord
  2
*D26
  0
BLOCK_RECORD
  5
3FF
330
1
100
AcDbSymbolTableRecord
100
AcDbBlockTableRecord
  2
*D27
  0
BLOCK_RECORD
  5
40C
330
1
100
AcDbSymbolTableRecord
100
AcDbBlockTableRecord
  2
*D28
  0
ENDTAB
  0
ENDSEC
  0
SECTION
  2
BLOCKS
  0
BLOCK
  5
20
330
1F
100
AcDbEntity
  8
0
100
AcDbBlockBegin
  2
*MODEL_SPACE
 70
     0
 10
0.0
 20
0.0
 30
0.0
  3
*MODEL_SPACE
  1

  0
ENDBLK
  5
21
330
1F
100
AcDbEntity
  8
0
100
AcDbBlockEnd
  0
BLOCK
  5
1C
330
1B
100
AcDbEntity
 67
     1
  8
0
100
AcDbBlockBegin
  2
*PAPER_SPACE
 70
     0
 10
0.0
 20
0.0
 30
0.0
  3
*PAPER_SPACE
  1

  0
ENDBLK
  5
1D
330
1B
100
AcDbEntity
 67
     1
  8
0
100
AcDbBlockEnd
  0
BLOCK
  5
79
330
78
100
AcDbEntity
  8
0
100
AcDbBlockBegin
  2
EX_NORM
 70
     0
 10
0.0
 20
0.0
 30
0.0
  3
EX_NORM
  1

  0
LINE
  5
A2
330
78
100
AcDbEntity
  8
0
  6
CONTINUOUS
 62
     0
100
AcDbLine
 10
0.0
 20
0.0
 30
0.0
 11
-1.0
 21
0.0
 31
0.0
  0
LINE
  5
A3
330
78
100
AcDbEntity
  8
0
  6
CONTINUOUS
 62
     0
100
AcDbLine
 10
0.0
 20
0.0
 30
0.0
 11
-1.0
 21
0.166666667
 31
0.0
  0
LINE
  5
A4
330
78
100
AcDbEntity
  8
0
  6
CONTINUOUS
 62
     0
100
AcDbLine
 10
0.0
 20
0.0
 30
0.0
 11
-1.0
 21
-0.166666667
 31
0.0
  0
ENDBLK
  5
7A
330
78
100
AcDbEntity
  8
0
100
AcDbBlockEnd
  0
BLOCK
  5
7C
330
7B
100
AcDbEntity
  8
0
100
AcDbBlockBegin
  2
EX_BNORM
 70
     0
 10
0.0
 20
0.0
 30
0.0
  3
EX_BNORM
  1

  0
LINE
  5
A5
330
7B
100
AcDbEntity
  8
0
  6
CONTINUOUS
 62
     0
100
AcDbLine
 10
0.0
 20
0.0
 30
0.0
 11
-1.0
 21
0.0
 31
0.0
  0
LINE
  5
A6
330
7B
100
AcDbEntity
  8
0
  6
CONTINUOUS
 62
     0
100
AcDbLine
 10
0.0
 20
0.0
 30
0.0
 11
-1.0
 21
0.166666667
 31
0.0
  0
LINE
  5
A7
330
7B
100
AcDbEntity
  8
0
  6
CONTINUOUS
 62
     0
100
AcDbLine
 10
0.0
 20
0.0
 30
0.0
 11
-1.0
 21
-0.166666667
 31
0.0
  0
LINE
  5
A8
330
7B
100
AcDbEntity
  8
0
  6
CONTINUOUS
 62
     0
100
AcDbLine
 10
0.0
 20
0.0
 30
0.0
 11
-1.0
 21
0.083333333
 31
0.0
  0
LINE
  5
A9
330
7B
100
AcDbEntity
  8
0
  6
CONTINUOUS
 62
     0
100
AcDbLine
 10
0.0
 20
0.0
 30
0.0
 11
-1.0
 21
-0.083333333
 31
0.0
  0
LINE
  5
AA
330
7B
100
AcDbEntity
  8
0
  6
CONTINUOUS
 62
     0
100
AcDbLine
 10
-1.0
 20
0.166666667
 30
0.0
 11
-1.0
 21
-0.166666667
 31
0.0
  0
ENDBLK
  5
7D
330
7B
100
AcDbEntity
  8
0
100
AcDbBlockEnd
  0
BLOCK
  5
7F
330
7E
100
AcDbEntity
  8
0
100
AcDbBlockBegin
  2
EX_BCIR
 70
     0
 10
0.0
 20
0.0
 30
0.0
  3
EX_BCIR
  1

  0
LINE
  5
AB
330
7E
100
AcDbEntity
  8
0
  6
CONTINUOUS
 62
     0
100
AcDbLine
 10
0.0
 20
0.0
 30
0.0
 11
-1.0
 21
0.0
 31
0.0
  0
CIRCLE
  5
AC
330
7E
100
AcDbEntity
  8
0
  6
CONTINUOUS
 62
     0
100
AcDbCircle
 10
0.0
 20
0.0
 30
0.0
 40
0.5
  0
CIRCLE
  5
AD
330
7E
100
AcDbEntity
  8
0
  6
CONTINUOUS
 62
     0
100
AcDbCircle
 10
0.0
 20
0.0
 30
0.0
 40
0.25
  0
ENDBLK
  5
80
330
7E
100
AcDbEntity
  8
0
100
AcDbBlockEnd
  0
BLOCK
  5
82
330
81
100
AcDbEntity
  8
0
100
AcDbBlockBegin
  2
EX_RCIVIL
 70
     0
 10
0.0
 20
0.0
 30
0.0
  3
EX_RCIVIL
  1

  0
LINE
  5
AE
330
81
100
AcDbEntity
  8
0
  6
CONTINUOUS
 62
     0
100
AcDbLine
 10
0.0
 20
0.0
 30
0.0
 11
-1.0
 21
0.0
 31
0.0
  0
LINE
  5
AF
330
81
100
AcDbEntity
  8
0
  6
CONTINUOUS
 62
     0
100
AcDbLine
 10
-1.0
 20
-0.25
 30
0.0
 11
0.0
 21
-0.25
 31
0.0
  0
LINE
  5
B0
330
81
100
AcDbEntity
  8
0
  6
CONTINUOUS
 62
     0
100
AcDbLine
 10
-1.0
 20
-0.125
 30
0.0
 11
0.0
 21
-0.125
 31
0.0
  0
ENDBLK
  5
83
330
81
100
AcDbEntity
  8
0
100
AcDbBlockEnd
  0
BLOCK
  5
85
330
84
100
AcDbEntity
  8
0
100
AcDbBlockBegin
  2
EX_SLANT
 70
     0
 10
0.0
 20
0.0
 30
0.0
  3
EX_SLANT
  1

  0
LINE
  5
B1
330
84
100
AcDbEntity
  8
0
  6
CONTINUOUS
 62
     0
100
AcDbLine
 10
0.0
 20
0.0
 30
0.0
 11
-1.0
 21
0.0
 31
0.0
  0
LINE
  5
B2
330
84
100
AcDbEntity
  8
0
  6
CONTINUOUS
 62
     0
100
AcDbLine
 10
0.707106781
 20
0.707106781
 30
0.0
 11
-0.707106781
 21
-0.707106781
 31
0.0
  0
ENDBLK
  5
86
330
84
100
AcDbEntity
  8
0
100
AcDbBlockEnd
  0
BLOCK
  5
88
330
87
100
AcDbEntity
  8
0
100
AcDbBlockBegin
  2
EX_NONE
 70
     0
 10
0.0
 20
0.0
 30
0.0
  3
EX_NONE
  1

  0
LINE
  5
B3
330
87
100
AcDbEntity
  8
0
  6
CONTINUOUS
 62
     0
100
AcDbLine
 10
0.0
 20
0.0
 30
0.0
 11
-1.0
 21
0.0
 31
0.0
  0
ENDBLK
  5
89
330
87
100
AcDbEntity
  8
0
100
AcDbBlockEnd
  0
BLOCK
  5
8B
330
8A
100
AcDbEntity
  8
0
100
AcDbBlockBegin
  2
EX_CIVIL
 70
     0
 10
0.0
 20
0.0
 30
0.0
  3
EX_CIVIL
  1

  0
LINE
  5
B4
330
8A
100
AcDbEntity
  8
0
  6
CONTINUOUS
 62
     0
100
AcDbLine
 10
0.0
 20
0.0
 30
0.0
 11
-1.0
 21
0.0
 31
0.0
  0
LINE
  5
B5
330
8A
100
AcDbEntity
  8
0
  6
CONTINUOUS
 62
     0
100
AcDbLine
 10
-1.0
 20
0.25
 30
0.0
 11
0.0
 21
0.25
 31
0.0
  0
LINE
  5
B6
330
8A
100
AcDbEntity
  8
0
  6
CONTINUOUS
 62
     0
100
AcDbLine
 10
-1.0
 20
0.125
 30
0.0
 11
0.0
 21
0.125
 31
0.0
  0
ENDBLK
  5
8C
330
8A
100
AcDbEntity
  8
0
100
AcDbBlockEnd
  0
BLOCK
  5
8E
330
8D
100
AcDbEntity
  8
0
100
AcDbBlockBegin
  2
EX_WCIR
 70
     0
 10
0.0
 20
0.0
 30
0.0
  3
EX_WCIR
  1

  0
LINE
  5
B7
330
8D
100
AcDbEntity
  8
0
  6
CONTINUOUS
 62
     0
100
AcDbLine
 10
0.0
 20
0.0
 30
0.0
 11
-1.0
 21
0.0
 31
0.0
  0
CIRCLE
  5
B8
330
8D
100
AcDbEntity
  8
0
  6
CONTINUOUS
 62
     0
100
AcDbCircle
 10
0.0
 20
0.0
 30
0.0
 40
0.5
  0
ENDBLK
  5
8F
330
8D
100
AcDbEntity
  8
0
100
AcDbBlockEnd
  0
BLOCK
  5
91
330
90
100
AcDbEntity
  8
0
100
AcDbBlockBegin
  2
EX_WCIR2
 70
     0
 10
0.0
 20
0.0
 30
0.0
  3
EX_WCIR2
  1

  0
LINE
  5
B9
330
90
100
AcDbEntity
  8
0
  6
CONTINUOUS
 62
     0
100
AcDbLine
 10
-0.5
 20
0.0
 30
0.0
 11
-1.0
 21
0.0
 31
0.0
  0
CIRCLE
  5
BA
330
90
100
AcDbEntity
  8
0
  6
CONTINUOUS
 62
     0
100
AcDbCircle
 10
0.0
 20
0.0
 30
0.0
 40
0.5
  0
ENDBLK
  5
92
330
90
100
AcDbEntity
  8
0
100
AcDbBlockEnd
  0
BLOCK
  5
94
330
93
100
AcDbEntity
  8
0
100
AcDbBlockBegin
  2
EX_WNORM
 70
     0
 10
0.0
 20
0.0
 30
0.0
  3
EX_WNORM
  1

  0
LINE
  5
BB
330
93
100
AcDbEntity
  8
0
  6
CONTINUOUS
 62
     0
100
AcDbLine
 10
-1.0
 20
0.0
 30
0.0
 11
-1.0
 21
0.0
 31
0.0
  0
LINE
  5
BC
330
93
100
AcDbEntity
  8
0
  6
CONTINUOUS
 62
     0
100
AcDbLine
 10
0.0
 20
0.0
 30
0.0
 11
-1.0
 21
0.166666667
 31
0.0
  0
LINE
  5
BD
330
93
100
AcDbEntity
  8
0
  6
CONTINUOUS
 62
     0
100
AcDbLine
 10
0.0
 20
0.0
 30
0.0
 11
-1.0
 21
-0.166666667
 31
0.0
  0
LINE
  5
BE
330
93
100
AcDbEntity
  8
0
  6
CONTINUOUS
 62
     0
100
AcDbLine
 10
-1.0
 20
0.166666667
 30
0.0
 11
-1.0
 21
-0.166666667
 31
0.0
  0
ENDBLK
  5
95
330
93
100
AcDbEntity
  8
0
100
AcDbBlockEnd
  0
BLOCK
  5
97
330
96
100
AcDbEntity
  8
0
100
AcDbBlockBegin
  2
EX_NNORM
 70
     0
 10
0.0
 20
0.0
 30
0.0
  3
EX_NNORM
  1

  0
LINE
  5
BF
330
96
100
AcDbEntity
  8
0
  6
CONTINUOUS
 62
     0
100
AcDbLine
 10
0.0
 20
0.0
 30
0.0
 11
-1.0
 21
0.0
 31
0.0
  0
LINE
  5
C0
330
96
100
AcDbEntity
  8
0
  6
CONTINUOUS
 62
     0
100
AcDbLine
 10
0.0
 20
0.0
 30
0.0
 11
-1.0
 21
0.166666667
 31
0.0
  0
LINE
  5
C1
330
96
100
AcDbEntity
  8
0
  6
CONTINUOUS
 62
     0
100
AcDbLine
 10
0.0
 20
0.0
 30
0.0
 11
-1.0
 21
-0.166666667
 31
0.0
  0
LINE
  5
C2
330
96
100
AcDbEntity
  8
0
  6
CONTINUOUS
 62
     0
100
AcDbLine
 10
-1.0
 20
0.166666667
 30
0.0
 11
-1.0
 21
-0.166666667
 31
0.0
  0
ENDBLK
  5
98
330
96
100
AcDbEntity
  8
0
100
AcDbBlockEnd
  0
BLOCK
  5
9A
330
99
100
AcDbEntity
  8
0
100
AcDbBlockBegin
  2
EX_BBOX
 70
     0
 10
0.0
 20
0.0
 30
0.0
  3
EX_BBOX
  1

  0
LINE
  5
C3
330
99
100
AcDbEntity
  8
0
  6
CONTINUOUS
 62
     0
100
AcDbLine
 10
0.0
 20
0.0
 30
0.0
 11
-1.0
 21
0.0
 31
0.0
  0
LINE
  5
C4
330
99
100
AcDbEntity
  8
0
  6
CONTINUOUS
 62
     0
100
AcDbLine
 10
-0.5
 20
0.5
 30
0.0
 11
0.5
 21
0.5
 31
0.0
  0
LINE
  5
C5
330
99
100
AcDbEntity
  8
0
  6
CONTINUOUS
 62
     0
100
AcDbLine
 10
0.5
 20
0.5
 30
0.0
 11
0.5
 21
-0.5
 31
0.0
  0
LINE
  5
C6
330
99
100
AcDbEntity
  8
0
  6
CONTINUOUS
 62
     0
100
AcDbLine
 10
0.5
 20
-0.5
 30
0.0
 11
-0.5
 21
-0.5
 31
0.0
  0
LINE
  5
C7
330
99
100
AcDbEntity
  8
0
  6
CONTINUOUS
 62
     0
100
AcDbLine
 10
-0.5
 20
-0.5
 30
0.0
 11
-0.5
 21
0.5
 31
0.0
  0
LINE
  5
C8
330
99
100
AcDbEntity
  8
0
  6
CONTINUOUS
 62
     0
100
AcDbLine
 10
-0.25
 20
0.25
 30
0.0
 11
0.25
 21
0.25
 31
0.0
  0
LINE
  5
C9
330
99
100
AcDbEntity
  8
0
  6
CONTINUOUS
 62
     0
100
AcDbLine
 10
0.25
 20
0.25
 30
0.0
 11
0.25
 21
-0.25
 31
0.0
  0
LINE
  5
CA
330
99
100
AcDbEntity
  8
0
  6
CONTINUOUS
 62
     0
100
AcDbLine
 10
0.25
 20
-0.25
 30
0.0
 11
-0.25
 21
-0.25
 31
0.0
  0
LINE
  5
CB
330
99
100
AcDbEntity
  8
0
  6
CONTINUOUS
 62
     0
100
AcDbLine
 10
-0.25
 20
-0.25
 30
0.0
 11
-0.25
 21
0.25
 31
0.0
  0
ENDBLK
  5
9B
330
99
100
AcDbEntity
  8
0
100
AcDbBlockEnd
  0
BLOCK
  5
9D
330
9C
100
AcDbEntity
  8
0
100
AcDbBlockBegin
  2
EX_WBOX
 70
     0
 10
0.0
 20
0.0
 30
0.0
  3
EX_WBOX
  1

  0
LINE
  5
CC
330
9C
100
AcDbEntity
  8
0
  6
CONTINUOUS
 62
     0
100
AcDbLine
 10
-0.5
 20
0.0
 30
0.0
 11
-1.0
 21
0.0
 31
0.0
  0
LINE
  5
CD
330
9C
100
AcDbEntity
  8
0
  6
CONTINUOUS
 62
     0
100
AcDbLine
 10
-0.5
 20
0.5
 30
0.0
 11
0.5
 21
0.5
 31
0.0
  0
LINE
  5
CE
330
9C
100
AcDbEntity
  8
0
  6
CONTINUOUS
 62
     0
100
AcDbLine
 10
0.5
 20
0.5
 30
0.0
 11
0.5
 21
-0.5
 31
0.0
  0
LINE
  5
CF
330
9C
100
AcDbEntity
  8
0
  6
CONTINUOUS
 62
     0
100
AcDbLine
 10
0.5
 20
-0.5
 30
0.0
 11
-0.5
 21
-0.5
 31
0.0
  0
LINE
  5
D0
330
9C
100
AcDbEntity
  8
0
  6
CONTINUOUS
 62
     0
100
AcDbLine
 10
-0.5
 20
-0.5
 30
0.0
 11
-0.5
 21
0.5
 31
0.0
  0
ENDBLK
  5
9E
330
9C
100
AcDbEntity
  8
0
100
AcDbBlockEnd
  0
BLOCK
  5
A0
330
9F
100
AcDbEntity
  8
0
100
AcDbBlockBegin
  2
EX_INTEGRAL
 70
     0
 10
0.0
 20
0.0
 30
0.0
  3
EX_INTEGRAL
  1

  0
LINE
  5
D1
330
9F
100
AcDbEntity
  8
0
  6
CONTINUOUS
 62
     0
100
AcDbLine
 10
0.0
 20
0.0
 30
0.0
 11
-1.0
 21
0.0
 31
0.0
  0
ARC
  5
D2
330
9F
100
AcDbEntity
  8
0
  6
CONTINUOUS
 62
     0
100
AcDbCircle
 10
0.542115
 20
0.164992
 30
0.0
 40
0.56667
100
AcDbArc
 50
73.07249033629006
 51
196.9275130221199
  0
ARC
  5
D3
330
9F
100
AcDbEntity
  8
0
  6
CONTINUOUS
 62
     0
100
AcDbCircle
 10
-0.542115
 20
-0.164992
 30
0.0
 40
0.56667
100
AcDbArc
 50
253.0724869220464
 51
16.9275130559125
  0
ENDBLK
  5
A1
330
9F
100
AcDbEntity
  8
0
100
AcDbBlockEnd
  0
BLOCK
  5
366
330
365
100
AcDbEntity
  8
0
100
AcDbBlockBegin
  2
*D15
 70
     1
 10
0.0
 20
0.0
 30
0.0
  3
*D15
  1

  0
LINE
  5
368
330
365
100
AcDbEntity
  8
LAY-20
  6
CONTINUOUS
 62
     4
100
AcDbLine
 10
308.49999999999
 20
348.0258449990141
 30
0.0
 11
308.49999999999
 21
430.499999999994
 31
0.0
  0
LINE
  5
369
330
365
100
AcDbEntity
  8
LAY-20
  6
CONTINUOUS
 62
     4
100
AcDbLine
 10
315.99999999999
 20
425.999999999994
 30
0.0
 11
350.9999999999901
 21
425.999999999994
 31
0.0
  0
INSERT
  5
36A
330
365
100
AcDbEntity
  8
LAY-20
 62
     4
100
AcDbBlockReference
  2
EX_BNORM
 10
308.49999999999
 20
425.999999999994
 30
0.0
 41
7.5
 42
7.5
 43
7.5
 50
180.0
  0
INSERT
  5
36B
330
365
100
AcDbEntity
  8
LAY-20
 62
     4
100
AcDbBlockReference
  2
EX_BNORM
 10
358.4999999999901
 20
425.999999999994
 30
0.0
 41
7.5
 42
7.5
 43
7.5
  0
MTEXT
  5
36C
330
365
100
AcDbEntity
  8
LAY-20
 62
     7
100
AcDbMText
 10
333.4999999999901
 20
433.499999999994
 30
0.0
 40
9.3543312
 41
0.0
 71
     5
 72
     1
  1
50
  7
EXCADDIM1
  0
POINT
  5
36D
330
365
100
AcDbEntity
  8
DEFPOINTS
 62
     0
100
AcDbPoint
 10
308.49999999999
 20
343.5258449990141
 30
0.0
  0
POINT
  5
36E
330
365
100
AcDbEntity
  8
DEFPOINTS
 62
     0
100
AcDbPoint
 10
358.4999999999901
 20
425.999999999994
 30
0.0
  0
POINT
  5
36F
330
365
100
AcDbEntity
  8
DEFPOINTS
 62
     0
100
AcDbPoint
 10
358.4999999999901
 20
425.999999999994
 30
0.0
  0
ENDBLK
  5
367
330
365
100
AcDbEntity
  8
0
100
AcDbBlockEnd
  0
BLOCK
  5
372
330
371
100
AcDbEntity
  8
0
100
AcDbBlockBegin
  2
*D16
 70
     1
 10
0.0
 20
0.0
 30
0.0
  3
*D16
  1

  0
LINE
  5
374
330
371
100
AcDbEntity
  8
LAY-20
  6
CONTINUOUS
 62
     4
100
AcDbLine
 10
441.49999999999
 20
284.4999999999941
 30
0.0
 11
441.49999999999
 21
409.499999999994
 31
0.0
  0
LINE
  5
375
330
371
100
AcDbEntity
  8
LAY-20
  6
CONTINUOUS
 62
     4
100
AcDbLine
 10
365.9999999999901
 20
404.999999999994
 30
0.0
 11
433.99999999999
 21
404.999999999994
 31
0.0
  0
INSERT
  5
376
330
371
100
AcDbEntity
  8
LAY-20
 62
     4
100
AcDbBlockReference
  2
EX_BNORM
 10
358.4999999999901
 20
404.999999999994
 30
0.0
 41
7.5
 42
7.5
 43
7.5
 50
180.0
  0
INSERT
  5
377
330
371
100
AcDbEntity
  8
LAY-20
 62
     4
100
AcDbBlockReference
  2
EX_BNORM
 10
441.49999999999
 20
404.999999999994
 30
0.0
 41
7.5
 42
7.5
 43
7.5
  0
MTEXT
  5
378
330
371
100
AcDbEntity
  8
LAY-20
 62
     7
100
AcDbMText
 10
399.9999999999901
 20
412.499999999994
 30
0.0
 40
9.3543312
 41
0.0
 71
     5
 72
     1
  1
83
  7
EXCADDIM1
  0
POINT
  5
379
330
371
100
AcDbEntity
  8
DEFPOINTS
 62
     0
100
AcDbPoint
 10
358.4999999999901
 20
404.999999999994
 30
0.0
  0
POINT
  5
37A
330
371
100
AcDbEntity
  8
DEFPOINTS
 62
     0
100
AcDbPoint
 10
441.49999999999
 20
279.9999999999941
 30
0.0
  0
POINT
  5
37B
330
371
100
AcDbEntity
  8
DEFPOINTS
 62
     0
100
AcDbPoint
 10
441.49999999999
 20
404.999999999994
 30
0.0
  0
ENDBLK
  5
373
330
371
100
AcDbEntity
  8
0
100
AcDbBlockEnd
  0
BLOCK
  5
37E
330
37D
100
AcDbEntity
  8
0
100
AcDbBlockBegin
  2
*D17
 70
     1
 10
0.0
 20
0.0
 30
0.0
  3
*D17
  1

  0
LINE
  5
380
330
37D
100
AcDbEntity
  8
LAY-20
  6
CONTINUOUS
 62
     4
100
AcDbLine
 10
353.9999999999901
 20
379.499999999994
 30
0.0
 11
353.9999999999901
 21
409.499999999994
 31
0.0
  0
LINE
  5
381
330
37D
100
AcDbEntity
  8
LAY-20
  6
CONTINUOUS
 62
     4
100
AcDbLine
 10
353.9999999999901
 20
404.999999999994
 30
0.0
 11
358.4999999999901
 21
404.999999999994
 31
0.0
  0
LINE
  5
382
330
37D
100
AcDbEntity
  8
LAY-20
  6
CONTINUOUS
 62
     4
100
AcDbLine
 10
346.4999999999901
 20
404.999999999994
 30
0.0
 11
338.9999999999901
 21
404.999999999994
 31
0.0
  0
LINE
  5
383
330
37D
100
AcDbEntity
  8
LAY-20
  6
CONTINUOUS
 62
     4
100
AcDbLine
 10
365.9999999999901
 20
404.999999999994
 30
0.0
 11
373.4999999999901
 21
404.999999999994
 31
0.0
  0
INSERT
  5
384
330
37D
100
AcDbEntity
  8
LAY-20
 62
     4
100
AcDbBlockReference
  2
EX_BNORM
 10
353.9999999999901
 20
404.999999999994
 30
0.0
 41
7.5
 42
7.5
 43
7.5
  0
INSERT
  5
385
330
37D
100
AcDbEntity
  8
LAY-20
 62
     4
100
AcDbBlockReference
  2
EX_BNORM
 10
358.4999999999901
 20
404.999999999994
 30
0.0
 41
7.5
 42
7.5
 43
7.5
 50
180.0
  0
MTEXT
  5
386
330
37D
100
AcDbEntity
  8
LAY-20
 62
     7
100
AcDbMText
 10
334.4999999999901
 20
412.499999999994
 30
0.0
 40
9.3543312
 41
0.0
 71
     5
 72
     1
  1
4.5
  7
EXCADDIM1
  0
POINT
  5
387
330
37D
100
AcDbEntity
  8
DEFPOINTS
 62
     0
100
AcDbPoint
 10
353.9999999999901
 20
374.999999999994
 30
0.0
  0
POINT
  5
388
330
37D
100
AcDbEntity
  8
DEFPOINTS
 62
     0
100
AcDbPoint
 10
358.4999999999901
 20
404.999999999994
 30
0.0
  0
POINT
  5
389
330
37D
100
AcDbEntity
  8
DEFPOINTS
 62
     0
100
AcDbPoint
 10
358.4999999999901
 20
404.999999999994
 30
0.0
  0
ENDBLK
  5
37F
330
37D
100
AcDbEntity
  8
0
100
AcDbBlockEnd
  0
BLOCK
  5
38C
330
38B
100
AcDbEntity
  8
0
100
AcDbBlockBegin
  2
*D18
 70
     1
 10
0.0
 20
0.0
 30
0.0
  3
*D18
  1

  0
LINE
  5
38E
330
38B
100
AcDbEntity
  8
LAY-20
  6
CONTINUOUS
 62
     4
100
AcDbLine
 10
374.9999999999901
 20
356.199999999994
 30
0.0
 11
520.5
 21
356.199999999994
 31
0.0
  0
LINE
  5
38F
330
38B
100
AcDbEntity
  8
LAY-20
  6
CONTINUOUS
 62
     4
100
AcDbLine
 10
453.99999999999
 20
281.199999999994
 30
0.0
 11
520.5
 21
281.199999999994
 31
0.0
  0
LINE
  5
390
330
38B
100
AcDbEntity
  8
LAY-20
  6
CONTINUOUS
 62
     4
100
AcDbLine
 10
516.0
 20
348.699999999994
 30
0.0
 11
516.0
 21
288.699999999994
 31
0.0
  0
INSERT
  5
391
330
38B
100
AcDbEntity
  8
LAY-20
 62
     4
100
AcDbBlockReference
  2
EX_BNORM
 10
516.0
 20
356.199999999994
 30
0.0
 41
7.5
 42
7.5
 43
7.5
 50
90.0
  0
INSERT
  5
392
330
38B
100
AcDbEntity
  8
LAY-20
 62
     4
100
AcDbBlockReference
  2
EX_BNORM
 10
516.0
 20
281.199999999994
 30
0.0
 41
7.5
 42
7.5
 43
7.5
 50
270.0
  0
MTEXT
  5
393
330
38B
100
AcDbEntity
  8
LAY-20
 62
     7
100
AcDbMText
 10
508.5
 20
318.699999999994
 30
0.0
 40
9.3543312
 41
0.0
 71
     5
 72
     1
  1
75
  7
EXCADDIM1
 11
0.0
 21
1.0
 31
0.0
  0
POINT
  5
394
330
38B
100
AcDbEntity
  8
DEFPOINTS
 62
     0
100
AcDbPoint
 10
370.4999999999901
 20
356.199999999994
 30
0.0
  0
POINT
  5
395
330
38B
100
AcDbEntity
  8
DEFPOINTS
 62
     0
100
AcDbPoint
 10
449.49999999999
 20
281.199999999994
 30
0.0
  0
POINT
  5
396
330
38B
100
AcDbEntity
  8
DEFPOINTS
 62
     0
100
AcDbPoint
 10
516.0
 20
281.199999999994
 30
0.0
  0
ENDBLK
  5
38D
330
38B
100
AcDbEntity
  8
0
100
AcDbBlockEnd
  0
BLOCK
  5
399
330
398
100
AcDbEntity
  8
0
100
AcDbBlockBegin
  2
*D19
 70
     1
 10
0.0
 20
0.0
 30
0.0
  3
*D19
  1

  0
LINE
  5
39B
330
398
100
AcDbEntity
  8
LAY-20
  6
CONTINUOUS
 62
     4
100
AcDbLine
 10
469.4999999999901
 20
267.699999999994
 30
0.0
 11
520.5
 21
267.699999999994
 31
0.0
  0
LINE
  5
39C
330
398
100
AcDbEntity
  8
LAY-20
  6
CONTINUOUS
 62
     4
100
AcDbLine
 10
516.0
 20
267.699999999994
 30
0.0
 11
516.0
 21
272.199999999994
 31
0.0
  0
LINE
  5
39D
330
398
100
AcDbEntity
  8
LAY-20
  6
CONTINUOUS
 62
     4
100
AcDbLine
 10
516.0
 20
260.199999999994
 30
0.0
 11
516.0
 21
252.699999999994
 31
0.0
  0
LINE
  5
39E
330
398
100
AcDbEntity
  8
LAY-20
  6
CONTINUOUS
 62
     4
100
AcDbLine
 10
516.0
 20
279.699999999994
 30
0.0
 11
516.0
 21
287.199999999994
 31
0.0
  0
INSERT
  5
39F
330
398
100
AcDbEntity
  8
LAY-20
 62
     4
100
AcDbBlockReference
  2
EX_BNORM
 10
516.0
 20
267.699999999994
 30
0.0
 41
7.5
 42
7.5
 43
7.5
 50
90.0
  0
INSERT
  5
3A0
330
398
100
AcDbEntity
  8
LAY-20
 62
     4
100
AcDbBlockReference
  2
EX_BCIR
 10
516.0
 20
272.199999999994
 30
0.0
 41
7.5
 42
7.5
 43
7.5
 50
270.0
  0
MTEXT
  5
3A1
330
398
100
AcDbEntity
  8
LAY-20
 62
     7
100
AcDbMText
 10
508.5
 20
243.293208228334
 30
0.0
 40
9.3543312
 41
0.0
 71
     5
 72
     1
  1
4.5
  7
EXCADDIM1
 11
0.0
 21
1.0
 31
0.0
  0
POINT
  5
3A2
330
398
100
AcDbEntity
  8
DEFPOINTS
 62
     0
100
AcDbPoint
 10
464.9999999999901
 20
267.699999999994
 30
0.0
  0
POINT
  5
3A3
330
398
100
AcDbEntity
  8
DEFPOINTS
 62
     0
100
AcDbPoint
 10
494.9999999999901
 20
272.199999999994
 30
0.0
  0
POINT
  5
3A4
330
398
100
AcDbEntity
  8
DEFPOINTS
 62
     0
100
AcDbPoint
 10
516.0
 20
272.199999999994
 30
0.0
  0
ENDBLK
  5
39A
330
398
100
AcDbEntity
  8
0
100
AcDbBlockEnd
  0
BLOCK
  5
3A7
330
3A6
100
AcDbEntity
  8
0
100
AcDbBlockBegin
  2
*D20
 70
     1
 10
0.0
 20
0.0
 30
0.0
  3
*D20
  1

  0
LINE
  5
3A9
330
3A6
100
AcDbEntity
  8
LAY-20
  6
CONTINUOUS
 62
     4
100
AcDbLine
 10
516.0
 20
272.199999999994
 30
0.0
 11
516.0
 21
281.199999999994
 31
0.0
  0
MTEXT
  5
3AA
330
3A6
100
AcDbEntity
  8
LAY-20
 62
     7
100
AcDbMText
 10
508.5
 20
276.699999999994
 30
0.0
 40
9.3543312
 41
0.0
 71
     5
 72
     1
  1
9
  7
EXCADDIM1
 11
0.0
 21
1.0
 31
0.0
  0
POINT
  5
3AB
330
3A6
100
AcDbEntity
  8
DEFPOINTS
 62
     0
100
AcDbPoint
 10
494.9999999999901
 20
272.199999999994
 30
0.0
  0
POINT
  5
3AC
330
3A6
100
AcDbEntity
  8
DEFPOINTS
 62
     0
100
AcDbPoint
 10
494.9999999999901
 20
281.199999999994
 30
0.0
  0
POINT
  5
3AD
330
3A6
100
AcDbEntity
  8
DEFPOINTS
 62
     0
100
AcDbPoint
 10
516.0
 20
281.199999999994
 30
0.0
  0
ENDBLK
  5
3A8
330
3A6
100
AcDbEntity
  8
0
100
AcDbBlockEnd
  0
BLOCK
  5
3B0
330
3AF
100
AcDbEntity
  8
0
100
AcDbBlockBegin
  2
*D21
 70
     1
 10
0.0
 20
0.0
 30
0.0
  3
*D21
  1

  0
LINE
  5
3B2
330
3AF
100
AcDbEntity
  8
LAY-20
  6
CONTINUOUS
 62
     4
100
AcDbLine
 10
591.9999999999941
 20
364.499999999994
 30
0.0
 11
591.9999999999941
 21
430.499999999994
 31
0.0
  0
LINE
  5
3B3
330
3AF
100
AcDbEntity
  8
LAY-20
  6
CONTINUOUS
 62
     4
100
AcDbLine
 10
757.9999999999951
 20
364.499999999994
 30
0.0
 11
757.9999999999951
 21
430.499999999994
 31
0.0
  0
LINE
  5
3B4
330
3AF
100
AcDbEntity
  8
LAY-20
  6
CONTINUOUS
 62
     4
100
AcDbLine
 10
599.4999999999941
 20
425.999999999994
 30
0.0
 11
750.4999999999951
 21
425.999999999994
 31
0.0
  0
INSERT
  5
3B5
330
3AF
100
AcDbEntity
  8
LAY-20
 62
     4
100
AcDbBlockReference
  2
EX_BNORM
 10
591.9999999999941
 20
425.999999999994
 30
0.0
 41
7.5
 42
7.5
 43
7.5
 50
180.0
  0
INSERT
  5
3B6
330
3AF
100
AcDbEntity
  8
LAY-20
 62
     4
100
AcDbBlockReference
  2
EX_BNORM
 10
757.9999999999951
 20
425.999999999994
 30
0.0
 41
7.5
 42
7.5
 43
7.5
  0
MTEXT
  5
3B7
330
3AF
100
AcDbEntity
  8
LAY-20
 62
     7
100
AcDbMText
 10
674.9999999999945
 20
433.499999999994
 30
0.0
 40
9.3543312
 41
0.0
 71
     5
 72
     1
  1
166
  7
EXCADDIM1
  0
POINT
  5
3B8
330
3AF
100
AcDbEntity
  8
DEFPOINTS
 62
     0
100
AcDbPoint
 10
591.9999999999941
 20
359.999999999994
 30
0.0
  0
POINT
  5
3B9
330
3AF
100
AcDbEntity
  8
DEFPOINTS
 62
     0
100
AcDbPoint
 10
757.9999999999951
 20
359.999999999994
 30
0.0
  0
POINT
  5
3BA
330
3AF
100
AcDbEntity
  8
DEFPOINTS
 62
     0
100
AcDbPoint
 10
757.9999999999951
 20
425.999999999994
 30
0.0
  0
ENDBLK
  5
3B1
330
3AF
100
AcDbEntity
  8
0
100
AcDbBlockEnd
  0
BLOCK
  5
3BD
330
3BC
100
AcDbEntity
  8
0
100
AcDbBlockBegin
  2
*D22
 70
     1
 10
0.0
 20
0.0
 30
0.0
  3
*D22
  1

  0
LINE
  5
3BF
330
3BC
100
AcDbEntity
  8
LAY-20
  6
CONTINUOUS
 62
     4
100
AcDbLine
 10
736.9999999999978
 20
356.4999999999989
 30
0.0
 11
736.9999999999978
 21
409.499999999994
 31
0.0
  0
LINE
  5
3C0
330
3BC
100
AcDbEntity
  8
LAY-20
  6
CONTINUOUS
 62
     4
100
AcDbLine
 10
612.9999999999977
 20
356.4999999999989
 30
0.0
 11
612.9999999999977
 21
409.499999999994
 31
0.0
  0
LINE
  5
3C1
330
3BC
100
AcDbEntity
  8
LAY-20
  6
CONTINUOUS
 62
     4
100
AcDbLine
 10
729.4999999999978
 20
404.999999999994
 30
0.0
 11
620.4999999999977
 21
404.999999999994
 31
0.0
  0
INSERT
  5
3C2
330
3BC
100
AcDbEntity
  8
LAY-20
 62
     4
100
AcDbBlockReference
  2
EX_BNORM
 10
736.9999999999978
 20
404.999999999994
 30
0.0
 41
7.5
 42
7.5
 43
7.5
  0
INSERT
  5
3C3
330
3BC
100
AcDbEntity
  8
LAY-20
 62
     4
100
AcDbBlockReference
  2
EX_BNORM
 10
612.9999999999977
 20
404.999999999994
 30
0.0
 41
7.5
 42
7.5
 43
7.5
 50
180.0
  0
MTEXT
  5
3C4
330
3BC
100
AcDbEntity
  8
LAY-20
 62
     7
100
AcDbMText
 10
674.9999999999978
 20
412.499999999994
 30
0.0
 40
9.3543312
 41
0.0
 71
     5
 72
     1
  1
124
  7
EXCADDIM1
  0
POINT
  5
3C5
330
3BC
100
AcDbEntity
  8
DEFPOINTS
 62
     0
100
AcDbPoint
 10
736.9999999999978
 20
351.9999999999989
 30
0.0
  0
POINT
  5
3C6
330
3BC
100
AcDbEntity
  8
DEFPOINTS
 62
     0
100
AcDbPoint
 10
612.9999999999977
 20
351.9999999999989
 30
0.0
  0
POINT
  5
3C7
330
3BC
100
AcDbEntity
  8
DEFPOINTS
 62
     0
100
AcDbPoint
 10
612.9999999999977
 20
404.999999999994
 30
0.0
  0
ENDBLK
  5
3BE
330
3BC
100
AcDbEntity
  8
0
100
AcDbBlockEnd
  0
BLOCK
  5
3CA
330
3C9
100
AcDbEntity
  8
0
100
AcDbBlockBegin
  2
*D23
 70
     1
 10
0.0
 20
0.0
 30
0.0
  3
*D23
  1

  0
LINE
  5
3CC
330
3C9
100
AcDbEntity
  8
LAY-20
  6
CONTINUOUS
 62
     4
100
AcDbLine
 10
363.0
 20
299.02584499902
 30
0.0
 11
499.5
 21
299.02584499902
 31
0.0
  0
LINE
  5
3CD
330
3C9
100
AcDbEntity
  8
LAY-20
  6
CONTINUOUS
 62
     4
100
AcDbLine
 10
495.0
 20
291.52584499902
 30
0.0
 11
495.0
 21
279.69999999999
 31
0.0
  0
INSERT
  5
3CE
330
3C9
100
AcDbEntity
  8
LAY-20
 62
     4
100
AcDbBlockReference
  2
EX_BNORM
 10
495.0
 20
299.02584499902
 30
0.0
 41
7.5
 42
7.5
 43
7.5
 50
90.0
  0
INSERT
  5
3CF
330
3C9
100
AcDbEntity
  8
LAY-20
 62
     4
100
AcDbBlockReference
  2
EX_BNORM
 10
495.0
 20
272.19999999999
 30
0.0
 41
7.5
 42
7.5
 43
7.5
 50
270.0
  0
MTEXT
  5
3D0
330
3C9
100
AcDbEntity
  8
LAY-20
 62
     7
100
AcDbMText
 10
487.5
 20
285.612922499505
 30
0.0
 40
9.3543312
 41
0.0
 71
     5
 72
     1
  1
27
  7
EXCADDIM1
 11
0.0
 21
1.0
 31
0.0
  0
POINT
  5
3D1
330
3C9
100
AcDbEntity
  8
DEFPOINTS
 62
     0
100
AcDbPoint
 10
358.5
 20
299.02584499902
 30
0.0
  0
POINT
  5
3D2
330
3C9
100
AcDbEntity
  8
DEFPOINTS
 62
     0
100
AcDbPoint
 10
495.0
 20
272.19999999999
 30
0.0
  0
POINT
  5
3D3
330
3C9
100
AcDbEntity
  8
DEFPOINTS
 62
     0
100
AcDbPoint
 10
495.0
 20
272.19999999999
 30
0.0
  0
ENDBLK
  5
3CB
330
3C9
100
AcDbEntity
  8
0
100
AcDbBlockEnd
  0
BLOCK
  5
3D6
330
3D5
100
AcDbEntity
  8
0
100
AcDbBlockBegin
  2
*D24
 70
     1
 10
0.0
 20
0.0
 30
0.0
  3
*D24
  1

  0
LINE
  5
3D8
330
3D5
100
AcDbEntity
  8
LAY-20
  6
CONTINUOUS
 62
     4
100
AcDbLine
 10
303.99999999999
 20
299.0258449990092
 30
0.0
 11
273.6835540855195
 21
299.0258449990031
 31
0.0
  0
LINE
  5
3D9
330
3D5
100
AcDbEntity
  8
LAY-20
  6
CONTINUOUS
 62
     4
100
AcDbLine
 10
304.0009381966561
 20
297.9128002456829
 30
0.0
 11
273.7012373092499
 21
297.2939836645442
 31
0.0
  0
ARC
  5
3DA
330
3D5
100
AcDbEntity
  8
LAY-20
  6
CONTINUOUS
 62
     4
100
AcDbCircle
 10
358.5
 20
299.02584499902
 30
0.0
 40
80.31644591448051
100
AcDbArc
 50
169.295476791484
 51
174.6477383957363
  0
ARC
  5
3DB
330
3D5
100
AcDbEntity
  8
LAY-20
  6
CONTINUOUS
 62
     4
100
AcDbCircle
 10
358.5
 20
299.02584499902
 30
0.0
 40
80.31644591448051
100
AcDbArc
 50
186.5222616042585
 51
191.8745232085108
  0
ARC
  5
3DC
330
3D5
100
AcDbEntity
  8
LAY-20
  6
CONTINUOUS
 62
     4
100
AcDbCircle
 10
358.5
 20
299.02584499902
 30
0.0
 40
80.31644591448051
100
AcDbArc
 50
179.9999999999886
 51
181.1700000000062
  0
INSERT
  5
3DD
330
3D5
100
AcDbEntity
  8
LAY-20
 62
     4
100
AcDbBlockReference
  2
EX_BNORM
 10
278.1835540855195
 20
299.025844999004
 30
0.0
 41
7.5
 42
7.5
 43
7.5
 50
267.3238691978853
  0
INSERT
  5
3DE
330
3D5
100
AcDbEntity
  8
LAY-20
 62
     4
100
AcDbBlockReference
  2
EX_BNORM
 10
278.2002991125838
 20
297.3858688634713
 30
0.0
 41
7.5
 42
7.5
 43
7.5
 50
93.84613080213241
  0
MTEXT
  5
3DF
330
3D5
100
AcDbEntity
  8
LAY-20
 62
     7
100
AcDbMText
 10
275.0725585521041
 20
326.4409902021513
 30
0.0
 40
9.3543312
 41
0.0
 71
     5
 72
     1
  1
1%%d10'
  7
EXCADDIM1
 11
0.3121869134834873
 21
0.9500207003269211
 31
0.0
  0
POINT
  5
3E0
330
3D5
100
AcDbEntity
  8
DEFPOINTS
 62
     0
100
AcDbPoint
 10
358.5
 20
299.02584499902
 30
0.0
  0
POINT
  5
3E1
330
3D5
100
AcDbEntity
  8
DEFPOINTS
 62
     0
100
AcDbPoint
 10
304.06249999999
 20
299.0258449990092
 30
0.0
  0
POINT
  5
3E2
330
3D5
100
AcDbEntity
  8
DEFPOINTS
 62
     0
100
AcDbPoint
 10
304.0634251661468
 20
297.9140764290013
 30
0.0
  0
POINT
  5
3E3
330
3D5
100
AcDbEntity
  8
DEFPOINTS
 62
     0
100
AcDbPoint
 10
278.1909964634458
 20
297.9324853603852
 30
0.0
  0
ENDBLK
  5
3D7
330
3D5
100
AcDbEntity
  8
0
100
AcDbBlockEnd
  0
BLOCK
  5
3E6
330
3E5
100
AcDbEntity
  8
0
100
AcDbBlockBegin
  2
*D25
 70
     1
 10
0.0
 20
0.0
 30
0.0
  3
*D25
  1

  0
LINE
  5
3E8
330
3E5
100
AcDbEntity
  8
LAY-20
  6
CONTINUOUS
 62
     4
100
AcDbLine
 10
313.58750919768
 20
335.75832333951
 30
0.0
 11
251.4
 21
335.75832333951
 31
0.0
  0
LINE
  5
3E9
330
3E5
100
AcDbEntity
  8
LAY-20
  6
CONTINUOUS
 62
     4
100
AcDbLine
 10
315.1209710731
 20
260.67398079943
 30
0.0
 11
251.4
 21
260.67398079943
 31
0.0
  0
LINE
  5
3EA
330
3E5
100
AcDbEntity
  8
LAY-20
  6
CONTINUOUS
 62
     4
100
AcDbLine
 10
255.9
 20
326.75832333951
 30
0.0
 11
255.9
 21
269.67398079943
 31
0.0
  0
INSERT
  5
3EB
330
3E5
100
AcDbEntity
  8
LAY-20
 62
     4
100
AcDbBlockReference
  2
EX_BNORM
 10
255.9
 20
335.75832333951
 30
0.0
 41
9.0
 42
9.0
 43
9.0
 50
90.0
  0
INSERT
  5
3EC
330
3E5
100
AcDbEntity
  8
LAY-20
 62
     4
100
AcDbBlockReference
  2
EX_BNORM
 10
255.9
 20
260.67398079943
 30
0.0
 41
9.0
 42
9.0
 43
9.0
 50
270.0
  0
MTEXT
  5
3ED
330
3E5
100
AcDbEntity
  8
LAY-20
 62
     7
100
AcDbMText
 10
248.4
 20
298.21615206947
 30
0.0
 40
9.3543312
 41
0.0
 71
     5
 72
     1
  1
Rｃ21/2(75.1)
  7
EXCADDIM1
 11
0.0
 21
1.0
 31
0.0
  0
POINT
  5
3EE
330
3E5
100
AcDbEntity
  8
DEFPOINTS
 62
     0
100
AcDbPoint
 10
318.08750919768
 20
335.75832333951
 30
0.0
  0
POINT
  5
3EF
330
3E5
100
AcDbEntity
  8
DEFPOINTS
 62
     0
100
AcDbPoint
 10
319.6209710731
 20
260.67398079943
 30
0.0
  0
POINT
  5
3F0
330
3E5
100
AcDbEntity
  8
DEFPOINTS
 62
     0
100
AcDbPoint
 10
255.9
 20
260.67398079943
 30
0.0
  0
ENDBLK
  5
3E7
330
3E5
100
AcDbEntity
  8
0
100
AcDbBlockEnd
  0
BLOCK
  5
3F3
330
3F2
100
AcDbEntity
  8
0
100
AcDbBlockBegin
  2
*D26
 70
     1
 10
0.0
 20
0.0
 30
0.0
  3
*D26
  1

  0
LINE
  5
3F5
330
3F2
100
AcDbEntity
  8
LAY-20
  6
CONTINUOUS
 62
     4
100
AcDbLine
 10
358.5
 20
379.49999999999
 30
0.0
 11
358.5
 21
430.4999999999899
 31
0.0
  0
LINE
  5
3F6
330
3F2
100
AcDbEntity
  8
LAY-20
  6
CONTINUOUS
 62
     4
100
AcDbLine
 10
464.9999999999899
 20
276.69999999999
 30
0.0
 11
464.9999999999899
 21
430.4999999999899
 31
0.0
  0
LINE
  5
3F7
330
3F2
100
AcDbEntity
  8
LAY-20
  6
CONTINUOUS
 62
     4
100
AcDbLine
 10
367.5
 20
425.9999999999899
 30
0.0
 11
455.9999999999899
 21
425.9999999999899
 31
0.0
  0
INSERT
  5
3F8
330
3F2
100
AcDbEntity
  8
LAY-20
 62
     4
100
AcDbBlockReference
  2
EX_BNORM
 10
358.5
 20
425.9999999999899
 30
0.0
 41
9.0
 42
9.0
 43
9.0
 50
180.0
  0
INSERT
  5
3F9
330
3F2
100
AcDbEntity
  8
LAY-20
 62
     4
100
AcDbBlockReference
  2
EX_BNORM
 10
464.9999999999899
 20
425.9999999999899
 30
0.0
 41
9.0
 42
9.0
 43
9.0
  0
MTEXT
  5
3FA
330
3F2
100
AcDbEntity
  8
LAY-20
 62
     7
100
AcDbMText
 10
411.749999999995
 20
433.4999999999899
 30
0.0
 40
9.3543312
 41
0.0
 71
     5
 72
     1
  1
106.5
  7
EXCADDIM1
  0
POINT
  5
3FB
330
3F2
100
AcDbEntity
  8
DEFPOINTS
 62
     0
100
AcDbPoint
 10
358.5
 20
374.99999999999
 30
0.0
  0
POINT
  5
3FC
330
3F2
100
AcDbEntity
  8
DEFPOINTS
 62
     0
100
AcDbPoint
 10
464.9999999999899
 20
272.19999999999
 30
0.0
  0
POINT
  5
3FD
330
3F2
100
AcDbEntity
  8
DEFPOINTS
 62
     0
100
AcDbPoint
 10
464.9999999999899
 20
425.9999999999899
 30
0.0
  0
ENDBLK
  5
3F4
330
3F2
100
AcDbEntity
  8
0
100
AcDbBlockEnd
  0
BLOCK
  5
400
330
3FF
100
AcDbEntity
  8
0
100
AcDbBlockBegin
  2
*D27
 70
     1
 10
0.0
 20
0.0
 30
0.0
  3
*D27
  1

  0
LINE
  5
402
330
3FF
100
AcDbEntity
  8
LAY-20
  6
CONTINUOUS
 62
     4
100
AcDbLine
 10
469.4999999999899
 20
272.19999999999
 30
0.0
 11
541.5
 21
272.19999999999
 31
0.0
  0
LINE
  5
403
330
3FF
100
AcDbEntity
  8
LAY-20
  6
CONTINUOUS
 62
     4
100
AcDbLine
 10
362.1
 20
252.69999999999
 30
0.0
 11
541.5
 21
252.69999999999
 31
0.0
  0
LINE
  5
404
330
3FF
100
AcDbEntity
  8
LAY-20
  6
CONTINUOUS
 62
     4
100
AcDbLine
 10
537.0
 20
263.19999999999
 30
0.0
 11
537.0
 21
261.69999999999
 31
0.0
  0
INSERT
  5
405
330
3FF
100
AcDbEntity
  8
LAY-20
 62
     4
100
AcDbBlockReference
  2
EX_BNORM
 10
537.0
 20
272.19999999999
 30
0.0
 41
9.0
 42
9.0
 43
9.0
 50
90.0
  0
INSERT
  5
406
330
3FF
100
AcDbEntity
  8
LAY-20
 62
     4
100
AcDbBlockReference
  2
EX_BNORM
 10
537.0
 20
252.69999999999
 30
0.0
 41
9.0
 42
9.0
 43
9.0
 50
270.0
  0
MTEXT
  5
407
330
3FF
100
AcDbEntity
  8
LAY-20
 62
     7
100
AcDbMText
 10
529.5
 20
227.1999999999899
 30
0.0
 40
9.3543312
 41
0.0
 71
     5
 72
     1
  1
19.5
  7
EXCADDIM1
 11
0.0
 21
1.0
 31
0.0
  0
POINT
  5
408
330
3FF
100
AcDbEntity
  8
DEFPOINTS
 62
     0
100
AcDbPoint
 10
464.9999999999899
 20
272.19999999999
 30
0.0
  0
POINT
  5
409
330
3FF
100
AcDbEntity
  8
DEFPOINTS
 62
     0
100
AcDbPoint
 10
357.6
 20
252.69999999999
 30
0.0
  0
POINT
  5
40A
330
3FF
100
AcDbEntity
  8
DEFPOINTS
 62
     0
100
AcDbPoint
 10
537.0
 20
252.69999999999
 30
0.0
  0
ENDBLK
  5
401
330
3FF
100
AcDbEntity
  8
0
100
AcDbBlockEnd
  0
BLOCK
  5
40D
330
40C
100
AcDbEntity
  8
0
100
AcDbBlockBegin
  2
*D28
 70
     1
 10
0.0
 20
0.0
 30
0.0
  3
*D28
  1

  0
LINE
  5
40F
330
40C
100
AcDbEntity
  8
LAY-20
  6
CONTINUOUS
 62
     4
100
AcDbLine
 10
473.9999999999899
 20
272.19999999999
 30
0.0
 11
541.5
 21
272.19999999999
 31
0.0
  0
LINE
  5
410
330
40C
100
AcDbEntity
  8
LAY-20
  6
CONTINUOUS
 62
     4
100
AcDbLine
 10
367.5
 20
374.69999999999
 30
0.0
 11
541.5
 21
374.6999999999899
 31
0.0
  0
LINE
  5
411
330
40C
100
AcDbEntity
  8
LAY-20
  6
CONTINUOUS
 62
     4
100
AcDbLine
 10
537.0
 20
281.19999999999
 30
0.0
 11
537.0
 21
365.6999999999899
 31
0.0
  0
INSERT
  5
412
330
40C
100
AcDbEntity
  8
LAY-20
 62
     4
100
AcDbBlockReference
  2
EX_BNORM
 10
537.0
 20
272.19999999999
 30
0.0
 41
9.0
 42
9.0
 43
9.0
 50
270.0
  0
INSERT
  5
413
330
40C
100
AcDbEntity
  8
LAY-20
 62
     4
100
AcDbBlockReference
  2
EX_BNORM
 10
537.0
 20
374.6999999999899
 30
0.0
 41
9.0
 42
9.0
 43
9.0
 50
90.0
  0
MTEXT
  5
414
330
40C
100
AcDbEntity
  8
LAY-20
 62
     7
100
AcDbMText
 10
529.5
 20
323.44999999999
 30
0.0
 40
9.3543312
 41
0.0
 71
     5
 72
     1
  1
102.5
  7
EXCADDIM1
 11
0.0
 21
1.0
 31
0.0
  0
POINT
  5
415
330
40C
100
AcDbEntity
  8
DEFPOINTS
 62
     0
100
AcDbPoint
 10
469.4999999999899
 20
272.19999999999
 30
0.0
  0
POINT
  5
416
330
40C
100
AcDbEntity
  8
DEFPOINTS
 62
     0
100
AcDbPoint
 10
363.0
 20
374.69999999999
 30
0.0
  0
POINT
  5
417
330
40C
100
AcDbEntity
  8
DEFPOINTS
 62
     0
100
AcDbPoint
 10
537.0
 20
374.6999999999899
 30
0.0
  0
ENDBLK
  5
40E
330
40C
100
AcDbEntity
  8
0
100
AcDbBlockEnd
  0
ENDSEC
  0
SECTION
  2
ENTITIES
  0
LINE
  5
D4
330
1F
100
AcDbEntity
  8
LAY-10
  6
CONTINUOUS
 62
     7
100
AcDbLine
 10
308.4999999999941
 20
343.3542721237642
 30
0.0
 11
308.6715728752355
 21
343.5258449990057
 31
0.0
  0
LINE
  5
D5
330
1F
100
AcDbEntity
  8
LAY-10
  6
CONTINUOUS
 62
     7
100
AcDbLine
 10
308.4999999999876
 20
340.5258449990116
 30
0.0
 11
311.4999999999881
 21
343.5258449990121
 31
0.0
  0
LINE
  5
D6
330
1F
100
AcDbEntity
  8
LAY-10
  6
CONTINUOUS
 62
     7
100
AcDbLine
 10
311.3284271247325
 20
340.5258449990104
 30
0.0
 11
314.328427124733
 21
343.5258449990109
 31
0.0
  0
LINE
  5
D7
330
1F
100
AcDbEntity
  8
LAY-10
  6
CONTINUOUS
 62
     7
100
AcDbLine
 10
314.1568542494812
 20
340.525844999013
 30
0.0
 11
317.1568542494779
 21
343.5258449990096
 31
0.0
  0
LINE
  5
D8
330
1F
100
AcDbEntity
  8
LAY-10
  6
CONTINUOUS
 62
     7
100
AcDbLine
 10
316.9852813742222
 20
340.5258449990079
 30
0.0
 11
319.9852813742266
 21
343.5258449990122
 31
0.0
  0
LINE
  5
D9
330
1F
100
AcDbEntity
  8
LAY-10
  6
CONTINUOUS
 62
     7
100
AcDbLine
 10
319.8137084989748
 20
340.5258449990143
 30
0.0
 11
322.8137084989716
 21
343.525844999011
 31
0.0
  0
LINE
  5
DA
330
1F
100
AcDbEntity
  8
LAY-10
  6
CONTINUOUS
 62
     7
100
AcDbLine
 10
322.6421356237198
 20
340.525844999013
 30
0.0
 11
325.6421356237164
 21
343.5258449990097
 31
0.0
  0
LINE
  5
DB
330
1F
100
AcDbEntity
  8
LAY-10
  6
CONTINUOUS
 62
     7
100
AcDbLine
 10
325.4705627484646
 20
340.5258449990118
 30
0.0
 11
328.4705627484613
 21
343.5258449990084
 31
0.0
  0
LINE
  5
DC
330
1F
100
AcDbEntity
  8
LAY-10
  6
CONTINUOUS
 62
     7
100
AcDbLine
 10
328.2989898732133
 20
340.5258449990144
 30
0.0
 11
331.2989898732061
 21
343.5258449990072
 31
0.0
  0
LINE
  5
DD
330
1F
100
AcDbEntity
  8
LAY-10
  6
CONTINUOUS
 62
     7
100
AcDbLine
 10
331.1274169979582
 20
340.5258449990131
 30
0.0
 11
334.1274169979549
 21
343.5258449990097
 31
0.0
  0
LINE
  5
DE
330
1F
100
AcDbEntity
  8
LAY-10
  6
CONTINUOUS
 62
     7
100
AcDbLine
 10
333.9558441227031
 20
340.5258449990118
 30
0.0
 11
336.9558441226998
 21
343.5258449990084
 31
0.0
  0
LINE
  5
DF
330
1F
100
AcDbEntity
  8
LAY-10
  6
CONTINUOUS
 62
     7
100
AcDbLine
 10
336.7842712474519
 20
340.5258449990144
 30
0.0
 11
339.7842712474446
 21
343.5258449990072
 31
0.0
  0
LINE
  5
E0
330
1F
100
AcDbEntity
  8
LAY-10
  6
CONTINUOUS
 62
     7
100
AcDbLine
 10
339.6126983721967
 20
340.5258449990131
 30
0.0
 11
342.6126983721973
 21
343.5258449990137
 31
0.0
  0
LINE
  5
E1
330
1F
100
AcDbEntity
  8
LAY-10
  6
CONTINUOUS
 62
     7
100
AcDbLine
 10
342.4411254969417
 20
340.5258449990118
 30
0.0
 11
342.8558199301992
 21
340.9405394322695
 31
0.0
  0
LINE
  5
E2
330
1F
100
AcDbEntity
  8
LAY-10
  6
CONTINUOUS
 62
     7
100
AcDbLine
 10
308.4999999999945
 20
257.3542721237646
 30
0.0
 11
308.671572875236
 21
257.5258449990061
 31
0.0
  0
LINE
  5
E3
330
1F
100
AcDbEntity
  8
LAY-10
  6
CONTINUOUS
 62
     7
100
AcDbLine
 10
308.4999999999881
 20
254.525844999012
 30
0.0
 11
311.4999999999808
 21
257.5258449990048
 31
0.0
  0
LINE
  5
E4
330
1F
100
AcDbEntity
  8
LAY-10
  6
CONTINUOUS
 62
     7
100
AcDbLine
 10
311.328427124733
 20
254.5258449990108
 30
0.0
 11
314.3284271247334
 21
257.5258449990113
 31
0.0
  0
LINE
  5
E5
330
1F
100
AcDbEntity
  8
LAY-10
  6
CONTINUOUS
 62
     7
100
AcDbLine
 10
314.1568542494817
 20
254.5258449990134
 30
0.0
 11
317.1568542494745
 21
257.5258449990062
 31
0.0
  0
LINE
  5
E6
330
1F
100
AcDbEntity
  8
LAY-10
  6
CONTINUOUS
 62
     7
100
AcDbLine
 10
316.9852813742266
 20
254.5258449990121
 30
0.0
 11
319.9852813742232
 21
257.5258449990088
 31
0.0
  0
LINE
  5
E7
330
1F
100
AcDbEntity
  8
LAY-10
  6
CONTINUOUS
 62
     7
100
AcDbLine
 10
319.8137084989714
 20
254.5258449990108
 30
0.0
 11
322.8137084989681
 21
257.5258449990075
 31
0.0
  0
LINE
  5
E8
330
1F
100
AcDbEntity
  8
LAY-10
  6
CONTINUOUS
 62
     7
100
AcDbLine
 10
322.6421356237163
 20
254.5258449990096
 30
0.0
 11
325.6421356237169
 21
257.5258449990101
 31
0.0
  0
LINE
  5
E9
330
1F
100
AcDbEntity
  8
LAY-10
  6
CONTINUOUS
 62
     7
100
AcDbLine
 10
325.470562748469
 20
254.525844999016
 30
0.0
 11
328.4705627484579
 21
257.525844999005
 31
0.0
  0
LINE
  5
EA
330
1F
100
AcDbEntity
  8
LAY-10
  6
CONTINUOUS
 62
     7
100
AcDbLine
 10
328.2989898732099
 20
254.5258449990109
 30
0.0
 11
331.2989898732066
 21
257.5258449990076
 31
0.0
  0
LINE
  5
EB
330
1F
100
AcDbEntity
  8
LAY-10
  6
CONTINUOUS
 62
     7
100
AcDbLine
 10
331.1274169979548
 20
254.5258449990096
 30
0.0
 11
334.1274169979553
 21
257.5258449990102
 31
0.0
  0
LINE
  5
EC
330
1F
100
AcDbEntity
  8
LAY-10
  6
CONTINUOUS
 62
     7
100
AcDbLine
 10
333.9558441227036
 20
254.5258449990122
 30
0.0
 11
336.9558441227003
 21
257.5258449990089
 31
0.0
  0
LINE
  5
ED
330
1F
100
AcDbEntity
  8
LAY-10
  6
CONTINUOUS
 62
     7
100
AcDbLine
 10
336.7842712474523
 20
254.5258449990148
 30
0.0
 11
339.7842712474451
 21
257.5258449990076
 31
0.0
  0
LINE
  5
EE
330
1F
100
AcDbEntity
  8
LAY-10
  6
CONTINUOUS
 62
     7
100
AcDbLine
 10
339.6126983721933
 20
254.5258449990097
 30
0.0
 11
342.6126983721938
 21
257.5258449990102
 31
0.0
  0
LINE
  5
EF
330
1F
100
AcDbEntity
  8
LAY-10
  6
CONTINUOUS
 62
     7
100
AcDbLine
 10
342.4411254969422
 20
254.5258449990123
 30
0.0
 11
342.8757713597281
 21
254.9604908617983
 31
0.0
  0
LINE
  5
F0
330
1F
100
AcDbEntity
  8
LAY-10
  6
CONTINUOUS
 62
     7
100
AcDbLine
 10
342.9999999999951
 20
513.9999999999899
 30
0.0
 11
342.9999999999951
 21
508.9999999999898
 31
0.0
  0
LINE
  5
F1
330
1F
100
AcDbEntity
  8
LAY-10
  6
CONTINUOUS
 62
     7
100
AcDbLine
 10
358.499999999995
 20
471.9999999999898
 30
0.0
 11
353.999999999995
 21
473.3137320558586
 31
0.0
  0
LINE
  5
F2
330
1F
100
AcDbEntity
  8
LAY-10
  6
CONTINUOUS
 62
     7
100
AcDbLine
 10
358.499999999995
 20
471.9999999999898
 30
0.0
 11
449.9999999999949
 21
471.9999999999898
 31
0.0
  0
ARC
  5
F3
330
1F
100
AcDbEntity
  8
LAY-10
  6
CONTINUOUS
 62
     7
100
AcDbCircle
 10
449.9999999999949
 20
486.9999999999899
 30
0.0
 40
15.00000000000001
100
AcDbArc
 50
270.0
 51
0.0
  0
ARC
  5
F4
330
1F
100
AcDbEntity
  8
LAY-10
  6
CONTINUOUS
 62
     7
100
AcDbCircle
 10
444.4999999999949
 20
491.9999999999898
 30
0.0
 40
5.0
100
AcDbArc
 50
270.0
 51
0.0
  0
ARC
  5
F5
330
1F
100
AcDbEntity
  8
LAY-10
  6
CONTINUOUS
 62
     7
100
AcDbCircle
 10
443.4999999999951
 20
492.9999999999899
 30
0.0
 40
2.0
100
AcDbArc
 50
270.0
 51
0.0
  0
LINE
  5
F6
330
1F
100
AcDbEntity
  8
LAY-10
  6
CONTINUOUS
 62
     7
100
AcDbLine
 10
358.499999999995
 20
485.4999999999899
 30
0.0
 11
370.499999999995
 21
486.9999999999899
 31
0.0
  0
LINE
  5
F7
330
1F
100
AcDbEntity
  8
LAY-10
  6
CONTINUOUS
 62
     7
100
AcDbLine
 10
443.6710936318259
 20
485.4999999999899
 30
0.0
 11
445.4604174611682
 21
487.0931070624708
 31
0.0
  0
LINE
  5
F8
330
1F
100
AcDbEntity
  8
LAY-10
  6
CONTINUOUS
 62
     7
100
AcDbLine
 10
351.9999999999948
 20
507.4999999999893
 30
0.0
 11
330.4999999999949
 21
507.4999999999897
 31
0.0
  0
CIRCLE
  5
F9
330
1F
100
AcDbEntity
  8
LAY-10
  6
CONTINUOUS
 62
     7
100
AcDbCircle
 10
330.4999999999949
 20
504.9999999999895
 30
0.0
 40
2.5
  0
LINE
  5
FA
330
1F
100
AcDbEntity
  8
LAY-10
  6
CONTINUOUS
 62
     7
100
AcDbLine
 10
351.9999999999951
 20
502.4999999999895
 30
0.0
 11
330.4999999999949
 21
502.4999999999895
 31
0.0
  0
LINE
  5
FB
330
1F
100
AcDbEntity
  8
LAY-10
  6
CONTINUOUS
 62
     7
100
AcDbLine
 10
348.9999999999948
 20
507.4999999999893
 30
0.0
 11
348.9999999999948
 21
512.4999999999895
 31
0.0
  0
LINE
  5
FC
330
1F
100
AcDbEntity
  8
LAY-10
  6
CONTINUOUS
 62
     7
100
AcDbLine
 10
348.9999999999948
 20
512.4999999999895
 30
0.0
 11
353.0871557427428
 21
512.857579793545
 31
0.0
  0
LINE
  5
FD
330
1F
100
AcDbEntity
  8
LAY-10
  6
CONTINUOUS
 62
     7
100
AcDbLine
 10
351.9999999999951
 20
497.237534009412
 30
0.0
 11
351.9999999999951
 21
512.7624659905675
 31
0.0
  0
ARC
  5
FE
330
1F
100
AcDbEntity
  8
LAY-10
  6
CONTINUOUS
 62
     7
100
AcDbCircle
 10
352.9999999999949
 20
513.8537744916366
 30
0.0
 40
1.0
100
AcDbArc
 50
274.9999999999936
 51
0.0
  0
LINE
  5
FF
330
1F
100
AcDbEntity
  8
LAY-10
  6
CONTINUOUS
 62
     7
100
AcDbLine
 10
348.9999999999948
 20
497.4999999999899
 30
0.0
 11
353.0871557427428
 21
497.1424202064345
 31
0.0
  0
ARC
  5
100
330
1F
100
AcDbEntity
  8
LAY-10
  6
CONTINUOUS
 62
     7
100
AcDbCircle
 10
352.9999999999949
 20
496.1462255083428
 30
0.0
 40
1.0
100
AcDbArc
 50
0.0
 51
84.99999999998698
  0
LINE
  5
101
330
1F
100
AcDbEntity
  8
LAY-10
  6
CONTINUOUS
 62
     7
100
AcDbLine
 10
348.9999999999948
 20
497.4999999999899
 30
0.0
 11
348.9999999999948
 21
502.4999999999895
 31
0.0
  0
LINE
  5
102
330
1F
100
AcDbEntity
  8
LAY-10
  6
CONTINUOUS
 62
     7
100
AcDbLine
 10
358.499999999995
 20
513.9999999999895
 30
0.0
 11
361.499999999995
 21
514.9999999999897
 31
0.0
  0
LINE
  5
103
330
1F
100
AcDbEntity
  8
LAY-10
  6
CONTINUOUS
 62
     7
100
AcDbLine
 10
358.499999999995
 20
513.9999999999895
 30
0.0
 11
370.4999999999948
 21
513.9999999999895
 31
0.0
  0
LINE
  5
104
330
1F
100
AcDbEntity
  8
LAY-10
  6
CONTINUOUS
 62
     7
100
AcDbLine
 10
361.499999999995
 20
514.9999999999897
 30
0.0
 11
370.4999999999948
 21
513.9999999999895
 31
0.0
  0
LINE
  5
105
330
1F
100
AcDbEntity
  8
LAY-10
  6
CONTINUOUS
 62
     7
100
AcDbLine
 10
358.499999999995
 20
495.9999999999899
 30
0.0
 11
361.499999999995
 21
494.9999999999901
 31
0.0
  0
LINE
  5
106
330
1F
100
AcDbEntity
  8
LAY-10
  6
CONTINUOUS
 62
     7
100
AcDbLine
 10
358.499999999995
 20
495.9999999999899
 30
0.0
 11
370.4999999999948
 21
495.9999999999899
 31
0.0
  0
LINE
  5
107
330
1F
100
AcDbEntity
  8
LAY-10
  6
CONTINUOUS
 62
     7
100
AcDbLine
 10
361.499999999995
 20
494.9999999999901
 30
0.0
 11
370.4999999999948
 21
495.9999999999899
 31
0.0
  0
LINE
  5
108
330
1F
100
AcDbEntity
  8
LAY-10
  6
CONTINUOUS
 62
     7
100
AcDbLine
 10
342.9999999999951
 20
508.9999999999898
 30
0.0
 11
348.9999999999948
 21
508.9999999999898
 31
0.0
  0
LINE
  5
109
330
1F
100
AcDbEntity
  8
LAY-10
  6
CONTINUOUS
 62
     7
100
AcDbLine
 10
445.4999999999877
 20
534.9999999999903
 30
0.0
 11
449.4999999999876
 21
534.9999999999903
 31
0.0
  0
LINE
  5
10A
330
1F
100
AcDbEntity
  8
LAY-10
  6
CONTINUOUS
 62
     7
100
AcDbLine
 10
445.4999999999899
 20
526.9999999999905
 30
0.0
 11
449.49999999999
 21
526.9999999999905
 31
0.0
  0
ELLIPSE
  5
10B
330
1F
100
AcDbEntity
  8
LAY-10
  6
CONTINUOUS
 62
     7
100
AcDbEllipse
 10
449.49999999999
 20
530.9999999999902
 30
0.0
 11
-7.551896680599985
 21
9.248406097388294E-16
 31
0.0
210
0.0
220
0.0
230
1.0
 40
0.5296682633748996
 41
-1.570796326794897
 42
1.570796326794897
  0
LINE
  5
10C
330
1F
100
AcDbEntity
  8
LAY-10
  6
CONTINUOUS
 62
     7
100
AcDbLine
 10
449.4999999999949
 20
526.9999999999905
 30
0.0
 11
449.4999999999949
 21
491.9999999999898
 31
0.0
  0
LINE
  5
10D
330
1F
100
AcDbEntity
  8
LAY-10
  6
CONTINUOUS
 62
     7
100
AcDbLine
 10
445.499999999995
 20
526.9999999999905
 30
0.0
 11
445.499999999995
 21
492.9999999999899
 31
0.0
  0
LINE
  5
10E
330
1F
100
AcDbEntity
  8
LAY-10
  6
CONTINUOUS
 62
     7
100
AcDbLine
 10
397.4999999999912
 20
485.4999999999902
 30
0.0
 11
397.4999999999912
 21
492.4999999999903
 31
0.0
  0
LINE
  5
10F
330
1F
100
AcDbEntity
  8
LAY-10
  6
CONTINUOUS
 62
     7
100
AcDbLine
 10
399.7742176666434
 20
485.4999999999902
 30
0.0
 11
399.7742176666434
 21
492.4999999999903
 31
0.0
  0
LINE
  5
110
330
1F
100
AcDbEntity
  8
LAY-10
  6
CONTINUOUS
 62
     7
100
AcDbLine
 10
410.4999999999914
 20
486.9999999999902
 30
0.0
 11
410.4999999999912
 21
490.9999999999901
 31
0.0
  0
LINE
  5
111
330
1F
100
AcDbEntity
  8
LAY-10
  6
CONTINUOUS
 62
     7
100
AcDbLine
 10
410.4999999999912
 20
490.9999999999903
 30
0.0
 11
399.7742176666434
 21
492.4999999999903
 31
0.0
  0
LINE
  5
112
330
1F
100
AcDbEntity
  8
LAY-10
  6
CONTINUOUS
 62
     7
100
AcDbLine
 10
399.7742176666434
 20
485.4999999999902
 30
0.0
 11
410.4999999999914
 21
486.9999999999902
 31
0.0
  0
LINE
  5
113
330
1F
100
AcDbEntity
  8
LAY-10
  6
CONTINUOUS
 62
     7
100
AcDbLine
 10
444.4999999999949
 20
486.9999999999899
 30
0.0
 11
410.4999999999893
 21
486.9999999999899
 31
0.0
  0
LINE
  5
114
330
1F
100
AcDbEntity
  8
LAY-10
  6
CONTINUOUS
 62
     7
100
AcDbLine
 10
443.4999999999951
 20
490.99999999999
 30
0.0
 11
410.4999999999912
 21
490.99999999999
 31
0.0
  0
LINE
  5
115
330
1F
100
AcDbEntity
  8
LAY-10
  6
CONTINUOUS
 62
     7
100
AcDbLine
 10
397.4999999999912
 20
490.9999999999898
 30
0.0
 11
370.499999999995
 21
490.9999999999898
 31
0.0
  0
LINE
  5
116
330
1F
100
AcDbEntity
  8
LAY-10
  6
CONTINUOUS
 62
     7
100
AcDbLine
 10
397.4999999999912
 20
486.9999999999899
 30
0.0
 11
370.499999999995
 21
486.9999999999899
 31
0.0
  0
LINE
  5
117
330
1F
100
AcDbEntity
  8
LAY-10
  6
CONTINUOUS
 62
     7
100
AcDbLine
 10
370.499999999995
 20
492.4999999999898
 30
0.0
 11
397.4999999999912
 21
492.4999999999898
 31
0.0
  0
LINE
  5
118
330
1F
100
AcDbEntity
  8
LAY-10
  6
CONTINUOUS
 62
     7
100
AcDbLine
 10
399.7742176666434
 20
492.4999999999898
 30
0.0
 11
432.6544046343084
 21
492.4999999999898
 31
0.0
  0
LINE
  5
119
330
1F
100
AcDbEntity
  8
LAY-10
  6
CONTINUOUS
 62
     7
100
AcDbLine
 10
358.499999999995
 20
485.4999999999899
 30
0.0
 11
397.4999999999912
 21
485.4999999999899
 31
0.0
  0
LINE
  5
11A
330
1F
100
AcDbEntity
  8
LAY-10
  6
CONTINUOUS
 62
     7
100
AcDbLine
 10
399.774217666641
 20
485.4999999999899
 30
0.0
 11
443.6710936318259
 21
485.4999999999899
 31
0.0
  0
LINE
  5
11B
330
1F
100
AcDbEntity
  8
LAY-10
  6
CONTINUOUS
 62
     7
100
AcDbLine
 10
342.9999999999951
 20
595.9999999999898
 30
0.0
 11
342.9999999999951
 21
600.99999999999
 31
0.0
  0
LINE
  5
11C
330
1F
100
AcDbEntity
  8
LAY-10
  6
CONTINUOUS
 62
     7
100
AcDbLine
 10
358.499999999995
 20
637.9999999999898
 30
0.0
 11
353.999999999995
 21
636.686267944121
 31
0.0
  0
LINE
  5
11D
330
1F
100
AcDbEntity
  8
LAY-10
  6
CONTINUOUS
 62
     7
100
AcDbLine
 10
358.499999999995
 20
637.9999999999898
 30
0.0
 11
449.9999999999949
 21
637.9999999999898
 31
0.0
  0
ARC
  5
11E
330
1F
100
AcDbEntity
  8
LAY-10
  6
CONTINUOUS
 62
     7
100
AcDbCircle
 10
449.9999999999949
 20
622.9999999999898
 30
0.0
 40
15.00000000000001
100
AcDbArc
 50
0.0
 51
90.0
  0
ARC
  5
11F
330
1F
100
AcDbEntity
  8
LAY-10
  6
CONTINUOUS
 62
     7
100
AcDbCircle
 10
444.4999999999949
 20
617.9999999999898
 30
0.0
 40
5.0
100
AcDbArc
 50
0.0
 51
90.0
  0
ARC
  5
120
330
1F
100
AcDbEntity
  8
LAY-10
  6
CONTINUOUS
 62
     7
100
AcDbCircle
 10
443.4999999999951
 20
616.9999999999898
 30
0.0
 40
2.0
100
AcDbArc
 50
0.0
 51
90.0
  0
LINE
  5
121
330
1F
100
AcDbEntity
  8
LAY-10
  6
CONTINUOUS
 62
     7
100
AcDbLine
 10
358.499999999995
 20
624.4999999999898
 30
0.0
 11
370.499999999995
 21
622.9999999999898
 31
0.0
  0
LINE
  5
122
330
1F
100
AcDbEntity
  8
LAY-10
  6
CONTINUOUS
 62
     7
100
AcDbLine
 10
443.6710936318259
 20
624.4999999999898
 30
0.0
 11
445.4604174611682
 21
622.9068929375088
 31
0.0
  0
LINE
  5
123
330
1F
100
AcDbEntity
  8
LAY-10
  6
CONTINUOUS
 62
     7
100
AcDbLine
 10
351.9999999999948
 20
602.4999999999903
 30
0.0
 11
330.4999999999949
 21
602.49999999999
 31
0.0
  0
CIRCLE
  5
124
330
1F
100
AcDbEntity
  8
LAY-10
  6
CONTINUOUS
 62
     7
100
AcDbCircle
 10
330.4999999999949
 20
604.9999999999901
 30
0.0
 40
2.5
  0
LINE
  5
125
330
1F
100
AcDbEntity
  8
LAY-10
  6
CONTINUOUS
 62
     7
100
AcDbLine
 10
351.9999999999951
 20
607.4999999999902
 30
0.0
 11
330.4999999999949
 21
607.4999999999902
 31
0.0
  0
LINE
  5
126
330
1F
100
AcDbEntity
  8
LAY-10
  6
CONTINUOUS
 62
     7
100
AcDbLine
 10
348.9999999999948
 20
602.4999999999903
 30
0.0
 11
348.9999999999948
 21
597.4999999999901
 31
0.0
  0
LINE
  5
127
330
1F
100
AcDbEntity
  8
LAY-10
  6
CONTINUOUS
 62
     7
100
AcDbLine
 10
348.9999999999948
 20
597.4999999999901
 30
0.0
 11
353.0871557427428
 21
597.1424202064347
 31
0.0
  0
LINE
  5
128
330
1F
100
AcDbEntity
  8
LAY-10
  6
CONTINUOUS
 62
     7
100
AcDbLine
 10
351.9999999999951
 20
612.7624659905675
 30
0.0
 11
351.9999999999951
 21
597.2375340094122
 31
0.0
  0
ARC
  5
129
330
1F
100
AcDbEntity
  8
LAY-10
  6
CONTINUOUS
 62
     7
100
AcDbCircle
 10
352.9999999999949
 20
596.146225508343
 30
0.0
 40
1.0
100
AcDbArc
 50
0.0
 51
85.00000000000648
  0
LINE
  5
12A
330
1F
100
AcDbEntity
  8
LAY-10
  6
CONTINUOUS
 62
     7
100
AcDbLine
 10
348.9999999999948
 20
612.4999999999898
 30
0.0
 11
353.0871557427428
 21
612.857579793545
 31
0.0
  0
ARC
  5
12B
330
1F
100
AcDbEntity
  8
LAY-10
  6
CONTINUOUS
 62
     7
100
AcDbCircle
 10
352.9999999999949
 20
613.8537744916368
 30
0.0
 40
1.0
100
AcDbArc
 50
275.0000000000131
 51
0.0
  0
LINE
  5
12C
330
1F
100
AcDbEntity
  8
LAY-10
  6
CONTINUOUS
 62
     7
100
AcDbLine
 10
348.9999999999948
 20
612.4999999999898
 30
0.0
 11
348.9999999999948
 21
607.4999999999902
 31
0.0
  0
LINE
  5
12D
330
1F
100
AcDbEntity
  8
LAY-10
  6
CONTINUOUS
 62
     7
100
AcDbLine
 10
358.499999999995
 20
595.9999999999901
 30
0.0
 11
361.499999999995
 21
594.99999999999
 31
0.0
  0
LINE
  5
12E
330
1F
100
AcDbEntity
  8
LAY-10
  6
CONTINUOUS
 62
     7
100
AcDbLine
 10
358.499999999995
 20
595.9999999999901
 30
0.0
 11
370.4999999999948
 21
595.9999999999901
 31
0.0
  0
LINE
  5
12F
330
1F
100
AcDbEntity
  8
LAY-10
  6
CONTINUOUS
 62
     7
100
AcDbLine
 10
361.499999999995
 20
594.99999999999
 30
0.0
 11
370.4999999999948
 21
595.9999999999901
 31
0.0
  0
LINE
  5
130
330
1F
100
AcDbEntity
  8
LAY-10
  6
CONTINUOUS
 62
     7
100
AcDbLine
 10
358.499999999995
 20
613.9999999999898
 30
0.0
 11
361.499999999995
 21
614.9999999999895
 31
0.0
  0
LINE
  5
131
330
1F
100
AcDbEntity
  8
LAY-10
  6
CONTINUOUS
 62
     7
100
AcDbLine
 10
358.499999999995
 20
613.9999999999898
 30
0.0
 11
370.4999999999948
 21
613.9999999999898
 31
0.0
  0
LINE
  5
132
330
1F
100
AcDbEntity
  8
LAY-10
  6
CONTINUOUS
 62
     7
100
AcDbLine
 10
361.499999999995
 20
614.9999999999895
 30
0.0
 11
370.4999999999948
 21
613.9999999999898
 31
0.0
  0
LINE
  5
133
330
1F
100
AcDbEntity
  8
LAY-10
  6
CONTINUOUS
 62
     7
100
AcDbLine
 10
342.9999999999951
 20
600.99999999999
 30
0.0
 11
348.9999999999948
 21
600.99999999999
 31
0.0
  0
LINE
  5
134
330
1F
100
AcDbEntity
  8
LAY-10
  6
CONTINUOUS
 62
     7
100
AcDbLine
 10
445.4999999999877
 20
574.9999999999894
 30
0.0
 11
449.4999999999876
 21
574.9999999999894
 31
0.0
  0
LINE
  5
135
330
1F
100
AcDbEntity
  8
LAY-10
  6
CONTINUOUS
 62
     7
100
AcDbLine
 10
445.4999999999899
 20
582.9999999999893
 30
0.0
 11
449.49999999999
 21
582.9999999999893
 31
0.0
  0
ELLIPSE
  5
136
330
1F
100
AcDbEntity
  8
LAY-10
  6
CONTINUOUS
 62
     7
100
AcDbEllipse
 10
449.49999999999
 20
578.9999999999895
 30
0.0
 11
7.551896680599985
 21
-1.849681219477659E-15
 31
0.0
210
0.0
220
0.0
230
1.0
 40
0.5296682633748996
 41
1.570796326794897
 42
4.71238898038469
  0
LINE
  5
137
330
1F
100
AcDbEntity
  8
LAY-10
  6
CONTINUOUS
 62
     7
100
AcDbLine
 10
449.4999999999949
 20
582.9999999999893
 30
0.0
 11
449.4999999999949
 21
617.9999999999898
 31
0.0
  0
LINE
  5
138
330
1F
100
AcDbEntity
  8
LAY-10
  6
CONTINUOUS
 62
     7
100
AcDbLine
 10
445.499999999995
 20
582.9999999999893
 30
0.0
 11
445.499999999995
 21
616.9999999999898
 31
0.0
  0
LINE
  5
139
330
1F
100
AcDbEntity
  8
LAY-10
  6
CONTINUOUS
 62
     7
100
AcDbLine
 10
397.4999999999912
 20
624.4999999999894
 30
0.0
 11
397.4999999999912
 21
617.4999999999893
 31
0.0
  0
LINE
  5
13A
330
1F
100
AcDbEntity
  8
LAY-10
  6
CONTINUOUS
 62
     7
100
AcDbLine
 10
399.7742176666434
 20
624.4999999999894
 30
0.0
 11
399.7742176666434
 21
617.4999999999893
 31
0.0
  0
LINE
  5
13B
330
1F
100
AcDbEntity
  8
LAY-10
  6
CONTINUOUS
 62
     7
100
AcDbLine
 10
410.4999999999914
 20
622.9999999999894
 30
0.0
 11
410.4999999999912
 21
618.9999999999895
 31
0.0
  0
LINE
  5
13C
330
1F
100
AcDbEntity
  8
LAY-10
  6
CONTINUOUS
 62
     7
100
AcDbLine
 10
410.4999999999912
 20
618.9999999999893
 30
0.0
 11
399.7742176666434
 21
617.4999999999893
 31
0.0
  0
LINE
  5
13D
330
1F
100
AcDbEntity
  8
LAY-10
  6
CONTINUOUS
 62
     7
100
AcDbLine
 10
399.7742176666434
 20
624.4999999999894
 30
0.0
 11
410.4999999999914
 21
622.9999999999894
 31
0.0
  0
LINE
  5
13E
330
1F
100
AcDbEntity
  8
LAY-10
  6
CONTINUOUS
 62
     7
100
AcDbLine
 10
444.4999999999949
 20
622.9999999999898
 30
0.0
 11
410.4999999999893
 21
622.9999999999898
 31
0.0
  0
LINE
  5
13F
330
1F
100
AcDbEntity
  8
LAY-10
  6
CONTINUOUS
 62
     7
100
AcDbLine
 10
443.4999999999951
 20
618.9999999999897
 30
0.0
 11
410.4999999999912
 21
618.9999999999897
 31
0.0
  0
LINE
  5
140
330
1F
100
AcDbEntity
  8
LAY-10
  6
CONTINUOUS
 62
     7
100
AcDbLine
 10
397.4999999999912
 20
618.9999999999899
 30
0.0
 11
370.499999999995
 21
618.9999999999899
 31
0.0
  0
LINE
  5
141
330
1F
100
AcDbEntity
  8
LAY-10
  6
CONTINUOUS
 62
     7
100
AcDbLine
 10
397.4999999999912
 20
622.9999999999898
 30
0.0
 11
370.499999999995
 21
622.9999999999898
 31
0.0
  0
LINE
  5
142
330
1F
100
AcDbEntity
  8
LAY-10
  6
CONTINUOUS
 62
     7
100
AcDbLine
 10
370.499999999995
 20
617.4999999999899
 30
0.0
 11
397.4999999999912
 21
617.4999999999899
 31
0.0
  0
LINE
  5
143
330
1F
100
AcDbEntity
  8
LAY-10
  6
CONTINUOUS
 62
     7
100
AcDbLine
 10
399.7742176666434
 20
617.4999999999899
 30
0.0
 11
432.6544046343084
 21
617.4999999999899
 31
0.0
  0
LINE
  5
144
330
1F
100
AcDbEntity
  8
LAY-10
  6
CONTINUOUS
 62
     7
100
AcDbLine
 10
358.499999999995
 20
624.4999999999898
 30
0.0
 11
397.4999999999912
 21
624.4999999999898
 31
0.0
  0
LINE
  5
145
330
1F
100
AcDbEntity
  8
LAY-10
  6
CONTINUOUS
 62
     7
100
AcDbLine
 10
399.774217666641
 20
624.4999999999898
 30
0.0
 11
443.6710936318259
 21
624.4999999999898
 31
0.0
  0
LINE
  5
146
330
1F
100
AcDbEntity
  8
LAY-10
  6
CONTINUOUS
 62
     7
100
AcDbLine
 10
342.9999999999951
 20
513.9999999999899
 30
0.0
 11
342.9999999999951
 21
595.9999999999901
 31
0.0
  0
LINE
  5
147
330
1F
100
AcDbEntity
  8
LAY-10
  6
CONTINUOUS
 62
     7
100
AcDbLine
 10
353.999999999995
 20
473.3137320558586
 30
0.0
 11
353.999999999995
 21
636.686267944121
 31
0.0
  0
LINE
  5
148
330
1F
100
AcDbEntity
  8
LAY-10
  6
CONTINUOUS
 62
     7
100
AcDbLine
 10
358.499999999995
 20
471.9999999999898
 30
0.0
 11
358.499999999995
 21
637.9999999999901
 31
0.0
  0
LINE
  5
149
330
1F
100
AcDbEntity
  8
LAY-10
  6
CONTINUOUS
 62
     7
100
AcDbLine
 10
370.499999999995
 20
486.9999999999899
 30
0.0
 11
370.499999999995
 21
622.9999999999898
 31
0.0
  0
LINE
  5
14A
330
1F
100
AcDbEntity
  8
LAY-10
  6
CONTINUOUS
 62
     7
100
AcDbLine
 10
445.499999999995
 20
574.9999999999901
 30
0.0
 11
445.499999999995
 21
534.9999999999903
 31
0.0
  0
LINE
  5
14B
330
1F
100
AcDbEntity
  8
LAY-10
  6
CONTINUOUS
 62
     7
100
AcDbLine
 10
449.4999999999949
 20
574.9999999999901
 30
0.0
 11
449.4999999999949
 21
534.9999999999903
 31
0.0
  0
LINE
  5
14C
330
1F
100
AcDbEntity
  8
LAY-10
  6
CONTINUOUS
 62
     7
100
AcDbLine
 10
464.9999999999949
 20
486.9999999999899
 30
0.0
 11
464.9999999999948
 21
622.9999999999898
 31
0.0
  0
LINE
  5
14D
330
1F
100
AcDbEntity
  8
LAY-10
  6
CONTINUOUS
 62
     7
100
AcDbLine
 10
445.0199247966009
 20
491.7000659198679
 30
0.0
 11
435.3792387677373
 21
492.9999999999902
 31
0.0
  0
ARC
  5
14E
330
1F
100
AcDbEntity
  8
LAY-10
  6
CONTINUOUS
 62
     7
100
AcDbCircle
 10
432.6544046343084
 20
494.4999999999899
 30
0.0
 40
2.0
100
AcDbArc
 50
270.0
 51
311.4096221092792
  0
LINE
  5
14F
330
1F
100
AcDbEntity
  8
LAY-10
  6
CONTINUOUS
 62
     7
100
AcDbLine
 10
445.0199247966009
 20
618.2999340801116
 30
0.0
 11
435.3792387677417
 21
616.9999999999901
 31
0.0
  0
ARC
  5
150
330
1F
100
AcDbEntity
  8
LAY-10
  6
CONTINUOUS
 62
     7
100
AcDbCircle
 10
432.6544046343084
 20
615.4999999999898
 30
0.0
 40
2.0
100
AcDbArc
 50
48.59037789074404
 51
90.0
  0
ELLIPSE
  5
151
330
1F
100
AcDbEntity
  8
LAY-10
  6
CONTINUOUS
 62
     7
100
AcDbEllipse
 10
445.4999999999899
 20
578.9999999999895
 30
0.0
 11
-10.72578233335
 21
1.313529500288831E-15
 31
0.0
210
0.0
220
0.0
230
1.0
 40
0.372933169412057
 41
4.71238898038469
 42
5.094557226489753
  0
ELLIPSE
  5
152
330
1F
100
AcDbEntity
  8
LAY-10
  6
CONTINUOUS
 62
     7
100
AcDbEllipse
 10
445.4999999999899
 20
578.9999999999895
 30
0.0
 11
-10.72578233335
 21
1.313529500288831E-15
 31
0.0
210
0.0
220
0.0
230
1.0
 40
0.372933169412057
 41
1.188628080689838
 42
1.570796326794897
  0
ELLIPSE
  5
153
330
1F
100
AcDbEntity
  8
LAY-10
  6
CONTINUOUS
 62
     7
100
AcDbEllipse
 10
445.4999999999899
 20
530.9999999999902
 30
0.0
 11
10.72578233335
 21
0.0
 31
0.0
210
0.0
220
0.0
230
1.0
 40
0.372933169412057
 41
1.570796326794897
 42
1.952964572899961
  0
ELLIPSE
  5
154
330
1F
100
AcDbEntity
  8
LAY-10
  6
CONTINUOUS
 62
     7
100
AcDbEllipse
 10
445.4999999999899
 20
530.9999999999902
 30
0.0
 11
10.72578233335
 21
0.0
 31
0.0
210
0.0
220
0.0
230
1.0
 40
0.372933169412057
 41
4.330220734279632
 42
4.71238898038469
  0
LINE
  5
155
330
1F
100
AcDbEntity
  8
LAY-10
  6
CONTINUOUS
 62
     7
100
AcDbLine
 10
441.4999999999898
 20
492.9999999999902
 30
0.0
 11
441.4999999999898
 21
616.9999999999901
 31
0.0
  0
ELLIPSE
  5
156
330
1F
100
AcDbEntity
  8
LAY-10
  6
CONTINUOUS
 62
     7
100
AcDbEllipse
 10
385.2426406870898
 20
514.9999999999901
 30
0.0
 11
-1.377727649040772E-15
 21
-7.5
 31
0.0
210
0.0
220
0.0
230
1.0
 40
0.7071067811866677
 41
0.0
 42
6.283185307179586
  0
ELLIPSE
  5
157
330
1F
100
AcDbEntity
  8
LAY-10
  6
CONTINUOUS
 62
     7
100
AcDbEllipse
 10
381.7071067811899
 20
514.9999999999901
 30
0.0
 11
3.980102097228882E-16
 21
6.499999999999974
 31
0.0
210
0.0
220
0.0
230
1.0
 40
0.911801673492308
 41
3.279591475903012
 42
6.145186484866366
  0
ARC
  5
158
330
1F
100
AcDbEntity
  8
LAY-10
  6
CONTINUOUS
 62
     7
100
AcDbCircle
 10
395.7709406296206
 20
525.9999999999902
 30
0.0
 40
2.0
100
AcDbArc
 50
90.0
 51
207.2792490867264
  0
ARC
  5
159
330
1F
100
AcDbEntity
  8
LAY-10
  6
CONTINUOUS
 62
     7
100
AcDbCircle
 10
376.5149682733128
 20
516.0700817286496
 30
0.0
 40
19.66554287947545
100
AcDbArc
 50
10.45074849721241
 51
27.27924908671913
  0
ARC
  5
15A
330
1F
100
AcDbEntity
  8
LAY-10
  6
CONTINUOUS
 62
     7
100
AcDbCircle
 10
397.8211056671008
 20
519.9999999999902
 30
0.0
 40
2.0
100
AcDbArc
 50
190.4507484972127
 51
270.0
  0
ARC
  5
15B
330
1F
100
AcDbEntity
  8
LAY-10
  6
CONTINUOUS
 62
     7
100
AcDbCircle
 10
395.7709406296199
 20
503.9999999999901
 30
0.0
 40
2.0
100
AcDbArc
 50
152.7207509132722
 51
270.0
  0
ARC
  5
15C
330
1F
100
AcDbEntity
  8
LAY-10
  6
CONTINUOUS
 62
     7
100
AcDbCircle
 10
376.5149682732647
 20
513.9299182713575
 30
0.0
 40
19.66554287952992
100
AcDbArc
 50
332.7207509132749
 51
349.5492515027428
  0
ARC
  5
15D
330
1F
100
AcDbEntity
  8
LAY-10
  6
CONTINUOUS
 62
     7
100
AcDbCircle
 10
397.8211056671032
 20
509.9999999999902
 30
0.0
 40
2.0
100
AcDbArc
 50
90.0
 51
169.5492515027424
  0
LINE
  5
15E
330
1F
100
AcDbEntity
  8
LAY-10
  6
CONTINUOUS
 62
     7
100
AcDbLine
 10
395.7709406296199
 20
501.9999999999902
 30
0.0
 11
427.4999999999899
 21
501.9999999999902
 31
0.0
  0
ARC
  5
15F
330
1F
100
AcDbEntity
  8
LAY-10
  6
CONTINUOUS
 62
     7
100
AcDbCircle
 10
427.4999999999899
 20
503.9999999999901
 30
0.0
 40
2.0
100
AcDbArc
 50
270.0
 51
0.0
  0
LINE
  5
160
330
1F
100
AcDbEntity
  8
LAY-10
  6
CONTINUOUS
 62
     7
100
AcDbLine
 10
427.4999999999899
 20
511.9999999999901
 30
0.0
 11
397.8211056671032
 21
511.9999999999901
 31
0.0
  0
LINE
  5
161
330
1F
100
AcDbEntity
  8
LAY-10
  6
CONTINUOUS
 62
     7
100
AcDbLine
 10
429.4999999999898
 20
503.9999999999901
 30
0.0
 11
429.4999999999898
 21
509.9999999999902
 31
0.0
  0
ARC
  5
162
330
1F
100
AcDbEntity
  8
LAY-10
  6
CONTINUOUS
 62
     7
100
AcDbCircle
 10
427.4999999999899
 20
509.9999999999902
 30
0.0
 40
2.0
100
AcDbArc
 50
0.0
 51
90.0
  0
LINE
  5
163
330
1F
100
AcDbEntity
  8
LAY-10
  6
CONTINUOUS
 62
     7
100
AcDbLine
 10
397.8211056671008
 20
517.9999999999901
 30
0.0
 11
427.4999999999899
 21
517.9999999999901
 31
0.0
  0
ARC
  5
164
330
1F
100
AcDbEntity
  8
LAY-10
  6
CONTINUOUS
 62
     7
100
AcDbCircle
 10
427.4999999999899
 20
519.9999999999902
 30
0.0
 40
2.0
100
AcDbArc
 50
270.0
 51
0.0
  0
LINE
  5
165
330
1F
100
AcDbEntity
  8
LAY-10
  6
CONTINUOUS
 62
     7
100
AcDbLine
 10
395.7709406296206
 20
527.9999999999901
 30
0.0
 11
427.4999999999899
 21
527.9999999999901
 31
0.0
  0
LINE
  5
166
330
1F
100
AcDbEntity
  8
LAY-10
  6
CONTINUOUS
 62
     7
100
AcDbLine
 10
429.4999999999898
 20
519.9999999999902
 30
0.0
 11
429.4999999999898
 21
525.9999999999902
 31
0.0
  0
ARC
  5
167
330
1F
100
AcDbEntity
  8
LAY-10
  6
CONTINUOUS
 62
     7
100
AcDbCircle
 10
427.4999999999899
 20
525.9999999999902
 30
0.0
 40
2.0
100
AcDbArc
 50
0.0
 51
90.0
  0
ARC
  5
168
330
1F
100
AcDbEntity
  8
LAY-10
  6
CONTINUOUS
 62
     7
100
AcDbCircle
 10
427.4999999999899
 20
535.9999999999901
 30
0.0
 40
2.0
100
AcDbArc
 50
270.0
 51
0.0
  0
LINE
  5
169
330
1F
100
AcDbEntity
  8
LAY-10
  6
CONTINUOUS
 62
     7
100
AcDbLine
 10
429.4999999999898
 20
541.9999999999901
 30
0.0
 11
429.4999999999898
 21
535.9999999999901
 31
0.0
  0
ARC
  5
16A
330
1F
100
AcDbEntity
  8
LAY-10
  6
CONTINUOUS
 62
     7
100
AcDbCircle
 10
427.4999999999899
 20
541.9999999999901
 30
0.0
 40
2.0
100
AcDbArc
 50
0.0
 51
90.0
  0
LINE
  5
16B
330
1F
100
AcDbEntity
  8
LAY-10
  6
CONTINUOUS
 62
     7
100
AcDbLine
 10
391.4852813741899
 20
543.9999999999902
 30
0.0
 11
427.4999999999899
 21
543.9999999999902
 31
0.0
  0
ARC
  5
16C
330
1F
100
AcDbEntity
  8
LAY-10
  6
CONTINUOUS
 62
     7
100
AcDbCircle
 10
391.4852813741899
 20
541.9999999999901
 30
0.0
 40
2.0
100
AcDbArc
 50
90.0
 51
180.0
  0
LINE
  5
16D
330
1F
100
AcDbEntity
  8
LAY-10
  6
CONTINUOUS
 62
     7
100
AcDbLine
 10
427.4999999999899
 20
533.9999999999901
 30
0.0
 11
391.4852813741899
 21
533.9999999999901
 31
0.0
  0
LINE
  5
16E
330
1F
100
AcDbEntity
  8
LAY-10
  6
CONTINUOUS
 62
     7
100
AcDbLine
 10
389.48528137419
 20
535.9999999999901
 30
0.0
 11
389.48528137419
 21
541.9999999999901
 31
0.0
  0
ARC
  5
16F
330
1F
100
AcDbEntity
  8
LAY-10
  6
CONTINUOUS
 62
     7
100
AcDbCircle
 10
391.4852813741899
 20
535.9999999999901
 30
0.0
 40
2.0
100
AcDbArc
 50
180.0
 51
270.0
  0
ARC
  5
170
330
1F
100
AcDbEntity
  8
LAY-10
  6
CONTINUOUS
 62
     7
100
AcDbCircle
 10
376.1715728752897
 20
541.9999999999901
 30
0.0
 40
2.0
100
AcDbArc
 50
0.0
 51
90.0
  0
LINE
  5
171
330
1F
100
AcDbEntity
  8
LAY-10
  6
CONTINUOUS
 62
     7
100
AcDbLine
 10
378.1715728752899
 20
541.9999999999901
 30
0.0
 11
378.1715728752899
 21
535.9999999999901
 31
0.0
  0
ARC
  5
172
330
1F
100
AcDbEntity
  8
LAY-10
  6
CONTINUOUS
 62
     7
100
AcDbCircle
 10
376.1715728752897
 20
535.9999999999901
 30
0.0
 40
2.0
100
AcDbArc
 50
270.0
 51
0.0
  0
ARC
  5
173
330
1F
100
AcDbEntity
  8
LAY-10
  6
CONTINUOUS
 62
     7
100
AcDbCircle
 10
371.3756602480786
 20
525.9999999999902
 30
0.0
 40
2.0
100
AcDbArc
 50
341.8630238155533
 51
90.0
  0
ARC
  5
174
330
1F
100
AcDbEntity
  8
LAY-10
  6
CONTINUOUS
 62
     7
100
AcDbCircle
 10
401.995836204754
 20
515.9699071838583
 30
0.0
 40
30.22107908680249
100
AcDbArc
 50
161.8630238155568
 51
172.8148389343793
  0
ARC
  5
175
330
1F
100
AcDbEntity
  8
LAY-10
  6
CONTINUOUS
 62
     7
100
AcDbCircle
 10
401.9958362043185
 20
514.0300928159755
 30
0.0
 40
30.22107908634483
100
AcDbArc
 50
187.1851610654607
 51
198.136976184436
  0
ARC
  5
176
330
1F
100
AcDbEntity
  8
LAY-10
  6
CONTINUOUS
 62
     7
100
AcDbCircle
 10
371.3756602480769
 20
503.9999999999901
 30
0.0
 40
2.0
100
AcDbArc
 50
270.0
 51
18.13697618443695
  0
ARC
  5
177
330
1F
100
AcDbEntity
  8
LAY-10
  6
CONTINUOUS
 62
     7
100
AcDbCircle
 10
374.714340744636
 20
503.9999999999901
 30
0.0
 40
2.0
100
AcDbArc
 50
270.0
 51
27.27924908626758
  0
ARC
  5
178
330
1F
100
AcDbEntity
  8
LAY-10
  6
CONTINUOUS
 62
     7
100
AcDbCircle
 10
393.9703131028261
 20
513.9299182721101
 30
0.0
 40
19.66554288150563
100
AcDbArc
 50
190.4507484983178
 51
207.2792490862707
  0
ARC
  5
179
330
1F
100
AcDbEntity
  8
LAY-10
  6
CONTINUOUS
 62
     7
100
AcDbCircle
 10
372.6641757071172
 20
509.9999999999902
 30
0.0
 40
2.0
100
AcDbArc
 50
10.45074849832097
 51
90.0
  0
ARC
  5
17A
330
1F
100
AcDbEntity
  8
LAY-10
  6
CONTINUOUS
 62
     7
100
AcDbCircle
 10
372.6641757071196
 20
519.9999999999902
 30
0.0
 40
2.0
100
AcDbArc
 50
270.0
 51
349.5492515017239
  0
ARC
  5
17B
330
1F
100
AcDbEntity
  8
LAY-10
  6
CONTINUOUS
 62
     7
100
AcDbCircle
 10
393.9703131027798
 20
516.0700817278962
 30
0.0
 40
19.66554288145315
100
AcDbArc
 50
152.7207509137356
 51
169.5492515017265
  0
ARC
  5
17C
330
1F
100
AcDbEntity
  8
LAY-10
  6
CONTINUOUS
 62
     7
100
AcDbCircle
 10
374.7143407446354
 20
525.9999999999902
 30
0.0
 40
2.0
100
AcDbArc
 50
332.7207509137311
 51
90.0
  0
ARC
  5
17D
330
1F
100
AcDbEntity
  8
LAY-10
  6
CONTINUOUS
 62
     7
100
AcDbCircle
 10
378.99999999999
 20
541.9999999999901
 30
0.0
 40
2.0
100
AcDbArc
 50
0.0
 51
90.0
  0
LINE
  5
17E
330
1F
100
AcDbEntity
  8
LAY-10
  6
CONTINUOUS
 62
     7
100
AcDbLine
 10
380.9999999999899
 20
541.9999999999901
 30
0.0
 11
380.9999999999899
 21
535.9999999999901
 31
0.0
  0
ARC
  5
17F
330
1F
100
AcDbEntity
  8
LAY-10
  6
CONTINUOUS
 62
     7
100
AcDbCircle
 10
378.99999999999
 20
535.9999999999901
 30
0.0
 40
2.0
100
AcDbArc
 50
270.0
 51
0.0
  0
ELLIPSE
  5
180
330
1F
100
AcDbEntity
  8
LAY-10
  6
CONTINUOUS
 62
     7
100
AcDbEllipse
 10
385.2426406870898
 20
594.99999999999
 30
0.0
 11
4.592425496802575E-16
 21
7.5
 31
0.0
210
0.0
220
0.0
230
1.0
 40
0.7071067811866677
 41
0.0
 42
6.283185307179586
  0
ELLIPSE
  5
181
330
1F
100
AcDbEntity
  8
LAY-10
  6
CONTINUOUS
 62
     7
100
AcDbEllipse
 10
381.7071067811899
 20
594.99999999999
 30
0.0
 11
-1.194030629168665E-15
 21
-6.499999999999974
 31
0.0
210
0.0
220
0.0
230
1.0
 40
0.911801673492308
 41
0.1379988223132222
 42
3.003593831276572
  0
ARC
  5
182
330
1F
100
AcDbEntity
  8
LAY-10
  6
CONTINUOUS
 62
     7
100
AcDbCircle
 10
395.7709406296206
 20
583.9999999999901
 30
0.0
 40
2.0
100
AcDbArc
 50
152.7207509132773
 51
270.0
  0
ARC
  5
183
330
1F
100
AcDbEntity
  8
LAY-10
  6
CONTINUOUS
 62
     7
100
AcDbCircle
 10
376.5149682733128
 20
593.9299182713307
 30
0.0
 40
19.66554287947545
100
AcDbArc
 50
332.7207509132798
 51
349.5492515027876
  0
ARC
  5
184
330
1F
100
AcDbEntity
  8
LAY-10
  6
CONTINUOUS
 62
     7
100
AcDbCircle
 10
397.8211056671008
 20
589.9999999999901
 30
0.0
 40
2.0
100
AcDbArc
 50
90.0
 51
169.5492515027873
  0
ARC
  5
185
330
1F
100
AcDbEntity
  8
LAY-10
  6
CONTINUOUS
 62
     7
100
AcDbCircle
 10
395.7709406296199
 20
605.9999999999901
 30
0.0
 40
2.0
100
AcDbArc
 50
90.0
 51
207.2792490867264
  0
ARC
  5
186
330
1F
100
AcDbEntity
  8
LAY-10
  6
CONTINUOUS
 62
     7
100
AcDbCircle
 10
376.5149682732647
 20
596.0700817286227
 30
0.0
 40
19.66554287952992
100
AcDbArc
 50
10.45074849725796
 51
27.27924908672527
  0
ARC
  5
187
330
1F
100
AcDbEntity
  8
LAY-10
  6
CONTINUOUS
 62
     7
100
AcDbCircle
 10
397.8211056671032
 20
599.9999999999899
 30
0.0
 40
2.0
100
AcDbArc
 50
190.4507484972529
 51
270.0
  0
LINE
  5
188
330
1F
100
AcDbEntity
  8
LAY-10
  6
CONTINUOUS
 62
     7
100
AcDbLine
 10
395.7709406296199
 20
607.9999999999901
 30
0.0
 11
427.4999999999899
 21
607.9999999999901
 31
0.0
  0
ARC
  5
189
330
1F
100
AcDbEntity
  8
LAY-10
  6
CONTINUOUS
 62
     7
100
AcDbCircle
 10
427.4999999999899
 20
605.9999999999901
 30
0.0
 40
2.0
100
AcDbArc
 50
0.0
 51
90.0
  0
LINE
  5
18A
330
1F
100
AcDbEntity
  8
LAY-10
  6
CONTINUOUS
 62
     7
100
AcDbLine
 10
427.4999999999899
 20
597.99999999999
 30
0.0
 11
397.8211056671032
 21
597.99999999999
 31
0.0
  0
LINE
  5
18B
330
1F
100
AcDbEntity
  8
LAY-10
  6
CONTINUOUS
 62
     7
100
AcDbLine
 10
429.4999999999898
 20
605.9999999999901
 30
0.0
 11
429.4999999999898
 21
599.9999999999899
 31
0.0
  0
ARC
  5
18C
330
1F
100
AcDbEntity
  8
LAY-10
  6
CONTINUOUS
 62
     7
100
AcDbCircle
 10
427.4999999999899
 20
599.9999999999899
 30
0.0
 40
2.0
100
AcDbArc
 50
270.0
 51
0.0
  0
LINE
  5
18D
330
1F
100
AcDbEntity
  8
LAY-10
  6
CONTINUOUS
 62
     7
100
AcDbLine
 10
397.8211056671008
 20
591.99999999999
 30
0.0
 11
427.4999999999899
 21
591.99999999999
 31
0.0
  0
ARC
  5
18E
330
1F
100
AcDbEntity
  8
LAY-10
  6
CONTINUOUS
 62
     7
100
AcDbCircle
 10
427.4999999999899
 20
589.9999999999901
 30
0.0
 40
2.0
100
AcDbArc
 50
0.0
 51
90.0
  0
LINE
  5
18F
330
1F
100
AcDbEntity
  8
LAY-10
  6
CONTINUOUS
 62
     7
100
AcDbLine
 10
395.7709406296206
 20
581.9999999999901
 30
0.0
 11
427.4999999999899
 21
581.9999999999901
 31
0.0
  0
LINE
  5
190
330
1F
100
AcDbEntity
  8
LAY-10
  6
CONTINUOUS
 62
     7
100
AcDbLine
 10
429.4999999999898
 20
589.9999999999901
 30
0.0
 11
429.4999999999898
 21
583.9999999999901
 31
0.0
  0
ARC
  5
191
330
1F
100
AcDbEntity
  8
LAY-10
  6
CONTINUOUS
 62
     7
100
AcDbCircle
 10
427.4999999999899
 20
583.9999999999901
 30
0.0
 40
2.0
100
AcDbArc
 50
270.0
 51
0.0
  0
ARC
  5
192
330
1F
100
AcDbEntity
  8
LAY-10
  6
CONTINUOUS
 62
     7
100
AcDbCircle
 10
427.4999999999899
 20
573.99999999999
 30
0.0
 40
2.0
100
AcDbArc
 50
0.0
 51
90.0
  0
LINE
  5
193
330
1F
100
AcDbEntity
  8
LAY-10
  6
CONTINUOUS
 62
     7
100
AcDbLine
 10
429.4999999999898
 20
567.99999999999
 30
0.0
 11
429.4999999999898
 21
573.99999999999
 31
0.0
  0
ARC
  5
194
330
1F
100
AcDbEntity
  8
LAY-10
  6
CONTINUOUS
 62
     7
100
AcDbCircle
 10
427.4999999999899
 20
567.99999999999
 30
0.0
 40
2.0
100
AcDbArc
 50
270.0
 51
0.0
  0
ARC
  5
195
330
1F
100
AcDbEntity
  8
LAY-10
  6
CONTINUOUS
 62
     7
100
AcDbCircle
 10
427.4999999999899
 20
557.9999999999901
 30
0.0
 40
2.0
100
AcDbArc
 50
0.0
 51
90.0
  0
LINE
  5
196
330
1F
100
AcDbEntity
  8
LAY-10
  6
CONTINUOUS
 62
     7
100
AcDbLine
 10
429.4999999999898
 20
551.9999999999899
 30
0.0
 11
429.4999999999898
 21
557.9999999999901
 31
0.0
  0
ARC
  5
197
330
1F
100
AcDbEntity
  8
LAY-10
  6
CONTINUOUS
 62
     7
100
AcDbCircle
 10
427.4999999999899
 20
551.9999999999899
 30
0.0
 40
2.0
100
AcDbArc
 50
270.0
 51
0.0
  0
LINE
  5
198
330
1F
100
AcDbEntity
  8
LAY-10
  6
CONTINUOUS
 62
     7
100
AcDbLine
 10
391.4852813741899
 20
549.99999999999
 30
0.0
 11
427.4999999999899
 21
549.99999999999
 31
0.0
  0
ARC
  5
199
330
1F
100
AcDbEntity
  8
LAY-10
  6
CONTINUOUS
 62
     7
100
AcDbCircle
 10
391.4852813741899
 20
551.9999999999899
 30
0.0
 40
2.0
100
AcDbArc
 50
180.0
 51
270.0
  0
LINE
  5
19A
330
1F
100
AcDbEntity
  8
LAY-10
  6
CONTINUOUS
 62
     7
100
AcDbLine
 10
427.4999999999899
 20
559.9999999999901
 30
0.0
 11
391.4852813741899
 21
559.9999999999901
 31
0.0
  0
LINE
  5
19B
330
1F
100
AcDbEntity
  8
LAY-10
  6
CONTINUOUS
 62
     7
100
AcDbLine
 10
389.48528137419
 20
557.9999999999901
 30
0.0
 11
389.48528137419
 21
551.9999999999899
 31
0.0
  0
ARC
  5
19C
330
1F
100
AcDbEntity
  8
LAY-10
  6
CONTINUOUS
 62
     7
100
AcDbCircle
 10
391.4852813741899
 20
557.9999999999901
 30
0.0
 40
2.0
100
AcDbArc
 50
90.0
 51
180.0
  0
LINE
  5
19D
330
1F
100
AcDbEntity
  8
LAY-10
  6
CONTINUOUS
 62
     7
100
AcDbLine
 10
391.4852813741899
 20
565.9999999999901
 30
0.0
 11
427.4999999999899
 21
565.9999999999901
 31
0.0
  0
ARC
  5
19E
330
1F
100
AcDbEntity
  8
LAY-10
  6
CONTINUOUS
 62
     7
100
AcDbCircle
 10
391.4852813741899
 20
567.99999999999
 30
0.0
 40
2.0
100
AcDbArc
 50
180.0
 51
270.0
  0
LINE
  5
19F
330
1F
100
AcDbEntity
  8
LAY-10
  6
CONTINUOUS
 62
     7
100
AcDbLine
 10
427.4999999999899
 20
575.9999999999901
 30
0.0
 11
391.4852813741899
 21
575.9999999999901
 31
0.0
  0
LINE
  5
1A0
330
1F
100
AcDbEntity
  8
LAY-10
  6
CONTINUOUS
 62
     7
100
AcDbLine
 10
389.48528137419
 20
573.99999999999
 30
0.0
 11
389.48528137419
 21
567.99999999999
 31
0.0
  0
ARC
  5
1A1
330
1F
100
AcDbEntity
  8
LAY-10
  6
CONTINUOUS
 62
     7
100
AcDbCircle
 10
391.4852813741899
 20
573.99999999999
 30
0.0
 40
2.0
100
AcDbArc
 50
90.0
 51
180.0
  0
ARC
  5
1A2
330
1F
100
AcDbEntity
  8
LAY-10
  6
CONTINUOUS
 62
     7
100
AcDbCircle
 10
376.1715728752897
 20
551.9999999999899
 30
0.0
 40
2.0
100
AcDbArc
 50
270.0
 51
0.0
  0
LINE
  5
1A3
330
1F
100
AcDbEntity
  8
LAY-10
  6
CONTINUOUS
 62
     7
100
AcDbLine
 10
378.1715728752899
 20
557.9999999999901
 30
0.0
 11
378.1715728752899
 21
551.9999999999899
 31
0.0
  0
ARC
  5
1A4
330
1F
100
AcDbEntity
  8
LAY-10
  6
CONTINUOUS
 62
     7
100
AcDbCircle
 10
376.1715728752897
 20
557.9999999999901
 30
0.0
 40
2.0
100
AcDbArc
 50
0.0
 51
90.0
  0
ARC
  5
1A5
330
1F
100
AcDbEntity
  8
LAY-10
  6
CONTINUOUS
 62
     7
100
AcDbCircle
 10
376.1715728752897
 20
567.99999999999
 30
0.0
 40
2.0
100
AcDbArc
 50
270.0
 51
0.0
  0
LINE
  5
1A6
330
1F
100
AcDbEntity
  8
LAY-10
  6
CONTINUOUS
 62
     7
100
AcDbLine
 10
378.1715728752899
 20
567.99999999999
 30
0.0
 11
378.1715728752899
 21
573.99999999999
 31
0.0
  0
ARC
  5
1A7
330
1F
100
AcDbEntity
  8
LAY-10
  6
CONTINUOUS
 62
     7
100
AcDbCircle
 10
376.1715728752897
 20
573.99999999999
 30
0.0
 40
2.0
100
AcDbArc
 50
0.0
 51
90.0
  0
ARC
  5
1A8
330
1F
100
AcDbEntity
  8
LAY-10
  6
CONTINUOUS
 62
     7
100
AcDbCircle
 10
371.3756602480786
 20
583.9999999999901
 30
0.0
 40
2.0
100
AcDbArc
 50
270.0
 51
18.13697618444365
  0
ARC
  5
1A9
330
1F
100
AcDbEntity
  8
LAY-10
  6
CONTINUOUS
 62
     7
100
AcDbCircle
 10
401.995836204754
 20
594.0300928161219
 30
0.0
 40
30.22107908680249
100
AcDbArc
 50
187.1851610656203
 51
198.136976184443
  0
ARC
  5
1AA
330
1F
100
AcDbEntity
  8
LAY-10
  6
CONTINUOUS
 62
     7
100
AcDbCircle
 10
401.9958362043185
 20
595.9699071840047
 30
0.0
 40
30.22107908634483
100
AcDbArc
 50
161.8630238155641
 51
172.8148389345393
  0
ARC
  5
1AB
330
1F
100
AcDbEntity
  8
LAY-10
  6
CONTINUOUS
 62
     7
100
AcDbCircle
 10
371.3756602480769
 20
605.9999999999901
 30
0.0
 40
2.0
100
AcDbArc
 50
341.8630238155662
 51
90.0
  0
ARC
  5
1AC
330
1F
100
AcDbEntity
  8
LAY-10
  6
CONTINUOUS
 62
     7
100
AcDbCircle
 10
374.714340744636
 20
605.9999999999901
 30
0.0
 40
2.0
100
AcDbArc
 50
332.7207509137311
 51
90.0
  0
ARC
  5
1AD
330
1F
100
AcDbEntity
  8
LAY-10
  6
CONTINUOUS
 62
     7
100
AcDbCircle
 10
393.9703131028261
 20
596.0700817278702
 30
0.0
 40
19.66554288150563
100
AcDbArc
 50
152.7207509137295
 51
169.5492515016826
  0
ARC
  5
1AE
330
1F
100
AcDbEntity
  8
LAY-10
  6
CONTINUOUS
 62
     7
100
AcDbCircle
 10
372.6641757071172
 20
599.9999999999899
 30
0.0
 40
2.0
100
AcDbArc
 50
270.0
 51
349.5492515016838
  0
ARC
  5
1AF
330
1F
100
AcDbEntity
  8
LAY-10
  6
CONTINUOUS
 62
     7
100
AcDbCircle
 10
372.6641757071196
 20
589.9999999999901
 30
0.0
 40
2.0
100
AcDbArc
 50
10.45074849827278
 51
90.0
  0
ARC
  5
1B0
330
1F
100
AcDbEntity
  8
LAY-10
  6
CONTINUOUS
 62
     7
100
AcDbCircle
 10
393.9703131027798
 20
593.9299182720841
 30
0.0
 40
19.66554288145315
100
AcDbArc
 50
190.4507484982742
 51
207.2792490862659
  0
ARC
  5
1B1
330
1F
100
AcDbEntity
  8
LAY-10
  6
CONTINUOUS
 62
     7
100
AcDbCircle
 10
374.7143407446354
 20
583.9999999999901
 30
0.0
 40
2.0
100
AcDbArc
 50
270.0
 51
27.27924908626174
  0
ARC
  5
1B2
330
1F
100
AcDbEntity
  8
LAY-10
  6
CONTINUOUS
 62
     7
100
AcDbCircle
 10
378.99999999999
 20
551.9999999999899
 30
0.0
 40
2.0
100
AcDbArc
 50
270.0
 51
0.0
  0
LINE
  5
1B3
330
1F
100
AcDbEntity
  8
LAY-10
  6
CONTINUOUS
 62
     7
100
AcDbLine
 10
380.9999999999899
 20
551.9999999999899
 30
0.0
 11
380.9999999999899
 21
557.9999999999901
 31
0.0
  0
ARC
  5
1B4
330
1F
100
AcDbEntity
  8
LAY-10
  6
CONTINUOUS
 62
     7
100
AcDbCircle
 10
378.99999999999
 20
557.9999999999901
 30
0.0
 40
2.0
100
AcDbArc
 50
0.0
 51
90.0
  0
ARC
  5
1B5
330
1F
100
AcDbEntity
  8
LAY-10
  6
CONTINUOUS
 62
     7
100
AcDbCircle
 10
378.99999999999
 20
567.99999999999
 30
0.0
 40
2.0
100
AcDbArc
 50
270.0
 51
0.0
  0
LINE
  5
1B6
330
1F
100
AcDbEntity
  8
LAY-10
  6
CONTINUOUS
 62
     7
100
AcDbLine
 10
380.9999999999899
 20
567.99999999999
 30
0.0
 11
380.9999999999899
 21
573.99999999999
 31
0.0
  0
ARC
  5
1B7
330
1F
100
AcDbEntity
  8
LAY-10
  6
CONTINUOUS
 62
     7
100
AcDbCircle
 10
378.99999999999
 20
573.99999999999
 30
0.0
 40
2.0
100
AcDbArc
 50
0.0
 51
90.0
  0
LINE
  5
1B8
330
1F
100
AcDbEntity
  8
LAY-10
  6
CONTINUOUS
 62
     7
100
AcDbLine
 10
400.9852813741898
 20
492.9999999999902
 30
0.0
 11
400.9852813741898
 21
501.9999999999902
 31
0.0
  0
LINE
  5
1B9
330
1F
100
AcDbEntity
  8
LAY-10
  6
CONTINUOUS
 62
     7
100
AcDbLine
 10
400.9852813741898
 20
511.9999999999901
 30
0.0
 11
400.9852813741898
 21
517.9999999999901
 31
0.0
  0
LINE
  5
1BA
330
1F
100
AcDbEntity
  8
LAY-10
  6
CONTINUOUS
 62
     7
100
AcDbLine
 10
400.9852813741898
 20
527.9999999999901
 30
0.0
 11
400.9852813741898
 21
533.9999999999901
 31
0.0
  0
LINE
  5
1BB
330
1F
100
AcDbEntity
  8
LAY-10
  6
CONTINUOUS
 62
     7
100
AcDbLine
 10
400.9852813741898
 20
543.9999999999902
 30
0.0
 11
400.9852813741898
 21
549.9999999999902
 31
0.0
  0
LINE
  5
1BC
330
1F
100
AcDbEntity
  8
LAY-10
  6
CONTINUOUS
 62
     7
100
AcDbLine
 10
400.9852813741898
 20
559.9999999999901
 30
0.0
 11
400.9852813741898
 21
565.9999999999901
 31
0.0
  0
LINE
  5
1BD
330
1F
100
AcDbEntity
  8
LAY-10
  6
CONTINUOUS
 62
     7
100
AcDbLine
 10
400.9852813741898
 20
575.9999999999901
 30
0.0
 11
400.9852813741898
 21
581.9999999999901
 31
0.0
  0
LINE
  5
1BE
330
1F
100
AcDbEntity
  8
LAY-10
  6
CONTINUOUS
 62
     7
100
AcDbLine
 10
400.9852813741898
 20
591.99999999999
 30
0.0
 11
400.9852813741898
 21
597.99999999999
 31
0.0
  0
LINE
  5
1BF
330
1F
100
AcDbEntity
  8
LAY-10
  6
CONTINUOUS
 62
     7
100
AcDbLine
 10
400.9852813741898
 20
607.9999999999901
 30
0.0
 11
400.9852813741898
 21
616.9999999999901
 31
0.0
  0
TEXT
  5
1C0
330
1F
100
AcDbEntity
  8
LAY-10
  6
CONTINUOUS
 62
     7
100
AcDbText
 10
386.9377950701495
 20
529.9999999999939
 30
0.0
 40
3.27401577131691
  1
ＦＵＫＵＮＩＳＨＩ
 50
90.00000000000004
 41
1.480142053688885
  7
EXCADSTD
100
AcDbText
  0
LINE
  5
1C1
330
1F
100
AcDbEntity
  8
LAY-10
  6
CONTINUOUS
 62
     7
100
AcDbLine
 10
441.4999999999898
 20
616.9999999999901
 30
0.0
 11
370.499999999995
 21
616.9999999999901
 31
0.0
  0
LINE
  5
1C2
330
1F
100
AcDbEntity
  8
LAY-10
  6
CONTINUOUS
 62
     7
100
AcDbLine
 10
370.499999999995
 20
607.9999999999901
 30
0.0
 11
374.714340744636
 21
607.9999999999901
 31
0.0
  0
LINE
  5
1C3
330
1F
100
AcDbEntity
  8
LAY-10
  6
CONTINUOUS
 62
     7
100
AcDbLine
 10
372.6641757071172
 20
597.99999999999
 30
0.0
 11
370.499999999995
 21
597.99999999999
 31
0.0
  0
ARC
  5
1C4
330
1F
100
AcDbEntity
  8
LAY-10
  6
CONTINUOUS
 62
     7
100
AcDbCircle
 10
370.027785131677
 20
599.9999999999899
 30
0.0
 40
2.0
100
AcDbArc
 50
283.6569112111199
 51
352.8148389345405
  0
ARC
  5
1C5
330
1F
100
AcDbEntity
  8
LAY-10
  6
CONTINUOUS
 62
     7
100
AcDbCircle
 10
370.0277851316695
 20
589.9999999999901
 30
0.0
 40
2.0
100
AcDbArc
 50
7.185161065620325
 51
76.34308878865895
  0
LINE
  5
1C6
330
1F
100
AcDbEntity
  8
LAY-10
  6
CONTINUOUS
 62
     7
100
AcDbLine
 10
372.6641757071196
 20
591.99999999999
 30
0.0
 11
370.499999999995
 21
591.99999999999
 31
0.0
  0
LINE
  5
1C7
330
1F
100
AcDbEntity
  8
LAY-10
  6
CONTINUOUS
 62
     7
100
AcDbLine
 10
370.499999999995
 20
581.9999999999901
 30
0.0
 11
374.7143407446354
 21
581.9999999999901
 31
0.0
  0
LINE
  5
1C8
330
1F
100
AcDbEntity
  8
LAY-10
  6
CONTINUOUS
 62
     7
100
AcDbLine
 10
378.99999999999
 20
575.9999999999901
 30
0.0
 11
370.499999999995
 21
575.9999999999901
 31
0.0
  0
LINE
  5
1C9
330
1F
100
AcDbEntity
  8
LAY-10
  6
CONTINUOUS
 62
     7
100
AcDbLine
 10
370.499999999995
 20
565.9999999999901
 30
0.0
 11
378.99999999999
 21
565.9999999999901
 31
0.0
  0
LINE
  5
1CA
330
1F
100
AcDbEntity
  8
LAY-10
  6
CONTINUOUS
 62
     7
100
AcDbLine
 10
378.99999999999
 20
559.9999999999901
 30
0.0
 11
370.499999999995
 21
559.9999999999901
 31
0.0
  0
LINE
  5
1CB
330
1F
100
AcDbEntity
  8
LAY-10
  6
CONTINUOUS
 62
     7
100
AcDbLine
 10
378.99999999999
 20
549.9999999999902
 30
0.0
 11
370.499999999995
 21
549.9999999999902
 31
0.0
  0
LINE
  5
1CC
330
1F
100
AcDbEntity
  8
LAY-10
  6
CONTINUOUS
 62
     7
100
AcDbLine
 10
370.499999999995
 20
543.9999999999902
 30
0.0
 11
378.99999999999
 21
543.9999999999902
 31
0.0
  0
LINE
  5
1CD
330
1F
100
AcDbEntity
  8
LAY-10
  6
CONTINUOUS
 62
     7
100
AcDbLine
 10
378.99999999999
 20
533.9999999999901
 30
0.0
 11
370.499999999995
 21
533.9999999999901
 31
0.0
  0
LINE
  5
1CE
330
1F
100
AcDbEntity
  8
LAY-10
  6
CONTINUOUS
 62
     7
100
AcDbLine
 10
370.499999999995
 20
527.9999999999901
 30
0.0
 11
374.7143407446354
 21
527.9999999999901
 31
0.0
  0
LINE
  5
1CF
330
1F
100
AcDbEntity
  8
LAY-10
  6
CONTINUOUS
 62
     7
100
AcDbLine
 10
372.6641757071196
 20
517.9999999999901
 30
0.0
 11
370.499999999995
 21
517.9999999999901
 31
0.0
  0
ARC
  5
1D0
330
1F
100
AcDbEntity
  8
LAY-10
  6
CONTINUOUS
 62
     7
100
AcDbCircle
 10
370.0277851316695
 20
519.9999999999902
 30
0.0
 40
2.0
100
AcDbArc
 50
283.6569112113412
 51
352.8148389343763
  0
ARC
  5
1D1
330
1F
100
AcDbEntity
  8
LAY-10
  6
CONTINUOUS
 62
     7
100
AcDbCircle
 10
370.027785131677
 20
509.9999999999902
 30
0.0
 40
2.0
100
AcDbArc
 50
7.185161065461157
 51
76.34308878888052
  0
LINE
  5
1D2
330
1F
100
AcDbEntity
  8
LAY-10
  6
CONTINUOUS
 62
     7
100
AcDbLine
 10
372.6641757071172
 20
511.9999999999901
 30
0.0
 11
370.499999999995
 21
511.9999999999901
 31
0.0
  0
LINE
  5
1D3
330
1F
100
AcDbEntity
  8
LAY-10
  6
CONTINUOUS
 62
     7
100
AcDbLine
 10
370.499999999995
 20
501.9999999999902
 30
0.0
 11
374.714340744636
 21
501.9999999999902
 31
0.0
  0
LINE
  5
1D4
330
1F
100
AcDbEntity
  8
LAY-10
  6
CONTINUOUS
 62
     7
100
AcDbLine
 10
441.4999999999898
 20
492.9999999999902
 30
0.0
 11
370.499999999995
 21
492.9999999999902
 31
0.0
  0
POINT
  5
1D5
330
1F
100
AcDbEntity
  8
LAY-10
  6
CONTINUOUS
 62
     7
100
AcDbPoint
 10
400.9312345951878
 20
373.3504299404867
 30
0.0
  0
LINE
  5
1D6
330
1F
100
AcDbEntity
  8
LAY-10
  6
CONTINUOUS
 62
     7
100
AcDbLine
 10
317.999999999995
 20
340.0431188598092
 30
0.0
 11
341.999999999995
 21
340.0431188598095
 31
0.0
  0
LINE
  5
1D7
330
1F
100
AcDbEntity
  8
LAY-10
  6
CONTINUOUS
 62
     7
100
AcDbLine
 10
342.9999999999951
 20
341.0431188598095
 30
0.0
 11
342.9999999999951
 21
345.0431188598095
 31
0.0
  0
LINE
  5
1D8
330
1F
100
AcDbEntity
  8
LAY-10
  6
CONTINUOUS
 62
     7
100
AcDbLine
 10
342.9999999999951
 20
345.0431188598095
 30
0.0
 11
352.9999999999949
 21
345.0431188598095
 31
0.0
  0
LINE
  5
1D9
330
1F
100
AcDbEntity
  8
LAY-10
  6
CONTINUOUS
 62
     7
100
AcDbLine
 10
342.9999999999951
 20
257.0431188598095
 30
0.0
 11
342.9999999999951
 21
253.0431188598095
 31
0.0
  0
LINE
  5
1DA
330
1F
100
AcDbEntity
  8
LAY-10
  6
CONTINUOUS
 62
     7
100
AcDbLine
 10
342.9999999999951
 20
253.0431188598095
 30
0.0
 11
353.999999999995
 21
253.0431188598095
 31
0.0
  0
ARC
  5
1DB
330
1F
100
AcDbEntity
  8
LAY-10
  6
CONTINUOUS
 62
     7
100
AcDbCircle
 10
341.999999999995
 20
257.0431188598095
 30
0.0
 40
1.0
100
AcDbArc
 50
0.0
 51
90.0
  0
ARC
  5
1DC
330
1F
100
AcDbEntity
  8
LAY-10
  6
CONTINUOUS
 62
     7
100
AcDbCircle
 10
341.999999999995
 20
341.0431188598095
 30
0.0
 40
1.0
100
AcDbArc
 50
270.0
 51
0.0
  0
LINE
  5
1DD
330
1F
100
AcDbEntity
  8
LAY-10
  6
CONTINUOUS
 62
     7
100
AcDbLine
 10
353.999999999995
 20
265.0431188598095
 30
0.0
 11
434.6544046343085
 21
272.0994649287447
 31
0.0
  0
LINE
  5
1DE
330
1F
100
AcDbEntity
  8
LAY-10
  6
CONTINUOUS
 62
     7
100
AcDbLine
 10
370.499999999995
 20
356.1999999999902
 30
0.0
 11
358.499999999995
 21
341.2979425123616
 31
0.0
  0
LINE
  5
1DF
330
1F
100
AcDbEntity
  8
LAY-10
  6
CONTINUOUS
 62
     7
100
AcDbLine
 10
370.499999999995
 20
360.1999999999903
 30
0.0
 11
363.4283628290546
 21
354.2661918580347
 31
0.0
  0
LINE
  5
1E0
330
1F
100
AcDbEntity
  8
LAY-10
  6
CONTINUOUS
 62
     7
100
AcDbLine
 10
358.499999999995
 20
356.5643251873917
 30
0.0
 11
358.499999999995
 21
374.9999999999903
 31
0.0
  0
LINE
  5
1E1
330
1F
100
AcDbEntity
  8
LAY-10
  6
CONTINUOUS
 62
     7
100
AcDbLine
 10
353.999999999995
 20
346.0431188598095
 30
0.0
 11
353.999999999995
 21
374.9999999999903
 31
0.0
  0
LINE
  5
1E2
330
1F
100
AcDbEntity
  8
LAY-10
  6
CONTINUOUS
 62
     7
100
AcDbLine
 10
445.499999999995
 20
281.1999999999903
 30
0.0
 11
434.6544046343085
 21
272.0994649287447
 31
0.0
  0
LINE
  5
1E3
330
1F
100
AcDbEntity
  8
LAY-10
  6
CONTINUOUS
 62
     7
100
AcDbLine
 10
449.4999999999949
 20
281.1999999999903
 30
0.0
 11
449.4999999999949
 21
273.1999999999903
 31
0.0
  0
ARC
  5
1E4
330
1F
100
AcDbEntity
  8
LAY-10
  6
CONTINUOUS
 62
     7
100
AcDbCircle
 10
450.4999999999949
 20
273.1999999999903
 30
0.0
 40
1.0
100
AcDbArc
 50
180.0
 51
270.0
  0
LINE
  5
1E5
330
1F
100
AcDbEntity
  8
LAY-10
  6
CONTINUOUS
 62
     7
100
AcDbLine
 10
464.9999999999949
 20
272.1999999999903
 30
0.0
 11
464.9999999999949
 21
267.6999999999902
 31
0.0
  0
LINE
  5
1E6
330
1F
100
AcDbEntity
  8
LAY-10
  6
CONTINUOUS
 62
     7
100
AcDbLine
 10
361.499999999995
 20
345.0234568842687
 30
0.0
 11
361.499999999995
 21
326.9999999999902
 31
0.0
  0
LINE
  5
1E7
330
1F
100
AcDbEntity
  8
LAY-10
  6
CONTINUOUS
 62
     7
100
AcDbLine
 10
353.999999999995
 20
364.9999999999901
 30
0.0
 11
351.9999999999951
 21
360.9999999999901
 31
0.0
  0
LINE
  5
1E8
330
1F
100
AcDbEntity
  8
LAY-10
  6
CONTINUOUS
 62
     7
100
AcDbLine
 10
351.9999999999951
 20
360.9999999999901
 30
0.0
 11
351.9999999999951
 21
348.9999999999902
 31
0.0
  0
LINE
  5
1E9
330
1F
100
AcDbEntity
  8
LAY-10
  6
CONTINUOUS
 62
     7
100
AcDbLine
 10
361.499999999995
 20
326.9999999999902
 30
0.0
 11
358.499999999995
 21
323.4247392222077
 31
0.0
  0
LINE
  5
1EA
330
1F
100
AcDbEntity
  8
LAY-10
  6
CONTINUOUS
 62
     7
100
AcDbLine
 10
351.9999999999951
 20
357.4999999999902
 30
0.0
 11
334.9999999999949
 21
357.4999999999903
 31
0.0
  0
LINE
  5
1EB
330
1F
100
AcDbEntity
  8
LAY-10
  6
CONTINUOUS
 62
     7
100
AcDbLine
 10
351.9999999999951
 20
352.4999999999902
 30
0.0
 11
334.9999999999949
 21
352.4999999999902
 31
0.0
  0
ARC
  5
1EC
330
1F
100
AcDbEntity
  8
LAY-10
  6
CONTINUOUS
 62
     7
100
AcDbCircle
 10
334.9999999999949
 20
359.4999999999901
 30
0.0
 40
7.000000000000004
100
AcDbArc
 50
180.0
 51
270.0
  0
LINE
  5
1ED
330
1F
100
AcDbEntity
  8
LAY-10
  6
CONTINUOUS
 62
     7
100
AcDbLine
 10
332.999999999995
 20
359.4999999999903
 30
0.0
 11
332.999999999995
 21
374.4999999999901
 31
0.0
  0
ARC
  5
1EE
330
1F
100
AcDbEntity
  8
LAY-10
  6
CONTINUOUS
 62
     7
100
AcDbCircle
 10
334.9999999999949
 20
359.4999999999903
 30
0.0
 40
2.0
100
AcDbArc
 50
180.0
 51
270.0
  0
LINE
  5
1EF
330
1F
100
AcDbEntity
  8
LAY-10
  6
CONTINUOUS
 62
     7
100
AcDbLine
 10
327.9999999999951
 20
359.4999999999901
 30
0.0
 11
327.9999999999951
 21
374.4999999999901
 31
0.0
  0
LINE
  5
1F0
330
1F
100
AcDbEntity
  8
LAY-10
  6
CONTINUOUS
 62
     7
100
AcDbLine
 10
332.999999999995
 20
374.4999999999901
 30
0.0
 11
327.9999999999951
 21
374.4999999999901
 31
0.0
  0
LINE
  5
1F1
330
1F
100
AcDbEntity
  8
LAY-10
  6
CONTINUOUS
 62
     7
100
AcDbLine
 10
454.9999999999949
 20
267.6999999999903
 30
0.0
 11
450.9999999999949
 21
265.6999999999903
 31
0.0
  0
LINE
  5
1F2
330
1F
100
AcDbEntity
  8
LAY-10
  6
CONTINUOUS
 62
     7
100
AcDbLine
 10
370.499999999995
 20
360.1999999999903
 30
0.0
 11
359.4999999999951
 21
360.1999999999903
 31
0.0
  0
ARC
  5
1F3
330
1F
100
AcDbEntity
  8
LAY-10
  6
CONTINUOUS
 62
     7
100
AcDbCircle
 10
359.4999999999951
 20
361.1999999999902
 30
0.0
 40
1.0
100
AcDbArc
 50
180.0
 51
270.0
  0
ARC
  5
1F4
330
1F
100
AcDbEntity
  8
LAY-10
  6
CONTINUOUS
 62
     7
100
AcDbCircle
 10
361.499999999995
 20
356.5643251873917
 30
0.0
 40
3.000000000000002
100
AcDbArc
 50
180.0
 51
310.0000000000041
  0
LINE
  5
1F5
330
1F
100
AcDbEntity
  8
LAY-10
  6
CONTINUOUS
 62
     7
100
AcDbLine
 10
358.499999999995
 20
374.9999999999902
 30
0.0
 11
353.999999999995
 21
374.9999999999903
 31
0.0
  0
ARC
  5
1F6
330
1F
100
AcDbEntity
  8
LAY-10
  6
CONTINUOUS
 62
     7
100
AcDbCircle
 10
352.9999999999949
 20
346.0431188598095
 30
0.0
 40
1.0
100
AcDbArc
 50
270.0
 51
0.0
  0
LINE
  5
1F7
330
1F
100
AcDbEntity
  8
LAY-10
  6
CONTINUOUS
 62
     7
100
AcDbLine
 10
341.0837349169296
 20
336.1779692250998
 30
0.0
 11
349.0820670117455
 21
336.3413206898581
 31
0.0
  0
ARC
  5
1F8
330
1F
100
AcDbEntity
  8
LAY-10
  6
CONTINUOUS
 62
     7
100
AcDbCircle
 10
341.144991716214
 20
333.1785946895438
 30
0.0
 40
3.000000000000002
100
AcDbArc
 50
91.1699999999993
 51
181.1699999999994
  0
ARC
  5
1F9
330
1F
100
AcDbEntity
  8
LAY-10
  6
CONTINUOUS
 62
     7
100
AcDbCircle
 10
349.1433238110299
 20
333.3419461543023
 30
0.0
 40
3.000000000000002
100
AcDbArc
 50
1.170000000000421
 51
91.1699999999993
  0
LINE
  5
1FA
330
1F
100
AcDbEntity
  8
LAY-10
  6
CONTINUOUS
 62
     7
100
AcDbLine
 10
342.6151548990398
 20
261.1936058362012
 30
0.0
 11
350.6134869938556
 21
261.3569573009596
 31
0.0
  0
ARC
  5
1FB
330
1F
100
AcDbEntity
  8
LAY-10
  6
CONTINUOUS
 62
     7
100
AcDbCircle
 10
342.5538980997554
 20
264.1929803717571
 30
0.0
 40
3.000000000000002
100
AcDbArc
 50
181.1699999999994
 51
271.1699999999993
  0
ARC
  5
1FC
330
1F
100
AcDbEntity
  8
LAY-10
  6
CONTINUOUS
 62
     7
100
AcDbCircle
 10
350.5522301945713
 20
264.3563318365155
 30
0.0
 40
3.000000000000002
100
AcDbArc
 50
271.1699999999993
 51
1.170000000000421
  0
LINE
  5
1FD
330
1F
100
AcDbEntity
  8
LAY-10
  6
CONTINUOUS
 62
     7
100
AcDbLine
 10
339.5545235641995
 20
264.1317235724728
 30
0.0
 11
338.1456171806581
 21
333.1173378902641
 31
0.0
  0
LINE
  5
1FE
330
1F
100
AcDbEntity
  8
LAY-10
  6
CONTINUOUS
 62
     7
100
AcDbLine
 10
353.5516047301272
 20
264.4175886358
 30
0.0
 11
352.1426983465858
 21
333.4032029535841
 31
0.0
  0
LINE
  5
1FF
330
1F
100
AcDbEntity
  8
LAY-10
  6
CONTINUOUS
 62
     7
100
AcDbLine
 10
438.9999999999949
 20
265.6999999999903
 30
0.0
 11
450.99999999999
 21
265.6999999999903
 31
0.0
  0
LINE
  5
200
330
1F
100
AcDbEntity
  8
LAY-10
  6
CONTINUOUS
 62
     7
100
AcDbLine
 10
435.1489197476558
 20
267.6255401261598
 30
0.0
 11
438.9999999999949
 21
265.6999999999903
 31
0.0
  0
LINE
  5
201
330
1F
100
AcDbEntity
  8
LAY-10
  6
CONTINUOUS
 62
     7
100
AcDbLine
 10
351.9999999999951
 20
348.9999999999902
 30
0.0
 11
350.3041937970626
 21
345.043118859813
 31
0.0
  0
LINE
  5
202
330
1F
100
AcDbEntity
  8
LAY-10
  6
CONTINUOUS
 62
     7
100
AcDbLine
 10
449.49999999999
 20
281.1999999999903
 30
0.0
 11
410.49999999999
 21
281.1999999999903
 31
0.0
  0
LINE
  5
203
330
1F
100
AcDbEntity
  8
LAY-10
  6
CONTINUOUS
 62
     7
100
AcDbLine
 10
358.499999999995
 20
341.2979425123616
 30
0.0
 11
358.499999999995
 21
292.1999999999902
 31
0.0
  0
ARC
  5
204
330
1F
100
AcDbEntity
  8
LAY-10
  6
CONTINUOUS
 62
     7
100
AcDbCircle
 10
378.4999999999949
 20
292.1999999999902
 30
0.0
 40
20.0
100
AcDbArc
 50
180.0
 51
270.0
  0
ARC
  5
205
330
1F
100
AcDbEntity
  8
LAY-10
  6
CONTINUOUS
 62
     7
100
AcDbCircle
 10
399.4999999999911
 20
274.1999999999904
 30
0.0
 40
2.0
100
AcDbArc
 50
180.0
 51
270.0
  0
LINE
  5
206
330
1F
100
AcDbEntity
  8
LAY-10
  6
CONTINUOUS
 62
     7
100
AcDbLine
 10
353.9999999999912
 20
253.0431188598125
 30
0.0
 11
363.9556965679033
 21
261.3969401780604
 31
0.0
  0
LINE
  5
207
330
1F
100
AcDbEntity
  8
LAY-10
  6
CONTINUOUS
 62
     7
100
AcDbLine
 10
352.1500524128409
 20
333.0431188598095
 30
0.0
 11
358.499999999995
 21
333.0431188598095
 31
0.0
  0
LINE
  5
208
330
1F
100
AcDbEntity
  8
LAY-10
  6
CONTINUOUS
 62
     7
100
AcDbLine
 10
407.1984848098285
 20
279.9999999999989
 30
0.0
 11
441.4999999999937
 21
279.9999999999989
 31
0.0
  0
LINE
  5
209
330
1F
100
AcDbEntity
  8
LAY-10
  6
CONTINUOUS
 62
     7
100
AcDbLine
 10
369.4999999999937
 20
351.9999999999989
 30
0.0
 11
369.4999999999937
 21
317.6984848098335
 31
0.0
  0
LINE
  5
20A
330
1F
100
AcDbEntity
  8
LAY-10
  6
CONTINUOUS
 62
     7
100
AcDbLine
 10
369.4999999999937
 20
351.9999999999989
 30
0.0
 11
368.4999999999939
 21
351.9999999999989
 31
0.0
  0
LINE
  5
20B
330
1F
100
AcDbEntity
  8
LAY-10
  6
CONTINUOUS
 62
     7
100
AcDbLine
 10
441.4999999999937
 20
279.9999999999989
 30
0.0
 11
441.4999999999937
 21
278.999999999999
 31
0.0
  0
LINE
  5
20C
330
1F
100
AcDbEntity
  8
LAY-10
  6
CONTINUOUS
 62
     7
100
AcDbLine
 10
361.4999999999938
 20
339.9999999999989
 30
0.0
 11
369.4999999999937
 21
339.9999999999989
 31
0.0
  0
LINE
  5
20D
330
1F
100
AcDbEntity
  8
LAY-10
  6
CONTINUOUS
 62
     7
100
AcDbLine
 10
368.4999999999939
 20
351.9999999999989
 30
0.0
 11
361.4999999999938
 21
341.999999999999
 31
0.0
  0
LINE
  5
20E
330
1F
100
AcDbEntity
  8
LAY-10
  6
CONTINUOUS
 62
     7
100
AcDbLine
 10
429.4999999999937
 20
271.9999999999989
 30
0.0
 11
431.4999999999939
 21
271.9999999999989
 31
0.0
  0
LINE
  5
20F
330
1F
100
AcDbEntity
  8
LAY-10
  6
CONTINUOUS
 62
     7
100
AcDbLine
 10
429.4999999999937
 20
279.9999999999989
 30
0.0
 11
429.4999999999937
 21
271.9999999999989
 31
0.0
  0
LINE
  5
210
330
1F
100
AcDbEntity
  8
LAY-10
  6
CONTINUOUS
 62
     7
100
AcDbLine
 10
441.4999999999937
 20
278.999999999999
 30
0.0
 11
431.4999999999939
 21
271.9999999999989
 31
0.0
  0
LINE
  5
211
330
1F
100
AcDbEntity
  8
LAY-10
  6
CONTINUOUS
 62
     7
100
AcDbLine
 10
428.4999999999939
 20
274.9999999999989
 30
0.0
 11
384.4999999999937
 21
274.9999999999989
 31
0.0
  0
LINE
  5
212
330
1F
100
AcDbEntity
  8
LAY-10
  6
CONTINUOUS
 62
     7
100
AcDbLine
 10
393.0563491860975
 20
280.857864376268
 30
0.0
 11
370.3578643762627
 21
303.5563491861026
 31
0.0
  0
LINE
  5
213
330
1F
100
AcDbEntity
  8
LAY-10
  6
CONTINUOUS
 62
     7
100
AcDbLine
 10
364.4999999999938
 20
338.999999999999
 30
0.0
 11
364.4999999999938
 21
294.9999999999989
 31
0.0
  0
ARC
  5
214
330
1F
100
AcDbEntity
  8
LAY-10
  6
CONTINUOUS
 62
     7
100
AcDbCircle
 10
384.4999999999937
 20
294.9999999999989
 30
0.0
 40
20.0
100
AcDbArc
 50
180.0
 51
270.0
  0
LINE
  5
215
330
1F
100
AcDbEntity
  8
LAY-10
  6
CONTINUOUS
 62
     7
100
AcDbLine
 10
385.2426406871131
 20
288.6715728752527
 30
0.0
 11
389.4852813742321
 21
291.4999999999989
 31
0.0
  0
LINE
  5
216
330
1F
100
AcDbEntity
  8
LAY-10
  6
CONTINUOUS
 62
     7
100
AcDbLine
 10
380.9999999999938
 20
299.9852813742375
 30
0.0
 11
378.1715728752475
 21
295.742640687118
 31
0.0
  0
ARC
  5
217
330
1F
100
AcDbEntity
  8
LAY-10
  6
CONTINUOUS
 62
     7
100
AcDbCircle
 10
363.4999999999937
 20
338.999999999999
 30
0.0
 40
1.0
100
AcDbArc
 50
0.0
 51
90.0
  0
ARC
  5
218
330
1F
100
AcDbEntity
  8
LAY-10
  6
CONTINUOUS
 62
     7
100
AcDbCircle
 10
428.4999999999939
 20
273.9999999999989
 30
0.0
 40
1.0
100
AcDbArc
 50
0.0
 51
90.0
  0
ARC
  5
219
330
1F
100
AcDbEntity
  8
LAY-10
  6
CONTINUOUS
 62
     7
100
AcDbCircle
 10
407.1984848098285
 20
294.9999999999989
 30
0.0
 40
20.0
100
AcDbArc
 50
225.0000000000007
 51
270.0
  0
ARC
  5
21A
330
1F
100
AcDbEntity
  8
LAY-10
  6
CONTINUOUS
 62
     7
100
AcDbCircle
 10
384.4999999999937
 20
317.6984848098335
 30
0.0
 40
20.0
100
AcDbArc
 50
180.0
 51
225.0
  0
ARC
  5
21B
330
1F
100
AcDbEntity
  8
LAY-10
  6
CONTINUOUS
 62
     7
100
AcDbCircle
 10
407.1984848098285
 20
294.9999999999989
 30
0.0
 40
15.0
100
AcDbArc
 50
225.0000000000005
 51
270.0
  0
ARC
  5
21C
330
1F
100
AcDbEntity
  8
LAY-10
  6
CONTINUOUS
 62
     7
100
AcDbCircle
 10
384.4999999999937
 20
317.6984848098335
 30
0.0
 40
15.0
100
AcDbArc
 50
180.0
 51
225.0000000000005
  0
LINE
  5
21D
330
1F
100
AcDbEntity
  8
LAY-10
  6
CONTINUOUS
 62
     7
100
AcDbLine
 10
396.5918830920302
 20
284.3933982822006
 30
0.0
 11
373.8933982821957
 21
307.0918830920352
 31
0.0
  0
LINE
  5
21E
330
1F
100
AcDbEntity
  8
LAY-10
  6
CONTINUOUS
 62
     7
100
AcDbLine
 10
370.499999999995
 20
360.1999999999941
 30
0.0
 11
370.499999999995
 21
312.3133200026956
 31
0.0
  0
LINE
  5
21F
330
1F
100
AcDbEntity
  8
LAY-10
  6
CONTINUOUS
 62
     7
100
AcDbLine
 10
410.4999999999912
 20
281.1999999999904
 30
0.0
 11
409.0698956888883
 21
279.9999999999989
 31
0.0
  0
LINE
  5
220
330
1F
100
AcDbEntity
  8
LAY-10
  6
CONTINUOUS
 62
     7
100
AcDbLine
 10
403.1111277259171
 20
274.9999999999989
 30
0.0
 11
399.774217666643
 21
272.1999999999902
 31
0.0
  0
LINE
  5
221
330
1F
100
AcDbEntity
  8
LAY-10
  6
CONTINUOUS
 62
     7
100
AcDbLine
 10
397.4999999999912
 20
274.9999999999989
 30
0.0
 11
397.4999999999912
 21
274.1999999999941
 31
0.0
  0
LINE
  5
222
330
1F
100
AcDbEntity
  8
LAY-10
  6
CONTINUOUS
 62
     7
100
AcDbLine
 10
434.774217666647
 20
272.1999999999902
 30
0.0
 11
431.7857142856957
 21
272.1999999999902
 31
0.0
  0
LINE
  5
223
330
1F
100
AcDbEntity
  8
LAY-10
  6
CONTINUOUS
 62
     7
100
AcDbLine
 10
429.4999999999937
 20
272.1999999999902
 30
0.0
 11
378.4999999999949
 21
272.1999999999902
 31
0.0
  0
LINE
  5
224
330
1F
100
AcDbEntity
  8
LAY-10
  6
CONTINUOUS
 62
     7
100
AcDbLine
 10
342.8558199302001
 20
340.5258449990141
 30
0.0
 11
342.8558199302001
 21
343.5258449990097
 31
0.0
  0
LINE
  5
225
330
1F
100
AcDbEntity
  8
LAY-10
  6
CONTINUOUS
 62
     7
100
AcDbLine
 10
342.8757713597301
 20
257.525844999014
 30
0.0
 11
342.8757713597301
 21
254.5258449990095
 31
0.0
  0
LINE
  5
226
330
1F
100
AcDbEntity
  8
LAY-10
  6
CONTINUOUS
 62
     7
100
AcDbLine
 10
308.4999999999943
 20
254.5258449990095
 30
0.0
 11
308.4999999999943
 21
343.5258449990097
 31
0.0
  0
LINE
  5
227
330
1F
100
AcDbEntity
  8
LAY-10
  6
CONTINUOUS
 62
     7
100
AcDbLine
 10
342.8558199302001
 20
343.5258449990097
 30
0.0
 11
308.4999999999943
 21
343.5258449990097
 31
0.0
  0
LINE
  5
228
330
1F
100
AcDbEntity
  8
LAY-10
  6
CONTINUOUS
 62
     7
100
AcDbLine
 10
342.8558199301983
 20
340.5258449990095
 30
0.0
 11
308.4999999999943
 21
340.5258449990095
 31
0.0
  0
LINE
  5
229
330
1F
100
AcDbEntity
  8
LAY-10
  6
CONTINUOUS
 62
     7
100
AcDbLine
 10
342.8757713597305
 20
257.5258449990096
 30
0.0
 11
308.4999999999943
 21
257.5258449990096
 31
0.0
  0
LINE
  5
22A
330
1F
100
AcDbEntity
  8
LAY-10
  6
CONTINUOUS
 62
     7
100
AcDbLine
 10
308.4999999999943
 20
254.5258449990095
 30
0.0
 11
342.8757713597301
 21
254.5258449990095
 31
0.0
  0
LINE
  5
22B
330
1F
100
AcDbEntity
  8
LAY-10
  6
CONTINUOUS
 62
     7
100
AcDbLine
 10
308.49999999999
 20
510.49999999999
 30
0.0
 11
308.49999999999
 21
599.49999999999
 31
0.0
  0
LINE
  5
22C
330
1F
100
AcDbEntity
  8
LAY-10
  6
CONTINUOUS
 62
     7
100
AcDbLine
 10
342.87577135973
 20
510.4999999999898
 30
0.0
 11
342.87577135973
 21
599.4999999999899
 31
0.0
  0
LINE
  5
22D
330
1F
100
AcDbEntity
  8
LAY-10
  6
CONTINUOUS
 62
     7
100
AcDbLine
 10
342.87577135973
 20
513.9999999999899
 30
0.0
 11
342.9999999999951
 21
513.9999999999899
 31
0.0
  0
LINE
  5
22E
330
1F
100
AcDbEntity
  8
LAY-10
  6
CONTINUOUS
 62
     7
100
AcDbLine
 10
342.87577135973
 20
595.9999999999898
 30
0.0
 11
342.9999999999951
 21
595.9999999999898
 31
0.0
  0
LINE
  5
22F
330
1F
100
AcDbEntity
  8
LAY-10
  6
CONTINUOUS
 62
     7
100
AcDbLine
 10
342.87577135973
 20
510.4999999999898
 30
0.0
 11
308.49999999999
 21
510.4999999999898
 31
0.0
  0
LINE
  5
230
330
1F
100
AcDbEntity
  8
LAY-10
  6
CONTINUOUS
 62
     7
100
AcDbLine
 10
342.87577135973
 20
599.4999999999899
 30
0.0
 11
308.49999999999
 21
599.4999999999899
 31
0.0
  0
LINE
  5
231
330
1F
100
AcDbEntity
  8
LAY-10
  6
CONTINUOUS
 62
     7
100
AcDbLine
 10
361.499999999995
 20
337.9999999999943
 30
0.0
 11
364.4999999999938
 21
337.9999999999943
 31
0.0
  0
LINE
  5
232
330
1F
100
AcDbEntity
  8
LAY-10
  6
CONTINUOUS
 62
     7
100
AcDbLine
 10
361.499999999995
 20
331.9999999999939
 30
0.0
 11
364.4999999999938
 21
331.9999999999939
 31
0.0
  0
LINE
  5
233
330
1F
100
AcDbEntity
  8
LAY-10
  6
CONTINUOUS
 62
     7
100
AcDbLine
 10
591.9999999999951
 20
272.1999999999903
 30
0.0
 11
592.3936989858618
 21
267.6999999999902
 31
0.0
  0
LINE
  5
234
330
1F
100
AcDbEntity
  8
LAY-10
  6
CONTINUOUS
 62
     7
100
AcDbLine
 10
606.8607331645461
 20
280.3643989872955
 30
0.0
 11
605.4999999999951
 21
272.1999999999903
 31
0.0
  0
ARC
  5
235
330
1F
100
AcDbEntity
  8
LAY-10
  6
CONTINUOUS
 62
     7
100
AcDbCircle
 10
607.8471270883782
 20
280.1999999999902
 30
0.0
 40
1.0
100
AcDbArc
 50
90.0
 51
170.5376777919723
  0
LINE
  5
236
330
1F
100
AcDbEntity
  8
LAY-10
  6
CONTINUOUS
 62
     7
100
AcDbLine
 10
591.9999999999951
 20
272.1999999999903
 30
0.0
 11
591.9999999999951
 21
359.9999999999902
 31
0.0
  0
LINE
  5
237
330
1F
100
AcDbEntity
  8
LAY-10
  6
CONTINUOUS
 62
     7
100
AcDbLine
 10
611.676206522461
 20
326.9999999999902
 30
0.0
 11
611.676206522461
 21
343.7742176666422
 31
0.0
  0
LINE
  5
238
330
1F
100
AcDbEntity
  8
LAY-10
  6
CONTINUOUS
 62
     7
100
AcDbLine
 10
615.9999999999951
 20
272.0791953942132
 30
0.0
 11
615.9999999999951
 21
281.1999999999903
 31
0.0
  0
LINE
  5
239
330
1F
100
AcDbEntity
  8
LAY-10
  6
CONTINUOUS
 62
     7
100
AcDbLine
 10
615.8048447176994
 20
281.1395976971018
 30
0.0
 11
615.2892486047838
 21
273.8138913386417
 31
0.0
  0
LINE
  5
23A
330
1F
100
AcDbEntity
  8
LAY-10
  6
CONTINUOUS
 62
     7
100
AcDbLine
 10
615.7259355716346
 20
272.4198967995688
 30
0.0
 11
615.9999999999951
 21
272.0791953942132
 31
0.0
  0
ARC
  5
23B
330
1F
100
AcDbEntity
  8
LAY-10
  6
CONTINUOUS
 62
     7
100
AcDbCircle
 10
617.2843133404399
 20
273.6734751695536
 30
0.0
 40
2.0
100
AcDbArc
 50
175.9740610106443
 51
218.8136296996952
  0
ARC
  5
23C
330
1F
100
AcDbEntity
  8
LAY-10
  6
CONTINUOUS
 62
     7
100
AcDbCircle
 10
632.7156866595503
 20
273.6734751695536
 30
0.0
 40
2.0
100
AcDbArc
 50
321.1863703003049
 51
4.025938989355763
  0
LINE
  5
23D
330
1F
100
AcDbEntity
  8
LAY-10
  6
CONTINUOUS
 62
     7
100
AcDbLine
 10
633.9999999999951
 20
272.0791953942132
 30
0.0
 11
633.9999999999951
 21
281.1999999999903
 31
0.0
  0
LINE
  5
23E
330
1F
100
AcDbEntity
  8
LAY-10
  6
CONTINUOUS
 62
     7
100
AcDbLine
 10
634.1951552822909
 20
281.1395976971018
 30
0.0
 11
634.7107513952066
 21
273.8138913386417
 31
0.0
  0
LINE
  5
23F
330
1F
100
AcDbEntity
  8
LAY-10
  6
CONTINUOUS
 62
     7
100
AcDbLine
 10
634.2740644283556
 20
272.4198967995688
 30
0.0
 11
633.9999999999951
 21
272.0791953942132
 31
0.0
  0
ARC
  5
240
330
1F
100
AcDbEntity
  8
LAY-10
  6
CONTINUOUS
 62
     7
100
AcDbCircle
 10
606.9999999999951
 20
359.9999999999902
 30
0.0
 40
15.00000000000001
100
AcDbArc
 50
90.0
 51
180.0
  0
LINE
  5
241
330
1F
100
AcDbEntity
  8
LAY-10
  6
CONTINUOUS
 62
     7
100
AcDbLine
 10
612.4999999999951
 20
281.1999999999903
 30
0.0
 11
612.4999999999951
 21
323.4247392222042
 31
0.0
  0
LINE
  5
242
330
1F
100
AcDbEntity
  8
LAY-10
  6
CONTINUOUS
 62
     7
100
AcDbLine
 10
611.676206522464
 20
326.9999999999942
 30
0.0
 11
612.476206522464
 21
323.4247392222042
 31
0.0
  0
LINE
  5
243
330
1F
100
AcDbEntity
  8
LAY-10
  6
CONTINUOUS
 62
     7
100
AcDbLine
 10
606.9999999999951
 20
374.9999999999902
 30
0.0
 11
742.9999999999941
 21
374.9999999999903
 31
0.0
  0
LINE
  5
244
330
1F
100
AcDbEntity
  8
LAY-10
  6
CONTINUOUS
 62
     7
100
AcDbLine
 10
606.9999999999951
 20
280.7313903425141
 30
0.0
 11
606.9999999999951
 21
355.1999999999902
 31
0.0
  0
LINE
  5
245
330
1F
100
AcDbEntity
  8
LAY-10
  6
CONTINUOUS
 62
     7
100
AcDbLine
 10
605.4999999999951
 20
272.1999999999903
 30
0.0
 11
605.4999999999951
 21
353.3585158411747
 31
0.0
  0
ARC
  5
246
330
1F
100
AcDbEntity
  8
LAY-10
  6
CONTINUOUS
 62
     7
100
AcDbCircle
 10
611.9999999999952
 20
355.1999999999902
 30
0.0
 40
5.0
100
AcDbArc
 50
90.0
 51
180.0
  0
LINE
  5
247
330
1F
100
AcDbEntity
  8
LAY-10
  6
CONTINUOUS
 62
     7
100
AcDbLine
 10
605.4999999999951
 20
353.3585158411747
 30
0.0
 11
606.9999999999951
 21
355.1999999999902
 31
0.0
  0
LINE
  5
248
330
1F
100
AcDbEntity
  8
LAY-10
  6
CONTINUOUS
 62
     7
100
AcDbLine
 10
610.9999999999951
 20
281.1999999999903
 30
0.0
 11
610.9999999999951
 21
354.1999999999903
 31
0.0
  0
ARC
  5
249
330
1F
100
AcDbEntity
  8
LAY-10
  6
CONTINUOUS
 62
     7
100
AcDbCircle
 10
612.9999999999951
 20
354.1999999999903
 30
0.0
 40
2.0
100
AcDbArc
 50
90.0
 51
180.0
  0
LINE
  5
24A
330
1F
100
AcDbEntity
  8
LAY-10
  6
CONTINUOUS
 62
     7
100
AcDbLine
 10
607.8471270883782
 20
281.1999999999903
 30
0.0
 11
646.9999999999917
 21
281.1999999999903
 31
0.0
  0
LINE
  5
24B
330
1F
100
AcDbEntity
  8
LAY-10
  6
CONTINUOUS
 62
     7
100
AcDbLine
 10
654.9999999999902
 20
281.199999999999
 30
0.0
 11
653.7044734172823
 21
273.8527036446564
 31
0.0
  0
ARC
  5
24C
330
1F
100
AcDbEntity
  8
LAY-10
  6
CONTINUOUS
 62
     7
100
AcDbCircle
 10
651.7348579112579
 20
274.1999999999902
 30
0.0
 40
2.0
100
AcDbArc
 50
270.0
 51
350.0000000000014
  0
LINE
  5
24D
330
1F
100
AcDbEntity
  8
LAY-10
  6
CONTINUOUS
 62
     7
100
AcDbLine
 10
646.9999999999901
 20
281.199999999999
 30
0.0
 11
648.295526582698
 21
273.8527036446564
 31
0.0
  0
ARC
  5
24E
330
1F
100
AcDbEntity
  8
LAY-10
  6
CONTINUOUS
 62
     7
100
AcDbCircle
 10
650.2651420887224
 20
274.1999999999902
 30
0.0
 40
2.0
100
AcDbArc
 50
189.9999999999986
 51
270.0
  0
LINE
  5
24F
330
1F
100
AcDbEntity
  8
LAY-10
  6
CONTINUOUS
 62
     7
100
AcDbLine
 10
757.9999999999951
 20
272.1999999999903
 30
0.0
 11
757.6063010141285
 21
267.6999999999902
 31
0.0
  0
LINE
  5
250
330
1F
100
AcDbEntity
  8
LAY-10
  6
CONTINUOUS
 62
     7
100
AcDbLine
 10
743.1392668354443
 20
280.3643989872955
 30
0.0
 11
744.4999999999951
 21
272.1999999999903
 31
0.0
  0
ARC
  5
251
330
1F
100
AcDbEntity
  8
LAY-10
  6
CONTINUOUS
 62
     7
100
AcDbCircle
 10
742.152872911612
 20
280.1999999999902
 30
0.0
 40
1.0
100
AcDbArc
 50
9.462322208027748
 51
90.0
  0
LINE
  5
252
330
1F
100
AcDbEntity
  8
LAY-10
  6
CONTINUOUS
 62
     7
100
AcDbLine
 10
757.9999999999951
 20
272.1999999999903
 30
0.0
 11
757.9999999999951
 21
359.9999999999902
 31
0.0
  0
LINE
  5
253
330
1F
100
AcDbEntity
  8
LAY-10
  6
CONTINUOUS
 62
     7
100
AcDbLine
 10
738.3237934775294
 20
326.9999999999902
 30
0.0
 11
738.3237934775294
 21
343.7742176666422
 31
0.0
  0
LINE
  5
254
330
1F
100
AcDbEntity
  8
LAY-10
  6
CONTINUOUS
 62
     7
100
AcDbLine
 10
733.9999999999951
 20
272.0791953942132
 30
0.0
 11
733.9999999999951
 21
281.1999999999903
 31
0.0
  0
LINE
  5
255
330
1F
100
AcDbEntity
  8
LAY-10
  6
CONTINUOUS
 62
     7
100
AcDbLine
 10
734.195155282291
 20
281.1395976971018
 30
0.0
 11
734.7107513952064
 21
273.8138913386417
 31
0.0
  0
LINE
  5
256
330
1F
100
AcDbEntity
  8
LAY-10
  6
CONTINUOUS
 62
     7
100
AcDbLine
 10
734.2740644283556
 20
272.4198967995688
 30
0.0
 11
733.9999999999951
 21
272.0791953942132
 31
0.0
  0
ARC
  5
257
330
1F
100
AcDbEntity
  8
LAY-10
  6
CONTINUOUS
 62
     7
100
AcDbCircle
 10
732.7156866595503
 20
273.6734751695536
 30
0.0
 40
2.0
100
AcDbArc
 50
321.1863703003049
 51
4.025938989355763
  0
ARC
  5
258
330
1F
100
AcDbEntity
  8
LAY-10
  6
CONTINUOUS
 62
     7
100
AcDbCircle
 10
717.2843133404399
 20
273.6734751695536
 30
0.0
 40
2.0
100
AcDbArc
 50
175.9740610106443
 51
218.8136296996952
  0
LINE
  5
259
330
1F
100
AcDbEntity
  8
LAY-10
  6
CONTINUOUS
 62
     7
100
AcDbLine
 10
715.9999999999951
 20
272.0791953942132
 30
0.0
 11
715.9999999999951
 21
281.1999999999903
 31
0.0
  0
LINE
  5
25A
330
1F
100
AcDbEntity
  8
LAY-10
  6
CONTINUOUS
 62
     7
100
AcDbLine
 10
715.8048447176993
 20
281.1395976971018
 30
0.0
 11
715.2892486047839
 21
273.8138913386417
 31
0.0
  0
LINE
  5
25B
330
1F
100
AcDbEntity
  8
LAY-10
  6
CONTINUOUS
 62
     7
100
AcDbLine
 10
715.7259355716346
 20
272.4198967995688
 30
0.0
 11
715.9999999999951
 21
272.0791953942132
 31
0.0
  0
ARC
  5
25C
330
1F
100
AcDbEntity
  8
LAY-10
  6
CONTINUOUS
 62
     7
100
AcDbCircle
 10
742.9999999999951
 20
359.9999999999902
 30
0.0
 40
15.00000000000001
100
AcDbArc
 50
0.0
 51
90.0
  0
LINE
  5
25D
330
1F
100
AcDbEntity
  8
LAY-10
  6
CONTINUOUS
 62
     7
100
AcDbLine
 10
737.4999999999951
 20
281.1999999999903
 30
0.0
 11
737.4999999999951
 21
323.4247392222042
 31
0.0
  0
LINE
  5
25E
330
1F
100
AcDbEntity
  8
LAY-10
  6
CONTINUOUS
 62
     7
100
AcDbLine
 10
738.3237934775264
 20
326.9999999999942
 30
0.0
 11
737.5237934775264
 21
323.4247392222042
 31
0.0
  0
LINE
  5
25F
330
1F
100
AcDbEntity
  8
LAY-10
  6
CONTINUOUS
 62
     7
100
AcDbLine
 10
742.9999999999951
 20
280.7313903425141
 30
0.0
 11
742.9999999999951
 21
355.1999999999902
 31
0.0
  0
LINE
  5
260
330
1F
100
AcDbEntity
  8
LAY-10
  6
CONTINUOUS
 62
     7
100
AcDbLine
 10
744.4999999999951
 20
272.1999999999903
 30
0.0
 11
744.4999999999951
 21
353.3585158411747
 31
0.0
  0
ARC
  5
261
330
1F
100
AcDbEntity
  8
LAY-10
  6
CONTINUOUS
 62
     7
100
AcDbCircle
 10
737.9999999999952
 20
355.1999999999902
 30
0.0
 40
5.0
100
AcDbArc
 50
0.0
 51
90.0
  0
LINE
  5
262
330
1F
100
AcDbEntity
  8
LAY-10
  6
CONTINUOUS
 62
     7
100
AcDbLine
 10
744.4999999999951
 20
353.3585158411747
 30
0.0
 11
742.9999999999951
 21
355.1999999999902
 31
0.0
  0
LINE
  5
263
330
1F
100
AcDbEntity
  8
LAY-10
  6
CONTINUOUS
 62
     7
100
AcDbLine
 10
738.9999999999951
 20
281.1999999999903
 30
0.0
 11
738.9999999999951
 21
354.1999999999903
 31
0.0
  0
ARC
  5
264
330
1F
100
AcDbEntity
  8
LAY-10
  6
CONTINUOUS
 62
     7
100
AcDbCircle
 10
736.9999999999951
 20
354.1999999999903
 30
0.0
 40
2.0
100
AcDbArc
 50
0.0
 51
90.0
  0
LINE
  5
265
330
1F
100
AcDbEntity
  8
LAY-10
  6
CONTINUOUS
 62
     7
100
AcDbLine
 10
742.152872911612
 20
281.1999999999903
 30
0.0
 11
702.9999999999986
 21
281.1999999999903
 31
0.0
  0
LINE
  5
266
330
1F
100
AcDbEntity
  8
LAY-10
  6
CONTINUOUS
 62
     7
100
AcDbLine
 10
695.0
 20
281.199999999999
 30
0.0
 11
696.2955265827079
 21
273.8527036446564
 31
0.0
  0
ARC
  5
267
330
1F
100
AcDbEntity
  8
LAY-10
  6
CONTINUOUS
 62
     7
100
AcDbCircle
 10
698.2651420887323
 20
274.1999999999902
 30
0.0
 40
2.0
100
AcDbArc
 50
189.9999999999986
 51
270.0
  0
LINE
  5
268
330
1F
100
AcDbEntity
  8
LAY-10
  6
CONTINUOUS
 62
     7
100
AcDbLine
 10
703.0000000000001
 20
281.199999999999
 30
0.0
 11
701.7044734172922
 21
273.8527036446564
 31
0.0
  0
ARC
  5
269
330
1F
100
AcDbEntity
  8
LAY-10
  6
CONTINUOUS
 62
     7
100
AcDbCircle
 10
699.7348579112679
 20
274.1999999999902
 30
0.0
 40
2.0
100
AcDbArc
 50
270.0
 51
350.0000000000014
  0
LINE
  5
26A
330
1F
100
AcDbEntity
  8
LAY-10
  6
CONTINUOUS
 62
     7
100
AcDbLine
 10
591.9999999999951
 20
272.1999999999903
 30
0.0
 11
757.9999999999941
 21
272.1999999999903
 31
0.0
  0
LINE
  5
26B
330
1F
100
AcDbEntity
  8
LAY-10
  6
CONTINUOUS
 62
     7
100
AcDbLine
 10
654.9999999999887
 20
281.1999999999903
 30
0.0
 11
695.0000000000016
 21
281.1999999999903
 31
0.0
  0
LINE
  5
26C
330
1F
100
AcDbEntity
  8
LAY-10
  6
CONTINUOUS
 62
     7
100
AcDbLine
 10
592.3936989858618
 20
267.6999999999902
 30
0.0
 11
757.606301014124
 21
267.6999999999902
 31
0.0
  0
LINE
  5
26D
330
1F
100
AcDbEntity
  8
LAY-10
  6
CONTINUOUS
 62
     7
100
AcDbLine
 10
612.9999999999941
 20
323.4247392222077
 30
0.0
 11
612.476206522464
 21
323.4247392222077
 31
0.0
  0
LINE
  5
26E
330
1F
100
AcDbEntity
  8
LAY-10
  6
CONTINUOUS
 62
     7
100
AcDbLine
 10
611.676206522461
 20
326.9999999999902
 30
0.0
 11
612.9999999999941
 21
326.9999999999902
 31
0.0
  0
ARC
  5
26F
330
1F
100
AcDbEntity
  8
LAY-10
  6
CONTINUOUS
 62
     7
100
AcDbCircle
 10
614.1304880253107
 20
343.2695512214908
 30
0.0
 40
2.505630841942158
100
AcDbArc
 50
116.8193527562495
 51
168.3804045977638
  0
ARC
  5
270
330
1F
100
AcDbEntity
  8
LAY-10
  6
CONTINUOUS
 62
     7
100
AcDbCircle
 10
735.8695119746798
 20
343.2695512214908
 30
0.0
 40
2.505630841942158
100
AcDbArc
 50
11.61959540223623
 51
63.18064724380582
  0
LINE
  5
271
330
1F
100
AcDbEntity
  8
LAY-10
  6
CONTINUOUS
 62
     7
100
AcDbLine
 10
738.3237934775294
 20
326.9999999999902
 30
0.0
 11
736.9999999999941
 21
326.9999999999902
 31
0.0
  0
LINE
  5
272
330
1F
100
AcDbEntity
  8
LAY-10
  6
CONTINUOUS
 62
     7
100
AcDbLine
 10
736.9999999999941
 20
323.4247392222077
 30
0.0
 11
737.5237934775264
 21
323.4247392222077
 31
0.0
  0
LINE
  5
273
330
1F
100
AcDbEntity
  8
LAY-10
  6
CONTINUOUS
 62
     7
100
AcDbLine
 10
736.9999999999978
 20
351.9999999999989
 30
0.0
 11
612.9999999999977
 21
351.9999999999989
 31
0.0
  0
ARC
  5
274
330
1F
100
AcDbEntity
  8
LAY-10
  6
CONTINUOUS
 62
     7
100
AcDbCircle
 10
671.999999999998
 20
337.9999999999989
 30
0.0
 40
2.0
100
AcDbArc
 50
90.0
 51
180.0
  0
LINE
  5
275
330
1F
100
AcDbEntity
  8
LAY-10
  6
CONTINUOUS
 62
     7
100
AcDbLine
 10
677.9999999999976
 20
339.9999999999989
 30
0.0
 11
671.999999999998
 21
339.9999999999989
 31
0.0
  0
LINE
  5
276
330
1F
100
AcDbEntity
  8
LAY-10
  6
CONTINUOUS
 62
     7
100
AcDbLine
 10
669.9999999999977
 20
337.9999999999989
 30
0.0
 11
669.9999999999977
 21
301.9852813742375
 31
0.0
  0
ARC
  5
277
330
1F
100
AcDbEntity
  8
LAY-10
  6
CONTINUOUS
 62
     7
100
AcDbCircle
 10
671.999999999998
 20
301.9852813742375
 30
0.0
 40
2.0
100
AcDbArc
 50
180.0
 51
270.0
  0
LINE
  5
278
330
1F
100
AcDbEntity
  8
LAY-10
  6
CONTINUOUS
 62
     7
100
AcDbLine
 10
671.999999999998
 20
299.9852813742375
 30
0.0
 11
677.9999999999976
 21
299.9852813742375
 31
0.0
  0
ARC
  5
279
330
1F
100
AcDbEntity
  8
LAY-10
  6
CONTINUOUS
 62
     7
100
AcDbCircle
 10
671.999999999998
 20
289.4999999999984
 30
0.0
 40
2.0
100
AcDbArc
 50
90.0
 51
180.0
  0
LINE
  5
27A
330
1F
100
AcDbEntity
  8
LAY-10
  6
CONTINUOUS
 62
     7
100
AcDbLine
 10
671.999999999998
 20
291.4999999999985
 30
0.0
 11
677.9999999999976
 21
291.4999999999985
 31
0.0
  0
ARC
  5
27B
330
1F
100
AcDbEntity
  8
LAY-10
  6
CONTINUOUS
 62
     7
100
AcDbCircle
 10
624.9999999999977
 20
338.999999999999
 30
0.0
 40
7.000000000000002
100
AcDbArc
 50
0.0
 51
180.0
  0
ARC
  5
27C
330
1F
100
AcDbEntity
  8
LAY-10
  6
CONTINUOUS
 62
     7
100
AcDbCircle
 10
624.9999999999977
 20
333.9999999999989
 30
0.0
 40
7.000000000000002
100
AcDbArc
 50
180.0
 51
0.0
  0
LINE
  5
27D
330
1F
100
AcDbEntity
  8
LAY-10
  6
CONTINUOUS
 62
     7
100
AcDbLine
 10
617.9999999999976
 20
333.9999999999989
 30
0.0
 11
617.9999999999976
 21
338.999999999999
 31
0.0
  0
LINE
  5
27E
330
1F
100
AcDbEntity
  8
LAY-10
  6
CONTINUOUS
 62
     7
100
AcDbLine
 10
631.9999999999975
 20
333.9999999999989
 30
0.0
 11
631.9999999999975
 21
338.999999999999
 31
0.0
  0
ARC
  5
27F
330
1F
100
AcDbEntity
  8
LAY-10
  6
CONTINUOUS
 62
     7
100
AcDbCircle
 10
639.9999999999981
 20
337.9999999999989
 30
0.0
 40
2.0
100
AcDbArc
 50
90.0
 51
180.0
  0
LINE
  5
280
330
1F
100
AcDbEntity
  8
LAY-10
  6
CONTINUOUS
 62
     7
100
AcDbLine
 10
645.9999999999981
 20
339.9999999999989
 30
0.0
 11
639.9999999999981
 21
339.9999999999989
 31
0.0
  0
ARC
  5
281
330
1F
100
AcDbEntity
  8
LAY-10
  6
CONTINUOUS
 62
     7
100
AcDbCircle
 10
645.9999999999981
 20
337.9999999999989
 30
0.0
 40
2.0
100
AcDbArc
 50
0.0
 51
90.0
  0
LINE
  5
282
330
1F
100
AcDbEntity
  8
LAY-10
  6
CONTINUOUS
 62
     7
100
AcDbLine
 10
621.9999999999981
 20
311.485281374237
 30
0.0
 11
612.9999999999977
 21
311.485281374237
 31
0.0
  0
LINE
  5
283
330
1F
100
AcDbEntity
  8
LAY-10
  6
CONTINUOUS
 62
     7
100
AcDbLine
 10
637.9999999999978
 20
311.485281374237
 30
0.0
 11
631.9999999999982
 21
311.485281374237
 31
0.0
  0
ELLIPSE
  5
284
330
1F
100
AcDbEntity
  8
LAY-10
  6
CONTINUOUS
 62
     7
100
AcDbEllipse
 10
634.9999999999975
 20
295.742640687118
 30
0.0
 11
7.499999999999782
 21
-1.836970198720976E-15
 31
0.0
210
0.0
220
0.0
230
1.0
 40
0.7071067811865668
 41
0.0
 42
6.283185307179586
  0
ELLIPSE
  5
285
330
1F
100
AcDbEntity
  8
LAY-10
  6
CONTINUOUS
 62
     7
100
AcDbEllipse
 10
634.9999999999975
 20
293.830516800012
 30
0.0
 11
6.500000000000005
 21
0.0
 31
0.0
210
0.0
220
0.0
230
1.0
 40
0.6620462859844755
 41
6.071424797148639
 42
9.636538470800325
  0
LINE
  5
286
330
1F
100
AcDbEntity
  8
LAY-10
  6
CONTINUOUS
 62
     7
100
AcDbLine
 10
637.9999999999978
 20
337.9999999999989
 30
0.0
 11
637.9999999999978
 21
307.8657338847796
 31
0.0
  0
LINE
  5
287
330
1F
100
AcDbEntity
  8
LAY-10
  6
CONTINUOUS
 62
     7
100
AcDbLine
 10
647.999999999998
 20
305.4103170613052
 30
0.0
 11
647.999999999998
 21
337.9999999999989
 31
0.0
  0
LINE
  5
288
330
1F
100
AcDbEntity
  8
LAY-10
  6
CONTINUOUS
 62
     7
100
AcDbLine
 10
647.999999999998
 20
286.0749643129308
 30
0.0
 11
647.999999999998
 21
279.9999999999989
 31
0.0
  0
TEXT
  5
289
330
1F
100
AcDbEntity
  8
LAY-10
  6
CONTINUOUS
 62
     7
100
AcDbText
 10
649.9999999999976
 20
294.2122049298347
 30
0.0
 40
3.27401577131691
  1
ＦＵＫＵＮＩＳＨＩ
 41
1.480142053688885
  7
EXCADSTD
100
AcDbText
  0
ARC
  5
28A
330
1F
100
AcDbEntity
  8
LAY-10
  6
CONTINUOUS
 62
     7
100
AcDbCircle
 10
655.9999999999982
 20
301.9852813742375
 30
0.0
 40
2.0
100
AcDbArc
 50
180.0
 51
270.0
  0
LINE
  5
28B
330
1F
100
AcDbEntity
  8
LAY-10
  6
CONTINUOUS
 62
     7
100
AcDbLine
 10
655.9999999999982
 20
299.9852813742375
 30
0.0
 11
661.9999999999978
 21
299.9852813742375
 31
0.0
  0
ARC
  5
28C
330
1F
100
AcDbEntity
  8
LAY-10
  6
CONTINUOUS
 62
     7
100
AcDbCircle
 10
661.9999999999978
 20
301.9852813742375
 30
0.0
 40
2.0
100
AcDbArc
 50
270.0
 51
0.0
  0
LINE
  5
28D
330
1F
100
AcDbEntity
  8
LAY-10
  6
CONTINUOUS
 62
     7
100
AcDbLine
 10
653.9999999999983
 20
279.9999999999989
 30
0.0
 11
653.9999999999983
 21
289.4999999999984
 31
0.0
  0
ARC
  5
28E
330
1F
100
AcDbEntity
  8
LAY-10
  6
CONTINUOUS
 62
     7
100
AcDbCircle
 10
655.9999999999982
 20
289.4999999999984
 30
0.0
 40
2.0
100
AcDbArc
 50
90.0
 51
180.0
  0
LINE
  5
28F
330
1F
100
AcDbEntity
  8
LAY-10
  6
CONTINUOUS
 62
     7
100
AcDbLine
 10
655.9999999999982
 20
291.4999999999985
 30
0.0
 11
661.9999999999978
 21
291.4999999999985
 31
0.0
  0
ARC
  5
290
330
1F
100
AcDbEntity
  8
LAY-10
  6
CONTINUOUS
 62
     7
100
AcDbCircle
 10
661.9999999999978
 20
289.4999999999984
 30
0.0
 40
2.0
100
AcDbArc
 50
0.0
 51
90.0
  0
ARC
  5
291
330
1F
100
AcDbEntity
  8
LAY-10
  6
CONTINUOUS
 62
     7
100
AcDbCircle
 10
655.9999999999982
 20
337.9999999999989
 30
0.0
 40
2.0
100
AcDbArc
 50
90.0
 51
180.0
  0
LINE
  5
292
330
1F
100
AcDbEntity
  8
LAY-10
  6
CONTINUOUS
 62
     7
100
AcDbLine
 10
661.9999999999978
 20
339.9999999999989
 30
0.0
 11
655.9999999999982
 21
339.9999999999989
 31
0.0
  0
ARC
  5
293
330
1F
100
AcDbEntity
  8
LAY-10
  6
CONTINUOUS
 62
     7
100
AcDbCircle
 10
661.9999999999978
 20
337.9999999999989
 30
0.0
 40
2.0
100
AcDbArc
 50
0.0
 51
90.0
  0
LINE
  5
294
330
1F
100
AcDbEntity
  8
LAY-10
  6
CONTINUOUS
 62
     7
100
AcDbLine
 10
653.9999999999983
 20
337.9999999999989
 30
0.0
 11
653.9999999999983
 21
301.9852813742375
 31
0.0
  0
LINE
  5
295
330
1F
100
AcDbEntity
  8
LAY-10
  6
CONTINUOUS
 62
     7
100
AcDbLine
 10
663.9999999999981
 20
301.9852813742375
 30
0.0
 11
663.9999999999981
 21
337.9999999999989
 31
0.0
  0
ARC
  5
296
330
1F
100
AcDbEntity
  8
LAY-10
  6
CONTINUOUS
 62
     7
100
AcDbCircle
 10
724.9999999999978
 20
338.999999999999
 30
0.0
 40
7.000000000000002
100
AcDbArc
 50
0.0
 51
180.0
  0
ARC
  5
297
330
1F
100
AcDbEntity
  8
LAY-10
  6
CONTINUOUS
 62
     7
100
AcDbCircle
 10
724.9999999999978
 20
333.9999999999989
 30
0.0
 40
7.000000000000002
100
AcDbArc
 50
180.0
 51
0.0
  0
LINE
  5
298
330
1F
100
AcDbEntity
  8
LAY-10
  6
CONTINUOUS
 62
     7
100
AcDbLine
 10
731.999999999998
 20
333.9999999999989
 30
0.0
 11
731.999999999998
 21
338.999999999999
 31
0.0
  0
LINE
  5
299
330
1F
100
AcDbEntity
  8
LAY-10
  6
CONTINUOUS
 62
     7
100
AcDbLine
 10
717.9999999999977
 20
333.9999999999989
 30
0.0
 11
717.9999999999977
 21
338.999999999999
 31
0.0
  0
ELLIPSE
  5
29A
330
1F
100
AcDbEntity
  8
LAY-10
  6
CONTINUOUS
 62
     7
100
AcDbEllipse
 10
714.9999999999977
 20
295.742640687118
 30
0.0
 11
7.499999999999782
 21
-1.836970198720976E-15
 31
0.0
210
0.0
220
0.0
230
1.0
 40
0.7071067811865668
 41
0.0
 42
6.283185307179586
  0
ELLIPSE
  5
29B
330
1F
100
AcDbEntity
  8
LAY-10
  6
CONTINUOUS
 62
     7
100
AcDbEllipse
 10
714.9999999999977
 20
293.830516800012
 30
0.0
 11
6.500000000000005
 21
0.0
 31
0.0
210
0.0
220
0.0
230
1.0
 40
0.6620462859844755
 41
6.071424797148639
 42
9.636538470800325
  0
ARC
  5
29C
330
1F
100
AcDbEntity
  8
LAY-10
  6
CONTINUOUS
 62
     7
100
AcDbCircle
 10
677.9999999999976
 20
301.9852813742375
 30
0.0
 40
2.0
100
AcDbArc
 50
270.0
 51
0.0
  0
ARC
  5
29D
330
1F
100
AcDbEntity
  8
LAY-10
  6
CONTINUOUS
 62
     7
100
AcDbCircle
 10
677.9999999999976
 20
289.4999999999984
 30
0.0
 40
2.0
100
AcDbArc
 50
0.0
 51
90.0
  0
ARC
  5
29E
330
1F
100
AcDbEntity
  8
LAY-10
  6
CONTINUOUS
 62
     7
100
AcDbCircle
 10
677.9999999999976
 20
337.9999999999989
 30
0.0
 40
2.0
100
AcDbArc
 50
0.0
 51
90.0
  0
LINE
  5
29F
330
1F
100
AcDbEntity
  8
LAY-10
  6
CONTINUOUS
 62
     7
100
AcDbLine
 10
679.9999999999975
 20
337.9999999999989
 30
0.0
 11
679.9999999999975
 21
301.9852813742375
 31
0.0
  0
ARC
  5
2A0
330
1F
100
AcDbEntity
  8
LAY-10
  6
CONTINUOUS
 62
     7
100
AcDbCircle
 10
693.9999999999974
 20
301.9852813742375
 30
0.0
 40
2.0
100
AcDbArc
 50
270.0
 51
0.0
  0
LINE
  5
2A1
330
1F
100
AcDbEntity
  8
LAY-10
  6
CONTINUOUS
 62
     7
100
AcDbLine
 10
693.9999999999974
 20
299.9852813742375
 30
0.0
 11
687.9999999999974
 21
299.9852813742375
 31
0.0
  0
ARC
  5
2A2
330
1F
100
AcDbEntity
  8
LAY-10
  6
CONTINUOUS
 62
     7
100
AcDbCircle
 10
687.9999999999974
 20
301.9852813742375
 30
0.0
 40
2.0
100
AcDbArc
 50
180.0
 51
270.0
  0
LINE
  5
2A3
330
1F
100
AcDbEntity
  8
LAY-10
  6
CONTINUOUS
 62
     7
100
AcDbLine
 10
695.9999999999973
 20
279.9999999999989
 30
0.0
 11
695.9999999999973
 21
289.4999999999984
 31
0.0
  0
ARC
  5
2A4
330
1F
100
AcDbEntity
  8
LAY-10
  6
CONTINUOUS
 62
     7
100
AcDbCircle
 10
693.9999999999974
 20
289.4999999999984
 30
0.0
 40
2.0
100
AcDbArc
 50
0.0
 51
90.0
  0
LINE
  5
2A5
330
1F
100
AcDbEntity
  8
LAY-10
  6
CONTINUOUS
 62
     7
100
AcDbLine
 10
693.9999999999974
 20
291.4999999999985
 30
0.0
 11
687.9999999999974
 21
291.4999999999985
 31
0.0
  0
ARC
  5
2A6
330
1F
100
AcDbEntity
  8
LAY-10
  6
CONTINUOUS
 62
     7
100
AcDbCircle
 10
687.9999999999974
 20
289.4999999999984
 30
0.0
 40
2.0
100
AcDbArc
 50
90.0
 51
180.0
  0
ARC
  5
2A7
330
1F
100
AcDbEntity
  8
LAY-10
  6
CONTINUOUS
 62
     7
100
AcDbCircle
 10
693.9999999999974
 20
337.9999999999989
 30
0.0
 40
2.0
100
AcDbArc
 50
0.0
 51
90.0
  0
LINE
  5
2A8
330
1F
100
AcDbEntity
  8
LAY-10
  6
CONTINUOUS
 62
     7
100
AcDbLine
 10
687.9999999999974
 20
339.9999999999989
 30
0.0
 11
693.9999999999974
 21
339.9999999999989
 31
0.0
  0
ARC
  5
2A9
330
1F
100
AcDbEntity
  8
LAY-10
  6
CONTINUOUS
 62
     7
100
AcDbCircle
 10
687.9999999999974
 20
337.9999999999989
 30
0.0
 40
2.0
100
AcDbArc
 50
90.0
 51
180.0
  0
LINE
  5
2AA
330
1F
100
AcDbEntity
  8
LAY-10
  6
CONTINUOUS
 62
     7
100
AcDbLine
 10
695.9999999999973
 20
337.9999999999989
 30
0.0
 11
695.9999999999973
 21
301.9852813742375
 31
0.0
  0
LINE
  5
2AB
330
1F
100
AcDbEntity
  8
LAY-10
  6
CONTINUOUS
 62
     7
100
AcDbLine
 10
685.9999999999975
 20
301.9852813742375
 30
0.0
 11
685.9999999999975
 21
337.9999999999989
 31
0.0
  0
LINE
  5
2AC
330
1F
100
AcDbEntity
  8
LAY-10
  6
CONTINUOUS
 62
     7
100
AcDbLine
 10
711.9999999999974
 20
311.485281374237
 30
0.0
 11
717.9999999999974
 21
311.485281374237
 31
0.0
  0
LINE
  5
2AD
330
1F
100
AcDbEntity
  8
LAY-10
  6
CONTINUOUS
 62
     7
100
AcDbLine
 10
727.9999999999975
 20
311.485281374237
 30
0.0
 11
736.9999999999978
 21
311.485281374237
 31
0.0
  0
ARC
  5
2AE
330
1F
100
AcDbEntity
  8
LAY-10
  6
CONTINUOUS
 62
     7
100
AcDbCircle
 10
636.6794152254091
 20
291.193190085024
 30
0.0
 40
15.0
100
AcDbArc
 50
56.75161254901933
 51
78.73608477434186
  0
ARC
  5
2AF
330
1F
100
AcDbEntity
  8
LAY-10
  6
CONTINUOUS
 62
     7
100
AcDbCircle
 10
633.3205847745862
 20
291.1931900850241
 30
0.0
 40
15.0
100
AcDbArc
 50
101.2639152256555
 51
123.2483874509765
  0
ARC
  5
2B0
330
1F
100
AcDbEntity
  8
LAY-10
  6
CONTINUOUS
 62
     7
100
AcDbCircle
 10
633.3205847745862
 20
300.2920912892119
 30
0.0
 40
15.0
100
AcDbArc
 50
236.7516125490241
 51
258.7360847743446
  0
ARC
  5
2B1
330
1F
100
AcDbEntity
  8
LAY-10
  6
CONTINUOUS
 62
     7
100
AcDbCircle
 10
636.6794152254091
 20
300.2920912892121
 30
0.0
 40
15.0
100
AcDbArc
 50
281.2639152256581
 51
303.2483874509791
  0
ARC
  5
2B2
330
1F
100
AcDbEntity
  8
LAY-10
  6
CONTINUOUS
 62
     7
100
AcDbCircle
 10
623.999999999998
 20
305.4103170613055
 30
0.0
 40
2.0
100
AcDbArc
 50
180.0
 51
303.2483874509818
  0
ARC
  5
2B3
330
1F
100
AcDbEntity
  8
LAY-10
  6
CONTINUOUS
 62
     7
100
AcDbCircle
 10
629.999999999998
 20
307.8657338847797
 30
0.0
 40
2.0
100
AcDbArc
 50
281.2639152256589
 51
0.0
  0
ARC
  5
2B4
330
1F
100
AcDbEntity
  8
LAY-10
  6
CONTINUOUS
 62
     7
100
AcDbCircle
 10
639.9999999999981
 20
307.8657338847796
 30
0.0
 40
2.0
100
AcDbArc
 50
180.0
 51
258.7360847743411
  0
ARC
  5
2B5
330
1F
100
AcDbEntity
  8
LAY-10
  6
CONTINUOUS
 62
     7
100
AcDbCircle
 10
645.9999999999981
 20
305.4103170613052
 30
0.0
 40
2.0
100
AcDbArc
 50
236.7516125490218
 51
0.0
  0
ARC
  5
2B6
330
1F
100
AcDbEntity
  8
LAY-10
  6
CONTINUOUS
 62
     7
100
AcDbCircle
 10
623.999999999998
 20
286.0749643129304
 30
0.0
 40
2.0
100
AcDbArc
 50
56.75161254901824
 51
180.0
  0
ARC
  5
2B7
330
1F
100
AcDbEntity
  8
LAY-10
  6
CONTINUOUS
 62
     7
100
AcDbCircle
 10
629.999999999998
 20
283.6195474894562
 30
0.0
 40
2.0
100
AcDbArc
 50
0.0
 51
78.73608477434112
  0
ARC
  5
2B8
330
1F
100
AcDbEntity
  8
LAY-10
  6
CONTINUOUS
 62
     7
100
AcDbCircle
 10
639.9999999999981
 20
283.6195474894564
 30
0.0
 40
2.0
100
AcDbArc
 50
101.2639152256589
 51
180.0
  0
ARC
  5
2B9
330
1F
100
AcDbEntity
  8
LAY-10
  6
CONTINUOUS
 62
     7
100
AcDbCircle
 10
645.9999999999981
 20
286.0749643129308
 30
0.0
 40
2.0
100
AcDbArc
 50
0.0
 51
123.2483874509781
  0
ARC
  5
2BA
330
1F
100
AcDbEntity
  8
LAY-10
  6
CONTINUOUS
 62
     7
100
AcDbCircle
 10
709.9999999999975
 20
337.9999999999989
 30
0.0
 40
2.0
100
AcDbArc
 50
0.0
 51
90.0
  0
LINE
  5
2BB
330
1F
100
AcDbEntity
  8
LAY-10
  6
CONTINUOUS
 62
     7
100
AcDbLine
 10
703.9999999999975
 20
339.9999999999989
 30
0.0
 11
709.9999999999975
 21
339.9999999999989
 31
0.0
  0
ARC
  5
2BC
330
1F
100
AcDbEntity
  8
LAY-10
  6
CONTINUOUS
 62
     7
100
AcDbCircle
 10
703.9999999999975
 20
337.9999999999989
 30
0.0
 40
2.0
100
AcDbArc
 50
90.0
 51
180.0
  0
LINE
  5
2BD
330
1F
100
AcDbEntity
  8
LAY-10
  6
CONTINUOUS
 62
     7
100
AcDbLine
 10
711.9999999999974
 20
337.9999999999989
 30
0.0
 11
711.9999999999974
 21
307.8657338847796
 31
0.0
  0
ARC
  5
2BE
330
1F
100
AcDbEntity
  8
LAY-10
  6
CONTINUOUS
 62
     7
100
AcDbCircle
 10
709.9999999999975
 20
307.8657338847796
 30
0.0
 40
2.0
100
AcDbArc
 50
281.2639152256589
 51
0.0
  0
LINE
  5
2BF
330
1F
100
AcDbEntity
  8
LAY-10
  6
CONTINUOUS
 62
     7
100
AcDbLine
 10
701.9999999999976
 20
305.4103170613052
 30
0.0
 11
701.9999999999976
 21
337.9999999999989
 31
0.0
  0
ARC
  5
2C0
330
1F
100
AcDbEntity
  8
LAY-10
  6
CONTINUOUS
 62
     7
100
AcDbCircle
 10
713.3205847745865
 20
291.193190085024
 30
0.0
 40
15.0
100
AcDbArc
 50
101.2639152256581
 51
123.2483874509796
  0
ARC
  5
2C1
330
1F
100
AcDbEntity
  8
LAY-10
  6
CONTINUOUS
 62
     7
100
AcDbCircle
 10
703.9999999999975
 20
305.4103170613052
 30
0.0
 40
2.0
100
AcDbArc
 50
180.0
 51
303.2483874509818
  0
ARC
  5
2C2
330
1F
100
AcDbEntity
  8
LAY-10
  6
CONTINUOUS
 62
     7
100
AcDbCircle
 10
709.9999999999975
 20
283.6195474894564
 30
0.0
 40
2.0
100
AcDbArc
 50
0.0
 51
78.73608477434112
  0
LINE
  5
2C3
330
1F
100
AcDbEntity
  8
LAY-10
  6
CONTINUOUS
 62
     7
100
AcDbLine
 10
701.9999999999976
 20
286.0749643129308
 30
0.0
 11
701.9999999999976
 21
279.9999999999989
 31
0.0
  0
ARC
  5
2C4
330
1F
100
AcDbEntity
  8
LAY-10
  6
CONTINUOUS
 62
     7
100
AcDbCircle
 10
713.3205847745865
 20
300.2920912892121
 30
0.0
 40
15.0
100
AcDbArc
 50
236.751612549021
 51
258.7360847743424
  0
ARC
  5
2C5
330
1F
100
AcDbEntity
  8
LAY-10
  6
CONTINUOUS
 62
     7
100
AcDbCircle
 10
703.9999999999975
 20
286.0749643129308
 30
0.0
 40
2.0
100
AcDbArc
 50
56.75161254901824
 51
180.0
  0
ARC
  5
2C6
330
1F
100
AcDbEntity
  8
LAY-10
  6
CONTINUOUS
 62
     7
100
AcDbCircle
 10
725.9999999999976
 20
305.4103170613055
 30
0.0
 40
2.0
100
AcDbArc
 50
236.7516125490182
 51
0.0
  0
ARC
  5
2C7
330
1F
100
AcDbEntity
  8
LAY-10
  6
CONTINUOUS
 62
     7
100
AcDbCircle
 10
716.679415225409
 20
291.1931900850241
 30
0.0
 40
15.0
100
AcDbArc
 50
56.75161254902196
 51
78.73608477434318
  0
ARC
  5
2C8
330
1F
100
AcDbEntity
  8
LAY-10
  6
CONTINUOUS
 62
     7
100
AcDbCircle
 10
719.9999999999976
 20
307.8657338847797
 30
0.0
 40
2.0
100
AcDbArc
 50
180.0
 51
258.7360847743411
  0
ARC
  5
2C9
330
1F
100
AcDbEntity
  8
LAY-10
  6
CONTINUOUS
 62
     7
100
AcDbCircle
 10
725.9999999999976
 20
286.0749643129304
 30
0.0
 40
2.0
100
AcDbArc
 50
0.0
 51
123.2483874509818
  0
ARC
  5
2CA
330
1F
100
AcDbEntity
  8
LAY-10
  6
CONTINUOUS
 62
     7
100
AcDbCircle
 10
716.679415225409
 20
300.2920912892119
 30
0.0
 40
15.0
100
AcDbArc
 50
281.2639152256569
 51
303.2483874509786
  0
ARC
  5
2CB
330
1F
100
AcDbEntity
  8
LAY-10
  6
CONTINUOUS
 62
     7
100
AcDbCircle
 10
719.9999999999976
 20
283.6195474894562
 30
0.0
 40
2.0
100
AcDbArc
 50
101.2639152256589
 51
180.0
  0
LINE
  5
2CC
330
1F
100
AcDbEntity
  8
LAY-10
  6
CONTINUOUS
 62
     7
100
AcDbLine
 10
655.9999999999982
 20
288.6715728752527
 30
0.0
 11
661.9999999999978
 21
288.6715728752527
 31
0.0
  0
LINE
  5
2CD
330
1F
100
AcDbEntity
  8
LAY-10
  6
CONTINUOUS
 62
     7
100
AcDbLine
 10
687.9999999999974
 20
288.6715728752527
 30
0.0
 11
693.9999999999974
 21
288.6715728752527
 31
0.0
  0
LINE
  5
2CE
330
1F
100
AcDbEntity
  8
LAY-10
  6
CONTINUOUS
 62
     7
100
AcDbLine
 10
671.999999999998
 20
288.6715728752527
 30
0.0
 11
677.9999999999976
 21
288.6715728752527
 31
0.0
  0
ARC
  5
2CF
330
1F
100
AcDbEntity
  8
LAY-10
  6
CONTINUOUS
 62
     7
100
AcDbCircle
 10
693.9999999999974
 20
286.6715728752526
 30
0.0
 40
2.0
100
AcDbArc
 50
0.0
 51
90.0
  0
ARC
  5
2D0
330
1F
100
AcDbEntity
  8
LAY-10
  6
CONTINUOUS
 62
     7
100
AcDbCircle
 10
687.9999999999974
 20
286.6715728752526
 30
0.0
 40
2.0
100
AcDbArc
 50
90.0
 51
180.0
  0
ARC
  5
2D1
330
1F
100
AcDbEntity
  8
LAY-10
  6
CONTINUOUS
 62
     7
100
AcDbCircle
 10
677.9999999999976
 20
286.6715728752526
 30
0.0
 40
2.0
100
AcDbArc
 50
0.0
 51
90.0
  0
ARC
  5
2D2
330
1F
100
AcDbEntity
  8
LAY-10
  6
CONTINUOUS
 62
     7
100
AcDbCircle
 10
671.999999999998
 20
286.6715728752526
 30
0.0
 40
2.0
100
AcDbArc
 50
90.0
 51
180.0
  0
ARC
  5
2D3
330
1F
100
AcDbEntity
  8
LAY-10
  6
CONTINUOUS
 62
     7
100
AcDbCircle
 10
661.9999999999978
 20
286.6715728752526
 30
0.0
 40
2.0
100
AcDbArc
 50
0.0
 51
90.0
  0
ARC
  5
2D4
330
1F
100
AcDbEntity
  8
LAY-10
  6
CONTINUOUS
 62
     7
100
AcDbCircle
 10
655.9999999999982
 20
286.6715728752526
 30
0.0
 40
2.0
100
AcDbArc
 50
90.0
 51
180.0
  0
ARC
  5
2D5
330
1F
100
AcDbEntity
  8
LAY-10
  6
CONTINUOUS
 62
     7
100
AcDbCircle
 10
633.3205847745862
 20
300.2920912892119
 30
0.0
 40
17.8
100
AcDbArc
 50
241.9178782275036
 51
260.3455147153056
  0
ARC
  5
2D6
330
1F
100
AcDbEntity
  8
LAY-10
  6
CONTINUOUS
 62
     7
100
AcDbCircle
 10
636.6794152254091
 20
300.2920912892121
 30
0.0
 40
17.8
100
AcDbArc
 50
279.654485284696
 51
298.0821217724988
  0
ARC
  5
2D7
330
1F
100
AcDbEntity
  8
LAY-10
  6
CONTINUOUS
 62
     7
100
AcDbCircle
 10
713.3205847745865
 20
300.2920912892121
 30
0.0
 40
17.8
100
AcDbArc
 50
241.917878227503
 51
260.3455147153049
  0
ARC
  5
2D8
330
1F
100
AcDbEntity
  8
LAY-10
  6
CONTINUOUS
 62
     7
100
AcDbCircle
 10
716.679415225409
 20
300.2920912892119
 30
0.0
 40
17.8
100
AcDbArc
 50
279.6544852846948
 51
298.0821217724979
  0
ARC
  5
2D9
330
1F
100
AcDbEntity
  8
LAY-10
  6
CONTINUOUS
 62
     7
100
AcDbCircle
 10
645.9999999999981
 20
282.8230701529346
 30
0.0
 40
2.0
100
AcDbArc
 50
0.0
 51
118.0821217725035
  0
ARC
  5
2DA
330
1F
100
AcDbEntity
  8
LAY-10
  6
CONTINUOUS
 62
     7
100
AcDbCircle
 10
623.999999999998
 20
282.8230701529344
 30
0.0
 40
2.0
100
AcDbArc
 50
61.9178782275002
 51
180.0
  0
ARC
  5
2DB
330
1F
100
AcDbEntity
  8
LAY-10
  6
CONTINUOUS
 62
     7
100
AcDbCircle
 10
703.9999999999975
 20
282.8230701529346
 30
0.0
 40
2.0
100
AcDbArc
 50
61.91787822750381
 51
180.0
  0
ARC
  5
2DC
330
1F
100
AcDbEntity
  8
LAY-10
  6
CONTINUOUS
 62
     7
100
AcDbCircle
 10
725.9999999999976
 20
282.8230701529344
 30
0.0
 40
2.0
100
AcDbArc
 50
0.0
 51
118.0821217725035
  0
LINE
  5
2DD
330
1F
100
AcDbEntity
  8
LAY-10
  6
CONTINUOUS
 62
     7
100
AcDbLine
 10
647.999999999998
 20
311.4852813742371
 30
0.0
 11
653.9999999999983
 21
311.4852813742371
 31
0.0
  0
LINE
  5
2DE
330
1F
100
AcDbEntity
  8
LAY-10
  6
CONTINUOUS
 62
     7
100
AcDbLine
 10
695.9999999999973
 20
311.4852813742371
 30
0.0
 11
701.9999999999976
 21
311.4852813742371
 31
0.0
  0
LINE
  5
2DF
330
1F
100
AcDbEntity
  8
LAY-10
  6
CONTINUOUS
 62
     7
100
AcDbLine
 10
679.9999999999975
 20
311.4852813742371
 30
0.0
 11
685.9999999999975
 21
311.4852813742371
 31
0.0
  0
LINE
  5
2E0
330
1F
100
AcDbEntity
  8
LAY-10
  6
CONTINUOUS
 62
     7
100
AcDbLine
 10
663.9999999999981
 20
311.4852813742371
 30
0.0
 11
669.9999999999977
 21
311.4852813742371
 31
0.0
  0
LINE
  5
2E1
330
1F
100
AcDbEntity
  8
LAY-10
  6
CONTINUOUS
 62
     7
100
AcDbLine
 10
631.9999999999978
 20
317.999999999999
 30
0.0
 11
631.9999999999978
 21
307.8657338847797
 31
0.0
  0
LINE
  5
2E2
330
1F
100
AcDbEntity
  8
LAY-10
  6
CONTINUOUS
 62
     7
100
AcDbLine
 10
621.9999999999981
 20
317.999999999999
 30
0.0
 11
621.9999999999981
 21
305.4103170613055
 31
0.0
  0
LINE
  5
2E3
330
1F
100
AcDbEntity
  8
LAY-10
  6
CONTINUOUS
 62
     7
100
AcDbLine
 10
623.999999999998
 20
319.9999999999989
 30
0.0
 11
629.999999999998
 21
319.9999999999989
 31
0.0
  0
ARC
  5
2E4
330
1F
100
AcDbEntity
  8
LAY-10
  6
CONTINUOUS
 62
     7
100
AcDbCircle
 10
623.999999999998
 20
317.999999999999
 30
0.0
 40
2.0
100
AcDbArc
 50
90.0
 51
180.0
  0
ARC
  5
2E5
330
1F
100
AcDbEntity
  8
LAY-10
  6
CONTINUOUS
 62
     7
100
AcDbCircle
 10
629.999999999998
 20
317.999999999999
 30
0.0
 40
2.0
100
AcDbArc
 50
0.0
 51
90.0
  0
ARC
  5
2E6
330
1F
100
AcDbEntity
  8
LAY-10
  6
CONTINUOUS
 62
     7
100
AcDbCircle
 10
725.9999999999976
 20
317.999999999999
 30
0.0
 40
2.0
100
AcDbArc
 50
0.0
 51
90.0
  0
LINE
  5
2E7
330
1F
100
AcDbEntity
  8
LAY-10
  6
CONTINUOUS
 62
     7
100
AcDbLine
 10
725.9999999999976
 20
319.9999999999989
 30
0.0
 11
719.9999999999976
 21
319.9999999999989
 31
0.0
  0
ARC
  5
2E8
330
1F
100
AcDbEntity
  8
LAY-10
  6
CONTINUOUS
 62
     7
100
AcDbCircle
 10
719.9999999999976
 20
317.999999999999
 30
0.0
 40
2.0
100
AcDbArc
 50
90.0
 51
180.0
  0
LINE
  5
2E9
330
1F
100
AcDbEntity
  8
LAY-10
  6
CONTINUOUS
 62
     7
100
AcDbLine
 10
727.9999999999975
 20
317.999999999999
 30
0.0
 11
727.9999999999975
 21
305.4103170613055
 31
0.0
  0
LINE
  5
2EA
330
1F
100
AcDbEntity
  8
LAY-10
  6
CONTINUOUS
 62
     7
100
AcDbLine
 10
717.9999999999974
 20
317.999999999999
 30
0.0
 11
717.9999999999974
 21
307.8657338847797
 31
0.0
  0
LINE
  5
2EB
330
1F
100
AcDbEntity
  8
LAY-10
  6
CONTINUOUS
 62
     7
100
AcDbLine
 10
637.9999999999978
 20
281.1999999999903
 30
0.0
 11
637.9999999999978
 21
283.6195474894564
 31
0.0
  0
ARC
  5
2EC
330
1F
100
AcDbEntity
  8
LAY-10
  6
CONTINUOUS
 62
     7
100
AcDbCircle
 10
639.9999999999981
 20
280.7725186311139
 30
0.0
 40
2.0
100
AcDbArc
 50
99.6544852847002
 51
167.6583434821023
  0
ARC
  5
2ED
330
1F
100
AcDbEntity
  8
LAY-10
  6
CONTINUOUS
 62
     7
100
AcDbCircle
 10
629.999999999998
 20
280.7725186311138
 30
0.0
 40
2.0
100
AcDbArc
 50
12.34165651790255
 51
80.34551471530972
  0
LINE
  5
2EE
330
1F
100
AcDbEntity
  8
LAY-10
  6
CONTINUOUS
 62
     7
100
AcDbLine
 10
631.9999999999978
 20
283.6195474894562
 30
0.0
 11
631.9999999999978
 21
281.1999999999903
 31
0.0
  0
LINE
  5
2EF
330
1F
100
AcDbEntity
  8
LAY-10
  6
CONTINUOUS
 62
     7
100
AcDbLine
 10
621.9999999999981
 20
281.1999999999903
 30
0.0
 11
621.9999999999981
 21
286.0749643129304
 31
0.0
  0
LINE
  5
2F0
330
1F
100
AcDbEntity
  8
LAY-10
  6
CONTINUOUS
 62
     7
100
AcDbLine
 10
647.3879193575488
 20
278.9999999999989
 30
0.0
 11
654.6120806424315
 21
278.9999999999989
 31
0.0
  0
LINE
  5
2F1
330
1F
100
AcDbEntity
  8
LAY-10
  6
CONTINUOUS
 62
     7
100
AcDbLine
 10
647.2115923768403
 20
279.9999999999989
 30
0.0
 11
654.78840762314
 21
279.9999999999989
 31
0.0
  0
LINE
  5
2F2
330
1F
100
AcDbEntity
  8
LAY-10
  6
CONTINUOUS
 62
     7
100
AcDbLine
 10
663.9999999999981
 20
289.4999999999984
 30
0.0
 11
663.9999999999981
 21
281.1999999999903
 31
0.0
  0
LINE
  5
2F3
330
1F
100
AcDbEntity
  8
LAY-10
  6
CONTINUOUS
 62
     7
100
AcDbLine
 10
669.9999999999977
 20
281.1999999999903
 30
0.0
 11
669.9999999999977
 21
289.4999999999984
 31
0.0
  0
LINE
  5
2F4
330
1F
100
AcDbEntity
  8
LAY-10
  6
CONTINUOUS
 62
     7
100
AcDbLine
 10
679.9999999999975
 20
281.1999999999903
 30
0.0
 11
679.9999999999975
 21
289.4999999999984
 31
0.0
  0
LINE
  5
2F5
330
1F
100
AcDbEntity
  8
LAY-10
  6
CONTINUOUS
 62
     7
100
AcDbLine
 10
685.9999999999975
 20
289.4999999999984
 30
0.0
 11
685.9999999999975
 21
281.1999999999903
 31
0.0
  0
LINE
  5
2F6
330
1F
100
AcDbEntity
  8
LAY-10
  6
CONTINUOUS
 62
     7
100
AcDbLine
 10
695.3879193575586
 20
278.9999999999989
 30
0.0
 11
702.6120806424414
 21
278.9999999999989
 31
0.0
  0
LINE
  5
2F7
330
1F
100
AcDbEntity
  8
LAY-10
  6
CONTINUOUS
 62
     7
100
AcDbLine
 10
695.2115923768501
 20
279.9999999999989
 30
0.0
 11
702.7884076231499
 21
279.9999999999989
 31
0.0
  0
LINE
  5
2F8
330
1F
100
AcDbEntity
  8
LAY-10
  6
CONTINUOUS
 62
     7
100
AcDbLine
 10
711.9999999999974
 20
281.1999999999903
 30
0.0
 11
711.9999999999974
 21
283.6195474894564
 31
0.0
  0
ARC
  5
2F9
330
1F
100
AcDbEntity
  8
LAY-10
  6
CONTINUOUS
 62
     7
100
AcDbCircle
 10
709.9999999999975
 20
280.7725186311139
 30
0.0
 40
2.0
100
AcDbArc
 50
12.3416565178978
 51
80.34551471529981
  0
ARC
  5
2FA
330
1F
100
AcDbEntity
  8
LAY-10
  6
CONTINUOUS
 62
     7
100
AcDbCircle
 10
719.9999999999976
 20
280.7725186311138
 30
0.0
 40
2.0
100
AcDbArc
 50
99.6544852847002
 51
167.6583434820943
  0
LINE
  5
2FB
330
1F
100
AcDbEntity
  8
LAY-10
  6
CONTINUOUS
 62
     7
100
AcDbLine
 10
717.9999999999974
 20
283.6195474894562
 30
0.0
 11
717.9999999999974
 21
281.1999999999903
 31
0.0
  0
LINE
  5
2FC
330
1F
100
AcDbEntity
  8
LAY-10
  6
CONTINUOUS
 62
     7
100
AcDbLine
 10
727.9999999999975
 20
281.1999999999903
 30
0.0
 11
727.9999999999975
 21
286.0749643129304
 31
0.0
  0
LINE
  5
2FD
330
1F
100
AcDbEntity
  8
LAY-10
  6
CONTINUOUS
 62
     7
100
AcDbLine
 10
736.9999999999978
 20
281.1999999999903
 30
0.0
 11
736.9999999999978
 21
351.9999999999989
 31
0.0
  0
LINE
  5
2FE
330
1F
100
AcDbEntity
  8
LAY-10
  6
CONTINUOUS
 62
     7
100
AcDbLine
 10
612.9999999999977
 20
281.1999999999903
 30
0.0
 11
612.9999999999977
 21
351.9999999999989
 31
0.0
  0
LINE
  5
2FF
330
1F
100
AcDbEntity
  8
LAY-10
  6
CONTINUOUS
 62
     7
100
AcDbLine
 10
619.0300753773541
 20
335.5999999999942
 30
0.0
 11
630.9699246226336
 21
335.5999999999942
 31
0.0
  0
LINE
  5
300
330
1F
100
AcDbEntity
  8
LAY-10
  6
CONTINUOUS
 62
     7
100
AcDbLine
 10
619.0300753773541
 20
334.3999999999941
 30
0.0
 11
630.9699246226336
 21
334.3999999999941
 31
0.0
  0
ARC
  5
301
330
1F
100
AcDbEntity
  8
LAY-10
  6
CONTINUOUS
 62
     7
100
AcDbCircle
 10
624.9999999999937
 20
334.9999999999943
 30
0.0
 40
5.0
100
AcDbArc
 50
353.107897420652
 51
6.892102579345918
  0
ARC
  5
302
330
1F
100
AcDbEntity
  8
LAY-10
  6
CONTINUOUS
 62
     7
100
AcDbCircle
 10
624.9999999999937
 20
334.9999999999943
 30
0.0
 40
5.0
100
AcDbArc
 50
173.1078974206561
 51
186.8921025793447
  0
ARC
  5
303
330
1F
100
AcDbEntity
  8
LAY-10
  6
CONTINUOUS
 62
     7
100
AcDbCircle
 10
624.9999999999937
 20
334.9999999999943
 30
0.0
 40
6.0
100
AcDbArc
 50
185.7391704772681
 51
354.260829522732
  0
ARC
  5
304
330
1F
100
AcDbEntity
  8
LAY-10
  6
CONTINUOUS
 62
     7
100
AcDbCircle
 10
624.9999999999937
 20
334.9999999999943
 30
0.0
 40
6.0
100
AcDbArc
 50
5.739170477266454
 51
174.2608295227336
  0
LINE
  5
305
330
1F
100
AcDbEntity
  8
LAY-10
  6
CONTINUOUS
 62
     7
100
AcDbLine
 10
719.0300753773541
 20
335.5999999999942
 30
0.0
 11
730.9699246226335
 21
335.5999999999942
 31
0.0
  0
LINE
  5
306
330
1F
100
AcDbEntity
  8
LAY-10
  6
CONTINUOUS
 62
     7
100
AcDbLine
 10
719.0300753773541
 20
334.3999999999941
 30
0.0
 11
730.9699246226335
 21
334.3999999999941
 31
0.0
  0
ARC
  5
307
330
1F
100
AcDbEntity
  8
LAY-10
  6
CONTINUOUS
 62
     7
100
AcDbCircle
 10
724.9999999999937
 20
334.9999999999943
 30
0.0
 40
5.0
100
AcDbArc
 50
353.107897420652
 51
6.892102579345918
  0
ARC
  5
308
330
1F
100
AcDbEntity
  8
LAY-10
  6
CONTINUOUS
 62
     7
100
AcDbCircle
 10
724.9999999999937
 20
334.9999999999943
 30
0.0
 40
5.0
100
AcDbArc
 50
173.1078974206561
 51
186.8921025793447
  0
ARC
  5
309
330
1F
100
AcDbEntity
  8
LAY-10
  6
CONTINUOUS
 62
     7
100
AcDbCircle
 10
724.9999999999937
 20
334.9999999999943
 30
0.0
 40
6.0
100
AcDbArc
 50
185.7391704772681
 51
354.260829522732
  0
ARC
  5
30A
330
1F
100
AcDbEntity
  8
LAY-10
  6
CONTINUOUS
 62
     7
100
AcDbCircle
 10
724.9999999999937
 20
334.9999999999943
 30
0.0
 40
6.0
100
AcDbArc
 50
5.739170477266454
 51
174.2608295227336
  0
LINE
  5
30B
330
1F
100
AcDbEntity
  8
LAY-10
  6
CONTINUOUS
 62
     7
100
AcDbLine
 10
611.9999999999952
 20
360.1999999999901
 30
0.0
 11
737.9999999999952
 21
360.1999999999901
 31
0.0
  0
LINE
  5
30C
330
1F
100
AcDbEntity
  8
LAY-10
  6
CONTINUOUS
 62
     7
100
AcDbLine
 10
612.9999999999951
 20
356.1999999999902
 30
0.0
 11
736.9999999999951
 21
356.1999999999902
 31
0.0
  0
LINE
  5
30D
330
1F
100
AcDbEntity
  8
LAY-10
  6
CONTINUOUS
 62
     7
100
AcDbLine
 10
318.0
 20
340.04311885981
 30
0.0
 11
319.6747016692232
 21
258.0431188598095
 31
0.0
  0
LINE
  5
30E
330
1F
100
AcDbEntity
  8
LAY-10
  6
CONTINUOUS
 62
     7
100
AcDbLine
 10
319.6747016692232
 20
258.0431188598095
 30
0.0
 11
341.999999999995
 21
258.0431188598095
 31
0.0
  0
LINE
  5
30F
330
1F
100
AcDbEntity
  8
LAY-10
  6
CONTINUOUS
 62
     7
100
AcDbLine
 10
319.1083677020398
 20
334.747219215685
 30
0.0
 11
320.5996955924528
 21
261.725922789445
 31
0.0
  0
LINE
  5
310
330
1F
100
AcDbEntity
  8
LAY-10
  6
CONTINUOUS
 62
     7
100
AcDbLine
 10
339.9371539768701
 20
262.7257891111066
 30
0.0
 11
320.5996955924498
 21
261.7259227894448
 31
0.0
  0
LINE
  5
311
330
1F
100
AcDbEntity
  8
LAY-10
  6
CONTINUOUS
 62
     7
100
AcDbLine
 10
338.470525137983
 20
334.5377225429583
 30
0.0
 11
319.10836770204
 21
334.747219215685
 31
0.0
  0
LINE
  5
312
330
1F
100
AcDbEntity
  8
LAY-10
  6
CONTINUOUS
 62
     7
100
AcDbLine
 10
319.10836770204
 20
334.74721921569
 30
0.0
 11
318.08750919768
 21
335.75832333951
 31
0.0
  0
LINE
  5
313
330
1F
100
AcDbEntity
  8
LAY-10
  6
CONTINUOUS
 62
     7
100
AcDbLine
 10
320.59969559245
 20
261.72592278944
 30
0.0
 11
319.6209710731
 21
260.67398079943
 31
0.0
  0
LINE
  5
314
330
1F
100
AcDbEntity
  8
LAY-10
  6
CONTINUOUS
 62
     7
100
AcDbLine
 10
681.0000000000051
 20
265.6395976971017
 30
0.0
 11
669.0000000000051
 21
265.6395976971017
 31
0.0
  0
LINE
  5
315
330
1F
100
AcDbEntity
  8
LAY-10
  6
CONTINUOUS
 62
     7
100
AcDbLine
 10
664.7508666751785
 20
267.6999999999902
 30
0.0
 11
669.0000000000051
 21
265.6395976971017
 31
0.0
  0
LINE
  5
316
330
1F
100
AcDbEntity
  8
LAY-10
  6
CONTINUOUS
 62
     7
100
AcDbLine
 10
685.2491333248319
 20
267.6999999999902
 30
0.0
 11
681.0000000000051
 21
265.6395976971017
 31
0.0
  0
LINE
  5
317
330
1F
100
AcDbEntity
  8
LAY-10
  6
CONTINUOUS
 62
     7
100
AcDbLine
 10
450.4999999999949
 20
272.1999999999903
 30
0.0
 11
464.9999999999949
 21
272.1999999999903
 31
0.0
  0
LINE
  5
318
330
1F
100
AcDbEntity
  8
LAY-10
  6
CONTINUOUS
 62
     7
100
AcDbLine
 10
454.9999999999947
 20
267.6999999999902
 30
0.0
 11
464.999999999995
 21
267.6999999999902
 31
0.0
  0
LINE
  5
319
330
1F
100
AcDbEntity
  8
LAY-10
  6
CONTINUOUS
 62
     7
100
AcDbLine
 10
363.9556965679033
 20
261.3969401780604
 30
0.0
 11
435.1489197476558
 21
267.6255401261597
 31
0.0
  0
ARC
  5
31A
330
1F
100
AcDbEntity
  8
LAY-10
  6
HIDDEN
 62
     4
100
AcDbCircle
 10
675.0
 20
299.04311885981
 30
0.0
 40
45.99999999999781
100
AcDbArc
 50
266.8845639840108
 51
273.1154360160142
  0
ARC
  5
31B
330
1F
100
AcDbEntity
  8
LAY-10
  6
CONTINUOUS
 62
     7
100
AcDbCircle
 10
674.9999999999952
 20
299.0431188598095
 30
0.0
 40
46.00000000000004
100
AcDbArc
 50
222.9509608886851
 51
266.8845639840166
  0
ARC
  5
31C
330
1F
100
AcDbEntity
  8
LAY-10
  6
CONTINUOUS
 62
     7
100
AcDbCircle
 10
674.9999999999952
 20
299.0431188598095
 30
0.0
 40
46.00000000000004
100
AcDbArc
 50
273.1154360160203
 51
317.0490391113149
  0
ARC
  5
31D
330
1F
100
AcDbEntity
  8
LAY-10
  6
CONTINUOUS
 62
     7
100
AcDbCircle
 10
674.9999999999962
 20
299.0431188598141
 30
0.0
 40
37.64617868175
100
AcDbArc
 50
273.8076889657295
 51
303.636239039857
  0
ARC
  5
31E
330
1F
100
AcDbEntity
  8
LAY-10
  6
CONTINUOUS
 62
     7
100
AcDbCircle
 10
674.999999999994
 20
299.0431188598141
 30
0.0
 40
37.64617868175
100
AcDbArc
 50
236.3637609601441
 51
266.1923110343155
  0
LINE
  5
31F
330
1F
100
AcDbEntity
  8
LAY-10
  6
CONTINUOUS
 62
     7
100
AcDbLine
 10
441.9999999999897
 20
271.199999999986
 30
0.0
 11
447.9999999999897
 21
271.199999999986
 31
0.0
  0
LINE
  5
320
330
1F
100
AcDbEntity
  8
LAY-10
  6
CONTINUOUS
 62
     7
100
AcDbLine
 10
442.4999999999898
 20
271.6999999999867
 30
0.0
 11
447.4999999999898
 21
271.6999999999867
 31
0.0
  0
LINE
  5
321
330
1F
100
AcDbEntity
  8
LAY-10
  6
CONTINUOUS
 62
     7
100
AcDbLine
 10
442.499999999993
 20
271.6999999999867
 30
0.0
 11
442.499999999993
 21
272.699999999986
 31
0.0
  0
LINE
  5
322
330
1F
100
AcDbEntity
  8
LAY-10
  6
CONTINUOUS
 62
     7
100
AcDbLine
 10
442.499999999993
 20
272.699999999986
 30
0.0
 11
447.4999999999922
 21
272.699999999986
 31
0.0
  0
LINE
  5
323
330
1F
100
AcDbEntity
  8
LAY-10
  6
CONTINUOUS
 62
     7
100
AcDbLine
 10
444.9999999999895
 20
274.1433756729614
 30
0.0
 11
442.4999999999891
 21
272.699999999987
 31
0.0
  0
LINE
  5
324
330
1F
100
AcDbEntity
  8
LAY-10
  6
CONTINUOUS
 62
     7
100
AcDbLine
 10
444.99999999999
 20
274.1433756729617
 30
0.0
 11
447.4999999999908
 21
272.699999999987
 31
0.0
  0
LINE
  5
325
330
1F
100
AcDbEntity
  8
LAY-10
  6
CONTINUOUS
 62
     7
100
AcDbLine
 10
447.4999999999922
 20
271.6999999999867
 30
0.0
 11
447.4999999999922
 21
272.6999999999849
 31
0.0
  0
LINE
  5
326
330
1F
100
AcDbEntity
  8
LAY-10
  6
CONTINUOUS
 62
     7
100
AcDbLine
 10
459.4999999999893
 20
242.6999999999854
 30
0.0
 11
459.4999999999893
 21
247.6999999999852
 31
0.0
  0
LINE
  5
327
330
1F
100
AcDbEntity
  8
LAY-10
  6
CONTINUOUS
 62
     7
100
AcDbLine
 10
449.4999999999889
 20
247.6999999999852
 30
0.0
 11
459.4999999999893
 21
247.6999999999852
 31
0.0
  0
ARC
  5
328
330
1F
100
AcDbEntity
  8
LAY-10
  6
CONTINUOUS
 62
     7
100
AcDbCircle
 10
449.4999999999889
 20
249.6999999999852
 30
0.0
 40
2.0
100
AcDbArc
 50
180.0
 51
270.0000000000002
  0
LINE
  5
329
330
1F
100
AcDbEntity
  8
LAY-10
  6
CONTINUOUS
 62
     7
100
AcDbLine
 10
449.4999999999889
 20
242.6999999999854
 30
0.0
 11
459.4999999999893
 21
242.6999999999854
 31
0.0
  0
ARC
  5
32A
330
1F
100
AcDbEntity
  8
LAY-10
  6
CONTINUOUS
 62
     7
100
AcDbCircle
 10
449.4999999999889
 20
249.6999999999852
 30
0.0
 40
7.000000000000004
100
AcDbArc
 50
180.0
 51
270.0000000000002
  0
LINE
  5
32B
330
1F
100
AcDbEntity
  8
LAY-10
  6
CONTINUOUS
 62
     7
100
AcDbLine
 10
447.4999999999898
 20
249.6999999999809
 30
0.0
 11
447.4999999999898
 21
264.6999999999805
 31
0.0
  0
LINE
  5
32C
330
1F
100
AcDbEntity
  8
LAY-10
  6
CONTINUOUS
 62
     7
100
AcDbLine
 10
442.4999999999898
 20
249.6999999999809
 30
0.0
 11
442.4999999999898
 21
264.6999999999805
 31
0.0
  0
LINE
  5
32D
330
1F
100
AcDbEntity
  8
LAY-10
  6
CONTINUOUS
 62
     7
100
AcDbLine
 10
442.499999999993
 20
270.6999999999854
 30
0.0
 11
447.4999999999922
 21
270.6999999999854
 31
0.0
  0
LINE
  5
32E
330
1F
100
AcDbEntity
  8
LAY-10
  6
CONTINUOUS
 62
     7
100
AcDbLine
 10
441.9999999999916
 20
270.1999999999869
 30
0.0
 11
447.9999999999907
 21
270.1999999999869
 31
0.0
  0
LINE
  5
32F
330
1F
100
AcDbEntity
  8
LAY-10
  6
CONTINUOUS
 62
     7
100
AcDbLine
 10
447.9999999999897
 20
270.1999999999909
 30
0.0
 11
447.4999999999898
 21
270.6999999999809
 31
0.0
  0
LINE
  5
330
330
1F
100
AcDbEntity
  8
LAY-10
  6
CONTINUOUS
 62
     7
100
AcDbLine
 10
442.4999999999898
 20
270.6999999999809
 30
0.0
 11
441.9999999999897
 21
270.1999999999909
 31
0.0
  0
LINE
  5
331
330
1F
100
AcDbEntity
  8
LAY-10
  6
CONTINUOUS
 62
     7
100
AcDbLine
 10
441.9999999999897
 20
270.1999999999909
 30
0.0
 11
441.9999999999897
 21
264.6999999999809
 31
0.0
  0
LINE
  5
332
330
1F
100
AcDbEntity
  8
LAY-10
  6
CONTINUOUS
 62
     7
100
AcDbLine
 10
447.9999999999897
 20
270.1999999999909
 30
0.0
 11
447.9999999999897
 21
264.6999999999809
 31
0.0
  0
LINE
  5
333
330
1F
100
AcDbEntity
  8
LAY-10
  6
CONTINUOUS
 62
     7
100
AcDbLine
 10
442.499999999993
 20
271.6999999999867
 30
0.0
 11
442.499999999993
 21
270.6999999999892
 31
0.0
  0
LINE
  5
334
330
1F
100
AcDbEntity
  8
LAY-10
  6
CONTINUOUS
 62
     7
100
AcDbLine
 10
447.4999999999922
 20
271.6999999999867
 30
0.0
 11
447.4999999999922
 21
270.6999999999892
 31
0.0
  0
LINE
  5
335
330
1F
100
AcDbEntity
  8
LAY-10
  6
CONTINUOUS
 62
     7
100
AcDbLine
 10
672.5000000000052
 20
245.1999999999903
 30
0.0
 11
672.5000000000052
 21
265.6395976971017
 31
0.0
  0
CIRCLE
  5
336
330
1F
100
AcDbEntity
  8
LAY-10
  6
CONTINUOUS
 62
     7
100
AcDbCircle
 10
675.0000000000051
 20
245.1999999999903
 30
0.0
 40
2.5
  0
LINE
  5
337
330
1F
100
AcDbEntity
  8
LAY-10
  6
CONTINUOUS
 62
     7
100
AcDbLine
 10
677.5000000000051
 20
245.1999999999903
 30
0.0
 11
677.5000000000051
 21
265.6395976971017
 31
0.0
  0
LINE
  5
338
330
1F
100
AcDbEntity
  8
LAY-10
  6
CENTER
 62
     2
100
AcDbLine
 10
330.4999999999949
 20
509.9999999999902
 30
0.0
 11
330.4999999999949
 21
499.9999999999903
 31
0.0
  0
LINE
  5
339
330
1F
100
AcDbEntity
  8
LAY-10
  6
CENTER
 62
     2
100
AcDbLine
 10
325.499999999995
 20
504.9999999999902
 30
0.0
 11
364.99234707754
 21
504.9999999999899
 31
0.0
  0
LINE
  5
33A
330
1F
100
AcDbEntity
  8
LAY-10
  6
CENTER
 62
     2
100
AcDbLine
 10
330.4999999999949
 20
599.9999999999895
 30
0.0
 11
330.4999999999949
 21
609.9999999999893
 31
0.0
  0
LINE
  5
33B
330
1F
100
AcDbEntity
  8
LAY-10
  6
CENTER
 62
     2
100
AcDbLine
 10
325.499999999995
 20
604.9999999999894
 30
0.0
 11
364.99234707754
 21
604.9999999999898
 31
0.0
  0
ARC
  5
33C
330
1F
100
AcDbEntity
  8
LAY-10
  6
CENTER
 62
     2
100
AcDbCircle
 10
334.9999999999949
 20
359.4999999999901
 30
0.0
 40
4.5
100
AcDbArc
 50
180.0
 51
270.0
  0
LINE
  5
33D
330
1F
100
AcDbEntity
  8
LAY-10
  6
CENTER
 62
     2
100
AcDbLine
 10
330.4999999999949
 20
377.3909722592322
 30
0.0
 11
330.4999999999949
 21
358.9999999999901
 31
0.0
  0
LINE
  5
33E
330
1F
100
AcDbEntity
  8
LAY-10
  6
CENTER
 62
     2
100
AcDbLine
 10
358.499999999995
 20
354.9999999999902
 30
0.0
 11
334.9999999999949
 21
354.9999999999902
 31
0.0
  0
LINE
  5
33F
330
1F
100
AcDbEntity
  8
LAY-10
  6
CENTER
 62
     2
100
AcDbLine
 10
470.5669193774944
 20
554.9999999999899
 30
0.0
 11
303.7
 21
554.9999999999899
 31
0.0
  0
LINE
  5
340
330
1F
100
AcDbEntity
  8
LAY-10
  6
CENTER
 62
     2
100
AcDbLine
 10
637.8
 20
299.0431188598095
 30
0.0
 11
711.3
 21
299.0431188598095
 31
0.0
  0
LINE
  5
341
330
1F
100
AcDbEntity
  8
LAY-10
  6
CENTER
 62
     2
100
AcDbLine
 10
370.499999999995
 20
334.9999999999941
 30
0.0
 11
356.0
 21
334.9999999999941
 31
0.0
  0
LINE
  5
342
330
1F
100
AcDbEntity
  8
LAY-10
  6
CENTER
 62
     2
100
AcDbLine
 10
306.0
 20
299.0258449990095
 30
0.0
 11
358.499999999995
 21
299.0258449990095
 31
0.0
  0
LINE
  5
343
330
1F
100
AcDbEntity
  8
LAY-10
  6
CENTER
 62
     2
100
AcDbLine
 10
358.499999999995
 20
299.0258449990174
 30
0.0
 11
306.0
 21
297.9536274668928
 31
0.0
  0
LINE
  5
344
330
1F
100
AcDbEntity
  8
LAY-10
  6
CENTER
 62
     2
100
AcDbLine
 10
633.9999999999937
 20
334.9999999999989
 30
0.0
 11
615.9999999999937
 21
334.9999999999989
 31
0.0
  0
LINE
  5
345
330
1F
100
AcDbEntity
  8
LAY-10
  6
CENTER
 62
     2
100
AcDbLine
 10
624.9999999999977
 20
343.9999999999943
 30
0.0
 11
624.9999999999977
 21
325.9999999999943
 31
0.0
  0
LINE
  5
346
330
1F
100
AcDbEntity
  8
LAY-10
  6
CENTER
 62
     2
100
AcDbLine
 10
715.9999999999967
 20
334.9999999999989
 30
0.0
 11
733.9999999999967
 21
334.9999999999989
 31
0.0
  0
LINE
  5
347
330
1F
100
AcDbEntity
  8
LAY-10
  6
CENTER
 62
     2
100
AcDbLine
 10
724.9999999999927
 20
343.9999999999943
 30
0.0
 11
724.9999999999927
 21
325.9999999999943
 31
0.0
  0
LINE
  5
348
330
1F
100
AcDbEntity
  8
LAY-10
  6
CENTER
 62
     2
100
AcDbLine
 10
460.6999999999887
 20
245.1999999999865
 30
0.0
 11
449.4999999999897
 21
245.1999999999865
 31
0.0
  0
ARC
  5
349
330
1F
100
AcDbEntity
  8
LAY-10
  6
CENTER
 62
     2
100
AcDbCircle
 10
449.4999999999897
 20
249.6999999999865
 30
0.0
 40
4.5
100
AcDbArc
 50
180.0
 51
270.0000000000002
  0
LINE
  5
34A
330
1F
100
AcDbEntity
  8
LAY-10
  6
CENTER
 62
     2
100
AcDbLine
 10
444.99999999999
 20
275.9013587594707
 30
0.0
 11
444.99999999999
 21
249.6999999999865
 31
0.0
  0
LINE
  5
34B
330
1F
100
AcDbEntity
  8
LAY-10
  6
CENTER
 62
     2
100
AcDbLine
 10
674.9999999999952
 20
380.6932082283341
 30
0.0
 11
674.9999999999952
 21
240.6999999999903
 31
0.0
  0
LINE
  5
34C
330
1F
100
AcDbEntity
  8
LAY-10
  6
CENTER
 62
     2
100
AcDbLine
 10
670.50000000001
 20
245.1999999999941
 30
0.0
 11
679.5000000000051
 21
245.1999999999941
 31
0.0
  0
LINE
  5
34D
330
1F
100
AcDbEntity
  8
LAY-10
  6
CONTINUOUS
 62
     7
100
AcDbLine
 10
340.7871428249902
 20
261.7684029242258
 30
0.0
 11
319.6209710731
 21
260.6739807994302
 31
0.0
  0
LINE
  5
34E
330
1F
100
AcDbEntity
  8
LAY-10
  6
CONTINUOUS
 62
     7
100
AcDbLine
 10
339.28071575199
 20
335.5290148922346
 30
0.0
 11
318.08750919768
 21
335.75832333951
 31
0.0
  0
LINE
  5
34F
330
1F
100
AcDbEntity
  8
LAY-10
  6
CONTINUOUS
 62
     7
100
AcDbLine
 10
364.4999999999938
 20
332.4999999999903
 30
0.0
 11
361.499999999995
 21
332.4999999999903
 31
0.0
  0
LINE
  5
350
330
1F
100
AcDbEntity
  8
LAY-10
  6
CONTINUOUS
 62
     7
100
AcDbLine
 10
364.4999999999938
 20
337.4999999999979
 30
0.0
 11
361.499999999995
 21
337.4999999999979
 31
0.0
  0
LINE
  5
351
330
1F
100
AcDbEntity
  8
LAY-10
  6
CONTINUOUS
 62
     7
100
AcDbLine
 10
441.9999999999899
 20
264.6999999999389
 30
0.0
 11
447.9999999999899
 21
264.6999999999389
 31
0.0
  0
LINE
  5
352
330
1F
100
AcDbEntity
  8
LAY-10
  6
CONTINUOUS
 62
     7
100
AcDbLine
 10
441.9999999999916
 20
271.199999999986
 30
0.0
 11
441.9999999999916
 21
270.1999999999869
 31
0.0
  0
LINE
  5
353
330
1F
100
AcDbEntity
  8
LAY-10
  6
CONTINUOUS
 62
     7
100
AcDbLine
 10
447.9999999999907
 20
271.199999999986
 30
0.0
 11
447.9999999999907
 21
270.1999999999869
 31
0.0
  0
LINE
  5
354
330
1F
100
AcDbEntity
  8
LAY-10
  6
CONTINUOUS
 62
     7
100
AcDbLine
 10
447.5000000000018
 20
263.8339745961894
 30
0.0
 11
448.0000000000018
 21
264.699999999974
 31
0.0
  0
LINE
  5
355
330
1F
100
AcDbEntity
  8
LAY-10
  6
CONTINUOUS
 62
     7
100
AcDbLine
 10
442.4999999999715
 20
263.8339745961859
 30
0.0
 11
441.9999999999716
 21
264.6999999999704
 31
0.0
  0
LINE
  5
356
330
1F
100
AcDbEntity
  8
LAY-10
  6
CONTINUOUS
 62
     7
100
AcDbLine
 10
442.4999999999898
 20
270.6999999999809
 30
0.0
 11
442.4999999999898
 21
264.6999999999809
 31
0.0
  0
LINE
  5
357
330
1F
100
AcDbEntity
  8
LAY-10
  6
CONTINUOUS
 62
     7
100
AcDbLine
 10
447.4999999999898
 20
270.6999999999809
 30
0.0
 11
447.4999999999898
 21
264.6999999999809
 31
0.0
  0
LINE
  5
358
330
1F
100
AcDbEntity
  8
LAY-10
  6
CONTINUOUS
 62
     7
100
AcDbLine
 10
447.9999999999907
 20
271.199999999986
 30
0.0
 11
447.4999999999922
 21
271.6999999999867
 31
0.0
  0
LINE
  5
359
330
1F
100
AcDbEntity
  8
LAY-10
  6
CONTINUOUS
 62
     7
100
AcDbLine
 10
441.9999999999916
 20
271.199999999986
 30
0.0
 11
442.499999999993
 21
271.6999999999867
 31
0.0
  0
CIRCLE
  5
35A
330
1F
100
AcDbEntity
  8
LAY-10
  6
HIDDEN
 62
     7
100
AcDbCircle
 10
674.9999999999952
 20
299.0431188598095
 30
0.0
 40
34.0
  0
ARC
  5
35B
330
1F
100
AcDbEntity
  8
LAY-10
  6
HIDDEN
 62
     7
100
AcDbCircle
 10
674.99999999999
 20
299.04311885981
 30
0.0
 40
37.6461786817444
100
AcDbArc
 50
266.1923110343214
 51
273.8076889657396
  0
CIRCLE
  5
35C
330
1F
100
AcDbEntity
  8
LAY-10
  6
HIDDEN
 62
     7
100
AcDbCircle
 10
675.0
 20
299.04311885981
 30
0.0
 40
41.0
  0
ARC
  5
35D
330
1F
100
AcDbEntity
  8
LAY-10
  6
HIDDEN
 62
     7
100
AcDbCircle
 10
448.3816240809281
 20
275.1999999999903
 30
0.0
 40
3.000000000000002
100
AcDbArc
 50
140.0
 51
270.0000000000002
  0
LINE
  5
35E
330
1F
100
AcDbEntity
  8
LAY-10
  6
HIDDEN
 62
     7
100
AcDbLine
 10
449.4999999999949
 20
281.1999999999903
 30
0.0
 11
446.0834907515712
 21
277.1283628290499
 31
0.0
  0
LINE
  5
35F
330
1F
100
AcDbEntity
  8
LAY-10
  6
HIDDEN
 62
     7
100
AcDbLine
 10
448.3816240809281
 20
272.1999999999903
 30
0.0
 11
450.4999999999949
 21
272.1999999999903
 31
0.0
  0
LINE
  5
360
330
1F
100
AcDbEntity
  8
LAY-10
  6
HIDDEN
 62
     7
100
AcDbLine
 10
435.9999999999935
 20
267.6999999999901
 30
0.0
 11
435.1489197476599
 21
267.6255401261602
 31
0.0
  0
LINE
  5
361
330
1F
100
AcDbEntity
  8
LAY-10
  6
HIDDEN
 62
     7
100
AcDbLine
 10
454.99999999999
 20
267.69999999999
 30
0.0
 11
435.9999999999924
 21
267.69999999999
 31
0.0
  0
DIMENSION
  5
363
330
1F
100
AcDbEntity
  8
LAY-20
  6
CONTINUOUS
 62
     4
100
AcDbDimension
  2
*D15
 10
358.4999999999901
 20
425.999999999994
 30
0.0
 11
333.4999999999901
 21
433.499999999994
 31
0.0
 70
   160
  3
ISO-25
100
AcDbAlignedDimension
 13
308.49999999999
 23
343.5258449990141
 33
0.0
 14
358.4999999999901
 24
425.999999999994
 34
0.0
100
AcDbRotatedDimension
1001
ACAD
1000
DSTYLE
1002
{
1070
   270
1070
     2
1070
     6
1000
EX_BNORM
1070
     7
1000
EX_BNORM
1070
    41
1040
7.5
1070
    42
1040
4.5
1070
    44
1040
4.5
1070
    73
1070
     0
1070
    74
1070
     0
1070
    75
1070
     0
1070
    76
1070
     1
1070
    77
1070
     1
1070
    78
1070
     8
1070
   140
1040
9.3543312
1070
   147
1040
0.0
1070
   173
1070
     1
1070
   176
1070
     4
1070
   177
1070
     4
1070
   178
1070
     7
1070
   271
1070
     1
1070
   277
1070
     2
1070
   279
1070
     2
1070
   280
1070
     0
1070
   287
1070
     5
1070
   340
1005
362
1002
}
  0
DIMENSION
  5
370
330
1F
100
AcDbEntity
  8
LAY-20
  6
CONTINUOUS
 62
     4
100
AcDbDimension
  2
*D16
 10
441.49999999999
 20
404.999999999994
 30
0.0
 11
399.9999999999901
 21
412.499999999994
 31
0.0
 70
   160
  3
ISO-25
100
AcDbAlignedDimension
 13
358.4999999999901
 23
404.999999999994
 33
0.0
 14
441.49999999999
 24
279.9999999999941
 34
0.0
100
AcDbRotatedDimension
1001
ACAD
1000
DSTYLE
1002
{
1070
   270
1070
     2
1070
     6
1000
EX_BNORM
1070
     7
1000
EX_BNORM
1070
    41
1040
7.5
1070
    42
1040
4.5
1070
    44
1040
4.5
1070
    73
1070
     0
1070
    74
1070
     0
1070
    75
1070
     1
1070
    76
1070
     0
1070
    77
1070
     1
1070
    78
1070
     8
1070
   140
1040
9.3543312
1070
   147
1040
0.0
1070
   173
1070
     1
1070
   176
1070
     4
1070
   177
1070
     4
1070
   178
1070
     7
1070
   271
1070
     1
1070
   277
1070
     2
1070
   279
1070
     2
1070
   280
1070
     0
1070
   287
1070
     5
1070
   340
1005
362
1002
}
  0
DIMENSION
  5
37C
330
1F
100
AcDbEntity
  8
LAY-20
  6
CONTINUOUS
 62
     4
100
AcDbDimension
  2
*D17
 10
358.4999999999901
 20
404.999999999994
 30
0.0
 11
334.4999999999901
 21
412.499999999994
 31
0.0
 70
   160
  3
ISO-25
100
AcDbAlignedDimension
 13
353.9999999999901
 23
374.999999999994
 33
0.0
 14
358.4999999999901
 24
404.999999999994
 34
0.0
100
AcDbRotatedDimension
1001
ACAD
1000
DSTYLE
1002
{
1070
   270
1070
     2
1070
     6
1000
EX_BNORM
1070
     7
1000
EX_BNORM
1070
    41
1040
7.5
1070
    42
1040
4.5
1070
    44
1040
4.5
1070
    73
1070
     0
1070
    74
1070
     0
1070
    75
1070
     0
1070
    76
1070
     1
1070
    77
1070
     1
1070
    78
1070
     8
1070
   140
1040
9.3543312
1070
   147
1040
0.0
1070
   173
1070
     1
1070
   176
1070
     4
1070
   177
1070
     4
1070
   178
1070
     7
1070
   271
1070
     1
1070
   277
1070
     2
1070
   279
1070
     2
1070
   280
1070
     1
1070
   287
1070
     5
1070
   340
1005
362
1002
}
  0
DIMENSION
  5
38A
330
1F
100
AcDbEntity
  8
LAY-20
  6
CONTINUOUS
 62
     4
100
AcDbDimension
  2
*D18
 10
516.0
 20
281.199999999994
 30
0.0
 11
508.5
 21
318.699999999994
 31
0.0
 70
   160
  3
ISO-25
100
AcDbAlignedDimension
 13
370.4999999999901
 23
356.199999999994
 33
0.0
 14
449.49999999999
 24
281.199999999994
 34
0.0
 50
90.0
100
AcDbRotatedDimension
1001
ACAD
1000
DSTYLE
1002
{
1070
   270
1070
     2
1070
     6
1000
EX_BNORM
1070
     7
1000
EX_BNORM
1070
    41
1040
7.5
1070
    42
1040
4.5
1070
    44
1040
4.5
1070
    73
1070
     0
1070
    74
1070
     0
1070
    75
1070
     0
1070
    76
1070
     0
1070
    77
1070
     1
1070
    78
1070
     8
1070
   140
1040
9.3543312
1070
   147
1040
0.0
1070
   173
1070
     1
1070
   176
1070
     4
1070
   177
1070
     4
1070
   178
1070
     7
1070
   271
1070
     1
1070
   277
1070
     2
1070
   279
1070
     2
1070
   280
1070
     0
1070
   287
1070
     5
1070
   340
1005
362
1002
}
  0
DIMENSION
  5
397
330
1F
100
AcDbEntity
  8
LAY-20
  6
CONTINUOUS
 62
     4
100
AcDbDimension
  2
*D19
 10
516.0
 20
272.199999999994
 30
0.0
 11
508.5
 21
243.293208228334
 31
0.0
 70
   160
  3
ISO-25
100
AcDbAlignedDimension
 13
464.9999999999901
 23
267.699999999994
 33
0.0
 14
494.9999999999901
 24
272.199999999994
 34
0.0
 50
90.0
100
AcDbRotatedDimension
1001
ACAD
1000
DSTYLE
1002
{
1070
   270
1070
     2
1070
     6
1000
EX_BNORM
1070
     7
1000
EX_BCIR
1070
    41
1040
7.5
1070
    42
1040
4.5
1070
    44
1040
4.5
1070
    73
1070
     0
1070
    74
1070
     0
1070
    75
1070
     0
1070
    76
1070
     1
1070
    77
1070
     1
1070
    78
1070
     8
1070
   140
1040
9.3543312
1070
   147
1040
0.0
1070
   173
1070
     1
1070
   176
1070
     4
1070
   177
1070
     4
1070
   178
1070
     7
1070
   271
1070
     1
1070
   277
1070
     2
1070
   279
1070
     2
1070
   280
1070
     0
1070
   287
1070
     5
1070
   340
1005
362
1002
}
  0
DIMENSION
  5
3A5
330
1F
100
AcDbEntity
  8
LAY-20
  6
CONTINUOUS
 62
     4
100
AcDbDimension
  2
*D20
 10
516.0
 20
281.199999999994
 30
0.0
 11
508.5
 21
276.699999999994
 31
0.0
 70
   160
  3
ISO-25
100
AcDbAlignedDimension
 13
494.9999999999901
 23
272.199999999994
 33
0.0
 14
494.9999999999901
 24
281.199999999994
 34
0.0
 50
90.0
100
AcDbRotatedDimension
1001
ACAD
1000
DSTYLE
1002
{
1070
   270
1070
     2
1070
     6
1000
EX_NONE
1070
     7
1000
EX_NONE
1070
    41
1040
0.0
1070
    42
1040
0.0
1070
    44
1040
0.0
1070
    73
1070
     0
1070
    74
1070
     0
1070
    75
1070
     1
1070
    76
1070
     1
1070
    77
1070
     1
1070
    78
1070
     8
1070
   140
1040
9.3543312
1070
   147
1040
0.0
1070
   173
1070
     1
1070
   176
1070
     4
1070
   177
1070
     4
1070
   178
1070
     7
1070
   271
1070
     1
1070
   277
1070
     2
1070
   279
1070
     2
1070
   280
1070
     0
1070
   287
1070
     5
1070
   340
1005
362
1002
}
  0
DIMENSION
  5
3AE
330
1F
100
AcDbEntity
  8
LAY-20
  6
CONTINUOUS
 62
     4
100
AcDbDimension
  2
*D21
 10
757.9999999999951
 20
425.999999999994
 30
0.0
 11
674.9999999999945
 21
433.499999999994
 31
0.0
 70
   160
  3
ISO-25
100
AcDbAlignedDimension
 13
591.9999999999941
 23
359.999999999994
 33
0.0
 14
757.9999999999951
 24
359.999999999994
 34
0.0
100
AcDbRotatedDimension
1001
ACAD
1000
DSTYLE
1002
{
1070
   270
1070
     2
1070
     6
1000
EX_BNORM
1070
     7
1000
EX_BNORM
1070
    41
1040
7.5
1070
    42
1040
4.5
1070
    44
1040
4.5
1070
    73
1070
     0
1070
    74
1070
     0
1070
    75
1070
     0
1070
    76
1070
     0
1070
    77
1070
     1
1070
    78
1070
     8
1070
   140
1040
9.3543312
1070
   147
1040
0.0
1070
   173
1070
     1
1070
   176
1070
     4
1070
   177
1070
     4
1070
   178
1070
     7
1070
   271
1070
     1
1070
   277
1070
     2
1070
   279
1070
     2
1070
   280
1070
     0
1070
   287
1070
     5
1070
   340
1005
362
1002
}
  0
DIMENSION
  5
3BB
330
1F
100
AcDbEntity
  8
LAY-20
  6
CONTINUOUS
 62
     4
100
AcDbDimension
  2
*D22
 10
612.9999999999977
 20
404.999999999994
 30
0.0
 11
674.9999999999978
 21
412.499999999994
 31
0.0
 70
   160
  3
ISO-25
100
AcDbAlignedDimension
 13
736.9999999999978
 23
351.9999999999989
 33
0.0
 14
612.9999999999977
 24
351.9999999999989
 34
0.0
100
AcDbRotatedDimension
1001
ACAD
1000
DSTYLE
1002
{
1070
   270
1070
     2
1070
     6
1000
EX_BNORM
1070
     7
1000
EX_BNORM
1070
    41
1040
7.5
1070
    42
1040
4.5
1070
    44
1040
4.5
1070
    73
1070
     0
1070
    74
1070
     0
1070
    75
1070
     0
1070
    76
1070
     0
1070
    77
1070
     1
1070
    78
1070
     8
1070
   140
1040
9.3543312
1070
   147
1040
0.0
1070
   173
1070
     1
1070
   176
1070
     4
1070
   177
1070
     4
1070
   178
1070
     7
1070
   271
1070
     1
1070
   277
1070
     2
1070
   279
1070
     2
1070
   280
1070
     0
1070
   287
1070
     5
1070
   340
1005
362
1002
}
  0
DIMENSION
  5
3C8
330
1F
100
AcDbEntity
  8
LAY-20
  6
CONTINUOUS
 62
     4
100
AcDbDimension
  2
*D23
 10
495.0
 20
272.19999999999
 30
0.0
 11
487.5
 21
285.612922499505
 31
0.0
 70
   160
  1
27
  3
ISO-25
100
AcDbAlignedDimension
 13
358.5
 23
299.02584499902
 33
0.0
 14
495.0
 24
272.19999999999
 34
0.0
 50
90.0
100
AcDbRotatedDimension
1001
ACAD
1000
DSTYLE
1002
{
1070
   270
1070
     2
1070
     6
1000
EX_BNORM
1070
     7
1000
EX_BNORM
1070
    41
1040
7.5
1070
    42
1040
4.5
1070
    44
1040
4.5
1070
    73
1070
     0
1070
    74
1070
     0
1070
    75
1070
     0
1070
    76
1070
     1
1070
    77
1070
     1
1070
    78
1070
     8
1070
   140
1040
9.3543312
1070
   147
1040
0.0
1070
   173
1070
     1
1070
   176
1070
     4
1070
   177
1070
     4
1070
   178
1070
     7
1070
   271
1070
     1
1070
   277
1070
     2
1070
   279
1070
     2
1070
   280
1070
     0
1070
   287
1070
     5
1070
   340
1005
362
1002
}
  0
DIMENSION
  5
3D4
330
1F
100
AcDbEntity
  8
LAY-20
  6
CONTINUOUS
 62
     4
100
AcDbDimension
  2
*D24
 10
278.1909964634458
 20
297.9324853603852
 30
0.0
 11
275.0725585521041
 21
326.4409902021513
 31
0.0
 70
   165
  1
1%%d10'
  3
ISO-25
100
AcDb3PointAngularDimension
 13
304.06249999999
 23
299.0258449990092
 33
0.0
 14
304.0634251661468
 24
297.9140764290013
 34
0.0
 15
358.5
 25
299.02584499902
 35
0.0
1001
ACAD
1000
DSTYLE
1002
{
1070
   270
1070
     2
1070
     6
1000
EX_BNORM
1070
     7
1000
EX_BNORM
1070
    41
1040
7.5
1070
    42
1040
0.0625
1070
    44
1040
4.5
1070
    73
1070
     0
1070
    74
1070
     0
1070
    75
1070
     0
1070
    76
1070
     0
1070
    77
1070
     1
1070
    78
1070
     8
1070
    79
1070
     2
1070
   140
1040
9.3543312
1070
   147
1040
0.0
1070
   173
1070
     1
1070
   176
1070
     4
1070
   177
1070
     4
1070
   178
1070
     7
1070
   179
1070
     1
1070
   271
1070
     1
1070
   277
1070
     2
1070
   279
1070
     2
1070
   280
1070
     1
1070
   287
1070
     5
1070
   340
1005
362
1002
}
  0
DIMENSION
  5
3E4
330
1F
100
AcDbEntity
  8
LAY-20
  6
CONTINUOUS
 62
     4
100
AcDbDimension
  2
*D25
 10
255.9
 20
260.67398079943
 30
0.0
 11
248.4
 21
298.21615206947
 31
0.0
 70
   160
  1
Rｃ21/2(<>)
  3
ISO-25
100
AcDbAlignedDimension
 13
318.08750919768
 23
335.75832333951
 33
0.0
 14
319.6209710731
 24
260.67398079943
 34
0.0
 50
90.0
100
AcDbRotatedDimension
1001
ACAD
1000
DSTYLE
1002
{
1070
   270
1070
     2
1070
     6
1000
EX_BNORM
1070
     7
1000
EX_BNORM
1070
    41
1040
9.0
1070
    42
1040
4.5
1070
    44
1040
4.5
1070
    73
1070
     0
1070
    74
1070
     0
1070
    75
1070
     0
1070
    76
1070
     0
1070
    77
1070
     1
1070
    78
1070
     8
1070
   140
1040
9.3543312
1070
   147
1040
0.0
1070
   173
1070
     1
1070
   176
1070
     4
1070
   177
1070
     4
1070
   178
1070
     7
1070
   271
1070
     1
1070
   277
1070
     2
1070
   279
1070
     2
1070
   280
1070
     0
1070
   287
1070
     5
1070
   340
1005
362
1002
}
  0
DIMENSION
  5
3F1
330
1F
100
AcDbEntity
  8
LAY-20
  6
CONTINUOUS
 62
     4
100
AcDbDimension
  2
*D26
 10
464.9999999999899
 20
425.9999999999899
 30
0.0
 11
411.749999999995
 21
433.4999999999899
 31
0.0
 70
   160
  3
ISO-25
100
AcDbAlignedDimension
 13
358.5
 23
374.99999999999
 33
0.0
 14
464.9999999999899
 24
272.19999999999
 34
0.0
100
AcDbRotatedDimension
1001
ACAD
1000
DSTYLE
1002
{
1070
   270
1070
     2
1070
     6
1000
EX_BNORM
1070
     7
1000
EX_BNORM
1070
    41
1040
9.0
1070
    42
1040
4.5
1070
    44
1040
4.5
1070
    73
1070
     0
1070
    74
1070
     0
1070
    75
1070
     0
1070
    76
1070
     0
1070
    77
1070
     1
1070
    78
1070
     8
1070
   140
1040
9.3543312
1070
   147
1040
0.0
1070
   173
1070
     1
1070
   176
1070
     4
1070
   177
1070
     4
1070
   178
1070
     7
1070
   271
1070
     1
1070
   277
1070
     2
1070
   279
1070
     2
1070
   280
1070
     0
1070
   287
1070
     5
1070
   340
1005
362
1002
}
  0
DIMENSION
  5
3FE
330
1F
100
AcDbEntity
  8
LAY-20
  6
CONTINUOUS
 62
     4
100
AcDbDimension
  2
*D27
 10
537.0
 20
252.69999999999
 30
0.0
 11
529.5
 21
227.1999999999899
 31
0.0
 70
   160
  3
ISO-25
100
AcDbAlignedDimension
 13
464.9999999999899
 23
272.19999999999
 33
0.0
 14
357.6
 24
252.69999999999
 34
0.0
 50
90.0
100
AcDbRotatedDimension
1001
ACAD
1000
DSTYLE
1002
{
1070
   270
1070
     2
1070
     6
1000
EX_BNORM
1070
     7
1000
EX_BNORM
1070
    41
1040
9.0
1070
    42
1040
4.5
1070
    44
1040
4.5
1070
    73
1070
     0
1070
    74
1070
     0
1070
    75
1070
     0
1070
    76
1070
     0
1070
    77
1070
     1
1070
    78
1070
     8
1070
   140
1040
9.3543312
1070
   147
1040
0.0
1070
   173
1070
     1
1070
   176
1070
     4
1070
   177
1070
     4
1070
   178
1070
     7
1070
   271
1070
     1
1070
   277
1070
     2
1070
   279
1070
     2
1070
   280
1070
     2
1070
   287
1070
     5
1070
   340
1005
362
1002
}
  0
DIMENSION
  5
40B
330
1F
100
AcDbEntity
  8
LAY-20
  6
CONTINUOUS
 62
     4
100
AcDbDimension
  2
*D28
 10
537.0
 20
374.6999999999899
 30
0.0
 11
529.5
 21
323.44999999999
 31
0.0
 70
   160
  3
ISO-25
100
AcDbAlignedDimension
 13
469.4999999999899
 23
272.19999999999
 33
0.0
 14
363.0
 24
374.69999999999
 34
0.0
 50
90.0
100
AcDbRotatedDimension
1001
ACAD
1000
DSTYLE
1002
{
1070
   270
1070
     2
1070
     6
1000
EX_BNORM
1070
     7
1000
EX_BNORM
1070
    41
1040
9.0
1070
    42
1040
4.5
1070
    44
1040
4.5
1070
    73
1070
     0
1070
    74
1070
     0
1070
    75
1070
     0
1070
    76
1070
     0
1070
    77
1070
     1
1070
    78
1070
     8
1070
   140
1040
9.3543312
1070
   147
1040
0.0
1070
   173
1070
     1
1070
   176
1070
     4
1070
   177
1070
     4
1070
   178
1070
     7
1070
   271
1070
     1
1070
   277
1070
     2
1070
   279
1070
     2
1070
   280
1070
     0
1070
   287
1070
     5
1070
   340
1005
362
1002
}
  0
LINE
  5
418
330
1F
100
AcDbEntity
  8
LAY-255
  6
CONTINUOUS
 62
     7
100
AcDbLine
 10
1155.0
 20
66.0
 30
0.0
 11
855.0
 21
66.0
 31
0.0
  0
LINE
  5
419
330
1F
100
AcDbEntity
  8
LAY-255
  6
CONTINUOUS
 62
     7
100
AcDbLine
 10
866.4000000000001
 20
48.0
 30
0.0
 11
890.4000000000001
 21
63.0
 31
0.0
  0
LINE
  5
41A
330
1F
100
AcDbEntity
  8
LAY-255
  6
CONTINUOUS
 62
     7
100
AcDbLine
 10
890.4000000000001
 20
63.0
 30
0.0
 11
914.4000000000001
 21
48.0
 31
0.0
  0
LINE
  5
41B
330
1F
100
AcDbEntity
  8
LAY-255
  6
CONTINUOUS
 62
     7
100
AcDbLine
 10
914.4000000000001
 20
48.0
 30
0.0
 11
890.4000000000001
 21
33.0
 31
0.0
  0
LINE
  5
41C
330
1F
100
AcDbEntity
  8
LAY-255
  6
CONTINUOUS
 62
     7
100
AcDbLine
 10
890.4000000000001
 20
33.0
 30
0.0
 11
866.4000000000001
 21
48.0
 31
0.0
  0
LINE
  5
41D
330
1F
100
AcDbEntity
  8
LAY-255
  6
CONTINUOUS
 62
     7
100
AcDbLine
 10
15.0
 20
30.0
 30
0.0
 11
1155.0
 21
30.0
 31
0.0
  0
LINE
  5
41E
330
1F
100
AcDbEntity
  8
LAY-255
  6
CONTINUOUS
 62
     7
100
AcDbLine
 10
15.0
 20
840.0
 30
0.0
 11
1155.0
 21
840.0
 31
0.0
  0
LINE
  5
41F
330
1F
100
AcDbEntity
  8
LAY-255
  6
CONTINUOUS
 62
     7
100
AcDbLine
 10
15.0
 20
30.0
 30
0.0
 11
15.0
 21
840.0
 31
0.0
  0
LINE
  5
420
330
1F
100
AcDbEntity
  8
LAY-255
  6
CONTINUOUS
 62
     7
100
AcDbLine
 10
1155.0
 20
30.0
 30
0.0
 11
1155.0
 21
840.0
 31
0.0
  0
LINE
  5
421
330
1F
100
AcDbEntity
  8
LAY-255
  6
CONTINUOUS
 62
     4
100
AcDbLine
 10
855.0
 20
84.0
 30
0.0
 11
1155.0
 21
84.0
 31
0.0
  0
LINE
  5
422
330
1F
100
AcDbEntity
  8
LAY-255
  6
CONTINUOUS
 62
     7
100
AcDbLine
 10
855.0
 20
30.0
 30
0.0
 11
855.0
 21
201.0
 31
0.0
  0
LINE
  5
423
330
1F
100
AcDbEntity
  8
LAY-255
  6
CONTINUOUS
 62
     4
100
AcDbLine
 10
1005.0
 20
84.0
 30
0.0
 11
1005.0
 21
66.0
 31
0.0
  0
LINE
  5
424
330
1F
100
AcDbEntity
  8
LAY-255
  6
CONTINUOUS
 62
     7
100
AcDbLine
 10
1155.0
 20
201.0
 30
0.0
 11
855.0
 21
201.0
 31
0.0
  0
LINE
  5
425
330
1F
100
AcDbEntity
  8
LAY-255
  6
CONTINUOUS
 62
     4
100
AcDbLine
 10
1149.0
 20
165.0
 30
0.0
 11
861.0
 21
165.0
 31
0.0
  0
LINE
  5
426
330
1F
100
AcDbEntity
  8
LAY-255
  6
CONTINUOUS
 62
     4
100
AcDbLine
 10
1149.0
 20
183.0
 30
0.0
 11
861.0
 21
183.0
 31
0.0
  0
POINT
  5
427
330
1F
100
AcDbEntity
  8
LAY-255
  6
CONTINUOUS
 62
     7
100
AcDbPoint
 10
867.0
 20
150.0
 30
0.0
  0
POINT
  5
428
330
1F
100
AcDbEntity
  8
LAY-255
  6
CONTINUOUS
 62
     7
100
AcDbPoint
 10
900.0
 20
168.0
 30
0.0
  0
POINT
  5
429
330
1F
100
AcDbEntity
  8
LAY-255
  6
CONTINUOUS
 62
     7
100
AcDbPoint
 10
900.0
 20
186.0
 30
0.0
  0
POINT
  5
42A
330
1F
100
AcDbEntity
  8
LAY-255
  6
CONTINUOUS
 62
     7
100
AcDbPoint
 10
867.0
 20
120.0
 30
0.0
  0
POINT
  5
42B
330
1F
100
AcDbEntity
  8
LAY-255
  6
CONTINUOUS
 62
     7
100
AcDbPoint
 10
867.0
 20
135.0
 30
0.0
  0
POINT
  5
42C
330
1F
100
AcDbEntity
  8
LAY-255
  6
CONTINUOUS
 62
     7
100
AcDbPoint
 10
867.0
 20
105.0
 30
0.0
  0
POINT
  5
42D
330
1F
100
AcDbEntity
  8
LAY-255
  6
CONTINUOUS
 62
     7
100
AcDbPoint
 10
867.0
 20
89.99999999999996
 30
0.0
  0
TEXT
  5
42E
330
1F
100
AcDbEntity
  8
LAY-255
  6
CONTINUOUS
 62
     7
100
AcDbText
 10
924.415136826172
 20
46.63125
 30
0.0
 40
15.46875
  1
福西鋳物株式会社
 41
1.342692141742901
  7
EXCADSTD
100
AcDbText
  0
TEXT
  5
42F
330
1F
100
AcDbEntity
  8
LAY-255
  6
CONTINUOUS
 62
     7
100
AcDbText
 10
925.528125
 20
35.94375
 30
0.0
 40
5.15625
  1
ＦＵＫＵＮＩＳＨＩ
 41
1.204799226045263
  7
EXCADSTD
100
AcDbText
  0
TEXT
  5
430
330
1F
100
AcDbEntity
  8
LAY-255
  6
CONTINUOUS
 62
     7
100
AcDbText
 10
998.1575892857143
 20
35.94375
 30
0.0
 40
5.15625
  1
ＦＯＵＮＤＲＹ
 41
1.243252752978497
  7
EXCADSTD
100
AcDbText
  0
TEXT
  5
431
330
1F
100
AcDbEntity
  8
LAY-255
  6
CONTINUOUS
 62
     7
100
AcDbText
 10
1055.983774651442
 20
35.94375
 30
0.0
 40
5.15625
  1
ＣＯ.,ＬＴＤ.
 41
1.243831271314936
  7
EXCADSTD
100
AcDbText
  0
TEXT
  5
432
330
1F
100
AcDbEntity
  8
LAY-255
  6
CONTINUOUS
 62
     7
100
AcDbText
 10
882.1031250000001
 20
41.15625
 30
0.0
 40
15.46875
  1
S
 41
0.7582677563636363
  7
EXCADSTD
100
AcDbText
  0
TEXT
  5
433
330
1F
100
AcDbEntity
  8
LAY-255
  6
CONTINUOUS
 62
     7
100
AcDbText
 10
891.3140625000001
 20
41.24823113208
 30
0.0
 40
15.46875
  1
F
 41
0.7440945272727273
  7
EXCADSTD
100
AcDbText
  0
TEXT
  5
434
330
1F
100
AcDbEntity
  8
LAY-255
  6
CONTINUOUS
 62
     7
100
AcDbText
 10
1011.31640625
 20
73.26562499999997
 30
0.0
 40
7.734375
  1
縮尺
 41
1.080708718181818
  7
EXCADSTD
100
AcDbText
  0
TEXT
  5
435
330
1F
100
AcDbEntity
  8
LAY-255
  6
CONTINUOUS
 62
     7
100
AcDbText
 10
861.796875
 20
169.6875
 30
0.0
 40
10.3125
  1
型式
 41
1.056348480681818
  7
EXCADSTD
100
AcDbText
  0
TEXT
  5
436
330
1F
100
AcDbEntity
  8
LAY-255
  6
CONTINUOUS
 62
     7
100
AcDbText
 10
862.265625
 20
187.6875
 30
0.0
 40
10.3125
  1
品名
 41
0.978838634090909
  7
EXCADSTD
100
AcDbText
  0
TEXT
  5
437
330
1F
100
AcDbEntity
  8
LAY-255
  6
CONTINUOUS
 62
     7
100
AcDbText
 10
861.45703125
 20
73.26562499999997
 30
0.0
 40
7.734375
  1
作成日
 41
1.000629973818182
  7
EXCADSTD
100
AcDbText
  0
TEXT
  5
438
330
1F
100
AcDbEntity
  8
LAY-255
  6
CONTINUOUS
 62
     7
100
AcDbText
 10
1044.84375
 20
70.68749999999997
 30
0.0
 40
10.3125
  1
１：３
 41
0.8844094952727272
  7
EXCADSTD
100
AcDbText
  0
TEXT
  5
439
330
1F
100
AcDbEntity
  8
LAY-255
  6
CONTINUOUS
 62
     7
100
AcDbText
 10
900.75
 20
187.6875
 30
0.0
 40
10.3125
  1
ルーフドレイン
 41
1.021169538599106
  7
EXCADSTD
100
AcDbText
  0
TEXT
  5
43A
330
1F
100
AcDbEntity
  8
LAY-255
  6
CONTINUOUS
 62
     7
100
AcDbText
 10
868.125
 20
151.6875000000001
 30
0.0
 40
10.3125
  1
防水：モルタル・塗膜防水兼用
 41
1.008985320967742
  7
EXCADSTD
100
AcDbText
  0
TEXT
  5
43B
330
1F
100
AcDbEntity
  8
LAY-255
  6
CONTINUOUS
 62
     7
100
AcDbText
 10
902.25
 20
169.6875
 30
0.0
 40
10.3125
  1
ＳＦ－ＳＣＳ－７０６５型
 41
1.00449418439108
  7
EXCADSTD
100
AcDbText
  0
TEXT
  5
43C
330
1F
100
AcDbEntity
  8
LAY-255
  6
CONTINUOUS
 62
     7
100
AcDbText
 10
867.65625
 20
106.6875
 30
0.0
 40
10.3125
  1
接続：管用テーパねじ
 41
1.013063761157025
  7
EXCADSTD
100
AcDbText
  0
TEXT
  5
43D
330
1F
100
AcDbEntity
  8
LAY-255
  6
CONTINUOUS
 62
     7
100
AcDbText
 10
867.703125
 20
121.6875
 30
0.0
 40
10.3125
  1
用途：屋上用・横引型
 41
1.017090246694215
  7
EXCADSTD
100
AcDbText
  0
TEXT
  5
43E
330
1F
100
AcDbEntity
  8
LAY-255
  6
CONTINUOUS
 62
     7
100
AcDbText
 10
867.421875
 20
136.6875
 30
0.0
 40
10.3125
  1
材質：ステンレス鋼鋳鋼
 41
1.017696295032802
  7
EXCADSTD
100
AcDbText
  0
TEXT
  5
43F
330
1F
100
AcDbEntity
  8
LAY-255
  6
CONTINUOUS
 62
     7
100
AcDbText
 10
902.671875
 20
70.68749999999997
 30
0.0
 40
10.3125
  1
０７／０１／０５
 41
0.9779528072727272
  7
EXCADSTD
100
AcDbText
  0
ENDSEC
  0
SECTION
  2
OBJECTS
  0
DICTIONARY
  5
C
330
0
100
AcDbDictionary
  3
ACAD_GROUP
350
D
  3
ACAD_LAYOUT
350
1A
  3
ACAD_MATERIAL
350
43
  3
ACAD_MLEADERSTYLE
350
6B
  3
ACAD_MLINESTYLE
350
17
  3
ACAD_PLOTSETTINGS
350
19
  3
ACAD_SCALELIST
350
47
  3
ACAD_VISUALSTYLE
350
2A
  3
ACDBHEADERROUNDTRIPXREC
350
440
  3
ACDBVARIABLEDICTIONARY
350
461
  0
DICTIONARY
  5
46C
330
8
100
AcDbDictionary
280
     1
  3
ACAD_XREC_ROUNDTRIP
360
46D
  0
DICTIONARY
  5
D
102
{ACAD_REACTORS
330
C
102
}
330
C
100
AcDbDictionary
  0
DICTIONARY
  5
1A
102
{ACAD_REACTORS
330
C
102
}
330
C
100
AcDbDictionary
  0
DICTIONARY
  5
43
102
{ACAD_REACTORS
330
C
102
}
330
C
100
AcDbDictionary
  3
BYBLOCK
350
45
  3
BYLAYER
350
44
  3
GLOBAL
350
46
  0
DICTIONARY
  5
6B
102
{ACAD_REACTORS
330
C
102
}
330
C
100
AcDbDictionary
  3
STANDARD
350
6C
  0
DICTIONARY
  5
17
102
{ACAD_REACTORS
330
C
102
}
330
C
100
AcDbDictionary
  3
STANDARD
350
18
  0
DICTIONARY
  5
19
102
{ACAD_REACTORS
330
C
102
}
330
C
100
AcDbDictionary
  0
DICTIONARY
  5
47
102
{ACAD_REACTORS
330
C
102
}
330
C
100
AcDbDictionary
  3
A0
350
48
  3
A1
350
49
  3
A2
350
4A
  3
A3
350
4B
  3
A4
350
4C
  3
A5
350
4D
  3
A6
350
4E
  3
A7
350
4F
  3
A8
350
50
  3
A9
350
51
  3
B0
350
52
  3
B1
350
53
  3
B2
350
54
  3
B3
350
55
  3
B4
350
56
  3
B5
350
57
  3
B6
350
58
  3
B7
350
59
  3
B8
350
5A
  3
B9
350
5B
  3
C0
350
5C
  3
C1
350
5D
  3
C2
350
5E
  3
C3
350
5F
  3
C4
350
60
  3
C5
350
61
  3
C6
350
62
  3
C7
350
63
  3
C8
350
64
  3
C9
350
65
  3
D0
350
66
  3
D1
350
67
  3
D2
350
68
  0
DICTIONARY
  5
2A
102
{ACAD_REACTORS
330
C
102
}
330
C
100
AcDbDictionary
  3
2DWIREFRAME
350
2F
  3
BASIC
350
32
  3
BRIGHTEN
350
36
  3
COLORCHANGE
350
3A
  3
CONCEPTUAL
350
34
  3
DIM
350
35
  3
EDGECOLOROFF
350
3D
  3
FACEPATTERN
350
39
  3
FLAT
350
2B
  3
FLATWITHEDGES
350
2C
  3
GOURAUD
350
2D
  3
GOURAUDWITHEDGES
350
2E
  3
HIDDEN
350
31
  3
JITTEROFF
350
3B
  3
LINEPATTERN
350
38
  3
OVERHANGOFF
350
3C
  3
REALISTIC
350
33
  3
SHADED
350
42
  3
SHADED_WITH_EDGES
350
41
  3
SHADES_OF_GRAY
350
3E
  3
SKETCHY
350
3F
  3
THICKEN
350
37
  3
WIREFRAME
350
30
  3
X-RAY
350
40
  0
DICTIONARY
  5
440
102
{ACAD_REACTORS
330
C
102
}
330
C
100
AcDbDictionary
  3
CEPSNID
350
44A
  3
CEPSNTYPE
350
449
  3
DIMSTYLEDATA
350
460
  3
FINGERPRINTGUID
350
44B
  3
HYPERLINKBASE
350
443
  3
INSUNITS
350
448
  3
LAYOUTDICT
350
445
  3
LWETCUNION
350
447
  3
PLOTSETDICT
350
446
  3
PSVPSCALE
350
44D
  3
PUCSBASE
350
450
  3
PUCSORGBACK
350
456
  3
PUCSORGBOTTOM
350
452
  3
PUCSORGFRONT
350
455
  3
PUCSORGLEFT
350
453
  3
PUCSORGRIGHT
350
454
  3
PUCSORGTOP
350
451
  3
PUCSORTHOREF
350
44E
  3
PUCSORTHOVIEW
350
44F
  3
STYLESHEET
350
444
  3
TSTACKALIGN
350
441
  3
TSTACKSIZE
350
442
  3
UCSBASE
350
459
  3
UCSORGBACK
350
45F
  3
UCSORGBOTTOM
350
45B
  3
UCSORGFRONT
350
45E
  3
UCSORGLEFT
350
45C
  3
UCSORGRIGHT
350
45D
  3
UCSORGTOP
350
45A
  3
UCSORTHOREF
350
457
  3
UCSORTHOVIEW
350
458
  3
VERSIONGUID
350
44C
  0
DICTIONARY
  5
461
102
{ACAD_REACTORS
330
C
102
}
330
C
100
AcDbDictionary
  3
CANNOSCALE
350
46E
  3
CENTEREXE
350
468
  3
CENTERLTYPEFILE
350
469
  3
CMLEADERSTYLE
350
463
  3
CTABLESTYLE
350
462
  3
DIMASSOC
350
46A
  3
HIDETEXT
350
46B
  3
MSLTSCALE
350
46F
  3
PSOLHEIGHT
350
465
  3
PSOLWIDTH
350
464
  0
XRECORD
  5
46D
102
{ACAD_REACTORS
330
46C
102
}
330
46C
100
AcDbXrecord
102
VTR_0.000_0.000_1.000_1.000_VISUALSTYLE
340
2F
102
VTR_0.000_0.000_1.000_1.000_GRIDDISPLAY
 70
     3
102
VTR_0.000_0.000_1.000_1.000_GRIDMAJOR
 70
     5
102
VTR_0.000_0.000_1.000_1.000_DEFAULTLIGHTING
280
     1
102
VTR_0.000_0.000_1.000_1.000_DEFAULTLIGHTINGTYPE
 70
     1
102
VTR_0.000_0.000_1.000_1.000_BRIGHTNESS
141
0.0
102
VTR_0.000_0.000_1.000_1.000_CONTRAST
142
0.0
  0
MATERIAL
  5
45
102
{ACAD_REACTORS
330
43
102
}
102
{ACAD_XDICTIONARY
360
472
102
}
330
43
100
AcDbMaterial
  1
BYBLOCK
  0
MATERIAL
  5
44
102
{ACAD_REACTORS
330
43
102
}
102
{ACAD_XDICTIONARY
360
470
102
}
330
43
100
AcDbMaterial
  1
BYLAYER
  0
MATERIAL
  5
46
102
{ACAD_REACTORS
330
43
102
}
102
{ACAD_XDICTIONARY
360
474
102
}
330
43
100
AcDbMaterial
  1
GLOBAL
  0
ACAD_PROXY_OBJECT
  5
6C
102
{ACAD_REACTORS
330
6B
102
}
330
6B
100
AcDbProxyObject
 90
      499
 91
      505
 93
      610
310
40901902A4063FBFFFFFE0000000000000020400000000000020404214DD185B99185C990000000000000104090141901A00000000000004100000000000000041025764000000000000039000
340
14
340
0
340
11
340
0
 94
        0
1001
ACAD_MLEADERVER
1070
     2
  0
MLINESTYLE
  5
18
102
{ACAD_REACTORS
330
17
102
}
330
17
100
AcDbMlineStyle
  2
Standard
 70
     0
  3

 62
   256
 51
90.0
 52
90.0
 71
     2
 49
0.5
 62
   256
  6
BYLAYER
 49
-0.5
 62
   256
  6
BYLAYER
  0
ACAD_PROXY_OBJECT
  5
48
102
{ACAD_REACTORS
330
47
102
}
330
47
100
AcDbProxyObject
 90
      499
 91
      503
 93
       41
310
903313A31580
  0
ACAD_PROXY_OBJECT
  5
49
102
{ACAD_REACTORS
330
47
102
}
330
47
100
AcDbProxyObject
 90
      499
 91
      503
 93
      105
310
903313A324000000000000004000
  0
ACAD_PROXY_OBJECT
  5
4A
102
{ACAD_REACTORS
330
47
102
}
330
47
100
AcDbProxyObject
 90
      499
 91
      503
 93
      105
310
903313A344000000000000104000
  0
ACAD_PROXY_OBJECT
  5
4B
102
{ACAD_REACTORS
330
47
102
}
330
47
100
AcDbProxyObject
 90
      499
 91
      503
 93
      105
310
903313A354000000000000144000
  0
ACAD_PROXY_OBJECT
  5
4C
102
{ACAD_REACTORS
330
47
102
}
330
47
100
AcDbProxyObject
 90
      499
 91
      503
 93
      105
310
903313A384000000000000204000
  0
ACAD_PROXY_OBJECT
  5
4D
102
{ACAD_REACTORS
330
47
102
}
330
47
100
AcDbProxyObject
 90
      499
 91
      503
 93
      113
310
904313A31304000000000000244000
  0
ACAD_PROXY_OBJECT
  5
4E
102
{ACAD_REACTORS
330
47
102
}
330
47
100
AcDbProxyObject
 90
      499
 91
      503
 93
      113
310
904313A31364000000000000304000
  0
ACAD_PROXY_OBJECT
  5
4F
102
{ACAD_REACTORS
330
47
102
}
330
47
100
AcDbProxyObject
 90
      499
 91
      503
 93
      113
310
904313A32304000000000000344000
  0
ACAD_PROXY_OBJECT
  5
50
102
{ACAD_REACTORS
330
47
102
}
330
47
100
AcDbProxyObject
 90
      499
 91
      503
 93
      113
310
904313A333040000000000003E4000
  0
ACAD_PROXY_OBJECT
  5
51
102
{ACAD_REACTORS
330
47
102
}
330
47
100
AcDbProxyObject
 90
      499
 91
      503
 93
      113
310
904313A34304000000000000444000
  0
ACAD_PROXY_OBJECT
  5
52
102
{ACAD_REACTORS
330
47
102
}
330
47
100
AcDbProxyObject
 90
      499
 91
      503
 93
      113
310
904313A35304000000000000494000
  0
ACAD_PROXY_OBJECT
  5
53
102
{ACAD_REACTORS
330
47
102
}
330
47
100
AcDbProxyObject
 90
      499
 91
      503
 93
      121
310
905313A3130304000000000000594000
  0
ACAD_PROXY_OBJECT
  5
54
102
{ACAD_REACTORS
330
47
102
}
330
47
100
AcDbProxyObject
 90
      499
 91
      503
 93
      105
310
903323A310000000000000010100
  0
ACAD_PROXY_OBJECT
  5
55
102
{ACAD_REACTORS
330
47
102
}
330
47
100
AcDbProxyObject
 90
      499
 91
      503
 93
      105
310
903343A310000000000000410100
  0
ACAD_PROXY_OBJECT
  5
56
102
{ACAD_REACTORS
330
47
102
}
330
47
100
AcDbProxyObject
 90
      499
 91
      503
 93
      105
310
903383A310000000000000810100
  0
ACAD_PROXY_OBJECT
  5
57
102
{ACAD_REACTORS
330
47
102
}
330
47
100
AcDbProxyObject
 90
      499
 91
      503
 93
      113
310
90431303A310000000000000910100
  0
ACAD_PROXY_OBJECT
  5
58
102
{ACAD_REACTORS
330
47
102
}
330
47
100
AcDbProxyObject
 90
      499
 91
      503
 93
      121
310
9053130303A310000000000001650100
  0
ACAD_PROXY_OBJECT
  5
59
102
{ACAD_REACTORS
330
47
102
}
330
47
100
AcDbProxyObject
 90
      499
 91
      503
 93
      257
310
90E312F31323822203D2031272D3022000000000000200FC000000000000284000
  0
ACAD_PROXY_OBJECT
  5
5A
102
{ACAD_REACTORS
330
47
102
}
330
47
100
AcDbProxyObject
 90
      499
 91
      503
 93
      249
310
90D312F363422203D2031272D3022000000000000240FC000000000000284000
  0
ACAD_PROXY_OBJECT
  5
5B
102
{ACAD_REACTORS
330
47
102
}
330
47
100
AcDbProxyObject
 90
      499
 91
      503
 93
      249
310
90D312F333222203D2031272D3022000000000000280FC000000000000284000
  0
ACAD_PROXY_OBJECT
  5
5C
102
{ACAD_REACTORS
330
47
102
}
330
47
100
AcDbProxyObject
 90
      499
 91
      503
 93
      249
310
90D312F313622203D2031272D30220000000000002C0FC000000000000284000
  0
ACAD_PROXY_OBJECT
  5
5D
102
{ACAD_REACTORS
330
47
102
}
330
47
100
AcDbProxyObject
 90
      499
 91
      503
 93
      249
310
90D332F333222203D2031272D30220000000000002E0FC000000000000284000
  0
ACAD_PROXY_OBJECT
  5
5E
102
{ACAD_REACTORS
330
47
102
}
330
47
100
AcDbProxyObject
 90
      499
 91
      503
 93
      241
310
90C312F3822203D2031272D3022000000000000300FC000000000000284000
  0
ACAD_PROXY_OBJECT
  5
5F
102
{ACAD_REACTORS
330
47
102
}
330
47
100
AcDbProxyObject
 90
      499
 91
      503
 93
      249
310
90D332F313622203D2031272D3022000000000000320FC000000000000284000
  0
ACAD_PROXY_OBJECT
  5
60
102
{ACAD_REACTORS
330
47
102
}
330
47
100
AcDbProxyObject
 90
      499
 91
      503
 93
      241
310
90C312F3422203D2031272D3022000000000000340FC000000000000284000
  0
ACAD_PROXY_OBJECT
  5
61
102
{ACAD_REACTORS
330
47
102
}
330
47
100
AcDbProxyObject
 90
      499
 91
      503
 93
      241
310
90C332F3822203D2031272D3022000000000000360FC000000000000284000
  0
ACAD_PROXY_OBJECT
  5
62
102
{ACAD_REACTORS
330
47
102
}
330
47
100
AcDbProxyObject
 90
      499
 91
      503
 93
      241
310
90C312F3222203D2031272D3022000000000000380FC000000000000284000
  0
ACAD_PROXY_OBJECT
  5
63
102
{ACAD_REACTORS
330
47
102
}
330
47
100
AcDbProxyObject
 90
      499
 91
      503
 93
      241
310
90C332F3422203D2031272D30220000000000003A0FC000000000000284000
  0
ACAD_PROXY_OBJECT
  5
64
102
{ACAD_REACTORS
330
47
102
}
330
47
100
AcDbProxyObject
 90
      499
 91
      503
 93
      161
310
90A3122203D2031272D30224000000000000284000
  0
ACAD_PROXY_OBJECT
  5
65
102
{ACAD_REACTORS
330
47
102
}
330
47
100
AcDbProxyObject
 90
      499
 91
      503
 93
      257
310
90E312D312F3222203D2031272D30220000000000003E0FC000000000000284000
  0
ACAD_PROXY_OBJECT
  5
66
102
{ACAD_REACTORS
330
47
102
}
330
47
100
AcDbProxyObject
 90
      499
 91
      503
 93
      225
310
90A3322203D2031272D302200000000000002100000000000000284000
  0
ACAD_PROXY_OBJECT
  5
67
102
{ACAD_REACTORS
330
47
102
}
330
47
100
AcDbProxyObject
 90
      499
 91
      503
 93
      225
310
90A3622203D2031272D302200000000000006100000000000000284000
  0
ACAD_PROXY_OBJECT
  5
68
102
{ACAD_REACTORS
330
47
102
}
330
47
100
AcDbProxyObject
 90
      499
 91
      503
 93
      249
310
90D31272D3022203D2031272D30220000000000000A100000000000000284000
  0
ACAD_PROXY_OBJECT
  5
2F
102
{ACAD_REACTORS
330
2A
102
}
330
2A
100
AcDbProxyObject
 90
      499
 91
      501
 93
      436
310
42CC9915DA5C99599C985B595049028333333333333E33F0000000000000F90107901411070040501600405405064090741402480A0340
1001
ACAD
1000
AcDbSavedByObjectVersion
1070
     0
  0
ACAD_PROXY_OBJECT
  5
32
102
{ACAD_REACTORS
330
2A
102
}
330
2A
100
AcDbProxyObject
 90
      499
 91
      501
 93
      388
310
4150985CDA58D07406404333333333333E33F0000000000000F90107A41107004050150841D405064090741402480A0350
1001
ACAD
1000
AcDbSavedByObjectVersion
1070
     0
  0
ACAD_PROXY_OBJECT
  5
36
102
{ACAD_REACTORS
330
2A
102
}
330
2A
100
AcDbProxyObject
 90
      499
 91
      501
 93
      428
310
42109C9A59DA1D195B90C409028333333333333E33F0000000000000F9010790141107004050150841D405064090741402480A029950
1001
ACAD
1000
AcDbSavedByObjectVersion
1070
     0
  0
ACAD_PROXY_OBJECT
  5
3A
102
{ACAD_REACTORS
330
2A
102
}
330
2A
100
AcDbProxyObject
 90
      499
 91
      501
 93
      452
310
42D0DBDB1BDC90DA185B99D95104090240C333333333333E33F0000000000000F90108901411070040501508421405064090741402480A0350
1001
ACAD
1000
AcDbSavedByObjectVersion
1070
     0
  0
ACAD_PROXY_OBJECT
  5
34
102
{ACAD_REACTORS
330
2A
102
}
330
2A
100
AcDbProxyObject
 90
      499
 91
      501
 93
      500
310
4290DBDB98D95C1D1D585B10940D028333333333333E33F0000000000000F90107902409070040501000000000018199010841D405064090740C02480A0340
1001
ACAD
1000
AcDbSavedByObjectVersion
1070
     0
  0
ACAD_PROXY_OBJECT
  5
35
102
{ACAD_REACTORS
330
2A
102
}
330
2A
100
AcDbProxyObject
 90
      499
 91
      501
 93
      412
310
40D11A5B50B409028333333333333E33F0000000000000F9010790141107004050150841D405064090741402480A02677FFFFFD0
1001
ACAD
1000
AcDbSavedByObjectVersion
1070
     0
  0
ACAD_PROXY_OBJECT
  5
3D
102
{ACAD_REACTORS
330
2A
102
}
330
2A
100
AcDbProxyObject
 90
      499
 91
      501
 93
      452
310
43115919D950DBDB1BDC93D999916409028333333333333E33F0000000000000F9010790141107004050150841D405064090741402480A0350
1001
ACAD
1000
AcDbSavedByObjectVersion
1070
     0
  0
ACAD_PROXY_OBJECT
  5
39
102
{ACAD_REACTORS
330
2A
102
}
330
2A
100
AcDbProxyObject
 90
      499
 91
      501
 93
      444
310
42D19858D95C185D1D195C9B90F409028333333333333E33F0000000000000F9010790141107004050150841D405064090741402480A0350
1001
ACAD
1000
AcDbSavedByObjectVersion
1070
     0
  0
ACAD_PROXY_OBJECT
  5
2B
102
{ACAD_REACTORS
330
2A
102
}
330
2A
100
AcDbProxyObject
 90
      499
 91
      501
 93
      380
310
41119B185D240901404333333333333E33F0000000000000F9010740A907004050150841D405064090741402480A1B50
1001
ACAD
1000
AcDbSavedByObjectVersion
1070
     0
  0
ACAD_PROXY_OBJECT
  5
2C
102
{ACAD_REACTORS
330
2A
102
}
330
2A
100
AcDbProxyObject
 90
      499
 91
      501
 93
      468
310
43519B185D15DA5D1A115919D95CD0140901404333333333333E33F0000000000000F90107409019070040501600405405064090741402480A1B50
1001
ACAD
1000
AcDbSavedByObjectVersion
1070
     0
  0
ACAD_PROXY_OBJECT
  5
2D
102
{ACAD_REACTORS
330
2A
102
}
330
2A
100
AcDbProxyObject
 90
      499
 91
      501
 93
      404
310
41D1DBDD5C985D5910240902404333333333333E33F0000000000000F9010740A9070040501641D405064090741402480A1B50
1001
ACAD
1000
AcDbSavedByObjectVersion
1070
     0
  0
ACAD_PROXY_OBJECT
  5
2E
102
{ACAD_REACTORS
330
2A
102
}
330
2A
100
AcDbProxyObject
 90
      499
 91
      501
 93
      492
310
4411DBDD5C985D5915DA5D1A115919D95CD0340902404333333333333E33F0000000000000F90107409019070040501600405405064090741402480A1B50
1001
ACAD
1000
AcDbSavedByObjectVersion
1070
     0
  0
ACAD_PROXY_OBJECT
  5
31
102
{ACAD_REACTORS
330
2A
102
}
330
2A
100
AcDbProxyObject
 90
      499
 91
      501
 93
      476
310
41921A5919195B90640502408333333333333E33F0000000000000F901079024090700405020000000000001110200405405064090740C02480A0340
1001
ACAD
1000
AcDbSavedByObjectVersion
1070
     0
  0
ACAD_PROXY_OBJECT
  5
3B
102
{ACAD_REACTORS
330
2A
102
}
330
2A
100
AcDbProxyObject
 90
      499
 91
      501
 93
      428
310
42529A5D1D195C93D999914409028333333333333E33F0000000000000F9010790141107004050150A41D405064090741402480A0350
1001
ACAD
1000
AcDbSavedByObjectVersion
1070
     0
  0
ACAD_PROXY_OBJECT
  5
38
102
{ACAD_REACTORS
330
2A
102
}
330
2A
100
AcDbProxyObject
 90
      499
 91
      501
 93
      444
310
42D31A5B995C185D1D195C9B90E409028333333333333E33F0000000000000F9010790141107004050750841D405064090741402483A0350
1001
ACAD
1000
AcDbSavedByObjectVersion
1070
     0
  0
ACAD_PROXY_OBJECT
  5
3C
102
{ACAD_REACTORS
330
2A
102
}
330
2A
100
AcDbProxyObject
 90
      499
 91
      501
 93
      444
310
42D3DD995C9A185B99D3D999915409028333333333333E33F0000000000000F9010790141107004050150941D405064090741402480A0350
1001
ACAD
1000
AcDbSavedByObjectVersion
1070
     0
  0
ACAD_PROXY_OBJECT
  5
33
102
{ACAD_REACTORS
330
2A
102
}
330
2A
100
AcDbProxyObject
 90
      499
 91
      501
 93
      428
310
425499585B1A5CDD1A58D08409038333333333333E33F0000000000000F9010740A907004050150800405405064090740C02480A1B40
1001
ACAD
1000
AcDbSavedByObjectVersion
1070
     0
  0
ACAD_PROXY_OBJECT
  5
42
102
{ACAD_REACTORS
330
2A
102
}
330
2A
100
AcDbProxyObject
 90
      499
 91
      501
 93
      420
310
4194DA1859195911B40902404333333333333E33F0000000000000F9010740A41107004050150800405405064090840C02480A0B40
1001
ACAD
1000
AcDbSavedByObjectVersion
1070
     0
  0
ACAD_PROXY_OBJECT
  5
41
102
{ACAD_REACTORS
330
2A
102
}
330
2A
100
AcDbProxyObject
 90
      499
 91
      501
 93
      516
310
4454DA18591959081DDA5D1A08195919D95CD1A40902404333333333333E33F0000000000000F901074090142907004050250800405405064090740C02480A0B40
1001
ACAD
1000
AcDbSavedByObjectVersion
1070
     0
  0
ACAD_PROXY_OBJECT
  5
3E
102
{ACAD_REACTORS
330
2A
102
}
330
2A
100
AcDbProxyObject
 90
      499
 91
      501
 93
      532
310
4394DA1859195CC81BD98811DC985E5174090240C333333333333E33F0000000000000F901079024090741D01000000000000111010841D405064090740C02480A0340
1001
ACAD
1000
AcDbSavedByObjectVersion
1070
     0
  0
ACAD_PROXY_OBJECT
  5
3F
102
{ACAD_REACTORS
330
2A
102
}
330
2A
100
AcDbProxyObject
 90
      499
 91
      501
 93
      476
310
41D4DAD95D18DA1E51840502408333333333333E33F0000000000000F901079024090741D01000000000000111010B41D405064090741802480A0340
1001
ACAD
1000
AcDbSavedByObjectVersion
1070
     0
  0
ACAD_PROXY_OBJECT
  5
37
102
{ACAD_REACTORS
330
2A
102
}
330
2A
100
AcDbProxyObject
 90
      499
 91
      501
 93
      412
310
41D51A1A58DAD95B90D409028333333333333E33F0000000000000F9010790141107004050150C41D405064090741402480A0350
1001
ACAD
1000
AcDbSavedByObjectVersion
1070
     0
  0
ACAD_PROXY_OBJECT
  5
30
102
{ACAD_REACTORS
330
2A
102
}
330
2A
100
AcDbProxyObject
 90
      499
 91
      501
 93
      420
310
4255DA5C99599C985B595059028333333333333E33F0000000000000F90107901411070040501600405405064090740C02480A0340
1001
ACAD
1000
AcDbSavedByObjectVersion
1070
     0
  0
ACAD_PROXY_OBJECT
  5
40
102
{ACAD_REACTORS
330
2A
102
}
330
2A
100
AcDbProxyObject
 90
      499
 91
      501
 93
      404
310
41560B54985E51940902404000000000000E03F0000000000000F9010740501907004050150841D405064090740C02480A1B40
1001
ACAD
1000
AcDbSavedByObjectVersion
1070
     0
  0
XRECORD
  5
44A
102
{ACAD_REACTORS
330
440
102
}
330
440
100
AcDbXrecord
340
0
  0
XRECORD
  5
449
102
{ACAD_REACTORS
330
440
102
}
330
440
100
AcDbXrecord
 90
        0
  0
XRECORD
  5
460
102
{ACAD_REACTORS
330
440
102
}
330
440
100
AcDbXrecord
1000
DSTYLE
1002
{
1070
   340
340
11
1002
}
  0
XRECORD
  5
44B
102
{ACAD_REACTORS
330
440
102
}
330
440
100
AcDbXrecord
  1
{1fe71de8-0404-4f75-9ed9-bb382782bb83}
  0
XRECORD
  5
443
102
{ACAD_REACTORS
330
440
102
}
330
440
100
AcDbXrecord
  1

  0
XRECORD
  5
448
102
{ACAD_REACTORS
330
440
102
}
330
440
100
AcDbXrecord
 90
        4
  0
XRECORD
  5
445
102
{ACAD_REACTORS
330
440
102
}
330
440
100
AcDbXrecord
340
1A
  0
XRECORD
  5
447
102
{ACAD_REACTORS
330
440
102
}
330
440
100
AcDbXrecord
 90
    10781
  0
XRECORD
  5
446
102
{ACAD_REACTORS
330
440
102
}
330
440
100
AcDbXrecord
340
19
  0
XRECORD
  5
44D
102
{ACAD_REACTORS
330
440
102
}
330
440
100
AcDbXrecord
 40
0.0
  0
XRECORD
  5
450
102
{ACAD_REACTORS
330
440
102
}
330
440
100
AcDbXrecord
340
0
  0
XRECORD
  5
456
102
{ACAD_REACTORS
330
440
102
}
330
440
100
AcDbXrecord
 10
0.0
 20
0.0
 30
0.0
  0
XRECORD
  5
452
102
{ACAD_REACTORS
330
440
102
}
330
440
100
AcDbXrecord
 10
0.0
 20
0.0
 30
0.0
  0
XRECORD
  5
455
102
{ACAD_REACTORS
330
440
102
}
330
440
100
AcDbXrecord
 10
0.0
 20
0.0
 30
0.0
  0
XRECORD
  5
453
102
{ACAD_REACTORS
330
440
102
}
330
440
100
AcDbXrecord
 10
0.0
 20
0.0
 30
0.0
  0
XRECORD
  5
454
102
{ACAD_REACTORS
330
440
102
}
330
440
100
AcDbXrecord
 10
0.0
 20
0.0
 30
0.0
  0
XRECORD
  5
451
102
{ACAD_REACTORS
330
440
102
}
330
440
100
AcDbXrecord
 10
0.0
 20
0.0
 30
0.0
  0
XRECORD
  5
44E
102
{ACAD_REACTORS
330
440
102
}
330
440
100
AcDbXrecord
340
0
  0
XRECORD
  5
44F
102
{ACAD_REACTORS
330
440
102
}
330
440
100
AcDbXrecord
 70
     0
  0
XRECORD
  5
444
102
{ACAD_REACTORS
330
440
102
}
330
440
100
AcDbXrecord
  1

  0
XRECORD
  5
441
102
{ACAD_REACTORS
330
440
102
}
330
440
100
AcDbXrecord
 90
        1
  0
XRECORD
  5
442
102
{ACAD_REACTORS
330
440
102
}
330
440
100
AcDbXrecord
 90
       70
  0
XRECORD
  5
459
102
{ACAD_REACTORS
330
440
102
}
330
440
100
AcDbXrecord
340
0
  0
XRECORD
  5
45F
102
{ACAD_REACTORS
330
440
102
}
330
440
100
AcDbXrecord
 10
0.0
 20
0.0
 30
0.0
  0
XRECORD
  5
45B
102
{ACAD_REACTORS
330
440
102
}
330
440
100
AcDbXrecord
 10
0.0
 20
0.0
 30
0.0
  0
XRECORD
  5
45E
102
{ACAD_REACTORS
330
440
102
}
330
440
100
AcDbXrecord
 10
0.0
 20
0.0
 30
0.0
  0
XRECORD
  5
45C
102
{ACAD_REACTORS
330
440
102
}
330
440
100
AcDbXrecord
 10
0.0
 20
0.0
 30
0.0
  0
XRECORD
  5
45D
102
{ACAD_REACTORS
330
440
102
}
330
440
100
AcDbXrecord
 10
0.0
 20
0.0
 30
0.0
  0
XRECORD
  5
45A
102
{ACAD_REACTORS
330
440
102
}
330
440
100
AcDbXrecord
 10
0.0
 20
0.0
 30
0.0
  0
XRECORD
  5
457
102
{ACAD_REACTORS
330
440
102
}
330
440
100
AcDbXrecord
340
0
  0
XRECORD
  5
458
102
{ACAD_REACTORS
330
440
102
}
330
440
100
AcDbXrecord
 70
     0
  0
XRECORD
  5
44C
102
{ACAD_REACTORS
330
440
102
}
330
440
100
AcDbXrecord
  1
{FAEB1C32-E019-11D5-929B-00C0DF256EC4}
  0
DICTIONARYVAR
  5
46E
102
{ACAD_REACTORS
330
461
102
}
330
461
100
DictionaryVariables
280
     0
  1
1:1
  0
DICTIONARYVAR
  5
468
102
{ACAD_REACTORS
330
461
102
}
330
461
100
DictionaryVariables
280
     0
  1
3.500000
  0
DICTIONARYVAR
  5
469
102
{ACAD_REACTORS
330
461
102
}
330
461
100
DictionaryVariables
280
     0
  1
acadiso.lin
  0
DICTIONARYVAR
  5
463
102
{ACAD_REACTORS
330
461
102
}
330
461
100
DictionaryVariables
280
     0
  1
Standard
  0
DICTIONARYVAR
  5
462
102
{ACAD_REACTORS
330
461
102
}
330
461
100
DictionaryVariables
280
     0
  1
Standard
  0
DICTIONARYVAR
  5
46A
102
{ACAD_REACTORS
330
461
102
}
330
461
100
DictionaryVariables
280
     0
  1
2
  0
DICTIONARYVAR
  5
46B
102
{ACAD_REACTORS
330
461
102
}
330
461
100
DictionaryVariables
280
     0
  1
1
  0
DICTIONARYVAR
  5
46F
102
{ACAD_REACTORS
330
461
102
}
330
461
100
DictionaryVariables
280
     0
  1
1
  0
DICTIONARYVAR
  5
465
102
{ACAD_REACTORS
330
461
102
}
330
461
100
DictionaryVariables
280
     0
  1
80.000000
  0
DICTIONARYVAR
  5
464
102
{ACAD_REACTORS
330
461
102
}
330
461
100
DictionaryVariables
280
     0
  1
5.000000
  0
DICTIONARY
  5
472
330
45
100
AcDbDictionary
280
     1
  3
ACAD_XREC_ROUNDTRIP
360
473
  0
DICTIONARY
  5
470
330
44
100
AcDbDictionary
280
     1
  3
ACAD_XREC_ROUNDTRIP
360
471
  0
DICTIONARY
  5
474
330
46
100
AcDbDictionary
280
     1
  3
ACAD_XREC_ROUNDTRIP
360
475
  0
XRECORD
  5
473
102
{ACAD_REACTORS
330
472
102
}
330
472
100
AcDbXrecord
102
MATERIAL
148
0.0
149
0.0
149
0.0
 93
        0
 94
      127
282
     0
 72
     1
 77
     1
171
     1
175
     1
179
     1
273
     0
  0
XRECORD
  5
471
102
{ACAD_REACTORS
330
470
102
}
330
470
100
AcDbXrecord
102
MATERIAL
148
0.0
149
0.0
149
0.0
 93
        0
 94
      127
282
     0
 72
     1
 77
     1
171
     1
175
     1
179
     1
273
     0
  0
XRECORD
  5
475
102
{ACAD_REACTORS
330
474
102
}
330
474
100
AcDbXrecord
102
MATERIAL
148
0.0
149
0.0
149
0.0
 93
        0
 94
      127
282
     0
 72
     1
 77
     1
171
     1
175
     1
179
     1
273
     0
  0
ENDSEC
  0
EOF
