  0
SECTION
  2
HEADER
  9
$ACADVER
  1
AC1014
  9
$ACADMAINTVER
 70
     9
  9
$DWGCODEPAGE
  3
ANSI_932
  9
$INSBASE
 10
0.0
 20
0.0
 30
0.0
  9
$EXTMIN
 10
50.0
 20
100.0
 30
0.0
  9
$EXTMAX
 10
4096.891965631963
 20
2800.0
 30
0.0
  9
$LIMMIN
 10
0.0
 20
0.0
  9
$LIMMAX
 10
420.0
 20
297.0
  9
$ORTHOMODE
 70
     0
  9
$REGENMODE
 70
     1
  9
$FILLMODE
 70
     1
  9
$QTEXTMODE
 70
     0
  9
$MIRRTEXT
 70
     1
  9
$DRAGMODE
 70
     2
  9
$LTSCALE
 40
0.2
  9
$OSMODE
 70
    37
  9
$ATTMODE
 70
     1
  9
$TEXTSIZE
 40
2.5
  9
$TRACEWID
 40
1.0
  9
$TEXTSTYLE
  7
STANDARD
  9
$CLAYER
  8
LAY-20
  9
$CELTYPE
  6
BYLAYER
  9
$CECOLOR
 62
   256
  9
$CELTSCALE
 40
1.0
  9
$DELOBJ
 70
     1
  9
$DISPSILH
 70
     0
  9
$DIMSCALE
 40
1.0
  9
$DIMASZ
 40
2.5
  9
$DIMEXO
 40
0.625
  9
$DIMDLI
 40
3.75
  9
$DIMRND
 40
0.0
  9
$DIMDLE
 40
0.0
  9
$DIMEXE
 40
1.25
  9
$DIMTP
 40
0.0
  9
$DIMTM
 40
0.0
  9
$DIMTXT
 40
2.5
  9
$DIMCEN
 40
2.5
  9
$DIMTSZ
 40
0.0
  9
$DIMTOL
 70
     0
  9
$DIMLIM
 70
     0
  9
$DIMTIH
 70
     0
  9
$DIMTOH
 70
     0
  9
$DIMSE1
 70
     0
  9
$DIMSE2
 70
     0
  9
$DIMTAD
 70
     1
  9
$DIMZIN
 70
     8
  9
$DIMBLK
  1

  9
$DIMASO
 70
     1
  9
$DIMSHO
 70
     1
  9
$DIMPOST
  1

  9
$DIMAPOST
  1

  9
$DIMALT
 70
     0
  9
$DIMALTD
 70
     3
  9
$DIMALTF
 40
0.03937007874016
  9
$DIMLFAC
 40
1.0
  9
$DIMTOFL
 70
     1
  9
$DIMTVP
 40
0.0
  9
$DIMTIX
 70
     0
  9
$DIMSOXD
 70
     0
  9
$DIMSAH
 70
     0
  9
$DIMBLK1
  1

  9
$DIMBLK2
  1

  9
$DIMSTYLE
  2
ISO-25
  9
$DIMCLRD
 70
     0
  9
$DIMCLRE
 70
     0
  9
$DIMCLRT
 70
     0
  9
$DIMTFAC
 40
1.0
  9
$DIMGAP
 40
0.625
  9
$DIMJUST
 70
     0
  9
$DIMSD1
 70
     0
  9
$DIMSD2
 70
     0
  9
$DIMTOLJ
 70
     0
  9
$DIMTZIN
 70
     8
  9
$DIMALTZ
 70
     0
  9
$DIMALTTZ
 70
     0
  9
$DIMFIT
 70
     3
  9
$DIMUPT
 70
     0
  9
$DIMUNIT
 70
     2
  9
$DIMDEC
 70
     2
  9
$DIMTDEC
 70
     2
  9
$DIMALTU
 70
     2
  9
$DIMALTTD
 70
     3
  9
$DIMTXSTY
  7
STANDARD
  9
$DIMAUNIT
 70
     0
  9
$LUNITS
 70
     2
  9
$LUPREC
 70
     4
  9
$SKETCHINC
 40
1.0
  9
$FILLETRAD
 40
10.0
  9
$AUNITS
 70
     0
  9
$AUPREC
 70
     0
  9
$MENU
  1
.
  9
$ELEVATION
 40
0.0
  9
$PELEVATION
 40
0.0
  9
$THICKNESS
 40
0.0
  9
$LIMCHECK
 70
     0
  9
$CHAMFERA
 40
0.0
  9
$CHAMFERB
 40
0.0
  9
$CHAMFERC
 40
0.0
  9
$CHAMFERD
 40
0.0
  9
$SKPOLY
 70
     0
  9
$TDCREATE
 40
2460201.706801574
  9
$TDUPDATE
 40
2460201.706801736
  9
$TDINDWG
 40
0.0000000116
  9
$TDUSRTIMER
 40
0.0000000116
  9
$USRTIMER
 70
     1
  9
$ANGBASE
 50
0.0
  9
$ANGDIR
 70
     0
  9
$PDMODE
 70
     0
  9
$PDSIZE
 40
0.0
  9
$PLINEWID
 40
0.0
  9
$COORDS
 70
     1
  9
$SPLFRAME
 70
     0
  9
$SPLINETYPE
 70
     6
  9
$SPLINESEGS
 70
     8
  9
$ATTDIA
 70
     0
  9
$ATTREQ
 70
     1
  9
$HANDLING
 70
     1
  9
$HANDSEED
  5
778
  9
$SURFTAB1
 70
     6
  9
$SURFTAB2
 70
     6
  9
$SURFTYPE
 70
     6
  9
$SURFU
 70
     6
  9
$SURFV
 70
     6
  9
$UCSNAME
  2

  9
$UCSORG
 10
0.0
 20
0.0
 30
0.0
  9
$UCSXDIR
 10
1.0
 20
0.0
 30
0.0
  9
$UCSYDIR
 10
0.0
 20
1.0
 30
0.0
  9
$PUCSNAME
  2

  9
$PUCSORG
 10
0.0
 20
0.0
 30
0.0
  9
$PUCSXDIR
 10
1.0
 20
0.0
 30
0.0
  9
$PUCSYDIR
 10
0.0
 20
1.0
 30
0.0
  9
$USERI1
 70
     0
  9
$USERI2
 70
     0
  9
$USERI3
 70
     0
  9
$USERI4
 70
     0
  9
$USERI5
 70
     0
  9
$USERR1
 40
0.0
  9
$USERR2
 40
0.0
  9
$USERR3
 40
0.0
  9
$USERR4
 40
0.0
  9
$USERR5
 40
0.0
  9
$WORLDVIEW
 70
     1
  9
$SHADEDGE
 70
     3
  9
$SHADEDIF
 70
    70
  9
$TILEMODE
 70
     1
  9
$MAXACTVP
 70
    64
  9
$PINSBASE
 10
0.0
 20
0.0
 30
0.0
  9
$PLIMCHECK
 70
     0
  9
$PEXTMIN
 10
1.000000000000000E+20
 20
1.000000000000000E+20
 30
1.000000000000000E+20
  9
$PEXTMAX
 10
-1.000000000000000E+20
 20
-1.000000000000000E+20
 30
-1.000000000000000E+20
  9
$PLIMMIN
 10
0.0
 20
0.0
  9
$PLIMMAX
 10
420.0
 20
297.0
  9
$UNITMODE
 70
     0
  9
$VISRETAIN
 70
     1
  9
$PLINEGEN
 70
     0
  9
$PSLTSCALE
 70
     1
  9
$TREEDEPTH
 70
  3020
  9
$PICKSTYLE
 70
     1
  9
$CMLSTYLE
  2
STANDARD
  9
$CMLJUST
 70
     0
  9
$CMLSCALE
 40
20.0
  9
$PROXYGRAPHICS
 70
     1
  9
$MEASUREMENT
 70
     1
  0
ENDSEC
  0
SECTION
  2
CLASSES
  0
CLASS
  1
ACDBDICTIONARYWDFLT
  2
AcDbDictionaryWithDefault
  3
ObjectDBX Classes
 90
        0
280
     0
281
     0
  0
CLASS
  1
VISUALSTYLE
  2
AcDbVisualStyle
  3
ObjectDBX Classes
 90
     4095
280
     0
281
     0
  0
CLASS
  1
MATERIAL
  2
AcDbMaterial
  3
ObjectDBX Classes
 90
     1153
280
     0
281
     0
  0
CLASS
  1
SCALE
  2
AcDbScale
  3
ObjectDBX Classes
 90
     1153
280
     0
281
     0
  0
CLASS
  1
TABLESTYLE
  2
AcDbTableStyle
  3
ObjectDBX Classes
 90
     4095
280
     0
281
     0
  0
CLASS
  1
MLEADERSTYLE
  2
AcDbMLeaderStyle
  3
ACDB_MLEADERSTYLE_CLASS
 90
     4095
280
     0
281
     0
  0
CLASS
  1
SUN
  2
AcDbSun
  3
SCENEOE
 90
     1153
280
     0
281
     0
  0
CLASS
  1
DICTIONARYVAR
  2
AcDbDictionaryVar
  3
ObjectDBX Classes
 90
        0
280
     0
281
     0
  0
CLASS
  1
XRECORD
  2
AcDbXrecord
  3
ObjectDBX Classes
 90
        0
280
     0
281
     0
  0
CLASS
  1
LWPOLYLINE
  2
AcDbPolyline
  3
ObjectDBX Classes
 90
        0
280
     0
281
     1
  0
CLASS
  1
HATCH
  2
AcDbHatch
  3
ObjectDBX Classes
 90
        0
280
     0
281
     1
  0
CLASS
  1
ACDBPLACEHOLDER
  2
AcDbPlaceHolder
  3
ObjectDBX Classes
 90
        0
280
     0
281
     0
  0
CLASS
  1
LAYOUT
  2
AcDbLayout
  3
ObjectDBX Classes
 90
        0
280
     0
281
     0
  0
ENDSEC
  0
SECTION
  2
TABLES
  0
TABLE
  2
VPORT
  5
8
102
{ACAD_XDICTIONARY
360
76D
102
}
330
0
100
AcDbSymbolTable
 70
     1
  0
VPORT
  5
29
330
8
100
AcDbSymbolTableRecord
100
AcDbViewportTableRecord
  2
*ACTIVE
 70
     0
 10
0.0
 20
0.0
 11
1.0
 21
1.0
 12
1950.0
 22
1450.0
 13
0.0
 23
0.0
 14
10.0
 24
10.0
 15
10.0
 25
10.0
 16
0.0
 26
0.0
 36
1.0
 17
0.0
 27
0.0
 37
0.0
 40
2700.0
 41
1.407407407407408
 42
50.0
 43
0.0
 44
0.0
 50
0.0
 51
0.0
 71
     0
 72
  1000
 73
     1
 74
     3
 75
     0
 76
     0
 77
     0
 78
     0
  0
ENDTAB
  0
TABLE
  2
LTYPE
  5
5
330
0
100
AcDbSymbolTable
 70
     6
  0
LTYPE
  5
14
330
5
100
AcDbSymbolTableRecord
100
AcDbLinetypeTableRecord
  2
BYBLOCK
 70
     0
  3

 72
    65
 73
     0
 40
0.0
  0
LTYPE
  5
15
330
5
100
AcDbSymbolTableRecord
100
AcDbLinetypeTableRecord
  2
BYLAYER
 70
     0
  3

 72
    65
 73
     0
 40
0.0
  0
LTYPE
  5
16
330
5
100
AcDbSymbolTableRecord
100
AcDbLinetypeTableRecord
  2
CONTINUOUS
 70
     0
  3
Solid line
 72
    65
 73
     0
 40
0.0
  0
LTYPE
  5
6E
330
5
100
AcDbSymbolTableRecord
100
AcDbLinetypeTableRecord
  2
HIDDEN
 70
     0
  3
Hidden __ __ __ __ __ __ __ __ __ __ __ __ __ __
 72
    65
 73
     2
 40
9.524999999999999
 49
6.35
 74
     0
 49
-3.175
 74
     0
  0
LTYPE
  5
6F
330
5
100
AcDbSymbolTableRecord
100
AcDbLinetypeTableRecord
  2
CENTER
 70
     0
  3
Center ____ _ ____ _ ____ _ ____ _ ____ _ ____
 72
    65
 73
     4
 40
50.8
 49
31.75
 74
     0
 49
-6.35
 74
     0
 49
6.35
 74
     0
 49
-6.35
 74
     0
  0
LTYPE
  5
70
330
5
100
AcDbSymbolTableRecord
100
AcDbLinetypeTableRecord
  2
PHANTOM
 70
     0
  3
Phantom ______  __  __  ______  __  __  ______ 
 72
    65
 73
     6
 40
63.50000000000001
 49
31.75
 74
     0
 49
-6.35
 74
     0
 49
6.35
 74
     0
 49
-6.35
 74
     0
 49
6.35
 74
     0
 49
-6.35
 74
     0
  0
LTYPE
  5
71
330
5
100
AcDbSymbolTableRecord
100
AcDbLinetypeTableRecord
  2
ACAD_ISO06W100
 70
     0
  3
ISO long-dash triple-dot ____ ... ____ ... ____
 72
    65
 73
     8
 40
36.0
 49
24.0
 74
     0
 49
-3.0
 74
     0
 49
0.0
 74
     0
 49
-3.0
 74
     0
 49
0.0
 74
     0
 49
-3.0
 74
     0
 49
0.0
 74
     0
 49
-3.0
 74
     0
  0
LTYPE
  5
72
330
5
100
AcDbSymbolTableRecord
100
AcDbLinetypeTableRecord
  2
ACAD_ISO15W100
 70
     0
  3
ISO double-dash triple-dot __ __ . . . __ __ . .
 72
    65
 73
    10
 40
39.0
 49
12.0
 74
     0
 49
-3.0
 74
     0
 49
12.0
 74
     0
 49
-3.0
 74
     0
 49
0.0
 74
     0
 49
-3.0
 74
     0
 49
0.0
 74
     0
 49
-3.0
 74
     0
 49
0.0
 74
     0
 49
-3.0
 74
     0
  0
ENDTAB
  0
TABLE
  2
LAYER
  5
2
330
0
100
AcDbSymbolTable
 70
     5
  0
LAYER
  5
10
330
2
100
AcDbSymbolTableRecord
100
AcDbLayerTableRecord
  2
0
 70
     0
 62
     7
  6
CONTINUOUS
  0
LAYER
  5
75
330
2
100
AcDbSymbolTableRecord
100
AcDbLayerTableRecord
  2
LAY-10
 70
     0
 62
     7
  6
CONTINUOUS
  0
LAYER
  5
76
330
2
100
AcDbSymbolTableRecord
100
AcDbLayerTableRecord
  2
LAY-20
 70
     0
 62
     7
  6
CONTINUOUS
  0
LAYER
  5
77
330
2
100
AcDbSymbolTableRecord
100
AcDbLayerTableRecord
  2
LAY-255
 70
     0
 62
     7
  6
CONTINUOUS
  0
LAYER
  5
6CF
330
2
100
AcDbSymbolTableRecord
100
AcDbLayerTableRecord
  2
DEFPOINTS
 70
     0
 62
     7
  6
CONTINUOUS
  0
ENDTAB
  0
TABLE
  2
STYLE
  5
3
330
0
100
AcDbSymbolTable
 70
     4
  0
STYLE
  5
11
330
3
100
AcDbSymbolTableRecord
100
AcDbTextStyleTableRecord
  2
STANDARD
 70
     0
 40
0.0
 41
1.0
 50
0.0
 71
     0
 42
2.5
  3
simplex
  4
bigfont
  0
STYLE
  5
73
330
3
100
AcDbSymbolTableRecord
100
AcDbTextStyleTableRecord
  2
EXCADSTD
 70
     0
 40
0.0
 41
1.0
 50
0.0
 71
     0
 42
2.5
  3
simplex
  4
bigfont
  0
STYLE
  5
74
330
3
100
AcDbSymbolTableRecord
100
AcDbTextStyleTableRecord
  2
EXCADVERT
 70
     4
 40
0.0
 41
1.0
 50
0.0
 71
     0
 42
2.5
  3
simplex
  4
bigfont
  0
STYLE
  5
6CD
330
3
100
AcDbSymbolTableRecord
100
AcDbTextStyleTableRecord
  2
EXCADDIM1
 70
     0
 40
0.0
 41
0.84
 50
0.0
 71
     0
 42
2.5
  3
simplex
  4
bigfont
  0
ENDTAB
  0
TABLE
  2
VIEW
  5
6
330
0
100
AcDbSymbolTable
 70
     0
  0
ENDTAB
  0
TABLE
  2
UCS
  5
7
330
0
100
AcDbSymbolTable
 70
     0
  0
ENDTAB
  0
TABLE
  2
APPID
  5
9
330
0
100
AcDbSymbolTable
 70
     2
  0
APPID
  5
12
330
9
100
AcDbSymbolTableRecord
100
AcDbRegAppTableRecord
  2
ACAD
 70
     0
  0
APPID
  5
777
330
9
100
AcDbSymbolTableRecord
100
AcDbRegAppTableRecord
  2
ACAD_MLEADERVER
 70
     0
  0
ENDTAB
  0
TABLE
  2
DIMSTYLE
  5
A
330
0
100
AcDbSymbolTable
 70
     1
  0
DIMSTYLE
105
27
102
{ACAD_REACTORS
330
6CE
330
6DC
330
6E9
330
6F6
330
703
330
70E
102
}
330
A
100
AcDbSymbolTableRecord
100
AcDbDimStyleTableRecord
  2
ISO-25
 70
     0
  3

  4

  5

  6

  7

 40
1.0
 41
2.5
 42
0.625
 43
3.75
 44
1.25
 45
0.0
 46
0.0
 47
0.0
 48
0.0
140
2.5
141
2.5
142
0.0
143
0.03937007874016
144
1.0
145
0.0
146
1.0
147
0.625
 71
     0
 72
     0
 73
     0
 74
     0
 75
     0
 76
     0
 77
     1
 78
     8
170
     0
171
     3
172
     1
173
     0
174
     0
175
     0
176
     0
177
     0
178
     0
270
     2
271
     2
272
     2
273
     2
274
     3
340
11
275
     0
280
     0
281
     0
282
     0
283
     0
284
     8
285
     0
286
     0
287
     5
288
     0
  0
ENDTAB
  0
TABLE
  2
BLOCK_RECORD
  5
1
330
0
100
AcDbSymbolTable
 70
    20
  0
BLOCK_RECORD
  5
1F
330
1
100
AcDbSymbolTableRecord
100
AcDbBlockTableRecord
  2
*MODEL_SPACE
  0
BLOCK_RECORD
  5
1B
330
1
100
AcDbSymbolTableRecord
100
AcDbBlockTableRecord
  2
*PAPER_SPACE
  0
BLOCK_RECORD
  5
78
330
1
100
AcDbSymbolTableRecord
100
AcDbBlockTableRecord
  2
EX_NORM
  0
BLOCK_RECORD
  5
7B
330
1
100
AcDbSymbolTableRecord
100
AcDbBlockTableRecord
  2
EX_BNORM
  0
BLOCK_RECORD
  5
7E
330
1
100
AcDbSymbolTableRecord
100
AcDbBlockTableRecord
  2
EX_BCIR
  0
BLOCK_RECORD
  5
81
330
1
100
AcDbSymbolTableRecord
100
AcDbBlockTableRecord
  2
EX_RCIVIL
  0
BLOCK_RECORD
  5
84
330
1
100
AcDbSymbolTableRecord
100
AcDbBlockTableRecord
  2
EX_SLANT
  0
BLOCK_RECORD
  5
87
330
1
100
AcDbSymbolTableRecord
100
AcDbBlockTableRecord
  2
EX_NONE
  0
BLOCK_RECORD
  5
8A
330
1
100
AcDbSymbolTableRecord
100
AcDbBlockTableRecord
  2
EX_CIVIL
  0
BLOCK_RECORD
  5
8D
330
1
100
AcDbSymbolTableRecord
100
AcDbBlockTableRecord
  2
EX_WCIR
  0
BLOCK_RECORD
  5
90
330
1
100
AcDbSymbolTableRecord
100
AcDbBlockTableRecord
  2
EX_WCIR2
  0
BLOCK_RECORD
  5
93
330
1
100
AcDbSymbolTableRecord
100
AcDbBlockTableRecord
  2
EX_WNORM
  0
BLOCK_RECORD
  5
96
330
1
100
AcDbSymbolTableRecord
100
AcDbBlockTableRecord
  2
EX_NNORM
  0
BLOCK_RECORD
  5
99
330
1
100
AcDbSymbolTableRecord
100
AcDbBlockTableRecord
  2
EX_BBOX
  0
BLOCK_RECORD
  5
9C
330
1
100
AcDbSymbolTableRecord
100
AcDbBlockTableRecord
  2
EX_WBOX
  0
BLOCK_RECORD
  5
9F
330
1
100
AcDbSymbolTableRecord
100
AcDbBlockTableRecord
  2
EX_INTEGRAL
  0
BLOCK_RECORD
  5
6D0
330
1
100
AcDbSymbolTableRecord
100
AcDbBlockTableRecord
  2
*D15
  0
BLOCK_RECORD
  5
6DD
330
1
100
AcDbSymbolTableRecord
100
AcDbBlockTableRecord
  2
*D16
  0
BLOCK_RECORD
  5
6EA
330
1
100
AcDbSymbolTableRecord
100
AcDbBlockTableRecord
  2
*D17
  0
BLOCK_RECORD
  5
6F7
330
1
100
AcDbSymbolTableRecord
100
AcDbBlockTableRecord
  2
*D18
  0
BLOCK_RECORD
  5
704
330
1
100
AcDbSymbolTableRecord
100
AcDbBlockTableRecord
  2
*D19
  0
BLOCK_RECORD
  5
70F
330
1
100
AcDbSymbolTableRecord
100
AcDbBlockTableRecord
  2
*D20
  0
ENDTAB
  0
ENDSEC
  0
SECTION
  2
BLOCKS
  0
BLOCK
  5
20
330
1F
100
AcDbEntity
  8
0
100
AcDbBlockBegin
  2
*MODEL_SPACE
 70
     0
 10
0.0
 20
0.0
 30
0.0
  3
*MODEL_SPACE
  1

  0
ENDBLK
  5
21
330
1F
100
AcDbEntity
  8
0
100
AcDbBlockEnd
  0
BLOCK
  5
1C
330
1B
100
AcDbEntity
 67
     1
  8
0
100
AcDbBlockBegin
  2
*PAPER_SPACE
 70
     0
 10
0.0
 20
0.0
 30
0.0
  3
*PAPER_SPACE
  1

  0
ENDBLK
  5
1D
330
1B
100
AcDbEntity
 67
     1
  8
0
100
AcDbBlockEnd
  0
BLOCK
  5
79
330
78
100
AcDbEntity
  8
0
100
AcDbBlockBegin
  2
EX_NORM
 70
     0
 10
0.0
 20
0.0
 30
0.0
  3
EX_NORM
  1

  0
LINE
  5
A2
330
78
100
AcDbEntity
  8
0
  6
CONTINUOUS
 62
     0
100
AcDbLine
 10
0.0
 20
0.0
 30
0.0
 11
-1.0
 21
0.0
 31
0.0
  0
LINE
  5
A3
330
78
100
AcDbEntity
  8
0
  6
CONTINUOUS
 62
     0
100
AcDbLine
 10
0.0
 20
0.0
 30
0.0
 11
-1.0
 21
0.166666667
 31
0.0
  0
LINE
  5
A4
330
78
100
AcDbEntity
  8
0
  6
CONTINUOUS
 62
     0
100
AcDbLine
 10
0.0
 20
0.0
 30
0.0
 11
-1.0
 21
-0.166666667
 31
0.0
  0
ENDBLK
  5
7A
330
78
100
AcDbEntity
  8
0
100
AcDbBlockEnd
  0
BLOCK
  5
7C
330
7B
100
AcDbEntity
  8
0
100
AcDbBlockBegin
  2
EX_BNORM
 70
     0
 10
0.0
 20
0.0
 30
0.0
  3
EX_BNORM
  1

  0
LINE
  5
A5
330
7B
100
AcDbEntity
  8
0
  6
CONTINUOUS
 62
     0
100
AcDbLine
 10
0.0
 20
0.0
 30
0.0
 11
-1.0
 21
0.0
 31
0.0
  0
LINE
  5
A6
330
7B
100
AcDbEntity
  8
0
  6
CONTINUOUS
 62
     0
100
AcDbLine
 10
0.0
 20
0.0
 30
0.0
 11
-1.0
 21
0.166666667
 31
0.0
  0
LINE
  5
A7
330
7B
100
AcDbEntity
  8
0
  6
CONTINUOUS
 62
     0
100
AcDbLine
 10
0.0
 20
0.0
 30
0.0
 11
-1.0
 21
-0.166666667
 31
0.0
  0
LINE
  5
A8
330
7B
100
AcDbEntity
  8
0
  6
CONTINUOUS
 62
     0
100
AcDbLine
 10
0.0
 20
0.0
 30
0.0
 11
-1.0
 21
0.083333333
 31
0.0
  0
LINE
  5
A9
330
7B
100
AcDbEntity
  8
0
  6
CONTINUOUS
 62
     0
100
AcDbLine
 10
0.0
 20
0.0
 30
0.0
 11
-1.0
 21
-0.083333333
 31
0.0
  0
LINE
  5
AA
330
7B
100
AcDbEntity
  8
0
  6
CONTINUOUS
 62
     0
100
AcDbLine
 10
-1.0
 20
0.166666667
 30
0.0
 11
-1.0
 21
-0.166666667
 31
0.0
  0
ENDBLK
  5
7D
330
7B
100
AcDbEntity
  8
0
100
AcDbBlockEnd
  0
BLOCK
  5
7F
330
7E
100
AcDbEntity
  8
0
100
AcDbBlockBegin
  2
EX_BCIR
 70
     0
 10
0.0
 20
0.0
 30
0.0
  3
EX_BCIR
  1

  0
LINE
  5
AB
330
7E
100
AcDbEntity
  8
0
  6
CONTINUOUS
 62
     0
100
AcDbLine
 10
0.0
 20
0.0
 30
0.0
 11
-1.0
 21
0.0
 31
0.0
  0
CIRCLE
  5
AC
330
7E
100
AcDbEntity
  8
0
  6
CONTINUOUS
 62
     0
100
AcDbCircle
 10
0.0
 20
0.0
 30
0.0
 40
0.5
  0
CIRCLE
  5
AD
330
7E
100
AcDbEntity
  8
0
  6
CONTINUOUS
 62
     0
100
AcDbCircle
 10
0.0
 20
0.0
 30
0.0
 40
0.25
  0
ENDBLK
  5
80
330
7E
100
AcDbEntity
  8
0
100
AcDbBlockEnd
  0
BLOCK
  5
82
330
81
100
AcDbEntity
  8
0
100
AcDbBlockBegin
  2
EX_RCIVIL
 70
     0
 10
0.0
 20
0.0
 30
0.0
  3
EX_RCIVIL
  1

  0
LINE
  5
AE
330
81
100
AcDbEntity
  8
0
  6
CONTINUOUS
 62
     0
100
AcDbLine
 10
0.0
 20
0.0
 30
0.0
 11
-1.0
 21
0.0
 31
0.0
  0
LINE
  5
AF
330
81
100
AcDbEntity
  8
0
  6
CONTINUOUS
 62
     0
100
AcDbLine
 10
-1.0
 20
-0.25
 30
0.0
 11
0.0
 21
-0.25
 31
0.0
  0
LINE
  5
B0
330
81
100
AcDbEntity
  8
0
  6
CONTINUOUS
 62
     0
100
AcDbLine
 10
-1.0
 20
-0.125
 30
0.0
 11
0.0
 21
-0.125
 31
0.0
  0
ENDBLK
  5
83
330
81
100
AcDbEntity
  8
0
100
AcDbBlockEnd
  0
BLOCK
  5
85
330
84
100
AcDbEntity
  8
0
100
AcDbBlockBegin
  2
EX_SLANT
 70
     0
 10
0.0
 20
0.0
 30
0.0
  3
EX_SLANT
  1

  0
LINE
  5
B1
330
84
100
AcDbEntity
  8
0
  6
CONTINUOUS
 62
     0
100
AcDbLine
 10
0.0
 20
0.0
 30
0.0
 11
-1.0
 21
0.0
 31
0.0
  0
LINE
  5
B2
330
84
100
AcDbEntity
  8
0
  6
CONTINUOUS
 62
     0
100
AcDbLine
 10
0.707106781
 20
0.707106781
 30
0.0
 11
-0.707106781
 21
-0.707106781
 31
0.0
  0
ENDBLK
  5
86
330
84
100
AcDbEntity
  8
0
100
AcDbBlockEnd
  0
BLOCK
  5
88
330
87
100
AcDbEntity
  8
0
100
AcDbBlockBegin
  2
EX_NONE
 70
     0
 10
0.0
 20
0.0
 30
0.0
  3
EX_NONE
  1

  0
LINE
  5
B3
330
87
100
AcDbEntity
  8
0
  6
CONTINUOUS
 62
     0
100
AcDbLine
 10
0.0
 20
0.0
 30
0.0
 11
-1.0
 21
0.0
 31
0.0
  0
ENDBLK
  5
89
330
87
100
AcDbEntity
  8
0
100
AcDbBlockEnd
  0
BLOCK
  5
8B
330
8A
100
AcDbEntity
  8
0
100
AcDbBlockBegin
  2
EX_CIVIL
 70
     0
 10
0.0
 20
0.0
 30
0.0
  3
EX_CIVIL
  1

  0
LINE
  5
B4
330
8A
100
AcDbEntity
  8
0
  6
CONTINUOUS
 62
     0
100
AcDbLine
 10
0.0
 20
0.0
 30
0.0
 11
-1.0
 21
0.0
 31
0.0
  0
LINE
  5
B5
330
8A
100
AcDbEntity
  8
0
  6
CONTINUOUS
 62
     0
100
AcDbLine
 10
-1.0
 20
0.25
 30
0.0
 11
0.0
 21
0.25
 31
0.0
  0
LINE
  5
B6
330
8A
100
AcDbEntity
  8
0
  6
CONTINUOUS
 62
     0
100
AcDbLine
 10
-1.0
 20
0.125
 30
0.0
 11
0.0
 21
0.125
 31
0.0
  0
ENDBLK
  5
8C
330
8A
100
AcDbEntity
  8
0
100
AcDbBlockEnd
  0
BLOCK
  5
8E
330
8D
100
AcDbEntity
  8
0
100
AcDbBlockBegin
  2
EX_WCIR
 70
     0
 10
0.0
 20
0.0
 30
0.0
  3
EX_WCIR
  1

  0
LINE
  5
B7
330
8D
100
AcDbEntity
  8
0
  6
CONTINUOUS
 62
     0
100
AcDbLine
 10
0.0
 20
0.0
 30
0.0
 11
-1.0
 21
0.0
 31
0.0
  0
CIRCLE
  5
B8
330
8D
100
AcDbEntity
  8
0
  6
CONTINUOUS
 62
     0
100
AcDbCircle
 10
0.0
 20
0.0
 30
0.0
 40
0.5
  0
ENDBLK
  5
8F
330
8D
100
AcDbEntity
  8
0
100
AcDbBlockEnd
  0
BLOCK
  5
91
330
90
100
AcDbEntity
  8
0
100
AcDbBlockBegin
  2
EX_WCIR2
 70
     0
 10
0.0
 20
0.0
 30
0.0
  3
EX_WCIR2
  1

  0
LINE
  5
B9
330
90
100
AcDbEntity
  8
0
  6
CONTINUOUS
 62
     0
100
AcDbLine
 10
-0.5
 20
0.0
 30
0.0
 11
-1.0
 21
0.0
 31
0.0
  0
CIRCLE
  5
BA
330
90
100
AcDbEntity
  8
0
  6
CONTINUOUS
 62
     0
100
AcDbCircle
 10
0.0
 20
0.0
 30
0.0
 40
0.5
  0
ENDBLK
  5
92
330
90
100
AcDbEntity
  8
0
100
AcDbBlockEnd
  0
BLOCK
  5
94
330
93
100
AcDbEntity
  8
0
100
AcDbBlockBegin
  2
EX_WNORM
 70
     0
 10
0.0
 20
0.0
 30
0.0
  3
EX_WNORM
  1

  0
LINE
  5
BB
330
93
100
AcDbEntity
  8
0
  6
CONTINUOUS
 62
     0
100
AcDbLine
 10
-1.0
 20
0.0
 30
0.0
 11
-1.0
 21
0.0
 31
0.0
  0
LINE
  5
BC
330
93
100
AcDbEntity
  8
0
  6
CONTINUOUS
 62
     0
100
AcDbLine
 10
0.0
 20
0.0
 30
0.0
 11
-1.0
 21
0.166666667
 31
0.0
  0
LINE
  5
BD
330
93
100
AcDbEntity
  8
0
  6
CONTINUOUS
 62
     0
100
AcDbLine
 10
0.0
 20
0.0
 30
0.0
 11
-1.0
 21
-0.166666667
 31
0.0
  0
LINE
  5
BE
330
93
100
AcDbEntity
  8
0
  6
CONTINUOUS
 62
     0
100
AcDbLine
 10
-1.0
 20
0.166666667
 30
0.0
 11
-1.0
 21
-0.166666667
 31
0.0
  0
ENDBLK
  5
95
330
93
100
AcDbEntity
  8
0
100
AcDbBlockEnd
  0
BLOCK
  5
97
330
96
100
AcDbEntity
  8
0
100
AcDbBlockBegin
  2
EX_NNORM
 70
     0
 10
0.0
 20
0.0
 30
0.0
  3
EX_NNORM
  1

  0
LINE
  5
BF
330
96
100
AcDbEntity
  8
0
  6
CONTINUOUS
 62
     0
100
AcDbLine
 10
0.0
 20
0.0
 30
0.0
 11
-1.0
 21
0.0
 31
0.0
  0
LINE
  5
C0
330
96
100
AcDbEntity
  8
0
  6
CONTINUOUS
 62
     0
100
AcDbLine
 10
0.0
 20
0.0
 30
0.0
 11
-1.0
 21
0.166666667
 31
0.0
  0
LINE
  5
C1
330
96
100
AcDbEntity
  8
0
  6
CONTINUOUS
 62
     0
100
AcDbLine
 10
0.0
 20
0.0
 30
0.0
 11
-1.0
 21
-0.166666667
 31
0.0
  0
LINE
  5
C2
330
96
100
AcDbEntity
  8
0
  6
CONTINUOUS
 62
     0
100
AcDbLine
 10
-1.0
 20
0.166666667
 30
0.0
 11
-1.0
 21
-0.166666667
 31
0.0
  0
ENDBLK
  5
98
330
96
100
AcDbEntity
  8
0
100
AcDbBlockEnd
  0
BLOCK
  5
9A
330
99
100
AcDbEntity
  8
0
100
AcDbBlockBegin
  2
EX_BBOX
 70
     0
 10
0.0
 20
0.0
 30
0.0
  3
EX_BBOX
  1

  0
LINE
  5
C3
330
99
100
AcDbEntity
  8
0
  6
CONTINUOUS
 62
     0
100
AcDbLine
 10
0.0
 20
0.0
 30
0.0
 11
-1.0
 21
0.0
 31
0.0
  0
LINE
  5
C4
330
99
100
AcDbEntity
  8
0
  6
CONTINUOUS
 62
     0
100
AcDbLine
 10
-0.5
 20
0.5
 30
0.0
 11
0.5
 21
0.5
 31
0.0
  0
LINE
  5
C5
330
99
100
AcDbEntity
  8
0
  6
CONTINUOUS
 62
     0
100
AcDbLine
 10
0.5
 20
0.5
 30
0.0
 11
0.5
 21
-0.5
 31
0.0
  0
LINE
  5
C6
330
99
100
AcDbEntity
  8
0
  6
CONTINUOUS
 62
     0
100
AcDbLine
 10
0.5
 20
-0.5
 30
0.0
 11
-0.5
 21
-0.5
 31
0.0
  0
LINE
  5
C7
330
99
100
AcDbEntity
  8
0
  6
CONTINUOUS
 62
     0
100
AcDbLine
 10
-0.5
 20
-0.5
 30
0.0
 11
-0.5
 21
0.5
 31
0.0
  0
LINE
  5
C8
330
99
100
AcDbEntity
  8
0
  6
CONTINUOUS
 62
     0
100
AcDbLine
 10
-0.25
 20
0.25
 30
0.0
 11
0.25
 21
0.25
 31
0.0
  0
LINE
  5
C9
330
99
100
AcDbEntity
  8
0
  6
CONTINUOUS
 62
     0
100
AcDbLine
 10
0.25
 20
0.25
 30
0.0
 11
0.25
 21
-0.25
 31
0.0
  0
LINE
  5
CA
330
99
100
AcDbEntity
  8
0
  6
CONTINUOUS
 62
     0
100
AcDbLine
 10
0.25
 20
-0.25
 30
0.0
 11
-0.25
 21
-0.25
 31
0.0
  0
LINE
  5
CB
330
99
100
AcDbEntity
  8
0
  6
CONTINUOUS
 62
     0
100
AcDbLine
 10
-0.25
 20
-0.25
 30
0.0
 11
-0.25
 21
0.25
 31
0.0
  0
ENDBLK
  5
9B
330
99
100
AcDbEntity
  8
0
100
AcDbBlockEnd
  0
BLOCK
  5
9D
330
9C
100
AcDbEntity
  8
0
100
AcDbBlockBegin
  2
EX_WBOX
 70
     0
 10
0.0
 20
0.0
 30
0.0
  3
EX_WBOX
  1

  0
LINE
  5
CC
330
9C
100
AcDbEntity
  8
0
  6
CONTINUOUS
 62
     0
100
AcDbLine
 10
-0.5
 20
0.0
 30
0.0
 11
-1.0
 21
0.0
 31
0.0
  0
LINE
  5
CD
330
9C
100
AcDbEntity
  8
0
  6
CONTINUOUS
 62
     0
100
AcDbLine
 10
-0.5
 20
0.5
 30
0.0
 11
0.5
 21
0.5
 31
0.0
  0
LINE
  5
CE
330
9C
100
AcDbEntity
  8
0
  6
CONTINUOUS
 62
     0
100
AcDbLine
 10
0.5
 20
0.5
 30
0.0
 11
0.5
 21
-0.5
 31
0.0
  0
LINE
  5
CF
330
9C
100
AcDbEntity
  8
0
  6
CONTINUOUS
 62
     0
100
AcDbLine
 10
0.5
 20
-0.5
 30
0.0
 11
-0.5
 21
-0.5
 31
0.0
  0
LINE
  5
D0
330
9C
100
AcDbEntity
  8
0
  6
CONTINUOUS
 62
     0
100
AcDbLine
 10
-0.5
 20
-0.5
 30
0.0
 11
-0.5
 21
0.5
 31
0.0
  0
ENDBLK
  5
9E
330
9C
100
AcDbEntity
  8
0
100
AcDbBlockEnd
  0
BLOCK
  5
A0
330
9F
100
AcDbEntity
  8
0
100
AcDbBlockBegin
  2
EX_INTEGRAL
 70
     0
 10
0.0
 20
0.0
 30
0.0
  3
EX_INTEGRAL
  1

  0
LINE
  5
D1
330
9F
100
AcDbEntity
  8
0
  6
CONTINUOUS
 62
     0
100
AcDbLine
 10
0.0
 20
0.0
 30
0.0
 11
-1.0
 21
0.0
 31
0.0
  0
ARC
  5
D2
330
9F
100
AcDbEntity
  8
0
  6
CONTINUOUS
 62
     0
100
AcDbCircle
 10
0.542115
 20
0.164992
 30
0.0
 40
0.56667
100
AcDbArc
 50
73.07249033629006
 51
196.9275130221199
  0
ARC
  5
D3
330
9F
100
AcDbEntity
  8
0
  6
CONTINUOUS
 62
     0
100
AcDbCircle
 10
-0.542115
 20
-0.164992
 30
0.0
 40
0.56667
100
AcDbArc
 50
253.0724869220464
 51
16.9275130559125
  0
ENDBLK
  5
A1
330
9F
100
AcDbEntity
  8
0
100
AcDbBlockEnd
  0
BLOCK
  5
6D1
330
6D0
100
AcDbEntity
  8
0
100
AcDbBlockBegin
  2
*D15
 70
     1
 10
0.0
 20
0.0
 30
0.0
  3
*D15
  1

  0
LINE
  5
6D3
330
6D0
100
AcDbEntity
  8
LAY-20
  6
CONTINUOUS
 62
     4
100
AcDbLine
 10
2047.150025000003
 20
1370.0
 30
0.0
 11
2147.150025
 21
1370.0
 31
0.0
  0
LINE
  5
6D4
330
6D0
100
AcDbEntity
  8
LAY-20
  6
CONTINUOUS
 62
     4
100
AcDbLine
 10
2047.150025000003
 20
970.0000399999999
 30
0.0
 11
2147.150025
 21
970.0000399999999
 31
0.0
  0
LINE
  5
6D5
330
6D0
100
AcDbEntity
  8
LAY-20
  6
CONTINUOUS
 62
     4
100
AcDbLine
 10
2132.150025
 20
1345.0
 30
0.0
 11
2132.150025
 21
995.0000399999999
 31
0.0
  0
INSERT
  5
6D6
330
6D0
100
AcDbEntity
  8
LAY-20
 62
     4
100
AcDbBlockReference
  2
EX_BNORM
 10
2132.150025
 20
1370.0
 30
0.0
 41
25.0
 42
25.0
 43
25.0
 50
90.0
  0
INSERT
  5
6D7
330
6D0
100
AcDbEntity
  8
LAY-20
 62
     4
100
AcDbBlockReference
  2
EX_BNORM
 10
2132.150025
 20
970.0000399999999
 30
0.0
 41
25.0
 42
25.0
 43
25.0
 50
270.0
  0
MTEXT
  5
6D8
330
6D0
100
AcDbEntity
  8
LAY-20
 62
     7
100
AcDbMText
 10
2107.150025
 20
1170.00002
 30
0.0
 40
31.181104
 41
0.0
 71
     5
 72
     1
  1
400
  7
EXCADDIM1
 11
0.0
 21
1.0
 31
0.0
  0
POINT
  5
6D9
330
6D0
100
AcDbEntity
  8
DEFPOINTS
 62
     0
100
AcDbPoint
 10
2032.150025000003
 20
1370.0
 30
0.0
  0
POINT
  5
6DA
330
6D0
100
AcDbEntity
  8
DEFPOINTS
 62
     0
100
AcDbPoint
 10
2032.150025000003
 20
970.0000399999999
 30
0.0
  0
POINT
  5
6DB
330
6D0
100
AcDbEntity
  8
DEFPOINTS
 62
     0
100
AcDbPoint
 10
2132.150025
 20
970.0000399999999
 30
0.0
  0
ENDBLK
  5
6D2
330
6D0
100
AcDbEntity
  8
0
100
AcDbBlockEnd
  0
BLOCK
  5
6DE
330
6DD
100
AcDbEntity
  8
0
100
AcDbBlockBegin
  2
*D16
 70
     1
 10
0.0
 20
0.0
 30
0.0
  3
*D16
  1

  0
LINE
  5
6E0
330
6DD
100
AcDbEntity
  8
LAY-20
  6
CONTINUOUS
 62
     4
100
AcDbLine
 10
2138.150025
 20
1370.0
 30
0.0
 11
2132.150025
 21
1370.0
 31
0.0
  0
LINE
  5
6E1
330
6DD
100
AcDbEntity
  8
LAY-20
  6
CONTINUOUS
 62
     4
100
AcDbLine
 10
2138.150025
 20
2196.0
 30
0.0
 11
2132.150025
 21
2196.0
 31
0.0
  0
LINE
  5
6E2
330
6DD
100
AcDbEntity
  8
LAY-20
  6
CONTINUOUS
 62
     4
100
AcDbLine
 10
2132.150025
 20
1395.0
 30
0.0
 11
2132.150025
 21
2171.0
 31
0.0
  0
INSERT
  5
6E3
330
6DD
100
AcDbEntity
  8
LAY-20
 62
     4
100
AcDbBlockReference
  2
EX_BNORM
 10
2132.150025
 20
1370.0
 30
0.0
 41
25.0
 42
25.0
 43
25.0
 50
270.0
  0
INSERT
  5
6E4
330
6DD
100
AcDbEntity
  8
LAY-20
 62
     4
100
AcDbBlockReference
  2
EX_BNORM
 10
2132.150025
 20
2196.0
 30
0.0
 41
25.0
 42
25.0
 43
25.0
 50
90.0
  0
MTEXT
  5
6E5
330
6DD
100
AcDbEntity
  8
LAY-20
 62
     7
100
AcDbMText
 10
2107.150025
 20
1783.0
 30
0.0
 40
31.181104
 41
0.0
 71
     5
 72
     1
  1
826
  7
EXCADDIM1
 11
0.0
 21
1.0
 31
0.0
  0
POINT
  5
6E6
330
6DD
100
AcDbEntity
  8
DEFPOINTS
 62
     0
100
AcDbPoint
 10
2138.150025
 20
1370.0
 30
0.0
  0
POINT
  5
6E7
330
6DD
100
AcDbEntity
  8
DEFPOINTS
 62
     0
100
AcDbPoint
 10
2138.150025
 20
2196.0
 30
0.0
  0
POINT
  5
6E8
330
6DD
100
AcDbEntity
  8
DEFPOINTS
 62
     0
100
AcDbPoint
 10
2132.150025
 20
2196.0
 30
0.0
  0
ENDBLK
  5
6DF
330
6DD
100
AcDbEntity
  8
0
100
AcDbBlockEnd
  0
BLOCK
  5
6EB
330
6EA
100
AcDbEntity
  8
0
100
AcDbBlockBegin
  2
*D17
 70
     1
 10
0.0
 20
0.0
 30
0.0
  3
*D17
  1

  0
LINE
  5
6ED
330
6EA
100
AcDbEntity
  8
LAY-20
  6
CONTINUOUS
 62
     4
100
AcDbLine
 10
1897.150025
 20
2196.0
 30
0.0
 11
2217.150025
 21
2196.0
 31
0.0
  0
LINE
  5
6EE
330
6EA
100
AcDbEntity
  8
LAY-20
  6
CONTINUOUS
 62
     4
100
AcDbLine
 10
2153.150025
 20
970.0000399999999
 30
0.0
 11
2217.150025
 21
970.0000399999999
 31
0.0
  0
LINE
  5
6EF
330
6EA
100
AcDbEntity
  8
LAY-20
  6
CONTINUOUS
 62
     4
100
AcDbLine
 10
2202.150025
 20
2171.0
 30
0.0
 11
2202.150025
 21
995.0000399999999
 31
0.0
  0
INSERT
  5
6F0
330
6EA
100
AcDbEntity
  8
LAY-20
 62
     4
100
AcDbBlockReference
  2
EX_BNORM
 10
2202.150025
 20
2196.0
 30
0.0
 41
25.0
 42
25.0
 43
25.0
 50
90.0
  0
INSERT
  5
6F1
330
6EA
100
AcDbEntity
  8
LAY-20
 62
     4
100
AcDbBlockReference
  2
EX_BNORM
 10
2202.150025
 20
970.0000399999999
 30
0.0
 41
25.0
 42
25.0
 43
25.0
 50
270.0
  0
MTEXT
  5
6F2
330
6EA
100
AcDbEntity
  8
LAY-20
 62
     7
100
AcDbMText
 10
2177.150025
 20
1583.00002
 30
0.0
 40
31.181104
 41
0.0
 71
     5
 72
     1
  1
1226
  7
EXCADDIM1
 11
0.0
 21
1.0
 31
0.0
  0
POINT
  5
6F3
330
6EA
100
AcDbEntity
  8
DEFPOINTS
 62
     0
100
AcDbPoint
 10
1882.150025
 20
2196.0
 30
0.0
  0
POINT
  5
6F4
330
6EA
100
AcDbEntity
  8
DEFPOINTS
 62
     0
100
AcDbPoint
 10
2138.150025
 20
970.0000399999999
 30
0.0
  0
POINT
  5
6F5
330
6EA
100
AcDbEntity
  8
DEFPOINTS
 62
     0
100
AcDbPoint
 10
2202.150025
 20
970.0000399999999
 30
0.0
  0
ENDBLK
  5
6EC
330
6EA
100
AcDbEntity
  8
0
100
AcDbBlockEnd
  0
BLOCK
  5
6F8
330
6F7
100
AcDbEntity
  8
0
100
AcDbBlockBegin
  2
*D18
 70
     1
 10
0.0
 20
0.0
 30
0.0
  3
*D18
  1

  0
LINE
  5
6FA
330
6F7
100
AcDbEntity
  8
LAY-20
  6
CONTINUOUS
 62
     4
100
AcDbLine
 10
2193.150025
 20
970.0000399999999
 30
0.0
 11
2217.150025
 21
970.0000399999999
 31
0.0
  0
LINE
  5
6FB
330
6F7
100
AcDbEntity
  8
LAY-20
  6
CONTINUOUS
 62
     4
100
AcDbLine
 10
2097.150025
 20
870.0000399999999
 30
0.0
 11
2217.150025
 21
870.0000399999999
 31
0.0
  0
LINE
  5
6FC
330
6F7
100
AcDbEntity
  8
LAY-20
  6
CONTINUOUS
 62
     4
100
AcDbLine
 10
2202.150025
 20
945.0000399999999
 30
0.0
 11
2202.150025
 21
895.0000399999999
 31
0.0
  0
INSERT
  5
6FD
330
6F7
100
AcDbEntity
  8
LAY-20
 62
     4
100
AcDbBlockReference
  2
EX_BNORM
 10
2202.150025
 20
970.0000399999999
 30
0.0
 41
25.0
 42
25.0
 43
25.0
 50
90.0
  0
INSERT
  5
6FE
330
6F7
100
AcDbEntity
  8
LAY-20
 62
     4
100
AcDbBlockReference
  2
EX_BNORM
 10
2202.150025
 20
870.0000399999999
 30
0.0
 41
25.0
 42
25.0
 43
25.0
 50
270.0
  0
MTEXT
  5
6FF
330
6F7
100
AcDbEntity
  8
LAY-20
 62
     7
100
AcDbMText
 10
2177.150025
 20
920.0000399999996
 30
0.0
 40
31.181104
 41
0.0
 71
     5
 72
     1
  1
100
  7
EXCADDIM1
 11
0.0
 21
1.0
 31
0.0
  0
POINT
  5
700
330
6F7
100
AcDbEntity
  8
DEFPOINTS
 62
     0
100
AcDbPoint
 10
2178.150025
 20
970.0000399999999
 30
0.0
  0
POINT
  5
701
330
6F7
100
AcDbEntity
  8
DEFPOINTS
 62
     0
100
AcDbPoint
 10
2082.150025
 20
870.0000399999999
 30
0.0
  0
POINT
  5
702
330
6F7
100
AcDbEntity
  8
DEFPOINTS
 62
     0
100
AcDbPoint
 10
2202.150025
 20
870.0000399999999
 30
0.0
  0
ENDBLK
  5
6F9
330
6F7
100
AcDbEntity
  8
0
100
AcDbBlockEnd
  0
BLOCK
  5
705
330
704
100
AcDbEntity
  8
0
100
AcDbBlockBegin
  2
*D19
 70
     1
 10
0.0
 20
0.0
 30
0.0
  3
*D19
  1

  0
LINE
  5
707
330
704
100
AcDbEntity
  8
LAY-20
  6
CONTINUOUS
 62
     4
100
AcDbLine
 10
1842.14972
 20
1663.720845
 30
0.0
 11
1922.150025
 21
1663.720845
 31
0.0
  0
INSERT
  5
708
330
704
100
AcDbEntity
  8
LAY-20
 62
     4
100
AcDbBlockReference
  2
EX_BNORM
 10
1817.14972
 20
1663.720845
 30
0.0
 41
25.0
 42
25.0
 43
25.0
 50
180.0
  0
INSERT
  5
709
330
704
100
AcDbEntity
  8
LAY-20
 62
     4
100
AcDbBlockReference
  2
EX_BNORM
 10
1947.150025
 20
1663.720845
 30
0.0
 41
25.0
 42
25.0
 43
25.0
  0
MTEXT
  5
70A
330
704
100
AcDbEntity
  8
LAY-20
 62
     7
100
AcDbMText
 10
1882.1498725
 20
1688.720845
 30
0.0
 40
31.181104
 41
0.0
 71
     5
 72
     1
  1
%%c130
  7
EXCADDIM1
  0
POINT
  5
70B
330
704
100
AcDbEntity
  8
DEFPOINTS
 62
     0
100
AcDbPoint
 10
1817.14972
 20
1663.720845
 30
0.0
  0
POINT
  5
70C
330
704
100
AcDbEntity
  8
DEFPOINTS
 62
     0
100
AcDbPoint
 10
1947.150025
 20
1663.720845
 30
0.0
  0
POINT
  5
70D
330
704
100
AcDbEntity
  8
DEFPOINTS
 62
     0
100
AcDbPoint
 10
1947.150025
 20
1663.720845
 30
0.0
  0
ENDBLK
  5
706
330
704
100
AcDbEntity
  8
0
100
AcDbBlockEnd
  0
BLOCK
  5
710
330
70F
100
AcDbEntity
  8
0
100
AcDbBlockBegin
  2
*D20
 70
     1
 10
0.0
 20
0.0
 30
0.0
  3
*D20
  1

  0
LINE
  5
712
330
70F
100
AcDbEntity
  8
LAY-20
  6
CONTINUOUS
 62
     4
100
AcDbLine
 10
1844.0
 20
1150.720845
 30
0.0
 11
1844.0
 21
1124.0
 31
0.0
  0
LINE
  5
713
330
70F
100
AcDbEntity
  8
LAY-20
  6
CONTINUOUS
 62
     4
100
AcDbLine
 10
1920.30005
 20
1130.0
 30
0.0
 11
1920.30005
 21
1124.0
 31
0.0
  0
LINE
  5
714
330
70F
100
AcDbEntity
  8
LAY-20
  6
CONTINUOUS
 62
     4
100
AcDbLine
 10
1869.0
 20
1139.0
 30
0.0
 11
1895.30005
 21
1139.0
 31
0.0
  0
INSERT
  5
715
330
70F
100
AcDbEntity
  8
LAY-20
 62
     4
100
AcDbBlockReference
  2
EX_BNORM
 10
1844.0
 20
1139.0
 30
0.0
 41
25.0
 42
25.0
 43
25.0
 50
180.0
  0
INSERT
  5
716
330
70F
100
AcDbEntity
  8
LAY-20
 62
     4
100
AcDbBlockReference
  2
EX_BNORM
 10
1920.30005
 20
1139.0
 30
0.0
 41
25.0
 42
25.0
 43
25.0
  0
MTEXT
  5
717
330
70F
100
AcDbEntity
  8
LAY-20
 62
     7
100
AcDbMText
 10
1658.0
 20
1164.0
 30
0.0
 40
31.181104
 41
0.0
 71
     5
 72
     1
  1
%%c76.3
  7
EXCADDIM1
  0
POINT
  5
718
330
70F
100
AcDbEntity
  8
DEFPOINTS
 62
     0
100
AcDbPoint
 10
1844.0
 20
1165.720845
 30
0.0
  0
POINT
  5
719
330
70F
100
AcDbEntity
  8
DEFPOINTS
 62
     0
100
AcDbPoint
 10
1920.30005
 20
1145.0
 30
0.0
  0
POINT
  5
71A
330
70F
100
AcDbEntity
  8
DEFPOINTS
 62
     0
100
AcDbPoint
 10
1920.30005
 20
1139.0
 30
0.0
  0
ENDBLK
  5
711
330
70F
100
AcDbEntity
  8
0
100
AcDbBlockEnd
  0
ENDSEC
  0
SECTION
  2
ENTITIES
  0
LINE
  5
D4
330
1F
100
AcDbEntity
  8
LAY-10
  6
CONTINUOUS
 62
     7
100
AcDbLine
 10
1817.14972
 20
1440.0
 30
0.0
 11
1817.14972
 21
1370.0
 31
0.0
  0
LINE
  5
D5
330
1F
100
AcDbEntity
  8
LAY-10
  6
CONTINUOUS
 62
     4
100
AcDbLine
 10
1817.14972
 20
1370.0
 30
0.0
 11
1623.529235
 21
1370.0
 31
0.0
  0
LINE
  5
D6
330
1F
100
AcDbEntity
  8
LAY-10
  6
CONTINUOUS
 62
     4
100
AcDbLine
 10
1920.30005
 20
1245.776008722019
 30
0.0
 11
2032.150025000003
 21
1357.625983722024
 31
0.0
  0
LINE
  5
D7
330
1F
100
AcDbEntity
  8
LAY-10
  6
CONTINUOUS
 62
     4
100
AcDbLine
 10
1920.30005
 20
1259.918144345751
 30
0.0
 11
2030.381905654249
 21
1370.0
 31
0.0
  0
LINE
  5
D8
330
1F
100
AcDbEntity
  8
LAY-10
  6
CONTINUOUS
 62
     4
100
AcDbLine
 10
1920.30005
 20
1274.060279969483
 30
0.0
 11
2016.239770030517
 21
1370.0
 31
0.0
  0
LINE
  5
D9
330
1F
100
AcDbEntity
  8
LAY-10
  6
CONTINUOUS
 62
     4
100
AcDbLine
 10
1920.30005
 20
1090.212516860979
 30
0.0
 11
2032.150025000003
 21
1202.062491860983
 31
0.0
  0
LINE
  5
DA
330
1F
100
AcDbEntity
  8
LAY-10
  6
CONTINUOUS
 62
     4
100
AcDbLine
 10
1920.30005
 20
1076.070381237249
 30
0.0
 11
2032.150025000003
 21
1187.920356237252
 31
0.0
  0
LINE
  5
DB
330
1F
100
AcDbEntity
  8
LAY-10
  6
CONTINUOUS
 62
     4
100
AcDbLine
 10
1920.30005
 20
1104.35465248471
 30
0.0
 11
2032.150025000003
 21
1216.204627484715
 31
0.0
  0
LINE
  5
DC
330
1F
100
AcDbEntity
  8
LAY-10
  6
CONTINUOUS
 62
     4
100
AcDbLine
 10
1732.150025000003
 20
1349.955127484755
 30
0.0
 11
1752.194897515232
 21
1369.999999999982
 31
0.0
  0
LINE
  5
DD
330
1F
100
AcDbEntity
  8
LAY-10
  6
CONTINUOUS
 62
     4
100
AcDbLine
 10
1732.150025000003
 20
1335.812991861023
 30
0.0
 11
1766.337033138962
 21
1369.99999999998
 31
0.0
  0
LINE
  5
DE
330
1F
100
AcDbEntity
  8
LAY-10
  6
CONTINUOUS
 62
     4
100
AcDbLine
 10
1732.150025000003
 20
1364.097263108484
 30
0.0
 11
1738.0527618915
 21
1369.999999999982
 31
0.0
  0
LINE
  5
DF
330
1F
100
AcDbEntity
  8
LAY-10
  6
CONTINUOUS
 62
     4
100
AcDbLine
 10
1732.150025000004
 20
1194.391635623713
 30
0.0
 11
1844.0
 21
1306.241610623709
 31
0.0
  0
LINE
  5
E0
330
1F
100
AcDbEntity
  8
LAY-10
  6
CONTINUOUS
 62
     4
100
AcDbLine
 10
1732.150025000004
 20
1180.249499999982
 30
0.0
 11
1844.0
 21
1292.099474999979
 31
0.0
  0
LINE
  5
E1
330
1F
100
AcDbEntity
  8
LAY-10
  6
CONTINUOUS
 62
     4
100
AcDbLine
 10
1732.150025000004
 20
1166.107364376252
 30
0.0
 11
1844.0
 21
1277.957339376248
 31
0.0
  0
LINE
  5
E2
330
1F
100
AcDbEntity
  8
LAY-10
  6
CONTINUOUS
 62
     4
100
AcDbLine
 10
2032.150025
 20
1370.0
 30
0.0
 11
1947.150025
 21
1370.0
 31
0.0
  0
LINE
  5
E3
330
1F
100
AcDbEntity
  8
LAY-10
  6
CONTINUOUS
 62
     7
100
AcDbLine
 10
1817.14972
 20
1370.0
 30
0.0
 11
1947.150025
 21
1370.0
 31
0.0
  0
POLYLINE
  5
E4
330
1F
100
AcDbEntity
  8
LAY-10
  6
CONTINUOUS
 62
     7
100
AcDb2dPolyline
 66
     1
 10
0.0
 20
0.0
 30
0.0
 70
   128
  0
VERTEX
  5
E5
330
E4
100
AcDbEntity
  8
LAY-10
  6
CONTINUOUS
 62
     7
100
AcDbVertex
100
AcDb2dVertex
 10
1682.725607407716
 20
1392.6584936491
 30
0.0
  0
VERTEX
  5
E6
330
E4
100
AcDbEntity
  8
LAY-10
  6
CONTINUOUS
 62
     7
100
AcDbVertex
100
AcDb2dVertex
 10
1656.744845294183
 20
1392.6584936491
 30
0.0
  0
VERTEX
  5
E7
330
E4
100
AcDbEntity
  8
LAY-10
  6
CONTINUOUS
 62
     7
100
AcDbVertex
100
AcDb2dVertex
 10
1669.735226350949
 20
1370.1584936491
 30
0.0
  0
VERTEX
  5
E8
330
E4
100
AcDbEntity
  8
LAY-10
  6
CONTINUOUS
 62
     7
100
AcDbVertex
100
AcDb2dVertex
 10
1682.725607407716
 20
1392.6584936491
 30
0.0
  0
SEQEND
  5
E9
330
E4
100
AcDbEntity
  8
LAY-10
  6
CONTINUOUS
 62
     7
  0
LINE
  5
EA
330
1F
100
AcDbEntity
  8
LAY-10
  6
CONTINUOUS
 62
     7
100
AcDbLine
 10
1947.150025
 20
1440.0
 30
0.0
 11
1947.150025
 21
1370.0
 31
0.0
  0
LINE
  5
EB
330
1F
100
AcDbEntity
  8
LAY-10
  6
CONTINUOUS
 62
     7
100
AcDbLine
 10
1942.150025
 20
1450.0
 30
0.0
 11
1942.150025
 21
1440.0
 31
0.0
  0
LINE
  5
EC
330
1F
100
AcDbEntity
  8
LAY-10
  6
CONTINUOUS
 62
     7
100
AcDbLine
 10
1817.14972
 20
1440.0
 30
0.0
 11
1947.150025
 21
1440.0
 31
0.0
  0
LINE
  5
ED
330
1F
100
AcDbEntity
  8
LAY-10
  6
CONTINUOUS
 62
     7
100
AcDbLine
 10
1817.14972
 20
1450.0
 30
0.0
 11
1947.150025
 21
1450.0
 31
0.0
  0
LINE
  5
EE
330
1F
100
AcDbEntity
  8
LAY-10
  6
CONTINUOUS
 62
     7
100
AcDbLine
 10
1920.30005
 20
1370.0
 30
0.0
 11
1920.30005
 21
970.0000399999997
 31
0.0
  0
LINE
  5
EF
330
1F
100
AcDbEntity
  8
LAY-10
  6
CONTINUOUS
 62
     7
100
AcDbLine
 10
1844.0
 20
1370.0
 30
0.0
 11
1844.0
 21
970.0000399999997
 31
0.0
  0
LINE
  5
F0
330
1F
100
AcDbEntity
  8
LAY-10
  6
CONTINUOUS
 62
     4
100
AcDbLine
 10
2032.150025000003
 20
1370.0
 30
0.0
 11
2032.150025000003
 21
970.00004
 31
0.0
  0
LINE
  5
F1
330
1F
100
AcDbEntity
  8
LAY-10
  6
CONTINUOUS
 62
     4
100
AcDbLine
 10
1732.150025000003
 20
1369.81299186099
 30
0.0
 11
1732.150025000003
 21
970.00004
 31
0.0
  0
LINE
  5
F2
330
1F
100
AcDbEntity
  8
LAY-10
  6
CONTINUOUS
 62
     4
100
AcDbLine
 10
2048.115172801356
 20
969.9999985098892
 30
0.0
 11
2048.115208040048
 21
969.9999374747321
 31
0.0
  0
LINE
  5
F3
330
1F
100
AcDbEntity
  8
LAY-10
  6
CONTINUOUS
 62
     4
100
AcDbLine
 10
1682.14972
 20
870.0000399999979
 30
0.0
 11
2082.150025
 21
870.0000399999979
 31
0.0
  0
LINE
  5
F4
330
1F
100
AcDbEntity
  8
LAY-10
  6
CONTINUOUS
 62
     4
100
AcDbLine
 10
2082.150025
 20
970.0000399999999
 30
0.0
 11
2082.150025
 21
870.0000399999979
 31
0.0
  0
LINE
  5
F5
330
1F
100
AcDbEntity
  8
LAY-10
  6
CONTINUOUS
 62
     4
100
AcDbLine
 10
1682.14972
 20
970.0000399999999
 30
0.0
 11
1682.14972
 21
870.0000399999979
 31
0.0
  0
POLYLINE
  5
F6
330
1F
100
AcDbEntity
  8
LAY-10
  6
CONTINUOUS
 62
     4
100
AcDb2dPolyline
 66
     1
 10
0.0
 20
0.0
 30
0.0
 70
   128
  0
VERTEX
  5
F7
330
F6
100
AcDbEntity
  8
LAY-10
  6
CONTINUOUS
 62
     4
100
AcDbVertex
100
AcDb2dVertex
 10
1701.77008
 20
872.1214233333319
 30
0.0
  0
VERTEX
  5
F8
330
F6
100
AcDbEntity
  8
LAY-10
  6
CONTINUOUS
 62
     4
100
AcDbVertex
100
AcDb2dVertex
 10
1699.882875
 20
874.5213149999979
 30
0.0
  0
VERTEX
  5
F9
330
F6
100
AcDbEntity
  8
LAY-10
  6
CONTINUOUS
 62
     4
100
AcDbVertex
100
AcDb2dVertex
 10
1698.057315
 20
877.1724649999977
 30
0.0
  0
VERTEX
  5
FA
330
F6
100
AcDbEntity
  8
LAY-10
  6
CONTINUOUS
 62
     4
100
AcDbVertex
100
AcDb2dVertex
 10
1696.265930000001
 20
880.1208733333317
 30
0.0
  0
VERTEX
  5
FB
330
F6
100
AcDbEntity
  8
LAY-10
  6
CONTINUOUS
 62
     4
100
AcDbVertex
100
AcDb2dVertex
 10
1694.48035
 20
883.4259316666653
 30
0.0
  0
VERTEX
  5
FC
330
F6
100
AcDbEntity
  8
LAY-10
  6
CONTINUOUS
 62
     4
100
AcDbVertex
100
AcDb2dVertex
 10
1692.663635
 20
887.1765399999985
 30
0.0
  0
VERTEX
  5
FD
330
F6
100
AcDbEntity
  8
LAY-10
  6
CONTINUOUS
 62
     4
100
AcDbVertex
100
AcDb2dVertex
 10
1690.76239
 20
891.5128983333318
 30
0.0
  0
VERTEX
  5
FE
330
F6
100
AcDbEntity
  8
LAY-10
  6
CONTINUOUS
 62
     4
100
AcDbVertex
100
AcDb2dVertex
 10
1690.172790000001
 20
892.9368233333321
 30
0.0
  0
VERTEX
  5
FF
330
F6
100
AcDbEntity
  8
LAY-10
  6
CONTINUOUS
 62
     4
100
AcDbVertex
100
AcDb2dVertex
 10
1689.10498
 20
895.6366149999989
 30
0.0
  0
VERTEX
  5
100
330
F6
100
AcDbEntity
  8
LAY-10
  6
CONTINUOUS
 62
     4
100
AcDbVertex
100
AcDb2dVertex
 10
1688.131775000001
 20
898.3992816666652
 30
0.0
  0
VERTEX
  5
101
330
F6
100
AcDbEntity
  8
LAY-10
  6
CONTINUOUS
 62
     4
100
AcDbVertex
100
AcDb2dVertex
 10
1687.71399
 20
899.7701233333316
 30
0.0
  0
VERTEX
  5
102
330
F6
100
AcDbEntity
  8
LAY-10
  6
CONTINUOUS
 62
     4
100
AcDbVertex
100
AcDb2dVertex
 10
1687.348085
 20
901.1474899999987
 30
0.0
  0
VERTEX
  5
103
330
F6
100
AcDbEntity
  8
LAY-10
  6
CONTINUOUS
 62
     4
100
AcDbVertex
100
AcDb2dVertex
 10
1687.090515
 20
902.2949483333322
 30
0.0
  0
VERTEX
  5
104
330
F6
100
AcDbEntity
  8
LAY-10
  6
CONTINUOUS
 62
     4
100
AcDbVertex
100
AcDb2dVertex
 10
1686.881165
 20
903.443648333332
 30
0.0
  0
VERTEX
  5
105
330
F6
100
AcDbEntity
  8
LAY-10
  6
CONTINUOUS
 62
     4
100
AcDbVertex
100
AcDb2dVertex
 10
1686.74109
 20
904.4537816666653
 30
0.0
  0
VERTEX
  5
106
330
F6
100
AcDbEntity
  8
LAY-10
  6
CONTINUOUS
 62
     4
100
AcDbVertex
100
AcDb2dVertex
 10
1686.646485
 20
905.4622566666658
 30
0.0
  0
VERTEX
  5
107
330
F6
100
AcDbEntity
  8
LAY-10
  6
CONTINUOUS
 62
     4
100
AcDbVertex
100
AcDb2dVertex
 10
1686.60437
 20
906.3181816666657
 30
0.0
  0
VERTEX
  5
108
330
F6
100
AcDbEntity
  8
LAY-10
  6
CONTINUOUS
 62
     4
100
AcDbVertex
100
AcDb2dVertex
 10
1686.634585000001
 20
908.0743733333323
 30
0.0
  0
VERTEX
  5
109
330
F6
100
AcDbEntity
  8
LAY-10
  6
CONTINUOUS
 62
     4
100
AcDbVertex
100
AcDb2dVertex
 10
1686.823485
 20
909.8631149999991
 30
0.0
  0
VERTEX
  5
10A
330
F6
100
AcDbEntity
  8
LAY-10
  6
CONTINUOUS
 62
     4
100
AcDbVertex
100
AcDb2dVertex
 10
1687.17749
 20
911.6919149999985
 30
0.0
  0
VERTEX
  5
10B
330
F6
100
AcDbEntity
  8
LAY-10
  6
CONTINUOUS
 62
     4
100
AcDbVertex
100
AcDb2dVertex
 10
1687.706665
 20
913.5632733333318
 30
0.0
  0
VERTEX
  5
10C
330
F6
100
AcDbEntity
  8
LAY-10
  6
CONTINUOUS
 62
     4
100
AcDbVertex
100
AcDb2dVertex
 10
1688.422610000001
 20
915.4740899999991
 30
0.0
  0
VERTEX
  5
10D
330
F6
100
AcDbEntity
  8
LAY-10
  6
CONTINUOUS
 62
     4
100
AcDbVertex
100
AcDb2dVertex
 10
1689.336305000001
 20
917.4129733333325
 30
0.0
  0
VERTEX
  5
10E
330
F6
100
AcDbEntity
  8
LAY-10
  6
CONTINUOUS
 62
     4
100
AcDbVertex
100
AcDb2dVertex
 10
1690.455384999999
 20
919.3587566666656
 30
0.0
  0
VERTEX
  5
10F
330
F6
100
AcDbEntity
  8
LAY-10
  6
CONTINUOUS
 62
     4
100
AcDbVertex
100
AcDb2dVertex
 10
1691.780155
 20
921.2803483333323
 30
0.0
  0
VERTEX
  5
110
330
F6
100
AcDbEntity
  8
LAY-10
  6
CONTINUOUS
 62
     4
100
AcDbVertex
100
AcDb2dVertex
 10
1693.300845
 20
923.1350233333326
 30
0.0
  0
VERTEX
  5
111
330
F6
100
AcDbEntity
  8
LAY-10
  6
CONTINUOUS
 62
     4
100
AcDbVertex
100
AcDb2dVertex
 10
1694.992740000001
 20
924.870639999999
 30
0.0
  0
VERTEX
  5
112
330
F6
100
AcDbEntity
  8
LAY-10
  6
CONTINUOUS
 62
     4
100
AcDbVertex
100
AcDb2dVertex
 10
1696.816164999999
 20
926.4306983333328
 30
0.0
  0
VERTEX
  5
113
330
F6
100
AcDbEntity
  8
LAY-10
  6
CONTINUOUS
 62
     4
100
AcDbVertex
100
AcDb2dVertex
 10
1697.7616
 20
927.1273233333324
 30
0.0
  0
VERTEX
  5
114
330
F6
100
AcDbEntity
  8
LAY-10
  6
CONTINUOUS
 62
     4
100
AcDbVertex
100
AcDb2dVertex
 10
1698.717410000001
 20
927.7592316666659
 30
0.0
  0
VERTEX
  5
115
330
F6
100
AcDbEntity
  8
LAY-10
  6
CONTINUOUS
 62
     4
100
AcDbVertex
100
AcDb2dVertex
 10
1699.674745
 20
928.3203399999987
 30
0.0
  0
VERTEX
  5
116
330
F6
100
AcDbEntity
  8
LAY-10
  6
CONTINUOUS
 62
     4
100
AcDbVertex
100
AcDb2dVertex
 10
1700.634215
 20
928.811064999999
 30
0.0
  0
VERTEX
  5
117
330
F6
100
AcDbEntity
  8
LAY-10
  6
CONTINUOUS
 62
     4
100
AcDbVertex
100
AcDb2dVertex
 10
1701.57233
 20
929.2210233333328
 30
0.0
  0
VERTEX
  5
118
330
F6
100
AcDbEntity
  8
LAY-10
  6
CONTINUOUS
 62
     4
100
AcDbVertex
100
AcDb2dVertex
 10
1702.504335
 20
929.5577316666659
 30
0.0
  0
VERTEX
  5
119
330
F6
100
AcDbEntity
  8
LAY-10
  6
CONTINUOUS
 62
     4
100
AcDbVertex
100
AcDb2dVertex
 10
1703.395755
 20
929.8108316666663
 30
0.0
  0
VERTEX
  5
11A
330
F6
100
AcDbEntity
  8
LAY-10
  6
CONTINUOUS
 62
     4
100
AcDbVertex
100
AcDb2dVertex
 10
1704.27405
 20
929.9904733333324
 30
0.0
  0
VERTEX
  5
11B
330
F6
100
AcDbEntity
  8
LAY-10
  6
CONTINUOUS
 62
     4
100
AcDbVertex
100
AcDb2dVertex
 10
1705.338195000001
 20
930.1072733333331
 30
0.0
  0
VERTEX
  5
11C
330
F6
100
AcDbEntity
  8
LAY-10
  6
CONTINUOUS
 62
     4
100
AcDbVertex
100
AcDb2dVertex
 10
1706.872620000001
 20
930.0614899999996
 30
0.0
  0
VERTEX
  5
11D
330
F6
100
AcDbEntity
  8
LAY-10
  6
CONTINUOUS
 62
     4
100
AcDbVertex
100
AcDb2dVertex
 10
1708.412540000001
 20
929.7587316666661
 30
0.0
  0
VERTEX
  5
11E
330
F6
100
AcDbEntity
  8
LAY-10
  6
CONTINUOUS
 62
     4
100
AcDbVertex
100
AcDb2dVertex
 10
1710.012880000001
 20
929.187039999999
 30
0.0
  0
VERTEX
  5
11F
330
F6
100
AcDbEntity
  8
LAY-10
  6
CONTINUOUS
 62
     4
100
AcDbVertex
100
AcDb2dVertex
 10
1711.756045
 20
928.3059066666658
 30
0.0
  0
VERTEX
  5
120
330
F6
100
AcDbEntity
  8
LAY-10
  6
CONTINUOUS
 62
     4
100
AcDbVertex
100
AcDb2dVertex
 10
1713.808654999999
 20
927.0125649999989
 30
0.0
  0
VERTEX
  5
121
330
F6
100
AcDbEntity
  8
LAY-10
  6
CONTINUOUS
 62
     4
100
AcDbVertex
100
AcDb2dVertex
 10
1716.714235000001
 20
924.9542483333324
 30
0.0
  0
VERTEX
  5
122
330
F6
100
AcDbEntity
  8
LAY-10
  6
CONTINUOUS
 62
     4
100
AcDbVertex
100
AcDb2dVertex
 10
1717.827515
 20
924.1599983333322
 30
0.0
  0
VERTEX
  5
123
330
F6
100
AcDbEntity
  8
LAY-10
  6
CONTINUOUS
 62
     4
100
AcDbVertex
100
AcDb2dVertex
 10
1722.023685000001
 20
921.2695733333319
 30
0.0
  0
VERTEX
  5
124
330
F6
100
AcDbEntity
  8
LAY-10
  6
CONTINUOUS
 62
     4
100
AcDbVertex
100
AcDb2dVertex
 10
1724.90454
 20
919.2224399999992
 30
0.0
  0
VERTEX
  5
125
330
F6
100
AcDbEntity
  8
LAY-10
  6
CONTINUOUS
 62
     4
100
AcDbVertex
100
AcDb2dVertex
 10
1727.685
 20
917.0377983333324
 30
0.0
  0
VERTEX
  5
126
330
F6
100
AcDbEntity
  8
LAY-10
  6
CONTINUOUS
 62
     4
100
AcDbVertex
100
AcDb2dVertex
 10
1728.858705000001
 20
916.0073233333325
 30
0.0
  0
VERTEX
  5
127
330
F6
100
AcDbEntity
  8
LAY-10
  6
CONTINUOUS
 62
     4
100
AcDbVertex
100
AcDb2dVertex
 10
1729.976565000001
 20
914.9355483333318
 30
0.0
  0
VERTEX
  5
128
330
F6
100
AcDbEntity
  8
LAY-10
  6
CONTINUOUS
 62
     4
100
AcDbVertex
100
AcDb2dVertex
 10
1730.854860000001
 20
914.0106483333325
 30
0.0
  0
VERTEX
  5
129
330
F6
100
AcDbEntity
  8
LAY-10
  6
CONTINUOUS
 62
     4
100
AcDbVertex
100
AcDb2dVertex
 10
1731.680665
 20
913.0519816666657
 30
0.0
  0
VERTEX
  5
12A
330
F6
100
AcDbEntity
  8
LAY-10
  6
CONTINUOUS
 62
     4
100
AcDbVertex
100
AcDb2dVertex
 10
1732.353885
 20
912.1846733333326
 30
0.0
  0
VERTEX
  5
12B
330
F6
100
AcDbEntity
  8
LAY-10
  6
CONTINUOUS
 62
     4
100
AcDbVertex
100
AcDb2dVertex
 10
1732.977965
 20
911.2880649999988
 30
0.0
  0
VERTEX
  5
12C
330
F6
100
AcDbEntity
  8
LAY-10
  6
CONTINUOUS
 62
     4
100
AcDbVertex
100
AcDb2dVertex
 10
1733.492495
 20
910.4577983333327
 30
0.0
  0
VERTEX
  5
12D
330
F6
100
AcDbEntity
  8
LAY-10
  6
CONTINUOUS
 62
     4
100
AcDbVertex
100
AcDb2dVertex
 10
1733.960940000001
 20
909.6012649999989
 30
0.0
  0
VERTEX
  5
12E
330
F6
100
AcDbEntity
  8
LAY-10
  6
CONTINUOUS
 62
     4
100
AcDbVertex
100
AcDb2dVertex
 10
1734.345765
 20
908.7947816666658
 30
0.0
  0
VERTEX
  5
12F
330
F6
100
AcDbEntity
  8
LAY-10
  6
CONTINUOUS
 62
     4
100
AcDbVertex
100
AcDb2dVertex
 10
1734.68756
 20
907.9646983333325
 30
0.0
  0
VERTEX
  5
130
330
F6
100
AcDbEntity
  8
LAY-10
  6
CONTINUOUS
 62
     4
100
AcDbVertex
100
AcDb2dVertex
 10
1734.96405
 20
907.1718816666657
 30
0.0
  0
VERTEX
  5
131
330
F6
100
AcDbEntity
  8
LAY-10
  6
CONTINUOUS
 62
     4
100
AcDbVertex
100
AcDb2dVertex
 10
1735.199340000001
 20
906.3568399999991
 30
0.0
  0
VERTEX
  5
132
330
F6
100
AcDbEntity
  8
LAY-10
  6
CONTINUOUS
 62
     4
100
AcDbVertex
100
AcDb2dVertex
 10
1735.381835
 20
905.5666566666656
 30
0.0
  0
VERTEX
  5
133
330
F6
100
AcDbEntity
  8
LAY-10
  6
CONTINUOUS
 62
     4
100
AcDbVertex
100
AcDb2dVertex
 10
1735.524355
 20
904.7554899999986
 30
0.0
  0
VERTEX
  5
134
330
F6
100
AcDbEntity
  8
LAY-10
  6
CONTINUOUS
 62
     4
100
AcDbVertex
100
AcDb2dVertex
 10
1735.669315000001
 20
903.3445649999987
 30
0.0
  0
VERTEX
  5
135
330
F6
100
AcDbEntity
  8
LAY-10
  6
CONTINUOUS
 62
     4
100
AcDbVertex
100
AcDb2dVertex
 10
1735.68671
 20
901.6923233333321
 30
0.0
  0
VERTEX
  5
136
330
F6
100
AcDbEntity
  8
LAY-10
  6
CONTINUOUS
 62
     4
100
AcDbVertex
100
AcDb2dVertex
 10
1735.546935
 20
899.8734733333322
 30
0.0
  0
VERTEX
  5
137
330
F6
100
AcDbEntity
  8
LAY-10
  6
CONTINUOUS
 62
     4
100
AcDbVertex
100
AcDb2dVertex
 10
1735.233520000001
 20
897.878639999999
 30
0.0
  0
VERTEX
  5
138
330
F6
100
AcDbEntity
  8
LAY-10
  6
CONTINUOUS
 62
     4
100
AcDbVertex
100
AcDb2dVertex
 10
1734.728455000001
 20
895.7092566666649
 30
0.0
  0
VERTEX
  5
139
330
F6
100
AcDbEntity
  8
LAY-10
  6
CONTINUOUS
 62
     4
100
AcDbVertex
100
AcDb2dVertex
 10
1734.01709
 20
893.3826066666654
 30
0.0
  0
VERTEX
  5
13A
330
F6
100
AcDbEntity
  8
LAY-10
  6
CONTINUOUS
 62
     4
100
AcDbVertex
100
AcDb2dVertex
 10
1733.092714999999
 20
890.9395816666648
 30
0.0
  0
VERTEX
  5
13B
330
F6
100
AcDbEntity
  8
LAY-10
  6
CONTINUOUS
 62
     4
100
AcDbVertex
100
AcDb2dVertex
 10
1731.96387
 20
888.4489316666653
 30
0.0
  0
VERTEX
  5
13C
330
F6
100
AcDbEntity
  8
LAY-10
  6
CONTINUOUS
 62
     4
100
AcDbVertex
100
AcDb2dVertex
 10
1730.660465
 20
886.008323333332
 30
0.0
  0
VERTEX
  5
13D
330
F6
100
AcDbEntity
  8
LAY-10
  6
CONTINUOUS
 62
     4
100
AcDbVertex
100
AcDb2dVertex
 10
1729.424805
 20
884.015931666665
 30
0.0
  0
VERTEX
  5
13E
330
F6
100
AcDbEntity
  8
LAY-10
  6
CONTINUOUS
 62
     4
100
AcDbVertex
100
AcDb2dVertex
 10
1727.94806
 20
881.9749149999984
 30
0.0
  0
VERTEX
  5
13F
330
F6
100
AcDbEntity
  8
LAY-10
  6
CONTINUOUS
 62
     4
100
AcDbVertex
100
AcDb2dVertex
 10
1726.391665
 20
880.1634066666647
 30
0.0
  0
VERTEX
  5
140
330
F6
100
AcDbEntity
  8
LAY-10
  6
CONTINUOUS
 62
     4
100
AcDbVertex
100
AcDb2dVertex
 10
1724.75104
 20
878.5722066666651
 30
0.0
  0
VERTEX
  5
141
330
F6
100
AcDbEntity
  8
LAY-10
  6
CONTINUOUS
 62
     4
100
AcDbVertex
100
AcDb2dVertex
 10
1723.020385
 20
877.1964983333311
 30
0.0
  0
VERTEX
  5
142
330
F6
100
AcDbEntity
  8
LAY-10
  6
CONTINUOUS
 62
     4
100
AcDbVertex
100
AcDb2dVertex
 10
1721.193605
 20
876.033139999998
 30
0.0
  0
VERTEX
  5
143
330
F6
100
AcDbEntity
  8
LAY-10
  6
CONTINUOUS
 62
     4
100
AcDbVertex
100
AcDb2dVertex
 10
1719.262145000001
 20
875.0832483333318
 30
0.0
  0
VERTEX
  5
144
330
F6
100
AcDbEntity
  8
LAY-10
  6
CONTINUOUS
 62
     4
100
AcDbVertex
100
AcDb2dVertex
 10
1717.218080000001
 20
874.3495899999984
 30
0.0
  0
VERTEX
  5
145
330
F6
100
AcDbEntity
  8
LAY-10
  6
CONTINUOUS
 62
     4
100
AcDbVertex
100
AcDb2dVertex
 10
1715.051024999999
 20
873.8381316666653
 30
0.0
  0
VERTEX
  5
146
330
F6
100
AcDbEntity
  8
LAY-10
  6
CONTINUOUS
 62
     4
100
AcDbVertex
100
AcDb2dVertex
 10
1713.367065
 20
873.6082316666649
 30
0.0
  0
SEQEND
  5
147
330
F6
100
AcDbEntity
  8
LAY-10
  6
CONTINUOUS
 62
     4
  0
POLYLINE
  5
148
330
1F
100
AcDbEntity
  8
LAY-10
  6
CONTINUOUS
 62
     4
100
AcDb2dPolyline
 66
     1
 10
0.0
 20
0.0
 30
0.0
 70
   128
  0
VERTEX
  5
149
330
148
100
AcDbEntity
  8
LAY-10
  6
CONTINUOUS
 62
     4
100
AcDbVertex
100
AcDb2dVertex
 10
1756.77008
 20
872.1214233333319
 30
0.0
  0
VERTEX
  5
14A
330
148
100
AcDbEntity
  8
LAY-10
  6
CONTINUOUS
 62
     4
100
AcDbVertex
100
AcDb2dVertex
 10
1754.882875
 20
874.5213149999979
 30
0.0
  0
VERTEX
  5
14B
330
148
100
AcDbEntity
  8
LAY-10
  6
CONTINUOUS
 62
     4
100
AcDbVertex
100
AcDb2dVertex
 10
1753.057315
 20
877.1724649999977
 30
0.0
  0
VERTEX
  5
14C
330
148
100
AcDbEntity
  8
LAY-10
  6
CONTINUOUS
 62
     4
100
AcDbVertex
100
AcDb2dVertex
 10
1751.265930000001
 20
880.1208733333317
 30
0.0
  0
VERTEX
  5
14D
330
148
100
AcDbEntity
  8
LAY-10
  6
CONTINUOUS
 62
     4
100
AcDbVertex
100
AcDb2dVertex
 10
1749.48035
 20
883.4259316666653
 30
0.0
  0
VERTEX
  5
14E
330
148
100
AcDbEntity
  8
LAY-10
  6
CONTINUOUS
 62
     4
100
AcDbVertex
100
AcDb2dVertex
 10
1747.663635
 20
887.1765399999985
 30
0.0
  0
VERTEX
  5
14F
330
148
100
AcDbEntity
  8
LAY-10
  6
CONTINUOUS
 62
     4
100
AcDbVertex
100
AcDb2dVertex
 10
1745.76239
 20
891.5128983333318
 30
0.0
  0
VERTEX
  5
150
330
148
100
AcDbEntity
  8
LAY-10
  6
CONTINUOUS
 62
     4
100
AcDbVertex
100
AcDb2dVertex
 10
1745.172790000001
 20
892.9368233333321
 30
0.0
  0
VERTEX
  5
151
330
148
100
AcDbEntity
  8
LAY-10
  6
CONTINUOUS
 62
     4
100
AcDbVertex
100
AcDb2dVertex
 10
1744.10498
 20
895.6366149999989
 30
0.0
  0
VERTEX
  5
152
330
148
100
AcDbEntity
  8
LAY-10
  6
CONTINUOUS
 62
     4
100
AcDbVertex
100
AcDb2dVertex
 10
1743.131775000001
 20
898.3992816666652
 30
0.0
  0
VERTEX
  5
153
330
148
100
AcDbEntity
  8
LAY-10
  6
CONTINUOUS
 62
     4
100
AcDbVertex
100
AcDb2dVertex
 10
1742.71399
 20
899.7701233333316
 30
0.0
  0
VERTEX
  5
154
330
148
100
AcDbEntity
  8
LAY-10
  6
CONTINUOUS
 62
     4
100
AcDbVertex
100
AcDb2dVertex
 10
1742.348085
 20
901.1474899999987
 30
0.0
  0
VERTEX
  5
155
330
148
100
AcDbEntity
  8
LAY-10
  6
CONTINUOUS
 62
     4
100
AcDbVertex
100
AcDb2dVertex
 10
1742.090515
 20
902.2949483333322
 30
0.0
  0
VERTEX
  5
156
330
148
100
AcDbEntity
  8
LAY-10
  6
CONTINUOUS
 62
     4
100
AcDbVertex
100
AcDb2dVertex
 10
1741.881165
 20
903.443648333332
 30
0.0
  0
VERTEX
  5
157
330
148
100
AcDbEntity
  8
LAY-10
  6
CONTINUOUS
 62
     4
100
AcDbVertex
100
AcDb2dVertex
 10
1741.74109
 20
904.4537816666653
 30
0.0
  0
VERTEX
  5
158
330
148
100
AcDbEntity
  8
LAY-10
  6
CONTINUOUS
 62
     4
100
AcDbVertex
100
AcDb2dVertex
 10
1741.646485
 20
905.4622566666658
 30
0.0
  0
VERTEX
  5
159
330
148
100
AcDbEntity
  8
LAY-10
  6
CONTINUOUS
 62
     4
100
AcDbVertex
100
AcDb2dVertex
 10
1741.60437
 20
906.3181816666657
 30
0.0
  0
VERTEX
  5
15A
330
148
100
AcDbEntity
  8
LAY-10
  6
CONTINUOUS
 62
     4
100
AcDbVertex
100
AcDb2dVertex
 10
1741.634585000001
 20
908.0743733333323
 30
0.0
  0
VERTEX
  5
15B
330
148
100
AcDbEntity
  8
LAY-10
  6
CONTINUOUS
 62
     4
100
AcDbVertex
100
AcDb2dVertex
 10
1741.823485
 20
909.8631149999991
 30
0.0
  0
VERTEX
  5
15C
330
148
100
AcDbEntity
  8
LAY-10
  6
CONTINUOUS
 62
     4
100
AcDbVertex
100
AcDb2dVertex
 10
1742.17749
 20
911.6919149999985
 30
0.0
  0
VERTEX
  5
15D
330
148
100
AcDbEntity
  8
LAY-10
  6
CONTINUOUS
 62
     4
100
AcDbVertex
100
AcDb2dVertex
 10
1742.706665
 20
913.5632733333318
 30
0.0
  0
VERTEX
  5
15E
330
148
100
AcDbEntity
  8
LAY-10
  6
CONTINUOUS
 62
     4
100
AcDbVertex
100
AcDb2dVertex
 10
1743.422610000001
 20
915.4740899999991
 30
0.0
  0
VERTEX
  5
15F
330
148
100
AcDbEntity
  8
LAY-10
  6
CONTINUOUS
 62
     4
100
AcDbVertex
100
AcDb2dVertex
 10
1744.336305000001
 20
917.4129733333325
 30
0.0
  0
VERTEX
  5
160
330
148
100
AcDbEntity
  8
LAY-10
  6
CONTINUOUS
 62
     4
100
AcDbVertex
100
AcDb2dVertex
 10
1745.455384999999
 20
919.3587566666656
 30
0.0
  0
VERTEX
  5
161
330
148
100
AcDbEntity
  8
LAY-10
  6
CONTINUOUS
 62
     4
100
AcDbVertex
100
AcDb2dVertex
 10
1746.780155
 20
921.2803483333323
 30
0.0
  0
VERTEX
  5
162
330
148
100
AcDbEntity
  8
LAY-10
  6
CONTINUOUS
 62
     4
100
AcDbVertex
100
AcDb2dVertex
 10
1748.300845
 20
923.1350233333326
 30
0.0
  0
VERTEX
  5
163
330
148
100
AcDbEntity
  8
LAY-10
  6
CONTINUOUS
 62
     4
100
AcDbVertex
100
AcDb2dVertex
 10
1749.992740000001
 20
924.870639999999
 30
0.0
  0
VERTEX
  5
164
330
148
100
AcDbEntity
  8
LAY-10
  6
CONTINUOUS
 62
     4
100
AcDbVertex
100
AcDb2dVertex
 10
1751.816164999999
 20
926.4306983333328
 30
0.0
  0
VERTEX
  5
165
330
148
100
AcDbEntity
  8
LAY-10
  6
CONTINUOUS
 62
     4
100
AcDbVertex
100
AcDb2dVertex
 10
1752.7616
 20
927.1273233333324
 30
0.0
  0
VERTEX
  5
166
330
148
100
AcDbEntity
  8
LAY-10
  6
CONTINUOUS
 62
     4
100
AcDbVertex
100
AcDb2dVertex
 10
1753.717410000001
 20
927.7592316666659
 30
0.0
  0
VERTEX
  5
167
330
148
100
AcDbEntity
  8
LAY-10
  6
CONTINUOUS
 62
     4
100
AcDbVertex
100
AcDb2dVertex
 10
1754.674745
 20
928.3203399999987
 30
0.0
  0
VERTEX
  5
168
330
148
100
AcDbEntity
  8
LAY-10
  6
CONTINUOUS
 62
     4
100
AcDbVertex
100
AcDb2dVertex
 10
1755.634215
 20
928.811064999999
 30
0.0
  0
VERTEX
  5
169
330
148
100
AcDbEntity
  8
LAY-10
  6
CONTINUOUS
 62
     4
100
AcDbVertex
100
AcDb2dVertex
 10
1756.57233
 20
929.2210233333328
 30
0.0
  0
VERTEX
  5
16A
330
148
100
AcDbEntity
  8
LAY-10
  6
CONTINUOUS
 62
     4
100
AcDbVertex
100
AcDb2dVertex
 10
1757.504335
 20
929.5577316666659
 30
0.0
  0
VERTEX
  5
16B
330
148
100
AcDbEntity
  8
LAY-10
  6
CONTINUOUS
 62
     4
100
AcDbVertex
100
AcDb2dVertex
 10
1758.395755
 20
929.8108316666663
 30
0.0
  0
VERTEX
  5
16C
330
148
100
AcDbEntity
  8
LAY-10
  6
CONTINUOUS
 62
     4
100
AcDbVertex
100
AcDb2dVertex
 10
1759.27405
 20
929.9904733333324
 30
0.0
  0
VERTEX
  5
16D
330
148
100
AcDbEntity
  8
LAY-10
  6
CONTINUOUS
 62
     4
100
AcDbVertex
100
AcDb2dVertex
 10
1760.338195000001
 20
930.1072733333331
 30
0.0
  0
VERTEX
  5
16E
330
148
100
AcDbEntity
  8
LAY-10
  6
CONTINUOUS
 62
     4
100
AcDbVertex
100
AcDb2dVertex
 10
1761.872620000001
 20
930.0614899999996
 30
0.0
  0
VERTEX
  5
16F
330
148
100
AcDbEntity
  8
LAY-10
  6
CONTINUOUS
 62
     4
100
AcDbVertex
100
AcDb2dVertex
 10
1763.412540000001
 20
929.7587316666661
 30
0.0
  0
VERTEX
  5
170
330
148
100
AcDbEntity
  8
LAY-10
  6
CONTINUOUS
 62
     4
100
AcDbVertex
100
AcDb2dVertex
 10
1765.012880000001
 20
929.187039999999
 30
0.0
  0
VERTEX
  5
171
330
148
100
AcDbEntity
  8
LAY-10
  6
CONTINUOUS
 62
     4
100
AcDbVertex
100
AcDb2dVertex
 10
1766.756045
 20
928.3059066666658
 30
0.0
  0
VERTEX
  5
172
330
148
100
AcDbEntity
  8
LAY-10
  6
CONTINUOUS
 62
     4
100
AcDbVertex
100
AcDb2dVertex
 10
1768.808654999999
 20
927.0125649999989
 30
0.0
  0
VERTEX
  5
173
330
148
100
AcDbEntity
  8
LAY-10
  6
CONTINUOUS
 62
     4
100
AcDbVertex
100
AcDb2dVertex
 10
1771.714235000001
 20
924.9542483333324
 30
0.0
  0
VERTEX
  5
174
330
148
100
AcDbEntity
  8
LAY-10
  6
CONTINUOUS
 62
     4
100
AcDbVertex
100
AcDb2dVertex
 10
1772.827515
 20
924.1599983333322
 30
0.0
  0
VERTEX
  5
175
330
148
100
AcDbEntity
  8
LAY-10
  6
CONTINUOUS
 62
     4
100
AcDbVertex
100
AcDb2dVertex
 10
1777.023685000001
 20
921.2695733333319
 30
0.0
  0
VERTEX
  5
176
330
148
100
AcDbEntity
  8
LAY-10
  6
CONTINUOUS
 62
     4
100
AcDbVertex
100
AcDb2dVertex
 10
1779.90454
 20
919.2224399999992
 30
0.0
  0
VERTEX
  5
177
330
148
100
AcDbEntity
  8
LAY-10
  6
CONTINUOUS
 62
     4
100
AcDbVertex
100
AcDb2dVertex
 10
1782.685
 20
917.0377983333324
 30
0.0
  0
VERTEX
  5
178
330
148
100
AcDbEntity
  8
LAY-10
  6
CONTINUOUS
 62
     4
100
AcDbVertex
100
AcDb2dVertex
 10
1783.858705000001
 20
916.0073233333325
 30
0.0
  0
VERTEX
  5
179
330
148
100
AcDbEntity
  8
LAY-10
  6
CONTINUOUS
 62
     4
100
AcDbVertex
100
AcDb2dVertex
 10
1784.976565000001
 20
914.9355483333318
 30
0.0
  0
VERTEX
  5
17A
330
148
100
AcDbEntity
  8
LAY-10
  6
CONTINUOUS
 62
     4
100
AcDbVertex
100
AcDb2dVertex
 10
1785.854860000001
 20
914.0106483333325
 30
0.0
  0
VERTEX
  5
17B
330
148
100
AcDbEntity
  8
LAY-10
  6
CONTINUOUS
 62
     4
100
AcDbVertex
100
AcDb2dVertex
 10
1786.680665
 20
913.0519816666657
 30
0.0
  0
VERTEX
  5
17C
330
148
100
AcDbEntity
  8
LAY-10
  6
CONTINUOUS
 62
     4
100
AcDbVertex
100
AcDb2dVertex
 10
1787.353885
 20
912.1846733333326
 30
0.0
  0
VERTEX
  5
17D
330
148
100
AcDbEntity
  8
LAY-10
  6
CONTINUOUS
 62
     4
100
AcDbVertex
100
AcDb2dVertex
 10
1787.977965
 20
911.2880649999988
 30
0.0
  0
VERTEX
  5
17E
330
148
100
AcDbEntity
  8
LAY-10
  6
CONTINUOUS
 62
     4
100
AcDbVertex
100
AcDb2dVertex
 10
1788.492495
 20
910.4577983333327
 30
0.0
  0
VERTEX
  5
17F
330
148
100
AcDbEntity
  8
LAY-10
  6
CONTINUOUS
 62
     4
100
AcDbVertex
100
AcDb2dVertex
 10
1788.960940000001
 20
909.6012649999989
 30
0.0
  0
VERTEX
  5
180
330
148
100
AcDbEntity
  8
LAY-10
  6
CONTINUOUS
 62
     4
100
AcDbVertex
100
AcDb2dVertex
 10
1789.345765
 20
908.7947816666658
 30
0.0
  0
VERTEX
  5
181
330
148
100
AcDbEntity
  8
LAY-10
  6
CONTINUOUS
 62
     4
100
AcDbVertex
100
AcDb2dVertex
 10
1789.68756
 20
907.9646983333325
 30
0.0
  0
VERTEX
  5
182
330
148
100
AcDbEntity
  8
LAY-10
  6
CONTINUOUS
 62
     4
100
AcDbVertex
100
AcDb2dVertex
 10
1789.96405
 20
907.1718816666657
 30
0.0
  0
VERTEX
  5
183
330
148
100
AcDbEntity
  8
LAY-10
  6
CONTINUOUS
 62
     4
100
AcDbVertex
100
AcDb2dVertex
 10
1790.199340000001
 20
906.3568399999991
 30
0.0
  0
VERTEX
  5
184
330
148
100
AcDbEntity
  8
LAY-10
  6
CONTINUOUS
 62
     4
100
AcDbVertex
100
AcDb2dVertex
 10
1790.381835
 20
905.5666566666656
 30
0.0
  0
VERTEX
  5
185
330
148
100
AcDbEntity
  8
LAY-10
  6
CONTINUOUS
 62
     4
100
AcDbVertex
100
AcDb2dVertex
 10
1790.524355
 20
904.7554899999986
 30
0.0
  0
VERTEX
  5
186
330
148
100
AcDbEntity
  8
LAY-10
  6
CONTINUOUS
 62
     4
100
AcDbVertex
100
AcDb2dVertex
 10
1790.669315000001
 20
903.3445649999987
 30
0.0
  0
VERTEX
  5
187
330
148
100
AcDbEntity
  8
LAY-10
  6
CONTINUOUS
 62
     4
100
AcDbVertex
100
AcDb2dVertex
 10
1790.68671
 20
901.6923233333321
 30
0.0
  0
VERTEX
  5
188
330
148
100
AcDbEntity
  8
LAY-10
  6
CONTINUOUS
 62
     4
100
AcDbVertex
100
AcDb2dVertex
 10
1790.546935
 20
899.8734733333322
 30
0.0
  0
VERTEX
  5
189
330
148
100
AcDbEntity
  8
LAY-10
  6
CONTINUOUS
 62
     4
100
AcDbVertex
100
AcDb2dVertex
 10
1790.233520000001
 20
897.878639999999
 30
0.0
  0
VERTEX
  5
18A
330
148
100
AcDbEntity
  8
LAY-10
  6
CONTINUOUS
 62
     4
100
AcDbVertex
100
AcDb2dVertex
 10
1789.728455000001
 20
895.7092566666649
 30
0.0
  0
VERTEX
  5
18B
330
148
100
AcDbEntity
  8
LAY-10
  6
CONTINUOUS
 62
     4
100
AcDbVertex
100
AcDb2dVertex
 10
1789.01709
 20
893.3826066666654
 30
0.0
  0
VERTEX
  5
18C
330
148
100
AcDbEntity
  8
LAY-10
  6
CONTINUOUS
 62
     4
100
AcDbVertex
100
AcDb2dVertex
 10
1788.092714999999
 20
890.9395816666648
 30
0.0
  0
VERTEX
  5
18D
330
148
100
AcDbEntity
  8
LAY-10
  6
CONTINUOUS
 62
     4
100
AcDbVertex
100
AcDb2dVertex
 10
1786.96387
 20
888.4489316666653
 30
0.0
  0
VERTEX
  5
18E
330
148
100
AcDbEntity
  8
LAY-10
  6
CONTINUOUS
 62
     4
100
AcDbVertex
100
AcDb2dVertex
 10
1785.660465
 20
886.008323333332
 30
0.0
  0
VERTEX
  5
18F
330
148
100
AcDbEntity
  8
LAY-10
  6
CONTINUOUS
 62
     4
100
AcDbVertex
100
AcDb2dVertex
 10
1784.424805
 20
884.015931666665
 30
0.0
  0
VERTEX
  5
190
330
148
100
AcDbEntity
  8
LAY-10
  6
CONTINUOUS
 62
     4
100
AcDbVertex
100
AcDb2dVertex
 10
1782.94806
 20
881.9749149999984
 30
0.0
  0
VERTEX
  5
191
330
148
100
AcDbEntity
  8
LAY-10
  6
CONTINUOUS
 62
     4
100
AcDbVertex
100
AcDb2dVertex
 10
1781.391665
 20
880.1634066666647
 30
0.0
  0
VERTEX
  5
192
330
148
100
AcDbEntity
  8
LAY-10
  6
CONTINUOUS
 62
     4
100
AcDbVertex
100
AcDb2dVertex
 10
1779.75104
 20
878.5722066666651
 30
0.0
  0
VERTEX
  5
193
330
148
100
AcDbEntity
  8
LAY-10
  6
CONTINUOUS
 62
     4
100
AcDbVertex
100
AcDb2dVertex
 10
1778.020385
 20
877.1964983333311
 30
0.0
  0
VERTEX
  5
194
330
148
100
AcDbEntity
  8
LAY-10
  6
CONTINUOUS
 62
     4
100
AcDbVertex
100
AcDb2dVertex
 10
1776.193605
 20
876.033139999998
 30
0.0
  0
VERTEX
  5
195
330
148
100
AcDbEntity
  8
LAY-10
  6
CONTINUOUS
 62
     4
100
AcDbVertex
100
AcDb2dVertex
 10
1774.262145000001
 20
875.0832483333318
 30
0.0
  0
VERTEX
  5
196
330
148
100
AcDbEntity
  8
LAY-10
  6
CONTINUOUS
 62
     4
100
AcDbVertex
100
AcDb2dVertex
 10
1772.218080000001
 20
874.3495899999984
 30
0.0
  0
VERTEX
  5
197
330
148
100
AcDbEntity
  8
LAY-10
  6
CONTINUOUS
 62
     4
100
AcDbVertex
100
AcDb2dVertex
 10
1770.051024999999
 20
873.8381316666653
 30
0.0
  0
VERTEX
  5
198
330
148
100
AcDbEntity
  8
LAY-10
  6
CONTINUOUS
 62
     4
100
AcDbVertex
100
AcDb2dVertex
 10
1768.367065
 20
873.6082316666649
 30
0.0
  0
SEQEND
  5
199
330
148
100
AcDbEntity
  8
LAY-10
  6
CONTINUOUS
 62
     4
  0
POLYLINE
  5
19A
330
1F
100
AcDbEntity
  8
LAY-10
  6
CONTINUOUS
 62
     4
100
AcDb2dPolyline
 66
     1
 10
0.0
 20
0.0
 30
0.0
 70
   128
  0
VERTEX
  5
19B
330
19A
100
AcDbEntity
  8
LAY-10
  6
CONTINUOUS
 62
     4
100
AcDbVertex
100
AcDb2dVertex
 10
1811.77008
 20
872.1214233333319
 30
0.0
  0
VERTEX
  5
19C
330
19A
100
AcDbEntity
  8
LAY-10
  6
CONTINUOUS
 62
     4
100
AcDbVertex
100
AcDb2dVertex
 10
1809.882875
 20
874.5213149999979
 30
0.0
  0
VERTEX
  5
19D
330
19A
100
AcDbEntity
  8
LAY-10
  6
CONTINUOUS
 62
     4
100
AcDbVertex
100
AcDb2dVertex
 10
1808.057315
 20
877.1724649999977
 30
0.0
  0
VERTEX
  5
19E
330
19A
100
AcDbEntity
  8
LAY-10
  6
CONTINUOUS
 62
     4
100
AcDbVertex
100
AcDb2dVertex
 10
1806.265930000001
 20
880.1208733333317
 30
0.0
  0
VERTEX
  5
19F
330
19A
100
AcDbEntity
  8
LAY-10
  6
CONTINUOUS
 62
     4
100
AcDbVertex
100
AcDb2dVertex
 10
1804.48035
 20
883.4259316666653
 30
0.0
  0
VERTEX
  5
1A0
330
19A
100
AcDbEntity
  8
LAY-10
  6
CONTINUOUS
 62
     4
100
AcDbVertex
100
AcDb2dVertex
 10
1802.663635
 20
887.1765399999985
 30
0.0
  0
VERTEX
  5
1A1
330
19A
100
AcDbEntity
  8
LAY-10
  6
CONTINUOUS
 62
     4
100
AcDbVertex
100
AcDb2dVertex
 10
1800.76239
 20
891.5128983333318
 30
0.0
  0
VERTEX
  5
1A2
330
19A
100
AcDbEntity
  8
LAY-10
  6
CONTINUOUS
 62
     4
100
AcDbVertex
100
AcDb2dVertex
 10
1800.172790000001
 20
892.9368233333321
 30
0.0
  0
VERTEX
  5
1A3
330
19A
100
AcDbEntity
  8
LAY-10
  6
CONTINUOUS
 62
     4
100
AcDbVertex
100
AcDb2dVertex
 10
1799.10498
 20
895.6366149999989
 30
0.0
  0
VERTEX
  5
1A4
330
19A
100
AcDbEntity
  8
LAY-10
  6
CONTINUOUS
 62
     4
100
AcDbVertex
100
AcDb2dVertex
 10
1798.131775000001
 20
898.3992816666652
 30
0.0
  0
VERTEX
  5
1A5
330
19A
100
AcDbEntity
  8
LAY-10
  6
CONTINUOUS
 62
     4
100
AcDbVertex
100
AcDb2dVertex
 10
1797.71399
 20
899.7701233333316
 30
0.0
  0
VERTEX
  5
1A6
330
19A
100
AcDbEntity
  8
LAY-10
  6
CONTINUOUS
 62
     4
100
AcDbVertex
100
AcDb2dVertex
 10
1797.348085
 20
901.1474899999987
 30
0.0
  0
VERTEX
  5
1A7
330
19A
100
AcDbEntity
  8
LAY-10
  6
CONTINUOUS
 62
     4
100
AcDbVertex
100
AcDb2dVertex
 10
1797.090515
 20
902.2949483333322
 30
0.0
  0
VERTEX
  5
1A8
330
19A
100
AcDbEntity
  8
LAY-10
  6
CONTINUOUS
 62
     4
100
AcDbVertex
100
AcDb2dVertex
 10
1796.881165
 20
903.443648333332
 30
0.0
  0
VERTEX
  5
1A9
330
19A
100
AcDbEntity
  8
LAY-10
  6
CONTINUOUS
 62
     4
100
AcDbVertex
100
AcDb2dVertex
 10
1796.74109
 20
904.4537816666653
 30
0.0
  0
VERTEX
  5
1AA
330
19A
100
AcDbEntity
  8
LAY-10
  6
CONTINUOUS
 62
     4
100
AcDbVertex
100
AcDb2dVertex
 10
1796.646485
 20
905.4622566666658
 30
0.0
  0
VERTEX
  5
1AB
330
19A
100
AcDbEntity
  8
LAY-10
  6
CONTINUOUS
 62
     4
100
AcDbVertex
100
AcDb2dVertex
 10
1796.60437
 20
906.3181816666657
 30
0.0
  0
VERTEX
  5
1AC
330
19A
100
AcDbEntity
  8
LAY-10
  6
CONTINUOUS
 62
     4
100
AcDbVertex
100
AcDb2dVertex
 10
1796.634585000001
 20
908.0743733333323
 30
0.0
  0
VERTEX
  5
1AD
330
19A
100
AcDbEntity
  8
LAY-10
  6
CONTINUOUS
 62
     4
100
AcDbVertex
100
AcDb2dVertex
 10
1796.823485
 20
909.8631149999991
 30
0.0
  0
VERTEX
  5
1AE
330
19A
100
AcDbEntity
  8
LAY-10
  6
CONTINUOUS
 62
     4
100
AcDbVertex
100
AcDb2dVertex
 10
1797.17749
 20
911.6919149999985
 30
0.0
  0
VERTEX
  5
1AF
330
19A
100
AcDbEntity
  8
LAY-10
  6
CONTINUOUS
 62
     4
100
AcDbVertex
100
AcDb2dVertex
 10
1797.706665
 20
913.5632733333318
 30
0.0
  0
VERTEX
  5
1B0
330
19A
100
AcDbEntity
  8
LAY-10
  6
CONTINUOUS
 62
     4
100
AcDbVertex
100
AcDb2dVertex
 10
1798.422610000001
 20
915.4740899999991
 30
0.0
  0
VERTEX
  5
1B1
330
19A
100
AcDbEntity
  8
LAY-10
  6
CONTINUOUS
 62
     4
100
AcDbVertex
100
AcDb2dVertex
 10
1799.336305000001
 20
917.4129733333325
 30
0.0
  0
VERTEX
  5
1B2
330
19A
100
AcDbEntity
  8
LAY-10
  6
CONTINUOUS
 62
     4
100
AcDbVertex
100
AcDb2dVertex
 10
1800.455384999999
 20
919.3587566666656
 30
0.0
  0
VERTEX
  5
1B3
330
19A
100
AcDbEntity
  8
LAY-10
  6
CONTINUOUS
 62
     4
100
AcDbVertex
100
AcDb2dVertex
 10
1801.780155
 20
921.2803483333323
 30
0.0
  0
VERTEX
  5
1B4
330
19A
100
AcDbEntity
  8
LAY-10
  6
CONTINUOUS
 62
     4
100
AcDbVertex
100
AcDb2dVertex
 10
1803.300845
 20
923.1350233333326
 30
0.0
  0
VERTEX
  5
1B5
330
19A
100
AcDbEntity
  8
LAY-10
  6
CONTINUOUS
 62
     4
100
AcDbVertex
100
AcDb2dVertex
 10
1804.992740000001
 20
924.870639999999
 30
0.0
  0
VERTEX
  5
1B6
330
19A
100
AcDbEntity
  8
LAY-10
  6
CONTINUOUS
 62
     4
100
AcDbVertex
100
AcDb2dVertex
 10
1806.816164999999
 20
926.4306983333328
 30
0.0
  0
VERTEX
  5
1B7
330
19A
100
AcDbEntity
  8
LAY-10
  6
CONTINUOUS
 62
     4
100
AcDbVertex
100
AcDb2dVertex
 10
1807.7616
 20
927.1273233333324
 30
0.0
  0
VERTEX
  5
1B8
330
19A
100
AcDbEntity
  8
LAY-10
  6
CONTINUOUS
 62
     4
100
AcDbVertex
100
AcDb2dVertex
 10
1808.717410000001
 20
927.7592316666659
 30
0.0
  0
VERTEX
  5
1B9
330
19A
100
AcDbEntity
  8
LAY-10
  6
CONTINUOUS
 62
     4
100
AcDbVertex
100
AcDb2dVertex
 10
1809.674745
 20
928.3203399999987
 30
0.0
  0
VERTEX
  5
1BA
330
19A
100
AcDbEntity
  8
LAY-10
  6
CONTINUOUS
 62
     4
100
AcDbVertex
100
AcDb2dVertex
 10
1810.634215
 20
928.811064999999
 30
0.0
  0
VERTEX
  5
1BB
330
19A
100
AcDbEntity
  8
LAY-10
  6
CONTINUOUS
 62
     4
100
AcDbVertex
100
AcDb2dVertex
 10
1811.57233
 20
929.2210233333328
 30
0.0
  0
VERTEX
  5
1BC
330
19A
100
AcDbEntity
  8
LAY-10
  6
CONTINUOUS
 62
     4
100
AcDbVertex
100
AcDb2dVertex
 10
1812.504335
 20
929.5577316666659
 30
0.0
  0
VERTEX
  5
1BD
330
19A
100
AcDbEntity
  8
LAY-10
  6
CONTINUOUS
 62
     4
100
AcDbVertex
100
AcDb2dVertex
 10
1813.395755
 20
929.8108316666663
 30
0.0
  0
VERTEX
  5
1BE
330
19A
100
AcDbEntity
  8
LAY-10
  6
CONTINUOUS
 62
     4
100
AcDbVertex
100
AcDb2dVertex
 10
1814.27405
 20
929.9904733333324
 30
0.0
  0
VERTEX
  5
1BF
330
19A
100
AcDbEntity
  8
LAY-10
  6
CONTINUOUS
 62
     4
100
AcDbVertex
100
AcDb2dVertex
 10
1815.338195000001
 20
930.1072733333331
 30
0.0
  0
VERTEX
  5
1C0
330
19A
100
AcDbEntity
  8
LAY-10
  6
CONTINUOUS
 62
     4
100
AcDbVertex
100
AcDb2dVertex
 10
1816.872620000001
 20
930.0614899999996
 30
0.0
  0
VERTEX
  5
1C1
330
19A
100
AcDbEntity
  8
LAY-10
  6
CONTINUOUS
 62
     4
100
AcDbVertex
100
AcDb2dVertex
 10
1818.412540000001
 20
929.7587316666661
 30
0.0
  0
VERTEX
  5
1C2
330
19A
100
AcDbEntity
  8
LAY-10
  6
CONTINUOUS
 62
     4
100
AcDbVertex
100
AcDb2dVertex
 10
1820.012880000001
 20
929.187039999999
 30
0.0
  0
VERTEX
  5
1C3
330
19A
100
AcDbEntity
  8
LAY-10
  6
CONTINUOUS
 62
     4
100
AcDbVertex
100
AcDb2dVertex
 10
1821.756045
 20
928.3059066666658
 30
0.0
  0
VERTEX
  5
1C4
330
19A
100
AcDbEntity
  8
LAY-10
  6
CONTINUOUS
 62
     4
100
AcDbVertex
100
AcDb2dVertex
 10
1823.80896
 20
927.0125649999989
 30
0.0
  0
VERTEX
  5
1C5
330
19A
100
AcDbEntity
  8
LAY-10
  6
CONTINUOUS
 62
     4
100
AcDbVertex
100
AcDb2dVertex
 10
1826.714235000001
 20
924.9542483333324
 30
0.0
  0
VERTEX
  5
1C6
330
19A
100
AcDbEntity
  8
LAY-10
  6
CONTINUOUS
 62
     4
100
AcDbVertex
100
AcDb2dVertex
 10
1827.827515
 20
924.1599983333322
 30
0.0
  0
VERTEX
  5
1C7
330
19A
100
AcDbEntity
  8
LAY-10
  6
CONTINUOUS
 62
     4
100
AcDbVertex
100
AcDb2dVertex
 10
1832.023990000001
 20
921.2695733333319
 30
0.0
  0
VERTEX
  5
1C8
330
19A
100
AcDbEntity
  8
LAY-10
  6
CONTINUOUS
 62
     4
100
AcDbVertex
100
AcDb2dVertex
 10
1834.90454
 20
919.2224399999992
 30
0.0
  0
VERTEX
  5
1C9
330
19A
100
AcDbEntity
  8
LAY-10
  6
CONTINUOUS
 62
     4
100
AcDbVertex
100
AcDb2dVertex
 10
1837.685305
 20
917.0377983333324
 30
0.0
  0
VERTEX
  5
1CA
330
19A
100
AcDbEntity
  8
LAY-10
  6
CONTINUOUS
 62
     4
100
AcDbVertex
100
AcDb2dVertex
 10
1838.85901
 20
916.0073233333325
 30
0.0
  0
VERTEX
  5
1CB
330
19A
100
AcDbEntity
  8
LAY-10
  6
CONTINUOUS
 62
     4
100
AcDbVertex
100
AcDb2dVertex
 10
1839.976565000001
 20
914.9355483333318
 30
0.0
  0
VERTEX
  5
1CC
330
19A
100
AcDbEntity
  8
LAY-10
  6
CONTINUOUS
 62
     4
100
AcDbVertex
100
AcDb2dVertex
 10
1840.854860000001
 20
914.0106483333325
 30
0.0
  0
VERTEX
  5
1CD
330
19A
100
AcDbEntity
  8
LAY-10
  6
CONTINUOUS
 62
     4
100
AcDbVertex
100
AcDb2dVertex
 10
1841.680665
 20
913.0519816666657
 30
0.0
  0
VERTEX
  5
1CE
330
19A
100
AcDbEntity
  8
LAY-10
  6
CONTINUOUS
 62
     4
100
AcDbVertex
100
AcDb2dVertex
 10
1842.353885
 20
912.1846733333326
 30
0.0
  0
VERTEX
  5
1CF
330
19A
100
AcDbEntity
  8
LAY-10
  6
CONTINUOUS
 62
     4
100
AcDbVertex
100
AcDb2dVertex
 10
1842.978274999999
 20
911.2880649999988
 30
0.0
  0
VERTEX
  5
1D0
330
19A
100
AcDbEntity
  8
LAY-10
  6
CONTINUOUS
 62
     4
100
AcDbVertex
100
AcDb2dVertex
 10
1843.492495
 20
910.4577983333327
 30
0.0
  0
VERTEX
  5
1D1
330
19A
100
AcDbEntity
  8
LAY-10
  6
CONTINUOUS
 62
     4
100
AcDbVertex
100
AcDb2dVertex
 10
1843.960940000001
 20
909.6012649999989
 30
0.0
  0
VERTEX
  5
1D2
330
19A
100
AcDbEntity
  8
LAY-10
  6
CONTINUOUS
 62
     4
100
AcDbVertex
100
AcDb2dVertex
 10
1844.346070000001
 20
908.7947816666658
 30
0.0
  0
VERTEX
  5
1D3
330
19A
100
AcDbEntity
  8
LAY-10
  6
CONTINUOUS
 62
     4
100
AcDbVertex
100
AcDb2dVertex
 10
1844.68756
 20
907.9646983333325
 30
0.0
  0
VERTEX
  5
1D4
330
19A
100
AcDbEntity
  8
LAY-10
  6
CONTINUOUS
 62
     4
100
AcDbVertex
100
AcDb2dVertex
 10
1844.96405
 20
907.1718816666657
 30
0.0
  0
VERTEX
  5
1D5
330
19A
100
AcDbEntity
  8
LAY-10
  6
CONTINUOUS
 62
     4
100
AcDbVertex
100
AcDb2dVertex
 10
1845.199340000001
 20
906.3568399999991
 30
0.0
  0
VERTEX
  5
1D6
330
19A
100
AcDbEntity
  8
LAY-10
  6
CONTINUOUS
 62
     4
100
AcDbVertex
100
AcDb2dVertex
 10
1845.381835
 20
905.5666566666656
 30
0.0
  0
VERTEX
  5
1D7
330
19A
100
AcDbEntity
  8
LAY-10
  6
CONTINUOUS
 62
     4
100
AcDbVertex
100
AcDb2dVertex
 10
1845.52466
 20
904.7554899999986
 30
0.0
  0
VERTEX
  5
1D8
330
19A
100
AcDbEntity
  8
LAY-10
  6
CONTINUOUS
 62
     4
100
AcDbVertex
100
AcDb2dVertex
 10
1845.669315000001
 20
903.3445649999987
 30
0.0
  0
VERTEX
  5
1D9
330
19A
100
AcDbEntity
  8
LAY-10
  6
CONTINUOUS
 62
     4
100
AcDbVertex
100
AcDb2dVertex
 10
1845.68671
 20
901.6923233333321
 30
0.0
  0
VERTEX
  5
1DA
330
19A
100
AcDbEntity
  8
LAY-10
  6
CONTINUOUS
 62
     4
100
AcDbVertex
100
AcDb2dVertex
 10
1845.546935
 20
899.8734733333322
 30
0.0
  0
VERTEX
  5
1DB
330
19A
100
AcDbEntity
  8
LAY-10
  6
CONTINUOUS
 62
     4
100
AcDbVertex
100
AcDb2dVertex
 10
1845.233520000001
 20
897.878639999999
 30
0.0
  0
VERTEX
  5
1DC
330
19A
100
AcDbEntity
  8
LAY-10
  6
CONTINUOUS
 62
     4
100
AcDbVertex
100
AcDb2dVertex
 10
1844.728455000001
 20
895.7092566666649
 30
0.0
  0
VERTEX
  5
1DD
330
19A
100
AcDbEntity
  8
LAY-10
  6
CONTINUOUS
 62
     4
100
AcDbVertex
100
AcDb2dVertex
 10
1844.01709
 20
893.3826066666654
 30
0.0
  0
VERTEX
  5
1DE
330
19A
100
AcDbEntity
  8
LAY-10
  6
CONTINUOUS
 62
     4
100
AcDbVertex
100
AcDb2dVertex
 10
1843.092714999999
 20
890.9395816666648
 30
0.0
  0
VERTEX
  5
1DF
330
19A
100
AcDbEntity
  8
LAY-10
  6
CONTINUOUS
 62
     4
100
AcDbVertex
100
AcDb2dVertex
 10
1841.964175
 20
888.4489316666653
 30
0.0
  0
VERTEX
  5
1E0
330
19A
100
AcDbEntity
  8
LAY-10
  6
CONTINUOUS
 62
     4
100
AcDbVertex
100
AcDb2dVertex
 10
1840.660770000001
 20
886.008323333332
 30
0.0
  0
VERTEX
  5
1E1
330
19A
100
AcDbEntity
  8
LAY-10
  6
CONTINUOUS
 62
     4
100
AcDbVertex
100
AcDb2dVertex
 10
1839.424805
 20
884.015931666665
 30
0.0
  0
VERTEX
  5
1E2
330
19A
100
AcDbEntity
  8
LAY-10
  6
CONTINUOUS
 62
     4
100
AcDbVertex
100
AcDb2dVertex
 10
1837.94806
 20
881.975139999998
 30
0.0
  0
VERTEX
  5
1E3
330
19A
100
AcDbEntity
  8
LAY-10
  6
CONTINUOUS
 62
     4
100
AcDbVertex
100
AcDb2dVertex
 10
1836.391665
 20
880.1634066666647
 30
0.0
  0
VERTEX
  5
1E4
330
19A
100
AcDbEntity
  8
LAY-10
  6
CONTINUOUS
 62
     4
100
AcDbVertex
100
AcDb2dVertex
 10
1834.75104
 20
878.5724233333312
 30
0.0
  0
VERTEX
  5
1E5
330
19A
100
AcDbEntity
  8
LAY-10
  6
CONTINUOUS
 62
     4
100
AcDbVertex
100
AcDb2dVertex
 10
1833.02069
 20
877.1964983333311
 30
0.0
  0
VERTEX
  5
1E6
330
19A
100
AcDbEntity
  8
LAY-10
  6
CONTINUOUS
 62
     4
100
AcDbVertex
100
AcDb2dVertex
 10
1831.193605
 20
876.0333649999984
 30
0.0
  0
VERTEX
  5
1E7
330
19A
100
AcDbEntity
  8
LAY-10
  6
CONTINUOUS
 62
     4
100
AcDbVertex
100
AcDb2dVertex
 10
1829.26245
 20
875.0832483333318
 30
0.0
  0
VERTEX
  5
1E8
330
19A
100
AcDbEntity
  8
LAY-10
  6
CONTINUOUS
 62
     4
100
AcDbVertex
100
AcDb2dVertex
 10
1827.218385
 20
874.3495899999984
 30
0.0
  0
VERTEX
  5
1E9
330
19A
100
AcDbEntity
  8
LAY-10
  6
CONTINUOUS
 62
     4
100
AcDbVertex
100
AcDb2dVertex
 10
1825.05133
 20
873.8381316666653
 30
0.0
  0
VERTEX
  5
1EA
330
19A
100
AcDbEntity
  8
LAY-10
  6
CONTINUOUS
 62
     4
100
AcDbVertex
100
AcDb2dVertex
 10
1823.367065
 20
873.6082316666649
 30
0.0
  0
SEQEND
  5
1EB
330
19A
100
AcDbEntity
  8
LAY-10
  6
CONTINUOUS
 62
     4
  0
POLYLINE
  5
1EC
330
1F
100
AcDbEntity
  8
LAY-10
  6
CONTINUOUS
 62
     4
100
AcDb2dPolyline
 66
     1
 10
0.0
 20
0.0
 30
0.0
 70
   128
  0
VERTEX
  5
1ED
330
1EC
100
AcDbEntity
  8
LAY-10
  6
CONTINUOUS
 62
     4
100
AcDbVertex
100
AcDb2dVertex
 10
1866.77008
 20
872.1214233333319
 30
0.0
  0
VERTEX
  5
1EE
330
1EC
100
AcDbEntity
  8
LAY-10
  6
CONTINUOUS
 62
     4
100
AcDbVertex
100
AcDb2dVertex
 10
1864.882265
 20
874.5221399999978
 30
0.0
  0
VERTEX
  5
1EF
330
1EC
100
AcDbEntity
  8
LAY-10
  6
CONTINUOUS
 62
     4
100
AcDbVertex
100
AcDb2dVertex
 10
1863.056705
 20
877.1734816666647
 30
0.0
  0
VERTEX
  5
1F0
330
1EC
100
AcDbEntity
  8
LAY-10
  6
CONTINUOUS
 62
     4
100
AcDbVertex
100
AcDb2dVertex
 10
1861.26532
 20
880.1218899999977
 30
0.0
  0
VERTEX
  5
1F1
330
1EC
100
AcDbEntity
  8
LAY-10
  6
CONTINUOUS
 62
     4
100
AcDbVertex
100
AcDb2dVertex
 10
1859.479735
 20
883.4271649999984
 30
0.0
  0
VERTEX
  5
1F2
330
1EC
100
AcDbEntity
  8
LAY-10
  6
CONTINUOUS
 62
     4
100
AcDbVertex
100
AcDb2dVertex
 10
1857.663329999999
 20
887.1779733333319
 30
0.0
  0
VERTEX
  5
1F3
330
1EC
100
AcDbEntity
  8
LAY-10
  6
CONTINUOUS
 62
     4
100
AcDbVertex
100
AcDb2dVertex
 10
1855.761475000001
 20
891.514514999998
 30
0.0
  0
VERTEX
  5
1F4
330
1EC
100
AcDbEntity
  8
LAY-10
  6
CONTINUOUS
 62
     4
100
AcDbVertex
100
AcDb2dVertex
 10
1855.172790000001
 20
892.9368233333321
 30
0.0
  0
VERTEX
  5
1F5
330
1EC
100
AcDbEntity
  8
LAY-10
  6
CONTINUOUS
 62
     4
100
AcDbVertex
100
AcDb2dVertex
 10
1854.105895000001
 20
895.634581666665
 30
0.0
  0
VERTEX
  5
1F6
330
1EC
100
AcDbEntity
  8
LAY-10
  6
CONTINUOUS
 62
     4
100
AcDbVertex
100
AcDb2dVertex
 10
1853.133300000001
 20
898.3947983333318
 30
0.0
  0
VERTEX
  5
1F7
330
1EC
100
AcDbEntity
  8
LAY-10
  6
CONTINUOUS
 62
     4
100
AcDbVertex
100
AcDb2dVertex
 10
1852.71521
 20
899.766056666665
 30
0.0
  0
VERTEX
  5
1F8
330
1EC
100
AcDbEntity
  8
LAY-10
  6
CONTINUOUS
 62
     4
100
AcDbVertex
100
AcDb2dVertex
 10
1852.349000000001
 20
901.1440233333323
 30
0.0
  0
VERTEX
  5
1F9
330
1EC
100
AcDbEntity
  8
LAY-10
  6
CONTINUOUS
 62
     4
100
AcDbVertex
100
AcDb2dVertex
 10
1852.091429999999
 20
902.2917066666652
 30
0.0
  0
VERTEX
  5
1FA
330
1EC
100
AcDbEntity
  8
LAY-10
  6
CONTINUOUS
 62
     4
100
AcDbVertex
100
AcDb2dVertex
 10
1851.881775000001
 20
903.4405983333321
 30
0.0
  0
VERTEX
  5
1FB
330
1EC
100
AcDbEntity
  8
LAY-10
  6
CONTINUOUS
 62
     4
100
AcDbVertex
100
AcDb2dVertex
 10
1851.7417
 20
904.4509149999983
 30
0.0
  0
VERTEX
  5
1FC
330
1EC
100
AcDbEntity
  8
LAY-10
  6
CONTINUOUS
 62
     4
100
AcDbVertex
100
AcDb2dVertex
 10
1851.64679
 20
905.4596233333325
 30
0.0
  0
VERTEX
  5
1FD
330
1EC
100
AcDbEntity
  8
LAY-10
  6
CONTINUOUS
 62
     4
100
AcDbVertex
100
AcDb2dVertex
 10
1851.60437
 20
906.3181816666657
 30
0.0
  0
VERTEX
  5
1FE
330
1EC
100
AcDbEntity
  8
LAY-10
  6
CONTINUOUS
 62
     4
100
AcDbVertex
100
AcDb2dVertex
 10
1851.634889999999
 20
908.0737649999986
 30
0.0
  0
VERTEX
  5
1FF
330
1EC
100
AcDbEntity
  8
LAY-10
  6
CONTINUOUS
 62
     4
100
AcDbVertex
100
AcDb2dVertex
 10
1851.823485
 20
909.8625149999987
 30
0.0
  0
VERTEX
  5
200
330
1EC
100
AcDbEntity
  8
LAY-10
  6
CONTINUOUS
 62
     4
100
AcDbVertex
100
AcDb2dVertex
 10
1852.17749
 20
911.6911149999987
 30
0.0
  0
VERTEX
  5
201
330
1EC
100
AcDbEntity
  8
LAY-10
  6
CONTINUOUS
 62
     4
100
AcDbVertex
100
AcDb2dVertex
 10
1852.706665
 20
913.5626733333323
 30
0.0
  0
VERTEX
  5
202
330
1EC
100
AcDbEntity
  8
LAY-10
  6
CONTINUOUS
 62
     4
100
AcDbVertex
100
AcDb2dVertex
 10
1853.422305000001
 20
915.4734566666656
 30
0.0
  0
VERTEX
  5
203
330
1EC
100
AcDbEntity
  8
LAY-10
  6
CONTINUOUS
 62
     4
100
AcDbVertex
100
AcDb2dVertex
 10
1854.336
 20
917.4121483333327
 30
0.0
  0
VERTEX
  5
204
330
1EC
100
AcDbEntity
  8
LAY-10
  6
CONTINUOUS
 62
     4
100
AcDbVertex
100
AcDb2dVertex
 10
1855.455080000001
 20
919.3581483333327
 30
0.0
  0
VERTEX
  5
205
330
1EC
100
AcDbEntity
  8
LAY-10
  6
CONTINUOUS
 62
     4
100
AcDbVertex
100
AcDb2dVertex
 10
1856.779845
 20
921.2795483333323
 30
0.0
  0
VERTEX
  5
206
330
1EC
100
AcDbEntity
  8
LAY-10
  6
CONTINUOUS
 62
     4
100
AcDbVertex
100
AcDb2dVertex
 10
1858.300235000001
 20
923.1341899999995
 30
0.0
  0
VERTEX
  5
207
330
1EC
100
AcDbEntity
  8
LAY-10
  6
CONTINUOUS
 62
     4
100
AcDbVertex
100
AcDb2dVertex
 10
1859.99213
 20
924.8700399999985
 30
0.0
  0
VERTEX
  5
208
330
1EC
100
AcDbEntity
  8
LAY-10
  6
CONTINUOUS
 62
     4
100
AcDbVertex
100
AcDb2dVertex
 10
1861.815555
 20
926.4300899999992
 30
0.0
  0
VERTEX
  5
209
330
1EC
100
AcDbEntity
  8
LAY-10
  6
CONTINUOUS
 62
     4
100
AcDbVertex
100
AcDb2dVertex
 10
1862.760985
 20
927.1269066666658
 30
0.0
  0
VERTEX
  5
20A
330
1EC
100
AcDbEntity
  8
LAY-10
  6
CONTINUOUS
 62
     4
100
AcDbVertex
100
AcDb2dVertex
 10
1863.7168
 20
927.7588149999991
 30
0.0
  0
VERTEX
  5
20B
330
1EC
100
AcDbEntity
  8
LAY-10
  6
CONTINUOUS
 62
     4
100
AcDbVertex
100
AcDb2dVertex
 10
1864.674134999999
 20
928.3199566666656
 30
0.0
  0
VERTEX
  5
20C
330
1EC
100
AcDbEntity
  8
LAY-10
  6
CONTINUOUS
 62
     4
100
AcDbVertex
100
AcDb2dVertex
 10
1865.633605
 20
928.8108733333328
 30
0.0
  0
VERTEX
  5
20D
330
1EC
100
AcDbEntity
  8
LAY-10
  6
CONTINUOUS
 62
     4
100
AcDbVertex
100
AcDb2dVertex
 10
1866.571715
 20
929.2206066666662
 30
0.0
  0
VERTEX
  5
20E
330
1EC
100
AcDbEntity
  8
LAY-10
  6
CONTINUOUS
 62
     4
100
AcDbVertex
100
AcDb2dVertex
 10
1867.503725
 20
929.5575399999987
 30
0.0
  0
VERTEX
  5
20F
330
1EC
100
AcDbEntity
  8
LAY-10
  6
CONTINUOUS
 62
     4
100
AcDbVertex
100
AcDb2dVertex
 10
1868.395145000001
 20
929.8106149999992
 30
0.0
  0
VERTEX
  5
210
330
1EC
100
AcDbEntity
  8
LAY-10
  6
CONTINUOUS
 62
     4
100
AcDbVertex
100
AcDb2dVertex
 10
1869.273440000001
 20
929.9904733333324
 30
0.0
  0
VERTEX
  5
211
330
1EC
100
AcDbEntity
  8
LAY-10
  6
CONTINUOUS
 62
     4
100
AcDbVertex
100
AcDb2dVertex
 10
1870.338499999999
 20
930.1072733333331
 30
0.0
  0
VERTEX
  5
212
330
1EC
100
AcDbEntity
  8
LAY-10
  6
CONTINUOUS
 62
     4
100
AcDbVertex
100
AcDb2dVertex
 10
1871.872620000001
 20
930.0614899999996
 30
0.0
  0
VERTEX
  5
213
330
1EC
100
AcDbEntity
  8
LAY-10
  6
CONTINUOUS
 62
     4
100
AcDbVertex
100
AcDb2dVertex
 10
1873.412844999999
 20
929.7587316666661
 30
0.0
  0
VERTEX
  5
214
330
1EC
100
AcDbEntity
  8
LAY-10
  6
CONTINUOUS
 62
     4
100
AcDbVertex
100
AcDb2dVertex
 10
1875.012880000001
 20
929.187039999999
 30
0.0
  0
VERTEX
  5
215
330
1EC
100
AcDbEntity
  8
LAY-10
  6
CONTINUOUS
 62
     4
100
AcDbVertex
100
AcDb2dVertex
 10
1876.756045
 20
928.3059066666658
 30
0.0
  0
VERTEX
  5
216
330
1EC
100
AcDbEntity
  8
LAY-10
  6
CONTINUOUS
 62
     4
100
AcDbVertex
100
AcDb2dVertex
 10
1878.808654999999
 20
927.0125649999989
 30
0.0
  0
VERTEX
  5
217
330
1EC
100
AcDbEntity
  8
LAY-10
  6
CONTINUOUS
 62
     4
100
AcDbVertex
100
AcDb2dVertex
 10
1881.714235000001
 20
924.9542483333324
 30
0.0
  0
VERTEX
  5
218
330
1EC
100
AcDbEntity
  8
LAY-10
  6
CONTINUOUS
 62
     4
100
AcDbVertex
100
AcDb2dVertex
 10
1882.827515
 20
924.1599983333322
 30
0.0
  0
VERTEX
  5
219
330
1EC
100
AcDbEntity
  8
LAY-10
  6
CONTINUOUS
 62
     4
100
AcDbVertex
100
AcDb2dVertex
 10
1887.023990000001
 20
921.2695733333319
 30
0.0
  0
VERTEX
  5
21A
330
1EC
100
AcDbEntity
  8
LAY-10
  6
CONTINUOUS
 62
     4
100
AcDbVertex
100
AcDb2dVertex
 10
1889.90454
 20
919.2224399999992
 30
0.0
  0
VERTEX
  5
21B
330
1EC
100
AcDbEntity
  8
LAY-10
  6
CONTINUOUS
 62
     4
100
AcDbVertex
100
AcDb2dVertex
 10
1892.685305
 20
917.0377983333324
 30
0.0
  0
VERTEX
  5
21C
330
1EC
100
AcDbEntity
  8
LAY-10
  6
CONTINUOUS
 62
     4
100
AcDbVertex
100
AcDb2dVertex
 10
1893.85901
 20
916.0073233333325
 30
0.0
  0
VERTEX
  5
21D
330
1EC
100
AcDbEntity
  8
LAY-10
  6
CONTINUOUS
 62
     4
100
AcDbVertex
100
AcDb2dVertex
 10
1894.976565000001
 20
914.9355483333318
 30
0.0
  0
VERTEX
  5
21E
330
1EC
100
AcDbEntity
  8
LAY-10
  6
CONTINUOUS
 62
     4
100
AcDbVertex
100
AcDb2dVertex
 10
1895.854860000001
 20
914.0106483333325
 30
0.0
  0
VERTEX
  5
21F
330
1EC
100
AcDbEntity
  8
LAY-10
  6
CONTINUOUS
 62
     4
100
AcDbVertex
100
AcDb2dVertex
 10
1896.680665
 20
913.0519816666657
 30
0.0
  0
VERTEX
  5
220
330
1EC
100
AcDbEntity
  8
LAY-10
  6
CONTINUOUS
 62
     4
100
AcDbVertex
100
AcDb2dVertex
 10
1897.353885
 20
912.1846733333326
 30
0.0
  0
VERTEX
  5
221
330
1EC
100
AcDbEntity
  8
LAY-10
  6
CONTINUOUS
 62
     4
100
AcDbVertex
100
AcDb2dVertex
 10
1897.978274999999
 20
911.2880649999988
 30
0.0
  0
VERTEX
  5
222
330
1EC
100
AcDbEntity
  8
LAY-10
  6
CONTINUOUS
 62
     4
100
AcDbVertex
100
AcDb2dVertex
 10
1898.492495
 20
910.4577983333327
 30
0.0
  0
VERTEX
  5
223
330
1EC
100
AcDbEntity
  8
LAY-10
  6
CONTINUOUS
 62
     4
100
AcDbVertex
100
AcDb2dVertex
 10
1898.960940000001
 20
909.6012649999989
 30
0.0
  0
VERTEX
  5
224
330
1EC
100
AcDbEntity
  8
LAY-10
  6
CONTINUOUS
 62
     4
100
AcDbVertex
100
AcDb2dVertex
 10
1899.346070000001
 20
908.7947816666658
 30
0.0
  0
VERTEX
  5
225
330
1EC
100
AcDbEntity
  8
LAY-10
  6
CONTINUOUS
 62
     4
100
AcDbVertex
100
AcDb2dVertex
 10
1899.68756
 20
907.9646983333325
 30
0.0
  0
VERTEX
  5
226
330
1EC
100
AcDbEntity
  8
LAY-10
  6
CONTINUOUS
 62
     4
100
AcDbVertex
100
AcDb2dVertex
 10
1899.96405
 20
907.1718816666657
 30
0.0
  0
VERTEX
  5
227
330
1EC
100
AcDbEntity
  8
LAY-10
  6
CONTINUOUS
 62
     4
100
AcDbVertex
100
AcDb2dVertex
 10
1900.199340000001
 20
906.3568399999991
 30
0.0
  0
VERTEX
  5
228
330
1EC
100
AcDbEntity
  8
LAY-10
  6
CONTINUOUS
 62
     4
100
AcDbVertex
100
AcDb2dVertex
 10
1900.381835
 20
905.5666566666656
 30
0.0
  0
VERTEX
  5
229
330
1EC
100
AcDbEntity
  8
LAY-10
  6
CONTINUOUS
 62
     4
100
AcDbVertex
100
AcDb2dVertex
 10
1900.52466
 20
904.7554899999986
 30
0.0
  0
VERTEX
  5
22A
330
1EC
100
AcDbEntity
  8
LAY-10
  6
CONTINUOUS
 62
     4
100
AcDbVertex
100
AcDb2dVertex
 10
1900.669315000001
 20
903.3445649999987
 30
0.0
  0
VERTEX
  5
22B
330
1EC
100
AcDbEntity
  8
LAY-10
  6
CONTINUOUS
 62
     4
100
AcDbVertex
100
AcDb2dVertex
 10
1900.68671
 20
901.6923233333321
 30
0.0
  0
VERTEX
  5
22C
330
1EC
100
AcDbEntity
  8
LAY-10
  6
CONTINUOUS
 62
     4
100
AcDbVertex
100
AcDb2dVertex
 10
1900.546935
 20
899.8734733333322
 30
0.0
  0
VERTEX
  5
22D
330
1EC
100
AcDbEntity
  8
LAY-10
  6
CONTINUOUS
 62
     4
100
AcDbVertex
100
AcDb2dVertex
 10
1900.233520000001
 20
897.878639999999
 30
0.0
  0
VERTEX
  5
22E
330
1EC
100
AcDbEntity
  8
LAY-10
  6
CONTINUOUS
 62
     4
100
AcDbVertex
100
AcDb2dVertex
 10
1899.728455000001
 20
895.7092566666649
 30
0.0
  0
VERTEX
  5
22F
330
1EC
100
AcDbEntity
  8
LAY-10
  6
CONTINUOUS
 62
     4
100
AcDbVertex
100
AcDb2dVertex
 10
1899.01709
 20
893.3826066666654
 30
0.0
  0
VERTEX
  5
230
330
1EC
100
AcDbEntity
  8
LAY-10
  6
CONTINUOUS
 62
     4
100
AcDbVertex
100
AcDb2dVertex
 10
1898.092714999999
 20
890.9395816666648
 30
0.0
  0
VERTEX
  5
231
330
1EC
100
AcDbEntity
  8
LAY-10
  6
CONTINUOUS
 62
     4
100
AcDbVertex
100
AcDb2dVertex
 10
1896.964175
 20
888.4489316666653
 30
0.0
  0
VERTEX
  5
232
330
1EC
100
AcDbEntity
  8
LAY-10
  6
CONTINUOUS
 62
     4
100
AcDbVertex
100
AcDb2dVertex
 10
1895.660770000001
 20
886.008323333332
 30
0.0
  0
VERTEX
  5
233
330
1EC
100
AcDbEntity
  8
LAY-10
  6
CONTINUOUS
 62
     4
100
AcDbVertex
100
AcDb2dVertex
 10
1894.424805
 20
884.015931666665
 30
0.0
  0
VERTEX
  5
234
330
1EC
100
AcDbEntity
  8
LAY-10
  6
CONTINUOUS
 62
     4
100
AcDbVertex
100
AcDb2dVertex
 10
1892.94806
 20
881.975139999998
 30
0.0
  0
VERTEX
  5
235
330
1EC
100
AcDbEntity
  8
LAY-10
  6
CONTINUOUS
 62
     4
100
AcDbVertex
100
AcDb2dVertex
 10
1891.391665
 20
880.1634066666647
 30
0.0
  0
VERTEX
  5
236
330
1EC
100
AcDbEntity
  8
LAY-10
  6
CONTINUOUS
 62
     4
100
AcDbVertex
100
AcDb2dVertex
 10
1889.75104
 20
878.5724233333312
 30
0.0
  0
VERTEX
  5
237
330
1EC
100
AcDbEntity
  8
LAY-10
  6
CONTINUOUS
 62
     4
100
AcDbVertex
100
AcDb2dVertex
 10
1888.02069
 20
877.1964983333311
 30
0.0
  0
VERTEX
  5
238
330
1EC
100
AcDbEntity
  8
LAY-10
  6
CONTINUOUS
 62
     4
100
AcDbVertex
100
AcDb2dVertex
 10
1886.193605
 20
876.0333649999984
 30
0.0
  0
VERTEX
  5
239
330
1EC
100
AcDbEntity
  8
LAY-10
  6
CONTINUOUS
 62
     4
100
AcDbVertex
100
AcDb2dVertex
 10
1884.26245
 20
875.0832483333318
 30
0.0
  0
VERTEX
  5
23A
330
1EC
100
AcDbEntity
  8
LAY-10
  6
CONTINUOUS
 62
     4
100
AcDbVertex
100
AcDb2dVertex
 10
1882.218385
 20
874.3495899999984
 30
0.0
  0
VERTEX
  5
23B
330
1EC
100
AcDbEntity
  8
LAY-10
  6
CONTINUOUS
 62
     4
100
AcDbVertex
100
AcDb2dVertex
 10
1880.05133
 20
873.8381316666653
 30
0.0
  0
VERTEX
  5
23C
330
1EC
100
AcDbEntity
  8
LAY-10
  6
CONTINUOUS
 62
     4
100
AcDbVertex
100
AcDb2dVertex
 10
1878.367065
 20
873.6082316666649
 30
0.0
  0
SEQEND
  5
23D
330
1EC
100
AcDbEntity
  8
LAY-10
  6
CONTINUOUS
 62
     4
  0
POLYLINE
  5
23E
330
1F
100
AcDbEntity
  8
LAY-10
  6
CONTINUOUS
 62
     4
100
AcDb2dPolyline
 66
     1
 10
0.0
 20
0.0
 30
0.0
 70
   128
  0
VERTEX
  5
23F
330
23E
100
AcDbEntity
  8
LAY-10
  6
CONTINUOUS
 62
     4
100
AcDbVertex
100
AcDb2dVertex
 10
1921.77008
 20
872.1214233333319
 30
0.0
  0
VERTEX
  5
240
330
23E
100
AcDbEntity
  8
LAY-10
  6
CONTINUOUS
 62
     4
100
AcDbVertex
100
AcDb2dVertex
 10
1919.882265
 20
874.5221399999978
 30
0.0
  0
VERTEX
  5
241
330
23E
100
AcDbEntity
  8
LAY-10
  6
CONTINUOUS
 62
     4
100
AcDbVertex
100
AcDb2dVertex
 10
1918.056705
 20
877.1734816666647
 30
0.0
  0
VERTEX
  5
242
330
23E
100
AcDbEntity
  8
LAY-10
  6
CONTINUOUS
 62
     4
100
AcDbVertex
100
AcDb2dVertex
 10
1916.26532
 20
880.1218899999977
 30
0.0
  0
VERTEX
  5
243
330
23E
100
AcDbEntity
  8
LAY-10
  6
CONTINUOUS
 62
     4
100
AcDbVertex
100
AcDb2dVertex
 10
1914.479735
 20
883.4271649999984
 30
0.0
  0
VERTEX
  5
244
330
23E
100
AcDbEntity
  8
LAY-10
  6
CONTINUOUS
 62
     4
100
AcDbVertex
100
AcDb2dVertex
 10
1912.663329999999
 20
887.1779733333319
 30
0.0
  0
VERTEX
  5
245
330
23E
100
AcDbEntity
  8
LAY-10
  6
CONTINUOUS
 62
     4
100
AcDbVertex
100
AcDb2dVertex
 10
1910.761475000001
 20
891.514514999998
 30
0.0
  0
VERTEX
  5
246
330
23E
100
AcDbEntity
  8
LAY-10
  6
CONTINUOUS
 62
     4
100
AcDbVertex
100
AcDb2dVertex
 10
1910.172790000001
 20
892.9368233333321
 30
0.0
  0
VERTEX
  5
247
330
23E
100
AcDbEntity
  8
LAY-10
  6
CONTINUOUS
 62
     4
100
AcDbVertex
100
AcDb2dVertex
 10
1909.105895000001
 20
895.634581666665
 30
0.0
  0
VERTEX
  5
248
330
23E
100
AcDbEntity
  8
LAY-10
  6
CONTINUOUS
 62
     4
100
AcDbVertex
100
AcDb2dVertex
 10
1908.133300000001
 20
898.3947983333318
 30
0.0
  0
VERTEX
  5
249
330
23E
100
AcDbEntity
  8
LAY-10
  6
CONTINUOUS
 62
     4
100
AcDbVertex
100
AcDb2dVertex
 10
1907.71521
 20
899.766056666665
 30
0.0
  0
VERTEX
  5
24A
330
23E
100
AcDbEntity
  8
LAY-10
  6
CONTINUOUS
 62
     4
100
AcDbVertex
100
AcDb2dVertex
 10
1907.349000000001
 20
901.1440233333323
 30
0.0
  0
VERTEX
  5
24B
330
23E
100
AcDbEntity
  8
LAY-10
  6
CONTINUOUS
 62
     4
100
AcDbVertex
100
AcDb2dVertex
 10
1907.091429999999
 20
902.2917066666652
 30
0.0
  0
VERTEX
  5
24C
330
23E
100
AcDbEntity
  8
LAY-10
  6
CONTINUOUS
 62
     4
100
AcDbVertex
100
AcDb2dVertex
 10
1906.881775000001
 20
903.4405983333321
 30
0.0
  0
VERTEX
  5
24D
330
23E
100
AcDbEntity
  8
LAY-10
  6
CONTINUOUS
 62
     4
100
AcDbVertex
100
AcDb2dVertex
 10
1906.7417
 20
904.4509149999983
 30
0.0
  0
VERTEX
  5
24E
330
23E
100
AcDbEntity
  8
LAY-10
  6
CONTINUOUS
 62
     4
100
AcDbVertex
100
AcDb2dVertex
 10
1906.64679
 20
905.4596233333325
 30
0.0
  0
VERTEX
  5
24F
330
23E
100
AcDbEntity
  8
LAY-10
  6
CONTINUOUS
 62
     4
100
AcDbVertex
100
AcDb2dVertex
 10
1906.60437
 20
906.3181816666657
 30
0.0
  0
VERTEX
  5
250
330
23E
100
AcDbEntity
  8
LAY-10
  6
CONTINUOUS
 62
     4
100
AcDbVertex
100
AcDb2dVertex
 10
1906.634889999999
 20
908.0737649999986
 30
0.0
  0
VERTEX
  5
251
330
23E
100
AcDbEntity
  8
LAY-10
  6
CONTINUOUS
 62
     4
100
AcDbVertex
100
AcDb2dVertex
 10
1906.823485
 20
909.8625149999987
 30
0.0
  0
VERTEX
  5
252
330
23E
100
AcDbEntity
  8
LAY-10
  6
CONTINUOUS
 62
     4
100
AcDbVertex
100
AcDb2dVertex
 10
1907.17749
 20
911.6911149999987
 30
0.0
  0
VERTEX
  5
253
330
23E
100
AcDbEntity
  8
LAY-10
  6
CONTINUOUS
 62
     4
100
AcDbVertex
100
AcDb2dVertex
 10
1907.706665
 20
913.5626733333323
 30
0.0
  0
VERTEX
  5
254
330
23E
100
AcDbEntity
  8
LAY-10
  6
CONTINUOUS
 62
     4
100
AcDbVertex
100
AcDb2dVertex
 10
1908.422305000001
 20
915.4734566666656
 30
0.0
  0
VERTEX
  5
255
330
23E
100
AcDbEntity
  8
LAY-10
  6
CONTINUOUS
 62
     4
100
AcDbVertex
100
AcDb2dVertex
 10
1909.336
 20
917.4121483333327
 30
0.0
  0
VERTEX
  5
256
330
23E
100
AcDbEntity
  8
LAY-10
  6
CONTINUOUS
 62
     4
100
AcDbVertex
100
AcDb2dVertex
 10
1910.455080000001
 20
919.3581483333327
 30
0.0
  0
VERTEX
  5
257
330
23E
100
AcDbEntity
  8
LAY-10
  6
CONTINUOUS
 62
     4
100
AcDbVertex
100
AcDb2dVertex
 10
1911.779845
 20
921.2795483333323
 30
0.0
  0
VERTEX
  5
258
330
23E
100
AcDbEntity
  8
LAY-10
  6
CONTINUOUS
 62
     4
100
AcDbVertex
100
AcDb2dVertex
 10
1913.300235000001
 20
923.1341899999995
 30
0.0
  0
VERTEX
  5
259
330
23E
100
AcDbEntity
  8
LAY-10
  6
CONTINUOUS
 62
     4
100
AcDbVertex
100
AcDb2dVertex
 10
1914.99213
 20
924.8700399999985
 30
0.0
  0
VERTEX
  5
25A
330
23E
100
AcDbEntity
  8
LAY-10
  6
CONTINUOUS
 62
     4
100
AcDbVertex
100
AcDb2dVertex
 10
1916.815555
 20
926.4300899999992
 30
0.0
  0
VERTEX
  5
25B
330
23E
100
AcDbEntity
  8
LAY-10
  6
CONTINUOUS
 62
     4
100
AcDbVertex
100
AcDb2dVertex
 10
1917.760985
 20
927.1269066666658
 30
0.0
  0
VERTEX
  5
25C
330
23E
100
AcDbEntity
  8
LAY-10
  6
CONTINUOUS
 62
     4
100
AcDbVertex
100
AcDb2dVertex
 10
1918.7168
 20
927.7588149999991
 30
0.0
  0
VERTEX
  5
25D
330
23E
100
AcDbEntity
  8
LAY-10
  6
CONTINUOUS
 62
     4
100
AcDbVertex
100
AcDb2dVertex
 10
1919.674134999999
 20
928.3199566666656
 30
0.0
  0
VERTEX
  5
25E
330
23E
100
AcDbEntity
  8
LAY-10
  6
CONTINUOUS
 62
     4
100
AcDbVertex
100
AcDb2dVertex
 10
1920.633605
 20
928.8108733333328
 30
0.0
  0
VERTEX
  5
25F
330
23E
100
AcDbEntity
  8
LAY-10
  6
CONTINUOUS
 62
     4
100
AcDbVertex
100
AcDb2dVertex
 10
1921.571715
 20
929.2206066666662
 30
0.0
  0
VERTEX
  5
260
330
23E
100
AcDbEntity
  8
LAY-10
  6
CONTINUOUS
 62
     4
100
AcDbVertex
100
AcDb2dVertex
 10
1922.503725
 20
929.5575399999987
 30
0.0
  0
VERTEX
  5
261
330
23E
100
AcDbEntity
  8
LAY-10
  6
CONTINUOUS
 62
     4
100
AcDbVertex
100
AcDb2dVertex
 10
1923.395145000001
 20
929.8106149999992
 30
0.0
  0
VERTEX
  5
262
330
23E
100
AcDbEntity
  8
LAY-10
  6
CONTINUOUS
 62
     4
100
AcDbVertex
100
AcDb2dVertex
 10
1924.273440000001
 20
929.9904733333324
 30
0.0
  0
VERTEX
  5
263
330
23E
100
AcDbEntity
  8
LAY-10
  6
CONTINUOUS
 62
     4
100
AcDbVertex
100
AcDb2dVertex
 10
1925.338499999999
 20
930.1072733333331
 30
0.0
  0
VERTEX
  5
264
330
23E
100
AcDbEntity
  8
LAY-10
  6
CONTINUOUS
 62
     4
100
AcDbVertex
100
AcDb2dVertex
 10
1926.872620000001
 20
930.0614899999996
 30
0.0
  0
VERTEX
  5
265
330
23E
100
AcDbEntity
  8
LAY-10
  6
CONTINUOUS
 62
     4
100
AcDbVertex
100
AcDb2dVertex
 10
1928.412844999999
 20
929.7587316666661
 30
0.0
  0
VERTEX
  5
266
330
23E
100
AcDbEntity
  8
LAY-10
  6
CONTINUOUS
 62
     4
100
AcDbVertex
100
AcDb2dVertex
 10
1930.012880000001
 20
929.187039999999
 30
0.0
  0
VERTEX
  5
267
330
23E
100
AcDbEntity
  8
LAY-10
  6
CONTINUOUS
 62
     4
100
AcDbVertex
100
AcDb2dVertex
 10
1931.756045
 20
928.3059066666658
 30
0.0
  0
VERTEX
  5
268
330
23E
100
AcDbEntity
  8
LAY-10
  6
CONTINUOUS
 62
     4
100
AcDbVertex
100
AcDb2dVertex
 10
1933.808654999999
 20
927.0125649999989
 30
0.0
  0
VERTEX
  5
269
330
23E
100
AcDbEntity
  8
LAY-10
  6
CONTINUOUS
 62
     4
100
AcDbVertex
100
AcDb2dVertex
 10
1936.714235000001
 20
924.9542483333324
 30
0.0
  0
VERTEX
  5
26A
330
23E
100
AcDbEntity
  8
LAY-10
  6
CONTINUOUS
 62
     4
100
AcDbVertex
100
AcDb2dVertex
 10
1937.827515
 20
924.1599983333322
 30
0.0
  0
VERTEX
  5
26B
330
23E
100
AcDbEntity
  8
LAY-10
  6
CONTINUOUS
 62
     4
100
AcDbVertex
100
AcDb2dVertex
 10
1942.023990000001
 20
921.2695733333319
 30
0.0
  0
VERTEX
  5
26C
330
23E
100
AcDbEntity
  8
LAY-10
  6
CONTINUOUS
 62
     4
100
AcDbVertex
100
AcDb2dVertex
 10
1944.90454
 20
919.2224399999992
 30
0.0
  0
VERTEX
  5
26D
330
23E
100
AcDbEntity
  8
LAY-10
  6
CONTINUOUS
 62
     4
100
AcDbVertex
100
AcDb2dVertex
 10
1947.685305
 20
917.0377983333324
 30
0.0
  0
VERTEX
  5
26E
330
23E
100
AcDbEntity
  8
LAY-10
  6
CONTINUOUS
 62
     4
100
AcDbVertex
100
AcDb2dVertex
 10
1948.85901
 20
916.0073233333325
 30
0.0
  0
VERTEX
  5
26F
330
23E
100
AcDbEntity
  8
LAY-10
  6
CONTINUOUS
 62
     4
100
AcDbVertex
100
AcDb2dVertex
 10
1949.976565000001
 20
914.9355483333318
 30
0.0
  0
VERTEX
  5
270
330
23E
100
AcDbEntity
  8
LAY-10
  6
CONTINUOUS
 62
     4
100
AcDbVertex
100
AcDb2dVertex
 10
1950.854860000001
 20
914.0106483333325
 30
0.0
  0
VERTEX
  5
271
330
23E
100
AcDbEntity
  8
LAY-10
  6
CONTINUOUS
 62
     4
100
AcDbVertex
100
AcDb2dVertex
 10
1951.680665
 20
913.0519816666657
 30
0.0
  0
VERTEX
  5
272
330
23E
100
AcDbEntity
  8
LAY-10
  6
CONTINUOUS
 62
     4
100
AcDbVertex
100
AcDb2dVertex
 10
1952.353885
 20
912.1846733333326
 30
0.0
  0
VERTEX
  5
273
330
23E
100
AcDbEntity
  8
LAY-10
  6
CONTINUOUS
 62
     4
100
AcDbVertex
100
AcDb2dVertex
 10
1952.978274999999
 20
911.2880649999988
 30
0.0
  0
VERTEX
  5
274
330
23E
100
AcDbEntity
  8
LAY-10
  6
CONTINUOUS
 62
     4
100
AcDbVertex
100
AcDb2dVertex
 10
1953.492495
 20
910.4577983333327
 30
0.0
  0
VERTEX
  5
275
330
23E
100
AcDbEntity
  8
LAY-10
  6
CONTINUOUS
 62
     4
100
AcDbVertex
100
AcDb2dVertex
 10
1953.960940000001
 20
909.6012649999989
 30
0.0
  0
VERTEX
  5
276
330
23E
100
AcDbEntity
  8
LAY-10
  6
CONTINUOUS
 62
     4
100
AcDbVertex
100
AcDb2dVertex
 10
1954.346070000001
 20
908.7947816666658
 30
0.0
  0
VERTEX
  5
277
330
23E
100
AcDbEntity
  8
LAY-10
  6
CONTINUOUS
 62
     4
100
AcDbVertex
100
AcDb2dVertex
 10
1954.68756
 20
907.9646983333325
 30
0.0
  0
VERTEX
  5
278
330
23E
100
AcDbEntity
  8
LAY-10
  6
CONTINUOUS
 62
     4
100
AcDbVertex
100
AcDb2dVertex
 10
1954.96405
 20
907.1718816666657
 30
0.0
  0
VERTEX
  5
279
330
23E
100
AcDbEntity
  8
LAY-10
  6
CONTINUOUS
 62
     4
100
AcDbVertex
100
AcDb2dVertex
 10
1955.199340000001
 20
906.3568399999991
 30
0.0
  0
VERTEX
  5
27A
330
23E
100
AcDbEntity
  8
LAY-10
  6
CONTINUOUS
 62
     4
100
AcDbVertex
100
AcDb2dVertex
 10
1955.381835
 20
905.5666566666656
 30
0.0
  0
VERTEX
  5
27B
330
23E
100
AcDbEntity
  8
LAY-10
  6
CONTINUOUS
 62
     4
100
AcDbVertex
100
AcDb2dVertex
 10
1955.52466
 20
904.7554899999986
 30
0.0
  0
VERTEX
  5
27C
330
23E
100
AcDbEntity
  8
LAY-10
  6
CONTINUOUS
 62
     4
100
AcDbVertex
100
AcDb2dVertex
 10
1955.669315
 20
903.3445649999987
 30
0.0
  0
VERTEX
  5
27D
330
23E
100
AcDbEntity
  8
LAY-10
  6
CONTINUOUS
 62
     4
100
AcDbVertex
100
AcDb2dVertex
 10
1955.68671
 20
901.6923233333321
 30
0.0
  0
VERTEX
  5
27E
330
23E
100
AcDbEntity
  8
LAY-10
  6
CONTINUOUS
 62
     4
100
AcDbVertex
100
AcDb2dVertex
 10
1955.546935
 20
899.8734733333322
 30
0.0
  0
VERTEX
  5
27F
330
23E
100
AcDbEntity
  8
LAY-10
  6
CONTINUOUS
 62
     4
100
AcDbVertex
100
AcDb2dVertex
 10
1955.233520000001
 20
897.878639999999
 30
0.0
  0
VERTEX
  5
280
330
23E
100
AcDbEntity
  8
LAY-10
  6
CONTINUOUS
 62
     4
100
AcDbVertex
100
AcDb2dVertex
 10
1954.728455000001
 20
895.7092566666649
 30
0.0
  0
VERTEX
  5
281
330
23E
100
AcDbEntity
  8
LAY-10
  6
CONTINUOUS
 62
     4
100
AcDbVertex
100
AcDb2dVertex
 10
1954.01709
 20
893.3826066666654
 30
0.0
  0
VERTEX
  5
282
330
23E
100
AcDbEntity
  8
LAY-10
  6
CONTINUOUS
 62
     4
100
AcDbVertex
100
AcDb2dVertex
 10
1953.092714999999
 20
890.9395816666648
 30
0.0
  0
VERTEX
  5
283
330
23E
100
AcDbEntity
  8
LAY-10
  6
CONTINUOUS
 62
     4
100
AcDbVertex
100
AcDb2dVertex
 10
1951.964175
 20
888.4489316666653
 30
0.0
  0
VERTEX
  5
284
330
23E
100
AcDbEntity
  8
LAY-10
  6
CONTINUOUS
 62
     4
100
AcDbVertex
100
AcDb2dVertex
 10
1950.660770000001
 20
886.008323333332
 30
0.0
  0
VERTEX
  5
285
330
23E
100
AcDbEntity
  8
LAY-10
  6
CONTINUOUS
 62
     4
100
AcDbVertex
100
AcDb2dVertex
 10
1949.424805
 20
884.015931666665
 30
0.0
  0
VERTEX
  5
286
330
23E
100
AcDbEntity
  8
LAY-10
  6
CONTINUOUS
 62
     4
100
AcDbVertex
100
AcDb2dVertex
 10
1947.94806
 20
881.975139999998
 30
0.0
  0
VERTEX
  5
287
330
23E
100
AcDbEntity
  8
LAY-10
  6
CONTINUOUS
 62
     4
100
AcDbVertex
100
AcDb2dVertex
 10
1946.391665
 20
880.1634066666647
 30
0.0
  0
VERTEX
  5
288
330
23E
100
AcDbEntity
  8
LAY-10
  6
CONTINUOUS
 62
     4
100
AcDbVertex
100
AcDb2dVertex
 10
1944.75104
 20
878.5724233333312
 30
0.0
  0
VERTEX
  5
289
330
23E
100
AcDbEntity
  8
LAY-10
  6
CONTINUOUS
 62
     4
100
AcDbVertex
100
AcDb2dVertex
 10
1943.02069
 20
877.1964983333311
 30
0.0
  0
VERTEX
  5
28A
330
23E
100
AcDbEntity
  8
LAY-10
  6
CONTINUOUS
 62
     4
100
AcDbVertex
100
AcDb2dVertex
 10
1941.193605
 20
876.0333649999984
 30
0.0
  0
VERTEX
  5
28B
330
23E
100
AcDbEntity
  8
LAY-10
  6
CONTINUOUS
 62
     4
100
AcDbVertex
100
AcDb2dVertex
 10
1939.26245
 20
875.0832483333318
 30
0.0
  0
VERTEX
  5
28C
330
23E
100
AcDbEntity
  8
LAY-10
  6
CONTINUOUS
 62
     4
100
AcDbVertex
100
AcDb2dVertex
 10
1937.218385
 20
874.3495899999984
 30
0.0
  0
VERTEX
  5
28D
330
23E
100
AcDbEntity
  8
LAY-10
  6
CONTINUOUS
 62
     4
100
AcDbVertex
100
AcDb2dVertex
 10
1935.05133
 20
873.8381316666653
 30
0.0
  0
VERTEX
  5
28E
330
23E
100
AcDbEntity
  8
LAY-10
  6
CONTINUOUS
 62
     4
100
AcDbVertex
100
AcDb2dVertex
 10
1933.367065
 20
873.6082316666649
 30
0.0
  0
SEQEND
  5
28F
330
23E
100
AcDbEntity
  8
LAY-10
  6
CONTINUOUS
 62
     4
  0
POLYLINE
  5
290
330
1F
100
AcDbEntity
  8
LAY-10
  6
CONTINUOUS
 62
     4
100
AcDb2dPolyline
 66
     1
 10
0.0
 20
0.0
 30
0.0
 70
   128
  0
VERTEX
  5
291
330
290
100
AcDbEntity
  8
LAY-10
  6
CONTINUOUS
 62
     4
100
AcDbVertex
100
AcDb2dVertex
 10
1976.77008
 20
872.1214233333319
 30
0.0
  0
VERTEX
  5
292
330
290
100
AcDbEntity
  8
LAY-10
  6
CONTINUOUS
 62
     4
100
AcDbVertex
100
AcDb2dVertex
 10
1974.882265
 20
874.5221399999978
 30
0.0
  0
VERTEX
  5
293
330
290
100
AcDbEntity
  8
LAY-10
  6
CONTINUOUS
 62
     4
100
AcDbVertex
100
AcDb2dVertex
 10
1973.056705
 20
877.1734816666647
 30
0.0
  0
VERTEX
  5
294
330
290
100
AcDbEntity
  8
LAY-10
  6
CONTINUOUS
 62
     4
100
AcDbVertex
100
AcDb2dVertex
 10
1971.26532
 20
880.1218899999977
 30
0.0
  0
VERTEX
  5
295
330
290
100
AcDbEntity
  8
LAY-10
  6
CONTINUOUS
 62
     4
100
AcDbVertex
100
AcDb2dVertex
 10
1969.479735
 20
883.4271649999984
 30
0.0
  0
VERTEX
  5
296
330
290
100
AcDbEntity
  8
LAY-10
  6
CONTINUOUS
 62
     4
100
AcDbVertex
100
AcDb2dVertex
 10
1967.663329999999
 20
887.1779733333319
 30
0.0
  0
VERTEX
  5
297
330
290
100
AcDbEntity
  8
LAY-10
  6
CONTINUOUS
 62
     4
100
AcDbVertex
100
AcDb2dVertex
 10
1965.761475000001
 20
891.514514999998
 30
0.0
  0
VERTEX
  5
298
330
290
100
AcDbEntity
  8
LAY-10
  6
CONTINUOUS
 62
     4
100
AcDbVertex
100
AcDb2dVertex
 10
1965.172790000001
 20
892.9368233333321
 30
0.0
  0
VERTEX
  5
299
330
290
100
AcDbEntity
  8
LAY-10
  6
CONTINUOUS
 62
     4
100
AcDbVertex
100
AcDb2dVertex
 10
1964.105895000001
 20
895.634581666665
 30
0.0
  0
VERTEX
  5
29A
330
290
100
AcDbEntity
  8
LAY-10
  6
CONTINUOUS
 62
     4
100
AcDbVertex
100
AcDb2dVertex
 10
1963.133300000001
 20
898.3947983333318
 30
0.0
  0
VERTEX
  5
29B
330
290
100
AcDbEntity
  8
LAY-10
  6
CONTINUOUS
 62
     4
100
AcDbVertex
100
AcDb2dVertex
 10
1962.71521
 20
899.766056666665
 30
0.0
  0
VERTEX
  5
29C
330
290
100
AcDbEntity
  8
LAY-10
  6
CONTINUOUS
 62
     4
100
AcDbVertex
100
AcDb2dVertex
 10
1962.349000000001
 20
901.1440233333323
 30
0.0
  0
VERTEX
  5
29D
330
290
100
AcDbEntity
  8
LAY-10
  6
CONTINUOUS
 62
     4
100
AcDbVertex
100
AcDb2dVertex
 10
1962.091429999999
 20
902.2917066666652
 30
0.0
  0
VERTEX
  5
29E
330
290
100
AcDbEntity
  8
LAY-10
  6
CONTINUOUS
 62
     4
100
AcDbVertex
100
AcDb2dVertex
 10
1961.881775000001
 20
903.4405983333321
 30
0.0
  0
VERTEX
  5
29F
330
290
100
AcDbEntity
  8
LAY-10
  6
CONTINUOUS
 62
     4
100
AcDbVertex
100
AcDb2dVertex
 10
1961.7417
 20
904.4509149999983
 30
0.0
  0
VERTEX
  5
2A0
330
290
100
AcDbEntity
  8
LAY-10
  6
CONTINUOUS
 62
     4
100
AcDbVertex
100
AcDb2dVertex
 10
1961.64679
 20
905.4596233333325
 30
0.0
  0
VERTEX
  5
2A1
330
290
100
AcDbEntity
  8
LAY-10
  6
CONTINUOUS
 62
     4
100
AcDbVertex
100
AcDb2dVertex
 10
1961.60437
 20
906.3181816666657
 30
0.0
  0
VERTEX
  5
2A2
330
290
100
AcDbEntity
  8
LAY-10
  6
CONTINUOUS
 62
     4
100
AcDbVertex
100
AcDb2dVertex
 10
1961.634889999999
 20
908.0737649999986
 30
0.0
  0
VERTEX
  5
2A3
330
290
100
AcDbEntity
  8
LAY-10
  6
CONTINUOUS
 62
     4
100
AcDbVertex
100
AcDb2dVertex
 10
1961.823485
 20
909.8625149999987
 30
0.0
  0
VERTEX
  5
2A4
330
290
100
AcDbEntity
  8
LAY-10
  6
CONTINUOUS
 62
     4
100
AcDbVertex
100
AcDb2dVertex
 10
1962.17749
 20
911.6911149999987
 30
0.0
  0
VERTEX
  5
2A5
330
290
100
AcDbEntity
  8
LAY-10
  6
CONTINUOUS
 62
     4
100
AcDbVertex
100
AcDb2dVertex
 10
1962.706665
 20
913.5626733333323
 30
0.0
  0
VERTEX
  5
2A6
330
290
100
AcDbEntity
  8
LAY-10
  6
CONTINUOUS
 62
     4
100
AcDbVertex
100
AcDb2dVertex
 10
1963.422305000001
 20
915.4734566666656
 30
0.0
  0
VERTEX
  5
2A7
330
290
100
AcDbEntity
  8
LAY-10
  6
CONTINUOUS
 62
     4
100
AcDbVertex
100
AcDb2dVertex
 10
1964.336
 20
917.4121483333327
 30
0.0
  0
VERTEX
  5
2A8
330
290
100
AcDbEntity
  8
LAY-10
  6
CONTINUOUS
 62
     4
100
AcDbVertex
100
AcDb2dVertex
 10
1965.455080000001
 20
919.3581483333327
 30
0.0
  0
VERTEX
  5
2A9
330
290
100
AcDbEntity
  8
LAY-10
  6
CONTINUOUS
 62
     4
100
AcDbVertex
100
AcDb2dVertex
 10
1966.779845
 20
921.2795483333323
 30
0.0
  0
VERTEX
  5
2AA
330
290
100
AcDbEntity
  8
LAY-10
  6
CONTINUOUS
 62
     4
100
AcDbVertex
100
AcDb2dVertex
 10
1968.300235000001
 20
923.1341899999995
 30
0.0
  0
VERTEX
  5
2AB
330
290
100
AcDbEntity
  8
LAY-10
  6
CONTINUOUS
 62
     4
100
AcDbVertex
100
AcDb2dVertex
 10
1969.99213
 20
924.8700399999985
 30
0.0
  0
VERTEX
  5
2AC
330
290
100
AcDbEntity
  8
LAY-10
  6
CONTINUOUS
 62
     4
100
AcDbVertex
100
AcDb2dVertex
 10
1971.815555
 20
926.4300899999992
 30
0.0
  0
VERTEX
  5
2AD
330
290
100
AcDbEntity
  8
LAY-10
  6
CONTINUOUS
 62
     4
100
AcDbVertex
100
AcDb2dVertex
 10
1972.760985
 20
927.1269066666658
 30
0.0
  0
VERTEX
  5
2AE
330
290
100
AcDbEntity
  8
LAY-10
  6
CONTINUOUS
 62
     4
100
AcDbVertex
100
AcDb2dVertex
 10
1973.7168
 20
927.7588149999991
 30
0.0
  0
VERTEX
  5
2AF
330
290
100
AcDbEntity
  8
LAY-10
  6
CONTINUOUS
 62
     4
100
AcDbVertex
100
AcDb2dVertex
 10
1974.674134999999
 20
928.3199566666656
 30
0.0
  0
VERTEX
  5
2B0
330
290
100
AcDbEntity
  8
LAY-10
  6
CONTINUOUS
 62
     4
100
AcDbVertex
100
AcDb2dVertex
 10
1975.633605
 20
928.8108733333328
 30
0.0
  0
VERTEX
  5
2B1
330
290
100
AcDbEntity
  8
LAY-10
  6
CONTINUOUS
 62
     4
100
AcDbVertex
100
AcDb2dVertex
 10
1976.571715
 20
929.2206066666662
 30
0.0
  0
VERTEX
  5
2B2
330
290
100
AcDbEntity
  8
LAY-10
  6
CONTINUOUS
 62
     4
100
AcDbVertex
100
AcDb2dVertex
 10
1977.503725
 20
929.5575399999987
 30
0.0
  0
VERTEX
  5
2B3
330
290
100
AcDbEntity
  8
LAY-10
  6
CONTINUOUS
 62
     4
100
AcDbVertex
100
AcDb2dVertex
 10
1978.395145000001
 20
929.8106149999992
 30
0.0
  0
VERTEX
  5
2B4
330
290
100
AcDbEntity
  8
LAY-10
  6
CONTINUOUS
 62
     4
100
AcDbVertex
100
AcDb2dVertex
 10
1979.273440000001
 20
929.9904733333324
 30
0.0
  0
VERTEX
  5
2B5
330
290
100
AcDbEntity
  8
LAY-10
  6
CONTINUOUS
 62
     4
100
AcDbVertex
100
AcDb2dVertex
 10
1980.338499999999
 20
930.1072733333331
 30
0.0
  0
VERTEX
  5
2B6
330
290
100
AcDbEntity
  8
LAY-10
  6
CONTINUOUS
 62
     4
100
AcDbVertex
100
AcDb2dVertex
 10
1981.872620000001
 20
930.0614899999996
 30
0.0
  0
VERTEX
  5
2B7
330
290
100
AcDbEntity
  8
LAY-10
  6
CONTINUOUS
 62
     4
100
AcDbVertex
100
AcDb2dVertex
 10
1983.412844999999
 20
929.7587316666661
 30
0.0
  0
VERTEX
  5
2B8
330
290
100
AcDbEntity
  8
LAY-10
  6
CONTINUOUS
 62
     4
100
AcDbVertex
100
AcDb2dVertex
 10
1985.012880000001
 20
929.187039999999
 30
0.0
  0
VERTEX
  5
2B9
330
290
100
AcDbEntity
  8
LAY-10
  6
CONTINUOUS
 62
     4
100
AcDbVertex
100
AcDb2dVertex
 10
1986.756045
 20
928.3059066666658
 30
0.0
  0
VERTEX
  5
2BA
330
290
100
AcDbEntity
  8
LAY-10
  6
CONTINUOUS
 62
     4
100
AcDbVertex
100
AcDb2dVertex
 10
1988.80896
 20
927.0125649999989
 30
0.0
  0
VERTEX
  5
2BB
330
290
100
AcDbEntity
  8
LAY-10
  6
CONTINUOUS
 62
     4
100
AcDbVertex
100
AcDb2dVertex
 10
1991.714235000001
 20
924.9542483333324
 30
0.0
  0
VERTEX
  5
2BC
330
290
100
AcDbEntity
  8
LAY-10
  6
CONTINUOUS
 62
     4
100
AcDbVertex
100
AcDb2dVertex
 10
1992.827515
 20
924.1599983333322
 30
0.0
  0
VERTEX
  5
2BD
330
290
100
AcDbEntity
  8
LAY-10
  6
CONTINUOUS
 62
     4
100
AcDbVertex
100
AcDb2dVertex
 10
1997.023990000001
 20
921.2695733333319
 30
0.0
  0
VERTEX
  5
2BE
330
290
100
AcDbEntity
  8
LAY-10
  6
CONTINUOUS
 62
     4
100
AcDbVertex
100
AcDb2dVertex
 10
1999.90454
 20
919.2224399999992
 30
0.0
  0
VERTEX
  5
2BF
330
290
100
AcDbEntity
  8
LAY-10
  6
CONTINUOUS
 62
     4
100
AcDbVertex
100
AcDb2dVertex
 10
2002.685305
 20
917.0377983333324
 30
0.0
  0
VERTEX
  5
2C0
330
290
100
AcDbEntity
  8
LAY-10
  6
CONTINUOUS
 62
     4
100
AcDbVertex
100
AcDb2dVertex
 10
2003.85901
 20
916.0073233333325
 30
0.0
  0
VERTEX
  5
2C1
330
290
100
AcDbEntity
  8
LAY-10
  6
CONTINUOUS
 62
     4
100
AcDbVertex
100
AcDb2dVertex
 10
2004.976565000001
 20
914.9355483333318
 30
0.0
  0
VERTEX
  5
2C2
330
290
100
AcDbEntity
  8
LAY-10
  6
CONTINUOUS
 62
     4
100
AcDbVertex
100
AcDb2dVertex
 10
2005.854860000001
 20
914.0106483333325
 30
0.0
  0
VERTEX
  5
2C3
330
290
100
AcDbEntity
  8
LAY-10
  6
CONTINUOUS
 62
     4
100
AcDbVertex
100
AcDb2dVertex
 10
2006.680665
 20
913.0519816666657
 30
0.0
  0
VERTEX
  5
2C4
330
290
100
AcDbEntity
  8
LAY-10
  6
CONTINUOUS
 62
     4
100
AcDbVertex
100
AcDb2dVertex
 10
2007.353885
 20
912.1846733333326
 30
0.0
  0
VERTEX
  5
2C5
330
290
100
AcDbEntity
  8
LAY-10
  6
CONTINUOUS
 62
     4
100
AcDbVertex
100
AcDb2dVertex
 10
2007.978274999999
 20
911.2880649999988
 30
0.0
  0
VERTEX
  5
2C6
330
290
100
AcDbEntity
  8
LAY-10
  6
CONTINUOUS
 62
     4
100
AcDbVertex
100
AcDb2dVertex
 10
2008.492495
 20
910.4577983333327
 30
0.0
  0
VERTEX
  5
2C7
330
290
100
AcDbEntity
  8
LAY-10
  6
CONTINUOUS
 62
     4
100
AcDbVertex
100
AcDb2dVertex
 10
2008.960940000001
 20
909.6012649999989
 30
0.0
  0
VERTEX
  5
2C8
330
290
100
AcDbEntity
  8
LAY-10
  6
CONTINUOUS
 62
     4
100
AcDbVertex
100
AcDb2dVertex
 10
2009.346070000001
 20
908.7947816666658
 30
0.0
  0
VERTEX
  5
2C9
330
290
100
AcDbEntity
  8
LAY-10
  6
CONTINUOUS
 62
     4
100
AcDbVertex
100
AcDb2dVertex
 10
2009.68756
 20
907.9646983333325
 30
0.0
  0
VERTEX
  5
2CA
330
290
100
AcDbEntity
  8
LAY-10
  6
CONTINUOUS
 62
     4
100
AcDbVertex
100
AcDb2dVertex
 10
2009.96405
 20
907.1718816666657
 30
0.0
  0
VERTEX
  5
2CB
330
290
100
AcDbEntity
  8
LAY-10
  6
CONTINUOUS
 62
     4
100
AcDbVertex
100
AcDb2dVertex
 10
2010.199340000001
 20
906.3568399999991
 30
0.0
  0
VERTEX
  5
2CC
330
290
100
AcDbEntity
  8
LAY-10
  6
CONTINUOUS
 62
     4
100
AcDbVertex
100
AcDb2dVertex
 10
2010.381835
 20
905.5666566666656
 30
0.0
  0
VERTEX
  5
2CD
330
290
100
AcDbEntity
  8
LAY-10
  6
CONTINUOUS
 62
     4
100
AcDbVertex
100
AcDb2dVertex
 10
2010.52466
 20
904.7554899999986
 30
0.0
  0
VERTEX
  5
2CE
330
290
100
AcDbEntity
  8
LAY-10
  6
CONTINUOUS
 62
     4
100
AcDbVertex
100
AcDb2dVertex
 10
2010.669315
 20
903.3445649999987
 30
0.0
  0
VERTEX
  5
2CF
330
290
100
AcDbEntity
  8
LAY-10
  6
CONTINUOUS
 62
     4
100
AcDbVertex
100
AcDb2dVertex
 10
2010.68671
 20
901.6923233333321
 30
0.0
  0
VERTEX
  5
2D0
330
290
100
AcDbEntity
  8
LAY-10
  6
CONTINUOUS
 62
     4
100
AcDbVertex
100
AcDb2dVertex
 10
2010.546935
 20
899.8734733333322
 30
0.0
  0
VERTEX
  5
2D1
330
290
100
AcDbEntity
  8
LAY-10
  6
CONTINUOUS
 62
     4
100
AcDbVertex
100
AcDb2dVertex
 10
2010.233520000001
 20
897.878639999999
 30
0.0
  0
VERTEX
  5
2D2
330
290
100
AcDbEntity
  8
LAY-10
  6
CONTINUOUS
 62
     4
100
AcDbVertex
100
AcDb2dVertex
 10
2009.728455000001
 20
895.7092566666649
 30
0.0
  0
VERTEX
  5
2D3
330
290
100
AcDbEntity
  8
LAY-10
  6
CONTINUOUS
 62
     4
100
AcDbVertex
100
AcDb2dVertex
 10
2009.01709
 20
893.3826066666654
 30
0.0
  0
VERTEX
  5
2D4
330
290
100
AcDbEntity
  8
LAY-10
  6
CONTINUOUS
 62
     4
100
AcDbVertex
100
AcDb2dVertex
 10
2008.092714999999
 20
890.9395816666648
 30
0.0
  0
VERTEX
  5
2D5
330
290
100
AcDbEntity
  8
LAY-10
  6
CONTINUOUS
 62
     4
100
AcDbVertex
100
AcDb2dVertex
 10
2006.964175
 20
888.4489316666653
 30
0.0
  0
VERTEX
  5
2D6
330
290
100
AcDbEntity
  8
LAY-10
  6
CONTINUOUS
 62
     4
100
AcDbVertex
100
AcDb2dVertex
 10
2005.660770000001
 20
886.008323333332
 30
0.0
  0
VERTEX
  5
2D7
330
290
100
AcDbEntity
  8
LAY-10
  6
CONTINUOUS
 62
     4
100
AcDbVertex
100
AcDb2dVertex
 10
2004.424805
 20
884.015931666665
 30
0.0
  0
VERTEX
  5
2D8
330
290
100
AcDbEntity
  8
LAY-10
  6
CONTINUOUS
 62
     4
100
AcDbVertex
100
AcDb2dVertex
 10
2002.94806
 20
881.975139999998
 30
0.0
  0
VERTEX
  5
2D9
330
290
100
AcDbEntity
  8
LAY-10
  6
CONTINUOUS
 62
     4
100
AcDbVertex
100
AcDb2dVertex
 10
2001.391665
 20
880.1634066666647
 30
0.0
  0
VERTEX
  5
2DA
330
290
100
AcDbEntity
  8
LAY-10
  6
CONTINUOUS
 62
     4
100
AcDbVertex
100
AcDb2dVertex
 10
1999.75104
 20
878.5724233333312
 30
0.0
  0
VERTEX
  5
2DB
330
290
100
AcDbEntity
  8
LAY-10
  6
CONTINUOUS
 62
     4
100
AcDbVertex
100
AcDb2dVertex
 10
1998.02069
 20
877.1964983333311
 30
0.0
  0
VERTEX
  5
2DC
330
290
100
AcDbEntity
  8
LAY-10
  6
CONTINUOUS
 62
     4
100
AcDbVertex
100
AcDb2dVertex
 10
1996.193605
 20
876.0333649999984
 30
0.0
  0
VERTEX
  5
2DD
330
290
100
AcDbEntity
  8
LAY-10
  6
CONTINUOUS
 62
     4
100
AcDbVertex
100
AcDb2dVertex
 10
1994.26245
 20
875.0832483333318
 30
0.0
  0
VERTEX
  5
2DE
330
290
100
AcDbEntity
  8
LAY-10
  6
CONTINUOUS
 62
     4
100
AcDbVertex
100
AcDb2dVertex
 10
1992.218385
 20
874.3495899999984
 30
0.0
  0
VERTEX
  5
2DF
330
290
100
AcDbEntity
  8
LAY-10
  6
CONTINUOUS
 62
     4
100
AcDbVertex
100
AcDb2dVertex
 10
1990.05133
 20
873.8381316666653
 30
0.0
  0
VERTEX
  5
2E0
330
290
100
AcDbEntity
  8
LAY-10
  6
CONTINUOUS
 62
     4
100
AcDbVertex
100
AcDb2dVertex
 10
1988.367065
 20
873.6082316666649
 30
0.0
  0
SEQEND
  5
2E1
330
290
100
AcDbEntity
  8
LAY-10
  6
CONTINUOUS
 62
     4
  0
POLYLINE
  5
2E2
330
1F
100
AcDbEntity
  8
LAY-10
  6
CONTINUOUS
 62
     4
100
AcDb2dPolyline
 66
     1
 10
0.0
 20
0.0
 30
0.0
 70
   128
  0
VERTEX
  5
2E3
330
2E2
100
AcDbEntity
  8
LAY-10
  6
CONTINUOUS
 62
     4
100
AcDbVertex
100
AcDb2dVertex
 10
2031.77008
 20
872.1214233333319
 30
0.0
  0
VERTEX
  5
2E4
330
2E2
100
AcDbEntity
  8
LAY-10
  6
CONTINUOUS
 62
     4
100
AcDbVertex
100
AcDb2dVertex
 10
2029.882265
 20
874.5221399999978
 30
0.0
  0
VERTEX
  5
2E5
330
2E2
100
AcDbEntity
  8
LAY-10
  6
CONTINUOUS
 62
     4
100
AcDbVertex
100
AcDb2dVertex
 10
2028.056705
 20
877.1734816666647
 30
0.0
  0
VERTEX
  5
2E6
330
2E2
100
AcDbEntity
  8
LAY-10
  6
CONTINUOUS
 62
     4
100
AcDbVertex
100
AcDb2dVertex
 10
2026.26532
 20
880.1218899999977
 30
0.0
  0
VERTEX
  5
2E7
330
2E2
100
AcDbEntity
  8
LAY-10
  6
CONTINUOUS
 62
     4
100
AcDbVertex
100
AcDb2dVertex
 10
2024.479735
 20
883.4271649999984
 30
0.0
  0
VERTEX
  5
2E8
330
2E2
100
AcDbEntity
  8
LAY-10
  6
CONTINUOUS
 62
     4
100
AcDbVertex
100
AcDb2dVertex
 10
2022.663329999999
 20
887.1779733333319
 30
0.0
  0
VERTEX
  5
2E9
330
2E2
100
AcDbEntity
  8
LAY-10
  6
CONTINUOUS
 62
     4
100
AcDbVertex
100
AcDb2dVertex
 10
2020.761475000001
 20
891.514514999998
 30
0.0
  0
VERTEX
  5
2EA
330
2E2
100
AcDbEntity
  8
LAY-10
  6
CONTINUOUS
 62
     4
100
AcDbVertex
100
AcDb2dVertex
 10
2020.172790000001
 20
892.9368233333321
 30
0.0
  0
VERTEX
  5
2EB
330
2E2
100
AcDbEntity
  8
LAY-10
  6
CONTINUOUS
 62
     4
100
AcDbVertex
100
AcDb2dVertex
 10
2019.105895000001
 20
895.634581666665
 30
0.0
  0
VERTEX
  5
2EC
330
2E2
100
AcDbEntity
  8
LAY-10
  6
CONTINUOUS
 62
     4
100
AcDbVertex
100
AcDb2dVertex
 10
2018.133300000001
 20
898.3947983333318
 30
0.0
  0
VERTEX
  5
2ED
330
2E2
100
AcDbEntity
  8
LAY-10
  6
CONTINUOUS
 62
     4
100
AcDbVertex
100
AcDb2dVertex
 10
2017.71521
 20
899.766056666665
 30
0.0
  0
VERTEX
  5
2EE
330
2E2
100
AcDbEntity
  8
LAY-10
  6
CONTINUOUS
 62
     4
100
AcDbVertex
100
AcDb2dVertex
 10
2017.349000000001
 20
901.1440233333323
 30
0.0
  0
VERTEX
  5
2EF
330
2E2
100
AcDbEntity
  8
LAY-10
  6
CONTINUOUS
 62
     4
100
AcDbVertex
100
AcDb2dVertex
 10
2017.091429999999
 20
902.2917066666652
 30
0.0
  0
VERTEX
  5
2F0
330
2E2
100
AcDbEntity
  8
LAY-10
  6
CONTINUOUS
 62
     4
100
AcDbVertex
100
AcDb2dVertex
 10
2016.881775000001
 20
903.4405983333321
 30
0.0
  0
VERTEX
  5
2F1
330
2E2
100
AcDbEntity
  8
LAY-10
  6
CONTINUOUS
 62
     4
100
AcDbVertex
100
AcDb2dVertex
 10
2016.7417
 20
904.4509149999983
 30
0.0
  0
VERTEX
  5
2F2
330
2E2
100
AcDbEntity
  8
LAY-10
  6
CONTINUOUS
 62
     4
100
AcDbVertex
100
AcDb2dVertex
 10
2016.64679
 20
905.4596233333325
 30
0.0
  0
VERTEX
  5
2F3
330
2E2
100
AcDbEntity
  8
LAY-10
  6
CONTINUOUS
 62
     4
100
AcDbVertex
100
AcDb2dVertex
 10
2016.60437
 20
906.3181816666657
 30
0.0
  0
VERTEX
  5
2F4
330
2E2
100
AcDbEntity
  8
LAY-10
  6
CONTINUOUS
 62
     4
100
AcDbVertex
100
AcDb2dVertex
 10
2016.634889999999
 20
908.0737649999986
 30
0.0
  0
VERTEX
  5
2F5
330
2E2
100
AcDbEntity
  8
LAY-10
  6
CONTINUOUS
 62
     4
100
AcDbVertex
100
AcDb2dVertex
 10
2016.823485
 20
909.8625149999987
 30
0.0
  0
VERTEX
  5
2F6
330
2E2
100
AcDbEntity
  8
LAY-10
  6
CONTINUOUS
 62
     4
100
AcDbVertex
100
AcDb2dVertex
 10
2017.17749
 20
911.6911149999987
 30
0.0
  0
VERTEX
  5
2F7
330
2E2
100
AcDbEntity
  8
LAY-10
  6
CONTINUOUS
 62
     4
100
AcDbVertex
100
AcDb2dVertex
 10
2017.706665
 20
913.5626733333323
 30
0.0
  0
VERTEX
  5
2F8
330
2E2
100
AcDbEntity
  8
LAY-10
  6
CONTINUOUS
 62
     4
100
AcDbVertex
100
AcDb2dVertex
 10
2018.422305000001
 20
915.4734566666656
 30
0.0
  0
VERTEX
  5
2F9
330
2E2
100
AcDbEntity
  8
LAY-10
  6
CONTINUOUS
 62
     4
100
AcDbVertex
100
AcDb2dVertex
 10
2019.336
 20
917.4121483333327
 30
0.0
  0
VERTEX
  5
2FA
330
2E2
100
AcDbEntity
  8
LAY-10
  6
CONTINUOUS
 62
     4
100
AcDbVertex
100
AcDb2dVertex
 10
2020.455080000001
 20
919.3581483333327
 30
0.0
  0
VERTEX
  5
2FB
330
2E2
100
AcDbEntity
  8
LAY-10
  6
CONTINUOUS
 62
     4
100
AcDbVertex
100
AcDb2dVertex
 10
2021.779845
 20
921.2795483333323
 30
0.0
  0
VERTEX
  5
2FC
330
2E2
100
AcDbEntity
  8
LAY-10
  6
CONTINUOUS
 62
     4
100
AcDbVertex
100
AcDb2dVertex
 10
2023.300235000001
 20
923.1341899999995
 30
0.0
  0
VERTEX
  5
2FD
330
2E2
100
AcDbEntity
  8
LAY-10
  6
CONTINUOUS
 62
     4
100
AcDbVertex
100
AcDb2dVertex
 10
2024.99213
 20
924.8700399999985
 30
0.0
  0
VERTEX
  5
2FE
330
2E2
100
AcDbEntity
  8
LAY-10
  6
CONTINUOUS
 62
     4
100
AcDbVertex
100
AcDb2dVertex
 10
2026.815555
 20
926.4300899999992
 30
0.0
  0
VERTEX
  5
2FF
330
2E2
100
AcDbEntity
  8
LAY-10
  6
CONTINUOUS
 62
     4
100
AcDbVertex
100
AcDb2dVertex
 10
2027.760985
 20
927.1269066666658
 30
0.0
  0
VERTEX
  5
300
330
2E2
100
AcDbEntity
  8
LAY-10
  6
CONTINUOUS
 62
     4
100
AcDbVertex
100
AcDb2dVertex
 10
2028.7168
 20
927.7588149999991
 30
0.0
  0
VERTEX
  5
301
330
2E2
100
AcDbEntity
  8
LAY-10
  6
CONTINUOUS
 62
     4
100
AcDbVertex
100
AcDb2dVertex
 10
2029.674134999999
 20
928.3199566666656
 30
0.0
  0
VERTEX
  5
302
330
2E2
100
AcDbEntity
  8
LAY-10
  6
CONTINUOUS
 62
     4
100
AcDbVertex
100
AcDb2dVertex
 10
2030.633605
 20
928.8108733333328
 30
0.0
  0
VERTEX
  5
303
330
2E2
100
AcDbEntity
  8
LAY-10
  6
CONTINUOUS
 62
     4
100
AcDbVertex
100
AcDb2dVertex
 10
2031.571715
 20
929.2206066666662
 30
0.0
  0
VERTEX
  5
304
330
2E2
100
AcDbEntity
  8
LAY-10
  6
CONTINUOUS
 62
     4
100
AcDbVertex
100
AcDb2dVertex
 10
2032.503725
 20
929.5575399999987
 30
0.0
  0
VERTEX
  5
305
330
2E2
100
AcDbEntity
  8
LAY-10
  6
CONTINUOUS
 62
     4
100
AcDbVertex
100
AcDb2dVertex
 10
2033.395145000001
 20
929.8106149999992
 30
0.0
  0
VERTEX
  5
306
330
2E2
100
AcDbEntity
  8
LAY-10
  6
CONTINUOUS
 62
     4
100
AcDbVertex
100
AcDb2dVertex
 10
2034.273440000001
 20
929.9904733333324
 30
0.0
  0
VERTEX
  5
307
330
2E2
100
AcDbEntity
  8
LAY-10
  6
CONTINUOUS
 62
     4
100
AcDbVertex
100
AcDb2dVertex
 10
2035.338499999999
 20
930.1072733333331
 30
0.0
  0
VERTEX
  5
308
330
2E2
100
AcDbEntity
  8
LAY-10
  6
CONTINUOUS
 62
     4
100
AcDbVertex
100
AcDb2dVertex
 10
2036.872620000001
 20
930.0614899999996
 30
0.0
  0
VERTEX
  5
309
330
2E2
100
AcDbEntity
  8
LAY-10
  6
CONTINUOUS
 62
     4
100
AcDbVertex
100
AcDb2dVertex
 10
2038.412844999999
 20
929.7587316666661
 30
0.0
  0
VERTEX
  5
30A
330
2E2
100
AcDbEntity
  8
LAY-10
  6
CONTINUOUS
 62
     4
100
AcDbVertex
100
AcDb2dVertex
 10
2040.012880000001
 20
929.187039999999
 30
0.0
  0
VERTEX
  5
30B
330
2E2
100
AcDbEntity
  8
LAY-10
  6
CONTINUOUS
 62
     4
100
AcDbVertex
100
AcDb2dVertex
 10
2041.756045
 20
928.3059066666658
 30
0.0
  0
VERTEX
  5
30C
330
2E2
100
AcDbEntity
  8
LAY-10
  6
CONTINUOUS
 62
     4
100
AcDbVertex
100
AcDb2dVertex
 10
2043.80896
 20
927.0125649999989
 30
0.0
  0
VERTEX
  5
30D
330
2E2
100
AcDbEntity
  8
LAY-10
  6
CONTINUOUS
 62
     4
100
AcDbVertex
100
AcDb2dVertex
 10
2046.714235000001
 20
924.9542483333324
 30
0.0
  0
VERTEX
  5
30E
330
2E2
100
AcDbEntity
  8
LAY-10
  6
CONTINUOUS
 62
     4
100
AcDbVertex
100
AcDb2dVertex
 10
2047.827515
 20
924.1599983333322
 30
0.0
  0
VERTEX
  5
30F
330
2E2
100
AcDbEntity
  8
LAY-10
  6
CONTINUOUS
 62
     4
100
AcDbVertex
100
AcDb2dVertex
 10
2052.023990000001
 20
921.2695733333319
 30
0.0
  0
VERTEX
  5
310
330
2E2
100
AcDbEntity
  8
LAY-10
  6
CONTINUOUS
 62
     4
100
AcDbVertex
100
AcDb2dVertex
 10
2054.90454
 20
919.2224399999992
 30
0.0
  0
VERTEX
  5
311
330
2E2
100
AcDbEntity
  8
LAY-10
  6
CONTINUOUS
 62
     4
100
AcDbVertex
100
AcDb2dVertex
 10
2057.685305
 20
917.0377983333324
 30
0.0
  0
VERTEX
  5
312
330
2E2
100
AcDbEntity
  8
LAY-10
  6
CONTINUOUS
 62
     4
100
AcDbVertex
100
AcDb2dVertex
 10
2058.85901
 20
916.0073233333325
 30
0.0
  0
VERTEX
  5
313
330
2E2
100
AcDbEntity
  8
LAY-10
  6
CONTINUOUS
 62
     4
100
AcDbVertex
100
AcDb2dVertex
 10
2059.976565000001
 20
914.9355483333318
 30
0.0
  0
VERTEX
  5
314
330
2E2
100
AcDbEntity
  8
LAY-10
  6
CONTINUOUS
 62
     4
100
AcDbVertex
100
AcDb2dVertex
 10
2060.854860000001
 20
914.0106483333325
 30
0.0
  0
VERTEX
  5
315
330
2E2
100
AcDbEntity
  8
LAY-10
  6
CONTINUOUS
 62
     4
100
AcDbVertex
100
AcDb2dVertex
 10
2061.680665
 20
913.0519816666657
 30
0.0
  0
VERTEX
  5
316
330
2E2
100
AcDbEntity
  8
LAY-10
  6
CONTINUOUS
 62
     4
100
AcDbVertex
100
AcDb2dVertex
 10
2062.353885
 20
912.1846733333326
 30
0.0
  0
VERTEX
  5
317
330
2E2
100
AcDbEntity
  8
LAY-10
  6
CONTINUOUS
 62
     4
100
AcDbVertex
100
AcDb2dVertex
 10
2062.978274999999
 20
911.2880649999988
 30
0.0
  0
VERTEX
  5
318
330
2E2
100
AcDbEntity
  8
LAY-10
  6
CONTINUOUS
 62
     4
100
AcDbVertex
100
AcDb2dVertex
 10
2063.492495
 20
910.4577983333327
 30
0.0
  0
VERTEX
  5
319
330
2E2
100
AcDbEntity
  8
LAY-10
  6
CONTINUOUS
 62
     4
100
AcDbVertex
100
AcDb2dVertex
 10
2063.960940000001
 20
909.6012649999989
 30
0.0
  0
VERTEX
  5
31A
330
2E2
100
AcDbEntity
  8
LAY-10
  6
CONTINUOUS
 62
     4
100
AcDbVertex
100
AcDb2dVertex
 10
2064.346070000001
 20
908.7947816666658
 30
0.0
  0
VERTEX
  5
31B
330
2E2
100
AcDbEntity
  8
LAY-10
  6
CONTINUOUS
 62
     4
100
AcDbVertex
100
AcDb2dVertex
 10
2064.68756
 20
907.9646983333325
 30
0.0
  0
VERTEX
  5
31C
330
2E2
100
AcDbEntity
  8
LAY-10
  6
CONTINUOUS
 62
     4
100
AcDbVertex
100
AcDb2dVertex
 10
2064.96405
 20
907.1718816666657
 30
0.0
  0
VERTEX
  5
31D
330
2E2
100
AcDbEntity
  8
LAY-10
  6
CONTINUOUS
 62
     4
100
AcDbVertex
100
AcDb2dVertex
 10
2065.199340000001
 20
906.3568399999991
 30
0.0
  0
VERTEX
  5
31E
330
2E2
100
AcDbEntity
  8
LAY-10
  6
CONTINUOUS
 62
     4
100
AcDbVertex
100
AcDb2dVertex
 10
2065.381835
 20
905.5666566666656
 30
0.0
  0
VERTEX
  5
31F
330
2E2
100
AcDbEntity
  8
LAY-10
  6
CONTINUOUS
 62
     4
100
AcDbVertex
100
AcDb2dVertex
 10
2065.52466
 20
904.7554899999986
 30
0.0
  0
VERTEX
  5
320
330
2E2
100
AcDbEntity
  8
LAY-10
  6
CONTINUOUS
 62
     4
100
AcDbVertex
100
AcDb2dVertex
 10
2065.669315
 20
903.3445649999987
 30
0.0
  0
VERTEX
  5
321
330
2E2
100
AcDbEntity
  8
LAY-10
  6
CONTINUOUS
 62
     4
100
AcDbVertex
100
AcDb2dVertex
 10
2065.68671
 20
901.6923233333321
 30
0.0
  0
VERTEX
  5
322
330
2E2
100
AcDbEntity
  8
LAY-10
  6
CONTINUOUS
 62
     4
100
AcDbVertex
100
AcDb2dVertex
 10
2065.546935
 20
899.8734733333322
 30
0.0
  0
VERTEX
  5
323
330
2E2
100
AcDbEntity
  8
LAY-10
  6
CONTINUOUS
 62
     4
100
AcDbVertex
100
AcDb2dVertex
 10
2065.233520000001
 20
897.878639999999
 30
0.0
  0
VERTEX
  5
324
330
2E2
100
AcDbEntity
  8
LAY-10
  6
CONTINUOUS
 62
     4
100
AcDbVertex
100
AcDb2dVertex
 10
2064.728455000001
 20
895.7092566666649
 30
0.0
  0
VERTEX
  5
325
330
2E2
100
AcDbEntity
  8
LAY-10
  6
CONTINUOUS
 62
     4
100
AcDbVertex
100
AcDb2dVertex
 10
2064.01709
 20
893.3826066666654
 30
0.0
  0
VERTEX
  5
326
330
2E2
100
AcDbEntity
  8
LAY-10
  6
CONTINUOUS
 62
     4
100
AcDbVertex
100
AcDb2dVertex
 10
2063.092714999999
 20
890.9395816666648
 30
0.0
  0
VERTEX
  5
327
330
2E2
100
AcDbEntity
  8
LAY-10
  6
CONTINUOUS
 62
     4
100
AcDbVertex
100
AcDb2dVertex
 10
2061.964175
 20
888.4489316666653
 30
0.0
  0
VERTEX
  5
328
330
2E2
100
AcDbEntity
  8
LAY-10
  6
CONTINUOUS
 62
     4
100
AcDbVertex
100
AcDb2dVertex
 10
2060.660770000001
 20
886.008323333332
 30
0.0
  0
VERTEX
  5
329
330
2E2
100
AcDbEntity
  8
LAY-10
  6
CONTINUOUS
 62
     4
100
AcDbVertex
100
AcDb2dVertex
 10
2059.424805
 20
884.015931666665
 30
0.0
  0
VERTEX
  5
32A
330
2E2
100
AcDbEntity
  8
LAY-10
  6
CONTINUOUS
 62
     4
100
AcDbVertex
100
AcDb2dVertex
 10
2057.94806
 20
881.975139999998
 30
0.0
  0
VERTEX
  5
32B
330
2E2
100
AcDbEntity
  8
LAY-10
  6
CONTINUOUS
 62
     4
100
AcDbVertex
100
AcDb2dVertex
 10
2056.391665
 20
880.1634066666647
 30
0.0
  0
VERTEX
  5
32C
330
2E2
100
AcDbEntity
  8
LAY-10
  6
CONTINUOUS
 62
     4
100
AcDbVertex
100
AcDb2dVertex
 10
2054.75104
 20
878.5724233333312
 30
0.0
  0
VERTEX
  5
32D
330
2E2
100
AcDbEntity
  8
LAY-10
  6
CONTINUOUS
 62
     4
100
AcDbVertex
100
AcDb2dVertex
 10
2053.02069
 20
877.1964983333311
 30
0.0
  0
VERTEX
  5
32E
330
2E2
100
AcDbEntity
  8
LAY-10
  6
CONTINUOUS
 62
     4
100
AcDbVertex
100
AcDb2dVertex
 10
2051.193605
 20
876.0333649999984
 30
0.0
  0
VERTEX
  5
32F
330
2E2
100
AcDbEntity
  8
LAY-10
  6
CONTINUOUS
 62
     4
100
AcDbVertex
100
AcDb2dVertex
 10
2049.26245
 20
875.0832483333318
 30
0.0
  0
VERTEX
  5
330
330
2E2
100
AcDbEntity
  8
LAY-10
  6
CONTINUOUS
 62
     4
100
AcDbVertex
100
AcDb2dVertex
 10
2047.218385
 20
874.3495899999984
 30
0.0
  0
VERTEX
  5
331
330
2E2
100
AcDbEntity
  8
LAY-10
  6
CONTINUOUS
 62
     4
100
AcDbVertex
100
AcDb2dVertex
 10
2045.05133
 20
873.8381316666653
 30
0.0
  0
VERTEX
  5
332
330
2E2
100
AcDbEntity
  8
LAY-10
  6
CONTINUOUS
 62
     4
100
AcDbVertex
100
AcDb2dVertex
 10
2043.367065
 20
873.6082316666649
 30
0.0
  0
SEQEND
  5
333
330
2E2
100
AcDbEntity
  8
LAY-10
  6
CONTINUOUS
 62
     4
  0
POLYLINE
  5
334
330
1F
100
AcDbEntity
  8
LAY-10
  6
CONTINUOUS
 62
     4
100
AcDb2dPolyline
 66
     1
 10
0.0
 20
0.0
 30
0.0
 70
   128
  0
VERTEX
  5
335
330
334
100
AcDbEntity
  8
LAY-10
  6
CONTINUOUS
 62
     4
100
AcDbVertex
100
AcDb2dVertex
 10
1696.4173
 20
928.6204316666658
 30
0.0
  0
VERTEX
  5
336
330
334
100
AcDbEntity
  8
LAY-10
  6
CONTINUOUS
 62
     4
100
AcDbVertex
100
AcDb2dVertex
 10
1695.434020000001
 20
928.8580816666663
 30
0.0
  0
VERTEX
  5
337
330
334
100
AcDbEntity
  8
LAY-10
  6
CONTINUOUS
 62
     4
100
AcDbVertex
100
AcDb2dVertex
 10
1694.421145
 20
929.1734316666659
 30
0.0
  0
VERTEX
  5
338
330
334
100
AcDbEntity
  8
LAY-10
  6
CONTINUOUS
 62
     4
100
AcDbVertex
100
AcDb2dVertex
 10
1693.431764999999
 20
929.5516233333327
 30
0.0
  0
VERTEX
  5
339
330
334
100
AcDbEntity
  8
LAY-10
  6
CONTINUOUS
 62
     4
100
AcDbVertex
100
AcDb2dVertex
 10
1692.438720000001
 20
930.004714999999
 30
0.0
  0
VERTEX
  5
33A
330
334
100
AcDbEntity
  8
LAY-10
  6
CONTINUOUS
 62
     4
100
AcDbVertex
100
AcDb2dVertex
 10
1691.52106
 20
930.4950316666659
 30
0.0
  0
VERTEX
  5
33B
330
334
100
AcDbEntity
  8
LAY-10
  6
CONTINUOUS
 62
     4
100
AcDbVertex
100
AcDb2dVertex
 10
1690.619264999999
 20
931.0530899999992
 30
0.0
  0
VERTEX
  5
33C
330
334
100
AcDbEntity
  8
LAY-10
  6
CONTINUOUS
 62
     4
100
AcDbVertex
100
AcDb2dVertex
 10
1689.814820000001
 20
931.6247899999996
 30
0.0
  0
VERTEX
  5
33D
330
334
100
AcDbEntity
  8
LAY-10
  6
CONTINUOUS
 62
     4
100
AcDbVertex
100
AcDb2dVertex
 10
1689.03876
 20
932.2552899999994
 30
0.0
  0
VERTEX
  5
33E
330
334
100
AcDbEntity
  8
LAY-10
  6
CONTINUOUS
 62
     4
100
AcDbVertex
100
AcDb2dVertex
 10
1688.361575
 20
932.8825233333331
 30
0.0
  0
VERTEX
  5
33F
330
334
100
AcDbEntity
  8
LAY-10
  6
CONTINUOUS
 62
     4
100
AcDbVertex
100
AcDb2dVertex
 10
1687.719180000001
 20
933.5600149999993
 30
0.0
  0
VERTEX
  5
340
330
334
100
AcDbEntity
  8
LAY-10
  6
CONTINUOUS
 62
     4
100
AcDbVertex
100
AcDb2dVertex
 10
1687.16742
 20
934.2238649999991
 30
0.0
  0
VERTEX
  5
341
330
334
100
AcDbEntity
  8
LAY-10
  6
CONTINUOUS
 62
     4
100
AcDbVertex
100
AcDb2dVertex
 10
1686.6532
 20
934.9306649999996
 30
0.0
  0
VERTEX
  5
342
330
334
100
AcDbEntity
  8
LAY-10
  6
CONTINUOUS
 62
     4
100
AcDbVertex
100
AcDb2dVertex
 10
1686.217714999999
 20
935.6191233333323
 30
0.0
  0
VERTEX
  5
343
330
334
100
AcDbEntity
  8
LAY-10
  6
CONTINUOUS
 62
     4
100
AcDbVertex
100
AcDb2dVertex
 10
1685.820680000001
 20
936.3450649999993
 30
0.0
  0
VERTEX
  5
344
330
334
100
AcDbEntity
  8
LAY-10
  6
CONTINUOUS
 62
     4
100
AcDbVertex
100
AcDb2dVertex
 10
1685.489564999999
 20
937.0522399999999
 30
0.0
  0
VERTEX
  5
345
330
334
100
AcDbEntity
  8
LAY-10
  6
CONTINUOUS
 62
     4
100
AcDbVertex
100
AcDb2dVertex
 10
1685.197205000001
 20
937.7921983333331
 30
0.0
  0
VERTEX
  5
346
330
334
100
AcDbEntity
  8
LAY-10
  6
CONTINUOUS
 62
     4
100
AcDbVertex
100
AcDb2dVertex
 10
1684.820315000001
 20
939.0281649999991
 30
0.0
  0
VERTEX
  5
347
330
334
100
AcDbEntity
  8
LAY-10
  6
CONTINUOUS
 62
     4
100
AcDbVertex
100
AcDb2dVertex
 10
1684.523685000001
 20
940.5381816666655
 30
0.0
  0
VERTEX
  5
348
330
334
100
AcDbEntity
  8
LAY-10
  6
CONTINUOUS
 62
     4
100
AcDbVertex
100
AcDb2dVertex
 10
1684.358585
 20
942.2235399999995
 30
0.0
  0
VERTEX
  5
349
330
334
100
AcDbEntity
  8
LAY-10
  6
CONTINUOUS
 62
     4
100
AcDbVertex
100
AcDb2dVertex
 10
1684.334475
 20
944.0963066666664
 30
0.0
  0
VERTEX
  5
34A
330
334
100
AcDbEntity
  8
LAY-10
  6
CONTINUOUS
 62
     4
100
AcDbVertex
100
AcDb2dVertex
 10
1684.4657
 20
946.1609149999996
 30
0.0
  0
VERTEX
  5
34B
330
334
100
AcDbEntity
  8
LAY-10
  6
CONTINUOUS
 62
     4
100
AcDbVertex
100
AcDb2dVertex
 10
1684.765685
 20
948.4066233333334
 30
0.0
  0
VERTEX
  5
34C
330
334
100
AcDbEntity
  8
LAY-10
  6
CONTINUOUS
 62
     4
100
AcDbVertex
100
AcDb2dVertex
 10
1685.246035000001
 20
950.8004149999997
 30
0.0
  0
VERTEX
  5
34D
330
334
100
AcDbEntity
  8
LAY-10
  6
CONTINUOUS
 62
     4
100
AcDbVertex
100
AcDb2dVertex
 10
1685.907045
 20
953.2764066666659
 30
0.0
  0
VERTEX
  5
34E
330
334
100
AcDbEntity
  8
LAY-10
  6
CONTINUOUS
 62
     4
100
AcDbVertex
100
AcDb2dVertex
 10
1686.60437
 20
955.3831316666666
 30
0.0
  0
VERTEX
  5
34F
330
334
100
AcDbEntity
  8
LAY-10
  6
CONTINUOUS
 62
     4
100
AcDbVertex
100
AcDb2dVertex
 10
1687.06061
 20
956.5775816666667
 30
0.0
  0
VERTEX
  5
350
330
334
100
AcDbEntity
  8
LAY-10
  6
CONTINUOUS
 62
     4
100
AcDbVertex
100
AcDb2dVertex
 10
1687.5437
 20
957.7185566666659
 30
0.0
  0
VERTEX
  5
351
330
334
100
AcDbEntity
  8
LAY-10
  6
CONTINUOUS
 62
     4
100
AcDbVertex
100
AcDb2dVertex
 10
1688.587405
 20
959.8397233333328
 30
0.0
  0
VERTEX
  5
352
330
334
100
AcDbEntity
  8
LAY-10
  6
CONTINUOUS
 62
     4
100
AcDbVertex
100
AcDb2dVertex
 10
1689.73395
 20
961.7539983333334
 30
0.0
  0
VERTEX
  5
353
330
334
100
AcDbEntity
  8
LAY-10
  6
CONTINUOUS
 62
     4
100
AcDbVertex
100
AcDb2dVertex
 10
1690.98395
 20
963.4662233333333
 30
0.0
  0
VERTEX
  5
354
330
334
100
AcDbEntity
  8
LAY-10
  6
CONTINUOUS
 62
     4
100
AcDbVertex
100
AcDb2dVertex
 10
1692.339235000001
 20
964.9790733333336
 30
0.0
  0
VERTEX
  5
355
330
334
100
AcDbEntity
  8
LAY-10
  6
CONTINUOUS
 62
     4
100
AcDbVertex
100
AcDb2dVertex
 10
1693.802245000001
 20
966.2921483333334
 30
0.0
  0
VERTEX
  5
356
330
334
100
AcDbEntity
  8
LAY-10
  6
CONTINUOUS
 62
     4
100
AcDbVertex
100
AcDb2dVertex
 10
1695.37604
 20
967.4023900000004
 30
0.0
  0
VERTEX
  5
357
330
334
100
AcDbEntity
  8
LAY-10
  6
CONTINUOUS
 62
     4
100
AcDbVertex
100
AcDb2dVertex
 10
1697.063965
 20
968.3030733333335
 30
0.0
  0
VERTEX
  5
358
330
334
100
AcDbEntity
  8
LAY-10
  6
CONTINUOUS
 62
     4
100
AcDbVertex
100
AcDb2dVertex
 10
1698.20166
 20
968.7644900000005
 30
0.0
  0
VERTEX
  5
359
330
334
100
AcDbEntity
  8
LAY-10
  6
CONTINUOUS
 62
     4
100
AcDbVertex
100
AcDb2dVertex
 10
1700.07788
 20
969.300165
 30
0.0
  0
VERTEX
  5
35A
330
334
100
AcDbEntity
  8
LAY-10
  6
CONTINUOUS
 62
     4
100
AcDbVertex
100
AcDb2dVertex
 10
1701.045290000001
 20
969.474531666667
 30
0.0
  0
VERTEX
  5
35B
330
334
100
AcDbEntity
  8
LAY-10
  6
CONTINUOUS
 62
     4
100
AcDbVertex
100
AcDb2dVertex
 10
1702.02124
 20
969.5831566666665
 30
0.0
  0
VERTEX
  5
35C
330
334
100
AcDbEntity
  8
LAY-10
  6
CONTINUOUS
 62
     4
100
AcDbVertex
100
AcDb2dVertex
 10
1702.99628
 20
969.6244816666664
 30
0.0
  0
VERTEX
  5
35D
330
334
100
AcDbEntity
  8
LAY-10
  6
CONTINUOUS
 62
     4
100
AcDbVertex
100
AcDb2dVertex
 10
1703.971925
 20
969.5980316666669
 30
0.0
  0
VERTEX
  5
35E
330
334
100
AcDbEntity
  8
LAY-10
  6
CONTINUOUS
 62
     4
100
AcDbVertex
100
AcDb2dVertex
 10
1704.925905000001
 20
969.504823333333
 30
0.0
  0
VERTEX
  5
35F
330
334
100
AcDbEntity
  8
LAY-10
  6
CONTINUOUS
 62
     4
100
AcDbVertex
100
AcDb2dVertex
 10
1705.872865
 20
969.3439066666671
 30
0.0
  0
VERTEX
  5
360
330
334
100
AcDbEntity
  8
LAY-10
  6
CONTINUOUS
 62
     4
100
AcDbVertex
100
AcDb2dVertex
 10
1706.781375
 20
969.1215483333333
 30
0.0
  0
VERTEX
  5
361
330
334
100
AcDbEntity
  8
LAY-10
  6
CONTINUOUS
 62
     4
100
AcDbVertex
100
AcDb2dVertex
 10
1707.67615
 20
968.8328400000003
 30
0.0
  0
VERTEX
  5
362
330
334
100
AcDbEntity
  8
LAY-10
  6
CONTINUOUS
 62
     4
100
AcDbVertex
100
AcDb2dVertex
 10
1708.521179999999
 20
968.4914566666669
 30
0.0
  0
VERTEX
  5
363
330
334
100
AcDbEntity
  8
LAY-10
  6
CONTINUOUS
 62
     4
100
AcDbVertex
100
AcDb2dVertex
 10
1709.34729
 20
968.086398333333
 30
0.0
  0
VERTEX
  5
364
330
334
100
AcDbEntity
  8
LAY-10
  6
CONTINUOUS
 62
     4
100
AcDbVertex
100
AcDb2dVertex
 10
1710.116945
 20
967.6379816666663
 30
0.0
  0
VERTEX
  5
365
330
334
100
AcDbEntity
  8
LAY-10
  6
CONTINUOUS
 62
     4
100
AcDbVertex
100
AcDb2dVertex
 10
1710.864015
 20
967.1295399999997
 30
0.0
  0
VERTEX
  5
366
330
334
100
AcDbEntity
  8
LAY-10
  6
CONTINUOUS
 62
     4
100
AcDbVertex
100
AcDb2dVertex
 10
1711.5531
 20
966.5871566666666
 30
0.0
  0
VERTEX
  5
367
330
334
100
AcDbEntity
  8
LAY-10
  6
CONTINUOUS
 62
     4
100
AcDbVertex
100
AcDb2dVertex
 10
1712.21625
 20
965.9881816666668
 30
0.0
  0
VERTEX
  5
368
330
334
100
AcDbEntity
  8
LAY-10
  6
CONTINUOUS
 62
     4
100
AcDbVertex
100
AcDb2dVertex
 10
1712.823245
 20
965.3627983333331
 30
0.0
  0
VERTEX
  5
369
330
334
100
AcDbEntity
  8
LAY-10
  6
CONTINUOUS
 62
     4
100
AcDbVertex
100
AcDb2dVertex
 10
1713.40216
 20
964.6844816666661
 30
0.0
  0
VERTEX
  5
36A
330
334
100
AcDbEntity
  8
LAY-10
  6
CONTINUOUS
 62
     4
100
AcDbVertex
100
AcDb2dVertex
 10
1713.92859
 20
963.9848316666667
 30
0.0
  0
VERTEX
  5
36B
330
334
100
AcDbEntity
  8
LAY-10
  6
CONTINUOUS
 62
     4
100
AcDbVertex
100
AcDb2dVertex
 10
1714.425415
 20
963.2354983333332
 30
0.0
  0
VERTEX
  5
36C
330
334
100
AcDbEntity
  8
LAY-10
  6
CONTINUOUS
 62
     4
100
AcDbVertex
100
AcDb2dVertex
 10
1714.874025000001
 20
962.467473333333
 30
0.0
  0
VERTEX
  5
36D
330
334
100
AcDbEntity
  8
LAY-10
  6
CONTINUOUS
 62
     4
100
AcDbVertex
100
AcDb2dVertex
 10
1715.292115
 20
961.6522733333335
 30
0.0
  0
VERTEX
  5
36E
330
334
100
AcDbEntity
  8
LAY-10
  6
CONTINUOUS
 62
     4
100
AcDbVertex
100
AcDb2dVertex
 10
1715.66626
 20
960.8187316666662
 30
0.0
  0
VERTEX
  5
36F
330
334
100
AcDbEntity
  8
LAY-10
  6
CONTINUOUS
 62
     4
100
AcDbVertex
100
AcDb2dVertex
 10
1716.00867
 20
959.939823333333
 30
0.0
  0
VERTEX
  5
370
330
334
100
AcDbEntity
  8
LAY-10
  6
CONTINUOUS
 62
     4
100
AcDbVertex
100
AcDb2dVertex
 10
1716.04346
 20
959.8435983333335
 30
0.0
  0
VERTEX
  5
371
330
334
100
AcDbEntity
  8
LAY-10
  6
CONTINUOUS
 62
     4
100
AcDbVertex
100
AcDb2dVertex
 10
1716.60895
 20
957.9999233333327
 30
0.0
  0
VERTEX
  5
372
330
334
100
AcDbEntity
  8
LAY-10
  6
CONTINUOUS
 62
     4
100
AcDbVertex
100
AcDb2dVertex
 10
1717.060915000001
 20
955.945265
 30
0.0
  0
VERTEX
  5
373
330
334
100
AcDbEntity
  8
LAY-10
  6
CONTINUOUS
 62
     4
100
AcDbVertex
100
AcDb2dVertex
 10
1717.381045
 20
953.7213566666662
 30
0.0
  0
VERTEX
  5
374
330
334
100
AcDbEntity
  8
LAY-10
  6
CONTINUOUS
 62
     4
100
AcDbVertex
100
AcDb2dVertex
 10
1717.55286
 20
951.3892149999996
 30
0.0
  0
VERTEX
  5
375
330
334
100
AcDbEntity
  8
LAY-10
  6
CONTINUOUS
 62
     4
100
AcDbVertex
100
AcDb2dVertex
 10
1717.579715000001
 20
950.2063399999998
 30
0.0
  0
VERTEX
  5
376
330
334
100
AcDbEntity
  8
LAY-10
  6
CONTINUOUS
 62
     4
100
AcDbVertex
100
AcDb2dVertex
 10
1717.566284999999
 20
949.02429
 30
0.0
  0
VERTEX
  5
377
330
334
100
AcDbEntity
  8
LAY-10
  6
CONTINUOUS
 62
     4
100
AcDbVertex
100
AcDb2dVertex
 10
1717.512880000001
 20
947.8591233333333
 30
0.0
  0
VERTEX
  5
378
330
334
100
AcDbEntity
  8
LAY-10
  6
CONTINUOUS
 62
     4
100
AcDbVertex
100
AcDb2dVertex
 10
1717.41919
 20
946.7067983333334
 30
0.0
  0
VERTEX
  5
379
330
334
100
AcDbEntity
  8
LAY-10
  6
CONTINUOUS
 62
     4
100
AcDbVertex
100
AcDb2dVertex
 10
1717.28827
 20
945.5969733333328
 30
0.0
  0
VERTEX
  5
37A
330
334
100
AcDbEntity
  8
LAY-10
  6
CONTINUOUS
 62
     4
100
AcDbVertex
100
AcDb2dVertex
 10
1717.118285
 20
944.5103233333327
 30
0.0
  0
VERTEX
  5
37B
330
334
100
AcDbEntity
  8
LAY-10
  6
CONTINUOUS
 62
     4
100
AcDbVertex
100
AcDb2dVertex
 10
1716.915955000001
 20
943.4855399999993
 30
0.0
  0
VERTEX
  5
37C
330
334
100
AcDbEntity
  8
LAY-10
  6
CONTINUOUS
 62
     4
100
AcDbVertex
100
AcDb2dVertex
 10
1716.676395000001
 20
942.4925066666664
 30
0.0
  0
VERTEX
  5
37D
330
334
100
AcDbEntity
  8
LAY-10
  6
CONTINUOUS
 62
     4
100
AcDbVertex
100
AcDb2dVertex
 10
1716.410280000001
 20
941.5720899999997
 30
0.0
  0
VERTEX
  5
37E
330
334
100
AcDbEntity
  8
LAY-10
  6
CONTINUOUS
 62
     4
100
AcDbVertex
100
AcDb2dVertex
 10
1716.109375
 20
940.6903483333327
 30
0.0
  0
VERTEX
  5
37F
330
334
100
AcDbEntity
  8
LAY-10
  6
CONTINUOUS
 62
     4
100
AcDbVertex
100
AcDb2dVertex
 10
1716.04346
 20
940.5149733333332
 30
0.0
  0
VERTEX
  5
380
330
334
100
AcDbEntity
  8
LAY-10
  6
CONTINUOUS
 62
     4
100
AcDbVertex
100
AcDb2dVertex
 10
1715.359560000001
 20
938.9667149999998
 30
0.0
  0
VERTEX
  5
381
330
334
100
AcDbEntity
  8
LAY-10
  6
CONTINUOUS
 62
     4
100
AcDbVertex
100
AcDb2dVertex
 10
1714.52124
 20
937.5081649999998
 30
0.0
  0
VERTEX
  5
382
330
334
100
AcDbEntity
  8
LAY-10
  6
CONTINUOUS
 62
     4
100
AcDbVertex
100
AcDb2dVertex
 10
1713.519655000001
 20
936.1409733333326
 30
0.0
  0
VERTEX
  5
383
330
334
100
AcDbEntity
  8
LAY-10
  6
CONTINUOUS
 62
     4
100
AcDbVertex
100
AcDb2dVertex
 10
1712.34595
 20
934.8734816666656
 30
0.0
  0
VERTEX
  5
384
330
334
100
AcDbEntity
  8
LAY-10
  6
CONTINUOUS
 62
     4
100
AcDbVertex
100
AcDb2dVertex
 10
1710.99402
 20
933.7211566666656
 30
0.0
  0
VERTEX
  5
385
330
334
100
AcDbEntity
  8
LAY-10
  6
CONTINUOUS
 62
     4
100
AcDbVertex
100
AcDb2dVertex
 10
1709.466615
 20
932.7061233333322
 30
0.0
  0
VERTEX
  5
386
330
334
100
AcDbEntity
  8
LAY-10
  6
CONTINUOUS
 62
     4
100
AcDbVertex
100
AcDb2dVertex
 10
1707.779910000001
 20
931.8585649999995
 30
0.0
  0
VERTEX
  5
387
330
334
100
AcDbEntity
  8
LAY-10
  6
CONTINUOUS
 62
     4
100
AcDbVertex
100
AcDb2dVertex
 10
1707.122559999999
 20
931.594081666666
 30
0.0
  0
SEQEND
  5
388
330
334
100
AcDbEntity
  8
LAY-10
  6
CONTINUOUS
 62
     4
  0
POLYLINE
  5
389
330
1F
100
AcDbEntity
  8
LAY-10
  6
CONTINUOUS
 62
     4
100
AcDb2dPolyline
 66
     1
 10
0.0
 20
0.0
 30
0.0
 70
   128
  0
VERTEX
  5
38A
330
389
100
AcDbEntity
  8
LAY-10
  6
CONTINUOUS
 62
     4
100
AcDbVertex
100
AcDb2dVertex
 10
1741.02179
 20
919.6995316666653
 30
0.0
  0
VERTEX
  5
38B
330
389
100
AcDbEntity
  8
LAY-10
  6
CONTINUOUS
 62
     4
100
AcDbVertex
100
AcDb2dVertex
 10
1739.92621
 20
919.009423333332
 30
0.0
  0
VERTEX
  5
38C
330
389
100
AcDbEntity
  8
LAY-10
  6
CONTINUOUS
 62
     4
100
AcDbVertex
100
AcDb2dVertex
 10
1738.808654999999
 20
918.3927816666659
 30
0.0
  0
VERTEX
  5
38D
330
389
100
AcDbEntity
  8
LAY-10
  6
CONTINUOUS
 62
     4
100
AcDbVertex
100
AcDb2dVertex
 10
1737.865049999999
 20
917.9490649999985
 30
0.0
  0
VERTEX
  5
38E
330
389
100
AcDbEntity
  8
LAY-10
  6
CONTINUOUS
 62
     4
100
AcDbVertex
100
AcDb2dVertex
 10
1736.909850000001
 20
917.5783733333318
 30
0.0
  0
VERTEX
  5
38F
330
389
100
AcDbEntity
  8
LAY-10
  6
CONTINUOUS
 62
     4
100
AcDbVertex
100
AcDb2dVertex
 10
1736.055665
 20
917.3195816666657
 30
0.0
  0
VERTEX
  5
390
330
389
100
AcDbEntity
  8
LAY-10
  6
CONTINUOUS
 62
     4
100
AcDbVertex
100
AcDb2dVertex
 10
1735.194155000001
 20
917.1332316666653
 30
0.0
  0
VERTEX
  5
391
330
389
100
AcDbEntity
  8
LAY-10
  6
CONTINUOUS
 62
     4
100
AcDbVertex
100
AcDb2dVertex
 10
1734.40253
 20
917.0325233333324
 30
0.0
  0
VERTEX
  5
392
330
389
100
AcDbEntity
  8
LAY-10
  6
CONTINUOUS
 62
     4
100
AcDbVertex
100
AcDb2dVertex
 10
1733.606325
 20
917.0032149999992
 30
0.0
  0
VERTEX
  5
393
330
389
100
AcDbEntity
  8
LAY-10
  6
CONTINUOUS
 62
     4
100
AcDbVertex
100
AcDb2dVertex
 10
1732.86139
 20
917.0449233333323
 30
0.0
  0
VERTEX
  5
394
330
389
100
AcDbEntity
  8
LAY-10
  6
CONTINUOUS
 62
     4
100
AcDbVertex
100
AcDb2dVertex
 10
1732.11371
 20
917.1580233333319
 30
0.0
  0
VERTEX
  5
395
330
389
100
AcDbEntity
  8
LAY-10
  6
CONTINUOUS
 62
     4
100
AcDbVertex
100
AcDb2dVertex
 10
1731.40448
 20
917.3344233333319
 30
0.0
  0
VERTEX
  5
396
330
389
100
AcDbEntity
  8
LAY-10
  6
CONTINUOUS
 62
     4
100
AcDbVertex
100
AcDb2dVertex
 10
1730.69403
 20
917.5820316666653
 30
0.0
  0
VERTEX
  5
397
330
389
100
AcDbEntity
  8
LAY-10
  6
CONTINUOUS
 62
     4
100
AcDbVertex
100
AcDb2dVertex
 10
1729.424805
 20
918.2127233333324
 30
0.0
  0
VERTEX
  5
398
330
389
100
AcDbEntity
  8
LAY-10
  6
CONTINUOUS
 62
     4
100
AcDbVertex
100
AcDb2dVertex
 10
1728.103395
 20
919.1386149999994
 30
0.0
  0
VERTEX
  5
399
330
389
100
AcDbEntity
  8
LAY-10
  6
CONTINUOUS
 62
     4
100
AcDbVertex
100
AcDb2dVertex
 10
1726.74048
 20
920.379473333332
 30
0.0
  0
VERTEX
  5
39A
330
389
100
AcDbEntity
  8
LAY-10
  6
CONTINUOUS
 62
     4
100
AcDbVertex
100
AcDb2dVertex
 10
1725.387635
 20
921.911039999999
 30
0.0
  0
VERTEX
  5
39B
330
389
100
AcDbEntity
  8
LAY-10
  6
CONTINUOUS
 62
     4
100
AcDbVertex
100
AcDb2dVertex
 10
1724.109560000001
 20
923.6763899999995
 30
0.0
  0
VERTEX
  5
39C
330
389
100
AcDbEntity
  8
LAY-10
  6
CONTINUOUS
 62
     4
100
AcDbVertex
100
AcDb2dVertex
 10
1723.522095
 20
924.6167399999996
 30
0.0
  0
VERTEX
  5
39D
330
389
100
AcDbEntity
  8
LAY-10
  6
CONTINUOUS
 62
     4
100
AcDbVertex
100
AcDb2dVertex
 10
1722.97339
 20
925.5888233333324
 30
0.0
  0
VERTEX
  5
39E
330
389
100
AcDbEntity
  8
LAY-10
  6
CONTINUOUS
 62
     4
100
AcDbVertex
100
AcDb2dVertex
 10
1722.480835
 20
926.5590899999993
 30
0.0
  0
VERTEX
  5
39F
330
389
100
AcDbEntity
  8
LAY-10
  6
CONTINUOUS
 62
     4
100
AcDbVertex
100
AcDb2dVertex
 10
1722.033144999999
 20
927.5472233333323
 30
0.0
  0
VERTEX
  5
3A0
330
389
100
AcDbEntity
  8
LAY-10
  6
CONTINUOUS
 62
     4
100
AcDbVertex
100
AcDb2dVertex
 10
1721.652285000001
 20
928.4995983333323
 30
0.0
  0
VERTEX
  5
3A1
330
389
100
AcDbEntity
  8
LAY-10
  6
CONTINUOUS
 62
     4
100
AcDbVertex
100
AcDb2dVertex
 10
1721.319640000001
 20
929.4578483333328
 30
0.0
  0
VERTEX
  5
3A2
330
389
100
AcDbEntity
  8
LAY-10
  6
CONTINUOUS
 62
     4
100
AcDbVertex
100
AcDb2dVertex
 10
1721.054445
 20
930.3566899999989
 30
0.0
  0
VERTEX
  5
3A3
330
389
100
AcDbEntity
  8
LAY-10
  6
CONTINUOUS
 62
     4
100
AcDbVertex
100
AcDb2dVertex
 10
1720.837465
 20
931.2518733333327
 30
0.0
  0
VERTEX
  5
3A4
330
389
100
AcDbEntity
  8
LAY-10
  6
CONTINUOUS
 62
     4
100
AcDbVertex
100
AcDb2dVertex
 10
1720.68152
 20
932.0766733333327
 30
0.0
  0
VERTEX
  5
3A5
330
389
100
AcDbEntity
  8
LAY-10
  6
CONTINUOUS
 62
     4
100
AcDbVertex
100
AcDb2dVertex
 10
1720.57196
 20
932.8912649999995
 30
0.0
  0
VERTEX
  5
3A6
330
389
100
AcDbEntity
  8
LAY-10
  6
CONTINUOUS
 62
     4
100
AcDbVertex
100
AcDb2dVertex
 10
1720.51398
 20
933.6358983333324
 30
0.0
  0
VERTEX
  5
3A7
330
389
100
AcDbEntity
  8
LAY-10
  6
CONTINUOUS
 62
     4
100
AcDbVertex
100
AcDb2dVertex
 10
1720.499635
 20
934.3658733333331
 30
0.0
  0
VERTEX
  5
3A8
330
389
100
AcDbEntity
  8
LAY-10
  6
CONTINUOUS
 62
     4
100
AcDbVertex
100
AcDb2dVertex
 10
1720.503905
 20
934.5676983333323
 30
0.0
  0
VERTEX
  5
3A9
330
389
100
AcDbEntity
  8
LAY-10
  6
CONTINUOUS
 62
     4
100
AcDbVertex
100
AcDb2dVertex
 10
1720.62018
 20
935.8691816666661
 30
0.0
  0
VERTEX
  5
3AA
330
389
100
AcDbEntity
  8
LAY-10
  6
CONTINUOUS
 62
     4
100
AcDbVertex
100
AcDb2dVertex
 10
1720.895755
 20
937.1728816666661
 30
0.0
  0
VERTEX
  5
3AB
330
389
100
AcDbEntity
  8
LAY-10
  6
CONTINUOUS
 62
     4
100
AcDbVertex
100
AcDb2dVertex
 10
1721.34833
 20
938.5252233333326
 30
0.0
  0
VERTEX
  5
3AC
330
389
100
AcDbEntity
  8
LAY-10
  6
CONTINUOUS
 62
     4
100
AcDbVertex
100
AcDb2dVertex
 10
1722.01514
 20
939.9829483333328
 30
0.0
  0
VERTEX
  5
3AD
330
389
100
AcDbEntity
  8
LAY-10
  6
CONTINUOUS
 62
     4
100
AcDbVertex
100
AcDb2dVertex
 10
1722.96332
 20
941.6325149999996
 30
0.0
  0
VERTEX
  5
3AE
330
389
100
AcDbEntity
  8
LAY-10
  6
CONTINUOUS
 62
     4
100
AcDbVertex
100
AcDb2dVertex
 10
1724.33142
 20
943.6586983333332
 30
0.0
  0
VERTEX
  5
3AF
330
389
100
AcDbEntity
  8
LAY-10
  6
CONTINUOUS
 62
     4
100
AcDbVertex
100
AcDb2dVertex
 10
1726.612305
 20
946.7737149999996
 30
0.0
  0
VERTEX
  5
3B0
330
389
100
AcDbEntity
  8
LAY-10
  6
CONTINUOUS
 62
     4
100
AcDbVertex
100
AcDb2dVertex
 10
1728.033509999999
 20
948.7750649999992
 30
0.0
  0
VERTEX
  5
3B1
330
389
100
AcDbEntity
  8
LAY-10
  6
CONTINUOUS
 62
     4
100
AcDbVertex
100
AcDb2dVertex
 10
1729.424805
 20
950.9226733333333
 30
0.0
  0
VERTEX
  5
3B2
330
389
100
AcDbEntity
  8
LAY-10
  6
CONTINUOUS
 62
     4
100
AcDbVertex
100
AcDb2dVertex
 10
1730.833799999999
 20
953.4070233333325
 30
0.0
  0
VERTEX
  5
3B3
330
389
100
AcDbEntity
  8
LAY-10
  6
CONTINUOUS
 62
     4
100
AcDbVertex
100
AcDb2dVertex
 10
1732.451845
 20
956.5989400000001
 30
0.0
  0
VERTEX
  5
3B4
330
389
100
AcDbEntity
  8
LAY-10
  6
CONTINUOUS
 62
     4
100
AcDbVertex
100
AcDb2dVertex
 10
1734.789795000001
 20
961.4524816666662
 30
0.0
  0
VERTEX
  5
3B5
330
389
100
AcDbEntity
  8
LAY-10
  6
CONTINUOUS
 62
     4
100
AcDbVertex
100
AcDb2dVertex
 10
1735.801760000001
 20
963.4418066666668
 30
0.0
  0
VERTEX
  5
3B6
330
389
100
AcDbEntity
  8
LAY-10
  6
CONTINUOUS
 62
     4
100
AcDbVertex
100
AcDb2dVertex
 10
1736.79938
 20
965.2108149999998
 30
0.0
  0
VERTEX
  5
3B7
330
389
100
AcDbEntity
  8
LAY-10
  6
CONTINUOUS
 62
     4
100
AcDbVertex
100
AcDb2dVertex
 10
1737.375245
 20
966.1098733333332
 30
0.0
  0
VERTEX
  5
3B8
330
389
100
AcDbEntity
  8
LAY-10
  6
CONTINUOUS
 62
     4
100
AcDbVertex
100
AcDb2dVertex
 10
1737.95172
 20
966.9000566666667
 30
0.0
  0
VERTEX
  5
3B9
330
389
100
AcDbEntity
  8
LAY-10
  6
CONTINUOUS
 62
     4
100
AcDbVertex
100
AcDb2dVertex
 10
1738.42627
 20
967.4577316666666
 30
0.0
  0
VERTEX
  5
3BA
330
389
100
AcDbEntity
  8
LAY-10
  6
CONTINUOUS
 62
     4
100
AcDbVertex
100
AcDb2dVertex
 10
1738.903565
 20
967.9266900000001
 30
0.0
  0
VERTEX
  5
3BB
330
389
100
AcDbEntity
  8
LAY-10
  6
CONTINUOUS
 62
     4
100
AcDbVertex
100
AcDb2dVertex
 10
1739.323794999999
 20
968.2583150000005
 30
0.0
  0
VERTEX
  5
3BC
330
389
100
AcDbEntity
  8
LAY-10
  6
CONTINUOUS
 62
     4
100
AcDbVertex
100
AcDb2dVertex
 10
1739.747679999999
 20
968.5122149999997
 30
0.0
  0
VERTEX
  5
3BD
330
389
100
AcDbEntity
  8
LAY-10
  6
CONTINUOUS
 62
     4
100
AcDbVertex
100
AcDb2dVertex
 10
1740.13739
 20
968.6716983333332
 30
0.0
  0
VERTEX
  5
3BE
330
389
100
AcDbEntity
  8
LAY-10
  6
CONTINUOUS
 62
     4
100
AcDbVertex
100
AcDb2dVertex
 10
1740.531070000001
 20
968.7595899999997
 30
0.0
  0
VERTEX
  5
3BF
330
389
100
AcDbEntity
  8
LAY-10
  6
CONTINUOUS
 62
     4
100
AcDbVertex
100
AcDb2dVertex
 10
1741.02179
 20
968.7644900000005
 30
0.0
  0
VERTEX
  5
3C0
330
389
100
AcDbEntity
  8
LAY-10
  6
CONTINUOUS
 62
     4
100
AcDbVertex
100
AcDb2dVertex
 10
1741.773745
 20
968.5516649999996
 30
0.0
  0
VERTEX
  5
3C1
330
389
100
AcDbEntity
  8
LAY-10
  6
CONTINUOUS
 62
     4
100
AcDbVertex
100
AcDb2dVertex
 10
1742.597414999999
 20
968.0489483333338
 30
0.0
  0
VERTEX
  5
3C2
330
389
100
AcDbEntity
  8
LAY-10
  6
CONTINUOUS
 62
     4
100
AcDbVertex
100
AcDb2dVertex
 10
1743.510195
 20
967.2088900000001
 30
0.0
  0
VERTEX
  5
3C3
330
389
100
AcDbEntity
  8
LAY-10
  6
CONTINUOUS
 62
     4
100
AcDbVertex
100
AcDb2dVertex
 10
1744.526735000001
 20
965.971715
 30
0.0
  0
VERTEX
  5
3C4
330
389
100
AcDbEntity
  8
LAY-10
  6
CONTINUOUS
 62
     4
100
AcDbVertex
100
AcDb2dVertex
 10
1745.65924
 20
964.2698566666661
 30
0.0
  0
VERTEX
  5
3C5
330
389
100
AcDbEntity
  8
LAY-10
  6
CONTINUOUS
 62
     4
100
AcDbVertex
100
AcDb2dVertex
 10
1746.91504
 20
962.0353650000002
 30
0.0
  0
VERTEX
  5
3C6
330
389
100
AcDbEntity
  8
LAY-10
  6
CONTINUOUS
 62
     4
100
AcDbVertex
100
AcDb2dVertex
 10
1748.293825
 20
959.2122649999995
 30
0.0
  0
VERTEX
  5
3C7
330
389
100
AcDbEntity
  8
LAY-10
  6
CONTINUOUS
 62
     4
100
AcDbVertex
100
AcDb2dVertex
 10
1749.781555000001
 20
955.778023333333
 30
0.0
  0
VERTEX
  5
3C8
330
389
100
AcDbEntity
  8
LAY-10
  6
CONTINUOUS
 62
     4
100
AcDbVertex
100
AcDb2dVertex
 10
1749.942689999999
 20
955.3831316666666
 30
0.0
  0
VERTEX
  5
3C9
330
389
100
AcDbEntity
  8
LAY-10
  6
CONTINUOUS
 62
     4
100
AcDbVertex
100
AcDb2dVertex
 10
1750.75812
 20
953.3154733333325
 30
0.0
  0
VERTEX
  5
3CA
330
389
100
AcDbEntity
  8
LAY-10
  6
CONTINUOUS
 62
     4
100
AcDbVertex
100
AcDb2dVertex
 10
1751.512819999999
 20
951.2762983333329
 30
0.0
  0
VERTEX
  5
3CB
330
389
100
AcDbEntity
  8
LAY-10
  6
CONTINUOUS
 62
     4
100
AcDbVertex
100
AcDb2dVertex
 10
1752.17627
 20
949.3547066666662
 30
0.0
  0
VERTEX
  5
3CC
330
389
100
AcDbEntity
  8
LAY-10
  6
CONTINUOUS
 62
     4
100
AcDbVertex
100
AcDb2dVertex
 10
1752.787844999999
 20
947.446339999999
 30
0.0
  0
VERTEX
  5
3CD
330
389
100
AcDbEntity
  8
LAY-10
  6
CONTINUOUS
 62
     4
100
AcDbVertex
100
AcDb2dVertex
 10
1753.331055
 20
945.6093733333328
 30
0.0
  0
VERTEX
  5
3CE
330
389
100
AcDbEntity
  8
LAY-10
  6
CONTINUOUS
 62
     4
100
AcDbVertex
100
AcDb2dVertex
 10
1753.82849
 20
943.7736483333329
 30
0.0
  0
VERTEX
  5
3CF
330
389
100
AcDbEntity
  8
LAY-10
  6
CONTINUOUS
 62
     4
100
AcDbVertex
100
AcDb2dVertex
 10
1754.273135
 20
941.9702483333328
 30
0.0
  0
VERTEX
  5
3D0
330
389
100
AcDbEntity
  8
LAY-10
  6
CONTINUOUS
 62
     4
100
AcDbVertex
100
AcDb2dVertex
 10
1754.676575
 20
940.157506666666
 30
0.0
  0
VERTEX
  5
3D1
330
389
100
AcDbEntity
  8
LAY-10
  6
CONTINUOUS
 62
     4
100
AcDbVertex
100
AcDb2dVertex
 10
1755.361085000001
 20
936.5061733333323
 30
0.0
  0
VERTEX
  5
3D2
330
389
100
AcDbEntity
  8
LAY-10
  6
CONTINUOUS
 62
     4
100
AcDbVertex
100
AcDb2dVertex
 10
1755.90216
 20
932.727489999999
 30
0.0
  0
VERTEX
  5
3D3
330
389
100
AcDbEntity
  8
LAY-10
  6
CONTINUOUS
 62
     4
100
AcDbVertex
100
AcDb2dVertex
 10
1756.1875
 20
930.1072733333331
 30
0.0
  0
SEQEND
  5
3D4
330
389
100
AcDbEntity
  8
LAY-10
  6
CONTINUOUS
 62
     4
  0
POLYLINE
  5
3D5
330
1F
100
AcDbEntity
  8
LAY-10
  6
CONTINUOUS
 62
     4
100
AcDb2dPolyline
 66
     1
 10
0.0
 20
0.0
 30
0.0
 70
   128
  0
VERTEX
  5
3D6
330
3D5
100
AcDbEntity
  8
LAY-10
  6
CONTINUOUS
 62
     4
100
AcDbVertex
100
AcDb2dVertex
 10
1763.324035
 20
931.594081666666
 30
0.0
  0
VERTEX
  5
3D7
330
3D5
100
AcDbEntity
  8
LAY-10
  6
CONTINUOUS
 62
     4
100
AcDbVertex
100
AcDb2dVertex
 10
1762.17627
 20
932.7720566666659
 30
0.0
  0
VERTEX
  5
3D8
330
3D5
100
AcDbEntity
  8
LAY-10
  6
CONTINUOUS
 62
     4
100
AcDbVertex
100
AcDb2dVertex
 10
1760.987000000001
 20
934.0788149999997
 30
0.0
  0
VERTEX
  5
3D9
330
3D5
100
AcDbEntity
  8
LAY-10
  6
CONTINUOUS
 62
     4
100
AcDbVertex
100
AcDb2dVertex
 10
1759.879825
 20
935.379689999999
 30
0.0
  0
VERTEX
  5
3DA
330
3D5
100
AcDbEntity
  8
LAY-10
  6
CONTINUOUS
 62
     4
100
AcDbVertex
100
AcDb2dVertex
 10
1758.780580000001
 20
936.7633399999996
 30
0.0
  0
VERTEX
  5
3DB
330
3D5
100
AcDbEntity
  8
LAY-10
  6
CONTINUOUS
 62
     4
100
AcDbVertex
100
AcDb2dVertex
 10
1757.826295
 20
938.0532233333327
 30
0.0
  0
VERTEX
  5
3DC
330
3D5
100
AcDbEntity
  8
LAY-10
  6
CONTINUOUS
 62
     4
100
AcDbVertex
100
AcDb2dVertex
 10
1756.908629999999
 20
939.389889999999
 30
0.0
  0
VERTEX
  5
3DD
330
3D5
100
AcDbEntity
  8
LAY-10
  6
CONTINUOUS
 62
     4
100
AcDbVertex
100
AcDb2dVertex
 10
1756.1402
 20
940.6022649999991
 30
0.0
  0
VERTEX
  5
3DE
330
3D5
100
AcDbEntity
  8
LAY-10
  6
CONTINUOUS
 62
     4
100
AcDbVertex
100
AcDb2dVertex
 10
1755.42151
 20
941.8384149999998
 30
0.0
  0
VERTEX
  5
3DF
330
3D5
100
AcDbEntity
  8
LAY-10
  6
CONTINUOUS
 62
     4
100
AcDbVertex
100
AcDb2dVertex
 10
1754.83496
 20
942.9476316666666
 30
0.0
  0
VERTEX
  5
3E0
330
3D5
100
AcDbEntity
  8
LAY-10
  6
CONTINUOUS
 62
     4
100
AcDbVertex
100
AcDb2dVertex
 10
1754.30182
 20
944.0666149999998
 30
0.0
  0
VERTEX
  5
3E1
330
3D5
100
AcDbEntity
  8
LAY-10
  6
CONTINUOUS
 62
     4
100
AcDbVertex
100
AcDb2dVertex
 10
1753.878235
 20
945.0675899999993
 30
0.0
  0
VERTEX
  5
3E2
330
3D5
100
AcDbEntity
  8
LAY-10
  6
CONTINUOUS
 62
     4
100
AcDbVertex
100
AcDb2dVertex
 10
1753.507444999999
 20
946.0697733333328
 30
0.0
  0
VERTEX
  5
3E3
330
3D5
100
AcDbEntity
  8
LAY-10
  6
CONTINUOUS
 62
     4
100
AcDbVertex
100
AcDb2dVertex
 10
1753.223939999999
 20
946.9680066666666
 30
0.0
  0
VERTEX
  5
3E4
330
3D5
100
AcDbEntity
  8
LAY-10
  6
CONTINUOUS
 62
     4
100
AcDbVertex
100
AcDb2dVertex
 10
1752.99048
 20
947.8625899999997
 30
0.0
  0
VERTEX
  5
3E5
330
3D5
100
AcDbEntity
  8
LAY-10
  6
CONTINUOUS
 62
     4
100
AcDbVertex
100
AcDb2dVertex
 10
1752.825075
 20
948.6688566666659
 30
0.0
  0
VERTEX
  5
3E6
330
3D5
100
AcDbEntity
  8
LAY-10
  6
CONTINUOUS
 62
     4
100
AcDbVertex
100
AcDb2dVertex
 10
1752.706665
 20
949.4688316666659
 30
0.0
  0
VERTEX
  5
3E7
330
3D5
100
AcDbEntity
  8
LAY-10
  6
CONTINUOUS
 62
     4
100
AcDbVertex
100
AcDb2dVertex
 10
1752.641055000001
 20
950.1975983333325
 30
0.0
  0
VERTEX
  5
3E8
330
3D5
100
AcDbEntity
  8
LAY-10
  6
CONTINUOUS
 62
     4
100
AcDbVertex
100
AcDb2dVertex
 10
1752.619080000001
 20
950.9186066666664
 30
0.0
  0
VERTEX
  5
3E9
330
3D5
100
AcDbEntity
  8
LAY-10
  6
CONTINUOUS
 62
     4
100
AcDbVertex
100
AcDb2dVertex
 10
1752.699645000001
 20
952.2483733333332
 30
0.0
  0
VERTEX
  5
3EA
330
3D5
100
AcDbEntity
  8
LAY-10
  6
CONTINUOUS
 62
     4
100
AcDbVertex
100
AcDb2dVertex
 10
1752.939515
 20
953.5783399999997
 30
0.0
  0
VERTEX
  5
3EB
330
3D5
100
AcDbEntity
  8
LAY-10
  6
CONTINUOUS
 62
     4
100
AcDbVertex
100
AcDb2dVertex
 10
1753.349975
 20
954.930456666666
 30
0.0
  0
VERTEX
  5
3EC
330
3D5
100
AcDbEntity
  8
LAY-10
  6
CONTINUOUS
 62
     4
100
AcDbVertex
100
AcDb2dVertex
 10
1753.94995
 20
956.3169733333327
 30
0.0
  0
VERTEX
  5
3ED
330
3D5
100
AcDbEntity
  8
LAY-10
  6
CONTINUOUS
 62
     4
100
AcDbVertex
100
AcDb2dVertex
 10
1754.763855
 20
957.7431649999996
 30
0.0
  0
VERTEX
  5
3EE
330
3D5
100
AcDbEntity
  8
LAY-10
  6
CONTINUOUS
 62
     4
100
AcDbVertex
100
AcDb2dVertex
 10
1755.819155000001
 20
959.2063816666661
 30
0.0
  0
VERTEX
  5
3EF
330
3D5
100
AcDbEntity
  8
LAY-10
  6
CONTINUOUS
 62
     4
100
AcDbVertex
100
AcDb2dVertex
 10
1757.140565
 20
960.6942150000003
 30
0.0
  0
VERTEX
  5
3F0
330
3D5
100
AcDbEntity
  8
LAY-10
  6
CONTINUOUS
 62
     4
100
AcDbVertex
100
AcDb2dVertex
 10
1758.745789999999
 20
962.1830566666663
 30
0.0
  0
VERTEX
  5
3F1
330
3D5
100
AcDbEntity
  8
LAY-10
  6
CONTINUOUS
 62
     4
100
AcDbVertex
100
AcDb2dVertex
 10
1760.63605
 20
963.6361066666669
 30
0.0
  0
VERTEX
  5
3F2
330
3D5
100
AcDbEntity
  8
LAY-10
  6
CONTINUOUS
 62
     4
100
AcDbVertex
100
AcDb2dVertex
 10
1762.787540000001
 20
965.002465
 30
0.0
  0
VERTEX
  5
3F3
330
3D5
100
AcDbEntity
  8
LAY-10
  6
CONTINUOUS
 62
     4
100
AcDbVertex
100
AcDb2dVertex
 10
1765.13861
 20
966.2168733333331
 30
0.0
  0
VERTEX
  5
3F4
330
3D5
100
AcDbEntity
  8
LAY-10
  6
CONTINUOUS
 62
     4
100
AcDbVertex
100
AcDb2dVertex
 10
1767.581240000001
 20
967.2072650000003
 30
0.0
  0
VERTEX
  5
3F5
330
3D5
100
AcDbEntity
  8
LAY-10
  6
CONTINUOUS
 62
     4
100
AcDbVertex
100
AcDb2dVertex
 10
1767.784485
 20
967.2776816666665
 30
0.0
  0
VERTEX
  5
3F6
330
3D5
100
AcDbEntity
  8
LAY-10
  6
CONTINUOUS
 62
     4
100
AcDbVertex
100
AcDb2dVertex
 10
1768.992065
 20
967.6546650000001
 30
0.0
  0
VERTEX
  5
3F7
330
3D5
100
AcDbEntity
  8
LAY-10
  6
CONTINUOUS
 62
     4
100
AcDbVertex
100
AcDb2dVertex
 10
1770.177064999999
 20
967.9539316666662
 30
0.0
  0
VERTEX
  5
3F8
330
3D5
100
AcDbEntity
  8
LAY-10
  6
CONTINUOUS
 62
     4
100
AcDbVertex
100
AcDb2dVertex
 10
1771.280580000001
 20
968.1643066666666
 30
0.0
  0
VERTEX
  5
3F9
330
3D5
100
AcDbEntity
  8
LAY-10
  6
CONTINUOUS
 62
     4
100
AcDbVertex
100
AcDb2dVertex
 10
1772.364260000001
 20
968.3010316666663
 30
0.0
  0
VERTEX
  5
3FA
330
3D5
100
AcDbEntity
  8
LAY-10
  6
CONTINUOUS
 62
     4
100
AcDbVertex
100
AcDb2dVertex
 10
1773.381105
 20
968.3618483333329
 30
0.0
  0
VERTEX
  5
3FB
330
3D5
100
AcDbEntity
  8
LAY-10
  6
CONTINUOUS
 62
     4
100
AcDbVertex
100
AcDb2dVertex
 10
1774.379945
 20
968.3526899999999
 30
0.0
  0
VERTEX
  5
3FC
330
3D5
100
AcDbEntity
  8
LAY-10
  6
CONTINUOUS
 62
     4
100
AcDbVertex
100
AcDb2dVertex
 10
1775.32294
 20
968.2766233333331
 30
0.0
  0
VERTEX
  5
3FD
330
3D5
100
AcDbEntity
  8
LAY-10
  6
CONTINUOUS
 62
     4
100
AcDbVertex
100
AcDb2dVertex
 10
1776.24884
 20
968.1331899999999
 30
0.0
  0
VERTEX
  5
3FE
330
3D5
100
AcDbEntity
  8
LAY-10
  6
CONTINUOUS
 62
     4
100
AcDbVertex
100
AcDb2dVertex
 10
1777.128664999999
 20
967.9293233333335
 30
0.0
  0
VERTEX
  5
3FF
330
3D5
100
AcDbEntity
  8
LAY-10
  6
CONTINUOUS
 62
     4
100
AcDbVertex
100
AcDb2dVertex
 10
1777.992920000001
 20
967.6601650000005
 30
0.0
  0
VERTEX
  5
400
330
3D5
100
AcDbEntity
  8
LAY-10
  6
CONTINUOUS
 62
     4
100
AcDbVertex
100
AcDb2dVertex
 10
1778.818725
 20
967.334423333333
 30
0.0
  0
VERTEX
  5
401
330
3D5
100
AcDbEntity
  8
LAY-10
  6
CONTINUOUS
 62
     4
100
AcDbVertex
100
AcDb2dVertex
 10
1779.629885000001
 20
966.9446233333338
 30
0.0
  0
VERTEX
  5
402
330
3D5
100
AcDbEntity
  8
LAY-10
  6
CONTINUOUS
 62
     4
100
AcDbVertex
100
AcDb2dVertex
 10
1780.409914999999
 20
966.4994816666663
 30
0.0
  0
VERTEX
  5
403
330
3D5
100
AcDbEntity
  8
LAY-10
  6
CONTINUOUS
 62
     4
100
AcDbVertex
100
AcDb2dVertex
 10
1781.1756
 20
965.9910483333329
 30
0.0
  0
VERTEX
  5
404
330
3D5
100
AcDbEntity
  8
LAY-10
  6
CONTINUOUS
 62
     4
100
AcDbVertex
100
AcDb2dVertex
 10
1781.91687
 20
965.4266649999996
 30
0.0
  0
VERTEX
  5
405
330
3D5
100
AcDbEntity
  8
LAY-10
  6
CONTINUOUS
 62
     4
100
AcDbVertex
100
AcDb2dVertex
 10
1782.644105000001
 20
964.7986316666669
 30
0.0
  0
VERTEX
  5
406
330
3D5
100
AcDbEntity
  8
LAY-10
  6
CONTINUOUS
 62
     4
100
AcDbVertex
100
AcDb2dVertex
 10
1783.352115000001
 20
964.1113566666664
 30
0.0
  0
VERTEX
  5
407
330
3D5
100
AcDbEntity
  8
LAY-10
  6
CONTINUOUS
 62
     4
100
AcDbVertex
100
AcDb2dVertex
 10
1784.04639
 20
963.3594149999997
 30
0.0
  0
VERTEX
  5
408
330
3D5
100
AcDbEntity
  8
LAY-10
  6
CONTINUOUS
 62
     4
100
AcDbVertex
100
AcDb2dVertex
 10
1785.392215000001
 20
961.6610149999998
 30
0.0
  0
VERTEX
  5
409
330
3D5
100
AcDbEntity
  8
LAY-10
  6
CONTINUOUS
 62
     4
100
AcDbVertex
100
AcDb2dVertex
 10
1785.626285
 20
961.3304066666666
 30
0.0
  0
VERTEX
  5
40A
330
3D5
100
AcDbEntity
  8
LAY-10
  6
CONTINUOUS
 62
     4
100
AcDbVertex
100
AcDb2dVertex
 10
1786.910770000001
 20
959.311165
 30
0.0
  0
VERTEX
  5
40B
330
3D5
100
AcDbEntity
  8
LAY-10
  6
CONTINUOUS
 62
     4
100
AcDbVertex
100
AcDb2dVertex
 10
1788.137575
 20
957.0146150000002
 30
0.0
  0
VERTEX
  5
40C
330
3D5
100
AcDbEntity
  8
LAY-10
  6
CONTINUOUS
 62
     4
100
AcDbVertex
100
AcDb2dVertex
 10
1788.712525
 20
955.7873983333329
 30
0.0
  0
VERTEX
  5
40D
330
3D5
100
AcDbEntity
  8
LAY-10
  6
CONTINUOUS
 62
     4
100
AcDbVertex
100
AcDb2dVertex
 10
1789.256655000001
 20
954.5166233333335
 30
0.0
  0
VERTEX
  5
40E
330
3D5
100
AcDbEntity
  8
LAY-10
  6
CONTINUOUS
 62
     4
100
AcDbVertex
100
AcDb2dVertex
 10
1789.759585000001
 20
953.2267483333329
 30
0.0
  0
VERTEX
  5
40F
330
3D5
100
AcDbEntity
  8
LAY-10
  6
CONTINUOUS
 62
     4
100
AcDbVertex
100
AcDb2dVertex
 10
1790.225890000001
 20
951.9057566666667
 30
0.0
  0
VERTEX
  5
410
330
3D5
100
AcDbEntity
  8
LAY-10
  6
CONTINUOUS
 62
     4
100
AcDbVertex
100
AcDb2dVertex
 10
1790.640625
 20
950.597156666666
 30
0.0
  0
VERTEX
  5
411
330
3D5
100
AcDbEntity
  8
LAY-10
  6
CONTINUOUS
 62
     4
100
AcDbVertex
100
AcDb2dVertex
 10
1791.014770000001
 20
949.2694483333329
 30
0.0
  0
VERTEX
  5
412
330
3D5
100
AcDbEntity
  8
LAY-10
  6
CONTINUOUS
 62
     4
100
AcDbVertex
100
AcDb2dVertex
 10
1791.33307
 20
947.9807816666664
 30
0.0
  0
VERTEX
  5
413
330
3D5
100
AcDbEntity
  8
LAY-10
  6
CONTINUOUS
 62
     4
100
AcDbVertex
100
AcDb2dVertex
 10
1791.608339999999
 20
946.6831816666667
 30
0.0
  0
VERTEX
  5
414
330
3D5
100
AcDbEntity
  8
LAY-10
  6
CONTINUOUS
 62
     4
100
AcDbVertex
100
AcDb2dVertex
 10
1791.82837
 20
945.4423483333329
 30
0.0
  0
VERTEX
  5
415
330
3D5
100
AcDbEntity
  8
LAY-10
  6
CONTINUOUS
 62
     4
100
AcDbVertex
100
AcDb2dVertex
 10
1792.005065
 20
944.2016816666666
 30
0.0
  0
VERTEX
  5
416
330
3D5
100
AcDbEntity
  8
LAY-10
  6
CONTINUOUS
 62
     4
100
AcDbVertex
100
AcDb2dVertex
 10
1792.129885000001
 20
943.0273983333326
 30
0.0
  0
VERTEX
  5
417
330
3D5
100
AcDbEntity
  8
LAY-10
  6
CONTINUOUS
 62
     4
100
AcDbVertex
100
AcDb2dVertex
 10
1792.211974999999
 20
941.8597816666656
 30
0.0
  0
VERTEX
  5
418
330
3D5
100
AcDbEntity
  8
LAY-10
  6
CONTINUOUS
 62
     4
100
AcDbVertex
100
AcDb2dVertex
 10
1792.247679999999
 20
940.7613399999992
 30
0.0
  0
VERTEX
  5
419
330
3D5
100
AcDbEntity
  8
LAY-10
  6
CONTINUOUS
 62
     4
100
AcDbVertex
100
AcDb2dVertex
 10
1792.241275
 20
939.6745316666661
 30
0.0
  0
VERTEX
  5
41A
330
3D5
100
AcDbEntity
  8
LAY-10
  6
CONTINUOUS
 62
     4
100
AcDbVertex
100
AcDb2dVertex
 10
1792.194275000001
 20
938.6546066666662
 30
0.0
  0
VERTEX
  5
41B
330
3D5
100
AcDbEntity
  8
LAY-10
  6
CONTINUOUS
 62
     4
100
AcDbVertex
100
AcDb2dVertex
 10
1792.10608
 20
937.6499733333333
 30
0.0
  0
VERTEX
  5
41C
330
3D5
100
AcDbEntity
  8
LAY-10
  6
CONTINUOUS
 62
     4
100
AcDbVertex
100
AcDb2dVertex
 10
1791.871095
 20
936.0545066666663
 30
0.0
  0
VERTEX
  5
41D
330
3D5
100
AcDbEntity
  8
LAY-10
  6
CONTINUOUS
 62
     4
100
AcDbVertex
100
AcDb2dVertex
 10
1791.462465
 20
934.3081066666663
 30
0.0
  0
VERTEX
  5
41E
330
3D5
100
AcDbEntity
  8
LAY-10
  6
CONTINUOUS
 62
     4
100
AcDbVertex
100
AcDb2dVertex
 10
1790.883545000001
 20
932.5533483333323
 30
0.0
  0
VERTEX
  5
41F
330
3D5
100
AcDbEntity
  8
LAY-10
  6
CONTINUOUS
 62
     4
100
AcDbVertex
100
AcDb2dVertex
 10
1790.121215000001
 20
930.7851399999993
 30
0.0
  0
VERTEX
  5
420
330
3D5
100
AcDbEntity
  8
LAY-10
  6
CONTINUOUS
 62
     4
100
AcDbVertex
100
AcDb2dVertex
 10
1789.161135000001
 20
929.0041566666662
 30
0.0
  0
VERTEX
  5
421
330
3D5
100
AcDbEntity
  8
LAY-10
  6
CONTINUOUS
 62
     4
100
AcDbVertex
100
AcDb2dVertex
 10
1787.988955
 20
927.2186566666662
 30
0.0
  0
VERTEX
  5
422
330
3D5
100
AcDbEntity
  8
LAY-10
  6
CONTINUOUS
 62
     4
100
AcDbVertex
100
AcDb2dVertex
 10
1786.596129999999
 20
925.4455816666655
 30
0.0
  0
VERTEX
  5
423
330
3D5
100
AcDbEntity
  8
LAY-10
  6
CONTINUOUS
 62
     4
100
AcDbVertex
100
AcDb2dVertex
 10
1784.984195000001
 20
923.7144399999992
 30
0.0
  0
VERTEX
  5
424
330
3D5
100
AcDbEntity
  8
LAY-10
  6
CONTINUOUS
 62
     4
100
AcDbVertex
100
AcDb2dVertex
 10
1783.175415
 20
922.0719899999992
 30
0.0
  0
VERTEX
  5
425
330
3D5
100
AcDbEntity
  8
LAY-10
  6
CONTINUOUS
 62
     4
100
AcDbVertex
100
AcDb2dVertex
 10
1782.058169999999
 20
921.1863483333327
 30
0.0
  0
SEQEND
  5
426
330
3D5
100
AcDbEntity
  8
LAY-10
  6
CONTINUOUS
 62
     4
  0
POLYLINE
  5
427
330
1F
100
AcDbEntity
  8
LAY-10
  6
CONTINUOUS
 62
     4
100
AcDb2dPolyline
 66
     1
 10
0.0
 20
0.0
 30
0.0
 70
   128
  0
VERTEX
  5
428
330
427
100
AcDbEntity
  8
LAY-10
  6
CONTINUOUS
 62
     4
100
AcDbVertex
100
AcDb2dVertex
 10
1923.324340000001
 20
931.594081666666
 30
0.0
  0
VERTEX
  5
429
330
427
100
AcDbEntity
  8
LAY-10
  6
CONTINUOUS
 62
     4
100
AcDbVertex
100
AcDb2dVertex
 10
1922.177185
 20
932.771039999999
 30
0.0
  0
VERTEX
  5
42A
330
427
100
AcDbEntity
  8
LAY-10
  6
CONTINUOUS
 62
     4
100
AcDbVertex
100
AcDb2dVertex
 10
1920.98883
 20
934.076973333333
 30
0.0
  0
VERTEX
  5
42B
330
427
100
AcDbEntity
  8
LAY-10
  6
CONTINUOUS
 62
     4
100
AcDbVertex
100
AcDb2dVertex
 10
1919.881655000001
 20
935.3776566666661
 30
0.0
  0
VERTEX
  5
42C
330
427
100
AcDbEntity
  8
LAY-10
  6
CONTINUOUS
 62
     4
100
AcDbVertex
100
AcDb2dVertex
 10
1918.782104999999
 20
936.7613066666657
 30
0.0
  0
VERTEX
  5
42D
330
427
100
AcDbEntity
  8
LAY-10
  6
CONTINUOUS
 62
     4
100
AcDbVertex
100
AcDb2dVertex
 10
1917.82782
 20
938.0511816666663
 30
0.0
  0
VERTEX
  5
42E
330
427
100
AcDbEntity
  8
LAY-10
  6
CONTINUOUS
 62
     4
100
AcDbVertex
100
AcDb2dVertex
 10
1916.909850000001
 20
939.3878566666662
 30
0.0
  0
VERTEX
  5
42F
330
427
100
AcDbEntity
  8
LAY-10
  6
CONTINUOUS
 62
     4
100
AcDbVertex
100
AcDb2dVertex
 10
1916.141114999999
 20
940.6004233333324
 30
0.0
  0
VERTEX
  5
430
330
427
100
AcDbEntity
  8
LAY-10
  6
CONTINUOUS
 62
     4
100
AcDbVertex
100
AcDb2dVertex
 10
1915.422425000001
 20
941.8365733333331
 30
0.0
  0
VERTEX
  5
431
330
427
100
AcDbEntity
  8
LAY-10
  6
CONTINUOUS
 62
     4
100
AcDbVertex
100
AcDb2dVertex
 10
1914.835569999999
 20
942.9460149999992
 30
0.0
  0
VERTEX
  5
432
330
427
100
AcDbEntity
  8
LAY-10
  6
CONTINUOUS
 62
     4
100
AcDbVertex
100
AcDb2dVertex
 10
1914.302735
 20
944.0649899999992
 30
0.0
  0
VERTEX
  5
433
330
427
100
AcDbEntity
  8
LAY-10
  6
CONTINUOUS
 62
     4
100
AcDbVertex
100
AcDb2dVertex
 10
1913.878845000001
 20
945.0659649999997
 30
0.0
  0
VERTEX
  5
434
330
427
100
AcDbEntity
  8
LAY-10
  6
CONTINUOUS
 62
     4
100
AcDbVertex
100
AcDb2dVertex
 10
1913.508060000001
 20
946.0683483333327
 30
0.0
  0
VERTEX
  5
435
330
427
100
AcDbEntity
  8
LAY-10
  6
CONTINUOUS
 62
     4
100
AcDbVertex
100
AcDb2dVertex
 10
1913.224245
 20
946.9665816666662
 30
0.0
  0
VERTEX
  5
436
330
427
100
AcDbEntity
  8
LAY-10
  6
CONTINUOUS
 62
     4
100
AcDbVertex
100
AcDb2dVertex
 10
1912.990785000001
 20
947.8611566666663
 30
0.0
  0
VERTEX
  5
437
330
427
100
AcDbEntity
  8
LAY-10
  6
CONTINUOUS
 62
     4
100
AcDbVertex
100
AcDb2dVertex
 10
1912.825380000001
 20
948.6676483333327
 30
0.0
  0
VERTEX
  5
438
330
427
100
AcDbEntity
  8
LAY-10
  6
CONTINUOUS
 62
     4
100
AcDbVertex
100
AcDb2dVertex
 10
1912.706665
 20
949.467815
 30
0.0
  0
VERTEX
  5
439
330
427
100
AcDbEntity
  8
LAY-10
  6
CONTINUOUS
 62
     4
100
AcDbVertex
100
AcDb2dVertex
 10
1912.641055000001
 20
950.1965816666666
 30
0.0
  0
VERTEX
  5
43A
330
427
100
AcDbEntity
  8
LAY-10
  6
CONTINUOUS
 62
     4
100
AcDbVertex
100
AcDb2dVertex
 10
1912.619080000001
 20
950.9173983333333
 30
0.0
  0
VERTEX
  5
43B
330
427
100
AcDbEntity
  8
LAY-10
  6
CONTINUOUS
 62
     4
100
AcDbVertex
100
AcDb2dVertex
 10
1912.699645000001
 20
952.2485649999994
 30
0.0
  0
VERTEX
  5
43C
330
427
100
AcDbEntity
  8
LAY-10
  6
CONTINUOUS
 62
     4
100
AcDbVertex
100
AcDb2dVertex
 10
1912.939515
 20
953.5785316666659
 30
0.0
  0
VERTEX
  5
43D
330
427
100
AcDbEntity
  8
LAY-10
  6
CONTINUOUS
 62
     4
100
AcDbVertex
100
AcDb2dVertex
 10
1913.349975
 20
954.930456666666
 30
0.0
  0
VERTEX
  5
43E
330
427
100
AcDbEntity
  8
LAY-10
  6
CONTINUOUS
 62
     4
100
AcDbVertex
100
AcDb2dVertex
 10
1913.94995
 20
956.3169733333327
 30
0.0
  0
VERTEX
  5
43F
330
427
100
AcDbEntity
  8
LAY-10
  6
CONTINUOUS
 62
     4
100
AcDbVertex
100
AcDb2dVertex
 10
1914.76416
 20
957.7433483333334
 30
0.0
  0
VERTEX
  5
440
330
427
100
AcDbEntity
  8
LAY-10
  6
CONTINUOUS
 62
     4
100
AcDbVertex
100
AcDb2dVertex
 10
1915.819459999999
 20
959.206573333333
 30
0.0
  0
VERTEX
  5
441
330
427
100
AcDbEntity
  8
LAY-10
  6
CONTINUOUS
 62
     4
100
AcDbVertex
100
AcDb2dVertex
 10
1917.14087
 20
960.6943983333332
 30
0.0
  0
VERTEX
  5
442
330
427
100
AcDbEntity
  8
LAY-10
  6
CONTINUOUS
 62
     4
100
AcDbVertex
100
AcDb2dVertex
 10
1918.745789999999
 20
962.1830566666663
 30
0.0
  0
VERTEX
  5
443
330
427
100
AcDbEntity
  8
LAY-10
  6
CONTINUOUS
 62
     4
100
AcDbVertex
100
AcDb2dVertex
 10
1920.636355000001
 20
963.6362983333331
 30
0.0
  0
VERTEX
  5
444
330
427
100
AcDbEntity
  8
LAY-10
  6
CONTINUOUS
 62
     4
100
AcDbVertex
100
AcDb2dVertex
 10
1922.787844999999
 20
965.002465
 30
0.0
  0
VERTEX
  5
445
330
427
100
AcDbEntity
  8
LAY-10
  6
CONTINUOUS
 62
     4
100
AcDbVertex
100
AcDb2dVertex
 10
1925.138915
 20
966.2170650000002
 30
0.0
  0
VERTEX
  5
446
330
427
100
AcDbEntity
  8
LAY-10
  6
CONTINUOUS
 62
     4
100
AcDbVertex
100
AcDb2dVertex
 10
1927.581545
 20
967.2074899999998
 30
0.0
  0
VERTEX
  5
447
330
427
100
AcDbEntity
  8
LAY-10
  6
CONTINUOUS
 62
     4
100
AcDbVertex
100
AcDb2dVertex
 10
1927.78479
 20
967.2776816666665
 30
0.0
  0
VERTEX
  5
448
330
427
100
AcDbEntity
  8
LAY-10
  6
CONTINUOUS
 62
     4
100
AcDbVertex
100
AcDb2dVertex
 10
1928.992065
 20
967.6546650000001
 30
0.0
  0
VERTEX
  5
449
330
427
100
AcDbEntity
  8
LAY-10
  6
CONTINUOUS
 62
     4
100
AcDbVertex
100
AcDb2dVertex
 10
1930.177064999999
 20
967.9539316666662
 30
0.0
  0
VERTEX
  5
44A
330
427
100
AcDbEntity
  8
LAY-10
  6
CONTINUOUS
 62
     4
100
AcDbVertex
100
AcDb2dVertex
 10
1931.280580000001
 20
968.1640899999996
 30
0.0
  0
VERTEX
  5
44B
330
427
100
AcDbEntity
  8
LAY-10
  6
CONTINUOUS
 62
     4
100
AcDbVertex
100
AcDb2dVertex
 10
1932.364260000001
 20
968.3010316666663
 30
0.0
  0
VERTEX
  5
44C
330
427
100
AcDbEntity
  8
LAY-10
  6
CONTINUOUS
 62
     4
100
AcDbVertex
100
AcDb2dVertex
 10
1933.381105
 20
968.3618483333329
 30
0.0
  0
VERTEX
  5
44D
330
427
100
AcDbEntity
  8
LAY-10
  6
CONTINUOUS
 62
     4
100
AcDbVertex
100
AcDb2dVertex
 10
1934.37964
 20
968.3526899999999
 30
0.0
  0
VERTEX
  5
44E
330
427
100
AcDbEntity
  8
LAY-10
  6
CONTINUOUS
 62
     4
100
AcDbVertex
100
AcDb2dVertex
 10
1935.322635
 20
968.2766233333331
 30
0.0
  0
VERTEX
  5
44F
330
427
100
AcDbEntity
  8
LAY-10
  6
CONTINUOUS
 62
     4
100
AcDbVertex
100
AcDb2dVertex
 10
1936.24884
 20
968.1331899999999
 30
0.0
  0
VERTEX
  5
450
330
427
100
AcDbEntity
  8
LAY-10
  6
CONTINUOUS
 62
     4
100
AcDbVertex
100
AcDb2dVertex
 10
1937.128664999999
 20
967.9293233333335
 30
0.0
  0
VERTEX
  5
451
330
427
100
AcDbEntity
  8
LAY-10
  6
CONTINUOUS
 62
     4
100
AcDbVertex
100
AcDb2dVertex
 10
1937.992920000001
 20
967.6601650000005
 30
0.0
  0
VERTEX
  5
452
330
427
100
AcDbEntity
  8
LAY-10
  6
CONTINUOUS
 62
     4
100
AcDbVertex
100
AcDb2dVertex
 10
1938.818725
 20
967.334423333333
 30
0.0
  0
VERTEX
  5
453
330
427
100
AcDbEntity
  8
LAY-10
  6
CONTINUOUS
 62
     4
100
AcDbVertex
100
AcDb2dVertex
 10
1939.629885000001
 20
966.9446233333338
 30
0.0
  0
VERTEX
  5
454
330
427
100
AcDbEntity
  8
LAY-10
  6
CONTINUOUS
 62
     4
100
AcDbVertex
100
AcDb2dVertex
 10
1940.409914999999
 20
966.4996733333334
 30
0.0
  0
VERTEX
  5
455
330
427
100
AcDbEntity
  8
LAY-10
  6
CONTINUOUS
 62
     4
100
AcDbVertex
100
AcDb2dVertex
 10
1941.1756
 20
965.9912400000002
 30
0.0
  0
VERTEX
  5
456
330
427
100
AcDbEntity
  8
LAY-10
  6
CONTINUOUS
 62
     4
100
AcDbVertex
100
AcDb2dVertex
 10
1941.91687
 20
965.4266649999996
 30
0.0
  0
VERTEX
  5
457
330
427
100
AcDbEntity
  8
LAY-10
  6
CONTINUOUS
 62
     4
100
AcDbVertex
100
AcDb2dVertex
 10
1942.644105000001
 20
964.7986316666669
 30
0.0
  0
VERTEX
  5
458
330
427
100
AcDbEntity
  8
LAY-10
  6
CONTINUOUS
 62
     4
100
AcDbVertex
100
AcDb2dVertex
 10
1943.352115000001
 20
964.1113566666664
 30
0.0
  0
VERTEX
  5
459
330
427
100
AcDbEntity
  8
LAY-10
  6
CONTINUOUS
 62
     4
100
AcDbVertex
100
AcDb2dVertex
 10
1944.04639
 20
963.3596066666669
 30
0.0
  0
VERTEX
  5
45A
330
427
100
AcDbEntity
  8
LAY-10
  6
CONTINUOUS
 62
     4
100
AcDbVertex
100
AcDb2dVertex
 10
1945.392215000001
 20
961.6610149999998
 30
0.0
  0
VERTEX
  5
45B
330
427
100
AcDbEntity
  8
LAY-10
  6
CONTINUOUS
 62
     4
100
AcDbVertex
100
AcDb2dVertex
 10
1945.626590000001
 20
961.3304066666666
 30
0.0
  0
VERTEX
  5
45C
330
427
100
AcDbEntity
  8
LAY-10
  6
CONTINUOUS
 62
     4
100
AcDbVertex
100
AcDb2dVertex
 10
1946.910465
 20
959.3115733333333
 30
0.0
  0
VERTEX
  5
45D
330
427
100
AcDbEntity
  8
LAY-10
  6
CONTINUOUS
 62
     4
100
AcDbVertex
100
AcDb2dVertex
 10
1948.13727
 20
957.0152233333329
 30
0.0
  0
VERTEX
  5
45E
330
427
100
AcDbEntity
  8
LAY-10
  6
CONTINUOUS
 62
     4
100
AcDbVertex
100
AcDb2dVertex
 10
1948.712525
 20
955.7879983333333
 30
0.0
  0
VERTEX
  5
45F
330
427
100
AcDbEntity
  8
LAY-10
  6
CONTINUOUS
 62
     4
100
AcDbVertex
100
AcDb2dVertex
 10
1949.256655000001
 20
954.5174566666666
 30
0.0
  0
VERTEX
  5
460
330
427
100
AcDbEntity
  8
LAY-10
  6
CONTINUOUS
 62
     4
100
AcDbVertex
100
AcDb2dVertex
 10
1949.759585000001
 20
953.2273899999999
 30
0.0
  0
VERTEX
  5
461
330
427
100
AcDbEntity
  8
LAY-10
  6
CONTINUOUS
 62
     4
100
AcDbVertex
100
AcDb2dVertex
 10
1950.225585
 20
951.906356666666
 30
0.0
  0
VERTEX
  5
462
330
427
100
AcDbEntity
  8
LAY-10
  6
CONTINUOUS
 62
     4
100
AcDbVertex
100
AcDb2dVertex
 10
1950.640625
 20
950.5979816666659
 30
0.0
  0
VERTEX
  5
463
330
427
100
AcDbEntity
  8
LAY-10
  6
CONTINUOUS
 62
     4
100
AcDbVertex
100
AcDb2dVertex
 10
1951.014770000001
 20
949.2702733333329
 30
0.0
  0
VERTEX
  5
464
330
427
100
AcDbEntity
  8
LAY-10
  6
CONTINUOUS
 62
     4
100
AcDbVertex
100
AcDb2dVertex
 10
1951.332765
 20
947.9814149999993
 30
0.0
  0
VERTEX
  5
465
330
427
100
AcDbEntity
  8
LAY-10
  6
CONTINUOUS
 62
     4
100
AcDbVertex
100
AcDb2dVertex
 10
1951.608339999999
 20
946.6837816666659
 30
0.0
  0
VERTEX
  5
466
330
427
100
AcDbEntity
  8
LAY-10
  6
CONTINUOUS
 62
     4
100
AcDbVertex
100
AcDb2dVertex
 10
1951.82837
 20
945.4429566666656
 30
0.0
  0
VERTEX
  5
467
330
427
100
AcDbEntity
  8
LAY-10
  6
CONTINUOUS
 62
     4
100
AcDbVertex
100
AcDb2dVertex
 10
1952.00476
 20
944.2023233333325
 30
0.0
  0
VERTEX
  5
468
330
427
100
AcDbEntity
  8
LAY-10
  6
CONTINUOUS
 62
     4
100
AcDbVertex
100
AcDb2dVertex
 10
1952.129885000001
 20
943.027998333333
 30
0.0
  0
VERTEX
  5
469
330
427
100
AcDbEntity
  8
LAY-10
  6
CONTINUOUS
 62
     4
100
AcDbVertex
100
AcDb2dVertex
 10
1952.211974999999
 20
941.8603816666661
 30
0.0
  0
VERTEX
  5
46A
330
427
100
AcDbEntity
  8
LAY-10
  6
CONTINUOUS
 62
     4
100
AcDbVertex
100
AcDb2dVertex
 10
1952.247679999999
 20
940.7619733333329
 30
0.0
  0
VERTEX
  5
46B
330
427
100
AcDbEntity
  8
LAY-10
  6
CONTINUOUS
 62
     4
100
AcDbVertex
100
AcDb2dVertex
 10
1952.241275
 20
939.6751316666656
 30
0.0
  0
VERTEX
  5
46C
330
427
100
AcDbEntity
  8
LAY-10
  6
CONTINUOUS
 62
     4
100
AcDbVertex
100
AcDb2dVertex
 10
1952.194579999999
 20
938.6550233333327
 30
0.0
  0
VERTEX
  5
46D
330
427
100
AcDbEntity
  8
LAY-10
  6
CONTINUOUS
 62
     4
100
AcDbVertex
100
AcDb2dVertex
 10
1952.106385
 20
937.6503899999997
 30
0.0
  0
VERTEX
  5
46E
330
427
100
AcDbEntity
  8
LAY-10
  6
CONTINUOUS
 62
     4
100
AcDbVertex
100
AcDb2dVertex
 10
1951.871095
 20
936.0545066666663
 30
0.0
  0
VERTEX
  5
46F
330
427
100
AcDbEntity
  8
LAY-10
  6
CONTINUOUS
 62
     4
100
AcDbVertex
100
AcDb2dVertex
 10
1951.462465
 20
934.3078899999992
 30
0.0
  0
VERTEX
  5
470
330
427
100
AcDbEntity
  8
LAY-10
  6
CONTINUOUS
 62
     4
100
AcDbVertex
100
AcDb2dVertex
 10
1950.883545000001
 20
932.5531233333329
 30
0.0
  0
VERTEX
  5
471
330
427
100
AcDbEntity
  8
LAY-10
  6
CONTINUOUS
 62
     4
100
AcDbVertex
100
AcDb2dVertex
 10
1950.121215000001
 20
930.7847566666659
 30
0.0
  0
VERTEX
  5
472
330
427
100
AcDbEntity
  8
LAY-10
  6
CONTINUOUS
 62
     4
100
AcDbVertex
100
AcDb2dVertex
 10
1949.16083
 20
929.0039316666656
 30
0.0
  0
VERTEX
  5
473
330
427
100
AcDbEntity
  8
LAY-10
  6
CONTINUOUS
 62
     4
100
AcDbVertex
100
AcDb2dVertex
 10
1947.988955
 20
927.2184649999991
 30
0.0
  0
VERTEX
  5
474
330
427
100
AcDbEntity
  8
LAY-10
  6
CONTINUOUS
 62
     4
100
AcDbVertex
100
AcDb2dVertex
 10
1946.595825000001
 20
925.4453899999993
 30
0.0
  0
VERTEX
  5
475
330
427
100
AcDbEntity
  8
LAY-10
  6
CONTINUOUS
 62
     4
100
AcDbVertex
100
AcDb2dVertex
 10
1944.98389
 20
923.7142149999988
 30
0.0
  0
VERTEX
  5
476
330
427
100
AcDbEntity
  8
LAY-10
  6
CONTINUOUS
 62
     4
100
AcDbVertex
100
AcDb2dVertex
 10
1943.175415
 20
922.0717649999989
 30
0.0
  0
VERTEX
  5
477
330
427
100
AcDbEntity
  8
LAY-10
  6
CONTINUOUS
 62
     4
100
AcDbVertex
100
AcDb2dVertex
 10
1942.058169999999
 20
921.1863483333327
 30
0.0
  0
SEQEND
  5
478
330
427
100
AcDbEntity
  8
LAY-10
  6
CONTINUOUS
 62
     4
  0
POLYLINE
  5
479
330
1F
100
AcDbEntity
  8
LAY-10
  6
CONTINUOUS
 62
     4
100
AcDb2dPolyline
 66
     1
 10
0.0
 20
0.0
 30
0.0
 70
   128
  0
VERTEX
  5
47A
330
479
100
AcDbEntity
  8
LAY-10
  6
CONTINUOUS
 62
     4
100
AcDbVertex
100
AcDb2dVertex
 10
1882.864135
 20
925.6468066666662
 30
0.0
  0
VERTEX
  5
47B
330
479
100
AcDbEntity
  8
LAY-10
  6
CONTINUOUS
 62
     4
100
AcDbVertex
100
AcDb2dVertex
 10
1882.126525
 20
927.046131666666
 30
0.0
  0
VERTEX
  5
47C
330
479
100
AcDbEntity
  8
LAY-10
  6
CONTINUOUS
 62
     4
100
AcDbVertex
100
AcDb2dVertex
 10
1881.398685000001
 20
928.5315483333324
 30
0.0
  0
VERTEX
  5
47D
330
479
100
AcDbEntity
  8
LAY-10
  6
CONTINUOUS
 62
     4
100
AcDbVertex
100
AcDb2dVertex
 10
1880.709900000001
 20
930.0458233333327
 30
0.0
  0
VERTEX
  5
47E
330
479
100
AcDbEntity
  8
LAY-10
  6
CONTINUOUS
 62
     4
100
AcDbVertex
100
AcDb2dVertex
 10
1880.045535000001
 20
931.6221483333329
 30
0.0
  0
VERTEX
  5
47F
330
479
100
AcDbEntity
  8
LAY-10
  6
CONTINUOUS
 62
     4
100
AcDbVertex
100
AcDb2dVertex
 10
1879.446475
 20
933.1643066666655
 30
0.0
  0
VERTEX
  5
480
330
479
100
AcDbEntity
  8
LAY-10
  6
CONTINUOUS
 62
     4
100
AcDbVertex
100
AcDb2dVertex
 10
1878.882815000001
 20
934.7457149999994
 30
0.0
  0
VERTEX
  5
481
330
479
100
AcDbEntity
  8
LAY-10
  6
CONTINUOUS
 62
     4
100
AcDbVertex
100
AcDb2dVertex
 10
1878.394225000001
 20
936.2510649999998
 30
0.0
  0
VERTEX
  5
482
330
479
100
AcDbEntity
  8
LAY-10
  6
CONTINUOUS
 62
     4
100
AcDbVertex
100
AcDb2dVertex
 10
1877.947755000001
 20
937.7773566666662
 30
0.0
  0
VERTEX
  5
483
330
479
100
AcDbEntity
  8
LAY-10
  6
CONTINUOUS
 62
     4
100
AcDbVertex
100
AcDb2dVertex
 10
1877.57544
 20
939.205956666666
 30
0.0
  0
VERTEX
  5
484
330
479
100
AcDbEntity
  8
LAY-10
  6
CONTINUOUS
 62
     4
100
AcDbVertex
100
AcDb2dVertex
 10
1877.24829
 20
940.6421316666666
 30
0.0
  0
VERTEX
  5
485
330
479
100
AcDbEntity
  8
LAY-10
  6
CONTINUOUS
 62
     4
100
AcDbVertex
100
AcDb2dVertex
 10
1876.988895000001
 20
941.9741233333326
 30
0.0
  0
VERTEX
  5
486
330
479
100
AcDbEntity
  8
LAY-10
  6
CONTINUOUS
 62
     4
100
AcDbVertex
100
AcDb2dVertex
 10
1876.774965
 20
943.3040899999999
 30
0.0
  0
VERTEX
  5
487
330
479
100
AcDbEntity
  8
LAY-10
  6
CONTINUOUS
 62
     4
100
AcDbVertex
100
AcDb2dVertex
 10
1876.619630000001
 20
944.5325149999992
 30
0.0
  0
VERTEX
  5
488
330
479
100
AcDbEntity
  8
LAY-10
  6
CONTINUOUS
 62
     4
100
AcDbVertex
100
AcDb2dVertex
 10
1876.509155
 20
945.7521983333331
 30
0.0
  0
VERTEX
  5
489
330
479
100
AcDbEntity
  8
LAY-10
  6
CONTINUOUS
 62
     4
100
AcDbVertex
100
AcDb2dVertex
 10
1876.44873
 20
946.8787149999997
 30
0.0
  0
VERTEX
  5
48A
330
479
100
AcDbEntity
  8
LAY-10
  6
CONTINUOUS
 62
     4
100
AcDbVertex
100
AcDb2dVertex
 10
1876.43164
 20
947.9921899999994
 30
0.0
  0
VERTEX
  5
48B
330
479
100
AcDbEntity
  8
LAY-10
  6
CONTINUOUS
 62
     4
100
AcDbVertex
100
AcDb2dVertex
 10
1876.456970000001
 20
949.0230816666658
 30
0.0
  0
VERTEX
  5
48C
330
479
100
AcDbEntity
  8
LAY-10
  6
CONTINUOUS
 62
     4
100
AcDbVertex
100
AcDb2dVertex
 10
1876.523805000001
 20
950.0380733333327
 30
0.0
  0
VERTEX
  5
48D
330
479
100
AcDbEntity
  8
LAY-10
  6
CONTINUOUS
 62
     4
100
AcDbVertex
100
AcDb2dVertex
 10
1876.619630000001
 20
950.9226733333333
 30
0.0
  0
VERTEX
  5
48E
330
479
100
AcDbEntity
  8
LAY-10
  6
CONTINUOUS
 62
     4
100
AcDbVertex
100
AcDb2dVertex
 10
1876.932130000001
 20
952.7207983333333
 30
0.0
  0
VERTEX
  5
48F
330
479
100
AcDbEntity
  8
LAY-10
  6
CONTINUOUS
 62
     4
100
AcDbVertex
100
AcDb2dVertex
 10
1877.406375
 20
954.499331666666
 30
0.0
  0
VERTEX
  5
490
330
479
100
AcDbEntity
  8
LAY-10
  6
CONTINUOUS
 62
     4
100
AcDbVertex
100
AcDb2dVertex
 10
1878.049075
 20
956.2616316666665
 30
0.0
  0
VERTEX
  5
491
330
479
100
AcDbEntity
  8
LAY-10
  6
CONTINUOUS
 62
     4
100
AcDbVertex
100
AcDb2dVertex
 10
1878.870605
 20
958.0045983333333
 30
0.0
  0
VERTEX
  5
492
330
479
100
AcDbEntity
  8
LAY-10
  6
CONTINUOUS
 62
     4
100
AcDbVertex
100
AcDb2dVertex
 10
1879.88074
 20
959.7196816666661
 30
0.0
  0
VERTEX
  5
493
330
479
100
AcDbEntity
  8
LAY-10
  6
CONTINUOUS
 62
     4
100
AcDbVertex
100
AcDb2dVertex
 10
1881.087710000001
 20
961.3906149999995
 30
0.0
  0
VERTEX
  5
494
330
479
100
AcDbEntity
  8
LAY-10
  6
CONTINUOUS
 62
     4
100
AcDbVertex
100
AcDb2dVertex
 10
1882.493655
 20
962.9936149999995
 30
0.0
  0
VERTEX
  5
495
330
479
100
AcDbEntity
  8
LAY-10
  6
CONTINUOUS
 62
     4
100
AcDbVertex
100
AcDb2dVertex
 10
1884.093385
 20
964.4973066666669
 30
0.0
  0
VERTEX
  5
496
330
479
100
AcDbEntity
  8
LAY-10
  6
CONTINUOUS
 62
     4
100
AcDbVertex
100
AcDb2dVertex
 10
1885.87012
 20
965.8640816666667
 30
0.0
  0
VERTEX
  5
497
330
479
100
AcDbEntity
  8
LAY-10
  6
CONTINUOUS
 62
     4
100
AcDbVertex
100
AcDb2dVertex
 10
1887.792725000001
 20
967.051848333333
 30
0.0
  0
VERTEX
  5
498
330
479
100
AcDbEntity
  8
LAY-10
  6
CONTINUOUS
 62
     4
100
AcDbVertex
100
AcDb2dVertex
 10
1888.21692
 20
967.2776816666665
 30
0.0
  0
VERTEX
  5
499
330
479
100
AcDbEntity
  8
LAY-10
  6
CONTINUOUS
 62
     4
100
AcDbVertex
100
AcDb2dVertex
 10
1890.253664999999
 20
968.1935899999999
 30
0.0
  0
VERTEX
  5
49A
330
479
100
AcDbEntity
  8
LAY-10
  6
CONTINUOUS
 62
     4
100
AcDbVertex
100
AcDb2dVertex
 10
1891.288515
 20
968.5559566666668
 30
0.0
  0
VERTEX
  5
49B
330
479
100
AcDbEntity
  8
LAY-10
  6
CONTINUOUS
 62
     4
100
AcDbVertex
100
AcDb2dVertex
 10
1892.326415
 20
968.8509566666667
 30
0.0
  0
VERTEX
  5
49C
330
479
100
AcDbEntity
  8
LAY-10
  6
CONTINUOUS
 62
     4
100
AcDbVertex
100
AcDb2dVertex
 10
1893.358215
 20
969.0767900000003
 30
0.0
  0
VERTEX
  5
49D
330
479
100
AcDbEntity
  8
LAY-10
  6
CONTINUOUS
 62
     4
100
AcDbVertex
100
AcDb2dVertex
 10
1894.38605
 20
969.2338566666664
 30
0.0
  0
VERTEX
  5
49E
330
479
100
AcDbEntity
  8
LAY-10
  6
CONTINUOUS
 62
     4
100
AcDbVertex
100
AcDb2dVertex
 10
1895.3913
 20
969.3200983333332
 30
0.0
  0
VERTEX
  5
49F
330
479
100
AcDbEntity
  8
LAY-10
  6
CONTINUOUS
 62
     4
100
AcDbVertex
100
AcDb2dVertex
 10
1896.386475000001
 20
969.3378066666663
 30
0.0
  0
VERTEX
  5
4A0
330
479
100
AcDbEntity
  8
LAY-10
  6
CONTINUOUS
 62
     4
100
AcDbVertex
100
AcDb2dVertex
 10
1897.34473
 20
969.287548333333
 30
0.0
  0
VERTEX
  5
4A1
330
479
100
AcDbEntity
  8
LAY-10
  6
CONTINUOUS
 62
     4
100
AcDbVertex
100
AcDb2dVertex
 10
1898.28711
 20
969.1699566666666
 30
0.0
  0
VERTEX
  5
4A2
330
479
100
AcDbEntity
  8
LAY-10
  6
CONTINUOUS
 62
     4
100
AcDbVertex
100
AcDb2dVertex
 10
1899.181885
 20
968.9909233333334
 30
0.0
  0
VERTEX
  5
4A3
330
479
100
AcDbEntity
  8
LAY-10
  6
CONTINUOUS
 62
     4
100
AcDbVertex
100
AcDb2dVertex
 10
1900.05652
 20
968.7465900000002
 30
0.0
  0
VERTEX
  5
4A4
330
479
100
AcDbEntity
  8
LAY-10
  6
CONTINUOUS
 62
     4
100
AcDbVertex
100
AcDb2dVertex
 10
1900.877135
 20
968.4491399999998
 30
0.0
  0
VERTEX
  5
4A5
330
479
100
AcDbEntity
  8
LAY-10
  6
CONTINUOUS
 62
     4
100
AcDbVertex
100
AcDb2dVertex
 10
1901.673950000001
 20
968.08964
 30
0.0
  0
VERTEX
  5
4A6
330
479
100
AcDbEntity
  8
LAY-10
  6
CONTINUOUS
 62
     4
100
AcDbVertex
100
AcDb2dVertex
 10
1902.414310000001
 20
967.6857900000001
 30
0.0
  0
VERTEX
  5
4A7
330
479
100
AcDbEntity
  8
LAY-10
  6
CONTINUOUS
 62
     4
100
AcDbVertex
100
AcDb2dVertex
 10
1903.128115000001
 20
967.2233483333329
 30
0.0
  0
VERTEX
  5
4A8
330
479
100
AcDbEntity
  8
LAY-10
  6
CONTINUOUS
 62
     4
100
AcDbVertex
100
AcDb2dVertex
 10
1903.786075
 20
966.7250900000005
 30
0.0
  0
VERTEX
  5
4A9
330
479
100
AcDbEntity
  8
LAY-10
  6
CONTINUOUS
 62
     4
100
AcDbVertex
100
AcDb2dVertex
 10
1904.41626
 20
966.1717066666668
 30
0.0
  0
VERTEX
  5
4AA
330
479
100
AcDbEntity
  8
LAY-10
  6
CONTINUOUS
 62
     4
100
AcDbVertex
100
AcDb2dVertex
 10
1904.992740000001
 20
965.5888149999995
 30
0.0
  0
VERTEX
  5
4AB
330
479
100
AcDbEntity
  8
LAY-10
  6
CONTINUOUS
 62
     4
100
AcDbVertex
100
AcDb2dVertex
 10
1905.54053
 20
964.9542733333328
 30
0.0
  0
VERTEX
  5
4AC
330
479
100
AcDbEntity
  8
LAY-10
  6
CONTINUOUS
 62
     4
100
AcDbVertex
100
AcDb2dVertex
 10
1906.038575
 20
964.2944566666665
 30
0.0
  0
VERTEX
  5
4AD
330
479
100
AcDbEntity
  8
LAY-10
  6
CONTINUOUS
 62
     4
100
AcDbVertex
100
AcDb2dVertex
 10
1906.507325
 20
963.586073333333
 30
0.0
  0
VERTEX
  5
4AE
330
479
100
AcDbEntity
  8
LAY-10
  6
CONTINUOUS
 62
     4
100
AcDbVertex
100
AcDb2dVertex
 10
1906.950745000001
 20
962.8172149999996
 30
0.0
  0
VERTEX
  5
4AF
330
479
100
AcDbEntity
  8
LAY-10
  6
CONTINUOUS
 62
     4
100
AcDbVertex
100
AcDb2dVertex
 10
1907.695375
 20
961.2368233333336
 30
0.0
  0
VERTEX
  5
4B0
330
479
100
AcDbEntity
  8
LAY-10
  6
CONTINUOUS
 62
     4
100
AcDbVertex
100
AcDb2dVertex
 10
1908.363405000001
 20
959.395373333333
 30
0.0
  0
VERTEX
  5
4B1
330
479
100
AcDbEntity
  8
LAY-10
  6
CONTINUOUS
 62
     4
100
AcDbVertex
100
AcDb2dVertex
 10
1908.96033
 20
957.242865
 30
0.0
  0
VERTEX
  5
4B2
330
479
100
AcDbEntity
  8
LAY-10
  6
CONTINUOUS
 62
     4
100
AcDbVertex
100
AcDb2dVertex
 10
1909.49164
 20
954.7082816666662
 30
0.0
  0
VERTEX
  5
4B3
330
479
100
AcDbEntity
  8
LAY-10
  6
CONTINUOUS
 62
     4
100
AcDbVertex
100
AcDb2dVertex
 10
1909.961609999999
 20
951.68399
 30
0.0
  0
VERTEX
  5
4B4
330
479
100
AcDbEntity
  8
LAY-10
  6
CONTINUOUS
 62
     4
100
AcDbVertex
100
AcDb2dVertex
 10
1910.38031
 20
947.9822066666668
 30
0.0
  0
VERTEX
  5
4B5
330
479
100
AcDbEntity
  8
LAY-10
  6
CONTINUOUS
 62
     4
100
AcDbVertex
100
AcDb2dVertex
 10
1910.519165
 20
946.4622399999996
 30
0.0
  0
VERTEX
  5
4B6
330
479
100
AcDbEntity
  8
LAY-10
  6
CONTINUOUS
 62
     4
100
AcDbVertex
100
AcDb2dVertex
 10
1910.728515
 20
943.7929733333324
 30
0.0
  0
VERTEX
  5
4B7
330
479
100
AcDbEntity
  8
LAY-10
  6
CONTINUOUS
 62
     4
100
AcDbVertex
100
AcDb2dVertex
 10
1910.894225000001
 20
941.0752899999995
 30
0.0
  0
VERTEX
  5
4B8
330
479
100
AcDbEntity
  8
LAY-10
  6
CONTINUOUS
 62
     4
100
AcDbVertex
100
AcDb2dVertex
 10
1910.994630000001
 20
938.7233983333325
 30
0.0
  0
VERTEX
  5
4B9
330
479
100
AcDbEntity
  8
LAY-10
  6
CONTINUOUS
 62
     4
100
AcDbVertex
100
AcDb2dVertex
 10
1911.049254999999
 20
936.3779983333328
 30
0.0
  0
VERTEX
  5
4BA
330
479
100
AcDbEntity
  8
LAY-10
  6
CONTINUOUS
 62
     4
100
AcDbVertex
100
AcDb2dVertex
 10
1911.05414
 20
934.3382149999994
 30
0.0
  0
VERTEX
  5
4BB
330
479
100
AcDbEntity
  8
LAY-10
  6
CONTINUOUS
 62
     4
100
AcDbVertex
100
AcDb2dVertex
 10
1911.014465
 20
932.3317816666662
 30
0.0
  0
VERTEX
  5
4BC
330
479
100
AcDbEntity
  8
LAY-10
  6
CONTINUOUS
 62
     4
100
AcDbVertex
100
AcDb2dVertex
 10
1910.938175
 20
930.5808983333328
 30
0.0
  0
VERTEX
  5
4BD
330
479
100
AcDbEntity
  8
LAY-10
  6
CONTINUOUS
 62
     4
100
AcDbVertex
100
AcDb2dVertex
 10
1910.819765
 20
928.8763899999989
 30
0.0
  0
VERTEX
  5
4BE
330
479
100
AcDbEntity
  8
LAY-10
  6
CONTINUOUS
 62
     4
100
AcDbVertex
100
AcDb2dVertex
 10
1910.674500000001
 20
927.3864983333326
 30
0.0
  0
VERTEX
  5
4BF
330
479
100
AcDbEntity
  8
LAY-10
  6
CONTINUOUS
 62
     4
100
AcDbVertex
100
AcDb2dVertex
 10
1910.490175
 20
925.9487399999989
 30
0.0
  0
VERTEX
  5
4C0
330
479
100
AcDbEntity
  8
LAY-10
  6
CONTINUOUS
 62
     4
100
AcDbVertex
100
AcDb2dVertex
 10
1910.286924999999
 20
924.6910066666653
 30
0.0
  0
VERTEX
  5
4C1
330
479
100
AcDbEntity
  8
LAY-10
  6
CONTINUOUS
 62
     4
100
AcDbVertex
100
AcDb2dVertex
 10
1910.04767
 20
923.4875899999987
 30
0.0
  0
VERTEX
  5
4C2
330
479
100
AcDbEntity
  8
LAY-10
  6
CONTINUOUS
 62
     4
100
AcDbVertex
100
AcDb2dVertex
 10
1909.79468
 20
922.4341316666658
 30
0.0
  0
VERTEX
  5
4C3
330
479
100
AcDbEntity
  8
LAY-10
  6
CONTINUOUS
 62
     4
100
AcDbVertex
100
AcDb2dVertex
 10
1909.509035
 20
921.4349649999988
 30
0.0
  0
VERTEX
  5
4C4
330
479
100
AcDbEntity
  8
LAY-10
  6
CONTINUOUS
 62
     4
100
AcDbVertex
100
AcDb2dVertex
 10
1909.21332
 20
920.5595233333322
 30
0.0
  0
VERTEX
  5
4C5
330
479
100
AcDbEntity
  8
LAY-10
  6
CONTINUOUS
 62
     4
100
AcDbVertex
100
AcDb2dVertex
 10
1908.886779999999
 20
919.7377816666653
 30
0.0
  0
VERTEX
  5
4C6
330
479
100
AcDbEntity
  8
LAY-10
  6
CONTINUOUS
 62
     4
100
AcDbVertex
100
AcDb2dVertex
 10
1908.5517
 20
919.0177816666661
 30
0.0
  0
VERTEX
  5
4C7
330
479
100
AcDbEntity
  8
LAY-10
  6
CONTINUOUS
 62
     4
100
AcDbVertex
100
AcDb2dVertex
 10
1908.187930000001
 20
918.3504649999988
 30
0.0
  0
VERTEX
  5
4C8
330
479
100
AcDbEntity
  8
LAY-10
  6
CONTINUOUS
 62
     4
100
AcDbVertex
100
AcDb2dVertex
 10
1907.814394999999
 20
917.7669816666654
 30
0.0
  0
VERTEX
  5
4C9
330
479
100
AcDbEntity
  8
LAY-10
  6
CONTINUOUS
 62
     4
100
AcDbVertex
100
AcDb2dVertex
 10
1907.413390000001
 20
917.2359733333323
 30
0.0
  0
VERTEX
  5
4CA
330
479
100
AcDbEntity
  8
LAY-10
  6
CONTINUOUS
 62
     4
100
AcDbVertex
100
AcDb2dVertex
 10
1906.950745000001
 20
916.7259149999992
 30
0.0
  0
VERTEX
  5
4CB
330
479
100
AcDbEntity
  8
LAY-10
  6
CONTINUOUS
 62
     4
100
AcDbVertex
100
AcDb2dVertex
 10
1906.052005
 20
915.9812899999986
 30
0.0
  0
VERTEX
  5
4CC
330
479
100
AcDbEntity
  8
LAY-10
  6
CONTINUOUS
 62
     4
100
AcDbVertex
100
AcDb2dVertex
 10
1904.993045
 20
915.3975733333324
 30
0.0
  0
VERTEX
  5
4CD
330
479
100
AcDbEntity
  8
LAY-10
  6
CONTINUOUS
 62
     4
100
AcDbVertex
100
AcDb2dVertex
 10
1903.757079999999
 20
914.9925149999985
 30
0.0
  0
VERTEX
  5
4CE
330
479
100
AcDbEntity
  8
LAY-10
  6
CONTINUOUS
 62
     4
100
AcDbVertex
100
AcDb2dVertex
 10
1902.329775
 20
914.7908816666655
 30
0.0
  0
VERTEX
  5
4CF
330
479
100
AcDbEntity
  8
LAY-10
  6
CONTINUOUS
 62
     4
100
AcDbVertex
100
AcDb2dVertex
 10
1900.70441
 20
914.8210149999986
 30
0.0
  0
VERTEX
  5
4D0
330
479
100
AcDbEntity
  8
LAY-10
  6
CONTINUOUS
 62
     4
100
AcDbVertex
100
AcDb2dVertex
 10
1898.88861
 20
915.111314999999
 30
0.0
  0
VERTEX
  5
4D1
330
479
100
AcDbEntity
  8
LAY-10
  6
CONTINUOUS
 62
     4
100
AcDbVertex
100
AcDb2dVertex
 10
1896.91687
 20
915.6813899999987
 30
0.0
  0
VERTEX
  5
4D2
330
479
100
AcDbEntity
  8
LAY-10
  6
CONTINUOUS
 62
     4
100
AcDbVertex
100
AcDb2dVertex
 10
1894.86853
 20
916.5271399999989
 30
0.0
  0
VERTEX
  5
4D3
330
479
100
AcDbEntity
  8
LAY-10
  6
CONTINUOUS
 62
     4
100
AcDbVertex
100
AcDb2dVertex
 10
1894.461425000001
 20
916.7259149999992
 30
0.0
  0
SEQEND
  5
4D4
330
479
100
AcDbEntity
  8
LAY-10
  6
CONTINUOUS
 62
     4
  0
POLYLINE
  5
4D5
330
1F
100
AcDbEntity
  8
LAY-10
  6
CONTINUOUS
 62
     4
100
AcDb2dPolyline
 66
     1
 10
0.0
 20
0.0
 30
0.0
 70
   128
  0
VERTEX
  5
4D6
330
4D5
100
AcDbEntity
  8
LAY-10
  6
CONTINUOUS
 62
     4
100
AcDbVertex
100
AcDb2dVertex
 10
1851.105715
 20
917.618048333332
 30
0.0
  0
VERTEX
  5
4D7
330
4D5
100
AcDbEntity
  8
LAY-10
  6
CONTINUOUS
 62
     4
100
AcDbVertex
100
AcDb2dVertex
 10
1849.945435
 20
917.1749399999985
 30
0.0
  0
VERTEX
  5
4D8
330
4D5
100
AcDbEntity
  8
LAY-10
  6
CONTINUOUS
 62
     4
100
AcDbVertex
100
AcDb2dVertex
 10
1848.724120000001
 20
916.7820566666652
 30
0.0
  0
VERTEX
  5
4D9
330
4D5
100
AcDbEntity
  8
LAY-10
  6
CONTINUOUS
 62
     4
100
AcDbVertex
100
AcDb2dVertex
 10
1847.539430000001
 20
916.4722066666659
 30
0.0
  0
VERTEX
  5
4DA
330
4D5
100
AcDbEntity
  8
LAY-10
  6
CONTINUOUS
 62
     4
100
AcDbVertex
100
AcDb2dVertex
 10
1846.33185
 20
916.2305149999993
 30
0.0
  0
VERTEX
  5
4DB
330
4D5
100
AcDbEntity
  8
LAY-10
  6
CONTINUOUS
 62
     4
100
AcDbVertex
100
AcDb2dVertex
 10
1845.228945
 20
916.080564999999
 30
0.0
  0
VERTEX
  5
4DC
330
4D5
100
AcDbEntity
  8
LAY-10
  6
CONTINUOUS
 62
     4
100
AcDbVertex
100
AcDb2dVertex
 10
1844.130615
 20
916.0050983333324
 30
0.0
  0
VERTEX
  5
4DD
330
4D5
100
AcDbEntity
  8
LAY-10
  6
CONTINUOUS
 62
     4
100
AcDbVertex
100
AcDb2dVertex
 10
1843.15741
 20
916.007923333332
 30
0.0
  0
VERTEX
  5
4DE
330
4D5
100
AcDbEntity
  8
LAY-10
  6
CONTINUOUS
 62
     4
100
AcDbVertex
100
AcDb2dVertex
 10
1842.204345000001
 20
916.0844399999987
 30
0.0
  0
VERTEX
  5
4DF
330
4D5
100
AcDbEntity
  8
LAY-10
  6
CONTINUOUS
 62
     4
100
AcDbVertex
100
AcDb2dVertex
 10
1841.37305
 20
916.220756666666
 30
0.0
  0
VERTEX
  5
4E0
330
4D5
100
AcDbEntity
  8
LAY-10
  6
CONTINUOUS
 62
     4
100
AcDbVertex
100
AcDb2dVertex
 10
1840.570435
 20
916.4256066666652
 30
0.0
  0
VERTEX
  5
4E1
330
4D5
100
AcDbEntity
  8
LAY-10
  6
CONTINUOUS
 62
     4
100
AcDbVertex
100
AcDb2dVertex
 10
1839.87616
 20
916.672798333332
 30
0.0
  0
VERTEX
  5
4E2
330
4D5
100
AcDbEntity
  8
LAY-10
  6
CONTINUOUS
 62
     4
100
AcDbVertex
100
AcDb2dVertex
 10
1839.21393
 20
916.9826733333323
 30
0.0
  0
VERTEX
  5
4E3
330
4D5
100
AcDbEntity
  8
LAY-10
  6
CONTINUOUS
 62
     4
100
AcDbVertex
100
AcDb2dVertex
 10
1838.644165
 20
917.3210066666659
 30
0.0
  0
VERTEX
  5
4E4
330
4D5
100
AcDbEntity
  8
LAY-10
  6
CONTINUOUS
 62
     4
100
AcDbVertex
100
AcDb2dVertex
 10
1838.107054999999
 20
917.7161149999993
 30
0.0
  0
VERTEX
  5
4E5
330
4D5
100
AcDbEntity
  8
LAY-10
  6
CONTINUOUS
 62
     4
100
AcDbVertex
100
AcDb2dVertex
 10
1837.64624
 20
918.130139999999
 30
0.0
  0
VERTEX
  5
4E6
330
4D5
100
AcDbEntity
  8
LAY-10
  6
CONTINUOUS
 62
     4
100
AcDbVertex
100
AcDb2dVertex
 10
1837.218385
 20
918.5960399999993
 30
0.0
  0
VERTEX
  5
4E7
330
4D5
100
AcDbEntity
  8
LAY-10
  6
CONTINUOUS
 62
     4
100
AcDbVertex
100
AcDb2dVertex
 10
1836.83234
 20
919.104856666666
 30
0.0
  0
VERTEX
  5
4E8
330
4D5
100
AcDbEntity
  8
LAY-10
  6
CONTINUOUS
 62
     4
100
AcDbVertex
100
AcDb2dVertex
 10
1836.21588
 20
920.1741816666654
 30
0.0
  0
VERTEX
  5
4E9
330
4D5
100
AcDbEntity
  8
LAY-10
  6
CONTINUOUS
 62
     4
100
AcDbVertex
100
AcDb2dVertex
 10
1835.701965
 20
921.4461566666656
 30
0.0
  0
VERTEX
  5
4EA
330
4D5
100
AcDbEntity
  8
LAY-10
  6
CONTINUOUS
 62
     4
100
AcDbVertex
100
AcDb2dVertex
 10
1835.289675
 20
922.9403149999991
 30
0.0
  0
VERTEX
  5
4EB
330
4D5
100
AcDbEntity
  8
LAY-10
  6
CONTINUOUS
 62
     4
100
AcDbVertex
100
AcDb2dVertex
 10
1834.9845
 20
924.6824483333328
 30
0.0
  0
VERTEX
  5
4EC
330
4D5
100
AcDbEntity
  8
LAY-10
  6
CONTINUOUS
 62
     4
100
AcDbVertex
100
AcDb2dVertex
 10
1834.796815
 20
926.699056666666
 30
0.0
  0
VERTEX
  5
4ED
330
4D5
100
AcDbEntity
  8
LAY-10
  6
CONTINUOUS
 62
     4
100
AcDbVertex
100
AcDb2dVertex
 10
1834.742495
 20
929.0134983333328
 30
0.0
  0
VERTEX
  5
4EE
330
4D5
100
AcDbEntity
  8
LAY-10
  6
CONTINUOUS
 62
     4
100
AcDbVertex
100
AcDb2dVertex
 10
1834.839845
 20
931.6408733333321
 30
0.0
  0
VERTEX
  5
4EF
330
4D5
100
AcDbEntity
  8
LAY-10
  6
CONTINUOUS
 62
     4
100
AcDbVertex
100
AcDb2dVertex
 10
1835.107790000001
 20
934.5813399999995
 30
0.0
  0
VERTEX
  5
4F0
330
4D5
100
AcDbEntity
  8
LAY-10
  6
CONTINUOUS
 62
     4
100
AcDbVertex
100
AcDb2dVertex
 10
1835.561280000001
 20
937.8105066666657
 30
0.0
  0
VERTEX
  5
4F1
330
4D5
100
AcDbEntity
  8
LAY-10
  6
CONTINUOUS
 62
     4
100
AcDbVertex
100
AcDb2dVertex
 10
1836.208865
 20
941.270373333333
 30
0.0
  0
VERTEX
  5
4F2
330
4D5
100
AcDbEntity
  8
LAY-10
  6
CONTINUOUS
 62
     4
100
AcDbVertex
100
AcDb2dVertex
 10
1837.045045
 20
944.860673333333
 30
0.0
  0
VERTEX
  5
4F3
330
4D5
100
AcDbEntity
  8
LAY-10
  6
CONTINUOUS
 62
     4
100
AcDbVertex
100
AcDb2dVertex
 10
1837.724365
 20
947.3543733333327
 30
0.0
  0
VERTEX
  5
4F4
330
4D5
100
AcDbEntity
  8
LAY-10
  6
CONTINUOUS
 62
     4
100
AcDbVertex
100
AcDb2dVertex
 10
1838.25751
 20
949.119081666666
 30
0.0
  0
VERTEX
  5
4F5
330
4D5
100
AcDbEntity
  8
LAY-10
  6
CONTINUOUS
 62
     4
100
AcDbVertex
100
AcDb2dVertex
 10
1838.819335
 20
950.8282899999995
 30
0.0
  0
VERTEX
  5
4F6
330
4D5
100
AcDbEntity
  8
LAY-10
  6
CONTINUOUS
 62
     4
100
AcDbVertex
100
AcDb2dVertex
 10
1839.394595
 20
952.4396233333326
 30
0.0
  0
VERTEX
  5
4F7
330
4D5
100
AcDbEntity
  8
LAY-10
  6
CONTINUOUS
 62
     4
100
AcDbVertex
100
AcDb2dVertex
 10
1839.995485000001
 20
953.9888983333328
 30
0.0
  0
VERTEX
  5
4F8
330
4D5
100
AcDbEntity
  8
LAY-10
  6
CONTINUOUS
 62
     4
100
AcDbVertex
100
AcDb2dVertex
 10
1840.602175
 20
955.4301233333331
 30
0.0
  0
VERTEX
  5
4F9
330
4D5
100
AcDbEntity
  8
LAY-10
  6
CONTINUOUS
 62
     4
100
AcDbVertex
100
AcDb2dVertex
 10
1841.23114
 20
956.8050649999998
 30
0.0
  0
VERTEX
  5
4FA
330
4D5
100
AcDbEntity
  8
LAY-10
  6
CONTINUOUS
 62
     4
100
AcDbVertex
100
AcDb2dVertex
 10
1841.85889
 20
958.0662316666663
 30
0.0
  0
VERTEX
  5
4FB
330
4D5
100
AcDbEntity
  8
LAY-10
  6
CONTINUOUS
 62
     4
100
AcDbVertex
100
AcDb2dVertex
 10
1842.505250000001
 20
959.2582649999999
 30
0.0
  0
VERTEX
  5
4FC
330
4D5
100
AcDbEntity
  8
LAY-10
  6
CONTINUOUS
 62
     4
100
AcDbVertex
100
AcDb2dVertex
 10
1843.1449
 20
960.3363316666668
 30
0.0
  0
VERTEX
  5
4FD
330
4D5
100
AcDbEntity
  8
LAY-10
  6
CONTINUOUS
 62
     4
100
AcDbVertex
100
AcDb2dVertex
 10
1843.800415
 20
961.3438233333335
 30
0.0
  0
VERTEX
  5
4FE
330
4D5
100
AcDbEntity
  8
LAY-10
  6
CONTINUOUS
 62
     4
100
AcDbVertex
100
AcDb2dVertex
 10
1844.44403
 20
962.2416399999995
 30
0.0
  0
VERTEX
  5
4FF
330
4D5
100
AcDbEntity
  8
LAY-10
  6
CONTINUOUS
 62
     4
100
AcDbVertex
100
AcDb2dVertex
 10
1845.10138
 20
963.0684816666667
 30
0.0
  0
VERTEX
  5
500
330
4D5
100
AcDbEntity
  8
LAY-10
  6
CONTINUOUS
 62
     4
100
AcDbVertex
100
AcDb2dVertex
 10
1845.744385
 20
963.7927649999998
 30
0.0
  0
VERTEX
  5
501
330
4D5
100
AcDbEntity
  8
LAY-10
  6
CONTINUOUS
 62
     4
100
AcDbVertex
100
AcDb2dVertex
 10
1846.398685000001
 20
964.4466650000002
 30
0.0
  0
VERTEX
  5
502
330
4D5
100
AcDbEntity
  8
LAY-10
  6
CONTINUOUS
 62
     4
100
AcDbVertex
100
AcDb2dVertex
 10
1847.037415
 20
965.006348333333
 30
0.0
  0
VERTEX
  5
503
330
4D5
100
AcDbEntity
  8
LAY-10
  6
CONTINUOUS
 62
     4
100
AcDbVertex
100
AcDb2dVertex
 10
1847.685915000001
 20
965.4964733333329
 30
0.0
  0
VERTEX
  5
504
330
4D5
100
AcDbEntity
  8
LAY-10
  6
CONTINUOUS
 62
     4
100
AcDbVertex
100
AcDb2dVertex
 10
1848.31885
 20
965.900923333333
 30
0.0
  0
VERTEX
  5
505
330
4D5
100
AcDbEntity
  8
LAY-10
  6
CONTINUOUS
 62
     4
100
AcDbVertex
100
AcDb2dVertex
 10
1848.959719999999
 20
966.2368066666664
 30
0.0
  0
VERTEX
  5
506
330
4D5
100
AcDbEntity
  8
LAY-10
  6
CONTINUOUS
 62
     4
100
AcDbVertex
100
AcDb2dVertex
 10
1849.583495000001
 20
966.4933816666667
 30
0.0
  0
VERTEX
  5
507
330
4D5
100
AcDbEntity
  8
LAY-10
  6
CONTINUOUS
 62
     4
100
AcDbVertex
100
AcDb2dVertex
 10
1850.213685
 20
966.6829649999996
 30
0.0
  0
VERTEX
  5
508
330
4D5
100
AcDbEntity
  8
LAY-10
  6
CONTINUOUS
 62
     4
100
AcDbVertex
100
AcDb2dVertex
 10
1851.46704
 20
966.8591733333335
 30
0.0
  0
VERTEX
  5
509
330
4D5
100
AcDbEntity
  8
LAY-10
  6
CONTINUOUS
 62
     4
100
AcDbVertex
100
AcDb2dVertex
 10
1852.813785
 20
966.785931666667
 30
0.0
  0
VERTEX
  5
50A
330
4D5
100
AcDbEntity
  8
LAY-10
  6
CONTINUOUS
 62
     4
100
AcDbVertex
100
AcDb2dVertex
 10
1854.29175
 20
966.4443233333329
 30
0.0
  0
VERTEX
  5
50B
330
4D5
100
AcDbEntity
  8
LAY-10
  6
CONTINUOUS
 62
     4
100
AcDbVertex
100
AcDb2dVertex
 10
1855.95526
 20
965.7981816666662
 30
0.0
  0
VERTEX
  5
50C
330
4D5
100
AcDbEntity
  8
LAY-10
  6
CONTINUOUS
 62
     4
100
AcDbVertex
100
AcDb2dVertex
 10
1857.894045
 20
964.7825483333335
 30
0.0
  0
VERTEX
  5
50D
330
4D5
100
AcDbEntity
  8
LAY-10
  6
CONTINUOUS
 62
     4
100
AcDbVertex
100
AcDb2dVertex
 10
1860.293335
 20
963.2668399999994
 30
0.0
  0
VERTEX
  5
50E
330
4D5
100
AcDbEntity
  8
LAY-10
  6
CONTINUOUS
 62
     4
100
AcDbVertex
100
AcDb2dVertex
 10
1861.810975
 20
962.2225399999994
 30
0.0
  0
VERTEX
  5
50F
330
4D5
100
AcDbEntity
  8
LAY-10
  6
CONTINUOUS
 62
     4
100
AcDbVertex
100
AcDb2dVertex
 10
1864.273440000001
 20
960.4415233333331
 30
0.0
  0
VERTEX
  5
510
330
4D5
100
AcDbEntity
  8
LAY-10
  6
CONTINUOUS
 62
     4
100
AcDbVertex
100
AcDb2dVertex
 10
1866.698975000001
 20
958.4989816666662
 30
0.0
  0
VERTEX
  5
511
330
4D5
100
AcDbEntity
  8
LAY-10
  6
CONTINUOUS
 62
     4
100
AcDbVertex
100
AcDb2dVertex
 10
1867.800355000001
 20
957.5122483333333
 30
0.0
  0
VERTEX
  5
512
330
4D5
100
AcDbEntity
  8
LAY-10
  6
CONTINUOUS
 62
     4
100
AcDbVertex
100
AcDb2dVertex
 10
1868.8465
 20
956.4827816666661
 30
0.0
  0
VERTEX
  5
513
330
4D5
100
AcDbEntity
  8
LAY-10
  6
CONTINUOUS
 62
     4
100
AcDbVertex
100
AcDb2dVertex
 10
1869.651855
 20
955.6069316666662
 30
0.0
  0
VERTEX
  5
514
330
4D5
100
AcDbEntity
  8
LAY-10
  6
CONTINUOUS
 62
     4
100
AcDbVertex
100
AcDb2dVertex
 10
1870.40137
 20
954.7001483333335
 30
0.0
  0
VERTEX
  5
515
330
4D5
100
AcDbEntity
  8
LAY-10
  6
CONTINUOUS
 62
     4
100
AcDbVertex
100
AcDb2dVertex
 10
1870.99707
 20
953.8932733333327
 30
0.0
  0
VERTEX
  5
516
330
4D5
100
AcDbEntity
  8
LAY-10
  6
CONTINUOUS
 62
     4
100
AcDbVertex
100
AcDb2dVertex
 10
1871.539675
 20
953.0621816666659
 30
0.0
  0
VERTEX
  5
517
330
4D5
100
AcDbEntity
  8
LAY-10
  6
CONTINUOUS
 62
     4
100
AcDbVertex
100
AcDb2dVertex
 10
1871.971805
 20
952.3063566666661
 30
0.0
  0
VERTEX
  5
518
330
4D5
100
AcDbEntity
  8
LAY-10
  6
CONTINUOUS
 62
     4
100
AcDbVertex
100
AcDb2dVertex
 10
1872.355105000001
 20
951.5303899999993
 30
0.0
  0
VERTEX
  5
519
330
4D5
100
AcDbEntity
  8
LAY-10
  6
CONTINUOUS
 62
     4
100
AcDbVertex
100
AcDb2dVertex
 10
1872.655699999999
 20
950.8130316666667
 30
0.0
  0
VERTEX
  5
51A
330
4D5
100
AcDbEntity
  8
LAY-10
  6
CONTINUOUS
 62
     4
100
AcDbVertex
100
AcDb2dVertex
 10
1872.91083
 20
950.0787649999997
 30
0.0
  0
VERTEX
  5
51B
330
4D5
100
AcDbEntity
  8
LAY-10
  6
CONTINUOUS
 62
     4
100
AcDbVertex
100
AcDb2dVertex
 10
1873.10309
 20
949.3884649999995
 30
0.0
  0
VERTEX
  5
51C
330
4D5
100
AcDbEntity
  8
LAY-10
  6
CONTINUOUS
 62
     4
100
AcDbVertex
100
AcDb2dVertex
 10
1873.252320000001
 20
948.6833149999997
 30
0.0
  0
VERTEX
  5
51D
330
4D5
100
AcDbEntity
  8
LAY-10
  6
CONTINUOUS
 62
     4
100
AcDbVertex
100
AcDb2dVertex
 10
1873.407960000001
 20
947.3543733333327
 30
0.0
  0
VERTEX
  5
51E
330
4D5
100
AcDbEntity
  8
LAY-10
  6
CONTINUOUS
 62
     4
100
AcDbVertex
100
AcDb2dVertex
 10
1873.40613
 20
945.9930649999999
 30
0.0
  0
VERTEX
  5
51F
330
4D5
100
AcDbEntity
  8
LAY-10
  6
CONTINUOUS
 62
     4
100
AcDbVertex
100
AcDb2dVertex
 10
1873.245605
 20
944.5048233333324
 30
0.0
  0
VERTEX
  5
520
330
4D5
100
AcDbEntity
  8
LAY-10
  6
CONTINUOUS
 62
     4
100
AcDbVertex
100
AcDb2dVertex
 10
1872.907165000001
 20
942.8656483333327
 30
0.0
  0
VERTEX
  5
521
330
4D5
100
AcDbEntity
  8
LAY-10
  6
CONTINUOUS
 62
     4
100
AcDbVertex
100
AcDb2dVertex
 10
1872.36609
 20
941.0561483333329
 30
0.0
  0
VERTEX
  5
522
330
4D5
100
AcDbEntity
  8
LAY-10
  6
CONTINUOUS
 62
     4
100
AcDbVertex
100
AcDb2dVertex
 10
1871.595215
 20
939.0659899999993
 30
0.0
  0
VERTEX
  5
523
330
4D5
100
AcDbEntity
  8
LAY-10
  6
CONTINUOUS
 62
     4
100
AcDbVertex
100
AcDb2dVertex
 10
1870.569825
 20
936.8986399999991
 30
0.0
  0
VERTEX
  5
524
330
4D5
100
AcDbEntity
  8
LAY-10
  6
CONTINUOUS
 62
     4
100
AcDbVertex
100
AcDb2dVertex
 10
1869.275880000001
 20
934.5807316666658
 30
0.0
  0
VERTEX
  5
525
330
4D5
100
AcDbEntity
  8
LAY-10
  6
CONTINUOUS
 62
     4
100
AcDbVertex
100
AcDb2dVertex
 10
1867.72528
 20
932.1757233333327
 30
0.0
  0
VERTEX
  5
526
330
4D5
100
AcDbEntity
  8
LAY-10
  6
CONTINUOUS
 62
     4
100
AcDbVertex
100
AcDb2dVertex
 10
1865.9751
 20
929.8043149999991
 30
0.0
  0
VERTEX
  5
527
330
4D5
100
AcDbEntity
  8
LAY-10
  6
CONTINUOUS
 62
     4
100
AcDbVertex
100
AcDb2dVertex
 10
1864.48706
 20
928.0257483333321
 30
0.0
  0
SEQEND
  5
528
330
4D5
100
AcDbEntity
  8
LAY-10
  6
CONTINUOUS
 62
     4
  0
LINE
  5
529
330
1F
100
AcDbEntity
  8
LAY-10
  6
CONTINUOUS
 62
     4
100
AcDbLine
 10
1920.30005
 20
970.0000399999999
 30
0.0
 11
2082.150025
 21
970.0000399999999
 31
0.0
  0
LINE
  5
52A
330
1F
100
AcDbEntity
  8
LAY-10
  6
CONTINUOUS
 62
     4
100
AcDbLine
 10
1682.14972
 20
970.0000399999999
 30
0.0
 11
1844.0
 21
970.0000399999999
 31
0.0
  0
LINE
  5
52B
330
1F
100
AcDbEntity
  8
LAY-10
  6
CONTINUOUS
 62
     7
100
AcDbLine
 10
1920.30005
 20
970.0000399999997
 30
0.0
 11
1844.0
 21
970.0000399999997
 31
0.0
  0
LINE
  5
52C
330
1F
100
AcDbEntity
  8
LAY-10
  6
CONTINUOUS
 62
     4
100
AcDbLine
 10
1955.651065000059
 20
970.0000399999999
 30
0.0
 11
2032.150025000002
 21
1046.498999999943
 31
0.0
  0
LINE
  5
52D
330
1F
100
AcDbEntity
  8
LAY-10
  6
CONTINUOUS
 62
     4
100
AcDbLine
 10
1969.793200623793
 20
970.0000399999999
 30
0.0
 11
2032.150025000002
 21
1032.356864376211
 31
0.0
  0
LINE
  5
52E
330
1F
100
AcDbEntity
  8
LAY-10
  6
CONTINUOUS
 62
     4
100
AcDbLine
 10
1983.935336247524
 20
970.0000399999999
 30
0.0
 11
2032.150025000002
 21
1018.214728752479
 31
0.0
  0
LINE
  5
52F
330
1F
100
AcDbEntity
  8
LAY-10
  6
CONTINUOUS
 62
     4
100
AcDbLine
 10
1732.150025000003
 20
1024.68600813893
 30
0.0
 11
1844.0
 21
1136.535983138935
 31
0.0
  0
LINE
  5
530
330
1F
100
AcDbEntity
  8
LAY-10
  6
CONTINUOUS
 62
     4
100
AcDbLine
 10
1732.150025000003
 20
1010.5438725152
 30
0.0
 11
1844.0
 21
1122.393847515203
 31
0.0
  0
LINE
  5
531
330
1F
100
AcDbEntity
  8
LAY-10
  6
CONTINUOUS
 62
     4
100
AcDbLine
 10
1732.150025000003
 20
996.4017368915082
 30
0.0
 11
1844.0
 21
1108.251711891488
 31
0.0
  0
LINE
  5
532
330
1F
100
AcDbEntity
  8
LAY-10
  6
CENTER
 62
     4
100
AcDbLine
 10
1814.872194999999
 20
1020.00004
 30
0.0
 11
1946.60498
 21
1020.00004
 31
0.0
  0
LINE
  5
533
330
1F
100
AcDbEntity
  8
LAY-10
  6
CONTINUOUS
 62
     7
100
AcDbLine
 10
1942.150025
 20
1024.000055
 30
0.0
 11
1942.150025
 21
1016.00006
 31
0.0
  0
LINE
  5
534
330
1F
100
AcDbEntity
  8
LAY-10
  6
CONTINUOUS
 62
     7
100
AcDbLine
 10
1920.30005
 20
1016.00006
 30
0.0
 11
1942.150025
 21
1016.00006
 31
0.0
  0
LINE
  5
535
330
1F
100
AcDbEntity
  8
LAY-10
  6
CONTINUOUS
 62
     7
100
AcDbLine
 10
1920.30005
 20
1024.000055
 30
0.0
 11
1942.150025
 21
1024.000055
 31
0.0
  0
LINE
  5
536
330
1F
100
AcDbEntity
  8
LAY-10
  6
CONTINUOUS
 62
     7
100
AcDbLine
 10
1822.150025
 20
1024.000055
 30
0.0
 11
1844.0
 21
1024.000055
 31
0.0
  0
LINE
  5
537
330
1F
100
AcDbEntity
  8
LAY-10
  6
CONTINUOUS
 62
     7
100
AcDbLine
 10
1822.150025
 20
1016.00006
 30
0.0
 11
1844.0
 21
1016.00006
 31
0.0
  0
LINE
  5
538
330
1F
100
AcDbEntity
  8
LAY-10
  6
CONTINUOUS
 62
     7
100
AcDbLine
 10
1822.150025
 20
1024.000055
 30
0.0
 11
1822.150025
 21
1016.00006
 31
0.0
  0
LINE
  5
539
330
1F
100
AcDbEntity
  8
LAY-10
  6
HIDDEN
 62
     4
100
AcDbLine
 10
1844.0
 20
1024.000055
 30
0.0
 11
1920.30005
 21
1024.000055
 31
0.0
  0
LINE
  5
53A
330
1F
100
AcDbEntity
  8
LAY-10
  6
HIDDEN
 62
     4
100
AcDbLine
 10
1844.0
 20
1016.00006
 30
0.0
 11
1920.30005
 21
1016.00006
 31
0.0
  0
POLYLINE
  5
53B
330
1F
100
AcDbEntity
  8
LAY-10
  6
CONTINUOUS
 62
     4
100
AcDb2dPolyline
 66
     1
 10
0.0
 20
0.0
 30
0.0
 70
   128
  0
VERTEX
  5
53C
330
53B
100
AcDbEntity
  8
LAY-10
  6
CONTINUOUS
 62
     4
100
AcDbVertex
100
AcDb2dVertex
 10
2022.285660680861
 20
921.896565570606
 30
0.0
  0
VERTEX
  5
53D
330
53B
100
AcDbEntity
  8
LAY-10
  6
CONTINUOUS
 62
     4
100
AcDbVertex
100
AcDb2dVertex
 10
2022.196105
 20
921.8801149999996
 30
0.0
  0
VERTEX
  5
53E
330
53B
100
AcDbEntity
  8
LAY-10
  6
CONTINUOUS
 62
     4
100
AcDbVertex
100
AcDb2dVertex
 10
2017.901065
 20
921.2431233333325
 30
0.0
  0
VERTEX
  5
53F
330
53B
100
AcDbEntity
  8
LAY-10
  6
CONTINUOUS
 62
     4
100
AcDbVertex
100
AcDb2dVertex
 10
2017.569944999999
 20
921.1863483333327
 30
0.0
  0
VERTEX
  5
540
330
53B
100
AcDbEntity
  8
LAY-10
  6
CONTINUOUS
 62
     4
100
AcDbVertex
100
AcDb2dVertex
 10
2014.41138
 20
920.5216983333321
 30
0.0
  0
VERTEX
  5
541
330
53B
100
AcDbEntity
  8
LAY-10
  6
CONTINUOUS
 62
     4
100
AcDbVertex
100
AcDb2dVertex
 10
2010.25946
 20
919.4537733333319
 30
0.0
  0
VERTEX
  5
542
330
53B
100
AcDbEntity
  8
LAY-10
  6
CONTINUOUS
 62
     4
100
AcDbVertex
100
AcDb2dVertex
 10
2007.247985
 20
918.7300899999991
 30
0.0
  0
VERTEX
  5
543
330
53B
100
AcDbEntity
  8
LAY-10
  6
CONTINUOUS
 62
     4
100
AcDbVertex
100
AcDb2dVertex
 10
2004.1886
 20
918.2127233333324
 30
0.0
  0
SEQEND
  5
544
330
53B
100
AcDbEntity
  8
LAY-10
  6
CONTINUOUS
 62
     4
  0
POLYLINE
  5
545
330
1F
100
AcDbEntity
  8
LAY-10
  6
CONTINUOUS
 62
     4
100
AcDb2dPolyline
 66
     1
 10
0.0
 20
0.0
 30
0.0
 70
   128
  0
VERTEX
  5
546
330
545
100
AcDbEntity
  8
LAY-10
  6
CONTINUOUS
 62
     4
100
AcDbVertex
100
AcDb2dVertex
 10
2001.51221
 20
918.2127233333324
 30
0.0
  0
VERTEX
  5
547
330
545
100
AcDbEntity
  8
LAY-10
  6
CONTINUOUS
 62
     4
100
AcDbVertex
100
AcDb2dVertex
 10
2000.96289
 20
919.9925066666657
 30
0.0
  0
VERTEX
  5
548
330
545
100
AcDbEntity
  8
LAY-10
  6
CONTINUOUS
 62
     4
100
AcDbVertex
100
AcDb2dVertex
 10
2000.44043
 20
921.8371983333323
 30
0.0
  0
VERTEX
  5
549
330
545
100
AcDbEntity
  8
LAY-10
  6
CONTINUOUS
 62
     4
100
AcDbVertex
100
AcDb2dVertex
 10
1999.963135
 20
923.6824899999993
 30
0.0
  0
VERTEX
  5
54A
330
545
100
AcDbEntity
  8
LAY-10
  6
CONTINUOUS
 62
     4
100
AcDbVertex
100
AcDb2dVertex
 10
1999.519409999999
 20
925.5729649999993
 30
0.0
  0
VERTEX
  5
54B
330
545
100
AcDbEntity
  8
LAY-10
  6
CONTINUOUS
 62
     4
100
AcDbVertex
100
AcDb2dVertex
 10
1999.130005000001
 20
927.4204816666654
 30
0.0
  0
VERTEX
  5
54C
330
545
100
AcDbEntity
  8
LAY-10
  6
CONTINUOUS
 62
     4
100
AcDbVertex
100
AcDb2dVertex
 10
1998.779055
 20
929.2956899999996
 30
0.0
  0
VERTEX
  5
54D
330
545
100
AcDbEntity
  8
LAY-10
  6
CONTINUOUS
 62
     4
100
AcDbVertex
100
AcDb2dVertex
 10
1998.485475
 20
931.0960399999997
 30
0.0
  0
VERTEX
  5
54E
330
545
100
AcDbEntity
  8
LAY-10
  6
CONTINUOUS
 62
     4
100
AcDbVertex
100
AcDb2dVertex
 10
1998.233095
 20
932.9093899999992
 30
0.0
  0
VERTEX
  5
54F
330
545
100
AcDbEntity
  8
LAY-10
  6
CONTINUOUS
 62
     4
100
AcDbVertex
100
AcDb2dVertex
 10
1998.036255000001
 20
934.6297483333328
 30
0.0
  0
VERTEX
  5
550
330
545
100
AcDbEntity
  8
LAY-10
  6
CONTINUOUS
 62
     4
100
AcDbVertex
100
AcDb2dVertex
 10
1997.881835
 20
936.3513566666662
 30
0.0
  0
VERTEX
  5
551
330
545
100
AcDbEntity
  8
LAY-10
  6
CONTINUOUS
 62
     4
100
AcDbVertex
100
AcDb2dVertex
 10
1997.778075
 20
937.9726649999998
 30
0.0
  0
VERTEX
  5
552
330
545
100
AcDbEntity
  8
LAY-10
  6
CONTINUOUS
 62
     4
100
AcDbVertex
100
AcDb2dVertex
 10
1997.717345
 20
939.5862233333332
 30
0.0
  0
VERTEX
  5
553
330
545
100
AcDbEntity
  8
LAY-10
  6
CONTINUOUS
 62
     4
100
AcDbVertex
100
AcDb2dVertex
 10
1997.701175
 20
941.0990649999992
 30
0.0
  0
VERTEX
  5
554
330
545
100
AcDbEntity
  8
LAY-10
  6
CONTINUOUS
 62
     4
100
AcDbVertex
100
AcDb2dVertex
 10
1997.727725
 20
942.5978899999999
 30
0.0
  0
VERTEX
  5
555
330
545
100
AcDbEntity
  8
LAY-10
  6
CONTINUOUS
 62
     4
100
AcDbVertex
100
AcDb2dVertex
 10
1997.793335
 20
944.000273333333
 30
0.0
  0
VERTEX
  5
556
330
545
100
AcDbEntity
  8
LAY-10
  6
CONTINUOUS
 62
     4
100
AcDbVertex
100
AcDb2dVertex
 10
1997.900149999999
 20
945.3839566666659
 30
0.0
  0
VERTEX
  5
557
330
545
100
AcDbEntity
  8
LAY-10
  6
CONTINUOUS
 62
     4
100
AcDbVertex
100
AcDb2dVertex
 10
1998.041139999999
 20
946.6783149999998
 30
0.0
  0
VERTEX
  5
558
330
545
100
AcDbEntity
  8
LAY-10
  6
CONTINUOUS
 62
     4
100
AcDbVertex
100
AcDb2dVertex
 10
1998.222414999999
 20
947.9504816666662
 30
0.0
  0
VERTEX
  5
559
330
545
100
AcDbEntity
  8
LAY-10
  6
CONTINUOUS
 62
     4
100
AcDbVertex
100
AcDb2dVertex
 10
1998.434205
 20
949.1420983333333
 30
0.0
  0
VERTEX
  5
55A
330
545
100
AcDbEntity
  8
LAY-10
  6
CONTINUOUS
 62
     4
100
AcDbVertex
100
AcDb2dVertex
 10
1998.685059999999
 20
950.3088899999996
 30
0.0
  0
VERTEX
  5
55B
330
545
100
AcDbEntity
  8
LAY-10
  6
CONTINUOUS
 62
     4
100
AcDbVertex
100
AcDb2dVertex
 10
1998.835815
 20
950.9226733333333
 30
0.0
  0
VERTEX
  5
55C
330
545
100
AcDbEntity
  8
LAY-10
  6
CONTINUOUS
 62
     4
100
AcDbVertex
100
AcDb2dVertex
 10
1999.464175
 20
953.0351233333326
 30
0.0
  0
VERTEX
  5
55D
330
545
100
AcDbEntity
  8
LAY-10
  6
CONTINUOUS
 62
     4
100
AcDbVertex
100
AcDb2dVertex
 10
2000.253360000001
 20
955.0944233333328
 30
0.0
  0
VERTEX
  5
55E
330
545
100
AcDbEntity
  8
LAY-10
  6
CONTINUOUS
 62
     4
100
AcDbVertex
100
AcDb2dVertex
 10
2001.20459
 20
957.0864316666666
 30
0.0
  0
VERTEX
  5
55F
330
545
100
AcDbEntity
  8
LAY-10
  6
CONTINUOUS
 62
     4
100
AcDbVertex
100
AcDb2dVertex
 10
2002.317870000001
 20
958.9925400000001
 30
0.0
  0
VERTEX
  5
560
330
545
100
AcDbEntity
  8
LAY-10
  6
CONTINUOUS
 62
     4
100
AcDbVertex
100
AcDb2dVertex
 10
2003.589539999999
 20
960.78964
 30
0.0
  0
VERTEX
  5
561
330
545
100
AcDbEntity
  8
LAY-10
  6
CONTINUOUS
 62
     4
100
AcDbVertex
100
AcDb2dVertex
 10
2005.010135
 20
962.4499900000002
 30
0.0
  0
VERTEX
  5
562
330
545
100
AcDbEntity
  8
LAY-10
  6
CONTINUOUS
 62
     4
100
AcDbVertex
100
AcDb2dVertex
 10
2006.56592
 20
963.9435066666667
 30
0.0
  0
VERTEX
  5
563
330
545
100
AcDbEntity
  8
LAY-10
  6
CONTINUOUS
 62
     4
100
AcDbVertex
100
AcDb2dVertex
 10
2008.235535
 20
965.2394900000004
 30
0.0
  0
VERTEX
  5
564
330
545
100
AcDbEntity
  8
LAY-10
  6
CONTINUOUS
 62
     4
100
AcDbVertex
100
AcDb2dVertex
 10
2009.992740000001
 20
966.3094483333333
 30
0.0
  0
VERTEX
  5
565
330
545
100
AcDbEntity
  8
LAY-10
  6
CONTINUOUS
 62
     4
100
AcDbVertex
100
AcDb2dVertex
 10
2010.89392
 20
966.7519483333331
 30
0.0
  0
VERTEX
  5
566
330
545
100
AcDbEntity
  8
LAY-10
  6
CONTINUOUS
 62
     4
100
AcDbVertex
100
AcDb2dVertex
 10
2011.806399999999
 20
967.129956666667
 30
0.0
  0
VERTEX
  5
567
330
545
100
AcDbEntity
  8
LAY-10
  6
CONTINUOUS
 62
     4
100
AcDbVertex
100
AcDb2dVertex
 10
2012.217165000001
 20
967.2776816666665
 30
0.0
  0
VERTEX
  5
568
330
545
100
AcDbEntity
  8
LAY-10
  6
CONTINUOUS
 62
     4
100
AcDbVertex
100
AcDb2dVertex
 10
2014.055240000001
 20
967.7724483333335
 30
0.0
  0
VERTEX
  5
569
330
545
100
AcDbEntity
  8
LAY-10
  6
CONTINUOUS
 62
     4
100
AcDbVertex
100
AcDb2dVertex
 10
2015.922305000001
 20
968.0064149999998
 30
0.0
  0
VERTEX
  5
56A
330
545
100
AcDbEntity
  8
LAY-10
  6
CONTINUOUS
 62
     4
100
AcDbVertex
100
AcDb2dVertex
 10
2016.85889
 20
968.0235150000001
 30
0.0
  0
VERTEX
  5
56B
330
545
100
AcDbEntity
  8
LAY-10
  6
CONTINUOUS
 62
     4
100
AcDbVertex
100
AcDb2dVertex
 10
2017.79364
 20
967.9740816666665
 30
0.0
  0
VERTEX
  5
56C
330
545
100
AcDbEntity
  8
LAY-10
  6
CONTINUOUS
 62
     4
100
AcDbVertex
100
AcDb2dVertex
 10
2018.72229
 20
967.8581149999999
 30
0.0
  0
VERTEX
  5
56D
330
545
100
AcDbEntity
  8
LAY-10
  6
CONTINUOUS
 62
     4
100
AcDbVertex
100
AcDb2dVertex
 10
2019.64484
 20
967.6756150000002
 30
0.0
  0
VERTEX
  5
56E
330
545
100
AcDbEntity
  8
LAY-10
  6
CONTINUOUS
 62
     4
100
AcDbVertex
100
AcDb2dVertex
 10
2020.553345
 20
967.4286149999996
 30
0.0
  0
VERTEX
  5
56F
330
545
100
AcDbEntity
  8
LAY-10
  6
CONTINUOUS
 62
     4
100
AcDbVertex
100
AcDb2dVertex
 10
2021.452395
 20
967.1161233333336
 30
0.0
  0
VERTEX
  5
570
330
545
100
AcDbEntity
  8
LAY-10
  6
CONTINUOUS
 62
     4
100
AcDbVertex
100
AcDb2dVertex
 10
2022.330384999999
 20
966.7423816666669
 30
0.0
  0
VERTEX
  5
571
330
545
100
AcDbEntity
  8
LAY-10
  6
CONTINUOUS
 62
     4
100
AcDbVertex
100
AcDb2dVertex
 10
2023.194944999999
 20
966.3045483333334
 30
0.0
  0
VERTEX
  5
572
330
545
100
AcDbEntity
  8
LAY-10
  6
CONTINUOUS
 62
     4
100
AcDbVertex
100
AcDb2dVertex
 10
2024.032655
 20
965.81039
 30
0.0
  0
VERTEX
  5
573
330
545
100
AcDbEntity
  8
LAY-10
  6
CONTINUOUS
 62
     4
100
AcDbVertex
100
AcDb2dVertex
 10
2024.853885
 20
965.2539483333334
 30
0.0
  0
VERTEX
  5
574
330
545
100
AcDbEntity
  8
LAY-10
  6
CONTINUOUS
 62
     4
100
AcDbVertex
100
AcDb2dVertex
 10
2025.64307
 20
964.6464316666666
 30
0.0
  0
VERTEX
  5
575
330
545
100
AcDbEntity
  8
LAY-10
  6
CONTINUOUS
 62
     4
100
AcDbVertex
100
AcDb2dVertex
 10
2026.413635
 20
963.9789233333331
 30
0.0
  0
VERTEX
  5
576
330
545
100
AcDbEntity
  8
LAY-10
  6
CONTINUOUS
 62
     4
100
AcDbVertex
100
AcDb2dVertex
 10
2027.148805000001
 20
963.2656316666663
 30
0.0
  0
VERTEX
  5
577
330
545
100
AcDbEntity
  8
LAY-10
  6
CONTINUOUS
 62
     4
100
AcDbVertex
100
AcDb2dVertex
 10
2027.862915
 20
962.4943316666668
 30
0.0
  0
VERTEX
  5
578
330
545
100
AcDbEntity
  8
LAY-10
  6
CONTINUOUS
 62
     4
100
AcDbVertex
100
AcDb2dVertex
 10
2028.539795000001
 20
961.6825649999994
 30
0.0
  0
VERTEX
  5
579
330
545
100
AcDbEntity
  8
LAY-10
  6
CONTINUOUS
 62
     4
100
AcDbVertex
100
AcDb2dVertex
 10
2029.193485
 20
960.8152649999997
 30
0.0
  0
VERTEX
  5
57A
330
545
100
AcDbEntity
  8
LAY-10
  6
CONTINUOUS
 62
     4
100
AcDbVertex
100
AcDb2dVertex
 10
2029.809325
 20
959.9115316666667
 30
0.0
  0
VERTEX
  5
57B
330
545
100
AcDbEntity
  8
LAY-10
  6
CONTINUOUS
 62
     4
100
AcDbVertex
100
AcDb2dVertex
 10
2030.399535
 20
958.9545149999994
 30
0.0
  0
VERTEX
  5
57C
330
545
100
AcDbEntity
  8
LAY-10
  6
CONTINUOUS
 62
     4
100
AcDbVertex
100
AcDb2dVertex
 10
2030.952515
 20
957.9640983333333
 30
0.0
  0
VERTEX
  5
57D
330
545
100
AcDbEntity
  8
LAY-10
  6
CONTINUOUS
 62
     4
100
AcDbVertex
100
AcDb2dVertex
 10
2031.47803
 20
956.9222399999995
 30
0.0
  0
VERTEX
  5
57E
330
545
100
AcDbEntity
  8
LAY-10
  6
CONTINUOUS
 62
     4
100
AcDbVertex
100
AcDb2dVertex
 10
2031.966309999999
 20
955.8490399999994
 30
0.0
  0
VERTEX
  5
57F
330
545
100
AcDbEntity
  8
LAY-10
  6
CONTINUOUS
 62
     4
100
AcDbVertex
100
AcDb2dVertex
 10
2032.425905
 20
954.7264066666668
 30
0.0
  0
VERTEX
  5
580
330
545
100
AcDbEntity
  8
LAY-10
  6
CONTINUOUS
 62
     4
100
AcDbVertex
100
AcDb2dVertex
 10
2032.735355
 20
953.8963233333326
 30
0.0
  0
VERTEX
  5
581
330
545
100
AcDbEntity
  8
LAY-10
  6
CONTINUOUS
 62
     4
100
AcDbVertex
100
AcDb2dVertex
 10
2033.503784999999
 20
951.4919566666664
 30
0.0
  0
VERTEX
  5
582
330
545
100
AcDbEntity
  8
LAY-10
  6
CONTINUOUS
 62
     4
100
AcDbVertex
100
AcDb2dVertex
 10
2034.165099999999
 20
948.8611149999998
 30
0.0
  0
VERTEX
  5
583
330
545
100
AcDbEntity
  8
LAY-10
  6
CONTINUOUS
 62
     4
100
AcDbVertex
100
AcDb2dVertex
 10
2034.69336
 20
946.075881666666
 30
0.0
  0
VERTEX
  5
584
330
545
100
AcDbEntity
  8
LAY-10
  6
CONTINUOUS
 62
     4
100
AcDbVertex
100
AcDb2dVertex
 10
2034.90027
 20
944.6541733333324
 30
0.0
  0
VERTEX
  5
585
330
545
100
AcDbEntity
  8
LAY-10
  6
CONTINUOUS
 62
     4
100
AcDbVertex
100
AcDb2dVertex
 10
2035.06659
 20
943.2281733333326
 30
0.0
  0
VERTEX
  5
586
330
545
100
AcDbEntity
  8
LAY-10
  6
CONTINUOUS
 62
     4
100
AcDbVertex
100
AcDb2dVertex
 10
2035.190185
 20
941.8188983333332
 30
0.0
  0
VERTEX
  5
587
330
545
100
AcDbEntity
  8
LAY-10
  6
CONTINUOUS
 62
     4
100
AcDbVertex
100
AcDb2dVertex
 10
2035.27167
 20
940.4191566666658
 30
0.0
  0
VERTEX
  5
588
330
545
100
AcDbEntity
  8
LAY-10
  6
CONTINUOUS
 62
     4
100
AcDbVertex
100
AcDb2dVertex
 10
2035.309815
 20
939.0702816666665
 30
0.0
  0
VERTEX
  5
589
330
545
100
AcDbEntity
  8
LAY-10
  6
CONTINUOUS
 62
     4
100
AcDbVertex
100
AcDb2dVertex
 10
2035.306155
 20
937.7433733333322
 30
0.0
  0
VERTEX
  5
58A
330
545
100
AcDbEntity
  8
LAY-10
  6
CONTINUOUS
 62
     4
100
AcDbVertex
100
AcDb2dVertex
 10
2035.262515000001
 20
936.4933566666658
 30
0.0
  0
VERTEX
  5
58B
330
545
100
AcDbEntity
  8
LAY-10
  6
CONTINUOUS
 62
     4
100
AcDbVertex
100
AcDb2dVertex
 10
2035.178285000001
 20
935.2751066666664
 30
0.0
  0
VERTEX
  5
58C
330
545
100
AcDbEntity
  8
LAY-10
  6
CONTINUOUS
 62
     4
100
AcDbVertex
100
AcDb2dVertex
 10
2035.05957
 20
934.1494149999995
 30
0.0
  0
VERTEX
  5
58D
330
545
100
AcDbEntity
  8
LAY-10
  6
CONTINUOUS
 62
     4
100
AcDbVertex
100
AcDb2dVertex
 10
2034.90271
 20
933.0625816666657
 30
0.0
  0
VERTEX
  5
58E
330
545
100
AcDbEntity
  8
LAY-10
  6
CONTINUOUS
 62
     4
100
AcDbVertex
100
AcDb2dVertex
 10
2034.718080000001
 20
932.0732066666662
 30
0.0
  0
VERTEX
  5
58F
330
545
100
AcDbEntity
  8
LAY-10
  6
CONTINUOUS
 62
     4
100
AcDbVertex
100
AcDb2dVertex
 10
2034.49744
 20
931.127764999999
 30
0.0
  0
VERTEX
  5
590
330
545
100
AcDbEntity
  8
LAY-10
  6
CONTINUOUS
 62
     4
100
AcDbVertex
100
AcDb2dVertex
 10
2034.255435
 20
930.2765149999996
 30
0.0
  0
VERTEX
  5
591
330
545
100
AcDbEntity
  8
LAY-10
  6
CONTINUOUS
 62
     4
100
AcDbVertex
100
AcDb2dVertex
 10
2034.148947336226
 20
929.9649795721032
 30
0.0
  0
SEQEND
  5
592
330
545
100
AcDbEntity
  8
LAY-10
  6
CONTINUOUS
 62
     4
  0
POLYLINE
  5
593
330
1F
100
AcDbEntity
  8
LAY-10
  6
CONTINUOUS
 62
     4
100
AcDb2dPolyline
 66
     1
 10
0.0
 20
0.0
 30
0.0
 70
   128
  0
VERTEX
  5
594
330
593
100
AcDbEntity
  8
LAY-10
  6
CONTINUOUS
 62
     4
100
AcDbVertex
100
AcDb2dVertex
 10
2038.979860000001
 20
933.0808899999992
 30
0.0
  0
VERTEX
  5
595
330
593
100
AcDbEntity
  8
LAY-10
  6
CONTINUOUS
 62
     4
100
AcDbVertex
100
AcDb2dVertex
 10
2039.079040000001
 20
935.004923333333
 30
0.0
  0
VERTEX
  5
596
330
593
100
AcDbEntity
  8
LAY-10
  6
CONTINUOUS
 62
     4
100
AcDbVertex
100
AcDb2dVertex
 10
2039.22095
 20
936.9374816666661
 30
0.0
  0
VERTEX
  5
597
330
593
100
AcDbEntity
  8
LAY-10
  6
CONTINUOUS
 62
     4
100
AcDbVertex
100
AcDb2dVertex
 10
2039.397645
 20
938.7789316666658
 30
0.0
  0
VERTEX
  5
598
330
593
100
AcDbEntity
  8
LAY-10
  6
CONTINUOUS
 62
     4
100
AcDbVertex
100
AcDb2dVertex
 10
2039.616150000001
 20
940.6146649999991
 30
0.0
  0
VERTEX
  5
599
330
593
100
AcDbEntity
  8
LAY-10
  6
CONTINUOUS
 62
     4
100
AcDbVertex
100
AcDb2dVertex
 10
2039.864260000001
 20
942.3437983333324
 30
0.0
  0
VERTEX
  5
59A
330
593
100
AcDbEntity
  8
LAY-10
  6
CONTINUOUS
 62
     4
100
AcDbVertex
100
AcDb2dVertex
 10
2040.15326
 20
944.0560316666657
 30
0.0
  0
VERTEX
  5
59B
330
593
100
AcDbEntity
  8
LAY-10
  6
CONTINUOUS
 62
     4
100
AcDbVertex
100
AcDb2dVertex
 10
2040.466065
 20
945.6583899999998
 30
0.0
  0
VERTEX
  5
59C
330
593
100
AcDbEntity
  8
LAY-10
  6
CONTINUOUS
 62
     4
100
AcDbVertex
100
AcDb2dVertex
 10
2040.818545
 20
947.2355483333331
 30
0.0
  0
VERTEX
  5
59D
330
593
100
AcDbEntity
  8
LAY-10
  6
CONTINUOUS
 62
     4
100
AcDbVertex
100
AcDb2dVertex
 10
2041.190860000001
 20
948.7050649999998
 30
0.0
  0
VERTEX
  5
59E
330
593
100
AcDbEntity
  8
LAY-10
  6
CONTINUOUS
 62
     4
100
AcDbVertex
100
AcDb2dVertex
 10
2041.600709999999
 20
950.1434566666661
 30
0.0
  0
VERTEX
  5
59F
330
593
100
AcDbEntity
  8
LAY-10
  6
CONTINUOUS
 62
     4
100
AcDbVertex
100
AcDb2dVertex
 10
2042.026735000001
 20
951.480131666666
 30
0.0
  0
VERTEX
  5
5A0
330
593
100
AcDbEntity
  8
LAY-10
  6
CONTINUOUS
 62
     4
100
AcDbVertex
100
AcDb2dVertex
 10
2042.489075
 20
952.780815
 30
0.0
  0
VERTEX
  5
5A1
330
593
100
AcDbEntity
  8
LAY-10
  6
CONTINUOUS
 62
     4
100
AcDbVertex
100
AcDb2dVertex
 10
2042.96515
 20
953.9874649999994
 30
0.0
  0
VERTEX
  5
5A2
330
593
100
AcDbEntity
  8
LAY-10
  6
CONTINUOUS
 62
     4
100
AcDbVertex
100
AcDb2dVertex
 10
2043.476015
 20
955.154856666666
 30
0.0
  0
VERTEX
  5
5A3
330
593
100
AcDbEntity
  8
LAY-10
  6
CONTINUOUS
 62
     4
100
AcDbVertex
100
AcDb2dVertex
 10
2044.332645000001
 20
956.869948333333
 30
0.0
  0
VERTEX
  5
5A4
330
593
100
AcDbEntity
  8
LAY-10
  6
CONTINUOUS
 62
     4
100
AcDbVertex
100
AcDb2dVertex
 10
2045.483765
 20
958.7996733333335
 30
0.0
  0
VERTEX
  5
5A5
330
593
100
AcDbEntity
  8
LAY-10
  6
CONTINUOUS
 62
     4
100
AcDbVertex
100
AcDb2dVertex
 10
2046.78229
 20
960.6020566666666
 30
0.0
  0
VERTEX
  5
5A6
330
593
100
AcDbEntity
  8
LAY-10
  6
CONTINUOUS
 62
     4
100
AcDbVertex
100
AcDb2dVertex
 10
2048.219665000001
 20
962.2526400000002
 30
0.0
  0
VERTEX
  5
5A7
330
593
100
AcDbEntity
  8
LAY-10
  6
CONTINUOUS
 62
     4
100
AcDbVertex
100
AcDb2dVertex
 10
2049.780334999999
 20
963.7231733333336
 30
0.0
  0
VERTEX
  5
5A8
330
593
100
AcDbEntity
  8
LAY-10
  6
CONTINUOUS
 62
     4
100
AcDbVertex
100
AcDb2dVertex
 10
2051.442325
 20
964.9849816666663
 30
0.0
  0
VERTEX
  5
5A9
330
593
100
AcDbEntity
  8
LAY-10
  6
CONTINUOUS
 62
     4
100
AcDbVertex
100
AcDb2dVertex
 10
2053.178775
 20
966.0113900000005
 30
0.0
  0
VERTEX
  5
5AA
330
593
100
AcDbEntity
  8
LAY-10
  6
CONTINUOUS
 62
     4
100
AcDbVertex
100
AcDb2dVertex
 10
2054.0647
 20
966.4292899999998
 30
0.0
  0
VERTEX
  5
5AB
330
593
100
AcDbEntity
  8
LAY-10
  6
CONTINUOUS
 62
     4
100
AcDbVertex
100
AcDb2dVertex
 10
2054.958255
 20
966.7812566666663
 30
0.0
  0
VERTEX
  5
5AC
330
593
100
AcDbEntity
  8
LAY-10
  6
CONTINUOUS
 62
     4
100
AcDbVertex
100
AcDb2dVertex
 10
2055.851810000001
 20
967.06444
 30
0.0
  0
VERTEX
  5
5AD
330
593
100
AcDbEntity
  8
LAY-10
  6
CONTINUOUS
 62
     4
100
AcDbVertex
100
AcDb2dVertex
 10
2056.74811
 20
967.2800983333337
 30
0.0
  0
VERTEX
  5
5AE
330
593
100
AcDbEntity
  8
LAY-10
  6
CONTINUOUS
 62
     4
100
AcDbVertex
100
AcDb2dVertex
 10
2057.632815000001
 20
967.4251816666664
 30
0.0
  0
VERTEX
  5
5AF
330
593
100
AcDbEntity
  8
LAY-10
  6
CONTINUOUS
 62
     4
100
AcDbVertex
100
AcDb2dVertex
 10
2058.515685
 20
967.5020816666665
 30
0.0
  0
VERTEX
  5
5B0
330
593
100
AcDbEntity
  8
LAY-10
  6
CONTINUOUS
 62
     4
100
AcDbVertex
100
AcDb2dVertex
 10
2059.3772
 20
967.5096149999997
 30
0.0
  0
VERTEX
  5
5B1
330
593
100
AcDbEntity
  8
LAY-10
  6
CONTINUOUS
 62
     4
100
AcDbVertex
100
AcDb2dVertex
 10
2060.232300000001
 20
967.4491816666665
 30
0.0
  0
VERTEX
  5
5B2
330
593
100
AcDbEntity
  8
LAY-10
  6
CONTINUOUS
 62
     4
100
AcDbVertex
100
AcDb2dVertex
 10
2061.282104999999
 20
967.2776816666665
 30
0.0
  0
VERTEX
  5
5B3
330
593
100
AcDbEntity
  8
LAY-10
  6
CONTINUOUS
 62
     4
100
AcDbVertex
100
AcDb2dVertex
 10
2062.869935
 20
966.8003649999997
 30
0.0
  0
VERTEX
  5
5B4
330
593
100
AcDbEntity
  8
LAY-10
  6
CONTINUOUS
 62
     4
100
AcDbVertex
100
AcDb2dVertex
 10
2064.429690000001
 20
966.0630816666662
 30
0.0
  0
VERTEX
  5
5B5
330
593
100
AcDbEntity
  8
LAY-10
  6
CONTINUOUS
 62
     4
100
AcDbVertex
100
AcDb2dVertex
 10
2065.95923
 20
965.0649316666662
 30
0.0
  0
VERTEX
  5
5B6
330
593
100
AcDbEntity
  8
LAY-10
  6
CONTINUOUS
 62
     4
100
AcDbVertex
100
AcDb2dVertex
 10
2067.454285
 20
963.8047816666665
 30
0.0
  0
VERTEX
  5
5B7
330
593
100
AcDbEntity
  8
LAY-10
  6
CONTINUOUS
 62
     4
100
AcDbVertex
100
AcDb2dVertex
 10
2068.908755
 20
962.2811233333335
 30
0.0
  0
VERTEX
  5
5B8
330
593
100
AcDbEntity
  8
LAY-10
  6
CONTINUOUS
 62
     4
100
AcDbVertex
100
AcDb2dVertex
 10
2070.31531
 20
960.4933983333328
 30
0.0
  0
VERTEX
  5
5B9
330
593
100
AcDbEntity
  8
LAY-10
  6
CONTINUOUS
 62
     4
100
AcDbVertex
100
AcDb2dVertex
 10
2071.665405
 20
958.4430316666663
 30
0.0
  0
VERTEX
  5
5BA
330
593
100
AcDbEntity
  8
LAY-10
  6
CONTINUOUS
 62
     4
100
AcDbVertex
100
AcDb2dVertex
 10
2072.94806
 20
956.1336733333331
 30
0.0
  0
VERTEX
  5
5BB
330
593
100
AcDbEntity
  8
LAY-10
  6
CONTINUOUS
 62
     4
100
AcDbVertex
100
AcDb2dVertex
 10
2074.151675
 20
953.5728399999994
 30
0.0
  0
VERTEX
  5
5BC
330
593
100
AcDbEntity
  8
LAY-10
  6
CONTINUOUS
 62
     4
100
AcDbVertex
100
AcDb2dVertex
 10
2075.264650000001
 20
950.7721233333334
 30
0.0
  0
VERTEX
  5
5BD
330
593
100
AcDbEntity
  8
LAY-10
  6
CONTINUOUS
 62
     4
100
AcDbVertex
100
AcDb2dVertex
 10
2076.27356
 20
947.7466233333331
 30
0.0
  0
VERTEX
  5
5BE
330
593
100
AcDbEntity
  8
LAY-10
  6
CONTINUOUS
 62
     4
100
AcDbVertex
100
AcDb2dVertex
 10
2077.16681
 20
944.5160149999992
 30
0.0
  0
VERTEX
  5
5BF
330
593
100
AcDbEntity
  8
LAY-10
  6
CONTINUOUS
 62
     4
100
AcDbVertex
100
AcDb2dVertex
 10
2077.933105
 20
941.1031316666661
 30
0.0
  0
VERTEX
  5
5C0
330
593
100
AcDbEntity
  8
LAY-10
  6
CONTINUOUS
 62
     4
100
AcDbVertex
100
AcDb2dVertex
 10
2078.26514
 20
939.3363899999997
 30
0.0
  0
VERTEX
  5
5C1
330
593
100
AcDbEntity
  8
LAY-10
  6
CONTINUOUS
 62
     4
100
AcDbVertex
100
AcDb2dVertex
 10
2078.562075
 20
937.5340066666666
 30
0.0
  0
VERTEX
  5
5C2
330
593
100
AcDbEntity
  8
LAY-10
  6
CONTINUOUS
 62
     4
100
AcDbVertex
100
AcDb2dVertex
 10
2078.822085000001
 20
935.7003149999995
 30
0.0
  0
VERTEX
  5
5C3
330
593
100
AcDbEntity
  8
LAY-10
  6
CONTINUOUS
 62
     4
100
AcDbVertex
100
AcDb2dVertex
 10
2079.045165
 20
933.8354983333325
 30
0.0
  0
VERTEX
  5
5C4
330
593
100
AcDbEntity
  8
LAY-10
  6
CONTINUOUS
 62
     4
100
AcDbVertex
100
AcDb2dVertex
 10
2079.123905
 20
933.0808899999992
 30
0.0
  0
VERTEX
  5
5C5
330
593
100
AcDbEntity
  8
LAY-10
  6
CONTINUOUS
 62
     4
100
AcDbVertex
100
AcDb2dVertex
 10
2079.293275
 20
931.1855566666658
 30
0.0
  0
VERTEX
  5
5C6
330
593
100
AcDbEntity
  8
LAY-10
  6
CONTINUOUS
 62
     4
100
AcDbVertex
100
AcDb2dVertex
 10
2079.42328
 20
929.2728983333325
 30
0.0
  0
VERTEX
  5
5C7
330
593
100
AcDbEntity
  8
LAY-10
  6
CONTINUOUS
 62
     4
100
AcDbVertex
100
AcDb2dVertex
 10
2079.512085
 20
927.3698399999987
 30
0.0
  0
VERTEX
  5
5C8
330
593
100
AcDbEntity
  8
LAY-10
  6
CONTINUOUS
 62
     4
100
AcDbVertex
100
AcDb2dVertex
 10
2079.559694999999
 20
925.4710149999989
 30
0.0
  0
VERTEX
  5
5C9
330
593
100
AcDbEntity
  8
LAY-10
  6
CONTINUOUS
 62
     4
100
AcDbVertex
100
AcDb2dVertex
 10
2079.56549
 20
923.6369066666655
 30
0.0
  0
VERTEX
  5
5CA
330
593
100
AcDbEntity
  8
LAY-10
  6
CONTINUOUS
 62
     4
100
AcDbVertex
100
AcDb2dVertex
 10
2079.529785
 20
921.8268316666662
 30
0.0
  0
VERTEX
  5
5CB
330
593
100
AcDbEntity
  8
LAY-10
  6
CONTINUOUS
 62
     4
100
AcDbVertex
100
AcDb2dVertex
 10
2079.45563
 20
920.1247483333328
 30
0.0
  0
VERTEX
  5
5CC
330
593
100
AcDbEntity
  8
LAY-10
  6
CONTINUOUS
 62
     4
100
AcDbVertex
100
AcDb2dVertex
 10
2079.34119
 20
918.4619483333321
 30
0.0
  0
VERTEX
  5
5CD
330
593
100
AcDbEntity
  8
LAY-10
  6
CONTINUOUS
 62
     4
100
AcDbVertex
100
AcDb2dVertex
 10
2079.19501
 20
916.9332149999988
 30
0.0
  0
VERTEX
  5
5CE
330
593
100
AcDbEntity
  8
LAY-10
  6
CONTINUOUS
 62
     4
100
AcDbVertex
100
AcDb2dVertex
 10
2079.010985
 20
915.4543483333322
 30
0.0
  0
VERTEX
  5
5CF
330
593
100
AcDbEntity
  8
LAY-10
  6
CONTINUOUS
 62
     4
100
AcDbVertex
100
AcDb2dVertex
 10
2078.803469999999
 20
914.1186983333325
 30
0.0
  0
VERTEX
  5
5D0
330
593
100
AcDbEntity
  8
LAY-10
  6
CONTINUOUS
 62
     4
100
AcDbVertex
100
AcDb2dVertex
 10
2078.560855
 20
912.8395983333323
 30
0.0
  0
VERTEX
  5
5D1
330
593
100
AcDbEntity
  8
LAY-10
  6
CONTINUOUS
 62
     4
100
AcDbVertex
100
AcDb2dVertex
 10
2078.302064999999
 20
911.7002733333325
 30
0.0
  0
VERTEX
  5
5D2
330
593
100
AcDbEntity
  8
LAY-10
  6
CONTINUOUS
 62
     4
100
AcDbVertex
100
AcDb2dVertex
 10
2078.011535
 20
910.6203649999992
 30
0.0
  0
VERTEX
  5
5D3
330
593
100
AcDbEntity
  8
LAY-10
  6
CONTINUOUS
 62
     4
100
AcDbVertex
100
AcDb2dVertex
 10
2077.710940000001
 20
909.6690149999984
 30
0.0
  0
VERTEX
  5
5D4
330
593
100
AcDbEntity
  8
LAY-10
  6
CONTINUOUS
 62
     4
100
AcDbVertex
100
AcDb2dVertex
 10
2077.381655000001
 20
908.7777066666655
 30
0.0
  0
VERTEX
  5
5D5
330
593
100
AcDbEntity
  8
LAY-10
  6
CONTINUOUS
 62
     4
100
AcDbVertex
100
AcDb2dVertex
 10
2077.046265
 20
908.0001149999989
 30
0.0
  0
VERTEX
  5
5D6
330
593
100
AcDbEntity
  8
LAY-10
  6
CONTINUOUS
 62
     4
100
AcDbVertex
100
AcDb2dVertex
 10
2076.68494
 20
907.2819316666655
 30
0.0
  0
VERTEX
  5
5D7
330
593
100
AcDbEntity
  8
LAY-10
  6
CONTINUOUS
 62
     4
100
AcDbVertex
100
AcDb2dVertex
 10
2076.319335
 20
906.6614066666651
 30
0.0
  0
VERTEX
  5
5D8
330
593
100
AcDbEntity
  8
LAY-10
  6
CONTINUOUS
 62
     4
100
AcDbVertex
100
AcDb2dVertex
 10
2075.92963
 20
906.0998816666655
 30
0.0
  0
VERTEX
  5
5D9
330
593
100
AcDbEntity
  8
LAY-10
  6
CONTINUOUS
 62
     4
100
AcDbVertex
100
AcDb2dVertex
 10
2075.53534
 20
905.6213649999991
 30
0.0
  0
VERTEX
  5
5DA
330
593
100
AcDbEntity
  8
LAY-10
  6
CONTINUOUS
 62
     4
100
AcDbVertex
100
AcDb2dVertex
 10
2075.11847
 20
905.2014566666658
 30
0.0
  0
VERTEX
  5
5DB
330
593
100
AcDbEntity
  8
LAY-10
  6
CONTINUOUS
 62
     4
100
AcDbVertex
100
AcDb2dVertex
 10
2074.663455
 20
904.8313733333317
 30
0.0
  0
VERTEX
  5
5DC
330
593
100
AcDbEntity
  8
LAY-10
  6
CONTINUOUS
 62
     4
100
AcDbVertex
100
AcDb2dVertex
 10
2073.76105
 20
904.3221399999985
 30
0.0
  0
VERTEX
  5
5DD
330
593
100
AcDbEntity
  8
LAY-10
  6
CONTINUOUS
 62
     4
100
AcDbVertex
100
AcDb2dVertex
 10
2072.72162
 20
904.014106666665
 30
0.0
  0
VERTEX
  5
5DE
330
593
100
AcDbEntity
  8
LAY-10
  6
CONTINUOUS
 62
     4
100
AcDbVertex
100
AcDb2dVertex
 10
2071.52869
 20
903.9274483333317
 30
0.0
  0
VERTEX
  5
5DF
330
593
100
AcDbEntity
  8
LAY-10
  6
CONTINUOUS
 62
     4
100
AcDbVertex
100
AcDb2dVertex
 10
2070.166995
 20
904.090814999999
 30
0.0
  0
VERTEX
  5
5E0
330
593
100
AcDbEntity
  8
LAY-10
  6
CONTINUOUS
 62
     4
100
AcDbVertex
100
AcDb2dVertex
 10
2068.625550000001
 20
904.5367816666652
 30
0.0
  0
VERTEX
  5
5E1
330
593
100
AcDbEntity
  8
LAY-10
  6
CONTINUOUS
 62
     4
100
AcDbVertex
100
AcDb2dVertex
 10
2066.905580000001
 20
905.296064999999
 30
0.0
  0
VERTEX
  5
5E2
330
593
100
AcDbEntity
  8
LAY-10
  6
CONTINUOUS
 62
     4
100
AcDbVertex
100
AcDb2dVertex
 10
2065.21750124451
 20
906.2782038032617
 30
0.0
  0
SEQEND
  5
5E3
330
593
100
AcDbEntity
  8
LAY-10
  6
CONTINUOUS
 62
     4
  0
POLYLINE
  5
5E4
330
1F
100
AcDbEntity
  8
LAY-10
  6
CONTINUOUS
 62
     4
100
AcDb2dPolyline
 66
     1
 10
0.0
 20
0.0
 30
0.0
 70
   128
  0
VERTEX
  5
5E5
330
5E4
100
AcDbEntity
  8
LAY-10
  6
CONTINUOUS
 62
     4
100
AcDbVertex
100
AcDb2dVertex
 10
1803.468080000001
 20
924.1599983333322
 30
0.0
  0
VERTEX
  5
5E6
330
5E4
100
AcDbEntity
  8
LAY-10
  6
CONTINUOUS
 62
     4
100
AcDbVertex
100
AcDb2dVertex
 10
1802.38135
 20
925.2675649999992
 30
0.0
  0
VERTEX
  5
5E7
330
5E4
100
AcDbEntity
  8
LAY-10
  6
CONTINUOUS
 62
     4
100
AcDbVertex
100
AcDb2dVertex
 10
1801.28699
 20
926.4716066666662
 30
0.0
  0
VERTEX
  5
5E8
330
5E4
100
AcDbEntity
  8
LAY-10
  6
CONTINUOUS
 62
     4
100
AcDbVertex
100
AcDb2dVertex
 10
1800.319275000001
 20
927.6217066666663
 30
0.0
  0
VERTEX
  5
5E9
330
5E4
100
AcDbEntity
  8
LAY-10
  6
CONTINUOUS
 62
     4
100
AcDbVertex
100
AcDb2dVertex
 10
1799.370485000001
 20
928.8407899999987
 30
0.0
  0
VERTEX
  5
5EA
330
5E4
100
AcDbEntity
  8
LAY-10
  6
CONTINUOUS
 62
     4
100
AcDbVertex
100
AcDb2dVertex
 10
1798.54651
 20
929.9880316666662
 30
0.0
  0
VERTEX
  5
5EB
330
5E4
100
AcDbEntity
  8
LAY-10
  6
CONTINUOUS
 62
     4
100
AcDbVertex
100
AcDb2dVertex
 10
1797.7558
 20
931.1855566666658
 30
0.0
  0
VERTEX
  5
5EC
330
5E4
100
AcDbEntity
  8
LAY-10
  6
CONTINUOUS
 62
     4
100
AcDbVertex
100
AcDb2dVertex
 10
1797.078005
 20
932.3061566666664
 30
0.0
  0
VERTEX
  5
5ED
330
5E4
100
AcDbEntity
  8
LAY-10
  6
CONTINUOUS
 62
     4
100
AcDbVertex
100
AcDb2dVertex
 10
1796.440185
 20
933.4639816666659
 30
0.0
  0
VERTEX
  5
5EE
330
5E4
100
AcDbEntity
  8
LAY-10
  6
CONTINUOUS
 62
     4
100
AcDbVertex
100
AcDb2dVertex
 10
1795.89972
 20
934.546748333333
 30
0.0
  0
VERTEX
  5
5EF
330
5E4
100
AcDbEntity
  8
LAY-10
  6
CONTINUOUS
 62
     4
100
AcDbVertex
100
AcDb2dVertex
 10
1795.401980000001
 20
935.6575899999993
 30
0.0
  0
VERTEX
  5
5F0
330
5E4
100
AcDbEntity
  8
LAY-10
  6
CONTINUOUS
 62
     4
100
AcDbVertex
100
AcDb2dVertex
 10
1794.98694
 20
936.6988399999994
 30
0.0
  0
VERTEX
  5
5F1
330
5E4
100
AcDbEntity
  8
LAY-10
  6
CONTINUOUS
 62
     4
100
AcDbVertex
100
AcDb2dVertex
 10
1794.615235
 20
937.7614566666665
 30
0.0
  0
VERTEX
  5
5F2
330
5E4
100
AcDbEntity
  8
LAY-10
  6
CONTINUOUS
 62
     4
100
AcDbVertex
100
AcDb2dVertex
 10
1794.312805000001
 20
938.7622483333331
 30
0.0
  0
VERTEX
  5
5F3
330
5E4
100
AcDbEntity
  8
LAY-10
  6
CONTINUOUS
 62
     4
100
AcDbVertex
100
AcDb2dVertex
 10
1794.0531
 20
939.7793066666659
 30
0.0
  0
VERTEX
  5
5F4
330
5E4
100
AcDbEntity
  8
LAY-10
  6
CONTINUOUS
 62
     4
100
AcDbVertex
100
AcDb2dVertex
 10
1793.851685
 20
940.7438566666665
 30
0.0
  0
VERTEX
  5
5F5
330
5E4
100
AcDbEntity
  8
LAY-10
  6
CONTINUOUS
 62
     4
100
AcDbVertex
100
AcDb2dVertex
 10
1793.692385000001
 20
941.7212399999992
 30
0.0
  0
VERTEX
  5
5F6
330
5E4
100
AcDbEntity
  8
LAY-10
  6
CONTINUOUS
 62
     4
100
AcDbVertex
100
AcDb2dVertex
 10
1793.655155
 20
942.0017816666661
 30
0.0
  0
VERTEX
  5
5F7
330
5E4
100
AcDbEntity
  8
LAY-10
  6
CONTINUOUS
 62
     4
100
AcDbVertex
100
AcDb2dVertex
 10
1793.498905
 20
943.8729233333323
 30
0.0
  0
VERTEX
  5
5F8
330
5E4
100
AcDbEntity
  8
LAY-10
  6
CONTINUOUS
 62
     4
100
AcDbVertex
100
AcDb2dVertex
 10
1793.494630000001
 20
945.8356149999995
 30
0.0
  0
VERTEX
  5
5F9
330
5E4
100
AcDbEntity
  8
LAY-10
  6
CONTINUOUS
 62
     4
100
AcDbVertex
100
AcDb2dVertex
 10
1793.648745
 20
947.8955483333334
 30
0.0
  0
VERTEX
  5
5FA
330
5E4
100
AcDbEntity
  8
LAY-10
  6
CONTINUOUS
 62
     4
100
AcDbVertex
100
AcDb2dVertex
 10
1793.96979
 20
950.0545733333327
 30
0.0
  0
VERTEX
  5
5FB
330
5E4
100
AcDbEntity
  8
LAY-10
  6
CONTINUOUS
 62
     4
100
AcDbVertex
100
AcDb2dVertex
 10
1794.46814
 20
952.3075649999993
 30
0.0
  0
VERTEX
  5
5FC
330
5E4
100
AcDbEntity
  8
LAY-10
  6
CONTINUOUS
 62
     4
100
AcDbVertex
100
AcDb2dVertex
 10
1795.153565
 20
954.6411483333327
 30
0.0
  0
VERTEX
  5
5FD
330
5E4
100
AcDbEntity
  8
LAY-10
  6
CONTINUOUS
 62
     4
100
AcDbVertex
100
AcDb2dVertex
 10
1796.032165000001
 20
957.0300650000001
 30
0.0
  0
VERTEX
  5
5FE
330
5E4
100
AcDbEntity
  8
LAY-10
  6
CONTINUOUS
 62
     4
100
AcDbVertex
100
AcDb2dVertex
 10
1797.103639999999
 20
959.4374899999993
 30
0.0
  0
VERTEX
  5
5FF
330
5E4
100
AcDbEntity
  8
LAY-10
  6
CONTINUOUS
 62
     4
100
AcDbVertex
100
AcDb2dVertex
 10
1798.358520000001
 20
961.8127733333328
 30
0.0
  0
VERTEX
  5
600
330
5E4
100
AcDbEntity
  8
LAY-10
  6
CONTINUOUS
 62
     4
100
AcDbVertex
100
AcDb2dVertex
 10
1799.775149999999
 20
964.0944733333331
 30
0.0
  0
VERTEX
  5
601
330
5E4
100
AcDbEntity
  8
LAY-10
  6
CONTINUOUS
 62
     4
100
AcDbVertex
100
AcDb2dVertex
 10
1801.320865000001
 20
966.2150316666663
 30
0.0
  0
VERTEX
  5
602
330
5E4
100
AcDbEntity
  8
LAY-10
  6
CONTINUOUS
 62
     4
100
AcDbVertex
100
AcDb2dVertex
 10
1802.127135
 20
967.1926150000004
 30
0.0
  0
VERTEX
  5
603
330
5E4
100
AcDbEntity
  8
LAY-10
  6
CONTINUOUS
 62
     4
100
AcDbVertex
100
AcDb2dVertex
 10
1802.95111
 20
968.108365
 30
0.0
  0
VERTEX
  5
604
330
5E4
100
AcDbEntity
  8
LAY-10
  6
CONTINUOUS
 62
     4
100
AcDbVertex
100
AcDb2dVertex
 10
1803.77875
 20
968.9480066666671
 30
0.0
  0
VERTEX
  5
605
330
5E4
100
AcDbEntity
  8
LAY-10
  6
CONTINUOUS
 62
     4
100
AcDbVertex
100
AcDb2dVertex
 10
1804.61676
 20
969.7190816666663
 30
0.0
  0
VERTEX
  5
606
330
5E4
100
AcDbEntity
  8
LAY-10
  6
CONTINUOUS
 62
     4
100
AcDbVertex
100
AcDb2dVertex
 10
1804.952339491044
 20
970.0000399999999
 30
0.0
  0
SEQEND
  5
607
330
5E4
100
AcDbEntity
  8
LAY-10
  6
CONTINUOUS
 62
     4
  0
POLYLINE
  5
608
330
1F
100
AcDbEntity
  8
LAY-10
  6
CONTINUOUS
 62
     4
100
AcDb2dPolyline
 66
     1
 10
0.0
 20
0.0
 30
0.0
 70
   128
  0
VERTEX
  5
609
330
608
100
AcDbEntity
  8
LAY-10
  6
CONTINUOUS
 62
     4
100
AcDbVertex
100
AcDb2dVertex
 10
1822.593491955442
 20
970.0000399999999
 30
0.0
  0
VERTEX
  5
60A
330
608
100
AcDbEntity
  8
LAY-10
  6
CONTINUOUS
 62
     4
100
AcDbVertex
100
AcDb2dVertex
 10
1822.76831
 20
969.8812066666671
 30
0.0
  0
VERTEX
  5
60B
330
608
100
AcDbEntity
  8
LAY-10
  6
CONTINUOUS
 62
     4
100
AcDbVertex
100
AcDb2dVertex
 10
1824.67871
 20
968.2953149999998
 30
0.0
  0
VERTEX
  5
60C
330
608
100
AcDbEntity
  8
LAY-10
  6
CONTINUOUS
 62
     4
100
AcDbVertex
100
AcDb2dVertex
 10
1826.611695000001
 20
966.3928566666664
 30
0.0
  0
VERTEX
  5
60D
330
608
100
AcDbEntity
  8
LAY-10
  6
CONTINUOUS
 62
     4
100
AcDbVertex
100
AcDb2dVertex
 10
1828.446715
 20
964.304031666667
 30
0.0
  0
VERTEX
  5
60E
330
608
100
AcDbEntity
  8
LAY-10
  6
CONTINUOUS
 62
     4
100
AcDbVertex
100
AcDb2dVertex
 10
1829.429385
 20
963.068065
 30
0.0
  0
VERTEX
  5
60F
330
608
100
AcDbEntity
  8
LAY-10
  6
CONTINUOUS
 62
     4
100
AcDbVertex
100
AcDb2dVertex
 10
1830.390685
 20
961.7696399999994
 30
0.0
  0
VERTEX
  5
610
330
608
100
AcDbEntity
  8
LAY-10
  6
CONTINUOUS
 62
     4
100
AcDbVertex
100
AcDb2dVertex
 10
1831.261965
 20
960.5043983333335
 30
0.0
  0
VERTEX
  5
611
330
608
100
AcDbEntity
  8
LAY-10
  6
CONTINUOUS
 62
     4
100
AcDbVertex
100
AcDb2dVertex
 10
1832.096315
 20
959.1976399999995
 30
0.0
  0
VERTEX
  5
612
330
608
100
AcDbEntity
  8
LAY-10
  6
CONTINUOUS
 62
     4
100
AcDbVertex
100
AcDb2dVertex
 10
1832.825684999999
 20
957.9606650000001
 30
0.0
  0
VERTEX
  5
613
330
608
100
AcDbEntity
  8
LAY-10
  6
CONTINUOUS
 62
     4
100
AcDbVertex
100
AcDb2dVertex
 10
1833.509585000001
 20
956.6982483333328
 30
0.0
  0
VERTEX
  5
614
330
608
100
AcDbEntity
  8
LAY-10
  6
CONTINUOUS
 62
     4
100
AcDbVertex
100
AcDb2dVertex
 10
1834.09003
 20
955.5243399999997
 30
0.0
  0
VERTEX
  5
615
330
608
100
AcDbEntity
  8
LAY-10
  6
CONTINUOUS
 62
     4
100
AcDbVertex
100
AcDb2dVertex
 10
1834.621035000001
 20
954.3369899999999
 30
0.0
  0
VERTEX
  5
616
330
608
100
AcDbEntity
  8
LAY-10
  6
CONTINUOUS
 62
     4
100
AcDbVertex
100
AcDb2dVertex
 10
1835.05896
 20
953.243248333333
 30
0.0
  0
VERTEX
  5
617
330
608
100
AcDbEntity
  8
LAY-10
  6
CONTINUOUS
 62
     4
100
AcDbVertex
100
AcDb2dVertex
 10
1835.447145
 20
952.1440150000001
 30
0.0
  0
VERTEX
  5
618
330
608
100
AcDbEntity
  8
LAY-10
  6
CONTINUOUS
 62
     4
100
AcDbVertex
100
AcDb2dVertex
 10
1835.755985
 20
951.1348983333327
 30
0.0
  0
VERTEX
  5
619
330
608
100
AcDbEntity
  8
LAY-10
  6
CONTINUOUS
 62
     4
100
AcDbVertex
100
AcDb2dVertex
 10
1836.016605
 20
950.1259733333334
 30
0.0
  0
VERTEX
  5
61A
330
608
100
AcDbEntity
  8
LAY-10
  6
CONTINUOUS
 62
     4
100
AcDbVertex
100
AcDb2dVertex
 10
1836.211305000001
 20
949.1986566666659
 30
0.0
  0
VERTEX
  5
61B
330
608
100
AcDbEntity
  8
LAY-10
  6
CONTINUOUS
 62
     4
100
AcDbVertex
100
AcDb2dVertex
 10
1836.359925000001
 20
948.2749899999999
 30
0.0
  0
VERTEX
  5
61C
330
608
100
AcDbEntity
  8
LAY-10
  6
CONTINUOUS
 62
     4
100
AcDbVertex
100
AcDb2dVertex
 10
1836.45514
 20
947.4215149999992
 30
0.0
  0
VERTEX
  5
61D
330
608
100
AcDbEntity
  8
LAY-10
  6
CONTINUOUS
 62
     4
100
AcDbVertex
100
AcDb2dVertex
 10
1836.506410000001
 20
946.5741399999996
 30
0.0
  0
VERTEX
  5
61E
330
608
100
AcDbEntity
  8
LAY-10
  6
CONTINUOUS
 62
     4
100
AcDbVertex
100
AcDb2dVertex
 10
1836.512819999999
 20
945.7835149999994
 30
0.0
  0
VERTEX
  5
61F
330
608
100
AcDbEntity
  8
LAY-10
  6
CONTINUOUS
 62
     4
100
AcDbVertex
100
AcDb2dVertex
 10
1836.47742
 20
945.0008649999992
 30
0.0
  0
VERTEX
  5
620
330
608
100
AcDbEntity
  8
LAY-10
  6
CONTINUOUS
 62
     4
100
AcDbVertex
100
AcDb2dVertex
 10
1836.475585
 20
944.9754316666665
 30
0.0
  0
VERTEX
  5
621
330
608
100
AcDbEntity
  8
LAY-10
  6
CONTINUOUS
 62
     4
100
AcDbVertex
100
AcDb2dVertex
 10
1836.28638
 20
943.5067149999999
 30
0.0
  0
VERTEX
  5
622
330
608
100
AcDbEntity
  8
LAY-10
  6
CONTINUOUS
 62
     4
100
AcDbVertex
100
AcDb2dVertex
 10
1835.931460000001
 20
942.0088983333329
 30
0.0
  0
VERTEX
  5
623
330
608
100
AcDbEntity
  8
LAY-10
  6
CONTINUOUS
 62
     4
100
AcDbVertex
100
AcDb2dVertex
 10
1835.395875000001
 20
940.4675733333324
 30
0.0
  0
VERTEX
  5
624
330
608
100
AcDbEntity
  8
LAY-10
  6
CONTINUOUS
 62
     4
100
AcDbVertex
100
AcDb2dVertex
 10
1834.658570000001
 20
938.8739483333325
 30
0.0
  0
VERTEX
  5
625
330
608
100
AcDbEntity
  8
LAY-10
  6
CONTINUOUS
 62
     4
100
AcDbVertex
100
AcDb2dVertex
 10
1833.696655
 20
937.2253649999993
 30
0.0
  0
VERTEX
  5
626
330
608
100
AcDbEntity
  8
LAY-10
  6
CONTINUOUS
 62
     4
100
AcDbVertex
100
AcDb2dVertex
 10
1832.486330000001
 20
935.5273816666661
 30
0.0
  0
VERTEX
  5
627
330
608
100
AcDbEntity
  8
LAY-10
  6
CONTINUOUS
 62
     4
100
AcDbVertex
100
AcDb2dVertex
 10
1831.00867
 20
933.795414999999
 30
0.0
  0
VERTEX
  5
628
330
608
100
AcDbEntity
  8
LAY-10
  6
CONTINUOUS
 62
     4
100
AcDbVertex
100
AcDb2dVertex
 10
1829.257875
 20
932.0587399999991
 30
0.0
  0
VERTEX
  5
629
330
608
100
AcDbEntity
  8
LAY-10
  6
CONTINUOUS
 62
     4
100
AcDbVertex
100
AcDb2dVertex
 10
1827.250125
 20
930.3652399999993
 30
0.0
  0
VERTEX
  5
62A
330
608
100
AcDbEntity
  8
LAY-10
  6
CONTINUOUS
 62
     4
100
AcDbVertex
100
AcDb2dVertex
 10
1825.04248
 20
928.7862399999991
 30
0.0
  0
VERTEX
  5
62B
330
608
100
AcDbEntity
  8
LAY-10
  6
CONTINUOUS
 62
     4
100
AcDbVertex
100
AcDb2dVertex
 10
1822.753664999999
 20
927.4214983333326
 30
0.0
  0
SEQEND
  5
62C
330
608
100
AcDbEntity
  8
LAY-10
  6
CONTINUOUS
 62
     4
  0
POLYLINE
  5
62D
330
1F
100
AcDbEntity
  8
LAY-10
  6
CONTINUOUS
 62
     4
100
AcDb2dPolyline
 66
     1
 10
0.0
 20
0.0
 30
0.0
 70
   128
  0
VERTEX
  5
62E
330
62D
100
AcDbEntity
  8
LAY-10
  6
CONTINUOUS
 62
     4
100
AcDbVertex
100
AcDb2dVertex
 10
1963.468385
 20
924.1599983333322
 30
0.0
  0
VERTEX
  5
62F
330
62D
100
AcDbEntity
  8
LAY-10
  6
CONTINUOUS
 62
     4
100
AcDbVertex
100
AcDb2dVertex
 10
1962.38135
 20
925.2677816666662
 30
0.0
  0
VERTEX
  5
630
330
62D
100
AcDbEntity
  8
LAY-10
  6
CONTINUOUS
 62
     4
100
AcDbVertex
100
AcDb2dVertex
 10
1961.286685
 20
926.4722149999989
 30
0.0
  0
VERTEX
  5
631
330
62D
100
AcDbEntity
  8
LAY-10
  6
CONTINUOUS
 62
     4
100
AcDbVertex
100
AcDb2dVertex
 10
1960.31897
 20
927.6221233333328
 30
0.0
  0
VERTEX
  5
632
330
62D
100
AcDbEntity
  8
LAY-10
  6
CONTINUOUS
 62
     4
100
AcDbVertex
100
AcDb2dVertex
 10
1959.369875
 20
928.8413899999991
 30
0.0
  0
VERTEX
  5
633
330
62D
100
AcDbEntity
  8
LAY-10
  6
CONTINUOUS
 62
     4
100
AcDbVertex
100
AcDb2dVertex
 10
1958.546205000001
 20
929.9886316666655
 30
0.0
  0
VERTEX
  5
634
330
62D
100
AcDbEntity
  8
LAY-10
  6
CONTINUOUS
 62
     4
100
AcDbVertex
100
AcDb2dVertex
 10
1957.755495
 20
931.1861649999994
 30
0.0
  0
VERTEX
  5
635
330
62D
100
AcDbEntity
  8
LAY-10
  6
CONTINUOUS
 62
     4
100
AcDbVertex
100
AcDb2dVertex
 10
1957.078005
 20
932.3067566666658
 30
0.0
  0
VERTEX
  5
636
330
62D
100
AcDbEntity
  8
LAY-10
  6
CONTINUOUS
 62
     4
100
AcDbVertex
100
AcDb2dVertex
 10
1956.439879999999
 20
933.4643899999992
 30
0.0
  0
VERTEX
  5
637
330
62D
100
AcDbEntity
  8
LAY-10
  6
CONTINUOUS
 62
     4
100
AcDbVertex
100
AcDb2dVertex
 10
1955.89972
 20
934.5473566666658
 30
0.0
  0
VERTEX
  5
638
330
62D
100
AcDbEntity
  8
LAY-10
  6
CONTINUOUS
 62
     4
100
AcDbVertex
100
AcDb2dVertex
 10
1955.401980000001
 20
935.658006666666
 30
0.0
  0
VERTEX
  5
639
330
62D
100
AcDbEntity
  8
LAY-10
  6
CONTINUOUS
 62
     4
100
AcDbVertex
100
AcDb2dVertex
 10
1954.98694
 20
936.6992566666661
 30
0.0
  0
VERTEX
  5
63A
330
62D
100
AcDbEntity
  8
LAY-10
  6
CONTINUOUS
 62
     4
100
AcDbVertex
100
AcDb2dVertex
 10
1954.615235
 20
937.7618733333329
 30
0.0
  0
VERTEX
  5
63B
330
62D
100
AcDbEntity
  8
LAY-10
  6
CONTINUOUS
 62
     4
100
AcDbVertex
100
AcDb2dVertex
 10
1954.312805000001
 20
938.7626566666662
 30
0.0
  0
VERTEX
  5
63C
330
62D
100
AcDbEntity
  8
LAY-10
  6
CONTINUOUS
 62
     4
100
AcDbVertex
100
AcDb2dVertex
 10
1954.0531
 20
939.7799149999997
 30
0.0
  0
VERTEX
  5
63D
330
62D
100
AcDbEntity
  8
LAY-10
  6
CONTINUOUS
 62
     4
100
AcDbVertex
100
AcDb2dVertex
 10
1953.851685
 20
940.7442649999997
 30
0.0
  0
VERTEX
  5
63E
330
62D
100
AcDbEntity
  8
LAY-10
  6
CONTINUOUS
 62
     4
100
AcDbVertex
100
AcDb2dVertex
 10
1953.692385000001
 20
941.7218483333329
 30
0.0
  0
VERTEX
  5
63F
330
62D
100
AcDbEntity
  8
LAY-10
  6
CONTINUOUS
 62
     4
100
AcDbVertex
100
AcDb2dVertex
 10
1953.655155
 20
942.0017816666661
 30
0.0
  0
VERTEX
  5
640
330
62D
100
AcDbEntity
  8
LAY-10
  6
CONTINUOUS
 62
     4
100
AcDbVertex
100
AcDb2dVertex
 10
1953.49921
 20
943.8719066666664
 30
0.0
  0
VERTEX
  5
641
330
62D
100
AcDbEntity
  8
LAY-10
  6
CONTINUOUS
 62
     4
100
AcDbVertex
100
AcDb2dVertex
 10
1953.49463
 20
945.8345983333326
 30
0.0
  0
VERTEX
  5
642
330
62D
100
AcDbEntity
  8
LAY-10
  6
CONTINUOUS
 62
     4
100
AcDbVertex
100
AcDb2dVertex
 10
1953.648440000001
 20
947.8947233333326
 30
0.0
  0
VERTEX
  5
643
330
62D
100
AcDbEntity
  8
LAY-10
  6
CONTINUOUS
 62
     4
100
AcDbVertex
100
AcDb2dVertex
 10
1953.969485000001
 20
950.0535566666667
 30
0.0
  0
VERTEX
  5
644
330
62D
100
AcDbEntity
  8
LAY-10
  6
CONTINUOUS
 62
     4
100
AcDbVertex
100
AcDb2dVertex
 10
1954.46814
 20
952.3065483333332
 30
0.0
  0
VERTEX
  5
645
330
62D
100
AcDbEntity
  8
LAY-10
  6
CONTINUOUS
 62
     4
100
AcDbVertex
100
AcDb2dVertex
 10
1955.153565
 20
954.6399399999996
 30
0.0
  0
VERTEX
  5
646
330
62D
100
AcDbEntity
  8
LAY-10
  6
CONTINUOUS
 62
     4
100
AcDbVertex
100
AcDb2dVertex
 10
1956.03186
 20
957.0290483333332
 30
0.0
  0
VERTEX
  5
647
330
62D
100
AcDbEntity
  8
LAY-10
  6
CONTINUOUS
 62
     4
100
AcDbVertex
100
AcDb2dVertex
 10
1957.10303
 20
959.4362816666662
 30
0.0
  0
VERTEX
  5
648
330
62D
100
AcDbEntity
  8
LAY-10
  6
CONTINUOUS
 62
     4
100
AcDbVertex
100
AcDb2dVertex
 10
1958.35791
 20
961.8117566666667
 30
0.0
  0
VERTEX
  5
649
330
62D
100
AcDbEntity
  8
LAY-10
  6
CONTINUOUS
 62
     4
100
AcDbVertex
100
AcDb2dVertex
 10
1959.774535
 20
964.0934566666662
 30
0.0
  0
VERTEX
  5
64A
330
62D
100
AcDbEntity
  8
LAY-10
  6
CONTINUOUS
 62
     4
100
AcDbVertex
100
AcDb2dVertex
 10
1961.319944999999
 20
966.2140150000005
 30
0.0
  0
VERTEX
  5
64B
330
62D
100
AcDbEntity
  8
LAY-10
  6
CONTINUOUS
 62
     4
100
AcDbVertex
100
AcDb2dVertex
 10
1962.126525
 20
967.1918149999996
 30
0.0
  0
VERTEX
  5
64C
330
62D
100
AcDbEntity
  8
LAY-10
  6
CONTINUOUS
 62
     4
100
AcDbVertex
100
AcDb2dVertex
 10
1962.950500000001
 20
968.107531666667
 30
0.0
  0
VERTEX
  5
64D
330
62D
100
AcDbEntity
  8
LAY-10
  6
CONTINUOUS
 62
     4
100
AcDbVertex
100
AcDb2dVertex
 10
1963.778140000001
 20
968.9473733333335
 30
0.0
  0
VERTEX
  5
64E
330
62D
100
AcDbEntity
  8
LAY-10
  6
CONTINUOUS
 62
     4
100
AcDbVertex
100
AcDb2dVertex
 10
1964.616150000001
 20
969.7184483333336
 30
0.0
  0
VERTEX
  5
64F
330
62D
100
AcDbEntity
  8
LAY-10
  6
CONTINUOUS
 62
     4
100
AcDbVertex
100
AcDb2dVertex
 10
1964.952408552203
 20
970.0000399999999
 30
0.0
  0
SEQEND
  5
650
330
62D
100
AcDbEntity
  8
LAY-10
  6
CONTINUOUS
 62
     4
  0
POLYLINE
  5
651
330
1F
100
AcDbEntity
  8
LAY-10
  6
CONTINUOUS
 62
     4
100
AcDb2dPolyline
 66
     1
 10
0.0
 20
0.0
 30
0.0
 70
   128
  0
VERTEX
  5
652
330
651
100
AcDbEntity
  8
LAY-10
  6
CONTINUOUS
 62
     4
100
AcDbVertex
100
AcDb2dVertex
 10
1982.593764010225
 20
970.0000399999999
 30
0.0
  0
VERTEX
  5
653
330
651
100
AcDbEntity
  8
LAY-10
  6
CONTINUOUS
 62
     4
100
AcDbVertex
100
AcDb2dVertex
 10
1982.76831
 20
969.8814316666666
 30
0.0
  0
VERTEX
  5
654
330
651
100
AcDbEntity
  8
LAY-10
  6
CONTINUOUS
 62
     4
100
AcDbVertex
100
AcDb2dVertex
 10
1984.67871
 20
968.2955400000003
 30
0.0
  0
VERTEX
  5
655
330
651
100
AcDbEntity
  8
LAY-10
  6
CONTINUOUS
 62
     4
100
AcDbVertex
100
AcDb2dVertex
 10
1986.611695000001
 20
966.3930483333337
 30
0.0
  0
VERTEX
  5
656
330
651
100
AcDbEntity
  8
LAY-10
  6
CONTINUOUS
 62
     4
100
AcDbVertex
100
AcDb2dVertex
 10
1988.446715
 20
964.304031666667
 30
0.0
  0
VERTEX
  5
657
330
651
100
AcDbEntity
  8
LAY-10
  6
CONTINUOUS
 62
     4
100
AcDbVertex
100
AcDb2dVertex
 10
1989.42908
 20
963.0682899999995
 30
0.0
  0
VERTEX
  5
658
330
651
100
AcDbEntity
  8
LAY-10
  6
CONTINUOUS
 62
     4
100
AcDbVertex
100
AcDb2dVertex
 10
1990.39038
 20
961.7700483333335
 30
0.0
  0
VERTEX
  5
659
330
651
100
AcDbEntity
  8
LAY-10
  6
CONTINUOUS
 62
     4
100
AcDbVertex
100
AcDb2dVertex
 10
1991.261355000001
 20
960.5049983333329
 30
0.0
  0
VERTEX
  5
65A
330
651
100
AcDbEntity
  8
LAY-10
  6
CONTINUOUS
 62
     4
100
AcDbVertex
100
AcDb2dVertex
 10
1992.096009999999
 20
959.1980233333329
 30
0.0
  0
VERTEX
  5
65B
330
651
100
AcDbEntity
  8
LAY-10
  6
CONTINUOUS
 62
     4
100
AcDbVertex
100
AcDb2dVertex
 10
1992.825684999999
 20
957.9610483333335
 30
0.0
  0
VERTEX
  5
65C
330
651
100
AcDbEntity
  8
LAY-10
  6
CONTINUOUS
 62
     4
100
AcDbVertex
100
AcDb2dVertex
 10
1993.50928
 20
956.698631666666
 30
0.0
  0
VERTEX
  5
65D
330
651
100
AcDbEntity
  8
LAY-10
  6
CONTINUOUS
 62
     4
100
AcDbVertex
100
AcDb2dVertex
 10
1994.089725
 20
955.524723333333
 30
0.0
  0
VERTEX
  5
65E
330
651
100
AcDbEntity
  8
LAY-10
  6
CONTINUOUS
 62
     4
100
AcDbVertex
100
AcDb2dVertex
 10
1994.621035
 20
954.3373983333331
 30
0.0
  0
VERTEX
  5
65F
330
651
100
AcDbEntity
  8
LAY-10
  6
CONTINUOUS
 62
     4
100
AcDbVertex
100
AcDb2dVertex
 10
1995.05896
 20
953.2436649999995
 30
0.0
  0
VERTEX
  5
660
330
651
100
AcDbEntity
  8
LAY-10
  6
CONTINUOUS
 62
     4
100
AcDbVertex
100
AcDb2dVertex
 10
1995.447145
 20
952.14439
 30
0.0
  0
VERTEX
  5
661
330
651
100
AcDbEntity
  8
LAY-10
  6
CONTINUOUS
 62
     4
100
AcDbVertex
100
AcDb2dVertex
 10
1995.755985
 20
951.135281666666
 30
0.0
  0
VERTEX
  5
662
330
651
100
AcDbEntity
  8
LAY-10
  6
CONTINUOUS
 62
     4
100
AcDbVertex
100
AcDb2dVertex
 10
1996.0163
 20
950.1263899999999
 30
0.0
  0
VERTEX
  5
663
330
651
100
AcDbEntity
  8
LAY-10
  6
CONTINUOUS
 62
     4
100
AcDbVertex
100
AcDb2dVertex
 10
1996.211305000001
 20
949.1990649999992
 30
0.0
  0
VERTEX
  5
664
330
651
100
AcDbEntity
  8
LAY-10
  6
CONTINUOUS
 62
     4
100
AcDbVertex
100
AcDb2dVertex
 10
1996.359925000001
 20
948.275398333333
 30
0.0
  0
VERTEX
  5
665
330
651
100
AcDbEntity
  8
LAY-10
  6
CONTINUOUS
 62
     4
100
AcDbVertex
100
AcDb2dVertex
 10
1996.45514
 20
947.4217066666665
 30
0.0
  0
VERTEX
  5
666
330
651
100
AcDbEntity
  8
LAY-10
  6
CONTINUOUS
 62
     4
100
AcDbVertex
100
AcDb2dVertex
 10
1996.506410000001
 20
946.5743316666666
 30
0.0
  0
VERTEX
  5
667
330
651
100
AcDbEntity
  8
LAY-10
  6
CONTINUOUS
 62
     4
100
AcDbVertex
100
AcDb2dVertex
 10
1996.512819999999
 20
945.7839233333326
 30
0.0
  0
VERTEX
  5
668
330
651
100
AcDbEntity
  8
LAY-10
  6
CONTINUOUS
 62
     4
100
AcDbVertex
100
AcDb2dVertex
 10
1996.47742
 20
945.0012483333325
 30
0.0
  0
VERTEX
  5
669
330
651
100
AcDbEntity
  8
LAY-10
  6
CONTINUOUS
 62
     4
100
AcDbVertex
100
AcDb2dVertex
 10
1996.475585
 20
944.9754316666665
 30
0.0
  0
VERTEX
  5
66A
330
651
100
AcDbEntity
  8
LAY-10
  6
CONTINUOUS
 62
     4
100
AcDbVertex
100
AcDb2dVertex
 10
1996.28638
 20
943.5067149999999
 30
0.0
  0
VERTEX
  5
66B
330
651
100
AcDbEntity
  8
LAY-10
  6
CONTINUOUS
 62
     4
100
AcDbVertex
100
AcDb2dVertex
 10
1995.931460000001
 20
942.0088983333329
 30
0.0
  0
VERTEX
  5
66C
330
651
100
AcDbEntity
  8
LAY-10
  6
CONTINUOUS
 62
     4
100
AcDbVertex
100
AcDb2dVertex
 10
1995.395875000001
 20
940.4675733333324
 30
0.0
  0
VERTEX
  5
66D
330
651
100
AcDbEntity
  8
LAY-10
  6
CONTINUOUS
 62
     4
100
AcDbVertex
100
AcDb2dVertex
 10
1994.658570000001
 20
938.8739483333325
 30
0.0
  0
VERTEX
  5
66E
330
651
100
AcDbEntity
  8
LAY-10
  6
CONTINUOUS
 62
     4
100
AcDbVertex
100
AcDb2dVertex
 10
1993.696655
 20
937.2253649999993
 30
0.0
  0
VERTEX
  5
66F
330
651
100
AcDbEntity
  8
LAY-10
  6
CONTINUOUS
 62
     4
100
AcDbVertex
100
AcDb2dVertex
 10
1992.486330000001
 20
935.5273816666661
 30
0.0
  0
VERTEX
  5
670
330
651
100
AcDbEntity
  8
LAY-10
  6
CONTINUOUS
 62
     4
100
AcDbVertex
100
AcDb2dVertex
 10
1991.00867
 20
933.795414999999
 30
0.0
  0
VERTEX
  5
671
330
651
100
AcDbEntity
  8
LAY-10
  6
CONTINUOUS
 62
     4
100
AcDbVertex
100
AcDb2dVertex
 10
1989.257875
 20
932.0587399999991
 30
0.0
  0
VERTEX
  5
672
330
651
100
AcDbEntity
  8
LAY-10
  6
CONTINUOUS
 62
     4
100
AcDbVertex
100
AcDb2dVertex
 10
1987.250125
 20
930.3652399999993
 30
0.0
  0
VERTEX
  5
673
330
651
100
AcDbEntity
  8
LAY-10
  6
CONTINUOUS
 62
     4
100
AcDbVertex
100
AcDb2dVertex
 10
1985.358553759734
 20
929.0123091671978
 30
0.0
  0
SEQEND
  5
674
330
651
100
AcDbEntity
  8
LAY-10
  6
CONTINUOUS
 62
     4
  0
ARC
  5
675
330
1F
100
AcDbEntity
  8
LAY-10
  6
CONTINUOUS
 62
     7
100
AcDbCircle
 10
1882.150025
 20
2047.66666
 30
0.0
 40
148.3333400000001
100
AcDbArc
 50
64.99907900000004
 51
115.0009199999999
  0
LINE
  5
676
330
1F
100
AcDbEntity
  8
LAY-10
  6
CONTINUOUS
 62
     7
100
AcDbLine
 10
1817.58734
 20
2181.000019999999
 30
0.0
 11
1946.253115
 21
2181.000019999999
 31
0.0
  0
LINE
  5
677
330
1F
100
AcDbEntity
  8
LAY-10
  6
CONTINUOUS
 62
     7
100
AcDbLine
 10
1817.14972
 20
2178.476065
 30
0.0
 11
1817.14972
 21
2151.803854999999
 31
0.0
  0
LINE
  5
678
330
1F
100
AcDbEntity
  8
LAY-10
  6
CONTINUOUS
 62
     7
100
AcDbLine
 10
1947.150025
 20
2178.476065
 30
0.0
 11
1947.150025
 21
2151.803854999999
 31
0.0
  0
LINE
  5
679
330
1F
100
AcDbEntity
  8
LAY-10
  6
CONTINUOUS
 62
     7
100
AcDbLine
 10
1820.149905
 20
2131.00002
 30
0.0
 11
1944.14984
 21
2131.00002
 31
0.0
  0
LINE
  5
67A
330
1F
100
AcDbEntity
  8
LAY-10
  6
CONTINUOUS
 62
     7
100
AcDbLine
 10
1820.149905
 20
2151.000019999999
 30
0.0
 11
1820.149905
 21
2131.00002
 31
0.0
  0
LINE
  5
67B
330
1F
100
AcDbEntity
  8
LAY-10
  6
CONTINUOUS
 62
     7
100
AcDbLine
 10
1817.14972
 20
2130.196185
 30
0.0
 11
1820.149905
 21
2131.00002
 31
0.0
  0
LINE
  5
67C
330
1F
100
AcDbEntity
  8
LAY-10
  6
CONTINUOUS
 62
     7
100
AcDbLine
 10
1817.14972
 20
2151.803854999999
 30
0.0
 11
1820.149905
 21
2151.000019999999
 31
0.0
  0
ARC
  5
67D
330
1F
100
AcDbEntity
  8
LAY-10
  6
CONTINUOUS
 62
     7
100
AcDbCircle
 10
1821.149965
 20
2178.476065
 30
0.0
 40
4.0
100
AcDbArc
 50
115.0009199999999
 51
180.000005
  0
ARC
  5
67E
330
1F
100
AcDbEntity
  8
LAY-10
  6
CONTINUOUS
 62
     7
100
AcDbCircle
 10
1943.14978
 20
2178.476065
 30
0.0
 40
4.0
100
AcDbArc
 50
0.0
 51
64.99907900000004
  0
LINE
  5
67F
330
1F
100
AcDbEntity
  8
LAY-10
  6
CONTINUOUS
 62
     7
100
AcDbLine
 10
1944.14984
 20
2151.000019999999
 30
0.0
 11
1947.150025
 21
2151.803854999999
 31
0.0
  0
LINE
  5
680
330
1F
100
AcDbEntity
  8
LAY-10
  6
CONTINUOUS
 62
     7
100
AcDbLine
 10
1944.14984
 20
2151.000019999999
 30
0.0
 11
1944.14984
 21
2131.00002
 31
0.0
  0
LINE
  5
681
330
1F
100
AcDbEntity
  8
LAY-10
  6
CONTINUOUS
 62
     7
100
AcDbLine
 10
1944.14984
 20
2131.00002
 30
0.0
 11
1947.150025
 21
2130.196185
 31
0.0
  0
LINE
  5
682
330
1F
100
AcDbEntity
  8
LAY-10
  6
CONTINUOUS
 62
     7
100
AcDbLine
 10
1944.14984
 20
2133.974265
 30
0.0
 11
1927.124084999999
 21
2151.000019999999
 31
0.0
  0
LINE
  5
683
330
1F
100
AcDbEntity
  8
LAY-10
  6
CONTINUOUS
 62
     7
100
AcDbLine
 10
1927.480835
 20
2131.00002
 30
0.0
 11
1944.14984
 21
2147.668875
 31
0.0
  0
LINE
  5
684
330
1F
100
AcDbEntity
  8
LAY-10
  6
CONTINUOUS
 62
     7
100
AcDbLine
 10
1937.124085
 20
2131.00002
 30
0.0
 11
1917.124085
 21
2151.000019999999
 31
0.0
  0
LINE
  5
685
330
1F
100
AcDbEntity
  8
LAY-10
  6
CONTINUOUS
 62
     7
100
AcDbLine
 10
1917.480835
 20
2131.00002
 30
0.0
 11
1937.480835
 21
2151.000019999999
 31
0.0
  0
LINE
  5
686
330
1F
100
AcDbEntity
  8
LAY-10
  6
CONTINUOUS
 62
     7
100
AcDbLine
 10
1927.124084999999
 20
2131.00002
 30
0.0
 11
1907.124084999999
 21
2151.000019999999
 31
0.0
  0
LINE
  5
687
330
1F
100
AcDbEntity
  8
LAY-10
  6
CONTINUOUS
 62
     7
100
AcDbLine
 10
1907.480835
 20
2131.00002
 30
0.0
 11
1927.480835
 21
2151.000019999999
 31
0.0
  0
LINE
  5
688
330
1F
100
AcDbEntity
  8
LAY-10
  6
CONTINUOUS
 62
     7
100
AcDbLine
 10
1944.14984
 20
2143.974265
 30
0.0
 11
1937.124085
 21
2151.000019999999
 31
0.0
  0
LINE
  5
689
330
1F
100
AcDbEntity
  8
LAY-10
  6
CONTINUOUS
 62
     7
100
AcDbLine
 10
1937.480835
 20
2131.00002
 30
0.0
 11
1944.14984
 21
2137.668875
 31
0.0
  0
LINE
  5
68A
330
1F
100
AcDbEntity
  8
LAY-10
  6
CONTINUOUS
 62
     7
100
AcDbLine
 10
1897.480835
 20
2131.00002
 30
0.0
 11
1917.480835
 21
2151.000019999999
 31
0.0
  0
LINE
  5
68B
330
1F
100
AcDbEntity
  8
LAY-10
  6
CONTINUOUS
 62
     7
100
AcDbLine
 10
1917.124085
 20
2131.00002
 30
0.0
 11
1897.124085
 21
2151.000019999999
 31
0.0
  0
LINE
  5
68C
330
1F
100
AcDbEntity
  8
LAY-10
  6
CONTINUOUS
 62
     7
100
AcDbLine
 10
1887.480835
 20
2131.00002
 30
0.0
 11
1907.480835
 21
2151.000019999999
 31
0.0
  0
LINE
  5
68D
330
1F
100
AcDbEntity
  8
LAY-10
  6
CONTINUOUS
 62
     7
100
AcDbLine
 10
1907.124084999999
 20
2131.00002
 30
0.0
 11
1887.124084999999
 21
2151.000019999999
 31
0.0
  0
LINE
  5
68E
330
1F
100
AcDbEntity
  8
LAY-10
  6
CONTINUOUS
 62
     7
100
AcDbLine
 10
1877.480835
 20
2131.00002
 30
0.0
 11
1897.480835
 21
2151.000019999999
 31
0.0
  0
LINE
  5
68F
330
1F
100
AcDbEntity
  8
LAY-10
  6
CONTINUOUS
 62
     7
100
AcDbLine
 10
1867.480835
 20
2131.00002
 30
0.0
 11
1887.480835
 21
2151.000019999999
 31
0.0
  0
LINE
  5
690
330
1F
100
AcDbEntity
  8
LAY-10
  6
CONTINUOUS
 62
     7
100
AcDbLine
 10
1897.124085
 20
2131.00002
 30
0.0
 11
1877.124085
 21
2151.000019999999
 31
0.0
  0
LINE
  5
691
330
1F
100
AcDbEntity
  8
LAY-10
  6
CONTINUOUS
 62
     7
100
AcDbLine
 10
1887.124084999999
 20
2131.00002
 30
0.0
 11
1867.124085
 21
2151.000019999999
 31
0.0
  0
LINE
  5
692
330
1F
100
AcDbEntity
  8
LAY-10
  6
CONTINUOUS
 62
     7
100
AcDbLine
 10
1857.480835
 20
2131.00002
 30
0.0
 11
1877.480835
 21
2151.000019999999
 31
0.0
  0
LINE
  5
693
330
1F
100
AcDbEntity
  8
LAY-10
  6
CONTINUOUS
 62
     7
100
AcDbLine
 10
1877.124085
 20
2131.00002
 30
0.0
 11
1857.124084999999
 21
2151.000019999999
 31
0.0
  0
LINE
  5
694
330
1F
100
AcDbEntity
  8
LAY-10
  6
CONTINUOUS
 62
     7
100
AcDbLine
 10
1847.480835
 20
2131.00002
 30
0.0
 11
1867.480835
 21
2151.000019999999
 31
0.0
  0
LINE
  5
695
330
1F
100
AcDbEntity
  8
LAY-10
  6
CONTINUOUS
 62
     7
100
AcDbLine
 10
1867.124085
 20
2131.00002
 30
0.0
 11
1847.124085
 21
2151.000019999999
 31
0.0
  0
LINE
  5
696
330
1F
100
AcDbEntity
  8
LAY-10
  6
CONTINUOUS
 62
     7
100
AcDbLine
 10
1837.480835
 20
2131.00002
 30
0.0
 11
1857.480835
 21
2151.000019999999
 31
0.0
  0
LINE
  5
697
330
1F
100
AcDbEntity
  8
LAY-10
  6
CONTINUOUS
 62
     7
100
AcDbLine
 10
1857.124084999999
 20
2131.00002
 30
0.0
 11
1837.124084999999
 21
2151.000019999999
 31
0.0
  0
LINE
  5
698
330
1F
100
AcDbEntity
  8
LAY-10
  6
CONTINUOUS
 62
     7
100
AcDbLine
 10
1827.480835
 20
2131.00002
 30
0.0
 11
1847.480835
 21
2151.000019999999
 31
0.0
  0
LINE
  5
699
330
1F
100
AcDbEntity
  8
LAY-10
  6
CONTINUOUS
 62
     7
100
AcDbLine
 10
1847.124085
 20
2131.00002
 30
0.0
 11
1827.124085
 21
2151.000019999999
 31
0.0
  0
LINE
  5
69A
330
1F
100
AcDbEntity
  8
LAY-10
  6
CONTINUOUS
 62
     7
100
AcDbLine
 10
1837.124084999999
 20
2131.00002
 30
0.0
 11
1820.149905
 21
2147.9742
 31
0.0
  0
LINE
  5
69B
330
1F
100
AcDbEntity
  8
LAY-10
  6
CONTINUOUS
 62
     7
100
AcDbLine
 10
1820.149905
 20
2143.668935000001
 30
0.0
 11
1827.480835
 21
2151.000019999999
 31
0.0
  0
LINE
  5
69C
330
1F
100
AcDbEntity
  8
LAY-10
  6
CONTINUOUS
 62
     7
100
AcDbLine
 10
1827.124085
 20
2131.00002
 30
0.0
 11
1820.149905
 21
2137.9742
 31
0.0
  0
LINE
  5
69D
330
1F
100
AcDbEntity
  8
LAY-10
  6
CONTINUOUS
 62
     7
100
AcDbLine
 10
1820.149905
 20
2151.000019999999
 30
0.0
 11
1944.14984
 21
2151.000019999999
 31
0.0
  0
LINE
  5
69E
330
1F
100
AcDbEntity
  8
LAY-10
  6
CONTINUOUS
 62
     7
100
AcDbLine
 10
1820.149905
 20
2133.669089999999
 30
0.0
 11
1837.480835
 21
2151.000019999999
 31
0.0
  0
LINE
  5
69F
330
1F
100
AcDbEntity
  8
LAY-10
  6
CONTINUOUS
 62
     7
100
AcDbLine
 10
1947.150025
 20
2089.19609
 30
0.0
 11
1947.150025
 21
1450.0
 31
0.0
  0
LINE
  5
6A0
330
1F
100
AcDbEntity
  8
LAY-10
  6
CONTINUOUS
 62
     7
100
AcDbLine
 10
1817.14972
 20
2089.19609
 30
0.0
 11
1817.14972
 21
1450.0
 31
0.0
  0
LINE
  5
6A1
330
1F
100
AcDbEntity
  8
LAY-10
  6
CONTINUOUS
 62
     7
100
AcDbLine
 10
1917.124085
 20
2090.0
 30
0.0
 11
1897.124085
 21
2110.0
 31
0.0
  0
LINE
  5
6A2
330
1F
100
AcDbEntity
  8
LAY-10
  6
CONTINUOUS
 62
     7
100
AcDbLine
 10
1820.149905
 20
2090.0
 30
0.0
 11
1944.14984
 21
2090.0
 31
0.0
  0
LINE
  5
6A3
330
1F
100
AcDbEntity
  8
LAY-10
  6
CONTINUOUS
 62
     7
100
AcDbLine
 10
1820.149905
 20
2110.0
 30
0.0
 11
1944.14984
 21
2110.0
 31
0.0
  0
LINE
  5
6A4
330
1F
100
AcDbEntity
  8
LAY-10
  6
CONTINUOUS
 62
     7
100
AcDbLine
 10
1923.11194
 20
2131.00002
 30
0.0
 11
1923.11194
 21
2110.0
 31
0.0
  0
LINE
  5
6A5
330
1F
100
AcDbEntity
  8
LAY-10
  6
CONTINUOUS
 62
     7
100
AcDbLine
 10
1933.11194
 20
2131.00002
 30
0.0
 11
1933.11194
 21
2110.0
 31
0.0
  0
LINE
  5
6A6
330
1F
100
AcDbEntity
  8
LAY-10
  6
CONTINUOUS
 62
     7
100
AcDbLine
 10
1947.150025
 20
2130.196185
 30
0.0
 11
1947.150025
 21
2110.803834999999
 31
0.0
  0
LINE
  5
6A7
330
1F
100
AcDbEntity
  8
LAY-10
  6
CONTINUOUS
 62
     7
100
AcDbLine
 10
1817.14972
 20
2130.196185
 30
0.0
 11
1817.14972
 21
2110.803834999999
 31
0.0
  0
LINE
  5
6A8
330
1F
100
AcDbEntity
  8
LAY-10
  6
CONTINUOUS
 62
     7
100
AcDbLine
 10
1817.14972
 20
2110.803834999999
 30
0.0
 11
1820.149905
 21
2110.0
 31
0.0
  0
LINE
  5
6A9
330
1F
100
AcDbEntity
  8
LAY-10
  6
CONTINUOUS
 62
     7
100
AcDbLine
 10
1817.14972
 20
2089.19609
 30
0.0
 11
1820.149905
 21
2090.0
 31
0.0
  0
LINE
  5
6AA
330
1F
100
AcDbEntity
  8
LAY-10
  6
CONTINUOUS
 62
     7
100
AcDbLine
 10
1820.149905
 20
2110.0
 30
0.0
 11
1820.149905
 21
2090.0
 31
0.0
  0
LINE
  5
6AB
330
1F
100
AcDbEntity
  8
LAY-10
  6
CONTINUOUS
 62
     7
100
AcDbLine
 10
1837.124084999999
 20
2090.0
 30
0.0
 11
1822.302615
 21
2104.821549999999
 31
0.0
  0
LINE
  5
6AC
330
1F
100
AcDbEntity
  8
LAY-10
  6
CONTINUOUS
 62
     7
100
AcDbLine
 10
1820.149905
 20
2102.668914999999
 30
0.0
 11
1827.480835
 21
2110.0
 31
0.0
  0
LINE
  5
6AD
330
1F
100
AcDbEntity
  8
LAY-10
  6
CONTINUOUS
 62
     7
100
AcDbLine
 10
1827.124085
 20
2090.0
 30
0.0
 11
1820.149905
 21
2096.97418
 31
0.0
  0
LINE
  5
6AE
330
1F
100
AcDbEntity
  8
LAY-10
  6
CONTINUOUS
 62
     7
100
AcDbLine
 10
1820.149905
 20
2092.668914999999
 30
0.0
 11
1837.480835
 21
2110.0
 31
0.0
  0
LINE
  5
6AF
330
1F
100
AcDbEntity
  8
LAY-10
  6
CONTINUOUS
 62
     7
100
AcDbLine
 10
1827.480835
 20
2090.0
 30
0.0
 11
1847.480835
 21
2110.0
 31
0.0
  0
LINE
  5
6B0
330
1F
100
AcDbEntity
  8
LAY-10
  6
CONTINUOUS
 62
     7
100
AcDbLine
 10
1847.124085
 20
2090.0
 30
0.0
 11
1827.124085
 21
2110.0
 31
0.0
  0
LINE
  5
6B1
330
1F
100
AcDbEntity
  8
LAY-10
  6
CONTINUOUS
 62
     7
100
AcDbLine
 10
1837.480835
 20
2090.0
 30
0.0
 11
1857.480835
 21
2110.0
 31
0.0
  0
LINE
  5
6B2
330
1F
100
AcDbEntity
  8
LAY-10
  6
CONTINUOUS
 62
     7
100
AcDbLine
 10
1857.124084999999
 20
2090.0
 30
0.0
 11
1837.124084999999
 21
2110.0
 31
0.0
  0
LINE
  5
6B3
330
1F
100
AcDbEntity
  8
LAY-10
  6
CONTINUOUS
 62
     7
100
AcDbLine
 10
1847.480835
 20
2090.0
 30
0.0
 11
1867.480835
 21
2110.0
 31
0.0
  0
LINE
  5
6B4
330
1F
100
AcDbEntity
  8
LAY-10
  6
CONTINUOUS
 62
     7
100
AcDbLine
 10
1867.124085
 20
2090.0
 30
0.0
 11
1847.124085
 21
2110.0
 31
0.0
  0
LINE
  5
6B5
330
1F
100
AcDbEntity
  8
LAY-10
  6
CONTINUOUS
 62
     7
100
AcDbLine
 10
1857.480835
 20
2090.0
 30
0.0
 11
1877.480835
 21
2110.0
 31
0.0
  0
LINE
  5
6B6
330
1F
100
AcDbEntity
  8
LAY-10
  6
CONTINUOUS
 62
     7
100
AcDbLine
 10
1877.124085
 20
2090.0
 30
0.0
 11
1857.124084999999
 21
2110.0
 31
0.0
  0
LINE
  5
6B7
330
1F
100
AcDbEntity
  8
LAY-10
  6
CONTINUOUS
 62
     7
100
AcDbLine
 10
1867.480835
 20
2090.0
 30
0.0
 11
1887.480835
 21
2110.0
 31
0.0
  0
LINE
  5
6B8
330
1F
100
AcDbEntity
  8
LAY-10
  6
CONTINUOUS
 62
     7
100
AcDbLine
 10
1887.124084999999
 20
2090.0
 30
0.0
 11
1867.124085
 21
2110.0
 31
0.0
  0
LINE
  5
6B9
330
1F
100
AcDbEntity
  8
LAY-10
  6
CONTINUOUS
 62
     7
100
AcDbLine
 10
1877.480835
 20
2090.0
 30
0.0
 11
1897.480835
 21
2110.0
 31
0.0
  0
LINE
  5
6BA
330
1F
100
AcDbEntity
  8
LAY-10
  6
CONTINUOUS
 62
     7
100
AcDbLine
 10
1897.124085
 20
2090.0
 30
0.0
 11
1877.124085
 21
2110.0
 31
0.0
  0
LINE
  5
6BB
330
1F
100
AcDbEntity
  8
LAY-10
  6
CONTINUOUS
 62
     7
100
AcDbLine
 10
1887.480835
 20
2090.0
 30
0.0
 11
1907.480835
 21
2110.0
 31
0.0
  0
LINE
  5
6BC
330
1F
100
AcDbEntity
  8
LAY-10
  6
CONTINUOUS
 62
     7
100
AcDbLine
 10
1907.124084999999
 20
2090.0
 30
0.0
 11
1887.124084999999
 21
2110.0
 31
0.0
  0
LINE
  5
6BD
330
1F
100
AcDbEntity
  8
LAY-10
  6
CONTINUOUS
 62
     7
100
AcDbLine
 10
1897.480835
 20
2090.0
 30
0.0
 11
1917.480835
 21
2110.0
 31
0.0
  0
LINE
  5
6BE
330
1F
100
AcDbEntity
  8
LAY-10
  6
CONTINUOUS
 62
     7
100
AcDbLine
 10
1907.480835
 20
2090.0
 30
0.0
 11
1927.480835
 21
2110.0
 31
0.0
  0
LINE
  5
6BF
330
1F
100
AcDbEntity
  8
LAY-10
  6
CONTINUOUS
 62
     7
100
AcDbLine
 10
1927.124084999999
 20
2090.0
 30
0.0
 11
1907.124084999999
 21
2110.0
 31
0.0
  0
LINE
  5
6C0
330
1F
100
AcDbEntity
  8
LAY-10
  6
CONTINUOUS
 62
     7
100
AcDbLine
 10
1917.480835
 20
2090.0
 30
0.0
 11
1937.480835
 21
2110.0
 31
0.0
  0
LINE
  5
6C1
330
1F
100
AcDbEntity
  8
LAY-10
  6
CONTINUOUS
 62
     7
100
AcDbLine
 10
1937.124085
 20
2090.0
 30
0.0
 11
1917.124085
 21
2110.0
 31
0.0
  0
LINE
  5
6C2
330
1F
100
AcDbEntity
  8
LAY-10
  6
CONTINUOUS
 62
     7
100
AcDbLine
 10
1927.480835
 20
2090.0
 30
0.0
 11
1944.14984
 21
2106.66893
 31
0.0
  0
LINE
  5
6C3
330
1F
100
AcDbEntity
  8
LAY-10
  6
CONTINUOUS
 62
     7
100
AcDbLine
 10
1944.14984
 20
2092.974165
 30
0.0
 11
1927.124084999999
 21
2110.0
 31
0.0
  0
LINE
  5
6C4
330
1F
100
AcDbEntity
  8
LAY-10
  6
CONTINUOUS
 62
     7
100
AcDbLine
 10
1944.14984
 20
2102.974165
 30
0.0
 11
1937.124085
 21
2110.0
 31
0.0
  0
LINE
  5
6C5
330
1F
100
AcDbEntity
  8
LAY-10
  6
CONTINUOUS
 62
     7
100
AcDbLine
 10
1944.14984
 20
2110.0
 30
0.0
 11
1944.14984
 21
2090.0
 31
0.0
  0
LINE
  5
6C6
330
1F
100
AcDbEntity
  8
LAY-10
  6
CONTINUOUS
 62
     7
100
AcDbLine
 10
1944.14984
 20
2110.0
 30
0.0
 11
1947.150025
 21
2110.803834999999
 31
0.0
  0
LINE
  5
6C7
330
1F
100
AcDbEntity
  8
LAY-10
  6
CONTINUOUS
 62
     7
100
AcDbLine
 10
1944.14984
 20
2090.0
 30
0.0
 11
1947.150025
 21
2089.19609
 31
0.0
  0
LINE
  5
6C8
330
1F
100
AcDbEntity
  8
LAY-10
  6
CONTINUOUS
 62
     7
100
AcDbLine
 10
1937.480835
 20
2090.0
 30
0.0
 11
1944.14984
 21
2096.66893
 31
0.0
  0
LINE
  5
6C9
330
1F
100
AcDbEntity
  8
LAY-10
  6
CENTER
 62
     4
100
AcDbLine
 10
1882.150025
 20
2226.886099999999
 30
0.0
 11
1882.150025
 21
955.7208450000002
 31
0.0
  0
LINE
  5
6CA
330
1F
100
AcDbEntity
  8
LAY-10
  6
CONTINUOUS
 62
     7
100
AcDbLine
 10
1831.189945
 20
2131.00002
 30
0.0
 11
1831.189945
 21
2110.0
 31
0.0
  0
LINE
  5
6CB
330
1F
100
AcDbEntity
  8
LAY-10
  6
CONTINUOUS
 62
     7
100
AcDbLine
 10
1841.189945
 20
2131.00002
 30
0.0
 11
1841.189945
 21
2110.0
 31
0.0
  0
TEXT
  5
6CC
330
1F
100
AcDbEntity
  8
LAY-10
  6
CONTINUOUS
 62
     7
100
AcDbText
 10
1693.14372
 20
1374.4883065962
 30
0.0
 40
31.181104
  1
Ｇ.Ｌ
 41
0.8346829483356883
  7
EXCADSTD
100
AcDbText
  0
DIMENSION
  5
6CE
330
1F
100
AcDbEntity
  8
LAY-20
  6
CONTINUOUS
 62
     4
100
AcDbDimension
  2
*D15
 10
2132.150025
 20
970.0000399999999
 30
0.0
 11
2107.150025
 21
1170.00002
 31
0.0
 70
   160
  3
ISO-25
100
AcDbAlignedDimension
 13
2032.150025000003
 23
1370.0
 33
0.0
 14
2032.150025000003
 24
970.0000399999999
 34
0.0
 50
90.0
100
AcDbRotatedDimension
1001
ACAD
1000
DSTYLE
1002
{
1070
   270
1070
     2
1070
     6
1000
EX_BNORM
1070
     7
1000
EX_BNORM
1070
    41
1040
25.0
1070
    42
1040
15.0
1070
    44
1040
15.0
1070
    73
1070
     0
1070
    74
1070
     0
1070
    75
1070
     0
1070
    76
1070
     0
1070
    77
1070
     1
1070
    78
1070
     8
1070
   140
1040
31.181104
1070
   147
1040
0.0
1070
   173
1070
     1
1070
   176
1070
     4
1070
   177
1070
     4
1070
   178
1070
     7
1070
   271
1070
     1
1070
   277
1070
     2
1070
   279
1070
     2
1070
   280
1070
     0
1070
   287
1070
     5
1070
   340
1005
6CD
1002
}
  0
DIMENSION
  5
6DC
330
1F
100
AcDbEntity
  8
LAY-20
  6
CONTINUOUS
 62
     4
100
AcDbDimension
  2
*D16
 10
2132.150025
 20
2196.0
 30
0.0
 11
2107.150025
 21
1783.0
 31
0.0
 70
   160
  3
ISO-25
100
AcDbAlignedDimension
 13
2138.150025
 23
1370.0
 33
0.0
 14
2138.150025
 24
2196.0
 34
0.0
 50
90.0
100
AcDbRotatedDimension
1001
ACAD
1000
DSTYLE
1002
{
1070
   270
1070
     2
1070
     6
1000
EX_BNORM
1070
     7
1000
EX_BNORM
1070
    41
1040
25.0
1070
    42
1040
0.0
1070
    44
1040
0.0
1070
    73
1070
     0
1070
    74
1070
     0
1070
    75
1070
     0
1070
    76
1070
     0
1070
    77
1070
     1
1070
    78
1070
     8
1070
   140
1040
31.181104
1070
   147
1040
0.0
1070
   173
1070
     1
1070
   176
1070
     4
1070
   177
1070
     4
1070
   178
1070
     7
1070
   271
1070
     1
1070
   277
1070
     2
1070
   279
1070
     2
1070
   280
1070
     0
1070
   287
1070
     5
1070
   340
1005
6CD
1002
}
  0
DIMENSION
  5
6E9
330
1F
100
AcDbEntity
  8
LAY-20
  6
CONTINUOUS
 62
     4
100
AcDbDimension
  2
*D17
 10
2202.150025
 20
970.0000399999999
 30
0.0
 11
2177.150025
 21
1583.00002
 31
0.0
 70
   160
  3
ISO-25
100
AcDbAlignedDimension
 13
1882.150025
 23
2196.0
 33
0.0
 14
2138.150025
 24
970.0000399999999
 34
0.0
 50
90.0
100
AcDbRotatedDimension
1001
ACAD
1000
DSTYLE
1002
{
1070
   270
1070
     2
1070
     6
1000
EX_BNORM
1070
     7
1000
EX_BNORM
1070
    41
1040
25.0
1070
    42
1040
15.0
1070
    44
1040
15.0
1070
    73
1070
     0
1070
    74
1070
     0
1070
    75
1070
     0
1070
    76
1070
     0
1070
    77
1070
     1
1070
    78
1070
     8
1070
   140
1040
31.181104
1070
   147
1040
0.0
1070
   173
1070
     1
1070
   176
1070
     4
1070
   177
1070
     4
1070
   178
1070
     7
1070
   271
1070
     1
1070
   277
1070
     2
1070
   279
1070
     2
1070
   280
1070
     0
1070
   287
1070
     5
1070
   340
1005
6CD
1002
}
  0
DIMENSION
  5
6F6
330
1F
100
AcDbEntity
  8
LAY-20
  6
CONTINUOUS
 62
     4
100
AcDbDimension
  2
*D18
 10
2202.150025
 20
870.0000399999999
 30
0.0
 11
2177.150025
 21
920.0000399999996
 31
0.0
 70
   160
  3
ISO-25
100
AcDbAlignedDimension
 13
2178.150025
 23
970.0000399999999
 33
0.0
 14
2082.150025
 24
870.0000399999999
 34
0.0
 50
90.0
100
AcDbRotatedDimension
1001
ACAD
1000
DSTYLE
1002
{
1070
   270
1070
     2
1070
     6
1000
EX_BNORM
1070
     7
1000
EX_BNORM
1070
    41
1040
25.0
1070
    42
1040
15.0
1070
    44
1040
15.0
1070
    73
1070
     0
1070
    74
1070
     0
1070
    75
1070
     0
1070
    76
1070
     0
1070
    77
1070
     1
1070
    78
1070
     8
1070
   140
1040
31.181104
1070
   147
1040
0.0
1070
   173
1070
     1
1070
   176
1070
     4
1070
   177
1070
     4
1070
   178
1070
     7
1070
   271
1070
     1
1070
   277
1070
     2
1070
   279
1070
     2
1070
   280
1070
     0
1070
   287
1070
     5
1070
   340
1005
6CD
1002
}
  0
DIMENSION
  5
703
330
1F
100
AcDbEntity
  8
LAY-20
  6
CONTINUOUS
 62
     4
100
AcDbDimension
  2
*D19
 10
1947.150025
 20
1663.720845
 30
0.0
 11
1882.1498725
 21
1688.720845
 31
0.0
 70
   160
  1
%%c130
  3
ISO-25
100
AcDbAlignedDimension
 13
1817.14972
 23
1663.720845
 33
0.0
 14
1947.150025
 24
1663.720845
 34
0.0
100
AcDbRotatedDimension
1001
ACAD
1000
DSTYLE
1002
{
1070
   270
1070
     2
1070
     6
1000
EX_BNORM
1070
     7
1000
EX_BNORM
1070
    41
1040
25.0
1070
    42
1040
0.0
1070
    44
1040
0.0
1070
    73
1070
     0
1070
    74
1070
     0
1070
    75
1070
     1
1070
    76
1070
     1
1070
    77
1070
     1
1070
    78
1070
     8
1070
   140
1040
31.181104
1070
   147
1040
0.0
1070
   173
1070
     1
1070
   176
1070
     4
1070
   177
1070
     4
1070
   178
1070
     7
1070
   271
1070
     1
1070
   277
1070
     2
1070
   279
1070
     2
1070
   280
1070
     0
1070
   287
1070
     5
1070
   340
1005
6CD
1002
}
  0
DIMENSION
  5
70E
330
1F
100
AcDbEntity
  8
LAY-20
  6
CONTINUOUS
 62
     4
100
AcDbDimension
  2
*D20
 10
1920.30005
 20
1139.0
 30
0.0
 11
1658.0
 21
1164.0
 31
0.0
 70
   160
  1
%%c76.3
  3
ISO-25
100
AcDbAlignedDimension
 13
1844.0
 23
1165.720845
 33
0.0
 14
1920.30005
 24
1145.0
 34
0.0
100
AcDbRotatedDimension
1001
ACAD
1000
DSTYLE
1002
{
1070
   270
1070
     2
1070
     6
1000
EX_BNORM
1070
     7
1000
EX_BNORM
1070
    41
1040
25.0
1070
    42
1040
15.0
1070
    44
1040
15.0
1070
    73
1070
     1
1070
    74
1070
     1
1070
    75
1070
     0
1070
    76
1070
     0
1070
    77
1070
     1
1070
    78
1070
     8
1070
   140
1040
31.181104
1070
   147
1040
0.0
1070
   173
1070
     1
1070
   176
1070
     4
1070
   177
1070
     4
1070
   178
1070
     7
1070
   271
1070
     1
1070
   277
1070
     2
1070
   279
1070
     2
1070
   280
1070
     0
1070
   287
1070
     5
1070
   340
1005
6CD
1002
}
  0
LINE
  5
71B
330
1F
100
AcDbEntity
  8
LAY-255
  6
CONTINUOUS
 62
     7
100
AcDbLine
 10
3850.0
 20
219.9999999999999
 30
0.0
 11
2850.0
 21
219.9999999999999
 31
0.0
  0
LINE
  5
71C
330
1F
100
AcDbEntity
  8
LAY-255
  6
CONTINUOUS
 62
     7
100
AcDbLine
 10
2888.0
 20
160.0
 30
0.0
 11
2968.0
 21
210.0
 31
0.0
  0
LINE
  5
71D
330
1F
100
AcDbEntity
  8
LAY-255
  6
CONTINUOUS
 62
     7
100
AcDbLine
 10
2968.0
 20
210.0
 30
0.0
 11
3048.0
 21
160.0
 31
0.0
  0
LINE
  5
71E
330
1F
100
AcDbEntity
  8
LAY-255
  6
CONTINUOUS
 62
     7
100
AcDbLine
 10
3048.0
 20
160.0
 30
0.0
 11
2968.0
 21
110.0
 31
0.0
  0
LINE
  5
71F
330
1F
100
AcDbEntity
  8
LAY-255
  6
CONTINUOUS
 62
     7
100
AcDbLine
 10
2968.0
 20
110.0
 30
0.0
 11
2888.0
 21
160.0
 31
0.0
  0
TEXT
  5
720
330
1F
100
AcDbEntity
  8
LAY-255
  6
CONTINUOUS
 62
     7
100
AcDbText
 10
3078.0
 20
155.031498
 30
0.0
 40
46.771656
  1
福西鋳物株式会社
 41
1.46999999944369
  7
EXCADSTD
100
AcDbText
  0
TEXT
  5
721
330
1F
100
AcDbEntity
  8
LAY-255
  6
CONTINUOUS
 62
     7
100
AcDbText
 10
3078.0
 20
119.677166
 30
0.0
 40
15.590552
  1
ＦＵＫＵＮＩＳＨＩ
 41
1.411167346187114
  7
EXCADSTD
100
AcDbText
  0
TEXT
  5
722
330
1F
100
AcDbEntity
  8
LAY-255
  6
CONTINUOUS
 62
     7
100
AcDbText
 10
3320.0
 20
119.677166
 30
0.0
 40
15.590552
  1
ＦＯＵＮＤＲＹ
 41
1.433676792073306
  7
EXCADSTD
100
AcDbText
  0
TEXT
  5
723
330
1F
100
AcDbEntity
  8
LAY-255
  6
CONTINUOUS
 62
     7
100
AcDbText
 10
3514.0
 20
119.677166
 30
0.0
 40
15.590552
  1
ＣＯ.,ＬＴＤ.
 41
1.458863900307875
  7
EXCADSTD
100
AcDbText
  0
TEXT
  5
724
330
1F
100
AcDbEntity
  8
LAY-255
  6
CONTINUOUS
 62
     7
100
AcDbText
 10
2942.2522
 20
136.781498
 30
0.0
 40
46.771656
  1
S
 41
0.56692
  7
EXCADSTD
100
AcDbText
  0
TEXT
  5
725
330
1F
100
AcDbEntity
  8
LAY-255
  6
CONTINUOUS
 62
     7
100
AcDbText
 10
2972.2522
 20
137.0881017736
 30
0.0
 40
46.771656
  1
F
 41
0.56692
  7
EXCADSTD
100
AcDbText
  0
LINE
  5
726
330
1F
100
AcDbEntity
  8
LAY-255
  6
CONTINUOUS
 62
     7
100
AcDbLine
 10
50.0
 20
100.0
 30
0.0
 11
3850.0
 21
100.0
 31
0.0
  0
LINE
  5
727
330
1F
100
AcDbEntity
  8
LAY-255
  6
CONTINUOUS
 62
     7
100
AcDbLine
 10
50.0
 20
2800.0
 30
0.0
 11
3850.0
 21
2800.0
 31
0.0
  0
LINE
  5
728
330
1F
100
AcDbEntity
  8
LAY-255
  6
CONTINUOUS
 62
     7
100
AcDbLine
 10
50.0
 20
100.0
 30
0.0
 11
50.0
 21
2800.0
 31
0.0
  0
LINE
  5
729
330
1F
100
AcDbEntity
  8
LAY-255
  6
CONTINUOUS
 62
     7
100
AcDbLine
 10
3850.0
 20
100.0
 30
0.0
 11
3850.0
 21
2800.0
 31
0.0
  0
TEXT
  5
72A
330
1F
100
AcDbEntity
  8
LAY-255
  6
CONTINUOUS
 62
     7
100
AcDbText
 10
3370.0
 20
244.0157489999999
 30
0.0
 40
23.385828
  1
縮尺
 41
1.15
  7
EXCADSTD
100
AcDbText
  0
LINE
  5
72B
330
1F
100
AcDbEntity
  8
LAY-255
  6
CONTINUOUS
 62
     4
100
AcDbLine
 10
2850.0
 20
279.9999999999999
 30
0.0
 11
3850.0
 21
279.9999999999999
 31
0.0
  0
LINE
  5
72C
330
1F
100
AcDbEntity
  8
LAY-255
  6
CONTINUOUS
 62
     7
100
AcDbLine
 10
2850.0
 20
100.0
 30
0.0
 11
2850.0
 21
670.0
 31
0.0
  0
LINE
  5
72D
330
1F
100
AcDbEntity
  8
LAY-255
  6
CONTINUOUS
 62
     4
100
AcDbLine
 10
3350.0
 20
279.9999999999999
 30
0.0
 11
3350.0
 21
220.0
 31
0.0
  0
LINE
  5
72E
330
1F
100
AcDbEntity
  8
LAY-255
  6
CONTINUOUS
 62
     7
100
AcDbLine
 10
3850.0
 20
670.0
 30
0.0
 11
2850.0
 21
670.0
 31
0.0
  0
LINE
  5
72F
330
1F
100
AcDbEntity
  8
LAY-255
  6
CONTINUOUS
 62
     4
100
AcDbLine
 10
3830.0
 20
549.9999999999999
 30
0.0
 11
2870.0
 21
549.9999999999999
 31
0.0
  0
LINE
  5
730
330
1F
100
AcDbEntity
  8
LAY-255
  6
CONTINUOUS
 62
     4
100
AcDbLine
 10
3830.0
 20
610.0
 30
0.0
 11
2870.0
 21
610.0
 31
0.0
  0
POINT
  5
731
330
1F
100
AcDbEntity
  8
LAY-255
  6
CONTINUOUS
 62
     7
100
AcDbPoint
 10
2890.0
 20
450.0
 30
0.0
  0
TEXT
  5
732
330
1F
100
AcDbEntity
  8
LAY-255
  6
CONTINUOUS
 62
     7
100
AcDbText
 10
2870.0
 20
565.3543319999999
 30
0.0
 40
31.181104
  1
型式
 41
1.15
  7
EXCADSTD
100
AcDbText
  0
TEXT
  5
733
330
1F
100
AcDbEntity
  8
LAY-255
  6
CONTINUOUS
 62
     7
100
AcDbText
 10
2870.0
 20
625.354332
 30
0.0
 40
31.181104
  1
品名
 41
1.15
  7
EXCADSTD
100
AcDbText
  0
POINT
  5
734
330
1F
100
AcDbEntity
  8
LAY-255
  6
CONTINUOUS
 62
     7
100
AcDbPoint
 10
3000.0
 20
559.9999999999999
 30
0.0
  0
POINT
  5
735
330
1F
100
AcDbEntity
  8
LAY-255
  6
CONTINUOUS
 62
     7
100
AcDbPoint
 10
3000.0
 20
620.0
 30
0.0
  0
POINT
  5
736
330
1F
100
AcDbEntity
  8
LAY-255
  6
CONTINUOUS
 62
     7
100
AcDbPoint
 10
2890.0
 20
350.0
 30
0.0
  0
POINT
  5
737
330
1F
100
AcDbEntity
  8
LAY-255
  6
CONTINUOUS
 62
     7
100
AcDbPoint
 10
2890.0
 20
400.0
 30
0.0
  0
TEXT
  5
738
330
1F
100
AcDbEntity
  8
LAY-255
  6
CONTINUOUS
 62
     7
100
AcDbText
 10
2870.0
 20
244.0157489999999
 30
0.0
 40
23.385828
  1
作成日
 41
1.136
  7
EXCADSTD
100
AcDbText
  0
POINT
  5
739
330
1F
100
AcDbEntity
  8
LAY-255
  6
CONTINUOUS
 62
     7
100
AcDbPoint
 10
2890.0
 20
299.9999999999999
 30
0.0
  0
POINT
  5
73A
330
1F
100
AcDbEntity
  8
LAY-255
  6
CONTINUOUS
 62
     7
100
AcDbPoint
 10
2890.0
 20
500.0000000000001
 30
0.0
  0
TEXT
  5
73B
330
1F
100
AcDbEntity
  8
LAY-255
  6
CONTINUOUS
 62
     7
100
AcDbText
 10
3470.0
 20
235.3543319999999
 30
0.0
 40
31.181104
  1
１：１０
 41
1.129411764705882
  7
EXCADSTD
100
AcDbText
  0
TEXT
  5
73C
330
1F
100
AcDbEntity
  8
LAY-255
  6
CONTINUOUS
 62
     7
100
AcDbText
 10
3000.0
 20
625.354332
 30
0.0
 40
31.181104
  1
セーフティーポール（車止め）
 41
1.116129032258065
  7
EXCADSTD
100
AcDbText
  0
TEXT
  5
73D
330
1F
100
AcDbEntity
  8
LAY-255
  6
CONTINUOUS
 62
     7
100
AcDbText
 10
3000.0
 20
235.3543319999999
 30
0.0
 40
31.181104
  1
２３／０７／１３
 41
1.12
  7
EXCADSTD
100
AcDbText
  0
TEXT
  5
73E
330
1F
100
AcDbEntity
  8
LAY-255
  6
CONTINUOUS
 62
     7
100
AcDbText
 10
3000.0
 20
565.3543319999999
 30
0.0
 40
31.181104
  1
ＳＦ－ＥＣＯ７００
 41
1.118987341772152
  7
EXCADSTD
100
AcDbText
  0
TEXT
  5
73F
330
1F
100
AcDbEntity
  8
LAY-255
  6
CONTINUOUS
 62
     7
100
AcDbText
 10
2890.0
 20
505.3543320000002
 30
0.0
 40
31.181104
  1
材質：再生ゴムチップ製
 41
1.117525773195876
  7
EXCADSTD
100
AcDbText
  0
TEXT
  5
740
330
1F
100
AcDbEntity
  8
LAY-255
  6
CONTINUOUS
 62
     7
100
AcDbText
 10
2889.2858983848
 20
443.6174717208202
 30
0.0
 40
31.181104
  1
構造：固定式
 41
1.123076923076923
  7
EXCADSTD
100
AcDbText
  0
ENDSEC
  0
SECTION
  2
OBJECTS
  0
DICTIONARY
  5
C
330
0
100
AcDbDictionary
  3
ACAD_GROUP
350
D
  3
ACAD_LAYOUT
350
1A
  3
ACAD_MATERIAL
350
43
  3
ACAD_MLEADERSTYLE
350
6B
  3
ACAD_MLINESTYLE
350
17
  3
ACAD_PLOTSETTINGS
350
19
  3
ACAD_SCALELIST
350
47
  3
ACAD_VISUALSTYLE
350
2A
  3
ACDBHEADERROUNDTRIPXREC
350
741
  3
ACDBVARIABLEDICTIONARY
350
762
  0
DICTIONARY
  5
76D
330
8
100
AcDbDictionary
280
     1
  3
ACAD_XREC_ROUNDTRIP
360
76E
  0
DICTIONARY
  5
D
102
{ACAD_REACTORS
330
C
102
}
330
C
100
AcDbDictionary
  0
DICTIONARY
  5
1A
102
{ACAD_REACTORS
330
C
102
}
330
C
100
AcDbDictionary
  0
DICTIONARY
  5
43
102
{ACAD_REACTORS
330
C
102
}
330
C
100
AcDbDictionary
  3
BYBLOCK
350
45
  3
BYLAYER
350
44
  3
GLOBAL
350
46
  0
DICTIONARY
  5
6B
102
{ACAD_REACTORS
330
C
102
}
330
C
100
AcDbDictionary
  3
STANDARD
350
6C
  0
DICTIONARY
  5
17
102
{ACAD_REACTORS
330
C
102
}
330
C
100
AcDbDictionary
  3
STANDARD
350
18
  0
DICTIONARY
  5
19
102
{ACAD_REACTORS
330
C
102
}
330
C
100
AcDbDictionary
  0
DICTIONARY
  5
47
102
{ACAD_REACTORS
330
C
102
}
330
C
100
AcDbDictionary
  3
A0
350
48
  3
A1
350
49
  3
A2
350
4A
  3
A3
350
4B
  3
A4
350
4C
  3
A5
350
4D
  3
A6
350
4E
  3
A7
350
4F
  3
A8
350
50
  3
A9
350
51
  3
B0
350
52
  3
B1
350
53
  3
B2
350
54
  3
B3
350
55
  3
B4
350
56
  3
B5
350
57
  3
B6
350
58
  3
B7
350
59
  3
B8
350
5A
  3
B9
350
5B
  3
C0
350
5C
  3
C1
350
5D
  3
C2
350
5E
  3
C3
350
5F
  3
C4
350
60
  3
C5
350
61
  3
C6
350
62
  3
C7
350
63
  3
C8
350
64
  3
C9
350
65
  3
D0
350
66
  3
D1
350
67
  3
D2
350
68
  0
DICTIONARY
  5
2A
102
{ACAD_REACTORS
330
C
102
}
330
C
100
AcDbDictionary
  3
2DWIREFRAME
350
2F
  3
BASIC
350
32
  3
BRIGHTEN
350
36
  3
COLORCHANGE
350
3A
  3
CONCEPTUAL
350
34
  3
DIM
350
35
  3
EDGECOLOROFF
350
3D
  3
FACEPATTERN
350
39
  3
FLAT
350
2B
  3
FLATWITHEDGES
350
2C
  3
GOURAUD
350
2D
  3
GOURAUDWITHEDGES
350
2E
  3
HIDDEN
350
31
  3
JITTEROFF
350
3B
  3
LINEPATTERN
350
38
  3
OVERHANGOFF
350
3C
  3
REALISTIC
350
33
  3
SHADED
350
42
  3
SHADED_WITH_EDGES
350
41
  3
SHADES_OF_GRAY
350
3E
  3
SKETCHY
350
3F
  3
THICKEN
350
37
  3
WIREFRAME
350
30
  3
X-RAY
350
40
  0
DICTIONARY
  5
741
102
{ACAD_REACTORS
330
C
102
}
330
C
100
AcDbDictionary
  3
CEPSNID
350
74B
  3
CEPSNTYPE
350
74A
  3
DIMSTYLEDATA
350
761
  3
FINGERPRINTGUID
350
74C
  3
HYPERLINKBASE
350
744
  3
INSUNITS
350
749
  3
LAYOUTDICT
350
746
  3
LWETCUNION
350
748
  3
PLOTSETDICT
350
747
  3
PSVPSCALE
350
74E
  3
PUCSBASE
350
751
  3
PUCSORGBACK
350
757
  3
PUCSORGBOTTOM
350
753
  3
PUCSORGFRONT
350
756
  3
PUCSORGLEFT
350
754
  3
PUCSORGRIGHT
350
755
  3
PUCSORGTOP
350
752
  3
PUCSORTHOREF
350
74F
  3
PUCSORTHOVIEW
350
750
  3
STYLESHEET
350
745
  3
TSTACKALIGN
350
742
  3
TSTACKSIZE
350
743
  3
UCSBASE
350
75A
  3
UCSORGBACK
350
760
  3
UCSORGBOTTOM
350
75C
  3
UCSORGFRONT
350
75F
  3
UCSORGLEFT
350
75D
  3
UCSORGRIGHT
350
75E
  3
UCSORGTOP
350
75B
  3
UCSORTHOREF
350
758
  3
UCSORTHOVIEW
350
759
  3
VERSIONGUID
350
74D
  0
DICTIONARY
  5
762
102
{ACAD_REACTORS
330
C
102
}
330
C
100
AcDbDictionary
  3
CANNOSCALE
350
76F
  3
CENTEREXE
350
769
  3
CENTERLTYPEFILE
350
76A
  3
CMLEADERSTYLE
350
764
  3
CTABLESTYLE
350
763
  3
DIMASSOC
350
76B
  3
HIDETEXT
350
76C
  3
MSLTSCALE
350
770
  3
PSOLHEIGHT
350
766
  3
PSOLWIDTH
350
765
  0
XRECORD
  5
76E
102
{ACAD_REACTORS
330
76D
102
}
330
76D
100
AcDbXrecord
102
VTR_0.000_0.000_1.000_1.000_VISUALSTYLE
340
2F
102
VTR_0.000_0.000_1.000_1.000_GRIDDISPLAY
 70
     3
102
VTR_0.000_0.000_1.000_1.000_GRIDMAJOR
 70
     5
102
VTR_0.000_0.000_1.000_1.000_DEFAULTLIGHTING
280
     1
102
VTR_0.000_0.000_1.000_1.000_DEFAULTLIGHTINGTYPE
 70
     1
102
VTR_0.000_0.000_1.000_1.000_BRIGHTNESS
141
0.0
102
VTR_0.000_0.000_1.000_1.000_CONTRAST
142
0.0
  0
MATERIAL
  5
45
102
{ACAD_REACTORS
330
43
102
}
102
{ACAD_XDICTIONARY
360
773
102
}
330
43
100
AcDbMaterial
  1
BYBLOCK
  0
MATERIAL
  5
44
102
{ACAD_REACTORS
330
43
102
}
102
{ACAD_XDICTIONARY
360
771
102
}
330
43
100
AcDbMaterial
  1
BYLAYER
  0
MATERIAL
  5
46
102
{ACAD_REACTORS
330
43
102
}
102
{ACAD_XDICTIONARY
360
775
102
}
330
43
100
AcDbMaterial
  1
GLOBAL
  0
ACAD_PROXY_OBJECT
  5
6C
102
{ACAD_REACTORS
330
6B
102
}
330
6B
100
AcDbProxyObject
 90
      499
 91
      505
 93
      610
310
40901902A4063FBFFFFFE0000000000000020400000000000020404214DD185B99185C990000000000000104090141901A00000000000004100000000000000041025764000000000000039000
340
14
340
0
340
11
340
0
 94
        0
1001
ACAD_MLEADERVER
1070
     2
  0
MLINESTYLE
  5
18
102
{ACAD_REACTORS
330
17
102
}
330
17
100
AcDbMlineStyle
  2
Standard
 70
     0
  3

 62
   256
 51
90.0
 52
90.0
 71
     2
 49
0.5
 62
   256
  6
BYLAYER
 49
-0.5
 62
   256
  6
BYLAYER
  0
ACAD_PROXY_OBJECT
  5
48
102
{ACAD_REACTORS
330
47
102
}
330
47
100
AcDbProxyObject
 90
      499
 91
      503
 93
       41
310
903313A31580
  0
ACAD_PROXY_OBJECT
  5
49
102
{ACAD_REACTORS
330
47
102
}
330
47
100
AcDbProxyObject
 90
      499
 91
      503
 93
      105
310
903313A324000000000000004000
  0
ACAD_PROXY_OBJECT
  5
4A
102
{ACAD_REACTORS
330
47
102
}
330
47
100
AcDbProxyObject
 90
      499
 91
      503
 93
      105
310
903313A344000000000000104000
  0
ACAD_PROXY_OBJECT
  5
4B
102
{ACAD_REACTORS
330
47
102
}
330
47
100
AcDbProxyObject
 90
      499
 91
      503
 93
      105
310
903313A354000000000000144000
  0
ACAD_PROXY_OBJECT
  5
4C
102
{ACAD_REACTORS
330
47
102
}
330
47
100
AcDbProxyObject
 90
      499
 91
      503
 93
      105
310
903313A384000000000000204000
  0
ACAD_PROXY_OBJECT
  5
4D
102
{ACAD_REACTORS
330
47
102
}
330
47
100
AcDbProxyObject
 90
      499
 91
      503
 93
      113
310
904313A31304000000000000244000
  0
ACAD_PROXY_OBJECT
  5
4E
102
{ACAD_REACTORS
330
47
102
}
330
47
100
AcDbProxyObject
 90
      499
 91
      503
 93
      113
310
904313A31364000000000000304000
  0
ACAD_PROXY_OBJECT
  5
4F
102
{ACAD_REACTORS
330
47
102
}
330
47
100
AcDbProxyObject
 90
      499
 91
      503
 93
      113
310
904313A32304000000000000344000
  0
ACAD_PROXY_OBJECT
  5
50
102
{ACAD_REACTORS
330
47
102
}
330
47
100
AcDbProxyObject
 90
      499
 91
      503
 93
      113
310
904313A333040000000000003E4000
  0
ACAD_PROXY_OBJECT
  5
51
102
{ACAD_REACTORS
330
47
102
}
330
47
100
AcDbProxyObject
 90
      499
 91
      503
 93
      113
310
904313A34304000000000000444000
  0
ACAD_PROXY_OBJECT
  5
52
102
{ACAD_REACTORS
330
47
102
}
330
47
100
AcDbProxyObject
 90
      499
 91
      503
 93
      113
310
904313A35304000000000000494000
  0
ACAD_PROXY_OBJECT
  5
53
102
{ACAD_REACTORS
330
47
102
}
330
47
100
AcDbProxyObject
 90
      499
 91
      503
 93
      121
310
905313A3130304000000000000594000
  0
ACAD_PROXY_OBJECT
  5
54
102
{ACAD_REACTORS
330
47
102
}
330
47
100
AcDbProxyObject
 90
      499
 91
      503
 93
      105
310
903323A310000000000000010100
  0
ACAD_PROXY_OBJECT
  5
55
102
{ACAD_REACTORS
330
47
102
}
330
47
100
AcDbProxyObject
 90
      499
 91
      503
 93
      105
310
903343A310000000000000410100
  0
ACAD_PROXY_OBJECT
  5
56
102
{ACAD_REACTORS
330
47
102
}
330
47
100
AcDbProxyObject
 90
      499
 91
      503
 93
      105
310
903383A310000000000000810100
  0
ACAD_PROXY_OBJECT
  5
57
102
{ACAD_REACTORS
330
47
102
}
330
47
100
AcDbProxyObject
 90
      499
 91
      503
 93
      113
310
90431303A310000000000000910100
  0
ACAD_PROXY_OBJECT
  5
58
102
{ACAD_REACTORS
330
47
102
}
330
47
100
AcDbProxyObject
 90
      499
 91
      503
 93
      121
310
9053130303A310000000000001650100
  0
ACAD_PROXY_OBJECT
  5
59
102
{ACAD_REACTORS
330
47
102
}
330
47
100
AcDbProxyObject
 90
      499
 91
      503
 93
      257
310
90E312F31323822203D2031272D3022000000000000200FC000000000000284000
  0
ACAD_PROXY_OBJECT
  5
5A
102
{ACAD_REACTORS
330
47
102
}
330
47
100
AcDbProxyObject
 90
      499
 91
      503
 93
      249
310
90D312F363422203D2031272D3022000000000000240FC000000000000284000
  0
ACAD_PROXY_OBJECT
  5
5B
102
{ACAD_REACTORS
330
47
102
}
330
47
100
AcDbProxyObject
 90
      499
 91
      503
 93
      249
310
90D312F333222203D2031272D3022000000000000280FC000000000000284000
  0
ACAD_PROXY_OBJECT
  5
5C
102
{ACAD_REACTORS
330
47
102
}
330
47
100
AcDbProxyObject
 90
      499
 91
      503
 93
      249
310
90D312F313622203D2031272D30220000000000002C0FC000000000000284000
  0
ACAD_PROXY_OBJECT
  5
5D
102
{ACAD_REACTORS
330
47
102
}
330
47
100
AcDbProxyObject
 90
      499
 91
      503
 93
      249
310
90D332F333222203D2031272D30220000000000002E0FC000000000000284000
  0
ACAD_PROXY_OBJECT
  5
5E
102
{ACAD_REACTORS
330
47
102
}
330
47
100
AcDbProxyObject
 90
      499
 91
      503
 93
      241
310
90C312F3822203D2031272D3022000000000000300FC000000000000284000
  0
ACAD_PROXY_OBJECT
  5
5F
102
{ACAD_REACTORS
330
47
102
}
330
47
100
AcDbProxyObject
 90
      499
 91
      503
 93
      249
310
90D332F313622203D2031272D3022000000000000320FC000000000000284000
  0
ACAD_PROXY_OBJECT
  5
60
102
{ACAD_REACTORS
330
47
102
}
330
47
100
AcDbProxyObject
 90
      499
 91
      503
 93
      241
310
90C312F3422203D2031272D3022000000000000340FC000000000000284000
  0
ACAD_PROXY_OBJECT
  5
61
102
{ACAD_REACTORS
330
47
102
}
330
47
100
AcDbProxyObject
 90
      499
 91
      503
 93
      241
310
90C332F3822203D2031272D3022000000000000360FC000000000000284000
  0
ACAD_PROXY_OBJECT
  5
62
102
{ACAD_REACTORS
330
47
102
}
330
47
100
AcDbProxyObject
 90
      499
 91
      503
 93
      241
310
90C312F3222203D2031272D3022000000000000380FC000000000000284000
  0
ACAD_PROXY_OBJECT
  5
63
102
{ACAD_REACTORS
330
47
102
}
330
47
100
AcDbProxyObject
 90
      499
 91
      503
 93
      241
310
90C332F3422203D2031272D30220000000000003A0FC000000000000284000
  0
ACAD_PROXY_OBJECT
  5
64
102
{ACAD_REACTORS
330
47
102
}
330
47
100
AcDbProxyObject
 90
      499
 91
      503
 93
      161
310
90A3122203D2031272D30224000000000000284000
  0
ACAD_PROXY_OBJECT
  5
65
102
{ACAD_REACTORS
330
47
102
}
330
47
100
AcDbProxyObject
 90
      499
 91
      503
 93
      257
310
90E312D312F3222203D2031272D30220000000000003E0FC000000000000284000
  0
ACAD_PROXY_OBJECT
  5
66
102
{ACAD_REACTORS
330
47
102
}
330
47
100
AcDbProxyObject
 90
      499
 91
      503
 93
      225
310
90A3322203D2031272D302200000000000002100000000000000284000
  0
ACAD_PROXY_OBJECT
  5
67
102
{ACAD_REACTORS
330
47
102
}
330
47
100
AcDbProxyObject
 90
      499
 91
      503
 93
      225
310
90A3622203D2031272D302200000000000006100000000000000284000
  0
ACAD_PROXY_OBJECT
  5
68
102
{ACAD_REACTORS
330
47
102
}
330
47
100
AcDbProxyObject
 90
      499
 91
      503
 93
      249
310
90D31272D3022203D2031272D30220000000000000A100000000000000284000
  0
ACAD_PROXY_OBJECT
  5
2F
102
{ACAD_REACTORS
330
2A
102
}
330
2A
100
AcDbProxyObject
 90
      499
 91
      501
 93
      436
310
42CC9915DA5C99599C985B595049028333333333333E33F0000000000000F90107901411070040501600405405064090741402480A0340
1001
ACAD
1000
AcDbSavedByObjectVersion
1070
     0
  0
ACAD_PROXY_OBJECT
  5
32
102
{ACAD_REACTORS
330
2A
102
}
330
2A
100
AcDbProxyObject
 90
      499
 91
      501
 93
      388
310
4150985CDA58D07406404333333333333E33F0000000000000F90107A41107004050150841D405064090741402480A0350
1001
ACAD
1000
AcDbSavedByObjectVersion
1070
     0
  0
ACAD_PROXY_OBJECT
  5
36
102
{ACAD_REACTORS
330
2A
102
}
330
2A
100
AcDbProxyObject
 90
      499
 91
      501
 93
      428
310
42109C9A59DA1D195B90C409028333333333333E33F0000000000000F9010790141107004050150841D405064090741402480A029950
1001
ACAD
1000
AcDbSavedByObjectVersion
1070
     0
  0
ACAD_PROXY_OBJECT
  5
3A
102
{ACAD_REACTORS
330
2A
102
}
330
2A
100
AcDbProxyObject
 90
      499
 91
      501
 93
      452
310
42D0DBDB1BDC90DA185B99D95104090240C333333333333E33F0000000000000F90108901411070040501508421405064090741402480A0350
1001
ACAD
1000
AcDbSavedByObjectVersion
1070
     0
  0
ACAD_PROXY_OBJECT
  5
34
102
{ACAD_REACTORS
330
2A
102
}
330
2A
100
AcDbProxyObject
 90
      499
 91
      501
 93
      500
310
4290DBDB98D95C1D1D585B10940D028333333333333E33F0000000000000F90107902409070040501000000000018199010841D405064090740C02480A0340
1001
ACAD
1000
AcDbSavedByObjectVersion
1070
     0
  0
ACAD_PROXY_OBJECT
  5
35
102
{ACAD_REACTORS
330
2A
102
}
330
2A
100
AcDbProxyObject
 90
      499
 91
      501
 93
      412
310
40D11A5B50B409028333333333333E33F0000000000000F9010790141107004050150841D405064090741402480A02677FFFFFD0
1001
ACAD
1000
AcDbSavedByObjectVersion
1070
     0
  0
ACAD_PROXY_OBJECT
  5
3D
102
{ACAD_REACTORS
330
2A
102
}
330
2A
100
AcDbProxyObject
 90
      499
 91
      501
 93
      452
310
43115919D950DBDB1BDC93D999916409028333333333333E33F0000000000000F9010790141107004050150841D405064090741402480A0350
1001
ACAD
1000
AcDbSavedByObjectVersion
1070
     0
  0
ACAD_PROXY_OBJECT
  5
39
102
{ACAD_REACTORS
330
2A
102
}
330
2A
100
AcDbProxyObject
 90
      499
 91
      501
 93
      444
310
42D19858D95C185D1D195C9B90F409028333333333333E33F0000000000000F9010790141107004050150841D405064090741402480A0350
1001
ACAD
1000
AcDbSavedByObjectVersion
1070
     0
  0
ACAD_PROXY_OBJECT
  5
2B
102
{ACAD_REACTORS
330
2A
102
}
330
2A
100
AcDbProxyObject
 90
      499
 91
      501
 93
      380
310
41119B185D240901404333333333333E33F0000000000000F9010740A907004050150841D405064090741402480A1B50
1001
ACAD
1000
AcDbSavedByObjectVersion
1070
     0
  0
ACAD_PROXY_OBJECT
  5
2C
102
{ACAD_REACTORS
330
2A
102
}
330
2A
100
AcDbProxyObject
 90
      499
 91
      501
 93
      468
310
43519B185D15DA5D1A115919D95CD0140901404333333333333E33F0000000000000F90107409019070040501600405405064090741402480A1B50
1001
ACAD
1000
AcDbSavedByObjectVersion
1070
     0
  0
ACAD_PROXY_OBJECT
  5
2D
102
{ACAD_REACTORS
330
2A
102
}
330
2A
100
AcDbProxyObject
 90
      499
 91
      501
 93
      404
310
41D1DBDD5C985D5910240902404333333333333E33F0000000000000F9010740A9070040501641D405064090741402480A1B50
1001
ACAD
1000
AcDbSavedByObjectVersion
1070
     0
  0
ACAD_PROXY_OBJECT
  5
2E
102
{ACAD_REACTORS
330
2A
102
}
330
2A
100
AcDbProxyObject
 90
      499
 91
      501
 93
      492
310
4411DBDD5C985D5915DA5D1A115919D95CD0340902404333333333333E33F0000000000000F90107409019070040501600405405064090741402480A1B50
1001
ACAD
1000
AcDbSavedByObjectVersion
1070
     0
  0
ACAD_PROXY_OBJECT
  5
31
102
{ACAD_REACTORS
330
2A
102
}
330
2A
100
AcDbProxyObject
 90
      499
 91
      501
 93
      476
310
41921A5919195B90640502408333333333333E33F0000000000000F901079024090700405020000000000001110200405405064090740C02480A0340
1001
ACAD
1000
AcDbSavedByObjectVersion
1070
     0
  0
ACAD_PROXY_OBJECT
  5
3B
102
{ACAD_REACTORS
330
2A
102
}
330
2A
100
AcDbProxyObject
 90
      499
 91
      501
 93
      428
310
42529A5D1D195C93D999914409028333333333333E33F0000000000000F9010790141107004050150A41D405064090741402480A0350
1001
ACAD
1000
AcDbSavedByObjectVersion
1070
     0
  0
ACAD_PROXY_OBJECT
  5
38
102
{ACAD_REACTORS
330
2A
102
}
330
2A
100
AcDbProxyObject
 90
      499
 91
      501
 93
      444
310
42D31A5B995C185D1D195C9B90E409028333333333333E33F0000000000000F9010790141107004050750841D405064090741402483A0350
1001
ACAD
1000
AcDbSavedByObjectVersion
1070
     0
  0
ACAD_PROXY_OBJECT
  5
3C
102
{ACAD_REACTORS
330
2A
102
}
330
2A
100
AcDbProxyObject
 90
      499
 91
      501
 93
      444
310
42D3DD995C9A185B99D3D999915409028333333333333E33F0000000000000F9010790141107004050150941D405064090741402480A0350
1001
ACAD
1000
AcDbSavedByObjectVersion
1070
     0
  0
ACAD_PROXY_OBJECT
  5
33
102
{ACAD_REACTORS
330
2A
102
}
330
2A
100
AcDbProxyObject
 90
      499
 91
      501
 93
      428
310
425499585B1A5CDD1A58D08409038333333333333E33F0000000000000F9010740A907004050150800405405064090740C02480A1B40
1001
ACAD
1000
AcDbSavedByObjectVersion
1070
     0
  0
ACAD_PROXY_OBJECT
  5
42
102
{ACAD_REACTORS
330
2A
102
}
330
2A
100
AcDbProxyObject
 90
      499
 91
      501
 93
      420
310
4194DA1859195911B40902404333333333333E33F0000000000000F9010740A41107004050150800405405064090840C02480A0B40
1001
ACAD
1000
AcDbSavedByObjectVersion
1070
     0
  0
ACAD_PROXY_OBJECT
  5
41
102
{ACAD_REACTORS
330
2A
102
}
330
2A
100
AcDbProxyObject
 90
      499
 91
      501
 93
      516
310
4454DA18591959081DDA5D1A08195919D95CD1A40902404333333333333E33F0000000000000F901074090142907004050250800405405064090740C02480A0B40
1001
ACAD
1000
AcDbSavedByObjectVersion
1070
     0
  0
ACAD_PROXY_OBJECT
  5
3E
102
{ACAD_REACTORS
330
2A
102
}
330
2A
100
AcDbProxyObject
 90
      499
 91
      501
 93
      532
310
4394DA1859195CC81BD98811DC985E5174090240C333333333333E33F0000000000000F901079024090741D01000000000000111010841D405064090740C02480A0340
1001
ACAD
1000
AcDbSavedByObjectVersion
1070
     0
  0
ACAD_PROXY_OBJECT
  5
3F
102
{ACAD_REACTORS
330
2A
102
}
330
2A
100
AcDbProxyObject
 90
      499
 91
      501
 93
      476
310
41D4DAD95D18DA1E51840502408333333333333E33F0000000000000F901079024090741D01000000000000111010B41D405064090741802480A0340
1001
ACAD
1000
AcDbSavedByObjectVersion
1070
     0
  0
ACAD_PROXY_OBJECT
  5
37
102
{ACAD_REACTORS
330
2A
102
}
330
2A
100
AcDbProxyObject
 90
      499
 91
      501
 93
      412
310
41D51A1A58DAD95B90D409028333333333333E33F0000000000000F9010790141107004050150C41D405064090741402480A0350
1001
ACAD
1000
AcDbSavedByObjectVersion
1070
     0
  0
ACAD_PROXY_OBJECT
  5
30
102
{ACAD_REACTORS
330
2A
102
}
330
2A
100
AcDbProxyObject
 90
      499
 91
      501
 93
      420
310
4255DA5C99599C985B595059028333333333333E33F0000000000000F90107901411070040501600405405064090740C02480A0340
1001
ACAD
1000
AcDbSavedByObjectVersion
1070
     0
  0
ACAD_PROXY_OBJECT
  5
40
102
{ACAD_REACTORS
330
2A
102
}
330
2A
100
AcDbProxyObject
 90
      499
 91
      501
 93
      404
310
41560B54985E51940902404000000000000E03F0000000000000F9010740501907004050150841D405064090740C02480A1B40
1001
ACAD
1000
AcDbSavedByObjectVersion
1070
     0
  0
XRECORD
  5
74B
102
{ACAD_REACTORS
330
741
102
}
330
741
100
AcDbXrecord
340
0
  0
XRECORD
  5
74A
102
{ACAD_REACTORS
330
741
102
}
330
741
100
AcDbXrecord
 90
        0
  0
XRECORD
  5
761
102
{ACAD_REACTORS
330
741
102
}
330
741
100
AcDbXrecord
1000
DSTYLE
1002
{
1070
   340
340
11
1002
}
  0
XRECORD
  5
74C
102
{ACAD_REACTORS
330
741
102
}
330
741
100
AcDbXrecord
  1
{a29209fb-3504-486f-8642-e4234bd94beb}
  0
XRECORD
  5
744
102
{ACAD_REACTORS
330
741
102
}
330
741
100
AcDbXrecord
  1

  0
XRECORD
  5
749
102
{ACAD_REACTORS
330
741
102
}
330
741
100
AcDbXrecord
 90
        4
  0
XRECORD
  5
746
102
{ACAD_REACTORS
330
741
102
}
330
741
100
AcDbXrecord
340
1A
  0
XRECORD
  5
748
102
{ACAD_REACTORS
330
741
102
}
330
741
100
AcDbXrecord
 90
    10781
  0
XRECORD
  5
747
102
{ACAD_REACTORS
330
741
102
}
330
741
100
AcDbXrecord
340
19
  0
XRECORD
  5
74E
102
{ACAD_REACTORS
330
741
102
}
330
741
100
AcDbXrecord
 40
0.0
  0
XRECORD
  5
751
102
{ACAD_REACTORS
330
741
102
}
330
741
100
AcDbXrecord
340
0
  0
XRECORD
  5
757
102
{ACAD_REACTORS
330
741
102
}
330
741
100
AcDbXrecord
 10
0.0
 20
0.0
 30
0.0
  0
XRECORD
  5
753
102
{ACAD_REACTORS
330
741
102
}
330
741
100
AcDbXrecord
 10
0.0
 20
0.0
 30
0.0
  0
XRECORD
  5
756
102
{ACAD_REACTORS
330
741
102
}
330
741
100
AcDbXrecord
 10
0.0
 20
0.0
 30
0.0
  0
XRECORD
  5
754
102
{ACAD_REACTORS
330
741
102
}
330
741
100
AcDbXrecord
 10
0.0
 20
0.0
 30
0.0
  0
XRECORD
  5
755
102
{ACAD_REACTORS
330
741
102
}
330
741
100
AcDbXrecord
 10
0.0
 20
0.0
 30
0.0
  0
XRECORD
  5
752
102
{ACAD_REACTORS
330
741
102
}
330
741
100
AcDbXrecord
 10
0.0
 20
0.0
 30
0.0
  0
XRECORD
  5
74F
102
{ACAD_REACTORS
330
741
102
}
330
741
100
AcDbXrecord
340
0
  0
XRECORD
  5
750
102
{ACAD_REACTORS
330
741
102
}
330
741
100
AcDbXrecord
 70
     0
  0
XRECORD
  5
745
102
{ACAD_REACTORS
330
741
102
}
330
741
100
AcDbXrecord
  1

  0
XRECORD
  5
742
102
{ACAD_REACTORS
330
741
102
}
330
741
100
AcDbXrecord
 90
        1
  0
XRECORD
  5
743
102
{ACAD_REACTORS
330
741
102
}
330
741
100
AcDbXrecord
 90
       70
  0
XRECORD
  5
75A
102
{ACAD_REACTORS
330
741
102
}
330
741
100
AcDbXrecord
340
0
  0
XRECORD
  5
760
102
{ACAD_REACTORS
330
741
102
}
330
741
100
AcDbXrecord
 10
0.0
 20
0.0
 30
0.0
  0
XRECORD
  5
75C
102
{ACAD_REACTORS
330
741
102
}
330
741
100
AcDbXrecord
 10
0.0
 20
0.0
 30
0.0
  0
XRECORD
  5
75F
102
{ACAD_REACTORS
330
741
102
}
330
741
100
AcDbXrecord
 10
0.0
 20
0.0
 30
0.0
  0
XRECORD
  5
75D
102
{ACAD_REACTORS
330
741
102
}
330
741
100
AcDbXrecord
 10
0.0
 20
0.0
 30
0.0
  0
XRECORD
  5
75E
102
{ACAD_REACTORS
330
741
102
}
330
741
100
AcDbXrecord
 10
0.0
 20
0.0
 30
0.0
  0
XRECORD
  5
75B
102
{ACAD_REACTORS
330
741
102
}
330
741
100
AcDbXrecord
 10
0.0
 20
0.0
 30
0.0
  0
XRECORD
  5
758
102
{ACAD_REACTORS
330
741
102
}
330
741
100
AcDbXrecord
340
0
  0
XRECORD
  5
759
102
{ACAD_REACTORS
330
741
102
}
330
741
100
AcDbXrecord
 70
     0
  0
XRECORD
  5
74D
102
{ACAD_REACTORS
330
741
102
}
330
741
100
AcDbXrecord
  1
{FAEB1C32-E019-11D5-929B-00C0DF256EC4}
  0
DICTIONARYVAR
  5
76F
102
{ACAD_REACTORS
330
762
102
}
330
762
100
DictionaryVariables
280
     0
  1
1:1
  0
DICTIONARYVAR
  5
769
102
{ACAD_REACTORS
330
762
102
}
330
762
100
DictionaryVariables
280
     0
  1
3.500000
  0
DICTIONARYVAR
  5
76A
102
{ACAD_REACTORS
330
762
102
}
330
762
100
DictionaryVariables
280
     0
  1
acadiso.lin
  0
DICTIONARYVAR
  5
764
102
{ACAD_REACTORS
330
762
102
}
330
762
100
DictionaryVariables
280
     0
  1
Standard
  0
DICTIONARYVAR
  5
763
102
{ACAD_REACTORS
330
762
102
}
330
762
100
DictionaryVariables
280
     0
  1
Standard
  0
DICTIONARYVAR
  5
76B
102
{ACAD_REACTORS
330
762
102
}
330
762
100
DictionaryVariables
280
     0
  1
2
  0
DICTIONARYVAR
  5
76C
102
{ACAD_REACTORS
330
762
102
}
330
762
100
DictionaryVariables
280
     0
  1
1
  0
DICTIONARYVAR
  5
770
102
{ACAD_REACTORS
330
762
102
}
330
762
100
DictionaryVariables
280
     0
  1
1
  0
DICTIONARYVAR
  5
766
102
{ACAD_REACTORS
330
762
102
}
330
762
100
DictionaryVariables
280
     0
  1
80.000000
  0
DICTIONARYVAR
  5
765
102
{ACAD_REACTORS
330
762
102
}
330
762
100
DictionaryVariables
280
     0
  1
5.000000
  0
DICTIONARY
  5
773
330
45
100
AcDbDictionary
280
     1
  3
ACAD_XREC_ROUNDTRIP
360
774
  0
DICTIONARY
  5
771
330
44
100
AcDbDictionary
280
     1
  3
ACAD_XREC_ROUNDTRIP
360
772
  0
DICTIONARY
  5
775
330
46
100
AcDbDictionary
280
     1
  3
ACAD_XREC_ROUNDTRIP
360
776
  0
XRECORD
  5
774
102
{ACAD_REACTORS
330
773
102
}
330
773
100
AcDbXrecord
102
MATERIAL
148
0.0
149
0.0
149
0.0
 93
        0
 94
      127
282
     0
 72
     1
 77
     1
171
     1
175
     1
179
     1
273
     0
  0
XRECORD
  5
772
102
{ACAD_REACTORS
330
771
102
}
330
771
100
AcDbXrecord
102
MATERIAL
148
0.0
149
0.0
149
0.0
 93
        0
 94
      127
282
     0
 72
     1
 77
     1
171
     1
175
     1
179
     1
273
     0
  0
XRECORD
  5
776
102
{ACAD_REACTORS
330
775
102
}
330
775
100
AcDbXrecord
102
MATERIAL
148
0.0
149
0.0
149
0.0
 93
        0
 94
      127
282
     0
 72
     1
 77
     1
171
     1
175
     1
179
     1
273
     0
  0
ENDSEC
  0
EOF
