  0
SECTION
  2
HEADER
  9
$ACADVER
  1
AC1014
  9
$ACADMAINTVER
 70
     9
  9
$DWGCODEPAGE
  3
ANSI_932
  9
$INSBASE
 10
0.0
 20
0.0
 30
0.0
  9
$EXTMIN
 10
50.0
 20
100.0
 30
0.0
  9
$EXTMAX
 10
3850.0
 20
2800.0
 30
0.0
  9
$LIMMIN
 10
0.0
 20
0.0
  9
$LIMMAX
 10
420.0
 20
297.0
  9
$ORTHOMODE
 70
     0
  9
$REGENMODE
 70
     1
  9
$FILLMODE
 70
     1
  9
$QTEXTMODE
 70
     0
  9
$MIRRTEXT
 70
     1
  9
$DRAGMODE
 70
     2
  9
$LTSCALE
 40
0.2
  9
$OSMODE
 70
    37
  9
$ATTMODE
 70
     1
  9
$TEXTSIZE
 40
2.5
  9
$TRACEWID
 40
1.0
  9
$TEXTSTYLE
  7
STANDARD
  9
$CLAYER
  8
LAY-10
  9
$CELTYPE
  6
BYLAYER
  9
$CECOLOR
 62
   256
  9
$CELTSCALE
 40
1.0
  9
$DELOBJ
 70
     1
  9
$DISPSILH
 70
     0
  9
$DIMSCALE
 40
1.0
  9
$DIMASZ
 40
2.5
  9
$DIMEXO
 40
0.625
  9
$DIMDLI
 40
3.75
  9
$DIMRND
 40
0.0
  9
$DIMDLE
 40
0.0
  9
$DIMEXE
 40
1.25
  9
$DIMTP
 40
0.0
  9
$DIMTM
 40
0.0
  9
$DIMTXT
 40
2.5
  9
$DIMCEN
 40
2.5
  9
$DIMTSZ
 40
0.0
  9
$DIMTOL
 70
     0
  9
$DIMLIM
 70
     0
  9
$DIMTIH
 70
     0
  9
$DIMTOH
 70
     0
  9
$DIMSE1
 70
     0
  9
$DIMSE2
 70
     0
  9
$DIMTAD
 70
     1
  9
$DIMZIN
 70
     8
  9
$DIMBLK
  1

  9
$DIMASO
 70
     1
  9
$DIMSHO
 70
     1
  9
$DIMPOST
  1

  9
$DIMAPOST
  1

  9
$DIMALT
 70
     0
  9
$DIMALTD
 70
     3
  9
$DIMALTF
 40
0.03937007874016
  9
$DIMLFAC
 40
1.0
  9
$DIMTOFL
 70
     1
  9
$DIMTVP
 40
0.0
  9
$DIMTIX
 70
     0
  9
$DIMSOXD
 70
     0
  9
$DIMSAH
 70
     0
  9
$DIMBLK1
  1

  9
$DIMBLK2
  1

  9
$DIMSTYLE
  2
ISO-25
  9
$DIMCLRD
 70
     0
  9
$DIMCLRE
 70
     0
  9
$DIMCLRT
 70
     0
  9
$DIMTFAC
 40
1.0
  9
$DIMGAP
 40
0.625
  9
$DIMJUST
 70
     0
  9
$DIMSD1
 70
     0
  9
$DIMSD2
 70
     0
  9
$DIMTOLJ
 70
     0
  9
$DIMTZIN
 70
     8
  9
$DIMALTZ
 70
     0
  9
$DIMALTTZ
 70
     0
  9
$DIMFIT
 70
     3
  9
$DIMUPT
 70
     0
  9
$DIMUNIT
 70
     2
  9
$DIMDEC
 70
     2
  9
$DIMTDEC
 70
     2
  9
$DIMALTU
 70
     2
  9
$DIMALTTD
 70
     3
  9
$DIMTXSTY
  7
STANDARD
  9
$DIMAUNIT
 70
     0
  9
$LUNITS
 70
     2
  9
$LUPREC
 70
     4
  9
$SKETCHINC
 40
1.0
  9
$FILLETRAD
 40
10.0
  9
$AUNITS
 70
     0
  9
$AUPREC
 70
     0
  9
$MENU
  1
.
  9
$ELEVATION
 40
0.0
  9
$PELEVATION
 40
0.0
  9
$THICKNESS
 40
0.0
  9
$LIMCHECK
 70
     0
  9
$CHAMFERA
 40
0.0
  9
$CHAMFERB
 40
0.0
  9
$CHAMFERC
 40
0.0
  9
$CHAMFERD
 40
0.0
  9
$SKPOLY
 70
     0
  9
$TDCREATE
 40
2459229.33784088
  9
$TDUPDATE
 40
2459229.337841366
  9
$TDINDWG
 40
0.0000000116
  9
$TDUSRTIMER
 40
0.0000000116
  9
$USRTIMER
 70
     1
  9
$ANGBASE
 50
0.0
  9
$ANGDIR
 70
     0
  9
$PDMODE
 70
     0
  9
$PDSIZE
 40
0.0
  9
$PLINEWID
 40
0.0
  9
$COORDS
 70
     1
  9
$SPLFRAME
 70
     0
  9
$SPLINETYPE
 70
     6
  9
$SPLINESEGS
 70
     8
  9
$ATTDIA
 70
     0
  9
$ATTREQ
 70
     1
  9
$HANDLING
 70
     1
  9
$HANDSEED
  5
419
  9
$SURFTAB1
 70
     6
  9
$SURFTAB2
 70
     6
  9
$SURFTYPE
 70
     6
  9
$SURFU
 70
     6
  9
$SURFV
 70
     6
  9
$UCSNAME
  2

  9
$UCSORG
 10
0.0
 20
0.0
 30
0.0
  9
$UCSXDIR
 10
1.0
 20
0.0
 30
0.0
  9
$UCSYDIR
 10
0.0
 20
1.0
 30
0.0
  9
$PUCSNAME
  2

  9
$PUCSORG
 10
0.0
 20
0.0
 30
0.0
  9
$PUCSXDIR
 10
1.0
 20
0.0
 30
0.0
  9
$PUCSYDIR
 10
0.0
 20
1.0
 30
0.0
  9
$USERI1
 70
     0
  9
$USERI2
 70
     0
  9
$USERI3
 70
     0
  9
$USERI4
 70
     0
  9
$USERI5
 70
     0
  9
$USERR1
 40
0.0
  9
$USERR2
 40
0.0
  9
$USERR3
 40
0.0
  9
$USERR4
 40
0.0
  9
$USERR5
 40
0.0
  9
$WORLDVIEW
 70
     1
  9
$SHADEDGE
 70
     3
  9
$SHADEDIF
 70
    70
  9
$TILEMODE
 70
     1
  9
$MAXACTVP
 70
    64
  9
$PINSBASE
 10
0.0
 20
0.0
 30
0.0
  9
$PLIMCHECK
 70
     0
  9
$PEXTMIN
 10
1.000000000000000E+20
 20
1.000000000000000E+20
 30
1.000000000000000E+20
  9
$PEXTMAX
 10
-1.000000000000000E+20
 20
-1.000000000000000E+20
 30
-1.000000000000000E+20
  9
$PLIMMIN
 10
0.0
 20
0.0
  9
$PLIMMAX
 10
420.0
 20
297.0
  9
$UNITMODE
 70
     0
  9
$VISRETAIN
 70
     1
  9
$PLINEGEN
 70
     0
  9
$PSLTSCALE
 70
     1
  9
$TREEDEPTH
 70
  3020
  9
$PICKSTYLE
 70
     1
  9
$CMLSTYLE
  2
STANDARD
  9
$CMLJUST
 70
     0
  9
$CMLSCALE
 40
20.0
  9
$PROXYGRAPHICS
 70
     1
  9
$MEASUREMENT
 70
     1
  0
ENDSEC
  0
SECTION
  2
CLASSES
  0
CLASS
  1
ACDBDICTIONARYWDFLT
  2
AcDbDictionaryWithDefault
  3
ObjectDBX Classes
 90
        0
280
     0
281
     0
  0
CLASS
  1
VISUALSTYLE
  2
AcDbVisualStyle
  3
ObjectDBX Classes
 90
     4095
280
     0
281
     0
  0
CLASS
  1
MATERIAL
  2
AcDbMaterial
  3
ObjectDBX Classes
 90
     1153
280
     0
281
     0
  0
CLASS
  1
SCALE
  2
AcDbScale
  3
ObjectDBX Classes
 90
     1153
280
     0
281
     0
  0
CLASS
  1
TABLESTYLE
  2
AcDbTableStyle
  3
ObjectDBX Classes
 90
     4095
280
     0
281
     0
  0
CLASS
  1
MLEADERSTYLE
  2
AcDbMLeaderStyle
  3
ACDB_MLEADERSTYLE_CLASS
 90
     4095
280
     0
281
     0
  0
CLASS
  1
SUN
  2
AcDbSun
  3
SCENEOE
 90
     1153
280
     0
281
     0
  0
CLASS
  1
DICTIONARYVAR
  2
AcDbDictionaryVar
  3
ObjectDBX Classes
 90
        0
280
     0
281
     0
  0
CLASS
  1
XRECORD
  2
AcDbXrecord
  3
ObjectDBX Classes
 90
        0
280
     0
281
     0
  0
CLASS
  1
LWPOLYLINE
  2
AcDbPolyline
  3
ObjectDBX Classes
 90
        0
280
     0
281
     1
  0
CLASS
  1
HATCH
  2
AcDbHatch
  3
ObjectDBX Classes
 90
        0
280
     0
281
     1
  0
CLASS
  1
ACDBPLACEHOLDER
  2
AcDbPlaceHolder
  3
ObjectDBX Classes
 90
        0
280
     0
281
     0
  0
CLASS
  1
LAYOUT
  2
AcDbLayout
  3
ObjectDBX Classes
 90
        0
280
     0
281
     0
  0
ENDSEC
  0
SECTION
  2
TABLES
  0
TABLE
  2
VPORT
  5
8
102
{ACAD_XDICTIONARY
360
40E
102
}
330
0
100
AcDbSymbolTable
 70
     1
  0
VPORT
  5
29
330
8
100
AcDbSymbolTableRecord
100
AcDbViewportTableRecord
  2
*ACTIVE
 70
     0
 10
0.0
 20
0.0
 11
1.0
 21
1.0
 12
1950.0
 22
1450.0
 13
0.0
 23
0.0
 14
10.0
 24
10.0
 15
10.0
 25
10.0
 16
0.0
 26
0.0
 36
1.0
 17
0.0
 27
0.0
 37
0.0
 40
2700.0
 41
1.407407407407408
 42
50.0
 43
0.0
 44
0.0
 50
0.0
 51
0.0
 71
     0
 72
  1000
 73
     1
 74
     3
 75
     0
 76
     0
 77
     0
 78
     0
  0
ENDTAB
  0
TABLE
  2
LTYPE
  5
5
330
0
100
AcDbSymbolTable
 70
     6
  0
LTYPE
  5
14
330
5
100
AcDbSymbolTableRecord
100
AcDbLinetypeTableRecord
  2
BYBLOCK
 70
     0
  3

 72
    65
 73
     0
 40
0.0
  0
LTYPE
  5
15
330
5
100
AcDbSymbolTableRecord
100
AcDbLinetypeTableRecord
  2
BYLAYER
 70
     0
  3

 72
    65
 73
     0
 40
0.0
  0
LTYPE
  5
16
330
5
100
AcDbSymbolTableRecord
100
AcDbLinetypeTableRecord
  2
CONTINUOUS
 70
     0
  3
Solid line
 72
    65
 73
     0
 40
0.0
  0
LTYPE
  5
6E
330
5
100
AcDbSymbolTableRecord
100
AcDbLinetypeTableRecord
  2
HIDDEN
 70
     0
  3
Hidden __ __ __ __ __ __ __ __ __ __ __ __ __ __
 72
    65
 73
     2
 40
9.524999999999999
 49
6.35
 74
     0
 49
-3.175
 74
     0
  0
LTYPE
  5
6F
330
5
100
AcDbSymbolTableRecord
100
AcDbLinetypeTableRecord
  2
CENTER
 70
     0
  3
Center ____ _ ____ _ ____ _ ____ _ ____ _ ____
 72
    65
 73
     4
 40
50.8
 49
31.75
 74
     0
 49
-6.35
 74
     0
 49
6.35
 74
     0
 49
-6.35
 74
     0
  0
LTYPE
  5
70
330
5
100
AcDbSymbolTableRecord
100
AcDbLinetypeTableRecord
  2
PHANTOM
 70
     0
  3
Phantom ______  __  __  ______  __  __  ______ 
 72
    65
 73
     6
 40
63.50000000000001
 49
31.75
 74
     0
 49
-6.35
 74
     0
 49
6.35
 74
     0
 49
-6.35
 74
     0
 49
6.35
 74
     0
 49
-6.35
 74
     0
  0
LTYPE
  5
71
330
5
100
AcDbSymbolTableRecord
100
AcDbLinetypeTableRecord
  2
ACAD_ISO06W100
 70
     0
  3
ISO long-dash triple-dot ____ ... ____ ... ____
 72
    65
 73
     8
 40
36.0
 49
24.0
 74
     0
 49
-3.0
 74
     0
 49
0.0
 74
     0
 49
-3.0
 74
     0
 49
0.0
 74
     0
 49
-3.0
 74
     0
 49
0.0
 74
     0
 49
-3.0
 74
     0
  0
LTYPE
  5
72
330
5
100
AcDbSymbolTableRecord
100
AcDbLinetypeTableRecord
  2
ACAD_ISO15W100
 70
     0
  3
ISO double-dash triple-dot __ __ . . . __ __ . .
 72
    65
 73
    10
 40
39.0
 49
12.0
 74
     0
 49
-3.0
 74
     0
 49
12.0
 74
     0
 49
-3.0
 74
     0
 49
0.0
 74
     0
 49
-3.0
 74
     0
 49
0.0
 74
     0
 49
-3.0
 74
     0
 49
0.0
 74
     0
 49
-3.0
 74
     0
  0
ENDTAB
  0
TABLE
  2
LAYER
  5
2
330
0
100
AcDbSymbolTable
 70
     6
  0
LAYER
  5
10
330
2
100
AcDbSymbolTableRecord
100
AcDbLayerTableRecord
  2
0
 70
     0
 62
     7
  6
CONTINUOUS
  0
LAYER
  5
75
330
2
100
AcDbSymbolTableRecord
100
AcDbLayerTableRecord
  2
LAY-10
 70
     0
 62
     7
  6
CONTINUOUS
  0
LAYER
  5
76
330
2
100
AcDbSymbolTableRecord
100
AcDbLayerTableRecord
  2
LAY-11
 70
     0
 62
     7
  6
CONTINUOUS
  0
LAYER
  5
77
330
2
100
AcDbSymbolTableRecord
100
AcDbLayerTableRecord
  2
LAY-20
 70
     0
 62
     7
  6
CONTINUOUS
  0
LAYER
  5
78
330
2
100
AcDbSymbolTableRecord
100
AcDbLayerTableRecord
  2
LAY-255
 70
     0
 62
     7
  6
CONTINUOUS
  0
LAYER
  5
375
330
2
100
AcDbSymbolTableRecord
100
AcDbLayerTableRecord
  2
DEFPOINTS
 70
     0
 62
     7
  6
CONTINUOUS
  0
ENDTAB
  0
TABLE
  2
STYLE
  5
3
330
0
100
AcDbSymbolTable
 70
     4
  0
STYLE
  5
11
330
3
100
AcDbSymbolTableRecord
100
AcDbTextStyleTableRecord
  2
STANDARD
 70
     0
 40
0.0
 41
1.0
 50
0.0
 71
     0
 42
2.5
  3
simplex
  4
bigfont
  0
STYLE
  5
73
330
3
100
AcDbSymbolTableRecord
100
AcDbTextStyleTableRecord
  2
EXCADSTD
 70
     0
 40
0.0
 41
1.0
 50
0.0
 71
     0
 42
2.5
  3
simplex
  4
bigfont
  0
STYLE
  5
74
330
3
100
AcDbSymbolTableRecord
100
AcDbTextStyleTableRecord
  2
EXCADVERT
 70
     4
 40
0.0
 41
1.0
 50
0.0
 71
     0
 42
2.5
  3
simplex
  4
bigfont
  0
STYLE
  5
373
330
3
100
AcDbSymbolTableRecord
100
AcDbTextStyleTableRecord
  2
EXCADDIM1
 70
     0
 40
0.0
 41
0.84
 50
0.0
 71
     0
 42
2.5
  3
simplex
  4
bigfont
  0
ENDTAB
  0
TABLE
  2
VIEW
  5
6
330
0
100
AcDbSymbolTable
 70
     0
  0
ENDTAB
  0
TABLE
  2
UCS
  5
7
330
0
100
AcDbSymbolTable
 70
     0
  0
ENDTAB
  0
TABLE
  2
APPID
  5
9
330
0
100
AcDbSymbolTable
 70
     2
  0
APPID
  5
12
330
9
100
AcDbSymbolTableRecord
100
AcDbRegAppTableRecord
  2
ACAD
 70
     0
  0
APPID
  5
418
330
9
100
AcDbSymbolTableRecord
100
AcDbRegAppTableRecord
  2
ACAD_MLEADERVER
 70
     0
  0
ENDTAB
  0
TABLE
  2
DIMSTYLE
  5
A
330
0
100
AcDbSymbolTable
 70
     1
  0
DIMSTYLE
105
27
102
{ACAD_REACTORS
330
374
330
382
330
38F
330
39B
330
3A8
102
}
330
A
100
AcDbSymbolTableRecord
100
AcDbDimStyleTableRecord
  2
ISO-25
 70
     0
  3

  4

  5

  6

  7

 40
1.0
 41
2.5
 42
0.625
 43
3.75
 44
1.25
 45
0.0
 46
0.0
 47
0.0
 48
0.0
140
2.5
141
2.5
142
0.0
143
0.03937007874016
144
1.0
145
0.0
146
1.0
147
0.625
 71
     0
 72
     0
 73
     0
 74
     0
 75
     0
 76
     0
 77
     1
 78
     8
170
     0
171
     3
172
     1
173
     0
174
     0
175
     0
176
     0
177
     0
178
     0
270
     2
271
     2
272
     2
273
     2
274
     3
340
11
275
     0
280
     0
281
     0
282
     0
283
     0
284
     8
285
     0
286
     0
287
     5
288
     0
  0
ENDTAB
  0
TABLE
  2
BLOCK_RECORD
  5
1
330
0
100
AcDbSymbolTable
 70
    19
  0
BLOCK_RECORD
  5
1F
330
1
100
AcDbSymbolTableRecord
100
AcDbBlockTableRecord
  2
*MODEL_SPACE
  0
BLOCK_RECORD
  5
1B
330
1
100
AcDbSymbolTableRecord
100
AcDbBlockTableRecord
  2
*PAPER_SPACE
  0
BLOCK_RECORD
  5
79
330
1
100
AcDbSymbolTableRecord
100
AcDbBlockTableRecord
  2
EX_NORM
  0
BLOCK_RECORD
  5
7C
330
1
100
AcDbSymbolTableRecord
100
AcDbBlockTableRecord
  2
EX_BNORM
  0
BLOCK_RECORD
  5
7F
330
1
100
AcDbSymbolTableRecord
100
AcDbBlockTableRecord
  2
EX_BCIR
  0
BLOCK_RECORD
  5
82
330
1
100
AcDbSymbolTableRecord
100
AcDbBlockTableRecord
  2
EX_RCIVIL
  0
BLOCK_RECORD
  5
85
330
1
100
AcDbSymbolTableRecord
100
AcDbBlockTableRecord
  2
EX_SLANT
  0
BLOCK_RECORD
  5
88
330
1
100
AcDbSymbolTableRecord
100
AcDbBlockTableRecord
  2
EX_NONE
  0
BLOCK_RECORD
  5
8B
330
1
100
AcDbSymbolTableRecord
100
AcDbBlockTableRecord
  2
EX_CIVIL
  0
BLOCK_RECORD
  5
8E
330
1
100
AcDbSymbolTableRecord
100
AcDbBlockTableRecord
  2
EX_WCIR
  0
BLOCK_RECORD
  5
91
330
1
100
AcDbSymbolTableRecord
100
AcDbBlockTableRecord
  2
EX_WCIR2
  0
BLOCK_RECORD
  5
94
330
1
100
AcDbSymbolTableRecord
100
AcDbBlockTableRecord
  2
EX_WNORM
  0
BLOCK_RECORD
  5
97
330
1
100
AcDbSymbolTableRecord
100
AcDbBlockTableRecord
  2
EX_NNORM
  0
BLOCK_RECORD
  5
9A
330
1
100
AcDbSymbolTableRecord
100
AcDbBlockTableRecord
  2
EX_BBOX
  0
BLOCK_RECORD
  5
9D
330
1
100
AcDbSymbolTableRecord
100
AcDbBlockTableRecord
  2
EX_WBOX
  0
BLOCK_RECORD
  5
A0
330
1
100
AcDbSymbolTableRecord
100
AcDbBlockTableRecord
  2
EX_INTEGRAL
  0
BLOCK_RECORD
  5
376
330
1
100
AcDbSymbolTableRecord
100
AcDbBlockTableRecord
  2
*D15
  0
BLOCK_RECORD
  5
383
330
1
100
AcDbSymbolTableRecord
100
AcDbBlockTableRecord
  2
*D16
  0
BLOCK_RECORD
  5
390
330
1
100
AcDbSymbolTableRecord
100
AcDbBlockTableRecord
  2
*D17
  0
BLOCK_RECORD
  5
39C
330
1
100
AcDbSymbolTableRecord
100
AcDbBlockTableRecord
  2
*D18
  0
BLOCK_RECORD
  5
3A9
330
1
100
AcDbSymbolTableRecord
100
AcDbBlockTableRecord
  2
*D19
  0
ENDTAB
  0
ENDSEC
  0
SECTION
  2
BLOCKS
  0
BLOCK
  5
20
330
1F
100
AcDbEntity
  8
0
100
AcDbBlockBegin
  2
*MODEL_SPACE
 70
     0
 10
0.0
 20
0.0
 30
0.0
  3
*MODEL_SPACE
  1

  0
ENDBLK
  5
21
330
1F
100
AcDbEntity
  8
0
100
AcDbBlockEnd
  0
BLOCK
  5
1C
330
1B
100
AcDbEntity
 67
     1
  8
0
100
AcDbBlockBegin
  2
*PAPER_SPACE
 70
     0
 10
0.0
 20
0.0
 30
0.0
  3
*PAPER_SPACE
  1

  0
ENDBLK
  5
1D
330
1B
100
AcDbEntity
 67
     1
  8
0
100
AcDbBlockEnd
  0
BLOCK
  5
7A
330
79
100
AcDbEntity
  8
0
100
AcDbBlockBegin
  2
EX_NORM
 70
     0
 10
0.0
 20
0.0
 30
0.0
  3
EX_NORM
  1

  0
LINE
  5
A3
330
79
100
AcDbEntity
  8
0
  6
CONTINUOUS
 62
     0
100
AcDbLine
 10
0.0
 20
0.0
 30
0.0
 11
-1.0
 21
0.0
 31
0.0
  0
LINE
  5
A4
330
79
100
AcDbEntity
  8
0
  6
CONTINUOUS
 62
     0
100
AcDbLine
 10
0.0
 20
0.0
 30
0.0
 11
-1.0
 21
0.166666667
 31
0.0
  0
LINE
  5
A5
330
79
100
AcDbEntity
  8
0
  6
CONTINUOUS
 62
     0
100
AcDbLine
 10
0.0
 20
0.0
 30
0.0
 11
-1.0
 21
-0.166666667
 31
0.0
  0
ENDBLK
  5
7B
330
79
100
AcDbEntity
  8
0
100
AcDbBlockEnd
  0
BLOCK
  5
7D
330
7C
100
AcDbEntity
  8
0
100
AcDbBlockBegin
  2
EX_BNORM
 70
     0
 10
0.0
 20
0.0
 30
0.0
  3
EX_BNORM
  1

  0
LINE
  5
A6
330
7C
100
AcDbEntity
  8
0
  6
CONTINUOUS
 62
     0
100
AcDbLine
 10
0.0
 20
0.0
 30
0.0
 11
-1.0
 21
0.0
 31
0.0
  0
LINE
  5
A7
330
7C
100
AcDbEntity
  8
0
  6
CONTINUOUS
 62
     0
100
AcDbLine
 10
0.0
 20
0.0
 30
0.0
 11
-1.0
 21
0.166666667
 31
0.0
  0
LINE
  5
A8
330
7C
100
AcDbEntity
  8
0
  6
CONTINUOUS
 62
     0
100
AcDbLine
 10
0.0
 20
0.0
 30
0.0
 11
-1.0
 21
-0.166666667
 31
0.0
  0
LINE
  5
A9
330
7C
100
AcDbEntity
  8
0
  6
CONTINUOUS
 62
     0
100
AcDbLine
 10
0.0
 20
0.0
 30
0.0
 11
-1.0
 21
0.083333333
 31
0.0
  0
LINE
  5
AA
330
7C
100
AcDbEntity
  8
0
  6
CONTINUOUS
 62
     0
100
AcDbLine
 10
0.0
 20
0.0
 30
0.0
 11
-1.0
 21
-0.083333333
 31
0.0
  0
LINE
  5
AB
330
7C
100
AcDbEntity
  8
0
  6
CONTINUOUS
 62
     0
100
AcDbLine
 10
-1.0
 20
0.166666667
 30
0.0
 11
-1.0
 21
-0.166666667
 31
0.0
  0
ENDBLK
  5
7E
330
7C
100
AcDbEntity
  8
0
100
AcDbBlockEnd
  0
BLOCK
  5
80
330
7F
100
AcDbEntity
  8
0
100
AcDbBlockBegin
  2
EX_BCIR
 70
     0
 10
0.0
 20
0.0
 30
0.0
  3
EX_BCIR
  1

  0
LINE
  5
AC
330
7F
100
AcDbEntity
  8
0
  6
CONTINUOUS
 62
     0
100
AcDbLine
 10
0.0
 20
0.0
 30
0.0
 11
-1.0
 21
0.0
 31
0.0
  0
CIRCLE
  5
AD
330
7F
100
AcDbEntity
  8
0
  6
CONTINUOUS
 62
     0
100
AcDbCircle
 10
0.0
 20
0.0
 30
0.0
 40
0.5
  0
CIRCLE
  5
AE
330
7F
100
AcDbEntity
  8
0
  6
CONTINUOUS
 62
     0
100
AcDbCircle
 10
0.0
 20
0.0
 30
0.0
 40
0.25
  0
ENDBLK
  5
81
330
7F
100
AcDbEntity
  8
0
100
AcDbBlockEnd
  0
BLOCK
  5
83
330
82
100
AcDbEntity
  8
0
100
AcDbBlockBegin
  2
EX_RCIVIL
 70
     0
 10
0.0
 20
0.0
 30
0.0
  3
EX_RCIVIL
  1

  0
LINE
  5
AF
330
82
100
AcDbEntity
  8
0
  6
CONTINUOUS
 62
     0
100
AcDbLine
 10
0.0
 20
0.0
 30
0.0
 11
-1.0
 21
0.0
 31
0.0
  0
LINE
  5
B0
330
82
100
AcDbEntity
  8
0
  6
CONTINUOUS
 62
     0
100
AcDbLine
 10
-1.0
 20
-0.25
 30
0.0
 11
0.0
 21
-0.25
 31
0.0
  0
LINE
  5
B1
330
82
100
AcDbEntity
  8
0
  6
CONTINUOUS
 62
     0
100
AcDbLine
 10
-1.0
 20
-0.125
 30
0.0
 11
0.0
 21
-0.125
 31
0.0
  0
ENDBLK
  5
84
330
82
100
AcDbEntity
  8
0
100
AcDbBlockEnd
  0
BLOCK
  5
86
330
85
100
AcDbEntity
  8
0
100
AcDbBlockBegin
  2
EX_SLANT
 70
     0
 10
0.0
 20
0.0
 30
0.0
  3
EX_SLANT
  1

  0
LINE
  5
B2
330
85
100
AcDbEntity
  8
0
  6
CONTINUOUS
 62
     0
100
AcDbLine
 10
0.0
 20
0.0
 30
0.0
 11
-1.0
 21
0.0
 31
0.0
  0
LINE
  5
B3
330
85
100
AcDbEntity
  8
0
  6
CONTINUOUS
 62
     0
100
AcDbLine
 10
0.707106781
 20
0.707106781
 30
0.0
 11
-0.707106781
 21
-0.707106781
 31
0.0
  0
ENDBLK
  5
87
330
85
100
AcDbEntity
  8
0
100
AcDbBlockEnd
  0
BLOCK
  5
89
330
88
100
AcDbEntity
  8
0
100
AcDbBlockBegin
  2
EX_NONE
 70
     0
 10
0.0
 20
0.0
 30
0.0
  3
EX_NONE
  1

  0
LINE
  5
B4
330
88
100
AcDbEntity
  8
0
  6
CONTINUOUS
 62
     0
100
AcDbLine
 10
0.0
 20
0.0
 30
0.0
 11
-1.0
 21
0.0
 31
0.0
  0
ENDBLK
  5
8A
330
88
100
AcDbEntity
  8
0
100
AcDbBlockEnd
  0
BLOCK
  5
8C
330
8B
100
AcDbEntity
  8
0
100
AcDbBlockBegin
  2
EX_CIVIL
 70
     0
 10
0.0
 20
0.0
 30
0.0
  3
EX_CIVIL
  1

  0
LINE
  5
B5
330
8B
100
AcDbEntity
  8
0
  6
CONTINUOUS
 62
     0
100
AcDbLine
 10
0.0
 20
0.0
 30
0.0
 11
-1.0
 21
0.0
 31
0.0
  0
LINE
  5
B6
330
8B
100
AcDbEntity
  8
0
  6
CONTINUOUS
 62
     0
100
AcDbLine
 10
-1.0
 20
0.25
 30
0.0
 11
0.0
 21
0.25
 31
0.0
  0
LINE
  5
B7
330
8B
100
AcDbEntity
  8
0
  6
CONTINUOUS
 62
     0
100
AcDbLine
 10
-1.0
 20
0.125
 30
0.0
 11
0.0
 21
0.125
 31
0.0
  0
ENDBLK
  5
8D
330
8B
100
AcDbEntity
  8
0
100
AcDbBlockEnd
  0
BLOCK
  5
8F
330
8E
100
AcDbEntity
  8
0
100
AcDbBlockBegin
  2
EX_WCIR
 70
     0
 10
0.0
 20
0.0
 30
0.0
  3
EX_WCIR
  1

  0
LINE
  5
B8
330
8E
100
AcDbEntity
  8
0
  6
CONTINUOUS
 62
     0
100
AcDbLine
 10
0.0
 20
0.0
 30
0.0
 11
-1.0
 21
0.0
 31
0.0
  0
CIRCLE
  5
B9
330
8E
100
AcDbEntity
  8
0
  6
CONTINUOUS
 62
     0
100
AcDbCircle
 10
0.0
 20
0.0
 30
0.0
 40
0.5
  0
ENDBLK
  5
90
330
8E
100
AcDbEntity
  8
0
100
AcDbBlockEnd
  0
BLOCK
  5
92
330
91
100
AcDbEntity
  8
0
100
AcDbBlockBegin
  2
EX_WCIR2
 70
     0
 10
0.0
 20
0.0
 30
0.0
  3
EX_WCIR2
  1

  0
LINE
  5
BA
330
91
100
AcDbEntity
  8
0
  6
CONTINUOUS
 62
     0
100
AcDbLine
 10
-0.5
 20
0.0
 30
0.0
 11
-1.0
 21
0.0
 31
0.0
  0
CIRCLE
  5
BB
330
91
100
AcDbEntity
  8
0
  6
CONTINUOUS
 62
     0
100
AcDbCircle
 10
0.0
 20
0.0
 30
0.0
 40
0.5
  0
ENDBLK
  5
93
330
91
100
AcDbEntity
  8
0
100
AcDbBlockEnd
  0
BLOCK
  5
95
330
94
100
AcDbEntity
  8
0
100
AcDbBlockBegin
  2
EX_WNORM
 70
     0
 10
0.0
 20
0.0
 30
0.0
  3
EX_WNORM
  1

  0
LINE
  5
BC
330
94
100
AcDbEntity
  8
0
  6
CONTINUOUS
 62
     0
100
AcDbLine
 10
-1.0
 20
0.0
 30
0.0
 11
-1.0
 21
0.0
 31
0.0
  0
LINE
  5
BD
330
94
100
AcDbEntity
  8
0
  6
CONTINUOUS
 62
     0
100
AcDbLine
 10
0.0
 20
0.0
 30
0.0
 11
-1.0
 21
0.166666667
 31
0.0
  0
LINE
  5
BE
330
94
100
AcDbEntity
  8
0
  6
CONTINUOUS
 62
     0
100
AcDbLine
 10
0.0
 20
0.0
 30
0.0
 11
-1.0
 21
-0.166666667
 31
0.0
  0
LINE
  5
BF
330
94
100
AcDbEntity
  8
0
  6
CONTINUOUS
 62
     0
100
AcDbLine
 10
-1.0
 20
0.166666667
 30
0.0
 11
-1.0
 21
-0.166666667
 31
0.0
  0
ENDBLK
  5
96
330
94
100
AcDbEntity
  8
0
100
AcDbBlockEnd
  0
BLOCK
  5
98
330
97
100
AcDbEntity
  8
0
100
AcDbBlockBegin
  2
EX_NNORM
 70
     0
 10
0.0
 20
0.0
 30
0.0
  3
EX_NNORM
  1

  0
LINE
  5
C0
330
97
100
AcDbEntity
  8
0
  6
CONTINUOUS
 62
     0
100
AcDbLine
 10
0.0
 20
0.0
 30
0.0
 11
-1.0
 21
0.0
 31
0.0
  0
LINE
  5
C1
330
97
100
AcDbEntity
  8
0
  6
CONTINUOUS
 62
     0
100
AcDbLine
 10
0.0
 20
0.0
 30
0.0
 11
-1.0
 21
0.166666667
 31
0.0
  0
LINE
  5
C2
330
97
100
AcDbEntity
  8
0
  6
CONTINUOUS
 62
     0
100
AcDbLine
 10
0.0
 20
0.0
 30
0.0
 11
-1.0
 21
-0.166666667
 31
0.0
  0
LINE
  5
C3
330
97
100
AcDbEntity
  8
0
  6
CONTINUOUS
 62
     0
100
AcDbLine
 10
-1.0
 20
0.166666667
 30
0.0
 11
-1.0
 21
-0.166666667
 31
0.0
  0
ENDBLK
  5
99
330
97
100
AcDbEntity
  8
0
100
AcDbBlockEnd
  0
BLOCK
  5
9B
330
9A
100
AcDbEntity
  8
0
100
AcDbBlockBegin
  2
EX_BBOX
 70
     0
 10
0.0
 20
0.0
 30
0.0
  3
EX_BBOX
  1

  0
LINE
  5
C4
330
9A
100
AcDbEntity
  8
0
  6
CONTINUOUS
 62
     0
100
AcDbLine
 10
0.0
 20
0.0
 30
0.0
 11
-1.0
 21
0.0
 31
0.0
  0
LINE
  5
C5
330
9A
100
AcDbEntity
  8
0
  6
CONTINUOUS
 62
     0
100
AcDbLine
 10
-0.5
 20
0.5
 30
0.0
 11
0.5
 21
0.5
 31
0.0
  0
LINE
  5
C6
330
9A
100
AcDbEntity
  8
0
  6
CONTINUOUS
 62
     0
100
AcDbLine
 10
0.5
 20
0.5
 30
0.0
 11
0.5
 21
-0.5
 31
0.0
  0
LINE
  5
C7
330
9A
100
AcDbEntity
  8
0
  6
CONTINUOUS
 62
     0
100
AcDbLine
 10
0.5
 20
-0.5
 30
0.0
 11
-0.5
 21
-0.5
 31
0.0
  0
LINE
  5
C8
330
9A
100
AcDbEntity
  8
0
  6
CONTINUOUS
 62
     0
100
AcDbLine
 10
-0.5
 20
-0.5
 30
0.0
 11
-0.5
 21
0.5
 31
0.0
  0
LINE
  5
C9
330
9A
100
AcDbEntity
  8
0
  6
CONTINUOUS
 62
     0
100
AcDbLine
 10
-0.25
 20
0.25
 30
0.0
 11
0.25
 21
0.25
 31
0.0
  0
LINE
  5
CA
330
9A
100
AcDbEntity
  8
0
  6
CONTINUOUS
 62
     0
100
AcDbLine
 10
0.25
 20
0.25
 30
0.0
 11
0.25
 21
-0.25
 31
0.0
  0
LINE
  5
CB
330
9A
100
AcDbEntity
  8
0
  6
CONTINUOUS
 62
     0
100
AcDbLine
 10
0.25
 20
-0.25
 30
0.0
 11
-0.25
 21
-0.25
 31
0.0
  0
LINE
  5
CC
330
9A
100
AcDbEntity
  8
0
  6
CONTINUOUS
 62
     0
100
AcDbLine
 10
-0.25
 20
-0.25
 30
0.0
 11
-0.25
 21
0.25
 31
0.0
  0
ENDBLK
  5
9C
330
9A
100
AcDbEntity
  8
0
100
AcDbBlockEnd
  0
BLOCK
  5
9E
330
9D
100
AcDbEntity
  8
0
100
AcDbBlockBegin
  2
EX_WBOX
 70
     0
 10
0.0
 20
0.0
 30
0.0
  3
EX_WBOX
  1

  0
LINE
  5
CD
330
9D
100
AcDbEntity
  8
0
  6
CONTINUOUS
 62
     0
100
AcDbLine
 10
-0.5
 20
0.0
 30
0.0
 11
-1.0
 21
0.0
 31
0.0
  0
LINE
  5
CE
330
9D
100
AcDbEntity
  8
0
  6
CONTINUOUS
 62
     0
100
AcDbLine
 10
-0.5
 20
0.5
 30
0.0
 11
0.5
 21
0.5
 31
0.0
  0
LINE
  5
CF
330
9D
100
AcDbEntity
  8
0
  6
CONTINUOUS
 62
     0
100
AcDbLine
 10
0.5
 20
0.5
 30
0.0
 11
0.5
 21
-0.5
 31
0.0
  0
LINE
  5
D0
330
9D
100
AcDbEntity
  8
0
  6
CONTINUOUS
 62
     0
100
AcDbLine
 10
0.5
 20
-0.5
 30
0.0
 11
-0.5
 21
-0.5
 31
0.0
  0
LINE
  5
D1
330
9D
100
AcDbEntity
  8
0
  6
CONTINUOUS
 62
     0
100
AcDbLine
 10
-0.5
 20
-0.5
 30
0.0
 11
-0.5
 21
0.5
 31
0.0
  0
ENDBLK
  5
9F
330
9D
100
AcDbEntity
  8
0
100
AcDbBlockEnd
  0
BLOCK
  5
A1
330
A0
100
AcDbEntity
  8
0
100
AcDbBlockBegin
  2
EX_INTEGRAL
 70
     0
 10
0.0
 20
0.0
 30
0.0
  3
EX_INTEGRAL
  1

  0
LINE
  5
D2
330
A0
100
AcDbEntity
  8
0
  6
CONTINUOUS
 62
     0
100
AcDbLine
 10
0.0
 20
0.0
 30
0.0
 11
-1.0
 21
0.0
 31
0.0
  0
ARC
  5
D3
330
A0
100
AcDbEntity
  8
0
  6
CONTINUOUS
 62
     0
100
AcDbCircle
 10
0.542115
 20
0.164992
 30
0.0
 40
0.56667
100
AcDbArc
 50
73.07249033629006
 51
196.9275130221199
  0
ARC
  5
D4
330
A0
100
AcDbEntity
  8
0
  6
CONTINUOUS
 62
     0
100
AcDbCircle
 10
-0.542115
 20
-0.164992
 30
0.0
 40
0.56667
100
AcDbArc
 50
253.0724869220464
 51
16.9275130559125
  0
ENDBLK
  5
A2
330
A0
100
AcDbEntity
  8
0
100
AcDbBlockEnd
  0
BLOCK
  5
377
330
376
100
AcDbEntity
  8
0
100
AcDbBlockBegin
  2
*D15
 70
     1
 10
0.0
 20
0.0
 30
0.0
  3
*D15
  1

  0
LINE
  5
379
330
376
100
AcDbEntity
  8
LAY-20
  6
CONTINUOUS
 62
     4
100
AcDbLine
 10
962.4069841676
 20
896.5608504427001
 30
0.0
 11
962.4069841676001
 21
1154.5134375361
 31
0.0
  0
LINE
  5
37A
330
376
100
AcDbEntity
  8
LAY-20
  6
CONTINUOUS
 62
     4
100
AcDbLine
 10
2026.4069841677
 20
896.5608504427001
 30
0.0
 11
2026.4069841677
 21
1154.5134375361
 31
0.0
  0
LINE
  5
37B
330
376
100
AcDbEntity
  8
LAY-20
  6
CONTINUOUS
 62
     4
100
AcDbLine
 10
992.4069841676001
 20
1139.5134375361
 30
0.0
 11
1996.4069841677
 21
1139.5134375361
 31
0.0
  0
INSERT
  5
37C
330
376
100
AcDbEntity
  8
LAY-20
 62
     4
100
AcDbBlockReference
  2
EX_BNORM
 10
962.4069841676001
 20
1139.5134375361
 30
0.0
 41
30.0
 42
30.0
 43
30.0
 50
180.0
  0
INSERT
  5
37D
330
376
100
AcDbEntity
  8
LAY-20
 62
     4
100
AcDbBlockReference
  2
EX_BNORM
 10
2026.4069841677
 20
1139.5134375361
 30
0.0
 41
30.0
 42
30.0
 43
30.0
  0
MTEXT
  5
37E
330
376
100
AcDbEntity
  8
LAY-20
 62
     7
100
AcDbMText
 10
1494.40698416765
 20
1164.5134375361
 30
0.0
 40
31.181104
 41
0.0
 71
     5
 72
     1
  1
%%c1064
  7
EXCADDIM1
  0
POINT
  5
37F
330
376
100
AcDbEntity
  8
DEFPOINTS
 62
     0
100
AcDbPoint
 10
962.4069841676
 20
881.5608504427001
 30
0.0
  0
POINT
  5
380
330
376
100
AcDbEntity
  8
DEFPOINTS
 62
     0
100
AcDbPoint
 10
2026.4069841677
 20
881.5608504427001
 30
0.0
  0
POINT
  5
381
330
376
100
AcDbEntity
  8
DEFPOINTS
 62
     0
100
AcDbPoint
 10
2026.4069841677
 20
1139.5134375361
 30
0.0
  0
ENDBLK
  5
378
330
376
100
AcDbEntity
  8
0
100
AcDbBlockEnd
  0
BLOCK
  5
384
330
383
100
AcDbEntity
  8
0
100
AcDbBlockBegin
  2
*D16
 70
     1
 10
0.0
 20
0.0
 30
0.0
  3
*D16
  1

  0
LINE
  5
386
330
383
100
AcDbEntity
  8
LAY-20
  6
CONTINUOUS
 62
     4
100
AcDbLine
 10
984.40698416768
 20
904.56085044361
 30
0.0
 11
984.40698416768
 21
1084.5134375361
 31
0.0
  0
LINE
  5
387
330
383
100
AcDbEntity
  8
LAY-20
  6
CONTINUOUS
 62
     4
100
AcDbLine
 10
2004.4069841677
 20
904.56085044361
 30
0.0
 11
2004.4069841677
 21
1084.5134375361
 31
0.0
  0
LINE
  5
388
330
383
100
AcDbEntity
  8
LAY-20
  6
CONTINUOUS
 62
     4
100
AcDbLine
 10
1014.40698416768
 20
1069.5134375361
 30
0.0
 11
1974.4069841677
 21
1069.5134375361
 31
0.0
  0
INSERT
  5
389
330
383
100
AcDbEntity
  8
LAY-20
 62
     4
100
AcDbBlockReference
  2
EX_BNORM
 10
984.40698416768
 20
1069.5134375361
 30
0.0
 41
30.0
 42
30.0
 43
30.0
 50
180.0
  0
INSERT
  5
38A
330
383
100
AcDbEntity
  8
LAY-20
 62
     4
100
AcDbBlockReference
  2
EX_BNORM
 10
2004.4069841677
 20
1069.5134375361
 30
0.0
 41
30.0
 42
30.0
 43
30.0
  0
MTEXT
  5
38B
330
383
100
AcDbEntity
  8
LAY-20
 62
     7
100
AcDbMText
 10
1494.40698416769
 20
1094.5134375361
 30
0.0
 40
31.181104
 41
0.0
 71
     5
 72
     1
  1
%%c1020
  7
EXCADDIM1
  0
POINT
  5
38C
330
383
100
AcDbEntity
  8
DEFPOINTS
 62
     0
100
AcDbPoint
 10
984.40698416768
 20
889.56085044361
 30
0.0
  0
POINT
  5
38D
330
383
100
AcDbEntity
  8
DEFPOINTS
 62
     0
100
AcDbPoint
 10
2004.4069841677
 20
889.56085044361
 30
0.0
  0
POINT
  5
38E
330
383
100
AcDbEntity
  8
DEFPOINTS
 62
     0
100
AcDbPoint
 10
2004.4069841677
 20
1069.5134375361
 30
0.0
  0
ENDBLK
  5
385
330
383
100
AcDbEntity
  8
0
100
AcDbBlockEnd
  0
BLOCK
  5
391
330
390
100
AcDbEntity
  8
0
100
AcDbBlockBegin
  2
*D17
 70
     1
 10
0.0
 20
0.0
 30
0.0
  3
*D17
  1

  0
LINE
  5
393
330
390
100
AcDbEntity
  8
LAY-20
  6
CONTINUOUS
 62
     4
100
AcDbLine
 10
957.90698416766
 20
794.06085044365
 30
0.0
 11
957.9069841676601
 21
624.06085044365
 31
0.0
  0
LINE
  5
394
330
390
100
AcDbEntity
  8
LAY-20
  6
CONTINUOUS
 62
     4
100
AcDbLine
 10
987.9069841676601
 20
639.06085044365
 30
0.0
 11
2000.9069841676
 21
639.06085044365
 31
0.0
  0
INSERT
  5
395
330
390
100
AcDbEntity
  8
LAY-20
 62
     4
100
AcDbBlockReference
  2
EX_BNORM
 10
957.9069841676601
 20
639.06085044365
 30
0.0
 41
30.0
 42
30.0
 43
30.0
 50
180.0
  0
INSERT
  5
396
330
390
100
AcDbEntity
  8
LAY-20
 62
     4
100
AcDbBlockReference
  2
EX_NONE
 10
2030.9069841676
 20
639.06085044365
 30
0.0
 41
30.0
 42
30.0
 43
30.0
  0
MTEXT
  5
397
330
390
100
AcDbEntity
  8
LAY-20
 62
     7
100
AcDbMText
 10
1494.40698416763
 20
664.06085044365
 30
0.0
 40
31.181104
 41
0.0
 71
     5
 72
     1
  1
□1073
  7
EXCADDIM1
  0
POINT
  5
398
330
390
100
AcDbEntity
  8
DEFPOINTS
 62
     0
100
AcDbPoint
 10
957.90698416766
 20
809.06085044365
 30
0.0
  0
POINT
  5
399
330
390
100
AcDbEntity
  8
DEFPOINTS
 62
     0
100
AcDbPoint
 10
2030.9069841676
 20
639.06085044365
 30
0.0
  0
POINT
  5
39A
330
390
100
AcDbEntity
  8
DEFPOINTS
 62
     0
100
AcDbPoint
 10
2030.9069841676
 20
639.06085044365
 30
0.0
  0
ENDBLK
  5
392
330
390
100
AcDbEntity
  8
0
100
AcDbBlockEnd
  0
BLOCK
  5
39D
330
39C
100
AcDbEntity
  8
0
100
AcDbBlockBegin
  2
*D18
 70
     1
 10
0.0
 20
0.0
 30
0.0
  3
*D18
  1

  0
LINE
  5
39F
330
39C
100
AcDbEntity
  8
LAY-20
  6
CONTINUOUS
 62
     4
100
AcDbLine
 10
1044.4069841676
 20
794.06085044374
 30
0.0
 11
1044.4069841676
 21
694.06085044365
 31
0.0
  0
LINE
  5
3A0
330
39C
100
AcDbEntity
  8
LAY-20
  6
CONTINUOUS
 62
     4
100
AcDbLine
 10
1944.4069841676
 20
794.06085044365
 30
0.0
 11
1944.4069841676
 21
694.06085044365
 31
0.0
  0
LINE
  5
3A1
330
39C
100
AcDbEntity
  8
LAY-20
  6
CONTINUOUS
 62
     4
100
AcDbLine
 10
1074.4069841676
 20
709.06085044365
 30
0.0
 11
1914.4069841676
 21
709.06085044365
 31
0.0
  0
INSERT
  5
3A2
330
39C
100
AcDbEntity
  8
LAY-20
 62
     4
100
AcDbBlockReference
  2
EX_BNORM
 10
1044.4069841676
 20
709.06085044365
 30
0.0
 41
30.0
 42
30.0
 43
30.0
 50
180.0
  0
INSERT
  5
3A3
330
39C
100
AcDbEntity
  8
LAY-20
 62
     4
100
AcDbBlockReference
  2
EX_BNORM
 10
1944.4069841676
 20
709.06085044365
 30
0.0
 41
30.0
 42
30.0
 43
30.0
  0
MTEXT
  5
3A4
330
39C
100
AcDbEntity
  8
LAY-20
 62
     7
100
AcDbMText
 10
1494.4069841676
 20
734.06085044365
 30
0.0
 40
31.181104
 41
0.0
 71
     5
 72
     1
  1
%%c900
  7
EXCADDIM1
  0
POINT
  5
3A5
330
39C
100
AcDbEntity
  8
DEFPOINTS
 62
     0
100
AcDbPoint
 10
1044.4069841676
 20
809.06085044374
 30
0.0
  0
POINT
  5
3A6
330
39C
100
AcDbEntity
  8
DEFPOINTS
 62
     0
100
AcDbPoint
 10
1944.4069841676
 20
809.06085044365
 30
0.0
  0
POINT
  5
3A7
330
39C
100
AcDbEntity
  8
DEFPOINTS
 62
     0
100
AcDbPoint
 10
1944.4069841676
 20
709.06085044365
 30
0.0
  0
ENDBLK
  5
39E
330
39C
100
AcDbEntity
  8
0
100
AcDbBlockEnd
  0
BLOCK
  5
3AA
330
3A9
100
AcDbEntity
  8
0
100
AcDbBlockBegin
  2
*D19
 70
     1
 10
0.0
 20
0.0
 30
0.0
  3
*D19
  1

  0
LINE
  5
3AC
330
3A9
100
AcDbEntity
  8
LAY-20
  6
CONTINUOUS
 62
     4
100
AcDbLine
 10
2237.5690685196
 20
809.06085044365
 30
0.0
 11
2322.5690685196
 21
809.06085044365
 31
0.0
  0
LINE
  5
3AD
330
3A9
100
AcDbEntity
  8
LAY-20
  6
CONTINUOUS
 62
     4
100
AcDbLine
 10
2055.1
 20
889.06085044365
 30
0.0
 11
2322.5690685196
 21
889.06085044365
 31
0.0
  0
LINE
  5
3AE
330
3A9
100
AcDbEntity
  8
LAY-20
  6
CONTINUOUS
 62
     4
100
AcDbLine
 10
2307.5690685196
 20
839.06085044365
 30
0.0
 11
2307.5690685196
 21
859.06085044365
 31
0.0
  0
INSERT
  5
3AF
330
3A9
100
AcDbEntity
  8
LAY-20
 62
     4
100
AcDbBlockReference
  2
EX_BNORM
 10
2307.5690685196
 20
809.06085044365
 30
0.0
 41
30.0
 42
30.0
 43
30.0
 50
270.0
  0
INSERT
  5
3B0
330
3A9
100
AcDbEntity
  8
LAY-20
 62
     4
100
AcDbBlockReference
  2
EX_BNORM
 10
2307.5690685196
 20
889.06085044365
 30
0.0
 41
30.0
 42
30.0
 43
30.0
 50
90.0
  0
MTEXT
  5
3B1
330
3A9
100
AcDbEntity
  8
LAY-20
 62
     7
100
AcDbMText
 10
2282.5690685196
 20
849.06085044365
 30
0.0
 40
31.181104
 41
0.0
 71
     5
 72
     1
  1
80
  7
EXCADDIM1
 11
0.0
 21
1.0
 31
0.0
  0
POINT
  5
3B2
330
3A9
100
AcDbEntity
  8
DEFPOINTS
 62
     0
100
AcDbPoint
 10
2222.5690685196
 20
809.06085044365
 30
0.0
  0
POINT
  5
3B3
330
3A9
100
AcDbEntity
  8
DEFPOINTS
 62
     0
100
AcDbPoint
 10
2040.1
 20
889.06085044365
 30
0.0
  0
POINT
  5
3B4
330
3A9
100
AcDbEntity
  8
DEFPOINTS
 62
     0
100
AcDbPoint
 10
2307.5690685196
 20
889.06085044365
 30
0.0
  0
ENDBLK
  5
3AB
330
3A9
100
AcDbEntity
  8
0
100
AcDbBlockEnd
  0
ENDSEC
  0
SECTION
  2
ENTITIES
  0
LINE
  5
D5
330
1F
100
AcDbEntity
  8
LAY-10
  6
CONTINUOUS
 62
     7
100
AcDbLine
 10
1941.799703538451
 20
870.1642479331059
 30
0.0
 11
1943.309904795981
 21
871.6744491906361
 31
0.0
  0
LINE
  5
D6
330
1F
100
AcDbEntity
  8
LAY-10
  6
CONTINUOUS
 62
     7
100
AcDbLine
 10
1945.571113960943
 20
866.864590543733
 30
0.0
 11
1947.410777229887
 21
868.704253812677
 31
0.0
  0
LINE
  5
D7
330
1F
100
AcDbEntity
  8
LAY-10
  6
CONTINUOUS
 62
     7
100
AcDbLine
 10
1946.745783997046
 20
860.9681927679703
 30
0.0
 11
1950.20468232306
 21
864.4270910939849
 31
0.0
  0
LINE
  5
D8
330
1F
100
AcDbEntity
  8
LAY-10
  6
CONTINUOUS
 62
     7
100
AcDbLine
 10
1949.409509484611
 20
856.5608504436705
 30
0.0
 11
1953.51112137462
 21
860.6624623336793
 31
0.0
  0
LINE
  5
D9
330
1F
100
AcDbEntity
  8
LAY-10
  6
CONTINUOUS
 62
     7
100
AcDbLine
 10
1960.471862836507
 20
867.6232037955657
 30
0.0
 11
1962.945135879113
 21
870.0964768381715
 31
0.0
  0
LINE
  5
DA
330
1F
100
AcDbEntity
  8
LAY-10
  6
CONTINUOUS
 62
     7
100
AcDbLine
 10
1951.406984167619
 20
851.4872573148123
 30
0.0
 11
1961.938947867086
 21
862.0192210142795
 31
0.0
  0
LINE
  5
DB
330
1F
100
AcDbEntity
  8
LAY-10
  6
CONTINUOUS
 62
     7
100
AcDbLine
 10
1951.406984167619
 20
844.416189502947
 30
0.0
 11
1957.40698416762
 21
850.4161895029483
 31
0.0
  0
LINE
  5
DC
330
1F
100
AcDbEntity
  8
LAY-10
  6
CONTINUOUS
 62
     7
100
AcDbLine
 10
1047.014264796911
 20
870.1642479331059
 30
0.0
 11
1045.504063539381
 21
871.6744491906361
 31
0.0
  0
LINE
  5
DD
330
1F
100
AcDbEntity
  8
LAY-10
  6
CONTINUOUS
 62
     7
100
AcDbLine
 10
1043.242854374419
 20
866.864590543733
 30
0.0
 11
1041.403191105475
 21
868.704253812677
 31
0.0
  0
LINE
  5
DE
330
1F
100
AcDbEntity
  8
LAY-10
  6
CONTINUOUS
 62
     7
100
AcDbLine
 10
1042.068184338316
 20
860.9681927679703
 30
0.0
 11
1038.609286012301
 21
864.4270910939849
 31
0.0
  0
LINE
  5
DF
330
1F
100
AcDbEntity
  8
LAY-10
  6
CONTINUOUS
 62
     7
100
AcDbLine
 10
1039.404458850751
 20
856.5608504436705
 30
0.0
 11
1035.302846960741
 21
860.6624623336793
 31
0.0
  0
LINE
  5
E0
330
1F
100
AcDbEntity
  8
LAY-10
  6
CONTINUOUS
 62
     7
100
AcDbLine
 10
1028.342105498855
 20
867.6232037955657
 30
0.0
 11
1025.868832456249
 21
870.0964768381715
 31
0.0
  0
LINE
  5
E1
330
1F
100
AcDbEntity
  8
LAY-10
  6
CONTINUOUS
 62
     7
100
AcDbLine
 10
1037.406984167743
 20
851.4872573148123
 30
0.0
 11
1026.875020468276
 21
862.0192210142795
 31
0.0
  0
LINE
  5
E2
330
1F
100
AcDbEntity
  8
LAY-10
  6
CONTINUOUS
 62
     7
100
AcDbLine
 10
1037.406984167743
 20
844.416189502947
 30
0.0
 11
1031.406984167742
 21
850.4161895029483
 31
0.0
  0
LINE
  5
E3
330
1F
100
AcDbEntity
  8
LAY-10
  6
CONTINUOUS
 62
     7
100
AcDbLine
 10
1120.845049372856
 20
883.184702086568
 30
0.0
 11
1121.783132524821
 21
884.1227852385327
 31
0.0
  0
LINE
  5
E4
330
1F
100
AcDbEntity
  8
LAY-10
  6
CONTINUOUS
 62
     7
100
AcDbLine
 10
1120.189175127219
 20
883.235934622117
 30
0.0
 11
1121.731899989273
 21
884.778659484171
 31
0.0
  0
LINE
  5
E5
330
1F
100
AcDbEntity
  8
LAY-10
  6
CONTINUOUS
 62
     7
100
AcDbLine
 10
1119.758456030228
 20
883.5123223063133
 30
0.0
 11
1121.455512305076
 21
885.2093785811608
 31
0.0
  0
LINE
  5
E6
330
1F
100
AcDbEntity
  8
LAY-10
  6
CONTINUOUS
 62
     7
100
AcDbLine
 10
1119.482068346032
 20
883.9430414033031
 30
0.0
 11
1121.024793208086
 21
885.4857662653576
 31
0.0
  0
LINE
  5
E7
330
1F
100
AcDbEntity
  8
LAY-10
  6
CONTINUOUS
 62
     7
100
AcDbLine
 10
1119.430835810484
 20
884.5989156489413
 30
0.0
 11
1120.368918962448
 21
885.5369988009062
 31
0.0
  0
LINE
  5
E8
330
1F
100
AcDbEntity
  8
LAY-10
  6
CONTINUOUS
 62
     7
100
AcDbLine
 10
1100.445049372846
 20
883.184702086568
 30
0.0
 11
1101.383132524811
 21
884.1227852385327
 31
0.0
  0
LINE
  5
E9
330
1F
100
AcDbEntity
  8
LAY-10
  6
CONTINUOUS
 62
     7
100
AcDbLine
 10
1099.789175127208
 20
883.235934622117
 30
0.0
 11
1101.331899989262
 21
884.778659484171
 31
0.0
  0
LINE
  5
EA
330
1F
100
AcDbEntity
  8
LAY-10
  6
CONTINUOUS
 62
     7
100
AcDbLine
 10
1099.358456030218
 20
883.5123223063133
 30
0.0
 11
1101.055512305066
 21
885.2093785811608
 31
0.0
  0
LINE
  5
EB
330
1F
100
AcDbEntity
  8
LAY-10
  6
CONTINUOUS
 62
     7
100
AcDbLine
 10
1099.082068346022
 20
883.9430414033031
 30
0.0
 11
1100.624793208076
 21
885.4857662653576
 31
0.0
  0
LINE
  5
EC
330
1F
100
AcDbEntity
  8
LAY-10
  6
CONTINUOUS
 62
     7
100
AcDbLine
 10
1099.030835810473
 20
884.5989156489413
 30
0.0
 11
1099.968918962438
 21
885.5369988009062
 31
0.0
  0
LINE
  5
ED
330
1F
100
AcDbEntity
  8
LAY-10
  6
CONTINUOUS
 62
     7
100
AcDbLine
 10
1126.458946556673
 20
876.7341331763209
 30
0.0
 11
1127.733701435071
 21
878.0088880547187
 31
0.0
  0
LINE
  5
EE
330
1F
100
AcDbEntity
  8
LAY-10
  6
CONTINUOUS
 62
     7
100
AcDbLine
 10
1126.434372585886
 20
876.0024524243472
 30
0.0
 11
1128.465382187045
 21
878.0334620255062
 31
0.0
  0
LINE
  5
EF
330
1F
100
AcDbEntity
  8
LAY-10
  6
CONTINUOUS
 62
     7
100
AcDbLine
 10
1126.617576654496
 20
875.47854971177
 30
0.0
 11
1128.989284899622
 21
877.8502579568963
 31
0.0
  0
LINE
  5
F0
330
1F
100
AcDbEntity
  8
LAY-10
  6
CONTINUOUS
 62
     7
100
AcDbLine
 10
1126.919547300576
 20
875.0734135766635
 30
0.0
 11
1129.394421034729
 21
877.5482873108162
 31
0.0
  0
LINE
  5
F1
330
1F
100
AcDbEntity
  8
LAY-10
  6
CONTINUOUS
 62
     7
100
AcDbLine
 10
1127.324683435682
 20
874.7714429305834
 30
0.0
 11
1129.696391680809
 21
877.14315117571
 31
0.0
  0
LINE
  5
F2
330
1F
100
AcDbEntity
  8
LAY-10
  6
CONTINUOUS
 62
     7
100
AcDbLine
 10
1127.848586148259
 20
874.5882388619739
 30
0.0
 11
1129.879595749418
 21
876.619248463133
 31
0.0
  0
LINE
  5
F3
330
1F
100
AcDbEntity
  8
LAY-10
  6
CONTINUOUS
 62
     7
100
AcDbLine
 10
1128.580266900233
 20
874.6128128327609
 30
0.0
 11
1129.855021778631
 21
875.8875677111592
 31
0.0
  0
LINE
  5
F4
330
1F
100
AcDbEntity
  8
LAY-10
  6
CONTINUOUS
 62
     7
100
AcDbLine
 10
1090.958946556673
 20
876.7341331763209
 30
0.0
 11
1092.233701435071
 21
878.0088880547187
 31
0.0
  0
LINE
  5
F5
330
1F
100
AcDbEntity
  8
LAY-10
  6
CONTINUOUS
 62
     7
100
AcDbLine
 10
1090.934372585886
 20
876.0024524243472
 30
0.0
 11
1092.965382187045
 21
878.0334620255062
 31
0.0
  0
LINE
  5
F6
330
1F
100
AcDbEntity
  8
LAY-10
  6
CONTINUOUS
 62
     7
100
AcDbLine
 10
1091.117576654496
 20
875.47854971177
 30
0.0
 11
1093.489284899622
 21
877.8502579568963
 31
0.0
  0
LINE
  5
F7
330
1F
100
AcDbEntity
  8
LAY-10
  6
CONTINUOUS
 62
     7
100
AcDbLine
 10
1091.419547300576
 20
875.0734135766635
 30
0.0
 11
1093.894421034729
 21
877.5482873108162
 31
0.0
  0
LINE
  5
F8
330
1F
100
AcDbEntity
  8
LAY-10
  6
CONTINUOUS
 62
     7
100
AcDbLine
 10
1091.824683435682
 20
874.7714429305834
 30
0.0
 11
1094.196391680809
 21
877.14315117571
 31
0.0
  0
LINE
  5
F9
330
1F
100
AcDbEntity
  8
LAY-10
  6
CONTINUOUS
 62
     7
100
AcDbLine
 10
1092.348586148259
 20
874.5882388619739
 30
0.0
 11
1094.379595749418
 21
876.619248463133
 31
0.0
  0
LINE
  5
FA
330
1F
100
AcDbEntity
  8
LAY-10
  6
CONTINUOUS
 62
     7
100
AcDbLine
 10
1093.080266900233
 20
874.6128128327609
 30
0.0
 11
1094.355021778631
 21
875.8875677111592
 31
0.0
  0
LINE
  5
FB
330
1F
100
AcDbEntity
  8
LAY-10
  6
CONTINUOUS
 62
     7
100
AcDbLine
 10
2006.90698416764
 20
889.5608504436501
 30
0.0
 11
2006.90698416764
 21
821.0608504436495
 31
0.0
  0
LINE
  5
FC
330
1F
100
AcDbEntity
  8
LAY-10
  6
CONTINUOUS
 62
     7
100
AcDbLine
 10
1957.65698416764
 20
841.56085044365
 30
0.0
 11
1957.65698416764
 21
856.5608504436495
 31
0.0
  0
LINE
  5
FD
330
1F
100
AcDbEntity
  8
LAY-10
  6
CONTINUOUS
 62
     7
100
AcDbLine
 10
1951.15698416764
 20
841.56085044365
 30
0.0
 11
1951.15698416764
 21
856.5608504436495
 31
0.0
  0
LINE
  5
FE
330
1F
100
AcDbEntity
  8
LAY-10
  6
CONTINUOUS
 62
     7
100
AcDbLine
 10
1951.15698416764
 20
841.5608504436423
 30
0.0
 11
1957.65698416764
 21
841.5608504436423
 31
0.0
  0
LINE
  5
FF
330
1F
100
AcDbEntity
  8
LAY-10
  6
CONTINUOUS
 62
     7
100
AcDbLine
 10
1946.40698416764
 20
856.56085044365
 30
0.0
 11
1944.40698416764
 21
809.06085044365
 31
0.0
  0
LINE
  5
100
330
1F
100
AcDbEntity
  8
LAY-10
  6
CONTINUOUS
 62
     7
100
AcDbLine
 10
1990.332624691973
 20
851.0608504436527
 30
0.0
 11
2006.90698416764
 21
851.0608504436527
 31
0.0
  0
LINE
  5
101
330
1F
100
AcDbEntity
  8
LAY-10
  6
CONTINUOUS
 62
     7
100
AcDbLine
 10
2163.569068519339
 20
829.80838070865
 30
0.0
 11
2165.569068519339
 21
824.06085044365
 31
0.0
  0
LINE
  5
102
330
1F
100
AcDbEntity
  8
LAY-10
  6
CONTINUOUS
 62
     7
100
AcDbLine
 10
1964.01913549223
 20
825.7991706624343
 30
0.0
 11
1962.406984167877
 21
856.5608504436495
 31
0.0
  0
ARC
  5
103
330
1F
100
AcDbEntity
  8
LAY-10
  6
CONTINUOUS
 62
     7
100
AcDbCircle
 10
1969.012283166002
 20
826.0608504436495
 30
0.0
 40
5.0
100
AcDbArc
 50
183.0000000000055
 51
270.0
  0
ARC
  5
104
330
1F
100
AcDbEntity
  8
LAY-10
  6
CONTINUOUS
 62
     7
100
AcDbCircle
 10
1984.015568479905
 20
826.0608504436495
 30
0.0
 40
5.0
100
AcDbArc
 50
270.0
 51
356.9999999999945
  0
LINE
  5
105
330
1F
100
AcDbEntity
  8
LAY-10
  6
CONTINUOUS
 62
     7
100
AcDbLine
 10
1969.012283166002
 20
821.0608504436495
 30
0.0
 11
2006.90698416764
 21
821.0608504436495
 31
0.0
  0
LINE
  5
106
330
1F
100
AcDbEntity
  8
LAY-10
  6
CONTINUOUS
 62
     7
100
AcDbLine
 10
2024.394744906496
 20
889.5608504436459
 30
0.0
 11
2026.101848627324
 21
870.0485656283395
 31
0.0
  0
ARC
  5
107
330
1F
100
AcDbEntity
  8
LAY-10
  6
CONTINUOUS
 62
     7
100
AcDbCircle
 10
2021.120875136866
 20
869.6127869146012
 30
0.0
 40
5.0
100
AcDbArc
 50
295.000000000004
 51
4.999999999999916
  0
LINE
  5
108
330
1F
100
AcDbEntity
  8
LAY-10
  6
CONTINUOUS
 62
     7
100
AcDbLine
 10
2163.569068519354
 20
829.8083807086095
 30
0.0
 11
2025.294213001664
 21
866.8590165780906
 31
0.0
  0
LINE
  5
109
330
1F
100
AcDbEntity
  8
LAY-10
  6
CONTINUOUS
 62
     7
100
AcDbLine
 10
2201.675082696339
 20
824.0608504436495
 30
0.0
 11
2020.906984167641
 21
824.0608504436495
 31
0.0
  0
ARC
  5
10A
330
1F
100
AcDbEntity
  8
LAY-10
  6
CONTINUOUS
 62
     7
100
AcDbCircle
 10
2020.906984167641
 20
829.0608504436495
 30
0.0
 40
5.0
100
AcDbArc
 50
180.0
 51
270.0
  0
LINE
  5
10B
330
1F
100
AcDbEntity
  8
LAY-10
  6
CONTINUOUS
 62
     7
100
AcDbLine
 10
2015.906984167641
 20
858.479268728016
 30
0.0
 11
2015.906984167641
 21
829.0608504436495
 31
0.0
  0
LINE
  5
10C
330
1F
100
AcDbEntity
  8
LAY-10
  6
CONTINUOUS
 62
     7
100
AcDbLine
 10
2018.793892858937
 20
863.0108076631996
 30
0.0
 11
2023.23396644557
 21
865.0812479794181
 31
0.0
  0
ARC
  5
10D
330
1F
100
AcDbEntity
  8
LAY-10
  6
CONTINUOUS
 62
     7
100
AcDbCircle
 10
2020.906984167641
 20
858.479268728016
 30
0.0
 40
5.0
100
AcDbArc
 50
115.0000000000053
 51
180.0
  0
ARC
  5
10E
330
1F
100
AcDbEntity
  8
LAY-10
  6
CONTINUOUS
 62
     7
100
AcDbCircle
 10
1920.906984167591
 20
2323.560850443547
 30
0.0
 40
110.0
100
AcDbArc
 50
0.0
 51
90.00000000000001
  0
ARC
  5
10F
330
1F
100
AcDbEntity
  8
LAY-10
  6
CONTINUOUS
 62
     7
100
AcDbCircle
 10
1067.906984167592
 20
2323.560850443548
 30
0.0
 40
110.0
100
AcDbArc
 50
90.00000000000001
 51
180.0000000000001
  0
LINE
  5
110
330
1F
100
AcDbEntity
  8
LAY-10
  6
CONTINUOUS
 62
     7
100
AcDbLine
 10
1920.906984167592
 20
2433.560850443548
 30
0.0
 11
1067.906984167592
 21
2433.560850443548
 31
0.0
  0
LINE
  5
111
330
1F
100
AcDbEntity
  8
LAY-10
  6
CONTINUOUS
 62
     7
100
AcDbLine
 10
2030.906984167592
 20
2323.560850443548
 30
0.0
 11
2030.906984167591
 21
1470.560850443547
 31
0.0
  0
ARC
  5
112
330
1F
100
AcDbEntity
  8
LAY-10
  6
CONTINUOUS
 62
     7
100
AcDbCircle
 10
1920.906984167591
 20
1470.560850443547
 30
0.0
 40
110.0
100
AcDbArc
 50
270.0000000000002
 51
0.0
  0
ARC
  5
113
330
1F
100
AcDbEntity
  8
LAY-10
  6
CONTINUOUS
 62
     7
100
AcDbCircle
 10
1067.906984167669
 20
1470.560850443763
 30
0.0
 40
110.0
100
AcDbArc
 50
179.9999999999908
 51
269.9999999999907
  0
LINE
  5
114
330
1F
100
AcDbEntity
  8
LAY-10
  6
CONTINUOUS
 62
     7
100
AcDbLine
 10
1920.906984167591
 20
1360.560850443547
 30
0.0
 11
1067.906984167669
 21
1360.560850443548
 31
0.0
  0
LINE
  5
115
330
1F
100
AcDbEntity
  8
LAY-10
  6
CONTINUOUS
 62
     7
100
AcDbLine
 10
957.9069841675912
 20
2323.560850443548
 30
0.0
 11
957.9069841675908
 21
1470.560850443763
 31
0.0
  0
LINE
  5
116
330
1F
100
AcDbEntity
  8
LAY-10
  6
CONTINUOUS
 62
     7
100
AcDbLine
 10
1974.293546147163
 20
2366.34081070532
 30
0.0
 11
1963.686944429365
 21
2376.947412423118
 31
0.0
  0
LINE
  5
117
330
1F
100
AcDbEntity
  8
LAY-10
  6
CONTINUOUS
 62
     7
100
AcDbLine
 10
1974.29354614695
 20
2366.340810705107
 30
0.0
 11
1963.686944429152
 21
2376.947412422905
 31
0.0
  0
LINE
  5
118
330
1F
100
AcDbEntity
  8
LAY-10
  6
CONTINUOUS
 62
     7
100
AcDbLine
 10
1972.879332584577
 20
2364.926597142734
 30
0.0
 11
1962.272730866779
 21
2375.533198860532
 31
0.0
  0
CIRCLE
  5
119
330
1F
100
AcDbEntity
  8
LAY-10
  6
CONTINUOUS
 62
     7
100
AcDbCircle
 10
1494.406984167591
 20
1897.060850443697
 30
0.0
 40
529.9877607388999
  0
CIRCLE
  5
11A
330
1F
100
AcDbEntity
  8
LAY-10
  6
CONTINUOUS
 62
     7
100
AcDbCircle
 10
1494.406984167591
 20
1897.060850443697
 30
0.0
 40
532.0
  0
LINE
  5
11B
330
1F
100
AcDbEntity
  8
LAY-10
  6
CONTINUOUS
 62
     7
100
AcDbLine
 10
1974.293546147163
 20
2366.34081070532
 30
0.0
 11
1875.853708470336
 21
2267.900973028492
 31
0.0
  0
LINE
  5
11C
330
1F
100
AcDbEntity
  8
LAY-10
  6
CONTINUOUS
 62
     7
100
AcDbLine
 10
1963.686944429365
 20
2376.947412423118
 30
0.0
 11
1865.247106752539
 21
2278.507574746292
 31
0.0
  0
LINE
  5
11D
330
1F
100
AcDbEntity
  8
LAY-10
  6
CONTINUOUS
 62
     7
100
AcDbLine
 10
1990.300382449794
 20
2339.921240136759
 30
0.0
 11
1896.168575038917
 21
2245.789432725881
 31
0.0
  0
LINE
  5
11E
330
1F
100
AcDbEntity
  8
LAY-10
  6
CONTINUOUS
 62
     7
100
AcDbLine
 10
2015.906984167592
 20
2329.31463841896
 30
0.0
 11
2015.906984167592
 21
2002.235704852912
 31
0.0
  0
ARC
  5
11F
330
1F
100
AcDbEntity
  8
LAY-10
  6
CONTINUOUS
 62
     7
100
AcDbCircle
 10
2000.906984167592
 20
2329.31463841896
 30
0.0
 40
15.0
100
AcDbArc
 50
0.0
 51
135.0000000000001
  0
LINE
  5
120
330
1F
100
AcDbEntity
  8
LAY-10
  6
CONTINUOUS
 62
     7
100
AcDbLine
 10
1062.15319619247
 20
2418.560850443486
 30
0.0
 11
1389.232129758518
 21
2418.560850443486
 31
0.0
  0
LINE
  5
121
330
1F
100
AcDbEntity
  8
LAY-10
  6
CONTINUOUS
 62
     7
100
AcDbLine
 10
1051.546594474672
 20
2392.954248725688
 30
0.0
 11
1145.678401885549
 21
2298.82244131481
 31
0.0
  0
ARC
  5
122
330
1F
100
AcDbEntity
  8
LAY-10
  6
CONTINUOUS
 62
     7
100
AcDbCircle
 10
1062.15319619247
 20
2403.560850443486
 30
0.0
 40
15.0
100
AcDbArc
 50
89.9999999999998
 51
225.0000000000001
  0
LINE
  5
123
330
1F
100
AcDbEntity
  8
LAY-10
  6
CONTINUOUS
 62
     7
100
AcDbLine
 10
972.9069841679445
 20
1464.807062468364
 30
0.0
 11
972.9069841679445
 21
1791.885996034412
 31
0.0
  0
LINE
  5
124
330
1F
100
AcDbEntity
  8
LAY-10
  6
CONTINUOUS
 62
     7
100
AcDbLine
 10
998.5135858857427
 20
1454.200460750565
 30
0.0
 11
1092.645393296619
 21
1548.332268161443
 31
0.0
  0
ARC
  5
125
330
1F
100
AcDbEntity
  8
LAY-10
  6
CONTINUOUS
 62
     7
100
AcDbCircle
 10
987.9069841679445
 20
1464.807062468364
 30
0.0
 40
15.0
100
AcDbArc
 50
179.9999999999998
 51
315.0
  0
LINE
  5
126
330
1F
100
AcDbEntity
  8
LAY-10
  6
CONTINUOUS
 62
     7
100
AcDbLine
 10
1926.660772143066
 20
1375.560850443838
 30
0.0
 11
1599.581838577019
 21
1375.560850443838
 31
0.0
  0
LINE
  5
127
330
1F
100
AcDbEntity
  8
LAY-10
  6
CONTINUOUS
 62
     7
100
AcDbLine
 10
1937.267373860865
 20
1401.167452161636
 30
0.0
 11
1843.135566449987
 21
1495.299259572513
 31
0.0
  0
ARC
  5
128
330
1F
100
AcDbEntity
  8
LAY-10
  6
CONTINUOUS
 62
     7
100
AcDbCircle
 10
1926.660772143066
 20
1390.560850443838
 30
0.0
 40
15.0
100
AcDbArc
 50
269.9999999999999
 51
44.99999999999998
  0
LINE
  5
129
330
1F
100
AcDbEntity
  8
LAY-10
  6
CONTINUOUS
 62
     7
100
AcDbLine
 10
1937.267373860803
 20
2392.954248725749
 30
0.0
 11
1843.135566449926
 21
2298.822441314872
 31
0.0
  0
ARC
  5
12A
330
1F
100
AcDbEntity
  8
LAY-10
  6
CONTINUOUS
 62
     7
100
AcDbCircle
 10
1926.660772143005
 20
2403.560850443548
 30
0.0
 40
15.0
100
AcDbArc
 50
315.0
 51
90.00000000000031
  0
LINE
  5
12B
330
1F
100
AcDbEntity
  8
LAY-10
  6
CONTINUOUS
 62
     7
100
AcDbLine
 10
1014.520422188312
 20
2366.340810705258
 30
0.0
 11
1112.960259865137
 21
2267.900973028432
 31
0.0
  0
LINE
  5
12C
330
1F
100
AcDbEntity
  8
LAY-10
  6
CONTINUOUS
 62
     7
100
AcDbLine
 10
1025.12702390611
 20
2376.947412423056
 30
0.0
 11
1123.566861582937
 21
2278.507574746229
 31
0.0
  0
LINE
  5
12D
330
1F
100
AcDbEntity
  8
LAY-10
  6
CONTINUOUS
 62
     7
100
AcDbLine
 10
1025.127023906323
 20
2376.947412422844
 30
0.0
 11
1014.520422188525
 21
2366.340810705045
 31
0.0
  0
LINE
  5
12E
330
1F
100
AcDbEntity
  8
LAY-10
  6
CONTINUOUS
 62
     7
100
AcDbLine
 10
1026.541237468695
 20
2375.53319886047
 30
0.0
 11
1015.934635750897
 21
2364.926597142672
 31
0.0
  0
LINE
  5
12F
330
1F
100
AcDbEntity
  8
LAY-10
  6
CONTINUOUS
 62
     7
100
AcDbLine
 10
998.5135858856809
 20
2339.921240136697
 30
0.0
 11
1092.645393296558
 21
2245.789432725819
 31
0.0
  0
ARC
  5
130
330
1F
100
AcDbEntity
  8
LAY-10
  6
CONTINUOUS
 62
     7
100
AcDbCircle
 10
987.9069841678827
 20
2329.314638418899
 30
0.0
 40
15.0
100
AcDbArc
 50
44.99999999999998
 51
180.0000000000004
  0
LINE
  5
131
330
1F
100
AcDbEntity
  8
LAY-10
  6
CONTINUOUS
 62
     7
100
AcDbLine
 10
972.9069841678827
 20
2329.314638418899
 30
0.0
 11
972.9069841678831
 21
2002.23570485285
 31
0.0
  0
LINE
  5
132
330
1F
100
AcDbEntity
  8
LAY-10
  6
CONTINUOUS
 62
     7
100
AcDbLine
 10
1025.127023906172
 20
1417.174288464205
 30
0.0
 11
1123.566861582997
 21
1515.61412614103
 31
0.0
  0
LINE
  5
133
330
1F
100
AcDbEntity
  8
LAY-10
  6
CONTINUOUS
 62
     7
100
AcDbLine
 10
1014.520422188373
 20
1427.780890182003
 30
0.0
 11
1112.960259865201
 21
1526.220727858831
 31
0.0
  0
LINE
  5
134
330
1F
100
AcDbEntity
  8
LAY-10
  6
CONTINUOUS
 62
     7
100
AcDbLine
 10
1014.520422188586
 20
1427.780890182216
 30
0.0
 11
1025.127023906384
 21
1417.174288464418
 31
0.0
  0
LINE
  5
135
330
1F
100
AcDbEntity
  8
LAY-10
  6
CONTINUOUS
 62
     7
100
AcDbLine
 10
1015.934635750959
 20
1429.195103744589
 30
0.0
 11
1026.541237468757
 21
1418.588502026791
 31
0.0
  0
LINE
  5
136
330
1F
100
AcDbEntity
  8
LAY-10
  6
CONTINUOUS
 62
     7
100
AcDbLine
 10
1051.546594474734
 20
1401.167452161574
 30
0.0
 11
1145.67840188561
 21
1495.299259572452
 31
0.0
  0
ARC
  5
137
330
1F
100
AcDbEntity
  8
LAY-10
  6
CONTINUOUS
 62
     7
100
AcDbCircle
 10
1062.153196192532
 20
1390.560850443776
 30
0.0
 40
15.0
100
AcDbArc
 50
135.0000000000001
 51
270.0000000000003
  0
LINE
  5
138
330
1F
100
AcDbEntity
  8
LAY-10
  6
CONTINUOUS
 62
     7
100
AcDbLine
 10
1062.153196192532
 20
1375.560850443776
 30
0.0
 11
1389.23212975858
 21
1375.560850443776
 31
0.0
  0
LINE
  5
139
330
1F
100
AcDbEntity
  8
LAY-10
  6
CONTINUOUS
 62
     7
100
AcDbLine
 10
1974.293546147225
 20
1427.780890182065
 30
0.0
 11
1875.853708470399
 21
1526.22072785889
 31
0.0
  0
LINE
  5
13A
330
1F
100
AcDbEntity
  8
LAY-10
  6
CONTINUOUS
 62
     7
100
AcDbLine
 10
1963.686944429427
 20
1417.174288464267
 30
0.0
 11
1865.247106752599
 21
1515.614126141094
 31
0.0
  0
LINE
  5
13B
330
1F
100
AcDbEntity
  8
LAY-10
  6
CONTINUOUS
 62
     7
100
AcDbLine
 10
1963.686944429214
 20
1417.17428846448
 30
0.0
 11
1974.293546147012
 21
1427.780890182278
 31
0.0
  0
LINE
  5
13C
330
1F
100
AcDbEntity
  8
LAY-10
  6
CONTINUOUS
 62
     7
100
AcDbLine
 10
1962.272730866841
 20
1418.588502026852
 30
0.0
 11
1972.879332584639
 21
1429.195103744651
 31
0.0
  0
LINE
  5
13D
330
1F
100
AcDbEntity
  8
LAY-10
  6
CONTINUOUS
 62
     7
100
AcDbLine
 10
1990.300382449856
 20
1454.200460750627
 30
0.0
 11
1896.168575038979
 21
1548.332268161505
 31
0.0
  0
ARC
  5
13E
330
1F
100
AcDbEntity
  8
LAY-10
  6
CONTINUOUS
 62
     7
100
AcDbCircle
 10
2000.906984167654
 20
1464.807062468425
 30
0.0
 40
15.0
100
AcDbArc
 50
225.0
 51
0.0000000000003438
  0
LINE
  5
13F
330
1F
100
AcDbEntity
  8
LAY-10
  6
CONTINUOUS
 62
     7
100
AcDbLine
 10
2015.906984167654
 20
1464.807062468425
 30
0.0
 11
2015.906984167654
 21
1791.885996034473
 31
0.0
  0
CIRCLE
  5
140
330
1F
100
AcDbEntity
  8
LAY-10
  6
CONTINUOUS
 62
     7
100
AcDbCircle
 10
1494.406984167591
 20
1897.060850443697
 30
0.0
 40
512.5
  0
LINE
  5
141
330
1F
100
AcDbEntity
  8
LAY-10
  6
CONTINUOUS
 62
     7
100
AcDbLine
 10
1926.660772143005
 20
2418.560850443548
 30
0.0
 11
1599.581838576957
 21
2418.560850443548
 31
0.0
  0
LINE
  5
142
330
1F
100
AcDbEntity
  8
LAY-10
  6
CONTINUOUS
 62
     7
100
AcDbLine
 10
1031.15698416764
 20
841.56085044365
 30
0.0
 11
1031.15698416764
 21
856.5608504436495
 31
0.0
  0
LINE
  5
143
330
1F
100
AcDbEntity
  8
LAY-10
  6
CONTINUOUS
 62
     7
100
AcDbLine
 10
1037.65698416764
 20
841.56085044365
 30
0.0
 11
1037.65698416764
 21
856.5608504436495
 31
0.0
  0
LINE
  5
144
330
1F
100
AcDbEntity
  8
LAY-10
  6
CONTINUOUS
 62
     7
100
AcDbLine
 10
1037.65698416764
 20
841.5608504436423
 30
0.0
 11
1031.15698416764
 21
841.5608504436423
 31
0.0
  0
LINE
  5
145
330
1F
100
AcDbEntity
  8
LAY-10
  6
CONTINUOUS
 62
     7
100
AcDbLine
 10
1042.40698416764
 20
856.56085044365
 30
0.0
 11
1044.40698416764
 21
809.06085044365
 31
0.0
  0
LINE
  5
146
330
1F
100
AcDbEntity
  8
LAY-10
  6
CONTINUOUS
 62
     7
100
AcDbLine
 10
1024.79483284305
 20
825.7991706624343
 30
0.0
 11
1026.406984167403
 21
856.5608504436495
 31
0.0
  0
ARC
  5
147
330
1F
100
AcDbEntity
  8
LAY-10
  6
CONTINUOUS
 62
     7
100
AcDbCircle
 10
1019.801685169278
 20
826.0608504436495
 30
0.0
 40
5.0
100
AcDbArc
 50
270.0
 51
356.9999999999945
  0
LINE
  5
148
330
1F
100
AcDbEntity
  8
LAY-10
  6
CONTINUOUS
 62
     7
100
AcDbLine
 10
999.8052521816019
 20
825.7991706624343
 30
0.0
 11
997.4069841680029
 21
871.56085044365
 31
0.0
  0
ARC
  5
149
330
1F
100
AcDbEntity
  8
LAY-10
  6
CONTINUOUS
 62
     7
100
AcDbCircle
 10
1004.798399855375
 20
826.0608504436495
 30
0.0
 40
5.0
100
AcDbArc
 50
183.0000000000055
 51
270.0
  0
LINE
  5
14A
330
1F
100
AcDbEntity
  8
LAY-10
  6
CONTINUOUS
 62
     7
100
AcDbLine
 10
964.4192234287841
 20
889.5608504436459
 30
0.0
 11
962.7121197079557
 21
870.0485656283395
 31
0.0
  0
ARC
  5
14B
330
1F
100
AcDbEntity
  8
LAY-10
  6
CONTINUOUS
 62
     7
100
AcDbCircle
 10
967.6930931984145
 20
869.6127869146012
 30
0.0
 40
5.0
100
AcDbArc
 50
175.0000000000003
 51
244.9999999999985
  0
ARC
  5
14C
330
1F
100
AcDbEntity
  8
LAY-10
  6
CONTINUOUS
 62
     7
100
AcDbCircle
 10
967.9069841676389
 20
829.0608504436495
 30
0.0
 40
5.0
100
AcDbArc
 50
270.0
 51
0.0
  0
LINE
  5
14D
330
1F
100
AcDbEntity
  8
LAY-10
  6
CONTINUOUS
 62
     7
100
AcDbLine
 10
972.9069841676389
 20
858.479268728016
 30
0.0
 11
972.9069841676389
 21
829.0608504436495
 31
0.0
  0
LINE
  5
14E
330
1F
100
AcDbEntity
  8
LAY-10
  6
CONTINUOUS
 62
     7
100
AcDbLine
 10
970.020075476343
 20
863.0108076631996
 30
0.0
 11
965.5800018897105
 21
865.0812479794181
 31
0.0
  0
ARC
  5
14F
330
1F
100
AcDbEntity
  8
LAY-10
  6
CONTINUOUS
 62
     7
100
AcDbCircle
 10
967.9069841676389
 20
858.479268728016
 30
0.0
 40
5.0
100
AcDbArc
 50
0.0
 51
64.99999999999363
  0
LINE
  5
150
330
1F
100
AcDbEntity
  8
LAY-10
  6
CONTINUOUS
 62
     7
100
AcDbLine
 10
958.8199965001816
 20
819.4966291573878
 30
0.0
 11
957.906984167664
 21
809.06085044365
 31
0.0
  0
ARC
  5
151
330
1F
100
AcDbEntity
  8
LAY-10
  6
CONTINUOUS
 62
     7
100
AcDbCircle
 10
963.8009699906409
 20
819.0608504436495
 30
0.0
 40
5.0
100
AcDbArc
 50
90.00000000000001
 51
174.9999999999999
  0
LINE
  5
152
330
1F
100
AcDbEntity
  8
LAY-10
  6
CONTINUOUS
 62
     7
100
AcDbLine
 10
967.9069841676389
 20
824.0608504436495
 30
0.0
 11
963.8009699906409
 21
824.06085044365
 31
0.0
  0
LINE
  5
153
330
1F
100
AcDbEntity
  8
LAY-10
  6
CONTINUOUS
 62
     7
100
AcDbLine
 10
957.906984167664
 20
809.06085044365
 30
0.0
 11
2207.56906851964
 21
809.06085044365
 31
0.0
  0
LINE
  5
154
330
1F
100
AcDbEntity
  8
LAY-10
  6
CONTINUOUS
 62
     7
100
AcDbLine
 10
981.9069841676398
 20
889.5608504436501
 30
0.0
 11
981.9069841676398
 21
871.56085044365
 31
0.0
  0
LINE
  5
155
330
1F
100
AcDbEntity
  8
LAY-10
  6
CONTINUOUS
 62
     7
100
AcDbLine
 10
1019.801685169278
 20
821.0608504436495
 30
0.0
 11
1004.798399855375
 21
821.0608504436495
 31
0.0
  0
CIRCLE
  5
156
330
1F
100
AcDbEntity
  8
LAY-10
  6
CONTINUOUS
 62
     7
100
AcDbCircle
 10
1970.906984167671
 20
1535.56085044355
 30
0.0
 40
10.0
  0
CIRCLE
  5
157
330
1F
100
AcDbEntity
  8
LAY-10
  6
CONTINUOUS
 62
     7
100
AcDbCircle
 10
1970.906984167671
 20
1535.56085044355
 30
0.0
 40
8.5
  0
CIRCLE
  5
158
330
1F
100
AcDbEntity
  8
LAY-10
  6
CONTINUOUS
 62
     7
100
AcDbCircle
 10
1855.90698416793
 20
2373.56085044367
 30
0.0
 40
10.0
  0
CIRCLE
  5
159
330
1F
100
AcDbEntity
  8
LAY-10
  6
CONTINUOUS
 62
     7
100
AcDbCircle
 10
1855.90698416793
 20
2373.56085044367
 30
0.0
 40
8.5
  0
CIRCLE
  5
15A
330
1F
100
AcDbEntity
  8
LAY-10
  6
CONTINUOUS
 62
     7
100
AcDbCircle
 10
1017.906984167809
 20
2258.56085044393
 30
0.0
 40
10.0
  0
CIRCLE
  5
15B
330
1F
100
AcDbEntity
  8
LAY-10
  6
CONTINUOUS
 62
     7
100
AcDbCircle
 10
1017.906984167809
 20
2258.56085044393
 30
0.0
 40
8.5
  0
CIRCLE
  5
15C
330
1F
100
AcDbEntity
  8
LAY-10
  6
CONTINUOUS
 62
     7
100
AcDbCircle
 10
1132.90698416755
 20
1420.56085044381
 30
0.0
 40
10.0
  0
CIRCLE
  5
15D
330
1F
100
AcDbEntity
  8
LAY-10
  6
CONTINUOUS
 62
     7
100
AcDbCircle
 10
1132.90698416755
 20
1420.56085044381
 30
0.0
 40
8.5
  0
TEXT
  5
15E
330
1F
100
AcDbEntity
  8
LAY-10
  6
CONTINUOUS
 62
     7
100
AcDbText
 10
1841.25531811784
 20
1386.681187644576
 30
0.0
 40
14.96693051473236
  1
９０
 41
1.030208338093426
  7
EXCADSTD
100
AcDbText
  0
LINE
  5
15F
330
1F
100
AcDbEntity
  8
LAY-10
  6
CONTINUOUS
 62
     7
100
AcDbLine
 10
997.4069841680029
 20
871.5608504436506
 30
0.0
 11
981.9069841676398
 21
871.56085044365
 31
0.0
  0
LINE
  5
160
330
1F
100
AcDbEntity
  8
LAY-10
  6
CONTINUOUS
 62
     7
100
AcDbLine
 10
964.4192234287846
 20
889.5608504436501
 30
0.0
 11
981.9069841676398
 21
889.5608504436501
 31
0.0
  0
LINE
  5
161
330
1F
100
AcDbEntity
  8
LAY-10
  6
CONTINUOUS
 62
     7
100
AcDbLine
 10
2006.90698416764
 20
871.56085044365
 30
0.0
 11
1991.406984167277
 21
871.56085044365
 31
0.0
  0
LINE
  5
162
330
1F
100
AcDbEntity
  8
LAY-10
  6
CONTINUOUS
 62
     7
100
AcDbLine
 10
2006.90698416764
 20
889.5608504436501
 30
0.0
 11
2024.394744906496
 21
889.5608504436501
 31
0.0
  0
LINE
  5
163
330
1F
100
AcDbEntity
  8
LAY-10
  6
CONTINUOUS
 62
     7
100
AcDbLine
 10
1989.406984167681
 20
871.560850443646
 30
0.0
 11
1988.318376572747
 21
850.0608504437497
 31
0.0
  0
LINE
  5
164
330
1F
100
AcDbEntity
  8
LAY-10
  6
CONTINUOUS
 62
     7
100
AcDbLine
 10
2004.406984167681
 20
871.5608504436506
 30
0.0
 11
2004.406984167681
 21
889.560850443746
 31
0.0
  0
LINE
  5
165
330
1F
100
AcDbEntity
  8
LAY-10
  6
CONTINUOUS
 62
     7
100
AcDbLine
 10
1669.320764454181
 20
870.9220447972457
 30
0.0
 11
1619.406984167681
 21
869.5134375358458
 31
0.0
  0
LINE
  5
166
330
1F
100
AcDbEntity
  8
LAY-10
  6
CONTINUOUS
 62
     7
100
AcDbLine
 10
1669.320764454181
 20
870.9220447972457
 30
0.0
 11
1671.320764454181
 21
874.4220447972458
 31
0.0
  0
LINE
  5
167
330
1F
100
AcDbEntity
  8
LAY-10
  6
CONTINUOUS
 62
     7
100
AcDbLine
 10
1619.406984167681
 20
869.5134375358458
 30
0.0
 11
1369.406984167681
 21
869.5134375358462
 31
0.0
  0
LINE
  5
168
330
1F
100
AcDbEntity
  8
LAY-10
  6
CONTINUOUS
 62
     7
100
AcDbLine
 10
1926.710831745039
 20
868.560850443746
 30
0.0
 11
1921.906984167681
 21
868.560850443746
 31
0.0
  0
LINE
  5
169
330
1F
100
AcDbEntity
  8
LAY-10
  6
CONTINUOUS
 62
     7
100
AcDbLine
 10
984.4069841676799
 20
871.5608504436509
 30
0.0
 11
984.4069841676799
 21
889.5608504437464
 31
0.0
  0
LINE
  5
16A
330
1F
100
AcDbEntity
  8
LAY-10
  6
CONTINUOUS
 62
     7
100
AcDbLine
 10
999.4069841676799
 20
871.5608504436464
 30
0.0
 11
1001.40698416768
 21
832.0608504437464
 31
0.0
  0
LINE
  5
16B
330
1F
100
AcDbEntity
  8
LAY-10
  6
CONTINUOUS
 62
     7
100
AcDbLine
 10
984.4069841676799
 20
871.5608504436509
 30
0.0
 11
999.4069841676799
 21
871.5608504436509
 31
0.0
  0
LINE
  5
16C
330
1F
100
AcDbEntity
  8
LAY-10
  6
CONTINUOUS
 62
     7
100
AcDbLine
 10
999.4069841676799
 20
890.8731803964961
 30
0.0
 11
984.4069841676799
 21
889.5608504436073
 31
0.0
  0
LINE
  5
16D
330
1F
100
AcDbEntity
  8
LAY-10
  6
CONTINUOUS
 62
     7
100
AcDbLine
 10
1494.406984167682
 20
899.5134375358325
 30
0.0
 11
999.4069841676799
 21
890.8731803963497
 31
0.0
  0
LINE
  5
16E
330
1F
100
AcDbEntity
  8
LAY-10
  6
CONTINUOUS
 62
     7
100
AcDbLine
 10
2003.406984167681
 20
850.060850443746
 30
0.0
 11
1988.318376572746
 21
850.060850443746
 31
0.0
  0
LINE
  5
16F
330
1F
100
AcDbEntity
  8
LAY-10
  6
CONTINUOUS
 62
     7
100
AcDbLine
 10
2004.406984167681
 20
871.5608504436506
 30
0.0
 11
1989.406984167681
 21
871.5608504436506
 31
0.0
  0
LINE
  5
170
330
1F
100
AcDbEntity
  8
LAY-10
  6
CONTINUOUS
 62
     7
100
AcDbLine
 10
2003.406984167681
 20
832.060850443746
 30
0.0
 11
2003.406984167681
 21
850.060850443746
 31
0.0
  0
LINE
  5
171
330
1F
100
AcDbEntity
  8
LAY-10
  6
CONTINUOUS
 62
     7
100
AcDbLine
 10
1989.406984167681
 20
890.8731803964957
 30
0.0
 11
2004.406984167681
 21
889.5608504436069
 31
0.0
  0
LINE
  5
172
330
1F
100
AcDbEntity
  8
LAY-10
  6
CONTINUOUS
 62
     7
100
AcDbLine
 10
1972.508249990471
 20
869.5608504436941
 30
0.0
 11
1928.442882552519
 21
869.5608504436941
 31
0.0
  0
LINE
  5
173
330
1F
100
AcDbEntity
  8
LAY-10
  6
CONTINUOUS
 62
     7
100
AcDbLine
 10
1974.406984167681
 20
832.060850443746
 30
0.0
 11
1972.508249990468
 21
869.5608504436941
 31
0.0
  0
LINE
  5
174
330
1F
100
AcDbEntity
  8
LAY-10
  6
CONTINUOUS
 62
     7
100
AcDbLine
 10
1921.906984167681
 20
868.560850443746
 30
0.0
 11
1921.906984167681
 21
870.0480460620392
 31
0.0
  0
LINE
  5
175
330
1F
100
AcDbEntity
  8
LAY-10
  6
CONTINUOUS
 62
     7
100
AcDbLine
 10
1926.71083174499
 20
868.5608504437178
 30
0.0
 11
1928.442882552519
 21
869.5608504436941
 31
0.0
  0
LINE
  5
176
330
1F
100
AcDbEntity
  8
LAY-10
  6
CONTINUOUS
 62
     7
100
AcDbLine
 10
1014.40698416768
 20
832.0608504437464
 30
0.0
 11
1016.305718344889
 21
869.5608504436327
 31
0.0
  0
LINE
  5
177
330
1F
100
AcDbEntity
  8
LAY-10
  6
CONTINUOUS
 62
     7
100
AcDbLine
 10
1014.40698416768
 20
832.0608504437464
 30
0.0
 11
1001.40698416768
 21
832.0608504437464
 31
0.0
  0
LINE
  5
178
330
1F
100
AcDbEntity
  8
LAY-10
  6
CONTINUOUS
 62
     7
100
AcDbLine
 10
2003.406984167681
 20
832.060850443746
 30
0.0
 11
1974.406984167681
 21
832.060850443746
 31
0.0
  0
LINE
  5
179
330
1F
100
AcDbEntity
  8
LAY-10
  6
CONTINUOUS
 62
     7
100
AcDbLine
 10
1990.280216912695
 20
850.0608504437523
 30
0.0
 11
1991.406984167277
 21
871.56085044365
 31
0.0
  0
LINE
  5
17A
330
1F
100
AcDbEntity
  8
LAY-10
  6
CONTINUOUS
 62
     7
100
AcDbLine
 10
1989.008716153678
 20
825.7991706624343
 30
0.0
 11
1989.336876885599
 21
832.0608504437524
 31
0.0
  0
LINE
  5
17B
330
1F
100
AcDbEntity
  8
LAY-10
  6
HIDDEN
 62
     7
100
AcDbLine
 10
1989.336876885599
 20
832.0608504437524
 30
0.0
 11
1990.280216912695
 21
850.0608504437523
 31
0.0
  0
LINE
  5
17C
330
1F
100
AcDbEntity
  8
LAY-10
  6
HIDDEN
 62
     7
100
AcDbLine
 10
1988.318376572747
 20
850.0608504437497
 30
0.0
 11
1987.406984167681
 21
832.060850443746
 31
0.0
  0
LINE
  5
17D
330
1F
100
AcDbEntity
  8
LAY-10
  6
CONTINUOUS
 62
     7
100
AcDbLine
 10
1494.406984167679
 20
899.5134375358325
 30
0.0
 11
1989.406984167681
 21
890.8731803963492
 31
0.0
  0
LINE
  5
17E
330
1F
100
AcDbEntity
  8
LAY-10
  6
CONTINUOUS
 62
     7
100
AcDbLine
 10
1946.40698416764
 20
856.5608504436495
 30
0.0
 11
1951.15698416764
 21
856.5608504436495
 31
0.0
  0
LINE
  5
17F
330
1F
100
AcDbEntity
  8
LAY-10
  6
CONTINUOUS
 62
     7
100
AcDbLine
 10
1957.65698416764
 20
856.5608504436495
 30
0.0
 11
1962.406984167641
 21
856.5608504436495
 31
0.0
  0
LINE
  5
180
330
1F
100
AcDbEntity
  8
LAY-10
  6
CONTINUOUS
 62
     7
100
AcDbLine
 10
1026.406984167403
 20
856.5608504436495
 30
0.0
 11
1031.15698416764
 21
856.5608504436495
 31
0.0
  0
TEXT
  5
181
330
1F
100
AcDbEntity
  8
LAY-10
  6
CONTINUOUS
 62
     7
100
AcDbText
 10
1436.624785567273
 20
2364.832596176153
 30
0.0
 40
11.692914
  1
Ｏ
 50
6.230964177699998
 41
1.2
  7
EXCADSTD
100
AcDbText
  0
TEXT
  5
182
330
1F
100
AcDbEntity
  8
LAY-10
  6
CONTINUOUS
 62
     7
100
AcDbText
 10
1464.288248852937
 20
2367.777960653664
 30
0.0
 40
11.692914
  1
Ｅ
 50
2.670413218800015
 41
1.2
  7
EXCADSTD
100
AcDbText
  0
TEXT
  5
183
330
1F
100
AcDbEntity
  8
LAY-10
  6
CONTINUOUS
 62
     7
100
AcDbText
 10
1479.155229543751
 20
2368.198326990251
 30
0.0
 40
11.692914
  1
Ｎ
 50
0.8901377396000052
 41
1.2
  7
EXCADSTD
100
AcDbText
  0
POINT
  5
184
330
1F
100
AcDbEntity
  8
LAY-10
  6
CONTINUOUS
 62
     7
100
AcDbPoint
 10
1450.845509860035
 20
2363.029087511481
 30
0.0
  0
POINT
  5
185
330
1F
100
AcDbEntity
  8
LAY-10
  6
CONTINUOUS
 62
     7
100
AcDbPoint
 10
1465.342617458813
 20
2364.157481332557
 30
0.0
  0
POINT
  5
186
330
1F
100
AcDbEntity
  8
LAY-10
  6
CONTINUOUS
 62
     7
100
AcDbPoint
 10
1479.867782952147
 20
2364.834953647287
 30
0.0
  0
LINE
  5
187
330
1F
100
AcDbEntity
  8
LAY-10
  6
CONTINUOUS
 62
     7
100
AcDbLine
 10
1104.406984167599
 20
1916.060850443597
 30
0.0
 11
1104.406984167599
 21
1878.060850443597
 31
0.0
  0
LINE
  5
188
330
1F
100
AcDbEntity
  8
LAY-10
  6
CONTINUOUS
 62
     7
100
AcDbLine
 10
1169.406984167601
 20
1916.060850443597
 30
0.0
 11
1169.4069841676
 21
1878.060850443597
 31
0.0
  0
LINE
  5
189
330
1F
100
AcDbEntity
  8
LAY-10
  6
CONTINUOUS
 62
     7
100
AcDbLine
 10
1130.906984167599
 20
1916.060850443597
 30
0.0
 11
1130.906984167599
 21
1878.060850443597
 31
0.0
  0
LINE
  5
18A
330
1F
100
AcDbEntity
  8
LAY-10
  6
CONTINUOUS
 62
     7
100
AcDbLine
 10
1142.906984167601
 20
1916.060850443597
 30
0.0
 11
1142.906984167601
 21
1878.060850443597
 31
0.0
  0
LINE
  5
18B
330
1F
100
AcDbEntity
  8
LAY-10
  6
CONTINUOUS
 62
     7
100
AcDbLine
 10
1098.906984167601
 20
1916.060850443597
 30
0.0
 11
1098.906984167601
 21
1878.060850443597
 31
0.0
  0
LINE
  5
18C
330
1F
100
AcDbEntity
  8
LAY-10
  6
CONTINUOUS
 62
     7
100
AcDbLine
 10
1098.906984167601
 20
1916.060850443597
 30
0.0
 11
1174.906984167601
 21
1916.060850443597
 31
0.0
  0
LINE
  5
18D
330
1F
100
AcDbEntity
  8
LAY-10
  6
CONTINUOUS
 62
     7
100
AcDbLine
 10
1098.906984167601
 20
1878.060850443597
 30
0.0
 11
1174.906984167601
 21
1878.060850443597
 31
0.0
  0
LINE
  5
18E
330
1F
100
AcDbEntity
  8
LAY-10
  6
CONTINUOUS
 62
     7
100
AcDbLine
 10
1174.906984167601
 20
1916.060850443597
 30
0.0
 11
1174.906984167601
 21
1878.060850443597
 31
0.0
  0
LINE
  5
18F
330
1F
100
AcDbEntity
  8
LAY-10
  6
CONTINUOUS
 62
     7
100
AcDbLine
 10
1315.861466839504
 20
2244.310757919528
 30
0.0
 11
1282.952501495696
 21
2225.310757919528
 31
0.0
  0
LINE
  5
190
330
1F
100
AcDbEntity
  8
LAY-10
  6
CONTINUOUS
 62
     7
100
AcDbLine
 10
1348.361466839505
 20
2188.019106673539
 30
0.0
 11
1315.452501495696
 21
2169.019106673539
 31
0.0
  0
LINE
  5
191
330
1F
100
AcDbEntity
  8
LAY-10
  6
CONTINUOUS
 62
     7
100
AcDbLine
 10
1329.111466839505
 20
2221.36108471924
 30
0.0
 11
1296.202501495696
 21
2202.36108471924
 31
0.0
  0
LINE
  5
192
330
1F
100
AcDbEntity
  8
LAY-10
  6
CONTINUOUS
 62
     7
100
AcDbLine
 10
1335.111466839505
 20
2210.968779873827
 30
0.0
 11
1302.202501495696
 21
2191.968779873827
 31
0.0
  0
LINE
  5
193
330
1F
100
AcDbEntity
  8
LAY-10
  6
CONTINUOUS
 62
     7
100
AcDbLine
 10
1313.111466839504
 20
2249.073897640341
 30
0.0
 11
1280.202501495696
 21
2230.073897640341
 31
0.0
  0
LINE
  5
194
330
1F
100
AcDbEntity
  8
LAY-10
  6
CONTINUOUS
 62
     7
100
AcDbLine
 10
1313.111466839504
 20
2249.073897640342
 30
0.0
 11
1351.111466839505
 21
2183.255966952724
 31
0.0
  0
LINE
  5
195
330
1F
100
AcDbEntity
  8
LAY-10
  6
CONTINUOUS
 62
     7
100
AcDbLine
 10
1351.111466839505
 20
2183.255966952724
 30
0.0
 11
1318.202501495696
 21
2164.255966952724
 31
0.0
  0
LINE
  5
196
330
1F
100
AcDbEntity
  8
LAY-10
  6
CONTINUOUS
 62
     7
100
AcDbLine
 10
1280.202501495696
 20
2230.073897640342
 30
0.0
 11
1318.202501495696
 21
2164.255966952725
 31
0.0
  0
LINE
  5
197
330
1F
100
AcDbEntity
  8
LAY-10
  6
CONTINUOUS
 62
     7
100
AcDbLine
 10
1705.861466839505
 20
2225.310757919528
 30
0.0
 11
1672.952501495696
 21
2244.310757919528
 31
0.0
  0
LINE
  5
198
330
1F
100
AcDbEntity
  8
LAY-10
  6
CONTINUOUS
 62
     7
100
AcDbLine
 10
1673.361466839505
 20
2169.019106673539
 30
0.0
 11
1640.452501495696
 21
2188.019106673539
 31
0.0
  0
LINE
  5
199
330
1F
100
AcDbEntity
  8
LAY-10
  6
CONTINUOUS
 62
     7
100
AcDbLine
 10
1692.611466839505
 20
2202.36108471924
 30
0.0
 11
1659.702501495696
 21
2221.36108471924
 31
0.0
  0
LINE
  5
19A
330
1F
100
AcDbEntity
  8
LAY-10
  6
CONTINUOUS
 62
     7
100
AcDbLine
 10
1686.611466839505
 20
2191.968779873827
 30
0.0
 11
1653.702501495696
 21
2210.968779873827
 31
0.0
  0
LINE
  5
19B
330
1F
100
AcDbEntity
  8
LAY-10
  6
CONTINUOUS
 62
     7
100
AcDbLine
 10
1708.611466839505
 20
2230.073897640341
 30
0.0
 11
1675.702501495696
 21
2249.073897640341
 31
0.0
  0
LINE
  5
19C
330
1F
100
AcDbEntity
  8
LAY-10
  6
CONTINUOUS
 62
     7
100
AcDbLine
 10
1708.611466839505
 20
2230.073897640342
 30
0.0
 11
1670.611466839505
 21
2164.255966952724
 31
0.0
  0
LINE
  5
19D
330
1F
100
AcDbEntity
  8
LAY-10
  6
CONTINUOUS
 62
     7
100
AcDbLine
 10
1675.702501495696
 20
2249.073897640342
 30
0.0
 11
1637.702501495695
 21
2183.255966952725
 31
0.0
  0
LINE
  5
19E
330
1F
100
AcDbEntity
  8
LAY-10
  6
CONTINUOUS
 62
     7
100
AcDbLine
 10
1670.611466839505
 20
2164.255966952724
 30
0.0
 11
1637.702501495695
 21
2183.255966952725
 31
0.0
  0
LINE
  5
19F
330
1F
100
AcDbEntity
  8
LAY-10
  6
CONTINUOUS
 62
     7
100
AcDbLine
 10
1884.406984167601
 20
1878.060850443597
 30
0.0
 11
1884.406984167601
 21
1916.060850443597
 31
0.0
  0
LINE
  5
1A0
330
1F
100
AcDbEntity
  8
LAY-10
  6
CONTINUOUS
 62
     7
100
AcDbLine
 10
1819.406984167599
 20
1878.060850443597
 30
0.0
 11
1819.406984167599
 21
1916.060850443597
 31
0.0
  0
LINE
  5
1A1
330
1F
100
AcDbEntity
  8
LAY-10
  6
CONTINUOUS
 62
     7
100
AcDbLine
 10
1857.906984167601
 20
1878.060850443597
 30
0.0
 11
1857.906984167601
 21
1916.060850443597
 31
0.0
  0
LINE
  5
1A2
330
1F
100
AcDbEntity
  8
LAY-10
  6
CONTINUOUS
 62
     7
100
AcDbLine
 10
1845.9069841676
 20
1878.060850443597
 30
0.0
 11
1845.9069841676
 21
1916.060850443597
 31
0.0
  0
LINE
  5
1A3
330
1F
100
AcDbEntity
  8
LAY-10
  6
CONTINUOUS
 62
     7
100
AcDbLine
 10
1889.9069841676
 20
1878.060850443597
 30
0.0
 11
1889.9069841676
 21
1916.060850443597
 31
0.0
  0
LINE
  5
1A4
330
1F
100
AcDbEntity
  8
LAY-10
  6
CONTINUOUS
 62
     7
100
AcDbLine
 10
1889.9069841676
 20
1878.060850443597
 30
0.0
 11
1813.9069841676
 21
1878.060850443597
 31
0.0
  0
LINE
  5
1A5
330
1F
100
AcDbEntity
  8
LAY-10
  6
CONTINUOUS
 62
     7
100
AcDbLine
 10
1889.9069841676
 20
1916.060850443597
 30
0.0
 11
1813.9069841676
 21
1916.060850443597
 31
0.0
  0
LINE
  5
1A6
330
1F
100
AcDbEntity
  8
LAY-10
  6
CONTINUOUS
 62
     7
100
AcDbLine
 10
1813.9069841676
 20
1878.060850443597
 30
0.0
 11
1813.9069841676
 21
1916.060850443597
 31
0.0
  0
LINE
  5
1A7
330
1F
100
AcDbEntity
  8
LAY-10
  6
CONTINUOUS
 62
     7
100
AcDbLine
 10
1672.952501495696
 20
1549.810942967664
 30
0.0
 11
1705.861466839504
 21
1568.810942967664
 31
0.0
  0
LINE
  5
1A8
330
1F
100
AcDbEntity
  8
LAY-10
  6
CONTINUOUS
 62
     7
100
AcDbLine
 10
1640.452501495695
 20
1606.102594213654
 30
0.0
 11
1673.361466839504
 21
1625.102594213654
 31
0.0
  0
LINE
  5
1A9
330
1F
100
AcDbEntity
  8
LAY-10
  6
CONTINUOUS
 62
     7
100
AcDbLine
 10
1659.702501495696
 20
1572.760616167952
 30
0.0
 11
1692.611466839505
 21
1591.760616167952
 31
0.0
  0
LINE
  5
1AA
330
1F
100
AcDbEntity
  8
LAY-10
  6
CONTINUOUS
 62
     7
100
AcDbLine
 10
1653.702501495695
 20
1583.152921013367
 30
0.0
 11
1686.611466839504
 21
1602.152921013367
 31
0.0
  0
LINE
  5
1AB
330
1F
100
AcDbEntity
  8
LAY-10
  6
CONTINUOUS
 62
     7
100
AcDbLine
 10
1675.702501495695
 20
1545.047803246851
 30
0.0
 11
1708.611466839504
 21
1564.047803246851
 31
0.0
  0
LINE
  5
1AC
330
1F
100
AcDbEntity
  8
LAY-10
  6
CONTINUOUS
 62
     7
100
AcDbLine
 10
1675.702501495695
 20
1545.047803246851
 30
0.0
 11
1637.702501495695
 21
1610.865733934468
 31
0.0
  0
LINE
  5
1AD
330
1F
100
AcDbEntity
  8
LAY-10
  6
CONTINUOUS
 62
     7
100
AcDbLine
 10
1708.611466839504
 20
1564.047803246851
 30
0.0
 11
1670.611466839504
 21
1629.865733934468
 31
0.0
  0
LINE
  5
1AE
330
1F
100
AcDbEntity
  8
LAY-10
  6
CONTINUOUS
 62
     7
100
AcDbLine
 10
1637.702501495695
 20
1610.865733934468
 30
0.0
 11
1670.611466839504
 21
1629.865733934468
 31
0.0
  0
LINE
  5
1AF
330
1F
100
AcDbEntity
  8
LAY-10
  6
CONTINUOUS
 62
     7
100
AcDbLine
 10
1282.952501495695
 20
1568.810942967665
 30
0.0
 11
1315.861466839504
 21
1549.810942967665
 31
0.0
  0
LINE
  5
1B0
330
1F
100
AcDbEntity
  8
LAY-10
  6
CONTINUOUS
 62
     7
100
AcDbLine
 10
1315.452501495696
 20
1625.102594213655
 30
0.0
 11
1348.361466839504
 21
1606.102594213655
 31
0.0
  0
LINE
  5
1B1
330
1F
100
AcDbEntity
  8
LAY-10
  6
CONTINUOUS
 62
     7
100
AcDbLine
 10
1296.202501495695
 20
1591.760616167952
 30
0.0
 11
1329.111466839503
 21
1572.760616167952
 31
0.0
  0
LINE
  5
1B2
330
1F
100
AcDbEntity
  8
LAY-10
  6
CONTINUOUS
 62
     7
100
AcDbLine
 10
1302.202501495696
 20
1602.152921013367
 30
0.0
 11
1335.111466839504
 21
1583.152921013367
 31
0.0
  0
LINE
  5
1B3
330
1F
100
AcDbEntity
  8
LAY-10
  6
CONTINUOUS
 62
     7
100
AcDbLine
 10
1318.202501495696
 20
1629.865733934468
 30
0.0
 11
1351.111466839504
 21
1610.865733934468
 31
0.0
  0
LINE
  5
1B4
330
1F
100
AcDbEntity
  8
LAY-10
  6
CONTINUOUS
 62
     7
100
AcDbLine
 10
1313.111466839504
 20
1545.047803246851
 30
0.0
 11
1351.111466839504
 21
1610.865733934468
 31
0.0
  0
LINE
  5
1B5
330
1F
100
AcDbEntity
  8
LAY-10
  6
CONTINUOUS
 62
     7
100
AcDbLine
 10
1280.202501495696
 20
1564.047803246851
 30
0.0
 11
1318.202501495696
 21
1629.865733934468
 31
0.0
  0
LINE
  5
1B6
330
1F
100
AcDbEntity
  8
LAY-10
  6
CONTINUOUS
 62
     7
100
AcDbLine
 10
1280.202501495696
 20
1564.047803246851
 30
0.0
 11
1313.111466839504
 21
1545.047803246851
 31
0.0
  0
TEXT
  5
1B7
330
1F
100
AcDbEntity
  8
LAY-10
  6
CONTINUOUS
 62
     7
100
AcDbText
 10
1172.998834684214
 20
1527.485588682282
 30
0.0
 40
17.9291348
  1
Ｔ
 50
320.340662127
 41
1.2
  7
EXCADSTD
100
AcDbText
  0
TEXT
  5
1B8
330
1F
100
AcDbEntity
  8
LAY-10
  6
CONTINUOUS
 62
     7
100
AcDbText
 10
1440.538288944185
 20
1411.734990666383
 30
0.0
 40
17.9291348
  1
Ｆ
 50
354.9588367982001
 41
1.2
  7
EXCADSTD
100
AcDbText
  0
TEXT
  5
1B9
330
1F
100
AcDbEntity
  8
LAY-10
  6
CONTINUOUS
 62
     7
100
AcDbText
 10
1463.082043260032
 20
1409.527529969594
 30
0.0
 40
17.9291348
  1
Ｏ
 50
357.6217733117001
 41
1.2
  7
EXCADSTD
100
AcDbText
  0
TEXT
  5
1BA
330
1F
100
AcDbEntity
  8
LAY-10
  6
CONTINUOUS
 62
     7
100
AcDbText
 10
1486.447438312389
 20
1408.139938782015
 30
0.0
 40
17.9291348
  1
Ｕ
 50
0.284709824600026
 41
1.2
  7
EXCADSTD
100
AcDbText
  0
TEXT
  5
1BB
330
1F
100
AcDbEntity
  8
LAY-10
  6
CONTINUOUS
 62
     7
100
AcDbText
 10
1508.015231908891
 20
1408.36004731807
 30
0.0
 40
17.9291348
  1
Ｎ
 50
2.947646337800001
 41
1.2
  7
EXCADSTD
100
AcDbText
  0
TEXT
  5
1BC
330
1F
100
AcDbEntity
  8
LAY-10
  6
CONTINUOUS
 62
     7
100
AcDbText
 10
1530.809383869312
 20
1409.704736431089
 30
0.0
 40
17.9291348
  1
Ｄ
 50
5.610582851299976
 41
1.2
  7
EXCADSTD
100
AcDbText
  0
TEXT
  5
1BD
330
1F
100
AcDbEntity
  8
LAY-10
  6
CONTINUOUS
 62
     7
100
AcDbText
 10
1575.183463017475
 20
1415.424815006081
 30
0.0
 40
17.9291348
  1
Ｙ
 50
10.9364558776
 41
1.2
  7
EXCADSTD
100
AcDbText
  0
TEXT
  5
1BE
330
1F
100
AcDbEntity
  8
LAY-10
  6
CONTINUOUS
 62
     7
100
AcDbText
 10
1553.136541681883
 20
1412.020055206339
 30
0.0
 40
17.9291348
  1
Ｒ
 50
8.273519364100025
 41
1.2
  7
EXCADSTD
100
AcDbText
  0
TEXT
  5
1BF
330
1F
100
AcDbEntity
  8
LAY-10
  6
CONTINUOUS
 62
     7
100
AcDbText
 10
1620.17733965791
 20
1424.992188496485
 30
0.0
 40
17.9291348
  1
Ｃ
 50
16.26232890379999
 41
1.2
  7
EXCADSTD
100
AcDbText
  0
TEXT
  5
1C0
330
1F
100
AcDbEntity
  8
LAY-10
  6
CONTINUOUS
 62
     7
100
AcDbText
 10
1641.90044395789
 20
1432.221770552912
 30
0.0
 40
17.9291348
  1
Ｏ
 50
18.92526541689998
 41
1.2
  7
EXCADSTD
100
AcDbText
  0
TEXT
  5
1C1
330
1F
100
AcDbEntity
  8
LAY-10
  6
CONTINUOUS
 62
     7
100
AcDbText
 10
1663.710264921008
 20
1440.352678389715
 30
0.0
 40
17.9291348
  1
.,
 50
21.5882019302
 41
0.6267680000000001
  7
EXCADSTD
100
AcDbText
  0
TEXT
  5
1C2
330
1F
100
AcDbEntity
  8
LAY-10
  6
CONTINUOUS
 62
     7
100
AcDbText
 10
1684.417977623278
 20
1447.567596934139
 30
0.0
 40
17.9291348
  1
Ｌ
 50
24.25113844329999
 41
1.2
  7
EXCADSTD
100
AcDbText
  0
TEXT
  5
1C3
330
1F
100
AcDbEntity
  8
LAY-10
  6
CONTINUOUS
 62
     7
100
AcDbText
 10
1747.169876079236
 20
1479.824036111
 30
0.0
 40
17.9291348
  1
.
 50
32.23994798300001
 41
0.56692
  7
EXCADSTD
100
AcDbText
  0
TEXT
  5
1C4
330
1F
100
AcDbEntity
  8
LAY-10
  6
CONTINUOUS
 62
     7
100
AcDbText
 10
1725.231700541217
 20
1467.226507368616
 30
0.0
 40
17.9291348
  1
Ｄ
 50
29.57701146949998
 41
1.2
  7
EXCADSTD
100
AcDbText
  0
TEXT
  5
1C5
330
1F
100
AcDbEntity
  8
LAY-10
  6
CONTINUOUS
 62
     7
100
AcDbText
 10
1704.834515260958
 20
1456.92974771866
 30
0.0
 40
17.9291348
  1
Ｔ
 50
26.9140749566
 41
1.2
  7
EXCADSTD
100
AcDbText
  0
TEXT
  5
1C6
330
1F
100
AcDbEntity
  8
LAY-10
  6
CONTINUOUS
 62
     7
100
AcDbText
 10
1246.847698708761
 20
1475.796265663806
 30
0.0
 40
17.9291348
  1
Ｕ
 50
330.9924081799
 41
1.2
  7
EXCADSTD
100
AcDbText
  0
TEXT
  5
1C7
330
1F
100
AcDbEntity
  8
LAY-10
  6
CONTINUOUS
 62
     7
100
AcDbText
 10
1267.787892403245
 20
1464.918442846889
 30
0.0
 40
17.9291348
  1
Ｋ
 50
333.6553446928001
 41
1.2
  7
EXCADSTD
100
AcDbText
  0
TEXT
  5
1C8
330
1F
100
AcDbEntity
  8
LAY-10
  6
CONTINUOUS
 62
     7
100
AcDbText
 10
1287.694072949214
 20
1455.07250667508
 30
0.0
 40
17.9291348
  1
Ｕ
 50
336.3182812062001
 41
1.2
  7
EXCADSTD
100
AcDbText
  0
TEXT
  5
1C9
330
1F
100
AcDbEntity
  8
LAY-10
  6
CONTINUOUS
 62
     7
100
AcDbText
 10
1329.23685645645
 20
1436.998118003875
 30
0.0
 40
17.9291348
  1
Ｉ
 50
341.6441542323
 41
1.2
  7
EXCADSTD
100
AcDbText
  0
TEXT
  5
1CA
330
1F
100
AcDbEntity
  8
LAY-10
  6
CONTINUOUS
 62
     7
100
AcDbText
 10
1308.890670473588
 20
1445.218925998315
 30
0.0
 40
17.9291348
  1
Ｎ
 50
338.9812177194
 41
1.2
  7
EXCADSTD
100
AcDbText
  0
TEXT
  5
1CB
330
1F
100
AcDbEntity
  8
LAY-10
  6
CONTINUOUS
 62
     7
100
AcDbText
 10
1373.093805136903
 20
1423.382704649975
 30
0.0
 40
17.9291348
  1
Ｈ
 50
346.9700272586
 41
1.2
  7
EXCADSTD
100
AcDbText
  0
TEXT
  5
1CC
330
1F
100
AcDbEntity
  8
LAY-10
  6
CONTINUOUS
 62
     7
100
AcDbText
 10
1350.804952313212
 20
1429.969408050293
 30
0.0
 40
17.9291348
  1
Ｓ
 50
344.3070907458
 41
1.2
  7
EXCADSTD
100
AcDbText
  0
TEXT
  5
1CD
330
1F
100
AcDbEntity
  8
LAY-10
  6
CONTINUOUS
 62
     7
100
AcDbText
 10
1228.99437002067
 20
1487.268405307839
 30
0.0
 40
17.9291348
  1
Ｆ
 50
328.3294716665
 41
1.2
  7
EXCADSTD
100
AcDbText
  0
TEXT
  5
1CE
330
1F
100
AcDbEntity
  8
LAY-10
  6
CONTINUOUS
 62
     7
100
AcDbText
 10
1142.193706567773
 20
1559.557586355312
 30
0.0
 40
17.9291348
  1
Ｅ
 50
315.0147891006001
 41
1.2
  7
EXCADSTD
100
AcDbText
  0
TEXT
  5
1CF
330
1F
100
AcDbEntity
  8
LAY-10
  6
CONTINUOUS
 62
     7
100
AcDbText
 10
1126.246099418626
 20
1575.231832154361
 30
0.0
 40
17.9291348
  1
Ｔ
 50
312.3518525875001
 41
1.2
  7
EXCADSTD
100
AcDbText
  0
TEXT
  5
1D0
330
1F
100
AcDbEntity
  8
LAY-10
  6
CONTINUOUS
 62
     7
100
AcDbText
 10
1112.998765394306
 20
1594.627730230255
 30
0.0
 40
17.9291348
  1
Ａ
 50
309.6889160742001
 41
1.2
  7
EXCADSTD
100
AcDbText
  0
TEXT
  5
1D1
330
1F
100
AcDbEntity
  8
LAY-10
  6
CONTINUOUS
 62
     7
100
AcDbText
 10
1099.642211426084
 20
1610.763517233064
 30
0.0
 40
17.9291348
  1
Ｐ
 50
307.0259795611
 41
1.2
  7
EXCADSTD
100
AcDbText
  0
TEXT
  5
1D2
330
1F
100
AcDbEntity
  8
LAY-10
  6
CONTINUOUS
 62
     7
100
AcDbText
 10
1205.155842951622
 20
1510.073846056983
 30
0.0
 40
9.3543312
  1
Ｓ
 50
324.3350342006001
 41
1.2
  7
EXCADSTD
100
AcDbText
  0
TEXT
  5
1D3
330
1F
100
AcDbEntity
  8
LAY-10
  6
CONTINUOUS
 62
     7
100
AcDbText
 10
1211.812159384217
 20
1504.885584662814
 30
0.0
 40
9.3543312
  1
Ｆ
 50
324.3350342006001
 41
1.2
  7
EXCADSTD
100
AcDbText
  0
TEXT
  5
1D4
330
1F
100
AcDbEntity
  8
LAY-10
  6
CONTINUOUS
 62
     7
100
AcDbText
 10
1395.22508120015
 20
1417.987142134993
 30
0.0
 40
17.9291348
  1
Ｉ
 50
349.6329637720001
 41
1.2
  7
EXCADSTD
100
AcDbText
  0
TEXT
  5
1D5
330
1F
100
AcDbEntity
  8
LAY-10
  6
CONTINUOUS
 62
     7
100
AcDbText
 10
1850.055849718339
 20
1562.572670574019
 30
0.0
 40
17.9291348
  1
Ｆ
 50
47.78836063139998
 41
1.2
  7
EXCADSTD
100
AcDbText
  0
TEXT
  5
1D6
330
1F
100
AcDbEntity
  8
LAY-10
  6
CONTINUOUS
 62
     7
100
AcDbText
 10
1871.242214926266
 20
1587.446411027788
 30
0.0
 40
17.9291348
  1
Ｃ
 50
52.13311267409997
 41
1.2
  7
EXCADSTD
100
AcDbText
  0
TEXT
  5
1D7
330
1F
100
AcDbEntity
  8
LAY-10
  6
CONTINUOUS
 62
     7
100
AcDbText
 10
1805.34351837098
 20
1520.157754210614
 30
0.0
 40
17.9291348
  1
０
 50
40.91324490579999
 41
1.2
  7
EXCADSTD
100
AcDbText
  0
TEXT
  5
1D8
330
1F
100
AcDbEntity
  8
LAY-10
  6
CONTINUOUS
 62
     7
100
AcDbText
 10
1821.462193056879
 20
1534.040248372075
 30
0.0
 40
17.9291348
  1
０
 50
43.55233386729999
 41
1.2
  7
EXCADSTD
100
AcDbText
  0
TEXT
  5
1D9
330
1F
100
AcDbEntity
  8
LAY-10
  6
CONTINUOUS
 62
     7
100
AcDbText
 10
1788.278411246905
 20
1506.754629003815
 30
0.0
 40
17.9291348
  1
９
 50
38.27415594399997
 41
1.2
  7
EXCADSTD
100
AcDbText
  0
TEXT
  5
1DA
330
1F
100
AcDbEntity
  8
LAY-10
  6
CONTINUOUS
 62
     7
100
AcDbText
 10
1771.331934818104
 20
1494.418523715967
 30
0.0
 40
17.9291348
  1
Ｄ
 50
35.63506698220002
 41
1.2
  7
EXCADSTD
100
AcDbText
  0
TEXT
  5
1DB
330
1F
100
AcDbEntity
  8
LAY-10
  6
CONTINUOUS
 62
     7
100
AcDbText
 10
1450.09046654833
 20
2366.171049938283
 30
0.0
 40
11.692914
  1
Ｐ
 50
4.450689000000006
 41
1.2
  7
EXCADSTD
100
AcDbText
  0
TEXT
  5
1DC
330
1F
100
AcDbEntity
  8
LAY-10
  6
CONTINUOUS
 62
     7
100
AcDbText
 10
1157.319188492061
 20
1542.921923288643
 30
0.0
 40
17.9291348
  1
Ｎ
 50
317.6777256140001
 41
1.2
  7
EXCADSTD
100
AcDbText
  0
LINE
  5
1DD
330
1F
100
AcDbEntity
  8
LAY-10
  6
CONTINUOUS
 62
     7
100
AcDbLine
 10
2206.656056187098
 20
819.4966291573878
 30
0.0
 11
2207.569068519616
 21
809.06085044365
 31
0.0
  0
ARC
  5
1DE
330
1F
100
AcDbEntity
  8
LAY-10
  6
CONTINUOUS
 62
     7
100
AcDbCircle
 10
2201.675082696639
 20
819.06085044365
 30
0.0
 40
5.0
100
AcDbArc
 50
4.999999999999686
 51
90.00000000000001
  0
LINE
  5
1DF
330
1F
100
AcDbEntity
  8
LAY-10
  6
CONTINUOUS
 62
     7
100
AcDbLine
 10
1157.58671308364
 20
2026.729893637601
 30
0.0
 11
1103.84659771364
 21
1972.989778266601
 31
0.0
  0
LINE
  5
1E0
330
1F
100
AcDbEntity
  8
LAY-10
  6
CONTINUOUS
 62
     7
100
AcDbLine
 10
1103.84659771364
 20
1972.989778266601
 30
0.0
 11
1096.775529901641
 21
1980.060846078601
 31
0.0
  0
LINE
  5
1E1
330
1F
100
AcDbEntity
  8
LAY-10
  6
CONTINUOUS
 62
     7
100
AcDbLine
 10
1134.959296085641
 20
2049.3573106346
 30
0.0
 11
1157.58671308364
 21
2026.729893637601
 31
0.0
  0
LINE
  5
1E2
330
1F
100
AcDbEntity
  8
LAY-10
  6
CONTINUOUS
 62
     7
100
AcDbLine
 10
1143.44457746064
 20
2026.729893637601
 30
0.0
 11
1134.959296085641
 21
2035.215175011601
 31
0.0
  0
LINE
  5
1E3
330
1F
100
AcDbEntity
  8
LAY-10
  6
CONTINUOUS
 62
     7
100
AcDbLine
 10
1096.775529901641
 20
1980.060846078601
 30
0.0
 11
1143.44457746064
 21
2026.729893637601
 31
0.0
  0
LINE
  5
1E4
330
1F
100
AcDbEntity
  8
LAY-10
  6
CONTINUOUS
 62
     7
100
AcDbLine
 10
1081.21918071564
 20
1995.6171952646
 30
0.0
 11
1134.959296085641
 21
2049.3573106346
 31
0.0
  0
LINE
  5
1E5
330
1F
100
AcDbEntity
  8
LAY-10
  6
CONTINUOUS
 62
     7
100
AcDbLine
 10
1134.959296085641
 20
2035.215175011601
 30
0.0
 11
1088.290248527641
 21
1988.546127453601
 31
0.0
  0
LINE
  5
1E6
330
1F
100
AcDbEntity
  8
LAY-10
  6
CONTINUOUS
 62
     7
100
AcDbLine
 10
1088.290248527641
 20
1988.546127453601
 30
0.0
 11
1081.21918071564
 21
1995.6171952646
 31
0.0
  0
LINE
  5
1E7
330
1F
100
AcDbEntity
  8
LAY-10
  6
CONTINUOUS
 62
     7
100
AcDbLine
 10
1157.58671308364
 20
2088.9552903816
 30
0.0
 11
1103.84659771364
 21
2035.215175011601
 31
0.0
  0
LINE
  5
1E8
330
1F
100
AcDbEntity
  8
LAY-10
  6
CONTINUOUS
 62
     7
100
AcDbLine
 10
1103.84659771364
 20
2035.215175011601
 30
0.0
 11
1096.775529901641
 21
2042.2862428226
 31
0.0
  0
LINE
  5
1E9
330
1F
100
AcDbEntity
  8
LAY-10
  6
CONTINUOUS
 62
     7
100
AcDbLine
 10
1134.959296085641
 20
2111.582707379601
 30
0.0
 11
1157.58671308364
 21
2088.9552903816
 31
0.0
  0
LINE
  5
1EA
330
1F
100
AcDbEntity
  8
LAY-10
  6
CONTINUOUS
 62
     7
100
AcDbLine
 10
1143.44457746064
 20
2088.9552903816
 30
0.0
 11
1134.959296085641
 21
2097.4405717556
 31
0.0
  0
LINE
  5
1EB
330
1F
100
AcDbEntity
  8
LAY-10
  6
CONTINUOUS
 62
     7
100
AcDbLine
 10
1096.775529901641
 20
2042.2862428226
 30
0.0
 11
1143.44457746064
 21
2088.9552903816
 31
0.0
  0
LINE
  5
1EC
330
1F
100
AcDbEntity
  8
LAY-10
  6
CONTINUOUS
 62
     7
100
AcDbLine
 10
1081.21918071564
 20
2057.842592009601
 30
0.0
 11
1134.959296085641
 21
2111.582707379601
 31
0.0
  0
LINE
  5
1ED
330
1F
100
AcDbEntity
  8
LAY-10
  6
CONTINUOUS
 62
     7
100
AcDbLine
 10
1134.959296085641
 20
2097.4405717556
 30
0.0
 11
1088.290248527641
 21
2050.7715241976
 31
0.0
  0
LINE
  5
1EE
330
1F
100
AcDbEntity
  8
LAY-10
  6
CONTINUOUS
 62
     7
100
AcDbLine
 10
1088.290248527641
 20
2050.7715241976
 30
0.0
 11
1081.21918071564
 21
2057.842592009601
 31
0.0
  0
LINE
  5
1EF
330
1F
100
AcDbEntity
  8
LAY-10
  6
CONTINUOUS
 62
     7
100
AcDbLine
 10
1157.58671308364
 20
2151.1806871256
 30
0.0
 11
1103.84659771364
 21
2097.4405717556
 31
0.0
  0
LINE
  5
1F0
330
1F
100
AcDbEntity
  8
LAY-10
  6
CONTINUOUS
 62
     7
100
AcDbLine
 10
1103.84659771364
 20
2097.4405717556
 30
0.0
 11
1096.775529901641
 21
2104.5116395676
 31
0.0
  0
LINE
  5
1F1
330
1F
100
AcDbEntity
  8
LAY-10
  6
CONTINUOUS
 62
     7
100
AcDbLine
 10
1134.959296085641
 20
2173.8081041236
 30
0.0
 11
1157.58671308364
 21
2151.1806871256
 31
0.0
  0
LINE
  5
1F2
330
1F
100
AcDbEntity
  8
LAY-10
  6
CONTINUOUS
 62
     7
100
AcDbLine
 10
1143.44457746064
 20
2151.1806871256
 30
0.0
 11
1134.959296085641
 21
2159.6659684996
 31
0.0
  0
LINE
  5
1F3
330
1F
100
AcDbEntity
  8
LAY-10
  6
CONTINUOUS
 62
     7
100
AcDbLine
 10
1096.775529901641
 20
2104.5116395676
 30
0.0
 11
1143.44457746064
 21
2151.1806871256
 31
0.0
  0
LINE
  5
1F4
330
1F
100
AcDbEntity
  8
LAY-10
  6
CONTINUOUS
 62
     7
100
AcDbLine
 10
1081.21918071564
 20
2120.067988753601
 30
0.0
 11
1134.959296085641
 21
2173.8081041236
 31
0.0
  0
LINE
  5
1F5
330
1F
100
AcDbEntity
  8
LAY-10
  6
CONTINUOUS
 62
     7
100
AcDbLine
 10
1134.959296085641
 20
2159.6659684996
 30
0.0
 11
1088.290248527641
 21
2112.9969209416
 31
0.0
  0
LINE
  5
1F6
330
1F
100
AcDbEntity
  8
LAY-10
  6
CONTINUOUS
 62
     7
100
AcDbLine
 10
1088.290248527641
 20
2112.9969209416
 30
0.0
 11
1081.21918071564
 21
2120.067988753601
 31
0.0
  0
LINE
  5
1F7
330
1F
100
AcDbEntity
  8
LAY-10
  6
CONTINUOUS
 62
     7
100
AcDbLine
 10
1166.071994458641
 20
2018.244612263601
 30
0.0
 11
1219.81210982864
 21
1964.5044968926
 31
0.0
  0
LINE
  5
1F8
330
1F
100
AcDbEntity
  8
LAY-10
  6
CONTINUOUS
 62
     7
100
AcDbLine
 10
1219.81210982864
 20
1964.5044968926
 30
0.0
 11
1212.74104201664
 21
1957.4334290806
 31
0.0
  0
LINE
  5
1F9
330
1F
100
AcDbEntity
  8
LAY-10
  6
CONTINUOUS
 62
     7
100
AcDbLine
 10
1143.44457746064
 20
1995.617195265601
 30
0.0
 11
1166.071994458641
 21
2018.244612263601
 31
0.0
  0
LINE
  5
1FA
330
1F
100
AcDbEntity
  8
LAY-10
  6
CONTINUOUS
 62
     7
100
AcDbLine
 10
1166.071994458641
 20
2004.1024766396
 30
0.0
 11
1157.586713084641
 21
1995.617195265601
 31
0.0
  0
LINE
  5
1FB
330
1F
100
AcDbEntity
  8
LAY-10
  6
CONTINUOUS
 62
     7
100
AcDbLine
 10
1212.74104201664
 20
1957.4334290806
 30
0.0
 11
1166.071994458641
 21
2004.1024766396
 31
0.0
  0
LINE
  5
1FC
330
1F
100
AcDbEntity
  8
LAY-10
  6
CONTINUOUS
 62
     7
100
AcDbLine
 10
1197.18469283064
 20
1941.877079894601
 30
0.0
 11
1143.44457746064
 21
1995.617195265601
 31
0.0
  0
LINE
  5
1FD
330
1F
100
AcDbEntity
  8
LAY-10
  6
CONTINUOUS
 62
     7
100
AcDbLine
 10
1157.586713084641
 20
1995.617195265601
 30
0.0
 11
1204.255760642641
 21
1948.9481477066
 31
0.0
  0
LINE
  5
1FE
330
1F
100
AcDbEntity
  8
LAY-10
  6
CONTINUOUS
 62
     7
100
AcDbLine
 10
1204.255760642641
 20
1948.9481477066
 30
0.0
 11
1197.18469283064
 21
1941.877079894601
 31
0.0
  0
LINE
  5
1FF
330
1F
100
AcDbEntity
  8
LAY-10
  6
CONTINUOUS
 62
     7
100
AcDbLine
 10
1166.071994458641
 20
2080.4700090076
 30
0.0
 11
1219.81210982864
 21
2026.729893637601
 31
0.0
  0
LINE
  5
200
330
1F
100
AcDbEntity
  8
LAY-10
  6
CONTINUOUS
 62
     7
100
AcDbLine
 10
1219.81210982864
 20
2026.729893637601
 30
0.0
 11
1212.74104201664
 21
2019.6588258256
 31
0.0
  0
LINE
  5
201
330
1F
100
AcDbEntity
  8
LAY-10
  6
CONTINUOUS
 62
     7
100
AcDbLine
 10
1143.44457746064
 20
2057.842592009601
 30
0.0
 11
1166.071994458641
 21
2080.4700090076
 31
0.0
  0
LINE
  5
202
330
1F
100
AcDbEntity
  8
LAY-10
  6
CONTINUOUS
 62
     7
100
AcDbLine
 10
1166.071994458641
 20
2066.3278733836
 30
0.0
 11
1157.586713084641
 21
2057.842592009601
 31
0.0
  0
LINE
  5
203
330
1F
100
AcDbEntity
  8
LAY-10
  6
CONTINUOUS
 62
     7
100
AcDbLine
 10
1212.74104201664
 20
2019.6588258256
 30
0.0
 11
1166.071994458641
 21
2066.3278733836
 31
0.0
  0
LINE
  5
204
330
1F
100
AcDbEntity
  8
LAY-10
  6
CONTINUOUS
 62
     7
100
AcDbLine
 10
1197.18469283064
 20
2004.1024766396
 30
0.0
 11
1143.44457746064
 21
2057.842592009601
 31
0.0
  0
LINE
  5
205
330
1F
100
AcDbEntity
  8
LAY-10
  6
CONTINUOUS
 62
     7
100
AcDbLine
 10
1157.586713084641
 20
2057.842592009601
 30
0.0
 11
1204.255760642641
 21
2011.173544450601
 31
0.0
  0
LINE
  5
206
330
1F
100
AcDbEntity
  8
LAY-10
  6
CONTINUOUS
 62
     7
100
AcDbLine
 10
1204.255760642641
 20
2011.173544450601
 30
0.0
 11
1197.18469283064
 21
2004.1024766396
 31
0.0
  0
LINE
  5
207
330
1F
100
AcDbEntity
  8
LAY-10
  6
CONTINUOUS
 62
     7
100
AcDbLine
 10
1166.071994458641
 20
2142.6954057516
 30
0.0
 11
1219.81210982864
 21
2088.9552903816
 31
0.0
  0
LINE
  5
208
330
1F
100
AcDbEntity
  8
LAY-10
  6
CONTINUOUS
 62
     7
100
AcDbLine
 10
1219.81210982864
 20
2088.9552903816
 30
0.0
 11
1212.74104201664
 21
2081.884222569601
 31
0.0
  0
LINE
  5
209
330
1F
100
AcDbEntity
  8
LAY-10
  6
CONTINUOUS
 62
     7
100
AcDbLine
 10
1143.44457746064
 20
2120.067988753601
 30
0.0
 11
1166.071994458641
 21
2142.6954057516
 31
0.0
  0
LINE
  5
20A
330
1F
100
AcDbEntity
  8
LAY-10
  6
CONTINUOUS
 62
     7
100
AcDbLine
 10
1166.071994458641
 20
2128.553270127601
 30
0.0
 11
1157.586713084641
 21
2120.067988753601
 31
0.0
  0
LINE
  5
20B
330
1F
100
AcDbEntity
  8
LAY-10
  6
CONTINUOUS
 62
     7
100
AcDbLine
 10
1212.74104201664
 20
2081.884222569601
 30
0.0
 11
1166.071994458641
 21
2128.553270127601
 31
0.0
  0
LINE
  5
20C
330
1F
100
AcDbEntity
  8
LAY-10
  6
CONTINUOUS
 62
     7
100
AcDbLine
 10
1197.18469283064
 20
2066.3278733836
 30
0.0
 11
1143.44457746064
 21
2120.067988753601
 31
0.0
  0
LINE
  5
20D
330
1F
100
AcDbEntity
  8
LAY-10
  6
CONTINUOUS
 62
     7
100
AcDbLine
 10
1157.586713084641
 20
2120.067988753601
 30
0.0
 11
1204.255760642641
 21
2073.398941195601
 31
0.0
  0
LINE
  5
20E
330
1F
100
AcDbEntity
  8
LAY-10
  6
CONTINUOUS
 62
     7
100
AcDbLine
 10
1204.255760642641
 20
2073.398941195601
 30
0.0
 11
1197.18469283064
 21
2066.3278733836
 31
0.0
  0
LINE
  5
20F
330
1F
100
AcDbEntity
  8
LAY-10
  6
CONTINUOUS
 62
     7
100
AcDbLine
 10
1166.071994458641
 20
2204.920802496601
 30
0.0
 11
1219.81210982864
 21
2151.1806871256
 31
0.0
  0
LINE
  5
210
330
1F
100
AcDbEntity
  8
LAY-10
  6
CONTINUOUS
 62
     7
100
AcDbLine
 10
1219.81210982864
 20
2151.1806871256
 30
0.0
 11
1212.74104201664
 21
2144.1096193136
 31
0.0
  0
LINE
  5
211
330
1F
100
AcDbEntity
  8
LAY-10
  6
CONTINUOUS
 62
     7
100
AcDbLine
 10
1143.44457746064
 20
2182.2933854986
 30
0.0
 11
1166.071994458641
 21
2204.920802496601
 31
0.0
  0
LINE
  5
212
330
1F
100
AcDbEntity
  8
LAY-10
  6
CONTINUOUS
 62
     7
100
AcDbLine
 10
1166.071994458641
 20
2190.7786668726
 30
0.0
 11
1157.58671308364
 21
2182.2933854986
 31
0.0
  0
LINE
  5
213
330
1F
100
AcDbEntity
  8
LAY-10
  6
CONTINUOUS
 62
     7
100
AcDbLine
 10
1212.74104201664
 20
2144.1096193136
 30
0.0
 11
1166.071994458641
 21
2190.7786668726
 31
0.0
  0
LINE
  5
214
330
1F
100
AcDbEntity
  8
LAY-10
  6
CONTINUOUS
 62
     7
100
AcDbLine
 10
1197.18469283064
 20
2128.553270127601
 30
0.0
 11
1143.44457746064
 21
2182.2933854986
 31
0.0
  0
LINE
  5
215
330
1F
100
AcDbEntity
  8
LAY-10
  6
CONTINUOUS
 62
     7
100
AcDbLine
 10
1157.58671308364
 20
2182.2933854986
 30
0.0
 11
1204.255760642641
 21
2135.6243379396
 31
0.0
  0
LINE
  5
216
330
1F
100
AcDbEntity
  8
LAY-10
  6
CONTINUOUS
 62
     7
100
AcDbLine
 10
1204.255760642641
 20
2135.6243379396
 30
0.0
 11
1197.18469283064
 21
2128.553270127601
 31
0.0
  0
LINE
  5
217
330
1F
100
AcDbEntity
  8
LAY-10
  6
CONTINUOUS
 62
     7
100
AcDbLine
 10
1205.66997420464
 20
1995.6171952646
 30
0.0
 11
1259.41008957464
 21
2049.357310635601
 31
0.0
  0
LINE
  5
218
330
1F
100
AcDbEntity
  8
LAY-10
  6
CONTINUOUS
 62
     7
100
AcDbLine
 10
1259.41008957464
 20
2049.357310635601
 30
0.0
 11
1266.481157386641
 21
2042.2862428236
 31
0.0
  0
LINE
  5
219
330
1F
100
AcDbEntity
  8
LAY-10
  6
CONTINUOUS
 62
     7
100
AcDbLine
 10
1228.297391202641
 20
1972.9897782676
 30
0.0
 11
1205.66997420464
 21
1995.6171952646
 31
0.0
  0
LINE
  5
21A
330
1F
100
AcDbEntity
  8
LAY-10
  6
CONTINUOUS
 62
     7
100
AcDbLine
 10
1219.81210982864
 20
1995.6171952646
 30
0.0
 11
1228.297391202641
 21
1987.1319138906
 31
0.0
  0
LINE
  5
21B
330
1F
100
AcDbEntity
  8
LAY-10
  6
CONTINUOUS
 62
     7
100
AcDbLine
 10
1266.481157386641
 20
2042.2862428236
 30
0.0
 11
1219.81210982864
 21
1995.6171952646
 31
0.0
  0
LINE
  5
21C
330
1F
100
AcDbEntity
  8
LAY-10
  6
CONTINUOUS
 62
     7
100
AcDbLine
 10
1282.03750657264
 20
2026.729893637601
 30
0.0
 11
1228.297391202641
 21
1972.9897782676
 31
0.0
  0
LINE
  5
21D
330
1F
100
AcDbEntity
  8
LAY-10
  6
CONTINUOUS
 62
     7
100
AcDbLine
 10
1228.297391202641
 20
1987.1319138906
 30
0.0
 11
1274.96643876164
 21
2033.8009614486
 31
0.0
  0
LINE
  5
21E
330
1F
100
AcDbEntity
  8
LAY-10
  6
CONTINUOUS
 62
     7
100
AcDbLine
 10
1274.96643876164
 20
2033.8009614486
 30
0.0
 11
1282.03750657264
 21
2026.729893637601
 31
0.0
  0
LINE
  5
21F
330
1F
100
AcDbEntity
  8
LAY-10
  6
CONTINUOUS
 62
     7
100
AcDbLine
 10
1205.66997420464
 20
2057.842592009601
 30
0.0
 11
1259.41008957464
 21
2111.582707379601
 31
0.0
  0
LINE
  5
220
330
1F
100
AcDbEntity
  8
LAY-10
  6
CONTINUOUS
 62
     7
100
AcDbLine
 10
1259.41008957464
 20
2111.582707379601
 30
0.0
 11
1266.481157386641
 21
2104.5116395676
 31
0.0
  0
LINE
  5
221
330
1F
100
AcDbEntity
  8
LAY-10
  6
CONTINUOUS
 62
     7
100
AcDbLine
 10
1228.297391202641
 20
2035.215175011601
 30
0.0
 11
1205.66997420464
 21
2057.842592009601
 31
0.0
  0
LINE
  5
222
330
1F
100
AcDbEntity
  8
LAY-10
  6
CONTINUOUS
 62
     7
100
AcDbLine
 10
1219.81210982864
 20
2057.842592009601
 30
0.0
 11
1228.297391202641
 21
2049.357310635601
 31
0.0
  0
LINE
  5
223
330
1F
100
AcDbEntity
  8
LAY-10
  6
CONTINUOUS
 62
     7
100
AcDbLine
 10
1266.481157386641
 20
2104.5116395676
 30
0.0
 11
1219.81210982864
 21
2057.842592009601
 31
0.0
  0
LINE
  5
224
330
1F
100
AcDbEntity
  8
LAY-10
  6
CONTINUOUS
 62
     7
100
AcDbLine
 10
1282.03750657264
 20
2088.9552903816
 30
0.0
 11
1228.297391202641
 21
2035.215175011601
 31
0.0
  0
LINE
  5
225
330
1F
100
AcDbEntity
  8
LAY-10
  6
CONTINUOUS
 62
     7
100
AcDbLine
 10
1228.297391202641
 20
2049.357310635601
 30
0.0
 11
1274.96643876164
 21
2096.026358193601
 31
0.0
  0
LINE
  5
226
330
1F
100
AcDbEntity
  8
LAY-10
  6
CONTINUOUS
 62
     7
100
AcDbLine
 10
1274.96643876164
 20
2096.026358193601
 30
0.0
 11
1282.03750657264
 21
2088.9552903816
 31
0.0
  0
LINE
  5
227
330
1F
100
AcDbEntity
  8
LAY-10
  6
CONTINUOUS
 62
     7
100
AcDbLine
 10
1205.66997420464
 20
2120.067988753601
 30
0.0
 11
1259.41008957464
 21
2173.8081041236
 31
0.0
  0
LINE
  5
228
330
1F
100
AcDbEntity
  8
LAY-10
  6
CONTINUOUS
 62
     7
100
AcDbLine
 10
1259.41008957464
 20
2173.8081041236
 30
0.0
 11
1266.481157386641
 21
2166.737036312601
 31
0.0
  0
LINE
  5
229
330
1F
100
AcDbEntity
  8
LAY-10
  6
CONTINUOUS
 62
     7
100
AcDbLine
 10
1228.297391202641
 20
2097.4405717556
 30
0.0
 11
1205.66997420464
 21
2120.067988753601
 31
0.0
  0
LINE
  5
22A
330
1F
100
AcDbEntity
  8
LAY-10
  6
CONTINUOUS
 62
     7
100
AcDbLine
 10
1219.81210982864
 20
2120.067988753601
 30
0.0
 11
1228.297391202641
 21
2111.582707379601
 31
0.0
  0
LINE
  5
22B
330
1F
100
AcDbEntity
  8
LAY-10
  6
CONTINUOUS
 62
     7
100
AcDbLine
 10
1266.481157386641
 20
2166.737036312601
 30
0.0
 11
1219.81210982864
 21
2120.067988753601
 31
0.0
  0
LINE
  5
22C
330
1F
100
AcDbEntity
  8
LAY-10
  6
CONTINUOUS
 62
     7
100
AcDbLine
 10
1282.03750657264
 20
2151.1806871256
 30
0.0
 11
1228.297391202641
 21
2097.4405717556
 31
0.0
  0
LINE
  5
22D
330
1F
100
AcDbEntity
  8
LAY-10
  6
CONTINUOUS
 62
     7
100
AcDbLine
 10
1228.297391202641
 20
2111.582707379601
 30
0.0
 11
1274.966438760641
 21
2158.251754937601
 31
0.0
  0
LINE
  5
22E
330
1F
100
AcDbEntity
  8
LAY-10
  6
CONTINUOUS
 62
     7
100
AcDbLine
 10
1274.966438760641
 20
2158.251754937601
 30
0.0
 11
1282.03750657264
 21
2151.1806871256
 31
0.0
  0
LINE
  5
22F
330
1F
100
AcDbEntity
  8
LAY-10
  6
CONTINUOUS
 62
     7
100
AcDbLine
 10
1321.63548631964
 20
2004.1024766396
 30
0.0
 11
1267.895370949641
 21
2057.842592009601
 31
0.0
  0
LINE
  5
230
330
1F
100
AcDbEntity
  8
LAY-10
  6
CONTINUOUS
 62
     7
100
AcDbLine
 10
1267.895370949641
 20
2057.842592009601
 30
0.0
 11
1274.966438760641
 21
2064.913659821601
 31
0.0
  0
LINE
  5
231
330
1F
100
AcDbEntity
  8
LAY-10
  6
CONTINUOUS
 62
     7
100
AcDbLine
 10
1344.262903317641
 20
2026.729893637601
 30
0.0
 11
1321.63548631964
 21
2004.1024766396
 31
0.0
  0
LINE
  5
232
330
1F
100
AcDbEntity
  8
LAY-10
  6
CONTINUOUS
 62
     7
100
AcDbLine
 10
1321.63548631964
 20
2018.244612262601
 30
0.0
 11
1330.12076769364
 21
2026.729893637601
 31
0.0
  0
LINE
  5
233
330
1F
100
AcDbEntity
  8
LAY-10
  6
CONTINUOUS
 62
     7
100
AcDbLine
 10
1274.966438760641
 20
2064.913659821601
 30
0.0
 11
1321.63548631964
 21
2018.244612262601
 31
0.0
  0
LINE
  5
234
330
1F
100
AcDbEntity
  8
LAY-10
  6
CONTINUOUS
 62
     7
100
AcDbLine
 10
1290.52278794764
 20
2080.4700090076
 30
0.0
 11
1344.262903317641
 21
2026.729893637601
 31
0.0
  0
LINE
  5
235
330
1F
100
AcDbEntity
  8
LAY-10
  6
CONTINUOUS
 62
     7
100
AcDbLine
 10
1330.12076769364
 20
2026.729893637601
 30
0.0
 11
1283.45172013564
 21
2073.398941195601
 31
0.0
  0
LINE
  5
236
330
1F
100
AcDbEntity
  8
LAY-10
  6
CONTINUOUS
 62
     7
100
AcDbLine
 10
1283.45172013564
 20
2073.398941195601
 30
0.0
 11
1290.52278794764
 21
2080.4700090076
 31
0.0
  0
LINE
  5
237
330
1F
100
AcDbEntity
  8
LAY-10
  6
CONTINUOUS
 62
     7
100
AcDbLine
 10
1321.63548631964
 20
2066.3278733836
 30
0.0
 11
1267.895370949641
 21
2120.067988753601
 31
0.0
  0
LINE
  5
238
330
1F
100
AcDbEntity
  8
LAY-10
  6
CONTINUOUS
 62
     7
100
AcDbLine
 10
1267.895370949641
 20
2120.067988753601
 30
0.0
 11
1274.966438760641
 21
2127.1390565656
 31
0.0
  0
LINE
  5
239
330
1F
100
AcDbEntity
  8
LAY-10
  6
CONTINUOUS
 62
     7
100
AcDbLine
 10
1344.262903317641
 20
2088.9552903816
 30
0.0
 11
1321.63548631964
 21
2066.3278733836
 31
0.0
  0
LINE
  5
23A
330
1F
100
AcDbEntity
  8
LAY-10
  6
CONTINUOUS
 62
     7
100
AcDbLine
 10
1321.63548631964
 20
2080.4700090076
 30
0.0
 11
1330.12076769364
 21
2088.9552903816
 31
0.0
  0
LINE
  5
23B
330
1F
100
AcDbEntity
  8
LAY-10
  6
CONTINUOUS
 62
     7
100
AcDbLine
 10
1274.966438760641
 20
2127.1390565656
 30
0.0
 11
1321.63548631964
 21
2080.4700090076
 31
0.0
  0
LINE
  5
23C
330
1F
100
AcDbEntity
  8
LAY-10
  6
CONTINUOUS
 62
     7
100
AcDbLine
 10
1290.522787946641
 20
2142.6954057516
 30
0.0
 11
1344.262903317641
 21
2088.9552903816
 31
0.0
  0
LINE
  5
23D
330
1F
100
AcDbEntity
  8
LAY-10
  6
CONTINUOUS
 62
     7
100
AcDbLine
 10
1330.12076769364
 20
2088.9552903816
 30
0.0
 11
1283.45172013564
 21
2135.6243379396
 31
0.0
  0
LINE
  5
23E
330
1F
100
AcDbEntity
  8
LAY-10
  6
CONTINUOUS
 62
     7
100
AcDbLine
 10
1283.45172013564
 20
2135.6243379396
 30
0.0
 11
1290.522787946641
 21
2142.6954057516
 31
0.0
  0
LINE
  5
23F
330
1F
100
AcDbEntity
  8
LAY-10
  6
CONTINUOUS
 62
     7
100
AcDbLine
 10
1957.656984167618
 20
856.5608504436705
 30
0.0
 11
1962.906984167747
 21
856.5608504436705
 31
0.0
  0
LINE
  5
240
330
1F
100
AcDbEntity
  8
LAY-10
  6
CONTINUOUS
 62
     7
100
AcDbLine
 10
1957.40698416762
 20
856.5608504436705
 30
0.0
 11
1957.40698416762
 21
843.5608504436705
 31
0.0
  0
LINE
  5
241
330
1F
100
AcDbEntity
  8
LAY-10
  6
CONTINUOUS
 62
     7
100
AcDbLine
 10
1951.40698416762
 20
843.5608504436705
 30
0.0
 11
1951.40698416762
 21
856.5608504436705
 31
0.0
  0
LINE
  5
242
330
1F
100
AcDbEntity
  8
LAY-10
  6
CONTINUOUS
 62
     7
100
AcDbLine
 10
1951.40698416762
 20
843.5608504436705
 30
0.0
 11
1957.40698416762
 21
843.5608504436705
 31
0.0
  0
LINE
  5
243
330
1F
100
AcDbEntity
  8
LAY-10
  6
CONTINUOUS
 62
     7
100
AcDbLine
 10
1962.15698416762
 20
856.5608504436705
 30
0.0
 11
1962.15698416762
 21
860.5608504436705
 31
0.0
  0
LINE
  5
244
330
1F
100
AcDbEntity
  8
LAY-10
  6
CONTINUOUS
 62
     7
100
AcDbLine
 10
1957.40698416762
 20
856.5608504436705
 30
0.0
 11
1962.15698416762
 21
856.5608504436705
 31
0.0
  0
LINE
  5
245
330
1F
100
AcDbEntity
  8
LAY-10
  6
CONTINUOUS
 62
     7
100
AcDbLine
 10
1946.65698416762
 20
856.5608504436705
 30
0.0
 11
1951.40698416762
 21
856.5608504436705
 31
0.0
  0
LINE
  5
246
330
1F
100
AcDbEntity
  8
LAY-10
  6
CONTINUOUS
 62
     7
100
AcDbLine
 10
1946.65698416762
 20
856.5608504436705
 30
0.0
 11
1946.65698416762
 21
860.5608504436719
 31
0.0
  0
ARC
  5
247
330
1F
100
AcDbEntity
  8
LAY-10
  6
CONTINUOUS
 62
     7
100
AcDbCircle
 10
1937.283517536184
 20
859.0378888756231
 30
0.0
 40
14.0
100
AcDbArc
 50
18.78270504665082
 51
75.00000000000006
  0
ARC
  5
248
330
1F
100
AcDbEntity
  8
LAY-10
  6
CONTINUOUS
 62
     7
100
AcDbCircle
 10
1954.40698416762
 20
864.5608504436706
 30
0.0
 40
4.0
100
AcDbArc
 50
194.7031210743942
 51
345.2968789256127
  0
ARC
  5
249
330
1F
100
AcDbEntity
  8
LAY-10
  6
CONTINUOUS
 62
     7
100
AcDbCircle
 10
1971.530450799055
 20
859.0378888756231
 30
0.0
 40
14.0
100
AcDbArc
 50
104.9999999999999
 51
161.2172949533469
  0
LINE
  5
24A
330
1F
100
AcDbEntity
  8
LAY-10
  6
CONTINUOUS
 62
     7
100
AcDbLine
 10
1940.90698416762
 20
872.5608504436705
 30
0.0
 11
1941.90698416762
 21
869.8762413841214
 31
0.0
  0
LINE
  5
24B
330
1F
100
AcDbEntity
  8
LAY-10
  6
CONTINUOUS
 62
     7
100
AcDbLine
 10
1967.90698416762
 20
872.5608504436705
 30
0.0
 11
1966.90698416762
 21
869.8762413841214
 31
0.0
  0
ARC
  5
24C
330
1F
100
AcDbEntity
  8
LAY-10
  6
CONTINUOUS
 62
     7
100
AcDbCircle
 10
1938.887612903517
 20
862.4679084292984
 30
0.0
 40
8.0
100
AcDbArc
 50
346.2089210046226
 51
67.82595008026577
  0
ARC
  5
24D
330
1F
100
AcDbEntity
  8
LAY-10
  6
CONTINUOUS
 62
     7
100
AcDbCircle
 10
1969.926355431722
 20
862.4679084292984
 30
0.0
 40
8.0
100
AcDbArc
 50
112.1740499197342
 51
193.7910789953775
  0
LINE
  5
24E
330
1F
100
AcDbEntity
  8
LAY-10
  6
CONTINUOUS
 62
     7
100
AcDbLine
 10
1957.656984167618
 20
856.5608504436705
 30
0.0
 11
1962.15698416762
 21
856.5608504436705
 31
0.0
  0
LINE
  5
24F
330
1F
100
AcDbEntity
  8
LAY-10
  6
CONTINUOUS
 62
     7
100
AcDbLine
 10
1031.406984167742
 20
856.5608504436705
 30
0.0
 11
1031.406984167742
 21
843.5608504436705
 31
0.0
  0
LINE
  5
250
330
1F
100
AcDbEntity
  8
LAY-10
  6
CONTINUOUS
 62
     7
100
AcDbLine
 10
1037.406984167742
 20
843.5608504436705
 30
0.0
 11
1037.406984167742
 21
856.5608504436705
 31
0.0
  0
LINE
  5
251
330
1F
100
AcDbEntity
  8
LAY-10
  6
CONTINUOUS
 62
     7
100
AcDbLine
 10
1037.406984167742
 20
843.5608504436705
 30
0.0
 11
1031.406984167742
 21
843.5608504436705
 31
0.0
  0
LINE
  5
252
330
1F
100
AcDbEntity
  8
LAY-10
  6
CONTINUOUS
 62
     7
100
AcDbLine
 10
1026.656984167742
 20
856.5608504436705
 30
0.0
 11
1026.656984167742
 21
860.5608504436705
 31
0.0
  0
LINE
  5
253
330
1F
100
AcDbEntity
  8
LAY-10
  6
CONTINUOUS
 62
     7
100
AcDbLine
 10
1031.406984167742
 20
856.5608504436705
 30
0.0
 11
1026.656984167742
 21
856.5608504436705
 31
0.0
  0
LINE
  5
254
330
1F
100
AcDbEntity
  8
LAY-10
  6
CONTINUOUS
 62
     7
100
AcDbLine
 10
1042.156984167742
 20
856.5608504436705
 30
0.0
 11
1037.406984167742
 21
856.5608504436705
 31
0.0
  0
LINE
  5
255
330
1F
100
AcDbEntity
  8
LAY-10
  6
CONTINUOUS
 62
     7
100
AcDbLine
 10
1042.156984167742
 20
856.5608504436705
 30
0.0
 11
1042.156984167742
 21
860.5608504436719
 31
0.0
  0
ARC
  5
256
330
1F
100
AcDbEntity
  8
LAY-10
  6
CONTINUOUS
 62
     7
100
AcDbCircle
 10
1051.530450799178
 20
859.0378888756231
 30
0.0
 40
14.0
100
AcDbArc
 50
105.0000000000003
 51
161.217294953349
  0
ARC
  5
257
330
1F
100
AcDbEntity
  8
LAY-10
  6
CONTINUOUS
 62
     7
100
AcDbCircle
 10
1034.406984167742
 20
864.5608504436706
 30
0.0
 40
4.0
100
AcDbArc
 50
194.7031210743866
 51
345.2968789256071
  0
ARC
  5
258
330
1F
100
AcDbEntity
  8
LAY-10
  6
CONTINUOUS
 62
     7
100
AcDbCircle
 10
1017.283517536307
 20
859.0378888756231
 30
0.0
 40
14.0
100
AcDbArc
 50
18.78270504665277
 51
74.99999999999972
  0
LINE
  5
259
330
1F
100
AcDbEntity
  8
LAY-10
  6
CONTINUOUS
 62
     7
100
AcDbLine
 10
1047.906984167742
 20
872.5608504436705
 30
0.0
 11
1046.906984167742
 21
869.8762413841214
 31
0.0
  0
LINE
  5
25A
330
1F
100
AcDbEntity
  8
LAY-10
  6
CONTINUOUS
 62
     7
100
AcDbLine
 10
1020.906984167742
 20
872.5608504436705
 30
0.0
 11
1021.906984167742
 21
869.8762413841214
 31
0.0
  0
ARC
  5
25B
330
1F
100
AcDbEntity
  8
LAY-10
  6
CONTINUOUS
 62
     7
100
AcDbCircle
 10
1049.926355431844
 20
862.4679084292984
 30
0.0
 40
8.0
100
AcDbArc
 50
112.1740499197358
 51
193.7910789953772
  0
ARC
  5
25C
330
1F
100
AcDbEntity
  8
LAY-10
  6
CONTINUOUS
 62
     7
100
AcDbCircle
 10
1018.88761290364
 20
862.4679084292984
 30
0.0
 40
8.0
100
AcDbArc
 50
346.2089210046229
 51
67.82595008026726
  0
LINE
  5
25D
330
1F
100
AcDbEntity
  8
LAY-10
  6
CONTINUOUS
 62
     7
100
AcDbLine
 10
1031.156984167744
 20
856.5608504436705
 30
0.0
 11
1026.656984167742
 21
856.5608504436705
 31
0.0
  0
LINE
  5
25E
330
1F
100
AcDbEntity
  8
LAY-10
  6
CONTINUOUS
 62
     7
100
AcDbLine
 10
1031.156984167744
 20
856.5608504436705
 30
0.0
 11
1026.656984167742
 21
856.5608504436705
 31
0.0
  0
LINE
  5
25F
330
1F
100
AcDbEntity
  8
LAY-10
  6
HIDDEN
 62
     4
100
AcDbLine
 10
1808.406984167687
 20
890.0319378361869
 30
0.0
 11
1808.406984167687
 21
894.0325471483625
 31
0.0
  0
LINE
  5
260
330
1F
100
AcDbEntity
  8
LAY-10
  6
CONTINUOUS
 62
     7
100
AcDbLine
 10
1857.906984167683
 20
886.2732518239441
 30
0.0
 11
1845.906984167683
 21
886.2732518239441
 31
0.0
  0
LINE
  5
261
330
1F
100
AcDbEntity
  8
LAY-10
  6
CONTINUOUS
 62
     7
100
AcDbLine
 10
1857.400909194856
 20
875.5148184750857
 30
0.0
 11
1857.906984167683
 21
886.2732518239468
 31
0.0
  0
LINE
  5
262
330
1F
100
AcDbEntity
  8
LAY-10
  6
CONTINUOUS
 62
     7
100
AcDbLine
 10
1846.41305914051
 20
875.5148184750857
 30
0.0
 11
1845.906984167683
 21
886.2732518239468
 31
0.0
  0
ARC
  5
263
330
1F
100
AcDbEntity
  8
LAY-10
  6
CONTINUOUS
 62
     7
100
AcDbCircle
 10
1851.906984167683
 20
875.7732518239468
 30
0.0
 40
5.5
100
AcDbArc
 50
182.6931989600634
 51
357.3068010399367
  0
LINE
  5
264
330
1F
100
AcDbEntity
  8
LAY-10
  6
CONTINUOUS
 62
     7
100
AcDbLine
 10
1884.406984167683
 20
879.7732518239468
 30
0.0
 11
1884.406984167683
 21
886.2732518239468
 31
0.0
  0
LINE
  5
265
330
1F
100
AcDbEntity
  8
LAY-10
  6
CONTINUOUS
 62
     7
100
AcDbLine
 10
1819.406984167683
 20
879.7732518239468
 30
0.0
 11
1819.406984167683
 21
886.2732518239468
 31
0.0
  0
ARC
  5
266
330
1F
100
AcDbEntity
  8
LAY-10
  6
CONTINUOUS
 62
     7
100
AcDbCircle
 10
1851.906984167683
 20
879.7732518239468
 30
0.0
 40
32.5
100
AcDbArc
 50
180.0
 51
0.0
  0
LINE
  5
267
330
1F
100
AcDbEntity
  8
LAY-10
  6
CONTINUOUS
 62
     7
100
AcDbLine
 10
1813.906984167683
 20
886.2732518239468
 30
0.0
 11
1813.906984167683
 21
893.9365442912572
 31
0.0
  0
LINE
  5
268
330
1F
100
AcDbEntity
  8
LAY-10
  6
CONTINUOUS
 62
     7
100
AcDbLine
 10
1819.406984167683
 20
886.2732518239468
 30
0.0
 11
1813.906984167683
 21
886.2732518239468
 31
0.0
  0
LINE
  5
269
330
1F
100
AcDbEntity
  8
LAY-10
  6
CONTINUOUS
 62
     7
100
AcDbLine
 10
1884.406984167683
 20
886.2732518239468
 30
0.0
 11
1889.906984167683
 21
886.2732518239468
 31
0.0
  0
LINE
  5
26A
330
1F
100
AcDbEntity
  8
LAY-10
  6
CONTINUOUS
 62
     7
100
AcDbLine
 10
1889.906984167683
 20
886.2732518239468
 30
0.0
 11
1889.906984167683
 21
892.6099593567102
 31
0.0
  0
ARC
  5
26B
330
1F
100
AcDbEntity
  8
LAY-10
  6
CONTINUOUS
 62
     7
100
AcDbCircle
 10
1798.207530813297
 20
862.2057047714912
 30
0.0
 40
10.0
100
AcDbArc
 50
18.11528772923896
 51
88.99999999999827
  0
ARC
  5
26C
330
1F
100
AcDbEntity
  8
LAY-10
  6
CONTINUOUS
 62
     7
100
AcDbCircle
 10
1851.906984167683
 20
879.7732518239468
 30
0.0
 40
46.5
100
AcDbArc
 50
198.11528772924
 51
339.8847122707567
  0
ARC
  5
26D
330
1F
100
AcDbEntity
  8
LAY-10
  6
CONTINUOUS
 62
     7
100
AcDbCircle
 10
1904.960626715565
 20
860.3423225512256
 30
0.0
 40
10.0
100
AcDbArc
 50
88.99999999999827
 51
159.8847122707573
  0
LINE
  5
26E
330
1F
100
AcDbEntity
  8
LAY-10
  6
CONTINUOUS
 62
     7
100
AcDbLine
 10
1798.382054877671
 20
872.2041817230543
 30
0.0
 11
1785.970835143715
 21
872.4208203693493
 31
0.0
  0
LINE
  5
26F
330
1F
100
AcDbEntity
  8
LAY-10
  6
CONTINUOUS
 62
     7
100
AcDbLine
 10
1798.38205487767
 20
872.2041817230538
 30
0.0
 11
1671.320764454181
 21
874.4220447972634
 31
0.0
  0
LINE
  5
270
330
1F
100
AcDbEntity
  8
LAY-10
  6
CONTINUOUS
 62
     7
100
AcDbLine
 10
1921.906984167681
 20
869.5608504436495
 30
0.0
 11
1901.085224349797
 21
869.5608504436495
 31
0.0
  0
LINE
  5
271
330
1F
100
AcDbEntity
  8
LAY-10
  6
CONTINUOUS
 62
     7
100
AcDbLine
 10
1921.906984167681
 20
870.0480460620392
 30
0.0
 11
1905.135150779938
 21
870.3407995027883
 31
0.0
  0
LINE
  5
272
330
1F
100
AcDbEntity
  8
LAY-10
  6
CONTINUOUS
 62
     7
100
AcDbLine
 10
1066.881032978393
 20
870.0475930823463
 30
0.0
 11
1066.90698416768
 21
870.0480460620406
 31
0.0
  0
LINE
  5
273
330
1F
100
AcDbEntity
  8
LAY-10
  6
CONTINUOUS
 62
     7
100
AcDbLine
 10
1066.90698416768
 20
870.0475930823463
 30
0.0
 11
1066.90698416768
 21
870.0480460620397
 31
0.0
  0
LINE
  5
274
330
1F
100
AcDbEntity
  8
LAY-10
  6
CONTINUOUS
 62
     7
100
AcDbLine
 10
1044.40698416764
 20
809.0608504437405
 30
0.0
 11
1042.406984167639
 21
856.5608504437405
 31
0.0
  0
LINE
  5
275
330
1F
100
AcDbEntity
  8
LAY-10
  6
CONTINUOUS
 62
     7
100
AcDbLine
 10
1052.90698416764
 20
844.5608504437433
 30
0.0
 11
1054.912247325529
 21
844.5608504437433
 31
0.0
  0
LINE
  5
276
330
1F
100
AcDbEntity
  8
LAY-10
  6
CONTINUOUS
 62
     7
100
AcDbLine
 10
1052.906984167639
 20
864.5608504437419
 30
0.0
 11
1052.906984167639
 21
844.56085044374
 31
0.0
  0
LINE
  5
277
330
1F
100
AcDbEntity
  8
LAY-10
  6
CONTINUOUS
 62
     7
100
AcDbLine
 10
1056.406984167635
 20
809.0608504437396
 30
0.0
 11
1054.912247325529
 21
844.56085044374
 31
0.0
  0
LINE
  5
278
330
1F
100
AcDbEntity
  8
LAY-10
  6
CONTINUOUS
 62
     7
100
AcDbLine
 10
1047.406984167641
 20
809.06085044374
 30
0.0
 11
1045.070142062377
 21
864.5608504437419
 31
0.0
  0
LINE
  5
279
330
1F
100
AcDbEntity
  8
LAY-10
  6
CONTINUOUS
 62
     7
100
AcDbLine
 10
1045.289766386178
 20
864.5608504437419
 30
0.0
 11
1052.90698416764
 21
864.5608504437419
 31
0.0
  0
ARC
  5
27A
330
1F
100
AcDbEntity
  8
LAY-10
  6
CONTINUOUS
 62
     7
100
AcDbCircle
 10
1045.289766386178
 20
863.560850443742
 30
0.0
 40
1.0
100
AcDbArc
 50
90.00000000000001
 51
172.8749836510983
  0
LINE
  5
27B
330
1F
100
AcDbEntity
  8
LAY-10
  6
CONTINUOUS
 62
     7
100
AcDbLine
 10
1044.297488509464
 20
863.6848851783299
 30
0.0
 11
1043.40698416764
 21
856.56085044374
 31
0.0
  0
LINE
  5
27C
330
1F
100
AcDbEntity
  8
LAY-10
  6
CONTINUOUS
 62
     7
100
AcDbLine
 10
1056.906984167641
 20
871.560850443741
 30
0.0
 11
1058.639034975641
 21
868.560850443741
 31
0.0
  0
ARC
  5
27D
330
1F
100
AcDbEntity
  8
LAY-10
  6
CONTINUOUS
 62
     7
100
AcDbCircle
 10
1059.348502607752
 20
872.5608504437406
 30
0.0
 40
2.0
100
AcDbArc
 50
90.00000000000001
 51
161.565051177077
  0
LINE
  5
27E
330
1F
100
AcDbEntity
  8
LAY-10
  6
CONTINUOUS
 62
     7
100
AcDbLine
 10
1056.90698416764
 20
871.56085044374
 30
0.0
 11
1057.45113601165
 21
873.1933059757703
 31
0.0
  0
LINE
  5
27F
330
1F
100
AcDbEntity
  8
LAY-10
  6
CONTINUOUS
 62
     7
100
AcDbLine
 10
1058.906984167652
 20
846.560850443737
 30
0.0
 11
1070.906984167652
 21
846.560850443737
 31
0.0
  0
LINE
  5
280
330
1F
100
AcDbEntity
  8
LAY-10
  6
CONTINUOUS
 62
     7
100
AcDbLine
 10
1058.906984167652
 20
870.5608504437369
 30
0.0
 11
1058.906984167652
 21
846.560850443737
 31
0.0
  0
LINE
  5
281
330
1F
100
AcDbEntity
  8
LAY-10
  6
CONTINUOUS
 62
     7
100
AcDbLine
 10
1138.906984167652
 20
840.5608504437369
 30
0.0
 11
1091.906984167652
 21
840.5608504437369
 31
0.0
  0
LINE
  5
282
330
1F
100
AcDbEntity
  8
LAY-10
  6
CONTINUOUS
 62
     7
100
AcDbLine
 10
1070.906984167652
 20
845.0608504437369
 30
0.0
 11
1091.906984167652
 21
845.0608504437369
 31
0.0
  0
LINE
  5
283
330
1F
100
AcDbEntity
  8
LAY-10
  6
CONTINUOUS
 62
     7
100
AcDbLine
 10
1094.406984167652
 20
889.5608504437369
 30
0.0
 11
1094.406984167652
 21
875.5608504437369
 31
0.0
  0
LINE
  5
284
330
1F
100
AcDbEntity
  8
LAY-10
  6
CONTINUOUS
 62
     7
100
AcDbLine
 10
1126.406984167652
 20
889.5608504437369
 30
0.0
 11
1126.406984167652
 21
875.5608504437369
 31
0.0
  0
LINE
  5
285
330
1F
100
AcDbEntity
  8
LAY-10
  6
CONTINUOUS
 62
     7
100
AcDbLine
 10
1070.906984167652
 20
870.5608504437369
 30
0.0
 11
1058.906984167652
 21
870.5608504437369
 31
0.0
  0
LINE
  5
286
330
1F
100
AcDbEntity
  8
LAY-10
  6
CONTINUOUS
 62
     7
100
AcDbLine
 10
1138.90698416765
 20
840.5608504437369
 30
0.0
 11
1138.906984167652
 21
874.5608504437369
 31
0.0
  0
LINE
  5
287
330
1F
100
AcDbEntity
  8
LAY-10
  6
CONTINUOUS
 62
     7
100
AcDbLine
 10
1091.906984167652
 20
840.5608504437369
 30
0.0
 11
1091.906984167652
 21
869.5608504437378
 31
0.0
  0
LINE
  5
288
330
1F
100
AcDbEntity
  8
LAY-10
  6
CONTINUOUS
 62
     7
100
AcDbLine
 10
1070.906984167651
 20
845.0608504437369
 30
0.0
 11
1070.906984167651
 21
874.5608504437369
 31
0.0
  0
LINE
  5
289
330
1F
100
AcDbEntity
  8
LAY-10
  6
CONTINUOUS
 62
     7
100
AcDbLine
 10
1138.906984167652
 20
869.5608504437378
 30
0.0
 11
1070.906984167652
 21
869.5608504437378
 31
0.0
  0
LINE
  5
28A
330
1F
100
AcDbEntity
  8
LAY-10
  6
CONTINUOUS
 62
     7
100
AcDbLine
 10
1141.906984167652
 20
871.560850443737
 30
0.0
 11
1138.906984167652
 21
871.560850443737
 31
0.0
  0
LINE
  5
28B
330
1F
100
AcDbEntity
  8
LAY-10
  6
CONTINUOUS
 62
     7
100
AcDbLine
 10
1141.906984167652
 20
841.560850443737
 30
0.0
 11
1141.906984167652
 21
871.560850443737
 31
0.0
  0
LINE
  5
28C
330
1F
100
AcDbEntity
  8
LAY-10
  6
CONTINUOUS
 62
     7
100
AcDbLine
 10
1138.906984167652
 20
841.560850443737
 30
0.0
 11
1141.906984167652
 21
841.560850443737
 31
0.0
  0
LINE
  5
28D
330
1F
100
AcDbEntity
  8
LAY-10
  6
CONTINUOUS
 62
     7
100
AcDbLine
 10
1130.906984167666
 20
867.9608504437383
 30
0.0
 11
1130.906984167665
 21
862.5608504437387
 31
0.0
  0
LINE
  5
28E
330
1F
100
AcDbEntity
  8
LAY-10
  6
CONTINUOUS
 62
     7
100
AcDbLine
 10
1120.906984167665
 20
867.9608504437383
 30
0.0
 11
1120.906984167665
 21
862.5608504437387
 31
0.0
  0
LINE
  5
28F
330
1F
100
AcDbEntity
  8
LAY-10
  6
CONTINUOUS
 62
     7
100
AcDbLine
 10
1130.906984167665
 20
862.5608504437387
 30
0.0
 11
1120.906984167665
 21
862.5608504437387
 31
0.0
  0
LINE
  5
290
330
1F
100
AcDbEntity
  8
LAY-10
  6
CONTINUOUS
 62
     7
100
AcDbLine
 10
1130.906984167665
 20
862.5608504437387
 30
0.0
 11
1130.306984167665
 21
861.9608504437392
 31
0.0
  0
LINE
  5
291
330
1F
100
AcDbEntity
  8
LAY-10
  6
CONTINUOUS
 62
     7
100
AcDbLine
 10
1120.906984167665
 20
862.5608504437387
 30
0.0
 11
1121.506984167665
 21
861.9608504437392
 31
0.0
  0
LINE
  5
292
330
1F
100
AcDbEntity
  8
LAY-10
  6
CONTINUOUS
 62
     7
100
AcDbLine
 10
1130.306984167665
 20
861.9608504437392
 30
0.0
 11
1121.506984167665
 21
861.9608504437392
 31
0.0
  0
LINE
  5
293
330
1F
100
AcDbEntity
  8
LAY-10
  6
CONTINUOUS
 62
     7
100
AcDbLine
 10
1127.156984167665
 20
862.5608504437387
 30
0.0
 11
1127.156984167665
 21
863.9108504437382
 31
0.0
  0
LINE
  5
294
330
1F
100
AcDbEntity
  8
LAY-10
  6
CONTINUOUS
 62
     7
100
AcDbLine
 10
1128.406984167665
 20
862.5608504437387
 30
0.0
 11
1128.406984167665
 21
865.2608504437385
 31
0.0
  0
LINE
  5
295
330
1F
100
AcDbEntity
  8
LAY-10
  6
CONTINUOUS
 62
     7
100
AcDbLine
 10
1129.656984167665
 20
862.5608504437387
 30
0.0
 11
1129.656984167665
 21
866.6108504437381
 31
0.0
  0
LINE
  5
296
330
1F
100
AcDbEntity
  8
LAY-10
  6
CONTINUOUS
 62
     7
100
AcDbLine
 10
1119.656984167665
 20
867.9608504437383
 30
0.0
 11
1132.156984167665
 21
867.9608504437383
 31
0.0
  0
LINE
  5
297
330
1F
100
AcDbEntity
  8
LAY-10
  6
CONTINUOUS
 62
     7
100
AcDbLine
 10
1132.156984167665
 20
869.5608504437388
 30
0.0
 11
1132.156984167665
 21
867.9608504437383
 31
0.0
  0
LINE
  5
298
330
1F
100
AcDbEntity
  8
LAY-10
  6
CONTINUOUS
 62
     7
100
AcDbLine
 10
1119.656984167665
 20
869.5608504437388
 30
0.0
 11
1119.656984167665
 21
867.9608504437383
 31
0.0
  0
LINE
  5
299
330
1F
100
AcDbEntity
  8
LAY-10
  6
CONTINUOUS
 62
     7
100
AcDbLine
 10
1083.906984167665
 20
867.9608504437383
 30
0.0
 11
1083.906984167665
 21
862.5608504437387
 31
0.0
  0
LINE
  5
29A
330
1F
100
AcDbEntity
  8
LAY-10
  6
CONTINUOUS
 62
     7
100
AcDbLine
 10
1073.906984167665
 20
867.9608504437383
 30
0.0
 11
1073.906984167665
 21
862.5608504437387
 31
0.0
  0
LINE
  5
29B
330
1F
100
AcDbEntity
  8
LAY-10
  6
CONTINUOUS
 62
     7
100
AcDbLine
 10
1083.906984167665
 20
862.5608504437387
 30
0.0
 11
1073.906984167665
 21
862.5608504437387
 31
0.0
  0
LINE
  5
29C
330
1F
100
AcDbEntity
  8
LAY-10
  6
CONTINUOUS
 62
     7
100
AcDbLine
 10
1083.906984167665
 20
862.5608504437387
 30
0.0
 11
1083.306984167665
 21
861.9608504437392
 31
0.0
  0
LINE
  5
29D
330
1F
100
AcDbEntity
  8
LAY-10
  6
CONTINUOUS
 62
     7
100
AcDbLine
 10
1073.906984167665
 20
862.5608504437387
 30
0.0
 11
1074.506984167665
 21
861.9608504437392
 31
0.0
  0
LINE
  5
29E
330
1F
100
AcDbEntity
  8
LAY-10
  6
CONTINUOUS
 62
     7
100
AcDbLine
 10
1083.306984167665
 20
861.9608504437392
 30
0.0
 11
1074.506984167665
 21
861.9608504437392
 31
0.0
  0
LINE
  5
29F
330
1F
100
AcDbEntity
  8
LAY-10
  6
CONTINUOUS
 62
     7
100
AcDbLine
 10
1080.156984167665
 20
862.5608504437387
 30
0.0
 11
1080.156984167665
 21
863.9108504437382
 31
0.0
  0
LINE
  5
2A0
330
1F
100
AcDbEntity
  8
LAY-10
  6
CONTINUOUS
 62
     7
100
AcDbLine
 10
1081.406984167665
 20
862.5608504437387
 30
0.0
 11
1081.406984167665
 21
865.2608504437385
 31
0.0
  0
LINE
  5
2A1
330
1F
100
AcDbEntity
  8
LAY-10
  6
CONTINUOUS
 62
     7
100
AcDbLine
 10
1082.656984167665
 20
862.5608504437387
 30
0.0
 11
1082.656984167665
 21
866.6108504437381
 31
0.0
  0
LINE
  5
2A2
330
1F
100
AcDbEntity
  8
LAY-10
  6
CONTINUOUS
 62
     7
100
AcDbLine
 10
1072.656984167665
 20
867.9608504437383
 30
0.0
 11
1085.156984167665
 21
867.9608504437383
 31
0.0
  0
LINE
  5
2A3
330
1F
100
AcDbEntity
  8
LAY-10
  6
CONTINUOUS
 62
     7
100
AcDbLine
 10
1085.156984167665
 20
869.5608504437388
 30
0.0
 11
1085.156984167665
 21
867.9608504437383
 31
0.0
  0
LINE
  5
2A4
330
1F
100
AcDbEntity
  8
LAY-10
  6
CONTINUOUS
 62
     7
100
AcDbLine
 10
1072.656984167665
 20
869.5608504437388
 30
0.0
 11
1072.656984167665
 21
867.9608504437383
 31
0.0
  0
LINE
  5
2A5
330
1F
100
AcDbEntity
  8
LAY-10
  6
CONTINUOUS
 62
     7
100
AcDbLine
 10
1123.40698416765
 20
885.6040532850507
 30
0.0
 11
1120.406984167653
 21
883.3020723211162
 31
0.0
  0
LINE
  5
2A6
330
1F
100
AcDbEntity
  8
LAY-10
  6
CONTINUOUS
 62
     7
100
AcDbLine
 10
1121.406984167646
 20
876.1382007129265
 30
0.0
 11
1099.406984167646
 21
876.1382007129265
 31
0.0
  0
LINE
  5
2A7
330
1F
100
AcDbEntity
  8
LAY-10
  6
CONTINUOUS
 62
     7
100
AcDbLine
 10
1121.406984167646
 20
882.5608504437373
 30
0.0
 11
1121.406984167646
 21
876.1382007129265
 31
0.0
  0
LINE
  5
2A8
330
1F
100
AcDbEntity
  8
LAY-10
  6
CONTINUOUS
 62
     7
100
AcDbLine
 10
1099.406984167646
 20
882.5608504437373
 30
0.0
 11
1099.406984167646
 21
876.1382007129268
 31
0.0
  0
LINE
  5
2A9
330
1F
100
AcDbEntity
  8
LAY-10
  6
CONTINUOUS
 62
     7
100
AcDbLine
 10
1099.406984167646
 20
876.1382007129268
 30
0.0
 11
1100.406984167646
 21
875.5608504437373
 31
0.0
  0
LINE
  5
2AA
330
1F
100
AcDbEntity
  8
LAY-10
  6
CONTINUOUS
 62
     7
100
AcDbLine
 10
1121.406984167646
 20
876.1382007129265
 30
0.0
 11
1120.406984167646
 21
875.5608504437369
 31
0.0
  0
LINE
  5
2AB
330
1F
100
AcDbEntity
  8
LAY-10
  6
CONTINUOUS
 62
     7
100
AcDbLine
 10
1097.406984167646
 20
889.5608504437369
 30
0.0
 11
1097.406984167646
 21
885.6040532850488
 31
0.0
  0
LINE
  5
2AC
330
1F
100
AcDbEntity
  8
LAY-10
  6
CONTINUOUS
 62
     7
100
AcDbLine
 10
1123.406984167646
 20
889.5608504437369
 30
0.0
 11
1123.406984167646
 21
885.6040532850488
 31
0.0
  0
LINE
  5
2AD
330
1F
100
AcDbEntity
  8
LAY-10
  6
CONTINUOUS
 62
     7
100
AcDbLine
 10
1122.906984167647
 20
885.5608504437373
 30
0.0
 11
1097.906984167646
 21
885.5608504437373
 31
0.0
  0
LINE
  5
2AE
330
1F
100
AcDbEntity
  8
LAY-10
  6
CONTINUOUS
 62
     7
100
AcDbLine
 10
1121.906984167647
 20
889.5608504437369
 30
0.0
 11
1122.906984167647
 21
888.5608504437374
 31
0.0
  0
LINE
  5
2AF
330
1F
100
AcDbEntity
  8
LAY-10
  6
CONTINUOUS
 62
     7
100
AcDbLine
 10
1098.906984167647
 20
889.5608504437369
 30
0.0
 11
1097.906984167646
 21
888.5608504437374
 31
0.0
  0
LINE
  5
2B0
330
1F
100
AcDbEntity
  8
LAY-10
  6
CONTINUOUS
 62
     7
100
AcDbLine
 10
1121.406984167647
 20
882.5608504437373
 30
0.0
 11
1099.406984167646
 21
882.5608504437373
 31
0.0
  0
LINE
  5
2B1
330
1F
100
AcDbEntity
  8
LAY-10
  6
CONTINUOUS
 62
     7
100
AcDbLine
 10
1112.156984167646
 20
889.5608504437369
 30
0.0
 11
1112.156984167646
 21
887.0608504437373
 31
0.0
  0
LINE
  5
2B2
330
1F
100
AcDbEntity
  8
LAY-10
  6
CONTINUOUS
 62
     7
100
AcDbLine
 10
1108.656984167647
 20
889.5608504437369
 30
0.0
 11
1108.656984167647
 21
887.0608504437373
 31
0.0
  0
LINE
  5
2B3
330
1F
100
AcDbEntity
  8
LAY-10
  6
CONTINUOUS
 62
     7
100
AcDbLine
 10
1112.156984167646
 20
887.0608504437373
 30
0.0
 11
1108.656984167647
 21
887.0608504437373
 31
0.0
  0
LINE
  5
2B4
330
1F
100
AcDbEntity
  8
LAY-10
  6
CONTINUOUS
 62
     7
100
AcDbLine
 10
1097.906984167646
 20
888.5608504437374
 30
0.0
 11
1097.906984167646
 21
885.5608504437373
 31
0.0
  0
LINE
  5
2B5
330
1F
100
AcDbEntity
  8
LAY-10
  6
CONTINUOUS
 62
     7
100
AcDbLine
 10
1122.906984167647
 20
888.5608504437374
 30
0.0
 11
1122.906984167647
 21
885.5608504437373
 31
0.0
  0
LINE
  5
2B6
330
1F
100
AcDbEntity
  8
LAY-10
  6
CONTINUOUS
 62
     7
100
AcDbLine
 10
1100.406984167642
 20
875.5608504437369
 30
0.0
 11
1120.406984167642
 21
875.5608504437369
 31
0.0
  0
LINE
  5
2B7
330
1F
100
AcDbEntity
  8
LAY-10
  6
CONTINUOUS
 62
     7
100
AcDbLine
 10
1120.406984167642
 20
875.5608504437369
 30
0.0
 11
1120.406984167642
 21
874.5608504437369
 31
0.0
  0
LINE
  5
2B8
330
1F
100
AcDbEntity
  8
LAY-10
  6
CONTINUOUS
 62
     7
100
AcDbLine
 10
1100.406984167642
 20
875.5608504437369
 30
0.0
 11
1100.406984167642
 21
874.5608504437369
 31
0.0
  0
LINE
  5
2B9
330
1F
100
AcDbEntity
  8
LAY-10
  6
CONTINUOUS
 62
     7
100
AcDbLine
 10
1048.906984167652
 20
867.5608504437323
 30
0.0
 11
1058.906984167652
 21
867.5608504437323
 31
0.0
  0
LINE
  5
2BA
330
1F
100
AcDbEntity
  8
LAY-10
  6
CONTINUOUS
 62
     7
100
AcDbLine
 10
1048.906984167654
 20
867.5608504437305
 30
0.0
 11
1047.906984167652
 21
866.5608504437287
 31
0.0
  0
LINE
  5
2BB
330
1F
100
AcDbEntity
  8
LAY-10
  6
CONTINUOUS
 62
     7
100
AcDbLine
 10
1048.906984167652
 20
864.5608504437419
 30
0.0
 11
1048.906984167652
 21
867.5608504437323
 31
0.0
  0
LINE
  5
2BC
330
1F
100
AcDbEntity
  8
LAY-10
  6
CONTINUOUS
 62
     7
100
AcDbLine
 10
1047.906984167652
 20
864.5608504437419
 30
0.0
 11
1047.906984167652
 21
866.5608504437324
 31
0.0
  0
LINE
  5
2BD
330
1F
100
AcDbEntity
  8
LAY-10
  6
CONTINUOUS
 62
     7
100
AcDbLine
 10
1052.40698416764
 20
849.5608504437323
 30
0.0
 11
1058.906984167652
 21
849.5608504437323
 31
0.0
  0
LINE
  5
2BE
330
1F
100
AcDbEntity
  8
LAY-10
  6
CONTINUOUS
 62
     7
100
AcDbLine
 10
1058.639034975641
 20
868.560850443741
 30
0.0
 11
1058.90698416765
 21
868.560850443741
 31
0.0
  0
LINE
  5
2BF
330
1F
100
AcDbEntity
  8
LAY-10
  6
CONTINUOUS
 62
     7
100
AcDbLine
 10
1037.65698416764
 20
856.56085044365
 30
0.0
 11
1043.40698416764
 21
856.56085044365
 31
0.0
  0
LINE
  5
2C0
330
1F
100
AcDbEntity
  8
LAY-10
  6
CONTINUOUS
 62
     7
100
AcDbLine
 10
1142.40698416759
 20
874.5608504437001
 30
0.0
 11
1143.40698416759
 21
873.45828220988
 31
0.0
  0
LINE
  5
2C1
330
1F
100
AcDbEntity
  8
LAY-10
  6
CONTINUOUS
 62
     7
100
AcDbLine
 10
1154.40698416768
 20
873.2662764956681
 30
0.0
 11
1143.40698416759
 21
873.45828220988
 31
0.0
  0
LINE
  5
2C2
330
1F
100
AcDbEntity
  8
LAY-10
  6
CONTINUOUS
 62
     7
100
AcDbLine
 10
1141.906984167652
 20
869.5608504436327
 30
0.0
 11
1366.690700500792
 21
869.5608504436327
 31
0.0
  0
LINE
  5
2C3
330
1F
100
AcDbEntity
  8
LAY-10
  6
CONTINUOUS
 62
     7
100
AcDbLine
 10
1153.404953171611
 20
873.2837670115337
 30
0.0
 11
1369.40698416768
 21
869.5134375358634
 31
0.0
  0
LINE
  5
2C4
330
1F
100
AcDbEntity
  8
LAY-10
  6
CONTINUOUS
 62
     7
100
AcDbLine
 10
1142.406984167604
 20
874.5608504437005
 30
0.0
 11
1059.3485026077
 21
874.5608504437005
 31
0.0
  0
LINE
  5
2C5
330
1F
100
AcDbEntity
  8
LAY-10
  6
CONTINUOUS
 62
     7
100
AcDbLine
 10
1016.30571834489
 20
869.5608504436327
 30
0.0
 11
1058.061684706371
 21
869.5608504436327
 31
0.0
  0
LINE
  5
2C6
330
1F
100
AcDbEntity
  8
LAY-10
  6
CONTINUOUS
 62
     7
100
AcDbLine
 10
1804.9826199006
 20
869.5608504436495
 30
0.0
 11
1621.087053217242
 21
869.5608504436495
 31
0.0
  0
LINE
  5
2C7
330
1F
100
AcDbEntity
  8
LAY-10
  6
CONTINUOUS
 62
     7
100
AcDbLine
 10
1093.406984167653
 20
889.5608504437369
 30
0.0
 11
1093.406984167653
 21
877.0608504437274
 31
0.0
  0
LINE
  5
2C8
330
1F
100
AcDbEntity
  8
LAY-10
  6
CONTINUOUS
 62
     7
100
AcDbLine
 10
1093.4069841677
 20
889.5608504437369
 30
0.0
 11
1127.406984167654
 21
889.5608504437369
 31
0.0
  0
LINE
  5
2C9
330
1F
100
AcDbEntity
  8
LAY-10
  6
CONTINUOUS
 62
     7
100
AcDbLine
 10
1127.406984167654
 20
889.56085044374
 30
0.0
 11
1127.406984167654
 21
877.0608504437274
 31
0.0
  0
CIRCLE
  5
2CA
330
1F
100
AcDbEntity
  8
LAY-10
  6
CONTINUOUS
 62
     7
100
AcDbCircle
 10
1494.40698416762
 20
2307.5608504435
 30
0.0
 40
16.0
  0
CIRCLE
  5
2CB
330
1F
100
AcDbEntity
  8
LAY-10
  6
CONTINUOUS
 62
     7
100
AcDbCircle
 10
1494.40698416762
 20
2307.5608504435
 30
0.0
 40
12.50000000000001
  0
LINE
  5
2CC
330
1F
100
AcDbEntity
  8
LAY-10
  6
CONTINUOUS
 62
     7
100
AcDbLine
 10
1484.563279721684
 20
2299.856859089596
 30
0.0
 11
1506.000688613606
 21
2312.233752884075
 31
0.0
  0
LINE
  5
2CD
330
1F
100
AcDbEntity
  8
LAY-10
  6
CONTINUOUS
 62
     7
100
AcDbLine
 10
1482.81327972167
 20
2302.887948002835
 30
0.0
 11
1504.250688613616
 21
2315.264841797329
 31
0.0
  0
CIRCLE
  5
2CE
330
1F
100
AcDbEntity
  8
LAY-10
  6
CONTINUOUS
 62
     7
100
AcDbCircle
 10
1494.40698416762
 20
2307.5608504435
 30
0.0
 40
13.00000000000001
  0
LINE
  5
2CF
330
1F
100
AcDbEntity
  8
LAY-10
  6
CENTER
 62
     2
100
AcDbLine
 10
1954.40698416764
 20
876.2608504436503
 30
0.0
 11
1954.40698416764
 21
826.2608504436503
 31
0.0
  0
LINE
  5
2D0
330
1F
100
AcDbEntity
  8
LAY-10
  6
CENTER
 62
     2
100
AcDbLine
 10
1034.40698416764
 20
876.2608504436503
 30
0.0
 11
1034.40698416764
 21
826.2608504436503
 31
0.0
  0
LINE
  5
2D1
330
1F
100
AcDbEntity
  8
LAY-10
  6
CENTER
 62
     2
100
AcDbLine
 10
1970.906984167667
 20
1547.46134252915
 30
0.0
 11
1970.906984167667
 21
1523.64134252915
 31
0.0
  0
LINE
  5
2D2
330
1F
100
AcDbEntity
  8
LAY-10
  6
CENTER
 62
     2
100
AcDbLine
 10
1959.54778329084
 20
1535.560850443562
 30
0.0
 11
1982.40778329084
 21
1535.560850443562
 31
0.0
  0
LINE
  5
2D3
330
1F
100
AcDbEntity
  8
LAY-10
  6
CENTER
 62
     2
100
AcDbLine
 10
1844.00649208233
 20
2373.560850443667
 30
0.0
 11
1867.82649208233
 21
2373.560850443667
 31
0.0
  0
LINE
  5
2D4
330
1F
100
AcDbEntity
  8
LAY-10
  6
CENTER
 62
     2
100
AcDbLine
 10
1855.906984167918
 20
2362.20164956684
 30
0.0
 11
1855.906984167918
 21
2385.06164956684
 31
0.0
  0
LINE
  5
2D5
330
1F
100
AcDbEntity
  8
LAY-10
  6
CENTER
 62
     2
100
AcDbLine
 10
1017.906984167813
 20
2246.66035835833
 30
0.0
 11
1017.906984167813
 21
2270.48035835833
 31
0.0
  0
LINE
  5
2D6
330
1F
100
AcDbEntity
  8
LAY-10
  6
CENTER
 62
     2
100
AcDbLine
 10
1029.26618504464
 20
2258.560850443918
 30
0.0
 11
1006.40618504464
 21
2258.560850443918
 31
0.0
  0
LINE
  5
2D7
330
1F
100
AcDbEntity
  8
LAY-10
  6
CENTER
 62
     2
100
AcDbLine
 10
1144.80747625315
 20
1420.560850443813
 30
0.0
 11
1120.98747625315
 21
1420.560850443813
 31
0.0
  0
LINE
  5
2D8
330
1F
100
AcDbEntity
  8
LAY-10
  6
CENTER
 62
     2
100
AcDbLine
 10
1132.906984167562
 20
1431.92005132064
 30
0.0
 11
1132.906984167562
 21
1409.06005132064
 31
0.0
  0
LINE
  5
2D9
330
1F
100
AcDbEntity
  8
LAY-10
  6
CENTER
 62
     2
100
AcDbLine
 10
1494.40698416764
 20
1309.06085044365
 30
0.0
 11
1494.40698416764
 21
2469.06085044365
 31
0.0
  0
LINE
  5
2DA
330
1F
100
AcDbEntity
  8
LAY-10
  6
CENTER
 62
     2
100
AcDbLine
 10
2056.30698416764
 20
1897.060850443601
 30
0.0
 11
929.1069841676398
 21
1897.060850443601
 31
0.0
  0
LINE
  5
2DB
330
1F
100
AcDbEntity
  8
LAY-10
  6
CENTER
 62
     2
100
AcDbLine
 10
1494.406984167681
 20
796.2608504436503
 30
0.0
 11
1494.406984167681
 21
916.4936246869502
 31
0.0
  0
ARC
  5
2DC
330
1F
100
AcDbEntity
  8
LAY-10
  6
CENTER
 62
     2
100
AcDbCircle
 10
1494.4069841676
 20
1897.060850443597
 30
0.0
 40
357.5
100
AcDbArc
 50
353.2716645716631
 51
6.214196155320061
  0
LINE
  5
2DD
330
1F
100
AcDbEntity
  8
LAY-10
  6
CENTER
 62
     2
100
AcDbLine
 10
1645.7069841676
 20
2159.120137628768
 30
0.0
 11
1701.1069841676
 21
2255.075752368083
 31
0.0
  0
ARC
  5
2DE
330
1F
100
AcDbEntity
  8
LAY-10
  6
CENTER
 62
     2
100
AcDbCircle
 10
1494.4069841676
 20
1897.060850443597
 30
0.0
 40
357.5
100
AcDbArc
 50
113.2716645716631
 51
126.2141961553201
  0
LINE
  5
2DF
330
1F
100
AcDbEntity
  8
LAY-10
  6
CENTER
 62
     2
100
AcDbLine
 10
1343.1069841676
 20
2159.120137628767
 30
0.0
 11
1287.7069841676
 21
2255.075752368082
 31
0.0
  0
ARC
  5
2E0
330
1F
100
AcDbEntity
  8
LAY-10
  6
CENTER
 62
     2
100
AcDbCircle
 10
1494.406984167601
 20
1897.060850443597
 30
0.0
 40
357.5
100
AcDbArc
 50
173.2716645716632
 51
186.2141961553201
  0
LINE
  5
2E1
330
1F
100
AcDbEntity
  8
LAY-10
  6
CENTER
 62
     2
100
AcDbLine
 10
1343.1069841676
 20
1635.001563258426
 30
0.0
 11
1287.7069841676
 21
1539.04594851911
 31
0.0
  0
LINE
  5
2E2
330
1F
100
AcDbEntity
  8
LAY-10
  6
CENTER
 62
     2
100
AcDbLine
 10
1645.7069841676
 20
1635.001563258426
 30
0.0
 11
1701.1069841676
 21
1539.04594851911
 31
0.0
  0
ARC
  5
2E3
330
1F
100
AcDbEntity
  8
LAY-10
  6
CENTER
 62
     2
100
AcDbCircle
 10
1494.4069841676
 20
1897.060850443597
 30
0.0
 40
357.5
100
AcDbArc
 50
293.2716645716632
 51
306.2141961553202
  0
LINE
  5
2E4
330
1F
100
AcDbEntity
  8
LAY-10
  6
CENTER
 62
     2
100
AcDbLine
 10
1797.0069841676
 20
1897.060850443597
 30
0.0
 11
1907.8069841676
 21
1897.060850443597
 31
0.0
  0
LINE
  5
2E5
330
1F
100
AcDbEntity
  8
LAY-10
  6
CENTER
 62
     2
100
AcDbLine
 10
1191.8069841676
 20
1897.060850443596
 30
0.0
 11
1081.0069841676
 21
1897.060850443597
 31
0.0
  0
ARC
  5
2E6
330
1F
100
AcDbEntity
  8
LAY-10
  6
CENTER
 62
     2
100
AcDbCircle
 10
1494.406984167601
 20
1897.060850443597
 30
0.0
 40
357.5
100
AcDbArc
 50
233.2716645716633
 51
246.21419615532
  0
ARC
  5
2E7
330
1F
100
AcDbEntity
  8
LAY-10
  6
CENTER
 62
     2
100
AcDbCircle
 10
1494.4069841676
 20
1897.060850443597
 30
0.0
 40
357.5
100
AcDbArc
 50
53.27166457166311
 51
66.21419615532008
  0
LINE
  5
2E8
330
1F
100
AcDbEntity
  8
LAY-10
  6
CENTER
 62
     2
100
AcDbLine
 10
1851.906984167683
 20
895.5008504437469
 30
0.0
 11
1851.906984167683
 21
828.8208504437466
 31
0.0
  0
LINE
  5
2E9
330
1F
100
AcDbEntity
  8
LAY-10
  6
CENTER
 62
     2
100
AcDbLine
 10
1125.906984167652
 20
858.9608504437388
 30
0.0
 11
1125.906984167652
 21
895.3911016116572
 31
0.0
  0
LINE
  5
2EA
330
1F
100
AcDbEntity
  8
LAY-10
  6
CENTER
 62
     2
100
AcDbLine
 10
1078.906984167653
 20
858.9608504437388
 30
0.0
 11
1078.906984167653
 21
894.5707135600323
 31
0.0
  0
LINE
  5
2EB
330
1F
100
AcDbEntity
  8
LAY-10
  6
CENTER
 62
     2
100
AcDbLine
 10
1110.406984167654
 20
869.5608504437405
 30
0.0
 11
1110.406984167654
 21
895.1205481052702
 31
0.0
  0
LINE
  5
2EC
330
1F
100
AcDbEntity
  8
LAY-10
  6
CENTER
 62
     2
100
AcDbLine
 10
1044.906984167652
 20
858.5608504437319
 30
0.0
 11
1144.606984167652
 21
858.5608504437319
 31
0.0
  0
LINE
  5
2ED
330
1F
100
AcDbEntity
  8
LAY-10
  6
CENTER
 62
     2
100
AcDbLine
 10
1470.406984167619
 20
2307.56085044351
 30
0.0
 11
1518.40698416762
 21
2307.56085044351
 31
0.0
  0
LINE
  5
2EE
330
1F
100
AcDbEntity
  8
LAY-10
  6
CENTER
 62
     2
100
AcDbLine
 10
1494.40698416762
 20
2331.56085044351
 30
0.0
 11
1494.40698416762
 21
2283.56085044351
 31
0.0
  0
LINE
  5
2EF
330
1F
100
AcDbEntity
  8
LAY-10
  6
HIDDEN
 62
     7
100
AcDbLine
 10
1129.906984167652
 20
874.5608504437369
 30
0.0
 11
1129.906984167652
 21
869.5608504437378
 31
0.0
  0
LINE
  5
2F0
330
1F
100
AcDbEntity
  8
LAY-10
  6
HIDDEN
 62
     7
100
AcDbLine
 10
1121.906984167653
 20
874.5608504437369
 30
0.0
 11
1121.906984167653
 21
869.5608504437378
 31
0.0
  0
LINE
  5
2F1
330
1F
100
AcDbEntity
  8
LAY-10
  6
HIDDEN
 62
     7
100
AcDbLine
 10
1082.906984167652
 20
874.5608504437369
 30
0.0
 11
1082.906984167652
 21
869.5608504437378
 31
0.0
  0
LINE
  5
2F2
330
1F
100
AcDbEntity
  8
LAY-10
  6
HIDDEN
 62
     7
100
AcDbLine
 10
1074.906984167652
 20
874.5608504437369
 30
0.0
 11
1074.906984167652
 21
869.5608504437378
 31
0.0
  0
ARC
  5
2F3
330
1F
100
AcDbEntity
  8
LAY-10
  6
HIDDEN
 62
     7
100
AcDbCircle
 10
1043.710831744927
 20
858.5608504437291
 30
0.0
 40
10.39230484542481
100
AcDbArc
 50
300.0000000001428
 51
59.99999999992169
  0
ARC
  5
2F4
330
1F
100
AcDbEntity
  8
LAY-10
  6
HIDDEN
 62
     7
100
AcDbCircle
 10
1043.440971499502
 20
858.5608504437369
 30
0.0
 40
9.162165090850557
100
AcDbArc
 50
299.1725081650573
 51
60.82749183494274
  0
LINE
  5
2F5
330
1F
100
AcDbEntity
  8
LAY-10
  6
HIDDEN
 62
     7
100
AcDbLine
 10
1048.906984167657
 20
849.5608504437373
 30
0.0
 11
1047.906984167652
 21
850.5608504437424
 31
0.0
  0
LINE
  5
2F6
330
1F
100
AcDbEntity
  8
LAY-10
  6
HIDDEN
 62
     7
100
AcDbLine
 10
1076.906984167653
 20
887.960850443738
 30
0.0
 11
1080.906984167653
 21
887.960850443738
 31
0.0
  0
LINE
  5
2F7
330
1F
100
AcDbEntity
  8
LAY-10
  6
HIDDEN
 62
     7
100
AcDbLine
 10
1075.906984167653
 20
886.9608504437379
 30
0.0
 11
1081.906984167653
 21
886.9608504437379
 31
0.0
  0
LINE
  5
2F8
330
1F
100
AcDbEntity
  8
LAY-10
  6
HIDDEN
 62
     7
100
AcDbLine
 10
1081.906984167652
 20
886.9608504437379
 30
0.0
 11
1081.906984167652
 21
869.5608504437382
 31
0.0
  0
LINE
  5
2F9
330
1F
100
AcDbEntity
  8
LAY-10
  6
HIDDEN
 62
     7
100
AcDbLine
 10
1075.906984167652
 20
886.9608504437379
 30
0.0
 11
1075.906984167652
 21
869.5608504437382
 31
0.0
  0
LINE
  5
2FA
330
1F
100
AcDbEntity
  8
LAY-10
  6
HIDDEN
 62
     7
100
AcDbLine
 10
1075.906984167652
 20
886.9608504437379
 30
0.0
 11
1076.906984167652
 21
887.960850443738
 31
0.0
  0
LINE
  5
2FB
330
1F
100
AcDbEntity
  8
LAY-10
  6
HIDDEN
 62
     7
100
AcDbLine
 10
1080.906984167652
 20
887.960850443738
 30
0.0
 11
1081.906984167652
 21
886.9608504437379
 31
0.0
  0
LINE
  5
2FC
330
1F
100
AcDbEntity
  8
LAY-10
  6
HIDDEN
 62
     7
100
AcDbLine
 10
1080.906984167652
 20
887.960850443738
 30
0.0
 11
1080.906984167652
 21
869.5608504437382
 31
0.0
  0
LINE
  5
2FD
330
1F
100
AcDbEntity
  8
LAY-10
  6
HIDDEN
 62
     7
100
AcDbLine
 10
1076.906984167652
 20
887.960850443738
 30
0.0
 11
1076.906984167652
 21
869.5608504437382
 31
0.0
  0
LINE
  5
2FE
330
1F
100
AcDbEntity
  8
LAY-10
  6
HIDDEN
 62
     7
100
AcDbLine
 10
1123.906984167653
 20
887.960850443738
 30
0.0
 11
1127.906984167654
 21
887.960850443738
 31
0.0
  0
LINE
  5
2FF
330
1F
100
AcDbEntity
  8
LAY-10
  6
HIDDEN
 62
     7
100
AcDbLine
 10
1122.906984167653
 20
886.9608504437379
 30
0.0
 11
1128.906984167654
 21
886.9608504437379
 31
0.0
  0
LINE
  5
300
330
1F
100
AcDbEntity
  8
LAY-10
  6
HIDDEN
 62
     7
100
AcDbLine
 10
1128.906984167652
 20
886.9608504437379
 30
0.0
 11
1128.906984167652
 21
869.5608504437382
 31
0.0
  0
LINE
  5
301
330
1F
100
AcDbEntity
  8
LAY-10
  6
HIDDEN
 62
     7
100
AcDbLine
 10
1122.906984167652
 20
886.9608504437379
 30
0.0
 11
1122.906984167652
 21
869.5608504437382
 31
0.0
  0
LINE
  5
302
330
1F
100
AcDbEntity
  8
LAY-10
  6
HIDDEN
 62
     7
100
AcDbLine
 10
1122.906984167652
 20
886.9608504437379
 30
0.0
 11
1123.906984167652
 21
887.960850443738
 31
0.0
  0
LINE
  5
303
330
1F
100
AcDbEntity
  8
LAY-10
  6
HIDDEN
 62
     7
100
AcDbLine
 10
1127.906984167652
 20
887.960850443738
 30
0.0
 11
1128.906984167652
 21
886.9608504437379
 31
0.0
  0
LINE
  5
304
330
1F
100
AcDbEntity
  8
LAY-10
  6
HIDDEN
 62
     7
100
AcDbLine
 10
1127.906984167652
 20
887.960850443738
 30
0.0
 11
1127.906984167652
 21
869.5608504437382
 31
0.0
  0
LINE
  5
305
330
1F
100
AcDbEntity
  8
LAY-10
  6
HIDDEN
 62
     7
100
AcDbLine
 10
1123.906984167652
 20
887.960850443738
 30
0.0
 11
1123.906984167652
 21
869.5608504437382
 31
0.0
  0
LINE
  5
306
330
1F
100
AcDbEntity
  8
LAY-10
  6
HIDDEN
 62
     7
100
AcDbLine
 10
1075.906984167653
 20
888.5645786567648
 30
0.0
 11
1075.906984167653
 21
886.9608504437379
 31
0.0
  0
LINE
  5
307
330
1F
100
AcDbEntity
  8
LAY-10
  6
HIDDEN
 62
     7
100
AcDbLine
 10
1076.906984167653
 20
888.5820337216933
 30
0.0
 11
1076.906984167653
 21
887.960850443738
 31
0.0
  0
LINE
  5
308
330
1F
100
AcDbEntity
  8
LAY-10
  6
HIDDEN
 62
     7
100
AcDbLine
 10
1080.906984167653
 20
888.651853981406
 30
0.0
 11
1080.906984167653
 21
887.960850443738
 31
0.0
  0
LINE
  5
309
330
1F
100
AcDbEntity
  8
LAY-10
  6
HIDDEN
 62
     7
100
AcDbLine
 10
1081.906984167653
 20
888.6693090463342
 30
0.0
 11
1081.906984167653
 21
886.9608504437379
 31
0.0
  0
LINE
  5
30A
330
1F
100
AcDbEntity
  8
LAY-10
  6
HIDDEN
 62
     7
100
AcDbLine
 10
1047.906984167652
 20
850.5608504437419
 30
0.0
 11
1047.906984167652
 21
864.5608504437419
 31
0.0
  0
LINE
  5
30B
330
1F
100
AcDbEntity
  8
LAY-10
  6
HIDDEN
 62
     7
100
AcDbLine
 10
1048.906984167652
 20
849.5608504437323
 30
0.0
 11
1048.906984167652
 21
864.5608504437419
 31
0.0
  0
LINE
  5
30C
330
1F
100
AcDbEntity
  8
LAY-10
  6
HIDDEN
 62
     7
100
AcDbLine
 10
1048.906984167662
 20
849.5608504437323
 30
0.0
 11
1052.406984167639
 21
849.5608504437323
 31
0.0
  0
LINE
  5
30D
330
1F
100
AcDbEntity
  8
LAY-10
  6
HIDDEN
 62
     7
100
AcDbLine
 10
1123.906984167653
 20
889.5608504437369
 30
0.0
 11
1123.906984167653
 21
887.960850443738
 31
0.0
  0
LINE
  5
30E
330
1F
100
AcDbEntity
  8
LAY-10
  6
HIDDEN
 62
     7
100
AcDbLine
 10
1122.906984167653
 20
889.5608504437369
 30
0.0
 11
1122.906984167653
 21
886.9608504437379
 31
0.0
  0
CIRCLE
  5
30F
330
1F
100
AcDbEntity
  8
LAY-10
  6
CONTINUOUS
 62
     7
100
AcDbCircle
 10
1494.4069841676
 20
1897.060850443597
 30
0.0
 40
510.0
  0
LINE
  5
310
330
1F
100
AcDbEntity
  8
LAY-10
  6
CONTINUOUS
 62
     7
100
AcDbLine
 10
1090.906984167658
 20
874.5608504437365
 30
0.0
 11
1093.406984167653
 21
877.0608504437309
 31
0.0
  0
ARC
  5
311
330
1F
100
AcDbEntity
  8
LAY-10
  6
CONTINUOUS
 62
     7
100
AcDbCircle
 10
1093.406984167652
 20
875.5608504437369
 30
0.0
 40
1.0
100
AcDbArc
 50
270.0
 51
0.0
  0
CIRCLE
  5
312
330
1F
100
AcDbEntity
  8
LAY-10
  6
CONTINUOUS
 62
     7
100
AcDbCircle
 10
1092.656984167652
 20
876.31085044374
 30
0.0
 40
1.75
  0
LINE
  5
313
330
1F
100
AcDbEntity
  8
LAY-10
  6
CONTINUOUS
 62
     7
100
AcDbLine
 10
1097.406984167655
 20
885.6040532850507
 30
0.0
 11
1100.406984167652
 21
883.3020723211157
 31
0.0
  0
LINE
  5
314
330
1F
100
AcDbEntity
  8
LAY-10
  6
CONTINUOUS
 62
     7
100
AcDbLine
 10
1101.406984167646
 20
885.5608504437373
 30
0.0
 11
1101.406984167646
 21
882.5608504437373
 31
0.0
  0
LINE
  5
315
330
1F
100
AcDbEntity
  8
LAY-10
  6
CONTINUOUS
 62
     7
100
AcDbLine
 10
1100.406984167646
 20
883.3020723211202
 30
0.0
 11
1100.406984167646
 21
882.5608504437373
 31
0.0
  0
LINE
  5
316
330
1F
100
AcDbEntity
  8
LAY-10
  6
CONTINUOUS
 62
     7
100
AcDbLine
 10
1099.406984167646
 20
884.0693993090991
 30
0.0
 11
1099.406984167646
 21
882.5608504437373
 31
0.0
  0
CIRCLE
  5
317
330
1F
100
AcDbEntity
  8
LAY-10
  6
CONTINUOUS
 62
     7
100
AcDbCircle
 10
1100.206984167642
 20
884.360850443737
 30
0.0
 40
1.199999999999989
  0
LINE
  5
318
330
1F
100
AcDbEntity
  8
LAY-10
  6
CONTINUOUS
 62
     7
100
AcDbLine
 10
1100.406984167646
 20
882.5608504437373
 30
0.0
 11
1100.406984167646
 21
875.5608504437373
 31
0.0
  0
LINE
  5
319
330
1F
100
AcDbEntity
  8
LAY-10
  6
CONTINUOUS
 62
     7
100
AcDbLine
 10
1099.406984167646
 20
876.1382007129268
 30
0.0
 11
1099.406984167646
 21
874.5608504437369
 31
0.0
  0
LINE
  5
31A
330
1F
100
AcDbEntity
  8
LAY-10
  6
CONTINUOUS
 62
     7
100
AcDbLine
 10
1119.406984167646
 20
885.5608504437373
 30
0.0
 11
1119.406984167646
 21
882.5608504437373
 31
0.0
  0
LINE
  5
31B
330
1F
100
AcDbEntity
  8
LAY-10
  6
CONTINUOUS
 62
     7
100
AcDbLine
 10
1121.406984167646
 20
884.0693993090904
 30
0.0
 11
1121.406984167646
 21
882.5608504437373
 31
0.0
  0
LINE
  5
31C
330
1F
100
AcDbEntity
  8
LAY-10
  6
CONTINUOUS
 62
     7
100
AcDbLine
 10
1120.406984167646
 20
883.3020723211116
 30
0.0
 11
1120.406984167646
 21
882.5608504437373
 31
0.0
  0
CIRCLE
  5
31D
330
1F
100
AcDbEntity
  8
LAY-10
  6
CONTINUOUS
 62
     7
100
AcDbCircle
 10
1120.606984167652
 20
884.360850443737
 30
0.0
 40
1.199999999999989
  0
LINE
  5
31E
330
1F
100
AcDbEntity
  8
LAY-10
  6
CONTINUOUS
 62
     7
100
AcDbLine
 10
1120.406984167646
 20
882.5608504437373
 30
0.0
 11
1120.406984167646
 21
875.5608504437369
 31
0.0
  0
LINE
  5
31F
330
1F
100
AcDbEntity
  8
LAY-10
  6
CONTINUOUS
 62
     7
100
AcDbLine
 10
1121.406984167646
 20
876.1382007129265
 30
0.0
 11
1121.406984167646
 21
874.5608504437369
 31
0.0
  0
LINE
  5
320
330
1F
100
AcDbEntity
  8
LAY-10
  6
CONTINUOUS
 62
     7
100
AcDbLine
 10
1129.906984167648
 20
874.5608504437365
 30
0.0
 11
1127.406984167654
 21
877.0608504437309
 31
0.0
  0
ARC
  5
321
330
1F
100
AcDbEntity
  8
LAY-10
  6
CONTINUOUS
 62
     7
100
AcDbCircle
 10
1127.406984167652
 20
875.5608504437369
 30
0.0
 40
1.0
100
AcDbArc
 50
180.0
 51
270.0
  0
CIRCLE
  5
322
330
1F
100
AcDbEntity
  8
LAY-10
  6
CONTINUOUS
 62
     7
100
AcDbCircle
 10
1128.156984167655
 20
876.31085044374
 30
0.0
 40
1.75
  0
LINE
  5
323
330
1F
100
AcDbEntity
  8
LAY-10
  6
CONTINUOUS
 62
     7
100
AcDbLine
 10
1673.689361774871
 20
1537.534663526054
 30
0.0
 11
1716.124606560308
 21
1562.034663526054
 31
0.0
  0
LINE
  5
324
330
1F
100
AcDbEntity
  8
LAY-10
  6
CONTINUOUS
 62
     7
100
AcDbLine
 10
1673.689361774871
 20
1537.534663526054
 30
0.0
 11
1630.189361774881
 21
1612.878873655283
 31
0.0
  0
LINE
  5
325
330
1F
100
AcDbEntity
  8
LAY-10
  6
CONTINUOUS
 62
     7
100
AcDbLine
 10
1630.189361774881
 20
1612.878873655283
 30
0.0
 11
1672.624606560318
 21
1637.378873655283
 31
0.0
  0
LINE
  5
326
330
1F
100
AcDbEntity
  8
LAY-10
  6
CONTINUOUS
 62
     7
100
AcDbLine
 10
1716.124606560308
 20
1562.034663526054
 30
0.0
 11
1672.624606560318
 21
1637.378873655283
 31
0.0
  0
LINE
  5
327
330
1F
100
AcDbEntity
  8
LAY-10
  6
CONTINUOUS
 62
     7
100
AcDbLine
 10
1272.689361774891
 20
1562.034663526054
 30
0.0
 11
1315.124606560329
 21
1537.534663526054
 31
0.0
  0
LINE
  5
328
330
1F
100
AcDbEntity
  8
LAY-10
  6
CONTINUOUS
 62
     7
100
AcDbLine
 10
1272.689361774891
 20
1562.034663526054
 30
0.0
 11
1316.189361774881
 21
1637.378873655283
 31
0.0
  0
LINE
  5
329
330
1F
100
AcDbEntity
  8
LAY-10
  6
CONTINUOUS
 62
     7
100
AcDbLine
 10
1316.189361774881
 20
1637.378873655283
 30
0.0
 11
1358.624606560319
 21
1612.878873655283
 31
0.0
  0
LINE
  5
32A
330
1F
100
AcDbEntity
  8
LAY-10
  6
CONTINUOUS
 62
     7
100
AcDbLine
 10
1315.124606560329
 20
1537.534663526054
 30
0.0
 11
1358.624606560319
 21
1612.878873655283
 31
0.0
  0
LINE
  5
32B
330
1F
100
AcDbEntity
  8
LAY-10
  6
CONTINUOUS
 62
     7
100
AcDbLine
 10
1093.406984167621
 20
1921.560850443597
 30
0.0
 11
1093.40698416762
 21
1872.560850443597
 31
0.0
  0
LINE
  5
32C
330
1F
100
AcDbEntity
  8
LAY-10
  6
CONTINUOUS
 62
     7
100
AcDbLine
 10
1093.406984167621
 20
1921.560850443597
 30
0.0
 11
1180.406984167601
 21
1921.560850443597
 31
0.0
  0
LINE
  5
32D
330
1F
100
AcDbEntity
  8
LAY-10
  6
CONTINUOUS
 62
     7
100
AcDbLine
 10
1180.406984167601
 20
1921.560850443597
 30
0.0
 11
1180.4069841676
 21
1872.560850443597
 31
0.0
  0
LINE
  5
32E
330
1F
100
AcDbEntity
  8
LAY-10
  6
CONTINUOUS
 62
     7
100
AcDbLine
 10
1093.40698416762
 20
1872.560850443597
 30
0.0
 11
1180.4069841676
 21
1872.560850443597
 31
0.0
  0
LINE
  5
32F
330
1F
100
AcDbEntity
  8
LAY-10
  6
CONTINUOUS
 62
     7
100
AcDbLine
 10
1315.124606560329
 20
2256.587037361139
 30
0.0
 11
1272.689361774892
 21
2232.087037361139
 31
0.0
  0
LINE
  5
330
330
1F
100
AcDbEntity
  8
LAY-10
  6
CONTINUOUS
 62
     7
100
AcDbLine
 10
1315.124606560329
 20
2256.587037361139
 30
0.0
 11
1358.624606560319
 21
2181.24282723191
 31
0.0
  0
LINE
  5
331
330
1F
100
AcDbEntity
  8
LAY-10
  6
CONTINUOUS
 62
     7
100
AcDbLine
 10
1358.624606560319
 20
2181.24282723191
 30
0.0
 11
1316.189361774881
 21
2156.74282723191
 31
0.0
  0
LINE
  5
332
330
1F
100
AcDbEntity
  8
LAY-10
  6
CONTINUOUS
 62
     7
100
AcDbLine
 10
1272.689361774892
 20
2232.087037361139
 30
0.0
 11
1316.189361774881
 21
2156.74282723191
 31
0.0
  0
LINE
  5
333
330
1F
100
AcDbEntity
  8
LAY-10
  6
CONTINUOUS
 62
     7
100
AcDbLine
 10
1716.124606560309
 20
2232.087037361139
 30
0.0
 11
1673.689361774872
 21
2256.587037361139
 31
0.0
  0
LINE
  5
334
330
1F
100
AcDbEntity
  8
LAY-10
  6
CONTINUOUS
 62
     7
100
AcDbLine
 10
1716.124606560309
 20
2232.087037361139
 30
0.0
 11
1672.624606560319
 21
2156.74282723191
 31
0.0
  0
LINE
  5
335
330
1F
100
AcDbEntity
  8
LAY-10
  6
CONTINUOUS
 62
     7
100
AcDbLine
 10
1672.624606560319
 20
2156.74282723191
 30
0.0
 11
1630.189361774881
 21
2181.24282723191
 31
0.0
  0
LINE
  5
336
330
1F
100
AcDbEntity
  8
LAY-10
  6
CONTINUOUS
 62
     7
100
AcDbLine
 10
1673.689361774872
 20
2256.587037361139
 30
0.0
 11
1630.189361774881
 21
2181.24282723191
 31
0.0
  0
LINE
  5
337
330
1F
100
AcDbEntity
  8
LAY-10
  6
CONTINUOUS
 62
     7
100
AcDbLine
 10
1895.40698416758
 20
1872.560850443597
 30
0.0
 11
1895.40698416758
 21
1921.560850443597
 31
0.0
  0
LINE
  5
338
330
1F
100
AcDbEntity
  8
LAY-10
  6
CONTINUOUS
 62
     7
100
AcDbLine
 10
1895.40698416758
 20
1872.560850443597
 30
0.0
 11
1808.406984167599
 21
1872.560850443597
 31
0.0
  0
LINE
  5
339
330
1F
100
AcDbEntity
  8
LAY-10
  6
CONTINUOUS
 62
     7
100
AcDbLine
 10
1808.406984167599
 20
1872.560850443597
 30
0.0
 11
1808.4069841676
 21
1921.560850443597
 31
0.0
  0
LINE
  5
33A
330
1F
100
AcDbEntity
  8
LAY-10
  6
CONTINUOUS
 62
     7
100
AcDbLine
 10
1895.40698416758
 20
1921.560850443597
 30
0.0
 11
1808.4069841676
 21
1921.560850443597
 31
0.0
  0
ARC
  5
33B
330
1F
100
AcDbEntity
  8
LAY-10
  6
CONTINUOUS
 62
     7
100
AcDbCircle
 10
1494.4069841676
 20
1897.060850443597
 30
0.0
 40
468.0
100
AcDbArc
 50
82.8788980829614
 51
97.12110191703854
  0
ARC
  5
33C
330
1F
100
AcDbEntity
  8
LAY-10
  6
CONTINUOUS
 62
     7
100
AcDbCircle
 10
1494.4069841676
 20
1897.060850443597
 30
0.0
 40
477.4464028326901
100
AcDbArc
 50
86.5901753280902
 51
88.62176716453116
  0
ARC
  5
33D
330
1F
100
AcDbEntity
  8
LAY-10
  6
CONTINUOUS
 62
     7
100
AcDbCircle
 10
1494.4069841676
 20
1897.060850443597
 30
0.0
 40
480.5614390649108
100
AcDbArc
 50
86.58040885919098
 51
88.62176716453116
  0
ARC
  5
33E
330
1F
100
AcDbEntity
  8
LAY-10
  6
CONTINUOUS
 62
     7
100
AcDbCircle
 10
1494.4069841676
 20
1897.060850443597
 30
0.0
 40
473.9999999999837
100
AcDbArc
 50
83.24153201994338
 51
86.30432868982207
  0
ARC
  5
33F
330
1F
100
AcDbEntity
  8
LAY-10
  6
CONTINUOUS
 62
     7
100
AcDbCircle
 10
1494.4069841676
 20
1897.060850443597
 30
0.0
 40
483.9999999999837
100
AcDbArc
 50
83.24153201994338
 51
86.2787273305432
  0
LINE
  5
340
330
1F
100
AcDbEntity
  8
LAY-10
  6
CONTINUOUS
 62
     7
100
AcDbLine
 10
1522.8043234824
 20
2373.662003083497
 30
0.0
 11
1524.9595621876
 21
2370.075163098396
 31
0.0
  0
LINE
  5
341
330
1F
100
AcDbEntity
  8
LAY-10
  6
CONTINUOUS
 62
     7
100
AcDbLine
 10
1523.0713678314
 20
2376.766645515196
 30
0.0
 11
1525.8199432561
 21
2380.040380031896
 31
0.0
  0
LINE
  5
342
330
1F
100
AcDbEntity
  8
LAY-10
  6
CONTINUOUS
 62
     7
100
AcDbLine
 10
1547.7974554078
 20
2373.076036735696
 30
0.0
 11
1551.366120446401
 21
2377.697570632896
 31
0.0
  0
LINE
  5
343
330
1F
100
AcDbEntity
  8
LAY-10
  6
CONTINUOUS
 62
     7
100
AcDbLine
 10
1550.1892787877
 20
2367.767059885196
 30
0.0
 11
1547.7974554078
 21
2373.076036735696
 31
0.0
  0
LINE
  5
344
330
1F
100
AcDbEntity
  8
LAY-10
  6
CONTINUOUS
 62
     7
100
AcDbLine
 10
1505.890707010692
 20
2374.369127857182
 30
0.0
 11
1505.857033677131
 21
2372.969532877671
 31
0.0
  0
LINE
  5
345
330
1F
100
AcDbEntity
  8
LAY-10
  6
CONTINUOUS
 62
     7
100
AcDbLine
 10
1505.9993043829
 20
2378.882857887796
 30
0.0
 11
1505.965631049339
 21
2377.483262908308
 31
0.0
  0
LINE
  5
346
330
1F
100
AcDbEntity
  8
LAY-10
  6
CONTINUOUS
 62
     7
100
AcDbLine
 10
1496.4069798092
 20
2376.056675078196
 30
0.0
 11
1505.85703367713
 21
2372.969532877671
 31
0.0
  0
LINE
  5
347
330
1F
100
AcDbEntity
  8
LAY-10
  6
CONTINUOUS
 62
     7
100
AcDbLine
 10
1496.4069798092
 20
2376.056675078196
 30
0.0
 11
1505.9993043829
 21
2378.882857887796
 31
0.0
  0
ARC
  5
348
330
1F
100
AcDbEntity
  8
LAY-10
  6
CONTINUOUS
 62
     7
100
AcDbCircle
 10
1494.4069841676
 20
1897.060850443597
 30
0.0
 40
462.0
100
AcDbArc
 50
82.15969947625612
 51
97.8403005237438
  0
ARC
  5
349
330
1F
100
AcDbEntity
  8
LAY-10
  6
CONTINUOUS
 62
     7
100
AcDbCircle
 10
1494.4069841676
 20
1897.060850443597
 30
0.0
 40
478.0
100
AcDbArc
 50
324.9999999999901
 51
82.15969947625612
  0
LINE
  5
34A
330
1F
100
AcDbEntity
  8
LAY-10
  6
CONTINUOUS
 62
     7
100
AcDbLine
 10
1554.406984167601
 20
2377.327443077296
 30
0.0
 11
1552.423513093222
 21
2361.450861502644
 31
0.0
  0
LINE
  5
34B
330
1F
100
AcDbEntity
  8
LAY-10
  6
CONTINUOUS
 62
     7
100
AcDbLine
 10
1559.6121151342
 20
2370.592571551697
 30
0.0
 11
1557.429516608126
 21
2354.742137372376
 31
0.0
  0
ARC
  5
34C
330
1F
100
AcDbEntity
  8
LAY-10
  6
CONTINUOUS
 62
     7
100
AcDbCircle
 10
1494.4069841676
 20
1897.060850443597
 30
0.0
 40
484.0000000000001
100
AcDbArc
 50
97.12110191703847
 51
215.0000000000098
  0
ARC
  5
34D
330
1F
100
AcDbEntity
  8
LAY-10
  6
CONTINUOUS
 62
     7
100
AcDbCircle
 10
1494.4069841676
 20
1897.060850443597
 30
0.0
 40
484.0000000000001
100
AcDbArc
 50
324.9999999999901
 51
82.8788980829617
  0
ARC
  5
34E
330
1F
100
AcDbEntity
  8
LAY-10
  6
CONTINUOUS
 62
     7
100
AcDbCircle
 10
1494.4069841676
 20
1897.060850443597
 30
0.0
 40
478.0
100
AcDbArc
 50
97.84030052373859
 51
215.0000000000101
  0
LINE
  5
34F
330
1F
100
AcDbEntity
  8
LAY-10
  6
CONTINUOUS
 62
     7
100
AcDbLine
 10
1434.4069841676
 20
2377.327443077296
 30
0.0
 11
1436.390455241979
 21
2361.450861502644
 31
0.0
  0
LINE
  5
350
330
1F
100
AcDbEntity
  8
LAY-10
  6
CONTINUOUS
 62
     7
100
AcDbLine
 10
1429.201853201
 20
2370.592571551697
 30
0.0
 11
1431.384451727075
 21
2354.742137372376
 31
0.0
  0
LINE
  5
351
330
1F
100
AcDbEntity
  8
LAY-10
  6
CONTINUOUS
 62
     7
100
AcDbLine
 10
1102.85230699751
 20
1622.891313867727
 30
0.0
 11
1120.873651971868
 21
1635.50999546745
 31
0.0
  0
LINE
  5
352
330
1F
100
AcDbEntity
  8
LAY-10
  6
CONTINUOUS
 62
     7
100
AcDbLine
 10
1094.660786554619
 20
1617.155549504218
 30
0.0
 11
1097.937394731775
 21
1619.449855249622
 31
0.0
  0
LINE
  5
353
330
1F
100
AcDbEntity
  8
LAY-10
  6
CONTINUOUS
 62
     7
100
AcDbLine
 10
1885.961661337689
 20
1622.891313867727
 30
0.0
 11
1867.940316363331
 21
1635.50999546745
 31
0.0
  0
LINE
  5
354
330
1F
100
AcDbEntity
  8
LAY-10
  6
CONTINUOUS
 62
     7
100
AcDbLine
 10
1894.15318178058
 20
1617.155549504218
 30
0.0
 11
1890.876573603424
 21
1619.449855249622
 31
0.0
  0
ARC
  5
355
330
1F
100
AcDbEntity
  8
LAY-10
  6
CONTINUOUS
 62
     7
100
AcDbCircle
 10
1494.4069841676
 20
1897.060850443597
 30
0.0
 40
488.0
100
AcDbArc
 50
324.9999999999902
 51
215.0000000000098
  0
ARC
  5
356
330
1F
100
AcDbEntity
  8
LAY-10
  6
CONTINUOUS
 62
     7
100
AcDbCircle
 10
1494.4069841676
 20
1897.060850443597
 30
0.0
 40
456.0
100
AcDbArc
 50
215.0000000000107
 51
324.9999999999894
  0
ARC
  5
357
330
1F
100
AcDbEntity
  8
LAY-10
  6
CONTINUOUS
 62
     7
100
AcDbCircle
 10
1494.4069841676
 20
1897.060850443597
 30
0.0
 40
495.0
100
AcDbArc
 50
315.6159846102105
 51
324.3054886954534
  0
ARC
  5
358
330
1F
100
AcDbEntity
  8
LAY-10
  6
CONTINUOUS
 62
     7
100
AcDbCircle
 10
1494.4069841676
 20
1897.060850443597
 30
0.0
 40
495.0
100
AcDbArc
 50
304.3155225014542
 51
314.8718783482282
  0
ARC
  5
359
330
1F
100
AcDbEntity
  8
LAY-10
  6
CONTINUOUS
 62
     7
100
AcDbCircle
 10
1494.4069841676
 20
1897.060850443597
 30
0.0
 40
495.0
100
AcDbArc
 50
215.6945113045512
 51
303.5714162394655
  0
ARC
  5
35A
330
1F
100
AcDbEntity
  8
LAY-10
  6
CONTINUOUS
 62
     7
100
AcDbCircle
 10
1494.4069841676
 20
1897.060850443597
 30
0.0
 40
462.0
100
AcDbArc
 50
304.3155225014542
 51
314.8718783482282
  0
ARC
  5
35B
330
1F
100
AcDbEntity
  8
LAY-10
  6
CONTINUOUS
 62
     7
100
AcDbCircle
 10
1494.4069841676
 20
1897.060850443597
 30
0.0
 40
462.0
100
AcDbArc
 50
215.6945113045487
 51
303.5714162394655
  0
ARC
  5
35C
330
1F
100
AcDbEntity
  8
LAY-10
  6
CONTINUOUS
 62
     7
100
AcDbCircle
 10
1494.4069841676
 20
1897.060850443597
 30
0.0
 40
462.0
100
AcDbArc
 50
315.6159846102105
 51
324.3054886954534
  0
LINE
  5
35D
330
1F
100
AcDbEntity
  8
LAY-10
  6
CONTINUOUS
 62
     7
100
AcDbLine
 10
1749.8818740083
 20
1512.123737838297
 30
0.0
 11
1768.130080425478
 21
1484.628229795083
 31
0.0
  0
LINE
  5
35E
330
1F
100
AcDbEntity
  8
LAY-10
  6
CONTINUOUS
 62
     7
100
AcDbLine
 10
1754.85940737332
 20
1515.473985829196
 30
0.0
 11
1773.463151888028
 21
1488.217781213863
 31
0.0
  0
LINE
  5
35F
330
1F
100
AcDbEntity
  8
LAY-10
  6
CONTINUOUS
 62
     7
100
AcDbLine
 10
1820.35898972806
 20
1569.647823715696
 30
0.0
 11
1843.641275839513
 21
1546.261178949426
 31
0.0
  0
LINE
  5
360
330
1F
100
AcDbEntity
  8
LAY-10
  6
CONTINUOUS
 62
     7
100
AcDbLine
 10
1824.58352936963
 20
1573.908488548396
 30
0.0
 11
1848.167568312636
 21
1550.826176984448
 31
0.0
  0
LINE
  5
361
330
1F
100
AcDbEntity
  8
LAY-10
  6
CONTINUOUS
 62
     7
100
AcDbLine
 10
1092.397969304
 20
1608.246460275197
 30
0.0
 11
1119.198570294866
 21
1627.500752953061
 31
0.0
  0
LINE
  5
362
330
1F
100
AcDbEntity
  8
LAY-10
  6
CONTINUOUS
 62
     7
100
AcDbLine
 10
1198.834513379748
 20
1519.840922077473
 30
0.0
 11
1222.992675849649
 21
1518.505088577864
 31
0.0
  0
LINE
  5
363
330
1F
100
AcDbEntity
  8
LAY-10
  6
CONTINUOUS
 62
     7
100
AcDbLine
 10
1198.834513379786
 20
1519.840922077527
 30
0.0
 11
1207.833517706785
 21
1497.381643678979
 31
0.0
  0
LINE
  5
364
330
1F
100
AcDbEntity
  8
LAY-10
  6
CONTINUOUS
 62
     7
100
AcDbLine
 10
1231.991680176652
 20
1496.045810179394
 30
0.0
 11
1207.833517706751
 21
1497.381643679004
 31
0.0
  0
LINE
  5
365
330
1F
100
AcDbEntity
  8
LAY-10
  6
CONTINUOUS
 62
     7
100
AcDbLine
 10
1231.991680176614
 20
1496.045810179341
 30
0.0
 11
1222.992675849615
 21
1518.505088577889
 31
0.0
  0
LINE
  5
366
330
1F
100
AcDbEntity
  8
LAY-10
  6
CONTINUOUS
 62
     7
100
AcDbLine
 10
1896.415999031254
 20
1608.246460275179
 30
0.0
 11
1869.615398040343
 21
1627.500752953074
 31
0.0
  0
CIRCLE
  5
367
330
1F
100
AcDbEntity
  8
LAY-10
  6
CONTINUOUS
 62
     7
100
AcDbCircle
 10
1494.4069841676
 20
1897.060850443597
 30
0.0
 40
510.0
  0
LINE
  5
368
330
1F
100
AcDbEntity
  8
LAY-10
  6
PHANTOM
 62
     7
100
AcDbLine
 10
1006.756458440336
 20
887.0008566350425
 30
0.0
 11
1006.406984167581
 21
890.9953658510967
 31
0.0
  0
LINE
  5
369
330
1F
100
AcDbEntity
  8
LAY-10
  6
PHANTOM
 62
     7
100
AcDbLine
 10
1032.756458440435
 20
887.4546883231756
 30
0.0
 11
1032.40698416768
 21
891.4491975392293
 31
0.0
  0
LINE
  5
36A
330
1F
100
AcDbEntity
  8
LAY-10
  6
PHANTOM
 62
     7
100
AcDbLine
 10
1026.056440883903
 20
887.337739081705
 30
0.0
 11
1026.40698416768
 21
891.3444671496595
 31
0.0
  0
LINE
  5
36B
330
1F
100
AcDbEntity
  8
LAY-10
  6
PHANTOM
 62
     7
100
AcDbLine
 10
1006.756458440336
 20
887.0008566350425
 30
0.0
 11
1026.056440883903
 21
887.3377390817082
 31
0.0
  0
LINE
  5
36C
330
1F
100
AcDbEntity
  8
LAY-10
  6
PHANTOM
 62
     7
100
AcDbLine
 10
1032.756458440404
 20
887.4546883229273
 30
0.0
 11
1494.406984167681
 21
895.5128282236569
 31
0.0
  0
LINE
  5
36D
330
1F
100
AcDbEntity
  8
LAY-10
  6
PHANTOM
 62
     7
100
AcDbLine
 10
1950.406984167681
 20
887.5533186163748
 30
0.0
 11
1494.406984167681
 21
895.5128282236569
 31
0.0
  0
LINE
  5
36E
330
1F
100
AcDbEntity
  8
LAY-10
  6
PHANTOM
 62
     7
100
AcDbLine
 10
1989.406984167681
 20
890.8731803964957
 30
0.0
 11
1989.406984167681
 21
886.8725710841733
 31
0.0
  0
LINE
  5
36F
330
1F
100
AcDbEntity
  8
LAY-10
  6
PHANTOM
 62
     7
100
AcDbLine
 10
1950.406984167681
 20
891.5539279285504
 30
0.0
 11
1950.406984167681
 21
887.5533186163748
 31
0.0
  0
LINE
  5
370
330
1F
100
AcDbEntity
  8
LAY-10
  6
PHANTOM
 62
     7
100
AcDbLine
 10
1956.406984167681
 20
891.449197538981
 30
0.0
 11
1956.406984167681
 21
887.4485882268056
 31
0.0
  0
LINE
  5
371
330
1F
100
AcDbEntity
  8
LAY-10
  6
PHANTOM
 62
     7
100
AcDbLine
 10
1989.406984167681
 20
886.8725710841733
 30
0.0
 11
1956.406984167681
 21
887.4485882268056
 31
0.0
  0
LINE
  5
372
330
1F
100
AcDbEntity
  8
LAY-10
  6
PHANTOM
 62
     7
100
AcDbLine
 10
1895.406984167667
 20
888.5133471874292
 30
0.0
 11
1895.406984167667
 21
892.5139564996048
 31
0.0
  0
DIMENSION
  5
374
330
1F
100
AcDbEntity
  8
LAY-20
  6
CONTINUOUS
 62
     4
100
AcDbDimension
  2
*D15
 10
2026.4069841677
 20
1139.5134375361
 30
0.0
 11
1494.40698416765
 21
1164.5134375361
 31
0.0
 70
   160
  1
%%c<>
  3
ISO-25
100
AcDbAlignedDimension
 13
962.4069841676
 23
881.5608504427001
 33
0.0
 14
2026.4069841677
 24
881.5608504427001
 34
0.0
100
AcDbRotatedDimension
1001
ACAD
1000
DSTYLE
1002
{
1070
   270
1070
     2
1070
     6
1000
EX_BNORM
1070
     7
1000
EX_BNORM
1070
    41
1040
30.0
1070
    42
1040
15.0
1070
    44
1040
15.0
1070
    73
1070
     0
1070
    74
1070
     0
1070
    75
1070
     0
1070
    76
1070
     0
1070
    77
1070
     1
1070
    78
1070
     8
1070
   140
1040
31.181104
1070
   147
1040
0.0
1070
   173
1070
     1
1070
   176
1070
     4
1070
   177
1070
     4
1070
   178
1070
     7
1070
   271
1070
     1
1070
   277
1070
     2
1070
   279
1070
     2
1070
   280
1070
     0
1070
   287
1070
     5
1070
   340
1005
373
1002
}
  0
DIMENSION
  5
382
330
1F
100
AcDbEntity
  8
LAY-20
  6
CONTINUOUS
 62
     4
100
AcDbDimension
  2
*D16
 10
2004.4069841677
 20
1069.5134375361
 30
0.0
 11
1494.40698416769
 21
1094.5134375361
 31
0.0
 70
   160
  1
%%c<>
  3
ISO-25
100
AcDbAlignedDimension
 13
984.40698416768
 23
889.56085044361
 33
0.0
 14
2004.4069841677
 24
889.56085044361
 34
0.0
100
AcDbRotatedDimension
1001
ACAD
1000
DSTYLE
1002
{
1070
   270
1070
     2
1070
     6
1000
EX_BNORM
1070
     7
1000
EX_BNORM
1070
    41
1040
30.0
1070
    42
1040
15.0
1070
    44
1040
15.0
1070
    73
1070
     0
1070
    74
1070
     0
1070
    75
1070
     0
1070
    76
1070
     0
1070
    77
1070
     1
1070
    78
1070
     8
1070
   140
1040
31.181104
1070
   147
1040
0.0
1070
   173
1070
     1
1070
   176
1070
     4
1070
   177
1070
     4
1070
   178
1070
     7
1070
   271
1070
     1
1070
   277
1070
     2
1070
   279
1070
     2
1070
   280
1070
     0
1070
   287
1070
     5
1070
   340
1005
373
1002
}
  0
DIMENSION
  5
38F
330
1F
100
AcDbEntity
  8
LAY-20
  6
CONTINUOUS
 62
     4
100
AcDbDimension
  2
*D17
 10
2030.9069841676
 20
639.06085044365
 30
0.0
 11
1494.40698416763
 21
664.06085044365
 31
0.0
 70
   160
  1
□<>
  3
ISO-25
100
AcDbAlignedDimension
 13
957.90698416766
 23
809.06085044365
 33
0.0
 14
2030.9069841676
 24
639.06085044365
 34
0.0
100
AcDbRotatedDimension
1001
ACAD
1000
DSTYLE
1002
{
1070
   270
1070
     2
1070
     6
1000
EX_BNORM
1070
     7
1000
EX_NONE
1070
    41
1040
30.0
1070
    42
1040
15.0
1070
    44
1040
15.0
1070
    73
1070
     0
1070
    74
1070
     0
1070
    75
1070
     0
1070
    76
1070
     1
1070
    77
1070
     1
1070
    78
1070
     8
1070
   140
1040
31.181104
1070
   147
1040
0.0
1070
   173
1070
     1
1070
   176
1070
     4
1070
   177
1070
     4
1070
   178
1070
     7
1070
   271
1070
     1
1070
   277
1070
     2
1070
   279
1070
     2
1070
   280
1070
     0
1070
   287
1070
     5
1070
   340
1005
373
1002
}
  0
DIMENSION
  5
39B
330
1F
100
AcDbEntity
  8
LAY-20
  6
CONTINUOUS
 62
     4
100
AcDbDimension
  2
*D18
 10
1944.4069841676
 20
709.06085044365
 30
0.0
 11
1494.4069841676
 21
734.06085044365
 31
0.0
 70
   160
  1
%%c<>
  3
ISO-25
100
AcDbAlignedDimension
 13
1044.4069841676
 23
809.06085044374
 33
0.0
 14
1944.4069841676
 24
809.06085044365
 34
0.0
100
AcDbRotatedDimension
1001
ACAD
1000
DSTYLE
1002
{
1070
   270
1070
     2
1070
     6
1000
EX_BNORM
1070
     7
1000
EX_BNORM
1070
    41
1040
30.0
1070
    42
1040
15.0
1070
    44
1040
15.0
1070
    73
1070
     0
1070
    74
1070
     0
1070
    75
1070
     0
1070
    76
1070
     0
1070
    77
1070
     1
1070
    78
1070
     8
1070
   140
1040
31.181104
1070
   147
1040
0.0
1070
   173
1070
     1
1070
   176
1070
     4
1070
   177
1070
     4
1070
   178
1070
     7
1070
   271
1070
     1
1070
   277
1070
     2
1070
   279
1070
     2
1070
   280
1070
     0
1070
   287
1070
     5
1070
   340
1005
373
1002
}
  0
DIMENSION
  5
3A8
330
1F
100
AcDbEntity
  8
LAY-20
  6
CONTINUOUS
 62
     4
100
AcDbDimension
  2
*D19
 10
2307.5690685196
 20
889.06085044365
 30
0.0
 11
2282.5690685196
 21
849.06085044365
 31
0.0
 70
   160
  3
ISO-25
100
AcDbAlignedDimension
 13
2222.5690685196
 23
809.06085044365
 33
0.0
 14
2040.1
 24
889.06085044365
 34
0.0
 50
90.0
100
AcDbRotatedDimension
1001
ACAD
1000
DSTYLE
1002
{
1070
   270
1070
     2
1070
     6
1000
EX_BNORM
1070
     7
1000
EX_BNORM
1070
    41
1040
30.0
1070
    42
1040
15.0
1070
    44
1040
15.0
1070
    73
1070
     0
1070
    74
1070
     0
1070
    75
1070
     0
1070
    76
1070
     0
1070
    77
1070
     1
1070
    78
1070
     8
1070
   140
1040
31.181104
1070
   147
1040
0.0
1070
   173
1070
     1
1070
   176
1070
     4
1070
   177
1070
     4
1070
   178
1070
     7
1070
   271
1070
     1
1070
   277
1070
     2
1070
   279
1070
     2
1070
   280
1070
     0
1070
   287
1070
     5
1070
   340
1005
373
1002
}
  0
LINE
  5
3B5
330
1F
100
AcDbEntity
  8
LAY-255
  6
CONTINUOUS
 62
     7
100
AcDbLine
 10
3850.0
 20
219.9999999999999
 30
0.0
 11
2850.0
 21
219.9999999999999
 31
0.0
  0
LINE
  5
3B6
330
1F
100
AcDbEntity
  8
LAY-255
  6
CONTINUOUS
 62
     7
100
AcDbLine
 10
2888.0
 20
160.0
 30
0.0
 11
2968.0
 21
210.0
 31
0.0
  0
LINE
  5
3B7
330
1F
100
AcDbEntity
  8
LAY-255
  6
CONTINUOUS
 62
     7
100
AcDbLine
 10
2968.0
 20
210.0
 30
0.0
 11
3048.0
 21
160.0
 31
0.0
  0
LINE
  5
3B8
330
1F
100
AcDbEntity
  8
LAY-255
  6
CONTINUOUS
 62
     7
100
AcDbLine
 10
3048.0
 20
160.0
 30
0.0
 11
2968.0
 21
110.0
 31
0.0
  0
LINE
  5
3B9
330
1F
100
AcDbEntity
  8
LAY-255
  6
CONTINUOUS
 62
     7
100
AcDbLine
 10
2968.0
 20
110.0
 30
0.0
 11
2888.0
 21
160.0
 31
0.0
  0
LINE
  5
3BA
330
1F
100
AcDbEntity
  8
LAY-255
  6
CONTINUOUS
 62
     7
100
AcDbLine
 10
50.0
 20
100.0
 30
0.0
 11
3850.0
 21
100.0
 31
0.0
  0
LINE
  5
3BB
330
1F
100
AcDbEntity
  8
LAY-255
  6
CONTINUOUS
 62
     7
100
AcDbLine
 10
50.0
 20
2800.0
 30
0.0
 11
3850.0
 21
2800.0
 31
0.0
  0
LINE
  5
3BC
330
1F
100
AcDbEntity
  8
LAY-255
  6
CONTINUOUS
 62
     7
100
AcDbLine
 10
50.0
 20
100.0
 30
0.0
 11
50.0
 21
2800.0
 31
0.0
  0
LINE
  5
3BD
330
1F
100
AcDbEntity
  8
LAY-255
  6
CONTINUOUS
 62
     4
100
AcDbLine
 10
2850.0
 20
279.9999999999999
 30
0.0
 11
3850.0
 21
279.9999999999999
 31
0.0
  0
LINE
  5
3BE
330
1F
100
AcDbEntity
  8
LAY-255
  6
CONTINUOUS
 62
     4
100
AcDbLine
 10
3350.0
 20
279.9999999999999
 30
0.0
 11
3350.0
 21
220.0
 31
0.0
  0
POINT
  5
3BF
330
1F
100
AcDbEntity
  8
LAY-255
  6
CONTINUOUS
 62
     7
100
AcDbPoint
 10
2890.0
 20
299.9999999999998
 30
0.0
  0
POINT
  5
3C0
330
1F
100
AcDbEntity
  8
LAY-255
  6
CONTINUOUS
 62
     7
100
AcDbPoint
 10
2890.0
 20
450.0
 30
0.0
  0
POINT
  5
3C1
330
1F
100
AcDbEntity
  8
LAY-255
  6
CONTINUOUS
 62
     7
100
AcDbPoint
 10
2890.0
 20
399.9999999999999
 30
0.0
  0
POINT
  5
3C2
330
1F
100
AcDbEntity
  8
LAY-255
  6
CONTINUOUS
 62
     7
100
AcDbPoint
 10
2890.0
 20
349.9999999999998
 30
0.0
  0
LINE
  5
3C3
330
1F
100
AcDbEntity
  8
LAY-255
  6
CONTINUOUS
 62
     7
100
AcDbLine
 10
3850.0
 20
100.0
 30
0.0
 11
3850.0
 21
2800.0
 31
0.0
  0
LINE
  5
3C4
330
1F
100
AcDbEntity
  8
LAY-255
  6
CONTINUOUS
 62
     7
100
AcDbLine
 10
2850.0
 20
100.0
 30
0.0
 11
2850.0
 21
770.0
 31
0.0
  0
LINE
  5
3C5
330
1F
100
AcDbEntity
  8
LAY-255
  6
CONTINUOUS
 62
     7
100
AcDbLine
 10
3850.0
 20
770.0
 30
0.0
 11
2850.0
 21
770.0
 31
0.0
  0
LINE
  5
3C6
330
1F
100
AcDbEntity
  8
LAY-255
  6
CONTINUOUS
 62
     4
100
AcDbLine
 10
3830.0
 20
650.0
 30
0.0
 11
2870.0
 21
650.0
 31
0.0
  0
LINE
  5
3C7
330
1F
100
AcDbEntity
  8
LAY-255
  6
CONTINUOUS
 62
     4
100
AcDbLine
 10
3830.0
 20
710.0
 30
0.0
 11
2870.0
 21
710.0
 31
0.0
  0
POINT
  5
3C8
330
1F
100
AcDbEntity
  8
LAY-255
  6
CONTINUOUS
 62
     7
100
AcDbPoint
 10
2890.0
 20
600.0
 30
0.0
  0
POINT
  5
3C9
330
1F
100
AcDbEntity
  8
LAY-255
  6
CONTINUOUS
 62
     7
100
AcDbPoint
 10
3000.0
 20
660.0
 30
0.0
  0
POINT
  5
3CA
330
1F
100
AcDbEntity
  8
LAY-255
  6
CONTINUOUS
 62
     7
100
AcDbPoint
 10
3000.0
 20
720.0
 30
0.0
  0
POINT
  5
3CB
330
1F
100
AcDbEntity
  8
LAY-255
  6
CONTINUOUS
 62
     7
100
AcDbPoint
 10
2890.0
 20
550.0
 30
0.0
  0
POINT
  5
3CC
330
1F
100
AcDbEntity
  8
LAY-255
  6
CONTINUOUS
 62
     7
100
AcDbPoint
 10
2890.0
 20
500.0
 30
0.0
  0
TEXT
  5
3CD
330
1F
100
AcDbEntity
  8
LAY-255
  6
CONTINUOUS
 62
     7
100
AcDbText
 10
3081.3837890625
 20
155.4375
 30
0.0
 40
51.5625
  1
福西鋳物株式会社
 41
1.342691999659091
  7
EXCADSTD
100
AcDbText
  0
TEXT
  5
3CE
330
1F
100
AcDbEntity
  8
LAY-255
  6
CONTINUOUS
 62
     7
100
AcDbText
 10
3085.09375
 20
119.8125
 30
0.0
 40
17.1875
  1
ＦＵＫＵＮＩＳＨＩ
 41
1.204799226045263
  7
EXCADSTD
100
AcDbText
  0
TEXT
  5
3CF
330
1F
100
AcDbEntity
  8
LAY-255
  6
CONTINUOUS
 62
     7
100
AcDbText
 10
3327.191964285714
 20
119.8125
 30
0.0
 40
17.1875
  1
ＦＯＵＮＤＲＹ
 41
1.243252752978497
  7
EXCADSTD
100
AcDbText
  0
TEXT
  5
3D0
330
1F
100
AcDbEntity
  8
LAY-255
  6
CONTINUOUS
 62
     7
100
AcDbText
 10
3519.945914381009
 20
119.8125
 30
0.0
 40
17.1875
  1
ＣＯ.,ＬＴＤ.
 41
1.243831036226633
  7
EXCADSTD
100
AcDbText
  0
TEXT
  5
3D1
330
1F
100
AcDbEntity
  8
LAY-255
  6
CONTINUOUS
 62
     7
100
AcDbText
 10
2940.34375
 20
137.1875
 30
0.0
 40
51.5625
  1
S
 41
0.7582677563636363
  7
EXCADSTD
100
AcDbText
  0
TEXT
  5
3D2
330
1F
100
AcDbEntity
  8
LAY-255
  6
CONTINUOUS
 62
     7
100
AcDbText
 10
2971.046875
 20
137.4941037736
 30
0.0
 40
51.5625
  1
F
 41
0.7440945272727272
  7
EXCADSTD
100
AcDbText
  0
TEXT
  5
3D3
330
1F
100
AcDbEntity
  8
LAY-255
  6
CONTINUOUS
 62
     7
100
AcDbText
 10
3371.0546875
 20
244.2187499999999
 30
0.0
 40
25.78125
  1
縮尺
 41
1.080708718181818
  7
EXCADSTD
100
AcDbText
  0
TEXT
  5
3D4
330
1F
100
AcDbEntity
  8
LAY-255
  6
CONTINUOUS
 62
     7
100
AcDbText
 10
2871.5234375
 20
244.2187499999999
 30
0.0
 40
25.78125
  1
作成日
 41
1.000629973818182
  7
EXCADSTD
100
AcDbText
  0
TEXT
  5
3D5
330
1F
100
AcDbEntity
  8
LAY-255
  6
CONTINUOUS
 62
     7
100
AcDbText
 10
2893.75
 20
455.625
 30
0.0
 40
34.375
  1
防水：完全防水防臭型
 41
1.013466409710744
  7
EXCADSTD
100
AcDbText
  0
TEXT
  5
3D6
330
1F
100
AcDbEntity
  8
LAY-255
  6
CONTINUOUS
 62
     7
100
AcDbText
 10
2890.0
 20
405.625
 30
0.0
 40
34.375
  1
      内水圧９８.０ｋＰａ（１ｋｇｆ／ｃｍ2）可能
 41
0.912773818869366
  7
EXCADSTD
100
AcDbText
  0
TEXT
  5
3D7
330
1F
100
AcDbEntity
  8
LAY-255
  6
CONTINUOUS
 62
     7
100
AcDbText
 10
2893.75
 20
355.6249999999998
 30
0.0
 40
34.375
  1
受枠：水抜穴付
 41
1.018265188375559
  7
EXCADSTD
100
AcDbText
  0
TEXT
  5
3D8
330
1F
100
AcDbEntity
  8
LAY-255
  6
CONTINUOUS
 62
     7
100
AcDbText
 10
2872.65625
 20
665.625
 30
0.0
 40
34.375
  1
型式
 41
1.056348480681818
  7
EXCADSTD
100
AcDbText
  0
TEXT
  5
3D9
330
1F
100
AcDbEntity
  8
LAY-255
  6
CONTINUOUS
 62
     7
100
AcDbText
 10
2874.21875
 20
725.625
 30
0.0
 40
34.375
  1
品名
 41
0.9788386340909091
  7
EXCADSTD
100
AcDbText
  0
TEXT
  5
3DA
330
1F
100
AcDbEntity
  8
LAY-255
  6
CONTINUOUS
 62
     7
100
AcDbText
 10
3003.90625
 20
725.625
 30
0.0
 40
34.375
  1
マンホールカバー
 41
1.015410627012987
  7
EXCADSTD
100
AcDbText
  0
TEXT
  5
3DB
330
1F
100
AcDbEntity
  8
LAY-255
  6
CONTINUOUS
 62
     7
100
AcDbText
 10
2891.40625
 20
555.625
 30
0.0
 40
34.375
  1
構造：回転ロック方式
 41
1.019908786570248
  7
EXCADSTD
100
AcDbText
  0
TEXT
  5
3DC
330
1F
100
AcDbEntity
  8
LAY-255
  6
CONTINUOUS
 62
     7
100
AcDbText
 10
2891.40625
 20
505.625
 30
0.0
 40
34.375
  1
機能：施錠装置付
 41
1.024521988571429
  7
EXCADSTD
100
AcDbText
  0
TEXT
  5
3DD
330
1F
100
AcDbEntity
  8
LAY-255
  6
CONTINUOUS
 62
     7
100
AcDbText
 10
3482.8125
 20
235.6249999999999
 30
0.0
 40
34.375
  1
１：１０
 41
0.9243863385026738
  7
EXCADSTD
100
AcDbText
  0
TEXT
  5
3DE
330
1F
100
AcDbEntity
  8
LAY-255
  6
CONTINUOUS
 62
     7
100
AcDbText
 10
3012.8125
 20
235.6249999999999
 30
0.0
 40
34.375
  1
１３／１０／１５
 41
0.9652981384415584
  7
EXCADSTD
100
AcDbText
  0
TEXT
  5
3DF
330
1F
100
AcDbEntity
  8
LAY-255
  6
CONTINUOUS
 62
     7
100
AcDbText
 10
3007.5
 20
665.625
 30
0.0
 40
34.375
  1
ＳＦ－９０ＳＫＢ型
 41
1.00333903406214
  7
EXCADSTD
100
AcDbText
  0
TEXT
  5
3E0
330
1F
100
AcDbEntity
  8
LAY-255
  6
CONTINUOUS
 62
     7
100
AcDbText
 10
2894.53125
 20
605.6250000000001
 30
0.0
 40
34.375
  1
区分：中荷重用
 41
1.007228657526081
  7
EXCADSTD
100
AcDbText
  0
TEXT
  5
3E1
330
1F
100
AcDbEntity
  8
LAY-255
  6
CONTINUOUS
 62
     7
100
AcDbText
 10
2891.71875
 20
305.6249999999998
 30
0.0
 40
34.375
  1
破壊荷重：６０ｋＮ以上
 41
1.016600426804124
  7
EXCADSTD
100
AcDbText
  0
ENDSEC
  0
SECTION
  2
OBJECTS
  0
DICTIONARY
  5
C
330
0
100
AcDbDictionary
  3
ACAD_GROUP
350
D
  3
ACAD_LAYOUT
350
1A
  3
ACAD_MATERIAL
350
43
  3
ACAD_MLEADERSTYLE
350
6B
  3
ACAD_MLINESTYLE
350
17
  3
ACAD_PLOTSETTINGS
350
19
  3
ACAD_SCALELIST
350
47
  3
ACAD_VISUALSTYLE
350
2A
  3
ACDBHEADERROUNDTRIPXREC
350
3E2
  3
ACDBVARIABLEDICTIONARY
350
403
  0
DICTIONARY
  5
40E
330
8
100
AcDbDictionary
280
     1
  3
ACAD_XREC_ROUNDTRIP
360
40F
  0
DICTIONARY
  5
D
102
{ACAD_REACTORS
330
C
102
}
330
C
100
AcDbDictionary
  0
DICTIONARY
  5
1A
102
{ACAD_REACTORS
330
C
102
}
330
C
100
AcDbDictionary
  0
DICTIONARY
  5
43
102
{ACAD_REACTORS
330
C
102
}
330
C
100
AcDbDictionary
  3
BYBLOCK
350
45
  3
BYLAYER
350
44
  3
GLOBAL
350
46
  0
DICTIONARY
  5
6B
102
{ACAD_REACTORS
330
C
102
}
330
C
100
AcDbDictionary
  3
STANDARD
350
6C
  0
DICTIONARY
  5
17
102
{ACAD_REACTORS
330
C
102
}
330
C
100
AcDbDictionary
  3
STANDARD
350
18
  0
DICTIONARY
  5
19
102
{ACAD_REACTORS
330
C
102
}
330
C
100
AcDbDictionary
  0
DICTIONARY
  5
47
102
{ACAD_REACTORS
330
C
102
}
330
C
100
AcDbDictionary
  3
A0
350
48
  3
A1
350
49
  3
A2
350
4A
  3
A3
350
4B
  3
A4
350
4C
  3
A5
350
4D
  3
A6
350
4E
  3
A7
350
4F
  3
A8
350
50
  3
A9
350
51
  3
B0
350
52
  3
B1
350
53
  3
B2
350
54
  3
B3
350
55
  3
B4
350
56
  3
B5
350
57
  3
B6
350
58
  3
B7
350
59
  3
B8
350
5A
  3
B9
350
5B
  3
C0
350
5C
  3
C1
350
5D
  3
C2
350
5E
  3
C3
350
5F
  3
C4
350
60
  3
C5
350
61
  3
C6
350
62
  3
C7
350
63
  3
C8
350
64
  3
C9
350
65
  3
D0
350
66
  3
D1
350
67
  3
D2
350
68
  0
DICTIONARY
  5
2A
102
{ACAD_REACTORS
330
C
102
}
330
C
100
AcDbDictionary
  3
2DWIREFRAME
350
2F
  3
BASIC
350
32
  3
BRIGHTEN
350
36
  3
COLORCHANGE
350
3A
  3
CONCEPTUAL
350
34
  3
DIM
350
35
  3
EDGECOLOROFF
350
3D
  3
FACEPATTERN
350
39
  3
FLAT
350
2B
  3
FLATWITHEDGES
350
2C
  3
GOURAUD
350
2D
  3
GOURAUDWITHEDGES
350
2E
  3
HIDDEN
350
31
  3
JITTEROFF
350
3B
  3
LINEPATTERN
350
38
  3
OVERHANGOFF
350
3C
  3
REALISTIC
350
33
  3
SHADED
350
42
  3
SHADED_WITH_EDGES
350
41
  3
SHADES_OF_GRAY
350
3E
  3
SKETCHY
350
3F
  3
THICKEN
350
37
  3
WIREFRAME
350
30
  3
X-RAY
350
40
  0
DICTIONARY
  5
3E2
102
{ACAD_REACTORS
330
C
102
}
330
C
100
AcDbDictionary
  3
CEPSNID
350
3EC
  3
CEPSNTYPE
350
3EB
  3
DIMSTYLEDATA
350
402
  3
FINGERPRINTGUID
350
3ED
  3
HYPERLINKBASE
350
3E5
  3
INSUNITS
350
3EA
  3
LAYOUTDICT
350
3E7
  3
LWETCUNION
350
3E9
  3
PLOTSETDICT
350
3E8
  3
PSVPSCALE
350
3EF
  3
PUCSBASE
350
3F2
  3
PUCSORGBACK
350
3F8
  3
PUCSORGBOTTOM
350
3F4
  3
PUCSORGFRONT
350
3F7
  3
PUCSORGLEFT
350
3F5
  3
PUCSORGRIGHT
350
3F6
  3
PUCSORGTOP
350
3F3
  3
PUCSORTHOREF
350
3F0
  3
PUCSORTHOVIEW
350
3F1
  3
STYLESHEET
350
3E6
  3
TSTACKALIGN
350
3E3
  3
TSTACKSIZE
350
3E4
  3
UCSBASE
350
3FB
  3
UCSORGBACK
350
401
  3
UCSORGBOTTOM
350
3FD
  3
UCSORGFRONT
350
400
  3
UCSORGLEFT
350
3FE
  3
UCSORGRIGHT
350
3FF
  3
UCSORGTOP
350
3FC
  3
UCSORTHOREF
350
3F9
  3
UCSORTHOVIEW
350
3FA
  3
VERSIONGUID
350
3EE
  0
DICTIONARY
  5
403
102
{ACAD_REACTORS
330
C
102
}
330
C
100
AcDbDictionary
  3
CANNOSCALE
350
410
  3
CENTEREXE
350
40A
  3
CENTERLTYPEFILE
350
40B
  3
CMLEADERSTYLE
350
405
  3
CTABLESTYLE
350
404
  3
DIMASSOC
350
40C
  3
HIDETEXT
350
40D
  3
MSLTSCALE
350
411
  3
PSOLHEIGHT
350
407
  3
PSOLWIDTH
350
406
  0
XRECORD
  5
40F
102
{ACAD_REACTORS
330
40E
102
}
330
40E
100
AcDbXrecord
102
VTR_0.000_0.000_1.000_1.000_VISUALSTYLE
340
2F
102
VTR_0.000_0.000_1.000_1.000_GRIDDISPLAY
 70
     3
102
VTR_0.000_0.000_1.000_1.000_GRIDMAJOR
 70
     5
102
VTR_0.000_0.000_1.000_1.000_DEFAULTLIGHTING
280
     1
102
VTR_0.000_0.000_1.000_1.000_DEFAULTLIGHTINGTYPE
 70
     1
102
VTR_0.000_0.000_1.000_1.000_BRIGHTNESS
141
0.0
102
VTR_0.000_0.000_1.000_1.000_CONTRAST
142
0.0
  0
MATERIAL
  5
45
102
{ACAD_REACTORS
330
43
102
}
102
{ACAD_XDICTIONARY
360
414
102
}
330
43
100
AcDbMaterial
  1
BYBLOCK
  0
MATERIAL
  5
44
102
{ACAD_REACTORS
330
43
102
}
102
{ACAD_XDICTIONARY
360
412
102
}
330
43
100
AcDbMaterial
  1
BYLAYER
  0
MATERIAL
  5
46
102
{ACAD_REACTORS
330
43
102
}
102
{ACAD_XDICTIONARY
360
416
102
}
330
43
100
AcDbMaterial
  1
GLOBAL
  0
ACAD_PROXY_OBJECT
  5
6C
102
{ACAD_REACTORS
330
6B
102
}
330
6B
100
AcDbProxyObject
 90
      499
 91
      505
 93
      610
310
40901902A4063FBFFFFFE0000000000000020400000000000020404214DD185B99185C990000000000000104090141901A00000000000004100000000000000041025764000000000000039000
340
14
340
0
340
11
340
0
 94
        0
1001
ACAD_MLEADERVER
1070
     2
  0
MLINESTYLE
  5
18
102
{ACAD_REACTORS
330
17
102
}
330
17
100
AcDbMlineStyle
  2
Standard
 70
     0
  3

 62
   256
 51
90.0
 52
90.0
 71
     2
 49
0.5
 62
   256
  6
BYLAYER
 49
-0.5
 62
   256
  6
BYLAYER
  0
ACAD_PROXY_OBJECT
  5
48
102
{ACAD_REACTORS
330
47
102
}
330
47
100
AcDbProxyObject
 90
      499
 91
      503
 93
       41
310
903313A31580
  0
ACAD_PROXY_OBJECT
  5
49
102
{ACAD_REACTORS
330
47
102
}
330
47
100
AcDbProxyObject
 90
      499
 91
      503
 93
      105
310
903313A324000000000000004000
  0
ACAD_PROXY_OBJECT
  5
4A
102
{ACAD_REACTORS
330
47
102
}
330
47
100
AcDbProxyObject
 90
      499
 91
      503
 93
      105
310
903313A344000000000000104000
  0
ACAD_PROXY_OBJECT
  5
4B
102
{ACAD_REACTORS
330
47
102
}
330
47
100
AcDbProxyObject
 90
      499
 91
      503
 93
      105
310
903313A354000000000000144000
  0
ACAD_PROXY_OBJECT
  5
4C
102
{ACAD_REACTORS
330
47
102
}
330
47
100
AcDbProxyObject
 90
      499
 91
      503
 93
      105
310
903313A384000000000000204000
  0
ACAD_PROXY_OBJECT
  5
4D
102
{ACAD_REACTORS
330
47
102
}
330
47
100
AcDbProxyObject
 90
      499
 91
      503
 93
      113
310
904313A31304000000000000244000
  0
ACAD_PROXY_OBJECT
  5
4E
102
{ACAD_REACTORS
330
47
102
}
330
47
100
AcDbProxyObject
 90
      499
 91
      503
 93
      113
310
904313A31364000000000000304000
  0
ACAD_PROXY_OBJECT
  5
4F
102
{ACAD_REACTORS
330
47
102
}
330
47
100
AcDbProxyObject
 90
      499
 91
      503
 93
      113
310
904313A32304000000000000344000
  0
ACAD_PROXY_OBJECT
  5
50
102
{ACAD_REACTORS
330
47
102
}
330
47
100
AcDbProxyObject
 90
      499
 91
      503
 93
      113
310
904313A333040000000000003E4000
  0
ACAD_PROXY_OBJECT
  5
51
102
{ACAD_REACTORS
330
47
102
}
330
47
100
AcDbProxyObject
 90
      499
 91
      503
 93
      113
310
904313A34304000000000000444000
  0
ACAD_PROXY_OBJECT
  5
52
102
{ACAD_REACTORS
330
47
102
}
330
47
100
AcDbProxyObject
 90
      499
 91
      503
 93
      113
310
904313A35304000000000000494000
  0
ACAD_PROXY_OBJECT
  5
53
102
{ACAD_REACTORS
330
47
102
}
330
47
100
AcDbProxyObject
 90
      499
 91
      503
 93
      121
310
905313A3130304000000000000594000
  0
ACAD_PROXY_OBJECT
  5
54
102
{ACAD_REACTORS
330
47
102
}
330
47
100
AcDbProxyObject
 90
      499
 91
      503
 93
      105
310
903323A310000000000000010100
  0
ACAD_PROXY_OBJECT
  5
55
102
{ACAD_REACTORS
330
47
102
}
330
47
100
AcDbProxyObject
 90
      499
 91
      503
 93
      105
310
903343A310000000000000410100
  0
ACAD_PROXY_OBJECT
  5
56
102
{ACAD_REACTORS
330
47
102
}
330
47
100
AcDbProxyObject
 90
      499
 91
      503
 93
      105
310
903383A310000000000000810100
  0
ACAD_PROXY_OBJECT
  5
57
102
{ACAD_REACTORS
330
47
102
}
330
47
100
AcDbProxyObject
 90
      499
 91
      503
 93
      113
310
90431303A310000000000000910100
  0
ACAD_PROXY_OBJECT
  5
58
102
{ACAD_REACTORS
330
47
102
}
330
47
100
AcDbProxyObject
 90
      499
 91
      503
 93
      121
310
9053130303A310000000000001650100
  0
ACAD_PROXY_OBJECT
  5
59
102
{ACAD_REACTORS
330
47
102
}
330
47
100
AcDbProxyObject
 90
      499
 91
      503
 93
      257
310
90E312F31323822203D2031272D3022000000000000200FC000000000000284000
  0
ACAD_PROXY_OBJECT
  5
5A
102
{ACAD_REACTORS
330
47
102
}
330
47
100
AcDbProxyObject
 90
      499
 91
      503
 93
      249
310
90D312F363422203D2031272D3022000000000000240FC000000000000284000
  0
ACAD_PROXY_OBJECT
  5
5B
102
{ACAD_REACTORS
330
47
102
}
330
47
100
AcDbProxyObject
 90
      499
 91
      503
 93
      249
310
90D312F333222203D2031272D3022000000000000280FC000000000000284000
  0
ACAD_PROXY_OBJECT
  5
5C
102
{ACAD_REACTORS
330
47
102
}
330
47
100
AcDbProxyObject
 90
      499
 91
      503
 93
      249
310
90D312F313622203D2031272D30220000000000002C0FC000000000000284000
  0
ACAD_PROXY_OBJECT
  5
5D
102
{ACAD_REACTORS
330
47
102
}
330
47
100
AcDbProxyObject
 90
      499
 91
      503
 93
      249
310
90D332F333222203D2031272D30220000000000002E0FC000000000000284000
  0
ACAD_PROXY_OBJECT
  5
5E
102
{ACAD_REACTORS
330
47
102
}
330
47
100
AcDbProxyObject
 90
      499
 91
      503
 93
      241
310
90C312F3822203D2031272D3022000000000000300FC000000000000284000
  0
ACAD_PROXY_OBJECT
  5
5F
102
{ACAD_REACTORS
330
47
102
}
330
47
100
AcDbProxyObject
 90
      499
 91
      503
 93
      249
310
90D332F313622203D2031272D3022000000000000320FC000000000000284000
  0
ACAD_PROXY_OBJECT
  5
60
102
{ACAD_REACTORS
330
47
102
}
330
47
100
AcDbProxyObject
 90
      499
 91
      503
 93
      241
310
90C312F3422203D2031272D3022000000000000340FC000000000000284000
  0
ACAD_PROXY_OBJECT
  5
61
102
{ACAD_REACTORS
330
47
102
}
330
47
100
AcDbProxyObject
 90
      499
 91
      503
 93
      241
310
90C332F3822203D2031272D3022000000000000360FC000000000000284000
  0
ACAD_PROXY_OBJECT
  5
62
102
{ACAD_REACTORS
330
47
102
}
330
47
100
AcDbProxyObject
 90
      499
 91
      503
 93
      241
310
90C312F3222203D2031272D3022000000000000380FC000000000000284000
  0
ACAD_PROXY_OBJECT
  5
63
102
{ACAD_REACTORS
330
47
102
}
330
47
100
AcDbProxyObject
 90
      499
 91
      503
 93
      241
310
90C332F3422203D2031272D30220000000000003A0FC000000000000284000
  0
ACAD_PROXY_OBJECT
  5
64
102
{ACAD_REACTORS
330
47
102
}
330
47
100
AcDbProxyObject
 90
      499
 91
      503
 93
      161
310
90A3122203D2031272D30224000000000000284000
  0
ACAD_PROXY_OBJECT
  5
65
102
{ACAD_REACTORS
330
47
102
}
330
47
100
AcDbProxyObject
 90
      499
 91
      503
 93
      257
310
90E312D312F3222203D2031272D30220000000000003E0FC000000000000284000
  0
ACAD_PROXY_OBJECT
  5
66
102
{ACAD_REACTORS
330
47
102
}
330
47
100
AcDbProxyObject
 90
      499
 91
      503
 93
      225
310
90A3322203D2031272D302200000000000002100000000000000284000
  0
ACAD_PROXY_OBJECT
  5
67
102
{ACAD_REACTORS
330
47
102
}
330
47
100
AcDbProxyObject
 90
      499
 91
      503
 93
      225
310
90A3622203D2031272D302200000000000006100000000000000284000
  0
ACAD_PROXY_OBJECT
  5
68
102
{ACAD_REACTORS
330
47
102
}
330
47
100
AcDbProxyObject
 90
      499
 91
      503
 93
      249
310
90D31272D3022203D2031272D30220000000000000A100000000000000284000
  0
ACAD_PROXY_OBJECT
  5
2F
102
{ACAD_REACTORS
330
2A
102
}
330
2A
100
AcDbProxyObject
 90
      499
 91
      501
 93
      436
310
42CC9915DA5C99599C985B595049028333333333333E33F0000000000000F90107901411070040501600405405064090741402480A0340
1001
ACAD
1000
AcDbSavedByObjectVersion
1070
     0
  0
ACAD_PROXY_OBJECT
  5
32
102
{ACAD_REACTORS
330
2A
102
}
330
2A
100
AcDbProxyObject
 90
      499
 91
      501
 93
      388
310
4150985CDA58D07406404333333333333E33F0000000000000F90107A41107004050150841D405064090741402480A0350
1001
ACAD
1000
AcDbSavedByObjectVersion
1070
     0
  0
ACAD_PROXY_OBJECT
  5
36
102
{ACAD_REACTORS
330
2A
102
}
330
2A
100
AcDbProxyObject
 90
      499
 91
      501
 93
      428
310
42109C9A59DA1D195B90C409028333333333333E33F0000000000000F9010790141107004050150841D405064090741402480A029950
1001
ACAD
1000
AcDbSavedByObjectVersion
1070
     0
  0
ACAD_PROXY_OBJECT
  5
3A
102
{ACAD_REACTORS
330
2A
102
}
330
2A
100
AcDbProxyObject
 90
      499
 91
      501
 93
      452
310
42D0DBDB1BDC90DA185B99D95104090240C333333333333E33F0000000000000F90108901411070040501508421405064090741402480A0350
1001
ACAD
1000
AcDbSavedByObjectVersion
1070
     0
  0
ACAD_PROXY_OBJECT
  5
34
102
{ACAD_REACTORS
330
2A
102
}
330
2A
100
AcDbProxyObject
 90
      499
 91
      501
 93
      500
310
4290DBDB98D95C1D1D585B10940D028333333333333E33F0000000000000F90107902409070040501000000000018199010841D405064090740C02480A0340
1001
ACAD
1000
AcDbSavedByObjectVersion
1070
     0
  0
ACAD_PROXY_OBJECT
  5
35
102
{ACAD_REACTORS
330
2A
102
}
330
2A
100
AcDbProxyObject
 90
      499
 91
      501
 93
      412
310
40D11A5B50B409028333333333333E33F0000000000000F9010790141107004050150841D405064090741402480A02677FFFFFD0
1001
ACAD
1000
AcDbSavedByObjectVersion
1070
     0
  0
ACAD_PROXY_OBJECT
  5
3D
102
{ACAD_REACTORS
330
2A
102
}
330
2A
100
AcDbProxyObject
 90
      499
 91
      501
 93
      452
310
43115919D950DBDB1BDC93D999916409028333333333333E33F0000000000000F9010790141107004050150841D405064090741402480A0350
1001
ACAD
1000
AcDbSavedByObjectVersion
1070
     0
  0
ACAD_PROXY_OBJECT
  5
39
102
{ACAD_REACTORS
330
2A
102
}
330
2A
100
AcDbProxyObject
 90
      499
 91
      501
 93
      444
310
42D19858D95C185D1D195C9B90F409028333333333333E33F0000000000000F9010790141107004050150841D405064090741402480A0350
1001
ACAD
1000
AcDbSavedByObjectVersion
1070
     0
  0
ACAD_PROXY_OBJECT
  5
2B
102
{ACAD_REACTORS
330
2A
102
}
330
2A
100
AcDbProxyObject
 90
      499
 91
      501
 93
      380
310
41119B185D240901404333333333333E33F0000000000000F9010740A907004050150841D405064090741402480A1B50
1001
ACAD
1000
AcDbSavedByObjectVersion
1070
     0
  0
ACAD_PROXY_OBJECT
  5
2C
102
{ACAD_REACTORS
330
2A
102
}
330
2A
100
AcDbProxyObject
 90
      499
 91
      501
 93
      468
310
43519B185D15DA5D1A115919D95CD0140901404333333333333E33F0000000000000F90107409019070040501600405405064090741402480A1B50
1001
ACAD
1000
AcDbSavedByObjectVersion
1070
     0
  0
ACAD_PROXY_OBJECT
  5
2D
102
{ACAD_REACTORS
330
2A
102
}
330
2A
100
AcDbProxyObject
 90
      499
 91
      501
 93
      404
310
41D1DBDD5C985D5910240902404333333333333E33F0000000000000F9010740A9070040501641D405064090741402480A1B50
1001
ACAD
1000
AcDbSavedByObjectVersion
1070
     0
  0
ACAD_PROXY_OBJECT
  5
2E
102
{ACAD_REACTORS
330
2A
102
}
330
2A
100
AcDbProxyObject
 90
      499
 91
      501
 93
      492
310
4411DBDD5C985D5915DA5D1A115919D95CD0340902404333333333333E33F0000000000000F90107409019070040501600405405064090741402480A1B50
1001
ACAD
1000
AcDbSavedByObjectVersion
1070
     0
  0
ACAD_PROXY_OBJECT
  5
31
102
{ACAD_REACTORS
330
2A
102
}
330
2A
100
AcDbProxyObject
 90
      499
 91
      501
 93
      476
310
41921A5919195B90640502408333333333333E33F0000000000000F901079024090700405020000000000001110200405405064090740C02480A0340
1001
ACAD
1000
AcDbSavedByObjectVersion
1070
     0
  0
ACAD_PROXY_OBJECT
  5
3B
102
{ACAD_REACTORS
330
2A
102
}
330
2A
100
AcDbProxyObject
 90
      499
 91
      501
 93
      428
310
42529A5D1D195C93D999914409028333333333333E33F0000000000000F9010790141107004050150A41D405064090741402480A0350
1001
ACAD
1000
AcDbSavedByObjectVersion
1070
     0
  0
ACAD_PROXY_OBJECT
  5
38
102
{ACAD_REACTORS
330
2A
102
}
330
2A
100
AcDbProxyObject
 90
      499
 91
      501
 93
      444
310
42D31A5B995C185D1D195C9B90E409028333333333333E33F0000000000000F9010790141107004050750841D405064090741402483A0350
1001
ACAD
1000
AcDbSavedByObjectVersion
1070
     0
  0
ACAD_PROXY_OBJECT
  5
3C
102
{ACAD_REACTORS
330
2A
102
}
330
2A
100
AcDbProxyObject
 90
      499
 91
      501
 93
      444
310
42D3DD995C9A185B99D3D999915409028333333333333E33F0000000000000F9010790141107004050150941D405064090741402480A0350
1001
ACAD
1000
AcDbSavedByObjectVersion
1070
     0
  0
ACAD_PROXY_OBJECT
  5
33
102
{ACAD_REACTORS
330
2A
102
}
330
2A
100
AcDbProxyObject
 90
      499
 91
      501
 93
      428
310
425499585B1A5CDD1A58D08409038333333333333E33F0000000000000F9010740A907004050150800405405064090740C02480A1B40
1001
ACAD
1000
AcDbSavedByObjectVersion
1070
     0
  0
ACAD_PROXY_OBJECT
  5
42
102
{ACAD_REACTORS
330
2A
102
}
330
2A
100
AcDbProxyObject
 90
      499
 91
      501
 93
      420
310
4194DA1859195911B40902404333333333333E33F0000000000000F9010740A41107004050150800405405064090840C02480A0B40
1001
ACAD
1000
AcDbSavedByObjectVersion
1070
     0
  0
ACAD_PROXY_OBJECT
  5
41
102
{ACAD_REACTORS
330
2A
102
}
330
2A
100
AcDbProxyObject
 90
      499
 91
      501
 93
      516
310
4454DA18591959081DDA5D1A08195919D95CD1A40902404333333333333E33F0000000000000F901074090142907004050250800405405064090740C02480A0B40
1001
ACAD
1000
AcDbSavedByObjectVersion
1070
     0
  0
ACAD_PROXY_OBJECT
  5
3E
102
{ACAD_REACTORS
330
2A
102
}
330
2A
100
AcDbProxyObject
 90
      499
 91
      501
 93
      532
310
4394DA1859195CC81BD98811DC985E5174090240C333333333333E33F0000000000000F901079024090741D01000000000000111010841D405064090740C02480A0340
1001
ACAD
1000
AcDbSavedByObjectVersion
1070
     0
  0
ACAD_PROXY_OBJECT
  5
3F
102
{ACAD_REACTORS
330
2A
102
}
330
2A
100
AcDbProxyObject
 90
      499
 91
      501
 93
      476
310
41D4DAD95D18DA1E51840502408333333333333E33F0000000000000F901079024090741D01000000000000111010B41D405064090741802480A0340
1001
ACAD
1000
AcDbSavedByObjectVersion
1070
     0
  0
ACAD_PROXY_OBJECT
  5
37
102
{ACAD_REACTORS
330
2A
102
}
330
2A
100
AcDbProxyObject
 90
      499
 91
      501
 93
      412
310
41D51A1A58DAD95B90D409028333333333333E33F0000000000000F9010790141107004050150C41D405064090741402480A0350
1001
ACAD
1000
AcDbSavedByObjectVersion
1070
     0
  0
ACAD_PROXY_OBJECT
  5
30
102
{ACAD_REACTORS
330
2A
102
}
330
2A
100
AcDbProxyObject
 90
      499
 91
      501
 93
      420
310
4255DA5C99599C985B595059028333333333333E33F0000000000000F90107901411070040501600405405064090740C02480A0340
1001
ACAD
1000
AcDbSavedByObjectVersion
1070
     0
  0
ACAD_PROXY_OBJECT
  5
40
102
{ACAD_REACTORS
330
2A
102
}
330
2A
100
AcDbProxyObject
 90
      499
 91
      501
 93
      404
310
41560B54985E51940902404000000000000E03F0000000000000F9010740501907004050150841D405064090740C02480A1B40
1001
ACAD
1000
AcDbSavedByObjectVersion
1070
     0
  0
XRECORD
  5
3EC
102
{ACAD_REACTORS
330
3E2
102
}
330
3E2
100
AcDbXrecord
340
0
  0
XRECORD
  5
3EB
102
{ACAD_REACTORS
330
3E2
102
}
330
3E2
100
AcDbXrecord
 90
        0
  0
XRECORD
  5
402
102
{ACAD_REACTORS
330
3E2
102
}
330
3E2
100
AcDbXrecord
1000
DSTYLE
1002
{
1070
   340
340
11
1002
}
  0
XRECORD
  5
3ED
102
{ACAD_REACTORS
330
3E2
102
}
330
3E2
100
AcDbXrecord
  1
{06d64559-9a75-4b02-b833-94b9adaefddc}
  0
XRECORD
  5
3E5
102
{ACAD_REACTORS
330
3E2
102
}
330
3E2
100
AcDbXrecord
  1

  0
XRECORD
  5
3EA
102
{ACAD_REACTORS
330
3E2
102
}
330
3E2
100
AcDbXrecord
 90
        4
  0
XRECORD
  5
3E7
102
{ACAD_REACTORS
330
3E2
102
}
330
3E2
100
AcDbXrecord
340
1A
  0
XRECORD
  5
3E9
102
{ACAD_REACTORS
330
3E2
102
}
330
3E2
100
AcDbXrecord
 90
    10781
  0
XRECORD
  5
3E8
102
{ACAD_REACTORS
330
3E2
102
}
330
3E2
100
AcDbXrecord
340
19
  0
XRECORD
  5
3EF
102
{ACAD_REACTORS
330
3E2
102
}
330
3E2
100
AcDbXrecord
 40
0.0
  0
XRECORD
  5
3F2
102
{ACAD_REACTORS
330
3E2
102
}
330
3E2
100
AcDbXrecord
340
0
  0
XRECORD
  5
3F8
102
{ACAD_REACTORS
330
3E2
102
}
330
3E2
100
AcDbXrecord
 10
0.0
 20
0.0
 30
0.0
  0
XRECORD
  5
3F4
102
{ACAD_REACTORS
330
3E2
102
}
330
3E2
100
AcDbXrecord
 10
0.0
 20
0.0
 30
0.0
  0
XRECORD
  5
3F7
102
{ACAD_REACTORS
330
3E2
102
}
330
3E2
100
AcDbXrecord
 10
0.0
 20
0.0
 30
0.0
  0
XRECORD
  5
3F5
102
{ACAD_REACTORS
330
3E2
102
}
330
3E2
100
AcDbXrecord
 10
0.0
 20
0.0
 30
0.0
  0
XRECORD
  5
3F6
102
{ACAD_REACTORS
330
3E2
102
}
330
3E2
100
AcDbXrecord
 10
0.0
 20
0.0
 30
0.0
  0
XRECORD
  5
3F3
102
{ACAD_REACTORS
330
3E2
102
}
330
3E2
100
AcDbXrecord
 10
0.0
 20
0.0
 30
0.0
  0
XRECORD
  5
3F0
102
{ACAD_REACTORS
330
3E2
102
}
330
3E2
100
AcDbXrecord
340
0
  0
XRECORD
  5
3F1
102
{ACAD_REACTORS
330
3E2
102
}
330
3E2
100
AcDbXrecord
 70
     0
  0
XRECORD
  5
3E6
102
{ACAD_REACTORS
330
3E2
102
}
330
3E2
100
AcDbXrecord
  1

  0
XRECORD
  5
3E3
102
{ACAD_REACTORS
330
3E2
102
}
330
3E2
100
AcDbXrecord
 90
        1
  0
XRECORD
  5
3E4
102
{ACAD_REACTORS
330
3E2
102
}
330
3E2
100
AcDbXrecord
 90
       70
  0
XRECORD
  5
3FB
102
{ACAD_REACTORS
330
3E2
102
}
330
3E2
100
AcDbXrecord
340
0
  0
XRECORD
  5
401
102
{ACAD_REACTORS
330
3E2
102
}
330
3E2
100
AcDbXrecord
 10
0.0
 20
0.0
 30
0.0
  0
XRECORD
  5
3FD
102
{ACAD_REACTORS
330
3E2
102
}
330
3E2
100
AcDbXrecord
 10
0.0
 20
0.0
 30
0.0
  0
XRECORD
  5
400
102
{ACAD_REACTORS
330
3E2
102
}
330
3E2
100
AcDbXrecord
 10
0.0
 20
0.0
 30
0.0
  0
XRECORD
  5
3FE
102
{ACAD_REACTORS
330
3E2
102
}
330
3E2
100
AcDbXrecord
 10
0.0
 20
0.0
 30
0.0
  0
XRECORD
  5
3FF
102
{ACAD_REACTORS
330
3E2
102
}
330
3E2
100
AcDbXrecord
 10
0.0
 20
0.0
 30
0.0
  0
XRECORD
  5
3FC
102
{ACAD_REACTORS
330
3E2
102
}
330
3E2
100
AcDbXrecord
 10
0.0
 20
0.0
 30
0.0
  0
XRECORD
  5
3F9
102
{ACAD_REACTORS
330
3E2
102
}
330
3E2
100
AcDbXrecord
340
0
  0
XRECORD
  5
3FA
102
{ACAD_REACTORS
330
3E2
102
}
330
3E2
100
AcDbXrecord
 70
     0
  0
XRECORD
  5
3EE
102
{ACAD_REACTORS
330
3E2
102
}
330
3E2
100
AcDbXrecord
  1
{FAEB1C32-E019-11D5-929B-00C0DF256EC4}
  0
DICTIONARYVAR
  5
410
102
{ACAD_REACTORS
330
403
102
}
330
403
100
DictionaryVariables
280
     0
  1
1:1
  0
DICTIONARYVAR
  5
40A
102
{ACAD_REACTORS
330
403
102
}
330
403
100
DictionaryVariables
280
     0
  1
3.500000
  0
DICTIONARYVAR
  5
40B
102
{ACAD_REACTORS
330
403
102
}
330
403
100
DictionaryVariables
280
     0
  1
acadiso.lin
  0
DICTIONARYVAR
  5
405
102
{ACAD_REACTORS
330
403
102
}
330
403
100
DictionaryVariables
280
     0
  1
Standard
  0
DICTIONARYVAR
  5
404
102
{ACAD_REACTORS
330
403
102
}
330
403
100
DictionaryVariables
280
     0
  1
Standard
  0
DICTIONARYVAR
  5
40C
102
{ACAD_REACTORS
330
403
102
}
330
403
100
DictionaryVariables
280
     0
  1
2
  0
DICTIONARYVAR
  5
40D
102
{ACAD_REACTORS
330
403
102
}
330
403
100
DictionaryVariables
280
     0
  1
1
  0
DICTIONARYVAR
  5
411
102
{ACAD_REACTORS
330
403
102
}
330
403
100
DictionaryVariables
280
     0
  1
1
  0
DICTIONARYVAR
  5
407
102
{ACAD_REACTORS
330
403
102
}
330
403
100
DictionaryVariables
280
     0
  1
80.000000
  0
DICTIONARYVAR
  5
406
102
{ACAD_REACTORS
330
403
102
}
330
403
100
DictionaryVariables
280
     0
  1
5.000000
  0
DICTIONARY
  5
414
330
45
100
AcDbDictionary
280
     1
  3
ACAD_XREC_ROUNDTRIP
360
415
  0
DICTIONARY
  5
412
330
44
100
AcDbDictionary
280
     1
  3
ACAD_XREC_ROUNDTRIP
360
413
  0
DICTIONARY
  5
416
330
46
100
AcDbDictionary
280
     1
  3
ACAD_XREC_ROUNDTRIP
360
417
  0
XRECORD
  5
415
102
{ACAD_REACTORS
330
414
102
}
330
414
100
AcDbXrecord
102
MATERIAL
148
0.0
149
0.0
149
0.0
 93
        0
 94
      127
282
     0
 72
     1
 77
     1
171
     1
175
     1
179
     1
273
     0
  0
XRECORD
  5
413
102
{ACAD_REACTORS
330
412
102
}
330
412
100
AcDbXrecord
102
MATERIAL
148
0.0
149
0.0
149
0.0
 93
        0
 94
      127
282
     0
 72
     1
 77
     1
171
     1
175
     1
179
     1
273
     0
  0
XRECORD
  5
417
102
{ACAD_REACTORS
330
416
102
}
330
416
100
AcDbXrecord
102
MATERIAL
148
0.0
149
0.0
149
0.0
 93
        0
 94
      127
282
     0
 72
     1
 77
     1
171
     1
175
     1
179
     1
273
     0
  0
ENDSEC
  0
EOF
