  0
SECTION
  2
HEADER
  9
$ACADVER
  1
AC1014
  9
$ACADMAINTVER
 70
     9
  9
$DWGCODEPAGE
  3
ANSI_932
  9
$INSBASE
 10
0.0
 20
0.0
 30
0.0
  9
$EXTMIN
 10
5.000000000000001
 20
10.0
 30
0.0
  9
$EXTMAX
 10
385.0000000000001
 20
280.0
 30
0.0
  9
$LIMMIN
 10
0.0
 20
0.0
  9
$LIMMAX
 10
420.0
 20
297.0
  9
$ORTHOMODE
 70
     0
  9
$REGENMODE
 70
     1
  9
$FILLMODE
 70
     1
  9
$QTEXTMODE
 70
     0
  9
$MIRRTEXT
 70
     1
  9
$DRAGMODE
 70
     2
  9
$LTSCALE
 40
1.0
  9
$OSMODE
 70
    37
  9
$ATTMODE
 70
     1
  9
$TEXTSIZE
 40
2.5
  9
$TRACEWID
 40
1.0
  9
$TEXTSTYLE
  7
STANDARD
  9
$CLAYER
  8
LAY-255
  9
$CELTYPE
  6
BYLAYER
  9
$CECOLOR
 62
   256
  9
$CELTSCALE
 40
1.0
  9
$DELOBJ
 70
     1
  9
$DISPSILH
 70
     0
  9
$DIMSCALE
 40
1.0
  9
$DIMASZ
 40
2.5
  9
$DIMEXO
 40
0.625
  9
$DIMDLI
 40
3.75
  9
$DIMRND
 40
0.0
  9
$DIMDLE
 40
0.0
  9
$DIMEXE
 40
1.25
  9
$DIMTP
 40
0.0
  9
$DIMTM
 40
0.0
  9
$DIMTXT
 40
2.5
  9
$DIMCEN
 40
2.5
  9
$DIMTSZ
 40
0.0
  9
$DIMTOL
 70
     0
  9
$DIMLIM
 70
     0
  9
$DIMTIH
 70
     0
  9
$DIMTOH
 70
     0
  9
$DIMSE1
 70
     0
  9
$DIMSE2
 70
     0
  9
$DIMTAD
 70
     1
  9
$DIMZIN
 70
     8
  9
$DIMBLK
  1

  9
$DIMASO
 70
     1
  9
$DIMSHO
 70
     1
  9
$DIMPOST
  1

  9
$DIMAPOST
  1

  9
$DIMALT
 70
     0
  9
$DIMALTD
 70
     3
  9
$DIMALTF
 40
0.03937007874016
  9
$DIMLFAC
 40
1.0
  9
$DIMTOFL
 70
     1
  9
$DIMTVP
 40
0.0
  9
$DIMTIX
 70
     0
  9
$DIMSOXD
 70
     0
  9
$DIMSAH
 70
     0
  9
$DIMBLK1
  1

  9
$DIMBLK2
  1

  9
$DIMSTYLE
  2
ISO-25
  9
$DIMCLRD
 70
     0
  9
$DIMCLRE
 70
     0
  9
$DIMCLRT
 70
     0
  9
$DIMTFAC
 40
1.0
  9
$DIMGAP
 40
0.625
  9
$DIMJUST
 70
     0
  9
$DIMSD1
 70
     0
  9
$DIMSD2
 70
     0
  9
$DIMTOLJ
 70
     0
  9
$DIMTZIN
 70
     8
  9
$DIMALTZ
 70
     0
  9
$DIMALTTZ
 70
     0
  9
$DIMFIT
 70
     3
  9
$DIMUPT
 70
     0
  9
$DIMUNIT
 70
     2
  9
$DIMDEC
 70
     2
  9
$DIMTDEC
 70
     2
  9
$DIMALTU
 70
     2
  9
$DIMALTTD
 70
     3
  9
$DIMTXSTY
  7
STANDARD
  9
$DIMAUNIT
 70
     0
  9
$LUNITS
 70
     2
  9
$LUPREC
 70
     4
  9
$SKETCHINC
 40
1.0
  9
$FILLETRAD
 40
10.0
  9
$AUNITS
 70
     0
  9
$AUPREC
 70
     0
  9
$MENU
  1
.
  9
$ELEVATION
 40
0.0
  9
$PELEVATION
 40
0.0
  9
$THICKNESS
 40
0.0
  9
$LIMCHECK
 70
     0
  9
$CHAMFERA
 40
0.0
  9
$CHAMFERB
 40
0.0
  9
$CHAMFERC
 40
0.0
  9
$CHAMFERD
 40
0.0
  9
$SKPOLY
 70
     0
  9
$TDCREATE
 40
2459545.654635139
  9
$TDUPDATE
 40
2459545.654635475
  9
$TDINDWG
 40
0.0000000116
  9
$TDUSRTIMER
 40
0.0000000116
  9
$USRTIMER
 70
     1
  9
$ANGBASE
 50
0.0
  9
$ANGDIR
 70
     0
  9
$PDMODE
 70
     0
  9
$PDSIZE
 40
0.0
  9
$PLINEWID
 40
0.0
  9
$COORDS
 70
     1
  9
$SPLFRAME
 70
     0
  9
$SPLINETYPE
 70
     6
  9
$SPLINESEGS
 70
     8
  9
$ATTDIA
 70
     0
  9
$ATTREQ
 70
     1
  9
$HANDLING
 70
     1
  9
$HANDSEED
  5
26D
  9
$SURFTAB1
 70
     6
  9
$SURFTAB2
 70
     6
  9
$SURFTYPE
 70
     6
  9
$SURFU
 70
     6
  9
$SURFV
 70
     6
  9
$UCSNAME
  2

  9
$UCSORG
 10
0.0
 20
0.0
 30
0.0
  9
$UCSXDIR
 10
1.0
 20
0.0
 30
0.0
  9
$UCSYDIR
 10
0.0
 20
1.0
 30
0.0
  9
$PUCSNAME
  2

  9
$PUCSORG
 10
0.0
 20
0.0
 30
0.0
  9
$PUCSXDIR
 10
1.0
 20
0.0
 30
0.0
  9
$PUCSYDIR
 10
0.0
 20
1.0
 30
0.0
  9
$USERI1
 70
     0
  9
$USERI2
 70
     0
  9
$USERI3
 70
     0
  9
$USERI4
 70
     0
  9
$USERI5
 70
     0
  9
$USERR1
 40
0.0
  9
$USERR2
 40
0.0
  9
$USERR3
 40
0.0
  9
$USERR4
 40
0.0
  9
$USERR5
 40
0.0
  9
$WORLDVIEW
 70
     1
  9
$SHADEDGE
 70
     3
  9
$SHADEDIF
 70
    70
  9
$TILEMODE
 70
     1
  9
$MAXACTVP
 70
    64
  9
$PINSBASE
 10
0.0
 20
0.0
 30
0.0
  9
$PLIMCHECK
 70
     0
  9
$PEXTMIN
 10
1.000000000000000E+20
 20
1.000000000000000E+20
 30
1.000000000000000E+20
  9
$PEXTMAX
 10
-1.000000000000000E+20
 20
-1.000000000000000E+20
 30
-1.000000000000000E+20
  9
$PLIMMIN
 10
0.0
 20
0.0
  9
$PLIMMAX
 10
420.0
 20
297.0
  9
$UNITMODE
 70
     0
  9
$VISRETAIN
 70
     1
  9
$PLINEGEN
 70
     0
  9
$PSLTSCALE
 70
     1
  9
$TREEDEPTH
 70
  3020
  9
$PICKSTYLE
 70
     1
  9
$CMLSTYLE
  2
STANDARD
  9
$CMLJUST
 70
     0
  9
$CMLSCALE
 40
20.0
  9
$PROXYGRAPHICS
 70
     1
  9
$MEASUREMENT
 70
     1
  0
ENDSEC
  0
SECTION
  2
CLASSES
  0
CLASS
  1
ACDBDICTIONARYWDFLT
  2
AcDbDictionaryWithDefault
  3
ObjectDBX Classes
 90
        0
280
     0
281
     0
  0
CLASS
  1
VISUALSTYLE
  2
AcDbVisualStyle
  3
ObjectDBX Classes
 90
     4095
280
     0
281
     0
  0
CLASS
  1
MATERIAL
  2
AcDbMaterial
  3
ObjectDBX Classes
 90
     1153
280
     0
281
     0
  0
CLASS
  1
SCALE
  2
AcDbScale
  3
ObjectDBX Classes
 90
     1153
280
     0
281
     0
  0
CLASS
  1
TABLESTYLE
  2
AcDbTableStyle
  3
ObjectDBX Classes
 90
     4095
280
     0
281
     0
  0
CLASS
  1
MLEADERSTYLE
  2
AcDbMLeaderStyle
  3
ACDB_MLEADERSTYLE_CLASS
 90
     4095
280
     0
281
     0
  0
CLASS
  1
SUN
  2
AcDbSun
  3
SCENEOE
 90
     1153
280
     0
281
     0
  0
CLASS
  1
DICTIONARYVAR
  2
AcDbDictionaryVar
  3
ObjectDBX Classes
 90
        0
280
     0
281
     0
  0
CLASS
  1
XRECORD
  2
AcDbXrecord
  3
ObjectDBX Classes
 90
        0
280
     0
281
     0
  0
CLASS
  1
LWPOLYLINE
  2
AcDbPolyline
  3
ObjectDBX Classes
 90
        0
280
     0
281
     1
  0
CLASS
  1
HATCH
  2
AcDbHatch
  3
ObjectDBX Classes
 90
        0
280
     0
281
     1
  0
CLASS
  1
ACDBPLACEHOLDER
  2
AcDbPlaceHolder
  3
ObjectDBX Classes
 90
        0
280
     0
281
     0
  0
CLASS
  1
LAYOUT
  2
AcDbLayout
  3
ObjectDBX Classes
 90
        0
280
     0
281
     0
  0
ENDSEC
  0
SECTION
  2
TABLES
  0
TABLE
  2
VPORT
  5
8
102
{ACAD_XDICTIONARY
360
262
102
}
330
0
100
AcDbSymbolTable
 70
     1
  0
VPORT
  5
29
330
8
100
AcDbSymbolTableRecord
100
AcDbViewportTableRecord
  2
*ACTIVE
 70
     0
 10
0.0
 20
0.0
 11
1.0
 21
1.0
 12
195.0
 22
145.0
 13
0.0
 23
0.0
 14
10.0
 24
10.0
 15
10.0
 25
10.0
 16
0.0
 26
0.0
 36
1.0
 17
0.0
 27
0.0
 37
0.0
 40
270.0
 41
1.407407407407408
 42
50.0
 43
0.0
 44
0.0
 50
0.0
 51
0.0
 71
     0
 72
  1000
 73
     1
 74
     3
 75
     0
 76
     0
 77
     0
 78
     0
  0
ENDTAB
  0
TABLE
  2
LTYPE
  5
5
330
0
100
AcDbSymbolTable
 70
     7
  0
LTYPE
  5
14
330
5
100
AcDbSymbolTableRecord
100
AcDbLinetypeTableRecord
  2
BYBLOCK
 70
     0
  3

 72
    65
 73
     0
 40
0.0
  0
LTYPE
  5
15
330
5
100
AcDbSymbolTableRecord
100
AcDbLinetypeTableRecord
  2
BYLAYER
 70
     0
  3

 72
    65
 73
     0
 40
0.0
  0
LTYPE
  5
16
330
5
100
AcDbSymbolTableRecord
100
AcDbLinetypeTableRecord
  2
CONTINUOUS
 70
     0
  3
Solid line
 72
    65
 73
     0
 40
0.0
  0
LTYPE
  5
6E
330
5
100
AcDbSymbolTableRecord
100
AcDbLinetypeTableRecord
  2
EXLTYPE0
 70
     0
  3
破線
 72
    65
 73
     2
 40
4.0
 49
3.0
 74
     0
 49
-1.0
 74
     0
  0
LTYPE
  5
6F
330
5
100
AcDbSymbolTableRecord
100
AcDbLinetypeTableRecord
  2
EXLTYPE1
 70
     0
  3
点線
 72
    65
 73
     2
 40
2.0
 49
1.0
 74
     0
 49
-1.0
 74
     0
  0
LTYPE
  5
70
330
5
100
AcDbSymbolTableRecord
100
AcDbLinetypeTableRecord
  2
EXLTYPE2
 70
     0
  3
一点鎖線
 72
    65
 73
     4
 40
13.0
 49
10.0
 74
     0
 49
-1.0
 74
     0
 49
1.0
 74
     0
 49
-1.0
 74
     0
  0
LTYPE
  5
71
330
5
100
AcDbSymbolTableRecord
100
AcDbLinetypeTableRecord
  2
EXLTYPE3
 70
     0
  3
二点鎖線
 72
    65
 73
     6
 40
15.0
 49
10.0
 74
     0
 49
-1.0
 74
     0
 49
1.0
 74
     0
 49
-1.0
 74
     0
 49
1.0
 74
     0
 49
-1.0
 74
     0
  0
LTYPE
  5
72
330
5
100
AcDbSymbolTableRecord
100
AcDbLinetypeTableRecord
  2
EXLTYPE4
 70
     0
  3
三点鎖線
 72
    65
 73
     8
 40
37.0
 49
30.0
 74
     0
 49
-1.0
 74
     0
 49
1.0
 74
     0
 49
-1.0
 74
     0
 49
1.0
 74
     0
 49
-1.0
 74
     0
 49
1.0
 74
     0
 49
-1.0
 74
     0
  0
LTYPE
  5
73
330
5
100
AcDbSymbolTableRecord
100
AcDbLinetypeTableRecord
  2
EXLTYPE5
 70
     0
  3
四点鎖線
 72
    65
 73
    10
 40
39.0
 49
30.0
 74
     0
 49
-1.0
 74
     0
 49
1.0
 74
     0
 49
-1.0
 74
     0
 49
1.0
 74
     0
 49
-1.0
 74
     0
 49
1.0
 74
     0
 49
-1.0
 74
     0
 49
1.0
 74
     0
 49
-1.0
 74
     0
  0
ENDTAB
  0
TABLE
  2
LAYER
  5
2
330
0
100
AcDbSymbolTable
 70
     6
  0
LAYER
  5
10
330
2
100
AcDbSymbolTableRecord
100
AcDbLayerTableRecord
  2
0
 70
     0
 62
     7
  6
CONTINUOUS
  0
LAYER
  5
76
330
2
100
AcDbSymbolTableRecord
100
AcDbLayerTableRecord
  2
LAY-10
 70
     0
 62
     7
  6
CONTINUOUS
  0
LAYER
  5
77
330
2
100
AcDbSymbolTableRecord
100
AcDbLayerTableRecord
  2
LAY-11
 70
     0
 62
     7
  6
CONTINUOUS
  0
LAYER
  5
78
330
2
100
AcDbSymbolTableRecord
100
AcDbLayerTableRecord
  2
LAY-20
 70
     0
 62
     7
  6
CONTINUOUS
  0
LAYER
  5
79
330
2
100
AcDbSymbolTableRecord
100
AcDbLayerTableRecord
  2
LAY-255
 70
     0
 62
     7
  6
CONTINUOUS
  0
LAYER
  5
ED
330
2
100
AcDbSymbolTableRecord
100
AcDbLayerTableRecord
  2
DEFPOINTS
 70
     0
 62
     7
  6
CONTINUOUS
  0
ENDTAB
  0
TABLE
  2
STYLE
  5
3
330
0
100
AcDbSymbolTable
 70
     5
  0
STYLE
  5
11
330
3
100
AcDbSymbolTableRecord
100
AcDbTextStyleTableRecord
  2
STANDARD
 70
     0
 40
0.0
 41
1.0
 50
0.0
 71
     0
 42
2.5
  3
complex
  4
extfont
  0
STYLE
  5
74
330
3
100
AcDbSymbolTableRecord
100
AcDbTextStyleTableRecord
  2
EXCADSTD
 70
     0
 40
0.0
 41
1.0
 50
0.0
 71
     0
 42
2.5
  3
complex
  4
extfont
  0
STYLE
  5
75
330
3
100
AcDbSymbolTableRecord
100
AcDbTextStyleTableRecord
  2
EXCADVERT
 70
     4
 40
0.0
 41
1.0
 50
0.0
 71
     0
 42
2.5
  3
complex
  4
extfont
  0
STYLE
  5
EB
330
3
100
AcDbSymbolTableRecord
100
AcDbTextStyleTableRecord
  2
EXCADDIM1
 70
     0
 40
0.0
 41
0.84
 50
0.0
 71
     0
 42
2.5
  3
complex
  4
extfont
  0
STYLE
  5
122
330
3
100
AcDbSymbolTableRecord
100
AcDbTextStyleTableRecord
  2
EXCADTTF1
 70
     0
 40
0.0
 41
1.0
 50
0.0
 71
     0
 42
2.5
  3
msgothic.ttc
  4

1001
ACAD
1000
MS Gothic
1071
    32817
  0
ENDTAB
  0
TABLE
  2
VIEW
  5
6
330
0
100
AcDbSymbolTable
 70
     0
  0
ENDTAB
  0
TABLE
  2
UCS
  5
7
330
0
100
AcDbSymbolTable
 70
     0
  0
ENDTAB
  0
TABLE
  2
APPID
  5
9
330
0
100
AcDbSymbolTable
 70
     2
  0
APPID
  5
12
330
9
100
AcDbSymbolTableRecord
100
AcDbRegAppTableRecord
  2
ACAD
 70
     0
  0
APPID
  5
26C
330
9
100
AcDbSymbolTableRecord
100
AcDbRegAppTableRecord
  2
ACAD_MLEADERVER
 70
     0
  0
ENDTAB
  0
TABLE
  2
DIMSTYLE
  5
A
330
0
100
AcDbSymbolTable
 70
     1
  0
DIMSTYLE
105
27
102
{ACAD_REACTORS
330
EC
330
FA
330
160
330
16D
330
17A
330
187
330
194
330
213
330
21F
102
}
330
A
100
AcDbSymbolTableRecord
100
AcDbDimStyleTableRecord
  2
ISO-25
 70
     0
  3

  4

  5

  6

  7

 40
1.0
 41
2.5
 42
0.625
 43
3.75
 44
1.25
 45
0.0
 46
0.0
 47
0.0
 48
0.0
140
2.5
141
2.5
142
0.0
143
0.03937007874016
144
1.0
145
0.0
146
1.0
147
0.625
 71
     0
 72
     0
 73
     0
 74
     0
 75
     0
 76
     0
 77
     1
 78
     8
170
     0
171
     3
172
     1
173
     0
174
     0
175
     0
176
     0
177
     0
178
     0
270
     2
271
     2
272
     2
273
     2
274
     3
340
11
275
     0
280
     0
281
     0
282
     0
283
     0
284
     8
285
     0
286
     0
287
     5
288
     0
  0
ENDTAB
  0
TABLE
  2
BLOCK_RECORD
  5
1
330
0
100
AcDbSymbolTable
 70
    23
  0
BLOCK_RECORD
  5
1F
330
1
100
AcDbSymbolTableRecord
100
AcDbBlockTableRecord
  2
*MODEL_SPACE
  0
BLOCK_RECORD
  5
1B
330
1
100
AcDbSymbolTableRecord
100
AcDbBlockTableRecord
  2
*PAPER_SPACE
  0
BLOCK_RECORD
  5
7A
330
1
100
AcDbSymbolTableRecord
100
AcDbBlockTableRecord
  2
EX_NORM
  0
BLOCK_RECORD
  5
7D
330
1
100
AcDbSymbolTableRecord
100
AcDbBlockTableRecord
  2
EX_BNORM
  0
BLOCK_RECORD
  5
80
330
1
100
AcDbSymbolTableRecord
100
AcDbBlockTableRecord
  2
EX_BCIR
  0
BLOCK_RECORD
  5
83
330
1
100
AcDbSymbolTableRecord
100
AcDbBlockTableRecord
  2
EX_RCIVIL
  0
BLOCK_RECORD
  5
86
330
1
100
AcDbSymbolTableRecord
100
AcDbBlockTableRecord
  2
EX_SLANT
  0
BLOCK_RECORD
  5
89
330
1
100
AcDbSymbolTableRecord
100
AcDbBlockTableRecord
  2
EX_NONE
  0
BLOCK_RECORD
  5
8C
330
1
100
AcDbSymbolTableRecord
100
AcDbBlockTableRecord
  2
EX_CIVIL
  0
BLOCK_RECORD
  5
8F
330
1
100
AcDbSymbolTableRecord
100
AcDbBlockTableRecord
  2
EX_WCIR
  0
BLOCK_RECORD
  5
92
330
1
100
AcDbSymbolTableRecord
100
AcDbBlockTableRecord
  2
EX_WCIR2
  0
BLOCK_RECORD
  5
95
330
1
100
AcDbSymbolTableRecord
100
AcDbBlockTableRecord
  2
EX_WNORM
  0
BLOCK_RECORD
  5
98
330
1
100
AcDbSymbolTableRecord
100
AcDbBlockTableRecord
  2
EX_NNORM
  0
BLOCK_RECORD
  5
9B
330
1
100
AcDbSymbolTableRecord
100
AcDbBlockTableRecord
  2
EX_BBOX
  0
BLOCK_RECORD
  5
9E
330
1
100
AcDbSymbolTableRecord
100
AcDbBlockTableRecord
  2
EX_WBOX
  0
BLOCK_RECORD
  5
A1
330
1
100
AcDbSymbolTableRecord
100
AcDbBlockTableRecord
  2
EX_INTEGRAL
  0
BLOCK_RECORD
  5
EE
330
1
100
AcDbSymbolTableRecord
100
AcDbBlockTableRecord
  2
*D15
  0
BLOCK_RECORD
  5
FB
330
1
100
AcDbSymbolTableRecord
100
AcDbBlockTableRecord
  2
*D16
  0
BLOCK_RECORD
  5
161
330
1
100
AcDbSymbolTableRecord
100
AcDbBlockTableRecord
  2
*D17
  0
BLOCK_RECORD
  5
16E
330
1
100
AcDbSymbolTableRecord
100
AcDbBlockTableRecord
  2
*D18
  0
BLOCK_RECORD
  5
17B
330
1
100
AcDbSymbolTableRecord
100
AcDbBlockTableRecord
  2
*D19
  0
BLOCK_RECORD
  5
188
330
1
100
AcDbSymbolTableRecord
100
AcDbBlockTableRecord
  2
*D20
  0
BLOCK_RECORD
  5
195
330
1
100
AcDbSymbolTableRecord
100
AcDbBlockTableRecord
  2
*D21
  0
BLOCK_RECORD
  5
214
330
1
100
AcDbSymbolTableRecord
100
AcDbBlockTableRecord
  2
*D22
  0
BLOCK_RECORD
  5
220
330
1
100
AcDbSymbolTableRecord
100
AcDbBlockTableRecord
  2
*D23
  0
ENDTAB
  0
ENDSEC
  0
SECTION
  2
BLOCKS
  0
BLOCK
  5
20
330
1F
100
AcDbEntity
  8
0
100
AcDbBlockBegin
  2
*MODEL_SPACE
 70
     0
 10
0.0
 20
0.0
 30
0.0
  3
*MODEL_SPACE
  1

  0
ENDBLK
  5
21
330
1F
100
AcDbEntity
  8
0
100
AcDbBlockEnd
  0
BLOCK
  5
1C
330
1B
100
AcDbEntity
 67
     1
  8
0
100
AcDbBlockBegin
  2
*PAPER_SPACE
 70
     0
 10
0.0
 20
0.0
 30
0.0
  3
*PAPER_SPACE
  1

  0
ENDBLK
  5
1D
330
1B
100
AcDbEntity
 67
     1
  8
0
100
AcDbBlockEnd
  0
BLOCK
  5
7B
330
7A
100
AcDbEntity
  8
0
100
AcDbBlockBegin
  2
EX_NORM
 70
     0
 10
0.0
 20
0.0
 30
0.0
  3
EX_NORM
  1

  0
LINE
  5
A4
330
7A
100
AcDbEntity
  8
0
  6
CONTINUOUS
 62
     0
100
AcDbLine
 10
0.0
 20
0.0
 30
0.0
 11
-1.0
 21
0.0
 31
0.0
  0
LINE
  5
A5
330
7A
100
AcDbEntity
  8
0
  6
CONTINUOUS
 62
     0
100
AcDbLine
 10
0.0
 20
0.0
 30
0.0
 11
-1.0
 21
0.166666667
 31
0.0
  0
LINE
  5
A6
330
7A
100
AcDbEntity
  8
0
  6
CONTINUOUS
 62
     0
100
AcDbLine
 10
0.0
 20
0.0
 30
0.0
 11
-1.0
 21
-0.166666667
 31
0.0
  0
ENDBLK
  5
7C
330
7A
100
AcDbEntity
  8
0
100
AcDbBlockEnd
  0
BLOCK
  5
7E
330
7D
100
AcDbEntity
  8
0
100
AcDbBlockBegin
  2
EX_BNORM
 70
     0
 10
0.0
 20
0.0
 30
0.0
  3
EX_BNORM
  1

  0
LINE
  5
A7
330
7D
100
AcDbEntity
  8
0
  6
CONTINUOUS
 62
     0
100
AcDbLine
 10
0.0
 20
0.0
 30
0.0
 11
-1.0
 21
0.0
 31
0.0
  0
LINE
  5
A8
330
7D
100
AcDbEntity
  8
0
  6
CONTINUOUS
 62
     0
100
AcDbLine
 10
0.0
 20
0.0
 30
0.0
 11
-1.0
 21
0.166666667
 31
0.0
  0
LINE
  5
A9
330
7D
100
AcDbEntity
  8
0
  6
CONTINUOUS
 62
     0
100
AcDbLine
 10
0.0
 20
0.0
 30
0.0
 11
-1.0
 21
-0.166666667
 31
0.0
  0
LINE
  5
AA
330
7D
100
AcDbEntity
  8
0
  6
CONTINUOUS
 62
     0
100
AcDbLine
 10
0.0
 20
0.0
 30
0.0
 11
-1.0
 21
0.083333333
 31
0.0
  0
LINE
  5
AB
330
7D
100
AcDbEntity
  8
0
  6
CONTINUOUS
 62
     0
100
AcDbLine
 10
0.0
 20
0.0
 30
0.0
 11
-1.0
 21
-0.083333333
 31
0.0
  0
LINE
  5
AC
330
7D
100
AcDbEntity
  8
0
  6
CONTINUOUS
 62
     0
100
AcDbLine
 10
-1.0
 20
0.166666667
 30
0.0
 11
-1.0
 21
-0.166666667
 31
0.0
  0
ENDBLK
  5
7F
330
7D
100
AcDbEntity
  8
0
100
AcDbBlockEnd
  0
BLOCK
  5
81
330
80
100
AcDbEntity
  8
0
100
AcDbBlockBegin
  2
EX_BCIR
 70
     0
 10
0.0
 20
0.0
 30
0.0
  3
EX_BCIR
  1

  0
LINE
  5
AD
330
80
100
AcDbEntity
  8
0
  6
CONTINUOUS
 62
     0
100
AcDbLine
 10
0.0
 20
0.0
 30
0.0
 11
-1.0
 21
0.0
 31
0.0
  0
CIRCLE
  5
AE
330
80
100
AcDbEntity
  8
0
  6
CONTINUOUS
 62
     0
100
AcDbCircle
 10
0.0
 20
0.0
 30
0.0
 40
0.5
  0
CIRCLE
  5
AF
330
80
100
AcDbEntity
  8
0
  6
CONTINUOUS
 62
     0
100
AcDbCircle
 10
0.0
 20
0.0
 30
0.0
 40
0.25
  0
ENDBLK
  5
82
330
80
100
AcDbEntity
  8
0
100
AcDbBlockEnd
  0
BLOCK
  5
84
330
83
100
AcDbEntity
  8
0
100
AcDbBlockBegin
  2
EX_RCIVIL
 70
     0
 10
0.0
 20
0.0
 30
0.0
  3
EX_RCIVIL
  1

  0
LINE
  5
B0
330
83
100
AcDbEntity
  8
0
  6
CONTINUOUS
 62
     0
100
AcDbLine
 10
0.0
 20
0.0
 30
0.0
 11
-1.0
 21
0.0
 31
0.0
  0
LINE
  5
B1
330
83
100
AcDbEntity
  8
0
  6
CONTINUOUS
 62
     0
100
AcDbLine
 10
-1.0
 20
-0.25
 30
0.0
 11
0.0
 21
-0.25
 31
0.0
  0
LINE
  5
B2
330
83
100
AcDbEntity
  8
0
  6
CONTINUOUS
 62
     0
100
AcDbLine
 10
-1.0
 20
-0.125
 30
0.0
 11
0.0
 21
-0.125
 31
0.0
  0
ENDBLK
  5
85
330
83
100
AcDbEntity
  8
0
100
AcDbBlockEnd
  0
BLOCK
  5
87
330
86
100
AcDbEntity
  8
0
100
AcDbBlockBegin
  2
EX_SLANT
 70
     0
 10
0.0
 20
0.0
 30
0.0
  3
EX_SLANT
  1

  0
LINE
  5
B3
330
86
100
AcDbEntity
  8
0
  6
CONTINUOUS
 62
     0
100
AcDbLine
 10
0.0
 20
0.0
 30
0.0
 11
-1.0
 21
0.0
 31
0.0
  0
LINE
  5
B4
330
86
100
AcDbEntity
  8
0
  6
CONTINUOUS
 62
     0
100
AcDbLine
 10
0.707106781
 20
0.707106781
 30
0.0
 11
-0.707106781
 21
-0.707106781
 31
0.0
  0
ENDBLK
  5
88
330
86
100
AcDbEntity
  8
0
100
AcDbBlockEnd
  0
BLOCK
  5
8A
330
89
100
AcDbEntity
  8
0
100
AcDbBlockBegin
  2
EX_NONE
 70
     0
 10
0.0
 20
0.0
 30
0.0
  3
EX_NONE
  1

  0
LINE
  5
B5
330
89
100
AcDbEntity
  8
0
  6
CONTINUOUS
 62
     0
100
AcDbLine
 10
0.0
 20
0.0
 30
0.0
 11
-1.0
 21
0.0
 31
0.0
  0
ENDBLK
  5
8B
330
89
100
AcDbEntity
  8
0
100
AcDbBlockEnd
  0
BLOCK
  5
8D
330
8C
100
AcDbEntity
  8
0
100
AcDbBlockBegin
  2
EX_CIVIL
 70
     0
 10
0.0
 20
0.0
 30
0.0
  3
EX_CIVIL
  1

  0
LINE
  5
B6
330
8C
100
AcDbEntity
  8
0
  6
CONTINUOUS
 62
     0
100
AcDbLine
 10
0.0
 20
0.0
 30
0.0
 11
-1.0
 21
0.0
 31
0.0
  0
LINE
  5
B7
330
8C
100
AcDbEntity
  8
0
  6
CONTINUOUS
 62
     0
100
AcDbLine
 10
-1.0
 20
0.25
 30
0.0
 11
0.0
 21
0.25
 31
0.0
  0
LINE
  5
B8
330
8C
100
AcDbEntity
  8
0
  6
CONTINUOUS
 62
     0
100
AcDbLine
 10
-1.0
 20
0.125
 30
0.0
 11
0.0
 21
0.125
 31
0.0
  0
ENDBLK
  5
8E
330
8C
100
AcDbEntity
  8
0
100
AcDbBlockEnd
  0
BLOCK
  5
90
330
8F
100
AcDbEntity
  8
0
100
AcDbBlockBegin
  2
EX_WCIR
 70
     0
 10
0.0
 20
0.0
 30
0.0
  3
EX_WCIR
  1

  0
LINE
  5
B9
330
8F
100
AcDbEntity
  8
0
  6
CONTINUOUS
 62
     0
100
AcDbLine
 10
0.0
 20
0.0
 30
0.0
 11
-1.0
 21
0.0
 31
0.0
  0
CIRCLE
  5
BA
330
8F
100
AcDbEntity
  8
0
  6
CONTINUOUS
 62
     0
100
AcDbCircle
 10
0.0
 20
0.0
 30
0.0
 40
0.5
  0
ENDBLK
  5
91
330
8F
100
AcDbEntity
  8
0
100
AcDbBlockEnd
  0
BLOCK
  5
93
330
92
100
AcDbEntity
  8
0
100
AcDbBlockBegin
  2
EX_WCIR2
 70
     0
 10
0.0
 20
0.0
 30
0.0
  3
EX_WCIR2
  1

  0
LINE
  5
BB
330
92
100
AcDbEntity
  8
0
  6
CONTINUOUS
 62
     0
100
AcDbLine
 10
-0.5
 20
0.0
 30
0.0
 11
-1.0
 21
0.0
 31
0.0
  0
CIRCLE
  5
BC
330
92
100
AcDbEntity
  8
0
  6
CONTINUOUS
 62
     0
100
AcDbCircle
 10
0.0
 20
0.0
 30
0.0
 40
0.5
  0
ENDBLK
  5
94
330
92
100
AcDbEntity
  8
0
100
AcDbBlockEnd
  0
BLOCK
  5
96
330
95
100
AcDbEntity
  8
0
100
AcDbBlockBegin
  2
EX_WNORM
 70
     0
 10
0.0
 20
0.0
 30
0.0
  3
EX_WNORM
  1

  0
LINE
  5
BD
330
95
100
AcDbEntity
  8
0
  6
CONTINUOUS
 62
     0
100
AcDbLine
 10
-1.0
 20
0.0
 30
0.0
 11
-1.0
 21
0.0
 31
0.0
  0
LINE
  5
BE
330
95
100
AcDbEntity
  8
0
  6
CONTINUOUS
 62
     0
100
AcDbLine
 10
0.0
 20
0.0
 30
0.0
 11
-1.0
 21
0.166666667
 31
0.0
  0
LINE
  5
BF
330
95
100
AcDbEntity
  8
0
  6
CONTINUOUS
 62
     0
100
AcDbLine
 10
0.0
 20
0.0
 30
0.0
 11
-1.0
 21
-0.166666667
 31
0.0
  0
LINE
  5
C0
330
95
100
AcDbEntity
  8
0
  6
CONTINUOUS
 62
     0
100
AcDbLine
 10
-1.0
 20
0.166666667
 30
0.0
 11
-1.0
 21
-0.166666667
 31
0.0
  0
ENDBLK
  5
97
330
95
100
AcDbEntity
  8
0
100
AcDbBlockEnd
  0
BLOCK
  5
99
330
98
100
AcDbEntity
  8
0
100
AcDbBlockBegin
  2
EX_NNORM
 70
     0
 10
0.0
 20
0.0
 30
0.0
  3
EX_NNORM
  1

  0
LINE
  5
C1
330
98
100
AcDbEntity
  8
0
  6
CONTINUOUS
 62
     0
100
AcDbLine
 10
0.0
 20
0.0
 30
0.0
 11
-1.0
 21
0.0
 31
0.0
  0
LINE
  5
C2
330
98
100
AcDbEntity
  8
0
  6
CONTINUOUS
 62
     0
100
AcDbLine
 10
0.0
 20
0.0
 30
0.0
 11
-1.0
 21
0.166666667
 31
0.0
  0
LINE
  5
C3
330
98
100
AcDbEntity
  8
0
  6
CONTINUOUS
 62
     0
100
AcDbLine
 10
0.0
 20
0.0
 30
0.0
 11
-1.0
 21
-0.166666667
 31
0.0
  0
LINE
  5
C4
330
98
100
AcDbEntity
  8
0
  6
CONTINUOUS
 62
     0
100
AcDbLine
 10
-1.0
 20
0.166666667
 30
0.0
 11
-1.0
 21
-0.166666667
 31
0.0
  0
ENDBLK
  5
9A
330
98
100
AcDbEntity
  8
0
100
AcDbBlockEnd
  0
BLOCK
  5
9C
330
9B
100
AcDbEntity
  8
0
100
AcDbBlockBegin
  2
EX_BBOX
 70
     0
 10
0.0
 20
0.0
 30
0.0
  3
EX_BBOX
  1

  0
LINE
  5
C5
330
9B
100
AcDbEntity
  8
0
  6
CONTINUOUS
 62
     0
100
AcDbLine
 10
0.0
 20
0.0
 30
0.0
 11
-1.0
 21
0.0
 31
0.0
  0
LINE
  5
C6
330
9B
100
AcDbEntity
  8
0
  6
CONTINUOUS
 62
     0
100
AcDbLine
 10
-0.5
 20
0.5
 30
0.0
 11
0.5
 21
0.5
 31
0.0
  0
LINE
  5
C7
330
9B
100
AcDbEntity
  8
0
  6
CONTINUOUS
 62
     0
100
AcDbLine
 10
0.5
 20
0.5
 30
0.0
 11
0.5
 21
-0.5
 31
0.0
  0
LINE
  5
C8
330
9B
100
AcDbEntity
  8
0
  6
CONTINUOUS
 62
     0
100
AcDbLine
 10
0.5
 20
-0.5
 30
0.0
 11
-0.5
 21
-0.5
 31
0.0
  0
LINE
  5
C9
330
9B
100
AcDbEntity
  8
0
  6
CONTINUOUS
 62
     0
100
AcDbLine
 10
-0.5
 20
-0.5
 30
0.0
 11
-0.5
 21
0.5
 31
0.0
  0
LINE
  5
CA
330
9B
100
AcDbEntity
  8
0
  6
CONTINUOUS
 62
     0
100
AcDbLine
 10
-0.25
 20
0.25
 30
0.0
 11
0.25
 21
0.25
 31
0.0
  0
LINE
  5
CB
330
9B
100
AcDbEntity
  8
0
  6
CONTINUOUS
 62
     0
100
AcDbLine
 10
0.25
 20
0.25
 30
0.0
 11
0.25
 21
-0.25
 31
0.0
  0
LINE
  5
CC
330
9B
100
AcDbEntity
  8
0
  6
CONTINUOUS
 62
     0
100
AcDbLine
 10
0.25
 20
-0.25
 30
0.0
 11
-0.25
 21
-0.25
 31
0.0
  0
LINE
  5
CD
330
9B
100
AcDbEntity
  8
0
  6
CONTINUOUS
 62
     0
100
AcDbLine
 10
-0.25
 20
-0.25
 30
0.0
 11
-0.25
 21
0.25
 31
0.0
  0
ENDBLK
  5
9D
330
9B
100
AcDbEntity
  8
0
100
AcDbBlockEnd
  0
BLOCK
  5
9F
330
9E
100
AcDbEntity
  8
0
100
AcDbBlockBegin
  2
EX_WBOX
 70
     0
 10
0.0
 20
0.0
 30
0.0
  3
EX_WBOX
  1

  0
LINE
  5
CE
330
9E
100
AcDbEntity
  8
0
  6
CONTINUOUS
 62
     0
100
AcDbLine
 10
-0.5
 20
0.0
 30
0.0
 11
-1.0
 21
0.0
 31
0.0
  0
LINE
  5
CF
330
9E
100
AcDbEntity
  8
0
  6
CONTINUOUS
 62
     0
100
AcDbLine
 10
-0.5
 20
0.5
 30
0.0
 11
0.5
 21
0.5
 31
0.0
  0
LINE
  5
D0
330
9E
100
AcDbEntity
  8
0
  6
CONTINUOUS
 62
     0
100
AcDbLine
 10
0.5
 20
0.5
 30
0.0
 11
0.5
 21
-0.5
 31
0.0
  0
LINE
  5
D1
330
9E
100
AcDbEntity
  8
0
  6
CONTINUOUS
 62
     0
100
AcDbLine
 10
0.5
 20
-0.5
 30
0.0
 11
-0.5
 21
-0.5
 31
0.0
  0
LINE
  5
D2
330
9E
100
AcDbEntity
  8
0
  6
CONTINUOUS
 62
     0
100
AcDbLine
 10
-0.5
 20
-0.5
 30
0.0
 11
-0.5
 21
0.5
 31
0.0
  0
ENDBLK
  5
A0
330
9E
100
AcDbEntity
  8
0
100
AcDbBlockEnd
  0
BLOCK
  5
A2
330
A1
100
AcDbEntity
  8
0
100
AcDbBlockBegin
  2
EX_INTEGRAL
 70
     0
 10
0.0
 20
0.0
 30
0.0
  3
EX_INTEGRAL
  1

  0
LINE
  5
D3
330
A1
100
AcDbEntity
  8
0
  6
CONTINUOUS
 62
     0
100
AcDbLine
 10
0.0
 20
0.0
 30
0.0
 11
-1.0
 21
0.0
 31
0.0
  0
ARC
  5
D4
330
A1
100
AcDbEntity
  8
0
  6
CONTINUOUS
 62
     0
100
AcDbCircle
 10
0.542115
 20
0.164992
 30
0.0
 40
0.56667
100
AcDbArc
 50
73.07249033629006
 51
196.9275130221199
  0
ARC
  5
D5
330
A1
100
AcDbEntity
  8
0
  6
CONTINUOUS
 62
     0
100
AcDbCircle
 10
-0.542115
 20
-0.164992
 30
0.0
 40
0.56667
100
AcDbArc
 50
253.0724869220464
 51
16.9275130559125
  0
ENDBLK
  5
A3
330
A1
100
AcDbEntity
  8
0
100
AcDbBlockEnd
  0
BLOCK
  5
EF
330
EE
100
AcDbEntity
  8
0
100
AcDbBlockBegin
  2
*D15
 70
     1
 10
0.0
 20
0.0
 30
0.0
  3
*D15
  1

  0
LINE
  5
F1
330
EE
100
AcDbEntity
  8
LAY-11
  6
CONTINUOUS
 62
     5
100
AcDbLine
 10
331.8333333333334
 20
260.0
 30
0.0
 11
345.8333333333285
 21
260.0
 31
0.0
  0
LINE
  5
F2
330
EE
100
AcDbEntity
  8
LAY-11
  6
CONTINUOUS
 62
     5
100
AcDbLine
 10
319.1666666666667
 20
128.3333333333333
 30
0.0
 11
345.8333333333285
 21
128.3333333333333
 31
0.0
  0
LINE
  5
F3
330
EE
100
AcDbEntity
  8
LAY-11
  6
CONTINUOUS
 62
     5
100
AcDbLine
 10
344.3333333333285
 20
257.5
 30
0.0
 11
344.3333333333285
 21
130.8333333333333
 31
0.0
  0
INSERT
  5
F4
330
EE
100
AcDbEntity
  8
LAY-11
 62
     5
100
AcDbBlockReference
  2
EX_BNORM
 10
344.3333333333285
 20
260.0
 30
0.0
 41
2.5
 42
2.5
 43
2.5
 50
90.0
  0
INSERT
  5
F5
330
EE
100
AcDbEntity
  8
LAY-11
 62
     5
100
AcDbBlockReference
  2
EX_BNORM
 10
344.3333333333285
 20
128.3333333333333
 30
0.0
 41
2.5
 42
2.5
 43
2.5
 50
270.0
  0
MTEXT
  5
F6
330
EE
100
AcDbEntity
  8
LAY-11
 62
     1
100
AcDbMText
 10
341.8333333333285
 20
194.1666666666667
 30
0.0
 40
3.1181104
 41
0.0
 71
     5
 72
     1
  1
1000
  7
EXCADDIM1
 11
0.0
 21
1.0
 31
0.0
  0
POINT
  5
F7
330
EE
100
AcDbEntity
  8
DEFPOINTS
 62
     0
100
AcDbPoint
 10
330.3333333333334
 20
260.0
 30
0.0
  0
POINT
  5
F8
330
EE
100
AcDbEntity
  8
DEFPOINTS
 62
     0
100
AcDbPoint
 10
317.6666666666667
 20
128.3333333333333
 30
0.0
  0
POINT
  5
F9
330
EE
100
AcDbEntity
  8
DEFPOINTS
 62
     0
100
AcDbPoint
 10
344.3333333333285
 20
128.3333333333333
 30
0.0
  0
ENDBLK
  5
F0
330
EE
100
AcDbEntity
  8
0
100
AcDbBlockEnd
  0
BLOCK
  5
FC
330
FB
100
AcDbEntity
  8
0
100
AcDbBlockBegin
  2
*D16
 70
     1
 10
0.0
 20
0.0
 30
0.0
  3
*D16
  1

  0
LINE
  5
FE
330
FB
100
AcDbEntity
  8
LAY-11
  6
CONTINUOUS
 62
     5
100
AcDbLine
 10
313.6666666666667
 20
192.3382395419202
 30
0.0
 11
316.3333333333335
 21
192.3382395419202
 31
0.0
  0
LINE
  5
FF
330
FB
100
AcDbEntity
  8
LAY-11
  6
CONTINUOUS
 62
     5
100
AcDbLine
 10
311.1666666666667
 20
192.3382395419202
 30
0.0
 11
308.6666666666667
 21
192.3382395419202
 31
0.0
  0
LINE
  5
100
330
FB
100
AcDbEntity
  8
LAY-11
  6
CONTINUOUS
 62
     5
100
AcDbLine
 10
318.8333333333335
 20
192.3382395419202
 30
0.0
 11
321.3333333333335
 21
192.3382395419202
 31
0.0
  0
INSERT
  5
101
330
FB
100
AcDbEntity
  8
LAY-11
 62
     5
100
AcDbBlockReference
  2
EX_BNORM
 10
313.6666666666667
 20
192.3382395419202
 30
0.0
 41
2.5
 42
2.5
 43
2.5
  0
INSERT
  5
102
330
FB
100
AcDbEntity
  8
LAY-11
 62
     5
100
AcDbBlockReference
  2
EX_BNORM
 10
316.3333333333335
 20
192.3382395419202
 30
0.0
 41
2.5
 42
2.5
 43
2.5
 50
180.0
  0
MTEXT
  5
103
330
FB
100
AcDbEntity
  8
LAY-11
 62
     1
100
AcDbMText
 10
322.3333333333335
 20
194.8382395419202
 30
0.0
 40
3.1181104
 41
0.0
 71
     5
 72
     1
  1
%%c8
  7
EXCADDIM1
  0
POINT
  5
104
330
FB
100
AcDbEntity
  8
DEFPOINTS
 62
     0
100
AcDbPoint
 10
313.6666666666667
 20
192.3382395419202
 30
0.0
  0
POINT
  5
105
330
FB
100
AcDbEntity
  8
DEFPOINTS
 62
     0
100
AcDbPoint
 10
316.3333333333335
 20
192.3382395419202
 30
0.0
  0
POINT
  5
106
330
FB
100
AcDbEntity
  8
DEFPOINTS
 62
     0
100
AcDbPoint
 10
316.3333333333335
 20
192.3382395419202
 30
0.0
  0
ENDBLK
  5
FD
330
FB
100
AcDbEntity
  8
0
100
AcDbBlockEnd
  0
BLOCK
  5
162
330
161
100
AcDbEntity
  8
0
100
AcDbBlockBegin
  2
*D17
 70
     1
 10
0.0
 20
0.0
 30
0.0
  3
*D17
  1

  0
LINE
  5
164
330
161
100
AcDbEntity
  8
LAY-255
  6
CONTINUOUS
 62
     5
100
AcDbLine
 10
112.499999999995
 20
108.49999999999
 30
0.0
 11
112.499999999995
 21
133.50000000001
 31
0.0
  0
LINE
  5
165
330
161
100
AcDbEntity
  8
LAY-255
  6
CONTINUOUS
 62
     5
100
AcDbLine
 10
197.4999999999751
 20
108.49999999998
 30
0.0
 11
197.4999999999751
 21
133.50000000001
 31
0.0
  0
LINE
  5
166
330
161
100
AcDbEntity
  8
LAY-255
  6
CONTINUOUS
 62
     5
100
AcDbLine
 10
115.499999999995
 20
132.00000000001
 30
0.0
 11
194.4999999999751
 21
132.00000000001
 31
0.0
  0
INSERT
  5
167
330
161
100
AcDbEntity
  8
LAY-255
 62
     5
100
AcDbBlockReference
  2
EX_BNORM
 10
112.499999999995
 20
132.00000000001
 30
0.0
 41
3.0
 42
3.0
 43
3.0
 50
180.0
  0
INSERT
  5
168
330
161
100
AcDbEntity
  8
LAY-255
 62
     5
100
AcDbBlockReference
  2
EX_BNORM
 10
197.4999999999751
 20
132.00000000001
 30
0.0
 41
3.0
 42
3.0
 43
3.0
  0
MTEXT
  5
169
330
161
100
AcDbEntity
  8
LAY-255
 62
     1
100
AcDbMText
 10
154.9999999999851
 20
134.50000000001
 30
0.0
 40
3.1181104
 41
0.0
 71
     5
 72
     1
  1
%%c85
  7
EXCADDIM1
  0
POINT
  5
16A
330
161
100
AcDbEntity
  8
DEFPOINTS
 62
     0
100
AcDbPoint
 10
112.499999999995
 20
106.99999999999
 30
0.0
  0
POINT
  5
16B
330
161
100
AcDbEntity
  8
DEFPOINTS
 62
     0
100
AcDbPoint
 10
197.4999999999751
 20
106.99999999998
 30
0.0
  0
POINT
  5
16C
330
161
100
AcDbEntity
  8
DEFPOINTS
 62
     0
100
AcDbPoint
 10
197.4999999999751
 20
132.00000000001
 30
0.0
  0
ENDBLK
  5
163
330
161
100
AcDbEntity
  8
0
100
AcDbBlockEnd
  0
BLOCK
  5
16F
330
16E
100
AcDbEntity
  8
0
100
AcDbBlockBegin
  2
*D18
 70
     1
 10
0.0
 20
0.0
 30
0.0
  3
*D18
  1

  0
LINE
  5
171
330
16E
100
AcDbEntity
  8
LAY-255
  6
CONTINUOUS
 62
     5
100
AcDbLine
 10
121.499999999995
 20
109.50000000001
 30
0.0
 11
121.499999999995
 21
126.50000000001
 31
0.0
  0
LINE
  5
172
330
16E
100
AcDbEntity
  8
LAY-255
  6
CONTINUOUS
 62
     5
100
AcDbLine
 10
188.499999999985
 20
109.50000000001
 30
0.0
 11
188.499999999985
 21
126.50000000001
 31
0.0
  0
LINE
  5
173
330
16E
100
AcDbEntity
  8
LAY-255
  6
CONTINUOUS
 62
     5
100
AcDbLine
 10
124.499999999995
 20
125.00000000001
 30
0.0
 11
185.499999999985
 21
125.00000000001
 31
0.0
  0
INSERT
  5
174
330
16E
100
AcDbEntity
  8
LAY-255
 62
     5
100
AcDbBlockReference
  2
EX_BNORM
 10
121.499999999995
 20
125.00000000001
 30
0.0
 41
3.0
 42
3.0
 43
3.0
 50
180.0
  0
INSERT
  5
175
330
16E
100
AcDbEntity
  8
LAY-255
 62
     5
100
AcDbBlockReference
  2
EX_BNORM
 10
188.499999999985
 20
125.00000000001
 30
0.0
 41
3.0
 42
3.0
 43
3.0
  0
MTEXT
  5
176
330
16E
100
AcDbEntity
  8
LAY-255
 62
     1
100
AcDbMText
 10
154.99999999999
 20
127.50000000001
 30
0.0
 40
3.1181104
 41
0.0
 71
     5
 72
     1
  1
%%c67
  7
EXCADDIM1
  0
POINT
  5
177
330
16E
100
AcDbEntity
  8
DEFPOINTS
 62
     0
100
AcDbPoint
 10
121.499999999995
 20
108.00000000001
 30
0.0
  0
POINT
  5
178
330
16E
100
AcDbEntity
  8
DEFPOINTS
 62
     0
100
AcDbPoint
 10
188.499999999985
 20
108.00000000001
 30
0.0
  0
POINT
  5
179
330
16E
100
AcDbEntity
  8
DEFPOINTS
 62
     0
100
AcDbPoint
 10
188.499999999985
 20
125.00000000001
 30
0.0
  0
ENDBLK
  5
170
330
16E
100
AcDbEntity
  8
0
100
AcDbBlockEnd
  0
BLOCK
  5
17C
330
17B
100
AcDbEntity
  8
0
100
AcDbBlockBegin
  2
*D19
 70
     1
 10
0.0
 20
0.0
 30
0.0
  3
*D19
  1

  0
LINE
  5
17E
330
17B
100
AcDbEntity
  8
LAY-255
  6
CONTINUOUS
 62
     5
100
AcDbLine
 10
136.500000000005
 20
109.50000000001
 30
0.0
 11
136.500000000005
 21
119.50000000001
 31
0.0
  0
LINE
  5
17F
330
17B
100
AcDbEntity
  8
LAY-255
  6
CONTINUOUS
 62
     5
100
AcDbLine
 10
173.499999999995
 20
109.50000000001
 30
0.0
 11
173.499999999995
 21
119.50000000001
 31
0.0
  0
LINE
  5
180
330
17B
100
AcDbEntity
  8
LAY-255
  6
CONTINUOUS
 62
     5
100
AcDbLine
 10
139.500000000005
 20
118.00000000001
 30
0.0
 11
170.499999999995
 21
118.00000000001
 31
0.0
  0
INSERT
  5
181
330
17B
100
AcDbEntity
  8
LAY-255
 62
     5
100
AcDbBlockReference
  2
EX_BNORM
 10
136.500000000005
 20
118.00000000001
 30
0.0
 41
3.0
 42
3.0
 43
3.0
 50
180.0
  0
INSERT
  5
182
330
17B
100
AcDbEntity
  8
LAY-255
 62
     5
100
AcDbBlockReference
  2
EX_BNORM
 10
173.499999999995
 20
118.00000000001
 30
0.0
 41
3.0
 42
3.0
 43
3.0
  0
MTEXT
  5
183
330
17B
100
AcDbEntity
  8
LAY-255
 62
     1
100
AcDbMText
 10
155.0
 20
120.50000000001
 30
0.0
 40
3.1181104
 41
0.0
 71
     5
 72
     1
  1
%%c37
  7
EXCADDIM1
  0
POINT
  5
184
330
17B
100
AcDbEntity
  8
DEFPOINTS
 62
     0
100
AcDbPoint
 10
136.500000000005
 20
108.00000000001
 30
0.0
  0
POINT
  5
185
330
17B
100
AcDbEntity
  8
DEFPOINTS
 62
     0
100
AcDbPoint
 10
173.499999999995
 20
108.00000000001
 30
0.0
  0
POINT
  5
186
330
17B
100
AcDbEntity
  8
DEFPOINTS
 62
     0
100
AcDbPoint
 10
173.499999999995
 20
118.00000000001
 30
0.0
  0
ENDBLK
  5
17D
330
17B
100
AcDbEntity
  8
0
100
AcDbBlockEnd
  0
BLOCK
  5
189
330
188
100
AcDbEntity
  8
0
100
AcDbBlockBegin
  2
*D20
 70
     1
 10
0.0
 20
0.0
 30
0.0
  3
*D20
  1

  0
LINE
  5
18B
330
188
100
AcDbEntity
  8
LAY-255
  6
CONTINUOUS
 62
     5
100
AcDbLine
 10
125.199999999995
 20
58.50000000002001
 30
0.0
 11
125.199999999995
 21
41.50000000002
 31
0.0
  0
LINE
  5
18C
330
188
100
AcDbEntity
  8
LAY-255
  6
CONTINUOUS
 62
     5
100
AcDbLine
 10
184.7999999999951
 20
58.50000000002001
 30
0.0
 11
184.7999999999951
 21
41.50000000002
 31
0.0
  0
LINE
  5
18D
330
188
100
AcDbEntity
  8
LAY-255
  6
CONTINUOUS
 62
     5
100
AcDbLine
 10
128.199999999995
 20
43.00000000002
 30
0.0
 11
181.7999999999951
 21
43.00000000002
 31
0.0
  0
INSERT
  5
18E
330
188
100
AcDbEntity
  8
LAY-255
 62
     5
100
AcDbBlockReference
  2
EX_BNORM
 10
125.199999999995
 20
43.00000000002
 30
0.0
 41
3.0
 42
3.0
 43
3.0
 50
180.0
  0
INSERT
  5
18F
330
188
100
AcDbEntity
  8
LAY-255
 62
     5
100
AcDbBlockReference
  2
EX_BNORM
 10
184.7999999999951
 20
43.00000000002
 30
0.0
 41
3.0
 42
3.0
 43
3.0
  0
MTEXT
  5
190
330
188
100
AcDbEntity
  8
LAY-255
 62
     1
100
AcDbMText
 10
154.9999999999951
 20
45.50000000002
 30
0.0
 40
3.1181104
 41
0.0
 71
     5
 72
     1
  1
Ｇ2 （59．6）
  7
EXCADDIM1
  0
POINT
  5
191
330
188
100
AcDbEntity
  8
DEFPOINTS
 62
     0
100
AcDbPoint
 10
125.199999999995
 20
60.00000000002001
 30
0.0
  0
POINT
  5
192
330
188
100
AcDbEntity
  8
DEFPOINTS
 62
     0
100
AcDbPoint
 10
184.7999999999951
 20
60.00000000002001
 30
0.0
  0
POINT
  5
193
330
188
100
AcDbEntity
  8
DEFPOINTS
 62
     0
100
AcDbPoint
 10
184.7999999999951
 20
43.00000000002
 30
0.0
  0
ENDBLK
  5
18A
330
188
100
AcDbEntity
  8
0
100
AcDbBlockEnd
  0
BLOCK
  5
196
330
195
100
AcDbEntity
  8
0
100
AcDbBlockBegin
  2
*D21
 70
     1
 10
0.0
 20
0.0
 30
0.0
  3
*D21
  1

  0
LINE
  5
198
330
195
100
AcDbEntity
  8
LAY-255
  6
CONTINUOUS
 62
     5
100
AcDbLine
 10
197.9999999999451
 20
108.00000000001
 30
0.0
 11
220.99999999997
 21
108.00000000001
 31
0.0
  0
LINE
  5
199
330
195
100
AcDbEntity
  8
LAY-255
  6
CONTINUOUS
 62
     5
100
AcDbLine
 10
191.499999999995
 20
60.00000000002001
 30
0.0
 11
220.99999999997
 21
60.00000000002001
 31
0.0
  0
LINE
  5
19A
330
195
100
AcDbEntity
  8
LAY-255
  6
CONTINUOUS
 62
     5
100
AcDbLine
 10
219.49999999997
 20
105.00000000001
 30
0.0
 11
219.49999999997
 21
63.00000000002001
 31
0.0
  0
INSERT
  5
19B
330
195
100
AcDbEntity
  8
LAY-255
 62
     5
100
AcDbBlockReference
  2
EX_BNORM
 10
219.49999999997
 20
108.00000000001
 30
0.0
 41
3.0
 42
3.0
 43
3.0
 50
90.0
  0
INSERT
  5
19C
330
195
100
AcDbEntity
  8
LAY-255
 62
     5
100
AcDbBlockReference
  2
EX_BNORM
 10
219.49999999997
 20
60.00000000002001
 30
0.0
 41
3.0
 42
3.0
 43
3.0
 50
270.0
  0
MTEXT
  5
19D
330
195
100
AcDbEntity
  8
LAY-255
 62
     1
100
AcDbMText
 10
216.99999999997
 20
84.00000000001475
 30
0.0
 40
3.1181104
 41
0.0
 71
     5
 72
     1
  1
48
  7
EXCADDIM1
 11
0.0
 21
1.0
 31
0.0
  0
POINT
  5
19E
330
195
100
AcDbEntity
  8
DEFPOINTS
 62
     0
100
AcDbPoint
 10
196.4999999999451
 20
108.00000000001
 30
0.0
  0
POINT
  5
19F
330
195
100
AcDbEntity
  8
DEFPOINTS
 62
     0
100
AcDbPoint
 10
189.999999999995
 20
60.00000000002001
 30
0.0
  0
POINT
  5
1A0
330
195
100
AcDbEntity
  8
DEFPOINTS
 62
     0
100
AcDbPoint
 10
219.49999999997
 20
60.00000000002001
 30
0.0
  0
ENDBLK
  5
197
330
195
100
AcDbEntity
  8
0
100
AcDbBlockEnd
  0
BLOCK
  5
215
330
214
100
AcDbEntity
  8
0
100
AcDbBlockBegin
  2
*D22
 70
     1
 10
0.0
 20
0.0
 30
0.0
  3
*D22
  1

  0
LINE
  5
217
330
214
100
AcDbEntity
  8
LAY-255
  6
CONTINUOUS
 62
     5
100
AcDbLine
 10
185.29999999999
 20
73.00000000002
 30
0.0
 11
213.99999999997
 21
73.00000000002
 31
0.0
  0
LINE
  5
218
330
214
100
AcDbEntity
  8
LAY-255
  6
CONTINUOUS
 62
     5
100
AcDbLine
 10
212.49999999997
 20
63.00000000002
 30
0.0
 11
212.49999999997
 21
70.00000000002
 31
0.0
  0
INSERT
  5
219
330
214
100
AcDbEntity
  8
LAY-255
 62
     5
100
AcDbBlockReference
  2
EX_BNORM
 10
212.49999999997
 20
60.00000000002
 30
0.0
 41
3.0
 42
3.0
 43
3.0
 50
270.0
  0
INSERT
  5
21A
330
214
100
AcDbEntity
  8
LAY-255
 62
     5
100
AcDbBlockReference
  2
EX_BNORM
 10
212.49999999997
 20
73.00000000002
 30
0.0
 41
3.0
 42
3.0
 43
3.0
 50
90.0
  0
MTEXT
  5
21B
330
214
100
AcDbEntity
  8
LAY-255
 62
     1
100
AcDbMText
 10
209.99999999997
 20
66.50000000002
 30
0.0
 40
3.1181104
 41
0.0
 71
     5
 72
     1
  1
13
  7
EXCADDIM1
 11
0.0
 21
1.0
 31
0.0
  0
POINT
  5
21C
330
214
100
AcDbEntity
  8
DEFPOINTS
 62
     0
100
AcDbPoint
 10
212.49999999997
 20
60.00000000002
 30
0.0
  0
POINT
  5
21D
330
214
100
AcDbEntity
  8
DEFPOINTS
 62
     0
100
AcDbPoint
 10
183.79999999999
 20
73.00000000002
 30
0.0
  0
POINT
  5
21E
330
214
100
AcDbEntity
  8
DEFPOINTS
 62
     0
100
AcDbPoint
 10
212.49999999997
 20
73.00000000002
 30
0.0
  0
ENDBLK
  5
216
330
214
100
AcDbEntity
  8
0
100
AcDbBlockEnd
  0
BLOCK
  5
221
330
220
100
AcDbEntity
  8
0
100
AcDbBlockBegin
  2
*D23
 70
     1
 10
0.0
 20
0.0
 30
0.0
  3
*D23
  1

  0
LINE
  5
223
330
220
100
AcDbEntity
  8
LAY-255
  6
CONTINUOUS
 62
     5
100
AcDbLine
 10
129.99999999999
 20
71.50000000002
 30
0.0
 11
129.99999999999
 21
48.50000000002
 31
0.0
  0
LINE
  5
224
330
220
100
AcDbEntity
  8
LAY-255
  6
CONTINUOUS
 62
     5
100
AcDbLine
 10
179.99999999999
 20
71.50000000002
 30
0.0
 11
179.99999999999
 21
48.50000000002
 31
0.0
  0
LINE
  5
225
330
220
100
AcDbEntity
  8
LAY-255
  6
CONTINUOUS
 62
     5
100
AcDbLine
 10
132.99999999999
 20
50.00000000002
 30
0.0
 11
176.99999999999
 21
50.00000000002
 31
0.0
  0
INSERT
  5
226
330
220
100
AcDbEntity
  8
LAY-255
 62
     5
100
AcDbBlockReference
  2
EX_BNORM
 10
129.99999999999
 20
50.00000000002
 30
0.0
 41
3.0
 42
3.0
 43
3.0
 50
180.0
  0
INSERT
  5
227
330
220
100
AcDbEntity
  8
LAY-255
 62
     5
100
AcDbBlockReference
  2
EX_BNORM
 10
179.99999999999
 20
50.00000000002
 30
0.0
 41
3.0
 42
3.0
 43
3.0
  0
MTEXT
  5
228
330
220
100
AcDbEntity
  8
LAY-255
 62
     1
100
AcDbMText
 10
154.99999999999
 20
52.50000000002
 30
0.0
 40
3.1181104
 41
0.0
 71
     5
 72
     1
  1
%%c50
  7
EXCADDIM1
  0
POINT
  5
229
330
220
100
AcDbEntity
  8
DEFPOINTS
 62
     0
100
AcDbPoint
 10
129.99999999999
 20
73.00000000002
 30
0.0
  0
POINT
  5
22A
330
220
100
AcDbEntity
  8
DEFPOINTS
 62
     0
100
AcDbPoint
 10
179.99999999999
 20
73.00000000002
 30
0.0
  0
POINT
  5
22B
330
220
100
AcDbEntity
  8
DEFPOINTS
 62
     0
100
AcDbPoint
 10
179.99999999999
 20
50.00000000002
 30
0.0
  0
ENDBLK
  5
222
330
220
100
AcDbEntity
  8
0
100
AcDbBlockEnd
  0
ENDSEC
  0
SECTION
  2
ENTITIES
  0
LINE
  5
D6
330
1F
100
AcDbEntity
  8
LAY-11
  6
CONTINUOUS
 62
     1
100
AcDbLine
 10
299.6666666666669
 20
260.0
 30
0.0
 11
330.3333333333334
 21
260.0
 31
0.0
  0
LINE
  5
D7
330
1F
100
AcDbEntity
  8
LAY-11
  6
CONTINUOUS
 62
     1
100
AcDbLine
 10
312.3333333333335
 20
128.3333333333333
 30
0.0
 11
317.6666666666667
 21
128.3333333333333
 31
0.0
  0
LINE
  5
D8
330
1F
100
AcDbEntity
  8
LAY-11
  6
CONTINUOUS
 62
     1
100
AcDbLine
 10
312.3333333333335
 20
130.6666666666666
 30
0.0
 11
313.6666666666667
 21
130.6666666666666
 31
0.0
  0
LINE
  5
D9
330
1F
100
AcDbEntity
  8
LAY-11
  6
CONTINUOUS
 62
     1
100
AcDbLine
 10
312.3333333333335
 20
130.6666666666666
 30
0.0
 11
312.3333333333335
 21
128.3333333333333
 31
0.0
  0
LINE
  5
DA
330
1F
100
AcDbEntity
  8
LAY-11
  6
CONTINUOUS
 62
     1
100
AcDbLine
 10
317.6666666666667
 20
130.6666666666666
 30
0.0
 11
317.6666666666667
 21
128.3333333333333
 31
0.0
  0
LINE
  5
DB
330
1F
100
AcDbEntity
  8
LAY-11
  6
CONTINUOUS
 62
     1
100
AcDbLine
 10
299.6666666666669
 20
257.3333333333331
 30
0.0
 11
330.3333333333334
 21
257.3333333333331
 31
0.0
  0
ARC
  5
DC
330
1F
100
AcDbEntity
  8
LAY-11
  6
CONTINUOUS
 62
     1
100
AcDbCircle
 10
299.6666666666669
 20
256.0
 30
0.0
 40
1.333333333333333
100
AcDbArc
 50
90.0
 51
224.9999999999954
  0
ARC
  5
DD
330
1F
100
AcDbEntity
  8
LAY-11
  6
CONTINUOUS
 62
     1
100
AcDbCircle
 10
330.3333333333334
 20
256.0
 30
0.0
 40
1.333333333333333
100
AcDbArc
 50
315.0000000000105
 51
90.0
  0
LINE
  5
DE
330
1F
100
AcDbEntity
  8
LAY-11
  6
CONTINUOUS
 62
     1
100
AcDbLine
 10
298.7238576250847
 20
255.0571909584181
 30
0.0
 11
315.0
 21
238.7810485835024
 31
0.0
  0
LINE
  5
DF
330
1F
100
AcDbEntity
  8
LAY-11
  6
CONTINUOUS
 62
     1
100
AcDbLine
 10
331.2761423749153
 20
255.0571909584181
 30
0.0
 11
313.114381916836
 21
236.8954305003384
 31
0.0
  0
LINE
  5
E0
330
1F
100
AcDbEntity
  8
LAY-11
  6
CONTINUOUS
 62
     1
100
AcDbLine
 10
313.114381916836
 20
236.8954305003384
 30
0.0
 11
296.8382395419205
 21
253.1715728752538
 31
0.0
  0
LINE
  5
E1
330
1F
100
AcDbEntity
  8
LAY-11
  6
CONTINUOUS
 62
     1
100
AcDbLine
 10
316.3333333333335
 20
236.3431457505076
 30
0.0
 11
333.1617604580796
 21
253.1715728752538
 31
0.0
  0
ARC
  5
E2
330
1F
100
AcDbEntity
  8
LAY-11
  6
CONTINUOUS
 62
     1
100
AcDbCircle
 10
330.3333333333334
 20
256.0
 30
0.0
 40
4.0
100
AcDbArc
 50
315.0
 51
90.0
  0
ARC
  5
E3
330
1F
100
AcDbEntity
  8
LAY-11
  6
CONTINUOUS
 62
     1
100
AcDbCircle
 10
299.6666666666669
 20
256.0
 30
0.0
 40
4.0
100
AcDbArc
 50
90.0
 51
224.9999999999984
  0
LINE
  5
E4
330
1F
100
AcDbEntity
  8
LAY-11
  6
CONTINUOUS
 62
     1
100
AcDbLine
 10
316.3333333333335
 20
130.6666666666666
 30
0.0
 11
317.6666666666667
 21
130.6666666666666
 31
0.0
  0
ARC
  5
E5
330
1F
100
AcDbEntity
  8
LAY-11
  6
CONTINUOUS
 62
     1
100
AcDbCircle
 10
316.3333333333335
 20
236.3431457505076
 30
0.0
 40
2.666666666666667
100
AcDbArc
 50
135.0000000000034
 51
180.0
  0
LINE
  5
E6
330
1F
100
AcDbEntity
  8
LAY-11
  6
CONTINUOUS
 62
     1
100
AcDbLine
 10
316.3333333333335
 20
128.3333333333333
 30
0.0
 11
316.3333333333335
 21
179.0049062085873
 31
0.0
  0
LINE
  5
E7
330
1F
100
AcDbEntity
  8
LAY-11
  6
CONTINUOUS
 62
     1
100
AcDbLine
 10
313.6666666666667
 20
128.3333333333333
 30
0.0
 11
313.6666666666667
 21
179.0049062085873
 31
0.0
  0
TEXT
  5
E8
330
1F
100
AcDbEntity
  8
LAY-11
  6
CONTINUOUS
 62
     1
100
AcDbText
 10
300.611111111111
 20
111.4020998666666
 30
0.0
 40
3.1181104
  1
専用開閉ハンドル
 41
1.497906648164973
  7
EXCADSTD
 72
     5
 11
331.971111111111
 21
111.4020998666666
 31
0.0
100
AcDbText
  0
LINE
  5
E9
330
1F
100
AcDbEntity
  8
LAY-11
  6
CONTINUOUS
 62
     1
100
AcDbLine
 10
313.6666666666667
 20
182.3382395419207
 30
0.0
 11
313.6666666666667
 21
236.3431457505076
 31
0.0
  0
LINE
  5
EA
330
1F
100
AcDbEntity
  8
LAY-11
  6
CONTINUOUS
 62
     1
100
AcDbLine
 10
316.3333333333335
 20
182.3382395419207
 30
0.0
 11
316.3333333333335
 21
236.3431457505076
 31
0.0
  0
DIMENSION
  5
EC
330
1F
100
AcDbEntity
  8
LAY-11
  6
CONTINUOUS
 62
     5
100
AcDbDimension
  2
*D15
 10
344.3333333333285
 20
128.3333333333333
 30
0.0
 11
341.8333333333285
 21
194.1666666666667
 31
0.0
 70
   160
  1
1000
  3
ISO-25
100
AcDbAlignedDimension
 13
330.3333333333334
 23
260.0
 33
0.0
 14
317.6666666666667
 24
128.3333333333333
 34
0.0
 50
90.0
100
AcDbRotatedDimension
1001
ACAD
1000
DSTYLE
1002
{
1070
   270
1070
     2
1070
     6
1000
EX_BNORM
1070
     7
1000
EX_BNORM
1070
    41
1040
2.5
1070
    42
1040
1.5
1070
    44
1040
1.5
1070
    73
1070
     0
1070
    74
1070
     0
1070
    75
1070
     0
1070
    76
1070
     0
1070
    77
1070
     1
1070
    78
1070
     8
1070
   140
1040
3.1181104
1070
   144
1040
3.0
1070
   147
1040
0.0
1070
   173
1070
     1
1070
   176
1070
     5
1070
   177
1070
     5
1070
   178
1070
     1
1070
   271
1070
     1
1070
   277
1070
     2
1070
   279
1070
     2
1070
   280
1070
     0
1070
   287
1070
     5
1070
   340
1005
EB
1002
}
  0
DIMENSION
  5
FA
330
1F
100
AcDbEntity
  8
LAY-11
  6
CONTINUOUS
 62
     5
100
AcDbDimension
  2
*D16
 10
316.3333333333335
 20
192.3382395419202
 30
0.0
 11
322.3333333333335
 21
194.8382395419202
 31
0.0
 70
   160
  1
%%c8
  3
ISO-25
100
AcDbAlignedDimension
 13
313.6666666666667
 23
192.3382395419202
 33
0.0
 14
316.3333333333335
 24
192.3382395419202
 34
0.0
100
AcDbRotatedDimension
1001
ACAD
1000
DSTYLE
1002
{
1070
   270
1070
     2
1070
     6
1000
EX_BNORM
1070
     7
1000
EX_BNORM
1070
    41
1040
2.5
1070
    42
1040
0.0
1070
    44
1040
0.0
1070
    73
1070
     1
1070
    74
1070
     1
1070
    75
1070
     1
1070
    76
1070
     1
1070
    77
1070
     1
1070
    78
1070
     8
1070
   140
1040
3.1181104
1070
   144
1040
3.0
1070
   147
1040
0.0
1070
   173
1070
     1
1070
   176
1070
     5
1070
   177
1070
     5
1070
   178
1070
     1
1070
   271
1070
     1
1070
   277
1070
     2
1070
   279
1070
     2
1070
   280
1070
     0
1070
   287
1070
     5
1070
   340
1005
EB
1002
}
  0
LINE
  5
107
330
1F
100
AcDbEntity
  8
LAY-11
  6
CONTINUOUS
 62
     1
100
AcDbLine
 10
315.2938783011808
 20
184.0049062085876
 30
0.0
 11
314.7061216988187
 21
180.6715728752507
 31
0.0
  0
LINE
  5
108
330
1F
100
AcDbEntity
  8
LAY-11
  6
CONTINUOUS
 62
     1
100
AcDbLine
 10
314.4122433976386
 20
182.3382395419207
 30
0.0
 11
314.7061216988187
 21
180.6715728752581
 31
0.0
  0
LINE
  5
109
330
1F
100
AcDbEntity
  8
LAY-11
  6
CONTINUOUS
 62
     1
100
AcDbLine
 10
315.2938783011808
 20
184.0049062085876
 30
0.0
 11
315.5877566023617
 21
182.3382395419207
 31
0.0
  0
LINE
  5
10A
330
1F
100
AcDbEntity
  8
LAY-11
  6
CONTINUOUS
 62
     1
100
AcDbLine
 10
315.2938783011808
 20
180.6715728752542
 30
0.0
 11
314.7061216988187
 21
177.3382395419173
 31
0.0
  0
LINE
  5
10B
330
1F
100
AcDbEntity
  8
LAY-11
  6
CONTINUOUS
 62
     1
100
AcDbLine
 10
315.2938783011808
 20
180.6715728752542
 30
0.0
 11
315.5877566023617
 21
179.0049062085873
 31
0.0
  0
LINE
  5
10C
330
1F
100
AcDbEntity
  8
LAY-11
  6
CONTINUOUS
 62
     1
100
AcDbLine
 10
314.4122433976386
 20
179.0049062085873
 30
0.0
 11
314.7061216988187
 21
177.3382395419247
 31
0.0
  0
LINE
  5
10D
330
1F
100
AcDbEntity
  8
LAY-11
  6
CONTINUOUS
 62
     1
100
AcDbLine
 10
308.3333333333333
 20
182.3382395419207
 30
0.0
 11
314.4122433976386
 21
182.3382395419207
 31
0.0
  0
LINE
  5
10E
330
1F
100
AcDbEntity
  8
LAY-11
  6
CONTINUOUS
 62
     1
100
AcDbLine
 10
308.3333333333333
 20
179.0049062085857
 30
0.0
 11
314.4122433976389
 21
179.0049062085857
 31
0.0
  0
LINE
  5
10F
330
1F
100
AcDbEntity
  8
LAY-11
  6
CONTINUOUS
 62
     1
100
AcDbLine
 10
315.5877566023619
 20
179.0049062085857
 30
0.0
 11
321.6666666666667
 21
179.0049062085857
 31
0.0
  0
LINE
  5
110
330
1F
100
AcDbEntity
  8
LAY-11
  6
CONTINUOUS
 62
     1
100
AcDbLine
 10
315.5877566023617
 20
182.3382395419207
 30
0.0
 11
321.6666666666667
 21
182.3382395419207
 31
0.0
  0
LINE
  5
111
330
1F
100
AcDbEntity
  8
LAY-11
  6
EXLTYPE2
 62
     2
100
AcDbLine
 10
315.0
 20
125.8999999999999
 30
0.0
 11
315.0
 21
262.6
 31
0.0
  0
LINE
  5
112
330
1F
100
AcDbEntity
  8
LAY-255
  6
CONTINUOUS
 62
     6
100
AcDbLine
 10
385.0
 20
22.0
 30
0.0
 11
285.0
 21
22.0
 31
0.0
  0
LINE
  5
113
330
1F
100
AcDbEntity
  8
LAY-255
  6
CONTINUOUS
 62
     3
100
AcDbLine
 10
288.8
 20
16.0
 30
0.0
 11
296.8
 21
21.0
 31
0.0
  0
LINE
  5
114
330
1F
100
AcDbEntity
  8
LAY-255
  6
CONTINUOUS
 62
     3
100
AcDbLine
 10
296.8
 20
21.0
 30
0.0
 11
304.8
 21
16.0
 31
0.0
  0
LINE
  5
115
330
1F
100
AcDbEntity
  8
LAY-255
  6
CONTINUOUS
 62
     3
100
AcDbLine
 10
304.8
 20
16.0
 30
0.0
 11
296.8
 21
11.0
 31
0.0
  0
LINE
  5
116
330
1F
100
AcDbEntity
  8
LAY-255
  6
CONTINUOUS
 62
     3
100
AcDbLine
 10
296.8
 20
11.0
 30
0.0
 11
288.8
 21
16.0
 31
0.0
  0
LINE
  5
117
330
1F
100
AcDbEntity
  8
LAY-255
  6
CONTINUOUS
 62
     6
100
AcDbLine
 10
5.0
 20
10.0
 30
0.0
 11
385.0000000000001
 21
10.0
 31
0.0
  0
LINE
  5
118
330
1F
100
AcDbEntity
  8
LAY-255
  6
CONTINUOUS
 62
     6
100
AcDbLine
 10
5.0
 20
280.0
 30
0.0
 11
385.0000000000001
 21
280.0
 31
0.0
  0
LINE
  5
119
330
1F
100
AcDbEntity
  8
LAY-255
  6
CONTINUOUS
 62
     6
100
AcDbLine
 10
5.0
 20
10.0
 30
0.0
 11
5.0
 21
280.0
 31
0.0
  0
LINE
  5
11A
330
1F
100
AcDbEntity
  8
LAY-255
  6
CONTINUOUS
 62
     6
100
AcDbLine
 10
385.0
 20
10.0
 30
0.0
 11
385.0
 21
280.0
 31
0.0
  0
LINE
  5
11B
330
1F
100
AcDbEntity
  8
LAY-255
  6
CONTINUOUS
 62
     5
100
AcDbLine
 10
285.0
 20
28.0
 30
0.0
 11
385.0000000000001
 21
28.0
 31
0.0
  0
LINE
  5
11C
330
1F
100
AcDbEntity
  8
LAY-255
  6
CONTINUOUS
 62
     6
100
AcDbLine
 10
285.0
 20
10.0
 30
0.0
 11
285.0
 21
67.0
 31
0.0
  0
LINE
  5
11D
330
1F
100
AcDbEntity
  8
LAY-255
  6
CONTINUOUS
 62
     5
100
AcDbLine
 10
335.0
 20
28.0
 30
0.0
 11
335.0
 21
22.0
 31
0.0
  0
LINE
  5
11E
330
1F
100
AcDbEntity
  8
LAY-255
  6
CONTINUOUS
 62
     6
100
AcDbLine
 10
385.0000000000001
 20
67.0
 30
0.0
 11
285.0
 21
67.0
 31
0.0
  0
LINE
  5
11F
330
1F
100
AcDbEntity
  8
LAY-255
  6
CONTINUOUS
 62
     5
100
AcDbLine
 10
383.0
 20
54.99999999999999
 30
0.0
 11
287.0
 21
54.99999999999999
 31
0.0
  0
LINE
  5
120
330
1F
100
AcDbEntity
  8
LAY-255
  6
CONTINUOUS
 62
     5
100
AcDbLine
 10
383.0
 20
61.0
 30
0.0
 11
287.0
 21
61.0
 31
0.0
  0
POINT
  5
121
330
1F
100
AcDbEntity
  8
LAY-255
  6
CONTINUOUS
 62
     6
100
AcDbPoint
 10
289.0
 20
29.99999999999999
 30
0.0
  0
TEXT
  5
123
330
1F
100
AcDbEntity
  8
LAY-255
  6
CONTINUOUS
 62
     3
100
AcDbText
 10
293.8
 20
13.71875
 30
0.0
 40
4.617205542725173
  1
S
 41
0.9992307692307693
  7
EXCADTTF1
 72
     5
 11
296.8
 21
13.71875
 31
0.0
100
AcDbText
  0
TEXT
  5
124
330
1F
100
AcDbEntity
  8
LAY-255
  6
CONTINUOUS
 62
     3
100
AcDbText
 10
296.8
 20
13.74941037736
 30
0.0
 40
4.617205542725173
  1
F
 41
0.9992307692307693
  7
EXCADTTF1
 72
     5
 11
299.8
 21
13.74941037736
 31
0.0
100
AcDbText
  0
TEXT
  5
125
330
1F
100
AcDbEntity
  8
LAY-255
  6
CONTINUOUS
 62
     3
100
AcDbText
 10
307.8
 20
15.54375
 30
0.0
 40
4.617205542725173
  1
福西鋳物株式会社
 41
1.311484139423077
  7
EXCADTTF1
 72
     5
 11
370.7997
 21
15.54375
 31
0.0
100
AcDbText
  0
TEXT
  5
126
330
1F
100
AcDbEntity
  8
LAY-255
  6
CONTINUOUS
 62
     3
100
AcDbText
 10
307.8
 20
11.98125
 30
0.0
 40
1.539068514241724
  1
ＦＵＫＵＮＩＳＨＩ
 41
1.260141025641025
  7
EXCADTTF1
 72
     5
 11
330.5
 21
11.98125
 31
0.0
100
AcDbText
  0
TEXT
  5
127
330
1F
100
AcDbEntity
  8
LAY-255
  6
CONTINUOUS
 62
     3
100
AcDbText
 10
332.0
 20
11.98125
 30
0.0
 40
1.539068514241724
  1
ＦＯＵＮＤＲＹ
 41
1.250822802197801
  7
EXCADTTF1
 72
     5
 11
349.525
 21
11.98125
 31
0.0
100
AcDbText
  0
TEXT
  5
128
330
1F
100
AcDbEntity
  8
LAY-255
  6
CONTINUOUS
 62
     3
100
AcDbText
 10
351.4
 20
11.98125
 30
0.0
 40
1.539068514241724
  1
ＣＯ.,ＬＴＤ.
 41
1.315333579881658
  7
EXCADTTF1
 72
     5
 11
368.5125
 21
11.98125
 31
0.0
100
AcDbText
  0
TEXT
  5
129
330
1F
100
AcDbEntity
  8
LAY-255
  6
CONTINUOUS
 62
     6
100
AcDbText
 10
287.0
 20
56.56249999999999
 30
0.0
 40
3.078137028483449
  1
型式
 41
0.999230769230769
  7
EXCADTTF1
 72
     5
 11
295.0
 21
56.56249999999999
 31
0.0
100
AcDbText
  0
TEXT
  5
12A
330
1F
100
AcDbEntity
  8
LAY-255
  6
CONTINUOUS
 62
     6
100
AcDbText
 10
287.0
 20
62.5625
 30
0.0
 40
3.078137028483449
  1
品名
 41
0.999230769230769
  7
EXCADTTF1
 72
     5
 11
295.0
 21
62.5625
 31
0.0
100
AcDbText
  0
POINT
  5
12B
330
1F
100
AcDbEntity
  8
LAY-255
  6
CONTINUOUS
 62
     3
100
AcDbPoint
 10
300.0
 20
55.99999999999999
 30
0.0
  0
POINT
  5
12C
330
1F
100
AcDbEntity
  8
LAY-255
  6
CONTINUOUS
 62
     3
100
AcDbPoint
 10
300.0
 20
62.0
 30
0.0
  0
POINT
  5
12D
330
1F
100
AcDbEntity
  8
LAY-255
  6
CONTINUOUS
 62
     3
100
AcDbPoint
 10
289.0
 20
40.0
 30
0.0
  0
POINT
  5
12E
330
1F
100
AcDbEntity
  8
LAY-255
  6
CONTINUOUS
 62
     3
100
AcDbPoint
 10
289.0
 20
50.0
 30
0.0
  0
POINT
  5
12F
330
1F
100
AcDbEntity
  8
LAY-255
  6
CONTINUOUS
 62
     3
100
AcDbPoint
 10
289.0
 20
34.99999999999999
 30
0.0
  0
TEXT
  5
130
330
1F
100
AcDbEntity
  8
LAY-255
  6
CONTINUOUS
 62
     6
100
AcDbText
 10
300.0
 20
62.5625
 30
0.0
 40
3.078137028483449
  1
排水共栓
 41
0.999230769230769
  7
EXCADTTF1
 72
     5
 11
316.0
 21
62.5625
 31
0.0
100
AcDbText
  0
TEXT
  5
131
330
1F
100
AcDbEntity
  8
LAY-255
  6
CONTINUOUS
 62
     6
100
AcDbText
 10
289.0
 20
50.56250000000001
 30
0.0
 40
3.078137028483449
  1
種別：排水共栓
 41
0.9992307692307691
  7
EXCADTTF1
 72
     5
 11
317.0
 21
50.56250000000001
 31
0.0
100
AcDbText
  0
TEXT
  5
132
330
1F
100
AcDbEntity
  8
LAY-255
  6
CONTINUOUS
 62
     6
100
AcDbText
 10
300.0
 20
56.56249999999999
 30
0.0
 40
3.078137028483449
  1
ＳＮＡＳＰ－５０型
 41
0.999230769230769
  7
EXCADTTF1
 72
     5
 11
336.0
 21
56.56249999999999
 31
0.0
100
AcDbText
  0
POINT
  5
133
330
1F
100
AcDbEntity
  8
LAY-255
  6
CONTINUOUS
 62
     3
100
AcDbPoint
 10
289.0
 20
45.0
 30
0.0
  0
TEXT
  5
134
330
1F
100
AcDbEntity
  8
LAY-255
  6
CONTINUOUS
 62
     6
100
AcDbText
 10
289.0
 20
45.5625
 30
0.0
 40
3.078137028483449
  1
材質：ステンレス鋼
 41
0.999230769230769
  7
EXCADTTF1
 72
     5
 11
325.0
 21
45.5625
 31
0.0
100
AcDbText
  0
TEXT
  5
135
330
1F
100
AcDbEntity
  8
LAY-255
  6
CONTINUOUS
 62
     6
100
AcDbText
 10
289.0
 20
40.56250000000001
 30
0.0
 40
3.078137028483449
  1
接続：管用平行ねじ
 41
0.999230769230769
  7
EXCADTTF1
 72
     5
 11
325.0
 21
40.56250000000001
 31
0.0
100
AcDbText
  0
TEXT
  5
136
330
1F
100
AcDbEntity
  8
LAY-255
  6
CONTINUOUS
 62
     6
100
AcDbText
 10
347.0
 20
23.56249999999999
 30
0.0
 40
3.078137028483449
  1
１：１
 41
0.999230769230769
  7
EXCADTTF1
 72
     5
 11
359.0
 21
23.56249999999999
 31
0.0
100
AcDbText
  0
TEXT
  5
137
330
1F
100
AcDbEntity
  8
LAY-255
  6
CONTINUOUS
 62
     6
100
AcDbText
 10
287.0
 20
24.42187499999999
 30
0.0
 40
2.308602771362587
  1
作成日
 41
0.9992307692307693
  7
EXCADTTF1
 72
     5
 11
296.0
 21
24.42187499999999
 31
0.0
100
AcDbText
  0
TEXT
  5
138
330
1F
100
AcDbEntity
  8
LAY-255
  6
CONTINUOUS
 62
     6
100
AcDbText
 10
337.0
 20
24.42187499999999
 30
0.0
 40
2.308602771362587
  1
縮尺
 41
0.9992307692307693
  7
EXCADTTF1
 72
     5
 11
343.0
 21
24.42187499999999
 31
0.0
100
AcDbText
  0
CIRCLE
  5
139
330
1F
100
AcDbEntity
  8
LAY-255
  6
CONTINUOUS
 62
     1
100
AcDbCircle
 10
155.0
 20
200.0
 30
0.0
 40
42.5
  0
CIRCLE
  5
13A
330
1F
100
AcDbEntity
  8
LAY-255
  6
CONTINUOUS
 62
     1
100
AcDbCircle
 10
155.0
 20
200.0
 30
0.0
 40
33.5
  0
CIRCLE
  5
13B
330
1F
100
AcDbEntity
  8
LAY-255
  6
CONTINUOUS
 62
     1
100
AcDbCircle
 10
155.0
 20
200.0
 30
0.0
 40
18.5
  0
LINE
  5
13C
330
1F
100
AcDbEntity
  8
LAY-255
  6
CONTINUOUS
 62
     1
100
AcDbLine
 10
146.0
 20
203.0
 30
0.0
 11
146.0
 21
197.0
 31
0.0
  0
LINE
  5
13D
330
1F
100
AcDbEntity
  8
LAY-255
  6
CONTINUOUS
 62
     1
100
AcDbLine
 10
164.0
 20
203.0
 30
0.0
 11
164.0
 21
197.0
 31
0.0
  0
LINE
  5
13E
330
1F
100
AcDbEntity
  8
LAY-255
  6
CONTINUOUS
 62
     1
100
AcDbLine
 10
164.0
 20
203.0
 30
0.0
 11
159.0
 21
203.0
 31
0.0
  0
LINE
  5
13F
330
1F
100
AcDbEntity
  8
LAY-255
  6
CONTINUOUS
 62
     1
100
AcDbLine
 10
164.0
 20
197.0
 30
0.0
 11
159.0
 21
197.0
 31
0.0
  0
ARC
  5
140
330
1F
100
AcDbEntity
  8
LAY-255
  6
CONTINUOUS
 62
     1
100
AcDbCircle
 10
155.0
 20
200.0
 30
0.0
 40
5.0
100
AcDbArc
 50
36.86989800000011
 51
143.1301019999999
  0
ARC
  5
141
330
1F
100
AcDbEntity
  8
LAY-255
  6
CONTINUOUS
 62
     1
100
AcDbCircle
 10
155.0
 20
200.0
 30
0.0
 40
5.0
100
AcDbArc
 50
216.8698980000001
 51
323.1301019999999
  0
LINE
  5
142
330
1F
100
AcDbEntity
  8
LAY-255
  6
CONTINUOUS
 62
     1
100
AcDbLine
 10
151.0
 20
197.0
 30
0.0
 11
146.0
 21
197.0
 31
0.0
  0
LINE
  5
143
330
1F
100
AcDbEntity
  8
LAY-255
  6
CONTINUOUS
 62
     1
100
AcDbLine
 10
151.0
 20
203.0
 30
0.0
 11
146.0
 21
203.0
 31
0.0
  0
LINE
  5
144
330
1F
100
AcDbEntity
  8
LAY-255
  6
CONTINUOUS
 62
     1
100
AcDbLine
 10
170.6750932508327
 20
103.0615628166615
 30
0.0
 11
172.1184371833442
 21
104.504906749173
 31
0.0
  0
LINE
  5
145
330
1F
100
AcDbEntity
  8
LAY-255
  6
CONTINUOUS
 62
     1
100
AcDbLine
 10
170.6939989843136
 20
102.3733617689558
 30
0.0
 11
172.80663823105
 21
104.4860010156922
 31
0.0
  0
LINE
  5
146
330
1F
100
AcDbEntity
  8
LAY-255
  6
CONTINUOUS
 62
     1
100
AcDbLine
 10
170.8952314948391
 20
101.8674874982948
 30
0.0
 11
173.3125125017109
 21
104.2847685051665
 31
0.0
  0
LINE
  5
147
330
1F
100
AcDbEntity
  8
LAY-255
  6
CONTINUOUS
 62
     1
100
AcDbLine
 10
171.2101032226343
 20
101.4752524449033
 30
0.0
 11
173.7047475551025
 21
103.9698967773715
 31
0.0
  0
LINE
  5
148
330
1F
100
AcDbEntity
  8
LAY-255
  6
CONTINUOUS
 62
     1
100
AcDbLine
 10
171.6274191881388
 20
101.1854616292214
 30
0.0
 11
173.9945383707843
 21
103.5525808118669
 31
0.0
  0
LINE
  5
149
330
1F
100
AcDbEntity
  8
LAY-255
  6
CONTINUOUS
 62
     1
100
AcDbLine
 10
172.1666273519257
 20
101.0175630118218
 30
0.0
 11
174.1624369881839
 21
103.01337264808
 31
0.0
  0
LINE
  5
14A
330
1F
100
AcDbEntity
  8
LAY-255
  6
CONTINUOUS
 62
     1
100
AcDbLine
 10
172.934292150375
 20
101.0781210290845
 30
0.0
 11
174.1018789709212
 21
102.2457078496308
 31
0.0
  0
LINE
  5
14B
330
1F
100
AcDbEntity
  8
LAY-255
  6
CONTINUOUS
 62
     1
100
AcDbLine
 10
139.324906749167
 20
103.0615628166615
 30
0.0
 11
137.8815628166554
 21
104.504906749173
 31
0.0
  0
LINE
  5
14C
330
1F
100
AcDbEntity
  8
LAY-255
  6
CONTINUOUS
 62
     1
100
AcDbLine
 10
139.3060010156861
 20
102.3733617689558
 30
0.0
 11
137.1933617689497
 21
104.4860010156922
 31
0.0
  0
LINE
  5
14D
330
1F
100
AcDbEntity
  8
LAY-255
  6
CONTINUOUS
 62
     1
100
AcDbLine
 10
139.1047685051606
 20
101.8674874982948
 30
0.0
 11
136.6874874982888
 21
104.2847685051665
 31
0.0
  0
LINE
  5
14E
330
1F
100
AcDbEntity
  8
LAY-255
  6
CONTINUOUS
 62
     1
100
AcDbLine
 10
138.7898967773654
 20
101.4752524449033
 30
0.0
 11
136.2952524448972
 21
103.9698967773715
 31
0.0
  0
LINE
  5
14F
330
1F
100
AcDbEntity
  8
LAY-255
  6
CONTINUOUS
 62
     1
100
AcDbLine
 10
138.3725808118609
 20
101.1854616292214
 30
0.0
 11
136.0054616292153
 21
103.5525808118669
 31
0.0
  0
LINE
  5
150
330
1F
100
AcDbEntity
  8
LAY-255
  6
CONTINUOUS
 62
     1
100
AcDbLine
 10
137.8333726480739
 20
101.0175630118218
 30
0.0
 11
135.8375630118157
 21
103.01337264808
 31
0.0
  0
LINE
  5
151
330
1F
100
AcDbEntity
  8
LAY-255
  6
CONTINUOUS
 62
     1
100
AcDbLine
 10
137.0657078496247
 20
101.0781210290845
 30
0.0
 11
135.8981210290784
 21
102.2457078496308
 31
0.0
  0
LINE
  5
152
330
1F
100
AcDbEntity
  8
LAY-255
  6
CONTINUOUS
 62
     1
100
AcDbLine
 10
185.252272079299
 20
102.8545280827637
 30
0.0
 11
186.925471917251
 21
104.5277279207157
 31
0.0
  0
LINE
  5
153
330
1F
100
AcDbEntity
  8
LAY-255
  6
CONTINUOUS
 62
     1
100
AcDbLine
 10
185.3334750677567
 20
102.228624290035
 30
0.0
 11
187.5513757099798
 21
104.4465249322579
 31
0.0
  0
LINE
  5
154
330
1F
100
AcDbEntity
  8
LAY-255
  6
CONTINUOUS
 62
     1
100
AcDbLine
 10
185.5673038000808
 20
101.7553462411724
 30
0.0
 11
188.0246537588422
 21
104.2126961999339
 31
0.0
  0
LINE
  5
155
330
1F
100
AcDbEntity
  8
LAY-255
  6
CONTINUOUS
 62
     1
100
AcDbLine
 10
185.9087607990041
 20
101.3896964589093
 30
0.0
 11
188.3903035411055
 21
103.8712392010106
 31
0.0
  0
LINE
  5
156
330
1F
100
AcDbEntity
  8
LAY-255
  6
CONTINUOUS
 62
     1
100
AcDbLine
 10
186.354440713238
 20
101.1282695919566
 30
0.0
 11
188.6517304080581
 21
103.4255592867768
 31
0.0
  0
LINE
  5
157
330
1F
100
AcDbEntity
  8
LAY-255
  6
CONTINUOUS
 62
     1
100
AcDbLine
 10
186.9350878806302
 20
101.0018099781623
 30
0.0
 11
188.7781900218524
 21
102.8449121193845
 31
0.0
  0
LINE
  5
158
330
1F
100
AcDbEntity
  8
LAY-255
  6
CONTINUOUS
 62
     1
100
AcDbLine
 10
187.8508488209424
 20
101.2104641372878
 30
0.0
 11
188.5695358627269
 21
101.9291511790724
 31
0.0
  0
LINE
  5
159
330
1F
100
AcDbEntity
  8
LAY-255
  6
CONTINUOUS
 62
     1
100
AcDbLine
 10
121.4077087520908
 20
103.5570715367422
 30
0.0
 11
122.1929284632726
 21
104.342291247924
 31
0.0
  0
LINE
  5
15A
330
1F
100
AcDbEntity
  8
LAY-255
  6
CONTINUOUS
 62
     1
100
AcDbLine
 10
121.2228302458507
 20
102.6650862493156
 30
0.0
 11
123.0849137506992
 21
104.5271697541641
 31
0.0
  0
LINE
  5
15B
330
1F
100
AcDbEntity
  8
LAY-255
  6
CONTINUOUS
 62
     1
100
AcDbLine
 10
121.3543707540797
 20
102.089519976358
 30
0.0
 11
123.6604800236568
 21
104.3956292459351
 31
0.0
  0
LINE
  5
15C
330
1F
100
AcDbEntity
  8
LAY-255
  6
CONTINUOUS
 62
     1
100
AcDbLine
 10
121.6191127493047
 20
101.6471551903965
 30
0.0
 11
124.1028448096183
 21
104.1308872507101
 31
0.0
  0
LINE
  5
15D
330
1F
100
AcDbEntity
  8
LAY-255
  6
CONTINUOUS
 62
     1
100
AcDbLine
 10
121.9877773115327
 20
101.3087129714379
 30
0.0
 11
124.4412870285769
 21
103.7622226884821
 31
0.0
  0
LINE
  5
15E
330
1F
100
AcDbEntity
  8
LAY-255
  6
CONTINUOUS
 62
     1
100
AcDbLine
 10
122.4646256705942
 20
101.0784545493128
 30
0.0
 11
124.671545450702
 21
103.2853743294206
 31
0.0
  0
LINE
  5
15F
330
1F
100
AcDbEntity
  8
LAY-255
  6
CONTINUOUS
 62
     1
100
AcDbLine
 10
123.0968238355896
 20
101.0035459331216
 30
0.0
 11
124.7464540668932
 21
102.6531761644252
 31
0.0
  0
DIMENSION
  5
160
330
1F
100
AcDbEntity
  8
LAY-255
  6
CONTINUOUS
 62
     5
100
AcDbDimension
  2
*D17
 10
197.4999999999751
 20
132.00000000001
 30
0.0
 11
154.9999999999851
 21
134.50000000001
 31
0.0
 70
   160
  1
%%c<>
  3
ISO-25
100
AcDbAlignedDimension
 13
112.499999999995
 23
106.99999999999
 33
0.0
 14
197.4999999999751
 24
106.99999999998
 34
0.0
100
AcDbRotatedDimension
1001
ACAD
1000
DSTYLE
1002
{
1070
   270
1070
     2
1070
     6
1000
EX_BNORM
1070
     7
1000
EX_BNORM
1070
    41
1040
3.0
1070
    42
1040
1.5
1070
    44
1040
1.5
1070
    73
1070
     0
1070
    74
1070
     0
1070
    75
1070
     0
1070
    76
1070
     0
1070
    77
1070
     1
1070
    78
1070
     8
1070
   140
1040
3.1181104
1070
   147
1040
0.0
1070
   173
1070
     1
1070
   176
1070
     5
1070
   177
1070
     5
1070
   178
1070
     1
1070
   271
1070
     1
1070
   277
1070
     2
1070
   279
1070
     2
1070
   280
1070
     0
1070
   287
1070
     5
1070
   340
1005
EB
1002
}
  0
DIMENSION
  5
16D
330
1F
100
AcDbEntity
  8
LAY-255
  6
CONTINUOUS
 62
     5
100
AcDbDimension
  2
*D18
 10
188.499999999985
 20
125.00000000001
 30
0.0
 11
154.99999999999
 21
127.50000000001
 31
0.0
 70
   160
  1
%%c<>
  3
ISO-25
100
AcDbAlignedDimension
 13
121.499999999995
 23
108.00000000001
 33
0.0
 14
188.499999999985
 24
108.00000000001
 34
0.0
100
AcDbRotatedDimension
1001
ACAD
1000
DSTYLE
1002
{
1070
   270
1070
     2
1070
     6
1000
EX_BNORM
1070
     7
1000
EX_BNORM
1070
    41
1040
3.0
1070
    42
1040
1.5
1070
    44
1040
1.5
1070
    73
1070
     0
1070
    74
1070
     0
1070
    75
1070
     0
1070
    76
1070
     0
1070
    77
1070
     1
1070
    78
1070
     8
1070
   140
1040
3.1181104
1070
   147
1040
0.0
1070
   173
1070
     1
1070
   176
1070
     5
1070
   177
1070
     5
1070
   178
1070
     1
1070
   271
1070
     1
1070
   277
1070
     2
1070
   279
1070
     2
1070
   280
1070
     0
1070
   287
1070
     5
1070
   340
1005
EB
1002
}
  0
DIMENSION
  5
17A
330
1F
100
AcDbEntity
  8
LAY-255
  6
CONTINUOUS
 62
     5
100
AcDbDimension
  2
*D19
 10
173.499999999995
 20
118.00000000001
 30
0.0
 11
155.0
 21
120.50000000001
 31
0.0
 70
   160
  1
%%c<>
  3
ISO-25
100
AcDbAlignedDimension
 13
136.500000000005
 23
108.00000000001
 33
0.0
 14
173.499999999995
 24
108.00000000001
 34
0.0
100
AcDbRotatedDimension
1001
ACAD
1000
DSTYLE
1002
{
1070
   270
1070
     2
1070
     6
1000
EX_BNORM
1070
     7
1000
EX_BNORM
1070
    41
1040
3.0
1070
    42
1040
1.5
1070
    44
1040
1.5
1070
    73
1070
     0
1070
    74
1070
     0
1070
    75
1070
     0
1070
    76
1070
     0
1070
    77
1070
     1
1070
    78
1070
     8
1070
   140
1040
3.1181104
1070
   147
1040
0.0
1070
   173
1070
     1
1070
   176
1070
     5
1070
   177
1070
     5
1070
   178
1070
     1
1070
   271
1070
     1
1070
   277
1070
     2
1070
   279
1070
     2
1070
   280
1070
     0
1070
   287
1070
     5
1070
   340
1005
EB
1002
}
  0
DIMENSION
  5
187
330
1F
100
AcDbEntity
  8
LAY-255
  6
CONTINUOUS
 62
     5
100
AcDbDimension
  2
*D20
 10
184.7999999999951
 20
43.00000000002
 30
0.0
 11
154.9999999999951
 21
45.50000000002
 31
0.0
 70
   160
  1
Ｇ2 （59．6）
  3
ISO-25
100
AcDbAlignedDimension
 13
125.199999999995
 23
60.00000000002001
 33
0.0
 14
184.7999999999951
 24
60.00000000002001
 34
0.0
100
AcDbRotatedDimension
1001
ACAD
1000
DSTYLE
1002
{
1070
   270
1070
     2
1070
     6
1000
EX_BNORM
1070
     7
1000
EX_BNORM
1070
    41
1040
3.0
1070
    42
1040
1.5
1070
    44
1040
1.5
1070
    73
1070
     0
1070
    74
1070
     0
1070
    75
1070
     0
1070
    76
1070
     0
1070
    77
1070
     1
1070
    78
1070
     8
1070
   140
1040
3.1181104
1070
   147
1040
0.0
1070
   173
1070
     1
1070
   176
1070
     5
1070
   177
1070
     5
1070
   178
1070
     1
1070
   271
1070
     1
1070
   277
1070
     2
1070
   279
1070
     2
1070
   280
1070
     0
1070
   287
1070
     5
1070
   340
1005
EB
1002
}
  0
DIMENSION
  5
194
330
1F
100
AcDbEntity
  8
LAY-255
  6
CONTINUOUS
 62
     5
100
AcDbDimension
  2
*D21
 10
219.49999999997
 20
60.00000000002001
 30
0.0
 11
216.99999999997
 21
84.00000000001475
 31
0.0
 70
   160
  3
ISO-25
100
AcDbAlignedDimension
 13
196.4999999999451
 23
108.00000000001
 33
0.0
 14
189.999999999995
 24
60.00000000002001
 34
0.0
 50
90.0
100
AcDbRotatedDimension
1001
ACAD
1000
DSTYLE
1002
{
1070
   270
1070
     2
1070
     6
1000
EX_BNORM
1070
     7
1000
EX_BNORM
1070
    41
1040
3.0
1070
    42
1040
1.5
1070
    44
1040
1.5
1070
    73
1070
     0
1070
    74
1070
     0
1070
    75
1070
     0
1070
    76
1070
     0
1070
    77
1070
     1
1070
    78
1070
     8
1070
   140
1040
3.1181104
1070
   147
1040
0.0
1070
   173
1070
     1
1070
   176
1070
     5
1070
   177
1070
     5
1070
   178
1070
     1
1070
   271
1070
     1
1070
   277
1070
     2
1070
   279
1070
     2
1070
   280
1070
     0
1070
   287
1070
     5
1070
   340
1005
EB
1002
}
  0
LINE
  5
1A1
330
1F
100
AcDbEntity
  8
LAY-255
  6
CONTINUOUS
 62
     1
100
AcDbLine
 10
136.561048539525
 20
107.0018652015901
 30
0.0
 11
135.499999999995
 21
108.0000000000102
 31
0.0
  0
LINE
  5
1A2
330
1F
100
AcDbEntity
  8
LAY-255
  6
CONTINUOUS
 62
     1
100
AcDbLine
 10
173.438951460465
 20
107.0018652015901
 30
0.0
 11
174.499999999995
 21
108.0000000000102
 31
0.0
  0
LINE
  5
1A3
330
1F
100
AcDbEntity
  8
LAY-255
  6
CONTINUOUS
 62
     1
100
AcDbLine
 10
173.2741142214603
 20
104.3068001668533
 30
0.0
 11
173.4389514604602
 21
107.0018652015883
 31
0.0
  0
LINE
  5
1A4
330
1F
100
AcDbEntity
  8
LAY-255
  6
CONTINUOUS
 62
     1
100
AcDbLine
 10
172.7660485581912
 20
96.00000000000995
 30
0.0
 11
173.0798123403363
 21
101.1299924917315
 31
0.0
  0
LINE
  5
1A5
330
1F
100
AcDbEntity
  8
LAY-255
  6
CONTINUOUS
 62
     1
100
AcDbLine
 10
136.7258857785328
 20
104.3068001668497
 30
0.0
 11
136.5610485395325
 21
107.001865201583
 31
0.0
  0
LINE
  5
1A6
330
1F
100
AcDbEntity
  8
LAY-255
  6
CONTINUOUS
 62
     1
100
AcDbLine
 10
137.2339514418031
 20
96.00000000000995
 30
0.0
 11
136.920187659657
 21
101.1299924917341
 31
0.0
  0
LINE
  5
1A7
330
1F
100
AcDbEntity
  8
LAY-255
  6
CONTINUOUS
 62
     5
100
AcDbLine
 10
183.7999999999948
 20
73.00000000002004
 30
0.0
 11
184.7999999999948
 21
72.00000000002004
 31
0.0
  0
LINE
  5
1A8
330
1F
100
AcDbEntity
  8
LAY-255
  6
CONTINUOUS
 62
     1
100
AcDbLine
 10
196.499999999946
 20
108.00000000001
 30
0.0
 11
113.5000000000036
 21
108.00000000001
 31
0.0
  0
LINE
  5
1A9
330
1F
100
AcDbEntity
  8
LAY-255
  6
CONTINUOUS
 62
     1
100
AcDbLine
 10
179.9999999999948
 20
77.00000000002004
 30
0.0
 11
179.9999999999948
 21
73.00000000002004
 31
0.0
  0
LINE
  5
1AA
330
1F
100
AcDbEntity
  8
LAY-255
  6
CONTINUOUS
 62
     1
100
AcDbLine
 10
192.2559639119522
 20
98.26679581394322
 30
0.0
 11
189.9999999999948
 21
73.00000000002004
 31
0.0
  0
ARC
  5
1AB
330
1F
100
AcDbEntity
  8
LAY-255
  6
CONTINUOUS
 62
     1
100
AcDbCircle
 10
185.6632527084089
 20
78.00000000002004
 30
0.0
 40
1.0
100
AcDbArc
 50
270.0
 51
356.4999999999903
  0
LINE
  5
1AC
330
1F
100
AcDbEntity
  8
LAY-255
  6
CONTINUOUS
 62
     1
100
AcDbLine
 10
197.4999999999748
 20
101.0000000000098
 30
0.0
 11
197.4999999999748
 21
106.9999999999811
 31
0.0
  0
LINE
  5
1AD
330
1F
100
AcDbEntity
  8
LAY-255
  6
CONTINUOUS
 62
     1
100
AcDbLine
 10
197.4999999999748
 20
101.0000000000098
 30
0.0
 11
195.2440770278756
 21
101.0000000000098
 31
0.0
  0
ARC
  5
1AE
330
1F
100
AcDbEntity
  8
LAY-255
  6
CONTINUOUS
 62
     1
100
AcDbCircle
 10
195.2440770278756
 20
98.0000000000098
 30
0.0
 40
3.000000000000002
100
AcDbArc
 50
90.00000000000001
 51
174.897834747644
  0
LINE
  5
1AF
330
1F
100
AcDbEntity
  8
LAY-255
  6
CONTINUOUS
 62
     1
100
AcDbLine
 10
196.4999999999604
 20
107.9999999999955
 30
0.0
 11
197.499999999946
 21
107.00000000001
 31
0.0
  0
LINE
  5
1B0
330
1F
100
AcDbEntity
  8
LAY-255
  6
CONTINUOUS
 62
     1
100
AcDbLine
 10
188.4389514604648
 20
107.0018652015999
 30
0.0
 11
189.4999999999948
 21
108.00000000002
 31
0.0
  0
LINE
  5
1B1
330
1F
100
AcDbEntity
  8
LAY-255
  6
CONTINUOUS
 62
     1
100
AcDbLine
 10
121.5610485395248
 20
107.0018652015999
 30
0.0
 11
120.4999999999948
 21
108.00000000002
 31
0.0
  0
LINE
  5
1B2
330
1F
100
AcDbEntity
  8
LAY-255
  6
CONTINUOUS
 62
     1
100
AcDbLine
 10
112.4999999999948
 20
101.0000000000198
 30
0.0
 11
112.4999999999948
 21
106.9999999999911
 31
0.0
  0
LINE
  5
1B3
330
1F
100
AcDbEntity
  8
LAY-255
  6
CONTINUOUS
 62
     1
100
AcDbLine
 10
113.5000000000092
 20
108.0000000000055
 30
0.0
 11
112.5000000000236
 21
107.00000000002
 31
0.0
  0
ARC
  5
1B4
330
1F
100
AcDbEntity
  8
LAY-255
  6
CONTINUOUS
 62
     1
100
AcDbCircle
 10
124.3367472915616
 20
78.00000000002004
 30
0.0
 40
1.0
100
AcDbArc
 50
183.5000000000097
 51
270.0
  0
ARC
  5
1B5
330
1F
100
AcDbEntity
  8
LAY-255
  6
CONTINUOUS
 62
     1
100
AcDbCircle
 10
114.7559229720939
 20
98.00000000001981
 30
0.0
 40
3.000000000000002
100
AcDbArc
 50
5.102165252356082
 51
90.00000000000001
  0
LINE
  5
1B6
330
1F
100
AcDbEntity
  8
LAY-255
  6
CONTINUOUS
 62
     1
100
AcDbLine
 10
117.7440360880373
 20
98.26679581394322
 30
0.0
 11
119.9999999999948
 21
73.00000000002004
 31
0.0
  0
LINE
  5
1B7
330
1F
100
AcDbEntity
  8
LAY-255
  6
CONTINUOUS
 62
     1
100
AcDbLine
 10
112.4999999999948
 20
101.0000000000198
 30
0.0
 11
114.7559229720939
 21
101.0000000000198
 31
0.0
  0
LINE
  5
1B8
330
1F
100
AcDbEntity
  8
LAY-255
  6
CONTINUOUS
 62
     5
100
AcDbLine
 10
126.1999999999948
 20
61.00000000002004
 30
0.0
 11
125.1999999999948
 21
60.00000000002004
 31
0.0
  0
LINE
  5
1B9
330
1F
100
AcDbEntity
  8
LAY-255
  6
CONTINUOUS
 62
     5
100
AcDbLine
 10
183.7999999999948
 20
61.00000000002004
 30
0.0
 11
184.7999999999948
 21
60.00000000002004
 31
0.0
  0
LINE
  5
1BA
330
1F
100
AcDbEntity
  8
LAY-255
  6
CONTINUOUS
 62
     1
100
AcDbLine
 10
119.9999999999948
 20
60.00000000002004
 30
0.0
 11
119.9999999999948
 21
73.00000000002004
 31
0.0
  0
LINE
  5
1BB
330
1F
100
AcDbEntity
  8
LAY-255
  6
CONTINUOUS
 62
     1
100
AcDbLine
 10
189.9999999999948
 20
60.00000000002004
 30
0.0
 11
189.9999999999948
 21
73.00000000002004
 31
0.0
  0
LINE
  5
1BC
330
1F
100
AcDbEntity
  8
LAY-255
  6
CONTINUOUS
 62
     1
100
AcDbLine
 10
126.1999999999952
 20
73.00000000002004
 30
0.0
 11
126.1999999999952
 21
61.00000000002004
 31
0.0
  0
LINE
  5
1BD
330
1F
100
AcDbEntity
  8
LAY-255
  6
CONTINUOUS
 62
     1
100
AcDbLine
 10
126.1999999999948
 20
61.00000000002004
 30
0.0
 11
183.7999999999948
 21
61.00000000002004
 31
0.0
  0
LINE
  5
1BE
330
1F
100
AcDbEntity
  8
LAY-255
  6
CONTINUOUS
 62
     1
100
AcDbLine
 10
183.7999999999944
 20
73.00000000002004
 30
0.0
 11
183.7999999999944
 21
61.00000000002004
 31
0.0
  0
LINE
  5
1BF
330
1F
100
AcDbEntity
  8
LAY-255
  6
CONTINUOUS
 62
     1
100
AcDbLine
 10
129.9999999999948
 20
77.00000000002004
 30
0.0
 11
129.9999999999948
 21
73.00000000002004
 31
0.0
  0
LINE
  5
1C0
330
1F
100
AcDbEntity
  8
LAY-255
  6
CONTINUOUS
 62
     1
100
AcDbLine
 10
119.9999999999948
 20
60.00000000002004
 30
0.0
 11
189.9999999999948
 21
60.00000000002004
 31
0.0
  0
LINE
  5
1C1
330
1F
100
AcDbEntity
  8
LAY-255
  6
CONTINUOUS
 62
     5
100
AcDbLine
 10
184.7999999999948
 20
72.00000000002004
 30
0.0
 11
184.7999999999948
 21
60.00000000002004
 31
0.0
  0
LINE
  5
1C2
330
1F
100
AcDbEntity
  8
LAY-255
  6
CONTINUOUS
 62
     5
100
AcDbLine
 10
126.1999999999948
 20
73.00000000002004
 30
0.0
 11
125.1999999999948
 21
72.00000000002004
 31
0.0
  0
LINE
  5
1C3
330
1F
100
AcDbEntity
  8
LAY-255
  6
CONTINUOUS
 62
     5
100
AcDbLine
 10
125.1999999999948
 20
72.00000000002004
 30
0.0
 11
125.1999999999948
 21
60.00000000002004
 31
0.0
  0
LINE
  5
1C4
330
1F
100
AcDbEntity
  8
LAY-255
  6
CONTINUOUS
 62
     1
100
AcDbLine
 10
139.4999999999948
 20
88.00000000002004
 30
0.0
 11
123.7232524030148
 21
88.00000000002004
 31
0.0
  0
LINE
  5
1C5
330
1F
100
AcDbEntity
  8
LAY-255
  6
CONTINUOUS
 62
     1
100
AcDbLine
 10
122.6622038634657
 20
88.99813479843945
 30
0.0
 11
121.9281383410441
 21
101.00000000002
 31
0.0
  0
LINE
  5
1C6
330
1F
100
AcDbEntity
  8
LAY-255
  6
CONTINUOUS
 62
     1
100
AcDbLine
 10
186.2767475969748
 20
88.00000000002004
 30
0.0
 11
170.4999999999948
 21
88.00000000002004
 31
0.0
  0
LINE
  5
1C7
330
1F
100
AcDbEntity
  8
LAY-255
  6
CONTINUOUS
 62
     1
100
AcDbLine
 10
187.3377961365137
 20
88.99813479844013
 30
0.0
 11
188.0718616589352
 21
101.00000000002
 31
0.0
  0
LINE
  5
1C8
330
1F
100
AcDbEntity
  8
LAY-255
  6
CONTINUOUS
 62
     1
100
AcDbLine
 10
122.6622038634749
 20
88.99813479844002
 30
0.0
 11
123.723252403015
 21
88.00000000001992
 31
0.0
  0
LINE
  5
1C9
330
1F
100
AcDbEntity
  8
LAY-255
  6
CONTINUOUS
 62
     1
100
AcDbLine
 10
187.337796136515
 20
88.99813479844002
 30
0.0
 11
186.2767475969749
 21
88.00000000001992
 31
0.0
  0
ARC
  5
1CA
330
1F
100
AcDbEntity
  8
LAY-255
  6
CONTINUOUS
 62
     1
100
AcDbCircle
 10
176.9999999999948
 20
95.00000000002004
 30
0.0
 40
3.000000000000002
100
AcDbArc
 50
0.0
 51
90.00000000000001
  0
LINE
  5
1CB
330
1F
100
AcDbEntity
  8
LAY-255
  6
CONTINUOUS
 62
     1
100
AcDbLine
 10
176.9999999999948
 20
98.00000000002004
 30
0.0
 11
172.8883737984858
 21
98.00000000002004
 31
0.0
  0
LINE
  5
1CC
330
1F
100
AcDbEntity
  8
LAY-255
  6
CONTINUOUS
 62
     1
100
AcDbLine
 10
137.1116262015005
 20
98.00000000002004
 30
0.0
 11
132.9999999999948
 21
98.00000000002004
 31
0.0
  0
LINE
  5
1CD
330
1F
100
AcDbEntity
  8
LAY-255
  6
CONTINUOUS
 62
     1
100
AcDbLine
 10
121.6834878604423
 20
105.00000000002
 30
0.0
 11
121.4999999999908
 21
108.00000000002
 31
0.0
  0
LINE
  5
1CE
330
1F
100
AcDbEntity
  8
LAY-255
  6
CONTINUOUS
 62
     1
100
AcDbLine
 10
188.3165121395371
 20
105.00000000002
 30
0.0
 11
188.4999999999885
 21
108.00000000002
 31
0.0
  0
ARC
  5
1CF
330
1F
100
AcDbEntity
  8
LAY-255
  6
CONTINUOUS
 62
     1
100
AcDbCircle
 10
132.9999999999948
 20
95.00000000002004
 30
0.0
 40
3.000000000000002
100
AcDbArc
 50
90.00000000000001
 51
180.0
  0
LINE
  5
1D0
330
1F
100
AcDbEntity
  8
LAY-255
  6
CONTINUOUS
 62
     1
100
AcDbLine
 10
179.9999999999948
 20
95.00000000002004
 30
0.0
 11
179.9999999999948
 21
88.00000000002004
 31
0.0
  0
LINE
  5
1D1
330
1F
100
AcDbEntity
  8
LAY-255
  6
CONTINUOUS
 62
     1
100
AcDbLine
 10
129.9999999999948
 20
95.00000000002004
 30
0.0
 11
129.9999999999948
 21
88.00000000002004
 31
0.0
  0
LINE
  5
1D2
330
1F
100
AcDbEntity
  8
LAY-255
  6
CONTINUOUS
 62
     1
100
AcDbLine
 10
167.9999999999998
 20
94.00000000000992
 30
0.0
 11
141.9999999999998
 21
94.00000000000992
 31
0.0
  0
LINE
  5
1D3
330
1F
100
AcDbEntity
  8
LAY-255
  6
CONTINUOUS
 62
     1
100
AcDbLine
 10
141.9999999999998
 20
94.00000000000992
 30
0.0
 11
141.9999999999998
 21
83.00000000001106
 31
0.0
  0
LINE
  5
1D4
330
1F
100
AcDbEntity
  8
LAY-255
  6
CONTINUOUS
 62
     1
100
AcDbLine
 10
167.9999999999998
 20
94.00000000000992
 30
0.0
 11
167.9999999999998
 21
83.00000000001106
 31
0.0
  0
LINE
  5
1D5
330
1F
100
AcDbEntity
  8
LAY-255
  6
CONTINUOUS
 62
     1
100
AcDbLine
 10
132.5
 20
64.00000000000998
 30
0.0
 11
177.5
 21
64.00000000000998
 31
0.0
  0
LINE
  5
1D6
330
1F
100
AcDbEntity
  8
LAY-255
  6
CONTINUOUS
 62
     1
100
AcDbLine
 10
132.5
 20
64.00000000000998
 30
0.0
 11
132.5
 21
68.00000000000998
 31
0.0
  0
LINE
  5
1D7
330
1F
100
AcDbEntity
  8
LAY-255
  6
CONTINUOUS
 62
     1
100
AcDbLine
 10
177.5
 20
64.00000000000998
 30
0.0
 11
177.5
 21
68.00000000000998
 31
0.0
  0
LINE
  5
1D8
330
1F
100
AcDbEntity
  8
LAY-255
  6
CONTINUOUS
 62
     1
100
AcDbLine
 10
176.0
 20
64.00000000000998
 30
0.0
 11
176.0
 21
68.00000000000998
 31
0.0
  0
LINE
  5
1D9
330
1F
100
AcDbEntity
  8
LAY-255
  6
CONTINUOUS
 62
     1
100
AcDbLine
 10
170.0
 20
64.00000000000998
 30
0.0
 11
170.0
 21
68.00000000000998
 31
0.0
  0
LINE
  5
1DA
330
1F
100
AcDbEntity
  8
LAY-255
  6
CONTINUOUS
 62
     1
100
AcDbLine
 10
140.0
 20
64.00000000000998
 30
0.0
 11
140.0
 21
68.00000000000998
 31
0.0
  0
LINE
  5
1DB
330
1F
100
AcDbEntity
  8
LAY-255
  6
CONTINUOUS
 62
     1
100
AcDbLine
 10
134.0
 20
64.00000000000998
 30
0.0
 11
134.0
 21
68.00000000000998
 31
0.0
  0
LINE
  5
1DC
330
1F
100
AcDbEntity
  8
LAY-255
  6
CONTINUOUS
 62
     1
100
AcDbLine
 10
136.500000000001
 20
108.0000000000099
 30
0.0
 11
173.4999999999981
 21
108.0000000000099
 31
0.0
  0
LINE
  5
1DD
330
1F
100
AcDbEntity
  8
LAY-255
  6
CONTINUOUS
 62
     1
100
AcDbLine
 10
165.1999999999999
 20
94.00000000001106
 30
0.0
 11
165.1999999999999
 21
103.5000000000108
 31
0.0
  0
LINE
  5
1DE
330
1F
100
AcDbEntity
  8
LAY-255
  6
CONTINUOUS
 62
     1
100
AcDbLine
 10
144.7999999999998
 20
94.00000000001106
 30
0.0
 11
144.7999999999998
 21
103.5000000000108
 31
0.0
  0
LINE
  5
1DF
330
1F
100
AcDbEntity
  8
LAY-255
  6
CONTINUOUS
 62
     1
100
AcDbLine
 10
165.1999999999999
 20
94.00000000001106
 30
0.0
 11
167.1999999999999
 21
94.00000000001106
 31
0.0
  0
ARC
  5
1E0
330
1F
100
AcDbEntity
  8
LAY-255
  6
CONTINUOUS
 62
     1
100
AcDbCircle
 10
172.4999999999998
 20
94.01777444153291
 30
0.0
 40
2.0
100
AcDbArc
 50
97.64438900152587
 51
180.0
  0
ARC
  5
1E1
330
1F
100
AcDbEntity
  8
LAY-255
  6
CONTINUOUS
 62
     1
100
AcDbCircle
 10
137.4999999999998
 20
94.01777444153291
 30
0.0
 40
2.0
100
AcDbArc
 50
0.0
 51
82.3556109984741
  0
LINE
  5
1E2
330
1F
100
AcDbEntity
  8
LAY-255
  6
CONTINUOUS
 62
     1
100
AcDbLine
 10
172.2339514418079
 20
96.00000000001106
 30
0.0
 11
172.7660485581921
 21
96.00000000001106
 31
0.0
  0
LINE
  5
1E3
330
1F
100
AcDbEntity
  8
LAY-255
  6
CONTINUOUS
 62
     1
100
AcDbLine
 10
169.4999999999993
 20
83.00000000001151
 30
0.0
 11
170.4999999999987
 21
84.00000000001106
 31
0.0
  0
LINE
  5
1E4
330
1F
100
AcDbEntity
  8
LAY-255
  6
CONTINUOUS
 62
     1
100
AcDbLine
 10
170.4999999999998
 20
84.00000000001197
 30
0.0
 11
170.4999999999998
 21
94.01777444153291
 31
0.0
  0
LINE
  5
1E5
330
1F
100
AcDbEntity
  8
LAY-255
  6
CONTINUOUS
 62
     1
100
AcDbLine
 10
172.7660485581922
 20
96.00000000001106
 30
0.0
 11
173.0718616589445
 21
101.0000000000108
 31
0.0
  0
LINE
  5
1E6
330
1F
100
AcDbEntity
  8
LAY-255
  6
CONTINUOUS
 62
     1
100
AcDbLine
 10
136.683487860452
 20
105.0000000000108
 30
0.0
 11
136.5000000000006
 21
108.000000000011
 31
0.0
  0
LINE
  5
1E7
330
1F
100
AcDbEntity
  8
LAY-255
  6
CONTINUOUS
 62
     1
100
AcDbLine
 10
137.2339514418064
 20
96.00000000001106
 30
0.0
 11
136.9281383410539
 21
101.0000000000108
 31
0.0
  0
LINE
  5
1E8
330
1F
100
AcDbEntity
  8
LAY-255
  6
CONTINUOUS
 62
     1
100
AcDbLine
 10
173.3165121395465
 20
105.0000000000108
 30
0.0
 11
173.499999999998
 21
108.000000000011
 31
0.0
  0
LINE
  5
1E9
330
1F
100
AcDbEntity
  8
LAY-255
  6
CONTINUOUS
 62
     1
100
AcDbLine
 10
139.4999999999998
 20
84.00000000001106
 30
0.0
 11
139.4999999999998
 21
94.01777444153291
 31
0.0
  0
LINE
  5
1EA
330
1F
100
AcDbEntity
  8
LAY-255
  6
CONTINUOUS
 62
     1
100
AcDbLine
 10
140.4999999999993
 20
83.00000000001151
 30
0.0
 11
139.4999999999998
 21
84.00000000001106
 31
0.0
  0
LINE
  5
1EB
330
1F
100
AcDbEntity
  8
LAY-255
  6
CONTINUOUS
 62
     1
100
AcDbLine
 10
137.7660485581916
 20
96.00000000001106
 30
0.0
 11
137.2339514418064
 21
96.00000000001106
 31
0.0
  0
LINE
  5
1EC
330
1F
100
AcDbEntity
  8
LAY-255
  6
CONTINUOUS
 62
     1
100
AcDbLine
 10
145.9999999999998
 20
104.000000000011
 30
0.0
 11
145.9999999999998
 21
108.000000000011
 31
0.0
  0
LINE
  5
1ED
330
1F
100
AcDbEntity
  8
LAY-255
  6
CONTINUOUS
 62
     1
100
AcDbLine
 10
150.9999999999998
 20
104.000000000011
 30
0.0
 11
150.9999999999998
 21
108.000000000011
 31
0.0
  0
LINE
  5
1EE
330
1F
100
AcDbEntity
  8
LAY-255
  6
CONTINUOUS
 62
     1
100
AcDbLine
 10
158.9999999999998
 20
104.000000000011
 30
0.0
 11
158.9999999999998
 21
108.000000000011
 31
0.0
  0
LINE
  5
1EF
330
1F
100
AcDbEntity
  8
LAY-255
  6
CONTINUOUS
 62
     1
100
AcDbLine
 10
163.9999999999998
 20
104.000000000011
 30
0.0
 11
163.9999999999998
 21
108.000000000011
 31
0.0
  0
LINE
  5
1F0
330
1F
100
AcDbEntity
  8
LAY-255
  6
CONTINUOUS
 62
     1
100
AcDbLine
 10
167.8999999999997
 20
94.00000000001
 30
0.0
 11
167.8999999999997
 21
68.00000000001
 31
0.0
  0
LINE
  5
1F1
330
1F
100
AcDbEntity
  8
LAY-255
  6
CONTINUOUS
 62
     1
100
AcDbLine
 10
142.0999999999998
 20
94.00000000001
 30
0.0
 11
142.0999999999998
 21
68.00000000001
 31
0.0
  0
LINE
  5
1F2
330
1F
100
AcDbEntity
  8
LAY-255
  6
CONTINUOUS
 62
     1
100
AcDbLine
 10
142.0999999999996
 20
83.00000000001003
 30
0.0
 11
141.8499999999996
 21
83.00000000001003
 31
0.0
  0
LINE
  5
1F3
330
1F
100
AcDbEntity
  8
LAY-255
  6
CONTINUOUS
 62
     1
100
AcDbLine
 10
141.8499999999999
 20
83.00000000001003
 30
0.0
 11
142.0999999999999
 21
83.00000000001003
 31
0.0
  0
LINE
  5
1F4
330
1F
100
AcDbEntity
  8
LAY-255
  6
CONTINUOUS
 62
     1
100
AcDbLine
 10
140.4999999999998
 20
83.00000000001106
 30
0.0
 11
141.8499999999998
 21
83.00000000001106
 31
0.0
  0
LINE
  5
1F5
330
1F
100
AcDbEntity
  8
LAY-255
  6
CONTINUOUS
 62
     1
100
AcDbLine
 10
167.9
 20
83.00000000001003
 30
0.0
 11
169.499999999995
 21
83.00000000001003
 31
0.0
  0
LINE
  5
1F6
330
1F
100
AcDbEntity
  8
LAY-255
  6
CONTINUOUS
 62
     1
100
AcDbLine
 10
142.0999999999998
 20
73.00000000002004
 30
0.0
 11
126.1999999999948
 21
73.00000000002004
 31
0.0
  0
LINE
  5
1F7
330
1F
100
AcDbEntity
  8
LAY-255
  6
CONTINUOUS
 62
     1
100
AcDbLine
 10
142.0999999999998
 20
77.00000000002004
 30
0.0
 11
124.3367472915616
 21
77.00000000002004
 31
0.0
  0
LINE
  5
1F8
330
1F
100
AcDbEntity
  8
LAY-255
  6
CONTINUOUS
 62
     1
100
AcDbLine
 10
142.0999999999998
 20
68.00000000000998
 30
0.0
 11
132.5
 21
68.00000000000998
 31
0.0
  0
LINE
  5
1F9
330
1F
100
AcDbEntity
  8
LAY-255
  6
CONTINUOUS
 62
     1
100
AcDbLine
 10
183.7999999999947
 20
73.00000000002004
 30
0.0
 11
167.8999999999997
 21
73.00000000002004
 31
0.0
  0
LINE
  5
1FA
330
1F
100
AcDbEntity
  8
LAY-255
  6
CONTINUOUS
 62
     1
100
AcDbLine
 10
185.6632527084089
 20
77.00000000002004
 30
0.0
 11
167.8999999999997
 21
77.00000000002004
 31
0.0
  0
LINE
  5
1FB
330
1F
100
AcDbEntity
  8
LAY-255
  6
CONTINUOUS
 62
     1
100
AcDbLine
 10
177.5
 20
68.00000000000998
 30
0.0
 11
167.8999999999997
 21
68.00000000000998
 31
0.0
  0
LINE
  5
1FC
330
1F
100
AcDbEntity
  8
LAY-255
  6
CONTINUOUS
 62
     1
100
AcDbLine
 10
188.2565428280808
 20
104.0195104248583
 30
0.0
 11
188.4389514604434
 21
107.0018652015797
 31
0.0
  0
LINE
  5
1FD
330
1F
100
AcDbEntity
  8
LAY-255
  6
CONTINUOUS
 62
     1
100
AcDbLine
 10
186.6613875068308
 20
77.93895146048501
 30
0.0
 11
188.0944021943395
 21
101.3685344963845
 31
0.0
  0
LINE
  5
1FE
330
1F
100
AcDbEntity
  8
LAY-255
  6
CONTINUOUS
 62
     1
100
AcDbLine
 10
121.7434571718939
 20
104.0195104248436
 30
0.0
 11
121.5610485395295
 21
107.0018652016003
 31
0.0
  0
LINE
  5
1FF
330
1F
100
AcDbEntity
  8
LAY-255
  6
CONTINUOUS
 62
     1
100
AcDbLine
 10
123.3386124931396
 20
77.93895146048501
 30
0.0
 11
121.9055978056331
 21
101.3685344963977
 31
0.0
  0
LINE
  5
200
330
1F
100
AcDbEntity
  8
LAY-255
  6
CONTINUOUS
 62
     1
100
AcDbLine
 10
188.0718616589352
 20
101.00000000002
 30
0.0
 11
185.2499999999948
 21
101.00000000002
 31
0.0
  0
LINE
  5
201
330
1F
100
AcDbEntity
  8
LAY-255
  6
CONTINUOUS
 62
     1
100
AcDbLine
 10
188.3165121395371
 20
105.00000000002
 30
0.0
 11
185.2499999999948
 21
105.00000000002
 31
0.0
  0
CIRCLE
  5
202
330
1F
100
AcDbEntity
  8
LAY-255
  6
CONTINUOUS
 62
     1
100
AcDbCircle
 10
187.0149999999948
 20
102.76500000002
 30
0.0
 40
1.765
  0
LINE
  5
203
330
1F
100
AcDbEntity
  8
LAY-255
  6
CONTINUOUS
 62
     1
100
AcDbLine
 10
185.2499999999948
 20
101.00000000002
 30
0.0
 11
185.2499999999948
 21
105.00000000002
 31
0.0
  0
LINE
  5
204
330
1F
100
AcDbEntity
  8
LAY-255
  6
CONTINUOUS
 62
     1
100
AcDbLine
 10
121.9281383410441
 20
101.00000000002
 30
0.0
 11
124.7499999999948
 21
101.00000000002
 31
0.0
  0
LINE
  5
205
330
1F
100
AcDbEntity
  8
LAY-255
  6
CONTINUOUS
 62
     1
100
AcDbLine
 10
121.6834878604423
 20
105.00000000002
 30
0.0
 11
124.7499999999948
 21
105.00000000002
 31
0.0
  0
CIRCLE
  5
206
330
1F
100
AcDbEntity
  8
LAY-255
  6
CONTINUOUS
 62
     1
100
AcDbCircle
 10
122.9849999999948
 20
102.76500000002
 30
0.0
 40
1.765
  0
LINE
  5
207
330
1F
100
AcDbEntity
  8
LAY-255
  6
CONTINUOUS
 62
     1
100
AcDbLine
 10
124.7499999999948
 20
101.00000000002
 30
0.0
 11
124.7499999999948
 21
105.00000000002
 31
0.0
  0
CIRCLE
  5
208
330
1F
100
AcDbEntity
  8
LAY-255
  6
CONTINUOUS
 62
     1
100
AcDbCircle
 10
137.5850000000048
 20
102.7650000000108
 30
0.0
 40
1.765
  0
LINE
  5
209
330
1F
100
AcDbEntity
  8
LAY-255
  6
CONTINUOUS
 62
     1
100
AcDbLine
 10
136.9281383410552
 20
101.0000000000108
 30
0.0
 11
139.3499999999998
 21
101.0000000000108
 31
0.0
  0
CIRCLE
  5
20A
330
1F
100
AcDbEntity
  8
LAY-255
  6
CONTINUOUS
 62
     1
100
AcDbCircle
 10
172.4149999999948
 20
102.7650000000108
 30
0.0
 40
1.765
  0
LINE
  5
20B
330
1F
100
AcDbEntity
  8
LAY-255
  6
CONTINUOUS
 62
     1
100
AcDbLine
 10
139.3499999999998
 20
105.0000000000108
 30
0.0
 11
139.3499999999998
 21
101.0000000000108
 31
0.0
  0
LINE
  5
20C
330
1F
100
AcDbEntity
  8
LAY-255
  6
CONTINUOUS
 62
     1
100
AcDbLine
 10
170.6499999999999
 20
105.0000000000108
 30
0.0
 11
170.6499999999999
 21
101.0000000000108
 31
0.0
  0
LINE
  5
20D
330
1F
100
AcDbEntity
  8
LAY-255
  6
CONTINUOUS
 62
     1
100
AcDbLine
 10
139.3499999999998
 20
105.0000000000108
 30
0.0
 11
136.6834878604532
 21
105.0000000000108
 31
0.0
  0
LINE
  5
20E
330
1F
100
AcDbEntity
  8
LAY-255
  6
CONTINUOUS
 62
     1
100
AcDbLine
 10
173.0718616589445
 20
101.0000000000108
 30
0.0
 11
170.6499999999999
 21
101.0000000000108
 31
0.0
  0
LINE
  5
20F
330
1F
100
AcDbEntity
  8
LAY-255
  6
CONTINUOUS
 62
     1
100
AcDbLine
 10
170.6499999999999
 20
105.0000000000108
 30
0.0
 11
173.3165121395465
 21
105.0000000000108
 31
0.0
  0
LINE
  5
210
330
1F
100
AcDbEntity
  8
LAY-255
  6
CONTINUOUS
 62
     1
100
AcDbLine
 10
145.3
 20
104.000000000011
 30
0.0
 11
164.6999999999997
 21
104.000000000011
 31
0.0
  0
LINE
  5
211
330
1F
100
AcDbEntity
  8
LAY-255
  6
CONTINUOUS
 62
     1
100
AcDbLine
 10
164.6999999999997
 20
104.000000000011
 30
0.0
 11
165.1999999999997
 21
103.500000000011
 31
0.0
  0
LINE
  5
212
330
1F
100
AcDbEntity
  8
LAY-255
  6
CONTINUOUS
 62
     1
100
AcDbLine
 10
145.3
 20
104.000000000011
 30
0.0
 11
144.8
 21
103.500000000011
 31
0.0
  0
DIMENSION
  5
213
330
1F
100
AcDbEntity
  8
LAY-255
  6
CONTINUOUS
 62
     5
100
AcDbDimension
  2
*D22
 10
212.49999999997
 20
73.00000000002
 30
0.0
 11
209.99999999997
 21
66.50000000002
 31
0.0
 70
   160
  3
ISO-25
100
AcDbAlignedDimension
 13
212.49999999997
 23
60.00000000002
 33
0.0
 14
183.79999999999
 24
73.00000000002
 34
0.0
 50
90.0
100
AcDbRotatedDimension
1001
ACAD
1000
DSTYLE
1002
{
1070
   270
1070
     2
1070
     6
1000
EX_BNORM
1070
     7
1000
EX_BNORM
1070
    41
1040
3.0
1070
    42
1040
1.5
1070
    44
1040
1.5
1070
    73
1070
     0
1070
    74
1070
     0
1070
    75
1070
     1
1070
    76
1070
     0
1070
    77
1070
     1
1070
    78
1070
     8
1070
   140
1040
3.1181104
1070
   147
1040
0.0
1070
   173
1070
     1
1070
   176
1070
     5
1070
   177
1070
     5
1070
   178
1070
     1
1070
   271
1070
     1
1070
   277
1070
     2
1070
   279
1070
     2
1070
   280
1070
     0
1070
   287
1070
     5
1070
   340
1005
EB
1002
}
  0
DIMENSION
  5
21F
330
1F
100
AcDbEntity
  8
LAY-255
  6
CONTINUOUS
 62
     5
100
AcDbDimension
  2
*D23
 10
179.99999999999
 20
50.00000000002
 30
0.0
 11
154.99999999999
 21
52.50000000002
 31
0.0
 70
   160
  1
%%c<>
  3
ISO-25
100
AcDbAlignedDimension
 13
129.99999999999
 23
73.00000000002
 33
0.0
 14
179.99999999999
 24
73.00000000002
 34
0.0
100
AcDbRotatedDimension
1001
ACAD
1000
DSTYLE
1002
{
1070
   270
1070
     2
1070
     6
1000
EX_BNORM
1070
     7
1000
EX_BNORM
1070
    41
1040
3.0
1070
    42
1040
1.5
1070
    44
1040
1.5
1070
    73
1070
     0
1070
    74
1070
     0
1070
    75
1070
     0
1070
    76
1070
     0
1070
    77
1070
     1
1070
    78
1070
     8
1070
   140
1040
3.1181104
1070
   147
1040
0.0
1070
   173
1070
     1
1070
   176
1070
     5
1070
   177
1070
     5
1070
   178
1070
     1
1070
   271
1070
     1
1070
   277
1070
     2
1070
   279
1070
     2
1070
   280
1070
     0
1070
   287
1070
     5
1070
   340
1005
EB
1002
}
  0
ARC
  5
22C
330
1F
100
AcDbEntity
  8
LAY-255
  6
CONTINUOUS
 62
     1
100
AcDbCircle
 10
167.9
 20
83.00000000001
 30
0.0
 40
0.5
100
AcDbArc
 50
269.9999999999707
 51
0.0000000000032659
  0
ARC
  5
22D
330
1F
100
AcDbEntity
  8
LAY-255
  6
CONTINUOUS
 62
     1
100
AcDbCircle
 10
167.9
 20
83.00000000001
 30
0.0
 40
1.0
100
AcDbArc
 50
269.9999999999853
 51
0.0000000000016043
  0
ARC
  5
22E
330
1F
100
AcDbEntity
  8
LAY-255
  6
CONTINUOUS
 62
     1
100
AcDbCircle
 10
142.0999999999995
 20
83.00000000001
 30
0.0
 40
0.5
100
AcDbArc
 50
179.9999999999968
 51
270.0000000000294
  0
ARC
  5
22F
330
1F
100
AcDbEntity
  8
LAY-255
  6
CONTINUOUS
 62
     1
100
AcDbCircle
 10
142.0999999999995
 20
83.00000000001
 30
0.0
 40
1.0
100
AcDbArc
 50
179.9999999999984
 51
270.0000000000147
  0
LINE
  5
230
330
1F
100
AcDbEntity
  8
LAY-255
  6
EXLTYPE2
 62
     2
100
AcDbLine
 10
107.6
 20
200.0
 30
0.0
 11
201.8
 21
200.0
 31
0.0
  0
LINE
  5
231
330
1F
100
AcDbEntity
  8
LAY-255
  6
EXLTYPE2
 62
     2
100
AcDbLine
 10
155.0
 20
153.0
 30
0.0
 11
155.0
 21
247.1
 31
0.0
  0
LINE
  5
232
330
1F
100
AcDbEntity
  8
LAY-255
  6
EXLTYPE2
 62
     2
100
AcDbLine
 10
154.9999999999998
 20
110.0000000000009
 30
0.0
 11
154.9999999999998
 21
57.93924898936498
 31
0.0
  0
LINE
  5
233
330
1F
100
AcDbEntity
  8
LAY-255
  6
EXLTYPE2
 62
     2
100
AcDbLine
 10
173.0
 20
62.50000000000998
 30
0.0
 11
173.0
 21
68.80000000000999
 31
0.0
  0
LINE
  5
234
330
1F
100
AcDbEntity
  8
LAY-255
  6
EXLTYPE2
 62
     2
100
AcDbLine
 10
137.0
 20
62.60000000001
 30
0.0
 11
137.0
 21
68.90000000001001
 31
0.0
  0
TEXT
  5
235
330
1F
100
AcDbEntity
  8
LAY-255
  6
CONTINUOUS
 62
     6
100
AcDbText
 10
297.7
 20
23.56249999999999
 30
0.0
 40
3.078137028483449
  1
２０２１／１１／２６
 41
0.8868173076923076
  7
EXCADTTF1
 72
     5
 11
333.2
 21
23.56249999999999
 31
0.0
100
AcDbText
  0
ENDSEC
  0
SECTION
  2
OBJECTS
  0
DICTIONARY
  5
C
330
0
100
AcDbDictionary
  3
ACAD_GROUP
350
D
  3
ACAD_LAYOUT
350
1A
  3
ACAD_MATERIAL
350
43
  3
ACAD_MLEADERSTYLE
350
6B
  3
ACAD_MLINESTYLE
350
17
  3
ACAD_PLOTSETTINGS
350
19
  3
ACAD_SCALELIST
350
47
  3
ACAD_VISUALSTYLE
350
2A
  3
ACDBHEADERROUNDTRIPXREC
350
236
  3
ACDBVARIABLEDICTIONARY
350
257
  0
DICTIONARY
  5
262
330
8
100
AcDbDictionary
280
     1
  3
ACAD_XREC_ROUNDTRIP
360
263
  0
DICTIONARY
  5
D
102
{ACAD_REACTORS
330
C
102
}
330
C
100
AcDbDictionary
  0
DICTIONARY
  5
1A
102
{ACAD_REACTORS
330
C
102
}
330
C
100
AcDbDictionary
  0
DICTIONARY
  5
43
102
{ACAD_REACTORS
330
C
102
}
330
C
100
AcDbDictionary
  3
BYBLOCK
350
45
  3
BYLAYER
350
44
  3
GLOBAL
350
46
  0
DICTIONARY
  5
6B
102
{ACAD_REACTORS
330
C
102
}
330
C
100
AcDbDictionary
  3
STANDARD
350
6C
  0
DICTIONARY
  5
17
102
{ACAD_REACTORS
330
C
102
}
330
C
100
AcDbDictionary
  3
STANDARD
350
18
  0
DICTIONARY
  5
19
102
{ACAD_REACTORS
330
C
102
}
330
C
100
AcDbDictionary
  0
DICTIONARY
  5
47
102
{ACAD_REACTORS
330
C
102
}
330
C
100
AcDbDictionary
  3
A0
350
48
  3
A1
350
49
  3
A2
350
4A
  3
A3
350
4B
  3
A4
350
4C
  3
A5
350
4D
  3
A6
350
4E
  3
A7
350
4F
  3
A8
350
50
  3
A9
350
51
  3
B0
350
52
  3
B1
350
53
  3
B2
350
54
  3
B3
350
55
  3
B4
350
56
  3
B5
350
57
  3
B6
350
58
  3
B7
350
59
  3
B8
350
5A
  3
B9
350
5B
  3
C0
350
5C
  3
C1
350
5D
  3
C2
350
5E
  3
C3
350
5F
  3
C4
350
60
  3
C5
350
61
  3
C6
350
62
  3
C7
350
63
  3
C8
350
64
  3
C9
350
65
  3
D0
350
66
  3
D1
350
67
  3
D2
350
68
  0
DICTIONARY
  5
2A
102
{ACAD_REACTORS
330
C
102
}
330
C
100
AcDbDictionary
  3
2DWIREFRAME
350
2F
  3
BASIC
350
32
  3
BRIGHTEN
350
36
  3
COLORCHANGE
350
3A
  3
CONCEPTUAL
350
34
  3
DIM
350
35
  3
EDGECOLOROFF
350
3D
  3
FACEPATTERN
350
39
  3
FLAT
350
2B
  3
FLATWITHEDGES
350
2C
  3
GOURAUD
350
2D
  3
GOURAUDWITHEDGES
350
2E
  3
HIDDEN
350
31
  3
JITTEROFF
350
3B
  3
LINEPATTERN
350
38
  3
OVERHANGOFF
350
3C
  3
REALISTIC
350
33
  3
SHADED
350
42
  3
SHADED_WITH_EDGES
350
41
  3
SHADES_OF_GRAY
350
3E
  3
SKETCHY
350
3F
  3
THICKEN
350
37
  3
WIREFRAME
350
30
  3
X-RAY
350
40
  0
DICTIONARY
  5
236
102
{ACAD_REACTORS
330
C
102
}
330
C
100
AcDbDictionary
  3
CEPSNID
350
240
  3
CEPSNTYPE
350
23F
  3
DIMSTYLEDATA
350
256
  3
FINGERPRINTGUID
350
241
  3
HYPERLINKBASE
350
239
  3
INSUNITS
350
23E
  3
LAYOUTDICT
350
23B
  3
LWETCUNION
350
23D
  3
PLOTSETDICT
350
23C
  3
PSVPSCALE
350
243
  3
PUCSBASE
350
246
  3
PUCSORGBACK
350
24C
  3
PUCSORGBOTTOM
350
248
  3
PUCSORGFRONT
350
24B
  3
PUCSORGLEFT
350
249
  3
PUCSORGRIGHT
350
24A
  3
PUCSORGTOP
350
247
  3
PUCSORTHOREF
350
244
  3
PUCSORTHOVIEW
350
245
  3
STYLESHEET
350
23A
  3
TSTACKALIGN
350
237
  3
TSTACKSIZE
350
238
  3
UCSBASE
350
24F
  3
UCSORGBACK
350
255
  3
UCSORGBOTTOM
350
251
  3
UCSORGFRONT
350
254
  3
UCSORGLEFT
350
252
  3
UCSORGRIGHT
350
253
  3
UCSORGTOP
350
250
  3
UCSORTHOREF
350
24D
  3
UCSORTHOVIEW
350
24E
  3
VERSIONGUID
350
242
  0
DICTIONARY
  5
257
102
{ACAD_REACTORS
330
C
102
}
330
C
100
AcDbDictionary
  3
CANNOSCALE
350
264
  3
CENTEREXE
350
25E
  3
CENTERLTYPEFILE
350
25F
  3
CMLEADERSTYLE
350
259
  3
CTABLESTYLE
350
258
  3
DIMASSOC
350
260
  3
HIDETEXT
350
261
  3
MSLTSCALE
350
265
  3
PSOLHEIGHT
350
25B
  3
PSOLWIDTH
350
25A
  0
XRECORD
  5
263
102
{ACAD_REACTORS
330
262
102
}
330
262
100
AcDbXrecord
102
VTR_0.000_0.000_1.000_1.000_VISUALSTYLE
340
2F
102
VTR_0.000_0.000_1.000_1.000_GRIDDISPLAY
 70
     3
102
VTR_0.000_0.000_1.000_1.000_GRIDMAJOR
 70
     5
102
VTR_0.000_0.000_1.000_1.000_DEFAULTLIGHTING
280
     1
102
VTR_0.000_0.000_1.000_1.000_DEFAULTLIGHTINGTYPE
 70
     1
102
VTR_0.000_0.000_1.000_1.000_BRIGHTNESS
141
0.0
102
VTR_0.000_0.000_1.000_1.000_CONTRAST
142
0.0
  0
MATERIAL
  5
45
102
{ACAD_REACTORS
330
43
102
}
102
{ACAD_XDICTIONARY
360
268
102
}
330
43
100
AcDbMaterial
  1
BYBLOCK
  0
MATERIAL
  5
44
102
{ACAD_REACTORS
330
43
102
}
102
{ACAD_XDICTIONARY
360
266
102
}
330
43
100
AcDbMaterial
  1
BYLAYER
  0
MATERIAL
  5
46
102
{ACAD_REACTORS
330
43
102
}
102
{ACAD_XDICTIONARY
360
26A
102
}
330
43
100
AcDbMaterial
  1
GLOBAL
  0
ACAD_PROXY_OBJECT
  5
6C
102
{ACAD_REACTORS
330
6B
102
}
330
6B
100
AcDbProxyObject
 90
      499
 91
      505
 93
      610
310
40901902A4063FBFFFFFE0000000000000020400000000000020404214DD185B99185C990000000000000104090141901A00000000000004100000000000000041025764000000000000039000
340
14
340
0
340
11
340
0
 94
        0
1001
ACAD_MLEADERVER
1070
     2
  0
MLINESTYLE
  5
18
102
{ACAD_REACTORS
330
17
102
}
330
17
100
AcDbMlineStyle
  2
Standard
 70
     0
  3

 62
   256
 51
90.0
 52
90.0
 71
     2
 49
0.5
 62
   256
  6
BYLAYER
 49
-0.5
 62
   256
  6
BYLAYER
  0
ACAD_PROXY_OBJECT
  5
48
102
{ACAD_REACTORS
330
47
102
}
330
47
100
AcDbProxyObject
 90
      499
 91
      503
 93
       41
310
903313A31580
  0
ACAD_PROXY_OBJECT
  5
49
102
{ACAD_REACTORS
330
47
102
}
330
47
100
AcDbProxyObject
 90
      499
 91
      503
 93
      105
310
903313A324000000000000004000
  0
ACAD_PROXY_OBJECT
  5
4A
102
{ACAD_REACTORS
330
47
102
}
330
47
100
AcDbProxyObject
 90
      499
 91
      503
 93
      105
310
903313A344000000000000104000
  0
ACAD_PROXY_OBJECT
  5
4B
102
{ACAD_REACTORS
330
47
102
}
330
47
100
AcDbProxyObject
 90
      499
 91
      503
 93
      105
310
903313A354000000000000144000
  0
ACAD_PROXY_OBJECT
  5
4C
102
{ACAD_REACTORS
330
47
102
}
330
47
100
AcDbProxyObject
 90
      499
 91
      503
 93
      105
310
903313A384000000000000204000
  0
ACAD_PROXY_OBJECT
  5
4D
102
{ACAD_REACTORS
330
47
102
}
330
47
100
AcDbProxyObject
 90
      499
 91
      503
 93
      113
310
904313A31304000000000000244000
  0
ACAD_PROXY_OBJECT
  5
4E
102
{ACAD_REACTORS
330
47
102
}
330
47
100
AcDbProxyObject
 90
      499
 91
      503
 93
      113
310
904313A31364000000000000304000
  0
ACAD_PROXY_OBJECT
  5
4F
102
{ACAD_REACTORS
330
47
102
}
330
47
100
AcDbProxyObject
 90
      499
 91
      503
 93
      113
310
904313A32304000000000000344000
  0
ACAD_PROXY_OBJECT
  5
50
102
{ACAD_REACTORS
330
47
102
}
330
47
100
AcDbProxyObject
 90
      499
 91
      503
 93
      113
310
904313A333040000000000003E4000
  0
ACAD_PROXY_OBJECT
  5
51
102
{ACAD_REACTORS
330
47
102
}
330
47
100
AcDbProxyObject
 90
      499
 91
      503
 93
      113
310
904313A34304000000000000444000
  0
ACAD_PROXY_OBJECT
  5
52
102
{ACAD_REACTORS
330
47
102
}
330
47
100
AcDbProxyObject
 90
      499
 91
      503
 93
      113
310
904313A35304000000000000494000
  0
ACAD_PROXY_OBJECT
  5
53
102
{ACAD_REACTORS
330
47
102
}
330
47
100
AcDbProxyObject
 90
      499
 91
      503
 93
      121
310
905313A3130304000000000000594000
  0
ACAD_PROXY_OBJECT
  5
54
102
{ACAD_REACTORS
330
47
102
}
330
47
100
AcDbProxyObject
 90
      499
 91
      503
 93
      105
310
903323A310000000000000010100
  0
ACAD_PROXY_OBJECT
  5
55
102
{ACAD_REACTORS
330
47
102
}
330
47
100
AcDbProxyObject
 90
      499
 91
      503
 93
      105
310
903343A310000000000000410100
  0
ACAD_PROXY_OBJECT
  5
56
102
{ACAD_REACTORS
330
47
102
}
330
47
100
AcDbProxyObject
 90
      499
 91
      503
 93
      105
310
903383A310000000000000810100
  0
ACAD_PROXY_OBJECT
  5
57
102
{ACAD_REACTORS
330
47
102
}
330
47
100
AcDbProxyObject
 90
      499
 91
      503
 93
      113
310
90431303A310000000000000910100
  0
ACAD_PROXY_OBJECT
  5
58
102
{ACAD_REACTORS
330
47
102
}
330
47
100
AcDbProxyObject
 90
      499
 91
      503
 93
      121
310
9053130303A310000000000001650100
  0
ACAD_PROXY_OBJECT
  5
59
102
{ACAD_REACTORS
330
47
102
}
330
47
100
AcDbProxyObject
 90
      499
 91
      503
 93
      257
310
90E312F31323822203D2031272D3022000000000000200FC000000000000284000
  0
ACAD_PROXY_OBJECT
  5
5A
102
{ACAD_REACTORS
330
47
102
}
330
47
100
AcDbProxyObject
 90
      499
 91
      503
 93
      249
310
90D312F363422203D2031272D3022000000000000240FC000000000000284000
  0
ACAD_PROXY_OBJECT
  5
5B
102
{ACAD_REACTORS
330
47
102
}
330
47
100
AcDbProxyObject
 90
      499
 91
      503
 93
      249
310
90D312F333222203D2031272D3022000000000000280FC000000000000284000
  0
ACAD_PROXY_OBJECT
  5
5C
102
{ACAD_REACTORS
330
47
102
}
330
47
100
AcDbProxyObject
 90
      499
 91
      503
 93
      249
310
90D312F313622203D2031272D30220000000000002C0FC000000000000284000
  0
ACAD_PROXY_OBJECT
  5
5D
102
{ACAD_REACTORS
330
47
102
}
330
47
100
AcDbProxyObject
 90
      499
 91
      503
 93
      249
310
90D332F333222203D2031272D30220000000000002E0FC000000000000284000
  0
ACAD_PROXY_OBJECT
  5
5E
102
{ACAD_REACTORS
330
47
102
}
330
47
100
AcDbProxyObject
 90
      499
 91
      503
 93
      241
310
90C312F3822203D2031272D3022000000000000300FC000000000000284000
  0
ACAD_PROXY_OBJECT
  5
5F
102
{ACAD_REACTORS
330
47
102
}
330
47
100
AcDbProxyObject
 90
      499
 91
      503
 93
      249
310
90D332F313622203D2031272D3022000000000000320FC000000000000284000
  0
ACAD_PROXY_OBJECT
  5
60
102
{ACAD_REACTORS
330
47
102
}
330
47
100
AcDbProxyObject
 90
      499
 91
      503
 93
      241
310
90C312F3422203D2031272D3022000000000000340FC000000000000284000
  0
ACAD_PROXY_OBJECT
  5
61
102
{ACAD_REACTORS
330
47
102
}
330
47
100
AcDbProxyObject
 90
      499
 91
      503
 93
      241
310
90C332F3822203D2031272D3022000000000000360FC000000000000284000
  0
ACAD_PROXY_OBJECT
  5
62
102
{ACAD_REACTORS
330
47
102
}
330
47
100
AcDbProxyObject
 90
      499
 91
      503
 93
      241
310
90C312F3222203D2031272D3022000000000000380FC000000000000284000
  0
ACAD_PROXY_OBJECT
  5
63
102
{ACAD_REACTORS
330
47
102
}
330
47
100
AcDbProxyObject
 90
      499
 91
      503
 93
      241
310
90C332F3422203D2031272D30220000000000003A0FC000000000000284000
  0
ACAD_PROXY_OBJECT
  5
64
102
{ACAD_REACTORS
330
47
102
}
330
47
100
AcDbProxyObject
 90
      499
 91
      503
 93
      161
310
90A3122203D2031272D30224000000000000284000
  0
ACAD_PROXY_OBJECT
  5
65
102
{ACAD_REACTORS
330
47
102
}
330
47
100
AcDbProxyObject
 90
      499
 91
      503
 93
      257
310
90E312D312F3222203D2031272D30220000000000003E0FC000000000000284000
  0
ACAD_PROXY_OBJECT
  5
66
102
{ACAD_REACTORS
330
47
102
}
330
47
100
AcDbProxyObject
 90
      499
 91
      503
 93
      225
310
90A3322203D2031272D302200000000000002100000000000000284000
  0
ACAD_PROXY_OBJECT
  5
67
102
{ACAD_REACTORS
330
47
102
}
330
47
100
AcDbProxyObject
 90
      499
 91
      503
 93
      225
310
90A3622203D2031272D302200000000000006100000000000000284000
  0
ACAD_PROXY_OBJECT
  5
68
102
{ACAD_REACTORS
330
47
102
}
330
47
100
AcDbProxyObject
 90
      499
 91
      503
 93
      249
310
90D31272D3022203D2031272D30220000000000000A100000000000000284000
  0
ACAD_PROXY_OBJECT
  5
2F
102
{ACAD_REACTORS
330
2A
102
}
330
2A
100
AcDbProxyObject
 90
      499
 91
      501
 93
      436
310
42CC9915DA5C99599C985B595049028333333333333E33F0000000000000F90107901411070040501600405405064090741402480A0340
1001
ACAD
1000
AcDbSavedByObjectVersion
1070
     0
  0
ACAD_PROXY_OBJECT
  5
32
102
{ACAD_REACTORS
330
2A
102
}
330
2A
100
AcDbProxyObject
 90
      499
 91
      501
 93
      388
310
4150985CDA58D07406404333333333333E33F0000000000000F90107A41107004050150841D405064090741402480A0350
1001
ACAD
1000
AcDbSavedByObjectVersion
1070
     0
  0
ACAD_PROXY_OBJECT
  5
36
102
{ACAD_REACTORS
330
2A
102
}
330
2A
100
AcDbProxyObject
 90
      499
 91
      501
 93
      428
310
42109C9A59DA1D195B90C409028333333333333E33F0000000000000F9010790141107004050150841D405064090741402480A029950
1001
ACAD
1000
AcDbSavedByObjectVersion
1070
     0
  0
ACAD_PROXY_OBJECT
  5
3A
102
{ACAD_REACTORS
330
2A
102
}
330
2A
100
AcDbProxyObject
 90
      499
 91
      501
 93
      452
310
42D0DBDB1BDC90DA185B99D95104090240C333333333333E33F0000000000000F90108901411070040501508421405064090741402480A0350
1001
ACAD
1000
AcDbSavedByObjectVersion
1070
     0
  0
ACAD_PROXY_OBJECT
  5
34
102
{ACAD_REACTORS
330
2A
102
}
330
2A
100
AcDbProxyObject
 90
      499
 91
      501
 93
      500
310
4290DBDB98D95C1D1D585B10940D028333333333333E33F0000000000000F90107902409070040501000000000018199010841D405064090740C02480A0340
1001
ACAD
1000
AcDbSavedByObjectVersion
1070
     0
  0
ACAD_PROXY_OBJECT
  5
35
102
{ACAD_REACTORS
330
2A
102
}
330
2A
100
AcDbProxyObject
 90
      499
 91
      501
 93
      412
310
40D11A5B50B409028333333333333E33F0000000000000F9010790141107004050150841D405064090741402480A02677FFFFFD0
1001
ACAD
1000
AcDbSavedByObjectVersion
1070
     0
  0
ACAD_PROXY_OBJECT
  5
3D
102
{ACAD_REACTORS
330
2A
102
}
330
2A
100
AcDbProxyObject
 90
      499
 91
      501
 93
      452
310
43115919D950DBDB1BDC93D999916409028333333333333E33F0000000000000F9010790141107004050150841D405064090741402480A0350
1001
ACAD
1000
AcDbSavedByObjectVersion
1070
     0
  0
ACAD_PROXY_OBJECT
  5
39
102
{ACAD_REACTORS
330
2A
102
}
330
2A
100
AcDbProxyObject
 90
      499
 91
      501
 93
      444
310
42D19858D95C185D1D195C9B90F409028333333333333E33F0000000000000F9010790141107004050150841D405064090741402480A0350
1001
ACAD
1000
AcDbSavedByObjectVersion
1070
     0
  0
ACAD_PROXY_OBJECT
  5
2B
102
{ACAD_REACTORS
330
2A
102
}
330
2A
100
AcDbProxyObject
 90
      499
 91
      501
 93
      380
310
41119B185D240901404333333333333E33F0000000000000F9010740A907004050150841D405064090741402480A1B50
1001
ACAD
1000
AcDbSavedByObjectVersion
1070
     0
  0
ACAD_PROXY_OBJECT
  5
2C
102
{ACAD_REACTORS
330
2A
102
}
330
2A
100
AcDbProxyObject
 90
      499
 91
      501
 93
      468
310
43519B185D15DA5D1A115919D95CD0140901404333333333333E33F0000000000000F90107409019070040501600405405064090741402480A1B50
1001
ACAD
1000
AcDbSavedByObjectVersion
1070
     0
  0
ACAD_PROXY_OBJECT
  5
2D
102
{ACAD_REACTORS
330
2A
102
}
330
2A
100
AcDbProxyObject
 90
      499
 91
      501
 93
      404
310
41D1DBDD5C985D5910240902404333333333333E33F0000000000000F9010740A9070040501641D405064090741402480A1B50
1001
ACAD
1000
AcDbSavedByObjectVersion
1070
     0
  0
ACAD_PROXY_OBJECT
  5
2E
102
{ACAD_REACTORS
330
2A
102
}
330
2A
100
AcDbProxyObject
 90
      499
 91
      501
 93
      492
310
4411DBDD5C985D5915DA5D1A115919D95CD0340902404333333333333E33F0000000000000F90107409019070040501600405405064090741402480A1B50
1001
ACAD
1000
AcDbSavedByObjectVersion
1070
     0
  0
ACAD_PROXY_OBJECT
  5
31
102
{ACAD_REACTORS
330
2A
102
}
330
2A
100
AcDbProxyObject
 90
      499
 91
      501
 93
      476
310
41921A5919195B90640502408333333333333E33F0000000000000F901079024090700405020000000000001110200405405064090740C02480A0340
1001
ACAD
1000
AcDbSavedByObjectVersion
1070
     0
  0
ACAD_PROXY_OBJECT
  5
3B
102
{ACAD_REACTORS
330
2A
102
}
330
2A
100
AcDbProxyObject
 90
      499
 91
      501
 93
      428
310
42529A5D1D195C93D999914409028333333333333E33F0000000000000F9010790141107004050150A41D405064090741402480A0350
1001
ACAD
1000
AcDbSavedByObjectVersion
1070
     0
  0
ACAD_PROXY_OBJECT
  5
38
102
{ACAD_REACTORS
330
2A
102
}
330
2A
100
AcDbProxyObject
 90
      499
 91
      501
 93
      444
310
42D31A5B995C185D1D195C9B90E409028333333333333E33F0000000000000F9010790141107004050750841D405064090741402483A0350
1001
ACAD
1000
AcDbSavedByObjectVersion
1070
     0
  0
ACAD_PROXY_OBJECT
  5
3C
102
{ACAD_REACTORS
330
2A
102
}
330
2A
100
AcDbProxyObject
 90
      499
 91
      501
 93
      444
310
42D3DD995C9A185B99D3D999915409028333333333333E33F0000000000000F9010790141107004050150941D405064090741402480A0350
1001
ACAD
1000
AcDbSavedByObjectVersion
1070
     0
  0
ACAD_PROXY_OBJECT
  5
33
102
{ACAD_REACTORS
330
2A
102
}
330
2A
100
AcDbProxyObject
 90
      499
 91
      501
 93
      428
310
425499585B1A5CDD1A58D08409038333333333333E33F0000000000000F9010740A907004050150800405405064090740C02480A1B40
1001
ACAD
1000
AcDbSavedByObjectVersion
1070
     0
  0
ACAD_PROXY_OBJECT
  5
42
102
{ACAD_REACTORS
330
2A
102
}
330
2A
100
AcDbProxyObject
 90
      499
 91
      501
 93
      420
310
4194DA1859195911B40902404333333333333E33F0000000000000F9010740A41107004050150800405405064090840C02480A0B40
1001
ACAD
1000
AcDbSavedByObjectVersion
1070
     0
  0
ACAD_PROXY_OBJECT
  5
41
102
{ACAD_REACTORS
330
2A
102
}
330
2A
100
AcDbProxyObject
 90
      499
 91
      501
 93
      516
310
4454DA18591959081DDA5D1A08195919D95CD1A40902404333333333333E33F0000000000000F901074090142907004050250800405405064090740C02480A0B40
1001
ACAD
1000
AcDbSavedByObjectVersion
1070
     0
  0
ACAD_PROXY_OBJECT
  5
3E
102
{ACAD_REACTORS
330
2A
102
}
330
2A
100
AcDbProxyObject
 90
      499
 91
      501
 93
      532
310
4394DA1859195CC81BD98811DC985E5174090240C333333333333E33F0000000000000F901079024090741D01000000000000111010841D405064090740C02480A0340
1001
ACAD
1000
AcDbSavedByObjectVersion
1070
     0
  0
ACAD_PROXY_OBJECT
  5
3F
102
{ACAD_REACTORS
330
2A
102
}
330
2A
100
AcDbProxyObject
 90
      499
 91
      501
 93
      476
310
41D4DAD95D18DA1E51840502408333333333333E33F0000000000000F901079024090741D01000000000000111010B41D405064090741802480A0340
1001
ACAD
1000
AcDbSavedByObjectVersion
1070
     0
  0
ACAD_PROXY_OBJECT
  5
37
102
{ACAD_REACTORS
330
2A
102
}
330
2A
100
AcDbProxyObject
 90
      499
 91
      501
 93
      412
310
41D51A1A58DAD95B90D409028333333333333E33F0000000000000F9010790141107004050150C41D405064090741402480A0350
1001
ACAD
1000
AcDbSavedByObjectVersion
1070
     0
  0
ACAD_PROXY_OBJECT
  5
30
102
{ACAD_REACTORS
330
2A
102
}
330
2A
100
AcDbProxyObject
 90
      499
 91
      501
 93
      420
310
4255DA5C99599C985B595059028333333333333E33F0000000000000F90107901411070040501600405405064090740C02480A0340
1001
ACAD
1000
AcDbSavedByObjectVersion
1070
     0
  0
ACAD_PROXY_OBJECT
  5
40
102
{ACAD_REACTORS
330
2A
102
}
330
2A
100
AcDbProxyObject
 90
      499
 91
      501
 93
      404
310
41560B54985E51940902404000000000000E03F0000000000000F9010740501907004050150841D405064090740C02480A1B40
1001
ACAD
1000
AcDbSavedByObjectVersion
1070
     0
  0
XRECORD
  5
240
102
{ACAD_REACTORS
330
236
102
}
330
236
100
AcDbXrecord
340
0
  0
XRECORD
  5
23F
102
{ACAD_REACTORS
330
236
102
}
330
236
100
AcDbXrecord
 90
        0
  0
XRECORD
  5
256
102
{ACAD_REACTORS
330
236
102
}
330
236
100
AcDbXrecord
1000
DSTYLE
1002
{
1070
   340
340
11
1002
}
  0
XRECORD
  5
241
102
{ACAD_REACTORS
330
236
102
}
330
236
100
AcDbXrecord
  1
{cf527a9e-cfa5-4f06-b262-3e8ad015df9f}
  0
XRECORD
  5
239
102
{ACAD_REACTORS
330
236
102
}
330
236
100
AcDbXrecord
  1

  0
XRECORD
  5
23E
102
{ACAD_REACTORS
330
236
102
}
330
236
100
AcDbXrecord
 90
        4
  0
XRECORD
  5
23B
102
{ACAD_REACTORS
330
236
102
}
330
236
100
AcDbXrecord
340
1A
  0
XRECORD
  5
23D
102
{ACAD_REACTORS
330
236
102
}
330
236
100
AcDbXrecord
 90
    10781
  0
XRECORD
  5
23C
102
{ACAD_REACTORS
330
236
102
}
330
236
100
AcDbXrecord
340
19
  0
XRECORD
  5
243
102
{ACAD_REACTORS
330
236
102
}
330
236
100
AcDbXrecord
 40
0.0
  0
XRECORD
  5
246
102
{ACAD_REACTORS
330
236
102
}
330
236
100
AcDbXrecord
340
0
  0
XRECORD
  5
24C
102
{ACAD_REACTORS
330
236
102
}
330
236
100
AcDbXrecord
 10
0.0
 20
0.0
 30
0.0
  0
XRECORD
  5
248
102
{ACAD_REACTORS
330
236
102
}
330
236
100
AcDbXrecord
 10
0.0
 20
0.0
 30
0.0
  0
XRECORD
  5
24B
102
{ACAD_REACTORS
330
236
102
}
330
236
100
AcDbXrecord
 10
0.0
 20
0.0
 30
0.0
  0
XRECORD
  5
249
102
{ACAD_REACTORS
330
236
102
}
330
236
100
AcDbXrecord
 10
0.0
 20
0.0
 30
0.0
  0
XRECORD
  5
24A
102
{ACAD_REACTORS
330
236
102
}
330
236
100
AcDbXrecord
 10
0.0
 20
0.0
 30
0.0
  0
XRECORD
  5
247
102
{ACAD_REACTORS
330
236
102
}
330
236
100
AcDbXrecord
 10
0.0
 20
0.0
 30
0.0
  0
XRECORD
  5
244
102
{ACAD_REACTORS
330
236
102
}
330
236
100
AcDbXrecord
340
0
  0
XRECORD
  5
245
102
{ACAD_REACTORS
330
236
102
}
330
236
100
AcDbXrecord
 70
     0
  0
XRECORD
  5
23A
102
{ACAD_REACTORS
330
236
102
}
330
236
100
AcDbXrecord
  1

  0
XRECORD
  5
237
102
{ACAD_REACTORS
330
236
102
}
330
236
100
AcDbXrecord
 90
        1
  0
XRECORD
  5
238
102
{ACAD_REACTORS
330
236
102
}
330
236
100
AcDbXrecord
 90
       70
  0
XRECORD
  5
24F
102
{ACAD_REACTORS
330
236
102
}
330
236
100
AcDbXrecord
340
0
  0
XRECORD
  5
255
102
{ACAD_REACTORS
330
236
102
}
330
236
100
AcDbXrecord
 10
0.0
 20
0.0
 30
0.0
  0
XRECORD
  5
251
102
{ACAD_REACTORS
330
236
102
}
330
236
100
AcDbXrecord
 10
0.0
 20
0.0
 30
0.0
  0
XRECORD
  5
254
102
{ACAD_REACTORS
330
236
102
}
330
236
100
AcDbXrecord
 10
0.0
 20
0.0
 30
0.0
  0
XRECORD
  5
252
102
{ACAD_REACTORS
330
236
102
}
330
236
100
AcDbXrecord
 10
0.0
 20
0.0
 30
0.0
  0
XRECORD
  5
253
102
{ACAD_REACTORS
330
236
102
}
330
236
100
AcDbXrecord
 10
0.0
 20
0.0
 30
0.0
  0
XRECORD
  5
250
102
{ACAD_REACTORS
330
236
102
}
330
236
100
AcDbXrecord
 10
0.0
 20
0.0
 30
0.0
  0
XRECORD
  5
24D
102
{ACAD_REACTORS
330
236
102
}
330
236
100
AcDbXrecord
340
0
  0
XRECORD
  5
24E
102
{ACAD_REACTORS
330
236
102
}
330
236
100
AcDbXrecord
 70
     0
  0
XRECORD
  5
242
102
{ACAD_REACTORS
330
236
102
}
330
236
100
AcDbXrecord
  1
{FAEB1C32-E019-11D5-929B-00C0DF256EC4}
  0
DICTIONARYVAR
  5
264
102
{ACAD_REACTORS
330
257
102
}
330
257
100
DictionaryVariables
280
     0
  1
1:1
  0
DICTIONARYVAR
  5
25E
102
{ACAD_REACTORS
330
257
102
}
330
257
100
DictionaryVariables
280
     0
  1
3.500000
  0
DICTIONARYVAR
  5
25F
102
{ACAD_REACTORS
330
257
102
}
330
257
100
DictionaryVariables
280
     0
  1
acadiso.lin
  0
DICTIONARYVAR
  5
259
102
{ACAD_REACTORS
330
257
102
}
330
257
100
DictionaryVariables
280
     0
  1
Standard
  0
DICTIONARYVAR
  5
258
102
{ACAD_REACTORS
330
257
102
}
330
257
100
DictionaryVariables
280
     0
  1
Standard
  0
DICTIONARYVAR
  5
260
102
{ACAD_REACTORS
330
257
102
}
330
257
100
DictionaryVariables
280
     0
  1
2
  0
DICTIONARYVAR
  5
261
102
{ACAD_REACTORS
330
257
102
}
330
257
100
DictionaryVariables
280
     0
  1
1
  0
DICTIONARYVAR
  5
265
102
{ACAD_REACTORS
330
257
102
}
330
257
100
DictionaryVariables
280
     0
  1
1
  0
DICTIONARYVAR
  5
25B
102
{ACAD_REACTORS
330
257
102
}
330
257
100
DictionaryVariables
280
     0
  1
80.000000
  0
DICTIONARYVAR
  5
25A
102
{ACAD_REACTORS
330
257
102
}
330
257
100
DictionaryVariables
280
     0
  1
5.000000
  0
DICTIONARY
  5
268
330
45
100
AcDbDictionary
280
     1
  3
ACAD_XREC_ROUNDTRIP
360
269
  0
DICTIONARY
  5
266
330
44
100
AcDbDictionary
280
     1
  3
ACAD_XREC_ROUNDTRIP
360
267
  0
DICTIONARY
  5
26A
330
46
100
AcDbDictionary
280
     1
  3
ACAD_XREC_ROUNDTRIP
360
26B
  0
XRECORD
  5
269
102
{ACAD_REACTORS
330
268
102
}
330
268
100
AcDbXrecord
102
MATERIAL
148
0.0
149
0.0
149
0.0
 93
        0
 94
      127
282
     0
 72
     1
 77
     1
171
     1
175
     1
179
     1
273
     0
  0
XRECORD
  5
267
102
{ACAD_REACTORS
330
266
102
}
330
266
100
AcDbXrecord
102
MATERIAL
148
0.0
149
0.0
149
0.0
 93
        0
 94
      127
282
     0
 72
     1
 77
     1
171
     1
175
     1
179
     1
273
     0
  0
XRECORD
  5
26B
102
{ACAD_REACTORS
330
26A
102
}
330
26A
100
AcDbXrecord
102
MATERIAL
148
0.0
149
0.0
149
0.0
 93
        0
 94
      127
282
     0
 72
     1
 77
     1
171
     1
175
     1
179
     1
273
     0
  0
ENDSEC
  0
EOF
