  0
SECTION
  2
HEADER
  9
$ACADVER
  1
AC1014
  9
$ACADMAINTVER
 70
     9
  9
$DWGCODEPAGE
  3
ANSI_932
  9
$INSBASE
 10
0.0
 20
0.0
 30
0.0
  9
$EXTMIN
 10
5.000000000000001
 20
10.0
 30
0.0
  9
$EXTMAX
 10
385.0000000000001
 20
280.0
 30
0.0
  9
$LIMMIN
 10
0.0
 20
0.0
  9
$LIMMAX
 10
420.0
 20
297.0
  9
$ORTHOMODE
 70
     0
  9
$REGENMODE
 70
     1
  9
$FILLMODE
 70
     1
  9
$QTEXTMODE
 70
     0
  9
$MIRRTEXT
 70
     1
  9
$DRAGMODE
 70
     2
  9
$LTSCALE
 40
0.2
  9
$OSMODE
 70
    37
  9
$ATTMODE
 70
     1
  9
$TEXTSIZE
 40
2.5
  9
$TRACEWID
 40
1.0
  9
$TEXTSTYLE
  7
STANDARD
  9
$CLAYER
  8
LAY-10
  9
$CELTYPE
  6
BYLAYER
  9
$CECOLOR
 62
   256
  9
$CELTSCALE
 40
1.0
  9
$DELOBJ
 70
     1
  9
$DISPSILH
 70
     0
  9
$DIMSCALE
 40
1.0
  9
$DIMASZ
 40
2.5
  9
$DIMEXO
 40
0.625
  9
$DIMDLI
 40
3.75
  9
$DIMRND
 40
0.0
  9
$DIMDLE
 40
0.0
  9
$DIMEXE
 40
1.25
  9
$DIMTP
 40
0.0
  9
$DIMTM
 40
0.0
  9
$DIMTXT
 40
2.5
  9
$DIMCEN
 40
2.5
  9
$DIMTSZ
 40
0.0
  9
$DIMTOL
 70
     0
  9
$DIMLIM
 70
     0
  9
$DIMTIH
 70
     0
  9
$DIMTOH
 70
     0
  9
$DIMSE1
 70
     0
  9
$DIMSE2
 70
     0
  9
$DIMTAD
 70
     1
  9
$DIMZIN
 70
     8
  9
$DIMBLK
  1

  9
$DIMASO
 70
     1
  9
$DIMSHO
 70
     1
  9
$DIMPOST
  1

  9
$DIMAPOST
  1

  9
$DIMALT
 70
     0
  9
$DIMALTD
 70
     3
  9
$DIMALTF
 40
0.03937007874016
  9
$DIMLFAC
 40
1.0
  9
$DIMTOFL
 70
     1
  9
$DIMTVP
 40
0.0
  9
$DIMTIX
 70
     0
  9
$DIMSOXD
 70
     0
  9
$DIMSAH
 70
     0
  9
$DIMBLK1
  1

  9
$DIMBLK2
  1

  9
$DIMSTYLE
  2
ISO-25
  9
$DIMCLRD
 70
     0
  9
$DIMCLRE
 70
     0
  9
$DIMCLRT
 70
     0
  9
$DIMTFAC
 40
1.0
  9
$DIMGAP
 40
0.625
  9
$DIMJUST
 70
     0
  9
$DIMSD1
 70
     0
  9
$DIMSD2
 70
     0
  9
$DIMTOLJ
 70
     0
  9
$DIMTZIN
 70
     8
  9
$DIMALTZ
 70
     0
  9
$DIMALTTZ
 70
     0
  9
$DIMFIT
 70
     3
  9
$DIMUPT
 70
     0
  9
$DIMUNIT
 70
     2
  9
$DIMDEC
 70
     2
  9
$DIMTDEC
 70
     2
  9
$DIMALTU
 70
     2
  9
$DIMALTTD
 70
     3
  9
$DIMTXSTY
  7
STANDARD
  9
$DIMAUNIT
 70
     0
  9
$LUNITS
 70
     2
  9
$LUPREC
 70
     4
  9
$SKETCHINC
 40
1.0
  9
$FILLETRAD
 40
10.0
  9
$AUNITS
 70
     0
  9
$AUPREC
 70
     0
  9
$MENU
  1
.
  9
$ELEVATION
 40
0.0
  9
$PELEVATION
 40
0.0
  9
$THICKNESS
 40
0.0
  9
$LIMCHECK
 70
     0
  9
$CHAMFERA
 40
0.0
  9
$CHAMFERB
 40
0.0
  9
$CHAMFERC
 40
0.0
  9
$CHAMFERD
 40
0.0
  9
$SKPOLY
 70
     0
  9
$TDCREATE
 40
2459229.337893368
  9
$TDUPDATE
 40
2459229.337893669
  9
$TDINDWG
 40
0.0000000116
  9
$TDUSRTIMER
 40
0.0000000116
  9
$USRTIMER
 70
     1
  9
$ANGBASE
 50
0.0
  9
$ANGDIR
 70
     0
  9
$PDMODE
 70
     0
  9
$PDSIZE
 40
0.0
  9
$PLINEWID
 40
0.0
  9
$COORDS
 70
     1
  9
$SPLFRAME
 70
     0
  9
$SPLINETYPE
 70
     6
  9
$SPLINESEGS
 70
     8
  9
$ATTDIA
 70
     0
  9
$ATTREQ
 70
     1
  9
$HANDLING
 70
     1
  9
$HANDSEED
  5
2E0
  9
$SURFTAB1
 70
     6
  9
$SURFTAB2
 70
     6
  9
$SURFTYPE
 70
     6
  9
$SURFU
 70
     6
  9
$SURFV
 70
     6
  9
$UCSNAME
  2

  9
$UCSORG
 10
0.0
 20
0.0
 30
0.0
  9
$UCSXDIR
 10
1.0
 20
0.0
 30
0.0
  9
$UCSYDIR
 10
0.0
 20
1.0
 30
0.0
  9
$PUCSNAME
  2

  9
$PUCSORG
 10
0.0
 20
0.0
 30
0.0
  9
$PUCSXDIR
 10
1.0
 20
0.0
 30
0.0
  9
$PUCSYDIR
 10
0.0
 20
1.0
 30
0.0
  9
$USERI1
 70
     0
  9
$USERI2
 70
     0
  9
$USERI3
 70
     0
  9
$USERI4
 70
     0
  9
$USERI5
 70
     0
  9
$USERR1
 40
0.0
  9
$USERR2
 40
0.0
  9
$USERR3
 40
0.0
  9
$USERR4
 40
0.0
  9
$USERR5
 40
0.0
  9
$WORLDVIEW
 70
     1
  9
$SHADEDGE
 70
     3
  9
$SHADEDIF
 70
    70
  9
$TILEMODE
 70
     1
  9
$MAXACTVP
 70
    64
  9
$PINSBASE
 10
0.0
 20
0.0
 30
0.0
  9
$PLIMCHECK
 70
     0
  9
$PEXTMIN
 10
1.000000000000000E+20
 20
1.000000000000000E+20
 30
1.000000000000000E+20
  9
$PEXTMAX
 10
-1.000000000000000E+20
 20
-1.000000000000000E+20
 30
-1.000000000000000E+20
  9
$PLIMMIN
 10
0.0
 20
0.0
  9
$PLIMMAX
 10
420.0
 20
297.0
  9
$UNITMODE
 70
     0
  9
$VISRETAIN
 70
     1
  9
$PLINEGEN
 70
     0
  9
$PSLTSCALE
 70
     1
  9
$TREEDEPTH
 70
  3020
  9
$PICKSTYLE
 70
     1
  9
$CMLSTYLE
  2
STANDARD
  9
$CMLJUST
 70
     0
  9
$CMLSCALE
 40
20.0
  9
$PROXYGRAPHICS
 70
     1
  9
$MEASUREMENT
 70
     1
  0
ENDSEC
  0
SECTION
  2
CLASSES
  0
CLASS
  1
ACDBDICTIONARYWDFLT
  2
AcDbDictionaryWithDefault
  3
ObjectDBX Classes
 90
        0
280
     0
281
     0
  0
CLASS
  1
VISUALSTYLE
  2
AcDbVisualStyle
  3
ObjectDBX Classes
 90
     4095
280
     0
281
     0
  0
CLASS
  1
MATERIAL
  2
AcDbMaterial
  3
ObjectDBX Classes
 90
     1153
280
     0
281
     0
  0
CLASS
  1
SCALE
  2
AcDbScale
  3
ObjectDBX Classes
 90
     1153
280
     0
281
     0
  0
CLASS
  1
TABLESTYLE
  2
AcDbTableStyle
  3
ObjectDBX Classes
 90
     4095
280
     0
281
     0
  0
CLASS
  1
MLEADERSTYLE
  2
AcDbMLeaderStyle
  3
ACDB_MLEADERSTYLE_CLASS
 90
     4095
280
     0
281
     0
  0
CLASS
  1
SUN
  2
AcDbSun
  3
SCENEOE
 90
     1153
280
     0
281
     0
  0
CLASS
  1
DICTIONARYVAR
  2
AcDbDictionaryVar
  3
ObjectDBX Classes
 90
        0
280
     0
281
     0
  0
CLASS
  1
XRECORD
  2
AcDbXrecord
  3
ObjectDBX Classes
 90
        0
280
     0
281
     0
  0
CLASS
  1
LWPOLYLINE
  2
AcDbPolyline
  3
ObjectDBX Classes
 90
        0
280
     0
281
     1
  0
CLASS
  1
HATCH
  2
AcDbHatch
  3
ObjectDBX Classes
 90
        0
280
     0
281
     1
  0
CLASS
  1
ACDBPLACEHOLDER
  2
AcDbPlaceHolder
  3
ObjectDBX Classes
 90
        0
280
     0
281
     0
  0
CLASS
  1
LAYOUT
  2
AcDbLayout
  3
ObjectDBX Classes
 90
        0
280
     0
281
     0
  0
ENDSEC
  0
SECTION
  2
TABLES
  0
TABLE
  2
VPORT
  5
8
102
{ACAD_XDICTIONARY
360
2D5
102
}
330
0
100
AcDbSymbolTable
 70
     1
  0
VPORT
  5
29
330
8
100
AcDbSymbolTableRecord
100
AcDbViewportTableRecord
  2
*ACTIVE
 70
     0
 10
0.0
 20
0.0
 11
1.0
 21
1.0
 12
195.0
 22
145.0
 13
0.0
 23
0.0
 14
10.0
 24
10.0
 15
10.0
 25
10.0
 16
0.0
 26
0.0
 36
1.0
 17
0.0
 27
0.0
 37
0.0
 40
270.0
 41
1.407407407407408
 42
50.0
 43
0.0
 44
0.0
 50
0.0
 51
0.0
 71
     0
 72
  1000
 73
     1
 74
     3
 75
     0
 76
     0
 77
     0
 78
     0
  0
ENDTAB
  0
TABLE
  2
LTYPE
  5
5
330
0
100
AcDbSymbolTable
 70
     6
  0
LTYPE
  5
14
330
5
100
AcDbSymbolTableRecord
100
AcDbLinetypeTableRecord
  2
BYBLOCK
 70
     0
  3

 72
    65
 73
     0
 40
0.0
  0
LTYPE
  5
15
330
5
100
AcDbSymbolTableRecord
100
AcDbLinetypeTableRecord
  2
BYLAYER
 70
     0
  3

 72
    65
 73
     0
 40
0.0
  0
LTYPE
  5
16
330
5
100
AcDbSymbolTableRecord
100
AcDbLinetypeTableRecord
  2
CONTINUOUS
 70
     0
  3
Solid line
 72
    65
 73
     0
 40
0.0
  0
LTYPE
  5
6E
330
5
100
AcDbSymbolTableRecord
100
AcDbLinetypeTableRecord
  2
HIDDEN
 70
     0
  3
Hidden __ __ __ __ __ __ __ __ __ __ __ __ __ __
 72
    65
 73
     2
 40
9.524999999999999
 49
6.35
 74
     0
 49
-3.175
 74
     0
  0
LTYPE
  5
6F
330
5
100
AcDbSymbolTableRecord
100
AcDbLinetypeTableRecord
  2
CENTER
 70
     0
  3
Center ____ _ ____ _ ____ _ ____ _ ____ _ ____
 72
    65
 73
     4
 40
50.8
 49
31.75
 74
     0
 49
-6.35
 74
     0
 49
6.35
 74
     0
 49
-6.35
 74
     0
  0
LTYPE
  5
70
330
5
100
AcDbSymbolTableRecord
100
AcDbLinetypeTableRecord
  2
PHANTOM
 70
     0
  3
Phantom ______  __  __  ______  __  __  ______ 
 72
    65
 73
     6
 40
63.50000000000001
 49
31.75
 74
     0
 49
-6.35
 74
     0
 49
6.35
 74
     0
 49
-6.35
 74
     0
 49
6.35
 74
     0
 49
-6.35
 74
     0
  0
LTYPE
  5
71
330
5
100
AcDbSymbolTableRecord
100
AcDbLinetypeTableRecord
  2
ACAD_ISO06W100
 70
     0
  3
ISO long-dash triple-dot ____ ... ____ ... ____
 72
    65
 73
     8
 40
36.0
 49
24.0
 74
     0
 49
-3.0
 74
     0
 49
0.0
 74
     0
 49
-3.0
 74
     0
 49
0.0
 74
     0
 49
-3.0
 74
     0
 49
0.0
 74
     0
 49
-3.0
 74
     0
  0
LTYPE
  5
72
330
5
100
AcDbSymbolTableRecord
100
AcDbLinetypeTableRecord
  2
ACAD_ISO15W100
 70
     0
  3
ISO double-dash triple-dot __ __ . . . __ __ . .
 72
    65
 73
    10
 40
39.0
 49
12.0
 74
     0
 49
-3.0
 74
     0
 49
12.0
 74
     0
 49
-3.0
 74
     0
 49
0.0
 74
     0
 49
-3.0
 74
     0
 49
0.0
 74
     0
 49
-3.0
 74
     0
 49
0.0
 74
     0
 49
-3.0
 74
     0
  0
ENDTAB
  0
TABLE
  2
LAYER
  5
2
330
0
100
AcDbSymbolTable
 70
     6
  0
LAYER
  5
10
330
2
100
AcDbSymbolTableRecord
100
AcDbLayerTableRecord
  2
0
 70
     0
 62
     7
  6
CONTINUOUS
  0
LAYER
  5
75
330
2
100
AcDbSymbolTableRecord
100
AcDbLayerTableRecord
  2
LAY-10
 70
     0
 62
     7
  6
CONTINUOUS
  0
LAYER
  5
76
330
2
100
AcDbSymbolTableRecord
100
AcDbLayerTableRecord
  2
LAY-11
 70
     0
 62
     7
  6
CONTINUOUS
  0
LAYER
  5
77
330
2
100
AcDbSymbolTableRecord
100
AcDbLayerTableRecord
  2
LAY-20
 70
     0
 62
     7
  6
CONTINUOUS
  0
LAYER
  5
78
330
2
100
AcDbSymbolTableRecord
100
AcDbLayerTableRecord
  2
LAY-255
 70
     0
 62
     7
  6
CONTINUOUS
  0
LAYER
  5
1FE
330
2
100
AcDbSymbolTableRecord
100
AcDbLayerTableRecord
  2
DEFPOINTS
 70
     0
 62
     7
  6
CONTINUOUS
  0
ENDTAB
  0
TABLE
  2
STYLE
  5
3
330
0
100
AcDbSymbolTable
 70
     4
  0
STYLE
  5
11
330
3
100
AcDbSymbolTableRecord
100
AcDbTextStyleTableRecord
  2
STANDARD
 70
     0
 40
0.0
 41
1.0
 50
0.0
 71
     0
 42
2.5
  3
simplex
  4
bigfont
  0
STYLE
  5
73
330
3
100
AcDbSymbolTableRecord
100
AcDbTextStyleTableRecord
  2
EXCADSTD
 70
     0
 40
0.0
 41
1.0
 50
0.0
 71
     0
 42
2.5
  3
simplex
  4
bigfont
  0
STYLE
  5
74
330
3
100
AcDbSymbolTableRecord
100
AcDbTextStyleTableRecord
  2
EXCADVERT
 70
     4
 40
0.0
 41
1.0
 50
0.0
 71
     0
 42
2.5
  3
simplex
  4
bigfont
  0
STYLE
  5
1FC
330
3
100
AcDbSymbolTableRecord
100
AcDbTextStyleTableRecord
  2
EXCADDIM1
 70
     0
 40
0.0
 41
0.84
 50
0.0
 71
     0
 42
2.5
  3
simplex
  4
bigfont
  0
ENDTAB
  0
TABLE
  2
VIEW
  5
6
330
0
100
AcDbSymbolTable
 70
     0
  0
ENDTAB
  0
TABLE
  2
UCS
  5
7
330
0
100
AcDbSymbolTable
 70
     0
  0
ENDTAB
  0
TABLE
  2
APPID
  5
9
330
0
100
AcDbSymbolTable
 70
     2
  0
APPID
  5
12
330
9
100
AcDbSymbolTableRecord
100
AcDbRegAppTableRecord
  2
ACAD
 70
     0
  0
APPID
  5
2DF
330
9
100
AcDbSymbolTableRecord
100
AcDbRegAppTableRecord
  2
ACAD_MLEADERVER
 70
     0
  0
ENDTAB
  0
TABLE
  2
DIMSTYLE
  5
A
330
0
100
AcDbSymbolTable
 70
     1
  0
DIMSTYLE
105
27
102
{ACAD_REACTORS
330
1FD
330
21D
330
22A
330
237
330
244
330
251
330
25E
330
26B
330
278
102
}
330
A
100
AcDbSymbolTableRecord
100
AcDbDimStyleTableRecord
  2
ISO-25
 70
     0
  3

  4

  5

  6

  7

 40
1.0
 41
2.5
 42
0.625
 43
3.75
 44
1.25
 45
0.0
 46
0.0
 47
0.0
 48
0.0
140
2.5
141
2.5
142
0.0
143
0.03937007874016
144
1.0
145
0.0
146
1.0
147
0.625
 71
     0
 72
     0
 73
     0
 74
     0
 75
     0
 76
     0
 77
     1
 78
     8
170
     0
171
     3
172
     1
173
     0
174
     0
175
     0
176
     0
177
     0
178
     0
270
     2
271
     2
272
     2
273
     2
274
     3
340
11
275
     0
280
     0
281
     0
282
     0
283
     0
284
     8
285
     0
286
     0
287
     5
288
     0
  0
ENDTAB
  0
TABLE
  2
BLOCK_RECORD
  5
1
330
0
100
AcDbSymbolTable
 70
    23
  0
BLOCK_RECORD
  5
1F
330
1
100
AcDbSymbolTableRecord
100
AcDbBlockTableRecord
  2
*MODEL_SPACE
  0
BLOCK_RECORD
  5
1B
330
1
100
AcDbSymbolTableRecord
100
AcDbBlockTableRecord
  2
*PAPER_SPACE
  0
BLOCK_RECORD
  5
79
330
1
100
AcDbSymbolTableRecord
100
AcDbBlockTableRecord
  2
EX_NORM
  0
BLOCK_RECORD
  5
7C
330
1
100
AcDbSymbolTableRecord
100
AcDbBlockTableRecord
  2
EX_BNORM
  0
BLOCK_RECORD
  5
7F
330
1
100
AcDbSymbolTableRecord
100
AcDbBlockTableRecord
  2
EX_BCIR
  0
BLOCK_RECORD
  5
82
330
1
100
AcDbSymbolTableRecord
100
AcDbBlockTableRecord
  2
EX_RCIVIL
  0
BLOCK_RECORD
  5
85
330
1
100
AcDbSymbolTableRecord
100
AcDbBlockTableRecord
  2
EX_SLANT
  0
BLOCK_RECORD
  5
88
330
1
100
AcDbSymbolTableRecord
100
AcDbBlockTableRecord
  2
EX_NONE
  0
BLOCK_RECORD
  5
8B
330
1
100
AcDbSymbolTableRecord
100
AcDbBlockTableRecord
  2
EX_CIVIL
  0
BLOCK_RECORD
  5
8E
330
1
100
AcDbSymbolTableRecord
100
AcDbBlockTableRecord
  2
EX_WCIR
  0
BLOCK_RECORD
  5
91
330
1
100
AcDbSymbolTableRecord
100
AcDbBlockTableRecord
  2
EX_WCIR2
  0
BLOCK_RECORD
  5
94
330
1
100
AcDbSymbolTableRecord
100
AcDbBlockTableRecord
  2
EX_WNORM
  0
BLOCK_RECORD
  5
97
330
1
100
AcDbSymbolTableRecord
100
AcDbBlockTableRecord
  2
EX_NNORM
  0
BLOCK_RECORD
  5
9A
330
1
100
AcDbSymbolTableRecord
100
AcDbBlockTableRecord
  2
EX_BBOX
  0
BLOCK_RECORD
  5
9D
330
1
100
AcDbSymbolTableRecord
100
AcDbBlockTableRecord
  2
EX_WBOX
  0
BLOCK_RECORD
  5
A0
330
1
100
AcDbSymbolTableRecord
100
AcDbBlockTableRecord
  2
EX_INTEGRAL
  0
BLOCK_RECORD
  5
1FF
330
1
100
AcDbSymbolTableRecord
100
AcDbBlockTableRecord
  2
*D15
  0
BLOCK_RECORD
  5
21E
330
1
100
AcDbSymbolTableRecord
100
AcDbBlockTableRecord
  2
*D16
  0
BLOCK_RECORD
  5
22B
330
1
100
AcDbSymbolTableRecord
100
AcDbBlockTableRecord
  2
*D17
  0
BLOCK_RECORD
  5
238
330
1
100
AcDbSymbolTableRecord
100
AcDbBlockTableRecord
  2
*D18
  0
BLOCK_RECORD
  5
245
330
1
100
AcDbSymbolTableRecord
100
AcDbBlockTableRecord
  2
*D19
  0
BLOCK_RECORD
  5
252
330
1
100
AcDbSymbolTableRecord
100
AcDbBlockTableRecord
  2
*D20
  0
BLOCK_RECORD
  5
25F
330
1
100
AcDbSymbolTableRecord
100
AcDbBlockTableRecord
  2
*D21
  0
BLOCK_RECORD
  5
26C
330
1
100
AcDbSymbolTableRecord
100
AcDbBlockTableRecord
  2
*D22
  0
BLOCK_RECORD
  5
279
330
1
100
AcDbSymbolTableRecord
100
AcDbBlockTableRecord
  2
*D23
  0
ENDTAB
  0
ENDSEC
  0
SECTION
  2
BLOCKS
  0
BLOCK
  5
20
330
1F
100
AcDbEntity
  8
0
100
AcDbBlockBegin
  2
*MODEL_SPACE
 70
     0
 10
0.0
 20
0.0
 30
0.0
  3
*MODEL_SPACE
  1

  0
ENDBLK
  5
21
330
1F
100
AcDbEntity
  8
0
100
AcDbBlockEnd
  0
BLOCK
  5
1C
330
1B
100
AcDbEntity
 67
     1
  8
0
100
AcDbBlockBegin
  2
*PAPER_SPACE
 70
     0
 10
0.0
 20
0.0
 30
0.0
  3
*PAPER_SPACE
  1

  0
ENDBLK
  5
1D
330
1B
100
AcDbEntity
 67
     1
  8
0
100
AcDbBlockEnd
  0
BLOCK
  5
7A
330
79
100
AcDbEntity
  8
0
100
AcDbBlockBegin
  2
EX_NORM
 70
     0
 10
0.0
 20
0.0
 30
0.0
  3
EX_NORM
  1

  0
LINE
  5
A3
330
79
100
AcDbEntity
  8
0
  6
CONTINUOUS
 62
     0
100
AcDbLine
 10
0.0
 20
0.0
 30
0.0
 11
-1.0
 21
0.0
 31
0.0
  0
LINE
  5
A4
330
79
100
AcDbEntity
  8
0
  6
CONTINUOUS
 62
     0
100
AcDbLine
 10
0.0
 20
0.0
 30
0.0
 11
-1.0
 21
0.166666667
 31
0.0
  0
LINE
  5
A5
330
79
100
AcDbEntity
  8
0
  6
CONTINUOUS
 62
     0
100
AcDbLine
 10
0.0
 20
0.0
 30
0.0
 11
-1.0
 21
-0.166666667
 31
0.0
  0
ENDBLK
  5
7B
330
79
100
AcDbEntity
  8
0
100
AcDbBlockEnd
  0
BLOCK
  5
7D
330
7C
100
AcDbEntity
  8
0
100
AcDbBlockBegin
  2
EX_BNORM
 70
     0
 10
0.0
 20
0.0
 30
0.0
  3
EX_BNORM
  1

  0
LINE
  5
A6
330
7C
100
AcDbEntity
  8
0
  6
CONTINUOUS
 62
     0
100
AcDbLine
 10
0.0
 20
0.0
 30
0.0
 11
-1.0
 21
0.0
 31
0.0
  0
LINE
  5
A7
330
7C
100
AcDbEntity
  8
0
  6
CONTINUOUS
 62
     0
100
AcDbLine
 10
0.0
 20
0.0
 30
0.0
 11
-1.0
 21
0.166666667
 31
0.0
  0
LINE
  5
A8
330
7C
100
AcDbEntity
  8
0
  6
CONTINUOUS
 62
     0
100
AcDbLine
 10
0.0
 20
0.0
 30
0.0
 11
-1.0
 21
-0.166666667
 31
0.0
  0
LINE
  5
A9
330
7C
100
AcDbEntity
  8
0
  6
CONTINUOUS
 62
     0
100
AcDbLine
 10
0.0
 20
0.0
 30
0.0
 11
-1.0
 21
0.083333333
 31
0.0
  0
LINE
  5
AA
330
7C
100
AcDbEntity
  8
0
  6
CONTINUOUS
 62
     0
100
AcDbLine
 10
0.0
 20
0.0
 30
0.0
 11
-1.0
 21
-0.083333333
 31
0.0
  0
LINE
  5
AB
330
7C
100
AcDbEntity
  8
0
  6
CONTINUOUS
 62
     0
100
AcDbLine
 10
-1.0
 20
0.166666667
 30
0.0
 11
-1.0
 21
-0.166666667
 31
0.0
  0
ENDBLK
  5
7E
330
7C
100
AcDbEntity
  8
0
100
AcDbBlockEnd
  0
BLOCK
  5
80
330
7F
100
AcDbEntity
  8
0
100
AcDbBlockBegin
  2
EX_BCIR
 70
     0
 10
0.0
 20
0.0
 30
0.0
  3
EX_BCIR
  1

  0
LINE
  5
AC
330
7F
100
AcDbEntity
  8
0
  6
CONTINUOUS
 62
     0
100
AcDbLine
 10
0.0
 20
0.0
 30
0.0
 11
-1.0
 21
0.0
 31
0.0
  0
CIRCLE
  5
AD
330
7F
100
AcDbEntity
  8
0
  6
CONTINUOUS
 62
     0
100
AcDbCircle
 10
0.0
 20
0.0
 30
0.0
 40
0.5
  0
CIRCLE
  5
AE
330
7F
100
AcDbEntity
  8
0
  6
CONTINUOUS
 62
     0
100
AcDbCircle
 10
0.0
 20
0.0
 30
0.0
 40
0.25
  0
ENDBLK
  5
81
330
7F
100
AcDbEntity
  8
0
100
AcDbBlockEnd
  0
BLOCK
  5
83
330
82
100
AcDbEntity
  8
0
100
AcDbBlockBegin
  2
EX_RCIVIL
 70
     0
 10
0.0
 20
0.0
 30
0.0
  3
EX_RCIVIL
  1

  0
LINE
  5
AF
330
82
100
AcDbEntity
  8
0
  6
CONTINUOUS
 62
     0
100
AcDbLine
 10
0.0
 20
0.0
 30
0.0
 11
-1.0
 21
0.0
 31
0.0
  0
LINE
  5
B0
330
82
100
AcDbEntity
  8
0
  6
CONTINUOUS
 62
     0
100
AcDbLine
 10
-1.0
 20
-0.25
 30
0.0
 11
0.0
 21
-0.25
 31
0.0
  0
LINE
  5
B1
330
82
100
AcDbEntity
  8
0
  6
CONTINUOUS
 62
     0
100
AcDbLine
 10
-1.0
 20
-0.125
 30
0.0
 11
0.0
 21
-0.125
 31
0.0
  0
ENDBLK
  5
84
330
82
100
AcDbEntity
  8
0
100
AcDbBlockEnd
  0
BLOCK
  5
86
330
85
100
AcDbEntity
  8
0
100
AcDbBlockBegin
  2
EX_SLANT
 70
     0
 10
0.0
 20
0.0
 30
0.0
  3
EX_SLANT
  1

  0
LINE
  5
B2
330
85
100
AcDbEntity
  8
0
  6
CONTINUOUS
 62
     0
100
AcDbLine
 10
0.0
 20
0.0
 30
0.0
 11
-1.0
 21
0.0
 31
0.0
  0
LINE
  5
B3
330
85
100
AcDbEntity
  8
0
  6
CONTINUOUS
 62
     0
100
AcDbLine
 10
0.707106781
 20
0.707106781
 30
0.0
 11
-0.707106781
 21
-0.707106781
 31
0.0
  0
ENDBLK
  5
87
330
85
100
AcDbEntity
  8
0
100
AcDbBlockEnd
  0
BLOCK
  5
89
330
88
100
AcDbEntity
  8
0
100
AcDbBlockBegin
  2
EX_NONE
 70
     0
 10
0.0
 20
0.0
 30
0.0
  3
EX_NONE
  1

  0
LINE
  5
B4
330
88
100
AcDbEntity
  8
0
  6
CONTINUOUS
 62
     0
100
AcDbLine
 10
0.0
 20
0.0
 30
0.0
 11
-1.0
 21
0.0
 31
0.0
  0
ENDBLK
  5
8A
330
88
100
AcDbEntity
  8
0
100
AcDbBlockEnd
  0
BLOCK
  5
8C
330
8B
100
AcDbEntity
  8
0
100
AcDbBlockBegin
  2
EX_CIVIL
 70
     0
 10
0.0
 20
0.0
 30
0.0
  3
EX_CIVIL
  1

  0
LINE
  5
B5
330
8B
100
AcDbEntity
  8
0
  6
CONTINUOUS
 62
     0
100
AcDbLine
 10
0.0
 20
0.0
 30
0.0
 11
-1.0
 21
0.0
 31
0.0
  0
LINE
  5
B6
330
8B
100
AcDbEntity
  8
0
  6
CONTINUOUS
 62
     0
100
AcDbLine
 10
-1.0
 20
0.25
 30
0.0
 11
0.0
 21
0.25
 31
0.0
  0
LINE
  5
B7
330
8B
100
AcDbEntity
  8
0
  6
CONTINUOUS
 62
     0
100
AcDbLine
 10
-1.0
 20
0.125
 30
0.0
 11
0.0
 21
0.125
 31
0.0
  0
ENDBLK
  5
8D
330
8B
100
AcDbEntity
  8
0
100
AcDbBlockEnd
  0
BLOCK
  5
8F
330
8E
100
AcDbEntity
  8
0
100
AcDbBlockBegin
  2
EX_WCIR
 70
     0
 10
0.0
 20
0.0
 30
0.0
  3
EX_WCIR
  1

  0
LINE
  5
B8
330
8E
100
AcDbEntity
  8
0
  6
CONTINUOUS
 62
     0
100
AcDbLine
 10
0.0
 20
0.0
 30
0.0
 11
-1.0
 21
0.0
 31
0.0
  0
CIRCLE
  5
B9
330
8E
100
AcDbEntity
  8
0
  6
CONTINUOUS
 62
     0
100
AcDbCircle
 10
0.0
 20
0.0
 30
0.0
 40
0.5
  0
ENDBLK
  5
90
330
8E
100
AcDbEntity
  8
0
100
AcDbBlockEnd
  0
BLOCK
  5
92
330
91
100
AcDbEntity
  8
0
100
AcDbBlockBegin
  2
EX_WCIR2
 70
     0
 10
0.0
 20
0.0
 30
0.0
  3
EX_WCIR2
  1

  0
LINE
  5
BA
330
91
100
AcDbEntity
  8
0
  6
CONTINUOUS
 62
     0
100
AcDbLine
 10
-0.5
 20
0.0
 30
0.0
 11
-1.0
 21
0.0
 31
0.0
  0
CIRCLE
  5
BB
330
91
100
AcDbEntity
  8
0
  6
CONTINUOUS
 62
     0
100
AcDbCircle
 10
0.0
 20
0.0
 30
0.0
 40
0.5
  0
ENDBLK
  5
93
330
91
100
AcDbEntity
  8
0
100
AcDbBlockEnd
  0
BLOCK
  5
95
330
94
100
AcDbEntity
  8
0
100
AcDbBlockBegin
  2
EX_WNORM
 70
     0
 10
0.0
 20
0.0
 30
0.0
  3
EX_WNORM
  1

  0
LINE
  5
BC
330
94
100
AcDbEntity
  8
0
  6
CONTINUOUS
 62
     0
100
AcDbLine
 10
-1.0
 20
0.0
 30
0.0
 11
-1.0
 21
0.0
 31
0.0
  0
LINE
  5
BD
330
94
100
AcDbEntity
  8
0
  6
CONTINUOUS
 62
     0
100
AcDbLine
 10
0.0
 20
0.0
 30
0.0
 11
-1.0
 21
0.166666667
 31
0.0
  0
LINE
  5
BE
330
94
100
AcDbEntity
  8
0
  6
CONTINUOUS
 62
     0
100
AcDbLine
 10
0.0
 20
0.0
 30
0.0
 11
-1.0
 21
-0.166666667
 31
0.0
  0
LINE
  5
BF
330
94
100
AcDbEntity
  8
0
  6
CONTINUOUS
 62
     0
100
AcDbLine
 10
-1.0
 20
0.166666667
 30
0.0
 11
-1.0
 21
-0.166666667
 31
0.0
  0
ENDBLK
  5
96
330
94
100
AcDbEntity
  8
0
100
AcDbBlockEnd
  0
BLOCK
  5
98
330
97
100
AcDbEntity
  8
0
100
AcDbBlockBegin
  2
EX_NNORM
 70
     0
 10
0.0
 20
0.0
 30
0.0
  3
EX_NNORM
  1

  0
LINE
  5
C0
330
97
100
AcDbEntity
  8
0
  6
CONTINUOUS
 62
     0
100
AcDbLine
 10
0.0
 20
0.0
 30
0.0
 11
-1.0
 21
0.0
 31
0.0
  0
LINE
  5
C1
330
97
100
AcDbEntity
  8
0
  6
CONTINUOUS
 62
     0
100
AcDbLine
 10
0.0
 20
0.0
 30
0.0
 11
-1.0
 21
0.166666667
 31
0.0
  0
LINE
  5
C2
330
97
100
AcDbEntity
  8
0
  6
CONTINUOUS
 62
     0
100
AcDbLine
 10
0.0
 20
0.0
 30
0.0
 11
-1.0
 21
-0.166666667
 31
0.0
  0
LINE
  5
C3
330
97
100
AcDbEntity
  8
0
  6
CONTINUOUS
 62
     0
100
AcDbLine
 10
-1.0
 20
0.166666667
 30
0.0
 11
-1.0
 21
-0.166666667
 31
0.0
  0
ENDBLK
  5
99
330
97
100
AcDbEntity
  8
0
100
AcDbBlockEnd
  0
BLOCK
  5
9B
330
9A
100
AcDbEntity
  8
0
100
AcDbBlockBegin
  2
EX_BBOX
 70
     0
 10
0.0
 20
0.0
 30
0.0
  3
EX_BBOX
  1

  0
LINE
  5
C4
330
9A
100
AcDbEntity
  8
0
  6
CONTINUOUS
 62
     0
100
AcDbLine
 10
0.0
 20
0.0
 30
0.0
 11
-1.0
 21
0.0
 31
0.0
  0
LINE
  5
C5
330
9A
100
AcDbEntity
  8
0
  6
CONTINUOUS
 62
     0
100
AcDbLine
 10
-0.5
 20
0.5
 30
0.0
 11
0.5
 21
0.5
 31
0.0
  0
LINE
  5
C6
330
9A
100
AcDbEntity
  8
0
  6
CONTINUOUS
 62
     0
100
AcDbLine
 10
0.5
 20
0.5
 30
0.0
 11
0.5
 21
-0.5
 31
0.0
  0
LINE
  5
C7
330
9A
100
AcDbEntity
  8
0
  6
CONTINUOUS
 62
     0
100
AcDbLine
 10
0.5
 20
-0.5
 30
0.0
 11
-0.5
 21
-0.5
 31
0.0
  0
LINE
  5
C8
330
9A
100
AcDbEntity
  8
0
  6
CONTINUOUS
 62
     0
100
AcDbLine
 10
-0.5
 20
-0.5
 30
0.0
 11
-0.5
 21
0.5
 31
0.0
  0
LINE
  5
C9
330
9A
100
AcDbEntity
  8
0
  6
CONTINUOUS
 62
     0
100
AcDbLine
 10
-0.25
 20
0.25
 30
0.0
 11
0.25
 21
0.25
 31
0.0
  0
LINE
  5
CA
330
9A
100
AcDbEntity
  8
0
  6
CONTINUOUS
 62
     0
100
AcDbLine
 10
0.25
 20
0.25
 30
0.0
 11
0.25
 21
-0.25
 31
0.0
  0
LINE
  5
CB
330
9A
100
AcDbEntity
  8
0
  6
CONTINUOUS
 62
     0
100
AcDbLine
 10
0.25
 20
-0.25
 30
0.0
 11
-0.25
 21
-0.25
 31
0.0
  0
LINE
  5
CC
330
9A
100
AcDbEntity
  8
0
  6
CONTINUOUS
 62
     0
100
AcDbLine
 10
-0.25
 20
-0.25
 30
0.0
 11
-0.25
 21
0.25
 31
0.0
  0
ENDBLK
  5
9C
330
9A
100
AcDbEntity
  8
0
100
AcDbBlockEnd
  0
BLOCK
  5
9E
330
9D
100
AcDbEntity
  8
0
100
AcDbBlockBegin
  2
EX_WBOX
 70
     0
 10
0.0
 20
0.0
 30
0.0
  3
EX_WBOX
  1

  0
LINE
  5
CD
330
9D
100
AcDbEntity
  8
0
  6
CONTINUOUS
 62
     0
100
AcDbLine
 10
-0.5
 20
0.0
 30
0.0
 11
-1.0
 21
0.0
 31
0.0
  0
LINE
  5
CE
330
9D
100
AcDbEntity
  8
0
  6
CONTINUOUS
 62
     0
100
AcDbLine
 10
-0.5
 20
0.5
 30
0.0
 11
0.5
 21
0.5
 31
0.0
  0
LINE
  5
CF
330
9D
100
AcDbEntity
  8
0
  6
CONTINUOUS
 62
     0
100
AcDbLine
 10
0.5
 20
0.5
 30
0.0
 11
0.5
 21
-0.5
 31
0.0
  0
LINE
  5
D0
330
9D
100
AcDbEntity
  8
0
  6
CONTINUOUS
 62
     0
100
AcDbLine
 10
0.5
 20
-0.5
 30
0.0
 11
-0.5
 21
-0.5
 31
0.0
  0
LINE
  5
D1
330
9D
100
AcDbEntity
  8
0
  6
CONTINUOUS
 62
     0
100
AcDbLine
 10
-0.5
 20
-0.5
 30
0.0
 11
-0.5
 21
0.5
 31
0.0
  0
ENDBLK
  5
9F
330
9D
100
AcDbEntity
  8
0
100
AcDbBlockEnd
  0
BLOCK
  5
A1
330
A0
100
AcDbEntity
  8
0
100
AcDbBlockBegin
  2
EX_INTEGRAL
 70
     0
 10
0.0
 20
0.0
 30
0.0
  3
EX_INTEGRAL
  1

  0
LINE
  5
D2
330
A0
100
AcDbEntity
  8
0
  6
CONTINUOUS
 62
     0
100
AcDbLine
 10
0.0
 20
0.0
 30
0.0
 11
-1.0
 21
0.0
 31
0.0
  0
ARC
  5
D3
330
A0
100
AcDbEntity
  8
0
  6
CONTINUOUS
 62
     0
100
AcDbCircle
 10
0.542115
 20
0.164992
 30
0.0
 40
0.56667
100
AcDbArc
 50
73.07249033629006
 51
196.9275130221199
  0
ARC
  5
D4
330
A0
100
AcDbEntity
  8
0
  6
CONTINUOUS
 62
     0
100
AcDbCircle
 10
-0.542115
 20
-0.164992
 30
0.0
 40
0.56667
100
AcDbArc
 50
253.0724869220464
 51
16.9275130559125
  0
ENDBLK
  5
A2
330
A0
100
AcDbEntity
  8
0
100
AcDbBlockEnd
  0
BLOCK
  5
200
330
1FF
100
AcDbEntity
  8
0
100
AcDbBlockBegin
  2
*D15
 70
     1
 10
0.0
 20
0.0
 30
0.0
  3
*D15
  1

  0
LINE
  5
202
330
1FF
100
AcDbEntity
  8
LAY-10
  6
CONTINUOUS
 62
     4
100
AcDbLine
 10
125.28820958125
 20
93.8
 30
0.0
 11
125.28820958125
 21
127.8
 31
0.0
  0
LINE
  5
203
330
1FF
100
AcDbEntity
  8
LAY-10
  6
CONTINUOUS
 62
     4
100
AcDbLine
 10
222.28820958125
 20
93.8
 30
0.0
 11
222.28820958125
 21
127.8
 31
0.0
  0
LINE
  5
204
330
1FF
100
AcDbEntity
  8
LAY-10
  6
CONTINUOUS
 62
     4
100
AcDbLine
 10
127.78820958125
 20
126.3
 30
0.0
 11
219.78820958125
 21
126.3
 31
0.0
  0
INSERT
  5
205
330
1FF
100
AcDbEntity
  8
LAY-10
 62
     4
100
AcDbBlockReference
  2
EX_BNORM
 10
125.28820958125
 20
126.3
 30
0.0
 41
2.5
 42
2.5
 43
2.5
 50
180.0
  0
INSERT
  5
206
330
1FF
100
AcDbEntity
  8
LAY-10
 62
     4
100
AcDbBlockReference
  2
EX_BNORM
 10
222.28820958125
 20
126.3
 30
0.0
 41
2.5
 42
2.5
 43
2.5
  0
MTEXT
  5
207
330
1FF
100
AcDbEntity
  8
LAY-10
 62
     7
100
AcDbMText
 10
173.78820958125
 20
128.8
 30
0.0
 40
3.1181104
 41
0.0
 71
     5
 72
     1
  1
%%c97
  7
EXCADDIM1
  0
POINT
  5
208
330
1FF
100
AcDbEntity
  8
DEFPOINTS
 62
     0
100
AcDbPoint
 10
125.28820958125
 20
92.3
 30
0.0
  0
POINT
  5
209
330
1FF
100
AcDbEntity
  8
DEFPOINTS
 62
     0
100
AcDbPoint
 10
222.28820958125
 20
92.3
 30
0.0
  0
POINT
  5
20A
330
1FF
100
AcDbEntity
  8
DEFPOINTS
 62
     0
100
AcDbPoint
 10
222.28820958125
 20
126.3
 30
0.0
  0
ENDBLK
  5
201
330
1FF
100
AcDbEntity
  8
0
100
AcDbBlockEnd
  0
BLOCK
  5
21F
330
21E
100
AcDbEntity
  8
0
100
AcDbBlockBegin
  2
*D16
 70
     1
 10
0.0
 20
0.0
 30
0.0
  3
*D16
  1

  0
LINE
  5
221
330
21E
100
AcDbEntity
  8
LAY-20
  6
CONTINUOUS
 62
     4
100
AcDbLine
 10
111.28820958125
 20
93.3
 30
0.0
 11
111.28820958125
 21
134.8
 31
0.0
  0
LINE
  5
222
330
21E
100
AcDbEntity
  8
LAY-20
  6
CONTINUOUS
 62
     4
100
AcDbLine
 10
236.28820958125
 20
93.3
 30
0.0
 11
236.28820958125
 21
134.8
 31
0.0
  0
LINE
  5
223
330
21E
100
AcDbEntity
  8
LAY-20
  6
CONTINUOUS
 62
     4
100
AcDbLine
 10
114.28820958125
 20
133.3
 30
0.0
 11
233.28820958125
 21
133.3
 31
0.0
  0
INSERT
  5
224
330
21E
100
AcDbEntity
  8
LAY-20
 62
     4
100
AcDbBlockReference
  2
EX_BNORM
 10
111.28820958125
 20
133.3
 30
0.0
 41
3.0
 42
3.0
 43
3.0
 50
180.0
  0
INSERT
  5
225
330
21E
100
AcDbEntity
  8
LAY-20
 62
     4
100
AcDbBlockReference
  2
EX_BNORM
 10
236.28820958125
 20
133.3
 30
0.0
 41
3.0
 42
3.0
 43
3.0
  0
MTEXT
  5
226
330
21E
100
AcDbEntity
  8
LAY-20
 62
     7
100
AcDbMText
 10
173.78820958125
 20
135.8
 30
0.0
 40
3.1181104
 41
0.0
 71
     5
 72
     1
  1
%%c125
  7
EXCADDIM1
  0
POINT
  5
227
330
21E
100
AcDbEntity
  8
DEFPOINTS
 62
     0
100
AcDbPoint
 10
111.28820958125
 20
91.8
 30
0.0
  0
POINT
  5
228
330
21E
100
AcDbEntity
  8
DEFPOINTS
 62
     0
100
AcDbPoint
 10
236.28820958125
 20
91.8
 30
0.0
  0
POINT
  5
229
330
21E
100
AcDbEntity
  8
DEFPOINTS
 62
     0
100
AcDbPoint
 10
236.28820958125
 20
133.3
 30
0.0
  0
ENDBLK
  5
220
330
21E
100
AcDbEntity
  8
0
100
AcDbBlockEnd
  0
BLOCK
  5
22C
330
22B
100
AcDbEntity
  8
0
100
AcDbBlockBegin
  2
*D17
 70
     1
 10
0.0
 20
0.0
 30
0.0
  3
*D17
  1

  0
LINE
  5
22E
330
22B
100
AcDbEntity
  8
LAY-20
  6
CONTINUOUS
 62
     4
100
AcDbLine
 10
150.28820958127
 20
93.8
 30
0.0
 11
150.28820958127
 21
120.8
 31
0.0
  0
LINE
  5
22F
330
22B
100
AcDbEntity
  8
LAY-20
  6
CONTINUOUS
 62
     4
100
AcDbLine
 10
197.28820958125
 20
93.799999999998
 30
0.0
 11
197.28820958125
 21
120.8
 31
0.0
  0
LINE
  5
230
330
22B
100
AcDbEntity
  8
LAY-20
  6
CONTINUOUS
 62
     4
100
AcDbLine
 10
153.28820958127
 20
119.3
 30
0.0
 11
194.28820958125
 21
119.3
 31
0.0
  0
INSERT
  5
231
330
22B
100
AcDbEntity
  8
LAY-20
 62
     4
100
AcDbBlockReference
  2
EX_BNORM
 10
150.28820958127
 20
119.3
 30
0.0
 41
3.0
 42
3.0
 43
3.0
 50
180.0
  0
INSERT
  5
232
330
22B
100
AcDbEntity
  8
LAY-20
 62
     4
100
AcDbBlockReference
  2
EX_BNORM
 10
197.28820958125
 20
119.3
 30
0.0
 41
3.0
 42
3.0
 43
3.0
  0
MTEXT
  5
233
330
22B
100
AcDbEntity
  8
LAY-20
 62
     7
100
AcDbMText
 10
173.78820958126
 20
121.8
 30
0.0
 40
3.1181104
 41
0.0
 71
     5
 72
     1
  1
%%c47
  7
EXCADDIM1
  0
POINT
  5
234
330
22B
100
AcDbEntity
  8
DEFPOINTS
 62
     0
100
AcDbPoint
 10
150.28820958127
 20
92.3
 30
0.0
  0
POINT
  5
235
330
22B
100
AcDbEntity
  8
DEFPOINTS
 62
     0
100
AcDbPoint
 10
197.28820958125
 20
92.299999999998
 30
0.0
  0
POINT
  5
236
330
22B
100
AcDbEntity
  8
DEFPOINTS
 62
     0
100
AcDbPoint
 10
197.28820958125
 20
119.3
 30
0.0
  0
ENDBLK
  5
22D
330
22B
100
AcDbEntity
  8
0
100
AcDbBlockEnd
  0
BLOCK
  5
239
330
238
100
AcDbEntity
  8
0
100
AcDbBlockBegin
  2
*D18
 70
     1
 10
0.0
 20
0.0
 30
0.0
  3
*D18
  1

  0
LINE
  5
23B
330
238
100
AcDbEntity
  8
LAY-20
  6
CONTINUOUS
 62
     4
100
AcDbLine
 10
237.28820958125
 20
92.3
 30
0.0
 11
247.78820958125
 21
92.3
 31
0.0
  0
LINE
  5
23C
330
238
100
AcDbEntity
  8
LAY-20
  6
CONTINUOUS
 62
     4
100
AcDbLine
 10
221.53820958125
 20
34.30000000000001
 30
0.0
 11
247.78820958125
 21
34.30000000000001
 31
0.0
  0
LINE
  5
23D
330
238
100
AcDbEntity
  8
LAY-20
  6
CONTINUOUS
 62
     4
100
AcDbLine
 10
246.28820958125
 20
89.3
 30
0.0
 11
246.28820958125
 21
37.30000000000001
 31
0.0
  0
INSERT
  5
23E
330
238
100
AcDbEntity
  8
LAY-20
 62
     4
100
AcDbBlockReference
  2
EX_BNORM
 10
246.28820958125
 20
92.3
 30
0.0
 41
3.0
 42
3.0
 43
3.0
 50
90.0
  0
INSERT
  5
23F
330
238
100
AcDbEntity
  8
LAY-20
 62
     4
100
AcDbBlockReference
  2
EX_BNORM
 10
246.28820958125
 20
34.30000000000001
 30
0.0
 41
3.0
 42
3.0
 43
3.0
 50
270.0
  0
MTEXT
  5
240
330
238
100
AcDbEntity
  8
LAY-20
 62
     7
100
AcDbMText
 10
243.78820958125
 20
63.3
 30
0.0
 40
3.1181104
 41
0.0
 71
     5
 72
     1
  1
58
  7
EXCADDIM1
 11
0.0
 21
1.0
 31
0.0
  0
POINT
  5
241
330
238
100
AcDbEntity
  8
DEFPOINTS
 62
     0
100
AcDbPoint
 10
235.78820958125
 20
92.3
 30
0.0
  0
POINT
  5
242
330
238
100
AcDbEntity
  8
DEFPOINTS
 62
     0
100
AcDbPoint
 10
220.03820958125
 20
34.30000000000001
 30
0.0
  0
POINT
  5
243
330
238
100
AcDbEntity
  8
DEFPOINTS
 62
     0
100
AcDbPoint
 10
246.28820958125
 20
34.30000000000001
 30
0.0
  0
ENDBLK
  5
23A
330
238
100
AcDbEntity
  8
0
100
AcDbBlockEnd
  0
BLOCK
  5
246
330
245
100
AcDbEntity
  8
0
100
AcDbBlockBegin
  2
*D19
 70
     1
 10
0.0
 20
0.0
 30
0.0
  3
*D19
  1

  0
LINE
  5
248
330
245
100
AcDbEntity
  8
LAY-20
  6
CONTINUOUS
 62
     4
100
AcDbLine
 10
133.79002656229
 20
56.30000000000001
 30
0.0
 11
133.79002656229
 21
22.80000000000001
 31
0.0
  0
LINE
  5
249
330
245
100
AcDbEntity
  8
LAY-20
  6
CONTINUOUS
 62
     4
100
AcDbLine
 10
213.786392600214
 20
56.30000000000001
 30
0.0
 11
213.786392600214
 21
22.80000000000001
 31
0.0
  0
LINE
  5
24A
330
245
100
AcDbEntity
  8
LAY-20
  6
CONTINUOUS
 62
     4
100
AcDbLine
 10
136.79002656229
 20
24.30000000000001
 30
0.0
 11
210.786392600214
 21
24.30000000000001
 31
0.0
  0
INSERT
  5
24B
330
245
100
AcDbEntity
  8
LAY-20
 62
     4
100
AcDbBlockReference
  2
EX_BNORM
 10
133.79002656229
 20
24.30000000000001
 30
0.0
 41
3.0
 42
3.0
 43
3.0
 50
180.0
  0
INSERT
  5
24C
330
245
100
AcDbEntity
  8
LAY-20
 62
     4
100
AcDbBlockReference
  2
EX_BNORM
 10
213.786392600214
 20
24.30000000000001
 30
0.0
 41
3.0
 42
3.0
 43
3.0
  0
MTEXT
  5
24D
330
245
100
AcDbEntity
  8
LAY-20
 62
     7
100
AcDbMText
 10
173.788209581252
 20
26.80000000000001
 30
0.0
 40
3.1181104
 41
0.0
 71
     5
 72
     1
  1
%%c80
  7
EXCADDIM1
  0
POINT
  5
24E
330
245
100
AcDbEntity
  8
DEFPOINTS
 62
     0
100
AcDbPoint
 10
133.79002656229
 20
57.80000000000001
 30
0.0
  0
POINT
  5
24F
330
245
100
AcDbEntity
  8
DEFPOINTS
 62
     0
100
AcDbPoint
 10
213.786392600214
 20
57.80000000000001
 30
0.0
  0
POINT
  5
250
330
245
100
AcDbEntity
  8
DEFPOINTS
 62
     0
100
AcDbPoint
 10
213.786392600214
 20
24.30000000000001
 30
0.0
  0
ENDBLK
  5
247
330
245
100
AcDbEntity
  8
0
100
AcDbBlockEnd
  0
BLOCK
  5
253
330
252
100
AcDbEntity
  8
0
100
AcDbBlockBegin
  2
*D20
 70
     1
 10
0.0
 20
0.0
 30
0.0
  3
*D20
  1

  0
LINE
  5
255
330
252
100
AcDbEntity
  8
LAY-20
  6
CONTINUOUS
 62
     4
100
AcDbLine
 10
129.84620958125
 20
32.79999999999799
 30
0.0
 11
129.84620958125
 21
15.80000000000001
 31
0.0
  0
LINE
  5
256
330
252
100
AcDbEntity
  8
LAY-20
  6
CONTINUOUS
 62
     4
100
AcDbLine
 10
217.73020958125
 20
32.79999999999799
 30
0.0
 11
217.73020958125
 21
15.80000000000001
 31
0.0
  0
LINE
  5
257
330
252
100
AcDbEntity
  8
LAY-20
  6
CONTINUOUS
 62
     4
100
AcDbLine
 10
132.84620958125
 20
17.30000000000001
 30
0.0
 11
214.73020958125
 21
17.30000000000001
 31
0.0
  0
INSERT
  5
258
330
252
100
AcDbEntity
  8
LAY-20
 62
     4
100
AcDbBlockReference
  2
EX_BNORM
 10
129.84620958125
 20
17.30000000000001
 30
0.0
 41
3.0
 42
3.0
 43
3.0
 50
180.0
  0
INSERT
  5
259
330
252
100
AcDbEntity
  8
LAY-20
 62
     4
100
AcDbBlockReference
  2
EX_BNORM
 10
217.73020958125
 20
17.30000000000001
 30
0.0
 41
3.0
 42
3.0
 43
3.0
  0
MTEXT
  5
25A
330
252
100
AcDbEntity
  8
LAY-20
 62
     7
100
AcDbMText
 10
173.78820958125
 20
19.80000000000001
 30
0.0
 40
3.1181104
 41
0.0
 71
     5
 72
     1
  1
Ｇ3（87.8）
  7
EXCADDIM1
  0
POINT
  5
25B
330
252
100
AcDbEntity
  8
DEFPOINTS
 62
     0
100
AcDbPoint
 10
129.84620958125
 20
34.29999999999799
 30
0.0
  0
POINT
  5
25C
330
252
100
AcDbEntity
  8
DEFPOINTS
 62
     0
100
AcDbPoint
 10
217.73020958125
 20
34.29999999999799
 30
0.0
  0
POINT
  5
25D
330
252
100
AcDbEntity
  8
DEFPOINTS
 62
     0
100
AcDbPoint
 10
217.73020958125
 20
17.30000000000001
 30
0.0
  0
ENDBLK
  5
254
330
252
100
AcDbEntity
  8
0
100
AcDbBlockEnd
  0
BLOCK
  5
260
330
25F
100
AcDbEntity
  8
0
100
AcDbBlockBegin
  2
*D21
 70
     1
 10
0.0
 20
0.0
 30
0.0
  3
*D21
  1

  0
LINE
  5
262
330
25F
100
AcDbEntity
  8
LAY-20
  6
CONTINUOUS
 62
     4
100
AcDbLine
 10
140.8
 20
88.299999999998
 30
0.0
 11
140.8
 21
92.3
 31
0.0
  0
LINE
  5
263
330
25F
100
AcDbEntity
  8
LAY-20
  6
CONTINUOUS
 62
     4
100
AcDbLine
 10
140.8
 20
85.299999999998
 30
0.0
 11
140.8
 21
82.299999999998
 31
0.0
  0
LINE
  5
264
330
25F
100
AcDbEntity
  8
LAY-20
  6
CONTINUOUS
 62
     4
100
AcDbLine
 10
140.8
 20
95.3
 30
0.0
 11
140.8
 21
98.3
 31
0.0
  0
INSERT
  5
265
330
25F
100
AcDbEntity
  8
LAY-20
 62
     4
100
AcDbBlockReference
  2
EX_BNORM
 10
140.8
 20
88.299999999998
 30
0.0
 41
3.0
 42
3.0
 43
3.0
 50
90.0
  0
INSERT
  5
266
330
25F
100
AcDbEntity
  8
LAY-20
 62
     4
100
AcDbBlockReference
  2
EX_BNORM
 10
140.8
 20
92.3
 30
0.0
 41
3.0
 42
3.0
 43
3.0
 50
270.0
  0
MTEXT
  5
267
330
25F
100
AcDbEntity
  8
LAY-20
 62
     7
100
AcDbMText
 10
138.3
 20
97.29999999999994
 30
0.0
 40
3.1181104
 41
0.0
 71
     5
 72
     1
  1
4
  7
EXCADDIM1
 11
0.0
 21
1.0
 31
0.0
  0
POINT
  5
268
330
25F
100
AcDbEntity
  8
DEFPOINTS
 62
     0
100
AcDbPoint
 10
140.8
 20
88.299999999998
 30
0.0
  0
POINT
  5
269
330
25F
100
AcDbEntity
  8
DEFPOINTS
 62
     0
100
AcDbPoint
 10
140.8
 20
92.3
 30
0.0
  0
POINT
  5
26A
330
25F
100
AcDbEntity
  8
DEFPOINTS
 62
     0
100
AcDbPoint
 10
140.8
 20
92.3
 30
0.0
  0
ENDBLK
  5
261
330
25F
100
AcDbEntity
  8
0
100
AcDbBlockEnd
  0
BLOCK
  5
26D
330
26C
100
AcDbEntity
  8
0
100
AcDbBlockBegin
  2
*D22
 70
     1
 10
0.0
 20
0.0
 30
0.0
  3
*D22
  1

  0
LINE
  5
26F
330
26C
100
AcDbEntity
  8
LAY-20
  6
CONTINUOUS
 62
     4
100
AcDbLine
 10
219.8885700021999
 20
80.10878813660811
 30
0.0
 11
224.3202048907548
 21
79.32737133710712
 31
0.0
  0
LINE
  5
270
330
26C
100
AcDbEntity
  8
LAY-20
  6
CONTINUOUS
 62
     4
100
AcDbLine
 10
216.9341467431632
 20
80.62973266960877
 30
0.0
 11
213.9797234841266
 21
81.15067720260943
 31
0.0
  0
LINE
  5
271
330
26C
100
AcDbEntity
  8
LAY-20
  6
CONTINUOUS
 62
     4
100
AcDbLine
 10
227.2746281497915
 20
78.80642680410647
 30
0.0
 11
230.2290514088281
 21
78.2854822711058
 31
0.0
  0
INSERT
  5
272
330
26C
100
AcDbEntity
  8
LAY-20
 62
     4
100
AcDbBlockReference
  2
EX_BNORM
 10
219.8885700021999
 20
80.10878813660811
 30
0.0
 41
3.0
 42
3.0
 43
3.0
 50
350.0000000000026
  0
INSERT
  5
273
330
26C
100
AcDbEntity
  8
LAY-20
 62
     4
100
AcDbBlockReference
  2
EX_BNORM
 10
224.3202048907548
 20
79.32737133710712
 30
0.0
 41
3.0
 42
3.0
 43
3.0
 50
170.0000000000026
  0
MTEXT
  5
274
330
26C
100
AcDbEntity
  8
LAY-20
 62
     7
100
AcDbMText
 10
231.6479796060076
 20
80.5738534759694
 30
0.0
 40
3.1181104
 41
0.0
 71
     5
 72
     1
  1
4.5
  7
EXCADDIM1
 11
0.9848077530122159
 21
-0.1736481776668859
 31
0.0
  0
POINT
  5
275
330
26C
100
AcDbEntity
  8
DEFPOINTS
 62
     0
100
AcDbPoint
 10
219.8885700021999
 20
80.10878813660811
 30
0.0
  0
POINT
  5
276
330
26C
100
AcDbEntity
  8
DEFPOINTS
 62
     0
100
AcDbPoint
 10
224.3202048907548
 20
79.32737133710712
 30
0.0
  0
POINT
  5
277
330
26C
100
AcDbEntity
  8
DEFPOINTS
 62
     0
100
AcDbPoint
 10
224.3202048907548
 20
79.32737133710712
 30
0.0
  0
ENDBLK
  5
26E
330
26C
100
AcDbEntity
  8
0
100
AcDbBlockEnd
  0
BLOCK
  5
27A
330
279
100
AcDbEntity
  8
0
100
AcDbBlockBegin
  2
*D23
 70
     1
 10
0.0
 20
0.0
 30
0.0
  3
*D23
  1

  0
LINE
  5
27C
330
279
100
AcDbEntity
  8
LAY-20
  6
CONTINUOUS
 62
     4
100
AcDbLine
 10
205.8
 20
37.30000000000001
 30
0.0
 11
205.8
 21
50.30000000000001
 31
0.0
  0
INSERT
  5
27D
330
279
100
AcDbEntity
  8
LAY-20
 62
     4
100
AcDbBlockReference
  2
EX_BNORM
 10
205.8
 20
34.30000000000001
 30
0.0
 41
3.0
 42
3.0
 43
3.0
 50
270.0
  0
INSERT
  5
27E
330
279
100
AcDbEntity
  8
LAY-20
 62
     4
100
AcDbBlockReference
  2
EX_BNORM
 10
205.8
 20
53.30000000000001
 30
0.0
 41
3.0
 42
3.0
 43
3.0
 50
90.0
  0
MTEXT
  5
27F
330
279
100
AcDbEntity
  8
LAY-20
 62
     7
100
AcDbMText
 10
203.3
 20
43.80000000000001
 30
0.0
 40
3.1181104
 41
0.0
 71
     5
 72
     1
  1
19
  7
EXCADDIM1
 11
0.0
 21
1.0
 31
0.0
  0
POINT
  5
280
330
279
100
AcDbEntity
  8
DEFPOINTS
 62
     0
100
AcDbPoint
 10
205.8
 20
34.30000000000001
 30
0.0
  0
POINT
  5
281
330
279
100
AcDbEntity
  8
DEFPOINTS
 62
     0
100
AcDbPoint
 10
205.8
 20
53.30000000000001
 30
0.0
  0
POINT
  5
282
330
279
100
AcDbEntity
  8
DEFPOINTS
 62
     0
100
AcDbPoint
 10
205.8
 20
53.30000000000001
 30
0.0
  0
ENDBLK
  5
27B
330
279
100
AcDbEntity
  8
0
100
AcDbBlockEnd
  0
ENDSEC
  0
SECTION
  2
ENTITIES
  0
CIRCLE
  5
D5
330
1F
100
AcDbEntity
  8
LAY-10
  6
CONTINUOUS
 62
     7
100
AcDbCircle
 10
173.78820958125
 20
207.3
 30
0.0
 40
6.000000000000004
  0
LINE
  5
D6
330
1F
100
AcDbEntity
  8
LAY-10
  6
CONTINUOUS
 62
     7
100
AcDbLine
 10
176.3006965812499
 20
213.910145
 30
0.0
 11
176.3006965812499
 21
212.7486149999999
 31
0.0
  0
LINE
  5
D7
330
1F
100
AcDbEntity
  8
LAY-10
  6
CONTINUOUS
 62
     7
100
AcDbLine
 10
174.3006965812499
 20
215.1796169999999
 30
0.0
 11
174.3006965812499
 21
213.278073
 31
0.0
  0
ARC
  5
D8
330
1F
100
AcDbEntity
  8
LAY-10
  6
CONTINUOUS
 62
     7
100
AcDbCircle
 10
196.3006965812499
 20
207.295735
 30
0.0
 40
5.0
100
AcDbArc
 50
278.5714970000005
 51
352.065093
  0
LINE
  5
D9
330
1F
100
AcDbEntity
  8
LAY-10
  6
CONTINUOUS
 62
     7
100
AcDbLine
 10
197.00312558125
 20
210.1929939999999
 30
0.0
 11
177.53487058125
 21
214.8823399999999
 31
0.0
  0
LINE
  5
DA
330
1F
100
AcDbEntity
  8
LAY-10
  6
CONTINUOUS
 62
     7
100
AcDbLine
 10
197.00312558125
 20
204.3984759999999
 30
0.0
 11
177.53487058125
 21
199.7091299999999
 31
0.0
  0
ARC
  5
DB
330
1F
100
AcDbEntity
  8
LAY-10
  6
CONTINUOUS
 62
     7
100
AcDbCircle
 10
196.3006035812499
 20
207.276409
 30
0.0
 40
3.000000000000002
100
AcDbArc
 50
21.81192399999951
 51
76.45706599999922
  0
ARC
  5
DC
330
1F
100
AcDbEntity
  8
LAY-10
  6
CONTINUOUS
 62
     7
100
AcDbCircle
 10
196.3006035812499
 20
207.3150599999999
 30
0.0
 40
3.000000000000002
100
AcDbArc
 50
283.5429340000007
 51
342.2139209999998
  0
ARC
  5
DD
330
1F
100
AcDbEntity
  8
LAY-10
  6
CONTINUOUS
 62
     7
100
AcDbCircle
 10
176.3006965812499
 20
215.1796169999999
 30
0.0
 40
2.0
100
AcDbArc
 50
76.45706599999939
 51
180.0
  0
ARC
  5
DE
330
1F
100
AcDbEntity
  8
LAY-10
  6
CONTINUOUS
 62
     7
100
AcDbCircle
 10
176.3006965812499
 20
199.411852
 30
0.0
 40
2.0
100
AcDbArc
 50
180.0
 51
283.5429340000006
  0
ARC
  5
DF
330
1F
100
AcDbEntity
  8
LAY-10
  6
CONTINUOUS
 62
     7
100
AcDbCircle
 10
177.3006965812499
 20
213.910145
 30
0.0
 40
1.0
100
AcDbArc
 50
76.45706599999583
 51
180.0
  0
ARC
  5
E0
330
1F
100
AcDbEntity
  8
LAY-10
  6
CONTINUOUS
 62
     7
100
AcDbCircle
 10
177.3006965812499
 20
200.6813239999999
 30
0.0
 40
1.0
100
AcDbArc
 50
180.0
 51
283.5429340000043
  0
LINE
  5
E1
330
1F
100
AcDbEntity
  8
LAY-10
  6
CONTINUOUS
 62
     7
100
AcDbLine
 10
176.3006965812499
 20
201.851385
 30
0.0
 11
176.3006965812499
 21
200.6813239999999
 31
0.0
  0
LINE
  5
E2
330
1F
100
AcDbEntity
  8
LAY-10
  6
CONTINUOUS
 62
     7
100
AcDbLine
 10
174.3006965812499
 20
201.3219269999999
 30
0.0
 11
174.3006965812499
 21
199.411852
 31
0.0
  0
ARC
  5
E3
330
1F
100
AcDbEntity
  8
LAY-10
  6
CONTINUOUS
 62
     7
100
AcDbCircle
 10
223.9544375812499
 20
213.489575
 30
0.0
 40
8.0
100
AcDbArc
 50
241.1543829999998
 51
278.1002110000003
  0
ARC
  5
E4
330
1F
100
AcDbEntity
  8
LAY-10
  6
CONTINUOUS
 62
     7
100
AcDbCircle
 10
223.9544375812499
 20
213.489575
 30
0.0
 40
10.0
100
AcDbArc
 50
241.1543830000003
 51
277.5131990000003
  0
ARC
  5
E5
330
1F
100
AcDbEntity
  8
LAY-10
  6
CONTINUOUS
 62
     7
100
AcDbCircle
 10
217.56137958125
 20
216.4285989999999
 30
0.0
 40
8.0
100
AcDbArc
 50
275.5285450000003
 51
309.1774550000002
  0
ARC
  5
E6
330
1F
100
AcDbEntity
  8
LAY-10
  6
CONTINUOUS
 62
     7
100
AcDbCircle
 10
218.36818358125
 20
214.4973439999999
 30
0.0
 40
8.0
100
AcDbArc
 50
275.5285450000003
 51
312.6790020000003
  0
ARC
  5
E7
330
1F
100
AcDbEntity
  8
LAY-10
  6
CONTINUOUS
 62
     7
100
AcDbCircle
 10
224.9826565812499
 20
207.3240359999999
 30
0.0
 40
1.757438
100
AcDbArc
 50
36.23941400000164
 51
132.6790019999966
  0
ARC
  5
E8
330
1F
100
AcDbEntity
  8
LAY-10
  6
CONTINUOUS
 62
     7
100
AcDbCircle
 10
233.1914965812499
 20
213.4851879999999
 30
0.0
 40
8.0
100
AcDbArc
 50
241.1543830000003
 51
278.1002110000003
  0
LINE
  5
E9
330
1F
100
AcDbEntity
  8
LAY-10
  6
CONTINUOUS
 62
     7
100
AcDbLine
 10
225.7195265812499
 20
208.3056419999999
 30
0.0
 11
227.5691715812499
 21
208.4614259999999
 31
0.0
  0
ARC
  5
EA
330
1F
100
AcDbEntity
  8
LAY-10
  6
CONTINUOUS
 62
     7
100
AcDbCircle
 10
234.22291658125
 20
207.3135859999999
 30
0.0
 40
3.752718
100
AcDbArc
 50
274.2196459999999
 51
348.2251650000003
  0
ARC
  5
EB
330
1F
100
AcDbEntity
  8
LAY-10
  6
CONTINUOUS
 62
     7
100
AcDbCircle
 10
227.6052425812499
 20
214.492957
 30
0.0
 40
8.0
100
AcDbArc
 50
275.5285450000003
 51
312.6790019999994
  0
ARC
  5
EC
330
1F
100
AcDbEntity
  8
LAY-10
  6
CONTINUOUS
 62
     7
100
AcDbCircle
 10
234.22291658125
 20
207.3135859999999
 30
0.0
 40
3.752718
100
AcDbArc
 50
19.94752200000096
 51
129.1774550000007
  0
ARC
  5
ED
330
1F
100
AcDbEntity
  8
LAY-10
  6
CONTINUOUS
 62
     7
100
AcDbCircle
 10
236.0514575812499
 20
216.411359
 30
0.0
 40
8.0
100
AcDbArc
 50
275.5285450000003
 51
309.1774550000001
  0
LINE
  5
EE
330
1F
100
AcDbEntity
  8
LAY-10
  6
CONTINUOUS
 62
     7
100
AcDbLine
 10
235.1699505812499
 20
206.3114799999999
 30
0.0
 11
237.6289945812499
 21
206.517318
 31
0.0
  0
ARC
  5
EF
330
1F
100
AcDbEntity
  8
LAY-10
  6
CONTINUOUS
 62
     7
100
AcDbCircle
 10
243.47593558125
 20
207.300733
 30
0.0
 40
3.752718
100
AcDbArc
 50
20.33735899999969
 51
129.177455
  0
ARC
  5
F0
330
1F
100
AcDbEntity
  8
LAY-10
  6
CONTINUOUS
 62
     7
100
AcDbCircle
 10
243.4729845812499
 20
207.3234439999999
 30
0.0
 40
1.757438
100
AcDbArc
 50
312.8426530000017
 51
326.9753740000023
  0
ARC
  5
F1
330
1F
100
AcDbEntity
  8
LAY-10
  6
CONTINUOUS
 62
     7
100
AcDbCircle
 10
242.4445155812499
 20
213.472335
 30
0.0
 40
10.0
100
AcDbArc
 50
241.1543829999998
 51
277.5131989999999
  0
ARC
  5
F2
330
1F
100
AcDbEntity
  8
LAY-10
  6
CONTINUOUS
 62
     7
100
AcDbCircle
 10
242.3381095812499
 20
213.0853319999999
 30
0.0
 40
7.610254000000008
100
AcDbArc
 50
240.4503730000003
 51
278.8893180000003
  0
ARC
  5
F3
330
1F
100
AcDbEntity
  8
LAY-10
  6
CONTINUOUS
 62
     7
100
AcDbCircle
 10
243.47593558125
 20
207.300733
 30
0.0
 40
3.752718
100
AcDbArc
 50
274.2196459999999
 51
348.6124150000001
  0
ARC
  5
F4
330
1F
100
AcDbEntity
  8
LAY-10
  6
CONTINUOUS
 62
     7
100
AcDbCircle
 10
243.4729845812499
 20
207.3234439999999
 30
0.0
 40
1.757438
100
AcDbArc
 50
271.3403430000014
 51
312.8426530000017
  0
ARC
  5
F5
330
1F
100
AcDbEntity
  8
LAY-10
  6
CONTINUOUS
 62
     7
100
AcDbCircle
 10
236.8582615812499
 20
214.4801039999999
 30
0.0
 40
8.0
100
AcDbArc
 50
275.5285450000003
 51
312.6790020000003
  0
ARC
  5
F6
330
1F
100
AcDbEntity
  8
LAY-10
  6
CONTINUOUS
 62
     7
100
AcDbCircle
 10
244.0373725812499
 20
209.996374
 30
0.0
 40
1.018062
100
AcDbArc
 50
268.8206600000019
 51
268.9128280000012
  0
LINE
  5
F7
330
1F
100
AcDbEntity
  8
LAY-10
  6
CONTINUOUS
 62
     7
100
AcDbLine
 10
238.58490558125
 20
206.464952
 30
0.0
 11
238.31467558125
 21
206.6137929999999
 31
0.0
  0
LINE
  5
F8
330
1F
100
AcDbEntity
  8
LAY-10
  6
CONTINUOUS
 62
     7
100
AcDbLine
 10
237.6200035812499
 20
204.713107
 30
0.0
 11
237.15378758125
 21
204.969895
 31
0.0
  0
ARC
  5
F9
330
1F
100
AcDbEntity
  8
LAY-10
  6
CONTINUOUS
 62
     7
100
AcDbCircle
 10
226.7984385812499
 20
216.4242119999999
 30
0.0
 40
8.0
100
AcDbArc
 50
275.5285450000003
 51
309.1774550000002
  0
ARC
  5
FA
330
1F
100
AcDbEntity
  8
LAY-10
  6
CONTINUOUS
 62
     7
100
AcDbCircle
 10
234.21971558125
 20
207.3196489999999
 30
0.0
 40
1.757438
100
AcDbArc
 50
35.86666300000007
 51
132.6790020000019
  0
LINE
  5
FB
330
1F
100
AcDbEntity
  8
LAY-10
  6
CONTINUOUS
 62
     7
100
AcDbLine
 10
235.3424295812499
 20
205.9675759999999
 30
0.0
 11
234.65460358125
 21
206.346425
 31
0.0
  0
ARC
  5
FC
330
1F
100
AcDbEntity
  8
LAY-10
  6
CONTINUOUS
 62
     7
100
AcDbCircle
 10
234.21971558125
 20
207.3196489999999
 30
0.0
 40
1.757438
100
AcDbArc
 50
273.2299519999993
 51
326.7048609999985
  0
LINE
  5
FD
330
1F
100
AcDbEntity
  8
LAY-10
  6
CONTINUOUS
 62
     7
100
AcDbLine
 10
234.9725455812499
 20
208.2927889999999
 30
0.0
 11
236.8221905812499
 21
208.4485729999999
 31
0.0
  0
ARC
  5
FE
330
1F
100
AcDbEntity
  8
LAY-10
  6
CONTINUOUS
 62
     7
100
AcDbCircle
 10
234.7109145812499
 20
209.9787109999999
 30
0.0
 40
1.018062
100
AcDbArc
 50
270.7102700000012
 51
270.8024370000027
  0
ARC
  5
FF
330
1F
100
AcDbEntity
  8
LAY-10
  6
CONTINUOUS
 62
     7
100
AcDbCircle
 10
234.97763558125
 20
207.2928129999999
 30
0.0
 40
1.0
100
AcDbArc
 50
90.28380300000023
 51
281.0879309999986
  0
ARC
  5
100
330
1F
100
AcDbEntity
  8
LAY-10
  6
CONTINUOUS
 62
     7
100
AcDbCircle
 10
224.9858575812499
 20
207.317973
 30
0.0
 40
3.752718
100
AcDbArc
 50
20.12737799999987
 51
129.1774549999988
  0
ARC
  5
101
330
1F
100
AcDbEntity
  8
LAY-10
  6
CONTINUOUS
 62
     7
100
AcDbCircle
 10
225.4578955812499
 20
209.991564
 30
0.0
 40
1.018062
100
AcDbArc
 50
270.7102700000012
 51
270.8024370000027
  0
LINE
  5
102
330
1F
100
AcDbEntity
  8
LAY-10
  6
CONTINUOUS
 62
     7
100
AcDbLine
 10
225.9169315812499
 20
206.3243329999999
 30
0.0
 11
228.3759765812499
 21
206.5301709999999
 31
0.0
  0
ARC
  5
103
330
1F
100
AcDbEntity
  8
LAY-10
  6
CONTINUOUS
 62
     7
100
AcDbCircle
 10
224.9858575812499
 20
207.317973
 30
0.0
 40
3.752718
100
AcDbArc
 50
274.2196459999999
 51
348.3946589999989
  0
ARC
  5
104
330
1F
100
AcDbEntity
  8
LAY-10
  6
CONTINUOUS
 62
     7
100
AcDbCircle
 10
233.1914965812499
 20
213.4851879999999
 30
0.0
 40
10.0
100
AcDbArc
 50
241.1543829999998
 51
277.5131989999999
  0
LINE
  5
105
330
1F
100
AcDbEntity
  8
LAY-10
  6
CONTINUOUS
 62
     7
100
AcDbLine
 10
228.3669845812499
 20
204.7259599999999
 30
0.0
 11
227.9165475812499
 21
204.9740559999999
 31
0.0
  0
LINE
  5
106
330
1F
100
AcDbEntity
  8
LAY-10
  6
CONTINUOUS
 62
     7
100
AcDbLine
 10
229.33188658125
 20
206.4778049999999
 30
0.0
 11
229.0616565812499
 21
206.626646
 31
0.0
  0
ARC
  5
107
330
1F
100
AcDbEntity
  8
LAY-10
  6
CONTINUOUS
 62
     7
100
AcDbCircle
 10
225.7246165812499
 20
207.3056659999999
 30
0.0
 40
1.0
100
AcDbArc
 50
90.28380300000023
 51
281.0879309999986
  0
LINE
  5
108
330
1F
100
AcDbEntity
  8
LAY-10
  6
CONTINUOUS
 62
     7
100
AcDbLine
 10
226.1051355812499
 20
205.9717679999999
 30
0.0
 11
225.40158458125
 21
206.3592779999999
 31
0.0
  0
ARC
  5
109
330
1F
100
AcDbEntity
  8
LAY-10
  6
CONTINUOUS
 62
     7
100
AcDbCircle
 10
224.9826565812499
 20
207.3240359999999
 30
0.0
 40
1.757438
100
AcDbArc
 50
273.2299520000011
 51
327.1083150000022
  0
ARC
  5
10A
330
1F
100
AcDbEntity
  8
LAY-10
  6
CONTINUOUS
 62
     7
100
AcDbCircle
 10
206.4937945812499
 20
207.3067759999999
 30
0.0
 40
3.752718
100
AcDbArc
 50
20.06857699999897
 51
129.177455
  0
ARC
  5
10B
330
1F
100
AcDbEntity
  8
LAY-10
  6
CONTINUOUS
 62
     7
100
AcDbCircle
 10
206.49059258125
 20
207.312839
 30
0.0
 40
1.757438
100
AcDbArc
 50
36.18162699999803
 51
132.6790020000005
  0
ARC
  5
10C
330
1F
100
AcDbEntity
  8
LAY-10
  6
CONTINUOUS
 62
     7
100
AcDbCircle
 10
205.46237358125
 20
213.4783779999999
 30
0.0
 40
8.0
100
AcDbArc
 50
241.1543829999998
 51
278.1002109999999
  0
ARC
  5
10D
330
1F
100
AcDbEntity
  8
LAY-10
  6
CONTINUOUS
 62
     7
100
AcDbCircle
 10
205.46237358125
 20
213.4783779999999
 30
0.0
 40
10.0
100
AcDbArc
 50
241.1543829999998
 51
277.5131989999999
  0
ARC
  5
10E
330
1F
100
AcDbEntity
  8
LAY-10
  6
CONTINUOUS
 62
     7
100
AcDbCircle
 10
214.7172975812499
 20
213.4739779999999
 30
0.0
 40
10.0
100
AcDbArc
 50
241.1543829999998
 51
277.5131989999999
  0
ARC
  5
10F
330
1F
100
AcDbEntity
  8
LAY-10
  6
CONTINUOUS
 62
     7
100
AcDbCircle
 10
206.49059258125
 20
207.312839
 30
0.0
 40
1.757438
100
AcDbArc
 50
273.2299520000011
 51
327.0463429999988
  0
ARC
  5
110
330
1F
100
AcDbEntity
  8
LAY-10
  6
CONTINUOUS
 62
     7
100
AcDbCircle
 10
206.4937945812499
 20
207.3067759999999
 30
0.0
 40
3.752718
100
AcDbArc
 50
274.2196459999999
 51
348.3566359999999
  0
ARC
  5
111
330
1F
100
AcDbEntity
  8
LAY-10
  6
CONTINUOUS
 62
     7
100
AcDbCircle
 10
215.74871758125
 20
207.3023749999999
 30
0.0
 40
3.752718
100
AcDbArc
 50
20.42809600000066
 51
129.1774550000007
  0
ARC
  5
112
330
1F
100
AcDbEntity
  8
LAY-10
  6
CONTINUOUS
 62
     7
100
AcDbCircle
 10
214.7172975812499
 20
213.4739779999999
 30
0.0
 40
8.0
100
AcDbArc
 50
241.1543830000003
 51
278.1002110000003
  0
ARC
  5
113
330
1F
100
AcDbEntity
  8
LAY-10
  6
CONTINUOUS
 62
     7
100
AcDbCircle
 10
209.1310445812499
 20
214.481747
 30
0.0
 40
8.0
100
AcDbArc
 50
275.5285450000003
 51
312.6790019999994
  0
LINE
  5
114
330
1F
100
AcDbEntity
  8
LAY-10
  6
CONTINUOUS
 62
     7
100
AcDbLine
 10
216.67987258125
 20
206.3287189999999
 30
0.0
 11
219.13891658125
 21
206.534558
 31
0.0
  0
ARC
  5
115
330
1F
100
AcDbEntity
  8
LAY-10
  6
CONTINUOUS
 62
     7
100
AcDbCircle
 10
216.4875575812499
 20
207.310053
 30
0.0
 40
1.0
100
AcDbArc
 50
90.28380300000023
 51
281.0879310000018
  0
ARC
  5
116
330
1F
100
AcDbEntity
  8
LAY-10
  6
CONTINUOUS
 62
     7
100
AcDbCircle
 10
215.74871758125
 20
207.3023749999999
 30
0.0
 40
3.752718
100
AcDbArc
 50
274.2196459999999
 51
348.7144440000009
  0
LINE
  5
117
330
1F
100
AcDbEntity
  8
LAY-10
  6
CONTINUOUS
 62
     7
100
AcDbLine
 10
216.4824675812499
 20
208.3100289999999
 30
0.0
 11
218.33211258125
 21
208.4658129999999
 31
0.0
  0
LINE
  5
118
330
1F
100
AcDbEntity
  8
LAY-10
  6
CONTINUOUS
 62
     7
100
AcDbLine
 10
220.0948275812499
 20
206.482192
 30
0.0
 11
219.8245975812499
 21
206.6310329999999
 31
0.0
  0
ARC
  5
119
330
1F
100
AcDbEntity
  8
LAY-10
  6
CONTINUOUS
 62
     7
100
AcDbCircle
 10
215.74551658125
 20
207.3084389999999
 30
0.0
 40
1.757438
100
AcDbArc
 50
37.00311500000026
 51
132.6790020000019
  0
LINE
  5
11A
330
1F
100
AcDbEntity
  8
LAY-10
  6
CONTINUOUS
 62
     7
100
AcDbLine
 10
216.88240558125
 20
205.9682619999999
 30
0.0
 11
216.1645255812499
 21
206.3636649999999
 31
0.0
  0
ARC
  5
11B
330
1F
100
AcDbEntity
  8
LAY-10
  6
CONTINUOUS
 62
     7
100
AcDbCircle
 10
215.74551658125
 20
207.3084389999999
 30
0.0
 40
1.757438
100
AcDbArc
 50
273.2299519999993
 51
327.9238989999999
  0
LINE
  5
11C
330
1F
100
AcDbEntity
  8
LAY-10
  6
CONTINUOUS
 62
     7
100
AcDbLine
 10
219.12992558125
 20
204.730347
 30
0.0
 11
218.69049058125
 21
204.972383
 31
0.0
  0
ARC
  5
11D
330
1F
100
AcDbEntity
  8
LAY-10
  6
CONTINUOUS
 62
     7
100
AcDbCircle
 10
208.3242395812499
 20
216.4130019999999
 30
0.0
 40
8.0
100
AcDbArc
 50
275.5285450000003
 51
309.1774550000002
  0
LINE
  5
11E
330
1F
100
AcDbEntity
  8
LAY-10
  6
CONTINUOUS
 62
     7
100
AcDbLine
 10
207.4427335812499
 20
206.3131219999999
 30
0.0
 11
209.9017775812499
 21
206.5189599999999
 31
0.0
  0
LINE
  5
11F
330
1F
100
AcDbEntity
  8
LAY-10
  6
CONTINUOUS
 62
     7
100
AcDbLine
 10
210.85768758125
 20
206.4665949999999
 30
0.0
 11
210.5874575812499
 21
206.615435
 31
0.0
  0
LINE
  5
120
330
1F
100
AcDbEntity
  8
LAY-10
  6
CONTINUOUS
 62
     7
100
AcDbLine
 10
207.62016458125
 20
205.9664899999999
 30
0.0
 11
206.92738658125
 21
206.3480669999999
 31
0.0
  0
ARC
  5
121
330
1F
100
AcDbEntity
  8
LAY-10
  6
CONTINUOUS
 62
     7
100
AcDbCircle
 10
206.9836965812499
 20
209.9803539999999
 30
0.0
 40
1.018062
100
AcDbArc
 50
270.7102700000012
 51
270.8024370000027
  0
LINE
  5
122
330
1F
100
AcDbEntity
  8
LAY-10
  6
CONTINUOUS
 62
     7
100
AcDbLine
 10
207.2453275812499
 20
208.2944309999999
 30
0.0
 11
209.0949735812499
 21
208.4502149999999
 31
0.0
  0
ARC
  5
123
330
1F
100
AcDbEntity
  8
LAY-10
  6
CONTINUOUS
 62
     7
100
AcDbCircle
 10
207.2504175812499
 20
207.2944549999999
 30
0.0
 40
1.0
100
AcDbArc
 50
90.28380300000023
 51
281.0879309999986
  0
LINE
  5
124
330
1F
100
AcDbEntity
  8
LAY-10
  6
CONTINUOUS
 62
     7
100
AcDbLine
 10
209.8927855812499
 20
204.7147489999999
 30
0.0
 11
209.4299315812499
 21
204.9696859999999
 31
0.0
  0
ARC
  5
125
330
1F
100
AcDbEntity
  8
LAY-10
  6
CONTINUOUS
 62
     7
100
AcDbCircle
 10
199.06931658125
 20
216.417402
 30
0.0
 40
8.0
100
AcDbArc
 50
275.528545
 51
309.1774550000001
  0
ARC
  5
126
330
1F
100
AcDbEntity
  8
LAY-10
  6
CONTINUOUS
 62
     7
100
AcDbCircle
 10
199.8761205812499
 20
214.4861479999999
 30
0.0
 40
8.0
100
AcDbArc
 50
275.5285450000006
 51
312.6790020000003
  0
LINE
  5
127
330
1F
100
AcDbEntity
  8
LAY-10
  6
CONTINUOUS
 62
     7
100
AcDbLine
 10
197.9904035812499
 20
208.298832
 30
0.0
 11
199.8400495812499
 21
208.4546159999999
 31
0.0
  0
ARC
  5
128
330
1F
100
AcDbEntity
  8
LAY-10
  6
CONTINUOUS
 62
     7
100
AcDbCircle
 10
197.9954945812499
 20
207.2988559999999
 30
0.0
 40
1.0
100
AcDbArc
 50
90.28380300000023
 51
281.0879310000018
  0
LINE
  5
129
330
1F
100
AcDbEntity
  8
LAY-10
  6
CONTINUOUS
 62
     7
100
AcDbLine
 10
200.63786158125
 20
204.7191499999999
 30
0.0
 11
200.59861858125
 21
204.7407649999999
 31
0.0
  0
LINE
  5
12A
330
1F
100
AcDbEntity
  8
LAY-10
  6
CONTINUOUS
 62
     7
100
AcDbLine
 10
201.6027645812499
 20
206.4709949999999
 30
0.0
 11
201.3325345812499
 21
206.6198359999999
 31
0.0
  0
LINE
  5
12B
330
1F
100
AcDbEntity
  8
LAY-10
  6
CONTINUOUS
 62
     7
100
AcDbLine
 10
198.1878095812499
 20
206.317523
 30
0.0
 11
200.64685358125
 21
206.5233609999999
 31
0.0
  0
ARC
  5
12C
330
1F
100
AcDbEntity
  8
LAY-10
  6
CONTINUOUS
 62
     7
100
AcDbCircle
 10
196.3006965812499
 20
207.295735
 30
0.0
 40
5.0
100
AcDbArc
 50
16.08139399999989
 51
81.42850299999972
  0
LINE
  5
12D
330
1F
100
AcDbEntity
  8
LAY-10
  6
CONTINUOUS
 62
     7
100
AcDbLine
 10
198.83609958125
 20
205.7115459999999
 30
0.0
 11
197.6724625812499
 21
206.352468
 31
0.0
  0
ARC
  5
12E
330
1F
100
AcDbEntity
  8
LAY-10
  6
CONTINUOUS
 62
     7
100
AcDbCircle
 10
252.70889358125
 20
207.3093939999999
 30
0.0
 40
3.752718
100
AcDbArc
 50
274.2196459999999
 51
348.2251650000003
  0
ARC
  5
12F
330
1F
100
AcDbEntity
  8
LAY-10
  6
CONTINUOUS
 62
     7
100
AcDbCircle
 10
260.82408658125
 20
213.0811399999999
 30
0.0
 40
7.610254000000008
100
AcDbArc
 50
240.4503729999995
 51
278.8893180000003
  0
ARC
  5
130
330
1F
100
AcDbEntity
  8
LAY-10
  6
CONTINUOUS
 62
     7
100
AcDbCircle
 10
261.96191258125
 20
207.296541
 30
0.0
 40
3.752718
100
AcDbArc
 50
274.2196459999999
 51
17.97905599999968
  0
ARC
  5
131
330
1F
100
AcDbEntity
  8
LAY-10
  6
CONTINUOUS
 62
     7
100
AcDbCircle
 10
260.93049158125
 20
213.468143
 30
0.0
 40
10.0
100
AcDbArc
 50
241.1543829999998
 51
277.5131989999999
  0
LINE
  5
132
330
1F
100
AcDbEntity
  8
LAY-10
  6
CONTINUOUS
 62
     7
100
AcDbLine
 10
256.1059795812499
 20
204.708915
 30
0.0
 11
255.6397645812499
 21
204.9657029999999
 31
0.0
  0
ARC
  5
133
330
1F
100
AcDbEntity
  8
LAY-10
  6
CONTINUOUS
 62
     7
100
AcDbCircle
 10
255.3442385812499
 20
214.4759119999999
 30
0.0
 40
8.0
100
AcDbArc
 50
275.5285450000006
 51
312.6790020000003
  0
ARC
  5
134
330
1F
100
AcDbEntity
  8
LAY-10
  6
CONTINUOUS
 62
     7
100
AcDbCircle
 10
254.53743458125
 20
216.4071669999999
 30
0.0
 40
8.0
100
AcDbArc
 50
275.528545
 51
309.1774550000002
  0
ARC
  5
135
330
1F
100
AcDbEntity
  8
LAY-10
  6
CONTINUOUS
 62
     7
100
AcDbCircle
 10
252.70889358125
 20
207.3093939999999
 30
0.0
 40
3.752718
100
AcDbArc
 50
19.94752200000096
 51
129.177455
  0
ARC
  5
136
330
1F
100
AcDbEntity
  8
LAY-10
  6
CONTINUOUS
 62
     7
100
AcDbCircle
 10
252.7056925812499
 20
207.315457
 30
0.0
 40
1.757438
100
AcDbArc
 50
35.86666300000007
 51
132.6790019999991
  0
LINE
  5
137
330
1F
100
AcDbEntity
  8
LAY-10
  6
CONTINUOUS
 62
     7
100
AcDbLine
 10
253.4585225812499
 20
208.2885969999999
 30
0.0
 11
255.3081675812499
 21
208.4443809999999
 31
0.0
  0
ARC
  5
138
330
1F
100
AcDbEntity
  8
LAY-10
  6
CONTINUOUS
 62
     7
100
AcDbCircle
 10
252.7056925812499
 20
207.315457
 30
0.0
 40
1.757438
100
AcDbArc
 50
273.2299520000011
 51
326.7048609999998
  0
LINE
  5
139
330
1F
100
AcDbEntity
  8
LAY-10
  6
CONTINUOUS
 62
     7
100
AcDbLine
 10
253.6559275812499
 20
206.3072879999999
 30
0.0
 11
256.11497158125
 21
206.513126
 31
0.0
  0
LINE
  5
13A
330
1F
100
AcDbEntity
  8
LAY-10
  6
CONTINUOUS
 62
     7
100
AcDbLine
 10
257.07088258125
 20
206.46076
 30
0.0
 11
256.8006525812499
 21
206.6096009999999
 31
0.0
  0
ARC
  5
13B
330
1F
100
AcDbEntity
  8
LAY-10
  6
CONTINUOUS
 62
     7
100
AcDbCircle
 10
261.9589605812499
 20
207.3192519999999
 30
0.0
 40
1.757438
100
AcDbArc
 50
312.842652999999
 51
130.7893919999996
  0
ARC
  5
13C
330
1F
100
AcDbEntity
  8
LAY-10
  6
CONTINUOUS
 62
     7
100
AcDbCircle
 10
261.96191258125
 20
207.296541
 30
0.0
 40
3.752718
100
AcDbArc
 50
17.97905599999968
 51
129.177455
  0
ARC
  5
13D
330
1F
100
AcDbEntity
  8
LAY-10
  6
CONTINUOUS
 62
     7
100
AcDbCircle
 10
262.5233495812499
 20
209.9921819999999
 30
0.0
 40
1.018062
100
AcDbArc
 50
268.8206599999987
 51
268.9128279999979
  0
ARC
  5
13E
330
1F
100
AcDbEntity
  8
LAY-10
  6
CONTINUOUS
 62
     7
100
AcDbCircle
 10
261.9589605812499
 20
207.3192519999999
 30
0.0
 40
1.757438
100
AcDbArc
 50
271.3403430000014
 51
312.842652999999
  0
ARC
  5
13F
330
1F
100
AcDbEntity
  8
LAY-10
  6
CONTINUOUS
 62
     7
100
AcDbCircle
 10
251.67747358125
 20
213.4809959999999
 30
0.0
 40
8.0
100
AcDbArc
 50
238.9939780000001
 51
278.1002109999999
  0
ARC
  5
140
330
1F
100
AcDbEntity
  8
LAY-10
  6
CONTINUOUS
 62
     7
100
AcDbCircle
 10
251.67747358125
 20
213.4809959999999
 30
0.0
 40
10.0
100
AcDbArc
 50
241.1543829999998
 51
277.5131989999999
  0
ARC
  5
141
330
1F
100
AcDbEntity
  8
LAY-10
  6
CONTINUOUS
 62
     7
100
AcDbCircle
 10
246.0912195812499
 20
214.488765
 30
0.0
 40
8.0
100
AcDbArc
 50
275.5285450000006
 51
312.6790019999997
  0
LINE
  5
142
330
1F
100
AcDbEntity
  8
LAY-10
  6
CONTINUOUS
 62
     7
100
AcDbLine
 10
253.8284055812499
 20
205.9633839999999
 30
0.0
 11
253.1405805812499
 21
206.3422329999999
 31
0.0
  0
ARC
  5
143
330
1F
100
AcDbEntity
  8
LAY-10
  6
CONTINUOUS
 62
     7
100
AcDbCircle
 10
253.4636125812499
 20
207.2886209999999
 30
0.0
 40
1.0
100
AcDbArc
 50
90.28380300000023
 51
281.0879310000018
  0
ARC
  5
144
330
1F
100
AcDbEntity
  8
LAY-10
  6
CONTINUOUS
 62
     7
100
AcDbCircle
 10
253.19689158125
 20
209.9745189999999
 30
0.0
 40
1.018062
100
AcDbArc
 50
270.710269999998
 51
270.8024369999995
  0
ARC
  5
145
330
1F
100
AcDbEntity
  8
LAY-10
  6
CONTINUOUS
 62
     7
100
AcDbCircle
 10
245.2844155812499
 20
216.4200199999999
 30
0.0
 40
8.0
100
AcDbArc
 50
275.5285450000003
 51
309.1774550000002
  0
LINE
  5
146
330
1F
100
AcDbEntity
  8
LAY-10
  6
CONTINUOUS
 62
     7
100
AcDbLine
 10
244.4029085812499
 20
206.3201409999999
 30
0.0
 11
246.8619525812499
 21
206.5259789999999
 31
0.0
  0
LINE
  5
147
330
1F
100
AcDbEntity
  8
LAY-10
  6
CONTINUOUS
 62
     7
100
AcDbLine
 10
244.2055035812499
 20
208.30145
 30
0.0
 11
246.0551485812499
 21
208.4572339999999
 31
0.0
  0
LINE
  5
148
330
1F
100
AcDbEntity
  8
LAY-10
  6
CONTINUOUS
 62
     7
100
AcDbLine
 10
244.59111158125
 20
205.9675759999999
 30
0.0
 11
243.8875615812499
 21
206.3550859999999
 31
0.0
  0
ARC
  5
149
330
1F
100
AcDbEntity
  8
LAY-10
  6
CONTINUOUS
 62
     7
100
AcDbCircle
 10
244.2105935812499
 20
207.3014739999999
 30
0.0
 40
1.0
100
AcDbArc
 50
90.28380300000023
 51
281.0879310000018
  0
LINE
  5
14A
330
1F
100
AcDbEntity
  8
LAY-10
  6
CONTINUOUS
 62
     7
100
AcDbLine
 10
246.85296158125
 20
204.7217679999999
 30
0.0
 11
246.4126055812499
 21
204.964312
 31
0.0
  0
ARC
  5
14B
330
1F
100
AcDbEntity
  8
LAY-10
  6
CONTINUOUS
 62
     7
100
AcDbCircle
 10
243.4729845812499
 20
207.3234439999999
 30
0.0
 40
1.757438
100
AcDbArc
 50
36.11639099999964
 51
130.7893919999981
  0
ARC
  5
14C
330
1F
100
AcDbEntity
  8
LAY-10
  6
CONTINUOUS
 62
     7
100
AcDbCircle
 10
173.78820958125
 20
207.3
 30
0.0
 40
62.50000000000004
100
AcDbArc
 50
2.934247228723545
 51
357.09151348018
  0
ARC
  5
14D
330
1F
100
AcDbEntity
  8
LAY-10
  6
CONTINUOUS
 62
     7
100
AcDbCircle
 10
173.78820958125
 20
207.3
 30
0.0
 40
62.00000000000004
100
AcDbArc
 50
3.205749041808863
 51
356.8200116670945
  0
ARC
  5
14E
330
1F
100
AcDbEntity
  8
LAY-10
  6
CONTINUOUS
 62
     7
100
AcDbCircle
 10
173.78820958125
 20
207.3
 30
0.0
 40
48.14999999999998
100
AcDbArc
 50
2.849361418487391
 51
355.739970599492
  0
ARC
  5
14F
330
1F
100
AcDbEntity
  8
LAY-10
  6
CONTINUOUS
 62
     7
100
AcDbCircle
 10
173.78820958125
 20
207.3
 30
0.0
 40
48.14999999999998
100
AcDbArc
 50
358.1604142961926
 51
0.0453163052808657
  0
ARC
  5
150
330
1F
100
AcDbEntity
  8
LAY-10
  6
CONTINUOUS
 62
     7
100
AcDbCircle
 10
173.78820958125
 20
207.3
 30
0.0
 40
23.49999999998
100
AcDbArc
 50
1.695563477777381
 51
7.000953903411343
  0
ARC
  5
151
330
1F
100
AcDbEntity
  8
LAY-10
  6
CONTINUOUS
 62
     7
100
AcDbCircle
 10
173.78820958125
 20
207.3
 30
0.0
 40
23.49999999998
100
AcDbArc
 50
12.31381467792475
 51
347.6637149509847
  0
ARC
  5
152
330
1F
100
AcDbEntity
  8
LAY-10
  6
CONTINUOUS
 62
     7
100
AcDbCircle
 10
173.78820958125
 20
207.3
 30
0.0
 40
23.49999999998
100
AcDbArc
 50
352.9773392818048
 51
358.299021096931
  0
LINE
  5
153
330
1F
100
AcDbEntity
  8
LAY-10
  6
CONTINUOUS
 62
     7
100
AcDbLine
 10
197.0459130674259
 20
212.2398883540871
 30
0.0
 11
176.7690445812499
 21
217.1240069999999
 31
0.0
  0
LINE
  5
154
330
1F
100
AcDbEntity
  8
LAY-10
  6
CONTINUOUS
 62
     7
100
AcDbLine
 10
197.0459138015687
 20
202.3515818227468
 30
0.0
 11
176.7690445812499
 21
197.467463
 31
0.0
  0
LINE
  5
155
330
1F
100
AcDbEntity
  8
LAY-10
  6
CONTINUOUS
 62
     7
100
AcDbLine
 10
220.6367148420063
 20
37.1208215966389
 30
0.0
 11
222.6791117478157
 21
38.30000000000007
 31
0.0
  0
LINE
  5
156
330
1F
100
AcDbEntity
  8
LAY-10
  6
CONTINUOUS
 62
     7
100
AcDbLine
 10
220.03820958125
 20
34.30000000000007
 30
0.0
 11
220.55565932961
 21
34.79969541351005
 31
0.0
  0
LINE
  5
157
330
1F
100
AcDbEntity
  8
LAY-10
  6
CONTINUOUS
 62
     7
100
AcDbLine
 10
235.78820958125
 20
87.80000000000007
 30
0.0
 11
236.28820958125
 21
88.30000000000007
 31
0.0
  0
LINE
  5
158
330
1F
100
AcDbEntity
  8
LAY-10
  6
CONTINUOUS
 62
     7
100
AcDbLine
 10
236.28820958125
 20
91.80000000000007
 30
0.0
 11
235.78820958125
 21
92.30000000000007
 31
0.0
  0
LINE
  5
159
330
1F
100
AcDbEntity
  8
LAY-10
  6
CONTINUOUS
 62
     7
100
AcDbLine
 10
236.28820958125
 20
91.80000000000007
 30
0.0
 11
236.28820958125
 21
88.30000000000007
 31
0.0
  0
LINE
  5
15A
330
1F
100
AcDbEntity
  8
LAY-10
  6
CONTINUOUS
 62
     7
100
AcDbLine
 10
111.78820958125
 20
87.80000000000007
 30
0.0
 11
111.28820958125
 21
88.30000000000007
 31
0.0
  0
LINE
  5
15B
330
1F
100
AcDbEntity
  8
LAY-10
  6
CONTINUOUS
 62
     7
100
AcDbLine
 10
111.28820958125
 20
91.80000000000007
 30
0.0
 11
111.78820958125
 21
92.30000000000007
 31
0.0
  0
LINE
  5
15C
330
1F
100
AcDbEntity
  8
LAY-10
  6
CONTINUOUS
 62
     7
100
AcDbLine
 10
111.28820958125
 20
91.80000000000007
 30
0.0
 11
111.28820958125
 21
88.30000000000007
 31
0.0
  0
LINE
  5
15D
330
1F
100
AcDbEntity
  8
LAY-10
  6
CONTINUOUS
 62
     7
100
AcDbLine
 10
216.25120958125
 20
35.77900000000005
 30
0.0
 11
131.3252095812524
 21
35.77900000000005
 31
0.0
  0
LINE
  5
15E
330
1F
100
AcDbEntity
  8
LAY-10
  6
CONTINUOUS
 62
     7
100
AcDbLine
 10
127.53820958125
 20
34.30000000000007
 30
0.0
 11
220.03820958125
 21
34.30000000000007
 31
0.0
  0
LINE
  5
15F
330
1F
100
AcDbEntity
  8
LAY-10
  6
CONTINUOUS
 62
     7
100
AcDbLine
 10
194.1819085671145
 20
53.29999999999995
 30
0.0
 11
193.7882095812478
 21
57.80000000000007
 31
0.0
  0
LINE
  5
160
330
1F
100
AcDbEntity
  8
LAY-10
  6
CONTINUOUS
 62
     7
100
AcDbLine
 10
198.3945105953831
 20
53.30000000000018
 30
0.0
 11
198.7882095812497
 21
57.80000000000007
 31
0.0
  0
LINE
  5
161
330
1F
100
AcDbEntity
  8
LAY-10
  6
CONTINUOUS
 62
     7
100
AcDbLine
 10
177.7584716260631
 20
53.30000000000018
 30
0.0
 11
178.1521706119297
 21
57.80000000000007
 31
0.0
  0
LINE
  5
162
330
1F
100
AcDbEntity
  8
LAY-10
  6
CONTINUOUS
 62
     7
100
AcDbLine
 10
153.3945105953856
 20
53.29999999999995
 30
0.0
 11
153.7882095812522
 21
57.80000000000007
 31
0.0
  0
LINE
  5
163
330
1F
100
AcDbEntity
  8
LAY-10
  6
CONTINUOUS
 62
     7
100
AcDbLine
 10
149.181908567117
 20
53.30000000000018
 30
0.0
 11
148.7882095812503
 21
57.80000000000007
 31
0.0
  0
LINE
  5
164
330
1F
100
AcDbEntity
  8
LAY-10
  6
CONTINUOUS
 62
     7
100
AcDbLine
 10
169.817947536437
 20
53.30000000000018
 30
0.0
 11
169.4242485505704
 21
57.80000000000007
 31
0.0
  0
LINE
  5
165
330
1F
100
AcDbEntity
  8
LAY-10
  6
CONTINUOUS
 62
     7
100
AcDbLine
 10
228.3314568150791
 20
87.80000000000007
 30
0.0
 11
235.78820958125
 21
87.80000000000007
 31
0.0
  0
LINE
  5
166
330
1F
100
AcDbEntity
  8
LAY-10
  6
CONTINUOUS
 62
     7
100
AcDbLine
 10
221.5649302168158
 20
63.70143217074124
 30
0.0
 11
225.3770335560425
 21
85.32094453300087
 31
0.0
  0
ARC
  5
167
330
1F
100
AcDbEntity
  8
LAY-10
  6
CONTINUOUS
 62
     7
100
AcDbCircle
 10
228.3314568150791
 20
84.80000000000007
 30
0.0
 40
3.000000000000002
100
AcDbArc
 50
90.00000000000004
 51
169.9999999999999
  0
LINE
  5
168
330
1F
100
AcDbEntity
  8
LAY-10
  6
CONTINUOUS
 62
     7
100
AcDbLine
 10
221.5649302168158
 20
63.70143217074099
 30
0.0
 11
220.5556593296051
 21
34.79969541351022
 31
0.0
  0
LINE
  5
169
330
1F
100
AcDbEntity
  8
LAY-10
  6
CONTINUOUS
 62
     7
100
AcDbLine
 10
222.6791117478184
 20
38.30000000000007
 30
0.0
 11
224.0603575151808
 21
77.85370364013613
 31
0.0
  0
LINE
  5
16A
330
1F
100
AcDbEntity
  8
LAY-10
  6
CONTINUOUS
 62
     7
100
AcDbLine
 10
126.0114889456842
 20
63.70143217074124
 30
0.0
 11
122.1993856064576
 21
85.32094453300087
 31
0.0
  0
ARC
  5
16B
330
1F
100
AcDbEntity
  8
LAY-10
  6
CONTINUOUS
 62
     7
100
AcDbCircle
 10
119.2449623474209
 20
84.80000000000007
 30
0.0
 40
3.000000000000002
100
AcDbArc
 50
10.00000000000023
 51
90.00000000000004
  0
LINE
  5
16C
330
1F
100
AcDbEntity
  8
LAY-10
  6
CONTINUOUS
 62
     7
100
AcDbLine
 10
119.2449623474209
 20
87.80000000000007
 30
0.0
 11
111.78820958125
 21
87.80000000000007
 31
0.0
  0
LINE
  5
16D
330
1F
100
AcDbEntity
  8
LAY-10
  6
CONTINUOUS
 62
     7
100
AcDbLine
 10
124.8973074146816
 20
38.30000000000007
 30
0.0
 11
123.5160616473192
 21
77.85370364013605
 31
0.0
  0
LINE
  5
16E
330
1F
100
AcDbEntity
  8
LAY-10
  6
CONTINUOUS
 62
     7
100
AcDbLine
 10
126.0114889456843
 20
63.70143217074093
 30
0.0
 11
127.0207598328949
 21
34.79969541351028
 31
0.0
  0
LINE
  5
16F
330
1F
100
AcDbEntity
  8
LAY-10
  6
CONTINUOUS
 62
     7
100
AcDbLine
 10
216.25120958125
 20
53.30000000000007
 30
0.0
 11
131.32520958125
 21
53.30000000000007
 31
0.0
  0
LINE
  5
170
330
1F
100
AcDbEntity
  8
LAY-10
  6
CONTINUOUS
 62
     7
100
AcDbLine
 10
201.1534145142482
 20
86.47431148549333
 30
0.0
 11
200.7882095812413
 21
82.29999999999791
 31
0.0
  0
ARC
  5
171
330
1F
100
AcDbEntity
  8
LAY-10
  6
CONTINUOUS
 62
     7
100
AcDbCircle
 10
203.1458039104317
 20
86.29999999999802
 30
0.0
 40
2.0
100
AcDbArc
 50
90.00000000000004
 51
175.0000000000003
  0
LINE
  5
172
330
1F
100
AcDbEntity
  8
LAY-10
  6
CONTINUOUS
 62
     7
100
AcDbLine
 10
214.939579151191
 20
83.45617376188665
 30
0.0
 11
215.28820958125
 21
72.29999999999802
 31
0.0
  0
LINE
  5
173
330
1F
100
AcDbEntity
  8
LAY-10
  6
CONTINUOUS
 62
     7
100
AcDbLine
 10
203.1458039104317
 20
88.29999999999802
 30
0.0
 11
209.9420187707557
 21
88.29999999999802
 31
0.0
  0
ARC
  5
174
330
1F
100
AcDbEntity
  8
LAY-10
  6
CONTINUOUS
 62
     7
100
AcDbCircle
 10
209.9420187707557
 20
83.29999999999802
 30
0.0
 40
5.0
100
AcDbArc
 50
1.789910608246283
 51
90.00000000000004
  0
LINE
  5
175
330
1F
100
AcDbEntity
  8
LAY-10
  6
CONTINUOUS
 62
     7
100
AcDbLine
 10
196.2882095812503
 20
84.15565357205315
 30
0.0
 11
196.2882095812503
 21
82.29999999999802
 31
0.0
  0
LINE
  5
176
330
1F
100
AcDbEntity
  8
LAY-10
  6
CONTINUOUS
 62
     7
100
AcDbLine
 10
146.4230046482517
 20
86.47431148549333
 30
0.0
 11
146.7882095812586
 21
82.29999999999791
 31
0.0
  0
ARC
  5
177
330
1F
100
AcDbEntity
  8
LAY-10
  6
CONTINUOUS
 62
     7
100
AcDbCircle
 10
144.4306152520682
 20
86.29999999999802
 30
0.0
 40
2.0
100
AcDbArc
 50
4.999999999999743
 51
90.00000000000004
  0
LINE
  5
178
330
1F
100
AcDbEntity
  8
LAY-10
  6
CONTINUOUS
 62
     7
100
AcDbLine
 10
132.6368400113089
 20
83.45617376188665
 30
0.0
 11
132.2882095812499
 21
72.29999999999802
 31
0.0
  0
LINE
  5
179
330
1F
100
AcDbEntity
  8
LAY-10
  6
CONTINUOUS
 62
     7
100
AcDbLine
 10
144.4306152520682
 20
88.29999999999802
 30
0.0
 11
137.6344003917444
 21
88.29999999999802
 31
0.0
  0
ARC
  5
17A
330
1F
100
AcDbEntity
  8
LAY-10
  6
CONTINUOUS
 62
     7
100
AcDbCircle
 10
137.6344003917444
 20
83.29999999999802
 30
0.0
 40
5.0
100
AcDbArc
 50
90.00000000000004
 51
178.2100893917539
  0
LINE
  5
17B
330
1F
100
AcDbEntity
  8
LAY-10
  6
CONTINUOUS
 62
     7
100
AcDbLine
 10
151.2882095812497
 20
84.15565357205315
 30
0.0
 11
151.2882095812497
 21
82.29999999999802
 31
0.0
  0
LINE
  5
17C
330
1F
100
AcDbEntity
  8
LAY-10
  6
CONTINUOUS
 62
     7
100
AcDbLine
 10
153.2855057194103
 20
82.29999999999995
 30
0.0
 11
160.4882095812499
 21
82.29999999999995
 31
0.0
  0
LINE
  5
17D
330
1F
100
AcDbEntity
  8
LAY-10
  6
CONTINUOUS
 62
     7
100
AcDbLine
 10
167.6132322541904
 20
82.29999999999995
 30
0.0
 11
153.2855057194103
 21
82.29999999999995
 31
0.0
  0
ARC
  5
17E
330
1F
100
AcDbEntity
  8
LAY-10
  6
CONTINUOUS
 62
     7
100
AcDbCircle
 10
157.14580391044
 20
86.30000000000007
 30
0.0
 40
2.0
100
AcDbArc
 50
90.00000000000004
 51
175.0000000000003
  0
LINE
  5
17F
330
1F
100
AcDbEntity
  8
LAY-10
  6
CONTINUOUS
 62
     7
100
AcDbLine
 10
157.14580391044
 20
88.30000000000007
 30
0.0
 11
165.2556379250001
 21
88.30000000000007
 31
0.0
  0
LINE
  5
180
330
1F
100
AcDbEntity
  8
LAY-10
  6
CONTINUOUS
 62
     7
100
AcDbLine
 10
155.1534145142563
 20
86.47431148549538
 30
0.0
 11
154.7882095812494
 21
82.29999999999995
 31
0.0
  0
ARC
  5
181
330
1F
100
AcDbEntity
  8
LAY-10
  6
CONTINUOUS
 62
     7
100
AcDbCircle
 10
165.2556379250001
 20
86.30000000000007
 30
0.0
 40
2.0
100
AcDbArc
 50
4.999999999999743
 51
90.00000000000004
  0
LINE
  5
182
330
1F
100
AcDbEntity
  8
LAY-10
  6
CONTINUOUS
 62
     7
100
AcDbLine
 10
167.2480273211835
 20
86.47431148549538
 30
0.0
 11
167.7882095812423
 21
80.29999999999995
 31
0.0
  0
ARC
  5
183
330
1F
100
AcDbEntity
  8
LAY-10
  6
CONTINUOUS
 62
     7
100
AcDbCircle
 10
153.2855057194103
 20
84.29999999999995
 30
0.0
 40
2.0
100
AcDbArc
 50
186.9999999999995
 51
270.0000000000002
  0
LINE
  5
184
330
1F
100
AcDbEntity
  8
LAY-10
  6
CONTINUOUS
 62
     7
100
AcDbLine
 10
151.3004134161278
 20
84.05626131318968
 30
0.0
 11
150.2882095812694
 21
92.29999999999995
 31
0.0
  0
ARC
  5
185
330
1F
100
AcDbEntity
  8
LAY-10
  6
CONTINUOUS
 62
     7
100
AcDbCircle
 10
190.43061525206
 20
86.30000000000007
 30
0.0
 40
2.0
100
AcDbArc
 50
4.999999999999743
 51
90.00000000000004
  0
LINE
  5
186
330
1F
100
AcDbEntity
  8
LAY-10
  6
CONTINUOUS
 62
     7
100
AcDbLine
 10
192.4230046482434
 20
86.47431148549538
 30
0.0
 11
192.7882095812503
 21
82.29999999999995
 31
0.0
  0
ARC
  5
187
330
1F
100
AcDbEntity
  8
LAY-10
  6
CONTINUOUS
 62
     7
100
AcDbCircle
 10
182.3207812374998
 20
86.30000000000007
 30
0.0
 40
2.0
100
AcDbArc
 50
90.00000000000004
 51
175.0000000000003
  0
LINE
  5
188
330
1F
100
AcDbEntity
  8
LAY-10
  6
CONTINUOUS
 62
     7
100
AcDbLine
 10
180.3283918413161
 20
86.47431148549538
 30
0.0
 11
179.7882095812575
 21
80.29999999999995
 31
0.0
  0
ARC
  5
189
330
1F
100
AcDbEntity
  8
LAY-10
  6
CONTINUOUS
 62
     7
100
AcDbCircle
 10
194.2909134430894
 20
84.29999999999995
 30
0.0
 40
2.0
100
AcDbArc
 50
270.0000000000002
 51
353.0000000000006
  0
LINE
  5
18A
330
1F
100
AcDbEntity
  8
LAY-10
  6
CONTINUOUS
 62
     7
100
AcDbLine
 10
179.9631869083092
 20
82.29999999999995
 30
0.0
 11
194.2909134430894
 21
82.29999999999995
 31
0.0
  0
LINE
  5
18B
330
1F
100
AcDbEntity
  8
LAY-10
  6
CONTINUOUS
 62
     7
100
AcDbLine
 10
190.43061525206
 20
88.30000000000007
 30
0.0
 11
182.3207812374998
 21
88.30000000000007
 31
0.0
  0
LINE
  5
18C
330
1F
100
AcDbEntity
  8
LAY-10
  6
CONTINUOUS
 62
     7
100
AcDbLine
 10
167.7882095812503
 20
107.300000000003
 30
0.0
 11
167.7882095812503
 21
92.30000000000047
 31
0.0
  0
LINE
  5
18D
330
1F
100
AcDbEntity
  8
LAY-10
  6
CONTINUOUS
 62
     7
100
AcDbLine
 10
167.7882095812503
 20
92.30000000000047
 30
0.0
 11
179.7882095812494
 21
92.30000000000047
 31
0.0
  0
LINE
  5
18E
330
1F
100
AcDbEntity
  8
LAY-10
  6
CONTINUOUS
 62
     7
100
AcDbLine
 10
167.7882095812498
 20
107.300000000003
 30
0.0
 11
179.7882095812498
 21
107.300000000003
 31
0.0
  0
ARC
  5
18F
330
1F
100
AcDbEntity
  8
LAY-10
  6
CONTINUOUS
 62
     7
100
AcDbCircle
 10
173.7882095812498
 20
99.300000000003
 30
0.0
 40
10.0
100
AcDbArc
 50
53.13010235415597
 51
126.869897645844
  0
ARC
  5
190
330
1F
100
AcDbEntity
  8
LAY-10
  6
CONTINUOUS
 62
     7
100
AcDbCircle
 10
173.78820958125
 20
102.3000000000031
 30
0.0
 40
2.5
100
AcDbArc
 50
77.12671990985153
 51
9.617228197343442
  0
ARC
  5
191
330
1F
100
AcDbEntity
  8
LAY-10
  6
CONTINUOUS
 62
     7
100
AcDbCircle
 10
227.2003111964599
 20
120.1411013891777
 30
0.0
 40
1.757438
100
AcDbArc
 50
235.4331149999987
 51
331.1090020000018
  0
ARC
  5
192
330
1F
100
AcDbEntity
  8
LAY-10
  6
CONTINUOUS
 62
     7
100
AcDbCircle
 10
227.1953574453511
 20
120.1458411733447
 30
0.0
 40
3.752718
100
AcDbArc
 50
218.8580959999995
 51
327.6074550000017
  0
LINE
  5
193
330
1F
100
AcDbEntity
  8
LAY-10
  6
CONTINUOUS
 62
     7
100
AcDbLine
 10
225.6980421173761
 20
121.0531182661343
 30
0.0
 11
226.5041067458336
 21
120.9049502808213
 31
0.0
  0
ARC
  5
194
330
1F
100
AcDbEntity
  8
LAY-10
  6
CONTINUOUS
 62
     7
100
AcDbCircle
 10
218.4369158200201
 20
117.2107607915347
 30
0.0
 40
3.752718
100
AcDbArc
 50
218.5573780000006
 51
327.6074549999998
  0
ARC
  5
195
330
1F
100
AcDbEntity
  8
LAY-10
  6
CONTINUOUS
 62
     7
100
AcDbCircle
 10
218.4418705673237
 20
117.206020920212
 30
0.0
 40
1.757438
100
AcDbArc
 50
234.6694140000018
 51
331.1090019999974
  0
LINE
  5
196
330
1F
100
AcDbEntity
  8
LAY-10
  6
CONTINUOUS
 62
     7
100
AcDbLine
 10
216.949448782451
 20
118.1340645355055
 30
0.0
 11
217.7394239525221
 21
117.9888540932327
 31
0.0
  0
ARC
  5
197
330
1F
100
AcDbEntity
  8
LAY-10
  6
CONTINUOUS
 62
     7
100
AcDbCircle
 10
209.6722330267086
 20
114.2946646039461
 30
0.0
 40
3.752718
100
AcDbArc
 50
218.3775220000001
 51
327.6074550000017
  0
ARC
  5
198
330
1F
100
AcDbEntity
  8
LAY-10
  6
CONTINUOUS
 62
     7
100
AcDbCircle
 10
209.6771867778174
 20
114.2899248197791
 30
0.0
 40
1.757438
100
AcDbArc
 50
234.2966630000017
 51
331.1090019999974
  0
LINE
  5
199
330
1F
100
AcDbEntity
  8
LAY-10
  6
CONTINUOUS
 62
     7
100
AcDbLine
 10
208.1846048079091
 20
115.2177094104515
 30
0.0
 11
208.9569227191251
 21
115.0757452527821
 31
0.0
  0
ARC
  5
19A
330
1F
100
AcDbEntity
  8
LAY-10
  6
CONTINUOUS
 62
     7
100
AcDbCircle
 10
200.8897327895062
 20
111.3815556763397
 30
0.0
 40
3.752718
100
AcDbArc
 50
216.409056
 51
327.6074549999998
  0
ARC
  5
19B
330
1F
100
AcDbEntity
  8
LAY-10
  6
CONTINUOUS
 62
     7
100
AcDbCircle
 10
200.8997132013859
 20
111.3609423863377
 30
0.0
 40
1.757438
100
AcDbArc
 50
241.9326250000001
 51
329.2193919999999
  0
LINE
  5
19C
330
1F
100
AcDbEntity
  8
LAY-10
  6
CONTINUOUS
 62
     7
100
AcDbLine
 10
175.981308673118
 20
101.0998689587909
 30
0.0
 11
175.5733715863095
 21
100.9531687801161
 31
0.0
  0
LINE
  5
19D
330
1F
100
AcDbEntity
  8
LAY-10
  6
CONTINUOUS
 62
     7
100
AcDbLine
 10
197.9842912300893
 20
109.0124464174771
 30
0.0
 11
179.8271284850945
 21
102.4828794490622
 31
0.0
  0
ARC
  5
19E
330
1F
100
AcDbEntity
  8
LAY-10
  6
CONTINUOUS
 62
     7
100
AcDbCircle
 10
175.0117927318375
 20
102.0699181708767
 30
0.0
 40
1.25
100
AcDbArc
 50
161.0987889999992
 51
28.89487099999958
  0
ARC
  5
19F
330
1F
100
AcDbEntity
  8
LAY-10
  6
CONTINUOUS
 62
     7
100
AcDbCircle
 10
209.6771867778174
 20
114.2899248197791
 30
0.0
 40
1.757438
100
AcDbArc
 50
111.6599519999989
 51
165.1348610000011
  0
LINE
  5
1A0
330
1F
100
AcDbEntity
  8
LAY-10
  6
CONTINUOUS
 62
     7
100
AcDbLine
 10
217.2394611387805
 20
117.8590829050604
 30
0.0
 11
214.9716141216792
 21
116.8863853885584
 31
0.0
  0
LINE
  5
1A1
330
1F
100
AcDbEntity
  8
LAY-10
  6
CONTINUOUS
 62
     7
100
AcDbLine
 10
214.4097510523544
 20
118.6009022359189
 30
0.0
 11
214.9155199226399
 21
118.5079338014093
 31
0.0
  0
LINE
  5
1A2
330
1F
100
AcDbEntity
  8
LAY-10
  6
CONTINUOUS
 62
     7
100
AcDbLine
 10
214.0481768911574
 20
116.6338573006505
 30
0.0
 11
214.3516014512155
 21
116.5780828692002
 31
0.0
  0
ARC
  5
1A3
330
1F
100
AcDbEntity
  8
LAY-10
  6
CONTINUOUS
 62
     7
100
AcDbCircle
 10
212.6018784282918
 20
108.7656797262782
 30
0.0
 40
8.0
100
AcDbArc
 50
79.58438299999987
 51
116.5302110000002
  0
ARC
  5
1A4
330
1F
100
AcDbEntity
  8
LAY-10
  6
CONTINUOUS
 62
     7
100
AcDbCircle
 10
212.6018784282918
 20
108.7656797262782
 30
0.0
 40
10.0
100
AcDbArc
 50
79.58438300000005
 51
115.9431989999998
  0
ARC
  5
1A5
330
1F
100
AcDbEntity
  8
LAY-10
  6
CONTINUOUS
 62
     7
100
AcDbCircle
 10
218.8343331008956
 20
114.525062701171
 30
0.0
 40
1.018062
100
AcDbArc
 50
109.1402699999986
 51
109.2324369999971
  0
LINE
  5
1A6
330
1F
100
AcDbEntity
  8
LAY-10
  6
CONTINUOUS
 62
     7
100
AcDbLine
 10
218.0531239233582
 20
116.0418022190624
 30
0.0
 11
216.3475958466091
 21
115.3092512076066
 31
0.0
  0
ARC
  5
1A7
330
1F
100
AcDbEntity
  8
LAY-10
  6
CONTINUOUS
 62
     7
100
AcDbCircle
 10
219.5962008807568
 20
107.9985351411633
 30
0.0
 40
8.0
100
AcDbArc
 50
113.9585450000005
 51
147.6074549999999
  0
ARC
  5
1A8
330
1F
100
AcDbEntity
  8
LAY-10
  6
CONTINUOUS
 62
     7
100
AcDbCircle
 10
209.6722330267086
 20
114.2946646039461
 30
0.0
 40
3.752718
100
AcDbArc
 50
112.6496459999998
 51
186.6551649999998
  0
ARC
  5
1A9
330
1F
100
AcDbEntity
  8
LAY-10
  6
CONTINUOUS
 62
     7
100
AcDbCircle
 10
217.7321569240988
 20
116.9888812579543
 30
0.0
 40
1.0
100
AcDbArc
 50
288.7138030000012
 51
119.5179310000008
  0
ARC
  5
1AA
330
1F
100
AcDbEntity
  8
LAY-10
  6
CONTINUOUS
 62
     7
100
AcDbCircle
 10
218.2202191558266
 20
109.5756693221151
 30
0.0
 40
8.0
100
AcDbArc
 50
113.9585450000005
 51
151.1090020000002
  0
ARC
  5
1AB
330
1F
100
AcDbEntity
  8
LAY-10
  6
CONTINUOUS
 62
     7
100
AcDbCircle
 10
218.4418705673237
 20
117.206020920212
 30
0.0
 40
1.757438
100
AcDbArc
 50
111.6599519999989
 51
165.5383150000025
  0
LINE
  5
1AC
330
1F
100
AcDbEntity
  8
LAY-10
  6
CONTINUOUS
 62
     7
100
AcDbLine
 10
226.0041438449363
 20
120.7751780964545
 30
0.0
 11
223.736296827835
 21
119.8024805799523
 31
0.0
  0
LINE
  5
1AD
330
1F
100
AcDbEntity
  8
LAY-10
  6
CONTINUOUS
 62
     7
100
AcDbLine
 10
223.1744337585102
 20
121.5169974273128
 30
0.0
 11
223.6678485808069
 21
121.4263003622782
 31
0.0
  0
LINE
  5
1AE
330
1F
100
AcDbEntity
  8
LAY-10
  6
CONTINUOUS
 62
     7
100
AcDbLine
 10
222.8128596844689
 20
119.5499534882392
 30
0.0
 11
223.1162852407218
 21
119.4941789696331
 31
0.0
  0
ARC
  5
1AF
330
1F
100
AcDbEntity
  8
LAY-10
  6
CONTINUOUS
 62
     7
100
AcDbCircle
 10
221.3665622177981
 20
111.6817758267109
 30
0.0
 40
8.0
100
AcDbArc
 50
79.58438299999987
 51
116.5302109999997
  0
ARC
  5
1B0
330
1F
100
AcDbEntity
  8
LAY-10
  6
CONTINUOUS
 62
     7
100
AcDbCircle
 10
221.3665622177981
 20
111.6817758267109
 30
0.0
 40
10.0
100
AcDbArc
 50
79.58438299999969
 51
115.9431990000001
  0
ARC
  5
1B1
330
1F
100
AcDbEntity
  8
LAY-10
  6
CONTINUOUS
 62
     7
100
AcDbCircle
 10
227.5990158942071
 20
117.4411588887596
 30
0.0
 40
1.018062
100
AcDbArc
 50
109.1402699999986
 51
109.2324369999971
  0
LINE
  5
1B2
330
1F
100
AcDbEntity
  8
LAY-10
  6
CONTINUOUS
 62
     7
100
AcDbLine
 10
226.8178067166697
 20
118.9578984066509
 30
0.0
 11
225.1122795489597
 21
118.2253463118447
 31
0.0
  0
ARC
  5
1B3
330
1F
100
AcDbEntity
  8
LAY-10
  6
CONTINUOUS
 62
     7
100
AcDbCircle
 10
228.3608835869126
 20
110.9146303325572
 30
0.0
 40
8.0
100
AcDbArc
 50
113.9585450000001
 51
147.6074549999999
  0
ARC
  5
1B4
330
1F
100
AcDbEntity
  8
LAY-10
  6
CONTINUOUS
 62
     7
100
AcDbCircle
 10
218.4369158200201
 20
117.2107607915347
 30
0.0
 40
3.752718
100
AcDbArc
 50
112.6496459999998
 51
186.8246590000008
  0
ARC
  5
1B5
330
1F
100
AcDbEntity
  8
LAY-10
  6
CONTINUOUS
 62
     7
100
AcDbCircle
 10
226.4968396302546
 20
119.9049764493481
 30
0.0
 40
1.0
100
AcDbArc
 50
288.7138030000012
 51
119.5179310000008
  0
ARC
  5
1B6
330
1F
100
AcDbEntity
  8
LAY-10
  6
CONTINUOUS
 62
     7
100
AcDbCircle
 10
226.9849018619824
 20
112.491764513509
 30
0.0
 40
8.0
100
AcDbArc
 50
113.9585450000005
 51
151.1090020000002
  0
ARC
  5
1B7
330
1F
100
AcDbEntity
  8
LAY-10
  6
CONTINUOUS
 62
     7
100
AcDbCircle
 10
227.2003111964599
 20
120.1411013891777
 30
0.0
 40
1.757438
100
AcDbArc
 50
111.6599520000009
 51
166.3538989999983
  0
LINE
  5
1B8
330
1F
100
AcDbEntity
  8
LAY-10
  6
CONTINUOUS
 62
     7
100
AcDbLine
 10
234.7625844740725
 20
123.7102585654202
 30
0.0
 11
232.494738453166
 21
122.7375609617622
 31
0.0
  0
LINE
  5
1B9
330
1F
100
AcDbEntity
  8
LAY-10
  6
CONTINUOUS
 62
     7
100
AcDbLine
 10
231.5713013097999
 20
122.4850338700491
 30
0.0
 11
231.874725869858
 21
122.429259438599
 31
0.0
  0
ARC
  5
1BA
330
1F
100
AcDbEntity
  8
LAY-10
  6
CONTINUOUS
 62
     7
100
AcDbCircle
 10
230.1250028469343
 20
114.6168562956768
 30
0.0
 40
8.0
100
AcDbArc
 50
79.58438300000027
 51
116.5302109999997
  0
ARC
  5
1BB
330
1F
100
AcDbEntity
  8
LAY-10
  6
CONTINUOUS
 62
     7
100
AcDbCircle
 10
230.1250028469343
 20
114.6168562956768
 30
0.0
 40
10.0
100
AcDbArc
 50
79.58438300000005
 51
115.9431990000001
  0
ARC
  5
1BC
330
1F
100
AcDbEntity
  8
LAY-10
  6
CONTINUOUS
 62
     7
100
AcDbCircle
 10
236.3574575195381
 20
120.3762392705696
 30
0.0
 40
1.018062
100
AcDbArc
 50
109.1402699999986
 51
109.2324369999971
  0
LINE
  5
1BD
330
1F
100
AcDbEntity
  8
LAY-10
  6
CONTINUOUS
 62
     7
100
AcDbLine
 10
235.5762483420007
 20
121.8929787884608
 30
0.0
 11
233.8707202652516
 21
121.1604277770052
 31
0.0
  0
ARC
  5
1BE
330
1F
100
AcDbEntity
  8
LAY-10
  6
CONTINUOUS
 62
     7
100
AcDbCircle
 10
237.1193252993991
 20
113.8497117105619
 30
0.0
 40
8.0
100
AcDbArc
 50
113.9585449999996
 51
147.6074549999999
  0
ARC
  5
1BF
330
1F
100
AcDbEntity
  8
LAY-10
  6
CONTINUOUS
 62
     7
100
AcDbCircle
 10
227.1953574453511
 20
120.1458411733447
 30
0.0
 40
3.752718
100
AcDbArc
 50
112.6496459999998
 51
187.1444440000001
  0
ARC
  5
1C0
330
1F
100
AcDbEntity
  8
LAY-10
  6
CONTINUOUS
 62
     7
100
AcDbCircle
 10
235.2552813427413
 20
122.8400578273529
 30
0.0
 40
1.0
100
AcDbArc
 50
288.7138029999983
 51
119.5179310000008
  0
ARC
  5
1C1
330
1F
100
AcDbEntity
  8
LAY-10
  6
CONTINUOUS
 62
     7
100
AcDbCircle
 10
235.7433434873134
 20
115.4268448953191
 30
0.0
 40
8.0
100
AcDbArc
 50
113.9585450000001
 51
151.1090020000002
  0
ARC
  5
1C2
330
1F
100
AcDbEntity
  8
LAY-10
  6
CONTINUOUS
 62
     7
100
AcDbCircle
 10
203.8193781910896
 20
105.8525707986718
 30
0.0
 40
10.0
100
AcDbArc
 50
79.58438300000005
 51
115.9431990000001
  0
ARC
  5
1C3
330
1F
100
AcDbEntity
  8
LAY-10
  6
CONTINUOUS
 62
     7
100
AcDbCircle
 10
203.7979771967624
 20
106.2533641579627
 30
0.0
 40
7.610254000000008
100
AcDbArc
 50
78.88037300000023
 51
117.3193180000004
  0
LINE
  5
1C4
330
1F
100
AcDbEntity
  8
LAY-10
  6
CONTINUOUS
 62
     7
100
AcDbLine
 10
205.2656766539552
 20
113.7207483730442
 30
0.0
 11
205.5691012140134
 21
113.6649739415941
 31
0.0
  0
ARC
  5
1C5
330
1F
100
AcDbEntity
  8
LAY-10
  6
CONTINUOUS
 62
     7
100
AcDbCircle
 10
209.4377178352739
 20
106.6625594854697
 30
0.0
 40
8.0
100
AcDbArc
 50
113.9585450000001
 51
151.1090020000002
  0
ARC
  5
1C6
330
1F
100
AcDbEntity
  8
LAY-10
  6
CONTINUOUS
 62
     7
100
AcDbCircle
 10
210.8137005563987
 20
105.0854252173621
 30
0.0
 40
8.0
100
AcDbArc
 50
113.9585450000005
 51
147.6074549999999
  0
LINE
  5
1C7
330
1F
100
AcDbEntity
  8
LAY-10
  6
CONTINUOUS
 62
     7
100
AcDbLine
 10
208.4569598182278
 20
114.9459730684152
 30
0.0
 11
206.1891137973213
 21
113.9732754647573
 31
0.0
  0
LINE
  5
1C8
330
1F
100
AcDbEntity
  8
LAY-10
  6
CONTINUOUS
 62
     7
100
AcDbLine
 10
209.270623686156
 20
113.1286932914558
 30
0.0
 11
207.5650955222512
 21
112.3961412838055
 31
0.0
  0
LINE
  5
1C9
330
1F
100
AcDbEntity
  8
LAY-10
  6
CONTINUOUS
 62
     7
100
AcDbLine
 10
200.7632811882107
 20
110.0157774611236
 30
0.0
 11
175.0390980201104
 21
102.3561917154618
 31
0.0
  0
LINE
  5
1CA
330
1F
100
AcDbEntity
  8
LAY-10
  6
CONTINUOUS
 62
     7
100
AcDbLine
 10
200.058201401284
 20
112.4142109772854
 30
0.0
 11
174.1842522724625
 21
104.7006407679862
 31
0.0
  0
ARC
  5
1CB
330
1F
100
AcDbEntity
  8
LAY-10
  6
CONTINUOUS
 62
     7
100
AcDbCircle
 10
210.0518328636934
 20
111.6119537735646
 30
0.0
 40
1.018062
100
AcDbArc
 50
109.1402700000021
 51
109.2324370000014
  0
ARC
  5
1CC
330
1F
100
AcDbEntity
  8
LAY-10
  6
CONTINUOUS
 62
     7
100
AcDbCircle
 10
201.2093063904302
 20
108.6466759587806
 30
0.0
 40
1.018062
100
AcDbArc
 50
107.2506599999981
 51
107.3428279999998
  0
ARC
  5
1CD
330
1F
100
AcDbEntity
  8
LAY-10
  6
CONTINUOUS
 62
     7
100
AcDbCircle
 10
200.8997132013859
 20
111.3609423863377
 30
0.0
 40
1.757438
100
AcDbArc
 50
109.7703430000012
 51
151.2726529999971
  0
LINE
  5
1CE
330
1F
100
AcDbEntity
  8
LAY-10
  6
CONTINUOUS
 62
     7
100
AcDbLine
 10
205.6272507279965
 20
115.6877923121178
 30
0.0
 11
206.1507371892347
 21
115.5915672955309
 31
0.0
  0
ARC
  5
1CF
330
1F
100
AcDbEntity
  8
LAY-10
  6
CONTINUOUS
 62
     7
100
AcDbCircle
 10
208.9496556035461
 20
114.0757714213089
 30
0.0
 40
1.0
100
AcDbArc
 50
288.7138030000012
 51
119.5179310000008
  0
ARC
  5
1D0
330
1F
100
AcDbEntity
  8
LAY-10
  6
CONTINUOUS
 62
     7
100
AcDbCircle
 10
200.8897327895062
 20
111.3815556763397
 30
0.0
 40
3.752718
100
AcDbArc
 50
112.6496459999998
 51
177.5129790000012
  0
ARC
  5
1D1
330
1F
100
AcDbEntity
  8
LAY-10
  6
CONTINUOUS
 62
     7
100
AcDbCircle
 10
174.5407456289305
 20
103.502553239962
 30
0.0
 40
1.25
100
AcDbArc
 50
106.5705179999991
 51
293.4957899999997
  0
LINE
  5
1D2
330
1F
100
AcDbEntity
  8
LAY-10
  6
CONTINUOUS
 62
     7
100
AcDbLine
 10
200.0594516202094
 20
112.4145834308246
 30
0.0
 11
199.3585860649119
 21
112.2056407990674
 31
0.0
  0
ARC
  5
1D3
330
1F
100
AcDbEntity
  8
LAY-10
  6
CONTINUOUS
 62
     7
100
AcDbCircle
 10
200.4159460600277
 20
111.2164968118393
 30
0.0
 40
1.25
100
AcDbArc
 50
285.8906710000015
 51
106.6303409999996
  0
LINE
  5
1D4
330
1F
100
AcDbEntity
  8
LAY-10
  6
CONTINUOUS
 62
     7
100
AcDbLine
 10
231.9328754709967
 20
124.4520788053175
 30
0.0
 11
235.1243688184105
 21
123.8654308132422
 31
0.0
  0
LINE
  5
1D5
330
1F
100
AcDbEntity
  8
LAY-10
  6
CONTINUOUS
 62
     7
100
AcDbLine
 10
179.7882095812494
 20
107.300000000003
 30
0.0
 11
179.7882095812494
 21
106.3712986925275
 31
0.0
  0
LINE
  5
1D6
330
1F
100
AcDbEntity
  8
LAY-10
  6
CONTINUOUS
 62
     7
100
AcDbLine
 10
179.7882095812494
 20
103.7702784905617
 30
0.0
 11
179.7882095812494
 21
92.30000000000047
 31
0.0
  0
LINE
  5
1D7
330
1F
100
AcDbEntity
  8
LAY-10
  6
CONTINUOUS
 62
     7
100
AcDbLine
 10
196.276005746388
 20
84.05626131318772
 30
0.0
 11
197.2882095812462
 21
92.29999999999802
 31
0.0
  0
LINE
  5
1D8
330
1F
100
AcDbEntity
  8
LAY-10
  6
CONTINUOUS
 62
     7
100
AcDbLine
 10
200.7882095812427
 20
82.29999999999802
 30
0.0
 11
179.9631869083092
 21
82.29999999999802
 31
0.0
  0
LINE
  5
1D9
330
1F
100
AcDbEntity
  8
LAY-10
  6
CONTINUOUS
 62
     7
100
AcDbLine
 10
167.6132322541906
 20
82.29999999999802
 30
0.0
 11
146.7882095812599
 21
82.29999999999802
 31
0.0
  0
LINE
  5
1DA
330
1F
100
AcDbEntity
  8
LAY-10
  6
CONTINUOUS
 62
     7
100
AcDbLine
 10
111.78820958125
 20
92.29999999999995
 30
0.0
 11
235.78820958125
 21
92.29999999999998
 31
0.0
  0
ARC
  5
1DB
330
1F
100
AcDbEntity
  8
LAY-10
  6
CONTINUOUS
 62
     7
100
AcDbCircle
 10
154.1040961807589
 20
63.8000000000041
 30
0.0
 40
0.5
100
AcDbArc
 50
2.999999999997314
 51
90.00000000000004
  0
ARC
  5
1DC
330
1F
100
AcDbEntity
  8
LAY-10
  6
CONTINUOUS
 62
     7
100
AcDbCircle
 10
161.4723229817414
 20
63.8000000000041
 30
0.0
 40
0.5
100
AcDbArc
 50
90.00000000000004
 51
177.0000000000028
  0
ARC
  5
1DD
330
1F
100
AcDbEntity
  8
LAY-10
  6
CONTINUOUS
 62
     7
100
AcDbCircle
 10
186.1040961807582
 20
63.8000000000041
 30
0.0
 40
0.5
100
AcDbArc
 50
2.999999999997314
 51
90.00000000000004
  0
ARC
  5
1DE
330
1F
100
AcDbEntity
  8
LAY-10
  6
CONTINUOUS
 62
     7
100
AcDbCircle
 10
193.4723229817407
 20
63.8000000000041
 30
0.0
 40
0.5
100
AcDbArc
 50
90.00000000000004
 51
177.0000000000019
  0
ARC
  5
1DF
330
1F
100
AcDbEntity
  8
LAY-10
  6
CONTINUOUS
 62
     7
100
AcDbCircle
 10
201.104096180759
 20
63.8000000000041
 30
0.0
 40
0.5
100
AcDbArc
 50
2.999999999998117
 51
90.00000000000004
  0
LINE
  5
1E0
330
1F
100
AcDbEntity
  8
LAY-10
  6
CONTINUOUS
 62
     7
100
AcDbLine
 10
201.6034109481363
 20
63.82616797812562
 30
0.0
 11
201.7882095812486
 21
60.3000000000041
 31
0.0
  0
LINE
  5
1E1
330
1F
100
AcDbEntity
  8
LAY-10
  6
CONTINUOUS
 62
     7
100
AcDbLine
 10
185.5246631832097
 20
64.3000000000041
 30
0.0
 11
201.104096180759
 21
64.3000000000041
 31
0.0
  0
LINE
  5
1E2
330
1F
100
AcDbEntity
  8
LAY-10
  6
CONTINUOUS
 62
     7
100
AcDbLine
 10
145.7882095812499
 20
60.3000000000041
 30
0.0
 11
201.7882095812486
 21
60.3000000000041
 31
0.0
  0
ARC
  5
1E3
330
1F
100
AcDbEntity
  8
LAY-10
  6
CONTINUOUS
 62
     7
100
AcDbCircle
 10
185.5246631832097
 20
66.3000000000041
 30
0.0
 40
2.0
100
AcDbArc
 50
182.9999999999991
 51
270.0000000000002
  0
LINE
  5
1E4
330
1F
100
AcDbEntity
  8
LAY-10
  6
CONTINUOUS
 62
     7
100
AcDbLine
 10
183.5274041137006
 20
66.19532808751825
 30
0.0
 11
182.7882095812515
 21
80.3000000000041
 31
0.0
  0
ARC
  5
1E5
330
1F
100
AcDbEntity
  8
LAY-10
  6
CONTINUOUS
 62
     7
100
AcDbCircle
 10
162.0517559792902
 20
66.3000000000041
 30
0.0
 40
2.0
100
AcDbArc
 50
270.0000000000002
 51
357.0000000000008
  0
LINE
  5
1E6
330
1F
100
AcDbEntity
  8
LAY-10
  6
CONTINUOUS
 62
     7
100
AcDbLine
 10
164.0490150487992
 20
66.19532808751825
 30
0.0
 11
164.7882095812483
 21
80.3000000000041
 31
0.0
  0
LINE
  5
1E7
330
1F
100
AcDbEntity
  8
LAY-10
  6
CONTINUOUS
 62
     7
100
AcDbLine
 10
154.6034109481361
 20
63.82616797812983
 30
0.0
 11
154.7882095812486
 21
60.3000000000041
 31
0.0
  0
LINE
  5
1E8
330
1F
100
AcDbEntity
  8
LAY-10
  6
CONTINUOUS
 62
     7
100
AcDbLine
 10
160.9730082143644
 20
63.82616797812983
 30
0.0
 11
160.788209581252
 21
60.3000000000041
 31
0.0
  0
LINE
  5
1E9
330
1F
100
AcDbEntity
  8
LAY-10
  6
CONTINUOUS
 62
     7
100
AcDbLine
 10
186.6034109481354
 20
63.82616797812983
 30
0.0
 11
186.7882095812479
 21
60.3000000000041
 31
0.0
  0
LINE
  5
1EA
330
1F
100
AcDbEntity
  8
LAY-10
  6
CONTINUOUS
 62
     7
100
AcDbLine
 10
192.9730082143637
 20
63.82616797812983
 30
0.0
 11
192.7882095812513
 21
60.3000000000041
 31
0.0
  0
ARC
  5
1EB
330
1F
100
AcDbEntity
  8
LAY-10
  6
CONTINUOUS
 62
     7
100
AcDbCircle
 10
146.4723229817407
 20
63.8000000000041
 30
0.0
 40
0.5
100
AcDbArc
 50
90.00000000000004
 51
177.0000000000028
  0
LINE
  5
1EC
330
1F
100
AcDbEntity
  8
LAY-10
  6
CONTINUOUS
 62
     7
100
AcDbLine
 10
146.4723229817398
 20
64.3000000000041
 30
0.0
 11
162.0517559792902
 21
64.3000000000041
 31
0.0
  0
LINE
  5
1ED
330
1F
100
AcDbEntity
  8
LAY-10
  6
CONTINUOUS
 62
     7
100
AcDbLine
 10
145.9730082143633
 20
63.82616797812585
 30
0.0
 11
145.7882095812511
 21
60.3000000000041
 31
0.0
  0
LINE
  5
1EE
330
1F
100
AcDbEntity
  8
LAY-10
  6
CONTINUOUS
 62
     7
100
AcDbLine
 10
177.7882095812452
 20
80.3000000000041
 30
0.0
 11
182.7882095812515
 21
80.3000000000041
 31
0.0
  0
LINE
  5
1EF
330
1F
100
AcDbEntity
  8
LAY-10
  6
CONTINUOUS
 62
     7
100
AcDbLine
 10
164.7882095812483
 20
80.3000000000041
 30
0.0
 11
169.7882095812549
 21
80.3000000000041
 31
0.0
  0
LINE
  5
1F0
330
1F
100
AcDbEntity
  8
LAY-10
  6
CONTINUOUS
 62
     7
100
AcDbLine
 10
167.7882095812424
 20
80.2999999999999
 30
0.0
 11
179.7882095812577
 21
80.2999999999999
 31
0.0
  0
LINE
  5
1F1
330
1F
100
AcDbEntity
  8
LAY-10
  6
CONTINUOUS
 62
     7
100
AcDbLine
 10
218.03820958125
 20
68.1970522666285
 30
0.0
 11
222.2882095812495
 21
92.30000000000007
 31
0.0
  0
LINE
  5
1F2
330
1F
100
AcDbEntity
  8
LAY-10
  6
CONTINUOUS
 62
     7
100
AcDbLine
 10
218.03820958125
 20
68.1970522666285
 30
0.0
 11
218.03820958125
 21
57.80000000000007
 31
0.0
  0
ARC
  5
1F3
330
1F
100
AcDbEntity
  8
LAY-10
  6
CONTINUOUS
 62
     7
100
AcDbCircle
 10
217.0834707047284
 20
74.29999999999802
 30
0.0
 40
2.0
100
AcDbArc
 50
270.0000000000002
 51
350.0000000000014
  0
LINE
  5
1F4
330
1F
100
AcDbEntity
  8
LAY-10
  6
CONTINUOUS
 62
     7
100
AcDbLine
 10
130.39294845777
 20
72.29999999999802
 30
0.0
 11
164.3689473469839
 21
72.29999999999805
 31
0.0
  0
LINE
  5
1F5
330
1F
100
AcDbEntity
  8
LAY-10
  6
CONTINUOUS
 62
     7
100
AcDbLine
 10
129.5382095812532
 20
68.19705226663001
 30
0.0
 11
125.2882095812546
 21
92.30000000000041
 31
0.0
  0
ARC
  5
1F6
330
1F
100
AcDbEntity
  8
LAY-10
  6
CONTINUOUS
 62
     7
100
AcDbCircle
 10
130.4929484577715
 20
74.30000000000001
 30
0.0
 40
2.0
100
AcDbArc
 50
189.9999999999987
 51
270.0000000000002
  0
LINE
  5
1F7
330
1F
100
AcDbEntity
  8
LAY-10
  6
CONTINUOUS
 62
     7
100
AcDbLine
 10
129.53820958125
 20
68.19705226663046
 30
0.0
 11
129.53820958125
 21
57.80000000000206
 31
0.0
  0
LINE
  5
1F8
330
1F
100
AcDbEntity
  8
LAY-10
  6
CONTINUOUS
 62
     7
100
AcDbLine
 10
129.53820958125
 20
68.19705226663001
 30
0.0
 11
164.0490150488
 21
68.19705226663001
 31
0.0
  0
LINE
  5
1F9
330
1F
100
AcDbEntity
  8
LAY-10
  6
CONTINUOUS
 62
     7
100
AcDbLine
 10
183.2074718155158
 20
72.29999999999805
 30
0.0
 11
217.08347070473
 21
72.29999999999805
 31
0.0
  0
LINE
  5
1FA
330
1F
100
AcDbEntity
  8
LAY-10
  6
CONTINUOUS
 62
     7
100
AcDbLine
 10
183.4224981947359
 20
68.19705226663001
 30
0.0
 11
218.03820958125
 21
68.19705226663001
 31
0.0
  0
LINE
  5
1FB
330
1F
100
AcDbEntity
  8
LAY-10
  6
CONTINUOUS
 62
     7
100
AcDbLine
 10
218.03820958125
 20
57.80000000000007
 30
0.0
 11
129.53820958125
 21
57.80000000000006
 31
0.0
  0
DIMENSION
  5
1FD
330
1F
100
AcDbEntity
  8
LAY-10
  6
CONTINUOUS
 62
     4
100
AcDbDimension
  2
*D15
 10
222.28820958125
 20
126.3
 30
0.0
 11
173.78820958125
 21
128.8
 31
0.0
 70
   160
  1
%%c<>
  3
ISO-25
100
AcDbAlignedDimension
 13
125.28820958125
 23
92.3
 33
0.0
 14
222.28820958125
 24
92.3
 34
0.0
100
AcDbRotatedDimension
1001
ACAD
1000
DSTYLE
1002
{
1070
   270
1070
     2
1070
     6
1000
EX_BNORM
1070
     7
1000
EX_BNORM
1070
    41
1040
2.5
1070
    42
1040
1.5
1070
    44
1040
1.5
1070
    73
1070
     0
1070
    74
1070
     0
1070
    75
1070
     0
1070
    76
1070
     0
1070
    77
1070
     1
1070
    78
1070
     8
1070
   140
1040
3.1181104
1070
   147
1040
0.0
1070
   173
1070
     1
1070
   176
1070
     4
1070
   177
1070
     4
1070
   178
1070
     7
1070
   271
1070
     1
1070
   277
1070
     2
1070
   279
1070
     2
1070
   280
1070
     0
1070
   287
1070
     5
1070
   340
1005
1FC
1002
}
  0
LINE
  5
20B
330
1F
100
AcDbEntity
  8
LAY-10
  6
CONTINUOUS
 62
     7
100
AcDbLine
 10
126.9397043204938
 20
37.12082159663896
 30
0.0
 11
124.8973074146843
 21
38.30000000000007
 31
0.0
  0
LINE
  5
20C
330
1F
100
AcDbEntity
  8
LAY-10
  6
CONTINUOUS
 62
     7
100
AcDbLine
 10
129.84620958125
 20
51.82100000000196
 30
0.0
 11
129.84620958125
 21
34.30000000000007
 31
0.0
  0
LINE
  5
20D
330
1F
100
AcDbEntity
  8
LAY-10
  6
CONTINUOUS
 62
     7
100
AcDbLine
 10
129.846209581249
 20
51.82100000000099
 30
0.0
 11
131.32520958125
 21
53.30000000000194
 31
0.0
  0
LINE
  5
20E
330
1F
100
AcDbEntity
  8
LAY-10
  6
CONTINUOUS
 62
     7
100
AcDbLine
 10
131.3252095812512
 20
35.77899999999892
 30
0.0
 11
129.84620958125
 21
34.29999999999768
 31
0.0
  0
LINE
  5
20F
330
1F
100
AcDbEntity
  8
LAY-10
  6
CONTINUOUS
 62
     7
100
AcDbLine
 10
131.32520958125
 20
53.30000000000007
 30
0.0
 11
131.32520958125
 21
35.77899999999767
 31
0.0
  0
LINE
  5
210
330
1F
100
AcDbEntity
  8
LAY-10
  6
CONTINUOUS
 62
     7
100
AcDbLine
 10
127.53820958125
 20
34.30000000000007
 30
0.0
 11
127.02075983289
 21
34.79969541351011
 31
0.0
  0
LINE
  5
211
330
1F
100
AcDbEntity
  8
LAY-10
  6
CONTINUOUS
 62
     7
100
AcDbLine
 10
133.3963275764198
 20
53.30000000000007
 30
0.0
 11
133.7900265622864
 21
57.80000000000007
 31
0.0
  0
LINE
  5
212
330
1F
100
AcDbEntity
  8
LAY-10
  6
CONTINUOUS
 62
     7
100
AcDbLine
 10
217.7302095812501
 20
51.82100000000196
 30
0.0
 11
217.7302095812501
 21
34.30000000000007
 31
0.0
  0
LINE
  5
213
330
1F
100
AcDbEntity
  8
LAY-10
  6
CONTINUOUS
 62
     7
100
AcDbLine
 10
217.730209581251
 20
51.82100000000099
 30
0.0
 11
216.25120958125
 21
53.30000000000194
 31
0.0
  0
LINE
  5
214
330
1F
100
AcDbEntity
  8
LAY-10
  6
CONTINUOUS
 62
     7
100
AcDbLine
 10
216.2512095812488
 20
35.77899999999892
 30
0.0
 11
217.7302095812501
 21
34.29999999999768
 31
0.0
  0
LINE
  5
215
330
1F
100
AcDbEntity
  8
LAY-10
  6
CONTINUOUS
 62
     7
100
AcDbLine
 10
216.25120958125
 20
53.30000000000007
 30
0.0
 11
216.25120958125
 21
35.77899999999767
 31
0.0
  0
LINE
  5
216
330
1F
100
AcDbEntity
  8
LAY-10
  6
CONTINUOUS
 62
     7
100
AcDbLine
 10
214.1800915860802
 20
53.30000000000007
 30
0.0
 11
213.7863926002136
 21
57.80000000000007
 31
0.0
  0
LINE
  5
217
330
1F
100
AcDbEntity
  8
LAY-10
  6
CENTER
 62
     2
100
AcDbLine
 10
106.8
 20
207.3
 30
0.0
 11
268.3
 21
207.3
 31
0.0
  0
LINE
  5
218
330
1F
100
AcDbEntity
  8
LAY-10
  6
CENTER
 62
     2
100
AcDbLine
 10
173.78820958125
 20
139.7
 30
0.0
 11
173.78820958125
 21
274.3
 31
0.0
  0
LINE
  5
219
330
1F
100
AcDbEntity
  8
LAY-10
  6
CENTER
 62
     2
100
AcDbLine
 10
170.9899999999999
 20
102.3000000000038
 30
0.0
 11
176.5399999999998
 21
102.3000000000038
 31
0.0
  0
LINE
  5
21A
330
1F
100
AcDbEntity
  8
LAY-10
  6
CENTER
 62
     2
100
AcDbLine
 10
157.7882095812502
 20
66.03557312203003
 30
0.0
 11
157.7882095812502
 21
57.43557312203001
 31
0.0
  0
LINE
  5
21B
330
1F
100
AcDbEntity
  8
LAY-10
  6
CENTER
 62
     2
100
AcDbLine
 10
189.7882095812495
 20
66.03557312203003
 30
0.0
 11
189.7882095812495
 21
57.43557312203001
 31
0.0
  0
LINE
  5
21C
330
1F
100
AcDbEntity
  8
LAY-10
  6
CENTER
 62
     2
100
AcDbLine
 10
173.78820958125
 20
113.0
 30
0.0
 11
173.78820958125
 21
31.84422806854002
 31
0.0
  0
DIMENSION
  5
21D
330
1F
100
AcDbEntity
  8
LAY-20
  6
CONTINUOUS
 62
     4
100
AcDbDimension
  2
*D16
 10
236.28820958125
 20
133.3
 30
0.0
 11
173.78820958125
 21
135.8
 31
0.0
 70
   160
  1
%%c<>
  3
ISO-25
100
AcDbAlignedDimension
 13
111.28820958125
 23
91.8
 33
0.0
 14
236.28820958125
 24
91.8
 34
0.0
100
AcDbRotatedDimension
1001
ACAD
1000
DSTYLE
1002
{
1070
   270
1070
     2
1070
     6
1000
EX_BNORM
1070
     7
1000
EX_BNORM
1070
    41
1040
3.0
1070
    42
1040
1.5
1070
    44
1040
1.5
1070
    73
1070
     0
1070
    74
1070
     0
1070
    75
1070
     0
1070
    76
1070
     0
1070
    77
1070
     1
1070
    78
1070
     8
1070
   140
1040
3.1181104
1070
   147
1040
0.0
1070
   173
1070
     1
1070
   176
1070
     4
1070
   177
1070
     4
1070
   178
1070
     7
1070
   271
1070
     1
1070
   277
1070
     2
1070
   279
1070
     2
1070
   280
1070
     0
1070
   287
1070
     5
1070
   340
1005
1FC
1002
}
  0
DIMENSION
  5
22A
330
1F
100
AcDbEntity
  8
LAY-20
  6
CONTINUOUS
 62
     4
100
AcDbDimension
  2
*D17
 10
197.28820958125
 20
119.3
 30
0.0
 11
173.78820958126
 21
121.8
 31
0.0
 70
   160
  1
%%c<>
  3
ISO-25
100
AcDbAlignedDimension
 13
150.28820958127
 23
92.3
 33
0.0
 14
197.28820958125
 24
92.299999999998
 34
0.0
100
AcDbRotatedDimension
1001
ACAD
1000
DSTYLE
1002
{
1070
   270
1070
     2
1070
     6
1000
EX_BNORM
1070
     7
1000
EX_BNORM
1070
    41
1040
3.0
1070
    42
1040
1.5
1070
    44
1040
1.5
1070
    73
1070
     0
1070
    74
1070
     0
1070
    75
1070
     0
1070
    76
1070
     0
1070
    77
1070
     1
1070
    78
1070
     8
1070
   140
1040
3.1181104
1070
   147
1040
0.0
1070
   173
1070
     1
1070
   176
1070
     4
1070
   177
1070
     4
1070
   178
1070
     7
1070
   271
1070
     1
1070
   277
1070
     2
1070
   279
1070
     2
1070
   280
1070
     0
1070
   287
1070
     5
1070
   340
1005
1FC
1002
}
  0
DIMENSION
  5
237
330
1F
100
AcDbEntity
  8
LAY-20
  6
CONTINUOUS
 62
     4
100
AcDbDimension
  2
*D18
 10
246.28820958125
 20
34.30000000000001
 30
0.0
 11
243.78820958125
 21
63.3
 31
0.0
 70
   160
  3
ISO-25
100
AcDbAlignedDimension
 13
235.78820958125
 23
92.3
 33
0.0
 14
220.03820958125
 24
34.30000000000001
 34
0.0
 50
90.0
100
AcDbRotatedDimension
1001
ACAD
1000
DSTYLE
1002
{
1070
   270
1070
     2
1070
     6
1000
EX_BNORM
1070
     7
1000
EX_BNORM
1070
    41
1040
3.0
1070
    42
1040
1.5
1070
    44
1040
1.5
1070
    73
1070
     0
1070
    74
1070
     0
1070
    75
1070
     0
1070
    76
1070
     0
1070
    77
1070
     1
1070
    78
1070
     8
1070
   140
1040
3.1181104
1070
   147
1040
0.0
1070
   173
1070
     1
1070
   176
1070
     4
1070
   177
1070
     4
1070
   178
1070
     7
1070
   271
1070
     1
1070
   277
1070
     2
1070
   279
1070
     2
1070
   280
1070
     0
1070
   287
1070
     5
1070
   340
1005
1FC
1002
}
  0
DIMENSION
  5
244
330
1F
100
AcDbEntity
  8
LAY-20
  6
CONTINUOUS
 62
     4
100
AcDbDimension
  2
*D19
 10
213.786392600214
 20
24.30000000000001
 30
0.0
 11
173.788209581252
 21
26.80000000000001
 31
0.0
 70
   160
  1
%%c<>
  3
ISO-25
100
AcDbAlignedDimension
 13
133.79002656229
 23
57.80000000000001
 33
0.0
 14
213.786392600214
 24
57.80000000000001
 34
0.0
100
AcDbRotatedDimension
1001
ACAD
1000
DSTYLE
1002
{
1070
   270
1070
     2
1070
     6
1000
EX_BNORM
1070
     7
1000
EX_BNORM
1070
    41
1040
3.0
1070
    42
1040
1.5
1070
    44
1040
1.5
1070
    73
1070
     0
1070
    74
1070
     0
1070
    75
1070
     0
1070
    76
1070
     0
1070
    77
1070
     1
1070
    78
1070
     8
1070
   140
1040
3.1181104
1070
   147
1040
0.0
1070
   173
1070
     1
1070
   176
1070
     4
1070
   177
1070
     4
1070
   178
1070
     7
1070
   271
1070
     1
1070
   277
1070
     2
1070
   279
1070
     2
1070
   280
1070
     0
1070
   287
1070
     5
1070
   340
1005
1FC
1002
}
  0
DIMENSION
  5
251
330
1F
100
AcDbEntity
  8
LAY-20
  6
CONTINUOUS
 62
     4
100
AcDbDimension
  2
*D20
 10
217.73020958125
 20
17.30000000000001
 30
0.0
 11
173.78820958125
 21
19.80000000000001
 31
0.0
 70
   160
  1
Ｇ3（87.8）
  3
ISO-25
100
AcDbAlignedDimension
 13
129.84620958125
 23
34.29999999999799
 33
0.0
 14
217.73020958125
 24
34.29999999999799
 34
0.0
100
AcDbRotatedDimension
1001
ACAD
1000
DSTYLE
1002
{
1070
   270
1070
     2
1070
     6
1000
EX_BNORM
1070
     7
1000
EX_BNORM
1070
    41
1040
3.0
1070
    42
1040
1.5
1070
    44
1040
1.5
1070
    73
1070
     0
1070
    74
1070
     0
1070
    75
1070
     0
1070
    76
1070
     0
1070
    77
1070
     1
1070
    78
1070
     8
1070
   140
1040
3.1181104
1070
   147
1040
0.0
1070
   173
1070
     1
1070
   176
1070
     4
1070
   177
1070
     4
1070
   178
1070
     7
1070
   271
1070
     1
1070
   277
1070
     2
1070
   279
1070
     2
1070
   280
1070
     0
1070
   287
1070
     5
1070
   340
1005
1FC
1002
}
  0
DIMENSION
  5
25E
330
1F
100
AcDbEntity
  8
LAY-20
  6
CONTINUOUS
 62
     4
100
AcDbDimension
  2
*D21
 10
140.8
 20
92.3
 30
0.0
 11
138.3
 21
97.29999999999994
 31
0.0
 70
   160
  3
ISO-25
100
AcDbAlignedDimension
 13
140.8
 23
88.299999999998
 33
0.0
 14
140.8
 24
92.3
 34
0.0
 50
90.0
100
AcDbRotatedDimension
1001
ACAD
1000
DSTYLE
1002
{
1070
   270
1070
     2
1070
     6
1000
EX_BNORM
1070
     7
1000
EX_BNORM
1070
    41
1040
3.0
1070
    42
1040
0.0
1070
    44
1040
0.0
1070
    73
1070
     0
1070
    74
1070
     0
1070
    75
1070
     1
1070
    76
1070
     1
1070
    77
1070
     1
1070
    78
1070
     8
1070
   140
1040
3.1181104
1070
   147
1040
0.0
1070
   173
1070
     1
1070
   176
1070
     4
1070
   177
1070
     4
1070
   178
1070
     7
1070
   271
1070
     1
1070
   277
1070
     2
1070
   279
1070
     2
1070
   280
1070
     2
1070
   287
1070
     5
1070
   340
1005
1FC
1002
}
  0
DIMENSION
  5
26B
330
1F
100
AcDbEntity
  8
LAY-20
  6
CONTINUOUS
 62
     4
100
AcDbDimension
  2
*D22
 10
224.3202048907548
 20
79.32737133710712
 30
0.0
 11
231.6479796060076
 21
80.5738534759694
 31
0.0
 70
   160
  3
ISO-25
100
AcDbAlignedDimension
 13
219.8885700021999
 23
80.10878813660811
 33
0.0
 14
224.3202048907548
 24
79.32737133710712
 34
0.0
 50
170.0000000000026
100
AcDbRotatedDimension
1001
ACAD
1000
DSTYLE
1002
{
1070
   270
1070
     2
1070
     6
1000
EX_BNORM
1070
     7
1000
EX_BNORM
1070
    41
1040
3.0
1070
    42
1040
0.0
1070
    44
1040
0.0
1070
    73
1070
     0
1070
    74
1070
     0
1070
    75
1070
     1
1070
    76
1070
     1
1070
    77
1070
     1
1070
    78
1070
     8
1070
   140
1040
3.1181104
1070
   147
1040
0.0
1070
   173
1070
     1
1070
   176
1070
     4
1070
   177
1070
     4
1070
   178
1070
     7
1070
   271
1070
     1
1070
   277
1070
     2
1070
   279
1070
     2
1070
   280
1070
     2
1070
   287
1070
     5
1070
   340
1005
1FC
1002
}
  0
DIMENSION
  5
278
330
1F
100
AcDbEntity
  8
LAY-20
  6
CONTINUOUS
 62
     4
100
AcDbDimension
  2
*D23
 10
205.8
 20
53.30000000000001
 30
0.0
 11
203.3
 21
43.80000000000001
 31
0.0
 70
   160
  3
ISO-25
100
AcDbAlignedDimension
 13
205.8
 23
34.30000000000001
 33
0.0
 14
205.8
 24
53.30000000000001
 34
0.0
 50
90.0
100
AcDbRotatedDimension
1001
ACAD
1000
DSTYLE
1002
{
1070
   270
1070
     2
1070
     6
1000
EX_BNORM
1070
     7
1000
EX_BNORM
1070
    41
1040
3.0
1070
    42
1040
0.0
1070
    44
1040
0.0
1070
    73
1070
     0
1070
    74
1070
     0
1070
    75
1070
     1
1070
    76
1070
     1
1070
    77
1070
     1
1070
    78
1070
     8
1070
   140
1040
3.1181104
1070
   147
1040
0.0
1070
   173
1070
     1
1070
   176
1070
     4
1070
   177
1070
     4
1070
   178
1070
     7
1070
   271
1070
     1
1070
   277
1070
     2
1070
   279
1070
     2
1070
   280
1070
     0
1070
   287
1070
     5
1070
   340
1005
1FC
1002
}
  0
LINE
  5
283
330
1F
100
AcDbEntity
  8
LAY-255
  6
CONTINUOUS
 62
     7
100
AcDbLine
 10
385.0
 20
22.0
 30
0.0
 11
285.0
 21
22.0
 31
0.0
  0
LINE
  5
284
330
1F
100
AcDbEntity
  8
LAY-255
  6
CONTINUOUS
 62
     7
100
AcDbLine
 10
288.8
 20
16.0
 30
0.0
 11
296.8
 21
21.0
 31
0.0
  0
LINE
  5
285
330
1F
100
AcDbEntity
  8
LAY-255
  6
CONTINUOUS
 62
     7
100
AcDbLine
 10
296.8
 20
21.0
 30
0.0
 11
304.8
 21
16.0
 31
0.0
  0
LINE
  5
286
330
1F
100
AcDbEntity
  8
LAY-255
  6
CONTINUOUS
 62
     7
100
AcDbLine
 10
304.8
 20
16.0
 30
0.0
 11
296.8
 21
11.0
 31
0.0
  0
LINE
  5
287
330
1F
100
AcDbEntity
  8
LAY-255
  6
CONTINUOUS
 62
     7
100
AcDbLine
 10
296.8
 20
11.0
 30
0.0
 11
288.8
 21
16.0
 31
0.0
  0
LINE
  5
288
330
1F
100
AcDbEntity
  8
LAY-255
  6
CONTINUOUS
 62
     7
100
AcDbLine
 10
5.0
 20
10.0
 30
0.0
 11
385.0000000000001
 21
10.0
 31
0.0
  0
LINE
  5
289
330
1F
100
AcDbEntity
  8
LAY-255
  6
CONTINUOUS
 62
     7
100
AcDbLine
 10
5.0
 20
280.0
 30
0.0
 11
385.0000000000001
 21
280.0
 31
0.0
  0
LINE
  5
28A
330
1F
100
AcDbEntity
  8
LAY-255
  6
CONTINUOUS
 62
     7
100
AcDbLine
 10
5.0
 20
10.0
 30
0.0
 11
5.0
 21
280.0
 31
0.0
  0
LINE
  5
28B
330
1F
100
AcDbEntity
  8
LAY-255
  6
CONTINUOUS
 62
     7
100
AcDbLine
 10
385.0
 20
10.0
 30
0.0
 11
385.0
 21
280.0
 31
0.0
  0
LINE
  5
28C
330
1F
100
AcDbEntity
  8
LAY-255
  6
CONTINUOUS
 62
     4
100
AcDbLine
 10
285.0
 20
28.0
 30
0.0
 11
385.0000000000001
 21
28.0
 31
0.0
  0
LINE
  5
28D
330
1F
100
AcDbEntity
  8
LAY-255
  6
CONTINUOUS
 62
     7
100
AcDbLine
 10
285.0
 20
10.0
 30
0.0
 11
285.0
 21
67.0
 31
0.0
  0
LINE
  5
28E
330
1F
100
AcDbEntity
  8
LAY-255
  6
CONTINUOUS
 62
     4
100
AcDbLine
 10
335.0
 20
28.0
 30
0.0
 11
335.0
 21
22.0
 31
0.0
  0
LINE
  5
28F
330
1F
100
AcDbEntity
  8
LAY-255
  6
CONTINUOUS
 62
     7
100
AcDbLine
 10
385.0000000000001
 20
67.0
 30
0.0
 11
285.0
 21
67.0
 31
0.0
  0
LINE
  5
290
330
1F
100
AcDbEntity
  8
LAY-255
  6
CONTINUOUS
 62
     4
100
AcDbLine
 10
383.0
 20
55.0
 30
0.0
 11
287.0
 21
55.0
 31
0.0
  0
LINE
  5
291
330
1F
100
AcDbEntity
  8
LAY-255
  6
CONTINUOUS
 62
     4
100
AcDbLine
 10
383.0
 20
61.0
 30
0.0
 11
287.0
 21
61.0
 31
0.0
  0
POINT
  5
292
330
1F
100
AcDbEntity
  8
LAY-255
  6
CONTINUOUS
 62
     7
100
AcDbPoint
 10
289.0
 20
40.0
 30
0.0
  0
POINT
  5
293
330
1F
100
AcDbEntity
  8
LAY-255
  6
CONTINUOUS
 62
     7
100
AcDbPoint
 10
289.0
 20
34.99999999999999
 30
0.0
  0
POINT
  5
294
330
1F
100
AcDbEntity
  8
LAY-255
  6
CONTINUOUS
 62
     7
100
AcDbPoint
 10
289.0
 20
29.99999999999999
 30
0.0
  0
TEXT
  5
295
330
1F
100
AcDbEntity
  8
LAY-255
  6
CONTINUOUS
 62
     7
100
AcDbText
 10
294.034375
 20
13.71875
 30
0.0
 40
5.15625
  1
S
 41
0.7582677563636363
  7
EXCADSTD
100
AcDbText
  0
TEXT
  5
296
330
1F
100
AcDbEntity
  8
LAY-255
  6
CONTINUOUS
 62
     7
100
AcDbText
 10
297.1046875
 20
13.74941037736
 30
0.0
 40
5.15625
  1
F
 41
0.7440945272727272
  7
EXCADSTD
100
AcDbText
  0
TEXT
  5
297
330
1F
100
AcDbEntity
  8
LAY-255
  6
CONTINUOUS
 62
     7
100
AcDbText
 10
308.1383772949219
 20
15.54375
 30
0.0
 40
5.15625
  1
福西鋳物株式会社
 41
1.342685605887664
  7
EXCADSTD
100
AcDbText
  0
TEXT
  5
298
330
1F
100
AcDbEntity
  8
LAY-255
  6
CONTINUOUS
 62
     7
100
AcDbText
 10
308.509375
 20
11.98125
 30
0.0
 40
1.71875
  1
ＦＵＫＵＮＩＳＨＩ
 41
1.204799226045263
  7
EXCADSTD
100
AcDbText
  0
TEXT
  5
299
330
1F
100
AcDbEntity
  8
LAY-255
  6
CONTINUOUS
 62
     7
100
AcDbText
 10
332.7041294642857
 20
11.98125
 30
0.0
 40
1.71875
  1
ＦＯＵＮＤＲＹ
 41
1.217206955080903
  7
EXCADSTD
100
AcDbText
  0
TEXT
  5
29A
330
1F
100
AcDbEntity
  8
LAY-255
  6
CONTINUOUS
 62
     7
100
AcDbText
 10
351.9244816706731
 20
11.98125
 30
0.0
 40
1.71875
  1
ＣＯ.,ＬＴＤ.
 41
1.097167799789941
  7
EXCADSTD
100
AcDbText
  0
POINT
  5
29B
330
1F
100
AcDbEntity
  8
LAY-255
  6
CONTINUOUS
 62
     7
100
AcDbPoint
 10
289.0
 20
50.0
 30
0.0
  0
TEXT
  5
29C
330
1F
100
AcDbEntity
  8
LAY-255
  6
CONTINUOUS
 62
     7
100
AcDbText
 10
287.265625
 20
56.5625
 30
0.0
 40
3.4375
  1
型式
 41
1.056348480681818
  7
EXCADSTD
100
AcDbText
  0
TEXT
  5
29D
330
1F
100
AcDbEntity
  8
LAY-255
  6
CONTINUOUS
 62
     7
100
AcDbText
 10
287.421875
 20
62.5625
 30
0.0
 40
3.4375
  1
品名
 41
0.978838634090909
  7
EXCADSTD
100
AcDbText
  0
POINT
  5
29E
330
1F
100
AcDbEntity
  8
LAY-255
  6
CONTINUOUS
 62
     7
100
AcDbPoint
 10
300.0
 20
56.0
 30
0.0
  0
POINT
  5
29F
330
1F
100
AcDbEntity
  8
LAY-255
  6
CONTINUOUS
 62
     7
100
AcDbPoint
 10
300.0
 20
62.0
 30
0.0
  0
POINT
  5
2A0
330
1F
100
AcDbEntity
  8
LAY-255
  6
CONTINUOUS
 62
     7
100
AcDbPoint
 10
289.0
 20
45.0
 30
0.0
  0
TEXT
  5
2A1
330
1F
100
AcDbEntity
  8
LAY-255
  6
CONTINUOUS
 62
     7
100
AcDbText
 10
300.21875
 20
62.5625
 30
0.0
 40
3.4375
  1
排水共栓
 41
1.040064899465241
  7
EXCADSTD
100
AcDbText
  0
TEXT
  5
2A2
330
1F
100
AcDbEntity
  8
LAY-255
  6
CONTINUOUS
 62
     7
100
AcDbText
 10
289.140625
 20
50.56250000000001
 30
0.0
 40
3.4375
  1
種別：排水共栓
 41
1.028720849180328
  7
EXCADSTD
100
AcDbText
  0
TEXT
  5
2A3
330
1F
100
AcDbEntity
  8
LAY-255
  6
CONTINUOUS
 62
     7
100
AcDbText
 10
289.21875
 20
45.56250000000001
 30
0.0
 40
3.4375
  1
接続：管用平行ねじ
 41
1.013654991944764
  7
EXCADSTD
100
AcDbText
  0
TEXT
  5
2A4
330
1F
100
AcDbEntity
  8
LAY-255
  6
CONTINUOUS
 62
     7
100
AcDbText
 10
300.75
 20
56.5625
 30
0.0
 40
3.4375
  1
ＳＮＡ－７５型
 41
1.002000827123696
  7
EXCADSTD
100
AcDbText
  0
TEXT
  5
2A5
330
1F
100
AcDbEntity
  8
LAY-255
  6
CONTINUOUS
 62
     7
100
AcDbText
 10
348.28125
 20
23.56249999999999
 30
0.0
 40
3.4375
  1
１：１
 41
0.8291339018181818
  7
EXCADSTD
100
AcDbText
  0
TEXT
  5
2A6
330
1F
100
AcDbEntity
  8
LAY-255
  6
CONTINUOUS
 62
     7
100
AcDbText
 10
300.890625
 20
23.56249999999999
 30
0.0
 40
3.4375
  1
０９／１０／０１
 41
0.9566929636363636
  7
EXCADSTD
100
AcDbText
  0
TEXT
  5
2A7
330
1F
100
AcDbEntity
  8
LAY-255
  6
CONTINUOUS
 62
     7
100
AcDbText
 10
287.15234375
 20
24.42187499999999
 30
0.0
 40
2.578125
  1
作成日
 41
1.000629973818182
  7
EXCADSTD
100
AcDbText
  0
TEXT
  5
2A8
330
1F
100
AcDbEntity
  8
LAY-255
  6
CONTINUOUS
 62
     7
100
AcDbText
 10
337.10546875
 20
24.42187499999999
 30
0.0
 40
2.578125
  1
縮尺
 41
1.080708718181818
  7
EXCADSTD
100
AcDbText
  0
ENDSEC
  0
SECTION
  2
OBJECTS
  0
DICTIONARY
  5
C
330
0
100
AcDbDictionary
  3
ACAD_GROUP
350
D
  3
ACAD_LAYOUT
350
1A
  3
ACAD_MATERIAL
350
43
  3
ACAD_MLEADERSTYLE
350
6B
  3
ACAD_MLINESTYLE
350
17
  3
ACAD_PLOTSETTINGS
350
19
  3
ACAD_SCALELIST
350
47
  3
ACAD_VISUALSTYLE
350
2A
  3
ACDBHEADERROUNDTRIPXREC
350
2A9
  3
ACDBVARIABLEDICTIONARY
350
2CA
  0
DICTIONARY
  5
2D5
330
8
100
AcDbDictionary
280
     1
  3
ACAD_XREC_ROUNDTRIP
360
2D6
  0
DICTIONARY
  5
D
102
{ACAD_REACTORS
330
C
102
}
330
C
100
AcDbDictionary
  0
DICTIONARY
  5
1A
102
{ACAD_REACTORS
330
C
102
}
330
C
100
AcDbDictionary
  0
DICTIONARY
  5
43
102
{ACAD_REACTORS
330
C
102
}
330
C
100
AcDbDictionary
  3
BYBLOCK
350
45
  3
BYLAYER
350
44
  3
GLOBAL
350
46
  0
DICTIONARY
  5
6B
102
{ACAD_REACTORS
330
C
102
}
330
C
100
AcDbDictionary
  3
STANDARD
350
6C
  0
DICTIONARY
  5
17
102
{ACAD_REACTORS
330
C
102
}
330
C
100
AcDbDictionary
  3
STANDARD
350
18
  0
DICTIONARY
  5
19
102
{ACAD_REACTORS
330
C
102
}
330
C
100
AcDbDictionary
  0
DICTIONARY
  5
47
102
{ACAD_REACTORS
330
C
102
}
330
C
100
AcDbDictionary
  3
A0
350
48
  3
A1
350
49
  3
A2
350
4A
  3
A3
350
4B
  3
A4
350
4C
  3
A5
350
4D
  3
A6
350
4E
  3
A7
350
4F
  3
A8
350
50
  3
A9
350
51
  3
B0
350
52
  3
B1
350
53
  3
B2
350
54
  3
B3
350
55
  3
B4
350
56
  3
B5
350
57
  3
B6
350
58
  3
B7
350
59
  3
B8
350
5A
  3
B9
350
5B
  3
C0
350
5C
  3
C1
350
5D
  3
C2
350
5E
  3
C3
350
5F
  3
C4
350
60
  3
C5
350
61
  3
C6
350
62
  3
C7
350
63
  3
C8
350
64
  3
C9
350
65
  3
D0
350
66
  3
D1
350
67
  3
D2
350
68
  0
DICTIONARY
  5
2A
102
{ACAD_REACTORS
330
C
102
}
330
C
100
AcDbDictionary
  3
2DWIREFRAME
350
2F
  3
BASIC
350
32
  3
BRIGHTEN
350
36
  3
COLORCHANGE
350
3A
  3
CONCEPTUAL
350
34
  3
DIM
350
35
  3
EDGECOLOROFF
350
3D
  3
FACEPATTERN
350
39
  3
FLAT
350
2B
  3
FLATWITHEDGES
350
2C
  3
GOURAUD
350
2D
  3
GOURAUDWITHEDGES
350
2E
  3
HIDDEN
350
31
  3
JITTEROFF
350
3B
  3
LINEPATTERN
350
38
  3
OVERHANGOFF
350
3C
  3
REALISTIC
350
33
  3
SHADED
350
42
  3
SHADED_WITH_EDGES
350
41
  3
SHADES_OF_GRAY
350
3E
  3
SKETCHY
350
3F
  3
THICKEN
350
37
  3
WIREFRAME
350
30
  3
X-RAY
350
40
  0
DICTIONARY
  5
2A9
102
{ACAD_REACTORS
330
C
102
}
330
C
100
AcDbDictionary
  3
CEPSNID
350
2B3
  3
CEPSNTYPE
350
2B2
  3
DIMSTYLEDATA
350
2C9
  3
FINGERPRINTGUID
350
2B4
  3
HYPERLINKBASE
350
2AC
  3
INSUNITS
350
2B1
  3
LAYOUTDICT
350
2AE
  3
LWETCUNION
350
2B0
  3
PLOTSETDICT
350
2AF
  3
PSVPSCALE
350
2B6
  3
PUCSBASE
350
2B9
  3
PUCSORGBACK
350
2BF
  3
PUCSORGBOTTOM
350
2BB
  3
PUCSORGFRONT
350
2BE
  3
PUCSORGLEFT
350
2BC
  3
PUCSORGRIGHT
350
2BD
  3
PUCSORGTOP
350
2BA
  3
PUCSORTHOREF
350
2B7
  3
PUCSORTHOVIEW
350
2B8
  3
STYLESHEET
350
2AD
  3
TSTACKALIGN
350
2AA
  3
TSTACKSIZE
350
2AB
  3
UCSBASE
350
2C2
  3
UCSORGBACK
350
2C8
  3
UCSORGBOTTOM
350
2C4
  3
UCSORGFRONT
350
2C7
  3
UCSORGLEFT
350
2C5
  3
UCSORGRIGHT
350
2C6
  3
UCSORGTOP
350
2C3
  3
UCSORTHOREF
350
2C0
  3
UCSORTHOVIEW
350
2C1
  3
VERSIONGUID
350
2B5
  0
DICTIONARY
  5
2CA
102
{ACAD_REACTORS
330
C
102
}
330
C
100
AcDbDictionary
  3
CANNOSCALE
350
2D7
  3
CENTEREXE
350
2D1
  3
CENTERLTYPEFILE
350
2D2
  3
CMLEADERSTYLE
350
2CC
  3
CTABLESTYLE
350
2CB
  3
DIMASSOC
350
2D3
  3
HIDETEXT
350
2D4
  3
MSLTSCALE
350
2D8
  3
PSOLHEIGHT
350
2CE
  3
PSOLWIDTH
350
2CD
  0
XRECORD
  5
2D6
102
{ACAD_REACTORS
330
2D5
102
}
330
2D5
100
AcDbXrecord
102
VTR_0.000_0.000_1.000_1.000_VISUALSTYLE
340
2F
102
VTR_0.000_0.000_1.000_1.000_GRIDDISPLAY
 70
     3
102
VTR_0.000_0.000_1.000_1.000_GRIDMAJOR
 70
     5
102
VTR_0.000_0.000_1.000_1.000_DEFAULTLIGHTING
280
     1
102
VTR_0.000_0.000_1.000_1.000_DEFAULTLIGHTINGTYPE
 70
     1
102
VTR_0.000_0.000_1.000_1.000_BRIGHTNESS
141
0.0
102
VTR_0.000_0.000_1.000_1.000_CONTRAST
142
0.0
  0
MATERIAL
  5
45
102
{ACAD_REACTORS
330
43
102
}
102
{ACAD_XDICTIONARY
360
2DB
102
}
330
43
100
AcDbMaterial
  1
BYBLOCK
  0
MATERIAL
  5
44
102
{ACAD_REACTORS
330
43
102
}
102
{ACAD_XDICTIONARY
360
2D9
102
}
330
43
100
AcDbMaterial
  1
BYLAYER
  0
MATERIAL
  5
46
102
{ACAD_REACTORS
330
43
102
}
102
{ACAD_XDICTIONARY
360
2DD
102
}
330
43
100
AcDbMaterial
  1
GLOBAL
  0
ACAD_PROXY_OBJECT
  5
6C
102
{ACAD_REACTORS
330
6B
102
}
330
6B
100
AcDbProxyObject
 90
      499
 91
      505
 93
      610
310
40901902A4063FBFFFFFE0000000000000020400000000000020404214DD185B99185C990000000000000104090141901A00000000000004100000000000000041025764000000000000039000
340
14
340
0
340
11
340
0
 94
        0
1001
ACAD_MLEADERVER
1070
     2
  0
MLINESTYLE
  5
18
102
{ACAD_REACTORS
330
17
102
}
330
17
100
AcDbMlineStyle
  2
Standard
 70
     0
  3

 62
   256
 51
90.0
 52
90.0
 71
     2
 49
0.5
 62
   256
  6
BYLAYER
 49
-0.5
 62
   256
  6
BYLAYER
  0
ACAD_PROXY_OBJECT
  5
48
102
{ACAD_REACTORS
330
47
102
}
330
47
100
AcDbProxyObject
 90
      499
 91
      503
 93
       41
310
903313A31580
  0
ACAD_PROXY_OBJECT
  5
49
102
{ACAD_REACTORS
330
47
102
}
330
47
100
AcDbProxyObject
 90
      499
 91
      503
 93
      105
310
903313A324000000000000004000
  0
ACAD_PROXY_OBJECT
  5
4A
102
{ACAD_REACTORS
330
47
102
}
330
47
100
AcDbProxyObject
 90
      499
 91
      503
 93
      105
310
903313A344000000000000104000
  0
ACAD_PROXY_OBJECT
  5
4B
102
{ACAD_REACTORS
330
47
102
}
330
47
100
AcDbProxyObject
 90
      499
 91
      503
 93
      105
310
903313A354000000000000144000
  0
ACAD_PROXY_OBJECT
  5
4C
102
{ACAD_REACTORS
330
47
102
}
330
47
100
AcDbProxyObject
 90
      499
 91
      503
 93
      105
310
903313A384000000000000204000
  0
ACAD_PROXY_OBJECT
  5
4D
102
{ACAD_REACTORS
330
47
102
}
330
47
100
AcDbProxyObject
 90
      499
 91
      503
 93
      113
310
904313A31304000000000000244000
  0
ACAD_PROXY_OBJECT
  5
4E
102
{ACAD_REACTORS
330
47
102
}
330
47
100
AcDbProxyObject
 90
      499
 91
      503
 93
      113
310
904313A31364000000000000304000
  0
ACAD_PROXY_OBJECT
  5
4F
102
{ACAD_REACTORS
330
47
102
}
330
47
100
AcDbProxyObject
 90
      499
 91
      503
 93
      113
310
904313A32304000000000000344000
  0
ACAD_PROXY_OBJECT
  5
50
102
{ACAD_REACTORS
330
47
102
}
330
47
100
AcDbProxyObject
 90
      499
 91
      503
 93
      113
310
904313A333040000000000003E4000
  0
ACAD_PROXY_OBJECT
  5
51
102
{ACAD_REACTORS
330
47
102
}
330
47
100
AcDbProxyObject
 90
      499
 91
      503
 93
      113
310
904313A34304000000000000444000
  0
ACAD_PROXY_OBJECT
  5
52
102
{ACAD_REACTORS
330
47
102
}
330
47
100
AcDbProxyObject
 90
      499
 91
      503
 93
      113
310
904313A35304000000000000494000
  0
ACAD_PROXY_OBJECT
  5
53
102
{ACAD_REACTORS
330
47
102
}
330
47
100
AcDbProxyObject
 90
      499
 91
      503
 93
      121
310
905313A3130304000000000000594000
  0
ACAD_PROXY_OBJECT
  5
54
102
{ACAD_REACTORS
330
47
102
}
330
47
100
AcDbProxyObject
 90
      499
 91
      503
 93
      105
310
903323A310000000000000010100
  0
ACAD_PROXY_OBJECT
  5
55
102
{ACAD_REACTORS
330
47
102
}
330
47
100
AcDbProxyObject
 90
      499
 91
      503
 93
      105
310
903343A310000000000000410100
  0
ACAD_PROXY_OBJECT
  5
56
102
{ACAD_REACTORS
330
47
102
}
330
47
100
AcDbProxyObject
 90
      499
 91
      503
 93
      105
310
903383A310000000000000810100
  0
ACAD_PROXY_OBJECT
  5
57
102
{ACAD_REACTORS
330
47
102
}
330
47
100
AcDbProxyObject
 90
      499
 91
      503
 93
      113
310
90431303A310000000000000910100
  0
ACAD_PROXY_OBJECT
  5
58
102
{ACAD_REACTORS
330
47
102
}
330
47
100
AcDbProxyObject
 90
      499
 91
      503
 93
      121
310
9053130303A310000000000001650100
  0
ACAD_PROXY_OBJECT
  5
59
102
{ACAD_REACTORS
330
47
102
}
330
47
100
AcDbProxyObject
 90
      499
 91
      503
 93
      257
310
90E312F31323822203D2031272D3022000000000000200FC000000000000284000
  0
ACAD_PROXY_OBJECT
  5
5A
102
{ACAD_REACTORS
330
47
102
}
330
47
100
AcDbProxyObject
 90
      499
 91
      503
 93
      249
310
90D312F363422203D2031272D3022000000000000240FC000000000000284000
  0
ACAD_PROXY_OBJECT
  5
5B
102
{ACAD_REACTORS
330
47
102
}
330
47
100
AcDbProxyObject
 90
      499
 91
      503
 93
      249
310
90D312F333222203D2031272D3022000000000000280FC000000000000284000
  0
ACAD_PROXY_OBJECT
  5
5C
102
{ACAD_REACTORS
330
47
102
}
330
47
100
AcDbProxyObject
 90
      499
 91
      503
 93
      249
310
90D312F313622203D2031272D30220000000000002C0FC000000000000284000
  0
ACAD_PROXY_OBJECT
  5
5D
102
{ACAD_REACTORS
330
47
102
}
330
47
100
AcDbProxyObject
 90
      499
 91
      503
 93
      249
310
90D332F333222203D2031272D30220000000000002E0FC000000000000284000
  0
ACAD_PROXY_OBJECT
  5
5E
102
{ACAD_REACTORS
330
47
102
}
330
47
100
AcDbProxyObject
 90
      499
 91
      503
 93
      241
310
90C312F3822203D2031272D3022000000000000300FC000000000000284000
  0
ACAD_PROXY_OBJECT
  5
5F
102
{ACAD_REACTORS
330
47
102
}
330
47
100
AcDbProxyObject
 90
      499
 91
      503
 93
      249
310
90D332F313622203D2031272D3022000000000000320FC000000000000284000
  0
ACAD_PROXY_OBJECT
  5
60
102
{ACAD_REACTORS
330
47
102
}
330
47
100
AcDbProxyObject
 90
      499
 91
      503
 93
      241
310
90C312F3422203D2031272D3022000000000000340FC000000000000284000
  0
ACAD_PROXY_OBJECT
  5
61
102
{ACAD_REACTORS
330
47
102
}
330
47
100
AcDbProxyObject
 90
      499
 91
      503
 93
      241
310
90C332F3822203D2031272D3022000000000000360FC000000000000284000
  0
ACAD_PROXY_OBJECT
  5
62
102
{ACAD_REACTORS
330
47
102
}
330
47
100
AcDbProxyObject
 90
      499
 91
      503
 93
      241
310
90C312F3222203D2031272D3022000000000000380FC000000000000284000
  0
ACAD_PROXY_OBJECT
  5
63
102
{ACAD_REACTORS
330
47
102
}
330
47
100
AcDbProxyObject
 90
      499
 91
      503
 93
      241
310
90C332F3422203D2031272D30220000000000003A0FC000000000000284000
  0
ACAD_PROXY_OBJECT
  5
64
102
{ACAD_REACTORS
330
47
102
}
330
47
100
AcDbProxyObject
 90
      499
 91
      503
 93
      161
310
90A3122203D2031272D30224000000000000284000
  0
ACAD_PROXY_OBJECT
  5
65
102
{ACAD_REACTORS
330
47
102
}
330
47
100
AcDbProxyObject
 90
      499
 91
      503
 93
      257
310
90E312D312F3222203D2031272D30220000000000003E0FC000000000000284000
  0
ACAD_PROXY_OBJECT
  5
66
102
{ACAD_REACTORS
330
47
102
}
330
47
100
AcDbProxyObject
 90
      499
 91
      503
 93
      225
310
90A3322203D2031272D302200000000000002100000000000000284000
  0
ACAD_PROXY_OBJECT
  5
67
102
{ACAD_REACTORS
330
47
102
}
330
47
100
AcDbProxyObject
 90
      499
 91
      503
 93
      225
310
90A3622203D2031272D302200000000000006100000000000000284000
  0
ACAD_PROXY_OBJECT
  5
68
102
{ACAD_REACTORS
330
47
102
}
330
47
100
AcDbProxyObject
 90
      499
 91
      503
 93
      249
310
90D31272D3022203D2031272D30220000000000000A100000000000000284000
  0
ACAD_PROXY_OBJECT
  5
2F
102
{ACAD_REACTORS
330
2A
102
}
330
2A
100
AcDbProxyObject
 90
      499
 91
      501
 93
      436
310
42CC9915DA5C99599C985B595049028333333333333E33F0000000000000F90107901411070040501600405405064090741402480A0340
1001
ACAD
1000
AcDbSavedByObjectVersion
1070
     0
  0
ACAD_PROXY_OBJECT
  5
32
102
{ACAD_REACTORS
330
2A
102
}
330
2A
100
AcDbProxyObject
 90
      499
 91
      501
 93
      388
310
4150985CDA58D07406404333333333333E33F0000000000000F90107A41107004050150841D405064090741402480A0350
1001
ACAD
1000
AcDbSavedByObjectVersion
1070
     0
  0
ACAD_PROXY_OBJECT
  5
36
102
{ACAD_REACTORS
330
2A
102
}
330
2A
100
AcDbProxyObject
 90
      499
 91
      501
 93
      428
310
42109C9A59DA1D195B90C409028333333333333E33F0000000000000F9010790141107004050150841D405064090741402480A029950
1001
ACAD
1000
AcDbSavedByObjectVersion
1070
     0
  0
ACAD_PROXY_OBJECT
  5
3A
102
{ACAD_REACTORS
330
2A
102
}
330
2A
100
AcDbProxyObject
 90
      499
 91
      501
 93
      452
310
42D0DBDB1BDC90DA185B99D95104090240C333333333333E33F0000000000000F90108901411070040501508421405064090741402480A0350
1001
ACAD
1000
AcDbSavedByObjectVersion
1070
     0
  0
ACAD_PROXY_OBJECT
  5
34
102
{ACAD_REACTORS
330
2A
102
}
330
2A
100
AcDbProxyObject
 90
      499
 91
      501
 93
      500
310
4290DBDB98D95C1D1D585B10940D028333333333333E33F0000000000000F90107902409070040501000000000018199010841D405064090740C02480A0340
1001
ACAD
1000
AcDbSavedByObjectVersion
1070
     0
  0
ACAD_PROXY_OBJECT
  5
35
102
{ACAD_REACTORS
330
2A
102
}
330
2A
100
AcDbProxyObject
 90
      499
 91
      501
 93
      412
310
40D11A5B50B409028333333333333E33F0000000000000F9010790141107004050150841D405064090741402480A02677FFFFFD0
1001
ACAD
1000
AcDbSavedByObjectVersion
1070
     0
  0
ACAD_PROXY_OBJECT
  5
3D
102
{ACAD_REACTORS
330
2A
102
}
330
2A
100
AcDbProxyObject
 90
      499
 91
      501
 93
      452
310
43115919D950DBDB1BDC93D999916409028333333333333E33F0000000000000F9010790141107004050150841D405064090741402480A0350
1001
ACAD
1000
AcDbSavedByObjectVersion
1070
     0
  0
ACAD_PROXY_OBJECT
  5
39
102
{ACAD_REACTORS
330
2A
102
}
330
2A
100
AcDbProxyObject
 90
      499
 91
      501
 93
      444
310
42D19858D95C185D1D195C9B90F409028333333333333E33F0000000000000F9010790141107004050150841D405064090741402480A0350
1001
ACAD
1000
AcDbSavedByObjectVersion
1070
     0
  0
ACAD_PROXY_OBJECT
  5
2B
102
{ACAD_REACTORS
330
2A
102
}
330
2A
100
AcDbProxyObject
 90
      499
 91
      501
 93
      380
310
41119B185D240901404333333333333E33F0000000000000F9010740A907004050150841D405064090741402480A1B50
1001
ACAD
1000
AcDbSavedByObjectVersion
1070
     0
  0
ACAD_PROXY_OBJECT
  5
2C
102
{ACAD_REACTORS
330
2A
102
}
330
2A
100
AcDbProxyObject
 90
      499
 91
      501
 93
      468
310
43519B185D15DA5D1A115919D95CD0140901404333333333333E33F0000000000000F90107409019070040501600405405064090741402480A1B50
1001
ACAD
1000
AcDbSavedByObjectVersion
1070
     0
  0
ACAD_PROXY_OBJECT
  5
2D
102
{ACAD_REACTORS
330
2A
102
}
330
2A
100
AcDbProxyObject
 90
      499
 91
      501
 93
      404
310
41D1DBDD5C985D5910240902404333333333333E33F0000000000000F9010740A9070040501641D405064090741402480A1B50
1001
ACAD
1000
AcDbSavedByObjectVersion
1070
     0
  0
ACAD_PROXY_OBJECT
  5
2E
102
{ACAD_REACTORS
330
2A
102
}
330
2A
100
AcDbProxyObject
 90
      499
 91
      501
 93
      492
310
4411DBDD5C985D5915DA5D1A115919D95CD0340902404333333333333E33F0000000000000F90107409019070040501600405405064090741402480A1B50
1001
ACAD
1000
AcDbSavedByObjectVersion
1070
     0
  0
ACAD_PROXY_OBJECT
  5
31
102
{ACAD_REACTORS
330
2A
102
}
330
2A
100
AcDbProxyObject
 90
      499
 91
      501
 93
      476
310
41921A5919195B90640502408333333333333E33F0000000000000F901079024090700405020000000000001110200405405064090740C02480A0340
1001
ACAD
1000
AcDbSavedByObjectVersion
1070
     0
  0
ACAD_PROXY_OBJECT
  5
3B
102
{ACAD_REACTORS
330
2A
102
}
330
2A
100
AcDbProxyObject
 90
      499
 91
      501
 93
      428
310
42529A5D1D195C93D999914409028333333333333E33F0000000000000F9010790141107004050150A41D405064090741402480A0350
1001
ACAD
1000
AcDbSavedByObjectVersion
1070
     0
  0
ACAD_PROXY_OBJECT
  5
38
102
{ACAD_REACTORS
330
2A
102
}
330
2A
100
AcDbProxyObject
 90
      499
 91
      501
 93
      444
310
42D31A5B995C185D1D195C9B90E409028333333333333E33F0000000000000F9010790141107004050750841D405064090741402483A0350
1001
ACAD
1000
AcDbSavedByObjectVersion
1070
     0
  0
ACAD_PROXY_OBJECT
  5
3C
102
{ACAD_REACTORS
330
2A
102
}
330
2A
100
AcDbProxyObject
 90
      499
 91
      501
 93
      444
310
42D3DD995C9A185B99D3D999915409028333333333333E33F0000000000000F9010790141107004050150941D405064090741402480A0350
1001
ACAD
1000
AcDbSavedByObjectVersion
1070
     0
  0
ACAD_PROXY_OBJECT
  5
33
102
{ACAD_REACTORS
330
2A
102
}
330
2A
100
AcDbProxyObject
 90
      499
 91
      501
 93
      428
310
425499585B1A5CDD1A58D08409038333333333333E33F0000000000000F9010740A907004050150800405405064090740C02480A1B40
1001
ACAD
1000
AcDbSavedByObjectVersion
1070
     0
  0
ACAD_PROXY_OBJECT
  5
42
102
{ACAD_REACTORS
330
2A
102
}
330
2A
100
AcDbProxyObject
 90
      499
 91
      501
 93
      420
310
4194DA1859195911B40902404333333333333E33F0000000000000F9010740A41107004050150800405405064090840C02480A0B40
1001
ACAD
1000
AcDbSavedByObjectVersion
1070
     0
  0
ACAD_PROXY_OBJECT
  5
41
102
{ACAD_REACTORS
330
2A
102
}
330
2A
100
AcDbProxyObject
 90
      499
 91
      501
 93
      516
310
4454DA18591959081DDA5D1A08195919D95CD1A40902404333333333333E33F0000000000000F901074090142907004050250800405405064090740C02480A0B40
1001
ACAD
1000
AcDbSavedByObjectVersion
1070
     0
  0
ACAD_PROXY_OBJECT
  5
3E
102
{ACAD_REACTORS
330
2A
102
}
330
2A
100
AcDbProxyObject
 90
      499
 91
      501
 93
      532
310
4394DA1859195CC81BD98811DC985E5174090240C333333333333E33F0000000000000F901079024090741D01000000000000111010841D405064090740C02480A0340
1001
ACAD
1000
AcDbSavedByObjectVersion
1070
     0
  0
ACAD_PROXY_OBJECT
  5
3F
102
{ACAD_REACTORS
330
2A
102
}
330
2A
100
AcDbProxyObject
 90
      499
 91
      501
 93
      476
310
41D4DAD95D18DA1E51840502408333333333333E33F0000000000000F901079024090741D01000000000000111010B41D405064090741802480A0340
1001
ACAD
1000
AcDbSavedByObjectVersion
1070
     0
  0
ACAD_PROXY_OBJECT
  5
37
102
{ACAD_REACTORS
330
2A
102
}
330
2A
100
AcDbProxyObject
 90
      499
 91
      501
 93
      412
310
41D51A1A58DAD95B90D409028333333333333E33F0000000000000F9010790141107004050150C41D405064090741402480A0350
1001
ACAD
1000
AcDbSavedByObjectVersion
1070
     0
  0
ACAD_PROXY_OBJECT
  5
30
102
{ACAD_REACTORS
330
2A
102
}
330
2A
100
AcDbProxyObject
 90
      499
 91
      501
 93
      420
310
4255DA5C99599C985B595059028333333333333E33F0000000000000F90107901411070040501600405405064090740C02480A0340
1001
ACAD
1000
AcDbSavedByObjectVersion
1070
     0
  0
ACAD_PROXY_OBJECT
  5
40
102
{ACAD_REACTORS
330
2A
102
}
330
2A
100
AcDbProxyObject
 90
      499
 91
      501
 93
      404
310
41560B54985E51940902404000000000000E03F0000000000000F9010740501907004050150841D405064090740C02480A1B40
1001
ACAD
1000
AcDbSavedByObjectVersion
1070
     0
  0
XRECORD
  5
2B3
102
{ACAD_REACTORS
330
2A9
102
}
330
2A9
100
AcDbXrecord
340
0
  0
XRECORD
  5
2B2
102
{ACAD_REACTORS
330
2A9
102
}
330
2A9
100
AcDbXrecord
 90
        0
  0
XRECORD
  5
2C9
102
{ACAD_REACTORS
330
2A9
102
}
330
2A9
100
AcDbXrecord
1000
DSTYLE
1002
{
1070
   340
340
11
1002
}
  0
XRECORD
  5
2B4
102
{ACAD_REACTORS
330
2A9
102
}
330
2A9
100
AcDbXrecord
  1
{1d36092b-0ea8-4a77-8151-9bdcb3c491e4}
  0
XRECORD
  5
2AC
102
{ACAD_REACTORS
330
2A9
102
}
330
2A9
100
AcDbXrecord
  1

  0
XRECORD
  5
2B1
102
{ACAD_REACTORS
330
2A9
102
}
330
2A9
100
AcDbXrecord
 90
        4
  0
XRECORD
  5
2AE
102
{ACAD_REACTORS
330
2A9
102
}
330
2A9
100
AcDbXrecord
340
1A
  0
XRECORD
  5
2B0
102
{ACAD_REACTORS
330
2A9
102
}
330
2A9
100
AcDbXrecord
 90
    10781
  0
XRECORD
  5
2AF
102
{ACAD_REACTORS
330
2A9
102
}
330
2A9
100
AcDbXrecord
340
19
  0
XRECORD
  5
2B6
102
{ACAD_REACTORS
330
2A9
102
}
330
2A9
100
AcDbXrecord
 40
0.0
  0
XRECORD
  5
2B9
102
{ACAD_REACTORS
330
2A9
102
}
330
2A9
100
AcDbXrecord
340
0
  0
XRECORD
  5
2BF
102
{ACAD_REACTORS
330
2A9
102
}
330
2A9
100
AcDbXrecord
 10
0.0
 20
0.0
 30
0.0
  0
XRECORD
  5
2BB
102
{ACAD_REACTORS
330
2A9
102
}
330
2A9
100
AcDbXrecord
 10
0.0
 20
0.0
 30
0.0
  0
XRECORD
  5
2BE
102
{ACAD_REACTORS
330
2A9
102
}
330
2A9
100
AcDbXrecord
 10
0.0
 20
0.0
 30
0.0
  0
XRECORD
  5
2BC
102
{ACAD_REACTORS
330
2A9
102
}
330
2A9
100
AcDbXrecord
 10
0.0
 20
0.0
 30
0.0
  0
XRECORD
  5
2BD
102
{ACAD_REACTORS
330
2A9
102
}
330
2A9
100
AcDbXrecord
 10
0.0
 20
0.0
 30
0.0
  0
XRECORD
  5
2BA
102
{ACAD_REACTORS
330
2A9
102
}
330
2A9
100
AcDbXrecord
 10
0.0
 20
0.0
 30
0.0
  0
XRECORD
  5
2B7
102
{ACAD_REACTORS
330
2A9
102
}
330
2A9
100
AcDbXrecord
340
0
  0
XRECORD
  5
2B8
102
{ACAD_REACTORS
330
2A9
102
}
330
2A9
100
AcDbXrecord
 70
     0
  0
XRECORD
  5
2AD
102
{ACAD_REACTORS
330
2A9
102
}
330
2A9
100
AcDbXrecord
  1

  0
XRECORD
  5
2AA
102
{ACAD_REACTORS
330
2A9
102
}
330
2A9
100
AcDbXrecord
 90
        1
  0
XRECORD
  5
2AB
102
{ACAD_REACTORS
330
2A9
102
}
330
2A9
100
AcDbXrecord
 90
       70
  0
XRECORD
  5
2C2
102
{ACAD_REACTORS
330
2A9
102
}
330
2A9
100
AcDbXrecord
340
0
  0
XRECORD
  5
2C8
102
{ACAD_REACTORS
330
2A9
102
}
330
2A9
100
AcDbXrecord
 10
0.0
 20
0.0
 30
0.0
  0
XRECORD
  5
2C4
102
{ACAD_REACTORS
330
2A9
102
}
330
2A9
100
AcDbXrecord
 10
0.0
 20
0.0
 30
0.0
  0
XRECORD
  5
2C7
102
{ACAD_REACTORS
330
2A9
102
}
330
2A9
100
AcDbXrecord
 10
0.0
 20
0.0
 30
0.0
  0
XRECORD
  5
2C5
102
{ACAD_REACTORS
330
2A9
102
}
330
2A9
100
AcDbXrecord
 10
0.0
 20
0.0
 30
0.0
  0
XRECORD
  5
2C6
102
{ACAD_REACTORS
330
2A9
102
}
330
2A9
100
AcDbXrecord
 10
0.0
 20
0.0
 30
0.0
  0
XRECORD
  5
2C3
102
{ACAD_REACTORS
330
2A9
102
}
330
2A9
100
AcDbXrecord
 10
0.0
 20
0.0
 30
0.0
  0
XRECORD
  5
2C0
102
{ACAD_REACTORS
330
2A9
102
}
330
2A9
100
AcDbXrecord
340
0
  0
XRECORD
  5
2C1
102
{ACAD_REACTORS
330
2A9
102
}
330
2A9
100
AcDbXrecord
 70
     0
  0
XRECORD
  5
2B5
102
{ACAD_REACTORS
330
2A9
102
}
330
2A9
100
AcDbXrecord
  1
{FAEB1C32-E019-11D5-929B-00C0DF256EC4}
  0
DICTIONARYVAR
  5
2D7
102
{ACAD_REACTORS
330
2CA
102
}
330
2CA
100
DictionaryVariables
280
     0
  1
1:1
  0
DICTIONARYVAR
  5
2D1
102
{ACAD_REACTORS
330
2CA
102
}
330
2CA
100
DictionaryVariables
280
     0
  1
3.500000
  0
DICTIONARYVAR
  5
2D2
102
{ACAD_REACTORS
330
2CA
102
}
330
2CA
100
DictionaryVariables
280
     0
  1
acadiso.lin
  0
DICTIONARYVAR
  5
2CC
102
{ACAD_REACTORS
330
2CA
102
}
330
2CA
100
DictionaryVariables
280
     0
  1
Standard
  0
DICTIONARYVAR
  5
2CB
102
{ACAD_REACTORS
330
2CA
102
}
330
2CA
100
DictionaryVariables
280
     0
  1
Standard
  0
DICTIONARYVAR
  5
2D3
102
{ACAD_REACTORS
330
2CA
102
}
330
2CA
100
DictionaryVariables
280
     0
  1
2
  0
DICTIONARYVAR
  5
2D4
102
{ACAD_REACTORS
330
2CA
102
}
330
2CA
100
DictionaryVariables
280
     0
  1
1
  0
DICTIONARYVAR
  5
2D8
102
{ACAD_REACTORS
330
2CA
102
}
330
2CA
100
DictionaryVariables
280
     0
  1
1
  0
DICTIONARYVAR
  5
2CE
102
{ACAD_REACTORS
330
2CA
102
}
330
2CA
100
DictionaryVariables
280
     0
  1
80.000000
  0
DICTIONARYVAR
  5
2CD
102
{ACAD_REACTORS
330
2CA
102
}
330
2CA
100
DictionaryVariables
280
     0
  1
5.000000
  0
DICTIONARY
  5
2DB
330
45
100
AcDbDictionary
280
     1
  3
ACAD_XREC_ROUNDTRIP
360
2DC
  0
DICTIONARY
  5
2D9
330
44
100
AcDbDictionary
280
     1
  3
ACAD_XREC_ROUNDTRIP
360
2DA
  0
DICTIONARY
  5
2DD
330
46
100
AcDbDictionary
280
     1
  3
ACAD_XREC_ROUNDTRIP
360
2DE
  0
XRECORD
  5
2DC
102
{ACAD_REACTORS
330
2DB
102
}
330
2DB
100
AcDbXrecord
102
MATERIAL
148
0.0
149
0.0
149
0.0
 93
        0
 94
      127
282
     0
 72
     1
 77
     1
171
     1
175
     1
179
     1
273
     0
  0
XRECORD
  5
2DA
102
{ACAD_REACTORS
330
2D9
102
}
330
2D9
100
AcDbXrecord
102
MATERIAL
148
0.0
149
0.0
149
0.0
 93
        0
 94
      127
282
     0
 72
     1
 77
     1
171
     1
175
     1
179
     1
273
     0
  0
XRECORD
  5
2DE
102
{ACAD_REACTORS
330
2DD
102
}
330
2DD
100
AcDbXrecord
102
MATERIAL
148
0.0
149
0.0
149
0.0
 93
        0
 94
      127
282
     0
 72
     1
 77
     1
171
     1
175
     1
179
     1
273
     0
  0
ENDSEC
  0
EOF
