  0
SECTION
  2
HEADER
  9
$ACADVER
  1
AC1014
  9
$ACADMAINTVER
 70
     9
  9
$DWGCODEPAGE
  3
ANSI_932
  9
$INSBASE
 10
0.0
 20
0.0
 30
0.0
  9
$EXTMIN
 10
15.0
 20
30.0
 30
0.0
  9
$EXTMAX
 10
1155.0
 20
840.0
 30
0.0
  9
$LIMMIN
 10
0.0
 20
0.0
  9
$LIMMAX
 10
420.0
 20
297.0
  9
$ORTHOMODE
 70
     0
  9
$REGENMODE
 70
     1
  9
$FILLMODE
 70
     1
  9
$QTEXTMODE
 70
     0
  9
$MIRRTEXT
 70
     1
  9
$DRAGMODE
 70
     2
  9
$LTSCALE
 40
0.2
  9
$OSMODE
 70
    37
  9
$ATTMODE
 70
     1
  9
$TEXTSIZE
 40
2.5
  9
$TRACEWID
 40
1.0
  9
$TEXTSTYLE
  7
STANDARD
  9
$CLAYER
  8
LAY-10
  9
$CELTYPE
  6
BYLAYER
  9
$CECOLOR
 62
   256
  9
$CELTSCALE
 40
1.0
  9
$DELOBJ
 70
     1
  9
$DISPSILH
 70
     0
  9
$DIMSCALE
 40
1.0
  9
$DIMASZ
 40
2.5
  9
$DIMEXO
 40
0.625
  9
$DIMDLI
 40
3.75
  9
$DIMRND
 40
0.0
  9
$DIMDLE
 40
0.0
  9
$DIMEXE
 40
1.25
  9
$DIMTP
 40
0.0
  9
$DIMTM
 40
0.0
  9
$DIMTXT
 40
2.5
  9
$DIMCEN
 40
2.5
  9
$DIMTSZ
 40
0.0
  9
$DIMTOL
 70
     0
  9
$DIMLIM
 70
     0
  9
$DIMTIH
 70
     0
  9
$DIMTOH
 70
     0
  9
$DIMSE1
 70
     0
  9
$DIMSE2
 70
     0
  9
$DIMTAD
 70
     1
  9
$DIMZIN
 70
     8
  9
$DIMBLK
  1

  9
$DIMASO
 70
     1
  9
$DIMSHO
 70
     1
  9
$DIMPOST
  1

  9
$DIMAPOST
  1

  9
$DIMALT
 70
     0
  9
$DIMALTD
 70
     3
  9
$DIMALTF
 40
0.03937007874016
  9
$DIMLFAC
 40
1.0
  9
$DIMTOFL
 70
     1
  9
$DIMTVP
 40
0.0
  9
$DIMTIX
 70
     0
  9
$DIMSOXD
 70
     0
  9
$DIMSAH
 70
     0
  9
$DIMBLK1
  1

  9
$DIMBLK2
  1

  9
$DIMSTYLE
  2
ISO-25
  9
$DIMCLRD
 70
     0
  9
$DIMCLRE
 70
     0
  9
$DIMCLRT
 70
     0
  9
$DIMTFAC
 40
1.0
  9
$DIMGAP
 40
0.625
  9
$DIMJUST
 70
     0
  9
$DIMSD1
 70
     0
  9
$DIMSD2
 70
     0
  9
$DIMTOLJ
 70
     0
  9
$DIMTZIN
 70
     8
  9
$DIMALTZ
 70
     0
  9
$DIMALTTZ
 70
     0
  9
$DIMFIT
 70
     3
  9
$DIMUPT
 70
     0
  9
$DIMUNIT
 70
     2
  9
$DIMDEC
 70
     2
  9
$DIMTDEC
 70
     2
  9
$DIMALTU
 70
     2
  9
$DIMALTTD
 70
     3
  9
$DIMTXSTY
  7
STANDARD
  9
$DIMAUNIT
 70
     0
  9
$LUNITS
 70
     2
  9
$LUPREC
 70
     4
  9
$SKETCHINC
 40
1.0
  9
$FILLETRAD
 40
10.0
  9
$AUNITS
 70
     0
  9
$AUPREC
 70
     0
  9
$MENU
  1
.
  9
$ELEVATION
 40
0.0
  9
$PELEVATION
 40
0.0
  9
$THICKNESS
 40
0.0
  9
$LIMCHECK
 70
     0
  9
$CHAMFERA
 40
0.0
  9
$CHAMFERB
 40
0.0
  9
$CHAMFERC
 40
0.0
  9
$CHAMFERD
 40
0.0
  9
$SKPOLY
 70
     0
  9
$TDCREATE
 40
2459229.337931342
  9
$TDUPDATE
 40
2459229.33793169
  9
$TDINDWG
 40
0.0000000116
  9
$TDUSRTIMER
 40
0.0000000116
  9
$USRTIMER
 70
     1
  9
$ANGBASE
 50
0.0
  9
$ANGDIR
 70
     0
  9
$PDMODE
 70
     0
  9
$PDSIZE
 40
0.0
  9
$PLINEWID
 40
0.0
  9
$COORDS
 70
     1
  9
$SPLFRAME
 70
     0
  9
$SPLINETYPE
 70
     6
  9
$SPLINESEGS
 70
     8
  9
$ATTDIA
 70
     0
  9
$ATTREQ
 70
     1
  9
$HANDLING
 70
     1
  9
$HANDSEED
  5
36F
  9
$SURFTAB1
 70
     6
  9
$SURFTAB2
 70
     6
  9
$SURFTYPE
 70
     6
  9
$SURFU
 70
     6
  9
$SURFV
 70
     6
  9
$UCSNAME
  2

  9
$UCSORG
 10
0.0
 20
0.0
 30
0.0
  9
$UCSXDIR
 10
1.0
 20
0.0
 30
0.0
  9
$UCSYDIR
 10
0.0
 20
1.0
 30
0.0
  9
$PUCSNAME
  2

  9
$PUCSORG
 10
0.0
 20
0.0
 30
0.0
  9
$PUCSXDIR
 10
1.0
 20
0.0
 30
0.0
  9
$PUCSYDIR
 10
0.0
 20
1.0
 30
0.0
  9
$USERI1
 70
     0
  9
$USERI2
 70
     0
  9
$USERI3
 70
     0
  9
$USERI4
 70
     0
  9
$USERI5
 70
     0
  9
$USERR1
 40
0.0
  9
$USERR2
 40
0.0
  9
$USERR3
 40
0.0
  9
$USERR4
 40
0.0
  9
$USERR5
 40
0.0
  9
$WORLDVIEW
 70
     1
  9
$SHADEDGE
 70
     3
  9
$SHADEDIF
 70
    70
  9
$TILEMODE
 70
     1
  9
$MAXACTVP
 70
    64
  9
$PINSBASE
 10
0.0
 20
0.0
 30
0.0
  9
$PLIMCHECK
 70
     0
  9
$PEXTMIN
 10
1.000000000000000E+20
 20
1.000000000000000E+20
 30
1.000000000000000E+20
  9
$PEXTMAX
 10
-1.000000000000000E+20
 20
-1.000000000000000E+20
 30
-1.000000000000000E+20
  9
$PLIMMIN
 10
0.0
 20
0.0
  9
$PLIMMAX
 10
420.0
 20
297.0
  9
$UNITMODE
 70
     0
  9
$VISRETAIN
 70
     1
  9
$PLINEGEN
 70
     0
  9
$PSLTSCALE
 70
     1
  9
$TREEDEPTH
 70
  3020
  9
$PICKSTYLE
 70
     1
  9
$CMLSTYLE
  2
STANDARD
  9
$CMLJUST
 70
     0
  9
$CMLSCALE
 40
20.0
  9
$PROXYGRAPHICS
 70
     1
  9
$MEASUREMENT
 70
     1
  0
ENDSEC
  0
SECTION
  2
CLASSES
  0
CLASS
  1
ACDBDICTIONARYWDFLT
  2
AcDbDictionaryWithDefault
  3
ObjectDBX Classes
 90
        0
280
     0
281
     0
  0
CLASS
  1
VISUALSTYLE
  2
AcDbVisualStyle
  3
ObjectDBX Classes
 90
     4095
280
     0
281
     0
  0
CLASS
  1
MATERIAL
  2
AcDbMaterial
  3
ObjectDBX Classes
 90
     1153
280
     0
281
     0
  0
CLASS
  1
SCALE
  2
AcDbScale
  3
ObjectDBX Classes
 90
     1153
280
     0
281
     0
  0
CLASS
  1
TABLESTYLE
  2
AcDbTableStyle
  3
ObjectDBX Classes
 90
     4095
280
     0
281
     0
  0
CLASS
  1
MLEADERSTYLE
  2
AcDbMLeaderStyle
  3
ACDB_MLEADERSTYLE_CLASS
 90
     4095
280
     0
281
     0
  0
CLASS
  1
SUN
  2
AcDbSun
  3
SCENEOE
 90
     1153
280
     0
281
     0
  0
CLASS
  1
DICTIONARYVAR
  2
AcDbDictionaryVar
  3
ObjectDBX Classes
 90
        0
280
     0
281
     0
  0
CLASS
  1
XRECORD
  2
AcDbXrecord
  3
ObjectDBX Classes
 90
        0
280
     0
281
     0
  0
CLASS
  1
LWPOLYLINE
  2
AcDbPolyline
  3
ObjectDBX Classes
 90
        0
280
     0
281
     1
  0
CLASS
  1
HATCH
  2
AcDbHatch
  3
ObjectDBX Classes
 90
        0
280
     0
281
     1
  0
CLASS
  1
ACDBPLACEHOLDER
  2
AcDbPlaceHolder
  3
ObjectDBX Classes
 90
        0
280
     0
281
     0
  0
CLASS
  1
LAYOUT
  2
AcDbLayout
  3
ObjectDBX Classes
 90
        0
280
     0
281
     0
  0
ENDSEC
  0
SECTION
  2
TABLES
  0
TABLE
  2
VPORT
  5
8
102
{ACAD_XDICTIONARY
360
364
102
}
330
0
100
AcDbSymbolTable
 70
     1
  0
VPORT
  5
29
330
8
100
AcDbSymbolTableRecord
100
AcDbViewportTableRecord
  2
*ACTIVE
 70
     0
 10
0.0
 20
0.0
 11
1.0
 21
1.0
 12
585.0000000000001
 22
435.0
 13
0.0
 23
0.0
 14
10.0
 24
10.0
 15
10.0
 25
10.0
 16
0.0
 26
0.0
 36
1.0
 17
0.0
 27
0.0
 37
0.0
 40
810.0
 41
1.407407407407408
 42
50.0
 43
0.0
 44
0.0
 50
0.0
 51
0.0
 71
     0
 72
  1000
 73
     1
 74
     3
 75
     0
 76
     0
 77
     0
 78
     0
  0
ENDTAB
  0
TABLE
  2
LTYPE
  5
5
330
0
100
AcDbSymbolTable
 70
     6
  0
LTYPE
  5
14
330
5
100
AcDbSymbolTableRecord
100
AcDbLinetypeTableRecord
  2
BYBLOCK
 70
     0
  3

 72
    65
 73
     0
 40
0.0
  0
LTYPE
  5
15
330
5
100
AcDbSymbolTableRecord
100
AcDbLinetypeTableRecord
  2
BYLAYER
 70
     0
  3

 72
    65
 73
     0
 40
0.0
  0
LTYPE
  5
16
330
5
100
AcDbSymbolTableRecord
100
AcDbLinetypeTableRecord
  2
CONTINUOUS
 70
     0
  3
Solid line
 72
    65
 73
     0
 40
0.0
  0
LTYPE
  5
6E
330
5
100
AcDbSymbolTableRecord
100
AcDbLinetypeTableRecord
  2
HIDDEN
 70
     0
  3
Hidden __ __ __ __ __ __ __ __ __ __ __ __ __ __
 72
    65
 73
     2
 40
9.524999999999999
 49
6.35
 74
     0
 49
-3.175
 74
     0
  0
LTYPE
  5
6F
330
5
100
AcDbSymbolTableRecord
100
AcDbLinetypeTableRecord
  2
CENTER
 70
     0
  3
Center ____ _ ____ _ ____ _ ____ _ ____ _ ____
 72
    65
 73
     4
 40
50.8
 49
31.75
 74
     0
 49
-6.35
 74
     0
 49
6.35
 74
     0
 49
-6.35
 74
     0
  0
LTYPE
  5
70
330
5
100
AcDbSymbolTableRecord
100
AcDbLinetypeTableRecord
  2
PHANTOM
 70
     0
  3
Phantom ______  __  __  ______  __  __  ______ 
 72
    65
 73
     6
 40
63.50000000000001
 49
31.75
 74
     0
 49
-6.35
 74
     0
 49
6.35
 74
     0
 49
-6.35
 74
     0
 49
6.35
 74
     0
 49
-6.35
 74
     0
  0
LTYPE
  5
71
330
5
100
AcDbSymbolTableRecord
100
AcDbLinetypeTableRecord
  2
ACAD_ISO06W100
 70
     0
  3
ISO long-dash triple-dot ____ ... ____ ... ____
 72
    65
 73
     8
 40
36.0
 49
24.0
 74
     0
 49
-3.0
 74
     0
 49
0.0
 74
     0
 49
-3.0
 74
     0
 49
0.0
 74
     0
 49
-3.0
 74
     0
 49
0.0
 74
     0
 49
-3.0
 74
     0
  0
LTYPE
  5
72
330
5
100
AcDbSymbolTableRecord
100
AcDbLinetypeTableRecord
  2
ACAD_ISO15W100
 70
     0
  3
ISO double-dash triple-dot __ __ . . . __ __ . .
 72
    65
 73
    10
 40
39.0
 49
12.0
 74
     0
 49
-3.0
 74
     0
 49
12.0
 74
     0
 49
-3.0
 74
     0
 49
0.0
 74
     0
 49
-3.0
 74
     0
 49
0.0
 74
     0
 49
-3.0
 74
     0
 49
0.0
 74
     0
 49
-3.0
 74
     0
  0
ENDTAB
  0
TABLE
  2
LAYER
  5
2
330
0
100
AcDbSymbolTable
 70
     5
  0
LAYER
  5
10
330
2
100
AcDbSymbolTableRecord
100
AcDbLayerTableRecord
  2
0
 70
     0
 62
     7
  6
CONTINUOUS
  0
LAYER
  5
75
330
2
100
AcDbSymbolTableRecord
100
AcDbLayerTableRecord
  2
LAY-10
 70
     0
 62
     7
  6
CONTINUOUS
  0
LAYER
  5
76
330
2
100
AcDbSymbolTableRecord
100
AcDbLayerTableRecord
  2
LAY-20
 70
     0
 62
     7
  6
CONTINUOUS
  0
LAYER
  5
77
330
2
100
AcDbSymbolTableRecord
100
AcDbLayerTableRecord
  2
LAY-255
 70
     0
 62
     7
  6
CONTINUOUS
  0
LAYER
  5
2AD
330
2
100
AcDbSymbolTableRecord
100
AcDbLayerTableRecord
  2
DEFPOINTS
 70
     0
 62
     7
  6
CONTINUOUS
  0
ENDTAB
  0
TABLE
  2
STYLE
  5
3
330
0
100
AcDbSymbolTable
 70
     4
  0
STYLE
  5
11
330
3
100
AcDbSymbolTableRecord
100
AcDbTextStyleTableRecord
  2
STANDARD
 70
     0
 40
0.0
 41
1.0
 50
0.0
 71
     0
 42
2.5
  3
simplex
  4
bigfont
  0
STYLE
  5
73
330
3
100
AcDbSymbolTableRecord
100
AcDbTextStyleTableRecord
  2
EXCADSTD
 70
     0
 40
0.0
 41
1.0
 50
0.0
 71
     0
 42
2.5
  3
simplex
  4
bigfont
  0
STYLE
  5
74
330
3
100
AcDbSymbolTableRecord
100
AcDbTextStyleTableRecord
  2
EXCADVERT
 70
     4
 40
0.0
 41
1.0
 50
0.0
 71
     0
 42
2.5
  3
simplex
  4
bigfont
  0
STYLE
  5
2AB
330
3
100
AcDbSymbolTableRecord
100
AcDbTextStyleTableRecord
  2
EXCADDIM1
 70
     0
 40
0.0
 41
0.84
 50
0.0
 71
     0
 42
2.5
  3
simplex
  4
bigfont
  0
ENDTAB
  0
TABLE
  2
VIEW
  5
6
330
0
100
AcDbSymbolTable
 70
     0
  0
ENDTAB
  0
TABLE
  2
UCS
  5
7
330
0
100
AcDbSymbolTable
 70
     0
  0
ENDTAB
  0
TABLE
  2
APPID
  5
9
330
0
100
AcDbSymbolTable
 70
     2
  0
APPID
  5
12
330
9
100
AcDbSymbolTableRecord
100
AcDbRegAppTableRecord
  2
ACAD
 70
     0
  0
APPID
  5
36E
330
9
100
AcDbSymbolTableRecord
100
AcDbRegAppTableRecord
  2
ACAD_MLEADERVER
 70
     0
  0
ENDTAB
  0
TABLE
  2
DIMSTYLE
  5
A
330
0
100
AcDbSymbolTable
 70
     1
  0
DIMSTYLE
105
27
102
{ACAD_REACTORS
330
2AC
330
2BA
330
2C7
330
2D3
330
2DE
330
2EB
330
2F8
330
305
102
}
330
A
100
AcDbSymbolTableRecord
100
AcDbDimStyleTableRecord
  2
ISO-25
 70
     0
  3

  4

  5

  6

  7

 40
1.0
 41
2.5
 42
0.625
 43
3.75
 44
1.25
 45
0.0
 46
0.0
 47
0.0
 48
0.0
140
2.5
141
2.5
142
0.0
143
0.03937007874016
144
1.0
145
0.0
146
1.0
147
0.625
 71
     0
 72
     0
 73
     0
 74
     0
 75
     0
 76
     0
 77
     1
 78
     8
170
     0
171
     3
172
     1
173
     0
174
     0
175
     0
176
     0
177
     0
178
     0
270
     2
271
     2
272
     2
273
     2
274
     3
340
11
275
     0
280
     0
281
     0
282
     0
283
     0
284
     8
285
     0
286
     0
287
     5
288
     0
  0
ENDTAB
  0
TABLE
  2
BLOCK_RECORD
  5
1
330
0
100
AcDbSymbolTable
 70
    22
  0
BLOCK_RECORD
  5
1F
330
1
100
AcDbSymbolTableRecord
100
AcDbBlockTableRecord
  2
*MODEL_SPACE
  0
BLOCK_RECORD
  5
1B
330
1
100
AcDbSymbolTableRecord
100
AcDbBlockTableRecord
  2
*PAPER_SPACE
  0
BLOCK_RECORD
  5
78
330
1
100
AcDbSymbolTableRecord
100
AcDbBlockTableRecord
  2
EX_NORM
  0
BLOCK_RECORD
  5
7B
330
1
100
AcDbSymbolTableRecord
100
AcDbBlockTableRecord
  2
EX_BNORM
  0
BLOCK_RECORD
  5
7E
330
1
100
AcDbSymbolTableRecord
100
AcDbBlockTableRecord
  2
EX_BCIR
  0
BLOCK_RECORD
  5
81
330
1
100
AcDbSymbolTableRecord
100
AcDbBlockTableRecord
  2
EX_RCIVIL
  0
BLOCK_RECORD
  5
84
330
1
100
AcDbSymbolTableRecord
100
AcDbBlockTableRecord
  2
EX_SLANT
  0
BLOCK_RECORD
  5
87
330
1
100
AcDbSymbolTableRecord
100
AcDbBlockTableRecord
  2
EX_NONE
  0
BLOCK_RECORD
  5
8A
330
1
100
AcDbSymbolTableRecord
100
AcDbBlockTableRecord
  2
EX_CIVIL
  0
BLOCK_RECORD
  5
8D
330
1
100
AcDbSymbolTableRecord
100
AcDbBlockTableRecord
  2
EX_WCIR
  0
BLOCK_RECORD
  5
90
330
1
100
AcDbSymbolTableRecord
100
AcDbBlockTableRecord
  2
EX_WCIR2
  0
BLOCK_RECORD
  5
93
330
1
100
AcDbSymbolTableRecord
100
AcDbBlockTableRecord
  2
EX_WNORM
  0
BLOCK_RECORD
  5
96
330
1
100
AcDbSymbolTableRecord
100
AcDbBlockTableRecord
  2
EX_NNORM
  0
BLOCK_RECORD
  5
99
330
1
100
AcDbSymbolTableRecord
100
AcDbBlockTableRecord
  2
EX_BBOX
  0
BLOCK_RECORD
  5
9C
330
1
100
AcDbSymbolTableRecord
100
AcDbBlockTableRecord
  2
EX_WBOX
  0
BLOCK_RECORD
  5
9F
330
1
100
AcDbSymbolTableRecord
100
AcDbBlockTableRecord
  2
EX_INTEGRAL
  0
BLOCK_RECORD
  5
2AE
330
1
100
AcDbSymbolTableRecord
100
AcDbBlockTableRecord
  2
*D15
  0
BLOCK_RECORD
  5
2BB
330
1
100
AcDbSymbolTableRecord
100
AcDbBlockTableRecord
  2
*D16
  0
BLOCK_RECORD
  5
2C8
330
1
100
AcDbSymbolTableRecord
100
AcDbBlockTableRecord
  2
*D17
  0
BLOCK_RECORD
  5
2D4
330
1
100
AcDbSymbolTableRecord
100
AcDbBlockTableRecord
  2
*D18
  0
BLOCK_RECORD
  5
2DF
330
1
100
AcDbSymbolTableRecord
100
AcDbBlockTableRecord
  2
*D19
  0
BLOCK_RECORD
  5
2EC
330
1
100
AcDbSymbolTableRecord
100
AcDbBlockTableRecord
  2
*D20
  0
BLOCK_RECORD
  5
2F9
330
1
100
AcDbSymbolTableRecord
100
AcDbBlockTableRecord
  2
*D21
  0
BLOCK_RECORD
  5
306
330
1
100
AcDbSymbolTableRecord
100
AcDbBlockTableRecord
  2
*D22
  0
ENDTAB
  0
ENDSEC
  0
SECTION
  2
BLOCKS
  0
BLOCK
  5
20
330
1F
100
AcDbEntity
  8
0
100
AcDbBlockBegin
  2
*MODEL_SPACE
 70
     0
 10
0.0
 20
0.0
 30
0.0
  3
*MODEL_SPACE
  1

  0
ENDBLK
  5
21
330
1F
100
AcDbEntity
  8
0
100
AcDbBlockEnd
  0
BLOCK
  5
1C
330
1B
100
AcDbEntity
 67
     1
  8
0
100
AcDbBlockBegin
  2
*PAPER_SPACE
 70
     0
 10
0.0
 20
0.0
 30
0.0
  3
*PAPER_SPACE
  1

  0
ENDBLK
  5
1D
330
1B
100
AcDbEntity
 67
     1
  8
0
100
AcDbBlockEnd
  0
BLOCK
  5
79
330
78
100
AcDbEntity
  8
0
100
AcDbBlockBegin
  2
EX_NORM
 70
     0
 10
0.0
 20
0.0
 30
0.0
  3
EX_NORM
  1

  0
LINE
  5
A2
330
78
100
AcDbEntity
  8
0
  6
CONTINUOUS
 62
     0
100
AcDbLine
 10
0.0
 20
0.0
 30
0.0
 11
-1.0
 21
0.0
 31
0.0
  0
LINE
  5
A3
330
78
100
AcDbEntity
  8
0
  6
CONTINUOUS
 62
     0
100
AcDbLine
 10
0.0
 20
0.0
 30
0.0
 11
-1.0
 21
0.166666667
 31
0.0
  0
LINE
  5
A4
330
78
100
AcDbEntity
  8
0
  6
CONTINUOUS
 62
     0
100
AcDbLine
 10
0.0
 20
0.0
 30
0.0
 11
-1.0
 21
-0.166666667
 31
0.0
  0
ENDBLK
  5
7A
330
78
100
AcDbEntity
  8
0
100
AcDbBlockEnd
  0
BLOCK
  5
7C
330
7B
100
AcDbEntity
  8
0
100
AcDbBlockBegin
  2
EX_BNORM
 70
     0
 10
0.0
 20
0.0
 30
0.0
  3
EX_BNORM
  1

  0
LINE
  5
A5
330
7B
100
AcDbEntity
  8
0
  6
CONTINUOUS
 62
     0
100
AcDbLine
 10
0.0
 20
0.0
 30
0.0
 11
-1.0
 21
0.0
 31
0.0
  0
LINE
  5
A6
330
7B
100
AcDbEntity
  8
0
  6
CONTINUOUS
 62
     0
100
AcDbLine
 10
0.0
 20
0.0
 30
0.0
 11
-1.0
 21
0.166666667
 31
0.0
  0
LINE
  5
A7
330
7B
100
AcDbEntity
  8
0
  6
CONTINUOUS
 62
     0
100
AcDbLine
 10
0.0
 20
0.0
 30
0.0
 11
-1.0
 21
-0.166666667
 31
0.0
  0
LINE
  5
A8
330
7B
100
AcDbEntity
  8
0
  6
CONTINUOUS
 62
     0
100
AcDbLine
 10
0.0
 20
0.0
 30
0.0
 11
-1.0
 21
0.083333333
 31
0.0
  0
LINE
  5
A9
330
7B
100
AcDbEntity
  8
0
  6
CONTINUOUS
 62
     0
100
AcDbLine
 10
0.0
 20
0.0
 30
0.0
 11
-1.0
 21
-0.083333333
 31
0.0
  0
LINE
  5
AA
330
7B
100
AcDbEntity
  8
0
  6
CONTINUOUS
 62
     0
100
AcDbLine
 10
-1.0
 20
0.166666667
 30
0.0
 11
-1.0
 21
-0.166666667
 31
0.0
  0
ENDBLK
  5
7D
330
7B
100
AcDbEntity
  8
0
100
AcDbBlockEnd
  0
BLOCK
  5
7F
330
7E
100
AcDbEntity
  8
0
100
AcDbBlockBegin
  2
EX_BCIR
 70
     0
 10
0.0
 20
0.0
 30
0.0
  3
EX_BCIR
  1

  0
LINE
  5
AB
330
7E
100
AcDbEntity
  8
0
  6
CONTINUOUS
 62
     0
100
AcDbLine
 10
0.0
 20
0.0
 30
0.0
 11
-1.0
 21
0.0
 31
0.0
  0
CIRCLE
  5
AC
330
7E
100
AcDbEntity
  8
0
  6
CONTINUOUS
 62
     0
100
AcDbCircle
 10
0.0
 20
0.0
 30
0.0
 40
0.5
  0
CIRCLE
  5
AD
330
7E
100
AcDbEntity
  8
0
  6
CONTINUOUS
 62
     0
100
AcDbCircle
 10
0.0
 20
0.0
 30
0.0
 40
0.25
  0
ENDBLK
  5
80
330
7E
100
AcDbEntity
  8
0
100
AcDbBlockEnd
  0
BLOCK
  5
82
330
81
100
AcDbEntity
  8
0
100
AcDbBlockBegin
  2
EX_RCIVIL
 70
     0
 10
0.0
 20
0.0
 30
0.0
  3
EX_RCIVIL
  1

  0
LINE
  5
AE
330
81
100
AcDbEntity
  8
0
  6
CONTINUOUS
 62
     0
100
AcDbLine
 10
0.0
 20
0.0
 30
0.0
 11
-1.0
 21
0.0
 31
0.0
  0
LINE
  5
AF
330
81
100
AcDbEntity
  8
0
  6
CONTINUOUS
 62
     0
100
AcDbLine
 10
-1.0
 20
-0.25
 30
0.0
 11
0.0
 21
-0.25
 31
0.0
  0
LINE
  5
B0
330
81
100
AcDbEntity
  8
0
  6
CONTINUOUS
 62
     0
100
AcDbLine
 10
-1.0
 20
-0.125
 30
0.0
 11
0.0
 21
-0.125
 31
0.0
  0
ENDBLK
  5
83
330
81
100
AcDbEntity
  8
0
100
AcDbBlockEnd
  0
BLOCK
  5
85
330
84
100
AcDbEntity
  8
0
100
AcDbBlockBegin
  2
EX_SLANT
 70
     0
 10
0.0
 20
0.0
 30
0.0
  3
EX_SLANT
  1

  0
LINE
  5
B1
330
84
100
AcDbEntity
  8
0
  6
CONTINUOUS
 62
     0
100
AcDbLine
 10
0.0
 20
0.0
 30
0.0
 11
-1.0
 21
0.0
 31
0.0
  0
LINE
  5
B2
330
84
100
AcDbEntity
  8
0
  6
CONTINUOUS
 62
     0
100
AcDbLine
 10
0.707106781
 20
0.707106781
 30
0.0
 11
-0.707106781
 21
-0.707106781
 31
0.0
  0
ENDBLK
  5
86
330
84
100
AcDbEntity
  8
0
100
AcDbBlockEnd
  0
BLOCK
  5
88
330
87
100
AcDbEntity
  8
0
100
AcDbBlockBegin
  2
EX_NONE
 70
     0
 10
0.0
 20
0.0
 30
0.0
  3
EX_NONE
  1

  0
LINE
  5
B3
330
87
100
AcDbEntity
  8
0
  6
CONTINUOUS
 62
     0
100
AcDbLine
 10
0.0
 20
0.0
 30
0.0
 11
-1.0
 21
0.0
 31
0.0
  0
ENDBLK
  5
89
330
87
100
AcDbEntity
  8
0
100
AcDbBlockEnd
  0
BLOCK
  5
8B
330
8A
100
AcDbEntity
  8
0
100
AcDbBlockBegin
  2
EX_CIVIL
 70
     0
 10
0.0
 20
0.0
 30
0.0
  3
EX_CIVIL
  1

  0
LINE
  5
B4
330
8A
100
AcDbEntity
  8
0
  6
CONTINUOUS
 62
     0
100
AcDbLine
 10
0.0
 20
0.0
 30
0.0
 11
-1.0
 21
0.0
 31
0.0
  0
LINE
  5
B5
330
8A
100
AcDbEntity
  8
0
  6
CONTINUOUS
 62
     0
100
AcDbLine
 10
-1.0
 20
0.25
 30
0.0
 11
0.0
 21
0.25
 31
0.0
  0
LINE
  5
B6
330
8A
100
AcDbEntity
  8
0
  6
CONTINUOUS
 62
     0
100
AcDbLine
 10
-1.0
 20
0.125
 30
0.0
 11
0.0
 21
0.125
 31
0.0
  0
ENDBLK
  5
8C
330
8A
100
AcDbEntity
  8
0
100
AcDbBlockEnd
  0
BLOCK
  5
8E
330
8D
100
AcDbEntity
  8
0
100
AcDbBlockBegin
  2
EX_WCIR
 70
     0
 10
0.0
 20
0.0
 30
0.0
  3
EX_WCIR
  1

  0
LINE
  5
B7
330
8D
100
AcDbEntity
  8
0
  6
CONTINUOUS
 62
     0
100
AcDbLine
 10
0.0
 20
0.0
 30
0.0
 11
-1.0
 21
0.0
 31
0.0
  0
CIRCLE
  5
B8
330
8D
100
AcDbEntity
  8
0
  6
CONTINUOUS
 62
     0
100
AcDbCircle
 10
0.0
 20
0.0
 30
0.0
 40
0.5
  0
ENDBLK
  5
8F
330
8D
100
AcDbEntity
  8
0
100
AcDbBlockEnd
  0
BLOCK
  5
91
330
90
100
AcDbEntity
  8
0
100
AcDbBlockBegin
  2
EX_WCIR2
 70
     0
 10
0.0
 20
0.0
 30
0.0
  3
EX_WCIR2
  1

  0
LINE
  5
B9
330
90
100
AcDbEntity
  8
0
  6
CONTINUOUS
 62
     0
100
AcDbLine
 10
-0.5
 20
0.0
 30
0.0
 11
-1.0
 21
0.0
 31
0.0
  0
CIRCLE
  5
BA
330
90
100
AcDbEntity
  8
0
  6
CONTINUOUS
 62
     0
100
AcDbCircle
 10
0.0
 20
0.0
 30
0.0
 40
0.5
  0
ENDBLK
  5
92
330
90
100
AcDbEntity
  8
0
100
AcDbBlockEnd
  0
BLOCK
  5
94
330
93
100
AcDbEntity
  8
0
100
AcDbBlockBegin
  2
EX_WNORM
 70
     0
 10
0.0
 20
0.0
 30
0.0
  3
EX_WNORM
  1

  0
LINE
  5
BB
330
93
100
AcDbEntity
  8
0
  6
CONTINUOUS
 62
     0
100
AcDbLine
 10
-1.0
 20
0.0
 30
0.0
 11
-1.0
 21
0.0
 31
0.0
  0
LINE
  5
BC
330
93
100
AcDbEntity
  8
0
  6
CONTINUOUS
 62
     0
100
AcDbLine
 10
0.0
 20
0.0
 30
0.0
 11
-1.0
 21
0.166666667
 31
0.0
  0
LINE
  5
BD
330
93
100
AcDbEntity
  8
0
  6
CONTINUOUS
 62
     0
100
AcDbLine
 10
0.0
 20
0.0
 30
0.0
 11
-1.0
 21
-0.166666667
 31
0.0
  0
LINE
  5
BE
330
93
100
AcDbEntity
  8
0
  6
CONTINUOUS
 62
     0
100
AcDbLine
 10
-1.0
 20
0.166666667
 30
0.0
 11
-1.0
 21
-0.166666667
 31
0.0
  0
ENDBLK
  5
95
330
93
100
AcDbEntity
  8
0
100
AcDbBlockEnd
  0
BLOCK
  5
97
330
96
100
AcDbEntity
  8
0
100
AcDbBlockBegin
  2
EX_NNORM
 70
     0
 10
0.0
 20
0.0
 30
0.0
  3
EX_NNORM
  1

  0
LINE
  5
BF
330
96
100
AcDbEntity
  8
0
  6
CONTINUOUS
 62
     0
100
AcDbLine
 10
0.0
 20
0.0
 30
0.0
 11
-1.0
 21
0.0
 31
0.0
  0
LINE
  5
C0
330
96
100
AcDbEntity
  8
0
  6
CONTINUOUS
 62
     0
100
AcDbLine
 10
0.0
 20
0.0
 30
0.0
 11
-1.0
 21
0.166666667
 31
0.0
  0
LINE
  5
C1
330
96
100
AcDbEntity
  8
0
  6
CONTINUOUS
 62
     0
100
AcDbLine
 10
0.0
 20
0.0
 30
0.0
 11
-1.0
 21
-0.166666667
 31
0.0
  0
LINE
  5
C2
330
96
100
AcDbEntity
  8
0
  6
CONTINUOUS
 62
     0
100
AcDbLine
 10
-1.0
 20
0.166666667
 30
0.0
 11
-1.0
 21
-0.166666667
 31
0.0
  0
ENDBLK
  5
98
330
96
100
AcDbEntity
  8
0
100
AcDbBlockEnd
  0
BLOCK
  5
9A
330
99
100
AcDbEntity
  8
0
100
AcDbBlockBegin
  2
EX_BBOX
 70
     0
 10
0.0
 20
0.0
 30
0.0
  3
EX_BBOX
  1

  0
LINE
  5
C3
330
99
100
AcDbEntity
  8
0
  6
CONTINUOUS
 62
     0
100
AcDbLine
 10
0.0
 20
0.0
 30
0.0
 11
-1.0
 21
0.0
 31
0.0
  0
LINE
  5
C4
330
99
100
AcDbEntity
  8
0
  6
CONTINUOUS
 62
     0
100
AcDbLine
 10
-0.5
 20
0.5
 30
0.0
 11
0.5
 21
0.5
 31
0.0
  0
LINE
  5
C5
330
99
100
AcDbEntity
  8
0
  6
CONTINUOUS
 62
     0
100
AcDbLine
 10
0.5
 20
0.5
 30
0.0
 11
0.5
 21
-0.5
 31
0.0
  0
LINE
  5
C6
330
99
100
AcDbEntity
  8
0
  6
CONTINUOUS
 62
     0
100
AcDbLine
 10
0.5
 20
-0.5
 30
0.0
 11
-0.5
 21
-0.5
 31
0.0
  0
LINE
  5
C7
330
99
100
AcDbEntity
  8
0
  6
CONTINUOUS
 62
     0
100
AcDbLine
 10
-0.5
 20
-0.5
 30
0.0
 11
-0.5
 21
0.5
 31
0.0
  0
LINE
  5
C8
330
99
100
AcDbEntity
  8
0
  6
CONTINUOUS
 62
     0
100
AcDbLine
 10
-0.25
 20
0.25
 30
0.0
 11
0.25
 21
0.25
 31
0.0
  0
LINE
  5
C9
330
99
100
AcDbEntity
  8
0
  6
CONTINUOUS
 62
     0
100
AcDbLine
 10
0.25
 20
0.25
 30
0.0
 11
0.25
 21
-0.25
 31
0.0
  0
LINE
  5
CA
330
99
100
AcDbEntity
  8
0
  6
CONTINUOUS
 62
     0
100
AcDbLine
 10
0.25
 20
-0.25
 30
0.0
 11
-0.25
 21
-0.25
 31
0.0
  0
LINE
  5
CB
330
99
100
AcDbEntity
  8
0
  6
CONTINUOUS
 62
     0
100
AcDbLine
 10
-0.25
 20
-0.25
 30
0.0
 11
-0.25
 21
0.25
 31
0.0
  0
ENDBLK
  5
9B
330
99
100
AcDbEntity
  8
0
100
AcDbBlockEnd
  0
BLOCK
  5
9D
330
9C
100
AcDbEntity
  8
0
100
AcDbBlockBegin
  2
EX_WBOX
 70
     0
 10
0.0
 20
0.0
 30
0.0
  3
EX_WBOX
  1

  0
LINE
  5
CC
330
9C
100
AcDbEntity
  8
0
  6
CONTINUOUS
 62
     0
100
AcDbLine
 10
-0.5
 20
0.0
 30
0.0
 11
-1.0
 21
0.0
 31
0.0
  0
LINE
  5
CD
330
9C
100
AcDbEntity
  8
0
  6
CONTINUOUS
 62
     0
100
AcDbLine
 10
-0.5
 20
0.5
 30
0.0
 11
0.5
 21
0.5
 31
0.0
  0
LINE
  5
CE
330
9C
100
AcDbEntity
  8
0
  6
CONTINUOUS
 62
     0
100
AcDbLine
 10
0.5
 20
0.5
 30
0.0
 11
0.5
 21
-0.5
 31
0.0
  0
LINE
  5
CF
330
9C
100
AcDbEntity
  8
0
  6
CONTINUOUS
 62
     0
100
AcDbLine
 10
0.5
 20
-0.5
 30
0.0
 11
-0.5
 21
-0.5
 31
0.0
  0
LINE
  5
D0
330
9C
100
AcDbEntity
  8
0
  6
CONTINUOUS
 62
     0
100
AcDbLine
 10
-0.5
 20
-0.5
 30
0.0
 11
-0.5
 21
0.5
 31
0.0
  0
ENDBLK
  5
9E
330
9C
100
AcDbEntity
  8
0
100
AcDbBlockEnd
  0
BLOCK
  5
A0
330
9F
100
AcDbEntity
  8
0
100
AcDbBlockBegin
  2
EX_INTEGRAL
 70
     0
 10
0.0
 20
0.0
 30
0.0
  3
EX_INTEGRAL
  1

  0
LINE
  5
D1
330
9F
100
AcDbEntity
  8
0
  6
CONTINUOUS
 62
     0
100
AcDbLine
 10
0.0
 20
0.0
 30
0.0
 11
-1.0
 21
0.0
 31
0.0
  0
ARC
  5
D2
330
9F
100
AcDbEntity
  8
0
  6
CONTINUOUS
 62
     0
100
AcDbCircle
 10
0.542115
 20
0.164992
 30
0.0
 40
0.56667
100
AcDbArc
 50
73.07249033629006
 51
196.9275130221199
  0
ARC
  5
D3
330
9F
100
AcDbEntity
  8
0
  6
CONTINUOUS
 62
     0
100
AcDbCircle
 10
-0.542115
 20
-0.164992
 30
0.0
 40
0.56667
100
AcDbArc
 50
253.0724869220464
 51
16.9275130559125
  0
ENDBLK
  5
A1
330
9F
100
AcDbEntity
  8
0
100
AcDbBlockEnd
  0
BLOCK
  5
2AF
330
2AE
100
AcDbEntity
  8
0
100
AcDbBlockBegin
  2
*D15
 70
     1
 10
0.0
 20
0.0
 30
0.0
  3
*D15
  1

  0
LINE
  5
2B1
330
2AE
100
AcDbEntity
  8
LAY-20
  6
CONTINUOUS
 62
     4
100
AcDbLine
 10
559.4272195202001
 20
596.7999817110999
 30
0.0
 11
604.4272134994999
 21
596.7999817110999
 31
0.0
  0
LINE
  5
2B2
330
2AE
100
AcDbEntity
  8
LAY-20
  6
CONTINUOUS
 62
     4
100
AcDbLine
 10
559.42721952028
 20
440.8000320762999
 30
0.0
 11
604.4272134994999
 21
440.8000320762999
 31
0.0
  0
LINE
  5
2B3
330
2AE
100
AcDbEntity
  8
LAY-20
  6
CONTINUOUS
 62
     4
100
AcDbLine
 10
599.9272134994999
 20
589.2999817110999
 30
0.0
 11
599.9272134994999
 21
448.3000320762999
 31
0.0
  0
INSERT
  5
2B4
330
2AE
100
AcDbEntity
  8
LAY-20
 62
     4
100
AcDbBlockReference
  2
EX_BNORM
 10
599.9272134994999
 20
596.7999817110999
 30
0.0
 41
7.5
 42
7.5
 43
7.5
 50
90.0
  0
INSERT
  5
2B5
330
2AE
100
AcDbEntity
  8
LAY-20
 62
     4
100
AcDbBlockReference
  2
EX_BNORM
 10
599.9272134994999
 20
440.8000320762999
 30
0.0
 41
7.5
 42
7.5
 43
7.5
 50
270.0
  0
MTEXT
  5
2B6
330
2AE
100
AcDbEntity
  8
LAY-20
 62
     7
100
AcDbMText
 10
592.4272134994999
 20
518.8000068937
 30
0.0
 40
9.3543312
 41
0.0
 71
     5
 72
     1
  1
156
  7
EXCADDIM1
 11
0.0
 21
1.0
 31
0.0
  0
POINT
  5
2B7
330
2AE
100
AcDbEntity
  8
DEFPOINTS
 62
     0
100
AcDbPoint
 10
554.9272195202001
 20
596.7999817110999
 30
0.0
  0
POINT
  5
2B8
330
2AE
100
AcDbEntity
  8
DEFPOINTS
 62
     0
100
AcDbPoint
 10
554.92721952028
 20
440.8000320762999
 30
0.0
  0
POINT
  5
2B9
330
2AE
100
AcDbEntity
  8
DEFPOINTS
 62
     0
100
AcDbPoint
 10
599.9272134994999
 20
440.8000320762999
 30
0.0
  0
ENDBLK
  5
2B0
330
2AE
100
AcDbEntity
  8
0
100
AcDbBlockEnd
  0
BLOCK
  5
2BC
330
2BB
100
AcDbEntity
  8
0
100
AcDbBlockBegin
  2
*D16
 70
     1
 10
0.0
 20
0.0
 30
0.0
  3
*D16
  1

  0
LINE
  5
2BE
330
2BB
100
AcDbEntity
  8
LAY-20
  6
CONTINUOUS
 62
     4
100
AcDbLine
 10
319.9272134994999
 20
329.737823686
 30
0.0
 11
319.9272134994999
 21
380.737823686
 31
0.0
  0
LINE
  5
2BF
330
2BB
100
AcDbEntity
  8
LAY-20
  6
CONTINUOUS
 62
     4
100
AcDbLine
 10
569.9272074787
 20
288.6978841852
 30
0.0
 11
569.9272074787
 21
380.737823686
 31
0.0
  0
LINE
  5
2C0
330
2BB
100
AcDbEntity
  8
LAY-20
  6
CONTINUOUS
 62
     4
100
AcDbLine
 10
327.4272134994999
 20
376.237823686
 30
0.0
 11
562.4272074787
 21
376.237823686
 31
0.0
  0
INSERT
  5
2C1
330
2BB
100
AcDbEntity
  8
LAY-20
 62
     4
100
AcDbBlockReference
  2
EX_BNORM
 10
319.9272134994999
 20
376.237823686
 30
0.0
 41
7.5
 42
7.5
 43
7.5
 50
180.0
  0
INSERT
  5
2C2
330
2BB
100
AcDbEntity
  8
LAY-20
 62
     4
100
AcDbBlockReference
  2
EX_BNORM
 10
569.9272074787
 20
376.237823686
 30
0.0
 41
7.5
 42
7.5
 43
7.5
  0
MTEXT
  5
2C3
330
2BB
100
AcDbEntity
  8
LAY-20
 62
     7
100
AcDbMText
 10
444.9272104890999
 20
383.737823686
 30
0.0
 40
9.3543312
 41
0.0
 71
     5
 72
     1
  1
250
  7
EXCADDIM1
  0
POINT
  5
2C4
330
2BB
100
AcDbEntity
  8
DEFPOINTS
 62
     0
100
AcDbPoint
 10
319.9272134994999
 20
325.237823686
 30
0.0
  0
POINT
  5
2C5
330
2BB
100
AcDbEntity
  8
DEFPOINTS
 62
     0
100
AcDbPoint
 10
569.9272074787
 20
284.1978841852
 30
0.0
  0
POINT
  5
2C6
330
2BB
100
AcDbEntity
  8
DEFPOINTS
 62
     0
100
AcDbPoint
 10
569.9272074787
 20
376.237823686
 30
0.0
  0
ENDBLK
  5
2BD
330
2BB
100
AcDbEntity
  8
0
100
AcDbBlockEnd
  0
BLOCK
  5
2C9
330
2C8
100
AcDbEntity
  8
0
100
AcDbBlockBegin
  2
*D17
 70
     1
 10
0.0
 20
0.0
 30
0.0
  3
*D17
  1

  0
LINE
  5
2CB
330
2C8
100
AcDbEntity
  8
LAY-20
  6
CONTINUOUS
 62
     4
100
AcDbLine
 10
414.9272134994999
 20
298.6978100737
 30
0.0
 11
414.9272134994999
 21
359.737823686
 31
0.0
  0
LINE
  5
2CC
330
2C8
100
AcDbEntity
  8
LAY-20
  6
CONTINUOUS
 62
     4
100
AcDbLine
 10
407.4272134994999
 20
355.237823686
 30
0.0
 11
327.4272134994999
 21
355.237823686
 31
0.0
  0
INSERT
  5
2CD
330
2C8
100
AcDbEntity
  8
LAY-20
 62
     4
100
AcDbBlockReference
  2
EX_BNORM
 10
414.9272134994999
 20
355.237823686
 30
0.0
 41
7.5
 42
7.5
 43
7.5
  0
INSERT
  5
2CE
330
2C8
100
AcDbEntity
  8
LAY-20
 62
     4
100
AcDbBlockReference
  2
EX_BNORM
 10
319.9272134994999
 20
355.237823686
 30
0.0
 41
7.5
 42
7.5
 43
7.5
 50
180.0
  0
MTEXT
  5
2CF
330
2C8
100
AcDbEntity
  8
LAY-20
 62
     7
100
AcDbMText
 10
367.4272134995
 20
362.737823686
 30
0.0
 40
9.3543312
 41
0.0
 71
     5
 72
     1
  1
95
  7
EXCADDIM1
  0
POINT
  5
2D0
330
2C8
100
AcDbEntity
  8
DEFPOINTS
 62
     0
100
AcDbPoint
 10
414.9272134994999
 20
294.1978100737
 30
0.0
  0
POINT
  5
2D1
330
2C8
100
AcDbEntity
  8
DEFPOINTS
 62
     0
100
AcDbPoint
 10
319.9272134994999
 20
355.237823686
 30
0.0
  0
POINT
  5
2D2
330
2C8
100
AcDbEntity
  8
DEFPOINTS
 62
     0
100
AcDbPoint
 10
319.9272134994999
 20
355.237823686
 30
0.0
  0
ENDBLK
  5
2CA
330
2C8
100
AcDbEntity
  8
0
100
AcDbBlockEnd
  0
BLOCK
  5
2D5
330
2D4
100
AcDbEntity
  8
0
100
AcDbBlockBegin
  2
*D18
 70
     1
 10
0.0
 20
0.0
 30
0.0
  3
*D18
  1

  0
LINE
  5
2D7
330
2D4
100
AcDbEntity
  8
LAY-20
  6
CONTINUOUS
 62
     4
100
AcDbLine
 10
422.4272134994999
 20
355.237823686
 30
0.0
 11
562.4272074787
 21
355.237823686
 31
0.0
  0
INSERT
  5
2D8
330
2D4
100
AcDbEntity
  8
LAY-20
 62
     4
100
AcDbBlockReference
  2
EX_BNORM
 10
414.9272134994999
 20
355.237823686
 30
0.0
 41
7.5
 42
7.5
 43
7.5
 50
180.0
  0
INSERT
  5
2D9
330
2D4
100
AcDbEntity
  8
LAY-20
 62
     4
100
AcDbBlockReference
  2
EX_BNORM
 10
569.9272074787
 20
355.237823686
 30
0.0
 41
7.5
 42
7.5
 43
7.5
  0
MTEXT
  5
2DA
330
2D4
100
AcDbEntity
  8
LAY-20
 62
     7
100
AcDbMText
 10
492.4272104890999
 20
362.737823686
 30
0.0
 40
9.3543312
 41
0.0
 71
     5
 72
     1
  1
155
  7
EXCADDIM1
  0
POINT
  5
2DB
330
2D4
100
AcDbEntity
  8
DEFPOINTS
 62
     0
100
AcDbPoint
 10
414.9272134994999
 20
355.237823686
 30
0.0
  0
POINT
  5
2DC
330
2D4
100
AcDbEntity
  8
DEFPOINTS
 62
     0
100
AcDbPoint
 10
569.9272074787
 20
355.237823686
 30
0.0
  0
POINT
  5
2DD
330
2D4
100
AcDbEntity
  8
DEFPOINTS
 62
     0
100
AcDbPoint
 10
569.9272074787
 20
355.237823686
 30
0.0
  0
ENDBLK
  5
2D6
330
2D4
100
AcDbEntity
  8
0
100
AcDbBlockEnd
  0
BLOCK
  5
2E0
330
2DF
100
AcDbEntity
  8
0
100
AcDbBlockBegin
  2
*D19
 70
     1
 10
0.0
 20
0.0
 30
0.0
  3
*D19
  1

  0
LINE
  5
2E2
330
2DF
100
AcDbEntity
  8
LAY-20
  6
CONTINUOUS
 62
     4
100
AcDbLine
 10
315.4272134994999
 20
325.237823686
 30
0.0
 11
285.4272134994999
 21
325.237823686
 31
0.0
  0
LINE
  5
2E3
330
2DF
100
AcDbEntity
  8
LAY-20
  6
CONTINUOUS
 62
     4
100
AcDbLine
 10
330.4272134994999
 20
278.1978841852
 30
0.0
 11
285.4272134994999
 21
278.1978841852
 31
0.0
  0
LINE
  5
2E4
330
2DF
100
AcDbEntity
  8
LAY-20
  6
CONTINUOUS
 62
     4
100
AcDbLine
 10
289.9272134994999
 20
317.737823686
 30
0.0
 11
289.9272134994999
 21
285.6978841852
 31
0.0
  0
INSERT
  5
2E5
330
2DF
100
AcDbEntity
  8
LAY-20
 62
     4
100
AcDbBlockReference
  2
EX_BNORM
 10
289.9272134994999
 20
325.237823686
 30
0.0
 41
7.5
 42
7.5
 43
7.5
 50
90.0
  0
INSERT
  5
2E6
330
2DF
100
AcDbEntity
  8
LAY-20
 62
     4
100
AcDbBlockReference
  2
EX_BNORM
 10
289.9272134994999
 20
278.1978841852
 30
0.0
 41
7.5
 42
7.5
 43
7.5
 50
270.0
  0
MTEXT
  5
2E7
330
2DF
100
AcDbEntity
  8
LAY-20
 62
     7
100
AcDbMText
 10
282.4272134994999
 20
301.7178539356
 30
0.0
 40
9.3543312
 41
0.0
 71
     5
 72
     1
  1
47
  7
EXCADDIM1
 11
0.0
 21
1.0
 31
0.0
  0
POINT
  5
2E8
330
2DF
100
AcDbEntity
  8
DEFPOINTS
 62
     0
100
AcDbPoint
 10
319.9272134994999
 20
325.237823686
 30
0.0
  0
POINT
  5
2E9
330
2DF
100
AcDbEntity
  8
DEFPOINTS
 62
     0
100
AcDbPoint
 10
334.9272134994999
 20
278.1978841852
 30
0.0
  0
POINT
  5
2EA
330
2DF
100
AcDbEntity
  8
DEFPOINTS
 62
     0
100
AcDbPoint
 10
289.9272134994999
 20
278.1978841852
 30
0.0
  0
ENDBLK
  5
2E1
330
2DF
100
AcDbEntity
  8
0
100
AcDbBlockEnd
  0
BLOCK
  5
2ED
330
2EC
100
AcDbEntity
  8
0
100
AcDbBlockBegin
  2
*D20
 70
     1
 10
0.0
 20
0.0
 30
0.0
  3
*D20
  1

  0
LINE
  5
2EF
330
2EC
100
AcDbEntity
  8
LAY-20
  6
CONTINUOUS
 62
     4
100
AcDbLine
 10
570.5484677134
 20
300.6978841852
 30
0.0
 11
604.4272134994999
 21
300.6978841852
 31
0.0
  0
LINE
  5
2F0
330
2EC
100
AcDbEntity
  8
LAY-20
  6
CONTINUOUS
 62
     4
100
AcDbLine
 10
570.5484677134
 20
271.6978841852
 30
0.0
 11
604.4272134994999
 21
271.6978841852
 31
0.0
  0
LINE
  5
2F1
330
2EC
100
AcDbEntity
  8
LAY-20
  6
CONTINUOUS
 62
     4
100
AcDbLine
 10
599.9272134994999
 20
293.1978841852
 30
0.0
 11
599.9272134994999
 21
279.1978841852
 31
0.0
  0
INSERT
  5
2F2
330
2EC
100
AcDbEntity
  8
LAY-20
 62
     4
100
AcDbBlockReference
  2
EX_BNORM
 10
599.9272134994999
 20
300.6978841852
 30
0.0
 41
7.5
 42
7.5
 43
7.5
 50
90.0
  0
INSERT
  5
2F3
330
2EC
100
AcDbEntity
  8
LAY-20
 62
     4
100
AcDbBlockReference
  2
EX_BNORM
 10
599.9272134994999
 20
271.6978841852
 30
0.0
 41
7.5
 42
7.5
 43
7.5
 50
270.0
  0
MTEXT
  5
2F4
330
2EC
100
AcDbEntity
  8
LAY-20
 62
     7
100
AcDbMText
 10
592.4272134994999
 20
286.1978841852
 30
0.0
 40
9.3543312
 41
0.0
 71
     5
 72
     1
  1
29
  7
EXCADDIM1
 11
0.0
 21
1.0
 31
0.0
  0
POINT
  5
2F5
330
2EC
100
AcDbEntity
  8
DEFPOINTS
 62
     0
100
AcDbPoint
 10
566.0484677134
 20
300.6978841852
 30
0.0
  0
POINT
  5
2F6
330
2EC
100
AcDbEntity
  8
DEFPOINTS
 62
     0
100
AcDbPoint
 10
566.0484677134
 20
271.6978841852
 30
0.0
  0
POINT
  5
2F7
330
2EC
100
AcDbEntity
  8
DEFPOINTS
 62
     0
100
AcDbPoint
 10
599.9272134994999
 20
271.6978841852
 30
0.0
  0
ENDBLK
  5
2EE
330
2EC
100
AcDbEntity
  8
0
100
AcDbBlockEnd
  0
BLOCK
  5
2FA
330
2F9
100
AcDbEntity
  8
0
100
AcDbBlockBegin
  2
*D21
 70
     1
 10
0.0
 20
0.0
 30
0.0
  3
*D21
  1

  0
LINE
  5
2FC
330
2F9
100
AcDbEntity
  8
LAY-20
  6
CONTINUOUS
 62
     4
100
AcDbLine
 10
323.4272134995
 20
574.7999999905
 30
0.0
 11
285.4272134995
 21
574.7999999905
 31
0.0
  0
LINE
  5
2FD
330
2F9
100
AcDbEntity
  8
LAY-20
  6
CONTINUOUS
 62
     4
100
AcDbLine
 10
323.4272134995
 20
590.7999999905
 30
0.0
 11
285.4272134995
 21
590.7999999905
 31
0.0
  0
LINE
  5
2FE
330
2F9
100
AcDbEntity
  8
LAY-20
  6
CONTINUOUS
 62
     4
100
AcDbLine
 10
289.9272134995
 20
582.2999999905
 30
0.0
 11
289.9272134995
 21
583.2999999905
 31
0.0
  0
INSERT
  5
2FF
330
2F9
100
AcDbEntity
  8
LAY-20
 62
     4
100
AcDbBlockReference
  2
EX_BNORM
 10
289.9272134995
 20
574.7999999905
 30
0.0
 41
7.5
 42
7.5
 43
7.5
 50
270.0
  0
INSERT
  5
300
330
2F9
100
AcDbEntity
  8
LAY-20
 62
     4
100
AcDbBlockReference
  2
EX_BNORM
 10
289.9272134995
 20
590.7999999905
 30
0.0
 41
7.5
 42
7.5
 43
7.5
 50
90.0
  0
MTEXT
  5
301
330
2F9
100
AcDbEntity
  8
LAY-20
 62
     7
100
AcDbMText
 10
282.4272134995002
 20
613.2999999904999
 30
0.0
 40
9.3543312
 41
0.0
 71
     5
 72
     1
  1
%%c16
  7
EXCADDIM1
 11
0.0
 21
1.0
 31
0.0
  0
POINT
  5
302
330
2F9
100
AcDbEntity
  8
DEFPOINTS
 62
     0
100
AcDbPoint
 10
327.9272134995
 20
574.7999999905
 30
0.0
  0
POINT
  5
303
330
2F9
100
AcDbEntity
  8
DEFPOINTS
 62
     0
100
AcDbPoint
 10
327.9272134995
 20
590.7999999905
 30
0.0
  0
POINT
  5
304
330
2F9
100
AcDbEntity
  8
DEFPOINTS
 62
     0
100
AcDbPoint
 10
289.9272134995
 20
590.7999999905
 30
0.0
  0
ENDBLK
  5
2FB
330
2F9
100
AcDbEntity
  8
0
100
AcDbBlockEnd
  0
BLOCK
  5
307
330
306
100
AcDbEntity
  8
0
100
AcDbBlockBegin
  2
*D22
 70
     1
 10
0.0
 20
0.0
 30
0.0
  3
*D22
  1

  0
LINE
  5
309
330
306
100
AcDbEntity
  8
LAY-20
  6
CONTINUOUS
 62
     4
100
AcDbLine
 10
498.9999284223
 20
274.19792400058
 30
0.0
 11
498.9999999999999
 21
274.19792400058
 31
0.0
  0
LINE
  5
30A
330
306
100
AcDbEntity
  8
LAY-20
  6
CONTINUOUS
 62
     4
100
AcDbLine
 10
499.0000584883099
 20
298.19785188928
 30
0.0
 11
498.9999999999999
 21
298.19785188928
 31
0.0
  0
LINE
  5
30B
330
306
100
AcDbEntity
  8
LAY-20
  6
CONTINUOUS
 62
     4
100
AcDbLine
 10
498.9999999999999
 20
281.69792400058
 30
0.0
 11
498.9999999999999
 21
290.69785188928
 31
0.0
  0
INSERT
  5
30C
330
306
100
AcDbEntity
  8
LAY-20
 62
     4
100
AcDbBlockReference
  2
EX_BNORM
 10
498.9999999999999
 20
274.19792400058
 30
0.0
 41
7.5
 42
7.5
 43
7.5
 50
270.0
  0
INSERT
  5
30D
330
306
100
AcDbEntity
  8
LAY-20
 62
     4
100
AcDbBlockReference
  2
EX_BNORM
 10
498.9999999999999
 20
298.19785188928
 30
0.0
 41
7.5
 42
7.5
 43
7.5
 50
90.0
  0
MTEXT
  5
30E
330
306
100
AcDbEntity
  8
LAY-20
 62
     7
100
AcDbMText
 10
491.5000000000001
 20
320.6978518892799
 30
0.0
 40
9.3543312
 41
0.0
 71
     5
 72
     1
  1
%%c24
  7
EXCADDIM1
 11
0.0
 21
1.0
 31
0.0
  0
POINT
  5
30F
330
306
100
AcDbEntity
  8
DEFPOINTS
 62
     0
100
AcDbPoint
 10
498.9999284223
 20
274.19792400058
 30
0.0
  0
POINT
  5
310
330
306
100
AcDbEntity
  8
DEFPOINTS
 62
     0
100
AcDbPoint
 10
499.0000584883099
 20
298.19785188928
 30
0.0
  0
POINT
  5
311
330
306
100
AcDbEntity
  8
DEFPOINTS
 62
     0
100
AcDbPoint
 10
498.9999999999999
 20
298.19785188928
 30
0.0
  0
ENDBLK
  5
308
330
306
100
AcDbEntity
  8
0
100
AcDbBlockEnd
  0
ENDSEC
  0
SECTION
  2
ENTITIES
  0
TEXT
  5
D4
330
1F
100
AcDbEntity
  8
LAY-10
  6
CONTINUOUS
 62
     7
100
AcDbText
 10
477.3291336000001
 20
570.9999962677998
 30
0.0
 40
6.2362208
  1
１０ｃｍ
 50
90.00000000000004
 41
0.8117646385641659
  7
EXCADSTD
100
AcDbText
  0
TEXT
  5
D5
330
1F
100
AcDbEntity
  8
LAY-10
  6
CONTINUOUS
 62
     7
100
AcDbText
 10
477.3291336000001
 20
442.9999956600998
 30
0.0
 40
6.2362208
  1
１０ｃｍ
 50
90.00000000000004
 41
0.8117646385641659
  7
EXCADSTD
100
AcDbText
  0
TEXT
  5
D6
330
1F
100
AcDbEntity
  8
LAY-10
  6
CONTINUOUS
 62
     7
100
AcDbText
 10
457.3291336
 20
442.9999956600998
 30
0.0
 40
6.2362208
  1
１２ｃｍ
 50
90.00000000000004
 41
0.8117646385641659
  7
EXCADSTD
100
AcDbText
  0
TEXT
  5
D7
330
1F
100
AcDbEntity
  8
LAY-10
  6
CONTINUOUS
 62
     7
100
AcDbText
 10
457.3291336
 20
570.9999962677998
 30
0.0
 40
6.2362208
  1
１２ｃｍ
 50
90.00000000000004
 41
0.8117646385641659
  7
EXCADSTD
100
AcDbText
  0
LINE
  5
D8
330
1F
100
AcDbEntity
  8
LAY-10
  6
CONTINUOUS
 62
     7
100
AcDbLine
 10
569.9272134994999
 20
563.2999756902998
 30
0.0
 11
569.9272134994999
 21
474.3000380970999
 31
0.0
  0
ARC
  5
D9
330
1F
100
AcDbEntity
  8
LAY-10
  6
CONTINUOUS
 62
     7
100
AcDbCircle
 10
550.4272134994999
 20
485.3000068937001
 30
0.0
 40
2.0
100
AcDbArc
 50
90.00000000000001
 51
270.0
  0
LINE
  5
DA
330
1F
100
AcDbEntity
  8
LAY-10
  6
CONTINUOUS
 62
     7
100
AcDbLine
 10
550.4272134994999
 20
483.3000068937
 30
0.0
 11
552.0987863747
 21
483.3000068937
 31
0.0
  0
LINE
  5
DB
330
1F
100
AcDbEntity
  8
LAY-10
  6
CONTINUOUS
 62
     7
100
AcDbLine
 10
550.4272134994999
 20
487.3000068937
 30
0.0
 11
553.7556406242
 21
487.3000068937
 31
0.0
  0
ARC
  5
DC
330
1F
100
AcDbEntity
  8
LAY-10
  6
CONTINUOUS
 62
     7
100
AcDbCircle
 10
563.4272134995001
 20
485.3000068937001
 30
0.0
 40
2.0
100
AcDbArc
 50
270.0
 51
90.00000000000001
  0
LINE
  5
DD
330
1F
100
AcDbEntity
  8
LAY-10
  6
CONTINUOUS
 62
     7
100
AcDbLine
 10
563.4272134995001
 20
483.3000068937
 30
0.0
 11
561.7556406241999
 21
483.3000068937
 31
0.0
  0
LINE
  5
DE
330
1F
100
AcDbEntity
  8
LAY-10
  6
CONTINUOUS
 62
     7
100
AcDbLine
 10
563.4272134995001
 20
487.3000068937
 30
0.0
 11
560.0987863747
 21
487.3000068937
 31
0.0
  0
LINE
  5
DF
330
1F
100
AcDbEntity
  8
LAY-10
  6
CONTINUOUS
 62
     7
100
AcDbLine
 10
554.0987863747
 20
481.3000068937
 30
0.0
 11
552.0987863747
 21
483.3000068937
 31
0.0
  0
LINE
  5
E0
330
1F
100
AcDbEntity
  8
LAY-10
  6
CONTINUOUS
 62
     7
100
AcDbLine
 10
559.7556406242
 20
481.3000068937
 30
0.0
 11
561.7556406241999
 21
483.3000068937
 31
0.0
  0
LINE
  5
E1
330
1F
100
AcDbEntity
  8
LAY-10
  6
CONTINUOUS
 62
     7
100
AcDbLine
 10
556.9272134995001
 20
484.1284340184998
 30
0.0
 11
560.0987863747
 21
487.3000068937
 31
0.0
  0
LINE
  5
E2
330
1F
100
AcDbEntity
  8
LAY-10
  6
CONTINUOUS
 62
     7
100
AcDbLine
 10
556.9272134995001
 20
484.1284340184998
 30
0.0
 11
553.7556406242
 21
487.3000068937
 31
0.0
  0
ARC
  5
E3
330
1F
100
AcDbEntity
  8
LAY-10
  6
CONTINUOUS
 62
     7
100
AcDbCircle
 10
550.4272134994999
 20
477.3000068937
 30
0.0
 40
2.0
100
AcDbArc
 50
90.00000000000001
 51
270.0
  0
LINE
  5
E4
330
1F
100
AcDbEntity
  8
LAY-10
  6
CONTINUOUS
 62
     7
100
AcDbLine
 10
550.4272134994999
 20
479.3000068937001
 30
0.0
 11
552.0987863747
 21
479.3000068937001
 31
0.0
  0
LINE
  5
E5
330
1F
100
AcDbEntity
  8
LAY-10
  6
CONTINUOUS
 62
     7
100
AcDbLine
 10
550.4272134994999
 20
475.3000068937
 30
0.0
 11
553.7556406242
 21
475.3000068937
 31
0.0
  0
ARC
  5
E6
330
1F
100
AcDbEntity
  8
LAY-10
  6
CONTINUOUS
 62
     7
100
AcDbCircle
 10
563.4272134995001
 20
477.3000068937
 30
0.0
 40
2.0
100
AcDbArc
 50
270.0
 51
90.00000000000001
  0
LINE
  5
E7
330
1F
100
AcDbEntity
  8
LAY-10
  6
CONTINUOUS
 62
     7
100
AcDbLine
 10
563.4272134995001
 20
479.3000068937001
 30
0.0
 11
561.7556406241999
 21
479.3000068937001
 31
0.0
  0
LINE
  5
E8
330
1F
100
AcDbEntity
  8
LAY-10
  6
CONTINUOUS
 62
     7
100
AcDbLine
 10
563.4272134995001
 20
475.3000068937
 30
0.0
 11
560.0987863747
 21
475.3000068937
 31
0.0
  0
LINE
  5
E9
330
1F
100
AcDbEntity
  8
LAY-10
  6
CONTINUOUS
 62
     7
100
AcDbLine
 10
554.0987863747
 20
481.3000068937
 30
0.0
 11
552.0987863747
 21
479.3000068937001
 31
0.0
  0
LINE
  5
EA
330
1F
100
AcDbEntity
  8
LAY-10
  6
CONTINUOUS
 62
     7
100
AcDbLine
 10
559.7556406242
 20
481.3000068937
 30
0.0
 11
561.7556406241999
 21
479.3000068937001
 31
0.0
  0
LINE
  5
EB
330
1F
100
AcDbEntity
  8
LAY-10
  6
CONTINUOUS
 62
     7
100
AcDbLine
 10
556.9272134995001
 20
478.471579769
 30
0.0
 11
560.0987863747
 21
475.3000068937
 31
0.0
  0
LINE
  5
EC
330
1F
100
AcDbEntity
  8
LAY-10
  6
CONTINUOUS
 62
     7
100
AcDbLine
 10
556.9272134995001
 20
478.471579769
 30
0.0
 11
553.7556406242
 21
475.3000068937
 31
0.0
  0
ARC
  5
ED
330
1F
100
AcDbEntity
  8
LAY-10
  6
CONTINUOUS
 62
     7
100
AcDbCircle
 10
550.4272134994999
 20
500.3000068937001
 30
0.0
 40
2.0
100
AcDbArc
 50
90.00000000000001
 51
270.0
  0
LINE
  5
EE
330
1F
100
AcDbEntity
  8
LAY-10
  6
CONTINUOUS
 62
     7
100
AcDbLine
 10
550.4272134994999
 20
498.3000068937
 30
0.0
 11
552.0987863747
 21
498.3000068937
 31
0.0
  0
LINE
  5
EF
330
1F
100
AcDbEntity
  8
LAY-10
  6
CONTINUOUS
 62
     7
100
AcDbLine
 10
550.4272134994999
 20
502.3000068937
 30
0.0
 11
553.7556406242
 21
502.3000068937
 31
0.0
  0
ARC
  5
F0
330
1F
100
AcDbEntity
  8
LAY-10
  6
CONTINUOUS
 62
     7
100
AcDbCircle
 10
563.4272134995001
 20
500.3000068937001
 30
0.0
 40
2.0
100
AcDbArc
 50
270.0
 51
90.00000000000001
  0
LINE
  5
F1
330
1F
100
AcDbEntity
  8
LAY-10
  6
CONTINUOUS
 62
     7
100
AcDbLine
 10
563.4272134995001
 20
498.3000068937
 30
0.0
 11
561.7556406241999
 21
498.3000068937
 31
0.0
  0
LINE
  5
F2
330
1F
100
AcDbEntity
  8
LAY-10
  6
CONTINUOUS
 62
     7
100
AcDbLine
 10
563.4272134995001
 20
502.3000068937
 30
0.0
 11
560.0987863747
 21
502.3000068937
 31
0.0
  0
LINE
  5
F3
330
1F
100
AcDbEntity
  8
LAY-10
  6
CONTINUOUS
 62
     7
100
AcDbLine
 10
554.0987863747
 20
496.3000068937
 30
0.0
 11
552.0987863747
 21
498.3000068937
 31
0.0
  0
LINE
  5
F4
330
1F
100
AcDbEntity
  8
LAY-10
  6
CONTINUOUS
 62
     7
100
AcDbLine
 10
559.7556406242
 20
496.3000068937
 30
0.0
 11
561.7556406241999
 21
498.3000068937
 31
0.0
  0
LINE
  5
F5
330
1F
100
AcDbEntity
  8
LAY-10
  6
CONTINUOUS
 62
     7
100
AcDbLine
 10
556.9272134995001
 20
499.1284340184998
 30
0.0
 11
560.0987863747
 21
502.3000068937
 31
0.0
  0
LINE
  5
F6
330
1F
100
AcDbEntity
  8
LAY-10
  6
CONTINUOUS
 62
     7
100
AcDbLine
 10
556.9272134995001
 20
499.1284340184998
 30
0.0
 11
553.7556406242
 21
502.3000068937
 31
0.0
  0
ARC
  5
F7
330
1F
100
AcDbEntity
  8
LAY-10
  6
CONTINUOUS
 62
     7
100
AcDbCircle
 10
550.4272134994999
 20
492.3000068937
 30
0.0
 40
2.0
100
AcDbArc
 50
90.00000000000001
 51
270.0
  0
LINE
  5
F8
330
1F
100
AcDbEntity
  8
LAY-10
  6
CONTINUOUS
 62
     7
100
AcDbLine
 10
550.4272134994999
 20
494.3000068937001
 30
0.0
 11
552.0987863747
 21
494.3000068937001
 31
0.0
  0
LINE
  5
F9
330
1F
100
AcDbEntity
  8
LAY-10
  6
CONTINUOUS
 62
     7
100
AcDbLine
 10
550.4272134994999
 20
490.3000068937
 30
0.0
 11
553.7556406242
 21
490.3000068937
 31
0.0
  0
ARC
  5
FA
330
1F
100
AcDbEntity
  8
LAY-10
  6
CONTINUOUS
 62
     7
100
AcDbCircle
 10
563.4272134995001
 20
492.3000068937
 30
0.0
 40
2.0
100
AcDbArc
 50
270.0
 51
90.00000000000001
  0
LINE
  5
FB
330
1F
100
AcDbEntity
  8
LAY-10
  6
CONTINUOUS
 62
     7
100
AcDbLine
 10
563.4272134995001
 20
494.3000068937001
 30
0.0
 11
561.7556406241999
 21
494.3000068937001
 31
0.0
  0
LINE
  5
FC
330
1F
100
AcDbEntity
  8
LAY-10
  6
CONTINUOUS
 62
     7
100
AcDbLine
 10
563.4272134995001
 20
490.3000068937
 30
0.0
 11
560.0987863747
 21
490.3000068937
 31
0.0
  0
LINE
  5
FD
330
1F
100
AcDbEntity
  8
LAY-10
  6
CONTINUOUS
 62
     7
100
AcDbLine
 10
554.0987863747
 20
496.3000068937
 30
0.0
 11
552.0987863747
 21
494.3000068937001
 31
0.0
  0
LINE
  5
FE
330
1F
100
AcDbEntity
  8
LAY-10
  6
CONTINUOUS
 62
     7
100
AcDbLine
 10
559.7556406242
 20
496.3000068937
 30
0.0
 11
561.7556406241999
 21
494.3000068937001
 31
0.0
  0
LINE
  5
FF
330
1F
100
AcDbEntity
  8
LAY-10
  6
CONTINUOUS
 62
     7
100
AcDbLine
 10
556.9272134995001
 20
493.471579769
 30
0.0
 11
560.0987863747
 21
490.3000068937
 31
0.0
  0
LINE
  5
100
330
1F
100
AcDbEntity
  8
LAY-10
  6
CONTINUOUS
 62
     7
100
AcDbLine
 10
556.9272134995001
 20
493.471579769
 30
0.0
 11
553.7556406242
 21
490.3000068937
 31
0.0
  0
ARC
  5
101
330
1F
100
AcDbEntity
  8
LAY-10
  6
CONTINUOUS
 62
     7
100
AcDbCircle
 10
550.4272134994999
 20
515.3000068937001
 30
0.0
 40
2.0
100
AcDbArc
 50
90.00000000000001
 51
270.0
  0
LINE
  5
102
330
1F
100
AcDbEntity
  8
LAY-10
  6
CONTINUOUS
 62
     7
100
AcDbLine
 10
550.4272134994999
 20
513.3000068937
 30
0.0
 11
552.0987863747
 21
513.3000068937
 31
0.0
  0
LINE
  5
103
330
1F
100
AcDbEntity
  8
LAY-10
  6
CONTINUOUS
 62
     7
100
AcDbLine
 10
550.4272134994999
 20
517.3000068936999
 30
0.0
 11
553.7556406242
 21
517.3000068936999
 31
0.0
  0
ARC
  5
104
330
1F
100
AcDbEntity
  8
LAY-10
  6
CONTINUOUS
 62
     7
100
AcDbCircle
 10
563.4272134995001
 20
515.3000068937001
 30
0.0
 40
2.0
100
AcDbArc
 50
270.0
 51
90.00000000000001
  0
LINE
  5
105
330
1F
100
AcDbEntity
  8
LAY-10
  6
CONTINUOUS
 62
     7
100
AcDbLine
 10
563.4272134995001
 20
513.3000068937
 30
0.0
 11
561.7556406241999
 21
513.3000068937
 31
0.0
  0
LINE
  5
106
330
1F
100
AcDbEntity
  8
LAY-10
  6
CONTINUOUS
 62
     7
100
AcDbLine
 10
563.4272134995001
 20
517.3000068936999
 30
0.0
 11
560.0987863747
 21
517.3000068936999
 31
0.0
  0
LINE
  5
107
330
1F
100
AcDbEntity
  8
LAY-10
  6
CONTINUOUS
 62
     7
100
AcDbLine
 10
554.0987863747
 20
511.3000068937
 30
0.0
 11
552.0987863747
 21
513.3000068937
 31
0.0
  0
LINE
  5
108
330
1F
100
AcDbEntity
  8
LAY-10
  6
CONTINUOUS
 62
     7
100
AcDbLine
 10
559.7556406242
 20
511.3000068937
 30
0.0
 11
561.7556406241999
 21
513.3000068937
 31
0.0
  0
LINE
  5
109
330
1F
100
AcDbEntity
  8
LAY-10
  6
CONTINUOUS
 62
     7
100
AcDbLine
 10
556.9272134995001
 20
514.1284340184998
 30
0.0
 11
560.0987863747
 21
517.3000068936999
 31
0.0
  0
LINE
  5
10A
330
1F
100
AcDbEntity
  8
LAY-10
  6
CONTINUOUS
 62
     7
100
AcDbLine
 10
556.9272134995001
 20
514.1284340184998
 30
0.0
 11
553.7556406242
 21
517.3000068936999
 31
0.0
  0
ARC
  5
10B
330
1F
100
AcDbEntity
  8
LAY-10
  6
CONTINUOUS
 62
     7
100
AcDbCircle
 10
550.4272134994999
 20
507.3000068937
 30
0.0
 40
2.0
100
AcDbArc
 50
90.00000000000001
 51
270.0
  0
LINE
  5
10C
330
1F
100
AcDbEntity
  8
LAY-10
  6
CONTINUOUS
 62
     7
100
AcDbLine
 10
550.4272134994999
 20
509.3000068937001
 30
0.0
 11
552.0987863747
 21
509.3000068937001
 31
0.0
  0
LINE
  5
10D
330
1F
100
AcDbEntity
  8
LAY-10
  6
CONTINUOUS
 62
     7
100
AcDbLine
 10
550.4272134994999
 20
505.3000068937
 30
0.0
 11
553.7556406242
 21
505.3000068937
 31
0.0
  0
ARC
  5
10E
330
1F
100
AcDbEntity
  8
LAY-10
  6
CONTINUOUS
 62
     7
100
AcDbCircle
 10
563.4272134995001
 20
507.3000068937
 30
0.0
 40
2.0
100
AcDbArc
 50
270.0
 51
90.00000000000001
  0
LINE
  5
10F
330
1F
100
AcDbEntity
  8
LAY-10
  6
CONTINUOUS
 62
     7
100
AcDbLine
 10
563.4272134995001
 20
509.3000068937001
 30
0.0
 11
561.7556406241999
 21
509.3000068937001
 31
0.0
  0
LINE
  5
110
330
1F
100
AcDbEntity
  8
LAY-10
  6
CONTINUOUS
 62
     7
100
AcDbLine
 10
563.4272134995001
 20
505.3000068937
 30
0.0
 11
560.0987863747
 21
505.3000068937
 31
0.0
  0
LINE
  5
111
330
1F
100
AcDbEntity
  8
LAY-10
  6
CONTINUOUS
 62
     7
100
AcDbLine
 10
554.0987863747
 20
511.3000068937
 30
0.0
 11
552.0987863747
 21
509.3000068937001
 31
0.0
  0
LINE
  5
112
330
1F
100
AcDbEntity
  8
LAY-10
  6
CONTINUOUS
 62
     7
100
AcDbLine
 10
559.7556406242
 20
511.3000068937
 30
0.0
 11
561.7556406241999
 21
509.3000068937001
 31
0.0
  0
LINE
  5
113
330
1F
100
AcDbEntity
  8
LAY-10
  6
CONTINUOUS
 62
     7
100
AcDbLine
 10
556.9272134995001
 20
508.471579769
 30
0.0
 11
560.0987863747
 21
505.3000068937
 31
0.0
  0
LINE
  5
114
330
1F
100
AcDbEntity
  8
LAY-10
  6
CONTINUOUS
 62
     7
100
AcDbLine
 10
556.9272134995001
 20
508.471579769
 30
0.0
 11
553.7556406242
 21
505.3000068937
 31
0.0
  0
ARC
  5
115
330
1F
100
AcDbEntity
  8
LAY-10
  6
CONTINUOUS
 62
     7
100
AcDbCircle
 10
550.4272134994999
 20
537.3000068937
 30
0.0
 40
2.0
100
AcDbArc
 50
90.00000000000001
 51
270.0
  0
LINE
  5
116
330
1F
100
AcDbEntity
  8
LAY-10
  6
CONTINUOUS
 62
     7
100
AcDbLine
 10
550.4272134994999
 20
539.3000068937001
 30
0.0
 11
552.0987863747
 21
539.3000068937001
 31
0.0
  0
LINE
  5
117
330
1F
100
AcDbEntity
  8
LAY-10
  6
CONTINUOUS
 62
     7
100
AcDbLine
 10
550.4272134994999
 20
535.3000068936999
 30
0.0
 11
553.7556406242
 21
535.3000068936999
 31
0.0
  0
ARC
  5
118
330
1F
100
AcDbEntity
  8
LAY-10
  6
CONTINUOUS
 62
     7
100
AcDbCircle
 10
563.4272134995001
 20
537.3000068937
 30
0.0
 40
2.0
100
AcDbArc
 50
270.0
 51
90.00000000000001
  0
LINE
  5
119
330
1F
100
AcDbEntity
  8
LAY-10
  6
CONTINUOUS
 62
     7
100
AcDbLine
 10
563.4272134995001
 20
539.3000068937001
 30
0.0
 11
561.7556406241999
 21
539.3000068937001
 31
0.0
  0
LINE
  5
11A
330
1F
100
AcDbEntity
  8
LAY-10
  6
CONTINUOUS
 62
     7
100
AcDbLine
 10
563.4272134995001
 20
535.3000068936999
 30
0.0
 11
560.0987863747
 21
535.3000068936999
 31
0.0
  0
LINE
  5
11B
330
1F
100
AcDbEntity
  8
LAY-10
  6
CONTINUOUS
 62
     7
100
AcDbLine
 10
554.0987863747
 20
541.3000068936999
 30
0.0
 11
552.0987863747
 21
539.3000068937001
 31
0.0
  0
LINE
  5
11C
330
1F
100
AcDbEntity
  8
LAY-10
  6
CONTINUOUS
 62
     7
100
AcDbLine
 10
559.7556406242
 20
541.3000068936999
 30
0.0
 11
561.7556406241999
 21
539.3000068937001
 31
0.0
  0
LINE
  5
11D
330
1F
100
AcDbEntity
  8
LAY-10
  6
CONTINUOUS
 62
     7
100
AcDbLine
 10
556.9272134995001
 20
538.4715797690001
 30
0.0
 11
560.0987863747
 21
535.3000068936999
 31
0.0
  0
LINE
  5
11E
330
1F
100
AcDbEntity
  8
LAY-10
  6
CONTINUOUS
 62
     7
100
AcDbLine
 10
556.9272134995001
 20
538.4715797690001
 30
0.0
 11
553.7556406242
 21
535.3000068936999
 31
0.0
  0
ARC
  5
11F
330
1F
100
AcDbEntity
  8
LAY-10
  6
CONTINUOUS
 62
     7
100
AcDbCircle
 10
550.4272134994999
 20
545.3000068937001
 30
0.0
 40
2.0
100
AcDbArc
 50
90.00000000000001
 51
270.0
  0
LINE
  5
120
330
1F
100
AcDbEntity
  8
LAY-10
  6
CONTINUOUS
 62
     7
100
AcDbLine
 10
550.4272134994999
 20
543.3000068937
 30
0.0
 11
552.0987863747
 21
543.3000068937
 31
0.0
  0
LINE
  5
121
330
1F
100
AcDbEntity
  8
LAY-10
  6
CONTINUOUS
 62
     7
100
AcDbLine
 10
550.4272134994999
 20
547.3000068936999
 30
0.0
 11
553.7556406242
 21
547.3000068936999
 31
0.0
  0
ARC
  5
122
330
1F
100
AcDbEntity
  8
LAY-10
  6
CONTINUOUS
 62
     7
100
AcDbCircle
 10
563.4272134995001
 20
545.3000068937001
 30
0.0
 40
2.0
100
AcDbArc
 50
270.0
 51
90.00000000000001
  0
LINE
  5
123
330
1F
100
AcDbEntity
  8
LAY-10
  6
CONTINUOUS
 62
     7
100
AcDbLine
 10
563.4272134995001
 20
543.3000068937
 30
0.0
 11
561.7556406241999
 21
543.3000068937
 31
0.0
  0
LINE
  5
124
330
1F
100
AcDbEntity
  8
LAY-10
  6
CONTINUOUS
 62
     7
100
AcDbLine
 10
563.4272134995001
 20
547.3000068936999
 30
0.0
 11
560.0987863747
 21
547.3000068936999
 31
0.0
  0
LINE
  5
125
330
1F
100
AcDbEntity
  8
LAY-10
  6
CONTINUOUS
 62
     7
100
AcDbLine
 10
554.0987863747
 20
541.3000068936999
 30
0.0
 11
552.0987863747
 21
543.3000068937
 31
0.0
  0
LINE
  5
126
330
1F
100
AcDbEntity
  8
LAY-10
  6
CONTINUOUS
 62
     7
100
AcDbLine
 10
559.7556406242
 20
541.3000068936999
 30
0.0
 11
561.7556406241999
 21
543.3000068937
 31
0.0
  0
LINE
  5
127
330
1F
100
AcDbEntity
  8
LAY-10
  6
CONTINUOUS
 62
     7
100
AcDbLine
 10
556.9272134995001
 20
544.1284340184998
 30
0.0
 11
560.0987863747
 21
547.3000068936999
 31
0.0
  0
LINE
  5
128
330
1F
100
AcDbEntity
  8
LAY-10
  6
CONTINUOUS
 62
     7
100
AcDbLine
 10
556.9272134995001
 20
544.1284340184998
 30
0.0
 11
553.7556406242
 21
547.3000068936999
 31
0.0
  0
ARC
  5
129
330
1F
100
AcDbEntity
  8
LAY-10
  6
CONTINUOUS
 62
     7
100
AcDbCircle
 10
550.4272134994999
 20
522.3000068937
 30
0.0
 40
2.0
100
AcDbArc
 50
90.00000000000001
 51
270.0
  0
LINE
  5
12A
330
1F
100
AcDbEntity
  8
LAY-10
  6
CONTINUOUS
 62
     7
100
AcDbLine
 10
550.4272134994999
 20
524.3000068937001
 30
0.0
 11
552.0987863747
 21
524.3000068937001
 31
0.0
  0
LINE
  5
12B
330
1F
100
AcDbEntity
  8
LAY-10
  6
CONTINUOUS
 62
     7
100
AcDbLine
 10
550.4272134994999
 20
520.3000068936999
 30
0.0
 11
553.7556406242
 21
520.3000068936999
 31
0.0
  0
ARC
  5
12C
330
1F
100
AcDbEntity
  8
LAY-10
  6
CONTINUOUS
 62
     7
100
AcDbCircle
 10
563.4272134995001
 20
522.3000068937
 30
0.0
 40
2.0
100
AcDbArc
 50
270.0
 51
90.00000000000001
  0
LINE
  5
12D
330
1F
100
AcDbEntity
  8
LAY-10
  6
CONTINUOUS
 62
     7
100
AcDbLine
 10
563.4272134995001
 20
524.3000068937001
 30
0.0
 11
561.7556406241999
 21
524.3000068937001
 31
0.0
  0
LINE
  5
12E
330
1F
100
AcDbEntity
  8
LAY-10
  6
CONTINUOUS
 62
     7
100
AcDbLine
 10
563.4272134995001
 20
520.3000068936999
 30
0.0
 11
560.0987863747
 21
520.3000068936999
 31
0.0
  0
LINE
  5
12F
330
1F
100
AcDbEntity
  8
LAY-10
  6
CONTINUOUS
 62
     7
100
AcDbLine
 10
554.0987863747
 20
526.3000068936999
 30
0.0
 11
552.0987863747
 21
524.3000068937001
 31
0.0
  0
LINE
  5
130
330
1F
100
AcDbEntity
  8
LAY-10
  6
CONTINUOUS
 62
     7
100
AcDbLine
 10
559.7556406242
 20
526.3000068936999
 30
0.0
 11
561.7556406241999
 21
524.3000068937001
 31
0.0
  0
LINE
  5
131
330
1F
100
AcDbEntity
  8
LAY-10
  6
CONTINUOUS
 62
     7
100
AcDbLine
 10
556.9272134995001
 20
523.4715797690001
 30
0.0
 11
560.0987863747
 21
520.3000068936999
 31
0.0
  0
LINE
  5
132
330
1F
100
AcDbEntity
  8
LAY-10
  6
CONTINUOUS
 62
     7
100
AcDbLine
 10
556.9272134995001
 20
523.4715797690001
 30
0.0
 11
553.7556406242
 21
520.3000068936999
 31
0.0
  0
ARC
  5
133
330
1F
100
AcDbEntity
  8
LAY-10
  6
CONTINUOUS
 62
     7
100
AcDbCircle
 10
550.4272134994999
 20
530.3000068937001
 30
0.0
 40
2.0
100
AcDbArc
 50
90.00000000000001
 51
270.0
  0
LINE
  5
134
330
1F
100
AcDbEntity
  8
LAY-10
  6
CONTINUOUS
 62
     7
100
AcDbLine
 10
550.4272134994999
 20
528.3000068937
 30
0.0
 11
552.0987863747
 21
528.3000068937
 31
0.0
  0
LINE
  5
135
330
1F
100
AcDbEntity
  8
LAY-10
  6
CONTINUOUS
 62
     7
100
AcDbLine
 10
550.4272134994999
 20
532.3000068936999
 30
0.0
 11
553.7556406242
 21
532.3000068936999
 31
0.0
  0
ARC
  5
136
330
1F
100
AcDbEntity
  8
LAY-10
  6
CONTINUOUS
 62
     7
100
AcDbCircle
 10
563.4272134995001
 20
530.3000068937001
 30
0.0
 40
2.0
100
AcDbArc
 50
270.0
 51
90.00000000000001
  0
LINE
  5
137
330
1F
100
AcDbEntity
  8
LAY-10
  6
CONTINUOUS
 62
     7
100
AcDbLine
 10
563.4272134995001
 20
528.3000068937
 30
0.0
 11
561.7556406241999
 21
528.3000068937
 31
0.0
  0
LINE
  5
138
330
1F
100
AcDbEntity
  8
LAY-10
  6
CONTINUOUS
 62
     7
100
AcDbLine
 10
563.4272134995001
 20
532.3000068936999
 30
0.0
 11
560.0987863747
 21
532.3000068936999
 31
0.0
  0
LINE
  5
139
330
1F
100
AcDbEntity
  8
LAY-10
  6
CONTINUOUS
 62
     7
100
AcDbLine
 10
554.0987863747
 20
526.3000068936999
 30
0.0
 11
552.0987863747
 21
528.3000068937
 31
0.0
  0
LINE
  5
13A
330
1F
100
AcDbEntity
  8
LAY-10
  6
CONTINUOUS
 62
     7
100
AcDbLine
 10
559.7556406242
 20
526.3000068936999
 30
0.0
 11
561.7556406241999
 21
528.3000068937
 31
0.0
  0
LINE
  5
13B
330
1F
100
AcDbEntity
  8
LAY-10
  6
CONTINUOUS
 62
     7
100
AcDbLine
 10
556.9272134995001
 20
529.1284340184998
 30
0.0
 11
560.0987863747
 21
532.3000068936999
 31
0.0
  0
LINE
  5
13C
330
1F
100
AcDbEntity
  8
LAY-10
  6
CONTINUOUS
 62
     7
100
AcDbLine
 10
556.9272134995001
 20
529.1284340184998
 30
0.0
 11
553.7556406242
 21
532.3000068936999
 31
0.0
  0
LINE
  5
13D
330
1F
100
AcDbEntity
  8
LAY-10
  6
CONTINUOUS
 62
     7
100
AcDbLine
 10
449.5272134995
 20
570.7999999904998
 30
0.0
 11
449.5272134995
 21
594.7999999904998
 31
0.0
  0
LINE
  5
13E
330
1F
100
AcDbEntity
  8
LAY-10
  6
CONTINUOUS
 62
     7
100
AcDbLine
 10
450.3272134995001
 20
570.7999999904998
 30
0.0
 11
450.3272134995001
 21
594.7999999904998
 31
0.0
  0
ARC
  5
13F
330
1F
100
AcDbEntity
  8
LAY-10
  6
CONTINUOUS
 62
     7
100
AcDbCircle
 10
449.9272134995001
 20
570.7999999904998
 30
0.0
 40
0.4
100
AcDbArc
 50
180.0
 51
0.0
  0
ARC
  5
140
330
1F
100
AcDbEntity
  8
LAY-10
  6
CONTINUOUS
 62
     7
100
AcDbCircle
 10
449.9272134995001
 20
594.7999999904998
 30
0.0
 40
0.4
100
AcDbArc
 50
0.0
 51
180.0
  0
LINE
  5
141
330
1F
100
AcDbEntity
  8
LAY-10
  6
CONTINUOUS
 62
     7
100
AcDbLine
 10
469.5272134995
 20
570.7999999904998
 30
0.0
 11
469.5272134995
 21
594.7999999904998
 31
0.0
  0
LINE
  5
142
330
1F
100
AcDbEntity
  8
LAY-10
  6
CONTINUOUS
 62
     7
100
AcDbLine
 10
470.3272134995
 20
570.7999999904998
 30
0.0
 11
470.3272134995
 21
594.7999999904998
 31
0.0
  0
ARC
  5
143
330
1F
100
AcDbEntity
  8
LAY-10
  6
CONTINUOUS
 62
     7
100
AcDbCircle
 10
469.9272134995
 20
570.7999999904998
 30
0.0
 40
0.4
100
AcDbArc
 50
180.0
 51
0.0
  0
ARC
  5
144
330
1F
100
AcDbEntity
  8
LAY-10
  6
CONTINUOUS
 62
     7
100
AcDbCircle
 10
469.9272134995
 20
594.7999999904998
 30
0.0
 40
0.4
100
AcDbArc
 50
0.0
 51
180.0
  0
LINE
  5
145
330
1F
100
AcDbEntity
  8
LAY-10
  6
CONTINUOUS
 62
     7
100
AcDbLine
 10
518.4272134995001
 20
570.8000218812999
 30
0.0
 11
518.4272134995001
 21
594.7999706146999
 31
0.0
  0
LINE
  5
146
330
1F
100
AcDbEntity
  8
LAY-10
  6
CONTINUOUS
 62
     7
100
AcDbLine
 10
533.4272134995001
 20
568.7999887981998
 30
0.0
 11
533.4272134995001
 21
596.7999953581998
 31
0.0
  0
LINE
  5
147
330
1F
100
AcDbEntity
  8
LAY-10
  6
CONTINUOUS
 62
     7
100
AcDbLine
 10
533.4272134995001
 20
594.5999953582
 30
0.0
 11
518.4272134995001
 21
582.7999887976999
 31
0.0
  0
LINE
  5
148
330
1F
100
AcDbEntity
  8
LAY-10
  6
CONTINUOUS
 62
     7
100
AcDbLine
 10
518.4272134995001
 20
582.7999887976999
 30
0.0
 11
533.4272134995001
 21
573.3540689715999
 31
0.0
  0
LINE
  5
149
330
1F
100
AcDbEntity
  8
LAY-10
  6
CONTINUOUS
 62
     7
100
AcDbLine
 10
533.4272134995001
 20
568.7999887981998
 30
0.0
 11
538.5840680875001
 21
568.7999887981998
 31
0.0
  0
LINE
  5
14A
330
1F
100
AcDbEntity
  8
LAY-10
  6
CONTINUOUS
 62
     7
100
AcDbLine
 10
533.4272134995001
 20
573.3540689715999
 30
0.0
 11
536.4272134995001
 21
573.3540689715999
 31
0.0
  0
LINE
  5
14B
330
1F
100
AcDbEntity
  8
LAY-10
  6
CONTINUOUS
 62
     7
100
AcDbLine
 10
533.4272134995001
 20
596.7999953581998
 30
0.0
 11
536.4272134995001
 21
596.7999891366999
 31
0.0
  0
LINE
  5
14C
330
1F
100
AcDbEntity
  8
LAY-10
  6
CONTINUOUS
 62
     7
100
AcDbLine
 10
533.4272134995001
 20
594.5999953582
 30
0.0
 11
536.4272134995001
 21
594.5999891367
 31
0.0
  0
LINE
  5
14D
330
1F
100
AcDbEntity
  8
LAY-10
  6
CONTINUOUS
 62
     7
100
AcDbLine
 10
541.3414270618
 20
566.8710569486
 30
0.0
 11
539.9982816498001
 21
568.2142023605998
 31
0.0
  0
ARC
  5
14E
330
1F
100
AcDbEntity
  8
LAY-10
  6
CONTINUOUS
 62
     7
100
AcDbCircle
 10
538.5840680875001
 20
566.7999887981998
 30
0.0
 40
2.0
100
AcDbArc
 50
44.99999999999769
 51
90.00000000000001
  0
ARC
  5
14F
330
1F
100
AcDbEntity
  8
LAY-10
  6
CONTINUOUS
 62
     7
100
AcDbCircle
 10
539.9272134994999
 20
565.4568433861998
 30
0.0
 40
2.0
100
AcDbArc
 50
0.0
 51
44.99999999999769
  0
LINE
  5
150
330
1F
100
AcDbEntity
  8
LAY-10
  6
CONTINUOUS
 62
     7
100
AcDbLine
 10
533.4272134995001
 20
468.8000249892
 30
0.0
 11
533.4272134995001
 21
440.8000184291999
 31
0.0
  0
LINE
  5
151
330
1F
100
AcDbEntity
  8
LAY-10
  6
CONTINUOUS
 62
     7
100
AcDbLine
 10
533.4272134995001
 20
443.0000184291999
 30
0.0
 11
518.4272134995001
 21
454.8000249897999
 31
0.0
  0
LINE
  5
152
330
1F
100
AcDbEntity
  8
LAY-10
  6
CONTINUOUS
 62
     7
100
AcDbLine
 10
518.4272134995001
 20
454.8000249897999
 30
0.0
 11
533.4272134995001
 21
464.2459448157999
 31
0.0
  0
LINE
  5
153
330
1F
100
AcDbEntity
  8
LAY-10
  6
CONTINUOUS
 62
     7
100
AcDbLine
 10
533.4272134995001
 20
468.8000249892
 30
0.0
 11
538.5840680875001
 21
468.8000249892
 31
0.0
  0
LINE
  5
154
330
1F
100
AcDbEntity
  8
LAY-10
  6
CONTINUOUS
 62
     7
100
AcDbLine
 10
533.4272134995001
 20
464.2459448157999
 30
0.0
 11
536.4272134995001
 21
464.2459448157999
 31
0.0
  0
LINE
  5
155
330
1F
100
AcDbEntity
  8
LAY-10
  6
CONTINUOUS
 62
     7
100
AcDbLine
 10
533.4272134995001
 20
440.8000184291999
 30
0.0
 11
536.4272134995001
 21
440.8000246506999
 31
0.0
  0
LINE
  5
156
330
1F
100
AcDbEntity
  8
LAY-10
  6
CONTINUOUS
 62
     7
100
AcDbLine
 10
533.4272134995001
 20
443.0000184291999
 30
0.0
 11
536.4272134995001
 21
443.0000246507
 31
0.0
  0
LINE
  5
157
330
1F
100
AcDbEntity
  8
LAY-10
  6
CONTINUOUS
 62
     7
100
AcDbLine
 10
541.3414270618
 20
470.7289568387999
 30
0.0
 11
539.9982816498001
 21
469.3858114268
 31
0.0
  0
ARC
  5
158
330
1F
100
AcDbEntity
  8
LAY-10
  6
CONTINUOUS
 62
     7
100
AcDbCircle
 10
538.5840680875001
 20
470.8000249891999
 30
0.0
 40
2.0
100
AcDbArc
 50
270.0
 51
314.9999999999989
  0
ARC
  5
159
330
1F
100
AcDbEntity
  8
LAY-10
  6
CONTINUOUS
 62
     7
100
AcDbCircle
 10
539.9272134994999
 20
472.1431704012001
 30
0.0
 40
2.0
100
AcDbArc
 50
315.0000000000047
 51
0.0
  0
LINE
  5
15A
330
1F
100
AcDbEntity
  8
LAY-10
  6
CONTINUOUS
 62
     7
100
AcDbLine
 10
567.7231262405999
 20
563.2999765749998
 30
0.0
 11
567.7231262405999
 21
474.3000372124
 31
0.0
  0
ARC
  5
15B
330
1F
100
AcDbEntity
  8
LAY-10
  6
CONTINUOUS
 62
     7
100
AcDbCircle
 10
545.9272134994999
 20
518.8000068936999
 30
0.0
 40
8.0
100
AcDbArc
 50
143.1301023541596
 51
216.8698976458008
  0
ARC
  5
15C
330
1F
100
AcDbEntity
  8
LAY-10
  6
CONTINUOUS
 62
     7
100
AcDbCircle
 10
545.9272134994999
 20
494.8000068937
 30
0.0
 40
8.0
100
AcDbArc
 50
143.1301023541599
 51
216.869897645802
  0
ARC
  5
15D
330
1F
100
AcDbEntity
  8
LAY-10
  6
CONTINUOUS
 62
     7
100
AcDbCircle
 10
545.9272134994999
 20
542.8000068936999
 30
0.0
 40
8.0
100
AcDbArc
 50
143.1301023541596
 51
216.8698976458008
  0
ARC
  5
15E
330
1F
100
AcDbEntity
  8
LAY-10
  6
CONTINUOUS
 62
     7
100
AcDbCircle
 10
529.9272134995
 20
506.8000068937
 30
0.0
 40
12.00000000000001
100
AcDbArc
 50
323.1301023542003
 51
36.86989764579971
  0
ARC
  5
15F
330
1F
100
AcDbEntity
  8
LAY-10
  6
CONTINUOUS
 62
     7
100
AcDbCircle
 10
529.9272134995
 20
482.8000068937
 30
0.0
 40
12.00000000000001
100
AcDbArc
 50
0.0
 51
36.86989764580068
  0
ARC
  5
160
330
1F
100
AcDbEntity
  8
LAY-10
  6
CONTINUOUS
 62
     7
100
AcDbCircle
 10
529.9272134995
 20
530.8000068936999
 30
0.0
 40
12.00000000000001
100
AcDbArc
 50
323.1301023542006
 51
36.86989764579994
  0
ARC
  5
161
330
1F
100
AcDbEntity
  8
LAY-10
  6
CONTINUOUS
 62
     7
100
AcDbCircle
 10
529.9272134995
 20
554.8000068936999
 30
0.0
 40
12.00000000000001
100
AcDbArc
 50
323.1301023542006
 51
0.0
  0
ARC
  5
162
330
1F
100
AcDbEntity
  8
LAY-10
  6
CONTINUOUS
 62
     7
100
AcDbCircle
 10
545.9272134994999
 20
494.8000068937
 30
0.0
 40
3.45
100
AcDbArc
 50
143.1301023541629
 51
216.8698976457995
  0
ARC
  5
163
330
1F
100
AcDbEntity
  8
LAY-10
  6
CONTINUOUS
 62
     7
100
AcDbCircle
 10
545.9272134994999
 20
518.8000068936999
 30
0.0
 40
3.45
100
AcDbArc
 50
143.1301023541606
 51
216.8698976457976
  0
ARC
  5
164
330
1F
100
AcDbEntity
  8
LAY-10
  6
CONTINUOUS
 62
     7
100
AcDbCircle
 10
545.9272134994999
 20
542.8000068936999
 30
0.0
 40
3.45
100
AcDbArc
 50
143.1301023541606
 51
216.8698976457976
  0
ARC
  5
165
330
1F
100
AcDbEntity
  8
LAY-10
  6
CONTINUOUS
 62
     7
100
AcDbCircle
 10
529.9272134995
 20
482.8000068937
 30
0.0
 40
16.55
100
AcDbArc
 50
0.0
 51
36.86989764580017
  0
ARC
  5
166
330
1F
100
AcDbEntity
  8
LAY-10
  6
CONTINUOUS
 62
     7
100
AcDbCircle
 10
529.9272134995
 20
506.8000068937
 30
0.0
 40
16.55
100
AcDbArc
 50
323.1301023542003
 51
36.86989764580074
  0
ARC
  5
167
330
1F
100
AcDbEntity
  8
LAY-10
  6
CONTINUOUS
 62
     7
100
AcDbCircle
 10
529.9272134995
 20
530.8000068936999
 30
0.0
 40
16.55
100
AcDbArc
 50
323.1301023542006
 51
36.86989764580057
  0
ARC
  5
168
330
1F
100
AcDbEntity
  8
LAY-10
  6
CONTINUOUS
 62
     7
100
AcDbCircle
 10
529.9272134995
 20
554.8000068936999
 30
0.0
 40
16.55
100
AcDbArc
 50
323.1301023542006
 51
0.0
  0
LINE
  5
169
330
1F
100
AcDbEntity
  8
LAY-10
  6
CONTINUOUS
 62
     7
100
AcDbLine
 10
543.1672134995001
 20
544.8700068937
 30
0.0
 11
539.5272134995
 21
547.6000068937001
 31
0.0
  0
LINE
  5
16A
330
1F
100
AcDbEntity
  8
LAY-10
  6
CONTINUOUS
 62
     7
100
AcDbLine
 10
539.5272134995
 20
538.0000068937
 30
0.0
 11
543.1672134995001
 21
540.7300068937
 31
0.0
  0
LINE
  5
16B
330
1F
100
AcDbEntity
  8
LAY-10
  6
CONTINUOUS
 62
     7
100
AcDbLine
 10
539.5272134995
 20
523.6000068937001
 30
0.0
 11
543.1672134995001
 21
520.8700068937
 31
0.0
  0
LINE
  5
16C
330
1F
100
AcDbEntity
  8
LAY-10
  6
CONTINUOUS
 62
     7
100
AcDbLine
 10
539.5272134995
 20
514.0000068937
 30
0.0
 11
543.1672134995001
 21
516.7300068937
 31
0.0
  0
LINE
  5
16D
330
1F
100
AcDbEntity
  8
LAY-10
  6
CONTINUOUS
 62
     7
100
AcDbLine
 10
539.5272134995
 20
499.6000068937
 30
0.0
 11
543.1672134995001
 21
496.8700068937
 31
0.0
  0
LINE
  5
16E
330
1F
100
AcDbEntity
  8
LAY-10
  6
CONTINUOUS
 62
     7
100
AcDbLine
 10
543.1672134995001
 20
492.7300068937
 30
0.0
 11
539.5272134995
 21
490.0000068936999
 31
0.0
  0
LINE
  5
16F
330
1F
100
AcDbEntity
  8
LAY-10
  6
CONTINUOUS
 62
     7
100
AcDbLine
 10
541.9272134995001
 20
554.8000068936999
 30
0.0
 11
541.9272134995001
 21
565.4568433861998
 31
0.0
  0
LINE
  5
170
330
1F
100
AcDbEntity
  8
LAY-10
  6
CONTINUOUS
 62
     7
100
AcDbLine
 10
546.4772134995001
 20
554.8000068936999
 30
0.0
 11
546.4772134995001
 21
563.2999851027998
 31
0.0
  0
LINE
  5
171
330
1F
100
AcDbEntity
  8
LAY-10
  6
CONTINUOUS
 62
     7
100
AcDbLine
 10
541.9272134995001
 20
482.8000068937
 30
0.0
 11
541.9272134995001
 21
472.1431704012001
 31
0.0
  0
LINE
  5
172
330
1F
100
AcDbEntity
  8
LAY-10
  6
CONTINUOUS
 62
     7
100
AcDbLine
 10
546.4772134995001
 20
482.8000068937
 30
0.0
 11
546.4772134995001
 21
474.3000286846
 31
0.0
  0
ARC
  5
173
330
1F
100
AcDbEntity
  8
LAY-10
  6
CONTINUOUS
 62
     7
100
AcDbCircle
 10
550.4272134994999
 20
552.3000068937
 30
0.0
 40
2.0
100
AcDbArc
 50
90.00000000000001
 51
270.0
  0
LINE
  5
174
330
1F
100
AcDbEntity
  8
LAY-10
  6
CONTINUOUS
 62
     7
100
AcDbLine
 10
550.4272134994999
 20
554.3000068937001
 30
0.0
 11
552.0987863747
 21
554.3000068937001
 31
0.0
  0
LINE
  5
175
330
1F
100
AcDbEntity
  8
LAY-10
  6
CONTINUOUS
 62
     7
100
AcDbLine
 10
550.4272134994999
 20
550.3000068936999
 30
0.0
 11
553.7556406242
 21
550.3000068936999
 31
0.0
  0
ARC
  5
176
330
1F
100
AcDbEntity
  8
LAY-10
  6
CONTINUOUS
 62
     7
100
AcDbCircle
 10
563.4272134995001
 20
552.3000068937
 30
0.0
 40
2.0
100
AcDbArc
 50
270.0
 51
90.00000000000001
  0
LINE
  5
177
330
1F
100
AcDbEntity
  8
LAY-10
  6
CONTINUOUS
 62
     7
100
AcDbLine
 10
563.4272134995001
 20
554.3000068937001
 30
0.0
 11
561.7556406241999
 21
554.3000068937001
 31
0.0
  0
LINE
  5
178
330
1F
100
AcDbEntity
  8
LAY-10
  6
CONTINUOUS
 62
     7
100
AcDbLine
 10
563.4272134995001
 20
550.3000068936999
 30
0.0
 11
560.0987863747
 21
550.3000068936999
 31
0.0
  0
LINE
  5
179
330
1F
100
AcDbEntity
  8
LAY-10
  6
CONTINUOUS
 62
     7
100
AcDbLine
 10
554.0987863747
 20
556.3000068936999
 30
0.0
 11
552.0987863747
 21
554.3000068937001
 31
0.0
  0
LINE
  5
17A
330
1F
100
AcDbEntity
  8
LAY-10
  6
CONTINUOUS
 62
     7
100
AcDbLine
 10
559.7556406242
 20
556.3000068936999
 30
0.0
 11
561.7556406241999
 21
554.3000068937001
 31
0.0
  0
LINE
  5
17B
330
1F
100
AcDbEntity
  8
LAY-10
  6
CONTINUOUS
 62
     7
100
AcDbLine
 10
556.9272134995001
 20
553.4715797690001
 30
0.0
 11
560.0987863747
 21
550.3000068936999
 31
0.0
  0
LINE
  5
17C
330
1F
100
AcDbEntity
  8
LAY-10
  6
CONTINUOUS
 62
     7
100
AcDbLine
 10
556.9272134995001
 20
553.4715797690001
 30
0.0
 11
553.7556406242
 21
550.3000068936999
 31
0.0
  0
ARC
  5
17D
330
1F
100
AcDbEntity
  8
LAY-10
  6
CONTINUOUS
 62
     7
100
AcDbCircle
 10
550.4272134994999
 20
560.3000068936999
 30
0.0
 40
2.0
100
AcDbArc
 50
90.00000000000001
 51
270.0
  0
LINE
  5
17E
330
1F
100
AcDbEntity
  8
LAY-10
  6
CONTINUOUS
 62
     7
100
AcDbLine
 10
550.4272134994999
 20
558.3000068937
 30
0.0
 11
552.0987863747
 21
558.3000068937
 31
0.0
  0
LINE
  5
17F
330
1F
100
AcDbEntity
  8
LAY-10
  6
CONTINUOUS
 62
     7
100
AcDbLine
 10
550.4272134994999
 20
562.3000068936999
 30
0.0
 11
553.7556406242
 21
562.3000068936999
 31
0.0
  0
ARC
  5
180
330
1F
100
AcDbEntity
  8
LAY-10
  6
CONTINUOUS
 62
     7
100
AcDbCircle
 10
563.4272134995001
 20
560.3000068936999
 30
0.0
 40
2.0
100
AcDbArc
 50
270.0
 51
90.00000000000001
  0
LINE
  5
181
330
1F
100
AcDbEntity
  8
LAY-10
  6
CONTINUOUS
 62
     7
100
AcDbLine
 10
563.4272134995001
 20
558.3000068937
 30
0.0
 11
561.7556406241999
 21
558.3000068937
 31
0.0
  0
LINE
  5
182
330
1F
100
AcDbEntity
  8
LAY-10
  6
CONTINUOUS
 62
     7
100
AcDbLine
 10
563.4272134995001
 20
562.3000068936999
 30
0.0
 11
560.0987863747
 21
562.3000068936999
 31
0.0
  0
LINE
  5
183
330
1F
100
AcDbEntity
  8
LAY-10
  6
CONTINUOUS
 62
     7
100
AcDbLine
 10
554.0987863747
 20
556.3000068936999
 30
0.0
 11
552.0987863747
 21
558.3000068937
 31
0.0
  0
LINE
  5
184
330
1F
100
AcDbEntity
  8
LAY-10
  6
CONTINUOUS
 62
     7
100
AcDbLine
 10
559.7556406242
 20
556.3000068936999
 30
0.0
 11
561.7556406241999
 21
558.3000068937
 31
0.0
  0
LINE
  5
185
330
1F
100
AcDbEntity
  8
LAY-10
  6
CONTINUOUS
 62
     7
100
AcDbLine
 10
556.9272134995001
 20
559.1284340184998
 30
0.0
 11
560.0987863747
 21
562.3000068936999
 31
0.0
  0
LINE
  5
186
330
1F
100
AcDbEntity
  8
LAY-10
  6
CONTINUOUS
 62
     7
100
AcDbLine
 10
556.9272134995001
 20
559.1284340184998
 30
0.0
 11
553.7556406242
 21
562.3000068936999
 31
0.0
  0
LINE
  5
187
330
1F
100
AcDbEntity
  8
LAY-10
  6
CONTINUOUS
 62
     7
100
AcDbLine
 10
569.9272134994999
 20
563.2999756902998
 30
0.0
 11
569.9272134994999
 21
581.7999817110999
 31
0.0
  0
LINE
  5
188
330
1F
100
AcDbEntity
  8
LAY-10
  6
CONTINUOUS
 62
     7
100
AcDbLine
 10
567.7231262405999
 20
563.2999765749998
 30
0.0
 11
567.7231262405999
 21
581.7999817127998
 31
0.0
  0
ARC
  5
189
330
1F
100
AcDbEntity
  8
LAY-10
  6
CONTINUOUS
 62
     7
100
AcDbCircle
 10
554.9272134994999
 20
581.7999817110999
 30
0.0
 40
15.00000000000001
100
AcDbArc
 50
0.0
 51
89.99997700229963
  0
ARC
  5
18A
330
1F
100
AcDbEntity
  8
LAY-10
  6
CONTINUOUS
 62
     7
100
AcDbCircle
 10
554.9231262405999
 20
581.7999817127998
 30
0.0
 40
12.8
100
AcDbArc
 50
0.0
 51
89.99997700229963
  0
LINE
  5
18B
330
1F
100
AcDbEntity
  8
LAY-10
  6
CONTINUOUS
 62
     7
100
AcDbLine
 10
536.4272134995001
 20
594.5999891367
 30
0.0
 11
554.9231313783
 21
594.5999817128
 31
0.0
  0
LINE
  5
18C
330
1F
100
AcDbEntity
  8
LAY-10
  6
CONTINUOUS
 62
     7
100
AcDbLine
 10
536.4272134995001
 20
596.7999891366999
 30
0.0
 11
554.9272195202
 21
596.7999817110999
 31
0.0
  0
LINE
  5
18D
330
1F
100
AcDbEntity
  8
LAY-10
  6
CONTINUOUS
 62
     7
100
AcDbLine
 10
554.4272066130001
 20
581.2999819117999
 30
0.0
 11
567.7231262405999
 21
581.2999765749998
 31
0.0
  0
LINE
  5
18E
330
1F
100
AcDbEntity
  8
LAY-10
  6
CONTINUOUS
 62
     7
100
AcDbLine
 10
557.4272054089001
 20
584.2999807076999
 30
0.0
 11
567.4766128158
 21
584.2999766739999
 31
0.0
  0
LINE
  5
18F
330
1F
100
AcDbEntity
  8
LAY-10
  6
CONTINUOUS
 62
     7
100
AcDbLine
 10
560.4272042047
 20
587.2999795035
 30
0.0
 11
566.4812424812
 21
587.2999770734999
 31
0.0
  0
LINE
  5
190
330
1F
100
AcDbEntity
  8
LAY-10
  6
CONTINUOUS
 62
     7
100
AcDbLine
 10
563.4272030006
 20
590.2999782994
 30
0.0
 11
564.4933961063
 21
590.2999778714
 31
0.0
  0
LINE
  5
191
330
1F
100
AcDbEntity
  8
LAY-10
  6
CONTINUOUS
 62
     7
100
AcDbLine
 10
554.4272134995001
 20
581.2999887981999
 30
0.0
 11
554.4272134995001
 21
594.5999819117999
 31
0.0
  0
LINE
  5
192
330
1F
100
AcDbEntity
  8
LAY-10
  6
CONTINUOUS
 62
     7
100
AcDbLine
 10
557.4272134995001
 20
584.2999887981999
 30
0.0
 11
557.4272134995001
 21
594.3526526237998
 31
0.0
  0
LINE
  5
193
330
1F
100
AcDbEntity
  8
LAY-10
  6
CONTINUOUS
 62
     7
100
AcDbLine
 10
560.4272134995001
 20
587.2999887981999
 30
0.0
 11
560.4272134995001
 21
593.3561499118998
 31
0.0
  0
LINE
  5
194
330
1F
100
AcDbEntity
  8
LAY-10
  6
CONTINUOUS
 62
     7
100
AcDbLine
 10
563.4272134995001
 20
590.2999887981999
 30
0.0
 11
563.4272134995001
 21
591.3666164341998
 31
0.0
  0
LINE
  5
195
330
1F
100
AcDbEntity
  8
LAY-10
  6
CONTINUOUS
 62
     7
100
AcDbLine
 10
548.4272090213001
 20
575.2999843201
 30
0.0
 11
563.4272030006
 21
590.2999782994
 31
0.0
  0
LINE
  5
196
330
1F
100
AcDbEntity
  8
LAY-10
  6
CONTINUOUS
 62
     7
100
AcDbLine
 10
544.5587629162001
 20
570.0883928029999
 30
0.0
 11
543.2115373308001
 21
571.4356183883999
 31
0.0
  0
LINE
  5
197
330
1F
100
AcDbEntity
  8
LAY-10
  6
CONTINUOUS
 62
     7
100
AcDbLine
 10
536.4272134995001
 20
573.3540689715999
 30
0.0
 11
538.5799879141
 21
573.3540689715999
 31
0.0
  0
LINE
  5
198
330
1F
100
AcDbEntity
  8
LAY-10
  6
CONTINUOUS
 62
     7
100
AcDbLine
 10
546.4772134995001
 20
563.2999851027998
 30
0.0
 11
546.4772134995001
 21
565.4568433861998
 31
0.0
  0
ARC
  5
199
330
1F
100
AcDbEntity
  8
LAY-10
  6
CONTINUOUS
 62
     7
100
AcDbCircle
 10
538.5799879141
 20
566.8040689716
 30
0.0
 40
6.550000000000001
100
AcDbArc
 50
44.9999999999993
 51
90.00000000000001
  0
ARC
  5
19A
330
1F
100
AcDbEntity
  8
LAY-10
  6
CONTINUOUS
 62
     7
100
AcDbCircle
 10
539.9272134994999
 20
565.4568433861998
 30
0.0
 40
6.550000000000001
100
AcDbArc
 50
0.0
 51
45.00000000000073
  0
LINE
  5
19B
330
1F
100
AcDbEntity
  8
LAY-10
  6
CONTINUOUS
 62
     7
100
AcDbLine
 10
548.4272134995001
 20
566.2999843201
 30
0.0
 11
567.7231262405999
 21
566.2999765749998
 31
0.0
  0
LINE
  5
19C
330
1F
100
AcDbEntity
  8
LAY-10
  6
CONTINUOUS
 62
     7
100
AcDbLine
 10
551.4272078172
 20
578.2999831159998
 30
0.0
 11
567.7231262405999
 21
578.2999765749998
 31
0.0
  0
LINE
  5
19D
330
1F
100
AcDbEntity
  8
LAY-10
  6
CONTINUOUS
 62
     7
100
AcDbLine
 10
539.427205988
 20
579.4729451688
 30
0.0
 11
539.427205988
 21
582.8013722934999
 31
0.0
  0
LINE
  5
19E
330
1F
100
AcDbEntity
  8
LAY-10
  6
CONTINUOUS
 62
     7
100
AcDbLine
 10
551.427205988
 20
578.2999812867998
 30
0.0
 11
551.427205988
 21
582.8013722934999
 31
0.0
  0
LINE
  5
19F
330
1F
100
AcDbEntity
  8
LAY-10
  6
CONTINUOUS
 62
     7
100
AcDbLine
 10
551.427205988
 20
592.4729451687999
 30
0.0
 11
551.427205988
 21
589.1445180441
 31
0.0
  0
LINE
  5
1A0
330
1F
100
AcDbEntity
  8
LAY-10
  6
CONTINUOUS
 62
     7
100
AcDbLine
 10
539.4272134995001
 20
575.2999879326
 30
0.0
 11
539.4272134995001
 21
579.4674637605999
 31
0.0
  0
LINE
  5
1A1
330
1F
100
AcDbEntity
  8
LAY-10
  6
CONTINUOUS
 62
     7
100
AcDbLine
 10
539.4272134995001
 20
582.8013798049999
 30
0.0
 11
539.4272134995001
 21
594.5999879326
 31
0.0
  0
LINE
  5
1A2
330
1F
100
AcDbEntity
  8
LAY-10
  6
CONTINUOUS
 62
     7
100
AcDbLine
 10
551.4272134995001
 20
592.4729451687999
 30
0.0
 11
551.4272134995001
 21
594.599983116
 31
0.0
  0
LINE
  5
1A3
330
1F
100
AcDbEntity
  8
LAY-10
  6
CONTINUOUS
 62
     7
100
AcDbLine
 10
551.4272134995001
 20
582.8013647820999
 30
0.0
 11
551.4272134995001
 21
589.1445255555
 31
0.0
  0
LINE
  5
1A4
330
1F
100
AcDbEntity
  8
LAY-10
  6
CONTINUOUS
 62
     7
100
AcDbLine
 10
545.0172134995
 20
563.2999856887998
 30
0.0
 11
569.9272114925
 21
563.2999756902998
 31
0.0
  0
LINE
  5
1A5
330
1F
100
AcDbEntity
  8
LAY-10
  6
CONTINUOUS
 62
     7
100
AcDbLine
 10
536.4272134995001
 20
571.8940689715998
 30
0.0
 11
536.4272134995001
 21
596.7999891366999
 31
0.0
  0
LINE
  5
1A6
330
1F
100
AcDbEntity
  8
LAY-10
  6
CONTINUOUS
 62
     7
100
AcDbLine
 10
543.5263870157
 20
569.0560169024998
 30
0.0
 11
542.1791614302999
 21
570.4032424879
 31
0.0
  0
LINE
  5
1A7
330
1F
100
AcDbEntity
  8
LAY-10
  6
CONTINUOUS
 62
     7
100
AcDbLine
 10
536.4272134995001
 20
571.8940689715998
 30
0.0
 11
538.5799879141
 21
571.8940689715998
 31
0.0
  0
LINE
  5
1A8
330
1F
100
AcDbEntity
  8
LAY-10
  6
CONTINUOUS
 62
     7
100
AcDbLine
 10
545.0172134995
 20
563.2999856887998
 30
0.0
 11
545.0172134995
 21
565.4568433861998
 31
0.0
  0
ARC
  5
1A9
330
1F
100
AcDbEntity
  8
LAY-10
  6
CONTINUOUS
 62
     7
100
AcDbCircle
 10
539.9272134994999
 20
565.4568433861998
 30
0.0
 40
5.090000000000004
100
AcDbArc
 50
0.0
 51
44.99999999999821
  0
ARC
  5
1AA
330
1F
100
AcDbEntity
  8
LAY-10
  6
CONTINUOUS
 62
     7
100
AcDbCircle
 10
538.5799879141
 20
566.8040689716
 30
0.0
 40
5.090000000000004
100
AcDbArc
 50
44.99999999999912
 51
90.00000000000001
  0
LINE
  5
1AB
330
1F
100
AcDbEntity
  8
LAY-10
  6
CONTINUOUS
 62
     7
100
AcDbLine
 10
557.7985341957001
 20
569.2999778493
 30
0.0
 11
559.5558935085999
 21
569.2999771438999
 31
0.0
  0
LINE
  5
1AC
330
1F
100
AcDbEntity
  8
LAY-10
  6
CONTINUOUS
 62
     7
100
AcDbLine
 10
557.7985334903001
 20
575.2999778493
 30
0.0
 11
559.5558928032001
 21
575.2999771438999
 31
0.0
  0
ARC
  5
1AD
330
1F
100
AcDbEntity
  8
LAY-10
  6
CONTINUOUS
 62
     7
100
AcDbCircle
 10
553.4272134994999
 20
575.2999774965999
 30
0.0
 40
1.5
100
AcDbArc
 50
90.00000000000001
 51
270.0
  0
ARC
  5
1AE
330
1F
100
AcDbEntity
  8
LAY-10
  6
CONTINUOUS
 62
     7
100
AcDbCircle
 10
563.9272134994999
 20
575.2999774965999
 30
0.0
 40
1.5
100
AcDbArc
 50
270.0
 51
90.00000000000001
  0
LINE
  5
1AF
330
1F
100
AcDbEntity
  8
LAY-10
  6
CONTINUOUS
 62
     7
100
AcDbLine
 10
556.5558931559001
 20
572.2999774965999
 30
0.0
 11
555.0558931559001
 21
573.7999774965999
 31
0.0
  0
LINE
  5
1B0
330
1F
100
AcDbEntity
  8
LAY-10
  6
CONTINUOUS
 62
     7
100
AcDbLine
 10
558.6772134994999
 20
574.4212978400999
 30
0.0
 11
556.7378736712001
 21
576.3606376683999
 31
0.0
  0
LINE
  5
1B1
330
1F
100
AcDbEntity
  8
LAY-10
  6
CONTINUOUS
 62
     7
100
AcDbLine
 10
560.7985338429999
 20
572.2999774965999
 30
0.0
 11
562.2985338429999
 21
573.7999774965999
 31
0.0
  0
LINE
  5
1B2
330
1F
100
AcDbEntity
  8
LAY-10
  6
CONTINUOUS
 62
     7
100
AcDbLine
 10
558.6772134994999
 20
574.4212978400999
 30
0.0
 11
560.6165533277001
 21
576.3606376683999
 31
0.0
  0
LINE
  5
1B3
330
1F
100
AcDbEntity
  8
LAY-10
  6
CONTINUOUS
 62
     7
100
AcDbLine
 10
553.4272134994999
 20
576.7999774965999
 30
0.0
 11
555.6772134994999
 21
576.7999774965999
 31
0.0
  0
LINE
  5
1B4
330
1F
100
AcDbEntity
  8
LAY-10
  6
CONTINUOUS
 62
     7
100
AcDbLine
 10
561.6772134994001
 20
576.7999774965999
 30
0.0
 11
563.9272134994999
 21
576.7999774965999
 31
0.0
  0
LINE
  5
1B5
330
1F
100
AcDbEntity
  8
LAY-10
  6
CONTINUOUS
 62
     7
100
AcDbLine
 10
553.4272134994999
 20
573.7999774965999
 30
0.0
 11
555.0558931559001
 21
573.7999774965999
 31
0.0
  0
LINE
  5
1B6
330
1F
100
AcDbEntity
  8
LAY-10
  6
CONTINUOUS
 62
     7
100
AcDbLine
 10
562.2985338429999
 20
573.7999774965999
 30
0.0
 11
563.9272134994999
 21
573.7999774965999
 31
0.0
  0
ARC
  5
1B7
330
1F
100
AcDbEntity
  8
LAY-10
  6
CONTINUOUS
 62
     7
100
AcDbCircle
 10
553.4272134994999
 20
569.2999774965999
 30
0.0
 40
1.5
100
AcDbArc
 50
90.00000000000001
 51
270.0
  0
ARC
  5
1B8
330
1F
100
AcDbEntity
  8
LAY-10
  6
CONTINUOUS
 62
     7
100
AcDbCircle
 10
563.9272134994999
 20
569.2999774965999
 30
0.0
 40
1.5
100
AcDbArc
 50
270.0
 51
90.00000000000001
  0
LINE
  5
1B9
330
1F
100
AcDbEntity
  8
LAY-10
  6
CONTINUOUS
 62
     7
100
AcDbLine
 10
556.5558931559001
 20
572.2999774965999
 30
0.0
 11
555.0558931559001
 21
570.7999774965999
 31
0.0
  0
LINE
  5
1BA
330
1F
100
AcDbEntity
  8
LAY-10
  6
CONTINUOUS
 62
     7
100
AcDbLine
 10
558.6772134994999
 20
570.1786571529999
 30
0.0
 11
556.7378736712001
 21
568.2393173248
 31
0.0
  0
LINE
  5
1BB
330
1F
100
AcDbEntity
  8
LAY-10
  6
CONTINUOUS
 62
     7
100
AcDbLine
 10
560.7985338429999
 20
572.2999774965999
 30
0.0
 11
562.2985338429999
 21
570.7999774965999
 31
0.0
  0
LINE
  5
1BC
330
1F
100
AcDbEntity
  8
LAY-10
  6
CONTINUOUS
 62
     7
100
AcDbLine
 10
558.6772134994999
 20
570.1786571529999
 30
0.0
 11
560.6165533277001
 21
568.2393173248
 31
0.0
  0
LINE
  5
1BD
330
1F
100
AcDbEntity
  8
LAY-10
  6
CONTINUOUS
 62
     7
100
AcDbLine
 10
553.4272134994999
 20
567.7999774965999
 30
0.0
 11
555.6772134994999
 21
567.7999774965999
 31
0.0
  0
LINE
  5
1BE
330
1F
100
AcDbEntity
  8
LAY-10
  6
CONTINUOUS
 62
     7
100
AcDbLine
 10
553.4272134994999
 20
570.7999774965999
 30
0.0
 11
555.0558931559001
 21
570.7999774965999
 31
0.0
  0
LINE
  5
1BF
330
1F
100
AcDbEntity
  8
LAY-10
  6
CONTINUOUS
 62
     7
100
AcDbLine
 10
562.2985338429999
 20
570.7999774965999
 30
0.0
 11
563.9272134994999
 21
570.7999774965999
 31
0.0
  0
LINE
  5
1C0
330
1F
100
AcDbEntity
  8
LAY-10
  6
CONTINUOUS
 62
     7
100
AcDbLine
 10
561.6772134994001
 20
567.7999774965999
 30
0.0
 11
563.9272134994999
 21
567.7999774965999
 31
0.0
  0
ARC
  5
1C1
330
1F
100
AcDbEntity
  8
LAY-10
  6
CONTINUOUS
 62
     7
100
AcDbCircle
 10
555.6772134994999
 20
569.2999774965999
 30
0.0
 40
1.5
100
AcDbArc
 50
270.0
 51
315.0000000000031
  0
ARC
  5
1C2
330
1F
100
AcDbEntity
  8
LAY-10
  6
CONTINUOUS
 62
     7
100
AcDbCircle
 10
561.6772134994001
 20
569.2999774965999
 30
0.0
 40
1.5
100
AcDbArc
 50
224.999999999997
 51
270.0
  0
ARC
  5
1C3
330
1F
100
AcDbEntity
  8
LAY-10
  6
CONTINUOUS
 62
     7
100
AcDbCircle
 10
561.6772134994001
 20
575.2999774965999
 30
0.0
 40
1.5
100
AcDbArc
 50
90.00000000000001
 51
135.0000000000338
  0
ARC
  5
1C4
330
1F
100
AcDbEntity
  8
LAY-10
  6
CONTINUOUS
 62
     7
100
AcDbCircle
 10
555.6772134994999
 20
575.2999774965999
 30
0.0
 40
1.5
100
AcDbArc
 50
44.99999999999998
 51
90.00000000000001
  0
LINE
  5
1C5
330
1F
100
AcDbEntity
  8
LAY-10
  6
CONTINUOUS
 62
     7
100
AcDbLine
 10
539.4272134995001
 20
575.2999879326
 30
0.0
 11
551.9272134994999
 21
575.2999828031999
 31
0.0
  0
LINE
  5
1C6
330
1F
100
AcDbEntity
  8
LAY-10
  6
CONTINUOUS
 62
     7
100
AcDbLine
 10
548.4272134995001
 20
572.2999843201
 30
0.0
 11
556.5558967167001
 21
572.2999810573999
 31
0.0
  0
LINE
  5
1C7
330
1F
100
AcDbEntity
  8
LAY-10
  6
CONTINUOUS
 62
     7
100
AcDbLine
 10
560.7985318598
 20
572.2999794797998
 30
0.0
 11
567.7231262405999
 21
572.2999765749998
 31
0.0
  0
LINE
  5
1C8
330
1F
100
AcDbEntity
  8
LAY-10
  6
CONTINUOUS
 62
     7
100
AcDbLine
 10
548.4272134995001
 20
569.2999843201
 30
0.0
 11
551.9272134994999
 21
569.2999827549999
 31
0.0
  0
LINE
  5
1C9
330
1F
100
AcDbEntity
  8
LAY-10
  6
CONTINUOUS
 62
     7
100
AcDbLine
 10
565.4272134994999
 20
569.2999774965999
 30
0.0
 11
567.7231262405999
 21
569.2999765749998
 31
0.0
  0
LINE
  5
1CA
330
1F
100
AcDbEntity
  8
LAY-10
  6
CONTINUOUS
 62
     7
100
AcDbLine
 10
565.4272134994999
 20
575.2999774965999
 30
0.0
 11
567.7231262405999
 21
575.2999765749998
 31
0.0
  0
LINE
  5
1CB
330
1F
100
AcDbEntity
  8
LAY-10
  6
CONTINUOUS
 62
     7
100
AcDbLine
 10
542.4272025505
 20
584.6713094945
 30
0.0
 11
542.4272018451001
 21
586.4286688073998
 31
0.0
  0
LINE
  5
1CC
330
1F
100
AcDbEntity
  8
LAY-10
  6
CONTINUOUS
 62
     7
100
AcDbLine
 10
548.4272025505
 20
584.6713087890998
 30
0.0
 11
548.4272018451001
 21
586.428668102
 31
0.0
  0
ARC
  5
1CD
330
1F
100
AcDbEntity
  8
LAY-10
  6
CONTINUOUS
 62
     7
100
AcDbCircle
 10
548.4272021977999
 20
580.2999887981998
 30
0.0
 40
1.5
100
AcDbArc
 50
180.0
 51
0.0
  0
ARC
  5
1CE
330
1F
100
AcDbEntity
  8
LAY-10
  6
CONTINUOUS
 62
     7
100
AcDbCircle
 10
548.4272021977999
 20
590.7999887981998
 30
0.0
 40
1.5
100
AcDbArc
 50
0.0
 51
180.0
  0
LINE
  5
1CF
330
1F
100
AcDbEntity
  8
LAY-10
  6
CONTINUOUS
 62
     7
100
AcDbLine
 10
545.4272021977999
 20
583.4286684546998
 30
0.0
 11
546.9272021977999
 21
581.9286684546998
 31
0.0
  0
LINE
  5
1D0
330
1F
100
AcDbEntity
  8
LAY-10
  6
CONTINUOUS
 62
     7
100
AcDbLine
 10
547.5485225414
 20
585.5499887981998
 30
0.0
 11
549.4878623696001
 21
583.6106489699999
 31
0.0
  0
LINE
  5
1D1
330
1F
100
AcDbEntity
  8
LAY-10
  6
CONTINUOUS
 62
     7
100
AcDbLine
 10
545.4272021977999
 20
587.6713091417998
 30
0.0
 11
546.9272021977999
 21
589.1713091417998
 31
0.0
  0
LINE
  5
1D2
330
1F
100
AcDbEntity
  8
LAY-10
  6
CONTINUOUS
 62
     7
100
AcDbLine
 10
547.5485225414
 20
585.5499887981998
 30
0.0
 11
549.4878623696001
 21
587.4893286263998
 31
0.0
  0
LINE
  5
1D3
330
1F
100
AcDbEntity
  8
LAY-10
  6
CONTINUOUS
 62
     7
100
AcDbLine
 10
549.9272021977999
 20
580.2999887981998
 30
0.0
 11
549.9272021977999
 21
582.5499887981998
 31
0.0
  0
LINE
  5
1D4
330
1F
100
AcDbEntity
  8
LAY-10
  6
CONTINUOUS
 62
     7
100
AcDbLine
 10
549.9272021977999
 20
588.5499887981998
 30
0.0
 11
549.9272021977999
 21
590.7999887981998
 31
0.0
  0
LINE
  5
1D5
330
1F
100
AcDbEntity
  8
LAY-10
  6
CONTINUOUS
 62
     7
100
AcDbLine
 10
546.9272021977999
 20
580.2999887981998
 30
0.0
 11
546.9272021977999
 21
581.9286684546998
 31
0.0
  0
LINE
  5
1D6
330
1F
100
AcDbEntity
  8
LAY-10
  6
CONTINUOUS
 62
     7
100
AcDbLine
 10
546.9272021977999
 20
589.1713091417998
 30
0.0
 11
546.9272021977999
 21
590.7999887981998
 31
0.0
  0
ARC
  5
1D7
330
1F
100
AcDbEntity
  8
LAY-10
  6
CONTINUOUS
 62
     7
100
AcDbCircle
 10
542.4272021977999
 20
580.2999887981998
 30
0.0
 40
1.5
100
AcDbArc
 50
180.0
 51
0.0
  0
ARC
  5
1D8
330
1F
100
AcDbEntity
  8
LAY-10
  6
CONTINUOUS
 62
     7
100
AcDbCircle
 10
542.4272021977999
 20
590.7999887981998
 30
0.0
 40
1.5
100
AcDbArc
 50
0.0
 51
180.0
  0
LINE
  5
1D9
330
1F
100
AcDbEntity
  8
LAY-10
  6
CONTINUOUS
 62
     7
100
AcDbLine
 10
545.4272021977999
 20
583.4286684546998
 30
0.0
 11
543.9272021977999
 21
581.9286684546998
 31
0.0
  0
LINE
  5
1DA
330
1F
100
AcDbEntity
  8
LAY-10
  6
CONTINUOUS
 62
     7
100
AcDbLine
 10
543.3058818542
 20
585.5499887981998
 30
0.0
 11
541.366542026
 21
583.6106489699999
 31
0.0
  0
LINE
  5
1DB
330
1F
100
AcDbEntity
  8
LAY-10
  6
CONTINUOUS
 62
     7
100
AcDbLine
 10
545.4272021977999
 20
587.6713091417998
 30
0.0
 11
543.9272021977999
 21
589.1713091417998
 31
0.0
  0
LINE
  5
1DC
330
1F
100
AcDbEntity
  8
LAY-10
  6
CONTINUOUS
 62
     7
100
AcDbLine
 10
543.3058818542
 20
585.5499887981998
 30
0.0
 11
541.366542026
 21
587.4893286263998
 31
0.0
  0
LINE
  5
1DD
330
1F
100
AcDbEntity
  8
LAY-10
  6
CONTINUOUS
 62
     7
100
AcDbLine
 10
540.9272021977999
 20
580.2999887981998
 30
0.0
 11
540.9272021977999
 21
582.5499887981998
 31
0.0
  0
LINE
  5
1DE
330
1F
100
AcDbEntity
  8
LAY-10
  6
CONTINUOUS
 62
     7
100
AcDbLine
 10
543.9272021977999
 20
580.2999887981998
 30
0.0
 11
543.9272021977999
 21
581.9286684546998
 31
0.0
  0
LINE
  5
1DF
330
1F
100
AcDbEntity
  8
LAY-10
  6
CONTINUOUS
 62
     7
100
AcDbLine
 10
543.9272021977999
 20
589.1713091417998
 30
0.0
 11
543.9272021977999
 21
590.7999887981998
 31
0.0
  0
LINE
  5
1E0
330
1F
100
AcDbEntity
  8
LAY-10
  6
CONTINUOUS
 62
     7
100
AcDbLine
 10
540.9272021977999
 20
588.5499887981998
 30
0.0
 11
540.9272021977999
 21
590.7999887981998
 31
0.0
  0
ARC
  5
1E1
330
1F
100
AcDbEntity
  8
LAY-10
  6
CONTINUOUS
 62
     7
100
AcDbCircle
 10
542.4272021977999
 20
582.5499887981998
 30
0.0
 40
1.5
100
AcDbArc
 50
134.9999999999663
 51
180.0
  0
ARC
  5
1E2
330
1F
100
AcDbEntity
  8
LAY-10
  6
CONTINUOUS
 62
     7
100
AcDbCircle
 10
542.4272021977999
 20
588.5499887981998
 30
0.0
 40
1.5
100
AcDbArc
 50
180.0
 51
225.0000000000001
  0
ARC
  5
1E3
330
1F
100
AcDbEntity
  8
LAY-10
  6
CONTINUOUS
 62
     7
100
AcDbCircle
 10
548.4272021977999
 20
588.5499887981998
 30
0.0
 40
1.5
100
AcDbArc
 50
315.0000000000062
 51
0.0
  0
ARC
  5
1E4
330
1F
100
AcDbEntity
  8
LAY-10
  6
CONTINUOUS
 62
     7
100
AcDbCircle
 10
548.4272021977999
 20
582.5499887981998
 30
0.0
 40
1.5
100
AcDbArc
 50
0.0
 51
44.99999999999694
  0
LINE
  5
1E5
330
1F
100
AcDbEntity
  8
LAY-10
  6
CONTINUOUS
 62
     7
100
AcDbLine
 10
542.4272134995001
 20
592.2999887981998
 30
0.0
 11
542.4272134995001
 21
594.5999867283999
 31
0.0
  0
LINE
  5
1E6
330
1F
100
AcDbEntity
  8
LAY-10
  6
CONTINUOUS
 62
     7
100
AcDbLine
 10
548.4272134995001
 20
592.2999887981998
 30
0.0
 11
548.4272134995001
 21
594.5999843201
 31
0.0
  0
LINE
  5
1E7
330
1F
100
AcDbEntity
  8
LAY-10
  6
CONTINUOUS
 62
     7
100
AcDbLine
 10
545.4272134995001
 20
587.6713204433998
 30
0.0
 11
545.4272134995001
 21
594.5999855242999
 31
0.0
  0
LINE
  5
1E8
330
1F
100
AcDbEntity
  8
LAY-10
  6
CONTINUOUS
 62
     7
100
AcDbLine
 10
545.4272134995001
 20
575.2999855242999
 30
0.0
 11
545.4272134995001
 21
583.4286797563
 31
0.0
  0
LINE
  5
1E9
330
1F
100
AcDbEntity
  8
LAY-10
  6
CONTINUOUS
 62
     7
100
AcDbLine
 10
542.4272134995001
 20
575.2999867283999
 30
0.0
 11
542.4272134995001
 21
578.7999887982999
 31
0.0
  0
LINE
  5
1EA
330
1F
100
AcDbEntity
  8
LAY-10
  6
CONTINUOUS
 62
     7
100
AcDbLine
 10
548.4272134995001
 20
566.2999843201
 30
0.0
 11
548.4272134995001
 21
578.7999887982999
 31
0.0
  0
LINE
  5
1EB
330
1F
100
AcDbEntity
  8
LAY-10
  6
CONTINUOUS
 62
     7
100
AcDbLine
 10
569.9272134994999
 20
474.3000380970999
 30
0.0
 11
569.9272134994999
 21
455.8000320762999
 31
0.0
  0
LINE
  5
1EC
330
1F
100
AcDbEntity
  8
LAY-10
  6
CONTINUOUS
 62
     7
100
AcDbLine
 10
567.7231262405999
 20
474.3000372124
 30
0.0
 11
567.7231262405999
 21
455.8000320747
 31
0.0
  0
ARC
  5
1ED
330
1F
100
AcDbEntity
  8
LAY-10
  6
CONTINUOUS
 62
     7
100
AcDbCircle
 10
554.9272134994999
 20
455.8000320762999
 30
0.0
 40
15.00000000000001
100
AcDbArc
 50
270.0000229977007
 51
0.0
  0
ARC
  5
1EE
330
1F
100
AcDbEntity
  8
LAY-10
  6
CONTINUOUS
 62
     7
100
AcDbCircle
 10
554.9231262405999
 20
455.8000320747
 30
0.0
 40
12.8
100
AcDbArc
 50
270.0000229977004
 51
0.0
  0
LINE
  5
1EF
330
1F
100
AcDbEntity
  8
LAY-10
  6
CONTINUOUS
 62
     7
100
AcDbLine
 10
536.4272134995001
 20
443.0000246507
 30
0.0
 11
554.9231313783
 21
443.0000320747001
 31
0.0
  0
LINE
  5
1F0
330
1F
100
AcDbEntity
  8
LAY-10
  6
CONTINUOUS
 62
     7
100
AcDbLine
 10
536.4272134995001
 20
440.8000246506999
 30
0.0
 11
554.9272195202
 21
440.8000320762999
 31
0.0
  0
LINE
  5
1F1
330
1F
100
AcDbEntity
  8
LAY-10
  6
CONTINUOUS
 62
     7
100
AcDbLine
 10
554.4272066130001
 20
456.3000318756
 30
0.0
 11
567.7231262405999
 21
456.3000372124
 31
0.0
  0
LINE
  5
1F2
330
1F
100
AcDbEntity
  8
LAY-10
  6
CONTINUOUS
 62
     7
100
AcDbLine
 10
557.4272054089001
 20
453.3000330798
 30
0.0
 11
567.4766128158
 21
453.3000371135
 31
0.0
  0
LINE
  5
1F3
330
1F
100
AcDbEntity
  8
LAY-10
  6
CONTINUOUS
 62
     7
100
AcDbLine
 10
560.4272042047
 20
450.3000342838999
 30
0.0
 11
566.4812424812
 21
450.3000367138998
 31
0.0
  0
LINE
  5
1F4
330
1F
100
AcDbEntity
  8
LAY-10
  6
CONTINUOUS
 62
     7
100
AcDbLine
 10
563.4272030006
 20
447.3000354881
 30
0.0
 11
564.4933961063
 21
447.300035916
 31
0.0
  0
LINE
  5
1F5
330
1F
100
AcDbEntity
  8
LAY-10
  6
CONTINUOUS
 62
     7
100
AcDbLine
 10
554.4272134995001
 20
456.3000249892
 30
0.0
 11
554.4272134995001
 21
443.0000318755999
 31
0.0
  0
LINE
  5
1F6
330
1F
100
AcDbEntity
  8
LAY-10
  6
CONTINUOUS
 62
     7
100
AcDbLine
 10
557.4272134995001
 20
453.3000249892
 30
0.0
 11
557.4272134995001
 21
443.2473611637
 31
0.0
  0
LINE
  5
1F7
330
1F
100
AcDbEntity
  8
LAY-10
  6
CONTINUOUS
 62
     7
100
AcDbLine
 10
560.4272134995001
 20
450.3000249892
 30
0.0
 11
560.4272134995001
 21
444.2438638755
 31
0.0
  0
LINE
  5
1F8
330
1F
100
AcDbEntity
  8
LAY-10
  6
CONTINUOUS
 62
     7
100
AcDbLine
 10
563.4272134995001
 20
447.3000249892
 30
0.0
 11
563.4272134995001
 21
446.2333973532
 31
0.0
  0
LINE
  5
1F9
330
1F
100
AcDbEntity
  8
LAY-10
  6
CONTINUOUS
 62
     7
100
AcDbLine
 10
548.4272090213001
 20
462.3000294673
 30
0.0
 11
563.4272030006
 21
447.3000354881
 31
0.0
  0
LINE
  5
1FA
330
1F
100
AcDbEntity
  8
LAY-10
  6
CONTINUOUS
 62
     7
100
AcDbLine
 10
544.5587629162001
 20
467.5116209844
 30
0.0
 11
543.2115373308001
 21
466.1643953990999
 31
0.0
  0
LINE
  5
1FB
330
1F
100
AcDbEntity
  8
LAY-10
  6
CONTINUOUS
 62
     7
100
AcDbLine
 10
536.4272134995001
 20
464.2459448157999
 30
0.0
 11
538.5799879141
 21
464.2459448157999
 31
0.0
  0
LINE
  5
1FC
330
1F
100
AcDbEntity
  8
LAY-10
  6
CONTINUOUS
 62
     7
100
AcDbLine
 10
546.4772134995001
 20
474.3000286846
 30
0.0
 11
546.4772134995001
 21
472.1431704012001
 31
0.0
  0
ARC
  5
1FD
330
1F
100
AcDbEntity
  8
LAY-10
  6
CONTINUOUS
 62
     7
100
AcDbCircle
 10
538.5799879141
 20
470.7959448158001
 30
0.0
 40
6.550000000000001
100
AcDbArc
 50
270.0
 51
314.9999999999993
  0
ARC
  5
1FE
330
1F
100
AcDbEntity
  8
LAY-10
  6
CONTINUOUS
 62
     7
100
AcDbCircle
 10
539.9272134994999
 20
472.1431704012001
 30
0.0
 40
6.550000000000001
100
AcDbArc
 50
315.0000000000007
 51
0.0
  0
LINE
  5
1FF
330
1F
100
AcDbEntity
  8
LAY-10
  6
CONTINUOUS
 62
     7
100
AcDbLine
 10
548.4272134995001
 20
471.3000294673
 30
0.0
 11
567.7231262405999
 21
471.3000372124
 31
0.0
  0
LINE
  5
200
330
1F
100
AcDbEntity
  8
LAY-10
  6
CONTINUOUS
 62
     7
100
AcDbLine
 10
551.4272078172
 20
459.3000306714999
 30
0.0
 11
567.7231262405999
 21
459.3000372124
 31
0.0
  0
LINE
  5
201
330
1F
100
AcDbEntity
  8
LAY-10
  6
CONTINUOUS
 62
     7
100
AcDbLine
 10
539.427205988
 20
458.1270686186
 30
0.0
 11
539.427205988
 21
454.7986414938999
 31
0.0
  0
LINE
  5
202
330
1F
100
AcDbEntity
  8
LAY-10
  6
CONTINUOUS
 62
     7
100
AcDbLine
 10
551.427205988
 20
459.3000325007
 30
0.0
 11
551.427205988
 21
454.7986414938999
 31
0.0
  0
LINE
  5
203
330
1F
100
AcDbEntity
  8
LAY-10
  6
CONTINUOUS
 62
     7
100
AcDbLine
 10
551.427205988
 20
445.1270686185999
 30
0.0
 11
551.427205988
 21
448.4554957434
 31
0.0
  0
LINE
  5
204
330
1F
100
AcDbEntity
  8
LAY-10
  6
CONTINUOUS
 62
     7
100
AcDbLine
 10
539.4272134995001
 20
462.3000258548999
 30
0.0
 11
539.4272134995001
 21
458.1325500268
 31
0.0
  0
LINE
  5
205
330
1F
100
AcDbEntity
  8
LAY-10
  6
CONTINUOUS
 62
     7
100
AcDbLine
 10
539.4272134995001
 20
454.7986339824
 30
0.0
 11
539.4272134995001
 21
443.0000258548999
 31
0.0
  0
LINE
  5
206
330
1F
100
AcDbEntity
  8
LAY-10
  6
CONTINUOUS
 62
     7
100
AcDbLine
 10
551.4272134995001
 20
445.1270686185999
 30
0.0
 11
551.4272134995001
 21
443.0000306715
 31
0.0
  0
LINE
  5
207
330
1F
100
AcDbEntity
  8
LAY-10
  6
CONTINUOUS
 62
     7
100
AcDbLine
 10
551.4272134995001
 20
454.7986490053999
 30
0.0
 11
551.4272134995001
 21
448.4554882319
 31
0.0
  0
LINE
  5
208
330
1F
100
AcDbEntity
  8
LAY-10
  6
CONTINUOUS
 62
     7
100
AcDbLine
 10
545.0172134995
 20
474.3000280985999
 30
0.0
 11
569.9272114925
 21
474.3000380970999
 31
0.0
  0
LINE
  5
209
330
1F
100
AcDbEntity
  8
LAY-10
  6
CONTINUOUS
 62
     7
100
AcDbLine
 10
536.4272134995001
 20
465.7059448157999
 30
0.0
 11
536.4272134995001
 21
440.8000246506999
 31
0.0
  0
LINE
  5
20A
330
1F
100
AcDbEntity
  8
LAY-10
  6
CONTINUOUS
 62
     7
100
AcDbLine
 10
543.5263870157
 20
468.543996885
 30
0.0
 11
542.1791614302999
 21
467.1967712996
 31
0.0
  0
LINE
  5
20B
330
1F
100
AcDbEntity
  8
LAY-10
  6
CONTINUOUS
 62
     7
100
AcDbLine
 10
536.4272134995001
 20
465.7059448157999
 30
0.0
 11
538.5799879141
 21
465.7059448157999
 31
0.0
  0
LINE
  5
20C
330
1F
100
AcDbEntity
  8
LAY-10
  6
CONTINUOUS
 62
     7
100
AcDbLine
 10
545.0172134995
 20
474.3000280985999
 30
0.0
 11
545.0172134995
 21
472.1431704012001
 31
0.0
  0
ARC
  5
20D
330
1F
100
AcDbEntity
  8
LAY-10
  6
CONTINUOUS
 62
     7
100
AcDbCircle
 10
539.9272134994999
 20
472.1431704012001
 30
0.0
 40
5.090000000000004
100
AcDbArc
 50
315.0000000000024
 51
0.0
  0
ARC
  5
20E
330
1F
100
AcDbEntity
  8
LAY-10
  6
CONTINUOUS
 62
     7
100
AcDbCircle
 10
538.5799879141
 20
470.7959448158001
 30
0.0
 40
5.090000000000004
100
AcDbArc
 50
270.0
 51
315.000000000001
  0
LINE
  5
20F
330
1F
100
AcDbEntity
  8
LAY-10
  6
CONTINUOUS
 62
     7
100
AcDbLine
 10
557.7985341957001
 20
468.3000359382
 30
0.0
 11
559.5558935085999
 21
468.3000366435999
 31
0.0
  0
LINE
  5
210
330
1F
100
AcDbEntity
  8
LAY-10
  6
CONTINUOUS
 62
     7
100
AcDbLine
 10
557.7985334903001
 20
462.3000359382
 30
0.0
 11
559.5558928032001
 21
462.3000366435999
 31
0.0
  0
ARC
  5
211
330
1F
100
AcDbEntity
  8
LAY-10
  6
CONTINUOUS
 62
     7
100
AcDbCircle
 10
553.4272134994999
 20
462.3000362908999
 30
0.0
 40
1.5
100
AcDbArc
 50
90.00000000000001
 51
270.0
  0
ARC
  5
212
330
1F
100
AcDbEntity
  8
LAY-10
  6
CONTINUOUS
 62
     7
100
AcDbCircle
 10
563.9272134994999
 20
462.3000362908999
 30
0.0
 40
1.5
100
AcDbArc
 50
270.0
 51
90.00000000000001
  0
LINE
  5
213
330
1F
100
AcDbEntity
  8
LAY-10
  6
CONTINUOUS
 62
     7
100
AcDbLine
 10
556.5558931559001
 20
465.3000362908999
 30
0.0
 11
555.0558931559001
 21
463.8000362908999
 31
0.0
  0
LINE
  5
214
330
1F
100
AcDbEntity
  8
LAY-10
  6
CONTINUOUS
 62
     7
100
AcDbLine
 10
558.6772134994999
 20
463.1787159473
 30
0.0
 11
556.7378736712001
 21
461.2393761190999
 31
0.0
  0
LINE
  5
215
330
1F
100
AcDbEntity
  8
LAY-10
  6
CONTINUOUS
 62
     7
100
AcDbLine
 10
560.7985338429999
 20
465.3000362908999
 30
0.0
 11
562.2985338429999
 21
463.8000362908999
 31
0.0
  0
LINE
  5
216
330
1F
100
AcDbEntity
  8
LAY-10
  6
CONTINUOUS
 62
     7
100
AcDbLine
 10
558.6772134994999
 20
463.1787159473
 30
0.0
 11
560.6165533277001
 21
461.2393761190999
 31
0.0
  0
LINE
  5
217
330
1F
100
AcDbEntity
  8
LAY-10
  6
CONTINUOUS
 62
     7
100
AcDbLine
 10
553.4272134994999
 20
460.8000362908999
 30
0.0
 11
555.6772134994999
 21
460.8000362908999
 31
0.0
  0
LINE
  5
218
330
1F
100
AcDbEntity
  8
LAY-10
  6
CONTINUOUS
 62
     7
100
AcDbLine
 10
561.6772134994001
 20
460.8000362908999
 30
0.0
 11
563.9272134994999
 21
460.8000362908999
 31
0.0
  0
LINE
  5
219
330
1F
100
AcDbEntity
  8
LAY-10
  6
CONTINUOUS
 62
     7
100
AcDbLine
 10
553.4272134994999
 20
463.8000362908999
 30
0.0
 11
555.0558931559001
 21
463.8000362908999
 31
0.0
  0
LINE
  5
21A
330
1F
100
AcDbEntity
  8
LAY-10
  6
CONTINUOUS
 62
     7
100
AcDbLine
 10
562.2985338429999
 20
463.8000362908999
 30
0.0
 11
563.9272134994999
 21
463.8000362908999
 31
0.0
  0
ARC
  5
21B
330
1F
100
AcDbEntity
  8
LAY-10
  6
CONTINUOUS
 62
     7
100
AcDbCircle
 10
553.4272134994999
 20
468.3000362908999
 30
0.0
 40
1.5
100
AcDbArc
 50
90.00000000000001
 51
270.0
  0
ARC
  5
21C
330
1F
100
AcDbEntity
  8
LAY-10
  6
CONTINUOUS
 62
     7
100
AcDbCircle
 10
563.9272134994999
 20
468.3000362908999
 30
0.0
 40
1.5
100
AcDbArc
 50
270.0
 51
90.00000000000001
  0
LINE
  5
21D
330
1F
100
AcDbEntity
  8
LAY-10
  6
CONTINUOUS
 62
     7
100
AcDbLine
 10
556.5558931559001
 20
465.3000362908999
 30
0.0
 11
555.0558931559001
 21
466.8000362908999
 31
0.0
  0
LINE
  5
21E
330
1F
100
AcDbEntity
  8
LAY-10
  6
CONTINUOUS
 62
     7
100
AcDbLine
 10
558.6772134994999
 20
467.4213566344
 30
0.0
 11
556.7378736712001
 21
469.3606964626001
 31
0.0
  0
LINE
  5
21F
330
1F
100
AcDbEntity
  8
LAY-10
  6
CONTINUOUS
 62
     7
100
AcDbLine
 10
560.7985338429999
 20
465.3000362908999
 30
0.0
 11
562.2985338429999
 21
466.8000362908999
 31
0.0
  0
LINE
  5
220
330
1F
100
AcDbEntity
  8
LAY-10
  6
CONTINUOUS
 62
     7
100
AcDbLine
 10
558.6772134994999
 20
467.4213566344
 30
0.0
 11
560.6165533277001
 21
469.3606964626001
 31
0.0
  0
LINE
  5
221
330
1F
100
AcDbEntity
  8
LAY-10
  6
CONTINUOUS
 62
     7
100
AcDbLine
 10
553.4272134994999
 20
469.8000362908999
 30
0.0
 11
555.6772134994999
 21
469.8000362908999
 31
0.0
  0
LINE
  5
222
330
1F
100
AcDbEntity
  8
LAY-10
  6
CONTINUOUS
 62
     7
100
AcDbLine
 10
553.4272134994999
 20
466.8000362908999
 30
0.0
 11
555.0558931559001
 21
466.8000362908999
 31
0.0
  0
LINE
  5
223
330
1F
100
AcDbEntity
  8
LAY-10
  6
CONTINUOUS
 62
     7
100
AcDbLine
 10
562.2985338429999
 20
466.8000362908999
 30
0.0
 11
563.9272134994999
 21
466.8000362908999
 31
0.0
  0
LINE
  5
224
330
1F
100
AcDbEntity
  8
LAY-10
  6
CONTINUOUS
 62
     7
100
AcDbLine
 10
561.6772134994001
 20
469.8000362908999
 30
0.0
 11
563.9272134994999
 21
469.8000362908999
 31
0.0
  0
ARC
  5
225
330
1F
100
AcDbEntity
  8
LAY-10
  6
CONTINUOUS
 62
     7
100
AcDbCircle
 10
555.6772134994999
 20
468.3000362908999
 30
0.0
 40
1.5
100
AcDbArc
 50
44.99999999999694
 51
90.00000000000001
  0
ARC
  5
226
330
1F
100
AcDbEntity
  8
LAY-10
  6
CONTINUOUS
 62
     7
100
AcDbCircle
 10
561.6772134994001
 20
468.3000362908999
 30
0.0
 40
1.5
100
AcDbArc
 50
90.00000000000001
 51
135.0000000000292
  0
ARC
  5
227
330
1F
100
AcDbEntity
  8
LAY-10
  6
CONTINUOUS
 62
     7
100
AcDbCircle
 10
561.6772134994001
 20
462.3000362908999
 30
0.0
 40
1.5
100
AcDbArc
 50
224.9999999999985
 51
270.0
  0
ARC
  5
228
330
1F
100
AcDbEntity
  8
LAY-10
  6
CONTINUOUS
 62
     7
100
AcDbCircle
 10
555.6772134994999
 20
462.3000362908999
 30
0.0
 40
1.5
100
AcDbArc
 50
270.0
 51
315.0000000000093
  0
LINE
  5
229
330
1F
100
AcDbEntity
  8
LAY-10
  6
CONTINUOUS
 62
     7
100
AcDbLine
 10
539.4272134995001
 20
462.3000258548999
 30
0.0
 11
551.9272134994999
 21
462.3000309843
 31
0.0
  0
LINE
  5
22A
330
1F
100
AcDbEntity
  8
LAY-10
  6
CONTINUOUS
 62
     7
100
AcDbLine
 10
548.4272134995001
 20
465.3000294673
 30
0.0
 11
556.5558967167001
 21
465.3000327300999
 31
0.0
  0
LINE
  5
22B
330
1F
100
AcDbEntity
  8
LAY-10
  6
CONTINUOUS
 62
     7
100
AcDbLine
 10
560.7985318598
 20
465.3000343077
 30
0.0
 11
567.7231262405999
 21
465.3000372124
 31
0.0
  0
LINE
  5
22C
330
1F
100
AcDbEntity
  8
LAY-10
  6
CONTINUOUS
 62
     7
100
AcDbLine
 10
548.4272134995001
 20
468.3000294673
 30
0.0
 11
551.9272134994999
 21
468.3000310325
 31
0.0
  0
LINE
  5
22D
330
1F
100
AcDbEntity
  8
LAY-10
  6
CONTINUOUS
 62
     7
100
AcDbLine
 10
565.4272134994999
 20
468.3000362908999
 30
0.0
 11
567.7231262405999
 21
468.3000372124
 31
0.0
  0
LINE
  5
22E
330
1F
100
AcDbEntity
  8
LAY-10
  6
CONTINUOUS
 62
     7
100
AcDbLine
 10
565.4272134994999
 20
462.3000362908999
 30
0.0
 11
567.7231262405999
 21
462.3000372124
 31
0.0
  0
LINE
  5
22F
330
1F
100
AcDbEntity
  8
LAY-10
  6
CONTINUOUS
 62
     7
100
AcDbLine
 10
542.4272025505
 20
452.9287042929999
 30
0.0
 11
542.4272018451001
 21
451.1713449800999
 31
0.0
  0
LINE
  5
230
330
1F
100
AcDbEntity
  8
LAY-10
  6
CONTINUOUS
 62
     7
100
AcDbLine
 10
548.4272025505
 20
452.9287049982999
 30
0.0
 11
548.4272018451001
 21
451.1713456854999
 31
0.0
  0
ARC
  5
231
330
1F
100
AcDbEntity
  8
LAY-10
  6
CONTINUOUS
 62
     7
100
AcDbCircle
 10
548.4272021977999
 20
457.3000249891999
 30
0.0
 40
1.5
100
AcDbArc
 50
0.0
 51
180.0
  0
ARC
  5
232
330
1F
100
AcDbEntity
  8
LAY-10
  6
CONTINUOUS
 62
     7
100
AcDbCircle
 10
548.4272021977999
 20
446.8000249891999
 30
0.0
 40
1.5
100
AcDbArc
 50
180.0
 51
0.0
  0
LINE
  5
233
330
1F
100
AcDbEntity
  8
LAY-10
  6
CONTINUOUS
 62
     7
100
AcDbLine
 10
545.4272021977999
 20
454.1713453327998
 30
0.0
 11
546.9272021977999
 21
455.6713453327998
 31
0.0
  0
LINE
  5
234
330
1F
100
AcDbEntity
  8
LAY-10
  6
CONTINUOUS
 62
     7
100
AcDbLine
 10
547.5485225414
 20
452.0500249891999
 30
0.0
 11
549.4878623696001
 21
453.9893648174
 31
0.0
  0
LINE
  5
235
330
1F
100
AcDbEntity
  8
LAY-10
  6
CONTINUOUS
 62
     7
100
AcDbLine
 10
545.4272021977999
 20
449.9287046457
 30
0.0
 11
546.9272021977999
 21
448.4287046457
 31
0.0
  0
LINE
  5
236
330
1F
100
AcDbEntity
  8
LAY-10
  6
CONTINUOUS
 62
     7
100
AcDbLine
 10
547.5485225414
 20
452.0500249891999
 30
0.0
 11
549.4878623696001
 21
450.110685161
 31
0.0
  0
LINE
  5
237
330
1F
100
AcDbEntity
  8
LAY-10
  6
CONTINUOUS
 62
     7
100
AcDbLine
 10
549.9272021977999
 20
457.3000249891999
 30
0.0
 11
549.9272021977999
 21
455.0500249891999
 31
0.0
  0
LINE
  5
238
330
1F
100
AcDbEntity
  8
LAY-10
  6
CONTINUOUS
 62
     7
100
AcDbLine
 10
549.9272021977999
 20
449.0500249891999
 30
0.0
 11
549.9272021977999
 21
446.8000249891999
 31
0.0
  0
LINE
  5
239
330
1F
100
AcDbEntity
  8
LAY-10
  6
CONTINUOUS
 62
     7
100
AcDbLine
 10
546.9272021977999
 20
457.3000249891999
 30
0.0
 11
546.9272021977999
 21
455.6713453327998
 31
0.0
  0
LINE
  5
23A
330
1F
100
AcDbEntity
  8
LAY-10
  6
CONTINUOUS
 62
     7
100
AcDbLine
 10
546.9272021977999
 20
448.4287046457
 30
0.0
 11
546.9272021977999
 21
446.8000249891999
 31
0.0
  0
ARC
  5
23B
330
1F
100
AcDbEntity
  8
LAY-10
  6
CONTINUOUS
 62
     7
100
AcDbCircle
 10
542.4272021977999
 20
457.3000249891999
 30
0.0
 40
1.5
100
AcDbArc
 50
0.0
 51
180.0
  0
ARC
  5
23C
330
1F
100
AcDbEntity
  8
LAY-10
  6
CONTINUOUS
 62
     7
100
AcDbCircle
 10
542.4272021977999
 20
446.8000249891999
 30
0.0
 40
1.5
100
AcDbArc
 50
180.0
 51
0.0
  0
LINE
  5
23D
330
1F
100
AcDbEntity
  8
LAY-10
  6
CONTINUOUS
 62
     7
100
AcDbLine
 10
545.4272021977999
 20
454.1713453327998
 30
0.0
 11
543.9272021977999
 21
455.6713453327998
 31
0.0
  0
LINE
  5
23E
330
1F
100
AcDbEntity
  8
LAY-10
  6
CONTINUOUS
 62
     7
100
AcDbLine
 10
543.3058818542
 20
452.0500249891999
 30
0.0
 11
541.366542026
 21
453.9893648174
 31
0.0
  0
LINE
  5
23F
330
1F
100
AcDbEntity
  8
LAY-10
  6
CONTINUOUS
 62
     7
100
AcDbLine
 10
545.4272021977999
 20
449.9287046457
 30
0.0
 11
543.9272021977999
 21
448.4287046457
 31
0.0
  0
LINE
  5
240
330
1F
100
AcDbEntity
  8
LAY-10
  6
CONTINUOUS
 62
     7
100
AcDbLine
 10
543.3058818542
 20
452.0500249891999
 30
0.0
 11
541.366542026
 21
450.110685161
 31
0.0
  0
LINE
  5
241
330
1F
100
AcDbEntity
  8
LAY-10
  6
CONTINUOUS
 62
     7
100
AcDbLine
 10
540.9272021977999
 20
457.3000249891999
 30
0.0
 11
540.9272021977999
 21
455.0500249891999
 31
0.0
  0
LINE
  5
242
330
1F
100
AcDbEntity
  8
LAY-10
  6
CONTINUOUS
 62
     7
100
AcDbLine
 10
543.9272021977999
 20
457.3000249891999
 30
0.0
 11
543.9272021977999
 21
455.6713453327998
 31
0.0
  0
LINE
  5
243
330
1F
100
AcDbEntity
  8
LAY-10
  6
CONTINUOUS
 62
     7
100
AcDbLine
 10
543.9272021977999
 20
448.4287046457
 30
0.0
 11
543.9272021977999
 21
446.8000249891999
 31
0.0
  0
LINE
  5
244
330
1F
100
AcDbEntity
  8
LAY-10
  6
CONTINUOUS
 62
     7
100
AcDbLine
 10
540.9272021977999
 20
449.0500249891999
 30
0.0
 11
540.9272021977999
 21
446.8000249891999
 31
0.0
  0
ARC
  5
245
330
1F
100
AcDbEntity
  8
LAY-10
  6
CONTINUOUS
 62
     7
100
AcDbCircle
 10
542.4272021977999
 20
455.0500249891999
 30
0.0
 40
1.5
100
AcDbArc
 50
180.0
 51
225.0000000000031
  0
ARC
  5
246
330
1F
100
AcDbEntity
  8
LAY-10
  6
CONTINUOUS
 62
     7
100
AcDbCircle
 10
542.4272021977999
 20
449.0500249891999
 30
0.0
 40
1.5
100
AcDbArc
 50
134.9999999999724
 51
180.0
  0
ARC
  5
247
330
1F
100
AcDbEntity
  8
LAY-10
  6
CONTINUOUS
 62
     7
100
AcDbCircle
 10
548.4272021977999
 20
449.0500249891999
 30
0.0
 40
1.5
100
AcDbArc
 50
0.0
 51
44.99999999999694
  0
ARC
  5
248
330
1F
100
AcDbEntity
  8
LAY-10
  6
CONTINUOUS
 62
     7
100
AcDbCircle
 10
548.4272021977999
 20
455.0500249891999
 30
0.0
 40
1.5
100
AcDbArc
 50
315.0000000000016
 51
0.0
  0
LINE
  5
249
330
1F
100
AcDbEntity
  8
LAY-10
  6
CONTINUOUS
 62
     7
100
AcDbLine
 10
542.4272134995001
 20
445.3000249892999
 30
0.0
 11
542.4272134995001
 21
443.000027059
 31
0.0
  0
LINE
  5
24A
330
1F
100
AcDbEntity
  8
LAY-10
  6
CONTINUOUS
 62
     7
100
AcDbLine
 10
548.4272134995001
 20
445.3000249892999
 30
0.0
 11
548.4272134995001
 21
443.0000294673
 31
0.0
  0
LINE
  5
24B
330
1F
100
AcDbEntity
  8
LAY-10
  6
CONTINUOUS
 62
     7
100
AcDbLine
 10
545.4272134995001
 20
449.9286933439999
 30
0.0
 11
545.4272134995001
 21
443.0000282632
 31
0.0
  0
LINE
  5
24C
330
1F
100
AcDbEntity
  8
LAY-10
  6
CONTINUOUS
 62
     7
100
AcDbLine
 10
545.4272134995001
 20
462.3000282632
 30
0.0
 11
545.4272134995001
 21
454.1713340310999
 31
0.0
  0
LINE
  5
24D
330
1F
100
AcDbEntity
  8
LAY-10
  6
CONTINUOUS
 62
     7
100
AcDbLine
 10
542.4272134995001
 20
462.3000270589999
 30
0.0
 11
542.4272134995001
 21
458.8000249891999
 31
0.0
  0
LINE
  5
24E
330
1F
100
AcDbEntity
  8
LAY-10
  6
CONTINUOUS
 62
     7
100
AcDbLine
 10
548.4272134995001
 20
471.3000294673
 30
0.0
 11
548.4272134995001
 21
458.8000249891999
 31
0.0
  0
LINE
  5
24F
330
1F
100
AcDbEntity
  8
LAY-10
  6
CONTINUOUS
 62
     7
100
AcDbLine
 10
518.4272137681
 20
594.7999706146999
 30
0.0
 11
470.3272137681
 21
594.7999447676
 31
0.0
  0
LINE
  5
250
330
1F
100
AcDbEntity
  8
LAY-10
  6
CONTINUOUS
 62
     7
100
AcDbLine
 10
450.3272134995001
 20
570.8000583554999
 30
0.0
 11
469.5272134995
 21
570.800048072
 31
0.0
  0
LINE
  5
251
330
1F
100
AcDbEntity
  8
LAY-10
  6
CONTINUOUS
 62
     7
100
AcDbLine
 10
470.3272134995
 20
570.8000476434999
 30
0.0
 11
518.4272137672
 21
570.8000218812999
 31
0.0
  0
LINE
  5
252
330
1F
100
AcDbEntity
  8
LAY-10
  6
CONTINUOUS
 62
     7
100
AcDbLine
 10
469.5272134995
 20
594.7999441868
 30
0.0
 11
450.3272134995001
 21
594.7999302467999
 31
0.0
  0
LINE
  5
253
330
1F
100
AcDbEntity
  8
LAY-10
  6
CONTINUOUS
 62
     7
100
AcDbLine
 10
518.4272137672
 20
570.8000218812999
 30
0.0
 11
533.4272134995001
 21
568.7999887981998
 31
0.0
  0
LINE
  5
254
330
1F
100
AcDbEntity
  8
LAY-10
  6
CONTINUOUS
 62
     7
100
AcDbLine
 10
518.4272137681
 20
594.7999706146999
 30
0.0
 11
533.4272134995001
 21
596.7999953581998
 31
0.0
  0
LINE
  5
255
330
1F
100
AcDbEntity
  8
LAY-10
  6
CONTINUOUS
 62
     7
100
AcDbLine
 10
449.5272134995
 20
442.7999993827999
 30
0.0
 11
449.5272134995
 21
466.7999993827999
 31
0.0
  0
LINE
  5
256
330
1F
100
AcDbEntity
  8
LAY-10
  6
CONTINUOUS
 62
     7
100
AcDbLine
 10
450.3272134995001
 20
442.7999993827999
 30
0.0
 11
450.3272134995001
 21
466.7999993827999
 31
0.0
  0
ARC
  5
257
330
1F
100
AcDbEntity
  8
LAY-10
  6
CONTINUOUS
 62
     7
100
AcDbCircle
 10
449.9272134995001
 20
442.7999993827999
 30
0.0
 40
0.4
100
AcDbArc
 50
180.0
 51
0.0
  0
ARC
  5
258
330
1F
100
AcDbEntity
  8
LAY-10
  6
CONTINUOUS
 62
     7
100
AcDbCircle
 10
449.9272134995001
 20
466.7999993827999
 30
0.0
 40
0.4
100
AcDbArc
 50
0.0
 51
180.0
  0
LINE
  5
259
330
1F
100
AcDbEntity
  8
LAY-10
  6
CONTINUOUS
 62
     7
100
AcDbLine
 10
469.5272134995
 20
442.7999993827999
 30
0.0
 11
469.5272134995
 21
466.7999993827999
 31
0.0
  0
LINE
  5
25A
330
1F
100
AcDbEntity
  8
LAY-10
  6
CONTINUOUS
 62
     7
100
AcDbLine
 10
470.3272134995
 20
442.7999993827999
 30
0.0
 11
470.3272134995
 21
466.7999993827999
 31
0.0
  0
ARC
  5
25B
330
1F
100
AcDbEntity
  8
LAY-10
  6
CONTINUOUS
 62
     7
100
AcDbCircle
 10
469.9272134995
 20
442.7999993827999
 30
0.0
 40
0.4
100
AcDbArc
 50
180.0
 51
0.0
  0
ARC
  5
25C
330
1F
100
AcDbEntity
  8
LAY-10
  6
CONTINUOUS
 62
     7
100
AcDbCircle
 10
469.9272134995
 20
466.7999993827999
 30
0.0
 40
0.4
100
AcDbArc
 50
0.0
 51
180.0
  0
LINE
  5
25D
330
1F
100
AcDbEntity
  8
LAY-10
  6
CONTINUOUS
 62
     7
100
AcDbLine
 10
518.4272134995001
 20
442.8000212736
 30
0.0
 11
518.4272134995001
 21
466.7999700069
 31
0.0
  0
LINE
  5
25E
330
1F
100
AcDbEntity
  8
LAY-10
  6
CONTINUOUS
 62
     7
100
AcDbLine
 10
518.4272137681
 20
466.7999700069
 30
0.0
 11
470.3272137681
 21
466.7999441598
 31
0.0
  0
LINE
  5
25F
330
1F
100
AcDbEntity
  8
LAY-10
  6
CONTINUOUS
 62
     7
100
AcDbLine
 10
450.3272134995001
 20
442.8000577476999
 30
0.0
 11
469.5272134995
 21
442.8000474643
 31
0.0
  0
LINE
  5
260
330
1F
100
AcDbEntity
  8
LAY-10
  6
CONTINUOUS
 62
     7
100
AcDbLine
 10
470.3272134995
 20
442.8000470357999
 30
0.0
 11
518.4272137672
 21
442.8000212736
 31
0.0
  0
LINE
  5
261
330
1F
100
AcDbEntity
  8
LAY-10
  6
CONTINUOUS
 62
     7
100
AcDbLine
 10
469.5272134995
 20
466.7999435789999
 30
0.0
 11
450.3272134995001
 21
466.799929639
 31
0.0
  0
LINE
  5
262
330
1F
100
AcDbEntity
  8
LAY-10
  6
CONTINUOUS
 62
     7
100
AcDbLine
 10
533.4272134995001
 20
440.8000184291999
 30
0.0
 11
518.4272137672
 21
442.8000212736
 31
0.0
  0
LINE
  5
263
330
1F
100
AcDbEntity
  8
LAY-10
  6
CONTINUOUS
 62
     7
100
AcDbLine
 10
518.4272137681
 20
466.7999700069
 30
0.0
 11
533.4272134995001
 21
468.8000249892
 31
0.0
  0
LINE
  5
264
330
1F
100
AcDbEntity
  8
LAY-10
  6
CONTINUOUS
 62
     7
100
AcDbLine
 10
546.4772134995001
 20
479.3000286845999
 30
0.0
 11
550.4272126967
 21
479.3000302700999
 31
0.0
  0
LINE
  5
265
330
1F
100
AcDbEntity
  8
LAY-10
  6
CONTINUOUS
 62
     7
100
AcDbLine
 10
563.4272126967
 20
479.3000354880999
 30
0.0
 11
567.7231262405999
 21
479.3000372123999
 31
0.0
  0
LINE
  5
266
330
1F
100
AcDbEntity
  8
LAY-10
  6
CONTINUOUS
 62
     7
100
AcDbLine
 10
546.4772134995001
 20
558.2999851027998
 30
0.0
 11
550.4272126967
 21
558.2999835173998
 31
0.0
  0
LINE
  5
267
330
1F
100
AcDbEntity
  8
LAY-10
  6
CONTINUOUS
 62
     7
100
AcDbLine
 10
563.4272126967
 20
558.2999782994
 30
0.0
 11
567.7231262405999
 21
558.2999765749998
 31
0.0
  0
LINE
  5
268
330
1F
100
AcDbEntity
  8
LAY-10
  6
CONTINUOUS
 62
     7
100
AcDbLine
 10
449.5272134995
 20
298.3981239548002
 30
0.0
 11
449.5272134995
 21
273.9981239548001
 31
0.0
  0
LINE
  5
269
330
1F
100
AcDbEntity
  8
LAY-10
  6
CONTINUOUS
 62
     7
100
AcDbLine
 10
450.3272134995001
 20
298.3981239548002
 30
0.0
 11
450.3272134995001
 21
273.9981239548001
 31
0.0
  0
ARC
  5
26A
330
1F
100
AcDbEntity
  8
LAY-10
  6
CONTINUOUS
 62
     7
100
AcDbCircle
 10
449.9272134995001
 20
298.3981239548002
 30
0.0
 40
0.4
100
AcDbArc
 50
0.0
 51
180.0
  0
ARC
  5
26B
330
1F
100
AcDbEntity
  8
LAY-10
  6
CONTINUOUS
 62
     7
100
AcDbCircle
 10
449.9272134995001
 20
273.9981239548001
 30
0.0
 40
0.4
100
AcDbArc
 50
180.0
 51
0.0
  0
LINE
  5
26C
330
1F
100
AcDbEntity
  8
LAY-10
  6
CONTINUOUS
 62
     7
100
AcDbLine
 10
469.5272134995
 20
298.3981239548002
 30
0.0
 11
469.5272134995
 21
273.9981239548001
 31
0.0
  0
LINE
  5
26D
330
1F
100
AcDbEntity
  8
LAY-10
  6
CONTINUOUS
 62
     7
100
AcDbLine
 10
470.3272134995
 20
298.3981239548002
 30
0.0
 11
470.3272134995
 21
273.9981239548001
 31
0.0
  0
ARC
  5
26E
330
1F
100
AcDbEntity
  8
LAY-10
  6
CONTINUOUS
 62
     7
100
AcDbCircle
 10
469.9272134995
 20
298.3981239548002
 30
0.0
 40
0.4
100
AcDbArc
 50
0.0
 51
180.0
  0
ARC
  5
26F
330
1F
100
AcDbEntity
  8
LAY-10
  6
CONTINUOUS
 62
     7
100
AcDbCircle
 10
469.9272134995
 20
273.9981239548001
 30
0.0
 40
0.4
100
AcDbArc
 50
180.0
 51
0.0
  0
LINE
  5
270
330
1F
100
AcDbEntity
  8
LAY-10
  6
CONTINUOUS
 62
     7
100
AcDbLine
 10
518.4272074787
 20
298.1978622944001
 30
0.0
 11
518.4272074787
 21
274.1979135611001
 31
0.0
  0
LINE
  5
271
330
1F
100
AcDbEntity
  8
LAY-10
  6
CONTINUOUS
 62
     7
100
AcDbLine
 10
536.4272074787
 20
300.6978841852001
 30
0.0
 11
533.4272074787
 21
300.6978841852001
 31
0.0
  0
LINE
  5
272
330
1F
100
AcDbEntity
  8
LAY-10
  6
CONTINUOUS
 62
     7
100
AcDbLine
 10
536.4272074787
 20
271.6978841852001
 30
0.0
 11
533.4272074787
 21
271.6978841852001
 31
0.0
  0
LINE
  5
273
330
1F
100
AcDbEntity
  8
LAY-10
  6
CONTINUOUS
 62
     7
100
AcDbLine
 10
536.4272074787
 20
288.1978841852001
 30
0.0
 11
533.4272074787
 21
288.1978841852001
 31
0.0
  0
LINE
  5
274
330
1F
100
AcDbEntity
  8
LAY-10
  6
CONTINUOUS
 62
     7
100
AcDbLine
 10
536.4272074787
 20
284.1978841852001
 30
0.0
 11
533.4272074787
 21
284.1978841852001
 31
0.0
  0
LINE
  5
275
330
1F
100
AcDbEntity
  8
LAY-10
  6
CONTINUOUS
 62
     7
100
AcDbLine
 10
533.4272074787
 20
288.1978841852001
 30
0.0
 11
518.4272074787
 21
286.1978841852
 31
0.0
  0
LINE
  5
276
330
1F
100
AcDbEntity
  8
LAY-10
  6
CONTINUOUS
 62
     7
100
AcDbLine
 10
518.4272074787
 20
286.1978841852
 30
0.0
 11
533.4272074787
 21
284.1978841852001
 31
0.0
  0
LINE
  5
277
330
1F
100
AcDbEntity
  8
LAY-10
  6
CONTINUOUS
 62
     7
100
AcDbLine
 10
533.4272074787
 20
300.6978841852001
 30
0.0
 11
533.4272074787
 21
271.6978841852001
 31
0.0
  0
LINE
  5
278
330
1F
100
AcDbEntity
  8
LAY-10
  6
CONTINUOUS
 62
     7
100
AcDbLine
 10
566.0484677134
 20
271.6978841852001
 30
0.0
 11
536.4272014578999
 21
271.6978841852001
 31
0.0
  0
LINE
  5
279
330
1F
100
AcDbEntity
  8
LAY-10
  6
CONTINUOUS
 62
     7
100
AcDbLine
 10
568.0181932615999
 20
273.3512124890002
 30
0.0
 11
569.9272074787
 21
284.1978841852001
 31
0.0
  0
LINE
  5
27A
330
1F
100
AcDbEntity
  8
LAY-10
  6
CONTINUOUS
 62
     7
100
AcDbLine
 10
569.9272074787
 20
288.1978841852001
 30
0.0
 11
568.0181932615999
 21
299.0445558814001
 31
0.0
  0
LINE
  5
27B
330
1F
100
AcDbEntity
  8
LAY-10
  6
CONTINUOUS
 62
     7
100
AcDbLine
 10
569.9272074787
 20
284.1978841852001
 30
0.0
 11
569.9272074787
 21
288.1978841852001
 31
0.0
  0
LINE
  5
27C
330
1F
100
AcDbEntity
  8
LAY-10
  6
CONTINUOUS
 62
     7
100
AcDbLine
 10
536.4272014578999
 20
271.6978841852001
 30
0.0
 11
536.4272014578999
 21
300.6978841852001
 31
0.0
  0
LINE
  5
27D
330
1F
100
AcDbEntity
  8
LAY-10
  6
CONTINUOUS
 62
     7
100
AcDbLine
 10
566.0484677134
 20
300.6978841852001
 30
0.0
 11
536.4272014578999
 21
300.6978841852001
 31
0.0
  0
ARC
  5
27E
330
1F
100
AcDbEntity
  8
LAY-10
  6
CONTINUOUS
 62
     7
100
AcDbCircle
 10
566.0484677134
 20
273.6978841852001
 30
0.0
 40
2.0
100
AcDbArc
 50
270.0
 51
350.0181707195987
  0
ARC
  5
27F
330
1F
100
AcDbEntity
  8
LAY-10
  6
CONTINUOUS
 62
     7
100
AcDbCircle
 10
566.0484677134
 20
298.6978841852001
 30
0.0
 40
2.0
100
AcDbArc
 50
9.981829280401188
 51
90.00000000000001
  0
LINE
  5
280
330
1F
100
AcDbEntity
  8
LAY-10
  6
CONTINUOUS
 62
     7
100
AcDbLine
 10
518.4272137681
 20
274.1979135611001
 30
0.0
 11
470.3272137681
 21
274.1979394082001
 31
0.0
  0
LINE
  5
281
330
1F
100
AcDbEntity
  8
LAY-10
  6
CONTINUOUS
 62
     7
100
AcDbLine
 10
450.3272134995001
 20
298.1978258203002
 30
0.0
 11
469.5272134995
 21
298.1978361037002
 31
0.0
  0
LINE
  5
282
330
1F
100
AcDbEntity
  8
LAY-10
  6
CONTINUOUS
 62
     7
100
AcDbLine
 10
470.3272134995
 20
298.1978365322002
 30
0.0
 11
518.4272137672
 21
298.1978622944001
 31
0.0
  0
LINE
  5
283
330
1F
100
AcDbEntity
  8
LAY-10
  6
CONTINUOUS
 62
     7
100
AcDbLine
 10
469.5272134995
 20
274.197939989
 30
0.0
 11
450.3272134995001
 21
274.1979539290002
 31
0.0
  0
LINE
  5
284
330
1F
100
AcDbEntity
  8
LAY-10
  6
CONTINUOUS
 62
     7
100
AcDbLine
 10
533.4272074787
 20
300.6978841852001
 30
0.0
 11
518.4272074787
 21
298.1978622944001
 31
0.0
  0
LINE
  5
285
330
1F
100
AcDbEntity
  8
LAY-10
  6
CONTINUOUS
 62
     7
100
AcDbLine
 10
518.4272074787
 20
274.1979135611001
 30
0.0
 11
533.4272074787
 21
271.6978841852001
 31
0.0
  0
CIRCLE
  5
286
330
1F
100
AcDbEntity
  8
LAY-10
  6
CONTINUOUS
 62
     7
100
AcDbCircle
 10
555.9272949165
 20
286.1981316514001
 30
0.0
 40
7.999918582930008
  0
LINE
  5
287
330
1F
100
AcDbEntity
  8
LAY-10
  6
CONTINUOUS
 62
     7
100
AcDbLine
 10
414.9272134995001
 20
574.8000741019998
 30
0.0
 11
414.9272134995001
 21
590.7999089012
 31
0.0
  0
ARC
  5
288
330
1F
100
AcDbEntity
  8
LAY-10
  6
CONTINUOUS
 62
     7
100
AcDbCircle
 10
418.9272134995
 20
574.8000741019998
 30
0.0
 40
4.0
100
AcDbArc
 50
180.0
 51
269.999969312499
  0
ARC
  5
289
330
1F
100
AcDbEntity
  8
LAY-10
  6
CONTINUOUS
 62
     7
100
AcDbCircle
 10
418.9272134995
 20
590.7999089012
 30
0.0
 40
4.0
100
AcDbArc
 50
90.00004159909533
 51
180.0
  0
LINE
  5
28A
330
1F
100
AcDbEntity
  8
LAY-10
  6
CONTINUOUS
 62
     7
100
AcDbLine
 10
418.9272113570999
 20
570.8000741019998
 30
0.0
 11
449.5272134995
 21
570.8000587839999
 31
0.0
  0
LINE
  5
28B
330
1F
100
AcDbEntity
  8
LAY-10
  6
CONTINUOUS
 62
     7
100
AcDbLine
 10
449.5272134995
 20
594.7999296659
 30
0.0
 11
418.9272105953
 21
594.7999089011998
 31
0.0
  0
LINE
  5
28C
330
1F
100
AcDbEntity
  8
LAY-10
  6
CONTINUOUS
 62
     7
100
AcDbLine
 10
414.9272134995001
 20
446.8000734942999
 30
0.0
 11
414.9272134995001
 21
462.7999082934001
 31
0.0
  0
ARC
  5
28D
330
1F
100
AcDbEntity
  8
LAY-10
  6
CONTINUOUS
 62
     7
100
AcDbCircle
 10
418.9272134995
 20
446.8000734942999
 30
0.0
 40
4.0
100
AcDbArc
 50
180.0
 51
269.999969312499
  0
ARC
  5
28E
330
1F
100
AcDbEntity
  8
LAY-10
  6
CONTINUOUS
 62
     7
100
AcDbCircle
 10
418.9272134995
 20
462.7999082934001
 30
0.0
 40
4.0
100
AcDbArc
 50
90.00004159909533
 51
180.0
  0
LINE
  5
28F
330
1F
100
AcDbEntity
  8
LAY-10
  6
CONTINUOUS
 62
     7
100
AcDbLine
 10
418.9272113570999
 20
442.8000734942999
 30
0.0
 11
449.5272134995
 21
442.8000581762
 31
0.0
  0
LINE
  5
290
330
1F
100
AcDbEntity
  8
LAY-10
  6
CONTINUOUS
 62
     7
100
AcDbLine
 10
449.5272134995
 20
466.7999290582
 30
0.0
 11
418.9272105953
 21
466.7999082934
 31
0.0
  0
LINE
  5
291
330
1F
100
AcDbEntity
  8
LAY-10
  6
CONTINUOUS
 62
     7
100
AcDbLine
 10
414.9272134995001
 20
294.1978100737001
 30
0.0
 11
414.9272134995001
 21
278.1979752746
 31
0.0
  0
ARC
  5
292
330
1F
100
AcDbEntity
  8
LAY-10
  6
CONTINUOUS
 62
     7
100
AcDbCircle
 10
418.9272134995
 20
294.1978100737001
 30
0.0
 40
4.0
100
AcDbArc
 50
90.00003068750117
 51
180.0
  0
ARC
  5
293
330
1F
100
AcDbEntity
  8
LAY-10
  6
CONTINUOUS
 62
     7
100
AcDbCircle
 10
418.9272134995
 20
278.1979752746
 30
0.0
 40
4.0
100
AcDbArc
 50
180.0
 51
269.9999584009046
  0
LINE
  5
294
330
1F
100
AcDbEntity
  8
LAY-10
  6
CONTINUOUS
 62
     7
100
AcDbLine
 10
418.9272113570999
 20
298.1978100737
 30
0.0
 11
449.5272134995
 21
298.1978253918002
 31
0.0
  0
LINE
  5
295
330
1F
100
AcDbEntity
  8
LAY-10
  6
CONTINUOUS
 62
     7
100
AcDbLine
 10
449.5272134995
 20
274.1979545098001
 30
0.0
 11
418.9272105953
 21
274.1979752746001
 31
0.0
  0
LINE
  5
296
330
1F
100
AcDbEntity
  8
LAY-10
  6
CONTINUOUS
 62
     7
100
AcDbLine
 10
414.9272134995001
 20
446.7999993827999
 30
0.0
 11
327.9272134994999
 21
446.7999993827999
 31
0.0
  0
LINE
  5
297
330
1F
100
AcDbEntity
  8
LAY-10
  6
CONTINUOUS
 62
     7
100
AcDbLine
 10
414.9272134995001
 20
462.7999993828
 30
0.0
 11
327.9272134994999
 21
462.7999993828
 31
0.0
  0
CIRCLE
  5
298
330
1F
100
AcDbEntity
  8
LAY-10
  6
CONTINUOUS
 62
     7
100
AcDbCircle
 10
327.9272134994999
 20
454.7999993827999
 30
0.0
 40
8.0
  0
LINE
  5
299
330
1F
100
AcDbEntity
  8
LAY-10
  6
CONTINUOUS
 62
     7
100
AcDbLine
 10
414.9272134995001
 20
574.7999999904998
 30
0.0
 11
327.9272134994999
 21
574.7999999904998
 31
0.0
  0
LINE
  5
29A
330
1F
100
AcDbEntity
  8
LAY-10
  6
CONTINUOUS
 62
     7
100
AcDbLine
 10
414.9272134995001
 20
590.7999999904999
 30
0.0
 11
327.9272134994999
 21
590.7999999904999
 31
0.0
  0
CIRCLE
  5
29B
330
1F
100
AcDbEntity
  8
LAY-10
  6
CONTINUOUS
 62
     7
100
AcDbCircle
 10
327.9272134994999
 20
582.7999999904998
 30
0.0
 40
8.0
  0
LINE
  5
29C
330
1F
100
AcDbEntity
  8
LAY-10
  6
CONTINUOUS
 62
     7
100
AcDbLine
 10
319.9272134995
 20
325.2378236860002
 30
0.0
 11
319.9272134995
 21
293.1978841852001
 31
0.0
  0
LINE
  5
29D
330
1F
100
AcDbEntity
  8
LAY-10
  6
CONTINUOUS
 62
     7
100
AcDbLine
 10
319.9272134995
 20
325.2378236860002
 30
0.0
 11
335.9272134994998
 21
325.2378236860002
 31
0.0
  0
LINE
  5
29E
330
1F
100
AcDbEntity
  8
LAY-10
  6
CONTINUOUS
 62
     7
100
AcDbLine
 10
336.9272134994999
 20
294.1978841852002
 30
0.0
 11
414.9272134995001
 21
294.1978841852001
 31
0.0
  0
LINE
  5
29F
330
1F
100
AcDbEntity
  8
LAY-10
  6
CONTINUOUS
 62
     7
100
AcDbLine
 10
334.9272134995
 20
278.1978841852001
 30
0.0
 11
414.9272134995001
 21
278.1978841852001
 31
0.0
  0
LINE
  5
2A0
330
1F
100
AcDbEntity
  8
LAY-10
  6
CONTINUOUS
 62
     7
100
AcDbLine
 10
335.9272134994998
 20
325.2378236860002
 30
0.0
 11
335.9272134994998
 21
295.1978841852001
 31
0.0
  0
ARC
  5
2A1
330
1F
100
AcDbEntity
  8
LAY-10
  6
CONTINUOUS
 62
     7
100
AcDbCircle
 10
336.9272134994999
 20
295.1978841852001
 30
0.0
 40
1.0
100
AcDbArc
 50
180.0
 51
270.0
  0
ARC
  5
2A2
330
1F
100
AcDbEntity
  8
LAY-10
  6
CONTINUOUS
 62
     7
100
AcDbCircle
 10
334.9272134995
 20
293.1978841852001
 30
0.0
 40
15.00000000000001
100
AcDbArc
 50
180.0
 51
270.0
  0
LINE
  5
2A3
330
1F
100
AcDbEntity
  8
LAY-10
  6
CENTER
 62
     2
100
AcDbLine
 10
555.9272949165
 20
267.9
 30
0.0
 11
555.9272949165
 21
305.4
 31
0.0
  0
LINE
  5
2A4
330
1F
100
AcDbEntity
  8
LAY-10
  6
CENTER
 62
     2
100
AcDbLine
 10
339.3544269989998
 20
582.7999999905
 30
0.0
 11
316.5
 21
582.7999999904998
 31
0.0
  0
LINE
  5
2A5
330
1F
100
AcDbEntity
  8
LAY-10
  6
CENTER
 62
     2
100
AcDbLine
 10
327.9272134994999
 20
594.2272134899999
 30
0.0
 11
327.9272134994999
 21
571.3727864910002
 31
0.0
  0
LINE
  5
2A6
330
1F
100
AcDbEntity
  8
LAY-10
  6
CENTER
 62
     2
100
AcDbLine
 10
327.9272134994999
 20
466.2272128823
 30
0.0
 11
327.9272134994999
 21
443.3727858833002
 31
0.0
  0
LINE
  5
2A7
330
1F
100
AcDbEntity
  8
LAY-10
  6
CENTER
 62
     2
100
AcDbLine
 10
339.3544269989998
 20
454.7999993828001
 30
0.0
 11
316.5
 21
454.7999993827999
 31
0.0
  0
LINE
  5
2A8
330
1F
100
AcDbEntity
  8
LAY-10
  6
CENTER
 62
     2
100
AcDbLine
 10
327.9272134994999
 20
325.237823686
 30
0.0
 11
327.9272134994999
 21
293.1978841852002
 31
0.0
  0
ARC
  5
2A9
330
1F
100
AcDbEntity
  8
LAY-10
  6
CENTER
 62
     2
100
AcDbCircle
 10
334.9272134994999
 20
293.1978841852002
 30
0.0
 40
7.000000000000002
100
AcDbArc
 50
180.0
 51
270.0
  0
LINE
  5
2AA
330
1F
100
AcDbEntity
  8
LAY-10
  6
CENTER
 62
     2
100
AcDbLine
 10
334.9272134994999
 20
286.1978841852003
 30
0.0
 11
571.8000000000001
 21
286.1978841852
 31
0.0
  0
DIMENSION
  5
2AC
330
1F
100
AcDbEntity
  8
LAY-20
  6
CONTINUOUS
 62
     4
100
AcDbDimension
  2
*D15
 10
599.9272134994999
 20
440.8000320762999
 30
0.0
 11
592.4272134994999
 21
518.8000068937
 31
0.0
 70
   160
  3
ISO-25
100
AcDbAlignedDimension
 13
554.9272195202001
 23
596.7999817110999
 33
0.0
 14
554.92721952028
 24
440.8000320762999
 34
0.0
 50
90.0
100
AcDbRotatedDimension
1001
ACAD
1000
DSTYLE
1002
{
1070
   270
1070
     2
1070
     6
1000
EX_BNORM
1070
     7
1000
EX_BNORM
1070
    41
1040
7.5
1070
    42
1040
4.5
1070
    44
1040
4.5
1070
    73
1070
     0
1070
    74
1070
     0
1070
    75
1070
     0
1070
    76
1070
     0
1070
    77
1070
     1
1070
    78
1070
     8
1070
   140
1040
9.3543312
1070
   147
1040
0.0
1070
   173
1070
     1
1070
   176
1070
     4
1070
   177
1070
     4
1070
   178
1070
     7
1070
   271
1070
     1
1070
   277
1070
     2
1070
   279
1070
     2
1070
   280
1070
     0
1070
   287
1070
     5
1070
   340
1005
2AB
1002
}
  0
DIMENSION
  5
2BA
330
1F
100
AcDbEntity
  8
LAY-20
  6
CONTINUOUS
 62
     4
100
AcDbDimension
  2
*D16
 10
569.9272074787
 20
376.237823686
 30
0.0
 11
444.9272104890999
 21
383.737823686
 31
0.0
 70
   160
  3
ISO-25
100
AcDbAlignedDimension
 13
319.9272134994999
 23
325.237823686
 33
0.0
 14
569.9272074787
 24
284.1978841852
 34
0.0
100
AcDbRotatedDimension
1001
ACAD
1000
DSTYLE
1002
{
1070
   270
1070
     2
1070
     6
1000
EX_BNORM
1070
     7
1000
EX_BNORM
1070
    41
1040
7.5
1070
    42
1040
4.5
1070
    44
1040
4.5
1070
    73
1070
     0
1070
    74
1070
     0
1070
    75
1070
     0
1070
    76
1070
     0
1070
    77
1070
     1
1070
    78
1070
     8
1070
   140
1040
9.3543312
1070
   147
1040
0.0
1070
   173
1070
     1
1070
   176
1070
     4
1070
   177
1070
     4
1070
   178
1070
     7
1070
   271
1070
     1
1070
   277
1070
     2
1070
   279
1070
     2
1070
   280
1070
     0
1070
   287
1070
     5
1070
   340
1005
2AB
1002
}
  0
DIMENSION
  5
2C7
330
1F
100
AcDbEntity
  8
LAY-20
  6
CONTINUOUS
 62
     4
100
AcDbDimension
  2
*D17
 10
319.9272134994999
 20
355.237823686
 30
0.0
 11
367.4272134995
 21
362.737823686
 31
0.0
 70
   160
  3
ISO-25
100
AcDbAlignedDimension
 13
414.9272134994999
 23
294.1978100737
 33
0.0
 14
319.9272134994999
 24
355.237823686
 34
0.0
100
AcDbRotatedDimension
1001
ACAD
1000
DSTYLE
1002
{
1070
   270
1070
     2
1070
     6
1000
EX_BNORM
1070
     7
1000
EX_BNORM
1070
    41
1040
7.5
1070
    42
1040
4.5
1070
    44
1040
4.5
1070
    73
1070
     0
1070
    74
1070
     0
1070
    75
1070
     0
1070
    76
1070
     1
1070
    77
1070
     1
1070
    78
1070
     8
1070
   140
1040
9.3543312
1070
   147
1040
0.0
1070
   173
1070
     1
1070
   176
1070
     4
1070
   177
1070
     4
1070
   178
1070
     7
1070
   271
1070
     1
1070
   277
1070
     2
1070
   279
1070
     2
1070
   280
1070
     0
1070
   287
1070
     5
1070
   340
1005
2AB
1002
}
  0
DIMENSION
  5
2D3
330
1F
100
AcDbEntity
  8
LAY-20
  6
CONTINUOUS
 62
     4
100
AcDbDimension
  2
*D18
 10
569.9272074787
 20
355.237823686
 30
0.0
 11
492.4272104890999
 21
362.737823686
 31
0.0
 70
   160
  3
ISO-25
100
AcDbAlignedDimension
 13
414.9272134994999
 23
355.237823686
 33
0.0
 14
569.9272074787
 24
355.237823686
 34
0.0
100
AcDbRotatedDimension
1001
ACAD
1000
DSTYLE
1002
{
1070
   270
1070
     2
1070
     6
1000
EX_BNORM
1070
     7
1000
EX_BNORM
1070
    41
1040
7.5
1070
    42
1040
0.0
1070
    44
1040
0.0
1070
    73
1070
     0
1070
    74
1070
     0
1070
    75
1070
     1
1070
    76
1070
     1
1070
    77
1070
     1
1070
    78
1070
     8
1070
   140
1040
9.3543312
1070
   147
1040
0.0
1070
   173
1070
     1
1070
   176
1070
     4
1070
   177
1070
     4
1070
   178
1070
     7
1070
   271
1070
     1
1070
   277
1070
     2
1070
   279
1070
     2
1070
   280
1070
     0
1070
   287
1070
     5
1070
   340
1005
2AB
1002
}
  0
DIMENSION
  5
2DE
330
1F
100
AcDbEntity
  8
LAY-20
  6
CONTINUOUS
 62
     4
100
AcDbDimension
  2
*D19
 10
289.9272134994999
 20
278.1978841852
 30
0.0
 11
282.4272134994999
 21
301.7178539356
 31
0.0
 70
   160
  3
ISO-25
100
AcDbAlignedDimension
 13
319.9272134994999
 23
325.237823686
 33
0.0
 14
334.9272134994999
 24
278.1978841852
 34
0.0
 50
90.0
100
AcDbRotatedDimension
1001
ACAD
1000
DSTYLE
1002
{
1070
   270
1070
     2
1070
     6
1000
EX_BNORM
1070
     7
1000
EX_BNORM
1070
    41
1040
7.5
1070
    42
1040
4.5
1070
    44
1040
4.5
1070
    73
1070
     0
1070
    74
1070
     0
1070
    75
1070
     0
1070
    76
1070
     0
1070
    77
1070
     1
1070
    78
1070
     8
1070
   140
1040
9.3543312
1070
   147
1040
0.0
1070
   173
1070
     1
1070
   176
1070
     4
1070
   177
1070
     4
1070
   178
1070
     7
1070
   271
1070
     1
1070
   277
1070
     2
1070
   279
1070
     2
1070
   280
1070
     0
1070
   287
1070
     5
1070
   340
1005
2AB
1002
}
  0
DIMENSION
  5
2EB
330
1F
100
AcDbEntity
  8
LAY-20
  6
CONTINUOUS
 62
     4
100
AcDbDimension
  2
*D20
 10
599.9272134994999
 20
271.6978841852
 30
0.0
 11
592.4272134994999
 21
286.1978841852
 31
0.0
 70
   160
  3
ISO-25
100
AcDbAlignedDimension
 13
566.0484677134
 23
300.6978841852
 33
0.0
 14
566.0484677134
 24
271.6978841852
 34
0.0
 50
90.0
100
AcDbRotatedDimension
1001
ACAD
1000
DSTYLE
1002
{
1070
   270
1070
     2
1070
     6
1000
EX_BNORM
1070
     7
1000
EX_BNORM
1070
    41
1040
7.5
1070
    42
1040
4.5
1070
    44
1040
4.5
1070
    73
1070
     0
1070
    74
1070
     0
1070
    75
1070
     0
1070
    76
1070
     0
1070
    77
1070
     1
1070
    78
1070
     8
1070
   140
1040
9.3543312
1070
   147
1040
0.0
1070
   173
1070
     1
1070
   176
1070
     4
1070
   177
1070
     4
1070
   178
1070
     7
1070
   271
1070
     1
1070
   277
1070
     2
1070
   279
1070
     2
1070
   280
1070
     0
1070
   287
1070
     5
1070
   340
1005
2AB
1002
}
  0
DIMENSION
  5
2F8
330
1F
100
AcDbEntity
  8
LAY-20
  6
CONTINUOUS
 62
     4
100
AcDbDimension
  2
*D21
 10
289.9272134995
 20
590.7999999905
 30
0.0
 11
282.4272134995002
 21
613.2999999904999
 31
0.0
 70
   160
  1
%%c<>
  3
ISO-25
100
AcDbAlignedDimension
 13
327.9272134995
 23
574.7999999905
 33
0.0
 14
327.9272134995
 24
590.7999999905
 34
0.0
 50
90.0
100
AcDbRotatedDimension
1001
ACAD
1000
DSTYLE
1002
{
1070
   270
1070
     2
1070
     6
1000
EX_BNORM
1070
     7
1000
EX_BNORM
1070
    41
1040
7.5
1070
    42
1040
4.5
1070
    44
1040
4.5
1070
    73
1070
     0
1070
    74
1070
     0
1070
    75
1070
     0
1070
    76
1070
     0
1070
    77
1070
     1
1070
    78
1070
     8
1070
   140
1040
9.3543312
1070
   147
1040
0.0
1070
   173
1070
     1
1070
   176
1070
     4
1070
   177
1070
     4
1070
   178
1070
     7
1070
   271
1070
     1
1070
   277
1070
     2
1070
   279
1070
     2
1070
   280
1070
     2
1070
   287
1070
     5
1070
   340
1005
2AB
1002
}
  0
DIMENSION
  5
305
330
1F
100
AcDbEntity
  8
LAY-20
  6
CONTINUOUS
 62
     4
100
AcDbDimension
  2
*D22
 10
498.9999999999999
 20
298.19785188928
 30
0.0
 11
491.5000000000001
 21
320.6978518892799
 31
0.0
 70
   160
  1
%%c<>
  3
ISO-25
100
AcDbAlignedDimension
 13
498.9999284223
 23
274.19792400058
 33
0.0
 14
499.0000584883099
 24
298.19785188928
 34
0.0
 50
90.0
100
AcDbRotatedDimension
1001
ACAD
1000
DSTYLE
1002
{
1070
   270
1070
     2
1070
     6
1000
EX_BNORM
1070
     7
1000
EX_BNORM
1070
    41
1040
7.5
1070
    42
1040
0.0
1070
    44
1040
0.0
1070
    73
1070
     0
1070
    74
1070
     0
1070
    75
1070
     0
1070
    76
1070
     0
1070
    77
1070
     1
1070
    78
1070
     8
1070
   140
1040
9.3543312
1070
   147
1040
0.0
1070
   173
1070
     1
1070
   176
1070
     4
1070
   177
1070
     4
1070
   178
1070
     7
1070
   271
1070
     1
1070
   277
1070
     2
1070
   279
1070
     2
1070
   280
1070
     2
1070
   287
1070
     5
1070
   340
1005
2AB
1002
}
  0
LINE
  5
312
330
1F
100
AcDbEntity
  8
LAY-255
  6
CONTINUOUS
 62
     7
100
AcDbLine
 10
1155.0
 20
66.0
 30
0.0
 11
855.0
 21
66.0
 31
0.0
  0
LINE
  5
313
330
1F
100
AcDbEntity
  8
LAY-255
  6
CONTINUOUS
 62
     7
100
AcDbLine
 10
866.4000000000001
 20
48.0
 30
0.0
 11
890.4000000000001
 21
63.0
 31
0.0
  0
LINE
  5
314
330
1F
100
AcDbEntity
  8
LAY-255
  6
CONTINUOUS
 62
     7
100
AcDbLine
 10
890.4000000000001
 20
63.0
 30
0.0
 11
914.4000000000001
 21
48.0
 31
0.0
  0
LINE
  5
315
330
1F
100
AcDbEntity
  8
LAY-255
  6
CONTINUOUS
 62
     7
100
AcDbLine
 10
914.4000000000001
 20
48.0
 30
0.0
 11
890.4000000000001
 21
33.0
 31
0.0
  0
LINE
  5
316
330
1F
100
AcDbEntity
  8
LAY-255
  6
CONTINUOUS
 62
     7
100
AcDbLine
 10
890.4000000000001
 20
33.0
 30
0.0
 11
866.4000000000001
 21
48.0
 31
0.0
  0
LINE
  5
317
330
1F
100
AcDbEntity
  8
LAY-255
  6
CONTINUOUS
 62
     7
100
AcDbLine
 10
15.0
 20
30.0
 30
0.0
 11
1155.0
 21
30.0
 31
0.0
  0
LINE
  5
318
330
1F
100
AcDbEntity
  8
LAY-255
  6
CONTINUOUS
 62
     7
100
AcDbLine
 10
15.0
 20
840.0
 30
0.0
 11
1155.0
 21
840.0
 31
0.0
  0
LINE
  5
319
330
1F
100
AcDbEntity
  8
LAY-255
  6
CONTINUOUS
 62
     7
100
AcDbLine
 10
15.0
 20
30.0
 30
0.0
 11
15.0
 21
840.0
 31
0.0
  0
LINE
  5
31A
330
1F
100
AcDbEntity
  8
LAY-255
  6
CONTINUOUS
 62
     7
100
AcDbLine
 10
1155.0
 20
30.0
 30
0.0
 11
1155.0
 21
840.0
 31
0.0
  0
LINE
  5
31B
330
1F
100
AcDbEntity
  8
LAY-255
  6
CONTINUOUS
 62
     4
100
AcDbLine
 10
855.0
 20
84.0
 30
0.0
 11
1155.0
 21
84.0
 31
0.0
  0
LINE
  5
31C
330
1F
100
AcDbEntity
  8
LAY-255
  6
CONTINUOUS
 62
     7
100
AcDbLine
 10
855.0
 20
30.0
 30
0.0
 11
855.0
 21
201.0
 31
0.0
  0
LINE
  5
31D
330
1F
100
AcDbEntity
  8
LAY-255
  6
CONTINUOUS
 62
     4
100
AcDbLine
 10
1005.0
 20
84.0
 30
0.0
 11
1005.0
 21
66.0
 31
0.0
  0
LINE
  5
31E
330
1F
100
AcDbEntity
  8
LAY-255
  6
CONTINUOUS
 62
     7
100
AcDbLine
 10
1155.0
 20
201.0
 30
0.0
 11
855.0
 21
201.0
 31
0.0
  0
LINE
  5
31F
330
1F
100
AcDbEntity
  8
LAY-255
  6
CONTINUOUS
 62
     4
100
AcDbLine
 10
1149.0
 20
165.0
 30
0.0
 11
861.0
 21
165.0
 31
0.0
  0
LINE
  5
320
330
1F
100
AcDbEntity
  8
LAY-255
  6
CONTINUOUS
 62
     4
100
AcDbLine
 10
1149.0
 20
183.0
 30
0.0
 11
861.0
 21
183.0
 31
0.0
  0
POINT
  5
321
330
1F
100
AcDbEntity
  8
LAY-255
  6
CONTINUOUS
 62
     7
100
AcDbPoint
 10
867.0
 20
150.0
 30
0.0
  0
POINT
  5
322
330
1F
100
AcDbEntity
  8
LAY-255
  6
CONTINUOUS
 62
     7
100
AcDbPoint
 10
900.0
 20
168.0
 30
0.0
  0
POINT
  5
323
330
1F
100
AcDbEntity
  8
LAY-255
  6
CONTINUOUS
 62
     7
100
AcDbPoint
 10
900.0
 20
186.0
 30
0.0
  0
POINT
  5
324
330
1F
100
AcDbEntity
  8
LAY-255
  6
CONTINUOUS
 62
     7
100
AcDbPoint
 10
867.0
 20
120.0
 30
0.0
  0
POINT
  5
325
330
1F
100
AcDbEntity
  8
LAY-255
  6
CONTINUOUS
 62
     7
100
AcDbPoint
 10
867.0
 20
135.0
 30
0.0
  0
POINT
  5
326
330
1F
100
AcDbEntity
  8
LAY-255
  6
CONTINUOUS
 62
     7
100
AcDbPoint
 10
867.0
 20
105.0
 30
0.0
  0
POINT
  5
327
330
1F
100
AcDbEntity
  8
LAY-255
  6
CONTINUOUS
 62
     7
100
AcDbPoint
 10
867.0
 20
89.99999999999996
 30
0.0
  0
TEXT
  5
328
330
1F
100
AcDbEntity
  8
LAY-255
  6
CONTINUOUS
 62
     7
100
AcDbText
 10
924.415136826172
 20
46.63125
 30
0.0
 40
15.46875
  1
福西鋳物株式会社
 41
1.342692141742901
  7
EXCADSTD
100
AcDbText
  0
TEXT
  5
329
330
1F
100
AcDbEntity
  8
LAY-255
  6
CONTINUOUS
 62
     7
100
AcDbText
 10
925.528125
 20
35.94375
 30
0.0
 40
5.15625
  1
ＦＵＫＵＮＩＳＨＩ
 41
1.204799226045263
  7
EXCADSTD
100
AcDbText
  0
TEXT
  5
32A
330
1F
100
AcDbEntity
  8
LAY-255
  6
CONTINUOUS
 62
     7
100
AcDbText
 10
998.1575892857143
 20
35.94375
 30
0.0
 40
5.15625
  1
ＦＯＵＮＤＲＹ
 41
1.243252752978497
  7
EXCADSTD
100
AcDbText
  0
TEXT
  5
32B
330
1F
100
AcDbEntity
  8
LAY-255
  6
CONTINUOUS
 62
     7
100
AcDbText
 10
1055.983774651442
 20
35.94375
 30
0.0
 40
5.15625
  1
ＣＯ.,ＬＴＤ.
 41
1.243831271314936
  7
EXCADSTD
100
AcDbText
  0
TEXT
  5
32C
330
1F
100
AcDbEntity
  8
LAY-255
  6
CONTINUOUS
 62
     7
100
AcDbText
 10
882.1031250000001
 20
41.15625
 30
0.0
 40
15.46875
  1
S
 41
0.7582677563636363
  7
EXCADSTD
100
AcDbText
  0
TEXT
  5
32D
330
1F
100
AcDbEntity
  8
LAY-255
  6
CONTINUOUS
 62
     7
100
AcDbText
 10
891.3140625000001
 20
41.24823113208
 30
0.0
 40
15.46875
  1
F
 41
0.7440945272727273
  7
EXCADSTD
100
AcDbText
  0
TEXT
  5
32E
330
1F
100
AcDbEntity
  8
LAY-255
  6
CONTINUOUS
 62
     7
100
AcDbText
 10
1011.31640625
 20
73.26562499999997
 30
0.0
 40
7.734375
  1
縮尺
 41
1.080708718181818
  7
EXCADSTD
100
AcDbText
  0
TEXT
  5
32F
330
1F
100
AcDbEntity
  8
LAY-255
  6
CONTINUOUS
 62
     7
100
AcDbText
 10
861.796875
 20
169.6875
 30
0.0
 40
10.3125
  1
型式
 41
1.056348480681818
  7
EXCADSTD
100
AcDbText
  0
TEXT
  5
330
330
1F
100
AcDbEntity
  8
LAY-255
  6
CONTINUOUS
 62
     7
100
AcDbText
 10
862.265625
 20
187.6875
 30
0.0
 40
10.3125
  1
品名
 41
0.978838634090909
  7
EXCADSTD
100
AcDbText
  0
TEXT
  5
331
330
1F
100
AcDbEntity
  8
LAY-255
  6
CONTINUOUS
 62
     7
100
AcDbText
 10
861.45703125
 20
73.26562499999997
 30
0.0
 40
7.734375
  1
作成日
 41
1.000629973818182
  7
EXCADSTD
100
AcDbText
  0
TEXT
  5
332
330
1F
100
AcDbEntity
  8
LAY-255
  6
CONTINUOUS
 62
     7
100
AcDbText
 10
1044.84375
 20
70.68749999999997
 30
0.0
 40
10.3125
  1
１：３
 41
0.8844094952727272
  7
EXCADSTD
100
AcDbText
  0
TEXT
  5
333
330
1F
100
AcDbEntity
  8
LAY-255
  6
CONTINUOUS
 62
     7
100
AcDbText
 10
900.9375
 20
187.6875
 30
0.0
 40
10.3125
  1
足掛金物
 41
1.026516959893048
  7
EXCADSTD
100
AcDbText
  0
TEXT
  5
334
330
1F
100
AcDbEntity
  8
LAY-255
  6
CONTINUOUS
 62
     7
100
AcDbText
 10
867.515625
 20
136.6875
 30
0.0
 40
10.3125
  1
仕上：樹脂被膜処理
 41
1.023073910011508
  7
EXCADSTD
100
AcDbText
  0
TEXT
  5
335
330
1F
100
AcDbEntity
  8
LAY-255
  6
CONTINUOUS
 62
     7
100
AcDbText
 10
867.421875
 20
151.6875
 30
0.0
 40
10.3125
  1
材質：冷間圧延用炭素鋼線（ＳＷＣＨ１２Ｒ）
 41
0.9837888427807484
  7
EXCADSTD
100
AcDbText
  0
TEXT
  5
336
330
1F
100
AcDbEntity
  8
LAY-255
  6
CONTINUOUS
 62
     7
100
AcDbText
 10
903.84375
 20
70.68749999999997
 30
0.0
 40
10.3125
  1
１１／０１／２８
 41
0.9642857649350649
  7
EXCADSTD
100
AcDbText
  0
TEXT
  5
337
330
1F
100
AcDbEntity
  8
LAY-255
  6
CONTINUOUS
 62
     7
100
AcDbText
 10
902.25
 20
169.6875
 30
0.0
 40
10.3125
  1
ＳＰ１６－１５２５型
 41
1.003802844421487
  7
EXCADSTD
100
AcDbText
  0
ENDSEC
  0
SECTION
  2
OBJECTS
  0
DICTIONARY
  5
C
330
0
100
AcDbDictionary
  3
ACAD_GROUP
350
D
  3
ACAD_LAYOUT
350
1A
  3
ACAD_MATERIAL
350
43
  3
ACAD_MLEADERSTYLE
350
6B
  3
ACAD_MLINESTYLE
350
17
  3
ACAD_PLOTSETTINGS
350
19
  3
ACAD_SCALELIST
350
47
  3
ACAD_VISUALSTYLE
350
2A
  3
ACDBHEADERROUNDTRIPXREC
350
338
  3
ACDBVARIABLEDICTIONARY
350
359
  0
DICTIONARY
  5
364
330
8
100
AcDbDictionary
280
     1
  3
ACAD_XREC_ROUNDTRIP
360
365
  0
DICTIONARY
  5
D
102
{ACAD_REACTORS
330
C
102
}
330
C
100
AcDbDictionary
  0
DICTIONARY
  5
1A
102
{ACAD_REACTORS
330
C
102
}
330
C
100
AcDbDictionary
  0
DICTIONARY
  5
43
102
{ACAD_REACTORS
330
C
102
}
330
C
100
AcDbDictionary
  3
BYBLOCK
350
45
  3
BYLAYER
350
44
  3
GLOBAL
350
46
  0
DICTIONARY
  5
6B
102
{ACAD_REACTORS
330
C
102
}
330
C
100
AcDbDictionary
  3
STANDARD
350
6C
  0
DICTIONARY
  5
17
102
{ACAD_REACTORS
330
C
102
}
330
C
100
AcDbDictionary
  3
STANDARD
350
18
  0
DICTIONARY
  5
19
102
{ACAD_REACTORS
330
C
102
}
330
C
100
AcDbDictionary
  0
DICTIONARY
  5
47
102
{ACAD_REACTORS
330
C
102
}
330
C
100
AcDbDictionary
  3
A0
350
48
  3
A1
350
49
  3
A2
350
4A
  3
A3
350
4B
  3
A4
350
4C
  3
A5
350
4D
  3
A6
350
4E
  3
A7
350
4F
  3
A8
350
50
  3
A9
350
51
  3
B0
350
52
  3
B1
350
53
  3
B2
350
54
  3
B3
350
55
  3
B4
350
56
  3
B5
350
57
  3
B6
350
58
  3
B7
350
59
  3
B8
350
5A
  3
B9
350
5B
  3
C0
350
5C
  3
C1
350
5D
  3
C2
350
5E
  3
C3
350
5F
  3
C4
350
60
  3
C5
350
61
  3
C6
350
62
  3
C7
350
63
  3
C8
350
64
  3
C9
350
65
  3
D0
350
66
  3
D1
350
67
  3
D2
350
68
  0
DICTIONARY
  5
2A
102
{ACAD_REACTORS
330
C
102
}
330
C
100
AcDbDictionary
  3
2DWIREFRAME
350
2F
  3
BASIC
350
32
  3
BRIGHTEN
350
36
  3
COLORCHANGE
350
3A
  3
CONCEPTUAL
350
34
  3
DIM
350
35
  3
EDGECOLOROFF
350
3D
  3
FACEPATTERN
350
39
  3
FLAT
350
2B
  3
FLATWITHEDGES
350
2C
  3
GOURAUD
350
2D
  3
GOURAUDWITHEDGES
350
2E
  3
HIDDEN
350
31
  3
JITTEROFF
350
3B
  3
LINEPATTERN
350
38
  3
OVERHANGOFF
350
3C
  3
REALISTIC
350
33
  3
SHADED
350
42
  3
SHADED_WITH_EDGES
350
41
  3
SHADES_OF_GRAY
350
3E
  3
SKETCHY
350
3F
  3
THICKEN
350
37
  3
WIREFRAME
350
30
  3
X-RAY
350
40
  0
DICTIONARY
  5
338
102
{ACAD_REACTORS
330
C
102
}
330
C
100
AcDbDictionary
  3
CEPSNID
350
342
  3
CEPSNTYPE
350
341
  3
DIMSTYLEDATA
350
358
  3
FINGERPRINTGUID
350
343
  3
HYPERLINKBASE
350
33B
  3
INSUNITS
350
340
  3
LAYOUTDICT
350
33D
  3
LWETCUNION
350
33F
  3
PLOTSETDICT
350
33E
  3
PSVPSCALE
350
345
  3
PUCSBASE
350
348
  3
PUCSORGBACK
350
34E
  3
PUCSORGBOTTOM
350
34A
  3
PUCSORGFRONT
350
34D
  3
PUCSORGLEFT
350
34B
  3
PUCSORGRIGHT
350
34C
  3
PUCSORGTOP
350
349
  3
PUCSORTHOREF
350
346
  3
PUCSORTHOVIEW
350
347
  3
STYLESHEET
350
33C
  3
TSTACKALIGN
350
339
  3
TSTACKSIZE
350
33A
  3
UCSBASE
350
351
  3
UCSORGBACK
350
357
  3
UCSORGBOTTOM
350
353
  3
UCSORGFRONT
350
356
  3
UCSORGLEFT
350
354
  3
UCSORGRIGHT
350
355
  3
UCSORGTOP
350
352
  3
UCSORTHOREF
350
34F
  3
UCSORTHOVIEW
350
350
  3
VERSIONGUID
350
344
  0
DICTIONARY
  5
359
102
{ACAD_REACTORS
330
C
102
}
330
C
100
AcDbDictionary
  3
CANNOSCALE
350
366
  3
CENTEREXE
350
360
  3
CENTERLTYPEFILE
350
361
  3
CMLEADERSTYLE
350
35B
  3
CTABLESTYLE
350
35A
  3
DIMASSOC
350
362
  3
HIDETEXT
350
363
  3
MSLTSCALE
350
367
  3
PSOLHEIGHT
350
35D
  3
PSOLWIDTH
350
35C
  0
XRECORD
  5
365
102
{ACAD_REACTORS
330
364
102
}
330
364
100
AcDbXrecord
102
VTR_0.000_0.000_1.000_1.000_VISUALSTYLE
340
2F
102
VTR_0.000_0.000_1.000_1.000_GRIDDISPLAY
 70
     3
102
VTR_0.000_0.000_1.000_1.000_GRIDMAJOR
 70
     5
102
VTR_0.000_0.000_1.000_1.000_DEFAULTLIGHTING
280
     1
102
VTR_0.000_0.000_1.000_1.000_DEFAULTLIGHTINGTYPE
 70
     1
102
VTR_0.000_0.000_1.000_1.000_BRIGHTNESS
141
0.0
102
VTR_0.000_0.000_1.000_1.000_CONTRAST
142
0.0
  0
MATERIAL
  5
45
102
{ACAD_REACTORS
330
43
102
}
102
{ACAD_XDICTIONARY
360
36A
102
}
330
43
100
AcDbMaterial
  1
BYBLOCK
  0
MATERIAL
  5
44
102
{ACAD_REACTORS
330
43
102
}
102
{ACAD_XDICTIONARY
360
368
102
}
330
43
100
AcDbMaterial
  1
BYLAYER
  0
MATERIAL
  5
46
102
{ACAD_REACTORS
330
43
102
}
102
{ACAD_XDICTIONARY
360
36C
102
}
330
43
100
AcDbMaterial
  1
GLOBAL
  0
ACAD_PROXY_OBJECT
  5
6C
102
{ACAD_REACTORS
330
6B
102
}
330
6B
100
AcDbProxyObject
 90
      499
 91
      505
 93
      610
310
40901902A4063FBFFFFFE0000000000000020400000000000020404214DD185B99185C990000000000000104090141901A00000000000004100000000000000041025764000000000000039000
340
14
340
0
340
11
340
0
 94
        0
1001
ACAD_MLEADERVER
1070
     2
  0
MLINESTYLE
  5
18
102
{ACAD_REACTORS
330
17
102
}
330
17
100
AcDbMlineStyle
  2
Standard
 70
     0
  3

 62
   256
 51
90.0
 52
90.0
 71
     2
 49
0.5
 62
   256
  6
BYLAYER
 49
-0.5
 62
   256
  6
BYLAYER
  0
ACAD_PROXY_OBJECT
  5
48
102
{ACAD_REACTORS
330
47
102
}
330
47
100
AcDbProxyObject
 90
      499
 91
      503
 93
       41
310
903313A31580
  0
ACAD_PROXY_OBJECT
  5
49
102
{ACAD_REACTORS
330
47
102
}
330
47
100
AcDbProxyObject
 90
      499
 91
      503
 93
      105
310
903313A324000000000000004000
  0
ACAD_PROXY_OBJECT
  5
4A
102
{ACAD_REACTORS
330
47
102
}
330
47
100
AcDbProxyObject
 90
      499
 91
      503
 93
      105
310
903313A344000000000000104000
  0
ACAD_PROXY_OBJECT
  5
4B
102
{ACAD_REACTORS
330
47
102
}
330
47
100
AcDbProxyObject
 90
      499
 91
      503
 93
      105
310
903313A354000000000000144000
  0
ACAD_PROXY_OBJECT
  5
4C
102
{ACAD_REACTORS
330
47
102
}
330
47
100
AcDbProxyObject
 90
      499
 91
      503
 93
      105
310
903313A384000000000000204000
  0
ACAD_PROXY_OBJECT
  5
4D
102
{ACAD_REACTORS
330
47
102
}
330
47
100
AcDbProxyObject
 90
      499
 91
      503
 93
      113
310
904313A31304000000000000244000
  0
ACAD_PROXY_OBJECT
  5
4E
102
{ACAD_REACTORS
330
47
102
}
330
47
100
AcDbProxyObject
 90
      499
 91
      503
 93
      113
310
904313A31364000000000000304000
  0
ACAD_PROXY_OBJECT
  5
4F
102
{ACAD_REACTORS
330
47
102
}
330
47
100
AcDbProxyObject
 90
      499
 91
      503
 93
      113
310
904313A32304000000000000344000
  0
ACAD_PROXY_OBJECT
  5
50
102
{ACAD_REACTORS
330
47
102
}
330
47
100
AcDbProxyObject
 90
      499
 91
      503
 93
      113
310
904313A333040000000000003E4000
  0
ACAD_PROXY_OBJECT
  5
51
102
{ACAD_REACTORS
330
47
102
}
330
47
100
AcDbProxyObject
 90
      499
 91
      503
 93
      113
310
904313A34304000000000000444000
  0
ACAD_PROXY_OBJECT
  5
52
102
{ACAD_REACTORS
330
47
102
}
330
47
100
AcDbProxyObject
 90
      499
 91
      503
 93
      113
310
904313A35304000000000000494000
  0
ACAD_PROXY_OBJECT
  5
53
102
{ACAD_REACTORS
330
47
102
}
330
47
100
AcDbProxyObject
 90
      499
 91
      503
 93
      121
310
905313A3130304000000000000594000
  0
ACAD_PROXY_OBJECT
  5
54
102
{ACAD_REACTORS
330
47
102
}
330
47
100
AcDbProxyObject
 90
      499
 91
      503
 93
      105
310
903323A310000000000000010100
  0
ACAD_PROXY_OBJECT
  5
55
102
{ACAD_REACTORS
330
47
102
}
330
47
100
AcDbProxyObject
 90
      499
 91
      503
 93
      105
310
903343A310000000000000410100
  0
ACAD_PROXY_OBJECT
  5
56
102
{ACAD_REACTORS
330
47
102
}
330
47
100
AcDbProxyObject
 90
      499
 91
      503
 93
      105
310
903383A310000000000000810100
  0
ACAD_PROXY_OBJECT
  5
57
102
{ACAD_REACTORS
330
47
102
}
330
47
100
AcDbProxyObject
 90
      499
 91
      503
 93
      113
310
90431303A310000000000000910100
  0
ACAD_PROXY_OBJECT
  5
58
102
{ACAD_REACTORS
330
47
102
}
330
47
100
AcDbProxyObject
 90
      499
 91
      503
 93
      121
310
9053130303A310000000000001650100
  0
ACAD_PROXY_OBJECT
  5
59
102
{ACAD_REACTORS
330
47
102
}
330
47
100
AcDbProxyObject
 90
      499
 91
      503
 93
      257
310
90E312F31323822203D2031272D3022000000000000200FC000000000000284000
  0
ACAD_PROXY_OBJECT
  5
5A
102
{ACAD_REACTORS
330
47
102
}
330
47
100
AcDbProxyObject
 90
      499
 91
      503
 93
      249
310
90D312F363422203D2031272D3022000000000000240FC000000000000284000
  0
ACAD_PROXY_OBJECT
  5
5B
102
{ACAD_REACTORS
330
47
102
}
330
47
100
AcDbProxyObject
 90
      499
 91
      503
 93
      249
310
90D312F333222203D2031272D3022000000000000280FC000000000000284000
  0
ACAD_PROXY_OBJECT
  5
5C
102
{ACAD_REACTORS
330
47
102
}
330
47
100
AcDbProxyObject
 90
      499
 91
      503
 93
      249
310
90D312F313622203D2031272D30220000000000002C0FC000000000000284000
  0
ACAD_PROXY_OBJECT
  5
5D
102
{ACAD_REACTORS
330
47
102
}
330
47
100
AcDbProxyObject
 90
      499
 91
      503
 93
      249
310
90D332F333222203D2031272D30220000000000002E0FC000000000000284000
  0
ACAD_PROXY_OBJECT
  5
5E
102
{ACAD_REACTORS
330
47
102
}
330
47
100
AcDbProxyObject
 90
      499
 91
      503
 93
      241
310
90C312F3822203D2031272D3022000000000000300FC000000000000284000
  0
ACAD_PROXY_OBJECT
  5
5F
102
{ACAD_REACTORS
330
47
102
}
330
47
100
AcDbProxyObject
 90
      499
 91
      503
 93
      249
310
90D332F313622203D2031272D3022000000000000320FC000000000000284000
  0
ACAD_PROXY_OBJECT
  5
60
102
{ACAD_REACTORS
330
47
102
}
330
47
100
AcDbProxyObject
 90
      499
 91
      503
 93
      241
310
90C312F3422203D2031272D3022000000000000340FC000000000000284000
  0
ACAD_PROXY_OBJECT
  5
61
102
{ACAD_REACTORS
330
47
102
}
330
47
100
AcDbProxyObject
 90
      499
 91
      503
 93
      241
310
90C332F3822203D2031272D3022000000000000360FC000000000000284000
  0
ACAD_PROXY_OBJECT
  5
62
102
{ACAD_REACTORS
330
47
102
}
330
47
100
AcDbProxyObject
 90
      499
 91
      503
 93
      241
310
90C312F3222203D2031272D3022000000000000380FC000000000000284000
  0
ACAD_PROXY_OBJECT
  5
63
102
{ACAD_REACTORS
330
47
102
}
330
47
100
AcDbProxyObject
 90
      499
 91
      503
 93
      241
310
90C332F3422203D2031272D30220000000000003A0FC000000000000284000
  0
ACAD_PROXY_OBJECT
  5
64
102
{ACAD_REACTORS
330
47
102
}
330
47
100
AcDbProxyObject
 90
      499
 91
      503
 93
      161
310
90A3122203D2031272D30224000000000000284000
  0
ACAD_PROXY_OBJECT
  5
65
102
{ACAD_REACTORS
330
47
102
}
330
47
100
AcDbProxyObject
 90
      499
 91
      503
 93
      257
310
90E312D312F3222203D2031272D30220000000000003E0FC000000000000284000
  0
ACAD_PROXY_OBJECT
  5
66
102
{ACAD_REACTORS
330
47
102
}
330
47
100
AcDbProxyObject
 90
      499
 91
      503
 93
      225
310
90A3322203D2031272D302200000000000002100000000000000284000
  0
ACAD_PROXY_OBJECT
  5
67
102
{ACAD_REACTORS
330
47
102
}
330
47
100
AcDbProxyObject
 90
      499
 91
      503
 93
      225
310
90A3622203D2031272D302200000000000006100000000000000284000
  0
ACAD_PROXY_OBJECT
  5
68
102
{ACAD_REACTORS
330
47
102
}
330
47
100
AcDbProxyObject
 90
      499
 91
      503
 93
      249
310
90D31272D3022203D2031272D30220000000000000A100000000000000284000
  0
ACAD_PROXY_OBJECT
  5
2F
102
{ACAD_REACTORS
330
2A
102
}
330
2A
100
AcDbProxyObject
 90
      499
 91
      501
 93
      436
310
42CC9915DA5C99599C985B595049028333333333333E33F0000000000000F90107901411070040501600405405064090741402480A0340
1001
ACAD
1000
AcDbSavedByObjectVersion
1070
     0
  0
ACAD_PROXY_OBJECT
  5
32
102
{ACAD_REACTORS
330
2A
102
}
330
2A
100
AcDbProxyObject
 90
      499
 91
      501
 93
      388
310
4150985CDA58D07406404333333333333E33F0000000000000F90107A41107004050150841D405064090741402480A0350
1001
ACAD
1000
AcDbSavedByObjectVersion
1070
     0
  0
ACAD_PROXY_OBJECT
  5
36
102
{ACAD_REACTORS
330
2A
102
}
330
2A
100
AcDbProxyObject
 90
      499
 91
      501
 93
      428
310
42109C9A59DA1D195B90C409028333333333333E33F0000000000000F9010790141107004050150841D405064090741402480A029950
1001
ACAD
1000
AcDbSavedByObjectVersion
1070
     0
  0
ACAD_PROXY_OBJECT
  5
3A
102
{ACAD_REACTORS
330
2A
102
}
330
2A
100
AcDbProxyObject
 90
      499
 91
      501
 93
      452
310
42D0DBDB1BDC90DA185B99D95104090240C333333333333E33F0000000000000F90108901411070040501508421405064090741402480A0350
1001
ACAD
1000
AcDbSavedByObjectVersion
1070
     0
  0
ACAD_PROXY_OBJECT
  5
34
102
{ACAD_REACTORS
330
2A
102
}
330
2A
100
AcDbProxyObject
 90
      499
 91
      501
 93
      500
310
4290DBDB98D95C1D1D585B10940D028333333333333E33F0000000000000F90107902409070040501000000000018199010841D405064090740C02480A0340
1001
ACAD
1000
AcDbSavedByObjectVersion
1070
     0
  0
ACAD_PROXY_OBJECT
  5
35
102
{ACAD_REACTORS
330
2A
102
}
330
2A
100
AcDbProxyObject
 90
      499
 91
      501
 93
      412
310
40D11A5B50B409028333333333333E33F0000000000000F9010790141107004050150841D405064090741402480A02677FFFFFD0
1001
ACAD
1000
AcDbSavedByObjectVersion
1070
     0
  0
ACAD_PROXY_OBJECT
  5
3D
102
{ACAD_REACTORS
330
2A
102
}
330
2A
100
AcDbProxyObject
 90
      499
 91
      501
 93
      452
310
43115919D950DBDB1BDC93D999916409028333333333333E33F0000000000000F9010790141107004050150841D405064090741402480A0350
1001
ACAD
1000
AcDbSavedByObjectVersion
1070
     0
  0
ACAD_PROXY_OBJECT
  5
39
102
{ACAD_REACTORS
330
2A
102
}
330
2A
100
AcDbProxyObject
 90
      499
 91
      501
 93
      444
310
42D19858D95C185D1D195C9B90F409028333333333333E33F0000000000000F9010790141107004050150841D405064090741402480A0350
1001
ACAD
1000
AcDbSavedByObjectVersion
1070
     0
  0
ACAD_PROXY_OBJECT
  5
2B
102
{ACAD_REACTORS
330
2A
102
}
330
2A
100
AcDbProxyObject
 90
      499
 91
      501
 93
      380
310
41119B185D240901404333333333333E33F0000000000000F9010740A907004050150841D405064090741402480A1B50
1001
ACAD
1000
AcDbSavedByObjectVersion
1070
     0
  0
ACAD_PROXY_OBJECT
  5
2C
102
{ACAD_REACTORS
330
2A
102
}
330
2A
100
AcDbProxyObject
 90
      499
 91
      501
 93
      468
310
43519B185D15DA5D1A115919D95CD0140901404333333333333E33F0000000000000F90107409019070040501600405405064090741402480A1B50
1001
ACAD
1000
AcDbSavedByObjectVersion
1070
     0
  0
ACAD_PROXY_OBJECT
  5
2D
102
{ACAD_REACTORS
330
2A
102
}
330
2A
100
AcDbProxyObject
 90
      499
 91
      501
 93
      404
310
41D1DBDD5C985D5910240902404333333333333E33F0000000000000F9010740A9070040501641D405064090741402480A1B50
1001
ACAD
1000
AcDbSavedByObjectVersion
1070
     0
  0
ACAD_PROXY_OBJECT
  5
2E
102
{ACAD_REACTORS
330
2A
102
}
330
2A
100
AcDbProxyObject
 90
      499
 91
      501
 93
      492
310
4411DBDD5C985D5915DA5D1A115919D95CD0340902404333333333333E33F0000000000000F90107409019070040501600405405064090741402480A1B50
1001
ACAD
1000
AcDbSavedByObjectVersion
1070
     0
  0
ACAD_PROXY_OBJECT
  5
31
102
{ACAD_REACTORS
330
2A
102
}
330
2A
100
AcDbProxyObject
 90
      499
 91
      501
 93
      476
310
41921A5919195B90640502408333333333333E33F0000000000000F901079024090700405020000000000001110200405405064090740C02480A0340
1001
ACAD
1000
AcDbSavedByObjectVersion
1070
     0
  0
ACAD_PROXY_OBJECT
  5
3B
102
{ACAD_REACTORS
330
2A
102
}
330
2A
100
AcDbProxyObject
 90
      499
 91
      501
 93
      428
310
42529A5D1D195C93D999914409028333333333333E33F0000000000000F9010790141107004050150A41D405064090741402480A0350
1001
ACAD
1000
AcDbSavedByObjectVersion
1070
     0
  0
ACAD_PROXY_OBJECT
  5
38
102
{ACAD_REACTORS
330
2A
102
}
330
2A
100
AcDbProxyObject
 90
      499
 91
      501
 93
      444
310
42D31A5B995C185D1D195C9B90E409028333333333333E33F0000000000000F9010790141107004050750841D405064090741402483A0350
1001
ACAD
1000
AcDbSavedByObjectVersion
1070
     0
  0
ACAD_PROXY_OBJECT
  5
3C
102
{ACAD_REACTORS
330
2A
102
}
330
2A
100
AcDbProxyObject
 90
      499
 91
      501
 93
      444
310
42D3DD995C9A185B99D3D999915409028333333333333E33F0000000000000F9010790141107004050150941D405064090741402480A0350
1001
ACAD
1000
AcDbSavedByObjectVersion
1070
     0
  0
ACAD_PROXY_OBJECT
  5
33
102
{ACAD_REACTORS
330
2A
102
}
330
2A
100
AcDbProxyObject
 90
      499
 91
      501
 93
      428
310
425499585B1A5CDD1A58D08409038333333333333E33F0000000000000F9010740A907004050150800405405064090740C02480A1B40
1001
ACAD
1000
AcDbSavedByObjectVersion
1070
     0
  0
ACAD_PROXY_OBJECT
  5
42
102
{ACAD_REACTORS
330
2A
102
}
330
2A
100
AcDbProxyObject
 90
      499
 91
      501
 93
      420
310
4194DA1859195911B40902404333333333333E33F0000000000000F9010740A41107004050150800405405064090840C02480A0B40
1001
ACAD
1000
AcDbSavedByObjectVersion
1070
     0
  0
ACAD_PROXY_OBJECT
  5
41
102
{ACAD_REACTORS
330
2A
102
}
330
2A
100
AcDbProxyObject
 90
      499
 91
      501
 93
      516
310
4454DA18591959081DDA5D1A08195919D95CD1A40902404333333333333E33F0000000000000F901074090142907004050250800405405064090740C02480A0B40
1001
ACAD
1000
AcDbSavedByObjectVersion
1070
     0
  0
ACAD_PROXY_OBJECT
  5
3E
102
{ACAD_REACTORS
330
2A
102
}
330
2A
100
AcDbProxyObject
 90
      499
 91
      501
 93
      532
310
4394DA1859195CC81BD98811DC985E5174090240C333333333333E33F0000000000000F901079024090741D01000000000000111010841D405064090740C02480A0340
1001
ACAD
1000
AcDbSavedByObjectVersion
1070
     0
  0
ACAD_PROXY_OBJECT
  5
3F
102
{ACAD_REACTORS
330
2A
102
}
330
2A
100
AcDbProxyObject
 90
      499
 91
      501
 93
      476
310
41D4DAD95D18DA1E51840502408333333333333E33F0000000000000F901079024090741D01000000000000111010B41D405064090741802480A0340
1001
ACAD
1000
AcDbSavedByObjectVersion
1070
     0
  0
ACAD_PROXY_OBJECT
  5
37
102
{ACAD_REACTORS
330
2A
102
}
330
2A
100
AcDbProxyObject
 90
      499
 91
      501
 93
      412
310
41D51A1A58DAD95B90D409028333333333333E33F0000000000000F9010790141107004050150C41D405064090741402480A0350
1001
ACAD
1000
AcDbSavedByObjectVersion
1070
     0
  0
ACAD_PROXY_OBJECT
  5
30
102
{ACAD_REACTORS
330
2A
102
}
330
2A
100
AcDbProxyObject
 90
      499
 91
      501
 93
      420
310
4255DA5C99599C985B595059028333333333333E33F0000000000000F90107901411070040501600405405064090740C02480A0340
1001
ACAD
1000
AcDbSavedByObjectVersion
1070
     0
  0
ACAD_PROXY_OBJECT
  5
40
102
{ACAD_REACTORS
330
2A
102
}
330
2A
100
AcDbProxyObject
 90
      499
 91
      501
 93
      404
310
41560B54985E51940902404000000000000E03F0000000000000F9010740501907004050150841D405064090740C02480A1B40
1001
ACAD
1000
AcDbSavedByObjectVersion
1070
     0
  0
XRECORD
  5
342
102
{ACAD_REACTORS
330
338
102
}
330
338
100
AcDbXrecord
340
0
  0
XRECORD
  5
341
102
{ACAD_REACTORS
330
338
102
}
330
338
100
AcDbXrecord
 90
        0
  0
XRECORD
  5
358
102
{ACAD_REACTORS
330
338
102
}
330
338
100
AcDbXrecord
1000
DSTYLE
1002
{
1070
   340
340
11
1002
}
  0
XRECORD
  5
343
102
{ACAD_REACTORS
330
338
102
}
330
338
100
AcDbXrecord
  1
{f15a57c7-4128-4b62-a611-b623482cc00a}
  0
XRECORD
  5
33B
102
{ACAD_REACTORS
330
338
102
}
330
338
100
AcDbXrecord
  1

  0
XRECORD
  5
340
102
{ACAD_REACTORS
330
338
102
}
330
338
100
AcDbXrecord
 90
        4
  0
XRECORD
  5
33D
102
{ACAD_REACTORS
330
338
102
}
330
338
100
AcDbXrecord
340
1A
  0
XRECORD
  5
33F
102
{ACAD_REACTORS
330
338
102
}
330
338
100
AcDbXrecord
 90
    10781
  0
XRECORD
  5
33E
102
{ACAD_REACTORS
330
338
102
}
330
338
100
AcDbXrecord
340
19
  0
XRECORD
  5
345
102
{ACAD_REACTORS
330
338
102
}
330
338
100
AcDbXrecord
 40
0.0
  0
XRECORD
  5
348
102
{ACAD_REACTORS
330
338
102
}
330
338
100
AcDbXrecord
340
0
  0
XRECORD
  5
34E
102
{ACAD_REACTORS
330
338
102
}
330
338
100
AcDbXrecord
 10
0.0
 20
0.0
 30
0.0
  0
XRECORD
  5
34A
102
{ACAD_REACTORS
330
338
102
}
330
338
100
AcDbXrecord
 10
0.0
 20
0.0
 30
0.0
  0
XRECORD
  5
34D
102
{ACAD_REACTORS
330
338
102
}
330
338
100
AcDbXrecord
 10
0.0
 20
0.0
 30
0.0
  0
XRECORD
  5
34B
102
{ACAD_REACTORS
330
338
102
}
330
338
100
AcDbXrecord
 10
0.0
 20
0.0
 30
0.0
  0
XRECORD
  5
34C
102
{ACAD_REACTORS
330
338
102
}
330
338
100
AcDbXrecord
 10
0.0
 20
0.0
 30
0.0
  0
XRECORD
  5
349
102
{ACAD_REACTORS
330
338
102
}
330
338
100
AcDbXrecord
 10
0.0
 20
0.0
 30
0.0
  0
XRECORD
  5
346
102
{ACAD_REACTORS
330
338
102
}
330
338
100
AcDbXrecord
340
0
  0
XRECORD
  5
347
102
{ACAD_REACTORS
330
338
102
}
330
338
100
AcDbXrecord
 70
     0
  0
XRECORD
  5
33C
102
{ACAD_REACTORS
330
338
102
}
330
338
100
AcDbXrecord
  1

  0
XRECORD
  5
339
102
{ACAD_REACTORS
330
338
102
}
330
338
100
AcDbXrecord
 90
        1
  0
XRECORD
  5
33A
102
{ACAD_REACTORS
330
338
102
}
330
338
100
AcDbXrecord
 90
       70
  0
XRECORD
  5
351
102
{ACAD_REACTORS
330
338
102
}
330
338
100
AcDbXrecord
340
0
  0
XRECORD
  5
357
102
{ACAD_REACTORS
330
338
102
}
330
338
100
AcDbXrecord
 10
0.0
 20
0.0
 30
0.0
  0
XRECORD
  5
353
102
{ACAD_REACTORS
330
338
102
}
330
338
100
AcDbXrecord
 10
0.0
 20
0.0
 30
0.0
  0
XRECORD
  5
356
102
{ACAD_REACTORS
330
338
102
}
330
338
100
AcDbXrecord
 10
0.0
 20
0.0
 30
0.0
  0
XRECORD
  5
354
102
{ACAD_REACTORS
330
338
102
}
330
338
100
AcDbXrecord
 10
0.0
 20
0.0
 30
0.0
  0
XRECORD
  5
355
102
{ACAD_REACTORS
330
338
102
}
330
338
100
AcDbXrecord
 10
0.0
 20
0.0
 30
0.0
  0
XRECORD
  5
352
102
{ACAD_REACTORS
330
338
102
}
330
338
100
AcDbXrecord
 10
0.0
 20
0.0
 30
0.0
  0
XRECORD
  5
34F
102
{ACAD_REACTORS
330
338
102
}
330
338
100
AcDbXrecord
340
0
  0
XRECORD
  5
350
102
{ACAD_REACTORS
330
338
102
}
330
338
100
AcDbXrecord
 70
     0
  0
XRECORD
  5
344
102
{ACAD_REACTORS
330
338
102
}
330
338
100
AcDbXrecord
  1
{FAEB1C32-E019-11D5-929B-00C0DF256EC4}
  0
DICTIONARYVAR
  5
366
102
{ACAD_REACTORS
330
359
102
}
330
359
100
DictionaryVariables
280
     0
  1
1:1
  0
DICTIONARYVAR
  5
360
102
{ACAD_REACTORS
330
359
102
}
330
359
100
DictionaryVariables
280
     0
  1
3.500000
  0
DICTIONARYVAR
  5
361
102
{ACAD_REACTORS
330
359
102
}
330
359
100
DictionaryVariables
280
     0
  1
acadiso.lin
  0
DICTIONARYVAR
  5
35B
102
{ACAD_REACTORS
330
359
102
}
330
359
100
DictionaryVariables
280
     0
  1
Standard
  0
DICTIONARYVAR
  5
35A
102
{ACAD_REACTORS
330
359
102
}
330
359
100
DictionaryVariables
280
     0
  1
Standard
  0
DICTIONARYVAR
  5
362
102
{ACAD_REACTORS
330
359
102
}
330
359
100
DictionaryVariables
280
     0
  1
2
  0
DICTIONARYVAR
  5
363
102
{ACAD_REACTORS
330
359
102
}
330
359
100
DictionaryVariables
280
     0
  1
1
  0
DICTIONARYVAR
  5
367
102
{ACAD_REACTORS
330
359
102
}
330
359
100
DictionaryVariables
280
     0
  1
1
  0
DICTIONARYVAR
  5
35D
102
{ACAD_REACTORS
330
359
102
}
330
359
100
DictionaryVariables
280
     0
  1
80.000000
  0
DICTIONARYVAR
  5
35C
102
{ACAD_REACTORS
330
359
102
}
330
359
100
DictionaryVariables
280
     0
  1
5.000000
  0
DICTIONARY
  5
36A
330
45
100
AcDbDictionary
280
     1
  3
ACAD_XREC_ROUNDTRIP
360
36B
  0
DICTIONARY
  5
368
330
44
100
AcDbDictionary
280
     1
  3
ACAD_XREC_ROUNDTRIP
360
369
  0
DICTIONARY
  5
36C
330
46
100
AcDbDictionary
280
     1
  3
ACAD_XREC_ROUNDTRIP
360
36D
  0
XRECORD
  5
36B
102
{ACAD_REACTORS
330
36A
102
}
330
36A
100
AcDbXrecord
102
MATERIAL
148
0.0
149
0.0
149
0.0
 93
        0
 94
      127
282
     0
 72
     1
 77
     1
171
     1
175
     1
179
     1
273
     0
  0
XRECORD
  5
369
102
{ACAD_REACTORS
330
368
102
}
330
368
100
AcDbXrecord
102
MATERIAL
148
0.0
149
0.0
149
0.0
 93
        0
 94
      127
282
     0
 72
     1
 77
     1
171
     1
175
     1
179
     1
273
     0
  0
XRECORD
  5
36D
102
{ACAD_REACTORS
330
36C
102
}
330
36C
100
AcDbXrecord
102
MATERIAL
148
0.0
149
0.0
149
0.0
 93
        0
 94
      127
282
     0
 72
     1
 77
     1
171
     1
175
     1
179
     1
273
     0
  0
ENDSEC
  0
EOF
