  0
SECTION
  2
HEADER
  9
$ACADVER
  1
AC1014
  9
$ACADMAINTVER
 70
     9
  9
$DWGCODEPAGE
  3
ANSI_932
  9
$INSBASE
 10
0.0
 20
0.0
 30
0.0
  9
$EXTMIN
 10
50.0
 20
100.0
 30
0.0
  9
$EXTMAX
 10
3850.0
 20
2800.0
 30
0.0
  9
$LIMMIN
 10
0.0
 20
0.0
  9
$LIMMAX
 10
420.0
 20
297.0
  9
$ORTHOMODE
 70
     0
  9
$REGENMODE
 70
     1
  9
$FILLMODE
 70
     1
  9
$QTEXTMODE
 70
     0
  9
$MIRRTEXT
 70
     1
  9
$DRAGMODE
 70
     2
  9
$LTSCALE
 40
0.2
  9
$OSMODE
 70
    37
  9
$ATTMODE
 70
     1
  9
$TEXTSIZE
 40
2.5
  9
$TRACEWID
 40
1.0
  9
$TEXTSTYLE
  7
STANDARD
  9
$CLAYER
  8
LAY-10
  9
$CELTYPE
  6
BYLAYER
  9
$CECOLOR
 62
   256
  9
$CELTSCALE
 40
1.0
  9
$DELOBJ
 70
     1
  9
$DISPSILH
 70
     0
  9
$DIMSCALE
 40
1.0
  9
$DIMASZ
 40
2.5
  9
$DIMEXO
 40
0.625
  9
$DIMDLI
 40
3.75
  9
$DIMRND
 40
0.0
  9
$DIMDLE
 40
0.0
  9
$DIMEXE
 40
1.25
  9
$DIMTP
 40
0.0
  9
$DIMTM
 40
0.0
  9
$DIMTXT
 40
2.5
  9
$DIMCEN
 40
2.5
  9
$DIMTSZ
 40
0.0
  9
$DIMTOL
 70
     0
  9
$DIMLIM
 70
     0
  9
$DIMTIH
 70
     0
  9
$DIMTOH
 70
     0
  9
$DIMSE1
 70
     0
  9
$DIMSE2
 70
     0
  9
$DIMTAD
 70
     1
  9
$DIMZIN
 70
     8
  9
$DIMBLK
  1

  9
$DIMASO
 70
     1
  9
$DIMSHO
 70
     1
  9
$DIMPOST
  1

  9
$DIMAPOST
  1

  9
$DIMALT
 70
     0
  9
$DIMALTD
 70
     3
  9
$DIMALTF
 40
0.03937007874016
  9
$DIMLFAC
 40
1.0
  9
$DIMTOFL
 70
     1
  9
$DIMTVP
 40
0.0
  9
$DIMTIX
 70
     0
  9
$DIMSOXD
 70
     0
  9
$DIMSAH
 70
     0
  9
$DIMBLK1
  1

  9
$DIMBLK2
  1

  9
$DIMSTYLE
  2
ISO-25
  9
$DIMCLRD
 70
     0
  9
$DIMCLRE
 70
     0
  9
$DIMCLRT
 70
     0
  9
$DIMTFAC
 40
1.0
  9
$DIMGAP
 40
0.625
  9
$DIMJUST
 70
     0
  9
$DIMSD1
 70
     0
  9
$DIMSD2
 70
     0
  9
$DIMTOLJ
 70
     0
  9
$DIMTZIN
 70
     8
  9
$DIMALTZ
 70
     0
  9
$DIMALTTZ
 70
     0
  9
$DIMFIT
 70
     3
  9
$DIMUPT
 70
     0
  9
$DIMUNIT
 70
     2
  9
$DIMDEC
 70
     2
  9
$DIMTDEC
 70
     2
  9
$DIMALTU
 70
     2
  9
$DIMALTTD
 70
     3
  9
$DIMTXSTY
  7
STANDARD
  9
$DIMAUNIT
 70
     0
  9
$LUNITS
 70
     2
  9
$LUPREC
 70
     4
  9
$SKETCHINC
 40
1.0
  9
$FILLETRAD
 40
10.0
  9
$AUNITS
 70
     0
  9
$AUPREC
 70
     0
  9
$MENU
  1
.
  9
$ELEVATION
 40
0.0
  9
$PELEVATION
 40
0.0
  9
$THICKNESS
 40
0.0
  9
$LIMCHECK
 70
     0
  9
$CHAMFERA
 40
0.0
  9
$CHAMFERB
 40
0.0
  9
$CHAMFERC
 40
0.0
  9
$CHAMFERD
 40
0.0
  9
$SKPOLY
 70
     0
  9
$TDCREATE
 40
2459229.337980938
  9
$TDUPDATE
 40
2459229.337981308
  9
$TDINDWG
 40
0.0000000116
  9
$TDUSRTIMER
 40
0.0000000116
  9
$USRTIMER
 70
     1
  9
$ANGBASE
 50
0.0
  9
$ANGDIR
 70
     0
  9
$PDMODE
 70
     0
  9
$PDSIZE
 40
0.0
  9
$PLINEWID
 40
0.0
  9
$COORDS
 70
     1
  9
$SPLFRAME
 70
     0
  9
$SPLINETYPE
 70
     6
  9
$SPLINESEGS
 70
     8
  9
$ATTDIA
 70
     0
  9
$ATTREQ
 70
     1
  9
$HANDLING
 70
     1
  9
$HANDSEED
  5
374
  9
$SURFTAB1
 70
     6
  9
$SURFTAB2
 70
     6
  9
$SURFTYPE
 70
     6
  9
$SURFU
 70
     6
  9
$SURFV
 70
     6
  9
$UCSNAME
  2

  9
$UCSORG
 10
0.0
 20
0.0
 30
0.0
  9
$UCSXDIR
 10
1.0
 20
0.0
 30
0.0
  9
$UCSYDIR
 10
0.0
 20
1.0
 30
0.0
  9
$PUCSNAME
  2

  9
$PUCSORG
 10
0.0
 20
0.0
 30
0.0
  9
$PUCSXDIR
 10
1.0
 20
0.0
 30
0.0
  9
$PUCSYDIR
 10
0.0
 20
1.0
 30
0.0
  9
$USERI1
 70
     0
  9
$USERI2
 70
     0
  9
$USERI3
 70
     0
  9
$USERI4
 70
     0
  9
$USERI5
 70
     0
  9
$USERR1
 40
0.0
  9
$USERR2
 40
0.0
  9
$USERR3
 40
0.0
  9
$USERR4
 40
0.0
  9
$USERR5
 40
0.0
  9
$WORLDVIEW
 70
     1
  9
$SHADEDGE
 70
     3
  9
$SHADEDIF
 70
    70
  9
$TILEMODE
 70
     1
  9
$MAXACTVP
 70
    64
  9
$PINSBASE
 10
0.0
 20
0.0
 30
0.0
  9
$PLIMCHECK
 70
     0
  9
$PEXTMIN
 10
1.000000000000000E+20
 20
1.000000000000000E+20
 30
1.000000000000000E+20
  9
$PEXTMAX
 10
-1.000000000000000E+20
 20
-1.000000000000000E+20
 30
-1.000000000000000E+20
  9
$PLIMMIN
 10
0.0
 20
0.0
  9
$PLIMMAX
 10
420.0
 20
297.0
  9
$UNITMODE
 70
     0
  9
$VISRETAIN
 70
     1
  9
$PLINEGEN
 70
     0
  9
$PSLTSCALE
 70
     1
  9
$TREEDEPTH
 70
  3020
  9
$PICKSTYLE
 70
     1
  9
$CMLSTYLE
  2
STANDARD
  9
$CMLJUST
 70
     0
  9
$CMLSCALE
 40
20.0
  9
$PROXYGRAPHICS
 70
     1
  9
$MEASUREMENT
 70
     1
  0
ENDSEC
  0
SECTION
  2
CLASSES
  0
CLASS
  1
ACDBDICTIONARYWDFLT
  2
AcDbDictionaryWithDefault
  3
ObjectDBX Classes
 90
        0
280
     0
281
     0
  0
CLASS
  1
VISUALSTYLE
  2
AcDbVisualStyle
  3
ObjectDBX Classes
 90
     4095
280
     0
281
     0
  0
CLASS
  1
MATERIAL
  2
AcDbMaterial
  3
ObjectDBX Classes
 90
     1153
280
     0
281
     0
  0
CLASS
  1
SCALE
  2
AcDbScale
  3
ObjectDBX Classes
 90
     1153
280
     0
281
     0
  0
CLASS
  1
TABLESTYLE
  2
AcDbTableStyle
  3
ObjectDBX Classes
 90
     4095
280
     0
281
     0
  0
CLASS
  1
MLEADERSTYLE
  2
AcDbMLeaderStyle
  3
ACDB_MLEADERSTYLE_CLASS
 90
     4095
280
     0
281
     0
  0
CLASS
  1
SUN
  2
AcDbSun
  3
SCENEOE
 90
     1153
280
     0
281
     0
  0
CLASS
  1
DICTIONARYVAR
  2
AcDbDictionaryVar
  3
ObjectDBX Classes
 90
        0
280
     0
281
     0
  0
CLASS
  1
XRECORD
  2
AcDbXrecord
  3
ObjectDBX Classes
 90
        0
280
     0
281
     0
  0
CLASS
  1
LWPOLYLINE
  2
AcDbPolyline
  3
ObjectDBX Classes
 90
        0
280
     0
281
     1
  0
CLASS
  1
HATCH
  2
AcDbHatch
  3
ObjectDBX Classes
 90
        0
280
     0
281
     1
  0
CLASS
  1
ACDBPLACEHOLDER
  2
AcDbPlaceHolder
  3
ObjectDBX Classes
 90
        0
280
     0
281
     0
  0
CLASS
  1
LAYOUT
  2
AcDbLayout
  3
ObjectDBX Classes
 90
        0
280
     0
281
     0
  0
ENDSEC
  0
SECTION
  2
TABLES
  0
TABLE
  2
VPORT
  5
8
102
{ACAD_XDICTIONARY
360
369
102
}
330
0
100
AcDbSymbolTable
 70
     1
  0
VPORT
  5
29
330
8
100
AcDbSymbolTableRecord
100
AcDbViewportTableRecord
  2
*ACTIVE
 70
     0
 10
0.0
 20
0.0
 11
1.0
 21
1.0
 12
1950.0
 22
1450.0
 13
0.0
 23
0.0
 14
10.0
 24
10.0
 15
10.0
 25
10.0
 16
0.0
 26
0.0
 36
1.0
 17
0.0
 27
0.0
 37
0.0
 40
2700.0
 41
1.407407407407408
 42
50.0
 43
0.0
 44
0.0
 50
0.0
 51
0.0
 71
     0
 72
  1000
 73
     1
 74
     3
 75
     0
 76
     0
 77
     0
 78
     0
  0
ENDTAB
  0
TABLE
  2
LTYPE
  5
5
330
0
100
AcDbSymbolTable
 70
     6
  0
LTYPE
  5
14
330
5
100
AcDbSymbolTableRecord
100
AcDbLinetypeTableRecord
  2
BYBLOCK
 70
     0
  3

 72
    65
 73
     0
 40
0.0
  0
LTYPE
  5
15
330
5
100
AcDbSymbolTableRecord
100
AcDbLinetypeTableRecord
  2
BYLAYER
 70
     0
  3

 72
    65
 73
     0
 40
0.0
  0
LTYPE
  5
16
330
5
100
AcDbSymbolTableRecord
100
AcDbLinetypeTableRecord
  2
CONTINUOUS
 70
     0
  3
Solid line
 72
    65
 73
     0
 40
0.0
  0
LTYPE
  5
6E
330
5
100
AcDbSymbolTableRecord
100
AcDbLinetypeTableRecord
  2
HIDDEN
 70
     0
  3
Hidden __ __ __ __ __ __ __ __ __ __ __ __ __ __
 72
    65
 73
     2
 40
9.524999999999999
 49
6.35
 74
     0
 49
-3.175
 74
     0
  0
LTYPE
  5
6F
330
5
100
AcDbSymbolTableRecord
100
AcDbLinetypeTableRecord
  2
CENTER
 70
     0
  3
Center ____ _ ____ _ ____ _ ____ _ ____ _ ____
 72
    65
 73
     4
 40
50.8
 49
31.75
 74
     0
 49
-6.35
 74
     0
 49
6.35
 74
     0
 49
-6.35
 74
     0
  0
LTYPE
  5
70
330
5
100
AcDbSymbolTableRecord
100
AcDbLinetypeTableRecord
  2
PHANTOM
 70
     0
  3
Phantom ______  __  __  ______  __  __  ______ 
 72
    65
 73
     6
 40
63.50000000000001
 49
31.75
 74
     0
 49
-6.35
 74
     0
 49
6.35
 74
     0
 49
-6.35
 74
     0
 49
6.35
 74
     0
 49
-6.35
 74
     0
  0
LTYPE
  5
71
330
5
100
AcDbSymbolTableRecord
100
AcDbLinetypeTableRecord
  2
ACAD_ISO06W100
 70
     0
  3
ISO long-dash triple-dot ____ ... ____ ... ____
 72
    65
 73
     8
 40
36.0
 49
24.0
 74
     0
 49
-3.0
 74
     0
 49
0.0
 74
     0
 49
-3.0
 74
     0
 49
0.0
 74
     0
 49
-3.0
 74
     0
 49
0.0
 74
     0
 49
-3.0
 74
     0
  0
LTYPE
  5
72
330
5
100
AcDbSymbolTableRecord
100
AcDbLinetypeTableRecord
  2
ACAD_ISO15W100
 70
     0
  3
ISO double-dash triple-dot __ __ . . . __ __ . .
 72
    65
 73
    10
 40
39.0
 49
12.0
 74
     0
 49
-3.0
 74
     0
 49
12.0
 74
     0
 49
-3.0
 74
     0
 49
0.0
 74
     0
 49
-3.0
 74
     0
 49
0.0
 74
     0
 49
-3.0
 74
     0
 49
0.0
 74
     0
 49
-3.0
 74
     0
  0
ENDTAB
  0
TABLE
  2
LAYER
  5
2
330
0
100
AcDbSymbolTable
 70
     6
  0
LAYER
  5
10
330
2
100
AcDbSymbolTableRecord
100
AcDbLayerTableRecord
  2
0
 70
     0
 62
     7
  6
CONTINUOUS
  0
LAYER
  5
75
330
2
100
AcDbSymbolTableRecord
100
AcDbLayerTableRecord
  2
LAY-10
 70
     0
 62
     7
  6
CONTINUOUS
  0
LAYER
  5
76
330
2
100
AcDbSymbolTableRecord
100
AcDbLayerTableRecord
  2
LAY-11
 70
     0
 62
     7
  6
CONTINUOUS
  0
LAYER
  5
77
330
2
100
AcDbSymbolTableRecord
100
AcDbLayerTableRecord
  2
LAY-20
 70
     0
 62
     7
  6
CONTINUOUS
  0
LAYER
  5
78
330
2
100
AcDbSymbolTableRecord
100
AcDbLayerTableRecord
  2
LAY-255
 70
     0
 62
     7
  6
CONTINUOUS
  0
LAYER
  5
2D3
330
2
100
AcDbSymbolTableRecord
100
AcDbLayerTableRecord
  2
DEFPOINTS
 70
     0
 62
     7
  6
CONTINUOUS
  0
ENDTAB
  0
TABLE
  2
STYLE
  5
3
330
0
100
AcDbSymbolTable
 70
     4
  0
STYLE
  5
11
330
3
100
AcDbSymbolTableRecord
100
AcDbTextStyleTableRecord
  2
STANDARD
 70
     0
 40
0.0
 41
1.0
 50
0.0
 71
     0
 42
2.5
  3
simplex
  4
bigfont
  0
STYLE
  5
73
330
3
100
AcDbSymbolTableRecord
100
AcDbTextStyleTableRecord
  2
EXCADSTD
 70
     0
 40
0.0
 41
1.0
 50
0.0
 71
     0
 42
2.5
  3
simplex
  4
bigfont
  0
STYLE
  5
74
330
3
100
AcDbSymbolTableRecord
100
AcDbTextStyleTableRecord
  2
EXCADVERT
 70
     4
 40
0.0
 41
1.0
 50
0.0
 71
     0
 42
2.5
  3
simplex
  4
bigfont
  0
STYLE
  5
2D1
330
3
100
AcDbSymbolTableRecord
100
AcDbTextStyleTableRecord
  2
EXCADDIM1
 70
     0
 40
0.0
 41
0.84
 50
0.0
 71
     0
 42
2.5
  3
simplex
  4
bigfont
  0
ENDTAB
  0
TABLE
  2
VIEW
  5
6
330
0
100
AcDbSymbolTable
 70
     0
  0
ENDTAB
  0
TABLE
  2
UCS
  5
7
330
0
100
AcDbSymbolTable
 70
     0
  0
ENDTAB
  0
TABLE
  2
APPID
  5
9
330
0
100
AcDbSymbolTable
 70
     2
  0
APPID
  5
12
330
9
100
AcDbSymbolTableRecord
100
AcDbRegAppTableRecord
  2
ACAD
 70
     0
  0
APPID
  5
373
330
9
100
AcDbSymbolTableRecord
100
AcDbRegAppTableRecord
  2
ACAD_MLEADERVER
 70
     0
  0
ENDTAB
  0
TABLE
  2
DIMSTYLE
  5
A
330
0
100
AcDbSymbolTable
 70
     1
  0
DIMSTYLE
105
27
102
{ACAD_REACTORS
330
2D2
330
2E0
330
2ED
330
2FA
330
307
102
}
330
A
100
AcDbSymbolTableRecord
100
AcDbDimStyleTableRecord
  2
ISO-25
 70
     0
  3

  4

  5

  6

  7

 40
1.0
 41
2.5
 42
0.625
 43
3.75
 44
1.25
 45
0.0
 46
0.0
 47
0.0
 48
0.0
140
2.5
141
2.5
142
0.0
143
0.03937007874016
144
1.0
145
0.0
146
1.0
147
0.625
 71
     0
 72
     0
 73
     0
 74
     0
 75
     0
 76
     0
 77
     1
 78
     8
170
     0
171
     3
172
     1
173
     0
174
     0
175
     0
176
     0
177
     0
178
     0
270
     2
271
     2
272
     2
273
     2
274
     3
340
11
275
     0
280
     0
281
     0
282
     0
283
     0
284
     8
285
     0
286
     0
287
     5
288
     0
  0
ENDTAB
  0
TABLE
  2
BLOCK_RECORD
  5
1
330
0
100
AcDbSymbolTable
 70
    19
  0
BLOCK_RECORD
  5
1F
330
1
100
AcDbSymbolTableRecord
100
AcDbBlockTableRecord
  2
*MODEL_SPACE
  0
BLOCK_RECORD
  5
1B
330
1
100
AcDbSymbolTableRecord
100
AcDbBlockTableRecord
  2
*PAPER_SPACE
  0
BLOCK_RECORD
  5
79
330
1
100
AcDbSymbolTableRecord
100
AcDbBlockTableRecord
  2
EX_NORM
  0
BLOCK_RECORD
  5
7C
330
1
100
AcDbSymbolTableRecord
100
AcDbBlockTableRecord
  2
EX_BNORM
  0
BLOCK_RECORD
  5
7F
330
1
100
AcDbSymbolTableRecord
100
AcDbBlockTableRecord
  2
EX_BCIR
  0
BLOCK_RECORD
  5
82
330
1
100
AcDbSymbolTableRecord
100
AcDbBlockTableRecord
  2
EX_RCIVIL
  0
BLOCK_RECORD
  5
85
330
1
100
AcDbSymbolTableRecord
100
AcDbBlockTableRecord
  2
EX_SLANT
  0
BLOCK_RECORD
  5
88
330
1
100
AcDbSymbolTableRecord
100
AcDbBlockTableRecord
  2
EX_NONE
  0
BLOCK_RECORD
  5
8B
330
1
100
AcDbSymbolTableRecord
100
AcDbBlockTableRecord
  2
EX_CIVIL
  0
BLOCK_RECORD
  5
8E
330
1
100
AcDbSymbolTableRecord
100
AcDbBlockTableRecord
  2
EX_WCIR
  0
BLOCK_RECORD
  5
91
330
1
100
AcDbSymbolTableRecord
100
AcDbBlockTableRecord
  2
EX_WCIR2
  0
BLOCK_RECORD
  5
94
330
1
100
AcDbSymbolTableRecord
100
AcDbBlockTableRecord
  2
EX_WNORM
  0
BLOCK_RECORD
  5
97
330
1
100
AcDbSymbolTableRecord
100
AcDbBlockTableRecord
  2
EX_NNORM
  0
BLOCK_RECORD
  5
9A
330
1
100
AcDbSymbolTableRecord
100
AcDbBlockTableRecord
  2
EX_BBOX
  0
BLOCK_RECORD
  5
9D
330
1
100
AcDbSymbolTableRecord
100
AcDbBlockTableRecord
  2
EX_WBOX
  0
BLOCK_RECORD
  5
A0
330
1
100
AcDbSymbolTableRecord
100
AcDbBlockTableRecord
  2
EX_INTEGRAL
  0
BLOCK_RECORD
  5
2D4
330
1
100
AcDbSymbolTableRecord
100
AcDbBlockTableRecord
  2
*D15
  0
BLOCK_RECORD
  5
2E1
330
1
100
AcDbSymbolTableRecord
100
AcDbBlockTableRecord
  2
*D16
  0
BLOCK_RECORD
  5
2EE
330
1
100
AcDbSymbolTableRecord
100
AcDbBlockTableRecord
  2
*D17
  0
BLOCK_RECORD
  5
2FB
330
1
100
AcDbSymbolTableRecord
100
AcDbBlockTableRecord
  2
*D18
  0
BLOCK_RECORD
  5
308
330
1
100
AcDbSymbolTableRecord
100
AcDbBlockTableRecord
  2
*D19
  0
ENDTAB
  0
ENDSEC
  0
SECTION
  2
BLOCKS
  0
BLOCK
  5
20
330
1F
100
AcDbEntity
  8
0
100
AcDbBlockBegin
  2
*MODEL_SPACE
 70
     0
 10
0.0
 20
0.0
 30
0.0
  3
*MODEL_SPACE
  1

  0
ENDBLK
  5
21
330
1F
100
AcDbEntity
  8
0
100
AcDbBlockEnd
  0
BLOCK
  5
1C
330
1B
100
AcDbEntity
 67
     1
  8
0
100
AcDbBlockBegin
  2
*PAPER_SPACE
 70
     0
 10
0.0
 20
0.0
 30
0.0
  3
*PAPER_SPACE
  1

  0
ENDBLK
  5
1D
330
1B
100
AcDbEntity
 67
     1
  8
0
100
AcDbBlockEnd
  0
BLOCK
  5
7A
330
79
100
AcDbEntity
  8
0
100
AcDbBlockBegin
  2
EX_NORM
 70
     0
 10
0.0
 20
0.0
 30
0.0
  3
EX_NORM
  1

  0
LINE
  5
A3
330
79
100
AcDbEntity
  8
0
  6
CONTINUOUS
 62
     0
100
AcDbLine
 10
0.0
 20
0.0
 30
0.0
 11
-1.0
 21
0.0
 31
0.0
  0
LINE
  5
A4
330
79
100
AcDbEntity
  8
0
  6
CONTINUOUS
 62
     0
100
AcDbLine
 10
0.0
 20
0.0
 30
0.0
 11
-1.0
 21
0.166666667
 31
0.0
  0
LINE
  5
A5
330
79
100
AcDbEntity
  8
0
  6
CONTINUOUS
 62
     0
100
AcDbLine
 10
0.0
 20
0.0
 30
0.0
 11
-1.0
 21
-0.166666667
 31
0.0
  0
ENDBLK
  5
7B
330
79
100
AcDbEntity
  8
0
100
AcDbBlockEnd
  0
BLOCK
  5
7D
330
7C
100
AcDbEntity
  8
0
100
AcDbBlockBegin
  2
EX_BNORM
 70
     0
 10
0.0
 20
0.0
 30
0.0
  3
EX_BNORM
  1

  0
LINE
  5
A6
330
7C
100
AcDbEntity
  8
0
  6
CONTINUOUS
 62
     0
100
AcDbLine
 10
0.0
 20
0.0
 30
0.0
 11
-1.0
 21
0.0
 31
0.0
  0
LINE
  5
A7
330
7C
100
AcDbEntity
  8
0
  6
CONTINUOUS
 62
     0
100
AcDbLine
 10
0.0
 20
0.0
 30
0.0
 11
-1.0
 21
0.166666667
 31
0.0
  0
LINE
  5
A8
330
7C
100
AcDbEntity
  8
0
  6
CONTINUOUS
 62
     0
100
AcDbLine
 10
0.0
 20
0.0
 30
0.0
 11
-1.0
 21
-0.166666667
 31
0.0
  0
LINE
  5
A9
330
7C
100
AcDbEntity
  8
0
  6
CONTINUOUS
 62
     0
100
AcDbLine
 10
0.0
 20
0.0
 30
0.0
 11
-1.0
 21
0.083333333
 31
0.0
  0
LINE
  5
AA
330
7C
100
AcDbEntity
  8
0
  6
CONTINUOUS
 62
     0
100
AcDbLine
 10
0.0
 20
0.0
 30
0.0
 11
-1.0
 21
-0.083333333
 31
0.0
  0
LINE
  5
AB
330
7C
100
AcDbEntity
  8
0
  6
CONTINUOUS
 62
     0
100
AcDbLine
 10
-1.0
 20
0.166666667
 30
0.0
 11
-1.0
 21
-0.166666667
 31
0.0
  0
ENDBLK
  5
7E
330
7C
100
AcDbEntity
  8
0
100
AcDbBlockEnd
  0
BLOCK
  5
80
330
7F
100
AcDbEntity
  8
0
100
AcDbBlockBegin
  2
EX_BCIR
 70
     0
 10
0.0
 20
0.0
 30
0.0
  3
EX_BCIR
  1

  0
LINE
  5
AC
330
7F
100
AcDbEntity
  8
0
  6
CONTINUOUS
 62
     0
100
AcDbLine
 10
0.0
 20
0.0
 30
0.0
 11
-1.0
 21
0.0
 31
0.0
  0
CIRCLE
  5
AD
330
7F
100
AcDbEntity
  8
0
  6
CONTINUOUS
 62
     0
100
AcDbCircle
 10
0.0
 20
0.0
 30
0.0
 40
0.5
  0
CIRCLE
  5
AE
330
7F
100
AcDbEntity
  8
0
  6
CONTINUOUS
 62
     0
100
AcDbCircle
 10
0.0
 20
0.0
 30
0.0
 40
0.25
  0
ENDBLK
  5
81
330
7F
100
AcDbEntity
  8
0
100
AcDbBlockEnd
  0
BLOCK
  5
83
330
82
100
AcDbEntity
  8
0
100
AcDbBlockBegin
  2
EX_RCIVIL
 70
     0
 10
0.0
 20
0.0
 30
0.0
  3
EX_RCIVIL
  1

  0
LINE
  5
AF
330
82
100
AcDbEntity
  8
0
  6
CONTINUOUS
 62
     0
100
AcDbLine
 10
0.0
 20
0.0
 30
0.0
 11
-1.0
 21
0.0
 31
0.0
  0
LINE
  5
B0
330
82
100
AcDbEntity
  8
0
  6
CONTINUOUS
 62
     0
100
AcDbLine
 10
-1.0
 20
-0.25
 30
0.0
 11
0.0
 21
-0.25
 31
0.0
  0
LINE
  5
B1
330
82
100
AcDbEntity
  8
0
  6
CONTINUOUS
 62
     0
100
AcDbLine
 10
-1.0
 20
-0.125
 30
0.0
 11
0.0
 21
-0.125
 31
0.0
  0
ENDBLK
  5
84
330
82
100
AcDbEntity
  8
0
100
AcDbBlockEnd
  0
BLOCK
  5
86
330
85
100
AcDbEntity
  8
0
100
AcDbBlockBegin
  2
EX_SLANT
 70
     0
 10
0.0
 20
0.0
 30
0.0
  3
EX_SLANT
  1

  0
LINE
  5
B2
330
85
100
AcDbEntity
  8
0
  6
CONTINUOUS
 62
     0
100
AcDbLine
 10
0.0
 20
0.0
 30
0.0
 11
-1.0
 21
0.0
 31
0.0
  0
LINE
  5
B3
330
85
100
AcDbEntity
  8
0
  6
CONTINUOUS
 62
     0
100
AcDbLine
 10
0.707106781
 20
0.707106781
 30
0.0
 11
-0.707106781
 21
-0.707106781
 31
0.0
  0
ENDBLK
  5
87
330
85
100
AcDbEntity
  8
0
100
AcDbBlockEnd
  0
BLOCK
  5
89
330
88
100
AcDbEntity
  8
0
100
AcDbBlockBegin
  2
EX_NONE
 70
     0
 10
0.0
 20
0.0
 30
0.0
  3
EX_NONE
  1

  0
LINE
  5
B4
330
88
100
AcDbEntity
  8
0
  6
CONTINUOUS
 62
     0
100
AcDbLine
 10
0.0
 20
0.0
 30
0.0
 11
-1.0
 21
0.0
 31
0.0
  0
ENDBLK
  5
8A
330
88
100
AcDbEntity
  8
0
100
AcDbBlockEnd
  0
BLOCK
  5
8C
330
8B
100
AcDbEntity
  8
0
100
AcDbBlockBegin
  2
EX_CIVIL
 70
     0
 10
0.0
 20
0.0
 30
0.0
  3
EX_CIVIL
  1

  0
LINE
  5
B5
330
8B
100
AcDbEntity
  8
0
  6
CONTINUOUS
 62
     0
100
AcDbLine
 10
0.0
 20
0.0
 30
0.0
 11
-1.0
 21
0.0
 31
0.0
  0
LINE
  5
B6
330
8B
100
AcDbEntity
  8
0
  6
CONTINUOUS
 62
     0
100
AcDbLine
 10
-1.0
 20
0.25
 30
0.0
 11
0.0
 21
0.25
 31
0.0
  0
LINE
  5
B7
330
8B
100
AcDbEntity
  8
0
  6
CONTINUOUS
 62
     0
100
AcDbLine
 10
-1.0
 20
0.125
 30
0.0
 11
0.0
 21
0.125
 31
0.0
  0
ENDBLK
  5
8D
330
8B
100
AcDbEntity
  8
0
100
AcDbBlockEnd
  0
BLOCK
  5
8F
330
8E
100
AcDbEntity
  8
0
100
AcDbBlockBegin
  2
EX_WCIR
 70
     0
 10
0.0
 20
0.0
 30
0.0
  3
EX_WCIR
  1

  0
LINE
  5
B8
330
8E
100
AcDbEntity
  8
0
  6
CONTINUOUS
 62
     0
100
AcDbLine
 10
0.0
 20
0.0
 30
0.0
 11
-1.0
 21
0.0
 31
0.0
  0
CIRCLE
  5
B9
330
8E
100
AcDbEntity
  8
0
  6
CONTINUOUS
 62
     0
100
AcDbCircle
 10
0.0
 20
0.0
 30
0.0
 40
0.5
  0
ENDBLK
  5
90
330
8E
100
AcDbEntity
  8
0
100
AcDbBlockEnd
  0
BLOCK
  5
92
330
91
100
AcDbEntity
  8
0
100
AcDbBlockBegin
  2
EX_WCIR2
 70
     0
 10
0.0
 20
0.0
 30
0.0
  3
EX_WCIR2
  1

  0
LINE
  5
BA
330
91
100
AcDbEntity
  8
0
  6
CONTINUOUS
 62
     0
100
AcDbLine
 10
-0.5
 20
0.0
 30
0.0
 11
-1.0
 21
0.0
 31
0.0
  0
CIRCLE
  5
BB
330
91
100
AcDbEntity
  8
0
  6
CONTINUOUS
 62
     0
100
AcDbCircle
 10
0.0
 20
0.0
 30
0.0
 40
0.5
  0
ENDBLK
  5
93
330
91
100
AcDbEntity
  8
0
100
AcDbBlockEnd
  0
BLOCK
  5
95
330
94
100
AcDbEntity
  8
0
100
AcDbBlockBegin
  2
EX_WNORM
 70
     0
 10
0.0
 20
0.0
 30
0.0
  3
EX_WNORM
  1

  0
LINE
  5
BC
330
94
100
AcDbEntity
  8
0
  6
CONTINUOUS
 62
     0
100
AcDbLine
 10
-1.0
 20
0.0
 30
0.0
 11
-1.0
 21
0.0
 31
0.0
  0
LINE
  5
BD
330
94
100
AcDbEntity
  8
0
  6
CONTINUOUS
 62
     0
100
AcDbLine
 10
0.0
 20
0.0
 30
0.0
 11
-1.0
 21
0.166666667
 31
0.0
  0
LINE
  5
BE
330
94
100
AcDbEntity
  8
0
  6
CONTINUOUS
 62
     0
100
AcDbLine
 10
0.0
 20
0.0
 30
0.0
 11
-1.0
 21
-0.166666667
 31
0.0
  0
LINE
  5
BF
330
94
100
AcDbEntity
  8
0
  6
CONTINUOUS
 62
     0
100
AcDbLine
 10
-1.0
 20
0.166666667
 30
0.0
 11
-1.0
 21
-0.166666667
 31
0.0
  0
ENDBLK
  5
96
330
94
100
AcDbEntity
  8
0
100
AcDbBlockEnd
  0
BLOCK
  5
98
330
97
100
AcDbEntity
  8
0
100
AcDbBlockBegin
  2
EX_NNORM
 70
     0
 10
0.0
 20
0.0
 30
0.0
  3
EX_NNORM
  1

  0
LINE
  5
C0
330
97
100
AcDbEntity
  8
0
  6
CONTINUOUS
 62
     0
100
AcDbLine
 10
0.0
 20
0.0
 30
0.0
 11
-1.0
 21
0.0
 31
0.0
  0
LINE
  5
C1
330
97
100
AcDbEntity
  8
0
  6
CONTINUOUS
 62
     0
100
AcDbLine
 10
0.0
 20
0.0
 30
0.0
 11
-1.0
 21
0.166666667
 31
0.0
  0
LINE
  5
C2
330
97
100
AcDbEntity
  8
0
  6
CONTINUOUS
 62
     0
100
AcDbLine
 10
0.0
 20
0.0
 30
0.0
 11
-1.0
 21
-0.166666667
 31
0.0
  0
LINE
  5
C3
330
97
100
AcDbEntity
  8
0
  6
CONTINUOUS
 62
     0
100
AcDbLine
 10
-1.0
 20
0.166666667
 30
0.0
 11
-1.0
 21
-0.166666667
 31
0.0
  0
ENDBLK
  5
99
330
97
100
AcDbEntity
  8
0
100
AcDbBlockEnd
  0
BLOCK
  5
9B
330
9A
100
AcDbEntity
  8
0
100
AcDbBlockBegin
  2
EX_BBOX
 70
     0
 10
0.0
 20
0.0
 30
0.0
  3
EX_BBOX
  1

  0
LINE
  5
C4
330
9A
100
AcDbEntity
  8
0
  6
CONTINUOUS
 62
     0
100
AcDbLine
 10
0.0
 20
0.0
 30
0.0
 11
-1.0
 21
0.0
 31
0.0
  0
LINE
  5
C5
330
9A
100
AcDbEntity
  8
0
  6
CONTINUOUS
 62
     0
100
AcDbLine
 10
-0.5
 20
0.5
 30
0.0
 11
0.5
 21
0.5
 31
0.0
  0
LINE
  5
C6
330
9A
100
AcDbEntity
  8
0
  6
CONTINUOUS
 62
     0
100
AcDbLine
 10
0.5
 20
0.5
 30
0.0
 11
0.5
 21
-0.5
 31
0.0
  0
LINE
  5
C7
330
9A
100
AcDbEntity
  8
0
  6
CONTINUOUS
 62
     0
100
AcDbLine
 10
0.5
 20
-0.5
 30
0.0
 11
-0.5
 21
-0.5
 31
0.0
  0
LINE
  5
C8
330
9A
100
AcDbEntity
  8
0
  6
CONTINUOUS
 62
     0
100
AcDbLine
 10
-0.5
 20
-0.5
 30
0.0
 11
-0.5
 21
0.5
 31
0.0
  0
LINE
  5
C9
330
9A
100
AcDbEntity
  8
0
  6
CONTINUOUS
 62
     0
100
AcDbLine
 10
-0.25
 20
0.25
 30
0.0
 11
0.25
 21
0.25
 31
0.0
  0
LINE
  5
CA
330
9A
100
AcDbEntity
  8
0
  6
CONTINUOUS
 62
     0
100
AcDbLine
 10
0.25
 20
0.25
 30
0.0
 11
0.25
 21
-0.25
 31
0.0
  0
LINE
  5
CB
330
9A
100
AcDbEntity
  8
0
  6
CONTINUOUS
 62
     0
100
AcDbLine
 10
0.25
 20
-0.25
 30
0.0
 11
-0.25
 21
-0.25
 31
0.0
  0
LINE
  5
CC
330
9A
100
AcDbEntity
  8
0
  6
CONTINUOUS
 62
     0
100
AcDbLine
 10
-0.25
 20
-0.25
 30
0.0
 11
-0.25
 21
0.25
 31
0.0
  0
ENDBLK
  5
9C
330
9A
100
AcDbEntity
  8
0
100
AcDbBlockEnd
  0
BLOCK
  5
9E
330
9D
100
AcDbEntity
  8
0
100
AcDbBlockBegin
  2
EX_WBOX
 70
     0
 10
0.0
 20
0.0
 30
0.0
  3
EX_WBOX
  1

  0
LINE
  5
CD
330
9D
100
AcDbEntity
  8
0
  6
CONTINUOUS
 62
     0
100
AcDbLine
 10
-0.5
 20
0.0
 30
0.0
 11
-1.0
 21
0.0
 31
0.0
  0
LINE
  5
CE
330
9D
100
AcDbEntity
  8
0
  6
CONTINUOUS
 62
     0
100
AcDbLine
 10
-0.5
 20
0.5
 30
0.0
 11
0.5
 21
0.5
 31
0.0
  0
LINE
  5
CF
330
9D
100
AcDbEntity
  8
0
  6
CONTINUOUS
 62
     0
100
AcDbLine
 10
0.5
 20
0.5
 30
0.0
 11
0.5
 21
-0.5
 31
0.0
  0
LINE
  5
D0
330
9D
100
AcDbEntity
  8
0
  6
CONTINUOUS
 62
     0
100
AcDbLine
 10
0.5
 20
-0.5
 30
0.0
 11
-0.5
 21
-0.5
 31
0.0
  0
LINE
  5
D1
330
9D
100
AcDbEntity
  8
0
  6
CONTINUOUS
 62
     0
100
AcDbLine
 10
-0.5
 20
-0.5
 30
0.0
 11
-0.5
 21
0.5
 31
0.0
  0
ENDBLK
  5
9F
330
9D
100
AcDbEntity
  8
0
100
AcDbBlockEnd
  0
BLOCK
  5
A1
330
A0
100
AcDbEntity
  8
0
100
AcDbBlockBegin
  2
EX_INTEGRAL
 70
     0
 10
0.0
 20
0.0
 30
0.0
  3
EX_INTEGRAL
  1

  0
LINE
  5
D2
330
A0
100
AcDbEntity
  8
0
  6
CONTINUOUS
 62
     0
100
AcDbLine
 10
0.0
 20
0.0
 30
0.0
 11
-1.0
 21
0.0
 31
0.0
  0
ARC
  5
D3
330
A0
100
AcDbEntity
  8
0
  6
CONTINUOUS
 62
     0
100
AcDbCircle
 10
0.542115
 20
0.164992
 30
0.0
 40
0.56667
100
AcDbArc
 50
73.07249033629006
 51
196.9275130221199
  0
ARC
  5
D4
330
A0
100
AcDbEntity
  8
0
  6
CONTINUOUS
 62
     0
100
AcDbCircle
 10
-0.542115
 20
-0.164992
 30
0.0
 40
0.56667
100
AcDbArc
 50
253.0724869220464
 51
16.9275130559125
  0
ENDBLK
  5
A2
330
A0
100
AcDbEntity
  8
0
100
AcDbBlockEnd
  0
BLOCK
  5
2D5
330
2D4
100
AcDbEntity
  8
0
100
AcDbBlockBegin
  2
*D15
 70
     1
 10
0.0
 20
0.0
 30
0.0
  3
*D15
  1

  0
LINE
  5
2D7
330
2D4
100
AcDbEntity
  8
LAY-20
  6
CONTINUOUS
 62
     4
100
AcDbLine
 10
1704.000000000001
 20
800.0000000000002
 30
0.0
 11
1839.999999999989
 21
800.0000000000002
 31
0.0
  0
LINE
  5
2D8
330
2D4
100
AcDbEntity
  8
LAY-20
  6
CONTINUOUS
 62
     4
100
AcDbLine
 10
1740.000000000001
 20
735.0000000000002
 30
0.0
 11
1839.999999999989
 21
735.0000000000002
 31
0.0
  0
LINE
  5
2D9
330
2D4
100
AcDbEntity
  8
LAY-20
  6
CONTINUOUS
 62
     4
100
AcDbLine
 10
1824.999999999989
 20
775.0000000000002
 30
0.0
 11
1824.999999999989
 21
760.0000000000002
 31
0.0
  0
INSERT
  5
2DA
330
2D4
100
AcDbEntity
  8
LAY-20
 62
     4
100
AcDbBlockReference
  2
EX_BNORM
 10
1824.999999999989
 20
800.0000000000002
 30
0.0
 41
25.0
 42
25.0
 43
25.0
 50
90.0
  0
INSERT
  5
2DB
330
2D4
100
AcDbEntity
  8
LAY-20
 62
     4
100
AcDbBlockReference
  2
EX_BNORM
 10
1824.999999999989
 20
735.0000000000002
 30
0.0
 41
25.0
 42
25.0
 43
25.0
 50
270.0
  0
MTEXT
  5
2DC
330
2D4
100
AcDbEntity
  8
LAY-20
 62
     7
100
AcDbMText
 10
1799.999999999989
 20
767.5000000000002
 30
0.0
 40
31.181104
 41
0.0
 71
     5
 72
     1
  1
65
  7
EXCADDIM1
 11
0.0
 21
1.0
 31
0.0
  0
POINT
  5
2DD
330
2D4
100
AcDbEntity
  8
DEFPOINTS
 62
     0
100
AcDbPoint
 10
1689.000000000001
 20
800.0000000000002
 30
0.0
  0
POINT
  5
2DE
330
2D4
100
AcDbEntity
  8
DEFPOINTS
 62
     0
100
AcDbPoint
 10
1725.000000000001
 20
735.0000000000002
 30
0.0
  0
POINT
  5
2DF
330
2D4
100
AcDbEntity
  8
DEFPOINTS
 62
     0
100
AcDbPoint
 10
1824.999999999989
 20
735.0000000000002
 30
0.0
  0
ENDBLK
  5
2D6
330
2D4
100
AcDbEntity
  8
0
100
AcDbBlockEnd
  0
BLOCK
  5
2E2
330
2E1
100
AcDbEntity
  8
0
100
AcDbBlockBegin
  2
*D16
 70
     1
 10
0.0
 20
0.0
 30
0.0
  3
*D16
  1

  0
LINE
  5
2E4
330
2E1
100
AcDbEntity
  8
LAY-20
  6
CONTINUOUS
 62
     4
100
AcDbLine
 10
811.0
 20
815.0
 30
0.0
 11
811.0
 21
1055.0
 31
0.0
  0
LINE
  5
2E5
330
2E1
100
AcDbEntity
  8
LAY-20
  6
CONTINUOUS
 62
     4
100
AcDbLine
 10
1689.0
 20
815.0
 30
0.0
 11
1689.0
 21
1055.0
 31
0.0
  0
LINE
  5
2E6
330
2E1
100
AcDbEntity
  8
LAY-20
  6
CONTINUOUS
 62
     4
100
AcDbLine
 10
841.0
 20
1040.0
 30
0.0
 11
1659.0
 21
1040.0
 31
0.0
  0
INSERT
  5
2E7
330
2E1
100
AcDbEntity
  8
LAY-20
 62
     4
100
AcDbBlockReference
  2
EX_BNORM
 10
811.0
 20
1040.0
 30
0.0
 41
30.0
 42
30.0
 43
30.0
 50
180.0
  0
INSERT
  5
2E8
330
2E1
100
AcDbEntity
  8
LAY-20
 62
     4
100
AcDbBlockReference
  2
EX_BNORM
 10
1689.0
 20
1040.0
 30
0.0
 41
30.0
 42
30.0
 43
30.0
  0
MTEXT
  5
2E9
330
2E1
100
AcDbEntity
  8
LAY-20
 62
     7
100
AcDbMText
 10
1250.0
 20
1065.0
 30
0.0
 40
31.181104
 41
0.0
 71
     5
 72
     1
  1
878×943
  7
EXCADDIM1
  0
POINT
  5
2EA
330
2E1
100
AcDbEntity
  8
DEFPOINTS
 62
     0
100
AcDbPoint
 10
811.0
 20
800.0
 30
0.0
  0
POINT
  5
2EB
330
2E1
100
AcDbEntity
  8
DEFPOINTS
 62
     0
100
AcDbPoint
 10
1689.0
 20
800.0
 30
0.0
  0
POINT
  5
2EC
330
2E1
100
AcDbEntity
  8
DEFPOINTS
 62
     0
100
AcDbPoint
 10
1689.0
 20
1040.0
 30
0.0
  0
ENDBLK
  5
2E3
330
2E1
100
AcDbEntity
  8
0
100
AcDbBlockEnd
  0
BLOCK
  5
2EF
330
2EE
100
AcDbEntity
  8
0
100
AcDbBlockBegin
  2
*D17
 70
     1
 10
0.0
 20
0.0
 30
0.0
  3
*D17
  1

  0
LINE
  5
2F1
330
2EE
100
AcDbEntity
  8
LAY-20
  6
CONTINUOUS
 62
     4
100
AcDbLine
 10
822.0
 20
815.0
 30
0.0
 11
822.0
 21
985.0
 31
0.0
  0
LINE
  5
2F2
330
2EE
100
AcDbEntity
  8
LAY-20
  6
CONTINUOUS
 62
     4
100
AcDbLine
 10
1678.0
 20
815.0
 30
0.0
 11
1678.0
 21
985.0
 31
0.0
  0
LINE
  5
2F3
330
2EE
100
AcDbEntity
  8
LAY-20
  6
CONTINUOUS
 62
     4
100
AcDbLine
 10
852.0
 20
970.0
 30
0.0
 11
1648.0
 21
970.0
 31
0.0
  0
INSERT
  5
2F4
330
2EE
100
AcDbEntity
  8
LAY-20
 62
     4
100
AcDbBlockReference
  2
EX_BNORM
 10
822.0
 20
970.0
 30
0.0
 41
30.0
 42
30.0
 43
30.0
 50
180.0
  0
INSERT
  5
2F5
330
2EE
100
AcDbEntity
  8
LAY-20
 62
     4
100
AcDbBlockReference
  2
EX_BNORM
 10
1678.0
 20
970.0
 30
0.0
 41
30.0
 42
30.0
 43
30.0
  0
MTEXT
  5
2F6
330
2EE
100
AcDbEntity
  8
LAY-20
 62
     7
100
AcDbMText
 10
1250.0
 20
995.0
 30
0.0
 40
31.181104
 41
0.0
 71
     5
 72
     1
  1
856×903
  7
EXCADDIM1
  0
POINT
  5
2F7
330
2EE
100
AcDbEntity
  8
DEFPOINTS
 62
     0
100
AcDbPoint
 10
822.0
 20
800.0
 30
0.0
  0
POINT
  5
2F8
330
2EE
100
AcDbEntity
  8
DEFPOINTS
 62
     0
100
AcDbPoint
 10
1678.0
 20
800.0
 30
0.0
  0
POINT
  5
2F9
330
2EE
100
AcDbEntity
  8
DEFPOINTS
 62
     0
100
AcDbPoint
 10
1678.0
 20
970.0
 30
0.0
  0
ENDBLK
  5
2F0
330
2EE
100
AcDbEntity
  8
0
100
AcDbBlockEnd
  0
BLOCK
  5
2FC
330
2FB
100
AcDbEntity
  8
0
100
AcDbBlockBegin
  2
*D18
 70
     1
 10
0.0
 20
0.0
 30
0.0
  3
*D18
  1

  0
LINE
  5
2FE
330
2FB
100
AcDbEntity
  8
LAY-20
  6
CONTINUOUS
 62
     4
100
AcDbLine
 10
875.0
 20
720.0
 30
0.0
 11
875.0
 21
620.0
 31
0.0
  0
LINE
  5
2FF
330
2FB
100
AcDbEntity
  8
LAY-20
  6
CONTINUOUS
 62
     4
100
AcDbLine
 10
1625.0
 20
720.0
 30
0.0
 11
1625.0
 21
620.0
 31
0.0
  0
LINE
  5
300
330
2FB
100
AcDbEntity
  8
LAY-20
  6
CONTINUOUS
 62
     4
100
AcDbLine
 10
905.0
 20
635.0
 30
0.0
 11
1595.0
 21
635.0
 31
0.0
  0
INSERT
  5
301
330
2FB
100
AcDbEntity
  8
LAY-20
 62
     4
100
AcDbBlockReference
  2
EX_BNORM
 10
875.0
 20
635.0
 30
0.0
 41
30.0
 42
30.0
 43
30.0
 50
180.0
  0
INSERT
  5
302
330
2FB
100
AcDbEntity
  8
LAY-20
 62
     4
100
AcDbBlockReference
  2
EX_BNORM
 10
1625.0
 20
635.0
 30
0.0
 41
30.0
 42
30.0
 43
30.0
  0
MTEXT
  5
303
330
2FB
100
AcDbEntity
  8
LAY-20
 62
     7
100
AcDbMText
 10
1250.0
 20
660.0
 30
0.0
 40
31.181104
 41
0.0
 71
     5
 72
     1
  1
750×750
  7
EXCADDIM1
  0
POINT
  5
304
330
2FB
100
AcDbEntity
  8
DEFPOINTS
 62
     0
100
AcDbPoint
 10
875.0
 20
735.0
 30
0.0
  0
POINT
  5
305
330
2FB
100
AcDbEntity
  8
DEFPOINTS
 62
     0
100
AcDbPoint
 10
1625.0
 20
735.0
 30
0.0
  0
POINT
  5
306
330
2FB
100
AcDbEntity
  8
DEFPOINTS
 62
     0
100
AcDbPoint
 10
1625.0
 20
635.0
 30
0.0
  0
ENDBLK
  5
2FD
330
2FB
100
AcDbEntity
  8
0
100
AcDbBlockEnd
  0
BLOCK
  5
309
330
308
100
AcDbEntity
  8
0
100
AcDbBlockBegin
  2
*D19
 70
     1
 10
0.0
 20
0.0
 30
0.0
  3
*D19
  1

  0
LINE
  5
30B
330
308
100
AcDbEntity
  8
LAY-20
  6
CONTINUOUS
 62
     4
100
AcDbLine
 10
793.0000000000001
 20
720.0
 30
0.0
 11
793.0000000000001
 21
550.0
 31
0.0
  0
LINE
  5
30C
330
308
100
AcDbEntity
  8
LAY-20
  6
CONTINUOUS
 62
     4
100
AcDbLine
 10
1707.0
 20
720.0
 30
0.0
 11
1707.0
 21
550.0
 31
0.0
  0
LINE
  5
30D
330
308
100
AcDbEntity
  8
LAY-20
  6
CONTINUOUS
 62
     4
100
AcDbLine
 10
823.0000000000001
 20
565.0
 30
0.0
 11
1677.0
 21
565.0
 31
0.0
  0
INSERT
  5
30E
330
308
100
AcDbEntity
  8
LAY-20
 62
     4
100
AcDbBlockReference
  2
EX_BNORM
 10
793.0000000000001
 20
565.0
 30
0.0
 41
30.0
 42
30.0
 43
30.0
 50
180.0
  0
INSERT
  5
30F
330
308
100
AcDbEntity
  8
LAY-20
 62
     4
100
AcDbBlockReference
  2
EX_BNORM
 10
1707.0
 20
565.0
 30
0.0
 41
30.0
 42
30.0
 43
30.0
  0
MTEXT
  5
310
330
308
100
AcDbEntity
  8
LAY-20
 62
     7
100
AcDbMText
 10
1250.0
 20
590.0
 30
0.0
 40
31.181104
 41
0.0
 71
     5
 72
     1
  1
914×970
  7
EXCADDIM1
  0
POINT
  5
311
330
308
100
AcDbEntity
  8
DEFPOINTS
 62
     0
100
AcDbPoint
 10
793.0000000000001
 20
735.0
 30
0.0
  0
POINT
  5
312
330
308
100
AcDbEntity
  8
DEFPOINTS
 62
     0
100
AcDbPoint
 10
1707.0
 20
735.0
 30
0.0
  0
POINT
  5
313
330
308
100
AcDbEntity
  8
DEFPOINTS
 62
     0
100
AcDbPoint
 10
1707.0
 20
565.0
 30
0.0
  0
ENDBLK
  5
30A
330
308
100
AcDbEntity
  8
0
100
AcDbBlockEnd
  0
ENDSEC
  0
SECTION
  2
ENTITIES
  0
LINE
  5
D5
330
1F
100
AcDbEntity
  8
LAY-10
  6
CONTINUOUS
 62
     7
100
AcDbLine
 10
811.0000000000005
 20
1433.0
 30
0.0
 11
1689.000000000001
 21
1433.0
 31
0.0
  0
LINE
  5
D6
330
1F
100
AcDbEntity
  8
LAY-10
  6
CONTINUOUS
 62
     7
100
AcDbLine
 10
877.9999999999999
 20
1397.0
 30
0.0
 11
860.0
 21
1415.0
 31
0.0
  0
LINE
  5
D7
330
1F
100
AcDbEntity
  8
LAY-10
  6
CONTINUOUS
 62
     7
100
AcDbLine
 10
922.0000000000001
 20
1397.0
 30
0.0
 11
940.0000000000003
 21
1415.0
 31
0.0
  0
LINE
  5
D8
330
1F
100
AcDbEntity
  8
LAY-10
  6
CONTINUOUS
 62
     7
100
AcDbLine
 10
860.0000000000003
 20
1433.0
 30
0.0
 11
860.0000000000003
 21
1415.0
 31
0.0
  0
LINE
  5
D9
330
1F
100
AcDbEntity
  8
LAY-10
  6
CONTINUOUS
 62
     7
100
AcDbLine
 10
940.0000000000003
 20
1433.0
 30
0.0
 11
940.0000000000003
 21
1415.0
 31
0.0
  0
ARC
  5
DA
330
1F
100
AcDbEntity
  8
LAY-10
  6
CONTINUOUS
 62
     7
100
AcDbCircle
 10
900.0
 20
1415.0
 30
0.0
 40
7.5
100
AcDbArc
 50
0.0
 51
180.0
  0
LINE
  5
DB
330
1F
100
AcDbEntity
  8
LAY-10
  6
CONTINUOUS
 62
     7
100
AcDbLine
 10
892.5
 20
1415.0
 30
0.0
 11
892.5
 21
1397.0
 31
0.0
  0
LINE
  5
DC
330
1F
100
AcDbEntity
  8
LAY-10
  6
CONTINUOUS
 62
     7
100
AcDbLine
 10
907.5
 20
1415.0
 30
0.0
 11
907.5
 21
1397.0
 31
0.0
  0
LINE
  5
DD
330
1F
100
AcDbEntity
  8
LAY-10
  6
CONTINUOUS
 62
     7
100
AcDbLine
 10
877.9999999999999
 20
1397.0
 30
0.0
 11
892.5
 21
1397.0
 31
0.0
  0
LINE
  5
DE
330
1F
100
AcDbEntity
  8
LAY-10
  6
CONTINUOUS
 62
     7
100
AcDbLine
 10
907.5
 20
1397.0
 30
0.0
 11
922.0000000000001
 21
1397.0
 31
0.0
  0
LINE
  5
DF
330
1F
100
AcDbEntity
  8
LAY-10
  6
CONTINUOUS
 62
     7
100
AcDbLine
 10
1622.000000000001
 20
1397.0
 30
0.0
 11
1640.000000000001
 21
1415.0
 31
0.0
  0
LINE
  5
E0
330
1F
100
AcDbEntity
  8
LAY-10
  6
CONTINUOUS
 62
     7
100
AcDbLine
 10
1578.000000000001
 20
1397.0
 30
0.0
 11
1560.0
 21
1415.0
 31
0.0
  0
LINE
  5
E1
330
1F
100
AcDbEntity
  8
LAY-10
  6
CONTINUOUS
 62
     7
100
AcDbLine
 10
1640.0
 20
1433.0
 30
0.0
 11
1640.0
 21
1415.0
 31
0.0
  0
LINE
  5
E2
330
1F
100
AcDbEntity
  8
LAY-10
  6
CONTINUOUS
 62
     7
100
AcDbLine
 10
1560.0
 20
1433.0
 30
0.0
 11
1560.0
 21
1415.0
 31
0.0
  0
ARC
  5
E3
330
1F
100
AcDbEntity
  8
LAY-10
  6
CONTINUOUS
 62
     7
100
AcDbCircle
 10
1600.000000000001
 20
1415.0
 30
0.0
 40
7.5
100
AcDbArc
 50
0.0
 51
180.0
  0
LINE
  5
E4
330
1F
100
AcDbEntity
  8
LAY-10
  6
CONTINUOUS
 62
     7
100
AcDbLine
 10
1607.500000000001
 20
1415.0
 30
0.0
 11
1607.500000000001
 21
1397.0
 31
0.0
  0
LINE
  5
E5
330
1F
100
AcDbEntity
  8
LAY-10
  6
CONTINUOUS
 62
     7
100
AcDbLine
 10
1592.500000000001
 20
1415.0
 30
0.0
 11
1592.500000000001
 21
1397.0
 31
0.0
  0
LINE
  5
E6
330
1F
100
AcDbEntity
  8
LAY-10
  6
CONTINUOUS
 62
     7
100
AcDbLine
 10
1622.000000000001
 20
1397.0
 30
0.0
 11
1607.500000000001
 21
1397.0
 31
0.0
  0
LINE
  5
E7
330
1F
100
AcDbEntity
  8
LAY-10
  6
CONTINUOUS
 62
     7
100
AcDbLine
 10
1592.500000000001
 20
1397.0
 30
0.0
 11
1578.000000000001
 21
1397.0
 31
0.0
  0
LINE
  5
E8
330
1F
100
AcDbEntity
  8
LAY-10
  6
CONTINUOUS
 62
     7
100
AcDbLine
 10
793.0000000000003
 20
1415.0
 30
0.0
 11
860.0000000000003
 21
1415.0
 31
0.0
  0
LINE
  5
E9
330
1F
100
AcDbEntity
  8
LAY-10
  6
CONTINUOUS
 62
     7
100
AcDbLine
 10
1640.0
 20
1415.0
 30
0.0
 11
1707.000000000001
 21
1415.0
 31
0.0
  0
LINE
  5
EA
330
1F
100
AcDbEntity
  8
LAY-10
  6
CONTINUOUS
 62
     7
100
AcDbLine
 10
940.0000000000003
 20
1415.0
 30
0.0
 11
1560.0
 21
1415.0
 31
0.0
  0
LINE
  5
EB
330
1F
100
AcDbEntity
  8
LAY-10
  6
CONTINUOUS
 62
     7
100
AcDbLine
 10
820.0000000000007
 20
1442.0
 30
0.0
 11
1680.000000000001
 21
1442.0
 31
0.0
  0
LINE
  5
EC
330
1F
100
AcDbEntity
  8
LAY-10
  6
CONTINUOUS
 62
     7
100
AcDbLine
 10
822.0000000000007
 20
1444.0
 30
0.0
 11
1678.000000000001
 21
1444.0
 31
0.0
  0
CIRCLE
  5
ED
330
1F
100
AcDbEntity
  8
LAY-10
  6
CONTINUOUS
 62
     7
100
AcDbCircle
 10
1565.0
 20
1464.0
 30
0.0
 40
9.0
  0
CIRCLE
  5
EE
330
1F
100
AcDbEntity
  8
LAY-10
  6
CONTINUOUS
 62
     7
100
AcDbCircle
 10
1564.999999999626
 20
1463.999999999626
 30
0.0
 40
8.0
  0
LINE
  5
EF
330
1F
100
AcDbEntity
  8
LAY-10
  6
CONTINUOUS
 62
     7
100
AcDbLine
 10
1567.309401076626
 20
1467.999999999626
 30
0.0
 11
1562.690598923627
 21
1467.999999999626
 31
0.0
  0
LINE
  5
F0
330
1F
100
AcDbEntity
  8
LAY-10
  6
CONTINUOUS
 62
     7
100
AcDbLine
 10
1562.690598923627
 20
1467.999999999626
 30
0.0
 11
1560.381197846626
 21
1463.999999999626
 31
0.0
  0
LINE
  5
F1
330
1F
100
AcDbEntity
  8
LAY-10
  6
CONTINUOUS
 62
     7
100
AcDbLine
 10
1560.381197846626
 20
1463.999999999626
 30
0.0
 11
1562.690598923627
 21
1459.999999999626
 31
0.0
  0
LINE
  5
F2
330
1F
100
AcDbEntity
  8
LAY-10
  6
CONTINUOUS
 62
     7
100
AcDbLine
 10
1562.690598923627
 20
1459.999999999626
 30
0.0
 11
1567.309401076626
 21
1459.999999999626
 31
0.0
  0
LINE
  5
F3
330
1F
100
AcDbEntity
  8
LAY-10
  6
CONTINUOUS
 62
     7
100
AcDbLine
 10
1567.309401076626
 20
1459.999999999626
 30
0.0
 11
1569.618802153626
 21
1463.999999999626
 31
0.0
  0
LINE
  5
F4
330
1F
100
AcDbEntity
  8
LAY-10
  6
CONTINUOUS
 62
     7
100
AcDbLine
 10
1569.618802153626
 20
1463.999999999626
 30
0.0
 11
1567.309401076626
 21
1467.999999999626
 31
0.0
  0
CIRCLE
  5
F5
330
1F
100
AcDbEntity
  8
LAY-10
  6
CONTINUOUS
 62
     7
100
AcDbCircle
 10
935.0000000000003
 20
1464.0
 30
0.0
 40
9.0
  0
CIRCLE
  5
F6
330
1F
100
AcDbEntity
  8
LAY-10
  6
CONTINUOUS
 62
     7
100
AcDbCircle
 10
935.0000000003748
 20
1463.999999999626
 30
0.0
 40
8.0
  0
LINE
  5
F7
330
1F
100
AcDbEntity
  8
LAY-10
  6
CONTINUOUS
 62
     7
100
AcDbLine
 10
932.6905989233748
 20
1467.999999999626
 30
0.0
 11
937.3094010763745
 21
1467.999999999626
 31
0.0
  0
LINE
  5
F8
330
1F
100
AcDbEntity
  8
LAY-10
  6
CONTINUOUS
 62
     7
100
AcDbLine
 10
937.3094010763745
 20
1467.999999999626
 30
0.0
 11
939.6188021533745
 21
1463.999999999626
 31
0.0
  0
LINE
  5
F9
330
1F
100
AcDbEntity
  8
LAY-10
  6
CONTINUOUS
 62
     7
100
AcDbLine
 10
939.6188021533745
 20
1463.999999999626
 30
0.0
 11
937.3094010763745
 21
1459.999999999626
 31
0.0
  0
LINE
  5
FA
330
1F
100
AcDbEntity
  8
LAY-10
  6
CONTINUOUS
 62
     7
100
AcDbLine
 10
937.3094010763745
 20
1459.999999999626
 30
0.0
 11
932.6905989233748
 21
1459.999999999626
 31
0.0
  0
LINE
  5
FB
330
1F
100
AcDbEntity
  8
LAY-10
  6
CONTINUOUS
 62
     7
100
AcDbLine
 10
932.6905989233748
 20
1459.999999999626
 30
0.0
 11
930.3811978463747
 21
1463.999999999626
 31
0.0
  0
LINE
  5
FC
330
1F
100
AcDbEntity
  8
LAY-10
  6
CONTINUOUS
 62
     7
100
AcDbLine
 10
930.3811978463747
 20
1463.999999999626
 30
0.0
 11
932.6905989233748
 21
1467.999999999626
 31
0.0
  0
LINE
  5
FD
330
1F
100
AcDbEntity
  8
LAY-10
  6
CONTINUOUS
 62
     7
100
AcDbLine
 10
874.2010101267774
 20
1885.85786437627
 30
0.0
 11
903.8994949366122
 21
1915.556349186104
 31
0.0
  0
LINE
  5
FE
330
1F
100
AcDbEntity
  8
LAY-10
  6
CONTINUOUS
 62
     7
100
AcDbLine
 10
909.5563491861045
 20
1909.899494936612
 30
0.0
 11
879.8578643762698
 21
1880.201010126777
 31
0.0
  0
LINE
  5
FF
330
1F
100
AcDbEntity
  8
LAY-10
  6
CONTINUOUS
 62
     7
100
AcDbLine
 10
918.0416305603433
 20
1909.899494936611
 30
0.0
 11
903.8994949366119
 21
1924.041630560343
 31
0.0
  0
LINE
  5
100
330
1F
100
AcDbEntity
  8
LAY-10
  6
CONTINUOUS
 62
     7
100
AcDbLine
 10
903.8994949366119
 20
1924.041630560343
 30
0.0
 11
869.9583694396576
 21
1890.100505063389
 31
0.0
  0
LINE
  5
101
330
1F
100
AcDbEntity
  8
LAY-10
  6
CONTINUOUS
 62
     7
100
AcDbLine
 10
918.0416305603429
 20
1909.899494936611
 30
0.0
 11
884.1005050633887
 21
1875.958369439657
 31
0.0
  0
LINE
  5
102
330
1F
100
AcDbEntity
  8
LAY-10
  6
CONTINUOUS
 62
     7
100
AcDbLine
 10
884.1005050633887
 20
1875.958369439657
 30
0.0
 11
879.8578643762698
 21
1880.201010126777
 31
0.0
  0
LINE
  5
103
330
1F
100
AcDbEntity
  8
LAY-10
  6
CONTINUOUS
 62
     7
100
AcDbLine
 10
909.5563491861045
 20
1909.899494936612
 30
0.0
 11
903.8994949366119
 21
1915.556349186104
 31
0.0
  0
LINE
  5
104
330
1F
100
AcDbEntity
  8
LAY-10
  6
CONTINUOUS
 62
     7
100
AcDbLine
 10
874.2010101267772
 20
1885.857864376269
 30
0.0
 11
869.9583694396576
 21
1890.100505063389
 31
0.0
  0
LINE
  5
105
330
1F
100
AcDbEntity
  8
LAY-10
  6
CONTINUOUS
 62
     7
100
AcDbLine
 10
918.0416305603435
 20
1870.301515190164
 30
0.0
 11
903.8994949366122
 21
1884.443650813895
 31
0.0
  0
LINE
  5
106
330
1F
100
AcDbEntity
  8
LAY-10
  6
CONTINUOUS
 62
     7
100
AcDbLine
 10
918.0416305603433
 20
1870.301515190164
 30
0.0
 11
884.1005050633893
 21
1836.36038969321
 31
0.0
  0
LINE
  5
107
330
1F
100
AcDbEntity
  8
LAY-10
  6
CONTINUOUS
 62
     7
100
AcDbLine
 10
903.8994949366122
 20
1884.443650813895
 30
0.0
 11
869.9583694396582
 21
1850.502525316941
 31
0.0
  0
LINE
  5
108
330
1F
100
AcDbEntity
  8
LAY-10
  6
CONTINUOUS
 62
     7
100
AcDbLine
 10
909.5563491861049
 20
1870.301515190164
 30
0.0
 11
903.8994949366122
 21
1875.958369439657
 31
0.0
  0
LINE
  5
109
330
1F
100
AcDbEntity
  8
LAY-10
  6
CONTINUOUS
 62
     7
100
AcDbLine
 10
874.2010101267774
 20
1846.259884629822
 30
0.0
 11
903.8994949366124
 21
1875.958369439657
 31
0.0
  0
LINE
  5
10A
330
1F
100
AcDbEntity
  8
LAY-10
  6
CONTINUOUS
 62
     7
100
AcDbLine
 10
909.5563491861049
 20
1870.301515190164
 30
0.0
 11
879.8578643762701
 21
1840.603030380329
 31
0.0
  0
LINE
  5
10B
330
1F
100
AcDbEntity
  8
LAY-10
  6
CONTINUOUS
 62
     7
100
AcDbLine
 10
874.2010101267774
 20
1846.259884629822
 30
0.0
 11
869.9583694396576
 21
1850.502525316941
 31
0.0
  0
LINE
  5
10C
330
1F
100
AcDbEntity
  8
LAY-10
  6
CONTINUOUS
 62
     7
100
AcDbLine
 10
884.1005050633893
 20
1836.36038969321
 30
0.0
 11
879.8578643762701
 21
1840.603030380329
 31
0.0
  0
LINE
  5
10D
330
1F
100
AcDbEntity
  8
LAY-10
  6
CONTINUOUS
 62
     7
100
AcDbLine
 10
920.8700576850902
 20
1833.531962568463
 30
0.0
 11
906.7279220613588
 21
1847.674098192194
 31
0.0
  0
LINE
  5
10E
330
1F
100
AcDbEntity
  8
LAY-10
  6
CONTINUOUS
 62
     7
100
AcDbLine
 10
920.8700576850898
 20
1833.531962568463
 30
0.0
 11
886.9289321881356
 21
1799.590837071509
 31
0.0
  0
LINE
  5
10F
330
1F
100
AcDbEntity
  8
LAY-10
  6
CONTINUOUS
 62
     7
100
AcDbLine
 10
906.7279220613588
 20
1847.674098192194
 30
0.0
 11
872.7867965644045
 21
1813.73297269524
 31
0.0
  0
LINE
  5
110
330
1F
100
AcDbEntity
  8
LAY-10
  6
CONTINUOUS
 62
     7
100
AcDbLine
 10
912.3847763108514
 20
1833.531962568463
 30
0.0
 11
906.7279220613588
 21
1839.188816817956
 31
0.0
  0
LINE
  5
111
330
1F
100
AcDbEntity
  8
LAY-10
  6
CONTINUOUS
 62
     7
100
AcDbLine
 10
877.0294372515243
 20
1809.490332008121
 30
0.0
 11
906.7279220613591
 21
1839.188816817956
 31
0.0
  0
LINE
  5
112
330
1F
100
AcDbEntity
  8
LAY-10
  6
CONTINUOUS
 62
     7
100
AcDbLine
 10
912.3847763108514
 20
1833.531962568463
 30
0.0
 11
882.6862915010167
 21
1803.833477758629
 31
0.0
  0
LINE
  5
113
330
1F
100
AcDbEntity
  8
LAY-10
  6
CONTINUOUS
 62
     7
100
AcDbLine
 10
877.0294372515241
 20
1809.490332008121
 30
0.0
 11
872.7867965644045
 21
1813.73297269524
 31
0.0
  0
LINE
  5
114
330
1F
100
AcDbEntity
  8
LAY-10
  6
CONTINUOUS
 62
     7
100
AcDbLine
 10
886.9289321881356
 20
1799.590837071509
 30
0.0
 11
882.6862915010167
 21
1803.833477758629
 31
0.0
  0
LINE
  5
115
330
1F
100
AcDbEntity
  8
LAY-10
  6
CONTINUOUS
 62
     7
100
AcDbLine
 10
923.6984848098367
 20
1904.242640687119
 30
0.0
 11
909.5563491861051
 21
1890.100505063388
 31
0.0
  0
LINE
  5
116
330
1F
100
AcDbEntity
  8
LAY-10
  6
CONTINUOUS
 62
     7
100
AcDbLine
 10
923.6984848098367
 20
1904.242640687119
 30
0.0
 11
957.6396103067907
 21
1870.301515190165
 31
0.0
  0
LINE
  5
117
330
1F
100
AcDbEntity
  8
LAY-10
  6
CONTINUOUS
 62
     7
100
AcDbLine
 10
909.5563491861051
 20
1890.100505063388
 30
0.0
 11
943.4974746830593
 21
1856.159379566433
 31
0.0
  0
LINE
  5
118
330
1F
100
AcDbEntity
  8
LAY-10
  6
CONTINUOUS
 62
     7
100
AcDbLine
 10
923.6984848098361
 20
1895.75735931288
 30
0.0
 11
918.0416305603435
 21
1890.100505063388
 31
0.0
  0
LINE
  5
119
330
1F
100
AcDbEntity
  8
LAY-10
  6
CONTINUOUS
 62
     7
100
AcDbLine
 10
947.7401153701783
 20
1860.402020253553
 30
0.0
 11
918.0416305603435
 21
1890.100505063388
 31
0.0
  0
LINE
  5
11A
330
1F
100
AcDbEntity
  8
LAY-10
  6
CONTINUOUS
 62
     7
100
AcDbLine
 10
923.6984848098361
 20
1895.75735931288
 30
0.0
 11
953.3969696196712
 21
1866.058874503045
 31
0.0
  0
LINE
  5
11B
330
1F
100
AcDbEntity
  8
LAY-10
  6
CONTINUOUS
 62
     7
100
AcDbLine
 10
947.7401153701785
 20
1860.402020253553
 30
0.0
 11
943.4974746830593
 21
1856.159379566433
 31
0.0
  0
LINE
  5
11C
330
1F
100
AcDbEntity
  8
LAY-10
  6
CONTINUOUS
 62
     7
100
AcDbLine
 10
957.6396103067907
 20
1870.301515190165
 30
0.0
 11
953.3969696196712
 21
1866.058874503045
 31
0.0
  0
LINE
  5
11D
330
1F
100
AcDbEntity
  8
LAY-10
  6
CONTINUOUS
 62
     7
100
AcDbLine
 10
946.3259018078056
 20
1892.928932188135
 30
0.0
 11
960.4680374315373
 21
1878.786796564403
 31
0.0
  0
LINE
  5
11E
330
1F
100
AcDbEntity
  8
LAY-10
  6
CONTINUOUS
 62
     7
100
AcDbLine
 10
946.3259018078062
 20
1892.928932188135
 30
0.0
 11
980.2670273047602
 21
1926.870057685089
 31
0.0
  0
LINE
  5
11F
330
1F
100
AcDbEntity
  8
LAY-10
  6
CONTINUOUS
 62
     7
100
AcDbLine
 10
960.4680374315373
 20
1878.786796564403
 30
0.0
 11
994.4091629284912
 21
1912.727922061357
 31
0.0
  0
LINE
  5
120
330
1F
100
AcDbEntity
  8
LAY-10
  6
CONTINUOUS
 62
     7
100
AcDbLine
 10
954.8111831820446
 20
1892.928932188134
 30
0.0
 11
960.4680374315373
 21
1887.272077938642
 31
0.0
  0
LINE
  5
121
330
1F
100
AcDbEntity
  8
LAY-10
  6
CONTINUOUS
 62
     7
100
AcDbLine
 10
990.1665222413715
 20
1916.970562748476
 30
0.0
 11
960.4680374315367
 21
1887.272077938641
 31
0.0
  0
LINE
  5
122
330
1F
100
AcDbEntity
  8
LAY-10
  6
CONTINUOUS
 62
     7
100
AcDbLine
 10
954.8111831820446
 20
1892.928932188134
 30
0.0
 11
984.509667991879
 21
1922.627416997969
 31
0.0
  0
LINE
  5
123
330
1F
100
AcDbEntity
  8
LAY-10
  6
CONTINUOUS
 62
     7
100
AcDbLine
 10
990.1665222413717
 20
1916.970562748477
 30
0.0
 11
994.4091629284912
 21
1912.727922061357
 31
0.0
  0
LINE
  5
124
330
1F
100
AcDbEntity
  8
LAY-10
  6
CONTINUOUS
 62
     7
100
AcDbLine
 10
980.2670273047602
 20
1926.870057685089
 30
0.0
 11
984.509667991879
 21
1922.627416997969
 31
0.0
  0
LINE
  5
125
330
1F
100
AcDbEntity
  8
LAY-10
  6
CONTINUOUS
 62
     7
100
AcDbLine
 10
923.6984848098361
 20
1864.644660940671
 30
0.0
 11
909.5563491861051
 21
1850.50252531694
 31
0.0
  0
LINE
  5
126
330
1F
100
AcDbEntity
  8
LAY-10
  6
CONTINUOUS
 62
     7
100
AcDbLine
 10
923.6984848098361
 20
1864.644660940671
 30
0.0
 11
957.6396103067904
 21
1830.703535443717
 31
0.0
  0
LINE
  5
127
330
1F
100
AcDbEntity
  8
LAY-10
  6
CONTINUOUS
 62
     7
100
AcDbLine
 10
909.5563491861051
 20
1850.50252531694
 30
0.0
 11
943.4974746830587
 21
1816.561399819986
 31
0.0
  0
LINE
  5
128
330
1F
100
AcDbEntity
  8
LAY-10
  6
CONTINUOUS
 62
     7
100
AcDbLine
 10
923.6984848098361
 20
1856.159379566433
 30
0.0
 11
918.0416305603435
 21
1850.50252531694
 31
0.0
  0
LINE
  5
129
330
1F
100
AcDbEntity
  8
LAY-10
  6
CONTINUOUS
 62
     7
100
AcDbLine
 10
947.7401153701779
 20
1820.804040507106
 30
0.0
 11
918.0416305603433
 21
1850.50252531694
 31
0.0
  0
LINE
  5
12A
330
1F
100
AcDbEntity
  8
LAY-10
  6
CONTINUOUS
 62
     7
100
AcDbLine
 10
923.6984848098361
 20
1856.159379566433
 30
0.0
 11
953.3969696196709
 21
1826.460894756598
 31
0.0
  0
LINE
  5
12B
330
1F
100
AcDbEntity
  8
LAY-10
  6
CONTINUOUS
 62
     7
100
AcDbLine
 10
947.7401153701785
 20
1820.804040507105
 30
0.0
 11
943.4974746830587
 21
1816.561399819986
 31
0.0
  0
LINE
  5
12C
330
1F
100
AcDbEntity
  8
LAY-10
  6
CONTINUOUS
 62
     7
100
AcDbLine
 10
957.6396103067904
 20
1830.703535443717
 30
0.0
 11
953.3969696196709
 21
1826.460894756598
 31
0.0
  0
LINE
  5
12D
330
1F
100
AcDbEntity
  8
LAY-10
  6
CONTINUOUS
 62
     7
100
AcDbLine
 10
946.3259018078056
 20
1853.330952441687
 30
0.0
 11
960.4680374315367
 21
1839.188816817956
 31
0.0
  0
LINE
  5
12E
330
1F
100
AcDbEntity
  8
LAY-10
  6
CONTINUOUS
 62
     7
100
AcDbLine
 10
946.3259018078056
 20
1853.330952441687
 30
0.0
 11
980.2670273047598
 21
1887.272077938641
 31
0.0
  0
LINE
  5
12F
330
1F
100
AcDbEntity
  8
LAY-10
  6
CONTINUOUS
 62
     7
100
AcDbLine
 10
960.4680374315367
 20
1839.188816817956
 30
0.0
 11
994.4091629284909
 21
1873.12994231491
 31
0.0
  0
LINE
  5
130
330
1F
100
AcDbEntity
  8
LAY-10
  6
CONTINUOUS
 62
     7
100
AcDbLine
 10
954.811183182044
 20
1853.330952441687
 30
0.0
 11
960.4680374315367
 21
1847.674098192194
 31
0.0
  0
LINE
  5
131
330
1F
100
AcDbEntity
  8
LAY-10
  6
CONTINUOUS
 62
     7
100
AcDbLine
 10
990.1665222413715
 20
1877.372583002029
 30
0.0
 11
960.4680374315365
 21
1847.674098192194
 31
0.0
  0
LINE
  5
132
330
1F
100
AcDbEntity
  8
LAY-10
  6
CONTINUOUS
 62
     7
100
AcDbLine
 10
954.811183182044
 20
1853.330952441687
 30
0.0
 11
984.5096679918788
 21
1883.029437251522
 31
0.0
  0
LINE
  5
133
330
1F
100
AcDbEntity
  8
LAY-10
  6
CONTINUOUS
 62
     7
100
AcDbLine
 10
990.1665222413715
 20
1877.372583002029
 30
0.0
 11
994.4091629284912
 21
1873.12994231491
 31
0.0
  0
LINE
  5
134
330
1F
100
AcDbEntity
  8
LAY-10
  6
CONTINUOUS
 62
     7
100
AcDbLine
 10
980.2670273047598
 20
1887.272077938641
 30
0.0
 11
984.5096679918788
 21
1883.029437251522
 31
0.0
  0
LINE
  5
135
330
1F
100
AcDbEntity
  8
LAY-10
  6
CONTINUOUS
 62
     7
100
AcDbLine
 10
926.526911934583
 20
1827.875108318971
 30
0.0
 11
912.3847763108517
 21
1813.732972695239
 31
0.0
  0
LINE
  5
136
330
1F
100
AcDbEntity
  8
LAY-10
  6
CONTINUOUS
 62
     7
100
AcDbLine
 10
926.526911934583
 20
1827.87510831897
 30
0.0
 11
960.4680374315367
 21
1793.933982822016
 31
0.0
  0
LINE
  5
137
330
1F
100
AcDbEntity
  8
LAY-10
  6
CONTINUOUS
 62
     7
100
AcDbLine
 10
912.3847763108517
 20
1813.732972695239
 30
0.0
 11
946.3259018078056
 21
1779.791847198285
 31
0.0
  0
LINE
  5
138
330
1F
100
AcDbEntity
  8
LAY-10
  6
CONTINUOUS
 62
     7
100
AcDbLine
 10
926.5269119345828
 20
1819.389826944732
 30
0.0
 11
920.8700576850902
 21
1813.732972695239
 31
0.0
  0
LINE
  5
139
330
1F
100
AcDbEntity
  8
LAY-10
  6
CONTINUOUS
 62
     7
100
AcDbLine
 10
950.5685424949243
 20
1784.034487885405
 30
0.0
 11
920.8700576850898
 21
1813.73297269524
 31
0.0
  0
LINE
  5
13A
330
1F
100
AcDbEntity
  8
LAY-10
  6
CONTINUOUS
 62
     7
100
AcDbLine
 10
926.5269119345828
 20
1819.389826944732
 30
0.0
 11
956.2253967444175
 21
1789.691342134897
 31
0.0
  0
LINE
  5
13B
330
1F
100
AcDbEntity
  8
LAY-10
  6
CONTINUOUS
 62
     7
100
AcDbLine
 10
950.5685424949252
 20
1784.034487885405
 30
0.0
 11
946.3259018078056
 21
1779.791847198285
 31
0.0
  0
LINE
  5
13C
330
1F
100
AcDbEntity
  8
LAY-10
  6
CONTINUOUS
 62
     7
100
AcDbLine
 10
960.4680374315367
 20
1793.933982822016
 30
0.0
 11
956.2253967444175
 21
1789.691342134897
 31
0.0
  0
LINE
  5
13D
330
1F
100
AcDbEntity
  8
LAY-10
  6
CONTINUOUS
 62
     7
100
AcDbLine
 10
949.1543289325523
 20
1816.561399819986
 30
0.0
 11
963.2964645562834
 21
1802.419264196255
 31
0.0
  0
LINE
  5
13E
330
1F
100
AcDbEntity
  8
LAY-10
  6
CONTINUOUS
 62
     7
100
AcDbLine
 10
949.1543289325525
 20
1816.561399819986
 30
0.0
 11
983.0954544295062
 21
1850.50252531694
 31
0.0
  0
LINE
  5
13F
330
1F
100
AcDbEntity
  8
LAY-10
  6
CONTINUOUS
 62
     7
100
AcDbLine
 10
963.2964645562834
 20
1802.419264196255
 30
0.0
 11
997.2375900532372
 21
1836.360389693209
 31
0.0
  0
LINE
  5
140
330
1F
100
AcDbEntity
  8
LAY-10
  6
CONTINUOUS
 62
     7
100
AcDbLine
 10
957.6396103067907
 20
1816.561399819986
 30
0.0
 11
963.2964645562834
 21
1810.904545570493
 31
0.0
  0
LINE
  5
141
330
1F
100
AcDbEntity
  8
LAY-10
  6
CONTINUOUS
 62
     7
100
AcDbLine
 10
992.994949366118
 20
1840.603030380328
 30
0.0
 11
963.2964645562834
 21
1810.904545570493
 31
0.0
  0
LINE
  5
142
330
1F
100
AcDbEntity
  8
LAY-10
  6
CONTINUOUS
 62
     7
100
AcDbLine
 10
957.6396103067907
 20
1816.561399819986
 30
0.0
 11
987.3380951166257
 21
1846.259884629821
 31
0.0
  0
LINE
  5
143
330
1F
100
AcDbEntity
  8
LAY-10
  6
CONTINUOUS
 62
     7
100
AcDbLine
 10
992.9949493661184
 20
1840.603030380328
 30
0.0
 11
997.2375900532378
 21
1836.360389693209
 31
0.0
  0
LINE
  5
144
330
1F
100
AcDbEntity
  8
LAY-10
  6
CONTINUOUS
 62
     7
100
AcDbLine
 10
983.0954544295062
 20
1850.50252531694
 30
0.0
 11
987.3380951166257
 21
1846.259884629821
 31
0.0
  0
LINE
  5
145
330
1F
100
AcDbEntity
  8
LAY-10
  6
CONTINUOUS
 62
     7
100
AcDbLine
 10
915.2132034355966
 20
1946.669047558312
 30
0.0
 11
901.0710678118653
 21
1960.811183182043
 31
0.0
  0
LINE
  5
146
330
1F
100
AcDbEntity
  8
LAY-10
  6
CONTINUOUS
 62
     7
100
AcDbLine
 10
915.2132034355964
 20
1946.669047558312
 30
0.0
 11
881.2720779386419
 21
1912.727922061358
 31
0.0
  0
LINE
  5
147
330
1F
100
AcDbEntity
  8
LAY-10
  6
CONTINUOUS
 62
     7
100
AcDbLine
 10
901.0710678118653
 20
1960.811183182043
 30
0.0
 11
867.1299423149109
 21
1926.870057685089
 31
0.0
  0
LINE
  5
148
330
1F
100
AcDbEntity
  8
LAY-10
  6
CONTINUOUS
 62
     7
100
AcDbLine
 10
906.727922061358
 20
1946.669047558312
 30
0.0
 11
901.0710678118653
 21
1952.325901807805
 31
0.0
  0
LINE
  5
149
330
1F
100
AcDbEntity
  8
LAY-10
  6
CONTINUOUS
 62
     7
100
AcDbLine
 10
871.3725830020305
 20
1922.627416997971
 30
0.0
 11
901.0710678118655
 21
1952.325901807805
 31
0.0
  0
LINE
  5
14A
330
1F
100
AcDbEntity
  8
LAY-10
  6
CONTINUOUS
 62
     7
100
AcDbLine
 10
906.727922061358
 20
1946.669047558312
 30
0.0
 11
877.0294372515232
 21
1916.970562748478
 31
0.0
  0
LINE
  5
14B
330
1F
100
AcDbEntity
  8
LAY-10
  6
CONTINUOUS
 62
     7
100
AcDbLine
 10
871.3725830020305
 20
1922.62741699797
 30
0.0
 11
867.1299423149107
 21
1926.870057685089
 31
0.0
  0
LINE
  5
14C
330
1F
100
AcDbEntity
  8
LAY-10
  6
CONTINUOUS
 62
     7
100
AcDbLine
 10
881.2720779386419
 20
1912.727922061358
 30
0.0
 11
877.0294372515232
 21
1916.970562748478
 31
0.0
  0
LINE
  5
14D
330
1F
100
AcDbEntity
  8
LAY-10
  6
CONTINUOUS
 62
     7
100
AcDbLine
 10
920.8700576850902
 20
1941.01219330882
 30
0.0
 11
906.7279220613583
 21
1926.870057685088
 31
0.0
  0
LINE
  5
14E
330
1F
100
AcDbEntity
  8
LAY-10
  6
CONTINUOUS
 62
     7
100
AcDbLine
 10
920.8700576850902
 20
1941.012193308819
 30
0.0
 11
954.811183182044
 21
1907.071067811866
 31
0.0
  0
LINE
  5
14F
330
1F
100
AcDbEntity
  8
LAY-10
  6
CONTINUOUS
 62
     7
100
AcDbLine
 10
906.7279220613583
 20
1926.870057685088
 30
0.0
 11
940.6690475583127
 21
1892.928932188134
 31
0.0
  0
LINE
  5
150
330
1F
100
AcDbEntity
  8
LAY-10
  6
CONTINUOUS
 62
     7
100
AcDbLine
 10
920.8700576850894
 20
1932.526911934581
 30
0.0
 11
915.2132034355967
 21
1926.870057685088
 31
0.0
  0
LINE
  5
151
330
1F
100
AcDbEntity
  8
LAY-10
  6
CONTINUOUS
 62
     7
100
AcDbLine
 10
944.9116882454316
 20
1897.171572875254
 30
0.0
 11
915.2132034355966
 21
1926.870057685089
 31
0.0
  0
LINE
  5
152
330
1F
100
AcDbEntity
  8
LAY-10
  6
CONTINUOUS
 62
     7
100
AcDbLine
 10
920.8700576850894
 20
1932.526911934581
 30
0.0
 11
950.5685424949243
 21
1902.828427124746
 31
0.0
  0
LINE
  5
153
330
1F
100
AcDbEntity
  8
LAY-10
  6
CONTINUOUS
 62
     7
100
AcDbLine
 10
944.9116882454317
 20
1897.171572875254
 30
0.0
 11
940.6690475583127
 21
1892.928932188134
 31
0.0
  0
LINE
  5
154
330
1F
100
AcDbEntity
  8
LAY-10
  6
CONTINUOUS
 62
     7
100
AcDbLine
 10
954.811183182044
 20
1907.071067811866
 30
0.0
 11
950.5685424949243
 21
1902.828427124746
 31
0.0
  0
LINE
  5
155
330
1F
100
AcDbEntity
  8
LAY-10
  6
CONTINUOUS
 62
     7
100
AcDbLine
 10
943.4974746830588
 20
1929.698484809835
 30
0.0
 11
957.6396103067907
 21
1915.556349186104
 31
0.0
  0
LINE
  5
156
330
1F
100
AcDbEntity
  8
LAY-10
  6
CONTINUOUS
 62
     7
100
AcDbLine
 10
943.4974746830596
 20
1929.698484809835
 30
0.0
 11
977.4386001800133
 21
1963.639610306789
 31
0.0
  0
LINE
  5
157
330
1F
100
AcDbEntity
  8
LAY-10
  6
CONTINUOUS
 62
     7
100
AcDbLine
 10
957.6396103067907
 20
1915.556349186104
 30
0.0
 11
991.5807358037443
 21
1949.497474683058
 31
0.0
  0
LINE
  5
158
330
1F
100
AcDbEntity
  8
LAY-10
  6
CONTINUOUS
 62
     7
100
AcDbLine
 10
951.982756057298
 20
1929.698484809835
 30
0.0
 11
957.6396103067907
 21
1924.041630560343
 31
0.0
  0
LINE
  5
159
330
1F
100
AcDbEntity
  8
LAY-10
  6
CONTINUOUS
 62
     7
100
AcDbLine
 10
987.3380951166248
 20
1953.740115370177
 30
0.0
 11
957.6396103067899
 21
1924.041630560342
 31
0.0
  0
LINE
  5
15A
330
1F
100
AcDbEntity
  8
LAY-10
  6
CONTINUOUS
 62
     7
100
AcDbLine
 10
951.982756057298
 20
1929.698484809835
 30
0.0
 11
981.6812408671323
 21
1959.39696961967
 31
0.0
  0
LINE
  5
15B
330
1F
100
AcDbEntity
  8
LAY-10
  6
CONTINUOUS
 62
     7
100
AcDbLine
 10
987.3380951166249
 20
1953.740115370178
 30
0.0
 11
991.5807358037446
 21
1949.497474683058
 31
0.0
  0
LINE
  5
15C
330
1F
100
AcDbEntity
  8
LAY-10
  6
CONTINUOUS
 62
     7
100
AcDbLine
 10
977.4386001800133
 20
1963.639610306789
 30
0.0
 11
981.6812408671323
 21
1959.39696961967
 31
0.0
  0
LINE
  5
15D
330
1F
100
AcDbEntity
  8
LAY-10
  6
CONTINUOUS
 62
     7
100
AcDbLine
 10
1022.693434175953
 20
1822.218254069479
 30
0.0
 11
1036.835569799684
 21
1836.36038969321
 31
0.0
  0
LINE
  5
15E
330
1F
100
AcDbEntity
  8
LAY-10
  6
CONTINUOUS
 62
     7
100
AcDbLine
 10
1022.693434175953
 20
1822.218254069479
 30
0.0
 11
988.7523086789988
 21
1856.159379566433
 31
0.0
  0
LINE
  5
15F
330
1F
100
AcDbEntity
  8
LAY-10
  6
CONTINUOUS
 62
     7
100
AcDbLine
 10
1036.835569799684
 20
1836.36038969321
 30
0.0
 11
1002.89444430273
 21
1870.301515190164
 31
0.0
  0
LINE
  5
160
330
1F
100
AcDbEntity
  8
LAY-10
  6
CONTINUOUS
 62
     7
100
AcDbLine
 10
1022.693434175953
 20
1830.703535443718
 30
0.0
 11
1028.350288425446
 21
1836.36038969321
 31
0.0
  0
LINE
  5
161
330
1F
100
AcDbEntity
  8
LAY-10
  6
CONTINUOUS
 62
     7
100
AcDbLine
 10
998.6518036156112
 20
1866.058874503045
 30
0.0
 11
1028.350288425446
 21
1836.36038969321
 31
0.0
  0
LINE
  5
162
330
1F
100
AcDbEntity
  8
LAY-10
  6
CONTINUOUS
 62
     7
100
AcDbLine
 10
1022.693434175953
 20
1830.703535443718
 30
0.0
 11
992.9949493661184
 21
1860.402020253553
 31
0.0
  0
LINE
  5
163
330
1F
100
AcDbEntity
  8
LAY-10
  6
CONTINUOUS
 62
     7
100
AcDbLine
 10
998.6518036156107
 20
1866.058874503045
 30
0.0
 11
1002.89444430273
 21
1870.301515190164
 31
0.0
  0
LINE
  5
164
330
1F
100
AcDbEntity
  8
LAY-10
  6
CONTINUOUS
 62
     7
100
AcDbLine
 10
988.7523086789988
 20
1856.159379566433
 30
0.0
 11
992.9949493661184
 21
1860.402020253553
 31
0.0
  0
LINE
  5
165
330
1F
100
AcDbEntity
  8
LAY-10
  6
CONTINUOUS
 62
     7
100
AcDbLine
 10
1019.865007051206
 20
1858.98780669118
 30
0.0
 11
1034.007142674937
 21
1873.129942314911
 31
0.0
  0
LINE
  5
166
330
1F
100
AcDbEntity
  8
LAY-10
  6
CONTINUOUS
 62
     7
100
AcDbLine
 10
1019.865007051206
 20
1858.98780669118
 30
0.0
 11
985.9238815542519
 21
1892.928932188134
 31
0.0
  0
LINE
  5
167
330
1F
100
AcDbEntity
  8
LAY-10
  6
CONTINUOUS
 62
     7
100
AcDbLine
 10
1034.007142674937
 20
1873.129942314911
 30
0.0
 11
1000.066017177983
 21
1907.071067811865
 31
0.0
  0
LINE
  5
168
330
1F
100
AcDbEntity
  8
LAY-10
  6
CONTINUOUS
 62
     7
100
AcDbLine
 10
1019.865007051206
 20
1867.473088065419
 30
0.0
 11
1025.521861300699
 21
1873.129942314911
 31
0.0
  0
LINE
  5
169
330
1F
100
AcDbEntity
  8
LAY-10
  6
CONTINUOUS
 62
     7
100
AcDbLine
 10
995.8233764908643
 20
1902.828427124746
 30
0.0
 11
1025.521861300699
 21
1873.129942314911
 31
0.0
  0
LINE
  5
16A
330
1F
100
AcDbEntity
  8
LAY-10
  6
CONTINUOUS
 62
     7
100
AcDbLine
 10
1019.865007051206
 20
1867.473088065419
 30
0.0
 11
990.1665222413715
 21
1897.171572875254
 31
0.0
  0
LINE
  5
16B
330
1F
100
AcDbEntity
  8
LAY-10
  6
CONTINUOUS
 62
     7
100
AcDbLine
 10
995.8233764908638
 20
1902.828427124746
 30
0.0
 11
1000.066017177983
 21
1907.071067811866
 31
0.0
  0
LINE
  5
16C
330
1F
100
AcDbEntity
  8
LAY-10
  6
CONTINUOUS
 62
     7
100
AcDbLine
 10
985.9238815542519
 20
1892.928932188134
 30
0.0
 11
990.1665222413715
 21
1897.171572875254
 31
0.0
  0
LINE
  5
16D
330
1F
100
AcDbEntity
  8
LAY-10
  6
CONTINUOUS
 62
     7
100
AcDbLine
 10
1019.865007051206
 20
1898.585786437627
 30
0.0
 11
1034.007142674937
 21
1912.727922061358
 31
0.0
  0
LINE
  5
16E
330
1F
100
AcDbEntity
  8
LAY-10
  6
CONTINUOUS
 62
     7
100
AcDbLine
 10
1019.865007051206
 20
1898.585786437627
 30
0.0
 11
985.9238815542519
 21
1932.526911934581
 31
0.0
  0
LINE
  5
16F
330
1F
100
AcDbEntity
  8
LAY-10
  6
CONTINUOUS
 62
     7
100
AcDbLine
 10
1034.007142674937
 20
1912.727922061358
 30
0.0
 11
1000.066017177984
 21
1946.669047558312
 31
0.0
  0
LINE
  5
170
330
1F
100
AcDbEntity
  8
LAY-10
  6
CONTINUOUS
 62
     7
100
AcDbLine
 10
1019.865007051206
 20
1907.071067811866
 30
0.0
 11
1025.521861300699
 21
1912.727922061358
 31
0.0
  0
LINE
  5
171
330
1F
100
AcDbEntity
  8
LAY-10
  6
CONTINUOUS
 62
     7
100
AcDbLine
 10
995.8233764908643
 20
1942.426406871193
 30
0.0
 11
1025.521861300699
 21
1912.727922061358
 31
0.0
  0
LINE
  5
172
330
1F
100
AcDbEntity
  8
LAY-10
  6
CONTINUOUS
 62
     7
100
AcDbLine
 10
1019.865007051206
 20
1907.071067811866
 30
0.0
 11
990.1665222413717
 21
1936.769552621701
 31
0.0
  0
LINE
  5
173
330
1F
100
AcDbEntity
  8
LAY-10
  6
CONTINUOUS
 62
     7
100
AcDbLine
 10
995.8233764908638
 20
1942.426406871193
 30
0.0
 11
1000.066017177984
 21
1946.669047558313
 31
0.0
  0
LINE
  5
174
330
1F
100
AcDbEntity
  8
LAY-10
  6
CONTINUOUS
 62
     7
100
AcDbLine
 10
985.9238815542519
 20
1932.526911934581
 30
0.0
 11
990.1665222413717
 21
1936.769552621701
 31
0.0
  0
LINE
  5
175
330
1F
100
AcDbEntity
  8
LAY-10
  6
CONTINUOUS
 62
     7
100
AcDbLine
 10
1025.521861300699
 20
1785.448701447778
 30
0.0
 11
1039.66399692443
 21
1799.590837071509
 31
0.0
  0
LINE
  5
176
330
1F
100
AcDbEntity
  8
LAY-10
  6
CONTINUOUS
 62
     7
100
AcDbLine
 10
1025.521861300699
 20
1785.448701447778
 30
0.0
 11
991.5807358037455
 21
1819.389826944732
 31
0.0
  0
LINE
  5
177
330
1F
100
AcDbEntity
  8
LAY-10
  6
CONTINUOUS
 62
     7
100
AcDbLine
 10
1039.66399692443
 20
1799.590837071509
 30
0.0
 11
1005.722871427477
 21
1833.531962568463
 31
0.0
  0
LINE
  5
178
330
1F
100
AcDbEntity
  8
LAY-10
  6
CONTINUOUS
 62
     7
100
AcDbLine
 10
1025.521861300699
 20
1793.933982822017
 30
0.0
 11
1031.178715550192
 21
1799.590837071509
 31
0.0
  0
LINE
  5
179
330
1F
100
AcDbEntity
  8
LAY-10
  6
CONTINUOUS
 62
     7
100
AcDbLine
 10
1001.480230740358
 20
1829.289321881344
 30
0.0
 11
1031.178715550192
 21
1799.590837071509
 31
0.0
  0
LINE
  5
17A
330
1F
100
AcDbEntity
  8
LAY-10
  6
CONTINUOUS
 62
     7
100
AcDbLine
 10
1025.521861300699
 20
1793.933982822017
 30
0.0
 11
995.8233764908649
 21
1823.632467631852
 31
0.0
  0
LINE
  5
17B
330
1F
100
AcDbEntity
  8
LAY-10
  6
CONTINUOUS
 62
     7
100
AcDbLine
 10
1001.480230740357
 20
1829.289321881344
 30
0.0
 11
1005.722871427477
 21
1833.531962568464
 31
0.0
  0
LINE
  5
17C
330
1F
100
AcDbEntity
  8
LAY-10
  6
CONTINUOUS
 62
     7
100
AcDbLine
 10
991.5807358037455
 20
1819.389826944732
 30
0.0
 11
995.8233764908649
 21
1823.632467631852
 31
0.0
  0
LINE
  5
17D
330
1F
100
AcDbEntity
  8
LAY-10
  6
CONTINUOUS
 62
     7
100
AcDbLine
 10
915.2132034355964
 20
1986.267027304759
 30
0.0
 11
901.071067811865
 21
2000.409162928491
 31
0.0
  0
LINE
  5
17E
330
1F
100
AcDbEntity
  8
LAY-10
  6
CONTINUOUS
 62
     7
100
AcDbLine
 10
915.213203435596
 20
1986.267027304759
 30
0.0
 11
881.2720779386418
 21
1952.325901807806
 31
0.0
  0
LINE
  5
17F
330
1F
100
AcDbEntity
  8
LAY-10
  6
CONTINUOUS
 62
     7
100
AcDbLine
 10
901.071067811865
 20
2000.409162928491
 30
0.0
 11
867.1299423149107
 21
1966.468037431537
 31
0.0
  0
LINE
  5
180
330
1F
100
AcDbEntity
  8
LAY-10
  6
CONTINUOUS
 62
     7
100
AcDbLine
 10
906.7279220613576
 20
1986.26702730476
 30
0.0
 11
901.071067811865
 21
1991.923881554252
 31
0.0
  0
LINE
  5
181
330
1F
100
AcDbEntity
  8
LAY-10
  6
CONTINUOUS
 62
     7
100
AcDbLine
 10
871.3725830020305
 20
1962.225396744418
 30
0.0
 11
901.0710678118653
 21
1991.923881554253
 31
0.0
  0
LINE
  5
182
330
1F
100
AcDbEntity
  8
LAY-10
  6
CONTINUOUS
 62
     7
100
AcDbLine
 10
906.7279220613576
 20
1986.26702730476
 30
0.0
 11
877.029437251523
 21
1956.568542494925
 31
0.0
  0
LINE
  5
183
330
1F
100
AcDbEntity
  8
LAY-10
  6
CONTINUOUS
 62
     7
100
AcDbLine
 10
871.3725830020303
 20
1962.225396744417
 30
0.0
 11
867.1299423149107
 21
1966.468037431537
 31
0.0
  0
LINE
  5
184
330
1F
100
AcDbEntity
  8
LAY-10
  6
CONTINUOUS
 62
     7
100
AcDbLine
 10
881.2720779386418
 20
1952.325901807806
 30
0.0
 11
877.029437251523
 21
1956.568542494925
 31
0.0
  0
LINE
  5
185
330
1F
100
AcDbEntity
  8
LAY-10
  6
CONTINUOUS
 62
     7
100
AcDbLine
 10
920.8700576850898
 20
1980.610173055267
 30
0.0
 11
906.7279220613582
 21
1966.468037431536
 31
0.0
  0
LINE
  5
186
330
1F
100
AcDbEntity
  8
LAY-10
  6
CONTINUOUS
 62
     7
100
AcDbLine
 10
920.8700576850898
 20
1980.610173055267
 30
0.0
 11
954.8111831820438
 21
1946.669047558313
 31
0.0
  0
LINE
  5
187
330
1F
100
AcDbEntity
  8
LAY-10
  6
CONTINUOUS
 62
     7
100
AcDbLine
 10
906.7279220613582
 20
1966.468037431536
 30
0.0
 11
940.6690475583124
 21
1932.526911934582
 31
0.0
  0
LINE
  5
188
330
1F
100
AcDbEntity
  8
LAY-10
  6
CONTINUOUS
 62
     7
100
AcDbLine
 10
920.8700576850893
 20
1972.124891681028
 30
0.0
 11
915.2132034355966
 21
1966.468037431536
 31
0.0
  0
LINE
  5
189
330
1F
100
AcDbEntity
  8
LAY-10
  6
CONTINUOUS
 62
     7
100
AcDbLine
 10
944.9116882454314
 20
1936.769552621701
 30
0.0
 11
915.2132034355966
 21
1966.468037431536
 31
0.0
  0
LINE
  5
18A
330
1F
100
AcDbEntity
  8
LAY-10
  6
CONTINUOUS
 62
     7
100
AcDbLine
 10
920.8700576850893
 20
1972.124891681028
 30
0.0
 11
950.5685424949243
 21
1942.426406871194
 31
0.0
  0
LINE
  5
18B
330
1F
100
AcDbEntity
  8
LAY-10
  6
CONTINUOUS
 62
     7
100
AcDbLine
 10
944.9116882454316
 20
1936.769552621701
 30
0.0
 11
940.6690475583124
 21
1932.526911934581
 31
0.0
  0
LINE
  5
18C
330
1F
100
AcDbEntity
  8
LAY-10
  6
CONTINUOUS
 62
     7
100
AcDbLine
 10
954.8111831820438
 20
1946.669047558313
 30
0.0
 11
950.5685424949243
 21
1942.426406871194
 31
0.0
  0
LINE
  5
18D
330
1F
100
AcDbEntity
  8
LAY-10
  6
CONTINUOUS
 62
     7
100
AcDbLine
 10
943.4974746830587
 20
1969.296464556283
 30
0.0
 11
957.6396103067904
 21
1955.154328932552
 31
0.0
  0
LINE
  5
18E
330
1F
100
AcDbEntity
  8
LAY-10
  6
CONTINUOUS
 62
     7
100
AcDbLine
 10
943.4974746830593
 20
1969.296464556283
 30
0.0
 11
977.4386001800133
 21
2003.237590053237
 31
0.0
  0
LINE
  5
18F
330
1F
100
AcDbEntity
  8
LAY-10
  6
CONTINUOUS
 62
     7
100
AcDbLine
 10
957.6396103067904
 20
1955.154328932552
 30
0.0
 11
991.5807358037443
 21
1989.095454429505
 31
0.0
  0
LINE
  5
190
330
1F
100
AcDbEntity
  8
LAY-10
  6
CONTINUOUS
 62
     7
100
AcDbLine
 10
951.9827560572977
 20
1969.296464556283
 30
0.0
 11
957.6396103067904
 21
1963.63961030679
 31
0.0
  0
LINE
  5
191
330
1F
100
AcDbEntity
  8
LAY-10
  6
CONTINUOUS
 62
     7
100
AcDbLine
 10
987.3380951166246
 20
1993.338095116624
 30
0.0
 11
957.6396103067898
 21
1963.63961030679
 31
0.0
  0
LINE
  5
192
330
1F
100
AcDbEntity
  8
LAY-10
  6
CONTINUOUS
 62
     7
100
AcDbLine
 10
951.9827560572977
 20
1969.296464556283
 30
0.0
 11
981.6812408671321
 21
1998.994949366117
 31
0.0
  0
LINE
  5
193
330
1F
100
AcDbEntity
  8
LAY-10
  6
CONTINUOUS
 62
     7
100
AcDbLine
 10
987.3380951166248
 20
1993.338095116625
 30
0.0
 11
991.5807358037443
 21
1989.095454429505
 31
0.0
  0
LINE
  5
194
330
1F
100
AcDbEntity
  8
LAY-10
  6
CONTINUOUS
 62
     7
100
AcDbLine
 10
977.4386001800133
 20
2003.237590053237
 30
0.0
 11
981.6812408671321
 21
1998.994949366117
 31
0.0
  0
LINE
  5
195
330
1F
100
AcDbEntity
  8
LAY-10
  6
CONTINUOUS
 62
     7
100
AcDbLine
 10
1019.865007051206
 20
1938.183766184075
 30
0.0
 11
1034.007142674937
 21
1952.325901807806
 31
0.0
  0
LINE
  5
196
330
1F
100
AcDbEntity
  8
LAY-10
  6
CONTINUOUS
 62
     7
100
AcDbLine
 10
1019.865007051206
 20
1938.183766184075
 30
0.0
 11
985.9238815542517
 21
1972.124891681029
 31
0.0
  0
LINE
  5
197
330
1F
100
AcDbEntity
  8
LAY-10
  6
CONTINUOUS
 62
     7
100
AcDbLine
 10
1034.007142674937
 20
1952.325901807806
 30
0.0
 11
1000.066017177984
 21
1986.26702730476
 31
0.0
  0
LINE
  5
198
330
1F
100
AcDbEntity
  8
LAY-10
  6
CONTINUOUS
 62
     7
100
AcDbLine
 10
1019.865007051206
 20
1946.669047558313
 30
0.0
 11
1025.521861300699
 21
1952.325901807806
 31
0.0
  0
LINE
  5
199
330
1F
100
AcDbEntity
  8
LAY-10
  6
CONTINUOUS
 62
     7
100
AcDbLine
 10
995.8233764908641
 20
1982.02438661764
 30
0.0
 11
1025.521861300699
 21
1952.325901807806
 31
0.0
  0
LINE
  5
19A
330
1F
100
AcDbEntity
  8
LAY-10
  6
CONTINUOUS
 62
     7
100
AcDbLine
 10
1019.865007051206
 20
1946.669047558313
 30
0.0
 11
990.1665222413715
 21
1976.367532368148
 31
0.0
  0
LINE
  5
19B
330
1F
100
AcDbEntity
  8
LAY-10
  6
CONTINUOUS
 62
     7
100
AcDbLine
 10
995.8233764908638
 20
1982.024386617641
 30
0.0
 11
1000.066017177984
 21
1986.26702730476
 31
0.0
  0
LINE
  5
19C
330
1F
100
AcDbEntity
  8
LAY-10
  6
CONTINUOUS
 62
     7
100
AcDbLine
 10
985.9238815542517
 20
1972.124891681029
 30
0.0
 11
990.1665222413715
 21
1976.367532368148
 31
0.0
  0
TEXT
  5
19D
330
1F
100
AcDbEntity
  8
LAY-10
  6
CONTINUOUS
 62
     7
100
AcDbText
 10
1039.0
 20
1473.007874500001
 30
0.0
 40
11.692914
  1
ＦＵＫＵＮＩＳＨＩ  ＦＯＵＮＤＲＹ  ＣＯ.,ＬＴＤ.
 41
0.9441436013562081
  7
EXCADSTD
100
AcDbText
  0
LINE
  5
19E
330
1F
100
AcDbEntity
  8
LAY-10
  6
CONTINUOUS
 62
     7
100
AcDbLine
 10
1013.709618943234
 20
1479.6
 30
0.0
 11
1026.700000000001
 21
1487.1
 31
0.0
  0
LINE
  5
19F
330
1F
100
AcDbEntity
  8
LAY-10
  6
CONTINUOUS
 62
     7
100
AcDbLine
 10
1039.690381056767
 20
1479.6
 30
0.0
 11
1026.700000000001
 21
1472.1
 31
0.0
  0
LINE
  5
1A0
330
1F
100
AcDbEntity
  8
LAY-10
  6
CONTINUOUS
 62
     7
100
AcDbLine
 10
1013.709618943234
 20
1479.6
 30
0.0
 11
1026.700000000001
 21
1472.1
 31
0.0
  0
LINE
  5
1A1
330
1F
100
AcDbEntity
  8
LAY-10
  6
CONTINUOUS
 62
     7
100
AcDbLine
 10
1039.690381056768
 20
1479.6
 30
0.0
 11
1026.700000000001
 21
1487.1
 31
0.0
  0
LINE
  5
1A2
330
1F
100
AcDbEntity
  8
LAY-10
  6
CONTINUOUS
 62
     7
100
AcDbLine
 10
1015.709618943235
 20
1479.6
 30
0.0
 11
1026.700000000001
 21
1473.254700538379
 31
0.0
  0
LINE
  5
1A3
330
1F
100
AcDbEntity
  8
LAY-10
  6
CONTINUOUS
 62
     7
100
AcDbLine
 10
1026.700000000001
 20
1485.94529946162
 30
0.0
 11
1037.690381056768
 21
1479.6
 31
0.0
  0
LINE
  5
1A4
330
1F
100
AcDbEntity
  8
LAY-10
  6
CONTINUOUS
 62
     7
100
AcDbLine
 10
1015.709618943235
 20
1479.6
 30
0.0
 11
1026.700000000001
 21
1485.94529946162
 31
0.0
  0
LINE
  5
1A5
330
1F
100
AcDbEntity
  8
LAY-10
  6
CONTINUOUS
 62
     7
100
AcDbLine
 10
1026.700000000001
 20
1473.254700538379
 30
0.0
 11
1037.690381056768
 21
1479.6
 31
0.0
  0
TEXT
  5
1A6
330
1F
100
AcDbEntity
  8
LAY-10
  6
CONTINUOUS
 62
     7
100
AcDbText
 10
1020.300000000001
 20
1476.8708664
 30
0.0
 40
6.2362208
  1
ＳＦ
 41
1.00625
  7
EXCADSTD
100
AcDbText
  0
TEXT
  5
1A7
330
1F
100
AcDbEntity
  8
LAY-10
  6
CONTINUOUS
 62
     7
100
AcDbText
 10
1389.0
 20
1473.007874500001
 30
0.0
 40
11.692914
  1
ＳＦ－７５ＳＳ
 41
1.057236526319517
  7
EXCADSTD
100
AcDbText
  0
LINE
  5
1A8
330
1F
100
AcDbEntity
  8
LAY-10
  6
CONTINUOUS
 62
     7
100
AcDbLine
 10
811.0000000000005
 20
800.0000000000002
 30
0.0
 11
820.0000000000007
 21
800.0000000000002
 31
0.0
  0
LINE
  5
1A9
330
1F
100
AcDbEntity
  8
LAY-10
  6
CONTINUOUS
 62
     7
100
AcDbLine
 10
775.0000000000003
 20
735.0000000000002
 30
0.0
 11
1725.000000000001
 21
735.0000000000002
 31
0.0
  0
LINE
  5
1AA
330
1F
100
AcDbEntity
  8
LAY-10
  6
CONTINUOUS
 62
     7
100
AcDbLine
 10
850.8522479285086
 20
743.0000000000002
 30
0.0
 11
859.4867239132157
 21
743.0000000000002
 31
0.0
  0
LINE
  5
1AB
330
1F
100
AcDbEntity
  8
LAY-10
  6
CONTINUOUS
 62
     7
100
AcDbLine
 10
874.2500000000003
 20
771.0000000000003
 30
0.0
 11
875.0000000000003
 21
735.0000000000003
 31
0.0
  0
LINE
  5
1AC
330
1F
100
AcDbEntity
  8
LAY-10
  6
CONTINUOUS
 62
     7
100
AcDbLine
 10
863.4812420522339
 20
746.7906561750285
 30
0.0
 11
864.7500000000005
 21
771.0000000000003
 31
0.0
  0
LINE
  5
1AD
330
1F
100
AcDbEntity
  8
LAY-10
  6
CONTINUOUS
 62
     7
100
AcDbLine
 10
820.9814376976092
 20
771.8953015098926
 30
0.0
 11
820.0000000000007
 21
800.0000000000002
 31
0.0
  0
LINE
  5
1AE
330
1F
100
AcDbEntity
  8
LAY-10
  6
CONTINUOUS
 62
     7
100
AcDbLine
 10
822.0000000000005
 20
800.0000000000002
 30
0.0
 11
1678.000000000001
 21
800.0000000000002
 31
0.0
  0
LINE
  5
1AF
330
1F
100
AcDbEntity
  8
LAY-10
  6
CONTINUOUS
 62
     7
100
AcDbLine
 10
795.280585244532
 20
745.0000000000002
 30
0.0
 11
805.2166025787258
 21
745.0000000000002
 31
0.0
  0
LINE
  5
1B0
330
1F
100
AcDbEntity
  8
LAY-10
  6
CONTINUOUS
 62
     7
100
AcDbLine
 10
793.4227053857402
 20
747.1046984901077
 30
0.0
 11
793.0000000000003
 21
735.0000000000003
 31
0.0
  0
LINE
  5
1B1
330
1F
100
AcDbEntity
  8
LAY-10
  6
CONTINUOUS
 62
     7
100
AcDbLine
 10
809.2141658868021
 20
748.8604020131903
 30
0.0
 11
811.0000000000005
 21
800.0000000000002
 31
0.0
  0
LINE
  5
1B2
330
1F
100
AcDbEntity
  8
LAY-10
  6
CONTINUOUS
 62
     7
100
AcDbLine
 10
823.9796101786661
 20
769.0000000000001
 30
0.0
 11
840.0000000000003
 21
769.0000000000001
 31
0.0
  0
LINE
  5
1B3
330
1F
100
AcDbEntity
  8
LAY-10
  6
CONTINUOUS
 62
     7
100
AcDbLine
 10
840.865952580963
 20
752.4766404375708
 30
0.0
 11
840.0000000000007
 21
769.0
 31
0.0
  0
ARC
  5
1B4
330
1F
100
AcDbEntity
  8
LAY-10
  6
CONTINUOUS
 62
     7
100
AcDbCircle
 10
850.8522479285086
 20
753.0000000000002
 30
0.0
 40
10.0
100
AcDbArc
 50
182.9999999999997
 51
270.0
  0
ARC
  5
1B5
330
1F
100
AcDbEntity
  8
LAY-10
  6
CONTINUOUS
 62
     7
100
AcDbCircle
 10
823.9796101786661
 20
772.0000000000001
 30
0.0
 40
3.000000000000001
100
AcDbArc
 50
181.9999999999993
 51
270.0
  0
LINE
  5
1B6
330
1F
100
AcDbEntity
  8
LAY-10
  6
CONTINUOUS
 62
     7
100
AcDbLine
 10
825.0480228227051
 20
771.0000000000002
 30
0.0
 11
842.0000000000007
 21
771.0000000000002
 31
0.0
  0
LINE
  5
1B7
330
1F
100
AcDbEntity
  8
LAY-10
  6
CONTINUOUS
 62
     7
100
AcDbLine
 10
842.4329762904815
 20
779.261679781215
 30
0.0
 11
842.0000000000007
 21
771.0000000000003
 31
0.0
  0
LINE
  5
1B8
330
1F
100
AcDbEntity
  8
LAY-10
  6
CONTINUOUS
 62
     7
100
AcDbLine
 10
847.4261239642544
 20
784.0000000000003
 30
0.0
 11
894.5000000000001
 21
784.0000000000003
 31
0.0
  0
LINE
  5
1B9
330
1F
100
AcDbEntity
  8
LAY-10
  6
CONTINUOUS
 62
     7
100
AcDbLine
 10
1160.0
 20
786.0000000000002
 30
0.0
 11
1340.0
 21
786.0000000000002
 31
0.0
  0
LINE
  5
1BA
330
1F
100
AcDbEntity
  8
LAY-10
  6
CONTINUOUS
 62
     7
100
AcDbLine
 10
894.5000000000005
 20
784.0000000000005
 30
0.0
 11
896.509264877666
 21
787.4801488539811
 31
0.0
  0
ARC
  5
1BB
330
1F
100
AcDbEntity
  8
LAY-10
  6
CONTINUOUS
 62
     7
100
AcDbCircle
 10
847.4261239642544
 20
779.0000000000003
 30
0.0
 40
5.0
100
AcDbArc
 50
90.0
 51
177.0000000000009
  0
ARC
  5
1BC
330
1F
100
AcDbEntity
  8
LAY-10
  6
CONTINUOUS
 62
     7
100
AcDbCircle
 10
805.2166025787258
 20
749.0000000000003
 30
0.0
 40
4.0
100
AcDbArc
 50
270.0
 51
357.9999999999995
  0
ARC
  5
1BD
330
1F
100
AcDbEntity
  8
LAY-10
  6
CONTINUOUS
 62
     7
100
AcDbCircle
 10
795.280585244532
 20
743.0000000000002
 30
0.0
 40
2.0
100
AcDbArc
 50
90.0
 51
177.999999999993
  0
ARC
  5
1BE
330
1F
100
AcDbEntity
  8
LAY-10
  6
CONTINUOUS
 62
     7
100
AcDbCircle
 10
859.4867239132157
 20
747.0000000000002
 30
0.0
 40
4.0
100
AcDbArc
 50
270.0
 51
357.0000000000009
  0
LINE
  5
1BF
330
1F
100
AcDbEntity
  8
LAY-10
  6
CONTINUOUS
 62
     7
100
AcDbLine
 10
1160.0
 20
786.0000000000003
 30
0.0
 11
899.1416097820702
 21
788.9799531237086
 31
0.0
  0
LINE
  5
1C0
330
1F
100
AcDbEntity
  8
LAY-10
  6
CONTINUOUS
 62
     7
100
AcDbLine
 10
825.0480228227051
 20
771.0000000000002
 30
0.0
 11
822.0000000000007
 21
800.0000000000001
 31
0.0
  0
LINE
  5
1C1
330
1F
100
AcDbEntity
  8
LAY-10
  6
CONTINUOUS
 62
     7
100
AcDbLine
 10
824.7121485693041
 20
769.0000000000001
 30
0.0
 11
822.0000000000007
 21
800.0000000000002
 31
0.0
  0
LINE
  5
1C2
330
1F
100
AcDbEntity
  8
LAY-10
  6
CONTINUOUS
 62
     7
100
AcDbLine
 10
824.3621939152005
 20
773.0000000000002
 30
0.0
 11
824.8378143521737
 21
773.0000000000002
 31
0.0
  0
LINE
  5
1C3
330
1F
100
AcDbEntity
  8
LAY-10
  6
CONTINUOUS
 62
     7
100
AcDbLine
 10
894.5000000000005
 20
784.0000000000005
 30
0.0
 11
1605.500000000001
 21
784.0000000000005
 31
0.0
  0
ARC
  5
1C4
330
1F
100
AcDbEntity
  8
LAY-10
  6
CONTINUOUS
 62
     7
100
AcDbCircle
 10
899.1073410890194
 20
785.980148853981
 30
0.0
 40
3.000000000000001
100
AcDbArc
 50
89.3455019389606
 51
149.9999999999976
  0
LINE
  5
1C5
330
1F
100
AcDbEntity
  8
LAY-10
  6
CONTINUOUS
 62
     7
100
AcDbLine
 10
840.366854454982
 20
762.0000000000002
 30
0.0
 11
848.0000000000007
 21
762.0000000000002
 31
0.0
  0
LINE
  5
1C6
330
1F
100
AcDbEntity
  8
LAY-10
  6
CONTINUOUS
 62
     7
100
AcDbLine
 10
849.3010926838795
 20
776.8715574274769
 30
0.0
 11
848.0000000000003
 21
762.0000000000005
 31
0.0
  0
ARC
  5
1C7
330
1F
100
AcDbEntity
  8
LAY-10
  6
CONTINUOUS
 62
     7
100
AcDbCircle
 10
853.5440311688725
 20
768.0000000000002
 30
0.0
 40
5.0
100
AcDbArc
 50
90.0
 51
175.0000000000002
  0
LINE
  5
1C8
330
1F
100
AcDbEntity
  8
LAY-10
  6
CONTINUOUS
 62
     7
100
AcDbLine
 10
1625.750000000001
 20
771.0000000000003
 30
0.0
 11
1625.000000000001
 21
735.0000000000003
 31
0.0
  0
LINE
  5
1C9
330
1F
100
AcDbEntity
  8
LAY-10
  6
CONTINUOUS
 62
     7
100
AcDbLine
 10
1689.0
 20
800.0000000000002
 30
0.0
 11
1680.0
 21
800.0000000000002
 31
0.0
  0
LINE
  5
1CA
330
1F
100
AcDbEntity
  8
LAY-10
  6
CONTINUOUS
 62
     7
100
AcDbLine
 10
1659.134047419038
 20
752.4766404375708
 30
0.0
 11
1660.0
 21
769.0
 31
0.0
  0
ARC
  5
1CB
330
1F
100
AcDbEntity
  8
LAY-10
  6
CONTINUOUS
 62
     7
100
AcDbCircle
 10
1649.147752071492
 20
753.0000000000002
 30
0.0
 40
10.0
100
AcDbArc
 50
270.0
 51
357.0000000000003
  0
LINE
  5
1CC
330
1F
100
AcDbEntity
  8
LAY-10
  6
CONTINUOUS
 62
     7
100
AcDbLine
 10
1676.020389821335
 20
769.0000000000001
 30
0.0
 11
1660.000000000001
 21
769.0000000000001
 31
0.0
  0
LINE
  5
1CD
330
1F
100
AcDbEntity
  8
LAY-10
  6
CONTINUOUS
 62
     7
100
AcDbLine
 10
1679.018562302392
 20
771.8953015098926
 30
0.0
 11
1680.0
 21
800.0000000000002
 31
0.0
  0
ARC
  5
1CE
330
1F
100
AcDbEntity
  8
LAY-10
  6
CONTINUOUS
 62
     7
100
AcDbCircle
 10
1676.020389821335
 20
772.0000000000001
 30
0.0
 40
3.000000000000001
100
AcDbArc
 50
270.0
 51
358.0000000000007
  0
LINE
  5
1CF
330
1F
100
AcDbEntity
  8
LAY-10
  6
CONTINUOUS
 62
     7
100
AcDbLine
 10
1657.567023709519
 20
779.261679781215
 30
0.0
 11
1658.0
 21
771.0000000000003
 31
0.0
  0
LINE
  5
1D0
330
1F
100
AcDbEntity
  8
LAY-10
  6
CONTINUOUS
 62
     7
100
AcDbLine
 10
1652.573876035747
 20
784.0000000000003
 30
0.0
 11
1605.500000000001
 21
784.0000000000003
 31
0.0
  0
ARC
  5
1D1
330
1F
100
AcDbEntity
  8
LAY-10
  6
CONTINUOUS
 62
     7
100
AcDbCircle
 10
1652.573876035747
 20
779.0000000000003
 30
0.0
 40
5.0
100
AcDbArc
 50
2.999999999998918
 51
90.0
  0
LINE
  5
1D2
330
1F
100
AcDbEntity
  8
LAY-10
  6
CONTINUOUS
 62
     7
100
AcDbLine
 10
1636.518757947767
 20
746.7906561750285
 30
0.0
 11
1635.25
 21
771.0000000000003
 31
0.0
  0
LINE
  5
1D3
330
1F
100
AcDbEntity
  8
LAY-10
  6
CONTINUOUS
 62
     7
100
AcDbLine
 10
1649.147752071492
 20
743.0000000000002
 30
0.0
 11
1640.513276086785
 21
743.0000000000002
 31
0.0
  0
ARC
  5
1D4
330
1F
100
AcDbEntity
  8
LAY-10
  6
CONTINUOUS
 62
     7
100
AcDbCircle
 10
1640.513276086785
 20
747.0000000000002
 30
0.0
 40
4.0
100
AcDbArc
 50
182.9999999999993
 51
270.0
  0
LINE
  5
1D5
330
1F
100
AcDbEntity
  8
LAY-10
  6
CONTINUOUS
 62
     7
100
AcDbLine
 10
1674.951977177296
 20
771.0000000000002
 30
0.0
 11
1678.0
 21
800.0000000000001
 31
0.0
  0
LINE
  5
1D6
330
1F
100
AcDbEntity
  8
LAY-10
  6
CONTINUOUS
 62
     7
100
AcDbLine
 10
1674.951977177296
 20
771.0000000000002
 30
0.0
 11
1658.0
 21
771.0000000000002
 31
0.0
  0
LINE
  5
1D7
330
1F
100
AcDbEntity
  8
LAY-10
  6
CONTINUOUS
 62
     7
100
AcDbLine
 10
1675.287851430697
 20
769.0000000000001
 30
0.0
 11
1678.0
 21
800.0000000000002
 31
0.0
  0
LINE
  5
1D8
330
1F
100
AcDbEntity
  8
LAY-10
  6
CONTINUOUS
 62
     7
100
AcDbLine
 10
1675.637806084801
 20
773.0000000000002
 30
0.0
 11
1675.162185647827
 21
773.0000000000002
 31
0.0
  0
LINE
  5
1D9
330
1F
100
AcDbEntity
  8
LAY-10
  6
CONTINUOUS
 62
     7
100
AcDbLine
 10
1605.500000000001
 20
784.0000000000005
 30
0.0
 11
1603.490735122335
 21
787.4801488539811
 31
0.0
  0
LINE
  5
1DA
330
1F
100
AcDbEntity
  8
LAY-10
  6
CONTINUOUS
 62
     7
100
AcDbLine
 10
1340.0
 20
786.0000000000003
 30
0.0
 11
1600.858390217931
 21
788.9799531237086
 31
0.0
  0
ARC
  5
1DB
330
1F
100
AcDbEntity
  8
LAY-10
  6
CONTINUOUS
 62
     7
100
AcDbCircle
 10
1600.892658910981
 20
785.980148853981
 30
0.0
 40
3.000000000000001
100
AcDbArc
 50
30.00000000000133
 51
90.65449806103933
  0
LINE
  5
1DC
330
1F
100
AcDbEntity
  8
LAY-10
  6
CONTINUOUS
 62
     7
100
AcDbLine
 10
1659.633145545019
 20
762.0000000000002
 30
0.0
 11
1652.0
 21
762.0000000000002
 31
0.0
  0
ARC
  5
1DD
330
1F
100
AcDbEntity
  8
LAY-10
  6
CONTINUOUS
 62
     7
100
AcDbCircle
 10
1646.455968831129
 20
768.0000000000002
 30
0.0
 40
5.0
100
AcDbArc
 50
4.999999999999686
 51
90.0
  0
LINE
  5
1DE
330
1F
100
AcDbEntity
  8
LAY-10
  6
CONTINUOUS
 62
     7
100
AcDbLine
 10
1650.698907316121
 20
776.8715574274769
 30
0.0
 11
1652.000000000001
 21
762.0000000000005
 31
0.0
  0
LINE
  5
1DF
330
1F
100
AcDbEntity
  8
LAY-10
  6
CONTINUOUS
 62
     7
100
AcDbLine
 10
806.3568952009916
 20
750.0000000000002
 30
0.0
 11
778.6330103893905
 21
750.0000000000002
 31
0.0
  0
LINE
  5
1E0
330
1F
100
AcDbEntity
  8
LAY-10
  6
CONTINUOUS
 62
     7
100
AcDbLine
 10
775.637121785127
 20
747.1570078687291
 30
0.0
 11
775.0000000000003
 21
735.0000000000002
 31
0.0
  0
ARC
  5
1E1
330
1F
100
AcDbEntity
  8
LAY-10
  6
CONTINUOUS
 62
     7
100
AcDbCircle
 10
806.3568952009916
 20
753.0000000000002
 30
0.0
 40
3.000000000000001
100
AcDbArc
 50
270.0
 51
358.0000000000009
  0
ARC
  5
1E2
330
1F
100
AcDbEntity
  8
LAY-10
  6
CONTINUOUS
 62
     7
100
AcDbCircle
 10
796.4208778667975
 20
747.0000000000002
 30
0.0
 40
3.000000000000001
100
AcDbArc
 50
90.0
 51
178.0000000000007
  0
ARC
  5
1E3
330
1F
100
AcDbEntity
  8
LAY-10
  6
CONTINUOUS
 62
     7
100
AcDbCircle
 10
778.6330103893905
 20
747.0000000000002
 30
0.0
 40
3.000000000000001
100
AcDbArc
 50
90.0
 51
176.9999999999988
  0
LINE
  5
1E4
330
1F
100
AcDbEntity
  8
LAY-10
  6
CONTINUOUS
 62
     7
100
AcDbLine
 10
1690.785834113199
 20
748.8604020131903
 30
0.0
 11
1689.0
 21
800.0000000000002
 31
0.0
  0
ARC
  5
1E5
330
1F
100
AcDbEntity
  8
LAY-10
  6
CONTINUOUS
 62
     7
100
AcDbCircle
 10
1694.783397421275
 20
749.0000000000003
 30
0.0
 40
4.0
100
AcDbArc
 50
182.0000000000003
 51
270.0
  0
LINE
  5
1E6
330
1F
100
AcDbEntity
  8
LAY-10
  6
CONTINUOUS
 62
     7
100
AcDbLine
 10
1704.719414755469
 20
745.0000000000002
 30
0.0
 11
1694.783397421275
 21
745.0000000000002
 31
0.0
  0
ARC
  5
1E7
330
1F
100
AcDbEntity
  8
LAY-10
  6
CONTINUOUS
 62
     7
100
AcDbCircle
 10
1704.719414755469
 20
743.0000000000002
 30
0.0
 40
2.0
100
AcDbArc
 50
2.000000000006612
 51
90.0
  0
ARC
  5
1E8
330
1F
100
AcDbEntity
  8
LAY-10
  6
CONTINUOUS
 62
     7
100
AcDbCircle
 10
1693.64310479901
 20
753.0000000000002
 30
0.0
 40
3.000000000000001
100
AcDbArc
 50
181.9999999999993
 51
270.0
  0
LINE
  5
1E9
330
1F
100
AcDbEntity
  8
LAY-10
  6
CONTINUOUS
 62
     7
100
AcDbLine
 10
1706.577294614261
 20
747.1046984901077
 30
0.0
 11
1707.000000000001
 21
735.0000000000003
 31
0.0
  0
ARC
  5
1EA
330
1F
100
AcDbEntity
  8
LAY-10
  6
CONTINUOUS
 62
     7
100
AcDbCircle
 10
1703.579122133204
 20
747.0000000000002
 30
0.0
 40
3.000000000000001
100
AcDbArc
 50
1.999999999999164
 51
90.0
  0
LINE
  5
1EB
330
1F
100
AcDbEntity
  8
LAY-10
  6
CONTINUOUS
 62
     7
100
AcDbLine
 10
1724.362878214874
 20
747.1570078687291
 30
0.0
 11
1725.000000000001
 21
735.0000000000002
 31
0.0
  0
LINE
  5
1EC
330
1F
100
AcDbEntity
  8
LAY-10
  6
CONTINUOUS
 62
     7
100
AcDbLine
 10
1693.64310479901
 20
750.0000000000002
 30
0.0
 11
1721.366989610611
 21
750.0000000000002
 31
0.0
  0
ARC
  5
1ED
330
1F
100
AcDbEntity
  8
LAY-10
  6
CONTINUOUS
 62
     7
100
AcDbCircle
 10
1721.366989610611
 20
747.0000000000002
 30
0.0
 40
3.000000000000001
100
AcDbArc
 50
3.000000000001038
 51
90.0
  0
LINE
  5
1EE
330
1F
100
AcDbEntity
  8
LAY-10
  6
CONTINUOUS
 62
     7
100
AcDbLine
 10
811.0000000000005
 20
2367.0
 30
0.0
 11
1689.0
 21
2367.0
 31
0.0
  0
LINE
  5
1EF
330
1F
100
AcDbEntity
  8
LAY-10
  6
CONTINUOUS
 62
     7
100
AcDbLine
 10
793.0000000000003
 20
2385.0
 30
0.0
 11
860.0000000000003
 21
2385.0
 31
0.0
  0
LINE
  5
1F0
330
1F
100
AcDbEntity
  8
LAY-10
  6
CONTINUOUS
 62
     7
100
AcDbLine
 10
1622.000000000001
 20
2403.0
 30
0.0
 11
1640.000000000001
 21
2385.0
 31
0.0
  0
LINE
  5
1F1
330
1F
100
AcDbEntity
  8
LAY-10
  6
CONTINUOUS
 62
     7
100
AcDbLine
 10
1578.000000000001
 20
2403.0
 30
0.0
 11
1560.0
 21
2385.0
 31
0.0
  0
LINE
  5
1F2
330
1F
100
AcDbEntity
  8
LAY-10
  6
CONTINUOUS
 62
     7
100
AcDbLine
 10
1640.0
 20
2367.0
 30
0.0
 11
1640.0
 21
2385.0
 31
0.0
  0
LINE
  5
1F3
330
1F
100
AcDbEntity
  8
LAY-10
  6
CONTINUOUS
 62
     7
100
AcDbLine
 10
1560.0
 20
2367.0
 30
0.0
 11
1560.0
 21
2385.0
 31
0.0
  0
ARC
  5
1F4
330
1F
100
AcDbEntity
  8
LAY-10
  6
CONTINUOUS
 62
     7
100
AcDbCircle
 10
1600.000000000001
 20
2385.0
 30
0.0
 40
7.5
100
AcDbArc
 50
180.0
 51
0.0
  0
LINE
  5
1F5
330
1F
100
AcDbEntity
  8
LAY-10
  6
CONTINUOUS
 62
     7
100
AcDbLine
 10
1607.500000000001
 20
2385.0
 30
0.0
 11
1607.500000000001
 21
2403.0
 31
0.0
  0
LINE
  5
1F6
330
1F
100
AcDbEntity
  8
LAY-10
  6
CONTINUOUS
 62
     7
100
AcDbLine
 10
1592.500000000001
 20
2385.0
 30
0.0
 11
1592.500000000001
 21
2403.0
 31
0.0
  0
LINE
  5
1F7
330
1F
100
AcDbEntity
  8
LAY-10
  6
CONTINUOUS
 62
     7
100
AcDbLine
 10
1622.000000000001
 20
2403.0
 30
0.0
 11
1607.500000000001
 21
2403.0
 31
0.0
  0
LINE
  5
1F8
330
1F
100
AcDbEntity
  8
LAY-10
  6
CONTINUOUS
 62
     7
100
AcDbLine
 10
1592.500000000001
 20
2403.0
 30
0.0
 11
1578.000000000001
 21
2403.0
 31
0.0
  0
LINE
  5
1F9
330
1F
100
AcDbEntity
  8
LAY-10
  6
CONTINUOUS
 62
     7
100
AcDbLine
 10
877.9999999999999
 20
2403.0
 30
0.0
 11
860.0
 21
2385.0
 31
0.0
  0
LINE
  5
1FA
330
1F
100
AcDbEntity
  8
LAY-10
  6
CONTINUOUS
 62
     7
100
AcDbLine
 10
922.0000000000001
 20
2403.0
 30
0.0
 11
940.0000000000003
 21
2385.0
 31
0.0
  0
LINE
  5
1FB
330
1F
100
AcDbEntity
  8
LAY-10
  6
CONTINUOUS
 62
     7
100
AcDbLine
 10
860.0000000000003
 20
2367.0
 30
0.0
 11
860.0000000000003
 21
2385.0
 31
0.0
  0
LINE
  5
1FC
330
1F
100
AcDbEntity
  8
LAY-10
  6
CONTINUOUS
 62
     7
100
AcDbLine
 10
940.0000000000003
 20
2367.0
 30
0.0
 11
940.0000000000003
 21
2385.0
 31
0.0
  0
ARC
  5
1FD
330
1F
100
AcDbEntity
  8
LAY-10
  6
CONTINUOUS
 62
     7
100
AcDbCircle
 10
900.0
 20
2385.0
 30
0.0
 40
7.5
100
AcDbArc
 50
180.0
 51
0.0
  0
LINE
  5
1FE
330
1F
100
AcDbEntity
  8
LAY-10
  6
CONTINUOUS
 62
     7
100
AcDbLine
 10
892.5
 20
2385.0
 30
0.0
 11
892.5
 21
2403.0
 31
0.0
  0
LINE
  5
1FF
330
1F
100
AcDbEntity
  8
LAY-10
  6
CONTINUOUS
 62
     7
100
AcDbLine
 10
907.5
 20
2385.0
 30
0.0
 11
907.5
 21
2403.0
 31
0.0
  0
LINE
  5
200
330
1F
100
AcDbEntity
  8
LAY-10
  6
CONTINUOUS
 62
     7
100
AcDbLine
 10
877.9999999999999
 20
2403.0
 30
0.0
 11
892.5
 21
2403.0
 31
0.0
  0
LINE
  5
201
330
1F
100
AcDbEntity
  8
LAY-10
  6
CONTINUOUS
 62
     7
100
AcDbLine
 10
907.5
 20
2403.0
 30
0.0
 11
922.0000000000001
 21
2403.0
 31
0.0
  0
LINE
  5
202
330
1F
100
AcDbEntity
  8
LAY-10
  6
CONTINUOUS
 62
     7
100
AcDbLine
 10
1640.0
 20
2385.0
 30
0.0
 11
1707.000000000001
 21
2385.0
 31
0.0
  0
LINE
  5
203
330
1F
100
AcDbEntity
  8
LAY-10
  6
CONTINUOUS
 62
     7
100
AcDbLine
 10
940.0000000000003
 20
2385.0
 30
0.0
 11
1560.0
 21
2385.0
 31
0.0
  0
LINE
  5
204
330
1F
100
AcDbEntity
  8
LAY-10
  6
CONTINUOUS
 62
     7
100
AcDbLine
 10
820.0000000000007
 20
2345.0
 30
0.0
 11
1680.000000000001
 21
2345.0
 31
0.0
  0
LINE
  5
205
330
1F
100
AcDbEntity
  8
LAY-10
  6
CONTINUOUS
 62
     7
100
AcDbLine
 10
822.0000000000007
 20
2343.0
 30
0.0
 11
1678.000000000001
 21
2343.0
 31
0.0
  0
LINE
  5
206
330
1F
100
AcDbEntity
  8
LAY-10
  6
CONTINUOUS
 62
     7
100
AcDbLine
 10
1531.5
 20
1539.0
 30
0.0
 11
1531.5
 21
1605.0
 31
0.0
  0
LINE
  5
207
330
1F
100
AcDbEntity
  8
LAY-10
  6
CONTINUOUS
 62
     7
100
AcDbLine
 10
1503.5
 20
1539.0
 30
0.0
 11
1503.5
 21
1605.0
 31
0.0
  0
LINE
  5
208
330
1F
100
AcDbEntity
  8
LAY-10
  6
CONTINUOUS
 62
     7
100
AcDbLine
 10
1503.5
 20
1605.0
 30
0.0
 11
1531.5
 21
1605.0
 31
0.0
  0
LINE
  5
209
330
1F
100
AcDbEntity
  8
LAY-10
  6
CONTINUOUS
 62
     7
100
AcDbLine
 10
1503.5
 20
1600.0
 30
0.0
 11
1531.5
 21
1600.0
 31
0.0
  0
LINE
  5
20A
330
1F
100
AcDbEntity
  8
LAY-10
  6
CONTINUOUS
 62
     7
100
AcDbLine
 10
1503.5
 20
1544.0
 30
0.0
 11
1531.5
 21
1544.0
 31
0.0
  0
LINE
  5
20B
330
1F
100
AcDbEntity
  8
LAY-10
  6
CONTINUOUS
 62
     7
100
AcDbLine
 10
1503.5
 20
1539.0
 30
0.0
 11
1531.5
 21
1539.0
 31
0.0
  0
LINE
  5
20C
330
1F
100
AcDbEntity
  8
LAY-10
  6
CONTINUOUS
 62
     7
100
AcDbLine
 10
1503.5
 20
1577.0
 30
0.0
 11
1531.5
 21
1577.0
 31
0.0
  0
LINE
  5
20D
330
1F
100
AcDbEntity
  8
LAY-10
  6
CONTINUOUS
 62
     7
100
AcDbLine
 10
1503.5
 20
1567.0
 30
0.0
 11
1531.5
 21
1567.0
 31
0.0
  0
LINE
  5
20E
330
1F
100
AcDbEntity
  8
LAY-10
  6
CONTINUOUS
 62
     7
100
AcDbLine
 10
996.5000000000003
 20
1539.0
 30
0.0
 11
996.5000000000003
 21
1605.0
 31
0.0
  0
LINE
  5
20F
330
1F
100
AcDbEntity
  8
LAY-10
  6
CONTINUOUS
 62
     7
100
AcDbLine
 10
968.5000000000002
 20
1539.0
 30
0.0
 11
968.5000000000002
 21
1605.0
 31
0.0
  0
LINE
  5
210
330
1F
100
AcDbEntity
  8
LAY-10
  6
CONTINUOUS
 62
     7
100
AcDbLine
 10
968.5000000000002
 20
1605.0
 30
0.0
 11
996.5000000000003
 21
1605.0
 31
0.0
  0
LINE
  5
211
330
1F
100
AcDbEntity
  8
LAY-10
  6
CONTINUOUS
 62
     7
100
AcDbLine
 10
968.5000000000002
 20
1600.0
 30
0.0
 11
996.5000000000003
 21
1600.0
 31
0.0
  0
LINE
  5
212
330
1F
100
AcDbEntity
  8
LAY-10
  6
CONTINUOUS
 62
     7
100
AcDbLine
 10
968.5000000000002
 20
1544.0
 30
0.0
 11
996.5000000000003
 21
1544.0
 31
0.0
  0
LINE
  5
213
330
1F
100
AcDbEntity
  8
LAY-10
  6
CONTINUOUS
 62
     7
100
AcDbLine
 10
968.5000000000002
 20
1539.0
 30
0.0
 11
996.5000000000003
 21
1539.0
 31
0.0
  0
LINE
  5
214
330
1F
100
AcDbEntity
  8
LAY-10
  6
CONTINUOUS
 62
     7
100
AcDbLine
 10
968.5000000000002
 20
1577.0
 30
0.0
 11
996.5000000000003
 21
1577.0
 31
0.0
  0
LINE
  5
215
330
1F
100
AcDbEntity
  8
LAY-10
  6
CONTINUOUS
 62
     7
100
AcDbLine
 10
968.5000000000002
 20
1567.0
 30
0.0
 11
996.5000000000003
 21
1567.0
 31
0.0
  0
LINE
  5
216
330
1F
100
AcDbEntity
  8
LAY-10
  6
CONTINUOUS
 62
     7
100
AcDbLine
 10
864.7500000000002
 20
771.0000000000002
 30
0.0
 11
874.2500000000005
 21
771.0000000000002
 31
0.0
  0
LINE
  5
217
330
1F
100
AcDbEntity
  8
LAY-10
  6
CONTINUOUS
 62
     7
100
AcDbLine
 10
860.0000000000208
 20
774.9999999999997
 30
0.0
 11
860.0000000000208
 21
758.9999999999999
 31
0.0
  0
LINE
  5
218
330
1F
100
AcDbEntity
  8
LAY-10
  6
CONTINUOUS
 62
     7
100
AcDbLine
 10
879.0000000000206
 20
774.9999999999997
 30
0.0
 11
879.0000000000206
 21
758.9999999999999
 31
0.0
  0
LINE
  5
219
330
1F
100
AcDbEntity
  8
LAY-10
  6
CONTINUOUS
 62
     7
100
AcDbLine
 10
876.000000000021
 20
774.0000000000097
 30
0.0
 11
863.0000000000203
 21
774.0000000000097
 31
0.0
  0
ELLIPSE
  5
21A
330
1F
100
AcDbEntity
  8
LAY-10
  6
CONTINUOUS
 62
     7
100
AcDbEllipse
 10
869.5000000000201
 20
774.0000000000097
 30
0.0
 11
6.123233995736766E-16
 21
10.0
 31
0.0
210
0.0
220
0.0
230
1.0
 40
0.6500000000000005
 41
0.643501108793912
 42
1.570796326794897
  0
ELLIPSE
  5
21B
330
1F
100
AcDbEntity
  8
LAY-10
  6
CONTINUOUS
 62
     7
100
AcDbEllipse
 10
869.5000000000201
 20
774.0000000000097
 30
0.0
 11
6.123233995736766E-16
 21
10.0
 31
0.0
210
0.0
220
0.0
230
1.0
 40
0.6500000000000005
 41
4.71238898038469
 42
5.63968419838551
  0
LINE
  5
21C
330
1F
100
AcDbEntity
  8
LAY-10
  6
CONTINUOUS
 62
     7
100
AcDbLine
 10
873.4000000000211
 20
782.0000000000051
 30
0.0
 11
865.6000000000207
 21
782.0000000000051
 31
0.0
  0
ELLIPSE
  5
21D
330
1F
100
AcDbEntity
  8
LAY-10
  6
CONTINUOUS
 62
     7
100
AcDbEllipse
 10
869.5000000000201
 20
774.9999999999997
 30
0.0
 11
7.347880794884128E-16
 21
12.00000000000001
 31
0.0
210
0.0
220
0.0
230
1.0
 40
0.7916666666666657
 41
0.7227342478133172
 42
1.570796326794897
  0
ELLIPSE
  5
21E
330
1F
100
AcDbEntity
  8
LAY-10
  6
CONTINUOUS
 62
     7
100
AcDbEllipse
 10
869.5000000000201
 20
774.9999999999997
 30
0.0
 11
7.347880794884128E-16
 21
12.00000000000001
 31
0.0
210
0.0
220
0.0
230
1.0
 40
0.7916666666666657
 41
-1.570796326794897
 42
-0.7227342478133253
  0
LINE
  5
21F
330
1F
100
AcDbEntity
  8
LAY-10
  6
CONTINUOUS
 62
     7
100
AcDbLine
 10
864.121106648604
 20
758.9999999999999
 30
0.0
 11
860.0000000000208
 21
758.9999999999999
 31
0.0
  0
LINE
  5
220
330
1F
100
AcDbEntity
  8
LAY-10
  6
CONTINUOUS
 62
     7
100
AcDbLine
 10
879.0000000000206
 20
758.9999999999999
 30
0.0
 11
874.5000000000006
 21
758.9999999999999
 31
0.0
  0
LINE
  5
221
330
1F
100
AcDbEntity
  8
LAY-10
  6
CONTINUOUS
 62
     7
100
AcDbLine
 10
860.6896229905915
 20
779.4886128637905
 30
0.0
 11
865.2010101267816
 21
783.999999999985
 31
0.0
  0
LINE
  5
222
330
1F
100
AcDbEntity
  8
LAY-10
  6
CONTINUOUS
 62
     7
100
AcDbLine
 10
860.033299785053
 20
776.0038625335005
 30
0.0
 11
864.6000693460468
 21
780.5706320945122
 31
0.0
  0
LINE
  5
223
330
1F
100
AcDbEntity
  8
LAY-10
  6
CONTINUOUS
 62
     7
100
AcDbLine
 10
866.029437251543
 20
782.0
 30
0.0
 11
868.0294372515459
 21
784.000000000003
 31
0.0
  0
LINE
  5
224
330
1F
100
AcDbEntity
  8
LAY-10
  6
CONTINUOUS
 62
     7
100
AcDbLine
 10
860.0000000000367
 20
773.1421356237477
 30
0.0
 11
863.1772525547383
 21
776.3193881784574
 31
0.0
  0
LINE
  5
225
330
1F
100
AcDbEntity
  8
LAY-10
  6
CONTINUOUS
 62
     7
100
AcDbLine
 10
868.8578643762943
 20
782.0000000000052
 30
0.0
 11
870.8578643762844
 21
783.9999999999953
 31
0.0
  0
LINE
  5
226
330
1F
100
AcDbEntity
  8
LAY-10
  6
CONTINUOUS
 62
     7
100
AcDbLine
 10
860.0000000000189
 20
770.3137084989835
 30
0.0
 11
863.6862915010469
 21
774.0000000000115
 31
0.0
  0
LINE
  5
227
330
1F
100
AcDbEntity
  8
LAY-10
  6
CONTINUOUS
 62
     7
100
AcDbLine
 10
871.6862915010457
 20
782.0000000000103
 30
0.0
 11
873.6862915010357
 21
784.0000000000003
 31
0.0
  0
LINE
  5
228
330
1F
100
AcDbEntity
  8
LAY-10
  6
CONTINUOUS
 62
     7
100
AcDbLine
 10
860.0000000000265
 20
767.4852813742451
 30
0.0
 11
866.5147186257852
 21
774.0000000000039
 31
0.0
  0
LINE
  5
229
330
1F
100
AcDbEntity
  8
LAY-10
  6
CONTINUOUS
 62
     7
100
AcDbLine
 10
873.8897406973712
 20
781.3750220715874
 30
0.0
 11
876.1206345750472
 21
783.6059159492614
 31
0.0
  0
LINE
  5
22A
330
1F
100
AcDbEntity
  8
LAY-10
  6
CONTINUOUS
 62
     7
100
AcDbLine
 10
860.0000000000214
 20
764.6568542494937
 30
0.0
 11
864.6618890710192
 21
769.3187433204914
 31
0.0
  0
LINE
  5
22B
330
1F
100
AcDbEntity
  8
LAY-10
  6
CONTINUOUS
 62
     7
100
AcDbLine
 10
866.3431457505387
 20
771.000000000011
 30
0.0
 11
869.3431457505238
 21
773.9999999999961
 31
0.0
  0
LINE
  5
22C
330
1F
100
AcDbEntity
  8
LAY-10
  6
CONTINUOUS
 62
     7
100
AcDbLine
 10
874.902824543735
 20
779.5596787932155
 30
0.0
 11
877.2619651742881
 21
781.9188194237507
 31
0.0
  0
LINE
  5
22D
330
1F
100
AcDbEntity
  8
LAY-10
  6
CONTINUOUS
 62
     7
100
AcDbLine
 10
860.0000000000291
 20
761.8284271247553
 30
0.0
 11
864.5054593523772
 21
766.3338864771034
 31
0.0
  0
LINE
  5
22E
330
1F
100
AcDbEntity
  8
LAY-10
  6
CONTINUOUS
 62
     7
100
AcDbLine
 10
869.17157287529
 20
771.0000000000163
 30
0.0
 11
872.1715728752623
 21
773.9999999999885
 31
0.0
  0
LINE
  5
22F
330
1F
100
AcDbEntity
  8
LAY-10
  6
CONTINUOUS
 62
     7
100
AcDbLine
 10
875.6048919191938
 20
777.4333190439229
 30
0.0
 11
878.1454961338029
 21
779.9739232585353
 31
0.0
  0
LINE
  5
230
330
1F
100
AcDbEntity
  8
LAY-10
  6
CONTINUOUS
 62
     7
100
AcDbLine
 10
860.000000000024
 20
759.0000000000039
 30
0.0
 11
864.3490296337482
 21
763.349029633728
 31
0.0
  0
LINE
  5
231
330
1F
100
AcDbEntity
  8
LAY-10
  6
CONTINUOUS
 62
     7
100
AcDbLine
 10
872.0000000000285
 20
771.0000000000084
 30
0.0
 11
875.0000000000265
 21
774.0000000000064
 31
0.0
  0
LINE
  5
232
330
1F
100
AcDbEntity
  8
LAY-10
  6
CONTINUOUS
 62
     7
100
AcDbLine
 10
875.9693872821069
 20
774.96938728209
 30
0.0
 11
878.7476215005656
 21
777.7476215005466
 31
0.0
  0
LINE
  5
233
330
1F
100
AcDbEntity
  8
LAY-10
  6
CONTINUOUS
 62
     7
100
AcDbLine
 10
862.8284271247753
 20
759.0000000000091
 30
0.0
 11
864.1925999151063
 21
760.36417279034
 31
0.0
  0
LINE
  5
234
330
1F
100
AcDbEntity
  8
LAY-10
  6
CONTINUOUS
 62
     7
100
AcDbLine
 10
874.2618046352036
 20
770.4333775104375
 30
0.0
 11
878.9990397695187
 21
775.1706126447534
 31
0.0
  0
LINE
  5
235
330
1F
100
AcDbEntity
  8
LAY-10
  6
CONTINUOUS
 62
     7
100
AcDbLine
 10
874.3195276377527
 20
767.6626733882404
 30
0.0
 11
879.000000000022
 21
772.3431457505095
 31
0.0
  0
LINE
  5
236
330
1F
100
AcDbEntity
  8
LAY-10
  6
CONTINUOUS
 62
     7
100
AcDbLine
 10
874.3772506403017
 20
764.8919692660431
 30
0.0
 11
879.0000000000168
 21
769.5147186257583
 31
0.0
  0
LINE
  5
237
330
1F
100
AcDbEntity
  8
LAY-10
  6
CONTINUOUS
 62
     7
100
AcDbLine
 10
874.4349736428508
 20
762.121265143846
 30
0.0
 11
879.0000000000118
 21
766.686291501007
 31
0.0
  0
LINE
  5
238
330
1F
100
AcDbEntity
  8
LAY-10
  6
CONTINUOUS
 62
     7
100
AcDbLine
 10
874.4926966453869
 20
759.350561021636
 30
0.0
 11
879.0000000000193
 21
763.8578643762685
 31
0.0
  0
LINE
  5
239
330
1F
100
AcDbEntity
  8
LAY-10
  6
CONTINUOUS
 62
     7
100
AcDbLine
 10
876.9705627484934
 20
758.9999999999961
 30
0.0
 11
879.0000000000272
 21
761.0294372515299
 31
0.0
  0
ARC
  5
23A
330
1F
100
AcDbEntity
  8
LAY-10
  6
CONTINUOUS
 62
     7
100
AcDbCircle
 10
859.2630396647966
 20
776.0000000000003
 30
0.0
 40
10.0
100
AcDbArc
 50
126.8698976458445
 51
175.0000000000002
  0
LINE
  5
23B
330
1F
100
AcDbEntity
  8
LAY-10
  6
CONTINUOUS
 62
     7
100
AcDbLine
 10
853.5440311688725
 20
773.0000000000002
 30
0.0
 11
860.0000000000208
 21
773.0000000000002
 31
0.0
  0
LINE
  5
23C
330
1F
100
AcDbEntity
  8
LAY-10
  6
CONTINUOUS
 62
     7
100
AcDbLine
 10
1635.250000000001
 20
771.0000000000002
 30
0.0
 11
1625.75
 21
771.0000000000002
 31
0.0
  0
LINE
  5
23D
330
1F
100
AcDbEntity
  8
LAY-10
  6
CONTINUOUS
 62
     7
100
AcDbLine
 10
1639.99999999998
 20
774.9999999999997
 30
0.0
 11
1639.99999999998
 21
758.9999999999999
 31
0.0
  0
LINE
  5
23E
330
1F
100
AcDbEntity
  8
LAY-10
  6
CONTINUOUS
 62
     7
100
AcDbLine
 10
1620.99999999998
 20
774.9999999999997
 30
0.0
 11
1620.99999999998
 21
758.9999999999999
 31
0.0
  0
LINE
  5
23F
330
1F
100
AcDbEntity
  8
LAY-10
  6
CONTINUOUS
 62
     7
100
AcDbLine
 10
1623.99999999998
 20
774.0000000000097
 30
0.0
 11
1636.99999999998
 21
774.0000000000097
 31
0.0
  0
ELLIPSE
  5
240
330
1F
100
AcDbEntity
  8
LAY-10
  6
CONTINUOUS
 62
     7
100
AcDbEllipse
 10
1630.499999999981
 20
774.0000000000097
 30
0.0
 11
6.123233995736766E-16
 21
10.0
 31
0.0
210
0.0
220
0.0
230
1.0
 40
0.6500000000000005
 41
4.71238898038469
 42
5.639684198385675
  0
ELLIPSE
  5
241
330
1F
100
AcDbEntity
  8
LAY-10
  6
CONTINUOUS
 62
     7
100
AcDbEllipse
 10
1630.499999999981
 20
774.0000000000097
 30
0.0
 11
6.123233995736766E-16
 21
10.0
 31
0.0
210
0.0
220
0.0
230
1.0
 40
0.6500000000000005
 41
0.6435011087940229
 42
1.570796326794897
  0
LINE
  5
242
330
1F
100
AcDbEntity
  8
LAY-10
  6
CONTINUOUS
 62
     7
100
AcDbLine
 10
1626.59999999998
 20
782.0000000000051
 30
0.0
 11
1634.39999999998
 21
782.0000000000051
 31
0.0
  0
ELLIPSE
  5
243
330
1F
100
AcDbEntity
  8
LAY-10
  6
CONTINUOUS
 62
     7
100
AcDbEllipse
 10
1630.499999999981
 20
774.9999999999997
 30
0.0
 11
7.347880794884128E-16
 21
12.00000000000001
 31
0.0
210
0.0
220
0.0
230
1.0
 40
0.7916666666666657
 41
-1.570796326794897
 42
-0.7227342478133432
  0
ELLIPSE
  5
244
330
1F
100
AcDbEntity
  8
LAY-10
  6
CONTINUOUS
 62
     7
100
AcDbEllipse
 10
1630.499999999981
 20
774.9999999999997
 30
0.0
 11
7.347880794884128E-16
 21
12.00000000000001
 31
0.0
210
0.0
220
0.0
230
1.0
 40
0.7916666666666657
 41
0.722734247813297
 42
1.570796326794897
  0
LINE
  5
245
330
1F
100
AcDbEntity
  8
LAY-10
  6
CONTINUOUS
 62
     7
100
AcDbLine
 10
1635.878893351397
 20
758.9999999999999
 30
0.0
 11
1639.99999999998
 21
758.9999999999999
 31
0.0
  0
LINE
  5
246
330
1F
100
AcDbEntity
  8
LAY-10
  6
CONTINUOUS
 62
     7
100
AcDbLine
 10
1620.99999999998
 20
758.9999999999999
 30
0.0
 11
1625.500000000001
 21
758.9999999999999
 31
0.0
  0
LINE
  5
247
330
1F
100
AcDbEntity
  8
LAY-10
  6
CONTINUOUS
 62
     7
100
AcDbLine
 10
1639.31037700941
 20
779.4886128637905
 30
0.0
 11
1634.798989873219
 21
783.999999999985
 31
0.0
  0
LINE
  5
248
330
1F
100
AcDbEntity
  8
LAY-10
  6
CONTINUOUS
 62
     7
100
AcDbLine
 10
1639.966700214948
 20
776.0038625335005
 30
0.0
 11
1635.399930653954
 21
780.5706320945122
 31
0.0
  0
LINE
  5
249
330
1F
100
AcDbEntity
  8
LAY-10
  6
CONTINUOUS
 62
     7
100
AcDbLine
 10
1633.970562748458
 20
782.0
 30
0.0
 11
1631.970562748455
 21
784.000000000003
 31
0.0
  0
LINE
  5
24A
330
1F
100
AcDbEntity
  8
LAY-10
  6
CONTINUOUS
 62
     7
100
AcDbLine
 10
1639.999999999964
 20
773.1421356237477
 30
0.0
 11
1636.822747445263
 21
776.3193881784574
 31
0.0
  0
LINE
  5
24B
330
1F
100
AcDbEntity
  8
LAY-10
  6
CONTINUOUS
 62
     7
100
AcDbLine
 10
1631.142135623707
 20
782.0000000000052
 30
0.0
 11
1629.142135623717
 21
783.9999999999953
 31
0.0
  0
LINE
  5
24C
330
1F
100
AcDbEntity
  8
LAY-10
  6
CONTINUOUS
 62
     7
100
AcDbLine
 10
1639.999999999982
 20
770.3137084989835
 30
0.0
 11
1636.313708498954
 21
774.0000000000115
 31
0.0
  0
LINE
  5
24D
330
1F
100
AcDbEntity
  8
LAY-10
  6
CONTINUOUS
 62
     7
100
AcDbLine
 10
1628.313708498955
 20
782.0000000000103
 30
0.0
 11
1626.313708498965
 21
784.0000000000003
 31
0.0
  0
LINE
  5
24E
330
1F
100
AcDbEntity
  8
LAY-10
  6
CONTINUOUS
 62
     7
100
AcDbLine
 10
1639.999999999974
 20
767.4852813742451
 30
0.0
 11
1633.485281374216
 21
774.0000000000039
 31
0.0
  0
LINE
  5
24F
330
1F
100
AcDbEntity
  8
LAY-10
  6
CONTINUOUS
 62
     7
100
AcDbLine
 10
1626.11025930263
 20
781.3750220715874
 30
0.0
 11
1623.879365424954
 21
783.6059159492614
 31
0.0
  0
LINE
  5
250
330
1F
100
AcDbEntity
  8
LAY-10
  6
CONTINUOUS
 62
     7
100
AcDbLine
 10
1639.99999999998
 20
764.6568542494937
 30
0.0
 11
1635.338110928982
 21
769.3187433204914
 31
0.0
  0
LINE
  5
251
330
1F
100
AcDbEntity
  8
LAY-10
  6
CONTINUOUS
 62
     7
100
AcDbLine
 10
1633.656854249462
 20
771.000000000011
 30
0.0
 11
1630.656854249477
 21
773.9999999999961
 31
0.0
  0
LINE
  5
252
330
1F
100
AcDbEntity
  8
LAY-10
  6
CONTINUOUS
 62
     7
100
AcDbLine
 10
1625.097175456266
 20
779.5596787932155
 30
0.0
 11
1622.738034825713
 21
781.9188194237507
 31
0.0
  0
LINE
  5
253
330
1F
100
AcDbEntity
  8
LAY-10
  6
CONTINUOUS
 62
     7
100
AcDbLine
 10
1639.999999999972
 20
761.8284271247553
 30
0.0
 11
1635.494540647624
 21
766.3338864771034
 31
0.0
  0
LINE
  5
254
330
1F
100
AcDbEntity
  8
LAY-10
  6
CONTINUOUS
 62
     7
100
AcDbLine
 10
1630.828427124711
 20
771.0000000000163
 30
0.0
 11
1627.828427124739
 21
773.9999999999885
 31
0.0
  0
LINE
  5
255
330
1F
100
AcDbEntity
  8
LAY-10
  6
CONTINUOUS
 62
     7
100
AcDbLine
 10
1624.395108080807
 20
777.4333190439229
 30
0.0
 11
1621.854503866198
 21
779.9739232585353
 31
0.0
  0
LINE
  5
256
330
1F
100
AcDbEntity
  8
LAY-10
  6
CONTINUOUS
 62
     7
100
AcDbLine
 10
1639.999999999977
 20
759.0000000000039
 30
0.0
 11
1635.650970366253
 21
763.349029633728
 31
0.0
  0
LINE
  5
257
330
1F
100
AcDbEntity
  8
LAY-10
  6
CONTINUOUS
 62
     7
100
AcDbLine
 10
1627.999999999972
 20
771.0000000000084
 30
0.0
 11
1624.999999999974
 21
774.0000000000064
 31
0.0
  0
LINE
  5
258
330
1F
100
AcDbEntity
  8
LAY-10
  6
CONTINUOUS
 62
     7
100
AcDbLine
 10
1624.030612717894
 20
774.96938728209
 30
0.0
 11
1621.252378499435
 21
777.7476215005466
 31
0.0
  0
LINE
  5
259
330
1F
100
AcDbEntity
  8
LAY-10
  6
CONTINUOUS
 62
     7
100
AcDbLine
 10
1637.171572875226
 20
759.0000000000091
 30
0.0
 11
1635.807400084895
 21
760.36417279034
 31
0.0
  0
LINE
  5
25A
330
1F
100
AcDbEntity
  8
LAY-10
  6
CONTINUOUS
 62
     7
100
AcDbLine
 10
1625.738195364797
 20
770.4333775104375
 30
0.0
 11
1621.000960230482
 21
775.1706126447534
 31
0.0
  0
LINE
  5
25B
330
1F
100
AcDbEntity
  8
LAY-10
  6
CONTINUOUS
 62
     7
100
AcDbLine
 10
1625.680472362249
 20
767.6626733882404
 30
0.0
 11
1620.999999999979
 21
772.3431457505095
 31
0.0
  0
LINE
  5
25C
330
1F
100
AcDbEntity
  8
LAY-10
  6
CONTINUOUS
 62
     7
100
AcDbLine
 10
1625.622749359699
 20
764.8919692660431
 30
0.0
 11
1620.999999999984
 21
769.5147186257583
 31
0.0
  0
LINE
  5
25D
330
1F
100
AcDbEntity
  8
LAY-10
  6
CONTINUOUS
 62
     7
100
AcDbLine
 10
1625.56502635715
 20
762.121265143846
 30
0.0
 11
1620.999999999989
 21
766.686291501007
 31
0.0
  0
LINE
  5
25E
330
1F
100
AcDbEntity
  8
LAY-10
  6
CONTINUOUS
 62
     7
100
AcDbLine
 10
1625.507303354614
 20
759.350561021636
 30
0.0
 11
1620.999999999982
 21
763.8578643762685
 31
0.0
  0
LINE
  5
25F
330
1F
100
AcDbEntity
  8
LAY-10
  6
CONTINUOUS
 62
     7
100
AcDbLine
 10
1623.029437251508
 20
758.9999999999961
 30
0.0
 11
1620.999999999974
 21
761.0294372515299
 31
0.0
  0
LINE
  5
260
330
1F
100
AcDbEntity
  8
LAY-10
  6
CONTINUOUS
 62
     7
100
AcDbLine
 10
1621.0
 20
759.0000000000006
 30
0.0
 11
879.00000000002
 21
759.0000000000006
 31
0.0
  0
LINE
  5
261
330
1F
100
AcDbEntity
  8
LAY-10
  6
CONTINUOUS
 62
     7
100
AcDbLine
 10
1646.455968831129
 20
773.0000000000002
 30
0.0
 11
1639.99999999998
 21
773.0000000000002
 31
0.0
  0
ARC
  5
262
330
1F
100
AcDbEntity
  8
LAY-10
  6
CONTINUOUS
 62
     7
100
AcDbCircle
 10
1640.736960335204
 20
776.0000000000003
 30
0.0
 40
10.0
100
AcDbArc
 50
4.999999999999859
 51
53.13010235415614
  0
LINE
  5
263
330
1F
100
AcDbEntity
  8
LAY-10
  6
CONTINUOUS
 62
     7
100
AcDbLine
 10
1725.0
 20
1513.0
 30
0.0
 11
1707.000000000001
 21
1495.0
 31
0.0
  0
LINE
  5
264
330
1F
100
AcDbEntity
  8
LAY-10
  6
CONTINUOUS
 62
     7
100
AcDbLine
 10
1725.0
 20
1557.0
 30
0.0
 11
1707.000000000001
 21
1575.0
 31
0.0
  0
LINE
  5
265
330
1F
100
AcDbEntity
  8
LAY-10
  6
CONTINUOUS
 62
     7
100
AcDbLine
 10
1689.0
 20
1495.0
 30
0.0
 11
1707.000000000001
 21
1495.0
 31
0.0
  0
LINE
  5
266
330
1F
100
AcDbEntity
  8
LAY-10
  6
CONTINUOUS
 62
     7
100
AcDbLine
 10
1689.0
 20
1575.0
 30
0.0
 11
1707.000000000001
 21
1575.0
 31
0.0
  0
ARC
  5
267
330
1F
100
AcDbEntity
  8
LAY-10
  6
CONTINUOUS
 62
     7
100
AcDbCircle
 10
1707.000000000001
 20
1535.0
 30
0.0
 40
7.500000000000001
100
AcDbArc
 50
90.00000000000004
 51
270.0000000000001
  0
LINE
  5
268
330
1F
100
AcDbEntity
  8
LAY-10
  6
CONTINUOUS
 62
     7
100
AcDbLine
 10
1707.000000000001
 20
1527.5
 30
0.0
 11
1725.0
 21
1527.5
 31
0.0
  0
LINE
  5
269
330
1F
100
AcDbEntity
  8
LAY-10
  6
CONTINUOUS
 62
     7
100
AcDbLine
 10
1707.000000000001
 20
1542.5
 30
0.0
 11
1725.0
 21
1542.5
 31
0.0
  0
LINE
  5
26A
330
1F
100
AcDbEntity
  8
LAY-10
  6
CONTINUOUS
 62
     7
100
AcDbLine
 10
1725.0
 20
1513.0
 30
0.0
 11
1725.0
 21
1527.5
 31
0.0
  0
LINE
  5
26B
330
1F
100
AcDbEntity
  8
LAY-10
  6
CONTINUOUS
 62
     7
100
AcDbLine
 10
1725.0
 20
1542.5
 30
0.0
 11
1725.0
 21
1557.0
 31
0.0
  0
LINE
  5
26C
330
1F
100
AcDbEntity
  8
LAY-10
  6
CONTINUOUS
 62
     7
100
AcDbLine
 10
1707.000000000001
 20
1495.0
 30
0.0
 11
1707.000000000001
 21
1415.0
 31
0.0
  0
LINE
  5
26D
330
1F
100
AcDbEntity
  8
LAY-10
  6
CONTINUOUS
 62
     7
100
AcDbLine
 10
1707.000000000001
 20
2385.0
 30
0.0
 11
1707.000000000001
 21
2275.0
 31
0.0
  0
LINE
  5
26E
330
1F
100
AcDbEntity
  8
LAY-10
  6
CONTINUOUS
 62
     7
100
AcDbLine
 10
1725.000000000001
 20
2257.0
 30
0.0
 11
1707.000000000001
 21
2275.000000000001
 31
0.0
  0
LINE
  5
26F
330
1F
100
AcDbEntity
  8
LAY-10
  6
CONTINUOUS
 62
     7
100
AcDbLine
 10
1725.000000000001
 20
2213.0
 30
0.0
 11
1707.000000000001
 21
2195.0
 31
0.0
  0
LINE
  5
270
330
1F
100
AcDbEntity
  8
LAY-10
  6
CONTINUOUS
 62
     7
100
AcDbLine
 10
1689.0
 20
2275.0
 30
0.0
 11
1707.000000000001
 21
2275.0
 31
0.0
  0
LINE
  5
271
330
1F
100
AcDbEntity
  8
LAY-10
  6
CONTINUOUS
 62
     7
100
AcDbLine
 10
1689.0
 20
2195.0
 30
0.0
 11
1707.000000000001
 21
2195.0
 31
0.0
  0
ARC
  5
272
330
1F
100
AcDbEntity
  8
LAY-10
  6
CONTINUOUS
 62
     7
100
AcDbCircle
 10
1707.000000000001
 20
2235.000000000001
 30
0.0
 40
7.500000000000001
100
AcDbArc
 50
90.00000000000004
 51
270.0000000000001
  0
LINE
  5
273
330
1F
100
AcDbEntity
  8
LAY-10
  6
CONTINUOUS
 62
     7
100
AcDbLine
 10
1707.000000000001
 20
2242.500000000001
 30
0.0
 11
1725.000000000001
 21
2242.500000000001
 31
0.0
  0
LINE
  5
274
330
1F
100
AcDbEntity
  8
LAY-10
  6
CONTINUOUS
 62
     7
100
AcDbLine
 10
1707.000000000001
 20
2227.500000000001
 30
0.0
 11
1725.000000000001
 21
2227.500000000001
 31
0.0
  0
LINE
  5
275
330
1F
100
AcDbEntity
  8
LAY-10
  6
CONTINUOUS
 62
     7
100
AcDbLine
 10
1725.000000000001
 20
2257.0
 30
0.0
 11
1725.000000000001
 21
2242.500000000001
 31
0.0
  0
LINE
  5
276
330
1F
100
AcDbEntity
  8
LAY-10
  6
CONTINUOUS
 62
     7
100
AcDbLine
 10
1725.000000000001
 20
2227.500000000001
 30
0.0
 11
1725.000000000001
 21
2213.0
 31
0.0
  0
LINE
  5
277
330
1F
100
AcDbEntity
  8
LAY-10
  6
CONTINUOUS
 62
     7
100
AcDbLine
 10
1689.0
 20
2367.0
 30
0.0
 11
1689.0
 21
1433.0
 31
0.0
  0
LINE
  5
278
330
1F
100
AcDbEntity
  8
LAY-10
  6
CONTINUOUS
 62
     7
100
AcDbLine
 10
1707.000000000001
 20
2195.0
 30
0.0
 11
1707.000000000001
 21
1575.0
 31
0.0
  0
LINE
  5
279
330
1F
100
AcDbEntity
  8
LAY-10
  6
CONTINUOUS
 62
     7
100
AcDbLine
 10
1680.0
 20
2345.0
 30
0.0
 11
1680.0
 21
1442.0
 31
0.0
  0
LINE
  5
27A
330
1F
100
AcDbEntity
  8
LAY-10
  6
CONTINUOUS
 62
     7
100
AcDbLine
 10
1678.000000000001
 20
2343.0
 30
0.0
 11
1678.000000000001
 21
1444.0
 31
0.0
  0
LINE
  5
27B
330
1F
100
AcDbEntity
  8
LAY-10
  6
CONTINUOUS
 62
     7
100
AcDbLine
 10
775.0000000000003
 20
2257.0
 30
0.0
 11
775.0000000000003
 21
2242.500000000001
 31
0.0
  0
LINE
  5
27C
330
1F
100
AcDbEntity
  8
LAY-10
  6
CONTINUOUS
 62
     7
100
AcDbLine
 10
811.0000000000005
 20
2275.0
 30
0.0
 11
793.0000000000003
 21
2275.0
 31
0.0
  0
LINE
  5
27D
330
1F
100
AcDbEntity
  8
LAY-10
  6
CONTINUOUS
 62
     7
100
AcDbLine
 10
811.0000000000005
 20
2195.0
 30
0.0
 11
793.0000000000003
 21
2195.0
 31
0.0
  0
LINE
  5
27E
330
1F
100
AcDbEntity
  8
LAY-10
  6
CONTINUOUS
 62
     7
100
AcDbLine
 10
775.0000000000003
 20
2257.0
 30
0.0
 11
793.0000000000003
 21
2275.000000000001
 31
0.0
  0
LINE
  5
27F
330
1F
100
AcDbEntity
  8
LAY-10
  6
CONTINUOUS
 62
     7
100
AcDbLine
 10
775.0000000000003
 20
2213.0
 30
0.0
 11
793.0000000000003
 21
2195.0
 31
0.0
  0
LINE
  5
280
330
1F
100
AcDbEntity
  8
LAY-10
  6
CONTINUOUS
 62
     7
100
AcDbLine
 10
793.0000000000003
 20
2275.0
 30
0.0
 11
793.0000000000003
 21
2385.0
 31
0.0
  0
ARC
  5
281
330
1F
100
AcDbEntity
  8
LAY-10
  6
CONTINUOUS
 62
     7
100
AcDbCircle
 10
793.0000000000003
 20
2235.000000000001
 30
0.0
 40
7.500000000000001
100
AcDbArc
 50
270.0000000000001
 51
90.00000000000004
  0
LINE
  5
282
330
1F
100
AcDbEntity
  8
LAY-10
  6
CONTINUOUS
 62
     7
100
AcDbLine
 10
793.0000000000003
 20
2242.500000000001
 30
0.0
 11
775.0000000000003
 21
2242.500000000001
 31
0.0
  0
LINE
  5
283
330
1F
100
AcDbEntity
  8
LAY-10
  6
CONTINUOUS
 62
     7
100
AcDbLine
 10
793.0000000000003
 20
2227.500000000001
 30
0.0
 11
775.0000000000003
 21
2227.500000000001
 31
0.0
  0
LINE
  5
284
330
1F
100
AcDbEntity
  8
LAY-10
  6
CONTINUOUS
 62
     7
100
AcDbLine
 10
775.0000000000003
 20
2227.500000000001
 30
0.0
 11
775.0000000000003
 21
2213.0
 31
0.0
  0
LINE
  5
285
330
1F
100
AcDbEntity
  8
LAY-10
  6
CONTINUOUS
 62
     7
100
AcDbLine
 10
775.0000000000003
 20
1513.0
 30
0.0
 11
793.0000000000003
 21
1495.0
 31
0.0
  0
LINE
  5
286
330
1F
100
AcDbEntity
  8
LAY-10
  6
CONTINUOUS
 62
     7
100
AcDbLine
 10
775.0000000000003
 20
1557.0
 30
0.0
 11
793.0000000000003
 21
1575.0
 31
0.0
  0
LINE
  5
287
330
1F
100
AcDbEntity
  8
LAY-10
  6
CONTINUOUS
 62
     7
100
AcDbLine
 10
811.0000000000005
 20
1495.0
 30
0.0
 11
793.0000000000003
 21
1495.0
 31
0.0
  0
LINE
  5
288
330
1F
100
AcDbEntity
  8
LAY-10
  6
CONTINUOUS
 62
     7
100
AcDbLine
 10
811.0000000000005
 20
1575.0
 30
0.0
 11
793.0000000000003
 21
1575.0
 31
0.0
  0
ARC
  5
289
330
1F
100
AcDbEntity
  8
LAY-10
  6
CONTINUOUS
 62
     7
100
AcDbCircle
 10
793.0000000000003
 20
1535.0
 30
0.0
 40
7.500000000000001
100
AcDbArc
 50
270.0000000000001
 51
90.00000000000004
  0
LINE
  5
28A
330
1F
100
AcDbEntity
  8
LAY-10
  6
CONTINUOUS
 62
     7
100
AcDbLine
 10
793.0000000000003
 20
1527.5
 30
0.0
 11
775.0000000000003
 21
1527.5
 31
0.0
  0
LINE
  5
28B
330
1F
100
AcDbEntity
  8
LAY-10
  6
CONTINUOUS
 62
     7
100
AcDbLine
 10
793.0000000000003
 20
1542.5
 30
0.0
 11
775.0000000000003
 21
1542.5
 31
0.0
  0
LINE
  5
28C
330
1F
100
AcDbEntity
  8
LAY-10
  6
CONTINUOUS
 62
     7
100
AcDbLine
 10
775.0000000000003
 20
1513.0
 30
0.0
 11
775.0000000000003
 21
1527.5
 31
0.0
  0
LINE
  5
28D
330
1F
100
AcDbEntity
  8
LAY-10
  6
CONTINUOUS
 62
     7
100
AcDbLine
 10
775.0000000000003
 20
1542.5
 30
0.0
 11
775.0000000000003
 21
1557.0
 31
0.0
  0
LINE
  5
28E
330
1F
100
AcDbEntity
  8
LAY-10
  6
CONTINUOUS
 62
     7
100
AcDbLine
 10
793.0000000000003
 20
1415.0
 30
0.0
 11
793.0000000000003
 21
1495.0
 31
0.0
  0
LINE
  5
28F
330
1F
100
AcDbEntity
  8
LAY-10
  6
CONTINUOUS
 62
     7
100
AcDbLine
 10
811.0000000000005
 20
2367.0
 30
0.0
 11
811.0000000000005
 21
1433.0
 31
0.0
  0
LINE
  5
290
330
1F
100
AcDbEntity
  8
LAY-10
  6
CONTINUOUS
 62
     7
100
AcDbLine
 10
793.0000000000003
 20
1575.0
 30
0.0
 11
793.0000000000003
 21
2195.0
 31
0.0
  0
LINE
  5
291
330
1F
100
AcDbEntity
  8
LAY-10
  6
CONTINUOUS
 62
     7
100
AcDbLine
 10
820.0000000000003
 20
2345.0
 30
0.0
 11
820.0000000000003
 21
1442.0
 31
0.0
  0
LINE
  5
292
330
1F
100
AcDbEntity
  8
LAY-10
  6
CONTINUOUS
 62
     7
100
AcDbLine
 10
822.0000000000005
 20
2343.0
 30
0.0
 11
822.0000000000005
 21
1444.0
 31
0.0
  0
LINE
  5
293
330
1F
100
AcDbEntity
  8
LAY-10
  6
CENTER
 62
     2
100
AcDbLine
 10
1250.0
 20
2407.0
 30
0.0
 11
1250.0
 21
1387.0
 31
0.0
  0
LINE
  5
294
330
1F
100
AcDbEntity
  8
LAY-10
  6
CENTER
 62
     2
100
AcDbLine
 10
900.0000000000003
 20
1392.0
 30
0.0
 11
900.0000000000003
 21
1426.5
 31
0.0
  0
LINE
  5
295
330
1F
100
AcDbEntity
  8
LAY-10
  6
CENTER
 62
     2
100
AcDbLine
 10
909.9000000000004
 20
1415.0
 30
0.0
 11
890.5999999999998
 21
1415.0
 31
0.0
  0
LINE
  5
296
330
1F
100
AcDbEntity
  8
LAY-10
  6
CENTER
 62
     2
100
AcDbLine
 10
1600.0
 20
1392.0
 30
0.0
 11
1600.0
 21
1426.5
 31
0.0
  0
LINE
  5
297
330
1F
100
AcDbEntity
  8
LAY-10
  6
CENTER
 62
     2
100
AcDbLine
 10
1590.1
 20
1415.0
 30
0.0
 11
1609.400000000001
 21
1415.0
 31
0.0
  0
LINE
  5
298
330
1F
100
AcDbEntity
  8
LAY-10
  6
CENTER
 62
     2
100
AcDbLine
 10
1554.0
 20
1464.0
 30
0.0
 11
1576.500000000001
 21
1464.0
 31
0.0
  0
LINE
  5
299
330
1F
100
AcDbEntity
  8
LAY-10
  6
CENTER
 62
     2
100
AcDbLine
 10
1565.0
 20
1451.5
 30
0.0
 11
1565.0
 21
1475.0
 31
0.0
  0
LINE
  5
29A
330
1F
100
AcDbEntity
  8
LAY-10
  6
CENTER
 62
     2
100
AcDbLine
 10
946.0000000000005
 20
1464.0
 30
0.0
 11
923.5000000000002
 21
1464.0
 31
0.0
  0
LINE
  5
29B
330
1F
100
AcDbEntity
  8
LAY-10
  6
CENTER
 62
     2
100
AcDbLine
 10
935.0000000000003
 20
1451.5
 30
0.0
 11
935.0000000000003
 21
1475.0
 31
0.0
  0
LINE
  5
29C
330
1F
100
AcDbEntity
  8
LAY-10
  6
CENTER
 62
     2
100
AcDbLine
 10
1250.0
 20
815.0000000000002
 30
0.0
 11
1250.0
 21
719.0000000000003
 31
0.0
  0
LINE
  5
29D
330
1F
100
AcDbEntity
  8
LAY-10
  6
CENTER
 62
     2
100
AcDbLine
 10
1600.0
 20
2408.0
 30
0.0
 11
1600.0
 21
2373.5
 31
0.0
  0
LINE
  5
29E
330
1F
100
AcDbEntity
  8
LAY-10
  6
CENTER
 62
     2
100
AcDbLine
 10
1590.1
 20
2385.0
 30
0.0
 11
1609.400000000001
 21
2385.0
 31
0.0
  0
LINE
  5
29F
330
1F
100
AcDbEntity
  8
LAY-10
  6
CENTER
 62
     2
100
AcDbLine
 10
900.0000000000003
 20
2408.0
 30
0.0
 11
900.0000000000003
 21
2373.5
 31
0.0
  0
LINE
  5
2A0
330
1F
100
AcDbEntity
  8
LAY-10
  6
CENTER
 62
     2
100
AcDbLine
 10
909.9000000000004
 20
2385.0
 30
0.0
 11
890.5999999999998
 21
2385.0
 31
0.0
  0
LINE
  5
2A1
330
1F
100
AcDbEntity
  8
LAY-10
  6
CENTER
 62
     2
100
AcDbLine
 10
1492.700000000001
 20
1572.0
 30
0.0
 11
1544.800000000001
 21
1572.0
 31
0.0
  0
LINE
  5
2A2
330
1F
100
AcDbEntity
  8
LAY-10
  6
CENTER
 62
     2
100
AcDbLine
 10
1517.500000000001
 20
1525.800000000001
 30
0.0
 11
1517.500000000001
 21
1617.200000000001
 31
0.0
  0
LINE
  5
2A3
330
1F
100
AcDbEntity
  8
LAY-10
  6
CENTER
 62
     2
100
AcDbLine
 10
982.5000000000006
 20
1525.800000000001
 30
0.0
 11
982.5000000000006
 21
1617.200000000001
 31
0.0
  0
LINE
  5
2A4
330
1F
100
AcDbEntity
  8
LAY-10
  6
CENTER
 62
     2
100
AcDbLine
 10
957.7000000000006
 20
1572.0
 30
0.0
 11
1009.8
 21
1572.0
 31
0.0
  0
LINE
  5
2A5
330
1F
100
AcDbEntity
  8
LAY-10
  6
CENTER
 62
     2
100
AcDbLine
 10
1730.0
 20
1535.0
 30
0.0
 11
1695.5
 21
1535.0
 31
0.0
  0
LINE
  5
2A6
330
1F
100
AcDbEntity
  8
LAY-10
  6
CENTER
 62
     2
100
AcDbLine
 10
1707.000000000001
 20
1544.9
 30
0.0
 11
1707.000000000001
 21
1525.6
 31
0.0
  0
LINE
  5
2A7
330
1F
100
AcDbEntity
  8
LAY-10
  6
CENTER
 62
     2
100
AcDbLine
 10
1730.0
 20
2235.0
 30
0.0
 11
1695.5
 21
2235.0
 31
0.0
  0
LINE
  5
2A8
330
1F
100
AcDbEntity
  8
LAY-10
  6
CENTER
 62
     2
100
AcDbLine
 10
1707.000000000001
 20
2225.1
 30
0.0
 11
1707.000000000001
 21
2244.400000000001
 31
0.0
  0
LINE
  5
2A9
330
1F
100
AcDbEntity
  8
LAY-10
  6
CENTER
 62
     2
100
AcDbLine
 10
770.0000000000007
 20
2235.0
 30
0.0
 11
804.5000000000007
 21
2235.0
 31
0.0
  0
LINE
  5
2AA
330
1F
100
AcDbEntity
  8
LAY-10
  6
CENTER
 62
     2
100
AcDbLine
 10
793.0000000000003
 20
2225.1
 30
0.0
 11
793.0000000000003
 21
2244.400000000001
 31
0.0
  0
LINE
  5
2AB
330
1F
100
AcDbEntity
  8
LAY-10
  6
CENTER
 62
     2
100
AcDbLine
 10
770.0000000000007
 20
1535.0
 30
0.0
 11
804.5000000000007
 21
1535.0
 31
0.0
  0
LINE
  5
2AC
330
1F
100
AcDbEntity
  8
LAY-10
  6
CENTER
 62
     2
100
AcDbLine
 10
793.0000000000003
 20
1544.9
 30
0.0
 11
793.0000000000003
 21
1525.6
 31
0.0
  0
LINE
  5
2AD
330
1F
100
AcDbEntity
  8
LAY-10
  6
CENTER
 62
     2
100
AcDbLine
 10
773.0000000000007
 20
1885.0
 30
0.0
 11
1734.0
 21
1885.0
 31
0.0
  0
LINE
  5
2AE
330
1F
100
AcDbEntity
  8
LAY-10
  6
CONTINUOUS
 62
     7
100
AcDbLine
 10
1007.5
 20
1498.0
 30
0.0
 11
1492.5
 21
1498.0
 31
0.0
  0
LINE
  5
2AF
330
1F
100
AcDbEntity
  8
LAY-10
  6
CONTINUOUS
 62
     7
100
AcDbLine
 10
1011.5
 20
1494.0
 30
0.0
 11
1011.5
 21
1464.0
 31
0.0
  0
LINE
  5
2B0
330
1F
100
AcDbEntity
  8
LAY-10
  6
CONTINUOUS
 62
     7
100
AcDbLine
 10
1488.5
 20
1494.0
 30
0.0
 11
1488.5
 21
1464.0
 31
0.0
  0
LINE
  5
2B1
330
1F
100
AcDbEntity
  8
LAY-10
  6
CONTINUOUS
 62
     7
100
AcDbLine
 10
1007.5
 20
1464.0
 30
0.0
 11
1007.5
 21
1498.0
 31
0.0
  0
LINE
  5
2B2
330
1F
100
AcDbEntity
  8
LAY-10
  6
CONTINUOUS
 62
     7
100
AcDbLine
 10
1492.5
 20
1464.0
 30
0.0
 11
1492.5
 21
1498.0
 31
0.0
  0
LINE
  5
2B3
330
1F
100
AcDbEntity
  8
LAY-10
  6
CONTINUOUS
 62
     7
100
AcDbLine
 10
1011.5
 20
1494.0
 30
0.0
 11
1384.5
 21
1494.0
 31
0.0
  0
ARC
  5
2B4
330
1F
100
AcDbEntity
  8
LAY-10
  6
CONTINUOUS
 62
     7
100
AcDbCircle
 10
1565.0
 20
1464.0
 30
0.0
 40
20.0
100
AcDbArc
 50
0.0
 51
180.0
  0
LINE
  5
2B5
330
1F
100
AcDbEntity
  8
LAY-10
  6
CONTINUOUS
 62
     7
100
AcDbLine
 10
1585.0
 20
1464.0
 30
0.0
 11
1658.000000000001
 21
1464.0
 31
0.0
  0
ARC
  5
2B6
330
1F
100
AcDbEntity
  8
LAY-10
  6
CONTINUOUS
 62
     7
100
AcDbCircle
 10
935.0000000000003
 20
1464.0
 30
0.0
 40
20.0
100
AcDbArc
 50
0.0
 51
180.0
  0
LINE
  5
2B7
330
1F
100
AcDbEntity
  8
LAY-10
  6
CONTINUOUS
 62
     7
100
AcDbLine
 10
842.0000000000005
 20
1464.0
 30
0.0
 11
915.0000000000003
 21
1464.0
 31
0.0
  0
LINE
  5
2B8
330
1F
100
AcDbEntity
  8
LAY-10
  6
CONTINUOUS
 62
     7
100
AcDbLine
 10
955.0000000000003
 20
1464.0
 30
0.0
 11
1007.5
 21
1464.0
 31
0.0
  0
LINE
  5
2B9
330
1F
100
AcDbEntity
  8
LAY-10
  6
CONTINUOUS
 62
     7
100
AcDbLine
 10
1388.5
 20
1494.0
 30
0.0
 11
1388.5
 21
1464.0
 31
0.0
  0
LINE
  5
2BA
330
1F
100
AcDbEntity
  8
LAY-10
  6
CONTINUOUS
 62
     7
100
AcDbLine
 10
1384.5
 20
1494.0
 30
0.0
 11
1384.5
 21
1464.0
 31
0.0
  0
LINE
  5
2BB
330
1F
100
AcDbEntity
  8
LAY-10
  6
CONTINUOUS
 62
     7
100
AcDbLine
 10
1388.5
 20
1494.0
 30
0.0
 11
1488.500000000001
 21
1494.0
 31
0.0
  0
LINE
  5
2BC
330
1F
100
AcDbEntity
  8
LAY-10
  6
CONTINUOUS
 62
     7
100
AcDbLine
 10
1492.5
 20
1464.0
 30
0.0
 11
1545.0
 21
1464.0
 31
0.0
  0
LINE
  5
2BD
330
1F
100
AcDbEntity
  8
LAY-10
  6
CONTINUOUS
 62
     7
100
AcDbLine
 10
1388.5
 20
1464.0
 30
0.0
 11
1488.5
 21
1464.0
 31
0.0
  0
LINE
  5
2BE
330
1F
100
AcDbEntity
  8
LAY-10
  6
CONTINUOUS
 62
     7
100
AcDbLine
 10
1011.5
 20
1464.0
 30
0.0
 11
1384.5
 21
1464.0
 31
0.0
  0
LINE
  5
2BF
330
1F
100
AcDbEntity
  8
LAY-10
  6
CONTINUOUS
 62
     7
100
AcDbLine
 10
842.0000000000005
 20
2323.0
 30
0.0
 11
1658.000000000001
 21
2323.0
 31
0.0
  0
LINE
  5
2C0
330
1F
100
AcDbEntity
  8
LAY-10
  6
CONTINUOUS
 62
     7
100
AcDbLine
 10
1498.500000000001
 20
1610.0
 30
0.0
 11
1498.500000000001
 21
1534.0
 31
0.0
  0
LINE
  5
2C1
330
1F
100
AcDbEntity
  8
LAY-10
  6
CONTINUOUS
 62
     7
100
AcDbLine
 10
1536.5
 20
1610.0
 30
0.0
 11
1536.5
 21
1534.0
 31
0.0
  0
LINE
  5
2C2
330
1F
100
AcDbEntity
  8
LAY-10
  6
CONTINUOUS
 62
     7
100
AcDbLine
 10
1498.500000000001
 20
1610.0
 30
0.0
 11
1536.5
 21
1610.0
 31
0.0
  0
LINE
  5
2C3
330
1F
100
AcDbEntity
  8
LAY-10
  6
CONTINUOUS
 62
     7
100
AcDbLine
 10
1498.500000000001
 20
1534.0
 30
0.0
 11
1536.5
 21
1534.0
 31
0.0
  0
LINE
  5
2C4
330
1F
100
AcDbEntity
  8
LAY-10
  6
CONTINUOUS
 62
     7
100
AcDbLine
 10
963.5000000000008
 20
1610.0
 30
0.0
 11
963.5000000000008
 21
1534.0
 31
0.0
  0
LINE
  5
2C5
330
1F
100
AcDbEntity
  8
LAY-10
  6
CONTINUOUS
 62
     7
100
AcDbLine
 10
1001.5
 20
1610.0
 30
0.0
 11
1001.5
 21
1534.0
 31
0.0
  0
LINE
  5
2C6
330
1F
100
AcDbEntity
  8
LAY-10
  6
CONTINUOUS
 62
     7
100
AcDbLine
 10
963.5000000000008
 20
1610.0
 30
0.0
 11
1001.5
 21
1610.0
 31
0.0
  0
LINE
  5
2C7
330
1F
100
AcDbEntity
  8
LAY-10
  6
CONTINUOUS
 62
     7
100
AcDbLine
 10
963.5000000000008
 20
1534.0
 30
0.0
 11
1001.5
 21
1534.0
 31
0.0
  0
LINE
  5
2C8
330
1F
100
AcDbEntity
  8
LAY-10
  6
CONTINUOUS
 62
     7
100
AcDbLine
 10
1658.000000000001
 20
2323.0
 30
0.0
 11
1658.000000000001
 21
1464.0
 31
0.0
  0
LINE
  5
2C9
330
1F
100
AcDbEntity
  8
LAY-10
  6
CONTINUOUS
 62
     7
100
AcDbLine
 10
842.0000000000005
 20
2323.0
 30
0.0
 11
842.0000000000005
 21
1464.0
 31
0.0
  0
LINE
  5
2CA
330
1F
100
AcDbEntity
  8
LAY-10
  6
HIDDEN
 62
     7
100
AcDbLine
 10
875.0000000000011
 20
2260.0
 30
0.0
 11
1625.000000000001
 21
2260.0
 31
0.0
  0
LINE
  5
2CB
330
1F
100
AcDbEntity
  8
LAY-10
  6
HIDDEN
 62
     7
100
AcDbLine
 10
1625.000000000001
 20
1510.0
 30
0.0
 11
1625.000000000001
 21
2260.0
 31
0.0
  0
LINE
  5
2CC
330
1F
100
AcDbEntity
  8
LAY-10
  6
HIDDEN
 62
     7
100
AcDbLine
 10
875.0000000000009
 20
1510.0
 30
0.0
 11
875.0000000000008
 21
2260.0
 31
0.0
  0
LINE
  5
2CD
330
1F
100
AcDbEntity
  8
LAY-10
  6
HIDDEN
 62
     7
100
AcDbLine
 10
1625.0
 20
1510.0
 30
0.0
 11
875.0
 21
1510.0
 31
0.0
  0
LINE
  5
2CE
330
1F
100
AcDbEntity
  8
LAY-10
  6
PHANTOM
 62
     7
100
AcDbLine
 10
842.2624659905784
 20
797.0000000000001
 30
0.0
 11
842.0000000000007
 21
800.0000000000001
 31
0.0
  0
LINE
  5
2CF
330
1F
100
AcDbEntity
  8
LAY-10
  6
PHANTOM
 62
     7
100
AcDbLine
 10
842.2624659905784
 20
797.0000000000002
 30
0.0
 11
1658.000000000001
 21
797.0000000000002
 31
0.0
  0
LINE
  5
2D0
330
1F
100
AcDbEntity
  8
LAY-10
  6
PHANTOM
 62
     7
100
AcDbLine
 10
1657.737534009423
 20
797.0000000000001
 30
0.0
 11
1658.0
 21
800.0000000000001
 31
0.0
  0
DIMENSION
  5
2D2
330
1F
100
AcDbEntity
  8
LAY-20
  6
CONTINUOUS
 62
     4
100
AcDbDimension
  2
*D15
 10
1824.999999999989
 20
735.0000000000002
 30
0.0
 11
1799.999999999989
 21
767.5000000000002
 31
0.0
 70
   160
  3
ISO-25
100
AcDbAlignedDimension
 13
1689.000000000001
 23
800.0000000000002
 33
0.0
 14
1725.000000000001
 24
735.0000000000002
 34
0.0
 50
90.0
100
AcDbRotatedDimension
1001
ACAD
1000
DSTYLE
1002
{
1070
   270
1070
     2
1070
     6
1000
EX_BNORM
1070
     7
1000
EX_BNORM
1070
    41
1040
25.0
1070
    42
1040
15.0
1070
    44
1040
15.0
1070
    73
1070
     0
1070
    74
1070
     0
1070
    75
1070
     0
1070
    76
1070
     0
1070
    77
1070
     1
1070
    78
1070
     8
1070
   140
1040
31.181104
1070
   147
1040
0.0
1070
   173
1070
     1
1070
   176
1070
     4
1070
   177
1070
     4
1070
   178
1070
     7
1070
   271
1070
     1
1070
   277
1070
     2
1070
   279
1070
     2
1070
   280
1070
     0
1070
   287
1070
     5
1070
   340
1005
2D1
1002
}
  0
DIMENSION
  5
2E0
330
1F
100
AcDbEntity
  8
LAY-20
  6
CONTINUOUS
 62
     4
100
AcDbDimension
  2
*D16
 10
1689.0
 20
1040.0
 30
0.0
 11
1250.0
 21
1065.0
 31
0.0
 70
   160
  1
<>×943
  3
ISO-25
100
AcDbAlignedDimension
 13
811.0
 23
800.0
 33
0.0
 14
1689.0
 24
800.0
 34
0.0
100
AcDbRotatedDimension
1001
ACAD
1000
DSTYLE
1002
{
1070
   270
1070
     2
1070
     6
1000
EX_BNORM
1070
     7
1000
EX_BNORM
1070
    41
1040
30.0
1070
    42
1040
15.0
1070
    44
1040
15.0
1070
    73
1070
     0
1070
    74
1070
     0
1070
    75
1070
     0
1070
    76
1070
     0
1070
    77
1070
     1
1070
    78
1070
     8
1070
   140
1040
31.181104
1070
   147
1040
0.0
1070
   173
1070
     1
1070
   176
1070
     4
1070
   177
1070
     4
1070
   178
1070
     7
1070
   271
1070
     1
1070
   277
1070
     2
1070
   279
1070
     2
1070
   280
1070
     0
1070
   287
1070
     5
1070
   340
1005
2D1
1002
}
  0
DIMENSION
  5
2ED
330
1F
100
AcDbEntity
  8
LAY-20
  6
CONTINUOUS
 62
     4
100
AcDbDimension
  2
*D17
 10
1678.0
 20
970.0
 30
0.0
 11
1250.0
 21
995.0
 31
0.0
 70
   160
  1
<>×903
  3
ISO-25
100
AcDbAlignedDimension
 13
822.0
 23
800.0
 33
0.0
 14
1678.0
 24
800.0
 34
0.0
100
AcDbRotatedDimension
1001
ACAD
1000
DSTYLE
1002
{
1070
   270
1070
     2
1070
     6
1000
EX_BNORM
1070
     7
1000
EX_BNORM
1070
    41
1040
30.0
1070
    42
1040
15.0
1070
    44
1040
15.0
1070
    73
1070
     0
1070
    74
1070
     0
1070
    75
1070
     0
1070
    76
1070
     0
1070
    77
1070
     1
1070
    78
1070
     8
1070
   140
1040
31.181104
1070
   147
1040
0.0
1070
   173
1070
     1
1070
   176
1070
     4
1070
   177
1070
     4
1070
   178
1070
     7
1070
   271
1070
     1
1070
   277
1070
     2
1070
   279
1070
     2
1070
   280
1070
     0
1070
   287
1070
     5
1070
   340
1005
2D1
1002
}
  0
DIMENSION
  5
2FA
330
1F
100
AcDbEntity
  8
LAY-20
  6
CONTINUOUS
 62
     4
100
AcDbDimension
  2
*D18
 10
1625.0
 20
635.0
 30
0.0
 11
1250.0
 21
660.0
 31
0.0
 70
   160
  1
<>×750
  3
ISO-25
100
AcDbAlignedDimension
 13
875.0
 23
735.0
 33
0.0
 14
1625.0
 24
735.0
 34
0.0
100
AcDbRotatedDimension
1001
ACAD
1000
DSTYLE
1002
{
1070
   270
1070
     2
1070
     6
1000
EX_BNORM
1070
     7
1000
EX_BNORM
1070
    41
1040
30.0
1070
    42
1040
15.0
1070
    44
1040
15.0
1070
    73
1070
     0
1070
    74
1070
     0
1070
    75
1070
     0
1070
    76
1070
     0
1070
    77
1070
     1
1070
    78
1070
     8
1070
   140
1040
31.181104
1070
   147
1040
0.0
1070
   173
1070
     1
1070
   176
1070
     4
1070
   177
1070
     4
1070
   178
1070
     7
1070
   271
1070
     1
1070
   277
1070
     2
1070
   279
1070
     2
1070
   280
1070
     0
1070
   287
1070
     5
1070
   340
1005
2D1
1002
}
  0
DIMENSION
  5
307
330
1F
100
AcDbEntity
  8
LAY-20
  6
CONTINUOUS
 62
     4
100
AcDbDimension
  2
*D19
 10
1707.0
 20
565.0
 30
0.0
 11
1250.0
 21
590.0
 31
0.0
 70
   160
  1
<>×970
  3
ISO-25
100
AcDbAlignedDimension
 13
793.0000000000001
 23
735.0
 33
0.0
 14
1707.0
 24
735.0
 34
0.0
100
AcDbRotatedDimension
1001
ACAD
1000
DSTYLE
1002
{
1070
   270
1070
     2
1070
     6
1000
EX_BNORM
1070
     7
1000
EX_BNORM
1070
    41
1040
30.0
1070
    42
1040
15.0
1070
    44
1040
15.0
1070
    73
1070
     0
1070
    74
1070
     0
1070
    75
1070
     0
1070
    76
1070
     0
1070
    77
1070
     1
1070
    78
1070
     8
1070
   140
1040
31.181104
1070
   147
1040
0.0
1070
   173
1070
     1
1070
   176
1070
     4
1070
   177
1070
     4
1070
   178
1070
     7
1070
   271
1070
     1
1070
   277
1070
     2
1070
   279
1070
     2
1070
   280
1070
     0
1070
   287
1070
     5
1070
   340
1005
2D1
1002
}
  0
LINE
  5
314
330
1F
100
AcDbEntity
  8
LAY-255
  6
CONTINUOUS
 62
     7
100
AcDbLine
 10
3850.0
 20
219.9999999999999
 30
0.0
 11
2850.0
 21
219.9999999999999
 31
0.0
  0
LINE
  5
315
330
1F
100
AcDbEntity
  8
LAY-255
  6
CONTINUOUS
 62
     7
100
AcDbLine
 10
2888.0
 20
160.0
 30
0.0
 11
2968.0
 21
210.0
 31
0.0
  0
LINE
  5
316
330
1F
100
AcDbEntity
  8
LAY-255
  6
CONTINUOUS
 62
     7
100
AcDbLine
 10
2968.0
 20
210.0
 30
0.0
 11
3048.0
 21
160.0
 31
0.0
  0
LINE
  5
317
330
1F
100
AcDbEntity
  8
LAY-255
  6
CONTINUOUS
 62
     7
100
AcDbLine
 10
3048.0
 20
160.0
 30
0.0
 11
2968.0
 21
110.0
 31
0.0
  0
LINE
  5
318
330
1F
100
AcDbEntity
  8
LAY-255
  6
CONTINUOUS
 62
     7
100
AcDbLine
 10
2968.0
 20
110.0
 30
0.0
 11
2888.0
 21
160.0
 31
0.0
  0
LINE
  5
319
330
1F
100
AcDbEntity
  8
LAY-255
  6
CONTINUOUS
 62
     7
100
AcDbLine
 10
50.0
 20
100.0
 30
0.0
 11
3850.0
 21
100.0
 31
0.0
  0
LINE
  5
31A
330
1F
100
AcDbEntity
  8
LAY-255
  6
CONTINUOUS
 62
     7
100
AcDbLine
 10
50.0
 20
2800.0
 30
0.0
 11
3850.0
 21
2800.0
 31
0.0
  0
LINE
  5
31B
330
1F
100
AcDbEntity
  8
LAY-255
  6
CONTINUOUS
 62
     7
100
AcDbLine
 10
50.0
 20
100.0
 30
0.0
 11
50.0
 21
2800.0
 31
0.0
  0
LINE
  5
31C
330
1F
100
AcDbEntity
  8
LAY-255
  6
CONTINUOUS
 62
     7
100
AcDbLine
 10
3850.0
 20
100.0
 30
0.0
 11
3850.0
 21
2800.0
 31
0.0
  0
LINE
  5
31D
330
1F
100
AcDbEntity
  8
LAY-255
  6
CONTINUOUS
 62
     4
100
AcDbLine
 10
2850.0
 20
279.9999999999999
 30
0.0
 11
3850.0
 21
279.9999999999999
 31
0.0
  0
LINE
  5
31E
330
1F
100
AcDbEntity
  8
LAY-255
  6
CONTINUOUS
 62
     7
100
AcDbLine
 10
2850.0
 20
100.0
 30
0.0
 11
2850.0
 21
670.0
 31
0.0
  0
LINE
  5
31F
330
1F
100
AcDbEntity
  8
LAY-255
  6
CONTINUOUS
 62
     4
100
AcDbLine
 10
3350.0
 20
279.9999999999999
 30
0.0
 11
3350.0
 21
220.0
 31
0.0
  0
LINE
  5
320
330
1F
100
AcDbEntity
  8
LAY-255
  6
CONTINUOUS
 62
     7
100
AcDbLine
 10
3850.0
 20
670.0
 30
0.0
 11
2850.0
 21
670.0
 31
0.0
  0
LINE
  5
321
330
1F
100
AcDbEntity
  8
LAY-255
  6
CONTINUOUS
 62
     4
100
AcDbLine
 10
3830.0
 20
550.0
 30
0.0
 11
2870.0
 21
550.0
 31
0.0
  0
LINE
  5
322
330
1F
100
AcDbEntity
  8
LAY-255
  6
CONTINUOUS
 62
     4
100
AcDbLine
 10
3830.0
 20
610.0
 30
0.0
 11
2870.0
 21
610.0
 31
0.0
  0
POINT
  5
323
330
1F
100
AcDbEntity
  8
LAY-255
  6
CONTINUOUS
 62
     7
100
AcDbPoint
 10
2890.0
 20
500.0
 30
0.0
  0
POINT
  5
324
330
1F
100
AcDbEntity
  8
LAY-255
  6
CONTINUOUS
 62
     7
100
AcDbPoint
 10
3000.0
 20
560.0
 30
0.0
  0
POINT
  5
325
330
1F
100
AcDbEntity
  8
LAY-255
  6
CONTINUOUS
 62
     7
100
AcDbPoint
 10
3000.0
 20
620.0
 30
0.0
  0
POINT
  5
326
330
1F
100
AcDbEntity
  8
LAY-255
  6
CONTINUOUS
 62
     7
100
AcDbPoint
 10
2890.0
 20
400.0
 30
0.0
  0
POINT
  5
327
330
1F
100
AcDbEntity
  8
LAY-255
  6
CONTINUOUS
 62
     7
100
AcDbPoint
 10
2890.0
 20
450.0
 30
0.0
  0
POINT
  5
328
330
1F
100
AcDbEntity
  8
LAY-255
  6
CONTINUOUS
 62
     7
100
AcDbPoint
 10
2890.0
 20
349.9999999999999
 30
0.0
  0
POINT
  5
329
330
1F
100
AcDbEntity
  8
LAY-255
  6
CONTINUOUS
 62
     7
100
AcDbPoint
 10
2890.0
 20
299.9999999999998
 30
0.0
  0
TEXT
  5
32A
330
1F
100
AcDbEntity
  8
LAY-255
  6
CONTINUOUS
 62
     7
100
AcDbText
 10
3081.3837890625
 20
155.4375
 30
0.0
 40
51.5625
  1
福西鋳物株式会社
 41
1.342691999659091
  7
EXCADSTD
100
AcDbText
  0
TEXT
  5
32B
330
1F
100
AcDbEntity
  8
LAY-255
  6
CONTINUOUS
 62
     7
100
AcDbText
 10
3085.09375
 20
119.8125
 30
0.0
 40
17.1875
  1
ＦＵＫＵＮＩＳＨＩ
 41
1.204799226045263
  7
EXCADSTD
100
AcDbText
  0
TEXT
  5
32C
330
1F
100
AcDbEntity
  8
LAY-255
  6
CONTINUOUS
 62
     7
100
AcDbText
 10
3327.191964285714
 20
119.8125
 30
0.0
 40
17.1875
  1
ＦＯＵＮＤＲＹ
 41
1.243252752978497
  7
EXCADSTD
100
AcDbText
  0
TEXT
  5
32D
330
1F
100
AcDbEntity
  8
LAY-255
  6
CONTINUOUS
 62
     7
100
AcDbText
 10
3519.945914381009
 20
119.8125
 30
0.0
 40
17.1875
  1
ＣＯ.,ＬＴＤ.
 41
1.243831036226633
  7
EXCADSTD
100
AcDbText
  0
TEXT
  5
32E
330
1F
100
AcDbEntity
  8
LAY-255
  6
CONTINUOUS
 62
     7
100
AcDbText
 10
2940.34375
 20
137.1875
 30
0.0
 40
51.5625
  1
S
 41
0.7582677563636363
  7
EXCADSTD
100
AcDbText
  0
TEXT
  5
32F
330
1F
100
AcDbEntity
  8
LAY-255
  6
CONTINUOUS
 62
     7
100
AcDbText
 10
2971.046875
 20
137.4941037736
 30
0.0
 40
51.5625
  1
F
 41
0.7440945272727272
  7
EXCADSTD
100
AcDbText
  0
TEXT
  5
330
330
1F
100
AcDbEntity
  8
LAY-255
  6
CONTINUOUS
 62
     7
100
AcDbText
 10
3371.0546875
 20
244.2187499999999
 30
0.0
 40
25.78125
  1
縮尺
 41
1.080708718181818
  7
EXCADSTD
100
AcDbText
  0
TEXT
  5
331
330
1F
100
AcDbEntity
  8
LAY-255
  6
CONTINUOUS
 62
     7
100
AcDbText
 10
2872.65625
 20
565.625
 30
0.0
 40
34.375
  1
型式
 41
1.056348480681818
  7
EXCADSTD
100
AcDbText
  0
TEXT
  5
332
330
1F
100
AcDbEntity
  8
LAY-255
  6
CONTINUOUS
 62
     7
100
AcDbText
 10
2874.21875
 20
625.625
 30
0.0
 40
34.375
  1
品名
 41
0.9788386340909091
  7
EXCADSTD
100
AcDbText
  0
TEXT
  5
333
330
1F
100
AcDbEntity
  8
LAY-255
  6
CONTINUOUS
 62
     7
100
AcDbText
 10
2871.5234375
 20
244.2187499999999
 30
0.0
 40
25.78125
  1
作成日
 41
1.000629973818182
  7
EXCADSTD
100
AcDbText
  0
TEXT
  5
334
330
1F
100
AcDbEntity
  8
LAY-255
  6
CONTINUOUS
 62
     7
100
AcDbText
 10
2894.53125
 20
505.6250000000001
 30
0.0
 40
34.375
  1
区分：中荷重用
 41
1.007228657526081
  7
EXCADSTD
100
AcDbText
  0
TEXT
  5
335
330
1F
100
AcDbEntity
  8
LAY-255
  6
CONTINUOUS
 62
     7
100
AcDbText
 10
2893.75
 20
405.625
 30
0.0
 40
34.375
  1
防水：防水防臭型
 41
1.01490444025974
  7
EXCADSTD
100
AcDbText
  0
TEXT
  5
336
330
1F
100
AcDbEntity
  8
LAY-255
  6
CONTINUOUS
 62
     7
100
AcDbText
 10
3003.90625
 20
625.625
 30
0.0
 40
34.375
  1
マンホールカバー
 41
1.015410627012987
  7
EXCADSTD
100
AcDbText
  0
TEXT
  5
337
330
1F
100
AcDbEntity
  8
LAY-255
  6
CONTINUOUS
 62
     7
100
AcDbText
 10
3007.5
 20
565.625
 30
0.0
 40
34.375
  1
ＳＦ－７５ＳＳ型
 41
1.002755958181818
  7
EXCADSTD
100
AcDbText
  0
TEXT
  5
338
330
1F
100
AcDbEntity
  8
LAY-255
  6
CONTINUOUS
 62
     7
100
AcDbText
 10
3482.8125
 20
235.6249999999999
 30
0.0
 40
34.375
  1
１：１０
 41
0.9243863385026738
  7
EXCADSTD
100
AcDbText
  0
TEXT
  5
339
330
1F
100
AcDbEntity
  8
LAY-255
  6
CONTINUOUS
 62
     7
100
AcDbText
 10
2893.75
 20
355.6249999999999
 30
0.0
 40
34.375
  1
受枠：水抜穴付
 41
1.018265188375559
  7
EXCADSTD
100
AcDbText
  0
TEXT
  5
33A
330
1F
100
AcDbEntity
  8
LAY-255
  6
CONTINUOUS
 62
     7
100
AcDbText
 10
2891.40625
 20
455.625
 30
0.0
 40
34.375
  1
構造：蓋脱着蝶番付
 41
1.022625390103567
  7
EXCADSTD
100
AcDbText
  0
TEXT
  5
33B
330
1F
100
AcDbEntity
  8
LAY-255
  6
CONTINUOUS
 62
     7
100
AcDbText
 10
3008.61328125
 20
235.6249999999999
 30
0.0
 40
34.375
  1
２０１９／０３／２２
 41
0.8589500272210743
  7
EXCADSTD
100
AcDbText
  0
TEXT
  5
33C
330
1F
100
AcDbEntity
  8
LAY-255
  6
CONTINUOUS
 62
     7
100
AcDbText
 10
2891.71875
 20
305.6249999999999
 30
0.0
 40
34.375
  1
破壊荷重：６０ｋＮ以上
 41
1.016600426804124
  7
EXCADSTD
100
AcDbText
  0
ENDSEC
  0
SECTION
  2
OBJECTS
  0
DICTIONARY
  5
C
330
0
100
AcDbDictionary
  3
ACAD_GROUP
350
D
  3
ACAD_LAYOUT
350
1A
  3
ACAD_MATERIAL
350
43
  3
ACAD_MLEADERSTYLE
350
6B
  3
ACAD_MLINESTYLE
350
17
  3
ACAD_PLOTSETTINGS
350
19
  3
ACAD_SCALELIST
350
47
  3
ACAD_VISUALSTYLE
350
2A
  3
ACDBHEADERROUNDTRIPXREC
350
33D
  3
ACDBVARIABLEDICTIONARY
350
35E
  0
DICTIONARY
  5
369
330
8
100
AcDbDictionary
280
     1
  3
ACAD_XREC_ROUNDTRIP
360
36A
  0
DICTIONARY
  5
D
102
{ACAD_REACTORS
330
C
102
}
330
C
100
AcDbDictionary
  0
DICTIONARY
  5
1A
102
{ACAD_REACTORS
330
C
102
}
330
C
100
AcDbDictionary
  0
DICTIONARY
  5
43
102
{ACAD_REACTORS
330
C
102
}
330
C
100
AcDbDictionary
  3
BYBLOCK
350
45
  3
BYLAYER
350
44
  3
GLOBAL
350
46
  0
DICTIONARY
  5
6B
102
{ACAD_REACTORS
330
C
102
}
330
C
100
AcDbDictionary
  3
STANDARD
350
6C
  0
DICTIONARY
  5
17
102
{ACAD_REACTORS
330
C
102
}
330
C
100
AcDbDictionary
  3
STANDARD
350
18
  0
DICTIONARY
  5
19
102
{ACAD_REACTORS
330
C
102
}
330
C
100
AcDbDictionary
  0
DICTIONARY
  5
47
102
{ACAD_REACTORS
330
C
102
}
330
C
100
AcDbDictionary
  3
A0
350
48
  3
A1
350
49
  3
A2
350
4A
  3
A3
350
4B
  3
A4
350
4C
  3
A5
350
4D
  3
A6
350
4E
  3
A7
350
4F
  3
A8
350
50
  3
A9
350
51
  3
B0
350
52
  3
B1
350
53
  3
B2
350
54
  3
B3
350
55
  3
B4
350
56
  3
B5
350
57
  3
B6
350
58
  3
B7
350
59
  3
B8
350
5A
  3
B9
350
5B
  3
C0
350
5C
  3
C1
350
5D
  3
C2
350
5E
  3
C3
350
5F
  3
C4
350
60
  3
C5
350
61
  3
C6
350
62
  3
C7
350
63
  3
C8
350
64
  3
C9
350
65
  3
D0
350
66
  3
D1
350
67
  3
D2
350
68
  0
DICTIONARY
  5
2A
102
{ACAD_REACTORS
330
C
102
}
330
C
100
AcDbDictionary
  3
2DWIREFRAME
350
2F
  3
BASIC
350
32
  3
BRIGHTEN
350
36
  3
COLORCHANGE
350
3A
  3
CONCEPTUAL
350
34
  3
DIM
350
35
  3
EDGECOLOROFF
350
3D
  3
FACEPATTERN
350
39
  3
FLAT
350
2B
  3
FLATWITHEDGES
350
2C
  3
GOURAUD
350
2D
  3
GOURAUDWITHEDGES
350
2E
  3
HIDDEN
350
31
  3
JITTEROFF
350
3B
  3
LINEPATTERN
350
38
  3
OVERHANGOFF
350
3C
  3
REALISTIC
350
33
  3
SHADED
350
42
  3
SHADED_WITH_EDGES
350
41
  3
SHADES_OF_GRAY
350
3E
  3
SKETCHY
350
3F
  3
THICKEN
350
37
  3
WIREFRAME
350
30
  3
X-RAY
350
40
  0
DICTIONARY
  5
33D
102
{ACAD_REACTORS
330
C
102
}
330
C
100
AcDbDictionary
  3
CEPSNID
350
347
  3
CEPSNTYPE
350
346
  3
DIMSTYLEDATA
350
35D
  3
FINGERPRINTGUID
350
348
  3
HYPERLINKBASE
350
340
  3
INSUNITS
350
345
  3
LAYOUTDICT
350
342
  3
LWETCUNION
350
344
  3
PLOTSETDICT
350
343
  3
PSVPSCALE
350
34A
  3
PUCSBASE
350
34D
  3
PUCSORGBACK
350
353
  3
PUCSORGBOTTOM
350
34F
  3
PUCSORGFRONT
350
352
  3
PUCSORGLEFT
350
350
  3
PUCSORGRIGHT
350
351
  3
PUCSORGTOP
350
34E
  3
PUCSORTHOREF
350
34B
  3
PUCSORTHOVIEW
350
34C
  3
STYLESHEET
350
341
  3
TSTACKALIGN
350
33E
  3
TSTACKSIZE
350
33F
  3
UCSBASE
350
356
  3
UCSORGBACK
350
35C
  3
UCSORGBOTTOM
350
358
  3
UCSORGFRONT
350
35B
  3
UCSORGLEFT
350
359
  3
UCSORGRIGHT
350
35A
  3
UCSORGTOP
350
357
  3
UCSORTHOREF
350
354
  3
UCSORTHOVIEW
350
355
  3
VERSIONGUID
350
349
  0
DICTIONARY
  5
35E
102
{ACAD_REACTORS
330
C
102
}
330
C
100
AcDbDictionary
  3
CANNOSCALE
350
36B
  3
CENTEREXE
350
365
  3
CENTERLTYPEFILE
350
366
  3
CMLEADERSTYLE
350
360
  3
CTABLESTYLE
350
35F
  3
DIMASSOC
350
367
  3
HIDETEXT
350
368
  3
MSLTSCALE
350
36C
  3
PSOLHEIGHT
350
362
  3
PSOLWIDTH
350
361
  0
XRECORD
  5
36A
102
{ACAD_REACTORS
330
369
102
}
330
369
100
AcDbXrecord
102
VTR_0.000_0.000_1.000_1.000_VISUALSTYLE
340
2F
102
VTR_0.000_0.000_1.000_1.000_GRIDDISPLAY
 70
     3
102
VTR_0.000_0.000_1.000_1.000_GRIDMAJOR
 70
     5
102
VTR_0.000_0.000_1.000_1.000_DEFAULTLIGHTING
280
     1
102
VTR_0.000_0.000_1.000_1.000_DEFAULTLIGHTINGTYPE
 70
     1
102
VTR_0.000_0.000_1.000_1.000_BRIGHTNESS
141
0.0
102
VTR_0.000_0.000_1.000_1.000_CONTRAST
142
0.0
  0
MATERIAL
  5
45
102
{ACAD_REACTORS
330
43
102
}
102
{ACAD_XDICTIONARY
360
36F
102
}
330
43
100
AcDbMaterial
  1
BYBLOCK
  0
MATERIAL
  5
44
102
{ACAD_REACTORS
330
43
102
}
102
{ACAD_XDICTIONARY
360
36D
102
}
330
43
100
AcDbMaterial
  1
BYLAYER
  0
MATERIAL
  5
46
102
{ACAD_REACTORS
330
43
102
}
102
{ACAD_XDICTIONARY
360
371
102
}
330
43
100
AcDbMaterial
  1
GLOBAL
  0
ACAD_PROXY_OBJECT
  5
6C
102
{ACAD_REACTORS
330
6B
102
}
330
6B
100
AcDbProxyObject
 90
      499
 91
      505
 93
      610
310
40901902A4063FBFFFFFE0000000000000020400000000000020404214DD185B99185C990000000000000104090141901A00000000000004100000000000000041025764000000000000039000
340
14
340
0
340
11
340
0
 94
        0
1001
ACAD_MLEADERVER
1070
     2
  0
MLINESTYLE
  5
18
102
{ACAD_REACTORS
330
17
102
}
330
17
100
AcDbMlineStyle
  2
Standard
 70
     0
  3

 62
   256
 51
90.0
 52
90.0
 71
     2
 49
0.5
 62
   256
  6
BYLAYER
 49
-0.5
 62
   256
  6
BYLAYER
  0
ACAD_PROXY_OBJECT
  5
48
102
{ACAD_REACTORS
330
47
102
}
330
47
100
AcDbProxyObject
 90
      499
 91
      503
 93
       41
310
903313A31580
  0
ACAD_PROXY_OBJECT
  5
49
102
{ACAD_REACTORS
330
47
102
}
330
47
100
AcDbProxyObject
 90
      499
 91
      503
 93
      105
310
903313A324000000000000004000
  0
ACAD_PROXY_OBJECT
  5
4A
102
{ACAD_REACTORS
330
47
102
}
330
47
100
AcDbProxyObject
 90
      499
 91
      503
 93
      105
310
903313A344000000000000104000
  0
ACAD_PROXY_OBJECT
  5
4B
102
{ACAD_REACTORS
330
47
102
}
330
47
100
AcDbProxyObject
 90
      499
 91
      503
 93
      105
310
903313A354000000000000144000
  0
ACAD_PROXY_OBJECT
  5
4C
102
{ACAD_REACTORS
330
47
102
}
330
47
100
AcDbProxyObject
 90
      499
 91
      503
 93
      105
310
903313A384000000000000204000
  0
ACAD_PROXY_OBJECT
  5
4D
102
{ACAD_REACTORS
330
47
102
}
330
47
100
AcDbProxyObject
 90
      499
 91
      503
 93
      113
310
904313A31304000000000000244000
  0
ACAD_PROXY_OBJECT
  5
4E
102
{ACAD_REACTORS
330
47
102
}
330
47
100
AcDbProxyObject
 90
      499
 91
      503
 93
      113
310
904313A31364000000000000304000
  0
ACAD_PROXY_OBJECT
  5
4F
102
{ACAD_REACTORS
330
47
102
}
330
47
100
AcDbProxyObject
 90
      499
 91
      503
 93
      113
310
904313A32304000000000000344000
  0
ACAD_PROXY_OBJECT
  5
50
102
{ACAD_REACTORS
330
47
102
}
330
47
100
AcDbProxyObject
 90
      499
 91
      503
 93
      113
310
904313A333040000000000003E4000
  0
ACAD_PROXY_OBJECT
  5
51
102
{ACAD_REACTORS
330
47
102
}
330
47
100
AcDbProxyObject
 90
      499
 91
      503
 93
      113
310
904313A34304000000000000444000
  0
ACAD_PROXY_OBJECT
  5
52
102
{ACAD_REACTORS
330
47
102
}
330
47
100
AcDbProxyObject
 90
      499
 91
      503
 93
      113
310
904313A35304000000000000494000
  0
ACAD_PROXY_OBJECT
  5
53
102
{ACAD_REACTORS
330
47
102
}
330
47
100
AcDbProxyObject
 90
      499
 91
      503
 93
      121
310
905313A3130304000000000000594000
  0
ACAD_PROXY_OBJECT
  5
54
102
{ACAD_REACTORS
330
47
102
}
330
47
100
AcDbProxyObject
 90
      499
 91
      503
 93
      105
310
903323A310000000000000010100
  0
ACAD_PROXY_OBJECT
  5
55
102
{ACAD_REACTORS
330
47
102
}
330
47
100
AcDbProxyObject
 90
      499
 91
      503
 93
      105
310
903343A310000000000000410100
  0
ACAD_PROXY_OBJECT
  5
56
102
{ACAD_REACTORS
330
47
102
}
330
47
100
AcDbProxyObject
 90
      499
 91
      503
 93
      105
310
903383A310000000000000810100
  0
ACAD_PROXY_OBJECT
  5
57
102
{ACAD_REACTORS
330
47
102
}
330
47
100
AcDbProxyObject
 90
      499
 91
      503
 93
      113
310
90431303A310000000000000910100
  0
ACAD_PROXY_OBJECT
  5
58
102
{ACAD_REACTORS
330
47
102
}
330
47
100
AcDbProxyObject
 90
      499
 91
      503
 93
      121
310
9053130303A310000000000001650100
  0
ACAD_PROXY_OBJECT
  5
59
102
{ACAD_REACTORS
330
47
102
}
330
47
100
AcDbProxyObject
 90
      499
 91
      503
 93
      257
310
90E312F31323822203D2031272D3022000000000000200FC000000000000284000
  0
ACAD_PROXY_OBJECT
  5
5A
102
{ACAD_REACTORS
330
47
102
}
330
47
100
AcDbProxyObject
 90
      499
 91
      503
 93
      249
310
90D312F363422203D2031272D3022000000000000240FC000000000000284000
  0
ACAD_PROXY_OBJECT
  5
5B
102
{ACAD_REACTORS
330
47
102
}
330
47
100
AcDbProxyObject
 90
      499
 91
      503
 93
      249
310
90D312F333222203D2031272D3022000000000000280FC000000000000284000
  0
ACAD_PROXY_OBJECT
  5
5C
102
{ACAD_REACTORS
330
47
102
}
330
47
100
AcDbProxyObject
 90
      499
 91
      503
 93
      249
310
90D312F313622203D2031272D30220000000000002C0FC000000000000284000
  0
ACAD_PROXY_OBJECT
  5
5D
102
{ACAD_REACTORS
330
47
102
}
330
47
100
AcDbProxyObject
 90
      499
 91
      503
 93
      249
310
90D332F333222203D2031272D30220000000000002E0FC000000000000284000
  0
ACAD_PROXY_OBJECT
  5
5E
102
{ACAD_REACTORS
330
47
102
}
330
47
100
AcDbProxyObject
 90
      499
 91
      503
 93
      241
310
90C312F3822203D2031272D3022000000000000300FC000000000000284000
  0
ACAD_PROXY_OBJECT
  5
5F
102
{ACAD_REACTORS
330
47
102
}
330
47
100
AcDbProxyObject
 90
      499
 91
      503
 93
      249
310
90D332F313622203D2031272D3022000000000000320FC000000000000284000
  0
ACAD_PROXY_OBJECT
  5
60
102
{ACAD_REACTORS
330
47
102
}
330
47
100
AcDbProxyObject
 90
      499
 91
      503
 93
      241
310
90C312F3422203D2031272D3022000000000000340FC000000000000284000
  0
ACAD_PROXY_OBJECT
  5
61
102
{ACAD_REACTORS
330
47
102
}
330
47
100
AcDbProxyObject
 90
      499
 91
      503
 93
      241
310
90C332F3822203D2031272D3022000000000000360FC000000000000284000
  0
ACAD_PROXY_OBJECT
  5
62
102
{ACAD_REACTORS
330
47
102
}
330
47
100
AcDbProxyObject
 90
      499
 91
      503
 93
      241
310
90C312F3222203D2031272D3022000000000000380FC000000000000284000
  0
ACAD_PROXY_OBJECT
  5
63
102
{ACAD_REACTORS
330
47
102
}
330
47
100
AcDbProxyObject
 90
      499
 91
      503
 93
      241
310
90C332F3422203D2031272D30220000000000003A0FC000000000000284000
  0
ACAD_PROXY_OBJECT
  5
64
102
{ACAD_REACTORS
330
47
102
}
330
47
100
AcDbProxyObject
 90
      499
 91
      503
 93
      161
310
90A3122203D2031272D30224000000000000284000
  0
ACAD_PROXY_OBJECT
  5
65
102
{ACAD_REACTORS
330
47
102
}
330
47
100
AcDbProxyObject
 90
      499
 91
      503
 93
      257
310
90E312D312F3222203D2031272D30220000000000003E0FC000000000000284000
  0
ACAD_PROXY_OBJECT
  5
66
102
{ACAD_REACTORS
330
47
102
}
330
47
100
AcDbProxyObject
 90
      499
 91
      503
 93
      225
310
90A3322203D2031272D302200000000000002100000000000000284000
  0
ACAD_PROXY_OBJECT
  5
67
102
{ACAD_REACTORS
330
47
102
}
330
47
100
AcDbProxyObject
 90
      499
 91
      503
 93
      225
310
90A3622203D2031272D302200000000000006100000000000000284000
  0
ACAD_PROXY_OBJECT
  5
68
102
{ACAD_REACTORS
330
47
102
}
330
47
100
AcDbProxyObject
 90
      499
 91
      503
 93
      249
310
90D31272D3022203D2031272D30220000000000000A100000000000000284000
  0
ACAD_PROXY_OBJECT
  5
2F
102
{ACAD_REACTORS
330
2A
102
}
330
2A
100
AcDbProxyObject
 90
      499
 91
      501
 93
      436
310
42CC9915DA5C99599C985B595049028333333333333E33F0000000000000F90107901411070040501600405405064090741402480A0340
1001
ACAD
1000
AcDbSavedByObjectVersion
1070
     0
  0
ACAD_PROXY_OBJECT
  5
32
102
{ACAD_REACTORS
330
2A
102
}
330
2A
100
AcDbProxyObject
 90
      499
 91
      501
 93
      388
310
4150985CDA58D07406404333333333333E33F0000000000000F90107A41107004050150841D405064090741402480A0350
1001
ACAD
1000
AcDbSavedByObjectVersion
1070
     0
  0
ACAD_PROXY_OBJECT
  5
36
102
{ACAD_REACTORS
330
2A
102
}
330
2A
100
AcDbProxyObject
 90
      499
 91
      501
 93
      428
310
42109C9A59DA1D195B90C409028333333333333E33F0000000000000F9010790141107004050150841D405064090741402480A029950
1001
ACAD
1000
AcDbSavedByObjectVersion
1070
     0
  0
ACAD_PROXY_OBJECT
  5
3A
102
{ACAD_REACTORS
330
2A
102
}
330
2A
100
AcDbProxyObject
 90
      499
 91
      501
 93
      452
310
42D0DBDB1BDC90DA185B99D95104090240C333333333333E33F0000000000000F90108901411070040501508421405064090741402480A0350
1001
ACAD
1000
AcDbSavedByObjectVersion
1070
     0
  0
ACAD_PROXY_OBJECT
  5
34
102
{ACAD_REACTORS
330
2A
102
}
330
2A
100
AcDbProxyObject
 90
      499
 91
      501
 93
      500
310
4290DBDB98D95C1D1D585B10940D028333333333333E33F0000000000000F90107902409070040501000000000018199010841D405064090740C02480A0340
1001
ACAD
1000
AcDbSavedByObjectVersion
1070
     0
  0
ACAD_PROXY_OBJECT
  5
35
102
{ACAD_REACTORS
330
2A
102
}
330
2A
100
AcDbProxyObject
 90
      499
 91
      501
 93
      412
310
40D11A5B50B409028333333333333E33F0000000000000F9010790141107004050150841D405064090741402480A02677FFFFFD0
1001
ACAD
1000
AcDbSavedByObjectVersion
1070
     0
  0
ACAD_PROXY_OBJECT
  5
3D
102
{ACAD_REACTORS
330
2A
102
}
330
2A
100
AcDbProxyObject
 90
      499
 91
      501
 93
      452
310
43115919D950DBDB1BDC93D999916409028333333333333E33F0000000000000F9010790141107004050150841D405064090741402480A0350
1001
ACAD
1000
AcDbSavedByObjectVersion
1070
     0
  0
ACAD_PROXY_OBJECT
  5
39
102
{ACAD_REACTORS
330
2A
102
}
330
2A
100
AcDbProxyObject
 90
      499
 91
      501
 93
      444
310
42D19858D95C185D1D195C9B90F409028333333333333E33F0000000000000F9010790141107004050150841D405064090741402480A0350
1001
ACAD
1000
AcDbSavedByObjectVersion
1070
     0
  0
ACAD_PROXY_OBJECT
  5
2B
102
{ACAD_REACTORS
330
2A
102
}
330
2A
100
AcDbProxyObject
 90
      499
 91
      501
 93
      380
310
41119B185D240901404333333333333E33F0000000000000F9010740A907004050150841D405064090741402480A1B50
1001
ACAD
1000
AcDbSavedByObjectVersion
1070
     0
  0
ACAD_PROXY_OBJECT
  5
2C
102
{ACAD_REACTORS
330
2A
102
}
330
2A
100
AcDbProxyObject
 90
      499
 91
      501
 93
      468
310
43519B185D15DA5D1A115919D95CD0140901404333333333333E33F0000000000000F90107409019070040501600405405064090741402480A1B50
1001
ACAD
1000
AcDbSavedByObjectVersion
1070
     0
  0
ACAD_PROXY_OBJECT
  5
2D
102
{ACAD_REACTORS
330
2A
102
}
330
2A
100
AcDbProxyObject
 90
      499
 91
      501
 93
      404
310
41D1DBDD5C985D5910240902404333333333333E33F0000000000000F9010740A9070040501641D405064090741402480A1B50
1001
ACAD
1000
AcDbSavedByObjectVersion
1070
     0
  0
ACAD_PROXY_OBJECT
  5
2E
102
{ACAD_REACTORS
330
2A
102
}
330
2A
100
AcDbProxyObject
 90
      499
 91
      501
 93
      492
310
4411DBDD5C985D5915DA5D1A115919D95CD0340902404333333333333E33F0000000000000F90107409019070040501600405405064090741402480A1B50
1001
ACAD
1000
AcDbSavedByObjectVersion
1070
     0
  0
ACAD_PROXY_OBJECT
  5
31
102
{ACAD_REACTORS
330
2A
102
}
330
2A
100
AcDbProxyObject
 90
      499
 91
      501
 93
      476
310
41921A5919195B90640502408333333333333E33F0000000000000F901079024090700405020000000000001110200405405064090740C02480A0340
1001
ACAD
1000
AcDbSavedByObjectVersion
1070
     0
  0
ACAD_PROXY_OBJECT
  5
3B
102
{ACAD_REACTORS
330
2A
102
}
330
2A
100
AcDbProxyObject
 90
      499
 91
      501
 93
      428
310
42529A5D1D195C93D999914409028333333333333E33F0000000000000F9010790141107004050150A41D405064090741402480A0350
1001
ACAD
1000
AcDbSavedByObjectVersion
1070
     0
  0
ACAD_PROXY_OBJECT
  5
38
102
{ACAD_REACTORS
330
2A
102
}
330
2A
100
AcDbProxyObject
 90
      499
 91
      501
 93
      444
310
42D31A5B995C185D1D195C9B90E409028333333333333E33F0000000000000F9010790141107004050750841D405064090741402483A0350
1001
ACAD
1000
AcDbSavedByObjectVersion
1070
     0
  0
ACAD_PROXY_OBJECT
  5
3C
102
{ACAD_REACTORS
330
2A
102
}
330
2A
100
AcDbProxyObject
 90
      499
 91
      501
 93
      444
310
42D3DD995C9A185B99D3D999915409028333333333333E33F0000000000000F9010790141107004050150941D405064090741402480A0350
1001
ACAD
1000
AcDbSavedByObjectVersion
1070
     0
  0
ACAD_PROXY_OBJECT
  5
33
102
{ACAD_REACTORS
330
2A
102
}
330
2A
100
AcDbProxyObject
 90
      499
 91
      501
 93
      428
310
425499585B1A5CDD1A58D08409038333333333333E33F0000000000000F9010740A907004050150800405405064090740C02480A1B40
1001
ACAD
1000
AcDbSavedByObjectVersion
1070
     0
  0
ACAD_PROXY_OBJECT
  5
42
102
{ACAD_REACTORS
330
2A
102
}
330
2A
100
AcDbProxyObject
 90
      499
 91
      501
 93
      420
310
4194DA1859195911B40902404333333333333E33F0000000000000F9010740A41107004050150800405405064090840C02480A0B40
1001
ACAD
1000
AcDbSavedByObjectVersion
1070
     0
  0
ACAD_PROXY_OBJECT
  5
41
102
{ACAD_REACTORS
330
2A
102
}
330
2A
100
AcDbProxyObject
 90
      499
 91
      501
 93
      516
310
4454DA18591959081DDA5D1A08195919D95CD1A40902404333333333333E33F0000000000000F901074090142907004050250800405405064090740C02480A0B40
1001
ACAD
1000
AcDbSavedByObjectVersion
1070
     0
  0
ACAD_PROXY_OBJECT
  5
3E
102
{ACAD_REACTORS
330
2A
102
}
330
2A
100
AcDbProxyObject
 90
      499
 91
      501
 93
      532
310
4394DA1859195CC81BD98811DC985E5174090240C333333333333E33F0000000000000F901079024090741D01000000000000111010841D405064090740C02480A0340
1001
ACAD
1000
AcDbSavedByObjectVersion
1070
     0
  0
ACAD_PROXY_OBJECT
  5
3F
102
{ACAD_REACTORS
330
2A
102
}
330
2A
100
AcDbProxyObject
 90
      499
 91
      501
 93
      476
310
41D4DAD95D18DA1E51840502408333333333333E33F0000000000000F901079024090741D01000000000000111010B41D405064090741802480A0340
1001
ACAD
1000
AcDbSavedByObjectVersion
1070
     0
  0
ACAD_PROXY_OBJECT
  5
37
102
{ACAD_REACTORS
330
2A
102
}
330
2A
100
AcDbProxyObject
 90
      499
 91
      501
 93
      412
310
41D51A1A58DAD95B90D409028333333333333E33F0000000000000F9010790141107004050150C41D405064090741402480A0350
1001
ACAD
1000
AcDbSavedByObjectVersion
1070
     0
  0
ACAD_PROXY_OBJECT
  5
30
102
{ACAD_REACTORS
330
2A
102
}
330
2A
100
AcDbProxyObject
 90
      499
 91
      501
 93
      420
310
4255DA5C99599C985B595059028333333333333E33F0000000000000F90107901411070040501600405405064090740C02480A0340
1001
ACAD
1000
AcDbSavedByObjectVersion
1070
     0
  0
ACAD_PROXY_OBJECT
  5
40
102
{ACAD_REACTORS
330
2A
102
}
330
2A
100
AcDbProxyObject
 90
      499
 91
      501
 93
      404
310
41560B54985E51940902404000000000000E03F0000000000000F9010740501907004050150841D405064090740C02480A1B40
1001
ACAD
1000
AcDbSavedByObjectVersion
1070
     0
  0
XRECORD
  5
347
102
{ACAD_REACTORS
330
33D
102
}
330
33D
100
AcDbXrecord
340
0
  0
XRECORD
  5
346
102
{ACAD_REACTORS
330
33D
102
}
330
33D
100
AcDbXrecord
 90
        0
  0
XRECORD
  5
35D
102
{ACAD_REACTORS
330
33D
102
}
330
33D
100
AcDbXrecord
1000
DSTYLE
1002
{
1070
   340
340
11
1002
}
  0
XRECORD
  5
348
102
{ACAD_REACTORS
330
33D
102
}
330
33D
100
AcDbXrecord
  1
{45ca3cc4-f60c-497c-a4a7-17873730c473}
  0
XRECORD
  5
340
102
{ACAD_REACTORS
330
33D
102
}
330
33D
100
AcDbXrecord
  1

  0
XRECORD
  5
345
102
{ACAD_REACTORS
330
33D
102
}
330
33D
100
AcDbXrecord
 90
        4
  0
XRECORD
  5
342
102
{ACAD_REACTORS
330
33D
102
}
330
33D
100
AcDbXrecord
340
1A
  0
XRECORD
  5
344
102
{ACAD_REACTORS
330
33D
102
}
330
33D
100
AcDbXrecord
 90
    10781
  0
XRECORD
  5
343
102
{ACAD_REACTORS
330
33D
102
}
330
33D
100
AcDbXrecord
340
19
  0
XRECORD
  5
34A
102
{ACAD_REACTORS
330
33D
102
}
330
33D
100
AcDbXrecord
 40
0.0
  0
XRECORD
  5
34D
102
{ACAD_REACTORS
330
33D
102
}
330
33D
100
AcDbXrecord
340
0
  0
XRECORD
  5
353
102
{ACAD_REACTORS
330
33D
102
}
330
33D
100
AcDbXrecord
 10
0.0
 20
0.0
 30
0.0
  0
XRECORD
  5
34F
102
{ACAD_REACTORS
330
33D
102
}
330
33D
100
AcDbXrecord
 10
0.0
 20
0.0
 30
0.0
  0
XRECORD
  5
352
102
{ACAD_REACTORS
330
33D
102
}
330
33D
100
AcDbXrecord
 10
0.0
 20
0.0
 30
0.0
  0
XRECORD
  5
350
102
{ACAD_REACTORS
330
33D
102
}
330
33D
100
AcDbXrecord
 10
0.0
 20
0.0
 30
0.0
  0
XRECORD
  5
351
102
{ACAD_REACTORS
330
33D
102
}
330
33D
100
AcDbXrecord
 10
0.0
 20
0.0
 30
0.0
  0
XRECORD
  5
34E
102
{ACAD_REACTORS
330
33D
102
}
330
33D
100
AcDbXrecord
 10
0.0
 20
0.0
 30
0.0
  0
XRECORD
  5
34B
102
{ACAD_REACTORS
330
33D
102
}
330
33D
100
AcDbXrecord
340
0
  0
XRECORD
  5
34C
102
{ACAD_REACTORS
330
33D
102
}
330
33D
100
AcDbXrecord
 70
     0
  0
XRECORD
  5
341
102
{ACAD_REACTORS
330
33D
102
}
330
33D
100
AcDbXrecord
  1

  0
XRECORD
  5
33E
102
{ACAD_REACTORS
330
33D
102
}
330
33D
100
AcDbXrecord
 90
        1
  0
XRECORD
  5
33F
102
{ACAD_REACTORS
330
33D
102
}
330
33D
100
AcDbXrecord
 90
       70
  0
XRECORD
  5
356
102
{ACAD_REACTORS
330
33D
102
}
330
33D
100
AcDbXrecord
340
0
  0
XRECORD
  5
35C
102
{ACAD_REACTORS
330
33D
102
}
330
33D
100
AcDbXrecord
 10
0.0
 20
0.0
 30
0.0
  0
XRECORD
  5
358
102
{ACAD_REACTORS
330
33D
102
}
330
33D
100
AcDbXrecord
 10
0.0
 20
0.0
 30
0.0
  0
XRECORD
  5
35B
102
{ACAD_REACTORS
330
33D
102
}
330
33D
100
AcDbXrecord
 10
0.0
 20
0.0
 30
0.0
  0
XRECORD
  5
359
102
{ACAD_REACTORS
330
33D
102
}
330
33D
100
AcDbXrecord
 10
0.0
 20
0.0
 30
0.0
  0
XRECORD
  5
35A
102
{ACAD_REACTORS
330
33D
102
}
330
33D
100
AcDbXrecord
 10
0.0
 20
0.0
 30
0.0
  0
XRECORD
  5
357
102
{ACAD_REACTORS
330
33D
102
}
330
33D
100
AcDbXrecord
 10
0.0
 20
0.0
 30
0.0
  0
XRECORD
  5
354
102
{ACAD_REACTORS
330
33D
102
}
330
33D
100
AcDbXrecord
340
0
  0
XRECORD
  5
355
102
{ACAD_REACTORS
330
33D
102
}
330
33D
100
AcDbXrecord
 70
     0
  0
XRECORD
  5
349
102
{ACAD_REACTORS
330
33D
102
}
330
33D
100
AcDbXrecord
  1
{FAEB1C32-E019-11D5-929B-00C0DF256EC4}
  0
DICTIONARYVAR
  5
36B
102
{ACAD_REACTORS
330
35E
102
}
330
35E
100
DictionaryVariables
280
     0
  1
1:1
  0
DICTIONARYVAR
  5
365
102
{ACAD_REACTORS
330
35E
102
}
330
35E
100
DictionaryVariables
280
     0
  1
3.500000
  0
DICTIONARYVAR
  5
366
102
{ACAD_REACTORS
330
35E
102
}
330
35E
100
DictionaryVariables
280
     0
  1
acadiso.lin
  0
DICTIONARYVAR
  5
360
102
{ACAD_REACTORS
330
35E
102
}
330
35E
100
DictionaryVariables
280
     0
  1
Standard
  0
DICTIONARYVAR
  5
35F
102
{ACAD_REACTORS
330
35E
102
}
330
35E
100
DictionaryVariables
280
     0
  1
Standard
  0
DICTIONARYVAR
  5
367
102
{ACAD_REACTORS
330
35E
102
}
330
35E
100
DictionaryVariables
280
     0
  1
2
  0
DICTIONARYVAR
  5
368
102
{ACAD_REACTORS
330
35E
102
}
330
35E
100
DictionaryVariables
280
     0
  1
1
  0
DICTIONARYVAR
  5
36C
102
{ACAD_REACTORS
330
35E
102
}
330
35E
100
DictionaryVariables
280
     0
  1
1
  0
DICTIONARYVAR
  5
362
102
{ACAD_REACTORS
330
35E
102
}
330
35E
100
DictionaryVariables
280
     0
  1
80.000000
  0
DICTIONARYVAR
  5
361
102
{ACAD_REACTORS
330
35E
102
}
330
35E
100
DictionaryVariables
280
     0
  1
5.000000
  0
DICTIONARY
  5
36F
330
45
100
AcDbDictionary
280
     1
  3
ACAD_XREC_ROUNDTRIP
360
370
  0
DICTIONARY
  5
36D
330
44
100
AcDbDictionary
280
     1
  3
ACAD_XREC_ROUNDTRIP
360
36E
  0
DICTIONARY
  5
371
330
46
100
AcDbDictionary
280
     1
  3
ACAD_XREC_ROUNDTRIP
360
372
  0
XRECORD
  5
370
102
{ACAD_REACTORS
330
36F
102
}
330
36F
100
AcDbXrecord
102
MATERIAL
148
0.0
149
0.0
149
0.0
 93
        0
 94
      127
282
     0
 72
     1
 77
     1
171
     1
175
     1
179
     1
273
     0
  0
XRECORD
  5
36E
102
{ACAD_REACTORS
330
36D
102
}
330
36D
100
AcDbXrecord
102
MATERIAL
148
0.0
149
0.0
149
0.0
 93
        0
 94
      127
282
     0
 72
     1
 77
     1
171
     1
175
     1
179
     1
273
     0
  0
XRECORD
  5
372
102
{ACAD_REACTORS
330
371
102
}
330
371
100
AcDbXrecord
102
MATERIAL
148
0.0
149
0.0
149
0.0
 93
        0
 94
      127
282
     0
 72
     1
 77
     1
171
     1
175
     1
179
     1
273
     0
  0
ENDSEC
  0
EOF
