  0
SECTION
  2
HEADER
  9
$ACADVER
  1
AC1014
  9
$ACADMAINTVER
 70
     9
  9
$DWGCODEPAGE
  3
ANSI_932
  9
$INSBASE
 10
0.0
 20
0.0
 30
0.0
  9
$EXTMIN
 10
10.0
 20
20.0
 30
0.0
  9
$EXTMAX
 10
770.0000000000001
 20
560.0
 30
0.0
  9
$LIMMIN
 10
0.0
 20
0.0
  9
$LIMMAX
 10
420.0
 20
297.0
  9
$ORTHOMODE
 70
     0
  9
$REGENMODE
 70
     1
  9
$FILLMODE
 70
     1
  9
$QTEXTMODE
 70
     0
  9
$MIRRTEXT
 70
     1
  9
$DRAGMODE
 70
     2
  9
$LTSCALE
 40
0.2
  9
$OSMODE
 70
    37
  9
$ATTMODE
 70
     1
  9
$TEXTSIZE
 40
2.5
  9
$TRACEWID
 40
1.0
  9
$TEXTSTYLE
  7
STANDARD
  9
$CLAYER
  8
LAY-10
  9
$CELTYPE
  6
BYLAYER
  9
$CECOLOR
 62
   256
  9
$CELTSCALE
 40
1.0
  9
$DELOBJ
 70
     1
  9
$DISPSILH
 70
     0
  9
$DIMSCALE
 40
1.0
  9
$DIMASZ
 40
2.5
  9
$DIMEXO
 40
0.625
  9
$DIMDLI
 40
3.75
  9
$DIMRND
 40
0.0
  9
$DIMDLE
 40
0.0
  9
$DIMEXE
 40
1.25
  9
$DIMTP
 40
0.0
  9
$DIMTM
 40
0.0
  9
$DIMTXT
 40
2.5
  9
$DIMCEN
 40
2.5
  9
$DIMTSZ
 40
0.0
  9
$DIMTOL
 70
     0
  9
$DIMLIM
 70
     0
  9
$DIMTIH
 70
     0
  9
$DIMTOH
 70
     0
  9
$DIMSE1
 70
     0
  9
$DIMSE2
 70
     0
  9
$DIMTAD
 70
     1
  9
$DIMZIN
 70
     8
  9
$DIMBLK
  1

  9
$DIMASO
 70
     1
  9
$DIMSHO
 70
     1
  9
$DIMPOST
  1

  9
$DIMAPOST
  1

  9
$DIMALT
 70
     0
  9
$DIMALTD
 70
     3
  9
$DIMALTF
 40
0.03937007874016
  9
$DIMLFAC
 40
1.0
  9
$DIMTOFL
 70
     1
  9
$DIMTVP
 40
0.0
  9
$DIMTIX
 70
     0
  9
$DIMSOXD
 70
     0
  9
$DIMSAH
 70
     0
  9
$DIMBLK1
  1

  9
$DIMBLK2
  1

  9
$DIMSTYLE
  2
ISO-25
  9
$DIMCLRD
 70
     0
  9
$DIMCLRE
 70
     0
  9
$DIMCLRT
 70
     0
  9
$DIMTFAC
 40
1.0
  9
$DIMGAP
 40
0.625
  9
$DIMJUST
 70
     0
  9
$DIMSD1
 70
     0
  9
$DIMSD2
 70
     0
  9
$DIMTOLJ
 70
     0
  9
$DIMTZIN
 70
     8
  9
$DIMALTZ
 70
     0
  9
$DIMALTTZ
 70
     0
  9
$DIMFIT
 70
     3
  9
$DIMUPT
 70
     0
  9
$DIMUNIT
 70
     2
  9
$DIMDEC
 70
     2
  9
$DIMTDEC
 70
     2
  9
$DIMALTU
 70
     2
  9
$DIMALTTD
 70
     3
  9
$DIMTXSTY
  7
STANDARD
  9
$DIMAUNIT
 70
     0
  9
$LUNITS
 70
     2
  9
$LUPREC
 70
     4
  9
$SKETCHINC
 40
1.0
  9
$FILLETRAD
 40
10.0
  9
$AUNITS
 70
     0
  9
$AUPREC
 70
     0
  9
$MENU
  1
.
  9
$ELEVATION
 40
0.0
  9
$PELEVATION
 40
0.0
  9
$THICKNESS
 40
0.0
  9
$LIMCHECK
 70
     0
  9
$CHAMFERA
 40
0.0
  9
$CHAMFERB
 40
0.0
  9
$CHAMFERC
 40
0.0
  9
$CHAMFERD
 40
0.0
  9
$SKPOLY
 70
     0
  9
$TDCREATE
 40
2459229.338003692
  9
$TDUPDATE
 40
2459229.33800412
  9
$TDINDWG
 40
0.0000000116
  9
$TDUSRTIMER
 40
0.0000000116
  9
$USRTIMER
 70
     1
  9
$ANGBASE
 50
0.0
  9
$ANGDIR
 70
     0
  9
$PDMODE
 70
     0
  9
$PDSIZE
 40
0.0
  9
$PLINEWID
 40
0.0
  9
$COORDS
 70
     1
  9
$SPLFRAME
 70
     0
  9
$SPLINETYPE
 70
     6
  9
$SPLINESEGS
 70
     8
  9
$ATTDIA
 70
     0
  9
$ATTREQ
 70
     1
  9
$HANDLING
 70
     1
  9
$HANDSEED
  5
3F4
  9
$SURFTAB1
 70
     6
  9
$SURFTAB2
 70
     6
  9
$SURFTYPE
 70
     6
  9
$SURFU
 70
     6
  9
$SURFV
 70
     6
  9
$UCSNAME
  2

  9
$UCSORG
 10
0.0
 20
0.0
 30
0.0
  9
$UCSXDIR
 10
1.0
 20
0.0
 30
0.0
  9
$UCSYDIR
 10
0.0
 20
1.0
 30
0.0
  9
$PUCSNAME
  2

  9
$PUCSORG
 10
0.0
 20
0.0
 30
0.0
  9
$PUCSXDIR
 10
1.0
 20
0.0
 30
0.0
  9
$PUCSYDIR
 10
0.0
 20
1.0
 30
0.0
  9
$USERI1
 70
     0
  9
$USERI2
 70
     0
  9
$USERI3
 70
     0
  9
$USERI4
 70
     0
  9
$USERI5
 70
     0
  9
$USERR1
 40
0.0
  9
$USERR2
 40
0.0
  9
$USERR3
 40
0.0
  9
$USERR4
 40
0.0
  9
$USERR5
 40
0.0
  9
$WORLDVIEW
 70
     1
  9
$SHADEDGE
 70
     3
  9
$SHADEDIF
 70
    70
  9
$TILEMODE
 70
     1
  9
$MAXACTVP
 70
    64
  9
$PINSBASE
 10
0.0
 20
0.0
 30
0.0
  9
$PLIMCHECK
 70
     0
  9
$PEXTMIN
 10
1.000000000000000E+20
 20
1.000000000000000E+20
 30
1.000000000000000E+20
  9
$PEXTMAX
 10
-1.000000000000000E+20
 20
-1.000000000000000E+20
 30
-1.000000000000000E+20
  9
$PLIMMIN
 10
0.0
 20
0.0
  9
$PLIMMAX
 10
420.0
 20
297.0
  9
$UNITMODE
 70
     0
  9
$VISRETAIN
 70
     1
  9
$PLINEGEN
 70
     0
  9
$PSLTSCALE
 70
     1
  9
$TREEDEPTH
 70
  3020
  9
$PICKSTYLE
 70
     1
  9
$CMLSTYLE
  2
STANDARD
  9
$CMLJUST
 70
     0
  9
$CMLSCALE
 40
20.0
  9
$PROXYGRAPHICS
 70
     1
  9
$MEASUREMENT
 70
     1
  0
ENDSEC
  0
SECTION
  2
CLASSES
  0
CLASS
  1
ACDBDICTIONARYWDFLT
  2
AcDbDictionaryWithDefault
  3
ObjectDBX Classes
 90
        0
280
     0
281
     0
  0
CLASS
  1
VISUALSTYLE
  2
AcDbVisualStyle
  3
ObjectDBX Classes
 90
     4095
280
     0
281
     0
  0
CLASS
  1
MATERIAL
  2
AcDbMaterial
  3
ObjectDBX Classes
 90
     1153
280
     0
281
     0
  0
CLASS
  1
SCALE
  2
AcDbScale
  3
ObjectDBX Classes
 90
     1153
280
     0
281
     0
  0
CLASS
  1
TABLESTYLE
  2
AcDbTableStyle
  3
ObjectDBX Classes
 90
     4095
280
     0
281
     0
  0
CLASS
  1
MLEADERSTYLE
  2
AcDbMLeaderStyle
  3
ACDB_MLEADERSTYLE_CLASS
 90
     4095
280
     0
281
     0
  0
CLASS
  1
SUN
  2
AcDbSun
  3
SCENEOE
 90
     1153
280
     0
281
     0
  0
CLASS
  1
DICTIONARYVAR
  2
AcDbDictionaryVar
  3
ObjectDBX Classes
 90
        0
280
     0
281
     0
  0
CLASS
  1
XRECORD
  2
AcDbXrecord
  3
ObjectDBX Classes
 90
        0
280
     0
281
     0
  0
CLASS
  1
LWPOLYLINE
  2
AcDbPolyline
  3
ObjectDBX Classes
 90
        0
280
     0
281
     1
  0
CLASS
  1
HATCH
  2
AcDbHatch
  3
ObjectDBX Classes
 90
        0
280
     0
281
     1
  0
CLASS
  1
ACDBPLACEHOLDER
  2
AcDbPlaceHolder
  3
ObjectDBX Classes
 90
        0
280
     0
281
     0
  0
CLASS
  1
LAYOUT
  2
AcDbLayout
  3
ObjectDBX Classes
 90
        0
280
     0
281
     0
  0
ENDSEC
  0
SECTION
  2
TABLES
  0
TABLE
  2
VPORT
  5
8
102
{ACAD_XDICTIONARY
360
3E9
102
}
330
0
100
AcDbSymbolTable
 70
     1
  0
VPORT
  5
29
330
8
100
AcDbSymbolTableRecord
100
AcDbViewportTableRecord
  2
*ACTIVE
 70
     0
 10
0.0
 20
0.0
 11
1.0
 21
1.0
 12
390.0000000000001
 22
290.0
 13
0.0
 23
0.0
 14
10.0
 24
10.0
 15
10.0
 25
10.0
 16
0.0
 26
0.0
 36
1.0
 17
0.0
 27
0.0
 37
0.0
 40
540.0
 41
1.407407407407408
 42
50.0
 43
0.0
 44
0.0
 50
0.0
 51
0.0
 71
     0
 72
  1000
 73
     1
 74
     3
 75
     0
 76
     0
 77
     0
 78
     0
  0
ENDTAB
  0
TABLE
  2
LTYPE
  5
5
330
0
100
AcDbSymbolTable
 70
     6
  0
LTYPE
  5
14
330
5
100
AcDbSymbolTableRecord
100
AcDbLinetypeTableRecord
  2
BYBLOCK
 70
     0
  3

 72
    65
 73
     0
 40
0.0
  0
LTYPE
  5
15
330
5
100
AcDbSymbolTableRecord
100
AcDbLinetypeTableRecord
  2
BYLAYER
 70
     0
  3

 72
    65
 73
     0
 40
0.0
  0
LTYPE
  5
16
330
5
100
AcDbSymbolTableRecord
100
AcDbLinetypeTableRecord
  2
CONTINUOUS
 70
     0
  3
Solid line
 72
    65
 73
     0
 40
0.0
  0
LTYPE
  5
6E
330
5
100
AcDbSymbolTableRecord
100
AcDbLinetypeTableRecord
  2
HIDDEN
 70
     0
  3
Hidden __ __ __ __ __ __ __ __ __ __ __ __ __ __
 72
    65
 73
     2
 40
9.524999999999999
 49
6.35
 74
     0
 49
-3.175
 74
     0
  0
LTYPE
  5
6F
330
5
100
AcDbSymbolTableRecord
100
AcDbLinetypeTableRecord
  2
CENTER
 70
     0
  3
Center ____ _ ____ _ ____ _ ____ _ ____ _ ____
 72
    65
 73
     4
 40
50.8
 49
31.75
 74
     0
 49
-6.35
 74
     0
 49
6.35
 74
     0
 49
-6.35
 74
     0
  0
LTYPE
  5
70
330
5
100
AcDbSymbolTableRecord
100
AcDbLinetypeTableRecord
  2
PHANTOM
 70
     0
  3
Phantom ______  __  __  ______  __  __  ______ 
 72
    65
 73
     6
 40
63.50000000000001
 49
31.75
 74
     0
 49
-6.35
 74
     0
 49
6.35
 74
     0
 49
-6.35
 74
     0
 49
6.35
 74
     0
 49
-6.35
 74
     0
  0
LTYPE
  5
71
330
5
100
AcDbSymbolTableRecord
100
AcDbLinetypeTableRecord
  2
ACAD_ISO06W100
 70
     0
  3
ISO long-dash triple-dot ____ ... ____ ... ____
 72
    65
 73
     8
 40
36.0
 49
24.0
 74
     0
 49
-3.0
 74
     0
 49
0.0
 74
     0
 49
-3.0
 74
     0
 49
0.0
 74
     0
 49
-3.0
 74
     0
 49
0.0
 74
     0
 49
-3.0
 74
     0
  0
LTYPE
  5
72
330
5
100
AcDbSymbolTableRecord
100
AcDbLinetypeTableRecord
  2
ACAD_ISO15W100
 70
     0
  3
ISO double-dash triple-dot __ __ . . . __ __ . .
 72
    65
 73
    10
 40
39.0
 49
12.0
 74
     0
 49
-3.0
 74
     0
 49
12.0
 74
     0
 49
-3.0
 74
     0
 49
0.0
 74
     0
 49
-3.0
 74
     0
 49
0.0
 74
     0
 49
-3.0
 74
     0
 49
0.0
 74
     0
 49
-3.0
 74
     0
  0
ENDTAB
  0
TABLE
  2
LAYER
  5
2
330
0
100
AcDbSymbolTable
 70
     5
  0
LAYER
  5
10
330
2
100
AcDbSymbolTableRecord
100
AcDbLayerTableRecord
  2
0
 70
     0
 62
     7
  6
CONTINUOUS
  0
LAYER
  5
75
330
2
100
AcDbSymbolTableRecord
100
AcDbLayerTableRecord
  2
LAY-10
 70
     0
 62
     7
  6
CONTINUOUS
  0
LAYER
  5
76
330
2
100
AcDbSymbolTableRecord
100
AcDbLayerTableRecord
  2
LAY-20
 70
     0
 62
     7
  6
CONTINUOUS
  0
LAYER
  5
77
330
2
100
AcDbSymbolTableRecord
100
AcDbLayerTableRecord
  2
LAY-255
 70
     0
 62
     7
  6
CONTINUOUS
  0
LAYER
  5
33A
330
2
100
AcDbSymbolTableRecord
100
AcDbLayerTableRecord
  2
DEFPOINTS
 70
     0
 62
     7
  6
CONTINUOUS
  0
ENDTAB
  0
TABLE
  2
STYLE
  5
3
330
0
100
AcDbSymbolTable
 70
     4
  0
STYLE
  5
11
330
3
100
AcDbSymbolTableRecord
100
AcDbTextStyleTableRecord
  2
STANDARD
 70
     0
 40
0.0
 41
1.0
 50
0.0
 71
     0
 42
2.5
  3
simplex
  4
bigfont
  0
STYLE
  5
73
330
3
100
AcDbSymbolTableRecord
100
AcDbTextStyleTableRecord
  2
EXCADSTD
 70
     0
 40
0.0
 41
1.0
 50
0.0
 71
     0
 42
2.5
  3
simplex
  4
bigfont
  0
STYLE
  5
74
330
3
100
AcDbSymbolTableRecord
100
AcDbTextStyleTableRecord
  2
EXCADVERT
 70
     4
 40
0.0
 41
1.0
 50
0.0
 71
     0
 42
2.5
  3
simplex
  4
bigfont
  0
STYLE
  5
338
330
3
100
AcDbSymbolTableRecord
100
AcDbTextStyleTableRecord
  2
EXCADDIM1
 70
     0
 40
0.0
 41
0.84
 50
0.0
 71
     0
 42
2.5
  3
simplex
  4
bigfont
  0
ENDTAB
  0
TABLE
  2
VIEW
  5
6
330
0
100
AcDbSymbolTable
 70
     0
  0
ENDTAB
  0
TABLE
  2
UCS
  5
7
330
0
100
AcDbSymbolTable
 70
     0
  0
ENDTAB
  0
TABLE
  2
APPID
  5
9
330
0
100
AcDbSymbolTable
 70
     2
  0
APPID
  5
12
330
9
100
AcDbSymbolTableRecord
100
AcDbRegAppTableRecord
  2
ACAD
 70
     0
  0
APPID
  5
3F3
330
9
100
AcDbSymbolTableRecord
100
AcDbRegAppTableRecord
  2
ACAD_MLEADERVER
 70
     0
  0
ENDTAB
  0
TABLE
  2
DIMSTYLE
  5
A
330
0
100
AcDbSymbolTable
 70
     1
  0
DIMSTYLE
105
27
102
{ACAD_REACTORS
330
339
330
347
330
354
330
360
330
36D
330
37A
330
387
102
}
330
A
100
AcDbSymbolTableRecord
100
AcDbDimStyleTableRecord
  2
ISO-25
 70
     0
  3

  4

  5

  6

  7

 40
1.0
 41
2.5
 42
0.625
 43
3.75
 44
1.25
 45
0.0
 46
0.0
 47
0.0
 48
0.0
140
2.5
141
2.5
142
0.0
143
0.03937007874016
144
1.0
145
0.0
146
1.0
147
0.625
 71
     0
 72
     0
 73
     0
 74
     0
 75
     0
 76
     0
 77
     1
 78
     8
170
     0
171
     3
172
     1
173
     0
174
     0
175
     0
176
     0
177
     0
178
     0
270
     2
271
     2
272
     2
273
     2
274
     3
340
11
275
     0
280
     0
281
     0
282
     0
283
     0
284
     8
285
     0
286
     0
287
     5
288
     0
  0
ENDTAB
  0
TABLE
  2
BLOCK_RECORD
  5
1
330
0
100
AcDbSymbolTable
 70
    21
  0
BLOCK_RECORD
  5
1F
330
1
100
AcDbSymbolTableRecord
100
AcDbBlockTableRecord
  2
*MODEL_SPACE
  0
BLOCK_RECORD
  5
1B
330
1
100
AcDbSymbolTableRecord
100
AcDbBlockTableRecord
  2
*PAPER_SPACE
  0
BLOCK_RECORD
  5
78
330
1
100
AcDbSymbolTableRecord
100
AcDbBlockTableRecord
  2
EX_NORM
  0
BLOCK_RECORD
  5
7B
330
1
100
AcDbSymbolTableRecord
100
AcDbBlockTableRecord
  2
EX_BNORM
  0
BLOCK_RECORD
  5
7E
330
1
100
AcDbSymbolTableRecord
100
AcDbBlockTableRecord
  2
EX_BCIR
  0
BLOCK_RECORD
  5
81
330
1
100
AcDbSymbolTableRecord
100
AcDbBlockTableRecord
  2
EX_RCIVIL
  0
BLOCK_RECORD
  5
84
330
1
100
AcDbSymbolTableRecord
100
AcDbBlockTableRecord
  2
EX_SLANT
  0
BLOCK_RECORD
  5
87
330
1
100
AcDbSymbolTableRecord
100
AcDbBlockTableRecord
  2
EX_NONE
  0
BLOCK_RECORD
  5
8A
330
1
100
AcDbSymbolTableRecord
100
AcDbBlockTableRecord
  2
EX_CIVIL
  0
BLOCK_RECORD
  5
8D
330
1
100
AcDbSymbolTableRecord
100
AcDbBlockTableRecord
  2
EX_WCIR
  0
BLOCK_RECORD
  5
90
330
1
100
AcDbSymbolTableRecord
100
AcDbBlockTableRecord
  2
EX_WCIR2
  0
BLOCK_RECORD
  5
93
330
1
100
AcDbSymbolTableRecord
100
AcDbBlockTableRecord
  2
EX_WNORM
  0
BLOCK_RECORD
  5
96
330
1
100
AcDbSymbolTableRecord
100
AcDbBlockTableRecord
  2
EX_NNORM
  0
BLOCK_RECORD
  5
99
330
1
100
AcDbSymbolTableRecord
100
AcDbBlockTableRecord
  2
EX_BBOX
  0
BLOCK_RECORD
  5
9C
330
1
100
AcDbSymbolTableRecord
100
AcDbBlockTableRecord
  2
EX_WBOX
  0
BLOCK_RECORD
  5
9F
330
1
100
AcDbSymbolTableRecord
100
AcDbBlockTableRecord
  2
EX_INTEGRAL
  0
BLOCK_RECORD
  5
33B
330
1
100
AcDbSymbolTableRecord
100
AcDbBlockTableRecord
  2
*D15
  0
BLOCK_RECORD
  5
348
330
1
100
AcDbSymbolTableRecord
100
AcDbBlockTableRecord
  2
*D16
  0
BLOCK_RECORD
  5
355
330
1
100
AcDbSymbolTableRecord
100
AcDbBlockTableRecord
  2
*D17
  0
BLOCK_RECORD
  5
361
330
1
100
AcDbSymbolTableRecord
100
AcDbBlockTableRecord
  2
*D18
  0
BLOCK_RECORD
  5
36E
330
1
100
AcDbSymbolTableRecord
100
AcDbBlockTableRecord
  2
*D19
  0
BLOCK_RECORD
  5
37B
330
1
100
AcDbSymbolTableRecord
100
AcDbBlockTableRecord
  2
*D20
  0
BLOCK_RECORD
  5
388
330
1
100
AcDbSymbolTableRecord
100
AcDbBlockTableRecord
  2
*D21
  0
ENDTAB
  0
ENDSEC
  0
SECTION
  2
BLOCKS
  0
BLOCK
  5
20
330
1F
100
AcDbEntity
  8
0
100
AcDbBlockBegin
  2
*MODEL_SPACE
 70
     0
 10
0.0
 20
0.0
 30
0.0
  3
*MODEL_SPACE
  1

  0
ENDBLK
  5
21
330
1F
100
AcDbEntity
  8
0
100
AcDbBlockEnd
  0
BLOCK
  5
1C
330
1B
100
AcDbEntity
 67
     1
  8
0
100
AcDbBlockBegin
  2
*PAPER_SPACE
 70
     0
 10
0.0
 20
0.0
 30
0.0
  3
*PAPER_SPACE
  1

  0
ENDBLK
  5
1D
330
1B
100
AcDbEntity
 67
     1
  8
0
100
AcDbBlockEnd
  0
BLOCK
  5
79
330
78
100
AcDbEntity
  8
0
100
AcDbBlockBegin
  2
EX_NORM
 70
     0
 10
0.0
 20
0.0
 30
0.0
  3
EX_NORM
  1

  0
LINE
  5
A2
330
78
100
AcDbEntity
  8
0
  6
CONTINUOUS
 62
     0
100
AcDbLine
 10
0.0
 20
0.0
 30
0.0
 11
-1.0
 21
0.0
 31
0.0
  0
LINE
  5
A3
330
78
100
AcDbEntity
  8
0
  6
CONTINUOUS
 62
     0
100
AcDbLine
 10
0.0
 20
0.0
 30
0.0
 11
-1.0
 21
0.166666667
 31
0.0
  0
LINE
  5
A4
330
78
100
AcDbEntity
  8
0
  6
CONTINUOUS
 62
     0
100
AcDbLine
 10
0.0
 20
0.0
 30
0.0
 11
-1.0
 21
-0.166666667
 31
0.0
  0
ENDBLK
  5
7A
330
78
100
AcDbEntity
  8
0
100
AcDbBlockEnd
  0
BLOCK
  5
7C
330
7B
100
AcDbEntity
  8
0
100
AcDbBlockBegin
  2
EX_BNORM
 70
     0
 10
0.0
 20
0.0
 30
0.0
  3
EX_BNORM
  1

  0
LINE
  5
A5
330
7B
100
AcDbEntity
  8
0
  6
CONTINUOUS
 62
     0
100
AcDbLine
 10
0.0
 20
0.0
 30
0.0
 11
-1.0
 21
0.0
 31
0.0
  0
LINE
  5
A6
330
7B
100
AcDbEntity
  8
0
  6
CONTINUOUS
 62
     0
100
AcDbLine
 10
0.0
 20
0.0
 30
0.0
 11
-1.0
 21
0.166666667
 31
0.0
  0
LINE
  5
A7
330
7B
100
AcDbEntity
  8
0
  6
CONTINUOUS
 62
     0
100
AcDbLine
 10
0.0
 20
0.0
 30
0.0
 11
-1.0
 21
-0.166666667
 31
0.0
  0
LINE
  5
A8
330
7B
100
AcDbEntity
  8
0
  6
CONTINUOUS
 62
     0
100
AcDbLine
 10
0.0
 20
0.0
 30
0.0
 11
-1.0
 21
0.083333333
 31
0.0
  0
LINE
  5
A9
330
7B
100
AcDbEntity
  8
0
  6
CONTINUOUS
 62
     0
100
AcDbLine
 10
0.0
 20
0.0
 30
0.0
 11
-1.0
 21
-0.083333333
 31
0.0
  0
LINE
  5
AA
330
7B
100
AcDbEntity
  8
0
  6
CONTINUOUS
 62
     0
100
AcDbLine
 10
-1.0
 20
0.166666667
 30
0.0
 11
-1.0
 21
-0.166666667
 31
0.0
  0
ENDBLK
  5
7D
330
7B
100
AcDbEntity
  8
0
100
AcDbBlockEnd
  0
BLOCK
  5
7F
330
7E
100
AcDbEntity
  8
0
100
AcDbBlockBegin
  2
EX_BCIR
 70
     0
 10
0.0
 20
0.0
 30
0.0
  3
EX_BCIR
  1

  0
LINE
  5
AB
330
7E
100
AcDbEntity
  8
0
  6
CONTINUOUS
 62
     0
100
AcDbLine
 10
0.0
 20
0.0
 30
0.0
 11
-1.0
 21
0.0
 31
0.0
  0
CIRCLE
  5
AC
330
7E
100
AcDbEntity
  8
0
  6
CONTINUOUS
 62
     0
100
AcDbCircle
 10
0.0
 20
0.0
 30
0.0
 40
0.5
  0
CIRCLE
  5
AD
330
7E
100
AcDbEntity
  8
0
  6
CONTINUOUS
 62
     0
100
AcDbCircle
 10
0.0
 20
0.0
 30
0.0
 40
0.25
  0
ENDBLK
  5
80
330
7E
100
AcDbEntity
  8
0
100
AcDbBlockEnd
  0
BLOCK
  5
82
330
81
100
AcDbEntity
  8
0
100
AcDbBlockBegin
  2
EX_RCIVIL
 70
     0
 10
0.0
 20
0.0
 30
0.0
  3
EX_RCIVIL
  1

  0
LINE
  5
AE
330
81
100
AcDbEntity
  8
0
  6
CONTINUOUS
 62
     0
100
AcDbLine
 10
0.0
 20
0.0
 30
0.0
 11
-1.0
 21
0.0
 31
0.0
  0
LINE
  5
AF
330
81
100
AcDbEntity
  8
0
  6
CONTINUOUS
 62
     0
100
AcDbLine
 10
-1.0
 20
-0.25
 30
0.0
 11
0.0
 21
-0.25
 31
0.0
  0
LINE
  5
B0
330
81
100
AcDbEntity
  8
0
  6
CONTINUOUS
 62
     0
100
AcDbLine
 10
-1.0
 20
-0.125
 30
0.0
 11
0.0
 21
-0.125
 31
0.0
  0
ENDBLK
  5
83
330
81
100
AcDbEntity
  8
0
100
AcDbBlockEnd
  0
BLOCK
  5
85
330
84
100
AcDbEntity
  8
0
100
AcDbBlockBegin
  2
EX_SLANT
 70
     0
 10
0.0
 20
0.0
 30
0.0
  3
EX_SLANT
  1

  0
LINE
  5
B1
330
84
100
AcDbEntity
  8
0
  6
CONTINUOUS
 62
     0
100
AcDbLine
 10
0.0
 20
0.0
 30
0.0
 11
-1.0
 21
0.0
 31
0.0
  0
LINE
  5
B2
330
84
100
AcDbEntity
  8
0
  6
CONTINUOUS
 62
     0
100
AcDbLine
 10
0.707106781
 20
0.707106781
 30
0.0
 11
-0.707106781
 21
-0.707106781
 31
0.0
  0
ENDBLK
  5
86
330
84
100
AcDbEntity
  8
0
100
AcDbBlockEnd
  0
BLOCK
  5
88
330
87
100
AcDbEntity
  8
0
100
AcDbBlockBegin
  2
EX_NONE
 70
     0
 10
0.0
 20
0.0
 30
0.0
  3
EX_NONE
  1

  0
LINE
  5
B3
330
87
100
AcDbEntity
  8
0
  6
CONTINUOUS
 62
     0
100
AcDbLine
 10
0.0
 20
0.0
 30
0.0
 11
-1.0
 21
0.0
 31
0.0
  0
ENDBLK
  5
89
330
87
100
AcDbEntity
  8
0
100
AcDbBlockEnd
  0
BLOCK
  5
8B
330
8A
100
AcDbEntity
  8
0
100
AcDbBlockBegin
  2
EX_CIVIL
 70
     0
 10
0.0
 20
0.0
 30
0.0
  3
EX_CIVIL
  1

  0
LINE
  5
B4
330
8A
100
AcDbEntity
  8
0
  6
CONTINUOUS
 62
     0
100
AcDbLine
 10
0.0
 20
0.0
 30
0.0
 11
-1.0
 21
0.0
 31
0.0
  0
LINE
  5
B5
330
8A
100
AcDbEntity
  8
0
  6
CONTINUOUS
 62
     0
100
AcDbLine
 10
-1.0
 20
0.25
 30
0.0
 11
0.0
 21
0.25
 31
0.0
  0
LINE
  5
B6
330
8A
100
AcDbEntity
  8
0
  6
CONTINUOUS
 62
     0
100
AcDbLine
 10
-1.0
 20
0.125
 30
0.0
 11
0.0
 21
0.125
 31
0.0
  0
ENDBLK
  5
8C
330
8A
100
AcDbEntity
  8
0
100
AcDbBlockEnd
  0
BLOCK
  5
8E
330
8D
100
AcDbEntity
  8
0
100
AcDbBlockBegin
  2
EX_WCIR
 70
     0
 10
0.0
 20
0.0
 30
0.0
  3
EX_WCIR
  1

  0
LINE
  5
B7
330
8D
100
AcDbEntity
  8
0
  6
CONTINUOUS
 62
     0
100
AcDbLine
 10
0.0
 20
0.0
 30
0.0
 11
-1.0
 21
0.0
 31
0.0
  0
CIRCLE
  5
B8
330
8D
100
AcDbEntity
  8
0
  6
CONTINUOUS
 62
     0
100
AcDbCircle
 10
0.0
 20
0.0
 30
0.0
 40
0.5
  0
ENDBLK
  5
8F
330
8D
100
AcDbEntity
  8
0
100
AcDbBlockEnd
  0
BLOCK
  5
91
330
90
100
AcDbEntity
  8
0
100
AcDbBlockBegin
  2
EX_WCIR2
 70
     0
 10
0.0
 20
0.0
 30
0.0
  3
EX_WCIR2
  1

  0
LINE
  5
B9
330
90
100
AcDbEntity
  8
0
  6
CONTINUOUS
 62
     0
100
AcDbLine
 10
-0.5
 20
0.0
 30
0.0
 11
-1.0
 21
0.0
 31
0.0
  0
CIRCLE
  5
BA
330
90
100
AcDbEntity
  8
0
  6
CONTINUOUS
 62
     0
100
AcDbCircle
 10
0.0
 20
0.0
 30
0.0
 40
0.5
  0
ENDBLK
  5
92
330
90
100
AcDbEntity
  8
0
100
AcDbBlockEnd
  0
BLOCK
  5
94
330
93
100
AcDbEntity
  8
0
100
AcDbBlockBegin
  2
EX_WNORM
 70
     0
 10
0.0
 20
0.0
 30
0.0
  3
EX_WNORM
  1

  0
LINE
  5
BB
330
93
100
AcDbEntity
  8
0
  6
CONTINUOUS
 62
     0
100
AcDbLine
 10
-1.0
 20
0.0
 30
0.0
 11
-1.0
 21
0.0
 31
0.0
  0
LINE
  5
BC
330
93
100
AcDbEntity
  8
0
  6
CONTINUOUS
 62
     0
100
AcDbLine
 10
0.0
 20
0.0
 30
0.0
 11
-1.0
 21
0.166666667
 31
0.0
  0
LINE
  5
BD
330
93
100
AcDbEntity
  8
0
  6
CONTINUOUS
 62
     0
100
AcDbLine
 10
0.0
 20
0.0
 30
0.0
 11
-1.0
 21
-0.166666667
 31
0.0
  0
LINE
  5
BE
330
93
100
AcDbEntity
  8
0
  6
CONTINUOUS
 62
     0
100
AcDbLine
 10
-1.0
 20
0.166666667
 30
0.0
 11
-1.0
 21
-0.166666667
 31
0.0
  0
ENDBLK
  5
95
330
93
100
AcDbEntity
  8
0
100
AcDbBlockEnd
  0
BLOCK
  5
97
330
96
100
AcDbEntity
  8
0
100
AcDbBlockBegin
  2
EX_NNORM
 70
     0
 10
0.0
 20
0.0
 30
0.0
  3
EX_NNORM
  1

  0
LINE
  5
BF
330
96
100
AcDbEntity
  8
0
  6
CONTINUOUS
 62
     0
100
AcDbLine
 10
0.0
 20
0.0
 30
0.0
 11
-1.0
 21
0.0
 31
0.0
  0
LINE
  5
C0
330
96
100
AcDbEntity
  8
0
  6
CONTINUOUS
 62
     0
100
AcDbLine
 10
0.0
 20
0.0
 30
0.0
 11
-1.0
 21
0.166666667
 31
0.0
  0
LINE
  5
C1
330
96
100
AcDbEntity
  8
0
  6
CONTINUOUS
 62
     0
100
AcDbLine
 10
0.0
 20
0.0
 30
0.0
 11
-1.0
 21
-0.166666667
 31
0.0
  0
LINE
  5
C2
330
96
100
AcDbEntity
  8
0
  6
CONTINUOUS
 62
     0
100
AcDbLine
 10
-1.0
 20
0.166666667
 30
0.0
 11
-1.0
 21
-0.166666667
 31
0.0
  0
ENDBLK
  5
98
330
96
100
AcDbEntity
  8
0
100
AcDbBlockEnd
  0
BLOCK
  5
9A
330
99
100
AcDbEntity
  8
0
100
AcDbBlockBegin
  2
EX_BBOX
 70
     0
 10
0.0
 20
0.0
 30
0.0
  3
EX_BBOX
  1

  0
LINE
  5
C3
330
99
100
AcDbEntity
  8
0
  6
CONTINUOUS
 62
     0
100
AcDbLine
 10
0.0
 20
0.0
 30
0.0
 11
-1.0
 21
0.0
 31
0.0
  0
LINE
  5
C4
330
99
100
AcDbEntity
  8
0
  6
CONTINUOUS
 62
     0
100
AcDbLine
 10
-0.5
 20
0.5
 30
0.0
 11
0.5
 21
0.5
 31
0.0
  0
LINE
  5
C5
330
99
100
AcDbEntity
  8
0
  6
CONTINUOUS
 62
     0
100
AcDbLine
 10
0.5
 20
0.5
 30
0.0
 11
0.5
 21
-0.5
 31
0.0
  0
LINE
  5
C6
330
99
100
AcDbEntity
  8
0
  6
CONTINUOUS
 62
     0
100
AcDbLine
 10
0.5
 20
-0.5
 30
0.0
 11
-0.5
 21
-0.5
 31
0.0
  0
LINE
  5
C7
330
99
100
AcDbEntity
  8
0
  6
CONTINUOUS
 62
     0
100
AcDbLine
 10
-0.5
 20
-0.5
 30
0.0
 11
-0.5
 21
0.5
 31
0.0
  0
LINE
  5
C8
330
99
100
AcDbEntity
  8
0
  6
CONTINUOUS
 62
     0
100
AcDbLine
 10
-0.25
 20
0.25
 30
0.0
 11
0.25
 21
0.25
 31
0.0
  0
LINE
  5
C9
330
99
100
AcDbEntity
  8
0
  6
CONTINUOUS
 62
     0
100
AcDbLine
 10
0.25
 20
0.25
 30
0.0
 11
0.25
 21
-0.25
 31
0.0
  0
LINE
  5
CA
330
99
100
AcDbEntity
  8
0
  6
CONTINUOUS
 62
     0
100
AcDbLine
 10
0.25
 20
-0.25
 30
0.0
 11
-0.25
 21
-0.25
 31
0.0
  0
LINE
  5
CB
330
99
100
AcDbEntity
  8
0
  6
CONTINUOUS
 62
     0
100
AcDbLine
 10
-0.25
 20
-0.25
 30
0.0
 11
-0.25
 21
0.25
 31
0.0
  0
ENDBLK
  5
9B
330
99
100
AcDbEntity
  8
0
100
AcDbBlockEnd
  0
BLOCK
  5
9D
330
9C
100
AcDbEntity
  8
0
100
AcDbBlockBegin
  2
EX_WBOX
 70
     0
 10
0.0
 20
0.0
 30
0.0
  3
EX_WBOX
  1

  0
LINE
  5
CC
330
9C
100
AcDbEntity
  8
0
  6
CONTINUOUS
 62
     0
100
AcDbLine
 10
-0.5
 20
0.0
 30
0.0
 11
-1.0
 21
0.0
 31
0.0
  0
LINE
  5
CD
330
9C
100
AcDbEntity
  8
0
  6
CONTINUOUS
 62
     0
100
AcDbLine
 10
-0.5
 20
0.5
 30
0.0
 11
0.5
 21
0.5
 31
0.0
  0
LINE
  5
CE
330
9C
100
AcDbEntity
  8
0
  6
CONTINUOUS
 62
     0
100
AcDbLine
 10
0.5
 20
0.5
 30
0.0
 11
0.5
 21
-0.5
 31
0.0
  0
LINE
  5
CF
330
9C
100
AcDbEntity
  8
0
  6
CONTINUOUS
 62
     0
100
AcDbLine
 10
0.5
 20
-0.5
 30
0.0
 11
-0.5
 21
-0.5
 31
0.0
  0
LINE
  5
D0
330
9C
100
AcDbEntity
  8
0
  6
CONTINUOUS
 62
     0
100
AcDbLine
 10
-0.5
 20
-0.5
 30
0.0
 11
-0.5
 21
0.5
 31
0.0
  0
ENDBLK
  5
9E
330
9C
100
AcDbEntity
  8
0
100
AcDbBlockEnd
  0
BLOCK
  5
A0
330
9F
100
AcDbEntity
  8
0
100
AcDbBlockBegin
  2
EX_INTEGRAL
 70
     0
 10
0.0
 20
0.0
 30
0.0
  3
EX_INTEGRAL
  1

  0
LINE
  5
D1
330
9F
100
AcDbEntity
  8
0
  6
CONTINUOUS
 62
     0
100
AcDbLine
 10
0.0
 20
0.0
 30
0.0
 11
-1.0
 21
0.0
 31
0.0
  0
ARC
  5
D2
330
9F
100
AcDbEntity
  8
0
  6
CONTINUOUS
 62
     0
100
AcDbCircle
 10
0.542115
 20
0.164992
 30
0.0
 40
0.56667
100
AcDbArc
 50
73.07249033629006
 51
196.9275130221199
  0
ARC
  5
D3
330
9F
100
AcDbEntity
  8
0
  6
CONTINUOUS
 62
     0
100
AcDbCircle
 10
-0.542115
 20
-0.164992
 30
0.0
 40
0.56667
100
AcDbArc
 50
253.0724869220464
 51
16.9275130559125
  0
ENDBLK
  5
A1
330
9F
100
AcDbEntity
  8
0
100
AcDbBlockEnd
  0
BLOCK
  5
33C
330
33B
100
AcDbEntity
  8
0
100
AcDbBlockBegin
  2
*D15
 70
     1
 10
0.0
 20
0.0
 30
0.0
  3
*D15
  1

  0
LINE
  5
33E
330
33B
100
AcDbEntity
  8
LAY-20
  6
CONTINUOUS
 62
     4
100
AcDbLine
 10
269.0
 20
152.99999999999
 30
0.0
 11
212.0
 21
152.99999999999
 31
0.0
  0
LINE
  5
33F
330
33B
100
AcDbEntity
  8
LAY-20
  6
CONTINUOUS
 62
     4
100
AcDbLine
 10
233.8672954017
 20
192.99999999999
 30
0.0
 11
212.0
 21
192.99999999999
 31
0.0
  0
LINE
  5
340
330
33B
100
AcDbEntity
  8
LAY-20
  6
CONTINUOUS
 62
     4
100
AcDbLine
 10
215.0
 20
157.99999999999
 30
0.0
 11
215.0
 21
187.99999999999
 31
0.0
  0
INSERT
  5
341
330
33B
100
AcDbEntity
  8
LAY-20
 62
     4
100
AcDbBlockReference
  2
EX_BNORM
 10
215.0
 20
152.99999999999
 30
0.0
 41
5.0
 42
5.0
 43
5.0
 50
270.0
  0
INSERT
  5
342
330
33B
100
AcDbEntity
  8
LAY-20
 62
     4
100
AcDbBlockReference
  2
EX_BNORM
 10
215.0
 20
192.99999999999
 30
0.0
 41
5.0
 42
5.0
 43
5.0
 50
90.0
  0
MTEXT
  5
343
330
33B
100
AcDbEntity
  8
LAY-20
 62
     7
100
AcDbMText
 10
210.0
 20
172.99999999999
 30
0.0
 40
6.2362208
 41
0.0
 71
     5
 72
     1
  1
40
  7
EXCADDIM1
 11
0.0
 21
1.0
 31
0.0
  0
POINT
  5
344
330
33B
100
AcDbEntity
  8
DEFPOINTS
 62
     0
100
AcDbPoint
 10
272.0
 20
152.99999999999
 30
0.0
  0
POINT
  5
345
330
33B
100
AcDbEntity
  8
DEFPOINTS
 62
     0
100
AcDbPoint
 10
236.8672954017
 20
192.99999999999
 30
0.0
  0
POINT
  5
346
330
33B
100
AcDbEntity
  8
DEFPOINTS
 62
     0
100
AcDbPoint
 10
215.0
 20
192.99999999999
 30
0.0
  0
ENDBLK
  5
33D
330
33B
100
AcDbEntity
  8
0
100
AcDbBlockEnd
  0
BLOCK
  5
349
330
348
100
AcDbEntity
  8
0
100
AcDbBlockBegin
  2
*D16
 70
     1
 10
0.0
 20
0.0
 30
0.0
  3
*D16
  1

  0
LINE
  5
34B
330
348
100
AcDbEntity
  8
LAY-20
  6
CONTINUOUS
 62
     4
100
AcDbLine
 10
351.0
 20
132.99999999999
 30
0.0
 11
408.0
 21
132.99999999999
 31
0.0
  0
LINE
  5
34C
330
348
100
AcDbEntity
  8
LAY-20
  6
CONTINUOUS
 62
     4
100
AcDbLine
 10
386.13270459831
 20
192.99999999999
 30
0.0
 11
408.0
 21
192.99999999999
 31
0.0
  0
LINE
  5
34D
330
348
100
AcDbEntity
  8
LAY-20
  6
CONTINUOUS
 62
     4
100
AcDbLine
 10
405.0
 20
137.99999999999
 30
0.0
 11
405.0
 21
187.99999999999
 31
0.0
  0
INSERT
  5
34E
330
348
100
AcDbEntity
  8
LAY-20
 62
     4
100
AcDbBlockReference
  2
EX_BNORM
 10
405.0
 20
132.99999999999
 30
0.0
 41
5.0
 42
5.0
 43
5.0
 50
270.0
  0
INSERT
  5
34F
330
348
100
AcDbEntity
  8
LAY-20
 62
     4
100
AcDbBlockReference
  2
EX_BNORM
 10
405.0
 20
192.99999999999
 30
0.0
 41
5.0
 42
5.0
 43
5.0
 50
90.0
  0
MTEXT
  5
350
330
348
100
AcDbEntity
  8
LAY-20
 62
     7
100
AcDbMText
 10
400.0
 20
162.99999999999
 30
0.0
 40
6.2362208
 41
0.0
 71
     5
 72
     1
  1
60
  7
EXCADDIM1
 11
0.0
 21
1.0
 31
0.0
  0
POINT
  5
351
330
348
100
AcDbEntity
  8
DEFPOINTS
 62
     0
100
AcDbPoint
 10
348.0
 20
132.99999999999
 30
0.0
  0
POINT
  5
352
330
348
100
AcDbEntity
  8
DEFPOINTS
 62
     0
100
AcDbPoint
 10
383.13270459831
 20
192.99999999999
 30
0.0
  0
POINT
  5
353
330
348
100
AcDbEntity
  8
DEFPOINTS
 62
     0
100
AcDbPoint
 10
405.0
 20
192.99999999999
 30
0.0
  0
ENDBLK
  5
34A
330
348
100
AcDbEntity
  8
0
100
AcDbBlockEnd
  0
BLOCK
  5
356
330
355
100
AcDbEntity
  8
0
100
AcDbBlockBegin
  2
*D17
 70
     1
 10
0.0
 20
0.0
 30
0.0
  3
*D17
  1

  0
LINE
  5
358
330
355
100
AcDbEntity
  8
LAY-20
  6
CONTINUOUS
 62
     4
100
AcDbLine
 10
335.97942913437
 20
229.99999999999
 30
0.0
 11
408.0
 21
229.99999999999
 31
0.0
  0
LINE
  5
359
330
355
100
AcDbEntity
  8
LAY-20
  6
CONTINUOUS
 62
     4
100
AcDbLine
 10
405.0
 20
224.99999999999
 30
0.0
 11
405.0
 21
197.99999999999
 31
0.0
  0
INSERT
  5
35A
330
355
100
AcDbEntity
  8
LAY-20
 62
     4
100
AcDbBlockReference
  2
EX_BNORM
 10
405.0
 20
229.99999999999
 30
0.0
 41
5.0
 42
5.0
 43
5.0
 50
90.0
  0
INSERT
  5
35B
330
355
100
AcDbEntity
  8
LAY-20
 62
     4
100
AcDbBlockReference
  2
EX_BNORM
 10
405.0
 20
192.99999999999
 30
0.0
 41
5.0
 42
5.0
 43
5.0
 50
270.0
  0
MTEXT
  5
35C
330
355
100
AcDbEntity
  8
LAY-20
 62
     7
100
AcDbMText
 10
400.0
 20
211.49999999999
 30
0.0
 40
6.2362208
 41
0.0
 71
     5
 72
     1
  1
37
  7
EXCADDIM1
 11
0.0
 21
1.0
 31
0.0
  0
POINT
  5
35D
330
355
100
AcDbEntity
  8
DEFPOINTS
 62
     0
100
AcDbPoint
 10
332.97942913437
 20
229.99999999999
 30
0.0
  0
POINT
  5
35E
330
355
100
AcDbEntity
  8
DEFPOINTS
 62
     0
100
AcDbPoint
 10
405.0
 20
192.99999999999
 30
0.0
  0
POINT
  5
35F
330
355
100
AcDbEntity
  8
DEFPOINTS
 62
     0
100
AcDbPoint
 10
405.0
 20
192.99999999999
 30
0.0
  0
ENDBLK
  5
357
330
355
100
AcDbEntity
  8
0
100
AcDbBlockEnd
  0
BLOCK
  5
362
330
361
100
AcDbEntity
  8
0
100
AcDbBlockBegin
  2
*D18
 70
     1
 10
0.0
 20
0.0
 30
0.0
  3
*D18
  1

  0
LINE
  5
364
330
361
100
AcDbEntity
  8
LAY-20
  6
CONTINUOUS
 62
     4
100
AcDbLine
 10
280.2
 20
144.99999999999
 30
0.0
 11
280.2
 21
109.99999999999
 31
0.0
  0
LINE
  5
365
330
361
100
AcDbEntity
  8
LAY-20
  6
CONTINUOUS
 62
     4
100
AcDbLine
 10
339.8
 20
144.99999999999
 30
0.0
 11
339.8
 21
109.99999999999
 31
0.0
  0
LINE
  5
366
330
361
100
AcDbEntity
  8
LAY-20
  6
CONTINUOUS
 62
     4
100
AcDbLine
 10
286.2
 20
112.99999999999
 30
0.0
 11
333.8
 21
112.99999999999
 31
0.0
  0
INSERT
  5
367
330
361
100
AcDbEntity
  8
LAY-20
 62
     4
100
AcDbBlockReference
  2
EX_BNORM
 10
280.2
 20
112.99999999999
 30
0.0
 41
6.0
 42
6.0
 43
6.0
 50
180.0
  0
INSERT
  5
368
330
361
100
AcDbEntity
  8
LAY-20
 62
     4
100
AcDbBlockReference
  2
EX_BNORM
 10
339.8
 20
112.99999999999
 30
0.0
 41
6.0
 42
6.0
 43
6.0
  0
MTEXT
  5
369
330
361
100
AcDbEntity
  8
LAY-20
 62
     7
100
AcDbMText
 10
310.0
 20
117.99999999999
 30
0.0
 40
6.2362208
 41
0.0
 71
     5
 72
     1
  1
Rｃ2(59.6)
  7
EXCADDIM1
  0
POINT
  5
36A
330
361
100
AcDbEntity
  8
DEFPOINTS
 62
     0
100
AcDbPoint
 10
280.2
 20
147.99999999999
 30
0.0
  0
POINT
  5
36B
330
361
100
AcDbEntity
  8
DEFPOINTS
 62
     0
100
AcDbPoint
 10
339.8
 20
147.99999999999
 30
0.0
  0
POINT
  5
36C
330
361
100
AcDbEntity
  8
DEFPOINTS
 62
     0
100
AcDbPoint
 10
339.8
 20
112.99999999999
 30
0.0
  0
ENDBLK
  5
363
330
361
100
AcDbEntity
  8
0
100
AcDbBlockEnd
  0
BLOCK
  5
36F
330
36E
100
AcDbEntity
  8
0
100
AcDbBlockBegin
  2
*D19
 70
     1
 10
0.0
 20
0.0
 30
0.0
  3
*D19
  1

  0
LINE
  5
371
330
36E
100
AcDbEntity
  8
LAY-20
  6
CONTINUOUS
 62
     4
100
AcDbLine
 10
256.5
 20
195.49999999999
 30
0.0
 11
256.5
 21
252.99999999999
 31
0.0
  0
LINE
  5
372
330
36E
100
AcDbEntity
  8
LAY-20
  6
CONTINUOUS
 62
     4
100
AcDbLine
 10
363.5
 20
195.96178205589
 30
0.0
 11
363.5
 21
252.99999999999
 31
0.0
  0
LINE
  5
373
330
36E
100
AcDbEntity
  8
LAY-20
  6
CONTINUOUS
 62
     4
100
AcDbLine
 10
262.5
 20
249.99999999999
 30
0.0
 11
357.5
 21
249.99999999999
 31
0.0
  0
INSERT
  5
374
330
36E
100
AcDbEntity
  8
LAY-20
 62
     4
100
AcDbBlockReference
  2
EX_BNORM
 10
256.5
 20
249.99999999999
 30
0.0
 41
6.0
 42
6.0
 43
6.0
 50
180.0
  0
INSERT
  5
375
330
36E
100
AcDbEntity
  8
LAY-20
 62
     4
100
AcDbBlockReference
  2
EX_BNORM
 10
363.5
 20
249.99999999999
 30
0.0
 41
6.0
 42
6.0
 43
6.0
  0
MTEXT
  5
376
330
36E
100
AcDbEntity
  8
LAY-20
 62
     7
100
AcDbMText
 10
310.0
 20
254.99999999999
 30
0.0
 40
6.2362208
 41
0.0
 71
     5
 72
     1
  1
%%c107
  7
EXCADDIM1
  0
POINT
  5
377
330
36E
100
AcDbEntity
  8
DEFPOINTS
 62
     0
100
AcDbPoint
 10
256.5
 20
192.49999999999
 30
0.0
  0
POINT
  5
378
330
36E
100
AcDbEntity
  8
DEFPOINTS
 62
     0
100
AcDbPoint
 10
363.5
 20
192.96178205589
 30
0.0
  0
POINT
  5
379
330
36E
100
AcDbEntity
  8
DEFPOINTS
 62
     0
100
AcDbPoint
 10
363.5
 20
249.99999999999
 30
0.0
  0
ENDBLK
  5
370
330
36E
100
AcDbEntity
  8
0
100
AcDbBlockEnd
  0
BLOCK
  5
37C
330
37B
100
AcDbEntity
  8
0
100
AcDbBlockBegin
  2
*D20
 70
     1
 10
0.0
 20
0.0
 30
0.0
  3
*D20
  1

  0
LINE
  5
37E
330
37B
100
AcDbEntity
  8
LAY-20
  6
CONTINUOUS
 62
     4
100
AcDbLine
 10
254.00677574266
 20
195.3
 30
0.0
 11
254.00677574266
 21
266.99999999999
 31
0.0
  0
LINE
  5
37F
330
37B
100
AcDbEntity
  8
LAY-20
  6
CONTINUOUS
 62
     4
100
AcDbLine
 10
365.99322425735
 20
195.3
 30
0.0
 11
365.99322425735
 21
266.99999999999
 31
0.0
  0
LINE
  5
380
330
37B
100
AcDbEntity
  8
LAY-20
  6
CONTINUOUS
 62
     4
100
AcDbLine
 10
260.00677574266
 20
263.99999999999
 30
0.0
 11
359.99322425735
 21
263.99999999999
 31
0.0
  0
INSERT
  5
381
330
37B
100
AcDbEntity
  8
LAY-20
 62
     4
100
AcDbBlockReference
  2
EX_BNORM
 10
254.00677574266
 20
263.99999999999
 30
0.0
 41
6.0
 42
6.0
 43
6.0
 50
180.0
  0
INSERT
  5
382
330
37B
100
AcDbEntity
  8
LAY-20
 62
     4
100
AcDbBlockReference
  2
EX_BNORM
 10
365.99322425735
 20
263.99999999999
 30
0.0
 41
6.0
 42
6.0
 43
6.0
  0
MTEXT
  5
383
330
37B
100
AcDbEntity
  8
LAY-20
 62
     7
100
AcDbMText
 10
310.000000000005
 20
268.99999999999
 30
0.0
 40
6.2362208
 41
0.0
 71
     5
 72
     1
  1
%%c112
  7
EXCADDIM1
  0
POINT
  5
384
330
37B
100
AcDbEntity
  8
DEFPOINTS
 62
     0
100
AcDbPoint
 10
254.00677574266
 20
192.99999999999
 30
0.0
  0
POINT
  5
385
330
37B
100
AcDbEntity
  8
DEFPOINTS
 62
     0
100
AcDbPoint
 10
365.99322425735
 20
192.99999999999
 30
0.0
  0
POINT
  5
386
330
37B
100
AcDbEntity
  8
DEFPOINTS
 62
     0
100
AcDbPoint
 10
365.99322425735
 20
263.99999999999
 30
0.0
  0
ENDBLK
  5
37D
330
37B
100
AcDbEntity
  8
0
100
AcDbBlockEnd
  0
BLOCK
  5
389
330
388
100
AcDbEntity
  8
0
100
AcDbBlockBegin
  2
*D21
 70
     1
 10
0.0
 20
0.0
 30
0.0
  3
*D21
  1

  0
LINE
  5
38B
330
388
100
AcDbEntity
  8
LAY-20
  6
CONTINUOUS
 62
     4
100
AcDbLine
 10
235.0
 20
191.99999999999
 30
0.0
 11
235.0
 21
280.99999999999
 31
0.0
  0
LINE
  5
38C
330
388
100
AcDbEntity
  8
LAY-20
  6
CONTINUOUS
 62
     4
100
AcDbLine
 10
385.0
 20
191.99999999999
 30
0.0
 11
385.0
 21
280.99999999999
 31
0.0
  0
LINE
  5
38D
330
388
100
AcDbEntity
  8
LAY-20
  6
CONTINUOUS
 62
     4
100
AcDbLine
 10
241.0
 20
277.99999999999
 30
0.0
 11
379.0
 21
277.99999999999
 31
0.0
  0
INSERT
  5
38E
330
388
100
AcDbEntity
  8
LAY-20
 62
     4
100
AcDbBlockReference
  2
EX_BNORM
 10
235.0
 20
277.99999999999
 30
0.0
 41
6.0
 42
6.0
 43
6.0
 50
180.0
  0
INSERT
  5
38F
330
388
100
AcDbEntity
  8
LAY-20
 62
     4
100
AcDbBlockReference
  2
EX_BNORM
 10
385.0
 20
277.99999999999
 30
0.0
 41
6.0
 42
6.0
 43
6.0
  0
MTEXT
  5
390
330
388
100
AcDbEntity
  8
LAY-20
 62
     7
100
AcDbMText
 10
310.0
 20
282.99999999999
 30
0.0
 40
6.2362208
 41
0.0
 71
     5
 72
     1
  1
%%c150
  7
EXCADDIM1
  0
POINT
  5
391
330
388
100
AcDbEntity
  8
DEFPOINTS
 62
     0
100
AcDbPoint
 10
235.0
 20
188.99999999999
 30
0.0
  0
POINT
  5
392
330
388
100
AcDbEntity
  8
DEFPOINTS
 62
     0
100
AcDbPoint
 10
385.0
 20
188.99999999999
 30
0.0
  0
POINT
  5
393
330
388
100
AcDbEntity
  8
DEFPOINTS
 62
     0
100
AcDbPoint
 10
385.0
 20
277.99999999999
 30
0.0
  0
ENDBLK
  5
38A
330
388
100
AcDbEntity
  8
0
100
AcDbBlockEnd
  0
ENDSEC
  0
SECTION
  2
ENTITIES
  0
LINE
  5
D4
330
1F
100
AcDbEntity
  8
LAY-10
  6
CONTINUOUS
 62
     7
100
AcDbLine
 10
272.0000000000021
 20
152.7989898732153
 30
0.0
 11
272.2010101267808
 21
152.999999999994
 31
0.0
  0
LINE
  5
D5
330
1F
100
AcDbEntity
  8
LAY-10
  6
CONTINUOUS
 62
     7
100
AcDbLine
 10
271.9999999999957
 20
149.9705627484627
 30
0.0
 11
274.4999999999999
 21
152.470562748467
 31
0.0
  0
LINE
  5
D6
330
1F
100
AcDbEntity
  8
LAY-10
  6
CONTINUOUS
 62
     7
100
AcDbLine
 10
271.9999999999968
 20
147.1421356237179
 30
0.0
 11
274.5000000000012
 21
149.6421356237221
 31
0.0
  0
LINE
  5
D7
330
1F
100
AcDbEntity
  8
LAY-10
  6
CONTINUOUS
 62
     7
100
AcDbLine
 10
272.0000000000021
 20
144.3137084989767
 30
0.0
 11
274.5000000000024
 21
146.8137084989771
 31
0.0
  0
LINE
  5
D8
330
1F
100
AcDbEntity
  8
LAY-10
  6
CONTINUOUS
 62
     7
100
AcDbLine
 10
271.9999999999956
 20
141.4852813742242
 30
0.0
 11
274.4999999999999
 21
143.9852813742284
 31
0.0
  0
LINE
  5
D9
330
1F
100
AcDbEntity
  8
LAY-10
  6
CONTINUOUS
 62
     7
100
AcDbLine
 10
272.0000000000007
 20
138.6568542494832
 30
0.0
 11
274.4999999999973
 21
141.1568542494797
 31
0.0
  0
LINE
  5
DA
330
1F
100
AcDbEntity
  8
LAY-10
  6
CONTINUOUS
 62
     7
100
AcDbLine
 10
271.9999999999982
 20
135.8284271247344
 30
0.0
 11
274.5000000000024
 21
138.3284271247387
 31
0.0
  0
LINE
  5
DB
330
1F
100
AcDbEntity
  8
LAY-10
  6
CONTINUOUS
 62
     7
100
AcDbLine
 10
271.9999999999955
 20
132.9999999999856
 30
0.0
 11
274.4999999999959
 21
135.499999999986
 31
0.0
  0
LINE
  5
DC
330
1F
100
AcDbEntity
  8
LAY-10
  6
CONTINUOUS
 62
     7
100
AcDbLine
 10
345.4999999999986
 20
152.7989898732119
 30
0.0
 11
345.7010101267774
 21
152.9999999999907
 31
0.0
  0
LINE
  5
DD
330
1F
100
AcDbEntity
  8
LAY-10
  6
CONTINUOUS
 62
     7
100
AcDbLine
 10
345.4999999999999
 20
149.9705627484669
 30
0.0
 11
348.0000000000002
 21
152.4705627484674
 31
0.0
  0
LINE
  5
DE
330
1F
100
AcDbEntity
  8
LAY-10
  6
CONTINUOUS
 62
     7
100
AcDbLine
 10
345.5000000000011
 20
147.1421356237221
 30
0.0
 11
347.9999999999977
 21
149.6421356237187
 31
0.0
  0
LINE
  5
DF
330
1F
100
AcDbEntity
  8
LAY-10
  6
CONTINUOUS
 62
     7
100
AcDbLine
 10
345.4999999999985
 20
144.3137084989734
 30
0.0
 11
348.0000000000028
 21
146.8137084989778
 31
0.0
  0
LINE
  5
E0
330
1F
100
AcDbEntity
  8
LAY-10
  6
CONTINUOUS
 62
     7
100
AcDbLine
 10
345.4999999999997
 20
141.4852813742286
 30
0.0
 11
347.9999999999964
 21
143.985281374225
 31
0.0
  0
LINE
  5
E1
330
1F
100
AcDbEntity
  8
LAY-10
  6
CONTINUOUS
 62
     7
100
AcDbLine
 10
345.4999999999972
 20
138.6568542494799
 30
0.0
 11
347.9999999999976
 21
141.1568542494802
 31
0.0
  0
LINE
  5
E2
330
1F
100
AcDbEntity
  8
LAY-10
  6
CONTINUOUS
 62
     7
100
AcDbLine
 10
345.5000000000023
 20
135.8284271247387
 30
0.0
 11
348.0000000000027
 21
138.3284271247392
 31
0.0
  0
LINE
  5
E3
330
1F
100
AcDbEntity
  8
LAY-10
  6
CONTINUOUS
 62
     7
100
AcDbLine
 10
345.4999999999958
 20
132.9999999999862
 30
0.0
 11
347.9999999999962
 21
135.4999999999867
 31
0.0
  0
LINE
  5
E4
330
1F
100
AcDbEntity
  8
LAY-10
  6
CONTINUOUS
 62
     7
100
AcDbLine
 10
248.1896262955997
 20
191.073545440201
 30
0.0
 11
241.000000000002
 21
192.9999999999879
 31
0.0
  0
LINE
  5
E5
330
1F
100
AcDbEntity
  8
LAY-10
  6
CONTINUOUS
 62
     7
100
AcDbLine
 10
235.0000000000002
 20
185.999999999988
 30
0.0
 11
250.3613650709919
 21
185.999999999988
 31
0.0
  0
LINE
  5
E6
330
1F
100
AcDbEntity
  8
LAY-10
  6
CONTINUOUS
 62
     7
100
AcDbLine
 10
235.0000000000002
 20
185.999999999988
 30
0.0
 11
235.8773459080341
 21
192.1414213562252
 31
0.0
  0
LINE
  5
E7
330
1F
100
AcDbEntity
  8
LAY-10
  6
CONTINUOUS
 62
     7
100
AcDbLine
 10
239.0406101782091
 20
185.999999999988
 30
0.0
 11
239.1872389158981
 21
187.0264011638101
 31
0.0
  0
LINE
  5
E8
330
1F
100
AcDbEntity
  8
LAY-10
  6
CONTINUOUS
 62
     7
100
AcDbLine
 10
241.6847759934255
 20
188.6754101039135
 30
0.0
 11
248.9391608067617
 21
186.7316035515956
 31
0.0
  0
ARC
  5
E9
330
1F
100
AcDbEntity
  8
LAY-10
  6
CONTINUOUS
 62
     7
100
AcDbCircle
 10
241.1671379032204
 20
186.7435584513354
 30
0.0
 40
2.0
100
AcDbArc
 50
74.99999999999885
 51
171.8698976458436
  0
LINE
  5
EA
330
1F
100
AcDbEntity
  8
LAY-10
  6
CONTINUOUS
 62
     7
100
AcDbLine
 10
254.3695972662269
 20
185.947664043745
 30
0.0
 11
254.0496649680418
 21
192.0523359562308
 31
0.0
  0
LINE
  5
EB
330
1F
100
AcDbEntity
  8
LAY-10
  6
CONTINUOUS
 62
     7
100
AcDbLine
 10
249.3546841474954
 20
191.616705107648
 30
0.0
 11
249.7307167471217
 21
192.4227661588301
 31
0.0
  0
LINE
  5
EC
330
1F
100
AcDbEntity
  8
LAY-10
  6
CONTINUOUS
 62
     7
100
AcDbLine
 10
250.4187817860658
 20
184.9044238115034
 30
0.0
 11
250.7815992543919
 21
177.9814541056798
 31
0.0
  0
LINE
  5
ED
330
1F
100
AcDbEntity
  8
LAY-10
  6
CONTINUOUS
 62
     7
100
AcDbLine
 10
344.7379611035843
 20
147.9999999999883
 30
0.0
 11
344.9999999999995
 21
152.9999999999882
 31
0.0
  0
LINE
  5
EE
330
1F
100
AcDbEntity
  8
LAY-10
  6
CONTINUOUS
 62
     7
100
AcDbLine
 10
344.9999999999995
 20
152.9999999999882
 30
0.0
 11
347.0510354332865
 21
152.9999999999882
 31
0.0
  0
LINE
  5
EF
330
1F
100
AcDbEntity
  8
LAY-10
  6
CONTINUOUS
 62
     7
100
AcDbLine
 10
275.000000000001
 20
152.9999999999882
 30
0.0
 11
272.9489645667142
 21
152.9999999999882
 31
0.0
  0
LINE
  5
F0
330
1F
100
AcDbEntity
  8
LAY-10
  6
CONTINUOUS
 62
     7
100
AcDbLine
 10
275.2620388964162
 20
147.9999999999883
 30
0.0
 11
275.000000000001
 21
152.9999999999882
 31
0.0
  0
LINE
  5
F1
330
1F
100
AcDbEntity
  8
LAY-10
  6
CONTINUOUS
 62
     7
100
AcDbLine
 10
343.4648082835593
 20
161.9999999999882
 30
0.0
 11
276.5351917164412
 21
161.9999999999882
 31
0.0
  0
LINE
  5
F2
330
1F
100
AcDbEntity
  8
LAY-10
  6
CONTINUOUS
 62
     7
100
AcDbLine
 10
275.2620388964162
 20
147.9999999999881
 30
0.0
 11
344.7379611035843
 21
147.9999999999881
 31
0.0
  0
LINE
  5
F3
330
1F
100
AcDbEntity
  8
LAY-10
  6
CONTINUOUS
 62
     7
100
AcDbLine
 10
271.1009479203295
 20
170.1549356215492
 30
0.0
 11
271.9503350319596
 21
153.9476640437451
 31
0.0
  0
LINE
  5
F4
330
1F
100
AcDbEntity
  8
LAY-10
  6
CONTINUOUS
 62
     7
100
AcDbLine
 10
348.8990520796711
 20
170.1549356215492
 30
0.0
 11
348.049664968041
 21
153.9476640437451
 31
0.0
  0
LINE
  5
F5
330
1F
100
AcDbEntity
  8
LAY-10
  6
CONTINUOUS
 62
     7
100
AcDbLine
 10
256.2504420064334
 20
172.318301654587
 30
0.0
 11
270.1894741283224
 21
171.0987943633981
 31
0.0
  0
ARC
  5
F6
330
1F
100
AcDbEntity
  8
LAY-10
  6
CONTINUOUS
 62
     7
100
AcDbCircle
 10
248.4215227165566
 20
184.7997518990174
 30
0.0
 40
2.0
100
AcDbArc
 50
3.000000000002355
 51
74.99999999999885
  0
ARC
  5
F7
330
1F
100
AcDbEntity
  8
LAY-10
  6
CONTINUOUS
 62
     7
100
AcDbCircle
 10
256.7733764629194
 20
178.2954698431375
 30
0.0
 40
6.000000000000004
100
AcDbArc
 50
183.0000000000007
 51
265.0000000000003
  0
LINE
  5
F8
330
1F
100
AcDbEntity
  8
LAY-10
  6
CONTINUOUS
 62
     7
100
AcDbLine
 10
363.7495579935671
 20
172.318301654587
 30
0.0
 11
349.810525871678
 21
171.0987943633981
 31
0.0
  0
ARC
  5
F9
330
1F
100
AcDbEntity
  8
LAY-10
  6
CONTINUOUS
 62
     7
100
AcDbCircle
 10
363.2266235370811
 20
178.2954698431375
 30
0.0
 40
6.000000000000004
100
AcDbArc
 50
274.9999999999998
 51
326.6847695709603
  0
LINE
  5
FA
330
1F
100
AcDbEntity
  8
LAY-10
  6
CONTINUOUS
 62
     7
100
AcDbLine
 10
365.6304027337738
 20
185.947664043745
 30
0.0
 11
365.9503350319587
 21
192.0523359562308
 31
0.0
  0
LINE
  5
FB
330
1F
100
AcDbEntity
  8
LAY-10
  6
CONTINUOUS
 62
     7
100
AcDbLine
 10
385.0000000000002
 20
185.999999999988
 30
0.0
 11
384.1226540919663
 21
192.1414213562252
 31
0.0
  0
LINE
  5
FC
330
1F
100
AcDbEntity
  8
LAY-10
  6
CONTINUOUS
 62
     7
100
AcDbLine
 10
371.8103737044007
 20
191.073545440201
 30
0.0
 11
378.9999999999984
 21
192.9999999999879
 31
0.0
  0
LINE
  5
FD
330
1F
100
AcDbEntity
  8
LAY-10
  6
CONTINUOUS
 62
     7
100
AcDbLine
 10
368.2405918769186
 20
174.9999999999879
 30
0.0
 11
383.0867853620741
 21
174.9999999999879
 31
0.0
  0
LINE
  5
FE
330
1F
100
AcDbEntity
  8
LAY-10
  6
CONTINUOUS
 62
     7
100
AcDbLine
 10
384.0826785685418
 20
175.9094642539454
 30
0.0
 11
385.0000000000002
 21
185.999999999988
 31
0.0
  0
LINE
  5
FF
330
1F
100
AcDbEntity
  8
LAY-10
  6
CONTINUOUS
 62
     7
100
AcDbLine
 10
255.1824070684689
 20
190.3628520871038
 30
0.0
 11
254.9945682913785
 21
192.155775096477
 31
0.0
  0
ARC
  5
100
330
1F
100
AcDbEntity
  8
LAY-10
  6
CONTINUOUS
 62
     7
100
AcDbCircle
 10
250.6369555539147
 20
191.999999999988
 30
0.0
 40
1.0
100
AcDbArc
 50
90.0
 51
154.9906497524194
  0
ARC
  5
101
330
1F
100
AcDbEntity
  8
LAY-10
  6
CONTINUOUS
 62
     7
100
AcDbCircle
 10
253.0510354332873
 20
191.999999999988
 30
0.0
 40
1.0
100
AcDbArc
 50
2.999999999992558
 51
90.0
  0
ARC
  5
102
330
1F
100
AcDbEntity
  8
LAY-10
  6
CONTINUOUS
 62
     7
100
AcDbCircle
 10
256.176963797553
 20
190.4670485968041
 30
0.0
 40
1.0
100
AcDbArc
 50
185.9808760317549
 51
270.0
  0
LINE
  5
103
330
1F
100
AcDbEntity
  8
LAY-10
  6
CONTINUOUS
 62
     7
100
AcDbLine
 10
291.7530104288798
 20
190.8564064605389
 30
0.0
 11
297.4931434789655
 21
190.8564064605389
 31
0.0
  0
LINE
  5
104
330
1F
100
AcDbEntity
  8
LAY-10
  6
CONTINUOUS
 62
     7
100
AcDbLine
 10
292.9038103812588
 20
189.467048596804
 30
0.0
 11
298.2509600081717
 21
189.467048596804
 31
0.0
  0
LINE
  5
105
330
1F
100
AcDbEntity
  8
LAY-10
  6
CONTINUOUS
 62
     7
100
AcDbLine
 10
298.3723665143857
 20
191.3799960765352
 30
0.0
 11
299.1431374838817
 21
192.8024663126345
 31
0.0
  0
ARC
  5
106
330
1F
100
AcDbEntity
  8
LAY-10
  6
CONTINUOUS
 62
     7
100
AcDbCircle
 10
271.7161862804683
 20
191.999999999988
 30
0.0
 40
1.0
100
AcDbArc
 50
90.0
 51
146.7725335966746
  0
ARC
  5
107
330
1F
100
AcDbEntity
  8
LAY-10
  6
CONTINUOUS
 62
     7
100
AcDbCircle
 10
297.4931434789655
 20
191.8564064605389
 30
0.0
 40
1.0
100
AcDbArc
 50
270.0
 51
331.548780226557
  0
ARC
  5
108
330
1F
100
AcDbEntity
  8
LAY-10
  6
CONTINUOUS
 62
     7
100
AcDbCircle
 10
298.2509600081717
 20
190.4670485968041
 30
0.0
 40
1.0
100
AcDbArc
 50
270.0
 51
344.963846387698
  0
ARC
  5
109
330
1F
100
AcDbEntity
  8
LAY-10
  6
CONTINUOUS
 62
     7
100
AcDbCircle
 10
292.9038103812588
 20
190.4670485968041
 30
0.0
 40
1.0
100
AcDbArc
 50
195.9086114563325
 51
270.0
  0
LINE
  5
10A
330
1F
100
AcDbEntity
  8
LAY-10
  6
CONTINUOUS
 62
     7
100
AcDbLine
 10
321.6276334856148
 20
191.3799960765352
 30
0.0
 11
320.8568625161188
 21
192.8024663126345
 31
0.0
  0
ARC
  5
10B
330
1F
100
AcDbEntity
  8
LAY-10
  6
CONTINUOUS
 62
     7
100
AcDbCircle
 10
322.5068565210349
 20
191.8564064605389
 30
0.0
 40
1.0
100
AcDbArc
 50
208.4512197734431
 51
270.0
  0
ARC
  5
10C
330
1F
100
AcDbEntity
  8
LAY-10
  6
CONTINUOUS
 62
     7
100
AcDbCircle
 10
321.7490399918288
 20
190.4670485968041
 30
0.0
 40
1.0
100
AcDbArc
 50
195.0361536123021
 51
270.0
  0
ARC
  5
10D
330
1F
100
AcDbEntity
  8
LAY-10
  6
CONTINUOUS
 62
     7
100
AcDbCircle
 10
327.0961896187416
 20
190.4670485968041
 30
0.0
 40
1.0
100
AcDbArc
 50
270.0
 51
344.0913885436677
  0
LINE
  5
10E
330
1F
100
AcDbEntity
  8
LAY-10
  6
CONTINUOUS
 62
     7
100
AcDbLine
 10
328.2469895711205
 20
190.8564064605389
 30
0.0
 11
322.5068565210349
 21
190.8564064605389
 31
0.0
  0
LINE
  5
10F
330
1F
100
AcDbEntity
  8
LAY-10
  6
CONTINUOUS
 62
     7
100
AcDbLine
 10
327.0961896187416
 20
189.467048596804
 30
0.0
 11
321.7490399918288
 21
189.467048596804
 31
0.0
  0
ARC
  5
110
330
1F
100
AcDbEntity
  8
LAY-10
  6
CONTINUOUS
 62
     7
100
AcDbCircle
 10
353.4960779080761
 20
191.999999999988
 30
0.0
 40
1.0
100
AcDbArc
 50
90.0
 51
167.3172441926826
  0
ARC
  5
111
330
1F
100
AcDbEntity
  8
LAY-10
  6
CONTINUOUS
 62
     7
100
AcDbCircle
 10
350.7687866307726
 20
191.8564064605389
 30
0.0
 40
1.0
100
AcDbArc
 50
213.2274664033255
 51
270.0
  0
LINE
  5
112
330
1F
100
AcDbEntity
  8
LAY-10
  6
CONTINUOUS
 62
     7
100
AcDbLine
 10
352.0766787236403
 20
190.2474960070252
 30
0.0
 11
352.520477241655
 21
192.219552589767
 31
0.0
  0
ARC
  5
113
330
1F
100
AcDbEntity
  8
LAY-10
  6
CONTINUOUS
 62
     7
100
AcDbCircle
 10
351.1010780572191
 20
190.4670485968041
 30
0.0
 40
1.0
100
AcDbArc
 50
270.0
 51
347.3172441926833
  0
LINE
  5
114
330
1F
100
AcDbEntity
  8
LAY-10
  6
CONTINUOUS
 62
     7
100
AcDbLine
 10
349.9322849038542
 20
191.3084421725943
 30
0.0
 11
349.1203154464505
 21
192.5479642879326
 31
0.0
  0
ARC
  5
115
330
1F
100
AcDbEntity
  8
LAY-10
  6
CONTINUOUS
 62
     7
100
AcDbCircle
 10
348.2838137195324
 20
191.999999999988
 30
0.0
 40
1.0
100
AcDbArc
 50
33.22746640333719
 51
90.0
  0
LINE
  5
116
330
1F
100
AcDbEntity
  8
LAY-10
  6
CONTINUOUS
 62
     7
100
AcDbLine
 10
352.213710064038
 20
190.8564064605389
 30
0.0
 11
350.7687866307726
 21
190.8564064605389
 31
0.0
  0
ARC
  5
117
330
1F
100
AcDbEntity
  8
LAY-10
  6
CONTINUOUS
 62
     7
100
AcDbCircle
 10
369.3630444460857
 20
191.999999999988
 30
0.0
 40
1.0
100
AcDbArc
 50
25.00935024757038
 51
90.0
  0
ARC
  5
118
330
1F
100
AcDbEntity
  8
LAY-10
  6
CONTINUOUS
 62
     7
100
AcDbCircle
 10
366.9489645667134
 20
191.999999999988
 30
0.0
 40
1.0
100
AcDbArc
 50
90.0
 51
177.0000000000074
  0
ARC
  5
119
330
1F
100
AcDbEntity
  8
LAY-10
  6
CONTINUOUS
 62
     7
100
AcDbCircle
 10
363.7738161371205
 20
191.999999999988
 30
0.0
 40
1.0
100
AcDbArc
 50
90.0
 51
182.4954917247402
  0
ARC
  5
11A
330
1F
100
AcDbEntity
  8
LAY-10
  6
CONTINUOUS
 62
     7
100
AcDbCircle
 10
365.9932242573456
 20
191.999999999988
 30
0.0
 40
1.0
100
AcDbArc
 50
90.0
 51
177.0000000000074
  0
LINE
  5
11B
330
1F
100
AcDbEntity
  8
LAY-10
  6
CONTINUOUS
 62
     7
100
AcDbLine
 10
364.8175929315316
 20
190.3628520871038
 30
0.0
 11
365.0054317086219
 21
192.155775096477
 31
0.0
  0
ARC
  5
11C
330
1F
100
AcDbEntity
  8
LAY-10
  6
CONTINUOUS
 62
     7
100
AcDbCircle
 10
363.8230362024476
 20
190.4670485968041
 30
0.0
 40
1.0
100
AcDbArc
 50
270.0
 51
354.0191239682447
  0
LINE
  5
11D
330
1F
100
AcDbEntity
  8
LAY-10
  6
CONTINUOUS
 62
     7
100
AcDbLine
 10
362.8415737415235
 20
190.4235078189307
 30
0.0
 11
362.7747644864728
 21
191.9564592221145
 31
0.0
  0
ARC
  5
11E
330
1F
100
AcDbEntity
  8
LAY-10
  6
CONTINUOUS
 62
     7
100
AcDbCircle
 10
363.8406253921712
 20
190.4670485968041
 30
0.0
 40
1.0
100
AcDbArc
 50
182.4954917247402
 51
270.0
  0
ARC
  5
11F
330
1F
100
AcDbEntity
  8
LAY-10
  6
CONTINUOUS
 62
     7
100
AcDbCircle
 10
371.5515546592982
 20
192.0394712664901
 30
0.0
 40
1.0
100
AcDbArc
 50
205.0093502475704
 51
284.9999999999976
  0
ARC
  5
120
330
1F
100
AcDbEntity
  8
LAY-10
  6
CONTINUOUS
 62
     7
100
AcDbCircle
 10
248.4484453407023
 20
192.0394712664901
 30
0.0
 40
1.0
100
AcDbArc
 50
254.9999999999989
 51
334.9906497524282
  0
LINE
  5
121
330
1F
100
AcDbEntity
  8
LAY-10
  6
CONTINUOUS
 62
     7
100
AcDbLine
 10
343.4648082835593
 20
161.9999999999882
 30
0.0
 11
343.898549066923
 21
170.2762671743912
 31
0.0
  0
ARC
  5
122
330
1F
100
AcDbEntity
  8
LAY-10
  6
CONTINUOUS
 62
     7
100
AcDbCircle
 10
349.8976816144257
 20
170.1025996653062
 30
0.0
 40
1.0
100
AcDbArc
 50
95.00000000000315
 51
176.9999999999977
  0
ARC
  5
123
330
1F
100
AcDbEntity
  8
LAY-10
  6
CONTINUOUS
 62
     7
100
AcDbCircle
 10
348.8916967406958
 20
170.0145873931764
 30
0.0
 40
5.0
100
AcDbArc
 50
95.00000000000045
 51
176.9999999999997
  0
LINE
  5
124
330
1F
100
AcDbEntity
  8
LAY-10
  6
CONTINUOUS
 62
     7
100
AcDbLine
 10
276.5351917164412
 20
161.9999999999882
 30
0.0
 11
276.1014509330774
 21
170.2762671743912
 31
0.0
  0
ARC
  5
125
330
1F
100
AcDbEntity
  8
LAY-10
  6
CONTINUOUS
 62
     7
100
AcDbCircle
 10
271.1083032593046
 20
170.0145873931764
 30
0.0
 40
5.0
100
AcDbArc
 50
3.000000000000408
 51
85.00000000000085
  0
ARC
  5
126
330
1F
100
AcDbEntity
  8
LAY-10
  6
CONTINUOUS
 62
     7
100
AcDbCircle
 10
270.1023183855748
 20
170.1025996653062
 30
0.0
 40
1.0
100
AcDbArc
 50
3.000000000002355
 51
85.00000000000028
  0
ARC
  5
127
330
1F
100
AcDbEntity
  8
LAY-10
  6
CONTINUOUS
 62
     7
100
AcDbCircle
 10
383.1327045983052
 20
191.999999999988
 30
0.0
 40
1.0
100
AcDbArc
 50
8.130102354151399
 51
90.0
  0
ARC
  5
128
330
1F
100
AcDbEntity
  8
LAY-10
  6
CONTINUOUS
 62
     7
100
AcDbCircle
 10
383.0867853620741
 20
175.9999999999879
 30
0.0
 40
1.0
100
AcDbArc
 50
270.0
 51
354.8055710922653
  0
ARC
  5
129
330
1F
100
AcDbEntity
  8
LAY-10
  6
CONTINUOUS
 62
     7
100
AcDbCircle
 10
364.6317731990192
 20
185.999999999988
 30
0.0
 40
1.0
100
AcDbArc
 50
270.0
 51
356.9999999999977
  0
ARC
  5
12A
330
1F
100
AcDbEntity
  8
LAY-10
  6
CONTINUOUS
 62
     7
100
AcDbCircle
 10
255.3682268009815
 20
185.999999999988
 30
0.0
 40
1.0
100
AcDbArc
 50
183.0000000000024
 51
270.0
  0
ARC
  5
12B
330
1F
100
AcDbEntity
  8
LAY-10
  6
CONTINUOUS
 62
     7
100
AcDbCircle
 10
236.8672954016953
 20
191.999999999988
 30
0.0
 40
1.0
100
AcDbArc
 50
90.0
 51
171.8698976458487
  0
ARC
  5
12C
330
1F
100
AcDbEntity
  8
LAY-10
  6
CONTINUOUS
 62
     7
100
AcDbCircle
 10
272.9489645667142
 20
153.9999999999881
 30
0.0
 40
1.0
100
AcDbArc
 50
183.0000000000024
 51
270.0
  0
ARC
  5
12D
330
1F
100
AcDbEntity
  8
LAY-10
  6
CONTINUOUS
 62
     7
100
AcDbCircle
 10
347.0510354332865
 20
153.9999999999881
 30
0.0
 40
1.0
100
AcDbArc
 50
270.0
 51
356.9999999999977
  0
LINE
  5
12E
330
1F
100
AcDbEntity
  8
LAY-10
  6
CONTINUOUS
 62
     7
100
AcDbLine
 10
257.0000000000016
 20
177.4999999999893
 30
0.0
 11
262.0000000000011
 21
177.4999999999893
 31
0.0
  0
LINE
  5
12F
330
1F
100
AcDbEntity
  8
LAY-10
  6
CONTINUOUS
 62
     7
100
AcDbLine
 10
259.5000000000002
 20
176.0566243270156
 30
0.0
 11
257.0000000000011
 21
177.4999999999893
 31
0.0
  0
LINE
  5
130
330
1F
100
AcDbEntity
  8
LAY-10
  6
CONTINUOUS
 62
     7
100
AcDbLine
 10
259.5000000000002
 20
176.0566243270159
 30
0.0
 11
261.9999999999993
 21
177.4999999999893
 31
0.0
  0
LINE
  5
131
330
1F
100
AcDbEntity
  8
LAY-10
  6
CONTINUOUS
 62
     7
100
AcDbLine
 10
265.9478450644903
 20
176.4546071095441
 30
0.0
 11
305.5521549355114
 21
176.4546071095441
 31
0.0
  0
LINE
  5
132
330
1F
100
AcDbEntity
  8
LAY-10
  6
CONTINUOUS
 62
     7
100
AcDbLine
 10
305.5309127214165
 20
176.04928151885
 30
0.0
 11
306.0000000000004
 21
184.9999999999879
 31
0.0
  0
ARC
  5
133
330
1F
100
AcDbEntity
  8
LAY-10
  6
CONTINUOUS
 62
     7
100
AcDbCircle
 10
310.0
 20
201.2767269821575
 30
0.0
 40
25.62024093773755
100
AcDbArc
 50
259.9541730410518
 51
270.0
  0
LINE
  5
134
330
1F
100
AcDbEntity
  8
LAY-10
  6
CONTINUOUS
 62
     7
100
AcDbLine
 10
265.5000000000009
 20
184.9999999999879
 30
0.0
 11
265.9988852299587
 21
175.4807027356758
 31
0.0
  0
LINE
  5
135
330
1F
100
AcDbEntity
  8
LAY-10
  6
CONTINUOUS
 62
     7
100
AcDbLine
 10
265.9988852299596
 20
175.4807027356758
 30
0.0
 11
271.5440819730429
 21
174.9955608836351
 31
0.0
  0
LINE
  5
136
330
1F
100
AcDbEntity
  8
LAY-10
  6
CONTINUOUS
 62
     7
100
AcDbLine
 10
355.9544943236797
 20
175.6516013021825
 30
0.0
 11
348.4559180269575
 21
174.9955608836351
 31
0.0
  0
LINE
  5
137
330
1F
100
AcDbEntity
  8
LAY-10
  6
CONTINUOUS
 62
     7
100
AcDbLine
 10
356.0103271828884
 20
175.6564860444154
 30
0.0
 11
356.5000000000002
 21
184.9999999999879
 31
0.0
  0
LINE
  5
138
330
1F
100
AcDbEntity
  8
LAY-10
  6
CONTINUOUS
 62
     7
100
AcDbLine
 10
370.6453158525051
 20
191.6167051076478
 30
0.0
 11
370.2692832528792
 21
192.4227661588296
 31
0.0
  0
LINE
  5
139
330
1F
100
AcDbEntity
  8
LAY-10
  6
CONTINUOUS
 62
     7
100
AcDbLine
 10
275.8739761697128
 20
174.6167442271599
 30
0.0
 11
344.1260238302876
 21
174.6167442271599
 31
0.0
  0
LINE
  5
13A
330
1F
100
AcDbEntity
  8
LAY-10
  6
CONTINUOUS
 62
     7
100
AcDbLine
 10
316.4478450644899
 20
176.4546071095441
 30
0.0
 11
356.0521549355108
 21
176.4546071095441
 31
0.0
  0
LINE
  5
13B
330
1F
100
AcDbEntity
  8
LAY-10
  6
CONTINUOUS
 62
     7
100
AcDbLine
 10
316.4690872785847
 20
176.04928151885
 30
0.0
 11
316.0000000000007
 21
184.9999999999879
 31
0.0
  0
ARC
  5
13C
330
1F
100
AcDbEntity
  8
LAY-10
  6
CONTINUOUS
 62
     7
100
AcDbCircle
 10
309.9974067988361
 20
212.5959843722615
 30
0.0
 40
37.11528172717353
100
AcDbArc
 50
270.0040031888575
 51
280.0418237701568
  0
LINE
  5
13D
330
1F
100
AcDbEntity
  8
LAY-10
  6
CONTINUOUS
 62
     7
100
AcDbLine
 10
345.4999999999999
 20
152.9999999999899
 30
0.0
 11
348.0000000000004
 21
152.9999999999899
 31
0.0
  0
LINE
  5
13E
330
1F
100
AcDbEntity
  8
LAY-10
  6
CONTINUOUS
 62
     7
100
AcDbLine
 10
274.5
 20
152.9999999999899
 30
0.0
 11
271.9999999999999
 21
152.9999999999899
 31
0.0
  0
LINE
  5
13F
330
1F
100
AcDbEntity
  8
LAY-10
  6
CONTINUOUS
 62
     7
100
AcDbLine
 10
271.9999999999999
 20
132.9999999999879
 30
0.0
 11
348.0000000000004
 21
132.9999999999879
 31
0.0
  0
LINE
  5
140
330
1F
100
AcDbEntity
  8
LAY-10
  6
CONTINUOUS
 62
     7
100
AcDbLine
 10
274.5000000000013
 20
152.9999999999899
 30
0.0
 11
274.5000000000013
 21
132.9999999999879
 31
0.0
  0
LINE
  5
141
330
1F
100
AcDbEntity
  8
LAY-10
  6
CONTINUOUS
 62
     7
100
AcDbLine
 10
271.9999999999999
 20
152.9999999999899
 30
0.0
 11
271.9999999999999
 21
132.9999999999879
 31
0.0
  0
LINE
  5
142
330
1F
100
AcDbEntity
  8
LAY-10
  6
CONTINUOUS
 62
     7
100
AcDbLine
 10
345.4999999999991
 20
152.9999999999899
 30
0.0
 11
345.4999999999991
 21
132.9999999999879
 31
0.0
  0
LINE
  5
143
330
1F
100
AcDbEntity
  8
LAY-10
  6
CONTINUOUS
 62
     7
100
AcDbLine
 10
348.0000000000004
 20
152.9999999999899
 30
0.0
 11
348.0000000000004
 21
132.9999999999879
 31
0.0
  0
LINE
  5
144
330
1F
100
AcDbEntity
  8
LAY-10
  6
CONTINUOUS
 62
     7
100
AcDbLine
 10
334.9112807869475
 20
224.517638090195
 30
0.0
 11
345.5000000000042
 21
184.99999999999
 31
0.0
  0
LINE
  5
145
330
1F
100
AcDbEntity
  8
LAY-10
  6
CONTINUOUS
 62
     7
100
AcDbLine
 10
349.6411047216445
 20
184.99999999999
 30
0.0
 11
338.7749840921035
 21
225.5529142706052
 31
0.0
  0
LINE
  5
146
330
1F
100
AcDbEntity
  8
LAY-10
  6
CONTINUOUS
 62
     7
100
AcDbLine
 10
313.2352625197149
 20
223.9999999999898
 30
0.0
 11
315.4128471786261
 21
184.99999999999
 31
0.0
  0
LINE
  5
147
330
1F
100
AcDbEntity
  8
LAY-10
  6
CONTINUOUS
 62
     7
100
AcDbLine
 10
317.1478529226516
 20
223.9999999999898
 30
0.0
 11
319.3254375815558
 21
184.99999999999
 31
0.0
  0
LINE
  5
148
330
1F
100
AcDbEntity
  8
LAY-10
  6
CONTINUOUS
 62
     7
100
AcDbLine
 10
318.4922385130592
 20
223.9999999999898
 30
0.0
 11
320.6708116211369
 21
184.99999999999
 31
0.0
  0
LINE
  5
149
330
1F
100
AcDbEntity
  8
LAY-10
  6
CONTINUOUS
 62
     7
100
AcDbLine
 10
329.2152014874883
 20
184.99999999999
 30
0.0
 11
323.0589716810081
 21
223.9999999999898
 31
0.0
  0
LINE
  5
14A
330
1F
100
AcDbEntity
  8
LAY-10
  6
CONTINUOUS
 62
     7
100
AcDbLine
 10
332.4512694649889
 20
184.99999999999
 30
0.0
 11
326.2950396585101
 21
223.9999999999898
 31
0.0
  0
LINE
  5
14B
330
1F
100
AcDbEntity
  8
LAY-10
  6
CONTINUOUS
 62
     7
100
AcDbLine
 10
329.1175923470529
 20
223.9999999999898
 30
0.0
 11
335.2766165891711
 21
184.99999999999
 31
0.0
  0
LINE
  5
14C
330
1F
100
AcDbEntity
  8
LAY-10
  6
CONTINUOUS
 62
     7
100
AcDbLine
 10
326.2950396585101
 20
223.9999999999898
 30
0.0
 11
330.6246660016218
 21
223.9999999999898
 31
0.0
  0
LINE
  5
14D
330
1F
100
AcDbEntity
  8
LAY-10
  6
CONTINUOUS
 62
     7
100
AcDbLine
 10
317.1478529226516
 20
223.9999999999898
 30
0.0
 11
323.0589716810081
 21
223.9999999999898
 31
0.0
  0
LINE
  5
14E
330
1F
100
AcDbEntity
  8
LAY-10
  6
CONTINUOUS
 62
     7
100
AcDbLine
 10
339.6950728945244
 20
184.99999999999
 30
0.0
 11
330.6246660016218
 21
223.9999999999898
 31
0.0
  0
LINE
  5
14F
330
1F
100
AcDbEntity
  8
LAY-10
  6
CONTINUOUS
 62
     7
100
AcDbLine
 10
341.6950728945289
 20
184.99999999999
 30
0.0
 11
332.6246660016242
 21
223.9999999999898
 31
0.0
  0
LINE
  5
150
330
1F
100
AcDbEntity
  8
LAY-10
  6
CONTINUOUS
 62
     7
100
AcDbLine
 10
332.6246660016242
 20
223.9999999999898
 30
0.0
 11
334.6241682013467
 21
223.9999999999898
 31
0.0
  0
LINE
  5
151
330
1F
100
AcDbEntity
  8
LAY-10
  6
CONTINUOUS
 62
     7
100
AcDbLine
 10
345.0403964268371
 20
184.99999999999
 30
0.0
 11
334.6241682013467
 21
223.9999999999898
 31
0.0
  0
LINE
  5
152
330
1F
100
AcDbEntity
  8
LAY-10
  6
CONTINUOUS
 62
     7
100
AcDbLine
 10
335.0499814951896
 20
223.9999999999898
 30
0.0
 11
339.1910862168298
 21
223.9999999999898
 31
0.0
  0
ARC
  5
153
330
1F
100
AcDbEntity
  8
LAY-10
  6
CONTINUOUS
 62
     7
100
AcDbCircle
 10
332.9794291343693
 20
223.99999999999
 30
0.0
 40
2.0
100
AcDbArc
 50
14.99999999999958
 51
90.0
  0
ARC
  5
154
330
1F
100
AcDbEntity
  8
LAY-10
  6
CONTINUOUS
 62
     7
100
AcDbCircle
 10
332.9794291343692
 20
223.99999999999
 30
0.0
 40
6.000000000000004
100
AcDbArc
 50
15.00000000000158
 51
90.0
  0
LINE
  5
155
330
1F
100
AcDbEntity
  8
LAY-10
  6
CONTINUOUS
 62
     7
100
AcDbLine
 10
321.7903688828687
 20
225.9999999999899
 30
0.0
 11
322.0000000000008
 21
229.99999999999
 31
0.0
  0
LINE
  5
156
330
1F
100
AcDbEntity
  8
LAY-10
  6
CONTINUOUS
 62
     7
100
AcDbLine
 10
333.715808586985
 20
225.8595013583547
 30
0.0
 11
333.4988142480526
 21
229.99999999999
 31
0.0
  0
LINE
  5
157
330
1F
100
AcDbEntity
  8
LAY-10
  6
CONTINUOUS
 62
     7
100
AcDbLine
 10
343.9720653267942
 20
188.9999999999899
 30
0.0
 11
344.4282032302797
 21
188.9999999999899
 31
0.0
  0
LINE
  5
158
330
1F
100
AcDbEntity
  8
LAY-10
  6
CONTINUOUS
 62
     7
100
AcDbLine
 10
334.6449217951118
 20
188.9999999999899
 30
0.0
 11
338.7647747516626
 21
188.9999999999899
 31
0.0
  0
LINE
  5
159
330
1F
100
AcDbEntity
  8
LAY-10
  6
CONTINUOUS
 62
     7
100
AcDbLine
 10
320.4473682254416
 20
188.9999999999899
 30
0.0
 11
328.5837933022083
 21
188.9999999999899
 31
0.0
  0
ARC
  5
15A
330
1F
100
AcDbEntity
  8
LAY-10
  6
CONTINUOUS
 62
     7
100
AcDbCircle
 10
361.392439749437
 20
186.9999999999899
 30
0.0
 40
2.0
100
AcDbArc
 50
270.0
 51
357.0000000000017
  0
LINE
  5
15B
330
1F
100
AcDbEntity
  8
LAY-10
  6
CONTINUOUS
 62
     7
100
AcDbLine
 10
363.3896988189462
 20
186.8953280875041
 30
0.0
 11
363.4999999999989
 21
188.99999999999
 31
0.0
  0
LINE
  5
15C
330
1F
100
AcDbEntity
  8
LAY-10
  6
CONTINUOUS
 62
     7
100
AcDbLine
 10
285.0887192130523
 20
224.517638090195
 30
0.0
 11
274.4999999999956
 21
184.99999999999
 31
0.0
  0
LINE
  5
15D
330
1F
100
AcDbEntity
  8
LAY-10
  6
CONTINUOUS
 62
     7
100
AcDbLine
 10
270.3588952783554
 20
184.99999999999
 30
0.0
 11
281.2250159078962
 21
225.5529142706052
 31
0.0
  0
LINE
  5
15E
330
1F
100
AcDbEntity
  8
LAY-10
  6
CONTINUOUS
 62
     7
100
AcDbLine
 10
306.764737480285
 20
223.9999999999898
 30
0.0
 11
304.5871528213738
 21
184.99999999999
 31
0.0
  0
LINE
  5
15F
330
1F
100
AcDbEntity
  8
LAY-10
  6
CONTINUOUS
 62
     7
100
AcDbLine
 10
302.8521470773481
 20
223.9999999999898
 30
0.0
 11
300.6745624184441
 21
184.99999999999
 31
0.0
  0
LINE
  5
160
330
1F
100
AcDbEntity
  8
LAY-10
  6
CONTINUOUS
 62
     7
100
AcDbLine
 10
301.5077614869406
 20
223.9999999999898
 30
0.0
 11
299.3291883788629
 21
184.99999999999
 31
0.0
  0
LINE
  5
161
330
1F
100
AcDbEntity
  8
LAY-10
  6
CONTINUOUS
 62
     7
100
AcDbLine
 10
290.7847985125115
 20
184.99999999999
 30
0.0
 11
296.9410283189917
 21
223.9999999999898
 31
0.0
  0
LINE
  5
162
330
1F
100
AcDbEntity
  8
LAY-10
  6
CONTINUOUS
 62
     7
100
AcDbLine
 10
287.5487305350109
 20
184.99999999999
 30
0.0
 11
293.7049603414898
 21
223.9999999999898
 31
0.0
  0
LINE
  5
163
330
1F
100
AcDbEntity
  8
LAY-10
  6
CONTINUOUS
 62
     7
100
AcDbLine
 10
290.8824076529469
 20
223.9999999999898
 30
0.0
 11
284.7233834108287
 21
184.99999999999
 31
0.0
  0
LINE
  5
164
330
1F
100
AcDbEntity
  8
LAY-10
  6
CONTINUOUS
 62
     7
100
AcDbLine
 10
293.7049603414898
 20
223.9999999999898
 30
0.0
 11
289.375333998378
 21
223.9999999999898
 31
0.0
  0
LINE
  5
165
330
1F
100
AcDbEntity
  8
LAY-10
  6
CONTINUOUS
 62
     7
100
AcDbLine
 10
302.8521470773481
 20
223.9999999999898
 30
0.0
 11
296.9410283189917
 21
223.9999999999898
 31
0.0
  0
LINE
  5
166
330
1F
100
AcDbEntity
  8
LAY-10
  6
CONTINUOUS
 62
     7
100
AcDbLine
 10
280.3049271054754
 20
184.99999999999
 30
0.0
 11
289.375333998378
 21
223.9999999999898
 31
0.0
  0
LINE
  5
167
330
1F
100
AcDbEntity
  8
LAY-10
  6
CONTINUOUS
 62
     7
100
AcDbLine
 10
278.3049271054709
 20
184.99999999999
 30
0.0
 11
287.3753339983756
 21
223.9999999999898
 31
0.0
  0
LINE
  5
168
330
1F
100
AcDbEntity
  8
LAY-10
  6
CONTINUOUS
 62
     7
100
AcDbLine
 10
287.3753339983756
 20
223.9999999999898
 30
0.0
 11
285.3758317986531
 21
223.9999999999898
 31
0.0
  0
LINE
  5
169
330
1F
100
AcDbEntity
  8
LAY-10
  6
CONTINUOUS
 62
     7
100
AcDbLine
 10
274.9596035731627
 20
184.99999999999
 30
0.0
 11
285.3758317986531
 21
223.9999999999898
 31
0.0
  0
LINE
  5
16A
330
1F
100
AcDbEntity
  8
LAY-10
  6
CONTINUOUS
 62
     7
100
AcDbLine
 10
284.9500185048103
 20
223.9999999999898
 30
0.0
 11
280.80891378317
 21
223.9999999999898
 31
0.0
  0
ARC
  5
16B
330
1F
100
AcDbEntity
  8
LAY-10
  6
CONTINUOUS
 62
     7
100
AcDbCircle
 10
287.0205708656305
 20
223.99999999999
 30
0.0
 40
2.0
100
AcDbArc
 50
90.0
 51
165.0000000000004
  0
ARC
  5
16C
330
1F
100
AcDbEntity
  8
LAY-10
  6
CONTINUOUS
 62
     7
100
AcDbCircle
 10
287.0205708656306
 20
223.99999999999
 30
0.0
 40
6.000000000000004
100
AcDbArc
 50
90.0
 51
164.9999999999986
  0
LINE
  5
16D
330
1F
100
AcDbEntity
  8
LAY-10
  6
CONTINUOUS
 62
     7
100
AcDbLine
 10
298.2096311171311
 20
225.9999999999899
 30
0.0
 11
297.999999999999
 21
229.99999999999
 31
0.0
  0
LINE
  5
16E
330
1F
100
AcDbEntity
  8
LAY-10
  6
CONTINUOUS
 62
     7
100
AcDbLine
 10
286.2841914130148
 20
225.8595013583547
 30
0.0
 11
286.5011857519473
 21
229.99999999999
 31
0.0
  0
LINE
  5
16F
330
1F
100
AcDbEntity
  8
LAY-10
  6
CONTINUOUS
 62
     7
100
AcDbLine
 10
276.0279346732056
 20
188.9999999999899
 30
0.0
 11
275.5717967697202
 21
188.9999999999899
 31
0.0
  0
LINE
  5
170
330
1F
100
AcDbEntity
  8
LAY-10
  6
CONTINUOUS
 62
     7
100
AcDbLine
 10
285.355078204888
 20
188.9999999999899
 30
0.0
 11
281.2352252483372
 21
188.9999999999899
 31
0.0
  0
LINE
  5
171
330
1F
100
AcDbEntity
  8
LAY-10
  6
CONTINUOUS
 62
     7
100
AcDbLine
 10
299.5526317745582
 20
188.9999999999899
 30
0.0
 11
291.4162066977915
 21
188.9999999999899
 31
0.0
  0
LINE
  5
172
330
1F
100
AcDbEntity
  8
LAY-10
  6
CONTINUOUS
 62
     7
100
AcDbLine
 10
265.393058344618
 20
184.9999999999902
 30
0.0
 11
264.9999999999953
 21
192.4999999999891
 31
0.0
  0
LINE
  5
173
330
1F
100
AcDbEntity
  8
LAY-10
  6
CONTINUOUS
 62
     7
100
AcDbLine
 10
272.368514221589
 20
192.4999999999891
 30
0.0
 11
256.68342722749
 21
192.4999999999891
 31
0.0
  0
LINE
  5
174
330
1F
100
AcDbEntity
  8
LAY-10
  6
CONTINUOUS
 62
     7
100
AcDbLine
 10
287.0205708656305
 20
225.9999999999899
 30
0.0
 11
332.9794291343693
 21
225.9999999999899
 31
0.0
  0
LINE
  5
175
330
1F
100
AcDbEntity
  8
LAY-10
  6
CONTINUOUS
 62
     7
100
AcDbLine
 10
332.9794291343699
 20
229.99999999999
 30
0.0
 11
287.0205708656306
 21
229.99999999999
 31
0.0
  0
LINE
  5
176
330
1F
100
AcDbEntity
  8
LAY-10
  6
CONTINUOUS
 62
     7
100
AcDbLine
 10
304.8104948376699
 20
188.9999999999899
 30
0.0
 11
315.1895051623276
 21
188.9999999999899
 31
0.0
  0
LINE
  5
177
330
1F
100
AcDbEntity
  8
LAY-10
  6
CONTINUOUS
 62
     7
100
AcDbLine
 10
306.764737480285
 20
223.9999999999898
 30
0.0
 11
313.2352625197149
 21
223.9999999999898
 31
0.0
  0
LINE
  5
178
330
1F
100
AcDbEntity
  8
LAY-10
  6
CONTINUOUS
 62
     7
100
AcDbLine
 10
363.4999999999989
 20
188.9999999999899
 30
0.0
 11
348.5693079519199
 21
188.9999999999899
 31
0.0
  0
ARC
  5
179
330
1F
100
AcDbEntity
  8
LAY-10
  6
CONTINUOUS
 62
     7
100
AcDbCircle
 10
266.5039220919245
 20
191.999999999988
 30
0.0
 40
1.0
100
AcDbArc
 50
30.00000000007346
 51
90.0
  0
LINE
  5
17A
330
1F
100
AcDbEntity
  8
LAY-10
  6
CONTINUOUS
 62
     7
100
AcDbLine
 10
270.8482647536331
 20
192.4999999999891
 30
0.0
 11
270.8796845535498
 21
192.5479642879326
 31
0.0
  0
LINE
  5
17B
330
1F
100
AcDbEntity
  8
LAY-10
  6
CONTINUOUS
 62
     7
100
AcDbLine
 10
276.6435935394442
 20
192.9999999999879
 30
0.0
 11
277.0962657732627
 21
192.9999999999879
 31
0.0
  0
LINE
  5
17C
330
1F
100
AcDbEntity
  8
LAY-10
  6
CONTINUOUS
 62
     7
100
AcDbLine
 10
282.1655233911985
 20
192.9999999999879
 30
0.0
 11
285.9867729989552
 21
192.9999999999879
 31
0.0
  0
LINE
  5
17D
330
1F
100
AcDbEntity
  8
LAY-10
  6
CONTINUOUS
 62
     7
100
AcDbLine
 10
291.9421102581678
 20
190.192944833155
 30
0.0
 11
291.7248437507201
 21
190.9552299771984
 31
0.0
  0
LINE
  5
17E
330
1F
100
AcDbEntity
  8
LAY-10
  6
CONTINUOUS
 62
     7
100
AcDbLine
 10
299.2167223274684
 20
190.2076201044857
 30
0.0
 11
299.7259937395223
 21
192.1034609801782
 31
0.0
  0
ARC
  5
17F
330
1F
100
AcDbEntity
  8
LAY-10
  6
CONTINUOUS
 62
     7
100
AcDbCircle
 10
299.474840334524
 20
192.6227318469944
 30
0.0
 40
0.3772681529984681
100
AcDbArc
 50
38.94793379935058
 51
151.5487802265473
  0
LINE
  5
180
330
1F
100
AcDbEntity
  8
LAY-10
  6
CONTINUOUS
 62
     7
100
AcDbLine
 10
292.0476148830712
 20
192.9999999999879
 30
0.0
 11
299.7760751702634
 21
192.9999999999879
 31
0.0
  0
LINE
  5
181
330
1F
100
AcDbEntity
  8
LAY-10
  6
CONTINUOUS
 62
     7
100
AcDbLine
 10
305.0338368539708
 20
192.9999999999879
 30
0.0
 11
314.966163146029
 21
192.9999999999879
 31
0.0
  0
LINE
  5
182
330
1F
100
AcDbEntity
  8
LAY-10
  6
CONTINUOUS
 62
     7
100
AcDbLine
 10
320.7832776725322
 20
190.2076201044857
 30
0.0
 11
320.2740062604773
 21
192.1034609801815
 31
0.0
  0
ARC
  5
183
330
1F
100
AcDbEntity
  8
LAY-10
  6
CONTINUOUS
 62
     7
100
AcDbCircle
 10
320.5251596654766
 20
192.6227318469944
 30
0.0
 40
0.3772681529984681
100
AcDbArc
 50
28.4512197734565
 51
141.0520662008396
  0
LINE
  5
184
330
1F
100
AcDbEntity
  8
LAY-10
  6
CONTINUOUS
 62
     7
100
AcDbLine
 10
328.0578897418327
 20
190.192944833155
 30
0.0
 11
328.27515624928
 21
190.9552299771969
 31
0.0
  0
LINE
  5
185
330
1F
100
AcDbEntity
  8
LAY-10
  6
CONTINUOUS
 62
     7
100
AcDbLine
 10
320.2239248297364
 20
192.9999999999879
 30
0.0
 11
327.9523851169286
 21
192.9999999999879
 31
0.0
  0
LINE
  5
186
330
1F
100
AcDbEntity
  8
LAY-10
  6
CONTINUOUS
 62
     7
100
AcDbLine
 10
334.0132270010446
 20
192.9999999999879
 30
0.0
 11
337.8344766088013
 21
192.9999999999879
 31
0.0
  0
LINE
  5
187
330
1F
100
AcDbEntity
  8
LAY-10
  6
CONTINUOUS
 62
     7
100
AcDbLine
 10
342.9037342267371
 20
192.9999999999879
 30
0.0
 11
343.3564064605556
 21
192.9999999999879
 31
0.0
  0
LINE
  5
188
330
1F
100
AcDbEntity
  8
LAY-10
  6
CONTINUOUS
 62
     7
100
AcDbLine
 10
347.4975111821958
 20
192.9999999999879
 30
0.0
 11
383.1327045983052
 21
192.9999999999879
 31
0.0
  0
LINE
  5
189
330
1F
100
AcDbEntity
  8
LAY-10
  6
CONTINUOUS
 62
     7
100
AcDbLine
 10
351.1010780572191
 20
189.467048596804
 30
0.0
 11
348.4441626575774
 21
189.467048596804
 31
0.0
  0
LINE
  5
18A
330
1F
100
AcDbEntity
  8
LAY-10
  6
CONTINUOUS
 62
     7
100
AcDbLine
 10
262.5000000000002
 20
180.9999999999926
 30
0.0
 11
256.5
 21
180.9999999999926
 31
0.0
  0
LINE
  5
18B
330
1F
100
AcDbEntity
  8
LAY-10
  6
CONTINUOUS
 62
     7
100
AcDbLine
 10
262.5000000000002
 20
192.4999999999905
 30
0.0
 11
262.5000000000002
 21
180.9999999999926
 31
0.0
  0
LINE
  5
18C
330
1F
100
AcDbEntity
  8
LAY-10
  6
CONTINUOUS
 62
     7
100
AcDbLine
 10
257.0000000000004
 20
180.4999999999926
 30
0.0
 11
262.0000000000005
 21
180.4999999999926
 31
0.0
  0
LINE
  5
18D
330
1F
100
AcDbEntity
  8
LAY-10
  6
CONTINUOUS
 62
     7
100
AcDbLine
 10
256.5
 20
192.4999999999905
 30
0.0
 11
256.5
 21
180.9999999999926
 31
0.0
  0
LINE
  5
18E
330
1F
100
AcDbEntity
  8
LAY-10
  6
CONTINUOUS
 62
     7
100
AcDbLine
 10
262.0000000000005
 20
180.4999999999926
 30
0.0
 11
262.5000000000002
 21
180.9999999999926
 31
0.0
  0
LINE
  5
18F
330
1F
100
AcDbEntity
  8
LAY-10
  6
CONTINUOUS
 62
     7
100
AcDbLine
 10
257.0000000000004
 20
180.4999999999926
 30
0.0
 11
256.5
 21
180.9999999999926
 31
0.0
  0
ARC
  5
190
330
1F
100
AcDbEntity
  8
LAY-10
  6
CONTINUOUS
 62
     7
100
AcDbCircle
 10
259.5000000000002
 20
190.1999999999906
 30
0.0
 40
6.300000000000004
100
AcDbArc
 50
95.46502379990869
 51
128.6821874534921
  0
ARC
  5
191
330
1F
100
AcDbEntity
  8
LAY-10
  6
CONTINUOUS
 62
     7
100
AcDbCircle
 10
259.5000000000002
 20
190.1999999999906
 30
0.0
 40
6.300000000000004
100
AcDbArc
 50
51.3178125464967
 51
84.53497620009915
  0
LINE
  5
192
330
1F
100
AcDbEntity
  8
LAY-10
  6
CONTINUOUS
 62
     7
100
AcDbLine
 10
258.9000000000004
 20
196.4713634880905
 30
0.0
 11
258.9000000000004
 21
193.9999999999905
 31
0.0
  0
LINE
  5
193
330
1F
100
AcDbEntity
  8
LAY-10
  6
CONTINUOUS
 62
     7
100
AcDbLine
 10
260.1000000000006
 20
193.9999999999905
 30
0.0
 11
258.9000000000004
 21
193.9999999999905
 31
0.0
  0
LINE
  5
194
330
1F
100
AcDbEntity
  8
LAY-10
  6
CONTINUOUS
 62
     7
100
AcDbLine
 10
260.1000000000006
 20
196.4713634880905
 30
0.0
 11
260.1000000000006
 21
193.9999999999905
 31
0.0
  0
LINE
  5
195
330
1F
100
AcDbEntity
  8
LAY-10
  6
CONTINUOUS
 62
     7
100
AcDbLine
 10
264.7481347569004
 20
192.4999999999905
 30
0.0
 11
254.2518652431002
 21
192.4999999999905
 31
0.0
  0
ARC
  5
196
330
1F
100
AcDbEntity
  8
LAY-10
  6
CONTINUOUS
 62
     7
100
AcDbCircle
 10
261.2500000000003
 20
192.3857492993903
 30
0.0
 40
3.500000000000003
100
AcDbArc
 50
1.870641730603566
 51
51.31781254649751
  0
ARC
  5
197
330
1F
100
AcDbEntity
  8
LAY-10
  6
CONTINUOUS
 62
     7
100
AcDbCircle
 10
257.7500000000002
 20
192.3857492993903
 30
0.0
 40
3.500000000000003
100
AcDbArc
 50
128.6821874534942
 51
178.1293582694113
  0
ARC
  5
198
330
1F
100
AcDbEntity
  8
LAY-10
  6
CONTINUOUS
 62
     7
100
AcDbCircle
 10
254.006775742655
 20
191.999999999988
 30
0.0
 40
1.0
100
AcDbArc
 50
2.999999999992558
 51
30.0000000001668
  0
ARC
  5
199
330
1F
100
AcDbEntity
  8
LAY-10
  6
CONTINUOUS
 62
     7
100
AcDbCircle
 10
254.006775742655
 20
191.999999999988
 30
0.0
 40
1.0
100
AcDbArc
 50
73.13283491895162
 51
90.0
  0
LINE
  5
19A
330
1F
100
AcDbEntity
  8
LAY-10
  6
CONTINUOUS
 62
     7
100
AcDbLine
 10
236.8672954016953
 20
192.9999999999879
 30
0.0
 11
254.304322116504
 21
192.9999999999879
 31
0.0
  0
LINE
  5
19B
330
1F
100
AcDbEntity
  8
LAY-10
  6
CONTINUOUS
 62
     7
100
AcDbLine
 10
264.6956778834966
 20
192.9999999999879
 30
0.0
 11
272.502488817804
 21
192.9999999999879
 31
0.0
  0
ARC
  5
19C
330
1F
100
AcDbEntity
  8
LAY-10
  6
CONTINUOUS
 62
     7
100
AcDbCircle
 10
256.1593746078294
 20
190.4670485968041
 30
0.0
 40
1.0
100
AcDbArc
 50
270.0
 51
289.9149809116872
  0
LINE
  5
19D
330
1F
100
AcDbEntity
  8
LAY-10
  6
CONTINUOUS
 62
     7
100
AcDbLine
 10
257.0000000000016
 20
177.4999999999899
 30
0.0
 11
257.0000000000016
 21
180.4999999999926
 31
0.0
  0
LINE
  5
19E
330
1F
100
AcDbEntity
  8
LAY-10
  6
CONTINUOUS
 62
     7
100
AcDbLine
 10
262.0000000000011
 20
177.4999999999899
 30
0.0
 11
262.0000000000011
 21
180.4999999999926
 31
0.0
  0
LINE
  5
19F
330
1F
100
AcDbEntity
  8
LAY-10
  6
CONTINUOUS
 62
     7
100
AcDbLine
 10
255.3682268009815
 20
184.9999999999879
 30
0.0
 11
257.0000000000004
 21
184.9999999999879
 31
0.0
  0
CIRCLE
  5
1A0
330
1F
100
AcDbEntity
  8
LAY-10
  6
CONTINUOUS
 62
     7
100
AcDbCircle
 10
310.0000000000001
 20
384.0000000000035
 30
0.0
 40
75.0
  0
LINE
  5
1A1
330
1F
100
AcDbEntity
  8
LAY-10
  6
CONTINUOUS
 62
     7
100
AcDbLine
 10
251.9630018403524
 20
373.4308541207556
 30
0.0
 11
253.9309329633761
 21
373.7892350118952
 31
0.0
  0
LINE
  5
1A2
330
1F
100
AcDbEntity
  8
LAY-10
  6
CONTINUOUS
 62
     7
100
AcDbLine
 10
250.1742537108354
 20
395.9113425332384
 30
0.0
 11
255.2762575189631
 21
394.9822141455788
 31
0.0
  0
LINE
  5
1A3
330
1F
100
AcDbEntity
  8
LAY-10
  6
CONTINUOUS
 62
     7
100
AcDbLine
 10
250.1742537108345
 20
372.088657466773
 30
0.0
 11
255.2762575189563
 21
373.0177858544285
 31
0.0
  0
LINE
  5
1A4
330
1F
100
AcDbEntity
  8
LAY-10
  6
CONTINUOUS
 62
     7
100
AcDbLine
 10
250.1742537108345
 20
372.088657466773
 30
0.0
 11
250.9708445323527
 21
373.2501718722604
 31
0.0
  0
LINE
  5
1A5
330
1F
100
AcDbEntity
  8
LAY-10
  6
CONTINUOUS
 62
     7
100
AcDbLine
 10
254.906121563529
 20
373.9668270807755
 30
0.0
 11
255.2762575189563
 21
373.0177858544285
 31
0.0
  0
LINE
  5
1A6
330
1F
100
AcDbEntity
  8
LAY-10
  6
CONTINUOUS
 62
     7
100
AcDbLine
 10
254.9061215635292
 20
394.0331729192328
 30
0.0
 11
255.2762575189631
 21
394.9822141455788
 31
0.0
  0
LINE
  5
1A7
330
1F
100
AcDbEntity
  8
LAY-10
  6
CONTINUOUS
 62
     7
100
AcDbLine
 10
250.9708445323532
 20
394.7498281277503
 30
0.0
 11
250.1742537108354
 21
395.9113425332384
 31
0.0
  0
ARC
  5
1A8
330
1F
100
AcDbEntity
  8
LAY-10
  6
CONTINUOUS
 62
     7
100
AcDbCircle
 10
310.0000000000001
 20
384.0000000000035
 30
0.0
 40
55.9999999999982
100
AcDbArc
 50
170.6841832434494
 51
189.3158167565483
  0
LINE
  5
1A9
330
1F
100
AcDbEntity
  8
LAY-10
  6
CONTINUOUS
 62
     7
100
AcDbLine
 10
253.9309329633769
 20
394.2107649881136
 30
0.0
 11
251.9630018403536
 21
394.5691458792544
 31
0.0
  0
ARC
  5
1AA
330
1F
100
AcDbEntity
  8
LAY-10
  6
CONTINUOUS
 62
     7
100
AcDbCircle
 10
310.0000000000001
 20
384.0000000000035
 30
0.0
 40
59.99999999999788
100
AcDbArc
 50
170.6501039670023
 51
189.3498960329945
  0
ARC
  5
1AB
330
1F
100
AcDbEntity
  8
LAY-10
  6
CONTINUOUS
 62
     7
100
AcDbCircle
 10
310.0000000000001
 20
384.0000000000035
 30
0.0
 40
60.99999999999648
100
AcDbArc
 50
168.7396254080341
 51
191.2603745919615
  0
ARC
  5
1AC
330
1F
100
AcDbEntity
  8
LAY-10
  6
CONTINUOUS
 62
     7
100
AcDbCircle
 10
310.0000000000001
 20
383.9999999999871
 30
0.0
 40
55.81484586264231
100
AcDbArc
 50
191.3476453391974
 51
198.6523546608187
  0
LINE
  5
1AD
330
1F
100
AcDbEntity
  8
LAY-10
  6
CONTINUOUS
 62
     7
100
AcDbLine
 10
264.1450551798384
 20
424.2283983715454
 30
0.0
 11
268.098955894052
 21
420.872747680391
 31
0.0
  0
LINE
  5
1AE
330
1F
100
AcDbEntity
  8
LAY-10
  6
CONTINUOUS
 62
     7
100
AcDbLine
 10
252.233712646605
 20
403.5973479176307
 30
0.0
 11
257.1167417484709
 21
401.8509948006567
 31
0.0
  0
LINE
  5
1AF
330
1F
100
AcDbEntity
  8
LAY-10
  6
CONTINUOUS
 62
     7
100
AcDbLine
 10
252.233712646605
 20
403.5973479176307
 30
0.0
 11
253.5043377372047
 21
404.2049534888852
 31
0.0
  0
LINE
  5
1B0
330
1F
100
AcDbEntity
  8
LAY-10
  6
CONTINUOUS
 62
     7
100
AcDbLine
 10
257.2707152213904
 20
402.8579565896258
 30
0.0
 11
257.1167417484709
 21
401.8509948006567
 31
0.0
  0
LINE
  5
1B1
330
1F
100
AcDbEntity
  8
LAY-10
  6
CONTINUOUS
 62
     7
100
AcDbLine
 10
267.3038881406194
 20
420.2359218468535
 30
0.0
 11
268.098955894052
 21
420.872747680391
 31
0.0
  0
LINE
  5
1B2
330
1F
100
AcDbEntity
  8
LAY-10
  6
CONTINUOUS
 62
     7
100
AcDbLine
 10
264.2541658649501
 20
422.8242019787722
 30
0.0
 11
264.1450551798384
 21
424.2283983715454
 31
0.0
  0
LINE
  5
1B3
330
1F
100
AcDbEntity
  8
LAY-10
  6
CONTINUOUS
 62
     7
100
AcDbLine
 10
266.5481460738469
 20
420.8773153900913
 30
0.0
 11
265.023058173981
 21
422.1716479075617
 31
0.0
  0
ARC
  5
1B4
330
1F
100
AcDbEntity
  8
LAY-10
  6
CONTINUOUS
 62
     7
100
AcDbCircle
 10
310.0000000000001
 20
384.0000000000035
 30
0.0
 40
55.9999999999982
100
AcDbArc
 50
140.6841832434495
 51
159.3158167565485
  0
ARC
  5
1B5
330
1F
100
AcDbEntity
  8
LAY-10
  6
CONTINUOUS
 62
     7
100
AcDbCircle
 10
310.0000000000001
 20
384.0000000000035
 30
0.0
 40
59.99999999999788
100
AcDbArc
 50
140.6501039670024
 51
159.3498960329951
  0
ARC
  5
1B6
330
1F
100
AcDbEntity
  8
LAY-10
  6
CONTINUOUS
 62
     7
100
AcDbCircle
 10
310.0000000000001
 20
384.0000000000035
 30
0.0
 40
60.99999999999648
100
AcDbArc
 50
138.739625408034
 51
161.2603745919619
  0
LINE
  5
1B7
330
1F
100
AcDbEntity
  8
LAY-10
  6
CONTINUOUS
 62
     7
100
AcDbLine
 10
254.4539122947307
 20
403.8653502520951
 30
0.0
 11
256.3373810857369
 21
403.1917516465409
 31
0.0
  0
LINE
  5
1B8
330
1F
100
AcDbEntity
  8
LAY-10
  6
CONTINUOUS
 62
     7
100
AcDbLine
 10
290.4026520823772
 20
441.7662873533836
 30
0.0
 11
292.1490051993505
 21
436.8832582515103
 31
0.0
  0
LINE
  5
1B9
330
1F
100
AcDbEntity
  8
LAY-10
  6
CONTINUOUS
 62
     7
100
AcDbLine
 10
269.7716016284616
 20
429.8549448201517
 30
0.0
 11
273.1272523196093
 21
425.9010441059411
 31
0.0
  0
LINE
  5
1BA
330
1F
100
AcDbEntity
  8
LAY-10
  6
CONTINUOUS
 62
     7
100
AcDbLine
 10
269.7716016284616
 20
429.8549448201517
 30
0.0
 11
271.1757980212344
 21
429.7458341350393
 31
0.0
  0
LINE
  5
1BB
330
1F
100
AcDbEntity
  8
LAY-10
  6
CONTINUOUS
 62
     7
100
AcDbLine
 10
273.7640781531511
 20
426.6961118593688
 30
0.0
 11
273.1272523196093
 21
425.9010441059411
 31
0.0
  0
LINE
  5
1BC
330
1F
100
AcDbEntity
  8
LAY-10
  6
CONTINUOUS
 62
     7
100
AcDbLine
 10
291.1420434103792
 20
436.7292847785971
 30
0.0
 11
292.1490051993505
 21
436.8832582515103
 31
0.0
  0
LINE
  5
1BD
330
1F
100
AcDbEntity
  8
LAY-10
  6
CONTINUOUS
 62
     7
100
AcDbLine
 10
289.7950465111218
 20
440.4956622627838
 30
0.0
 11
290.4026520823774
 21
441.7662873533836
 31
0.0
  0
LINE
  5
1BE
330
1F
100
AcDbEntity
  8
LAY-10
  6
CONTINUOUS
 62
     7
100
AcDbLine
 10
290.8082483534647
 20
437.6626189142503
 30
0.0
 11
290.1346497479117
 21
439.5460877052572
 31
0.0
  0
ARC
  5
1BF
330
1F
100
AcDbEntity
  8
LAY-10
  6
CONTINUOUS
 62
     7
100
AcDbCircle
 10
310.0000000000001
 20
383.9999999999871
 30
0.0
 40
55.9999999999982
100
AcDbArc
 50
110.6841832434493
 51
129.3158167565489
  0
ARC
  5
1C0
330
1F
100
AcDbEntity
  8
LAY-10
  6
CONTINUOUS
 62
     7
100
AcDbCircle
 10
310.0000000000001
 20
383.9999999999871
 30
0.0
 40
59.99999999999788
100
AcDbArc
 50
110.6501039670024
 51
129.3498960329948
  0
ARC
  5
1C1
330
1F
100
AcDbEntity
  8
LAY-10
  6
CONTINUOUS
 62
     7
100
AcDbCircle
 10
310.0000000000001
 20
383.9999999999871
 30
0.0
 40
60.99999999999648
100
AcDbArc
 50
108.739625408034
 51
131.260374591962
  0
LINE
  5
1C2
330
1F
100
AcDbEntity
  8
LAY-10
  6
CONTINUOUS
 62
     7
100
AcDbLine
 10
271.828352092444
 20
428.9769418260086
 30
0.0
 11
273.1226846099137
 21
427.4518539261418
 31
0.0
  0
LINE
  5
1C3
330
1F
100
AcDbEntity
  8
LAY-10
  6
CONTINUOUS
 62
     7
100
AcDbLine
 10
321.9113425332395
 20
443.8257462891684
 30
0.0
 11
320.9822141455799
 21
438.7237424810408
 31
0.0
  0
LINE
  5
1C4
330
1F
100
AcDbEntity
  8
LAY-10
  6
CONTINUOUS
 62
     7
100
AcDbLine
 10
298.0886574667741
 20
443.8257462891692
 30
0.0
 11
299.0177858544296
 21
438.7237424810476
 31
0.0
  0
LINE
  5
1C5
330
1F
100
AcDbEntity
  8
LAY-10
  6
CONTINUOUS
 62
     7
100
AcDbLine
 10
298.0886574667742
 20
443.8257462891692
 30
0.0
 11
299.2501718722617
 21
443.0291554676513
 31
0.0
  0
LINE
  5
1C6
330
1F
100
AcDbEntity
  8
LAY-10
  6
CONTINUOUS
 62
     7
100
AcDbLine
 10
299.9668270807766
 20
439.0938784364748
 30
0.0
 11
299.0177858544296
 21
438.7237424810476
 31
0.0
  0
LINE
  5
1C7
330
1F
100
AcDbEntity
  8
LAY-10
  6
CONTINUOUS
 62
     7
100
AcDbLine
 10
320.0331729192338
 20
439.0938784364744
 30
0.0
 11
320.9822141455799
 21
438.7237424810408
 31
0.0
  0
LINE
  5
1C8
330
1F
100
AcDbEntity
  8
LAY-10
  6
CONTINUOUS
 62
     7
100
AcDbLine
 10
320.7498281277514
 20
443.0291554676506
 30
0.0
 11
321.9113425332395
 21
443.8257462891682
 31
0.0
  0
LINE
  5
1C9
330
1F
100
AcDbEntity
  8
LAY-10
  6
CONTINUOUS
 62
     7
100
AcDbLine
 10
320.2107649881149
 20
440.0690670366267
 30
0.0
 11
320.5691458792555
 21
442.0369981596503
 31
0.0
  0
ARC
  5
1CA
330
1F
100
AcDbEntity
  8
LAY-10
  6
CONTINUOUS
 62
     7
100
AcDbCircle
 10
310.0000000000047
 20
384.0000000000035
 30
0.0
 40
55.9999999999982
100
AcDbArc
 50
80.68418324344954
 51
99.31581675654874
  0
ARC
  5
1CB
330
1F
100
AcDbEntity
  8
LAY-10
  6
CONTINUOUS
 62
     7
100
AcDbCircle
 10
310.0000000000047
 20
384.0000000000035
 30
0.0
 40
59.99999999999788
100
AcDbArc
 50
80.65010396700252
 51
99.34989603299468
  0
ARC
  5
1CC
330
1F
100
AcDbEntity
  8
LAY-10
  6
CONTINUOUS
 62
     7
100
AcDbCircle
 10
310.0000000000047
 20
384.0000000000035
 30
0.0
 40
60.99999999999648
100
AcDbArc
 50
78.73962540803402
 51
101.2603745919617
  0
LINE
  5
1CD
330
1F
100
AcDbEntity
  8
LAY-10
  6
CONTINUOUS
 62
     7
100
AcDbLine
 10
299.4308541207568
 20
442.0369981596513
 30
0.0
 11
299.7892350118963
 21
440.0690670366275
 31
0.0
  0
LINE
  5
1CE
330
1F
100
AcDbEntity
  8
LAY-10
  6
CONTINUOUS
 62
     7
100
AcDbLine
 10
252.2337126466033
 20
364.4026520823807
 30
0.0
 11
257.1167417484767
 21
366.149005199354
 31
0.0
  0
LINE
  5
1CF
330
1F
100
AcDbEntity
  8
LAY-10
  6
CONTINUOUS
 62
     7
100
AcDbLine
 10
264.1450551798355
 20
343.7716016284649
 30
0.0
 11
268.0989558940461
 21
347.1272523196129
 31
0.0
  0
LINE
  5
1D0
330
1F
100
AcDbEntity
  8
LAY-10
  6
CONTINUOUS
 62
     7
100
AcDbLine
 10
264.1450551798355
 20
343.7716016284649
 30
0.0
 11
264.2541658649477
 21
345.1757980212376
 31
0.0
  0
LINE
  5
1D1
330
1F
100
AcDbEntity
  8
LAY-10
  6
CONTINUOUS
 62
     7
100
AcDbLine
 10
267.3038881406184
 20
347.7640781531545
 30
0.0
 11
268.0989558940461
 21
347.1272523196129
 31
0.0
  0
LINE
  5
1D2
330
1F
100
AcDbEntity
  8
LAY-10
  6
CONTINUOUS
 62
     7
100
AcDbLine
 10
257.2707152213901
 20
365.1420434103827
 30
0.0
 11
257.1167417484767
 21
366.149005199354
 31
0.0
  0
LINE
  5
1D3
330
1F
100
AcDbEntity
  8
LAY-10
  6
CONTINUOUS
 62
     7
100
AcDbLine
 10
253.5043377372035
 20
363.7950465111251
 30
0.0
 11
252.2337126466035
 21
364.4026520823807
 31
0.0
  0
LINE
  5
1D4
330
1F
100
AcDbEntity
  8
LAY-10
  6
CONTINUOUS
 62
     7
100
AcDbLine
 10
256.3373810857368
 20
364.8082483534681
 30
0.0
 11
254.45391229473
 21
364.1346497479151
 31
0.0
  0
ARC
  5
1D5
330
1F
100
AcDbEntity
  8
LAY-10
  6
CONTINUOUS
 62
     7
100
AcDbCircle
 10
310.0000000000001
 20
384.0000000000035
 30
0.0
 40
55.9999999999982
100
AcDbArc
 50
200.6841832434494
 51
219.3158167565487
  0
ARC
  5
1D6
330
1F
100
AcDbEntity
  8
LAY-10
  6
CONTINUOUS
 62
     7
100
AcDbCircle
 10
310.0000000000001
 20
384.0000000000035
 30
0.0
 40
59.99999999999788
100
AcDbArc
 50
200.6501039670023
 51
219.3498960329947
  0
ARC
  5
1D7
330
1F
100
AcDbEntity
  8
LAY-10
  6
CONTINUOUS
 62
     7
100
AcDbCircle
 10
310.0000000000001
 20
384.0000000000035
 30
0.0
 40
60.99999999999648
100
AcDbArc
 50
198.739625408034
 51
221.2603745919618
  0
LINE
  5
1D8
330
1F
100
AcDbEntity
  8
LAY-10
  6
CONTINUOUS
 62
     7
100
AcDbLine
 10
265.0230581739786
 20
345.8283520924474
 30
0.0
 11
266.5481460738454
 21
347.1226846099169
 31
0.0
  0
LINE
  5
1D9
330
1F
100
AcDbEntity
  8
LAY-10
  6
CONTINUOUS
 62
     7
100
AcDbLine
 10
269.7716016284627
 20
338.1450551798416
 30
0.0
 11
273.127252319617
 21
342.0989558940552
 31
0.0
  0
LINE
  5
1DA
330
1F
100
AcDbEntity
  8
LAY-10
  6
CONTINUOUS
 62
     7
100
AcDbLine
 10
290.4026520823777
 20
326.2337126466082
 30
0.0
 11
292.1490051993517
 21
331.1167417484745
 31
0.0
  0
LINE
  5
1DB
330
1F
100
AcDbEntity
  8
LAY-10
  6
CONTINUOUS
 62
     7
100
AcDbLine
 10
290.4026520823777
 20
326.2337126466082
 30
0.0
 11
289.7950465111228
 21
327.504337737208
 31
0.0
  0
LINE
  5
1DC
330
1F
100
AcDbEntity
  8
LAY-10
  6
CONTINUOUS
 62
     7
100
AcDbLine
 10
291.1420434103826
 20
331.2707152213938
 30
0.0
 11
292.1490051993517
 21
331.1167417484745
 31
0.0
  0
LINE
  5
1DD
330
1F
100
AcDbEntity
  8
LAY-10
  6
CONTINUOUS
 62
     7
100
AcDbLine
 10
273.7640781531545
 20
341.3038881406226
 30
0.0
 11
273.127252319617
 21
342.0989558940552
 31
0.0
  0
LINE
  5
1DE
330
1F
100
AcDbEntity
  8
LAY-10
  6
CONTINUOUS
 62
     7
100
AcDbLine
 10
271.1757980212359
 20
338.2541658649534
 30
0.0
 11
269.7716016284627
 21
338.1450551798416
 31
0.0
  0
LINE
  5
1DF
330
1F
100
AcDbEntity
  8
LAY-10
  6
CONTINUOUS
 62
     7
100
AcDbLine
 10
273.1226846099171
 20
340.5481460738504
 30
0.0
 11
271.8283520924464
 21
339.0230581739843
 31
0.0
  0
ARC
  5
1E0
330
1F
100
AcDbEntity
  8
LAY-10
  6
CONTINUOUS
 62
     7
100
AcDbCircle
 10
310.0000000000047
 20
384.0000000000035
 30
0.0
 40
55.9999999999982
100
AcDbArc
 50
230.6841832434492
 51
249.3158167565487
  0
ARC
  5
1E1
330
1F
100
AcDbEntity
  8
LAY-10
  6
CONTINUOUS
 62
     7
100
AcDbCircle
 10
310.0000000000047
 20
384.0000000000035
 30
0.0
 40
59.99999999999788
100
AcDbArc
 50
230.6501039670024
 51
249.3498960329947
  0
ARC
  5
1E2
330
1F
100
AcDbEntity
  8
LAY-10
  6
CONTINUOUS
 62
     7
100
AcDbCircle
 10
310.0000000000047
 20
384.0000000000035
 30
0.0
 40
60.99999999999648
100
AcDbArc
 50
228.7396254080341
 51
251.2603745919621
  0
LINE
  5
1E3
330
1F
100
AcDbEntity
  8
LAY-10
  6
CONTINUOUS
 62
     7
100
AcDbLine
 10
290.1346497479129
 20
328.453912294734
 30
0.0
 11
290.8082483534671
 21
330.3373810857404
 31
0.0
  0
ARC
  5
1E4
330
1F
100
AcDbEntity
  8
LAY-10
  6
CONTINUOUS
 62
     7
100
AcDbCircle
 10
310.0000000000001
 20
383.9999999999871
 30
0.0
 40
55.81484586264231
100
AcDbArc
 50
101.3476453392064
 51
108.6523546608041
  0
ARC
  5
1E5
330
1F
100
AcDbEntity
  8
LAY-10
  6
CONTINUOUS
 62
     7
100
AcDbCircle
 10
310.0000000000001
 20
383.9999999999871
 30
0.0
 40
55.81484586264231
100
AcDbArc
 50
131.3476453392143
 51
138.6523546607718
  0
ARC
  5
1E6
330
1F
100
AcDbEntity
  8
LAY-10
  6
CONTINUOUS
 62
     7
100
AcDbCircle
 10
310.0000000000001
 20
383.9999999999871
 30
0.0
 40
55.81484586264231
100
AcDbArc
 50
161.3476453391983
 51
168.6523546607684
  0
ARC
  5
1E7
330
1F
100
AcDbEntity
  8
LAY-10
  6
CONTINUOUS
 62
     7
100
AcDbCircle
 10
310.0000000000001
 20
383.9999999999871
 30
0.0
 40
55.81484586264231
100
AcDbArc
 50
221.3476453391568
 51
228.6523546608862
  0
LINE
  5
1E8
330
1F
100
AcDbEntity
  8
LAY-10
  6
CONTINUOUS
 62
     7
100
AcDbLine
 10
255.2533969819448
 20
377.4849930475636
 30
0.0
 11
254.7440644764435
 21
378.0000000000035
 31
0.0
  0
LINE
  5
1E9
330
1F
100
AcDbEntity
  8
LAY-10
  6
CONTINUOUS
 62
     7
100
AcDbLine
 10
254.7440644764471
 20
390.0000000000035
 30
0.0
 11
255.2533969819448
 21
390.5150069524435
 31
0.0
  0
ARC
  5
1EA
330
1F
100
AcDbEntity
  8
LAY-10
  6
CONTINUOUS
 62
     7
100
AcDbCircle
 10
309.9999999999882
 20
384.0000000000035
 30
0.0
 40
55.58073776573366
100
AcDbArc
 50
85.87300520619857
 51
94.12699479377669
  0
LINE
  5
1EB
330
1F
100
AcDbEntity
  8
LAY-10
  6
CONTINUOUS
 62
     7
100
AcDbLine
 10
314.5150069524382
 20
438.947707593918
 30
0.0
 11
314.0000000000002
 21
439.436616153798
 31
0.0
  0
LINE
  5
1EC
330
1F
100
AcDbEntity
  8
LAY-10
  6
CONTINUOUS
 62
     7
100
AcDbLine
 10
305.4849930475624
 20
438.947707593918
 30
0.0
 11
306.0000000000002
 21
439.4366161537998
 31
0.0
  0
ARC
  5
1ED
330
1F
100
AcDbEntity
  8
LAY-10
  6
CONTINUOUS
 62
     7
100
AcDbCircle
 10
310.0000000000001
 20
384.0000000000035
 30
0.0
 40
55.13289270124415
100
AcDbArc
 50
94.69739310882827
 51
173.2135493406982
  0
ARC
  5
1EE
330
1F
100
AcDbEntity
  8
LAY-10
  6
CONTINUOUS
 62
     7
100
AcDbCircle
 10
319.5853266214615
 20
442.2161619617795
 30
0.0
 40
1.0
100
AcDbArc
 50
349.6789425580101
 51
80.65010396700676
  0
ARC
  5
1EF
330
1F
100
AcDbEntity
  8
LAY-10
  6
CONTINUOUS
 62
     7
100
AcDbCircle
 10
319.2269457303207
 20
440.2482308387562
 30
0.0
 40
1.0
100
AcDbArc
 50
260.6841832434494
 51
349.6789425579905
  0
ARC
  5
1F0
330
1F
100
AcDbEntity
  8
LAY-10
  6
CONTINUOUS
 62
     7
100
AcDbCircle
 10
300.7730542696906
 20
440.2482308387564
 30
0.0
 40
1.0
100
AcDbArc
 50
190.3210574419701
 51
279.3158167565411
  0
ARC
  5
1F1
330
1F
100
AcDbEntity
  8
LAY-10
  6
CONTINUOUS
 62
     7
100
AcDbCircle
 10
300.414673378551
 20
442.21616196178
 30
0.0
 40
1.0
100
AcDbArc
 50
99.3498960329933
 51
190.3210574419605
  0
ARC
  5
1F2
330
1F
100
AcDbEntity
  8
LAY-10
  6
CONTINUOUS
 62
     7
100
AcDbCircle
 10
289.1930553768649
 20
439.2093384804427
 30
0.0
 40
1.0
100
AcDbArc
 50
19.6789425580079
 51
110.6501039670004
  0
ARC
  5
1F3
330
1F
100
AcDbEntity
  8
LAY-10
  6
CONTINUOUS
 62
     7
100
AcDbCircle
 10
289.8666539824179
 20
437.3258696894359
 30
0.0
 40
1.0
100
AcDbArc
 50
290.6841832434435
 51
19.67894255799758
  0
ARC
  5
1F4
330
1F
100
AcDbEntity
  8
LAY-10
  6
CONTINUOUS
 62
     7
100
AcDbCircle
 10
272.5907826613618
 20
429.6240118589878
 30
0.0
 40
1.0
100
AcDbArc
 50
129.3498960329842
 51
220.3210574419602
  0
ARC
  5
1F5
330
1F
100
AcDbEntity
  8
LAY-10
  6
CONTINUOUS
 62
     7
100
AcDbCircle
 10
273.8851151788314
 20
428.098923959121
 30
0.0
 40
1.0
100
AcDbArc
 50
220.3210574419602
 51
309.3158167565433
  0
ARC
  5
1F6
330
1F
100
AcDbEntity
  8
LAY-10
  6
CONTINUOUS
 62
     7
100
AcDbCircle
 10
264.3759881410011
 20
421.4092173386443
 30
0.0
 40
1.0
100
AcDbArc
 50
49.67894255799828
 51
140.6501039670067
  0
ARC
  5
1F7
330
1F
100
AcDbEntity
  8
LAY-10
  6
CONTINUOUS
 62
     7
100
AcDbCircle
 10
265.9010760408672
 20
420.114884821174
 30
0.0
 40
1.0
100
AcDbArc
 50
320.6841832434407
 51
49.67894255799369
  0
ARC
  5
1F8
330
1F
100
AcDbEntity
  8
LAY-10
  6
CONTINUOUS
 62
     7
100
AcDbCircle
 10
254.7906615195456
 20
404.8069446231415
 30
0.0
 40
1.0
100
AcDbArc
 50
159.3498960329852
 51
250.3210574419644
  0
ARC
  5
1F9
330
1F
100
AcDbEntity
  8
LAY-10
  6
CONTINUOUS
 62
     7
100
AcDbCircle
 10
256.674130310552
 20
404.1333460175877
 30
0.0
 40
1.0
100
AcDbArc
 50
250.3210574419644
 51
339.3158167565495
  0
ARC
  5
1FA
330
1F
100
AcDbEntity
  8
LAY-10
  6
CONTINUOUS
 62
     7
100
AcDbCircle
 10
251.7838380382242
 20
393.5853266214604
 30
0.0
 40
1.0
100
AcDbArc
 50
79.67894255799989
 51
170.6501039670068
  0
ARC
  5
1FB
330
1F
100
AcDbEntity
  8
LAY-10
  6
CONTINUOUS
 62
     7
100
AcDbCircle
 10
253.7517691612477
 20
393.2269457303194
 30
0.0
 40
1.0
100
AcDbArc
 50
350.6841832434495
 51
79.67894255801009
  0
ARC
  5
1FC
330
1F
100
AcDbEntity
  8
LAY-10
  6
CONTINUOUS
 62
     7
100
AcDbCircle
 10
251.7838380382237
 20
374.4146733785499
 30
0.0
 40
1.0
100
AcDbArc
 50
189.3498960329933
 51
280.3210574419567
  0
ARC
  5
1FD
330
1F
100
AcDbEntity
  8
LAY-10
  6
CONTINUOUS
 62
     7
100
AcDbCircle
 10
253.7517691612474
 20
374.7730542696896
 30
0.0
 40
1.0
100
AcDbArc
 50
280.3210574419567
 51
9.315816756550658
  0
ARC
  5
1FE
330
1F
100
AcDbEntity
  8
LAY-10
  6
CONTINUOUS
 62
     7
100
AcDbCircle
 10
254.7906615195445
 20
363.1930553768685
 30
0.0
 40
1.0
100
AcDbArc
 50
109.678942558011
 51
200.6501039670148
  0
ARC
  5
1FF
330
1F
100
AcDbEntity
  8
LAY-10
  6
CONTINUOUS
 62
     7
100
AcDbCircle
 10
256.6741303105513
 20
363.8666539824213
 30
0.0
 40
1.0
100
AcDbArc
 50
20.68418324345061
 51
109.6789425580079
  0
ARC
  5
200
330
1F
100
AcDbEntity
  8
LAY-10
  6
CONTINUOUS
 62
     7
100
AcDbCircle
 10
264.3759881409993
 20
346.5907826613652
 30
0.0
 40
1.0
100
AcDbArc
 50
219.3498960329889
 51
310.3210574419625
  0
ARC
  5
201
330
1F
100
AcDbEntity
  8
LAY-10
  6
CONTINUOUS
 62
     7
100
AcDbCircle
 10
265.901076040866
 20
347.8851151788346
 30
0.0
 40
1.0
100
AcDbArc
 50
310.3210574419625
 51
39.31581675656866
  0
ARC
  5
202
330
1F
100
AcDbEntity
  8
LAY-10
  6
CONTINUOUS
 62
     7
100
AcDbCircle
 10
272.5907826613638
 20
338.3759881410045
 30
0.0
 40
1.0
100
AcDbArc
 50
139.6789425579891
 51
230.6501039669974
  0
ARC
  5
203
330
1F
100
AcDbEntity
  8
LAY-10
  6
CONTINUOUS
 62
     7
100
AcDbCircle
 10
273.8851151788343
 20
339.9010760408706
 30
0.0
 40
1.0
100
AcDbArc
 50
50.68418324345681
 51
139.6789425579891
  0
ARC
  5
204
330
1F
100
AcDbEntity
  8
LAY-10
  6
CONTINUOUS
 62
     7
100
AcDbCircle
 10
289.8666539824206
 20
330.6741303105553
 30
0.0
 40
1.0
100
AcDbArc
 50
340.3210574419716
 51
69.31581675654334
  0
ARC
  5
205
330
1F
100
AcDbEntity
  8
LAY-10
  6
CONTINUOUS
 62
     7
100
AcDbCircle
 10
289.1930553768665
 20
328.7906615195489
 30
0.0
 40
1.0
100
AcDbArc
 50
249.3498960330058
 51
340.3210574419716
  0
LINE
  5
206
330
1F
100
AcDbEntity
  8
LAY-10
  6
CONTINUOUS
 62
     7
100
AcDbLine
 10
259.5
 20
390.5150069524435
 30
0.0
 11
255.2533969819448
 21
390.5150069524435
 31
0.0
  0
LINE
  5
207
330
1F
100
AcDbEntity
  8
LAY-10
  6
CONTINUOUS
 62
     7
100
AcDbLine
 10
259.5
 20
390.0000000000035
 30
0.0
 11
254.7440644764471
 21
390.0000000000035
 31
0.0
  0
CIRCLE
  5
208
330
1F
100
AcDbEntity
  8
LAY-10
  6
CONTINUOUS
 62
     7
100
AcDbCircle
 10
310.0000000000001
 20
384.0000000000035
 30
0.0
 40
68.9999999999982
  0
CIRCLE
  5
209
330
1F
100
AcDbEntity
  8
LAY-10
  6
CONTINUOUS
 62
     7
100
AcDbCircle
 10
310.0000000000001
 20
384.0000000000035
 30
0.0
 40
74.0
  0
LINE
  5
20A
330
1F
100
AcDbEntity
  8
LAY-10
  6
CONTINUOUS
 62
     7
100
AcDbLine
 10
368.0369981596475
 20
373.4308541207556
 30
0.0
 11
366.0690670366238
 21
373.7892350118952
 31
0.0
  0
LINE
  5
20B
330
1F
100
AcDbEntity
  8
LAY-10
  6
CONTINUOUS
 62
     7
100
AcDbLine
 10
369.8257462891644
 20
395.9113425332384
 30
0.0
 11
364.7237424810368
 21
394.9822141455788
 31
0.0
  0
LINE
  5
20C
330
1F
100
AcDbEntity
  8
LAY-10
  6
CONTINUOUS
 62
     7
100
AcDbLine
 10
369.8257462891654
 20
372.088657466773
 30
0.0
 11
364.7237424810436
 21
373.0177858544285
 31
0.0
  0
LINE
  5
20D
330
1F
100
AcDbEntity
  8
LAY-10
  6
CONTINUOUS
 62
     7
100
AcDbLine
 10
369.8257462891654
 20
372.088657466773
 30
0.0
 11
369.0291554676472
 21
373.2501718722604
 31
0.0
  0
LINE
  5
20E
330
1F
100
AcDbEntity
  8
LAY-10
  6
CONTINUOUS
 62
     7
100
AcDbLine
 10
365.0938784364709
 20
373.9668270807755
 30
0.0
 11
364.7237424810436
 21
373.0177858544285
 31
0.0
  0
LINE
  5
20F
330
1F
100
AcDbEntity
  8
LAY-10
  6
CONTINUOUS
 62
     7
100
AcDbLine
 10
365.0938784364706
 20
394.0331729192328
 30
0.0
 11
364.7237424810368
 21
394.9822141455788
 31
0.0
  0
LINE
  5
210
330
1F
100
AcDbEntity
  8
LAY-10
  6
CONTINUOUS
 62
     7
100
AcDbLine
 10
369.0291554676467
 20
394.7498281277503
 30
0.0
 11
369.8257462891644
 21
395.9113425332384
 31
0.0
  0
ARC
  5
211
330
1F
100
AcDbEntity
  8
LAY-10
  6
CONTINUOUS
 62
     7
100
AcDbCircle
 10
309.9999999999998
 20
384.0000000000035
 30
0.0
 40
55.9999999999982
100
AcDbArc
 50
350.6841832434518
 51
9.315816756550658
  0
LINE
  5
212
330
1F
100
AcDbEntity
  8
LAY-10
  6
CONTINUOUS
 62
     7
100
AcDbLine
 10
366.0690670366229
 20
394.2107649881136
 30
0.0
 11
368.0369981596463
 21
394.5691458792544
 31
0.0
  0
ARC
  5
213
330
1F
100
AcDbEntity
  8
LAY-10
  6
CONTINUOUS
 62
     7
100
AcDbCircle
 10
309.9999999999998
 20
384.0000000000035
 30
0.0
 40
59.99999999999788
100
AcDbArc
 50
350.6501039670055
 51
9.349896032997744
  0
ARC
  5
214
330
1F
100
AcDbEntity
  8
LAY-10
  6
CONTINUOUS
 62
     7
100
AcDbCircle
 10
309.9999999999998
 20
384.0000000000035
 30
0.0
 40
60.99999999999648
100
AcDbArc
 50
348.7396254080386
 51
11.2603745919659
  0
ARC
  5
215
330
1F
100
AcDbEntity
  8
LAY-10
  6
CONTINUOUS
 62
     7
100
AcDbCircle
 10
309.9999999999998
 20
383.9999999999871
 30
0.0
 40
55.81484586264231
100
AcDbArc
 50
341.3476453391814
 51
348.6523546608029
  0
LINE
  5
216
330
1F
100
AcDbEntity
  8
LAY-10
  6
CONTINUOUS
 62
     7
100
AcDbLine
 10
355.8549448201615
 20
424.2283983715454
 30
0.0
 11
351.9010441059478
 21
420.872747680391
 31
0.0
  0
LINE
  5
217
330
1F
100
AcDbEntity
  8
LAY-10
  6
CONTINUOUS
 62
     7
100
AcDbLine
 10
367.7662873533949
 20
403.5973479176307
 30
0.0
 11
362.883258251529
 21
401.8509948006567
 31
0.0
  0
LINE
  5
218
330
1F
100
AcDbEntity
  8
LAY-10
  6
CONTINUOUS
 62
     7
100
AcDbLine
 10
367.7662873533949
 20
403.5973479176307
 30
0.0
 11
366.4956622627951
 21
404.2049534888852
 31
0.0
  0
LINE
  5
219
330
1F
100
AcDbEntity
  8
LAY-10
  6
CONTINUOUS
 62
     7
100
AcDbLine
 10
362.7292847786093
 20
402.8579565896258
 30
0.0
 11
362.883258251529
 21
401.8509948006567
 31
0.0
  0
LINE
  5
21A
330
1F
100
AcDbEntity
  8
LAY-10
  6
CONTINUOUS
 62
     7
100
AcDbLine
 10
352.6961118593805
 20
420.2359218468535
 30
0.0
 11
351.9010441059478
 21
420.872747680391
 31
0.0
  0
LINE
  5
21B
330
1F
100
AcDbEntity
  8
LAY-10
  6
CONTINUOUS
 62
     7
100
AcDbLine
 10
355.7458341350497
 20
422.8242019787722
 30
0.0
 11
355.8549448201615
 21
424.2283983715454
 31
0.0
  0
LINE
  5
21C
330
1F
100
AcDbEntity
  8
LAY-10
  6
CONTINUOUS
 62
     7
100
AcDbLine
 10
353.451853926153
 20
420.8773153900913
 30
0.0
 11
354.9769418260189
 21
422.1716479075617
 31
0.0
  0
ARC
  5
21D
330
1F
100
AcDbEntity
  8
LAY-10
  6
CONTINUOUS
 62
     7
100
AcDbCircle
 10
309.9999999999998
 20
384.0000000000035
 30
0.0
 40
55.9999999999982
100
AcDbArc
 50
20.68418324345159
 51
39.31581675655079
  0
ARC
  5
21E
330
1F
100
AcDbEntity
  8
LAY-10
  6
CONTINUOUS
 62
     7
100
AcDbCircle
 10
309.9999999999998
 20
384.0000000000035
 30
0.0
 40
59.99999999999788
100
AcDbArc
 50
20.6501039670053
 51
39.34989603299775
  0
ARC
  5
21F
330
1F
100
AcDbEntity
  8
LAY-10
  6
CONTINUOUS
 62
     7
100
AcDbCircle
 10
309.9999999999998
 20
384.0000000000035
 30
0.0
 40
60.99999999999648
100
AcDbArc
 50
18.73962540803818
 51
41.26037459196603
  0
LINE
  5
220
330
1F
100
AcDbEntity
  8
LAY-10
  6
CONTINUOUS
 62
     7
100
AcDbLine
 10
365.5460877052692
 20
403.8653502520951
 30
0.0
 11
363.662618914263
 21
403.1917516465409
 31
0.0
  0
LINE
  5
221
330
1F
100
AcDbEntity
  8
LAY-10
  6
CONTINUOUS
 62
     7
100
AcDbLine
 10
329.5973479176227
 20
441.7662873533836
 30
0.0
 11
327.8509948006494
 21
436.8832582515103
 31
0.0
  0
LINE
  5
222
330
1F
100
AcDbEntity
  8
LAY-10
  6
CONTINUOUS
 62
     7
100
AcDbLine
 10
350.2283983715382
 20
429.8549448201517
 30
0.0
 11
346.8727476803905
 21
425.9010441059411
 31
0.0
  0
LINE
  5
223
330
1F
100
AcDbEntity
  8
LAY-10
  6
CONTINUOUS
 62
     7
100
AcDbLine
 10
350.2283983715382
 20
429.8549448201517
 30
0.0
 11
348.8242019787655
 21
429.7458341350393
 31
0.0
  0
LINE
  5
224
330
1F
100
AcDbEntity
  8
LAY-10
  6
CONTINUOUS
 62
     7
100
AcDbLine
 10
346.2359218468488
 20
426.6961118593688
 30
0.0
 11
346.8727476803905
 21
425.9010441059411
 31
0.0
  0
LINE
  5
225
330
1F
100
AcDbEntity
  8
LAY-10
  6
CONTINUOUS
 62
     7
100
AcDbLine
 10
328.8579565896207
 20
436.7292847785971
 30
0.0
 11
327.8509948006494
 21
436.8832582515103
 31
0.0
  0
LINE
  5
226
330
1F
100
AcDbEntity
  8
LAY-10
  6
CONTINUOUS
 62
     7
100
AcDbLine
 10
330.2049534888781
 20
440.4956622627838
 30
0.0
 11
329.5973479176225
 21
441.7662873533836
 31
0.0
  0
LINE
  5
227
330
1F
100
AcDbEntity
  8
LAY-10
  6
CONTINUOUS
 62
     7
100
AcDbLine
 10
329.1917516465352
 20
437.6626189142503
 30
0.0
 11
329.8653502520881
 21
439.5460877052572
 31
0.0
  0
ARC
  5
228
330
1F
100
AcDbEntity
  8
LAY-10
  6
CONTINUOUS
 62
     7
100
AcDbCircle
 10
309.9999999999998
 20
383.9999999999871
 30
0.0
 40
55.9999999999982
100
AcDbArc
 50
50.68418324345137
 51
69.31581675655079
  0
ARC
  5
229
330
1F
100
AcDbEntity
  8
LAY-10
  6
CONTINUOUS
 62
     7
100
AcDbCircle
 10
309.9999999999998
 20
383.9999999999871
 30
0.0
 40
59.99999999999788
100
AcDbArc
 50
50.65010396700532
 51
69.34989603299788
  0
ARC
  5
22A
330
1F
100
AcDbEntity
  8
LAY-10
  6
CONTINUOUS
 62
     7
100
AcDbCircle
 10
309.9999999999998
 20
383.9999999999871
 30
0.0
 40
60.99999999999648
100
AcDbArc
 50
48.73962540803825
 51
71.2603745919661
  0
LINE
  5
22B
330
1F
100
AcDbEntity
  8
LAY-10
  6
CONTINUOUS
 62
     7
100
AcDbLine
 10
348.1716479075558
 20
428.9769418260086
 30
0.0
 11
346.8773153900862
 21
427.4518539261418
 31
0.0
  0
LINE
  5
22C
330
1F
100
AcDbEntity
  8
LAY-10
  6
CONTINUOUS
 62
     7
100
AcDbLine
 10
367.7662873533965
 20
364.4026520823807
 30
0.0
 11
362.8832582515232
 21
366.149005199354
 31
0.0
  0
LINE
  5
22D
330
1F
100
AcDbEntity
  8
LAY-10
  6
CONTINUOUS
 62
     7
100
AcDbLine
 10
355.8549448201644
 20
343.7716016284649
 30
0.0
 11
351.9010441059537
 21
347.1272523196129
 31
0.0
  0
LINE
  5
22E
330
1F
100
AcDbEntity
  8
LAY-10
  6
CONTINUOUS
 62
     7
100
AcDbLine
 10
355.8549448201644
 20
343.7716016284649
 30
0.0
 11
355.7458341350521
 21
345.1757980212376
 31
0.0
  0
LINE
  5
22F
330
1F
100
AcDbEntity
  8
LAY-10
  6
CONTINUOUS
 62
     7
100
AcDbLine
 10
352.6961118593814
 20
347.7640781531545
 30
0.0
 11
351.9010441059537
 21
347.1272523196129
 31
0.0
  0
LINE
  5
230
330
1F
100
AcDbEntity
  8
LAY-10
  6
CONTINUOUS
 62
     7
100
AcDbLine
 10
362.7292847786098
 20
365.1420434103827
 30
0.0
 11
362.8832582515232
 21
366.149005199354
 31
0.0
  0
LINE
  5
231
330
1F
100
AcDbEntity
  8
LAY-10
  6
CONTINUOUS
 62
     7
100
AcDbLine
 10
366.4956622627964
 20
363.7950465111251
 30
0.0
 11
367.7662873533964
 21
364.4026520823807
 31
0.0
  0
LINE
  5
232
330
1F
100
AcDbEntity
  8
LAY-10
  6
CONTINUOUS
 62
     7
100
AcDbLine
 10
363.662618914263
 20
364.8082483534681
 30
0.0
 11
365.5460877052698
 21
364.1346497479151
 31
0.0
  0
ARC
  5
233
330
1F
100
AcDbEntity
  8
LAY-10
  6
CONTINUOUS
 62
     7
100
AcDbCircle
 10
309.9999999999998
 20
384.0000000000035
 30
0.0
 40
55.9999999999982
100
AcDbArc
 50
320.6841832434512
 51
339.3158167565508
  0
ARC
  5
234
330
1F
100
AcDbEntity
  8
LAY-10
  6
CONTINUOUS
 62
     7
100
AcDbCircle
 10
309.9999999999998
 20
384.0000000000035
 30
0.0
 40
59.99999999999788
100
AcDbArc
 50
320.6501039670058
 51
339.3498960329981
  0
ARC
  5
235
330
1F
100
AcDbEntity
  8
LAY-10
  6
CONTINUOUS
 62
     7
100
AcDbCircle
 10
309.9999999999998
 20
384.0000000000035
 30
0.0
 40
60.99999999999648
100
AcDbArc
 50
318.7396254080383
 51
341.2603745919661
  0
LINE
  5
236
330
1F
100
AcDbEntity
  8
LAY-10
  6
CONTINUOUS
 62
     7
100
AcDbLine
 10
354.9769418260213
 20
345.8283520924474
 30
0.0
 11
353.4518539261545
 21
347.1226846099169
 31
0.0
  0
LINE
  5
237
330
1F
100
AcDbEntity
  8
LAY-10
  6
CONTINUOUS
 62
     7
100
AcDbLine
 10
350.2283983715371
 20
338.1450551798416
 30
0.0
 11
346.8727476803829
 21
342.0989558940552
 31
0.0
  0
LINE
  5
238
330
1F
100
AcDbEntity
  8
LAY-10
  6
CONTINUOUS
 62
     7
100
AcDbLine
 10
329.5973479176222
 20
326.2337126466082
 30
0.0
 11
327.8509948006482
 21
331.1167417484745
 31
0.0
  0
LINE
  5
239
330
1F
100
AcDbEntity
  8
LAY-10
  6
CONTINUOUS
 62
     7
100
AcDbLine
 10
329.5973479176222
 20
326.2337126466082
 30
0.0
 11
330.2049534888771
 21
327.504337737208
 31
0.0
  0
LINE
  5
23A
330
1F
100
AcDbEntity
  8
LAY-10
  6
CONTINUOUS
 62
     7
100
AcDbLine
 10
328.8579565896173
 20
331.2707152213938
 30
0.0
 11
327.8509948006482
 21
331.1167417484745
 31
0.0
  0
LINE
  5
23B
330
1F
100
AcDbEntity
  8
LAY-10
  6
CONTINUOUS
 62
     7
100
AcDbLine
 10
346.2359218468454
 20
341.3038881406226
 30
0.0
 11
346.8727476803829
 21
342.0989558940552
 31
0.0
  0
LINE
  5
23C
330
1F
100
AcDbEntity
  8
LAY-10
  6
CONTINUOUS
 62
     7
100
AcDbLine
 10
348.8242019787639
 20
338.2541658649534
 30
0.0
 11
350.2283983715371
 21
338.1450551798416
 31
0.0
  0
LINE
  5
23D
330
1F
100
AcDbEntity
  8
LAY-10
  6
CONTINUOUS
 62
     7
100
AcDbLine
 10
346.8773153900828
 20
340.5481460738504
 30
0.0
 11
348.1716479075534
 21
339.0230581739843
 31
0.0
  0
ARC
  5
23E
330
1F
100
AcDbEntity
  8
LAY-10
  6
CONTINUOUS
 62
     7
100
AcDbCircle
 10
309.9999999999952
 20
384.0000000000035
 30
0.0
 40
55.9999999999982
100
AcDbArc
 50
290.6841832434513
 51
309.3158167565511
  0
ARC
  5
23F
330
1F
100
AcDbEntity
  8
LAY-10
  6
CONTINUOUS
 62
     7
100
AcDbCircle
 10
309.9999999999952
 20
384.0000000000035
 30
0.0
 40
59.99999999999788
100
AcDbArc
 50
290.6501039670054
 51
309.349896032998
  0
ARC
  5
240
330
1F
100
AcDbEntity
  8
LAY-10
  6
CONTINUOUS
 62
     7
100
AcDbCircle
 10
309.9999999999952
 20
384.0000000000035
 30
0.0
 40
60.99999999999648
100
AcDbArc
 50
288.7396254080382
 51
311.2603745919662
  0
LINE
  5
241
330
1F
100
AcDbEntity
  8
LAY-10
  6
CONTINUOUS
 62
     7
100
AcDbLine
 10
329.865350252087
 20
328.453912294734
 30
0.0
 11
329.1917516465328
 21
330.3373810857404
 31
0.0
  0
ARC
  5
242
330
1F
100
AcDbEntity
  8
LAY-10
  6
CONTINUOUS
 62
     7
100
AcDbCircle
 10
309.9999999999998
 20
383.9999999999871
 30
0.0
 40
55.81484586264231
100
AcDbArc
 50
41.34764533922839
 51
48.65235466078585
  0
ARC
  5
243
330
1F
100
AcDbEntity
  8
LAY-10
  6
CONTINUOUS
 62
     7
100
AcDbCircle
 10
309.9999999999998
 20
383.9999999999871
 30
0.0
 40
55.81484586264231
100
AcDbArc
 50
11.34764533923158
 51
18.65235466080189
  0
ARC
  5
244
330
1F
100
AcDbEntity
  8
LAY-10
  6
CONTINUOUS
 62
     7
100
AcDbCircle
 10
309.9999999999998
 20
383.9999999999871
 30
0.0
 40
55.81484586264231
100
AcDbArc
 50
311.3476453391139
 51
318.6523546608434
  0
LINE
  5
245
330
1F
100
AcDbEntity
  8
LAY-10
  6
CONTINUOUS
 62
     7
100
AcDbLine
 10
364.7466030180551
 20
377.4849930475636
 30
0.0
 11
365.2559355235564
 21
378.0000000000035
 31
0.0
  0
LINE
  5
246
330
1F
100
AcDbEntity
  8
LAY-10
  6
CONTINUOUS
 62
     7
100
AcDbLine
 10
365.2559355235527
 20
390.0000000000035
 30
0.0
 11
364.7466030180551
 21
390.5150069524435
 31
0.0
  0
ARC
  5
247
330
1F
100
AcDbEntity
  8
LAY-10
  6
CONTINUOUS
 62
     7
100
AcDbCircle
 10
330.8069446231349
 20
439.2093384804427
 30
0.0
 40
1.0
100
AcDbArc
 50
69.34989603300579
 51
160.3210574419921
  0
ARC
  5
248
330
1F
100
AcDbEntity
  8
LAY-10
  6
CONTINUOUS
 62
     7
100
AcDbCircle
 10
330.133346017582
 20
437.3258696894359
 30
0.0
 40
1.0
100
AcDbArc
 50
160.3210574420025
 51
249.3158167565495
  0
ARC
  5
249
330
1F
100
AcDbEntity
  8
LAY-10
  6
CONTINUOUS
 62
     7
100
AcDbCircle
 10
347.4092173386381
 20
429.6240118589878
 30
0.0
 40
1.0
100
AcDbArc
 50
319.67894255804
 51
50.65010396702748
  0
ARC
  5
24A
330
1F
100
AcDbEntity
  8
LAY-10
  6
CONTINUOUS
 62
     7
100
AcDbCircle
 10
346.1148848211685
 20
428.098923959121
 30
0.0
 40
1.0
100
AcDbArc
 50
230.6841832434452
 51
319.67894255804
  0
ARC
  5
24B
330
1F
100
AcDbEntity
  8
LAY-10
  6
CONTINUOUS
 62
     7
100
AcDbCircle
 10
355.6240118589986
 20
421.4092173386443
 30
0.0
 40
1.0
100
AcDbArc
 50
39.3498960329934
 51
130.3210574420017
  0
ARC
  5
24C
330
1F
100
AcDbEntity
  8
LAY-10
  6
CONTINUOUS
 62
     7
100
AcDbCircle
 10
354.0989239591325
 20
420.114884821174
 30
0.0
 40
1.0
100
AcDbArc
 50
130.3210574420017
 51
219.3158167565687
  0
ARC
  5
24D
330
1F
100
AcDbEntity
  8
LAY-10
  6
CONTINUOUS
 62
     7
100
AcDbCircle
 10
365.2093384804542
 20
404.8069446231415
 30
0.0
 40
1.0
100
AcDbArc
 50
289.6789425580358
 51
20.65010396701481
  0
ARC
  5
24E
330
1F
100
AcDbEntity
  8
LAY-10
  6
CONTINUOUS
 62
     7
100
AcDbCircle
 10
363.3258696894479
 20
404.1333460175877
 30
0.0
 40
1.0
100
AcDbArc
 50
200.6841832434506
 51
289.6789425580358
  0
ARC
  5
24F
330
1F
100
AcDbEntity
  8
LAY-10
  6
CONTINUOUS
 62
     7
100
AcDbCircle
 10
368.2161619617756
 20
393.5853266214604
 30
0.0
 40
1.0
100
AcDbArc
 50
9.349896032993275
 51
100.3210574420001
  0
ARC
  5
250
330
1F
100
AcDbEntity
  8
LAY-10
  6
CONTINUOUS
 62
     7
100
AcDbCircle
 10
366.2482308387522
 20
393.2269457303194
 30
0.0
 40
1.0
100
AcDbArc
 50
100.3210574419969
 51
189.3158167565507
  0
ARC
  5
251
330
1F
100
AcDbEntity
  8
LAY-10
  6
CONTINUOUS
 62
     7
100
AcDbCircle
 10
368.2161619617762
 20
374.4146733785499
 30
0.0
 40
1.0
100
AcDbArc
 50
259.6789425580395
 51
350.6501039670062
  0
ARC
  5
252
330
1F
100
AcDbEntity
  8
LAY-10
  6
CONTINUOUS
 62
     7
100
AcDbCircle
 10
366.2482308387524
 20
374.7730542696896
 30
0.0
 40
1.0
100
AcDbArc
 50
170.6841832434494
 51
259.6789425580466
  0
ARC
  5
253
330
1F
100
AcDbEntity
  8
LAY-10
  6
CONTINUOUS
 62
     7
100
AcDbCircle
 10
365.2093384804554
 20
363.1930553768685
 30
0.0
 40
1.0
100
AcDbArc
 50
339.3498960329854
 51
70.32105744199626
  0
ARC
  5
254
330
1F
100
AcDbEntity
  8
LAY-10
  6
CONTINUOUS
 62
     7
100
AcDbCircle
 10
363.3258696894486
 20
363.8666539824213
 30
0.0
 40
1.0
100
AcDbArc
 50
70.32105744199936
 51
159.3158167565494
  0
ARC
  5
255
330
1F
100
AcDbEntity
  8
LAY-10
  6
CONTINUOUS
 62
     7
100
AcDbCircle
 10
355.6240118590006
 20
346.5907826613652
 30
0.0
 40
1.0
100
AcDbArc
 50
229.6789425580353
 51
320.6501039670021
  0
ARC
  5
256
330
1F
100
AcDbEntity
  8
LAY-10
  6
CONTINUOUS
 62
     7
100
AcDbCircle
 10
354.0989239591339
 20
347.8851151788346
 30
0.0
 40
1.0
100
AcDbArc
 50
140.6841832434313
 51
229.6789425580353
  0
ARC
  5
257
330
1F
100
AcDbEntity
  8
LAY-10
  6
CONTINUOUS
 62
     7
100
AcDbCircle
 10
347.409217338636
 20
338.3759881410045
 30
0.0
 40
1.0
100
AcDbArc
 50
309.3498960330026
 51
40.32105744201092
  0
ARC
  5
258
330
1F
100
AcDbEntity
  8
LAY-10
  6
CONTINUOUS
 62
     7
100
AcDbCircle
 10
346.1148848211656
 20
339.9010760408706
 30
0.0
 40
1.0
100
AcDbArc
 50
40.32105744201092
 51
129.3158167565525
  0
ARC
  5
259
330
1F
100
AcDbEntity
  8
LAY-10
  6
CONTINUOUS
 62
     7
100
AcDbCircle
 10
330.1333460175792
 20
330.6741303105553
 30
0.0
 40
1.0
100
AcDbArc
 50
110.6841832434639
 51
199.6789425580286
  0
ARC
  5
25A
330
1F
100
AcDbEntity
  8
LAY-10
  6
CONTINUOUS
 62
     7
100
AcDbCircle
 10
330.8069446231334
 20
328.7906615195489
 30
0.0
 40
1.0
100
AcDbArc
 50
199.6789425580286
 51
290.6501039669902
  0
ARC
  5
25B
330
1F
100
AcDbEntity
  8
LAY-10
  6
CONTINUOUS
 62
     7
100
AcDbCircle
 10
310.0000000000001
 20
384.0000000000035
 30
0.0
 40
55.13289270124415
100
AcDbArc
 50
6.786450659301838
 51
85.30260689117162
  0
LINE
  5
25C
330
1F
100
AcDbEntity
  8
LAY-10
  6
CONTINUOUS
 62
     7
100
AcDbLine
 10
321.9113425332395
 20
324.1742537108387
 30
0.0
 11
320.9822141455799
 21
329.2762575189661
 31
0.0
  0
LINE
  5
25D
330
1F
100
AcDbEntity
  8
LAY-10
  6
CONTINUOUS
 62
     7
100
AcDbLine
 10
298.0886574667741
 20
324.1742537108377
 30
0.0
 11
299.0177858544296
 21
329.2762575189593
 31
0.0
  0
LINE
  5
25E
330
1F
100
AcDbEntity
  8
LAY-10
  6
CONTINUOUS
 62
     7
100
AcDbLine
 10
298.0886574667742
 20
324.1742537108377
 30
0.0
 11
299.2501718722617
 21
324.9708445323557
 31
0.0
  0
LINE
  5
25F
330
1F
100
AcDbEntity
  8
LAY-10
  6
CONTINUOUS
 62
     7
100
AcDbLine
 10
299.9668270807766
 20
328.9061215635322
 30
0.0
 11
299.0177858544296
 21
329.2762575189593
 31
0.0
  0
LINE
  5
260
330
1F
100
AcDbEntity
  8
LAY-10
  6
CONTINUOUS
 62
     7
100
AcDbLine
 10
320.0331729192338
 20
328.9061215635325
 30
0.0
 11
320.9822141455799
 21
329.2762575189661
 31
0.0
  0
LINE
  5
261
330
1F
100
AcDbEntity
  8
LAY-10
  6
CONTINUOUS
 62
     7
100
AcDbLine
 10
320.7498281277514
 20
324.9708445323564
 30
0.0
 11
321.9113425332395
 21
324.1742537108387
 31
0.0
  0
LINE
  5
262
330
1F
100
AcDbEntity
  8
LAY-10
  6
CONTINUOUS
 62
     7
100
AcDbLine
 10
320.2107649881149
 20
327.9309329633803
 30
0.0
 11
320.5691458792555
 21
325.9630018403566
 31
0.0
  0
ARC
  5
263
330
1F
100
AcDbEntity
  8
LAY-10
  6
CONTINUOUS
 62
     7
100
AcDbCircle
 10
310.0000000000047
 20
384.0000000000035
 30
0.0
 40
55.9999999999982
100
AcDbArc
 50
260.6841832434516
 51
279.3158167565506
  0
ARC
  5
264
330
1F
100
AcDbEntity
  8
LAY-10
  6
CONTINUOUS
 62
     7
100
AcDbCircle
 10
310.0000000000047
 20
384.0000000000035
 30
0.0
 40
59.99999999999788
100
AcDbArc
 50
260.6501039670056
 51
279.3498960329975
  0
ARC
  5
265
330
1F
100
AcDbEntity
  8
LAY-10
  6
CONTINUOUS
 62
     7
100
AcDbCircle
 10
310.0000000000047
 20
384.0000000000035
 30
0.0
 40
60.99999999999648
100
AcDbArc
 50
258.7396254080381
 51
281.2603745919662
  0
LINE
  5
266
330
1F
100
AcDbEntity
  8
LAY-10
  6
CONTINUOUS
 62
     7
100
AcDbLine
 10
299.4308541207568
 20
325.9630018403556
 30
0.0
 11
299.7892350118963
 21
327.9309329633796
 31
0.0
  0
ARC
  5
267
330
1F
100
AcDbEntity
  8
LAY-10
  6
CONTINUOUS
 62
     7
100
AcDbCircle
 10
309.9999999999882
 20
384.0000000000035
 30
0.0
 40
55.58073776573366
100
AcDbArc
 50
265.8730052062236
 51
274.1269947938018
  0
LINE
  5
268
330
1F
100
AcDbEntity
  8
LAY-10
  6
CONTINUOUS
 62
     7
100
AcDbLine
 10
314.5150069524382
 20
329.0522924060891
 30
0.0
 11
314.0000000000002
 21
328.563383846209
 31
0.0
  0
LINE
  5
269
330
1F
100
AcDbEntity
  8
LAY-10
  6
CONTINUOUS
 62
     7
100
AcDbLine
 10
305.4849930475624
 20
329.0522924060891
 30
0.0
 11
306.0000000000002
 21
328.5633838462073
 31
0.0
  0
ARC
  5
26A
330
1F
100
AcDbEntity
  8
LAY-10
  6
CONTINUOUS
 62
     7
100
AcDbCircle
 10
319.5853266214615
 20
325.7838380382274
 30
0.0
 40
1.0
100
AcDbArc
 50
279.3498960329934
 51
10.32105744198994
  0
ARC
  5
26B
330
1F
100
AcDbEntity
  8
LAY-10
  6
CONTINUOUS
 62
     7
100
AcDbCircle
 10
319.2269457303207
 20
327.7517691612507
 30
0.0
 40
1.0
100
AcDbArc
 50
10.3210574420097
 51
99.31581675655069
  0
ARC
  5
26C
330
1F
100
AcDbEntity
  8
LAY-10
  6
CONTINUOUS
 62
     7
100
AcDbCircle
 10
300.7730542696906
 20
327.7517691612507
 30
0.0
 40
1.0
100
AcDbArc
 50
80.684183243459
 51
169.6789425580299
  0
ARC
  5
26D
330
1F
100
AcDbEntity
  8
LAY-10
  6
CONTINUOUS
 62
     7
100
AcDbCircle
 10
300.414673378551
 20
325.7838380382271
 30
0.0
 40
1.0
100
AcDbArc
 50
169.6789425580497
 51
260.6501039670069
  0
ARC
  5
26E
330
1F
100
AcDbEntity
  8
LAY-10
  6
CONTINUOUS
 62
     7
100
AcDbCircle
 10
310.0000000000001
 20
384.0000000000035
 30
0.0
 40
55.13289270124415
100
AcDbArc
 50
186.7864506593017
 51
265.3026068911716
  0
ARC
  5
26F
330
1F
100
AcDbEntity
  8
LAY-10
  6
CONTINUOUS
 62
     7
100
AcDbCircle
 10
309.9999999999998
 20
384.0000000000035
 30
0.0
 40
55.13289270124415
100
AcDbArc
 50
274.6973931088295
 51
353.2135493406984
  0
ARC
  5
270
330
1F
100
AcDbEntity
  8
LAY-10
  6
CONTINUOUS
 62
     7
100
AcDbCircle
 10
310.0000000000001
 20
384.0000000000198
 30
0.0
 40
55.81484586264231
100
AcDbArc
 50
251.3476453391962
 51
258.6523546607935
  0
ARC
  5
271
330
1F
100
AcDbEntity
  8
LAY-10
  6
CONTINUOUS
 62
     7
100
AcDbCircle
 10
309.9999999999998
 20
383.9999999999871
 30
0.0
 40
55.81484586264231
100
AcDbArc
 50
71.34764533919619
 51
78.65235466079366
  0
ARC
  5
272
330
1F
100
AcDbEntity
  8
LAY-10
  6
CONTINUOUS
 62
     7
100
AcDbCircle
 10
309.9999999999998
 20
384.0000000000198
 30
0.0
 40
55.81484586264231
100
AcDbArc
 50
281.3476453392064
 51
288.6523546608042
  0
CIRCLE
  5
273
330
1F
100
AcDbEntity
  8
LAY-10
  6
CONTINUOUS
 62
     7
100
AcDbCircle
 10
259.5000000000003
 20
384.0000000000101
 30
0.0
 40
5.250000000000004
  0
LINE
  5
274
330
1F
100
AcDbEntity
  8
LAY-10
  6
CONTINUOUS
 62
     7
100
AcDbLine
 10
264.4633927678604
 20
385.7109156121778
 30
0.0
 11
255.5366072321966
 21
380.5570335801741
 31
0.0
  0
LINE
  5
275
330
1F
100
AcDbEntity
  8
LAY-10
  6
CONTINUOUS
 62
     7
100
AcDbLine
 10
263.4633927678628
 20
387.4429664197798
 30
0.0
 11
254.5366072321695
 21
382.2890843877591
 31
0.0
  0
CIRCLE
  5
276
330
1F
100
AcDbEntity
  8
LAY-10
  6
CONTINUOUS
 62
     7
100
AcDbCircle
 10
360.5000000000003
 20
384.0000000000101
 30
0.0
 40
5.250000000000004
  0
LINE
  5
277
330
1F
100
AcDbEntity
  8
LAY-10
  6
CONTINUOUS
 62
     7
100
AcDbLine
 10
365.4633927678604
 20
385.7109156121778
 30
0.0
 11
356.5366072321966
 21
380.5570335801741
 31
0.0
  0
LINE
  5
278
330
1F
100
AcDbEntity
  8
LAY-10
  6
CONTINUOUS
 62
     7
100
AcDbLine
 10
364.4633927678628
 20
387.4429664197798
 30
0.0
 11
355.5366072321695
 21
382.2890843877591
 31
0.0
  0
LINE
  5
279
330
1F
100
AcDbEntity
  8
LAY-10
  6
CONTINUOUS
 62
     7
100
AcDbLine
 10
307.5000000000099
 20
413.0838359663857
 30
0.0
 11
307.5000000000099
 21
422.2196818775968
 31
0.0
  0
LINE
  5
27A
330
1F
100
AcDbEntity
  8
LAY-10
  6
CONTINUOUS
 62
     7
100
AcDbLine
 10
300.4544018353812
 20
411.586247845606
 30
0.0
 11
296.7385185377974
 21
419.9322583795156
 31
0.0
  0
LINE
  5
27B
330
1F
100
AcDbEntity
  8
LAY-10
  6
CONTINUOUS
 62
     7
100
AcDbLine
 10
295.8866745471681
 20
409.5525646302269
 30
0.0
 11
292.1707912495845
 21
417.8985751641366
 31
0.0
  0
LINE
  5
27C
330
1F
100
AcDbEntity
  8
LAY-10
  6
CONTINUOUS
 62
     7
100
AcDbLine
 10
290.0593243124526
 20
405.318746859127
 30
0.0
 11
283.2700676971774
 21
411.4318209732968
 31
0.0
  0
LINE
  5
27D
330
1F
100
AcDbEntity
  8
LAY-10
  6
CONTINUOUS
 62
     7
100
AcDbLine
 10
286.7136712806584
 20
401.60302273174
 30
0.0
 11
279.924414665383
 21
407.7160968459098
 31
0.0
  0
LINE
  5
27E
330
1F
100
AcDbEntity
  8
LAY-10
  6
CONTINUOUS
 62
     7
100
AcDbLine
 10
283.1121707712534
 20
395.36504086597
 30
0.0
 11
274.4234649855276
 21
398.188172510525
 31
0.0
  0
LINE
  5
27F
330
1F
100
AcDbEntity
  8
LAY-10
  6
CONTINUOUS
 62
     7
100
AcDbLine
 10
281.5670857993787
 20
390.6097582844942
 30
0.0
 11
272.878380013653
 21
393.4328899290493
 31
0.0
  0
LINE
  5
280
330
1F
100
AcDbEntity
  8
LAY-10
  6
CONTINUOUS
 62
     7
100
AcDbLine
 10
280.8141671719652
 20
383.4462160589318
 30
0.0
 11
271.7283683805551
 21
382.4912601251829
 31
0.0
  0
LINE
  5
281
330
1F
100
AcDbEntity
  8
LAY-10
  6
CONTINUOUS
 62
     7
100
AcDbLine
 10
281.3368094883035
 20
378.4736065820905
 30
0.0
 11
272.2510106968933
 21
377.5186506483415
 31
0.0
  0
LINE
  5
282
330
1F
100
AcDbEntity
  8
LAY-10
  6
CONTINUOUS
 62
     7
100
AcDbLine
 10
283.5626592136123
 20
371.6231455262737
 30
0.0
 11
275.6507845694435
 21
367.0552225706681
 31
0.0
  0
LINE
  5
283
330
1F
100
AcDbEntity
  8
LAY-10
  6
CONTINUOUS
 62
     7
100
AcDbLine
 10
286.0626592136124
 20
367.2930185073515
 30
0.0
 11
278.1507845694434
 21
362.7250955517459
 31
0.0
  0
LINE
  5
284
330
1F
100
AcDbEntity
  8
LAY-10
  6
CONTINUOUS
 62
     7
100
AcDbLine
 10
290.8824076529278
 20
361.9401455723158
 30
0.0
 11
285.5124921591015
 21
354.5490909721552
 31
0.0
  0
LINE
  5
285
330
1F
100
AcDbEntity
  8
LAY-10
  6
CONTINUOUS
 62
     7
100
AcDbLine
 10
294.9274926248025
 20
359.0012193108535
 30
0.0
 11
289.5575771309763
 21
351.6101647106929
 31
0.0
  0
LINE
  5
286
330
1F
100
AcDbEntity
  8
LAY-10
  6
CONTINUOUS
 62
     7
100
AcDbLine
 10
301.5077614869268
 20
356.0714948563906
 30
0.0
 11
299.6083123164765
 21
347.1352890976658
 31
0.0
  0
ARC
  5
287
330
1F
100
AcDbEntity
  8
LAY-10
  6
CONTINUOUS
 62
     7
100
AcDbCircle
 10
310.0000000000099
 20
384.0000000000213
 30
0.0
 40
29.1910862168299
100
AcDbArc
 50
94.9129768624891
 51
109.0870231375272
  0
ARC
  5
288
330
1F
100
AcDbEntity
  8
LAY-10
  6
CONTINUOUS
 62
     7
100
AcDbCircle
 10
310.0000000000099
 20
384.0000000000213
 30
0.0
 40
29.1910862168299
100
AcDbArc
 50
118.9129768625047
 51
133.087023137538
  0
ARC
  5
289
330
1F
100
AcDbEntity
  8
LAY-10
  6
CONTINUOUS
 62
     7
100
AcDbCircle
 10
310.0000000000099
 20
384.0000000000213
 30
0.0
 40
29.1910862168299
100
AcDbArc
 50
142.912976862516
 51
157.0870231375429
  0
ARC
  5
28A
330
1F
100
AcDbEntity
  8
LAY-10
  6
CONTINUOUS
 62
     7
100
AcDbCircle
 10
310.0000000000099
 20
384.0000000000213
 30
0.0
 40
29.1910862168299
100
AcDbArc
 50
166.9129768625203
 51
181.0870231375398
  0
ARC
  5
28B
330
1F
100
AcDbEntity
  8
LAY-10
  6
CONTINUOUS
 62
     7
100
AcDbCircle
 10
310.0000000000099
 20
384.0000000000213
 30
0.0
 40
29.1910862168299
100
AcDbArc
 50
190.9129768625176
 51
205.0870231375303
  0
ARC
  5
28C
330
1F
100
AcDbEntity
  8
LAY-10
  6
CONTINUOUS
 62
     7
100
AcDbCircle
 10
310.0000000000099
 20
384.0000000000213
 30
0.0
 40
29.1910862168299
100
AcDbArc
 50
214.9129768625081
 51
229.0870231375155
  0
ARC
  5
28D
330
1F
100
AcDbEntity
  8
LAY-10
  6
CONTINUOUS
 62
     7
100
AcDbCircle
 10
310.0000000000099
 20
384.0000000000213
 30
0.0
 40
29.1910862168299
100
AcDbArc
 50
238.9129768624933
 51
253.0870231374979
  0
LINE
  5
28E
330
1F
100
AcDbEntity
  8
LAY-10
  6
CONTINUOUS
 62
     7
100
AcDbLine
 10
306.4621940951884
 20
397.3971612433522
 30
0.0
 11
304.5344405203654
 21
404.6972862852923
 31
0.0
  0
LINE
  5
28F
330
1F
100
AcDbEntity
  8
LAY-10
  6
CONTINUOUS
 62
     7
100
AcDbLine
 10
313.5378059048314
 20
397.3971612433522
 30
0.0
 11
315.4655594796544
 21
404.6972862852923
 31
0.0
  0
ARC
  5
290
330
1F
100
AcDbEntity
  8
LAY-10
  6
CONTINUOUS
 62
     7
100
AcDbCircle
 10
310.0000000000099
 20
384.0000000000213
 30
0.0
 40
23.50000000000002
100
AcDbArc
 50
80.54505980801353
 51
99.45494019198681
  0
ARC
  5
291
330
1F
100
AcDbEntity
  8
LAY-10
  6
CONTINUOUS
 62
     7
100
AcDbCircle
 10
306.4681541829189
 20
405.2079245831646
 30
0.0
 40
2.0
100
AcDbArc
 50
99.45494019198588
 51
194.7924970414013
  0
ARC
  5
292
330
1F
100
AcDbEntity
  8
LAY-10
  6
CONTINUOUS
 62
     7
100
AcDbCircle
 10
313.5318458171009
 20
405.2079245831646
 30
0.0
 40
2.0
100
AcDbArc
 50
345.2075029585989
 51
80.54505980801412
  0
ARC
  5
293
330
1F
100
AcDbEntity
  8
LAY-10
  6
CONTINUOUS
 62
     7
100
AcDbCircle
 10
310.0000000000099
 20
384.0000000000213
 30
0.0
 40
12.00000000000001
100
AcDbArc
 50
83.42071366033728
 51
96.5792863396633
  0
ARC
  5
294
330
1F
100
AcDbEntity
  8
LAY-10
  6
CONTINUOUS
 62
     7
100
AcDbCircle
 10
308.3959077577419
 20
397.9077995412246
 30
0.0
 40
2.0
100
AcDbArc
 50
194.7924970414013
 51
276.5792863396638
  0
ARC
  5
295
330
1F
100
AcDbEntity
  8
LAY-10
  6
CONTINUOUS
 62
     7
100
AcDbCircle
 10
311.6040922422779
 20
397.9077995412246
 30
0.0
 40
2.0
100
AcDbArc
 50
263.4207136603348
 51
345.2075029585989
  0
ARC
  5
296
330
1F
100
AcDbEntity
  8
LAY-10
  6
CONTINUOUS
 62
     7
100
AcDbCircle
 10
288.7920754168665
 20
380.4681541829302
 30
0.0
 40
2.0
100
AcDbArc
 50
189.454940191986
 51
284.7924970414015
  0
ARC
  5
297
330
1F
100
AcDbEntity
  8
LAY-10
  6
CONTINUOUS
 62
     7
100
AcDbCircle
 10
310.0000000000099
 20
384.0000000000213
 30
0.0
 40
23.50000000000002
100
AcDbArc
 50
170.5450598080135
 51
189.4549401919867
  0
ARC
  5
298
330
1F
100
AcDbEntity
  8
LAY-10
  6
CONTINUOUS
 62
     7
100
AcDbCircle
 10
288.7920754168665
 20
387.5318458171122
 30
0.0
 40
2.0
100
AcDbArc
 50
75.20750295859871
 51
170.5450598080141
  0
LINE
  5
299
330
1F
100
AcDbEntity
  8
LAY-10
  6
CONTINUOUS
 62
     7
100
AcDbLine
 10
296.6028387566789
 20
380.4621940951997
 30
0.0
 11
289.3027137147388
 21
378.5344405203767
 31
0.0
  0
ARC
  5
29A
330
1F
100
AcDbEntity
  8
LAY-10
  6
CONTINUOUS
 62
     7
100
AcDbCircle
 10
296.0922004588066
 20
382.3959077577532
 30
0.0
 40
2.0
100
AcDbArc
 50
284.7924970414015
 51
6.579286339663554
  0
LINE
  5
29B
330
1F
100
AcDbEntity
  8
LAY-10
  6
CONTINUOUS
 62
     7
100
AcDbLine
 10
296.6028387566789
 20
387.5378059048427
 30
0.0
 11
289.3027137147388
 21
389.4655594796657
 31
0.0
  0
ARC
  5
29C
330
1F
100
AcDbEntity
  8
LAY-10
  6
CONTINUOUS
 62
     7
100
AcDbCircle
 10
310.0000000000099
 20
384.0000000000213
 30
0.0
 40
12.00000000000001
100
AcDbArc
 50
173.420713660337
 51
186.5792863396634
  0
ARC
  5
29D
330
1F
100
AcDbEntity
  8
LAY-10
  6
CONTINUOUS
 62
     7
100
AcDbCircle
 10
296.0922004588066
 20
385.6040922422892
 30
0.0
 40
2.0
100
AcDbArc
 50
353.4207136603382
 51
75.20750295859871
  0
ARC
  5
29E
330
1F
100
AcDbEntity
  8
LAY-10
  6
CONTINUOUS
 62
     7
100
AcDbCircle
 10
297.5011248397468
 20
366.5063405850173
 30
0.0
 40
2.0
100
AcDbArc
 50
234.4549401919847
 51
329.7924970413999
  0
ARC
  5
29F
330
1F
100
AcDbEntity
  8
LAY-10
  6
CONTINUOUS
 62
     7
100
AcDbCircle
 10
310.0000000000099
 20
384.0000000000213
 30
0.0
 40
23.50000000000002
100
AcDbArc
 50
215.5450598080138
 51
234.4549401919866
  0
ARC
  5
2A0
330
1F
100
AcDbEntity
  8
LAY-10
  6
CONTINUOUS
 62
     7
100
AcDbCircle
 10
292.5063405850059
 20
371.5011248397581
 30
0.0
 40
2.0
100
AcDbArc
 50
120.2075029585987
 51
215.5450598080154
  0
LINE
  5
2A1
330
1F
100
AcDbEntity
  8
LAY-10
  6
CONTINUOUS
 62
     7
100
AcDbLine
 10
303.0283829820221
 20
372.0251698903912
 30
0.0
 11
299.2295426865705
 21
365.5000743445116
 31
0.0
  0
ARC
  5
2A2
330
1F
100
AcDbEntity
  8
LAY-10
  6
CONTINUOUS
 62
     7
100
AcDbCircle
 10
301.2999651351983
 20
373.0314361308967
 30
0.0
 40
2.0
100
AcDbArc
 50
329.7924970414027
 51
51.57928633966331
  0
LINE
  5
2A3
330
1F
100
AcDbEntity
  8
LAY-10
  6
CONTINUOUS
 62
     7
100
AcDbLine
 10
298.0251698903799
 20
377.0283829820333
 30
0.0
 11
291.5000743445004
 21
373.2295426865818
 31
0.0
  0
ARC
  5
2A4
330
1F
100
AcDbEntity
  8
LAY-10
  6
CONTINUOUS
 62
     7
100
AcDbCircle
 10
310.0000000000099
 20
384.0000000000213
 30
0.0
 40
12.00000000000001
100
AcDbArc
 50
218.4207136603371
 51
231.5792863396629
  0
ARC
  5
2A5
330
1F
100
AcDbEntity
  8
LAY-10
  6
CONTINUOUS
 62
     7
100
AcDbCircle
 10
299.0314361308855
 20
375.2999651352096
 30
0.0
 40
2.0
100
AcDbArc
 50
38.42071366033672
 51
120.2075029586002
  0
LINE
  5
2A6
330
1F
100
AcDbEntity
  8
LAY-10
  6
CONTINUOUS
 62
     7
100
AcDbLine
 10
257.4428882072143
 20
394.0000000000003
 30
0.0
 11
273.027116925742
 21
394.0000000000003
 31
0.0
  0
LINE
  5
2A7
330
1F
100
AcDbEntity
  8
LAY-10
  6
CONTINUOUS
 62
     7
100
AcDbLine
 10
257.4428882072222
 20
374.0000000000002
 30
0.0
 11
273.0271169257533
 21
374.0000000000002
 31
0.0
  0
ARC
  5
2A8
330
1F
100
AcDbEntity
  8
LAY-10
  6
CONTINUOUS
 62
     7
100
AcDbCircle
 10
297.5011248397468
 20
401.4936594149827
 30
0.0
 40
2.0
100
AcDbArc
 50
30.20750295860015
 51
125.5450598080154
  0
ARC
  5
2A9
330
1F
100
AcDbEntity
  8
LAY-10
  6
CONTINUOUS
 62
     7
100
AcDbCircle
 10
310.0000000000099
 20
383.9999999999787
 30
0.0
 40
23.50000000000002
100
AcDbArc
 50
125.5450598080135
 51
144.4549401919866
  0
ARC
  5
2AA
330
1F
100
AcDbEntity
  8
LAY-10
  6
CONTINUOUS
 62
     7
100
AcDbCircle
 10
292.5063405850059
 20
396.4988751602419
 30
0.0
 40
2.0
100
AcDbArc
 50
144.4549401919847
 51
239.7924970414014
  0
LINE
  5
2AB
330
1F
100
AcDbEntity
  8
LAY-10
  6
CONTINUOUS
 62
     7
100
AcDbLine
 10
303.0283829820221
 20
395.9748301096088
 30
0.0
 11
299.2295426865705
 21
402.4999256554884
 31
0.0
  0
ARC
  5
2AC
330
1F
100
AcDbEntity
  8
LAY-10
  6
CONTINUOUS
 62
     7
100
AcDbCircle
 10
301.2999651351983
 20
394.9685638691033
 30
0.0
 40
2.0
100
AcDbArc
 50
308.4207136603345
 51
30.20750295859735
  0
LINE
  5
2AD
330
1F
100
AcDbEntity
  8
LAY-10
  6
CONTINUOUS
 62
     7
100
AcDbLine
 10
298.0251698903799
 20
390.9716170179667
 30
0.0
 11
291.5000743445004
 21
394.7704573134182
 31
0.0
  0
ARC
  5
2AE
330
1F
100
AcDbEntity
  8
LAY-10
  6
CONTINUOUS
 62
     7
100
AcDbCircle
 10
310.0000000000099
 20
383.9999999999787
 30
0.0
 40
12.00000000000001
100
AcDbArc
 50
128.4207136603373
 51
141.5792863396632
  0
ARC
  5
2AF
330
1F
100
AcDbEntity
  8
LAY-10
  6
CONTINUOUS
 62
     7
100
AcDbCircle
 10
299.0314361308855
 20
392.7000348647903
 30
0.0
 40
2.0
100
AcDbArc
 50
239.7924970413991
 51
321.5792863396671
  0
LINE
  5
2B0
330
1F
100
AcDbEntity
  8
LAY-10
  6
CONTINUOUS
 62
     7
100
AcDbLine
 10
306.4621940951884
 20
370.6028387566478
 30
0.0
 11
304.5344405203654
 21
363.3027137147077
 31
0.0
  0
LINE
  5
2B1
330
1F
100
AcDbEntity
  8
LAY-10
  6
CONTINUOUS
 62
     7
100
AcDbLine
 10
313.5378059048314
 20
370.6028387566478
 30
0.0
 11
315.4655594796544
 21
363.3027137147077
 31
0.0
  0
ARC
  5
2B2
330
1F
100
AcDbEntity
  8
LAY-10
  6
CONTINUOUS
 62
     7
100
AcDbCircle
 10
310.0000000000099
 20
383.9999999999787
 30
0.0
 40
23.50000000000002
100
AcDbArc
 50
260.5450598080136
 51
279.4549401919867
  0
ARC
  5
2B3
330
1F
100
AcDbEntity
  8
LAY-10
  6
CONTINUOUS
 62
     7
100
AcDbCircle
 10
306.4681541829189
 20
362.7920754168354
 30
0.0
 40
2.0
100
AcDbArc
 50
165.2075029585988
 51
260.5450598080142
  0
ARC
  5
2B4
330
1F
100
AcDbEntity
  8
LAY-10
  6
CONTINUOUS
 62
     7
100
AcDbCircle
 10
313.5318458171009
 20
362.7920754168354
 30
0.0
 40
2.0
100
AcDbArc
 50
279.4549401919859
 51
14.79249704140132
  0
ARC
  5
2B5
330
1F
100
AcDbEntity
  8
LAY-10
  6
CONTINUOUS
 62
     7
100
AcDbCircle
 10
310.0000000000099
 20
383.9999999999787
 30
0.0
 40
12.00000000000001
100
AcDbArc
 50
263.420713660337
 51
276.5792863396629
  0
ARC
  5
2B6
330
1F
100
AcDbEntity
  8
LAY-10
  6
CONTINUOUS
 62
     7
100
AcDbCircle
 10
308.3959077577419
 20
370.0922004587754
 30
0.0
 40
2.0
100
AcDbArc
 50
83.42071366033649
 51
165.2075029585988
  0
ARC
  5
2B7
330
1F
100
AcDbEntity
  8
LAY-10
  6
CONTINUOUS
 62
     7
100
AcDbCircle
 10
311.6040922422779
 20
370.0922004587754
 30
0.0
 40
2.0
100
AcDbArc
 50
14.79249704140132
 51
96.57928633966519
  0
CIRCLE
  5
2B8
330
1F
100
AcDbEntity
  8
LAY-10
  6
CONTINUOUS
 62
     7
100
AcDbCircle
 10
310.0000000000099
 20
384.0000000000213
 30
0.0
 40
27.58339106224298
  0
CIRCLE
  5
2B9
330
1F
100
AcDbEntity
  8
LAY-10
  6
CONTINUOUS
 62
     7
100
AcDbCircle
 10
310.0000000000099
 20
384.0000000000213
 30
0.0
 40
38.30135875948883
  0
LINE
  5
2BA
330
1F
100
AcDbEntity
  8
LAY-10
  6
CONTINUOUS
 62
     7
100
AcDbLine
 10
362.5571117927854
 20
394.0000000000003
 30
0.0
 11
346.9728830742578
 21
394.0000000000003
 31
0.0
  0
LINE
  5
2BB
330
1F
100
AcDbEntity
  8
LAY-10
  6
CONTINUOUS
 62
     7
100
AcDbLine
 10
362.5571117927775
 20
374.0000000000002
 30
0.0
 11
346.9728830742464
 21
374.0000000000002
 31
0.0
  0
LINE
  5
2BC
330
1F
100
AcDbEntity
  8
LAY-10
  6
CONTINUOUS
 62
     7
100
AcDbLine
 10
312.4999999999898
 20
413.0838359663857
 30
0.0
 11
312.4999999999898
 21
422.2196818775968
 31
0.0
  0
ARC
  5
2BD
330
1F
100
AcDbEntity
  8
LAY-10
  6
CONTINUOUS
 62
     7
100
AcDbCircle
 10
309.9999999999898
 20
384.0000000000213
 30
0.0
 40
29.1910862168299
100
AcDbArc
 50
70.9129768624729
 51
85.08702313751097
  0
LINE
  5
2BE
330
1F
100
AcDbEntity
  8
LAY-10
  6
CONTINUOUS
 62
     7
100
AcDbLine
 10
319.5455981646185
 20
411.586247845606
 30
0.0
 11
323.2614814622023
 21
419.9322583795156
 31
0.0
  0
LINE
  5
2BF
330
1F
100
AcDbEntity
  8
LAY-10
  6
CONTINUOUS
 62
     7
100
AcDbLine
 10
324.1133254528315
 20
409.5525646302269
 30
0.0
 11
327.8292087504152
 21
417.8985751641366
 31
0.0
  0
ARC
  5
2C0
330
1F
100
AcDbEntity
  8
LAY-10
  6
CONTINUOUS
 62
     7
100
AcDbCircle
 10
309.9999999999898
 20
384.0000000000213
 30
0.0
 40
29.1910862168299
100
AcDbArc
 50
46.91297686246212
 51
61.08702313749549
  0
LINE
  5
2C1
330
1F
100
AcDbEntity
  8
LAY-10
  6
CONTINUOUS
 62
     7
100
AcDbLine
 10
329.940675687547
 20
405.318746859127
 30
0.0
 11
336.7299323028223
 21
411.4318209732968
 31
0.0
  0
LINE
  5
2C2
330
1F
100
AcDbEntity
  8
LAY-10
  6
CONTINUOUS
 62
     7
100
AcDbLine
 10
333.2863287193413
 20
401.60302273174
 30
0.0
 11
340.0755853346167
 21
407.7160968459098
 31
0.0
  0
ARC
  5
2C3
330
1F
100
AcDbEntity
  8
LAY-10
  6
CONTINUOUS
 62
     7
100
AcDbCircle
 10
309.9999999999898
 20
384.0000000000213
 30
0.0
 40
29.1910862168299
100
AcDbArc
 50
22.91297686245754
 51
37.08702313748455
  0
LINE
  5
2C4
330
1F
100
AcDbEntity
  8
LAY-10
  6
CONTINUOUS
 62
     7
100
AcDbLine
 10
336.8878292287463
 20
395.36504086597
 30
0.0
 11
345.576535014472
 21
398.188172510525
 31
0.0
  0
LINE
  5
2C5
330
1F
100
AcDbEntity
  8
LAY-10
  6
CONTINUOUS
 62
     7
100
AcDbLine
 10
338.432914200621
 20
390.6097582844942
 30
0.0
 11
347.1216199863467
 21
393.4328899290493
 31
0.0
  0
ARC
  5
2C6
330
1F
100
AcDbEntity
  8
LAY-10
  6
CONTINUOUS
 62
     7
100
AcDbCircle
 10
309.9999999999898
 20
384.0000000000213
 30
0.0
 40
29.1910862168299
100
AcDbArc
 50
358.9129768624603
 51
13.08702313747997
  0
LINE
  5
2C7
330
1F
100
AcDbEntity
  8
LAY-10
  6
CONTINUOUS
 62
     7
100
AcDbLine
 10
339.1858328280346
 20
383.4462160589318
 30
0.0
 11
348.2716316194446
 21
382.4912601251829
 31
0.0
  0
LINE
  5
2C8
330
1F
100
AcDbEntity
  8
LAY-10
  6
CONTINUOUS
 62
     7
100
AcDbLine
 10
338.6631905116962
 20
378.4736065820905
 30
0.0
 11
347.7489893031063
 21
377.5186506483415
 31
0.0
  0
ARC
  5
2C9
330
1F
100
AcDbEntity
  8
LAY-10
  6
CONTINUOUS
 62
     7
100
AcDbCircle
 10
309.9999999999898
 20
384.0000000000213
 30
0.0
 40
29.1910862168299
100
AcDbArc
 50
334.9129768624699
 51
349.0870231374824
  0
LINE
  5
2CA
330
1F
100
AcDbEntity
  8
LAY-10
  6
CONTINUOUS
 62
     7
100
AcDbLine
 10
336.4373407863874
 20
371.6231455262737
 30
0.0
 11
344.3492154305562
 21
367.0552225706681
 31
0.0
  0
LINE
  5
2CB
330
1F
100
AcDbEntity
  8
LAY-10
  6
CONTINUOUS
 62
     7
100
AcDbLine
 10
333.9373407863873
 20
367.2930185073515
 30
0.0
 11
341.8492154305562
 21
362.7250955517459
 31
0.0
  0
ARC
  5
2CC
330
1F
100
AcDbEntity
  8
LAY-10
  6
CONTINUOUS
 62
     7
100
AcDbCircle
 10
309.9999999999898
 20
384.0000000000213
 30
0.0
 40
29.1910862168299
100
AcDbArc
 50
310.9129768624846
 51
325.087023137492
  0
LINE
  5
2CD
330
1F
100
AcDbEntity
  8
LAY-10
  6
CONTINUOUS
 62
     7
100
AcDbLine
 10
329.1175923470719
 20
361.9401455723158
 30
0.0
 11
334.4875078408982
 21
354.5490909721552
 31
0.0
  0
LINE
  5
2CE
330
1F
100
AcDbEntity
  8
LAY-10
  6
CONTINUOUS
 62
     7
100
AcDbLine
 10
325.0725073751971
 20
359.0012193108535
 30
0.0
 11
330.4424228690235
 21
351.6101647106929
 31
0.0
  0
ARC
  5
2CF
330
1F
100
AcDbEntity
  8
LAY-10
  6
CONTINUOUS
 62
     7
100
AcDbCircle
 10
309.9999999999898
 20
384.0000000000213
 30
0.0
 40
29.1910862168299
100
AcDbArc
 50
286.912976862502
 51
301.0870231375067
  0
LINE
  5
2D0
330
1F
100
AcDbEntity
  8
LAY-10
  6
CONTINUOUS
 62
     7
100
AcDbLine
 10
318.4922385130728
 20
356.0714948563906
 30
0.0
 11
320.3916876835232
 21
347.1352890976658
 31
0.0
  0
ARC
  5
2D1
330
1F
100
AcDbEntity
  8
LAY-10
  6
CONTINUOUS
 62
     7
100
AcDbCircle
 10
331.2079245831331
 20
380.4681541829302
 30
0.0
 40
2.0
100
AcDbArc
 50
255.2075029585988
 51
350.5450598080143
  0
ARC
  5
2D2
330
1F
100
AcDbEntity
  8
LAY-10
  6
CONTINUOUS
 62
     7
100
AcDbCircle
 10
309.9999999999898
 20
384.0000000000213
 30
0.0
 40
23.50000000000002
100
AcDbArc
 50
350.5450598080135
 51
9.45494019198649
  0
ARC
  5
2D3
330
1F
100
AcDbEntity
  8
LAY-10
  6
CONTINUOUS
 62
     7
100
AcDbCircle
 10
331.2079245831331
 20
387.5318458171122
 30
0.0
 40
2.0
100
AcDbArc
 50
9.454940191985859
 51
104.7924970414014
  0
LINE
  5
2D4
330
1F
100
AcDbEntity
  8
LAY-10
  6
CONTINUOUS
 62
     7
100
AcDbLine
 10
323.3971612433207
 20
380.4621940951997
 30
0.0
 11
330.6972862852608
 21
378.5344405203767
 31
0.0
  0
ARC
  5
2D5
330
1F
100
AcDbEntity
  8
LAY-10
  6
CONTINUOUS
 62
     7
100
AcDbCircle
 10
323.9077995411931
 20
382.3959077577532
 30
0.0
 40
2.0
100
AcDbArc
 50
173.4207136603365
 51
255.2075029585988
  0
LINE
  5
2D6
330
1F
100
AcDbEntity
  8
LAY-10
  6
CONTINUOUS
 62
     7
100
AcDbLine
 10
323.3971612433207
 20
387.5378059048427
 30
0.0
 11
330.6972862852608
 21
389.4655594796657
 31
0.0
  0
ARC
  5
2D7
330
1F
100
AcDbEntity
  8
LAY-10
  6
CONTINUOUS
 62
     7
100
AcDbCircle
 10
309.9999999999898
 20
384.0000000000213
 30
0.0
 40
12.00000000000001
100
AcDbArc
 50
353.4207136603367
 51
6.579286339663039
  0
ARC
  5
2D8
330
1F
100
AcDbEntity
  8
LAY-10
  6
CONTINUOUS
 62
     7
100
AcDbCircle
 10
323.9077995411931
 20
385.6040922422892
 30
0.0
 40
2.0
100
AcDbArc
 50
104.7924970414014
 51
186.579286339662
  0
ARC
  5
2D9
330
1F
100
AcDbEntity
  8
LAY-10
  6
CONTINUOUS
 62
     7
100
AcDbCircle
 10
322.4988751602529
 20
366.5063405850173
 30
0.0
 40
2.0
100
AcDbArc
 50
210.207502958601
 51
305.5450598080155
  0
ARC
  5
2DA
330
1F
100
AcDbEntity
  8
LAY-10
  6
CONTINUOUS
 62
     7
100
AcDbCircle
 10
309.9999999999898
 20
384.0000000000213
 30
0.0
 40
23.50000000000002
100
AcDbArc
 50
305.5450598080134
 51
324.4549401919867
  0
ARC
  5
2DB
330
1F
100
AcDbEntity
  8
LAY-10
  6
CONTINUOUS
 62
     7
100
AcDbCircle
 10
327.4936594149938
 20
371.5011248397581
 30
0.0
 40
2.0
100
AcDbArc
 50
324.4549401919846
 51
59.79249704140125
  0
LINE
  5
2DC
330
1F
100
AcDbEntity
  8
LAY-10
  6
CONTINUOUS
 62
     7
100
AcDbLine
 10
316.9716170179776
 20
372.0251698903912
 30
0.0
 11
320.7704573134292
 21
365.5000743445116
 31
0.0
  0
ARC
  5
2DD
330
1F
100
AcDbEntity
  8
LAY-10
  6
CONTINUOUS
 62
     7
100
AcDbCircle
 10
318.7000348648014
 20
373.0314361308967
 30
0.0
 40
2.0
100
AcDbArc
 50
128.4207136603368
 51
210.2075029585966
  0
LINE
  5
2DE
330
1F
100
AcDbEntity
  8
LAY-10
  6
CONTINUOUS
 62
     7
100
AcDbLine
 10
321.9748301096198
 20
377.0283829820333
 30
0.0
 11
328.4999256554993
 21
373.2295426865818
 31
0.0
  0
ARC
  5
2DF
330
1F
100
AcDbEntity
  8
LAY-10
  6
CONTINUOUS
 62
     7
100
AcDbCircle
 10
309.9999999999898
 20
384.0000000000213
 30
0.0
 40
12.00000000000001
100
AcDbArc
 50
308.4207136603371
 51
321.5792863396626
  0
ARC
  5
2E0
330
1F
100
AcDbEntity
  8
LAY-10
  6
CONTINUOUS
 62
     7
100
AcDbCircle
 10
320.9685638691142
 20
375.2999651352096
 30
0.0
 40
2.0
100
AcDbArc
 50
59.79249704139988
 51
141.5792863396647
  0
ARC
  5
2E1
330
1F
100
AcDbEntity
  8
LAY-10
  6
CONTINUOUS
 62
     7
100
AcDbCircle
 10
322.4988751602529
 20
401.4936594149827
 30
0.0
 40
2.0
100
AcDbArc
 50
54.45494019198688
 51
149.792497041399
  0
ARC
  5
2E2
330
1F
100
AcDbEntity
  8
LAY-10
  6
CONTINUOUS
 62
     7
100
AcDbCircle
 10
309.9999999999898
 20
383.9999999999787
 30
0.0
 40
23.50000000000002
100
AcDbArc
 50
35.54505980801362
 51
54.45494019198688
  0
ARC
  5
2E3
330
1F
100
AcDbEntity
  8
LAY-10
  6
CONTINUOUS
 62
     7
100
AcDbCircle
 10
327.4936594149938
 20
396.4988751602419
 30
0.0
 40
2.0
100
AcDbArc
 50
300.2075029585989
 51
35.54505980801539
  0
LINE
  5
2E4
330
1F
100
AcDbEntity
  8
LAY-10
  6
CONTINUOUS
 62
     7
100
AcDbLine
 10
316.9716170179776
 20
395.9748301096088
 30
0.0
 11
320.7704573134292
 21
402.4999256554884
 31
0.0
  0
ARC
  5
2E5
330
1F
100
AcDbEntity
  8
LAY-10
  6
CONTINUOUS
 62
     7
100
AcDbCircle
 10
318.7000348648014
 20
394.9685638691033
 30
0.0
 40
2.0
100
AcDbArc
 50
149.7924970414035
 51
231.5792863396656
  0
LINE
  5
2E6
330
1F
100
AcDbEntity
  8
LAY-10
  6
CONTINUOUS
 62
     7
100
AcDbLine
 10
321.9748301096198
 20
390.9716170179667
 30
0.0
 11
328.4999256554993
 21
394.7704573134182
 31
0.0
  0
ARC
  5
2E7
330
1F
100
AcDbEntity
  8
LAY-10
  6
CONTINUOUS
 62
     7
100
AcDbCircle
 10
309.9999999999898
 20
383.9999999999787
 30
0.0
 40
12.00000000000001
100
AcDbArc
 50
38.42071366033746
 51
51.57928633966313
  0
ARC
  5
2E8
330
1F
100
AcDbEntity
  8
LAY-10
  6
CONTINUOUS
 62
     7
100
AcDbCircle
 10
320.9685638691142
 20
392.7000348647903
 30
0.0
 40
2.0
100
AcDbArc
 50
218.4207136603368
 51
300.2075029585989
  0
LINE
  5
2E9
330
1F
100
AcDbEntity
  8
LAY-10
  6
CONTINUOUS
 62
     7
100
AcDbLine
 10
313.6015005094042
 20
355.0319364023042
 30
0.0
 11
315.5009496798565
 21
346.0957306435798
 31
0.0
  0
ARC
  5
2EA
330
1F
100
AcDbEntity
  8
LAY-10
  6
CONTINUOUS
 62
     7
100
AcDbCircle
 10
309.9999999999827
 20
384.0000000000161
 30
0.0
 40
29.1910862168299
100
AcDbArc
 50
262.9129768625293
 51
277.0870231375418
  0
LINE
  5
2EB
330
1F
100
AcDbEntity
  8
LAY-10
  6
CONTINUOUS
 62
     7
100
AcDbLine
 10
306.3984994905982
 20
355.0319364023051
 30
0.0
 11
304.4990503201496
 21
346.0957306435798
 31
0.0
  0
LINE
  5
2EC
330
1F
100
AcDbEntity
  8
LAY-10
  6
CONTINUOUS
 62
     7
100
AcDbLine
 10
256.8375132259717
 20
378.0000000000035
 30
0.0
 11
254.7440644764435
 21
378.0000000000035
 31
0.0
  0
LINE
  5
2ED
330
1F
100
AcDbEntity
  8
LAY-10
  6
CONTINUOUS
 62
     7
100
AcDbLine
 10
256.8981668451232
 20
377.4849930475636
 30
0.0
 11
255.2533969819448
 21
377.4849930475636
 31
0.0
  0
ARC
  5
2EE
330
1F
100
AcDbEntity
  8
LAY-10
  6
CONTINUOUS
 62
     7
100
AcDbCircle
 10
261.0000000000005
 20
384.0000000000005
 30
0.0
 40
3.999999999999831
100
AcDbArc
 50
320.8995693451716
 51
39.10043065504257
  0
ARC
  5
2EF
330
1F
100
AcDbEntity
  8
LAY-10
  6
CONTINUOUS
 62
     7
100
AcDbCircle
 10
310.0000000000001
 20
383.9999999999871
 30
0.0
 40
55.58073776573366
100
AcDbArc
 50
173.8027829541437
 51
178.5698823483758
  0
ARC
  5
2F0
330
1F
100
AcDbEntity
  8
LAY-10
  6
CONTINUOUS
 62
     7
100
AcDbCircle
 10
310.0000000000001
 20
383.9999999999871
 30
0.0
 40
55.58073776573366
100
AcDbArc
 50
181.4301176515769
 51
186.1972170458228
  0
LINE
  5
2F1
330
1F
100
AcDbEntity
  8
LAY-10
  6
CONTINUOUS
 62
     7
100
AcDbLine
 10
314.0000000000002
 20
330.6497422686842
 30
0.0
 11
314.0000000000002
 21
328.563383846209
 31
0.0
  0
LINE
  5
2F2
330
1F
100
AcDbEntity
  8
LAY-10
  6
CONTINUOUS
 62
     7
100
AcDbLine
 10
314.5150069524382
 20
330.6908571423506
 30
0.0
 11
314.5150069524382
 21
329.0522924060891
 31
0.0
  0
LINE
  5
2F3
330
1F
100
AcDbEntity
  8
LAY-10
  6
CONTINUOUS
 62
     7
100
AcDbLine
 10
305.4849930475624
 20
330.6908571423522
 30
0.0
 11
305.4849930475624
 21
329.0522924060891
 31
0.0
  0
LINE
  5
2F4
330
1F
100
AcDbEntity
  8
LAY-10
  6
CONTINUOUS
 62
     7
100
AcDbLine
 10
306.0000000000002
 20
330.6497422686856
 30
0.0
 11
306.0000000000002
 21
328.5633838462073
 31
0.0
  0
LINE
  5
2F5
330
1F
100
AcDbEntity
  8
LAY-10
  6
CONTINUOUS
 62
     7
100
AcDbLine
 10
314.0000000000002
 20
437.3502577313581
 30
0.0
 11
314.0000000000002
 21
439.436616153798
 31
0.0
  0
LINE
  5
2F6
330
1F
100
AcDbEntity
  8
LAY-10
  6
CONTINUOUS
 62
     7
100
AcDbLine
 10
314.5150069524382
 20
437.3091428576917
 30
0.0
 11
314.5150069524382
 21
438.947707593918
 31
0.0
  0
LINE
  5
2F7
330
1F
100
AcDbEntity
  8
LAY-10
  6
CONTINUOUS
 62
     7
100
AcDbLine
 10
306.0000000000002
 20
437.3502577313567
 30
0.0
 11
306.0000000000002
 21
439.4366161537998
 31
0.0
  0
LINE
  5
2F8
330
1F
100
AcDbEntity
  8
LAY-10
  6
CONTINUOUS
 62
     7
100
AcDbLine
 10
305.4849930475624
 20
437.3091428576901
 30
0.0
 11
305.4849930475624
 21
438.947707593918
 31
0.0
  0
ARC
  5
2F9
330
1F
100
AcDbEntity
  8
LAY-10
  6
CONTINUOUS
 62
     7
100
AcDbCircle
 10
358.9999999999992
 20
384.0000000000005
 30
0.0
 40
3.999999999999831
100
AcDbArc
 50
140.8995693448962
 51
219.1004306548903
  0
ARC
  5
2FA
330
1F
100
AcDbEntity
  8
LAY-10
  6
CONTINUOUS
 62
     7
100
AcDbCircle
 10
310.0000000000099
 20
384.0000000000211
 30
0.0
 40
53.50000000000004
100
AcDbArc
 50
184.7505368441734
 51
355.2494631558407
  0
ARC
  5
2FB
330
1F
100
AcDbEntity
  8
LAY-10
  6
CONTINUOUS
 62
     7
100
AcDbCircle
 10
310.0000000000099
 20
384.0000000000211
 30
0.0
 40
53.50000000000004
100
AcDbArc
 50
4.750536844135835
 51
175.2494631558503
  0
LINE
  5
2FC
330
1F
100
AcDbEntity
  8
LAY-10
  6
CONTINUOUS
 62
     7
100
AcDbLine
 10
363.1624867740482
 20
378.0000000000035
 30
0.0
 11
365.2559355235564
 21
378.0000000000035
 31
0.0
  0
LINE
  5
2FD
330
1F
100
AcDbEntity
  8
LAY-10
  6
CONTINUOUS
 62
     7
100
AcDbLine
 10
363.1018331548967
 20
377.4849930475636
 30
0.0
 11
364.7466030180551
 21
377.4849930475636
 31
0.0
  0
ARC
  5
2FE
330
1F
100
AcDbEntity
  8
LAY-10
  6
CONTINUOUS
 62
     7
100
AcDbCircle
 10
309.9999999999998
 20
383.9999999999871
 30
0.0
 40
55.58073776573366
100
AcDbArc
 50
353.8027829541774
 51
358.5698823484205
  0
ARC
  5
2FF
330
1F
100
AcDbEntity
  8
LAY-10
  6
CONTINUOUS
 62
     7
100
AcDbCircle
 10
309.9999999999998
 20
383.9999999999871
 30
0.0
 40
55.58073776573366
100
AcDbArc
 50
1.430117651627035
 51
6.197217045856767
  0
LINE
  5
300
330
1F
100
AcDbEntity
  8
LAY-10
  6
CONTINUOUS
 62
     7
100
AcDbLine
 10
363.1624867740522
 20
390.0000000000035
 30
0.0
 11
365.2559355235527
 21
390.0000000000035
 31
0.0
  0
LINE
  5
301
330
1F
100
AcDbEntity
  8
LAY-10
  6
CONTINUOUS
 62
     7
100
AcDbLine
 10
363.101833154901
 20
390.5150069524435
 30
0.0
 11
364.7466030180551
 21
390.5150069524435
 31
0.0
  0
LINE
  5
302
330
1F
100
AcDbEntity
  8
LAY-10
  6
CONTINUOUS
 62
     7
100
AcDbLine
 10
364.6317731990192
 20
184.9999999999879
 30
0.0
 11
262.0000000000005
 21
184.9999999999879
 31
0.0
  0
LINE
  5
303
330
1F
100
AcDbEntity
  8
LAY-10
  6
CONTINUOUS
 62
     7
100
AcDbLine
 10
378.4999999999924
 20
182.9999999999937
 30
0.0
 11
378.4999999999924
 21
183.9999999999919
 31
0.0
  0
LINE
  5
304
330
1F
100
AcDbEntity
  8
LAY-10
  6
CONTINUOUS
 62
     7
100
AcDbLine
 10
373.4999999999931
 20
182.9999999999937
 30
0.0
 11
373.4999999999931
 21
183.999999999993
 31
0.0
  0
LINE
  5
305
330
1F
100
AcDbEntity
  8
LAY-10
  6
CONTINUOUS
 62
     7
100
AcDbLine
 10
373.4999999999931
 20
183.999999999993
 30
0.0
 11
378.4999999999924
 21
183.999999999993
 31
0.0
  0
LINE
  5
306
330
1F
100
AcDbEntity
  8
LAY-10
  6
CONTINUOUS
 62
     7
100
AcDbLine
 10
372.9999999999899
 20
182.499999999993
 30
0.0
 11
378.9999999999899
 21
182.499999999993
 31
0.0
  0
LINE
  5
307
330
1F
100
AcDbEntity
  8
LAY-10
  6
CONTINUOUS
 62
     7
100
AcDbLine
 10
373.4999999999899
 20
182.9999999999937
 30
0.0
 11
378.4999999999899
 21
182.9999999999937
 31
0.0
  0
LINE
  5
308
330
1F
100
AcDbEntity
  8
LAY-10
  6
CONTINUOUS
 62
     7
100
AcDbLine
 10
375.9999999999901
 20
185.4433756729687
 30
0.0
 11
378.499999999991
 21
183.9999999999941
 31
0.0
  0
LINE
  5
309
330
1F
100
AcDbEntity
  8
LAY-10
  6
CONTINUOUS
 62
     7
100
AcDbLine
 10
375.9999999999897
 20
185.4433756729685
 30
0.0
 11
373.4999999999892
 21
183.9999999999941
 31
0.0
  0
LINE
  5
30A
330
1F
100
AcDbEntity
  8
LAY-10
  6
CONTINUOUS
 62
     7
100
AcDbLine
 10
390.4999999999894
 20
153.0000000000024
 30
0.0
 11
390.4999999999894
 21
158.0000000000022
 31
0.0
  0
LINE
  5
30B
330
1F
100
AcDbEntity
  8
LAY-10
  6
CONTINUOUS
 62
     7
100
AcDbLine
 10
380.499999999989
 20
158.0000000000022
 30
0.0
 11
390.4999999999894
 21
158.0000000000022
 31
0.0
  0
ARC
  5
30C
330
1F
100
AcDbEntity
  8
LAY-10
  6
CONTINUOUS
 62
     7
100
AcDbCircle
 10
380.499999999989
 20
160.0000000000024
 30
0.0
 40
2.0
100
AcDbArc
 50
180.0
 51
270.0000000000002
  0
LINE
  5
30D
330
1F
100
AcDbEntity
  8
LAY-10
  6
CONTINUOUS
 62
     7
100
AcDbLine
 10
380.499999999989
 20
153.0000000000024
 30
0.0
 11
390.4999999999894
 21
153.0000000000024
 31
0.0
  0
ARC
  5
30E
330
1F
100
AcDbEntity
  8
LAY-10
  6
CONTINUOUS
 62
     7
100
AcDbCircle
 10
380.499999999989
 20
160.0000000000024
 30
0.0
 40
7.000000000000004
100
AcDbArc
 50
180.0
 51
270.0000000000002
  0
LINE
  5
30F
330
1F
100
AcDbEntity
  8
LAY-10
  6
CONTINUOUS
 62
     7
100
AcDbLine
 10
378.4999999999899
 20
159.9999999999979
 30
0.0
 11
378.4999999999899
 21
174.9999999999976
 31
0.0
  0
LINE
  5
310
330
1F
100
AcDbEntity
  8
LAY-10
  6
CONTINUOUS
 62
     7
100
AcDbLine
 10
373.4999999999899
 20
159.9999999999979
 30
0.0
 11
373.4999999999899
 21
174.9999999999976
 31
0.0
  0
LINE
  5
311
330
1F
100
AcDbEntity
  8
LAY-10
  6
CONTINUOUS
 62
     7
100
AcDbLine
 10
373.4999999999931
 20
181.0000000000025
 30
0.0
 11
378.4999999999924
 21
181.0000000000025
 31
0.0
  0
LINE
  5
312
330
1F
100
AcDbEntity
  8
LAY-10
  6
CONTINUOUS
 62
     7
100
AcDbLine
 10
372.9999999999917
 20
180.500000000004
 30
0.0
 11
378.9999999999908
 21
180.500000000004
 31
0.0
  0
LINE
  5
313
330
1F
100
AcDbEntity
  8
LAY-10
  6
CONTINUOUS
 62
     7
100
AcDbLine
 10
378.4999999999924
 20
182.9999999999937
 30
0.0
 11
378.4999999999924
 21
181.0000000000025
 31
0.0
  0
LINE
  5
314
330
1F
100
AcDbEntity
  8
LAY-10
  6
CONTINUOUS
 62
     7
100
AcDbLine
 10
373.4999999999931
 20
182.9999999999937
 30
0.0
 11
373.4999999999931
 21
181.0000000000025
 31
0.0
  0
LINE
  5
315
330
1F
100
AcDbEntity
  8
LAY-10
  6
CONTINUOUS
 62
     7
100
AcDbLine
 10
378.9999999999899
 20
180.5000000000079
 30
0.0
 11
378.4999999999899
 21
180.9999999999979
 31
0.0
  0
LINE
  5
316
330
1F
100
AcDbEntity
  8
LAY-10
  6
CONTINUOUS
 62
     7
100
AcDbLine
 10
373.4999999999899
 20
180.9999999999979
 30
0.0
 11
372.9999999999899
 21
180.5000000000079
 31
0.0
  0
LINE
  5
317
330
1F
100
AcDbEntity
  8
LAY-10
  6
CONTINUOUS
 62
     7
100
AcDbLine
 10
372.9999999999899
 20
180.5000000000079
 30
0.0
 11
372.9999999999899
 21
174.9999999999979
 31
0.0
  0
LINE
  5
318
330
1F
100
AcDbEntity
  8
LAY-10
  6
CONTINUOUS
 62
     7
100
AcDbLine
 10
378.9999999999899
 20
180.5000000000079
 30
0.0
 11
378.9999999999899
 21
174.9999999999979
 31
0.0
  0
LINE
  5
319
330
1F
100
AcDbEntity
  8
LAY-10
  6
CONTINUOUS
 62
     7
100
AcDbLine
 10
281.2317381620989
 20
148.9999999999924
 30
0.0
 11
338.7682618379015
 21
148.9999999999924
 31
0.0
  0
LINE
  5
31A
330
1F
100
AcDbEntity
  8
LAY-10
  6
CONTINUOUS
 62
     7
100
AcDbLine
 10
339.8
 20
147.999999999994
 30
0.0
 11
338.7682618379
 21
148.999999999994
 31
0.0
  0
LINE
  5
31B
330
1F
100
AcDbEntity
  8
LAY-10
  6
CONTINUOUS
 62
     7
100
AcDbLine
 10
280.2
 20
147.999999999994
 30
0.0
 11
281.2317381621
 21
148.999999999994
 31
0.0
  0
LINE
  5
31C
330
1F
100
AcDbEntity
  8
LAY-10
  6
CONTINUOUS
 62
     7
100
AcDbLine
 10
281.231738162099
 20
148.999999999994
 30
0.0
 11
281.6379881620988
 21
161.9999999999902
 31
0.0
  0
LINE
  5
31D
330
1F
100
AcDbEntity
  8
LAY-10
  6
CONTINUOUS
 62
     7
100
AcDbLine
 10
338.7682618379014
 20
148.999999999994
 30
0.0
 11
338.3620118379015
 21
161.9999999999902
 31
0.0
  0
LINE
  5
31E
330
1F
100
AcDbEntity
  8
LAY-10
  6
CENTER
 62
     2
100
AcDbLine
 10
310.0000000000002
 20
233.50135875948
 30
0.0
 11
310.0000000000002
 21
129.6013587594499
 31
0.0
  0
LINE
  5
31F
330
1F
100
AcDbEntity
  8
LAY-10
  6
CENTER
 62
     2
100
AcDbLine
 10
259.5000000000002
 20
198.10135875948
 30
0.0
 11
259.5000000000002
 21
174.82135875948
 31
0.0
  0
LINE
  5
320
330
1F
100
AcDbEntity
  8
LAY-10
  6
CENTER
 62
     2
100
AcDbLine
 10
229.9999999999999
 20
384.0000000000035
 30
0.0
 11
390.0
 21
384.0000000000001
 31
0.0
  0
LINE
  5
321
330
1F
100
AcDbEntity
  8
LAY-10
  6
CENTER
 62
     2
100
AcDbLine
 10
309.9999999999999
 20
464.0000000000071
 30
0.0
 11
309.9999999999999
 21
304.000000000007
 31
0.0
  0
LINE
  5
322
330
1F
100
AcDbEntity
  8
LAY-10
  6
CENTER
 62
     2
100
AcDbLine
 10
360.4999999999995
 20
377.4849930475636
 30
0.0
 11
360.5000000000003
 21
390.5150069524435
 31
0.0
  0
LINE
  5
323
330
1F
100
AcDbEntity
  8
LAY-10
  6
CENTER
 62
     2
100
AcDbLine
 10
259.5000000000003
 20
377.4849930475636
 30
0.0
 11
259.5000000000003
 21
390.5150069524435
 31
0.0
  0
LINE
  5
324
330
1F
100
AcDbEntity
  8
LAY-10
  6
CENTER
 62
     2
100
AcDbLine
 10
391.6999999999888
 20
155.5000000000035
 30
0.0
 11
380.4999999999899
 21
155.5000000000035
 31
0.0
  0
ARC
  5
325
330
1F
100
AcDbEntity
  8
LAY-10
  6
CENTER
 62
     2
100
AcDbCircle
 10
380.4999999999899
 20
160.0000000000035
 30
0.0
 40
4.5
100
AcDbArc
 50
180.0
 51
270.0000000000002
  0
LINE
  5
326
330
1F
100
AcDbEntity
  8
LAY-10
  6
CENTER
 62
     2
100
AcDbLine
 10
375.9999999999901
 20
186.2013587594878
 30
0.0
 11
375.9999999999901
 21
160.0000000000035
 31
0.0
  0
LINE
  5
327
330
1F
100
AcDbEntity
  8
LAY-10
  6
CONTINUOUS
 62
     7
100
AcDbLine
 10
256.176963797553
 20
189.467048596804
 30
0.0
 11
256.1593746078294
 21
189.467048596804
 31
0.0
  0
LINE
  5
328
330
1F
100
AcDbEntity
  8
LAY-10
  6
CONTINUOUS
 62
     7
100
AcDbLine
 10
363.8230362024476
 20
189.467048596804
 30
0.0
 11
363.8406253921712
 21
189.467048596804
 31
0.0
  0
LINE
  5
329
330
1F
100
AcDbEntity
  8
LAY-10
  6
CONTINUOUS
 62
     7
100
AcDbLine
 10
256.5000000000002
 20
178.9999999999893
 30
0.0
 11
262.4999999999997
 21
178.9999999999893
 31
0.0
  0
LINE
  5
32A
330
1F
100
AcDbEntity
  8
LAY-10
  6
CONTINUOUS
 62
     7
100
AcDbLine
 10
262.0000000000005
 20
192.4999999999905
 30
0.0
 11
262.0000000000005
 21
180.4999999999926
 31
0.0
  0
LINE
  5
32B
330
1F
100
AcDbEntity
  8
LAY-10
  6
CONTINUOUS
 62
     7
100
AcDbLine
 10
257.0000000000004
 20
192.4999999999905
 30
0.0
 11
257.0000000000004
 21
180.4999999999926
 31
0.0
  0
LINE
  5
32C
330
1F
100
AcDbEntity
  8
LAY-10
  6
CONTINUOUS
 62
     7
100
AcDbLine
 10
256.5000000000002
 20
178.9999999999893
 30
0.0
 11
256.5000000000002
 21
180.99999999999
 31
0.0
  0
LINE
  5
32D
330
1F
100
AcDbEntity
  8
LAY-10
  6
CONTINUOUS
 62
     7
100
AcDbLine
 10
262.4999999999997
 20
178.9999999999893
 30
0.0
 11
262.4999999999997
 21
180.99999999999
 31
0.0
  0
LINE
  5
32E
330
1F
100
AcDbEntity
  8
LAY-10
  6
CONTINUOUS
 62
     7
100
AcDbLine
 10
378.9999999999908
 20
182.499999999993
 30
0.0
 11
378.4999999999924
 21
182.9999999999937
 31
0.0
  0
LINE
  5
32F
330
1F
100
AcDbEntity
  8
LAY-10
  6
CONTINUOUS
 62
     7
100
AcDbLine
 10
372.9999999999917
 20
182.499999999993
 30
0.0
 11
373.4999999999931
 21
182.9999999999937
 31
0.0
  0
LINE
  5
330
330
1F
100
AcDbEntity
  8
LAY-10
  6
CONTINUOUS
 62
     7
100
AcDbLine
 10
378.9999999999908
 20
182.499999999993
 30
0.0
 11
378.9999999999908
 21
180.500000000004
 31
0.0
  0
LINE
  5
331
330
1F
100
AcDbEntity
  8
LAY-10
  6
CONTINUOUS
 62
     7
100
AcDbLine
 10
372.9999999999917
 20
182.499999999993
 30
0.0
 11
372.9999999999917
 21
180.500000000004
 31
0.0
  0
LINE
  5
332
330
1F
100
AcDbEntity
  8
LAY-10
  6
CONTINUOUS
 62
     7
100
AcDbLine
 10
378.4999999999899
 20
180.9999999999979
 30
0.0
 11
378.4999999999899
 21
174.9999999999979
 31
0.0
  0
LINE
  5
333
330
1F
100
AcDbEntity
  8
LAY-10
  6
CONTINUOUS
 62
     7
100
AcDbLine
 10
373.4999999999899
 20
180.9999999999979
 30
0.0
 11
373.4999999999899
 21
174.9999999999979
 31
0.0
  0
LINE
  5
334
330
1F
100
AcDbEntity
  8
LAY-10
  6
CONTINUOUS
 62
     7
100
AcDbLine
 10
373.4999999999717
 20
174.1339745962029
 30
0.0
 11
372.9999999999717
 21
174.9999999999875
 31
0.0
  0
LINE
  5
335
330
1F
100
AcDbEntity
  8
LAY-10
  6
CONTINUOUS
 62
     7
100
AcDbLine
 10
378.5000000000019
 20
174.1339745962065
 30
0.0
 11
379.0000000000019
 21
174.999999999991
 31
0.0
  0
LINE
  5
336
330
1F
100
AcDbEntity
  8
LAY-10
  6
CONTINUOUS
 62
     7
100
AcDbLine
 10
280.2
 20
147.999999999994
 30
0.0
 11
280.6374999999999
 21
161.9999999999902
 31
0.0
  0
LINE
  5
337
330
1F
100
AcDbEntity
  8
LAY-10
  6
CONTINUOUS
 62
     7
100
AcDbLine
 10
339.8000000000004
 20
147.999999999994
 30
0.0
 11
339.3625000000005
 21
161.9999999999902
 31
0.0
  0
DIMENSION
  5
339
330
1F
100
AcDbEntity
  8
LAY-20
  6
CONTINUOUS
 62
     4
100
AcDbDimension
  2
*D15
 10
215.0
 20
192.99999999999
 30
0.0
 11
210.0
 21
172.99999999999
 31
0.0
 70
   160
  3
ISO-25
100
AcDbAlignedDimension
 13
272.0
 23
152.99999999999
 33
0.0
 14
236.8672954017
 24
192.99999999999
 34
0.0
 50
90.0
100
AcDbRotatedDimension
1001
ACAD
1000
DSTYLE
1002
{
1070
   270
1070
     2
1070
     6
1000
EX_BNORM
1070
     7
1000
EX_BNORM
1070
    41
1040
5.0
1070
    42
1040
3.0
1070
    44
1040
3.0
1070
    73
1070
     0
1070
    74
1070
     0
1070
    75
1070
     0
1070
    76
1070
     0
1070
    77
1070
     1
1070
    78
1070
     8
1070
   140
1040
6.2362208
1070
   147
1040
0.0
1070
   173
1070
     1
1070
   176
1070
     4
1070
   177
1070
     4
1070
   178
1070
     7
1070
   271
1070
     1
1070
   277
1070
     2
1070
   279
1070
     2
1070
   280
1070
     0
1070
   287
1070
     5
1070
   340
1005
338
1002
}
  0
DIMENSION
  5
347
330
1F
100
AcDbEntity
  8
LAY-20
  6
CONTINUOUS
 62
     4
100
AcDbDimension
  2
*D16
 10
405.0
 20
192.99999999999
 30
0.0
 11
400.0
 21
162.99999999999
 31
0.0
 70
   160
  3
ISO-25
100
AcDbAlignedDimension
 13
348.0
 23
132.99999999999
 33
0.0
 14
383.13270459831
 24
192.99999999999
 34
0.0
 50
90.0
100
AcDbRotatedDimension
1001
ACAD
1000
DSTYLE
1002
{
1070
   270
1070
     2
1070
     6
1000
EX_BNORM
1070
     7
1000
EX_BNORM
1070
    41
1040
5.0
1070
    42
1040
3.0
1070
    44
1040
3.0
1070
    73
1070
     0
1070
    74
1070
     0
1070
    75
1070
     0
1070
    76
1070
     0
1070
    77
1070
     1
1070
    78
1070
     8
1070
   140
1040
6.2362208
1070
   147
1040
0.0
1070
   173
1070
     1
1070
   176
1070
     4
1070
   177
1070
     4
1070
   178
1070
     7
1070
   271
1070
     1
1070
   277
1070
     2
1070
   279
1070
     2
1070
   280
1070
     0
1070
   287
1070
     5
1070
   340
1005
338
1002
}
  0
DIMENSION
  5
354
330
1F
100
AcDbEntity
  8
LAY-20
  6
CONTINUOUS
 62
     4
100
AcDbDimension
  2
*D17
 10
405.0
 20
192.99999999999
 30
0.0
 11
400.0
 21
211.49999999999
 31
0.0
 70
   160
  3
ISO-25
100
AcDbAlignedDimension
 13
332.97942913437
 23
229.99999999999
 33
0.0
 14
405.0
 24
192.99999999999
 34
0.0
 50
90.0
100
AcDbRotatedDimension
1001
ACAD
1000
DSTYLE
1002
{
1070
   270
1070
     2
1070
     6
1000
EX_BNORM
1070
     7
1000
EX_BNORM
1070
    41
1040
5.0
1070
    42
1040
3.0
1070
    44
1040
3.0
1070
    73
1070
     0
1070
    74
1070
     0
1070
    75
1070
     0
1070
    76
1070
     1
1070
    77
1070
     1
1070
    78
1070
     8
1070
   140
1040
6.2362208
1070
   147
1040
0.0
1070
   173
1070
     1
1070
   176
1070
     4
1070
   177
1070
     4
1070
   178
1070
     7
1070
   271
1070
     1
1070
   277
1070
     2
1070
   279
1070
     2
1070
   280
1070
     0
1070
   287
1070
     5
1070
   340
1005
338
1002
}
  0
DIMENSION
  5
360
330
1F
100
AcDbEntity
  8
LAY-20
  6
CONTINUOUS
 62
     4
100
AcDbDimension
  2
*D18
 10
339.8
 20
112.99999999999
 30
0.0
 11
310.0
 21
117.99999999999
 31
0.0
 70
   160
  1
Rｃ2(<>)
  3
ISO-25
100
AcDbAlignedDimension
 13
280.2
 23
147.99999999999
 33
0.0
 14
339.8
 24
147.99999999999
 34
0.0
100
AcDbRotatedDimension
1001
ACAD
1000
DSTYLE
1002
{
1070
   270
1070
     2
1070
     6
1000
EX_BNORM
1070
     7
1000
EX_BNORM
1070
    41
1040
6.0
1070
    42
1040
3.0
1070
    44
1040
3.0
1070
    73
1070
     0
1070
    74
1070
     0
1070
    75
1070
     0
1070
    76
1070
     0
1070
    77
1070
     1
1070
    78
1070
     8
1070
   140
1040
6.2362208
1070
   147
1040
0.0
1070
   173
1070
     1
1070
   176
1070
     4
1070
   177
1070
     4
1070
   178
1070
     7
1070
   271
1070
     1
1070
   277
1070
     2
1070
   279
1070
     2
1070
   280
1070
     0
1070
   287
1070
     5
1070
   340
1005
338
1002
}
  0
DIMENSION
  5
36D
330
1F
100
AcDbEntity
  8
LAY-20
  6
CONTINUOUS
 62
     4
100
AcDbDimension
  2
*D19
 10
363.5
 20
249.99999999999
 30
0.0
 11
310.0
 21
254.99999999999
 31
0.0
 70
   160
  1
%%c<>
  3
ISO-25
100
AcDbAlignedDimension
 13
256.5
 23
192.49999999999
 33
0.0
 14
363.5
 24
192.96178205589
 34
0.0
100
AcDbRotatedDimension
1001
ACAD
1000
DSTYLE
1002
{
1070
   270
1070
     2
1070
     6
1000
EX_BNORM
1070
     7
1000
EX_BNORM
1070
    41
1040
6.0
1070
    42
1040
3.0
1070
    44
1040
3.0
1070
    73
1070
     0
1070
    74
1070
     0
1070
    75
1070
     0
1070
    76
1070
     0
1070
    77
1070
     1
1070
    78
1070
     8
1070
   140
1040
6.2362208
1070
   147
1040
0.0
1070
   173
1070
     1
1070
   176
1070
     4
1070
   177
1070
     4
1070
   178
1070
     7
1070
   271
1070
     1
1070
   277
1070
     2
1070
   279
1070
     2
1070
   280
1070
     0
1070
   287
1070
     5
1070
   340
1005
338
1002
}
  0
DIMENSION
  5
37A
330
1F
100
AcDbEntity
  8
LAY-20
  6
CONTINUOUS
 62
     4
100
AcDbDimension
  2
*D20
 10
365.99322425735
 20
263.99999999999
 30
0.0
 11
310.000000000005
 21
268.99999999999
 31
0.0
 70
   160
  1
%%c<>
  3
ISO-25
100
AcDbAlignedDimension
 13
254.00677574266
 23
192.99999999999
 33
0.0
 14
365.99322425735
 24
192.99999999999
 34
0.0
100
AcDbRotatedDimension
1001
ACAD
1000
DSTYLE
1002
{
1070
   270
1070
     2
1070
     6
1000
EX_BNORM
1070
     7
1000
EX_BNORM
1070
    41
1040
6.0
1070
    42
1040
2.300000000010016
1070
    44
1040
3.0
1070
    73
1070
     0
1070
    74
1070
     0
1070
    75
1070
     0
1070
    76
1070
     0
1070
    77
1070
     1
1070
    78
1070
     8
1070
   140
1040
6.2362208
1070
   147
1040
0.0
1070
   173
1070
     1
1070
   176
1070
     4
1070
   177
1070
     4
1070
   178
1070
     7
1070
   271
1070
     1
1070
   277
1070
     2
1070
   279
1070
     2
1070
   280
1070
     0
1070
   287
1070
     5
1070
   340
1005
338
1002
}
  0
DIMENSION
  5
387
330
1F
100
AcDbEntity
  8
LAY-20
  6
CONTINUOUS
 62
     4
100
AcDbDimension
  2
*D21
 10
385.0
 20
277.99999999999
 30
0.0
 11
310.0
 21
282.99999999999
 31
0.0
 70
   160
  1
%%c<>
  3
ISO-25
100
AcDbAlignedDimension
 13
235.0
 23
188.99999999999
 33
0.0
 14
385.0
 24
188.99999999999
 34
0.0
100
AcDbRotatedDimension
1001
ACAD
1000
DSTYLE
1002
{
1070
   270
1070
     2
1070
     6
1000
EX_BNORM
1070
     7
1000
EX_BNORM
1070
    41
1040
6.0
1070
    42
1040
3.0
1070
    44
1040
3.0
1070
    73
1070
     0
1070
    74
1070
     0
1070
    75
1070
     0
1070
    76
1070
     0
1070
    77
1070
     1
1070
    78
1070
     8
1070
   140
1040
6.2362208
1070
   147
1040
0.0
1070
   173
1070
     1
1070
   176
1070
     4
1070
   177
1070
     4
1070
   178
1070
     7
1070
   271
1070
     1
1070
   277
1070
     2
1070
   279
1070
     2
1070
   280
1070
     0
1070
   287
1070
     5
1070
   340
1005
338
1002
}
  0
LINE
  5
394
330
1F
100
AcDbEntity
  8
LAY-255
  6
CONTINUOUS
 62
     7
100
AcDbLine
 10
770.0
 20
43.99999999999999
 30
0.0
 11
570.0
 21
43.99999999999999
 31
0.0
  0
LINE
  5
395
330
1F
100
AcDbEntity
  8
LAY-255
  6
CONTINUOUS
 62
     7
100
AcDbLine
 10
577.6
 20
32.0
 30
0.0
 11
593.6
 21
42.0
 31
0.0
  0
LINE
  5
396
330
1F
100
AcDbEntity
  8
LAY-255
  6
CONTINUOUS
 62
     7
100
AcDbLine
 10
593.6
 20
42.0
 30
0.0
 11
609.6
 21
32.0
 31
0.0
  0
LINE
  5
397
330
1F
100
AcDbEntity
  8
LAY-255
  6
CONTINUOUS
 62
     7
100
AcDbLine
 10
609.6
 20
32.0
 30
0.0
 11
593.6
 21
22.0
 31
0.0
  0
LINE
  5
398
330
1F
100
AcDbEntity
  8
LAY-255
  6
CONTINUOUS
 62
     7
100
AcDbLine
 10
593.6
 20
22.0
 30
0.0
 11
577.6
 21
32.0
 31
0.0
  0
LINE
  5
399
330
1F
100
AcDbEntity
  8
LAY-255
  6
CONTINUOUS
 62
     7
100
AcDbLine
 10
10.0
 20
20.0
 30
0.0
 11
770.0000000000001
 21
20.0
 31
0.0
  0
LINE
  5
39A
330
1F
100
AcDbEntity
  8
LAY-255
  6
CONTINUOUS
 62
     7
100
AcDbLine
 10
10.0
 20
560.0
 30
0.0
 11
770.0000000000001
 21
560.0
 31
0.0
  0
LINE
  5
39B
330
1F
100
AcDbEntity
  8
LAY-255
  6
CONTINUOUS
 62
     7
100
AcDbLine
 10
10.0
 20
20.0
 30
0.0
 11
10.0
 21
560.0
 31
0.0
  0
LINE
  5
39C
330
1F
100
AcDbEntity
  8
LAY-255
  6
CONTINUOUS
 62
     7
100
AcDbLine
 10
770.0
 20
20.0
 30
0.0
 11
770.0
 21
560.0
 31
0.0
  0
LINE
  5
39D
330
1F
100
AcDbEntity
  8
LAY-255
  6
CONTINUOUS
 62
     4
100
AcDbLine
 10
570.0
 20
55.99999999999999
 30
0.0
 11
770.0000000000001
 21
55.99999999999999
 31
0.0
  0
LINE
  5
39E
330
1F
100
AcDbEntity
  8
LAY-255
  6
CONTINUOUS
 62
     7
100
AcDbLine
 10
570.0
 20
20.0
 30
0.0
 11
570.0
 21
134.0
 31
0.0
  0
LINE
  5
39F
330
1F
100
AcDbEntity
  8
LAY-255
  6
CONTINUOUS
 62
     4
100
AcDbLine
 10
670.0
 20
55.99999999999999
 30
0.0
 11
670.0
 21
44.0
 31
0.0
  0
LINE
  5
3A0
330
1F
100
AcDbEntity
  8
LAY-255
  6
CONTINUOUS
 62
     7
100
AcDbLine
 10
770.0000000000001
 20
134.0
 30
0.0
 11
570.0
 21
134.0
 31
0.0
  0
LINE
  5
3A1
330
1F
100
AcDbEntity
  8
LAY-255
  6
CONTINUOUS
 62
     4
100
AcDbLine
 10
766.0
 20
110.0
 30
0.0
 11
574.0
 21
110.0
 31
0.0
  0
LINE
  5
3A2
330
1F
100
AcDbEntity
  8
LAY-255
  6
CONTINUOUS
 62
     4
100
AcDbLine
 10
766.0
 20
122.0
 30
0.0
 11
574.0
 21
122.0
 31
0.0
  0
POINT
  5
3A3
330
1F
100
AcDbEntity
  8
LAY-255
  6
CONTINUOUS
 62
     7
100
AcDbPoint
 10
578.0
 20
100.0
 30
0.0
  0
POINT
  5
3A4
330
1F
100
AcDbEntity
  8
LAY-255
  6
CONTINUOUS
 62
     7
100
AcDbPoint
 10
600.0
 20
112.0
 30
0.0
  0
POINT
  5
3A5
330
1F
100
AcDbEntity
  8
LAY-255
  6
CONTINUOUS
 62
     7
100
AcDbPoint
 10
600.0
 20
124.0
 30
0.0
  0
POINT
  5
3A6
330
1F
100
AcDbEntity
  8
LAY-255
  6
CONTINUOUS
 62
     7
100
AcDbPoint
 10
578.0
 20
80.0
 30
0.0
  0
POINT
  5
3A7
330
1F
100
AcDbEntity
  8
LAY-255
  6
CONTINUOUS
 62
     7
100
AcDbPoint
 10
578.0
 20
90.0
 30
0.0
  0
POINT
  5
3A8
330
1F
100
AcDbEntity
  8
LAY-255
  6
CONTINUOUS
 62
     7
100
AcDbPoint
 10
578.0
 20
69.99999999999999
 30
0.0
  0
POINT
  5
3A9
330
1F
100
AcDbEntity
  8
LAY-255
  6
CONTINUOUS
 62
     7
100
AcDbPoint
 10
578.0
 20
59.99999999999997
 30
0.0
  0
TEXT
  5
3AA
330
1F
100
AcDbEntity
  8
LAY-255
  6
CONTINUOUS
 62
     7
100
AcDbText
 10
616.2767579736328
 20
31.0875
 30
0.0
 40
10.3125
  1
福西鋳物株式会社
 41
1.342692319347662
  7
EXCADSTD
100
AcDbText
  0
TEXT
  5
3AB
330
1F
100
AcDbEntity
  8
LAY-255
  6
CONTINUOUS
 62
     7
100
AcDbText
 10
617.0187500000001
 20
23.9625
 30
0.0
 40
3.4375
  1
ＦＵＫＵＮＩＳＨＩ
 41
1.204799226045263
  7
EXCADSTD
100
AcDbText
  0
TEXT
  5
3AC
330
1F
100
AcDbEntity
  8
LAY-255
  6
CONTINUOUS
 62
     7
100
AcDbText
 10
665.4383928571428
 20
23.9625
 30
0.0
 40
3.4375
  1
ＦＯＵＮＤＲＹ
 41
1.243252752978497
  7
EXCADSTD
100
AcDbText
  0
TEXT
  5
3AD
330
1F
100
AcDbEntity
  8
LAY-255
  6
CONTINUOUS
 62
     7
100
AcDbText
 10
703.9891823858172
 20
23.9625
 30
0.0
 40
3.4375
  1
ＣＯ.,ＬＴＤ.
 41
1.243830523306697
  7
EXCADSTD
100
AcDbText
  0
TEXT
  5
3AE
330
1F
100
AcDbEntity
  8
LAY-255
  6
CONTINUOUS
 62
     7
100
AcDbText
 10
588.06875
 20
27.4375
 30
0.0
 40
10.3125
  1
S
 41
0.7582677563636363
  7
EXCADSTD
100
AcDbText
  0
TEXT
  5
3AF
330
1F
100
AcDbEntity
  8
LAY-255
  6
CONTINUOUS
 62
     7
100
AcDbText
 10
594.209375
 20
27.49882075472
 30
0.0
 40
10.3125
  1
F
 41
0.7440945272727272
  7
EXCADSTD
100
AcDbText
  0
TEXT
  5
3B0
330
1F
100
AcDbEntity
  8
LAY-255
  6
CONTINUOUS
 62
     7
100
AcDbText
 10
674.2109375
 20
48.84374999999998
 30
0.0
 40
5.15625
  1
縮尺
 41
1.080708718181818
  7
EXCADSTD
100
AcDbText
  0
TEXT
  5
3B1
330
1F
100
AcDbEntity
  8
LAY-255
  6
CONTINUOUS
 62
     7
100
AcDbText
 10
574.53125
 20
113.125
 30
0.0
 40
6.875
  1
型式
 41
1.056348480681818
  7
EXCADSTD
100
AcDbText
  0
TEXT
  5
3B2
330
1F
100
AcDbEntity
  8
LAY-255
  6
CONTINUOUS
 62
     7
100
AcDbText
 10
574.84375
 20
125.125
 30
0.0
 40
6.875
  1
品名
 41
0.978838634090909
  7
EXCADSTD
100
AcDbText
  0
TEXT
  5
3B3
330
1F
100
AcDbEntity
  8
LAY-255
  6
CONTINUOUS
 62
     7
100
AcDbText
 10
574.3046875
 20
48.84374999999998
 30
0.0
 40
5.15625
  1
作成日
 41
1.000629973818182
  7
EXCADSTD
100
AcDbText
  0
TEXT
  5
3B4
330
1F
100
AcDbEntity
  8
LAY-255
  6
CONTINUOUS
 62
     7
100
AcDbText
 10
578.375
 20
71.12500000000001
 30
0.0
 40
6.875
  1
施工：打込用
 41
1.018700840909091
  7
EXCADSTD
100
AcDbText
  0
TEXT
  5
3B5
330
1F
100
AcDbEntity
  8
LAY-255
  6
CONTINUOUS
 62
     7
100
AcDbText
 10
600.5
 20
125.125
 30
0.0
 40
6.875
  1
ルーフドレイン
 41
1.021169538599106
  7
EXCADSTD
100
AcDbText
  0
TEXT
  5
3B6
330
1F
100
AcDbEntity
  8
LAY-255
  6
CONTINUOUS
 62
     7
100
AcDbText
 10
578.75
 20
101.125
 30
0.0
 40
6.875
  1
防水：モルタル・塗膜防水兼用
 41
1.008985320967742
  7
EXCADSTD
100
AcDbText
  0
TEXT
  5
3B7
330
1F
100
AcDbEntity
  8
LAY-255
  6
CONTINUOUS
 62
     7
100
AcDbText
 10
578.28125
 20
91.12500000000001
 30
0.0
 40
6.875
  1
材質：ステンレス鋼鋳鋼
 41
1.017696295032802
  7
EXCADSTD
100
AcDbText
  0
TEXT
  5
3B8
330
1F
100
AcDbEntity
  8
LAY-255
  6
CONTINUOUS
 62
     7
100
AcDbText
 10
578.46875
 20
81.12500000000001
 30
0.0
 40
6.875
  1
用途：屋上・庇・バルコニ－用
 41
1.011557076246334
  7
EXCADSTD
100
AcDbText
  0
TEXT
  5
3B9
330
1F
100
AcDbEntity
  8
LAY-255
  6
CONTINUOUS
 62
     7
100
AcDbText
 10
578.4375
 20
61.12500000000001
 30
0.0
 40
6.875
  1
接続：管用テーパねじ
 41
1.013063761157025
  7
EXCADSTD
100
AcDbText
  0
TEXT
  5
3BA
330
1F
100
AcDbEntity
  8
LAY-255
  6
CONTINUOUS
 62
     7
100
AcDbText
 10
696.5625
 20
47.12499999999998
 30
0.0
 40
6.875
  1
１：２
 41
0.888661464
  7
EXCADSTD
100
AcDbText
  0
TEXT
  5
3BB
330
1F
100
AcDbEntity
  8
LAY-255
  6
CONTINUOUS
 62
     7
100
AcDbText
 10
601.5
 20
113.125
 30
0.0
 40
6.875
  1
ＳＦ－ＳＵＭＧ－３０５０型
 41
1.004758697075099
  7
EXCADSTD
100
AcDbText
  0
TEXT
  5
3BC
330
1F
100
AcDbEntity
  8
LAY-255
  6
CONTINUOUS
 62
     7
100
AcDbText
 10
601.78125
 20
47.12499999999998
 30
0.0
 40
6.875
  1
０７／０１／０５
 41
0.9779528072727272
  7
EXCADSTD
100
AcDbText
  0
ENDSEC
  0
SECTION
  2
OBJECTS
  0
DICTIONARY
  5
C
330
0
100
AcDbDictionary
  3
ACAD_GROUP
350
D
  3
ACAD_LAYOUT
350
1A
  3
ACAD_MATERIAL
350
43
  3
ACAD_MLEADERSTYLE
350
6B
  3
ACAD_MLINESTYLE
350
17
  3
ACAD_PLOTSETTINGS
350
19
  3
ACAD_SCALELIST
350
47
  3
ACAD_VISUALSTYLE
350
2A
  3
ACDBHEADERROUNDTRIPXREC
350
3BD
  3
ACDBVARIABLEDICTIONARY
350
3DE
  0
DICTIONARY
  5
3E9
330
8
100
AcDbDictionary
280
     1
  3
ACAD_XREC_ROUNDTRIP
360
3EA
  0
DICTIONARY
  5
D
102
{ACAD_REACTORS
330
C
102
}
330
C
100
AcDbDictionary
  0
DICTIONARY
  5
1A
102
{ACAD_REACTORS
330
C
102
}
330
C
100
AcDbDictionary
  0
DICTIONARY
  5
43
102
{ACAD_REACTORS
330
C
102
}
330
C
100
AcDbDictionary
  3
BYBLOCK
350
45
  3
BYLAYER
350
44
  3
GLOBAL
350
46
  0
DICTIONARY
  5
6B
102
{ACAD_REACTORS
330
C
102
}
330
C
100
AcDbDictionary
  3
STANDARD
350
6C
  0
DICTIONARY
  5
17
102
{ACAD_REACTORS
330
C
102
}
330
C
100
AcDbDictionary
  3
STANDARD
350
18
  0
DICTIONARY
  5
19
102
{ACAD_REACTORS
330
C
102
}
330
C
100
AcDbDictionary
  0
DICTIONARY
  5
47
102
{ACAD_REACTORS
330
C
102
}
330
C
100
AcDbDictionary
  3
A0
350
48
  3
A1
350
49
  3
A2
350
4A
  3
A3
350
4B
  3
A4
350
4C
  3
A5
350
4D
  3
A6
350
4E
  3
A7
350
4F
  3
A8
350
50
  3
A9
350
51
  3
B0
350
52
  3
B1
350
53
  3
B2
350
54
  3
B3
350
55
  3
B4
350
56
  3
B5
350
57
  3
B6
350
58
  3
B7
350
59
  3
B8
350
5A
  3
B9
350
5B
  3
C0
350
5C
  3
C1
350
5D
  3
C2
350
5E
  3
C3
350
5F
  3
C4
350
60
  3
C5
350
61
  3
C6
350
62
  3
C7
350
63
  3
C8
350
64
  3
C9
350
65
  3
D0
350
66
  3
D1
350
67
  3
D2
350
68
  0
DICTIONARY
  5
2A
102
{ACAD_REACTORS
330
C
102
}
330
C
100
AcDbDictionary
  3
2DWIREFRAME
350
2F
  3
BASIC
350
32
  3
BRIGHTEN
350
36
  3
COLORCHANGE
350
3A
  3
CONCEPTUAL
350
34
  3
DIM
350
35
  3
EDGECOLOROFF
350
3D
  3
FACEPATTERN
350
39
  3
FLAT
350
2B
  3
FLATWITHEDGES
350
2C
  3
GOURAUD
350
2D
  3
GOURAUDWITHEDGES
350
2E
  3
HIDDEN
350
31
  3
JITTEROFF
350
3B
  3
LINEPATTERN
350
38
  3
OVERHANGOFF
350
3C
  3
REALISTIC
350
33
  3
SHADED
350
42
  3
SHADED_WITH_EDGES
350
41
  3
SHADES_OF_GRAY
350
3E
  3
SKETCHY
350
3F
  3
THICKEN
350
37
  3
WIREFRAME
350
30
  3
X-RAY
350
40
  0
DICTIONARY
  5
3BD
102
{ACAD_REACTORS
330
C
102
}
330
C
100
AcDbDictionary
  3
CEPSNID
350
3C7
  3
CEPSNTYPE
350
3C6
  3
DIMSTYLEDATA
350
3DD
  3
FINGERPRINTGUID
350
3C8
  3
HYPERLINKBASE
350
3C0
  3
INSUNITS
350
3C5
  3
LAYOUTDICT
350
3C2
  3
LWETCUNION
350
3C4
  3
PLOTSETDICT
350
3C3
  3
PSVPSCALE
350
3CA
  3
PUCSBASE
350
3CD
  3
PUCSORGBACK
350
3D3
  3
PUCSORGBOTTOM
350
3CF
  3
PUCSORGFRONT
350
3D2
  3
PUCSORGLEFT
350
3D0
  3
PUCSORGRIGHT
350
3D1
  3
PUCSORGTOP
350
3CE
  3
PUCSORTHOREF
350
3CB
  3
PUCSORTHOVIEW
350
3CC
  3
STYLESHEET
350
3C1
  3
TSTACKALIGN
350
3BE
  3
TSTACKSIZE
350
3BF
  3
UCSBASE
350
3D6
  3
UCSORGBACK
350
3DC
  3
UCSORGBOTTOM
350
3D8
  3
UCSORGFRONT
350
3DB
  3
UCSORGLEFT
350
3D9
  3
UCSORGRIGHT
350
3DA
  3
UCSORGTOP
350
3D7
  3
UCSORTHOREF
350
3D4
  3
UCSORTHOVIEW
350
3D5
  3
VERSIONGUID
350
3C9
  0
DICTIONARY
  5
3DE
102
{ACAD_REACTORS
330
C
102
}
330
C
100
AcDbDictionary
  3
CANNOSCALE
350
3EB
  3
CENTEREXE
350
3E5
  3
CENTERLTYPEFILE
350
3E6
  3
CMLEADERSTYLE
350
3E0
  3
CTABLESTYLE
350
3DF
  3
DIMASSOC
350
3E7
  3
HIDETEXT
350
3E8
  3
MSLTSCALE
350
3EC
  3
PSOLHEIGHT
350
3E2
  3
PSOLWIDTH
350
3E1
  0
XRECORD
  5
3EA
102
{ACAD_REACTORS
330
3E9
102
}
330
3E9
100
AcDbXrecord
102
VTR_0.000_0.000_1.000_1.000_VISUALSTYLE
340
2F
102
VTR_0.000_0.000_1.000_1.000_GRIDDISPLAY
 70
     3
102
VTR_0.000_0.000_1.000_1.000_GRIDMAJOR
 70
     5
102
VTR_0.000_0.000_1.000_1.000_DEFAULTLIGHTING
280
     1
102
VTR_0.000_0.000_1.000_1.000_DEFAULTLIGHTINGTYPE
 70
     1
102
VTR_0.000_0.000_1.000_1.000_BRIGHTNESS
141
0.0
102
VTR_0.000_0.000_1.000_1.000_CONTRAST
142
0.0
  0
MATERIAL
  5
45
102
{ACAD_REACTORS
330
43
102
}
102
{ACAD_XDICTIONARY
360
3EF
102
}
330
43
100
AcDbMaterial
  1
BYBLOCK
  0
MATERIAL
  5
44
102
{ACAD_REACTORS
330
43
102
}
102
{ACAD_XDICTIONARY
360
3ED
102
}
330
43
100
AcDbMaterial
  1
BYLAYER
  0
MATERIAL
  5
46
102
{ACAD_REACTORS
330
43
102
}
102
{ACAD_XDICTIONARY
360
3F1
102
}
330
43
100
AcDbMaterial
  1
GLOBAL
  0
ACAD_PROXY_OBJECT
  5
6C
102
{ACAD_REACTORS
330
6B
102
}
330
6B
100
AcDbProxyObject
 90
      499
 91
      505
 93
      610
310
40901902A4063FBFFFFFE0000000000000020400000000000020404214DD185B99185C990000000000000104090141901A00000000000004100000000000000041025764000000000000039000
340
14
340
0
340
11
340
0
 94
        0
1001
ACAD_MLEADERVER
1070
     2
  0
MLINESTYLE
  5
18
102
{ACAD_REACTORS
330
17
102
}
330
17
100
AcDbMlineStyle
  2
Standard
 70
     0
  3

 62
   256
 51
90.0
 52
90.0
 71
     2
 49
0.5
 62
   256
  6
BYLAYER
 49
-0.5
 62
   256
  6
BYLAYER
  0
ACAD_PROXY_OBJECT
  5
48
102
{ACAD_REACTORS
330
47
102
}
330
47
100
AcDbProxyObject
 90
      499
 91
      503
 93
       41
310
903313A31580
  0
ACAD_PROXY_OBJECT
  5
49
102
{ACAD_REACTORS
330
47
102
}
330
47
100
AcDbProxyObject
 90
      499
 91
      503
 93
      105
310
903313A324000000000000004000
  0
ACAD_PROXY_OBJECT
  5
4A
102
{ACAD_REACTORS
330
47
102
}
330
47
100
AcDbProxyObject
 90
      499
 91
      503
 93
      105
310
903313A344000000000000104000
  0
ACAD_PROXY_OBJECT
  5
4B
102
{ACAD_REACTORS
330
47
102
}
330
47
100
AcDbProxyObject
 90
      499
 91
      503
 93
      105
310
903313A354000000000000144000
  0
ACAD_PROXY_OBJECT
  5
4C
102
{ACAD_REACTORS
330
47
102
}
330
47
100
AcDbProxyObject
 90
      499
 91
      503
 93
      105
310
903313A384000000000000204000
  0
ACAD_PROXY_OBJECT
  5
4D
102
{ACAD_REACTORS
330
47
102
}
330
47
100
AcDbProxyObject
 90
      499
 91
      503
 93
      113
310
904313A31304000000000000244000
  0
ACAD_PROXY_OBJECT
  5
4E
102
{ACAD_REACTORS
330
47
102
}
330
47
100
AcDbProxyObject
 90
      499
 91
      503
 93
      113
310
904313A31364000000000000304000
  0
ACAD_PROXY_OBJECT
  5
4F
102
{ACAD_REACTORS
330
47
102
}
330
47
100
AcDbProxyObject
 90
      499
 91
      503
 93
      113
310
904313A32304000000000000344000
  0
ACAD_PROXY_OBJECT
  5
50
102
{ACAD_REACTORS
330
47
102
}
330
47
100
AcDbProxyObject
 90
      499
 91
      503
 93
      113
310
904313A333040000000000003E4000
  0
ACAD_PROXY_OBJECT
  5
51
102
{ACAD_REACTORS
330
47
102
}
330
47
100
AcDbProxyObject
 90
      499
 91
      503
 93
      113
310
904313A34304000000000000444000
  0
ACAD_PROXY_OBJECT
  5
52
102
{ACAD_REACTORS
330
47
102
}
330
47
100
AcDbProxyObject
 90
      499
 91
      503
 93
      113
310
904313A35304000000000000494000
  0
ACAD_PROXY_OBJECT
  5
53
102
{ACAD_REACTORS
330
47
102
}
330
47
100
AcDbProxyObject
 90
      499
 91
      503
 93
      121
310
905313A3130304000000000000594000
  0
ACAD_PROXY_OBJECT
  5
54
102
{ACAD_REACTORS
330
47
102
}
330
47
100
AcDbProxyObject
 90
      499
 91
      503
 93
      105
310
903323A310000000000000010100
  0
ACAD_PROXY_OBJECT
  5
55
102
{ACAD_REACTORS
330
47
102
}
330
47
100
AcDbProxyObject
 90
      499
 91
      503
 93
      105
310
903343A310000000000000410100
  0
ACAD_PROXY_OBJECT
  5
56
102
{ACAD_REACTORS
330
47
102
}
330
47
100
AcDbProxyObject
 90
      499
 91
      503
 93
      105
310
903383A310000000000000810100
  0
ACAD_PROXY_OBJECT
  5
57
102
{ACAD_REACTORS
330
47
102
}
330
47
100
AcDbProxyObject
 90
      499
 91
      503
 93
      113
310
90431303A310000000000000910100
  0
ACAD_PROXY_OBJECT
  5
58
102
{ACAD_REACTORS
330
47
102
}
330
47
100
AcDbProxyObject
 90
      499
 91
      503
 93
      121
310
9053130303A310000000000001650100
  0
ACAD_PROXY_OBJECT
  5
59
102
{ACAD_REACTORS
330
47
102
}
330
47
100
AcDbProxyObject
 90
      499
 91
      503
 93
      257
310
90E312F31323822203D2031272D3022000000000000200FC000000000000284000
  0
ACAD_PROXY_OBJECT
  5
5A
102
{ACAD_REACTORS
330
47
102
}
330
47
100
AcDbProxyObject
 90
      499
 91
      503
 93
      249
310
90D312F363422203D2031272D3022000000000000240FC000000000000284000
  0
ACAD_PROXY_OBJECT
  5
5B
102
{ACAD_REACTORS
330
47
102
}
330
47
100
AcDbProxyObject
 90
      499
 91
      503
 93
      249
310
90D312F333222203D2031272D3022000000000000280FC000000000000284000
  0
ACAD_PROXY_OBJECT
  5
5C
102
{ACAD_REACTORS
330
47
102
}
330
47
100
AcDbProxyObject
 90
      499
 91
      503
 93
      249
310
90D312F313622203D2031272D30220000000000002C0FC000000000000284000
  0
ACAD_PROXY_OBJECT
  5
5D
102
{ACAD_REACTORS
330
47
102
}
330
47
100
AcDbProxyObject
 90
      499
 91
      503
 93
      249
310
90D332F333222203D2031272D30220000000000002E0FC000000000000284000
  0
ACAD_PROXY_OBJECT
  5
5E
102
{ACAD_REACTORS
330
47
102
}
330
47
100
AcDbProxyObject
 90
      499
 91
      503
 93
      241
310
90C312F3822203D2031272D3022000000000000300FC000000000000284000
  0
ACAD_PROXY_OBJECT
  5
5F
102
{ACAD_REACTORS
330
47
102
}
330
47
100
AcDbProxyObject
 90
      499
 91
      503
 93
      249
310
90D332F313622203D2031272D3022000000000000320FC000000000000284000
  0
ACAD_PROXY_OBJECT
  5
60
102
{ACAD_REACTORS
330
47
102
}
330
47
100
AcDbProxyObject
 90
      499
 91
      503
 93
      241
310
90C312F3422203D2031272D3022000000000000340FC000000000000284000
  0
ACAD_PROXY_OBJECT
  5
61
102
{ACAD_REACTORS
330
47
102
}
330
47
100
AcDbProxyObject
 90
      499
 91
      503
 93
      241
310
90C332F3822203D2031272D3022000000000000360FC000000000000284000
  0
ACAD_PROXY_OBJECT
  5
62
102
{ACAD_REACTORS
330
47
102
}
330
47
100
AcDbProxyObject
 90
      499
 91
      503
 93
      241
310
90C312F3222203D2031272D3022000000000000380FC000000000000284000
  0
ACAD_PROXY_OBJECT
  5
63
102
{ACAD_REACTORS
330
47
102
}
330
47
100
AcDbProxyObject
 90
      499
 91
      503
 93
      241
310
90C332F3422203D2031272D30220000000000003A0FC000000000000284000
  0
ACAD_PROXY_OBJECT
  5
64
102
{ACAD_REACTORS
330
47
102
}
330
47
100
AcDbProxyObject
 90
      499
 91
      503
 93
      161
310
90A3122203D2031272D30224000000000000284000
  0
ACAD_PROXY_OBJECT
  5
65
102
{ACAD_REACTORS
330
47
102
}
330
47
100
AcDbProxyObject
 90
      499
 91
      503
 93
      257
310
90E312D312F3222203D2031272D30220000000000003E0FC000000000000284000
  0
ACAD_PROXY_OBJECT
  5
66
102
{ACAD_REACTORS
330
47
102
}
330
47
100
AcDbProxyObject
 90
      499
 91
      503
 93
      225
310
90A3322203D2031272D302200000000000002100000000000000284000
  0
ACAD_PROXY_OBJECT
  5
67
102
{ACAD_REACTORS
330
47
102
}
330
47
100
AcDbProxyObject
 90
      499
 91
      503
 93
      225
310
90A3622203D2031272D302200000000000006100000000000000284000
  0
ACAD_PROXY_OBJECT
  5
68
102
{ACAD_REACTORS
330
47
102
}
330
47
100
AcDbProxyObject
 90
      499
 91
      503
 93
      249
310
90D31272D3022203D2031272D30220000000000000A100000000000000284000
  0
ACAD_PROXY_OBJECT
  5
2F
102
{ACAD_REACTORS
330
2A
102
}
330
2A
100
AcDbProxyObject
 90
      499
 91
      501
 93
      436
310
42CC9915DA5C99599C985B595049028333333333333E33F0000000000000F90107901411070040501600405405064090741402480A0340
1001
ACAD
1000
AcDbSavedByObjectVersion
1070
     0
  0
ACAD_PROXY_OBJECT
  5
32
102
{ACAD_REACTORS
330
2A
102
}
330
2A
100
AcDbProxyObject
 90
      499
 91
      501
 93
      388
310
4150985CDA58D07406404333333333333E33F0000000000000F90107A41107004050150841D405064090741402480A0350
1001
ACAD
1000
AcDbSavedByObjectVersion
1070
     0
  0
ACAD_PROXY_OBJECT
  5
36
102
{ACAD_REACTORS
330
2A
102
}
330
2A
100
AcDbProxyObject
 90
      499
 91
      501
 93
      428
310
42109C9A59DA1D195B90C409028333333333333E33F0000000000000F9010790141107004050150841D405064090741402480A029950
1001
ACAD
1000
AcDbSavedByObjectVersion
1070
     0
  0
ACAD_PROXY_OBJECT
  5
3A
102
{ACAD_REACTORS
330
2A
102
}
330
2A
100
AcDbProxyObject
 90
      499
 91
      501
 93
      452
310
42D0DBDB1BDC90DA185B99D95104090240C333333333333E33F0000000000000F90108901411070040501508421405064090741402480A0350
1001
ACAD
1000
AcDbSavedByObjectVersion
1070
     0
  0
ACAD_PROXY_OBJECT
  5
34
102
{ACAD_REACTORS
330
2A
102
}
330
2A
100
AcDbProxyObject
 90
      499
 91
      501
 93
      500
310
4290DBDB98D95C1D1D585B10940D028333333333333E33F0000000000000F90107902409070040501000000000018199010841D405064090740C02480A0340
1001
ACAD
1000
AcDbSavedByObjectVersion
1070
     0
  0
ACAD_PROXY_OBJECT
  5
35
102
{ACAD_REACTORS
330
2A
102
}
330
2A
100
AcDbProxyObject
 90
      499
 91
      501
 93
      412
310
40D11A5B50B409028333333333333E33F0000000000000F9010790141107004050150841D405064090741402480A02677FFFFFD0
1001
ACAD
1000
AcDbSavedByObjectVersion
1070
     0
  0
ACAD_PROXY_OBJECT
  5
3D
102
{ACAD_REACTORS
330
2A
102
}
330
2A
100
AcDbProxyObject
 90
      499
 91
      501
 93
      452
310
43115919D950DBDB1BDC93D999916409028333333333333E33F0000000000000F9010790141107004050150841D405064090741402480A0350
1001
ACAD
1000
AcDbSavedByObjectVersion
1070
     0
  0
ACAD_PROXY_OBJECT
  5
39
102
{ACAD_REACTORS
330
2A
102
}
330
2A
100
AcDbProxyObject
 90
      499
 91
      501
 93
      444
310
42D19858D95C185D1D195C9B90F409028333333333333E33F0000000000000F9010790141107004050150841D405064090741402480A0350
1001
ACAD
1000
AcDbSavedByObjectVersion
1070
     0
  0
ACAD_PROXY_OBJECT
  5
2B
102
{ACAD_REACTORS
330
2A
102
}
330
2A
100
AcDbProxyObject
 90
      499
 91
      501
 93
      380
310
41119B185D240901404333333333333E33F0000000000000F9010740A907004050150841D405064090741402480A1B50
1001
ACAD
1000
AcDbSavedByObjectVersion
1070
     0
  0
ACAD_PROXY_OBJECT
  5
2C
102
{ACAD_REACTORS
330
2A
102
}
330
2A
100
AcDbProxyObject
 90
      499
 91
      501
 93
      468
310
43519B185D15DA5D1A115919D95CD0140901404333333333333E33F0000000000000F90107409019070040501600405405064090741402480A1B50
1001
ACAD
1000
AcDbSavedByObjectVersion
1070
     0
  0
ACAD_PROXY_OBJECT
  5
2D
102
{ACAD_REACTORS
330
2A
102
}
330
2A
100
AcDbProxyObject
 90
      499
 91
      501
 93
      404
310
41D1DBDD5C985D5910240902404333333333333E33F0000000000000F9010740A9070040501641D405064090741402480A1B50
1001
ACAD
1000
AcDbSavedByObjectVersion
1070
     0
  0
ACAD_PROXY_OBJECT
  5
2E
102
{ACAD_REACTORS
330
2A
102
}
330
2A
100
AcDbProxyObject
 90
      499
 91
      501
 93
      492
310
4411DBDD5C985D5915DA5D1A115919D95CD0340902404333333333333E33F0000000000000F90107409019070040501600405405064090741402480A1B50
1001
ACAD
1000
AcDbSavedByObjectVersion
1070
     0
  0
ACAD_PROXY_OBJECT
  5
31
102
{ACAD_REACTORS
330
2A
102
}
330
2A
100
AcDbProxyObject
 90
      499
 91
      501
 93
      476
310
41921A5919195B90640502408333333333333E33F0000000000000F901079024090700405020000000000001110200405405064090740C02480A0340
1001
ACAD
1000
AcDbSavedByObjectVersion
1070
     0
  0
ACAD_PROXY_OBJECT
  5
3B
102
{ACAD_REACTORS
330
2A
102
}
330
2A
100
AcDbProxyObject
 90
      499
 91
      501
 93
      428
310
42529A5D1D195C93D999914409028333333333333E33F0000000000000F9010790141107004050150A41D405064090741402480A0350
1001
ACAD
1000
AcDbSavedByObjectVersion
1070
     0
  0
ACAD_PROXY_OBJECT
  5
38
102
{ACAD_REACTORS
330
2A
102
}
330
2A
100
AcDbProxyObject
 90
      499
 91
      501
 93
      444
310
42D31A5B995C185D1D195C9B90E409028333333333333E33F0000000000000F9010790141107004050750841D405064090741402483A0350
1001
ACAD
1000
AcDbSavedByObjectVersion
1070
     0
  0
ACAD_PROXY_OBJECT
  5
3C
102
{ACAD_REACTORS
330
2A
102
}
330
2A
100
AcDbProxyObject
 90
      499
 91
      501
 93
      444
310
42D3DD995C9A185B99D3D999915409028333333333333E33F0000000000000F9010790141107004050150941D405064090741402480A0350
1001
ACAD
1000
AcDbSavedByObjectVersion
1070
     0
  0
ACAD_PROXY_OBJECT
  5
33
102
{ACAD_REACTORS
330
2A
102
}
330
2A
100
AcDbProxyObject
 90
      499
 91
      501
 93
      428
310
425499585B1A5CDD1A58D08409038333333333333E33F0000000000000F9010740A907004050150800405405064090740C02480A1B40
1001
ACAD
1000
AcDbSavedByObjectVersion
1070
     0
  0
ACAD_PROXY_OBJECT
  5
42
102
{ACAD_REACTORS
330
2A
102
}
330
2A
100
AcDbProxyObject
 90
      499
 91
      501
 93
      420
310
4194DA1859195911B40902404333333333333E33F0000000000000F9010740A41107004050150800405405064090840C02480A0B40
1001
ACAD
1000
AcDbSavedByObjectVersion
1070
     0
  0
ACAD_PROXY_OBJECT
  5
41
102
{ACAD_REACTORS
330
2A
102
}
330
2A
100
AcDbProxyObject
 90
      499
 91
      501
 93
      516
310
4454DA18591959081DDA5D1A08195919D95CD1A40902404333333333333E33F0000000000000F901074090142907004050250800405405064090740C02480A0B40
1001
ACAD
1000
AcDbSavedByObjectVersion
1070
     0
  0
ACAD_PROXY_OBJECT
  5
3E
102
{ACAD_REACTORS
330
2A
102
}
330
2A
100
AcDbProxyObject
 90
      499
 91
      501
 93
      532
310
4394DA1859195CC81BD98811DC985E5174090240C333333333333E33F0000000000000F901079024090741D01000000000000111010841D405064090740C02480A0340
1001
ACAD
1000
AcDbSavedByObjectVersion
1070
     0
  0
ACAD_PROXY_OBJECT
  5
3F
102
{ACAD_REACTORS
330
2A
102
}
330
2A
100
AcDbProxyObject
 90
      499
 91
      501
 93
      476
310
41D4DAD95D18DA1E51840502408333333333333E33F0000000000000F901079024090741D01000000000000111010B41D405064090741802480A0340
1001
ACAD
1000
AcDbSavedByObjectVersion
1070
     0
  0
ACAD_PROXY_OBJECT
  5
37
102
{ACAD_REACTORS
330
2A
102
}
330
2A
100
AcDbProxyObject
 90
      499
 91
      501
 93
      412
310
41D51A1A58DAD95B90D409028333333333333E33F0000000000000F9010790141107004050150C41D405064090741402480A0350
1001
ACAD
1000
AcDbSavedByObjectVersion
1070
     0
  0
ACAD_PROXY_OBJECT
  5
30
102
{ACAD_REACTORS
330
2A
102
}
330
2A
100
AcDbProxyObject
 90
      499
 91
      501
 93
      420
310
4255DA5C99599C985B595059028333333333333E33F0000000000000F90107901411070040501600405405064090740C02480A0340
1001
ACAD
1000
AcDbSavedByObjectVersion
1070
     0
  0
ACAD_PROXY_OBJECT
  5
40
102
{ACAD_REACTORS
330
2A
102
}
330
2A
100
AcDbProxyObject
 90
      499
 91
      501
 93
      404
310
41560B54985E51940902404000000000000E03F0000000000000F9010740501907004050150841D405064090740C02480A1B40
1001
ACAD
1000
AcDbSavedByObjectVersion
1070
     0
  0
XRECORD
  5
3C7
102
{ACAD_REACTORS
330
3BD
102
}
330
3BD
100
AcDbXrecord
340
0
  0
XRECORD
  5
3C6
102
{ACAD_REACTORS
330
3BD
102
}
330
3BD
100
AcDbXrecord
 90
        0
  0
XRECORD
  5
3DD
102
{ACAD_REACTORS
330
3BD
102
}
330
3BD
100
AcDbXrecord
1000
DSTYLE
1002
{
1070
   340
340
11
1002
}
  0
XRECORD
  5
3C8
102
{ACAD_REACTORS
330
3BD
102
}
330
3BD
100
AcDbXrecord
  1
{650ad275-492d-467a-a2b2-01bc433879dc}
  0
XRECORD
  5
3C0
102
{ACAD_REACTORS
330
3BD
102
}
330
3BD
100
AcDbXrecord
  1

  0
XRECORD
  5
3C5
102
{ACAD_REACTORS
330
3BD
102
}
330
3BD
100
AcDbXrecord
 90
        4
  0
XRECORD
  5
3C2
102
{ACAD_REACTORS
330
3BD
102
}
330
3BD
100
AcDbXrecord
340
1A
  0
XRECORD
  5
3C4
102
{ACAD_REACTORS
330
3BD
102
}
330
3BD
100
AcDbXrecord
 90
    10781
  0
XRECORD
  5
3C3
102
{ACAD_REACTORS
330
3BD
102
}
330
3BD
100
AcDbXrecord
340
19
  0
XRECORD
  5
3CA
102
{ACAD_REACTORS
330
3BD
102
}
330
3BD
100
AcDbXrecord
 40
0.0
  0
XRECORD
  5
3CD
102
{ACAD_REACTORS
330
3BD
102
}
330
3BD
100
AcDbXrecord
340
0
  0
XRECORD
  5
3D3
102
{ACAD_REACTORS
330
3BD
102
}
330
3BD
100
AcDbXrecord
 10
0.0
 20
0.0
 30
0.0
  0
XRECORD
  5
3CF
102
{ACAD_REACTORS
330
3BD
102
}
330
3BD
100
AcDbXrecord
 10
0.0
 20
0.0
 30
0.0
  0
XRECORD
  5
3D2
102
{ACAD_REACTORS
330
3BD
102
}
330
3BD
100
AcDbXrecord
 10
0.0
 20
0.0
 30
0.0
  0
XRECORD
  5
3D0
102
{ACAD_REACTORS
330
3BD
102
}
330
3BD
100
AcDbXrecord
 10
0.0
 20
0.0
 30
0.0
  0
XRECORD
  5
3D1
102
{ACAD_REACTORS
330
3BD
102
}
330
3BD
100
AcDbXrecord
 10
0.0
 20
0.0
 30
0.0
  0
XRECORD
  5
3CE
102
{ACAD_REACTORS
330
3BD
102
}
330
3BD
100
AcDbXrecord
 10
0.0
 20
0.0
 30
0.0
  0
XRECORD
  5
3CB
102
{ACAD_REACTORS
330
3BD
102
}
330
3BD
100
AcDbXrecord
340
0
  0
XRECORD
  5
3CC
102
{ACAD_REACTORS
330
3BD
102
}
330
3BD
100
AcDbXrecord
 70
     0
  0
XRECORD
  5
3C1
102
{ACAD_REACTORS
330
3BD
102
}
330
3BD
100
AcDbXrecord
  1

  0
XRECORD
  5
3BE
102
{ACAD_REACTORS
330
3BD
102
}
330
3BD
100
AcDbXrecord
 90
        1
  0
XRECORD
  5
3BF
102
{ACAD_REACTORS
330
3BD
102
}
330
3BD
100
AcDbXrecord
 90
       70
  0
XRECORD
  5
3D6
102
{ACAD_REACTORS
330
3BD
102
}
330
3BD
100
AcDbXrecord
340
0
  0
XRECORD
  5
3DC
102
{ACAD_REACTORS
330
3BD
102
}
330
3BD
100
AcDbXrecord
 10
0.0
 20
0.0
 30
0.0
  0
XRECORD
  5
3D8
102
{ACAD_REACTORS
330
3BD
102
}
330
3BD
100
AcDbXrecord
 10
0.0
 20
0.0
 30
0.0
  0
XRECORD
  5
3DB
102
{ACAD_REACTORS
330
3BD
102
}
330
3BD
100
AcDbXrecord
 10
0.0
 20
0.0
 30
0.0
  0
XRECORD
  5
3D9
102
{ACAD_REACTORS
330
3BD
102
}
330
3BD
100
AcDbXrecord
 10
0.0
 20
0.0
 30
0.0
  0
XRECORD
  5
3DA
102
{ACAD_REACTORS
330
3BD
102
}
330
3BD
100
AcDbXrecord
 10
0.0
 20
0.0
 30
0.0
  0
XRECORD
  5
3D7
102
{ACAD_REACTORS
330
3BD
102
}
330
3BD
100
AcDbXrecord
 10
0.0
 20
0.0
 30
0.0
  0
XRECORD
  5
3D4
102
{ACAD_REACTORS
330
3BD
102
}
330
3BD
100
AcDbXrecord
340
0
  0
XRECORD
  5
3D5
102
{ACAD_REACTORS
330
3BD
102
}
330
3BD
100
AcDbXrecord
 70
     0
  0
XRECORD
  5
3C9
102
{ACAD_REACTORS
330
3BD
102
}
330
3BD
100
AcDbXrecord
  1
{FAEB1C32-E019-11D5-929B-00C0DF256EC4}
  0
DICTIONARYVAR
  5
3EB
102
{ACAD_REACTORS
330
3DE
102
}
330
3DE
100
DictionaryVariables
280
     0
  1
1:1
  0
DICTIONARYVAR
  5
3E5
102
{ACAD_REACTORS
330
3DE
102
}
330
3DE
100
DictionaryVariables
280
     0
  1
3.500000
  0
DICTIONARYVAR
  5
3E6
102
{ACAD_REACTORS
330
3DE
102
}
330
3DE
100
DictionaryVariables
280
     0
  1
acadiso.lin
  0
DICTIONARYVAR
  5
3E0
102
{ACAD_REACTORS
330
3DE
102
}
330
3DE
100
DictionaryVariables
280
     0
  1
Standard
  0
DICTIONARYVAR
  5
3DF
102
{ACAD_REACTORS
330
3DE
102
}
330
3DE
100
DictionaryVariables
280
     0
  1
Standard
  0
DICTIONARYVAR
  5
3E7
102
{ACAD_REACTORS
330
3DE
102
}
330
3DE
100
DictionaryVariables
280
     0
  1
2
  0
DICTIONARYVAR
  5
3E8
102
{ACAD_REACTORS
330
3DE
102
}
330
3DE
100
DictionaryVariables
280
     0
  1
1
  0
DICTIONARYVAR
  5
3EC
102
{ACAD_REACTORS
330
3DE
102
}
330
3DE
100
DictionaryVariables
280
     0
  1
1
  0
DICTIONARYVAR
  5
3E2
102
{ACAD_REACTORS
330
3DE
102
}
330
3DE
100
DictionaryVariables
280
     0
  1
80.000000
  0
DICTIONARYVAR
  5
3E1
102
{ACAD_REACTORS
330
3DE
102
}
330
3DE
100
DictionaryVariables
280
     0
  1
5.000000
  0
DICTIONARY
  5
3EF
330
45
100
AcDbDictionary
280
     1
  3
ACAD_XREC_ROUNDTRIP
360
3F0
  0
DICTIONARY
  5
3ED
330
44
100
AcDbDictionary
280
     1
  3
ACAD_XREC_ROUNDTRIP
360
3EE
  0
DICTIONARY
  5
3F1
330
46
100
AcDbDictionary
280
     1
  3
ACAD_XREC_ROUNDTRIP
360
3F2
  0
XRECORD
  5
3F0
102
{ACAD_REACTORS
330
3EF
102
}
330
3EF
100
AcDbXrecord
102
MATERIAL
148
0.0
149
0.0
149
0.0
 93
        0
 94
      127
282
     0
 72
     1
 77
     1
171
     1
175
     1
179
     1
273
     0
  0
XRECORD
  5
3EE
102
{ACAD_REACTORS
330
3ED
102
}
330
3ED
100
AcDbXrecord
102
MATERIAL
148
0.0
149
0.0
149
0.0
 93
        0
 94
      127
282
     0
 72
     1
 77
     1
171
     1
175
     1
179
     1
273
     0
  0
XRECORD
  5
3F2
102
{ACAD_REACTORS
330
3F1
102
}
330
3F1
100
AcDbXrecord
102
MATERIAL
148
0.0
149
0.0
149
0.0
 93
        0
 94
      127
282
     0
 72
     1
 77
     1
171
     1
175
     1
179
     1
273
     0
  0
ENDSEC
  0
EOF
