  0
SECTION
  2
HEADER
  9
$ACADVER
  1
AC1014
  9
$ACADMAINTVER
 70
     9
  9
$DWGCODEPAGE
  3
ANSI_932
  9
$INSBASE
 10
0.0
 20
0.0
 30
0.0
  9
$EXTMIN
 10
10.0
 20
20.0
 30
0.0
  9
$EXTMAX
 10
770.0000000000001
 20
560.0
 30
0.0
  9
$LIMMIN
 10
0.0
 20
0.0
  9
$LIMMAX
 10
420.0
 20
297.0
  9
$ORTHOMODE
 70
     0
  9
$REGENMODE
 70
     1
  9
$FILLMODE
 70
     1
  9
$QTEXTMODE
 70
     0
  9
$MIRRTEXT
 70
     1
  9
$DRAGMODE
 70
     2
  9
$LTSCALE
 40
0.2
  9
$OSMODE
 70
    37
  9
$ATTMODE
 70
     1
  9
$TEXTSIZE
 40
2.5
  9
$TRACEWID
 40
1.0
  9
$TEXTSTYLE
  7
STANDARD
  9
$CLAYER
  8
LAY-10
  9
$CELTYPE
  6
BYLAYER
  9
$CECOLOR
 62
   256
  9
$CELTSCALE
 40
1.0
  9
$DELOBJ
 70
     1
  9
$DISPSILH
 70
     0
  9
$DIMSCALE
 40
1.0
  9
$DIMASZ
 40
2.5
  9
$DIMEXO
 40
0.625
  9
$DIMDLI
 40
3.75
  9
$DIMRND
 40
0.0
  9
$DIMDLE
 40
0.0
  9
$DIMEXE
 40
1.25
  9
$DIMTP
 40
0.0
  9
$DIMTM
 40
0.0
  9
$DIMTXT
 40
2.5
  9
$DIMCEN
 40
2.5
  9
$DIMTSZ
 40
0.0
  9
$DIMTOL
 70
     0
  9
$DIMLIM
 70
     0
  9
$DIMTIH
 70
     0
  9
$DIMTOH
 70
     0
  9
$DIMSE1
 70
     0
  9
$DIMSE2
 70
     0
  9
$DIMTAD
 70
     1
  9
$DIMZIN
 70
     8
  9
$DIMBLK
  1

  9
$DIMASO
 70
     1
  9
$DIMSHO
 70
     1
  9
$DIMPOST
  1

  9
$DIMAPOST
  1

  9
$DIMALT
 70
     0
  9
$DIMALTD
 70
     3
  9
$DIMALTF
 40
0.03937007874016
  9
$DIMLFAC
 40
1.0
  9
$DIMTOFL
 70
     1
  9
$DIMTVP
 40
0.0
  9
$DIMTIX
 70
     0
  9
$DIMSOXD
 70
     0
  9
$DIMSAH
 70
     0
  9
$DIMBLK1
  1

  9
$DIMBLK2
  1

  9
$DIMSTYLE
  2
ISO-25
  9
$DIMCLRD
 70
     0
  9
$DIMCLRE
 70
     0
  9
$DIMCLRT
 70
     0
  9
$DIMTFAC
 40
1.0
  9
$DIMGAP
 40
0.625
  9
$DIMJUST
 70
     0
  9
$DIMSD1
 70
     0
  9
$DIMSD2
 70
     0
  9
$DIMTOLJ
 70
     0
  9
$DIMTZIN
 70
     8
  9
$DIMALTZ
 70
     0
  9
$DIMALTTZ
 70
     0
  9
$DIMFIT
 70
     3
  9
$DIMUPT
 70
     0
  9
$DIMUNIT
 70
     2
  9
$DIMDEC
 70
     2
  9
$DIMTDEC
 70
     2
  9
$DIMALTU
 70
     2
  9
$DIMALTTD
 70
     3
  9
$DIMTXSTY
  7
STANDARD
  9
$DIMAUNIT
 70
     0
  9
$LUNITS
 70
     2
  9
$LUPREC
 70
     4
  9
$SKETCHINC
 40
1.0
  9
$FILLETRAD
 40
10.0
  9
$AUNITS
 70
     0
  9
$AUPREC
 70
     0
  9
$MENU
  1
.
  9
$ELEVATION
 40
0.0
  9
$PELEVATION
 40
0.0
  9
$THICKNESS
 40
0.0
  9
$LIMCHECK
 70
     0
  9
$CHAMFERA
 40
0.0
  9
$CHAMFERB
 40
0.0
  9
$CHAMFERC
 40
0.0
  9
$CHAMFERD
 40
0.0
  9
$SKPOLY
 70
     0
  9
$TDCREATE
 40
2459229.338005359
  9
$TDUPDATE
 40
2459229.338005764
  9
$TDINDWG
 40
0.0000000116
  9
$TDUSRTIMER
 40
0.0000000116
  9
$USRTIMER
 70
     1
  9
$ANGBASE
 50
0.0
  9
$ANGDIR
 70
     0
  9
$PDMODE
 70
     0
  9
$PDSIZE
 40
0.0
  9
$PLINEWID
 40
0.0
  9
$COORDS
 70
     1
  9
$SPLFRAME
 70
     0
  9
$SPLINETYPE
 70
     6
  9
$SPLINESEGS
 70
     8
  9
$ATTDIA
 70
     0
  9
$ATTREQ
 70
     1
  9
$HANDLING
 70
     1
  9
$HANDSEED
  5
3DB
  9
$SURFTAB1
 70
     6
  9
$SURFTAB2
 70
     6
  9
$SURFTYPE
 70
     6
  9
$SURFU
 70
     6
  9
$SURFV
 70
     6
  9
$UCSNAME
  2

  9
$UCSORG
 10
0.0
 20
0.0
 30
0.0
  9
$UCSXDIR
 10
1.0
 20
0.0
 30
0.0
  9
$UCSYDIR
 10
0.0
 20
1.0
 30
0.0
  9
$PUCSNAME
  2

  9
$PUCSORG
 10
0.0
 20
0.0
 30
0.0
  9
$PUCSXDIR
 10
1.0
 20
0.0
 30
0.0
  9
$PUCSYDIR
 10
0.0
 20
1.0
 30
0.0
  9
$USERI1
 70
     0
  9
$USERI2
 70
     0
  9
$USERI3
 70
     0
  9
$USERI4
 70
     0
  9
$USERI5
 70
     0
  9
$USERR1
 40
0.0
  9
$USERR2
 40
0.0
  9
$USERR3
 40
0.0
  9
$USERR4
 40
0.0
  9
$USERR5
 40
0.0
  9
$WORLDVIEW
 70
     1
  9
$SHADEDGE
 70
     3
  9
$SHADEDIF
 70
    70
  9
$TILEMODE
 70
     1
  9
$MAXACTVP
 70
    64
  9
$PINSBASE
 10
0.0
 20
0.0
 30
0.0
  9
$PLIMCHECK
 70
     0
  9
$PEXTMIN
 10
1.000000000000000E+20
 20
1.000000000000000E+20
 30
1.000000000000000E+20
  9
$PEXTMAX
 10
-1.000000000000000E+20
 20
-1.000000000000000E+20
 30
-1.000000000000000E+20
  9
$PLIMMIN
 10
0.0
 20
0.0
  9
$PLIMMAX
 10
420.0
 20
297.0
  9
$UNITMODE
 70
     0
  9
$VISRETAIN
 70
     1
  9
$PLINEGEN
 70
     0
  9
$PSLTSCALE
 70
     1
  9
$TREEDEPTH
 70
  3020
  9
$PICKSTYLE
 70
     1
  9
$CMLSTYLE
  2
STANDARD
  9
$CMLJUST
 70
     0
  9
$CMLSCALE
 40
20.0
  9
$PROXYGRAPHICS
 70
     1
  9
$MEASUREMENT
 70
     1
  0
ENDSEC
  0
SECTION
  2
CLASSES
  0
CLASS
  1
ACDBDICTIONARYWDFLT
  2
AcDbDictionaryWithDefault
  3
ObjectDBX Classes
 90
        0
280
     0
281
     0
  0
CLASS
  1
VISUALSTYLE
  2
AcDbVisualStyle
  3
ObjectDBX Classes
 90
     4095
280
     0
281
     0
  0
CLASS
  1
MATERIAL
  2
AcDbMaterial
  3
ObjectDBX Classes
 90
     1153
280
     0
281
     0
  0
CLASS
  1
SCALE
  2
AcDbScale
  3
ObjectDBX Classes
 90
     1153
280
     0
281
     0
  0
CLASS
  1
TABLESTYLE
  2
AcDbTableStyle
  3
ObjectDBX Classes
 90
     4095
280
     0
281
     0
  0
CLASS
  1
MLEADERSTYLE
  2
AcDbMLeaderStyle
  3
ACDB_MLEADERSTYLE_CLASS
 90
     4095
280
     0
281
     0
  0
CLASS
  1
SUN
  2
AcDbSun
  3
SCENEOE
 90
     1153
280
     0
281
     0
  0
CLASS
  1
DICTIONARYVAR
  2
AcDbDictionaryVar
  3
ObjectDBX Classes
 90
        0
280
     0
281
     0
  0
CLASS
  1
XRECORD
  2
AcDbXrecord
  3
ObjectDBX Classes
 90
        0
280
     0
281
     0
  0
CLASS
  1
LWPOLYLINE
  2
AcDbPolyline
  3
ObjectDBX Classes
 90
        0
280
     0
281
     1
  0
CLASS
  1
HATCH
  2
AcDbHatch
  3
ObjectDBX Classes
 90
        0
280
     0
281
     1
  0
CLASS
  1
ACDBPLACEHOLDER
  2
AcDbPlaceHolder
  3
ObjectDBX Classes
 90
        0
280
     0
281
     0
  0
CLASS
  1
LAYOUT
  2
AcDbLayout
  3
ObjectDBX Classes
 90
        0
280
     0
281
     0
  0
ENDSEC
  0
SECTION
  2
TABLES
  0
TABLE
  2
VPORT
  5
8
102
{ACAD_XDICTIONARY
360
3D0
102
}
330
0
100
AcDbSymbolTable
 70
     1
  0
VPORT
  5
29
330
8
100
AcDbSymbolTableRecord
100
AcDbViewportTableRecord
  2
*ACTIVE
 70
     0
 10
0.0
 20
0.0
 11
1.0
 21
1.0
 12
390.0000000000001
 22
290.0
 13
0.0
 23
0.0
 14
10.0
 24
10.0
 15
10.0
 25
10.0
 16
0.0
 26
0.0
 36
1.0
 17
0.0
 27
0.0
 37
0.0
 40
540.0
 41
1.407407407407408
 42
50.0
 43
0.0
 44
0.0
 50
0.0
 51
0.0
 71
     0
 72
  1000
 73
     1
 74
     3
 75
     0
 76
     0
 77
     0
 78
     0
  0
ENDTAB
  0
TABLE
  2
LTYPE
  5
5
330
0
100
AcDbSymbolTable
 70
     6
  0
LTYPE
  5
14
330
5
100
AcDbSymbolTableRecord
100
AcDbLinetypeTableRecord
  2
BYBLOCK
 70
     0
  3

 72
    65
 73
     0
 40
0.0
  0
LTYPE
  5
15
330
5
100
AcDbSymbolTableRecord
100
AcDbLinetypeTableRecord
  2
BYLAYER
 70
     0
  3

 72
    65
 73
     0
 40
0.0
  0
LTYPE
  5
16
330
5
100
AcDbSymbolTableRecord
100
AcDbLinetypeTableRecord
  2
CONTINUOUS
 70
     0
  3
Solid line
 72
    65
 73
     0
 40
0.0
  0
LTYPE
  5
6E
330
5
100
AcDbSymbolTableRecord
100
AcDbLinetypeTableRecord
  2
HIDDEN
 70
     0
  3
Hidden __ __ __ __ __ __ __ __ __ __ __ __ __ __
 72
    65
 73
     2
 40
9.524999999999999
 49
6.35
 74
     0
 49
-3.175
 74
     0
  0
LTYPE
  5
6F
330
5
100
AcDbSymbolTableRecord
100
AcDbLinetypeTableRecord
  2
CENTER
 70
     0
  3
Center ____ _ ____ _ ____ _ ____ _ ____ _ ____
 72
    65
 73
     4
 40
50.8
 49
31.75
 74
     0
 49
-6.35
 74
     0
 49
6.35
 74
     0
 49
-6.35
 74
     0
  0
LTYPE
  5
70
330
5
100
AcDbSymbolTableRecord
100
AcDbLinetypeTableRecord
  2
PHANTOM
 70
     0
  3
Phantom ______  __  __  ______  __  __  ______ 
 72
    65
 73
     6
 40
63.50000000000001
 49
31.75
 74
     0
 49
-6.35
 74
     0
 49
6.35
 74
     0
 49
-6.35
 74
     0
 49
6.35
 74
     0
 49
-6.35
 74
     0
  0
LTYPE
  5
71
330
5
100
AcDbSymbolTableRecord
100
AcDbLinetypeTableRecord
  2
ACAD_ISO06W100
 70
     0
  3
ISO long-dash triple-dot ____ ... ____ ... ____
 72
    65
 73
     8
 40
36.0
 49
24.0
 74
     0
 49
-3.0
 74
     0
 49
0.0
 74
     0
 49
-3.0
 74
     0
 49
0.0
 74
     0
 49
-3.0
 74
     0
 49
0.0
 74
     0
 49
-3.0
 74
     0
  0
LTYPE
  5
72
330
5
100
AcDbSymbolTableRecord
100
AcDbLinetypeTableRecord
  2
ACAD_ISO15W100
 70
     0
  3
ISO double-dash triple-dot __ __ . . . __ __ . .
 72
    65
 73
    10
 40
39.0
 49
12.0
 74
     0
 49
-3.0
 74
     0
 49
12.0
 74
     0
 49
-3.0
 74
     0
 49
0.0
 74
     0
 49
-3.0
 74
     0
 49
0.0
 74
     0
 49
-3.0
 74
     0
 49
0.0
 74
     0
 49
-3.0
 74
     0
  0
ENDTAB
  0
TABLE
  2
LAYER
  5
2
330
0
100
AcDbSymbolTable
 70
     5
  0
LAYER
  5
10
330
2
100
AcDbSymbolTableRecord
100
AcDbLayerTableRecord
  2
0
 70
     0
 62
     7
  6
CONTINUOUS
  0
LAYER
  5
75
330
2
100
AcDbSymbolTableRecord
100
AcDbLayerTableRecord
  2
LAY-10
 70
     0
 62
     7
  6
CONTINUOUS
  0
LAYER
  5
76
330
2
100
AcDbSymbolTableRecord
100
AcDbLayerTableRecord
  2
LAY-20
 70
     0
 62
     7
  6
CONTINUOUS
  0
LAYER
  5
77
330
2
100
AcDbSymbolTableRecord
100
AcDbLayerTableRecord
  2
LAY-255
 70
     0
 62
     7
  6
CONTINUOUS
  0
LAYER
  5
321
330
2
100
AcDbSymbolTableRecord
100
AcDbLayerTableRecord
  2
DEFPOINTS
 70
     0
 62
     7
  6
CONTINUOUS
  0
ENDTAB
  0
TABLE
  2
STYLE
  5
3
330
0
100
AcDbSymbolTable
 70
     4
  0
STYLE
  5
11
330
3
100
AcDbSymbolTableRecord
100
AcDbTextStyleTableRecord
  2
STANDARD
 70
     0
 40
0.0
 41
1.0
 50
0.0
 71
     0
 42
2.5
  3
simplex
  4
bigfont
  0
STYLE
  5
73
330
3
100
AcDbSymbolTableRecord
100
AcDbTextStyleTableRecord
  2
EXCADSTD
 70
     0
 40
0.0
 41
1.0
 50
0.0
 71
     0
 42
2.5
  3
simplex
  4
bigfont
  0
STYLE
  5
74
330
3
100
AcDbSymbolTableRecord
100
AcDbTextStyleTableRecord
  2
EXCADVERT
 70
     4
 40
0.0
 41
1.0
 50
0.0
 71
     0
 42
2.5
  3
simplex
  4
bigfont
  0
STYLE
  5
31F
330
3
100
AcDbSymbolTableRecord
100
AcDbTextStyleTableRecord
  2
EXCADDIM1
 70
     0
 40
0.0
 41
0.84
 50
0.0
 71
     0
 42
2.5
  3
simplex
  4
bigfont
  0
ENDTAB
  0
TABLE
  2
VIEW
  5
6
330
0
100
AcDbSymbolTable
 70
     0
  0
ENDTAB
  0
TABLE
  2
UCS
  5
7
330
0
100
AcDbSymbolTable
 70
     0
  0
ENDTAB
  0
TABLE
  2
APPID
  5
9
330
0
100
AcDbSymbolTable
 70
     2
  0
APPID
  5
12
330
9
100
AcDbSymbolTableRecord
100
AcDbRegAppTableRecord
  2
ACAD
 70
     0
  0
APPID
  5
3DA
330
9
100
AcDbSymbolTableRecord
100
AcDbRegAppTableRecord
  2
ACAD_MLEADERVER
 70
     0
  0
ENDTAB
  0
TABLE
  2
DIMSTYLE
  5
A
330
0
100
AcDbSymbolTable
 70
     1
  0
DIMSTYLE
105
27
102
{ACAD_REACTORS
330
320
330
32E
330
33B
330
347
330
354
330
361
330
36E
102
}
330
A
100
AcDbSymbolTableRecord
100
AcDbDimStyleTableRecord
  2
ISO-25
 70
     0
  3

  4

  5

  6

  7

 40
1.0
 41
2.5
 42
0.625
 43
3.75
 44
1.25
 45
0.0
 46
0.0
 47
0.0
 48
0.0
140
2.5
141
2.5
142
0.0
143
0.03937007874016
144
1.0
145
0.0
146
1.0
147
0.625
 71
     0
 72
     0
 73
     0
 74
     0
 75
     0
 76
     0
 77
     1
 78
     8
170
     0
171
     3
172
     1
173
     0
174
     0
175
     0
176
     0
177
     0
178
     0
270
     2
271
     2
272
     2
273
     2
274
     3
340
11
275
     0
280
     0
281
     0
282
     0
283
     0
284
     8
285
     0
286
     0
287
     5
288
     0
  0
ENDTAB
  0
TABLE
  2
BLOCK_RECORD
  5
1
330
0
100
AcDbSymbolTable
 70
    21
  0
BLOCK_RECORD
  5
1F
330
1
100
AcDbSymbolTableRecord
100
AcDbBlockTableRecord
  2
*MODEL_SPACE
  0
BLOCK_RECORD
  5
1B
330
1
100
AcDbSymbolTableRecord
100
AcDbBlockTableRecord
  2
*PAPER_SPACE
  0
BLOCK_RECORD
  5
78
330
1
100
AcDbSymbolTableRecord
100
AcDbBlockTableRecord
  2
EX_NORM
  0
BLOCK_RECORD
  5
7B
330
1
100
AcDbSymbolTableRecord
100
AcDbBlockTableRecord
  2
EX_BNORM
  0
BLOCK_RECORD
  5
7E
330
1
100
AcDbSymbolTableRecord
100
AcDbBlockTableRecord
  2
EX_BCIR
  0
BLOCK_RECORD
  5
81
330
1
100
AcDbSymbolTableRecord
100
AcDbBlockTableRecord
  2
EX_RCIVIL
  0
BLOCK_RECORD
  5
84
330
1
100
AcDbSymbolTableRecord
100
AcDbBlockTableRecord
  2
EX_SLANT
  0
BLOCK_RECORD
  5
87
330
1
100
AcDbSymbolTableRecord
100
AcDbBlockTableRecord
  2
EX_NONE
  0
BLOCK_RECORD
  5
8A
330
1
100
AcDbSymbolTableRecord
100
AcDbBlockTableRecord
  2
EX_CIVIL
  0
BLOCK_RECORD
  5
8D
330
1
100
AcDbSymbolTableRecord
100
AcDbBlockTableRecord
  2
EX_WCIR
  0
BLOCK_RECORD
  5
90
330
1
100
AcDbSymbolTableRecord
100
AcDbBlockTableRecord
  2
EX_WCIR2
  0
BLOCK_RECORD
  5
93
330
1
100
AcDbSymbolTableRecord
100
AcDbBlockTableRecord
  2
EX_WNORM
  0
BLOCK_RECORD
  5
96
330
1
100
AcDbSymbolTableRecord
100
AcDbBlockTableRecord
  2
EX_NNORM
  0
BLOCK_RECORD
  5
99
330
1
100
AcDbSymbolTableRecord
100
AcDbBlockTableRecord
  2
EX_BBOX
  0
BLOCK_RECORD
  5
9C
330
1
100
AcDbSymbolTableRecord
100
AcDbBlockTableRecord
  2
EX_WBOX
  0
BLOCK_RECORD
  5
9F
330
1
100
AcDbSymbolTableRecord
100
AcDbBlockTableRecord
  2
EX_INTEGRAL
  0
BLOCK_RECORD
  5
322
330
1
100
AcDbSymbolTableRecord
100
AcDbBlockTableRecord
  2
*D15
  0
BLOCK_RECORD
  5
32F
330
1
100
AcDbSymbolTableRecord
100
AcDbBlockTableRecord
  2
*D16
  0
BLOCK_RECORD
  5
33C
330
1
100
AcDbSymbolTableRecord
100
AcDbBlockTableRecord
  2
*D17
  0
BLOCK_RECORD
  5
348
330
1
100
AcDbSymbolTableRecord
100
AcDbBlockTableRecord
  2
*D18
  0
BLOCK_RECORD
  5
355
330
1
100
AcDbSymbolTableRecord
100
AcDbBlockTableRecord
  2
*D19
  0
BLOCK_RECORD
  5
362
330
1
100
AcDbSymbolTableRecord
100
AcDbBlockTableRecord
  2
*D20
  0
BLOCK_RECORD
  5
36F
330
1
100
AcDbSymbolTableRecord
100
AcDbBlockTableRecord
  2
*D21
  0
ENDTAB
  0
ENDSEC
  0
SECTION
  2
BLOCKS
  0
BLOCK
  5
20
330
1F
100
AcDbEntity
  8
0
100
AcDbBlockBegin
  2
*MODEL_SPACE
 70
     0
 10
0.0
 20
0.0
 30
0.0
  3
*MODEL_SPACE
  1

  0
ENDBLK
  5
21
330
1F
100
AcDbEntity
  8
0
100
AcDbBlockEnd
  0
BLOCK
  5
1C
330
1B
100
AcDbEntity
 67
     1
  8
0
100
AcDbBlockBegin
  2
*PAPER_SPACE
 70
     0
 10
0.0
 20
0.0
 30
0.0
  3
*PAPER_SPACE
  1

  0
ENDBLK
  5
1D
330
1B
100
AcDbEntity
 67
     1
  8
0
100
AcDbBlockEnd
  0
BLOCK
  5
79
330
78
100
AcDbEntity
  8
0
100
AcDbBlockBegin
  2
EX_NORM
 70
     0
 10
0.0
 20
0.0
 30
0.0
  3
EX_NORM
  1

  0
LINE
  5
A2
330
78
100
AcDbEntity
  8
0
  6
CONTINUOUS
 62
     0
100
AcDbLine
 10
0.0
 20
0.0
 30
0.0
 11
-1.0
 21
0.0
 31
0.0
  0
LINE
  5
A3
330
78
100
AcDbEntity
  8
0
  6
CONTINUOUS
 62
     0
100
AcDbLine
 10
0.0
 20
0.0
 30
0.0
 11
-1.0
 21
0.166666667
 31
0.0
  0
LINE
  5
A4
330
78
100
AcDbEntity
  8
0
  6
CONTINUOUS
 62
     0
100
AcDbLine
 10
0.0
 20
0.0
 30
0.0
 11
-1.0
 21
-0.166666667
 31
0.0
  0
ENDBLK
  5
7A
330
78
100
AcDbEntity
  8
0
100
AcDbBlockEnd
  0
BLOCK
  5
7C
330
7B
100
AcDbEntity
  8
0
100
AcDbBlockBegin
  2
EX_BNORM
 70
     0
 10
0.0
 20
0.0
 30
0.0
  3
EX_BNORM
  1

  0
LINE
  5
A5
330
7B
100
AcDbEntity
  8
0
  6
CONTINUOUS
 62
     0
100
AcDbLine
 10
0.0
 20
0.0
 30
0.0
 11
-1.0
 21
0.0
 31
0.0
  0
LINE
  5
A6
330
7B
100
AcDbEntity
  8
0
  6
CONTINUOUS
 62
     0
100
AcDbLine
 10
0.0
 20
0.0
 30
0.0
 11
-1.0
 21
0.166666667
 31
0.0
  0
LINE
  5
A7
330
7B
100
AcDbEntity
  8
0
  6
CONTINUOUS
 62
     0
100
AcDbLine
 10
0.0
 20
0.0
 30
0.0
 11
-1.0
 21
-0.166666667
 31
0.0
  0
LINE
  5
A8
330
7B
100
AcDbEntity
  8
0
  6
CONTINUOUS
 62
     0
100
AcDbLine
 10
0.0
 20
0.0
 30
0.0
 11
-1.0
 21
0.083333333
 31
0.0
  0
LINE
  5
A9
330
7B
100
AcDbEntity
  8
0
  6
CONTINUOUS
 62
     0
100
AcDbLine
 10
0.0
 20
0.0
 30
0.0
 11
-1.0
 21
-0.083333333
 31
0.0
  0
LINE
  5
AA
330
7B
100
AcDbEntity
  8
0
  6
CONTINUOUS
 62
     0
100
AcDbLine
 10
-1.0
 20
0.166666667
 30
0.0
 11
-1.0
 21
-0.166666667
 31
0.0
  0
ENDBLK
  5
7D
330
7B
100
AcDbEntity
  8
0
100
AcDbBlockEnd
  0
BLOCK
  5
7F
330
7E
100
AcDbEntity
  8
0
100
AcDbBlockBegin
  2
EX_BCIR
 70
     0
 10
0.0
 20
0.0
 30
0.0
  3
EX_BCIR
  1

  0
LINE
  5
AB
330
7E
100
AcDbEntity
  8
0
  6
CONTINUOUS
 62
     0
100
AcDbLine
 10
0.0
 20
0.0
 30
0.0
 11
-1.0
 21
0.0
 31
0.0
  0
CIRCLE
  5
AC
330
7E
100
AcDbEntity
  8
0
  6
CONTINUOUS
 62
     0
100
AcDbCircle
 10
0.0
 20
0.0
 30
0.0
 40
0.5
  0
CIRCLE
  5
AD
330
7E
100
AcDbEntity
  8
0
  6
CONTINUOUS
 62
     0
100
AcDbCircle
 10
0.0
 20
0.0
 30
0.0
 40
0.25
  0
ENDBLK
  5
80
330
7E
100
AcDbEntity
  8
0
100
AcDbBlockEnd
  0
BLOCK
  5
82
330
81
100
AcDbEntity
  8
0
100
AcDbBlockBegin
  2
EX_RCIVIL
 70
     0
 10
0.0
 20
0.0
 30
0.0
  3
EX_RCIVIL
  1

  0
LINE
  5
AE
330
81
100
AcDbEntity
  8
0
  6
CONTINUOUS
 62
     0
100
AcDbLine
 10
0.0
 20
0.0
 30
0.0
 11
-1.0
 21
0.0
 31
0.0
  0
LINE
  5
AF
330
81
100
AcDbEntity
  8
0
  6
CONTINUOUS
 62
     0
100
AcDbLine
 10
-1.0
 20
-0.25
 30
0.0
 11
0.0
 21
-0.25
 31
0.0
  0
LINE
  5
B0
330
81
100
AcDbEntity
  8
0
  6
CONTINUOUS
 62
     0
100
AcDbLine
 10
-1.0
 20
-0.125
 30
0.0
 11
0.0
 21
-0.125
 31
0.0
  0
ENDBLK
  5
83
330
81
100
AcDbEntity
  8
0
100
AcDbBlockEnd
  0
BLOCK
  5
85
330
84
100
AcDbEntity
  8
0
100
AcDbBlockBegin
  2
EX_SLANT
 70
     0
 10
0.0
 20
0.0
 30
0.0
  3
EX_SLANT
  1

  0
LINE
  5
B1
330
84
100
AcDbEntity
  8
0
  6
CONTINUOUS
 62
     0
100
AcDbLine
 10
0.0
 20
0.0
 30
0.0
 11
-1.0
 21
0.0
 31
0.0
  0
LINE
  5
B2
330
84
100
AcDbEntity
  8
0
  6
CONTINUOUS
 62
     0
100
AcDbLine
 10
0.707106781
 20
0.707106781
 30
0.0
 11
-0.707106781
 21
-0.707106781
 31
0.0
  0
ENDBLK
  5
86
330
84
100
AcDbEntity
  8
0
100
AcDbBlockEnd
  0
BLOCK
  5
88
330
87
100
AcDbEntity
  8
0
100
AcDbBlockBegin
  2
EX_NONE
 70
     0
 10
0.0
 20
0.0
 30
0.0
  3
EX_NONE
  1

  0
LINE
  5
B3
330
87
100
AcDbEntity
  8
0
  6
CONTINUOUS
 62
     0
100
AcDbLine
 10
0.0
 20
0.0
 30
0.0
 11
-1.0
 21
0.0
 31
0.0
  0
ENDBLK
  5
89
330
87
100
AcDbEntity
  8
0
100
AcDbBlockEnd
  0
BLOCK
  5
8B
330
8A
100
AcDbEntity
  8
0
100
AcDbBlockBegin
  2
EX_CIVIL
 70
     0
 10
0.0
 20
0.0
 30
0.0
  3
EX_CIVIL
  1

  0
LINE
  5
B4
330
8A
100
AcDbEntity
  8
0
  6
CONTINUOUS
 62
     0
100
AcDbLine
 10
0.0
 20
0.0
 30
0.0
 11
-1.0
 21
0.0
 31
0.0
  0
LINE
  5
B5
330
8A
100
AcDbEntity
  8
0
  6
CONTINUOUS
 62
     0
100
AcDbLine
 10
-1.0
 20
0.25
 30
0.0
 11
0.0
 21
0.25
 31
0.0
  0
LINE
  5
B6
330
8A
100
AcDbEntity
  8
0
  6
CONTINUOUS
 62
     0
100
AcDbLine
 10
-1.0
 20
0.125
 30
0.0
 11
0.0
 21
0.125
 31
0.0
  0
ENDBLK
  5
8C
330
8A
100
AcDbEntity
  8
0
100
AcDbBlockEnd
  0
BLOCK
  5
8E
330
8D
100
AcDbEntity
  8
0
100
AcDbBlockBegin
  2
EX_WCIR
 70
     0
 10
0.0
 20
0.0
 30
0.0
  3
EX_WCIR
  1

  0
LINE
  5
B7
330
8D
100
AcDbEntity
  8
0
  6
CONTINUOUS
 62
     0
100
AcDbLine
 10
0.0
 20
0.0
 30
0.0
 11
-1.0
 21
0.0
 31
0.0
  0
CIRCLE
  5
B8
330
8D
100
AcDbEntity
  8
0
  6
CONTINUOUS
 62
     0
100
AcDbCircle
 10
0.0
 20
0.0
 30
0.0
 40
0.5
  0
ENDBLK
  5
8F
330
8D
100
AcDbEntity
  8
0
100
AcDbBlockEnd
  0
BLOCK
  5
91
330
90
100
AcDbEntity
  8
0
100
AcDbBlockBegin
  2
EX_WCIR2
 70
     0
 10
0.0
 20
0.0
 30
0.0
  3
EX_WCIR2
  1

  0
LINE
  5
B9
330
90
100
AcDbEntity
  8
0
  6
CONTINUOUS
 62
     0
100
AcDbLine
 10
-0.5
 20
0.0
 30
0.0
 11
-1.0
 21
0.0
 31
0.0
  0
CIRCLE
  5
BA
330
90
100
AcDbEntity
  8
0
  6
CONTINUOUS
 62
     0
100
AcDbCircle
 10
0.0
 20
0.0
 30
0.0
 40
0.5
  0
ENDBLK
  5
92
330
90
100
AcDbEntity
  8
0
100
AcDbBlockEnd
  0
BLOCK
  5
94
330
93
100
AcDbEntity
  8
0
100
AcDbBlockBegin
  2
EX_WNORM
 70
     0
 10
0.0
 20
0.0
 30
0.0
  3
EX_WNORM
  1

  0
LINE
  5
BB
330
93
100
AcDbEntity
  8
0
  6
CONTINUOUS
 62
     0
100
AcDbLine
 10
-1.0
 20
0.0
 30
0.0
 11
-1.0
 21
0.0
 31
0.0
  0
LINE
  5
BC
330
93
100
AcDbEntity
  8
0
  6
CONTINUOUS
 62
     0
100
AcDbLine
 10
0.0
 20
0.0
 30
0.0
 11
-1.0
 21
0.166666667
 31
0.0
  0
LINE
  5
BD
330
93
100
AcDbEntity
  8
0
  6
CONTINUOUS
 62
     0
100
AcDbLine
 10
0.0
 20
0.0
 30
0.0
 11
-1.0
 21
-0.166666667
 31
0.0
  0
LINE
  5
BE
330
93
100
AcDbEntity
  8
0
  6
CONTINUOUS
 62
     0
100
AcDbLine
 10
-1.0
 20
0.166666667
 30
0.0
 11
-1.0
 21
-0.166666667
 31
0.0
  0
ENDBLK
  5
95
330
93
100
AcDbEntity
  8
0
100
AcDbBlockEnd
  0
BLOCK
  5
97
330
96
100
AcDbEntity
  8
0
100
AcDbBlockBegin
  2
EX_NNORM
 70
     0
 10
0.0
 20
0.0
 30
0.0
  3
EX_NNORM
  1

  0
LINE
  5
BF
330
96
100
AcDbEntity
  8
0
  6
CONTINUOUS
 62
     0
100
AcDbLine
 10
0.0
 20
0.0
 30
0.0
 11
-1.0
 21
0.0
 31
0.0
  0
LINE
  5
C0
330
96
100
AcDbEntity
  8
0
  6
CONTINUOUS
 62
     0
100
AcDbLine
 10
0.0
 20
0.0
 30
0.0
 11
-1.0
 21
0.166666667
 31
0.0
  0
LINE
  5
C1
330
96
100
AcDbEntity
  8
0
  6
CONTINUOUS
 62
     0
100
AcDbLine
 10
0.0
 20
0.0
 30
0.0
 11
-1.0
 21
-0.166666667
 31
0.0
  0
LINE
  5
C2
330
96
100
AcDbEntity
  8
0
  6
CONTINUOUS
 62
     0
100
AcDbLine
 10
-1.0
 20
0.166666667
 30
0.0
 11
-1.0
 21
-0.166666667
 31
0.0
  0
ENDBLK
  5
98
330
96
100
AcDbEntity
  8
0
100
AcDbBlockEnd
  0
BLOCK
  5
9A
330
99
100
AcDbEntity
  8
0
100
AcDbBlockBegin
  2
EX_BBOX
 70
     0
 10
0.0
 20
0.0
 30
0.0
  3
EX_BBOX
  1

  0
LINE
  5
C3
330
99
100
AcDbEntity
  8
0
  6
CONTINUOUS
 62
     0
100
AcDbLine
 10
0.0
 20
0.0
 30
0.0
 11
-1.0
 21
0.0
 31
0.0
  0
LINE
  5
C4
330
99
100
AcDbEntity
  8
0
  6
CONTINUOUS
 62
     0
100
AcDbLine
 10
-0.5
 20
0.5
 30
0.0
 11
0.5
 21
0.5
 31
0.0
  0
LINE
  5
C5
330
99
100
AcDbEntity
  8
0
  6
CONTINUOUS
 62
     0
100
AcDbLine
 10
0.5
 20
0.5
 30
0.0
 11
0.5
 21
-0.5
 31
0.0
  0
LINE
  5
C6
330
99
100
AcDbEntity
  8
0
  6
CONTINUOUS
 62
     0
100
AcDbLine
 10
0.5
 20
-0.5
 30
0.0
 11
-0.5
 21
-0.5
 31
0.0
  0
LINE
  5
C7
330
99
100
AcDbEntity
  8
0
  6
CONTINUOUS
 62
     0
100
AcDbLine
 10
-0.5
 20
-0.5
 30
0.0
 11
-0.5
 21
0.5
 31
0.0
  0
LINE
  5
C8
330
99
100
AcDbEntity
  8
0
  6
CONTINUOUS
 62
     0
100
AcDbLine
 10
-0.25
 20
0.25
 30
0.0
 11
0.25
 21
0.25
 31
0.0
  0
LINE
  5
C9
330
99
100
AcDbEntity
  8
0
  6
CONTINUOUS
 62
     0
100
AcDbLine
 10
0.25
 20
0.25
 30
0.0
 11
0.25
 21
-0.25
 31
0.0
  0
LINE
  5
CA
330
99
100
AcDbEntity
  8
0
  6
CONTINUOUS
 62
     0
100
AcDbLine
 10
0.25
 20
-0.25
 30
0.0
 11
-0.25
 21
-0.25
 31
0.0
  0
LINE
  5
CB
330
99
100
AcDbEntity
  8
0
  6
CONTINUOUS
 62
     0
100
AcDbLine
 10
-0.25
 20
-0.25
 30
0.0
 11
-0.25
 21
0.25
 31
0.0
  0
ENDBLK
  5
9B
330
99
100
AcDbEntity
  8
0
100
AcDbBlockEnd
  0
BLOCK
  5
9D
330
9C
100
AcDbEntity
  8
0
100
AcDbBlockBegin
  2
EX_WBOX
 70
     0
 10
0.0
 20
0.0
 30
0.0
  3
EX_WBOX
  1

  0
LINE
  5
CC
330
9C
100
AcDbEntity
  8
0
  6
CONTINUOUS
 62
     0
100
AcDbLine
 10
-0.5
 20
0.0
 30
0.0
 11
-1.0
 21
0.0
 31
0.0
  0
LINE
  5
CD
330
9C
100
AcDbEntity
  8
0
  6
CONTINUOUS
 62
     0
100
AcDbLine
 10
-0.5
 20
0.5
 30
0.0
 11
0.5
 21
0.5
 31
0.0
  0
LINE
  5
CE
330
9C
100
AcDbEntity
  8
0
  6
CONTINUOUS
 62
     0
100
AcDbLine
 10
0.5
 20
0.5
 30
0.0
 11
0.5
 21
-0.5
 31
0.0
  0
LINE
  5
CF
330
9C
100
AcDbEntity
  8
0
  6
CONTINUOUS
 62
     0
100
AcDbLine
 10
0.5
 20
-0.5
 30
0.0
 11
-0.5
 21
-0.5
 31
0.0
  0
LINE
  5
D0
330
9C
100
AcDbEntity
  8
0
  6
CONTINUOUS
 62
     0
100
AcDbLine
 10
-0.5
 20
-0.5
 30
0.0
 11
-0.5
 21
0.5
 31
0.0
  0
ENDBLK
  5
9E
330
9C
100
AcDbEntity
  8
0
100
AcDbBlockEnd
  0
BLOCK
  5
A0
330
9F
100
AcDbEntity
  8
0
100
AcDbBlockBegin
  2
EX_INTEGRAL
 70
     0
 10
0.0
 20
0.0
 30
0.0
  3
EX_INTEGRAL
  1

  0
LINE
  5
D1
330
9F
100
AcDbEntity
  8
0
  6
CONTINUOUS
 62
     0
100
AcDbLine
 10
0.0
 20
0.0
 30
0.0
 11
-1.0
 21
0.0
 31
0.0
  0
ARC
  5
D2
330
9F
100
AcDbEntity
  8
0
  6
CONTINUOUS
 62
     0
100
AcDbCircle
 10
0.542115
 20
0.164992
 30
0.0
 40
0.56667
100
AcDbArc
 50
73.07249033629006
 51
196.9275130221199
  0
ARC
  5
D3
330
9F
100
AcDbEntity
  8
0
  6
CONTINUOUS
 62
     0
100
AcDbCircle
 10
-0.542115
 20
-0.164992
 30
0.0
 40
0.56667
100
AcDbArc
 50
253.0724869220464
 51
16.9275130559125
  0
ENDBLK
  5
A1
330
9F
100
AcDbEntity
  8
0
100
AcDbBlockEnd
  0
BLOCK
  5
323
330
322
100
AcDbEntity
  8
0
100
AcDbBlockBegin
  2
*D15
 70
     1
 10
0.0
 20
0.0
 30
0.0
  3
*D15
  1

  0
LINE
  5
325
330
322
100
AcDbEntity
  8
LAY-20
  6
CONTINUOUS
 62
     4
100
AcDbLine
 10
262.50000000001
 20
153.00000000012
 30
0.0
 11
204.50000000001
 21
153.00000000012
 31
0.0
  0
LINE
  5
326
330
322
100
AcDbEntity
  8
LAY-20
  6
CONTINUOUS
 62
     4
100
AcDbLine
 10
225.50000000001
 20
193.0
 30
0.0
 11
204.50000000001
 21
193.0
 31
0.0
  0
LINE
  5
327
330
322
100
AcDbEntity
  8
LAY-20
  6
CONTINUOUS
 62
     4
100
AcDbLine
 10
207.50000000001
 20
158.00000000012
 30
0.0
 11
207.50000000001
 21
188.0
 31
0.0
  0
INSERT
  5
328
330
322
100
AcDbEntity
  8
LAY-20
 62
     4
100
AcDbBlockReference
  2
EX_BNORM
 10
207.50000000001
 20
153.00000000012
 30
0.0
 41
5.0
 42
5.0
 43
5.0
 50
270.0
  0
INSERT
  5
329
330
322
100
AcDbEntity
  8
LAY-20
 62
     4
100
AcDbBlockReference
  2
EX_BNORM
 10
207.50000000001
 20
193.0
 30
0.0
 41
5.0
 42
5.0
 43
5.0
 50
90.0
  0
MTEXT
  5
32A
330
322
100
AcDbEntity
  8
LAY-20
 62
     7
100
AcDbMText
 10
202.50000000001
 20
173.00000000006
 30
0.0
 40
6.2362208
 41
0.0
 71
     5
 72
     1
  1
40
  7
EXCADDIM1
 11
0.0
 21
1.0
 31
0.0
  0
POINT
  5
32B
330
322
100
AcDbEntity
  8
DEFPOINTS
 62
     0
100
AcDbPoint
 10
265.50000000001
 20
153.00000000012
 30
0.0
  0
POINT
  5
32C
330
322
100
AcDbEntity
  8
DEFPOINTS
 62
     0
100
AcDbPoint
 10
228.50000000001
 20
193.0
 30
0.0
  0
POINT
  5
32D
330
322
100
AcDbEntity
  8
DEFPOINTS
 62
     0
100
AcDbPoint
 10
207.50000000001
 20
193.0
 30
0.0
  0
ENDBLK
  5
324
330
322
100
AcDbEntity
  8
0
100
AcDbBlockEnd
  0
BLOCK
  5
330
330
32F
100
AcDbEntity
  8
0
100
AcDbBlockBegin
  2
*D16
 70
     1
 10
0.0
 20
0.0
 30
0.0
  3
*D16
  1

  0
LINE
  5
332
330
32F
100
AcDbEntity
  8
LAY-20
  6
CONTINUOUS
 62
     4
100
AcDbLine
 10
357.50000000001
 20
133.0
 30
0.0
 11
415.50000000002
 21
133.0
 31
0.0
  0
LINE
  5
333
330
32F
100
AcDbEntity
  8
LAY-20
  6
CONTINUOUS
 62
     4
100
AcDbLine
 10
394.50000000001
 20
193.0
 30
0.0
 11
415.50000000002
 21
193.0
 31
0.0
  0
LINE
  5
334
330
32F
100
AcDbEntity
  8
LAY-20
  6
CONTINUOUS
 62
     4
100
AcDbLine
 10
412.50000000002
 20
138.0
 30
0.0
 11
412.50000000002
 21
188.0
 31
0.0
  0
INSERT
  5
335
330
32F
100
AcDbEntity
  8
LAY-20
 62
     4
100
AcDbBlockReference
  2
EX_BNORM
 10
412.50000000002
 20
133.0
 30
0.0
 41
5.0
 42
5.0
 43
5.0
 50
270.0
  0
INSERT
  5
336
330
32F
100
AcDbEntity
  8
LAY-20
 62
     4
100
AcDbBlockReference
  2
EX_BNORM
 10
412.50000000002
 20
193.0
 30
0.0
 41
5.0
 42
5.0
 43
5.0
 50
90.0
  0
MTEXT
  5
337
330
32F
100
AcDbEntity
  8
LAY-20
 62
     7
100
AcDbMText
 10
407.50000000002
 20
163.0
 30
0.0
 40
6.2362208
 41
0.0
 71
     5
 72
     1
  1
60
  7
EXCADDIM1
 11
0.0
 21
1.0
 31
0.0
  0
POINT
  5
338
330
32F
100
AcDbEntity
  8
DEFPOINTS
 62
     0
100
AcDbPoint
 10
354.50000000001
 20
133.0
 30
0.0
  0
POINT
  5
339
330
32F
100
AcDbEntity
  8
DEFPOINTS
 62
     0
100
AcDbPoint
 10
391.50000000001
 20
193.0
 30
0.0
  0
POINT
  5
33A
330
32F
100
AcDbEntity
  8
DEFPOINTS
 62
     0
100
AcDbPoint
 10
412.50000000002
 20
193.0
 30
0.0
  0
ENDBLK
  5
331
330
32F
100
AcDbEntity
  8
0
100
AcDbBlockEnd
  0
BLOCK
  5
33D
330
33C
100
AcDbEntity
  8
0
100
AcDbBlockBegin
  2
*D17
 70
     1
 10
0.0
 20
0.0
 30
0.0
  3
*D17
  1

  0
LINE
  5
33F
330
33C
100
AcDbEntity
  8
LAY-20
  6
CONTINUOUS
 62
     4
100
AcDbLine
 10
343.47942913438
 20
230.0
 30
0.0
 11
415.50000000002
 21
230.0
 31
0.0
  0
LINE
  5
340
330
33C
100
AcDbEntity
  8
LAY-20
  6
CONTINUOUS
 62
     4
100
AcDbLine
 10
412.50000000002
 20
225.0
 30
0.0
 11
412.50000000002
 21
198.0
 31
0.0
  0
INSERT
  5
341
330
33C
100
AcDbEntity
  8
LAY-20
 62
     4
100
AcDbBlockReference
  2
EX_BNORM
 10
412.50000000002
 20
230.0
 30
0.0
 41
5.0
 42
5.0
 43
5.0
 50
90.0
  0
INSERT
  5
342
330
33C
100
AcDbEntity
  8
LAY-20
 62
     4
100
AcDbBlockReference
  2
EX_BNORM
 10
412.50000000002
 20
193.0
 30
0.0
 41
5.0
 42
5.0
 43
5.0
 50
270.0
  0
MTEXT
  5
343
330
33C
100
AcDbEntity
  8
LAY-20
 62
     7
100
AcDbMText
 10
407.50000000002
 20
211.5
 30
0.0
 40
6.2362208
 41
0.0
 71
     5
 72
     1
  1
37
  7
EXCADDIM1
 11
0.0
 21
1.0
 31
0.0
  0
POINT
  5
344
330
33C
100
AcDbEntity
  8
DEFPOINTS
 62
     0
100
AcDbPoint
 10
340.47942913438
 20
230.0
 30
0.0
  0
POINT
  5
345
330
33C
100
AcDbEntity
  8
DEFPOINTS
 62
     0
100
AcDbPoint
 10
412.50000000002
 20
193.0
 30
0.0
  0
POINT
  5
346
330
33C
100
AcDbEntity
  8
DEFPOINTS
 62
     0
100
AcDbPoint
 10
412.50000000002
 20
193.0
 30
0.0
  0
ENDBLK
  5
33E
330
33C
100
AcDbEntity
  8
0
100
AcDbBlockEnd
  0
BLOCK
  5
349
330
348
100
AcDbEntity
  8
0
100
AcDbBlockBegin
  2
*D18
 70
     1
 10
0.0
 20
0.0
 30
0.0
  3
*D18
  1

  0
LINE
  5
34B
330
348
100
AcDbEntity
  8
LAY-20
  6
CONTINUOUS
 62
     4
100
AcDbLine
 10
272.44999999999
 20
143.0
 30
0.0
 11
272.44999999999
 21
110.0
 31
0.0
  0
LINE
  5
34C
330
348
100
AcDbEntity
  8
LAY-20
  6
CONTINUOUS
 62
     4
100
AcDbLine
 10
347.55000000003
 20
143.0
 30
0.0
 11
347.55000000003
 21
110.0
 31
0.0
  0
LINE
  5
34D
330
348
100
AcDbEntity
  8
LAY-20
  6
CONTINUOUS
 62
     4
100
AcDbLine
 10
278.44999999999
 20
113.0
 30
0.0
 11
341.55000000003
 21
113.0
 31
0.0
  0
INSERT
  5
34E
330
348
100
AcDbEntity
  8
LAY-20
 62
     4
100
AcDbBlockReference
  2
EX_BNORM
 10
272.44999999999
 20
113.0
 30
0.0
 41
6.0
 42
6.0
 43
6.0
 50
180.0
  0
INSERT
  5
34F
330
348
100
AcDbEntity
  8
LAY-20
 62
     4
100
AcDbBlockReference
  2
EX_BNORM
 10
347.55000000003
 20
113.0
 30
0.0
 41
6.0
 42
6.0
 43
6.0
  0
MTEXT
  5
350
330
348
100
AcDbEntity
  8
LAY-20
 62
     7
100
AcDbMText
 10
310.00000000001
 20
118.0
 30
0.0
 40
6.2362208
 41
0.0
 71
     5
 72
     1
  1
Rｃ21/2(75.1)
  7
EXCADDIM1
  0
POINT
  5
351
330
348
100
AcDbEntity
  8
DEFPOINTS
 62
     0
100
AcDbPoint
 10
272.44999999999
 20
146.0
 30
0.0
  0
POINT
  5
352
330
348
100
AcDbEntity
  8
DEFPOINTS
 62
     0
100
AcDbPoint
 10
347.55000000003
 20
146.0
 30
0.0
  0
POINT
  5
353
330
348
100
AcDbEntity
  8
DEFPOINTS
 62
     0
100
AcDbPoint
 10
347.55000000003
 20
113.0
 30
0.0
  0
ENDBLK
  5
34A
330
348
100
AcDbEntity
  8
0
100
AcDbBlockEnd
  0
BLOCK
  5
356
330
355
100
AcDbEntity
  8
0
100
AcDbBlockBegin
  2
*D19
 70
     1
 10
0.0
 20
0.0
 30
0.0
  3
*D19
  1

  0
LINE
  5
358
330
355
100
AcDbEntity
  8
LAY-20
  6
CONTINUOUS
 62
     4
100
AcDbLine
 10
249.00000000001
 20
195.5
 30
0.0
 11
249.00000000001
 21
253.0
 31
0.0
  0
LINE
  5
359
330
355
100
AcDbEntity
  8
LAY-20
  6
CONTINUOUS
 62
     4
100
AcDbLine
 10
371.00000000002
 20
196.0
 30
0.0
 11
371.00000000002
 21
253.0
 31
0.0
  0
LINE
  5
35A
330
355
100
AcDbEntity
  8
LAY-20
  6
CONTINUOUS
 62
     4
100
AcDbLine
 10
255.00000000001
 20
250.0
 30
0.0
 11
365.00000000002
 21
250.0
 31
0.0
  0
INSERT
  5
35B
330
355
100
AcDbEntity
  8
LAY-20
 62
     4
100
AcDbBlockReference
  2
EX_BNORM
 10
249.00000000001
 20
250.0
 30
0.0
 41
6.0
 42
6.0
 43
6.0
 50
180.0
  0
INSERT
  5
35C
330
355
100
AcDbEntity
  8
LAY-20
 62
     4
100
AcDbBlockReference
  2
EX_BNORM
 10
371.00000000002
 20
250.0
 30
0.0
 41
6.0
 42
6.0
 43
6.0
  0
MTEXT
  5
35D
330
355
100
AcDbEntity
  8
LAY-20
 62
     7
100
AcDbMText
 10
310.000000000015
 20
255.0
 30
0.0
 40
6.2362208
 41
0.0
 71
     5
 72
     1
  1
%%c122
  7
EXCADDIM1
  0
POINT
  5
35E
330
355
100
AcDbEntity
  8
DEFPOINTS
 62
     0
100
AcDbPoint
 10
249.00000000001
 20
192.5
 30
0.0
  0
POINT
  5
35F
330
355
100
AcDbEntity
  8
DEFPOINTS
 62
     0
100
AcDbPoint
 10
371.00000000002
 20
193.0
 30
0.0
  0
POINT
  5
360
330
355
100
AcDbEntity
  8
DEFPOINTS
 62
     0
100
AcDbPoint
 10
371.00000000002
 20
250.0
 30
0.0
  0
ENDBLK
  5
357
330
355
100
AcDbEntity
  8
0
100
AcDbBlockEnd
  0
BLOCK
  5
363
330
362
100
AcDbEntity
  8
0
100
AcDbBlockBegin
  2
*D20
 70
     1
 10
0.0
 20
0.0
 30
0.0
  3
*D20
  1

  0
LINE
  5
365
330
362
100
AcDbEntity
  8
LAY-20
  6
CONTINUOUS
 62
     4
100
AcDbLine
 10
246.50000000002
 20
196.0
 30
0.0
 11
246.50000000002
 21
264.0
 31
0.0
  0
LINE
  5
366
330
362
100
AcDbEntity
  8
LAY-20
  6
CONTINUOUS
 62
     4
100
AcDbLine
 10
373.50000000001
 20
196.0
 30
0.0
 11
373.50000000001
 21
264.0
 31
0.0
  0
LINE
  5
367
330
362
100
AcDbEntity
  8
LAY-20
  6
CONTINUOUS
 62
     4
100
AcDbLine
 10
252.50000000002
 20
264.0
 30
0.0
 11
367.50000000001
 21
264.0
 31
0.0
  0
INSERT
  5
368
330
362
100
AcDbEntity
  8
LAY-20
 62
     4
100
AcDbBlockReference
  2
EX_BNORM
 10
246.50000000002
 20
264.0
 30
0.0
 41
6.0
 42
6.0
 43
6.0
 50
180.0
  0
INSERT
  5
369
330
362
100
AcDbEntity
  8
LAY-20
 62
     4
100
AcDbBlockReference
  2
EX_BNORM
 10
373.50000000001
 20
264.0
 30
0.0
 41
6.0
 42
6.0
 43
6.0
  0
MTEXT
  5
36A
330
362
100
AcDbEntity
  8
LAY-20
 62
     7
100
AcDbMText
 10
310.000000000015
 20
269.0
 30
0.0
 40
6.2362208
 41
0.0
 71
     5
 72
     1
  1
%%c127
  7
EXCADDIM1
  0
POINT
  5
36B
330
362
100
AcDbEntity
  8
DEFPOINTS
 62
     0
100
AcDbPoint
 10
246.50000000002
 20
196.0
 30
0.0
  0
POINT
  5
36C
330
362
100
AcDbEntity
  8
DEFPOINTS
 62
     0
100
AcDbPoint
 10
373.50000000001
 20
196.0
 30
0.0
  0
POINT
  5
36D
330
362
100
AcDbEntity
  8
DEFPOINTS
 62
     0
100
AcDbPoint
 10
373.50000000001
 20
264.0
 30
0.0
  0
ENDBLK
  5
364
330
362
100
AcDbEntity
  8
0
100
AcDbBlockEnd
  0
BLOCK
  5
370
330
36F
100
AcDbEntity
  8
0
100
AcDbBlockBegin
  2
*D21
 70
     1
 10
0.0
 20
0.0
 30
0.0
  3
*D21
  1

  0
LINE
  5
372
330
36F
100
AcDbEntity
  8
LAY-20
  6
CONTINUOUS
 62
     4
100
AcDbLine
 10
227.50000000001
 20
192.0
 30
0.0
 11
227.50000000001
 21
281.0
 31
0.0
  0
LINE
  5
373
330
36F
100
AcDbEntity
  8
LAY-20
  6
CONTINUOUS
 62
     4
100
AcDbLine
 10
392.50000000002
 20
192.00000000006
 30
0.0
 11
392.50000000002
 21
281.0
 31
0.0
  0
LINE
  5
374
330
36F
100
AcDbEntity
  8
LAY-20
  6
CONTINUOUS
 62
     4
100
AcDbLine
 10
233.50000000001
 20
278.0
 30
0.0
 11
386.50000000002
 21
278.0
 31
0.0
  0
INSERT
  5
375
330
36F
100
AcDbEntity
  8
LAY-20
 62
     4
100
AcDbBlockReference
  2
EX_BNORM
 10
227.50000000001
 20
278.0
 30
0.0
 41
6.0
 42
6.0
 43
6.0
 50
180.0
  0
INSERT
  5
376
330
36F
100
AcDbEntity
  8
LAY-20
 62
     4
100
AcDbBlockReference
  2
EX_BNORM
 10
392.50000000002
 20
278.0
 30
0.0
 41
6.0
 42
6.0
 43
6.0
  0
MTEXT
  5
377
330
36F
100
AcDbEntity
  8
LAY-20
 62
     7
100
AcDbMText
 10
310.000000000015
 20
283.0
 30
0.0
 40
6.2362208
 41
0.0
 71
     5
 72
     1
  1
%%c165
  7
EXCADDIM1
  0
POINT
  5
378
330
36F
100
AcDbEntity
  8
DEFPOINTS
 62
     0
100
AcDbPoint
 10
227.50000000001
 20
189.0
 30
0.0
  0
POINT
  5
379
330
36F
100
AcDbEntity
  8
DEFPOINTS
 62
     0
100
AcDbPoint
 10
392.50000000002
 20
189.00000000006
 30
0.0
  0
POINT
  5
37A
330
36F
100
AcDbEntity
  8
DEFPOINTS
 62
     0
100
AcDbPoint
 10
392.50000000002
 20
278.0
 30
0.0
  0
ENDBLK
  5
371
330
36F
100
AcDbEntity
  8
0
100
AcDbBlockEnd
  0
ENDSEC
  0
SECTION
  2
ENTITIES
  0
LINE
  5
D4
330
1F
100
AcDbEntity
  8
LAY-10
  6
CONTINUOUS
 62
     7
100
AcDbLine
 10
265.5000000000067
 20
152.79898987322
 30
0.0
 11
265.7010101267816
 21
152.9999999999949
 31
0.0
  0
LINE
  5
D5
330
1F
100
AcDbEntity
  8
LAY-10
  6
CONTINUOUS
 62
     7
100
AcDbLine
 10
265.5000000000042
 20
149.9705627484713
 30
0.0
 11
268.5000000000124
 21
152.9705627484795
 31
0.0
  0
LINE
  5
D6
330
1F
100
AcDbEntity
  8
LAY-10
  6
CONTINUOUS
 62
     7
100
AcDbLine
 10
265.5000000000055
 20
147.1421356237263
 30
0.0
 11
268.500000000006
 21
150.142135623727
 31
0.0
  0
LINE
  5
D7
330
1F
100
AcDbEntity
  8
LAY-10
  6
CONTINUOUS
 62
     7
100
AcDbLine
 10
265.5000000000067
 20
144.3137084989817
 30
0.0
 11
268.5000000000111
 21
147.313708498986
 31
0.0
  0
LINE
  5
D8
330
1F
100
AcDbEntity
  8
LAY-10
  6
CONTINUOUS
 62
     7
100
AcDbLine
 10
265.500000000004
 20
141.485281374233
 30
0.0
 11
268.5000000000084
 21
144.4852813742371
 31
0.0
  0
LINE
  5
D9
330
1F
100
AcDbEntity
  8
LAY-10
  6
CONTINUOUS
 62
     7
100
AcDbLine
 10
265.5000000000053
 20
138.6568542494879
 30
0.0
 11
268.5000000000097
 21
141.6568542494925
 31
0.0
  0
LINE
  5
DA
330
1F
100
AcDbEntity
  8
LAY-10
  6
CONTINUOUS
 62
     7
100
AcDbLine
 10
265.5000000000066
 20
135.8284271247431
 30
0.0
 11
268.5000000000072
 21
138.8284271247438
 31
0.0
  0
LINE
  5
DB
330
1F
100
AcDbEntity
  8
LAY-10
  6
CONTINUOUS
 62
     7
100
AcDbLine
 10
265.5000000000117
 20
133.0000000000021
 30
0.0
 11
268.5000000000084
 21
135.9999999999987
 31
0.0
  0
LINE
  5
DC
330
1F
100
AcDbEntity
  8
LAY-10
  6
CONTINUOUS
 62
     7
100
AcDbLine
 10
268.3284271247567
 20
133.0000000000007
 30
0.0
 11
268.5000000000097
 21
133.1715728752538
 31
0.0
  0
LINE
  5
DD
330
1F
100
AcDbEntity
  8
LAY-10
  6
CONTINUOUS
 62
     7
100
AcDbLine
 10
351.5000000000062
 20
152.7989898732197
 30
0.0
 11
351.7010101267889
 21
153.0000000000021
 31
0.0
  0
LINE
  5
DE
330
1F
100
AcDbEntity
  8
LAY-10
  6
CONTINUOUS
 62
     7
100
AcDbLine
 10
351.5000000000036
 20
149.970562748471
 30
0.0
 11
354.500000000008
 21
152.9705627484753
 31
0.0
  0
LINE
  5
DF
330
1F
100
AcDbEntity
  8
LAY-10
  6
CONTINUOUS
 62
     7
100
AcDbLine
 10
351.5000000000088
 20
147.1421356237298
 30
0.0
 11
354.5000000000093
 21
150.1421356237304
 31
0.0
  0
LINE
  5
E0
330
1F
100
AcDbEntity
  8
LAY-10
  6
CONTINUOUS
 62
     7
100
AcDbLine
 10
351.5000000000024
 20
144.3137084989772
 30
0.0
 11
354.5000000000106
 21
147.3137084989855
 31
0.0
  0
LINE
  5
E1
330
1F
100
AcDbEntity
  8
LAY-10
  6
CONTINUOUS
 62
     7
100
AcDbLine
 10
351.5000000000075
 20
141.4852813742361
 30
0.0
 11
354.500000000008
 21
144.4852813742366
 31
0.0
  0
LINE
  5
E2
330
1F
100
AcDbEntity
  8
LAY-10
  6
CONTINUOUS
 62
     7
100
AcDbLine
 10
351.5000000000048
 20
138.6568542494874
 30
0.0
 11
354.5000000000093
 21
141.6568542494918
 31
0.0
  0
LINE
  5
E3
330
1F
100
AcDbEntity
  8
LAY-10
  6
CONTINUOUS
 62
     7
100
AcDbLine
 10
351.5000000000061
 20
135.8284271247426
 30
0.0
 11
354.5000000000105
 21
138.8284271247468
 31
0.0
  0
LINE
  5
E4
330
1F
100
AcDbEntity
  8
LAY-10
  6
CONTINUOUS
 62
     7
100
AcDbLine
 10
351.5000000000074
 20
132.9999999999978
 30
0.0
 11
354.5000000000117
 21
136.0000000000021
 31
0.0
  0
LINE
  5
E5
330
1F
100
AcDbEntity
  8
LAY-10
  6
CONTINUOUS
 62
     7
100
AcDbLine
 10
354.3284271247522
 20
132.9999999999964
 30
0.0
 11
354.5000000000092
 21
133.1715728752534
 31
0.0
  0
LINE
  5
E6
330
1F
100
AcDbEntity
  8
LAY-10
  6
CONTINUOUS
 62
     7
100
AcDbLine
 10
240.6896262956134
 20
191.0735454402114
 30
0.0
 11
233.5000000000157
 21
192.9999999999985
 31
0.0
  0
LINE
  5
E7
330
1F
100
AcDbEntity
  8
LAY-10
  6
CONTINUOUS
 62
     7
100
AcDbLine
 10
227.5000000000139
 20
185.9999999999982
 30
0.0
 11
242.8613650710057
 21
185.9999999999982
 31
0.0
  0
LINE
  5
E8
330
1F
100
AcDbEntity
  8
LAY-10
  6
CONTINUOUS
 62
     7
100
AcDbLine
 10
227.5000000000139
 20
185.9999999999982
 30
0.0
 11
228.500000000014
 21
192.9999999999985
 31
0.0
  0
LINE
  5
E9
330
1F
100
AcDbEntity
  8
LAY-10
  6
CONTINUOUS
 62
     7
100
AcDbLine
 10
231.5406101782228
 20
185.9999999999982
 30
0.0
 11
231.6872389159118
 21
187.0264011638206
 31
0.0
  0
LINE
  5
EA
330
1F
100
AcDbEntity
  8
LAY-10
  6
CONTINUOUS
 62
     7
100
AcDbLine
 10
234.1847759934392
 20
188.6754101039238
 30
0.0
 11
241.4391608067755
 21
186.7316035516058
 31
0.0
  0
ARC
  5
EB
330
1F
100
AcDbEntity
  8
LAY-10
  6
CONTINUOUS
 62
     7
100
AcDbCircle
 10
233.6671379032342
 20
186.7435584513458
 30
0.0
 40
2.0
100
AcDbArc
 50
74.99999999999707
 51
171.8698976458388
  0
LINE
  5
EC
330
1F
100
AcDbEntity
  8
LAY-10
  6
CONTINUOUS
 62
     7
100
AcDbLine
 10
246.9192622342804
 20
184.9999999999982
 30
0.0
 11
246.5496649680555
 21
192.0523359562411
 31
0.0
  0
LINE
  5
ED
330
1F
100
AcDbEntity
  8
LAY-10
  6
CONTINUOUS
 62
     7
100
AcDbLine
 10
241.854684147509
 20
191.6167051076582
 30
0.0
 11
242.2307167471354
 21
192.4227661588403
 31
0.0
  0
LINE
  5
EE
330
1F
100
AcDbEntity
  8
LAY-10
  6
CONTINUOUS
 62
     7
100
AcDbLine
 10
242.9187817860796
 20
184.9044238115137
 30
0.0
 11
243.2815992544056
 21
177.9814541056901
 31
0.0
  0
LINE
  5
EF
330
1F
100
AcDbEntity
  8
LAY-10
  6
CONTINUOUS
 62
     7
100
AcDbLine
 10
349.9648082835708
 20
161.9999999999984
 30
0.0
 11
269.9303761578947
 21
161.9999999999984
 31
0.0
  0
LINE
  5
F0
330
1F
100
AcDbEntity
  8
LAY-10
  6
CONTINUOUS
 62
     7
100
AcDbLine
 10
248.7504420064471
 20
172.3183016545972
 30
0.0
 11
263.5887819741001
 21
171.0201151218842
 31
0.0
  0
ARC
  5
F1
330
1F
100
AcDbEntity
  8
LAY-10
  6
CONTINUOUS
 62
     7
100
AcDbCircle
 10
240.9215227165704
 20
184.7997518990276
 30
0.0
 40
2.0
100
AcDbArc
 50
3.000000000005622
 51
75.00000000000223
  0
ARC
  5
F2
330
1F
100
AcDbEntity
  8
LAY-10
  6
CONTINUOUS
 62
     7
100
AcDbCircle
 10
249.273376462933
 20
178.2954698431477
 30
0.0
 40
6.000000000000004
100
AcDbArc
 50
182.9999999999991
 51
265.0000000000003
  0
LINE
  5
F3
330
1F
100
AcDbEntity
  8
LAY-10
  6
CONTINUOUS
 62
     7
100
AcDbLine
 10
371.2495579935808
 20
172.3183016545972
 30
0.0
 11
356.3059196652667
 21
171.0109027090382
 31
0.0
  0
ARC
  5
F4
330
1F
100
AcDbEntity
  8
LAY-10
  6
CONTINUOUS
 62
     7
100
AcDbCircle
 10
370.7266235370949
 20
178.2954698431477
 30
0.0
 40
6.000000000000004
100
AcDbArc
 50
274.9999999999998
 51
326.6847695709642
  0
LINE
  5
F5
330
1F
100
AcDbEntity
  8
LAY-10
  6
CONTINUOUS
 62
     7
100
AcDbLine
 10
373.0807377657478
 20
184.9999999999982
 30
0.0
 11
373.4503350319724
 21
192.0523359562411
 31
0.0
  0
LINE
  5
F6
330
1F
100
AcDbEntity
  8
LAY-10
  6
CONTINUOUS
 62
     7
100
AcDbLine
 10
392.5000000000139
 20
185.9999999999982
 30
0.0
 11
391.5000000000139
 21
192.9999999999985
 31
0.0
  0
LINE
  5
F7
330
1F
100
AcDbEntity
  8
LAY-10
  6
CONTINUOUS
 62
     7
100
AcDbLine
 10
379.3103737044145
 20
191.0735454402114
 30
0.0
 11
386.5000000000121
 21
192.9999999999985
 31
0.0
  0
LINE
  5
F8
330
1F
100
AcDbEntity
  8
LAY-10
  6
CONTINUOUS
 62
     7
100
AcDbLine
 10
375.7405918769324
 20
174.9999999999985
 30
0.0
 11
391.5000000000139
 21
174.9999999999985
 31
0.0
  0
LINE
  5
F9
330
1F
100
AcDbEntity
  8
LAY-10
  6
CONTINUOUS
 62
     7
100
AcDbLine
 10
391.5000000000139
 20
174.9999999999985
 30
0.0
 11
392.5000000000139
 21
185.9999999999982
 31
0.0
  0
ARC
  5
FA
330
1F
100
AcDbEntity
  8
LAY-10
  6
CONTINUOUS
 62
     7
100
AcDbCircle
 10
243.1369555539285
 20
191.9999999999982
 30
0.0
 40
1.0
100
AcDbArc
 50
90.0
 51
154.9906497524187
  0
ARC
  5
FB
330
1F
100
AcDbEntity
  8
LAY-10
  6
CONTINUOUS
 62
     7
100
AcDbCircle
 10
245.551035433301
 20
191.9999999999982
 30
0.0
 40
1.0
100
AcDbArc
 50
2.999999999992558
 51
90.0
  0
LINE
  5
FC
330
1F
100
AcDbEntity
  8
LAY-10
  6
CONTINUOUS
 62
     7
100
AcDbLine
 10
378.1453158525188
 20
191.6167051076582
 30
0.0
 11
377.7692832528927
 21
192.4227661588403
 31
0.0
  0
ARC
  5
FD
330
1F
100
AcDbEntity
  8
LAY-10
  6
CONTINUOUS
 62
     7
100
AcDbCircle
 10
376.8630444460994
 20
191.9999999999982
 30
0.0
 40
1.0
100
AcDbArc
 50
25.00935024756894
 51
90.0
  0
ARC
  5
FE
330
1F
100
AcDbEntity
  8
LAY-10
  6
CONTINUOUS
 62
     7
100
AcDbCircle
 10
374.4489645667271
 20
191.9999999999982
 30
0.0
 40
1.0
100
AcDbArc
 50
90.0
 51
176.9999999999814
  0
ARC
  5
FF
330
1F
100
AcDbEntity
  8
LAY-10
  6
CONTINUOUS
 62
     7
100
AcDbCircle
 10
379.051554659312
 20
192.0394712665002
 30
0.0
 40
1.0
100
AcDbArc
 50
205.0093502475674
 51
284.999999999998
  0
ARC
  5
100
330
1F
100
AcDbEntity
  8
LAY-10
  6
CONTINUOUS
 62
     7
100
AcDbCircle
 10
240.9484453407159
 20
192.0394712665002
 30
0.0
 40
1.0
100
AcDbArc
 50
254.9999999999953
 51
334.9906497524296
  0
LINE
  5
101
330
1F
100
AcDbEntity
  8
LAY-10
  6
CONTINUOUS
 62
     7
100
AcDbLine
 10
270.0000000000138
 20
161.9999999999977
 30
0.0
 11
350.0000000000138
 21
161.9999999999977
 31
0.0
  0
LINE
  5
102
330
1F
100
AcDbEntity
  8
LAY-10
  6
CONTINUOUS
 62
     7
100
AcDbLine
 10
269.3668544549882
 20
145.9999999999982
 30
0.0
 11
269.0000000000072
 21
152.999999999996
 31
0.0
  0
LINE
  5
103
330
1F
100
AcDbEntity
  8
LAY-10
  6
CONTINUOUS
 62
     7
100
AcDbLine
 10
269.3668544549882
 20
145.9999999999982
 30
0.0
 11
350.7379611036052
 21
145.9999999999982
 31
0.0
  0
LINE
  5
104
330
1F
100
AcDbEntity
  8
LAY-10
  6
CONTINUOUS
 62
     7
100
AcDbLine
 10
355.3944458732598
 20
170.0670439671895
 30
0.0
 11
354.5000000000136
 21
152.9999999999982
 31
0.0
  0
LINE
  5
105
330
1F
100
AcDbEntity
  8
LAY-10
  6
CONTINUOUS
 62
     7
100
AcDbLine
 10
265.5000000000142
 20
152.9999999999982
 30
0.0
 11
269.000000000007
 21
152.9999999999982
 31
0.0
  0
LINE
  5
106
330
1F
100
AcDbEntity
  8
LAY-10
  6
CONTINUOUS
 62
     7
100
AcDbLine
 10
354.5000000000136
 20
152.9999999999982
 30
0.0
 11
351.0000000000208
 21
152.9999999999982
 31
0.0
  0
LINE
  5
107
330
1F
100
AcDbEntity
  8
LAY-10
  6
CONTINUOUS
 62
     7
100
AcDbLine
 10
350.6331455450396
 20
145.9999999999982
 30
0.0
 11
351.0000000000207
 21
152.999999999996
 31
0.0
  0
ARC
  5
108
330
1F
100
AcDbEntity
  8
LAY-10
  6
CONTINUOUS
 62
     7
100
AcDbCircle
 10
356.3930754080145
 20
170.0147080109467
 30
0.0
 40
1.0
100
AcDbArc
 50
95.00000000000642
 51
177.0000000000074
  0
LINE
  5
109
330
1F
100
AcDbEntity
  8
LAY-10
  6
CONTINUOUS
 62
     7
100
AcDbLine
 10
349.9648082835708
 20
161.9999999999977
 30
0.0
 11
350.3939428605113
 21
170.1883755200313
 31
0.0
  0
ARC
  5
10A
330
1F
100
AcDbEntity
  8
LAY-10
  6
CONTINUOUS
 62
     7
100
AcDbCircle
 10
355.3870905342841
 20
169.9266957388167
 30
0.0
 40
5.0
100
AcDbArc
 50
94.99999999999783
 51
177.000000000001
  0
LINE
  5
10B
330
1F
100
AcDbEntity
  8
LAY-10
  6
CONTINUOUS
 62
     7
100
AcDbLine
 10
264.605554126768
 20
170.0670439671895
 30
0.0
 11
265.5000000000142
 21
152.9999999999982
 31
0.0
  0
ARC
  5
10C
330
1F
100
AcDbEntity
  8
LAY-10
  6
CONTINUOUS
 62
     7
100
AcDbCircle
 10
264.6129094657438
 20
169.9266957388167
 30
0.0
 40
5.0
100
AcDbArc
 50
2.99999999999909
 51
85.00000000000219
  0
ARC
  5
10D
330
1F
100
AcDbEntity
  8
LAY-10
  6
CONTINUOUS
 62
     7
100
AcDbCircle
 10
263.6069245920133
 20
170.0147080109467
 30
0.0
 40
1.0
100
AcDbArc
 50
2.999999999992558
 51
84.99999999999365
  0
LINE
  5
10E
330
1F
100
AcDbEntity
  8
LAY-10
  6
CONTINUOUS
 62
     7
100
AcDbLine
 10
270.035191716457
 20
161.9999999999977
 30
0.0
 11
269.6060571395166
 21
170.1883755200313
 31
0.0
  0
LINE
  5
10F
330
1F
100
AcDbEntity
  8
LAY-10
  6
CONTINUOUS
 62
     7
100
AcDbLine
 10
247.551594577064
 20
190.3689874418135
 30
0.0
 11
247.3812184653615
 21
192.0980611549995
 31
0.0
  0
ARC
  5
110
330
1F
100
AcDbEntity
  8
LAY-10
  6
CONTINUOUS
 62
     7
100
AcDbCircle
 10
248.5467749676867
 20
190.4670485968143
 30
0.0
 40
1.0
100
AcDbArc
 50
185.6275340625949
 51
270.0
  0
ARC
  5
111
330
1F
100
AcDbEntity
  8
LAY-10
  6
CONTINUOUS
 62
     7
100
AcDbCircle
 10
289.065008176919
 20
190.4670485968143
 30
0.0
 40
1.0
100
AcDbArc
 50
195.8484509850577
 51
270.0
  0
ARC
  5
112
330
1F
100
AcDbEntity
  8
LAY-10
  6
CONTINUOUS
 62
     7
100
AcDbCircle
 10
322.3736252503436
 20
191.8564064605487
 30
0.0
 40
1.0
100
AcDbArc
 50
208.0850337165028
 51
270.0
  0
ARC
  5
113
330
1F
100
AcDbEntity
  8
LAY-10
  6
CONTINUOUS
 62
     7
100
AcDbCircle
 10
321.7222549686632
 20
190.4670485968143
 30
0.0
 40
1.0
100
AcDbArc
 50
195.1582877330264
 51
270.0
  0
ARC
  5
114
330
1F
100
AcDbEntity
  8
LAY-10
  6
CONTINUOUS
 62
     7
100
AcDbCircle
 10
320.4317584368474
 20
192.6696466465019
 30
0.0
 40
0.330353353492939
100
AcDbArc
 50
28.08503371659244
 51
195.1582877330302
  0
LINE
  5
115
330
1F
100
AcDbEntity
  8
LAY-10
  6
CONTINUOUS
 62
     7
100
AcDbLine
 10
320.7570478519197
 20
190.2055620354241
 30
0.0
 11
320.1128990290126
 21
192.5832636840526
 31
0.0
  0
LINE
  5
116
330
1F
100
AcDbEntity
  8
LAY-10
  6
CONTINUOUS
 62
     7
100
AcDbLine
 10
321.4913753809732
 20
191.3856250165691
 30
0.0
 11
320.7232126398155
 21
192.8251708752846
 31
0.0
  0
ARC
  5
117
330
1F
100
AcDbEntity
  8
LAY-10
  6
CONTINUOUS
 62
     7
100
AcDbCircle
 10
360.1097156380224
 20
191.9999999999982
 30
0.0
 40
1.0
100
AcDbArc
 50
90.0
 51
167.5493641358798
  0
LINE
  5
118
330
1F
100
AcDbEntity
  8
LAY-10
  6
CONTINUOUS
 62
     7
100
AcDbLine
 10
358.6995674248398
 20
190.2514502072359
 30
0.0
 11
359.1332335161118
 21
192.2155983895767
 31
0.0
  0
ARC
  5
119
330
1F
100
AcDbEntity
  8
LAY-10
  6
CONTINUOUS
 62
     7
100
AcDbCircle
 10
357.7230853029291
 20
190.4670485968143
 30
0.0
 40
1.0
100
AcDbArc
 50
270.0
 51
347.5493641358797
  0
ARC
  5
11A
330
1F
100
AcDbEntity
  8
LAY-10
  6
CONTINUOUS
 62
     7
100
AcDbCircle
 10
373.613961925289
 20
191.9999999999982
 30
0.0
 40
1.0
100
AcDbArc
 50
90.0
 51
174.3724659373789
  0
ARC
  5
11B
330
1F
100
AcDbEntity
  8
LAY-10
  6
CONTINUOUS
 62
     7
100
AcDbCircle
 10
372.475698976901
 20
191.9999999999982
 30
0.0
 40
1.0
100
AcDbArc
 50
55.31031700925399
 51
90.0
  0
ARC
  5
11C
330
1F
100
AcDbEntity
  8
LAY-10
  6
CONTINUOUS
 62
     7
100
AcDbCircle
 10
370.3577990254353
 20
191.9999999999982
 30
0.0
 40
1.0
100
AcDbArc
 50
90.0
 51
182.8693470177255
  0
LINE
  5
11D
330
1F
100
AcDbEntity
  8
LAY-10
  6
CONTINUOUS
 62
     7
100
AcDbLine
 10
372.4484054229638
 20
190.3689874418135
 30
0.0
 11
372.6187815346663
 21
192.0980611549995
 31
0.0
  0
ARC
  5
11E
330
1F
100
AcDbEntity
  8
LAY-10
  6
CONTINUOUS
 62
     7
100
AcDbCircle
 10
371.4532250323412
 20
190.4670485968143
 30
0.0
 40
1.0
100
AcDbArc
 50
270.0
 51
354.3724659374053
  0
LINE
  5
11F
330
1F
100
AcDbEntity
  8
LAY-10
  6
CONTINUOUS
 62
     7
100
AcDbLine
 10
369.3590527441856
 20
191.9499413774645
 30
0.0
 11
369.4358865077701
 21
190.4169899742809
 31
0.0
  0
LINE
  5
120
330
1F
100
AcDbEntity
  8
LAY-10
  6
CONTINUOUS
 62
     7
100
AcDbLine
 10
371.4532250323412
 20
189.4670485968145
 30
0.0
 11
370.4346327890198
 21
189.4670485968145
 31
0.0
  0
ARC
  5
121
330
1F
100
AcDbEntity
  8
LAY-10
  6
CONTINUOUS
 62
     7
100
AcDbCircle
 10
370.4346327890198
 20
190.4670485968143
 30
0.0
 40
1.0
100
AcDbArc
 50
182.8693470177125
 51
270.0
  0
LINE
  5
122
330
1F
100
AcDbEntity
  8
LAY-10
  6
CONTINUOUS
 62
     7
100
AcDbLine
 10
249.5000000000115
 20
177.4999999999996
 30
0.0
 11
254.500000000011
 21
177.4999999999996
 31
0.0
  0
LINE
  5
123
330
1F
100
AcDbEntity
  8
LAY-10
  6
CONTINUOUS
 62
     7
100
AcDbLine
 10
252.0000000000101
 20
176.0566243270258
 30
0.0
 11
249.500000000011
 21
177.4999999999996
 31
0.0
  0
LINE
  5
124
330
1F
100
AcDbEntity
  8
LAY-10
  6
CONTINUOUS
 62
     7
100
AcDbLine
 10
252.0000000000101
 20
176.056624327026
 30
0.0
 11
254.5000000000092
 21
177.4999999999996
 31
0.0
  0
LINE
  5
125
330
1F
100
AcDbEntity
  8
LAY-10
  6
CONTINUOUS
 62
     7
100
AcDbLine
 10
258.4988852299629
 20
175.4807027356904
 30
0.0
 11
258.0000000000053
 21
184.9999999999982
 31
0.0
  0
LINE
  5
126
330
1F
100
AcDbEntity
  8
LAY-10
  6
CONTINUOUS
 62
     7
100
AcDbLine
 10
258.4988852299597
 20
175.4807027356872
 30
0.0
 11
265.0486881794819
 21
174.9076692292754
 31
0.0
  0
LINE
  5
127
330
1F
100
AcDbEntity
  8
LAY-10
  6
CONTINUOUS
 62
     7
100
AcDbLine
 10
363.5103271829021
 20
175.6564860444258
 30
0.0
 11
364.0000000000139
 21
184.9999999999982
 31
0.0
  0
LINE
  5
128
330
1F
100
AcDbEntity
  8
LAY-10
  6
CONTINUOUS
 62
     7
100
AcDbLine
 10
363.5103271829004
 20
175.6564860444258
 30
0.0
 11
354.951311820546
 21
174.9076692292754
 31
0.0
  0
LINE
  5
129
330
1F
100
AcDbEntity
  8
LAY-10
  6
CONTINUOUS
 62
     7
100
AcDbLine
 10
305.5309127214302
 20
176.04928151886
 30
0.0
 11
306.0000000000142
 21
184.9999999999982
 31
0.0
  0
ARC
  5
12A
330
1F
100
AcDbEntity
  8
LAY-10
  6
CONTINUOUS
 62
     7
100
AcDbCircle
 10
310.0000000000149
 20
201.2767269822223
 30
0.0
 40
25.62024093779232
100
AcDbArc
 50
259.9541730410623
 51
270.0
  0
LINE
  5
12B
330
1F
100
AcDbEntity
  8
LAY-10
  6
CONTINUOUS
 62
     7
100
AcDbLine
 10
269.3785823761521
 20
174.5288525728
 30
0.0
 11
350.6214176238757
 21
174.5288525728
 31
0.0
  0
LINE
  5
12C
330
1F
100
AcDbEntity
  8
LAY-10
  6
CONTINUOUS
 62
     7
100
AcDbLine
 10
316.4478450645036
 20
176.4546071095543
 30
0.0
 11
363.5521549355245
 21
176.4546071095543
 31
0.0
  0
LINE
  5
12D
330
1F
100
AcDbEntity
  8
LAY-10
  6
CONTINUOUS
 62
     7
100
AcDbLine
 10
316.4690872785984
 20
176.04928151886
 30
0.0
 11
316.0000000000143
 21
184.9999999999982
 31
0.0
  0
ARC
  5
12E
330
1F
100
AcDbEntity
  8
LAY-10
  6
CONTINUOUS
 62
     7
100
AcDbCircle
 10
309.9974067988513
 20
212.5959843723252
 30
0.0
 40
37.11528172722723
100
AcDbArc
 50
270.004003188857
 51
280.0418237701499
  0
LINE
  5
12F
330
1F
100
AcDbEntity
  8
LAY-10
  6
CONTINUOUS
 62
     7
100
AcDbLine
 10
258.4478450644946
 20
176.4546071095543
 30
0.0
 11
305.5521549355252
 21
176.4546071095543
 31
0.0
  0
LINE
  5
130
330
1F
100
AcDbEntity
  8
LAY-10
  6
CONTINUOUS
 62
     7
100
AcDbLine
 10
265.5000000000076
 20
132.9999999999981
 30
0.0
 11
354.5000000000078
 21
132.9999999999981
 31
0.0
  0
LINE
  5
131
330
1F
100
AcDbEntity
  8
LAY-10
  6
CONTINUOUS
 62
     7
100
AcDbLine
 10
268.5000000000077
 20
132.9999999999981
 30
0.0
 11
268.5000000000077
 21
152.9999999999982
 31
0.0
  0
LINE
  5
132
330
1F
100
AcDbEntity
  8
LAY-10
  6
CONTINUOUS
 62
     7
100
AcDbLine
 10
265.5000000000076
 20
152.9999999999982
 30
0.0
 11
265.5000000000076
 21
132.9999999999981
 31
0.0
  0
LINE
  5
133
330
1F
100
AcDbEntity
  8
LAY-10
  6
CONTINUOUS
 62
     7
100
AcDbLine
 10
351.5000000000076
 20
132.9999999999981
 30
0.0
 11
351.5000000000076
 21
152.9999999999982
 31
0.0
  0
LINE
  5
134
330
1F
100
AcDbEntity
  8
LAY-10
  6
CONTINUOUS
 62
     7
100
AcDbLine
 10
354.5000000000078
 20
152.9999999999982
 30
0.0
 11
354.5000000000078
 21
132.9999999999981
 31
0.0
  0
LINE
  5
135
330
1F
100
AcDbEntity
  8
LAY-10
  6
CONTINUOUS
 62
     7
100
AcDbLine
 10
279.5205708656408
 20
229.9999999999997
 30
0.0
 11
340.4794291343791
 21
229.9999999999997
 31
0.0
  0
LINE
  5
136
330
1F
100
AcDbEntity
  8
LAY-10
  6
CONTINUOUS
 62
     7
100
AcDbLine
 10
342.4112807869568
 20
224.517638090205
 30
0.0
 11
353.0000000000133
 21
184.9999999999999
 31
0.0
  0
LINE
  5
137
330
1F
100
AcDbEntity
  8
LAY-10
  6
CONTINUOUS
 62
     7
100
AcDbLine
 10
323.074056530729
 20
225.9999999999991
 30
0.0
 11
323.2836876478611
 21
229.9999999999997
 31
0.0
  0
LINE
  5
138
330
1F
100
AcDbEntity
  8
LAY-10
  6
CONTINUOUS
 62
     7
100
AcDbLine
 10
339.742805167853
 20
225.9999999999986
 30
0.0
 11
339.5331740507208
 21
229.9999999999997
 31
0.0
  0
ARC
  5
139
330
1F
100
AcDbEntity
  8
LAY-10
  6
CONTINUOUS
 62
     7
100
AcDbCircle
 10
340.4794291343791
 20
223.9999999999997
 30
0.0
 40
6.000000000000004
100
AcDbArc
 50
15.00000000000118
 51
90.0
  0
ARC
  5
13A
330
1F
100
AcDbEntity
  8
LAY-10
  6
CONTINUOUS
 62
     7
100
AcDbCircle
 10
340.4794291343787
 20
223.9999999999999
 30
0.0
 40
2.0
100
AcDbArc
 50
14.99999999999958
 51
90.0
  0
ARC
  5
13B
330
1F
100
AcDbEntity
  8
LAY-10
  6
CONTINUOUS
 62
     7
100
AcDbCircle
 10
368.892439749458
 20
187.0
 30
0.0
 40
2.0
100
AcDbArc
 50
270.0
 51
357.0000000000017
  0
LINE
  5
13C
330
1F
100
AcDbEntity
  8
LAY-10
  6
CONTINUOUS
 62
     7
100
AcDbLine
 10
370.8896988189671
 20
186.8953280875141
 30
0.0
 11
371.0000000000198
 21
188.9999999999999
 31
0.0
  0
LINE
  5
13D
330
1F
100
AcDbEntity
  8
LAY-10
  6
CONTINUOUS
 62
     7
100
AcDbLine
 10
262.8588952783663
 20
184.9999999999999
 30
0.0
 11
273.7250159079066
 21
225.552914270615
 31
0.0
  0
LINE
  5
13E
330
1F
100
AcDbEntity
  8
LAY-10
  6
CONTINUOUS
 62
     7
100
AcDbLine
 10
277.5887192130633
 20
224.517638090205
 30
0.0
 11
267.0000000000068
 21
184.9999999999999
 31
0.0
  0
LINE
  5
13F
330
1F
100
AcDbEntity
  8
LAY-10
  6
CONTINUOUS
 62
     7
100
AcDbLine
 10
306.1957259831608
 20
223.9999999999999
 30
0.0
 11
304.0160248388541
 21
184.9999999999999
 31
0.0
  0
LINE
  5
140
330
1F
100
AcDbEntity
  8
LAY-10
  6
CONTINUOUS
 62
     7
100
AcDbLine
 10
300.326840378757
 20
223.9999999999999
 30
0.0
 11
298.1471392344498
 21
184.9999999999999
 31
0.0
  0
LINE
  5
141
330
1F
100
AcDbEntity
  8
LAY-10
  6
CONTINUOUS
 62
     7
100
AcDbLine
 10
298.9827645284494
 20
223.9999999999999
 30
0.0
 11
296.8023477111088
 21
184.9999999999999
 31
0.0
  0
LINE
  5
142
330
1F
100
AcDbEntity
  8
LAY-10
  6
CONTINUOUS
 62
     7
100
AcDbLine
 10
293.3760858833517
 20
223.9999999999999
 30
0.0
 11
287.2138725802446
 21
184.9999999999999
 31
0.0
  0
LINE
  5
143
330
1F
100
AcDbEntity
  8
LAY-10
  6
CONTINUOUS
 62
     7
100
AcDbLine
 10
288.5219839171021
 20
223.9999999999999
 30
0.0
 11
282.359770613995
 21
184.9999999999999
 31
0.0
  0
LINE
  5
144
330
1F
100
AcDbEntity
  8
LAY-10
  6
CONTINUOUS
 62
     7
100
AcDbLine
 10
285.7003068919714
 20
223.9999999999999
 30
0.0
 11
279.5360703161322
 21
184.9999999999999
 31
0.0
  0
LINE
  5
145
330
1F
100
AcDbEntity
  8
LAY-10
  6
CONTINUOUS
 62
     7
100
AcDbLine
 10
288.5219839171021
 20
223.9999999999999
 30
0.0
 11
283.4308715578303
 21
223.9999999999999
 31
0.0
  0
LINE
  5
146
330
1F
100
AcDbEntity
  8
LAY-10
  6
CONTINUOUS
 62
     7
100
AcDbLine
 10
300.326840378757
 20
223.9999999999999
 30
0.0
 11
293.3760858833517
 21
223.9999999999999
 31
0.0
  0
LINE
  5
147
330
1F
100
AcDbEntity
  8
LAY-10
  6
CONTINUOUS
 62
     7
100
AcDbLine
 10
274.3516487579807
 20
184.9999999999999
 30
0.0
 11
283.4308715578303
 21
223.9999999999999
 31
0.0
  0
LINE
  5
148
330
1F
100
AcDbEntity
  8
LAY-10
  6
CONTINUOUS
 62
     7
100
AcDbLine
 10
271.3516487579816
 20
184.9999999999999
 30
0.0
 11
280.4308715578316
 21
223.9999999999999
 31
0.0
  0
LINE
  5
149
330
1F
100
AcDbEntity
  8
LAY-10
  6
CONTINUOUS
 62
     7
100
AcDbLine
 10
280.4308715578316
 20
223.9999999999999
 30
0.0
 11
273.3089137831805
 21
223.9999999999999
 31
0.0
  0
LINE
  5
14A
330
1F
100
AcDbEntity
  8
LAY-10
  6
CONTINUOUS
 62
     7
100
AcDbLine
 10
267.53728311961
 20
184.9999999999999
 30
0.0
 11
271.104809405651
 21
200.3193572572497
 31
0.0
  0
LINE
  5
14B
330
1F
100
AcDbEntity
  8
LAY-10
  6
CONTINUOUS
 62
     7
100
AcDbLine
 10
296.9259434692911
 20
225.9999999999991
 30
0.0
 11
296.7163123521589
 21
229.9999999999997
 31
0.0
  0
LINE
  5
14C
330
1F
100
AcDbEntity
  8
LAY-10
  6
CONTINUOUS
 62
     7
100
AcDbLine
 10
280.2571948321671
 20
225.9999999999986
 30
0.0
 11
280.4668259492993
 21
229.9999999999997
 31
0.0
  0
ARC
  5
14D
330
1F
100
AcDbEntity
  8
LAY-10
  6
CONTINUOUS
 62
     7
100
AcDbCircle
 10
279.520570865641
 20
223.9999999999997
 30
0.0
 40
6.000000000000004
100
AcDbArc
 50
90.0
 51
164.9999999999989
  0
ARC
  5
14E
330
1F
100
AcDbEntity
  8
LAY-10
  6
CONTINUOUS
 62
     7
100
AcDbCircle
 10
279.5205708656413
 20
223.9999999999999
 30
0.0
 40
2.0
100
AcDbArc
 50
90.0
 51
165.0000000000004
  0
LINE
  5
14F
330
1F
100
AcDbEntity
  8
LAY-10
  6
CONTINUOUS
 62
     7
100
AcDbLine
 10
264.8685142215997
 20
192.4999999999989
 30
0.0
 11
249.18342722749
 21
192.4999999999989
 31
0.0
  0
LINE
  5
150
330
1F
100
AcDbEntity
  8
LAY-10
  6
CONTINUOUS
 62
     7
100
AcDbLine
 10
280.168299708526
 20
188.9999999999999
 30
0.0
 11
275.2828510964269
 21
188.9999999999999
 31
0.0
  0
LINE
  5
151
330
1F
100
AcDbEntity
  8
LAY-10
  6
CONTINUOUS
 62
     7
100
AcDbLine
 10
297.025980205195
 20
188.9999999999999
 30
0.0
 11
287.8458944574864
 21
188.9999999999999
 31
0.0
  0
LINE
  5
152
330
1F
100
AcDbEntity
  8
LAY-10
  6
CONTINUOUS
 62
     7
100
AcDbLine
 10
257.8930583446329
 20
184.9999999999999
 30
0.0
 11
257.5000000000103
 21
192.4999999999989
 31
0.0
  0
LINE
  5
153
330
1F
100
AcDbEntity
  8
LAY-10
  6
CONTINUOUS
 62
     7
100
AcDbLine
 10
279.5205708656413
 20
225.9999999999998
 30
0.0
 11
340.4794291343787
 21
225.9999999999998
 31
0.0
  0
LINE
  5
154
330
1F
100
AcDbEntity
  8
LAY-10
  6
CONTINUOUS
 62
     7
100
AcDbLine
 10
356.0693079519293
 20
188.9999999999997
 30
0.0
 11
346.2749840921135
 21
225.552914270615
 31
0.0
  0
LINE
  5
155
330
1F
100
AcDbEntity
  8
LAY-10
  6
CONTINUOUS
 62
     7
100
AcDbLine
 10
371.0000000000198
 20
189.0
 30
0.0
 11
356.0693079519293
 21
189.0
 31
0.0
  0
LINE
  5
156
330
1F
100
AcDbEntity
  8
LAY-10
  6
CONTINUOUS
 62
     7
100
AcDbLine
 10
310.00000000001
 20
188.9999999999999
 30
0.0
 11
304.2395839305801
 21
188.9999999999999
 31
0.0
  0
LINE
  5
157
330
1F
100
AcDbEntity
  8
LAY-10
  6
CONTINUOUS
 62
     7
100
AcDbLine
 10
306.1957259831608
 20
223.9999999999999
 30
0.0
 11
310.00000000001
 21
223.9999999999999
 31
0.0
  0
LINE
  5
158
330
1F
100
AcDbEntity
  8
LAY-10
  6
CONTINUOUS
 62
     7
100
AcDbLine
 10
342.5499814951988
 20
223.9999999999999
 30
0.0
 11
346.6910862168396
 21
223.9999999999999
 31
0.0
  0
LINE
  5
159
330
1F
100
AcDbEntity
  8
LAY-10
  6
CONTINUOUS
 62
     7
100
AcDbLine
 10
316.3714834636799
 20
223.9999999999999
 30
0.0
 11
323.60764265066
 21
223.9999999999999
 31
0.0
  0
LINE
  5
15A
330
1F
100
AcDbEntity
  8
LAY-10
  6
CONTINUOUS
 62
     7
100
AcDbLine
 10
316.3714834636799
 20
223.9999999999999
 30
0.0
 11
317.46733723747
 21
184.9999999999999
 31
0.0
  0
LINE
  5
15B
330
1F
100
AcDbEntity
  8
LAY-10
  6
CONTINUOUS
 62
     7
100
AcDbLine
 10
323.60764265066
 20
223.9999999999999
 30
0.0
 11
328.84953437818
 21
184.9999999999999
 31
0.0
  0
LINE
  5
15C
330
1F
100
AcDbEntity
  8
LAY-10
  6
CONTINUOUS
 62
     7
100
AcDbLine
 10
318.25437325803
 20
188.9999999999999
 30
0.0
 11
317.2986002315099
 21
223.9999999999999
 31
0.0
  0
LINE
  5
15D
330
1F
100
AcDbEntity
  8
LAY-10
  6
CONTINUOUS
 62
     7
100
AcDbLine
 10
318.25437325803
 20
188.9999999999999
 30
0.0
 11
328.3119044574088
 21
188.9999999999999
 31
0.0
  0
LINE
  5
15E
330
1F
100
AcDbEntity
  8
LAY-10
  6
CONTINUOUS
 62
     7
100
AcDbLine
 10
328.80379507337
 20
223.9999999999999
 30
0.0
 11
334.45804817399
 21
223.9999999999999
 31
0.0
  0
LINE
  5
15F
330
1F
100
AcDbEntity
  8
LAY-10
  6
CONTINUOUS
 62
     7
100
AcDbLine
 10
328.80379507337
 20
223.9999999999999
 30
0.0
 11
334.0456868008899
 21
184.9999999999999
 31
0.0
  0
LINE
  5
160
330
1F
100
AcDbEntity
  8
LAY-10
  6
CONTINUOUS
 62
     7
100
AcDbLine
 10
342.93960715447
 20
184.9999999999999
 30
0.0
 11
334.45804817399
 21
223.9999999999999
 31
0.0
  0
LINE
  5
161
330
1F
100
AcDbEntity
  8
LAY-10
  6
CONTINUOUS
 62
     7
100
AcDbLine
 10
335.8648055632999
 20
188.9999999999999
 30
0.0
 11
331.29297413749
 21
223.9999999999999
 31
0.0
  0
LINE
  5
162
330
1F
100
AcDbEntity
  8
LAY-10
  6
CONTINUOUS
 62
     7
100
AcDbLine
 10
318.39481381286
 20
184.9999999999999
 30
0.0
 11
318.39481381286
 21
188.9999999999999
 31
0.0
  0
LINE
  5
163
330
1F
100
AcDbEntity
  8
LAY-10
  6
CONTINUOUS
 62
     7
100
AcDbLine
 10
335.8648055632999
 20
188.9999999999999
 30
0.0
 11
342.0697036692926
 21
188.9999999999999
 31
0.0
  0
LINE
  5
164
330
1F
100
AcDbEntity
  8
LAY-10
  6
CONTINUOUS
 62
     7
100
AcDbLine
 10
336.53658696359
 20
188.9999999999999
 30
0.0
 11
336.53658696359
 21
184.9999999999999
 31
0.0
  0
LINE
  5
165
330
1F
100
AcDbEntity
  8
LAY-10
  6
CONTINUOUS
 62
     7
100
AcDbLine
 10
337.98475968775
 20
223.9999999999999
 30
0.0
 11
341.07943497365
 21
223.9999999999999
 31
0.0
  0
LINE
  5
166
330
1F
100
AcDbEntity
  8
LAY-10
  6
CONTINUOUS
 62
     7
100
AcDbLine
 10
337.98475968775
 20
223.9999999999999
 30
0.0
 11
346.4663186682299
 21
184.9999999999999
 31
0.0
  0
LINE
  5
167
330
1F
100
AcDbEntity
  8
LAY-10
  6
CONTINUOUS
 62
     7
100
AcDbLine
 10
351.33412260682
 20
184.9999999999999
 30
0.0
 11
341.07943497365
 21
223.9999999999999
 31
0.0
  0
LINE
  5
168
330
1F
100
AcDbEntity
  8
LAY-10
  6
CONTINUOUS
 62
     7
100
AcDbLine
 10
349.00297801229
 20
188.9999999999999
 30
0.0
 11
350.2823597726487
 21
188.9999999999999
 31
0.0
  0
LINE
  5
169
330
1F
100
AcDbEntity
  8
LAY-10
  6
CONTINUOUS
 62
     7
100
AcDbLine
 10
350.08994315099
 20
184.9999999999999
 30
0.0
 11
350.08994315099
 21
188.9999999999999
 31
0.0
  0
LINE
  5
16A
330
1F
100
AcDbEntity
  8
LAY-10
  6
CONTINUOUS
 62
     7
100
AcDbLine
 10
349.00297801229
 20
188.9999999999999
 30
0.0
 11
343.7613112485225
 21
213.8004523919665
 31
0.0
  0
ARC
  5
16B
330
1F
100
AcDbEntity
  8
LAY-10
  6
CONTINUOUS
 62
     7
100
AcDbCircle
 10
259.8902843620054
 20
191.9999999999982
 30
0.0
 40
1.0
100
AcDbArc
 50
30.00000000004579
 51
90.0
  0
LINE
  5
16C
330
1F
100
AcDbEntity
  8
LAY-10
  6
CONTINUOUS
 62
     7
100
AcDbLine
 10
268.1969420640739
 20
189.4670485968145
 30
0.0
 11
268.499406417725
 21
189.4670485968145
 31
0.0
  0
ARC
  5
16D
330
1F
100
AcDbEntity
  8
LAY-10
  6
CONTINUOUS
 62
     7
100
AcDbCircle
 10
268.499406417725
 20
190.4670485968143
 30
0.0
 40
1.0
100
AcDbArc
 50
270.0
 51
274.5239152391966
  0
LINE
  5
16E
330
1F
100
AcDbEntity
  8
LAY-10
  6
CONTINUOUS
 62
     7
100
AcDbLine
 10
269.1435935394555
 20
192.9999999999985
 30
0.0
 11
269.400299289875
 21
192.9999999999985
 31
0.0
  0
ARC
  5
16F
330
1F
100
AcDbEntity
  8
LAY-10
  6
CONTINUOUS
 62
     7
100
AcDbCircle
 10
268.7835373919237
 20
191.9999999999982
 30
0.0
 40
1.0
100
AcDbArc
 50
54.93562916234754
 51
69.89573232536421
  0
LINE
  5
170
330
1F
100
AcDbEntity
  8
LAY-10
  6
CONTINUOUS
 62
     7
100
AcDbLine
 10
276.2140534348726
 20
192.9999999999985
 30
0.0
 11
280.8005291009195
 21
192.9999999999985
 31
0.0
  0
LINE
  5
171
330
1F
100
AcDbEntity
  8
LAY-10
  6
CONTINUOUS
 62
     7
100
AcDbLine
 10
288.1030207755296
 20
190.1939547675764
 30
0.0
 11
288.0590302188506
 21
190.3489138211124
 31
0.0
  0
LINE
  5
172
330
1F
100
AcDbEntity
  8
LAY-10
  6
CONTINUOUS
 62
     7
100
AcDbLine
 10
289.065008176919
 20
189.4670485968145
 30
0.0
 11
297.0520920158363
 21
189.4670485968145
 31
0.0
  0
LINE
  5
173
330
1F
100
AcDbEntity
  8
LAY-10
  6
CONTINUOUS
 62
     7
100
AcDbLine
 10
288.1392168315164
 20
190.856406460549
 30
0.0
 11
297.1297684068976
 21
190.856406460549
 31
0.0
  0
LINE
  5
174
330
1F
100
AcDbEntity
  8
LAY-10
  6
CONTINUOUS
 62
     7
100
AcDbLine
 10
288.4779163347279
 20
192.9999999999985
 30
0.0
 11
297.2496126992812
 21
192.9999999999985
 31
0.0
  0
LINE
  5
175
330
1F
100
AcDbEntity
  8
LAY-10
  6
CONTINUOUS
 62
     7
100
AcDbLine
 10
304.4631430223016
 20
192.9999999999985
 30
0.0
 11
310.0000000000139
 21
192.9999999999985
 31
0.0
  0
LINE
  5
176
330
1F
100
AcDbEntity
  8
LAY-10
  6
CONTINUOUS
 62
     7
100
AcDbLine
 10
328.2491296323833
 20
189.4670485968145
 30
0.0
 11
321.7222549686632
 21
189.4670485968145
 31
0.0
  0
LINE
  5
177
330
1F
100
AcDbEntity
  8
LAY-10
  6
CONTINUOUS
 62
     7
100
AcDbLine
 10
328.0623895428326
 20
190.856406460549
 30
0.0
 11
322.3736252503436
 21
190.856406460549
 31
0.0
  0
LINE
  5
178
330
1F
100
AcDbEntity
  8
LAY-10
  6
CONTINUOUS
 62
     7
100
AcDbLine
 10
318.1451420549992
 20
192.9999999999985
 30
0.0
 11
327.7742745366376
 21
192.9999999999985
 31
0.0
  0
LINE
  5
179
330
1F
100
AcDbEntity
  8
LAY-10
  6
CONTINUOUS
 62
     7
100
AcDbLine
 10
335.3423105432075
 20
192.9999999999985
 30
0.0
 11
341.1998001841154
 21
192.9999999999985
 31
0.0
  0
LINE
  5
17A
330
1F
100
AcDbEntity
  8
LAY-10
  6
CONTINUOUS
 62
     7
100
AcDbLine
 10
348.1575633108286
 20
192.9999999999985
 30
0.0
 11
349.2305969384778
 21
192.9999999999985
 31
0.0
  0
LINE
  5
17B
330
1F
100
AcDbEntity
  8
LAY-10
  6
CONTINUOUS
 62
     7
100
AcDbLine
 10
354.9975111822051
 20
192.9999999999985
 30
0.0
 11
391.5000000000139
 21
192.9999999999985
 31
0.0
  0
LINE
  5
17C
330
1F
100
AcDbEntity
  8
LAY-10
  6
CONTINUOUS
 62
     7
100
AcDbLine
 10
358.8331362747481
 20
190.856406460549
 30
0.0
 11
355.5718853400011
 21
190.856406460549
 31
0.0
  0
LINE
  5
17D
330
1F
100
AcDbEntity
  8
LAY-10
  6
CONTINUOUS
 62
     7
100
AcDbLine
 10
357.7230853029291
 20
189.4670485968145
 30
0.0
 11
355.9441626575866
 21
189.4670485968145
 31
0.0
  0
LINE
  5
17E
330
1F
100
AcDbEntity
  8
LAY-10
  6
CONTINUOUS
 62
     7
100
AcDbLine
 10
255.0000000000102
 20
181.0000000000026
 30
0.0
 11
249.0000000000101
 21
181.0000000000026
 31
0.0
  0
LINE
  5
17F
330
1F
100
AcDbEntity
  8
LAY-10
  6
CONTINUOUS
 62
     7
100
AcDbLine
 10
255.0000000000102
 20
192.5000000000005
 30
0.0
 11
255.0000000000102
 21
181.0000000000026
 31
0.0
  0
LINE
  5
180
330
1F
100
AcDbEntity
  8
LAY-10
  6
CONTINUOUS
 62
     7
100
AcDbLine
 10
249.5000000000104
 20
180.5000000000026
 30
0.0
 11
254.5000000000105
 21
180.5000000000026
 31
0.0
  0
LINE
  5
181
330
1F
100
AcDbEntity
  8
LAY-10
  6
CONTINUOUS
 62
     7
100
AcDbLine
 10
249.0000000000101
 20
192.5000000000005
 30
0.0
 11
249.0000000000101
 21
181.0000000000026
 31
0.0
  0
LINE
  5
182
330
1F
100
AcDbEntity
  8
LAY-10
  6
CONTINUOUS
 62
     7
100
AcDbLine
 10
254.5000000000105
 20
180.5000000000026
 30
0.0
 11
255.0000000000102
 21
181.0000000000026
 31
0.0
  0
LINE
  5
183
330
1F
100
AcDbEntity
  8
LAY-10
  6
CONTINUOUS
 62
     7
100
AcDbLine
 10
249.5000000000104
 20
180.5000000000026
 30
0.0
 11
249.0000000000101
 21
181.0000000000026
 31
0.0
  0
ARC
  5
184
330
1F
100
AcDbEntity
  8
LAY-10
  6
CONTINUOUS
 62
     7
100
AcDbCircle
 10
252.0000000000102
 20
190.2000000000006
 30
0.0
 40
6.300000000000004
100
AcDbArc
 50
95.46502379990818
 51
128.6821874534916
  0
ARC
  5
185
330
1F
100
AcDbEntity
  8
LAY-10
  6
CONTINUOUS
 62
     7
100
AcDbCircle
 10
252.0000000000102
 20
190.2000000000006
 30
0.0
 40
6.300000000000004
100
AcDbArc
 50
51.31781254649596
 51
84.53497620009915
  0
LINE
  5
186
330
1F
100
AcDbEntity
  8
LAY-10
  6
CONTINUOUS
 62
     7
100
AcDbLine
 10
251.4000000000104
 20
196.4713634881005
 30
0.0
 11
251.4000000000104
 21
194.0000000000005
 31
0.0
  0
LINE
  5
187
330
1F
100
AcDbEntity
  8
LAY-10
  6
CONTINUOUS
 62
     7
100
AcDbLine
 10
252.6000000000107
 20
194.0000000000005
 30
0.0
 11
251.4000000000104
 21
194.0000000000005
 31
0.0
  0
LINE
  5
188
330
1F
100
AcDbEntity
  8
LAY-10
  6
CONTINUOUS
 62
     7
100
AcDbLine
 10
252.6000000000107
 20
196.4713634881005
 30
0.0
 11
252.6000000000107
 21
194.0000000000005
 31
0.0
  0
LINE
  5
189
330
1F
100
AcDbEntity
  8
LAY-10
  6
CONTINUOUS
 62
     7
100
AcDbLine
 10
257.2481347569104
 20
192.5000000000005
 30
0.0
 11
246.7518652431102
 21
192.5000000000005
 31
0.0
  0
ARC
  5
18A
330
1F
100
AcDbEntity
  8
LAY-10
  6
CONTINUOUS
 62
     7
100
AcDbCircle
 10
253.7500000000103
 20
192.3857492994002
 30
0.0
 40
3.500000000000003
100
AcDbArc
 50
1.870641730603566
 51
51.31781254649853
  0
ARC
  5
18B
330
1F
100
AcDbEntity
  8
LAY-10
  6
CONTINUOUS
 62
     7
100
AcDbCircle
 10
250.2500000000103
 20
192.3857492994002
 30
0.0
 40
3.500000000000003
100
AcDbArc
 50
128.6821874534942
 51
178.1293582694094
  0
ARC
  5
18C
330
1F
100
AcDbEntity
  8
LAY-10
  6
CONTINUOUS
 62
     7
100
AcDbCircle
 10
246.3860380747388
 20
191.9999999999982
 30
0.0
 40
1.0
100
AcDbArc
 50
5.627534062621104
 51
30.00000000015081
  0
ARC
  5
18D
330
1F
100
AcDbEntity
  8
LAY-10
  6
CONTINUOUS
 62
     7
100
AcDbCircle
 10
246.3860380747388
 20
191.9999999999982
 30
0.0
 40
1.0
100
AcDbArc
 50
66.16145141067388
 51
90.0
  0
LINE
  5
18E
330
1F
100
AcDbEntity
  8
LAY-10
  6
CONTINUOUS
 62
     7
100
AcDbLine
 10
228.500000000014
 20
192.9999999999985
 30
0.0
 11
246.8043221165141
 21
192.9999999999985
 31
0.0
  0
LINE
  5
18F
330
1F
100
AcDbEntity
  8
LAY-10
  6
CONTINUOUS
 62
     7
100
AcDbLine
 10
257.1956778835064
 20
192.9999999999985
 30
0.0
 11
265.0024888178149
 21
192.9999999999985
 31
0.0
  0
LINE
  5
190
330
1F
100
AcDbEntity
  8
LAY-10
  6
CONTINUOUS
 62
     7
100
AcDbLine
 10
248.5467749676867
 20
189.4670485968145
 30
0.0
 11
249.0000000000101
 21
189.4670485968145
 31
0.0
  0
LINE
  5
191
330
1F
100
AcDbEntity
  8
LAY-10
  6
CONTINUOUS
 62
     7
100
AcDbLine
 10
249.5000000000115
 20
177.5000000000003
 30
0.0
 11
249.5000000000115
 21
180.5000000000026
 31
0.0
  0
LINE
  5
192
330
1F
100
AcDbEntity
  8
LAY-10
  6
CONTINUOUS
 62
     7
100
AcDbLine
 10
254.500000000011
 20
177.5000000000003
 30
0.0
 11
254.500000000011
 21
180.5000000000026
 31
0.0
  0
LINE
  5
193
330
1F
100
AcDbEntity
  8
LAY-10
  6
CONTINUOUS
 62
     7
100
AcDbLine
 10
246.9192622342804
 20
184.9999999999982
 30
0.0
 11
249.5000000000104
 21
184.9999999999982
 31
0.0
  0
CIRCLE
  5
194
330
1F
100
AcDbEntity
  8
LAY-10
  6
CONTINUOUS
 62
     7
100
AcDbCircle
 10
310.000000000014
 20
393.999999999998
 30
0.0
 40
82.50000000000011
  0
ARC
  5
195
330
1F
100
AcDbEntity
  8
LAY-10
  6
CONTINUOUS
 62
     7
100
AcDbCircle
 10
310.000000000014
 20
393.999999999998
 30
0.0
 40
63.31484586264244
100
AcDbArc
 50
189.9656468184441
 51
200.0343531815555
  0
ARC
  5
196
330
1F
100
AcDbEntity
  8
LAY-10
  6
CONTINUOUS
 62
     7
100
AcDbCircle
 10
310.000000000014
 20
393.999999999998
 30
0.0
 40
63.31484586264244
100
AcDbArc
 50
129.9656468184442
 51
140.0343531815558
  0
ARC
  5
197
330
1F
100
AcDbEntity
  8
LAY-10
  6
CONTINUOUS
 62
     7
100
AcDbCircle
 10
310.000000000014
 20
393.999999999998
 30
0.0
 40
63.31484586264244
100
AcDbArc
 50
99.96564681844409
 51
110.0343531815557
  0
LINE
  5
198
330
1F
100
AcDbEntity
  8
LAY-10
  6
CONTINUOUS
 62
     7
100
AcDbLine
 10
247.2052591607586
 20
399.9999999999984
 30
0.0
 11
247.7053032102746
 21
400.4999999999981
 31
0.0
  0
LINE
  5
199
330
1F
100
AcDbEntity
  8
LAY-10
  6
CONTINUOUS
 62
     7
100
AcDbLine
 10
247.2052591607586
 20
387.999999999998
 30
0.0
 11
247.7053032102746
 21
387.4999999999981
 31
0.0
  0
ARC
  5
19A
330
1F
100
AcDbEntity
  8
LAY-10
  6
CONTINUOUS
 62
     7
100
AcDbCircle
 10
310.000000000014
 20
393.999999999998
 30
0.0
 40
62.63289270124426
100
AcDbArc
 50
94.12009305680789
 51
174.0431565669776
  0
LINE
  5
19B
330
1F
100
AcDbEntity
  8
LAY-10
  6
CONTINUOUS
 62
     7
100
AcDbLine
 10
269.3310895166511
 20
442.5263786687839
 30
0.0
 11
266.0633240997762
 21
446.5530066774188
 31
0.0
  0
LINE
  5
19C
330
1F
100
AcDbEntity
  8
LAY-10
  6
CONTINUOUS
 62
     7
100
AcDbLine
 10
267.465346378144
 20
446.4123386357357
 30
0.0
 11
266.0633240997762
 21
446.5530066774188
 31
0.0
  0
LINE
  5
19D
330
1F
100
AcDbEntity
  8
LAY-10
  6
CONTINUOUS
 62
     7
100
AcDbLine
 10
269.3310895166511
 20
442.5263786687839
 30
0.0
 11
269.9859184446249
 21
443.3064222721367
 31
0.0
  0
LINE
  5
19E
330
1F
100
AcDbEntity
  8
LAY-10
  6
CONTINUOUS
 62
     7
100
AcDbLine
 10
268.1002275800582
 20
445.6300210260987
 30
0.0
 11
269.3606605511679
 21
444.0768817835239
 31
0.0
  0
LINE
  5
19F
330
1F
100
AcDbEntity
  8
LAY-10
  6
CONTINUOUS
 62
     7
100
AcDbLine
 10
288.3093785608637
 20
453.4834989572186
 30
0.0
 11
286.4560991222335
 21
458.3267808261577
 31
0.0
  0
LINE
  5
1A0
330
1F
100
AcDbEntity
  8
LAY-10
  6
CONTINUOUS
 62
     7
100
AcDbLine
 10
285.8769100806477
 20
457.0422598955783
 30
0.0
 11
286.4560991222335
 21
458.3267808261577
 31
0.0
  0
LINE
  5
1A1
330
1F
100
AcDbEntity
  8
LAY-10
  6
CONTINUOUS
 62
     7
100
AcDbLine
 10
288.3093785608637
 20
453.4834989572186
 30
0.0
 11
287.3064265203137
 21
453.3064222721368
 31
0.0
  0
LINE
  5
1A2
330
1F
100
AcDbEntity
  8
LAY-10
  6
CONTINUOUS
 62
     7
100
AcDbLine
 10
286.236976403464
 20
456.1012778415167
 30
0.0
 11
286.9518179575934
 21
454.2331412474811
 31
0.0
  0
ARC
  5
1A3
330
1F
100
AcDbEntity
  8
LAY-10
  6
CONTINUOUS
 62
     7
100
AcDbCircle
 10
310.0000000000143
 20
393.9999999999984
 30
0.0
 40
63.49999999999826
100
AcDbArc
 50
111.8276674188339
 51
128.1723325811668
  0
ARC
  5
1A4
330
1F
100
AcDbEntity
  8
LAY-10
  6
CONTINUOUS
 62
     7
100
AcDbCircle
 10
310.0000000000143
 20
393.9999999999984
 30
0.0
 40
67.49999999999773
100
AcDbArc
 50
111.8009483132764
 51
128.1990516867243
  0
ARC
  5
1A5
330
1F
100
AcDbEntity
  8
LAY-10
  6
CONTINUOUS
 62
     7
100
AcDbCircle
 10
310.0000000000143
 20
393.9999999999984
 30
0.0
 40
68.49999999999676
100
AcDbArc
 50
110.102860718733
 51
129.897139281268
  0
LINE
  5
1A6
330
1F
100
AcDbEntity
  8
LAY-10
  6
CONTINUOUS
 62
     7
100
AcDbLine
 10
250.5165010427936
 20
415.6906214391484
 30
0.0
 11
245.6732191738544
 21
417.5439008777784
 31
0.0
  0
LINE
  5
1A7
330
1F
100
AcDbEntity
  8
LAY-10
  6
CONTINUOUS
 62
     7
100
AcDbLine
 10
246.957740104434
 20
418.1230899193644
 30
0.0
 11
245.6732191738544
 21
417.5439008777784
 31
0.0
  0
LINE
  5
1A8
330
1F
100
AcDbEntity
  8
LAY-10
  6
CONTINUOUS
 62
     7
100
AcDbLine
 10
250.5165010427936
 20
415.6906214391484
 30
0.0
 11
250.6935777278754
 21
416.6935734796983
 31
0.0
  0
LINE
  5
1A9
330
1F
100
AcDbEntity
  8
LAY-10
  6
CONTINUOUS
 62
     7
100
AcDbLine
 10
247.8987221584954
 20
417.7630235965481
 30
0.0
 11
249.7668587525313
 21
417.0481820424188
 31
0.0
  0
LINE
  5
1AA
330
1F
100
AcDbEntity
  8
LAY-10
  6
CONTINUOUS
 62
     7
100
AcDbLine
 10
261.4736213312282
 20
434.668910483361
 30
0.0
 11
257.4469933225935
 21
437.9366759002359
 31
0.0
  0
LINE
  5
1AB
330
1F
100
AcDbEntity
  8
LAY-10
  6
CONTINUOUS
 62
     7
100
AcDbLine
 10
257.5876613642765
 20
436.534653621868
 30
0.0
 11
257.4469933225935
 21
437.9366759002359
 31
0.0
  0
LINE
  5
1AC
330
1F
100
AcDbEntity
  8
LAY-10
  6
CONTINUOUS
 62
     7
100
AcDbLine
 10
261.4736213312282
 20
434.668910483361
 30
0.0
 11
260.6935777278754
 21
434.0140815553871
 31
0.0
  0
LINE
  5
1AD
330
1F
100
AcDbEntity
  8
LAY-10
  6
CONTINUOUS
 62
     7
100
AcDbLine
 10
258.3699789739132
 20
435.8997724199539
 30
0.0
 11
259.9231182164881
 21
434.6393394488441
 31
0.0
  0
ARC
  5
1AE
330
1F
100
AcDbEntity
  8
LAY-10
  6
CONTINUOUS
 62
     7
100
AcDbCircle
 10
310.0000000000143
 20
393.9999999999984
 30
0.0
 40
63.49999999999826
100
AcDbArc
 50
141.8276674188339
 51
158.1723325811672
  0
ARC
  5
1AF
330
1F
100
AcDbEntity
  8
LAY-10
  6
CONTINUOUS
 62
     7
100
AcDbCircle
 10
310.0000000000143
 20
393.9999999999984
 30
0.0
 40
67.49999999999773
100
AcDbArc
 50
141.8009483132765
 51
158.1990516867244
  0
ARC
  5
1B0
330
1F
100
AcDbEntity
  8
LAY-10
  6
CONTINUOUS
 62
     7
100
AcDbCircle
 10
310.0000000000143
 20
393.9999999999984
 30
0.0
 40
68.49999999999676
100
AcDbArc
 50
140.1028607187331
 51
159.8971392812676
  0
ARC
  5
1B1
330
1F
100
AcDbEntity
  8
LAY-10
  6
CONTINUOUS
 62
     7
100
AcDbCircle
 10
310.000000000014
 20
393.999999999998
 30
0.0
 40
63.31484586264244
100
AcDbArc
 50
159.9656468184444
 51
170.0343531815559
  0
LINE
  5
1B2
330
1F
100
AcDbEntity
  8
LAY-10
  6
CONTINUOUS
 62
     7
100
AcDbLine
 10
247.6404680775008
 20
383.0428797115634
 30
0.0
 11
242.5194232219957
 21
382.2262258512589
 31
0.0
  0
LINE
  5
1B3
330
1F
100
AcDbEntity
  8
LAY-10
  6
CONTINUOUS
 62
     7
100
AcDbLine
 10
243.3422564587776
 20
383.3700787401555
 30
0.0
 11
242.5194232219957
 21
382.2262258512589
 31
0.0
  0
LINE
  5
1B4
330
1F
100
AcDbEntity
  8
LAY-10
  6
CONTINUOUS
 62
     7
100
AcDbLine
 10
247.6404680775007
 20
383.0428797115634
 30
0.0
 11
247.2923449649246
 21
383.9999999999979
 31
0.0
  0
LINE
  5
1B5
330
1F
100
AcDbEntity
  8
LAY-10
  6
CONTINUOUS
 62
     7
100
AcDbLine
 10
244.3372039835082
 20
383.52874318458
 30
0.0
 11
246.3124785087474
 21
383.8437405360411
 31
0.0
  0
LINE
  5
1B6
330
1F
100
AcDbEntity
  8
LAY-10
  6
CONTINUOUS
 62
     7
100
AcDbLine
 10
247.6404680775008
 20
404.9571202884328
 30
0.0
 11
242.5194232219957
 21
405.7737741487373
 31
0.0
  0
LINE
  5
1B7
330
1F
100
AcDbEntity
  8
LAY-10
  6
CONTINUOUS
 62
     7
100
AcDbLine
 10
243.3422564587776
 20
404.6299212598405
 30
0.0
 11
242.5194232219957
 21
405.7737741487373
 31
0.0
  0
LINE
  5
1B8
330
1F
100
AcDbEntity
  8
LAY-10
  6
CONTINUOUS
 62
     7
100
AcDbLine
 10
247.6404680775007
 20
404.9571202884326
 30
0.0
 11
247.2923449649246
 21
403.9999999999981
 31
0.0
  0
LINE
  5
1B9
330
1F
100
AcDbEntity
  8
LAY-10
  6
CONTINUOUS
 62
     7
100
AcDbLine
 10
244.3372039835082
 20
404.471256815416
 30
0.0
 11
246.3124785087473
 21
404.1562594639551
 31
0.0
  0
ARC
  5
1BA
330
1F
100
AcDbEntity
  8
LAY-10
  6
CONTINUOUS
 62
     7
100
AcDbCircle
 10
310.0000000000141
 20
393.9999999999984
 30
0.0
 40
63.49999999999826
100
AcDbArc
 50
171.8276674188338
 51
188.1723325811668
  0
ARC
  5
1BB
330
1F
100
AcDbEntity
  8
LAY-10
  6
CONTINUOUS
 62
     7
100
AcDbCircle
 10
310.0000000000141
 20
393.9999999999984
 30
0.0
 40
67.49999999999773
100
AcDbArc
 50
171.8009483132764
 51
188.199051686724
  0
ARC
  5
1BC
330
1F
100
AcDbEntity
  8
LAY-10
  6
CONTINUOUS
 62
     7
100
AcDbCircle
 10
310.0000000000141
 20
393.9999999999984
 30
0.0
 40
68.49999999999676
100
AcDbArc
 50
170.1028607187329
 51
189.8971392812677
  0
LINE
  5
1BD
330
1F
100
AcDbEntity
  8
LAY-10
  6
CONTINUOUS
 62
     7
100
AcDbLine
 10
269.3310895166511
 20
345.4736213312123
 30
0.0
 11
266.0633240997762
 21
341.4469933225775
 31
0.0
  0
LINE
  5
1BE
330
1F
100
AcDbEntity
  8
LAY-10
  6
CONTINUOUS
 62
     7
100
AcDbLine
 10
267.465346378144
 20
341.5876613642606
 30
0.0
 11
266.0633240997762
 21
341.4469933225775
 31
0.0
  0
LINE
  5
1BF
330
1F
100
AcDbEntity
  8
LAY-10
  6
CONTINUOUS
 62
     7
100
AcDbLine
 10
269.3310895166511
 20
345.4736213312123
 30
0.0
 11
269.9859184446249
 21
344.6935777278593
 31
0.0
  0
LINE
  5
1C0
330
1F
100
AcDbEntity
  8
LAY-10
  6
CONTINUOUS
 62
     7
100
AcDbLine
 10
268.1002275800582
 20
342.3699789738973
 30
0.0
 11
269.3606605511679
 21
343.9231182164723
 31
0.0
  0
LINE
  5
1C1
330
1F
100
AcDbEntity
  8
LAY-10
  6
CONTINUOUS
 62
     7
100
AcDbLine
 10
288.3093785608637
 20
334.5165010427776
 30
0.0
 11
286.4560991222335
 21
329.6732191738385
 31
0.0
  0
LINE
  5
1C2
330
1F
100
AcDbEntity
  8
LAY-10
  6
CONTINUOUS
 62
     7
100
AcDbLine
 10
285.8769100806477
 20
330.957740104418
 30
0.0
 11
286.4560991222335
 21
329.6732191738385
 31
0.0
  0
LINE
  5
1C3
330
1F
100
AcDbEntity
  8
LAY-10
  6
CONTINUOUS
 62
     7
100
AcDbLine
 10
288.3093785608636
 20
334.5165010427776
 30
0.0
 11
287.3064265203137
 21
334.6935777278595
 31
0.0
  0
LINE
  5
1C4
330
1F
100
AcDbEntity
  8
LAY-10
  6
CONTINUOUS
 62
     7
100
AcDbLine
 10
286.236976403464
 20
331.8987221584793
 30
0.0
 11
286.9518179575934
 21
333.7668587525151
 31
0.0
  0
ARC
  5
1C5
330
1F
100
AcDbEntity
  8
LAY-10
  6
CONTINUOUS
 62
     7
100
AcDbCircle
 10
310.0000000000143
 20
393.9999999999979
 30
0.0
 40
63.49999999999826
100
AcDbArc
 50
231.8276674188332
 51
248.1723325811666
  0
ARC
  5
1C6
330
1F
100
AcDbEntity
  8
LAY-10
  6
CONTINUOUS
 62
     7
100
AcDbCircle
 10
310.0000000000143
 20
393.9999999999979
 30
0.0
 40
67.49999999999773
100
AcDbArc
 50
231.8009483132761
 51
248.1990516867237
  0
ARC
  5
1C7
330
1F
100
AcDbEntity
  8
LAY-10
  6
CONTINUOUS
 62
     7
100
AcDbCircle
 10
310.0000000000143
 20
393.9999999999979
 30
0.0
 40
68.49999999999676
100
AcDbArc
 50
230.1028607187327
 51
249.8971392812672
  0
LINE
  5
1C8
330
1F
100
AcDbEntity
  8
LAY-10
  6
CONTINUOUS
 62
     7
100
AcDbLine
 10
250.5165010427936
 20
372.3093785608476
 30
0.0
 11
245.6732191738544
 21
370.4560991222176
 31
0.0
  0
LINE
  5
1C9
330
1F
100
AcDbEntity
  8
LAY-10
  6
CONTINUOUS
 62
     7
100
AcDbLine
 10
246.957740104434
 20
369.8769100806316
 30
0.0
 11
245.6732191738544
 21
370.4560991222176
 31
0.0
  0
LINE
  5
1CA
330
1F
100
AcDbEntity
  8
LAY-10
  6
CONTINUOUS
 62
     7
100
AcDbLine
 10
250.5165010427936
 20
372.3093785608476
 30
0.0
 11
250.6935777278754
 21
371.3064265202977
 31
0.0
  0
LINE
  5
1CB
330
1F
100
AcDbEntity
  8
LAY-10
  6
CONTINUOUS
 62
     7
100
AcDbLine
 10
247.8987221584954
 20
370.236976403448
 30
0.0
 11
249.7668587525313
 21
370.9518179575775
 31
0.0
  0
LINE
  5
1CC
330
1F
100
AcDbEntity
  8
LAY-10
  6
CONTINUOUS
 62
     7
100
AcDbLine
 10
261.4736213312282
 20
353.3310895166352
 30
0.0
 11
257.4469933225935
 21
350.0633240997603
 31
0.0
  0
LINE
  5
1CD
330
1F
100
AcDbEntity
  8
LAY-10
  6
CONTINUOUS
 62
     7
100
AcDbLine
 10
257.5876613642765
 20
351.465346378128
 30
0.0
 11
257.4469933225935
 21
350.0633240997603
 31
0.0
  0
LINE
  5
1CE
330
1F
100
AcDbEntity
  8
LAY-10
  6
CONTINUOUS
 62
     7
100
AcDbLine
 10
261.4736213312282
 20
353.3310895166352
 30
0.0
 11
260.6935777278754
 21
353.9859184446089
 31
0.0
  0
LINE
  5
1CF
330
1F
100
AcDbEntity
  8
LAY-10
  6
CONTINUOUS
 62
     7
100
AcDbLine
 10
258.3699789739132
 20
352.1002275800424
 30
0.0
 11
259.9231182164881
 21
353.360660551152
 31
0.0
  0
ARC
  5
1D0
330
1F
100
AcDbEntity
  8
LAY-10
  6
CONTINUOUS
 62
     7
100
AcDbCircle
 10
310.0000000000143
 20
393.9999999999977
 30
0.0
 40
63.49999999999826
100
AcDbArc
 50
201.827667418833
 51
218.1723325811662
  0
ARC
  5
1D1
330
1F
100
AcDbEntity
  8
LAY-10
  6
CONTINUOUS
 62
     7
100
AcDbCircle
 10
310.0000000000143
 20
393.9999999999977
 30
0.0
 40
67.49999999999773
100
AcDbArc
 50
201.8009483132758
 51
218.1990516867236
  0
ARC
  5
1D2
330
1F
100
AcDbEntity
  8
LAY-10
  6
CONTINUOUS
 62
     7
100
AcDbCircle
 10
310.0000000000143
 20
393.9999999999977
 30
0.0
 40
68.49999999999676
100
AcDbArc
 50
200.1028607187323
 51
219.8971392812673
  0
ARC
  5
1D3
330
1F
100
AcDbEntity
  8
LAY-10
  6
CONTINUOUS
 62
     7
100
AcDbCircle
 10
310.000000000014
 20
393.999999999998
 30
0.0
 40
63.31484586264244
100
AcDbArc
 50
219.9656468184442
 51
230.0343531815558
  0
ARC
  5
1D4
330
1F
100
AcDbEntity
  8
LAY-10
  6
CONTINUOUS
 62
     7
100
AcDbCircle
 10
268.8767066709581
 20
446.2601640427191
 30
0.0
 40
1.0
100
AcDbArc
 50
128.1990516867282
 51
219.0606748312042
  0
ARC
  5
1D5
330
1F
100
AcDbEntity
  8
LAY-10
  6
CONTINUOUS
 62
     7
100
AcDbCircle
 10
270.1371396420677
 20
444.7070248001443
 30
0.0
 40
1.0
100
AcDbArc
 50
219.0606748312133
 51
308.1723325811643
  0
ARC
  5
1D6
330
1F
100
AcDbEntity
  8
LAY-10
  6
CONTINUOUS
 62
     7
100
AcDbCircle
 10
285.3030169976035
 20
455.7438987316003
 30
0.0
 40
1.0
100
AcDbArc
 50
20.9393251687899
 51
111.8009483132791
  0
ARC
  5
1D7
330
1F
100
AcDbEntity
  8
LAY-10
  6
CONTINUOUS
 62
     7
100
AcDbCircle
 10
286.017858551733
 20
453.8757621375643
 30
0.0
 40
1.0
100
AcDbArc
 50
291.8276674188453
 51
20.93932516881046
  0
ARC
  5
1D8
330
1F
100
AcDbEntity
  8
LAY-10
  6
CONTINUOUS
 62
     7
100
AcDbCircle
 10
257.7398359572929
 20
435.1232933290541
 30
0.0
 40
1.0
100
AcDbArc
 50
50.93932516879134
 51
141.800948313272
  0
ARC
  5
1D9
330
1F
100
AcDbEntity
  8
LAY-10
  6
CONTINUOUS
 62
     7
100
AcDbCircle
 10
259.2929751998677
 20
433.8628603579443
 30
0.0
 40
1.0
100
AcDbArc
 50
321.8276674188384
 51
50.93932516879134
  0
ARC
  5
1DA
330
1F
100
AcDbEntity
  8
LAY-10
  6
CONTINUOUS
 62
     7
100
AcDbCircle
 10
248.256101268412
 20
418.6969830024084
 30
0.0
 40
1.0
100
AcDbArc
 50
158.1990516867216
 51
249.0606748311968
  0
ARC
  5
1DB
330
1F
100
AcDbEntity
  8
LAY-10
  6
CONTINUOUS
 62
     7
100
AcDbCircle
 10
250.1242378624479
 20
417.9821414482792
 30
0.0
 40
1.0
100
AcDbArc
 50
249.0606748311968
 51
338.172332581159
  0
ARC
  5
1DC
330
1F
100
AcDbEntity
  8
LAY-10
  6
CONTINUOUS
 62
     7
100
AcDbCircle
 10
244.1797236685476
 20
403.4837346888792
 30
0.0
 40
1.0
100
AcDbArc
 50
80.93932516879788
 51
171.8009483132802
  0
ARC
  5
1DD
330
1F
100
AcDbEntity
  8
LAY-10
  6
CONTINUOUS
 62
     7
100
AcDbCircle
 10
246.1549981937866
 20
403.168737337418
 30
0.0
 40
1.0
100
AcDbArc
 50
351.8276674188349
 51
80.93932516879461
  0
ARC
  5
1DE
330
1F
100
AcDbEntity
  8
LAY-10
  6
CONTINUOUS
 62
     7
100
AcDbCircle
 10
244.1797236685476
 20
384.5162653111168
 30
0.0
 40
1.0
100
AcDbArc
 50
188.1990516867066
 51
279.0606748312055
  0
ARC
  5
1DF
330
1F
100
AcDbEntity
  8
LAY-10
  6
CONTINUOUS
 62
     7
100
AcDbCircle
 10
246.1549981937868
 20
384.831262662578
 30
0.0
 40
1.0
100
AcDbArc
 50
279.0606748311992
 51
8.172332581165001
  0
ARC
  5
1E0
330
1F
100
AcDbEntity
  8
LAY-10
  6
CONTINUOUS
 62
     7
100
AcDbCircle
 10
248.256101268412
 20
369.3030169975876
 30
0.0
 40
1.0
100
AcDbArc
 50
110.9393251688002
 51
201.8009483132785
  0
ARC
  5
1E1
330
1F
100
AcDbEntity
  8
LAY-10
  6
CONTINUOUS
 62
     7
100
AcDbCircle
 10
250.1242378624479
 20
370.0178585517171
 30
0.0
 40
1.0
100
AcDbArc
 50
21.82766741884102
 51
110.9393251688032
  0
ARC
  5
1E2
330
1F
100
AcDbEntity
  8
LAY-10
  6
CONTINUOUS
 62
     7
100
AcDbCircle
 10
257.7398359572929
 20
352.8767066709422
 30
0.0
 40
1.0
100
AcDbArc
 50
218.1990516867282
 51
309.0606748312087
  0
ARC
  5
1E3
330
1F
100
AcDbEntity
  8
LAY-10
  6
CONTINUOUS
 62
     7
100
AcDbCircle
 10
259.2929751998677
 20
354.1371396420517
 30
0.0
 40
1.0
100
AcDbArc
 50
309.0606748312087
 51
38.17233258116175
  0
ARC
  5
1E4
330
1F
100
AcDbEntity
  8
LAY-10
  6
CONTINUOUS
 62
     7
100
AcDbCircle
 10
268.8767066709581
 20
341.739835957277
 30
0.0
 40
1.0
100
AcDbArc
 50
140.9393251687959
 51
231.8009483132744
  0
ARC
  5
1E5
330
1F
100
AcDbEntity
  8
LAY-10
  6
CONTINUOUS
 62
     7
100
AcDbCircle
 10
270.1371396420677
 20
343.2929751998519
 30
0.0
 40
1.0
100
AcDbArc
 50
51.82766741882912
 51
140.9393251687868
  0
ARC
  5
1E6
330
1F
100
AcDbEntity
  8
LAY-10
  6
CONTINUOUS
 62
     7
100
AcDbCircle
 10
285.3030169976035
 20
332.2561012683958
 30
0.0
 40
1.0
100
AcDbArc
 50
248.199051686721
 51
339.0606748312102
  0
ARC
  5
1E7
330
1F
100
AcDbEntity
  8
LAY-10
  6
CONTINUOUS
 62
     7
100
AcDbCircle
 10
286.017858551733
 20
334.1242378624317
 30
0.0
 40
1.0
100
AcDbArc
 50
339.0606748312042
 51
68.17233258116629
  0
CIRCLE
  5
1E8
330
1F
100
AcDbEntity
  8
LAY-10
  6
CONTINUOUS
 62
     7
100
AcDbCircle
 10
310.000000000014
 20
393.999999999998
 30
0.0
 40
76.4999999999983
  0
CIRCLE
  5
1E9
330
1F
100
AcDbEntity
  8
LAY-10
  6
CONTINUOUS
 62
     7
100
AcDbCircle
 10
310.000000000014
 20
393.999999999998
 30
0.0
 40
81.50000000000011
  0
ARC
  5
1EA
330
1F
100
AcDbEntity
  8
LAY-10
  6
CONTINUOUS
 62
     7
100
AcDbCircle
 10
310.0000000000058
 20
393.999999999998
 30
0.0
 40
63.31484586264244
100
AcDbArc
 50
339.9656468184448
 51
350.0343531815561
  0
ARC
  5
1EB
330
1F
100
AcDbEntity
  8
LAY-10
  6
CONTINUOUS
 62
     7
100
AcDbCircle
 10
310.0000000000055
 20
393.999999999998
 30
0.0
 40
68.49999999999676
100
AcDbArc
 50
80.10286071873247
 51
99.89713928126713
  0
ARC
  5
1EC
330
1F
100
AcDbEntity
  8
LAY-10
  6
CONTINUOUS
 62
     7
100
AcDbCircle
 10
310.0000000000055
 20
393.999999999998
 30
0.0
 40
63.49999999999826
100
AcDbArc
 50
81.82766741883309
 51
98.1723325811664
  0
ARC
  5
1ED
330
1F
100
AcDbEntity
  8
LAY-10
  6
CONTINUOUS
 62
     7
100
AcDbCircle
 10
310.0000000000058
 20
393.999999999998
 30
0.0
 40
63.31484586264244
100
AcDbArc
 50
39.96564681844422
 51
50.03435318155586
  0
ARC
  5
1EE
330
1F
100
AcDbEntity
  8
LAY-10
  6
CONTINUOUS
 62
     7
100
AcDbCircle
 10
310.0000000000058
 20
393.999999999998
 30
0.0
 40
63.31484586264244
100
AcDbArc
 50
69.96564681844434
 51
80.03435318155599
  0
ARC
  5
1EF
330
1F
100
AcDbEntity
  8
LAY-10
  6
CONTINUOUS
 62
     7
100
AcDbCircle
 10
310.0000000000058
 20
393.9999999999979
 30
0.0
 40
63.08073776573372
100
AcDbArc
 50
354.5419921960449
 51
5.458007803956265
  0
LINE
  5
1F0
330
1F
100
AcDbEntity
  8
LAY-10
  6
CONTINUOUS
 62
     7
100
AcDbLine
 10
372.7947408392613
 20
399.9999999999984
 30
0.0
 11
372.2946967897453
 21
400.4999999999981
 31
0.0
  0
LINE
  5
1F1
330
1F
100
AcDbEntity
  8
LAY-10
  6
CONTINUOUS
 62
     7
100
AcDbLine
 10
372.7947408392613
 20
387.999999999998
 30
0.0
 11
372.2946967897453
 21
387.4999999999981
 31
0.0
  0
ARC
  5
1F2
330
1F
100
AcDbEntity
  8
LAY-10
  6
CONTINUOUS
 62
     7
100
AcDbCircle
 10
310.0000000000058
 20
393.999999999998
 30
0.0
 40
63.08073776573372
100
AcDbArc
 50
86.36438962289456
 51
93.63561037710537
  0
LINE
  5
1F3
330
1F
100
AcDbEntity
  8
LAY-10
  6
CONTINUOUS
 62
     7
100
AcDbLine
 10
305.500000000006
 20
456.4710272696499
 30
0.0
 11
306.0000000000058
 21
456.9537884250744
 31
0.0
  0
LINE
  5
1F4
330
1F
100
AcDbEntity
  8
LAY-10
  6
CONTINUOUS
 62
     7
100
AcDbLine
 10
314.5000000000056
 20
456.4710272696499
 30
0.0
 11
314.0000000000058
 21
456.9537884250744
 31
0.0
  0
ARC
  5
1F5
330
1F
100
AcDbEntity
  8
LAY-10
  6
CONTINUOUS
 62
     7
100
AcDbCircle
 10
310.0000000000058
 20
393.999999999998
 30
0.0
 40
62.63289270124426
100
AcDbArc
 50
5.956843433022446
 51
85.8799069431924
  0
LINE
  5
1F6
330
1F
100
AcDbEntity
  8
LAY-10
  6
CONTINUOUS
 62
     7
100
AcDbLine
 10
320.4712568154238
 20
459.6627960165039
 30
0.0
 11
320.1562594639627
 21
457.6875214912647
 31
0.0
  0
LINE
  5
1F7
330
1F
100
AcDbEntity
  8
LAY-10
  6
CONTINUOUS
 62
     7
100
AcDbLine
 10
320.9571202884405
 20
456.3595319225114
 30
0.0
 11
321.773774148745
 21
461.4805767780163
 31
0.0
  0
LINE
  5
1F8
330
1F
100
AcDbEntity
  8
LAY-10
  6
CONTINUOUS
 62
     7
100
AcDbLine
 10
320.6299212598483
 20
460.6577435412344
 30
0.0
 11
321.773774148745
 21
461.4805767780163
 31
0.0
  0
LINE
  5
1F9
330
1F
100
AcDbEntity
  8
LAY-10
  6
CONTINUOUS
 62
     7
100
AcDbLine
 10
320.9571202884405
 20
456.3595319225114
 30
0.0
 11
320.0000000000059
 21
456.7076550350874
 31
0.0
  0
LINE
  5
1FA
330
1F
100
AcDbEntity
  8
LAY-10
  6
CONTINUOUS
 62
     7
100
AcDbLine
 10
299.0428797115711
 20
456.3595319225114
 30
0.0
 11
298.2262258512666
 21
461.4805767780163
 31
0.0
  0
LINE
  5
1FB
330
1F
100
AcDbEntity
  8
LAY-10
  6
CONTINUOUS
 62
     7
100
AcDbLine
 10
299.3700787401633
 20
460.6577435412344
 30
0.0
 11
298.2262258512666
 21
461.4805767780163
 31
0.0
  0
LINE
  5
1FC
330
1F
100
AcDbEntity
  8
LAY-10
  6
CONTINUOUS
 62
     7
100
AcDbLine
 10
299.0428797115712
 20
456.3595319225114
 30
0.0
 11
300.0000000000058
 21
456.7076550350874
 31
0.0
  0
LINE
  5
1FD
330
1F
100
AcDbEntity
  8
LAY-10
  6
CONTINUOUS
 62
     7
100
AcDbLine
 10
299.5287431845878
 20
459.6627960165039
 30
0.0
 11
299.8437405360489
 21
457.6875214912648
 31
0.0
  0
ARC
  5
1FE
330
1F
100
AcDbEntity
  8
LAY-10
  6
CONTINUOUS
 62
     7
100
AcDbCircle
 10
310.0000000000055
 20
393.999999999998
 30
0.0
 40
67.49999999999773
100
AcDbArc
 50
81.80094831327584
 51
98.19905168672356
  0
LINE
  5
1FF
330
1F
100
AcDbEntity
  8
LAY-10
  6
CONTINUOUS
 62
     7
100
AcDbLine
 10
350.6689104833688
 20
442.5263786687839
 30
0.0
 11
353.9366759002436
 21
446.5530066774188
 31
0.0
  0
LINE
  5
200
330
1F
100
AcDbEntity
  8
LAY-10
  6
CONTINUOUS
 62
     7
100
AcDbLine
 10
352.5346536218758
 20
446.4123386357357
 30
0.0
 11
353.9366759002436
 21
446.5530066774188
 31
0.0
  0
LINE
  5
201
330
1F
100
AcDbEntity
  8
LAY-10
  6
CONTINUOUS
 62
     7
100
AcDbLine
 10
350.6689104833688
 20
442.5263786687839
 30
0.0
 11
350.0140815553949
 21
443.3064222721367
 31
0.0
  0
LINE
  5
202
330
1F
100
AcDbEntity
  8
LAY-10
  6
CONTINUOUS
 62
     7
100
AcDbLine
 10
351.8997724199617
 20
445.6300210260987
 30
0.0
 11
350.6393394488518
 21
444.0768817835239
 31
0.0
  0
LINE
  5
203
330
1F
100
AcDbEntity
  8
LAY-10
  6
CONTINUOUS
 62
     7
100
AcDbLine
 10
331.6906214391561
 20
453.4834989572186
 30
0.0
 11
333.5439008777863
 21
458.3267808261577
 31
0.0
  0
LINE
  5
204
330
1F
100
AcDbEntity
  8
LAY-10
  6
CONTINUOUS
 62
     7
100
AcDbLine
 10
334.1230899193721
 20
457.0422598955783
 30
0.0
 11
333.5439008777863
 21
458.3267808261577
 31
0.0
  0
LINE
  5
205
330
1F
100
AcDbEntity
  8
LAY-10
  6
CONTINUOUS
 62
     7
100
AcDbLine
 10
331.6906214391562
 20
453.4834989572186
 30
0.0
 11
332.6935734797061
 21
453.3064222721368
 31
0.0
  0
LINE
  5
206
330
1F
100
AcDbEntity
  8
LAY-10
  6
CONTINUOUS
 62
     7
100
AcDbLine
 10
333.7630235965559
 20
456.1012778415167
 30
0.0
 11
333.0481820424264
 21
454.2331412474811
 31
0.0
  0
ARC
  5
207
330
1F
100
AcDbEntity
  8
LAY-10
  6
CONTINUOUS
 62
     7
100
AcDbCircle
 10
310.0000000000055
 20
393.9999999999984
 30
0.0
 40
63.49999999999826
100
AcDbArc
 50
51.82766741883319
 51
68.17233258116612
  0
ARC
  5
208
330
1F
100
AcDbEntity
  8
LAY-10
  6
CONTINUOUS
 62
     7
100
AcDbCircle
 10
310.0000000000055
 20
393.9999999999984
 30
0.0
 40
67.49999999999773
100
AcDbArc
 50
51.80094831327553
 51
68.19905168672355
  0
ARC
  5
209
330
1F
100
AcDbEntity
  8
LAY-10
  6
CONTINUOUS
 62
     7
100
AcDbCircle
 10
310.0000000000055
 20
393.9999999999984
 30
0.0
 40
68.49999999999676
100
AcDbArc
 50
50.10286071873207
 51
69.89713928126694
  0
LINE
  5
20A
330
1F
100
AcDbEntity
  8
LAY-10
  6
CONTINUOUS
 62
     7
100
AcDbLine
 10
369.4834989572263
 20
415.6906214391484
 30
0.0
 11
374.3267808261655
 21
417.5439008777784
 31
0.0
  0
LINE
  5
20B
330
1F
100
AcDbEntity
  8
LAY-10
  6
CONTINUOUS
 62
     7
100
AcDbLine
 10
373.0422598955859
 20
418.1230899193644
 30
0.0
 11
374.3267808261655
 21
417.5439008777784
 31
0.0
  0
LINE
  5
20C
330
1F
100
AcDbEntity
  8
LAY-10
  6
CONTINUOUS
 62
     7
100
AcDbLine
 10
369.4834989572263
 20
415.6906214391484
 30
0.0
 11
369.3064222721445
 21
416.6935734796983
 31
0.0
  0
LINE
  5
20D
330
1F
100
AcDbEntity
  8
LAY-10
  6
CONTINUOUS
 62
     7
100
AcDbLine
 10
372.1012778415244
 20
417.7630235965481
 30
0.0
 11
370.2331412474885
 21
417.0481820424188
 31
0.0
  0
LINE
  5
20E
330
1F
100
AcDbEntity
  8
LAY-10
  6
CONTINUOUS
 62
     7
100
AcDbLine
 10
358.5263786687916
 20
434.668910483361
 30
0.0
 11
362.5530066774263
 21
437.9366759002359
 31
0.0
  0
LINE
  5
20F
330
1F
100
AcDbEntity
  8
LAY-10
  6
CONTINUOUS
 62
     7
100
AcDbLine
 10
362.4123386357434
 20
436.534653621868
 30
0.0
 11
362.5530066774263
 21
437.9366759002359
 31
0.0
  0
LINE
  5
210
330
1F
100
AcDbEntity
  8
LAY-10
  6
CONTINUOUS
 62
     7
100
AcDbLine
 10
358.5263786687917
 20
434.668910483361
 30
0.0
 11
359.3064222721444
 21
434.0140815553871
 31
0.0
  0
LINE
  5
211
330
1F
100
AcDbEntity
  8
LAY-10
  6
CONTINUOUS
 62
     7
100
AcDbLine
 10
361.6300210261065
 20
435.8997724199539
 30
0.0
 11
360.0768817835317
 21
434.6393394488441
 31
0.0
  0
ARC
  5
212
330
1F
100
AcDbEntity
  8
LAY-10
  6
CONTINUOUS
 62
     7
100
AcDbCircle
 10
310.0000000000057
 20
393.9999999999984
 30
0.0
 40
63.49999999999826
100
AcDbArc
 50
21.827667418833
 51
38.17233258116627
  0
ARC
  5
213
330
1F
100
AcDbEntity
  8
LAY-10
  6
CONTINUOUS
 62
     7
100
AcDbCircle
 10
310.0000000000057
 20
393.9999999999984
 30
0.0
 40
67.49999999999773
100
AcDbArc
 50
21.80094831327575
 51
38.1990516867237
  0
ARC
  5
214
330
1F
100
AcDbEntity
  8
LAY-10
  6
CONTINUOUS
 62
     7
100
AcDbCircle
 10
310.0000000000057
 20
393.9999999999984
 30
0.0
 40
68.49999999999676
100
AcDbArc
 50
20.1028607187324
 51
39.89713928126705
  0
ARC
  5
215
330
1F
100
AcDbEntity
  8
LAY-10
  6
CONTINUOUS
 62
     7
100
AcDbCircle
 10
310.0000000000058
 20
393.999999999998
 30
0.0
 40
63.31484586264244
100
AcDbArc
 50
9.965646818444151
 51
20.03435318155563
  0
LINE
  5
216
330
1F
100
AcDbEntity
  8
LAY-10
  6
CONTINUOUS
 62
     7
100
AcDbLine
 10
372.3595319225191
 20
383.0428797115634
 30
0.0
 11
377.4805767780241
 21
382.2262258512589
 31
0.0
  0
LINE
  5
217
330
1F
100
AcDbEntity
  8
LAY-10
  6
CONTINUOUS
 62
     7
100
AcDbLine
 10
376.6577435412422
 20
383.3700787401555
 30
0.0
 11
377.4805767780241
 21
382.2262258512589
 31
0.0
  0
LINE
  5
218
330
1F
100
AcDbEntity
  8
LAY-10
  6
CONTINUOUS
 62
     7
100
AcDbLine
 10
372.3595319225192
 20
383.0428797115634
 30
0.0
 11
372.7076550350952
 21
383.9999999999979
 31
0.0
  0
LINE
  5
219
330
1F
100
AcDbEntity
  8
LAY-10
  6
CONTINUOUS
 62
     7
100
AcDbLine
 10
375.6627960165116
 20
383.52874318458
 30
0.0
 11
373.6875214912725
 21
383.8437405360411
 31
0.0
  0
LINE
  5
21A
330
1F
100
AcDbEntity
  8
LAY-10
  6
CONTINUOUS
 62
     7
100
AcDbLine
 10
372.3595319225191
 20
404.9571202884328
 30
0.0
 11
377.4805767780241
 21
405.7737741487373
 31
0.0
  0
LINE
  5
21B
330
1F
100
AcDbEntity
  8
LAY-10
  6
CONTINUOUS
 62
     7
100
AcDbLine
 10
376.6577435412422
 20
404.6299212598405
 30
0.0
 11
377.4805767780241
 21
405.7737741487373
 31
0.0
  0
LINE
  5
21C
330
1F
100
AcDbEntity
  8
LAY-10
  6
CONTINUOUS
 62
     7
100
AcDbLine
 10
372.3595319225192
 20
404.9571202884326
 30
0.0
 11
372.7076550350952
 21
403.9999999999981
 31
0.0
  0
LINE
  5
21D
330
1F
100
AcDbEntity
  8
LAY-10
  6
CONTINUOUS
 62
     7
100
AcDbLine
 10
375.6627960165117
 20
404.471256815416
 30
0.0
 11
373.6875214912725
 21
404.1562594639551
 31
0.0
  0
ARC
  5
21E
330
1F
100
AcDbEntity
  8
LAY-10
  6
CONTINUOUS
 62
     7
100
AcDbCircle
 10
310.0000000000058
 20
393.9999999999984
 30
0.0
 40
63.49999999999826
100
AcDbArc
 50
351.8276674188334
 51
8.17233258116632
  0
ARC
  5
21F
330
1F
100
AcDbEntity
  8
LAY-10
  6
CONTINUOUS
 62
     7
100
AcDbCircle
 10
310.0000000000058
 20
393.9999999999984
 30
0.0
 40
67.49999999999773
100
AcDbArc
 50
351.8009483132764
 51
8.199051686723632
  0
ARC
  5
220
330
1F
100
AcDbEntity
  8
LAY-10
  6
CONTINUOUS
 62
     7
100
AcDbCircle
 10
310.0000000000058
 20
393.9999999999984
 30
0.0
 40
68.49999999999676
100
AcDbArc
 50
350.1028607187324
 51
9.897139281267213
  0
LINE
  5
221
330
1F
100
AcDbEntity
  8
LAY-10
  6
CONTINUOUS
 62
     7
100
AcDbLine
 10
350.6689104833688
 20
345.4736213312123
 30
0.0
 11
353.9366759002436
 21
341.4469933225775
 31
0.0
  0
LINE
  5
222
330
1F
100
AcDbEntity
  8
LAY-10
  6
CONTINUOUS
 62
     7
100
AcDbLine
 10
352.5346536218758
 20
341.5876613642606
 30
0.0
 11
353.9366759002436
 21
341.4469933225775
 31
0.0
  0
LINE
  5
223
330
1F
100
AcDbEntity
  8
LAY-10
  6
CONTINUOUS
 62
     7
100
AcDbLine
 10
350.6689104833688
 20
345.4736213312123
 30
0.0
 11
350.0140815553949
 21
344.6935777278593
 31
0.0
  0
LINE
  5
224
330
1F
100
AcDbEntity
  8
LAY-10
  6
CONTINUOUS
 62
     7
100
AcDbLine
 10
351.8997724199617
 20
342.3699789738973
 30
0.0
 11
350.6393394488518
 21
343.9231182164723
 31
0.0
  0
LINE
  5
225
330
1F
100
AcDbEntity
  8
LAY-10
  6
CONTINUOUS
 62
     7
100
AcDbLine
 10
331.6906214391561
 20
334.5165010427776
 30
0.0
 11
333.5439008777863
 21
329.6732191738385
 31
0.0
  0
LINE
  5
226
330
1F
100
AcDbEntity
  8
LAY-10
  6
CONTINUOUS
 62
     7
100
AcDbLine
 10
334.1230899193721
 20
330.957740104418
 30
0.0
 11
333.5439008777863
 21
329.6732191738385
 31
0.0
  0
LINE
  5
227
330
1F
100
AcDbEntity
  8
LAY-10
  6
CONTINUOUS
 62
     7
100
AcDbLine
 10
331.6906214391562
 20
334.5165010427776
 30
0.0
 11
332.6935734797061
 21
334.6935777278595
 31
0.0
  0
LINE
  5
228
330
1F
100
AcDbEntity
  8
LAY-10
  6
CONTINUOUS
 62
     7
100
AcDbLine
 10
333.7630235965559
 20
331.8987221584793
 30
0.0
 11
333.0481820424264
 21
333.7668587525151
 31
0.0
  0
ARC
  5
229
330
1F
100
AcDbEntity
  8
LAY-10
  6
CONTINUOUS
 62
     7
100
AcDbCircle
 10
310.0000000000055
 20
393.9999999999979
 30
0.0
 40
63.49999999999826
100
AcDbArc
 50
291.8276674188339
 51
308.1723325811671
  0
ARC
  5
22A
330
1F
100
AcDbEntity
  8
LAY-10
  6
CONTINUOUS
 62
     7
100
AcDbCircle
 10
310.0000000000055
 20
393.9999999999979
 30
0.0
 40
67.49999999999773
100
AcDbArc
 50
291.8009483132763
 51
308.1990516867242
  0
ARC
  5
22B
330
1F
100
AcDbEntity
  8
LAY-10
  6
CONTINUOUS
 62
     7
100
AcDbCircle
 10
310.0000000000055
 20
393.9999999999979
 30
0.0
 40
68.49999999999676
100
AcDbArc
 50
290.1028607187331
 51
309.8971392812676
  0
LINE
  5
22C
330
1F
100
AcDbEntity
  8
LAY-10
  6
CONTINUOUS
 62
     7
100
AcDbLine
 10
369.4834989572263
 20
372.3093785608476
 30
0.0
 11
374.3267808261655
 21
370.4560991222176
 31
0.0
  0
LINE
  5
22D
330
1F
100
AcDbEntity
  8
LAY-10
  6
CONTINUOUS
 62
     7
100
AcDbLine
 10
373.0422598955859
 20
369.8769100806316
 30
0.0
 11
374.3267808261655
 21
370.4560991222176
 31
0.0
  0
LINE
  5
22E
330
1F
100
AcDbEntity
  8
LAY-10
  6
CONTINUOUS
 62
     7
100
AcDbLine
 10
369.4834989572263
 20
372.3093785608476
 30
0.0
 11
369.3064222721445
 21
371.3064265202977
 31
0.0
  0
LINE
  5
22F
330
1F
100
AcDbEntity
  8
LAY-10
  6
CONTINUOUS
 62
     7
100
AcDbLine
 10
372.1012778415244
 20
370.236976403448
 30
0.0
 11
370.2331412474885
 21
370.9518179575775
 31
0.0
  0
LINE
  5
230
330
1F
100
AcDbEntity
  8
LAY-10
  6
CONTINUOUS
 62
     7
100
AcDbLine
 10
358.5263786687916
 20
353.3310895166352
 30
0.0
 11
362.5530066774264
 21
350.0633240997603
 31
0.0
  0
LINE
  5
231
330
1F
100
AcDbEntity
  8
LAY-10
  6
CONTINUOUS
 62
     7
100
AcDbLine
 10
362.4123386357434
 20
351.465346378128
 30
0.0
 11
362.5530066774264
 21
350.0633240997603
 31
0.0
  0
LINE
  5
232
330
1F
100
AcDbEntity
  8
LAY-10
  6
CONTINUOUS
 62
     7
100
AcDbLine
 10
358.5263786687917
 20
353.3310895166352
 30
0.0
 11
359.3064222721444
 21
353.9859184446089
 31
0.0
  0
LINE
  5
233
330
1F
100
AcDbEntity
  8
LAY-10
  6
CONTINUOUS
 62
     7
100
AcDbLine
 10
361.6300210261065
 20
352.1002275800424
 30
0.0
 11
360.0768817835317
 21
353.360660551152
 31
0.0
  0
ARC
  5
234
330
1F
100
AcDbEntity
  8
LAY-10
  6
CONTINUOUS
 62
     7
100
AcDbCircle
 10
310.0000000000057
 20
393.9999999999977
 30
0.0
 40
63.49999999999826
100
AcDbArc
 50
321.8276674188339
 51
338.1723325811672
  0
ARC
  5
235
330
1F
100
AcDbEntity
  8
LAY-10
  6
CONTINUOUS
 62
     7
100
AcDbCircle
 10
310.0000000000057
 20
393.9999999999977
 30
0.0
 40
67.49999999999773
100
AcDbArc
 50
321.8009483132766
 51
338.1990516867245
  0
ARC
  5
236
330
1F
100
AcDbEntity
  8
LAY-10
  6
CONTINUOUS
 62
     7
100
AcDbCircle
 10
310.0000000000057
 20
393.9999999999977
 30
0.0
 40
68.49999999999676
100
AcDbArc
 50
320.1028607187329
 51
339.897139281268
  0
ARC
  5
237
330
1F
100
AcDbEntity
  8
LAY-10
  6
CONTINUOUS
 62
     7
100
AcDbCircle
 10
310.0000000000058
 20
393.999999999998
 30
0.0
 40
63.31484586264244
100
AcDbArc
 50
309.9656468184446
 51
320.034353181556
  0
ARC
  5
238
330
1F
100
AcDbEntity
  8
LAY-10
  6
CONTINUOUS
 62
     7
100
AcDbCircle
 10
319.483734688887
 20
459.8202763314645
 30
0.0
 40
1.0
100
AcDbArc
 50
350.9393251687979
 51
81.80094831327692
  0
ARC
  5
239
330
1F
100
AcDbEntity
  8
LAY-10
  6
CONTINUOUS
 62
     7
100
AcDbCircle
 10
319.1687373374258
 20
457.8450018062253
 30
0.0
 40
1.0
100
AcDbArc
 50
261.8276674188351
 51
350.9393251687979
  0
ARC
  5
23A
330
1F
100
AcDbEntity
  8
LAY-10
  6
CONTINUOUS
 62
     7
100
AcDbCircle
 10
300.8312626625858
 20
457.8450018062254
 30
0.0
 40
1.0
100
AcDbArc
 50
189.0606748312022
 51
278.1723325811652
  0
ARC
  5
23B
330
1F
100
AcDbEntity
  8
LAY-10
  6
CONTINUOUS
 62
     7
100
AcDbCircle
 10
300.5162653111247
 20
459.8202763314646
 30
0.0
 40
1.0
100
AcDbArc
 50
98.19905168671988
 51
189.0606748312087
  0
ARC
  5
23C
330
1F
100
AcDbEntity
  8
LAY-10
  6
CONTINUOUS
 62
     7
100
AcDbCircle
 10
351.1232933290619
 20
446.2601640427191
 30
0.0
 40
1.0
100
AcDbArc
 50
320.9393251687959
 51
51.80094831327192
  0
ARC
  5
23D
330
1F
100
AcDbEntity
  8
LAY-10
  6
CONTINUOUS
 62
     7
100
AcDbCircle
 10
349.8628603579521
 20
444.7070248001443
 30
0.0
 40
1.0
100
AcDbArc
 50
231.8276674188428
 51
320.9393251687935
  0
ARC
  5
23E
330
1F
100
AcDbEntity
  8
LAY-10
  6
CONTINUOUS
 62
     7
100
AcDbCircle
 10
334.6969830024162
 20
455.7438987316003
 30
0.0
 40
1.0
100
AcDbArc
 50
68.19905168672095
 51
159.0606748312102
  0
ARC
  5
23F
330
1F
100
AcDbEntity
  8
LAY-10
  6
CONTINUOUS
 62
     7
100
AcDbCircle
 10
333.9821414482869
 20
453.8757621375643
 30
0.0
 40
1.0
100
AcDbArc
 50
159.0606748311895
 51
248.172332581162
  0
ARC
  5
240
330
1F
100
AcDbEntity
  8
LAY-10
  6
CONTINUOUS
 62
     7
100
AcDbCircle
 10
362.2601640427268
 20
435.1232933290541
 30
0.0
 40
1.0
100
AcDbArc
 50
38.19905168672811
 51
129.0606748312088
  0
ARC
  5
241
330
1F
100
AcDbEntity
  8
LAY-10
  6
CONTINUOUS
 62
     7
100
AcDbCircle
 10
360.7070248001521
 20
433.8628603579443
 30
0.0
 40
1.0
100
AcDbArc
 50
129.0606748312088
 51
218.1723325811617
  0
ARC
  5
242
330
1F
100
AcDbEntity
  8
LAY-10
  6
CONTINUOUS
 62
     7
100
AcDbCircle
 10
371.7438987316079
 20
418.6969830024084
 30
0.0
 40
1.0
100
AcDbArc
 50
290.9393251687962
 51
21.80094831327907
  0
ARC
  5
243
330
1F
100
AcDbEntity
  8
LAY-10
  6
CONTINUOUS
 62
     7
100
AcDbCircle
 10
369.875762137572
 20
417.9821414482792
 30
0.0
 40
1.0
100
AcDbArc
 50
201.8276674188411
 51
290.9393251687962
  0
ARC
  5
244
330
1F
100
AcDbEntity
  8
LAY-10
  6
CONTINUOUS
 62
     7
100
AcDbCircle
 10
375.8202763314723
 20
403.4837346888792
 30
0.0
 40
1.0
100
AcDbArc
 50
8.199051686719908
 51
99.06067483120218
  0
ARC
  5
245
330
1F
100
AcDbEntity
  8
LAY-10
  6
CONTINUOUS
 62
     7
100
AcDbCircle
 10
373.8450018062332
 20
403.168737337418
 30
0.0
 40
1.0
100
AcDbArc
 50
99.0606748312054
 51
188.172332581165
  0
ARC
  5
246
330
1F
100
AcDbEntity
  8
LAY-10
  6
CONTINUOUS
 62
     7
100
AcDbCircle
 10
375.8202763314723
 20
384.5162653111168
 30
0.0
 40
1.0
100
AcDbArc
 50
260.9393251687915
 51
351.8009483132937
  0
ARC
  5
247
330
1F
100
AcDbEntity
  8
LAY-10
  6
CONTINUOUS
 62
     7
100
AcDbCircle
 10
373.8450018062331
 20
384.831262662578
 30
0.0
 40
1.0
100
AcDbArc
 50
171.827667418835
 51
260.939325168798
  0
ARC
  5
248
330
1F
100
AcDbEntity
  8
LAY-10
  6
CONTINUOUS
 62
     7
100
AcDbCircle
 10
371.7438987316079
 20
369.3030169975876
 30
0.0
 40
1.0
100
AcDbArc
 50
338.1990516867212
 51
69.06067483120405
  0
ARC
  5
249
330
1F
100
AcDbEntity
  8
LAY-10
  6
CONTINUOUS
 62
     7
100
AcDbCircle
 10
369.875762137572
 20
370.0178585517171
 30
0.0
 40
1.0
100
AcDbArc
 50
69.06067483120405
 51
158.172332581159
  0
ARC
  5
24A
330
1F
100
AcDbEntity
  8
LAY-10
  6
CONTINUOUS
 62
     7
100
AcDbCircle
 10
362.2601640427268
 20
352.8767066709422
 30
0.0
 40
1.0
100
AcDbArc
 50
230.9393251687914
 51
321.8009483132721
  0
ARC
  5
24B
330
1F
100
AcDbEntity
  8
LAY-10
  6
CONTINUOUS
 62
     7
100
AcDbCircle
 10
360.7070248001521
 20
354.1371396420517
 30
0.0
 40
1.0
100
AcDbArc
 50
141.8276674188337
 51
230.9393251687914
  0
ARC
  5
24C
330
1F
100
AcDbEntity
  8
LAY-10
  6
CONTINUOUS
 62
     7
100
AcDbCircle
 10
351.1232933290619
 20
341.739835957277
 30
0.0
 40
1.0
100
AcDbArc
 50
308.1990516867211
 51
39.06067483120411
  0
ARC
  5
24D
330
1F
100
AcDbEntity
  8
LAY-10
  6
CONTINUOUS
 62
     7
100
AcDbCircle
 10
349.8628603579521
 20
343.2929751998519
 30
0.0
 40
1.0
100
AcDbArc
 50
39.06067483121122
 51
128.1723325811644
  0
ARC
  5
24E
330
1F
100
AcDbEntity
  8
LAY-10
  6
CONTINUOUS
 62
     7
100
AcDbCircle
 10
334.6969830024162
 20
332.2561012683958
 30
0.0
 40
1.0
100
AcDbArc
 50
200.9393251687899
 51
291.8009483132791
  0
ARC
  5
24F
330
1F
100
AcDbEntity
  8
LAY-10
  6
CONTINUOUS
 62
     7
100
AcDbCircle
 10
333.9821414482869
 20
334.1242378624317
 30
0.0
 40
1.0
100
AcDbArc
 50
111.8276674188338
 51
200.939325168796
  0
ARC
  5
250
330
1F
100
AcDbEntity
  8
LAY-10
  6
CONTINUOUS
 62
     7
100
AcDbCircle
 10
310.0000000000055
 20
394.0000000000018
 30
0.0
 40
68.49999999999676
100
AcDbArc
 50
260.1028607187332
 51
279.8971392812677
  0
ARC
  5
251
330
1F
100
AcDbEntity
  8
LAY-10
  6
CONTINUOUS
 62
     7
100
AcDbCircle
 10
310.0000000000055
 20
394.0000000000018
 30
0.0
 40
63.49999999999826
100
AcDbArc
 50
261.8276674188336
 51
278.1723325811671
  0
ARC
  5
252
330
1F
100
AcDbEntity
  8
LAY-10
  6
CONTINUOUS
 62
     7
100
AcDbCircle
 10
310.0000000000058
 20
394.0000000000018
 30
0.0
 40
63.08073776573372
100
AcDbArc
 50
266.3643896228948
 51
273.6356103771056
  0
LINE
  5
253
330
1F
100
AcDbEntity
  8
LAY-10
  6
CONTINUOUS
 62
     7
100
AcDbLine
 10
305.500000000006
 20
331.5289727303498
 30
0.0
 11
306.0000000000058
 21
331.0462115749254
 31
0.0
  0
LINE
  5
254
330
1F
100
AcDbEntity
  8
LAY-10
  6
CONTINUOUS
 62
     7
100
AcDbLine
 10
314.5000000000056
 20
331.5289727303498
 30
0.0
 11
314.0000000000058
 21
331.0462115749254
 31
0.0
  0
LINE
  5
255
330
1F
100
AcDbEntity
  8
LAY-10
  6
CONTINUOUS
 62
     7
100
AcDbLine
 10
320.4712568154238
 20
328.337203983496
 30
0.0
 11
320.1562594639627
 21
330.3124785087352
 31
0.0
  0
LINE
  5
256
330
1F
100
AcDbEntity
  8
LAY-10
  6
CONTINUOUS
 62
     7
100
AcDbLine
 10
320.9571202884405
 20
331.6404680774885
 30
0.0
 11
321.773774148745
 21
326.5194232219835
 31
0.0
  0
LINE
  5
257
330
1F
100
AcDbEntity
  8
LAY-10
  6
CONTINUOUS
 62
     7
100
AcDbLine
 10
320.6299212598483
 20
327.3422564587653
 30
0.0
 11
321.773774148745
 21
326.5194232219835
 31
0.0
  0
LINE
  5
258
330
1F
100
AcDbEntity
  8
LAY-10
  6
CONTINUOUS
 62
     7
100
AcDbLine
 10
320.9571202884405
 20
331.6404680774885
 30
0.0
 11
320.0000000000059
 21
331.2923449649124
 31
0.0
  0
LINE
  5
259
330
1F
100
AcDbEntity
  8
LAY-10
  6
CONTINUOUS
 62
     7
100
AcDbLine
 10
299.0428797115711
 20
331.6404680774885
 30
0.0
 11
298.2262258512666
 21
326.5194232219835
 31
0.0
  0
LINE
  5
25A
330
1F
100
AcDbEntity
  8
LAY-10
  6
CONTINUOUS
 62
     7
100
AcDbLine
 10
299.3700787401633
 20
327.3422564587653
 30
0.0
 11
298.2262258512666
 21
326.5194232219835
 31
0.0
  0
LINE
  5
25B
330
1F
100
AcDbEntity
  8
LAY-10
  6
CONTINUOUS
 62
     7
100
AcDbLine
 10
299.0428797115712
 20
331.6404680774885
 30
0.0
 11
300.0000000000058
 21
331.2923449649124
 31
0.0
  0
LINE
  5
25C
330
1F
100
AcDbEntity
  8
LAY-10
  6
CONTINUOUS
 62
     7
100
AcDbLine
 10
299.5287431845878
 20
328.337203983496
 30
0.0
 11
299.8437405360489
 21
330.312478508735
 31
0.0
  0
ARC
  5
25D
330
1F
100
AcDbEntity
  8
LAY-10
  6
CONTINUOUS
 62
     7
100
AcDbCircle
 10
310.0000000000055
 20
394.0000000000018
 30
0.0
 40
67.49999999999773
100
AcDbArc
 50
261.8009483132765
 51
278.1990516867243
  0
ARC
  5
25E
330
1F
100
AcDbEntity
  8
LAY-10
  6
CONTINUOUS
 62
     7
100
AcDbCircle
 10
319.483734688887
 20
328.1797236685354
 30
0.0
 40
1.0
100
AcDbArc
 50
278.1990516867232
 51
9.060674831202153
  0
ARC
  5
25F
330
1F
100
AcDbEntity
  8
LAY-10
  6
CONTINUOUS
 62
     7
100
AcDbCircle
 10
319.1687373374258
 20
330.1549981937746
 30
0.0
 40
1.0
100
AcDbArc
 50
9.060674831202153
 51
98.17233258116502
  0
ARC
  5
260
330
1F
100
AcDbEntity
  8
LAY-10
  6
CONTINUOUS
 62
     7
100
AcDbCircle
 10
300.8312626625858
 20
330.1549981937744
 30
0.0
 40
1.0
100
AcDbArc
 50
81.82766741883503
 51
170.9393251687978
  0
ARC
  5
261
330
1F
100
AcDbEntity
  8
LAY-10
  6
CONTINUOUS
 62
     7
100
AcDbCircle
 10
300.5162653111247
 20
328.1797236685351
 30
0.0
 40
1.0
100
AcDbArc
 50
170.9393251687846
 51
261.8009483132802
  0
ARC
  5
262
330
1F
100
AcDbEntity
  8
LAY-10
  6
CONTINUOUS
 62
     7
100
AcDbCircle
 10
310.0000000000058
 20
394.0000000000018
 30
0.0
 40
63.31484586264244
100
AcDbArc
 50
279.9656468184442
 51
290.0343531815558
  0
ARC
  5
263
330
1F
100
AcDbEntity
  8
LAY-10
  6
CONTINUOUS
 62
     7
100
AcDbCircle
 10
310.000000000014
 20
394.0000000000018
 30
0.0
 40
63.31484586264244
100
AcDbArc
 50
249.9656468184444
 51
260.0343531815558
  0
ARC
  5
264
330
1F
100
AcDbEntity
  8
LAY-10
  6
CONTINUOUS
 62
     7
100
AcDbCircle
 10
310.000000000014
 20
393.999999999998
 30
0.0
 40
62.63289270124426
100
AcDbArc
 50
185.9568434330221
 51
265.8799069431848
  0
ARC
  5
265
330
1F
100
AcDbEntity
  8
LAY-10
  6
CONTINUOUS
 62
     7
100
AcDbCircle
 10
310.0000000000058
 20
393.999999999998
 30
0.0
 40
62.63289270124426
100
AcDbArc
 50
274.1200930568153
 51
354.0431565669781
  0
CIRCLE
  5
266
330
1F
100
AcDbEntity
  8
LAY-10
  6
CONTINUOUS
 62
     7
100
AcDbCircle
 10
252.0000000000103
 20
394.0000000000201
 30
0.0
 40
5.250000000000004
  0
LINE
  5
267
330
1F
100
AcDbEntity
  8
LAY-10
  6
CONTINUOUS
 62
     7
100
AcDbLine
 10
256.9633927678704
 20
395.7109156121878
 30
0.0
 11
248.0366072322066
 21
390.5570335801841
 31
0.0
  0
LINE
  5
268
330
1F
100
AcDbEntity
  8
LAY-10
  6
CONTINUOUS
 62
     7
100
AcDbLine
 10
255.9633927678728
 20
397.4429664197898
 30
0.0
 11
247.0366072321795
 21
392.289084387769
 31
0.0
  0
CIRCLE
  5
269
330
1F
100
AcDbEntity
  8
LAY-10
  6
CONTINUOUS
 62
     7
100
AcDbCircle
 10
368.0000000000103
 20
394.0000000000201
 30
0.0
 40
5.250000000000004
  0
LINE
  5
26A
330
1F
100
AcDbEntity
  8
LAY-10
  6
CONTINUOUS
 62
     7
100
AcDbLine
 10
372.9633927678704
 20
395.7109156121878
 30
0.0
 11
364.0366072322066
 21
390.5570335801841
 31
0.0
  0
LINE
  5
26B
330
1F
100
AcDbEntity
  8
LAY-10
  6
CONTINUOUS
 62
     7
100
AcDbLine
 10
371.9633927678728
 20
397.4429664197898
 30
0.0
 11
363.0366072321795
 21
392.289084387769
 31
0.0
  0
ARC
  5
26C
330
1F
100
AcDbEntity
  8
LAY-10
  6
CONTINUOUS
 62
     7
100
AcDbCircle
 10
309.9999999999999
 20
394.0000000000422
 30
0.0
 40
36.6910862168296
100
AcDbArc
 50
83.47382559887293
 51
96.52617440109586
  0
LINE
  5
26D
330
1F
100
AcDbEntity
  8
LAY-10
  6
CONTINUOUS
 62
     7
100
AcDbLine
 10
297.081690124711
 20
437.9417993963431
 30
0.0
 11
298.9827645284573
 21
428.9979475161196
 31
0.0
  0
LINE
  5
26E
330
1F
100
AcDbEntity
  8
LAY-10
  6
CONTINUOUS
 62
     7
100
AcDbLine
 10
305.829797733594
 20
430.4533293518439
 30
0.0
 11
303.9287233298476
 21
439.3971812320676
 31
0.0
  0
ARC
  5
26F
330
1F
100
AcDbEntity
  8
LAY-10
  6
CONTINUOUS
 62
     7
100
AcDbCircle
 10
309.9999999999999
 20
394.0000000000422
 30
0.0
 40
36.6910862168296
100
AcDbArc
 50
107.4738255988728
 51
120.5261744010957
  0
LINE
  5
270
330
1F
100
AcDbEntity
  8
LAY-10
  6
CONTINUOUS
 62
     7
100
AcDbLine
 10
280.3257967158485
 20
428.8884812462874
 30
0.0
 11
285.7003068919608
 21
421.491102608498
 31
0.0
  0
LINE
  5
271
330
1F
100
AcDbEntity
  8
LAY-10
  6
CONTINUOUS
 62
     7
100
AcDbLine
 10
291.3634258525855
 20
425.6055993745453
 30
0.0
 11
285.988915676473
 21
433.0029780123347
 31
0.0
  0
LINE
  5
272
330
1F
100
AcDbEntity
  8
LAY-10
  6
CONTINUOUS
 62
     7
100
AcDbLine
 10
268.7008426364894
 20
413.802627736854
 30
0.0
 11
276.6194869496259
 21
409.2307963110478
 31
0.0
  0
LINE
  5
273
330
1F
100
AcDbEntity
  8
LAY-10
  6
CONTINUOUS
 62
     7
100
AcDbLine
 10
280.1194869496258
 20
415.2929741375388
 30
0.0
 11
272.2008426364893
 21
419.8648055633452
 31
0.0
  0
LINE
  5
274
330
1F
100
AcDbEntity
  8
LAY-10
  6
CONTINUOUS
 62
     7
100
AcDbLine
 10
264.2168880563474
 20
395.2927199905005
 30
0.0
 11
273.3104609661415
 21
394.336946963984
 31
0.0
  0
LINE
  5
275
330
1F
100
AcDbEntity
  8
LAY-10
  6
CONTINUOUS
 62
     7
100
AcDbLine
 10
274.0421602090151
 20
401.2986002315619
 30
0.0
 11
264.9485872992209
 21
402.2543732580785
 31
0.0
  0
LINE
  5
276
330
1F
100
AcDbEntity
  8
LAY-10
  6
CONTINUOUS
 62
     7
100
AcDbLine
 10
267.6492494577775
 20
376.5592892138045
 30
0.0
 11
276.3453895956094
 21
379.3848364257876
 31
0.0
  0
LINE
  5
277
330
1F
100
AcDbEntity
  8
LAY-10
  6
CONTINUOUS
 62
     7
100
AcDbLine
 10
274.1822706349848
 20
386.0422320398537
 30
0.0
 11
265.4861304971529
 21
383.2166848278705
 31
0.0
  0
LINE
  5
278
330
1F
100
AcDbEntity
  8
LAY-10
  6
CONTINUOUS
 62
     7
100
AcDbLine
 10
278.404440372448
 20
360.8415157759324
 30
0.0
 11
285.1995061065335
 21
366.9598204441726
 31
0.0
  0
LINE
  5
279
330
1F
100
AcDbEntity
  8
LAY-10
  6
CONTINUOUS
 62
     7
100
AcDbLine
 10
280.5155918620216
 20
372.1618342225144
 30
0.0
 11
273.7205261279358
 21
366.0435295542739
 31
0.0
  0
LINE
  5
27A
330
1F
100
AcDbEntity
  8
LAY-10
  6
CONTINUOUS
 62
     7
100
AcDbLine
 10
291.9470351135537
 20
362.0574536616174
 30
0.0
 11
288.2279723798721
 21
353.7043019973115
 31
0.0
  0
LINE
  5
27B
330
1F
100
AcDbEntity
  8
LAY-10
  6
CONTINUOUS
 62
     7
100
AcDbLine
 10
316.0712766701719
 20
439.3971812320632
 30
0.0
 11
314.1702022664256
 21
430.4533293518397
 31
0.0
  0
ARC
  5
27C
330
1F
100
AcDbEntity
  8
LAY-10
  6
CONTINUOUS
 62
     7
100
AcDbCircle
 10
309.9999999999999
 20
394.0000000000422
 30
0.0
 40
36.6910862168296
100
AcDbArc
 50
131.4738255988732
 51
144.5261744010958
  0
ARC
  5
27D
330
1F
100
AcDbEntity
  8
LAY-10
  6
CONTINUOUS
 62
     7
100
AcDbCircle
 10
309.9999999999999
 20
394.0000000000422
 30
0.0
 40
36.6910862168296
100
AcDbArc
 50
155.473825598873
 51
168.5261744010957
  0
ARC
  5
27E
330
1F
100
AcDbEntity
  8
LAY-10
  6
CONTINUOUS
 62
     7
100
AcDbCircle
 10
309.9999999999999
 20
394.0000000000422
 30
0.0
 40
36.6910862168296
100
AcDbArc
 50
179.4738255988732
 51
192.5261744010955
  0
ARC
  5
27F
330
1F
100
AcDbEntity
  8
LAY-10
  6
CONTINUOUS
 62
     7
100
AcDbCircle
 10
309.9999999999999
 20
394.0000000000422
 30
0.0
 40
36.6910862168296
100
AcDbArc
 50
203.4738255988728
 51
216.5261744010954
  0
ARC
  5
280
330
1F
100
AcDbEntity
  8
LAY-10
  6
CONTINUOUS
 62
     7
100
AcDbCircle
 10
309.9999999999999
 20
394.0000000000422
 30
0.0
 40
36.6910862168296
100
AcDbArc
 50
227.4738255988727
 51
240.5261744010953
  0
LINE
  5
281
330
1F
100
AcDbEntity
  8
LAY-10
  6
CONTINUOUS
 62
     7
100
AcDbLine
 10
307.0606123086601
 20
408.4000000000422
 30
0.0
 11
304.4143039824923
 21
421.3642102024216
 31
0.0
  0
LINE
  5
282
330
1F
100
AcDbEntity
  8
LAY-10
  6
CONTINUOUS
 62
     7
100
AcDbLine
 10
315.5856960175074
 20
421.3642102024216
 30
0.0
 11
312.9393876913396
 21
408.4000000000422
 31
0.0
  0
ARC
  5
283
330
1F
100
AcDbEntity
  8
LAY-10
  6
CONTINUOUS
 62
     7
100
AcDbCircle
 10
309.9999999999999
 20
394.0000000000422
 30
0.0
 40
30.00000000000002
100
AcDbArc
 50
82.55908472533666
 51
97.44091527466324
  0
ARC
  5
284
330
1F
100
AcDbEntity
  8
LAY-10
  6
CONTINUOUS
 62
     7
100
AcDbCircle
 10
309.9999999999998
 20
409.0000000000422
 30
0.0
 40
2.999999999999978
100
AcDbArc
 50
191.536959032814
 51
348.463040967184
  0
ARC
  5
285
330
1F
100
AcDbEntity
  8
LAY-10
  6
CONTINUOUS
 62
     7
100
AcDbCircle
 10
306.3738957767188
 20
421.7642102024216
 30
0.0
 40
2.0
100
AcDbArc
 50
97.4409152746634
 51
191.5369590328115
  0
ARC
  5
286
330
1F
100
AcDbEntity
  8
LAY-10
  6
CONTINUOUS
 62
     7
100
AcDbCircle
 10
313.6261042232809
 20
421.7642102024216
 30
0.0
 40
2.0
100
AcDbArc
 50
348.4630409671853
 51
82.55908472533666
  0
ARC
  5
287
330
1F
100
AcDbEntity
  8
LAY-10
  6
CONTINUOUS
 62
     7
100
AcDbCircle
 10
300.3581858547017
 20
405.490666646827
 30
0.0
 40
2.999999999999978
100
AcDbArc
 50
231.5369590328125
 51
28.46304096718228
  0
ARC
  5
288
330
1F
100
AcDbEntity
  8
LAY-10
  6
CONTINUOUS
 62
     7
100
AcDbCircle
 10
289.3757526987631
 20
412.9378040770051
 30
0.0
 40
2.0
100
AcDbArc
 50
137.4409152746625
 51
231.5369590328116
  0
ARC
  5
289
330
1F
100
AcDbEntity
  8
LAY-10
  6
CONTINUOUS
 62
     7
100
AcDbCircle
 10
309.9999999999999
 20
394.0000000000422
 30
0.0
 40
30.00000000000002
100
AcDbArc
 50
122.559084725337
 51
137.4409152746638
  0
ARC
  5
28A
330
1F
100
AcDbEntity
  8
LAY-10
  6
CONTINUOUS
 62
     7
100
AcDbCircle
 10
294.9312666795926
 20
417.5994338093192
 30
0.0
 40
2.0
100
AcDbArc
 50
28.46304096718979
 51
122.5590847253377
  0
LINE
  5
28B
330
1F
100
AcDbEntity
  8
LAY-10
  6
CONTINUOUS
 62
     7
100
AcDbLine
 10
296.6895161282158
 20
418.5526173574439
 30
0.0
 11
302.9955600276369
 21
406.9204419690139
 31
0.0
  0
LINE
  5
28C
330
1F
100
AcDbEntity
  8
LAY-10
  6
CONTINUOUS
 62
     7
100
AcDbLine
 10
298.4921568133906
 20
403.1416379928972
 30
0.0
 11
288.1317333378889
 21
411.3717849743852
 31
0.0
  0
ARC
  5
28D
330
1F
100
AcDbEntity
  8
LAY-10
  6
CONTINUOUS
 62
     7
100
AcDbCircle
 10
295.2278837048167
 20
396.6047226650462
 30
0.0
 40
2.999999999999978
100
AcDbArc
 50
271.5369590328139
 51
68.46304096718465
  0
ARC
  5
28E
330
1F
100
AcDbEntity
  8
LAY-10
  6
CONTINUOUS
 62
     7
100
AcDbCircle
 10
282.0279241460328
 20
395.2501889537295
 30
0.0
 40
2.0
100
AcDbArc
 50
177.4409152746643
 51
271.5369590328186
  0
ARC
  5
28F
330
1F
100
AcDbEntity
  8
LAY-10
  6
CONTINUOUS
 62
     7
100
AcDbCircle
 10
309.9999999999999
 20
394.0000000000422
 30
0.0
 40
30.00000000000002
100
AcDbArc
 50
162.5590847253368
 51
177.4409152746637
  0
ARC
  5
290
330
1F
100
AcDbEntity
  8
LAY-10
  6
CONTINUOUS
 62
     7
100
AcDbCircle
 10
283.2872569268392
 20
402.3922200583646
 30
0.0
 40
2.0
100
AcDbArc
 50
68.46304096718488
 51
162.5590847253381
  0
LINE
  5
291
330
1F
100
AcDbEntity
  8
LAY-10
  6
CONTINUOUS
 62
     7
100
AcDbLine
 10
284.0214595720826
 20
404.2525819789911
 30
0.0
 11
296.3291876726818
 21
399.3952655459862
 31
0.0
  0
LINE
  5
292
330
1F
100
AcDbEntity
  8
LAY-10
  6
CONTINUOUS
 62
     7
100
AcDbLine
 10
295.3083490405662
 20
393.6058019709059
 30
0.0
 11
282.0815677031993
 21
393.2509084909694
 31
0.0
  0
ARC
  5
293
330
1F
100
AcDbEntity
  8
LAY-10
  6
CONTINUOUS
 62
     7
100
AcDbCircle
 10
287.7685407603688
 20
376.9775965247212
 30
0.0
 40
2.0
100
AcDbArc
 50
217.4409152746608
 51
311.5369590328116
  0
ARC
  5
294
330
1F
100
AcDbEntity
  8
LAY-10
  6
CONTINUOUS
 62
     7
100
AcDbCircle
 10
309.9999999999999
 20
394.0000000000422
 30
0.0
 40
30.00000000000002
100
AcDbArc
 50
202.5590847253365
 51
217.4409152746634
  0
ARC
  5
295
330
1F
100
AcDbEntity
  8
LAY-10
  6
CONTINUOUS
 62
     7
100
AcDbCircle
 10
284.1424365370877
 20
383.258193272984
 30
0.0
 40
2.0
100
AcDbArc
 50
108.463040967185
 51
202.5590847253369
  0
LINE
  5
296
330
1F
100
AcDbEntity
  8
LAY-10
  6
CONTINUOUS
 62
     7
100
AcDbLine
 10
298.9989280311739
 20
384.2544155877707
 30
0.0
 11
289.0947468189958
 21
375.4805402498734
 31
0.0
  0
LINE
  5
297
330
1F
100
AcDbEntity
  8
LAY-10
  6
CONTINUOUS
 62
     7
100
AcDbLine
 10
249.8252544666884
 20
404.0000000000043
 30
0.0
 11
265.3036414881915
 21
404.0000000000043
 31
0.0
  0
LINE
  5
298
330
1F
100
AcDbEntity
  8
LAY-10
  6
CONTINUOUS
 62
     7
100
AcDbLine
 10
249.8252544666884
 20
384.0000000000043
 30
0.0
 11
265.3036414882085
 21
384.0000000000043
 31
0.0
  0
LINE
  5
299
330
1F
100
AcDbEntity
  8
LAY-10
  6
CONTINUOUS
 62
     7
100
AcDbLine
 10
283.5090508014881
 20
385.1552495478317
 30
0.0
 11
296.059540339834
 21
389.3455844123138
 31
0.0
  0
ARC
  5
29A
330
1F
100
AcDbEntity
  8
LAY-10
  6
CONTINUOUS
 62
     7
100
AcDbCircle
 10
297.0096189432332
 20
386.5000000000422
 30
0.0
 40
2.999999999999978
100
AcDbArc
 50
311.5369590328147
 51
108.4630409671853
  0
CIRCLE
  5
29B
330
1F
100
AcDbEntity
  8
LAY-10
  6
CONTINUOUS
 62
     7
100
AcDbCircle
 10
309.9999999999999
 20
394.0000000000422
 30
0.0
 40
35.08339106224287
  0
CIRCLE
  5
29C
330
1F
100
AcDbEntity
  8
LAY-10
  6
CONTINUOUS
 62
     7
100
AcDbCircle
 10
309.9999999999999
 20
394.0000000000422
 30
0.0
 40
45.80135875948815
  0
LINE
  5
29D
330
1F
100
AcDbEntity
  8
LAY-10
  6
CONTINUOUS
 62
     7
100
AcDbLine
 10
294.622790583354
 20
350.8571454957733
 30
0.0
 11
298.3418533170356
 21
359.2102971600792
 31
0.0
  0
LINE
  5
29E
330
1F
100
AcDbEntity
  8
LAY-10
  6
CONTINUOUS
 62
     7
100
AcDbLine
 10
306.4999999999734
 20
357.4762295515498
 30
0.0
 11
306.4999999999735
 21
348.3325666999374
 31
0.0
  0
ARC
  5
29F
330
1F
100
AcDbEntity
  8
LAY-10
  6
CONTINUOUS
 62
     7
100
AcDbCircle
 10
309.9999999999836
 20
394.0000000000344
 30
0.0
 40
36.6910862168296
100
AcDbArc
 50
251.4738255988726
 51
264.5261744010955
  0
LINE
  5
2A0
330
1F
100
AcDbEntity
  8
LAY-10
  6
CONTINUOUS
 62
     7
100
AcDbLine
 10
313.4999999999616
 20
348.3325666999238
 30
0.0
 11
313.4999999999616
 21
357.4762295515361
 31
0.0
  0
LINE
  5
2A1
330
1F
100
AcDbEntity
  8
LAY-10
  6
CONTINUOUS
 62
     7
100
AcDbLine
 10
321.6581466829011
 20
359.2102971600571
 30
0.0
 11
325.377209416583
 21
350.8571454957511
 31
0.0
  0
ARC
  5
2A2
330
1F
100
AcDbEntity
  8
LAY-10
  6
CONTINUOUS
 62
     7
100
AcDbCircle
 10
309.9999999999718
 20
394.0000000000207
 30
0.0
 40
36.6910862168296
100
AcDbArc
 50
275.4738255988729
 51
288.5261744010956
  0
LINE
  5
2A3
330
1F
100
AcDbEntity
  8
LAY-10
  6
CONTINUOUS
 62
     7
100
AcDbLine
 10
339.6742032841716
 20
428.8884812462874
 30
0.0
 11
334.2996931080592
 21
421.491102608498
 31
0.0
  0
LINE
  5
2A4
330
1F
100
AcDbEntity
  8
LAY-10
  6
CONTINUOUS
 62
     7
100
AcDbLine
 10
351.2991573635306
 20
413.802627736854
 30
0.0
 11
343.3805130503941
 21
409.2307963110478
 31
0.0
  0
LINE
  5
2A5
330
1F
100
AcDbEntity
  8
LAY-10
  6
CONTINUOUS
 62
     7
100
AcDbLine
 10
339.8805130503942
 20
415.2929741375388
 30
0.0
 11
347.7991573635307
 21
419.8648055633452
 31
0.0
  0
LINE
  5
2A6
330
1F
100
AcDbEntity
  8
LAY-10
  6
CONTINUOUS
 62
     7
100
AcDbLine
 10
355.7831119436726
 20
395.2927199905005
 30
0.0
 11
346.6895390338785
 21
394.336946963984
 31
0.0
  0
LINE
  5
2A7
330
1F
100
AcDbEntity
  8
LAY-10
  6
CONTINUOUS
 62
     7
100
AcDbLine
 10
345.9578397910049
 20
401.2986002315619
 30
0.0
 11
355.0514127007991
 21
402.2543732580785
 31
0.0
  0
LINE
  5
2A8
330
1F
100
AcDbEntity
  8
LAY-10
  6
CONTINUOUS
 62
     7
100
AcDbLine
 10
352.3507505422425
 20
376.5592892138045
 30
0.0
 11
343.6546104044106
 21
379.3848364257876
 31
0.0
  0
LINE
  5
2A9
330
1F
100
AcDbEntity
  8
LAY-10
  6
CONTINUOUS
 62
     7
100
AcDbLine
 10
345.8177293650352
 20
386.0422320398537
 30
0.0
 11
354.5138695028671
 21
383.2166848278705
 31
0.0
  0
LINE
  5
2AA
330
1F
100
AcDbEntity
  8
LAY-10
  6
CONTINUOUS
 62
     7
100
AcDbLine
 10
341.5955596275721
 20
360.8415157759324
 30
0.0
 11
334.8004938934865
 21
366.9598204441726
 31
0.0
  0
LINE
  5
2AB
330
1F
100
AcDbEntity
  8
LAY-10
  6
CONTINUOUS
 62
     7
100
AcDbLine
 10
339.4844081379984
 20
372.1618342225144
 30
0.0
 11
346.2794738720842
 21
366.0435295542739
 31
0.0
  0
LINE
  5
2AC
330
1F
100
AcDbEntity
  8
LAY-10
  6
CONTINUOUS
 62
     7
100
AcDbLine
 10
328.0529648864663
 20
362.0574536616174
 30
0.0
 11
331.772027620148
 21
353.7043019973115
 31
0.0
  0
ARC
  5
2AD
330
1F
100
AcDbEntity
  8
LAY-10
  6
CONTINUOUS
 62
     7
100
AcDbCircle
 10
310.0000000000202
 20
394.0000000000422
 30
0.0
 40
36.6910862168296
100
AcDbArc
 50
35.47382559890445
 51
48.5261744011272
  0
ARC
  5
2AE
330
1F
100
AcDbEntity
  8
LAY-10
  6
CONTINUOUS
 62
     7
100
AcDbCircle
 10
310.0000000000202
 20
394.0000000000422
 30
0.0
 40
36.6910862168296
100
AcDbArc
 50
11.47382559890445
 51
24.52617440112731
  0
ARC
  5
2AF
330
1F
100
AcDbEntity
  8
LAY-10
  6
CONTINUOUS
 62
     7
100
AcDbCircle
 10
310.0000000000202
 20
394.0000000000422
 30
0.0
 40
36.6910862168296
100
AcDbArc
 50
347.4738255989048
 51
0.5261744011270281
  0
ARC
  5
2B0
330
1F
100
AcDbEntity
  8
LAY-10
  6
CONTINUOUS
 62
     7
100
AcDbCircle
 10
310.0000000000202
 20
394.0000000000422
 30
0.0
 40
36.6910862168296
100
AcDbArc
 50
323.4738255989046
 51
336.5261744011277
  0
ARC
  5
2B1
330
1F
100
AcDbEntity
  8
LAY-10
  6
CONTINUOUS
 62
     7
100
AcDbCircle
 10
310.0000000000202
 20
394.0000000000422
 30
0.0
 40
36.6910862168296
100
AcDbArc
 50
299.4738255989046
 51
312.5261744011277
  0
LINE
  5
2B2
330
1F
100
AcDbEntity
  8
LAY-10
  6
CONTINUOUS
 62
     7
100
AcDbLine
 10
322.918309875309
 20
437.9417993963431
 30
0.0
 11
321.0172354715627
 21
428.9979475161196
 31
0.0
  0
ARC
  5
2B3
330
1F
100
AcDbEntity
  8
LAY-10
  6
CONTINUOUS
 62
     7
100
AcDbCircle
 10
310.0000000000202
 20
394.0000000000422
 30
0.0
 40
36.6910862168296
100
AcDbArc
 50
59.47382559890456
 51
72.52617440112759
  0
LINE
  5
2B4
330
1F
100
AcDbEntity
  8
LAY-10
  6
CONTINUOUS
 62
     7
100
AcDbLine
 10
328.6365741474346
 20
425.6055993745453
 30
0.0
 11
334.011084323547
 21
433.0029780123347
 31
0.0
  0
ARC
  5
2B5
330
1F
100
AcDbEntity
  8
LAY-10
  6
CONTINUOUS
 62
     7
100
AcDbCircle
 10
303.9115042280511
 20
366.6699758647407
 30
0.0
 40
2.0
100
AcDbArc
 50
257.4409152746632
 51
351.5369590328129
  0
ARC
  5
2B6
330
1F
100
AcDbEntity
  8
LAY-10
  6
CONTINUOUS
 62
     7
100
AcDbCircle
 10
309.9999999999752
 20
394.0000000000258
 30
0.0
 40
30.00000000000002
100
AcDbArc
 50
242.5590847253362
 51
257.4409152746633
  0
ARC
  5
2B7
330
1F
100
AcDbEntity
  8
LAY-10
  6
CONTINUOUS
 62
     7
100
AcDbCircle
 10
297.0966574664154
 20
369.1503772370615
 30
0.0
 40
2.0
100
AcDbArc
 50
148.4630409671859
 51
242.559084725338
  0
LINE
  5
2B8
330
1F
100
AcDbEntity
  8
LAY-10
  6
CONTINUOUS
 62
     7
100
AcDbLine
 10
307.8370308592665
 20
379.4630964612271
 30
0.0
 11
305.8897262341687
 21
366.3756330467338
 31
0.0
  0
LINE
  5
2B9
330
1F
100
AcDbEntity
  8
LAY-10
  6
CONTINUOUS
 62
     7
100
AcDbLine
 10
295.3920515749584
 20
370.196474151697
 30
0.0
 11
302.3127890129044
 21
381.4737560601905
 31
0.0
  0
ARC
  5
2BA
330
1F
100
AcDbEntity
  8
LAY-10
  6
CONTINUOUS
 62
     7
100
AcDbCircle
 10
304.86969785009
 20
379.9046106882371
 30
0.0
 40
2.999999999999978
100
AcDbArc
 50
351.5369590328134
 51
148.4630409671855
  0
ARC
  5
2BB
330
1F
100
AcDbEntity
  8
LAY-10
  6
CONTINUOUS
 62
     7
100
AcDbCircle
 10
319.6418141453183
 20
405.490666646827
 30
0.0
 40
2.999999999999978
100
AcDbArc
 50
151.5369590328202
 51
308.4630409671877
  0
ARC
  5
2BC
330
1F
100
AcDbEntity
  8
LAY-10
  6
CONTINUOUS
 62
     7
100
AcDbCircle
 10
330.624247301257
 20
412.9378040770051
 30
0.0
 40
2.0
100
AcDbArc
 50
308.4630409671886
 51
42.55908472533762
  0
ARC
  5
2BD
330
1F
100
AcDbEntity
  8
LAY-10
  6
CONTINUOUS
 62
     7
100
AcDbCircle
 10
310.0000000000202
 20
394.0000000000422
 30
0.0
 40
30.00000000000002
100
AcDbArc
 50
42.55908472533659
 51
57.44091527466361
  0
ARC
  5
2BE
330
1F
100
AcDbEntity
  8
LAY-10
  6
CONTINUOUS
 62
     7
100
AcDbCircle
 10
325.0687333204275
 20
417.5994338093192
 30
0.0
 40
2.0
100
AcDbArc
 50
57.44091527466373
 51
151.5369590328125
  0
LINE
  5
2BF
330
1F
100
AcDbEntity
  8
LAY-10
  6
CONTINUOUS
 62
     7
100
AcDbLine
 10
323.3104838718043
 20
418.5526173574439
 30
0.0
 11
317.0044399723832
 21
406.9204419690139
 31
0.0
  0
LINE
  5
2C0
330
1F
100
AcDbEntity
  8
LAY-10
  6
CONTINUOUS
 62
     7
100
AcDbLine
 10
321.5078431866295
 20
403.1416379928972
 30
0.0
 11
331.8682666621311
 21
411.3717849743852
 31
0.0
  0
ARC
  5
2C1
330
1F
100
AcDbEntity
  8
LAY-10
  6
CONTINUOUS
 62
     7
100
AcDbCircle
 10
324.7721162952033
 20
396.6047226650462
 30
0.0
 40
2.999999999999978
100
AcDbArc
 50
111.5369590328154
 51
268.4630409671864
  0
ARC
  5
2C2
330
1F
100
AcDbEntity
  8
LAY-10
  6
CONTINUOUS
 62
     7
100
AcDbCircle
 10
337.9720758539872
 20
395.2501889537295
 30
0.0
 40
2.0
100
AcDbArc
 50
268.4630409671814
 51
2.559084725335831
  0
ARC
  5
2C3
330
1F
100
AcDbEntity
  8
LAY-10
  6
CONTINUOUS
 62
     7
100
AcDbCircle
 10
310.0000000000202
 20
394.0000000000422
 30
0.0
 40
30.00000000000002
100
AcDbArc
 50
2.559084725336519
 51
17.44091527466326
  0
ARC
  5
2C4
330
1F
100
AcDbEntity
  8
LAY-10
  6
CONTINUOUS
 62
     7
100
AcDbCircle
 10
336.7127430731809
 20
402.3922200583646
 30
0.0
 40
2.0
100
AcDbArc
 50
17.44091527466194
 51
111.5369590328173
  0
LINE
  5
2C5
330
1F
100
AcDbEntity
  8
LAY-10
  6
CONTINUOUS
 62
     7
100
AcDbLine
 10
335.9785404279374
 20
404.2525819789911
 30
0.0
 11
323.6708123273382
 21
399.3952655459862
 31
0.0
  0
LINE
  5
2C6
330
1F
100
AcDbEntity
  8
LAY-10
  6
CONTINUOUS
 62
     7
100
AcDbLine
 10
324.6916509594539
 20
393.6058019709059
 30
0.0
 11
337.9184322968207
 21
393.2509084909694
 31
0.0
  0
ARC
  5
2C7
330
1F
100
AcDbEntity
  8
LAY-10
  6
CONTINUOUS
 62
     7
100
AcDbCircle
 10
332.2314592396513
 20
376.9775965247212
 30
0.0
 40
2.0
100
AcDbArc
 50
228.4630409671815
 51
322.5590847253358
  0
ARC
  5
2C8
330
1F
100
AcDbEntity
  8
LAY-10
  6
CONTINUOUS
 62
     7
100
AcDbCircle
 10
310.0000000000202
 20
394.0000000000422
 30
0.0
 40
30.00000000000002
100
AcDbArc
 50
322.559084725337
 51
337.4409152746637
  0
ARC
  5
2C9
330
1F
100
AcDbEntity
  8
LAY-10
  6
CONTINUOUS
 62
     7
100
AcDbCircle
 10
335.8575634629323
 20
383.258193272984
 30
0.0
 40
2.0
100
AcDbArc
 50
337.4409152746617
 51
71.536959032815
  0
LINE
  5
2CA
330
1F
100
AcDbEntity
  8
LAY-10
  6
CONTINUOUS
 62
     7
100
AcDbLine
 10
321.0010719688461
 20
384.2544155877707
 30
0.0
 11
330.9052531810242
 21
375.4805402498734
 31
0.0
  0
LINE
  5
2CB
330
1F
100
AcDbEntity
  8
LAY-10
  6
CONTINUOUS
 62
     7
100
AcDbLine
 10
336.4909491985319
 20
385.1552495478317
 30
0.0
 11
323.9404596601861
 21
389.3455844123138
 31
0.0
  0
ARC
  5
2CC
330
1F
100
AcDbEntity
  8
LAY-10
  6
CONTINUOUS
 62
     7
100
AcDbCircle
 10
322.9903810567868
 20
386.5000000000422
 30
0.0
 40
2.999999999999978
100
AcDbArc
 50
71.53695903281466
 51
228.4630409671861
  0
ARC
  5
2CD
330
1F
100
AcDbEntity
  8
LAY-10
  6
CONTINUOUS
 62
     7
100
AcDbCircle
 10
316.088495771969
 20
366.6699758647407
 30
0.0
 40
2.0
100
AcDbArc
 50
188.4630409671873
 51
282.5590847253385
  0
ARC
  5
2CE
330
1F
100
AcDbEntity
  8
LAY-10
  6
CONTINUOUS
 62
     7
100
AcDbCircle
 10
310.000000000045
 20
394.0000000000258
 30
0.0
 40
30.00000000000002
100
AcDbArc
 50
282.559084725337
 51
297.4409152746638
  0
ARC
  5
2CF
330
1F
100
AcDbEntity
  8
LAY-10
  6
CONTINUOUS
 62
     7
100
AcDbCircle
 10
322.9033425336046
 20
369.1503772370615
 30
0.0
 40
2.0
100
AcDbArc
 50
297.4409152746643
 51
31.53695903281189
  0
LINE
  5
2D0
330
1F
100
AcDbEntity
  8
LAY-10
  6
CONTINUOUS
 62
     7
100
AcDbLine
 10
312.1629691407537
 20
379.4630964612271
 30
0.0
 11
314.1102737658513
 21
366.3756330467338
 31
0.0
  0
LINE
  5
2D1
330
1F
100
AcDbEntity
  8
LAY-10
  6
CONTINUOUS
 62
     7
100
AcDbLine
 10
324.6079484250617
 20
370.196474151697
 30
0.0
 11
317.6872109871156
 21
381.4737560601905
 31
0.0
  0
ARC
  5
2D2
330
1F
100
AcDbEntity
  8
LAY-10
  6
CONTINUOUS
 62
     7
100
AcDbCircle
 10
315.13030214993
 20
379.9046106882371
 30
0.0
 40
2.999999999999978
100
AcDbArc
 50
31.53695903281459
 51
188.4630409671868
  0
LINE
  5
2D3
330
1F
100
AcDbEntity
  8
LAY-10
  6
CONTINUOUS
 62
     7
100
AcDbLine
 10
370.1747455333316
 20
404.0000000000043
 30
0.0
 11
354.6963585118285
 21
404.0000000000043
 31
0.0
  0
LINE
  5
2D4
330
1F
100
AcDbEntity
  8
LAY-10
  6
CONTINUOUS
 62
     7
100
AcDbLine
 10
370.1747455333316
 20
384.0000000000043
 30
0.0
 11
354.6963585118115
 21
384.0000000000043
 31
0.0
  0
LINE
  5
2D5
330
1F
100
AcDbEntity
  8
LAY-10
  6
CONTINUOUS
 62
     7
100
AcDbLine
 10
314.0000000000058
 20
456.9537884250744
 30
0.0
 11
314.0000000000058
 21
454.8687111741374
 31
0.0
  0
LINE
  5
2D6
330
1F
100
AcDbEntity
  8
LAY-10
  6
CONTINUOUS
 62
     7
100
AcDbLine
 10
314.5000000000056
 20
456.4710272696499
 30
0.0
 11
314.5000000000056
 21
454.8337899526288
 31
0.0
  0
LINE
  5
2D7
330
1F
100
AcDbEntity
  8
LAY-10
  6
CONTINUOUS
 62
     7
100
AcDbLine
 10
306.0000000000058
 20
456.9537884250744
 30
0.0
 11
306.0000000000058
 21
454.8687111741368
 31
0.0
  0
LINE
  5
2D8
330
1F
100
AcDbEntity
  8
LAY-10
  6
CONTINUOUS
 62
     7
100
AcDbLine
 10
305.5000000000061
 20
454.8337899526282
 30
0.0
 11
305.5000000000061
 21
456.4710272696499
 31
0.0
  0
LINE
  5
2D9
330
1F
100
AcDbEntity
  8
LAY-10
  6
CONTINUOUS
 62
     7
100
AcDbLine
 10
314.5000000000056
 20
331.5289727303498
 30
0.0
 11
314.5000000000056
 21
333.1662100473797
 31
0.0
  0
LINE
  5
2DA
330
1F
100
AcDbEntity
  8
LAY-10
  6
CONTINUOUS
 62
     7
100
AcDbLine
 10
314.0000000000058
 20
331.0462115749254
 30
0.0
 11
314.0000000000058
 21
333.1312888258711
 31
0.0
  0
LINE
  5
2DB
330
1F
100
AcDbEntity
  8
LAY-10
  6
CONTINUOUS
 62
     7
100
AcDbLine
 10
306.0000000000058
 20
331.0462115749254
 30
0.0
 11
306.0000000000058
 21
333.1312888258717
 31
0.0
  0
LINE
  5
2DC
330
1F
100
AcDbEntity
  8
LAY-10
  6
CONTINUOUS
 62
     7
100
AcDbLine
 10
305.5000000000061
 20
333.1662100473803
 30
0.0
 11
305.5000000000061
 21
331.5289727303498
 31
0.0
  0
LINE
  5
2DD
330
1F
100
AcDbEntity
  8
LAY-10
  6
CONTINUOUS
 62
     7
100
AcDbLine
 10
249.2957991569058
 20
387.999999999998
 30
0.0
 11
247.2052591607585
 21
387.999999999998
 31
0.0
  0
LINE
  5
2DE
330
1F
100
AcDbEntity
  8
LAY-10
  6
CONTINUOUS
 62
     7
100
AcDbLine
 10
249.3473001425434
 20
387.4999999999981
 30
0.0
 11
247.7053032102746
 21
387.4999999999981
 31
0.0
  0
ARC
  5
2DF
330
1F
100
AcDbEntity
  8
LAY-10
  6
CONTINUOUS
 62
     7
100
AcDbCircle
 10
253.5000000000099
 20
393.999999999976
 30
0.0
 40
4.0
100
AcDbArc
 50
320.8995693455806
 51
39.10043065539987
  0
ARC
  5
2E0
330
1F
100
AcDbEntity
  8
LAY-10
  6
CONTINUOUS
 62
     7
100
AcDbCircle
 10
310.000000000014
 20
393.9999999999979
 30
0.0
 40
63.08073776573372
100
AcDbArc
 50
174.5419921960438
 51
178.7473936588414
  0
ARC
  5
2E1
330
1F
100
AcDbEntity
  8
LAY-10
  6
CONTINUOUS
 62
     7
100
AcDbCircle
 10
310.000000000014
 20
393.9999999999979
 30
0.0
 40
63.08073776573372
100
AcDbArc
 50
181.2526063411185
 51
185.4580078039555
  0
LINE
  5
2E2
330
1F
100
AcDbEntity
  8
LAY-10
  6
CONTINUOUS
 62
     7
100
AcDbLine
 10
249.2957991569046
 20
399.9999999999984
 30
0.0
 11
247.2052591607586
 21
399.9999999999984
 31
0.0
  0
LINE
  5
2E3
330
1F
100
AcDbEntity
  8
LAY-10
  6
CONTINUOUS
 62
     7
100
AcDbLine
 10
249.3473001425421
 20
400.4999999999981
 30
0.0
 11
247.7053032102746
 21
400.4999999999981
 31
0.0
  0
LINE
  5
2E4
330
1F
100
AcDbEntity
  8
LAY-10
  6
CONTINUOUS
 62
     7
100
AcDbLine
 10
370.7042008431154
 20
399.9999999999984
 30
0.0
 11
372.7947408392613
 21
399.9999999999984
 31
0.0
  0
LINE
  5
2E5
330
1F
100
AcDbEntity
  8
LAY-10
  6
CONTINUOUS
 62
     7
100
AcDbLine
 10
370.6526998574779
 20
400.4999999999981
 30
0.0
 11
372.2946967897453
 21
400.4999999999981
 31
0.0
  0
LINE
  5
2E6
330
1F
100
AcDbEntity
  8
LAY-10
  6
CONTINUOUS
 62
     7
100
AcDbLine
 10
370.7042008431142
 20
387.999999999998
 30
0.0
 11
372.7947408392614
 21
387.999999999998
 31
0.0
  0
LINE
  5
2E7
330
1F
100
AcDbEntity
  8
LAY-10
  6
CONTINUOUS
 62
     7
100
AcDbLine
 10
370.6526998574766
 20
387.4999999999981
 30
0.0
 11
372.2946967897453
 21
387.4999999999981
 31
0.0
  0
ARC
  5
2E8
330
1F
100
AcDbEntity
  8
LAY-10
  6
CONTINUOUS
 62
     7
100
AcDbCircle
 10
310.00000000001
 20
394.0000000000043
 30
0.0
 40
61.00000000000004
100
AcDbArc
 50
184.1510401851067
 51
355.848959814893
  0
ARC
  5
2E9
330
1F
100
AcDbEntity
  8
LAY-10
  6
CONTINUOUS
 62
     7
100
AcDbCircle
 10
366.5000000000095
 20
393.999999999976
 30
0.0
 40
4.0
100
AcDbArc
 50
140.8995693445214
 51
219.1004306544983
  0
ARC
  5
2EA
330
1F
100
AcDbEntity
  8
LAY-10
  6
CONTINUOUS
 62
     7
100
AcDbCircle
 10
310.00000000001
 20
394.0000000000043
 30
0.0
 40
61.00000000000004
100
AcDbArc
 50
4.151040185136621
 51
175.8489598148638
  0
LINE
  5
2EB
330
1F
100
AcDbEntity
  8
LAY-10
  6
CONTINUOUS
 62
     7
100
AcDbLine
 10
373.0807377657478
 20
184.9999999999982
 30
0.0
 11
254.5000000000105
 21
184.9999999999982
 31
0.0
  0
LINE
  5
2EC
330
1F
100
AcDbEntity
  8
LAY-10
  6
CONTINUOUS
 62
     7
100
AcDbLine
 10
386.0000000000024
 20
183.0000000000037
 30
0.0
 11
386.0000000000024
 21
184.0000000000019
 31
0.0
  0
LINE
  5
2ED
330
1F
100
AcDbEntity
  8
LAY-10
  6
CONTINUOUS
 62
     7
100
AcDbLine
 10
381.0000000000031
 20
183.0000000000037
 30
0.0
 11
381.0000000000031
 21
184.000000000003
 31
0.0
  0
LINE
  5
2EE
330
1F
100
AcDbEntity
  8
LAY-10
  6
CONTINUOUS
 62
     7
100
AcDbLine
 10
381.0000000000031
 20
184.000000000003
 30
0.0
 11
386.0000000000024
 21
184.000000000003
 31
0.0
  0
LINE
  5
2EF
330
1F
100
AcDbEntity
  8
LAY-10
  6
CONTINUOUS
 62
     7
100
AcDbLine
 10
380.4999999999999
 20
182.500000000003
 30
0.0
 11
386.4999999999999
 21
182.500000000003
 31
0.0
  0
LINE
  5
2F0
330
1F
100
AcDbEntity
  8
LAY-10
  6
CONTINUOUS
 62
     7
100
AcDbLine
 10
380.9999999999999
 20
183.0000000000037
 30
0.0
 11
385.9999999999999
 21
183.0000000000037
 31
0.0
  0
LINE
  5
2F1
330
1F
100
AcDbEntity
  8
LAY-10
  6
CONTINUOUS
 62
     7
100
AcDbLine
 10
383.5000000000001
 20
185.4433756729787
 30
0.0
 11
386.000000000001
 21
184.0000000000041
 31
0.0
  0
LINE
  5
2F2
330
1F
100
AcDbEntity
  8
LAY-10
  6
CONTINUOUS
 62
     7
100
AcDbLine
 10
383.4999999999997
 20
185.4433756729785
 30
0.0
 11
380.9999999999992
 21
184.0000000000041
 31
0.0
  0
LINE
  5
2F3
330
1F
100
AcDbEntity
  8
LAY-10
  6
CONTINUOUS
 62
     7
100
AcDbLine
 10
397.9999999999994
 20
153.0000000000124
 30
0.0
 11
397.9999999999994
 21
158.0000000000122
 31
0.0
  0
LINE
  5
2F4
330
1F
100
AcDbEntity
  8
LAY-10
  6
CONTINUOUS
 62
     7
100
AcDbLine
 10
387.999999999999
 20
158.0000000000122
 30
0.0
 11
397.9999999999994
 21
158.0000000000122
 31
0.0
  0
ARC
  5
2F5
330
1F
100
AcDbEntity
  8
LAY-10
  6
CONTINUOUS
 62
     7
100
AcDbCircle
 10
387.999999999999
 20
160.0000000000124
 30
0.0
 40
2.0
100
AcDbArc
 50
180.0
 51
270.0000000000002
  0
LINE
  5
2F6
330
1F
100
AcDbEntity
  8
LAY-10
  6
CONTINUOUS
 62
     7
100
AcDbLine
 10
387.999999999999
 20
153.0000000000124
 30
0.0
 11
397.9999999999994
 21
153.0000000000124
 31
0.0
  0
ARC
  5
2F7
330
1F
100
AcDbEntity
  8
LAY-10
  6
CONTINUOUS
 62
     7
100
AcDbCircle
 10
387.999999999999
 20
160.0000000000124
 30
0.0
 40
7.000000000000004
100
AcDbArc
 50
180.0
 51
270.0000000000002
  0
LINE
  5
2F8
330
1F
100
AcDbEntity
  8
LAY-10
  6
CONTINUOUS
 62
     7
100
AcDbLine
 10
385.9999999999999
 20
160.0000000000079
 30
0.0
 11
385.9999999999999
 21
175.0000000000076
 31
0.0
  0
LINE
  5
2F9
330
1F
100
AcDbEntity
  8
LAY-10
  6
CONTINUOUS
 62
     7
100
AcDbLine
 10
380.9999999999999
 20
160.0000000000079
 30
0.0
 11
380.9999999999999
 21
175.0000000000076
 31
0.0
  0
LINE
  5
2FA
330
1F
100
AcDbEntity
  8
LAY-10
  6
CONTINUOUS
 62
     7
100
AcDbLine
 10
381.0000000000031
 20
181.0000000000125
 30
0.0
 11
386.0000000000024
 21
181.0000000000125
 31
0.0
  0
LINE
  5
2FB
330
1F
100
AcDbEntity
  8
LAY-10
  6
CONTINUOUS
 62
     7
100
AcDbLine
 10
380.5000000000017
 20
180.500000000014
 30
0.0
 11
386.5000000000008
 21
180.500000000014
 31
0.0
  0
LINE
  5
2FC
330
1F
100
AcDbEntity
  8
LAY-10
  6
CONTINUOUS
 62
     7
100
AcDbLine
 10
386.0000000000024
 20
183.0000000000037
 30
0.0
 11
386.0000000000024
 21
181.0000000000125
 31
0.0
  0
LINE
  5
2FD
330
1F
100
AcDbEntity
  8
LAY-10
  6
CONTINUOUS
 62
     7
100
AcDbLine
 10
381.0000000000031
 20
183.0000000000037
 30
0.0
 11
381.0000000000031
 21
181.0000000000125
 31
0.0
  0
LINE
  5
2FE
330
1F
100
AcDbEntity
  8
LAY-10
  6
CONTINUOUS
 62
     7
100
AcDbLine
 10
386.4999999999999
 20
180.5000000000179
 30
0.0
 11
385.9999999999999
 21
181.0000000000079
 31
0.0
  0
LINE
  5
2FF
330
1F
100
AcDbEntity
  8
LAY-10
  6
CONTINUOUS
 62
     7
100
AcDbLine
 10
380.9999999999999
 20
181.0000000000079
 30
0.0
 11
380.4999999999999
 21
180.5000000000179
 31
0.0
  0
LINE
  5
300
330
1F
100
AcDbEntity
  8
LAY-10
  6
CONTINUOUS
 62
     7
100
AcDbLine
 10
380.4999999999999
 20
180.5000000000179
 30
0.0
 11
380.4999999999999
 21
175.0000000000079
 31
0.0
  0
LINE
  5
301
330
1F
100
AcDbEntity
  8
LAY-10
  6
CONTINUOUS
 62
     7
100
AcDbLine
 10
386.4999999999999
 20
180.5000000000179
 30
0.0
 11
386.4999999999999
 21
175.0000000000079
 31
0.0
  0
LINE
  5
302
330
1F
100
AcDbEntity
  8
LAY-10
  6
CONTINUOUS
 62
     7
100
AcDbLine
 10
273.4812424915498
 20
147.0000000000026
 30
0.0
 11
346.518757508458
 21
147.0000000000026
 31
0.0
  0
LINE
  5
303
330
1F
100
AcDbEntity
  8
LAY-10
  6
CONTINUOUS
 62
     7
100
AcDbLine
 10
272.44999999999
 20
146.000000000006
 30
0.0
 11
273.48124249155
 21
147.000000000006
 31
0.0
  0
LINE
  5
304
330
1F
100
AcDbEntity
  8
LAY-10
  6
CONTINUOUS
 62
     7
100
AcDbLine
 10
347.55000000002
 20
146.000000000006
 30
0.0
 11
346.51875750846
 21
147.000000000006
 31
0.0
  0
LINE
  5
305
330
1F
100
AcDbEntity
  8
LAY-10
  6
CONTINUOUS
 62
     7
100
AcDbLine
 10
346.5187575084579
 20
147.0000000000059
 30
0.0
 11
346.0572190469183
 21
162.0000000000004
 31
0.0
  0
LINE
  5
306
330
1F
100
AcDbEntity
  8
LAY-10
  6
CONTINUOUS
 62
     7
100
AcDbLine
 10
273.4812424915499
 20
147.000000000006
 30
0.0
 11
273.9427809530895
 21
162.0000000000004
 31
0.0
  0
LINE
  5
307
330
1F
100
AcDbEntity
  8
LAY-10
  6
CENTER
 62
     2
100
AcDbLine
 10
310.0000000000139
 20
234.3206694752
 30
0.0
 11
310.0000000000139
 21
129.8206694752
 31
0.0
  0
LINE
  5
308
330
1F
100
AcDbEntity
  8
LAY-10
  6
CENTER
 62
     2
100
AcDbLine
 10
252.000000000014
 20
198.4206694752
 30
0.0
 11
252.000000000014
 21
174.1206694751999
 31
0.0
  0
LINE
  5
309
330
1F
100
AcDbEntity
  8
LAY-10
  6
CENTER
 62
     2
100
AcDbLine
 10
222.5000000000099
 20
393.9999999999999
 30
0.0
 11
397.5000000000099
 21
393.9999999999999
 31
0.0
  0
LINE
  5
30A
330
1F
100
AcDbEntity
  8
LAY-10
  6
CENTER
 62
     2
100
AcDbLine
 10
310.0000000000099
 20
306.4999999999998
 30
0.0
 11
310.0000000000099
 21
481.4999999999999
 31
0.0
  0
LINE
  5
30B
330
1F
100
AcDbEntity
  8
LAY-10
  6
CENTER
 62
     2
100
AcDbLine
 10
252.0000000000103
 20
387.4999999999981
 30
0.0
 11
252.0000000000103
 21
400.4999999999981
 31
0.0
  0
LINE
  5
30C
330
1F
100
AcDbEntity
  8
LAY-10
  6
CENTER
 62
     2
100
AcDbLine
 10
368.0000000000103
 20
387.4999999999981
 30
0.0
 11
368.0000000000103
 21
400.4999999999981
 31
0.0
  0
LINE
  5
30D
330
1F
100
AcDbEntity
  8
LAY-10
  6
CENTER
 62
     2
100
AcDbLine
 10
399.1999999999988
 20
155.5000000000135
 30
0.0
 11
387.9999999999999
 21
155.5000000000135
 31
0.0
  0
ARC
  5
30E
330
1F
100
AcDbEntity
  8
LAY-10
  6
CENTER
 62
     2
100
AcDbCircle
 10
387.9999999999999
 20
160.0000000000135
 30
0.0
 40
4.5
100
AcDbArc
 50
180.0
 51
270.0000000000002
  0
LINE
  5
30F
330
1F
100
AcDbEntity
  8
LAY-10
  6
CENTER
 62
     2
100
AcDbLine
 10
383.5000000000001
 20
186.2013587594978
 30
0.0
 11
383.5000000000001
 21
160.0000000000135
 31
0.0
  0
LINE
  5
310
330
1F
100
AcDbEntity
  8
LAY-10
  6
CONTINUOUS
 62
     7
100
AcDbLine
 10
249.0000000000101
 20
178.9999999999996
 30
0.0
 11
255.0000000000097
 21
178.9999999999996
 31
0.0
  0
LINE
  5
311
330
1F
100
AcDbEntity
  8
LAY-10
  6
CONTINUOUS
 62
     7
100
AcDbLine
 10
254.5000000000105
 20
192.5000000000005
 30
0.0
 11
254.5000000000105
 21
180.5000000000026
 31
0.0
  0
LINE
  5
312
330
1F
100
AcDbEntity
  8
LAY-10
  6
CONTINUOUS
 62
     7
100
AcDbLine
 10
249.5000000000104
 20
192.5000000000005
 30
0.0
 11
249.5000000000104
 21
180.5000000000026
 31
0.0
  0
LINE
  5
313
330
1F
100
AcDbEntity
  8
LAY-10
  6
CONTINUOUS
 62
     7
100
AcDbLine
 10
249.0000000000101
 20
178.9999999999996
 30
0.0
 11
249.0000000000101
 21
181.0
 31
0.0
  0
LINE
  5
314
330
1F
100
AcDbEntity
  8
LAY-10
  6
CONTINUOUS
 62
     7
100
AcDbLine
 10
255.0000000000097
 20
178.9999999999996
 30
0.0
 11
255.0000000000097
 21
181.0
 31
0.0
  0
LINE
  5
315
330
1F
100
AcDbEntity
  8
LAY-10
  6
CONTINUOUS
 62
     7
100
AcDbLine
 10
386.5000000000008
 20
182.500000000003
 30
0.0
 11
386.0000000000024
 21
183.0000000000037
 31
0.0
  0
LINE
  5
316
330
1F
100
AcDbEntity
  8
LAY-10
  6
CONTINUOUS
 62
     7
100
AcDbLine
 10
380.5000000000017
 20
182.500000000003
 30
0.0
 11
381.0000000000031
 21
183.0000000000037
 31
0.0
  0
LINE
  5
317
330
1F
100
AcDbEntity
  8
LAY-10
  6
CONTINUOUS
 62
     7
100
AcDbLine
 10
386.5000000000008
 20
182.500000000003
 30
0.0
 11
386.5000000000008
 21
180.500000000014
 31
0.0
  0
LINE
  5
318
330
1F
100
AcDbEntity
  8
LAY-10
  6
CONTINUOUS
 62
     7
100
AcDbLine
 10
380.5000000000017
 20
182.500000000003
 30
0.0
 11
380.5000000000017
 21
180.500000000014
 31
0.0
  0
LINE
  5
319
330
1F
100
AcDbEntity
  8
LAY-10
  6
CONTINUOUS
 62
     7
100
AcDbLine
 10
385.9999999999999
 20
181.0000000000079
 30
0.0
 11
385.9999999999999
 21
175.0000000000079
 31
0.0
  0
LINE
  5
31A
330
1F
100
AcDbEntity
  8
LAY-10
  6
CONTINUOUS
 62
     7
100
AcDbLine
 10
380.9999999999999
 20
181.0000000000079
 30
0.0
 11
380.9999999999999
 21
175.0000000000079
 31
0.0
  0
LINE
  5
31B
330
1F
100
AcDbEntity
  8
LAY-10
  6
CONTINUOUS
 62
     7
100
AcDbLine
 10
380.9999999999817
 20
174.1339745962129
 30
0.0
 11
380.4999999999817
 21
174.9999999999975
 31
0.0
  0
LINE
  5
31C
330
1F
100
AcDbEntity
  8
LAY-10
  6
CONTINUOUS
 62
     7
100
AcDbLine
 10
386.0000000000119
 20
174.1339745962165
 30
0.0
 11
386.5000000000119
 21
175.000000000001
 31
0.0
  0
LINE
  5
31D
330
1F
100
AcDbEntity
  8
LAY-10
  6
CONTINUOUS
 62
     7
100
AcDbLine
 10
272.9423076922961
 20
162.0000000000004
 30
0.0
 11
272.44999999999
 21
146.000000000096
 31
0.0
  0
LINE
  5
31E
330
1F
100
AcDbEntity
  8
LAY-10
  6
CONTINUOUS
 62
     7
100
AcDbLine
 10
347.0576923077117
 20
162.0000000000004
 30
0.0
 11
347.5500000000178
 21
146.000000000096
 31
0.0
  0
DIMENSION
  5
320
330
1F
100
AcDbEntity
  8
LAY-20
  6
CONTINUOUS
 62
     4
100
AcDbDimension
  2
*D15
 10
207.50000000001
 20
193.0
 30
0.0
 11
202.50000000001
 21
173.00000000006
 31
0.0
 70
   160
  3
ISO-25
100
AcDbAlignedDimension
 13
265.50000000001
 23
153.00000000012
 33
0.0
 14
228.50000000001
 24
193.0
 34
0.0
 50
90.0
100
AcDbRotatedDimension
1001
ACAD
1000
DSTYLE
1002
{
1070
   270
1070
     2
1070
     6
1000
EX_BNORM
1070
     7
1000
EX_BNORM
1070
    41
1040
5.0
1070
    42
1040
3.0
1070
    44
1040
3.0
1070
    73
1070
     0
1070
    74
1070
     0
1070
    75
1070
     0
1070
    76
1070
     0
1070
    77
1070
     1
1070
    78
1070
     8
1070
   140
1040
6.2362208
1070
   147
1040
0.0
1070
   173
1070
     1
1070
   176
1070
     4
1070
   177
1070
     4
1070
   178
1070
     7
1070
   271
1070
     1
1070
   277
1070
     2
1070
   279
1070
     2
1070
   280
1070
     0
1070
   287
1070
     5
1070
   340
1005
31F
1002
}
  0
DIMENSION
  5
32E
330
1F
100
AcDbEntity
  8
LAY-20
  6
CONTINUOUS
 62
     4
100
AcDbDimension
  2
*D16
 10
412.50000000002
 20
193.0
 30
0.0
 11
407.50000000002
 21
163.0
 31
0.0
 70
   160
  3
ISO-25
100
AcDbAlignedDimension
 13
354.50000000001
 23
133.0
 33
0.0
 14
391.50000000001
 24
193.0
 34
0.0
 50
90.0
100
AcDbRotatedDimension
1001
ACAD
1000
DSTYLE
1002
{
1070
   270
1070
     2
1070
     6
1000
EX_BNORM
1070
     7
1000
EX_BNORM
1070
    41
1040
5.0
1070
    42
1040
3.0
1070
    44
1040
3.0
1070
    73
1070
     0
1070
    74
1070
     0
1070
    75
1070
     0
1070
    76
1070
     0
1070
    77
1070
     1
1070
    78
1070
     8
1070
   140
1040
6.2362208
1070
   147
1040
0.0
1070
   173
1070
     1
1070
   176
1070
     4
1070
   177
1070
     4
1070
   178
1070
     7
1070
   271
1070
     1
1070
   277
1070
     2
1070
   279
1070
     2
1070
   280
1070
     0
1070
   287
1070
     5
1070
   340
1005
31F
1002
}
  0
DIMENSION
  5
33B
330
1F
100
AcDbEntity
  8
LAY-20
  6
CONTINUOUS
 62
     4
100
AcDbDimension
  2
*D17
 10
412.50000000002
 20
193.0
 30
0.0
 11
407.50000000002
 21
211.5
 31
0.0
 70
   160
  3
ISO-25
100
AcDbAlignedDimension
 13
340.47942913438
 23
230.0
 33
0.0
 14
412.50000000002
 24
193.0
 34
0.0
 50
90.0
100
AcDbRotatedDimension
1001
ACAD
1000
DSTYLE
1002
{
1070
   270
1070
     2
1070
     6
1000
EX_BNORM
1070
     7
1000
EX_BNORM
1070
    41
1040
5.0
1070
    42
1040
3.0
1070
    44
1040
3.0
1070
    73
1070
     0
1070
    74
1070
     0
1070
    75
1070
     0
1070
    76
1070
     1
1070
    77
1070
     1
1070
    78
1070
     8
1070
   140
1040
6.2362208
1070
   147
1040
0.0
1070
   173
1070
     1
1070
   176
1070
     4
1070
   177
1070
     4
1070
   178
1070
     7
1070
   271
1070
     1
1070
   277
1070
     2
1070
   279
1070
     2
1070
   280
1070
     0
1070
   287
1070
     5
1070
   340
1005
31F
1002
}
  0
DIMENSION
  5
347
330
1F
100
AcDbEntity
  8
LAY-20
  6
CONTINUOUS
 62
     4
100
AcDbDimension
  2
*D18
 10
347.55000000003
 20
113.0
 30
0.0
 11
310.00000000001
 21
118.0
 31
0.0
 70
   160
  1
Rｃ21/2(<>)
  3
ISO-25
100
AcDbAlignedDimension
 13
272.44999999999
 23
146.0
 33
0.0
 14
347.55000000003
 24
146.0
 34
0.0
100
AcDbRotatedDimension
1001
ACAD
1000
DSTYLE
1002
{
1070
   270
1070
     2
1070
     6
1000
EX_BNORM
1070
     7
1000
EX_BNORM
1070
    41
1040
6.0
1070
    42
1040
3.0
1070
    44
1040
3.0
1070
    73
1070
     0
1070
    74
1070
     0
1070
    75
1070
     0
1070
    76
1070
     0
1070
    77
1070
     1
1070
    78
1070
     8
1070
   140
1040
6.2362208
1070
   147
1040
0.0
1070
   173
1070
     1
1070
   176
1070
     4
1070
   177
1070
     4
1070
   178
1070
     7
1070
   271
1070
     1
1070
   277
1070
     2
1070
   279
1070
     2
1070
   280
1070
     0
1070
   287
1070
     5
1070
   340
1005
31F
1002
}
  0
DIMENSION
  5
354
330
1F
100
AcDbEntity
  8
LAY-20
  6
CONTINUOUS
 62
     4
100
AcDbDimension
  2
*D19
 10
371.00000000002
 20
250.0
 30
0.0
 11
310.000000000015
 21
255.0
 31
0.0
 70
   160
  1
%%c<>
  3
ISO-25
100
AcDbAlignedDimension
 13
249.00000000001
 23
192.5
 33
0.0
 14
371.00000000002
 24
193.0
 34
0.0
100
AcDbRotatedDimension
1001
ACAD
1000
DSTYLE
1002
{
1070
   270
1070
     2
1070
     6
1000
EX_BNORM
1070
     7
1000
EX_BNORM
1070
    41
1040
6.0
1070
    42
1040
3.0
1070
    44
1040
3.0
1070
    73
1070
     0
1070
    74
1070
     0
1070
    75
1070
     0
1070
    76
1070
     0
1070
    77
1070
     1
1070
    78
1070
     8
1070
   140
1040
6.2362208
1070
   147
1040
0.0
1070
   173
1070
     1
1070
   176
1070
     4
1070
   177
1070
     4
1070
   178
1070
     7
1070
   271
1070
     1
1070
   277
1070
     2
1070
   279
1070
     2
1070
   280
1070
     0
1070
   287
1070
     5
1070
   340
1005
31F
1002
}
  0
DIMENSION
  5
361
330
1F
100
AcDbEntity
  8
LAY-20
  6
CONTINUOUS
 62
     4
100
AcDbDimension
  2
*D20
 10
373.50000000001
 20
264.0
 30
0.0
 11
310.000000000015
 21
269.0
 31
0.0
 70
   160
  1
%%c<>
  3
ISO-25
100
AcDbAlignedDimension
 13
246.50000000002
 23
196.0
 33
0.0
 14
373.50000000001
 24
196.0
 34
0.0
100
AcDbRotatedDimension
1001
ACAD
1000
DSTYLE
1002
{
1070
   270
1070
     2
1070
     6
1000
EX_BNORM
1070
     7
1000
EX_BNORM
1070
    41
1040
6.0
1070
    42
1040
0.0
1070
    44
1040
0.0
1070
    73
1070
     0
1070
    74
1070
     0
1070
    75
1070
     0
1070
    76
1070
     0
1070
    77
1070
     1
1070
    78
1070
     8
1070
   140
1040
6.2362208
1070
   147
1040
0.0
1070
   173
1070
     1
1070
   176
1070
     4
1070
   177
1070
     4
1070
   178
1070
     7
1070
   271
1070
     1
1070
   277
1070
     2
1070
   279
1070
     2
1070
   280
1070
     0
1070
   287
1070
     5
1070
   340
1005
31F
1002
}
  0
DIMENSION
  5
36E
330
1F
100
AcDbEntity
  8
LAY-20
  6
CONTINUOUS
 62
     4
100
AcDbDimension
  2
*D21
 10
392.50000000002
 20
278.0
 30
0.0
 11
310.000000000015
 21
283.0
 31
0.0
 70
   160
  1
%%c<>
  3
ISO-25
100
AcDbAlignedDimension
 13
227.50000000001
 23
189.0
 33
0.0
 14
392.50000000002
 24
189.00000000006
 34
0.0
100
AcDbRotatedDimension
1001
ACAD
1000
DSTYLE
1002
{
1070
   270
1070
     2
1070
     6
1000
EX_BNORM
1070
     7
1000
EX_BNORM
1070
    41
1040
6.0
1070
    42
1040
3.0
1070
    44
1040
3.0
1070
    73
1070
     0
1070
    74
1070
     0
1070
    75
1070
     0
1070
    76
1070
     0
1070
    77
1070
     1
1070
    78
1070
     8
1070
   140
1040
6.2362208
1070
   147
1040
0.0
1070
   173
1070
     1
1070
   176
1070
     4
1070
   177
1070
     4
1070
   178
1070
     7
1070
   271
1070
     1
1070
   277
1070
     2
1070
   279
1070
     2
1070
   280
1070
     0
1070
   287
1070
     5
1070
   340
1005
31F
1002
}
  0
LINE
  5
37B
330
1F
100
AcDbEntity
  8
LAY-255
  6
CONTINUOUS
 62
     7
100
AcDbLine
 10
770.0
 20
43.99999999999999
 30
0.0
 11
570.0
 21
43.99999999999999
 31
0.0
  0
LINE
  5
37C
330
1F
100
AcDbEntity
  8
LAY-255
  6
CONTINUOUS
 62
     7
100
AcDbLine
 10
577.6
 20
32.0
 30
0.0
 11
593.6
 21
42.0
 31
0.0
  0
LINE
  5
37D
330
1F
100
AcDbEntity
  8
LAY-255
  6
CONTINUOUS
 62
     7
100
AcDbLine
 10
593.6
 20
42.0
 30
0.0
 11
609.6
 21
32.0
 31
0.0
  0
LINE
  5
37E
330
1F
100
AcDbEntity
  8
LAY-255
  6
CONTINUOUS
 62
     7
100
AcDbLine
 10
609.6
 20
32.0
 30
0.0
 11
593.6
 21
22.0
 31
0.0
  0
LINE
  5
37F
330
1F
100
AcDbEntity
  8
LAY-255
  6
CONTINUOUS
 62
     7
100
AcDbLine
 10
593.6
 20
22.0
 30
0.0
 11
577.6
 21
32.0
 31
0.0
  0
LINE
  5
380
330
1F
100
AcDbEntity
  8
LAY-255
  6
CONTINUOUS
 62
     7
100
AcDbLine
 10
10.0
 20
20.0
 30
0.0
 11
770.0000000000001
 21
20.0
 31
0.0
  0
LINE
  5
381
330
1F
100
AcDbEntity
  8
LAY-255
  6
CONTINUOUS
 62
     7
100
AcDbLine
 10
10.0
 20
560.0
 30
0.0
 11
770.0000000000001
 21
560.0
 31
0.0
  0
LINE
  5
382
330
1F
100
AcDbEntity
  8
LAY-255
  6
CONTINUOUS
 62
     7
100
AcDbLine
 10
10.0
 20
20.0
 30
0.0
 11
10.0
 21
560.0
 31
0.0
  0
LINE
  5
383
330
1F
100
AcDbEntity
  8
LAY-255
  6
CONTINUOUS
 62
     7
100
AcDbLine
 10
770.0
 20
20.0
 30
0.0
 11
770.0
 21
560.0
 31
0.0
  0
LINE
  5
384
330
1F
100
AcDbEntity
  8
LAY-255
  6
CONTINUOUS
 62
     4
100
AcDbLine
 10
570.0
 20
55.99999999999999
 30
0.0
 11
770.0000000000001
 21
55.99999999999999
 31
0.0
  0
LINE
  5
385
330
1F
100
AcDbEntity
  8
LAY-255
  6
CONTINUOUS
 62
     7
100
AcDbLine
 10
570.0
 20
20.0
 30
0.0
 11
570.0
 21
134.0
 31
0.0
  0
LINE
  5
386
330
1F
100
AcDbEntity
  8
LAY-255
  6
CONTINUOUS
 62
     4
100
AcDbLine
 10
670.0
 20
55.99999999999999
 30
0.0
 11
670.0
 21
44.0
 31
0.0
  0
LINE
  5
387
330
1F
100
AcDbEntity
  8
LAY-255
  6
CONTINUOUS
 62
     7
100
AcDbLine
 10
770.0000000000001
 20
134.0
 30
0.0
 11
570.0
 21
134.0
 31
0.0
  0
LINE
  5
388
330
1F
100
AcDbEntity
  8
LAY-255
  6
CONTINUOUS
 62
     4
100
AcDbLine
 10
766.0
 20
110.0
 30
0.0
 11
574.0
 21
110.0
 31
0.0
  0
LINE
  5
389
330
1F
100
AcDbEntity
  8
LAY-255
  6
CONTINUOUS
 62
     4
100
AcDbLine
 10
766.0
 20
122.0
 30
0.0
 11
574.0
 21
122.0
 31
0.0
  0
POINT
  5
38A
330
1F
100
AcDbEntity
  8
LAY-255
  6
CONTINUOUS
 62
     7
100
AcDbPoint
 10
578.0
 20
100.0
 30
0.0
  0
POINT
  5
38B
330
1F
100
AcDbEntity
  8
LAY-255
  6
CONTINUOUS
 62
     7
100
AcDbPoint
 10
600.0
 20
112.0
 30
0.0
  0
POINT
  5
38C
330
1F
100
AcDbEntity
  8
LAY-255
  6
CONTINUOUS
 62
     7
100
AcDbPoint
 10
600.0
 20
124.0
 30
0.0
  0
POINT
  5
38D
330
1F
100
AcDbEntity
  8
LAY-255
  6
CONTINUOUS
 62
     7
100
AcDbPoint
 10
578.0
 20
80.0
 30
0.0
  0
POINT
  5
38E
330
1F
100
AcDbEntity
  8
LAY-255
  6
CONTINUOUS
 62
     7
100
AcDbPoint
 10
578.0
 20
90.0
 30
0.0
  0
POINT
  5
38F
330
1F
100
AcDbEntity
  8
LAY-255
  6
CONTINUOUS
 62
     7
100
AcDbPoint
 10
578.0
 20
69.99999999999999
 30
0.0
  0
POINT
  5
390
330
1F
100
AcDbEntity
  8
LAY-255
  6
CONTINUOUS
 62
     7
100
AcDbPoint
 10
578.0
 20
59.99999999999997
 30
0.0
  0
TEXT
  5
391
330
1F
100
AcDbEntity
  8
LAY-255
  6
CONTINUOUS
 62
     7
100
AcDbText
 10
616.2767579736328
 20
31.0875
 30
0.0
 40
10.3125
  1
福西鋳物株式会社
 41
1.342692319347662
  7
EXCADSTD
100
AcDbText
  0
TEXT
  5
392
330
1F
100
AcDbEntity
  8
LAY-255
  6
CONTINUOUS
 62
     7
100
AcDbText
 10
617.0187500000001
 20
23.9625
 30
0.0
 40
3.4375
  1
ＦＵＫＵＮＩＳＨＩ
 41
1.204799226045263
  7
EXCADSTD
100
AcDbText
  0
TEXT
  5
393
330
1F
100
AcDbEntity
  8
LAY-255
  6
CONTINUOUS
 62
     7
100
AcDbText
 10
665.4383928571428
 20
23.9625
 30
0.0
 40
3.4375
  1
ＦＯＵＮＤＲＹ
 41
1.243252752978497
  7
EXCADSTD
100
AcDbText
  0
TEXT
  5
394
330
1F
100
AcDbEntity
  8
LAY-255
  6
CONTINUOUS
 62
     7
100
AcDbText
 10
703.9891823858172
 20
23.9625
 30
0.0
 40
3.4375
  1
ＣＯ.,ＬＴＤ.
 41
1.243830523306697
  7
EXCADSTD
100
AcDbText
  0
TEXT
  5
395
330
1F
100
AcDbEntity
  8
LAY-255
  6
CONTINUOUS
 62
     7
100
AcDbText
 10
588.06875
 20
27.4375
 30
0.0
 40
10.3125
  1
S
 41
0.7582677563636363
  7
EXCADSTD
100
AcDbText
  0
TEXT
  5
396
330
1F
100
AcDbEntity
  8
LAY-255
  6
CONTINUOUS
 62
     7
100
AcDbText
 10
594.209375
 20
27.49882075472
 30
0.0
 40
10.3125
  1
F
 41
0.7440945272727272
  7
EXCADSTD
100
AcDbText
  0
TEXT
  5
397
330
1F
100
AcDbEntity
  8
LAY-255
  6
CONTINUOUS
 62
     7
100
AcDbText
 10
674.2109375
 20
48.84374999999998
 30
0.0
 40
5.15625
  1
縮尺
 41
1.080708718181818
  7
EXCADSTD
100
AcDbText
  0
TEXT
  5
398
330
1F
100
AcDbEntity
  8
LAY-255
  6
CONTINUOUS
 62
     7
100
AcDbText
 10
574.53125
 20
113.125
 30
0.0
 40
6.875
  1
型式
 41
1.056348480681818
  7
EXCADSTD
100
AcDbText
  0
TEXT
  5
399
330
1F
100
AcDbEntity
  8
LAY-255
  6
CONTINUOUS
 62
     7
100
AcDbText
 10
574.84375
 20
125.125
 30
0.0
 40
6.875
  1
品名
 41
0.978838634090909
  7
EXCADSTD
100
AcDbText
  0
TEXT
  5
39A
330
1F
100
AcDbEntity
  8
LAY-255
  6
CONTINUOUS
 62
     7
100
AcDbText
 10
574.3046875
 20
48.84374999999998
 30
0.0
 40
5.15625
  1
作成日
 41
1.000629973818182
  7
EXCADSTD
100
AcDbText
  0
TEXT
  5
39B
330
1F
100
AcDbEntity
  8
LAY-255
  6
CONTINUOUS
 62
     7
100
AcDbText
 10
578.375
 20
71.12500000000001
 30
0.0
 40
6.875
  1
施工：打込用
 41
1.018700840909091
  7
EXCADSTD
100
AcDbText
  0
TEXT
  5
39C
330
1F
100
AcDbEntity
  8
LAY-255
  6
CONTINUOUS
 62
     7
100
AcDbText
 10
600.5
 20
125.125
 30
0.0
 40
6.875
  1
ルーフドレイン
 41
1.021169538599106
  7
EXCADSTD
100
AcDbText
  0
TEXT
  5
39D
330
1F
100
AcDbEntity
  8
LAY-255
  6
CONTINUOUS
 62
     7
100
AcDbText
 10
578.75
 20
101.125
 30
0.0
 40
6.875
  1
防水：モルタル・塗膜防水兼用
 41
1.008985320967742
  7
EXCADSTD
100
AcDbText
  0
TEXT
  5
39E
330
1F
100
AcDbEntity
  8
LAY-255
  6
CONTINUOUS
 62
     7
100
AcDbText
 10
578.28125
 20
91.12500000000001
 30
0.0
 40
6.875
  1
材質：ステンレス鋼鋳鋼
 41
1.017696295032802
  7
EXCADSTD
100
AcDbText
  0
TEXT
  5
39F
330
1F
100
AcDbEntity
  8
LAY-255
  6
CONTINUOUS
 62
     7
100
AcDbText
 10
578.46875
 20
81.12500000000001
 30
0.0
 40
6.875
  1
用途：屋上・庇・バルコニ－用
 41
1.011557076246334
  7
EXCADSTD
100
AcDbText
  0
TEXT
  5
3A0
330
1F
100
AcDbEntity
  8
LAY-255
  6
CONTINUOUS
 62
     7
100
AcDbText
 10
578.4375
 20
61.12500000000001
 30
0.0
 40
6.875
  1
接続：管用テーパねじ
 41
1.013063761157025
  7
EXCADSTD
100
AcDbText
  0
TEXT
  5
3A1
330
1F
100
AcDbEntity
  8
LAY-255
  6
CONTINUOUS
 62
     7
100
AcDbText
 10
601.5
 20
113.125
 30
0.0
 40
6.875
  1
ＳＦ－ＳＵＭＧ－３０６５型
 41
1.004758697075099
  7
EXCADSTD
100
AcDbText
  0
TEXT
  5
3A2
330
1F
100
AcDbEntity
  8
LAY-255
  6
CONTINUOUS
 62
     7
100
AcDbText
 10
696.5625
 20
47.12499999999998
 30
0.0
 40
6.875
  1
１：２
 41
0.888661464
  7
EXCADSTD
100
AcDbText
  0
TEXT
  5
3A3
330
1F
100
AcDbEntity
  8
LAY-255
  6
CONTINUOUS
 62
     7
100
AcDbText
 10
601.78125
 20
47.12499999999998
 30
0.0
 40
6.875
  1
０７／０１／０５
 41
0.9779528072727272
  7
EXCADSTD
100
AcDbText
  0
ENDSEC
  0
SECTION
  2
OBJECTS
  0
DICTIONARY
  5
C
330
0
100
AcDbDictionary
  3
ACAD_GROUP
350
D
  3
ACAD_LAYOUT
350
1A
  3
ACAD_MATERIAL
350
43
  3
ACAD_MLEADERSTYLE
350
6B
  3
ACAD_MLINESTYLE
350
17
  3
ACAD_PLOTSETTINGS
350
19
  3
ACAD_SCALELIST
350
47
  3
ACAD_VISUALSTYLE
350
2A
  3
ACDBHEADERROUNDTRIPXREC
350
3A4
  3
ACDBVARIABLEDICTIONARY
350
3C5
  0
DICTIONARY
  5
3D0
330
8
100
AcDbDictionary
280
     1
  3
ACAD_XREC_ROUNDTRIP
360
3D1
  0
DICTIONARY
  5
D
102
{ACAD_REACTORS
330
C
102
}
330
C
100
AcDbDictionary
  0
DICTIONARY
  5
1A
102
{ACAD_REACTORS
330
C
102
}
330
C
100
AcDbDictionary
  0
DICTIONARY
  5
43
102
{ACAD_REACTORS
330
C
102
}
330
C
100
AcDbDictionary
  3
BYBLOCK
350
45
  3
BYLAYER
350
44
  3
GLOBAL
350
46
  0
DICTIONARY
  5
6B
102
{ACAD_REACTORS
330
C
102
}
330
C
100
AcDbDictionary
  3
STANDARD
350
6C
  0
DICTIONARY
  5
17
102
{ACAD_REACTORS
330
C
102
}
330
C
100
AcDbDictionary
  3
STANDARD
350
18
  0
DICTIONARY
  5
19
102
{ACAD_REACTORS
330
C
102
}
330
C
100
AcDbDictionary
  0
DICTIONARY
  5
47
102
{ACAD_REACTORS
330
C
102
}
330
C
100
AcDbDictionary
  3
A0
350
48
  3
A1
350
49
  3
A2
350
4A
  3
A3
350
4B
  3
A4
350
4C
  3
A5
350
4D
  3
A6
350
4E
  3
A7
350
4F
  3
A8
350
50
  3
A9
350
51
  3
B0
350
52
  3
B1
350
53
  3
B2
350
54
  3
B3
350
55
  3
B4
350
56
  3
B5
350
57
  3
B6
350
58
  3
B7
350
59
  3
B8
350
5A
  3
B9
350
5B
  3
C0
350
5C
  3
C1
350
5D
  3
C2
350
5E
  3
C3
350
5F
  3
C4
350
60
  3
C5
350
61
  3
C6
350
62
  3
C7
350
63
  3
C8
350
64
  3
C9
350
65
  3
D0
350
66
  3
D1
350
67
  3
D2
350
68
  0
DICTIONARY
  5
2A
102
{ACAD_REACTORS
330
C
102
}
330
C
100
AcDbDictionary
  3
2DWIREFRAME
350
2F
  3
BASIC
350
32
  3
BRIGHTEN
350
36
  3
COLORCHANGE
350
3A
  3
CONCEPTUAL
350
34
  3
DIM
350
35
  3
EDGECOLOROFF
350
3D
  3
FACEPATTERN
350
39
  3
FLAT
350
2B
  3
FLATWITHEDGES
350
2C
  3
GOURAUD
350
2D
  3
GOURAUDWITHEDGES
350
2E
  3
HIDDEN
350
31
  3
JITTEROFF
350
3B
  3
LINEPATTERN
350
38
  3
OVERHANGOFF
350
3C
  3
REALISTIC
350
33
  3
SHADED
350
42
  3
SHADED_WITH_EDGES
350
41
  3
SHADES_OF_GRAY
350
3E
  3
SKETCHY
350
3F
  3
THICKEN
350
37
  3
WIREFRAME
350
30
  3
X-RAY
350
40
  0
DICTIONARY
  5
3A4
102
{ACAD_REACTORS
330
C
102
}
330
C
100
AcDbDictionary
  3
CEPSNID
350
3AE
  3
CEPSNTYPE
350
3AD
  3
DIMSTYLEDATA
350
3C4
  3
FINGERPRINTGUID
350
3AF
  3
HYPERLINKBASE
350
3A7
  3
INSUNITS
350
3AC
  3
LAYOUTDICT
350
3A9
  3
LWETCUNION
350
3AB
  3
PLOTSETDICT
350
3AA
  3
PSVPSCALE
350
3B1
  3
PUCSBASE
350
3B4
  3
PUCSORGBACK
350
3BA
  3
PUCSORGBOTTOM
350
3B6
  3
PUCSORGFRONT
350
3B9
  3
PUCSORGLEFT
350
3B7
  3
PUCSORGRIGHT
350
3B8
  3
PUCSORGTOP
350
3B5
  3
PUCSORTHOREF
350
3B2
  3
PUCSORTHOVIEW
350
3B3
  3
STYLESHEET
350
3A8
  3
TSTACKALIGN
350
3A5
  3
TSTACKSIZE
350
3A6
  3
UCSBASE
350
3BD
  3
UCSORGBACK
350
3C3
  3
UCSORGBOTTOM
350
3BF
  3
UCSORGFRONT
350
3C2
  3
UCSORGLEFT
350
3C0
  3
UCSORGRIGHT
350
3C1
  3
UCSORGTOP
350
3BE
  3
UCSORTHOREF
350
3BB
  3
UCSORTHOVIEW
350
3BC
  3
VERSIONGUID
350
3B0
  0
DICTIONARY
  5
3C5
102
{ACAD_REACTORS
330
C
102
}
330
C
100
AcDbDictionary
  3
CANNOSCALE
350
3D2
  3
CENTEREXE
350
3CC
  3
CENTERLTYPEFILE
350
3CD
  3
CMLEADERSTYLE
350
3C7
  3
CTABLESTYLE
350
3C6
  3
DIMASSOC
350
3CE
  3
HIDETEXT
350
3CF
  3
MSLTSCALE
350
3D3
  3
PSOLHEIGHT
350
3C9
  3
PSOLWIDTH
350
3C8
  0
XRECORD
  5
3D1
102
{ACAD_REACTORS
330
3D0
102
}
330
3D0
100
AcDbXrecord
102
VTR_0.000_0.000_1.000_1.000_VISUALSTYLE
340
2F
102
VTR_0.000_0.000_1.000_1.000_GRIDDISPLAY
 70
     3
102
VTR_0.000_0.000_1.000_1.000_GRIDMAJOR
 70
     5
102
VTR_0.000_0.000_1.000_1.000_DEFAULTLIGHTING
280
     1
102
VTR_0.000_0.000_1.000_1.000_DEFAULTLIGHTINGTYPE
 70
     1
102
VTR_0.000_0.000_1.000_1.000_BRIGHTNESS
141
0.0
102
VTR_0.000_0.000_1.000_1.000_CONTRAST
142
0.0
  0
MATERIAL
  5
45
102
{ACAD_REACTORS
330
43
102
}
102
{ACAD_XDICTIONARY
360
3D6
102
}
330
43
100
AcDbMaterial
  1
BYBLOCK
  0
MATERIAL
  5
44
102
{ACAD_REACTORS
330
43
102
}
102
{ACAD_XDICTIONARY
360
3D4
102
}
330
43
100
AcDbMaterial
  1
BYLAYER
  0
MATERIAL
  5
46
102
{ACAD_REACTORS
330
43
102
}
102
{ACAD_XDICTIONARY
360
3D8
102
}
330
43
100
AcDbMaterial
  1
GLOBAL
  0
ACAD_PROXY_OBJECT
  5
6C
102
{ACAD_REACTORS
330
6B
102
}
330
6B
100
AcDbProxyObject
 90
      499
 91
      505
 93
      610
310
40901902A4063FBFFFFFE0000000000000020400000000000020404214DD185B99185C990000000000000104090141901A00000000000004100000000000000041025764000000000000039000
340
14
340
0
340
11
340
0
 94
        0
1001
ACAD_MLEADERVER
1070
     2
  0
MLINESTYLE
  5
18
102
{ACAD_REACTORS
330
17
102
}
330
17
100
AcDbMlineStyle
  2
Standard
 70
     0
  3

 62
   256
 51
90.0
 52
90.0
 71
     2
 49
0.5
 62
   256
  6
BYLAYER
 49
-0.5
 62
   256
  6
BYLAYER
  0
ACAD_PROXY_OBJECT
  5
48
102
{ACAD_REACTORS
330
47
102
}
330
47
100
AcDbProxyObject
 90
      499
 91
      503
 93
       41
310
903313A31580
  0
ACAD_PROXY_OBJECT
  5
49
102
{ACAD_REACTORS
330
47
102
}
330
47
100
AcDbProxyObject
 90
      499
 91
      503
 93
      105
310
903313A324000000000000004000
  0
ACAD_PROXY_OBJECT
  5
4A
102
{ACAD_REACTORS
330
47
102
}
330
47
100
AcDbProxyObject
 90
      499
 91
      503
 93
      105
310
903313A344000000000000104000
  0
ACAD_PROXY_OBJECT
  5
4B
102
{ACAD_REACTORS
330
47
102
}
330
47
100
AcDbProxyObject
 90
      499
 91
      503
 93
      105
310
903313A354000000000000144000
  0
ACAD_PROXY_OBJECT
  5
4C
102
{ACAD_REACTORS
330
47
102
}
330
47
100
AcDbProxyObject
 90
      499
 91
      503
 93
      105
310
903313A384000000000000204000
  0
ACAD_PROXY_OBJECT
  5
4D
102
{ACAD_REACTORS
330
47
102
}
330
47
100
AcDbProxyObject
 90
      499
 91
      503
 93
      113
310
904313A31304000000000000244000
  0
ACAD_PROXY_OBJECT
  5
4E
102
{ACAD_REACTORS
330
47
102
}
330
47
100
AcDbProxyObject
 90
      499
 91
      503
 93
      113
310
904313A31364000000000000304000
  0
ACAD_PROXY_OBJECT
  5
4F
102
{ACAD_REACTORS
330
47
102
}
330
47
100
AcDbProxyObject
 90
      499
 91
      503
 93
      113
310
904313A32304000000000000344000
  0
ACAD_PROXY_OBJECT
  5
50
102
{ACAD_REACTORS
330
47
102
}
330
47
100
AcDbProxyObject
 90
      499
 91
      503
 93
      113
310
904313A333040000000000003E4000
  0
ACAD_PROXY_OBJECT
  5
51
102
{ACAD_REACTORS
330
47
102
}
330
47
100
AcDbProxyObject
 90
      499
 91
      503
 93
      113
310
904313A34304000000000000444000
  0
ACAD_PROXY_OBJECT
  5
52
102
{ACAD_REACTORS
330
47
102
}
330
47
100
AcDbProxyObject
 90
      499
 91
      503
 93
      113
310
904313A35304000000000000494000
  0
ACAD_PROXY_OBJECT
  5
53
102
{ACAD_REACTORS
330
47
102
}
330
47
100
AcDbProxyObject
 90
      499
 91
      503
 93
      121
310
905313A3130304000000000000594000
  0
ACAD_PROXY_OBJECT
  5
54
102
{ACAD_REACTORS
330
47
102
}
330
47
100
AcDbProxyObject
 90
      499
 91
      503
 93
      105
310
903323A310000000000000010100
  0
ACAD_PROXY_OBJECT
  5
55
102
{ACAD_REACTORS
330
47
102
}
330
47
100
AcDbProxyObject
 90
      499
 91
      503
 93
      105
310
903343A310000000000000410100
  0
ACAD_PROXY_OBJECT
  5
56
102
{ACAD_REACTORS
330
47
102
}
330
47
100
AcDbProxyObject
 90
      499
 91
      503
 93
      105
310
903383A310000000000000810100
  0
ACAD_PROXY_OBJECT
  5
57
102
{ACAD_REACTORS
330
47
102
}
330
47
100
AcDbProxyObject
 90
      499
 91
      503
 93
      113
310
90431303A310000000000000910100
  0
ACAD_PROXY_OBJECT
  5
58
102
{ACAD_REACTORS
330
47
102
}
330
47
100
AcDbProxyObject
 90
      499
 91
      503
 93
      121
310
9053130303A310000000000001650100
  0
ACAD_PROXY_OBJECT
  5
59
102
{ACAD_REACTORS
330
47
102
}
330
47
100
AcDbProxyObject
 90
      499
 91
      503
 93
      257
310
90E312F31323822203D2031272D3022000000000000200FC000000000000284000
  0
ACAD_PROXY_OBJECT
  5
5A
102
{ACAD_REACTORS
330
47
102
}
330
47
100
AcDbProxyObject
 90
      499
 91
      503
 93
      249
310
90D312F363422203D2031272D3022000000000000240FC000000000000284000
  0
ACAD_PROXY_OBJECT
  5
5B
102
{ACAD_REACTORS
330
47
102
}
330
47
100
AcDbProxyObject
 90
      499
 91
      503
 93
      249
310
90D312F333222203D2031272D3022000000000000280FC000000000000284000
  0
ACAD_PROXY_OBJECT
  5
5C
102
{ACAD_REACTORS
330
47
102
}
330
47
100
AcDbProxyObject
 90
      499
 91
      503
 93
      249
310
90D312F313622203D2031272D30220000000000002C0FC000000000000284000
  0
ACAD_PROXY_OBJECT
  5
5D
102
{ACAD_REACTORS
330
47
102
}
330
47
100
AcDbProxyObject
 90
      499
 91
      503
 93
      249
310
90D332F333222203D2031272D30220000000000002E0FC000000000000284000
  0
ACAD_PROXY_OBJECT
  5
5E
102
{ACAD_REACTORS
330
47
102
}
330
47
100
AcDbProxyObject
 90
      499
 91
      503
 93
      241
310
90C312F3822203D2031272D3022000000000000300FC000000000000284000
  0
ACAD_PROXY_OBJECT
  5
5F
102
{ACAD_REACTORS
330
47
102
}
330
47
100
AcDbProxyObject
 90
      499
 91
      503
 93
      249
310
90D332F313622203D2031272D3022000000000000320FC000000000000284000
  0
ACAD_PROXY_OBJECT
  5
60
102
{ACAD_REACTORS
330
47
102
}
330
47
100
AcDbProxyObject
 90
      499
 91
      503
 93
      241
310
90C312F3422203D2031272D3022000000000000340FC000000000000284000
  0
ACAD_PROXY_OBJECT
  5
61
102
{ACAD_REACTORS
330
47
102
}
330
47
100
AcDbProxyObject
 90
      499
 91
      503
 93
      241
310
90C332F3822203D2031272D3022000000000000360FC000000000000284000
  0
ACAD_PROXY_OBJECT
  5
62
102
{ACAD_REACTORS
330
47
102
}
330
47
100
AcDbProxyObject
 90
      499
 91
      503
 93
      241
310
90C312F3222203D2031272D3022000000000000380FC000000000000284000
  0
ACAD_PROXY_OBJECT
  5
63
102
{ACAD_REACTORS
330
47
102
}
330
47
100
AcDbProxyObject
 90
      499
 91
      503
 93
      241
310
90C332F3422203D2031272D30220000000000003A0FC000000000000284000
  0
ACAD_PROXY_OBJECT
  5
64
102
{ACAD_REACTORS
330
47
102
}
330
47
100
AcDbProxyObject
 90
      499
 91
      503
 93
      161
310
90A3122203D2031272D30224000000000000284000
  0
ACAD_PROXY_OBJECT
  5
65
102
{ACAD_REACTORS
330
47
102
}
330
47
100
AcDbProxyObject
 90
      499
 91
      503
 93
      257
310
90E312D312F3222203D2031272D30220000000000003E0FC000000000000284000
  0
ACAD_PROXY_OBJECT
  5
66
102
{ACAD_REACTORS
330
47
102
}
330
47
100
AcDbProxyObject
 90
      499
 91
      503
 93
      225
310
90A3322203D2031272D302200000000000002100000000000000284000
  0
ACAD_PROXY_OBJECT
  5
67
102
{ACAD_REACTORS
330
47
102
}
330
47
100
AcDbProxyObject
 90
      499
 91
      503
 93
      225
310
90A3622203D2031272D302200000000000006100000000000000284000
  0
ACAD_PROXY_OBJECT
  5
68
102
{ACAD_REACTORS
330
47
102
}
330
47
100
AcDbProxyObject
 90
      499
 91
      503
 93
      249
310
90D31272D3022203D2031272D30220000000000000A100000000000000284000
  0
ACAD_PROXY_OBJECT
  5
2F
102
{ACAD_REACTORS
330
2A
102
}
330
2A
100
AcDbProxyObject
 90
      499
 91
      501
 93
      436
310
42CC9915DA5C99599C985B595049028333333333333E33F0000000000000F90107901411070040501600405405064090741402480A0340
1001
ACAD
1000
AcDbSavedByObjectVersion
1070
     0
  0
ACAD_PROXY_OBJECT
  5
32
102
{ACAD_REACTORS
330
2A
102
}
330
2A
100
AcDbProxyObject
 90
      499
 91
      501
 93
      388
310
4150985CDA58D07406404333333333333E33F0000000000000F90107A41107004050150841D405064090741402480A0350
1001
ACAD
1000
AcDbSavedByObjectVersion
1070
     0
  0
ACAD_PROXY_OBJECT
  5
36
102
{ACAD_REACTORS
330
2A
102
}
330
2A
100
AcDbProxyObject
 90
      499
 91
      501
 93
      428
310
42109C9A59DA1D195B90C409028333333333333E33F0000000000000F9010790141107004050150841D405064090741402480A029950
1001
ACAD
1000
AcDbSavedByObjectVersion
1070
     0
  0
ACAD_PROXY_OBJECT
  5
3A
102
{ACAD_REACTORS
330
2A
102
}
330
2A
100
AcDbProxyObject
 90
      499
 91
      501
 93
      452
310
42D0DBDB1BDC90DA185B99D95104090240C333333333333E33F0000000000000F90108901411070040501508421405064090741402480A0350
1001
ACAD
1000
AcDbSavedByObjectVersion
1070
     0
  0
ACAD_PROXY_OBJECT
  5
34
102
{ACAD_REACTORS
330
2A
102
}
330
2A
100
AcDbProxyObject
 90
      499
 91
      501
 93
      500
310
4290DBDB98D95C1D1D585B10940D028333333333333E33F0000000000000F90107902409070040501000000000018199010841D405064090740C02480A0340
1001
ACAD
1000
AcDbSavedByObjectVersion
1070
     0
  0
ACAD_PROXY_OBJECT
  5
35
102
{ACAD_REACTORS
330
2A
102
}
330
2A
100
AcDbProxyObject
 90
      499
 91
      501
 93
      412
310
40D11A5B50B409028333333333333E33F0000000000000F9010790141107004050150841D405064090741402480A02677FFFFFD0
1001
ACAD
1000
AcDbSavedByObjectVersion
1070
     0
  0
ACAD_PROXY_OBJECT
  5
3D
102
{ACAD_REACTORS
330
2A
102
}
330
2A
100
AcDbProxyObject
 90
      499
 91
      501
 93
      452
310
43115919D950DBDB1BDC93D999916409028333333333333E33F0000000000000F9010790141107004050150841D405064090741402480A0350
1001
ACAD
1000
AcDbSavedByObjectVersion
1070
     0
  0
ACAD_PROXY_OBJECT
  5
39
102
{ACAD_REACTORS
330
2A
102
}
330
2A
100
AcDbProxyObject
 90
      499
 91
      501
 93
      444
310
42D19858D95C185D1D195C9B90F409028333333333333E33F0000000000000F9010790141107004050150841D405064090741402480A0350
1001
ACAD
1000
AcDbSavedByObjectVersion
1070
     0
  0
ACAD_PROXY_OBJECT
  5
2B
102
{ACAD_REACTORS
330
2A
102
}
330
2A
100
AcDbProxyObject
 90
      499
 91
      501
 93
      380
310
41119B185D240901404333333333333E33F0000000000000F9010740A907004050150841D405064090741402480A1B50
1001
ACAD
1000
AcDbSavedByObjectVersion
1070
     0
  0
ACAD_PROXY_OBJECT
  5
2C
102
{ACAD_REACTORS
330
2A
102
}
330
2A
100
AcDbProxyObject
 90
      499
 91
      501
 93
      468
310
43519B185D15DA5D1A115919D95CD0140901404333333333333E33F0000000000000F90107409019070040501600405405064090741402480A1B50
1001
ACAD
1000
AcDbSavedByObjectVersion
1070
     0
  0
ACAD_PROXY_OBJECT
  5
2D
102
{ACAD_REACTORS
330
2A
102
}
330
2A
100
AcDbProxyObject
 90
      499
 91
      501
 93
      404
310
41D1DBDD5C985D5910240902404333333333333E33F0000000000000F9010740A9070040501641D405064090741402480A1B50
1001
ACAD
1000
AcDbSavedByObjectVersion
1070
     0
  0
ACAD_PROXY_OBJECT
  5
2E
102
{ACAD_REACTORS
330
2A
102
}
330
2A
100
AcDbProxyObject
 90
      499
 91
      501
 93
      492
310
4411DBDD5C985D5915DA5D1A115919D95CD0340902404333333333333E33F0000000000000F90107409019070040501600405405064090741402480A1B50
1001
ACAD
1000
AcDbSavedByObjectVersion
1070
     0
  0
ACAD_PROXY_OBJECT
  5
31
102
{ACAD_REACTORS
330
2A
102
}
330
2A
100
AcDbProxyObject
 90
      499
 91
      501
 93
      476
310
41921A5919195B90640502408333333333333E33F0000000000000F901079024090700405020000000000001110200405405064090740C02480A0340
1001
ACAD
1000
AcDbSavedByObjectVersion
1070
     0
  0
ACAD_PROXY_OBJECT
  5
3B
102
{ACAD_REACTORS
330
2A
102
}
330
2A
100
AcDbProxyObject
 90
      499
 91
      501
 93
      428
310
42529A5D1D195C93D999914409028333333333333E33F0000000000000F9010790141107004050150A41D405064090741402480A0350
1001
ACAD
1000
AcDbSavedByObjectVersion
1070
     0
  0
ACAD_PROXY_OBJECT
  5
38
102
{ACAD_REACTORS
330
2A
102
}
330
2A
100
AcDbProxyObject
 90
      499
 91
      501
 93
      444
310
42D31A5B995C185D1D195C9B90E409028333333333333E33F0000000000000F9010790141107004050750841D405064090741402483A0350
1001
ACAD
1000
AcDbSavedByObjectVersion
1070
     0
  0
ACAD_PROXY_OBJECT
  5
3C
102
{ACAD_REACTORS
330
2A
102
}
330
2A
100
AcDbProxyObject
 90
      499
 91
      501
 93
      444
310
42D3DD995C9A185B99D3D999915409028333333333333E33F0000000000000F9010790141107004050150941D405064090741402480A0350
1001
ACAD
1000
AcDbSavedByObjectVersion
1070
     0
  0
ACAD_PROXY_OBJECT
  5
33
102
{ACAD_REACTORS
330
2A
102
}
330
2A
100
AcDbProxyObject
 90
      499
 91
      501
 93
      428
310
425499585B1A5CDD1A58D08409038333333333333E33F0000000000000F9010740A907004050150800405405064090740C02480A1B40
1001
ACAD
1000
AcDbSavedByObjectVersion
1070
     0
  0
ACAD_PROXY_OBJECT
  5
42
102
{ACAD_REACTORS
330
2A
102
}
330
2A
100
AcDbProxyObject
 90
      499
 91
      501
 93
      420
310
4194DA1859195911B40902404333333333333E33F0000000000000F9010740A41107004050150800405405064090840C02480A0B40
1001
ACAD
1000
AcDbSavedByObjectVersion
1070
     0
  0
ACAD_PROXY_OBJECT
  5
41
102
{ACAD_REACTORS
330
2A
102
}
330
2A
100
AcDbProxyObject
 90
      499
 91
      501
 93
      516
310
4454DA18591959081DDA5D1A08195919D95CD1A40902404333333333333E33F0000000000000F901074090142907004050250800405405064090740C02480A0B40
1001
ACAD
1000
AcDbSavedByObjectVersion
1070
     0
  0
ACAD_PROXY_OBJECT
  5
3E
102
{ACAD_REACTORS
330
2A
102
}
330
2A
100
AcDbProxyObject
 90
      499
 91
      501
 93
      532
310
4394DA1859195CC81BD98811DC985E5174090240C333333333333E33F0000000000000F901079024090741D01000000000000111010841D405064090740C02480A0340
1001
ACAD
1000
AcDbSavedByObjectVersion
1070
     0
  0
ACAD_PROXY_OBJECT
  5
3F
102
{ACAD_REACTORS
330
2A
102
}
330
2A
100
AcDbProxyObject
 90
      499
 91
      501
 93
      476
310
41D4DAD95D18DA1E51840502408333333333333E33F0000000000000F901079024090741D01000000000000111010B41D405064090741802480A0340
1001
ACAD
1000
AcDbSavedByObjectVersion
1070
     0
  0
ACAD_PROXY_OBJECT
  5
37
102
{ACAD_REACTORS
330
2A
102
}
330
2A
100
AcDbProxyObject
 90
      499
 91
      501
 93
      412
310
41D51A1A58DAD95B90D409028333333333333E33F0000000000000F9010790141107004050150C41D405064090741402480A0350
1001
ACAD
1000
AcDbSavedByObjectVersion
1070
     0
  0
ACAD_PROXY_OBJECT
  5
30
102
{ACAD_REACTORS
330
2A
102
}
330
2A
100
AcDbProxyObject
 90
      499
 91
      501
 93
      420
310
4255DA5C99599C985B595059028333333333333E33F0000000000000F90107901411070040501600405405064090740C02480A0340
1001
ACAD
1000
AcDbSavedByObjectVersion
1070
     0
  0
ACAD_PROXY_OBJECT
  5
40
102
{ACAD_REACTORS
330
2A
102
}
330
2A
100
AcDbProxyObject
 90
      499
 91
      501
 93
      404
310
41560B54985E51940902404000000000000E03F0000000000000F9010740501907004050150841D405064090740C02480A1B40
1001
ACAD
1000
AcDbSavedByObjectVersion
1070
     0
  0
XRECORD
  5
3AE
102
{ACAD_REACTORS
330
3A4
102
}
330
3A4
100
AcDbXrecord
340
0
  0
XRECORD
  5
3AD
102
{ACAD_REACTORS
330
3A4
102
}
330
3A4
100
AcDbXrecord
 90
        0
  0
XRECORD
  5
3C4
102
{ACAD_REACTORS
330
3A4
102
}
330
3A4
100
AcDbXrecord
1000
DSTYLE
1002
{
1070
   340
340
11
1002
}
  0
XRECORD
  5
3AF
102
{ACAD_REACTORS
330
3A4
102
}
330
3A4
100
AcDbXrecord
  1
{c643596d-8af7-4ad5-909b-2fd6b4a3a26c}
  0
XRECORD
  5
3A7
102
{ACAD_REACTORS
330
3A4
102
}
330
3A4
100
AcDbXrecord
  1

  0
XRECORD
  5
3AC
102
{ACAD_REACTORS
330
3A4
102
}
330
3A4
100
AcDbXrecord
 90
        4
  0
XRECORD
  5
3A9
102
{ACAD_REACTORS
330
3A4
102
}
330
3A4
100
AcDbXrecord
340
1A
  0
XRECORD
  5
3AB
102
{ACAD_REACTORS
330
3A4
102
}
330
3A4
100
AcDbXrecord
 90
    10781
  0
XRECORD
  5
3AA
102
{ACAD_REACTORS
330
3A4
102
}
330
3A4
100
AcDbXrecord
340
19
  0
XRECORD
  5
3B1
102
{ACAD_REACTORS
330
3A4
102
}
330
3A4
100
AcDbXrecord
 40
0.0
  0
XRECORD
  5
3B4
102
{ACAD_REACTORS
330
3A4
102
}
330
3A4
100
AcDbXrecord
340
0
  0
XRECORD
  5
3BA
102
{ACAD_REACTORS
330
3A4
102
}
330
3A4
100
AcDbXrecord
 10
0.0
 20
0.0
 30
0.0
  0
XRECORD
  5
3B6
102
{ACAD_REACTORS
330
3A4
102
}
330
3A4
100
AcDbXrecord
 10
0.0
 20
0.0
 30
0.0
  0
XRECORD
  5
3B9
102
{ACAD_REACTORS
330
3A4
102
}
330
3A4
100
AcDbXrecord
 10
0.0
 20
0.0
 30
0.0
  0
XRECORD
  5
3B7
102
{ACAD_REACTORS
330
3A4
102
}
330
3A4
100
AcDbXrecord
 10
0.0
 20
0.0
 30
0.0
  0
XRECORD
  5
3B8
102
{ACAD_REACTORS
330
3A4
102
}
330
3A4
100
AcDbXrecord
 10
0.0
 20
0.0
 30
0.0
  0
XRECORD
  5
3B5
102
{ACAD_REACTORS
330
3A4
102
}
330
3A4
100
AcDbXrecord
 10
0.0
 20
0.0
 30
0.0
  0
XRECORD
  5
3B2
102
{ACAD_REACTORS
330
3A4
102
}
330
3A4
100
AcDbXrecord
340
0
  0
XRECORD
  5
3B3
102
{ACAD_REACTORS
330
3A4
102
}
330
3A4
100
AcDbXrecord
 70
     0
  0
XRECORD
  5
3A8
102
{ACAD_REACTORS
330
3A4
102
}
330
3A4
100
AcDbXrecord
  1

  0
XRECORD
  5
3A5
102
{ACAD_REACTORS
330
3A4
102
}
330
3A4
100
AcDbXrecord
 90
        1
  0
XRECORD
  5
3A6
102
{ACAD_REACTORS
330
3A4
102
}
330
3A4
100
AcDbXrecord
 90
       70
  0
XRECORD
  5
3BD
102
{ACAD_REACTORS
330
3A4
102
}
330
3A4
100
AcDbXrecord
340
0
  0
XRECORD
  5
3C3
102
{ACAD_REACTORS
330
3A4
102
}
330
3A4
100
AcDbXrecord
 10
0.0
 20
0.0
 30
0.0
  0
XRECORD
  5
3BF
102
{ACAD_REACTORS
330
3A4
102
}
330
3A4
100
AcDbXrecord
 10
0.0
 20
0.0
 30
0.0
  0
XRECORD
  5
3C2
102
{ACAD_REACTORS
330
3A4
102
}
330
3A4
100
AcDbXrecord
 10
0.0
 20
0.0
 30
0.0
  0
XRECORD
  5
3C0
102
{ACAD_REACTORS
330
3A4
102
}
330
3A4
100
AcDbXrecord
 10
0.0
 20
0.0
 30
0.0
  0
XRECORD
  5
3C1
102
{ACAD_REACTORS
330
3A4
102
}
330
3A4
100
AcDbXrecord
 10
0.0
 20
0.0
 30
0.0
  0
XRECORD
  5
3BE
102
{ACAD_REACTORS
330
3A4
102
}
330
3A4
100
AcDbXrecord
 10
0.0
 20
0.0
 30
0.0
  0
XRECORD
  5
3BB
102
{ACAD_REACTORS
330
3A4
102
}
330
3A4
100
AcDbXrecord
340
0
  0
XRECORD
  5
3BC
102
{ACAD_REACTORS
330
3A4
102
}
330
3A4
100
AcDbXrecord
 70
     0
  0
XRECORD
  5
3B0
102
{ACAD_REACTORS
330
3A4
102
}
330
3A4
100
AcDbXrecord
  1
{FAEB1C32-E019-11D5-929B-00C0DF256EC4}
  0
DICTIONARYVAR
  5
3D2
102
{ACAD_REACTORS
330
3C5
102
}
330
3C5
100
DictionaryVariables
280
     0
  1
1:1
  0
DICTIONARYVAR
  5
3CC
102
{ACAD_REACTORS
330
3C5
102
}
330
3C5
100
DictionaryVariables
280
     0
  1
3.500000
  0
DICTIONARYVAR
  5
3CD
102
{ACAD_REACTORS
330
3C5
102
}
330
3C5
100
DictionaryVariables
280
     0
  1
acadiso.lin
  0
DICTIONARYVAR
  5
3C7
102
{ACAD_REACTORS
330
3C5
102
}
330
3C5
100
DictionaryVariables
280
     0
  1
Standard
  0
DICTIONARYVAR
  5
3C6
102
{ACAD_REACTORS
330
3C5
102
}
330
3C5
100
DictionaryVariables
280
     0
  1
Standard
  0
DICTIONARYVAR
  5
3CE
102
{ACAD_REACTORS
330
3C5
102
}
330
3C5
100
DictionaryVariables
280
     0
  1
2
  0
DICTIONARYVAR
  5
3CF
102
{ACAD_REACTORS
330
3C5
102
}
330
3C5
100
DictionaryVariables
280
     0
  1
1
  0
DICTIONARYVAR
  5
3D3
102
{ACAD_REACTORS
330
3C5
102
}
330
3C5
100
DictionaryVariables
280
     0
  1
1
  0
DICTIONARYVAR
  5
3C9
102
{ACAD_REACTORS
330
3C5
102
}
330
3C5
100
DictionaryVariables
280
     0
  1
80.000000
  0
DICTIONARYVAR
  5
3C8
102
{ACAD_REACTORS
330
3C5
102
}
330
3C5
100
DictionaryVariables
280
     0
  1
5.000000
  0
DICTIONARY
  5
3D6
330
45
100
AcDbDictionary
280
     1
  3
ACAD_XREC_ROUNDTRIP
360
3D7
  0
DICTIONARY
  5
3D4
330
44
100
AcDbDictionary
280
     1
  3
ACAD_XREC_ROUNDTRIP
360
3D5
  0
DICTIONARY
  5
3D8
330
46
100
AcDbDictionary
280
     1
  3
ACAD_XREC_ROUNDTRIP
360
3D9
  0
XRECORD
  5
3D7
102
{ACAD_REACTORS
330
3D6
102
}
330
3D6
100
AcDbXrecord
102
MATERIAL
148
0.0
149
0.0
149
0.0
 93
        0
 94
      127
282
     0
 72
     1
 77
     1
171
     1
175
     1
179
     1
273
     0
  0
XRECORD
  5
3D5
102
{ACAD_REACTORS
330
3D4
102
}
330
3D4
100
AcDbXrecord
102
MATERIAL
148
0.0
149
0.0
149
0.0
 93
        0
 94
      127
282
     0
 72
     1
 77
     1
171
     1
175
     1
179
     1
273
     0
  0
XRECORD
  5
3D9
102
{ACAD_REACTORS
330
3D8
102
}
330
3D8
100
AcDbXrecord
102
MATERIAL
148
0.0
149
0.0
149
0.0
 93
        0
 94
      127
282
     0
 72
     1
 77
     1
171
     1
175
     1
179
     1
273
     0
  0
ENDSEC
  0
EOF
