  0
SECTION
  2
HEADER
  9
$ACADVER
  1
AC1014
  9
$ACADMAINTVER
 70
     9
  9
$DWGCODEPAGE
  3
ANSI_932
  9
$INSBASE
 10
0.0
 20
0.0
 30
0.0
  9
$EXTMIN
 10
15.0
 20
30.0
 30
0.0
  9
$EXTMAX
 10
1155.0
 20
840.0
 30
0.0
  9
$LIMMIN
 10
0.0
 20
0.0
  9
$LIMMAX
 10
420.0
 20
297.0
  9
$ORTHOMODE
 70
     0
  9
$REGENMODE
 70
     1
  9
$FILLMODE
 70
     1
  9
$QTEXTMODE
 70
     0
  9
$MIRRTEXT
 70
     1
  9
$DRAGMODE
 70
     2
  9
$LTSCALE
 40
0.2
  9
$OSMODE
 70
    37
  9
$ATTMODE
 70
     1
  9
$TEXTSIZE
 40
2.5
  9
$TRACEWID
 40
1.0
  9
$TEXTSTYLE
  7
STANDARD
  9
$CLAYER
  8
LAY-10
  9
$CELTYPE
  6
BYLAYER
  9
$CECOLOR
 62
   256
  9
$CELTSCALE
 40
1.0
  9
$DELOBJ
 70
     1
  9
$DISPSILH
 70
     0
  9
$DIMSCALE
 40
1.0
  9
$DIMASZ
 40
2.5
  9
$DIMEXO
 40
0.625
  9
$DIMDLI
 40
3.75
  9
$DIMRND
 40
0.0
  9
$DIMDLE
 40
0.0
  9
$DIMEXE
 40
1.25
  9
$DIMTP
 40
0.0
  9
$DIMTM
 40
0.0
  9
$DIMTXT
 40
2.5
  9
$DIMCEN
 40
2.5
  9
$DIMTSZ
 40
0.0
  9
$DIMTOL
 70
     0
  9
$DIMLIM
 70
     0
  9
$DIMTIH
 70
     0
  9
$DIMTOH
 70
     0
  9
$DIMSE1
 70
     0
  9
$DIMSE2
 70
     0
  9
$DIMTAD
 70
     1
  9
$DIMZIN
 70
     8
  9
$DIMBLK
  1

  9
$DIMASO
 70
     1
  9
$DIMSHO
 70
     1
  9
$DIMPOST
  1

  9
$DIMAPOST
  1

  9
$DIMALT
 70
     0
  9
$DIMALTD
 70
     3
  9
$DIMALTF
 40
0.03937007874016
  9
$DIMLFAC
 40
1.0
  9
$DIMTOFL
 70
     1
  9
$DIMTVP
 40
0.0
  9
$DIMTIX
 70
     0
  9
$DIMSOXD
 70
     0
  9
$DIMSAH
 70
     0
  9
$DIMBLK1
  1

  9
$DIMBLK2
  1

  9
$DIMSTYLE
  2
ISO-25
  9
$DIMCLRD
 70
     0
  9
$DIMCLRE
 70
     0
  9
$DIMCLRT
 70
     0
  9
$DIMTFAC
 40
1.0
  9
$DIMGAP
 40
0.625
  9
$DIMJUST
 70
     0
  9
$DIMSD1
 70
     0
  9
$DIMSD2
 70
     0
  9
$DIMTOLJ
 70
     0
  9
$DIMTZIN
 70
     8
  9
$DIMALTZ
 70
     0
  9
$DIMALTTZ
 70
     0
  9
$DIMFIT
 70
     3
  9
$DIMUPT
 70
     0
  9
$DIMUNIT
 70
     2
  9
$DIMDEC
 70
     2
  9
$DIMTDEC
 70
     2
  9
$DIMALTU
 70
     2
  9
$DIMALTTD
 70
     3
  9
$DIMTXSTY
  7
STANDARD
  9
$DIMAUNIT
 70
     0
  9
$LUNITS
 70
     2
  9
$LUPREC
 70
     4
  9
$SKETCHINC
 40
1.0
  9
$FILLETRAD
 40
10.0
  9
$AUNITS
 70
     0
  9
$AUPREC
 70
     0
  9
$MENU
  1
.
  9
$ELEVATION
 40
0.0
  9
$PELEVATION
 40
0.0
  9
$THICKNESS
 40
0.0
  9
$LIMCHECK
 70
     0
  9
$CHAMFERA
 40
0.0
  9
$CHAMFERB
 40
0.0
  9
$CHAMFERC
 40
0.0
  9
$CHAMFERD
 40
0.0
  9
$SKPOLY
 70
     0
  9
$TDCREATE
 40
2459229.338017928
  9
$TDUPDATE
 40
2459229.338018345
  9
$TDINDWG
 40
0.0000000116
  9
$TDUSRTIMER
 40
0.0000000116
  9
$USRTIMER
 70
     1
  9
$ANGBASE
 50
0.0
  9
$ANGDIR
 70
     0
  9
$PDMODE
 70
     0
  9
$PDSIZE
 40
0.0
  9
$PLINEWID
 40
0.0
  9
$COORDS
 70
     1
  9
$SPLFRAME
 70
     0
  9
$SPLINETYPE
 70
     6
  9
$SPLINESEGS
 70
     8
  9
$ATTDIA
 70
     0
  9
$ATTREQ
 70
     1
  9
$HANDLING
 70
     1
  9
$HANDSEED
  5
3F3
  9
$SURFTAB1
 70
     6
  9
$SURFTAB2
 70
     6
  9
$SURFTYPE
 70
     6
  9
$SURFU
 70
     6
  9
$SURFV
 70
     6
  9
$UCSNAME
  2

  9
$UCSORG
 10
0.0
 20
0.0
 30
0.0
  9
$UCSXDIR
 10
1.0
 20
0.0
 30
0.0
  9
$UCSYDIR
 10
0.0
 20
1.0
 30
0.0
  9
$PUCSNAME
  2

  9
$PUCSORG
 10
0.0
 20
0.0
 30
0.0
  9
$PUCSXDIR
 10
1.0
 20
0.0
 30
0.0
  9
$PUCSYDIR
 10
0.0
 20
1.0
 30
0.0
  9
$USERI1
 70
     0
  9
$USERI2
 70
     0
  9
$USERI3
 70
     0
  9
$USERI4
 70
     0
  9
$USERI5
 70
     0
  9
$USERR1
 40
0.0
  9
$USERR2
 40
0.0
  9
$USERR3
 40
0.0
  9
$USERR4
 40
0.0
  9
$USERR5
 40
0.0
  9
$WORLDVIEW
 70
     1
  9
$SHADEDGE
 70
     3
  9
$SHADEDIF
 70
    70
  9
$TILEMODE
 70
     1
  9
$MAXACTVP
 70
    64
  9
$PINSBASE
 10
0.0
 20
0.0
 30
0.0
  9
$PLIMCHECK
 70
     0
  9
$PEXTMIN
 10
1.000000000000000E+20
 20
1.000000000000000E+20
 30
1.000000000000000E+20
  9
$PEXTMAX
 10
-1.000000000000000E+20
 20
-1.000000000000000E+20
 30
-1.000000000000000E+20
  9
$PLIMMIN
 10
0.0
 20
0.0
  9
$PLIMMAX
 10
420.0
 20
297.0
  9
$UNITMODE
 70
     0
  9
$VISRETAIN
 70
     1
  9
$PLINEGEN
 70
     0
  9
$PSLTSCALE
 70
     1
  9
$TREEDEPTH
 70
  3020
  9
$PICKSTYLE
 70
     1
  9
$CMLSTYLE
  2
STANDARD
  9
$CMLJUST
 70
     0
  9
$CMLSCALE
 40
20.0
  9
$PROXYGRAPHICS
 70
     1
  9
$MEASUREMENT
 70
     1
  0
ENDSEC
  0
SECTION
  2
CLASSES
  0
CLASS
  1
ACDBDICTIONARYWDFLT
  2
AcDbDictionaryWithDefault
  3
ObjectDBX Classes
 90
        0
280
     0
281
     0
  0
CLASS
  1
VISUALSTYLE
  2
AcDbVisualStyle
  3
ObjectDBX Classes
 90
     4095
280
     0
281
     0
  0
CLASS
  1
MATERIAL
  2
AcDbMaterial
  3
ObjectDBX Classes
 90
     1153
280
     0
281
     0
  0
CLASS
  1
SCALE
  2
AcDbScale
  3
ObjectDBX Classes
 90
     1153
280
     0
281
     0
  0
CLASS
  1
TABLESTYLE
  2
AcDbTableStyle
  3
ObjectDBX Classes
 90
     4095
280
     0
281
     0
  0
CLASS
  1
MLEADERSTYLE
  2
AcDbMLeaderStyle
  3
ACDB_MLEADERSTYLE_CLASS
 90
     4095
280
     0
281
     0
  0
CLASS
  1
SUN
  2
AcDbSun
  3
SCENEOE
 90
     1153
280
     0
281
     0
  0
CLASS
  1
DICTIONARYVAR
  2
AcDbDictionaryVar
  3
ObjectDBX Classes
 90
        0
280
     0
281
     0
  0
CLASS
  1
XRECORD
  2
AcDbXrecord
  3
ObjectDBX Classes
 90
        0
280
     0
281
     0
  0
CLASS
  1
LWPOLYLINE
  2
AcDbPolyline
  3
ObjectDBX Classes
 90
        0
280
     0
281
     1
  0
CLASS
  1
HATCH
  2
AcDbHatch
  3
ObjectDBX Classes
 90
        0
280
     0
281
     1
  0
CLASS
  1
ACDBPLACEHOLDER
  2
AcDbPlaceHolder
  3
ObjectDBX Classes
 90
        0
280
     0
281
     0
  0
CLASS
  1
LAYOUT
  2
AcDbLayout
  3
ObjectDBX Classes
 90
        0
280
     0
281
     0
  0
ENDSEC
  0
SECTION
  2
TABLES
  0
TABLE
  2
VPORT
  5
8
102
{ACAD_XDICTIONARY
360
3E8
102
}
330
0
100
AcDbSymbolTable
 70
     1
  0
VPORT
  5
29
330
8
100
AcDbSymbolTableRecord
100
AcDbViewportTableRecord
  2
*ACTIVE
 70
     0
 10
0.0
 20
0.0
 11
1.0
 21
1.0
 12
585.0000000000001
 22
435.0
 13
0.0
 23
0.0
 14
10.0
 24
10.0
 15
10.0
 25
10.0
 16
0.0
 26
0.0
 36
1.0
 17
0.0
 27
0.0
 37
0.0
 40
810.0
 41
1.407407407407408
 42
50.0
 43
0.0
 44
0.0
 50
0.0
 51
0.0
 71
     0
 72
  1000
 73
     1
 74
     3
 75
     0
 76
     0
 77
     0
 78
     0
  0
ENDTAB
  0
TABLE
  2
LTYPE
  5
5
330
0
100
AcDbSymbolTable
 70
     6
  0
LTYPE
  5
14
330
5
100
AcDbSymbolTableRecord
100
AcDbLinetypeTableRecord
  2
BYBLOCK
 70
     0
  3

 72
    65
 73
     0
 40
0.0
  0
LTYPE
  5
15
330
5
100
AcDbSymbolTableRecord
100
AcDbLinetypeTableRecord
  2
BYLAYER
 70
     0
  3

 72
    65
 73
     0
 40
0.0
  0
LTYPE
  5
16
330
5
100
AcDbSymbolTableRecord
100
AcDbLinetypeTableRecord
  2
CONTINUOUS
 70
     0
  3
Solid line
 72
    65
 73
     0
 40
0.0
  0
LTYPE
  5
6E
330
5
100
AcDbSymbolTableRecord
100
AcDbLinetypeTableRecord
  2
HIDDEN
 70
     0
  3
Hidden __ __ __ __ __ __ __ __ __ __ __ __ __ __
 72
    65
 73
     2
 40
9.524999999999999
 49
6.35
 74
     0
 49
-3.175
 74
     0
  0
LTYPE
  5
6F
330
5
100
AcDbSymbolTableRecord
100
AcDbLinetypeTableRecord
  2
CENTER
 70
     0
  3
Center ____ _ ____ _ ____ _ ____ _ ____ _ ____
 72
    65
 73
     4
 40
50.8
 49
31.75
 74
     0
 49
-6.35
 74
     0
 49
6.35
 74
     0
 49
-6.35
 74
     0
  0
LTYPE
  5
70
330
5
100
AcDbSymbolTableRecord
100
AcDbLinetypeTableRecord
  2
PHANTOM
 70
     0
  3
Phantom ______  __  __  ______  __  __  ______ 
 72
    65
 73
     6
 40
63.50000000000001
 49
31.75
 74
     0
 49
-6.35
 74
     0
 49
6.35
 74
     0
 49
-6.35
 74
     0
 49
6.35
 74
     0
 49
-6.35
 74
     0
  0
LTYPE
  5
71
330
5
100
AcDbSymbolTableRecord
100
AcDbLinetypeTableRecord
  2
ACAD_ISO06W100
 70
     0
  3
ISO long-dash triple-dot ____ ... ____ ... ____
 72
    65
 73
     8
 40
36.0
 49
24.0
 74
     0
 49
-3.0
 74
     0
 49
0.0
 74
     0
 49
-3.0
 74
     0
 49
0.0
 74
     0
 49
-3.0
 74
     0
 49
0.0
 74
     0
 49
-3.0
 74
     0
  0
LTYPE
  5
72
330
5
100
AcDbSymbolTableRecord
100
AcDbLinetypeTableRecord
  2
ACAD_ISO15W100
 70
     0
  3
ISO double-dash triple-dot __ __ . . . __ __ . .
 72
    65
 73
    10
 40
39.0
 49
12.0
 74
     0
 49
-3.0
 74
     0
 49
12.0
 74
     0
 49
-3.0
 74
     0
 49
0.0
 74
     0
 49
-3.0
 74
     0
 49
0.0
 74
     0
 49
-3.0
 74
     0
 49
0.0
 74
     0
 49
-3.0
 74
     0
  0
ENDTAB
  0
TABLE
  2
LAYER
  5
2
330
0
100
AcDbSymbolTable
 70
     5
  0
LAYER
  5
10
330
2
100
AcDbSymbolTableRecord
100
AcDbLayerTableRecord
  2
0
 70
     0
 62
     7
  6
CONTINUOUS
  0
LAYER
  5
75
330
2
100
AcDbSymbolTableRecord
100
AcDbLayerTableRecord
  2
LAY-10
 70
     0
 62
     7
  6
CONTINUOUS
  0
LAYER
  5
76
330
2
100
AcDbSymbolTableRecord
100
AcDbLayerTableRecord
  2
LAY-20
 70
     0
 62
     7
  6
CONTINUOUS
  0
LAYER
  5
77
330
2
100
AcDbSymbolTableRecord
100
AcDbLayerTableRecord
  2
LAY-255
 70
     0
 62
     7
  6
CONTINUOUS
  0
LAYER
  5
339
330
2
100
AcDbSymbolTableRecord
100
AcDbLayerTableRecord
  2
DEFPOINTS
 70
     0
 62
     7
  6
CONTINUOUS
  0
ENDTAB
  0
TABLE
  2
STYLE
  5
3
330
0
100
AcDbSymbolTable
 70
     4
  0
STYLE
  5
11
330
3
100
AcDbSymbolTableRecord
100
AcDbTextStyleTableRecord
  2
STANDARD
 70
     0
 40
0.0
 41
1.0
 50
0.0
 71
     0
 42
2.5
  3
simplex
  4
bigfont
  0
STYLE
  5
73
330
3
100
AcDbSymbolTableRecord
100
AcDbTextStyleTableRecord
  2
EXCADSTD
 70
     0
 40
0.0
 41
1.0
 50
0.0
 71
     0
 42
2.5
  3
simplex
  4
bigfont
  0
STYLE
  5
74
330
3
100
AcDbSymbolTableRecord
100
AcDbTextStyleTableRecord
  2
EXCADVERT
 70
     4
 40
0.0
 41
1.0
 50
0.0
 71
     0
 42
2.5
  3
simplex
  4
bigfont
  0
STYLE
  5
337
330
3
100
AcDbSymbolTableRecord
100
AcDbTextStyleTableRecord
  2
EXCADDIM1
 70
     0
 40
0.0
 41
0.84
 50
0.0
 71
     0
 42
2.5
  3
simplex
  4
bigfont
  0
ENDTAB
  0
TABLE
  2
VIEW
  5
6
330
0
100
AcDbSymbolTable
 70
     0
  0
ENDTAB
  0
TABLE
  2
UCS
  5
7
330
0
100
AcDbSymbolTable
 70
     0
  0
ENDTAB
  0
TABLE
  2
APPID
  5
9
330
0
100
AcDbSymbolTable
 70
     2
  0
APPID
  5
12
330
9
100
AcDbSymbolTableRecord
100
AcDbRegAppTableRecord
  2
ACAD
 70
     0
  0
APPID
  5
3F2
330
9
100
AcDbSymbolTableRecord
100
AcDbRegAppTableRecord
  2
ACAD_MLEADERVER
 70
     0
  0
ENDTAB
  0
TABLE
  2
DIMSTYLE
  5
A
330
0
100
AcDbSymbolTable
 70
     1
  0
DIMSTYLE
105
27
102
{ACAD_REACTORS
330
338
330
346
330
353
330
35F
330
36C
330
379
330
386
102
}
330
A
100
AcDbSymbolTableRecord
100
AcDbDimStyleTableRecord
  2
ISO-25
 70
     0
  3

  4

  5

  6

  7

 40
1.0
 41
2.5
 42
0.625
 43
3.75
 44
1.25
 45
0.0
 46
0.0
 47
0.0
 48
0.0
140
2.5
141
2.5
142
0.0
143
0.03937007874016
144
1.0
145
0.0
146
1.0
147
0.625
 71
     0
 72
     0
 73
     0
 74
     0
 75
     0
 76
     0
 77
     1
 78
     8
170
     0
171
     3
172
     1
173
     0
174
     0
175
     0
176
     0
177
     0
178
     0
270
     2
271
     2
272
     2
273
     2
274
     3
340
11
275
     0
280
     0
281
     0
282
     0
283
     0
284
     8
285
     0
286
     0
287
     5
288
     0
  0
ENDTAB
  0
TABLE
  2
BLOCK_RECORD
  5
1
330
0
100
AcDbSymbolTable
 70
    21
  0
BLOCK_RECORD
  5
1F
330
1
100
AcDbSymbolTableRecord
100
AcDbBlockTableRecord
  2
*MODEL_SPACE
  0
BLOCK_RECORD
  5
1B
330
1
100
AcDbSymbolTableRecord
100
AcDbBlockTableRecord
  2
*PAPER_SPACE
  0
BLOCK_RECORD
  5
78
330
1
100
AcDbSymbolTableRecord
100
AcDbBlockTableRecord
  2
EX_NORM
  0
BLOCK_RECORD
  5
7B
330
1
100
AcDbSymbolTableRecord
100
AcDbBlockTableRecord
  2
EX_BNORM
  0
BLOCK_RECORD
  5
7E
330
1
100
AcDbSymbolTableRecord
100
AcDbBlockTableRecord
  2
EX_BCIR
  0
BLOCK_RECORD
  5
81
330
1
100
AcDbSymbolTableRecord
100
AcDbBlockTableRecord
  2
EX_RCIVIL
  0
BLOCK_RECORD
  5
84
330
1
100
AcDbSymbolTableRecord
100
AcDbBlockTableRecord
  2
EX_SLANT
  0
BLOCK_RECORD
  5
87
330
1
100
AcDbSymbolTableRecord
100
AcDbBlockTableRecord
  2
EX_NONE
  0
BLOCK_RECORD
  5
8A
330
1
100
AcDbSymbolTableRecord
100
AcDbBlockTableRecord
  2
EX_CIVIL
  0
BLOCK_RECORD
  5
8D
330
1
100
AcDbSymbolTableRecord
100
AcDbBlockTableRecord
  2
EX_WCIR
  0
BLOCK_RECORD
  5
90
330
1
100
AcDbSymbolTableRecord
100
AcDbBlockTableRecord
  2
EX_WCIR2
  0
BLOCK_RECORD
  5
93
330
1
100
AcDbSymbolTableRecord
100
AcDbBlockTableRecord
  2
EX_WNORM
  0
BLOCK_RECORD
  5
96
330
1
100
AcDbSymbolTableRecord
100
AcDbBlockTableRecord
  2
EX_NNORM
  0
BLOCK_RECORD
  5
99
330
1
100
AcDbSymbolTableRecord
100
AcDbBlockTableRecord
  2
EX_BBOX
  0
BLOCK_RECORD
  5
9C
330
1
100
AcDbSymbolTableRecord
100
AcDbBlockTableRecord
  2
EX_WBOX
  0
BLOCK_RECORD
  5
9F
330
1
100
AcDbSymbolTableRecord
100
AcDbBlockTableRecord
  2
EX_INTEGRAL
  0
BLOCK_RECORD
  5
33A
330
1
100
AcDbSymbolTableRecord
100
AcDbBlockTableRecord
  2
*D15
  0
BLOCK_RECORD
  5
347
330
1
100
AcDbSymbolTableRecord
100
AcDbBlockTableRecord
  2
*D16
  0
BLOCK_RECORD
  5
354
330
1
100
AcDbSymbolTableRecord
100
AcDbBlockTableRecord
  2
*D17
  0
BLOCK_RECORD
  5
360
330
1
100
AcDbSymbolTableRecord
100
AcDbBlockTableRecord
  2
*D18
  0
BLOCK_RECORD
  5
36D
330
1
100
AcDbSymbolTableRecord
100
AcDbBlockTableRecord
  2
*D19
  0
BLOCK_RECORD
  5
37A
330
1
100
AcDbSymbolTableRecord
100
AcDbBlockTableRecord
  2
*D20
  0
BLOCK_RECORD
  5
387
330
1
100
AcDbSymbolTableRecord
100
AcDbBlockTableRecord
  2
*D21
  0
ENDTAB
  0
ENDSEC
  0
SECTION
  2
BLOCKS
  0
BLOCK
  5
20
330
1F
100
AcDbEntity
  8
0
100
AcDbBlockBegin
  2
*MODEL_SPACE
 70
     0
 10
0.0
 20
0.0
 30
0.0
  3
*MODEL_SPACE
  1

  0
ENDBLK
  5
21
330
1F
100
AcDbEntity
  8
0
100
AcDbBlockEnd
  0
BLOCK
  5
1C
330
1B
100
AcDbEntity
 67
     1
  8
0
100
AcDbBlockBegin
  2
*PAPER_SPACE
 70
     0
 10
0.0
 20
0.0
 30
0.0
  3
*PAPER_SPACE
  1

  0
ENDBLK
  5
1D
330
1B
100
AcDbEntity
 67
     1
  8
0
100
AcDbBlockEnd
  0
BLOCK
  5
79
330
78
100
AcDbEntity
  8
0
100
AcDbBlockBegin
  2
EX_NORM
 70
     0
 10
0.0
 20
0.0
 30
0.0
  3
EX_NORM
  1

  0
LINE
  5
A2
330
78
100
AcDbEntity
  8
0
  6
CONTINUOUS
 62
     0
100
AcDbLine
 10
0.0
 20
0.0
 30
0.0
 11
-1.0
 21
0.0
 31
0.0
  0
LINE
  5
A3
330
78
100
AcDbEntity
  8
0
  6
CONTINUOUS
 62
     0
100
AcDbLine
 10
0.0
 20
0.0
 30
0.0
 11
-1.0
 21
0.166666667
 31
0.0
  0
LINE
  5
A4
330
78
100
AcDbEntity
  8
0
  6
CONTINUOUS
 62
     0
100
AcDbLine
 10
0.0
 20
0.0
 30
0.0
 11
-1.0
 21
-0.166666667
 31
0.0
  0
ENDBLK
  5
7A
330
78
100
AcDbEntity
  8
0
100
AcDbBlockEnd
  0
BLOCK
  5
7C
330
7B
100
AcDbEntity
  8
0
100
AcDbBlockBegin
  2
EX_BNORM
 70
     0
 10
0.0
 20
0.0
 30
0.0
  3
EX_BNORM
  1

  0
LINE
  5
A5
330
7B
100
AcDbEntity
  8
0
  6
CONTINUOUS
 62
     0
100
AcDbLine
 10
0.0
 20
0.0
 30
0.0
 11
-1.0
 21
0.0
 31
0.0
  0
LINE
  5
A6
330
7B
100
AcDbEntity
  8
0
  6
CONTINUOUS
 62
     0
100
AcDbLine
 10
0.0
 20
0.0
 30
0.0
 11
-1.0
 21
0.166666667
 31
0.0
  0
LINE
  5
A7
330
7B
100
AcDbEntity
  8
0
  6
CONTINUOUS
 62
     0
100
AcDbLine
 10
0.0
 20
0.0
 30
0.0
 11
-1.0
 21
-0.166666667
 31
0.0
  0
LINE
  5
A8
330
7B
100
AcDbEntity
  8
0
  6
CONTINUOUS
 62
     0
100
AcDbLine
 10
0.0
 20
0.0
 30
0.0
 11
-1.0
 21
0.083333333
 31
0.0
  0
LINE
  5
A9
330
7B
100
AcDbEntity
  8
0
  6
CONTINUOUS
 62
     0
100
AcDbLine
 10
0.0
 20
0.0
 30
0.0
 11
-1.0
 21
-0.083333333
 31
0.0
  0
LINE
  5
AA
330
7B
100
AcDbEntity
  8
0
  6
CONTINUOUS
 62
     0
100
AcDbLine
 10
-1.0
 20
0.166666667
 30
0.0
 11
-1.0
 21
-0.166666667
 31
0.0
  0
ENDBLK
  5
7D
330
7B
100
AcDbEntity
  8
0
100
AcDbBlockEnd
  0
BLOCK
  5
7F
330
7E
100
AcDbEntity
  8
0
100
AcDbBlockBegin
  2
EX_BCIR
 70
     0
 10
0.0
 20
0.0
 30
0.0
  3
EX_BCIR
  1

  0
LINE
  5
AB
330
7E
100
AcDbEntity
  8
0
  6
CONTINUOUS
 62
     0
100
AcDbLine
 10
0.0
 20
0.0
 30
0.0
 11
-1.0
 21
0.0
 31
0.0
  0
CIRCLE
  5
AC
330
7E
100
AcDbEntity
  8
0
  6
CONTINUOUS
 62
     0
100
AcDbCircle
 10
0.0
 20
0.0
 30
0.0
 40
0.5
  0
CIRCLE
  5
AD
330
7E
100
AcDbEntity
  8
0
  6
CONTINUOUS
 62
     0
100
AcDbCircle
 10
0.0
 20
0.0
 30
0.0
 40
0.25
  0
ENDBLK
  5
80
330
7E
100
AcDbEntity
  8
0
100
AcDbBlockEnd
  0
BLOCK
  5
82
330
81
100
AcDbEntity
  8
0
100
AcDbBlockBegin
  2
EX_RCIVIL
 70
     0
 10
0.0
 20
0.0
 30
0.0
  3
EX_RCIVIL
  1

  0
LINE
  5
AE
330
81
100
AcDbEntity
  8
0
  6
CONTINUOUS
 62
     0
100
AcDbLine
 10
0.0
 20
0.0
 30
0.0
 11
-1.0
 21
0.0
 31
0.0
  0
LINE
  5
AF
330
81
100
AcDbEntity
  8
0
  6
CONTINUOUS
 62
     0
100
AcDbLine
 10
-1.0
 20
-0.25
 30
0.0
 11
0.0
 21
-0.25
 31
0.0
  0
LINE
  5
B0
330
81
100
AcDbEntity
  8
0
  6
CONTINUOUS
 62
     0
100
AcDbLine
 10
-1.0
 20
-0.125
 30
0.0
 11
0.0
 21
-0.125
 31
0.0
  0
ENDBLK
  5
83
330
81
100
AcDbEntity
  8
0
100
AcDbBlockEnd
  0
BLOCK
  5
85
330
84
100
AcDbEntity
  8
0
100
AcDbBlockBegin
  2
EX_SLANT
 70
     0
 10
0.0
 20
0.0
 30
0.0
  3
EX_SLANT
  1

  0
LINE
  5
B1
330
84
100
AcDbEntity
  8
0
  6
CONTINUOUS
 62
     0
100
AcDbLine
 10
0.0
 20
0.0
 30
0.0
 11
-1.0
 21
0.0
 31
0.0
  0
LINE
  5
B2
330
84
100
AcDbEntity
  8
0
  6
CONTINUOUS
 62
     0
100
AcDbLine
 10
0.707106781
 20
0.707106781
 30
0.0
 11
-0.707106781
 21
-0.707106781
 31
0.0
  0
ENDBLK
  5
86
330
84
100
AcDbEntity
  8
0
100
AcDbBlockEnd
  0
BLOCK
  5
88
330
87
100
AcDbEntity
  8
0
100
AcDbBlockBegin
  2
EX_NONE
 70
     0
 10
0.0
 20
0.0
 30
0.0
  3
EX_NONE
  1

  0
LINE
  5
B3
330
87
100
AcDbEntity
  8
0
  6
CONTINUOUS
 62
     0
100
AcDbLine
 10
0.0
 20
0.0
 30
0.0
 11
-1.0
 21
0.0
 31
0.0
  0
ENDBLK
  5
89
330
87
100
AcDbEntity
  8
0
100
AcDbBlockEnd
  0
BLOCK
  5
8B
330
8A
100
AcDbEntity
  8
0
100
AcDbBlockBegin
  2
EX_CIVIL
 70
     0
 10
0.0
 20
0.0
 30
0.0
  3
EX_CIVIL
  1

  0
LINE
  5
B4
330
8A
100
AcDbEntity
  8
0
  6
CONTINUOUS
 62
     0
100
AcDbLine
 10
0.0
 20
0.0
 30
0.0
 11
-1.0
 21
0.0
 31
0.0
  0
LINE
  5
B5
330
8A
100
AcDbEntity
  8
0
  6
CONTINUOUS
 62
     0
100
AcDbLine
 10
-1.0
 20
0.25
 30
0.0
 11
0.0
 21
0.25
 31
0.0
  0
LINE
  5
B6
330
8A
100
AcDbEntity
  8
0
  6
CONTINUOUS
 62
     0
100
AcDbLine
 10
-1.0
 20
0.125
 30
0.0
 11
0.0
 21
0.125
 31
0.0
  0
ENDBLK
  5
8C
330
8A
100
AcDbEntity
  8
0
100
AcDbBlockEnd
  0
BLOCK
  5
8E
330
8D
100
AcDbEntity
  8
0
100
AcDbBlockBegin
  2
EX_WCIR
 70
     0
 10
0.0
 20
0.0
 30
0.0
  3
EX_WCIR
  1

  0
LINE
  5
B7
330
8D
100
AcDbEntity
  8
0
  6
CONTINUOUS
 62
     0
100
AcDbLine
 10
0.0
 20
0.0
 30
0.0
 11
-1.0
 21
0.0
 31
0.0
  0
CIRCLE
  5
B8
330
8D
100
AcDbEntity
  8
0
  6
CONTINUOUS
 62
     0
100
AcDbCircle
 10
0.0
 20
0.0
 30
0.0
 40
0.5
  0
ENDBLK
  5
8F
330
8D
100
AcDbEntity
  8
0
100
AcDbBlockEnd
  0
BLOCK
  5
91
330
90
100
AcDbEntity
  8
0
100
AcDbBlockBegin
  2
EX_WCIR2
 70
     0
 10
0.0
 20
0.0
 30
0.0
  3
EX_WCIR2
  1

  0
LINE
  5
B9
330
90
100
AcDbEntity
  8
0
  6
CONTINUOUS
 62
     0
100
AcDbLine
 10
-0.5
 20
0.0
 30
0.0
 11
-1.0
 21
0.0
 31
0.0
  0
CIRCLE
  5
BA
330
90
100
AcDbEntity
  8
0
  6
CONTINUOUS
 62
     0
100
AcDbCircle
 10
0.0
 20
0.0
 30
0.0
 40
0.5
  0
ENDBLK
  5
92
330
90
100
AcDbEntity
  8
0
100
AcDbBlockEnd
  0
BLOCK
  5
94
330
93
100
AcDbEntity
  8
0
100
AcDbBlockBegin
  2
EX_WNORM
 70
     0
 10
0.0
 20
0.0
 30
0.0
  3
EX_WNORM
  1

  0
LINE
  5
BB
330
93
100
AcDbEntity
  8
0
  6
CONTINUOUS
 62
     0
100
AcDbLine
 10
-1.0
 20
0.0
 30
0.0
 11
-1.0
 21
0.0
 31
0.0
  0
LINE
  5
BC
330
93
100
AcDbEntity
  8
0
  6
CONTINUOUS
 62
     0
100
AcDbLine
 10
0.0
 20
0.0
 30
0.0
 11
-1.0
 21
0.166666667
 31
0.0
  0
LINE
  5
BD
330
93
100
AcDbEntity
  8
0
  6
CONTINUOUS
 62
     0
100
AcDbLine
 10
0.0
 20
0.0
 30
0.0
 11
-1.0
 21
-0.166666667
 31
0.0
  0
LINE
  5
BE
330
93
100
AcDbEntity
  8
0
  6
CONTINUOUS
 62
     0
100
AcDbLine
 10
-1.0
 20
0.166666667
 30
0.0
 11
-1.0
 21
-0.166666667
 31
0.0
  0
ENDBLK
  5
95
330
93
100
AcDbEntity
  8
0
100
AcDbBlockEnd
  0
BLOCK
  5
97
330
96
100
AcDbEntity
  8
0
100
AcDbBlockBegin
  2
EX_NNORM
 70
     0
 10
0.0
 20
0.0
 30
0.0
  3
EX_NNORM
  1

  0
LINE
  5
BF
330
96
100
AcDbEntity
  8
0
  6
CONTINUOUS
 62
     0
100
AcDbLine
 10
0.0
 20
0.0
 30
0.0
 11
-1.0
 21
0.0
 31
0.0
  0
LINE
  5
C0
330
96
100
AcDbEntity
  8
0
  6
CONTINUOUS
 62
     0
100
AcDbLine
 10
0.0
 20
0.0
 30
0.0
 11
-1.0
 21
0.166666667
 31
0.0
  0
LINE
  5
C1
330
96
100
AcDbEntity
  8
0
  6
CONTINUOUS
 62
     0
100
AcDbLine
 10
0.0
 20
0.0
 30
0.0
 11
-1.0
 21
-0.166666667
 31
0.0
  0
LINE
  5
C2
330
96
100
AcDbEntity
  8
0
  6
CONTINUOUS
 62
     0
100
AcDbLine
 10
-1.0
 20
0.166666667
 30
0.0
 11
-1.0
 21
-0.166666667
 31
0.0
  0
ENDBLK
  5
98
330
96
100
AcDbEntity
  8
0
100
AcDbBlockEnd
  0
BLOCK
  5
9A
330
99
100
AcDbEntity
  8
0
100
AcDbBlockBegin
  2
EX_BBOX
 70
     0
 10
0.0
 20
0.0
 30
0.0
  3
EX_BBOX
  1

  0
LINE
  5
C3
330
99
100
AcDbEntity
  8
0
  6
CONTINUOUS
 62
     0
100
AcDbLine
 10
0.0
 20
0.0
 30
0.0
 11
-1.0
 21
0.0
 31
0.0
  0
LINE
  5
C4
330
99
100
AcDbEntity
  8
0
  6
CONTINUOUS
 62
     0
100
AcDbLine
 10
-0.5
 20
0.5
 30
0.0
 11
0.5
 21
0.5
 31
0.0
  0
LINE
  5
C5
330
99
100
AcDbEntity
  8
0
  6
CONTINUOUS
 62
     0
100
AcDbLine
 10
0.5
 20
0.5
 30
0.0
 11
0.5
 21
-0.5
 31
0.0
  0
LINE
  5
C6
330
99
100
AcDbEntity
  8
0
  6
CONTINUOUS
 62
     0
100
AcDbLine
 10
0.5
 20
-0.5
 30
0.0
 11
-0.5
 21
-0.5
 31
0.0
  0
LINE
  5
C7
330
99
100
AcDbEntity
  8
0
  6
CONTINUOUS
 62
     0
100
AcDbLine
 10
-0.5
 20
-0.5
 30
0.0
 11
-0.5
 21
0.5
 31
0.0
  0
LINE
  5
C8
330
99
100
AcDbEntity
  8
0
  6
CONTINUOUS
 62
     0
100
AcDbLine
 10
-0.25
 20
0.25
 30
0.0
 11
0.25
 21
0.25
 31
0.0
  0
LINE
  5
C9
330
99
100
AcDbEntity
  8
0
  6
CONTINUOUS
 62
     0
100
AcDbLine
 10
0.25
 20
0.25
 30
0.0
 11
0.25
 21
-0.25
 31
0.0
  0
LINE
  5
CA
330
99
100
AcDbEntity
  8
0
  6
CONTINUOUS
 62
     0
100
AcDbLine
 10
0.25
 20
-0.25
 30
0.0
 11
-0.25
 21
-0.25
 31
0.0
  0
LINE
  5
CB
330
99
100
AcDbEntity
  8
0
  6
CONTINUOUS
 62
     0
100
AcDbLine
 10
-0.25
 20
-0.25
 30
0.0
 11
-0.25
 21
0.25
 31
0.0
  0
ENDBLK
  5
9B
330
99
100
AcDbEntity
  8
0
100
AcDbBlockEnd
  0
BLOCK
  5
9D
330
9C
100
AcDbEntity
  8
0
100
AcDbBlockBegin
  2
EX_WBOX
 70
     0
 10
0.0
 20
0.0
 30
0.0
  3
EX_WBOX
  1

  0
LINE
  5
CC
330
9C
100
AcDbEntity
  8
0
  6
CONTINUOUS
 62
     0
100
AcDbLine
 10
-0.5
 20
0.0
 30
0.0
 11
-1.0
 21
0.0
 31
0.0
  0
LINE
  5
CD
330
9C
100
AcDbEntity
  8
0
  6
CONTINUOUS
 62
     0
100
AcDbLine
 10
-0.5
 20
0.5
 30
0.0
 11
0.5
 21
0.5
 31
0.0
  0
LINE
  5
CE
330
9C
100
AcDbEntity
  8
0
  6
CONTINUOUS
 62
     0
100
AcDbLine
 10
0.5
 20
0.5
 30
0.0
 11
0.5
 21
-0.5
 31
0.0
  0
LINE
  5
CF
330
9C
100
AcDbEntity
  8
0
  6
CONTINUOUS
 62
     0
100
AcDbLine
 10
0.5
 20
-0.5
 30
0.0
 11
-0.5
 21
-0.5
 31
0.0
  0
LINE
  5
D0
330
9C
100
AcDbEntity
  8
0
  6
CONTINUOUS
 62
     0
100
AcDbLine
 10
-0.5
 20
-0.5
 30
0.0
 11
-0.5
 21
0.5
 31
0.0
  0
ENDBLK
  5
9E
330
9C
100
AcDbEntity
  8
0
100
AcDbBlockEnd
  0
BLOCK
  5
A0
330
9F
100
AcDbEntity
  8
0
100
AcDbBlockBegin
  2
EX_INTEGRAL
 70
     0
 10
0.0
 20
0.0
 30
0.0
  3
EX_INTEGRAL
  1

  0
LINE
  5
D1
330
9F
100
AcDbEntity
  8
0
  6
CONTINUOUS
 62
     0
100
AcDbLine
 10
0.0
 20
0.0
 30
0.0
 11
-1.0
 21
0.0
 31
0.0
  0
ARC
  5
D2
330
9F
100
AcDbEntity
  8
0
  6
CONTINUOUS
 62
     0
100
AcDbCircle
 10
0.542115
 20
0.164992
 30
0.0
 40
0.56667
100
AcDbArc
 50
73.07249033629006
 51
196.9275130221199
  0
ARC
  5
D3
330
9F
100
AcDbEntity
  8
0
  6
CONTINUOUS
 62
     0
100
AcDbCircle
 10
-0.542115
 20
-0.164992
 30
0.0
 40
0.56667
100
AcDbArc
 50
253.0724869220464
 51
16.9275130559125
  0
ENDBLK
  5
A1
330
9F
100
AcDbEntity
  8
0
100
AcDbBlockEnd
  0
BLOCK
  5
33B
330
33A
100
AcDbEntity
  8
0
100
AcDbBlockBegin
  2
*D15
 70
     1
 10
0.0
 20
0.0
 30
0.0
  3
*D15
  1

  0
LINE
  5
33D
330
33A
100
AcDbEntity
  8
LAY-20
  6
CONTINUOUS
 62
     4
100
AcDbLine
 10
390.5
 20
223.13123299526
 30
0.0
 11
325.5
 21
223.13123299526
 31
0.0
  0
LINE
  5
33E
330
33A
100
AcDbEntity
  8
LAY-20
  6
CONTINUOUS
 62
     4
100
AcDbLine
 10
356.5
 20
247.99999999999
 30
0.0
 11
325.5
 21
247.99999999999
 31
0.0
  0
LINE
  5
33F
330
33A
100
AcDbEntity
  8
LAY-20
  6
CONTINUOUS
 62
     4
100
AcDbLine
 10
330.0
 20
230.63123299526
 30
0.0
 11
330.0
 21
240.49999999999
 31
0.0
  0
INSERT
  5
340
330
33A
100
AcDbEntity
  8
LAY-20
 62
     4
100
AcDbBlockReference
  2
EX_BNORM
 10
330.0
 20
223.13123299526
 30
0.0
 41
7.5
 42
7.5
 43
7.5
 50
270.0
  0
INSERT
  5
341
330
33A
100
AcDbEntity
  8
LAY-20
 62
     4
100
AcDbBlockReference
  2
EX_BNORM
 10
330.0
 20
247.99999999999
 30
0.0
 41
7.5
 42
7.5
 43
7.5
 50
90.0
  0
MTEXT
  5
342
330
33A
100
AcDbEntity
  8
LAY-20
 62
     7
100
AcDbMText
 10
322.5
 20
235.565616497625
 30
0.0
 40
9.3543312
 41
0.0
 71
     5
 72
     1
  1
25
  7
EXCADDIM1
 11
0.0
 21
1.0
 31
0.0
  0
POINT
  5
343
330
33A
100
AcDbEntity
  8
DEFPOINTS
 62
     0
100
AcDbPoint
 10
395.0
 20
223.13123299526
 30
0.0
  0
POINT
  5
344
330
33A
100
AcDbEntity
  8
DEFPOINTS
 62
     0
100
AcDbPoint
 10
361.0
 20
247.99999999999
 30
0.0
  0
POINT
  5
345
330
33A
100
AcDbEntity
  8
DEFPOINTS
 62
     0
100
AcDbPoint
 10
330.0
 20
247.99999999999
 30
0.0
  0
ENDBLK
  5
33C
330
33A
100
AcDbEntity
  8
0
100
AcDbBlockEnd
  0
BLOCK
  5
348
330
347
100
AcDbEntity
  8
0
100
AcDbBlockBegin
  2
*D16
 70
     1
 10
0.0
 20
0.0
 30
0.0
  3
*D16
  1

  0
LINE
  5
34A
330
347
100
AcDbEntity
  8
LAY-20
  6
CONTINUOUS
 62
     4
100
AcDbLine
 10
539.5
 20
187.99999999999
 30
0.0
 11
604.5
 21
187.99999999999
 31
0.0
  0
LINE
  5
34B
330
347
100
AcDbEntity
  8
LAY-20
  6
CONTINUOUS
 62
     4
100
AcDbLine
 10
573.5
 20
247.99999999999
 30
0.0
 11
604.5
 21
247.99999999999
 31
0.0
  0
LINE
  5
34C
330
347
100
AcDbEntity
  8
LAY-20
  6
CONTINUOUS
 62
     4
100
AcDbLine
 10
600.0
 20
195.49999999999
 30
0.0
 11
600.0
 21
240.49999999999
 31
0.0
  0
INSERT
  5
34D
330
347
100
AcDbEntity
  8
LAY-20
 62
     4
100
AcDbBlockReference
  2
EX_BNORM
 10
600.0
 20
187.99999999999
 30
0.0
 41
7.5
 42
7.5
 43
7.5
 50
270.0
  0
INSERT
  5
34E
330
347
100
AcDbEntity
  8
LAY-20
 62
     4
100
AcDbBlockReference
  2
EX_BNORM
 10
600.0
 20
247.99999999999
 30
0.0
 41
7.5
 42
7.5
 43
7.5
 50
90.0
  0
MTEXT
  5
34F
330
347
100
AcDbEntity
  8
LAY-20
 62
     7
100
AcDbMText
 10
592.5
 20
217.99999999999
 30
0.0
 40
9.3543312
 41
0.0
 71
     5
 72
     1
  1
60
  7
EXCADDIM1
 11
0.0
 21
1.0
 31
0.0
  0
POINT
  5
350
330
347
100
AcDbEntity
  8
DEFPOINTS
 62
     0
100
AcDbPoint
 10
535.0
 20
187.99999999999
 30
0.0
  0
POINT
  5
351
330
347
100
AcDbEntity
  8
DEFPOINTS
 62
     0
100
AcDbPoint
 10
569.0
 20
247.99999999999
 30
0.0
  0
POINT
  5
352
330
347
100
AcDbEntity
  8
DEFPOINTS
 62
     0
100
AcDbPoint
 10
600.0
 20
247.99999999999
 30
0.0
  0
ENDBLK
  5
349
330
347
100
AcDbEntity
  8
0
100
AcDbBlockEnd
  0
BLOCK
  5
355
330
354
100
AcDbEntity
  8
0
100
AcDbBlockBegin
  2
*D17
 70
     1
 10
0.0
 20
0.0
 30
0.0
  3
*D17
  1

  0
LINE
  5
357
330
354
100
AcDbEntity
  8
LAY-20
  6
CONTINUOUS
 62
     4
100
AcDbLine
 10
469.5
 20
389.9999999999899
 30
0.0
 11
604.5
 21
389.9999999999899
 31
0.0
  0
LINE
  5
358
330
354
100
AcDbEntity
  8
LAY-20
  6
CONTINUOUS
 62
     4
100
AcDbLine
 10
600.0
 20
255.49999999999
 30
0.0
 11
600.0
 21
382.4999999999899
 31
0.0
  0
INSERT
  5
359
330
354
100
AcDbEntity
  8
LAY-20
 62
     4
100
AcDbBlockReference
  2
EX_BNORM
 10
600.0
 20
247.99999999999
 30
0.0
 41
7.5
 42
7.5
 43
7.5
 50
270.0
  0
INSERT
  5
35A
330
354
100
AcDbEntity
  8
LAY-20
 62
     4
100
AcDbBlockReference
  2
EX_BNORM
 10
600.0
 20
389.9999999999899
 30
0.0
 41
7.5
 42
7.5
 43
7.5
 50
90.0
  0
MTEXT
  5
35B
330
354
100
AcDbEntity
  8
LAY-20
 62
     7
100
AcDbMText
 10
592.5
 20
318.99999999999
 30
0.0
 40
9.3543312
 41
0.0
 71
     5
 72
     1
  1
142
  7
EXCADDIM1
 11
0.0
 21
1.0
 31
0.0
  0
POINT
  5
35C
330
354
100
AcDbEntity
  8
DEFPOINTS
 62
     0
100
AcDbPoint
 10
600.0
 20
247.99999999999
 30
0.0
  0
POINT
  5
35D
330
354
100
AcDbEntity
  8
DEFPOINTS
 62
     0
100
AcDbPoint
 10
465.0
 20
389.9999999999899
 30
0.0
  0
POINT
  5
35E
330
354
100
AcDbEntity
  8
DEFPOINTS
 62
     0
100
AcDbPoint
 10
600.0
 20
389.9999999999899
 30
0.0
  0
ENDBLK
  5
356
330
354
100
AcDbEntity
  8
0
100
AcDbBlockEnd
  0
BLOCK
  5
361
330
360
100
AcDbEntity
  8
0
100
AcDbBlockBegin
  2
*D18
 70
     1
 10
0.0
 20
0.0
 30
0.0
  3
*D18
  1

  0
LINE
  5
363
330
360
100
AcDbEntity
  8
LAY-20
  6
CONTINUOUS
 62
     4
100
AcDbLine
 10
408.49999999999
 20
190.49999999999
 30
0.0
 11
408.49999999999
 21
153.49999999999
 31
0.0
  0
LINE
  5
364
330
360
100
AcDbEntity
  8
LAY-20
  6
CONTINUOUS
 62
     4
100
AcDbLine
 10
521.5
 20
183.49999999999
 30
0.0
 11
521.5
 21
153.49999999999
 31
0.0
  0
LINE
  5
365
330
360
100
AcDbEntity
  8
LAY-20
  6
CONTINUOUS
 62
     4
100
AcDbLine
 10
417.49999999999
 20
157.99999999999
 30
0.0
 11
512.5
 21
157.99999999999
 31
0.0
  0
INSERT
  5
366
330
360
100
AcDbEntity
  8
LAY-20
 62
     4
100
AcDbBlockReference
  2
EX_BNORM
 10
408.49999999999
 20
157.99999999999
 30
0.0
 41
9.0
 42
9.0
 43
9.0
 50
180.0
  0
INSERT
  5
367
330
360
100
AcDbEntity
  8
LAY-20
 62
     4
100
AcDbBlockReference
  2
EX_BNORM
 10
521.5
 20
157.99999999999
 30
0.0
 41
9.0
 42
9.0
 43
9.0
  0
MTEXT
  5
368
330
360
100
AcDbEntity
  8
LAY-20
 62
     7
100
AcDbMText
 10
464.999999999995
 20
165.49999999999
 30
0.0
 40
9.3543312
 41
0.0
 71
     5
 72
     1
  1
Rｃ4(113.0)
  7
EXCADDIM1
  0
POINT
  5
369
330
360
100
AcDbEntity
  8
DEFPOINTS
 62
     0
100
AcDbPoint
 10
408.49999999999
 20
194.99999999999
 30
0.0
  0
POINT
  5
36A
330
360
100
AcDbEntity
  8
DEFPOINTS
 62
     0
100
AcDbPoint
 10
521.5
 20
187.99999999999
 30
0.0
  0
POINT
  5
36B
330
360
100
AcDbEntity
  8
DEFPOINTS
 62
     0
100
AcDbPoint
 10
521.5
 20
157.99999999999
 30
0.0
  0
ENDBLK
  5
362
330
360
100
AcDbEntity
  8
0
100
AcDbBlockEnd
  0
BLOCK
  5
36E
330
36D
100
AcDbEntity
  8
0
100
AcDbBlockBegin
  2
*D19
 70
     1
 10
0.0
 20
0.0
 30
0.0
  3
*D19
  1

  0
LINE
  5
370
330
36D
100
AcDbEntity
  8
LAY-20
  6
CONTINUOUS
 62
     4
100
AcDbLine
 10
384.00400827212
 20
254.57005948234
 30
0.0
 11
384.00400827212
 21
424.5
 31
0.0
  0
LINE
  5
371
330
36D
100
AcDbEntity
  8
LAY-20
  6
CONTINUOUS
 62
     4
100
AcDbLine
 10
546.00000000001
 20
252.99999999999
 30
0.0
 11
546.00000000001
 21
424.5
 31
0.0
  0
LINE
  5
372
330
36D
100
AcDbEntity
  8
LAY-20
  6
CONTINUOUS
 62
     4
100
AcDbLine
 10
393.00400827212
 20
420.0
 30
0.0
 11
537.00000000001
 21
420.0
 31
0.0
  0
INSERT
  5
373
330
36D
100
AcDbEntity
  8
LAY-20
 62
     4
100
AcDbBlockReference
  2
EX_BNORM
 10
384.00400827212
 20
420.0
 30
0.0
 41
9.0
 42
9.0
 43
9.0
 50
180.0
  0
INSERT
  5
374
330
36D
100
AcDbEntity
  8
LAY-20
 62
     4
100
AcDbBlockReference
  2
EX_BNORM
 10
546.00000000001
 20
420.0
 30
0.0
 41
9.0
 42
9.0
 43
9.0
  0
MTEXT
  5
375
330
36D
100
AcDbEntity
  8
LAY-20
 62
     7
100
AcDbMText
 10
465.002004136065
 20
427.5
 30
0.0
 40
9.3543312
 41
0.0
 71
     5
 72
     1
  1
%%c162
  7
EXCADDIM1
  0
POINT
  5
376
330
36D
100
AcDbEntity
  8
DEFPOINTS
 62
     0
100
AcDbPoint
 10
384.00400827212
 20
250.07005948234
 30
0.0
  0
POINT
  5
377
330
36D
100
AcDbEntity
  8
DEFPOINTS
 62
     0
100
AcDbPoint
 10
546.00000000001
 20
248.49999999999
 30
0.0
  0
POINT
  5
378
330
36D
100
AcDbEntity
  8
DEFPOINTS
 62
     0
100
AcDbPoint
 10
546.00000000001
 20
420.0
 30
0.0
  0
ENDBLK
  5
36F
330
36D
100
AcDbEntity
  8
0
100
AcDbBlockEnd
  0
BLOCK
  5
37B
330
37A
100
AcDbEntity
  8
0
100
AcDbBlockBegin
  2
*D20
 70
     1
 10
0.0
 20
0.0
 30
0.0
  3
*D20
  1

  0
LINE
  5
37D
330
37A
100
AcDbEntity
  8
LAY-20
  6
CONTINUOUS
 62
     4
100
AcDbLine
 10
381.00000000002
 20
252.49999999999
 30
0.0
 11
381.00000000002
 21
441.0
 31
0.0
  0
LINE
  5
37E
330
37A
100
AcDbEntity
  8
LAY-20
  6
CONTINUOUS
 62
     4
100
AcDbLine
 10
548.99999999998
 20
252.49999999999
 30
0.0
 11
548.99999999998
 21
441.0
 31
0.0
  0
LINE
  5
37F
330
37A
100
AcDbEntity
  8
LAY-20
  6
CONTINUOUS
 62
     4
100
AcDbLine
 10
390.00000000002
 20
441.0
 30
0.0
 11
539.99999999998
 21
441.0
 31
0.0
  0
INSERT
  5
380
330
37A
100
AcDbEntity
  8
LAY-20
 62
     4
100
AcDbBlockReference
  2
EX_BNORM
 10
381.00000000002
 20
441.0
 30
0.0
 41
9.0
 42
9.0
 43
9.0
 50
180.0
  0
INSERT
  5
381
330
37A
100
AcDbEntity
  8
LAY-20
 62
     4
100
AcDbBlockReference
  2
EX_BNORM
 10
548.99999999998
 20
441.0
 30
0.0
 41
9.0
 42
9.0
 43
9.0
  0
MTEXT
  5
382
330
37A
100
AcDbEntity
  8
LAY-20
 62
     7
100
AcDbMText
 10
465.0
 20
448.5
 30
0.0
 40
9.3543312
 41
0.0
 71
     5
 72
     1
  1
%%c168
  7
EXCADDIM1
  0
POINT
  5
383
330
37A
100
AcDbEntity
  8
DEFPOINTS
 62
     0
100
AcDbPoint
 10
381.00000000002
 20
252.49999999999
 30
0.0
  0
POINT
  5
384
330
37A
100
AcDbEntity
  8
DEFPOINTS
 62
     0
100
AcDbPoint
 10
548.99999999998
 20
252.49999999999
 30
0.0
  0
POINT
  5
385
330
37A
100
AcDbEntity
  8
DEFPOINTS
 62
     0
100
AcDbPoint
 10
548.99999999998
 20
441.0
 30
0.0
  0
ENDBLK
  5
37C
330
37A
100
AcDbEntity
  8
0
100
AcDbBlockEnd
  0
BLOCK
  5
388
330
387
100
AcDbEntity
  8
0
100
AcDbBlockBegin
  2
*D21
 70
     1
 10
0.0
 20
0.0
 30
0.0
  3
*D21
  1

  0
LINE
  5
38A
330
387
100
AcDbEntity
  8
LAY-20
  6
CONTINUOUS
 62
     4
100
AcDbLine
 10
360.0
 20
256.8
 30
0.0
 11
360.0
 21
462.0
 31
0.0
  0
LINE
  5
38B
330
387
100
AcDbEntity
  8
LAY-20
  6
CONTINUOUS
 62
     4
100
AcDbLine
 10
570.0
 20
255.6
 30
0.0
 11
570.0
 21
462.0
 31
0.0
  0
LINE
  5
38C
330
387
100
AcDbEntity
  8
LAY-20
  6
CONTINUOUS
 62
     4
100
AcDbLine
 10
369.0
 20
462.0
 30
0.0
 11
561.0
 21
462.0
 31
0.0
  0
INSERT
  5
38D
330
387
100
AcDbEntity
  8
LAY-20
 62
     4
100
AcDbBlockReference
  2
EX_BNORM
 10
360.0
 20
462.0
 30
0.0
 41
9.0
 42
9.0
 43
9.0
 50
180.0
  0
INSERT
  5
38E
330
387
100
AcDbEntity
  8
LAY-20
 62
     4
100
AcDbBlockReference
  2
EX_BNORM
 10
570.0
 20
462.0
 30
0.0
 41
9.0
 42
9.0
 43
9.0
  0
MTEXT
  5
38F
330
387
100
AcDbEntity
  8
LAY-20
 62
     7
100
AcDbMText
 10
465.0
 20
469.5
 30
0.0
 40
9.3543312
 41
0.0
 71
     5
 72
     1
  1
%%c210
  7
EXCADDIM1
  0
POINT
  5
390
330
387
100
AcDbEntity
  8
DEFPOINTS
 62
     0
100
AcDbPoint
 10
360.0
 20
256.8
 30
0.0
  0
POINT
  5
391
330
387
100
AcDbEntity
  8
DEFPOINTS
 62
     0
100
AcDbPoint
 10
570.0
 20
255.6
 30
0.0
  0
POINT
  5
392
330
387
100
AcDbEntity
  8
DEFPOINTS
 62
     0
100
AcDbPoint
 10
570.0
 20
462.0
 30
0.0
  0
ENDBLK
  5
389
330
387
100
AcDbEntity
  8
0
100
AcDbBlockEnd
  0
ENDSEC
  0
SECTION
  2
ENTITIES
  0
LINE
  5
D4
330
1F
100
AcDbEntity
  8
LAY-10
  6
CONTINUOUS
 62
     7
100
AcDbLine
 10
359.999999999999
 20
240.9999999999853
 30
0.0
 11
360.999999999999
 21
247.9999999999853
 31
0.0
  0
LINE
  5
D5
330
1F
100
AcDbEntity
  8
LAY-10
  6
CONTINUOUS
 62
     7
100
AcDbLine
 10
381.4192622342825
 20
239.9999999999852
 30
0.0
 11
381.049664968058
 21
247.0523359562282
 31
0.0
  0
LINE
  5
D6
330
1F
100
AcDbEntity
  8
LAY-10
  6
CONTINUOUS
 62
     7
100
AcDbLine
 10
569.999999999999
 20
240.9999999999853
 30
0.0
 11
568.9999999999989
 21
247.9999999999853
 31
0.0
  0
LINE
  5
D7
330
1F
100
AcDbEntity
  8
LAY-10
  6
CONTINUOUS
 62
     7
100
AcDbLine
 10
548.5807377657155
 20
239.9999999999853
 30
0.0
 11
548.9503350319395
 21
247.0523359562282
 31
0.0
  0
LINE
  5
D8
330
1F
100
AcDbEntity
  8
LAY-10
  6
CONTINUOUS
 62
     7
100
AcDbLine
 10
555.7558221311932
 20
245.7909791977667
 30
0.0
 11
564.0000000000498
 21
247.9999999999853
 31
0.0
  0
LINE
  5
D9
330
1F
100
AcDbEntity
  8
LAY-10
  6
CONTINUOUS
 62
     7
100
AcDbLine
 10
374.2441778688048
 20
245.7909791977667
 30
0.0
 11
365.9999999999482
 21
247.9999999999853
 31
0.0
  0
ARC
  5
DA
330
1F
100
AcDbEntity
  8
LAY-10
  6
CONTINUOUS
 62
     7
100
AcDbCircle
 10
374.76181595901
 20
247.7228308503447
 30
0.0
 40
2.0
100
AcDbArc
 50
254.9999999999989
 51
339.5341701770192
  0
ARC
  5
DB
330
1F
100
AcDbEntity
  8
LAY-10
  6
CONTINUOUS
 62
     7
100
AcDbCircle
 10
381.4422719702956
 20
246.9999999999853
 30
0.0
 40
1.0
100
AcDbArc
 50
5.529636333241641
 51
90.0
  0
ARC
  5
DC
330
1F
100
AcDbEntity
  8
LAY-10
  6
CONTINUOUS
 62
     7
100
AcDbCircle
 10
380.0510354333035
 20
246.9999999999853
 30
0.0
 40
1.0
100
AcDbArc
 50
2.999999999997486
 51
90.0
  0
LINE
  5
DD
330
1F
100
AcDbEntity
  8
LAY-10
  6
CONTINUOUS
 62
     7
100
AcDbLine
 10
376.6355777191578
 20
247.0235334413634
 30
0.0
 11
376.7572855922578
 21
247.349648704476
 31
0.0
  0
ARC
  5
DE
330
1F
100
AcDbEntity
  8
LAY-10
  6
CONTINUOUS
 62
     7
100
AcDbCircle
 10
377.6941664723317
 20
246.9999999999853
 30
0.0
 40
1.0
100
AcDbArc
 50
90.0
 51
159.5341701770192
  0
ARC
  5
DF
330
1F
100
AcDbEntity
  8
LAY-10
  6
CONTINUOUS
 62
     7
100
AcDbCircle
 10
435.8839937295946
 20
246.9999999999853
 30
0.0
 40
1.0
100
AcDbArc
 50
13.98792148729277
 51
90.0
  0
LINE
  5
E0
330
1F
100
AcDbEntity
  8
LAY-10
  6
CONTINUOUS
 62
     7
100
AcDbLine
 10
437.4920262721581
 20
244.6818002693129
 30
0.0
 11
436.8543404338201
 21
247.2417173423479
 31
0.0
  0
ARC
  5
E1
330
1F
100
AcDbEntity
  8
LAY-10
  6
CONTINUOUS
 62
     7
100
AcDbCircle
 10
480.4604097958987
 20
247.6132492959085
 30
0.0
 40
0.386750704082061
100
AcDbArc
 50
23.43556890765674
 51
189.9385365197759
  0
LINE
  5
E2
330
1F
100
AcDbEntity
  8
LAY-10
  6
CONTINUOUS
 62
     7
100
AcDbLine
 10
481.6147059333887
 20
245.922790524507
 30
0.0
 11
480.8152566228421
 21
247.767066838836
 31
0.0
  0
ARC
  5
E3
330
1F
100
AcDbEntity
  8
LAY-10
  6
CONTINUOUS
 62
     7
100
AcDbCircle
 10
482.5322138349978
 20
246.3205080756479
 30
0.0
 40
1.0
100
AcDbArc
 50
203.4355689076866
 51
270.0
  0
LINE
  5
E4
330
1F
100
AcDbEntity
  8
LAY-10
  6
CONTINUOUS
 62
     7
100
AcDbLine
 10
480.5693063132815
 20
244.7509259764875
 30
0.0
 11
480.0794628795298
 21
247.5464993594817
 31
0.0
  0
ARC
  5
E5
330
1F
100
AcDbEntity
  8
LAY-10
  6
CONTINUOUS
 62
     7
100
AcDbCircle
 10
548.5577280297023
 20
246.9999999999853
 30
0.0
 40
1.0
100
AcDbArc
 50
90.0
 51
174.4703636667532
  0
ARC
  5
E6
330
1F
100
AcDbEntity
  8
LAY-10
  6
CONTINUOUS
 62
     7
100
AcDbCircle
 10
547.107173632154
 20
246.9999999999853
 30
0.0
 40
1.0
100
AcDbArc
 50
42.66963398003723
 51
90.0
  0
ARC
  5
E7
330
1F
100
AcDbEntity
  8
LAY-10
  6
CONTINUOUS
 62
     7
100
AcDbCircle
 10
549.9489645666948
 20
246.9999999999853
 30
0.0
 40
1.0
100
AcDbArc
 50
90.0
 51
177.0000000000076
  0
ARC
  5
E8
330
1F
100
AcDbEntity
  8
LAY-10
  6
CONTINUOUS
 62
     7
100
AcDbCircle
 10
545.1094271154242
 20
246.9999999999853
 30
0.0
 40
1.0
100
AcDbArc
 50
90.0
 51
181.8346977048982
  0
LINE
  5
E9
330
1F
100
AcDbEntity
  8
LAY-10
  6
CONTINUOUS
 62
     7
100
AcDbLine
 10
544.1764546096413
 20
244.8915015680225
 30
0.0
 11
544.109939760352
 21
246.9679839563323
 31
0.0
  0
LINE
  5
EA
330
1F
100
AcDbEntity
  8
LAY-10
  6
CONTINUOUS
 62
     7
100
AcDbLine
 10
547.3426973944578
 20
244.8271570017303
 30
0.0
 11
547.5623815408602
 21
247.0963606099304
 31
0.0
  0
ARC
  5
EB
330
1F
100
AcDbEntity
  8
LAY-10
  6
CONTINUOUS
 62
     7
100
AcDbCircle
 10
546.3473509056155
 20
244.9235176116755
 30
0.0
 40
1.0
100
AcDbArc
 50
270.0
 51
354.4703636667533
  0
ARC
  5
EC
330
1F
100
AcDbEntity
  8
LAY-10
  6
CONTINUOUS
 62
     7
100
AcDbCircle
 10
555.2381840409882
 20
247.7228308503447
 30
0.0
 40
2.0
100
AcDbArc
 50
200.4658298229825
 51
284.9999999999979
  0
LINE
  5
ED
330
1F
100
AcDbEntity
  8
LAY-10
  6
CONTINUOUS
 62
     7
100
AcDbLine
 10
553.3644222808406
 20
247.0235334413634
 30
0.0
 11
553.2427144077404
 21
247.3496487044759
 31
0.0
  0
ARC
  5
EE
330
1F
100
AcDbEntity
  8
LAY-10
  6
CONTINUOUS
 62
     7
100
AcDbCircle
 10
552.3058335276663
 20
246.9999999999853
 30
0.0
 40
1.0
100
AcDbArc
 50
20.46582982297632
 51
90.0
  0
LINE
  5
EF
330
1F
100
AcDbEntity
  8
LAY-10
  6
CONTINUOUS
 62
     7
100
AcDbLine
 10
385.5000000000006
 20
232.4999999999894
 30
0.0
 11
390.5000000000002
 21
232.4999999999894
 31
0.0
  0
LINE
  5
F0
330
1F
100
AcDbEntity
  8
LAY-10
  6
CONTINUOUS
 62
     7
100
AcDbLine
 10
387.9999999999993
 20
231.0566243270158
 30
0.0
 11
385.5000000000002
 21
232.4999999999894
 31
0.0
  0
LINE
  5
F1
330
1F
100
AcDbEntity
  8
LAY-10
  6
CONTINUOUS
 62
     7
100
AcDbLine
 10
387.9999999999993
 20
231.056624327016
 30
0.0
 11
390.4999999999984
 21
232.4999999999894
 31
0.0
  0
LINE
  5
F2
330
1F
100
AcDbEntity
  8
LAY-10
  6
CONTINUOUS
 62
     7
100
AcDbLine
 10
382.6573026055402
 20
244.8271570017304
 30
0.0
 11
382.437618459138
 21
247.0963606099304
 31
0.0
  0
ARC
  5
F3
330
1F
100
AcDbEntity
  8
LAY-10
  6
CONTINUOUS
 62
     7
100
AcDbCircle
 10
383.6526490943826
 20
244.9235176116755
 30
0.0
 40
1.0
100
AcDbArc
 50
185.5296363332416
 51
270.0
  0
ARC
  5
F4
330
1F
100
AcDbEntity
  8
LAY-10
  6
CONTINUOUS
 62
     7
100
AcDbCircle
 10
464.999999999999
 20
342.1955941215174
 30
0.0
 40
47.80440587847321
100
AcDbArc
 50
9.999999999998515
 51
170.0000000000015
  0
LINE
  5
F5
330
1F
100
AcDbEntity
  8
LAY-10
  6
CONTINUOUS
 62
     7
100
AcDbLine
 10
421.8610814747852
 20
349.8021493760958
 30
0.0
 11
402.4999999999993
 21
239.9999999999901
 31
0.0
  0
LINE
  5
F6
330
1F
100
AcDbEntity
  8
LAY-10
  6
CONTINUOUS
 62
     7
100
AcDbLine
 10
399.7607459077697
 20
247.4999999999901
 30
0.0
 11
417.9218504627368
 21
350.4967420867634
 31
0.0
  0
ARC
  5
F7
330
1F
100
AcDbEntity
  8
LAY-10
  6
CONTINUOUS
 62
     7
100
AcDbCircle
 10
464.999999999999
 20
342.1955941215174
 30
0.0
 40
43.80440587847264
100
AcDbArc
 50
9.999999999998742
 51
170.000000000002
  0
LINE
  5
F8
330
1F
100
AcDbEntity
  8
LAY-10
  6
CONTINUOUS
 62
     7
100
AcDbLine
 10
491.9999999999985
 20
381.6450709417978
 30
0.0
 11
492.9999999999989
 21
375.8827723109408
 31
0.0
  0
LINE
  5
F9
330
1F
100
AcDbEntity
  8
LAY-10
  6
CONTINUOUS
 62
     7
100
AcDbLine
 10
383.9999999999895
 20
243.99999999999
 30
0.0
 11
384.1834272274799
 21
247.4999999999901
 31
0.0
  0
LINE
  5
FA
330
1F
100
AcDbEntity
  8
LAY-10
  6
CONTINUOUS
 62
     7
100
AcDbLine
 10
403.8224523553129
 20
247.4999999999901
 30
0.0
 11
384.1834272274799
 21
247.4999999999901
 31
0.0
  0
LINE
  5
FB
330
1F
100
AcDbEntity
  8
LAY-10
  6
CONTINUOUS
 62
     7
100
AcDbLine
 10
384.1103011810427
 20
241.8953280875042
 30
0.0
 11
383.9999999999899
 21
243.99999999999
 31
0.0
  0
ARC
  5
FC
330
1F
100
AcDbEntity
  8
LAY-10
  6
CONTINUOUS
 62
     7
100
AcDbCircle
 10
543.8924397494459
 20
241.9999999999901
 30
0.0
 40
2.0
100
AcDbArc
 50
270.0
 51
357.0000000000001
  0
LINE
  5
FD
330
1F
100
AcDbEntity
  8
LAY-10
  6
CONTINUOUS
 62
     7
100
AcDbLine
 10
545.8896988189553
 20
241.8953280875042
 30
0.0
 11
546.0000000000081
 21
243.99999999999
 31
0.0
  0
LINE
  5
FE
330
1F
100
AcDbEntity
  8
LAY-10
  6
CONTINUOUS
 62
     7
100
AcDbLine
 10
393.893058344622
 20
239.9999999999901
 30
0.0
 11
393.4999999999993
 21
247.4999999999901
 31
0.0
  0
LINE
  5
FF
330
1F
100
AcDbEntity
  8
LAY-10
  6
CONTINUOUS
 62
     7
100
AcDbLine
 10
530.8563985247079
 20
243.99999999999
 30
0.0
 11
512.0781495372611
 21
350.4967420867634
 31
0.0
  0
LINE
  5
100
330
1F
100
AcDbEntity
  8
LAY-10
  6
CONTINUOUS
 62
     7
100
AcDbLine
 10
461.9945794467642
 20
372.9463376603713
 30
0.0
 11
458.999999999999
 21
243.99999999999
 31
0.0
  0
ARC
  5
101
330
1F
100
AcDbEntity
  8
LAY-10
  6
CONTINUOUS
 62
     7
100
AcDbCircle
 10
464.999999999999
 20
372.8765414119406
 30
0.0
 40
3.006230898999547
100
AcDbArc
 50
90.0
 51
178.669633187163
  0
LINE
  5
102
330
1F
100
AcDbEntity
  8
LAY-10
  6
CONTINUOUS
 62
     7
100
AcDbLine
 10
449.7748298628834
 20
373.4566891688188
 30
0.0
 11
434.5753794616988
 21
243.99999999999
 31
0.0
  0
LINE
  5
103
330
1F
100
AcDbEntity
  8
LAY-10
  6
CONTINUOUS
 62
     7
100
AcDbLine
 10
455.2410069714296
 20
372.9303424666094
 30
0.0
 11
445.5379249533988
 21
243.99999999999
 31
0.0
  0
ARC
  5
104
330
1F
100
AcDbEntity
  8
LAY-10
  6
CONTINUOUS
 62
     7
100
AcDbCircle
 10
452.502422856849
 20
373.13644372849
 30
0.0
 40
2.746328582450133
100
AcDbArc
 50
355.6961286345882
 51
173.3035865689384
  0
LINE
  5
105
330
1F
100
AcDbEntity
  8
LAY-10
  6
CONTINUOUS
 62
     7
100
AcDbLine
 10
453.9581226304298
 20
372.9303424666094
 30
0.0
 11
444.2550406123991
 21
243.99999999999
 31
0.0
  0
ARC
  5
106
330
1F
100
AcDbEntity
  8
LAY-10
  6
CONTINUOUS
 62
     7
100
AcDbCircle
 10
451.2195385158491
 20
373.13644372849
 30
0.0
 40
2.746328582450133
100
AcDbArc
 50
355.6961286345882
 51
76.49303768979532
  0
LINE
  5
107
330
1F
100
AcDbEntity
  8
LAY-10
  6
CONTINUOUS
 62
     7
100
AcDbLine
 10
440.1896705504327
 20
374.2471482480624
 30
0.0
 11
415.4114522133989
 21
243.99999999999
 31
0.0
  0
LINE
  5
108
330
1F
100
AcDbEntity
  8
LAY-10
  6
CONTINUOUS
 62
     7
100
AcDbLine
 10
444.1521292919824
 20
373.5536649280664
 30
0.0
 11
423.441019489699
 21
243.99999999999
 31
0.0
  0
ARC
  5
109
330
1F
100
AcDbEntity
  8
LAY-10
  6
CONTINUOUS
 62
     7
100
AcDbCircle
 10
442.1657903386494
 20
373.8712112065904
 30
0.0
 40
2.011561104349767
100
AcDbArc
 50
350.917259422206
 51
169.2287612607612
  0
LINE
  5
10A
330
1F
100
AcDbEntity
  8
LAY-10
  6
CONTINUOUS
 62
     7
100
AcDbLine
 10
441.4126801224824
 20
373.5536649280664
 30
0.0
 11
420.701570320199
 21
243.99999999999
 31
0.0
  0
ARC
  5
10B
330
1F
100
AcDbEntity
  8
LAY-10
  6
CONTINUOUS
 62
     7
100
AcDbCircle
 10
439.4263411691494
 20
373.8712112065904
 30
0.0
 40
2.011561104349767
100
AcDbArc
 50
350.917259422206
 51
47.08394084012178
  0
LINE
  5
10C
330
1F
100
AcDbEntity
  8
LAY-10
  6
CONTINUOUS
 62
     7
100
AcDbLine
 10
436.6855616911219
 20
374.75824596104
 30
0.0
 11
408.530039307799
 21
243.99999999999
 31
0.0
  0
ARC
  5
10D
330
1F
100
AcDbEntity
  8
LAY-10
  6
CONTINUOUS
 62
     7
100
AcDbCircle
 10
435.7774001131992
 20
374.9537958741406
 30
0.0
 40
0.9289764367995301
100
AcDbArc
 50
347.8483213348073
 51
35.33120224666437
  0
LINE
  5
10E
330
1F
100
AcDbEntity
  8
LAY-10
  6
CONTINUOUS
 62
     7
100
AcDbLine
 10
434.529201008483
 20
373.6655223576064
 30
0.0
 11
404.821835375299
 21
243.99999999999
 31
0.0
  0
LINE
  5
10F
330
1F
100
AcDbEntity
  8
LAY-10
  6
CONTINUOUS
 62
     7
100
AcDbLine
 10
477.3412107852873
 20
373.2947881741474
 30
0.0
 11
489.6569758197992
 21
243.99999999999
 31
0.0
  0
LINE
  5
110
330
1F
100
AcDbEntity
  8
LAY-10
  6
CONTINUOUS
 62
     7
100
AcDbLine
 10
487.7607024854782
 20
374.033440441708
 30
0.0
 11
510.4936705059989
 21
243.99999999999
 31
0.0
  0
LINE
  5
111
330
1F
100
AcDbEntity
  8
LAY-10
  6
CONTINUOUS
 62
     7
100
AcDbLine
 10
471.639649850123
 20
372.8773472251044
 30
0.0
 11
478.2442976242991
 21
243.99999999999
 31
0.0
  0
ARC
  5
112
330
1F
100
AcDbEntity
  8
LAY-10
  6
CONTINUOUS
 62
     7
100
AcDbCircle
 10
474.4949982783491
 20
373.0236768248909
 30
0.0
 40
2.85909548604923
100
AcDbArc
 50
0.0
 51
182.9337016187978
  0
LINE
  5
113
330
1F
100
AcDbEntity
  8
LAY-10
  6
CONTINUOUS
 62
     7
100
AcDbLine
 10
472.512676081323
 20
372.8773472251044
 30
0.0
 11
479.1173238554992
 21
243.99999999999
 31
0.0
  0
ARC
  5
114
330
1F
100
AcDbEntity
  8
LAY-10
  6
CONTINUOUS
 62
     7
100
AcDbCircle
 10
475.3680245095492
 20
373.0236768248909
 30
0.0
 40
2.85909548604923
100
AcDbArc
 50
98.78199312910287
 51
182.9337016187978
  0
LINE
  5
115
330
1F
100
AcDbEntity
  8
LAY-10
  6
CONTINUOUS
 62
     7
100
AcDbLine
 10
483.3478119446908
 20
373.3369302261345
 30
0.0
 11
501.5759326001988
 21
243.99999999999
 31
0.0
  0
ARC
  5
116
330
1F
100
AcDbEntity
  8
LAY-10
  6
CONTINUOUS
 62
     7
100
AcDbCircle
 10
485.5600147273989
 20
373.6487073741399
 30
0.0
 40
2.234064936800223
100
AcDbArc
 50
9.91646158657377
 51
188.0221542293386
  0
LINE
  5
117
330
1F
100
AcDbEntity
  8
LAY-10
  6
CONTINUOUS
 62
     7
100
AcDbLine
 10
485.7587928435909
 20
373.3369302261345
 30
0.0
 11
503.9869134990989
 21
243.99999999999
 31
0.0
  0
ARC
  5
118
330
1F
100
AcDbEntity
  8
LAY-10
  6
CONTINUOUS
 62
     7
100
AcDbCircle
 10
487.9709956262989
 20
373.6487073741399
 30
0.0
 40
2.234064936800223
100
AcDbArc
 50
122.6560784776513
 51
188.0221542293386
  0
ARC
  5
119
330
1F
100
AcDbEntity
  8
LAY-10
  6
CONTINUOUS
 62
     7
100
AcDbCircle
 10
493.0700178482492
 20
374.6600280467899
 30
0.0
 40
1.222744264150151
100
AcDbArc
 50
93.17663542891721
 51
191.5750516211322
  0
LINE
  5
11A
330
1F
100
AcDbEntity
  8
LAY-10
  6
CONTINUOUS
 62
     7
100
AcDbLine
 10
390.9999999999992
 20
247.4999999999896
 30
0.0
 11
390.9999999999992
 21
235.9999999999918
 31
0.0
  0
LINE
  5
11B
330
1F
100
AcDbEntity
  8
LAY-10
  6
CONTINUOUS
 62
     7
100
AcDbLine
 10
384.9999999999989
 20
247.4999999999896
 30
0.0
 11
384.9999999999989
 21
235.9999999999918
 31
0.0
  0
ARC
  5
11C
330
1F
100
AcDbEntity
  8
LAY-10
  6
CONTINUOUS
 62
     7
100
AcDbCircle
 10
387.9999999999992
 20
245.1999999999899
 30
0.0
 40
6.300000000000004
100
AcDbArc
 50
95.46502379991026
 51
128.6821874534936
  0
ARC
  5
11D
330
1F
100
AcDbEntity
  8
LAY-10
  6
CONTINUOUS
 62
     7
100
AcDbCircle
 10
387.9999999999992
 20
245.1999999999899
 30
0.0
 40
6.300000000000004
100
AcDbArc
 50
51.31781254649871
 51
84.53497620009915
  0
LINE
  5
11E
330
1F
100
AcDbEntity
  8
LAY-10
  6
CONTINUOUS
 62
     7
100
AcDbLine
 10
387.3999999999992
 20
251.4713634880896
 30
0.0
 11
387.3999999999992
 21
248.9999999999896
 31
0.0
  0
LINE
  5
11F
330
1F
100
AcDbEntity
  8
LAY-10
  6
CONTINUOUS
 62
     7
100
AcDbLine
 10
388.5999999999995
 20
248.9999999999896
 30
0.0
 11
387.3999999999992
 21
248.9999999999896
 31
0.0
  0
LINE
  5
120
330
1F
100
AcDbEntity
  8
LAY-10
  6
CONTINUOUS
 62
     7
100
AcDbLine
 10
388.5999999999995
 20
251.4713634880896
 30
0.0
 11
388.5999999999995
 21
248.9999999999896
 31
0.0
  0
LINE
  5
121
330
1F
100
AcDbEntity
  8
LAY-10
  6
CONTINUOUS
 62
     7
100
AcDbLine
 10
393.2481347568992
 20
247.4999999999896
 30
0.0
 11
382.7518652430992
 21
247.4999999999896
 31
0.0
  0
ARC
  5
122
330
1F
100
AcDbEntity
  8
LAY-10
  6
CONTINUOUS
 62
     7
100
AcDbCircle
 10
389.7499999999991
 20
247.3857492993894
 30
0.0
 40
3.500000000000003
100
AcDbArc
 50
1.870641730603623
 51
51.31781254649493
  0
ARC
  5
123
330
1F
100
AcDbEntity
  8
LAY-10
  6
CONTINUOUS
 62
     7
100
AcDbCircle
 10
386.2499999999991
 20
247.3857492993894
 30
0.0
 40
3.500000000000003
100
AcDbArc
 50
128.6821874534942
 51
178.1293582694118
  0
ARC
  5
124
330
1F
100
AcDbEntity
  8
LAY-10
  6
CONTINUOUS
 62
     7
100
AcDbCircle
 10
386.1075602505518
 20
241.9999999999901
 30
0.0
 40
2.0
100
AcDbArc
 50
182.9999999999999
 51
236.3732661170016
  0
LINE
  5
125
330
1F
100
AcDbEntity
  8
LAY-10
  6
CONTINUOUS
 62
     7
100
AcDbLine
 10
526.7946920771989
 20
243.99999999999
 30
0.0
 11
546.0000000000081
 21
243.99999999999
 31
0.0
  0
LINE
  5
126
330
1F
100
AcDbEntity
  8
LAY-10
  6
CONTINUOUS
 62
     7
100
AcDbLine
 10
478.2442976242991
 20
243.99999999999
 30
0.0
 11
489.6569758197992
 21
243.99999999999
 31
0.0
  0
LINE
  5
127
330
1F
100
AcDbEntity
  8
LAY-10
  6
CONTINUOUS
 62
     7
100
AcDbLine
 10
434.5753794616988
 20
243.99999999999
 30
0.0
 11
445.5379249533988
 21
243.99999999999
 31
0.0
  0
LINE
  5
128
330
1F
100
AcDbEntity
  8
LAY-10
  6
CONTINUOUS
 62
     7
100
AcDbLine
 10
415.4114522133989
 20
243.99999999999
 30
0.0
 11
423.441019489699
 21
243.99999999999
 31
0.0
  0
LINE
  5
129
330
1F
100
AcDbEntity
  8
LAY-10
  6
CONTINUOUS
 62
     7
100
AcDbLine
 10
404.821835375299
 20
243.99999999999
 30
0.0
 11
408.530039307799
 21
243.99999999999
 31
0.0
  0
LINE
  5
12A
330
1F
100
AcDbEntity
  8
LAY-10
  6
CONTINUOUS
 62
     7
100
AcDbLine
 10
501.5759326001988
 20
243.99999999999
 30
0.0
 11
510.4936705059989
 21
243.99999999999
 31
0.0
  0
LINE
  5
12B
330
1F
100
AcDbEntity
  8
LAY-10
  6
CONTINUOUS
 62
     7
100
AcDbLine
 10
508.1389185252127
 20
349.8021493760958
 30
0.0
 11
527.4999999999984
 21
239.9999999999901
 31
0.0
  0
LINE
  5
12C
330
1F
100
AcDbEntity
  8
LAY-10
  6
CONTINUOUS
 62
     7
100
AcDbLine
 10
458.999999999999
 20
243.99999999999
 30
0.0
 11
464.999999999999
 21
243.99999999999
 31
0.0
  0
LINE
  5
12D
330
1F
100
AcDbEntity
  8
LAY-10
  6
CONTINUOUS
 62
     7
100
AcDbLine
 10
494.3010830710021
 20
374.7574200106186
 30
0.0
 11
523.464096264599
 21
243.99999999999
 31
0.0
  0
LINE
  5
12E
330
1F
100
AcDbEntity
  8
LAY-10
  6
CONTINUOUS
 62
     7
100
AcDbLine
 10
491.872140885904
 20
374.4146827419742
 30
0.0
 11
518.5832565476989
 21
243.99999999999
 31
0.0
  0
LINE
  5
12F
330
1F
100
AcDbEntity
  8
LAY-10
  6
CONTINUOUS
 62
     7
100
AcDbLine
 10
518.5832565476991
 20
243.99999999999
 30
0.0
 11
523.4640962645991
 21
243.99999999999
 31
0.0
  0
LINE
  5
130
330
1F
100
AcDbEntity
  8
LAY-10
  6
CONTINUOUS
 62
     7
100
AcDbLine
 10
383.6526490943826
 20
243.9235176116755
 30
0.0
 11
384.0040082721157
 21
243.9235176116755
 31
0.0
  0
ARC
  5
131
330
1F
100
AcDbEntity
  8
LAY-10
  6
CONTINUOUS
 62
     7
100
AcDbCircle
 10
382.8928263678443
 20
246.9999999999853
 30
0.0
 40
1.0
100
AcDbArc
 50
95.11831556038722
 51
137.3303660199664
  0
LINE
  5
132
330
1F
100
AcDbEntity
  8
LAY-10
  6
CONTINUOUS
 62
     7
100
AcDbLine
 10
360.999999999999
 20
247.9999999999853
 30
0.0
 11
382.8043221165025
 21
247.9999999999853
 31
0.0
  0
LINE
  5
133
330
1F
100
AcDbEntity
  8
LAY-10
  6
CONTINUOUS
 62
     7
100
AcDbLine
 10
384.999999999999
 20
235.9999999999901
 30
0.0
 11
390.9999999999992
 21
235.9999999999901
 31
0.0
  0
LINE
  5
134
330
1F
100
AcDbEntity
  8
LAY-10
  6
CONTINUOUS
 62
     7
100
AcDbLine
 10
385.499999999999
 20
235.49999999999
 30
0.0
 11
390.5000000000002
 21
235.49999999999
 31
0.0
  0
LINE
  5
135
330
1F
100
AcDbEntity
  8
LAY-10
  6
CONTINUOUS
 62
     7
100
AcDbLine
 10
384.999999999999
 20
235.9999999999901
 30
0.0
 11
385.499999999999
 21
235.49999999999
 31
0.0
  0
LINE
  5
136
330
1F
100
AcDbEntity
  8
LAY-10
  6
CONTINUOUS
 62
     7
100
AcDbLine
 10
390.499999999999
 20
235.49999999999
 30
0.0
 11
390.999999999999
 21
235.9999999999901
 31
0.0
  0
LINE
  5
137
330
1F
100
AcDbEntity
  8
LAY-10
  6
CONTINUOUS
 62
     7
100
AcDbLine
 10
385.5000000000006
 20
232.4999999999901
 30
0.0
 11
385.5000000000006
 21
235.49999999999
 31
0.0
  0
LINE
  5
138
330
1F
100
AcDbEntity
  8
LAY-10
  6
CONTINUOUS
 62
     7
100
AcDbLine
 10
390.5000000000002
 20
232.4999999999901
 30
0.0
 11
390.5000000000002
 21
235.49999999999
 31
0.0
  0
LINE
  5
139
330
1F
100
AcDbEntity
  8
LAY-10
  6
CONTINUOUS
 62
     7
100
AcDbLine
 10
381.4192622342825
 20
239.9999999999852
 30
0.0
 11
385.4999999999994
 21
239.9999999999852
 31
0.0
  0
LINE
  5
13A
330
1F
100
AcDbEntity
  8
LAY-10
  6
CONTINUOUS
 62
     7
100
AcDbLine
 10
393.1956778834957
 20
247.9999999999853
 30
0.0
 11
399.8489093981231
 21
247.9999999999853
 31
0.0
  0
LINE
  5
13B
330
1F
100
AcDbEntity
  8
LAY-10
  6
CONTINUOUS
 62
     7
100
AcDbLine
 10
416.1724122396349
 20
247.9999999999853
 30
0.0
 11
421.3410307264717
 21
247.9999999999853
 31
0.0
  0
ARC
  5
13C
330
1F
100
AcDbEntity
  8
LAY-10
  6
CONTINUOUS
 62
     7
100
AcDbCircle
 10
438.4623729763835
 20
244.9235176116755
 30
0.0
 40
1.0
100
AcDbArc
 50
193.9879214872928
 51
247.4458745325258
  0
LINE
  5
13D
330
1F
100
AcDbEntity
  8
LAY-10
  6
CONTINUOUS
 62
     7
100
AcDbLine
 10
437.3329215389517
 20
245.3205080756479
 30
0.0
 11
444.3544198424426
 21
245.3205080756479
 31
0.0
  0
LINE
  5
13E
330
1F
100
AcDbEntity
  8
LAY-10
  6
CONTINUOUS
 62
     7
100
AcDbLine
 10
435.0450176240449
 20
247.9999999999853
 30
0.0
 11
444.5560739248804
 21
247.9999999999853
 31
0.0
  0
LINE
  5
13F
330
1F
100
AcDbEntity
  8
LAY-10
  6
CONTINUOUS
 62
     7
100
AcDbLine
 10
459.0928938192759
 20
247.9999999999853
 30
0.0
 11
464.9999999999988
 21
247.9999999999853
 31
0.0
  0
ARC
  5
140
330
1F
100
AcDbEntity
  8
LAY-10
  6
CONTINUOUS
 62
     7
100
AcDbCircle
 10
481.5542997789769
 20
244.9235176116755
 30
0.0
 40
1.0
100
AcDbArc
 50
189.9385365197872
 51
247.4458745325258
  0
LINE
  5
141
330
1F
100
AcDbEntity
  8
LAY-10
  6
CONTINUOUS
 62
     7
100
AcDbLine
 10
489.5311929679486
 20
245.3205080756479
 30
0.0
 11
482.5322138349978
 21
245.3205080756479
 31
0.0
  0
LINE
  5
142
330
1F
100
AcDbEntity
  8
LAY-10
  6
CONTINUOUS
 62
     7
100
AcDbLine
 10
478.9123336716889
 20
247.9999999999853
 30
0.0
 11
489.275962316984
 21
247.9999999999853
 31
0.0
  0
LINE
  5
143
330
1F
100
AcDbEntity
  8
LAY-10
  6
CONTINUOUS
 62
     7
100
AcDbLine
 10
503.4231728683721
 20
247.9999999999853
 30
0.0
 11
509.7943744497454
 21
247.9999999999853
 31
0.0
  0
LINE
  5
144
330
1F
100
AcDbEntity
  8
LAY-10
  6
CONTINUOUS
 62
     7
100
AcDbLine
 10
530.151090601875
 20
247.9999999999853
 30
0.0
 11
568.9999999999989
 21
247.9999999999853
 31
0.0
  0
ARC
  5
145
330
1F
100
AcDbEntity
  8
LAY-10
  6
CONTINUOUS
 62
     7
100
AcDbCircle
 10
545.1759419647132
 20
244.9235176116755
 30
0.0
 40
1.0
100
AcDbArc
 50
181.8346977048982
 51
247.4458745325179
  0
LINE
  5
146
330
1F
100
AcDbEntity
  8
LAY-10
  6
CONTINUOUS
 62
     7
100
AcDbLine
 10
546.3473509056155
 20
243.9235176116755
 30
0.0
 11
545.9959917278823
 21
243.9235176116755
 31
0.0
  0
CIRCLE
  5
147
330
1F
100
AcDbEntity
  8
LAY-10
  6
CONTINUOUS
 62
     7
100
AcDbCircle
 10
464.9999999999988
 20
599.999999999995
 30
0.0
 40
104.9999999999999
  0
ARC
  5
148
330
1F
100
AcDbEntity
  8
LAY-10
  6
CONTINUOUS
 62
     7
100
AcDbCircle
 10
464.9999999999988
 20
599.9999999999953
 30
0.0
 40
83.58073776571632
100
AcDbArc
 50
175.8833741047737
 51
184.1166258952267
  0
LINE
  5
149
330
1F
100
AcDbEntity
  8
LAY-10
  6
CONTINUOUS
 62
     7
100
AcDbLine
 10
381.6349010348959
 20
605.9999999999953
 30
0.0
 11
382.2231707939631
 21
606.6077535752908
 31
0.0
  0
LINE
  5
14A
330
1F
100
AcDbEntity
  8
LAY-10
  6
CONTINUOUS
 62
     7
100
AcDbLine
 10
381.6349010348959
 20
593.9999999999953
 30
0.0
 11
382.2231707939625
 21
593.3922464247064
 31
0.0
  0
ARC
  5
14B
330
1F
100
AcDbEntity
  8
LAY-10
  6
CONTINUOUS
 62
     7
100
AcDbCircle
 10
464.9999999999988
 20
599.9999999999953
 30
0.0
 40
88.99999999995343
100
AcDbArc
 50
169.0696530385379
 51
190.9303469614622
  0
LINE
  5
14C
330
1F
100
AcDbEntity
  8
LAY-10
  6
CONTINUOUS
 62
     7
100
AcDbLine
 10
378.4144283122849
 20
615.7142857142833
 30
0.0
 11
377.614600643871
 21
616.8757808519066
 31
0.0
  0
LINE
  5
14D
330
1F
100
AcDbEntity
  8
LAY-10
  6
CONTINUOUS
 62
     7
100
AcDbLine
 10
378.4144283122849
 20
584.2857142857073
 30
0.0
 11
377.614600643871
 21
583.1242191480841
 31
0.0
  0
ARC
  5
14E
330
1F
100
AcDbEntity
  8
LAY-10
  6
CONTINUOUS
 62
     7
100
AcDbCircle
 10
464.9999999999988
 20
599.9999999999953
 30
0.0
 40
87.99999999999181
100
AcDbArc
 50
170.3720260692195
 51
189.6279739307805
  0
ARC
  5
14F
330
1F
100
AcDbEntity
  8
LAY-10
  6
CONTINUOUS
 62
     7
100
AcDbCircle
 10
464.9999999999988
 20
599.9999999999953
 30
0.0
 40
83.99999999998056
100
AcDbArc
 50
170.3875229331977
 51
189.6124770668026
  0
LINE
  5
150
330
1F
100
AcDbEntity
  8
LAY-10
  6
CONTINUOUS
 62
     7
100
AcDbLine
 10
381.3719971711643
 20
584.8224790279411
 30
0.0
 11
379.4040102026593
 21
584.4653120207563
 31
0.0
  0
LINE
  5
151
330
1F
100
AcDbEntity
  8
LAY-10
  6
CONTINUOUS
 62
     7
100
AcDbLine
 10
381.3719971711643
 20
615.1775209720495
 30
0.0
 11
379.4040102026593
 21
615.5346879792343
 31
0.0
  0
LINE
  5
152
330
1F
100
AcDbEntity
  8
LAY-10
  6
CONTINUOUS
 62
     7
100
AcDbLine
 10
382.3501361162833
 20
614.9999999999951
 30
0.0
 11
382.7447849483947
 21
615.9447113866729
 31
0.0
  0
LINE
  5
153
330
1F
100
AcDbEntity
  8
LAY-10
  6
CONTINUOUS
 62
     7
100
AcDbLine
 10
382.7447849483946
 20
615.9447113866729
 30
0.0
 11
377.614600643871
 21
616.8757808519066
 31
0.0
  0
LINE
  5
154
330
1F
100
AcDbEntity
  8
LAY-10
  6
CONTINUOUS
 62
     7
100
AcDbLine
 10
382.7447849483947
 20
584.0552886133177
 30
0.0
 11
382.3501361162833
 21
584.9999999999952
 31
0.0
  0
LINE
  5
155
330
1F
100
AcDbEntity
  8
LAY-10
  6
CONTINUOUS
 62
     7
100
AcDbLine
 10
377.614600643871
 20
583.124219148084
 30
0.0
 11
382.7447849483946
 21
584.0552886133177
 31
0.0
  0
ARC
  5
156
330
1F
100
AcDbEntity
  8
LAY-10
  6
CONTINUOUS
 62
     7
100
AcDbCircle
 10
464.9999999999988
 20
599.9999999999953
 30
0.0
 40
83.0401460783702
100
AcDbArc
 50
75.00000000000074
 51
86.81912292313315
  0
ARC
  5
157
330
1F
100
AcDbEntity
  8
LAY-10
  6
CONTINUOUS
 62
     7
100
AcDbCircle
 10
464.9999999999988
 20
599.999999999995
 30
0.0
 40
88.99999999995343
100
AcDbArc
 50
139.0696530385378
 51
160.9303469614622
  0
LINE
  5
158
330
1F
100
AcDbEntity
  8
LAY-10
  6
CONTINUOUS
 62
     7
100
AcDbLine
 10
397.8718381743839
 20
656.9017564747523
 30
0.0
 11
397.7599146636995
 21
658.3075546045134
 31
0.0
  0
LINE
  5
159
330
1F
100
AcDbEntity
  8
LAY-10
  6
CONTINUOUS
 62
     7
100
AcDbLine
 10
382.1575524600959
 20
629.6838152129518
 30
0.0
 11
380.8841338117883
 21
629.077844751605
 31
0.0
  0
ARC
  5
15A
330
1F
100
AcDbEntity
  8
LAY-10
  6
CONTINUOUS
 62
     7
100
AcDbCircle
 10
464.9999999999988
 20
599.999999999995
 30
0.0
 40
87.99999999999181
100
AcDbArc
 50
140.3720260692196
 51
159.6279739307804
  0
ARC
  5
15B
330
1F
100
AcDbEntity
  8
LAY-10
  6
CONTINUOUS
 62
     7
100
AcDbCircle
 10
464.9999999999988
 20
599.999999999995
 30
0.0
 40
83.99999999998056
100
AcDbArc
 50
140.3875229331974
 51
159.6124770668025
  0
LINE
  5
15C
330
1F
100
AcDbEntity
  8
LAY-10
  6
CONTINUOUS
 62
     7
100
AcDbLine
 10
384.9872645964441
 20
628.6698826861424
 30
0.0
 11
383.1043543838097
 21
629.3445604687793
 31
0.0
  0
LINE
  5
15D
330
1F
100
AcDbEntity
  8
LAY-10
  6
CONTINUOUS
 62
     7
100
AcDbLine
 10
400.1647855684984
 20
654.9581201426826
 30
0.0
 11
398.6390423630487
 21
656.2514293285507
 31
0.0
  0
LINE
  5
15E
330
1F
100
AcDbEntity
  8
LAY-10
  6
CONTINUOUS
 62
     7
100
AcDbLine
 10
400.9231182573751
 20
654.3153129986194
 30
0.0
 11
401.7372498648963
 21
654.936132642671
 31
0.0
  0
LINE
  5
15F
330
1F
100
AcDbEntity
  8
LAY-10
  6
CONTINUOUS
 62
     7
100
AcDbLine
 10
401.7372498648963
 20
654.936132642671
 30
0.0
 11
397.7599146636995
 21
658.3075546045134
 31
0.0
  0
LINE
  5
160
330
1F
100
AcDbEntity
  8
LAY-10
  6
CONTINUOUS
 62
     7
100
AcDbLine
 10
385.7925384782188
 20
627.3190824089235
 30
0.0
 11
385.9231182573754
 21
628.3345508850863
 31
0.0
  0
LINE
  5
161
330
1F
100
AcDbEntity
  8
LAY-10
  6
CONTINUOUS
 62
     7
100
AcDbLine
 10
380.8841338117882
 20
629.0778447516049
 30
0.0
 11
385.7925384782188
 21
627.3190824089235
 31
0.0
  0
ARC
  5
162
330
1F
100
AcDbEntity
  8
LAY-10
  6
CONTINUOUS
 62
     7
100
AcDbCircle
 10
464.9999999999988
 20
599.9999999999953
 30
0.0
 40
83.78636061072308
100
AcDbArc
 50
160.9704086680271
 51
169.0295913319731
  0
ARC
  5
163
330
1F
100
AcDbEntity
  8
LAY-10
  6
CONTINUOUS
 62
     7
100
AcDbCircle
 10
464.9999999999988
 20
599.9999999999948
 30
0.0
 40
88.99999999995343
100
AcDbArc
 50
109.0696530385377
 51
130.930346961462
  0
LINE
  5
164
330
1F
100
AcDbEntity
  8
LAY-10
  6
CONTINUOUS
 62
     7
100
AcDbLine
 10
435.3161847870422
 20
682.8424475398979
 30
0.0
 11
435.9221552483891
 21
684.1158661882056
 31
0.0
  0
LINE
  5
165
330
1F
100
AcDbEntity
  8
LAY-10
  6
CONTINUOUS
 62
     7
100
AcDbLine
 10
408.0982435252416
 20
667.1281618256099
 30
0.0
 11
406.6924453954808
 21
667.2400853362943
 31
0.0
  0
ARC
  5
166
330
1F
100
AcDbEntity
  8
LAY-10
  6
CONTINUOUS
 62
     7
100
AcDbCircle
 10
464.9999999999988
 20
599.9999999999948
 30
0.0
 40
87.99999999999181
100
AcDbArc
 50
110.3720260692194
 51
129.6279739307803
  0
ARC
  5
167
330
1F
100
AcDbEntity
  8
LAY-10
  6
CONTINUOUS
 62
     7
100
AcDbCircle
 10
464.9999999999988
 20
599.9999999999948
 30
0.0
 40
83.99999999998056
100
AcDbArc
 50
110.3875229331974
 51
129.6124770668024
  0
LINE
  5
168
330
1F
100
AcDbEntity
  8
LAY-10
  6
CONTINUOUS
 62
     7
100
AcDbLine
 10
410.0418798573118
 20
664.8352144314954
 30
0.0
 11
408.7485706714435
 21
666.3609576369453
 31
0.0
  0
LINE
  5
169
330
1F
100
AcDbEntity
  8
LAY-10
  6
CONTINUOUS
 62
     7
100
AcDbLine
 10
436.3301173138517
 20
680.0127354035495
 30
0.0
 11
435.6554395312147
 21
681.8956456161841
 31
0.0
  0
LINE
  5
16A
330
1F
100
AcDbEntity
  8
LAY-10
  6
CONTINUOUS
 62
     7
100
AcDbLine
 10
436.6654491149075
 20
679.0768817426185
 30
0.0
 11
437.6809175910705
 21
679.2074615217751
 31
0.0
  0
LINE
  5
16B
330
1F
100
AcDbEntity
  8
LAY-10
  6
CONTINUOUS
 62
     7
100
AcDbLine
 10
437.6809175910705
 20
679.2074615217751
 30
0.0
 11
435.9221552483891
 21
684.1158661882056
 31
0.0
  0
LINE
  5
16C
330
1F
100
AcDbEntity
  8
LAY-10
  6
CONTINUOUS
 62
     7
100
AcDbLine
 10
410.0638673573231
 20
663.2627501350976
 30
0.0
 11
410.6846870013747
 21
664.0768817426185
 31
0.0
  0
LINE
  5
16D
330
1F
100
AcDbEntity
  8
LAY-10
  6
CONTINUOUS
 62
     7
100
AcDbLine
 10
406.6924453954808
 20
667.2400853362943
 30
0.0
 11
410.0638673573231
 21
663.2627501350976
 31
0.0
  0
ARC
  5
16E
330
1F
100
AcDbEntity
  8
LAY-10
  6
CONTINUOUS
 62
     7
100
AcDbCircle
 10
464.9999999999988
 20
599.9999999999951
 30
0.0
 40
88.99999999995343
100
AcDbArc
 50
79.06965303853761
 51
100.930346961462
  0
LINE
  5
16F
330
1F
100
AcDbEntity
  8
LAY-10
  6
CONTINUOUS
 62
     7
100
AcDbLine
 10
480.7142857142869
 20
686.5855716877093
 30
0.0
 11
481.8757808519102
 21
687.3853993561231
 31
0.0
  0
LINE
  5
170
330
1F
100
AcDbEntity
  8
LAY-10
  6
CONTINUOUS
 62
     7
100
AcDbLine
 10
449.2857142857106
 20
686.5855716877093
 30
0.0
 11
448.1242191480877
 21
687.3853993561231
 31
0.0
  0
ARC
  5
171
330
1F
100
AcDbEntity
  8
LAY-10
  6
CONTINUOUS
 62
     7
100
AcDbCircle
 10
464.9999999999988
 20
599.9999999999951
 30
0.0
 40
87.99999999999181
100
AcDbArc
 50
80.37202606921933
 51
99.62797393078058
  0
ARC
  5
172
330
1F
100
AcDbEntity
  8
LAY-10
  6
CONTINUOUS
 62
     7
100
AcDbCircle
 10
464.9999999999988
 20
599.9999999999951
 30
0.0
 40
83.99999999998056
100
AcDbArc
 50
80.38752293319767
 51
99.61247706680257
  0
LINE
  5
173
330
1F
100
AcDbEntity
  8
LAY-10
  6
CONTINUOUS
 62
     7
100
AcDbLine
 10
449.8224790279445
 20
683.6280028288296
 30
0.0
 11
449.4653120207597
 21
685.5959897973348
 31
0.0
  0
LINE
  5
174
330
1F
100
AcDbEntity
  8
LAY-10
  6
CONTINUOUS
 62
     7
100
AcDbLine
 10
480.1775209720531
 20
683.6280028288296
 30
0.0
 11
480.5346879792379
 21
685.5959897973346
 31
0.0
  0
LINE
  5
175
330
1F
100
AcDbEntity
  8
LAY-10
  6
CONTINUOUS
 62
     7
100
AcDbLine
 10
479.9999999999988
 20
682.6498638837109
 30
0.0
 11
480.9447113866765
 21
682.2552150515995
 31
0.0
  0
LINE
  5
176
330
1F
100
AcDbEntity
  8
LAY-10
  6
CONTINUOUS
 62
     7
100
AcDbLine
 10
480.9447113866765
 20
682.2552150515995
 30
0.0
 11
481.8757808519102
 21
687.3853993561231
 31
0.0
  0
LINE
  5
177
330
1F
100
AcDbEntity
  8
LAY-10
  6
CONTINUOUS
 62
     7
100
AcDbLine
 10
449.055288613321
 20
682.2552150515994
 30
0.0
 11
449.9999999999986
 21
682.6498638837109
 31
0.0
  0
LINE
  5
178
330
1F
100
AcDbEntity
  8
LAY-10
  6
CONTINUOUS
 62
     7
100
AcDbLine
 10
448.1242191480874
 20
687.3853993561231
 30
0.0
 11
449.055288613321
 21
682.2552150515994
 31
0.0
  0
ARC
  5
179
330
1F
100
AcDbEntity
  8
LAY-10
  6
CONTINUOUS
 62
     7
100
AcDbCircle
 10
464.9999999999993
 20
599.9999999999951
 30
0.0
 40
88.99999999995343
100
AcDbArc
 50
199.0696530385374
 51
220.9303469614618
  0
LINE
  5
17A
330
1F
100
AcDbEntity
  8
LAY-10
  6
CONTINUOUS
 62
     7
100
AcDbLine
 10
382.1575524600962
 20
570.3161847870385
 30
0.0
 11
380.8841338117883
 21
570.9221552483855
 31
0.0
  0
LINE
  5
17B
330
1F
100
AcDbEntity
  8
LAY-10
  6
CONTINUOUS
 62
     7
100
AcDbLine
 10
397.8718381743839
 20
543.0982435252379
 30
0.0
 11
397.7599146636995
 21
541.6924453954772
 31
0.0
  0
ARC
  5
17C
330
1F
100
AcDbEntity
  8
LAY-10
  6
CONTINUOUS
 62
     7
100
AcDbCircle
 10
464.9999999999993
 20
599.9999999999951
 30
0.0
 40
87.99999999999181
100
AcDbArc
 50
200.3720260692196
 51
219.6279739307803
  0
ARC
  5
17D
330
1F
100
AcDbEntity
  8
LAY-10
  6
CONTINUOUS
 62
     7
100
AcDbCircle
 10
464.9999999999993
 20
599.9999999999951
 30
0.0
 40
83.99999999998056
100
AcDbArc
 50
200.3875229331975
 51
219.6124770668023
  0
LINE
  5
17E
330
1F
100
AcDbEntity
  8
LAY-10
  6
CONTINUOUS
 62
     7
100
AcDbLine
 10
400.1647855684986
 20
545.041879857308
 30
0.0
 11
398.6390423630489
 21
543.7485706714398
 31
0.0
  0
LINE
  5
17F
330
1F
100
AcDbEntity
  8
LAY-10
  6
CONTINUOUS
 62
     7
100
AcDbLine
 10
384.9872645964446
 20
571.330117313848
 30
0.0
 11
383.10435438381
 21
570.6554395312111
 31
0.0
  0
LINE
  5
180
330
1F
100
AcDbEntity
  8
LAY-10
  6
CONTINUOUS
 62
     7
100
AcDbLine
 10
385.9231182573754
 20
571.6654491149038
 30
0.0
 11
385.7925384782188
 21
572.6809175910669
 31
0.0
  0
LINE
  5
181
330
1F
100
AcDbEntity
  8
LAY-10
  6
CONTINUOUS
 62
     7
100
AcDbLine
 10
385.7925384782188
 20
572.6809175910669
 30
0.0
 11
380.8841338117883
 21
570.9221552483855
 31
0.0
  0
LINE
  5
182
330
1F
100
AcDbEntity
  8
LAY-10
  6
CONTINUOUS
 62
     7
100
AcDbLine
 10
401.7372498648966
 20
545.0638673573193
 30
0.0
 11
400.9231182573754
 21
545.6846870013708
 31
0.0
  0
LINE
  5
183
330
1F
100
AcDbEntity
  8
LAY-10
  6
CONTINUOUS
 62
     7
100
AcDbLine
 10
397.7599146636995
 20
541.6924453954771
 30
0.0
 11
401.7372498648966
 21
545.0638673573193
 31
0.0
  0
ARC
  5
184
330
1F
100
AcDbEntity
  8
LAY-10
  6
CONTINUOUS
 62
     7
100
AcDbCircle
 10
464.9999999999993
 20
599.9999999999953
 30
0.0
 40
88.99999999995343
100
AcDbArc
 50
229.0696530385378
 51
250.9303469614621
  0
LINE
  5
185
330
1F
100
AcDbEntity
  8
LAY-10
  6
CONTINUOUS
 62
     7
100
AcDbLine
 10
408.0982435252418
 20
532.8718381743803
 30
0.0
 11
406.6924453954808
 21
532.7599146636959
 31
0.0
  0
LINE
  5
186
330
1F
100
AcDbEntity
  8
LAY-10
  6
CONTINUOUS
 62
     7
100
AcDbLine
 10
435.3161847870425
 20
517.1575524600922
 30
0.0
 11
435.9221552483891
 21
515.8841338117846
 31
0.0
  0
ARC
  5
187
330
1F
100
AcDbEntity
  8
LAY-10
  6
CONTINUOUS
 62
     7
100
AcDbCircle
 10
464.9999999999993
 20
599.9999999999953
 30
0.0
 40
87.99999999999181
100
AcDbArc
 50
230.3720260692196
 51
249.6279739307807
  0
ARC
  5
188
330
1F
100
AcDbEntity
  8
LAY-10
  6
CONTINUOUS
 62
     7
100
AcDbCircle
 10
464.9999999999993
 20
599.9999999999953
 30
0.0
 40
83.99999999998056
100
AcDbArc
 50
230.3875229331974
 51
249.6124770668024
  0
LINE
  5
189
330
1F
100
AcDbEntity
  8
LAY-10
  6
CONTINUOUS
 62
     7
100
AcDbLine
 10
436.3301173138519
 20
519.9872645964406
 30
0.0
 11
435.655439531215
 21
518.104354383806
 31
0.0
  0
LINE
  5
18A
330
1F
100
AcDbEntity
  8
LAY-10
  6
CONTINUOUS
 62
     7
100
AcDbLine
 10
410.0418798573119
 20
535.1647855684948
 30
0.0
 11
408.7485706714436
 21
533.6390423630451
 31
0.0
  0
LINE
  5
18B
330
1F
100
AcDbEntity
  8
LAY-10
  6
CONTINUOUS
 62
     7
100
AcDbLine
 10
410.6846870013747
 20
535.9231182573715
 30
0.0
 11
410.0638673573231
 21
536.7372498648926
 31
0.0
  0
LINE
  5
18C
330
1F
100
AcDbEntity
  8
LAY-10
  6
CONTINUOUS
 62
     7
100
AcDbLine
 10
410.0638673573231
 20
536.7372498648926
 30
0.0
 11
406.6924453954808
 21
532.7599146636959
 31
0.0
  0
LINE
  5
18D
330
1F
100
AcDbEntity
  8
LAY-10
  6
CONTINUOUS
 62
     7
100
AcDbLine
 10
437.6809175910708
 20
520.7925384782151
 30
0.0
 11
436.665449114908
 21
520.9231182573716
 31
0.0
  0
LINE
  5
18E
330
1F
100
AcDbEntity
  8
LAY-10
  6
CONTINUOUS
 62
     7
100
AcDbLine
 10
435.9221552483891
 20
515.8841338117845
 30
0.0
 11
437.6809175910708
 21
520.7925384782151
 31
0.0
  0
ARC
  5
18F
330
1F
100
AcDbEntity
  8
LAY-10
  6
CONTINUOUS
 62
     7
100
AcDbCircle
 10
464.9999999999988
 20
599.9999999999953
 30
0.0
 40
83.78636061072308
100
AcDbArc
 50
100.970408668027
 51
109.0295913319738
  0
ARC
  5
190
330
1F
100
AcDbEntity
  8
LAY-10
  6
CONTINUOUS
 62
     7
100
AcDbCircle
 10
464.9999999999988
 20
599.9999999999953
 30
0.0
 40
83.78636061072308
100
AcDbArc
 50
130.9704086680266
 51
139.0295913319734
  0
ARC
  5
191
330
1F
100
AcDbEntity
  8
LAY-10
  6
CONTINUOUS
 62
     7
100
AcDbCircle
 10
464.9999999999988
 20
599.9999999999953
 30
0.0
 40
83.78636061072308
100
AcDbArc
 50
190.9704086680277
 51
199.0295913319729
  0
ARC
  5
192
330
1F
100
AcDbEntity
  8
LAY-10
  6
CONTINUOUS
 62
     7
100
AcDbCircle
 10
464.9999999999988
 20
599.9999999999953
 30
0.0
 40
83.78636061072308
100
AcDbArc
 50
220.9704086680273
 51
229.0295913319734
  0
LINE
  5
193
330
1F
100
AcDbEntity
  8
LAY-10
  6
CONTINUOUS
 62
     7
100
AcDbLine
 10
469.6077535752945
 20
682.9122094007007
 30
0.0
 11
468.9999999999993
 21
683.4849670627029
 31
0.0
  0
LINE
  5
194
330
1F
100
AcDbEntity
  8
LAY-10
  6
CONTINUOUS
 62
     7
100
AcDbLine
 10
460.3922464247036
 20
682.9122094007007
 30
0.0
 11
460.9999999999992
 21
683.4849670627032
 31
0.0
  0
ARC
  5
195
330
1F
100
AcDbEntity
  8
LAY-10
  6
CONTINUOUS
 62
     7
100
AcDbCircle
 10
464.9999999999988
 20
599.999999999995
 30
0.0
 40
83.58073776571632
100
AcDbArc
 50
87.25689554132575
 51
92.74310445867367
  0
ARC
  5
196
330
1F
100
AcDbEntity
  8
LAY-10
  6
CONTINUOUS
 62
     7
100
AcDbCircle
 10
464.9999999999988
 20
599.9999999999953
 30
0.0
 40
83.0401460783702
100
AcDbArc
 50
93.18087707686658
 51
175.4359777859409
  0
ARC
  5
197
330
1F
100
AcDbEntity
  8
LAY-10
  6
CONTINUOUS
 62
     7
100
AcDbCircle
 10
409.5113906921894
 20
532.9924314940137
 30
0.0
 40
1.0
100
AcDbArc
 50
139.713439388523
 51
230.3720260692157
  0
ARC
  5
198
330
1F
100
AcDbEntity
  8
LAY-10
  6
CONTINUOUS
 62
     7
100
AcDbCircle
 10
410.8046998780576
 20
534.5181746994634
 30
0.0
 40
1.0
100
AcDbArc
 50
50.38752293319824
 51
139.713439388523
  0
ARC
  5
199
330
1F
100
AcDbEntity
  8
LAY-10
  6
CONTINUOUS
 62
     7
100
AcDbCircle
 10
435.3887258645348
 20
520.324580678406
 30
0.0
 40
1.0
100
AcDbArc
 50
340.2865606114764
 51
69.61247706679876
  0
ARC
  5
19A
330
1F
100
AcDbEntity
  8
LAY-10
  6
CONTINUOUS
 62
     7
100
AcDbCircle
 10
434.7140480818978
 20
518.4416704657716
 30
0.0
 40
1.0
100
AcDbArc
 50
249.6279739307839
 51
340.2865606114691
  0
ARC
  5
19B
330
1F
100
AcDbEntity
  8
LAY-10
  6
CONTINUOUS
 62
     7
100
AcDbCircle
 10
397.9924314940175
 20
544.5113906921855
 30
0.0
 40
1.0
100
AcDbArc
 50
219.6279739307772
 51
310.2865606114746
  0
ARC
  5
19C
330
1F
100
AcDbEntity
  8
LAY-10
  6
CONTINUOUS
 62
     7
100
AcDbCircle
 10
399.5181746994672
 20
545.8046998780537
 30
0.0
 40
1.0
100
AcDbArc
 50
310.2865606114746
 51
39.61247706680179
  0
ARC
  5
19D
330
1F
100
AcDbEntity
  8
LAY-10
  6
CONTINUOUS
 62
     7
100
AcDbCircle
 10
383.4416704657755
 20
569.7140480818939
 30
0.0
 40
1.0
100
AcDbArc
 50
109.7134393885237
 51
200.3720260692161
  0
ARC
  5
19E
330
1F
100
AcDbEntity
  8
LAY-10
  6
CONTINUOUS
 62
     7
100
AcDbCircle
 10
385.32458067841
 20
570.3887258645308
 30
0.0
 40
1.0
100
AcDbArc
 50
20.38752293319817
 51
109.7134393885206
  0
ARC
  5
19F
330
1F
100
AcDbEntity
  8
LAY-10
  6
CONTINUOUS
 62
     7
100
AcDbCircle
 10
379.2254387740878
 20
585.4492389717531
 30
0.0
 40
1.0
100
AcDbArc
 50
189.6279739307835
 51
280.2865606114788
  0
ARC
  5
1A0
330
1F
100
AcDbEntity
  8
LAY-10
  6
CONTINUOUS
 62
     7
100
AcDbCircle
 10
381.1934257425929
 20
585.8064059789378
 30
0.0
 40
1.0
100
AcDbArc
 50
280.2865606114756
 51
9.61247706680075
  0
ARC
  5
1A1
330
1F
100
AcDbEntity
  8
LAY-10
  6
CONTINUOUS
 62
     7
100
AcDbCircle
 10
379.2254387740878
 20
614.5507610282374
 30
0.0
 40
1.0
100
AcDbArc
 50
79.7134393885212
 51
170.3720260692166
  0
ARC
  5
1A2
330
1F
100
AcDbEntity
  8
LAY-10
  6
CONTINUOUS
 62
     7
100
AcDbCircle
 10
381.1934257425929
 20
614.1935940210526
 30
0.0
 40
1.0
100
AcDbArc
 50
350.3875229332058
 51
79.71343938852439
  0
ARC
  5
1A3
330
1F
100
AcDbEntity
  8
LAY-10
  6
CONTINUOUS
 62
     7
100
AcDbCircle
 10
383.4416704657751
 20
630.2859519180964
 30
0.0
 40
1.0
100
AcDbArc
 50
159.6279739307768
 51
250.2865606114794
  0
ARC
  5
1A4
330
1F
100
AcDbEntity
  8
LAY-10
  6
CONTINUOUS
 62
     7
100
AcDbCircle
 10
385.3245806784096
 20
629.6112741354597
 30
0.0
 40
1.0
100
AcDbArc
 50
250.2865606114794
 51
339.6124770668018
  0
ARC
  5
1A5
330
1F
100
AcDbEntity
  8
LAY-10
  6
CONTINUOUS
 62
     7
100
AcDbCircle
 10
397.9924314940173
 20
655.488609307805
 30
0.0
 40
1.0
100
AcDbArc
 50
49.71343938852296
 51
140.3720260692157
  0
ARC
  5
1A6
330
1F
100
AcDbEntity
  8
LAY-10
  6
CONTINUOUS
 62
     7
100
AcDbCircle
 10
399.5181746994671
 20
654.1953001219368
 30
0.0
 40
1.0
100
AcDbArc
 50
320.3875229331983
 51
49.71343938852542
  0
ARC
  5
1A7
330
1F
100
AcDbEntity
  8
LAY-10
  6
CONTINUOUS
 62
     7
100
AcDbCircle
 10
409.5113906921892
 20
667.0075685059767
 30
0.0
 40
1.0
100
AcDbArc
 50
129.6279739307844
 51
220.2865606114771
  0
ARC
  5
1A8
330
1F
100
AcDbEntity
  8
LAY-10
  6
CONTINUOUS
 62
     7
100
AcDbCircle
 10
410.8046998780575
 20
665.4818253005269
 30
0.0
 40
1.0
100
AcDbArc
 50
220.2865606114771
 51
309.6124770668017
  0
ARC
  5
1A9
330
1F
100
AcDbEntity
  8
LAY-10
  6
CONTINUOUS
 62
     7
100
AcDbCircle
 10
434.7140480818976
 20
681.5583295342187
 30
0.0
 40
1.0
100
AcDbArc
 50
19.71343938851647
 51
110.3720260692191
  0
ARC
  5
1AA
330
1F
100
AcDbEntity
  8
LAY-10
  6
CONTINUOUS
 62
     7
100
AcDbCircle
 10
435.3887258645345
 20
679.6754193215842
 30
0.0
 40
1.0
100
AcDbArc
 50
290.3875229331982
 51
19.71343938851647
  0
ARC
  5
1AB
330
1F
100
AcDbEntity
  8
LAY-10
  6
CONTINUOUS
 62
     7
100
AcDbCircle
 10
450.4492389717566
 20
685.7745612259062
 30
0.0
 40
1.0
100
AcDbArc
 50
99.62797393078023
 51
190.2865606114692
  0
ARC
  5
1AC
330
1F
100
AcDbEntity
  8
LAY-10
  6
CONTINUOUS
 62
     7
100
AcDbCircle
 10
450.8064059789413
 20
683.8065742574012
 30
0.0
 40
1.0
100
AcDbArc
 50
190.2865606114826
 51
279.6124770667976
  0
ARC
  5
1AD
330
1F
100
AcDbEntity
  8
LAY-10
  6
CONTINUOUS
 62
     7
100
AcDbCircle
 10
479.550761028241
 20
685.7745612259062
 30
0.0
 40
1.0
100
AcDbArc
 50
349.7134393885174
 51
80.37202606921342
  0
ARC
  5
1AE
330
1F
100
AcDbEntity
  8
LAY-10
  6
CONTINUOUS
 62
     7
100
AcDbCircle
 10
479.1935940210562
 20
683.8065742574012
 30
0.0
 40
1.0
100
AcDbArc
 50
260.3875229331993
 51
349.7134393885169
  0
ARC
  5
1AF
330
1F
100
AcDbEntity
  8
LAY-10
  6
CONTINUOUS
 62
     7
100
AcDbCircle
 10
464.9999999999988
 20
599.9999999999851
 30
0.0
 40
88.99999999995343
100
AcDbArc
 50
259.0696530385381
 51
280.9303469614625
  0
LINE
  5
1B0
330
1F
100
AcDbEntity
  8
LAY-10
  6
CONTINUOUS
 62
     7
100
AcDbLine
 10
480.7142857142869
 20
513.414428312271
 30
0.0
 11
481.8757808519102
 21
512.6146006438571
 31
0.0
  0
LINE
  5
1B1
330
1F
100
AcDbEntity
  8
LAY-10
  6
CONTINUOUS
 62
     7
100
AcDbLine
 10
449.2857142857106
 20
513.414428312271
 30
0.0
 11
448.1242191480877
 21
512.6146006438571
 31
0.0
  0
ARC
  5
1B2
330
1F
100
AcDbEntity
  8
LAY-10
  6
CONTINUOUS
 62
     7
100
AcDbCircle
 10
464.9999999999988
 20
599.9999999999851
 30
0.0
 40
87.99999999999181
100
AcDbArc
 50
260.3720260692196
 51
279.6279739307806
  0
ARC
  5
1B3
330
1F
100
AcDbEntity
  8
LAY-10
  6
CONTINUOUS
 62
     7
100
AcDbCircle
 10
464.9999999999988
 20
599.9999999999851
 30
0.0
 40
83.99999999998056
100
AcDbArc
 50
260.3875229331974
 51
279.6124770668025
  0
LINE
  5
1B4
330
1F
100
AcDbEntity
  8
LAY-10
  6
CONTINUOUS
 62
     7
100
AcDbLine
 10
449.8224790279445
 20
516.3719971711505
 30
0.0
 11
449.4653120207597
 21
514.4040102026454
 31
0.0
  0
LINE
  5
1B5
330
1F
100
AcDbEntity
  8
LAY-10
  6
CONTINUOUS
 62
     7
100
AcDbLine
 10
480.1775209720531
 20
516.3719971711506
 30
0.0
 11
480.5346879792379
 21
514.4040102026455
 31
0.0
  0
LINE
  5
1B6
330
1F
100
AcDbEntity
  8
LAY-10
  6
CONTINUOUS
 62
     7
100
AcDbLine
 10
479.9999999999988
 20
517.3501361162694
 30
0.0
 11
480.9447113866765
 21
517.7447849483807
 31
0.0
  0
LINE
  5
1B7
330
1F
100
AcDbEntity
  8
LAY-10
  6
CONTINUOUS
 62
     7
100
AcDbLine
 10
480.9447113866765
 20
517.7447849483807
 30
0.0
 11
481.8757808519102
 21
512.6146006438571
 31
0.0
  0
LINE
  5
1B8
330
1F
100
AcDbEntity
  8
LAY-10
  6
CONTINUOUS
 62
     7
100
AcDbLine
 10
449.055288613321
 20
517.7447849483808
 30
0.0
 11
449.9999999999986
 21
517.3501361162694
 31
0.0
  0
LINE
  5
1B9
330
1F
100
AcDbEntity
  8
LAY-10
  6
CONTINUOUS
 62
     7
100
AcDbLine
 10
448.1242191480874
 20
512.6146006438571
 30
0.0
 11
449.055288613321
 21
517.7447849483808
 31
0.0
  0
LINE
  5
1BA
330
1F
100
AcDbEntity
  8
LAY-10
  6
CONTINUOUS
 62
     7
100
AcDbLine
 10
469.6077535752945
 20
517.0877905992795
 30
0.0
 11
468.9999999999993
 21
516.5150329372772
 31
0.0
  0
LINE
  5
1BB
330
1F
100
AcDbEntity
  8
LAY-10
  6
CONTINUOUS
 62
     7
100
AcDbLine
 10
460.3922464247036
 20
517.0877905992795
 30
0.0
 11
460.9999999999992
 21
516.515032937277
 31
0.0
  0
ARC
  5
1BC
330
1F
100
AcDbEntity
  8
LAY-10
  6
CONTINUOUS
 62
     7
100
AcDbCircle
 10
464.9999999999988
 20
599.9999999999851
 30
0.0
 40
83.58073776571632
100
AcDbArc
 50
267.2568955413264
 51
272.7431044586743
  0
ARC
  5
1BD
330
1F
100
AcDbEntity
  8
LAY-10
  6
CONTINUOUS
 62
     7
100
AcDbCircle
 10
450.4492389717566
 20
514.225438774074
 30
0.0
 40
1.0
100
AcDbArc
 50
169.7134393885244
 51
260.3720260692199
  0
ARC
  5
1BE
330
1F
100
AcDbEntity
  8
LAY-10
  6
CONTINUOUS
 62
     7
100
AcDbCircle
 10
450.8064059789413
 20
516.193425742579
 30
0.0
 40
1.0
100
AcDbArc
 50
80.38752293320249
 51
169.7134393885244
  0
ARC
  5
1BF
330
1F
100
AcDbEntity
  8
LAY-10
  6
CONTINUOUS
 62
     7
100
AcDbCircle
 10
479.550761028241
 20
514.225438774074
 30
0.0
 40
1.0
100
AcDbArc
 50
279.6279739307866
 51
10.28656061148262
  0
ARC
  5
1C0
330
1F
100
AcDbEntity
  8
LAY-10
  6
CONTINUOUS
 62
     7
100
AcDbCircle
 10
479.1935940210562
 20
516.193425742579
 30
0.0
 40
1.0
100
AcDbArc
 50
10.2865606114832
 51
99.61247706680072
  0
ARC
  5
1C1
330
1F
100
AcDbEntity
  8
LAY-10
  6
CONTINUOUS
 62
     7
100
AcDbCircle
 10
464.9999999999988
 20
599.9999999999953
 30
0.0
 40
83.0401460783702
100
AcDbArc
 50
184.5640222140548
 51
266.8191229231234
  0
ARC
  5
1C2
330
1F
100
AcDbEntity
  8
LAY-10
  6
CONTINUOUS
 62
     7
100
AcDbCircle
 10
464.9999999999988
 20
599.9999999999953
 30
0.0
 40
83.78636061072308
100
AcDbArc
 50
250.9704086680273
 51
259.0295913319725
  0
CIRCLE
  5
1C3
330
1F
100
AcDbEntity
  8
LAY-10
  6
CONTINUOUS
 62
     7
100
AcDbCircle
 10
464.9999999999988
 20
599.9999999999953
 30
0.0
 40
99.00000000005078
  0
CIRCLE
  5
1C4
330
1F
100
AcDbEntity
  8
LAY-10
  6
CONTINUOUS
 62
     7
100
AcDbCircle
 10
464.9999999999988
 20
599.9999999999953
 30
0.0
 40
103.9999999999999
  0
ARC
  5
1C5
330
1F
100
AcDbEntity
  8
LAY-10
  6
CONTINUOUS
 62
     7
100
AcDbCircle
 10
464.9999999999993
 20
599.9999999999953
 30
0.0
 40
83.58073776571632
100
AcDbArc
 50
355.8833741047735
 51
4.116625895226354
  0
LINE
  5
1C6
330
1F
100
AcDbEntity
  8
LAY-10
  6
CONTINUOUS
 62
     7
100
AcDbLine
 10
548.3650989651022
 20
605.9999999999953
 30
0.0
 11
547.7768292060349
 21
606.6077535752908
 31
0.0
  0
LINE
  5
1C7
330
1F
100
AcDbEntity
  8
LAY-10
  6
CONTINUOUS
 62
     7
100
AcDbLine
 10
548.3650989651022
 20
593.9999999999953
 30
0.0
 11
547.7768292060356
 21
593.3922464247064
 31
0.0
  0
ARC
  5
1C8
330
1F
100
AcDbEntity
  8
LAY-10
  6
CONTINUOUS
 62
     7
100
AcDbCircle
 10
464.9999999999993
 20
599.9999999999953
 30
0.0
 40
88.99999999995343
100
AcDbArc
 50
349.0696530385379
 51
10.93034696146213
  0
LINE
  5
1C9
330
1F
100
AcDbEntity
  8
LAY-10
  6
CONTINUOUS
 62
     7
100
AcDbLine
 10
551.5855716877132
 20
615.7142857142833
 30
0.0
 11
552.3853993561271
 21
616.8757808519066
 31
0.0
  0
LINE
  5
1CA
330
1F
100
AcDbEntity
  8
LAY-10
  6
CONTINUOUS
 62
     7
100
AcDbLine
 10
551.5855716877132
 20
584.2857142857073
 30
0.0
 11
552.3853993561271
 21
583.1242191480841
 31
0.0
  0
ARC
  5
1CB
330
1F
100
AcDbEntity
  8
LAY-10
  6
CONTINUOUS
 62
     7
100
AcDbCircle
 10
464.9999999999993
 20
599.9999999999953
 30
0.0
 40
87.99999999999181
100
AcDbArc
 50
350.3720260692195
 51
9.627973930780538
  0
ARC
  5
1CC
330
1F
100
AcDbEntity
  8
LAY-10
  6
CONTINUOUS
 62
     7
100
AcDbCircle
 10
464.9999999999993
 20
599.9999999999953
 30
0.0
 40
83.99999999998056
100
AcDbArc
 50
350.3875229331977
 51
9.612477066802297
  0
LINE
  5
1CD
330
1F
100
AcDbEntity
  8
LAY-10
  6
CONTINUOUS
 62
     7
100
AcDbLine
 10
548.6280028288338
 20
584.8224790279411
 30
0.0
 11
550.5959897973388
 21
584.4653120207563
 31
0.0
  0
LINE
  5
1CE
330
1F
100
AcDbEntity
  8
LAY-10
  6
CONTINUOUS
 62
     7
100
AcDbLine
 10
548.6280028288338
 20
615.1775209720495
 30
0.0
 11
550.5959897973388
 21
615.5346879792343
 31
0.0
  0
LINE
  5
1CF
330
1F
100
AcDbEntity
  8
LAY-10
  6
CONTINUOUS
 62
     7
100
AcDbLine
 10
547.6498638837148
 20
614.9999999999951
 30
0.0
 11
547.2552150516034
 21
615.9447113866729
 31
0.0
  0
LINE
  5
1D0
330
1F
100
AcDbEntity
  8
LAY-10
  6
CONTINUOUS
 62
     7
100
AcDbLine
 10
547.2552150516035
 20
615.9447113866729
 30
0.0
 11
552.3853993561271
 21
616.8757808519066
 31
0.0
  0
LINE
  5
1D1
330
1F
100
AcDbEntity
  8
LAY-10
  6
CONTINUOUS
 62
     7
100
AcDbLine
 10
547.2552150516034
 20
584.0552886133177
 30
0.0
 11
547.6498638837148
 21
584.9999999999952
 31
0.0
  0
LINE
  5
1D2
330
1F
100
AcDbEntity
  8
LAY-10
  6
CONTINUOUS
 62
     7
100
AcDbLine
 10
552.3853993561271
 20
583.124219148084
 30
0.0
 11
547.2552150516035
 21
584.0552886133177
 31
0.0
  0
ARC
  5
1D3
330
1F
100
AcDbEntity
  8
LAY-10
  6
CONTINUOUS
 62
     7
100
AcDbCircle
 10
464.9999999999993
 20
599.999999999995
 30
0.0
 40
88.99999999995343
100
AcDbArc
 50
19.06965303853793
 51
40.93034696146226
  0
LINE
  5
1D4
330
1F
100
AcDbEntity
  8
LAY-10
  6
CONTINUOUS
 62
     7
100
AcDbLine
 10
532.1281618256143
 20
656.9017564747523
 30
0.0
 11
532.2400853362986
 21
658.3075546045134
 31
0.0
  0
LINE
  5
1D5
330
1F
100
AcDbEntity
  8
LAY-10
  6
CONTINUOUS
 62
     7
100
AcDbLine
 10
547.8424475399022
 20
629.6838152129518
 30
0.0
 11
549.1158661882098
 21
629.077844751605
 31
0.0
  0
ARC
  5
1D6
330
1F
100
AcDbEntity
  8
LAY-10
  6
CONTINUOUS
 62
     7
100
AcDbCircle
 10
464.9999999999993
 20
599.999999999995
 30
0.0
 40
87.99999999999181
100
AcDbArc
 50
20.37202606921959
 51
39.62797393078043
  0
ARC
  5
1D7
330
1F
100
AcDbEntity
  8
LAY-10
  6
CONTINUOUS
 62
     7
100
AcDbCircle
 10
464.9999999999993
 20
599.999999999995
 30
0.0
 40
83.99999999998056
100
AcDbArc
 50
20.38752293319754
 51
39.61247706680265
  0
LINE
  5
1D8
330
1F
100
AcDbEntity
  8
LAY-10
  6
CONTINUOUS
 62
     7
100
AcDbLine
 10
545.0127354035538
 20
628.6698826861424
 30
0.0
 11
546.8956456161884
 21
629.3445604687793
 31
0.0
  0
LINE
  5
1D9
330
1F
100
AcDbEntity
  8
LAY-10
  6
CONTINUOUS
 62
     7
100
AcDbLine
 10
529.8352144314996
 20
654.9581201426826
 30
0.0
 11
531.3609576369494
 21
656.2514293285507
 31
0.0
  0
LINE
  5
1DA
330
1F
100
AcDbEntity
  8
LAY-10
  6
CONTINUOUS
 62
     7
100
AcDbLine
 10
529.0768817426228
 20
654.3153129986194
 30
0.0
 11
528.2627501351018
 21
654.936132642671
 31
0.0
  0
LINE
  5
1DB
330
1F
100
AcDbEntity
  8
LAY-10
  6
CONTINUOUS
 62
     7
100
AcDbLine
 10
528.2627501351018
 20
654.936132642671
 30
0.0
 11
532.2400853362986
 21
658.3075546045134
 31
0.0
  0
LINE
  5
1DC
330
1F
100
AcDbEntity
  8
LAY-10
  6
CONTINUOUS
 62
     7
100
AcDbLine
 10
544.2074615217791
 20
627.3190824089235
 30
0.0
 11
544.0768817426227
 21
628.3345508850863
 31
0.0
  0
LINE
  5
1DD
330
1F
100
AcDbEntity
  8
LAY-10
  6
CONTINUOUS
 62
     7
100
AcDbLine
 10
549.1158661882099
 20
629.0778447516049
 30
0.0
 11
544.2074615217791
 21
627.3190824089235
 31
0.0
  0
ARC
  5
1DE
330
1F
100
AcDbEntity
  8
LAY-10
  6
CONTINUOUS
 62
     7
100
AcDbCircle
 10
464.9999999999993
 20
599.9999999999953
 30
0.0
 40
83.78636061072308
100
AcDbArc
 50
10.9704086680269
 51
19.02959133197294
  0
ARC
  5
1DF
330
1F
100
AcDbEntity
  8
LAY-10
  6
CONTINUOUS
 62
     7
100
AcDbCircle
 10
464.9999999999993
 20
599.9999999999948
 30
0.0
 40
88.99999999995343
100
AcDbArc
 50
49.06965303853811
 51
70.93034696146239
  0
LINE
  5
1E0
330
1F
100
AcDbEntity
  8
LAY-10
  6
CONTINUOUS
 62
     7
100
AcDbLine
 10
494.6838152129558
 20
682.8424475398979
 30
0.0
 11
494.0778447516088
 21
684.1158661882056
 31
0.0
  0
LINE
  5
1E1
330
1F
100
AcDbEntity
  8
LAY-10
  6
CONTINUOUS
 62
     7
100
AcDbLine
 10
521.9017564747566
 20
667.1281618256099
 30
0.0
 11
523.3075546045173
 21
667.2400853362943
 31
0.0
  0
ARC
  5
1E2
330
1F
100
AcDbEntity
  8
LAY-10
  6
CONTINUOUS
 62
     7
100
AcDbCircle
 10
464.9999999999993
 20
599.9999999999948
 30
0.0
 40
87.99999999999181
100
AcDbArc
 50
50.37202606921966
 51
69.62797393078067
  0
ARC
  5
1E3
330
1F
100
AcDbEntity
  8
LAY-10
  6
CONTINUOUS
 62
     7
100
AcDbCircle
 10
464.9999999999993
 20
599.9999999999948
 30
0.0
 40
83.99999999998056
100
AcDbArc
 50
50.38752293319772
 51
69.61247706680255
  0
LINE
  5
1E4
330
1F
100
AcDbEntity
  8
LAY-10
  6
CONTINUOUS
 62
     7
100
AcDbLine
 10
519.9581201426863
 20
664.8352144314954
 30
0.0
 11
521.2514293285545
 21
666.3609576369453
 31
0.0
  0
LINE
  5
1E5
330
1F
100
AcDbEntity
  8
LAY-10
  6
CONTINUOUS
 62
     7
100
AcDbLine
 10
493.6698826861464
 20
680.0127354035495
 30
0.0
 11
494.3445604687832
 21
681.8956456161841
 31
0.0
  0
LINE
  5
1E6
330
1F
100
AcDbEntity
  8
LAY-10
  6
CONTINUOUS
 62
     7
100
AcDbLine
 10
493.3345508850905
 20
679.0768817426185
 30
0.0
 11
492.3190824089274
 21
679.2074615217751
 31
0.0
  0
LINE
  5
1E7
330
1F
100
AcDbEntity
  8
LAY-10
  6
CONTINUOUS
 62
     7
100
AcDbLine
 10
492.3190824089274
 20
679.2074615217751
 30
0.0
 11
494.0778447516088
 21
684.1158661882056
 31
0.0
  0
LINE
  5
1E8
330
1F
100
AcDbEntity
  8
LAY-10
  6
CONTINUOUS
 62
     7
100
AcDbLine
 10
519.936132642675
 20
663.2627501350976
 30
0.0
 11
519.3153129986234
 21
664.0768817426185
 31
0.0
  0
LINE
  5
1E9
330
1F
100
AcDbEntity
  8
LAY-10
  6
CONTINUOUS
 62
     7
100
AcDbLine
 10
523.3075546045173
 20
667.2400853362943
 30
0.0
 11
519.936132642675
 21
663.2627501350976
 31
0.0
  0
ARC
  5
1EA
330
1F
100
AcDbEntity
  8
LAY-10
  6
CONTINUOUS
 62
     7
100
AcDbCircle
 10
464.9999999999988
 20
599.9999999999951
 30
0.0
 40
88.99999999995343
100
AcDbArc
 50
319.0696530385384
 51
340.9303469614628
  0
LINE
  5
1EB
330
1F
100
AcDbEntity
  8
LAY-10
  6
CONTINUOUS
 62
     7
100
AcDbLine
 10
547.8424475399019
 20
570.3161847870385
 30
0.0
 11
549.1158661882098
 21
570.9221552483855
 31
0.0
  0
LINE
  5
1EC
330
1F
100
AcDbEntity
  8
LAY-10
  6
CONTINUOUS
 62
     7
100
AcDbLine
 10
532.1281618256143
 20
543.0982435252379
 30
0.0
 11
532.2400853362986
 21
541.6924453954772
 31
0.0
  0
ARC
  5
1ED
330
1F
100
AcDbEntity
  8
LAY-10
  6
CONTINUOUS
 62
     7
100
AcDbCircle
 10
464.9999999999988
 20
599.9999999999951
 30
0.0
 40
87.99999999999181
100
AcDbArc
 50
320.3720260692198
 51
339.6279739307805
  0
ARC
  5
1EE
330
1F
100
AcDbEntity
  8
LAY-10
  6
CONTINUOUS
 62
     7
100
AcDbCircle
 10
464.9999999999988
 20
599.9999999999951
 30
0.0
 40
83.99999999998056
100
AcDbArc
 50
320.3875229331979
 51
339.6124770668026
  0
LINE
  5
1EF
330
1F
100
AcDbEntity
  8
LAY-10
  6
CONTINUOUS
 62
     7
100
AcDbLine
 10
529.8352144314994
 20
545.041879857308
 30
0.0
 11
531.3609576369491
 21
543.7485706714398
 31
0.0
  0
LINE
  5
1F0
330
1F
100
AcDbEntity
  8
LAY-10
  6
CONTINUOUS
 62
     7
100
AcDbLine
 10
545.0127354035535
 20
571.330117313848
 30
0.0
 11
546.8956456161881
 21
570.6554395312111
 31
0.0
  0
LINE
  5
1F1
330
1F
100
AcDbEntity
  8
LAY-10
  6
CONTINUOUS
 62
     7
100
AcDbLine
 10
544.0768817426227
 20
571.6654491149038
 30
0.0
 11
544.2074615217791
 21
572.6809175910669
 31
0.0
  0
LINE
  5
1F2
330
1F
100
AcDbEntity
  8
LAY-10
  6
CONTINUOUS
 62
     7
100
AcDbLine
 10
544.2074615217791
 20
572.6809175910669
 30
0.0
 11
549.1158661882098
 21
570.9221552483855
 31
0.0
  0
LINE
  5
1F3
330
1F
100
AcDbEntity
  8
LAY-10
  6
CONTINUOUS
 62
     7
100
AcDbLine
 10
528.2627501351016
 20
545.0638673573193
 30
0.0
 11
529.0768817426227
 21
545.6846870013708
 31
0.0
  0
LINE
  5
1F4
330
1F
100
AcDbEntity
  8
LAY-10
  6
CONTINUOUS
 62
     7
100
AcDbLine
 10
532.2400853362986
 20
541.6924453954771
 30
0.0
 11
528.2627501351016
 21
545.0638673573193
 31
0.0
  0
ARC
  5
1F5
330
1F
100
AcDbEntity
  8
LAY-10
  6
CONTINUOUS
 62
     7
100
AcDbCircle
 10
464.9999999999988
 20
599.9999999999953
 30
0.0
 40
88.99999999995343
100
AcDbArc
 50
289.0696530385379
 51
310.9303469614626
  0
LINE
  5
1F6
330
1F
100
AcDbEntity
  8
LAY-10
  6
CONTINUOUS
 62
     7
100
AcDbLine
 10
521.9017564747563
 20
532.8718381743803
 30
0.0
 11
523.3075546045173
 21
532.7599146636959
 31
0.0
  0
LINE
  5
1F7
330
1F
100
AcDbEntity
  8
LAY-10
  6
CONTINUOUS
 62
     7
100
AcDbLine
 10
494.6838152129556
 20
517.1575524600922
 30
0.0
 11
494.0778447516088
 21
515.8841338117846
 31
0.0
  0
ARC
  5
1F8
330
1F
100
AcDbEntity
  8
LAY-10
  6
CONTINUOUS
 62
     7
100
AcDbCircle
 10
464.9999999999988
 20
599.9999999999953
 30
0.0
 40
87.99999999999181
100
AcDbArc
 50
290.3720260692194
 51
309.6279739307806
  0
ARC
  5
1F9
330
1F
100
AcDbEntity
  8
LAY-10
  6
CONTINUOUS
 62
     7
100
AcDbCircle
 10
464.9999999999988
 20
599.9999999999953
 30
0.0
 40
83.99999999998056
100
AcDbArc
 50
290.3875229331976
 51
309.6124770668025
  0
LINE
  5
1FA
330
1F
100
AcDbEntity
  8
LAY-10
  6
CONTINUOUS
 62
     7
100
AcDbLine
 10
493.6698826861461
 20
519.9872645964406
 30
0.0
 11
494.3445604687831
 21
518.104354383806
 31
0.0
  0
LINE
  5
1FB
330
1F
100
AcDbEntity
  8
LAY-10
  6
CONTINUOUS
 62
     7
100
AcDbLine
 10
519.9581201426862
 20
535.1647855684948
 30
0.0
 11
521.2514293285544
 21
533.6390423630451
 31
0.0
  0
LINE
  5
1FC
330
1F
100
AcDbEntity
  8
LAY-10
  6
CONTINUOUS
 62
     7
100
AcDbLine
 10
519.3153129986234
 20
535.9231182573715
 30
0.0
 11
519.936132642675
 21
536.7372498648926
 31
0.0
  0
LINE
  5
1FD
330
1F
100
AcDbEntity
  8
LAY-10
  6
CONTINUOUS
 62
     7
100
AcDbLine
 10
519.936132642675
 20
536.7372498648926
 30
0.0
 11
523.3075546045173
 21
532.7599146636959
 31
0.0
  0
LINE
  5
1FE
330
1F
100
AcDbEntity
  8
LAY-10
  6
CONTINUOUS
 62
     7
100
AcDbLine
 10
492.3190824089273
 20
520.7925384782151
 30
0.0
 11
493.3345508850901
 21
520.9231182573716
 31
0.0
  0
LINE
  5
1FF
330
1F
100
AcDbEntity
  8
LAY-10
  6
CONTINUOUS
 62
     7
100
AcDbLine
 10
494.0778447516088
 20
515.8841338117845
 30
0.0
 11
492.3190824089273
 21
520.7925384782151
 31
0.0
  0
ARC
  5
200
330
1F
100
AcDbEntity
  8
LAY-10
  6
CONTINUOUS
 62
     7
100
AcDbCircle
 10
464.9999999999993
 20
599.9999999999953
 30
0.0
 40
83.78636061072308
100
AcDbArc
 50
40.97040866802674
 51
49.02959133197346
  0
ARC
  5
201
330
1F
100
AcDbEntity
  8
LAY-10
  6
CONTINUOUS
 62
     7
100
AcDbCircle
 10
464.9999999999993
 20
599.9999999999953
 30
0.0
 40
83.78636061072308
100
AcDbArc
 50
340.9704086680271
 51
349.0295913319725
  0
ARC
  5
202
330
1F
100
AcDbEntity
  8
LAY-10
  6
CONTINUOUS
 62
     7
100
AcDbCircle
 10
464.9999999999993
 20
599.9999999999953
 30
0.0
 40
83.78636061072308
100
AcDbArc
 50
310.9704086680266
 51
319.0295913319728
  0
ARC
  5
203
330
1F
100
AcDbEntity
  8
LAY-10
  6
CONTINUOUS
 62
     7
100
AcDbCircle
 10
520.4886093078087
 20
532.9924314940137
 30
0.0
 40
1.0
100
AcDbArc
 50
309.6279739307793
 51
40.28656061147707
  0
ARC
  5
204
330
1F
100
AcDbEntity
  8
LAY-10
  6
CONTINUOUS
 62
     7
100
AcDbCircle
 10
519.1953001219405
 20
534.5181746994634
 30
0.0
 40
1.0
100
AcDbArc
 50
40.28656061147707
 51
129.6124770668018
  0
ARC
  5
205
330
1F
100
AcDbEntity
  8
LAY-10
  6
CONTINUOUS
 62
     7
100
AcDbCircle
 10
494.6112741354633
 20
520.324580678406
 30
0.0
 40
1.0
100
AcDbArc
 50
110.3875229331982
 51
199.7134393885237
  0
ARC
  5
206
330
1F
100
AcDbEntity
  8
LAY-10
  6
CONTINUOUS
 62
     7
100
AcDbCircle
 10
495.2859519181002
 20
518.4416704657716
 30
0.0
 40
1.0
100
AcDbArc
 50
199.7134393885309
 51
290.3720260692161
  0
ARC
  5
207
330
1F
100
AcDbEntity
  8
LAY-10
  6
CONTINUOUS
 62
     7
100
AcDbCircle
 10
532.0075685059805
 20
544.5113906921855
 30
0.0
 40
1.0
100
AcDbArc
 50
229.7134393885279
 51
320.3720260692248
  0
ARC
  5
208
330
1F
100
AcDbEntity
  8
LAY-10
  6
CONTINUOUS
 62
     7
100
AcDbCircle
 10
530.4818253005308
 20
545.8046998780537
 30
0.0
 40
1.0
100
AcDbArc
 50
140.3875229331941
 51
229.713439388523
  0
ARC
  5
209
330
1F
100
AcDbEntity
  8
LAY-10
  6
CONTINUOUS
 62
     7
100
AcDbCircle
 10
546.5583295342226
 20
569.7140480818939
 30
0.0
 40
1.0
100
AcDbArc
 50
339.627973930784
 51
70.28656061147635
  0
ARC
  5
20A
330
1F
100
AcDbEntity
  8
LAY-10
  6
CONTINUOUS
 62
     7
100
AcDbCircle
 10
544.675419321588
 20
570.3887258645308
 30
0.0
 40
1.0
100
AcDbArc
 50
70.28656061147635
 51
159.6124770668019
  0
ARC
  5
20B
330
1F
100
AcDbEntity
  8
LAY-10
  6
CONTINUOUS
 62
     7
100
AcDbCircle
 10
550.7745612259104
 20
585.4492389717531
 30
0.0
 40
1.0
100
AcDbArc
 50
259.7134393885181
 51
350.3720260692166
  0
ARC
  5
20C
330
1F
100
AcDbEntity
  8
LAY-10
  6
CONTINUOUS
 62
     7
100
AcDbCircle
 10
548.8065742574051
 20
585.8064059789378
 30
0.0
 40
1.0
100
AcDbArc
 50
170.3875229331993
 51
259.7134393885307
  0
ARC
  5
20D
330
1F
100
AcDbEntity
  8
LAY-10
  6
CONTINUOUS
 62
     7
100
AcDbCircle
 10
550.7745612259104
 20
614.5507610282374
 30
0.0
 40
1.0
100
AcDbArc
 50
9.627973930783403
 51
100.286560611482
  0
ARC
  5
20E
330
1F
100
AcDbEntity
  8
LAY-10
  6
CONTINUOUS
 62
     7
100
AcDbCircle
 10
548.8065742574051
 20
614.1935940210526
 30
0.0
 40
1.0
100
AcDbArc
 50
100.2865606114692
 51
189.6124770667943
  0
ARC
  5
20F
330
1F
100
AcDbEntity
  8
LAY-10
  6
CONTINUOUS
 62
     7
100
AcDbCircle
 10
546.5583295342229
 20
630.2859519180964
 30
0.0
 40
1.0
100
AcDbArc
 50
289.7134393885237
 51
20.37202606922217
  0
ARC
  5
210
330
1F
100
AcDbEntity
  8
LAY-10
  6
CONTINUOUS
 62
     7
100
AcDbCircle
 10
544.6754193215885
 20
629.6112741354597
 30
0.0
 40
1.0
100
AcDbArc
 50
200.3875229331983
 51
289.7134393885177
  0
ARC
  5
211
330
1F
100
AcDbEntity
  8
LAY-10
  6
CONTINUOUS
 62
     7
100
AcDbCircle
 10
532.0075685059808
 20
655.488609307805
 30
0.0
 40
1.0
100
AcDbArc
 50
39.62797393078434
 51
130.2865606114721
  0
ARC
  5
212
330
1F
100
AcDbEntity
  8
LAY-10
  6
CONTINUOUS
 62
     7
100
AcDbCircle
 10
530.481825300531
 20
654.1953001219368
 30
0.0
 40
1.0
100
AcDbArc
 50
130.2865606114721
 51
219.612477066806
  0
ARC
  5
213
330
1F
100
AcDbEntity
  8
LAY-10
  6
CONTINUOUS
 62
     7
100
AcDbCircle
 10
520.4886093078088
 20
667.0075685059767
 30
0.0
 40
1.0
100
AcDbArc
 50
319.713439388523
 51
50.3720260692157
  0
ARC
  5
214
330
1F
100
AcDbEntity
  8
LAY-10
  6
CONTINUOUS
 62
     7
100
AcDbCircle
 10
519.1953001219406
 20
665.4818253005269
 30
0.0
 40
1.0
100
AcDbArc
 50
230.3875229332033
 51
319.7134393885138
  0
ARC
  5
215
330
1F
100
AcDbEntity
  8
LAY-10
  6
CONTINUOUS
 62
     7
100
AcDbCircle
 10
495.2859519181005
 20
681.5583295342187
 30
0.0
 40
1.0
100
AcDbArc
 50
69.6279739307809
 51
160.2865606114836
  0
ARC
  5
216
330
1F
100
AcDbEntity
  8
LAY-10
  6
CONTINUOUS
 62
     7
100
AcDbCircle
 10
494.6112741354635
 20
679.6754193215842
 30
0.0
 40
1.0
100
AcDbArc
 50
160.2865606114825
 51
249.6124770668019
  0
ARC
  5
217
330
1F
100
AcDbEntity
  8
LAY-10
  6
CONTINUOUS
 62
     7
100
AcDbCircle
 10
464.9999999999988
 20
599.9999999999849
 30
0.0
 40
83.78636061072308
100
AcDbArc
 50
280.970408668027
 51
289.029591331975
  0
ARC
  5
218
330
1F
100
AcDbEntity
  8
LAY-10
  6
CONTINUOUS
 62
     7
100
AcDbCircle
 10
464.9999999999988
 20
599.9999999999953
 30
0.0
 40
83.78636061072308
100
AcDbArc
 50
70.97040866802722
 51
79.02959133197301
  0
ARC
  5
219
330
1F
100
AcDbEntity
  8
LAY-10
  6
CONTINUOUS
 62
     7
100
AcDbCircle
 10
464.9999999999988
 20
599.9999999999953
 30
0.0
 40
83.0401460783702
100
AcDbArc
 50
273.1808770768769
 51
355.4359777859482
  0
ARC
  5
21A
330
1F
100
AcDbEntity
  8
LAY-10
  6
CONTINUOUS
 62
     7
100
AcDbCircle
 10
464.9999999999988
 20
599.9999999999953
 30
0.0
 40
83.0401460783702
100
AcDbArc
 50
4.564022214058543
 51
75.0000000000008
  0
LINE
  5
21B
330
1F
100
AcDbEntity
  8
LAY-10
  6
CONTINUOUS
 62
     7
100
AcDbLine
 10
384.5996323728252
 20
595.9999999999902
 30
0.0
 11
384.0988257192847
 21
595.9999999999902
 31
0.0
  0
LINE
  5
21C
330
1F
100
AcDbEntity
  8
LAY-10
  6
CONTINUOUS
 62
     7
100
AcDbLine
 10
384.5996323728252
 20
603.9999999999901
 30
0.0
 11
384.0988257192847
 21
603.9999999999901
 31
0.0
  0
ARC
  5
21D
330
1F
100
AcDbEntity
  8
LAY-10
  6
CONTINUOUS
 62
     7
100
AcDbCircle
 10
389.500000000008
 20
599.9999999999901
 30
0.0
 40
4.0
100
AcDbArc
 50
320.8995693451413
 51
39.10043065485871
  0
LINE
  5
21E
330
1F
100
AcDbEntity
  8
LAY-10
  6
CONTINUOUS
 62
     7
100
AcDbLine
 10
545.4003676271931
 20
603.9999999999901
 30
0.0
 11
545.9011742807314
 21
603.9999999999901
 31
0.0
  0
LINE
  5
21F
330
1F
100
AcDbEntity
  8
LAY-10
  6
CONTINUOUS
 62
     7
100
AcDbLine
 10
545.4003676271931
 20
595.9999999999902
 30
0.0
 11
545.9011742807314
 21
595.9999999999902
 31
0.0
  0
ARC
  5
220
330
1F
100
AcDbEntity
  8
LAY-10
  6
CONTINUOUS
 62
     7
100
AcDbCircle
 10
540.500000000008
 20
599.9999999999901
 30
0.0
 40
4.0
100
AcDbArc
 50
140.8995693449845
 51
219.1004306550133
  0
LINE
  5
221
330
1F
100
AcDbEntity
  8
LAY-10
  6
CONTINUOUS
 62
     7
100
AcDbLine
 10
392.9633927678693
 20
601.7109156121578
 30
0.0
 11
384.0366072322054
 21
596.5570335801542
 31
0.0
  0
LINE
  5
222
330
1F
100
AcDbEntity
  8
LAY-10
  6
CONTINUOUS
 62
     7
100
AcDbLine
 10
391.9633927678717
 20
603.4429664197595
 30
0.0
 11
383.0366072321784
 21
598.2890843877389
 31
0.0
  0
CIRCLE
  5
223
330
1F
100
AcDbEntity
  8
LAY-10
  6
CONTINUOUS
 62
     7
100
AcDbCircle
 10
388.0000000000092
 20
599.9999999999901
 30
0.0
 40
5.250000000000004
  0
LINE
  5
224
330
1F
100
AcDbEntity
  8
LAY-10
  6
CONTINUOUS
 62
     7
100
AcDbLine
 10
546.9633927678692
 20
601.7109156121578
 30
0.0
 11
538.0366072322054
 21
596.5570335801542
 31
0.0
  0
LINE
  5
225
330
1F
100
AcDbEntity
  8
LAY-10
  6
CONTINUOUS
 62
     7
100
AcDbLine
 10
545.9633927678717
 20
603.4429664197595
 30
0.0
 11
537.0366072321783
 21
598.2890843877389
 31
0.0
  0
CIRCLE
  5
226
330
1F
100
AcDbEntity
  8
LAY-10
  6
CONTINUOUS
 62
     7
100
AcDbCircle
 10
542.0000000000091
 20
599.9999999999901
 30
0.0
 40
5.250000000000004
  0
ARC
  5
227
330
1F
100
AcDbEntity
  8
LAY-10
  6
CONTINUOUS
 62
     7
100
AcDbCircle
 10
465.0000000000353
 20
599.9999999999811
 30
0.0
 40
61.6183650964572
100
AcDbArc
 50
276.412051277889
 51
287.5879487219901
  0
ARC
  5
228
330
1F
100
AcDbEntity
  8
LAY-10
  6
CONTINUOUS
 62
     7
100
AcDbCircle
 10
471.4495422799853
 20
569.6572891971806
 30
0.0
 40
4.0205850119601
100
AcDbArc
 50
17.58794872205077
 51
186.4120512778995
  0
ARC
  5
229
330
1F
100
AcDbEntity
  8
LAY-10
  6
CONTINUOUS
 62
     7
100
AcDbCircle
 10
471.4495422799853
 20
569.6572891971806
 30
0.0
 40
3.0205850119601
100
AcDbArc
 50
17.58794872204653
 51
186.4120512779017
  0
LINE
  5
22A
330
1F
100
AcDbEntity
  8
LAY-10
  6
CONTINUOUS
 62
     7
100
AcDbLine
 10
472.3350159689588
 20
534.7307933343719
 30
0.0
 11
468.4478526843116
 21
569.3199564449908
 31
0.0
  0
LINE
  5
22B
330
1F
100
AcDbEntity
  8
LAY-10
  6
CONTINUOUS
 62
     7
100
AcDbLine
 10
467.4541082328927
 20
569.2082784915949
 30
0.0
 11
471.3412715175403
 21
534.619115380976
 31
0.0
  0
ARC
  5
22C
330
1F
100
AcDbEntity
  8
LAY-10
  6
CONTINUOUS
 62
     7
100
AcDbCircle
 10
465.000000000008
 20
599.9999999999901
 30
0.0
 40
65.68007154400004
100
AcDbArc
 50
263.5879487220877
 51
276.4120512779918
  0
ARC
  5
22D
330
1F
100
AcDbEntity
  8
LAY-10
  6
CONTINUOUS
 62
     7
100
AcDbCircle
 10
464.9999999999807
 20
599.9999999999815
 30
0.0
 40
61.6183650964572
100
AcDbArc
 50
252.4120512780103
 51
263.5879487221113
  0
ARC
  5
22E
330
1F
100
AcDbEntity
  8
LAY-10
  6
CONTINUOUS
 62
     7
100
AcDbCircle
 10
458.5504577200307
 20
569.6572891971806
 30
0.0
 40
3.0205850119601
100
AcDbArc
 50
353.5879487220982
 51
162.4120512779559
  0
ARC
  5
22F
330
1F
100
AcDbEntity
  8
LAY-10
  6
CONTINUOUS
 62
     7
100
AcDbCircle
 10
458.5504577200307
 20
569.6572891971806
 30
0.0
 40
4.0205850119601
100
AcDbArc
 50
353.5879487220745
 51
162.4120512779493
  0
LINE
  5
230
330
1F
100
AcDbEntity
  8
LAY-10
  6
CONTINUOUS
 62
     7
100
AcDbLine
 10
462.5458917671234
 20
569.2082784915949
 30
0.0
 11
458.6587284824757
 21
534.619115380976
 31
0.0
  0
LINE
  5
231
330
1F
100
AcDbEntity
  8
LAY-10
  6
CONTINUOUS
 62
     7
100
AcDbLine
 10
457.6649840310572
 20
534.7307933343719
 30
0.0
 11
461.5521473157045
 21
569.3199564449908
 31
0.0
  0
LINE
  5
232
330
1F
100
AcDbEntity
  8
LAY-10
  6
CONTINUOUS
 62
     7
100
AcDbLine
 10
475.2821820121151
 20
570.8721869385973
 30
0.0
 11
485.7997617406971
 21
537.6923623497379
 31
0.0
  0
LINE
  5
233
330
1F
100
AcDbEntity
  8
LAY-10
  6
CONTINUOUS
 62
     7
100
AcDbLine
 10
484.8465074951758
 20
537.3901929545374
 30
0.0
 11
474.3289277665942
 21
570.5700175433964
 31
0.0
  0
ARC
  5
234
330
1F
100
AcDbEntity
  8
LAY-10
  6
CONTINUOUS
 62
     7
100
AcDbCircle
 10
465.000000000008
 20
599.9999999999901
 30
0.0
 40
65.68007154400004
100
AcDbArc
 50
287.5879487220357
 51
300.4120512779393
  0
ARC
  5
235
330
1F
100
AcDbEntity
  8
LAY-10
  6
CONTINUOUS
 62
     7
100
AcDbCircle
 10
465.000000000008
 20
599.9999999999615
 30
0.0
 40
61.6183650964572
100
AcDbArc
 50
84.41205127795449
 51
95.58794872204614
  0
LINE
  5
236
330
1F
100
AcDbEntity
  8
LAY-10
  6
CONTINUOUS
 62
     7
100
AcDbLine
 10
471.3955028447734
 20
665.3679534740556
 30
0.0
 11
468.0062308990408
 21
630.726459875014
 31
0.0
  0
LINE
  5
237
330
1F
100
AcDbEntity
  8
LAY-10
  6
CONTINUOUS
 62
     7
100
AcDbLine
 10
472.3907507477887
 20
665.2705799070902
 30
0.0
 11
469.0014788020565
 21
630.6290863080492
 31
0.0
  0
ARC
  5
238
330
1F
100
AcDbEntity
  8
LAY-10
  6
CONTINUOUS
 62
     7
100
AcDbCircle
 10
465.000000000008
 20
599.9999999999901
 30
0.0
 40
65.68007154400004
100
AcDbArc
 50
71.58794872204878
 51
84.41205127795152
  0
ARC
  5
239
330
1F
100
AcDbEntity
  8
LAY-10
  6
CONTINUOUS
 62
     7
100
AcDbCircle
 10
495.8506510015266
 20
596.7574659190187
 30
0.0
 40
3.0205850119601
100
AcDbArc
 50
89.58794872203909
 51
258.4120512779568
  0
LINE
  5
23A
330
1F
100
AcDbEntity
  8
LAY-10
  6
CONTINUOUS
 62
     7
100
AcDbLine
 10
530.6783730695596
 20
599.5276558873962
 30
0.0
 11
495.8723738089697
 21
599.7779728192119
 31
0.0
  0
LINE
  5
23B
330
1F
100
AcDbEntity
  8
LAY-10
  6
CONTINUOUS
 62
     7
100
AcDbLine
 10
529.3413489011849
 20
586.8067206653778
 30
0.0
 11
495.2439004167621
 21
593.7984479159701
 31
0.0
  0
LINE
  5
23C
330
1F
100
AcDbEntity
  8
LAY-10
  6
CONTINUOUS
 62
     7
100
AcDbLine
 10
529.1404770229354
 20
585.8271031438272
 30
0.0
 11
495.0430285385125
 21
592.8188303944196
 31
0.0
  0
ARC
  5
23D
330
1F
100
AcDbEntity
  8
LAY-10
  6
CONTINUOUS
 62
     7
100
AcDbCircle
 10
491.8646146606087
 20
584.4897074940034
 30
0.0
 40
3.0205850119601
100
AcDbArc
 50
65.5879487220423
 51
234.4120512779514
  0
LINE
  5
23E
330
1F
100
AcDbEntity
  8
LAY-10
  6
CONTINUOUS
 62
     7
100
AcDbLine
 10
524.808059724319
 20
572.8546911964933
 30
0.0
 11
493.1130102696473
 21
587.2402423906757
 31
0.0
  0
LINE
  5
23F
330
1F
100
AcDbEntity
  8
LAY-10
  6
CONTINUOUS
 62
     7
100
AcDbLine
 10
518.4125568795537
 20
561.7773553294084
 30
0.0
 11
490.106779370614
 21
582.033297734267
 31
0.0
  0
ARC
  5
240
330
1F
100
AcDbEntity
  8
LAY-10
  6
CONTINUOUS
 62
     7
100
AcDbCircle
 10
491.8646146606087
 20
584.4897074940034
 30
0.0
 40
4.0205850119601
100
AcDbArc
 50
65.58794872204469
 51
234.4120512779492
  0
LINE
  5
241
330
1F
100
AcDbEntity
  8
LAY-10
  6
CONTINUOUS
 62
     7
100
AcDbLine
 10
493.5263062385059
 20
588.1508391412328
 30
0.0
 11
525.2213556931777
 21
573.7652879470503
 31
0.0
  0
LINE
  5
242
330
1F
100
AcDbEntity
  8
LAY-10
  6
CONTINUOUS
 62
     7
100
AcDbLine
 10
517.8306049453971
 20
560.9641321458164
 30
0.0
 11
489.5248274364575
 21
581.2200745506753
 31
0.0
  0
ARC
  5
243
330
1F
100
AcDbEntity
  8
LAY-10
  6
CONTINUOUS
 62
     7
100
AcDbCircle
 10
483.2334423875093
 20
574.9038195498572
 30
0.0
 40
3.0205850119601
100
AcDbArc
 50
41.58794872204573
 51
210.4120512779524
  0
LINE
  5
244
330
1F
100
AcDbEntity
  8
LAY-10
  6
CONTINUOUS
 62
     7
100
AcDbLine
 10
508.596389513579
 20
550.8753970051035
 30
0.0
 11
485.4926518560226
 21
576.9087899715488
 31
0.0
  0
LINE
  5
245
330
1F
100
AcDbEntity
  8
LAY-10
  6
CONTINUOUS
 62
     7
100
AcDbLine
 10
498.248248535602
 20
543.3570324988084
 30
0.0
 11
480.6284680833571
 21
573.3747535966737
 31
0.0
  0
ARC
  5
246
330
1F
100
AcDbEntity
  8
LAY-10
  6
CONTINUOUS
 62
     7
100
AcDbCircle
 10
483.2334423875093
 20
574.9038195498572
 30
0.0
 40
4.0205850119601
100
AcDbArc
 50
41.58794872205353
 51
210.4120512779483
  0
LINE
  5
247
330
1F
100
AcDbEntity
  8
LAY-10
  6
CONTINUOUS
 62
     7
100
AcDbLine
 10
486.2405895765531
 20
577.5725588817937
 30
0.0
 11
509.344327234109
 21
551.5391659153485
 31
0.0
  0
LINE
  5
248
330
1F
100
AcDbEntity
  8
LAY-10
  6
CONTINUOUS
 62
     7
100
AcDbLine
 10
497.3858413218211
 20
542.8508173295187
 30
0.0
 11
479.7660608695763
 21
572.8685384273837
 31
0.0
  0
ARC
  5
249
330
1F
100
AcDbEntity
  8
LAY-10
  6
CONTINUOUS
 62
     7
100
AcDbCircle
 10
465.000000000008
 20
599.9999999999901
 30
0.0
 40
65.68007154400004
100
AcDbArc
 50
335.5879487220396
 51
348.4120512779436
  0
ARC
  5
24A
330
1F
100
AcDbEntity
  8
LAY-10
  6
CONTINUOUS
 62
     7
100
AcDbCircle
 10
465.000000000008
 20
599.9999999999901
 30
0.0
 40
65.68007154400004
100
AcDbArc
 50
311.5879487220378
 51
324.412051277941
  0
ARC
  5
24B
330
1F
100
AcDbEntity
  8
LAY-10
  6
CONTINUOUS
 62
     7
100
AcDbCircle
 10
465.000000000008
 20
599.9999999999615
 30
0.0
 40
61.6183650964572
100
AcDbArc
 50
300.4120512779522
 51
311.5879487220539
  0
ARC
  5
24C
330
1F
100
AcDbEntity
  8
LAY-10
  6
CONTINUOUS
 62
     7
100
AcDbCircle
 10
465.000000000008
 20
599.9999999999615
 30
0.0
 40
61.6183650964572
100
AcDbArc
 50
324.4120512779619
 51
335.5879487220633
  0
ARC
  5
24D
330
1F
100
AcDbEntity
  8
LAY-10
  6
CONTINUOUS
 62
     7
100
AcDbCircle
 10
465.000000000008
 20
599.9999999999615
 30
0.0
 40
61.6183650964572
100
AcDbArc
 50
348.4120512779692
 51
359.5879487220682
  0
LINE
  5
24E
330
1F
100
AcDbEntity
  8
LAY-10
  6
CONTINUOUS
 62
     7
100
AcDbLine
 10
545.3803458564424
 20
589.9999999999902
 30
0.0
 11
525.8015042343675
 21
589.9999999999902
 31
0.0
  0
LINE
  5
24F
330
1F
100
AcDbEntity
  8
LAY-10
  6
CONTINUOUS
 62
     7
100
AcDbLine
 10
545.3803458564424
 20
609.9999999999901
 30
0.0
 11
529.9143420056461
 21
609.9999999999901
 31
0.0
  0
ARC
  5
250
330
1F
100
AcDbEntity
  8
LAY-10
  6
CONTINUOUS
 62
     7
100
AcDbCircle
 10
465.000000000008
 20
599.9999999999615
 30
0.0
 40
61.6183650964572
100
AcDbArc
 50
60.4120512779643
 51
71.58794872205715
  0
ARC
  5
251
330
1F
100
AcDbEntity
  8
LAY-10
  6
CONTINUOUS
 62
     7
100
AcDbCircle
 10
465.000000000008
 20
599.9999999999615
 30
0.0
 40
61.6183650964572
100
AcDbArc
 50
36.41205127797015
 51
47.58794872206482
  0
ARC
  5
252
330
1F
100
AcDbEntity
  8
LAY-10
  6
CONTINUOUS
 62
     7
100
AcDbCircle
 10
465.000000000008
 20
599.9999999999615
 30
0.0
 40
61.6183650964572
100
AcDbArc
 50
12.41205127797198
 51
23.58794872206889
  0
ARC
  5
253
330
1F
100
AcDbEntity
  8
LAY-10
  6
CONTINUOUS
 62
     7
100
AcDbCircle
 10
465.000000000008
 20
599.9999999999901
 30
0.0
 40
65.68007154400004
100
AcDbArc
 50
359.5879487220422
 51
12.41205127794574
  0
ARC
  5
254
330
1F
100
AcDbEntity
  8
LAY-10
  6
CONTINUOUS
 62
     7
100
AcDbCircle
 10
465.000000000008
 20
599.9999999999901
 30
0.0
 40
65.68007154400004
100
AcDbArc
 50
23.58794872204454
 51
36.41205127794878
  0
ARC
  5
255
330
1F
100
AcDbEntity
  8
LAY-10
  6
CONTINUOUS
 62
     7
100
AcDbCircle
 10
465.000000000008
 20
599.9999999999901
 30
0.0
 40
65.68007154400004
100
AcDbArc
 50
47.58794872204673
 51
60.41205127795119
  0
LINE
  5
256
330
1F
100
AcDbEntity
  8
LAY-10
  6
CONTINUOUS
 62
     7
100
AcDbLine
 10
495.879565398465
 20
600.777946959398
 30
0.0
 11
530.685564659055
 21
600.527630027582
 31
0.0
  0
ARC
  5
257
330
1F
100
AcDbEntity
  8
LAY-10
  6
CONTINUOUS
 62
     7
100
AcDbCircle
 10
495.8506510015266
 20
596.7574659190187
 30
0.0
 40
4.0205850119601
100
AcDbArc
 50
89.58794872204447
 51
258.4120512779483
  0
LINE
  5
258
330
1F
100
AcDbEntity
  8
LAY-10
  6
CONTINUOUS
 62
     7
100
AcDbLine
 10
529.3598779252673
 20
613.1406967649948
 30
0.0
 11
495.366517073913
 21
605.6592757018449
 31
0.0
  0
LINE
  5
259
330
1F
100
AcDbEntity
  8
LAY-10
  6
CONTINUOUS
 62
     7
100
AcDbLine
 10
492.8934671689847
 20
613.2705406808551
 30
0.0
 11
524.7921427607602
 21
627.1987400829751
 31
0.0
  0
ARC
  5
25A
330
1F
100
AcDbEntity
  8
LAY-10
  6
CONTINUOUS
 62
     7
100
AcDbCircle
 10
494.5023295149151
 20
609.5858879441314
 30
0.0
 40
4.0205850119601
100
AcDbArc
 50
113.5879487220496
 51
282.4120512779465
  0
LINE
  5
25B
330
1F
100
AcDbEntity
  8
LAY-10
  6
CONTINUOUS
 62
     7
100
AcDbLine
 10
529.1449371749966
 20
614.1173238554817
 30
0.0
 11
495.1515763236424
 21
606.6359027923319
 31
0.0
  0
LINE
  5
25C
330
1F
100
AcDbEntity
  8
LAY-10
  6
CONTINUOUS
 62
     7
100
AcDbLine
 10
525.1922990417851
 20
626.2822931664783
 30
0.0
 11
493.2936234500096
 21
612.3540937643585
 31
0.0
  0
ARC
  5
25D
330
1F
100
AcDbEntity
  8
LAY-10
  6
CONTINUOUS
 62
     7
100
AcDbCircle
 10
494.5023295149151
 20
609.5858879441314
 30
0.0
 40
3.0205850119601
100
AcDbArc
 50
113.5879487220494
 51
282.4120512779548
  0
LINE
  5
25E
330
1F
100
AcDbEntity
  8
LAY-10
  6
CONTINUOUS
 62
     7
100
AcDbLine
 10
518.4508712431856
 20
638.1821445360105
 30
0.0
 11
490.4393589360869
 21
617.5211808275142
 31
0.0
  0
LINE
  5
25F
330
1F
100
AcDbEntity
  8
LAY-10
  6
CONTINUOUS
 62
     7
100
AcDbLine
 10
485.0843350617931
 20
623.4685373595136
 30
0.0
 11
508.5601161845659
 21
649.1669408852234
 31
0.0
  0
ARC
  5
260
330
1F
100
AcDbEntity
  8
LAY-10
  6
CONTINUOUS
 62
     7
100
AcDbCircle
 10
488.0527872349252
 20
620.756822858644
 30
0.0
 40
4.0205850119601
100
AcDbArc
 50
137.5879487220499
 51
306.4120512779486
  0
LINE
  5
261
330
1F
100
AcDbEntity
  8
LAY-10
  6
CONTINUOUS
 62
     7
100
AcDbLine
 10
517.8572830727916
 20
638.9869134991103
 30
0.0
 11
489.8457707656933
 21
618.325949790614
 31
0.0
  0
LINE
  5
262
330
1F
100
AcDbEntity
  8
LAY-10
  6
CONTINUOUS
 62
     7
100
AcDbLine
 10
509.2984296798166
 20
648.4924831899367
 30
0.0
 11
485.8226485570439
 21
622.7940796642272
 31
0.0
  0
ARC
  5
263
330
1F
100
AcDbEntity
  8
LAY-10
  6
CONTINUOUS
 62
     7
100
AcDbCircle
 10
488.0527872349252
 20
620.756822858644
 30
0.0
 40
3.0205850119601
100
AcDbArc
 50
137.5879487220438
 51
306.4120512779499
  0
LINE
  5
264
330
1F
100
AcDbEntity
  8
LAY-10
  6
CONTINUOUS
 62
     7
100
AcDbLine
 10
498.2997233372356
 20
656.6215526428542
 30
0.0
 11
481.1135045288909
 21
626.3535146131732
 31
0.0
  0
LINE
  5
265
330
1F
100
AcDbEntity
  8
LAY-10
  6
CONTINUOUS
 62
     7
100
AcDbLine
 10
473.8024389619617
 20
629.6086107237417
 30
0.0
 11
484.796149788828
 21
662.6337309407794
 31
0.0
  0
ARC
  5
266
330
1F
100
AcDbEntity
  8
LAY-10
  6
CONTINUOUS
 62
     7
100
AcDbCircle
 10
477.6172086140194
 20
628.3387145310792
 30
0.0
 40
4.0205850119601
100
AcDbArc
 50
161.5879487220433
 51
330.4120512779501
  0
LINE
  5
267
330
1F
100
AcDbEntity
  8
LAY-10
  6
CONTINUOUS
 62
     7
100
AcDbLine
 10
497.4301245339591
 20
657.1153116137508
 30
0.0
 11
480.2439057256141
 21
626.8472735840693
 31
0.0
  0
LINE
  5
268
330
1F
100
AcDbEntity
  8
LAY-10
  6
CONTINUOUS
 62
     7
100
AcDbLine
 10
485.7449593876079
 20
662.3178823294742
 30
0.0
 11
474.7512485607416
 21
629.2927621124364
 31
0.0
  0
ARC
  5
269
330
1F
100
AcDbEntity
  8
LAY-10
  6
CONTINUOUS
 62
     7
100
AcDbCircle
 10
477.6172086140194
 20
628.3387145310792
 30
0.0
 40
3.0205850119601
100
AcDbArc
 50
161.5879487220434
 51
330.4120512779494
  0
ARC
  5
26A
330
1F
100
AcDbEntity
  8
LAY-10
  6
CONTINUOUS
 62
     7
100
AcDbCircle
 10
434.1493489984894
 20
596.7574659190187
 30
0.0
 40
3.0205850119601
100
AcDbArc
 50
281.5879487220445
 51
90.4120512779599
  0
LINE
  5
26B
330
1F
100
AcDbEntity
  8
LAY-10
  6
CONTINUOUS
 62
     7
100
AcDbLine
 10
399.3216269304564
 20
599.5276558873962
 30
0.0
 11
434.1276261910464
 21
599.7779728192119
 31
0.0
  0
LINE
  5
26C
330
1F
100
AcDbEntity
  8
LAY-10
  6
CONTINUOUS
 62
     7
100
AcDbLine
 10
400.6586510988312
 20
586.8067206653778
 30
0.0
 11
434.7560995832539
 21
593.7984479159701
 31
0.0
  0
LINE
  5
26D
330
1F
100
AcDbEntity
  8
LAY-10
  6
CONTINUOUS
 62
     7
100
AcDbLine
 10
400.8595229770806
 20
585.8271031438272
 30
0.0
 11
434.9569714615034
 21
592.8188303944196
 31
0.0
  0
ARC
  5
26E
330
1F
100
AcDbEntity
  8
LAY-10
  6
CONTINUOUS
 62
     7
100
AcDbCircle
 10
438.1353853394073
 20
584.4897074940034
 30
0.0
 40
3.0205850119601
100
AcDbArc
 50
305.587948722046
 51
114.4120512779577
  0
LINE
  5
26F
330
1F
100
AcDbEntity
  8
LAY-10
  6
CONTINUOUS
 62
     7
100
AcDbLine
 10
405.1919402756969
 20
572.8546911964933
 30
0.0
 11
436.8869897303687
 21
587.2402423906757
 31
0.0
  0
LINE
  5
270
330
1F
100
AcDbEntity
  8
LAY-10
  6
CONTINUOUS
 62
     7
100
AcDbLine
 10
411.5874431204623
 20
561.7773553294084
 30
0.0
 11
439.893220629402
 21
582.033297734267
 31
0.0
  0
ARC
  5
271
330
1F
100
AcDbEntity
  8
LAY-10
  6
CONTINUOUS
 62
     7
100
AcDbCircle
 10
438.1353853394073
 20
584.4897074940034
 30
0.0
 40
4.0205850119601
100
AcDbArc
 50
305.5879487220479
 51
114.4120512779546
  0
LINE
  5
272
330
1F
100
AcDbEntity
  8
LAY-10
  6
CONTINUOUS
 62
     7
100
AcDbLine
 10
436.4736937615101
 20
588.1508391412328
 30
0.0
 11
404.7786443068383
 21
573.7652879470503
 31
0.0
  0
LINE
  5
273
330
1F
100
AcDbEntity
  8
LAY-10
  6
CONTINUOUS
 62
     7
100
AcDbLine
 10
412.1693950546189
 20
560.9641321458164
 30
0.0
 11
440.4751725635585
 21
581.2200745506753
 31
0.0
  0
ARC
  5
274
330
1F
100
AcDbEntity
  8
LAY-10
  6
CONTINUOUS
 62
     7
100
AcDbCircle
 10
446.7665576125067
 20
574.9038195498572
 30
0.0
 40
3.0205850119601
100
AcDbArc
 50
329.5879487220471
 51
138.4120512779566
  0
LINE
  5
275
330
1F
100
AcDbEntity
  8
LAY-10
  6
CONTINUOUS
 62
     7
100
AcDbLine
 10
421.403610486437
 20
550.8753970051035
 30
0.0
 11
444.5073481439935
 21
576.9087899715488
 31
0.0
  0
LINE
  5
276
330
1F
100
AcDbEntity
  8
LAY-10
  6
CONTINUOUS
 62
     7
100
AcDbLine
 10
431.751751464414
 20
543.3570324988084
 30
0.0
 11
449.3715319166589
 21
573.3747535966737
 31
0.0
  0
ARC
  5
277
330
1F
100
AcDbEntity
  8
LAY-10
  6
CONTINUOUS
 62
     7
100
AcDbCircle
 10
446.7665576125067
 20
574.9038195498572
 30
0.0
 40
4.0205850119601
100
AcDbArc
 50
329.5879487220517
 51
138.4120512779493
  0
LINE
  5
278
330
1F
100
AcDbEntity
  8
LAY-10
  6
CONTINUOUS
 62
     7
100
AcDbLine
 10
443.759410423463
 20
577.5725588817937
 30
0.0
 11
420.655672765907
 21
551.5391659153485
 31
0.0
  0
LINE
  5
279
330
1F
100
AcDbEntity
  8
LAY-10
  6
CONTINUOUS
 62
     7
100
AcDbLine
 10
432.6141586781949
 20
542.8508173295187
 30
0.0
 11
450.2339391304397
 21
572.8685384273837
 31
0.0
  0
LINE
  5
27A
330
1F
100
AcDbEntity
  8
LAY-10
  6
CONTINUOUS
 62
     7
100
AcDbLine
 10
445.1534925048402
 20
537.3901929545374
 30
0.0
 11
455.6710722334218
 21
570.5700175433964
 31
0.0
  0
LINE
  5
27B
330
1F
100
AcDbEntity
  8
LAY-10
  6
CONTINUOUS
 62
     7
100
AcDbLine
 10
454.7178179879009
 20
570.8721869385973
 30
0.0
 11
444.200238259319
 21
537.6923623497379
 31
0.0
  0
ARC
  5
27C
330
1F
100
AcDbEntity
  8
LAY-10
  6
CONTINUOUS
 62
     7
100
AcDbCircle
 10
465.000000000008
 20
599.9999999999901
 30
0.0
 40
65.68007154400004
100
AcDbArc
 50
191.5879487220567
 51
204.4120512779608
  0
ARC
  5
27D
330
1F
100
AcDbEntity
  8
LAY-10
  6
CONTINUOUS
 62
     7
100
AcDbCircle
 10
465.000000000008
 20
599.9999999999901
 30
0.0
 40
65.68007154400004
100
AcDbArc
 50
215.5879487220595
 51
228.412051277963
  0
ARC
  5
27E
330
1F
100
AcDbEntity
  8
LAY-10
  6
CONTINUOUS
 62
     7
100
AcDbCircle
 10
465.000000000008
 20
599.9999999999901
 30
0.0
 40
65.68007154400004
100
AcDbArc
 50
239.5879487220611
 51
252.4120512779644
  0
ARC
  5
27F
330
1F
100
AcDbEntity
  8
LAY-10
  6
CONTINUOUS
 62
     7
100
AcDbCircle
 10
465.000000000008
 20
599.9999999999615
 30
0.0
 40
61.6183650964572
100
AcDbArc
 50
228.4120512779463
 51
239.5879487220478
  0
ARC
  5
280
330
1F
100
AcDbEntity
  8
LAY-10
  6
CONTINUOUS
 62
     7
100
AcDbCircle
 10
465.000000000008
 20
599.9999999999615
 30
0.0
 40
61.6183650964572
100
AcDbArc
 50
204.4120512779372
 51
215.587948722038
  0
ARC
  5
281
330
1F
100
AcDbEntity
  8
LAY-10
  6
CONTINUOUS
 62
     7
100
AcDbCircle
 10
465.000000000008
 20
599.9999999999615
 30
0.0
 40
61.6183650964572
100
AcDbArc
 50
180.4120512779319
 51
191.5879487220315
  0
LINE
  5
282
330
1F
100
AcDbEntity
  8
LAY-10
  6
CONTINUOUS
 62
     7
100
AcDbLine
 10
384.6196541435737
 20
589.9999999999902
 30
0.0
 11
404.1984957656485
 21
589.9999999999902
 31
0.0
  0
LINE
  5
283
330
1F
100
AcDbEntity
  8
LAY-10
  6
CONTINUOUS
 62
     7
100
AcDbLine
 10
384.6196541435737
 20
609.9999999999901
 30
0.0
 11
400.08565799437
 21
609.9999999999901
 31
0.0
  0
ARC
  5
284
330
1F
100
AcDbEntity
  8
LAY-10
  6
CONTINUOUS
 62
     7
100
AcDbCircle
 10
465.000000000008
 20
599.9999999999615
 30
0.0
 40
61.6183650964572
100
AcDbArc
 50
108.4120512779431
 51
119.5879487220361
  0
ARC
  5
285
330
1F
100
AcDbEntity
  8
LAY-10
  6
CONTINUOUS
 62
     7
100
AcDbCircle
 10
465.000000000008
 20
599.9999999999615
 30
0.0
 40
61.6183650964572
100
AcDbArc
 50
132.4120512779355
 51
143.58794872203
  0
ARC
  5
286
330
1F
100
AcDbEntity
  8
LAY-10
  6
CONTINUOUS
 62
     7
100
AcDbCircle
 10
465.000000000008
 20
599.9999999999615
 30
0.0
 40
61.6183650964572
100
AcDbArc
 50
156.4120512779309
 51
167.5879487220283
  0
ARC
  5
287
330
1F
100
AcDbEntity
  8
LAY-10
  6
CONTINUOUS
 62
     7
100
AcDbCircle
 10
465.000000000008
 20
599.9999999999901
 30
0.0
 40
65.68007154400004
100
AcDbArc
 50
167.5879487220541
 51
180.412051277958
  0
ARC
  5
288
330
1F
100
AcDbEntity
  8
LAY-10
  6
CONTINUOUS
 62
     7
100
AcDbCircle
 10
465.000000000008
 20
599.9999999999901
 30
0.0
 40
65.68007154400004
100
AcDbArc
 50
143.5879487220517
 51
156.4120512779556
  0
ARC
  5
289
330
1F
100
AcDbEntity
  8
LAY-10
  6
CONTINUOUS
 62
     7
100
AcDbCircle
 10
465.000000000008
 20
599.9999999999901
 30
0.0
 40
65.68007154400004
100
AcDbArc
 50
119.5879487220492
 51
132.4120512779535
  0
ARC
  5
28A
330
1F
100
AcDbEntity
  8
LAY-10
  6
CONTINUOUS
 62
     7
100
AcDbCircle
 10
465.000000000008
 20
599.9999999999901
 30
0.0
 40
65.68007154400004
100
AcDbArc
 50
95.58794872204889
 51
108.4120512779515
  0
LINE
  5
28B
330
1F
100
AcDbEntity
  8
LAY-10
  6
CONTINUOUS
 62
     7
100
AcDbLine
 10
434.1204346015509
 20
600.777946959398
 30
0.0
 11
399.314435340961
 21
600.527630027582
 31
0.0
  0
ARC
  5
28C
330
1F
100
AcDbEntity
  8
LAY-10
  6
CONTINUOUS
 62
     7
100
AcDbCircle
 10
434.1493489984894
 20
596.7574659190187
 30
0.0
 40
4.0205850119601
100
AcDbArc
 50
281.5879487220517
 51
90.41205127795554
  0
LINE
  5
28D
330
1F
100
AcDbEntity
  8
LAY-10
  6
CONTINUOUS
 62
     7
100
AcDbLine
 10
400.6401220747487
 20
613.1406967649948
 30
0.0
 11
434.633482926103
 21
605.6592757018449
 31
0.0
  0
LINE
  5
28E
330
1F
100
AcDbEntity
  8
LAY-10
  6
CONTINUOUS
 62
     7
100
AcDbLine
 10
437.1065328310313
 20
613.2705406808551
 30
0.0
 11
405.2078572392559
 21
627.1987400829751
 31
0.0
  0
ARC
  5
28F
330
1F
100
AcDbEntity
  8
LAY-10
  6
CONTINUOUS
 62
     7
100
AcDbCircle
 10
435.4976704851009
 20
609.5858879441314
 30
0.0
 40
4.0205850119601
100
AcDbArc
 50
257.5879487220535
 51
66.41205127795045
  0
LINE
  5
290
330
1F
100
AcDbEntity
  8
LAY-10
  6
CONTINUOUS
 62
     7
100
AcDbLine
 10
400.8550628250194
 20
614.1173238554817
 30
0.0
 11
434.8484236763737
 21
606.6359027923319
 31
0.0
  0
LINE
  5
291
330
1F
100
AcDbEntity
  8
LAY-10
  6
CONTINUOUS
 62
     7
100
AcDbLine
 10
404.807700958231
 20
626.2822931664783
 30
0.0
 11
436.7063765500064
 21
612.3540937643585
 31
0.0
  0
ARC
  5
292
330
1F
100
AcDbEntity
  8
LAY-10
  6
CONTINUOUS
 62
     7
100
AcDbCircle
 10
435.4976704851009
 20
609.5858879441314
 30
0.0
 40
3.0205850119601
100
AcDbArc
 50
257.5879487220452
 51
66.41205127795061
  0
LINE
  5
293
330
1F
100
AcDbEntity
  8
LAY-10
  6
CONTINUOUS
 62
     7
100
AcDbLine
 10
411.5491287568305
 20
638.1821445360105
 30
0.0
 11
439.5606410639291
 21
617.5211808275142
 31
0.0
  0
LINE
  5
294
330
1F
100
AcDbEntity
  8
LAY-10
  6
CONTINUOUS
 62
     7
100
AcDbLine
 10
444.9156649382229
 20
623.4685373595136
 30
0.0
 11
421.4398838154501
 21
649.1669408852234
 31
0.0
  0
ARC
  5
295
330
1F
100
AcDbEntity
  8
LAY-10
  6
CONTINUOUS
 62
     7
100
AcDbCircle
 10
441.9472127650909
 20
620.756822858644
 30
0.0
 40
4.0205850119601
100
AcDbArc
 50
233.5879487220518
 51
42.41205127795068
  0
LINE
  5
296
330
1F
100
AcDbEntity
  8
LAY-10
  6
CONTINUOUS
 62
     7
100
AcDbLine
 10
412.1427169272245
 20
638.9869134991103
 30
0.0
 11
440.1542292343227
 21
618.325949790614
 31
0.0
  0
LINE
  5
297
330
1F
100
AcDbEntity
  8
LAY-10
  6
CONTINUOUS
 62
     7
100
AcDbLine
 10
420.7015703201994
 20
648.4924831899367
 30
0.0
 11
444.1773514429722
 21
622.7940796642272
 31
0.0
  0
ARC
  5
298
330
1F
100
AcDbEntity
  8
LAY-10
  6
CONTINUOUS
 62
     7
100
AcDbCircle
 10
441.9472127650909
 20
620.756822858644
 30
0.0
 40
3.0205850119601
100
AcDbArc
 50
233.5879487220511
 51
42.41205127795325
  0
LINE
  5
299
330
1F
100
AcDbEntity
  8
LAY-10
  6
CONTINUOUS
 62
     7
100
AcDbLine
 10
431.7002766627804
 20
656.6215526428542
 30
0.0
 11
448.8864954711251
 21
626.3535146131732
 31
0.0
  0
LINE
  5
29A
330
1F
100
AcDbEntity
  8
LAY-10
  6
CONTINUOUS
 62
     7
100
AcDbLine
 10
456.1975610380543
 20
629.6086107237417
 30
0.0
 11
445.203850211188
 21
662.6337309407794
 31
0.0
  0
ARC
  5
29B
330
1F
100
AcDbEntity
  8
LAY-10
  6
CONTINUOUS
 62
     7
100
AcDbCircle
 10
452.3827913859966
 20
628.3387145310792
 30
0.0
 40
4.0205850119601
100
AcDbArc
 50
209.5879487220496
 51
18.41205127795521
  0
LINE
  5
29C
330
1F
100
AcDbEntity
  8
LAY-10
  6
CONTINUOUS
 62
     7
100
AcDbLine
 10
432.5698754660569
 20
657.1153116137508
 30
0.0
 11
449.756094274402
 21
626.8472735840693
 31
0.0
  0
LINE
  5
29D
330
1F
100
AcDbEntity
  8
LAY-10
  6
CONTINUOUS
 62
     7
100
AcDbLine
 10
444.2550406124081
 20
662.3178823294742
 30
0.0
 11
455.2487514392744
 21
629.2927621124364
 31
0.0
  0
ARC
  5
29E
330
1F
100
AcDbEntity
  8
LAY-10
  6
CONTINUOUS
 62
     7
100
AcDbCircle
 10
452.3827913859966
 20
628.3387145310792
 30
0.0
 40
3.0205850119601
100
AcDbArc
 50
209.5879487220502
 51
18.41205127795664
  0
LINE
  5
29F
330
1F
100
AcDbEntity
  8
LAY-10
  6
CONTINUOUS
 62
     7
100
AcDbLine
 10
457.6092492522273
 20
665.2705799070902
 30
0.0
 11
460.9985211979596
 21
630.6290863080492
 31
0.0
  0
ARC
  5
2A0
330
1F
100
AcDbEntity
  8
LAY-10
  6
CONTINUOUS
 62
     7
100
AcDbCircle
 10
465.000000000008
 20
631.0205850119503
 30
0.0
 40
4.0205850119601
100
AcDbArc
 50
185.587948722056
 51
354.4120512779521
  0
ARC
  5
2A1
330
1F
100
AcDbEntity
  8
LAY-10
  6
CONTINUOUS
 62
     7
100
AcDbCircle
 10
465.000000000008
 20
631.0205850119503
 30
0.0
 40
3.0205850119601
100
AcDbArc
 50
185.5879487220533
 51
354.4120512779467
  0
LINE
  5
2A2
330
1F
100
AcDbEntity
  8
LAY-10
  6
CONTINUOUS
 62
     7
100
AcDbLine
 10
458.6044971552427
 20
665.3679534740556
 30
0.0
 11
461.9937691009753
 21
630.726459875014
 31
0.0
  0
ARC
  5
2A3
330
1F
100
AcDbEntity
  8
LAY-10
  6
CONTINUOUS
 62
     7
100
AcDbCircle
 10
465.000000000008
 20
599.9999999999901
 30
0.0
 40
81.0
100
AcDbArc
 50
2.83057247027534
 51
177.1694275297247
  0
ARC
  5
2A4
330
1F
100
AcDbEntity
  8
LAY-10
  6
CONTINUOUS
 62
     7
100
AcDbCircle
 10
465.000000000008
 20
599.9999999999901
 30
0.0
 40
81.0
100
AcDbArc
 50
182.8305724702753
 51
357.169427529725
  0
LINE
  5
2A5
330
1F
100
AcDbEntity
  8
LAY-10
  6
CONTINUOUS
 62
     7
100
AcDbLine
 10
384.2225278929909
 20
605.9999999999953
 30
0.0
 11
381.6349010348958
 21
605.9999999999953
 31
0.0
  0
LINE
  5
2A6
330
1F
100
AcDbEntity
  8
LAY-10
  6
CONTINUOUS
 62
     7
100
AcDbLine
 10
382.2231707939631
 20
606.6077535752908
 30
0.0
 11
384.2699709359225
 21
606.6077535752908
 31
0.0
  0
LINE
  5
2A7
330
1F
100
AcDbEntity
  8
LAY-10
  6
CONTINUOUS
 62
     7
100
AcDbLine
 10
384.2225278929901
 20
593.9999999999953
 30
0.0
 11
381.6349010348958
 21
593.9999999999953
 31
0.0
  0
LINE
  5
2A8
330
1F
100
AcDbEntity
  8
LAY-10
  6
CONTINUOUS
 62
     7
100
AcDbLine
 10
382.2231707939624
 20
593.3922464247064
 30
0.0
 11
384.269970935921
 21
593.3922464247064
 31
0.0
  0
LINE
  5
2A9
330
1F
100
AcDbEntity
  8
LAY-10
  6
CONTINUOUS
 62
     7
100
AcDbLine
 10
545.777472107026
 20
593.9999999999953
 30
0.0
 11
548.3650989651023
 21
593.9999999999953
 31
0.0
  0
LINE
  5
2AA
330
1F
100
AcDbEntity
  8
LAY-10
  6
CONTINUOUS
 62
     7
100
AcDbLine
 10
547.7768292060356
 20
593.3922464247064
 30
0.0
 11
545.730029064095
 21
593.3922464247064
 31
0.0
  0
LINE
  5
2AB
330
1F
100
AcDbEntity
  8
LAY-10
  6
CONTINUOUS
 62
     7
100
AcDbLine
 10
545.7774721070252
 20
605.9999999999953
 30
0.0
 11
548.3650989651023
 21
605.9999999999953
 31
0.0
  0
LINE
  5
2AC
330
1F
100
AcDbEntity
  8
LAY-10
  6
CONTINUOUS
 62
     7
100
AcDbLine
 10
547.7768292060349
 20
606.6077535752908
 30
0.0
 11
545.7300290640936
 21
606.6077535752908
 31
0.0
  0
LINE
  5
2AD
330
1F
100
AcDbEntity
  8
LAY-10
  6
CONTINUOUS
 62
     7
100
AcDbLine
 10
469.6077535752945
 20
680.8688358206537
 30
0.0
 11
469.6077535752945
 21
682.9122094007007
 31
0.0
  0
LINE
  5
2AE
330
1F
100
AcDbEntity
  8
LAY-10
  6
CONTINUOUS
 62
     7
100
AcDbLine
 10
468.9999999999993
 20
683.4849670627029
 30
0.0
 11
468.9999999999993
 21
680.9011742807141
 31
0.0
  0
LINE
  5
2AF
330
1F
100
AcDbEntity
  8
LAY-10
  6
CONTINUOUS
 62
     7
100
AcDbLine
 10
460.9999999999992
 20
683.4849670627029
 30
0.0
 11
460.9999999999992
 21
680.9011742807132
 31
0.0
  0
LINE
  5
2B0
330
1F
100
AcDbEntity
  8
LAY-10
  6
CONTINUOUS
 62
     7
100
AcDbLine
 10
460.3922464247036
 20
680.8688358206526
 30
0.0
 11
460.3922464247036
 21
682.9122094007007
 31
0.0
  0
LINE
  5
2B1
330
1F
100
AcDbEntity
  8
LAY-10
  6
CONTINUOUS
 62
     7
100
AcDbLine
 10
469.6077535752945
 20
519.1311641793266
 30
0.0
 11
469.6077535752945
 21
517.0877905992795
 31
0.0
  0
LINE
  5
2B2
330
1F
100
AcDbEntity
  8
LAY-10
  6
CONTINUOUS
 62
     7
100
AcDbLine
 10
468.9999999999993
 20
516.5150329372772
 30
0.0
 11
468.9999999999993
 21
519.0988257192661
 31
0.0
  0
LINE
  5
2B3
330
1F
100
AcDbEntity
  8
LAY-10
  6
CONTINUOUS
 62
     7
100
AcDbLine
 10
460.9999999999992
 20
516.5150329372772
 30
0.0
 11
460.9999999999992
 21
519.098825719267
 31
0.0
  0
LINE
  5
2B4
330
1F
100
AcDbEntity
  8
LAY-10
  6
CONTINUOUS
 62
     7
100
AcDbLine
 10
460.3922464247036
 20
519.1311641793276
 30
0.0
 11
460.3922464247036
 21
517.0877905992795
 31
0.0
  0
LINE
  5
2B5
330
1F
100
AcDbEntity
  8
LAY-10
  6
CONTINUOUS
 62
     7
100
AcDbLine
 10
364.0406101782072
 20
240.9999999999852
 30
0.0
 11
364.1872389158943
 21
242.0264011637946
 31
0.0
  0
ARC
  5
2B6
330
1F
100
AcDbEntity
  8
LAY-10
  6
CONTINUOUS
 62
     7
100
AcDbCircle
 10
366.1671379032168
 20
241.7435584513201
 30
0.0
 40
2.0
100
AcDbArc
 50
74.9999999999973
 51
171.8698976458463
  0
LINE
  5
2B7
330
1F
100
AcDbEntity
  8
LAY-10
  6
CONTINUOUS
 62
     7
100
AcDbLine
 10
569.9999999999999
 20
240.9999999999852
 30
0.0
 11
565.9593898217948
 21
240.9999999999852
 31
0.0
  0
LINE
  5
2B8
330
1F
100
AcDbEntity
  8
LAY-10
  6
CONTINUOUS
 62
     7
100
AcDbLine
 10
565.382904249681
 20
229.9999999999851
 30
0.0
 11
565.9593898217948
 21
240.9999999999852
 31
0.0
  0
LINE
  5
2B9
330
1F
100
AcDbEntity
  8
LAY-10
  6
CONTINUOUS
 62
     7
100
AcDbLine
 10
406.3285981760037
 20
216.9999999999867
 30
0.0
 11
523.6714018239959
 21
216.9999999999867
 31
0.0
  0
LINE
  5
2BA
330
1F
100
AcDbEntity
  8
LAY-10
  6
CONTINUOUS
 62
     7
100
AcDbLine
 10
402.5000000000009
 20
194.9999999999863
 30
0.0
 11
527.4999999999987
 21
194.9999999999863
 31
0.0
  0
LINE
  5
2BB
330
1F
100
AcDbEntity
  8
LAY-10
  6
CONTINUOUS
 62
     7
100
AcDbLine
 10
401.0464477882018
 20
222.1329746202166
 30
0.0
 11
402.5000000000009
 21
194.9999999999863
 31
0.0
  0
LINE
  5
2BC
330
1F
100
AcDbEntity
  8
LAY-10
  6
CONTINUOUS
 62
     7
100
AcDbLine
 10
383.396038920961
 20
224.5401470275374
 30
0.0
 11
400.1350353986795
 21
223.0756745969367
 31
0.0
  0
ARC
  5
2BD
330
1F
100
AcDbEntity
  8
LAY-10
  6
CONTINUOUS
 62
     7
100
AcDbCircle
 10
383.9189733774469
 20
230.5173152160879
 30
0.0
 40
6.000000000000004
100
AcDbArc
 50
183.0000000000007
 51
265.0000000000003
  0
ARC
  5
2BE
330
1F
100
AcDbEntity
  8
LAY-10
  6
CONTINUOUS
 62
     7
100
AcDbCircle
 10
400.0478796559318
 20
222.079479898845
 30
0.0
 40
1.0
100
AcDbArc
 50
3.06648550112709
 51
84.99999999999675
  0
LINE
  5
2BF
330
1F
100
AcDbEntity
  8
LAY-10
  6
CONTINUOUS
 62
     7
100
AcDbLine
 10
528.953552211798
 20
222.1329746202166
 30
0.0
 11
527.4999999999987
 21
194.9999999999863
 31
0.0
  0
LINE
  5
2C0
330
1F
100
AcDbEntity
  8
LAY-10
  6
CONTINUOUS
 62
     7
100
AcDbLine
 10
546.6039610790385
 20
224.5401470275374
 30
0.0
 11
540.365978839338
 21
223.9943942982876
 31
0.0
  0
ARC
  5
2C1
330
1F
100
AcDbEntity
  8
LAY-10
  6
CONTINUOUS
 62
     7
100
AcDbCircle
 10
529.952120344068
 20
222.079479898845
 30
0.0
 40
1.0
100
AcDbArc
 50
95.00000000000654
 51
176.9335144988727
  0
LINE
  5
2C2
330
1F
100
AcDbEntity
  8
LAY-10
  6
CONTINUOUS
 62
     7
100
AcDbLine
 10
536.7932143050991
 20
216.9999999999699
 30
0.0
 11
538.1884453486288
 21
216.9999999999699
 31
0.0
  0
LINE
  5
2C3
330
1F
100
AcDbEntity
  8
LAY-10
  6
CONTINUOUS
 62
     7
100
AcDbLine
 10
535.7945847703446
 20
217.947664043727
 30
0.0
 11
535.554195469186
 21
222.5345651574031
 31
0.0
  0
LINE
  5
2C4
330
1F
100
AcDbEntity
  8
LAY-10
  6
CONTINUOUS
 62
     7
100
AcDbLine
 10
539.1870748833833
 20
217.947664043727
 30
0.0
 11
539.4545050473312
 21
223.0505355564388
 31
0.0
  0
LINE
  5
2C5
330
1F
100
AcDbEntity
  8
LAY-10
  6
CONTINUOUS
 62
     7
100
AcDbLine
 10
534.4684101916837
 20
223.4784238992519
 30
0.0
 11
529.8649646013203
 21
223.0756745969367
 31
0.0
  0
ARC
  5
2C6
330
1F
100
AcDbEntity
  8
LAY-10
  6
CONTINUOUS
 62
     7
100
AcDbCircle
 10
540.4531345820858
 20
222.9981996001959
 30
0.0
 40
1.0
100
AcDbArc
 50
95.00000000000654
 51
177.0000000000028
  0
ARC
  5
2C7
330
1F
100
AcDbEntity
  8
LAY-10
  6
CONTINUOUS
 62
     7
100
AcDbCircle
 10
534.5555659344313
 20
222.4822292011602
 30
0.0
 40
1.0
100
AcDbArc
 50
2.999999999997314
 51
95.00000000000006
  0
ARC
  5
2C8
330
1F
100
AcDbEntity
  8
LAY-10
  6
CONTINUOUS
 62
     7
100
AcDbCircle
 10
536.7932143050991
 20
217.99999999997
 30
0.0
 40
1.0
100
AcDbArc
 50
183.0000000000026
 51
270.0
  0
ARC
  5
2C9
330
1F
100
AcDbEntity
  8
LAY-10
  6
CONTINUOUS
 62
     7
100
AcDbCircle
 10
538.1884453486288
 20
217.99999999997
 30
0.0
 40
1.0
100
AcDbArc
 50
270.0
 51
356.9999999999976
  0
LINE
  5
2CA
330
1F
100
AcDbEntity
  8
LAY-10
  6
CONTINUOUS
 62
     7
100
AcDbLine
 10
377.4472670379872
 20
239.360892826376
 30
0.0
 11
377.9271961689195
 21
230.2032994786302
 31
0.0
  0
LINE
  5
2CB
330
1F
100
AcDbEntity
  8
LAY-10
  6
CONTINUOUS
 62
     7
100
AcDbLine
 10
366.6847759934219
 20
243.6754101038982
 30
0.0
 11
375.9676460586831
 21
241.1880725664682
 31
0.0
  0
ARC
  5
2CC
330
1F
100
AcDbEntity
  8
LAY-10
  6
CONTINUOUS
 62
     7
100
AcDbCircle
 10
375.450007968478
 20
239.2562209138901
 30
0.0
 40
2.0
100
AcDbArc
 50
2.999999999999892
 51
74.99999999999885
  0
LINE
  5
2CD
330
1F
100
AcDbEntity
  8
LAY-10
  6
CONTINUOUS
 62
     7
100
AcDbLine
 10
359.9999999999999
 20
240.9999999999852
 30
0.0
 11
376.4294131445402
 21
240.9999999999852
 31
0.0
  0
LINE
  5
2CE
330
1F
100
AcDbEntity
  8
LAY-10
  6
CONTINUOUS
 62
     7
100
AcDbLine
 10
401.4898080059592
 20
226.9724267023178
 30
0.0
 11
394.6513914541003
 21
227.5707106270735
 31
0.0
  0
LINE
  5
2CF
330
1F
100
AcDbEntity
  8
LAY-10
  6
CONTINUOUS
 62
     7
100
AcDbLine
 10
528.5101919940404
 20
226.9724267023178
 30
0.0
 11
537.3578209587498
 21
227.7464939358135
 31
0.0
  0
ARC
  5
2D0
330
1F
100
AcDbEntity
  8
LAY-10
  6
CONTINUOUS
 62
     7
100
AcDbCircle
 10
464.9999999999999
 20
254.2370090256976
 30
0.0
 40
26.49051508988763
100
AcDbArc
 50
259.9541730408058
 51
270.0
  0
ARC
  5
2D1
330
1F
100
AcDbEntity
  8
LAY-10
  6
CONTINUOUS
 62
     7
100
AcDbCircle
 10
464.9999999999999
 20
265.5267618947803
 30
0.0
 40
37.95605126771034
100
AcDbArc
 50
270.0
 51
280.0458269591845
  0
LINE
  5
2D2
330
1F
100
AcDbEntity
  8
LAY-10
  6
CONTINUOUS
 62
     7
100
AcDbLine
 10
471.5934419789971
 20
228.6764524825
 30
0.0
 11
537.4065580210065
 21
228.6764524825
 31
0.0
  0
LINE
  5
2D3
330
1F
100
AcDbEntity
  8
LAY-10
  6
CONTINUOUS
 62
     7
100
AcDbLine
 10
394.5934419790003
 20
228.6764524825
 30
0.0
 11
460.4065580210025
 21
228.6764524825
 31
0.0
  0
LINE
  5
2D4
330
1F
100
AcDbEntity
  8
LAY-10
  6
CONTINUOUS
 62
     7
100
AcDbLine
 10
523.9531300464282
 20
222.2589268187173
 30
0.0
 11
523.6714018239959
 21
216.9999999999867
 31
0.0
  0
ARC
  5
2D5
330
1F
100
AcDbEntity
  8
LAY-10
  6
CONTINUOUS
 62
     7
100
AcDbCircle
 10
528.9459707077785
 20
221.991453211859
 30
0.0
 40
5.0
100
AcDbArc
 50
94.99999999999852
 51
176.9335144988718
  0
ARC
  5
2D6
330
1F
100
AcDbEntity
  8
LAY-10
  6
CONTINUOUS
 62
     7
100
AcDbCircle
 10
401.054029292221
 20
221.991453211859
 30
0.0
 40
5.0
100
AcDbArc
 50
3.066485501128236
 51
85.00000000000085
  0
LINE
  5
2D7
330
1F
100
AcDbEntity
  8
LAY-10
  6
CONTINUOUS
 62
     7
100
AcDbLine
 10
406.0468699535713
 20
222.25892681872
 30
0.0
 11
406.3285981760037
 21
216.9999999999867
 31
0.0
  0
LINE
  5
2D8
330
1F
100
AcDbEntity
  8
LAY-10
  6
CONTINUOUS
 62
     7
100
AcDbLine
 10
405.814631012566
 20
226.5940537174835
 30
0.0
 11
524.1853689874338
 21
226.5940537174835
 31
0.0
  0
LINE
  5
2D9
330
1F
100
AcDbEntity
  8
LAY-10
  6
CONTINUOUS
 62
     7
100
AcDbLine
 10
552.0586837695618
 20
229.9999999999851
 30
0.0
 11
565.382904249681
 21
229.9999999999851
 31
0.0
  0
ARC
  5
2DA
330
1F
100
AcDbEntity
  8
LAY-10
  6
CONTINUOUS
 62
     7
100
AcDbCircle
 10
546.0810266225526
 20
230.5173152160879
 30
0.0
 40
6.000000000000004
100
AcDbArc
 50
274.9999999999998
 51
355.0538625576781
  0
LINE
  5
2DB
330
1F
100
AcDbEntity
  8
LAY-10
  6
CONTINUOUS
 62
     7
100
AcDbLine
 10
530.5000000000001
 20
223.13123299526
 30
0.0
 11
534.9999999999991
 21
223.13123299526
 31
0.0
  0
LINE
  5
2DC
330
1F
100
AcDbEntity
  8
LAY-10
  6
CONTINUOUS
 62
     7
100
AcDbLine
 10
534.9999999999991
 20
223.13123299526
 30
0.0
 11
534.9999999999991
 21
187.9999999999852
 31
0.0
  0
LINE
  5
2DD
330
1F
100
AcDbEntity
  8
LAY-10
  6
CONTINUOUS
 62
     7
100
AcDbLine
 10
530.4999999999991
 20
187.9999999999852
 30
0.0
 11
530.4999999999991
 21
223.13123299526
 31
0.0
  0
LINE
  5
2DE
330
1F
100
AcDbEntity
  8
LAY-10
  6
CONTINUOUS
 62
     7
100
AcDbLine
 10
399.4999999999991
 20
223.13123299526
 30
0.0
 11
394.9999999999991
 21
223.13123299526
 31
0.0
  0
LINE
  5
2DF
330
1F
100
AcDbEntity
  8
LAY-10
  6
CONTINUOUS
 62
     7
100
AcDbLine
 10
399.4999999999991
 20
187.9999999999852
 30
0.0
 11
399.4999999999991
 21
223.13123299526
 31
0.0
  0
LINE
  5
2E0
330
1F
100
AcDbEntity
  8
LAY-10
  6
CONTINUOUS
 62
     7
100
AcDbLine
 10
394.9999999999991
 20
223.13123299526
 30
0.0
 11
394.9999999999991
 21
187.9999999999852
 31
0.0
  0
LINE
  5
2E1
330
1F
100
AcDbEntity
  8
LAY-10
  6
CONTINUOUS
 62
     7
100
AcDbLine
 10
394.999999999999
 20
187.99999999999
 30
0.0
 11
535.0000000000001
 21
187.99999999999
 31
0.0
  0
LINE
  5
2E2
330
1F
100
AcDbEntity
  8
LAY-10
  6
CONTINUOUS
 62
     7
100
AcDbLine
 10
395.0000000000009
 20
221.9411254969462
 30
0.0
 11
396.1901074983128
 21
223.1312329952581
 31
0.0
  0
LINE
  5
2E3
330
1F
100
AcDbEntity
  8
LAY-10
  6
CONTINUOUS
 62
     7
100
AcDbLine
 10
394.9999999999984
 20
219.1126983721975
 30
0.0
 11
399.0185346230577
 21
223.1312329952568
 31
0.0
  0
LINE
  5
2E4
330
1F
100
AcDbEntity
  8
LAY-10
  6
CONTINUOUS
 62
     7
100
AcDbLine
 10
394.9999999999997
 20
216.2842712474526
 30
0.0
 11
399.5000000000004
 21
220.7842712474533
 31
0.0
  0
LINE
  5
2E5
330
1F
100
AcDbEntity
  8
LAY-10
  6
CONTINUOUS
 62
     7
100
AcDbLine
 10
394.9999999999971
 20
213.4558441227038
 30
0.0
 11
399.4999999999978
 21
217.9558441227045
 31
0.0
  0
LINE
  5
2E6
330
1F
100
AcDbEntity
  8
LAY-10
  6
CONTINUOUS
 62
     7
100
AcDbLine
 10
394.9999999999984
 20
210.6274169979589
 30
0.0
 11
399.4999999999991
 21
215.1274169979596
 31
0.0
  0
LINE
  5
2E7
330
1F
100
AcDbEntity
  8
LAY-10
  6
CONTINUOUS
 62
     7
100
AcDbLine
 10
395.0000000000035
 20
207.7989898732178
 30
0.0
 11
399.4999999999927
 21
212.298989873207
 31
0.0
  0
LINE
  5
2E8
330
1F
100
AcDbEntity
  8
LAY-10
  6
CONTINUOUS
 62
     7
100
AcDbLine
 10
395.0000000000048
 20
204.9705627484729
 30
0.0
 11
399.4999999999939
 21
209.4705627484621
 31
0.0
  0
LINE
  5
2E9
330
1F
100
AcDbEntity
  8
LAY-10
  6
CONTINUOUS
 62
     7
100
AcDbLine
 10
395.0000000000022
 20
202.1421356237242
 30
0.0
 11
399.4999999999953
 21
206.6421356237172
 31
0.0
  0
LINE
  5
2EA
330
1F
100
AcDbEntity
  8
LAY-10
  6
CONTINUOUS
 62
     7
100
AcDbLine
 10
395.0000000000035
 20
199.3137084989792
 30
0.0
 11
399.5000000000004
 21
203.8137084989762
 31
0.0
  0
LINE
  5
2EB
330
1F
100
AcDbEntity
  8
LAY-10
  6
CONTINUOUS
 62
     7
100
AcDbLine
 10
395.0000000000009
 20
196.4852813742305
 30
0.0
 11
399.5000000000017
 21
200.9852813742312
 31
0.0
  0
LINE
  5
2EC
330
1F
100
AcDbEntity
  8
LAY-10
  6
CONTINUOUS
 62
     7
100
AcDbLine
 10
394.9999999999984
 20
193.6568542494817
 30
0.0
 11
399.4999999999991
 21
198.1568542494825
 31
0.0
  0
LINE
  5
2ED
330
1F
100
AcDbEntity
  8
LAY-10
  6
CONTINUOUS
 62
     7
100
AcDbLine
 10
394.9999999999997
 20
190.8284271247368
 30
0.0
 11
399.4999999999966
 21
195.3284271247337
 31
0.0
  0
LINE
  5
2EE
330
1F
100
AcDbEntity
  8
LAY-10
  6
CONTINUOUS
 62
     7
100
AcDbLine
 10
395.0000000000009
 20
187.9999999999919
 30
0.0
 11
399.499999999994
 21
192.499999999985
 31
0.0
  0
LINE
  5
2EF
330
1F
100
AcDbEntity
  8
LAY-10
  6
CONTINUOUS
 62
     7
100
AcDbLine
 10
397.8284271247459
 20
187.9999999999906
 30
0.0
 11
399.4999999999953
 21
189.6715728752401
 31
0.0
  0
LINE
  5
2F0
330
1F
100
AcDbEntity
  8
LAY-10
  6
CONTINUOUS
 62
     7
100
AcDbLine
 10
530.5000000000032
 20
221.9411254969475
 30
0.0
 11
531.690107498319
 21
223.1312329952632
 31
0.0
  0
LINE
  5
2F1
330
1F
100
AcDbEntity
  8
LAY-10
  6
CONTINUOUS
 62
     7
100
AcDbLine
 10
530.4999999999968
 20
219.1126983721949
 30
0.0
 11
534.5185346230717
 21
223.1312329952697
 31
0.0
  0
LINE
  5
2F2
330
1F
100
AcDbEntity
  8
LAY-10
  6
CONTINUOUS
 62
     7
100
AcDbLine
 10
530.4999999999981
 20
216.28427124745
 30
0.0
 11
535.0000000000027
 21
220.7842712474546
 31
0.0
  0
LINE
  5
2F3
330
1F
100
AcDbEntity
  8
LAY-10
  6
CONTINUOUS
 62
     7
100
AcDbLine
 10
530.4999999999956
 20
213.4558441227012
 30
0.0
 11
535.000000000004
 21
217.9558441227097
 31
0.0
  0
LINE
  5
2F4
330
1F
100
AcDbEntity
  8
LAY-10
  6
CONTINUOUS
 62
     7
100
AcDbLine
 10
530.4999999999968
 20
210.6274169979563
 30
0.0
 11
535.0000000000015
 21
215.1274169979609
 31
0.0
  0
LINE
  5
2F5
330
1F
100
AcDbEntity
  8
LAY-10
  6
CONTINUOUS
 62
     7
100
AcDbLine
 10
530.4999999999981
 20
207.7989898732114
 30
0.0
 11
535.0000000000027
 21
212.298989873216
 31
0.0
  0
LINE
  5
2F6
330
1F
100
AcDbEntity
  8
LAY-10
  6
CONTINUOUS
 62
     7
100
AcDbLine
 10
530.4999999999994
 20
204.9705627484665
 30
0.0
 11
534.9999999999964
 21
209.4705627484634
 31
0.0
  0
LINE
  5
2F7
330
1F
100
AcDbEntity
  8
LAY-10
  6
CONTINUOUS
 62
     7
100
AcDbLine
 10
530.4999999999968
 20
202.1421356237178
 30
0.0
 11
534.9999999999975
 21
206.6421356237185
 31
0.0
  0
LINE
  5
2F8
330
1F
100
AcDbEntity
  8
LAY-10
  6
CONTINUOUS
 62
     7
100
AcDbLine
 10
530.4999999999981
 20
199.3137084989728
 30
0.0
 11
534.9999999999989
 21
203.8137084989736
 31
0.0
  0
LINE
  5
2F9
330
1F
100
AcDbEntity
  8
LAY-10
  6
CONTINUOUS
 62
     7
100
AcDbLine
 10
530.4999999999994
 20
196.4852813742279
 30
0.0
 11
535.0000000000001
 21
200.9852813742287
 31
0.0
  0
LINE
  5
2FA
330
1F
100
AcDbEntity
  8
LAY-10
  6
CONTINUOUS
 62
     7
100
AcDbLine
 10
530.4999999999968
 20
193.6568542494792
 30
0.0
 11
534.9999999999976
 21
198.1568542494799
 31
0.0
  0
LINE
  5
2FB
330
1F
100
AcDbEntity
  8
LAY-10
  6
CONTINUOUS
 62
     7
100
AcDbLine
 10
530.4999999999981
 20
190.8284271247342
 30
0.0
 11
534.9999999999989
 21
195.328427124735
 31
0.0
  0
LINE
  5
2FC
330
1F
100
AcDbEntity
  8
LAY-10
  6
CONTINUOUS
 62
     7
100
AcDbLine
 10
530.4999999999955
 20
187.9999999999855
 30
0.0
 11
535.000000000004
 21
192.499999999994
 31
0.0
  0
LINE
  5
2FD
330
1F
100
AcDbEntity
  8
LAY-10
  6
CONTINUOUS
 62
     7
100
AcDbLine
 10
533.3284271247443
 20
187.999999999988
 30
0.0
 11
535.0000000000052
 21
189.671572875249
 31
0.0
  0
LINE
  5
2FE
330
1F
100
AcDbEntity
  8
LAY-10
  6
CONTINUOUS
 62
     7
100
AcDbLine
 10
537.3578209587488
 20
227.7464939358134
 30
0.0
 11
538.0000000000031
 21
239.9999999999853
 31
0.0
  0
LINE
  5
2FF
330
1F
100
AcDbEntity
  8
LAY-10
  6
CONTINUOUS
 62
     7
100
AcDbLine
 10
394.6513914541026
 20
227.5707106270733
 30
0.0
 11
394.0000000000023
 21
239.9999999999852
 31
0.0
  0
LINE
  5
300
330
1F
100
AcDbEntity
  8
LAY-10
  6
CONTINUOUS
 62
     7
100
AcDbLine
 10
460.3791057515121
 20
228.1526319759796
 30
0.0
 11
460.9999999999988
 21
239.9999999999854
 31
0.0
  0
LINE
  5
301
330
1F
100
AcDbEntity
  8
LAY-10
  6
CONTINUOUS
 62
     7
100
AcDbLine
 10
471.620894248486
 20
228.1526319759793
 30
0.0
 11
470.9999999999993
 21
239.9999999999854
 31
0.0
  0
LINE
  5
302
330
1F
100
AcDbEntity
  8
LAY-10
  6
CONTINUOUS
 62
     7
100
AcDbLine
 10
437.9999999999991
 20
381.6450709417978
 30
0.0
 11
436.9999999999987
 21
375.8827723109408
 31
0.0
  0
LINE
  5
303
330
1F
100
AcDbEntity
  8
LAY-10
  6
CONTINUOUS
 62
     7
100
AcDbLine
 10
548.5807377657155
 20
239.9999999999853
 30
0.0
 11
390.4999999999993
 21
239.9999999999853
 31
0.0
  0
LINE
  5
304
330
1F
100
AcDbEntity
  8
LAY-10
  6
CONTINUOUS
 62
     7
100
AcDbLine
 10
561.5000000000124
 20
237.9999999999917
 30
0.0
 11
561.5000000000124
 21
238.9999999999899
 31
0.0
  0
LINE
  5
305
330
1F
100
AcDbEntity
  8
LAY-10
  6
CONTINUOUS
 62
     7
100
AcDbLine
 10
556.5000000000131
 20
237.9999999999917
 30
0.0
 11
556.5000000000131
 21
238.999999999991
 31
0.0
  0
LINE
  5
306
330
1F
100
AcDbEntity
  8
LAY-10
  6
CONTINUOUS
 62
     7
100
AcDbLine
 10
556.5000000000131
 20
238.999999999991
 30
0.0
 11
561.5000000000124
 21
238.999999999991
 31
0.0
  0
LINE
  5
307
330
1F
100
AcDbEntity
  8
LAY-10
  6
CONTINUOUS
 62
     7
100
AcDbLine
 10
556.0000000000099
 20
237.499999999991
 30
0.0
 11
562.0000000000099
 21
237.499999999991
 31
0.0
  0
LINE
  5
308
330
1F
100
AcDbEntity
  8
LAY-10
  6
CONTINUOUS
 62
     7
100
AcDbLine
 10
556.5000000000099
 20
237.9999999999917
 30
0.0
 11
561.5000000000099
 21
237.9999999999917
 31
0.0
  0
LINE
  5
309
330
1F
100
AcDbEntity
  8
LAY-10
  6
CONTINUOUS
 62
     7
100
AcDbLine
 10
559.0000000000101
 20
240.4433756729667
 30
0.0
 11
561.500000000011
 21
238.999999999992
 31
0.0
  0
LINE
  5
30A
330
1F
100
AcDbEntity
  8
LAY-10
  6
CONTINUOUS
 62
     7
100
AcDbLine
 10
559.0000000000097
 20
240.4433756729665
 30
0.0
 11
556.5000000000092
 21
238.999999999992
 31
0.0
  0
LINE
  5
30B
330
1F
100
AcDbEntity
  8
LAY-10
  6
CONTINUOUS
 62
     7
100
AcDbLine
 10
573.5000000000094
 20
208.0000000000004
 30
0.0
 11
573.5000000000094
 21
213.0000000000003
 31
0.0
  0
LINE
  5
30C
330
1F
100
AcDbEntity
  8
LAY-10
  6
CONTINUOUS
 62
     7
100
AcDbLine
 10
563.500000000009
 20
213.0000000000003
 30
0.0
 11
573.5000000000094
 21
213.0000000000003
 31
0.0
  0
ARC
  5
30D
330
1F
100
AcDbEntity
  8
LAY-10
  6
CONTINUOUS
 62
     7
100
AcDbCircle
 10
563.500000000009
 20
215.0000000000004
 30
0.0
 40
2.0
100
AcDbArc
 50
180.0
 51
270.0000000000002
  0
LINE
  5
30E
330
1F
100
AcDbEntity
  8
LAY-10
  6
CONTINUOUS
 62
     7
100
AcDbLine
 10
563.500000000009
 20
208.0000000000004
 30
0.0
 11
573.5000000000094
 21
208.0000000000004
 31
0.0
  0
ARC
  5
30F
330
1F
100
AcDbEntity
  8
LAY-10
  6
CONTINUOUS
 62
     7
100
AcDbCircle
 10
563.500000000009
 20
215.0000000000004
 30
0.0
 40
7.000000000000004
100
AcDbArc
 50
180.0
 51
270.0000000000002
  0
LINE
  5
310
330
1F
100
AcDbEntity
  8
LAY-10
  6
CONTINUOUS
 62
     7
100
AcDbLine
 10
561.5000000000099
 20
214.9999999999959
 30
0.0
 11
561.5000000000099
 21
229.9999999999956
 31
0.0
  0
LINE
  5
311
330
1F
100
AcDbEntity
  8
LAY-10
  6
CONTINUOUS
 62
     7
100
AcDbLine
 10
556.5000000000099
 20
214.9999999999959
 30
0.0
 11
556.5000000000099
 21
229.9999999999956
 31
0.0
  0
LINE
  5
312
330
1F
100
AcDbEntity
  8
LAY-10
  6
CONTINUOUS
 62
     7
100
AcDbLine
 10
556.5000000000131
 20
236.0000000000005
 30
0.0
 11
561.5000000000124
 21
236.0000000000005
 31
0.0
  0
LINE
  5
313
330
1F
100
AcDbEntity
  8
LAY-10
  6
CONTINUOUS
 62
     7
100
AcDbLine
 10
556.0000000000117
 20
235.500000000002
 30
0.0
 11
562.0000000000108
 21
235.500000000002
 31
0.0
  0
LINE
  5
314
330
1F
100
AcDbEntity
  8
LAY-10
  6
CONTINUOUS
 62
     7
100
AcDbLine
 10
561.5000000000124
 20
237.9999999999917
 30
0.0
 11
561.5000000000124
 21
236.0000000000005
 31
0.0
  0
LINE
  5
315
330
1F
100
AcDbEntity
  8
LAY-10
  6
CONTINUOUS
 62
     7
100
AcDbLine
 10
556.5000000000131
 20
237.9999999999917
 30
0.0
 11
556.5000000000131
 21
236.0000000000005
 31
0.0
  0
LINE
  5
316
330
1F
100
AcDbEntity
  8
LAY-10
  6
CONTINUOUS
 62
     7
100
AcDbLine
 10
562.0000000000099
 20
235.5000000000059
 30
0.0
 11
561.5000000000099
 21
235.9999999999959
 31
0.0
  0
LINE
  5
317
330
1F
100
AcDbEntity
  8
LAY-10
  6
CONTINUOUS
 62
     7
100
AcDbLine
 10
556.5000000000099
 20
235.9999999999959
 30
0.0
 11
556.0000000000099
 21
235.5000000000059
 31
0.0
  0
LINE
  5
318
330
1F
100
AcDbEntity
  8
LAY-10
  6
CONTINUOUS
 62
     7
100
AcDbLine
 10
556.0000000000099
 20
235.5000000000059
 30
0.0
 11
556.0000000000099
 21
229.9999999999959
 31
0.0
  0
LINE
  5
319
330
1F
100
AcDbEntity
  8
LAY-10
  6
CONTINUOUS
 62
     7
100
AcDbLine
 10
562.0000000000099
 20
235.5000000000059
 30
0.0
 11
562.0000000000099
 21
229.9999999999959
 31
0.0
  0
LINE
  5
31A
330
1F
100
AcDbEntity
  8
LAY-10
  6
CONTINUOUS
 62
     7
100
AcDbLine
 10
409.5317381620985
 20
195.9999999999912
 30
0.0
 11
520.4682618379014
 21
195.9999999999912
 31
0.0
  0
LINE
  5
31B
330
1F
100
AcDbEntity
  8
LAY-10
  6
CONTINUOUS
 62
     7
100
AcDbLine
 10
408.5
 20
194.999999999993
 30
0.0
 11
409.5317381620999
 21
195.999999999993
 31
0.0
  0
LINE
  5
31C
330
1F
100
AcDbEntity
  8
LAY-10
  6
CONTINUOUS
 62
     7
100
AcDbLine
 10
521.5
 20
194.999999999993
 30
0.0
 11
520.4682618379
 21
195.999999999993
 31
0.0
  0
LINE
  5
31D
330
1F
100
AcDbEntity
  8
LAY-10
  6
CONTINUOUS
 62
     7
100
AcDbLine
 10
520.4682618379014
 20
195.999999999993
 30
0.0
 11
519.8120118379015
 21
216.9999999999867
 31
0.0
  0
LINE
  5
31E
330
1F
100
AcDbEntity
  8
LAY-10
  6
CONTINUOUS
 62
     7
100
AcDbLine
 10
409.5317381620986
 20
195.999999999993
 30
0.0
 11
410.1879881620983
 21
216.9999999999867
 31
0.0
  0
LINE
  5
31F
330
1F
100
AcDbEntity
  8
LAY-10
  6
CENTER
 62
     2
100
AcDbLine
 10
387.9999999999989
 20
252.7999999999801
 30
0.0
 11
387.9999999999989
 21
229.89999999998
 31
0.0
  0
LINE
  5
320
330
1F
100
AcDbEntity
  8
LAY-10
  6
CENTER
 62
     2
100
AcDbLine
 10
354.999999999999
 20
599.9999999999901
 30
0.0
 11
574.9999999999991
 21
599.9999999999901
 31
0.0
  0
LINE
  5
321
330
1F
100
AcDbEntity
  8
LAY-10
  6
CENTER
 62
     2
100
AcDbLine
 10
464.999999999999
 20
709.9999999999901
 30
0.0
 11
464.999999999999
 21
489.99999999999
 31
0.0
  0
LINE
  5
322
330
1F
100
AcDbEntity
  8
LAY-10
  6
CENTER
 62
     2
100
AcDbLine
 10
541.999999999988
 20
606.4986412405102
 30
0.0
 11
541.999999999988
 21
593.67864124051
 31
0.0
  0
LINE
  5
323
330
1F
100
AcDbEntity
  8
LAY-10
  6
CENTER
 62
     2
100
AcDbLine
 10
388.000000000008
 20
606.4986412405102
 30
0.0
 11
388.000000000008
 21
593.67864124051
 31
0.0
  0
LINE
  5
324
330
1F
100
AcDbEntity
  8
LAY-10
  6
CENTER
 62
     2
100
AcDbLine
 10
464.9999999999988
 20
393.59999999998
 30
0.0
 11
464.9999999999988
 21
183.3
 31
0.0
  0
LINE
  5
325
330
1F
100
AcDbEntity
  8
LAY-10
  6
CENTER
 62
     2
100
AcDbLine
 10
574.7000000000088
 20
210.5000000000015
 30
0.0
 11
563.5000000000099
 21
210.5000000000015
 31
0.0
  0
ARC
  5
326
330
1F
100
AcDbEntity
  8
LAY-10
  6
CENTER
 62
     2
100
AcDbCircle
 10
563.5000000000099
 20
215.0000000000015
 30
0.0
 40
4.5
100
AcDbArc
 50
180.0
 51
270.0000000000002
  0
LINE
  5
327
330
1F
100
AcDbEntity
  8
LAY-10
  6
CENTER
 62
     2
100
AcDbLine
 10
559.0000000000101
 20
241.2013587594857
 30
0.0
 11
559.0000000000101
 21
215.0000000000015
 31
0.0
  0
LINE
  5
328
330
1F
100
AcDbEntity
  8
LAY-10
  6
CONTINUOUS
 62
     7
100
AcDbLine
 10
384.9999999999993
 20
233.9999999999894
 30
0.0
 11
390.9999999999987
 21
233.9999999999894
 31
0.0
  0
LINE
  5
329
330
1F
100
AcDbEntity
  8
LAY-10
  6
CONTINUOUS
 62
     7
100
AcDbLine
 10
390.4999999999993
 20
247.4999999999896
 30
0.0
 11
390.4999999999993
 21
235.4999999999919
 31
0.0
  0
LINE
  5
32A
330
1F
100
AcDbEntity
  8
LAY-10
  6
CONTINUOUS
 62
     7
100
AcDbLine
 10
385.4999999999994
 20
247.4999999999896
 30
0.0
 11
385.4999999999994
 21
235.4999999999919
 31
0.0
  0
LINE
  5
32B
330
1F
100
AcDbEntity
  8
LAY-10
  6
CONTINUOUS
 62
     7
100
AcDbLine
 10
384.9999999999993
 20
233.9999999999894
 30
0.0
 11
384.9999999999993
 21
235.9999999999901
 31
0.0
  0
LINE
  5
32C
330
1F
100
AcDbEntity
  8
LAY-10
  6
CONTINUOUS
 62
     7
100
AcDbLine
 10
390.9999999999987
 20
233.9999999999894
 30
0.0
 11
390.9999999999987
 21
235.9999999999901
 31
0.0
  0
LINE
  5
32D
330
1F
100
AcDbEntity
  8
LAY-10
  6
CONTINUOUS
 62
     7
100
AcDbLine
 10
562.0000000000108
 20
237.499999999991
 30
0.0
 11
561.5000000000124
 21
237.9999999999917
 31
0.0
  0
LINE
  5
32E
330
1F
100
AcDbEntity
  8
LAY-10
  6
CONTINUOUS
 62
     7
100
AcDbLine
 10
556.0000000000117
 20
237.499999999991
 30
0.0
 11
556.5000000000131
 21
237.9999999999917
 31
0.0
  0
LINE
  5
32F
330
1F
100
AcDbEntity
  8
LAY-10
  6
CONTINUOUS
 62
     7
100
AcDbLine
 10
562.0000000000108
 20
237.499999999991
 30
0.0
 11
562.0000000000108
 21
235.500000000002
 31
0.0
  0
LINE
  5
330
330
1F
100
AcDbEntity
  8
LAY-10
  6
CONTINUOUS
 62
     7
100
AcDbLine
 10
556.0000000000117
 20
237.499999999991
 30
0.0
 11
556.0000000000117
 21
235.500000000002
 31
0.0
  0
LINE
  5
331
330
1F
100
AcDbEntity
  8
LAY-10
  6
CONTINUOUS
 62
     7
100
AcDbLine
 10
561.5000000000099
 20
235.9999999999959
 30
0.0
 11
561.5000000000099
 21
229.9999999999959
 31
0.0
  0
LINE
  5
332
330
1F
100
AcDbEntity
  8
LAY-10
  6
CONTINUOUS
 62
     7
100
AcDbLine
 10
556.5000000000099
 20
235.9999999999959
 30
0.0
 11
556.5000000000099
 21
229.9999999999959
 31
0.0
  0
LINE
  5
333
330
1F
100
AcDbEntity
  8
LAY-10
  6
CONTINUOUS
 62
     7
100
AcDbLine
 10
556.4999999999917
 20
229.1339745962009
 30
0.0
 11
555.9999999999917
 21
229.9999999999855
 31
0.0
  0
LINE
  5
334
330
1F
100
AcDbEntity
  8
LAY-10
  6
CONTINUOUS
 62
     7
100
AcDbLine
 10
561.5000000000219
 20
229.1339745962045
 30
0.0
 11
562.0000000000219
 21
229.999999999989
 31
0.0
  0
LINE
  5
335
330
1F
100
AcDbEntity
  8
LAY-10
  6
CONTINUOUS
 62
     7
100
AcDbLine
 10
408.5
 20
194.999999999993
 30
0.0
 11
409.1874999999998
 21
216.9999999999867
 31
0.0
  0
LINE
  5
336
330
1F
100
AcDbEntity
  8
LAY-10
  6
CONTINUOUS
 62
     7
100
AcDbLine
 10
521.5
 20
194.999999999993
 30
0.0
 11
520.8125000000001
 21
216.9999999999867
 31
0.0
  0
DIMENSION
  5
338
330
1F
100
AcDbEntity
  8
LAY-20
  6
CONTINUOUS
 62
     4
100
AcDbDimension
  2
*D15
 10
330.0
 20
247.99999999999
 30
0.0
 11
322.5
 21
235.565616497625
 31
0.0
 70
   160
  1
25
  3
ISO-25
100
AcDbAlignedDimension
 13
395.0
 23
223.13123299526
 33
0.0
 14
361.0
 24
247.99999999999
 34
0.0
 50
90.0
100
AcDbRotatedDimension
1001
ACAD
1000
DSTYLE
1002
{
1070
   270
1070
     2
1070
     6
1000
EX_BNORM
1070
     7
1000
EX_BNORM
1070
    41
1040
7.5
1070
    42
1040
4.5
1070
    44
1040
4.5
1070
    73
1070
     0
1070
    74
1070
     0
1070
    75
1070
     0
1070
    76
1070
     0
1070
    77
1070
     1
1070
    78
1070
     8
1070
   140
1040
9.3543312
1070
   147
1040
0.0
1070
   173
1070
     1
1070
   176
1070
     4
1070
   177
1070
     4
1070
   178
1070
     7
1070
   271
1070
     1
1070
   277
1070
     2
1070
   279
1070
     2
1070
   280
1070
     0
1070
   287
1070
     5
1070
   340
1005
337
1002
}
  0
DIMENSION
  5
346
330
1F
100
AcDbEntity
  8
LAY-20
  6
CONTINUOUS
 62
     4
100
AcDbDimension
  2
*D16
 10
600.0
 20
247.99999999999
 30
0.0
 11
592.5
 21
217.99999999999
 31
0.0
 70
   160
  3
ISO-25
100
AcDbAlignedDimension
 13
535.0
 23
187.99999999999
 33
0.0
 14
569.0
 24
247.99999999999
 34
0.0
 50
90.0
100
AcDbRotatedDimension
1001
ACAD
1000
DSTYLE
1002
{
1070
   270
1070
     2
1070
     6
1000
EX_BNORM
1070
     7
1000
EX_BNORM
1070
    41
1040
7.5
1070
    42
1040
4.5
1070
    44
1040
4.5
1070
    73
1070
     0
1070
    74
1070
     0
1070
    75
1070
     0
1070
    76
1070
     0
1070
    77
1070
     1
1070
    78
1070
     8
1070
   140
1040
9.3543312
1070
   147
1040
0.0
1070
   173
1070
     1
1070
   176
1070
     4
1070
   177
1070
     4
1070
   178
1070
     7
1070
   271
1070
     1
1070
   277
1070
     2
1070
   279
1070
     2
1070
   280
1070
     0
1070
   287
1070
     5
1070
   340
1005
337
1002
}
  0
DIMENSION
  5
353
330
1F
100
AcDbEntity
  8
LAY-20
  6
CONTINUOUS
 62
     4
100
AcDbDimension
  2
*D17
 10
600.0
 20
389.9999999999899
 30
0.0
 11
592.5
 21
318.99999999999
 31
0.0
 70
   160
  3
ISO-25
100
AcDbAlignedDimension
 13
600.0
 23
247.99999999999
 33
0.0
 14
465.0
 24
389.9999999999899
 34
0.0
 50
90.0
100
AcDbRotatedDimension
1001
ACAD
1000
DSTYLE
1002
{
1070
   270
1070
     2
1070
     6
1000
EX_BNORM
1070
     7
1000
EX_BNORM
1070
    41
1040
7.5
1070
    42
1040
4.5
1070
    44
1040
4.5
1070
    73
1070
     0
1070
    74
1070
     0
1070
    75
1070
     1
1070
    76
1070
     0
1070
    77
1070
     1
1070
    78
1070
     8
1070
   140
1040
9.3543312
1070
   147
1040
0.0
1070
   173
1070
     1
1070
   176
1070
     4
1070
   177
1070
     4
1070
   178
1070
     7
1070
   271
1070
     1
1070
   277
1070
     2
1070
   279
1070
     2
1070
   280
1070
     0
1070
   287
1070
     5
1070
   340
1005
337
1002
}
  0
DIMENSION
  5
35F
330
1F
100
AcDbEntity
  8
LAY-20
  6
CONTINUOUS
 62
     4
100
AcDbDimension
  2
*D18
 10
521.5
 20
157.99999999999
 30
0.0
 11
464.999999999995
 21
165.49999999999
 31
0.0
 70
   160
  1
Rｃ4(<>)
  3
ISO-25
100
AcDbAlignedDimension
 13
408.49999999999
 23
194.99999999999
 33
0.0
 14
521.5
 24
187.99999999999
 34
0.0
100
AcDbRotatedDimension
1001
ACAD
1000
DSTYLE
1002
{
1070
   270
1070
     2
1070
     6
1000
EX_BNORM
1070
     7
1000
EX_BNORM
1070
    41
1040
9.0
1070
    42
1040
4.5
1070
    44
1040
4.5
1070
    73
1070
     0
1070
    74
1070
     0
1070
    75
1070
     0
1070
    76
1070
     0
1070
    77
1070
     1
1070
    78
1070
     0
1070
   140
1040
9.3543312
1070
   147
1040
0.0
1070
   173
1070
     1
1070
   176
1070
     4
1070
   177
1070
     4
1070
   178
1070
     7
1070
   271
1070
     1
1070
   277
1070
     2
1070
   279
1070
     2
1070
   280
1070
     0
1070
   287
1070
     5
1070
   340
1005
337
1002
}
  0
DIMENSION
  5
36C
330
1F
100
AcDbEntity
  8
LAY-20
  6
CONTINUOUS
 62
     4
100
AcDbDimension
  2
*D19
 10
546.00000000001
 20
420.0
 30
0.0
 11
465.002004136065
 21
427.5
 31
0.0
 70
   160
  1
%%c<>
  3
ISO-25
100
AcDbAlignedDimension
 13
384.00400827212
 23
250.07005948234
 33
0.0
 14
546.00000000001
 24
248.49999999999
 34
0.0
100
AcDbRotatedDimension
1001
ACAD
1000
DSTYLE
1002
{
1070
   270
1070
     2
1070
     6
1000
EX_BNORM
1070
     7
1000
EX_BNORM
1070
    41
1040
9.0
1070
    42
1040
4.5
1070
    44
1040
4.5
1070
    73
1070
     0
1070
    74
1070
     0
1070
    75
1070
     0
1070
    76
1070
     0
1070
    77
1070
     1
1070
    78
1070
     8
1070
   140
1040
9.3543312
1070
   147
1040
0.0
1070
   173
1070
     1
1070
   176
1070
     4
1070
   177
1070
     4
1070
   178
1070
     7
1070
   271
1070
     1
1070
   277
1070
     2
1070
   279
1070
     2
1070
   280
1070
     0
1070
   287
1070
     5
1070
   340
1005
337
1002
}
  0
DIMENSION
  5
379
330
1F
100
AcDbEntity
  8
LAY-20
  6
CONTINUOUS
 62
     4
100
AcDbDimension
  2
*D20
 10
548.99999999998
 20
441.0
 30
0.0
 11
465.0
 21
448.5
 31
0.0
 70
   160
  1
%%c<>
  3
ISO-25
100
AcDbAlignedDimension
 13
381.00000000002
 23
252.49999999999
 33
0.0
 14
548.99999999998
 24
252.49999999999
 34
0.0
100
AcDbRotatedDimension
1001
ACAD
1000
DSTYLE
1002
{
1070
   270
1070
     2
1070
     6
1000
EX_BNORM
1070
     7
1000
EX_BNORM
1070
    41
1040
9.0
1070
    42
1040
0.0
1070
    44
1040
0.0
1070
    73
1070
     0
1070
    74
1070
     0
1070
    75
1070
     0
1070
    76
1070
     0
1070
    77
1070
     1
1070
    78
1070
     8
1070
   140
1040
9.3543312
1070
   147
1040
0.0
1070
   173
1070
     1
1070
   176
1070
     4
1070
   177
1070
     4
1070
   178
1070
     7
1070
   271
1070
     1
1070
   277
1070
     2
1070
   279
1070
     2
1070
   280
1070
     0
1070
   287
1070
     5
1070
   340
1005
337
1002
}
  0
DIMENSION
  5
386
330
1F
100
AcDbEntity
  8
LAY-20
  6
CONTINUOUS
 62
     4
100
AcDbDimension
  2
*D21
 10
570.0
 20
462.0
 30
0.0
 11
465.0
 21
469.5
 31
0.0
 70
   160
  1
%%c<>
  3
ISO-25
100
AcDbAlignedDimension
 13
360.0
 23
256.8
 33
0.0
 14
570.0
 24
255.6
 34
0.0
100
AcDbRotatedDimension
1001
ACAD
1000
DSTYLE
1002
{
1070
   270
1070
     2
1070
     6
1000
EX_BNORM
1070
     7
1000
EX_BNORM
1070
    41
1040
9.0
1070
    42
1040
0.0
1070
    44
1040
0.0
1070
    73
1070
     0
1070
    74
1070
     0
1070
    75
1070
     0
1070
    76
1070
     0
1070
    77
1070
     1
1070
    78
1070
     8
1070
   140
1040
9.3543312
1070
   147
1040
0.0
1070
   173
1070
     1
1070
   176
1070
     4
1070
   177
1070
     4
1070
   178
1070
     7
1070
   271
1070
     1
1070
   277
1070
     2
1070
   279
1070
     2
1070
   280
1070
     0
1070
   287
1070
     5
1070
   340
1005
337
1002
}
  0
LINE
  5
393
330
1F
100
AcDbEntity
  8
LAY-255
  6
CONTINUOUS
 62
     7
100
AcDbLine
 10
1155.0
 20
66.0
 30
0.0
 11
855.0
 21
66.0
 31
0.0
  0
LINE
  5
394
330
1F
100
AcDbEntity
  8
LAY-255
  6
CONTINUOUS
 62
     7
100
AcDbLine
 10
866.4000000000001
 20
48.0
 30
0.0
 11
890.4000000000001
 21
63.0
 31
0.0
  0
LINE
  5
395
330
1F
100
AcDbEntity
  8
LAY-255
  6
CONTINUOUS
 62
     7
100
AcDbLine
 10
890.4000000000001
 20
63.0
 30
0.0
 11
914.4000000000001
 21
48.0
 31
0.0
  0
LINE
  5
396
330
1F
100
AcDbEntity
  8
LAY-255
  6
CONTINUOUS
 62
     7
100
AcDbLine
 10
914.4000000000001
 20
48.0
 30
0.0
 11
890.4000000000001
 21
33.0
 31
0.0
  0
LINE
  5
397
330
1F
100
AcDbEntity
  8
LAY-255
  6
CONTINUOUS
 62
     7
100
AcDbLine
 10
890.4000000000001
 20
33.0
 30
0.0
 11
866.4000000000001
 21
48.0
 31
0.0
  0
LINE
  5
398
330
1F
100
AcDbEntity
  8
LAY-255
  6
CONTINUOUS
 62
     7
100
AcDbLine
 10
15.0
 20
30.0
 30
0.0
 11
1155.0
 21
30.0
 31
0.0
  0
LINE
  5
399
330
1F
100
AcDbEntity
  8
LAY-255
  6
CONTINUOUS
 62
     7
100
AcDbLine
 10
15.0
 20
840.0
 30
0.0
 11
1155.0
 21
840.0
 31
0.0
  0
LINE
  5
39A
330
1F
100
AcDbEntity
  8
LAY-255
  6
CONTINUOUS
 62
     7
100
AcDbLine
 10
15.0
 20
30.0
 30
0.0
 11
15.0
 21
840.0
 31
0.0
  0
LINE
  5
39B
330
1F
100
AcDbEntity
  8
LAY-255
  6
CONTINUOUS
 62
     7
100
AcDbLine
 10
1155.0
 20
30.0
 30
0.0
 11
1155.0
 21
840.0
 31
0.0
  0
LINE
  5
39C
330
1F
100
AcDbEntity
  8
LAY-255
  6
CONTINUOUS
 62
     4
100
AcDbLine
 10
855.0
 20
84.0
 30
0.0
 11
1155.0
 21
84.0
 31
0.0
  0
LINE
  5
39D
330
1F
100
AcDbEntity
  8
LAY-255
  6
CONTINUOUS
 62
     7
100
AcDbLine
 10
855.0
 20
30.0
 30
0.0
 11
855.0
 21
201.0
 31
0.0
  0
LINE
  5
39E
330
1F
100
AcDbEntity
  8
LAY-255
  6
CONTINUOUS
 62
     4
100
AcDbLine
 10
1005.0
 20
84.0
 30
0.0
 11
1005.0
 21
66.0
 31
0.0
  0
LINE
  5
39F
330
1F
100
AcDbEntity
  8
LAY-255
  6
CONTINUOUS
 62
     7
100
AcDbLine
 10
1155.0
 20
201.0
 30
0.0
 11
855.0
 21
201.0
 31
0.0
  0
LINE
  5
3A0
330
1F
100
AcDbEntity
  8
LAY-255
  6
CONTINUOUS
 62
     4
100
AcDbLine
 10
1149.0
 20
165.0
 30
0.0
 11
861.0
 21
165.0
 31
0.0
  0
LINE
  5
3A1
330
1F
100
AcDbEntity
  8
LAY-255
  6
CONTINUOUS
 62
     4
100
AcDbLine
 10
1149.0
 20
183.0
 30
0.0
 11
861.0
 21
183.0
 31
0.0
  0
POINT
  5
3A2
330
1F
100
AcDbEntity
  8
LAY-255
  6
CONTINUOUS
 62
     7
100
AcDbPoint
 10
867.0
 20
150.0
 30
0.0
  0
POINT
  5
3A3
330
1F
100
AcDbEntity
  8
LAY-255
  6
CONTINUOUS
 62
     7
100
AcDbPoint
 10
900.0
 20
168.0
 30
0.0
  0
POINT
  5
3A4
330
1F
100
AcDbEntity
  8
LAY-255
  6
CONTINUOUS
 62
     7
100
AcDbPoint
 10
900.0
 20
186.0
 30
0.0
  0
POINT
  5
3A5
330
1F
100
AcDbEntity
  8
LAY-255
  6
CONTINUOUS
 62
     7
100
AcDbPoint
 10
867.0
 20
120.0
 30
0.0
  0
POINT
  5
3A6
330
1F
100
AcDbEntity
  8
LAY-255
  6
CONTINUOUS
 62
     7
100
AcDbPoint
 10
867.0
 20
135.0
 30
0.0
  0
POINT
  5
3A7
330
1F
100
AcDbEntity
  8
LAY-255
  6
CONTINUOUS
 62
     7
100
AcDbPoint
 10
867.0
 20
105.0
 30
0.0
  0
POINT
  5
3A8
330
1F
100
AcDbEntity
  8
LAY-255
  6
CONTINUOUS
 62
     7
100
AcDbPoint
 10
867.0
 20
89.99999999999996
 30
0.0
  0
TEXT
  5
3A9
330
1F
100
AcDbEntity
  8
LAY-255
  6
CONTINUOUS
 62
     7
100
AcDbText
 10
924.415136826172
 20
46.63125
 30
0.0
 40
15.46875
  1
福西鋳物株式会社
 41
1.342692141742901
  7
EXCADSTD
100
AcDbText
  0
TEXT
  5
3AA
330
1F
100
AcDbEntity
  8
LAY-255
  6
CONTINUOUS
 62
     7
100
AcDbText
 10
925.528125
 20
35.94375
 30
0.0
 40
5.15625
  1
ＦＵＫＵＮＩＳＨＩ
 41
1.204799226045263
  7
EXCADSTD
100
AcDbText
  0
TEXT
  5
3AB
330
1F
100
AcDbEntity
  8
LAY-255
  6
CONTINUOUS
 62
     7
100
AcDbText
 10
998.1575892857143
 20
35.94375
 30
0.0
 40
5.15625
  1
ＦＯＵＮＤＲＹ
 41
1.243252752978497
  7
EXCADSTD
100
AcDbText
  0
TEXT
  5
3AC
330
1F
100
AcDbEntity
  8
LAY-255
  6
CONTINUOUS
 62
     7
100
AcDbText
 10
1055.983774651442
 20
35.94375
 30
0.0
 40
5.15625
  1
ＣＯ.,ＬＴＤ.
 41
1.243831271314936
  7
EXCADSTD
100
AcDbText
  0
TEXT
  5
3AD
330
1F
100
AcDbEntity
  8
LAY-255
  6
CONTINUOUS
 62
     7
100
AcDbText
 10
882.1031250000001
 20
41.15625
 30
0.0
 40
15.46875
  1
S
 41
0.7582677563636363
  7
EXCADSTD
100
AcDbText
  0
TEXT
  5
3AE
330
1F
100
AcDbEntity
  8
LAY-255
  6
CONTINUOUS
 62
     7
100
AcDbText
 10
891.3140625000001
 20
41.24823113208
 30
0.0
 40
15.46875
  1
F
 41
0.7440945272727273
  7
EXCADSTD
100
AcDbText
  0
TEXT
  5
3AF
330
1F
100
AcDbEntity
  8
LAY-255
  6
CONTINUOUS
 62
     7
100
AcDbText
 10
1011.31640625
 20
73.26562499999997
 30
0.0
 40
7.734375
  1
縮尺
 41
1.080708718181818
  7
EXCADSTD
100
AcDbText
  0
TEXT
  5
3B0
330
1F
100
AcDbEntity
  8
LAY-255
  6
CONTINUOUS
 62
     7
100
AcDbText
 10
861.796875
 20
169.6875
 30
0.0
 40
10.3125
  1
型式
 41
1.056348480681818
  7
EXCADSTD
100
AcDbText
  0
TEXT
  5
3B1
330
1F
100
AcDbEntity
  8
LAY-255
  6
CONTINUOUS
 62
     7
100
AcDbText
 10
862.265625
 20
187.6875
 30
0.0
 40
10.3125
  1
品名
 41
0.978838634090909
  7
EXCADSTD
100
AcDbText
  0
TEXT
  5
3B2
330
1F
100
AcDbEntity
  8
LAY-255
  6
CONTINUOUS
 62
     7
100
AcDbText
 10
861.45703125
 20
73.26562499999997
 30
0.0
 40
7.734375
  1
作成日
 41
1.000629973818182
  7
EXCADSTD
100
AcDbText
  0
TEXT
  5
3B3
330
1F
100
AcDbEntity
  8
LAY-255
  6
CONTINUOUS
 62
     7
100
AcDbText
 10
1044.84375
 20
70.68749999999997
 30
0.0
 40
10.3125
  1
１：３
 41
0.8844094952727272
  7
EXCADSTD
100
AcDbText
  0
TEXT
  5
3B4
330
1F
100
AcDbEntity
  8
LAY-255
  6
CONTINUOUS
 62
     7
100
AcDbText
 10
867.5625
 20
106.6875
 30
0.0
 40
10.3125
  1
施工：打込用
 41
1.018700840909091
  7
EXCADSTD
100
AcDbText
  0
TEXT
  5
3B5
330
1F
100
AcDbEntity
  8
LAY-255
  6
CONTINUOUS
 62
     7
100
AcDbText
 10
900.75
 20
187.6875
 30
0.0
 40
10.3125
  1
ルーフドレイン
 41
1.021169538599106
  7
EXCADSTD
100
AcDbText
  0
TEXT
  5
3B6
330
1F
100
AcDbEntity
  8
LAY-255
  6
CONTINUOUS
 62
     7
100
AcDbText
 10
867.703125
 20
121.6875
 30
0.0
 40
10.3125
  1
用途：屋上用
 41
1.016656625174825
  7
EXCADSTD
100
AcDbText
  0
TEXT
  5
3B7
330
1F
100
AcDbEntity
  8
LAY-255
  6
CONTINUOUS
 62
     7
100
AcDbText
 10
868.125
 20
151.6875000000001
 30
0.0
 40
10.3125
  1
防水：モルタル・塗膜防水兼用
 41
1.008985320967742
  7
EXCADSTD
100
AcDbText
  0
TEXT
  5
3B8
330
1F
100
AcDbEntity
  8
LAY-255
  6
CONTINUOUS
 62
     7
100
AcDbText
 10
867.421875
 20
136.6875
 30
0.0
 40
10.3125
  1
材質：ステンレス鋼鋳鋼
 41
1.017696295032802
  7
EXCADSTD
100
AcDbText
  0
TEXT
  5
3B9
330
1F
100
AcDbEntity
  8
LAY-255
  6
CONTINUOUS
 62
     7
100
AcDbText
 10
902.25
 20
169.6875
 30
0.0
 40
10.3125
  1
ＳＦ－ＳＵＭＧ－９１００型
 41
1.004758697075099
  7
EXCADSTD
100
AcDbText
  0
TEXT
  5
3BA
330
1F
100
AcDbEntity
  8
LAY-255
  6
CONTINUOUS
 62
     7
100
AcDbText
 10
867.65625
 20
91.68750000000003
 30
0.0
 40
10.3125
  1
接続：管用テーパねじ
 41
1.013063761157025
  7
EXCADSTD
100
AcDbText
  0
TEXT
  5
3BB
330
1F
100
AcDbEntity
  8
LAY-255
  6
CONTINUOUS
 62
     7
100
AcDbText
 10
902.671875
 20
70.68749999999997
 30
0.0
 40
10.3125
  1
０７／０１／０５
 41
0.9779528072727272
  7
EXCADSTD
100
AcDbText
  0
ENDSEC
  0
SECTION
  2
OBJECTS
  0
DICTIONARY
  5
C
330
0
100
AcDbDictionary
  3
ACAD_GROUP
350
D
  3
ACAD_LAYOUT
350
1A
  3
ACAD_MATERIAL
350
43
  3
ACAD_MLEADERSTYLE
350
6B
  3
ACAD_MLINESTYLE
350
17
  3
ACAD_PLOTSETTINGS
350
19
  3
ACAD_SCALELIST
350
47
  3
ACAD_VISUALSTYLE
350
2A
  3
ACDBHEADERROUNDTRIPXREC
350
3BC
  3
ACDBVARIABLEDICTIONARY
350
3DD
  0
DICTIONARY
  5
3E8
330
8
100
AcDbDictionary
280
     1
  3
ACAD_XREC_ROUNDTRIP
360
3E9
  0
DICTIONARY
  5
D
102
{ACAD_REACTORS
330
C
102
}
330
C
100
AcDbDictionary
  0
DICTIONARY
  5
1A
102
{ACAD_REACTORS
330
C
102
}
330
C
100
AcDbDictionary
  0
DICTIONARY
  5
43
102
{ACAD_REACTORS
330
C
102
}
330
C
100
AcDbDictionary
  3
BYBLOCK
350
45
  3
BYLAYER
350
44
  3
GLOBAL
350
46
  0
DICTIONARY
  5
6B
102
{ACAD_REACTORS
330
C
102
}
330
C
100
AcDbDictionary
  3
STANDARD
350
6C
  0
DICTIONARY
  5
17
102
{ACAD_REACTORS
330
C
102
}
330
C
100
AcDbDictionary
  3
STANDARD
350
18
  0
DICTIONARY
  5
19
102
{ACAD_REACTORS
330
C
102
}
330
C
100
AcDbDictionary
  0
DICTIONARY
  5
47
102
{ACAD_REACTORS
330
C
102
}
330
C
100
AcDbDictionary
  3
A0
350
48
  3
A1
350
49
  3
A2
350
4A
  3
A3
350
4B
  3
A4
350
4C
  3
A5
350
4D
  3
A6
350
4E
  3
A7
350
4F
  3
A8
350
50
  3
A9
350
51
  3
B0
350
52
  3
B1
350
53
  3
B2
350
54
  3
B3
350
55
  3
B4
350
56
  3
B5
350
57
  3
B6
350
58
  3
B7
350
59
  3
B8
350
5A
  3
B9
350
5B
  3
C0
350
5C
  3
C1
350
5D
  3
C2
350
5E
  3
C3
350
5F
  3
C4
350
60
  3
C5
350
61
  3
C6
350
62
  3
C7
350
63
  3
C8
350
64
  3
C9
350
65
  3
D0
350
66
  3
D1
350
67
  3
D2
350
68
  0
DICTIONARY
  5
2A
102
{ACAD_REACTORS
330
C
102
}
330
C
100
AcDbDictionary
  3
2DWIREFRAME
350
2F
  3
BASIC
350
32
  3
BRIGHTEN
350
36
  3
COLORCHANGE
350
3A
  3
CONCEPTUAL
350
34
  3
DIM
350
35
  3
EDGECOLOROFF
350
3D
  3
FACEPATTERN
350
39
  3
FLAT
350
2B
  3
FLATWITHEDGES
350
2C
  3
GOURAUD
350
2D
  3
GOURAUDWITHEDGES
350
2E
  3
HIDDEN
350
31
  3
JITTEROFF
350
3B
  3
LINEPATTERN
350
38
  3
OVERHANGOFF
350
3C
  3
REALISTIC
350
33
  3
SHADED
350
42
  3
SHADED_WITH_EDGES
350
41
  3
SHADES_OF_GRAY
350
3E
  3
SKETCHY
350
3F
  3
THICKEN
350
37
  3
WIREFRAME
350
30
  3
X-RAY
350
40
  0
DICTIONARY
  5
3BC
102
{ACAD_REACTORS
330
C
102
}
330
C
100
AcDbDictionary
  3
CEPSNID
350
3C6
  3
CEPSNTYPE
350
3C5
  3
DIMSTYLEDATA
350
3DC
  3
FINGERPRINTGUID
350
3C7
  3
HYPERLINKBASE
350
3BF
  3
INSUNITS
350
3C4
  3
LAYOUTDICT
350
3C1
  3
LWETCUNION
350
3C3
  3
PLOTSETDICT
350
3C2
  3
PSVPSCALE
350
3C9
  3
PUCSBASE
350
3CC
  3
PUCSORGBACK
350
3D2
  3
PUCSORGBOTTOM
350
3CE
  3
PUCSORGFRONT
350
3D1
  3
PUCSORGLEFT
350
3CF
  3
PUCSORGRIGHT
350
3D0
  3
PUCSORGTOP
350
3CD
  3
PUCSORTHOREF
350
3CA
  3
PUCSORTHOVIEW
350
3CB
  3
STYLESHEET
350
3C0
  3
TSTACKALIGN
350
3BD
  3
TSTACKSIZE
350
3BE
  3
UCSBASE
350
3D5
  3
UCSORGBACK
350
3DB
  3
UCSORGBOTTOM
350
3D7
  3
UCSORGFRONT
350
3DA
  3
UCSORGLEFT
350
3D8
  3
UCSORGRIGHT
350
3D9
  3
UCSORGTOP
350
3D6
  3
UCSORTHOREF
350
3D3
  3
UCSORTHOVIEW
350
3D4
  3
VERSIONGUID
350
3C8
  0
DICTIONARY
  5
3DD
102
{ACAD_REACTORS
330
C
102
}
330
C
100
AcDbDictionary
  3
CANNOSCALE
350
3EA
  3
CENTEREXE
350
3E4
  3
CENTERLTYPEFILE
350
3E5
  3
CMLEADERSTYLE
350
3DF
  3
CTABLESTYLE
350
3DE
  3
DIMASSOC
350
3E6
  3
HIDETEXT
350
3E7
  3
MSLTSCALE
350
3EB
  3
PSOLHEIGHT
350
3E1
  3
PSOLWIDTH
350
3E0
  0
XRECORD
  5
3E9
102
{ACAD_REACTORS
330
3E8
102
}
330
3E8
100
AcDbXrecord
102
VTR_0.000_0.000_1.000_1.000_VISUALSTYLE
340
2F
102
VTR_0.000_0.000_1.000_1.000_GRIDDISPLAY
 70
     3
102
VTR_0.000_0.000_1.000_1.000_GRIDMAJOR
 70
     5
102
VTR_0.000_0.000_1.000_1.000_DEFAULTLIGHTING
280
     1
102
VTR_0.000_0.000_1.000_1.000_DEFAULTLIGHTINGTYPE
 70
     1
102
VTR_0.000_0.000_1.000_1.000_BRIGHTNESS
141
0.0
102
VTR_0.000_0.000_1.000_1.000_CONTRAST
142
0.0
  0
MATERIAL
  5
45
102
{ACAD_REACTORS
330
43
102
}
102
{ACAD_XDICTIONARY
360
3EE
102
}
330
43
100
AcDbMaterial
  1
BYBLOCK
  0
MATERIAL
  5
44
102
{ACAD_REACTORS
330
43
102
}
102
{ACAD_XDICTIONARY
360
3EC
102
}
330
43
100
AcDbMaterial
  1
BYLAYER
  0
MATERIAL
  5
46
102
{ACAD_REACTORS
330
43
102
}
102
{ACAD_XDICTIONARY
360
3F0
102
}
330
43
100
AcDbMaterial
  1
GLOBAL
  0
ACAD_PROXY_OBJECT
  5
6C
102
{ACAD_REACTORS
330
6B
102
}
330
6B
100
AcDbProxyObject
 90
      499
 91
      505
 93
      610
310
40901902A4063FBFFFFFE0000000000000020400000000000020404214DD185B99185C990000000000000104090141901A00000000000004100000000000000041025764000000000000039000
340
14
340
0
340
11
340
0
 94
        0
1001
ACAD_MLEADERVER
1070
     2
  0
MLINESTYLE
  5
18
102
{ACAD_REACTORS
330
17
102
}
330
17
100
AcDbMlineStyle
  2
Standard
 70
     0
  3

 62
   256
 51
90.0
 52
90.0
 71
     2
 49
0.5
 62
   256
  6
BYLAYER
 49
-0.5
 62
   256
  6
BYLAYER
  0
ACAD_PROXY_OBJECT
  5
48
102
{ACAD_REACTORS
330
47
102
}
330
47
100
AcDbProxyObject
 90
      499
 91
      503
 93
       41
310
903313A31580
  0
ACAD_PROXY_OBJECT
  5
49
102
{ACAD_REACTORS
330
47
102
}
330
47
100
AcDbProxyObject
 90
      499
 91
      503
 93
      105
310
903313A324000000000000004000
  0
ACAD_PROXY_OBJECT
  5
4A
102
{ACAD_REACTORS
330
47
102
}
330
47
100
AcDbProxyObject
 90
      499
 91
      503
 93
      105
310
903313A344000000000000104000
  0
ACAD_PROXY_OBJECT
  5
4B
102
{ACAD_REACTORS
330
47
102
}
330
47
100
AcDbProxyObject
 90
      499
 91
      503
 93
      105
310
903313A354000000000000144000
  0
ACAD_PROXY_OBJECT
  5
4C
102
{ACAD_REACTORS
330
47
102
}
330
47
100
AcDbProxyObject
 90
      499
 91
      503
 93
      105
310
903313A384000000000000204000
  0
ACAD_PROXY_OBJECT
  5
4D
102
{ACAD_REACTORS
330
47
102
}
330
47
100
AcDbProxyObject
 90
      499
 91
      503
 93
      113
310
904313A31304000000000000244000
  0
ACAD_PROXY_OBJECT
  5
4E
102
{ACAD_REACTORS
330
47
102
}
330
47
100
AcDbProxyObject
 90
      499
 91
      503
 93
      113
310
904313A31364000000000000304000
  0
ACAD_PROXY_OBJECT
  5
4F
102
{ACAD_REACTORS
330
47
102
}
330
47
100
AcDbProxyObject
 90
      499
 91
      503
 93
      113
310
904313A32304000000000000344000
  0
ACAD_PROXY_OBJECT
  5
50
102
{ACAD_REACTORS
330
47
102
}
330
47
100
AcDbProxyObject
 90
      499
 91
      503
 93
      113
310
904313A333040000000000003E4000
  0
ACAD_PROXY_OBJECT
  5
51
102
{ACAD_REACTORS
330
47
102
}
330
47
100
AcDbProxyObject
 90
      499
 91
      503
 93
      113
310
904313A34304000000000000444000
  0
ACAD_PROXY_OBJECT
  5
52
102
{ACAD_REACTORS
330
47
102
}
330
47
100
AcDbProxyObject
 90
      499
 91
      503
 93
      113
310
904313A35304000000000000494000
  0
ACAD_PROXY_OBJECT
  5
53
102
{ACAD_REACTORS
330
47
102
}
330
47
100
AcDbProxyObject
 90
      499
 91
      503
 93
      121
310
905313A3130304000000000000594000
  0
ACAD_PROXY_OBJECT
  5
54
102
{ACAD_REACTORS
330
47
102
}
330
47
100
AcDbProxyObject
 90
      499
 91
      503
 93
      105
310
903323A310000000000000010100
  0
ACAD_PROXY_OBJECT
  5
55
102
{ACAD_REACTORS
330
47
102
}
330
47
100
AcDbProxyObject
 90
      499
 91
      503
 93
      105
310
903343A310000000000000410100
  0
ACAD_PROXY_OBJECT
  5
56
102
{ACAD_REACTORS
330
47
102
}
330
47
100
AcDbProxyObject
 90
      499
 91
      503
 93
      105
310
903383A310000000000000810100
  0
ACAD_PROXY_OBJECT
  5
57
102
{ACAD_REACTORS
330
47
102
}
330
47
100
AcDbProxyObject
 90
      499
 91
      503
 93
      113
310
90431303A310000000000000910100
  0
ACAD_PROXY_OBJECT
  5
58
102
{ACAD_REACTORS
330
47
102
}
330
47
100
AcDbProxyObject
 90
      499
 91
      503
 93
      121
310
9053130303A310000000000001650100
  0
ACAD_PROXY_OBJECT
  5
59
102
{ACAD_REACTORS
330
47
102
}
330
47
100
AcDbProxyObject
 90
      499
 91
      503
 93
      257
310
90E312F31323822203D2031272D3022000000000000200FC000000000000284000
  0
ACAD_PROXY_OBJECT
  5
5A
102
{ACAD_REACTORS
330
47
102
}
330
47
100
AcDbProxyObject
 90
      499
 91
      503
 93
      249
310
90D312F363422203D2031272D3022000000000000240FC000000000000284000
  0
ACAD_PROXY_OBJECT
  5
5B
102
{ACAD_REACTORS
330
47
102
}
330
47
100
AcDbProxyObject
 90
      499
 91
      503
 93
      249
310
90D312F333222203D2031272D3022000000000000280FC000000000000284000
  0
ACAD_PROXY_OBJECT
  5
5C
102
{ACAD_REACTORS
330
47
102
}
330
47
100
AcDbProxyObject
 90
      499
 91
      503
 93
      249
310
90D312F313622203D2031272D30220000000000002C0FC000000000000284000
  0
ACAD_PROXY_OBJECT
  5
5D
102
{ACAD_REACTORS
330
47
102
}
330
47
100
AcDbProxyObject
 90
      499
 91
      503
 93
      249
310
90D332F333222203D2031272D30220000000000002E0FC000000000000284000
  0
ACAD_PROXY_OBJECT
  5
5E
102
{ACAD_REACTORS
330
47
102
}
330
47
100
AcDbProxyObject
 90
      499
 91
      503
 93
      241
310
90C312F3822203D2031272D3022000000000000300FC000000000000284000
  0
ACAD_PROXY_OBJECT
  5
5F
102
{ACAD_REACTORS
330
47
102
}
330
47
100
AcDbProxyObject
 90
      499
 91
      503
 93
      249
310
90D332F313622203D2031272D3022000000000000320FC000000000000284000
  0
ACAD_PROXY_OBJECT
  5
60
102
{ACAD_REACTORS
330
47
102
}
330
47
100
AcDbProxyObject
 90
      499
 91
      503
 93
      241
310
90C312F3422203D2031272D3022000000000000340FC000000000000284000
  0
ACAD_PROXY_OBJECT
  5
61
102
{ACAD_REACTORS
330
47
102
}
330
47
100
AcDbProxyObject
 90
      499
 91
      503
 93
      241
310
90C332F3822203D2031272D3022000000000000360FC000000000000284000
  0
ACAD_PROXY_OBJECT
  5
62
102
{ACAD_REACTORS
330
47
102
}
330
47
100
AcDbProxyObject
 90
      499
 91
      503
 93
      241
310
90C312F3222203D2031272D3022000000000000380FC000000000000284000
  0
ACAD_PROXY_OBJECT
  5
63
102
{ACAD_REACTORS
330
47
102
}
330
47
100
AcDbProxyObject
 90
      499
 91
      503
 93
      241
310
90C332F3422203D2031272D30220000000000003A0FC000000000000284000
  0
ACAD_PROXY_OBJECT
  5
64
102
{ACAD_REACTORS
330
47
102
}
330
47
100
AcDbProxyObject
 90
      499
 91
      503
 93
      161
310
90A3122203D2031272D30224000000000000284000
  0
ACAD_PROXY_OBJECT
  5
65
102
{ACAD_REACTORS
330
47
102
}
330
47
100
AcDbProxyObject
 90
      499
 91
      503
 93
      257
310
90E312D312F3222203D2031272D30220000000000003E0FC000000000000284000
  0
ACAD_PROXY_OBJECT
  5
66
102
{ACAD_REACTORS
330
47
102
}
330
47
100
AcDbProxyObject
 90
      499
 91
      503
 93
      225
310
90A3322203D2031272D302200000000000002100000000000000284000
  0
ACAD_PROXY_OBJECT
  5
67
102
{ACAD_REACTORS
330
47
102
}
330
47
100
AcDbProxyObject
 90
      499
 91
      503
 93
      225
310
90A3622203D2031272D302200000000000006100000000000000284000
  0
ACAD_PROXY_OBJECT
  5
68
102
{ACAD_REACTORS
330
47
102
}
330
47
100
AcDbProxyObject
 90
      499
 91
      503
 93
      249
310
90D31272D3022203D2031272D30220000000000000A100000000000000284000
  0
ACAD_PROXY_OBJECT
  5
2F
102
{ACAD_REACTORS
330
2A
102
}
330
2A
100
AcDbProxyObject
 90
      499
 91
      501
 93
      436
310
42CC9915DA5C99599C985B595049028333333333333E33F0000000000000F90107901411070040501600405405064090741402480A0340
1001
ACAD
1000
AcDbSavedByObjectVersion
1070
     0
  0
ACAD_PROXY_OBJECT
  5
32
102
{ACAD_REACTORS
330
2A
102
}
330
2A
100
AcDbProxyObject
 90
      499
 91
      501
 93
      388
310
4150985CDA58D07406404333333333333E33F0000000000000F90107A41107004050150841D405064090741402480A0350
1001
ACAD
1000
AcDbSavedByObjectVersion
1070
     0
  0
ACAD_PROXY_OBJECT
  5
36
102
{ACAD_REACTORS
330
2A
102
}
330
2A
100
AcDbProxyObject
 90
      499
 91
      501
 93
      428
310
42109C9A59DA1D195B90C409028333333333333E33F0000000000000F9010790141107004050150841D405064090741402480A029950
1001
ACAD
1000
AcDbSavedByObjectVersion
1070
     0
  0
ACAD_PROXY_OBJECT
  5
3A
102
{ACAD_REACTORS
330
2A
102
}
330
2A
100
AcDbProxyObject
 90
      499
 91
      501
 93
      452
310
42D0DBDB1BDC90DA185B99D95104090240C333333333333E33F0000000000000F90108901411070040501508421405064090741402480A0350
1001
ACAD
1000
AcDbSavedByObjectVersion
1070
     0
  0
ACAD_PROXY_OBJECT
  5
34
102
{ACAD_REACTORS
330
2A
102
}
330
2A
100
AcDbProxyObject
 90
      499
 91
      501
 93
      500
310
4290DBDB98D95C1D1D585B10940D028333333333333E33F0000000000000F90107902409070040501000000000018199010841D405064090740C02480A0340
1001
ACAD
1000
AcDbSavedByObjectVersion
1070
     0
  0
ACAD_PROXY_OBJECT
  5
35
102
{ACAD_REACTORS
330
2A
102
}
330
2A
100
AcDbProxyObject
 90
      499
 91
      501
 93
      412
310
40D11A5B50B409028333333333333E33F0000000000000F9010790141107004050150841D405064090741402480A02677FFFFFD0
1001
ACAD
1000
AcDbSavedByObjectVersion
1070
     0
  0
ACAD_PROXY_OBJECT
  5
3D
102
{ACAD_REACTORS
330
2A
102
}
330
2A
100
AcDbProxyObject
 90
      499
 91
      501
 93
      452
310
43115919D950DBDB1BDC93D999916409028333333333333E33F0000000000000F9010790141107004050150841D405064090741402480A0350
1001
ACAD
1000
AcDbSavedByObjectVersion
1070
     0
  0
ACAD_PROXY_OBJECT
  5
39
102
{ACAD_REACTORS
330
2A
102
}
330
2A
100
AcDbProxyObject
 90
      499
 91
      501
 93
      444
310
42D19858D95C185D1D195C9B90F409028333333333333E33F0000000000000F9010790141107004050150841D405064090741402480A0350
1001
ACAD
1000
AcDbSavedByObjectVersion
1070
     0
  0
ACAD_PROXY_OBJECT
  5
2B
102
{ACAD_REACTORS
330
2A
102
}
330
2A
100
AcDbProxyObject
 90
      499
 91
      501
 93
      380
310
41119B185D240901404333333333333E33F0000000000000F9010740A907004050150841D405064090741402480A1B50
1001
ACAD
1000
AcDbSavedByObjectVersion
1070
     0
  0
ACAD_PROXY_OBJECT
  5
2C
102
{ACAD_REACTORS
330
2A
102
}
330
2A
100
AcDbProxyObject
 90
      499
 91
      501
 93
      468
310
43519B185D15DA5D1A115919D95CD0140901404333333333333E33F0000000000000F90107409019070040501600405405064090741402480A1B50
1001
ACAD
1000
AcDbSavedByObjectVersion
1070
     0
  0
ACAD_PROXY_OBJECT
  5
2D
102
{ACAD_REACTORS
330
2A
102
}
330
2A
100
AcDbProxyObject
 90
      499
 91
      501
 93
      404
310
41D1DBDD5C985D5910240902404333333333333E33F0000000000000F9010740A9070040501641D405064090741402480A1B50
1001
ACAD
1000
AcDbSavedByObjectVersion
1070
     0
  0
ACAD_PROXY_OBJECT
  5
2E
102
{ACAD_REACTORS
330
2A
102
}
330
2A
100
AcDbProxyObject
 90
      499
 91
      501
 93
      492
310
4411DBDD5C985D5915DA5D1A115919D95CD0340902404333333333333E33F0000000000000F90107409019070040501600405405064090741402480A1B50
1001
ACAD
1000
AcDbSavedByObjectVersion
1070
     0
  0
ACAD_PROXY_OBJECT
  5
31
102
{ACAD_REACTORS
330
2A
102
}
330
2A
100
AcDbProxyObject
 90
      499
 91
      501
 93
      476
310
41921A5919195B90640502408333333333333E33F0000000000000F901079024090700405020000000000001110200405405064090740C02480A0340
1001
ACAD
1000
AcDbSavedByObjectVersion
1070
     0
  0
ACAD_PROXY_OBJECT
  5
3B
102
{ACAD_REACTORS
330
2A
102
}
330
2A
100
AcDbProxyObject
 90
      499
 91
      501
 93
      428
310
42529A5D1D195C93D999914409028333333333333E33F0000000000000F9010790141107004050150A41D405064090741402480A0350
1001
ACAD
1000
AcDbSavedByObjectVersion
1070
     0
  0
ACAD_PROXY_OBJECT
  5
38
102
{ACAD_REACTORS
330
2A
102
}
330
2A
100
AcDbProxyObject
 90
      499
 91
      501
 93
      444
310
42D31A5B995C185D1D195C9B90E409028333333333333E33F0000000000000F9010790141107004050750841D405064090741402483A0350
1001
ACAD
1000
AcDbSavedByObjectVersion
1070
     0
  0
ACAD_PROXY_OBJECT
  5
3C
102
{ACAD_REACTORS
330
2A
102
}
330
2A
100
AcDbProxyObject
 90
      499
 91
      501
 93
      444
310
42D3DD995C9A185B99D3D999915409028333333333333E33F0000000000000F9010790141107004050150941D405064090741402480A0350
1001
ACAD
1000
AcDbSavedByObjectVersion
1070
     0
  0
ACAD_PROXY_OBJECT
  5
33
102
{ACAD_REACTORS
330
2A
102
}
330
2A
100
AcDbProxyObject
 90
      499
 91
      501
 93
      428
310
425499585B1A5CDD1A58D08409038333333333333E33F0000000000000F9010740A907004050150800405405064090740C02480A1B40
1001
ACAD
1000
AcDbSavedByObjectVersion
1070
     0
  0
ACAD_PROXY_OBJECT
  5
42
102
{ACAD_REACTORS
330
2A
102
}
330
2A
100
AcDbProxyObject
 90
      499
 91
      501
 93
      420
310
4194DA1859195911B40902404333333333333E33F0000000000000F9010740A41107004050150800405405064090840C02480A0B40
1001
ACAD
1000
AcDbSavedByObjectVersion
1070
     0
  0
ACAD_PROXY_OBJECT
  5
41
102
{ACAD_REACTORS
330
2A
102
}
330
2A
100
AcDbProxyObject
 90
      499
 91
      501
 93
      516
310
4454DA18591959081DDA5D1A08195919D95CD1A40902404333333333333E33F0000000000000F901074090142907004050250800405405064090740C02480A0B40
1001
ACAD
1000
AcDbSavedByObjectVersion
1070
     0
  0
ACAD_PROXY_OBJECT
  5
3E
102
{ACAD_REACTORS
330
2A
102
}
330
2A
100
AcDbProxyObject
 90
      499
 91
      501
 93
      532
310
4394DA1859195CC81BD98811DC985E5174090240C333333333333E33F0000000000000F901079024090741D01000000000000111010841D405064090740C02480A0340
1001
ACAD
1000
AcDbSavedByObjectVersion
1070
     0
  0
ACAD_PROXY_OBJECT
  5
3F
102
{ACAD_REACTORS
330
2A
102
}
330
2A
100
AcDbProxyObject
 90
      499
 91
      501
 93
      476
310
41D4DAD95D18DA1E51840502408333333333333E33F0000000000000F901079024090741D01000000000000111010B41D405064090741802480A0340
1001
ACAD
1000
AcDbSavedByObjectVersion
1070
     0
  0
ACAD_PROXY_OBJECT
  5
37
102
{ACAD_REACTORS
330
2A
102
}
330
2A
100
AcDbProxyObject
 90
      499
 91
      501
 93
      412
310
41D51A1A58DAD95B90D409028333333333333E33F0000000000000F9010790141107004050150C41D405064090741402480A0350
1001
ACAD
1000
AcDbSavedByObjectVersion
1070
     0
  0
ACAD_PROXY_OBJECT
  5
30
102
{ACAD_REACTORS
330
2A
102
}
330
2A
100
AcDbProxyObject
 90
      499
 91
      501
 93
      420
310
4255DA5C99599C985B595059028333333333333E33F0000000000000F90107901411070040501600405405064090740C02480A0340
1001
ACAD
1000
AcDbSavedByObjectVersion
1070
     0
  0
ACAD_PROXY_OBJECT
  5
40
102
{ACAD_REACTORS
330
2A
102
}
330
2A
100
AcDbProxyObject
 90
      499
 91
      501
 93
      404
310
41560B54985E51940902404000000000000E03F0000000000000F9010740501907004050150841D405064090740C02480A1B40
1001
ACAD
1000
AcDbSavedByObjectVersion
1070
     0
  0
XRECORD
  5
3C6
102
{ACAD_REACTORS
330
3BC
102
}
330
3BC
100
AcDbXrecord
340
0
  0
XRECORD
  5
3C5
102
{ACAD_REACTORS
330
3BC
102
}
330
3BC
100
AcDbXrecord
 90
        0
  0
XRECORD
  5
3DC
102
{ACAD_REACTORS
330
3BC
102
}
330
3BC
100
AcDbXrecord
1000
DSTYLE
1002
{
1070
   340
340
11
1002
}
  0
XRECORD
  5
3C7
102
{ACAD_REACTORS
330
3BC
102
}
330
3BC
100
AcDbXrecord
  1
{ffaaeba2-b802-4bdc-af75-adcfc1bd23fb}
  0
XRECORD
  5
3BF
102
{ACAD_REACTORS
330
3BC
102
}
330
3BC
100
AcDbXrecord
  1

  0
XRECORD
  5
3C4
102
{ACAD_REACTORS
330
3BC
102
}
330
3BC
100
AcDbXrecord
 90
        4
  0
XRECORD
  5
3C1
102
{ACAD_REACTORS
330
3BC
102
}
330
3BC
100
AcDbXrecord
340
1A
  0
XRECORD
  5
3C3
102
{ACAD_REACTORS
330
3BC
102
}
330
3BC
100
AcDbXrecord
 90
    10781
  0
XRECORD
  5
3C2
102
{ACAD_REACTORS
330
3BC
102
}
330
3BC
100
AcDbXrecord
340
19
  0
XRECORD
  5
3C9
102
{ACAD_REACTORS
330
3BC
102
}
330
3BC
100
AcDbXrecord
 40
0.0
  0
XRECORD
  5
3CC
102
{ACAD_REACTORS
330
3BC
102
}
330
3BC
100
AcDbXrecord
340
0
  0
XRECORD
  5
3D2
102
{ACAD_REACTORS
330
3BC
102
}
330
3BC
100
AcDbXrecord
 10
0.0
 20
0.0
 30
0.0
  0
XRECORD
  5
3CE
102
{ACAD_REACTORS
330
3BC
102
}
330
3BC
100
AcDbXrecord
 10
0.0
 20
0.0
 30
0.0
  0
XRECORD
  5
3D1
102
{ACAD_REACTORS
330
3BC
102
}
330
3BC
100
AcDbXrecord
 10
0.0
 20
0.0
 30
0.0
  0
XRECORD
  5
3CF
102
{ACAD_REACTORS
330
3BC
102
}
330
3BC
100
AcDbXrecord
 10
0.0
 20
0.0
 30
0.0
  0
XRECORD
  5
3D0
102
{ACAD_REACTORS
330
3BC
102
}
330
3BC
100
AcDbXrecord
 10
0.0
 20
0.0
 30
0.0
  0
XRECORD
  5
3CD
102
{ACAD_REACTORS
330
3BC
102
}
330
3BC
100
AcDbXrecord
 10
0.0
 20
0.0
 30
0.0
  0
XRECORD
  5
3CA
102
{ACAD_REACTORS
330
3BC
102
}
330
3BC
100
AcDbXrecord
340
0
  0
XRECORD
  5
3CB
102
{ACAD_REACTORS
330
3BC
102
}
330
3BC
100
AcDbXrecord
 70
     0
  0
XRECORD
  5
3C0
102
{ACAD_REACTORS
330
3BC
102
}
330
3BC
100
AcDbXrecord
  1

  0
XRECORD
  5
3BD
102
{ACAD_REACTORS
330
3BC
102
}
330
3BC
100
AcDbXrecord
 90
        1
  0
XRECORD
  5
3BE
102
{ACAD_REACTORS
330
3BC
102
}
330
3BC
100
AcDbXrecord
 90
       70
  0
XRECORD
  5
3D5
102
{ACAD_REACTORS
330
3BC
102
}
330
3BC
100
AcDbXrecord
340
0
  0
XRECORD
  5
3DB
102
{ACAD_REACTORS
330
3BC
102
}
330
3BC
100
AcDbXrecord
 10
0.0
 20
0.0
 30
0.0
  0
XRECORD
  5
3D7
102
{ACAD_REACTORS
330
3BC
102
}
330
3BC
100
AcDbXrecord
 10
0.0
 20
0.0
 30
0.0
  0
XRECORD
  5
3DA
102
{ACAD_REACTORS
330
3BC
102
}
330
3BC
100
AcDbXrecord
 10
0.0
 20
0.0
 30
0.0
  0
XRECORD
  5
3D8
102
{ACAD_REACTORS
330
3BC
102
}
330
3BC
100
AcDbXrecord
 10
0.0
 20
0.0
 30
0.0
  0
XRECORD
  5
3D9
102
{ACAD_REACTORS
330
3BC
102
}
330
3BC
100
AcDbXrecord
 10
0.0
 20
0.0
 30
0.0
  0
XRECORD
  5
3D6
102
{ACAD_REACTORS
330
3BC
102
}
330
3BC
100
AcDbXrecord
 10
0.0
 20
0.0
 30
0.0
  0
XRECORD
  5
3D3
102
{ACAD_REACTORS
330
3BC
102
}
330
3BC
100
AcDbXrecord
340
0
  0
XRECORD
  5
3D4
102
{ACAD_REACTORS
330
3BC
102
}
330
3BC
100
AcDbXrecord
 70
     0
  0
XRECORD
  5
3C8
102
{ACAD_REACTORS
330
3BC
102
}
330
3BC
100
AcDbXrecord
  1
{FAEB1C32-E019-11D5-929B-00C0DF256EC4}
  0
DICTIONARYVAR
  5
3EA
102
{ACAD_REACTORS
330
3DD
102
}
330
3DD
100
DictionaryVariables
280
     0
  1
1:1
  0
DICTIONARYVAR
  5
3E4
102
{ACAD_REACTORS
330
3DD
102
}
330
3DD
100
DictionaryVariables
280
     0
  1
3.500000
  0
DICTIONARYVAR
  5
3E5
102
{ACAD_REACTORS
330
3DD
102
}
330
3DD
100
DictionaryVariables
280
     0
  1
acadiso.lin
  0
DICTIONARYVAR
  5
3DF
102
{ACAD_REACTORS
330
3DD
102
}
330
3DD
100
DictionaryVariables
280
     0
  1
Standard
  0
DICTIONARYVAR
  5
3DE
102
{ACAD_REACTORS
330
3DD
102
}
330
3DD
100
DictionaryVariables
280
     0
  1
Standard
  0
DICTIONARYVAR
  5
3E6
102
{ACAD_REACTORS
330
3DD
102
}
330
3DD
100
DictionaryVariables
280
     0
  1
2
  0
DICTIONARYVAR
  5
3E7
102
{ACAD_REACTORS
330
3DD
102
}
330
3DD
100
DictionaryVariables
280
     0
  1
1
  0
DICTIONARYVAR
  5
3EB
102
{ACAD_REACTORS
330
3DD
102
}
330
3DD
100
DictionaryVariables
280
     0
  1
1
  0
DICTIONARYVAR
  5
3E1
102
{ACAD_REACTORS
330
3DD
102
}
330
3DD
100
DictionaryVariables
280
     0
  1
80.000000
  0
DICTIONARYVAR
  5
3E0
102
{ACAD_REACTORS
330
3DD
102
}
330
3DD
100
DictionaryVariables
280
     0
  1
5.000000
  0
DICTIONARY
  5
3EE
330
45
100
AcDbDictionary
280
     1
  3
ACAD_XREC_ROUNDTRIP
360
3EF
  0
DICTIONARY
  5
3EC
330
44
100
AcDbDictionary
280
     1
  3
ACAD_XREC_ROUNDTRIP
360
3ED
  0
DICTIONARY
  5
3F0
330
46
100
AcDbDictionary
280
     1
  3
ACAD_XREC_ROUNDTRIP
360
3F1
  0
XRECORD
  5
3EF
102
{ACAD_REACTORS
330
3EE
102
}
330
3EE
100
AcDbXrecord
102
MATERIAL
148
0.0
149
0.0
149
0.0
 93
        0
 94
      127
282
     0
 72
     1
 77
     1
171
     1
175
     1
179
     1
273
     0
  0
XRECORD
  5
3ED
102
{ACAD_REACTORS
330
3EC
102
}
330
3EC
100
AcDbXrecord
102
MATERIAL
148
0.0
149
0.0
149
0.0
 93
        0
 94
      127
282
     0
 72
     1
 77
     1
171
     1
175
     1
179
     1
273
     0
  0
XRECORD
  5
3F1
102
{ACAD_REACTORS
330
3F0
102
}
330
3F0
100
AcDbXrecord
102
MATERIAL
148
0.0
149
0.0
149
0.0
 93
        0
 94
      127
282
     0
 72
     1
 77
     1
171
     1
175
     1
179
     1
273
     0
  0
ENDSEC
  0
EOF
