  0
SECTION
  2
HEADER
  9
$ACADVER
  1
AC1014
  9
$ACADMAINTVER
 70
     9
  9
$DWGCODEPAGE
  3
ANSI_932
  9
$INSBASE
 10
0.0
 20
0.0
 30
0.0
  9
$EXTMIN
 10
10.0
 20
20.0
 30
0.0
  9
$EXTMAX
 10
770.0000000000001
 20
560.0
 30
0.0
  9
$LIMMIN
 10
0.0
 20
0.0
  9
$LIMMAX
 10
420.0
 20
297.0
  9
$ORTHOMODE
 70
     0
  9
$REGENMODE
 70
     1
  9
$FILLMODE
 70
     1
  9
$QTEXTMODE
 70
     0
  9
$MIRRTEXT
 70
     1
  9
$DRAGMODE
 70
     2
  9
$LTSCALE
 40
0.2
  9
$OSMODE
 70
    37
  9
$ATTMODE
 70
     1
  9
$TEXTSIZE
 40
2.5
  9
$TRACEWID
 40
1.0
  9
$TEXTSTYLE
  7
STANDARD
  9
$CLAYER
  8
LAY-10
  9
$CELTYPE
  6
BYLAYER
  9
$CECOLOR
 62
   256
  9
$CELTSCALE
 40
1.0
  9
$DELOBJ
 70
     1
  9
$DISPSILH
 70
     0
  9
$DIMSCALE
 40
1.0
  9
$DIMASZ
 40
2.5
  9
$DIMEXO
 40
0.625
  9
$DIMDLI
 40
3.75
  9
$DIMRND
 40
0.0
  9
$DIMDLE
 40
0.0
  9
$DIMEXE
 40
1.25
  9
$DIMTP
 40
0.0
  9
$DIMTM
 40
0.0
  9
$DIMTXT
 40
2.5
  9
$DIMCEN
 40
2.5
  9
$DIMTSZ
 40
0.0
  9
$DIMTOL
 70
     0
  9
$DIMLIM
 70
     0
  9
$DIMTIH
 70
     0
  9
$DIMTOH
 70
     0
  9
$DIMSE1
 70
     0
  9
$DIMSE2
 70
     0
  9
$DIMTAD
 70
     1
  9
$DIMZIN
 70
     8
  9
$DIMBLK
  1

  9
$DIMASO
 70
     1
  9
$DIMSHO
 70
     1
  9
$DIMPOST
  1

  9
$DIMAPOST
  1

  9
$DIMALT
 70
     0
  9
$DIMALTD
 70
     3
  9
$DIMALTF
 40
0.03937007874016
  9
$DIMLFAC
 40
1.0
  9
$DIMTOFL
 70
     1
  9
$DIMTVP
 40
0.0
  9
$DIMTIX
 70
     0
  9
$DIMSOXD
 70
     0
  9
$DIMSAH
 70
     0
  9
$DIMBLK1
  1

  9
$DIMBLK2
  1

  9
$DIMSTYLE
  2
ISO-25
  9
$DIMCLRD
 70
     0
  9
$DIMCLRE
 70
     0
  9
$DIMCLRT
 70
     0
  9
$DIMTFAC
 40
1.0
  9
$DIMGAP
 40
0.625
  9
$DIMJUST
 70
     0
  9
$DIMSD1
 70
     0
  9
$DIMSD2
 70
     0
  9
$DIMTOLJ
 70
     0
  9
$DIMTZIN
 70
     8
  9
$DIMALTZ
 70
     0
  9
$DIMALTTZ
 70
     0
  9
$DIMFIT
 70
     3
  9
$DIMUPT
 70
     0
  9
$DIMUNIT
 70
     2
  9
$DIMDEC
 70
     2
  9
$DIMTDEC
 70
     2
  9
$DIMALTU
 70
     2
  9
$DIMALTTD
 70
     3
  9
$DIMTXSTY
  7
STANDARD
  9
$DIMAUNIT
 70
     0
  9
$LUNITS
 70
     2
  9
$LUPREC
 70
     4
  9
$SKETCHINC
 40
1.0
  9
$FILLETRAD
 40
10.0
  9
$AUNITS
 70
     0
  9
$AUPREC
 70
     0
  9
$MENU
  1
.
  9
$ELEVATION
 40
0.0
  9
$PELEVATION
 40
0.0
  9
$THICKNESS
 40
0.0
  9
$LIMCHECK
 70
     0
  9
$CHAMFERA
 40
0.0
  9
$CHAMFERB
 40
0.0
  9
$CHAMFERC
 40
0.0
  9
$CHAMFERD
 40
0.0
  9
$SKPOLY
 70
     0
  9
$TDCREATE
 40
2459229.338019618
  9
$TDUPDATE
 40
2459229.33802007
  9
$TDINDWG
 40
0.0000000116
  9
$TDUSRTIMER
 40
0.0000000116
  9
$USRTIMER
 70
     1
  9
$ANGBASE
 50
0.0
  9
$ANGDIR
 70
     0
  9
$PDMODE
 70
     0
  9
$PDSIZE
 40
0.0
  9
$PLINEWID
 40
0.0
  9
$COORDS
 70
     1
  9
$SPLFRAME
 70
     0
  9
$SPLINETYPE
 70
     6
  9
$SPLINESEGS
 70
     8
  9
$ATTDIA
 70
     0
  9
$ATTREQ
 70
     1
  9
$HANDLING
 70
     1
  9
$HANDSEED
  5
40F
  9
$SURFTAB1
 70
     6
  9
$SURFTAB2
 70
     6
  9
$SURFTYPE
 70
     6
  9
$SURFU
 70
     6
  9
$SURFV
 70
     6
  9
$UCSNAME
  2

  9
$UCSORG
 10
0.0
 20
0.0
 30
0.0
  9
$UCSXDIR
 10
1.0
 20
0.0
 30
0.0
  9
$UCSYDIR
 10
0.0
 20
1.0
 30
0.0
  9
$PUCSNAME
  2

  9
$PUCSORG
 10
0.0
 20
0.0
 30
0.0
  9
$PUCSXDIR
 10
1.0
 20
0.0
 30
0.0
  9
$PUCSYDIR
 10
0.0
 20
1.0
 30
0.0
  9
$USERI1
 70
     0
  9
$USERI2
 70
     0
  9
$USERI3
 70
     0
  9
$USERI4
 70
     0
  9
$USERI5
 70
     0
  9
$USERR1
 40
0.0
  9
$USERR2
 40
0.0
  9
$USERR3
 40
0.0
  9
$USERR4
 40
0.0
  9
$USERR5
 40
0.0
  9
$WORLDVIEW
 70
     1
  9
$SHADEDGE
 70
     3
  9
$SHADEDIF
 70
    70
  9
$TILEMODE
 70
     1
  9
$MAXACTVP
 70
    64
  9
$PINSBASE
 10
0.0
 20
0.0
 30
0.0
  9
$PLIMCHECK
 70
     0
  9
$PEXTMIN
 10
1.000000000000000E+20
 20
1.000000000000000E+20
 30
1.000000000000000E+20
  9
$PEXTMAX
 10
-1.000000000000000E+20
 20
-1.000000000000000E+20
 30
-1.000000000000000E+20
  9
$PLIMMIN
 10
0.0
 20
0.0
  9
$PLIMMAX
 10
420.0
 20
297.0
  9
$UNITMODE
 70
     0
  9
$VISRETAIN
 70
     1
  9
$PLINEGEN
 70
     0
  9
$PSLTSCALE
 70
     1
  9
$TREEDEPTH
 70
  3020
  9
$PICKSTYLE
 70
     1
  9
$CMLSTYLE
  2
STANDARD
  9
$CMLJUST
 70
     0
  9
$CMLSCALE
 40
20.0
  9
$PROXYGRAPHICS
 70
     1
  9
$MEASUREMENT
 70
     1
  0
ENDSEC
  0
SECTION
  2
CLASSES
  0
CLASS
  1
ACDBDICTIONARYWDFLT
  2
AcDbDictionaryWithDefault
  3
ObjectDBX Classes
 90
        0
280
     0
281
     0
  0
CLASS
  1
VISUALSTYLE
  2
AcDbVisualStyle
  3
ObjectDBX Classes
 90
     4095
280
     0
281
     0
  0
CLASS
  1
MATERIAL
  2
AcDbMaterial
  3
ObjectDBX Classes
 90
     1153
280
     0
281
     0
  0
CLASS
  1
SCALE
  2
AcDbScale
  3
ObjectDBX Classes
 90
     1153
280
     0
281
     0
  0
CLASS
  1
TABLESTYLE
  2
AcDbTableStyle
  3
ObjectDBX Classes
 90
     4095
280
     0
281
     0
  0
CLASS
  1
MLEADERSTYLE
  2
AcDbMLeaderStyle
  3
ACDB_MLEADERSTYLE_CLASS
 90
     4095
280
     0
281
     0
  0
CLASS
  1
SUN
  2
AcDbSun
  3
SCENEOE
 90
     1153
280
     0
281
     0
  0
CLASS
  1
DICTIONARYVAR
  2
AcDbDictionaryVar
  3
ObjectDBX Classes
 90
        0
280
     0
281
     0
  0
CLASS
  1
XRECORD
  2
AcDbXrecord
  3
ObjectDBX Classes
 90
        0
280
     0
281
     0
  0
CLASS
  1
LWPOLYLINE
  2
AcDbPolyline
  3
ObjectDBX Classes
 90
        0
280
     0
281
     1
  0
CLASS
  1
HATCH
  2
AcDbHatch
  3
ObjectDBX Classes
 90
        0
280
     0
281
     1
  0
CLASS
  1
ACDBPLACEHOLDER
  2
AcDbPlaceHolder
  3
ObjectDBX Classes
 90
        0
280
     0
281
     0
  0
CLASS
  1
LAYOUT
  2
AcDbLayout
  3
ObjectDBX Classes
 90
        0
280
     0
281
     0
  0
ENDSEC
  0
SECTION
  2
TABLES
  0
TABLE
  2
VPORT
  5
8
102
{ACAD_XDICTIONARY
360
404
102
}
330
0
100
AcDbSymbolTable
 70
     1
  0
VPORT
  5
29
330
8
100
AcDbSymbolTableRecord
100
AcDbViewportTableRecord
  2
*ACTIVE
 70
     0
 10
0.0
 20
0.0
 11
1.0
 21
1.0
 12
390.0000000000001
 22
290.0
 13
0.0
 23
0.0
 14
10.0
 24
10.0
 15
10.0
 25
10.0
 16
0.0
 26
0.0
 36
1.0
 17
0.0
 27
0.0
 37
0.0
 40
540.0
 41
1.407407407407408
 42
50.0
 43
0.0
 44
0.0
 50
0.0
 51
0.0
 71
     0
 72
  1000
 73
     1
 74
     3
 75
     0
 76
     0
 77
     0
 78
     0
  0
ENDTAB
  0
TABLE
  2
LTYPE
  5
5
330
0
100
AcDbSymbolTable
 70
     6
  0
LTYPE
  5
14
330
5
100
AcDbSymbolTableRecord
100
AcDbLinetypeTableRecord
  2
BYBLOCK
 70
     0
  3

 72
    65
 73
     0
 40
0.0
  0
LTYPE
  5
15
330
5
100
AcDbSymbolTableRecord
100
AcDbLinetypeTableRecord
  2
BYLAYER
 70
     0
  3

 72
    65
 73
     0
 40
0.0
  0
LTYPE
  5
16
330
5
100
AcDbSymbolTableRecord
100
AcDbLinetypeTableRecord
  2
CONTINUOUS
 70
     0
  3
Solid line
 72
    65
 73
     0
 40
0.0
  0
LTYPE
  5
6E
330
5
100
AcDbSymbolTableRecord
100
AcDbLinetypeTableRecord
  2
HIDDEN
 70
     0
  3
Hidden __ __ __ __ __ __ __ __ __ __ __ __ __ __
 72
    65
 73
     2
 40
9.524999999999999
 49
6.35
 74
     0
 49
-3.175
 74
     0
  0
LTYPE
  5
6F
330
5
100
AcDbSymbolTableRecord
100
AcDbLinetypeTableRecord
  2
CENTER
 70
     0
  3
Center ____ _ ____ _ ____ _ ____ _ ____ _ ____
 72
    65
 73
     4
 40
50.8
 49
31.75
 74
     0
 49
-6.35
 74
     0
 49
6.35
 74
     0
 49
-6.35
 74
     0
  0
LTYPE
  5
70
330
5
100
AcDbSymbolTableRecord
100
AcDbLinetypeTableRecord
  2
PHANTOM
 70
     0
  3
Phantom ______  __  __  ______  __  __  ______ 
 72
    65
 73
     6
 40
63.50000000000001
 49
31.75
 74
     0
 49
-6.35
 74
     0
 49
6.35
 74
     0
 49
-6.35
 74
     0
 49
6.35
 74
     0
 49
-6.35
 74
     0
  0
LTYPE
  5
71
330
5
100
AcDbSymbolTableRecord
100
AcDbLinetypeTableRecord
  2
ACAD_ISO06W100
 70
     0
  3
ISO long-dash triple-dot ____ ... ____ ... ____
 72
    65
 73
     8
 40
36.0
 49
24.0
 74
     0
 49
-3.0
 74
     0
 49
0.0
 74
     0
 49
-3.0
 74
     0
 49
0.0
 74
     0
 49
-3.0
 74
     0
 49
0.0
 74
     0
 49
-3.0
 74
     0
  0
LTYPE
  5
72
330
5
100
AcDbSymbolTableRecord
100
AcDbLinetypeTableRecord
  2
ACAD_ISO15W100
 70
     0
  3
ISO double-dash triple-dot __ __ . . . __ __ . .
 72
    65
 73
    10
 40
39.0
 49
12.0
 74
     0
 49
-3.0
 74
     0
 49
12.0
 74
     0
 49
-3.0
 74
     0
 49
0.0
 74
     0
 49
-3.0
 74
     0
 49
0.0
 74
     0
 49
-3.0
 74
     0
 49
0.0
 74
     0
 49
-3.0
 74
     0
  0
ENDTAB
  0
TABLE
  2
LAYER
  5
2
330
0
100
AcDbSymbolTable
 70
     5
  0
LAYER
  5
10
330
2
100
AcDbSymbolTableRecord
100
AcDbLayerTableRecord
  2
0
 70
     0
 62
     7
  6
CONTINUOUS
  0
LAYER
  5
75
330
2
100
AcDbSymbolTableRecord
100
AcDbLayerTableRecord
  2
LAY-10
 70
     0
 62
     7
  6
CONTINUOUS
  0
LAYER
  5
76
330
2
100
AcDbSymbolTableRecord
100
AcDbLayerTableRecord
  2
LAY-20
 70
     0
 62
     7
  6
CONTINUOUS
  0
LAYER
  5
77
330
2
100
AcDbSymbolTableRecord
100
AcDbLayerTableRecord
  2
LAY-255
 70
     0
 62
     7
  6
CONTINUOUS
  0
LAYER
  5
33B
330
2
100
AcDbSymbolTableRecord
100
AcDbLayerTableRecord
  2
DEFPOINTS
 70
     0
 62
     7
  6
CONTINUOUS
  0
ENDTAB
  0
TABLE
  2
STYLE
  5
3
330
0
100
AcDbSymbolTable
 70
     4
  0
STYLE
  5
11
330
3
100
AcDbSymbolTableRecord
100
AcDbTextStyleTableRecord
  2
STANDARD
 70
     0
 40
0.0
 41
1.0
 50
0.0
 71
     0
 42
2.5
  3
simplex
  4
bigfont
  0
STYLE
  5
73
330
3
100
AcDbSymbolTableRecord
100
AcDbTextStyleTableRecord
  2
EXCADSTD
 70
     0
 40
0.0
 41
1.0
 50
0.0
 71
     0
 42
2.5
  3
simplex
  4
bigfont
  0
STYLE
  5
74
330
3
100
AcDbSymbolTableRecord
100
AcDbTextStyleTableRecord
  2
EXCADVERT
 70
     4
 40
0.0
 41
1.0
 50
0.0
 71
     0
 42
2.5
  3
simplex
  4
bigfont
  0
STYLE
  5
339
330
3
100
AcDbSymbolTableRecord
100
AcDbTextStyleTableRecord
  2
EXCADDIM1
 70
     0
 40
0.0
 41
0.84
 50
0.0
 71
     0
 42
2.5
  3
simplex
  4
bigfont
  0
ENDTAB
  0
TABLE
  2
VIEW
  5
6
330
0
100
AcDbSymbolTable
 70
     0
  0
ENDTAB
  0
TABLE
  2
UCS
  5
7
330
0
100
AcDbSymbolTable
 70
     0
  0
ENDTAB
  0
TABLE
  2
APPID
  5
9
330
0
100
AcDbSymbolTable
 70
     2
  0
APPID
  5
12
330
9
100
AcDbSymbolTableRecord
100
AcDbRegAppTableRecord
  2
ACAD
 70
     0
  0
APPID
  5
40E
330
9
100
AcDbSymbolTableRecord
100
AcDbRegAppTableRecord
  2
ACAD_MLEADERVER
 70
     0
  0
ENDTAB
  0
TABLE
  2
DIMSTYLE
  5
A
330
0
100
AcDbSymbolTable
 70
     1
  0
DIMSTYLE
105
27
102
{ACAD_REACTORS
330
33A
330
348
330
355
330
361
330
36E
330
37B
330
388
330
395
330
3A2
102
}
330
A
100
AcDbSymbolTableRecord
100
AcDbDimStyleTableRecord
  2
ISO-25
 70
     0
  3

  4

  5

  6

  7

 40
1.0
 41
2.5
 42
0.625
 43
3.75
 44
1.25
 45
0.0
 46
0.0
 47
0.0
 48
0.0
140
2.5
141
2.5
142
0.0
143
0.03937007874016
144
1.0
145
0.0
146
1.0
147
0.625
 71
     0
 72
     0
 73
     0
 74
     0
 75
     0
 76
     0
 77
     1
 78
     8
170
     0
171
     3
172
     1
173
     0
174
     0
175
     0
176
     0
177
     0
178
     0
270
     2
271
     2
272
     2
273
     2
274
     3
340
11
275
     0
280
     0
281
     0
282
     0
283
     0
284
     8
285
     0
286
     0
287
     5
288
     0
  0
ENDTAB
  0
TABLE
  2
BLOCK_RECORD
  5
1
330
0
100
AcDbSymbolTable
 70
    23
  0
BLOCK_RECORD
  5
1F
330
1
100
AcDbSymbolTableRecord
100
AcDbBlockTableRecord
  2
*MODEL_SPACE
  0
BLOCK_RECORD
  5
1B
330
1
100
AcDbSymbolTableRecord
100
AcDbBlockTableRecord
  2
*PAPER_SPACE
  0
BLOCK_RECORD
  5
78
330
1
100
AcDbSymbolTableRecord
100
AcDbBlockTableRecord
  2
EX_NORM
  0
BLOCK_RECORD
  5
7B
330
1
100
AcDbSymbolTableRecord
100
AcDbBlockTableRecord
  2
EX_BNORM
  0
BLOCK_RECORD
  5
7E
330
1
100
AcDbSymbolTableRecord
100
AcDbBlockTableRecord
  2
EX_BCIR
  0
BLOCK_RECORD
  5
81
330
1
100
AcDbSymbolTableRecord
100
AcDbBlockTableRecord
  2
EX_RCIVIL
  0
BLOCK_RECORD
  5
84
330
1
100
AcDbSymbolTableRecord
100
AcDbBlockTableRecord
  2
EX_SLANT
  0
BLOCK_RECORD
  5
87
330
1
100
AcDbSymbolTableRecord
100
AcDbBlockTableRecord
  2
EX_NONE
  0
BLOCK_RECORD
  5
8A
330
1
100
AcDbSymbolTableRecord
100
AcDbBlockTableRecord
  2
EX_CIVIL
  0
BLOCK_RECORD
  5
8D
330
1
100
AcDbSymbolTableRecord
100
AcDbBlockTableRecord
  2
EX_WCIR
  0
BLOCK_RECORD
  5
90
330
1
100
AcDbSymbolTableRecord
100
AcDbBlockTableRecord
  2
EX_WCIR2
  0
BLOCK_RECORD
  5
93
330
1
100
AcDbSymbolTableRecord
100
AcDbBlockTableRecord
  2
EX_WNORM
  0
BLOCK_RECORD
  5
96
330
1
100
AcDbSymbolTableRecord
100
AcDbBlockTableRecord
  2
EX_NNORM
  0
BLOCK_RECORD
  5
99
330
1
100
AcDbSymbolTableRecord
100
AcDbBlockTableRecord
  2
EX_BBOX
  0
BLOCK_RECORD
  5
9C
330
1
100
AcDbSymbolTableRecord
100
AcDbBlockTableRecord
  2
EX_WBOX
  0
BLOCK_RECORD
  5
9F
330
1
100
AcDbSymbolTableRecord
100
AcDbBlockTableRecord
  2
EX_INTEGRAL
  0
BLOCK_RECORD
  5
33C
330
1
100
AcDbSymbolTableRecord
100
AcDbBlockTableRecord
  2
*D15
  0
BLOCK_RECORD
  5
349
330
1
100
AcDbSymbolTableRecord
100
AcDbBlockTableRecord
  2
*D16
  0
BLOCK_RECORD
  5
356
330
1
100
AcDbSymbolTableRecord
100
AcDbBlockTableRecord
  2
*D17
  0
BLOCK_RECORD
  5
362
330
1
100
AcDbSymbolTableRecord
100
AcDbBlockTableRecord
  2
*D18
  0
BLOCK_RECORD
  5
36F
330
1
100
AcDbSymbolTableRecord
100
AcDbBlockTableRecord
  2
*D19
  0
BLOCK_RECORD
  5
37C
330
1
100
AcDbSymbolTableRecord
100
AcDbBlockTableRecord
  2
*D20
  0
BLOCK_RECORD
  5
389
330
1
100
AcDbSymbolTableRecord
100
AcDbBlockTableRecord
  2
*D21
  0
BLOCK_RECORD
  5
396
330
1
100
AcDbSymbolTableRecord
100
AcDbBlockTableRecord
  2
*D22
  0
BLOCK_RECORD
  5
3A3
330
1
100
AcDbSymbolTableRecord
100
AcDbBlockTableRecord
  2
*D23
  0
ENDTAB
  0
ENDSEC
  0
SECTION
  2
BLOCKS
  0
BLOCK
  5
20
330
1F
100
AcDbEntity
  8
0
100
AcDbBlockBegin
  2
*MODEL_SPACE
 70
     0
 10
0.0
 20
0.0
 30
0.0
  3
*MODEL_SPACE
  1

  0
ENDBLK
  5
21
330
1F
100
AcDbEntity
  8
0
100
AcDbBlockEnd
  0
BLOCK
  5
1C
330
1B
100
AcDbEntity
 67
     1
  8
0
100
AcDbBlockBegin
  2
*PAPER_SPACE
 70
     0
 10
0.0
 20
0.0
 30
0.0
  3
*PAPER_SPACE
  1

  0
ENDBLK
  5
1D
330
1B
100
AcDbEntity
 67
     1
  8
0
100
AcDbBlockEnd
  0
BLOCK
  5
79
330
78
100
AcDbEntity
  8
0
100
AcDbBlockBegin
  2
EX_NORM
 70
     0
 10
0.0
 20
0.0
 30
0.0
  3
EX_NORM
  1

  0
LINE
  5
A2
330
78
100
AcDbEntity
  8
0
  6
CONTINUOUS
 62
     0
100
AcDbLine
 10
0.0
 20
0.0
 30
0.0
 11
-1.0
 21
0.0
 31
0.0
  0
LINE
  5
A3
330
78
100
AcDbEntity
  8
0
  6
CONTINUOUS
 62
     0
100
AcDbLine
 10
0.0
 20
0.0
 30
0.0
 11
-1.0
 21
0.166666667
 31
0.0
  0
LINE
  5
A4
330
78
100
AcDbEntity
  8
0
  6
CONTINUOUS
 62
     0
100
AcDbLine
 10
0.0
 20
0.0
 30
0.0
 11
-1.0
 21
-0.166666667
 31
0.0
  0
ENDBLK
  5
7A
330
78
100
AcDbEntity
  8
0
100
AcDbBlockEnd
  0
BLOCK
  5
7C
330
7B
100
AcDbEntity
  8
0
100
AcDbBlockBegin
  2
EX_BNORM
 70
     0
 10
0.0
 20
0.0
 30
0.0
  3
EX_BNORM
  1

  0
LINE
  5
A5
330
7B
100
AcDbEntity
  8
0
  6
CONTINUOUS
 62
     0
100
AcDbLine
 10
0.0
 20
0.0
 30
0.0
 11
-1.0
 21
0.0
 31
0.0
  0
LINE
  5
A6
330
7B
100
AcDbEntity
  8
0
  6
CONTINUOUS
 62
     0
100
AcDbLine
 10
0.0
 20
0.0
 30
0.0
 11
-1.0
 21
0.166666667
 31
0.0
  0
LINE
  5
A7
330
7B
100
AcDbEntity
  8
0
  6
CONTINUOUS
 62
     0
100
AcDbLine
 10
0.0
 20
0.0
 30
0.0
 11
-1.0
 21
-0.166666667
 31
0.0
  0
LINE
  5
A8
330
7B
100
AcDbEntity
  8
0
  6
CONTINUOUS
 62
     0
100
AcDbLine
 10
0.0
 20
0.0
 30
0.0
 11
-1.0
 21
0.083333333
 31
0.0
  0
LINE
  5
A9
330
7B
100
AcDbEntity
  8
0
  6
CONTINUOUS
 62
     0
100
AcDbLine
 10
0.0
 20
0.0
 30
0.0
 11
-1.0
 21
-0.083333333
 31
0.0
  0
LINE
  5
AA
330
7B
100
AcDbEntity
  8
0
  6
CONTINUOUS
 62
     0
100
AcDbLine
 10
-1.0
 20
0.166666667
 30
0.0
 11
-1.0
 21
-0.166666667
 31
0.0
  0
ENDBLK
  5
7D
330
7B
100
AcDbEntity
  8
0
100
AcDbBlockEnd
  0
BLOCK
  5
7F
330
7E
100
AcDbEntity
  8
0
100
AcDbBlockBegin
  2
EX_BCIR
 70
     0
 10
0.0
 20
0.0
 30
0.0
  3
EX_BCIR
  1

  0
LINE
  5
AB
330
7E
100
AcDbEntity
  8
0
  6
CONTINUOUS
 62
     0
100
AcDbLine
 10
0.0
 20
0.0
 30
0.0
 11
-1.0
 21
0.0
 31
0.0
  0
CIRCLE
  5
AC
330
7E
100
AcDbEntity
  8
0
  6
CONTINUOUS
 62
     0
100
AcDbCircle
 10
0.0
 20
0.0
 30
0.0
 40
0.5
  0
CIRCLE
  5
AD
330
7E
100
AcDbEntity
  8
0
  6
CONTINUOUS
 62
     0
100
AcDbCircle
 10
0.0
 20
0.0
 30
0.0
 40
0.25
  0
ENDBLK
  5
80
330
7E
100
AcDbEntity
  8
0
100
AcDbBlockEnd
  0
BLOCK
  5
82
330
81
100
AcDbEntity
  8
0
100
AcDbBlockBegin
  2
EX_RCIVIL
 70
     0
 10
0.0
 20
0.0
 30
0.0
  3
EX_RCIVIL
  1

  0
LINE
  5
AE
330
81
100
AcDbEntity
  8
0
  6
CONTINUOUS
 62
     0
100
AcDbLine
 10
0.0
 20
0.0
 30
0.0
 11
-1.0
 21
0.0
 31
0.0
  0
LINE
  5
AF
330
81
100
AcDbEntity
  8
0
  6
CONTINUOUS
 62
     0
100
AcDbLine
 10
-1.0
 20
-0.25
 30
0.0
 11
0.0
 21
-0.25
 31
0.0
  0
LINE
  5
B0
330
81
100
AcDbEntity
  8
0
  6
CONTINUOUS
 62
     0
100
AcDbLine
 10
-1.0
 20
-0.125
 30
0.0
 11
0.0
 21
-0.125
 31
0.0
  0
ENDBLK
  5
83
330
81
100
AcDbEntity
  8
0
100
AcDbBlockEnd
  0
BLOCK
  5
85
330
84
100
AcDbEntity
  8
0
100
AcDbBlockBegin
  2
EX_SLANT
 70
     0
 10
0.0
 20
0.0
 30
0.0
  3
EX_SLANT
  1

  0
LINE
  5
B1
330
84
100
AcDbEntity
  8
0
  6
CONTINUOUS
 62
     0
100
AcDbLine
 10
0.0
 20
0.0
 30
0.0
 11
-1.0
 21
0.0
 31
0.0
  0
LINE
  5
B2
330
84
100
AcDbEntity
  8
0
  6
CONTINUOUS
 62
     0
100
AcDbLine
 10
0.707106781
 20
0.707106781
 30
0.0
 11
-0.707106781
 21
-0.707106781
 31
0.0
  0
ENDBLK
  5
86
330
84
100
AcDbEntity
  8
0
100
AcDbBlockEnd
  0
BLOCK
  5
88
330
87
100
AcDbEntity
  8
0
100
AcDbBlockBegin
  2
EX_NONE
 70
     0
 10
0.0
 20
0.0
 30
0.0
  3
EX_NONE
  1

  0
LINE
  5
B3
330
87
100
AcDbEntity
  8
0
  6
CONTINUOUS
 62
     0
100
AcDbLine
 10
0.0
 20
0.0
 30
0.0
 11
-1.0
 21
0.0
 31
0.0
  0
ENDBLK
  5
89
330
87
100
AcDbEntity
  8
0
100
AcDbBlockEnd
  0
BLOCK
  5
8B
330
8A
100
AcDbEntity
  8
0
100
AcDbBlockBegin
  2
EX_CIVIL
 70
     0
 10
0.0
 20
0.0
 30
0.0
  3
EX_CIVIL
  1

  0
LINE
  5
B4
330
8A
100
AcDbEntity
  8
0
  6
CONTINUOUS
 62
     0
100
AcDbLine
 10
0.0
 20
0.0
 30
0.0
 11
-1.0
 21
0.0
 31
0.0
  0
LINE
  5
B5
330
8A
100
AcDbEntity
  8
0
  6
CONTINUOUS
 62
     0
100
AcDbLine
 10
-1.0
 20
0.25
 30
0.0
 11
0.0
 21
0.25
 31
0.0
  0
LINE
  5
B6
330
8A
100
AcDbEntity
  8
0
  6
CONTINUOUS
 62
     0
100
AcDbLine
 10
-1.0
 20
0.125
 30
0.0
 11
0.0
 21
0.125
 31
0.0
  0
ENDBLK
  5
8C
330
8A
100
AcDbEntity
  8
0
100
AcDbBlockEnd
  0
BLOCK
  5
8E
330
8D
100
AcDbEntity
  8
0
100
AcDbBlockBegin
  2
EX_WCIR
 70
     0
 10
0.0
 20
0.0
 30
0.0
  3
EX_WCIR
  1

  0
LINE
  5
B7
330
8D
100
AcDbEntity
  8
0
  6
CONTINUOUS
 62
     0
100
AcDbLine
 10
0.0
 20
0.0
 30
0.0
 11
-1.0
 21
0.0
 31
0.0
  0
CIRCLE
  5
B8
330
8D
100
AcDbEntity
  8
0
  6
CONTINUOUS
 62
     0
100
AcDbCircle
 10
0.0
 20
0.0
 30
0.0
 40
0.5
  0
ENDBLK
  5
8F
330
8D
100
AcDbEntity
  8
0
100
AcDbBlockEnd
  0
BLOCK
  5
91
330
90
100
AcDbEntity
  8
0
100
AcDbBlockBegin
  2
EX_WCIR2
 70
     0
 10
0.0
 20
0.0
 30
0.0
  3
EX_WCIR2
  1

  0
LINE
  5
B9
330
90
100
AcDbEntity
  8
0
  6
CONTINUOUS
 62
     0
100
AcDbLine
 10
-0.5
 20
0.0
 30
0.0
 11
-1.0
 21
0.0
 31
0.0
  0
CIRCLE
  5
BA
330
90
100
AcDbEntity
  8
0
  6
CONTINUOUS
 62
     0
100
AcDbCircle
 10
0.0
 20
0.0
 30
0.0
 40
0.5
  0
ENDBLK
  5
92
330
90
100
AcDbEntity
  8
0
100
AcDbBlockEnd
  0
BLOCK
  5
94
330
93
100
AcDbEntity
  8
0
100
AcDbBlockBegin
  2
EX_WNORM
 70
     0
 10
0.0
 20
0.0
 30
0.0
  3
EX_WNORM
  1

  0
LINE
  5
BB
330
93
100
AcDbEntity
  8
0
  6
CONTINUOUS
 62
     0
100
AcDbLine
 10
-1.0
 20
0.0
 30
0.0
 11
-1.0
 21
0.0
 31
0.0
  0
LINE
  5
BC
330
93
100
AcDbEntity
  8
0
  6
CONTINUOUS
 62
     0
100
AcDbLine
 10
0.0
 20
0.0
 30
0.0
 11
-1.0
 21
0.166666667
 31
0.0
  0
LINE
  5
BD
330
93
100
AcDbEntity
  8
0
  6
CONTINUOUS
 62
     0
100
AcDbLine
 10
0.0
 20
0.0
 30
0.0
 11
-1.0
 21
-0.166666667
 31
0.0
  0
LINE
  5
BE
330
93
100
AcDbEntity
  8
0
  6
CONTINUOUS
 62
     0
100
AcDbLine
 10
-1.0
 20
0.166666667
 30
0.0
 11
-1.0
 21
-0.166666667
 31
0.0
  0
ENDBLK
  5
95
330
93
100
AcDbEntity
  8
0
100
AcDbBlockEnd
  0
BLOCK
  5
97
330
96
100
AcDbEntity
  8
0
100
AcDbBlockBegin
  2
EX_NNORM
 70
     0
 10
0.0
 20
0.0
 30
0.0
  3
EX_NNORM
  1

  0
LINE
  5
BF
330
96
100
AcDbEntity
  8
0
  6
CONTINUOUS
 62
     0
100
AcDbLine
 10
0.0
 20
0.0
 30
0.0
 11
-1.0
 21
0.0
 31
0.0
  0
LINE
  5
C0
330
96
100
AcDbEntity
  8
0
  6
CONTINUOUS
 62
     0
100
AcDbLine
 10
0.0
 20
0.0
 30
0.0
 11
-1.0
 21
0.166666667
 31
0.0
  0
LINE
  5
C1
330
96
100
AcDbEntity
  8
0
  6
CONTINUOUS
 62
     0
100
AcDbLine
 10
0.0
 20
0.0
 30
0.0
 11
-1.0
 21
-0.166666667
 31
0.0
  0
LINE
  5
C2
330
96
100
AcDbEntity
  8
0
  6
CONTINUOUS
 62
     0
100
AcDbLine
 10
-1.0
 20
0.166666667
 30
0.0
 11
-1.0
 21
-0.166666667
 31
0.0
  0
ENDBLK
  5
98
330
96
100
AcDbEntity
  8
0
100
AcDbBlockEnd
  0
BLOCK
  5
9A
330
99
100
AcDbEntity
  8
0
100
AcDbBlockBegin
  2
EX_BBOX
 70
     0
 10
0.0
 20
0.0
 30
0.0
  3
EX_BBOX
  1

  0
LINE
  5
C3
330
99
100
AcDbEntity
  8
0
  6
CONTINUOUS
 62
     0
100
AcDbLine
 10
0.0
 20
0.0
 30
0.0
 11
-1.0
 21
0.0
 31
0.0
  0
LINE
  5
C4
330
99
100
AcDbEntity
  8
0
  6
CONTINUOUS
 62
     0
100
AcDbLine
 10
-0.5
 20
0.5
 30
0.0
 11
0.5
 21
0.5
 31
0.0
  0
LINE
  5
C5
330
99
100
AcDbEntity
  8
0
  6
CONTINUOUS
 62
     0
100
AcDbLine
 10
0.5
 20
0.5
 30
0.0
 11
0.5
 21
-0.5
 31
0.0
  0
LINE
  5
C6
330
99
100
AcDbEntity
  8
0
  6
CONTINUOUS
 62
     0
100
AcDbLine
 10
0.5
 20
-0.5
 30
0.0
 11
-0.5
 21
-0.5
 31
0.0
  0
LINE
  5
C7
330
99
100
AcDbEntity
  8
0
  6
CONTINUOUS
 62
     0
100
AcDbLine
 10
-0.5
 20
-0.5
 30
0.0
 11
-0.5
 21
0.5
 31
0.0
  0
LINE
  5
C8
330
99
100
AcDbEntity
  8
0
  6
CONTINUOUS
 62
     0
100
AcDbLine
 10
-0.25
 20
0.25
 30
0.0
 11
0.25
 21
0.25
 31
0.0
  0
LINE
  5
C9
330
99
100
AcDbEntity
  8
0
  6
CONTINUOUS
 62
     0
100
AcDbLine
 10
0.25
 20
0.25
 30
0.0
 11
0.25
 21
-0.25
 31
0.0
  0
LINE
  5
CA
330
99
100
AcDbEntity
  8
0
  6
CONTINUOUS
 62
     0
100
AcDbLine
 10
0.25
 20
-0.25
 30
0.0
 11
-0.25
 21
-0.25
 31
0.0
  0
LINE
  5
CB
330
99
100
AcDbEntity
  8
0
  6
CONTINUOUS
 62
     0
100
AcDbLine
 10
-0.25
 20
-0.25
 30
0.0
 11
-0.25
 21
0.25
 31
0.0
  0
ENDBLK
  5
9B
330
99
100
AcDbEntity
  8
0
100
AcDbBlockEnd
  0
BLOCK
  5
9D
330
9C
100
AcDbEntity
  8
0
100
AcDbBlockBegin
  2
EX_WBOX
 70
     0
 10
0.0
 20
0.0
 30
0.0
  3
EX_WBOX
  1

  0
LINE
  5
CC
330
9C
100
AcDbEntity
  8
0
  6
CONTINUOUS
 62
     0
100
AcDbLine
 10
-0.5
 20
0.0
 30
0.0
 11
-1.0
 21
0.0
 31
0.0
  0
LINE
  5
CD
330
9C
100
AcDbEntity
  8
0
  6
CONTINUOUS
 62
     0
100
AcDbLine
 10
-0.5
 20
0.5
 30
0.0
 11
0.5
 21
0.5
 31
0.0
  0
LINE
  5
CE
330
9C
100
AcDbEntity
  8
0
  6
CONTINUOUS
 62
     0
100
AcDbLine
 10
0.5
 20
0.5
 30
0.0
 11
0.5
 21
-0.5
 31
0.0
  0
LINE
  5
CF
330
9C
100
AcDbEntity
  8
0
  6
CONTINUOUS
 62
     0
100
AcDbLine
 10
0.5
 20
-0.5
 30
0.0
 11
-0.5
 21
-0.5
 31
0.0
  0
LINE
  5
D0
330
9C
100
AcDbEntity
  8
0
  6
CONTINUOUS
 62
     0
100
AcDbLine
 10
-0.5
 20
-0.5
 30
0.0
 11
-0.5
 21
0.5
 31
0.0
  0
ENDBLK
  5
9E
330
9C
100
AcDbEntity
  8
0
100
AcDbBlockEnd
  0
BLOCK
  5
A0
330
9F
100
AcDbEntity
  8
0
100
AcDbBlockBegin
  2
EX_INTEGRAL
 70
     0
 10
0.0
 20
0.0
 30
0.0
  3
EX_INTEGRAL
  1

  0
LINE
  5
D1
330
9F
100
AcDbEntity
  8
0
  6
CONTINUOUS
 62
     0
100
AcDbLine
 10
0.0
 20
0.0
 30
0.0
 11
-1.0
 21
0.0
 31
0.0
  0
ARC
  5
D2
330
9F
100
AcDbEntity
  8
0
  6
CONTINUOUS
 62
     0
100
AcDbCircle
 10
0.542115
 20
0.164992
 30
0.0
 40
0.56667
100
AcDbArc
 50
73.07249033629006
 51
196.9275130221199
  0
ARC
  5
D3
330
9F
100
AcDbEntity
  8
0
  6
CONTINUOUS
 62
     0
100
AcDbCircle
 10
-0.542115
 20
-0.164992
 30
0.0
 40
0.56667
100
AcDbArc
 50
253.0724869220464
 51
16.9275130559125
  0
ENDBLK
  5
A1
330
9F
100
AcDbEntity
  8
0
100
AcDbBlockEnd
  0
BLOCK
  5
33D
330
33C
100
AcDbEntity
  8
0
100
AcDbBlockBegin
  2
*D15
 70
     1
 10
0.0
 20
0.0
 30
0.0
  3
*D15
  1

  0
LINE
  5
33F
330
33C
100
AcDbEntity
  8
LAY-20
  6
CONTINUOUS
 62
     4
100
AcDbLine
 10
269.0
 20
169.00611963054
 30
0.0
 11
212.0
 21
169.00611963054
 31
0.0
  0
LINE
  5
340
330
33C
100
AcDbEntity
  8
LAY-20
  6
CONTINUOUS
 62
     4
100
AcDbLine
 10
233.8672954017
 20
192.99999999999
 30
0.0
 11
212.0
 21
192.99999999999
 31
0.0
  0
LINE
  5
341
330
33C
100
AcDbEntity
  8
LAY-20
  6
CONTINUOUS
 62
     4
100
AcDbLine
 10
215.0
 20
174.00611963054
 30
0.0
 11
215.0
 21
187.99999999999
 31
0.0
  0
INSERT
  5
342
330
33C
100
AcDbEntity
  8
LAY-20
 62
     4
100
AcDbBlockReference
  2
EX_BNORM
 10
215.0
 20
169.00611963054
 30
0.0
 41
5.0
 42
5.0
 43
5.0
 50
270.0
  0
INSERT
  5
343
330
33C
100
AcDbEntity
  8
LAY-20
 62
     4
100
AcDbBlockReference
  2
EX_BNORM
 10
215.0
 20
192.99999999999
 30
0.0
 41
5.0
 42
5.0
 43
5.0
 50
90.0
  0
MTEXT
  5
344
330
33C
100
AcDbEntity
  8
LAY-20
 62
     7
100
AcDbMText
 10
210.0
 20
181.003059815265
 30
0.0
 40
6.2362208
 41
0.0
 71
     5
 72
     1
  1
24
  7
EXCADDIM1
 11
0.0
 21
1.0
 31
0.0
  0
POINT
  5
345
330
33C
100
AcDbEntity
  8
DEFPOINTS
 62
     0
100
AcDbPoint
 10
272.0
 20
169.00611963054
 30
0.0
  0
POINT
  5
346
330
33C
100
AcDbEntity
  8
DEFPOINTS
 62
     0
100
AcDbPoint
 10
236.8672954017
 20
192.99999999999
 30
0.0
  0
POINT
  5
347
330
33C
100
AcDbEntity
  8
DEFPOINTS
 62
     0
100
AcDbPoint
 10
215.0
 20
192.99999999999
 30
0.0
  0
ENDBLK
  5
33E
330
33C
100
AcDbEntity
  8
0
100
AcDbBlockEnd
  0
BLOCK
  5
34A
330
349
100
AcDbEntity
  8
0
100
AcDbBlockBegin
  2
*D16
 70
     1
 10
0.0
 20
0.0
 30
0.0
  3
*D16
  1

  0
LINE
  5
34C
330
349
100
AcDbEntity
  8
LAY-20
  6
CONTINUOUS
 62
     4
100
AcDbLine
 10
351.0
 20
112.99999999999
 30
0.0
 11
408.0
 21
112.99999999999
 31
0.0
  0
LINE
  5
34D
330
349
100
AcDbEntity
  8
LAY-20
  6
CONTINUOUS
 62
     4
100
AcDbLine
 10
386.13270459831
 20
192.99999999999
 30
0.0
 11
408.0
 21
192.99999999999
 31
0.0
  0
LINE
  5
34E
330
349
100
AcDbEntity
  8
LAY-20
  6
CONTINUOUS
 62
     4
100
AcDbLine
 10
405.0
 20
117.99999999999
 30
0.0
 11
405.0
 21
187.99999999999
 31
0.0
  0
INSERT
  5
34F
330
349
100
AcDbEntity
  8
LAY-20
 62
     4
100
AcDbBlockReference
  2
EX_BNORM
 10
405.0
 20
112.99999999999
 30
0.0
 41
5.0
 42
5.0
 43
5.0
 50
270.0
  0
INSERT
  5
350
330
349
100
AcDbEntity
  8
LAY-20
 62
     4
100
AcDbBlockReference
  2
EX_BNORM
 10
405.0
 20
192.99999999999
 30
0.0
 41
5.0
 42
5.0
 43
5.0
 50
90.0
  0
MTEXT
  5
351
330
349
100
AcDbEntity
  8
LAY-20
 62
     7
100
AcDbMText
 10
400.0
 20
152.99999999999
 30
0.0
 40
6.2362208
 41
0.0
 71
     5
 72
     1
  1
80
  7
EXCADDIM1
 11
0.0
 21
1.0
 31
0.0
  0
POINT
  5
352
330
349
100
AcDbEntity
  8
DEFPOINTS
 62
     0
100
AcDbPoint
 10
348.0
 20
112.99999999999
 30
0.0
  0
POINT
  5
353
330
349
100
AcDbEntity
  8
DEFPOINTS
 62
     0
100
AcDbPoint
 10
383.13270459831
 20
192.99999999999
 30
0.0
  0
POINT
  5
354
330
349
100
AcDbEntity
  8
DEFPOINTS
 62
     0
100
AcDbPoint
 10
405.0
 20
192.99999999999
 30
0.0
  0
ENDBLK
  5
34B
330
349
100
AcDbEntity
  8
0
100
AcDbBlockEnd
  0
BLOCK
  5
357
330
356
100
AcDbEntity
  8
0
100
AcDbBlockBegin
  2
*D17
 70
     1
 10
0.0
 20
0.0
 30
0.0
  3
*D17
  1

  0
LINE
  5
359
330
356
100
AcDbEntity
  8
LAY-20
  6
CONTINUOUS
 62
     4
100
AcDbLine
 10
349.0
 20
249.99999999999
 30
0.0
 11
408.0
 21
249.99999999999
 31
0.0
  0
LINE
  5
35A
330
356
100
AcDbEntity
  8
LAY-20
  6
CONTINUOUS
 62
     4
100
AcDbLine
 10
405.0
 20
197.99999999999
 30
0.0
 11
405.0
 21
244.99999999999
 31
0.0
  0
INSERT
  5
35B
330
356
100
AcDbEntity
  8
LAY-20
 62
     4
100
AcDbBlockReference
  2
EX_BNORM
 10
405.0
 20
192.99999999999
 30
0.0
 41
5.0
 42
5.0
 43
5.0
 50
270.0
  0
INSERT
  5
35C
330
356
100
AcDbEntity
  8
LAY-20
 62
     4
100
AcDbBlockReference
  2
EX_BNORM
 10
405.0
 20
249.99999999999
 30
0.0
 41
5.0
 42
5.0
 43
5.0
 50
90.0
  0
MTEXT
  5
35D
330
356
100
AcDbEntity
  8
LAY-20
 62
     7
100
AcDbMText
 10
400.0
 20
221.49999999999
 30
0.0
 40
6.2362208
 41
0.0
 71
     5
 72
     1
  1
57
  7
EXCADDIM1
 11
0.0
 21
1.0
 31
0.0
  0
POINT
  5
35E
330
356
100
AcDbEntity
  8
DEFPOINTS
 62
     0
100
AcDbPoint
 10
405.0
 20
192.99999999999
 30
0.0
  0
POINT
  5
35F
330
356
100
AcDbEntity
  8
DEFPOINTS
 62
     0
100
AcDbPoint
 10
346.0
 20
249.99999999999
 30
0.0
  0
POINT
  5
360
330
356
100
AcDbEntity
  8
DEFPOINTS
 62
     0
100
AcDbPoint
 10
405.0
 20
249.99999999999
 30
0.0
  0
ENDBLK
  5
358
330
356
100
AcDbEntity
  8
0
100
AcDbBlockEnd
  0
BLOCK
  5
363
330
362
100
AcDbEntity
  8
0
100
AcDbBlockBegin
  2
*D18
 70
     1
 10
0.0
 20
0.0
 30
0.0
  3
*D18
  1

  0
LINE
  5
365
330
362
100
AcDbEntity
  8
LAY-20
  6
CONTINUOUS
 62
     4
100
AcDbLine
 10
287.5
 20
124.99999999999
 30
0.0
 11
287.5
 21
89.99999999999
 31
0.0
  0
LINE
  5
366
330
362
100
AcDbEntity
  8
LAY-20
  6
CONTINUOUS
 62
     4
100
AcDbLine
 10
332.5
 20
124.99999999999
 30
0.0
 11
332.5
 21
89.99999999999
 31
0.0
  0
LINE
  5
367
330
362
100
AcDbEntity
  8
LAY-20
  6
CONTINUOUS
 62
     4
100
AcDbLine
 10
293.5
 20
92.99999999999
 30
0.0
 11
326.5
 21
92.99999999999
 31
0.0
  0
INSERT
  5
368
330
362
100
AcDbEntity
  8
LAY-20
 62
     4
100
AcDbBlockReference
  2
EX_BNORM
 10
287.5
 20
92.99999999999
 30
0.0
 41
6.0
 42
6.0
 43
6.0
 50
180.0
  0
INSERT
  5
369
330
362
100
AcDbEntity
  8
LAY-20
 62
     4
100
AcDbBlockReference
  2
EX_BNORM
 10
332.5
 20
92.99999999999
 30
0.0
 41
6.0
 42
6.0
 43
6.0
  0
MTEXT
  5
36A
330
362
100
AcDbEntity
  8
LAY-20
 62
     7
100
AcDbMText
 10
310.0
 20
97.99999999999
 30
0.0
 40
6.2362208
 41
0.0
 71
     5
 72
     1
  1
%%c45
  7
EXCADDIM1
  0
POINT
  5
36B
330
362
100
AcDbEntity
  8
DEFPOINTS
 62
     0
100
AcDbPoint
 10
287.5
 20
127.99999999999
 30
0.0
  0
POINT
  5
36C
330
362
100
AcDbEntity
  8
DEFPOINTS
 62
     0
100
AcDbPoint
 10
332.5
 20
127.99999999999
 30
0.0
  0
POINT
  5
36D
330
362
100
AcDbEntity
  8
DEFPOINTS
 62
     0
100
AcDbPoint
 10
332.5
 20
92.99999999999
 30
0.0
  0
ENDBLK
  5
364
330
362
100
AcDbEntity
  8
0
100
AcDbBlockEnd
  0
BLOCK
  5
370
330
36F
100
AcDbEntity
  8
0
100
AcDbBlockBegin
  2
*D19
 70
     1
 10
0.0
 20
0.0
 30
0.0
  3
*D19
  1

  0
LINE
  5
372
330
36F
100
AcDbEntity
  8
LAY-20
  6
CONTINUOUS
 62
     4
100
AcDbLine
 10
286.0
 20
161.99999999999
 30
0.0
 11
286.0
 21
75.99999999999
 31
0.0
  0
LINE
  5
373
330
36F
100
AcDbEntity
  8
LAY-20
  6
CONTINUOUS
 62
     4
100
AcDbLine
 10
334.0
 20
161.99999999999
 30
0.0
 11
334.0
 21
75.99999999999
 31
0.0
  0
LINE
  5
374
330
36F
100
AcDbEntity
  8
LAY-20
  6
CONTINUOUS
 62
     4
100
AcDbLine
 10
292.0
 20
78.99999999999
 30
0.0
 11
328.0
 21
78.99999999999
 31
0.0
  0
INSERT
  5
375
330
36F
100
AcDbEntity
  8
LAY-20
 62
     4
100
AcDbBlockReference
  2
EX_BNORM
 10
286.0
 20
78.99999999999
 30
0.0
 41
6.0
 42
6.0
 43
6.0
 50
180.0
  0
INSERT
  5
376
330
36F
100
AcDbEntity
  8
LAY-20
 62
     4
100
AcDbBlockReference
  2
EX_BNORM
 10
334.0
 20
78.99999999999
 30
0.0
 41
6.0
 42
6.0
 43
6.0
  0
MTEXT
  5
377
330
36F
100
AcDbEntity
  8
LAY-20
 62
     7
100
AcDbMText
 10
310.0
 20
83.99999999999
 30
0.0
 40
6.2362208
 41
0.0
 71
     5
 72
     1
  1
%%c48
  7
EXCADDIM1
  0
POINT
  5
378
330
36F
100
AcDbEntity
  8
DEFPOINTS
 62
     0
100
AcDbPoint
 10
286.0
 20
164.99999999999
 30
0.0
  0
POINT
  5
379
330
36F
100
AcDbEntity
  8
DEFPOINTS
 62
     0
100
AcDbPoint
 10
334.0
 20
164.99999999999
 30
0.0
  0
POINT
  5
37A
330
36F
100
AcDbEntity
  8
DEFPOINTS
 62
     0
100
AcDbPoint
 10
334.0
 20
78.99999999999
 30
0.0
  0
ENDBLK
  5
371
330
36F
100
AcDbEntity
  8
0
100
AcDbBlockEnd
  0
BLOCK
  5
37D
330
37C
100
AcDbEntity
  8
0
100
AcDbBlockBegin
  2
*D20
 70
     1
 10
0.0
 20
0.0
 30
0.0
  3
*D20
  1

  0
LINE
  5
37F
330
37C
100
AcDbEntity
  8
LAY-20
  6
CONTINUOUS
 62
     4
100
AcDbLine
 10
278.02203311825
 20
252.99999999999
 30
0.0
 11
278.02203311825
 21
272.99999999999
 31
0.0
  0
LINE
  5
380
330
37C
100
AcDbEntity
  8
LAY-20
  6
CONTINUOUS
 62
     4
100
AcDbLine
 10
341.97796688175
 20
252.99999999999
 30
0.0
 11
341.97796688175
 21
272.99999999999
 31
0.0
  0
LINE
  5
381
330
37C
100
AcDbEntity
  8
LAY-20
  6
CONTINUOUS
 62
     4
100
AcDbLine
 10
284.02203311825
 20
269.99999999999
 30
0.0
 11
335.97796688175
 21
269.99999999999
 31
0.0
  0
INSERT
  5
382
330
37C
100
AcDbEntity
  8
LAY-20
 62
     4
100
AcDbBlockReference
  2
EX_BNORM
 10
278.02203311825
 20
269.99999999999
 30
0.0
 41
6.0
 42
6.0
 43
6.0
 50
180.0
  0
INSERT
  5
383
330
37C
100
AcDbEntity
  8
LAY-20
 62
     4
100
AcDbBlockReference
  2
EX_BNORM
 10
341.97796688175
 20
269.99999999999
 30
0.0
 41
6.0
 42
6.0
 43
6.0
  0
MTEXT
  5
384
330
37C
100
AcDbEntity
  8
LAY-20
 62
     7
100
AcDbMText
 10
310.0
 20
274.99999999999
 30
0.0
 40
6.2362208
 41
0.0
 71
     5
 72
     1
  1
%%c64
  7
EXCADDIM1
  0
POINT
  5
385
330
37C
100
AcDbEntity
  8
DEFPOINTS
 62
     0
100
AcDbPoint
 10
278.02203311825
 20
249.99999999999
 30
0.0
  0
POINT
  5
386
330
37C
100
AcDbEntity
  8
DEFPOINTS
 62
     0
100
AcDbPoint
 10
341.97796688175
 20
249.99999999999
 30
0.0
  0
POINT
  5
387
330
37C
100
AcDbEntity
  8
DEFPOINTS
 62
     0
100
AcDbPoint
 10
341.97796688175
 20
269.99999999999
 30
0.0
  0
ENDBLK
  5
37E
330
37C
100
AcDbEntity
  8
0
100
AcDbBlockEnd
  0
BLOCK
  5
38A
330
389
100
AcDbEntity
  8
0
100
AcDbBlockBegin
  2
*D21
 70
     1
 10
0.0
 20
0.0
 30
0.0
  3
*D21
  1

  0
LINE
  5
38C
330
389
100
AcDbEntity
  8
LAY-20
  6
CONTINUOUS
 62
     4
100
AcDbLine
 10
256.5
 20
196.8
 30
0.0
 11
256.5
 21
286.99999999999
 31
0.0
  0
LINE
  5
38D
330
389
100
AcDbEntity
  8
LAY-20
  6
CONTINUOUS
 62
     4
100
AcDbLine
 10
363.5
 20
183.0
 30
0.0
 11
363.5
 21
286.99999999999
 31
0.0
  0
LINE
  5
38E
330
389
100
AcDbEntity
  8
LAY-20
  6
CONTINUOUS
 62
     4
100
AcDbLine
 10
262.5
 20
283.99999999999
 30
0.0
 11
357.5
 21
283.99999999999
 31
0.0
  0
INSERT
  5
38F
330
389
100
AcDbEntity
  8
LAY-20
 62
     4
100
AcDbBlockReference
  2
EX_BNORM
 10
256.5
 20
283.99999999999
 30
0.0
 41
6.0
 42
6.0
 43
6.0
 50
180.0
  0
INSERT
  5
390
330
389
100
AcDbEntity
  8
LAY-20
 62
     4
100
AcDbBlockReference
  2
EX_BNORM
 10
363.5
 20
283.99999999999
 30
0.0
 41
6.0
 42
6.0
 43
6.0
  0
MTEXT
  5
391
330
389
100
AcDbEntity
  8
LAY-20
 62
     7
100
AcDbMText
 10
310.0
 20
288.99999999999
 30
0.0
 40
6.2362208
 41
0.0
 71
     5
 72
     1
  1
%%c107
  7
EXCADDIM1
  0
POINT
  5
392
330
389
100
AcDbEntity
  8
DEFPOINTS
 62
     0
100
AcDbPoint
 10
256.5
 20
193.8
 30
0.0
  0
POINT
  5
393
330
389
100
AcDbEntity
  8
DEFPOINTS
 62
     0
100
AcDbPoint
 10
363.5
 20
180.0
 30
0.0
  0
POINT
  5
394
330
389
100
AcDbEntity
  8
DEFPOINTS
 62
     0
100
AcDbPoint
 10
363.5
 20
283.99999999999
 30
0.0
  0
ENDBLK
  5
38B
330
389
100
AcDbEntity
  8
0
100
AcDbBlockEnd
  0
BLOCK
  5
397
330
396
100
AcDbEntity
  8
0
100
AcDbBlockBegin
  2
*D22
 70
     1
 10
0.0
 20
0.0
 30
0.0
  3
*D22
  1

  0
LINE
  5
399
330
396
100
AcDbEntity
  8
LAY-20
  6
CONTINUOUS
 62
     4
100
AcDbLine
 10
254.0
 20
198.99999999999
 30
0.0
 11
254.0
 21
300.99999999999
 31
0.0
  0
LINE
  5
39A
330
396
100
AcDbEntity
  8
LAY-20
  6
CONTINUOUS
 62
     4
100
AcDbLine
 10
366.0
 20
198.99999999999
 30
0.0
 11
366.0
 21
300.99999999999
 31
0.0
  0
LINE
  5
39B
330
396
100
AcDbEntity
  8
LAY-20
  6
CONTINUOUS
 62
     4
100
AcDbLine
 10
260.0
 20
297.99999999999
 30
0.0
 11
360.0
 21
297.99999999999
 31
0.0
  0
INSERT
  5
39C
330
396
100
AcDbEntity
  8
LAY-20
 62
     4
100
AcDbBlockReference
  2
EX_BNORM
 10
254.0
 20
297.99999999999
 30
0.0
 41
6.0
 42
6.0
 43
6.0
 50
180.0
  0
INSERT
  5
39D
330
396
100
AcDbEntity
  8
LAY-20
 62
     4
100
AcDbBlockReference
  2
EX_BNORM
 10
366.0
 20
297.99999999999
 30
0.0
 41
6.0
 42
6.0
 43
6.0
  0
MTEXT
  5
39E
330
396
100
AcDbEntity
  8
LAY-20
 62
     7
100
AcDbMText
 10
310.0
 20
302.99999999999
 30
0.0
 40
6.2362208
 41
0.0
 71
     5
 72
     1
  1
%%c112
  7
EXCADDIM1
  0
POINT
  5
39F
330
396
100
AcDbEntity
  8
DEFPOINTS
 62
     0
100
AcDbPoint
 10
254.0
 20
195.99999999999
 30
0.0
  0
POINT
  5
3A0
330
396
100
AcDbEntity
  8
DEFPOINTS
 62
     0
100
AcDbPoint
 10
366.0
 20
195.99999999999
 30
0.0
  0
POINT
  5
3A1
330
396
100
AcDbEntity
  8
DEFPOINTS
 62
     0
100
AcDbPoint
 10
366.0
 20
297.99999999999
 30
0.0
  0
ENDBLK
  5
398
330
396
100
AcDbEntity
  8
0
100
AcDbBlockEnd
  0
BLOCK
  5
3A4
330
3A3
100
AcDbEntity
  8
0
100
AcDbBlockBegin
  2
*D23
 70
     1
 10
0.0
 20
0.0
 30
0.0
  3
*D23
  1

  0
LINE
  5
3A6
330
3A3
100
AcDbEntity
  8
LAY-20
  6
CONTINUOUS
 62
     4
100
AcDbLine
 10
235.0
 20
191.99999999999
 30
0.0
 11
235.0
 21
314.99999999999
 31
0.0
  0
LINE
  5
3A7
330
3A3
100
AcDbEntity
  8
LAY-20
  6
CONTINUOUS
 62
     4
100
AcDbLine
 10
385.0
 20
191.99999999998
 30
0.0
 11
385.0
 21
314.99999999999
 31
0.0
  0
LINE
  5
3A8
330
3A3
100
AcDbEntity
  8
LAY-20
  6
CONTINUOUS
 62
     4
100
AcDbLine
 10
241.0
 20
311.99999999999
 30
0.0
 11
379.0
 21
311.99999999999
 31
0.0
  0
INSERT
  5
3A9
330
3A3
100
AcDbEntity
  8
LAY-20
 62
     4
100
AcDbBlockReference
  2
EX_BNORM
 10
235.0
 20
311.99999999999
 30
0.0
 41
6.0
 42
6.0
 43
6.0
 50
180.0
  0
INSERT
  5
3AA
330
3A3
100
AcDbEntity
  8
LAY-20
 62
     4
100
AcDbBlockReference
  2
EX_BNORM
 10
385.0
 20
311.99999999999
 30
0.0
 41
6.0
 42
6.0
 43
6.0
  0
MTEXT
  5
3AB
330
3A3
100
AcDbEntity
  8
LAY-20
 62
     7
100
AcDbMText
 10
310.0
 20
316.99999999999
 30
0.0
 40
6.2362208
 41
0.0
 71
     5
 72
     1
  1
%%c150
  7
EXCADDIM1
  0
POINT
  5
3AC
330
3A3
100
AcDbEntity
  8
DEFPOINTS
 62
     0
100
AcDbPoint
 10
235.0
 20
188.99999999999
 30
0.0
  0
POINT
  5
3AD
330
3A3
100
AcDbEntity
  8
DEFPOINTS
 62
     0
100
AcDbPoint
 10
385.0
 20
188.99999999998
 30
0.0
  0
POINT
  5
3AE
330
3A3
100
AcDbEntity
  8
DEFPOINTS
 62
     0
100
AcDbPoint
 10
385.0
 20
311.99999999999
 30
0.0
  0
ENDBLK
  5
3A5
330
3A3
100
AcDbEntity
  8
0
100
AcDbBlockEnd
  0
ENDSEC
  0
SECTION
  2
ENTITIES
  0
LINE
  5
D4
330
1F
100
AcDbEntity
  8
LAY-10
  6
CONTINUOUS
 62
     7
100
AcDbLine
 10
271.9999999999941
 20
166.7401153701617
 30
0.0
 11
274.2660042603691
 21
169.0061196305368
 31
0.0
  0
LINE
  5
D5
330
1F
100
AcDbEntity
  8
LAY-10
  6
CONTINUOUS
 62
     7
100
AcDbLine
 10
271.9999999999955
 20
163.9116882454169
 30
0.0
 11
274.4999999999958
 21
166.4116882454173
 31
0.0
  0
LINE
  5
D6
330
1F
100
AcDbEntity
  8
LAY-10
  6
CONTINUOUS
 62
     7
100
AcDbLine
 10
272.0000000000006
 20
161.0832611206757
 30
0.0
 11
274.4999999999933
 21
163.5832611206685
 31
0.0
  0
LINE
  5
D7
330
1F
100
AcDbEntity
  8
LAY-10
  6
CONTINUOUS
 62
     7
100
AcDbLine
 10
271.9999999999941
 20
158.254833995923
 30
0.0
 11
274.4999999999945
 21
160.7548339959235
 31
0.0
  0
LINE
  5
D8
330
1F
100
AcDbEntity
  8
LAY-10
  6
CONTINUOUS
 62
     7
100
AcDbLine
 10
271.9999999999955
 20
155.4264068711782
 30
0.0
 11
274.4999999999959
 21
157.9264068711787
 31
0.0
  0
LINE
  5
D9
330
1F
100
AcDbEntity
  8
LAY-10
  6
CONTINUOUS
 62
     7
100
AcDbLine
 10
271.9999999999968
 20
152.5979797464333
 30
0.0
 11
274.4999999999933
 21
155.0979797464298
 31
0.0
  0
LINE
  5
DA
330
1F
100
AcDbEntity
  8
LAY-10
  6
CONTINUOUS
 62
     7
100
AcDbLine
 10
271.9999999999941
 20
149.7695526216844
 30
0.0
 11
274.4999999999985
 21
152.2695526216888
 31
0.0
  0
LINE
  5
DB
330
1F
100
AcDbEntity
  8
LAY-10
  6
CONTINUOUS
 62
     7
100
AcDbLine
 10
271.9999999999955
 20
146.9411254969396
 30
0.0
 11
274.4999999999959
 21
149.4411254969401
 31
0.0
  0
LINE
  5
DC
330
1F
100
AcDbEntity
  8
LAY-10
  6
CONTINUOUS
 62
     7
100
AcDbLine
 10
271.9999999999968
 20
144.1126983721946
 30
0.0
 11
274.4999999999933
 21
146.6126983721912
 31
0.0
  0
LINE
  5
DD
330
1F
100
AcDbEntity
  8
LAY-10
  6
CONTINUOUS
 62
     7
100
AcDbLine
 10
271.9999999999981
 20
141.2842712474497
 30
0.0
 11
274.4999999999985
 21
143.7842712474501
 31
0.0
  0
LINE
  5
DE
330
1F
100
AcDbEntity
  8
LAY-10
  6
CONTINUOUS
 62
     7
100
AcDbLine
 10
271.9999999999955
 20
138.455844122701
 30
0.0
 11
274.4999999999919
 21
140.9558441226977
 31
0.0
  0
LINE
  5
DF
330
1F
100
AcDbEntity
  8
LAY-10
  6
CONTINUOUS
 62
     7
100
AcDbLine
 10
271.9999999999967
 20
135.627416997956
 30
0.0
 11
274.4999999999932
 21
138.1274169979527
 31
0.0
  0
LINE
  5
E0
330
1F
100
AcDbEntity
  8
LAY-10
  6
CONTINUOUS
 62
     7
100
AcDbLine
 10
271.9999999999981
 20
132.798989873211
 30
0.0
 11
274.4999999999985
 21
135.2989898732115
 31
0.0
  0
LINE
  5
E1
330
1F
100
AcDbEntity
  8
LAY-10
  6
CONTINUOUS
 62
     7
100
AcDbLine
 10
271.9999999999917
 20
129.9705627484586
 30
0.0
 11
274.4999999999922
 21
132.470562748459
 31
0.0
  0
LINE
  5
E2
330
1F
100
AcDbEntity
  8
LAY-10
  6
CONTINUOUS
 62
     7
100
AcDbLine
 10
271.9999999999967
 20
127.1421356237175
 30
0.0
 11
274.4999999999934
 21
129.6421356237141
 31
0.0
  0
LINE
  5
E3
330
1F
100
AcDbEntity
  8
LAY-10
  6
CONTINUOUS
 62
     7
100
AcDbLine
 10
271.9999999999981
 20
124.3137084989726
 30
0.0
 11
274.4999999999985
 21
126.8137084989729
 31
0.0
  0
LINE
  5
E4
330
1F
100
AcDbEntity
  8
LAY-10
  6
CONTINUOUS
 62
     7
100
AcDbLine
 10
271.9999999999917
 20
121.4852813742199
 30
0.0
 11
274.4999999999922
 21
123.9852813742204
 31
0.0
  0
LINE
  5
E5
330
1F
100
AcDbEntity
  8
LAY-10
  6
CONTINUOUS
 62
     7
100
AcDbLine
 10
271.9999999999968
 20
118.6568542494789
 30
0.0
 11
274.4999999999934
 21
121.1568542494754
 31
0.0
  0
LINE
  5
E6
330
1F
100
AcDbEntity
  8
LAY-10
  6
CONTINUOUS
 62
     7
100
AcDbLine
 10
271.9999999999981
 20
115.8284271247339
 30
0.0
 11
274.4999999999948
 21
118.3284271247305
 31
0.0
  0
LINE
  5
E7
330
1F
100
AcDbEntity
  8
LAY-10
  6
CONTINUOUS
 62
     7
100
AcDbLine
 10
271.9999999999993
 20
112.9999999999891
 30
0.0
 11
274.499999999996
 21
115.4999999999857
 31
0.0
  0
LINE
  5
E8
330
1F
100
AcDbEntity
  8
LAY-10
  6
CONTINUOUS
 62
     7
100
AcDbLine
 10
345.4999999999944
 20
166.740115370162
 30
0.0
 11
347.7660042603734
 21
169.0061196305411
 31
0.0
  0
LINE
  5
E9
330
1F
100
AcDbEntity
  8
LAY-10
  6
CONTINUOUS
 62
     7
100
AcDbLine
 10
345.4999999999958
 20
163.9116882454172
 30
0.0
 11
347.9999999999962
 21
166.4116882454177
 31
0.0
  0
LINE
  5
EA
330
1F
100
AcDbEntity
  8
LAY-10
  6
CONTINUOUS
 62
     7
100
AcDbLine
 10
345.4999999999932
 20
161.0832611206685
 30
0.0
 11
347.9999999999976
 21
163.5832611206727
 31
0.0
  0
LINE
  5
EB
330
1F
100
AcDbEntity
  8
LAY-10
  6
CONTINUOUS
 62
     7
100
AcDbLine
 10
345.4999999999944
 20
158.2548339959235
 30
0.0
 11
347.9999999999949
 21
160.7548339959238
 31
0.0
  0
LINE
  5
EC
330
1F
100
AcDbEntity
  8
LAY-10
  6
CONTINUOUS
 62
     7
100
AcDbLine
 10
345.4999999999958
 20
155.4264068711786
 30
0.0
 11
347.9999999999962
 21
157.926406871179
 31
0.0
  0
LINE
  5
ED
330
1F
100
AcDbEntity
  8
LAY-10
  6
CONTINUOUS
 62
     7
100
AcDbLine
 10
345.499999999997
 20
152.5979797464336
 30
0.0
 11
347.9999999999975
 21
155.0979797464341
 31
0.0
  0
LINE
  5
EE
330
1F
100
AcDbEntity
  8
LAY-10
  6
CONTINUOUS
 62
     7
100
AcDbLine
 10
345.4999999999947
 20
149.7695526216849
 30
0.0
 11
347.9999999999949
 21
152.2695526216854
 31
0.0
  0
LINE
  5
EF
330
1F
100
AcDbEntity
  8
LAY-10
  6
CONTINUOUS
 62
     7
100
AcDbLine
 10
345.4999999999958
 20
146.9411254969399
 30
0.0
 11
347.9999999999925
 21
149.4411254969366
 31
0.0
  0
LINE
  5
F0
330
1F
100
AcDbEntity
  8
LAY-10
  6
CONTINUOUS
 62
     7
100
AcDbLine
 10
345.499999999997
 20
144.1126983721952
 30
0.0
 11
347.9999999999975
 21
146.6126983721954
 31
0.0
  0
LINE
  5
F1
330
1F
100
AcDbEntity
  8
LAY-10
  6
CONTINUOUS
 62
     7
100
AcDbLine
 10
345.4999999999947
 20
141.2842712474463
 30
0.0
 11
347.9999999999989
 21
143.7842712474505
 31
0.0
  0
LINE
  5
F2
330
1F
100
AcDbEntity
  8
LAY-10
  6
CONTINUOUS
 62
     7
100
AcDbLine
 10
345.499999999992
 20
138.4558441226976
 30
0.0
 11
347.9999999999925
 21
140.955844122698
 31
0.0
  0
LINE
  5
F3
330
1F
100
AcDbEntity
  8
LAY-10
  6
CONTINUOUS
 62
     7
100
AcDbLine
 10
345.4999999999972
 20
135.6274169979565
 30
0.0
 11
347.9999999999975
 21
138.127416997957
 31
0.0
  0
LINE
  5
F4
330
1F
100
AcDbEntity
  8
LAY-10
  6
CONTINUOUS
 62
     7
100
AcDbLine
 10
345.4999999999985
 20
132.7989898732116
 30
0.0
 11
347.9999999999989
 21
135.298989873212
 31
0.0
  0
LINE
  5
F5
330
1F
100
AcDbEntity
  8
LAY-10
  6
CONTINUOUS
 62
     7
100
AcDbLine
 10
345.499999999992
 20
129.9705627484589
 30
0.0
 11
347.9999999999925
 21
132.4705627484594
 31
0.0
  0
LINE
  5
F6
330
1F
100
AcDbEntity
  8
LAY-10
  6
CONTINUOUS
 62
     7
100
AcDbLine
 10
345.4999999999972
 20
127.1421356237179
 30
0.0
 11
347.9999999999976
 21
129.6421356237183
 31
0.0
  0
LINE
  5
F7
330
1F
100
AcDbEntity
  8
LAY-10
  6
CONTINUOUS
 62
     7
100
AcDbLine
 10
345.4999999999985
 20
124.3137084989729
 30
0.0
 11
347.999999999999
 21
126.8137084989734
 31
0.0
  0
LINE
  5
F8
330
1F
100
AcDbEntity
  8
LAY-10
  6
CONTINUOUS
 62
     7
100
AcDbLine
 10
345.499999999992
 20
121.4852813742204
 30
0.0
 11
347.9999999999925
 21
123.9852813742209
 31
0.0
  0
LINE
  5
F9
330
1F
100
AcDbEntity
  8
LAY-10
  6
CONTINUOUS
 62
     7
100
AcDbLine
 10
345.4999999999972
 20
118.6568542494792
 30
0.0
 11
347.9999999999976
 21
121.1568542494797
 31
0.0
  0
LINE
  5
FA
330
1F
100
AcDbEntity
  8
LAY-10
  6
CONTINUOUS
 62
     7
100
AcDbLine
 10
345.4999999999985
 20
115.8284271247344
 30
0.0
 11
347.999999999995
 21
118.328427124731
 31
0.0
  0
LINE
  5
FB
330
1F
100
AcDbEntity
  8
LAY-10
  6
CONTINUOUS
 62
     7
100
AcDbLine
 10
345.499999999992
 20
112.9999999999818
 30
0.0
 11
347.9999999999924
 21
115.4999999999823
 31
0.0
  0
LINE
  5
FC
330
1F
100
AcDbEntity
  8
LAY-10
  6
CONTINUOUS
 62
     7
100
AcDbLine
 10
248.1896262955997
 20
191.0735454402011
 30
0.0
 11
241.000000000002
 21
192.999999999988
 31
0.0
  0
LINE
  5
FD
330
1F
100
AcDbEntity
  8
LAY-10
  6
CONTINUOUS
 62
     7
100
AcDbLine
 10
235.0000000000001
 20
185.9999999999881
 30
0.0
 11
250.361365070992
 21
185.9999999999881
 31
0.0
  0
LINE
  5
FE
330
1F
100
AcDbEntity
  8
LAY-10
  6
CONTINUOUS
 62
     7
100
AcDbLine
 10
235.0000000000001
 20
185.9999999999881
 30
0.0
 11
235.8773459080339
 21
192.1414213562253
 31
0.0
  0
LINE
  5
FF
330
1F
100
AcDbEntity
  8
LAY-10
  6
CONTINUOUS
 62
     7
100
AcDbLine
 10
239.0406101782091
 20
185.9999999999881
 30
0.0
 11
239.1872389158981
 21
187.0264011638101
 31
0.0
  0
LINE
  5
100
330
1F
100
AcDbEntity
  8
LAY-10
  6
CONTINUOUS
 62
     7
100
AcDbLine
 10
241.6847759934254
 20
188.6754101039136
 30
0.0
 11
248.9391608067615
 21
186.7316035515957
 31
0.0
  0
ARC
  5
101
330
1F
100
AcDbEntity
  8
LAY-10
  6
CONTINUOUS
 62
     7
100
AcDbCircle
 10
241.1671379032204
 20
186.7435584513355
 30
0.0
 40
2.0
100
AcDbArc
 50
74.99999999999885
 51
171.8698976458436
  0
LINE
  5
102
330
1F
100
AcDbEntity
  8
LAY-10
  6
CONTINUOUS
 62
     7
100
AcDbLine
 10
254.3695972662268
 20
185.9476640437451
 30
0.0
 11
254.0496649680417
 21
192.0523359562309
 31
0.0
  0
ARC
  5
103
330
1F
100
AcDbEntity
  8
LAY-10
  6
CONTINUOUS
 62
     7
100
AcDbCircle
 10
248.4215227165566
 20
184.7997518990175
 30
0.0
 40
2.0
100
AcDbArc
 50
3.000000000002355
 51
75.00000000000554
  0
LINE
  5
104
330
1F
100
AcDbEntity
  8
LAY-10
  6
CONTINUOUS
 62
     7
100
AcDbLine
 10
365.6304027337736
 20
185.9476640437451
 30
0.0
 11
365.9503350319586
 21
192.0523359562309
 31
0.0
  0
LINE
  5
105
330
1F
100
AcDbEntity
  8
LAY-10
  6
CONTINUOUS
 62
     7
100
AcDbLine
 10
385.0000000000002
 20
185.9999999999881
 30
0.0
 11
384.1226540919663
 21
192.1414213562253
 31
0.0
  0
LINE
  5
106
330
1F
100
AcDbEntity
  8
LAY-10
  6
CONTINUOUS
 62
     7
100
AcDbLine
 10
371.8103737044007
 20
191.0735454402011
 30
0.0
 11
378.9999999999983
 21
192.999999999988
 31
0.0
  0
LINE
  5
107
330
1F
100
AcDbEntity
  8
LAY-10
  6
CONTINUOUS
 62
     7
100
AcDbLine
 10
363.659235556136
 20
170.5948468799966
 30
0.0
 11
354.3659788393414
 21
169.781792270041
 31
0.0
  0
ARC
  5
108
330
1F
100
AcDbEntity
  8
LAY-10
  6
CONTINUOUS
 62
     7
100
AcDbCircle
 10
363.13630109965
 20
176.5720150685469
 30
0.0
 40
6.000000000000004
100
AcDbArc
 50
274.9999999999998
 51
344.8110826733599
  0
LINE
  5
109
330
1F
100
AcDbEntity
  8
LAY-10
  6
CONTINUOUS
 62
     7
100
AcDbLine
 10
287.5000000000003
 20
127.9999999999897
 30
0.0
 11
332.5000000000001
 21
127.9999999999897
 31
0.0
  0
LINE
  5
10A
330
1F
100
AcDbEntity
  8
LAY-10
  6
CONTINUOUS
 62
     7
100
AcDbLine
 10
332.5000000000001
 20
127.9999999999897
 30
0.0
 11
333.9669320486894
 21
167.1181879650329
 31
0.0
  0
LINE
  5
10B
330
1F
100
AcDbEntity
  8
LAY-10
  6
CONTINUOUS
 62
     7
100
AcDbLine
 10
329.9697415858526
 20
167.2680826073893
 30
0.0
 11
328.497188488075
 21
127.9999999999897
 31
0.0
  0
LINE
  5
10C
330
1F
100
AcDbEntity
  8
LAY-10
  6
CONTINUOUS
 62
     7
100
AcDbLine
 10
250.4187817860658
 20
184.9044238115034
 30
0.0
 11
250.8719216918229
 21
176.2579993310894
 31
0.0
  0
ARC
  5
10D
330
1F
100
AcDbEntity
  8
LAY-10
  6
CONTINUOUS
 62
     7
100
AcDbCircle
 10
256.8636989003504
 20
176.5720150685469
 30
0.0
 40
6.000000000000004
100
AcDbArc
 50
182.9999999999991
 51
265.0000000000003
  0
LINE
  5
10E
330
1F
100
AcDbEntity
  8
LAY-10
  6
CONTINUOUS
 62
     7
100
AcDbLine
 10
256.3407644438645
 20
170.5948468799966
 30
0.0
 11
285.1209260783496
 21
168.0769090025355
 31
0.0
  0
LINE
  5
10F
330
1F
100
AcDbEntity
  8
LAY-10
  6
CONTINUOUS
 62
     7
100
AcDbLine
 10
287.5000000000003
 20
127.9999999999897
 30
0.0
 11
286.0330679513111
 21
167.1181879650329
 31
0.0
  0
LINE
  5
110
330
1F
100
AcDbEntity
  8
LAY-10
  6
CONTINUOUS
 62
     7
100
AcDbLine
 10
290.0302584141479
 20
167.2680826073893
 30
0.0
 11
291.5028115119254
 21
127.9999999999897
 31
0.0
  0
LINE
  5
111
330
1F
100
AcDbEntity
  8
LAY-10
  6
CONTINUOUS
 62
     7
100
AcDbLine
 10
289.8649186575934
 20
171.677142782174
 30
0.0
 11
330.135081342407
 21
171.677142782174
 31
0.0
  0
LINE
  5
112
330
1F
100
AcDbEntity
  8
LAY-10
  6
CONTINUOUS
 62
     7
100
AcDbLine
 10
384.0826785685418
 20
175.9094642539454
 30
0.0
 11
385.0000000000003
 21
185.9999999999881
 31
0.0
  0
LINE
  5
113
330
1F
100
AcDbEntity
  8
LAY-10
  6
CONTINUOUS
 62
     7
100
AcDbLine
 10
368.9267042483284
 20
174.999999999988
 30
0.0
 11
383.0867853620741
 21
174.999999999988
 31
0.0
  0
LINE
  5
114
330
1F
100
AcDbEntity
  8
LAY-10
  6
CONTINUOUS
 62
     7
100
AcDbLine
 10
347.4684101916869
 20
169.1783332074793
 30
0.0
 11
334.8790739216508
 21
168.0769090025355
 31
0.0
  0
ARC
  5
115
330
1F
100
AcDbEntity
  8
LAY-10
  6
CONTINUOUS
 62
     7
100
AcDbCircle
 10
250.6369555539147
 20
191.9999999999881
 30
0.0
 40
1.0
100
AcDbArc
 50
90.0
 51
154.9906497524311
  0
ARC
  5
116
330
1F
100
AcDbEntity
  8
LAY-10
  6
CONTINUOUS
 62
     7
100
AcDbCircle
 10
253.0510354332872
 20
191.9999999999881
 30
0.0
 40
1.0
100
AcDbArc
 50
2.999999999992558
 51
90.0
  0
ARC
  5
117
330
1F
100
AcDbEntity
  8
LAY-10
  6
CONTINUOUS
 62
     7
100
AcDbCircle
 10
256.176963797553
 20
190.4670485968042
 30
0.0
 40
1.0
100
AcDbArc
 50
185.9808760317549
 51
270.0
  0
ARC
  5
118
330
1F
100
AcDbEntity
  8
LAY-10
  6
CONTINUOUS
 62
     7
100
AcDbCircle
 10
299.4748403345239
 20
192.6227318469945
 30
0.0
 40
0.3772681529984681
100
AcDbArc
 50
344.9638463876984
 51
151.5487802265511
  0
LINE
  5
119
330
1F
100
AcDbEntity
  8
LAY-10
  6
CONTINUOUS
 62
     7
100
AcDbLine
 10
298.3723665143857
 20
191.3799960765352
 30
0.0
 11
299.1431374838817
 21
192.8024663126345
 31
0.0
  0
ARC
  5
11A
330
1F
100
AcDbEntity
  8
LAY-10
  6
CONTINUOUS
 62
     7
100
AcDbCircle
 10
297.4931434789655
 20
191.8564064605389
 30
0.0
 40
1.0
100
AcDbArc
 50
270.0
 51
331.54878022656
  0
LINE
  5
11B
330
1F
100
AcDbEntity
  8
LAY-10
  6
CONTINUOUS
 62
     7
100
AcDbLine
 10
299.2167223274683
 20
190.2076201044857
 30
0.0
 11
299.8391917009558
 21
192.5248577388635
 31
0.0
  0
ARC
  5
11C
330
1F
100
AcDbEntity
  8
LAY-10
  6
CONTINUOUS
 62
     7
100
AcDbCircle
 10
298.2509600081717
 20
190.4670485968042
 30
0.0
 40
1.0
100
AcDbArc
 50
270.0
 51
344.963846387698
  0
ARC
  5
11D
330
1F
100
AcDbEntity
  8
LAY-10
  6
CONTINUOUS
 62
     7
100
AcDbCircle
 10
320.5251596654765
 20
192.6227318469945
 30
0.0
 40
0.3772681529984681
100
AcDbArc
 50
28.4512197734565
 51
195.0361536123017
  0
LINE
  5
11E
330
1F
100
AcDbEntity
  8
LAY-10
  6
CONTINUOUS
 62
     7
100
AcDbLine
 10
321.6276334856148
 20
191.3799960765352
 30
0.0
 11
320.8568625161188
 21
192.8024663126345
 31
0.0
  0
ARC
  5
11F
330
1F
100
AcDbEntity
  8
LAY-10
  6
CONTINUOUS
 62
     7
100
AcDbCircle
 10
322.5068565210349
 20
191.8564064605389
 30
0.0
 40
1.0
100
AcDbArc
 50
208.4512197734416
 51
270.0
  0
LINE
  5
120
330
1F
100
AcDbEntity
  8
LAY-10
  6
CONTINUOUS
 62
     7
100
AcDbLine
 10
320.7832776725321
 20
190.2076201044857
 30
0.0
 11
320.1608082990447
 21
192.5248577388635
 31
0.0
  0
ARC
  5
121
330
1F
100
AcDbEntity
  8
LAY-10
  6
CONTINUOUS
 62
     7
100
AcDbCircle
 10
321.7490399918288
 20
190.4670485968042
 30
0.0
 40
1.0
100
AcDbArc
 50
195.0361536123021
 51
270.0
  0
ARC
  5
122
330
1F
100
AcDbEntity
  8
LAY-10
  6
CONTINUOUS
 62
     7
100
AcDbCircle
 10
353.496077908076
 20
191.9999999999881
 30
0.0
 40
1.0
100
AcDbArc
 50
90.0
 51
167.3172441926826
  0
ARC
  5
123
330
1F
100
AcDbEntity
  8
LAY-10
  6
CONTINUOUS
 62
     7
100
AcDbCircle
 10
369.3630444460857
 20
191.9999999999881
 30
0.0
 40
1.0
100
AcDbArc
 50
25.00935024757049
 51
90.0
  0
ARC
  5
124
330
1F
100
AcDbEntity
  8
LAY-10
  6
CONTINUOUS
 62
     7
100
AcDbCircle
 10
366.9489645667132
 20
191.9999999999881
 30
0.0
 40
1.0
100
AcDbArc
 50
90.0
 51
177.0000000000073
  0
ARC
  5
125
330
1F
100
AcDbEntity
  8
LAY-10
  6
CONTINUOUS
 62
     7
100
AcDbCircle
 10
363.7738161371205
 20
191.9999999999881
 30
0.0
 40
1.0
100
AcDbArc
 50
90.0
 51
182.4954917247402
  0
ARC
  5
126
330
1F
100
AcDbEntity
  8
LAY-10
  6
CONTINUOUS
 62
     7
100
AcDbCircle
 10
365.9932242573456
 20
191.9999999999881
 30
0.0
 40
1.0
100
AcDbArc
 50
90.0
 51
177.0000000000074
  0
LINE
  5
127
330
1F
100
AcDbEntity
  8
LAY-10
  6
CONTINUOUS
 62
     7
100
AcDbLine
 10
364.8175929315315
 20
190.3628520871039
 30
0.0
 11
365.0054317086219
 21
192.1557750964771
 31
0.0
  0
ARC
  5
128
330
1F
100
AcDbEntity
  8
LAY-10
  6
CONTINUOUS
 62
     7
100
AcDbCircle
 10
363.8230362024475
 20
190.4670485968042
 30
0.0
 40
1.0
100
AcDbArc
 50
270.0
 51
354.0191239682451
  0
LINE
  5
129
330
1F
100
AcDbEntity
  8
LAY-10
  6
CONTINUOUS
 62
     7
100
AcDbLine
 10
362.8415737415233
 20
190.4235078189307
 30
0.0
 11
362.7747644864727
 21
191.9564592221146
 31
0.0
  0
ARC
  5
12A
330
1F
100
AcDbEntity
  8
LAY-10
  6
CONTINUOUS
 62
     7
100
AcDbCircle
 10
363.8406253921711
 20
190.4670485968042
 30
0.0
 40
1.0
100
AcDbArc
 50
182.4954917247404
 51
270.0
  0
LINE
  5
12B
330
1F
100
AcDbEntity
  8
LAY-10
  6
CONTINUOUS
 62
     7
100
AcDbLine
 10
370.6453158525051
 20
191.616705107648
 30
0.0
 11
370.2692832528788
 21
192.4227661588301
 31
0.0
  0
ARC
  5
12C
330
1F
100
AcDbEntity
  8
LAY-10
  6
CONTINUOUS
 62
     7
100
AcDbCircle
 10
371.5515546592982
 20
192.0394712664901
 30
0.0
 40
1.0
100
AcDbArc
 50
205.0093502475719
 51
285.0000000000012
  0
LINE
  5
12D
330
1F
100
AcDbEntity
  8
LAY-10
  6
CONTINUOUS
 62
     7
100
AcDbLine
 10
249.3546841474953
 20
191.616705107648
 30
0.0
 11
249.7307167471216
 21
192.4227661588301
 31
0.0
  0
ARC
  5
12E
330
1F
100
AcDbEntity
  8
LAY-10
  6
CONTINUOUS
 62
     7
100
AcDbCircle
 10
248.4484453407022
 20
192.0394712664901
 30
0.0
 40
1.0
100
AcDbArc
 50
254.9999999999953
 51
334.9906497524194
  0
ARC
  5
12F
330
1F
100
AcDbEntity
  8
LAY-10
  6
CONTINUOUS
 62
     7
100
AcDbCircle
 10
285.033770335602
 20
167.0807143044438
 30
0.0
 40
1.0
100
AcDbArc
 50
2.147585428296413
 51
85.00000000000028
  0
ARC
  5
130
330
1F
100
AcDbEntity
  8
LAY-10
  6
CONTINUOUS
 62
     7
100
AcDbCircle
 10
285.0337703356018
 20
167.0807143044438
 30
0.0
 40
5.0
100
AcDbArc
 50
2.147585428298361
 51
84.9999999999989
  0
ARC
  5
131
330
1F
100
AcDbEntity
  8
LAY-10
  6
CONTINUOUS
 62
     7
100
AcDbCircle
 10
334.9662296643986
 20
167.0807143044438
 30
0.0
 40
5.0
100
AcDbArc
 50
94.99999999999983
 51
177.8524145717017
  0
ARC
  5
132
330
1F
100
AcDbEntity
  8
LAY-10
  6
CONTINUOUS
 62
     7
100
AcDbCircle
 10
334.9662296643985
 20
167.0807143044438
 30
0.0
 40
1.0
100
AcDbArc
 50
94.99999999999979
 51
177.8524145717036
  0
ARC
  5
133
330
1F
100
AcDbEntity
  8
LAY-10
  6
CONTINUOUS
 62
     7
100
AcDbCircle
 10
364.631773199019
 20
185.9999999999881
 30
0.0
 40
1.0
100
AcDbArc
 50
270.0
 51
356.9999999999976
  0
ARC
  5
134
330
1F
100
AcDbEntity
  8
LAY-10
  6
CONTINUOUS
 62
     7
100
AcDbCircle
 10
383.0867853620741
 20
175.9999999999879
 30
0.0
 40
1.0
100
AcDbArc
 50
270.0
 51
354.8055710922653
  0
ARC
  5
135
330
1F
100
AcDbEntity
  8
LAY-10
  6
CONTINUOUS
 62
     7
100
AcDbCircle
 10
383.1327045983052
 20
191.9999999999881
 30
0.0
 40
1.0
100
AcDbArc
 50
8.130102354151399
 51
90.0
  0
ARC
  5
136
330
1F
100
AcDbEntity
  8
LAY-10
  6
CONTINUOUS
 62
     7
100
AcDbCircle
 10
236.8672954016952
 20
191.9999999999881
 30
0.0
 40
1.0
100
AcDbArc
 50
90.0
 51
171.8698976458487
  0
ARC
  5
137
330
1F
100
AcDbEntity
  8
LAY-10
  6
CONTINUOUS
 62
     7
100
AcDbCircle
 10
255.3682268009813
 20
185.9999999999881
 30
0.0
 40
1.0
100
AcDbArc
 50
183.0000000000024
 51
270.0
  0
LINE
  5
138
330
1F
100
AcDbEntity
  8
LAY-10
  6
CONTINUOUS
 62
     7
100
AcDbLine
 10
352.1471795695215
 20
161.9999999999898
 30
0.0
 11
349.8298949976451
 21
161.9999999999898
 31
0.0
  0
LINE
  5
139
330
1F
100
AcDbEntity
  8
LAY-10
  6
CONTINUOUS
 62
     7
100
AcDbLine
 10
353.1458091042762
 20
162.9476640437469
 30
0.0
 11
353.4545050473345
 21
168.8379335281921
 31
0.0
  0
ARC
  5
13A
330
1F
100
AcDbEntity
  8
LAY-10
  6
CONTINUOUS
 62
     7
100
AcDbCircle
 10
349.8298949976451
 20
162.9999999999897
 30
0.0
 40
1.0
100
AcDbArc
 50
182.9999999999926
 51
270.0
  0
ARC
  5
13B
330
1F
100
AcDbEntity
  8
LAY-10
  6
CONTINUOUS
 62
     7
100
AcDbCircle
 10
352.1471795695215
 20
162.9999999999897
 30
0.0
 40
1.0
100
AcDbArc
 50
270.0
 51
357.0000000000074
  0
ARC
  5
13C
330
1F
100
AcDbEntity
  8
LAY-10
  6
CONTINUOUS
 62
     7
100
AcDbCircle
 10
347.5555659344345
 20
168.1821385093876
 30
0.0
 40
1.0
100
AcDbArc
 50
2.999999999992558
 51
94.99999999999979
  0
ARC
  5
13D
330
1F
100
AcDbEntity
  8
LAY-10
  6
CONTINUOUS
 62
     7
100
AcDbCircle
 10
354.4531345820891
 20
168.7855975719491
 30
0.0
 40
1.0
100
AcDbArc
 50
94.9999999999999
 51
176.9999999999975
  0
LINE
  5
13E
330
1F
100
AcDbEntity
  8
LAY-10
  6
CONTINUOUS
 62
     7
100
AcDbLine
 10
257.0000000000016
 20
177.4999999999893
 30
0.0
 11
262.0000000000011
 21
177.4999999999893
 31
0.0
  0
LINE
  5
13F
330
1F
100
AcDbEntity
  8
LAY-10
  6
CONTINUOUS
 62
     7
100
AcDbLine
 10
259.5000000000002
 20
176.0566243270156
 30
0.0
 11
257.0000000000011
 21
177.4999999999893
 31
0.0
  0
LINE
  5
140
330
1F
100
AcDbEntity
  8
LAY-10
  6
CONTINUOUS
 62
     7
100
AcDbLine
 10
259.5000000000002
 20
176.056624327016
 30
0.0
 11
261.9999999999993
 21
177.4999999999893
 31
0.0
  0
LINE
  5
141
330
1F
100
AcDbEntity
  8
LAY-10
  6
CONTINUOUS
 62
     7
100
AcDbLine
 10
348.8312654628904
 20
162.9476640437469
 30
0.0
 11
348.5541954691892
 21
168.2344744656301
 31
0.0
  0
LINE
  5
142
330
1F
100
AcDbEntity
  8
LAY-10
  6
CONTINUOUS
 62
     7
100
AcDbLine
 10
265.500000000001
 20
184.9999999999879
 30
0.0
 11
266.0892076673899
 21
173.7572479610853
 31
0.0
  0
LINE
  5
143
330
1F
100
AcDbEntity
  8
LAY-10
  6
CONTINUOUS
 62
     7
100
AcDbLine
 10
266.0892076673896
 20
173.7572479610853
 30
0.0
 11
285.4695490493402
 21
172.0616877949025
 31
0.0
  0
LINE
  5
144
330
1F
100
AcDbEntity
  8
LAY-10
  6
CONTINUOUS
 62
     7
100
AcDbLine
 10
355.9200047454575
 20
173.933031269825
 30
0.0
 11
356.5000000000002
 21
184.9999999999879
 31
0.0
  0
LINE
  5
145
330
1F
100
AcDbEntity
  8
LAY-10
  6
CONTINUOUS
 62
     7
100
AcDbLine
 10
355.9200047454605
 20
173.9330312698253
 30
0.0
 11
334.5304509506603
 21
172.0616877949025
 31
0.0
  0
LINE
  5
146
330
1F
100
AcDbEntity
  8
LAY-10
  6
CONTINUOUS
 62
     7
100
AcDbLine
 10
305.4618324980802
 20
174.7311523349501
 30
0.0
 11
306.0000000000005
 21
184.9999999999879
 31
0.0
  0
LINE
  5
147
330
1F
100
AcDbEntity
  8
LAY-10
  6
CONTINUOUS
 62
     7
100
AcDbLine
 10
316.5381675019211
 20
174.7311523349501
 30
0.0
 11
316.0000000000007
 21
184.9999999999879
 31
0.0
  0
ARC
  5
148
330
1F
100
AcDbEntity
  8
LAY-10
  6
CONTINUOUS
 62
     7
100
AcDbCircle
 10
310.0
 20
201.1122609717991
 30
0.0
 40
27.17922970196895
100
AcDbArc
 50
270.0
 51
283.9194466868398
  0
ARC
  5
149
330
1F
100
AcDbEntity
  8
LAY-10
  6
CONTINUOUS
 62
     7
100
AcDbCircle
 10
310.0
 20
187.234247362203
 30
0.0
 40
13.30121609237283
100
AcDbArc
 50
250.0509491301684
 51
270.0
  0
LINE
  5
14A
330
1F
100
AcDbEntity
  8
LAY-10
  6
CONTINUOUS
 62
     7
100
AcDbLine
 10
305.4618324980802
 20
174.7311523349501
 30
0.0
 11
266.0381675019216
 21
174.7311523349501
 31
0.0
  0
LINE
  5
14B
330
1F
100
AcDbEntity
  8
LAY-10
  6
CONTINUOUS
 62
     7
100
AcDbLine
 10
355.9618324980797
 20
174.7311523349501
 30
0.0
 11
316.53816750192
 21
174.7311523349501
 31
0.0
  0
LINE
  5
14C
330
1F
100
AcDbEntity
  8
LAY-10
  6
CONTINUOUS
 62
     7
100
AcDbLine
 10
345.5
 20
169.0061196305401
 30
0.0
 11
348.0000000000003
 21
169.0061196305401
 31
0.0
  0
LINE
  5
14D
330
1F
100
AcDbEntity
  8
LAY-10
  6
CONTINUOUS
 62
     7
100
AcDbLine
 10
274.5000000000013
 20
169.0061196305401
 30
0.0
 11
271.9999999999999
 21
169.0061196305401
 31
0.0
  0
LINE
  5
14E
330
1F
100
AcDbEntity
  8
LAY-10
  6
CONTINUOUS
 62
     7
100
AcDbLine
 10
271.9999999999999
 20
112.9999999999874
 30
0.0
 11
348.0000000000003
 21
112.9999999999874
 31
0.0
  0
LINE
  5
14F
330
1F
100
AcDbEntity
  8
LAY-10
  6
CONTINUOUS
 62
     7
100
AcDbLine
 10
274.5000000000013
 20
169.0061196305401
 30
0.0
 11
274.5000000000013
 21
112.9999999999874
 31
0.0
  0
LINE
  5
150
330
1F
100
AcDbEntity
  8
LAY-10
  6
CONTINUOUS
 62
     7
100
AcDbLine
 10
271.9999999999999
 20
169.0061196305401
 30
0.0
 11
271.9999999999999
 21
112.9999999999874
 31
0.0
  0
LINE
  5
151
330
1F
100
AcDbEntity
  8
LAY-10
  6
CONTINUOUS
 62
     7
100
AcDbLine
 10
345.4999999999991
 20
169.0061196305401
 30
0.0
 11
345.4999999999991
 21
112.9999999999874
 31
0.0
  0
LINE
  5
152
330
1F
100
AcDbEntity
  8
LAY-10
  6
CONTINUOUS
 62
     7
100
AcDbLine
 10
348.0000000000003
 20
169.0061196305401
 30
0.0
 11
348.0000000000003
 21
112.9999999999874
 31
0.0
  0
ARC
  5
153
330
1F
100
AcDbEntity
  8
LAY-10
  6
CONTINUOUS
 62
     7
100
AcDbCircle
 10
361.3400319701516
 20
186.9999999999904
 30
0.0
 40
2.0
100
AcDbArc
 50
270.0
 51
357.0000000000017
  0
LINE
  5
154
330
1F
100
AcDbEntity
  8
LAY-10
  6
CONTINUOUS
 62
     7
100
AcDbLine
 10
314.0
 20
234.9999999999904
 30
0.0
 11
314.0
 21
184.9999999999904
 31
0.0
  0
LINE
  5
155
330
1F
100
AcDbEntity
  8
LAY-10
  6
CONTINUOUS
 62
     7
100
AcDbLine
 10
314.9999999999998
 20
234.9999999999904
 30
0.0
 11
314.9999999999998
 21
184.9999999999904
 31
0.0
  0
LINE
  5
156
330
1F
100
AcDbEntity
  8
LAY-10
  6
CONTINUOUS
 62
     7
100
AcDbLine
 10
314.0
 20
234.9999999999904
 30
0.0
 11
323.1935281013376
 21
234.9999999999904
 31
0.0
  0
LINE
  5
157
330
1F
100
AcDbEntity
  8
LAY-10
  6
CONTINUOUS
 62
     7
100
AcDbLine
 10
323.1935281013376
 20
234.9999999999904
 30
0.0
 11
325.8374273891509
 21
184.9999999999904
 31
0.0
  0
LINE
  5
158
330
1F
100
AcDbEntity
  8
LAY-10
  6
CONTINUOUS
 62
     7
100
AcDbLine
 10
332.9513388930719
 20
234.9999999999904
 30
0.0
 11
335.5995944234401
 21
184.9999999999904
 31
0.0
  0
LINE
  5
159
330
1F
100
AcDbEntity
  8
LAY-10
  6
CONTINUOUS
 62
     7
100
AcDbLine
 10
330.1217313316132
 20
234.9999999999904
 30
0.0
 11
336.8518610026038
 21
234.9999999999904
 31
0.0
  0
LINE
  5
15A
330
1F
100
AcDbEntity
  8
LAY-10
  6
CONTINUOUS
 62
     7
100
AcDbLine
 10
341.4312288991915
 20
184.9999999999904
 30
0.0
 11
336.8518610026038
 21
234.9999999999904
 31
0.0
  0
LINE
  5
15B
330
1F
100
AcDbEntity
  8
LAY-10
  6
CONTINUOUS
 62
     7
100
AcDbLine
 10
345.4312288991914
 20
184.9999999999904
 30
0.0
 11
340.8518610026039
 21
234.9999999999904
 31
0.0
  0
LINE
  5
15C
330
1F
100
AcDbEntity
  8
LAY-10
  6
CONTINUOUS
 62
     7
100
AcDbLine
 10
340.8518610026039
 20
234.9999999999904
 30
0.0
 11
343.5545304107319
 21
234.9999999999904
 31
0.0
  0
LINE
  5
15D
330
1F
100
AcDbEntity
  8
LAY-10
  6
CONTINUOUS
 62
     7
100
AcDbLine
 10
348.603058008576
 20
184.9999999999904
 30
0.0
 11
343.3152594329497
 21
234.9999999999904
 31
0.0
  0
LINE
  5
15E
330
1F
100
AcDbEntity
  8
LAY-10
  6
CONTINUOUS
 62
     7
100
AcDbLine
 10
315.0
 20
188.99999999999
 30
0.0
 11
325.62591544613
 21
188.99999999999
 31
0.0
  0
LINE
  5
15F
330
1F
100
AcDbEntity
  8
LAY-10
  6
CONTINUOUS
 62
     7
100
AcDbLine
 10
335.38773398101
 20
188.99999999999
 30
0.0
 11
341.0648794674598
 21
188.99999999999
 31
0.0
  0
LINE
  5
160
330
1F
100
AcDbEntity
  8
LAY-10
  6
CONTINUOUS
 62
     7
100
AcDbLine
 10
363.3372910396607
 20
186.8953280875046
 30
0.0
 11
363.4475922207134
 21
188.9999999999898
 31
0.0
  0
LINE
  5
161
330
1F
100
AcDbEntity
  8
LAY-10
  6
CONTINUOUS
 62
     7
100
AcDbLine
 10
278.0220331182525
 20
249.9999999999904
 30
0.0
 11
271.1902578259851
 21
184.9999999999904
 31
0.0
  0
LINE
  5
162
330
1F
100
AcDbEntity
  8
LAY-10
  6
CONTINUOUS
 62
     7
100
AcDbLine
 10
305.9999999999998
 20
234.9999999999904
 30
0.0
 11
305.9999999999998
 21
184.9999999999904
 31
0.0
  0
LINE
  5
163
330
1F
100
AcDbEntity
  8
LAY-10
  6
CONTINUOUS
 62
     7
100
AcDbLine
 10
305.0
 20
234.9999999999904
 30
0.0
 11
305.0
 21
184.9999999999904
 31
0.0
  0
LINE
  5
164
330
1F
100
AcDbEntity
  8
LAY-10
  6
CONTINUOUS
 62
     7
100
AcDbLine
 10
305.9999999999998
 20
234.9999999999904
 30
0.0
 11
296.8064718986623
 21
234.9999999999904
 31
0.0
  0
LINE
  5
165
330
1F
100
AcDbEntity
  8
LAY-10
  6
CONTINUOUS
 62
     7
100
AcDbLine
 10
296.8064718986623
 20
234.9999999999904
 30
0.0
 11
294.1625726108489
 21
184.9999999999904
 31
0.0
  0
LINE
  5
166
330
1F
100
AcDbEntity
  8
LAY-10
  6
CONTINUOUS
 62
     7
100
AcDbLine
 10
289.8782686683866
 20
234.9999999999904
 30
0.0
 11
287.2343693805734
 21
184.9999999999904
 31
0.0
  0
LINE
  5
167
330
1F
100
AcDbEntity
  8
LAY-10
  6
CONTINUOUS
 62
     7
100
AcDbLine
 10
287.0486611069279
 20
234.9999999999904
 30
0.0
 11
284.4004055765597
 21
184.9999999999904
 31
0.0
  0
LINE
  5
168
330
1F
100
AcDbEntity
  8
LAY-10
  6
CONTINUOUS
 62
     7
100
AcDbLine
 10
289.8782686683866
 20
234.9999999999904
 30
0.0
 11
283.148138997396
 21
234.9999999999904
 31
0.0
  0
LINE
  5
169
330
1F
100
AcDbEntity
  8
LAY-10
  6
CONTINUOUS
 62
     7
100
AcDbLine
 10
278.5687711008082
 20
184.9999999999904
 30
0.0
 11
283.148138997396
 21
234.9999999999904
 31
0.0
  0
LINE
  5
16A
330
1F
100
AcDbEntity
  8
LAY-10
  6
CONTINUOUS
 62
     7
100
AcDbLine
 10
274.5687711008082
 20
184.9999999999904
 30
0.0
 11
279.1481389973959
 21
234.9999999999904
 31
0.0
  0
LINE
  5
16B
330
1F
100
AcDbEntity
  8
LAY-10
  6
CONTINUOUS
 62
     7
100
AcDbLine
 10
279.1481389973959
 20
234.9999999999904
 30
0.0
 11
276.4454695892678
 21
234.9999999999904
 31
0.0
  0
LINE
  5
16C
330
1F
100
AcDbEntity
  8
LAY-10
  6
CONTINUOUS
 62
     7
100
AcDbLine
 10
271.3969419914237
 20
184.9999999999904
 30
0.0
 11
276.68474056705
 21
234.9999999999904
 31
0.0
  0
LINE
  5
16D
330
1F
100
AcDbEntity
  8
LAY-10
  6
CONTINUOUS
 62
     7
100
AcDbLine
 10
304.9999999999999
 20
188.99999999999
 30
0.0
 11
294.3740845538699
 21
188.99999999999
 31
0.0
  0
LINE
  5
16E
330
1F
100
AcDbEntity
  8
LAY-10
  6
CONTINUOUS
 62
     7
100
AcDbLine
 10
284.6122660189898
 20
188.99999999999
 30
0.0
 11
278.9351205325399
 21
188.99999999999
 31
0.0
  0
LINE
  5
16F
330
1F
100
AcDbEntity
  8
LAY-10
  6
CONTINUOUS
 62
     7
100
AcDbLine
 10
267.9565064722235
 20
192.4999999999896
 30
0.0
 11
273.9999999999984
 21
249.9999999999904
 31
0.0
  0
LINE
  5
170
330
1F
100
AcDbEntity
  8
LAY-10
  6
CONTINUOUS
 62
     7
100
AcDbLine
 10
256.7358350067797
 20
192.4999999999908
 30
0.0
 11
267.9565064722239
 21
192.4999999999908
 31
0.0
  0
ARC
  5
171
330
1F
100
AcDbEntity
  8
LAY-10
  6
CONTINUOUS
 62
     7
100
AcDbCircle
 10
267.2909874780509
 20
186.9999999999904
 30
0.0
 40
2.0
100
AcDbArc
 50
182.9999999999983
 51
270.0
  0
LINE
  5
172
330
1F
100
AcDbEntity
  8
LAY-10
  6
CONTINUOUS
 62
     7
100
AcDbLine
 10
265.2937284085417
 20
186.8953280875046
 30
0.0
 11
264.9999999999984
 21
192.4999999999908
 31
0.0
  0
LINE
  5
173
330
1F
100
AcDbEntity
  8
LAY-10
  6
CONTINUOUS
 62
     7
100
AcDbLine
 10
273.9999999999985
 20
249.9999999999904
 30
0.0
 11
346.0000000000013
 21
249.9999999999904
 31
0.0
  0
LINE
  5
174
330
1F
100
AcDbEntity
  8
LAY-10
  6
CONTINUOUS
 62
     7
100
AcDbLine
 10
363.4475922207134
 20
188.9999999999904
 30
0.0
 11
352.41135835121
 21
188.9999999999904
 31
0.0
  0
ARC
  5
175
330
1F
100
AcDbEntity
  8
LAY-10
  6
CONTINUOUS
 62
     7
100
AcDbCircle
 10
309.9999999999999
 20
242.4999999999904
 30
0.0
 40
3.000000000000002
100
AcDbArc
 50
90.0
 51
270.0
  0
LINE
  5
176
330
1F
100
AcDbEntity
  8
LAY-10
  6
CONTINUOUS
 62
     7
100
AcDbLine
 10
340.5000000000026
 20
239.4999999999898
 30
0.0
 11
340.5000000000026
 21
245.4999999999901
 31
0.0
  0
LINE
  5
177
330
1F
100
AcDbEntity
  8
LAY-10
  6
CONTINUOUS
 62
     7
100
AcDbLine
 10
352.0000000000006
 20
239.4999999999898
 30
0.0
 11
340.5000000000026
 21
239.4999999999898
 31
0.0
  0
LINE
  5
178
330
1F
100
AcDbEntity
  8
LAY-10
  6
CONTINUOUS
 62
     7
100
AcDbLine
 10
340.0000000000026
 20
244.9999999999896
 30
0.0
 11
340.0000000000026
 21
239.9999999999896
 31
0.0
  0
LINE
  5
179
330
1F
100
AcDbEntity
  8
LAY-10
  6
CONTINUOUS
 62
     7
100
AcDbLine
 10
352.0000000000006
 20
245.4999999999901
 30
0.0
 11
340.5000000000026
 21
245.4999999999901
 31
0.0
  0
LINE
  5
17A
330
1F
100
AcDbEntity
  8
LAY-10
  6
CONTINUOUS
 62
     7
100
AcDbLine
 10
340.0000000000026
 20
239.9999999999896
 30
0.0
 11
340.5000000000026
 21
239.4999999999898
 31
0.0
  0
LINE
  5
17B
330
1F
100
AcDbEntity
  8
LAY-10
  6
CONTINUOUS
 62
     7
100
AcDbLine
 10
340.0000000000026
 20
244.9999999999896
 30
0.0
 11
340.5000000000026
 21
245.4999999999901
 31
0.0
  0
ARC
  5
17C
330
1F
100
AcDbEntity
  8
LAY-10
  6
CONTINUOUS
 62
     7
100
AcDbCircle
 10
349.7000000000006
 20
242.4999999999898
 30
0.0
 40
6.300000000000004
100
AcDbArc
 50
5.465023799909182
 51
38.68218745349193
  0
ARC
  5
17D
330
1F
100
AcDbEntity
  8
LAY-10
  6
CONTINUOUS
 62
     7
100
AcDbCircle
 10
349.7000000000006
 20
242.4999999999898
 30
0.0
 40
6.300000000000004
100
AcDbArc
 50
321.3178125464972
 51
354.5349762000992
  0
LINE
  5
17E
330
1F
100
AcDbEntity
  8
LAY-10
  6
CONTINUOUS
 62
     7
100
AcDbLine
 10
355.9713634881006
 20
243.0999999999896
 30
0.0
 11
353.5000000000006
 21
243.0999999999896
 31
0.0
  0
LINE
  5
17F
330
1F
100
AcDbEntity
  8
LAY-10
  6
CONTINUOUS
 62
     7
100
AcDbLine
 10
353.5000000000006
 20
241.8999999999893
 30
0.0
 11
353.5000000000006
 21
243.0999999999896
 31
0.0
  0
LINE
  5
180
330
1F
100
AcDbEntity
  8
LAY-10
  6
CONTINUOUS
 62
     7
100
AcDbLine
 10
355.9713634881006
 20
241.8999999999893
 30
0.0
 11
353.5000000000006
 21
241.8999999999893
 31
0.0
  0
LINE
  5
181
330
1F
100
AcDbEntity
  8
LAY-10
  6
CONTINUOUS
 62
     7
100
AcDbLine
 10
352.0000000000006
 20
237.2518652430896
 30
0.0
 11
352.0000000000006
 21
247.7481347568899
 31
0.0
  0
ARC
  5
182
330
1F
100
AcDbEntity
  8
LAY-10
  6
CONTINUOUS
 62
     7
100
AcDbCircle
 10
351.8857492994003
 20
240.7499999999897
 30
0.0
 40
3.500000000000003
100
AcDbArc
 50
271.8706417306037
 51
321.3178125464972
  0
ARC
  5
183
330
1F
100
AcDbEntity
  8
LAY-10
  6
CONTINUOUS
 62
     7
100
AcDbCircle
 10
351.8857492994003
 20
244.2499999999898
 30
0.0
 40
3.500000000000003
100
AcDbArc
 50
38.68218745349422
 51
88.12935826941039
  0
LINE
  5
184
330
1F
100
AcDbEntity
  8
LAY-10
  6
CONTINUOUS
 62
     7
100
AcDbLine
 10
341.9779668817473
 20
249.9999999999904
 30
0.0
 11
342.5034880580756
 21
244.9999999999896
 31
0.0
  0
LINE
  5
185
330
1F
100
AcDbEntity
  8
LAY-10
  6
CONTINUOUS
 62
     7
100
AcDbLine
 10
343.0290092344039
 20
239.9999999999896
 30
0.0
 11
348.8097421740146
 21
184.9999999999904
 31
0.0
  0
LINE
  5
186
330
1F
100
AcDbEntity
  8
LAY-10
  6
CONTINUOUS
 62
     7
100
AcDbLine
 10
352.4113583512059
 20
188.9999999999904
 30
0.0
 11
347.0510423526578
 21
239.9999999999896
 31
0.0
  0
LINE
  5
187
330
1F
100
AcDbEntity
  8
LAY-10
  6
CONTINUOUS
 62
     7
100
AcDbLine
 10
346.5255211763296
 20
244.9999999999896
 30
0.0
 11
346.0000000000013
 21
249.9999999999904
 31
0.0
  0
LINE
  5
188
330
1F
100
AcDbEntity
  8
LAY-10
  6
CONTINUOUS
 62
     7
100
AcDbLine
 10
255.1824070684689
 20
190.3628520871039
 30
0.0
 11
255.0054052774095
 21
192.0523359562308
 31
0.0
  0
ARC
  5
189
330
1F
100
AcDbEntity
  8
LAY-10
  6
CONTINUOUS
 62
     7
100
AcDbCircle
 10
266.5039220919244
 20
191.9999999999881
 30
0.0
 40
1.0
100
AcDbArc
 50
30.00000000018433
 51
90.0
  0
LINE
  5
18A
330
1F
100
AcDbEntity
  8
LAY-10
  6
CONTINUOUS
 62
     7
100
AcDbLine
 10
279.3014699642621
 20
192.999999999988
 30
0.0
 11
284.8241264614185
 21
192.999999999988
 31
0.0
  0
LINE
  5
18B
330
1F
100
AcDbEntity
  8
LAY-10
  6
CONTINUOUS
 62
     7
100
AcDbLine
 10
294.3987811429238
 20
189.4670485968041
 30
0.0
 11
298.2509600081717
 21
189.4670485968041
 31
0.0
  0
LINE
  5
18C
330
1F
100
AcDbEntity
  8
LAY-10
  6
CONTINUOUS
 62
     7
100
AcDbLine
 10
294.4722475882527
 20
190.856406460539
 30
0.0
 11
297.4931434789655
 21
190.856406460539
 31
0.0
  0
LINE
  5
18D
330
1F
100
AcDbEntity
  8
LAY-10
  6
CONTINUOUS
 62
     7
100
AcDbLine
 10
294.5855964968989
 20
192.999999999988
 30
0.0
 11
305.0
 21
192.999999999988
 31
0.0
  0
LINE
  5
18E
330
1F
100
AcDbEntity
  8
LAY-10
  6
CONTINUOUS
 62
     7
100
AcDbLine
 10
325.601218857076
 20
189.4670485968041
 30
0.0
 11
321.7490399918288
 21
189.4670485968041
 31
0.0
  0
LINE
  5
18F
330
1F
100
AcDbEntity
  8
LAY-10
  6
CONTINUOUS
 62
     7
100
AcDbLine
 10
325.5277524117471
 20
190.856406460539
 30
0.0
 11
322.5068565210349
 21
190.856406460539
 31
0.0
  0
LINE
  5
190
330
1F
100
AcDbEntity
  8
LAY-10
  6
CONTINUOUS
 62
     7
100
AcDbLine
 10
314.9999999999998
 20
192.999999999988
 30
0.0
 11
325.4144035031009
 21
192.999999999988
 31
0.0
  0
LINE
  5
191
330
1F
100
AcDbEntity
  8
LAY-10
  6
CONTINUOUS
 62
     7
100
AcDbLine
 10
330.1217313316132
 20
234.9999999999904
 30
0.0
 11
332.7656306194264
 21
184.9999999999904
 31
0.0
  0
LINE
  5
192
330
1F
100
AcDbEntity
  8
LAY-10
  6
CONTINUOUS
 62
     7
100
AcDbLine
 10
335.1758735385813
 20
192.999999999988
 30
0.0
 11
340.6985300357377
 21
192.999999999988
 31
0.0
  0
LINE
  5
193
330
1F
100
AcDbEntity
  8
LAY-10
  6
CONTINUOUS
 62
     7
100
AcDbLine
 10
352.2154360608855
 20
190.8640760748052
 30
0.0
 11
352.5204772416549
 21
192.219552589767
 31
0.0
  0
LINE
  5
194
330
1F
100
AcDbEntity
  8
LAY-10
  6
CONTINUOUS
 62
     7
100
AcDbLine
 10
351.9909414101435
 20
192.999999999988
 30
0.0
 11
383.1327045983052
 21
192.999999999988
 31
0.0
  0
LINE
  5
195
330
1F
100
AcDbEntity
  8
LAY-10
  6
CONTINUOUS
 62
     7
100
AcDbLine
 10
262.5000000000001
 20
180.9999999999925
 30
0.0
 11
256.4999999999999
 21
180.9999999999925
 31
0.0
  0
LINE
  5
196
330
1F
100
AcDbEntity
  8
LAY-10
  6
CONTINUOUS
 62
     7
100
AcDbLine
 10
262.5000000000001
 20
192.4999999999905
 30
0.0
 11
262.5000000000001
 21
180.9999999999925
 31
0.0
  0
LINE
  5
197
330
1F
100
AcDbEntity
  8
LAY-10
  6
CONTINUOUS
 62
     7
100
AcDbLine
 10
257.0000000000003
 20
180.4999999999926
 30
0.0
 11
262.0000000000004
 21
180.4999999999926
 31
0.0
  0
LINE
  5
198
330
1F
100
AcDbEntity
  8
LAY-10
  6
CONTINUOUS
 62
     7
100
AcDbLine
 10
256.4999999999999
 20
192.4999999999905
 30
0.0
 11
256.4999999999999
 21
180.9999999999925
 31
0.0
  0
LINE
  5
199
330
1F
100
AcDbEntity
  8
LAY-10
  6
CONTINUOUS
 62
     7
100
AcDbLine
 10
262.0000000000004
 20
180.4999999999926
 30
0.0
 11
262.5000000000001
 21
180.9999999999925
 31
0.0
  0
LINE
  5
19A
330
1F
100
AcDbEntity
  8
LAY-10
  6
CONTINUOUS
 62
     7
100
AcDbLine
 10
257.0000000000003
 20
180.4999999999926
 30
0.0
 11
256.4999999999999
 21
180.9999999999925
 31
0.0
  0
ARC
  5
19B
330
1F
100
AcDbEntity
  8
LAY-10
  6
CONTINUOUS
 62
     7
100
AcDbCircle
 10
259.5000000000001
 20
190.1999999999906
 30
0.0
 40
6.300000000000004
100
AcDbArc
 50
95.46502379990869
 51
128.682187453492
  0
ARC
  5
19C
330
1F
100
AcDbEntity
  8
LAY-10
  6
CONTINUOUS
 62
     7
100
AcDbCircle
 10
259.5000000000001
 20
190.1999999999906
 30
0.0
 40
6.300000000000004
100
AcDbArc
 50
51.3178125464967
 51
84.53497620009915
  0
LINE
  5
19D
330
1F
100
AcDbEntity
  8
LAY-10
  6
CONTINUOUS
 62
     7
100
AcDbLine
 10
258.9000000000003
 20
196.4713634880905
 30
0.0
 11
258.9000000000003
 21
193.9999999999905
 31
0.0
  0
LINE
  5
19E
330
1F
100
AcDbEntity
  8
LAY-10
  6
CONTINUOUS
 62
     7
100
AcDbLine
 10
260.1000000000006
 20
193.9999999999905
 30
0.0
 11
258.9000000000003
 21
193.9999999999905
 31
0.0
  0
LINE
  5
19F
330
1F
100
AcDbEntity
  8
LAY-10
  6
CONTINUOUS
 62
     7
100
AcDbLine
 10
260.1000000000006
 20
196.4713634880905
 30
0.0
 11
260.1000000000006
 21
193.9999999999905
 31
0.0
  0
LINE
  5
1A0
330
1F
100
AcDbEntity
  8
LAY-10
  6
CONTINUOUS
 62
     7
100
AcDbLine
 10
264.7481347569003
 20
192.4999999999905
 30
0.0
 11
254.2518652431001
 21
192.4999999999905
 31
0.0
  0
ARC
  5
1A1
330
1F
100
AcDbEntity
  8
LAY-10
  6
CONTINUOUS
 62
     7
100
AcDbCircle
 10
261.2500000000002
 20
192.3857492993903
 30
0.0
 40
3.500000000000003
100
AcDbArc
 50
1.870641730603566
 51
51.31781254649751
  0
ARC
  5
1A2
330
1F
100
AcDbEntity
  8
LAY-10
  6
CONTINUOUS
 62
     7
100
AcDbCircle
 10
257.7500000000002
 20
192.3857492993903
 30
0.0
 40
3.500000000000003
100
AcDbArc
 50
128.6821874534942
 51
178.1293582694109
  0
ARC
  5
1A3
330
1F
100
AcDbEntity
  8
LAY-10
  6
CONTINUOUS
 62
     7
100
AcDbCircle
 10
256.1593746078294
 20
190.4670485968042
 30
0.0
 40
1.0
100
AcDbArc
 50
270.0
 51
289.9149809116837
  0
ARC
  5
1A4
330
1F
100
AcDbEntity
  8
LAY-10
  6
CONTINUOUS
 62
     7
100
AcDbCircle
 10
254.0067757426549
 20
191.9999999999881
 30
0.0
 40
1.0
100
AcDbArc
 50
2.999999999992558
 51
30.0000000001609
  0
ARC
  5
1A5
330
1F
100
AcDbEntity
  8
LAY-10
  6
CONTINUOUS
 62
     7
100
AcDbCircle
 10
254.0067757426549
 20
191.9999999999881
 30
0.0
 40
1.0
100
AcDbArc
 50
73.13283491894852
 51
90.0
  0
LINE
  5
1A6
330
1F
100
AcDbEntity
  8
LAY-10
  6
CONTINUOUS
 62
     7
100
AcDbLine
 10
236.8672954016952
 20
192.999999999988
 30
0.0
 11
254.3043221165039
 21
192.999999999988
 31
0.0
  0
LINE
  5
1A7
330
1F
100
AcDbEntity
  8
LAY-10
  6
CONTINUOUS
 62
     7
100
AcDbLine
 10
264.6956778834965
 20
192.999999999988
 30
0.0
 11
268.0090585898562
 21
192.999999999988
 31
0.0
  0
LINE
  5
1A8
330
1F
100
AcDbEntity
  8
LAY-10
  6
CONTINUOUS
 62
     7
100
AcDbLine
 10
257.0000000000016
 20
177.49999999999
 30
0.0
 11
257.0000000000016
 21
180.4999999999926
 31
0.0
  0
LINE
  5
1A9
330
1F
100
AcDbEntity
  8
LAY-10
  6
CONTINUOUS
 62
     7
100
AcDbLine
 10
262.0000000000011
 20
177.49999999999
 30
0.0
 11
262.0000000000011
 21
180.4999999999926
 31
0.0
  0
LINE
  5
1AA
330
1F
100
AcDbEntity
  8
LAY-10
  6
CONTINUOUS
 62
     7
100
AcDbLine
 10
255.3682268009813
 20
184.9999999999879
 30
0.0
 11
257.0000000000003
 21
184.9999999999879
 31
0.0
  0
CIRCLE
  5
1AB
330
1F
100
AcDbEntity
  8
LAY-10
  6
CONTINUOUS
 62
     7
100
AcDbCircle
 10
310.0000000000002
 20
414.0000000000202
 30
0.0
 40
75.0
  0
LINE
  5
1AC
330
1F
100
AcDbEntity
  8
LAY-10
  6
CONTINUOUS
 62
     7
100
AcDbLine
 10
250.1742537108354
 20
425.9113425332552
 30
0.0
 11
255.276257518963
 21
424.9822141455955
 31
0.0
  0
LINE
  5
1AD
330
1F
100
AcDbEntity
  8
LAY-10
  6
CONTINUOUS
 62
     7
100
AcDbLine
 10
250.1742537108345
 20
402.0886574667896
 30
0.0
 11
255.2762575189563
 21
403.0177858544449
 31
0.0
  0
LINE
  5
1AE
330
1F
100
AcDbEntity
  8
LAY-10
  6
CONTINUOUS
 62
     7
100
AcDbLine
 10
250.1742537108345
 20
402.0886574667896
 30
0.0
 11
250.9708445323525
 21
403.250171872277
 31
0.0
  0
LINE
  5
1AF
330
1F
100
AcDbEntity
  8
LAY-10
  6
CONTINUOUS
 62
     7
100
AcDbLine
 10
254.906121563529
 20
403.9668270807923
 30
0.0
 11
255.2762575189563
 21
403.0177858544449
 31
0.0
  0
LINE
  5
1B0
330
1F
100
AcDbEntity
  8
LAY-10
  6
CONTINUOUS
 62
     7
100
AcDbLine
 10
254.9061215635293
 20
424.0331729192495
 30
0.0
 11
255.276257518963
 21
424.9822141455955
 31
0.0
  0
LINE
  5
1B1
330
1F
100
AcDbEntity
  8
LAY-10
  6
CONTINUOUS
 62
     7
100
AcDbLine
 10
250.9708445323532
 20
424.749828127767
 30
0.0
 11
250.1742537108354
 21
425.9113425332552
 31
0.0
  0
LINE
  5
1B2
330
1F
100
AcDbEntity
  8
LAY-10
  6
CONTINUOUS
 62
     7
100
AcDbLine
 10
253.9309329633771
 20
424.2107649881302
 30
0.0
 11
251.9630018403536
 21
424.5691458792709
 31
0.0
  0
ARC
  5
1B3
330
1F
100
AcDbEntity
  8
LAY-10
  6
CONTINUOUS
 62
     7
100
AcDbCircle
 10
310.0000000000002
 20
414.0000000000202
 30
0.0
 40
55.9999999999982
100
AcDbArc
 50
170.6841832434496
 51
189.3158167565485
  0
ARC
  5
1B4
330
1F
100
AcDbEntity
  8
LAY-10
  6
CONTINUOUS
 62
     7
100
AcDbCircle
 10
310.0000000000002
 20
414.0000000000202
 30
0.0
 40
59.99999999999788
100
AcDbArc
 50
170.6501039670029
 51
189.3498960329948
  0
ARC
  5
1B5
330
1F
100
AcDbEntity
  8
LAY-10
  6
CONTINUOUS
 62
     7
100
AcDbCircle
 10
310.0000000000002
 20
414.0000000000202
 30
0.0
 40
60.99999999999648
100
AcDbArc
 50
168.7396254080341
 51
191.2603745919615
  0
LINE
  5
1B6
330
1F
100
AcDbEntity
  8
LAY-10
  6
CONTINUOUS
 62
     7
100
AcDbLine
 10
251.9630018403524
 20
403.4308541207723
 30
0.0
 11
253.9309329633761
 21
403.789235011912
 31
0.0
  0
LINE
  5
1B7
330
1F
100
AcDbEntity
  8
LAY-10
  6
CONTINUOUS
 62
     7
100
AcDbLine
 10
264.1450551798383
 20
454.228398371562
 30
0.0
 11
268.098955894052
 21
450.8727476804078
 31
0.0
  0
LINE
  5
1B8
330
1F
100
AcDbEntity
  8
LAY-10
  6
CONTINUOUS
 62
     7
100
AcDbLine
 10
252.2337126466048
 20
433.5973479176474
 30
0.0
 11
257.1167417484709
 21
431.8509948006734
 31
0.0
  0
LINE
  5
1B9
330
1F
100
AcDbEntity
  8
LAY-10
  6
CONTINUOUS
 62
     7
100
AcDbLine
 10
252.2337126466048
 20
433.5973479176474
 30
0.0
 11
253.5043377372048
 21
434.204953488902
 31
0.0
  0
LINE
  5
1BA
330
1F
100
AcDbEntity
  8
LAY-10
  6
CONTINUOUS
 62
     7
100
AcDbLine
 10
257.2707152213906
 20
432.8579565896422
 30
0.0
 11
257.1167417484709
 21
431.8509948006734
 31
0.0
  0
LINE
  5
1BB
330
1F
100
AcDbEntity
  8
LAY-10
  6
CONTINUOUS
 62
     7
100
AcDbLine
 10
267.3038881406193
 20
450.2359218468703
 30
0.0
 11
268.098955894052
 21
450.8727476804078
 31
0.0
  0
LINE
  5
1BC
330
1F
100
AcDbEntity
  8
LAY-10
  6
CONTINUOUS
 62
     7
100
AcDbLine
 10
264.2541658649502
 20
452.824201978789
 30
0.0
 11
264.1450551798383
 21
454.228398371562
 31
0.0
  0
LINE
  5
1BD
330
1F
100
AcDbEntity
  8
LAY-10
  6
CONTINUOUS
 62
     7
100
AcDbLine
 10
266.548146073847
 20
450.8773153901077
 30
0.0
 11
265.023058173981
 21
452.1716479075782
 31
0.0
  0
ARC
  5
1BE
330
1F
100
AcDbEntity
  8
LAY-10
  6
CONTINUOUS
 62
     7
100
AcDbCircle
 10
310.0000000000002
 20
414.0000000000202
 30
0.0
 40
55.9999999999982
100
AcDbArc
 50
140.6841832434498
 51
159.3158167565489
  0
ARC
  5
1BF
330
1F
100
AcDbEntity
  8
LAY-10
  6
CONTINUOUS
 62
     7
100
AcDbCircle
 10
310.0000000000002
 20
414.0000000000202
 30
0.0
 40
59.99999999999788
100
AcDbArc
 50
140.6501039670026
 51
159.3498960329952
  0
ARC
  5
1C0
330
1F
100
AcDbEntity
  8
LAY-10
  6
CONTINUOUS
 62
     7
100
AcDbCircle
 10
310.0000000000002
 20
414.0000000000202
 30
0.0
 40
60.99999999999648
100
AcDbArc
 50
138.7396254080343
 51
161.2603745919621
  0
LINE
  5
1C1
330
1F
100
AcDbEntity
  8
LAY-10
  6
CONTINUOUS
 62
     7
100
AcDbLine
 10
254.4539122947306
 20
433.8653502521119
 30
0.0
 11
256.3373810857369
 21
433.1917516465577
 31
0.0
  0
LINE
  5
1C2
330
1F
100
AcDbEntity
  8
LAY-10
  6
CONTINUOUS
 62
     7
100
AcDbLine
 10
290.4026520823772
 20
471.7662873534003
 30
0.0
 11
292.1490051993505
 21
466.8832582515271
 31
0.0
  0
LINE
  5
1C3
330
1F
100
AcDbEntity
  8
LAY-10
  6
CONTINUOUS
 62
     7
100
AcDbLine
 10
269.7716016284617
 20
459.8549448201685
 30
0.0
 11
273.1272523196093
 21
455.9010441059576
 31
0.0
  0
LINE
  5
1C4
330
1F
100
AcDbEntity
  8
LAY-10
  6
CONTINUOUS
 62
     7
100
AcDbLine
 10
269.7716016284617
 20
459.8549448201685
 30
0.0
 11
271.1757980212343
 21
459.7458341350559
 31
0.0
  0
LINE
  5
1C5
330
1F
100
AcDbEntity
  8
LAY-10
  6
CONTINUOUS
 62
     7
100
AcDbLine
 10
273.7640781531511
 20
456.6961118593853
 30
0.0
 11
273.1272523196093
 21
455.9010441059576
 31
0.0
  0
LINE
  5
1C6
330
1F
100
AcDbEntity
  8
LAY-10
  6
CONTINUOUS
 62
     7
100
AcDbLine
 10
291.1420434103793
 20
466.7292847786137
 30
0.0
 11
292.1490051993505
 21
466.8832582515271
 31
0.0
  0
LINE
  5
1C7
330
1F
100
AcDbEntity
  8
LAY-10
  6
CONTINUOUS
 62
     7
100
AcDbLine
 10
289.7950465111219
 20
470.4956622628004
 30
0.0
 11
290.4026520823774
 21
471.7662873534003
 31
0.0
  0
LINE
  5
1C8
330
1F
100
AcDbEntity
  8
LAY-10
  6
CONTINUOUS
 62
     7
100
AcDbLine
 10
290.8082483534647
 20
467.6626189142669
 30
0.0
 11
290.1346497479117
 21
469.5460877052736
 31
0.0
  0
ARC
  5
1C9
330
1F
100
AcDbEntity
  8
LAY-10
  6
CONTINUOUS
 62
     7
100
AcDbCircle
 10
310.0000000000002
 20
414.0000000000035
 30
0.0
 40
55.9999999999982
100
AcDbArc
 50
110.6841832434495
 51
129.3158167565486
  0
ARC
  5
1CA
330
1F
100
AcDbEntity
  8
LAY-10
  6
CONTINUOUS
 62
     7
100
AcDbCircle
 10
310.0000000000002
 20
414.0000000000035
 30
0.0
 40
59.99999999999788
100
AcDbArc
 50
110.6501039670025
 51
129.3498960329948
  0
ARC
  5
1CB
330
1F
100
AcDbEntity
  8
LAY-10
  6
CONTINUOUS
 62
     7
100
AcDbCircle
 10
310.0000000000002
 20
414.0000000000035
 30
0.0
 40
60.99999999999648
100
AcDbArc
 50
108.7396254080341
 51
131.260374591962
  0
LINE
  5
1CC
330
1F
100
AcDbEntity
  8
LAY-10
  6
CONTINUOUS
 62
     7
100
AcDbLine
 10
271.8283520924441
 20
458.9769418260254
 30
0.0
 11
273.1226846099137
 21
457.4518539261586
 31
0.0
  0
LINE
  5
1CD
330
1F
100
AcDbEntity
  8
LAY-10
  6
CONTINUOUS
 62
     7
100
AcDbLine
 10
321.9113425332396
 20
473.825746289185
 30
0.0
 11
320.9822141455799
 21
468.7237424810574
 31
0.0
  0
LINE
  5
1CE
330
1F
100
AcDbEntity
  8
LAY-10
  6
CONTINUOUS
 62
     7
100
AcDbLine
 10
298.0886574667741
 20
473.825746289186
 30
0.0
 11
299.0177858544295
 21
468.7237424810641
 31
0.0
  0
LINE
  5
1CF
330
1F
100
AcDbEntity
  8
LAY-10
  6
CONTINUOUS
 62
     7
100
AcDbLine
 10
298.0886574667742
 20
473.825746289186
 30
0.0
 11
299.2501718722616
 21
473.0291554676679
 31
0.0
  0
LINE
  5
1D0
330
1F
100
AcDbEntity
  8
LAY-10
  6
CONTINUOUS
 62
     7
100
AcDbLine
 10
299.9668270807767
 20
469.0938784364915
 30
0.0
 11
299.0177858544295
 21
468.7237424810641
 31
0.0
  0
LINE
  5
1D1
330
1F
100
AcDbEntity
  8
LAY-10
  6
CONTINUOUS
 62
     7
100
AcDbLine
 10
320.0331729192339
 20
469.0938784364912
 30
0.0
 11
320.9822141455799
 21
468.7237424810574
 31
0.0
  0
LINE
  5
1D2
330
1F
100
AcDbEntity
  8
LAY-10
  6
CONTINUOUS
 62
     7
100
AcDbLine
 10
320.7498281277515
 20
473.0291554676672
 30
0.0
 11
321.9113425332396
 21
473.825746289185
 31
0.0
  0
LINE
  5
1D3
330
1F
100
AcDbEntity
  8
LAY-10
  6
CONTINUOUS
 62
     7
100
AcDbLine
 10
320.2107649881148
 20
470.0690670366434
 30
0.0
 11
320.5691458792554
 21
472.0369981596667
 31
0.0
  0
ARC
  5
1D4
330
1F
100
AcDbEntity
  8
LAY-10
  6
CONTINUOUS
 62
     7
100
AcDbCircle
 10
310.0000000000047
 20
414.0000000000202
 30
0.0
 40
55.9999999999982
100
AcDbArc
 50
80.68418324344961
 51
99.31581675654853
  0
ARC
  5
1D5
330
1F
100
AcDbEntity
  8
LAY-10
  6
CONTINUOUS
 62
     7
100
AcDbCircle
 10
310.0000000000047
 20
414.0000000000202
 30
0.0
 40
59.99999999999788
100
AcDbArc
 50
80.65010396700234
 51
99.34989603299445
  0
ARC
  5
1D6
330
1F
100
AcDbEntity
  8
LAY-10
  6
CONTINUOUS
 62
     7
100
AcDbCircle
 10
310.0000000000047
 20
414.0000000000202
 30
0.0
 40
60.99999999999648
100
AcDbArc
 50
78.73962540803397
 51
101.2603745919618
  0
LINE
  5
1D7
330
1F
100
AcDbEntity
  8
LAY-10
  6
CONTINUOUS
 62
     7
100
AcDbLine
 10
299.4308541207569
 20
472.0369981596681
 30
0.0
 11
299.7892350118964
 21
470.0690670366441
 31
0.0
  0
LINE
  5
1D8
330
1F
100
AcDbEntity
  8
LAY-10
  6
CONTINUOUS
 62
     7
100
AcDbLine
 10
252.2337126466034
 20
394.4026520823973
 30
0.0
 11
257.1167417484768
 21
396.1490051993704
 31
0.0
  0
LINE
  5
1D9
330
1F
100
AcDbEntity
  8
LAY-10
  6
CONTINUOUS
 62
     7
100
AcDbLine
 10
264.1450551798355
 20
373.7716016284817
 30
0.0
 11
268.0989558940461
 21
377.1272523196293
 31
0.0
  0
LINE
  5
1DA
330
1F
100
AcDbEntity
  8
LAY-10
  6
CONTINUOUS
 62
     7
100
AcDbLine
 10
264.1450551798354
 20
373.7716016284817
 30
0.0
 11
264.2541658649478
 21
375.1757980212545
 31
0.0
  0
LINE
  5
1DB
330
1F
100
AcDbEntity
  8
LAY-10
  6
CONTINUOUS
 62
     7
100
AcDbLine
 10
267.3038881406185
 20
377.7640781531712
 30
0.0
 11
268.0989558940461
 21
377.1272523196293
 31
0.0
  0
LINE
  5
1DC
330
1F
100
AcDbEntity
  8
LAY-10
  6
CONTINUOUS
 62
     7
100
AcDbLine
 10
257.2707152213901
 20
395.1420434103993
 30
0.0
 11
257.1167417484768
 21
396.1490051993704
 31
0.0
  0
LINE
  5
1DD
330
1F
100
AcDbEntity
  8
LAY-10
  6
CONTINUOUS
 62
     7
100
AcDbLine
 10
253.5043377372034
 20
393.7950465111419
 30
0.0
 11
252.2337126466035
 21
394.4026520823973
 31
0.0
  0
LINE
  5
1DE
330
1F
100
AcDbEntity
  8
LAY-10
  6
CONTINUOUS
 62
     7
100
AcDbLine
 10
256.3373810857368
 20
394.8082483534848
 30
0.0
 11
254.4539122947301
 21
394.1346497479317
 31
0.0
  0
ARC
  5
1DF
330
1F
100
AcDbEntity
  8
LAY-10
  6
CONTINUOUS
 62
     7
100
AcDbCircle
 10
310.0000000000002
 20
414.0000000000202
 30
0.0
 40
55.9999999999982
100
AcDbArc
 50
200.6841832434496
 51
219.3158167565487
  0
ARC
  5
1E0
330
1F
100
AcDbEntity
  8
LAY-10
  6
CONTINUOUS
 62
     7
100
AcDbCircle
 10
310.0000000000002
 20
414.0000000000202
 30
0.0
 40
59.99999999999788
100
AcDbArc
 50
200.6501039670023
 51
219.3498960329946
  0
ARC
  5
1E1
330
1F
100
AcDbEntity
  8
LAY-10
  6
CONTINUOUS
 62
     7
100
AcDbCircle
 10
310.0000000000002
 20
414.0000000000202
 30
0.0
 40
60.99999999999648
100
AcDbArc
 50
198.7396254080342
 51
221.260374591962
  0
LINE
  5
1E2
330
1F
100
AcDbEntity
  8
LAY-10
  6
CONTINUOUS
 62
     7
100
AcDbLine
 10
265.0230581739785
 20
375.828352092464
 30
0.0
 11
266.5481460738453
 21
377.1226846099335
 31
0.0
  0
LINE
  5
1E3
330
1F
100
AcDbEntity
  8
LAY-10
  6
CONTINUOUS
 62
     7
100
AcDbLine
 10
269.7716016284627
 20
368.1450551798583
 30
0.0
 11
273.1272523196171
 21
372.098955894072
 31
0.0
  0
LINE
  5
1E4
330
1F
100
AcDbEntity
  8
LAY-10
  6
CONTINUOUS
 62
     7
100
AcDbLine
 10
290.4026520823776
 20
356.2337126466248
 30
0.0
 11
292.1490051993516
 21
361.1167417484909
 31
0.0
  0
LINE
  5
1E5
330
1F
100
AcDbEntity
  8
LAY-10
  6
CONTINUOUS
 62
     7
100
AcDbLine
 10
290.4026520823776
 20
356.2337126466248
 30
0.0
 11
289.7950465111228
 21
357.5043377372248
 31
0.0
  0
LINE
  5
1E6
330
1F
100
AcDbEntity
  8
LAY-10
  6
CONTINUOUS
 62
     7
100
AcDbLine
 10
291.1420434103826
 20
361.2707152214106
 30
0.0
 11
292.1490051993516
 21
361.1167417484909
 31
0.0
  0
LINE
  5
1E7
330
1F
100
AcDbEntity
  8
LAY-10
  6
CONTINUOUS
 62
     7
100
AcDbLine
 10
273.7640781531546
 20
371.3038881406395
 30
0.0
 11
273.1272523196171
 21
372.098955894072
 31
0.0
  0
LINE
  5
1E8
330
1F
100
AcDbEntity
  8
LAY-10
  6
CONTINUOUS
 62
     7
100
AcDbLine
 10
271.1757980212359
 20
368.25416586497
 30
0.0
 11
269.7716016284627
 21
368.1450551798583
 31
0.0
  0
LINE
  5
1E9
330
1F
100
AcDbEntity
  8
LAY-10
  6
CONTINUOUS
 62
     7
100
AcDbLine
 10
273.122684609917
 20
370.5481460738669
 30
0.0
 11
271.8283520924465
 21
369.0230581740009
 31
0.0
  0
ARC
  5
1EA
330
1F
100
AcDbEntity
  8
LAY-10
  6
CONTINUOUS
 62
     7
100
AcDbCircle
 10
310.0000000000047
 20
414.0000000000202
 30
0.0
 40
55.9999999999982
100
AcDbArc
 50
230.6841832434492
 51
249.3158167565487
  0
ARC
  5
1EB
330
1F
100
AcDbEntity
  8
LAY-10
  6
CONTINUOUS
 62
     7
100
AcDbCircle
 10
310.0000000000047
 20
414.0000000000202
 30
0.0
 40
59.99999999999788
100
AcDbArc
 50
230.6501039670024
 51
249.3498960329948
  0
ARC
  5
1EC
330
1F
100
AcDbEntity
  8
LAY-10
  6
CONTINUOUS
 62
     7
100
AcDbCircle
 10
310.0000000000047
 20
414.0000000000202
 30
0.0
 40
60.99999999999648
100
AcDbArc
 50
228.7396254080343
 51
251.2603745919618
  0
LINE
  5
1ED
330
1F
100
AcDbEntity
  8
LAY-10
  6
CONTINUOUS
 62
     7
100
AcDbLine
 10
290.134649747913
 20
358.4539122947505
 30
0.0
 11
290.8082483534672
 21
360.3373810857569
 31
0.0
  0
ARC
  5
1EE
330
1F
100
AcDbEntity
  8
LAY-10
  6
CONTINUOUS
 62
     7
100
AcDbCircle
 10
310.0000000000002
 20
414.0000000000035
 30
0.0
 40
55.81484586264231
100
AcDbArc
 50
101.3476453392067
 51
108.6523546608041
  0
ARC
  5
1EF
330
1F
100
AcDbEntity
  8
LAY-10
  6
CONTINUOUS
 62
     7
100
AcDbCircle
 10
310.0000000000002
 20
414.0000000000035
 30
0.0
 40
55.81484586264231
100
AcDbArc
 50
131.3476453392141
 51
138.6523546607719
  0
ARC
  5
1F0
330
1F
100
AcDbEntity
  8
LAY-10
  6
CONTINUOUS
 62
     7
100
AcDbCircle
 10
310.0000000000002
 20
414.0000000000035
 30
0.0
 40
55.81484586264231
100
AcDbArc
 50
161.3476453391982
 51
168.6523546607682
  0
ARC
  5
1F1
330
1F
100
AcDbEntity
  8
LAY-10
  6
CONTINUOUS
 62
     7
100
AcDbCircle
 10
310.0000000000002
 20
414.0000000000035
 30
0.0
 40
55.81484586264231
100
AcDbArc
 50
191.3476453391972
 51
198.6523546608188
  0
ARC
  5
1F2
330
1F
100
AcDbEntity
  8
LAY-10
  6
CONTINUOUS
 62
     7
100
AcDbCircle
 10
310.0000000000002
 20
414.0000000000035
 30
0.0
 40
55.81484586264231
100
AcDbArc
 50
221.3476453391563
 51
228.652354660886
  0
LINE
  5
1F3
330
1F
100
AcDbEntity
  8
LAY-10
  6
CONTINUOUS
 62
     7
100
AcDbLine
 10
255.2533969819448
 20
407.4849930475806
 30
0.0
 11
254.7440644764436
 21
408.0000000000202
 31
0.0
  0
LINE
  5
1F4
330
1F
100
AcDbEntity
  8
LAY-10
  6
CONTINUOUS
 62
     7
100
AcDbLine
 10
254.7440644764472
 20
420.0000000000202
 30
0.0
 11
255.2533969819448
 21
420.5150069524601
 31
0.0
  0
LINE
  5
1F5
330
1F
100
AcDbEntity
  8
LAY-10
  6
CONTINUOUS
 62
     7
100
AcDbLine
 10
314.5150069524381
 20
468.9477075939346
 30
0.0
 11
314.0000000000002
 21
469.4366161538147
 31
0.0
  0
LINE
  5
1F6
330
1F
100
AcDbEntity
  8
LAY-10
  6
CONTINUOUS
 62
     7
100
AcDbLine
 10
305.4849930475624
 20
468.9477075939346
 30
0.0
 11
306.0000000000002
 21
469.4366161538164
 31
0.0
  0
ARC
  5
1F7
330
1F
100
AcDbEntity
  8
LAY-10
  6
CONTINUOUS
 62
     7
100
AcDbCircle
 10
310.0000000000002
 20
414.0000000000202
 30
0.0
 40
55.13289270124415
100
AcDbArc
 50
94.69739310882848
 51
173.2135493406984
  0
ARC
  5
1F8
330
1F
100
AcDbEntity
  8
LAY-10
  6
CONTINUOUS
 62
     7
100
AcDbCircle
 10
309.9999999999881
 20
414.0000000000202
 30
0.0
 40
55.58073776573366
100
AcDbArc
 50
85.87300520619833
 51
94.1269947937765
  0
ARC
  5
1F9
330
1F
100
AcDbEntity
  8
LAY-10
  6
CONTINUOUS
 62
     7
100
AcDbCircle
 10
272.5907826613638
 20
368.3759881410213
 30
0.0
 40
1.0
100
AcDbArc
 50
139.6789425580008
 51
230.6501039670113
  0
ARC
  5
1FA
330
1F
100
AcDbEntity
  8
LAY-10
  6
CONTINUOUS
 62
     7
100
AcDbCircle
 10
273.8851151788343
 20
369.9010760408872
 30
0.0
 40
1.0
100
AcDbArc
 50
50.68418324344054
 51
139.6789425580008
  0
ARC
  5
1FB
330
1F
100
AcDbEntity
  8
LAY-10
  6
CONTINUOUS
 62
     7
100
AcDbCircle
 10
289.8666539824206
 20
360.6741303105717
 30
0.0
 40
1.0
100
AcDbArc
 50
340.3210574419716
 51
69.31581675654941
  0
ARC
  5
1FC
330
1F
100
AcDbEntity
  8
LAY-10
  6
CONTINUOUS
 62
     7
100
AcDbCircle
 10
289.1930553768665
 20
358.7906615195655
 30
0.0
 40
1.0
100
AcDbArc
 50
249.3498960329924
 51
340.3210574419612
  0
ARC
  5
1FD
330
1F
100
AcDbEntity
  8
LAY-10
  6
CONTINUOUS
 62
     7
100
AcDbCircle
 10
254.7906615195445
 20
393.1930553768849
 30
0.0
 40
1.0
100
AcDbArc
 50
109.6789425580007
 51
200.6501039670046
  0
ARC
  5
1FE
330
1F
100
AcDbEntity
  8
LAY-10
  6
CONTINUOUS
 62
     7
100
AcDbCircle
 10
256.6741303105512
 20
393.8666539824379
 30
0.0
 40
1.0
100
AcDbArc
 50
20.68418324345061
 51
109.6789425580037
  0
ARC
  5
1FF
330
1F
100
AcDbEntity
  8
LAY-10
  6
CONTINUOUS
 62
     7
100
AcDbCircle
 10
264.3759881409992
 20
376.5907826613819
 30
0.0
 40
1.0
100
AcDbArc
 50
219.3498960330005
 51
310.3210574419625
  0
ARC
  5
200
330
1F
100
AcDbEntity
  8
LAY-10
  6
CONTINUOUS
 62
     7
100
AcDbCircle
 10
265.901076040866
 20
377.8851151788514
 30
0.0
 40
1.0
100
AcDbArc
 50
310.3210574419784
 51
39.31581675654323
  0
ARC
  5
201
330
1F
100
AcDbEntity
  8
LAY-10
  6
CONTINUOUS
 62
     7
100
AcDbCircle
 10
251.7838380382237
 20
404.4146733785665
 30
0.0
 40
1.0
100
AcDbArc
 50
189.3498960329933
 51
280.3210574419605
  0
ARC
  5
202
330
1F
100
AcDbEntity
  8
LAY-10
  6
CONTINUOUS
 62
     7
100
AcDbCircle
 10
253.7517691612474
 20
404.773054269706
 30
0.0
 40
1.0
100
AcDbArc
 50
280.3210574419637
 51
9.315816756550658
  0
ARC
  5
203
330
1F
100
AcDbEntity
  8
LAY-10
  6
CONTINUOUS
 62
     7
100
AcDbCircle
 10
251.7838380382242
 20
423.5853266214768
 30
0.0
 40
1.0
100
AcDbArc
 50
79.67894255799669
 51
170.6501039670068
  0
ARC
  5
204
330
1F
100
AcDbEntity
  8
LAY-10
  6
CONTINUOUS
 62
     7
100
AcDbCircle
 10
253.7517691612477
 20
423.2269457303362
 30
0.0
 40
1.0
100
AcDbArc
 50
350.6841832434495
 51
79.67894255799669
  0
ARC
  5
205
330
1F
100
AcDbEntity
  8
LAY-10
  6
CONTINUOUS
 62
     7
100
AcDbCircle
 10
254.7906615195456
 20
434.8069446231583
 30
0.0
 40
1.0
100
AcDbArc
 50
159.3498960329852
 51
250.3210574419644
  0
ARC
  5
206
330
1F
100
AcDbEntity
  8
LAY-10
  6
CONTINUOUS
 62
     7
100
AcDbCircle
 10
256.6741303105518
 20
434.1333460176041
 30
0.0
 40
1.0
100
AcDbArc
 50
250.3210574419644
 51
339.3158167565495
  0
ARC
  5
207
330
1F
100
AcDbEntity
  8
LAY-10
  6
CONTINUOUS
 62
     7
100
AcDbCircle
 10
264.3759881410012
 20
451.4092173386609
 30
0.0
 40
1.0
100
AcDbArc
 50
49.67894255800075
 51
140.6501039670138
  0
ARC
  5
208
330
1F
100
AcDbEntity
  8
LAY-10
  6
CONTINUOUS
 62
     7
100
AcDbCircle
 10
265.9010760408672
 20
450.1148848211905
 30
0.0
 40
1.0
100
AcDbArc
 50
320.6841832434569
 51
49.67894255799369
  0
ARC
  5
209
330
1F
100
AcDbEntity
  8
LAY-10
  6
CONTINUOUS
 62
     7
100
AcDbCircle
 10
272.5907826613618
 20
459.6240118590046
 30
0.0
 40
1.0
100
AcDbArc
 50
129.3498960330005
 51
220.3210574419602
  0
ARC
  5
20A
330
1F
100
AcDbEntity
  8
LAY-10
  6
CONTINUOUS
 62
     7
100
AcDbCircle
 10
273.8851151788314
 20
458.0989239591378
 30
0.0
 40
1.0
100
AcDbArc
 50
220.3210574419602
 51
309.3158167565479
  0
ARC
  5
20B
330
1F
100
AcDbEntity
  8
LAY-10
  6
CONTINUOUS
 62
     7
100
AcDbCircle
 10
289.1930553768649
 20
469.2093384804595
 30
0.0
 40
1.0
100
AcDbArc
 50
19.67894255798733
 51
110.6501039670004
  0
ARC
  5
20C
330
1F
100
AcDbEntity
  8
LAY-10
  6
CONTINUOUS
 62
     7
100
AcDbCircle
 10
289.8666539824179
 20
467.3258696894525
 30
0.0
 40
1.0
100
AcDbArc
 50
290.6841832434507
 51
19.67894255799758
  0
ARC
  5
20D
330
1F
100
AcDbEntity
  8
LAY-10
  6
CONTINUOUS
 62
     7
100
AcDbCircle
 10
300.4146733785511
 20
472.2161619617966
 30
0.0
 40
1.0
100
AcDbArc
 50
99.3498960329933
 51
190.3210574419503
  0
ARC
  5
20E
330
1F
100
AcDbEntity
  8
LAY-10
  6
CONTINUOUS
 62
     7
100
AcDbCircle
 10
300.7730542696906
 20
470.248230838773
 30
0.0
 40
1.0
100
AcDbArc
 50
190.3210574419701
 51
279.3158167565506
  0
ARC
  5
20F
330
1F
100
AcDbEntity
  8
LAY-10
  6
CONTINUOUS
 62
     7
100
AcDbCircle
 10
319.2269457303206
 20
470.2482308387727
 30
0.0
 40
1.0
100
AcDbArc
 50
260.6841832434494
 51
349.6789425580101
  0
ARC
  5
210
330
1F
100
AcDbEntity
  8
LAY-10
  6
CONTINUOUS
 62
     7
100
AcDbCircle
 10
319.5853266214613
 20
472.2161619617963
 30
0.0
 40
1.0
100
AcDbArc
 50
349.6789425579905
 51
80.65010396699982
  0
CIRCLE
  5
211
330
1F
100
AcDbEntity
  8
LAY-10
  6
CONTINUOUS
 62
     7
100
AcDbCircle
 10
310.0000000000002
 20
414.0000000000202
 30
0.0
 40
68.9999999999982
  0
CIRCLE
  5
212
330
1F
100
AcDbEntity
  8
LAY-10
  6
CONTINUOUS
 62
     7
100
AcDbCircle
 10
310.0000000000002
 20
414.0000000000202
 30
0.0
 40
74.0
  0
LINE
  5
213
330
1F
100
AcDbEntity
  8
LAY-10
  6
CONTINUOUS
 62
     7
100
AcDbLine
 10
369.8257462891645
 20
425.9113425332552
 30
0.0
 11
364.723742481037
 21
424.9822141455955
 31
0.0
  0
LINE
  5
214
330
1F
100
AcDbEntity
  8
LAY-10
  6
CONTINUOUS
 62
     7
100
AcDbLine
 10
369.8257462891654
 20
402.0886574667896
 30
0.0
 11
364.7237424810436
 21
403.0177858544449
 31
0.0
  0
LINE
  5
215
330
1F
100
AcDbEntity
  8
LAY-10
  6
CONTINUOUS
 62
     7
100
AcDbLine
 10
369.8257462891654
 20
402.0886574667896
 30
0.0
 11
369.0291554676475
 21
403.250171872277
 31
0.0
  0
LINE
  5
216
330
1F
100
AcDbEntity
  8
LAY-10
  6
CONTINUOUS
 62
     7
100
AcDbLine
 10
365.093878436471
 20
403.9668270807923
 30
0.0
 11
364.7237424810436
 21
403.0177858544449
 31
0.0
  0
LINE
  5
217
330
1F
100
AcDbEntity
  8
LAY-10
  6
CONTINUOUS
 62
     7
100
AcDbLine
 10
365.0938784364707
 20
424.0331729192495
 30
0.0
 11
364.723742481037
 21
424.9822141455955
 31
0.0
  0
LINE
  5
218
330
1F
100
AcDbEntity
  8
LAY-10
  6
CONTINUOUS
 62
     7
100
AcDbLine
 10
369.0291554676468
 20
424.749828127767
 30
0.0
 11
369.8257462891645
 21
425.9113425332552
 31
0.0
  0
LINE
  5
219
330
1F
100
AcDbEntity
  8
LAY-10
  6
CONTINUOUS
 62
     7
100
AcDbLine
 10
366.0690670366229
 20
424.2107649881302
 30
0.0
 11
368.0369981596463
 21
424.5691458792709
 31
0.0
  0
ARC
  5
21A
330
1F
100
AcDbEntity
  8
LAY-10
  6
CONTINUOUS
 62
     7
100
AcDbCircle
 10
309.9999999999998
 20
414.0000000000202
 30
0.0
 40
55.9999999999982
100
AcDbArc
 50
350.6841832434514
 51
9.315816756550486
  0
ARC
  5
21B
330
1F
100
AcDbEntity
  8
LAY-10
  6
CONTINUOUS
 62
     7
100
AcDbCircle
 10
309.9999999999998
 20
414.0000000000202
 30
0.0
 40
59.99999999999788
100
AcDbArc
 50
350.6501039670054
 51
9.349896032997458
  0
ARC
  5
21C
330
1F
100
AcDbEntity
  8
LAY-10
  6
CONTINUOUS
 62
     7
100
AcDbCircle
 10
309.9999999999998
 20
414.0000000000202
 30
0.0
 40
60.99999999999648
100
AcDbArc
 50
348.7396254080388
 51
11.2603745919659
  0
LINE
  5
21D
330
1F
100
AcDbEntity
  8
LAY-10
  6
CONTINUOUS
 62
     7
100
AcDbLine
 10
368.0369981596475
 20
403.4308541207723
 30
0.0
 11
366.0690670366239
 21
403.789235011912
 31
0.0
  0
LINE
  5
21E
330
1F
100
AcDbEntity
  8
LAY-10
  6
CONTINUOUS
 62
     7
100
AcDbLine
 10
355.8549448201617
 20
454.228398371562
 30
0.0
 11
351.901044105948
 21
450.8727476804078
 31
0.0
  0
LINE
  5
21F
330
1F
100
AcDbEntity
  8
LAY-10
  6
CONTINUOUS
 62
     7
100
AcDbLine
 10
367.7662873533951
 20
433.5973479176474
 30
0.0
 11
362.8832582515291
 21
431.8509948006734
 31
0.0
  0
LINE
  5
220
330
1F
100
AcDbEntity
  8
LAY-10
  6
CONTINUOUS
 62
     7
100
AcDbLine
 10
367.7662873533951
 20
433.5973479176474
 30
0.0
 11
366.4956622627952
 21
434.204953488902
 31
0.0
  0
LINE
  5
221
330
1F
100
AcDbEntity
  8
LAY-10
  6
CONTINUOUS
 62
     7
100
AcDbLine
 10
362.7292847786094
 20
432.8579565896422
 30
0.0
 11
362.8832582515291
 21
431.8509948006734
 31
0.0
  0
LINE
  5
222
330
1F
100
AcDbEntity
  8
LAY-10
  6
CONTINUOUS
 62
     7
100
AcDbLine
 10
352.6961118593807
 20
450.2359218468703
 30
0.0
 11
351.901044105948
 21
450.8727476804078
 31
0.0
  0
LINE
  5
223
330
1F
100
AcDbEntity
  8
LAY-10
  6
CONTINUOUS
 62
     7
100
AcDbLine
 10
355.7458341350498
 20
452.824201978789
 30
0.0
 11
355.8549448201617
 21
454.228398371562
 31
0.0
  0
LINE
  5
224
330
1F
100
AcDbEntity
  8
LAY-10
  6
CONTINUOUS
 62
     7
100
AcDbLine
 10
353.451853926153
 20
450.8773153901077
 30
0.0
 11
354.9769418260189
 21
452.1716479075782
 31
0.0
  0
ARC
  5
225
330
1F
100
AcDbEntity
  8
LAY-10
  6
CONTINUOUS
 62
     7
100
AcDbCircle
 10
309.9999999999998
 20
414.0000000000202
 30
0.0
 40
55.9999999999982
100
AcDbArc
 50
20.68418324345119
 51
39.31581675655056
  0
ARC
  5
226
330
1F
100
AcDbEntity
  8
LAY-10
  6
CONTINUOUS
 62
     7
100
AcDbCircle
 10
309.9999999999998
 20
414.0000000000202
 30
0.0
 40
59.99999999999788
100
AcDbArc
 50
20.65010396700513
 51
39.34989603299747
  0
ARC
  5
227
330
1F
100
AcDbEntity
  8
LAY-10
  6
CONTINUOUS
 62
     7
100
AcDbCircle
 10
309.9999999999998
 20
414.0000000000202
 30
0.0
 40
60.99999999999648
100
AcDbArc
 50
18.73962540803801
 51
41.26037459196597
  0
LINE
  5
228
330
1F
100
AcDbEntity
  8
LAY-10
  6
CONTINUOUS
 62
     7
100
AcDbLine
 10
365.5460877052694
 20
433.8653502521119
 30
0.0
 11
363.6626189142631
 21
433.1917516465577
 31
0.0
  0
LINE
  5
229
330
1F
100
AcDbEntity
  8
LAY-10
  6
CONTINUOUS
 62
     7
100
AcDbLine
 10
329.5973479176228
 20
471.7662873534003
 30
0.0
 11
327.8509948006495
 21
466.8832582515271
 31
0.0
  0
LINE
  5
22A
330
1F
100
AcDbEntity
  8
LAY-10
  6
CONTINUOUS
 62
     7
100
AcDbLine
 10
350.2283983715383
 20
459.8549448201685
 30
0.0
 11
346.8727476803907
 21
455.9010441059576
 31
0.0
  0
LINE
  5
22B
330
1F
100
AcDbEntity
  8
LAY-10
  6
CONTINUOUS
 62
     7
100
AcDbLine
 10
350.2283983715383
 20
459.8549448201685
 30
0.0
 11
348.8242019787657
 21
459.7458341350559
 31
0.0
  0
LINE
  5
22C
330
1F
100
AcDbEntity
  8
LAY-10
  6
CONTINUOUS
 62
     7
100
AcDbLine
 10
346.2359218468488
 20
456.6961118593853
 30
0.0
 11
346.8727476803907
 21
455.9010441059576
 31
0.0
  0
LINE
  5
22D
330
1F
100
AcDbEntity
  8
LAY-10
  6
CONTINUOUS
 62
     7
100
AcDbLine
 10
328.8579565896207
 20
466.7292847786137
 30
0.0
 11
327.8509948006495
 21
466.8832582515271
 31
0.0
  0
LINE
  5
22E
330
1F
100
AcDbEntity
  8
LAY-10
  6
CONTINUOUS
 62
     7
100
AcDbLine
 10
330.2049534888781
 20
470.4956622628004
 30
0.0
 11
329.5973479176225
 21
471.7662873534003
 31
0.0
  0
LINE
  5
22F
330
1F
100
AcDbEntity
  8
LAY-10
  6
CONTINUOUS
 62
     7
100
AcDbLine
 10
329.1917516465352
 20
467.6626189142669
 30
0.0
 11
329.8653502520883
 21
469.5460877052736
 31
0.0
  0
ARC
  5
230
330
1F
100
AcDbEntity
  8
LAY-10
  6
CONTINUOUS
 62
     7
100
AcDbCircle
 10
309.9999999999998
 20
414.0000000000035
 30
0.0
 40
55.9999999999982
100
AcDbArc
 50
50.68418324345131
 51
69.31581675655067
  0
ARC
  5
231
330
1F
100
AcDbEntity
  8
LAY-10
  6
CONTINUOUS
 62
     7
100
AcDbCircle
 10
309.9999999999998
 20
414.0000000000035
 30
0.0
 40
59.99999999999788
100
AcDbArc
 50
50.65010396700532
 51
69.34989603299776
  0
ARC
  5
232
330
1F
100
AcDbEntity
  8
LAY-10
  6
CONTINUOUS
 62
     7
100
AcDbCircle
 10
309.9999999999998
 20
414.0000000000035
 30
0.0
 40
60.99999999999648
100
AcDbArc
 50
48.73962540803825
 51
71.2603745919661
  0
LINE
  5
233
330
1F
100
AcDbEntity
  8
LAY-10
  6
CONTINUOUS
 62
     7
100
AcDbLine
 10
348.1716479075559
 20
458.9769418260254
 30
0.0
 11
346.8773153900862
 21
457.4518539261586
 31
0.0
  0
LINE
  5
234
330
1F
100
AcDbEntity
  8
LAY-10
  6
CONTINUOUS
 62
     7
100
AcDbLine
 10
367.7662873533966
 20
394.4026520823973
 30
0.0
 11
362.8832582515232
 21
396.1490051993704
 31
0.0
  0
LINE
  5
235
330
1F
100
AcDbEntity
  8
LAY-10
  6
CONTINUOUS
 62
     7
100
AcDbLine
 10
355.8549448201644
 20
373.7716016284817
 30
0.0
 11
351.9010441059538
 21
377.1272523196293
 31
0.0
  0
LINE
  5
236
330
1F
100
AcDbEntity
  8
LAY-10
  6
CONTINUOUS
 62
     7
100
AcDbLine
 10
355.8549448201646
 20
373.7716016284817
 30
0.0
 11
355.7458341350522
 21
375.1757980212545
 31
0.0
  0
LINE
  5
237
330
1F
100
AcDbEntity
  8
LAY-10
  6
CONTINUOUS
 62
     7
100
AcDbLine
 10
352.6961118593815
 20
377.7640781531712
 30
0.0
 11
351.9010441059538
 21
377.1272523196293
 31
0.0
  0
LINE
  5
238
330
1F
100
AcDbEntity
  8
LAY-10
  6
CONTINUOUS
 62
     7
100
AcDbLine
 10
362.7292847786098
 20
395.1420434103993
 30
0.0
 11
362.8832582515232
 21
396.1490051993704
 31
0.0
  0
LINE
  5
239
330
1F
100
AcDbEntity
  8
LAY-10
  6
CONTINUOUS
 62
     7
100
AcDbLine
 10
366.4956622627966
 20
393.7950465111419
 30
0.0
 11
367.7662873533965
 21
394.4026520823973
 31
0.0
  0
LINE
  5
23A
330
1F
100
AcDbEntity
  8
LAY-10
  6
CONTINUOUS
 62
     7
100
AcDbLine
 10
363.6626189142631
 20
394.8082483534848
 30
0.0
 11
365.5460877052699
 21
394.1346497479317
 31
0.0
  0
ARC
  5
23B
330
1F
100
AcDbEntity
  8
LAY-10
  6
CONTINUOUS
 62
     7
100
AcDbCircle
 10
309.9999999999998
 20
414.0000000000202
 30
0.0
 40
55.9999999999982
100
AcDbArc
 50
320.6841832434516
 51
339.3158167565508
  0
ARC
  5
23C
330
1F
100
AcDbEntity
  8
LAY-10
  6
CONTINUOUS
 62
     7
100
AcDbCircle
 10
309.9999999999998
 20
414.0000000000202
 30
0.0
 40
59.99999999999788
100
AcDbArc
 50
320.6501039670054
 51
339.3498960329977
  0
ARC
  5
23D
330
1F
100
AcDbEntity
  8
LAY-10
  6
CONTINUOUS
 62
     7
100
AcDbCircle
 10
309.9999999999998
 20
414.0000000000202
 30
0.0
 40
60.99999999999648
100
AcDbArc
 50
318.739625408038
 51
341.2603745919661
  0
LINE
  5
23E
330
1F
100
AcDbEntity
  8
LAY-10
  6
CONTINUOUS
 62
     7
100
AcDbLine
 10
354.9769418260215
 20
375.828352092464
 30
0.0
 11
353.4518539261547
 21
377.1226846099335
 31
0.0
  0
LINE
  5
23F
330
1F
100
AcDbEntity
  8
LAY-10
  6
CONTINUOUS
 62
     7
100
AcDbLine
 10
350.2283983715373
 20
368.1450551798583
 30
0.0
 11
346.8727476803829
 21
372.098955894072
 31
0.0
  0
LINE
  5
240
330
1F
100
AcDbEntity
  8
LAY-10
  6
CONTINUOUS
 62
     7
100
AcDbLine
 10
329.5973479176224
 20
356.2337126466248
 30
0.0
 11
327.8509948006484
 21
361.1167417484909
 31
0.0
  0
LINE
  5
241
330
1F
100
AcDbEntity
  8
LAY-10
  6
CONTINUOUS
 62
     7
100
AcDbLine
 10
329.5973479176224
 20
356.2337126466248
 30
0.0
 11
330.2049534888771
 21
357.5043377372248
 31
0.0
  0
LINE
  5
242
330
1F
100
AcDbEntity
  8
LAY-10
  6
CONTINUOUS
 62
     7
100
AcDbLine
 10
328.8579565896173
 20
361.2707152214106
 30
0.0
 11
327.8509948006484
 21
361.1167417484909
 31
0.0
  0
LINE
  5
243
330
1F
100
AcDbEntity
  8
LAY-10
  6
CONTINUOUS
 62
     7
100
AcDbLine
 10
346.2359218468454
 20
371.3038881406395
 30
0.0
 11
346.8727476803829
 21
372.098955894072
 31
0.0
  0
LINE
  5
244
330
1F
100
AcDbEntity
  8
LAY-10
  6
CONTINUOUS
 62
     7
100
AcDbLine
 10
348.8242019787641
 20
368.25416586497
 30
0.0
 11
350.2283983715373
 21
368.1450551798583
 31
0.0
  0
LINE
  5
245
330
1F
100
AcDbEntity
  8
LAY-10
  6
CONTINUOUS
 62
     7
100
AcDbLine
 10
346.877315390083
 20
370.5481460738669
 30
0.0
 11
348.1716479075535
 21
369.0230581740009
 31
0.0
  0
ARC
  5
246
330
1F
100
AcDbEntity
  8
LAY-10
  6
CONTINUOUS
 62
     7
100
AcDbCircle
 10
309.9999999999953
 20
414.0000000000202
 30
0.0
 40
55.9999999999982
100
AcDbArc
 50
290.6841832434516
 51
309.3158167565506
  0
ARC
  5
247
330
1F
100
AcDbEntity
  8
LAY-10
  6
CONTINUOUS
 62
     7
100
AcDbCircle
 10
309.9999999999953
 20
414.0000000000202
 30
0.0
 40
59.99999999999788
100
AcDbArc
 50
290.6501039670052
 51
309.3498960329975
  0
ARC
  5
248
330
1F
100
AcDbEntity
  8
LAY-10
  6
CONTINUOUS
 62
     7
100
AcDbCircle
 10
309.9999999999953
 20
414.0000000000202
 30
0.0
 40
60.99999999999648
100
AcDbArc
 50
288.7396254080382
 51
311.2603745919659
  0
LINE
  5
249
330
1F
100
AcDbEntity
  8
LAY-10
  6
CONTINUOUS
 62
     7
100
AcDbLine
 10
329.865350252087
 20
358.4539122947505
 30
0.0
 11
329.1917516465328
 21
360.3373810857569
 31
0.0
  0
ARC
  5
24A
330
1F
100
AcDbEntity
  8
LAY-10
  6
CONTINUOUS
 62
     7
100
AcDbCircle
 10
309.9999999999998
 20
414.0000000000035
 30
0.0
 40
55.81484586264231
100
AcDbArc
 50
41.34764533922833
 51
48.65235466078619
  0
ARC
  5
24B
330
1F
100
AcDbEntity
  8
LAY-10
  6
CONTINUOUS
 62
     7
100
AcDbCircle
 10
309.9999999999998
 20
414.0000000000035
 30
0.0
 40
55.81484586264231
100
AcDbArc
 50
11.34764533923193
 51
18.65235466080194
  0
ARC
  5
24C
330
1F
100
AcDbEntity
  8
LAY-10
  6
CONTINUOUS
 62
     7
100
AcDbCircle
 10
309.9999999999998
 20
414.0000000000035
 30
0.0
 40
55.81484586264231
100
AcDbArc
 50
341.3476453391814
 51
348.6523546608029
  0
ARC
  5
24D
330
1F
100
AcDbEntity
  8
LAY-10
  6
CONTINUOUS
 62
     7
100
AcDbCircle
 10
309.9999999999998
 20
414.0000000000035
 30
0.0
 40
55.81484586264231
100
AcDbArc
 50
311.3476453391144
 51
318.6523546608439
  0
LINE
  5
24E
330
1F
100
AcDbEntity
  8
LAY-10
  6
CONTINUOUS
 62
     7
100
AcDbLine
 10
364.7466030180552
 20
407.4849930475806
 30
0.0
 11
365.2559355235564
 21
408.0000000000202
 31
0.0
  0
LINE
  5
24F
330
1F
100
AcDbEntity
  8
LAY-10
  6
CONTINUOUS
 62
     7
100
AcDbLine
 10
365.2559355235528
 20
420.0000000000202
 30
0.0
 11
364.7466030180552
 21
420.5150069524601
 31
0.0
  0
ARC
  5
250
330
1F
100
AcDbEntity
  8
LAY-10
  6
CONTINUOUS
 62
     7
100
AcDbCircle
 10
347.409217338636
 20
368.3759881410213
 30
0.0
 40
1.0
100
AcDbArc
 50
309.3498960329889
 51
40.32105744199258
  0
ARC
  5
251
330
1F
100
AcDbEntity
  8
LAY-10
  6
CONTINUOUS
 62
     7
100
AcDbCircle
 10
346.1148848211656
 20
369.9010760408872
 30
0.0
 40
1.0
100
AcDbArc
 50
40.32105744199465
 51
129.3158167565595
  0
ARC
  5
252
330
1F
100
AcDbEntity
  8
LAY-10
  6
CONTINUOUS
 62
     7
100
AcDbCircle
 10
330.1333460175792
 20
360.6741303105717
 30
0.0
 40
1.0
100
AcDbArc
 50
110.6841832434506
 51
199.6789425580286
  0
ARC
  5
253
330
1F
100
AcDbEntity
  8
LAY-10
  6
CONTINUOUS
 62
     7
100
AcDbCircle
 10
330.8069446231334
 20
358.7906615195655
 30
0.0
 40
1.0
100
AcDbArc
 50
199.6789425580388
 51
290.6501039670149
  0
ARC
  5
254
330
1F
100
AcDbEntity
  8
LAY-10
  6
CONTINUOUS
 62
     7
100
AcDbCircle
 10
365.2093384804554
 20
393.1930553768849
 30
0.0
 40
1.0
100
AcDbArc
 50
339.3498960329954
 51
70.32105744199214
  0
ARC
  5
255
330
1F
100
AcDbEntity
  8
LAY-10
  6
CONTINUOUS
 62
     7
100
AcDbCircle
 10
363.3258696894488
 20
393.8666539824379
 30
0.0
 40
1.0
100
AcDbArc
 50
70.32105744200658
 51
159.3158167565494
  0
ARC
  5
256
330
1F
100
AcDbEntity
  8
LAY-10
  6
CONTINUOUS
 62
     7
100
AcDbCircle
 10
355.6240118590008
 20
376.5907826613819
 30
0.0
 40
1.0
100
AcDbArc
 50
229.6789425580401
 51
320.6501039669976
  0
ARC
  5
257
330
1F
100
AcDbEntity
  8
LAY-10
  6
CONTINUOUS
 62
     7
100
AcDbCircle
 10
354.098923959134
 20
377.8851151788514
 30
0.0
 40
1.0
100
AcDbArc
 50
140.6841832434568
 51
229.6789425580146
  0
ARC
  5
258
330
1F
100
AcDbEntity
  8
LAY-10
  6
CONTINUOUS
 62
     7
100
AcDbCircle
 10
368.2161619617762
 20
404.4146733785665
 30
0.0
 40
1.0
100
AcDbArc
 50
259.6789425580434
 51
350.6501039670062
  0
ARC
  5
259
330
1F
100
AcDbEntity
  8
LAY-10
  6
CONTINUOUS
 62
     7
100
AcDbCircle
 10
366.2482308387525
 20
404.773054269706
 30
0.0
 40
1.0
100
AcDbArc
 50
170.6841832434494
 51
259.6789425580434
  0
ARC
  5
25A
330
1F
100
AcDbEntity
  8
LAY-10
  6
CONTINUOUS
 62
     7
100
AcDbCircle
 10
368.2161619617758
 20
423.5853266214768
 30
0.0
 40
1.0
100
AcDbArc
 50
9.349896032993792
 51
100.3210574420097
  0
ARC
  5
25B
330
1F
100
AcDbEntity
  8
LAY-10
  6
CONTINUOUS
 62
     7
100
AcDbCircle
 10
366.2482308387522
 20
423.2269457303362
 30
0.0
 40
1.0
100
AcDbArc
 50
100.3210574419931
 51
189.3158167565507
  0
ARC
  5
25C
330
1F
100
AcDbEntity
  8
LAY-10
  6
CONTINUOUS
 62
     7
100
AcDbCircle
 10
365.2093384804543
 20
434.8069446231583
 30
0.0
 40
1.0
100
AcDbArc
 50
289.678942558043
 51
20.65010396701481
  0
ARC
  5
25D
330
1F
100
AcDbEntity
  8
LAY-10
  6
CONTINUOUS
 62
     7
100
AcDbCircle
 10
363.3258696894482
 20
434.1333460176041
 30
0.0
 40
1.0
100
AcDbArc
 50
200.6841832434506
 51
289.6789425580348
  0
ARC
  5
25E
330
1F
100
AcDbEntity
  8
LAY-10
  6
CONTINUOUS
 62
     7
100
AcDbCircle
 10
355.6240118589988
 20
451.4092173386609
 30
0.0
 40
1.0
100
AcDbArc
 50
39.34989603298423
 51
130.3210574420017
  0
ARC
  5
25F
330
1F
100
AcDbEntity
  8
LAY-10
  6
CONTINUOUS
 62
     7
100
AcDbCircle
 10
354.0989239591327
 20
450.1148848211905
 30
0.0
 40
1.0
100
AcDbArc
 50
130.3210574420017
 51
219.3158167565432
  0
ARC
  5
260
330
1F
100
AcDbEntity
  8
LAY-10
  6
CONTINUOUS
 62
     7
100
AcDbCircle
 10
347.4092173386381
 20
459.6240118590046
 30
0.0
 40
1.0
100
AcDbArc
 50
319.67894255804
 51
50.65010396699288
  0
ARC
  5
261
330
1F
100
AcDbEntity
  8
LAY-10
  6
CONTINUOUS
 62
     7
100
AcDbCircle
 10
346.1148848211686
 20
458.0989239591378
 30
0.0
 40
1.0
100
AcDbArc
 50
230.6841832434523
 51
319.67894255804
  0
ARC
  5
262
330
1F
100
AcDbEntity
  8
LAY-10
  6
CONTINUOUS
 62
     7
100
AcDbCircle
 10
330.8069446231351
 20
469.2093384804595
 30
0.0
 40
1.0
100
AcDbArc
 50
69.34989603300579
 51
160.3210574420127
  0
ARC
  5
263
330
1F
100
AcDbEntity
  8
LAY-10
  6
CONTINUOUS
 62
     7
100
AcDbCircle
 10
330.133346017582
 20
467.3258696894525
 30
0.0
 40
1.0
100
AcDbArc
 50
160.3210574420025
 51
249.3158167565495
  0
LINE
  5
264
330
1F
100
AcDbEntity
  8
LAY-10
  6
CONTINUOUS
 62
     7
100
AcDbLine
 10
321.9113425332396
 20
354.1742537108153
 30
0.0
 11
320.9822141455799
 21
359.276257518943
 31
0.0
  0
LINE
  5
265
330
1F
100
AcDbEntity
  8
LAY-10
  6
CONTINUOUS
 62
     7
100
AcDbLine
 10
298.0886574667741
 20
354.1742537108142
 30
0.0
 11
299.0177858544295
 21
359.2762575189362
 31
0.0
  0
LINE
  5
266
330
1F
100
AcDbEntity
  8
LAY-10
  6
CONTINUOUS
 62
     7
100
AcDbLine
 10
298.0886574667742
 20
354.1742537108142
 30
0.0
 11
299.2501718722616
 21
354.9708445323325
 31
0.0
  0
LINE
  5
267
330
1F
100
AcDbEntity
  8
LAY-10
  6
CONTINUOUS
 62
     7
100
AcDbLine
 10
299.9668270807767
 20
358.9061215635087
 30
0.0
 11
299.0177858544295
 21
359.2762575189362
 31
0.0
  0
LINE
  5
268
330
1F
100
AcDbEntity
  8
LAY-10
  6
CONTINUOUS
 62
     7
100
AcDbLine
 10
320.0331729192339
 20
358.906121563509
 30
0.0
 11
320.9822141455799
 21
359.276257518943
 31
0.0
  0
LINE
  5
269
330
1F
100
AcDbEntity
  8
LAY-10
  6
CONTINUOUS
 62
     7
100
AcDbLine
 10
320.7498281277515
 20
354.9708445323332
 30
0.0
 11
321.9113425332396
 21
354.1742537108153
 31
0.0
  0
LINE
  5
26A
330
1F
100
AcDbEntity
  8
LAY-10
  6
CONTINUOUS
 62
     7
100
AcDbLine
 10
320.2107649881148
 20
357.9309329633568
 30
0.0
 11
320.5691458792554
 21
355.9630018403335
 31
0.0
  0
ARC
  5
26B
330
1F
100
AcDbEntity
  8
LAY-10
  6
CONTINUOUS
 62
     7
100
AcDbCircle
 10
310.0000000000047
 20
413.99999999998
 30
0.0
 40
55.9999999999982
100
AcDbArc
 50
260.6841832434516
 51
279.3158167565506
  0
ARC
  5
26C
330
1F
100
AcDbEntity
  8
LAY-10
  6
CONTINUOUS
 62
     7
100
AcDbCircle
 10
310.0000000000047
 20
413.99999999998
 30
0.0
 40
59.99999999999788
100
AcDbArc
 50
260.6501039670056
 51
279.3498960329978
  0
ARC
  5
26D
330
1F
100
AcDbEntity
  8
LAY-10
  6
CONTINUOUS
 62
     7
100
AcDbCircle
 10
310.0000000000047
 20
413.99999999998
 30
0.0
 40
60.99999999999648
100
AcDbArc
 50
258.7396254080384
 51
281.2603745919662
  0
LINE
  5
26E
330
1F
100
AcDbEntity
  8
LAY-10
  6
CONTINUOUS
 62
     7
100
AcDbLine
 10
299.4308541207569
 20
355.9630018403321
 30
0.0
 11
299.7892350118964
 21
357.9309329633561
 31
0.0
  0
LINE
  5
26F
330
1F
100
AcDbEntity
  8
LAY-10
  6
CONTINUOUS
 62
     7
100
AcDbLine
 10
314.5150069524381
 20
359.0522924060656
 30
0.0
 11
314.0000000000002
 21
358.5633838461855
 31
0.0
  0
LINE
  5
270
330
1F
100
AcDbEntity
  8
LAY-10
  6
CONTINUOUS
 62
     7
100
AcDbLine
 10
305.4849930475624
 20
359.0522924060656
 30
0.0
 11
306.0000000000002
 21
358.5633838461838
 31
0.0
  0
ARC
  5
271
330
1F
100
AcDbEntity
  8
LAY-10
  6
CONTINUOUS
 62
     7
100
AcDbCircle
 10
309.9999999999881
 20
413.99999999998
 30
0.0
 40
55.58073776573366
100
AcDbArc
 50
265.8730052062237
 51
274.1269947938018
  0
ARC
  5
272
330
1F
100
AcDbEntity
  8
LAY-10
  6
CONTINUOUS
 62
     7
100
AcDbCircle
 10
300.4146733785511
 20
355.7838380382036
 30
0.0
 40
1.0
100
AcDbArc
 50
169.6789425580497
 51
260.650103967003
  0
ARC
  5
273
330
1F
100
AcDbEntity
  8
LAY-10
  6
CONTINUOUS
 62
     7
100
AcDbCircle
 10
300.7730542696906
 20
357.7517691612272
 30
0.0
 40
1.0
100
AcDbArc
 50
80.68418324344937
 51
169.6789425580299
  0
ARC
  5
274
330
1F
100
AcDbEntity
  8
LAY-10
  6
CONTINUOUS
 62
     7
100
AcDbCircle
 10
319.2269457303206
 20
357.7517691612276
 30
0.0
 40
1.0
100
AcDbArc
 50
10.32105744198994
 51
99.31581675655069
  0
ARC
  5
275
330
1F
100
AcDbEntity
  8
LAY-10
  6
CONTINUOUS
 62
     7
100
AcDbCircle
 10
319.5853266214613
 20
355.783838038204
 30
0.0
 40
1.0
100
AcDbArc
 50
279.3498960330003
 51
10.3210574420097
  0
ARC
  5
276
330
1F
100
AcDbEntity
  8
LAY-10
  6
CONTINUOUS
 62
     7
100
AcDbCircle
 10
310.0000000000002
 20
414.0000000000202
 30
0.0
 40
55.13289270124415
100
AcDbArc
 50
186.786450659302
 51
265.3026068911718
  0
ARC
  5
277
330
1F
100
AcDbEntity
  8
LAY-10
  6
CONTINUOUS
 62
     7
100
AcDbCircle
 10
310.0000000000002
 20
414.0000000000202
 30
0.0
 40
55.13289270124415
100
AcDbArc
 50
6.786450659301666
 51
85.30260689117128
  0
ARC
  5
278
330
1F
100
AcDbEntity
  8
LAY-10
  6
CONTINUOUS
 62
     7
100
AcDbCircle
 10
309.9999999999998
 20
414.0000000000202
 30
0.0
 40
55.13289270124415
100
AcDbArc
 50
274.6973931088286
 51
353.2135493406984
  0
ARC
  5
279
330
1F
100
AcDbEntity
  8
LAY-10
  6
CONTINUOUS
 62
     7
100
AcDbCircle
 10
309.9999999999998
 20
414.0000000000035
 30
0.0
 40
55.81484586264231
100
AcDbArc
 50
71.34764533919608
 51
78.65235466079343
  0
ARC
  5
27A
330
1F
100
AcDbEntity
  8
LAY-10
  6
CONTINUOUS
 62
     7
100
AcDbCircle
 10
310.0000000000002
 20
413.9999999999967
 30
0.0
 40
55.81484586264231
100
AcDbArc
 50
251.3476453391962
 51
258.6523546607935
  0
ARC
  5
27B
330
1F
100
AcDbEntity
  8
LAY-10
  6
CONTINUOUS
 62
     7
100
AcDbCircle
 10
309.9999999999998
 20
413.9999999999967
 30
0.0
 40
55.81484586264231
100
AcDbArc
 50
281.3476453392066
 51
288.6523546608042
  0
CIRCLE
  5
27C
330
1F
100
AcDbEntity
  8
LAY-10
  6
CONTINUOUS
 62
     7
100
AcDbCircle
 10
259.5000000000002
 20
414.00000000002
 30
0.0
 40
5.250000000000004
  0
LINE
  5
27D
330
1F
100
AcDbEntity
  8
LAY-10
  6
CONTINUOUS
 62
     7
100
AcDbLine
 10
264.4633927678603
 20
415.7109156121878
 30
0.0
 11
255.5366072321964
 21
410.5570335801841
 31
0.0
  0
LINE
  5
27E
330
1F
100
AcDbEntity
  8
LAY-10
  6
CONTINUOUS
 62
     7
100
AcDbLine
 10
263.4633927678627
 20
417.4429664197897
 30
0.0
 11
254.5366072321694
 21
412.289084387769
 31
0.0
  0
CIRCLE
  5
27F
330
1F
100
AcDbEntity
  8
LAY-10
  6
CONTINUOUS
 62
     7
100
AcDbCircle
 10
360.5000000000002
 20
414.00000000002
 30
0.0
 40
5.250000000000004
  0
LINE
  5
280
330
1F
100
AcDbEntity
  8
LAY-10
  6
CONTINUOUS
 62
     7
100
AcDbLine
 10
365.4633927678603
 20
415.7109156121878
 30
0.0
 11
356.5366072321964
 21
410.5570335801841
 31
0.0
  0
LINE
  5
281
330
1F
100
AcDbEntity
  8
LAY-10
  6
CONTINUOUS
 62
     7
100
AcDbLine
 10
364.4633927678627
 20
417.4429664197897
 30
0.0
 11
355.5366072321694
 21
412.289084387769
 31
0.0
  0
CIRCLE
  5
282
330
1F
100
AcDbEntity
  8
LAY-10
  6
CONTINUOUS
 62
     7
100
AcDbCircle
 10
309.9999999999999
 20
414.0000000000004
 30
0.0
 40
31.97796688174738
  0
LINE
  5
283
330
1F
100
AcDbEntity
  8
LAY-10
  6
CONTINUOUS
 62
     7
100
AcDbLine
 10
267.9902494970212
 20
419.0000000000004
 30
0.0
 11
272.7575762517
 21
419.0000000000004
 31
0.0
  0
LINE
  5
284
330
1F
100
AcDbEntity
  8
LAY-10
  6
CONTINUOUS
 62
     7
100
AcDbLine
 10
267.9902494970212
 20
409.0000000000005
 30
0.0
 11
272.7575762517
 21
409.0000000000005
 31
0.0
  0
LINE
  5
285
330
1F
100
AcDbEntity
  8
LAY-10
  6
CONTINUOUS
 62
     7
100
AcDbLine
 10
284.6649977295883
 20
380.1184888577749
 30
0.0
 11
287.0486611069279
 21
384.247114935468
 31
0.0
  0
LINE
  5
286
330
1F
100
AcDbEntity
  8
LAY-10
  6
CONTINUOUS
 62
     7
100
AcDbLine
 10
293.3252517674329
 20
452.8815111422261
 30
0.0
 11
295.7089151447723
 21
448.7528850645329
 31
0.0
  0
LINE
  5
287
330
1F
100
AcDbEntity
  8
LAY-10
  6
CONTINUOUS
 62
     7
100
AcDbLine
 10
284.6649977295883
 20
447.881511142226
 30
0.0
 11
287.0486611069279
 21
443.7528850645329
 31
0.0
  0
LINE
  5
288
330
1F
100
AcDbEntity
  8
LAY-10
  6
CONTINUOUS
 62
     7
100
AcDbLine
 10
276.1184888577742
 20
439.3350022704121
 30
0.0
 11
280.2471149354674
 21
436.9513388930725
 31
0.0
  0
LINE
  5
289
330
1F
100
AcDbEntity
  8
LAY-10
  6
CONTINUOUS
 62
     7
100
AcDbLine
 10
271.1184888577742
 20
430.6747482325677
 30
0.0
 11
275.2471149354673
 21
428.2910848552281
 31
0.0
  0
ARC
  5
28A
330
1F
100
AcDbEntity
  8
LAY-10
  6
CONTINUOUS
 62
     7
100
AcDbCircle
 10
309.9999999999999
 20
414.0000000000004
 30
0.0
 40
37.5765635289861
100
AcDbArc
 50
97.64655010275014
 51
112.3534498972499
  0
ARC
  5
28B
330
1F
100
AcDbEntity
  8
LAY-10
  6
CONTINUOUS
 62
     7
100
AcDbCircle
 10
309.9999999999999
 20
414.0000000000004
 30
0.0
 40
37.5765635289861
100
AcDbArc
 50
127.6465501027501
 51
142.3534498972499
  0
ARC
  5
28C
330
1F
100
AcDbEntity
  8
LAY-10
  6
CONTINUOUS
 62
     7
100
AcDbCircle
 10
309.9999999999999
 20
414.0000000000004
 30
0.0
 40
37.5765635289861
100
AcDbArc
 50
157.6465501027506
 51
172.3534498972502
  0
ARC
  5
28D
330
1F
100
AcDbEntity
  8
LAY-10
  6
CONTINUOUS
 62
     7
100
AcDbCircle
 10
309.9999999999999
 20
414.0000000000004
 30
0.0
 40
37.5765635289861
100
AcDbArc
 50
187.6465501027499
 51
202.3534498972494
  0
ARC
  5
28E
330
1F
100
AcDbEntity
  8
LAY-10
  6
CONTINUOUS
 62
     7
100
AcDbCircle
 10
309.9999999999999
 20
414.0000000000004
 30
0.0
 40
37.5765635289861
100
AcDbArc
 50
217.6465501027502
 51
232.3534498972501
  0
LINE
  5
28F
330
1F
100
AcDbEntity
  8
LAY-10
  6
CONTINUOUS
 62
     7
100
AcDbLine
 10
268.8925902382243
 20
424.0000000000005
 30
0.0
 11
257.4428882072082
 21
424.0000000000005
 31
0.0
  0
LINE
  5
290
330
1F
100
AcDbEntity
  8
LAY-10
  6
CONTINUOUS
 62
     7
100
AcDbLine
 10
268.8925902382243
 20
404.0000000000006
 30
0.0
 11
257.4428882072082
 21
404.0000000000006
 31
0.0
  0
CIRCLE
  5
291
330
1F
100
AcDbEntity
  8
LAY-10
  6
CONTINUOUS
 62
     7
100
AcDbCircle
 10
309.9999999999999
 20
414.0000000000004
 30
0.0
 40
36.00000000000126
  0
LINE
  5
292
330
1F
100
AcDbEntity
  8
LAY-10
  6
CONTINUOUS
 62
     7
100
AcDbLine
 10
351.1074097617754
 20
424.0000000000005
 30
0.0
 11
362.5571117927916
 21
424.0000000000005
 31
0.0
  0
LINE
  5
293
330
1F
100
AcDbEntity
  8
LAY-10
  6
CONTINUOUS
 62
     7
100
AcDbLine
 10
351.1074097617754
 20
404.0000000000006
 30
0.0
 11
362.5571117927916
 21
404.0000000000006
 31
0.0
  0
LINE
  5
294
330
1F
100
AcDbEntity
  8
LAY-10
  6
CONTINUOUS
 62
     7
100
AcDbLine
 10
304.9999999999999
 20
371.9902494970218
 30
0.0
 11
304.9999999999999
 21
376.7575762517005
 31
0.0
  0
LINE
  5
295
330
1F
100
AcDbEntity
  8
LAY-10
  6
CONTINUOUS
 62
     7
100
AcDbLine
 10
293.3252517674329
 20
375.1184888577748
 30
0.0
 11
295.7089151447723
 21
379.247114935468
 31
0.0
  0
ARC
  5
296
330
1F
100
AcDbEntity
  8
LAY-10
  6
CONTINUOUS
 62
     7
100
AcDbCircle
 10
309.9999999999999
 20
414.0000000000004
 30
0.0
 40
37.5765635289861
100
AcDbArc
 50
247.6465501027503
 51
262.35344989725
  0
LINE
  5
297
330
1F
100
AcDbEntity
  8
LAY-10
  6
CONTINUOUS
 62
     7
100
AcDbLine
 10
315.0
 20
371.9902494970218
 30
0.0
 11
315.0
 21
376.7575762517005
 31
0.0
  0
LINE
  5
298
330
1F
100
AcDbEntity
  8
LAY-10
  6
CONTINUOUS
 62
     7
100
AcDbLine
 10
326.674748232567
 20
375.1184888577748
 30
0.0
 11
324.2910848552275
 21
379.247114935468
 31
0.0
  0
ARC
  5
299
330
1F
100
AcDbEntity
  8
LAY-10
  6
CONTINUOUS
 62
     7
100
AcDbCircle
 10
309.9999999999999
 20
414.0000000000004
 30
0.0
 40
37.5765635289861
100
AcDbArc
 50
277.6465501027504
 51
292.3534498972501
  0
LINE
  5
29A
330
1F
100
AcDbEntity
  8
LAY-10
  6
CONTINUOUS
 62
     7
100
AcDbLine
 10
335.3350022704115
 20
380.1184888577749
 30
0.0
 11
332.9513388930719
 21
384.247114935468
 31
0.0
  0
ARC
  5
29B
330
1F
100
AcDbEntity
  8
LAY-10
  6
CONTINUOUS
 62
     7
100
AcDbCircle
 10
309.9999999999999
 20
414.0000000000004
 30
0.0
 40
37.5765635289861
100
AcDbArc
 50
307.64655010275
 51
322.3534498972501
  0
ARC
  5
29C
330
1F
100
AcDbEntity
  8
LAY-10
  6
CONTINUOUS
 62
     7
100
AcDbCircle
 10
309.9999999999999
 20
414.0000000000004
 30
0.0
 40
37.5765635289861
100
AcDbArc
 50
337.6465501027505
 51
352.3534498972502
  0
LINE
  5
29D
330
1F
100
AcDbEntity
  8
LAY-10
  6
CONTINUOUS
 62
     7
100
AcDbLine
 10
352.0097505029785
 20
409.0000000000005
 30
0.0
 11
347.2424237482998
 21
409.0000000000005
 31
0.0
  0
LINE
  5
29E
330
1F
100
AcDbEntity
  8
LAY-10
  6
CONTINUOUS
 62
     7
100
AcDbLine
 10
352.0097505029785
 20
419.0000000000004
 30
0.0
 11
347.2424237482998
 21
419.0000000000004
 31
0.0
  0
LINE
  5
29F
330
1F
100
AcDbEntity
  8
LAY-10
  6
CONTINUOUS
 62
     7
100
AcDbLine
 10
326.674748232567
 20
452.8815111422261
 30
0.0
 11
324.2910848552275
 21
448.7528850645329
 31
0.0
  0
LINE
  5
2A0
330
1F
100
AcDbEntity
  8
LAY-10
  6
CONTINUOUS
 62
     7
100
AcDbLine
 10
335.3350022704115
 20
447.881511142226
 30
0.0
 11
332.9513388930719
 21
443.7528850645329
 31
0.0
  0
LINE
  5
2A1
330
1F
100
AcDbEntity
  8
LAY-10
  6
CONTINUOUS
 62
     7
100
AcDbLine
 10
343.8815111422256
 20
439.3350022704121
 30
0.0
 11
339.7528850645324
 21
436.9513388930725
 31
0.0
  0
LINE
  5
2A2
330
1F
100
AcDbEntity
  8
LAY-10
  6
CONTINUOUS
 62
     7
100
AcDbLine
 10
348.8815111422256
 20
430.6747482325677
 30
0.0
 11
344.7528850645325
 21
428.2910848552281
 31
0.0
  0
ARC
  5
2A3
330
1F
100
AcDbEntity
  8
LAY-10
  6
CONTINUOUS
 62
     7
100
AcDbCircle
 10
309.9999999999999
 20
414.0000000000004
 30
0.0
 40
37.5765635289861
100
AcDbArc
 50
67.64655010274996
 51
82.35344989724965
  0
ARC
  5
2A4
330
1F
100
AcDbEntity
  8
LAY-10
  6
CONTINUOUS
 62
     7
100
AcDbCircle
 10
309.9999999999999
 20
414.0000000000004
 30
0.0
 40
37.5765635289861
100
AcDbArc
 50
37.64655010275006
 51
52.35344989725009
  0
ARC
  5
2A5
330
1F
100
AcDbEntity
  8
LAY-10
  6
CONTINUOUS
 62
     7
100
AcDbCircle
 10
309.9999999999999
 20
414.0000000000004
 30
0.0
 40
37.5765635289861
100
AcDbArc
 50
7.646550102750219
 51
22.35344989724968
  0
LINE
  5
2A6
330
1F
100
AcDbEntity
  8
LAY-10
  6
CONTINUOUS
 62
     7
100
AcDbLine
 10
313.0000000000001
 20
444.5000000000026
 30
0.0
 11
306.9999999999999
 21
444.5000000000026
 31
0.0
  0
LINE
  5
2A7
330
1F
100
AcDbEntity
  8
LAY-10
  6
CONTINUOUS
 62
     7
100
AcDbLine
 10
307.5000000000003
 20
444.0000000000026
 30
0.0
 11
312.5000000000004
 21
444.0000000000026
 31
0.0
  0
LINE
  5
2A8
330
1F
100
AcDbEntity
  8
LAY-10
  6
CONTINUOUS
 62
     7
100
AcDbLine
 10
312.5000000000004
 20
444.0000000000026
 30
0.0
 11
313.0000000000001
 21
444.5000000000026
 31
0.0
  0
LINE
  5
2A9
330
1F
100
AcDbEntity
  8
LAY-10
  6
CONTINUOUS
 62
     7
100
AcDbLine
 10
307.5000000000003
 20
444.0000000000026
 30
0.0
 11
306.9999999999999
 21
444.5000000000026
 31
0.0
  0
ARC
  5
2AA
330
1F
100
AcDbEntity
  8
LAY-10
  6
CONTINUOUS
 62
     7
100
AcDbCircle
 10
310.0000000000001
 20
453.7000000000006
 30
0.0
 40
6.300000000000004
100
AcDbArc
 50
95.46502379990869
 51
128.682187453492
  0
ARC
  5
2AB
330
1F
100
AcDbEntity
  8
LAY-10
  6
CONTINUOUS
 62
     7
100
AcDbCircle
 10
310.0000000000001
 20
453.7000000000006
 30
0.0
 40
6.300000000000004
100
AcDbArc
 50
51.3178125464967
 51
84.53497620009915
  0
LINE
  5
2AC
330
1F
100
AcDbEntity
  8
LAY-10
  6
CONTINUOUS
 62
     7
100
AcDbLine
 10
309.4000000000003
 20
459.9713634881006
 30
0.0
 11
309.4000000000003
 21
457.5000000000006
 31
0.0
  0
LINE
  5
2AD
330
1F
100
AcDbEntity
  8
LAY-10
  6
CONTINUOUS
 62
     7
100
AcDbLine
 10
310.6000000000006
 20
457.5000000000006
 30
0.0
 11
309.4000000000003
 21
457.5000000000006
 31
0.0
  0
LINE
  5
2AE
330
1F
100
AcDbEntity
  8
LAY-10
  6
CONTINUOUS
 62
     7
100
AcDbLine
 10
310.6000000000006
 20
459.9713634881006
 30
0.0
 11
310.6000000000006
 21
457.5000000000006
 31
0.0
  0
LINE
  5
2AF
330
1F
100
AcDbEntity
  8
LAY-10
  6
CONTINUOUS
 62
     7
100
AcDbLine
 10
315.2481347569003
 20
456.0000000000006
 30
0.0
 11
304.7518652431001
 21
456.0000000000006
 31
0.0
  0
ARC
  5
2B0
330
1F
100
AcDbEntity
  8
LAY-10
  6
CONTINUOUS
 62
     7
100
AcDbCircle
 10
311.7500000000002
 20
455.8857492994003
 30
0.0
 40
3.500000000000003
100
AcDbArc
 50
1.870641730603566
 51
51.31781254649722
  0
ARC
  5
2B1
330
1F
100
AcDbEntity
  8
LAY-10
  6
CONTINUOUS
 62
     7
100
AcDbCircle
 10
308.2500000000002
 20
455.8857492994003
 30
0.0
 40
3.500000000000003
100
AcDbArc
 50
128.6821874534942
 51
178.1293582694105
  0
LINE
  5
2B2
330
1F
100
AcDbEntity
  8
LAY-10
  6
CONTINUOUS
 62
     7
100
AcDbLine
 10
282.0862251845755
 20
401.3480762113521
 30
0.0
 11
285.0862251845756
 21
396.1519237886453
 31
0.0
  0
LINE
  5
2B3
330
1F
100
AcDbEntity
  8
LAY-10
  6
CONTINUOUS
 62
     7
100
AcDbLine
 10
285.2692378864676
 20
396.8349364905379
 30
0.0
 11
282.7692378864675
 21
401.1650635094601
 31
0.0
  0
LINE
  5
2B4
330
1F
100
AcDbEntity
  8
LAY-10
  6
CONTINUOUS
 62
     7
100
AcDbLine
 10
282.7692378864675
 20
401.1650635094601
 30
0.0
 11
282.0862251845755
 21
401.3480762113521
 31
0.0
  0
LINE
  5
2B5
330
1F
100
AcDbEntity
  8
LAY-10
  6
CONTINUOUS
 62
     7
100
AcDbLine
 10
285.2692378864676
 20
396.8349364905379
 30
0.0
 11
285.0862251845756
 21
396.1519237886453
 31
0.0
  0
ARC
  5
2B6
330
1F
100
AcDbEntity
  8
LAY-10
  6
CONTINUOUS
 62
     7
100
AcDbCircle
 10
275.6187914697604
 20
394.1499999999998
 30
0.0
 40
6.300000000000004
100
AcDbArc
 50
215.4650237999084
 51
248.6821874534918
  0
ARC
  5
2B7
330
1F
100
AcDbEntity
  8
LAY-10
  6
CONTINUOUS
 62
     7
100
AcDbCircle
 10
275.6187914697604
 20
394.1499999999998
 30
0.0
 40
6.300000000000004
100
AcDbArc
 50
171.3178125464968
 51
204.5349762000991
  0
LINE
  5
2B8
330
1F
100
AcDbEntity
  8
LAY-10
  6
CONTINUOUS
 62
     7
100
AcDbLine
 10
270.4876313726995
 20
390.4947030136793
 30
0.0
 11
272.6278949353795
 21
391.7303847577293
 31
0.0
  0
LINE
  5
2B9
330
1F
100
AcDbEntity
  8
LAY-10
  6
CONTINUOUS
 62
     7
100
AcDbLine
 10
272.0278949353793
 20
392.7696152422709
 30
0.0
 11
272.6278949353795
 21
391.7303847577293
 31
0.0
  0
LINE
  5
2BA
330
1F
100
AcDbEntity
  8
LAY-10
  6
CONTINUOUS
 62
     7
100
AcDbLine
 10
269.8876313726994
 20
391.5339334982209
 30
0.0
 11
272.0278949353793
 21
392.7696152422709
 31
0.0
  0
ARC
  5
2BB
330
1F
100
AcDbEntity
  8
LAY-10
  6
CONTINUOUS
 62
     7
100
AcDbCircle
 10
272.8508770501761
 20
394.5726698069228
 30
0.0
 40
3.500000000000003
100
AcDbArc
 50
121.8706417306039
 51
171.3178125464973
  0
ARC
  5
2BC
330
1F
100
AcDbEntity
  8
LAY-10
  6
CONTINUOUS
 62
     7
100
AcDbCircle
 10
274.6008770501762
 20
391.5415808936772
 30
0.0
 40
3.500000000000003
100
AcDbArc
 50
248.6821874534945
 51
298.1293582694102
  0
LINE
  5
2BD
330
1F
100
AcDbEntity
  8
LAY-10
  6
CONTINUOUS
 62
     7
100
AcDbLine
 10
334.9137748154274
 20
396.1519237886453
 30
0.0
 11
337.9137748154275
 21
401.3480762113521
 31
0.0
  0
LINE
  5
2BE
330
1F
100
AcDbEntity
  8
LAY-10
  6
CONTINUOUS
 62
     7
100
AcDbLine
 10
337.2307621135351
 20
401.1650635094595
 30
0.0
 11
334.7307621135351
 21
396.8349364905372
 31
0.0
  0
LINE
  5
2BF
330
1F
100
AcDbEntity
  8
LAY-10
  6
CONTINUOUS
 62
     7
100
AcDbLine
 10
334.7307621135351
 20
396.8349364905372
 30
0.0
 11
334.9137748154274
 21
396.1519237886453
 31
0.0
  0
LINE
  5
2C0
330
1F
100
AcDbEntity
  8
LAY-10
  6
CONTINUOUS
 62
     7
100
AcDbLine
 10
337.2307621135351
 20
401.1650635094595
 30
0.0
 11
337.9137748154275
 21
401.3480762113521
 31
0.0
  0
ARC
  5
2C1
330
1F
100
AcDbEntity
  8
LAY-10
  6
CONTINUOUS
 62
     7
100
AcDbCircle
 10
344.3812085302425
 20
394.1499999999996
 30
0.0
 40
6.300000000000004
100
AcDbArc
 50
335.4650237999087
 51
8.682187453492318
  0
ARC
  5
2C2
330
1F
100
AcDbEntity
  8
LAY-10
  6
CONTINUOUS
 62
     7
100
AcDbCircle
 10
344.3812085302425
 20
394.1499999999996
 30
0.0
 40
6.300000000000004
100
AcDbArc
 50
291.3178125464968
 51
324.534976200099
  0
LINE
  5
2C3
330
1F
100
AcDbEntity
  8
LAY-10
  6
CONTINUOUS
 62
     7
100
AcDbLine
 10
350.1123686273032
 20
391.5339334982201
 30
0.0
 11
347.9721050646232
 21
392.7696152422701
 31
0.0
  0
LINE
  5
2C4
330
1F
100
AcDbEntity
  8
LAY-10
  6
CONTINUOUS
 62
     7
100
AcDbLine
 10
347.3721050646231
 20
391.7303847577285
 30
0.0
 11
347.9721050646232
 21
392.7696152422701
 31
0.0
  0
LINE
  5
2C5
330
1F
100
AcDbEntity
  8
LAY-10
  6
CONTINUOUS
 62
     7
100
AcDbLine
 10
349.512368627303
 20
390.4947030136785
 30
0.0
 11
347.3721050646231
 21
391.7303847577285
 31
0.0
  0
LINE
  5
2C6
330
1F
100
AcDbEntity
  8
LAY-10
  6
CONTINUOUS
 62
     7
100
AcDbLine
 10
343.7489995804966
 20
388.45498197804
 30
0.0
 11
348.9971343373967
 21
397.5450180219591
 31
0.0
  0
ARC
  5
2C7
330
1F
100
AcDbEntity
  8
LAY-10
  6
CONTINUOUS
 62
     7
100
AcDbCircle
 10
345.3991229498266
 20
391.5415808936769
 30
0.0
 40
3.500000000000003
100
AcDbArc
 50
241.8706417306035
 51
291.3178125464976
  0
ARC
  5
2C8
330
1F
100
AcDbEntity
  8
LAY-10
  6
CONTINUOUS
 62
     7
100
AcDbCircle
 10
347.1491229498266
 20
394.5726698069225
 30
0.0
 40
3.500000000000003
100
AcDbArc
 50
8.68218745349444
 51
58.12935826940958
  0
LINE
  5
2C9
330
1F
100
AcDbEntity
  8
LAY-10
  6
CONTINUOUS
 62
     7
100
AcDbLine
 10
313.0000000000001
 20
456.0000000000006
 30
0.0
 11
313.0000000000001
 21
449.8747822293058
 31
0.0
  0
LINE
  5
2CA
330
1F
100
AcDbEntity
  8
LAY-10
  6
CONTINUOUS
 62
     7
100
AcDbLine
 10
313.0000000000001
 20
445.8369339901027
 30
0.0
 11
313.0000000000001
 21
444.5000000000026
 31
0.0
  0
LINE
  5
2CB
330
1F
100
AcDbEntity
  8
LAY-10
  6
CONTINUOUS
 62
     7
100
AcDbLine
 10
306.9999999999999
 20
456.0000000000006
 30
0.0
 11
306.9999999999999
 21
449.8747822293059
 31
0.0
  0
LINE
  5
2CC
330
1F
100
AcDbEntity
  8
LAY-10
  6
CONTINUOUS
 62
     7
100
AcDbLine
 10
306.9999999999999
 20
445.8369339901027
 30
0.0
 11
306.9999999999999
 21
444.5000000000026
 31
0.0
  0
LINE
  5
2CD
330
1F
100
AcDbEntity
  8
LAY-10
  6
CONTINUOUS
 62
     7
100
AcDbLine
 10
304.9999999999999
 20
456.0000000000006
 30
0.0
 11
304.9999999999999
 21
451.2424237483004
 31
0.0
  0
LINE
  5
2CE
330
1F
100
AcDbEntity
  8
LAY-10
  6
CONTINUOUS
 62
     7
100
AcDbLine
 10
315.0
 20
456.0000000000006
 30
0.0
 11
315.0
 21
451.2424237483004
 31
0.0
  0
LINE
  5
2CF
330
1F
100
AcDbEntity
  8
LAY-10
  6
CONTINUOUS
 62
     7
100
AcDbLine
 10
271.0028656626061
 20
397.5450180219594
 30
0.0
 11
276.2510004195062
 21
388.4549819780403
 31
0.0
  0
ARC
  5
2D0
330
1F
100
AcDbEntity
  8
LAY-10
  6
CONTINUOUS
 62
     7
100
AcDbCircle
 10
309.9999999999999
 20
414.0000000000004
 30
0.0
 40
42.30625411594031
100
AcDbArc
 50
96.89824549956856
 51
203.1017545004063
  0
LINE
  5
2D1
330
1F
100
AcDbEntity
  8
LAY-10
  6
CONTINUOUS
 62
     7
100
AcDbLine
 10
271.1269330410552
 20
397.3301270189237
 30
0.0
 11
275.2471149354673
 21
399.7089151447728
 31
0.0
  0
LINE
  5
2D2
330
1F
100
AcDbEntity
  8
LAY-10
  6
CONTINUOUS
 62
     7
100
AcDbLine
 10
276.1269330410552
 20
388.6698729810794
 30
0.0
 11
280.2471149354674
 21
391.0486611069284
 31
0.0
  0
LINE
  5
2D3
330
1F
100
AcDbEntity
  8
LAY-10
  6
CONTINUOUS
 62
     7
100
AcDbLine
 10
275.1269330410563
 20
390.4019237886463
 30
0.0
 11
280.431527234188
 21
393.4645326739927
 31
0.0
  0
LINE
  5
2D4
330
1F
100
AcDbEntity
  8
LAY-10
  6
CONTINUOUS
 62
     7
100
AcDbLine
 10
283.9284063859642
 20
395.4834567935943
 30
0.0
 11
285.0862251845756
 21
396.1519237886453
 31
0.0
  0
LINE
  5
2D5
330
1F
100
AcDbEntity
  8
LAY-10
  6
CONTINUOUS
 62
     7
100
AcDbLine
 10
272.1269330410562
 20
395.5980762113531
 30
0.0
 11
277.4315272341876
 21
398.6606850966993
 31
0.0
  0
LINE
  5
2D6
330
1F
100
AcDbEntity
  8
LAY-10
  6
CONTINUOUS
 62
     7
100
AcDbLine
 10
280.9284063859638
 20
400.6796092163008
 30
0.0
 11
282.0862251845755
 21
401.3480762113521
 31
0.0
  0
ARC
  5
2D7
330
1F
100
AcDbEntity
  8
LAY-10
  6
CONTINUOUS
 62
     7
100
AcDbCircle
 10
309.9999999999999
 20
414.0000000000004
 30
0.0
 40
42.30625411594031
100
AcDbArc
 50
216.8982454995939
 51
323.1017545004376
  0
LINE
  5
2D8
330
1F
100
AcDbEntity
  8
LAY-10
  6
CONTINUOUS
 62
     7
100
AcDbLine
 10
343.873066958947
 20
388.669872981078
 30
0.0
 11
339.7528850645324
 21
391.0486611069284
 31
0.0
  0
ARC
  5
2D9
330
1F
100
AcDbEntity
  8
LAY-10
  6
CONTINUOUS
 62
     7
100
AcDbCircle
 10
309.9999999999999
 20
414.0000000000004
 30
0.0
 40
42.30625411594031
100
AcDbArc
 50
336.8982454995625
 51
83.10175450043161
  0
LINE
  5
2DA
330
1F
100
AcDbEntity
  8
LAY-10
  6
CONTINUOUS
 62
     7
100
AcDbLine
 10
348.873066958947
 20
397.3301270189223
 30
0.0
 11
344.7528850645325
 21
399.7089151447728
 31
0.0
  0
LINE
  5
2DB
330
1F
100
AcDbEntity
  8
LAY-10
  6
CONTINUOUS
 62
     7
100
AcDbLine
 10
347.8730669589468
 20
395.5980762113531
 30
0.0
 11
342.5684727658128
 21
398.6606850967007
 31
0.0
  0
LINE
  5
2DC
330
1F
100
AcDbEntity
  8
LAY-10
  6
CONTINUOUS
 62
     7
100
AcDbLine
 10
339.0715936140367
 20
400.6796092163023
 30
0.0
 11
337.9137748154275
 21
401.3480762113521
 31
0.0
  0
LINE
  5
2DD
330
1F
100
AcDbEntity
  8
LAY-10
  6
CONTINUOUS
 62
     7
100
AcDbLine
 10
344.8730669589467
 20
390.4019237886463
 30
0.0
 11
339.5684727658127
 21
393.464532673994
 31
0.0
  0
LINE
  5
2DE
330
1F
100
AcDbEntity
  8
LAY-10
  6
CONTINUOUS
 62
     7
100
AcDbLine
 10
336.0715936140365
 20
395.4834567935955
 30
0.0
 11
334.9137748154274
 21
396.1519237886453
 31
0.0
  0
LINE
  5
2DF
330
1F
100
AcDbEntity
  8
LAY-10
  6
CONTINUOUS
 62
     7
100
AcDbLine
 10
306.0000000000002
 20
467.3502577313367
 30
0.0
 11
306.0000000000002
 21
469.4366161538164
 31
0.0
  0
LINE
  5
2E0
330
1F
100
AcDbEntity
  8
LAY-10
  6
CONTINUOUS
 62
     7
100
AcDbLine
 10
305.4849930475624
 20
467.3091428576702
 30
0.0
 11
305.4849930475624
 21
468.9477075939346
 31
0.0
  0
LINE
  5
2E1
330
1F
100
AcDbEntity
  8
LAY-10
  6
CONTINUOUS
 62
     7
100
AcDbLine
 10
314.0000000000002
 20
467.3502577313366
 30
0.0
 11
314.0000000000002
 21
469.4366161538147
 31
0.0
  0
LINE
  5
2E2
330
1F
100
AcDbEntity
  8
LAY-10
  6
CONTINUOUS
 62
     7
100
AcDbLine
 10
314.5150069524381
 20
467.3091428576701
 30
0.0
 11
314.5150069524381
 21
468.9477075939346
 31
0.0
  0
LINE
  5
2E3
330
1F
100
AcDbEntity
  8
LAY-10
  6
CONTINUOUS
 62
     7
100
AcDbLine
 10
306.0000000000002
 20
360.6497422686641
 30
0.0
 11
306.0000000000002
 21
358.5633838461838
 31
0.0
  0
LINE
  5
2E4
330
1F
100
AcDbEntity
  8
LAY-10
  6
CONTINUOUS
 62
     7
100
AcDbLine
 10
305.4849930475624
 20
360.6908571423306
 30
0.0
 11
305.4849930475624
 21
359.0522924060656
 31
0.0
  0
LINE
  5
2E5
330
1F
100
AcDbEntity
  8
LAY-10
  6
CONTINUOUS
 62
     7
100
AcDbLine
 10
314.5150069524381
 20
360.6908571423307
 30
0.0
 11
314.5150069524381
 21
359.0522924060656
 31
0.0
  0
LINE
  5
2E6
330
1F
100
AcDbEntity
  8
LAY-10
  6
CONTINUOUS
 62
     7
100
AcDbLine
 10
314.0000000000002
 20
360.6497422686642
 30
0.0
 11
314.0000000000002
 21
358.5633838461855
 31
0.0
  0
ARC
  5
2E7
330
1F
100
AcDbEntity
  8
LAY-10
  6
CONTINUOUS
 62
     7
100
AcDbCircle
 10
261.0000000000011
 20
414.0000000000004
 30
0.0
 40
4.0
100
AcDbArc
 50
320.8995693452143
 51
39.10043065522225
  0
LINE
  5
2E8
330
1F
100
AcDbEntity
  8
LAY-10
  6
CONTINUOUS
 62
     7
100
AcDbLine
 10
256.8375132259574
 20
408.0000000000202
 30
0.0
 11
254.7440644764436
 21
408.0000000000202
 31
0.0
  0
LINE
  5
2E9
330
1F
100
AcDbEntity
  8
LAY-10
  6
CONTINUOUS
 62
     7
100
AcDbLine
 10
256.8981668451084
 20
407.4849930475806
 30
0.0
 11
255.2533969819448
 21
407.4849930475806
 31
0.0
  0
LINE
  5
2EA
330
1F
100
AcDbEntity
  8
LAY-10
  6
CONTINUOUS
 62
     7
100
AcDbLine
 10
256.8375132259619
 20
420.0000000000202
 30
0.0
 11
254.7440644764472
 21
420.0000000000202
 31
0.0
  0
LINE
  5
2EB
330
1F
100
AcDbEntity
  8
LAY-10
  6
CONTINUOUS
 62
     7
100
AcDbLine
 10
256.8981668451133
 20
420.5150069524601
 30
0.0
 11
255.2533969819448
 21
420.5150069524601
 31
0.0
  0
ARC
  5
2EC
330
1F
100
AcDbEntity
  8
LAY-10
  6
CONTINUOUS
 62
     7
100
AcDbCircle
 10
309.9999999999999
 20
414.0000000000004
 30
0.0
 40
53.50000000000004
100
AcDbArc
 50
184.7505368441336
 51
355.2494631558663
  0
ARC
  5
2ED
330
1F
100
AcDbEntity
  8
LAY-10
  6
CONTINUOUS
 62
     7
100
AcDbCircle
 10
358.9999999999986
 20
414.0000000000004
 30
0.0
 40
4.0
100
AcDbArc
 50
140.8995693447379
 51
219.1004306548258
  0
ARC
  5
2EE
330
1F
100
AcDbEntity
  8
LAY-10
  6
CONTINUOUS
 62
     7
100
AcDbCircle
 10
309.9999999999999
 20
414.0000000000004
 30
0.0
 40
53.50000000000004
100
AcDbArc
 50
4.75053684417577
 51
175.2494631558247
  0
LINE
  5
2EF
330
1F
100
AcDbEntity
  8
LAY-10
  6
CONTINUOUS
 62
     7
100
AcDbLine
 10
363.1624867740379
 20
420.0000000000202
 30
0.0
 11
365.2559355235528
 21
420.0000000000202
 31
0.0
  0
LINE
  5
2F0
330
1F
100
AcDbEntity
  8
LAY-10
  6
CONTINUOUS
 62
     7
100
AcDbLine
 10
363.1018331548864
 20
420.5150069524601
 30
0.0
 11
364.7466030180552
 21
420.5150069524601
 31
0.0
  0
LINE
  5
2F1
330
1F
100
AcDbEntity
  8
LAY-10
  6
CONTINUOUS
 62
     7
100
AcDbLine
 10
363.1018331548913
 20
407.4849930475806
 30
0.0
 11
364.7466030180552
 21
407.4849930475806
 31
0.0
  0
LINE
  5
2F2
330
1F
100
AcDbEntity
  8
LAY-10
  6
CONTINUOUS
 62
     7
100
AcDbLine
 10
363.1624867740423
 20
408.0000000000202
 30
0.0
 11
365.2559355235564
 21
408.0000000000202
 31
0.0
  0
ARC
  5
2F3
330
1F
100
AcDbEntity
  8
LAY-10
  6
CONTINUOUS
 62
     7
100
AcDbCircle
 10
309.9999999999998
 20
414.0000000000035
 30
0.0
 40
55.58073776573366
100
AcDbArc
 50
353.8027829541778
 51
358.5698823484142
  0
ARC
  5
2F4
330
1F
100
AcDbEntity
  8
LAY-10
  6
CONTINUOUS
 62
     7
100
AcDbCircle
 10
309.9999999999998
 20
414.0000000000035
 30
0.0
 40
55.58073776573366
100
AcDbArc
 50
1.43011765161993
 51
6.197217045857111
  0
ARC
  5
2F5
330
1F
100
AcDbEntity
  8
LAY-10
  6
CONTINUOUS
 62
     7
100
AcDbCircle
 10
310.0000000000002
 20
414.0000000000035
 30
0.0
 40
55.58073776573366
100
AcDbArc
 50
181.4301176515846
 51
186.1972170458226
  0
ARC
  5
2F6
330
1F
100
AcDbEntity
  8
LAY-10
  6
CONTINUOUS
 62
     7
100
AcDbCircle
 10
310.0000000000002
 20
414.0000000000035
 30
0.0
 40
55.58073776573366
100
AcDbArc
 50
173.802782954143
 51
178.5698823483815
  0
LINE
  5
2F7
330
1F
100
AcDbEntity
  8
LAY-10
  6
CONTINUOUS
 62
     7
100
AcDbLine
 10
364.631773199019
 20
184.9999999999879
 30
0.0
 11
262.0000000000004
 21
184.9999999999879
 31
0.0
  0
LINE
  5
2F8
330
1F
100
AcDbEntity
  8
LAY-10
  6
CONTINUOUS
 62
     7
100
AcDbLine
 10
378.4999999999924
 20
182.9999999999917
 30
0.0
 11
378.4999999999924
 21
183.9999999999899
 31
0.0
  0
LINE
  5
2F9
330
1F
100
AcDbEntity
  8
LAY-10
  6
CONTINUOUS
 62
     7
100
AcDbLine
 10
373.4999999999931
 20
182.9999999999917
 30
0.0
 11
373.4999999999931
 21
183.999999999991
 31
0.0
  0
LINE
  5
2FA
330
1F
100
AcDbEntity
  8
LAY-10
  6
CONTINUOUS
 62
     7
100
AcDbLine
 10
373.4999999999931
 20
183.999999999991
 30
0.0
 11
378.4999999999924
 21
183.999999999991
 31
0.0
  0
LINE
  5
2FB
330
1F
100
AcDbEntity
  8
LAY-10
  6
CONTINUOUS
 62
     7
100
AcDbLine
 10
372.9999999999899
 20
182.499999999991
 30
0.0
 11
378.9999999999899
 21
182.499999999991
 31
0.0
  0
LINE
  5
2FC
330
1F
100
AcDbEntity
  8
LAY-10
  6
CONTINUOUS
 62
     7
100
AcDbLine
 10
373.4999999999899
 20
182.9999999999917
 30
0.0
 11
378.4999999999899
 21
182.9999999999917
 31
0.0
  0
LINE
  5
2FD
330
1F
100
AcDbEntity
  8
LAY-10
  6
CONTINUOUS
 62
     7
100
AcDbLine
 10
375.9999999999901
 20
185.4433756729667
 30
0.0
 11
378.499999999991
 21
183.9999999999921
 31
0.0
  0
LINE
  5
2FE
330
1F
100
AcDbEntity
  8
LAY-10
  6
CONTINUOUS
 62
     7
100
AcDbLine
 10
375.9999999999897
 20
185.4433756729665
 30
0.0
 11
373.4999999999892
 21
183.9999999999921
 31
0.0
  0
LINE
  5
2FF
330
1F
100
AcDbEntity
  8
LAY-10
  6
CONTINUOUS
 62
     7
100
AcDbLine
 10
390.4999999999894
 20
153.0000000000004
 30
0.0
 11
390.4999999999894
 21
158.0000000000003
 31
0.0
  0
LINE
  5
300
330
1F
100
AcDbEntity
  8
LAY-10
  6
CONTINUOUS
 62
     7
100
AcDbLine
 10
380.499999999989
 20
158.0000000000003
 30
0.0
 11
390.4999999999894
 21
158.0000000000003
 31
0.0
  0
ARC
  5
301
330
1F
100
AcDbEntity
  8
LAY-10
  6
CONTINUOUS
 62
     7
100
AcDbCircle
 10
380.499999999989
 20
160.0000000000004
 30
0.0
 40
2.0
100
AcDbArc
 50
180.0
 51
270.0000000000002
  0
LINE
  5
302
330
1F
100
AcDbEntity
  8
LAY-10
  6
CONTINUOUS
 62
     7
100
AcDbLine
 10
380.499999999989
 20
153.0000000000004
 30
0.0
 11
390.4999999999894
 21
153.0000000000004
 31
0.0
  0
ARC
  5
303
330
1F
100
AcDbEntity
  8
LAY-10
  6
CONTINUOUS
 62
     7
100
AcDbCircle
 10
380.499999999989
 20
160.0000000000004
 30
0.0
 40
7.000000000000004
100
AcDbArc
 50
180.0
 51
270.0000000000002
  0
LINE
  5
304
330
1F
100
AcDbEntity
  8
LAY-10
  6
CONTINUOUS
 62
     7
100
AcDbLine
 10
378.4999999999899
 20
159.9999999999959
 30
0.0
 11
378.4999999999899
 21
174.9999999999956
 31
0.0
  0
LINE
  5
305
330
1F
100
AcDbEntity
  8
LAY-10
  6
CONTINUOUS
 62
     7
100
AcDbLine
 10
373.4999999999899
 20
159.9999999999959
 30
0.0
 11
373.4999999999899
 21
174.9999999999956
 31
0.0
  0
LINE
  5
306
330
1F
100
AcDbEntity
  8
LAY-10
  6
CONTINUOUS
 62
     7
100
AcDbLine
 10
373.4999999999931
 20
181.0000000000005
 30
0.0
 11
378.4999999999924
 21
181.0000000000005
 31
0.0
  0
LINE
  5
307
330
1F
100
AcDbEntity
  8
LAY-10
  6
CONTINUOUS
 62
     7
100
AcDbLine
 10
372.9999999999917
 20
180.500000000002
 30
0.0
 11
378.9999999999908
 21
180.500000000002
 31
0.0
  0
LINE
  5
308
330
1F
100
AcDbEntity
  8
LAY-10
  6
CONTINUOUS
 62
     7
100
AcDbLine
 10
378.4999999999924
 20
182.9999999999917
 30
0.0
 11
378.4999999999924
 21
181.0000000000005
 31
0.0
  0
LINE
  5
309
330
1F
100
AcDbEntity
  8
LAY-10
  6
CONTINUOUS
 62
     7
100
AcDbLine
 10
373.4999999999931
 20
182.9999999999917
 30
0.0
 11
373.4999999999931
 21
181.0000000000005
 31
0.0
  0
LINE
  5
30A
330
1F
100
AcDbEntity
  8
LAY-10
  6
CONTINUOUS
 62
     7
100
AcDbLine
 10
378.9999999999899
 20
180.5000000000059
 30
0.0
 11
378.4999999999899
 21
180.9999999999959
 31
0.0
  0
LINE
  5
30B
330
1F
100
AcDbEntity
  8
LAY-10
  6
CONTINUOUS
 62
     7
100
AcDbLine
 10
373.4999999999899
 20
180.9999999999959
 30
0.0
 11
372.9999999999899
 21
180.5000000000059
 31
0.0
  0
LINE
  5
30C
330
1F
100
AcDbEntity
  8
LAY-10
  6
CONTINUOUS
 62
     7
100
AcDbLine
 10
372.9999999999899
 20
180.5000000000059
 30
0.0
 11
372.9999999999899
 21
174.9999999999959
 31
0.0
  0
LINE
  5
30D
330
1F
100
AcDbEntity
  8
LAY-10
  6
CONTINUOUS
 62
     7
100
AcDbLine
 10
378.9999999999899
 20
180.5000000000059
 30
0.0
 11
378.9999999999899
 21
174.9999999999959
 31
0.0
  0
LINE
  5
30E
330
1F
100
AcDbEntity
  8
LAY-10
  6
CENTER
 62
     2
100
AcDbLine
 10
305.8999999999999
 20
242.4999999999904
 30
0.0
 11
315.8
 21
242.4999999999904
 31
0.0
  0
LINE
  5
30F
330
1F
100
AcDbEntity
  8
LAY-10
  6
CENTER
 62
     2
100
AcDbLine
 10
339.0
 20
242.4999999999899
 30
0.0
 11
357.2
 21
242.4999999999899
 31
0.0
  0
LINE
  5
310
330
1F
100
AcDbEntity
  8
LAY-10
  6
CENTER
 62
     2
100
AcDbLine
 10
310.0000000000003
 20
255.00135875948
 30
0.0
 11
310.0000000000001
 21
107.7013587594501
 31
0.0
  0
LINE
  5
311
330
1F
100
AcDbEntity
  8
LAY-10
  6
CENTER
 62
     2
100
AcDbLine
 10
259.5000000000002
 20
174.00135875945
 30
0.0
 11
259.5000000000002
 21
197.96135875948
 31
0.0
  0
LINE
  5
312
330
1F
100
AcDbEntity
  8
LAY-10
  6
CENTER
 62
     2
100
AcDbLine
 10
310.0
 20
334.0000000000001
 30
0.0
 11
310.0
 21
494.0
 31
0.0
  0
LINE
  5
313
330
1F
100
AcDbEntity
  8
LAY-10
  6
CENTER
 62
     2
100
AcDbLine
 10
230.0
 20
414.0000000000001
 30
0.0
 11
390.0
 21
414.0000000000001
 31
0.0
  0
LINE
  5
314
330
1F
100
AcDbEntity
  8
LAY-10
  6
CENTER
 62
     2
100
AcDbLine
 10
259.5000000000003
 20
407.4849930475804
 30
0.0
 11
259.5000000000003
 21
420.5150069524601
 31
0.0
  0
LINE
  5
315
330
1F
100
AcDbEntity
  8
LAY-10
  6
CENTER
 62
     2
100
AcDbLine
 10
360.4999999999995
 20
407.4849930475804
 30
0.0
 11
360.4999999999995
 21
420.5150069524601
 31
0.0
  0
LINE
  5
316
330
1F
100
AcDbEntity
  8
LAY-10
  6
CENTER
 62
     2
100
AcDbLine
 10
268.9629510429176
 20
390.3072487378689
 30
0.0
 11
284.962822173514
 21
399.5447786421181
 31
0.0
  0
LINE
  5
317
330
1F
100
AcDbEntity
  8
LAY-10
  6
CENTER
 62
     2
100
AcDbLine
 10
351.1267603887853
 20
390.2554538186257
 30
0.0
 11
334.9188765562968
 21
399.6130799123072
 31
0.0
  0
LINE
  5
318
330
1F
100
AcDbEntity
  8
LAY-10
  6
CENTER
 62
     2
100
AcDbLine
 10
391.6999999999888
 20
155.5000000000015
 30
0.0
 11
380.4999999999899
 21
155.5000000000015
 31
0.0
  0
ARC
  5
319
330
1F
100
AcDbEntity
  8
LAY-10
  6
CENTER
 62
     2
100
AcDbCircle
 10
380.4999999999899
 20
160.0000000000015
 30
0.0
 40
4.5
100
AcDbArc
 50
180.0
 51
270.0000000000002
  0
LINE
  5
31A
330
1F
100
AcDbEntity
  8
LAY-10
  6
CENTER
 62
     2
100
AcDbLine
 10
375.9999999999901
 20
186.2013587594858
 30
0.0
 11
375.9999999999901
 21
160.0000000000015
 31
0.0
  0
LINE
  5
31B
330
1F
100
AcDbEntity
  8
LAY-10
  6
CONTINUOUS
 62
     7
100
AcDbLine
 10
312.5000000000004
 20
456.0000000000006
 30
0.0
 11
312.5000000000004
 21
449.9130895357127
 31
0.0
  0
LINE
  5
31C
330
1F
100
AcDbEntity
  8
LAY-10
  6
CONTINUOUS
 62
     7
100
AcDbLine
 10
312.5000000000004
 20
445.880093567776
 30
0.0
 11
312.5000000000004
 21
444.0000000000026
 31
0.0
  0
LINE
  5
31D
330
1F
100
AcDbEntity
  8
LAY-10
  6
CONTINUOUS
 62
     7
100
AcDbLine
 10
307.5000000000003
 20
456.0000000000006
 30
0.0
 11
307.5000000000003
 21
449.9130895357127
 31
0.0
  0
LINE
  5
31E
330
1F
100
AcDbEntity
  8
LAY-10
  6
CONTINUOUS
 62
     7
100
AcDbLine
 10
307.5000000000003
 20
445.8800935677761
 30
0.0
 11
307.5000000000003
 21
444.0000000000026
 31
0.0
  0
LINE
  5
31F
330
1F
100
AcDbEntity
  8
LAY-10
  6
CONTINUOUS
 62
     7
100
AcDbLine
 10
274.8769330410561
 20
390.8349364905389
 30
0.0
 11
280.1483521336888
 21
393.8783917226818
 31
0.0
  0
LINE
  5
320
330
1F
100
AcDbEntity
  8
LAY-10
  6
CONTINUOUS
 62
     7
100
AcDbLine
 10
283.6410290952822
 20
395.8948897066501
 30
0.0
 11
285.2692378864676
 21
396.8349364905379
 31
0.0
  0
LINE
  5
321
330
1F
100
AcDbEntity
  8
LAY-10
  6
CONTINUOUS
 62
     7
100
AcDbLine
 10
272.3769330410561
 20
395.1650635094612
 30
0.0
 11
277.6483521336886
 21
398.2085187416039
 31
0.0
  0
LINE
  5
322
330
1F
100
AcDbEntity
  8
LAY-10
  6
CONTINUOUS
 62
     7
100
AcDbLine
 10
281.141029095282
 20
400.2250167255722
 30
0.0
 11
282.7692378864675
 21
401.1650635094601
 31
0.0
  0
LINE
  5
323
330
1F
100
AcDbEntity
  8
LAY-10
  6
CONTINUOUS
 62
     7
100
AcDbLine
 10
347.6230669589466
 20
395.1650635094605
 30
0.0
 11
342.3516478663115
 21
398.2085187416047
 31
0.0
  0
LINE
  5
324
330
1F
100
AcDbEntity
  8
LAY-10
  6
CONTINUOUS
 62
     7
100
AcDbLine
 10
338.8589709047182
 20
400.225016725573
 30
0.0
 11
337.2307621135351
 21
401.1650635094595
 31
0.0
  0
LINE
  5
325
330
1F
100
AcDbEntity
  8
LAY-10
  6
CONTINUOUS
 62
     7
100
AcDbLine
 10
345.1230669589465
 20
390.8349364905383
 30
0.0
 11
339.8516478663114
 21
393.8783917226825
 31
0.0
  0
LINE
  5
326
330
1F
100
AcDbEntity
  8
LAY-10
  6
CONTINUOUS
 62
     7
100
AcDbLine
 10
336.358970904718
 20
395.8948897066508
 30
0.0
 11
334.7307621135351
 21
396.8349364905372
 31
0.0
  0
LINE
  5
327
330
1F
100
AcDbEntity
  8
LAY-10
  6
CONTINUOUS
 62
     7
100
AcDbLine
 10
256.176963797553
 20
189.4670485968041
 30
0.0
 11
256.1593746078294
 21
189.4670485968041
 31
0.0
  0
LINE
  5
328
330
1F
100
AcDbEntity
  8
LAY-10
  6
CONTINUOUS
 62
     7
100
AcDbLine
 10
363.8230362024475
 20
189.4670485968041
 30
0.0
 11
363.8406253921711
 21
189.4670485968041
 31
0.0
  0
LINE
  5
329
330
1F
100
AcDbEntity
  8
LAY-10
  6
CONTINUOUS
 62
     7
100
AcDbLine
 10
256.5000000000002
 20
178.9999999999893
 30
0.0
 11
262.4999999999998
 21
178.9999999999893
 31
0.0
  0
ARC
  5
32A
330
1F
100
AcDbEntity
  8
LAY-10
  6
CONTINUOUS
 62
     7
100
AcDbCircle
 10
309.9999999999999
 20
242.4999999999904
 30
0.0
 40
2.5
100
AcDbArc
 50
90.00000000000001
 51
270.0
  0
LINE
  5
32B
330
1F
100
AcDbEntity
  8
LAY-10
  6
CONTINUOUS
 62
     7
100
AcDbLine
 10
352.0000000000006
 20
239.9999999999896
 30
0.0
 11
340.0000000000026
 21
239.9999999999896
 31
0.0
  0
LINE
  5
32C
330
1F
100
AcDbEntity
  8
LAY-10
  6
CONTINUOUS
 62
     7
100
AcDbLine
 10
352.0000000000006
 20
244.9999999999896
 30
0.0
 11
340.0000000000026
 21
244.9999999999896
 31
0.0
  0
LINE
  5
32D
330
1F
100
AcDbEntity
  8
LAY-10
  6
CONTINUOUS
 62
     7
100
AcDbLine
 10
262.0000000000004
 20
192.4999999999905
 30
0.0
 11
262.0000000000004
 21
180.4999999999926
 31
0.0
  0
LINE
  5
32E
330
1F
100
AcDbEntity
  8
LAY-10
  6
CONTINUOUS
 62
     7
100
AcDbLine
 10
257.0000000000003
 20
192.4999999999905
 30
0.0
 11
257.0000000000003
 21
180.4999999999926
 31
0.0
  0
LINE
  5
32F
330
1F
100
AcDbEntity
  8
LAY-10
  6
CONTINUOUS
 62
     7
100
AcDbLine
 10
256.5000000000002
 20
178.9999999999893
 30
0.0
 11
256.5000000000002
 21
180.99999999999
 31
0.0
  0
LINE
  5
330
330
1F
100
AcDbEntity
  8
LAY-10
  6
CONTINUOUS
 62
     7
100
AcDbLine
 10
262.4999999999998
 20
178.9999999999893
 30
0.0
 11
262.4999999999998
 21
180.99999999999
 31
0.0
  0
LINE
  5
331
330
1F
100
AcDbEntity
  8
LAY-10
  6
CONTINUOUS
 62
     7
100
AcDbLine
 10
378.9999999999908
 20
182.499999999991
 30
0.0
 11
378.4999999999924
 21
182.9999999999917
 31
0.0
  0
LINE
  5
332
330
1F
100
AcDbEntity
  8
LAY-10
  6
CONTINUOUS
 62
     7
100
AcDbLine
 10
372.9999999999917
 20
182.499999999991
 30
0.0
 11
373.4999999999931
 21
182.9999999999917
 31
0.0
  0
LINE
  5
333
330
1F
100
AcDbEntity
  8
LAY-10
  6
CONTINUOUS
 62
     7
100
AcDbLine
 10
378.9999999999908
 20
182.499999999991
 30
0.0
 11
378.9999999999908
 21
180.500000000002
 31
0.0
  0
LINE
  5
334
330
1F
100
AcDbEntity
  8
LAY-10
  6
CONTINUOUS
 62
     7
100
AcDbLine
 10
372.9999999999917
 20
182.499999999991
 30
0.0
 11
372.9999999999917
 21
180.500000000002
 31
0.0
  0
LINE
  5
335
330
1F
100
AcDbEntity
  8
LAY-10
  6
CONTINUOUS
 62
     7
100
AcDbLine
 10
378.4999999999899
 20
180.9999999999959
 30
0.0
 11
378.4999999999899
 21
174.9999999999959
 31
0.0
  0
LINE
  5
336
330
1F
100
AcDbEntity
  8
LAY-10
  6
CONTINUOUS
 62
     7
100
AcDbLine
 10
373.4999999999899
 20
180.9999999999959
 30
0.0
 11
373.4999999999899
 21
174.9999999999959
 31
0.0
  0
LINE
  5
337
330
1F
100
AcDbEntity
  8
LAY-10
  6
CONTINUOUS
 62
     7
100
AcDbLine
 10
373.4999999999717
 20
174.1339745962009
 30
0.0
 11
372.9999999999717
 21
174.9999999999855
 31
0.0
  0
LINE
  5
338
330
1F
100
AcDbEntity
  8
LAY-10
  6
CONTINUOUS
 62
     7
100
AcDbLine
 10
378.5000000000019
 20
174.1339745962045
 30
0.0
 11
379.0000000000019
 21
174.999999999989
 31
0.0
  0
DIMENSION
  5
33A
330
1F
100
AcDbEntity
  8
LAY-20
  6
CONTINUOUS
 62
     4
100
AcDbDimension
  2
*D15
 10
215.0
 20
192.99999999999
 30
0.0
 11
210.0
 21
181.003059815265
 31
0.0
 70
   160
  3
ISO-25
100
AcDbAlignedDimension
 13
272.0
 23
169.00611963054
 33
0.0
 14
236.8672954017
 24
192.99999999999
 34
0.0
 50
90.0
100
AcDbRotatedDimension
1001
ACAD
1000
DSTYLE
1002
{
1070
   270
1070
     2
1070
     6
1000
EX_BNORM
1070
     7
1000
EX_BNORM
1070
    41
1040
5.0
1070
    42
1040
3.0
1070
    44
1040
3.0
1070
    73
1070
     0
1070
    74
1070
     0
1070
    75
1070
     0
1070
    76
1070
     0
1070
    77
1070
     1
1070
    78
1070
     8
1070
   140
1040
6.2362208
1070
   147
1040
0.0
1070
   173
1070
     1
1070
   176
1070
     4
1070
   177
1070
     4
1070
   178
1070
     7
1070
   271
1070
     1
1070
   277
1070
     2
1070
   279
1070
     2
1070
   280
1070
     0
1070
   287
1070
     5
1070
   340
1005
339
1002
}
  0
DIMENSION
  5
348
330
1F
100
AcDbEntity
  8
LAY-20
  6
CONTINUOUS
 62
     4
100
AcDbDimension
  2
*D16
 10
405.0
 20
192.99999999999
 30
0.0
 11
400.0
 21
152.99999999999
 31
0.0
 70
   160
  3
ISO-25
100
AcDbAlignedDimension
 13
348.0
 23
112.99999999999
 33
0.0
 14
383.13270459831
 24
192.99999999999
 34
0.0
 50
90.0
100
AcDbRotatedDimension
1001
ACAD
1000
DSTYLE
1002
{
1070
   270
1070
     2
1070
     6
1000
EX_BNORM
1070
     7
1000
EX_BNORM
1070
    41
1040
5.0
1070
    42
1040
3.0
1070
    44
1040
3.0
1070
    73
1070
     0
1070
    74
1070
     0
1070
    75
1070
     0
1070
    76
1070
     0
1070
    77
1070
     1
1070
    78
1070
     8
1070
   140
1040
6.2362208
1070
   147
1040
0.0
1070
   173
1070
     1
1070
   176
1070
     4
1070
   177
1070
     4
1070
   178
1070
     7
1070
   271
1070
     1
1070
   277
1070
     2
1070
   279
1070
     2
1070
   280
1070
     0
1070
   287
1070
     5
1070
   340
1005
339
1002
}
  0
DIMENSION
  5
355
330
1F
100
AcDbEntity
  8
LAY-20
  6
CONTINUOUS
 62
     4
100
AcDbDimension
  2
*D17
 10
405.0
 20
249.99999999999
 30
0.0
 11
400.0
 21
221.49999999999
 31
0.0
 70
   160
  3
ISO-25
100
AcDbAlignedDimension
 13
405.0
 23
192.99999999999
 33
0.0
 14
346.0
 24
249.99999999999
 34
0.0
 50
90.0
100
AcDbRotatedDimension
1001
ACAD
1000
DSTYLE
1002
{
1070
   270
1070
     2
1070
     6
1000
EX_BNORM
1070
     7
1000
EX_BNORM
1070
    41
1040
5.0
1070
    42
1040
3.0
1070
    44
1040
3.0
1070
    73
1070
     0
1070
    74
1070
     0
1070
    75
1070
     1
1070
    76
1070
     0
1070
    77
1070
     1
1070
    78
1070
     8
1070
   140
1040
6.2362208
1070
   147
1040
0.0
1070
   173
1070
     1
1070
   176
1070
     4
1070
   177
1070
     4
1070
   178
1070
     7
1070
   271
1070
     1
1070
   277
1070
     2
1070
   279
1070
     2
1070
   280
1070
     0
1070
   287
1070
     5
1070
   340
1005
339
1002
}
  0
DIMENSION
  5
361
330
1F
100
AcDbEntity
  8
LAY-20
  6
CONTINUOUS
 62
     4
100
AcDbDimension
  2
*D18
 10
332.5
 20
92.99999999999
 30
0.0
 11
310.0
 21
97.99999999999
 31
0.0
 70
   160
  1
%%c<>
  3
ISO-25
100
AcDbAlignedDimension
 13
287.5
 23
127.99999999999
 33
0.0
 14
332.5
 24
127.99999999999
 34
0.0
100
AcDbRotatedDimension
1001
ACAD
1000
DSTYLE
1002
{
1070
   270
1070
     2
1070
     6
1000
EX_BNORM
1070
     7
1000
EX_BNORM
1070
    41
1040
6.0
1070
    42
1040
3.0
1070
    44
1040
3.0
1070
    73
1070
     0
1070
    74
1070
     0
1070
    75
1070
     0
1070
    76
1070
     0
1070
    77
1070
     1
1070
    78
1070
     8
1070
   140
1040
6.2362208
1070
   147
1040
0.0
1070
   173
1070
     1
1070
   176
1070
     4
1070
   177
1070
     4
1070
   178
1070
     7
1070
   271
1070
     1
1070
   277
1070
     2
1070
   279
1070
     2
1070
   280
1070
     0
1070
   287
1070
     5
1070
   340
1005
339
1002
}
  0
DIMENSION
  5
36E
330
1F
100
AcDbEntity
  8
LAY-20
  6
CONTINUOUS
 62
     4
100
AcDbDimension
  2
*D19
 10
334.0
 20
78.99999999999
 30
0.0
 11
310.0
 21
83.99999999999
 31
0.0
 70
   160
  1
%%c<>
  3
ISO-25
100
AcDbAlignedDimension
 13
286.0
 23
164.99999999999
 33
0.0
 14
334.0
 24
164.99999999999
 34
0.0
100
AcDbRotatedDimension
1001
ACAD
1000
DSTYLE
1002
{
1070
   270
1070
     2
1070
     6
1000
EX_BNORM
1070
     7
1000
EX_BNORM
1070
    41
1040
6.0
1070
    42
1040
3.0
1070
    44
1040
3.0
1070
    73
1070
     0
1070
    74
1070
     0
1070
    75
1070
     0
1070
    76
1070
     0
1070
    77
1070
     1
1070
    78
1070
     8
1070
   140
1040
6.2362208
1070
   147
1040
0.0
1070
   173
1070
     1
1070
   176
1070
     4
1070
   177
1070
     4
1070
   178
1070
     7
1070
   271
1070
     1
1070
   277
1070
     2
1070
   279
1070
     2
1070
   280
1070
     0
1070
   287
1070
     5
1070
   340
1005
339
1002
}
  0
DIMENSION
  5
37B
330
1F
100
AcDbEntity
  8
LAY-20
  6
CONTINUOUS
 62
     4
100
AcDbDimension
  2
*D20
 10
341.97796688175
 20
269.99999999999
 30
0.0
 11
310.0
 21
274.99999999999
 31
0.0
 70
   160
  1
%%c<>
  3
ISO-25
100
AcDbAlignedDimension
 13
278.02203311825
 23
249.99999999999
 33
0.0
 14
341.97796688175
 24
249.99999999999
 34
0.0
100
AcDbRotatedDimension
1001
ACAD
1000
DSTYLE
1002
{
1070
   270
1070
     2
1070
     6
1000
EX_BNORM
1070
     7
1000
EX_BNORM
1070
    41
1040
6.0
1070
    42
1040
3.0
1070
    44
1040
3.0
1070
    73
1070
     0
1070
    74
1070
     0
1070
    75
1070
     0
1070
    76
1070
     0
1070
    77
1070
     1
1070
    78
1070
     8
1070
   140
1040
6.2362208
1070
   147
1040
0.0
1070
   173
1070
     1
1070
   176
1070
     4
1070
   177
1070
     4
1070
   178
1070
     7
1070
   271
1070
     1
1070
   277
1070
     2
1070
   279
1070
     2
1070
   280
1070
     0
1070
   287
1070
     5
1070
   340
1005
339
1002
}
  0
DIMENSION
  5
388
330
1F
100
AcDbEntity
  8
LAY-20
  6
CONTINUOUS
 62
     4
100
AcDbDimension
  2
*D21
 10
363.5
 20
283.99999999999
 30
0.0
 11
310.0
 21
288.99999999999
 31
0.0
 70
   160
  1
%%c<>
  3
ISO-25
100
AcDbAlignedDimension
 13
256.5
 23
193.8
 33
0.0
 14
363.5
 24
180.0
 34
0.0
100
AcDbRotatedDimension
1001
ACAD
1000
DSTYLE
1002
{
1070
   270
1070
     2
1070
     6
1000
EX_BNORM
1070
     7
1000
EX_BNORM
1070
    41
1040
6.0
1070
    42
1040
3.0
1070
    44
1040
3.0
1070
    73
1070
     0
1070
    74
1070
     0
1070
    75
1070
     0
1070
    76
1070
     0
1070
    77
1070
     1
1070
    78
1070
     8
1070
   140
1040
6.2362208
1070
   147
1040
0.0
1070
   173
1070
     1
1070
   176
1070
     4
1070
   177
1070
     4
1070
   178
1070
     7
1070
   271
1070
     1
1070
   277
1070
     2
1070
   279
1070
     2
1070
   280
1070
     0
1070
   287
1070
     5
1070
   340
1005
339
1002
}
  0
DIMENSION
  5
395
330
1F
100
AcDbEntity
  8
LAY-20
  6
CONTINUOUS
 62
     4
100
AcDbDimension
  2
*D22
 10
366.0
 20
297.99999999999
 30
0.0
 11
310.0
 21
302.99999999999
 31
0.0
 70
   160
  1
%%c<>
  3
ISO-25
100
AcDbAlignedDimension
 13
254.0
 23
195.99999999999
 33
0.0
 14
366.0
 24
195.99999999999
 34
0.0
100
AcDbRotatedDimension
1001
ACAD
1000
DSTYLE
1002
{
1070
   270
1070
     2
1070
     6
1000
EX_BNORM
1070
     7
1000
EX_BNORM
1070
    41
1040
6.0
1070
    42
1040
3.0
1070
    44
1040
3.0
1070
    73
1070
     0
1070
    74
1070
     0
1070
    75
1070
     0
1070
    76
1070
     0
1070
    77
1070
     1
1070
    78
1070
     8
1070
   140
1040
6.2362208
1070
   147
1040
0.0
1070
   173
1070
     1
1070
   176
1070
     4
1070
   177
1070
     4
1070
   178
1070
     7
1070
   271
1070
     1
1070
   277
1070
     2
1070
   279
1070
     2
1070
   280
1070
     0
1070
   287
1070
     5
1070
   340
1005
339
1002
}
  0
DIMENSION
  5
3A2
330
1F
100
AcDbEntity
  8
LAY-20
  6
CONTINUOUS
 62
     4
100
AcDbDimension
  2
*D23
 10
385.0
 20
311.99999999999
 30
0.0
 11
310.0
 21
316.99999999999
 31
0.0
 70
   160
  1
%%c<>
  3
ISO-25
100
AcDbAlignedDimension
 13
235.0
 23
188.99999999999
 33
0.0
 14
385.0
 24
188.99999999998
 34
0.0
100
AcDbRotatedDimension
1001
ACAD
1000
DSTYLE
1002
{
1070
   270
1070
     2
1070
     6
1000
EX_BNORM
1070
     7
1000
EX_BNORM
1070
    41
1040
6.0
1070
    42
1040
3.0
1070
    44
1040
3.0
1070
    73
1070
     0
1070
    74
1070
     0
1070
    75
1070
     0
1070
    76
1070
     0
1070
    77
1070
     1
1070
    78
1070
     8
1070
   140
1040
6.2362208
1070
   147
1040
0.0
1070
   173
1070
     1
1070
   176
1070
     4
1070
   177
1070
     4
1070
   178
1070
     7
1070
   271
1070
     1
1070
   277
1070
     2
1070
   279
1070
     2
1070
   280
1070
     0
1070
   287
1070
     5
1070
   340
1005
339
1002
}
  0
LINE
  5
3AF
330
1F
100
AcDbEntity
  8
LAY-255
  6
CONTINUOUS
 62
     7
100
AcDbLine
 10
770.0
 20
43.99999999999999
 30
0.0
 11
570.0
 21
43.99999999999999
 31
0.0
  0
LINE
  5
3B0
330
1F
100
AcDbEntity
  8
LAY-255
  6
CONTINUOUS
 62
     7
100
AcDbLine
 10
577.6
 20
32.0
 30
0.0
 11
593.6
 21
42.0
 31
0.0
  0
LINE
  5
3B1
330
1F
100
AcDbEntity
  8
LAY-255
  6
CONTINUOUS
 62
     7
100
AcDbLine
 10
593.6
 20
42.0
 30
0.0
 11
609.6
 21
32.0
 31
0.0
  0
LINE
  5
3B2
330
1F
100
AcDbEntity
  8
LAY-255
  6
CONTINUOUS
 62
     7
100
AcDbLine
 10
609.6
 20
32.0
 30
0.0
 11
593.6
 21
22.0
 31
0.0
  0
LINE
  5
3B3
330
1F
100
AcDbEntity
  8
LAY-255
  6
CONTINUOUS
 62
     7
100
AcDbLine
 10
593.6
 20
22.0
 30
0.0
 11
577.6
 21
32.0
 31
0.0
  0
LINE
  5
3B4
330
1F
100
AcDbEntity
  8
LAY-255
  6
CONTINUOUS
 62
     7
100
AcDbLine
 10
10.0
 20
20.0
 30
0.0
 11
770.0000000000001
 21
20.0
 31
0.0
  0
LINE
  5
3B5
330
1F
100
AcDbEntity
  8
LAY-255
  6
CONTINUOUS
 62
     7
100
AcDbLine
 10
10.0
 20
560.0
 30
0.0
 11
770.0000000000001
 21
560.0
 31
0.0
  0
LINE
  5
3B6
330
1F
100
AcDbEntity
  8
LAY-255
  6
CONTINUOUS
 62
     7
100
AcDbLine
 10
10.0
 20
20.0
 30
0.0
 11
10.0
 21
560.0
 31
0.0
  0
LINE
  5
3B7
330
1F
100
AcDbEntity
  8
LAY-255
  6
CONTINUOUS
 62
     7
100
AcDbLine
 10
770.0
 20
20.0
 30
0.0
 11
770.0
 21
560.0
 31
0.0
  0
LINE
  5
3B8
330
1F
100
AcDbEntity
  8
LAY-255
  6
CONTINUOUS
 62
     4
100
AcDbLine
 10
570.0
 20
55.99999999999999
 30
0.0
 11
770.0000000000001
 21
55.99999999999999
 31
0.0
  0
LINE
  5
3B9
330
1F
100
AcDbEntity
  8
LAY-255
  6
CONTINUOUS
 62
     7
100
AcDbLine
 10
570.0
 20
20.0
 30
0.0
 11
570.0
 21
134.0
 31
0.0
  0
LINE
  5
3BA
330
1F
100
AcDbEntity
  8
LAY-255
  6
CONTINUOUS
 62
     4
100
AcDbLine
 10
670.0
 20
55.99999999999999
 30
0.0
 11
670.0
 21
44.0
 31
0.0
  0
LINE
  5
3BB
330
1F
100
AcDbEntity
  8
LAY-255
  6
CONTINUOUS
 62
     7
100
AcDbLine
 10
770.0000000000001
 20
134.0
 30
0.0
 11
570.0
 21
134.0
 31
0.0
  0
LINE
  5
3BC
330
1F
100
AcDbEntity
  8
LAY-255
  6
CONTINUOUS
 62
     4
100
AcDbLine
 10
766.0
 20
110.0
 30
0.0
 11
574.0
 21
110.0
 31
0.0
  0
LINE
  5
3BD
330
1F
100
AcDbEntity
  8
LAY-255
  6
CONTINUOUS
 62
     4
100
AcDbLine
 10
766.0
 20
122.0
 30
0.0
 11
574.0
 21
122.0
 31
0.0
  0
POINT
  5
3BE
330
1F
100
AcDbEntity
  8
LAY-255
  6
CONTINUOUS
 62
     7
100
AcDbPoint
 10
578.0
 20
100.0
 30
0.0
  0
POINT
  5
3BF
330
1F
100
AcDbEntity
  8
LAY-255
  6
CONTINUOUS
 62
     7
100
AcDbPoint
 10
600.0
 20
112.0
 30
0.0
  0
POINT
  5
3C0
330
1F
100
AcDbEntity
  8
LAY-255
  6
CONTINUOUS
 62
     7
100
AcDbPoint
 10
600.0
 20
124.0
 30
0.0
  0
POINT
  5
3C1
330
1F
100
AcDbEntity
  8
LAY-255
  6
CONTINUOUS
 62
     7
100
AcDbPoint
 10
578.0
 20
80.0
 30
0.0
  0
POINT
  5
3C2
330
1F
100
AcDbEntity
  8
LAY-255
  6
CONTINUOUS
 62
     7
100
AcDbPoint
 10
578.0
 20
90.0
 30
0.0
  0
POINT
  5
3C3
330
1F
100
AcDbEntity
  8
LAY-255
  6
CONTINUOUS
 62
     7
100
AcDbPoint
 10
578.0
 20
69.99999999999999
 30
0.0
  0
POINT
  5
3C4
330
1F
100
AcDbEntity
  8
LAY-255
  6
CONTINUOUS
 62
     7
100
AcDbPoint
 10
578.0
 20
59.99999999999997
 30
0.0
  0
TEXT
  5
3C5
330
1F
100
AcDbEntity
  8
LAY-255
  6
CONTINUOUS
 62
     7
100
AcDbText
 10
616.2767579736328
 20
31.0875
 30
0.0
 40
10.3125
  1
福西鋳物株式会社
 41
1.342692319347662
  7
EXCADSTD
100
AcDbText
  0
TEXT
  5
3C6
330
1F
100
AcDbEntity
  8
LAY-255
  6
CONTINUOUS
 62
     7
100
AcDbText
 10
617.0187500000001
 20
23.9625
 30
0.0
 40
3.4375
  1
ＦＵＫＵＮＩＳＨＩ
 41
1.204799226045263
  7
EXCADSTD
100
AcDbText
  0
TEXT
  5
3C7
330
1F
100
AcDbEntity
  8
LAY-255
  6
CONTINUOUS
 62
     7
100
AcDbText
 10
665.4383928571428
 20
23.9625
 30
0.0
 40
3.4375
  1
ＦＯＵＮＤＲＹ
 41
1.243252752978497
  7
EXCADSTD
100
AcDbText
  0
TEXT
  5
3C8
330
1F
100
AcDbEntity
  8
LAY-255
  6
CONTINUOUS
 62
     7
100
AcDbText
 10
703.9891823858172
 20
23.9625
 30
0.0
 40
3.4375
  1
ＣＯ.,ＬＴＤ.
 41
1.243830523306697
  7
EXCADSTD
100
AcDbText
  0
TEXT
  5
3C9
330
1F
100
AcDbEntity
  8
LAY-255
  6
CONTINUOUS
 62
     7
100
AcDbText
 10
588.06875
 20
27.4375
 30
0.0
 40
10.3125
  1
S
 41
0.7582677563636363
  7
EXCADSTD
100
AcDbText
  0
TEXT
  5
3CA
330
1F
100
AcDbEntity
  8
LAY-255
  6
CONTINUOUS
 62
     7
100
AcDbText
 10
594.209375
 20
27.49882075472
 30
0.0
 40
10.3125
  1
F
 41
0.7440945272727272
  7
EXCADSTD
100
AcDbText
  0
TEXT
  5
3CB
330
1F
100
AcDbEntity
  8
LAY-255
  6
CONTINUOUS
 62
     7
100
AcDbText
 10
674.2109375
 20
48.84374999999998
 30
0.0
 40
5.15625
  1
縮尺
 41
1.080708718181818
  7
EXCADSTD
100
AcDbText
  0
TEXT
  5
3CC
330
1F
100
AcDbEntity
  8
LAY-255
  6
CONTINUOUS
 62
     7
100
AcDbText
 10
574.53125
 20
113.125
 30
0.0
 40
6.875
  1
型式
 41
1.056348480681818
  7
EXCADSTD
100
AcDbText
  0
TEXT
  5
3CD
330
1F
100
AcDbEntity
  8
LAY-255
  6
CONTINUOUS
 62
     7
100
AcDbText
 10
574.84375
 20
125.125
 30
0.0
 40
6.875
  1
品名
 41
0.978838634090909
  7
EXCADSTD
100
AcDbText
  0
TEXT
  5
3CE
330
1F
100
AcDbEntity
  8
LAY-255
  6
CONTINUOUS
 62
     7
100
AcDbText
 10
574.3046875
 20
48.84374999999998
 30
0.0
 40
5.15625
  1
作成日
 41
1.000629973818182
  7
EXCADSTD
100
AcDbText
  0
TEXT
  5
3CF
330
1F
100
AcDbEntity
  8
LAY-255
  6
CONTINUOUS
 62
     7
100
AcDbText
 10
578.375
 20
71.12500000000001
 30
0.0
 40
6.875
  1
施工：打込用
 41
1.018700840909091
  7
EXCADSTD
100
AcDbText
  0
TEXT
  5
3D0
330
1F
100
AcDbEntity
  8
LAY-255
  6
CONTINUOUS
 62
     7
100
AcDbText
 10
600.5
 20
125.125
 30
0.0
 40
6.875
  1
ルーフドレイン
 41
1.021169538599106
  7
EXCADSTD
100
AcDbText
  0
TEXT
  5
3D1
330
1F
100
AcDbEntity
  8
LAY-255
  6
CONTINUOUS
 62
     7
100
AcDbText
 10
578.75
 20
101.125
 30
0.0
 40
6.875
  1
防水：モルタル・塗膜防水兼用
 41
1.008985320967742
  7
EXCADSTD
100
AcDbText
  0
TEXT
  5
3D2
330
1F
100
AcDbEntity
  8
LAY-255
  6
CONTINUOUS
 62
     7
100
AcDbText
 10
578.4375
 20
61.12500000000001
 30
0.0
 40
6.875
  1
接続：差込用
 41
1.01733803041958
  7
EXCADSTD
100
AcDbText
  0
TEXT
  5
3D3
330
1F
100
AcDbEntity
  8
LAY-255
  6
CONTINUOUS
 62
     7
100
AcDbText
 10
578.28125
 20
91.12500000000001
 30
0.0
 40
6.875
  1
材質：ステンレス鋼鋳鋼
 41
1.017696295032802
  7
EXCADSTD
100
AcDbText
  0
TEXT
  5
3D4
330
1F
100
AcDbEntity
  8
LAY-255
  6
CONTINUOUS
 62
     7
100
AcDbText
 10
578.46875
 20
81.12500000000001
 30
0.0
 40
6.875
  1
用途：中継用
 41
1.016656625174825
  7
EXCADSTD
100
AcDbText
  0
TEXT
  5
3D5
330
1F
100
AcDbEntity
  8
LAY-255
  6
CONTINUOUS
 62
     7
100
AcDbText
 10
696.5625
 20
47.12499999999998
 30
0.0
 40
6.875
  1
１：２
 41
0.888661464
  7
EXCADSTD
100
AcDbText
  0
TEXT
  5
3D6
330
1F
100
AcDbEntity
  8
LAY-255
  6
CONTINUOUS
 62
     7
100
AcDbText
 10
601.5
 20
113.125
 30
0.0
 40
6.875
  1
ＳＦ－ＳＵＭＶ－１００５０型
 41
1.004984812756598
  7
EXCADSTD
100
AcDbText
  0
TEXT
  5
3D7
330
1F
100
AcDbEntity
  8
LAY-255
  6
CONTINUOUS
 62
     7
100
AcDbText
 10
601.78125
 20
47.12499999999998
 30
0.0
 40
6.875
  1
０７／０１／０５
 41
0.9779528072727272
  7
EXCADSTD
100
AcDbText
  0
ENDSEC
  0
SECTION
  2
OBJECTS
  0
DICTIONARY
  5
C
330
0
100
AcDbDictionary
  3
ACAD_GROUP
350
D
  3
ACAD_LAYOUT
350
1A
  3
ACAD_MATERIAL
350
43
  3
ACAD_MLEADERSTYLE
350
6B
  3
ACAD_MLINESTYLE
350
17
  3
ACAD_PLOTSETTINGS
350
19
  3
ACAD_SCALELIST
350
47
  3
ACAD_VISUALSTYLE
350
2A
  3
ACDBHEADERROUNDTRIPXREC
350
3D8
  3
ACDBVARIABLEDICTIONARY
350
3F9
  0
DICTIONARY
  5
404
330
8
100
AcDbDictionary
280
     1
  3
ACAD_XREC_ROUNDTRIP
360
405
  0
DICTIONARY
  5
D
102
{ACAD_REACTORS
330
C
102
}
330
C
100
AcDbDictionary
  0
DICTIONARY
  5
1A
102
{ACAD_REACTORS
330
C
102
}
330
C
100
AcDbDictionary
  0
DICTIONARY
  5
43
102
{ACAD_REACTORS
330
C
102
}
330
C
100
AcDbDictionary
  3
BYBLOCK
350
45
  3
BYLAYER
350
44
  3
GLOBAL
350
46
  0
DICTIONARY
  5
6B
102
{ACAD_REACTORS
330
C
102
}
330
C
100
AcDbDictionary
  3
STANDARD
350
6C
  0
DICTIONARY
  5
17
102
{ACAD_REACTORS
330
C
102
}
330
C
100
AcDbDictionary
  3
STANDARD
350
18
  0
DICTIONARY
  5
19
102
{ACAD_REACTORS
330
C
102
}
330
C
100
AcDbDictionary
  0
DICTIONARY
  5
47
102
{ACAD_REACTORS
330
C
102
}
330
C
100
AcDbDictionary
  3
A0
350
48
  3
A1
350
49
  3
A2
350
4A
  3
A3
350
4B
  3
A4
350
4C
  3
A5
350
4D
  3
A6
350
4E
  3
A7
350
4F
  3
A8
350
50
  3
A9
350
51
  3
B0
350
52
  3
B1
350
53
  3
B2
350
54
  3
B3
350
55
  3
B4
350
56
  3
B5
350
57
  3
B6
350
58
  3
B7
350
59
  3
B8
350
5A
  3
B9
350
5B
  3
C0
350
5C
  3
C1
350
5D
  3
C2
350
5E
  3
C3
350
5F
  3
C4
350
60
  3
C5
350
61
  3
C6
350
62
  3
C7
350
63
  3
C8
350
64
  3
C9
350
65
  3
D0
350
66
  3
D1
350
67
  3
D2
350
68
  0
DICTIONARY
  5
2A
102
{ACAD_REACTORS
330
C
102
}
330
C
100
AcDbDictionary
  3
2DWIREFRAME
350
2F
  3
BASIC
350
32
  3
BRIGHTEN
350
36
  3
COLORCHANGE
350
3A
  3
CONCEPTUAL
350
34
  3
DIM
350
35
  3
EDGECOLOROFF
350
3D
  3
FACEPATTERN
350
39
  3
FLAT
350
2B
  3
FLATWITHEDGES
350
2C
  3
GOURAUD
350
2D
  3
GOURAUDWITHEDGES
350
2E
  3
HIDDEN
350
31
  3
JITTEROFF
350
3B
  3
LINEPATTERN
350
38
  3
OVERHANGOFF
350
3C
  3
REALISTIC
350
33
  3
SHADED
350
42
  3
SHADED_WITH_EDGES
350
41
  3
SHADES_OF_GRAY
350
3E
  3
SKETCHY
350
3F
  3
THICKEN
350
37
  3
WIREFRAME
350
30
  3
X-RAY
350
40
  0
DICTIONARY
  5
3D8
102
{ACAD_REACTORS
330
C
102
}
330
C
100
AcDbDictionary
  3
CEPSNID
350
3E2
  3
CEPSNTYPE
350
3E1
  3
DIMSTYLEDATA
350
3F8
  3
FINGERPRINTGUID
350
3E3
  3
HYPERLINKBASE
350
3DB
  3
INSUNITS
350
3E0
  3
LAYOUTDICT
350
3DD
  3
LWETCUNION
350
3DF
  3
PLOTSETDICT
350
3DE
  3
PSVPSCALE
350
3E5
  3
PUCSBASE
350
3E8
  3
PUCSORGBACK
350
3EE
  3
PUCSORGBOTTOM
350
3EA
  3
PUCSORGFRONT
350
3ED
  3
PUCSORGLEFT
350
3EB
  3
PUCSORGRIGHT
350
3EC
  3
PUCSORGTOP
350
3E9
  3
PUCSORTHOREF
350
3E6
  3
PUCSORTHOVIEW
350
3E7
  3
STYLESHEET
350
3DC
  3
TSTACKALIGN
350
3D9
  3
TSTACKSIZE
350
3DA
  3
UCSBASE
350
3F1
  3
UCSORGBACK
350
3F7
  3
UCSORGBOTTOM
350
3F3
  3
UCSORGFRONT
350
3F6
  3
UCSORGLEFT
350
3F4
  3
UCSORGRIGHT
350
3F5
  3
UCSORGTOP
350
3F2
  3
UCSORTHOREF
350
3EF
  3
UCSORTHOVIEW
350
3F0
  3
VERSIONGUID
350
3E4
  0
DICTIONARY
  5
3F9
102
{ACAD_REACTORS
330
C
102
}
330
C
100
AcDbDictionary
  3
CANNOSCALE
350
406
  3
CENTEREXE
350
400
  3
CENTERLTYPEFILE
350
401
  3
CMLEADERSTYLE
350
3FB
  3
CTABLESTYLE
350
3FA
  3
DIMASSOC
350
402
  3
HIDETEXT
350
403
  3
MSLTSCALE
350
407
  3
PSOLHEIGHT
350
3FD
  3
PSOLWIDTH
350
3FC
  0
XRECORD
  5
405
102
{ACAD_REACTORS
330
404
102
}
330
404
100
AcDbXrecord
102
VTR_0.000_0.000_1.000_1.000_VISUALSTYLE
340
2F
102
VTR_0.000_0.000_1.000_1.000_GRIDDISPLAY
 70
     3
102
VTR_0.000_0.000_1.000_1.000_GRIDMAJOR
 70
     5
102
VTR_0.000_0.000_1.000_1.000_DEFAULTLIGHTING
280
     1
102
VTR_0.000_0.000_1.000_1.000_DEFAULTLIGHTINGTYPE
 70
     1
102
VTR_0.000_0.000_1.000_1.000_BRIGHTNESS
141
0.0
102
VTR_0.000_0.000_1.000_1.000_CONTRAST
142
0.0
  0
MATERIAL
  5
45
102
{ACAD_REACTORS
330
43
102
}
102
{ACAD_XDICTIONARY
360
40A
102
}
330
43
100
AcDbMaterial
  1
BYBLOCK
  0
MATERIAL
  5
44
102
{ACAD_REACTORS
330
43
102
}
102
{ACAD_XDICTIONARY
360
408
102
}
330
43
100
AcDbMaterial
  1
BYLAYER
  0
MATERIAL
  5
46
102
{ACAD_REACTORS
330
43
102
}
102
{ACAD_XDICTIONARY
360
40C
102
}
330
43
100
AcDbMaterial
  1
GLOBAL
  0
ACAD_PROXY_OBJECT
  5
6C
102
{ACAD_REACTORS
330
6B
102
}
330
6B
100
AcDbProxyObject
 90
      499
 91
      505
 93
      610
310
40901902A4063FBFFFFFE0000000000000020400000000000020404214DD185B99185C990000000000000104090141901A00000000000004100000000000000041025764000000000000039000
340
14
340
0
340
11
340
0
 94
        0
1001
ACAD_MLEADERVER
1070
     2
  0
MLINESTYLE
  5
18
102
{ACAD_REACTORS
330
17
102
}
330
17
100
AcDbMlineStyle
  2
Standard
 70
     0
  3

 62
   256
 51
90.0
 52
90.0
 71
     2
 49
0.5
 62
   256
  6
BYLAYER
 49
-0.5
 62
   256
  6
BYLAYER
  0
ACAD_PROXY_OBJECT
  5
48
102
{ACAD_REACTORS
330
47
102
}
330
47
100
AcDbProxyObject
 90
      499
 91
      503
 93
       41
310
903313A31580
  0
ACAD_PROXY_OBJECT
  5
49
102
{ACAD_REACTORS
330
47
102
}
330
47
100
AcDbProxyObject
 90
      499
 91
      503
 93
      105
310
903313A324000000000000004000
  0
ACAD_PROXY_OBJECT
  5
4A
102
{ACAD_REACTORS
330
47
102
}
330
47
100
AcDbProxyObject
 90
      499
 91
      503
 93
      105
310
903313A344000000000000104000
  0
ACAD_PROXY_OBJECT
  5
4B
102
{ACAD_REACTORS
330
47
102
}
330
47
100
AcDbProxyObject
 90
      499
 91
      503
 93
      105
310
903313A354000000000000144000
  0
ACAD_PROXY_OBJECT
  5
4C
102
{ACAD_REACTORS
330
47
102
}
330
47
100
AcDbProxyObject
 90
      499
 91
      503
 93
      105
310
903313A384000000000000204000
  0
ACAD_PROXY_OBJECT
  5
4D
102
{ACAD_REACTORS
330
47
102
}
330
47
100
AcDbProxyObject
 90
      499
 91
      503
 93
      113
310
904313A31304000000000000244000
  0
ACAD_PROXY_OBJECT
  5
4E
102
{ACAD_REACTORS
330
47
102
}
330
47
100
AcDbProxyObject
 90
      499
 91
      503
 93
      113
310
904313A31364000000000000304000
  0
ACAD_PROXY_OBJECT
  5
4F
102
{ACAD_REACTORS
330
47
102
}
330
47
100
AcDbProxyObject
 90
      499
 91
      503
 93
      113
310
904313A32304000000000000344000
  0
ACAD_PROXY_OBJECT
  5
50
102
{ACAD_REACTORS
330
47
102
}
330
47
100
AcDbProxyObject
 90
      499
 91
      503
 93
      113
310
904313A333040000000000003E4000
  0
ACAD_PROXY_OBJECT
  5
51
102
{ACAD_REACTORS
330
47
102
}
330
47
100
AcDbProxyObject
 90
      499
 91
      503
 93
      113
310
904313A34304000000000000444000
  0
ACAD_PROXY_OBJECT
  5
52
102
{ACAD_REACTORS
330
47
102
}
330
47
100
AcDbProxyObject
 90
      499
 91
      503
 93
      113
310
904313A35304000000000000494000
  0
ACAD_PROXY_OBJECT
  5
53
102
{ACAD_REACTORS
330
47
102
}
330
47
100
AcDbProxyObject
 90
      499
 91
      503
 93
      121
310
905313A3130304000000000000594000
  0
ACAD_PROXY_OBJECT
  5
54
102
{ACAD_REACTORS
330
47
102
}
330
47
100
AcDbProxyObject
 90
      499
 91
      503
 93
      105
310
903323A310000000000000010100
  0
ACAD_PROXY_OBJECT
  5
55
102
{ACAD_REACTORS
330
47
102
}
330
47
100
AcDbProxyObject
 90
      499
 91
      503
 93
      105
310
903343A310000000000000410100
  0
ACAD_PROXY_OBJECT
  5
56
102
{ACAD_REACTORS
330
47
102
}
330
47
100
AcDbProxyObject
 90
      499
 91
      503
 93
      105
310
903383A310000000000000810100
  0
ACAD_PROXY_OBJECT
  5
57
102
{ACAD_REACTORS
330
47
102
}
330
47
100
AcDbProxyObject
 90
      499
 91
      503
 93
      113
310
90431303A310000000000000910100
  0
ACAD_PROXY_OBJECT
  5
58
102
{ACAD_REACTORS
330
47
102
}
330
47
100
AcDbProxyObject
 90
      499
 91
      503
 93
      121
310
9053130303A310000000000001650100
  0
ACAD_PROXY_OBJECT
  5
59
102
{ACAD_REACTORS
330
47
102
}
330
47
100
AcDbProxyObject
 90
      499
 91
      503
 93
      257
310
90E312F31323822203D2031272D3022000000000000200FC000000000000284000
  0
ACAD_PROXY_OBJECT
  5
5A
102
{ACAD_REACTORS
330
47
102
}
330
47
100
AcDbProxyObject
 90
      499
 91
      503
 93
      249
310
90D312F363422203D2031272D3022000000000000240FC000000000000284000
  0
ACAD_PROXY_OBJECT
  5
5B
102
{ACAD_REACTORS
330
47
102
}
330
47
100
AcDbProxyObject
 90
      499
 91
      503
 93
      249
310
90D312F333222203D2031272D3022000000000000280FC000000000000284000
  0
ACAD_PROXY_OBJECT
  5
5C
102
{ACAD_REACTORS
330
47
102
}
330
47
100
AcDbProxyObject
 90
      499
 91
      503
 93
      249
310
90D312F313622203D2031272D30220000000000002C0FC000000000000284000
  0
ACAD_PROXY_OBJECT
  5
5D
102
{ACAD_REACTORS
330
47
102
}
330
47
100
AcDbProxyObject
 90
      499
 91
      503
 93
      249
310
90D332F333222203D2031272D30220000000000002E0FC000000000000284000
  0
ACAD_PROXY_OBJECT
  5
5E
102
{ACAD_REACTORS
330
47
102
}
330
47
100
AcDbProxyObject
 90
      499
 91
      503
 93
      241
310
90C312F3822203D2031272D3022000000000000300FC000000000000284000
  0
ACAD_PROXY_OBJECT
  5
5F
102
{ACAD_REACTORS
330
47
102
}
330
47
100
AcDbProxyObject
 90
      499
 91
      503
 93
      249
310
90D332F313622203D2031272D3022000000000000320FC000000000000284000
  0
ACAD_PROXY_OBJECT
  5
60
102
{ACAD_REACTORS
330
47
102
}
330
47
100
AcDbProxyObject
 90
      499
 91
      503
 93
      241
310
90C312F3422203D2031272D3022000000000000340FC000000000000284000
  0
ACAD_PROXY_OBJECT
  5
61
102
{ACAD_REACTORS
330
47
102
}
330
47
100
AcDbProxyObject
 90
      499
 91
      503
 93
      241
310
90C332F3822203D2031272D3022000000000000360FC000000000000284000
  0
ACAD_PROXY_OBJECT
  5
62
102
{ACAD_REACTORS
330
47
102
}
330
47
100
AcDbProxyObject
 90
      499
 91
      503
 93
      241
310
90C312F3222203D2031272D3022000000000000380FC000000000000284000
  0
ACAD_PROXY_OBJECT
  5
63
102
{ACAD_REACTORS
330
47
102
}
330
47
100
AcDbProxyObject
 90
      499
 91
      503
 93
      241
310
90C332F3422203D2031272D30220000000000003A0FC000000000000284000
  0
ACAD_PROXY_OBJECT
  5
64
102
{ACAD_REACTORS
330
47
102
}
330
47
100
AcDbProxyObject
 90
      499
 91
      503
 93
      161
310
90A3122203D2031272D30224000000000000284000
  0
ACAD_PROXY_OBJECT
  5
65
102
{ACAD_REACTORS
330
47
102
}
330
47
100
AcDbProxyObject
 90
      499
 91
      503
 93
      257
310
90E312D312F3222203D2031272D30220000000000003E0FC000000000000284000
  0
ACAD_PROXY_OBJECT
  5
66
102
{ACAD_REACTORS
330
47
102
}
330
47
100
AcDbProxyObject
 90
      499
 91
      503
 93
      225
310
90A3322203D2031272D302200000000000002100000000000000284000
  0
ACAD_PROXY_OBJECT
  5
67
102
{ACAD_REACTORS
330
47
102
}
330
47
100
AcDbProxyObject
 90
      499
 91
      503
 93
      225
310
90A3622203D2031272D302200000000000006100000000000000284000
  0
ACAD_PROXY_OBJECT
  5
68
102
{ACAD_REACTORS
330
47
102
}
330
47
100
AcDbProxyObject
 90
      499
 91
      503
 93
      249
310
90D31272D3022203D2031272D30220000000000000A100000000000000284000
  0
ACAD_PROXY_OBJECT
  5
2F
102
{ACAD_REACTORS
330
2A
102
}
330
2A
100
AcDbProxyObject
 90
      499
 91
      501
 93
      436
310
42CC9915DA5C99599C985B595049028333333333333E33F0000000000000F90107901411070040501600405405064090741402480A0340
1001
ACAD
1000
AcDbSavedByObjectVersion
1070
     0
  0
ACAD_PROXY_OBJECT
  5
32
102
{ACAD_REACTORS
330
2A
102
}
330
2A
100
AcDbProxyObject
 90
      499
 91
      501
 93
      388
310
4150985CDA58D07406404333333333333E33F0000000000000F90107A41107004050150841D405064090741402480A0350
1001
ACAD
1000
AcDbSavedByObjectVersion
1070
     0
  0
ACAD_PROXY_OBJECT
  5
36
102
{ACAD_REACTORS
330
2A
102
}
330
2A
100
AcDbProxyObject
 90
      499
 91
      501
 93
      428
310
42109C9A59DA1D195B90C409028333333333333E33F0000000000000F9010790141107004050150841D405064090741402480A029950
1001
ACAD
1000
AcDbSavedByObjectVersion
1070
     0
  0
ACAD_PROXY_OBJECT
  5
3A
102
{ACAD_REACTORS
330
2A
102
}
330
2A
100
AcDbProxyObject
 90
      499
 91
      501
 93
      452
310
42D0DBDB1BDC90DA185B99D95104090240C333333333333E33F0000000000000F90108901411070040501508421405064090741402480A0350
1001
ACAD
1000
AcDbSavedByObjectVersion
1070
     0
  0
ACAD_PROXY_OBJECT
  5
34
102
{ACAD_REACTORS
330
2A
102
}
330
2A
100
AcDbProxyObject
 90
      499
 91
      501
 93
      500
310
4290DBDB98D95C1D1D585B10940D028333333333333E33F0000000000000F90107902409070040501000000000018199010841D405064090740C02480A0340
1001
ACAD
1000
AcDbSavedByObjectVersion
1070
     0
  0
ACAD_PROXY_OBJECT
  5
35
102
{ACAD_REACTORS
330
2A
102
}
330
2A
100
AcDbProxyObject
 90
      499
 91
      501
 93
      412
310
40D11A5B50B409028333333333333E33F0000000000000F9010790141107004050150841D405064090741402480A02677FFFFFD0
1001
ACAD
1000
AcDbSavedByObjectVersion
1070
     0
  0
ACAD_PROXY_OBJECT
  5
3D
102
{ACAD_REACTORS
330
2A
102
}
330
2A
100
AcDbProxyObject
 90
      499
 91
      501
 93
      452
310
43115919D950DBDB1BDC93D999916409028333333333333E33F0000000000000F9010790141107004050150841D405064090741402480A0350
1001
ACAD
1000
AcDbSavedByObjectVersion
1070
     0
  0
ACAD_PROXY_OBJECT
  5
39
102
{ACAD_REACTORS
330
2A
102
}
330
2A
100
AcDbProxyObject
 90
      499
 91
      501
 93
      444
310
42D19858D95C185D1D195C9B90F409028333333333333E33F0000000000000F9010790141107004050150841D405064090741402480A0350
1001
ACAD
1000
AcDbSavedByObjectVersion
1070
     0
  0
ACAD_PROXY_OBJECT
  5
2B
102
{ACAD_REACTORS
330
2A
102
}
330
2A
100
AcDbProxyObject
 90
      499
 91
      501
 93
      380
310
41119B185D240901404333333333333E33F0000000000000F9010740A907004050150841D405064090741402480A1B50
1001
ACAD
1000
AcDbSavedByObjectVersion
1070
     0
  0
ACAD_PROXY_OBJECT
  5
2C
102
{ACAD_REACTORS
330
2A
102
}
330
2A
100
AcDbProxyObject
 90
      499
 91
      501
 93
      468
310
43519B185D15DA5D1A115919D95CD0140901404333333333333E33F0000000000000F90107409019070040501600405405064090741402480A1B50
1001
ACAD
1000
AcDbSavedByObjectVersion
1070
     0
  0
ACAD_PROXY_OBJECT
  5
2D
102
{ACAD_REACTORS
330
2A
102
}
330
2A
100
AcDbProxyObject
 90
      499
 91
      501
 93
      404
310
41D1DBDD5C985D5910240902404333333333333E33F0000000000000F9010740A9070040501641D405064090741402480A1B50
1001
ACAD
1000
AcDbSavedByObjectVersion
1070
     0
  0
ACAD_PROXY_OBJECT
  5
2E
102
{ACAD_REACTORS
330
2A
102
}
330
2A
100
AcDbProxyObject
 90
      499
 91
      501
 93
      492
310
4411DBDD5C985D5915DA5D1A115919D95CD0340902404333333333333E33F0000000000000F90107409019070040501600405405064090741402480A1B50
1001
ACAD
1000
AcDbSavedByObjectVersion
1070
     0
  0
ACAD_PROXY_OBJECT
  5
31
102
{ACAD_REACTORS
330
2A
102
}
330
2A
100
AcDbProxyObject
 90
      499
 91
      501
 93
      476
310
41921A5919195B90640502408333333333333E33F0000000000000F901079024090700405020000000000001110200405405064090740C02480A0340
1001
ACAD
1000
AcDbSavedByObjectVersion
1070
     0
  0
ACAD_PROXY_OBJECT
  5
3B
102
{ACAD_REACTORS
330
2A
102
}
330
2A
100
AcDbProxyObject
 90
      499
 91
      501
 93
      428
310
42529A5D1D195C93D999914409028333333333333E33F0000000000000F9010790141107004050150A41D405064090741402480A0350
1001
ACAD
1000
AcDbSavedByObjectVersion
1070
     0
  0
ACAD_PROXY_OBJECT
  5
38
102
{ACAD_REACTORS
330
2A
102
}
330
2A
100
AcDbProxyObject
 90
      499
 91
      501
 93
      444
310
42D31A5B995C185D1D195C9B90E409028333333333333E33F0000000000000F9010790141107004050750841D405064090741402483A0350
1001
ACAD
1000
AcDbSavedByObjectVersion
1070
     0
  0
ACAD_PROXY_OBJECT
  5
3C
102
{ACAD_REACTORS
330
2A
102
}
330
2A
100
AcDbProxyObject
 90
      499
 91
      501
 93
      444
310
42D3DD995C9A185B99D3D999915409028333333333333E33F0000000000000F9010790141107004050150941D405064090741402480A0350
1001
ACAD
1000
AcDbSavedByObjectVersion
1070
     0
  0
ACAD_PROXY_OBJECT
  5
33
102
{ACAD_REACTORS
330
2A
102
}
330
2A
100
AcDbProxyObject
 90
      499
 91
      501
 93
      428
310
425499585B1A5CDD1A58D08409038333333333333E33F0000000000000F9010740A907004050150800405405064090740C02480A1B40
1001
ACAD
1000
AcDbSavedByObjectVersion
1070
     0
  0
ACAD_PROXY_OBJECT
  5
42
102
{ACAD_REACTORS
330
2A
102
}
330
2A
100
AcDbProxyObject
 90
      499
 91
      501
 93
      420
310
4194DA1859195911B40902404333333333333E33F0000000000000F9010740A41107004050150800405405064090840C02480A0B40
1001
ACAD
1000
AcDbSavedByObjectVersion
1070
     0
  0
ACAD_PROXY_OBJECT
  5
41
102
{ACAD_REACTORS
330
2A
102
}
330
2A
100
AcDbProxyObject
 90
      499
 91
      501
 93
      516
310
4454DA18591959081DDA5D1A08195919D95CD1A40902404333333333333E33F0000000000000F901074090142907004050250800405405064090740C02480A0B40
1001
ACAD
1000
AcDbSavedByObjectVersion
1070
     0
  0
ACAD_PROXY_OBJECT
  5
3E
102
{ACAD_REACTORS
330
2A
102
}
330
2A
100
AcDbProxyObject
 90
      499
 91
      501
 93
      532
310
4394DA1859195CC81BD98811DC985E5174090240C333333333333E33F0000000000000F901079024090741D01000000000000111010841D405064090740C02480A0340
1001
ACAD
1000
AcDbSavedByObjectVersion
1070
     0
  0
ACAD_PROXY_OBJECT
  5
3F
102
{ACAD_REACTORS
330
2A
102
}
330
2A
100
AcDbProxyObject
 90
      499
 91
      501
 93
      476
310
41D4DAD95D18DA1E51840502408333333333333E33F0000000000000F901079024090741D01000000000000111010B41D405064090741802480A0340
1001
ACAD
1000
AcDbSavedByObjectVersion
1070
     0
  0
ACAD_PROXY_OBJECT
  5
37
102
{ACAD_REACTORS
330
2A
102
}
330
2A
100
AcDbProxyObject
 90
      499
 91
      501
 93
      412
310
41D51A1A58DAD95B90D409028333333333333E33F0000000000000F9010790141107004050150C41D405064090741402480A0350
1001
ACAD
1000
AcDbSavedByObjectVersion
1070
     0
  0
ACAD_PROXY_OBJECT
  5
30
102
{ACAD_REACTORS
330
2A
102
}
330
2A
100
AcDbProxyObject
 90
      499
 91
      501
 93
      420
310
4255DA5C99599C985B595059028333333333333E33F0000000000000F90107901411070040501600405405064090740C02480A0340
1001
ACAD
1000
AcDbSavedByObjectVersion
1070
     0
  0
ACAD_PROXY_OBJECT
  5
40
102
{ACAD_REACTORS
330
2A
102
}
330
2A
100
AcDbProxyObject
 90
      499
 91
      501
 93
      404
310
41560B54985E51940902404000000000000E03F0000000000000F9010740501907004050150841D405064090740C02480A1B40
1001
ACAD
1000
AcDbSavedByObjectVersion
1070
     0
  0
XRECORD
  5
3E2
102
{ACAD_REACTORS
330
3D8
102
}
330
3D8
100
AcDbXrecord
340
0
  0
XRECORD
  5
3E1
102
{ACAD_REACTORS
330
3D8
102
}
330
3D8
100
AcDbXrecord
 90
        0
  0
XRECORD
  5
3F8
102
{ACAD_REACTORS
330
3D8
102
}
330
3D8
100
AcDbXrecord
1000
DSTYLE
1002
{
1070
   340
340
11
1002
}
  0
XRECORD
  5
3E3
102
{ACAD_REACTORS
330
3D8
102
}
330
3D8
100
AcDbXrecord
  1
{9b28a21b-b888-4fd4-8808-72f4a4b5ccf5}
  0
XRECORD
  5
3DB
102
{ACAD_REACTORS
330
3D8
102
}
330
3D8
100
AcDbXrecord
  1

  0
XRECORD
  5
3E0
102
{ACAD_REACTORS
330
3D8
102
}
330
3D8
100
AcDbXrecord
 90
        4
  0
XRECORD
  5
3DD
102
{ACAD_REACTORS
330
3D8
102
}
330
3D8
100
AcDbXrecord
340
1A
  0
XRECORD
  5
3DF
102
{ACAD_REACTORS
330
3D8
102
}
330
3D8
100
AcDbXrecord
 90
    10781
  0
XRECORD
  5
3DE
102
{ACAD_REACTORS
330
3D8
102
}
330
3D8
100
AcDbXrecord
340
19
  0
XRECORD
  5
3E5
102
{ACAD_REACTORS
330
3D8
102
}
330
3D8
100
AcDbXrecord
 40
0.0
  0
XRECORD
  5
3E8
102
{ACAD_REACTORS
330
3D8
102
}
330
3D8
100
AcDbXrecord
340
0
  0
XRECORD
  5
3EE
102
{ACAD_REACTORS
330
3D8
102
}
330
3D8
100
AcDbXrecord
 10
0.0
 20
0.0
 30
0.0
  0
XRECORD
  5
3EA
102
{ACAD_REACTORS
330
3D8
102
}
330
3D8
100
AcDbXrecord
 10
0.0
 20
0.0
 30
0.0
  0
XRECORD
  5
3ED
102
{ACAD_REACTORS
330
3D8
102
}
330
3D8
100
AcDbXrecord
 10
0.0
 20
0.0
 30
0.0
  0
XRECORD
  5
3EB
102
{ACAD_REACTORS
330
3D8
102
}
330
3D8
100
AcDbXrecord
 10
0.0
 20
0.0
 30
0.0
  0
XRECORD
  5
3EC
102
{ACAD_REACTORS
330
3D8
102
}
330
3D8
100
AcDbXrecord
 10
0.0
 20
0.0
 30
0.0
  0
XRECORD
  5
3E9
102
{ACAD_REACTORS
330
3D8
102
}
330
3D8
100
AcDbXrecord
 10
0.0
 20
0.0
 30
0.0
  0
XRECORD
  5
3E6
102
{ACAD_REACTORS
330
3D8
102
}
330
3D8
100
AcDbXrecord
340
0
  0
XRECORD
  5
3E7
102
{ACAD_REACTORS
330
3D8
102
}
330
3D8
100
AcDbXrecord
 70
     0
  0
XRECORD
  5
3DC
102
{ACAD_REACTORS
330
3D8
102
}
330
3D8
100
AcDbXrecord
  1

  0
XRECORD
  5
3D9
102
{ACAD_REACTORS
330
3D8
102
}
330
3D8
100
AcDbXrecord
 90
        1
  0
XRECORD
  5
3DA
102
{ACAD_REACTORS
330
3D8
102
}
330
3D8
100
AcDbXrecord
 90
       70
  0
XRECORD
  5
3F1
102
{ACAD_REACTORS
330
3D8
102
}
330
3D8
100
AcDbXrecord
340
0
  0
XRECORD
  5
3F7
102
{ACAD_REACTORS
330
3D8
102
}
330
3D8
100
AcDbXrecord
 10
0.0
 20
0.0
 30
0.0
  0
XRECORD
  5
3F3
102
{ACAD_REACTORS
330
3D8
102
}
330
3D8
100
AcDbXrecord
 10
0.0
 20
0.0
 30
0.0
  0
XRECORD
  5
3F6
102
{ACAD_REACTORS
330
3D8
102
}
330
3D8
100
AcDbXrecord
 10
0.0
 20
0.0
 30
0.0
  0
XRECORD
  5
3F4
102
{ACAD_REACTORS
330
3D8
102
}
330
3D8
100
AcDbXrecord
 10
0.0
 20
0.0
 30
0.0
  0
XRECORD
  5
3F5
102
{ACAD_REACTORS
330
3D8
102
}
330
3D8
100
AcDbXrecord
 10
0.0
 20
0.0
 30
0.0
  0
XRECORD
  5
3F2
102
{ACAD_REACTORS
330
3D8
102
}
330
3D8
100
AcDbXrecord
 10
0.0
 20
0.0
 30
0.0
  0
XRECORD
  5
3EF
102
{ACAD_REACTORS
330
3D8
102
}
330
3D8
100
AcDbXrecord
340
0
  0
XRECORD
  5
3F0
102
{ACAD_REACTORS
330
3D8
102
}
330
3D8
100
AcDbXrecord
 70
     0
  0
XRECORD
  5
3E4
102
{ACAD_REACTORS
330
3D8
102
}
330
3D8
100
AcDbXrecord
  1
{FAEB1C32-E019-11D5-929B-00C0DF256EC4}
  0
DICTIONARYVAR
  5
406
102
{ACAD_REACTORS
330
3F9
102
}
330
3F9
100
DictionaryVariables
280
     0
  1
1:1
  0
DICTIONARYVAR
  5
400
102
{ACAD_REACTORS
330
3F9
102
}
330
3F9
100
DictionaryVariables
280
     0
  1
3.500000
  0
DICTIONARYVAR
  5
401
102
{ACAD_REACTORS
330
3F9
102
}
330
3F9
100
DictionaryVariables
280
     0
  1
acadiso.lin
  0
DICTIONARYVAR
  5
3FB
102
{ACAD_REACTORS
330
3F9
102
}
330
3F9
100
DictionaryVariables
280
     0
  1
Standard
  0
DICTIONARYVAR
  5
3FA
102
{ACAD_REACTORS
330
3F9
102
}
330
3F9
100
DictionaryVariables
280
     0
  1
Standard
  0
DICTIONARYVAR
  5
402
102
{ACAD_REACTORS
330
3F9
102
}
330
3F9
100
DictionaryVariables
280
     0
  1
2
  0
DICTIONARYVAR
  5
403
102
{ACAD_REACTORS
330
3F9
102
}
330
3F9
100
DictionaryVariables
280
     0
  1
1
  0
DICTIONARYVAR
  5
407
102
{ACAD_REACTORS
330
3F9
102
}
330
3F9
100
DictionaryVariables
280
     0
  1
1
  0
DICTIONARYVAR
  5
3FD
102
{ACAD_REACTORS
330
3F9
102
}
330
3F9
100
DictionaryVariables
280
     0
  1
80.000000
  0
DICTIONARYVAR
  5
3FC
102
{ACAD_REACTORS
330
3F9
102
}
330
3F9
100
DictionaryVariables
280
     0
  1
5.000000
  0
DICTIONARY
  5
40A
330
45
100
AcDbDictionary
280
     1
  3
ACAD_XREC_ROUNDTRIP
360
40B
  0
DICTIONARY
  5
408
330
44
100
AcDbDictionary
280
     1
  3
ACAD_XREC_ROUNDTRIP
360
409
  0
DICTIONARY
  5
40C
330
46
100
AcDbDictionary
280
     1
  3
ACAD_XREC_ROUNDTRIP
360
40D
  0
XRECORD
  5
40B
102
{ACAD_REACTORS
330
40A
102
}
330
40A
100
AcDbXrecord
102
MATERIAL
148
0.0
149
0.0
149
0.0
 93
        0
 94
      127
282
     0
 72
     1
 77
     1
171
     1
175
     1
179
     1
273
     0
  0
XRECORD
  5
409
102
{ACAD_REACTORS
330
408
102
}
330
408
100
AcDbXrecord
102
MATERIAL
148
0.0
149
0.0
149
0.0
 93
        0
 94
      127
282
     0
 72
     1
 77
     1
171
     1
175
     1
179
     1
273
     0
  0
XRECORD
  5
40D
102
{ACAD_REACTORS
330
40C
102
}
330
40C
100
AcDbXrecord
102
MATERIAL
148
0.0
149
0.0
149
0.0
 93
        0
 94
      127
282
     0
 72
     1
 77
     1
171
     1
175
     1
179
     1
273
     0
  0
ENDSEC
  0
EOF
