  0
SECTION
  2
HEADER
  9
$ACADVER
  1
AC1014
  9
$ACADMAINTVER
 70
     9
  9
$DWGCODEPAGE
  3
ANSI_932
  9
$INSBASE
 10
0.0
 20
0.0
 30
0.0
  9
$EXTMIN
 10
15.0
 20
30.0
 30
0.0
  9
$EXTMAX
 10
1155.0
 20
840.0
 30
0.0
  9
$LIMMIN
 10
0.0
 20
0.0
  9
$LIMMAX
 10
420.0
 20
297.0
  9
$ORTHOMODE
 70
     0
  9
$REGENMODE
 70
     1
  9
$FILLMODE
 70
     1
  9
$QTEXTMODE
 70
     0
  9
$MIRRTEXT
 70
     1
  9
$DRAGMODE
 70
     2
  9
$LTSCALE
 40
0.2
  9
$OSMODE
 70
    37
  9
$ATTMODE
 70
     1
  9
$TEXTSIZE
 40
2.5
  9
$TRACEWID
 40
1.0
  9
$TEXTSTYLE
  7
STANDARD
  9
$CLAYER
  8
LAY-10
  9
$CELTYPE
  6
BYLAYER
  9
$CECOLOR
 62
   256
  9
$CELTSCALE
 40
1.0
  9
$DELOBJ
 70
     1
  9
$DISPSILH
 70
     0
  9
$DIMSCALE
 40
1.0
  9
$DIMASZ
 40
2.5
  9
$DIMEXO
 40
0.625
  9
$DIMDLI
 40
3.75
  9
$DIMRND
 40
0.0
  9
$DIMDLE
 40
0.0
  9
$DIMEXE
 40
1.25
  9
$DIMTP
 40
0.0
  9
$DIMTM
 40
0.0
  9
$DIMTXT
 40
2.5
  9
$DIMCEN
 40
2.5
  9
$DIMTSZ
 40
0.0
  9
$DIMTOL
 70
     0
  9
$DIMLIM
 70
     0
  9
$DIMTIH
 70
     0
  9
$DIMTOH
 70
     0
  9
$DIMSE1
 70
     0
  9
$DIMSE2
 70
     0
  9
$DIMTAD
 70
     1
  9
$DIMZIN
 70
     8
  9
$DIMBLK
  1

  9
$DIMASO
 70
     1
  9
$DIMSHO
 70
     1
  9
$DIMPOST
  1

  9
$DIMAPOST
  1

  9
$DIMALT
 70
     0
  9
$DIMALTD
 70
     3
  9
$DIMALTF
 40
0.03937007874016
  9
$DIMLFAC
 40
1.0
  9
$DIMTOFL
 70
     1
  9
$DIMTVP
 40
0.0
  9
$DIMTIX
 70
     0
  9
$DIMSOXD
 70
     0
  9
$DIMSAH
 70
     0
  9
$DIMBLK1
  1

  9
$DIMBLK2
  1

  9
$DIMSTYLE
  2
ISO-25
  9
$DIMCLRD
 70
     0
  9
$DIMCLRE
 70
     0
  9
$DIMCLRT
 70
     0
  9
$DIMTFAC
 40
1.0
  9
$DIMGAP
 40
0.625
  9
$DIMJUST
 70
     0
  9
$DIMSD1
 70
     0
  9
$DIMSD2
 70
     0
  9
$DIMTOLJ
 70
     0
  9
$DIMTZIN
 70
     8
  9
$DIMALTZ
 70
     0
  9
$DIMALTTZ
 70
     0
  9
$DIMFIT
 70
     3
  9
$DIMUPT
 70
     0
  9
$DIMUNIT
 70
     2
  9
$DIMDEC
 70
     2
  9
$DIMTDEC
 70
     2
  9
$DIMALTU
 70
     2
  9
$DIMALTTD
 70
     3
  9
$DIMTXSTY
  7
STANDARD
  9
$DIMAUNIT
 70
     0
  9
$LUNITS
 70
     2
  9
$LUPREC
 70
     4
  9
$SKETCHINC
 40
1.0
  9
$FILLETRAD
 40
10.0
  9
$AUNITS
 70
     0
  9
$AUPREC
 70
     0
  9
$MENU
  1
.
  9
$ELEVATION
 40
0.0
  9
$PELEVATION
 40
0.0
  9
$THICKNESS
 40
0.0
  9
$LIMCHECK
 70
     0
  9
$CHAMFERA
 40
0.0
  9
$CHAMFERB
 40
0.0
  9
$CHAMFERC
 40
0.0
  9
$CHAMFERD
 40
0.0
  9
$SKPOLY
 70
     0
  9
$TDCREATE
 40
2459229.338023125
  9
$TDUPDATE
 40
2459229.338023576
  9
$TDINDWG
 40
0.0000000116
  9
$TDUSRTIMER
 40
0.0000000116
  9
$USRTIMER
 70
     1
  9
$ANGBASE
 50
0.0
  9
$ANGDIR
 70
     0
  9
$PDMODE
 70
     0
  9
$PDSIZE
 40
0.0
  9
$PLINEWID
 40
0.0
  9
$COORDS
 70
     1
  9
$SPLFRAME
 70
     0
  9
$SPLINETYPE
 70
     6
  9
$SPLINESEGS
 70
     8
  9
$ATTDIA
 70
     0
  9
$ATTREQ
 70
     1
  9
$HANDLING
 70
     1
  9
$HANDSEED
  5
435
  9
$SURFTAB1
 70
     6
  9
$SURFTAB2
 70
     6
  9
$SURFTYPE
 70
     6
  9
$SURFU
 70
     6
  9
$SURFV
 70
     6
  9
$UCSNAME
  2

  9
$UCSORG
 10
0.0
 20
0.0
 30
0.0
  9
$UCSXDIR
 10
1.0
 20
0.0
 30
0.0
  9
$UCSYDIR
 10
0.0
 20
1.0
 30
0.0
  9
$PUCSNAME
  2

  9
$PUCSORG
 10
0.0
 20
0.0
 30
0.0
  9
$PUCSXDIR
 10
1.0
 20
0.0
 30
0.0
  9
$PUCSYDIR
 10
0.0
 20
1.0
 30
0.0
  9
$USERI1
 70
     0
  9
$USERI2
 70
     0
  9
$USERI3
 70
     0
  9
$USERI4
 70
     0
  9
$USERI5
 70
     0
  9
$USERR1
 40
0.0
  9
$USERR2
 40
0.0
  9
$USERR3
 40
0.0
  9
$USERR4
 40
0.0
  9
$USERR5
 40
0.0
  9
$WORLDVIEW
 70
     1
  9
$SHADEDGE
 70
     3
  9
$SHADEDIF
 70
    70
  9
$TILEMODE
 70
     1
  9
$MAXACTVP
 70
    64
  9
$PINSBASE
 10
0.0
 20
0.0
 30
0.0
  9
$PLIMCHECK
 70
     0
  9
$PEXTMIN
 10
1.000000000000000E+20
 20
1.000000000000000E+20
 30
1.000000000000000E+20
  9
$PEXTMAX
 10
-1.000000000000000E+20
 20
-1.000000000000000E+20
 30
-1.000000000000000E+20
  9
$PLIMMIN
 10
0.0
 20
0.0
  9
$PLIMMAX
 10
420.0
 20
297.0
  9
$UNITMODE
 70
     0
  9
$VISRETAIN
 70
     1
  9
$PLINEGEN
 70
     0
  9
$PSLTSCALE
 70
     1
  9
$TREEDEPTH
 70
  3020
  9
$PICKSTYLE
 70
     1
  9
$CMLSTYLE
  2
STANDARD
  9
$CMLJUST
 70
     0
  9
$CMLSCALE
 40
20.0
  9
$PROXYGRAPHICS
 70
     1
  9
$MEASUREMENT
 70
     1
  0
ENDSEC
  0
SECTION
  2
CLASSES
  0
CLASS
  1
ACDBDICTIONARYWDFLT
  2
AcDbDictionaryWithDefault
  3
ObjectDBX Classes
 90
        0
280
     0
281
     0
  0
CLASS
  1
VISUALSTYLE
  2
AcDbVisualStyle
  3
ObjectDBX Classes
 90
     4095
280
     0
281
     0
  0
CLASS
  1
MATERIAL
  2
AcDbMaterial
  3
ObjectDBX Classes
 90
     1153
280
     0
281
     0
  0
CLASS
  1
SCALE
  2
AcDbScale
  3
ObjectDBX Classes
 90
     1153
280
     0
281
     0
  0
CLASS
  1
TABLESTYLE
  2
AcDbTableStyle
  3
ObjectDBX Classes
 90
     4095
280
     0
281
     0
  0
CLASS
  1
MLEADERSTYLE
  2
AcDbMLeaderStyle
  3
ACDB_MLEADERSTYLE_CLASS
 90
     4095
280
     0
281
     0
  0
CLASS
  1
SUN
  2
AcDbSun
  3
SCENEOE
 90
     1153
280
     0
281
     0
  0
CLASS
  1
DICTIONARYVAR
  2
AcDbDictionaryVar
  3
ObjectDBX Classes
 90
        0
280
     0
281
     0
  0
CLASS
  1
XRECORD
  2
AcDbXrecord
  3
ObjectDBX Classes
 90
        0
280
     0
281
     0
  0
CLASS
  1
LWPOLYLINE
  2
AcDbPolyline
  3
ObjectDBX Classes
 90
        0
280
     0
281
     1
  0
CLASS
  1
HATCH
  2
AcDbHatch
  3
ObjectDBX Classes
 90
        0
280
     0
281
     1
  0
CLASS
  1
ACDBPLACEHOLDER
  2
AcDbPlaceHolder
  3
ObjectDBX Classes
 90
        0
280
     0
281
     0
  0
CLASS
  1
LAYOUT
  2
AcDbLayout
  3
ObjectDBX Classes
 90
        0
280
     0
281
     0
  0
ENDSEC
  0
SECTION
  2
TABLES
  0
TABLE
  2
VPORT
  5
8
102
{ACAD_XDICTIONARY
360
42A
102
}
330
0
100
AcDbSymbolTable
 70
     1
  0
VPORT
  5
29
330
8
100
AcDbSymbolTableRecord
100
AcDbViewportTableRecord
  2
*ACTIVE
 70
     0
 10
0.0
 20
0.0
 11
1.0
 21
1.0
 12
585.0000000000001
 22
435.0
 13
0.0
 23
0.0
 14
10.0
 24
10.0
 15
10.0
 25
10.0
 16
0.0
 26
0.0
 36
1.0
 17
0.0
 27
0.0
 37
0.0
 40
810.0
 41
1.407407407407408
 42
50.0
 43
0.0
 44
0.0
 50
0.0
 51
0.0
 71
     0
 72
  1000
 73
     1
 74
     3
 75
     0
 76
     0
 77
     0
 78
     0
  0
ENDTAB
  0
TABLE
  2
LTYPE
  5
5
330
0
100
AcDbSymbolTable
 70
     6
  0
LTYPE
  5
14
330
5
100
AcDbSymbolTableRecord
100
AcDbLinetypeTableRecord
  2
BYBLOCK
 70
     0
  3

 72
    65
 73
     0
 40
0.0
  0
LTYPE
  5
15
330
5
100
AcDbSymbolTableRecord
100
AcDbLinetypeTableRecord
  2
BYLAYER
 70
     0
  3

 72
    65
 73
     0
 40
0.0
  0
LTYPE
  5
16
330
5
100
AcDbSymbolTableRecord
100
AcDbLinetypeTableRecord
  2
CONTINUOUS
 70
     0
  3
Solid line
 72
    65
 73
     0
 40
0.0
  0
LTYPE
  5
6E
330
5
100
AcDbSymbolTableRecord
100
AcDbLinetypeTableRecord
  2
HIDDEN
 70
     0
  3
Hidden __ __ __ __ __ __ __ __ __ __ __ __ __ __
 72
    65
 73
     2
 40
9.524999999999999
 49
6.35
 74
     0
 49
-3.175
 74
     0
  0
LTYPE
  5
6F
330
5
100
AcDbSymbolTableRecord
100
AcDbLinetypeTableRecord
  2
CENTER
 70
     0
  3
Center ____ _ ____ _ ____ _ ____ _ ____ _ ____
 72
    65
 73
     4
 40
50.8
 49
31.75
 74
     0
 49
-6.35
 74
     0
 49
6.35
 74
     0
 49
-6.35
 74
     0
  0
LTYPE
  5
70
330
5
100
AcDbSymbolTableRecord
100
AcDbLinetypeTableRecord
  2
PHANTOM
 70
     0
  3
Phantom ______  __  __  ______  __  __  ______ 
 72
    65
 73
     6
 40
63.50000000000001
 49
31.75
 74
     0
 49
-6.35
 74
     0
 49
6.35
 74
     0
 49
-6.35
 74
     0
 49
6.35
 74
     0
 49
-6.35
 74
     0
  0
LTYPE
  5
71
330
5
100
AcDbSymbolTableRecord
100
AcDbLinetypeTableRecord
  2
ACAD_ISO06W100
 70
     0
  3
ISO long-dash triple-dot ____ ... ____ ... ____
 72
    65
 73
     8
 40
36.0
 49
24.0
 74
     0
 49
-3.0
 74
     0
 49
0.0
 74
     0
 49
-3.0
 74
     0
 49
0.0
 74
     0
 49
-3.0
 74
     0
 49
0.0
 74
     0
 49
-3.0
 74
     0
  0
LTYPE
  5
72
330
5
100
AcDbSymbolTableRecord
100
AcDbLinetypeTableRecord
  2
ACAD_ISO15W100
 70
     0
  3
ISO double-dash triple-dot __ __ . . . __ __ . .
 72
    65
 73
    10
 40
39.0
 49
12.0
 74
     0
 49
-3.0
 74
     0
 49
12.0
 74
     0
 49
-3.0
 74
     0
 49
0.0
 74
     0
 49
-3.0
 74
     0
 49
0.0
 74
     0
 49
-3.0
 74
     0
 49
0.0
 74
     0
 49
-3.0
 74
     0
  0
ENDTAB
  0
TABLE
  2
LAYER
  5
2
330
0
100
AcDbSymbolTable
 70
     5
  0
LAYER
  5
10
330
2
100
AcDbSymbolTableRecord
100
AcDbLayerTableRecord
  2
0
 70
     0
 62
     7
  6
CONTINUOUS
  0
LAYER
  5
75
330
2
100
AcDbSymbolTableRecord
100
AcDbLayerTableRecord
  2
LAY-10
 70
     0
 62
     7
  6
CONTINUOUS
  0
LAYER
  5
76
330
2
100
AcDbSymbolTableRecord
100
AcDbLayerTableRecord
  2
LAY-20
 70
     0
 62
     7
  6
CONTINUOUS
  0
LAYER
  5
77
330
2
100
AcDbSymbolTableRecord
100
AcDbLayerTableRecord
  2
LAY-255
 70
     0
 62
     7
  6
CONTINUOUS
  0
LAYER
  5
361
330
2
100
AcDbSymbolTableRecord
100
AcDbLayerTableRecord
  2
DEFPOINTS
 70
     0
 62
     7
  6
CONTINUOUS
  0
ENDTAB
  0
TABLE
  2
STYLE
  5
3
330
0
100
AcDbSymbolTable
 70
     4
  0
STYLE
  5
11
330
3
100
AcDbSymbolTableRecord
100
AcDbTextStyleTableRecord
  2
STANDARD
 70
     0
 40
0.0
 41
1.0
 50
0.0
 71
     0
 42
2.5
  3
simplex
  4
bigfont
  0
STYLE
  5
73
330
3
100
AcDbSymbolTableRecord
100
AcDbTextStyleTableRecord
  2
EXCADSTD
 70
     0
 40
0.0
 41
1.0
 50
0.0
 71
     0
 42
2.5
  3
simplex
  4
bigfont
  0
STYLE
  5
74
330
3
100
AcDbSymbolTableRecord
100
AcDbTextStyleTableRecord
  2
EXCADVERT
 70
     4
 40
0.0
 41
1.0
 50
0.0
 71
     0
 42
2.5
  3
simplex
  4
bigfont
  0
STYLE
  5
35F
330
3
100
AcDbSymbolTableRecord
100
AcDbTextStyleTableRecord
  2
EXCADDIM1
 70
     0
 40
0.0
 41
0.84
 50
0.0
 71
     0
 42
2.5
  3
simplex
  4
bigfont
  0
ENDTAB
  0
TABLE
  2
VIEW
  5
6
330
0
100
AcDbSymbolTable
 70
     0
  0
ENDTAB
  0
TABLE
  2
UCS
  5
7
330
0
100
AcDbSymbolTable
 70
     0
  0
ENDTAB
  0
TABLE
  2
APPID
  5
9
330
0
100
AcDbSymbolTable
 70
     2
  0
APPID
  5
12
330
9
100
AcDbSymbolTableRecord
100
AcDbRegAppTableRecord
  2
ACAD
 70
     0
  0
APPID
  5
434
330
9
100
AcDbSymbolTableRecord
100
AcDbRegAppTableRecord
  2
ACAD_MLEADERVER
 70
     0
  0
ENDTAB
  0
TABLE
  2
DIMSTYLE
  5
A
330
0
100
AcDbSymbolTable
 70
     1
  0
DIMSTYLE
105
27
102
{ACAD_REACTORS
330
360
330
36E
330
37B
330
387
330
394
330
3A1
330
3AE
330
3BB
330
3C8
102
}
330
A
100
AcDbSymbolTableRecord
100
AcDbDimStyleTableRecord
  2
ISO-25
 70
     0
  3

  4

  5

  6

  7

 40
1.0
 41
2.5
 42
0.625
 43
3.75
 44
1.25
 45
0.0
 46
0.0
 47
0.0
 48
0.0
140
2.5
141
2.5
142
0.0
143
0.03937007874016
144
1.0
145
0.0
146
1.0
147
0.625
 71
     0
 72
     0
 73
     0
 74
     0
 75
     0
 76
     0
 77
     1
 78
     8
170
     0
171
     3
172
     1
173
     0
174
     0
175
     0
176
     0
177
     0
178
     0
270
     2
271
     2
272
     2
273
     2
274
     3
340
11
275
     0
280
     0
281
     0
282
     0
283
     0
284
     8
285
     0
286
     0
287
     5
288
     0
  0
ENDTAB
  0
TABLE
  2
BLOCK_RECORD
  5
1
330
0
100
AcDbSymbolTable
 70
    23
  0
BLOCK_RECORD
  5
1F
330
1
100
AcDbSymbolTableRecord
100
AcDbBlockTableRecord
  2
*MODEL_SPACE
  0
BLOCK_RECORD
  5
1B
330
1
100
AcDbSymbolTableRecord
100
AcDbBlockTableRecord
  2
*PAPER_SPACE
  0
BLOCK_RECORD
  5
78
330
1
100
AcDbSymbolTableRecord
100
AcDbBlockTableRecord
  2
EX_NORM
  0
BLOCK_RECORD
  5
7B
330
1
100
AcDbSymbolTableRecord
100
AcDbBlockTableRecord
  2
EX_BNORM
  0
BLOCK_RECORD
  5
7E
330
1
100
AcDbSymbolTableRecord
100
AcDbBlockTableRecord
  2
EX_BCIR
  0
BLOCK_RECORD
  5
81
330
1
100
AcDbSymbolTableRecord
100
AcDbBlockTableRecord
  2
EX_RCIVIL
  0
BLOCK_RECORD
  5
84
330
1
100
AcDbSymbolTableRecord
100
AcDbBlockTableRecord
  2
EX_SLANT
  0
BLOCK_RECORD
  5
87
330
1
100
AcDbSymbolTableRecord
100
AcDbBlockTableRecord
  2
EX_NONE
  0
BLOCK_RECORD
  5
8A
330
1
100
AcDbSymbolTableRecord
100
AcDbBlockTableRecord
  2
EX_CIVIL
  0
BLOCK_RECORD
  5
8D
330
1
100
AcDbSymbolTableRecord
100
AcDbBlockTableRecord
  2
EX_WCIR
  0
BLOCK_RECORD
  5
90
330
1
100
AcDbSymbolTableRecord
100
AcDbBlockTableRecord
  2
EX_WCIR2
  0
BLOCK_RECORD
  5
93
330
1
100
AcDbSymbolTableRecord
100
AcDbBlockTableRecord
  2
EX_WNORM
  0
BLOCK_RECORD
  5
96
330
1
100
AcDbSymbolTableRecord
100
AcDbBlockTableRecord
  2
EX_NNORM
  0
BLOCK_RECORD
  5
99
330
1
100
AcDbSymbolTableRecord
100
AcDbBlockTableRecord
  2
EX_BBOX
  0
BLOCK_RECORD
  5
9C
330
1
100
AcDbSymbolTableRecord
100
AcDbBlockTableRecord
  2
EX_WBOX
  0
BLOCK_RECORD
  5
9F
330
1
100
AcDbSymbolTableRecord
100
AcDbBlockTableRecord
  2
EX_INTEGRAL
  0
BLOCK_RECORD
  5
362
330
1
100
AcDbSymbolTableRecord
100
AcDbBlockTableRecord
  2
*D15
  0
BLOCK_RECORD
  5
36F
330
1
100
AcDbSymbolTableRecord
100
AcDbBlockTableRecord
  2
*D16
  0
BLOCK_RECORD
  5
37C
330
1
100
AcDbSymbolTableRecord
100
AcDbBlockTableRecord
  2
*D17
  0
BLOCK_RECORD
  5
388
330
1
100
AcDbSymbolTableRecord
100
AcDbBlockTableRecord
  2
*D18
  0
BLOCK_RECORD
  5
395
330
1
100
AcDbSymbolTableRecord
100
AcDbBlockTableRecord
  2
*D19
  0
BLOCK_RECORD
  5
3A2
330
1
100
AcDbSymbolTableRecord
100
AcDbBlockTableRecord
  2
*D20
  0
BLOCK_RECORD
  5
3AF
330
1
100
AcDbSymbolTableRecord
100
AcDbBlockTableRecord
  2
*D21
  0
BLOCK_RECORD
  5
3BC
330
1
100
AcDbSymbolTableRecord
100
AcDbBlockTableRecord
  2
*D22
  0
BLOCK_RECORD
  5
3C9
330
1
100
AcDbSymbolTableRecord
100
AcDbBlockTableRecord
  2
*D23
  0
ENDTAB
  0
ENDSEC
  0
SECTION
  2
BLOCKS
  0
BLOCK
  5
20
330
1F
100
AcDbEntity
  8
0
100
AcDbBlockBegin
  2
*MODEL_SPACE
 70
     0
 10
0.0
 20
0.0
 30
0.0
  3
*MODEL_SPACE
  1

  0
ENDBLK
  5
21
330
1F
100
AcDbEntity
  8
0
100
AcDbBlockEnd
  0
BLOCK
  5
1C
330
1B
100
AcDbEntity
 67
     1
  8
0
100
AcDbBlockBegin
  2
*PAPER_SPACE
 70
     0
 10
0.0
 20
0.0
 30
0.0
  3
*PAPER_SPACE
  1

  0
ENDBLK
  5
1D
330
1B
100
AcDbEntity
 67
     1
  8
0
100
AcDbBlockEnd
  0
BLOCK
  5
79
330
78
100
AcDbEntity
  8
0
100
AcDbBlockBegin
  2
EX_NORM
 70
     0
 10
0.0
 20
0.0
 30
0.0
  3
EX_NORM
  1

  0
LINE
  5
A2
330
78
100
AcDbEntity
  8
0
  6
CONTINUOUS
 62
     0
100
AcDbLine
 10
0.0
 20
0.0
 30
0.0
 11
-1.0
 21
0.0
 31
0.0
  0
LINE
  5
A3
330
78
100
AcDbEntity
  8
0
  6
CONTINUOUS
 62
     0
100
AcDbLine
 10
0.0
 20
0.0
 30
0.0
 11
-1.0
 21
0.166666667
 31
0.0
  0
LINE
  5
A4
330
78
100
AcDbEntity
  8
0
  6
CONTINUOUS
 62
     0
100
AcDbLine
 10
0.0
 20
0.0
 30
0.0
 11
-1.0
 21
-0.166666667
 31
0.0
  0
ENDBLK
  5
7A
330
78
100
AcDbEntity
  8
0
100
AcDbBlockEnd
  0
BLOCK
  5
7C
330
7B
100
AcDbEntity
  8
0
100
AcDbBlockBegin
  2
EX_BNORM
 70
     0
 10
0.0
 20
0.0
 30
0.0
  3
EX_BNORM
  1

  0
LINE
  5
A5
330
7B
100
AcDbEntity
  8
0
  6
CONTINUOUS
 62
     0
100
AcDbLine
 10
0.0
 20
0.0
 30
0.0
 11
-1.0
 21
0.0
 31
0.0
  0
LINE
  5
A6
330
7B
100
AcDbEntity
  8
0
  6
CONTINUOUS
 62
     0
100
AcDbLine
 10
0.0
 20
0.0
 30
0.0
 11
-1.0
 21
0.166666667
 31
0.0
  0
LINE
  5
A7
330
7B
100
AcDbEntity
  8
0
  6
CONTINUOUS
 62
     0
100
AcDbLine
 10
0.0
 20
0.0
 30
0.0
 11
-1.0
 21
-0.166666667
 31
0.0
  0
LINE
  5
A8
330
7B
100
AcDbEntity
  8
0
  6
CONTINUOUS
 62
     0
100
AcDbLine
 10
0.0
 20
0.0
 30
0.0
 11
-1.0
 21
0.083333333
 31
0.0
  0
LINE
  5
A9
330
7B
100
AcDbEntity
  8
0
  6
CONTINUOUS
 62
     0
100
AcDbLine
 10
0.0
 20
0.0
 30
0.0
 11
-1.0
 21
-0.083333333
 31
0.0
  0
LINE
  5
AA
330
7B
100
AcDbEntity
  8
0
  6
CONTINUOUS
 62
     0
100
AcDbLine
 10
-1.0
 20
0.166666667
 30
0.0
 11
-1.0
 21
-0.166666667
 31
0.0
  0
ENDBLK
  5
7D
330
7B
100
AcDbEntity
  8
0
100
AcDbBlockEnd
  0
BLOCK
  5
7F
330
7E
100
AcDbEntity
  8
0
100
AcDbBlockBegin
  2
EX_BCIR
 70
     0
 10
0.0
 20
0.0
 30
0.0
  3
EX_BCIR
  1

  0
LINE
  5
AB
330
7E
100
AcDbEntity
  8
0
  6
CONTINUOUS
 62
     0
100
AcDbLine
 10
0.0
 20
0.0
 30
0.0
 11
-1.0
 21
0.0
 31
0.0
  0
CIRCLE
  5
AC
330
7E
100
AcDbEntity
  8
0
  6
CONTINUOUS
 62
     0
100
AcDbCircle
 10
0.0
 20
0.0
 30
0.0
 40
0.5
  0
CIRCLE
  5
AD
330
7E
100
AcDbEntity
  8
0
  6
CONTINUOUS
 62
     0
100
AcDbCircle
 10
0.0
 20
0.0
 30
0.0
 40
0.25
  0
ENDBLK
  5
80
330
7E
100
AcDbEntity
  8
0
100
AcDbBlockEnd
  0
BLOCK
  5
82
330
81
100
AcDbEntity
  8
0
100
AcDbBlockBegin
  2
EX_RCIVIL
 70
     0
 10
0.0
 20
0.0
 30
0.0
  3
EX_RCIVIL
  1

  0
LINE
  5
AE
330
81
100
AcDbEntity
  8
0
  6
CONTINUOUS
 62
     0
100
AcDbLine
 10
0.0
 20
0.0
 30
0.0
 11
-1.0
 21
0.0
 31
0.0
  0
LINE
  5
AF
330
81
100
AcDbEntity
  8
0
  6
CONTINUOUS
 62
     0
100
AcDbLine
 10
-1.0
 20
-0.25
 30
0.0
 11
0.0
 21
-0.25
 31
0.0
  0
LINE
  5
B0
330
81
100
AcDbEntity
  8
0
  6
CONTINUOUS
 62
     0
100
AcDbLine
 10
-1.0
 20
-0.125
 30
0.0
 11
0.0
 21
-0.125
 31
0.0
  0
ENDBLK
  5
83
330
81
100
AcDbEntity
  8
0
100
AcDbBlockEnd
  0
BLOCK
  5
85
330
84
100
AcDbEntity
  8
0
100
AcDbBlockBegin
  2
EX_SLANT
 70
     0
 10
0.0
 20
0.0
 30
0.0
  3
EX_SLANT
  1

  0
LINE
  5
B1
330
84
100
AcDbEntity
  8
0
  6
CONTINUOUS
 62
     0
100
AcDbLine
 10
0.0
 20
0.0
 30
0.0
 11
-1.0
 21
0.0
 31
0.0
  0
LINE
  5
B2
330
84
100
AcDbEntity
  8
0
  6
CONTINUOUS
 62
     0
100
AcDbLine
 10
0.707106781
 20
0.707106781
 30
0.0
 11
-0.707106781
 21
-0.707106781
 31
0.0
  0
ENDBLK
  5
86
330
84
100
AcDbEntity
  8
0
100
AcDbBlockEnd
  0
BLOCK
  5
88
330
87
100
AcDbEntity
  8
0
100
AcDbBlockBegin
  2
EX_NONE
 70
     0
 10
0.0
 20
0.0
 30
0.0
  3
EX_NONE
  1

  0
LINE
  5
B3
330
87
100
AcDbEntity
  8
0
  6
CONTINUOUS
 62
     0
100
AcDbLine
 10
0.0
 20
0.0
 30
0.0
 11
-1.0
 21
0.0
 31
0.0
  0
ENDBLK
  5
89
330
87
100
AcDbEntity
  8
0
100
AcDbBlockEnd
  0
BLOCK
  5
8B
330
8A
100
AcDbEntity
  8
0
100
AcDbBlockBegin
  2
EX_CIVIL
 70
     0
 10
0.0
 20
0.0
 30
0.0
  3
EX_CIVIL
  1

  0
LINE
  5
B4
330
8A
100
AcDbEntity
  8
0
  6
CONTINUOUS
 62
     0
100
AcDbLine
 10
0.0
 20
0.0
 30
0.0
 11
-1.0
 21
0.0
 31
0.0
  0
LINE
  5
B5
330
8A
100
AcDbEntity
  8
0
  6
CONTINUOUS
 62
     0
100
AcDbLine
 10
-1.0
 20
0.25
 30
0.0
 11
0.0
 21
0.25
 31
0.0
  0
LINE
  5
B6
330
8A
100
AcDbEntity
  8
0
  6
CONTINUOUS
 62
     0
100
AcDbLine
 10
-1.0
 20
0.125
 30
0.0
 11
0.0
 21
0.125
 31
0.0
  0
ENDBLK
  5
8C
330
8A
100
AcDbEntity
  8
0
100
AcDbBlockEnd
  0
BLOCK
  5
8E
330
8D
100
AcDbEntity
  8
0
100
AcDbBlockBegin
  2
EX_WCIR
 70
     0
 10
0.0
 20
0.0
 30
0.0
  3
EX_WCIR
  1

  0
LINE
  5
B7
330
8D
100
AcDbEntity
  8
0
  6
CONTINUOUS
 62
     0
100
AcDbLine
 10
0.0
 20
0.0
 30
0.0
 11
-1.0
 21
0.0
 31
0.0
  0
CIRCLE
  5
B8
330
8D
100
AcDbEntity
  8
0
  6
CONTINUOUS
 62
     0
100
AcDbCircle
 10
0.0
 20
0.0
 30
0.0
 40
0.5
  0
ENDBLK
  5
8F
330
8D
100
AcDbEntity
  8
0
100
AcDbBlockEnd
  0
BLOCK
  5
91
330
90
100
AcDbEntity
  8
0
100
AcDbBlockBegin
  2
EX_WCIR2
 70
     0
 10
0.0
 20
0.0
 30
0.0
  3
EX_WCIR2
  1

  0
LINE
  5
B9
330
90
100
AcDbEntity
  8
0
  6
CONTINUOUS
 62
     0
100
AcDbLine
 10
-0.5
 20
0.0
 30
0.0
 11
-1.0
 21
0.0
 31
0.0
  0
CIRCLE
  5
BA
330
90
100
AcDbEntity
  8
0
  6
CONTINUOUS
 62
     0
100
AcDbCircle
 10
0.0
 20
0.0
 30
0.0
 40
0.5
  0
ENDBLK
  5
92
330
90
100
AcDbEntity
  8
0
100
AcDbBlockEnd
  0
BLOCK
  5
94
330
93
100
AcDbEntity
  8
0
100
AcDbBlockBegin
  2
EX_WNORM
 70
     0
 10
0.0
 20
0.0
 30
0.0
  3
EX_WNORM
  1

  0
LINE
  5
BB
330
93
100
AcDbEntity
  8
0
  6
CONTINUOUS
 62
     0
100
AcDbLine
 10
-1.0
 20
0.0
 30
0.0
 11
-1.0
 21
0.0
 31
0.0
  0
LINE
  5
BC
330
93
100
AcDbEntity
  8
0
  6
CONTINUOUS
 62
     0
100
AcDbLine
 10
0.0
 20
0.0
 30
0.0
 11
-1.0
 21
0.166666667
 31
0.0
  0
LINE
  5
BD
330
93
100
AcDbEntity
  8
0
  6
CONTINUOUS
 62
     0
100
AcDbLine
 10
0.0
 20
0.0
 30
0.0
 11
-1.0
 21
-0.166666667
 31
0.0
  0
LINE
  5
BE
330
93
100
AcDbEntity
  8
0
  6
CONTINUOUS
 62
     0
100
AcDbLine
 10
-1.0
 20
0.166666667
 30
0.0
 11
-1.0
 21
-0.166666667
 31
0.0
  0
ENDBLK
  5
95
330
93
100
AcDbEntity
  8
0
100
AcDbBlockEnd
  0
BLOCK
  5
97
330
96
100
AcDbEntity
  8
0
100
AcDbBlockBegin
  2
EX_NNORM
 70
     0
 10
0.0
 20
0.0
 30
0.0
  3
EX_NNORM
  1

  0
LINE
  5
BF
330
96
100
AcDbEntity
  8
0
  6
CONTINUOUS
 62
     0
100
AcDbLine
 10
0.0
 20
0.0
 30
0.0
 11
-1.0
 21
0.0
 31
0.0
  0
LINE
  5
C0
330
96
100
AcDbEntity
  8
0
  6
CONTINUOUS
 62
     0
100
AcDbLine
 10
0.0
 20
0.0
 30
0.0
 11
-1.0
 21
0.166666667
 31
0.0
  0
LINE
  5
C1
330
96
100
AcDbEntity
  8
0
  6
CONTINUOUS
 62
     0
100
AcDbLine
 10
0.0
 20
0.0
 30
0.0
 11
-1.0
 21
-0.166666667
 31
0.0
  0
LINE
  5
C2
330
96
100
AcDbEntity
  8
0
  6
CONTINUOUS
 62
     0
100
AcDbLine
 10
-1.0
 20
0.166666667
 30
0.0
 11
-1.0
 21
-0.166666667
 31
0.0
  0
ENDBLK
  5
98
330
96
100
AcDbEntity
  8
0
100
AcDbBlockEnd
  0
BLOCK
  5
9A
330
99
100
AcDbEntity
  8
0
100
AcDbBlockBegin
  2
EX_BBOX
 70
     0
 10
0.0
 20
0.0
 30
0.0
  3
EX_BBOX
  1

  0
LINE
  5
C3
330
99
100
AcDbEntity
  8
0
  6
CONTINUOUS
 62
     0
100
AcDbLine
 10
0.0
 20
0.0
 30
0.0
 11
-1.0
 21
0.0
 31
0.0
  0
LINE
  5
C4
330
99
100
AcDbEntity
  8
0
  6
CONTINUOUS
 62
     0
100
AcDbLine
 10
-0.5
 20
0.5
 30
0.0
 11
0.5
 21
0.5
 31
0.0
  0
LINE
  5
C5
330
99
100
AcDbEntity
  8
0
  6
CONTINUOUS
 62
     0
100
AcDbLine
 10
0.5
 20
0.5
 30
0.0
 11
0.5
 21
-0.5
 31
0.0
  0
LINE
  5
C6
330
99
100
AcDbEntity
  8
0
  6
CONTINUOUS
 62
     0
100
AcDbLine
 10
0.5
 20
-0.5
 30
0.0
 11
-0.5
 21
-0.5
 31
0.0
  0
LINE
  5
C7
330
99
100
AcDbEntity
  8
0
  6
CONTINUOUS
 62
     0
100
AcDbLine
 10
-0.5
 20
-0.5
 30
0.0
 11
-0.5
 21
0.5
 31
0.0
  0
LINE
  5
C8
330
99
100
AcDbEntity
  8
0
  6
CONTINUOUS
 62
     0
100
AcDbLine
 10
-0.25
 20
0.25
 30
0.0
 11
0.25
 21
0.25
 31
0.0
  0
LINE
  5
C9
330
99
100
AcDbEntity
  8
0
  6
CONTINUOUS
 62
     0
100
AcDbLine
 10
0.25
 20
0.25
 30
0.0
 11
0.25
 21
-0.25
 31
0.0
  0
LINE
  5
CA
330
99
100
AcDbEntity
  8
0
  6
CONTINUOUS
 62
     0
100
AcDbLine
 10
0.25
 20
-0.25
 30
0.0
 11
-0.25
 21
-0.25
 31
0.0
  0
LINE
  5
CB
330
99
100
AcDbEntity
  8
0
  6
CONTINUOUS
 62
     0
100
AcDbLine
 10
-0.25
 20
-0.25
 30
0.0
 11
-0.25
 21
0.25
 31
0.0
  0
ENDBLK
  5
9B
330
99
100
AcDbEntity
  8
0
100
AcDbBlockEnd
  0
BLOCK
  5
9D
330
9C
100
AcDbEntity
  8
0
100
AcDbBlockBegin
  2
EX_WBOX
 70
     0
 10
0.0
 20
0.0
 30
0.0
  3
EX_WBOX
  1

  0
LINE
  5
CC
330
9C
100
AcDbEntity
  8
0
  6
CONTINUOUS
 62
     0
100
AcDbLine
 10
-0.5
 20
0.0
 30
0.0
 11
-1.0
 21
0.0
 31
0.0
  0
LINE
  5
CD
330
9C
100
AcDbEntity
  8
0
  6
CONTINUOUS
 62
     0
100
AcDbLine
 10
-0.5
 20
0.5
 30
0.0
 11
0.5
 21
0.5
 31
0.0
  0
LINE
  5
CE
330
9C
100
AcDbEntity
  8
0
  6
CONTINUOUS
 62
     0
100
AcDbLine
 10
0.5
 20
0.5
 30
0.0
 11
0.5
 21
-0.5
 31
0.0
  0
LINE
  5
CF
330
9C
100
AcDbEntity
  8
0
  6
CONTINUOUS
 62
     0
100
AcDbLine
 10
0.5
 20
-0.5
 30
0.0
 11
-0.5
 21
-0.5
 31
0.0
  0
LINE
  5
D0
330
9C
100
AcDbEntity
  8
0
  6
CONTINUOUS
 62
     0
100
AcDbLine
 10
-0.5
 20
-0.5
 30
0.0
 11
-0.5
 21
0.5
 31
0.0
  0
ENDBLK
  5
9E
330
9C
100
AcDbEntity
  8
0
100
AcDbBlockEnd
  0
BLOCK
  5
A0
330
9F
100
AcDbEntity
  8
0
100
AcDbBlockBegin
  2
EX_INTEGRAL
 70
     0
 10
0.0
 20
0.0
 30
0.0
  3
EX_INTEGRAL
  1

  0
LINE
  5
D1
330
9F
100
AcDbEntity
  8
0
  6
CONTINUOUS
 62
     0
100
AcDbLine
 10
0.0
 20
0.0
 30
0.0
 11
-1.0
 21
0.0
 31
0.0
  0
ARC
  5
D2
330
9F
100
AcDbEntity
  8
0
  6
CONTINUOUS
 62
     0
100
AcDbCircle
 10
0.542115
 20
0.164992
 30
0.0
 40
0.56667
100
AcDbArc
 50
73.07249033629006
 51
196.9275130221199
  0
ARC
  5
D3
330
9F
100
AcDbEntity
  8
0
  6
CONTINUOUS
 62
     0
100
AcDbCircle
 10
-0.542115
 20
-0.164992
 30
0.0
 40
0.56667
100
AcDbArc
 50
253.0724869220464
 51
16.9275130559125
  0
ENDBLK
  5
A1
330
9F
100
AcDbEntity
  8
0
100
AcDbBlockEnd
  0
BLOCK
  5
363
330
362
100
AcDbEntity
  8
0
100
AcDbBlockBegin
  2
*D15
 70
     1
 10
0.0
 20
0.0
 30
0.0
  3
*D15
  1

  0
LINE
  5
365
330
362
100
AcDbEntity
  8
LAY-20
  6
CONTINUOUS
 62
     4
100
AcDbLine
 10
403.5
 20
294.32708503629
 30
0.0
 11
342.0000000000101
 21
294.32708503629
 31
0.0
  0
LINE
  5
366
330
362
100
AcDbEntity
  8
LAY-20
  6
CONTINUOUS
 62
     4
100
AcDbLine
 10
373.0
 20
318.0
 30
0.0
 11
342.0000000000101
 21
318.0
 31
0.0
  0
LINE
  5
367
330
362
100
AcDbEntity
  8
LAY-20
  6
CONTINUOUS
 62
     4
100
AcDbLine
 10
346.5000000000101
 20
301.82708503629
 30
0.0
 11
346.5000000000101
 21
310.5
 31
0.0
  0
INSERT
  5
368
330
362
100
AcDbEntity
  8
LAY-20
 62
     4
100
AcDbBlockReference
  2
EX_BNORM
 10
346.5000000000101
 20
294.32708503629
 30
0.0
 41
7.5
 42
7.5
 43
7.5
 50
270.0
  0
INSERT
  5
369
330
362
100
AcDbEntity
  8
LAY-20
 62
     4
100
AcDbBlockReference
  2
EX_BNORM
 10
346.5000000000101
 20
318.0
 30
0.0
 41
7.5
 42
7.5
 43
7.5
 50
90.0
  0
MTEXT
  5
36A
330
362
100
AcDbEntity
  8
LAY-20
 62
     7
100
AcDbMText
 10
339.0000000000101
 20
306.1635425181451
 30
0.0
 40
9.3543312
 41
0.0
 71
     5
 72
     1
  1
24
  7
EXCADDIM1
 11
0.0
 21
1.0
 31
0.0
  0
POINT
  5
36B
330
362
100
AcDbEntity
  8
DEFPOINTS
 62
     0
100
AcDbPoint
 10
408.0
 20
294.32708503629
 30
0.0
  0
POINT
  5
36C
330
362
100
AcDbEntity
  8
DEFPOINTS
 62
     0
100
AcDbPoint
 10
377.5
 20
318.0
 30
0.0
  0
POINT
  5
36D
330
362
100
AcDbEntity
  8
DEFPOINTS
 62
     0
100
AcDbPoint
 10
346.5000000000101
 20
318.0
 30
0.0
  0
ENDBLK
  5
364
330
362
100
AcDbEntity
  8
0
100
AcDbBlockEnd
  0
BLOCK
  5
370
330
36F
100
AcDbEntity
  8
0
100
AcDbBlockBegin
  2
*D16
 70
     1
 10
0.0
 20
0.0
 30
0.0
  3
*D16
  1

  0
LINE
  5
372
330
36F
100
AcDbEntity
  8
LAY-20
  6
CONTINUOUS
 62
     4
100
AcDbLine
 10
526.5
 20
238.0
 30
0.0
 11
588.0
 21
238.0
 31
0.0
  0
LINE
  5
373
330
36F
100
AcDbEntity
  8
LAY-20
  6
CONTINUOUS
 62
     4
100
AcDbLine
 10
557.0
 20
318.0
 30
0.0
 11
588.0
 21
318.0
 31
0.0
  0
LINE
  5
374
330
36F
100
AcDbEntity
  8
LAY-20
  6
CONTINUOUS
 62
     4
100
AcDbLine
 10
583.5
 20
245.5
 30
0.0
 11
583.5
 21
310.5
 31
0.0
  0
INSERT
  5
375
330
36F
100
AcDbEntity
  8
LAY-20
 62
     4
100
AcDbBlockReference
  2
EX_BNORM
 10
583.5
 20
238.0
 30
0.0
 41
7.5
 42
7.5
 43
7.5
 50
270.0
  0
INSERT
  5
376
330
36F
100
AcDbEntity
  8
LAY-20
 62
     4
100
AcDbBlockReference
  2
EX_BNORM
 10
583.5
 20
318.0
 30
0.0
 41
7.5
 42
7.5
 43
7.5
 50
90.0
  0
MTEXT
  5
377
330
36F
100
AcDbEntity
  8
LAY-20
 62
     7
100
AcDbMText
 10
576.0
 20
278.0
 30
0.0
 40
9.3543312
 41
0.0
 71
     5
 72
     1
  1
80
  7
EXCADDIM1
 11
0.0
 21
1.0
 31
0.0
  0
POINT
  5
378
330
36F
100
AcDbEntity
  8
DEFPOINTS
 62
     0
100
AcDbPoint
 10
522.0
 20
238.0
 30
0.0
  0
POINT
  5
379
330
36F
100
AcDbEntity
  8
DEFPOINTS
 62
     0
100
AcDbPoint
 10
552.5
 20
318.0
 30
0.0
  0
POINT
  5
37A
330
36F
100
AcDbEntity
  8
DEFPOINTS
 62
     0
100
AcDbPoint
 10
583.5
 20
318.0
 30
0.0
  0
ENDBLK
  5
371
330
36F
100
AcDbEntity
  8
0
100
AcDbBlockEnd
  0
BLOCK
  5
37D
330
37C
100
AcDbEntity
  8
0
100
AcDbBlockBegin
  2
*D17
 70
     1
 10
0.0
 20
0.0
 30
0.0
  3
*D17
  1

  0
LINE
  5
37F
330
37C
100
AcDbEntity
  8
LAY-20
  6
CONTINUOUS
 62
     4
100
AcDbLine
 10
519.49999999999
 20
375.0
 30
0.0
 11
588.0
 21
375.0
 31
0.0
  0
LINE
  5
380
330
37C
100
AcDbEntity
  8
LAY-20
  6
CONTINUOUS
 62
     4
100
AcDbLine
 10
583.5
 20
367.5
 30
0.0
 11
583.5
 21
325.5
 31
0.0
  0
INSERT
  5
381
330
37C
100
AcDbEntity
  8
LAY-20
 62
     4
100
AcDbBlockReference
  2
EX_BNORM
 10
583.5
 20
375.0
 30
0.0
 41
7.5
 42
7.5
 43
7.5
 50
90.0
  0
INSERT
  5
382
330
37C
100
AcDbEntity
  8
LAY-20
 62
     4
100
AcDbBlockReference
  2
EX_BNORM
 10
583.5
 20
318.0
 30
0.0
 41
7.5
 42
7.5
 43
7.5
 50
270.0
  0
MTEXT
  5
383
330
37C
100
AcDbEntity
  8
LAY-20
 62
     7
100
AcDbMText
 10
576.0
 20
346.5
 30
0.0
 40
9.3543312
 41
0.0
 71
     5
 72
     1
  1
57
  7
EXCADDIM1
 11
0.0
 21
1.0
 31
0.0
  0
POINT
  5
384
330
37C
100
AcDbEntity
  8
DEFPOINTS
 62
     0
100
AcDbPoint
 10
514.99999999999
 20
375.0
 30
0.0
  0
POINT
  5
385
330
37C
100
AcDbEntity
  8
DEFPOINTS
 62
     0
100
AcDbPoint
 10
583.5
 20
318.0
 30
0.0
  0
POINT
  5
386
330
37C
100
AcDbEntity
  8
DEFPOINTS
 62
     0
100
AcDbPoint
 10
583.5
 20
318.0
 30
0.0
  0
ENDBLK
  5
37E
330
37C
100
AcDbEntity
  8
0
100
AcDbBlockEnd
  0
BLOCK
  5
389
330
388
100
AcDbEntity
  8
0
100
AcDbBlockBegin
  2
*D18
 70
     1
 10
0.0
 20
0.0
 30
0.0
  3
*D18
  1

  0
LINE
  5
38B
330
388
100
AcDbEntity
  8
LAY-20
  6
CONTINUOUS
 62
     4
100
AcDbLine
 10
429.5
 20
248.45625566824
 30
0.0
 11
429.5
 21
203.5
 31
0.0
  0
LINE
  5
38C
330
388
100
AcDbEntity
  8
LAY-20
  6
CONTINUOUS
 62
     4
100
AcDbLine
 10
500.4999999999999
 20
248.45625566824
 30
0.0
 11
500.4999999999999
 21
203.5
 31
0.0
  0
LINE
  5
38D
330
388
100
AcDbEntity
  8
LAY-20
  6
CONTINUOUS
 62
     4
100
AcDbLine
 10
438.5
 20
208.0
 30
0.0
 11
491.4999999999999
 21
208.0
 31
0.0
  0
INSERT
  5
38E
330
388
100
AcDbEntity
  8
LAY-20
 62
     4
100
AcDbBlockReference
  2
EX_BNORM
 10
429.5
 20
208.0
 30
0.0
 41
9.0
 42
9.0
 43
9.0
 50
180.0
  0
INSERT
  5
38F
330
388
100
AcDbEntity
  8
LAY-20
 62
     4
100
AcDbBlockReference
  2
EX_BNORM
 10
500.4999999999999
 20
208.0
 30
0.0
 41
9.0
 42
9.0
 43
9.0
  0
MTEXT
  5
390
330
388
100
AcDbEntity
  8
LAY-20
 62
     7
100
AcDbMText
 10
465.0
 20
215.5
 30
0.0
 40
9.3543312
 41
0.0
 71
     5
 72
     1
  1
%%c71
  7
EXCADDIM1
  0
POINT
  5
391
330
388
100
AcDbEntity
  8
DEFPOINTS
 62
     0
100
AcDbPoint
 10
429.5
 20
252.95625566824
 30
0.0
  0
POINT
  5
392
330
388
100
AcDbEntity
  8
DEFPOINTS
 62
     0
100
AcDbPoint
 10
500.4999999999999
 20
252.95625566824
 30
0.0
  0
POINT
  5
393
330
388
100
AcDbEntity
  8
DEFPOINTS
 62
     0
100
AcDbPoint
 10
500.4999999999999
 20
208.0
 30
0.0
  0
ENDBLK
  5
38A
330
388
100
AcDbEntity
  8
0
100
AcDbBlockEnd
  0
BLOCK
  5
396
330
395
100
AcDbEntity
  8
0
100
AcDbBlockBegin
  2
*D19
 70
     1
 10
0.0
 20
0.0
 30
0.0
  3
*D19
  1

  0
LINE
  5
398
330
395
100
AcDbEntity
  8
LAY-20
  6
CONTINUOUS
 62
     4
100
AcDbLine
 10
428.0
 20
283.95625566824
 30
0.0
 11
428.0
 21
182.5
 31
0.0
  0
LINE
  5
399
330
395
100
AcDbEntity
  8
LAY-20
  6
CONTINUOUS
 62
     4
100
AcDbLine
 10
501.9999999999999
 20
283.95625566824
 30
0.0
 11
501.9999999999999
 21
182.5
 31
0.0
  0
LINE
  5
39A
330
395
100
AcDbEntity
  8
LAY-20
  6
CONTINUOUS
 62
     4
100
AcDbLine
 10
437.0
 20
187.0
 30
0.0
 11
492.9999999999999
 21
187.0
 31
0.0
  0
INSERT
  5
39B
330
395
100
AcDbEntity
  8
LAY-20
 62
     4
100
AcDbBlockReference
  2
EX_BNORM
 10
428.0
 20
187.0
 30
0.0
 41
9.0
 42
9.0
 43
9.0
 50
180.0
  0
INSERT
  5
39C
330
395
100
AcDbEntity
  8
LAY-20
 62
     4
100
AcDbBlockReference
  2
EX_BNORM
 10
501.9999999999999
 20
187.0
 30
0.0
 41
9.0
 42
9.0
 43
9.0
  0
MTEXT
  5
39D
330
395
100
AcDbEntity
  8
LAY-20
 62
     7
100
AcDbMText
 10
465.0
 20
194.5
 30
0.0
 40
9.3543312
 41
0.0
 71
     5
 72
     1
  1
%%c74
  7
EXCADDIM1
  0
POINT
  5
39E
330
395
100
AcDbEntity
  8
DEFPOINTS
 62
     0
100
AcDbPoint
 10
428.0
 20
288.45625566824
 30
0.0
  0
POINT
  5
39F
330
395
100
AcDbEntity
  8
DEFPOINTS
 62
     0
100
AcDbPoint
 10
501.9999999999999
 20
288.45625566824
 30
0.0
  0
POINT
  5
3A0
330
395
100
AcDbEntity
  8
DEFPOINTS
 62
     0
100
AcDbPoint
 10
501.9999999999999
 20
187.0
 30
0.0
  0
ENDBLK
  5
397
330
395
100
AcDbEntity
  8
0
100
AcDbBlockEnd
  0
BLOCK
  5
3A3
330
3A2
100
AcDbEntity
  8
0
100
AcDbBlockBegin
  2
*D20
 70
     1
 10
0.0
 20
0.0
 30
0.0
  3
*D20
  1

  0
LINE
  5
3A5
330
3A2
100
AcDbEntity
  8
LAY-20
  6
CONTINUOUS
 62
     4
100
AcDbLine
 10
419.02203311826
 20
384.0
 30
0.0
 11
419.02203311826
 21
409.5
 31
0.0
  0
LINE
  5
3A6
330
3A2
100
AcDbEntity
  8
LAY-20
  6
CONTINUOUS
 62
     4
100
AcDbLine
 10
510.97796688174
 20
379.5
 30
0.0
 11
510.97796688174
 21
409.5
 31
0.0
  0
LINE
  5
3A7
330
3A2
100
AcDbEntity
  8
LAY-20
  6
CONTINUOUS
 62
     4
100
AcDbLine
 10
428.02203311826
 20
405.0
 30
0.0
 11
501.97796688174
 21
405.0
 31
0.0
  0
INSERT
  5
3A8
330
3A2
100
AcDbEntity
  8
LAY-20
 62
     4
100
AcDbBlockReference
  2
EX_BNORM
 10
419.02203311826
 20
405.0
 30
0.0
 41
9.0
 42
9.0
 43
9.0
 50
180.0
  0
INSERT
  5
3A9
330
3A2
100
AcDbEntity
  8
LAY-20
 62
     4
100
AcDbBlockReference
  2
EX_BNORM
 10
510.97796688174
 20
405.0
 30
0.0
 41
9.0
 42
9.0
 43
9.0
  0
MTEXT
  5
3AA
330
3A2
100
AcDbEntity
  8
LAY-20
 62
     7
100
AcDbMText
 10
465.0
 20
412.5
 30
0.0
 40
9.3543312
 41
0.0
 71
     5
 72
     1
  1
%%c92
  7
EXCADDIM1
  0
POINT
  5
3AB
330
3A2
100
AcDbEntity
  8
DEFPOINTS
 62
     0
100
AcDbPoint
 10
419.02203311826
 20
379.5
 30
0.0
  0
POINT
  5
3AC
330
3A2
100
AcDbEntity
  8
DEFPOINTS
 62
     0
100
AcDbPoint
 10
510.97796688174
 20
375.0
 30
0.0
  0
POINT
  5
3AD
330
3A2
100
AcDbEntity
  8
DEFPOINTS
 62
     0
100
AcDbPoint
 10
510.97796688174
 20
405.0
 30
0.0
  0
ENDBLK
  5
3A4
330
3A2
100
AcDbEntity
  8
0
100
AcDbBlockEnd
  0
BLOCK
  5
3B0
330
3AF
100
AcDbEntity
  8
0
100
AcDbBlockBegin
  2
*D21
 70
     1
 10
0.0
 20
0.0
 30
0.0
  3
*D21
  1

  0
LINE
  5
3B2
330
3AF
100
AcDbEntity
  8
LAY-20
  6
CONTINUOUS
 62
     4
100
AcDbLine
 10
398.0
 20
322.5
 30
0.0
 11
398.0
 21
430.5
 31
0.0
  0
LINE
  5
3B3
330
3AF
100
AcDbEntity
  8
LAY-20
  6
CONTINUOUS
 62
     4
100
AcDbLine
 10
532.0
 20
381.0
 30
0.0
 11
532.0
 21
430.5
 31
0.0
  0
LINE
  5
3B4
330
3AF
100
AcDbEntity
  8
LAY-20
  6
CONTINUOUS
 62
     4
100
AcDbLine
 10
407.0
 20
426.0
 30
0.0
 11
523.0
 21
426.0
 31
0.0
  0
INSERT
  5
3B5
330
3AF
100
AcDbEntity
  8
LAY-20
 62
     4
100
AcDbBlockReference
  2
EX_BNORM
 10
398.0
 20
426.0
 30
0.0
 41
9.0
 42
9.0
 43
9.0
 50
180.0
  0
INSERT
  5
3B6
330
3AF
100
AcDbEntity
  8
LAY-20
 62
     4
100
AcDbBlockReference
  2
EX_BNORM
 10
532.0
 20
426.0
 30
0.0
 41
9.0
 42
9.0
 43
9.0
  0
MTEXT
  5
3B7
330
3AF
100
AcDbEntity
  8
LAY-20
 62
     7
100
AcDbMText
 10
465.0
 20
433.5
 30
0.0
 40
9.3543312
 41
0.0
 71
     5
 72
     1
  1
%%c134
  7
EXCADDIM1
  0
POINT
  5
3B8
330
3AF
100
AcDbEntity
  8
DEFPOINTS
 62
     0
100
AcDbPoint
 10
398.0
 20
318.0
 30
0.0
  0
POINT
  5
3B9
330
3AF
100
AcDbEntity
  8
DEFPOINTS
 62
     0
100
AcDbPoint
 10
532.0
 20
376.5
 30
0.0
  0
POINT
  5
3BA
330
3AF
100
AcDbEntity
  8
DEFPOINTS
 62
     0
100
AcDbPoint
 10
532.0
 20
426.0
 30
0.0
  0
ENDBLK
  5
3B1
330
3AF
100
AcDbEntity
  8
0
100
AcDbBlockEnd
  0
BLOCK
  5
3BD
330
3BC
100
AcDbEntity
  8
0
100
AcDbBlockBegin
  2
*D22
 70
     1
 10
0.0
 20
0.0
 30
0.0
  3
*D22
  1

  0
LINE
  5
3BF
330
3BC
100
AcDbEntity
  8
LAY-20
  6
CONTINUOUS
 62
     4
100
AcDbLine
 10
395.50000000001
 20
327.0
 30
0.0
 11
395.50000000001
 21
451.5
 31
0.0
  0
LINE
  5
3C0
330
3BC
100
AcDbEntity
  8
LAY-20
  6
CONTINUOUS
 62
     4
100
AcDbLine
 10
534.5
 20
327.0
 30
0.0
 11
534.5
 21
451.5
 31
0.0
  0
LINE
  5
3C1
330
3BC
100
AcDbEntity
  8
LAY-20
  6
CONTINUOUS
 62
     4
100
AcDbLine
 10
404.50000000001
 20
447.0
 30
0.0
 11
525.5
 21
447.0
 31
0.0
  0
INSERT
  5
3C2
330
3BC
100
AcDbEntity
  8
LAY-20
 62
     4
100
AcDbBlockReference
  2
EX_BNORM
 10
395.50000000001
 20
447.0
 30
0.0
 41
9.0
 42
9.0
 43
9.0
 50
180.0
  0
INSERT
  5
3C3
330
3BC
100
AcDbEntity
  8
LAY-20
 62
     4
100
AcDbBlockReference
  2
EX_BNORM
 10
534.5
 20
447.0
 30
0.0
 41
9.0
 42
9.0
 43
9.0
  0
MTEXT
  5
3C4
330
3BC
100
AcDbEntity
  8
LAY-20
 62
     7
100
AcDbMText
 10
465.0000000000049
 20
454.5
 30
0.0
 40
9.3543312
 41
0.0
 71
     5
 72
     1
  1
%%c139
  7
EXCADDIM1
  0
POINT
  5
3C5
330
3BC
100
AcDbEntity
  8
DEFPOINTS
 62
     0
100
AcDbPoint
 10
395.50000000001
 20
322.5
 30
0.0
  0
POINT
  5
3C6
330
3BC
100
AcDbEntity
  8
DEFPOINTS
 62
     0
100
AcDbPoint
 10
534.5
 20
322.5
 30
0.0
  0
POINT
  5
3C7
330
3BC
100
AcDbEntity
  8
DEFPOINTS
 62
     0
100
AcDbPoint
 10
534.5
 20
447.0
 30
0.0
  0
ENDBLK
  5
3BE
330
3BC
100
AcDbEntity
  8
0
100
AcDbBlockEnd
  0
BLOCK
  5
3CA
330
3C9
100
AcDbEntity
  8
0
100
AcDbBlockBegin
  2
*D23
 70
     1
 10
0.0
 20
0.0
 30
0.0
  3
*D23
  1

  0
LINE
  5
3CC
330
3C9
100
AcDbEntity
  8
LAY-20
  6
CONTINUOUS
 62
     4
100
AcDbLine
 10
376.5
 20
320.0
 30
0.0
 11
376.5
 21
472.5
 31
0.0
  0
LINE
  5
3CD
330
3C9
100
AcDbEntity
  8
LAY-20
  6
CONTINUOUS
 62
     4
100
AcDbLine
 10
553.5
 20
319.99999999999
 30
0.0
 11
553.5
 21
472.5
 31
0.0
  0
LINE
  5
3CE
330
3C9
100
AcDbEntity
  8
LAY-20
  6
CONTINUOUS
 62
     4
100
AcDbLine
 10
385.5
 20
468.0
 30
0.0
 11
544.5
 21
468.0
 31
0.0
  0
INSERT
  5
3CF
330
3C9
100
AcDbEntity
  8
LAY-20
 62
     4
100
AcDbBlockReference
  2
EX_BNORM
 10
376.5
 20
468.0
 30
0.0
 41
9.0
 42
9.0
 43
9.0
 50
180.0
  0
INSERT
  5
3D0
330
3C9
100
AcDbEntity
  8
LAY-20
 62
     4
100
AcDbBlockReference
  2
EX_BNORM
 10
553.5
 20
468.0
 30
0.0
 41
9.0
 42
9.0
 43
9.0
  0
MTEXT
  5
3D1
330
3C9
100
AcDbEntity
  8
LAY-20
 62
     7
100
AcDbMText
 10
465.0
 20
475.5
 30
0.0
 40
9.3543312
 41
0.0
 71
     5
 72
     1
  1
%%c177
  7
EXCADDIM1
  0
POINT
  5
3D2
330
3C9
100
AcDbEntity
  8
DEFPOINTS
 62
     0
100
AcDbPoint
 10
376.5
 20
315.5
 30
0.0
  0
POINT
  5
3D3
330
3C9
100
AcDbEntity
  8
DEFPOINTS
 62
     0
100
AcDbPoint
 10
553.5
 20
315.49999999999
 30
0.0
  0
POINT
  5
3D4
330
3C9
100
AcDbEntity
  8
DEFPOINTS
 62
     0
100
AcDbPoint
 10
553.5
 20
468.0
 30
0.0
  0
ENDBLK
  5
3CB
330
3C9
100
AcDbEntity
  8
0
100
AcDbBlockEnd
  0
ENDSEC
  0
SECTION
  2
ENTITIES
  0
LINE
  5
D4
330
1F
100
AcDbEntity
  8
LAY-10
  6
CONTINUOUS
 62
     7
100
AcDbLine
 10
407.9999999999986
 20
291.7401153701762
 30
0.0
 11
410.586969666111
 21
294.3270850362885
 31
0.0
  0
LINE
  5
D5
330
1F
100
AcDbEntity
  8
LAY-10
  6
CONTINUOUS
 62
     7
100
AcDbLine
 10
407.9999999999998
 20
288.9116882454312
 30
0.0
 11
411.500000000012
 21
292.4116882454434
 31
0.0
  0
LINE
  5
D6
330
1F
100
AcDbEntity
  8
LAY-10
  6
CONTINUOUS
 62
     7
100
AcDbLine
 10
408.000000000001
 20
286.0832611206863
 30
0.0
 11
411.5000000000094
 21
289.5832611206947
 31
0.0
  0
LINE
  5
D7
330
1F
100
AcDbEntity
  8
LAY-10
  6
CONTINUOUS
 62
     7
100
AcDbLine
 10
408.0000000000024
 20
283.2548339959415
 30
0.0
 11
411.5000000000106
 21
286.7548339959498
 31
0.0
  0
LINE
  5
D8
330
1F
100
AcDbEntity
  8
LAY-10
  6
CONTINUOUS
 62
     7
100
AcDbLine
 10
408.0000000000036
 20
280.4264068711965
 30
0.0
 11
411.5000000000081
 21
283.926406871201
 31
0.0
  0
LINE
  5
D9
330
1F
100
AcDbEntity
  8
LAY-10
  6
CONTINUOUS
 62
     7
100
AcDbLine
 10
408.0000000000049
 20
277.5979797464517
 30
0.0
 11
411.5000000000055
 21
281.0979797464523
 31
0.0
  0
LINE
  5
DA
330
1F
100
AcDbEntity
  8
LAY-10
  6
CONTINUOUS
 62
     7
100
AcDbLine
 10
408.0000000000024
 20
274.769552621703
 30
0.0
 11
411.5000000000067
 21
278.2695526217075
 31
0.0
  0
LINE
  5
DB
330
1F
100
AcDbEntity
  8
LAY-10
  6
CONTINUOUS
 62
     7
100
AcDbLine
 10
408.0000000000036
 20
271.9411254969581
 30
0.0
 11
411.5000000000081
 21
275.4411254969626
 31
0.0
  0
LINE
  5
DC
330
1F
100
AcDbEntity
  8
LAY-10
  6
CONTINUOUS
 62
     7
100
AcDbLine
 10
408.000000000001
 20
269.1126983722094
 30
0.0
 11
411.5000000000055
 21
272.6126983722138
 31
0.0
  0
LINE
  5
DD
330
1F
100
AcDbEntity
  8
LAY-10
  6
CONTINUOUS
 62
     7
100
AcDbLine
 10
407.9999999999983
 20
266.2842712474606
 30
0.0
 11
411.5000000000067
 21
269.7842712474689
 31
0.0
  0
LINE
  5
DE
330
1F
100
AcDbEntity
  8
LAY-10
  6
CONTINUOUS
 62
     7
100
AcDbLine
 10
407.9999999999997
 20
263.4558441227157
 30
0.0
 11
411.5000000000079
 21
266.955844122724
 31
0.0
  0
LINE
  5
DF
330
1F
100
AcDbEntity
  8
LAY-10
  6
CONTINUOUS
 62
     7
100
AcDbLine
 10
408.0000000000009
 20
260.6274169979708
 30
0.0
 11
411.5000000000093
 21
264.1274169979791
 31
0.0
  0
LINE
  5
E0
330
1F
100
AcDbEntity
  8
LAY-10
  6
CONTINUOUS
 62
     7
100
AcDbLine
 10
407.9999999999983
 20
257.7989898732221
 30
0.0
 11
411.5000000000105
 21
261.2989898732342
 31
0.0
  0
LINE
  5
E1
330
1F
100
AcDbEntity
  8
LAY-10
  6
CONTINUOUS
 62
     7
100
AcDbLine
 10
407.9999999999997
 20
254.9705627484772
 30
0.0
 11
411.5000000000118
 21
258.4705627484894
 31
0.0
  0
LINE
  5
E2
330
1F
100
AcDbEntity
  8
LAY-10
  6
CONTINUOUS
 62
     7
100
AcDbLine
 10
408.0000000000009
 20
252.1421356237323
 30
0.0
 11
411.5000000000091
 21
255.6421356237406
 31
0.0
  0
LINE
  5
E3
330
1F
100
AcDbEntity
  8
LAY-10
  6
CONTINUOUS
 62
     7
100
AcDbLine
 10
407.9999999999983
 20
249.3137084989835
 30
0.0
 11
411.5000000000105
 21
252.8137084989957
 31
0.0
  0
LINE
  5
E4
330
1F
100
AcDbEntity
  8
LAY-10
  6
CONTINUOUS
 62
     7
100
AcDbLine
 10
407.9999999999995
 20
246.4852813742387
 30
0.0
 11
411.5000000000117
 21
249.9852813742508
 31
0.0
  0
LINE
  5
E5
330
1F
100
AcDbEntity
  8
LAY-10
  6
CONTINUOUS
 62
     7
100
AcDbLine
 10
408.0000000000009
 20
243.6568542494938
 30
0.0
 11
411.5000000000052
 21
247.1568542494982
 31
0.0
  0
LINE
  5
E6
330
1F
100
AcDbEntity
  8
LAY-10
  6
CONTINUOUS
 62
     7
100
AcDbLine
 10
408.000000000002
 20
240.8284271247489
 30
0.0
 11
411.5000000000065
 21
244.3284271247533
 31
0.0
  0
LINE
  5
E7
330
1F
100
AcDbEntity
  8
LAY-10
  6
CONTINUOUS
 62
     7
100
AcDbLine
 10
407.9999999999995
 20
238.0000000000001
 30
0.0
 11
411.5000000000077
 21
241.5000000000084
 31
0.0
  0
LINE
  5
E8
330
1F
100
AcDbEntity
  8
LAY-10
  6
CONTINUOUS
 62
     7
100
AcDbLine
 10
410.8284271247405
 20
237.9999999999951
 30
0.0
 11
411.5000000000052
 21
238.6715728752597
 31
0.0
  0
LINE
  5
E9
330
1F
100
AcDbEntity
  8
LAY-10
  6
CONTINUOUS
 62
     7
100
AcDbLine
 10
518.500000000002
 20
291.7401153701796
 30
0.0
 11
521.0869696661106
 21
294.3270850362882
 31
0.0
  0
LINE
  5
EA
330
1F
100
AcDbEntity
  8
LAY-10
  6
CONTINUOUS
 62
     7
100
AcDbLine
 10
518.5000000000034
 20
288.9116882454348
 30
0.0
 11
522.0
 21
292.4116882454315
 31
0.0
  0
LINE
  5
EB
330
1F
100
AcDbEntity
  8
LAY-10
  6
CONTINUOUS
 62
     7
100
AcDbLine
 10
518.5000000000045
 20
286.0832611206899
 30
0.0
 11
522.0000000000014
 21
289.5832611206866
 31
0.0
  0
LINE
  5
EC
330
1F
100
AcDbEntity
  8
LAY-10
  6
CONTINUOUS
 62
     7
100
AcDbLine
 10
518.5000000000059
 20
283.254833995945
 30
0.0
 11
521.9999999999989
 21
286.7548339959379
 31
0.0
  0
LINE
  5
ED
330
1F
100
AcDbEntity
  8
LAY-10
  6
CONTINUOUS
 62
     7
100
AcDbLine
 10
518.5000000000034
 20
280.4264068711963
 30
0.0
 11
522.0
 21
283.926406871193
 31
0.0
  0
LINE
  5
EE
330
1F
100
AcDbEntity
  8
LAY-10
  6
CONTINUOUS
 62
     7
100
AcDbLine
 10
518.5000000000085
 20
277.5979797464553
 30
0.0
 11
522.0000000000014
 21
281.0979797464482
 31
0.0
  0
LINE
  5
EF
330
1F
100
AcDbEntity
  8
LAY-10
  6
CONTINUOUS
 62
     7
100
AcDbLine
 10
518.5000000000058
 20
274.7695526217065
 30
0.0
 11
521.9999999999986
 21
278.2695526216993
 31
0.0
  0
LINE
  5
F0
330
1F
100
AcDbEntity
  8
LAY-10
  6
CONTINUOUS
 62
     7
100
AcDbLine
 10
518.5000000000072
 20
271.9411254969616
 30
0.0
 11
521.9999999999961
 21
275.4411254969506
 31
0.0
  0
LINE
  5
F1
330
1F
100
AcDbEntity
  8
LAY-10
  6
CONTINUOUS
 62
     7
100
AcDbLine
 10
518.5000000000083
 20
269.1126983722167
 30
0.0
 11
521.9999999999975
 21
272.6126983722058
 31
0.0
  0
LINE
  5
F2
330
1F
100
AcDbEntity
  8
LAY-10
  6
CONTINUOUS
 62
     7
100
AcDbLine
 10
518.500000000002
 20
266.2842712474641
 30
0.0
 11
521.9999999999948
 21
269.784271247457
 31
0.0
  0
LINE
  5
F3
330
1F
100
AcDbEntity
  8
LAY-10
  6
CONTINUOUS
 62
     7
100
AcDbLine
 10
518.5000000000032
 20
263.4558441227193
 30
0.0
 11
521.9999999999961
 21
266.9558441227121
 31
0.0
  0
LINE
  5
F4
330
1F
100
AcDbEntity
  8
LAY-10
  6
CONTINUOUS
 62
     7
100
AcDbLine
 10
518.5000000000044
 20
260.6274169979744
 30
0.0
 11
521.9999999999973
 21
264.1274169979673
 31
0.0
  0
LINE
  5
F5
330
1F
100
AcDbEntity
  8
LAY-10
  6
CONTINUOUS
 62
     7
100
AcDbLine
 10
518.5000000000018
 20
257.7989898732256
 30
0.0
 11
521.9999999999986
 21
261.2989898732224
 31
0.0
  0
LINE
  5
F6
330
1F
100
AcDbEntity
  8
LAY-10
  6
CONTINUOUS
 62
     7
100
AcDbLine
 10
518.5000000000032
 20
254.9705627484806
 30
0.0
 11
521.9999999999999
 21
258.4705627484774
 31
0.0
  0
LINE
  5
F7
330
1F
100
AcDbEntity
  8
LAY-10
  6
CONTINUOUS
 62
     7
100
AcDbLine
 10
518.5000000000044
 20
252.1421356237358
 30
0.0
 11
522.0000000000013
 21
255.6421356237325
 31
0.0
  0
LINE
  5
F8
330
1F
100
AcDbEntity
  8
LAY-10
  6
CONTINUOUS
 62
     7
100
AcDbLine
 10
518.5000000000018
 20
249.313708498987
 30
0.0
 11
521.9999999999986
 21
252.8137084989837
 31
0.0
  0
LINE
  5
F9
330
1F
100
AcDbEntity
  8
LAY-10
  6
CONTINUOUS
 62
     7
100
AcDbLine
 10
518.5000000000032
 20
246.485281374242
 30
0.0
 11
522.0
 21
249.9852813742388
 31
0.0
  0
LINE
  5
FA
330
1F
100
AcDbEntity
  8
LAY-10
  6
CONTINUOUS
 62
     7
100
AcDbLine
 10
518.5000000000045
 20
243.6568542494972
 30
0.0
 11
522.0000000000013
 21
247.1568542494939
 31
0.0
  0
LINE
  5
FB
330
1F
100
AcDbEntity
  8
LAY-10
  6
CONTINUOUS
 62
     7
100
AcDbLine
 10
518.5000000000058
 20
240.8284271247522
 30
0.0
 11
521.9999999999986
 21
244.3284271247451
 31
0.0
  0
LINE
  5
FC
330
1F
100
AcDbEntity
  8
LAY-10
  6
CONTINUOUS
 62
     7
100
AcDbLine
 10
518.4999999999956
 20
237.9999999999957
 30
0.0
 11
522.0
 21
241.5000000000002
 31
0.0
  0
LINE
  5
FD
330
1F
100
AcDbEntity
  8
LAY-10
  6
CONTINUOUS
 62
     7
100
AcDbLine
 10
521.3284271247443
 20
237.9999999999983
 30
0.0
 11
522.0000000000013
 21
238.6715728752553
 31
0.0
  0
LINE
  5
FE
330
1F
100
AcDbEntity
  8
LAY-10
  6
CONTINUOUS
 62
     7
100
AcDbLine
 10
389.6896262956038
 20
316.0735454402111
 30
0.0
 11
382.5000000000061
 21
317.9999999999981
 31
0.0
  0
LINE
  5
FF
330
1F
100
AcDbEntity
  8
LAY-10
  6
CONTINUOUS
 62
     7
100
AcDbLine
 10
376.5000000000041
 20
310.9999999999981
 30
0.0
 11
377.5000000000041
 21
317.9999999999981
 31
0.0
  0
LINE
  5
100
330
1F
100
AcDbEntity
  8
LAY-10
  6
CONTINUOUS
 62
     7
100
AcDbLine
 10
380.5406101782132
 20
310.9999999999981
 30
0.0
 11
380.6872389159021
 21
312.0264011638202
 31
0.0
  0
LINE
  5
101
330
1F
100
AcDbEntity
  8
LAY-10
  6
CONTINUOUS
 62
     7
100
AcDbLine
 10
383.1847759934294
 20
313.6754101039236
 30
0.0
 11
390.4391608067655
 21
311.7316035516058
 31
0.0
  0
ARC
  5
102
330
1F
100
AcDbEntity
  8
LAY-10
  6
CONTINUOUS
 62
     7
100
AcDbCircle
 10
382.6671379032243
 20
311.7435584513456
 30
0.0
 40
2.0
100
AcDbArc
 50
74.99999999999885
 51
171.8698976458388
  0
LINE
  5
103
330
1F
100
AcDbEntity
  8
LAY-10
  6
CONTINUOUS
 62
     7
100
AcDbLine
 10
395.9192622342704
 20
309.999999999998
 30
0.0
 11
395.5496649680458
 21
317.0523359562409
 31
0.0
  0
ARC
  5
104
330
1F
100
AcDbEntity
  8
LAY-10
  6
CONTINUOUS
 62
     7
100
AcDbCircle
 10
389.9215227165606
 20
309.7997518990275
 30
0.0
 40
2.0
100
AcDbArc
 50
3.000000000002355
 51
75.00000000000401
  0
LINE
  5
105
330
1F
100
AcDbEntity
  8
LAY-10
  6
CONTINUOUS
 62
     7
100
AcDbLine
 10
534.0807377657376
 20
309.999999999998
 30
0.0
 11
534.4503350319623
 21
317.0523359562409
 31
0.0
  0
LINE
  5
106
330
1F
100
AcDbEntity
  8
LAY-10
  6
CONTINUOUS
 62
     7
100
AcDbLine
 10
553.500000000004
 20
310.9999999999981
 30
0.0
 11
552.500000000004
 21
317.9999999999981
 31
0.0
  0
LINE
  5
107
330
1F
100
AcDbEntity
  8
LAY-10
  6
CONTINUOUS
 62
     7
100
AcDbLine
 10
540.3103737044044
 20
316.0735454402111
 30
0.0
 11
547.5000000000019
 21
317.9999999999981
 31
0.0
  0
ARC
  5
108
330
1F
100
AcDbEntity
  8
LAY-10
  6
CONTINUOUS
 62
     7
100
AcDbCircle
 10
531.6363010996537
 20
301.5720150685572
 30
0.0
 40
6.000000000000004
100
AcDbArc
 50
274.9999999999998
 51
344.811082673358
  0
LINE
  5
109
330
1F
100
AcDbEntity
  8
LAY-10
  6
CONTINUOUS
 62
     7
100
AcDbLine
 10
391.9187817860698
 20
309.9044238115135
 30
0.0
 11
392.3719216918267
 21
301.2579993310994
 31
0.0
  0
ARC
  5
10A
330
1F
100
AcDbEntity
  8
LAY-10
  6
CONTINUOUS
 62
     7
100
AcDbCircle
 10
398.3636989003543
 20
301.5720150685572
 30
0.0
 40
6.000000000000004
100
AcDbArc
 50
183.0000000000007
 51
265.0000000000003
  0
LINE
  5
10B
330
1F
100
AcDbEntity
  8
LAY-10
  6
CONTINUOUS
 62
     7
100
AcDbLine
 10
397.8407644438684
 20
295.5948468800066
 30
0.0
 11
427.1209260783531
 21
293.0331646707826
 31
0.0
  0
LINE
  5
10C
330
1F
100
AcDbEntity
  8
LAY-10
  6
CONTINUOUS
 62
     7
100
AcDbLine
 10
552.500000000004
 20
299.9999999999981
 30
0.0
 11
553.500000000004
 21
310.9999999999981
 31
0.0
  0
LINE
  5
10D
330
1F
100
AcDbEntity
  8
LAY-10
  6
CONTINUOUS
 62
     7
100
AcDbLine
 10
537.426704248332
 20
299.9999999999981
 30
0.0
 11
552.500000000004
 21
299.9999999999981
 31
0.0
  0
ARC
  5
10E
330
1F
100
AcDbEntity
  8
LAY-10
  6
CONTINUOUS
 62
     7
100
AcDbCircle
 10
392.1369555539187
 20
316.9999999999981
 30
0.0
 40
1.0
100
AcDbArc
 50
90.0
 51
154.9906497524194
  0
ARC
  5
10F
330
1F
100
AcDbEntity
  8
LAY-10
  6
CONTINUOUS
 62
     7
100
AcDbCircle
 10
394.5510354332912
 20
316.9999999999981
 30
0.0
 40
1.0
100
AcDbArc
 50
2.999999999992558
 51
90.0
  0
ARC
  5
110
330
1F
100
AcDbEntity
  8
LAY-10
  6
CONTINUOUS
 62
     7
100
AcDbCircle
 10
537.8630444460895
 20
316.9999999999981
 30
0.0
 40
1.0
100
AcDbArc
 50
25.00935024759226
 51
90.0
  0
ARC
  5
111
330
1F
100
AcDbEntity
  8
LAY-10
  6
CONTINUOUS
 62
     7
100
AcDbCircle
 10
535.4489645667169
 20
316.9999999999981
 30
0.0
 40
1.0
100
AcDbArc
 50
90.0
 51
177.0000000000076
  0
LINE
  5
112
330
1F
100
AcDbEntity
  8
LAY-10
  6
CONTINUOUS
 62
     7
100
AcDbLine
 10
539.1453158525087
 20
316.6167051076581
 30
0.0
 11
538.7692832528825
 21
317.4227661588404
 31
0.0
  0
ARC
  5
113
330
1F
100
AcDbEntity
  8
LAY-10
  6
CONTINUOUS
 62
     7
100
AcDbCircle
 10
540.0515546593018
 20
317.0394712665004
 30
0.0
 40
1.0
100
AcDbArc
 50
205.0093502475806
 51
285.0000000000015
  0
LINE
  5
114
330
1F
100
AcDbEntity
  8
LAY-10
  6
CONTINUOUS
 62
     7
100
AcDbLine
 10
390.8546841474991
 20
316.6167051076581
 30
0.0
 11
391.2307167471256
 21
317.4227661588404
 31
0.0
  0
ARC
  5
115
330
1F
100
AcDbEntity
  8
LAY-10
  6
CONTINUOUS
 62
     7
100
AcDbCircle
 10
389.9484453407062
 20
317.0394712665004
 30
0.0
 40
1.0
100
AcDbArc
 50
254.999999999989
 51
334.9906497524194
  0
LINE
  5
116
330
1F
100
AcDbEntity
  8
LAY-10
  6
CONTINUOUS
 62
     7
100
AcDbLine
 10
429.5000000000036
 20
252.9562556682369
 30
0.0
 11
500.5000000000042
 21
252.9562556682369
 31
0.0
  0
LINE
  5
117
330
1F
100
AcDbEntity
  8
LAY-10
  6
CONTINUOUS
 62
     7
100
AcDbLine
 10
500.5000000000042
 20
252.9562556682369
 30
0.0
 11
501.9669320486931
 21
292.07444363328
 31
0.0
  0
LINE
  5
118
330
1F
100
AcDbEntity
  8
LAY-10
  6
CONTINUOUS
 62
     7
100
AcDbLine
 10
429.5000000000036
 20
252.9562556682369
 30
0.0
 11
428.0330679513146
 21
292.07444363328
 31
0.0
  0
LINE
  5
119
330
1F
100
AcDbEntity
  8
LAY-10
  6
CONTINUOUS
 62
     7
100
AcDbLine
 10
433.5028115119285
 20
252.9562556682369
 30
0.0
 11
432.0302584141515
 21
292.2243382756364
 31
0.0
  0
LINE
  5
11A
330
1F
100
AcDbEntity
  8
LAY-10
  6
CONTINUOUS
 62
     7
100
AcDbLine
 10
496.4971884880797
 20
252.9562556682369
 30
0.0
 11
497.9697415858569
 21
292.2243382756364
 31
0.0
  0
ARC
  5
11B
330
1F
100
AcDbEntity
  8
LAY-10
  6
CONTINUOUS
 62
     7
100
AcDbCircle
 10
502.9662296644021
 20
292.0369699726909
 30
0.0
 40
1.0
100
AcDbArc
 50
94.99999999999325
 51
177.8524145717037
  0
ARC
  5
11C
330
1F
100
AcDbEntity
  8
LAY-10
  6
CONTINUOUS
 62
     7
100
AcDbCircle
 10
502.9662296644026
 20
292.0369699726909
 30
0.0
 40
5.0
100
AcDbArc
 50
94.99999999999915
 51
177.8524145717017
  0
ARC
  5
11D
330
1F
100
AcDbEntity
  8
LAY-10
  6
CONTINUOUS
 62
     7
100
AcDbCircle
 10
427.0337703356054
 20
292.0369699726909
 30
0.0
 40
1.0
100
AcDbArc
 50
2.147585428296413
 51
84.99999999999703
  0
ARC
  5
11E
330
1F
100
AcDbEntity
  8
LAY-10
  6
CONTINUOUS
 62
     7
100
AcDbCircle
 10
427.0337703356055
 20
292.0369699726909
 30
0.0
 40
5.0
100
AcDbArc
 50
2.147585428298361
 51
85.00000000000085
  0
LINE
  5
11F
330
1F
100
AcDbEntity
  8
LAY-10
  6
CONTINUOUS
 62
     7
100
AcDbLine
 10
442.4416407173127
 20
315.1930652766954
 30
0.0
 11
441.8488192392672
 21
317.2739833201169
 31
0.0
  0
LINE
  5
120
330
1F
100
AcDbEntity
  8
LAY-10
  6
CONTINUOUS
 62
     7
100
AcDbLine
 10
442.2526650378988
 20
315.8564064605489
 30
0.0
 11
450.0229217221569
 21
315.8564064605489
 31
0.0
  0
LINE
  5
121
330
1F
100
AcDbEntity
  8
LAY-10
  6
CONTINUOUS
 62
     7
100
AcDbLine
 10
396.9088135651749
 20
315.3631441481654
 30
0.0
 11
396.7269564852021
 21
317.103904448647
 31
0.0
  0
ARC
  5
122
330
1F
100
AcDbEntity
  8
LAY-10
  6
CONTINUOUS
 62
     7
100
AcDbCircle
 10
395.7323692011738
 20
316.9999999999981
 30
0.0
 40
1.0
100
AcDbArc
 50
5.964050839230832
 51
90.0
  0
ARC
  5
123
330
1F
100
AcDbEntity
  8
LAY-10
  6
CONTINUOUS
 62
     7
100
AcDbCircle
 10
440.8870847955164
 20
316.9999999999981
 30
0.0
 40
1.0
100
AcDbArc
 50
15.90143584862942
 51
90.0
  0
ARC
  5
124
330
1F
100
AcDbEntity
  8
LAY-10
  6
CONTINUOUS
 62
     7
100
AcDbCircle
 10
450.0229217221569
 20
316.8564064605488
 30
0.0
 40
1.0
100
AcDbArc
 50
270.0
 51
331.5316850374592
  0
ARC
  5
125
330
1F
100
AcDbEntity
  8
LAY-10
  6
CONTINUOUS
 62
     7
100
AcDbCircle
 10
397.9034008492033
 20
315.4670485968143
 30
0.0
 40
1.0
100
AcDbArc
 50
185.9640508392305
 51
270.0
  0
ARC
  5
126
330
1F
100
AcDbEntity
  8
LAY-10
  6
CONTINUOUS
 62
     7
100
AcDbCircle
 10
489.1129152044919
 20
316.9999999999981
 30
0.0
 40
1.0
100
AcDbArc
 50
90.0
 51
164.0985641513809
  0
ARC
  5
127
330
1F
100
AcDbEntity
  8
LAY-10
  6
CONTINUOUS
 62
     7
100
AcDbCircle
 10
479.9770782778515
 20
316.8564064605488
 30
0.0
 40
1.0
100
AcDbArc
 50
208.4683149625482
 51
270.0
  0
ARC
  5
128
330
1F
100
AcDbEntity
  8
LAY-10
  6
CONTINUOUS
 62
     7
100
AcDbCircle
 10
477.9939426417837
 20
317.6212375183844
 30
0.0
 40
0.378762481614558
100
AcDbArc
 50
28.46831496256188
 51
195.0369574922132
  0
LINE
  5
129
330
1F
100
AcDbEntity
  8
LAY-10
  6
CONTINUOUS
 62
     7
100
AcDbLine
 10
478.2501503986981
 20
315.2076065545366
 30
0.0
 11
477.628149487761
 21
317.5229706066166
 31
0.0
  0
LINE
  5
12A
330
1F
100
AcDbEntity
  8
LAY-10
  6
CONTINUOUS
 62
     7
100
AcDbLine
 10
479.0979974268619
 20
316.3797337663199
 30
0.0
 11
478.3269054864436
 21
317.8017832509681
 31
0.0
  0
ARC
  5
12B
330
1F
100
AcDbEntity
  8
LAY-10
  6
CONTINUOUS
 62
     7
100
AcDbCircle
 10
534.2676307988346
 20
316.9999999999981
 30
0.0
 40
1.0
100
AcDbArc
 50
90.0
 51
174.0359491607696
  0
ARC
  5
12C
330
1F
100
AcDbEntity
  8
LAY-10
  6
CONTINUOUS
 62
     7
100
AcDbCircle
 10
531.4572630679764
 20
316.9999999999981
 30
0.0
 40
1.0
100
AcDbArc
 50
90.0
 51
180.0
  0
LINE
  5
12D
330
1F
100
AcDbEntity
  8
LAY-10
  6
CONTINUOUS
 62
     7
100
AcDbLine
 10
533.0911864348336
 20
315.3631441481654
 30
0.0
 11
533.2730435148063
 21
317.103904448647
 31
0.0
  0
ARC
  5
12E
330
1F
100
AcDbEntity
  8
LAY-10
  6
CONTINUOUS
 62
     7
100
AcDbCircle
 10
532.0965991508051
 20
315.4670485968143
 30
0.0
 40
1.0
100
AcDbArc
 50
270.0
 51
354.0359491607696
  0
LINE
  5
12F
330
1F
100
AcDbEntity
  8
LAY-10
  6
CONTINUOUS
 62
     7
100
AcDbLine
 10
530.4572630679763
 20
316.9999999999981
 30
0.0
 11
530.4572630679763
 21
315.4670485968143
 31
0.0
  0
LINE
  5
130
330
1F
100
AcDbEntity
  8
LAY-10
  6
CONTINUOUS
 62
     7
100
AcDbLine
 10
532.0965991508051
 20
314.4670485968142
 30
0.0
 11
531.4572630679764
 21
314.4670485968142
 31
0.0
  0
ARC
  5
131
330
1F
100
AcDbEntity
  8
LAY-10
  6
CONTINUOUS
 62
     7
100
AcDbCircle
 10
531.4572630679764
 20
315.4670485968143
 30
0.0
 40
1.0
100
AcDbArc
 50
180.0
 51
270.0
  0
LINE
  5
132
330
1F
100
AcDbEntity
  8
LAY-10
  6
CONTINUOUS
 62
     7
100
AcDbLine
 10
398.5000000000016
 20
302.4999999999992
 30
0.0
 11
403.5000000000012
 21
302.4999999999992
 31
0.0
  0
LINE
  5
133
330
1F
100
AcDbEntity
  8
LAY-10
  6
CONTINUOUS
 62
     7
100
AcDbLine
 10
401.0000000000002
 20
301.0566243270257
 30
0.0
 11
398.5000000000011
 21
302.4999999999992
 31
0.0
  0
LINE
  5
134
330
1F
100
AcDbEntity
  8
LAY-10
  6
CONTINUOUS
 62
     7
100
AcDbLine
 10
401.0000000000002
 20
301.0566243270259
 30
0.0
 11
403.4999999999993
 21
302.4999999999992
 31
0.0
  0
LINE
  5
135
330
1F
100
AcDbEntity
  8
LAY-10
  6
CONTINUOUS
 62
     7
100
AcDbLine
 10
407.5892076673845
 20
298.7572479610963
 30
0.0
 11
406.9999999999955
 21
309.999999999998
 31
0.0
  0
LINE
  5
136
330
1F
100
AcDbEntity
  8
LAY-10
  6
CONTINUOUS
 62
     7
100
AcDbLine
 10
407.5892076673797
 20
298.7572479610968
 30
0.0
 11
427.4695490493438
 21
297.0179434631496
 31
0.0
  0
LINE
  5
137
330
1F
100
AcDbEntity
  8
LAY-10
  6
CONTINUOUS
 62
     7
100
AcDbLine
 10
524.4200047454609
 20
298.9330312698351
 30
0.0
 11
525.0000000000038
 21
309.999999999998
 31
0.0
  0
LINE
  5
138
330
1F
100
AcDbEntity
  8
LAY-10
  6
CONTINUOUS
 62
     7
100
AcDbLine
 10
524.4200047454605
 20
298.9330312698351
 30
0.0
 11
502.5304509506644
 21
297.0179434631496
 31
0.0
  0
LINE
  5
139
330
1F
100
AcDbEntity
  8
LAY-10
  6
CONTINUOUS
 62
     7
100
AcDbLine
 10
460.4618324980839
 20
299.73115233496
 30
0.0
 11
407.5381675019162
 21
299.73115233496
 31
0.0
  0
LINE
  5
13A
330
1F
100
AcDbEntity
  8
LAY-10
  6
CONTINUOUS
 62
     7
100
AcDbLine
 10
431.8649186575971
 20
296.6333984504211
 30
0.0
 11
498.1350813424113
 21
296.6333984504211
 31
0.0
  0
LINE
  5
13B
330
1F
100
AcDbEntity
  8
LAY-10
  6
CONTINUOUS
 62
     7
100
AcDbLine
 10
524.46183249808
 20
299.73115233496
 30
0.0
 11
471.5381675019248
 21
299.73115233496
 31
0.0
  0
LINE
  5
13C
330
1F
100
AcDbEntity
  8
LAY-10
  6
CONTINUOUS
 62
     7
100
AcDbLine
 10
532.1592355561396
 20
295.5948468800066
 30
0.0
 11
518.8659788393353
 21
294.4318376159464
 31
0.0
  0
ARC
  5
13D
330
1F
100
AcDbEntity
  8
LAY-10
  6
CONTINUOUS
 62
     7
100
AcDbCircle
 10
518.9531345820831
 20
293.4356429178548
 30
0.0
 40
1.0
100
AcDbArc
 50
95.00000000000625
 51
177.0000000000076
  0
LINE
  5
13E
330
1F
100
AcDbEntity
  8
LAY-10
  6
CONTINUOUS
 62
     7
100
AcDbLine
 10
511.9684101916816
 20
293.8283785533849
 30
0.0
 11
502.8790739216546
 21
293.0331646707826
 31
0.0
  0
ARC
  5
13F
330
1F
100
AcDbEntity
  8
LAY-10
  6
CONTINUOUS
 62
     7
100
AcDbCircle
 10
512.0555659344294
 20
292.8321838552932
 30
0.0
 40
1.0
100
AcDbArc
 50
3.000000000002184
 51
95.00000000000625
  0
LINE
  5
140
330
1F
100
AcDbEntity
  8
LAY-10
  6
CONTINUOUS
 62
     7
100
AcDbLine
 10
513.0541954691839
 20
292.8845198115362
 30
0.0
 11
513.3152176598977
 21
287.903919711994
 31
0.0
  0
ARC
  5
141
330
1F
100
AcDbEntity
  8
LAY-10
  6
CONTINUOUS
 62
     7
100
AcDbCircle
 10
514.3138471946525
 20
287.956255668237
 30
0.0
 40
1.0
100
AcDbArc
 50
183.0000000000022
 51
270.0
  0
LINE
  5
142
330
1F
100
AcDbEntity
  8
LAY-10
  6
CONTINUOUS
 62
     7
100
AcDbLine
 10
514.3138471946525
 20
286.9562556682369
 30
0.0
 11
516.6632273725029
 21
286.9562556682369
 31
0.0
  0
LINE
  5
143
330
1F
100
AcDbEntity
  8
LAY-10
  6
CONTINUOUS
 62
     7
100
AcDbLine
 10
517.9545050473284
 20
293.4879788740976
 30
0.0
 11
517.6618569072574
 21
287.903919711994
 31
0.0
  0
ARC
  5
144
330
1F
100
AcDbEntity
  8
LAY-10
  6
CONTINUOUS
 62
     7
100
AcDbCircle
 10
516.6632273725029
 20
287.956255668237
 30
0.0
 40
1.0
100
AcDbArc
 50
270.0
 51
356.999999999998
  0
LINE
  5
145
330
1F
100
AcDbEntity
  8
LAY-10
  6
CONTINUOUS
 62
     7
100
AcDbLine
 10
376.5000000000041
 20
310.9999999999981
 30
0.0
 11
391.52133661077
 21
310.9999999999981
 31
0.0
  0
LINE
  5
146
330
1F
100
AcDbEntity
  8
LAY-10
  6
CONTINUOUS
 62
     7
100
AcDbLine
 10
471.5589955798247
 20
299.33372893361
 30
0.0
 11
471.0000000000046
 21
309.999999999998
 31
0.0
  0
LINE
  5
147
330
1F
100
AcDbEntity
  8
LAY-10
  6
CONTINUOUS
 62
     7
100
AcDbLine
 10
460.4410044201841
 20
299.33372893361
 30
0.0
 11
461.0000000000043
 21
309.999999999998
 31
0.0
  0
ARC
  5
148
330
1F
100
AcDbEntity
  8
LAY-10
  6
CONTINUOUS
 62
     7
100
AcDbCircle
 10
465.0
 20
336.35844851678
 30
0.0
 40
37.60120055567986
100
AcDbArc
 50
270.0
 51
280.0458269590586
  0
ARC
  5
149
330
1F
100
AcDbEntity
  8
LAY-10
  6
CONTINUOUS
 62
     7
100
AcDbCircle
 10
465.0
 20
325.0686956476972
 30
0.0
 40
26.13566437785712
100
AcDbArc
 50
259.9541730409863
 51
270.0
  0
LINE
  5
14A
330
1F
100
AcDbEntity
  8
LAY-10
  6
CONTINUOUS
 62
     7
100
AcDbLine
 10
412.3313486249947
 20
294.32708503629
 30
0.0
 11
408.0
 21
294.32708503629
 31
0.0
  0
LINE
  5
14B
330
1F
100
AcDbEntity
  8
LAY-10
  6
CONTINUOUS
 62
     7
100
AcDbLine
 10
408.0000000000049
 20
237.9999999999981
 30
0.0
 11
408.0000000000048
 21
294.32708503629
 31
0.0
  0
LINE
  5
14C
330
1F
100
AcDbEntity
  8
LAY-10
  6
CONTINUOUS
 62
     7
100
AcDbLine
 10
411.5000000000048
 20
294.3270850362923
 30
0.0
 11
411.500000000005
 21
237.9999999999981
 31
0.0
  0
LINE
  5
14D
330
1F
100
AcDbEntity
  8
LAY-10
  6
CONTINUOUS
 62
     7
100
AcDbLine
 10
408.0000000000049
 20
237.9999999999981
 30
0.0
 11
522.000000000004
 21
237.9999999999981
 31
0.0
  0
LINE
  5
14E
330
1F
100
AcDbEntity
  8
LAY-10
  6
CONTINUOUS
 62
     7
100
AcDbLine
 10
518.5
 20
294.32708503629
 30
0.0
 11
522.000000000004
 21
294.32708503629
 31
0.0
  0
LINE
  5
14F
330
1F
100
AcDbEntity
  8
LAY-10
  6
CONTINUOUS
 62
     7
100
AcDbLine
 10
518.5000000000041
 20
294.3270850362923
 30
0.0
 11
518.5000000000039
 21
237.9999999999981
 31
0.0
  0
LINE
  5
150
330
1F
100
AcDbEntity
  8
LAY-10
  6
CONTINUOUS
 62
     7
100
AcDbLine
 10
522.000000000004
 20
237.9999999999981
 30
0.0
 11
522.000000000004
 21
294.32708503629
 31
0.0
  0
LINE
  5
151
330
1F
100
AcDbEntity
  8
LAY-10
  6
CONTINUOUS
 62
     7
100
AcDbLine
 10
415.0000000000066
 20
375.0000000000018
 30
0.0
 11
514.9999999999927
 21
375.0000000000018
 31
0.0
  0
ARC
  5
152
330
1F
100
AcDbEntity
  8
LAY-10
  6
CONTINUOUS
 62
     7
100
AcDbCircle
 10
529.8924397494419
 20
312.0000000000018
 30
0.0
 40
2.0
100
AcDbArc
 50
270.0
 51
357.0000000000025
  0
LINE
  5
153
330
1F
100
AcDbEntity
  8
LAY-10
  6
CONTINUOUS
 62
     7
100
AcDbLine
 10
531.889698818951
 20
311.895328087516
 30
0.0
 11
532.0000000000039
 21
313.9999999999997
 31
0.0
  0
LINE
  5
154
330
1F
100
AcDbEntity
  8
LAY-10
  6
CONTINUOUS
 62
     7
100
AcDbLine
 10
409.0090585898646
 20
318.0000000000018
 30
0.0
 11
415.0000000000066
 21
375.0000000000018
 31
0.0
  0
LINE
  5
155
330
1F
100
AcDbEntity
  8
LAY-10
  6
CONTINUOUS
 62
     7
100
AcDbLine
 10
419.0220331182607
 20
375.0000000000018
 30
0.0
 11
412.1902578259935
 21
310.0000000000018
 31
0.0
  0
LINE
  5
156
330
1F
100
AcDbEntity
  8
LAY-10
  6
CONTINUOUS
 62
     7
100
AcDbLine
 10
460.0100297994888
 20
360.0000000000017
 30
0.0
 11
459.0949709619042
 21
310.0000000000018
 31
0.0
  0
LINE
  5
157
330
1F
100
AcDbEntity
  8
LAY-10
  6
CONTINUOUS
 62
     7
100
AcDbLine
 10
452.1315677753914
 20
360.0000000000017
 30
0.0
 11
451.2165089378065
 21
310.0000000000018
 31
0.0
  0
LINE
  5
158
330
1F
100
AcDbEntity
  8
LAY-10
  6
CONTINUOUS
 62
     7
100
AcDbLine
 10
453.8042675927708
 20
360.0000000000017
 30
0.0
 11
452.8900700368679
 21
310.0000000000018
 31
0.0
  0
LINE
  5
159
330
1F
100
AcDbEntity
  8
LAY-10
  6
CONTINUOUS
 62
     7
100
AcDbLine
 10
453.8042675927708
 20
360.0000000000017
 30
0.0
 11
443.868172278833
 21
360.0000000000017
 31
0.0
  0
LINE
  5
15A
330
1F
100
AcDbEntity
  8
LAY-10
  6
CONTINUOUS
 62
     7
100
AcDbLine
 10
451.3080148215651
 20
315.0000000000018
 30
0.0
 11
440.4936332892031
 21
315.0000000000018
 31
0.0
  0
LINE
  5
15B
330
1F
100
AcDbEntity
  8
LAY-10
  6
CONTINUOUS
 62
     7
100
AcDbLine
 10
440.1186845125775
 20
310.0000000000018
 30
0.0
 11
443.868172278833
 21
360.0000000000017
 31
0.0
  0
LINE
  5
15C
330
1F
100
AcDbEntity
  8
LAY-10
  6
CONTINUOUS
 62
     7
100
AcDbLine
 10
436.0396929057812
 20
310.0000000000018
 30
0.0
 11
438.6720198561285
 21
360.0000000000017
 31
0.0
  0
LINE
  5
15D
330
1F
100
AcDbEntity
  8
LAY-10
  6
CONTINUOUS
 62
     7
100
AcDbLine
 10
433.1904812823029
 20
310.0000000000018
 30
0.0
 11
435.8252881944138
 21
360.0000000000017
 31
0.0
  0
LINE
  5
15E
330
1F
100
AcDbEntity
  8
LAY-10
  6
CONTINUOUS
 62
     7
100
AcDbLine
 10
433.453961973514
 20
315.0000000000018
 30
0.0
 11
426.9423777635429
 21
315.0000000000018
 31
0.0
  0
LINE
  5
15F
330
1F
100
AcDbEntity
  8
LAY-10
  6
CONTINUOUS
 62
     7
100
AcDbLine
 10
438.6720198561285
 20
360.0000000000017
 30
0.0
 11
430.5720407425563
 21
360.0000000000017
 31
0.0
  0
LINE
  5
160
330
1F
100
AcDbEntity
  8
LAY-10
  6
CONTINUOUS
 62
     7
100
AcDbLine
 10
430.5720407425563
 20
360.0000000000017
 30
0.0
 11
426.5390818769859
 21
310.0000000000018
 31
0.0
  0
LINE
  5
161
330
1F
100
AcDbEntity
  8
LAY-10
  6
CONTINUOUS
 62
     7
100
AcDbLine
 10
422.6823562188684
 20
310.0000000000018
 30
0.0
 11
426.71531508444
 21
360.0000000000017
 31
0.0
  0
LINE
  5
162
330
1F
100
AcDbEntity
  8
LAY-10
  6
CONTINUOUS
 62
     7
100
AcDbLine
 10
419.0011510426495
 20
310.0000000000018
 30
0.0
 11
423.0379094300776
 21
360.0000000000017
 31
0.0
  0
LINE
  5
163
330
1F
100
AcDbEntity
  8
LAY-10
  6
CONTINUOUS
 62
     7
100
AcDbLine
 10
426.71531508444
 20
360.0000000000017
 30
0.0
 11
421.4284291952914
 21
360.0000000000017
 31
0.0
  0
LINE
  5
164
330
1F
100
AcDbEntity
  8
LAY-10
  6
CONTINUOUS
 62
     7
100
AcDbLine
 10
419.4048268813922
 20
315.0000000000018
 30
0.0
 11
416.9759884159657
 21
315.0000000000018
 31
0.0
  0
LINE
  5
165
330
1F
100
AcDbEntity
  8
LAY-10
  6
CONTINUOUS
 62
     7
100
AcDbLine
 10
416.4812727738184
 20
310.0000000000018
 30
0.0
 11
421.4284291952914
 21
360.0000000000017
 31
0.0
  0
LINE
  5
166
330
1F
100
AcDbEntity
  8
LAY-10
  6
CONTINUOUS
 62
     7
100
AcDbLine
 10
414.4291519138652
 20
310.0000000000018
 30
0.0
 11
419.3763083353396
 21
360.0000000000017
 31
0.0
  0
LINE
  5
167
330
1F
100
AcDbEntity
  8
LAY-10
  6
CONTINUOUS
 62
     7
100
AcDbLine
 10
417.5401921349713
 20
360.0000000000017
 30
0.0
 11
412.2755382342783
 21
310.0000000000018
 31
0.0
  0
LINE
  5
168
330
1F
100
AcDbEntity
  8
LAY-10
  6
CONTINUOUS
 62
     7
100
AcDbLine
 10
406.8049937616958
 20
311.9001247661141
 30
0.0
 11
406.5000000000015
 21
318.0000000000018
 31
0.0
  0
ARC
  5
169
330
1F
100
AcDbEntity
  8
LAY-10
  6
CONTINUOUS
 62
     7
100
AcDbCircle
 10
408.8024984394517
 20
312.0000000000018
 30
0.0
 40
2.0
100
AcDbArc
 50
182.862405226111
 51
270.0
  0
LINE
  5
16A
330
1F
100
AcDbEntity
  8
LAY-10
  6
CONTINUOUS
 62
     7
100
AcDbLine
 10
419.3763083353396
 20
360.0000000000017
 30
0.0
 11
417.4454695892759
 21
360.0000000000017
 31
0.0
  0
LINE
  5
16B
330
1F
100
AcDbEntity
  8
LAY-10
  6
CONTINUOUS
 62
     7
100
AcDbLine
 10
460.0100297994899
 20
360.0000000000017
 30
0.0
 11
464.9999999999997
 21
360.0000000000017
 31
0.0
  0
LINE
  5
16C
330
1F
100
AcDbEntity
  8
LAY-10
  6
CONTINUOUS
 62
     7
100
AcDbLine
 10
464.9999999999997
 20
314.9999999999999
 30
0.0
 11
459.1864768456625
 21
314.9999999999999
 31
0.0
  0
LINE
  5
16D
330
1F
100
AcDbEntity
  8
LAY-10
  6
CONTINUOUS
 62
     7
100
AcDbLine
 10
531.9999999999998
 20
314.0000000000018
 30
0.0
 11
521.4113583511974
 21
314.0000000000018
 31
0.0
  0
LINE
  5
16E
330
1F
100
AcDbEntity
  8
LAY-10
  6
CONTINUOUS
 62
     7
100
AcDbLine
 10
512.55453041072
 20
359.9999999999999
 30
0.0
 11
516.576563528978
 21
359.9999999999999
 31
0.0
  0
LINE
  5
16F
330
1F
100
AcDbEntity
  8
LAY-10
  6
CONTINUOUS
 62
     7
100
AcDbLine
 10
468.0
 20
359.9999999999999
 30
0.0
 11
468.0
 21
309.9999999999999
 31
0.0
  0
LINE
  5
170
330
1F
100
AcDbEntity
  8
LAY-10
  6
CONTINUOUS
 62
     7
100
AcDbLine
 10
478.41313242584
 20
359.9999999999999
 30
0.0
 11
480.2137501075199
 21
309.9999999999999
 31
0.0
  0
LINE
  5
171
330
1F
100
AcDbEntity
  8
LAY-10
  6
CONTINUOUS
 62
     7
100
AcDbLine
 10
468.9999999999998
 20
314.9999999999999
 30
0.0
 11
480.033688339352
 21
314.9999999999999
 31
0.0
  0
LINE
  5
172
330
1F
100
AcDbEntity
  8
LAY-10
  6
CONTINUOUS
 62
     7
100
AcDbLine
 10
468.9999999999998
 20
314.9999999999999
 30
0.0
 11
468.9999999999998
 21
359.9999999999999
 31
0.0
  0
LINE
  5
173
330
1F
100
AcDbEntity
  8
LAY-10
  6
CONTINUOUS
 62
     7
100
AcDbLine
 10
468.9999999999998
 20
314.9999999999999
 30
0.0
 11
468.9999999999998
 21
310.0000000000018
 31
0.0
  0
LINE
  5
174
330
1F
100
AcDbEntity
  8
LAY-10
  6
CONTINUOUS
 62
     7
100
AcDbLine
 10
484.05128815056
 20
359.9999999999999
 30
0.0
 11
485.85190583223
 21
309.9999999999999
 31
0.0
  0
LINE
  5
175
330
1F
100
AcDbEntity
  8
LAY-10
  6
CONTINUOUS
 62
     7
100
AcDbLine
 10
496.5924974210297
 20
309.9999999999999
 30
0.0
 11
493.2084431243798
 21
359.9999999999999
 31
0.0
  0
LINE
  5
176
330
1F
100
AcDbEntity
  8
LAY-10
  6
CONTINUOUS
 62
     7
100
AcDbLine
 10
468.0
 20
359.9999999999999
 30
0.0
 11
478.41313242584
 21
359.9999999999999
 31
0.0
  0
LINE
  5
177
330
1F
100
AcDbEntity
  8
LAY-10
  6
CONTINUOUS
 62
     7
100
AcDbLine
 10
487.9679878537398
 20
314.9999999999999
 30
0.0
 11
496.2540919913648
 21
314.9999999999999
 31
0.0
  0
LINE
  5
178
330
1F
100
AcDbEntity
  8
LAY-10
  6
CONTINUOUS
 62
     7
100
AcDbLine
 10
487.9679878537398
 20
314.9999999999999
 30
0.0
 11
486.3458636477898
 21
359.9999999999999
 31
0.0
  0
LINE
  5
179
330
1F
100
AcDbEntity
  8
LAY-10
  6
CONTINUOUS
 62
     7
100
AcDbLine
 10
487.9679878537398
 20
314.9999999999999
 30
0.0
 11
488.1481777232198
 21
309.9999999999999
 31
0.0
  0
LINE
  5
17A
330
1F
100
AcDbEntity
  8
LAY-10
  6
CONTINUOUS
 62
     7
100
AcDbLine
 10
497.8047097830898
 20
359.9999999999999
 30
0.0
 11
501.1887640797497
 21
309.9999999999999
 31
0.0
  0
LINE
  5
17B
330
1F
100
AcDbEntity
  8
LAY-10
  6
CONTINUOUS
 62
     7
100
AcDbLine
 10
509.16072328997
 20
309.9999999999999
 30
0.0
 11
504.60139926983
 21
359.9999999999999
 31
0.0
  0
LINE
  5
17C
330
1F
100
AcDbEntity
  8
LAY-10
  6
CONTINUOUS
 62
     7
100
AcDbLine
 10
484.05128815056
 20
359.9999999999999
 30
0.0
 11
493.2084431243798
 21
359.9999999999999
 31
0.0
  0
LINE
  5
17D
330
1F
100
AcDbEntity
  8
LAY-10
  6
CONTINUOUS
 62
     7
100
AcDbLine
 10
504.5043435823098
 20
309.9999999999999
 30
0.0
 11
501.1171011082598
 21
359.9999999999999
 31
0.0
  0
LINE
  5
17E
330
1F
100
AcDbEntity
  8
LAY-10
  6
CONTINUOUS
 62
     7
100
AcDbLine
 10
504.1656193349098
 20
314.9999999999999
 30
0.0
 11
508.7047908879558
 21
314.9999999999999
 31
0.0
  0
LINE
  5
17F
330
1F
100
AcDbEntity
  8
LAY-10
  6
CONTINUOUS
 62
     7
100
AcDbLine
 10
512.16072328997
 20
309.9999999999999
 30
0.0
 11
507.60139926983
 21
359.9999999999999
 31
0.0
  0
LINE
  5
180
330
1F
100
AcDbEntity
  8
LAY-10
  6
CONTINUOUS
 62
     7
100
AcDbLine
 10
511.2178422089401
 20
359.9999999999999
 30
0.0
 11
516.40251418727
 21
309.9999999999999
 31
0.0
  0
LINE
  5
181
330
1F
100
AcDbEntity
  8
LAY-10
  6
CONTINUOUS
 62
     7
100
AcDbLine
 10
516.0957025833497
 20
309.9999999999999
 30
0.0
 11
513.8411889738775
 21
334.7009379194852
 31
0.0
  0
LINE
  5
182
330
1F
100
AcDbEntity
  8
LAY-10
  6
CONTINUOUS
 62
     7
100
AcDbLine
 10
497.8047097830898
 20
359.9999999999999
 30
0.0
 11
504.60139926983
 21
359.9999999999999
 31
0.0
  0
LINE
  5
183
330
1F
100
AcDbEntity
  8
LAY-10
  6
CONTINUOUS
 62
     7
100
AcDbLine
 10
507.60139926983
 20
359.9999999999999
 30
0.0
 11
511.2178422089401
 21
359.9999999999999
 31
0.0
  0
LINE
  5
184
330
1F
100
AcDbEntity
  8
LAY-10
  6
CONTINUOUS
 62
     7
100
AcDbLine
 10
515.6393406393578
 20
314.9999999999999
 30
0.0
 11
515.8840469894368
 21
314.9999999999999
 31
0.0
  0
ARC
  5
185
330
1F
100
AcDbEntity
  8
LAY-10
  6
CONTINUOUS
 62
     7
100
AcDbCircle
 10
464.9999999999997
 20
367.5000000000017
 30
0.0
 40
3.000000000000002
100
AcDbArc
 50
90.0
 51
270.0
  0
LINE
  5
186
330
1F
100
AcDbEntity
  8
LAY-10
  6
CONTINUOUS
 62
     7
100
AcDbLine
 10
510.0000000000026
 20
364.4999999999998
 30
0.0
 11
510.0000000000026
 21
370.5
 31
0.0
  0
LINE
  5
187
330
1F
100
AcDbEntity
  8
LAY-10
  6
CONTINUOUS
 62
     7
100
AcDbLine
 10
521.5000000000005
 20
364.4999999999998
 30
0.0
 11
510.0000000000026
 21
364.4999999999998
 31
0.0
  0
LINE
  5
188
330
1F
100
AcDbEntity
  8
LAY-10
  6
CONTINUOUS
 62
     7
100
AcDbLine
 10
509.5000000000025
 20
369.9999999999996
 30
0.0
 11
509.5000000000025
 21
364.9999999999995
 31
0.0
  0
LINE
  5
189
330
1F
100
AcDbEntity
  8
LAY-10
  6
CONTINUOUS
 62
     7
100
AcDbLine
 10
521.5000000000005
 20
370.5
 30
0.0
 11
510.0000000000026
 21
370.5
 31
0.0
  0
LINE
  5
18A
330
1F
100
AcDbEntity
  8
LAY-10
  6
CONTINUOUS
 62
     7
100
AcDbLine
 10
509.5000000000025
 20
364.9999999999995
 30
0.0
 11
510.0000000000026
 21
364.4999999999998
 31
0.0
  0
LINE
  5
18B
330
1F
100
AcDbEntity
  8
LAY-10
  6
CONTINUOUS
 62
     7
100
AcDbLine
 10
509.5000000000025
 20
369.9999999999996
 30
0.0
 11
510.0000000000026
 21
370.5
 31
0.0
  0
ARC
  5
18C
330
1F
100
AcDbEntity
  8
LAY-10
  6
CONTINUOUS
 62
     7
100
AcDbCircle
 10
519.2000000000005
 20
367.4999999999998
 30
0.0
 40
6.300000000000004
100
AcDbArc
 50
5.465023799908667
 51
38.68218745349153
  0
ARC
  5
18D
330
1F
100
AcDbEntity
  8
LAY-10
  6
CONTINUOUS
 62
     7
100
AcDbCircle
 10
519.2000000000005
 20
367.4999999999998
 30
0.0
 40
6.300000000000004
100
AcDbArc
 50
321.3178125464982
 51
354.5349762000992
  0
LINE
  5
18E
330
1F
100
AcDbEntity
  8
LAY-10
  6
CONTINUOUS
 62
     7
100
AcDbLine
 10
525.4713634881005
 20
368.0999999999996
 30
0.0
 11
523.0000000000005
 21
368.0999999999996
 31
0.0
  0
LINE
  5
18F
330
1F
100
AcDbEntity
  8
LAY-10
  6
CONTINUOUS
 62
     7
100
AcDbLine
 10
523.0000000000005
 20
366.8999999999994
 30
0.0
 11
523.0000000000005
 21
368.0999999999996
 31
0.0
  0
LINE
  5
190
330
1F
100
AcDbEntity
  8
LAY-10
  6
CONTINUOUS
 62
     7
100
AcDbLine
 10
525.4713634881005
 20
366.8999999999994
 30
0.0
 11
523.0000000000005
 21
366.8999999999994
 31
0.0
  0
LINE
  5
191
330
1F
100
AcDbEntity
  8
LAY-10
  6
CONTINUOUS
 62
     7
100
AcDbLine
 10
521.5000000000005
 20
362.2518652430996
 30
0.0
 11
521.5000000000005
 21
372.7481347568998
 31
0.0
  0
ARC
  5
192
330
1F
100
AcDbEntity
  8
LAY-10
  6
CONTINUOUS
 62
     7
100
AcDbCircle
 10
521.3857492994002
 20
365.7499999999997
 30
0.0
 40
3.500000000000003
100
AcDbArc
 50
271.8706417306037
 51
321.3178125464987
  0
ARC
  5
193
330
1F
100
AcDbEntity
  8
LAY-10
  6
CONTINUOUS
 62
     7
100
AcDbCircle
 10
521.3857492994002
 20
369.2499999999998
 30
0.0
 40
3.500000000000003
100
AcDbArc
 50
38.68218745349554
 51
88.12935826941136
  0
LINE
  5
194
330
1F
100
AcDbEntity
  8
LAY-10
  6
CONTINUOUS
 62
     7
100
AcDbLine
 10
510.9779668817388
 20
375.0000000000018
 30
0.0
 11
511.5034880580673
 21
369.9999999999996
 31
0.0
  0
LINE
  5
195
330
1F
100
AcDbEntity
  8
LAY-10
  6
CONTINUOUS
 62
     7
100
AcDbLine
 10
512.0290092343955
 20
364.9999999999995
 30
0.0
 11
517.809742174006
 21
310.0000000000018
 31
0.0
  0
LINE
  5
196
330
1F
100
AcDbEntity
  8
LAY-10
  6
CONTINUOUS
 62
     7
100
AcDbLine
 10
515.5255211763213
 20
369.9999999999996
 30
0.0
 11
514.9999999999927
 21
375.0000000000018
 31
0.0
  0
LINE
  5
197
330
1F
100
AcDbEntity
  8
LAY-10
  6
CONTINUOUS
 62
     7
100
AcDbLine
 10
521.83177529226
 20
310.0000000000018
 30
0.0
 11
516.0510423526495
 21
364.9999999999995
 31
0.0
  0
LINE
  5
198
330
1F
100
AcDbEntity
  8
LAY-10
  6
CONTINUOUS
 62
     7
100
AcDbLine
 10
377.5000000000041
 20
317.9999999999981
 30
0.0
 11
409.0090585898643
 21
317.9999999999981
 31
0.0
  0
ARC
  5
199
330
1F
100
AcDbEntity
  8
LAY-10
  6
CONTINUOUS
 62
     7
100
AcDbCircle
 10
417.9410967985776
 20
316.9999999999981
 30
0.0
 40
1.0
100
AcDbArc
 50
90.0
 51
134.1225669099308
  0
LINE
  5
19A
330
1F
100
AcDbEntity
  8
LAY-10
  6
CONTINUOUS
 62
     7
100
AcDbLine
 10
416.9232565368334
 20
314.4670485968142
 30
0.0
 11
418.5182271779265
 21
314.4670485968142
 31
0.0
  0
ARC
  5
19B
330
1F
100
AcDbEntity
  8
LAY-10
  6
CONTINUOUS
 62
     7
100
AcDbCircle
 10
418.7947941035892
 20
316.9999999999981
 30
0.0
 40
1.0
100
AcDbArc
 50
35.11996783165836
 51
90.0
  0
ARC
  5
19C
330
1F
100
AcDbEntity
  8
LAY-10
  6
CONTINUOUS
 62
     7
100
AcDbCircle
 10
418.5182271779265
 20
315.4670485968143
 30
0.0
 40
1.0
100
AcDbArc
 50
270.0
 51
332.502462304484
  0
LINE
  5
19D
330
1F
100
AcDbEntity
  8
LAY-10
  6
CONTINUOUS
 62
     7
100
AcDbLine
 10
413.0310917081184
 20
317.9999999999981
 30
0.0
 11
413.1178828583888
 21
317.9999999999981
 31
0.0
  0
LINE
  5
19E
330
1F
100
AcDbEntity
  8
LAY-10
  6
CONTINUOUS
 62
     7
100
AcDbLine
 10
417.2728178012538
 20
317.9999999999981
 30
0.0
 11
419.6470323846378
 21
317.9999999999981
 31
0.0
  0
LINE
  5
19F
330
1F
100
AcDbEntity
  8
LAY-10
  6
CONTINUOUS
 62
     7
100
AcDbLine
 10
427.184355295477
 20
317.9999999999981
 30
0.0
 11
433.6120503882404
 21
317.9999999999981
 31
0.0
  0
ARC
  5
1A0
330
1F
100
AcDbEntity
  8
LAY-10
  6
CONTINUOUS
 62
     7
100
AcDbCircle
 10
443.4033751610637
 20
315.4670485968143
 30
0.0
 40
1.0
100
AcDbArc
 50
195.9014358486294
 51
207.8428844862594
  0
LINE
  5
1A1
330
1F
100
AcDbEntity
  8
LAY-10
  6
CONTINUOUS
 62
     7
100
AcDbLine
 10
450.9020025731465
 20
316.3797337663199
 30
0.0
 11
451.348329587939
 21
317.2028510472837
 31
0.0
  0
LINE
  5
1A2
330
1F
100
AcDbEntity
  8
LAY-10
  6
CONTINUOUS
 62
     7
100
AcDbLine
 10
440.7186025551782
 20
317.9999999999981
 30
0.0
 11
451.36291835182
 21
317.9999999999981
 31
0.0
  0
LINE
  5
1A3
330
1F
100
AcDbEntity
  8
LAY-10
  6
CONTINUOUS
 62
     7
100
AcDbLine
 10
459.2413803759176
 20
317.9999999999981
 30
0.0
 11
465.0000000000041
 21
317.9999999999981
 31
0.0
  0
ARC
  5
1A4
330
1F
100
AcDbEntity
  8
LAY-10
  6
CONTINUOUS
 62
     7
100
AcDbCircle
 10
479.2159090780268
 20
315.4670485968143
 30
0.0
 40
1.0
100
AcDbArc
 50
195.0369574922229
 51
207.8428844863802
  0
LINE
  5
1A5
330
1F
100
AcDbEntity
  8
LAY-10
  6
CONTINUOUS
 62
     7
100
AcDbLine
 10
480.0028471270406
 20
315.8564064605489
 30
0.0
 11
479.9770782778515
 21
315.8564064605489
 31
0.0
  0
LINE
  5
1A6
330
1F
100
AcDbEntity
  8
LAY-10
  6
CONTINUOUS
 62
     7
100
AcDbLine
 10
468.9999999999998
 20
317.9999999999981
 30
0.0
 11
479.9256512784511
 21
317.9999999999981
 31
0.0
  0
LINE
  5
1A7
330
1F
100
AcDbEntity
  8
LAY-10
  6
CONTINUOUS
 62
     7
100
AcDbLine
 10
487.9158004132361
 20
316.4477527763031
 30
0.0
 11
488.1511807607411
 21
317.2739833201169
 31
0.0
  0
LINE
  5
1A8
330
1F
100
AcDbEntity
  8
LAY-10
  6
CONTINUOUS
 62
     7
100
AcDbLine
 10
487.85984624001
 20
317.9999999999981
 30
0.0
 11
496.0510487335659
 21
317.9999999999981
 31
0.0
  0
LINE
  5
1A9
330
1F
100
AcDbEntity
  8
LAY-10
  6
CONTINUOUS
 62
     7
100
AcDbLine
 10
503.962384786462
 20
317.9999999999981
 30
0.0
 11
508.4312314467477
 21
317.9999999999981
 31
0.0
  0
LINE
  5
1AA
330
1F
100
AcDbEntity
  8
LAY-10
  6
CONTINUOUS
 62
     7
100
AcDbLine
 10
515.3655234729628
 20
317.9999999999981
 30
0.0
 11
515.5729666707374
 21
317.9999999999981
 31
0.0
  0
LINE
  5
1AB
330
1F
100
AcDbEntity
  8
LAY-10
  6
CONTINUOUS
 62
     7
100
AcDbLine
 10
515.7952432578757
 20
315.8564064605489
 30
0.0
 11
515.5611743759212
 21
315.8564064605489
 31
0.0
  0
LINE
  5
1AC
330
1F
100
AcDbEntity
  8
LAY-10
  6
CONTINUOUS
 62
     7
100
AcDbLine
 10
520.9909414101353
 20
317.9999999999981
 30
0.0
 11
552.500000000004
 21
317.9999999999981
 31
0.0
  0
LINE
  5
1AD
330
1F
100
AcDbEntity
  8
LAY-10
  6
CONTINUOUS
 62
     7
100
AcDbLine
 10
404.0000000000002
 20
306.5000000000026
 30
0.0
 11
398.0000000000001
 21
306.5000000000026
 31
0.0
  0
LINE
  5
1AE
330
1F
100
AcDbEntity
  8
LAY-10
  6
CONTINUOUS
 62
     7
100
AcDbLine
 10
404.0000000000002
 20
318.0000000000005
 30
0.0
 11
404.0000000000002
 21
306.5000000000026
 31
0.0
  0
LINE
  5
1AF
330
1F
100
AcDbEntity
  8
LAY-10
  6
CONTINUOUS
 62
     7
100
AcDbLine
 10
398.5000000000005
 20
306.0000000000026
 30
0.0
 11
403.5000000000005
 21
306.0000000000026
 31
0.0
  0
LINE
  5
1B0
330
1F
100
AcDbEntity
  8
LAY-10
  6
CONTINUOUS
 62
     7
100
AcDbLine
 10
398.0000000000001
 20
318.0000000000005
 30
0.0
 11
398.0000000000001
 21
306.5000000000026
 31
0.0
  0
LINE
  5
1B1
330
1F
100
AcDbEntity
  8
LAY-10
  6
CONTINUOUS
 62
     7
100
AcDbLine
 10
403.5000000000005
 20
306.0000000000026
 30
0.0
 11
404.0000000000002
 21
306.5000000000026
 31
0.0
  0
LINE
  5
1B2
330
1F
100
AcDbEntity
  8
LAY-10
  6
CONTINUOUS
 62
     7
100
AcDbLine
 10
398.5000000000005
 20
306.0000000000026
 30
0.0
 11
398.0000000000001
 21
306.5000000000026
 31
0.0
  0
ARC
  5
1B3
330
1F
100
AcDbEntity
  8
LAY-10
  6
CONTINUOUS
 62
     7
100
AcDbCircle
 10
401.0000000000002
 20
315.7000000000006
 30
0.0
 40
6.300000000000004
100
AcDbArc
 50
95.46502379990869
 51
128.6821874534916
  0
ARC
  5
1B4
330
1F
100
AcDbEntity
  8
LAY-10
  6
CONTINUOUS
 62
     7
100
AcDbCircle
 10
401.0000000000002
 20
315.7000000000006
 30
0.0
 40
6.300000000000004
100
AcDbArc
 50
51.31781254649853
 51
84.53497620009915
  0
LINE
  5
1B5
330
1F
100
AcDbEntity
  8
LAY-10
  6
CONTINUOUS
 62
     7
100
AcDbLine
 10
400.4000000000004
 20
321.9713634881005
 30
0.0
 11
400.4000000000004
 21
319.5000000000005
 31
0.0
  0
LINE
  5
1B6
330
1F
100
AcDbEntity
  8
LAY-10
  6
CONTINUOUS
 62
     7
100
AcDbLine
 10
401.6000000000007
 20
319.5000000000005
 30
0.0
 11
400.4000000000004
 21
319.5000000000005
 31
0.0
  0
LINE
  5
1B7
330
1F
100
AcDbEntity
  8
LAY-10
  6
CONTINUOUS
 62
     7
100
AcDbLine
 10
401.6000000000007
 20
321.9713634881005
 30
0.0
 11
401.6000000000007
 21
319.5000000000005
 31
0.0
  0
ARC
  5
1B8
330
1F
100
AcDbEntity
  8
LAY-10
  6
CONTINUOUS
 62
     7
100
AcDbCircle
 10
402.7500000000003
 20
317.8857492994002
 30
0.0
 40
3.500000000000003
100
AcDbArc
 50
1.870641730603566
 51
51.31781254649853
  0
ARC
  5
1B9
330
1F
100
AcDbEntity
  8
LAY-10
  6
CONTINUOUS
 62
     7
100
AcDbCircle
 10
399.2500000000003
 20
317.8857492994002
 30
0.0
 40
3.500000000000003
100
AcDbArc
 50
128.6821874534942
 51
178.1293582694104
  0
LINE
  5
1BA
330
1F
100
AcDbEntity
  8
LAY-10
  6
CONTINUOUS
 62
     7
100
AcDbLine
 10
397.9034008492033
 20
314.4670485968142
 30
0.0
 11
398.0000000000001
 21
314.4670485968142
 31
0.0
  0
LINE
  5
1BB
330
1F
100
AcDbEntity
  8
LAY-10
  6
CONTINUOUS
 62
     7
100
AcDbLine
 10
398.5000000000016
 20
302.4999999999999
 30
0.0
 11
398.5000000000016
 21
306.0000000000026
 31
0.0
  0
LINE
  5
1BC
330
1F
100
AcDbEntity
  8
LAY-10
  6
CONTINUOUS
 62
     7
100
AcDbLine
 10
403.5000000000012
 20
302.4999999999999
 30
0.0
 11
403.5000000000012
 21
306.0000000000026
 31
0.0
  0
LINE
  5
1BD
330
1F
100
AcDbEntity
  8
LAY-10
  6
CONTINUOUS
 62
     7
100
AcDbLine
 10
395.9192622342704
 20
309.999999999998
 30
0.0
 11
398.5000000000005
 21
309.999999999998
 31
0.0
  0
CIRCLE
  5
1BE
330
1F
100
AcDbEntity
  8
LAY-10
  6
CONTINUOUS
 62
     7
100
AcDbCircle
 10
465.0000000000041
 20
584.9999999999858
 30
0.0
 40
88.49999999999997
  0
LINE
  5
1BF
330
1F
100
AcDbEntity
  8
LAY-10
  6
CONTINUOUS
 62
     7
100
AcDbLine
 10
391.9013351947248
 20
599.381766361769
 30
0.0
 11
397.0024285909197
 21
598.4490943720357
 31
0.0
  0
LINE
  5
1C0
330
1F
100
AcDbEntity
  8
LAY-10
  6
CONTINUOUS
 62
     7
100
AcDbLine
 10
396.6333414594573
 20
597.4999999999857
 30
0.0
 11
397.0024285909197
 21
598.4490943720357
 31
0.0
  0
LINE
  5
1C1
330
1F
100
AcDbEntity
  8
LAY-10
  6
CONTINUOUS
 62
     7
100
AcDbLine
 10
392.6985697448937
 20
598.2194244604171
 30
0.0
 11
391.9013351947248
 21
599.381766361769
 31
0.0
  0
LINE
  5
1C2
330
1F
100
AcDbEntity
  8
LAY-10
  6
CONTINUOUS
 62
     7
100
AcDbLine
 10
392.6985697448937
 20
571.7805755395541
 30
0.0
 11
391.9013351947248
 21
570.6182336382026
 31
0.0
  0
LINE
  5
1C3
330
1F
100
AcDbEntity
  8
LAY-10
  6
CONTINUOUS
 62
     7
100
AcDbLine
 10
391.9013351947248
 20
570.6182336382026
 30
0.0
 11
397.0024285909197
 21
571.5509056279355
 31
0.0
  0
LINE
  5
1C4
330
1F
100
AcDbEntity
  8
LAY-10
  6
CONTINUOUS
 62
     7
100
AcDbLine
 10
396.6333414594573
 20
572.4999999999856
 30
0.0
 11
397.0024285909197
 21
571.5509056279355
 31
0.0
  0
ARC
  5
1C5
330
1F
100
AcDbEntity
  8
LAY-10
  6
CONTINUOUS
 62
     7
100
AcDbCircle
 10
465.0000000000041
 20
584.9999999999858
 30
0.0
 40
74.49999999999665
100
AcDbArc
 50
168.8695270057104
 51
191.1304729942897
  0
LINE
  5
1C6
330
1F
100
AcDbEntity
  8
LAY-10
  6
CONTINUOUS
 62
     7
100
AcDbLine
 10
408.8855824767983
 20
634.0043074232226
 30
0.0
 11
412.8369229501134
 21
630.6460430886184
 31
0.0
  0
LINE
  5
1C7
330
1F
100
AcDbEntity
  8
LAY-10
  6
CONTINUOUS
 62
     7
100
AcDbLine
 10
412.0427369320321
 20
630.0086468175655
 30
0.0
 11
412.8369229501134
 21
630.6460430886184
 31
0.0
  0
LINE
  5
1C8
330
1F
100
AcDbEntity
  8
LAY-10
  6
CONTINUOUS
 62
     7
100
AcDbLine
 10
408.9948368993433
 20
632.5990725336848
 30
0.0
 11
408.8855824767983
 21
634.0043074232226
 31
0.0
  0
LINE
  5
1C9
330
1F
100
AcDbEntity
  8
LAY-10
  6
CONTINUOUS
 62
     7
100
AcDbLine
 10
395.7754124389116
 20
609.7023577213986
 30
0.0
 11
394.5038161150151
 21
609.0943573820293
 31
0.0
  0
LINE
  5
1CA
330
1F
100
AcDbEntity
  8
LAY-10
  6
CONTINUOUS
 62
     7
100
AcDbLine
 10
394.5038161150151
 20
609.0943573820293
 30
0.0
 11
399.3878285780633
 21
607.3515283204391
 31
0.0
  0
LINE
  5
1CB
330
1F
100
AcDbEntity
  8
LAY-10
  6
CONTINUOUS
 62
     7
100
AcDbLine
 10
399.5427369320319
 20
608.3580117229544
 30
0.0
 11
399.3878285780633
 21
607.3515283204391
 31
0.0
  0
ARC
  5
1CC
330
1F
100
AcDbEntity
  8
LAY-10
  6
CONTINUOUS
 62
     7
100
AcDbCircle
 10
465.0000000000019
 20
584.9999999999861
 30
0.0
 40
74.49999999999665
100
AcDbArc
 50
138.8695270057102
 51
161.1304729942898
  0
LINE
  5
1CD
330
1F
100
AcDbEntity
  8
LAY-10
  6
CONTINUOUS
 62
     7
100
AcDbLine
 10
440.9056426179573
 20
655.4961838849704
 30
0.0
 11
442.6484716795477
 21
650.6121714219223
 31
0.0
  0
LINE
  5
1CE
330
1F
100
AcDbEntity
  8
LAY-10
  6
CONTINUOUS
 62
     7
100
AcDbLine
 10
441.6419882770324
 20
650.4572630679536
 30
0.0
 11
442.6484716795477
 21
650.6121714219223
 31
0.0
  0
LINE
  5
1CF
330
1F
100
AcDbEntity
  8
LAY-10
  6
CONTINUOUS
 62
     7
100
AcDbLine
 10
440.2976422785882
 20
654.2245875610738
 30
0.0
 11
440.9056426179573
 21
655.4961838849704
 31
0.0
  0
LINE
  5
1D0
330
1F
100
AcDbEntity
  8
LAY-10
  6
CONTINUOUS
 62
     7
100
AcDbLine
 10
417.4009274663021
 20
641.0051631006421
 30
0.0
 11
415.995692576764
 21
641.1144175231875
 31
0.0
  0
LINE
  5
1D1
330
1F
100
AcDbEntity
  8
LAY-10
  6
CONTINUOUS
 62
     7
100
AcDbLine
 10
415.995692576764
 20
641.1144175231875
 30
0.0
 11
419.3539569113684
 21
637.1630770498721
 31
0.0
  0
LINE
  5
1D2
330
1F
100
AcDbEntity
  8
LAY-10
  6
CONTINUOUS
 62
     7
100
AcDbLine
 10
419.9913531824213
 20
637.9572630679534
 30
0.0
 11
419.3539569113684
 21
637.1630770498721
 31
0.0
  0
ARC
  5
1D3
330
1F
100
AcDbEntity
  8
LAY-10
  6
CONTINUOUS
 62
     7
100
AcDbCircle
 10
465.0000000000002
 20
584.9999999999834
 30
0.0
 40
74.49999999999665
100
AcDbArc
 50
108.86952700571
 51
131.1304729942898
  0
LINE
  5
1D4
330
1F
100
AcDbEntity
  8
LAY-10
  6
CONTINUOUS
 62
     7
100
AcDbLine
 10
479.3817663617795
 20
658.0986648052614
 30
0.0
 11
478.4490943720463
 21
652.9975714090663
 31
0.0
  0
LINE
  5
1D5
330
1F
100
AcDbEntity
  8
LAY-10
  6
CONTINUOUS
 62
     7
100
AcDbLine
 10
477.4999999999965
 20
653.3666585405286
 30
0.0
 11
478.4490943720463
 21
652.9975714090663
 31
0.0
  0
LINE
  5
1D6
330
1F
100
AcDbEntity
  8
LAY-10
  6
CONTINUOUS
 62
     7
100
AcDbLine
 10
478.2194244604279
 20
657.3014302550924
 30
0.0
 11
479.3817663617795
 21
658.0986648052614
 31
0.0
  0
LINE
  5
1D7
330
1F
100
AcDbEntity
  8
LAY-10
  6
CONTINUOUS
 62
     7
100
AcDbLine
 10
451.7805755395649
 20
657.3014302550924
 30
0.0
 11
450.6182336382134
 21
658.0986648052614
 31
0.0
  0
LINE
  5
1D8
330
1F
100
AcDbEntity
  8
LAY-10
  6
CONTINUOUS
 62
     7
100
AcDbLine
 10
450.6182336382134
 20
658.0986648052614
 30
0.0
 11
451.5509056279463
 21
652.9975714090663
 31
0.0
  0
LINE
  5
1D9
330
1F
100
AcDbEntity
  8
LAY-10
  6
CONTINUOUS
 62
     7
100
AcDbLine
 10
452.4999999999962
 20
653.3666585405286
 30
0.0
 11
451.5509056279463
 21
652.9975714090663
 31
0.0
  0
ARC
  5
1DA
330
1F
100
AcDbEntity
  8
LAY-10
  6
CONTINUOUS
 62
     7
100
AcDbCircle
 10
464.9999999999964
 20
584.999999999982
 30
0.0
 40
74.49999999999665
100
AcDbArc
 50
78.86952700571
 51
101.1304729942896
  0
LINE
  5
1DB
330
1F
100
AcDbEntity
  8
LAY-10
  6
CONTINUOUS
 62
     7
100
AcDbLine
 10
408.8855824767983
 20
535.9956925767486
 30
0.0
 11
412.8369229501134
 21
539.3539569113532
 31
0.0
  0
LINE
  5
1DC
330
1F
100
AcDbEntity
  8
LAY-10
  6
CONTINUOUS
 62
     7
100
AcDbLine
 10
412.0427369320321
 20
539.9913531824061
 30
0.0
 11
412.8369229501134
 21
539.3539569113532
 31
0.0
  0
LINE
  5
1DD
330
1F
100
AcDbEntity
  8
LAY-10
  6
CONTINUOUS
 62
     7
100
AcDbLine
 10
408.9948368993433
 20
537.4009274662868
 30
0.0
 11
408.8855824767983
 21
535.9956925767486
 31
0.0
  0
LINE
  5
1DE
330
1F
100
AcDbEntity
  8
LAY-10
  6
CONTINUOUS
 62
     7
100
AcDbLine
 10
395.7754124389116
 20
560.297642278573
 30
0.0
 11
394.5038161150151
 21
560.9056426179419
 31
0.0
  0
LINE
  5
1DF
330
1F
100
AcDbEntity
  8
LAY-10
  6
CONTINUOUS
 62
     7
100
AcDbLine
 10
394.5038161150151
 20
560.9056426179419
 30
0.0
 11
399.3878285780633
 21
562.6484716795325
 31
0.0
  0
LINE
  5
1E0
330
1F
100
AcDbEntity
  8
LAY-10
  6
CONTINUOUS
 62
     7
100
AcDbLine
 10
399.5427369320319
 20
561.6419882770172
 30
0.0
 11
399.3878285780633
 21
562.6484716795325
 31
0.0
  0
ARC
  5
1E1
330
1F
100
AcDbEntity
  8
LAY-10
  6
CONTINUOUS
 62
     7
100
AcDbCircle
 10
465.0000000000019
 20
584.9999999999851
 30
0.0
 40
74.49999999999665
100
AcDbArc
 50
198.8695270057101
 51
221.1304729942903
  0
LINE
  5
1E2
330
1F
100
AcDbEntity
  8
LAY-10
  6
CONTINUOUS
 62
     7
100
AcDbLine
 10
440.9056426179573
 20
514.5038161150009
 30
0.0
 11
442.6484716795477
 21
519.3878285780493
 31
0.0
  0
LINE
  5
1E3
330
1F
100
AcDbEntity
  8
LAY-10
  6
CONTINUOUS
 62
     7
100
AcDbLine
 10
441.6419882770324
 20
519.542736932018
 30
0.0
 11
442.6484716795477
 21
519.3878285780493
 31
0.0
  0
LINE
  5
1E4
330
1F
100
AcDbEntity
  8
LAY-10
  6
CONTINUOUS
 62
     7
100
AcDbLine
 10
440.2976422785882
 20
515.7754124388978
 30
0.0
 11
440.9056426179573
 21
514.5038161150009
 31
0.0
  0
LINE
  5
1E5
330
1F
100
AcDbEntity
  8
LAY-10
  6
CONTINUOUS
 62
     7
100
AcDbLine
 10
417.4009274663021
 20
528.9948368993291
 30
0.0
 11
415.995692576764
 21
528.8855824767841
 31
0.0
  0
LINE
  5
1E6
330
1F
100
AcDbEntity
  8
LAY-10
  6
CONTINUOUS
 62
     7
100
AcDbLine
 10
415.995692576764
 20
528.8855824767841
 30
0.0
 11
419.3539569113684
 21
532.8369229500992
 31
0.0
  0
LINE
  5
1E7
330
1F
100
AcDbEntity
  8
LAY-10
  6
CONTINUOUS
 62
     7
100
AcDbLine
 10
419.9913531824213
 20
532.0427369320179
 30
0.0
 11
419.3539569113684
 21
532.8369229500992
 31
0.0
  0
ARC
  5
1E8
330
1F
100
AcDbEntity
  8
LAY-10
  6
CONTINUOUS
 62
     7
100
AcDbCircle
 10
465.0000000000002
 20
584.9999999999878
 30
0.0
 40
74.49999999999665
100
AcDbArc
 50
228.8695270057104
 51
251.1304729942899
  0
ARC
  5
1E9
330
1F
100
AcDbEntity
  8
LAY-10
  6
CONTINUOUS
 62
     7
100
AcDbCircle
 10
465.0000000000041
 20
584.9999999999858
 30
0.0
 40
69.31484586264224
100
AcDbArc
 50
191.1880095547959
 51
198.8119904452045
  0
ARC
  5
1EA
330
1F
100
AcDbEntity
  8
LAY-10
  6
CONTINUOUS
 62
     7
100
AcDbCircle
 10
465.0000000000041
 20
584.9999999999858
 30
0.0
 40
69.31484586264224
100
AcDbArc
 50
221.1880095547949
 51
228.8119904452008
  0
ARC
  5
1EB
330
1F
100
AcDbEntity
  8
LAY-10
  6
CONTINUOUS
 62
     7
100
AcDbCircle
 10
465.0000000000041
 20
584.9999999999858
 30
0.0
 40
69.31484586264224
100
AcDbArc
 50
161.1880095547956
 51
168.8119904452042
  0
ARC
  5
1EC
330
1F
100
AcDbEntity
  8
LAY-10
  6
CONTINUOUS
 62
     7
100
AcDbCircle
 10
465.0000000000041
 20
584.9999999999858
 30
0.0
 40
69.31484586264224
100
AcDbArc
 50
131.1880095547995
 51
138.8119904452055
  0
ARC
  5
1ED
330
1F
100
AcDbEntity
  8
LAY-10
  6
CONTINUOUS
 62
     7
100
AcDbCircle
 10
465.0000000000041
 20
584.9999999999858
 30
0.0
 40
69.31484586264224
100
AcDbArc
 50
101.1880095547921
 51
108.8119904452117
  0
ARC
  5
1EE
330
1F
100
AcDbEntity
  8
LAY-10
  6
CONTINUOUS
 62
     7
100
AcDbCircle
 10
452.9453650293158
 20
656.4908090296977
 30
0.0
 40
1.0
100
AcDbArc
 50
99.57106735753726
 51
190.3613790322814
  0
ARC
  5
1EF
330
1F
100
AcDbEntity
  8
LAY-10
  6
CONTINUOUS
 62
     7
100
AcDbCircle
 10
464.9999999999964
 20
584.999999999982
 30
0.0
 40
73.49999999999767
100
AcDbArc
 50
80.42893264246212
 51
99.57106735753766
  0
ARC
  5
1F0
330
1F
100
AcDbEntity
  8
LAY-10
  6
CONTINUOUS
 62
     7
100
AcDbCircle
 10
477.0546349706767
 20
656.4908090296977
 30
0.0
 40
1.0
100
AcDbArc
 50
349.6386209677181
 51
80.42893264245312
  0
LINE
  5
1F1
330
1F
100
AcDbEntity
  8
LAY-10
  6
CONTINUOUS
 62
     7
100
AcDbLine
 10
477.678580475653
 20
654.3433745726261
 30
0.0
 11
478.0383278993178
 21
656.31095291459
 31
0.0
  0
ARC
  5
1F2
330
1F
100
AcDbEntity
  8
LAY-10
  6
CONTINUOUS
 62
     7
100
AcDbCircle
 10
476.6948875470118
 20
654.5232306877342
 30
0.0
 40
1.0
100
AcDbArc
 50
260.4513543149243
 51
349.6386209676988
  0
ARC
  5
1F3
330
1F
100
AcDbEntity
  8
LAY-10
  6
CONTINUOUS
 62
     7
100
AcDbCircle
 10
464.9999999999964
 20
584.999999999982
 30
0.0
 40
69.49999999999814
100
AcDbArc
 50
80.4513543149172
 51
99.54864568508299
  0
LINE
  5
1F4
330
1F
100
AcDbEntity
  8
LAY-10
  6
CONTINUOUS
 62
     7
100
AcDbLine
 10
451.9616721006749
 20
656.31095291459
 30
0.0
 11
452.3214195243399
 21
654.3433745726261
 31
0.0
  0
ARC
  5
1F5
330
1F
100
AcDbEntity
  8
LAY-10
  6
CONTINUOUS
 62
     7
100
AcDbCircle
 10
453.3051124529808
 20
654.5232306877342
 30
0.0
 40
1.0
100
AcDbArc
 50
190.3613790323012
 51
279.5486456850854
  0
ARC
  5
1F6
330
1F
100
AcDbEntity
  8
LAY-10
  6
CONTINUOUS
 62
     7
100
AcDbCircle
 10
439.6942156031
 20
652.9401742421597
 30
0.0
 40
1.0
100
AcDbArc
 50
19.63862096770992
 51
110.4289326424692
  0
LINE
  5
1F7
330
1F
100
AcDbEntity
  8
LAY-10
  6
CONTINUOUS
 62
     7
100
AcDbLine
 10
441.3082854895222
 20
651.3924142018616
 30
0.0
 11
440.6360467263802
 21
653.2762607417708
 31
0.0
  0
ARC
  5
1F8
330
1F
100
AcDbEntity
  8
LAY-10
  6
CONTINUOUS
 62
     7
100
AcDbCircle
 10
440.366454366242
 20
651.0563277022505
 30
0.0
 40
1.0
100
AcDbArc
 50
290.4513543149189
 51
19.63862096770992
  0
ARC
  5
1F9
330
1F
100
AcDbEntity
  8
LAY-10
  6
CONTINUOUS
 62
     7
100
AcDbCircle
 10
465.0000000000002
 20
584.9999999999834
 30
0.0
 40
69.49999999999814
100
AcDbArc
 50
110.4513543149173
 51
129.5486456850829
  0
ARC
  5
1FA
330
1F
100
AcDbEntity
  8
LAY-10
  6
CONTINUOUS
 62
     7
100
AcDbCircle
 10
420.1103149460065
 20
639.361440155235
 30
0.0
 40
1.0
100
AcDbArc
 50
220.3613790322875
 51
309.5486456850713
  0
LINE
  5
1FB
330
1F
100
AcDbEntity
  8
LAY-10
  6
CONTINUOUS
 62
     7
100
AcDbLine
 10
418.0530003590126
 20
640.2379328424493
 30
0.0
 11
419.3483399378342
 21
638.713833726205
 31
0.0
  0
ARC
  5
1FC
330
1F
100
AcDbEntity
  8
LAY-10
  6
CONTINUOUS
 62
     7
100
AcDbCircle
 10
465.0000000000002
 20
584.9999999999834
 30
0.0
 40
73.49999999999767
100
AcDbArc
 50
110.428932642462
 51
129.5710673575381
  0
ARC
  5
1FD
330
1F
100
AcDbEntity
  8
LAY-10
  6
CONTINUOUS
 62
     7
100
AcDbCircle
 10
418.8149753671848
 20
640.8855392714792
 30
0.0
 40
1.0
100
AcDbArc
 50
129.5710673575334
 51
220.3613790322875
  0
ARC
  5
1FE
330
1F
100
AcDbEntity
  8
LAY-10
  6
CONTINUOUS
 62
     7
100
AcDbCircle
 10
409.1144607285063
 20
631.185024632802
 30
0.0
 40
1.0
100
AcDbArc
 50
49.63862096771256
 51
140.4289326424763
  0
LINE
  5
1FF
330
1F
100
AcDbEntity
  8
LAY-10
  6
CONTINUOUS
 62
     7
100
AcDbLine
 10
411.2861662737804
 20
630.6516600621526
 30
0.0
 11
409.7620671575362
 21
631.9469996409742
 31
0.0
  0
ARC
  5
200
330
1F
100
AcDbEntity
  8
LAY-10
  6
CONTINUOUS
 62
     7
100
AcDbCircle
 10
410.6385598447505
 20
629.88968505398
 30
0.0
 40
1.0
100
AcDbArc
 50
320.4513543149287
 51
49.63862096771256
  0
ARC
  5
201
330
1F
100
AcDbEntity
  8
LAY-10
  6
CONTINUOUS
 62
     7
100
AcDbCircle
 10
465.0000000000019
 20
584.9999999999861
 30
0.0
 40
73.49999999999767
100
AcDbArc
 50
140.428932642462
 51
159.571067357538
  0
ARC
  5
202
330
1F
100
AcDbEntity
  8
LAY-10
  6
CONTINUOUS
 62
     7
100
AcDbCircle
 10
397.0598257578259
 20
610.3057843968867
 30
0.0
 40
1.0
100
AcDbArc
 50
159.5710673575411
 51
250.3613790322902
  0
LINE
  5
203
330
1F
100
AcDbEntity
  8
LAY-10
  6
CONTINUOUS
 62
     7
100
AcDbLine
 10
396.7237392582147
 20
609.3639532736066
 30
0.0
 11
398.6075857981239
 21
608.6917145104644
 31
0.0
  0
ARC
  5
204
330
1F
100
AcDbEntity
  8
LAY-10
  6
CONTINUOUS
 62
     7
100
AcDbCircle
 10
465.0000000000019
 20
584.9999999999861
 30
0.0
 40
69.49999999999814
100
AcDbArc
 50
140.4513543149172
 51
159.5486456850828
  0
ARC
  5
205
330
1F
100
AcDbEntity
  8
LAY-10
  6
CONTINUOUS
 62
     7
100
AcDbCircle
 10
398.9436722977351
 20
609.6335456337448
 30
0.0
 40
1.0
100
AcDbArc
 50
250.3613790322902
 51
339.5486456850824
  0
ARC
  5
206
330
1F
100
AcDbEntity
  8
LAY-10
  6
CONTINUOUS
 62
     7
100
AcDbCircle
 10
393.5091909702884
 20
597.054634970666
 30
0.0
 40
1.0
100
AcDbArc
 50
79.63862096771922
 51
170.4289326424532
  0
LINE
  5
207
330
1F
100
AcDbEntity
  8
LAY-10
  6
CONTINUOUS
 62
     7
100
AcDbLine
 10
395.6566254273599
 20
597.6785804756423
 30
0.0
 11
393.6890470853962
 21
598.0383278993073
 31
0.0
  0
ARC
  5
208
330
1F
100
AcDbEntity
  8
LAY-10
  6
CONTINUOUS
 62
     7
100
AcDbCircle
 10
395.4767693122521
 20
596.6948875470014
 30
0.0
 40
1.0
100
AcDbArc
 50
350.4513543149147
 51
79.63862096771922
  0
ARC
  5
209
330
1F
100
AcDbEntity
  8
LAY-10
  6
CONTINUOUS
 62
     7
100
AcDbCircle
 10
465.0000000000041
 20
584.9999999999858
 30
0.0
 40
73.49999999999767
100
AcDbArc
 50
170.4289326424624
 51
189.5710673575379
  0
ARC
  5
20A
330
1F
100
AcDbEntity
  8
LAY-10
  6
CONTINUOUS
 62
     7
100
AcDbCircle
 10
393.5091909702882
 20
572.9453650293052
 30
0.0
 40
1.0
100
AcDbArc
 50
189.5710673575266
 51
280.3613790322917
  0
LINE
  5
20B
330
1F
100
AcDbEntity
  8
LAY-10
  6
CONTINUOUS
 62
     7
100
AcDbLine
 10
393.6890470853962
 20
571.9616721006643
 30
0.0
 11
395.6566254273599
 21
572.3214195243293
 31
0.0
  0
ARC
  5
20C
330
1F
100
AcDbEntity
  8
LAY-10
  6
CONTINUOUS
 62
     7
100
AcDbCircle
 10
465.0000000000041
 20
584.9999999999858
 30
0.0
 40
69.49999999999814
100
AcDbArc
 50
170.4513543149171
 51
189.5486456850828
  0
ARC
  5
20D
330
1F
100
AcDbEntity
  8
LAY-10
  6
CONTINUOUS
 62
     7
100
AcDbCircle
 10
395.4767693122521
 20
573.3051124529702
 30
0.0
 40
1.0
100
AcDbArc
 50
280.3613790322809
 51
9.548645685085296
  0
ARC
  5
20E
330
1F
100
AcDbEntity
  8
LAY-10
  6
CONTINUOUS
 62
     7
100
AcDbCircle
 10
397.0598257578259
 20
559.6942156030846
 30
0.0
 40
1.0
100
AcDbArc
 50
109.6386209677213
 51
200.428932642459
  0
LINE
  5
20F
330
1F
100
AcDbEntity
  8
LAY-10
  6
CONTINUOUS
 62
     7
100
AcDbLine
 10
396.7237392582147
 20
560.6360467263646
 30
0.0
 11
398.6075857981239
 21
561.3082854895068
 31
0.0
  0
ARC
  5
210
330
1F
100
AcDbEntity
  8
LAY-10
  6
CONTINUOUS
 62
     7
100
AcDbCircle
 10
398.9436722977351
 20
560.3664543662268
 30
0.0
 40
1.0
100
AcDbArc
 50
20.45135431491769
 51
109.6386209677213
  0
ARC
  5
211
330
1F
100
AcDbEntity
  8
LAY-10
  6
CONTINUOUS
 62
     7
100
AcDbCircle
 10
465.0000000000019
 20
584.9999999999851
 30
0.0
 40
73.49999999999767
100
AcDbArc
 50
200.4289326424621
 51
219.571067357538
  0
ARC
  5
212
330
1F
100
AcDbEntity
  8
LAY-10
  6
CONTINUOUS
 62
     7
100
AcDbCircle
 10
409.1144607285063
 20
538.8149753671696
 30
0.0
 40
1.0
100
AcDbArc
 50
219.5710673575471
 51
310.3613790322874
  0
LINE
  5
213
330
1F
100
AcDbEntity
  8
LAY-10
  6
CONTINUOUS
 62
     7
100
AcDbLine
 10
411.2861662737804
 20
539.348339937819
 30
0.0
 11
409.7620671575362
 21
538.0530003589973
 31
0.0
  0
ARC
  5
214
330
1F
100
AcDbEntity
  8
LAY-10
  6
CONTINUOUS
 62
     7
100
AcDbCircle
 10
465.0000000000019
 20
584.9999999999851
 30
0.0
 40
69.49999999999814
100
AcDbArc
 50
200.4513543149172
 51
219.5486456850833
  0
ARC
  5
215
330
1F
100
AcDbEntity
  8
LAY-10
  6
CONTINUOUS
 62
     7
100
AcDbCircle
 10
410.6385598447505
 20
540.1103149459913
 30
0.0
 40
1.0
100
AcDbArc
 50
310.3613790322874
 51
39.54864568507127
  0
ARC
  5
216
330
1F
100
AcDbEntity
  8
LAY-10
  6
CONTINUOUS
 62
     7
100
AcDbCircle
 10
418.8149753671848
 20
529.1144607284921
 30
0.0
 40
1.0
100
AcDbArc
 50
139.6386209677126
 51
230.4289326424509
  0
LINE
  5
217
330
1F
100
AcDbEntity
  8
LAY-10
  6
CONTINUOUS
 62
     7
100
AcDbLine
 10
418.0530003590126
 20
529.762067157522
 30
0.0
 11
419.3483399378342
 21
531.2861662737662
 31
0.0
  0
ARC
  5
218
330
1F
100
AcDbEntity
  8
LAY-10
  6
CONTINUOUS
 62
     7
100
AcDbCircle
 10
420.1103149460065
 20
530.6385598447366
 30
0.0
 40
1.0
100
AcDbArc
 50
50.45135431490127
 51
139.6386209677289
  0
ARC
  5
219
330
1F
100
AcDbEntity
  8
LAY-10
  6
CONTINUOUS
 62
     7
100
AcDbCircle
 10
465.0000000000002
 20
584.9999999999878
 30
0.0
 40
73.49999999999767
100
AcDbArc
 50
230.4289326424625
 51
249.5710673575383
  0
ARC
  5
21A
330
1F
100
AcDbEntity
  8
LAY-10
  6
CONTINUOUS
 62
     7
100
AcDbCircle
 10
439.6942156031
 20
517.0598257578118
 30
0.0
 40
1.0
100
AcDbArc
 50
249.57106735754
 51
340.3613790322901
  0
ARC
  5
21B
330
1F
100
AcDbEntity
  8
LAY-10
  6
CONTINUOUS
 62
     7
100
AcDbCircle
 10
465.0000000000002
 20
584.9999999999878
 30
0.0
 40
69.49999999999814
100
AcDbArc
 50
230.4513543149172
 51
249.5486456850832
  0
LINE
  5
21C
330
1F
100
AcDbEntity
  8
LAY-10
  6
CONTINUOUS
 62
     7
100
AcDbLine
 10
441.3082854895222
 20
518.60758579811
 30
0.0
 11
440.6360467263802
 21
516.7237392582008
 31
0.0
  0
ARC
  5
21D
330
1F
100
AcDbEntity
  8
LAY-10
  6
CONTINUOUS
 62
     7
100
AcDbCircle
 10
440.366454366242
 20
518.943672297721
 30
0.0
 40
1.0
100
AcDbArc
 50
340.3613790322901
 51
69.54864568506056
  0
LINE
  5
21E
330
1F
100
AcDbEntity
  8
LAY-10
  6
CONTINUOUS
 62
     7
100
AcDbLine
 10
396.1803201819606
 20
590.9999999999902
 30
0.0
 11
396.8438695736171
 21
591.5999999999904
 31
0.0
  0
LINE
  5
21F
330
1F
100
AcDbEntity
  8
LAY-10
  6
CONTINUOUS
 62
     7
100
AcDbLine
 10
396.1803201819606
 20
578.9999999999902
 30
0.0
 11
396.8438695736161
 21
578.3999999999901
 31
0.0
  0
ARC
  5
220
330
1F
100
AcDbEntity
  8
LAY-10
  6
CONTINUOUS
 62
     7
100
AcDbCircle
 10
465.0000000000039
 20
584.9999999999899
 30
0.0
 40
69.08073776573337
100
AcDbArc
 50
86.68053083780076
 51
93.31946916219886
  0
LINE
  5
221
330
1F
100
AcDbEntity
  8
LAY-10
  6
CONTINUOUS
 62
     7
100
AcDbLine
 10
460.4000000000045
 20
653.3202613775503
 30
0.0
 11
461.0000000000041
 21
653.9648340116659
 31
0.0
  0
LINE
  5
222
330
1F
100
AcDbEntity
  8
LAY-10
  6
CONTINUOUS
 62
     7
100
AcDbLine
 10
469.6000000000037
 20
653.3202613775503
 30
0.0
 11
469.000000000004
 21
653.9648340116659
 31
0.0
  0
ARC
  5
223
330
1F
100
AcDbEntity
  8
LAY-10
  6
CONTINUOUS
 62
     7
100
AcDbCircle
 10
465.0000000000041
 20
584.9999999999858
 30
0.0
 40
68.47494516024643
100
AcDbArc
 50
93.85190852405479
 51
174.4689240316581
  0
CIRCLE
  5
224
330
1F
100
AcDbEntity
  8
LAY-10
  6
CONTINUOUS
 62
     7
100
AcDbCircle
 10
465.0000000000041
 20
584.9999999999858
 30
0.0
 40
82.49999999999818
  0
CIRCLE
  5
225
330
1F
100
AcDbEntity
  8
LAY-10
  6
CONTINUOUS
 62
     7
100
AcDbCircle
 10
465.0000000000041
 20
584.9999999999858
 30
0.0
 40
87.49999999999997
  0
LINE
  5
226
330
1F
100
AcDbEntity
  8
LAY-10
  6
CONTINUOUS
 62
     7
100
AcDbLine
 10
538.0986648052751
 20
599.381766361769
 30
0.0
 11
532.9975714090801
 21
598.4490943720357
 31
0.0
  0
LINE
  5
227
330
1F
100
AcDbEntity
  8
LAY-10
  6
CONTINUOUS
 62
     7
100
AcDbLine
 10
533.3666585405425
 20
597.4999999999857
 30
0.0
 11
532.9975714090801
 21
598.4490943720357
 31
0.0
  0
LINE
  5
228
330
1F
100
AcDbEntity
  8
LAY-10
  6
CONTINUOUS
 62
     7
100
AcDbLine
 10
537.3014302551062
 20
598.2194244604171
 30
0.0
 11
538.0986648052751
 21
599.381766361769
 31
0.0
  0
LINE
  5
229
330
1F
100
AcDbEntity
  8
LAY-10
  6
CONTINUOUS
 62
     7
100
AcDbLine
 10
537.3014302551062
 20
571.7805755395541
 30
0.0
 11
538.0986648052751
 21
570.6182336382026
 31
0.0
  0
LINE
  5
22A
330
1F
100
AcDbEntity
  8
LAY-10
  6
CONTINUOUS
 62
     7
100
AcDbLine
 10
538.0986648052751
 20
570.6182336382026
 30
0.0
 11
532.9975714090801
 21
571.5509056279355
 31
0.0
  0
LINE
  5
22B
330
1F
100
AcDbEntity
  8
LAY-10
  6
CONTINUOUS
 62
     7
100
AcDbLine
 10
533.3666585405425
 20
572.4999999999856
 30
0.0
 11
532.9975714090801
 21
571.5509056279355
 31
0.0
  0
ARC
  5
22C
330
1F
100
AcDbEntity
  8
LAY-10
  6
CONTINUOUS
 62
     7
100
AcDbCircle
 10
464.9999999999957
 20
584.9999999999858
 30
0.0
 40
74.49999999999665
100
AcDbArc
 50
348.8695270057107
 51
11.13047299428986
  0
LINE
  5
22D
330
1F
100
AcDbEntity
  8
LAY-10
  6
CONTINUOUS
 62
     7
100
AcDbLine
 10
521.1144175232017
 20
634.0043074232226
 30
0.0
 11
517.1630770498865
 21
630.6460430886184
 31
0.0
  0
LINE
  5
22E
330
1F
100
AcDbEntity
  8
LAY-10
  6
CONTINUOUS
 62
     7
100
AcDbLine
 10
517.9572630679679
 20
630.0086468175655
 30
0.0
 11
517.1630770498865
 21
630.6460430886184
 31
0.0
  0
LINE
  5
22F
330
1F
100
AcDbEntity
  8
LAY-10
  6
CONTINUOUS
 62
     7
100
AcDbLine
 10
521.0051631006567
 20
632.5990725336848
 30
0.0
 11
521.1144175232017
 21
634.0043074232226
 31
0.0
  0
LINE
  5
230
330
1F
100
AcDbEntity
  8
LAY-10
  6
CONTINUOUS
 62
     7
100
AcDbLine
 10
534.2245875610882
 20
609.7023577213986
 30
0.0
 11
535.4961838849848
 21
609.0943573820293
 31
0.0
  0
LINE
  5
231
330
1F
100
AcDbEntity
  8
LAY-10
  6
CONTINUOUS
 62
     7
100
AcDbLine
 10
535.4961838849848
 20
609.0943573820293
 30
0.0
 11
530.6121714219365
 21
607.3515283204391
 31
0.0
  0
LINE
  5
232
330
1F
100
AcDbEntity
  8
LAY-10
  6
CONTINUOUS
 62
     7
100
AcDbLine
 10
530.457263067968
 20
608.3580117229544
 30
0.0
 11
530.6121714219365
 21
607.3515283204391
 31
0.0
  0
ARC
  5
233
330
1F
100
AcDbEntity
  8
LAY-10
  6
CONTINUOUS
 62
     7
100
AcDbCircle
 10
464.999999999998
 20
584.9999999999861
 30
0.0
 40
74.49999999999665
100
AcDbArc
 50
18.86952700571038
 51
41.1304729942897
  0
LINE
  5
234
330
1F
100
AcDbEntity
  8
LAY-10
  6
CONTINUOUS
 62
     7
100
AcDbLine
 10
489.0943573820425
 20
655.4961838849704
 30
0.0
 11
487.3515283204521
 21
650.6121714219223
 31
0.0
  0
LINE
  5
235
330
1F
100
AcDbEntity
  8
LAY-10
  6
CONTINUOUS
 62
     7
100
AcDbLine
 10
488.3580117229674
 20
650.4572630679536
 30
0.0
 11
487.3515283204521
 21
650.6121714219223
 31
0.0
  0
LINE
  5
236
330
1F
100
AcDbEntity
  8
LAY-10
  6
CONTINUOUS
 62
     7
100
AcDbLine
 10
489.7023577214116
 20
654.2245875610738
 30
0.0
 11
489.0943573820425
 21
655.4961838849704
 31
0.0
  0
LINE
  5
237
330
1F
100
AcDbEntity
  8
LAY-10
  6
CONTINUOUS
 62
     7
100
AcDbLine
 10
512.599072533698
 20
641.0051631006421
 30
0.0
 11
514.0043074232358
 21
641.1144175231875
 31
0.0
  0
LINE
  5
238
330
1F
100
AcDbEntity
  8
LAY-10
  6
CONTINUOUS
 62
     7
100
AcDbLine
 10
514.0043074232358
 20
641.1144175231875
 30
0.0
 11
510.6460430886314
 21
637.1630770498721
 31
0.0
  0
LINE
  5
239
330
1F
100
AcDbEntity
  8
LAY-10
  6
CONTINUOUS
 62
     7
100
AcDbLine
 10
510.0086468175787
 20
637.9572630679534
 30
0.0
 11
510.6460430886314
 21
637.1630770498721
 31
0.0
  0
ARC
  5
23A
330
1F
100
AcDbEntity
  8
LAY-10
  6
CONTINUOUS
 62
     7
100
AcDbCircle
 10
464.9999999999997
 20
584.9999999999834
 30
0.0
 40
74.49999999999665
100
AcDbArc
 50
48.86952700571057
 51
71.13047299429006
  0
LINE
  5
23B
330
1F
100
AcDbEntity
  8
LAY-10
  6
CONTINUOUS
 62
     7
100
AcDbLine
 10
521.1144175232017
 20
535.9956925767486
 30
0.0
 11
517.1630770498865
 21
539.3539569113532
 31
0.0
  0
LINE
  5
23C
330
1F
100
AcDbEntity
  8
LAY-10
  6
CONTINUOUS
 62
     7
100
AcDbLine
 10
517.9572630679679
 20
539.9913531824061
 30
0.0
 11
517.1630770498865
 21
539.3539569113532
 31
0.0
  0
LINE
  5
23D
330
1F
100
AcDbEntity
  8
LAY-10
  6
CONTINUOUS
 62
     7
100
AcDbLine
 10
521.0051631006567
 20
537.4009274662868
 30
0.0
 11
521.1144175232017
 21
535.9956925767486
 31
0.0
  0
LINE
  5
23E
330
1F
100
AcDbEntity
  8
LAY-10
  6
CONTINUOUS
 62
     7
100
AcDbLine
 10
534.2245875610882
 20
560.297642278573
 30
0.0
 11
535.4961838849848
 21
560.9056426179419
 31
0.0
  0
LINE
  5
23F
330
1F
100
AcDbEntity
  8
LAY-10
  6
CONTINUOUS
 62
     7
100
AcDbLine
 10
535.4961838849848
 20
560.9056426179419
 30
0.0
 11
530.6121714219365
 21
562.6484716795325
 31
0.0
  0
LINE
  5
240
330
1F
100
AcDbEntity
  8
LAY-10
  6
CONTINUOUS
 62
     7
100
AcDbLine
 10
530.457263067968
 20
561.6419882770172
 30
0.0
 11
530.6121714219365
 21
562.6484716795325
 31
0.0
  0
ARC
  5
241
330
1F
100
AcDbEntity
  8
LAY-10
  6
CONTINUOUS
 62
     7
100
AcDbCircle
 10
464.999999999998
 20
584.9999999999851
 30
0.0
 40
74.49999999999665
100
AcDbArc
 50
318.8695270057102
 51
341.1304729942901
  0
LINE
  5
242
330
1F
100
AcDbEntity
  8
LAY-10
  6
CONTINUOUS
 62
     7
100
AcDbLine
 10
489.0943573820425
 20
514.5038161150009
 30
0.0
 11
487.3515283204521
 21
519.3878285780493
 31
0.0
  0
LINE
  5
243
330
1F
100
AcDbEntity
  8
LAY-10
  6
CONTINUOUS
 62
     7
100
AcDbLine
 10
488.3580117229674
 20
519.542736932018
 30
0.0
 11
487.3515283204521
 21
519.3878285780493
 31
0.0
  0
LINE
  5
244
330
1F
100
AcDbEntity
  8
LAY-10
  6
CONTINUOUS
 62
     7
100
AcDbLine
 10
489.7023577214116
 20
515.7754124388978
 30
0.0
 11
489.0943573820425
 21
514.5038161150009
 31
0.0
  0
LINE
  5
245
330
1F
100
AcDbEntity
  8
LAY-10
  6
CONTINUOUS
 62
     7
100
AcDbLine
 10
512.599072533698
 20
528.9948368993291
 30
0.0
 11
514.0043074232358
 21
528.8855824767841
 31
0.0
  0
LINE
  5
246
330
1F
100
AcDbEntity
  8
LAY-10
  6
CONTINUOUS
 62
     7
100
AcDbLine
 10
514.0043074232358
 20
528.8855824767841
 30
0.0
 11
510.6460430886314
 21
532.8369229500992
 31
0.0
  0
LINE
  5
247
330
1F
100
AcDbEntity
  8
LAY-10
  6
CONTINUOUS
 62
     7
100
AcDbLine
 10
510.0086468175787
 20
532.0427369320179
 30
0.0
 11
510.6460430886314
 21
532.8369229500992
 31
0.0
  0
ARC
  5
248
330
1F
100
AcDbEntity
  8
LAY-10
  6
CONTINUOUS
 62
     7
100
AcDbCircle
 10
464.9999999999997
 20
584.9999999999878
 30
0.0
 40
74.49999999999665
100
AcDbArc
 50
288.8695270057101
 51
311.1304729942901
  0
ARC
  5
249
330
1F
100
AcDbEntity
  8
LAY-10
  6
CONTINUOUS
 62
     7
100
AcDbCircle
 10
464.9999999999957
 20
584.9999999999858
 30
0.0
 40
69.31484586264224
100
AcDbArc
 50
341.1880095547957
 51
348.8119904452042
  0
ARC
  5
24A
330
1F
100
AcDbEntity
  8
LAY-10
  6
CONTINUOUS
 62
     7
100
AcDbCircle
 10
464.9999999999957
 20
584.9999999999858
 30
0.0
 40
69.31484586264224
100
AcDbArc
 50
311.1880095547996
 51
318.8119904452055
  0
ARC
  5
24B
330
1F
100
AcDbEntity
  8
LAY-10
  6
CONTINUOUS
 62
     7
100
AcDbCircle
 10
464.9999999999957
 20
584.9999999999858
 30
0.0
 40
69.31484586264224
100
AcDbArc
 50
11.18800955479582
 51
18.81199044520436
  0
ARC
  5
24C
330
1F
100
AcDbEntity
  8
LAY-10
  6
CONTINUOUS
 62
     7
100
AcDbCircle
 10
464.9999999999957
 20
584.9999999999858
 30
0.0
 40
69.31484586264224
100
AcDbArc
 50
41.18800955479445
 51
48.81199044520064
  0
ARC
  5
24D
330
1F
100
AcDbEntity
  8
LAY-10
  6
CONTINUOUS
 62
     7
100
AcDbCircle
 10
490.3057843968999
 20
652.9401742421597
 30
0.0
 40
1.0
100
AcDbArc
 50
69.57106735753077
 51
160.3613790322912
  0
LINE
  5
24E
330
1F
100
AcDbEntity
  8
LAY-10
  6
CONTINUOUS
 62
     7
100
AcDbLine
 10
488.6917145104776
 20
651.3924142018616
 30
0.0
 11
489.3639532736198
 21
653.2762607417708
 31
0.0
  0
ARC
  5
24F
330
1F
100
AcDbEntity
  8
LAY-10
  6
CONTINUOUS
 62
     7
100
AcDbCircle
 10
489.6335456337578
 20
651.0563277022505
 30
0.0
 40
1.0
100
AcDbArc
 50
160.3613790322912
 51
249.5486456850812
  0
ARC
  5
250
330
1F
100
AcDbEntity
  8
LAY-10
  6
CONTINUOUS
 62
     7
100
AcDbCircle
 10
464.9999999999997
 20
584.9999999999834
 30
0.0
 40
69.49999999999814
100
AcDbArc
 50
50.45135431491725
 51
69.54864568508307
  0
ARC
  5
251
330
1F
100
AcDbEntity
  8
LAY-10
  6
CONTINUOUS
 62
     7
100
AcDbCircle
 10
509.8896850539933
 20
639.361440155235
 30
0.0
 40
1.0
100
AcDbArc
 50
230.4513543149288
 51
319.6386209677126
  0
LINE
  5
252
330
1F
100
AcDbEntity
  8
LAY-10
  6
CONTINUOUS
 62
     7
100
AcDbLine
 10
511.9469996409873
 20
640.2379328424493
 30
0.0
 11
510.6516600621656
 21
638.713833726205
 31
0.0
  0
ARC
  5
253
330
1F
100
AcDbEntity
  8
LAY-10
  6
CONTINUOUS
 62
     7
100
AcDbCircle
 10
464.9999999999997
 20
584.9999999999834
 30
0.0
 40
73.49999999999767
100
AcDbArc
 50
50.42893264246239
 51
69.57106735753806
  0
ARC
  5
254
330
1F
100
AcDbEntity
  8
LAY-10
  6
CONTINUOUS
 62
     7
100
AcDbCircle
 10
511.185024632815
 20
640.8855392714792
 30
0.0
 40
1.0
100
AcDbArc
 50
319.6386209677126
 51
50.42893264246668
  0
ARC
  5
255
330
1F
100
AcDbEntity
  8
LAY-10
  6
CONTINUOUS
 62
     7
100
AcDbCircle
 10
520.8855392714936
 20
631.185024632802
 30
0.0
 40
1.0
100
AcDbArc
 50
39.57106735752166
 51
130.3613790322875
  0
LINE
  5
256
330
1F
100
AcDbEntity
  8
LAY-10
  6
CONTINUOUS
 62
     7
100
AcDbLine
 10
518.7138337262195
 20
630.6516600621526
 30
0.0
 11
520.2379328424637
 21
631.9469996409742
 31
0.0
  0
ARC
  5
257
330
1F
100
AcDbEntity
  8
LAY-10
  6
CONTINUOUS
 62
     7
100
AcDbCircle
 10
519.3614401552494
 20
629.88968505398
 30
0.0
 40
1.0
100
AcDbArc
 50
130.3613790322875
 51
219.5486456850713
  0
ARC
  5
258
330
1F
100
AcDbEntity
  8
LAY-10
  6
CONTINUOUS
 62
     7
100
AcDbCircle
 10
464.999999999998
 20
584.9999999999861
 30
0.0
 40
73.49999999999767
100
AcDbArc
 50
20.42893264246226
 51
39.57106735753787
  0
ARC
  5
259
330
1F
100
AcDbEntity
  8
LAY-10
  6
CONTINUOUS
 62
     7
100
AcDbCircle
 10
532.940174242174
 20
610.3057843968867
 30
0.0
 40
1.0
100
AcDbArc
 50
289.6386209677245
 51
20.42893264246009
  0
LINE
  5
25A
330
1F
100
AcDbEntity
  8
LAY-10
  6
CONTINUOUS
 62
     7
100
AcDbLine
 10
533.2762607417852
 20
609.3639532736066
 30
0.0
 11
531.392414201876
 21
608.6917145104644
 31
0.0
  0
ARC
  5
25B
330
1F
100
AcDbEntity
  8
LAY-10
  6
CONTINUOUS
 62
     7
100
AcDbCircle
 10
464.999999999998
 20
584.9999999999861
 30
0.0
 40
69.49999999999814
100
AcDbArc
 50
20.45135431491746
 51
39.54864568508295
  0
ARC
  5
25C
330
1F
100
AcDbEntity
  8
LAY-10
  6
CONTINUOUS
 62
     7
100
AcDbCircle
 10
531.0563277022648
 20
609.6335456337448
 30
0.0
 40
1.0
100
AcDbArc
 50
200.4513543149189
 51
289.6386209677099
  0
ARC
  5
25D
330
1F
100
AcDbEntity
  8
LAY-10
  6
CONTINUOUS
 62
     7
100
AcDbCircle
 10
536.4908090297116
 20
597.054634970666
 30
0.0
 40
1.0
100
AcDbArc
 50
9.571067357546916
 51
100.3613790322808
  0
LINE
  5
25E
330
1F
100
AcDbEntity
  8
LAY-10
  6
CONTINUOUS
 62
     7
100
AcDbLine
 10
534.34337457264
 20
597.6785804756423
 30
0.0
 11
536.3109529146038
 21
598.0383278993073
 31
0.0
  0
ARC
  5
25F
330
1F
100
AcDbEntity
  8
LAY-10
  6
CONTINUOUS
 62
     7
100
AcDbCircle
 10
534.5232306877477
 20
596.6948875470014
 30
0.0
 40
1.0
100
AcDbArc
 50
100.3613790322808
 51
189.5486456850853
  0
ARC
  5
260
330
1F
100
AcDbEntity
  8
LAY-10
  6
CONTINUOUS
 62
     7
100
AcDbCircle
 10
464.9999999999957
 20
584.9999999999858
 30
0.0
 40
73.49999999999767
100
AcDbArc
 50
350.4289326424622
 51
9.571067357537691
  0
ARC
  5
261
330
1F
100
AcDbEntity
  8
LAY-10
  6
CONTINUOUS
 62
     7
100
AcDbCircle
 10
536.4908090297116
 20
572.9453650293052
 30
0.0
 40
1.0
100
AcDbArc
 50
259.6386209677192
 51
350.4289326424736
  0
LINE
  5
262
330
1F
100
AcDbEntity
  8
LAY-10
  6
CONTINUOUS
 62
     7
100
AcDbLine
 10
536.3109529146038
 20
571.9616721006643
 30
0.0
 11
534.34337457264
 21
572.3214195243293
 31
0.0
  0
ARC
  5
263
330
1F
100
AcDbEntity
  8
LAY-10
  6
CONTINUOUS
 62
     7
100
AcDbCircle
 10
464.9999999999957
 20
584.9999999999858
 30
0.0
 40
69.49999999999814
100
AcDbArc
 50
350.4513543149175
 51
9.54864568508312
  0
ARC
  5
264
330
1F
100
AcDbEntity
  8
LAY-10
  6
CONTINUOUS
 62
     7
100
AcDbCircle
 10
534.5232306877477
 20
573.3051124529702
 30
0.0
 40
1.0
100
AcDbArc
 50
170.4513543149148
 51
259.6386209677192
  0
ARC
  5
265
330
1F
100
AcDbEntity
  8
LAY-10
  6
CONTINUOUS
 62
     7
100
AcDbCircle
 10
532.940174242174
 20
559.6942156030846
 30
0.0
 40
1.0
100
AcDbArc
 50
339.57106735754
 51
70.36137903227568
  0
LINE
  5
266
330
1F
100
AcDbEntity
  8
LAY-10
  6
CONTINUOUS
 62
     7
100
AcDbLine
 10
533.2762607417852
 20
560.6360467263646
 30
0.0
 11
531.392414201876
 21
561.3082854895068
 31
0.0
  0
ARC
  5
267
330
1F
100
AcDbEntity
  8
LAY-10
  6
CONTINUOUS
 62
     7
100
AcDbCircle
 10
531.0563277022648
 20
560.3664543662268
 30
0.0
 40
1.0
100
AcDbArc
 50
70.36137903227568
 51
159.5486456850811
  0
ARC
  5
268
330
1F
100
AcDbEntity
  8
LAY-10
  6
CONTINUOUS
 62
     7
100
AcDbCircle
 10
464.999999999998
 20
584.9999999999851
 30
0.0
 40
73.49999999999767
100
AcDbArc
 50
320.4289326424623
 51
339.5710673575383
  0
ARC
  5
269
330
1F
100
AcDbEntity
  8
LAY-10
  6
CONTINUOUS
 62
     7
100
AcDbCircle
 10
520.8855392714936
 20
538.8149753671696
 30
0.0
 40
1.0
100
AcDbArc
 50
229.6386209677126
 51
320.4289326424508
  0
LINE
  5
26A
330
1F
100
AcDbEntity
  8
LAY-10
  6
CONTINUOUS
 62
     7
100
AcDbLine
 10
518.7138337262195
 20
539.348339937819
 30
0.0
 11
520.2379328424637
 21
538.0530003589973
 31
0.0
  0
ARC
  5
26B
330
1F
100
AcDbEntity
  8
LAY-10
  6
CONTINUOUS
 62
     7
100
AcDbCircle
 10
464.999999999998
 20
584.9999999999851
 30
0.0
 40
69.49999999999814
100
AcDbArc
 50
320.4513543149172
 51
339.5486456850829
  0
ARC
  5
26C
330
1F
100
AcDbEntity
  8
LAY-10
  6
CONTINUOUS
 62
     7
100
AcDbCircle
 10
519.3614401552494
 20
540.1103149459913
 30
0.0
 40
1.0
100
AcDbArc
 50
140.4513543149288
 51
229.6386209677126
  0
ARC
  5
26D
330
1F
100
AcDbEntity
  8
LAY-10
  6
CONTINUOUS
 62
     7
100
AcDbCircle
 10
511.185024632815
 20
529.1144607284921
 30
0.0
 40
1.0
100
AcDbArc
 50
309.5710673575543
 51
40.36137903228741
  0
LINE
  5
26E
330
1F
100
AcDbEntity
  8
LAY-10
  6
CONTINUOUS
 62
     7
100
AcDbLine
 10
511.9469996409873
 20
529.762067157522
 30
0.0
 11
510.6516600621656
 21
531.2861662737662
 31
0.0
  0
ARC
  5
26F
330
1F
100
AcDbEntity
  8
LAY-10
  6
CONTINUOUS
 62
     7
100
AcDbCircle
 10
509.8896850539933
 20
530.6385598447366
 30
0.0
 40
1.0
100
AcDbArc
 50
40.36137903226197
 51
129.5486456850988
  0
ARC
  5
270
330
1F
100
AcDbEntity
  8
LAY-10
  6
CONTINUOUS
 62
     7
100
AcDbCircle
 10
464.9999999999997
 20
584.9999999999878
 30
0.0
 40
73.49999999999767
100
AcDbArc
 50
290.4289326424623
 51
309.5710673575379
  0
ARC
  5
271
330
1F
100
AcDbEntity
  8
LAY-10
  6
CONTINUOUS
 62
     7
100
AcDbCircle
 10
490.3057843968999
 20
517.0598257578118
 30
0.0
 40
1.0
100
AcDbArc
 50
199.6386209677088
 51
290.4289326424602
  0
ARC
  5
272
330
1F
100
AcDbEntity
  8
LAY-10
  6
CONTINUOUS
 62
     7
100
AcDbCircle
 10
464.9999999999997
 20
584.9999999999878
 30
0.0
 40
69.49999999999814
100
AcDbArc
 50
290.4513543149174
 51
309.5486456850832
  0
LINE
  5
273
330
1F
100
AcDbEntity
  8
LAY-10
  6
CONTINUOUS
 62
     7
100
AcDbLine
 10
488.6917145104776
 20
518.60758579811
 30
0.0
 11
489.3639532736198
 21
516.7237392582008
 31
0.0
  0
ARC
  5
274
330
1F
100
AcDbEntity
  8
LAY-10
  6
CONTINUOUS
 62
     7
100
AcDbCircle
 10
489.6335456337578
 20
518.943672297721
 30
0.0
 40
1.0
100
AcDbArc
 50
110.451354314928
 51
199.6386209677088
  0
LINE
  5
275
330
1F
100
AcDbEntity
  8
LAY-10
  6
CONTINUOUS
 62
     7
100
AcDbLine
 10
533.8196798180393
 20
590.9999999999902
 30
0.0
 11
533.1561304263829
 21
591.5999999999904
 31
0.0
  0
LINE
  5
276
330
1F
100
AcDbEntity
  8
LAY-10
  6
CONTINUOUS
 62
     7
100
AcDbLine
 10
533.8196798180393
 20
578.9999999999902
 30
0.0
 11
533.1561304263838
 21
578.3999999999901
 31
0.0
  0
ARC
  5
277
330
1F
100
AcDbEntity
  8
LAY-10
  6
CONTINUOUS
 62
     7
100
AcDbCircle
 10
465.0000000000041
 20
584.9999999999858
 30
0.0
 40
68.47494516024643
100
AcDbArc
 50
5.531075968342027
 51
86.14809147594514
  0
ARC
  5
278
330
1F
100
AcDbEntity
  8
LAY-10
  6
CONTINUOUS
 62
     7
100
AcDbCircle
 10
464.9999999999957
 20
584.9999999999858
 30
0.0
 40
69.31484586264224
100
AcDbArc
 50
71.18800955478834
 51
78.81199044520822
  0
LINE
  5
279
330
1F
100
AcDbEntity
  8
LAY-10
  6
CONTINUOUS
 62
     7
100
AcDbLine
 10
479.3817663617795
 20
511.9013351947184
 30
0.0
 11
478.4490943720463
 21
517.0024285909135
 31
0.0
  0
LINE
  5
27A
330
1F
100
AcDbEntity
  8
LAY-10
  6
CONTINUOUS
 62
     7
100
AcDbLine
 10
477.4999999999965
 20
516.6333414594511
 30
0.0
 11
478.4490943720463
 21
517.0024285909135
 31
0.0
  0
LINE
  5
27B
330
1F
100
AcDbEntity
  8
LAY-10
  6
CONTINUOUS
 62
     7
100
AcDbLine
 10
478.2194244604279
 20
512.6985697448873
 30
0.0
 11
479.3817663617795
 21
511.9013351947184
 31
0.0
  0
LINE
  5
27C
330
1F
100
AcDbEntity
  8
LAY-10
  6
CONTINUOUS
 62
     7
100
AcDbLine
 10
451.7805755395649
 20
512.6985697448873
 30
0.0
 11
450.6182336382134
 21
511.9013351947184
 31
0.0
  0
LINE
  5
27D
330
1F
100
AcDbEntity
  8
LAY-10
  6
CONTINUOUS
 62
     7
100
AcDbLine
 10
450.6182336382134
 20
511.9013351947184
 30
0.0
 11
451.5509056279463
 21
517.0024285909135
 31
0.0
  0
LINE
  5
27E
330
1F
100
AcDbEntity
  8
LAY-10
  6
CONTINUOUS
 62
     7
100
AcDbLine
 10
452.4999999999962
 20
516.6333414594511
 30
0.0
 11
451.5509056279463
 21
517.0024285909135
 31
0.0
  0
ARC
  5
27F
330
1F
100
AcDbEntity
  8
LAY-10
  6
CONTINUOUS
 62
     7
100
AcDbCircle
 10
464.9999999999964
 20
584.9999999999981
 30
0.0
 40
74.49999999999665
100
AcDbArc
 50
258.8695270057106
 51
281.1304729942899
  0
ARC
  5
280
330
1F
100
AcDbEntity
  8
LAY-10
  6
CONTINUOUS
 62
     7
100
AcDbCircle
 10
452.9453650293158
 20
513.509190970282
 30
0.0
 40
1.0
100
AcDbArc
 50
169.6386209677186
 51
260.4289326424628
  0
ARC
  5
281
330
1F
100
AcDbEntity
  8
LAY-10
  6
CONTINUOUS
 62
     7
100
AcDbCircle
 10
464.9999999999964
 20
584.9999999999981
 30
0.0
 40
73.49999999999767
100
AcDbArc
 50
260.4289326424627
 51
279.5710673575381
  0
ARC
  5
282
330
1F
100
AcDbEntity
  8
LAY-10
  6
CONTINUOUS
 62
     7
100
AcDbCircle
 10
477.0546349706767
 20
513.509190970282
 30
0.0
 40
1.0
100
AcDbArc
 50
279.5710673575469
 51
10.36137903230121
  0
LINE
  5
283
330
1F
100
AcDbEntity
  8
LAY-10
  6
CONTINUOUS
 62
     7
100
AcDbLine
 10
477.678580475653
 20
515.6566254273537
 30
0.0
 11
478.0383278993178
 21
513.6890470853901
 31
0.0
  0
ARC
  5
284
330
1F
100
AcDbEntity
  8
LAY-10
  6
CONTINUOUS
 62
     7
100
AcDbCircle
 10
476.6948875470118
 20
515.4767693122459
 30
0.0
 40
1.0
100
AcDbArc
 50
10.36137903228196
 51
99.54864568507564
  0
ARC
  5
285
330
1F
100
AcDbEntity
  8
LAY-10
  6
CONTINUOUS
 62
     7
100
AcDbCircle
 10
464.9999999999964
 20
584.9999999999981
 30
0.0
 40
69.49999999999814
100
AcDbArc
 50
260.4513543149175
 51
279.5486456850833
  0
LINE
  5
286
330
1F
100
AcDbEntity
  8
LAY-10
  6
CONTINUOUS
 62
     7
100
AcDbLine
 10
451.9616721006749
 20
513.6890470853898
 30
0.0
 11
452.3214195243399
 21
515.6566254273537
 31
0.0
  0
ARC
  5
287
330
1F
100
AcDbEntity
  8
LAY-10
  6
CONTINUOUS
 62
     7
100
AcDbCircle
 10
453.3051124529808
 20
515.4767693122459
 30
0.0
 40
1.0
100
AcDbArc
 50
80.45135431491474
 51
169.6386209677186
  0
ARC
  5
288
330
1F
100
AcDbEntity
  8
LAY-10
  6
CONTINUOUS
 62
     7
100
AcDbCircle
 10
465.0000000000039
 20
584.9999999999899
 30
0.0
 40
69.08073776573337
100
AcDbArc
 50
266.6805308378011
 51
273.3194691621997
  0
LINE
  5
289
330
1F
100
AcDbEntity
  8
LAY-10
  6
CONTINUOUS
 62
     7
100
AcDbLine
 10
460.4000000000045
 20
516.6797386224295
 30
0.0
 11
461.0000000000041
 21
516.0351659883139
 31
0.0
  0
LINE
  5
28A
330
1F
100
AcDbEntity
  8
LAY-10
  6
CONTINUOUS
 62
     7
100
AcDbLine
 10
469.6000000000037
 20
516.6797386224295
 30
0.0
 11
469.000000000004
 21
516.0351659883139
 31
0.0
  0
ARC
  5
28B
330
1F
100
AcDbEntity
  8
LAY-10
  6
CONTINUOUS
 62
     7
100
AcDbCircle
 10
465.0000000000041
 20
584.999999999994
 30
0.0
 40
69.31484586264224
100
AcDbArc
 50
251.1880095547882
 51
258.8119904452082
  0
ARC
  5
28C
330
1F
100
AcDbEntity
  8
LAY-10
  6
CONTINUOUS
 62
     7
100
AcDbCircle
 10
464.9999999999957
 20
584.999999999994
 30
0.0
 40
69.31484586264224
100
AcDbArc
 50
281.1880095547923
 51
288.8119904452118
  0
ARC
  5
28D
330
1F
100
AcDbEntity
  8
LAY-10
  6
CONTINUOUS
 62
     7
100
AcDbCircle
 10
465.0000000000041
 20
584.9999999999858
 30
0.0
 40
68.47494516024643
100
AcDbArc
 50
185.5310759683346
 51
266.1480914759453
  0
ARC
  5
28E
330
1F
100
AcDbEntity
  8
LAY-10
  6
CONTINUOUS
 62
     7
100
AcDbCircle
 10
464.9999999999957
 20
584.9999999999858
 30
0.0
 40
68.47494516024643
100
AcDbArc
 50
273.851908524055
 51
354.4689240316657
  0
CIRCLE
  5
28F
330
1F
100
AcDbEntity
  8
LAY-10
  6
CONTINUOUS
 62
     7
100
AcDbCircle
 10
401.0000000000002
 20
585.00000000001
 30
0.0
 40
5.250000000000004
  0
LINE
  5
290
330
1F
100
AcDbEntity
  8
LAY-10
  6
CONTINUOUS
 62
     7
100
AcDbLine
 10
405.9633927678603
 20
586.7109156121777
 30
0.0
 11
397.0366072321965
 21
581.5570335801741
 31
0.0
  0
LINE
  5
291
330
1F
100
AcDbEntity
  8
LAY-10
  6
CONTINUOUS
 62
     7
100
AcDbLine
 10
404.9633927678628
 20
588.4429664197797
 30
0.0
 11
396.0366072321694
 21
583.2890843877591
 31
0.0
  0
CIRCLE
  5
292
330
1F
100
AcDbEntity
  8
LAY-10
  6
CONTINUOUS
 62
     7
100
AcDbCircle
 10
529.0000000000003
 20
585.00000000001
 30
0.0
 40
5.250000000000004
  0
LINE
  5
293
330
1F
100
AcDbEntity
  8
LAY-10
  6
CONTINUOUS
 62
     7
100
AcDbLine
 10
533.9633927678605
 20
586.7109156121777
 30
0.0
 11
525.0366072321966
 21
581.5570335801741
 31
0.0
  0
LINE
  5
294
330
1F
100
AcDbEntity
  8
LAY-10
  6
CONTINUOUS
 62
     7
100
AcDbLine
 10
532.9633927678628
 20
588.4429664197797
 30
0.0
 11
524.0366072321696
 21
583.2890843877591
 31
0.0
  0
CIRCLE
  5
295
330
1F
100
AcDbEntity
  8
LAY-10
  6
CONTINUOUS
 62
     7
100
AcDbCircle
 10
464.9999999999884
 20
584.9999999999901
 30
0.0
 40
45.97796688173906
  0
LINE
  5
296
330
1F
100
AcDbEntity
  8
LAY-10
  6
CONTINUOUS
 62
     7
100
AcDbLine
 10
408.8360057281427
 20
588.99999999999
 30
0.0
 11
413.5787796191119
 21
588.99999999999
 31
0.0
  0
LINE
  5
297
330
1F
100
AcDbEntity
  8
LAY-10
  6
CONTINUOUS
 62
     7
100
AcDbLine
 10
408.8360057281427
 20
580.9999999999901
 30
0.0
 11
413.5787796191119
 21
580.9999999999901
 31
0.0
  0
LINE
  5
298
330
1F
100
AcDbEntity
  8
LAY-10
  6
CONTINUOUS
 62
     7
100
AcDbLine
 10
410.8550284555711
 20
569.5495531125312
 30
0.0
 11
415.3117780829708
 21
571.1716773184816
 31
0.0
  0
LINE
  5
299
330
1F
100
AcDbEntity
  8
LAY-10
  6
CONTINUOUS
 62
     7
100
AcDbLine
 10
413.5911896021764
 20
562.0320121462439
 30
0.0
 11
418.047939229576
 21
563.6541363521943
 31
0.0
  0
LINE
  5
29A
330
1F
100
AcDbEntity
  8
LAY-10
  6
CONTINUOUS
 62
     7
100
AcDbLine
 10
419.4047338459314
 20
551.9626581440106
 30
0.0
 11
423.0379094300781
 21
555.0112544366704
 31
0.0
  0
LINE
  5
29B
330
1F
100
AcDbEntity
  8
LAY-10
  6
CONTINUOUS
 62
     7
100
AcDbLine
 10
424.5470347234237
 20
545.8343025990588
 30
0.0
 11
428.1802103075705
 21
548.8828988917185
 31
0.0
  0
LINE
  5
29C
330
1F
100
AcDbEntity
  8
LAY-10
  6
CONTINUOUS
 62
     7
100
AcDbLine
 10
433.4539012489335
 20
538.3605541825583
 30
0.0
 11
435.825288194418
 21
542.467916856543
 31
0.0
  0
LINE
  5
29D
330
1F
100
AcDbEntity
  8
LAY-10
  6
CONTINUOUS
 62
     7
100
AcDbLine
 10
470.8135442437547
 20
641.0053297097157
 30
0.0
 11
469.9899702005016
 21
636.3346092111055
 31
0.0
  0
LINE
  5
29E
330
1F
100
AcDbEntity
  8
LAY-10
  6
CONTINUOUS
 62
     7
100
AcDbLine
 10
459.1864557562446
 20
641.0053297097157
 30
0.0
 11
460.0100297994977
 21
636.3346092111055
 31
0.0
  0
LINE
  5
29F
330
1F
100
AcDbEntity
  8
LAY-10
  6
CONTINUOUS
 62
     7
100
AcDbLine
 10
451.3079937321469
 20
639.6161442883804
 30
0.0
 11
452.1315677754
 21
634.9454237897702
 31
0.0
  0
LINE
  5
2A0
330
1F
100
AcDbEntity
  8
LAY-10
  6
CONTINUOUS
 62
     7
100
AcDbLine
 10
440.3821044792091
 20
635.6394458174219
 30
0.0
 11
442.7534914246935
 21
631.5320831434371
 31
0.0
  0
LINE
  5
2A1
330
1F
100
AcDbEntity
  8
LAY-10
  6
CONTINUOUS
 62
     7
100
AcDbLine
 10
433.4539012489335
 20
631.6394458174219
 30
0.0
 11
435.8252881944182
 21
627.5320831434371
 31
0.0
  0
LINE
  5
2A2
330
1F
100
AcDbEntity
  8
LAY-10
  6
CONTINUOUS
 62
     7
100
AcDbLine
 10
424.5470347234239
 20
624.1656974009215
 30
0.0
 11
428.1802103075705
 21
621.1171011082617
 31
0.0
  0
LINE
  5
2A3
330
1F
100
AcDbEntity
  8
LAY-10
  6
CONTINUOUS
 62
     7
100
AcDbLine
 10
419.4047338459316
 20
618.0373418559697
 30
0.0
 11
423.0379094300781
 21
614.98874556331
 31
0.0
  0
LINE
  5
2A4
330
1F
100
AcDbEntity
  8
LAY-10
  6
CONTINUOUS
 62
     7
100
AcDbLine
 10
413.5911896021764
 20
607.9679878537364
 30
0.0
 11
418.047939229576
 21
606.3458636477859
 31
0.0
  0
LINE
  5
2A5
330
1F
100
AcDbEntity
  8
LAY-10
  6
CONTINUOUS
 62
     7
100
AcDbLine
 10
410.8550284555711
 20
600.4504468874492
 30
0.0
 11
415.3117780829708
 21
598.8283226814985
 31
0.0
  0
ARC
  5
2A6
330
1F
100
AcDbEntity
  8
LAY-10
  6
CONTINUOUS
 62
     7
100
AcDbCircle
 10
464.9999999999884
 20
584.9999999999901
 30
0.0
 40
51.57656352897783
100
AcDbArc
 50
104.4480180857207
 51
115.5519819142562
  0
ARC
  5
2A7
330
1F
100
AcDbEntity
  8
LAY-10
  6
CONTINUOUS
 62
     7
100
AcDbCircle
 10
464.9999999999884
 20
584.9999999999901
 30
0.0
 40
51.57656352897783
100
AcDbArc
 50
124.4480180857219
 51
135.5519819142592
  0
ARC
  5
2A8
330
1F
100
AcDbEntity
  8
LAY-10
  6
CONTINUOUS
 62
     7
100
AcDbCircle
 10
464.9999999999884
 20
584.9999999999901
 30
0.0
 40
51.57656352897783
100
AcDbArc
 50
144.4480180857249
 51
155.5519819142628
  0
ARC
  5
2A9
330
1F
100
AcDbEntity
  8
LAY-10
  6
CONTINUOUS
 62
     7
100
AcDbCircle
 10
464.9999999999884
 20
584.9999999999901
 30
0.0
 40
51.57656352897783
100
AcDbArc
 50
164.4480180857286
 51
175.5519819142673
  0
ARC
  5
2AA
330
1F
100
AcDbEntity
  8
LAY-10
  6
CONTINUOUS
 62
     7
100
AcDbCircle
 10
464.9999999999884
 20
584.9999999999901
 30
0.0
 40
51.57656352897783
100
AcDbArc
 50
184.448018085733
 51
195.5519819142715
  0
ARC
  5
2AB
330
1F
100
AcDbEntity
  8
LAY-10
  6
CONTINUOUS
 62
     7
100
AcDbCircle
 10
464.9999999999884
 20
584.9999999999901
 30
0.0
 40
51.57656352897783
100
AcDbArc
 50
224.4480180857412
 51
235.5519819142782
  0
LINE
  5
2AC
330
1F
100
AcDbEntity
  8
LAY-10
  6
CONTINUOUS
 62
     7
100
AcDbLine
 10
398.7504716997809
 20
594.99999999999
 30
0.0
 11
409.5888616560786
 21
594.99999999999
 31
0.0
  0
LINE
  5
2AD
330
1F
100
AcDbEntity
  8
LAY-10
  6
CONTINUOUS
 62
     7
100
AcDbLine
 10
398.7504716997809
 20
574.99999999999
 30
0.0
 11
409.5888616560786
 21
574.99999999999
 31
0.0
  0
CIRCLE
  5
2AE
330
1F
100
AcDbEntity
  8
LAY-10
  6
CONTINUOUS
 62
     7
100
AcDbCircle
 10
464.9999999999884
 20
584.9999999999901
 30
0.0
 40
49.99999999999312
  0
LINE
  5
2AF
330
1F
100
AcDbEntity
  8
LAY-10
  6
CONTINUOUS
 62
     7
100
AcDbLine
 10
531.2495283002191
 20
594.99999999999
 30
0.0
 11
520.4111383439213
 21
594.99999999999
 31
0.0
  0
LINE
  5
2B0
330
1F
100
AcDbEntity
  8
LAY-10
  6
CONTINUOUS
 62
     7
100
AcDbLine
 10
531.2495283002191
 20
574.99999999999
 30
0.0
 11
520.4111383439213
 21
574.99999999999
 31
0.0
  0
LINE
  5
2B1
330
1F
100
AcDbEntity
  8
LAY-10
  6
CONTINUOUS
 62
     7
100
AcDbLine
 10
470.8135442437547
 20
528.9946702902644
 30
0.0
 11
469.9899702005016
 21
533.6653907888744
 31
0.0
  0
LINE
  5
2B2
330
1F
100
AcDbEntity
  8
LAY-10
  6
CONTINUOUS
 62
     7
100
AcDbLine
 10
459.1864557562446
 20
528.9946702902644
 30
0.0
 11
460.0100297994977
 21
533.6653907888744
 31
0.0
  0
LINE
  5
2B3
330
1F
100
AcDbEntity
  8
LAY-10
  6
CONTINUOUS
 62
     7
100
AcDbLine
 10
451.3079937321469
 20
530.3838557115997
 30
0.0
 11
452.1315677754
 21
535.0545762102099
 31
0.0
  0
LINE
  5
2B4
330
1F
100
AcDbEntity
  8
LAY-10
  6
CONTINUOUS
 62
     7
100
AcDbLine
 10
440.3821044792091
 20
534.3605541825582
 30
0.0
 11
442.7534914246935
 21
538.4679168565428
 31
0.0
  0
ARC
  5
2B5
330
1F
100
AcDbEntity
  8
LAY-10
  6
CONTINUOUS
 62
     7
100
AcDbCircle
 10
464.9999999999884
 20
584.99999999999
 30
0.0
 40
51.57656352897783
100
AcDbArc
 50
244.4480180857444
 51
255.5519819142798
  0
ARC
  5
2B6
330
1F
100
AcDbEntity
  8
LAY-10
  6
CONTINUOUS
 62
     7
100
AcDbCircle
 10
464.9999999999884
 20
584.99999999999
 30
0.0
 40
51.57656352897783
100
AcDbArc
 50
264.4480180857457
 51
275.5519819142795
  0
LINE
  5
2B7
330
1F
100
AcDbEntity
  8
LAY-10
  6
CONTINUOUS
 62
     7
100
AcDbLine
 10
521.1639942718572
 20
588.99999999999
 30
0.0
 11
516.4212203808881
 21
588.99999999999
 31
0.0
  0
LINE
  5
2B8
330
1F
100
AcDbEntity
  8
LAY-10
  6
CONTINUOUS
 62
     7
100
AcDbLine
 10
521.1639942718572
 20
580.9999999999901
 30
0.0
 11
516.4212203808881
 21
580.9999999999901
 31
0.0
  0
LINE
  5
2B9
330
1F
100
AcDbEntity
  8
LAY-10
  6
CONTINUOUS
 62
     7
100
AcDbLine
 10
519.1449715444287
 20
569.5495531125312
 30
0.0
 11
514.6882219170291
 21
571.1716773184816
 31
0.0
  0
LINE
  5
2BA
330
1F
100
AcDbEntity
  8
LAY-10
  6
CONTINUOUS
 62
     7
100
AcDbLine
 10
516.4088103978235
 20
562.0320121462439
 30
0.0
 11
511.9520607704238
 21
563.6541363521943
 31
0.0
  0
LINE
  5
2BB
330
1F
100
AcDbEntity
  8
LAY-10
  6
CONTINUOUS
 62
     7
100
AcDbLine
 10
510.5952661540684
 20
551.9626581440106
 30
0.0
 11
506.9620905699219
 21
555.0112544366704
 31
0.0
  0
LINE
  5
2BC
330
1F
100
AcDbEntity
  8
LAY-10
  6
CONTINUOUS
 62
     7
100
AcDbLine
 10
505.4529652765763
 20
545.8343025990588
 30
0.0
 11
501.8197896924294
 21
548.8828988917185
 31
0.0
  0
LINE
  5
2BD
330
1F
100
AcDbEntity
  8
LAY-10
  6
CONTINUOUS
 62
     7
100
AcDbLine
 10
496.5460987510663
 20
538.3605541825583
 30
0.0
 11
494.174711805582
 21
542.467916856543
 31
0.0
  0
LINE
  5
2BE
330
1F
100
AcDbEntity
  8
LAY-10
  6
CONTINUOUS
 62
     7
100
AcDbLine
 10
478.6920062678528
 20
639.6161442883804
 30
0.0
 11
477.8684322245997
 21
634.9454237897702
 31
0.0
  0
LINE
  5
2BF
330
1F
100
AcDbEntity
  8
LAY-10
  6
CONTINUOUS
 62
     7
100
AcDbLine
 10
489.6178955207909
 20
635.6394458174219
 30
0.0
 11
487.2465085753062
 21
631.5320831434371
 31
0.0
  0
LINE
  5
2C0
330
1F
100
AcDbEntity
  8
LAY-10
  6
CONTINUOUS
 62
     7
100
AcDbLine
 10
496.5460987510663
 20
631.6394458174219
 30
0.0
 11
494.1747118055816
 21
627.5320831434371
 31
0.0
  0
LINE
  5
2C1
330
1F
100
AcDbEntity
  8
LAY-10
  6
CONTINUOUS
 62
     7
100
AcDbLine
 10
505.4529652765759
 20
624.1656974009215
 30
0.0
 11
501.8197896924294
 21
621.1171011082617
 31
0.0
  0
LINE
  5
2C2
330
1F
100
AcDbEntity
  8
LAY-10
  6
CONTINUOUS
 62
     7
100
AcDbLine
 10
510.5952661540684
 20
618.0373418559697
 30
0.0
 11
506.9620905699219
 21
614.98874556331
 31
0.0
  0
LINE
  5
2C3
330
1F
100
AcDbEntity
  8
LAY-10
  6
CONTINUOUS
 62
     7
100
AcDbLine
 10
516.4088103978235
 20
607.9679878537364
 30
0.0
 11
511.9520607704238
 21
606.3458636477859
 31
0.0
  0
LINE
  5
2C4
330
1F
100
AcDbEntity
  8
LAY-10
  6
CONTINUOUS
 62
     7
100
AcDbLine
 10
519.1449715444287
 20
600.4504468874492
 30
0.0
 11
514.6882219170291
 21
598.8283226814985
 31
0.0
  0
ARC
  5
2C5
330
1F
100
AcDbEntity
  8
LAY-10
  6
CONTINUOUS
 62
     7
100
AcDbCircle
 10
465.0000000000116
 20
584.9999999999901
 30
0.0
 40
51.57656352897783
100
AcDbArc
 50
64.44801808574418
 51
75.5519819142796
  0
ARC
  5
2C6
330
1F
100
AcDbEntity
  8
LAY-10
  6
CONTINUOUS
 62
     7
100
AcDbCircle
 10
465.0000000000116
 20
584.9999999999901
 30
0.0
 40
51.57656352897783
100
AcDbArc
 50
44.44801808574148
 51
55.55198191427849
  0
ARC
  5
2C7
330
1F
100
AcDbEntity
  8
LAY-10
  6
CONTINUOUS
 62
     7
100
AcDbCircle
 10
465.0000000000116
 20
584.9999999999901
 30
0.0
 40
51.57656352897783
100
AcDbArc
 50
24.44801808573763
 51
35.55198191427545
  0
ARC
  5
2C8
330
1F
100
AcDbEntity
  8
LAY-10
  6
CONTINUOUS
 62
     7
100
AcDbCircle
 10
465.0000000000116
 20
584.9999999999901
 30
0.0
 40
51.57656352897783
100
AcDbArc
 50
4.448018085732871
 51
15.55198191427172
  0
ARC
  5
2C9
330
1F
100
AcDbEntity
  8
LAY-10
  6
CONTINUOUS
 62
     7
100
AcDbCircle
 10
465.0000000000116
 20
584.9999999999901
 30
0.0
 40
51.57656352897783
100
AcDbArc
 50
344.4480180857285
 51
355.5519819142675
  0
ARC
  5
2CA
330
1F
100
AcDbEntity
  8
LAY-10
  6
CONTINUOUS
 62
     7
100
AcDbCircle
 10
465.0000000000116
 20
584.9999999999901
 30
0.0
 40
51.57656352897783
100
AcDbArc
 50
304.4480180857219
 51
315.5519819142593
  0
LINE
  5
2CB
330
1F
100
AcDbEntity
  8
LAY-10
  6
CONTINUOUS
 62
     7
100
AcDbLine
 10
478.6920062678528
 20
530.3838557115997
 30
0.0
 11
477.8684322245997
 21
535.0545762102099
 31
0.0
  0
LINE
  5
2CC
330
1F
100
AcDbEntity
  8
LAY-10
  6
CONTINUOUS
 62
     7
100
AcDbLine
 10
489.6178955207909
 20
534.3605541825582
 30
0.0
 11
487.2465085753062
 21
538.4679168565428
 31
0.0
  0
ARC
  5
2CD
330
1F
100
AcDbEntity
  8
LAY-10
  6
CONTINUOUS
 62
     7
100
AcDbCircle
 10
465.0000000000116
 20
584.99999999999
 30
0.0
 40
51.57656352897783
100
AcDbArc
 50
284.4480180857206
 51
295.5519819142561
  0
LINE
  5
2CE
330
1F
100
AcDbEntity
  8
LAY-10
  6
CONTINUOUS
 62
     7
100
AcDbLine
 10
468.0000000000002
 20
629.9999999999926
 30
0.0
 11
462.0
 21
629.9999999999926
 31
0.0
  0
LINE
  5
2CF
330
1F
100
AcDbEntity
  8
LAY-10
  6
CONTINUOUS
 62
     7
100
AcDbLine
 10
462.5000000000004
 20
629.4999999999925
 30
0.0
 11
467.5000000000005
 21
629.4999999999925
 31
0.0
  0
LINE
  5
2D0
330
1F
100
AcDbEntity
  8
LAY-10
  6
CONTINUOUS
 62
     7
100
AcDbLine
 10
467.5000000000005
 20
629.4999999999925
 30
0.0
 11
468.0000000000002
 21
629.9999999999926
 31
0.0
  0
LINE
  5
2D1
330
1F
100
AcDbEntity
  8
LAY-10
  6
CONTINUOUS
 62
     7
100
AcDbLine
 10
462.5000000000004
 20
629.4999999999925
 30
0.0
 11
462.0
 21
629.9999999999926
 31
0.0
  0
ARC
  5
2D2
330
1F
100
AcDbEntity
  8
LAY-10
  6
CONTINUOUS
 62
     7
100
AcDbCircle
 10
465.0000000000002
 20
639.1999999999905
 30
0.0
 40
6.300000000000004
100
AcDbArc
 50
95.46502379990869
 51
128.6821874534916
  0
ARC
  5
2D3
330
1F
100
AcDbEntity
  8
LAY-10
  6
CONTINUOUS
 62
     7
100
AcDbCircle
 10
465.0000000000002
 20
639.1999999999905
 30
0.0
 40
6.300000000000004
100
AcDbArc
 50
51.3178125464967
 51
84.53497620009911
  0
LINE
  5
2D4
330
1F
100
AcDbEntity
  8
LAY-10
  6
CONTINUOUS
 62
     7
100
AcDbLine
 10
464.4000000000004
 20
645.4713634880904
 30
0.0
 11
464.4000000000004
 21
642.9999999999905
 31
0.0
  0
LINE
  5
2D5
330
1F
100
AcDbEntity
  8
LAY-10
  6
CONTINUOUS
 62
     7
100
AcDbLine
 10
465.6000000000006
 20
642.9999999999905
 30
0.0
 11
464.4000000000004
 21
642.9999999999905
 31
0.0
  0
LINE
  5
2D6
330
1F
100
AcDbEntity
  8
LAY-10
  6
CONTINUOUS
 62
     7
100
AcDbLine
 10
465.6000000000006
 20
645.4713634880904
 30
0.0
 11
465.6000000000006
 21
642.9999999999905
 31
0.0
  0
LINE
  5
2D7
330
1F
100
AcDbEntity
  8
LAY-10
  6
CONTINUOUS
 62
     7
100
AcDbLine
 10
470.2481347569004
 20
641.4999999999905
 30
0.0
 11
459.7518652431002
 21
641.4999999999905
 31
0.0
  0
ARC
  5
2D8
330
1F
100
AcDbEntity
  8
LAY-10
  6
CONTINUOUS
 62
     7
100
AcDbCircle
 10
466.7500000000003
 20
641.3857492993902
 30
0.0
 40
3.500000000000003
100
AcDbArc
 50
1.870641730603566
 51
51.31781254649853
  0
ARC
  5
2D9
330
1F
100
AcDbEntity
  8
LAY-10
  6
CONTINUOUS
 62
     7
100
AcDbCircle
 10
463.2500000000002
 20
641.3857492993902
 30
0.0
 40
3.500000000000003
100
AcDbArc
 50
128.6821874534955
 51
178.1293582694113
  0
LINE
  5
2DA
330
1F
100
AcDbEntity
  8
LAY-10
  6
CONTINUOUS
 62
     7
100
AcDbLine
 10
424.5288568296955
 20
565.0980762113422
 30
0.0
 11
427.5288568296955
 21
559.9019237886355
 31
0.0
  0
LINE
  5
2DB
330
1F
100
AcDbEntity
  8
LAY-10
  6
CONTINUOUS
 62
     7
100
AcDbLine
 10
427.7118695315875
 20
560.584936490528
 30
0.0
 11
425.2118695315876
 21
564.9150635094503
 31
0.0
  0
LINE
  5
2DC
330
1F
100
AcDbEntity
  8
LAY-10
  6
CONTINUOUS
 62
     7
100
AcDbLine
 10
425.2118695315876
 20
564.9150635094503
 30
0.0
 11
424.5288568296955
 21
565.0980762113422
 31
0.0
  0
LINE
  5
2DD
330
1F
100
AcDbEntity
  8
LAY-10
  6
CONTINUOUS
 62
     7
100
AcDbLine
 10
427.7118695315875
 20
560.584936490528
 30
0.0
 11
427.5288568296955
 21
559.9019237886355
 31
0.0
  0
ARC
  5
2DE
330
1F
100
AcDbEntity
  8
LAY-10
  6
CONTINUOUS
 62
     7
100
AcDbCircle
 10
418.0614231148803
 20
557.89999999999
 30
0.0
 40
6.300000000000004
100
AcDbArc
 50
215.4650237999091
 51
248.6821874534929
  0
ARC
  5
2DF
330
1F
100
AcDbEntity
  8
LAY-10
  6
CONTINUOUS
 62
     7
100
AcDbCircle
 10
418.0614231148803
 20
557.89999999999
 30
0.0
 40
6.300000000000004
100
AcDbArc
 50
171.3178125464984
 51
204.5349762000991
  0
LINE
  5
2E0
330
1F
100
AcDbEntity
  8
LAY-10
  6
CONTINUOUS
 62
     7
100
AcDbLine
 10
412.9302630178195
 20
554.2447030136696
 30
0.0
 11
415.0705265804994
 21
555.4803847577195
 31
0.0
  0
LINE
  5
2E1
330
1F
100
AcDbEntity
  8
LAY-10
  6
CONTINUOUS
 62
     7
100
AcDbLine
 10
414.4705265804993
 20
556.519615242261
 30
0.0
 11
415.0705265804994
 21
555.4803847577195
 31
0.0
  0
LINE
  5
2E2
330
1F
100
AcDbEntity
  8
LAY-10
  6
CONTINUOUS
 62
     7
100
AcDbLine
 10
412.3302630178194
 20
555.283933498211
 30
0.0
 11
414.4705265804993
 21
556.519615242261
 31
0.0
  0
LINE
  5
2E3
330
1F
100
AcDbEntity
  8
LAY-10
  6
CONTINUOUS
 62
     7
100
AcDbLine
 10
413.445497307726
 20
561.2950180219495
 30
0.0
 11
418.6936320646262
 21
552.2049819780304
 31
0.0
  0
ARC
  5
2E4
330
1F
100
AcDbEntity
  8
LAY-10
  6
CONTINUOUS
 62
     7
100
AcDbCircle
 10
415.2935086952962
 20
558.3226698069129
 30
0.0
 40
3.500000000000003
100
AcDbArc
 50
121.8706417306039
 51
171.3178125464981
  0
ARC
  5
2E5
330
1F
100
AcDbEntity
  8
LAY-10
  6
CONTINUOUS
 62
     7
100
AcDbCircle
 10
417.0435086952962
 20
555.2915808936674
 30
0.0
 40
3.500000000000003
100
AcDbArc
 50
248.6821874534957
 51
298.1293582694124
  0
LINE
  5
2E6
330
1F
100
AcDbEntity
  8
LAY-10
  6
CONTINUOUS
 62
     7
100
AcDbLine
 10
502.4711431703013
 20
559.9019237886353
 30
0.0
 11
505.4711431703014
 21
565.0980762113421
 31
0.0
  0
LINE
  5
2E7
330
1F
100
AcDbEntity
  8
LAY-10
  6
CONTINUOUS
 62
     7
100
AcDbLine
 10
504.788130468409
 20
564.9150635094495
 30
0.0
 11
502.2881304684089
 21
560.5849364905273
 31
0.0
  0
LINE
  5
2E8
330
1F
100
AcDbEntity
  8
LAY-10
  6
CONTINUOUS
 62
     7
100
AcDbLine
 10
502.2881304684089
 20
560.5849364905273
 30
0.0
 11
502.4711431703013
 21
559.9019237886353
 31
0.0
  0
LINE
  5
2E9
330
1F
100
AcDbEntity
  8
LAY-10
  6
CONTINUOUS
 62
     7
100
AcDbLine
 10
504.788130468409
 20
564.9150635094495
 30
0.0
 11
505.4711431703014
 21
565.0980762113421
 31
0.0
  0
ARC
  5
2EA
330
1F
100
AcDbEntity
  8
LAY-10
  6
CONTINUOUS
 62
     7
100
AcDbCircle
 10
511.9385768851164
 20
557.8999999999896
 30
0.0
 40
6.300000000000004
100
AcDbArc
 50
335.465023799909
 51
8.682187453491288
  0
ARC
  5
2EB
330
1F
100
AcDbEntity
  8
LAY-10
  6
CONTINUOUS
 62
     7
100
AcDbCircle
 10
511.9385768851164
 20
557.8999999999896
 30
0.0
 40
6.300000000000004
100
AcDbArc
 50
291.3178125464979
 51
324.5349762000999
  0
LINE
  5
2EC
330
1F
100
AcDbEntity
  8
LAY-10
  6
CONTINUOUS
 62
     7
100
AcDbLine
 10
517.669736982177
 20
555.2839334982101
 30
0.0
 11
515.5294734194972
 21
556.5196152422601
 31
0.0
  0
LINE
  5
2ED
330
1F
100
AcDbEntity
  8
LAY-10
  6
CONTINUOUS
 62
     7
100
AcDbLine
 10
514.9294734194971
 20
555.4803847577185
 30
0.0
 11
515.5294734194972
 21
556.5196152422601
 31
0.0
  0
LINE
  5
2EE
330
1F
100
AcDbEntity
  8
LAY-10
  6
CONTINUOUS
 62
     7
100
AcDbLine
 10
517.0697369821769
 20
554.2447030136685
 30
0.0
 11
514.9294734194971
 21
555.4803847577185
 31
0.0
  0
LINE
  5
2EF
330
1F
100
AcDbEntity
  8
LAY-10
  6
CONTINUOUS
 62
     7
100
AcDbLine
 10
511.3063679353705
 20
552.20498197803
 30
0.0
 11
516.5545026922706
 21
561.2950180219491
 31
0.0
  0
ARC
  5
2F0
330
1F
100
AcDbEntity
  8
LAY-10
  6
CONTINUOUS
 62
     7
100
AcDbCircle
 10
512.9564913047004
 20
555.291580893667
 30
0.0
 40
3.500000000000003
100
AcDbArc
 50
241.8706417306053
 51
291.3178125464985
  0
ARC
  5
2F1
330
1F
100
AcDbEntity
  8
LAY-10
  6
CONTINUOUS
 62
     7
100
AcDbCircle
 10
514.7064913047005
 20
558.3226698069126
 30
0.0
 40
3.500000000000003
100
AcDbArc
 50
8.682187453492434
 51
58.12935826940958
  0
LINE
  5
2F2
330
1F
100
AcDbEntity
  8
LAY-10
  6
CONTINUOUS
 62
     7
100
AcDbLine
 10
462.0
 20
641.4999999999905
 30
0.0
 11
462.0
 21
634.9099188538551
 31
0.0
  0
LINE
  5
2F3
330
1F
100
AcDbEntity
  8
LAY-10
  6
CONTINUOUS
 62
     7
100
AcDbLine
 10
462.0
 20
630.8799895224209
 30
0.0
 11
462.0
 21
629.9999999999926
 31
0.0
  0
LINE
  5
2F4
330
1F
100
AcDbEntity
  8
LAY-10
  6
CONTINUOUS
 62
     7
100
AcDbLine
 10
468.0000000000002
 20
641.4999999999905
 30
0.0
 11
468.0000000000002
 21
634.9099188538536
 31
0.0
  0
LINE
  5
2F5
330
1F
100
AcDbEntity
  8
LAY-10
  6
CONTINUOUS
 62
     7
100
AcDbLine
 10
468.0000000000002
 20
630.8799895224195
 30
0.0
 11
468.0000000000002
 21
629.9999999999926
 31
0.0
  0
ARC
  5
2F6
330
1F
100
AcDbEntity
  8
LAY-10
  6
CONTINUOUS
 62
     7
100
AcDbCircle
 10
464.9999999999884
 20
584.9999999999901
 30
0.0
 40
51.57656352897783
100
AcDbArc
 50
93.33454573962625
 51
95.55198191425434
  0
ARC
  5
2F7
330
1F
100
AcDbEntity
  8
LAY-10
  6
CONTINUOUS
 62
     7
100
AcDbCircle
 10
464.9999999999884
 20
584.9999999999901
 30
0.0
 40
51.57656352897783
100
AcDbArc
 50
84.44801808572058
 51
86.66545426034786
  0
LINE
  5
2F8
330
1F
100
AcDbEntity
  8
LAY-10
  6
CONTINUOUS
 62
     7
100
AcDbLine
 10
414.5695646861761
 20
559.3480762113433
 30
0.0
 11
420.276742371724
 21
562.6431167844074
 31
0.0
  0
LINE
  5
2F9
330
1F
100
AcDbEntity
  8
LAY-10
  6
CONTINUOUS
 62
     7
100
AcDbLine
 10
423.7667635482021
 20
564.6580814501244
 30
0.0
 11
424.5288568296955
 21
565.0980762113422
 31
0.0
  0
LINE
  5
2FA
330
1F
100
AcDbEntity
  8
LAY-10
  6
CONTINUOUS
 62
     7
100
AcDbLine
 10
417.5695646861763
 20
554.1519237886365
 30
0.0
 11
423.2767423717245
 21
557.4469643617009
 31
0.0
  0
LINE
  5
2FB
330
1F
100
AcDbEntity
  8
LAY-10
  6
CONTINUOUS
 62
     7
100
AcDbLine
 10
426.7667635482026
 20
559.4619290274179
 30
0.0
 11
427.5288568296955
 21
559.9019237886355
 31
0.0
  0
ARC
  5
2FC
330
1F
100
AcDbEntity
  8
LAY-10
  6
CONTINUOUS
 62
     7
100
AcDbCircle
 10
464.9999999999884
 20
584.9999999999901
 30
0.0
 40
56.30625411593209
100
AcDbArc
 50
93.05416813621477
 51
206.945831863778
  0
ARC
  5
2FD
330
1F
100
AcDbEntity
  8
LAY-10
  6
CONTINUOUS
 62
     7
100
AcDbCircle
 10
464.9999999999884
 20
584.9999999999901
 30
0.0
 40
51.57656352897783
100
AcDbArc
 50
204.4480180857371
 51
206.6654542603659
  0
ARC
  5
2FE
330
1F
100
AcDbEntity
  8
LAY-10
  6
CONTINUOUS
 62
     7
100
AcDbCircle
 10
464.9999999999884
 20
584.9999999999901
 30
0.0
 40
51.57656352897783
100
AcDbArc
 50
213.3345457396442
 51
215.551981914275
  0
ARC
  5
2FF
330
1F
100
AcDbEntity
  8
LAY-10
  6
CONTINUOUS
 62
     7
100
AcDbCircle
 10
464.9999999999884
 20
584.9999999999901
 30
0.0
 40
56.30625411593209
100
AcDbArc
 50
213.0541681362315
 51
326.945831863779
  0
ARC
  5
300
330
1F
100
AcDbEntity
  8
LAY-10
  6
CONTINUOUS
 62
     7
100
AcDbCircle
 10
464.9999999999884
 20
584.9999999999901
 30
0.0
 40
56.30625411593209
100
AcDbArc
 50
333.0541681362321
 51
86.94583186376163
  0
ARC
  5
301
330
1F
100
AcDbEntity
  8
LAY-10
  6
CONTINUOUS
 62
     7
100
AcDbCircle
 10
465.0000000000116
 20
584.9999999999901
 30
0.0
 40
51.57656352897783
100
AcDbArc
 50
333.3345457396324
 51
335.5519819142633
  0
ARC
  5
302
330
1F
100
AcDbEntity
  8
LAY-10
  6
CONTINUOUS
 62
     7
100
AcDbCircle
 10
465.0000000000116
 20
584.9999999999901
 30
0.0
 40
51.57656352897783
100
AcDbArc
 50
324.448018085725
 51
326.6654542603541
  0
LINE
  5
303
330
1F
100
AcDbEntity
  8
LAY-10
  6
CONTINUOUS
 62
     7
100
AcDbLine
 10
512.4304353138207
 20
554.1519237886364
 30
0.0
 11
506.7232576282577
 21
557.4469643617091
 31
0.0
  0
LINE
  5
304
330
1F
100
AcDbEntity
  8
LAY-10
  6
CONTINUOUS
 62
     7
100
AcDbLine
 10
503.2332364517797
 20
559.4619290274261
 30
0.0
 11
502.4711431703013
 21
559.9019237886353
 31
0.0
  0
LINE
  5
305
330
1F
100
AcDbEntity
  8
LAY-10
  6
CONTINUOUS
 62
     7
100
AcDbLine
 10
515.4304353138207
 20
559.3480762113431
 30
0.0
 11
509.7232576282572
 21
562.6431167844162
 31
0.0
  0
LINE
  5
306
330
1F
100
AcDbEntity
  8
LAY-10
  6
CONTINUOUS
 62
     7
100
AcDbLine
 10
506.2332364517792
 20
564.6580814501333
 30
0.0
 11
505.4711431703014
 21
565.0980762113421
 31
0.0
  0
LINE
  5
307
330
1F
100
AcDbEntity
  8
LAY-10
  6
CONTINUOUS
 62
     7
100
AcDbLine
 10
469.6000000000037
 20
653.3202613775503
 30
0.0
 11
469.6000000000037
 21
651.8419030249629
 31
0.0
  0
LINE
  5
308
330
1F
100
AcDbEntity
  8
LAY-10
  6
CONTINUOUS
 62
     7
100
AcDbLine
 10
469.000000000004
 20
651.880490428813
 30
0.0
 11
469.000000000004
 21
653.9648340116659
 31
0.0
  0
LINE
  5
309
330
1F
100
AcDbEntity
  8
LAY-10
  6
CONTINUOUS
 62
     7
100
AcDbLine
 10
460.4000000000045
 20
653.3202613775503
 30
0.0
 11
460.4000000000045
 21
651.841903024965
 31
0.0
  0
LINE
  5
30A
330
1F
100
AcDbEntity
  8
LAY-10
  6
CONTINUOUS
 62
     7
100
AcDbLine
 10
461.0000000000041
 20
651.8804904288148
 30
0.0
 11
461.0000000000041
 21
653.9648340116659
 31
0.0
  0
LINE
  5
30B
330
1F
100
AcDbEntity
  8
LAY-10
  6
CONTINUOUS
 62
     7
100
AcDbLine
 10
398.3258670847416
 20
578.3999999999901
 30
0.0
 11
396.8438695736161
 21
578.3999999999901
 31
0.0
  0
LINE
  5
30C
330
1F
100
AcDbEntity
  8
LAY-10
  6
CONTINUOUS
 62
     7
100
AcDbLine
 10
396.1803201819606
 20
578.9999999999902
 30
0.0
 11
398.269197517177
 21
578.9999999999902
 31
0.0
  0
ARC
  5
30D
330
1F
100
AcDbEntity
  8
LAY-10
  6
CONTINUOUS
 62
     7
100
AcDbCircle
 10
402.4999999999999
 20
584.9999999999901
 30
0.0
 40
4.0
100
AcDbArc
 50
320.8995693453087
 51
39.10043065513487
  0
LINE
  5
30E
330
1F
100
AcDbEntity
  8
LAY-10
  6
CONTINUOUS
 62
     7
100
AcDbLine
 10
396.1803201819606
 20
590.9999999999902
 30
0.0
 11
398.269197517177
 21
590.9999999999902
 31
0.0
  0
LINE
  5
30F
330
1F
100
AcDbEntity
  8
LAY-10
  6
CONTINUOUS
 62
     7
100
AcDbLine
 10
398.3258670847417
 20
591.5999999999904
 30
0.0
 11
396.8438695736171
 21
591.5999999999904
 31
0.0
  0
ARC
  5
310
330
1F
100
AcDbEntity
  8
LAY-10
  6
CONTINUOUS
 62
     7
100
AcDbCircle
 10
465.0000000000041
 20
584.9999999999899
 30
0.0
 40
69.08073776573337
100
AcDbArc
 50
175.0173031090705
 51
178.8605191718777
  0
ARC
  5
311
330
1F
100
AcDbEntity
  8
LAY-10
  6
CONTINUOUS
 62
     7
100
AcDbCircle
 10
465.0000000000041
 20
584.9999999999899
 30
0.0
 40
69.08073776573337
100
AcDbArc
 50
181.1394808280891
 51
184.982696890929
  0
LINE
  5
312
330
1F
100
AcDbEntity
  8
LAY-10
  6
CONTINUOUS
 62
     7
100
AcDbLine
 10
460.4000000000045
 20
516.6797386224295
 30
0.0
 11
460.4000000000045
 21
518.1580969750152
 31
0.0
  0
LINE
  5
313
330
1F
100
AcDbEntity
  8
LAY-10
  6
CONTINUOUS
 62
     7
100
AcDbLine
 10
461.0000000000041
 20
518.1195095711653
 30
0.0
 11
461.0000000000041
 21
516.0351659883139
 31
0.0
  0
LINE
  5
314
330
1F
100
AcDbEntity
  8
LAY-10
  6
CONTINUOUS
 62
     7
100
AcDbLine
 10
469.6000000000037
 20
516.6797386224295
 30
0.0
 11
469.6000000000037
 21
518.1580969750174
 31
0.0
  0
LINE
  5
315
330
1F
100
AcDbEntity
  8
LAY-10
  6
CONTINUOUS
 62
     7
100
AcDbLine
 10
469.000000000004
 20
518.1195095711672
 30
0.0
 11
469.000000000004
 21
516.0351659883139
 31
0.0
  0
ARC
  5
316
330
1F
100
AcDbEntity
  8
LAY-10
  6
CONTINUOUS
 62
     7
100
AcDbCircle
 10
464.9999999999884
 20
584.9999999999901
 30
0.0
 40
67.0
100
AcDbArc
 50
3.770438343260049
 51
176.2295616567539
  0
LINE
  5
317
330
1F
100
AcDbEntity
  8
LAY-10
  6
CONTINUOUS
 62
     7
100
AcDbLine
 10
533.8196798180393
 20
590.9999999999902
 30
0.0
 11
531.7308024827998
 21
590.9999999999902
 31
0.0
  0
LINE
  5
318
330
1F
100
AcDbEntity
  8
LAY-10
  6
CONTINUOUS
 62
     7
100
AcDbLine
 10
531.6741329152353
 20
591.5999999999904
 30
0.0
 11
533.1561304263829
 21
591.5999999999904
 31
0.0
  0
ARC
  5
319
330
1F
100
AcDbEntity
  8
LAY-10
  6
CONTINUOUS
 62
     7
100
AcDbCircle
 10
464.9999999999957
 20
584.9999999999899
 30
0.0
 40
69.08073776573337
100
AcDbArc
 50
1.139480828124436
 51
4.982696890929698
  0
ARC
  5
31A
330
1F
100
AcDbEntity
  8
LAY-10
  6
CONTINUOUS
 62
     7
100
AcDbCircle
 10
464.9999999999957
 20
584.9999999999899
 30
0.0
 40
69.08073776573337
100
AcDbArc
 50
355.0173031090713
 51
358.8605191719093
  0
ARC
  5
31B
330
1F
100
AcDbEntity
  8
LAY-10
  6
CONTINUOUS
 62
     7
100
AcDbCircle
 10
464.9999999999884
 20
584.9999999999901
 30
0.0
 40
67.0
100
AcDbArc
 50
183.7704383432123
 51
356.2295616567741
  0
ARC
  5
31C
330
1F
100
AcDbEntity
  8
LAY-10
  6
CONTINUOUS
 62
     7
100
AcDbCircle
 10
527.4999999999977
 20
585.0000000000001
 30
0.0
 40
4.0
100
AcDbArc
 50
140.8995693447807
 51
219.1004306549993
  0
LINE
  5
31D
330
1F
100
AcDbEntity
  8
LAY-10
  6
CONTINUOUS
 62
     7
100
AcDbLine
 10
533.8196798180393
 20
578.9999999999902
 30
0.0
 11
531.7308024828001
 21
578.9999999999902
 31
0.0
  0
LINE
  5
31E
330
1F
100
AcDbEntity
  8
LAY-10
  6
CONTINUOUS
 62
     7
100
AcDbLine
 10
531.6741329152353
 20
578.3999999999901
 30
0.0
 11
533.1561304263838
 21
578.3999999999901
 31
0.0
  0
LINE
  5
31F
330
1F
100
AcDbEntity
  8
LAY-10
  6
CONTINUOUS
 62
     7
100
AcDbLine
 10
534.0807377657376
 20
309.999999999998
 30
0.0
 11
403.5000000000005
 21
309.999999999998
 31
0.0
  0
LINE
  5
320
330
1F
100
AcDbEntity
  8
LAY-10
  6
CONTINUOUS
 62
     7
100
AcDbLine
 10
546.9999999999924
 20
308.0000000000017
 30
0.0
 11
546.9999999999924
 21
308.9999999999999
 31
0.0
  0
LINE
  5
321
330
1F
100
AcDbEntity
  8
LAY-10
  6
CONTINUOUS
 62
     7
100
AcDbLine
 10
541.9999999999931
 20
308.0000000000017
 30
0.0
 11
541.9999999999931
 21
309.000000000001
 31
0.0
  0
LINE
  5
322
330
1F
100
AcDbEntity
  8
LAY-10
  6
CONTINUOUS
 62
     7
100
AcDbLine
 10
541.9999999999931
 20
309.000000000001
 30
0.0
 11
546.9999999999924
 21
309.000000000001
 31
0.0
  0
LINE
  5
323
330
1F
100
AcDbEntity
  8
LAY-10
  6
CONTINUOUS
 62
     7
100
AcDbLine
 10
541.4999999999899
 20
307.500000000001
 30
0.0
 11
547.4999999999899
 21
307.500000000001
 31
0.0
  0
LINE
  5
324
330
1F
100
AcDbEntity
  8
LAY-10
  6
CONTINUOUS
 62
     7
100
AcDbLine
 10
541.9999999999899
 20
308.0000000000017
 30
0.0
 11
546.9999999999899
 21
308.0000000000017
 31
0.0
  0
LINE
  5
325
330
1F
100
AcDbEntity
  8
LAY-10
  6
CONTINUOUS
 62
     7
100
AcDbLine
 10
544.4999999999901
 20
310.4433756729767
 30
0.0
 11
546.999999999991
 21
309.000000000002
 31
0.0
  0
LINE
  5
326
330
1F
100
AcDbEntity
  8
LAY-10
  6
CONTINUOUS
 62
     7
100
AcDbLine
 10
544.4999999999897
 20
310.4433756729765
 30
0.0
 11
541.9999999999892
 21
309.000000000002
 31
0.0
  0
LINE
  5
327
330
1F
100
AcDbEntity
  8
LAY-10
  6
CONTINUOUS
 62
     7
100
AcDbLine
 10
558.9999999999894
 20
278.0000000000103
 30
0.0
 11
558.9999999999894
 21
283.0000000000102
 31
0.0
  0
LINE
  5
328
330
1F
100
AcDbEntity
  8
LAY-10
  6
CONTINUOUS
 62
     7
100
AcDbLine
 10
548.999999999989
 20
283.0000000000102
 30
0.0
 11
558.9999999999894
 21
283.0000000000102
 31
0.0
  0
ARC
  5
329
330
1F
100
AcDbEntity
  8
LAY-10
  6
CONTINUOUS
 62
     7
100
AcDbCircle
 10
548.999999999989
 20
285.0000000000103
 30
0.0
 40
2.0
100
AcDbArc
 50
180.0
 51
270.0000000000002
  0
LINE
  5
32A
330
1F
100
AcDbEntity
  8
LAY-10
  6
CONTINUOUS
 62
     7
100
AcDbLine
 10
548.999999999989
 20
278.0000000000103
 30
0.0
 11
558.9999999999894
 21
278.0000000000103
 31
0.0
  0
ARC
  5
32B
330
1F
100
AcDbEntity
  8
LAY-10
  6
CONTINUOUS
 62
     7
100
AcDbCircle
 10
548.999999999989
 20
285.0000000000103
 30
0.0
 40
7.000000000000004
100
AcDbArc
 50
180.0
 51
270.0000000000002
  0
LINE
  5
32C
330
1F
100
AcDbEntity
  8
LAY-10
  6
CONTINUOUS
 62
     7
100
AcDbLine
 10
546.9999999999899
 20
285.0000000000059
 30
0.0
 11
546.9999999999899
 21
300.0000000000056
 31
0.0
  0
LINE
  5
32D
330
1F
100
AcDbEntity
  8
LAY-10
  6
CONTINUOUS
 62
     7
100
AcDbLine
 10
541.9999999999899
 20
285.0000000000059
 30
0.0
 11
541.9999999999899
 21
300.0000000000056
 31
0.0
  0
LINE
  5
32E
330
1F
100
AcDbEntity
  8
LAY-10
  6
CONTINUOUS
 62
     7
100
AcDbLine
 10
541.9999999999931
 20
306.0000000000105
 30
0.0
 11
546.9999999999924
 21
306.0000000000105
 31
0.0
  0
LINE
  5
32F
330
1F
100
AcDbEntity
  8
LAY-10
  6
CONTINUOUS
 62
     7
100
AcDbLine
 10
541.4999999999917
 20
305.5000000000119
 30
0.0
 11
547.4999999999908
 21
305.5000000000119
 31
0.0
  0
LINE
  5
330
330
1F
100
AcDbEntity
  8
LAY-10
  6
CONTINUOUS
 62
     7
100
AcDbLine
 10
546.9999999999924
 20
308.0000000000017
 30
0.0
 11
546.9999999999924
 21
306.0000000000105
 31
0.0
  0
LINE
  5
331
330
1F
100
AcDbEntity
  8
LAY-10
  6
CONTINUOUS
 62
     7
100
AcDbLine
 10
541.9999999999931
 20
308.0000000000017
 30
0.0
 11
541.9999999999931
 21
306.0000000000105
 31
0.0
  0
LINE
  5
332
330
1F
100
AcDbEntity
  8
LAY-10
  6
CONTINUOUS
 62
     7
100
AcDbLine
 10
547.4999999999899
 20
305.5000000000159
 30
0.0
 11
546.9999999999899
 21
306.0000000000059
 31
0.0
  0
LINE
  5
333
330
1F
100
AcDbEntity
  8
LAY-10
  6
CONTINUOUS
 62
     7
100
AcDbLine
 10
541.9999999999899
 20
306.0000000000059
 30
0.0
 11
541.4999999999899
 21
305.5000000000159
 31
0.0
  0
LINE
  5
334
330
1F
100
AcDbEntity
  8
LAY-10
  6
CONTINUOUS
 62
     7
100
AcDbLine
 10
541.4999999999899
 20
305.5000000000159
 30
0.0
 11
541.4999999999899
 21
300.0000000000059
 31
0.0
  0
LINE
  5
335
330
1F
100
AcDbEntity
  8
LAY-10
  6
CONTINUOUS
 62
     7
100
AcDbLine
 10
547.4999999999899
 20
305.5000000000159
 30
0.0
 11
547.4999999999899
 21
300.0000000000059
 31
0.0
  0
LINE
  5
336
330
1F
100
AcDbEntity
  8
LAY-10
  6
CENTER
 62
     2
100
AcDbLine
 10
459.0
 20
367.4999999999999
 30
0.0
 11
471.0
 21
367.4999999999999
 31
0.0
  0
LINE
  5
337
330
1F
100
AcDbEntity
  8
LAY-10
  6
CENTER
 62
     2
100
AcDbLine
 10
508.09999999999
 20
367.4999999999999
 30
0.0
 11
526.6999999999899
 21
367.4999999999999
 31
0.0
  0
LINE
  5
338
330
1F
100
AcDbEntity
  8
LAY-10
  6
CENTER
 62
     2
100
AcDbLine
 10
465.0000000000043
 20
379.3206694752001
 30
0.0
 11
465.0000000000039
 21
233.1206694752001
 31
0.0
  0
LINE
  5
339
330
1F
100
AcDbEntity
  8
LAY-10
  6
CENTER
 62
     2
100
AcDbLine
 10
400.9999999999999
 20
300.0206694752001
 30
0.0
 11
400.9999999999999
 21
323.4206694752
 31
0.0
  0
LINE
  5
33A
330
1F
100
AcDbEntity
  8
LAY-10
  6
CENTER
 62
     2
100
AcDbLine
 10
371.5
 20
584.9999999999899
 30
0.0
 11
558.5000000000001
 21
584.9999999999899
 31
0.0
  0
LINE
  5
33B
330
1F
100
AcDbEntity
  8
LAY-10
  6
CENTER
 62
     2
100
AcDbLine
 10
465.0
 20
491.4999999999897
 30
0.0
 11
465.0
 21
678.4999999999898
 31
0.0
  0
LINE
  5
33C
330
1F
100
AcDbEntity
  8
LAY-10
  6
CENTER
 62
     2
100
AcDbLine
 10
401.0000000000041
 20
578.3999999999699
 30
0.0
 11
401.0000000000002
 21
591.5999999999904
 31
0.0
  0
LINE
  5
33D
330
1F
100
AcDbEntity
  8
LAY-10
  6
CENTER
 62
     2
100
AcDbLine
 10
528.9999999999957
 20
578.3999999999699
 30
0.0
 11
529.0000000000003
 21
591.5999999999904
 31
0.0
  0
LINE
  5
33E
330
1F
100
AcDbEntity
  8
LAY-10
  6
CENTER
 62
     2
100
AcDbLine
 10
411.65688790354
 20
554.2023398716867
 30
0.0
 11
428.5885493362558
 21
563.977839157693
 31
0.0
  0
LINE
  5
33F
330
1F
100
AcDbEntity
  8
LAY-10
  6
CENTER
 62
     2
100
AcDbLine
 10
518.5761505722179
 20
554.0677950449765
 30
0.0
 11
501.4114506637441
 21
563.977839157693
 31
0.0
  0
LINE
  5
340
330
1F
100
AcDbEntity
  8
LAY-10
  6
CENTER
 62
     2
100
AcDbLine
 10
560.1999999999888
 20
280.5000000000115
 30
0.0
 11
548.9999999999899
 21
280.5000000000115
 31
0.0
  0
ARC
  5
341
330
1F
100
AcDbEntity
  8
LAY-10
  6
CENTER
 62
     2
100
AcDbCircle
 10
548.9999999999899
 20
285.0000000000115
 30
0.0
 40
4.5
100
AcDbArc
 50
180.0
 51
270.0000000000002
  0
LINE
  5
342
330
1F
100
AcDbEntity
  8
LAY-10
  6
CENTER
 62
     2
100
AcDbLine
 10
544.4999999999901
 20
311.2013587594957
 30
0.0
 11
544.4999999999901
 21
285.0000000000115
 31
0.0
  0
LINE
  5
343
330
1F
100
AcDbEntity
  8
LAY-10
  6
CONTINUOUS
 62
     7
100
AcDbLine
 10
462.5000000000004
 20
641.4999999999905
 30
0.0
 11
462.5000000000004
 21
634.9374608885793
 31
0.0
  0
LINE
  5
344
330
1F
100
AcDbEntity
  8
LAY-10
  6
CONTINUOUS
 62
     7
100
AcDbLine
 10
462.5000000000004
 20
630.9099492330088
 30
0.0
 11
462.5000000000004
 21
629.4999999999925
 31
0.0
  0
LINE
  5
345
330
1F
100
AcDbEntity
  8
LAY-10
  6
CONTINUOUS
 62
     7
100
AcDbLine
 10
467.5000000000005
 20
641.4999999999905
 30
0.0
 11
467.5000000000005
 21
634.937460888578
 31
0.0
  0
LINE
  5
346
330
1F
100
AcDbEntity
  8
LAY-10
  6
CONTINUOUS
 62
     7
100
AcDbLine
 10
467.5000000000005
 20
630.9099492330075
 30
0.0
 11
467.5000000000005
 21
629.4999999999925
 31
0.0
  0
LINE
  5
347
330
1F
100
AcDbEntity
  8
LAY-10
  6
CONTINUOUS
 62
     7
100
AcDbLine
 10
414.8195646861761
 20
558.9150635094513
 30
0.0
 11
420.5028902699809
 21
562.1963330651532
 31
0.0
  0
LINE
  5
348
330
1F
100
AcDbEntity
  8
LAY-10
  6
CONTINUOUS
 62
     7
100
AcDbLine
 10
423.9908176777428
 20
564.2100888929385
 30
0.0
 11
425.2118695315876
 21
564.9150635094503
 31
0.0
  0
LINE
  5
349
330
1F
100
AcDbEntity
  8
LAY-10
  6
CONTINUOUS
 62
     7
100
AcDbLine
 10
417.319564686176
 20
554.584936490529
 30
0.0
 11
423.0028902699812
 21
557.8662060462311
 31
0.0
  0
LINE
  5
34A
330
1F
100
AcDbEntity
  8
LAY-10
  6
CONTINUOUS
 62
     7
100
AcDbLine
 10
426.4908176777432
 20
559.8799618740164
 30
0.0
 11
427.7118695315875
 21
560.584936490528
 31
0.0
  0
LINE
  5
34B
330
1F
100
AcDbEntity
  8
LAY-10
  6
CONTINUOUS
 62
     7
100
AcDbLine
 10
512.6804353138205
 20
554.5849364905283
 30
0.0
 11
506.9971097300008
 21
557.8662060462389
 31
0.0
  0
LINE
  5
34C
330
1F
100
AcDbEntity
  8
LAY-10
  6
CONTINUOUS
 62
     7
100
AcDbLine
 10
503.5091823222387
 20
559.8799618740242
 30
0.0
 11
502.2881304684089
 21
560.5849364905273
 31
0.0
  0
LINE
  5
34D
330
1F
100
AcDbEntity
  8
LAY-10
  6
CONTINUOUS
 62
     7
100
AcDbLine
 10
515.1804353138206
 20
558.9150635094505
 30
0.0
 11
509.4971097300002
 21
562.1963330651614
 31
0.0
  0
LINE
  5
34E
330
1F
100
AcDbEntity
  8
LAY-10
  6
CONTINUOUS
 62
     7
100
AcDbLine
 10
506.0091823222383
 20
564.2100888929466
 30
0.0
 11
504.788130468409
 21
564.9150635094495
 31
0.0
  0
LINE
  5
34F
330
1F
100
AcDbEntity
  8
LAY-10
  6
CONTINUOUS
 62
     7
100
AcDbLine
 10
398.0000000000002
 20
303.9999999999992
 30
0.0
 11
403.9999999999997
 21
303.9999999999992
 31
0.0
  0
ARC
  5
350
330
1F
100
AcDbEntity
  8
LAY-10
  6
CONTINUOUS
 62
     7
100
AcDbCircle
 10
464.9999999999997
 20
367.5000000000017
 30
0.0
 40
2.5
100
AcDbArc
 50
90.00000000000001
 51
270.0
  0
LINE
  5
351
330
1F
100
AcDbEntity
  8
LAY-10
  6
CONTINUOUS
 62
     7
100
AcDbLine
 10
521.5000000000005
 20
364.9999999999995
 30
0.0
 11
509.5000000000025
 21
364.9999999999995
 31
0.0
  0
LINE
  5
352
330
1F
100
AcDbEntity
  8
LAY-10
  6
CONTINUOUS
 62
     7
100
AcDbLine
 10
521.5000000000005
 20
369.9999999999996
 30
0.0
 11
509.5000000000025
 21
369.9999999999996
 31
0.0
  0
LINE
  5
353
330
1F
100
AcDbEntity
  8
LAY-10
  6
CONTINUOUS
 62
     7
100
AcDbLine
 10
403.5000000000005
 20
318.0000000000005
 30
0.0
 11
403.5000000000005
 21
306.0000000000026
 31
0.0
  0
LINE
  5
354
330
1F
100
AcDbEntity
  8
LAY-10
  6
CONTINUOUS
 62
     7
100
AcDbLine
 10
398.5000000000005
 20
318.0000000000005
 30
0.0
 11
398.5000000000005
 21
306.0000000000026
 31
0.0
  0
LINE
  5
355
330
1F
100
AcDbEntity
  8
LAY-10
  6
CONTINUOUS
 62
     7
100
AcDbLine
 10
398.0000000000002
 20
303.9999999999992
 30
0.0
 11
398.0000000000002
 21
306.5000000000001
 31
0.0
  0
LINE
  5
356
330
1F
100
AcDbEntity
  8
LAY-10
  6
CONTINUOUS
 62
     7
100
AcDbLine
 10
403.9999999999997
 20
303.9999999999992
 30
0.0
 11
403.9999999999997
 21
306.5000000000001
 31
0.0
  0
LINE
  5
357
330
1F
100
AcDbEntity
  8
LAY-10
  6
CONTINUOUS
 62
     7
100
AcDbLine
 10
547.4999999999908
 20
307.500000000001
 30
0.0
 11
546.9999999999924
 21
308.0000000000017
 31
0.0
  0
LINE
  5
358
330
1F
100
AcDbEntity
  8
LAY-10
  6
CONTINUOUS
 62
     7
100
AcDbLine
 10
541.4999999999917
 20
307.500000000001
 30
0.0
 11
541.9999999999931
 21
308.0000000000017
 31
0.0
  0
LINE
  5
359
330
1F
100
AcDbEntity
  8
LAY-10
  6
CONTINUOUS
 62
     7
100
AcDbLine
 10
547.4999999999908
 20
307.500000000001
 30
0.0
 11
547.4999999999908
 21
305.5000000000119
 31
0.0
  0
LINE
  5
35A
330
1F
100
AcDbEntity
  8
LAY-10
  6
CONTINUOUS
 62
     7
100
AcDbLine
 10
541.4999999999917
 20
307.500000000001
 30
0.0
 11
541.4999999999917
 21
305.5000000000119
 31
0.0
  0
LINE
  5
35B
330
1F
100
AcDbEntity
  8
LAY-10
  6
CONTINUOUS
 62
     7
100
AcDbLine
 10
546.9999999999899
 20
306.0000000000059
 30
0.0
 11
546.9999999999899
 21
300.0000000000059
 31
0.0
  0
LINE
  5
35C
330
1F
100
AcDbEntity
  8
LAY-10
  6
CONTINUOUS
 62
     7
100
AcDbLine
 10
541.9999999999899
 20
306.0000000000059
 30
0.0
 11
541.9999999999899
 21
300.0000000000059
 31
0.0
  0
LINE
  5
35D
330
1F
100
AcDbEntity
  8
LAY-10
  6
CONTINUOUS
 62
     7
100
AcDbLine
 10
541.9999999999717
 20
299.1339745962109
 30
0.0
 11
541.4999999999717
 21
299.9999999999955
 31
0.0
  0
LINE
  5
35E
330
1F
100
AcDbEntity
  8
LAY-10
  6
CONTINUOUS
 62
     7
100
AcDbLine
 10
547.0000000000019
 20
299.1339745962144
 30
0.0
 11
547.5000000000019
 21
299.999999999999
 31
0.0
  0
DIMENSION
  5
360
330
1F
100
AcDbEntity
  8
LAY-20
  6
CONTINUOUS
 62
     4
100
AcDbDimension
  2
*D15
 10
346.5000000000101
 20
318.0
 30
0.0
 11
339.0000000000101
 21
306.1635425181451
 31
0.0
 70
   160
  1
24
  3
ISO-25
100
AcDbAlignedDimension
 13
408.0
 23
294.32708503629
 33
0.0
 14
377.5
 24
318.0
 34
0.0
 50
90.0
100
AcDbRotatedDimension
1001
ACAD
1000
DSTYLE
1002
{
1070
   270
1070
     2
1070
     6
1000
EX_BNORM
1070
     7
1000
EX_BNORM
1070
    41
1040
7.5
1070
    42
1040
4.5
1070
    44
1040
4.5
1070
    73
1070
     0
1070
    74
1070
     0
1070
    75
1070
     0
1070
    76
1070
     0
1070
    77
1070
     1
1070
    78
1070
     8
1070
   140
1040
9.3543312
1070
   147
1040
0.0
1070
   173
1070
     1
1070
   176
1070
     4
1070
   177
1070
     4
1070
   178
1070
     7
1070
   271
1070
     1
1070
   277
1070
     2
1070
   279
1070
     2
1070
   280
1070
     0
1070
   287
1070
     5
1070
   340
1005
35F
1002
}
  0
DIMENSION
  5
36E
330
1F
100
AcDbEntity
  8
LAY-20
  6
CONTINUOUS
 62
     4
100
AcDbDimension
  2
*D16
 10
583.5
 20
318.0
 30
0.0
 11
576.0
 21
278.0
 31
0.0
 70
   160
  3
ISO-25
100
AcDbAlignedDimension
 13
522.0
 23
238.0
 33
0.0
 14
552.5
 24
318.0
 34
0.0
 50
90.0
100
AcDbRotatedDimension
1001
ACAD
1000
DSTYLE
1002
{
1070
   270
1070
     2
1070
     6
1000
EX_BNORM
1070
     7
1000
EX_BNORM
1070
    41
1040
7.5
1070
    42
1040
4.5
1070
    44
1040
4.5
1070
    73
1070
     0
1070
    74
1070
     0
1070
    75
1070
     0
1070
    76
1070
     0
1070
    77
1070
     1
1070
    78
1070
     8
1070
   140
1040
9.3543312
1070
   147
1040
0.0
1070
   173
1070
     1
1070
   176
1070
     4
1070
   177
1070
     4
1070
   178
1070
     7
1070
   271
1070
     1
1070
   277
1070
     2
1070
   279
1070
     2
1070
   280
1070
     0
1070
   287
1070
     5
1070
   340
1005
35F
1002
}
  0
DIMENSION
  5
37B
330
1F
100
AcDbEntity
  8
LAY-20
  6
CONTINUOUS
 62
     4
100
AcDbDimension
  2
*D17
 10
583.5
 20
318.0
 30
0.0
 11
576.0
 21
346.5
 31
0.0
 70
   160
  3
ISO-25
100
AcDbAlignedDimension
 13
514.99999999999
 23
375.0
 33
0.0
 14
583.5
 24
318.0
 34
0.0
 50
90.0
100
AcDbRotatedDimension
1001
ACAD
1000
DSTYLE
1002
{
1070
   270
1070
     2
1070
     6
1000
EX_BNORM
1070
     7
1000
EX_BNORM
1070
    41
1040
7.5
1070
    42
1040
4.5
1070
    44
1040
4.5
1070
    73
1070
     0
1070
    74
1070
     0
1070
    75
1070
     0
1070
    76
1070
     1
1070
    77
1070
     1
1070
    78
1070
     8
1070
   140
1040
9.3543312
1070
   147
1040
0.0
1070
   173
1070
     1
1070
   176
1070
     4
1070
   177
1070
     4
1070
   178
1070
     7
1070
   271
1070
     1
1070
   277
1070
     2
1070
   279
1070
     2
1070
   280
1070
     0
1070
   287
1070
     5
1070
   340
1005
35F
1002
}
  0
DIMENSION
  5
387
330
1F
100
AcDbEntity
  8
LAY-20
  6
CONTINUOUS
 62
     4
100
AcDbDimension
  2
*D18
 10
500.4999999999999
 20
208.0
 30
0.0
 11
465.0
 21
215.5
 31
0.0
 70
   160
  1
%%c<>
  3
ISO-25
100
AcDbAlignedDimension
 13
429.5
 23
252.95625566824
 33
0.0
 14
500.4999999999999
 24
252.95625566824
 34
0.0
100
AcDbRotatedDimension
1001
ACAD
1000
DSTYLE
1002
{
1070
   270
1070
     2
1070
     6
1000
EX_BNORM
1070
     7
1000
EX_BNORM
1070
    41
1040
9.0
1070
    42
1040
4.5
1070
    44
1040
4.5
1070
    73
1070
     0
1070
    74
1070
     0
1070
    75
1070
     0
1070
    76
1070
     0
1070
    77
1070
     1
1070
    78
1070
     8
1070
   140
1040
9.3543312
1070
   147
1040
0.0
1070
   173
1070
     1
1070
   176
1070
     4
1070
   177
1070
     4
1070
   178
1070
     7
1070
   271
1070
     1
1070
   277
1070
     2
1070
   279
1070
     2
1070
   280
1070
     0
1070
   287
1070
     5
1070
   340
1005
35F
1002
}
  0
DIMENSION
  5
394
330
1F
100
AcDbEntity
  8
LAY-20
  6
CONTINUOUS
 62
     4
100
AcDbDimension
  2
*D19
 10
501.9999999999999
 20
187.0
 30
0.0
 11
465.0
 21
194.5
 31
0.0
 70
   160
  1
%%c<>
  3
ISO-25
100
AcDbAlignedDimension
 13
428.0
 23
288.45625566824
 33
0.0
 14
501.9999999999999
 24
288.45625566824
 34
0.0
100
AcDbRotatedDimension
1001
ACAD
1000
DSTYLE
1002
{
1070
   270
1070
     2
1070
     6
1000
EX_BNORM
1070
     7
1000
EX_BNORM
1070
    41
1040
9.0
1070
    42
1040
4.5
1070
    44
1040
4.5
1070
    73
1070
     0
1070
    74
1070
     0
1070
    75
1070
     0
1070
    76
1070
     0
1070
    77
1070
     1
1070
    78
1070
     8
1070
   140
1040
9.3543312
1070
   147
1040
0.0
1070
   173
1070
     1
1070
   176
1070
     4
1070
   177
1070
     4
1070
   178
1070
     7
1070
   271
1070
     1
1070
   277
1070
     2
1070
   279
1070
     2
1070
   280
1070
     0
1070
   287
1070
     5
1070
   340
1005
35F
1002
}
  0
DIMENSION
  5
3A1
330
1F
100
AcDbEntity
  8
LAY-20
  6
CONTINUOUS
 62
     4
100
AcDbDimension
  2
*D20
 10
510.97796688174
 20
405.0
 30
0.0
 11
465.0
 21
412.5
 31
0.0
 70
   160
  1
%%c<>
  3
ISO-25
100
AcDbAlignedDimension
 13
419.02203311826
 23
379.5
 33
0.0
 14
510.97796688174
 24
375.0
 34
0.0
100
AcDbRotatedDimension
1001
ACAD
1000
DSTYLE
1002
{
1070
   270
1070
     2
1070
     6
1000
EX_BNORM
1070
     7
1000
EX_BNORM
1070
    41
1040
9.0
1070
    42
1040
4.5
1070
    44
1040
4.5
1070
    73
1070
     0
1070
    74
1070
     0
1070
    75
1070
     0
1070
    76
1070
     0
1070
    77
1070
     1
1070
    78
1070
     8
1070
   140
1040
9.3543312
1070
   147
1040
0.0
1070
   173
1070
     1
1070
   176
1070
     4
1070
   177
1070
     4
1070
   178
1070
     7
1070
   271
1070
     1
1070
   277
1070
     2
1070
   279
1070
     2
1070
   280
1070
     0
1070
   287
1070
     5
1070
   340
1005
35F
1002
}
  0
DIMENSION
  5
3AE
330
1F
100
AcDbEntity
  8
LAY-20
  6
CONTINUOUS
 62
     4
100
AcDbDimension
  2
*D21
 10
532.0
 20
426.0
 30
0.0
 11
465.0
 21
433.5
 31
0.0
 70
   160
  1
%%c<>
  3
ISO-25
100
AcDbAlignedDimension
 13
398.0
 23
318.0
 33
0.0
 14
532.0
 24
376.5
 34
0.0
100
AcDbRotatedDimension
1001
ACAD
1000
DSTYLE
1002
{
1070
   270
1070
     2
1070
     6
1000
EX_BNORM
1070
     7
1000
EX_BNORM
1070
    41
1040
9.0
1070
    42
1040
4.5
1070
    44
1040
4.5
1070
    73
1070
     0
1070
    74
1070
     0
1070
    75
1070
     0
1070
    76
1070
     0
1070
    77
1070
     1
1070
    78
1070
     8
1070
   140
1040
9.3543312
1070
   147
1040
0.0
1070
   173
1070
     1
1070
   176
1070
     4
1070
   177
1070
     4
1070
   178
1070
     7
1070
   271
1070
     1
1070
   277
1070
     2
1070
   279
1070
     2
1070
   280
1070
     0
1070
   287
1070
     5
1070
   340
1005
35F
1002
}
  0
DIMENSION
  5
3BB
330
1F
100
AcDbEntity
  8
LAY-20
  6
CONTINUOUS
 62
     4
100
AcDbDimension
  2
*D22
 10
534.5
 20
447.0
 30
0.0
 11
465.0000000000049
 21
454.5
 31
0.0
 70
   160
  1
%%c<>
  3
ISO-25
100
AcDbAlignedDimension
 13
395.50000000001
 23
322.5
 33
0.0
 14
534.5
 24
322.5
 34
0.0
100
AcDbRotatedDimension
1001
ACAD
1000
DSTYLE
1002
{
1070
   270
1070
     2
1070
     6
1000
EX_BNORM
1070
     7
1000
EX_BNORM
1070
    41
1040
9.0
1070
    42
1040
4.5
1070
    44
1040
4.5
1070
    73
1070
     0
1070
    74
1070
     0
1070
    75
1070
     0
1070
    76
1070
     0
1070
    77
1070
     1
1070
    78
1070
     8
1070
   140
1040
9.3543312
1070
   147
1040
0.0
1070
   173
1070
     1
1070
   176
1070
     4
1070
   177
1070
     4
1070
   178
1070
     7
1070
   271
1070
     1
1070
   277
1070
     2
1070
   279
1070
     2
1070
   280
1070
     0
1070
   287
1070
     5
1070
   340
1005
35F
1002
}
  0
DIMENSION
  5
3C8
330
1F
100
AcDbEntity
  8
LAY-20
  6
CONTINUOUS
 62
     4
100
AcDbDimension
  2
*D23
 10
553.5
 20
468.0
 30
0.0
 11
465.0
 21
475.5
 31
0.0
 70
   160
  1
%%c<>
  3
ISO-25
100
AcDbAlignedDimension
 13
376.5
 23
315.5
 33
0.0
 14
553.5
 24
315.49999999999
 34
0.0
100
AcDbRotatedDimension
1001
ACAD
1000
DSTYLE
1002
{
1070
   270
1070
     2
1070
     6
1000
EX_BNORM
1070
     7
1000
EX_BNORM
1070
    41
1040
9.0
1070
    42
1040
4.5
1070
    44
1040
4.5
1070
    73
1070
     0
1070
    74
1070
     0
1070
    75
1070
     0
1070
    76
1070
     0
1070
    77
1070
     1
1070
    78
1070
     8
1070
   140
1040
9.3543312
1070
   147
1040
0.0
1070
   173
1070
     1
1070
   176
1070
     4
1070
   177
1070
     4
1070
   178
1070
     7
1070
   271
1070
     1
1070
   277
1070
     2
1070
   279
1070
     2
1070
   280
1070
     0
1070
   287
1070
     5
1070
   340
1005
35F
1002
}
  0
LINE
  5
3D5
330
1F
100
AcDbEntity
  8
LAY-255
  6
CONTINUOUS
 62
     7
100
AcDbLine
 10
1155.0
 20
66.0
 30
0.0
 11
855.0
 21
66.0
 31
0.0
  0
LINE
  5
3D6
330
1F
100
AcDbEntity
  8
LAY-255
  6
CONTINUOUS
 62
     7
100
AcDbLine
 10
866.4000000000001
 20
48.0
 30
0.0
 11
890.4000000000001
 21
63.0
 31
0.0
  0
LINE
  5
3D7
330
1F
100
AcDbEntity
  8
LAY-255
  6
CONTINUOUS
 62
     7
100
AcDbLine
 10
890.4000000000001
 20
63.0
 30
0.0
 11
914.4000000000001
 21
48.0
 31
0.0
  0
LINE
  5
3D8
330
1F
100
AcDbEntity
  8
LAY-255
  6
CONTINUOUS
 62
     7
100
AcDbLine
 10
914.4000000000001
 20
48.0
 30
0.0
 11
890.4000000000001
 21
33.0
 31
0.0
  0
LINE
  5
3D9
330
1F
100
AcDbEntity
  8
LAY-255
  6
CONTINUOUS
 62
     7
100
AcDbLine
 10
890.4000000000001
 20
33.0
 30
0.0
 11
866.4000000000001
 21
48.0
 31
0.0
  0
LINE
  5
3DA
330
1F
100
AcDbEntity
  8
LAY-255
  6
CONTINUOUS
 62
     7
100
AcDbLine
 10
15.0
 20
30.0
 30
0.0
 11
1155.0
 21
30.0
 31
0.0
  0
LINE
  5
3DB
330
1F
100
AcDbEntity
  8
LAY-255
  6
CONTINUOUS
 62
     7
100
AcDbLine
 10
15.0
 20
840.0
 30
0.0
 11
1155.0
 21
840.0
 31
0.0
  0
LINE
  5
3DC
330
1F
100
AcDbEntity
  8
LAY-255
  6
CONTINUOUS
 62
     7
100
AcDbLine
 10
15.0
 20
30.0
 30
0.0
 11
15.0
 21
840.0
 31
0.0
  0
LINE
  5
3DD
330
1F
100
AcDbEntity
  8
LAY-255
  6
CONTINUOUS
 62
     7
100
AcDbLine
 10
1155.0
 20
30.0
 30
0.0
 11
1155.0
 21
840.0
 31
0.0
  0
LINE
  5
3DE
330
1F
100
AcDbEntity
  8
LAY-255
  6
CONTINUOUS
 62
     4
100
AcDbLine
 10
855.0
 20
84.0
 30
0.0
 11
1155.0
 21
84.0
 31
0.0
  0
LINE
  5
3DF
330
1F
100
AcDbEntity
  8
LAY-255
  6
CONTINUOUS
 62
     7
100
AcDbLine
 10
855.0
 20
30.0
 30
0.0
 11
855.0
 21
201.0
 31
0.0
  0
LINE
  5
3E0
330
1F
100
AcDbEntity
  8
LAY-255
  6
CONTINUOUS
 62
     4
100
AcDbLine
 10
1005.0
 20
84.0
 30
0.0
 11
1005.0
 21
66.0
 31
0.0
  0
LINE
  5
3E1
330
1F
100
AcDbEntity
  8
LAY-255
  6
CONTINUOUS
 62
     7
100
AcDbLine
 10
1155.0
 20
201.0
 30
0.0
 11
855.0
 21
201.0
 31
0.0
  0
LINE
  5
3E2
330
1F
100
AcDbEntity
  8
LAY-255
  6
CONTINUOUS
 62
     4
100
AcDbLine
 10
1149.0
 20
165.0
 30
0.0
 11
861.0
 21
165.0
 31
0.0
  0
LINE
  5
3E3
330
1F
100
AcDbEntity
  8
LAY-255
  6
CONTINUOUS
 62
     4
100
AcDbLine
 10
1149.0
 20
183.0
 30
0.0
 11
861.0
 21
183.0
 31
0.0
  0
POINT
  5
3E4
330
1F
100
AcDbEntity
  8
LAY-255
  6
CONTINUOUS
 62
     7
100
AcDbPoint
 10
867.0
 20
150.0
 30
0.0
  0
POINT
  5
3E5
330
1F
100
AcDbEntity
  8
LAY-255
  6
CONTINUOUS
 62
     7
100
AcDbPoint
 10
900.0
 20
168.0
 30
0.0
  0
POINT
  5
3E6
330
1F
100
AcDbEntity
  8
LAY-255
  6
CONTINUOUS
 62
     7
100
AcDbPoint
 10
900.0
 20
186.0
 30
0.0
  0
POINT
  5
3E7
330
1F
100
AcDbEntity
  8
LAY-255
  6
CONTINUOUS
 62
     7
100
AcDbPoint
 10
867.0
 20
120.0
 30
0.0
  0
POINT
  5
3E8
330
1F
100
AcDbEntity
  8
LAY-255
  6
CONTINUOUS
 62
     7
100
AcDbPoint
 10
867.0
 20
135.0
 30
0.0
  0
POINT
  5
3E9
330
1F
100
AcDbEntity
  8
LAY-255
  6
CONTINUOUS
 62
     7
100
AcDbPoint
 10
867.0
 20
105.0
 30
0.0
  0
POINT
  5
3EA
330
1F
100
AcDbEntity
  8
LAY-255
  6
CONTINUOUS
 62
     7
100
AcDbPoint
 10
867.0
 20
89.99999999999996
 30
0.0
  0
TEXT
  5
3EB
330
1F
100
AcDbEntity
  8
LAY-255
  6
CONTINUOUS
 62
     7
100
AcDbText
 10
924.415136826172
 20
46.63125
 30
0.0
 40
15.46875
  1
福西鋳物株式会社
 41
1.342692141742901
  7
EXCADSTD
100
AcDbText
  0
TEXT
  5
3EC
330
1F
100
AcDbEntity
  8
LAY-255
  6
CONTINUOUS
 62
     7
100
AcDbText
 10
925.528125
 20
35.94375
 30
0.0
 40
5.15625
  1
ＦＵＫＵＮＩＳＨＩ
 41
1.204799226045263
  7
EXCADSTD
100
AcDbText
  0
TEXT
  5
3ED
330
1F
100
AcDbEntity
  8
LAY-255
  6
CONTINUOUS
 62
     7
100
AcDbText
 10
998.1575892857143
 20
35.94375
 30
0.0
 40
5.15625
  1
ＦＯＵＮＤＲＹ
 41
1.243252752978497
  7
EXCADSTD
100
AcDbText
  0
TEXT
  5
3EE
330
1F
100
AcDbEntity
  8
LAY-255
  6
CONTINUOUS
 62
     7
100
AcDbText
 10
1055.983774651442
 20
35.94375
 30
0.0
 40
5.15625
  1
ＣＯ.,ＬＴＤ.
 41
1.243831271314936
  7
EXCADSTD
100
AcDbText
  0
TEXT
  5
3EF
330
1F
100
AcDbEntity
  8
LAY-255
  6
CONTINUOUS
 62
     7
100
AcDbText
 10
882.1031250000001
 20
41.15625
 30
0.0
 40
15.46875
  1
S
 41
0.7582677563636363
  7
EXCADSTD
100
AcDbText
  0
TEXT
  5
3F0
330
1F
100
AcDbEntity
  8
LAY-255
  6
CONTINUOUS
 62
     7
100
AcDbText
 10
891.3140625000001
 20
41.24823113208
 30
0.0
 40
15.46875
  1
F
 41
0.7440945272727273
  7
EXCADSTD
100
AcDbText
  0
TEXT
  5
3F1
330
1F
100
AcDbEntity
  8
LAY-255
  6
CONTINUOUS
 62
     7
100
AcDbText
 10
1011.31640625
 20
73.26562499999997
 30
0.0
 40
7.734375
  1
縮尺
 41
1.080708718181818
  7
EXCADSTD
100
AcDbText
  0
TEXT
  5
3F2
330
1F
100
AcDbEntity
  8
LAY-255
  6
CONTINUOUS
 62
     7
100
AcDbText
 10
861.796875
 20
169.6875
 30
0.0
 40
10.3125
  1
型式
 41
1.056348480681818
  7
EXCADSTD
100
AcDbText
  0
TEXT
  5
3F3
330
1F
100
AcDbEntity
  8
LAY-255
  6
CONTINUOUS
 62
     7
100
AcDbText
 10
862.265625
 20
187.6875
 30
0.0
 40
10.3125
  1
品名
 41
0.978838634090909
  7
EXCADSTD
100
AcDbText
  0
TEXT
  5
3F4
330
1F
100
AcDbEntity
  8
LAY-255
  6
CONTINUOUS
 62
     7
100
AcDbText
 10
861.45703125
 20
73.26562499999997
 30
0.0
 40
7.734375
  1
作成日
 41
1.000629973818182
  7
EXCADSTD
100
AcDbText
  0
TEXT
  5
3F5
330
1F
100
AcDbEntity
  8
LAY-255
  6
CONTINUOUS
 62
     7
100
AcDbText
 10
1044.84375
 20
70.68749999999997
 30
0.0
 40
10.3125
  1
１：３
 41
0.8844094952727272
  7
EXCADSTD
100
AcDbText
  0
TEXT
  5
3F6
330
1F
100
AcDbEntity
  8
LAY-255
  6
CONTINUOUS
 62
     7
100
AcDbText
 10
867.5625
 20
106.6875
 30
0.0
 40
10.3125
  1
施工：打込用
 41
1.018700840909091
  7
EXCADSTD
100
AcDbText
  0
TEXT
  5
3F7
330
1F
100
AcDbEntity
  8
LAY-255
  6
CONTINUOUS
 62
     7
100
AcDbText
 10
900.75
 20
187.6875
 30
0.0
 40
10.3125
  1
ルーフドレイン
 41
1.021169538599106
  7
EXCADSTD
100
AcDbText
  0
TEXT
  5
3F8
330
1F
100
AcDbEntity
  8
LAY-255
  6
CONTINUOUS
 62
     7
100
AcDbText
 10
868.125
 20
151.6875000000001
 30
0.0
 40
10.3125
  1
防水：モルタル・塗膜防水兼用
 41
1.008985320967742
  7
EXCADSTD
100
AcDbText
  0
TEXT
  5
3F9
330
1F
100
AcDbEntity
  8
LAY-255
  6
CONTINUOUS
 62
     7
100
AcDbText
 10
867.65625
 20
91.68750000000003
 30
0.0
 40
10.3125
  1
接続：差込用
 41
1.01733803041958
  7
EXCADSTD
100
AcDbText
  0
TEXT
  5
3FA
330
1F
100
AcDbEntity
  8
LAY-255
  6
CONTINUOUS
 62
     7
100
AcDbText
 10
867.421875
 20
136.6875
 30
0.0
 40
10.3125
  1
材質：ステンレス鋼鋳鋼
 41
1.017696295032802
  7
EXCADSTD
100
AcDbText
  0
TEXT
  5
3FB
330
1F
100
AcDbEntity
  8
LAY-255
  6
CONTINUOUS
 62
     7
100
AcDbText
 10
867.703125
 20
121.6875
 30
0.0
 40
10.3125
  1
用途：中継用
 41
1.016656625174825
  7
EXCADSTD
100
AcDbText
  0
TEXT
  5
3FC
330
1F
100
AcDbEntity
  8
LAY-255
  6
CONTINUOUS
 62
     7
100
AcDbText
 10
902.25
 20
169.6875
 30
0.0
 40
10.3125
  1
ＳＦ－ＳＵＭＶ－１００７５型
 41
1.004984812756598
  7
EXCADSTD
100
AcDbText
  0
TEXT
  5
3FD
330
1F
100
AcDbEntity
  8
LAY-255
  6
CONTINUOUS
 62
     7
100
AcDbText
 10
902.671875
 20
70.68749999999997
 30
0.0
 40
10.3125
  1
０７／０１／０５
 41
0.9779528072727272
  7
EXCADSTD
100
AcDbText
  0
ENDSEC
  0
SECTION
  2
OBJECTS
  0
DICTIONARY
  5
C
330
0
100
AcDbDictionary
  3
ACAD_GROUP
350
D
  3
ACAD_LAYOUT
350
1A
  3
ACAD_MATERIAL
350
43
  3
ACAD_MLEADERSTYLE
350
6B
  3
ACAD_MLINESTYLE
350
17
  3
ACAD_PLOTSETTINGS
350
19
  3
ACAD_SCALELIST
350
47
  3
ACAD_VISUALSTYLE
350
2A
  3
ACDBHEADERROUNDTRIPXREC
350
3FE
  3
ACDBVARIABLEDICTIONARY
350
41F
  0
DICTIONARY
  5
42A
330
8
100
AcDbDictionary
280
     1
  3
ACAD_XREC_ROUNDTRIP
360
42B
  0
DICTIONARY
  5
D
102
{ACAD_REACTORS
330
C
102
}
330
C
100
AcDbDictionary
  0
DICTIONARY
  5
1A
102
{ACAD_REACTORS
330
C
102
}
330
C
100
AcDbDictionary
  0
DICTIONARY
  5
43
102
{ACAD_REACTORS
330
C
102
}
330
C
100
AcDbDictionary
  3
BYBLOCK
350
45
  3
BYLAYER
350
44
  3
GLOBAL
350
46
  0
DICTIONARY
  5
6B
102
{ACAD_REACTORS
330
C
102
}
330
C
100
AcDbDictionary
  3
STANDARD
350
6C
  0
DICTIONARY
  5
17
102
{ACAD_REACTORS
330
C
102
}
330
C
100
AcDbDictionary
  3
STANDARD
350
18
  0
DICTIONARY
  5
19
102
{ACAD_REACTORS
330
C
102
}
330
C
100
AcDbDictionary
  0
DICTIONARY
  5
47
102
{ACAD_REACTORS
330
C
102
}
330
C
100
AcDbDictionary
  3
A0
350
48
  3
A1
350
49
  3
A2
350
4A
  3
A3
350
4B
  3
A4
350
4C
  3
A5
350
4D
  3
A6
350
4E
  3
A7
350
4F
  3
A8
350
50
  3
A9
350
51
  3
B0
350
52
  3
B1
350
53
  3
B2
350
54
  3
B3
350
55
  3
B4
350
56
  3
B5
350
57
  3
B6
350
58
  3
B7
350
59
  3
B8
350
5A
  3
B9
350
5B
  3
C0
350
5C
  3
C1
350
5D
  3
C2
350
5E
  3
C3
350
5F
  3
C4
350
60
  3
C5
350
61
  3
C6
350
62
  3
C7
350
63
  3
C8
350
64
  3
C9
350
65
  3
D0
350
66
  3
D1
350
67
  3
D2
350
68
  0
DICTIONARY
  5
2A
102
{ACAD_REACTORS
330
C
102
}
330
C
100
AcDbDictionary
  3
2DWIREFRAME
350
2F
  3
BASIC
350
32
  3
BRIGHTEN
350
36
  3
COLORCHANGE
350
3A
  3
CONCEPTUAL
350
34
  3
DIM
350
35
  3
EDGECOLOROFF
350
3D
  3
FACEPATTERN
350
39
  3
FLAT
350
2B
  3
FLATWITHEDGES
350
2C
  3
GOURAUD
350
2D
  3
GOURAUDWITHEDGES
350
2E
  3
HIDDEN
350
31
  3
JITTEROFF
350
3B
  3
LINEPATTERN
350
38
  3
OVERHANGOFF
350
3C
  3
REALISTIC
350
33
  3
SHADED
350
42
  3
SHADED_WITH_EDGES
350
41
  3
SHADES_OF_GRAY
350
3E
  3
SKETCHY
350
3F
  3
THICKEN
350
37
  3
WIREFRAME
350
30
  3
X-RAY
350
40
  0
DICTIONARY
  5
3FE
102
{ACAD_REACTORS
330
C
102
}
330
C
100
AcDbDictionary
  3
CEPSNID
350
408
  3
CEPSNTYPE
350
407
  3
DIMSTYLEDATA
350
41E
  3
FINGERPRINTGUID
350
409
  3
HYPERLINKBASE
350
401
  3
INSUNITS
350
406
  3
LAYOUTDICT
350
403
  3
LWETCUNION
350
405
  3
PLOTSETDICT
350
404
  3
PSVPSCALE
350
40B
  3
PUCSBASE
350
40E
  3
PUCSORGBACK
350
414
  3
PUCSORGBOTTOM
350
410
  3
PUCSORGFRONT
350
413
  3
PUCSORGLEFT
350
411
  3
PUCSORGRIGHT
350
412
  3
PUCSORGTOP
350
40F
  3
PUCSORTHOREF
350
40C
  3
PUCSORTHOVIEW
350
40D
  3
STYLESHEET
350
402
  3
TSTACKALIGN
350
3FF
  3
TSTACKSIZE
350
400
  3
UCSBASE
350
417
  3
UCSORGBACK
350
41D
  3
UCSORGBOTTOM
350
419
  3
UCSORGFRONT
350
41C
  3
UCSORGLEFT
350
41A
  3
UCSORGRIGHT
350
41B
  3
UCSORGTOP
350
418
  3
UCSORTHOREF
350
415
  3
UCSORTHOVIEW
350
416
  3
VERSIONGUID
350
40A
  0
DICTIONARY
  5
41F
102
{ACAD_REACTORS
330
C
102
}
330
C
100
AcDbDictionary
  3
CANNOSCALE
350
42C
  3
CENTEREXE
350
426
  3
CENTERLTYPEFILE
350
427
  3
CMLEADERSTYLE
350
421
  3
CTABLESTYLE
350
420
  3
DIMASSOC
350
428
  3
HIDETEXT
350
429
  3
MSLTSCALE
350
42D
  3
PSOLHEIGHT
350
423
  3
PSOLWIDTH
350
422
  0
XRECORD
  5
42B
102
{ACAD_REACTORS
330
42A
102
}
330
42A
100
AcDbXrecord
102
VTR_0.000_0.000_1.000_1.000_VISUALSTYLE
340
2F
102
VTR_0.000_0.000_1.000_1.000_GRIDDISPLAY
 70
     3
102
VTR_0.000_0.000_1.000_1.000_GRIDMAJOR
 70
     5
102
VTR_0.000_0.000_1.000_1.000_DEFAULTLIGHTING
280
     1
102
VTR_0.000_0.000_1.000_1.000_DEFAULTLIGHTINGTYPE
 70
     1
102
VTR_0.000_0.000_1.000_1.000_BRIGHTNESS
141
0.0
102
VTR_0.000_0.000_1.000_1.000_CONTRAST
142
0.0
  0
MATERIAL
  5
45
102
{ACAD_REACTORS
330
43
102
}
102
{ACAD_XDICTIONARY
360
430
102
}
330
43
100
AcDbMaterial
  1
BYBLOCK
  0
MATERIAL
  5
44
102
{ACAD_REACTORS
330
43
102
}
102
{ACAD_XDICTIONARY
360
42E
102
}
330
43
100
AcDbMaterial
  1
BYLAYER
  0
MATERIAL
  5
46
102
{ACAD_REACTORS
330
43
102
}
102
{ACAD_XDICTIONARY
360
432
102
}
330
43
100
AcDbMaterial
  1
GLOBAL
  0
ACAD_PROXY_OBJECT
  5
6C
102
{ACAD_REACTORS
330
6B
102
}
330
6B
100
AcDbProxyObject
 90
      499
 91
      505
 93
      610
310
40901902A4063FBFFFFFE0000000000000020400000000000020404214DD185B99185C990000000000000104090141901A00000000000004100000000000000041025764000000000000039000
340
14
340
0
340
11
340
0
 94
        0
1001
ACAD_MLEADERVER
1070
     2
  0
MLINESTYLE
  5
18
102
{ACAD_REACTORS
330
17
102
}
330
17
100
AcDbMlineStyle
  2
Standard
 70
     0
  3

 62
   256
 51
90.0
 52
90.0
 71
     2
 49
0.5
 62
   256
  6
BYLAYER
 49
-0.5
 62
   256
  6
BYLAYER
  0
ACAD_PROXY_OBJECT
  5
48
102
{ACAD_REACTORS
330
47
102
}
330
47
100
AcDbProxyObject
 90
      499
 91
      503
 93
       41
310
903313A31580
  0
ACAD_PROXY_OBJECT
  5
49
102
{ACAD_REACTORS
330
47
102
}
330
47
100
AcDbProxyObject
 90
      499
 91
      503
 93
      105
310
903313A324000000000000004000
  0
ACAD_PROXY_OBJECT
  5
4A
102
{ACAD_REACTORS
330
47
102
}
330
47
100
AcDbProxyObject
 90
      499
 91
      503
 93
      105
310
903313A344000000000000104000
  0
ACAD_PROXY_OBJECT
  5
4B
102
{ACAD_REACTORS
330
47
102
}
330
47
100
AcDbProxyObject
 90
      499
 91
      503
 93
      105
310
903313A354000000000000144000
  0
ACAD_PROXY_OBJECT
  5
4C
102
{ACAD_REACTORS
330
47
102
}
330
47
100
AcDbProxyObject
 90
      499
 91
      503
 93
      105
310
903313A384000000000000204000
  0
ACAD_PROXY_OBJECT
  5
4D
102
{ACAD_REACTORS
330
47
102
}
330
47
100
AcDbProxyObject
 90
      499
 91
      503
 93
      113
310
904313A31304000000000000244000
  0
ACAD_PROXY_OBJECT
  5
4E
102
{ACAD_REACTORS
330
47
102
}
330
47
100
AcDbProxyObject
 90
      499
 91
      503
 93
      113
310
904313A31364000000000000304000
  0
ACAD_PROXY_OBJECT
  5
4F
102
{ACAD_REACTORS
330
47
102
}
330
47
100
AcDbProxyObject
 90
      499
 91
      503
 93
      113
310
904313A32304000000000000344000
  0
ACAD_PROXY_OBJECT
  5
50
102
{ACAD_REACTORS
330
47
102
}
330
47
100
AcDbProxyObject
 90
      499
 91
      503
 93
      113
310
904313A333040000000000003E4000
  0
ACAD_PROXY_OBJECT
  5
51
102
{ACAD_REACTORS
330
47
102
}
330
47
100
AcDbProxyObject
 90
      499
 91
      503
 93
      113
310
904313A34304000000000000444000
  0
ACAD_PROXY_OBJECT
  5
52
102
{ACAD_REACTORS
330
47
102
}
330
47
100
AcDbProxyObject
 90
      499
 91
      503
 93
      113
310
904313A35304000000000000494000
  0
ACAD_PROXY_OBJECT
  5
53
102
{ACAD_REACTORS
330
47
102
}
330
47
100
AcDbProxyObject
 90
      499
 91
      503
 93
      121
310
905313A3130304000000000000594000
  0
ACAD_PROXY_OBJECT
  5
54
102
{ACAD_REACTORS
330
47
102
}
330
47
100
AcDbProxyObject
 90
      499
 91
      503
 93
      105
310
903323A310000000000000010100
  0
ACAD_PROXY_OBJECT
  5
55
102
{ACAD_REACTORS
330
47
102
}
330
47
100
AcDbProxyObject
 90
      499
 91
      503
 93
      105
310
903343A310000000000000410100
  0
ACAD_PROXY_OBJECT
  5
56
102
{ACAD_REACTORS
330
47
102
}
330
47
100
AcDbProxyObject
 90
      499
 91
      503
 93
      105
310
903383A310000000000000810100
  0
ACAD_PROXY_OBJECT
  5
57
102
{ACAD_REACTORS
330
47
102
}
330
47
100
AcDbProxyObject
 90
      499
 91
      503
 93
      113
310
90431303A310000000000000910100
  0
ACAD_PROXY_OBJECT
  5
58
102
{ACAD_REACTORS
330
47
102
}
330
47
100
AcDbProxyObject
 90
      499
 91
      503
 93
      121
310
9053130303A310000000000001650100
  0
ACAD_PROXY_OBJECT
  5
59
102
{ACAD_REACTORS
330
47
102
}
330
47
100
AcDbProxyObject
 90
      499
 91
      503
 93
      257
310
90E312F31323822203D2031272D3022000000000000200FC000000000000284000
  0
ACAD_PROXY_OBJECT
  5
5A
102
{ACAD_REACTORS
330
47
102
}
330
47
100
AcDbProxyObject
 90
      499
 91
      503
 93
      249
310
90D312F363422203D2031272D3022000000000000240FC000000000000284000
  0
ACAD_PROXY_OBJECT
  5
5B
102
{ACAD_REACTORS
330
47
102
}
330
47
100
AcDbProxyObject
 90
      499
 91
      503
 93
      249
310
90D312F333222203D2031272D3022000000000000280FC000000000000284000
  0
ACAD_PROXY_OBJECT
  5
5C
102
{ACAD_REACTORS
330
47
102
}
330
47
100
AcDbProxyObject
 90
      499
 91
      503
 93
      249
310
90D312F313622203D2031272D30220000000000002C0FC000000000000284000
  0
ACAD_PROXY_OBJECT
  5
5D
102
{ACAD_REACTORS
330
47
102
}
330
47
100
AcDbProxyObject
 90
      499
 91
      503
 93
      249
310
90D332F333222203D2031272D30220000000000002E0FC000000000000284000
  0
ACAD_PROXY_OBJECT
  5
5E
102
{ACAD_REACTORS
330
47
102
}
330
47
100
AcDbProxyObject
 90
      499
 91
      503
 93
      241
310
90C312F3822203D2031272D3022000000000000300FC000000000000284000
  0
ACAD_PROXY_OBJECT
  5
5F
102
{ACAD_REACTORS
330
47
102
}
330
47
100
AcDbProxyObject
 90
      499
 91
      503
 93
      249
310
90D332F313622203D2031272D3022000000000000320FC000000000000284000
  0
ACAD_PROXY_OBJECT
  5
60
102
{ACAD_REACTORS
330
47
102
}
330
47
100
AcDbProxyObject
 90
      499
 91
      503
 93
      241
310
90C312F3422203D2031272D3022000000000000340FC000000000000284000
  0
ACAD_PROXY_OBJECT
  5
61
102
{ACAD_REACTORS
330
47
102
}
330
47
100
AcDbProxyObject
 90
      499
 91
      503
 93
      241
310
90C332F3822203D2031272D3022000000000000360FC000000000000284000
  0
ACAD_PROXY_OBJECT
  5
62
102
{ACAD_REACTORS
330
47
102
}
330
47
100
AcDbProxyObject
 90
      499
 91
      503
 93
      241
310
90C312F3222203D2031272D3022000000000000380FC000000000000284000
  0
ACAD_PROXY_OBJECT
  5
63
102
{ACAD_REACTORS
330
47
102
}
330
47
100
AcDbProxyObject
 90
      499
 91
      503
 93
      241
310
90C332F3422203D2031272D30220000000000003A0FC000000000000284000
  0
ACAD_PROXY_OBJECT
  5
64
102
{ACAD_REACTORS
330
47
102
}
330
47
100
AcDbProxyObject
 90
      499
 91
      503
 93
      161
310
90A3122203D2031272D30224000000000000284000
  0
ACAD_PROXY_OBJECT
  5
65
102
{ACAD_REACTORS
330
47
102
}
330
47
100
AcDbProxyObject
 90
      499
 91
      503
 93
      257
310
90E312D312F3222203D2031272D30220000000000003E0FC000000000000284000
  0
ACAD_PROXY_OBJECT
  5
66
102
{ACAD_REACTORS
330
47
102
}
330
47
100
AcDbProxyObject
 90
      499
 91
      503
 93
      225
310
90A3322203D2031272D302200000000000002100000000000000284000
  0
ACAD_PROXY_OBJECT
  5
67
102
{ACAD_REACTORS
330
47
102
}
330
47
100
AcDbProxyObject
 90
      499
 91
      503
 93
      225
310
90A3622203D2031272D302200000000000006100000000000000284000
  0
ACAD_PROXY_OBJECT
  5
68
102
{ACAD_REACTORS
330
47
102
}
330
47
100
AcDbProxyObject
 90
      499
 91
      503
 93
      249
310
90D31272D3022203D2031272D30220000000000000A100000000000000284000
  0
ACAD_PROXY_OBJECT
  5
2F
102
{ACAD_REACTORS
330
2A
102
}
330
2A
100
AcDbProxyObject
 90
      499
 91
      501
 93
      436
310
42CC9915DA5C99599C985B595049028333333333333E33F0000000000000F90107901411070040501600405405064090741402480A0340
1001
ACAD
1000
AcDbSavedByObjectVersion
1070
     0
  0
ACAD_PROXY_OBJECT
  5
32
102
{ACAD_REACTORS
330
2A
102
}
330
2A
100
AcDbProxyObject
 90
      499
 91
      501
 93
      388
310
4150985CDA58D07406404333333333333E33F0000000000000F90107A41107004050150841D405064090741402480A0350
1001
ACAD
1000
AcDbSavedByObjectVersion
1070
     0
  0
ACAD_PROXY_OBJECT
  5
36
102
{ACAD_REACTORS
330
2A
102
}
330
2A
100
AcDbProxyObject
 90
      499
 91
      501
 93
      428
310
42109C9A59DA1D195B90C409028333333333333E33F0000000000000F9010790141107004050150841D405064090741402480A029950
1001
ACAD
1000
AcDbSavedByObjectVersion
1070
     0
  0
ACAD_PROXY_OBJECT
  5
3A
102
{ACAD_REACTORS
330
2A
102
}
330
2A
100
AcDbProxyObject
 90
      499
 91
      501
 93
      452
310
42D0DBDB1BDC90DA185B99D95104090240C333333333333E33F0000000000000F90108901411070040501508421405064090741402480A0350
1001
ACAD
1000
AcDbSavedByObjectVersion
1070
     0
  0
ACAD_PROXY_OBJECT
  5
34
102
{ACAD_REACTORS
330
2A
102
}
330
2A
100
AcDbProxyObject
 90
      499
 91
      501
 93
      500
310
4290DBDB98D95C1D1D585B10940D028333333333333E33F0000000000000F90107902409070040501000000000018199010841D405064090740C02480A0340
1001
ACAD
1000
AcDbSavedByObjectVersion
1070
     0
  0
ACAD_PROXY_OBJECT
  5
35
102
{ACAD_REACTORS
330
2A
102
}
330
2A
100
AcDbProxyObject
 90
      499
 91
      501
 93
      412
310
40D11A5B50B409028333333333333E33F0000000000000F9010790141107004050150841D405064090741402480A02677FFFFFD0
1001
ACAD
1000
AcDbSavedByObjectVersion
1070
     0
  0
ACAD_PROXY_OBJECT
  5
3D
102
{ACAD_REACTORS
330
2A
102
}
330
2A
100
AcDbProxyObject
 90
      499
 91
      501
 93
      452
310
43115919D950DBDB1BDC93D999916409028333333333333E33F0000000000000F9010790141107004050150841D405064090741402480A0350
1001
ACAD
1000
AcDbSavedByObjectVersion
1070
     0
  0
ACAD_PROXY_OBJECT
  5
39
102
{ACAD_REACTORS
330
2A
102
}
330
2A
100
AcDbProxyObject
 90
      499
 91
      501
 93
      444
310
42D19858D95C185D1D195C9B90F409028333333333333E33F0000000000000F9010790141107004050150841D405064090741402480A0350
1001
ACAD
1000
AcDbSavedByObjectVersion
1070
     0
  0
ACAD_PROXY_OBJECT
  5
2B
102
{ACAD_REACTORS
330
2A
102
}
330
2A
100
AcDbProxyObject
 90
      499
 91
      501
 93
      380
310
41119B185D240901404333333333333E33F0000000000000F9010740A907004050150841D405064090741402480A1B50
1001
ACAD
1000
AcDbSavedByObjectVersion
1070
     0
  0
ACAD_PROXY_OBJECT
  5
2C
102
{ACAD_REACTORS
330
2A
102
}
330
2A
100
AcDbProxyObject
 90
      499
 91
      501
 93
      468
310
43519B185D15DA5D1A115919D95CD0140901404333333333333E33F0000000000000F90107409019070040501600405405064090741402480A1B50
1001
ACAD
1000
AcDbSavedByObjectVersion
1070
     0
  0
ACAD_PROXY_OBJECT
  5
2D
102
{ACAD_REACTORS
330
2A
102
}
330
2A
100
AcDbProxyObject
 90
      499
 91
      501
 93
      404
310
41D1DBDD5C985D5910240902404333333333333E33F0000000000000F9010740A9070040501641D405064090741402480A1B50
1001
ACAD
1000
AcDbSavedByObjectVersion
1070
     0
  0
ACAD_PROXY_OBJECT
  5
2E
102
{ACAD_REACTORS
330
2A
102
}
330
2A
100
AcDbProxyObject
 90
      499
 91
      501
 93
      492
310
4411DBDD5C985D5915DA5D1A115919D95CD0340902404333333333333E33F0000000000000F90107409019070040501600405405064090741402480A1B50
1001
ACAD
1000
AcDbSavedByObjectVersion
1070
     0
  0
ACAD_PROXY_OBJECT
  5
31
102
{ACAD_REACTORS
330
2A
102
}
330
2A
100
AcDbProxyObject
 90
      499
 91
      501
 93
      476
310
41921A5919195B90640502408333333333333E33F0000000000000F901079024090700405020000000000001110200405405064090740C02480A0340
1001
ACAD
1000
AcDbSavedByObjectVersion
1070
     0
  0
ACAD_PROXY_OBJECT
  5
3B
102
{ACAD_REACTORS
330
2A
102
}
330
2A
100
AcDbProxyObject
 90
      499
 91
      501
 93
      428
310
42529A5D1D195C93D999914409028333333333333E33F0000000000000F9010790141107004050150A41D405064090741402480A0350
1001
ACAD
1000
AcDbSavedByObjectVersion
1070
     0
  0
ACAD_PROXY_OBJECT
  5
38
102
{ACAD_REACTORS
330
2A
102
}
330
2A
100
AcDbProxyObject
 90
      499
 91
      501
 93
      444
310
42D31A5B995C185D1D195C9B90E409028333333333333E33F0000000000000F9010790141107004050750841D405064090741402483A0350
1001
ACAD
1000
AcDbSavedByObjectVersion
1070
     0
  0
ACAD_PROXY_OBJECT
  5
3C
102
{ACAD_REACTORS
330
2A
102
}
330
2A
100
AcDbProxyObject
 90
      499
 91
      501
 93
      444
310
42D3DD995C9A185B99D3D999915409028333333333333E33F0000000000000F9010790141107004050150941D405064090741402480A0350
1001
ACAD
1000
AcDbSavedByObjectVersion
1070
     0
  0
ACAD_PROXY_OBJECT
  5
33
102
{ACAD_REACTORS
330
2A
102
}
330
2A
100
AcDbProxyObject
 90
      499
 91
      501
 93
      428
310
425499585B1A5CDD1A58D08409038333333333333E33F0000000000000F9010740A907004050150800405405064090740C02480A1B40
1001
ACAD
1000
AcDbSavedByObjectVersion
1070
     0
  0
ACAD_PROXY_OBJECT
  5
42
102
{ACAD_REACTORS
330
2A
102
}
330
2A
100
AcDbProxyObject
 90
      499
 91
      501
 93
      420
310
4194DA1859195911B40902404333333333333E33F0000000000000F9010740A41107004050150800405405064090840C02480A0B40
1001
ACAD
1000
AcDbSavedByObjectVersion
1070
     0
  0
ACAD_PROXY_OBJECT
  5
41
102
{ACAD_REACTORS
330
2A
102
}
330
2A
100
AcDbProxyObject
 90
      499
 91
      501
 93
      516
310
4454DA18591959081DDA5D1A08195919D95CD1A40902404333333333333E33F0000000000000F901074090142907004050250800405405064090740C02480A0B40
1001
ACAD
1000
AcDbSavedByObjectVersion
1070
     0
  0
ACAD_PROXY_OBJECT
  5
3E
102
{ACAD_REACTORS
330
2A
102
}
330
2A
100
AcDbProxyObject
 90
      499
 91
      501
 93
      532
310
4394DA1859195CC81BD98811DC985E5174090240C333333333333E33F0000000000000F901079024090741D01000000000000111010841D405064090740C02480A0340
1001
ACAD
1000
AcDbSavedByObjectVersion
1070
     0
  0
ACAD_PROXY_OBJECT
  5
3F
102
{ACAD_REACTORS
330
2A
102
}
330
2A
100
AcDbProxyObject
 90
      499
 91
      501
 93
      476
310
41D4DAD95D18DA1E51840502408333333333333E33F0000000000000F901079024090741D01000000000000111010B41D405064090741802480A0340
1001
ACAD
1000
AcDbSavedByObjectVersion
1070
     0
  0
ACAD_PROXY_OBJECT
  5
37
102
{ACAD_REACTORS
330
2A
102
}
330
2A
100
AcDbProxyObject
 90
      499
 91
      501
 93
      412
310
41D51A1A58DAD95B90D409028333333333333E33F0000000000000F9010790141107004050150C41D405064090741402480A0350
1001
ACAD
1000
AcDbSavedByObjectVersion
1070
     0
  0
ACAD_PROXY_OBJECT
  5
30
102
{ACAD_REACTORS
330
2A
102
}
330
2A
100
AcDbProxyObject
 90
      499
 91
      501
 93
      420
310
4255DA5C99599C985B595059028333333333333E33F0000000000000F90107901411070040501600405405064090740C02480A0340
1001
ACAD
1000
AcDbSavedByObjectVersion
1070
     0
  0
ACAD_PROXY_OBJECT
  5
40
102
{ACAD_REACTORS
330
2A
102
}
330
2A
100
AcDbProxyObject
 90
      499
 91
      501
 93
      404
310
41560B54985E51940902404000000000000E03F0000000000000F9010740501907004050150841D405064090740C02480A1B40
1001
ACAD
1000
AcDbSavedByObjectVersion
1070
     0
  0
XRECORD
  5
408
102
{ACAD_REACTORS
330
3FE
102
}
330
3FE
100
AcDbXrecord
340
0
  0
XRECORD
  5
407
102
{ACAD_REACTORS
330
3FE
102
}
330
3FE
100
AcDbXrecord
 90
        0
  0
XRECORD
  5
41E
102
{ACAD_REACTORS
330
3FE
102
}
330
3FE
100
AcDbXrecord
1000
DSTYLE
1002
{
1070
   340
340
11
1002
}
  0
XRECORD
  5
409
102
{ACAD_REACTORS
330
3FE
102
}
330
3FE
100
AcDbXrecord
  1
{09b75f59-2ed7-4405-b2a7-41842e3de3c8}
  0
XRECORD
  5
401
102
{ACAD_REACTORS
330
3FE
102
}
330
3FE
100
AcDbXrecord
  1

  0
XRECORD
  5
406
102
{ACAD_REACTORS
330
3FE
102
}
330
3FE
100
AcDbXrecord
 90
        4
  0
XRECORD
  5
403
102
{ACAD_REACTORS
330
3FE
102
}
330
3FE
100
AcDbXrecord
340
1A
  0
XRECORD
  5
405
102
{ACAD_REACTORS
330
3FE
102
}
330
3FE
100
AcDbXrecord
 90
    10781
  0
XRECORD
  5
404
102
{ACAD_REACTORS
330
3FE
102
}
330
3FE
100
AcDbXrecord
340
19
  0
XRECORD
  5
40B
102
{ACAD_REACTORS
330
3FE
102
}
330
3FE
100
AcDbXrecord
 40
0.0
  0
XRECORD
  5
40E
102
{ACAD_REACTORS
330
3FE
102
}
330
3FE
100
AcDbXrecord
340
0
  0
XRECORD
  5
414
102
{ACAD_REACTORS
330
3FE
102
}
330
3FE
100
AcDbXrecord
 10
0.0
 20
0.0
 30
0.0
  0
XRECORD
  5
410
102
{ACAD_REACTORS
330
3FE
102
}
330
3FE
100
AcDbXrecord
 10
0.0
 20
0.0
 30
0.0
  0
XRECORD
  5
413
102
{ACAD_REACTORS
330
3FE
102
}
330
3FE
100
AcDbXrecord
 10
0.0
 20
0.0
 30
0.0
  0
XRECORD
  5
411
102
{ACAD_REACTORS
330
3FE
102
}
330
3FE
100
AcDbXrecord
 10
0.0
 20
0.0
 30
0.0
  0
XRECORD
  5
412
102
{ACAD_REACTORS
330
3FE
102
}
330
3FE
100
AcDbXrecord
 10
0.0
 20
0.0
 30
0.0
  0
XRECORD
  5
40F
102
{ACAD_REACTORS
330
3FE
102
}
330
3FE
100
AcDbXrecord
 10
0.0
 20
0.0
 30
0.0
  0
XRECORD
  5
40C
102
{ACAD_REACTORS
330
3FE
102
}
330
3FE
100
AcDbXrecord
340
0
  0
XRECORD
  5
40D
102
{ACAD_REACTORS
330
3FE
102
}
330
3FE
100
AcDbXrecord
 70
     0
  0
XRECORD
  5
402
102
{ACAD_REACTORS
330
3FE
102
}
330
3FE
100
AcDbXrecord
  1

  0
XRECORD
  5
3FF
102
{ACAD_REACTORS
330
3FE
102
}
330
3FE
100
AcDbXrecord
 90
        1
  0
XRECORD
  5
400
102
{ACAD_REACTORS
330
3FE
102
}
330
3FE
100
AcDbXrecord
 90
       70
  0
XRECORD
  5
417
102
{ACAD_REACTORS
330
3FE
102
}
330
3FE
100
AcDbXrecord
340
0
  0
XRECORD
  5
41D
102
{ACAD_REACTORS
330
3FE
102
}
330
3FE
100
AcDbXrecord
 10
0.0
 20
0.0
 30
0.0
  0
XRECORD
  5
419
102
{ACAD_REACTORS
330
3FE
102
}
330
3FE
100
AcDbXrecord
 10
0.0
 20
0.0
 30
0.0
  0
XRECORD
  5
41C
102
{ACAD_REACTORS
330
3FE
102
}
330
3FE
100
AcDbXrecord
 10
0.0
 20
0.0
 30
0.0
  0
XRECORD
  5
41A
102
{ACAD_REACTORS
330
3FE
102
}
330
3FE
100
AcDbXrecord
 10
0.0
 20
0.0
 30
0.0
  0
XRECORD
  5
41B
102
{ACAD_REACTORS
330
3FE
102
}
330
3FE
100
AcDbXrecord
 10
0.0
 20
0.0
 30
0.0
  0
XRECORD
  5
418
102
{ACAD_REACTORS
330
3FE
102
}
330
3FE
100
AcDbXrecord
 10
0.0
 20
0.0
 30
0.0
  0
XRECORD
  5
415
102
{ACAD_REACTORS
330
3FE
102
}
330
3FE
100
AcDbXrecord
340
0
  0
XRECORD
  5
416
102
{ACAD_REACTORS
330
3FE
102
}
330
3FE
100
AcDbXrecord
 70
     0
  0
XRECORD
  5
40A
102
{ACAD_REACTORS
330
3FE
102
}
330
3FE
100
AcDbXrecord
  1
{FAEB1C32-E019-11D5-929B-00C0DF256EC4}
  0
DICTIONARYVAR
  5
42C
102
{ACAD_REACTORS
330
41F
102
}
330
41F
100
DictionaryVariables
280
     0
  1
1:1
  0
DICTIONARYVAR
  5
426
102
{ACAD_REACTORS
330
41F
102
}
330
41F
100
DictionaryVariables
280
     0
  1
3.500000
  0
DICTIONARYVAR
  5
427
102
{ACAD_REACTORS
330
41F
102
}
330
41F
100
DictionaryVariables
280
     0
  1
acadiso.lin
  0
DICTIONARYVAR
  5
421
102
{ACAD_REACTORS
330
41F
102
}
330
41F
100
DictionaryVariables
280
     0
  1
Standard
  0
DICTIONARYVAR
  5
420
102
{ACAD_REACTORS
330
41F
102
}
330
41F
100
DictionaryVariables
280
     0
  1
Standard
  0
DICTIONARYVAR
  5
428
102
{ACAD_REACTORS
330
41F
102
}
330
41F
100
DictionaryVariables
280
     0
  1
2
  0
DICTIONARYVAR
  5
429
102
{ACAD_REACTORS
330
41F
102
}
330
41F
100
DictionaryVariables
280
     0
  1
1
  0
DICTIONARYVAR
  5
42D
102
{ACAD_REACTORS
330
41F
102
}
330
41F
100
DictionaryVariables
280
     0
  1
1
  0
DICTIONARYVAR
  5
423
102
{ACAD_REACTORS
330
41F
102
}
330
41F
100
DictionaryVariables
280
     0
  1
80.000000
  0
DICTIONARYVAR
  5
422
102
{ACAD_REACTORS
330
41F
102
}
330
41F
100
DictionaryVariables
280
     0
  1
5.000000
  0
DICTIONARY
  5
430
330
45
100
AcDbDictionary
280
     1
  3
ACAD_XREC_ROUNDTRIP
360
431
  0
DICTIONARY
  5
42E
330
44
100
AcDbDictionary
280
     1
  3
ACAD_XREC_ROUNDTRIP
360
42F
  0
DICTIONARY
  5
432
330
46
100
AcDbDictionary
280
     1
  3
ACAD_XREC_ROUNDTRIP
360
433
  0
XRECORD
  5
431
102
{ACAD_REACTORS
330
430
102
}
330
430
100
AcDbXrecord
102
MATERIAL
148
0.0
149
0.0
149
0.0
 93
        0
 94
      127
282
     0
 72
     1
 77
     1
171
     1
175
     1
179
     1
273
     0
  0
XRECORD
  5
42F
102
{ACAD_REACTORS
330
42E
102
}
330
42E
100
AcDbXrecord
102
MATERIAL
148
0.0
149
0.0
149
0.0
 93
        0
 94
      127
282
     0
 72
     1
 77
     1
171
     1
175
     1
179
     1
273
     0
  0
XRECORD
  5
433
102
{ACAD_REACTORS
330
432
102
}
330
432
100
AcDbXrecord
102
MATERIAL
148
0.0
149
0.0
149
0.0
 93
        0
 94
      127
282
     0
 72
     1
 77
     1
171
     1
175
     1
179
     1
273
     0
  0
ENDSEC
  0
EOF
