  0
SECTION
  2
HEADER
  9
$ACADVER
  1
AC1014
  9
$ACADMAINTVER
 70
     9
  9
$DWGCODEPAGE
  3
ANSI_932
  9
$INSBASE
 10
0.0
 20
0.0
 30
0.0
  9
$EXTMIN
 10
15.0
 20
30.0
 30
0.0
  9
$EXTMAX
 10
1155.0
 20
840.0
 30
0.0
  9
$LIMMIN
 10
0.0
 20
0.0
  9
$LIMMAX
 10
420.0
 20
297.0
  9
$ORTHOMODE
 70
     0
  9
$REGENMODE
 70
     1
  9
$FILLMODE
 70
     1
  9
$QTEXTMODE
 70
     0
  9
$MIRRTEXT
 70
     1
  9
$DRAGMODE
 70
     2
  9
$LTSCALE
 40
0.2
  9
$OSMODE
 70
    37
  9
$ATTMODE
 70
     1
  9
$TEXTSIZE
 40
2.5
  9
$TRACEWID
 40
1.0
  9
$TEXTSTYLE
  7
STANDARD
  9
$CLAYER
  8
LAY-10
  9
$CELTYPE
  6
BYLAYER
  9
$CECOLOR
 62
   256
  9
$CELTSCALE
 40
1.0
  9
$DELOBJ
 70
     1
  9
$DISPSILH
 70
     0
  9
$DIMSCALE
 40
1.0
  9
$DIMASZ
 40
2.5
  9
$DIMEXO
 40
0.625
  9
$DIMDLI
 40
3.75
  9
$DIMRND
 40
0.0
  9
$DIMDLE
 40
0.0
  9
$DIMEXE
 40
1.25
  9
$DIMTP
 40
0.0
  9
$DIMTM
 40
0.0
  9
$DIMTXT
 40
2.5
  9
$DIMCEN
 40
2.5
  9
$DIMTSZ
 40
0.0
  9
$DIMTOL
 70
     0
  9
$DIMLIM
 70
     0
  9
$DIMTIH
 70
     0
  9
$DIMTOH
 70
     0
  9
$DIMSE1
 70
     0
  9
$DIMSE2
 70
     0
  9
$DIMTAD
 70
     1
  9
$DIMZIN
 70
     8
  9
$DIMBLK
  1

  9
$DIMASO
 70
     1
  9
$DIMSHO
 70
     1
  9
$DIMPOST
  1

  9
$DIMAPOST
  1

  9
$DIMALT
 70
     0
  9
$DIMALTD
 70
     3
  9
$DIMALTF
 40
0.03937007874016
  9
$DIMLFAC
 40
1.0
  9
$DIMTOFL
 70
     1
  9
$DIMTVP
 40
0.0
  9
$DIMTIX
 70
     0
  9
$DIMSOXD
 70
     0
  9
$DIMSAH
 70
     0
  9
$DIMBLK1
  1

  9
$DIMBLK2
  1

  9
$DIMSTYLE
  2
ISO-25
  9
$DIMCLRD
 70
     0
  9
$DIMCLRE
 70
     0
  9
$DIMCLRT
 70
     0
  9
$DIMTFAC
 40
1.0
  9
$DIMGAP
 40
0.625
  9
$DIMJUST
 70
     0
  9
$DIMSD1
 70
     0
  9
$DIMSD2
 70
     0
  9
$DIMTOLJ
 70
     0
  9
$DIMTZIN
 70
     8
  9
$DIMALTZ
 70
     0
  9
$DIMALTTZ
 70
     0
  9
$DIMFIT
 70
     3
  9
$DIMUPT
 70
     0
  9
$DIMUNIT
 70
     2
  9
$DIMDEC
 70
     2
  9
$DIMTDEC
 70
     2
  9
$DIMALTU
 70
     2
  9
$DIMALTTD
 70
     3
  9
$DIMTXSTY
  7
STANDARD
  9
$DIMAUNIT
 70
     0
  9
$LUNITS
 70
     2
  9
$LUPREC
 70
     4
  9
$SKETCHINC
 40
1.0
  9
$FILLETRAD
 40
10.0
  9
$AUNITS
 70
     0
  9
$AUPREC
 70
     0
  9
$MENU
  1
.
  9
$ELEVATION
 40
0.0
  9
$PELEVATION
 40
0.0
  9
$THICKNESS
 40
0.0
  9
$LIMCHECK
 70
     0
  9
$CHAMFERA
 40
0.0
  9
$CHAMFERB
 40
0.0
  9
$CHAMFERC
 40
0.0
  9
$CHAMFERD
 40
0.0
  9
$SKPOLY
 70
     0
  9
$TDCREATE
 40
2459229.338031713
  9
$TDUPDATE
 40
2459229.338032187
  9
$TDINDWG
 40
0.0000000116
  9
$TDUSRTIMER
 40
0.0000000116
  9
$USRTIMER
 70
     1
  9
$ANGBASE
 50
0.0
  9
$ANGDIR
 70
     0
  9
$PDMODE
 70
     0
  9
$PDSIZE
 40
0.0
  9
$PLINEWID
 40
0.0
  9
$COORDS
 70
     1
  9
$SPLFRAME
 70
     0
  9
$SPLINETYPE
 70
     6
  9
$SPLINESEGS
 70
     8
  9
$ATTDIA
 70
     0
  9
$ATTREQ
 70
     1
  9
$HANDLING
 70
     1
  9
$HANDSEED
  5
46D
  9
$SURFTAB1
 70
     6
  9
$SURFTAB2
 70
     6
  9
$SURFTYPE
 70
     6
  9
$SURFU
 70
     6
  9
$SURFV
 70
     6
  9
$UCSNAME
  2

  9
$UCSORG
 10
0.0
 20
0.0
 30
0.0
  9
$UCSXDIR
 10
1.0
 20
0.0
 30
0.0
  9
$UCSYDIR
 10
0.0
 20
1.0
 30
0.0
  9
$PUCSNAME
  2

  9
$PUCSORG
 10
0.0
 20
0.0
 30
0.0
  9
$PUCSXDIR
 10
1.0
 20
0.0
 30
0.0
  9
$PUCSYDIR
 10
0.0
 20
1.0
 30
0.0
  9
$USERI1
 70
     0
  9
$USERI2
 70
     0
  9
$USERI3
 70
     0
  9
$USERI4
 70
     0
  9
$USERI5
 70
     0
  9
$USERR1
 40
0.0
  9
$USERR2
 40
0.0
  9
$USERR3
 40
0.0
  9
$USERR4
 40
0.0
  9
$USERR5
 40
0.0
  9
$WORLDVIEW
 70
     1
  9
$SHADEDGE
 70
     3
  9
$SHADEDIF
 70
    70
  9
$TILEMODE
 70
     1
  9
$MAXACTVP
 70
    64
  9
$PINSBASE
 10
0.0
 20
0.0
 30
0.0
  9
$PLIMCHECK
 70
     0
  9
$PEXTMIN
 10
1.000000000000000E+20
 20
1.000000000000000E+20
 30
1.000000000000000E+20
  9
$PEXTMAX
 10
-1.000000000000000E+20
 20
-1.000000000000000E+20
 30
-1.000000000000000E+20
  9
$PLIMMIN
 10
0.0
 20
0.0
  9
$PLIMMAX
 10
420.0
 20
297.0
  9
$UNITMODE
 70
     0
  9
$VISRETAIN
 70
     1
  9
$PLINEGEN
 70
     0
  9
$PSLTSCALE
 70
     1
  9
$TREEDEPTH
 70
  3020
  9
$PICKSTYLE
 70
     1
  9
$CMLSTYLE
  2
STANDARD
  9
$CMLJUST
 70
     0
  9
$CMLSCALE
 40
20.0
  9
$PROXYGRAPHICS
 70
     1
  9
$MEASUREMENT
 70
     1
  0
ENDSEC
  0
SECTION
  2
CLASSES
  0
CLASS
  1
ACDBDICTIONARYWDFLT
  2
AcDbDictionaryWithDefault
  3
ObjectDBX Classes
 90
        0
280
     0
281
     0
  0
CLASS
  1
VISUALSTYLE
  2
AcDbVisualStyle
  3
ObjectDBX Classes
 90
     4095
280
     0
281
     0
  0
CLASS
  1
MATERIAL
  2
AcDbMaterial
  3
ObjectDBX Classes
 90
     1153
280
     0
281
     0
  0
CLASS
  1
SCALE
  2
AcDbScale
  3
ObjectDBX Classes
 90
     1153
280
     0
281
     0
  0
CLASS
  1
TABLESTYLE
  2
AcDbTableStyle
  3
ObjectDBX Classes
 90
     4095
280
     0
281
     0
  0
CLASS
  1
MLEADERSTYLE
  2
AcDbMLeaderStyle
  3
ACDB_MLEADERSTYLE_CLASS
 90
     4095
280
     0
281
     0
  0
CLASS
  1
SUN
  2
AcDbSun
  3
SCENEOE
 90
     1153
280
     0
281
     0
  0
CLASS
  1
DICTIONARYVAR
  2
AcDbDictionaryVar
  3
ObjectDBX Classes
 90
        0
280
     0
281
     0
  0
CLASS
  1
XRECORD
  2
AcDbXrecord
  3
ObjectDBX Classes
 90
        0
280
     0
281
     0
  0
CLASS
  1
LWPOLYLINE
  2
AcDbPolyline
  3
ObjectDBX Classes
 90
        0
280
     0
281
     1
  0
CLASS
  1
HATCH
  2
AcDbHatch
  3
ObjectDBX Classes
 90
        0
280
     0
281
     1
  0
CLASS
  1
ACDBPLACEHOLDER
  2
AcDbPlaceHolder
  3
ObjectDBX Classes
 90
        0
280
     0
281
     0
  0
CLASS
  1
LAYOUT
  2
AcDbLayout
  3
ObjectDBX Classes
 90
        0
280
     0
281
     0
  0
ENDSEC
  0
SECTION
  2
TABLES
  0
TABLE
  2
VPORT
  5
8
102
{ACAD_XDICTIONARY
360
462
102
}
330
0
100
AcDbSymbolTable
 70
     1
  0
VPORT
  5
29
330
8
100
AcDbSymbolTableRecord
100
AcDbViewportTableRecord
  2
*ACTIVE
 70
     0
 10
0.0
 20
0.0
 11
1.0
 21
1.0
 12
585.0000000000001
 22
435.0
 13
0.0
 23
0.0
 14
10.0
 24
10.0
 15
10.0
 25
10.0
 16
0.0
 26
0.0
 36
1.0
 17
0.0
 27
0.0
 37
0.0
 40
810.0
 41
1.407407407407408
 42
50.0
 43
0.0
 44
0.0
 50
0.0
 51
0.0
 71
     0
 72
  1000
 73
     1
 74
     3
 75
     0
 76
     0
 77
     0
 78
     0
  0
ENDTAB
  0
TABLE
  2
LTYPE
  5
5
330
0
100
AcDbSymbolTable
 70
     6
  0
LTYPE
  5
14
330
5
100
AcDbSymbolTableRecord
100
AcDbLinetypeTableRecord
  2
BYBLOCK
 70
     0
  3

 72
    65
 73
     0
 40
0.0
  0
LTYPE
  5
15
330
5
100
AcDbSymbolTableRecord
100
AcDbLinetypeTableRecord
  2
BYLAYER
 70
     0
  3

 72
    65
 73
     0
 40
0.0
  0
LTYPE
  5
16
330
5
100
AcDbSymbolTableRecord
100
AcDbLinetypeTableRecord
  2
CONTINUOUS
 70
     0
  3
Solid line
 72
    65
 73
     0
 40
0.0
  0
LTYPE
  5
6E
330
5
100
AcDbSymbolTableRecord
100
AcDbLinetypeTableRecord
  2
HIDDEN
 70
     0
  3
Hidden __ __ __ __ __ __ __ __ __ __ __ __ __ __
 72
    65
 73
     2
 40
9.524999999999999
 49
6.35
 74
     0
 49
-3.175
 74
     0
  0
LTYPE
  5
6F
330
5
100
AcDbSymbolTableRecord
100
AcDbLinetypeTableRecord
  2
CENTER
 70
     0
  3
Center ____ _ ____ _ ____ _ ____ _ ____ _ ____
 72
    65
 73
     4
 40
50.8
 49
31.75
 74
     0
 49
-6.35
 74
     0
 49
6.35
 74
     0
 49
-6.35
 74
     0
  0
LTYPE
  5
70
330
5
100
AcDbSymbolTableRecord
100
AcDbLinetypeTableRecord
  2
PHANTOM
 70
     0
  3
Phantom ______  __  __  ______  __  __  ______ 
 72
    65
 73
     6
 40
63.50000000000001
 49
31.75
 74
     0
 49
-6.35
 74
     0
 49
6.35
 74
     0
 49
-6.35
 74
     0
 49
6.35
 74
     0
 49
-6.35
 74
     0
  0
LTYPE
  5
71
330
5
100
AcDbSymbolTableRecord
100
AcDbLinetypeTableRecord
  2
ACAD_ISO06W100
 70
     0
  3
ISO long-dash triple-dot ____ ... ____ ... ____
 72
    65
 73
     8
 40
36.0
 49
24.0
 74
     0
 49
-3.0
 74
     0
 49
0.0
 74
     0
 49
-3.0
 74
     0
 49
0.0
 74
     0
 49
-3.0
 74
     0
 49
0.0
 74
     0
 49
-3.0
 74
     0
  0
LTYPE
  5
72
330
5
100
AcDbSymbolTableRecord
100
AcDbLinetypeTableRecord
  2
ACAD_ISO15W100
 70
     0
  3
ISO double-dash triple-dot __ __ . . . __ __ . .
 72
    65
 73
    10
 40
39.0
 49
12.0
 74
     0
 49
-3.0
 74
     0
 49
12.0
 74
     0
 49
-3.0
 74
     0
 49
0.0
 74
     0
 49
-3.0
 74
     0
 49
0.0
 74
     0
 49
-3.0
 74
     0
 49
0.0
 74
     0
 49
-3.0
 74
     0
  0
ENDTAB
  0
TABLE
  2
LAYER
  5
2
330
0
100
AcDbSymbolTable
 70
     5
  0
LAYER
  5
10
330
2
100
AcDbSymbolTableRecord
100
AcDbLayerTableRecord
  2
0
 70
     0
 62
     7
  6
CONTINUOUS
  0
LAYER
  5
75
330
2
100
AcDbSymbolTableRecord
100
AcDbLayerTableRecord
  2
LAY-10
 70
     0
 62
     7
  6
CONTINUOUS
  0
LAYER
  5
76
330
2
100
AcDbSymbolTableRecord
100
AcDbLayerTableRecord
  2
LAY-20
 70
     0
 62
     7
  6
CONTINUOUS
  0
LAYER
  5
77
330
2
100
AcDbSymbolTableRecord
100
AcDbLayerTableRecord
  2
LAY-255
 70
     0
 62
     7
  6
CONTINUOUS
  0
LAYER
  5
3A6
330
2
100
AcDbSymbolTableRecord
100
AcDbLayerTableRecord
  2
DEFPOINTS
 70
     0
 62
     7
  6
CONTINUOUS
  0
ENDTAB
  0
TABLE
  2
STYLE
  5
3
330
0
100
AcDbSymbolTable
 70
     4
  0
STYLE
  5
11
330
3
100
AcDbSymbolTableRecord
100
AcDbTextStyleTableRecord
  2
STANDARD
 70
     0
 40
0.0
 41
1.0
 50
0.0
 71
     0
 42
2.5
  3
simplex
  4
bigfont
  0
STYLE
  5
73
330
3
100
AcDbSymbolTableRecord
100
AcDbTextStyleTableRecord
  2
EXCADSTD
 70
     0
 40
0.0
 41
1.0
 50
0.0
 71
     0
 42
2.5
  3
simplex
  4
bigfont
  0
STYLE
  5
74
330
3
100
AcDbSymbolTableRecord
100
AcDbTextStyleTableRecord
  2
EXCADVERT
 70
     4
 40
0.0
 41
1.0
 50
0.0
 71
     0
 42
2.5
  3
simplex
  4
bigfont
  0
STYLE
  5
3A4
330
3
100
AcDbSymbolTableRecord
100
AcDbTextStyleTableRecord
  2
EXCADDIM1
 70
     0
 40
0.0
 41
0.84
 50
0.0
 71
     0
 42
2.5
  3
simplex
  4
bigfont
  0
ENDTAB
  0
TABLE
  2
VIEW
  5
6
330
0
100
AcDbSymbolTable
 70
     0
  0
ENDTAB
  0
TABLE
  2
UCS
  5
7
330
0
100
AcDbSymbolTable
 70
     0
  0
ENDTAB
  0
TABLE
  2
APPID
  5
9
330
0
100
AcDbSymbolTable
 70
     2
  0
APPID
  5
12
330
9
100
AcDbSymbolTableRecord
100
AcDbRegAppTableRecord
  2
ACAD
 70
     0
  0
APPID
  5
46C
330
9
100
AcDbSymbolTableRecord
100
AcDbRegAppTableRecord
  2
ACAD_MLEADERVER
 70
     0
  0
ENDTAB
  0
TABLE
  2
DIMSTYLE
  5
A
330
0
100
AcDbSymbolTable
 70
     1
  0
DIMSTYLE
105
27
102
{ACAD_REACTORS
330
3A5
330
3B3
330
3C0
330
3CC
330
3D9
330
3E6
330
3F3
330
400
102
}
330
A
100
AcDbSymbolTableRecord
100
AcDbDimStyleTableRecord
  2
ISO-25
 70
     0
  3

  4

  5

  6

  7

 40
1.0
 41
2.5
 42
0.625
 43
3.75
 44
1.25
 45
0.0
 46
0.0
 47
0.0
 48
0.0
140
2.5
141
2.5
142
0.0
143
0.03937007874016
144
1.0
145
0.0
146
1.0
147
0.625
 71
     0
 72
     0
 73
     0
 74
     0
 75
     0
 76
     0
 77
     1
 78
     8
170
     0
171
     3
172
     1
173
     0
174
     0
175
     0
176
     0
177
     0
178
     0
270
     2
271
     2
272
     2
273
     2
274
     3
340
11
275
     0
280
     0
281
     0
282
     0
283
     0
284
     8
285
     0
286
     0
287
     5
288
     0
  0
ENDTAB
  0
TABLE
  2
BLOCK_RECORD
  5
1
330
0
100
AcDbSymbolTable
 70
    22
  0
BLOCK_RECORD
  5
1F
330
1
100
AcDbSymbolTableRecord
100
AcDbBlockTableRecord
  2
*MODEL_SPACE
  0
BLOCK_RECORD
  5
1B
330
1
100
AcDbSymbolTableRecord
100
AcDbBlockTableRecord
  2
*PAPER_SPACE
  0
BLOCK_RECORD
  5
78
330
1
100
AcDbSymbolTableRecord
100
AcDbBlockTableRecord
  2
EX_NORM
  0
BLOCK_RECORD
  5
7B
330
1
100
AcDbSymbolTableRecord
100
AcDbBlockTableRecord
  2
EX_BNORM
  0
BLOCK_RECORD
  5
7E
330
1
100
AcDbSymbolTableRecord
100
AcDbBlockTableRecord
  2
EX_BCIR
  0
BLOCK_RECORD
  5
81
330
1
100
AcDbSymbolTableRecord
100
AcDbBlockTableRecord
  2
EX_RCIVIL
  0
BLOCK_RECORD
  5
84
330
1
100
AcDbSymbolTableRecord
100
AcDbBlockTableRecord
  2
EX_SLANT
  0
BLOCK_RECORD
  5
87
330
1
100
AcDbSymbolTableRecord
100
AcDbBlockTableRecord
  2
EX_NONE
  0
BLOCK_RECORD
  5
8A
330
1
100
AcDbSymbolTableRecord
100
AcDbBlockTableRecord
  2
EX_CIVIL
  0
BLOCK_RECORD
  5
8D
330
1
100
AcDbSymbolTableRecord
100
AcDbBlockTableRecord
  2
EX_WCIR
  0
BLOCK_RECORD
  5
90
330
1
100
AcDbSymbolTableRecord
100
AcDbBlockTableRecord
  2
EX_WCIR2
  0
BLOCK_RECORD
  5
93
330
1
100
AcDbSymbolTableRecord
100
AcDbBlockTableRecord
  2
EX_WNORM
  0
BLOCK_RECORD
  5
96
330
1
100
AcDbSymbolTableRecord
100
AcDbBlockTableRecord
  2
EX_NNORM
  0
BLOCK_RECORD
  5
99
330
1
100
AcDbSymbolTableRecord
100
AcDbBlockTableRecord
  2
EX_BBOX
  0
BLOCK_RECORD
  5
9C
330
1
100
AcDbSymbolTableRecord
100
AcDbBlockTableRecord
  2
EX_WBOX
  0
BLOCK_RECORD
  5
9F
330
1
100
AcDbSymbolTableRecord
100
AcDbBlockTableRecord
  2
EX_INTEGRAL
  0
BLOCK_RECORD
  5
3A7
330
1
100
AcDbSymbolTableRecord
100
AcDbBlockTableRecord
  2
*D15
  0
BLOCK_RECORD
  5
3B4
330
1
100
AcDbSymbolTableRecord
100
AcDbBlockTableRecord
  2
*D16
  0
BLOCK_RECORD
  5
3C1
330
1
100
AcDbSymbolTableRecord
100
AcDbBlockTableRecord
  2
*D17
  0
BLOCK_RECORD
  5
3CD
330
1
100
AcDbSymbolTableRecord
100
AcDbBlockTableRecord
  2
*D18
  0
BLOCK_RECORD
  5
3DA
330
1
100
AcDbSymbolTableRecord
100
AcDbBlockTableRecord
  2
*D19
  0
BLOCK_RECORD
  5
3E7
330
1
100
AcDbSymbolTableRecord
100
AcDbBlockTableRecord
  2
*D20
  0
BLOCK_RECORD
  5
3F4
330
1
100
AcDbSymbolTableRecord
100
AcDbBlockTableRecord
  2
*D21
  0
BLOCK_RECORD
  5
401
330
1
100
AcDbSymbolTableRecord
100
AcDbBlockTableRecord
  2
*D22
  0
ENDTAB
  0
ENDSEC
  0
SECTION
  2
BLOCKS
  0
BLOCK
  5
20
330
1F
100
AcDbEntity
  8
0
100
AcDbBlockBegin
  2
*MODEL_SPACE
 70
     0
 10
0.0
 20
0.0
 30
0.0
  3
*MODEL_SPACE
  1

  0
ENDBLK
  5
21
330
1F
100
AcDbEntity
  8
0
100
AcDbBlockEnd
  0
BLOCK
  5
1C
330
1B
100
AcDbEntity
 67
     1
  8
0
100
AcDbBlockBegin
  2
*PAPER_SPACE
 70
     0
 10
0.0
 20
0.0
 30
0.0
  3
*PAPER_SPACE
  1

  0
ENDBLK
  5
1D
330
1B
100
AcDbEntity
 67
     1
  8
0
100
AcDbBlockEnd
  0
BLOCK
  5
79
330
78
100
AcDbEntity
  8
0
100
AcDbBlockBegin
  2
EX_NORM
 70
     0
 10
0.0
 20
0.0
 30
0.0
  3
EX_NORM
  1

  0
LINE
  5
A2
330
78
100
AcDbEntity
  8
0
  6
CONTINUOUS
 62
     0
100
AcDbLine
 10
0.0
 20
0.0
 30
0.0
 11
-1.0
 21
0.0
 31
0.0
  0
LINE
  5
A3
330
78
100
AcDbEntity
  8
0
  6
CONTINUOUS
 62
     0
100
AcDbLine
 10
0.0
 20
0.0
 30
0.0
 11
-1.0
 21
0.166666667
 31
0.0
  0
LINE
  5
A4
330
78
100
AcDbEntity
  8
0
  6
CONTINUOUS
 62
     0
100
AcDbLine
 10
0.0
 20
0.0
 30
0.0
 11
-1.0
 21
-0.166666667
 31
0.0
  0
ENDBLK
  5
7A
330
78
100
AcDbEntity
  8
0
100
AcDbBlockEnd
  0
BLOCK
  5
7C
330
7B
100
AcDbEntity
  8
0
100
AcDbBlockBegin
  2
EX_BNORM
 70
     0
 10
0.0
 20
0.0
 30
0.0
  3
EX_BNORM
  1

  0
LINE
  5
A5
330
7B
100
AcDbEntity
  8
0
  6
CONTINUOUS
 62
     0
100
AcDbLine
 10
0.0
 20
0.0
 30
0.0
 11
-1.0
 21
0.0
 31
0.0
  0
LINE
  5
A6
330
7B
100
AcDbEntity
  8
0
  6
CONTINUOUS
 62
     0
100
AcDbLine
 10
0.0
 20
0.0
 30
0.0
 11
-1.0
 21
0.166666667
 31
0.0
  0
LINE
  5
A7
330
7B
100
AcDbEntity
  8
0
  6
CONTINUOUS
 62
     0
100
AcDbLine
 10
0.0
 20
0.0
 30
0.0
 11
-1.0
 21
-0.166666667
 31
0.0
  0
LINE
  5
A8
330
7B
100
AcDbEntity
  8
0
  6
CONTINUOUS
 62
     0
100
AcDbLine
 10
0.0
 20
0.0
 30
0.0
 11
-1.0
 21
0.083333333
 31
0.0
  0
LINE
  5
A9
330
7B
100
AcDbEntity
  8
0
  6
CONTINUOUS
 62
     0
100
AcDbLine
 10
0.0
 20
0.0
 30
0.0
 11
-1.0
 21
-0.083333333
 31
0.0
  0
LINE
  5
AA
330
7B
100
AcDbEntity
  8
0
  6
CONTINUOUS
 62
     0
100
AcDbLine
 10
-1.0
 20
0.166666667
 30
0.0
 11
-1.0
 21
-0.166666667
 31
0.0
  0
ENDBLK
  5
7D
330
7B
100
AcDbEntity
  8
0
100
AcDbBlockEnd
  0
BLOCK
  5
7F
330
7E
100
AcDbEntity
  8
0
100
AcDbBlockBegin
  2
EX_BCIR
 70
     0
 10
0.0
 20
0.0
 30
0.0
  3
EX_BCIR
  1

  0
LINE
  5
AB
330
7E
100
AcDbEntity
  8
0
  6
CONTINUOUS
 62
     0
100
AcDbLine
 10
0.0
 20
0.0
 30
0.0
 11
-1.0
 21
0.0
 31
0.0
  0
CIRCLE
  5
AC
330
7E
100
AcDbEntity
  8
0
  6
CONTINUOUS
 62
     0
100
AcDbCircle
 10
0.0
 20
0.0
 30
0.0
 40
0.5
  0
CIRCLE
  5
AD
330
7E
100
AcDbEntity
  8
0
  6
CONTINUOUS
 62
     0
100
AcDbCircle
 10
0.0
 20
0.0
 30
0.0
 40
0.25
  0
ENDBLK
  5
80
330
7E
100
AcDbEntity
  8
0
100
AcDbBlockEnd
  0
BLOCK
  5
82
330
81
100
AcDbEntity
  8
0
100
AcDbBlockBegin
  2
EX_RCIVIL
 70
     0
 10
0.0
 20
0.0
 30
0.0
  3
EX_RCIVIL
  1

  0
LINE
  5
AE
330
81
100
AcDbEntity
  8
0
  6
CONTINUOUS
 62
     0
100
AcDbLine
 10
0.0
 20
0.0
 30
0.0
 11
-1.0
 21
0.0
 31
0.0
  0
LINE
  5
AF
330
81
100
AcDbEntity
  8
0
  6
CONTINUOUS
 62
     0
100
AcDbLine
 10
-1.0
 20
-0.25
 30
0.0
 11
0.0
 21
-0.25
 31
0.0
  0
LINE
  5
B0
330
81
100
AcDbEntity
  8
0
  6
CONTINUOUS
 62
     0
100
AcDbLine
 10
-1.0
 20
-0.125
 30
0.0
 11
0.0
 21
-0.125
 31
0.0
  0
ENDBLK
  5
83
330
81
100
AcDbEntity
  8
0
100
AcDbBlockEnd
  0
BLOCK
  5
85
330
84
100
AcDbEntity
  8
0
100
AcDbBlockBegin
  2
EX_SLANT
 70
     0
 10
0.0
 20
0.0
 30
0.0
  3
EX_SLANT
  1

  0
LINE
  5
B1
330
84
100
AcDbEntity
  8
0
  6
CONTINUOUS
 62
     0
100
AcDbLine
 10
0.0
 20
0.0
 30
0.0
 11
-1.0
 21
0.0
 31
0.0
  0
LINE
  5
B2
330
84
100
AcDbEntity
  8
0
  6
CONTINUOUS
 62
     0
100
AcDbLine
 10
0.707106781
 20
0.707106781
 30
0.0
 11
-0.707106781
 21
-0.707106781
 31
0.0
  0
ENDBLK
  5
86
330
84
100
AcDbEntity
  8
0
100
AcDbBlockEnd
  0
BLOCK
  5
88
330
87
100
AcDbEntity
  8
0
100
AcDbBlockBegin
  2
EX_NONE
 70
     0
 10
0.0
 20
0.0
 30
0.0
  3
EX_NONE
  1

  0
LINE
  5
B3
330
87
100
AcDbEntity
  8
0
  6
CONTINUOUS
 62
     0
100
AcDbLine
 10
0.0
 20
0.0
 30
0.0
 11
-1.0
 21
0.0
 31
0.0
  0
ENDBLK
  5
89
330
87
100
AcDbEntity
  8
0
100
AcDbBlockEnd
  0
BLOCK
  5
8B
330
8A
100
AcDbEntity
  8
0
100
AcDbBlockBegin
  2
EX_CIVIL
 70
     0
 10
0.0
 20
0.0
 30
0.0
  3
EX_CIVIL
  1

  0
LINE
  5
B4
330
8A
100
AcDbEntity
  8
0
  6
CONTINUOUS
 62
     0
100
AcDbLine
 10
0.0
 20
0.0
 30
0.0
 11
-1.0
 21
0.0
 31
0.0
  0
LINE
  5
B5
330
8A
100
AcDbEntity
  8
0
  6
CONTINUOUS
 62
     0
100
AcDbLine
 10
-1.0
 20
0.25
 30
0.0
 11
0.0
 21
0.25
 31
0.0
  0
LINE
  5
B6
330
8A
100
AcDbEntity
  8
0
  6
CONTINUOUS
 62
     0
100
AcDbLine
 10
-1.0
 20
0.125
 30
0.0
 11
0.0
 21
0.125
 31
0.0
  0
ENDBLK
  5
8C
330
8A
100
AcDbEntity
  8
0
100
AcDbBlockEnd
  0
BLOCK
  5
8E
330
8D
100
AcDbEntity
  8
0
100
AcDbBlockBegin
  2
EX_WCIR
 70
     0
 10
0.0
 20
0.0
 30
0.0
  3
EX_WCIR
  1

  0
LINE
  5
B7
330
8D
100
AcDbEntity
  8
0
  6
CONTINUOUS
 62
     0
100
AcDbLine
 10
0.0
 20
0.0
 30
0.0
 11
-1.0
 21
0.0
 31
0.0
  0
CIRCLE
  5
B8
330
8D
100
AcDbEntity
  8
0
  6
CONTINUOUS
 62
     0
100
AcDbCircle
 10
0.0
 20
0.0
 30
0.0
 40
0.5
  0
ENDBLK
  5
8F
330
8D
100
AcDbEntity
  8
0
100
AcDbBlockEnd
  0
BLOCK
  5
91
330
90
100
AcDbEntity
  8
0
100
AcDbBlockBegin
  2
EX_WCIR2
 70
     0
 10
0.0
 20
0.0
 30
0.0
  3
EX_WCIR2
  1

  0
LINE
  5
B9
330
90
100
AcDbEntity
  8
0
  6
CONTINUOUS
 62
     0
100
AcDbLine
 10
-0.5
 20
0.0
 30
0.0
 11
-1.0
 21
0.0
 31
0.0
  0
CIRCLE
  5
BA
330
90
100
AcDbEntity
  8
0
  6
CONTINUOUS
 62
     0
100
AcDbCircle
 10
0.0
 20
0.0
 30
0.0
 40
0.5
  0
ENDBLK
  5
92
330
90
100
AcDbEntity
  8
0
100
AcDbBlockEnd
  0
BLOCK
  5
94
330
93
100
AcDbEntity
  8
0
100
AcDbBlockBegin
  2
EX_WNORM
 70
     0
 10
0.0
 20
0.0
 30
0.0
  3
EX_WNORM
  1

  0
LINE
  5
BB
330
93
100
AcDbEntity
  8
0
  6
CONTINUOUS
 62
     0
100
AcDbLine
 10
-1.0
 20
0.0
 30
0.0
 11
-1.0
 21
0.0
 31
0.0
  0
LINE
  5
BC
330
93
100
AcDbEntity
  8
0
  6
CONTINUOUS
 62
     0
100
AcDbLine
 10
0.0
 20
0.0
 30
0.0
 11
-1.0
 21
0.166666667
 31
0.0
  0
LINE
  5
BD
330
93
100
AcDbEntity
  8
0
  6
CONTINUOUS
 62
     0
100
AcDbLine
 10
0.0
 20
0.0
 30
0.0
 11
-1.0
 21
-0.166666667
 31
0.0
  0
LINE
  5
BE
330
93
100
AcDbEntity
  8
0
  6
CONTINUOUS
 62
     0
100
AcDbLine
 10
-1.0
 20
0.166666667
 30
0.0
 11
-1.0
 21
-0.166666667
 31
0.0
  0
ENDBLK
  5
95
330
93
100
AcDbEntity
  8
0
100
AcDbBlockEnd
  0
BLOCK
  5
97
330
96
100
AcDbEntity
  8
0
100
AcDbBlockBegin
  2
EX_NNORM
 70
     0
 10
0.0
 20
0.0
 30
0.0
  3
EX_NNORM
  1

  0
LINE
  5
BF
330
96
100
AcDbEntity
  8
0
  6
CONTINUOUS
 62
     0
100
AcDbLine
 10
0.0
 20
0.0
 30
0.0
 11
-1.0
 21
0.0
 31
0.0
  0
LINE
  5
C0
330
96
100
AcDbEntity
  8
0
  6
CONTINUOUS
 62
     0
100
AcDbLine
 10
0.0
 20
0.0
 30
0.0
 11
-1.0
 21
0.166666667
 31
0.0
  0
LINE
  5
C1
330
96
100
AcDbEntity
  8
0
  6
CONTINUOUS
 62
     0
100
AcDbLine
 10
0.0
 20
0.0
 30
0.0
 11
-1.0
 21
-0.166666667
 31
0.0
  0
LINE
  5
C2
330
96
100
AcDbEntity
  8
0
  6
CONTINUOUS
 62
     0
100
AcDbLine
 10
-1.0
 20
0.166666667
 30
0.0
 11
-1.0
 21
-0.166666667
 31
0.0
  0
ENDBLK
  5
98
330
96
100
AcDbEntity
  8
0
100
AcDbBlockEnd
  0
BLOCK
  5
9A
330
99
100
AcDbEntity
  8
0
100
AcDbBlockBegin
  2
EX_BBOX
 70
     0
 10
0.0
 20
0.0
 30
0.0
  3
EX_BBOX
  1

  0
LINE
  5
C3
330
99
100
AcDbEntity
  8
0
  6
CONTINUOUS
 62
     0
100
AcDbLine
 10
0.0
 20
0.0
 30
0.0
 11
-1.0
 21
0.0
 31
0.0
  0
LINE
  5
C4
330
99
100
AcDbEntity
  8
0
  6
CONTINUOUS
 62
     0
100
AcDbLine
 10
-0.5
 20
0.5
 30
0.0
 11
0.5
 21
0.5
 31
0.0
  0
LINE
  5
C5
330
99
100
AcDbEntity
  8
0
  6
CONTINUOUS
 62
     0
100
AcDbLine
 10
0.5
 20
0.5
 30
0.0
 11
0.5
 21
-0.5
 31
0.0
  0
LINE
  5
C6
330
99
100
AcDbEntity
  8
0
  6
CONTINUOUS
 62
     0
100
AcDbLine
 10
0.5
 20
-0.5
 30
0.0
 11
-0.5
 21
-0.5
 31
0.0
  0
LINE
  5
C7
330
99
100
AcDbEntity
  8
0
  6
CONTINUOUS
 62
     0
100
AcDbLine
 10
-0.5
 20
-0.5
 30
0.0
 11
-0.5
 21
0.5
 31
0.0
  0
LINE
  5
C8
330
99
100
AcDbEntity
  8
0
  6
CONTINUOUS
 62
     0
100
AcDbLine
 10
-0.25
 20
0.25
 30
0.0
 11
0.25
 21
0.25
 31
0.0
  0
LINE
  5
C9
330
99
100
AcDbEntity
  8
0
  6
CONTINUOUS
 62
     0
100
AcDbLine
 10
0.25
 20
0.25
 30
0.0
 11
0.25
 21
-0.25
 31
0.0
  0
LINE
  5
CA
330
99
100
AcDbEntity
  8
0
  6
CONTINUOUS
 62
     0
100
AcDbLine
 10
0.25
 20
-0.25
 30
0.0
 11
-0.25
 21
-0.25
 31
0.0
  0
LINE
  5
CB
330
99
100
AcDbEntity
  8
0
  6
CONTINUOUS
 62
     0
100
AcDbLine
 10
-0.25
 20
-0.25
 30
0.0
 11
-0.25
 21
0.25
 31
0.0
  0
ENDBLK
  5
9B
330
99
100
AcDbEntity
  8
0
100
AcDbBlockEnd
  0
BLOCK
  5
9D
330
9C
100
AcDbEntity
  8
0
100
AcDbBlockBegin
  2
EX_WBOX
 70
     0
 10
0.0
 20
0.0
 30
0.0
  3
EX_WBOX
  1

  0
LINE
  5
CC
330
9C
100
AcDbEntity
  8
0
  6
CONTINUOUS
 62
     0
100
AcDbLine
 10
-0.5
 20
0.0
 30
0.0
 11
-1.0
 21
0.0
 31
0.0
  0
LINE
  5
CD
330
9C
100
AcDbEntity
  8
0
  6
CONTINUOUS
 62
     0
100
AcDbLine
 10
-0.5
 20
0.5
 30
0.0
 11
0.5
 21
0.5
 31
0.0
  0
LINE
  5
CE
330
9C
100
AcDbEntity
  8
0
  6
CONTINUOUS
 62
     0
100
AcDbLine
 10
0.5
 20
0.5
 30
0.0
 11
0.5
 21
-0.5
 31
0.0
  0
LINE
  5
CF
330
9C
100
AcDbEntity
  8
0
  6
CONTINUOUS
 62
     0
100
AcDbLine
 10
0.5
 20
-0.5
 30
0.0
 11
-0.5
 21
-0.5
 31
0.0
  0
LINE
  5
D0
330
9C
100
AcDbEntity
  8
0
  6
CONTINUOUS
 62
     0
100
AcDbLine
 10
-0.5
 20
-0.5
 30
0.0
 11
-0.5
 21
0.5
 31
0.0
  0
ENDBLK
  5
9E
330
9C
100
AcDbEntity
  8
0
100
AcDbBlockEnd
  0
BLOCK
  5
A0
330
9F
100
AcDbEntity
  8
0
100
AcDbBlockBegin
  2
EX_INTEGRAL
 70
     0
 10
0.0
 20
0.0
 30
0.0
  3
EX_INTEGRAL
  1

  0
LINE
  5
D1
330
9F
100
AcDbEntity
  8
0
  6
CONTINUOUS
 62
     0
100
AcDbLine
 10
0.0
 20
0.0
 30
0.0
 11
-1.0
 21
0.0
 31
0.0
  0
ARC
  5
D2
330
9F
100
AcDbEntity
  8
0
  6
CONTINUOUS
 62
     0
100
AcDbCircle
 10
0.542115
 20
0.164992
 30
0.0
 40
0.56667
100
AcDbArc
 50
73.07249033629006
 51
196.9275130221199
  0
ARC
  5
D3
330
9F
100
AcDbEntity
  8
0
  6
CONTINUOUS
 62
     0
100
AcDbCircle
 10
-0.542115
 20
-0.164992
 30
0.0
 40
0.56667
100
AcDbArc
 50
253.0724869220464
 51
16.9275130559125
  0
ENDBLK
  5
A1
330
9F
100
AcDbEntity
  8
0
100
AcDbBlockEnd
  0
BLOCK
  5
3A8
330
3A7
100
AcDbEntity
  8
0
100
AcDbBlockBegin
  2
*D15
 70
     1
 10
0.0
 20
0.0
 30
0.0
  3
*D15
  1

  0
LINE
  5
3AA
330
3A7
100
AcDbEntity
  8
LAY-20
  6
CONTINUOUS
 62
     4
100
AcDbLine
 10
390.499999999999
 20
254.40841949411
 30
0.0
 11
325.499999999999
 21
254.40841949411
 31
0.0
  0
LINE
  5
3AB
330
3A7
100
AcDbEntity
  8
LAY-20
  6
CONTINUOUS
 62
     4
100
AcDbLine
 10
356.4999999999991
 20
277.99999999999
 30
0.0
 11
325.499999999999
 21
277.99999999999
 31
0.0
  0
LINE
  5
3AC
330
3A7
100
AcDbEntity
  8
LAY-20
  6
CONTINUOUS
 62
     4
100
AcDbLine
 10
329.999999999999
 20
261.90841949411
 30
0.0
 11
329.999999999999
 21
270.49999999999
 31
0.0
  0
INSERT
  5
3AD
330
3A7
100
AcDbEntity
  8
LAY-20
 62
     4
100
AcDbBlockReference
  2
EX_BNORM
 10
329.999999999999
 20
254.40841949411
 30
0.0
 41
7.5
 42
7.5
 43
7.5
 50
270.0
  0
INSERT
  5
3AE
330
3A7
100
AcDbEntity
  8
LAY-20
 62
     4
100
AcDbBlockReference
  2
EX_BNORM
 10
329.999999999999
 20
277.99999999999
 30
0.0
 41
7.5
 42
7.5
 43
7.5
 50
90.0
  0
MTEXT
  5
3AF
330
3A7
100
AcDbEntity
  8
LAY-20
 62
     7
100
AcDbMText
 10
322.499999999999
 20
266.20420974705
 30
0.0
 40
9.3543312
 41
0.0
 71
     5
 72
     1
  1
23.5
  7
EXCADDIM1
 11
0.0
 21
1.0
 31
0.0
  0
POINT
  5
3B0
330
3A7
100
AcDbEntity
  8
DEFPOINTS
 62
     0
100
AcDbPoint
 10
394.999999999999
 20
254.40841949411
 30
0.0
  0
POINT
  5
3B1
330
3A7
100
AcDbEntity
  8
DEFPOINTS
 62
     0
100
AcDbPoint
 10
360.9999999999991
 20
277.99999999999
 30
0.0
  0
POINT
  5
3B2
330
3A7
100
AcDbEntity
  8
DEFPOINTS
 62
     0
100
AcDbPoint
 10
329.999999999999
 20
277.99999999999
 30
0.0
  0
ENDBLK
  5
3A9
330
3A7
100
AcDbEntity
  8
0
100
AcDbBlockEnd
  0
BLOCK
  5
3B5
330
3B4
100
AcDbEntity
  8
0
100
AcDbBlockBegin
  2
*D16
 70
     1
 10
0.0
 20
0.0
 30
0.0
  3
*D16
  1

  0
LINE
  5
3B7
330
3B4
100
AcDbEntity
  8
LAY-20
  6
CONTINUOUS
 62
     4
100
AcDbLine
 10
539.5
 20
197.99999999999
 30
0.0
 11
604.5
 21
197.99999999999
 31
0.0
  0
LINE
  5
3B8
330
3B4
100
AcDbEntity
  8
LAY-20
  6
CONTINUOUS
 62
     4
100
AcDbLine
 10
573.5
 20
277.99999999999
 30
0.0
 11
604.5
 21
277.99999999999
 31
0.0
  0
LINE
  5
3B9
330
3B4
100
AcDbEntity
  8
LAY-20
  6
CONTINUOUS
 62
     4
100
AcDbLine
 10
600.0
 20
205.49999999999
 30
0.0
 11
600.0
 21
270.49999999999
 31
0.0
  0
INSERT
  5
3BA
330
3B4
100
AcDbEntity
  8
LAY-20
 62
     4
100
AcDbBlockReference
  2
EX_BNORM
 10
600.0
 20
197.99999999999
 30
0.0
 41
7.5
 42
7.5
 43
7.5
 50
270.0
  0
INSERT
  5
3BB
330
3B4
100
AcDbEntity
  8
LAY-20
 62
     4
100
AcDbBlockReference
  2
EX_BNORM
 10
600.0
 20
277.99999999999
 30
0.0
 41
7.5
 42
7.5
 43
7.5
 50
90.0
  0
MTEXT
  5
3BC
330
3B4
100
AcDbEntity
  8
LAY-20
 62
     7
100
AcDbMText
 10
592.5
 20
237.99999999999
 30
0.0
 40
9.3543312
 41
0.0
 71
     5
 72
     1
  1
80
  7
EXCADDIM1
 11
0.0
 21
1.0
 31
0.0
  0
POINT
  5
3BD
330
3B4
100
AcDbEntity
  8
DEFPOINTS
 62
     0
100
AcDbPoint
 10
535.0
 20
197.99999999999
 30
0.0
  0
POINT
  5
3BE
330
3B4
100
AcDbEntity
  8
DEFPOINTS
 62
     0
100
AcDbPoint
 10
569.0
 20
277.99999999999
 30
0.0
  0
POINT
  5
3BF
330
3B4
100
AcDbEntity
  8
DEFPOINTS
 62
     0
100
AcDbPoint
 10
600.0
 20
277.99999999999
 30
0.0
  0
ENDBLK
  5
3B6
330
3B4
100
AcDbEntity
  8
0
100
AcDbBlockEnd
  0
BLOCK
  5
3C2
330
3C1
100
AcDbEntity
  8
0
100
AcDbBlockBegin
  2
*D17
 70
     1
 10
0.0
 20
0.0
 30
0.0
  3
*D17
  1

  0
LINE
  5
3C4
330
3C1
100
AcDbEntity
  8
LAY-20
  6
CONTINUOUS
 62
     4
100
AcDbLine
 10
519.47942913437
 20
314.99999999999
 30
0.0
 11
604.5
 21
314.99999999999
 31
0.0
  0
LINE
  5
3C5
330
3C1
100
AcDbEntity
  8
LAY-20
  6
CONTINUOUS
 62
     4
100
AcDbLine
 10
600.0
 20
307.49999999999
 30
0.0
 11
600.0
 21
285.49999999999
 31
0.0
  0
INSERT
  5
3C6
330
3C1
100
AcDbEntity
  8
LAY-20
 62
     4
100
AcDbBlockReference
  2
EX_BNORM
 10
600.0
 20
314.99999999999
 30
0.0
 41
7.5
 42
7.5
 43
7.5
 50
90.0
  0
INSERT
  5
3C7
330
3C1
100
AcDbEntity
  8
LAY-20
 62
     4
100
AcDbBlockReference
  2
EX_BNORM
 10
600.0
 20
277.99999999999
 30
0.0
 41
7.5
 42
7.5
 43
7.5
 50
270.0
  0
MTEXT
  5
3C8
330
3C1
100
AcDbEntity
  8
LAY-20
 62
     7
100
AcDbMText
 10
592.5
 20
296.49999999999
 30
0.0
 40
9.3543312
 41
0.0
 71
     5
 72
     1
  1
37
  7
EXCADDIM1
 11
0.0
 21
1.0
 31
0.0
  0
POINT
  5
3C9
330
3C1
100
AcDbEntity
  8
DEFPOINTS
 62
     0
100
AcDbPoint
 10
514.97942913437
 20
314.99999999999
 30
0.0
  0
POINT
  5
3CA
330
3C1
100
AcDbEntity
  8
DEFPOINTS
 62
     0
100
AcDbPoint
 10
600.0
 20
277.99999999999
 30
0.0
  0
POINT
  5
3CB
330
3C1
100
AcDbEntity
  8
DEFPOINTS
 62
     0
100
AcDbPoint
 10
600.0
 20
277.99999999999
 30
0.0
  0
ENDBLK
  5
3C3
330
3C1
100
AcDbEntity
  8
0
100
AcDbBlockEnd
  0
BLOCK
  5
3CE
330
3CD
100
AcDbEntity
  8
0
100
AcDbBlockBegin
  2
*D18
 70
     1
 10
0.0
 20
0.0
 30
0.0
  3
*D18
  1

  0
LINE
  5
3D0
330
3CD
100
AcDbEntity
  8
LAY-20
  6
CONTINUOUS
 62
     4
100
AcDbLine
 10
417.9999999999999
 20
208.49999999999
 30
0.0
 11
417.9999999999999
 21
163.49999999998
 31
0.0
  0
LINE
  5
3D1
330
3CD
100
AcDbEntity
  8
LAY-20
  6
CONTINUOUS
 62
     4
100
AcDbLine
 10
512.0
 20
208.49999999999
 30
0.0
 11
512.0
 21
163.49999999998
 31
0.0
  0
LINE
  5
3D2
330
3CD
100
AcDbEntity
  8
LAY-20
  6
CONTINUOUS
 62
     4
100
AcDbLine
 10
426.9999999999999
 20
167.99999999998
 30
0.0
 11
503.0
 21
167.99999999998
 31
0.0
  0
INSERT
  5
3D3
330
3CD
100
AcDbEntity
  8
LAY-20
 62
     4
100
AcDbBlockReference
  2
EX_BNORM
 10
417.9999999999999
 20
167.99999999998
 30
0.0
 41
9.0
 42
9.0
 43
9.0
 50
180.0
  0
INSERT
  5
3D4
330
3CD
100
AcDbEntity
  8
LAY-20
 62
     4
100
AcDbBlockReference
  2
EX_BNORM
 10
512.0
 20
167.99999999998
 30
0.0
 41
9.0
 42
9.0
 43
9.0
  0
MTEXT
  5
3D5
330
3CD
100
AcDbEntity
  8
LAY-20
 62
     7
100
AcDbMText
 10
465.0
 20
175.49999999998
 30
0.0
 40
9.3543312
 41
0.0
 71
     5
 72
     1
  1
%%c94
  7
EXCADDIM1
  0
POINT
  5
3D6
330
3CD
100
AcDbEntity
  8
DEFPOINTS
 62
     0
100
AcDbPoint
 10
417.9999999999999
 20
212.99999999999
 30
0.0
  0
POINT
  5
3D7
330
3CD
100
AcDbEntity
  8
DEFPOINTS
 62
     0
100
AcDbPoint
 10
512.0
 20
212.99999999999
 30
0.0
  0
POINT
  5
3D8
330
3CD
100
AcDbEntity
  8
DEFPOINTS
 62
     0
100
AcDbPoint
 10
512.0
 20
167.99999999998
 30
0.0
  0
ENDBLK
  5
3CF
330
3CD
100
AcDbEntity
  8
0
100
AcDbBlockEnd
  0
BLOCK
  5
3DB
330
3DA
100
AcDbEntity
  8
0
100
AcDbBlockBegin
  2
*D19
 70
     1
 10
0.0
 20
0.0
 30
0.0
  3
*D19
  1

  0
LINE
  5
3DD
330
3DA
100
AcDbEntity
  8
LAY-20
  6
CONTINUOUS
 62
     4
100
AcDbLine
 10
416.4999999999999
 20
243.99999999998
 30
0.0
 11
416.4999999999999
 21
142.49999999998
 31
0.0
  0
LINE
  5
3DE
330
3DA
100
AcDbEntity
  8
LAY-20
  6
CONTINUOUS
 62
     4
100
AcDbLine
 10
513.5
 20
243.99999999998
 30
0.0
 11
513.5
 21
142.49999999998
 31
0.0
  0
LINE
  5
3DF
330
3DA
100
AcDbEntity
  8
LAY-20
  6
CONTINUOUS
 62
     4
100
AcDbLine
 10
425.4999999999999
 20
146.99999999998
 30
0.0
 11
504.5
 21
146.99999999998
 31
0.0
  0
INSERT
  5
3E0
330
3DA
100
AcDbEntity
  8
LAY-20
 62
     4
100
AcDbBlockReference
  2
EX_BNORM
 10
416.4999999999999
 20
146.99999999998
 30
0.0
 41
9.0
 42
9.0
 43
9.0
 50
180.0
  0
INSERT
  5
3E1
330
3DA
100
AcDbEntity
  8
LAY-20
 62
     4
100
AcDbBlockReference
  2
EX_BNORM
 10
513.5
 20
146.99999999998
 30
0.0
 41
9.0
 42
9.0
 43
9.0
  0
MTEXT
  5
3E2
330
3DA
100
AcDbEntity
  8
LAY-20
 62
     7
100
AcDbMText
 10
465.0
 20
154.49999999998
 30
0.0
 40
9.3543312
 41
0.0
 71
     5
 72
     1
  1
%%c97
  7
EXCADDIM1
  0
POINT
  5
3E3
330
3DA
100
AcDbEntity
  8
DEFPOINTS
 62
     0
100
AcDbPoint
 10
416.4999999999999
 20
248.49999999998
 30
0.0
  0
POINT
  5
3E4
330
3DA
100
AcDbEntity
  8
DEFPOINTS
 62
     0
100
AcDbPoint
 10
513.5
 20
248.49999999998
 30
0.0
  0
POINT
  5
3E5
330
3DA
100
AcDbEntity
  8
DEFPOINTS
 62
     0
100
AcDbPoint
 10
513.5
 20
146.99999999998
 30
0.0
  0
ENDBLK
  5
3DC
330
3DA
100
AcDbEntity
  8
0
100
AcDbBlockEnd
  0
BLOCK
  5
3E8
330
3E7
100
AcDbEntity
  8
0
100
AcDbBlockBegin
  2
*D20
 70
     1
 10
0.0
 20
0.0
 30
0.0
  3
*D20
  1

  0
LINE
  5
3EA
330
3E7
100
AcDbEntity
  8
LAY-20
  6
CONTINUOUS
 62
     4
100
AcDbLine
 10
383.99999999999
 20
293.6567012524951
 30
0.0
 11
383.99999999999
 21
349.49999999999
 31
0.0
  0
LINE
  5
3EB
330
3E7
100
AcDbEntity
  8
LAY-20
  6
CONTINUOUS
 62
     4
100
AcDbLine
 10
545.99999999999
 20
278.790000629425
 30
0.0
 11
545.99999999999
 21
349.49999999999
 31
0.0
  0
LINE
  5
3EC
330
3E7
100
AcDbEntity
  8
LAY-20
  6
CONTINUOUS
 62
     4
100
AcDbLine
 10
392.99999999999
 20
344.99999999999
 30
0.0
 11
536.99999999999
 21
344.99999999999
 31
0.0
  0
INSERT
  5
3ED
330
3E7
100
AcDbEntity
  8
LAY-20
 62
     4
100
AcDbBlockReference
  2
EX_BNORM
 10
383.99999999999
 20
344.99999999999
 30
0.0
 41
9.0
 42
9.0
 43
9.0
 50
180.0
  0
INSERT
  5
3EE
330
3E7
100
AcDbEntity
  8
LAY-20
 62
     4
100
AcDbBlockReference
  2
EX_BNORM
 10
545.99999999999
 20
344.99999999999
 30
0.0
 41
9.0
 42
9.0
 43
9.0
  0
MTEXT
  5
3EF
330
3E7
100
AcDbEntity
  8
LAY-20
 62
     7
100
AcDbMText
 10
464.9999999999899
 20
352.49999999999
 30
0.0
 40
9.3543312
 41
0.0
 71
     5
 72
     1
  1
%%c162
  7
EXCADDIM1
  0
POINT
  5
3F0
330
3E7
100
AcDbEntity
  8
DEFPOINTS
 62
     0
100
AcDbPoint
 10
383.99999999999
 20
280.06670062307
 30
0.0
  0
POINT
  5
3F1
330
3E7
100
AcDbEntity
  8
DEFPOINTS
 62
     0
100
AcDbPoint
 10
545.99999999999
 20
265.2
 30
0.0
  0
POINT
  5
3F2
330
3E7
100
AcDbEntity
  8
DEFPOINTS
 62
     0
100
AcDbPoint
 10
545.99999999999
 20
344.99999999999
 30
0.0
  0
ENDBLK
  5
3E9
330
3E7
100
AcDbEntity
  8
0
100
AcDbBlockEnd
  0
BLOCK
  5
3F5
330
3F4
100
AcDbEntity
  8
0
100
AcDbBlockBegin
  2
*D21
 70
     1
 10
0.0
 20
0.0
 30
0.0
  3
*D21
  1

  0
LINE
  5
3F7
330
3F4
100
AcDbEntity
  8
LAY-20
  6
CONTINUOUS
 62
     4
100
AcDbLine
 10
381.00000000002
 20
281.4
 30
0.0
 11
381.00000000002
 21
370.49999999999
 31
0.0
  0
LINE
  5
3F8
330
3F4
100
AcDbEntity
  8
LAY-20
  6
CONTINUOUS
 62
     4
100
AcDbLine
 10
548.99999999998
 20
280.2
 30
0.0
 11
548.99999999998
 21
370.49999999999
 31
0.0
  0
LINE
  5
3F9
330
3F4
100
AcDbEntity
  8
LAY-20
  6
CONTINUOUS
 62
     4
100
AcDbLine
 10
390.00000000002
 20
365.99999999999
 30
0.0
 11
539.99999999998
 21
365.99999999999
 31
0.0
  0
INSERT
  5
3FA
330
3F4
100
AcDbEntity
  8
LAY-20
 62
     4
100
AcDbBlockReference
  2
EX_BNORM
 10
381.00000000002
 20
365.99999999999
 30
0.0
 41
9.0
 42
9.0
 43
9.0
 50
180.0
  0
INSERT
  5
3FB
330
3F4
100
AcDbEntity
  8
LAY-20
 62
     4
100
AcDbBlockReference
  2
EX_BNORM
 10
548.99999999998
 20
365.99999999999
 30
0.0
 41
9.0
 42
9.0
 43
9.0
  0
MTEXT
  5
3FC
330
3F4
100
AcDbEntity
  8
LAY-20
 62
     7
100
AcDbMText
 10
465.0
 20
373.49999999999
 30
0.0
 40
9.3543312
 41
0.0
 71
     5
 72
     1
  1
%%c168
  7
EXCADDIM1
  0
POINT
  5
3FD
330
3F4
100
AcDbEntity
  8
DEFPOINTS
 62
     0
100
AcDbPoint
 10
381.00000000002
 20
280.8
 30
0.0
  0
POINT
  5
3FE
330
3F4
100
AcDbEntity
  8
DEFPOINTS
 62
     0
100
AcDbPoint
 10
548.99999999998
 20
279.6
 30
0.0
  0
POINT
  5
3FF
330
3F4
100
AcDbEntity
  8
DEFPOINTS
 62
     0
100
AcDbPoint
 10
548.99999999998
 20
365.99999999999
 30
0.0
  0
ENDBLK
  5
3F6
330
3F4
100
AcDbEntity
  8
0
100
AcDbBlockEnd
  0
BLOCK
  5
402
330
401
100
AcDbEntity
  8
0
100
AcDbBlockBegin
  2
*D22
 70
     1
 10
0.0
 20
0.0
 30
0.0
  3
*D22
  1

  0
LINE
  5
404
330
401
100
AcDbEntity
  8
LAY-20
  6
CONTINUOUS
 62
     4
100
AcDbLine
 10
360.0
 20
279.99999999999
 30
0.0
 11
360.0
 21
391.4999999999899
 31
0.0
  0
LINE
  5
405
330
401
100
AcDbEntity
  8
LAY-20
  6
CONTINUOUS
 62
     4
100
AcDbLine
 10
570.0
 20
279.99999999999
 30
0.0
 11
570.0
 21
391.4999999999899
 31
0.0
  0
LINE
  5
406
330
401
100
AcDbEntity
  8
LAY-20
  6
CONTINUOUS
 62
     4
100
AcDbLine
 10
369.0
 20
386.9999999999899
 30
0.0
 11
561.0
 21
386.9999999999899
 31
0.0
  0
INSERT
  5
407
330
401
100
AcDbEntity
  8
LAY-20
 62
     4
100
AcDbBlockReference
  2
EX_BNORM
 10
360.0
 20
386.9999999999899
 30
0.0
 41
9.0
 42
9.0
 43
9.0
 50
180.0
  0
INSERT
  5
408
330
401
100
AcDbEntity
  8
LAY-20
 62
     4
100
AcDbBlockReference
  2
EX_BNORM
 10
570.0
 20
386.9999999999899
 30
0.0
 41
9.0
 42
9.0
 43
9.0
  0
MTEXT
  5
409
330
401
100
AcDbEntity
  8
LAY-20
 62
     7
100
AcDbMText
 10
465.0
 20
394.4999999999899
 30
0.0
 40
9.3543312
 41
0.0
 71
     5
 72
     1
  1
%%c210
  7
EXCADDIM1
  0
POINT
  5
40A
330
401
100
AcDbEntity
  8
DEFPOINTS
 62
     0
100
AcDbPoint
 10
360.0
 20
275.49999999999
 30
0.0
  0
POINT
  5
40B
330
401
100
AcDbEntity
  8
DEFPOINTS
 62
     0
100
AcDbPoint
 10
570.0
 20
275.49999999999
 30
0.0
  0
POINT
  5
40C
330
401
100
AcDbEntity
  8
DEFPOINTS
 62
     0
100
AcDbPoint
 10
570.0
 20
386.9999999999899
 30
0.0
  0
ENDBLK
  5
403
330
401
100
AcDbEntity
  8
0
100
AcDbBlockEnd
  0
ENDSEC
  0
SECTION
  2
ENTITIES
  0
LINE
  5
D4
330
1F
100
AcDbEntity
  8
LAY-10
  6
CONTINUOUS
 62
     7
100
AcDbLine
 10
394.9999999999955
 20
251.7401153701641
 30
0.0
 11
397.6683041239477
 21
254.4084194941164
 31
0.0
  0
LINE
  5
D5
330
1F
100
AcDbEntity
  8
LAY-10
  6
CONTINUOUS
 62
     7
100
AcDbLine
 10
394.9999999999968
 20
248.9116882454192
 30
0.0
 11
399.4999999999976
 21
253.41168824542
 31
0.0
  0
LINE
  5
D6
330
1F
100
AcDbEntity
  8
LAY-10
  6
CONTINUOUS
 62
     7
100
AcDbLine
 10
395.0000000000019
 20
246.0832611206782
 30
0.0
 11
399.4999999999989
 21
250.5832611206751
 31
0.0
  0
LINE
  5
D7
330
1F
100
AcDbEntity
  8
LAY-10
  6
CONTINUOUS
 62
     7
100
AcDbLine
 10
394.9999999999956
 20
243.2548339959255
 30
0.0
 11
399.4999999999963
 21
247.7548339959263
 31
0.0
  0
LINE
  5
D8
330
1F
100
AcDbEntity
  8
LAY-10
  6
CONTINUOUS
 62
     7
100
AcDbLine
 10
395.0000000000007
 20
240.4264068711844
 30
0.0
 11
399.4999999999976
 21
244.9264068711813
 31
0.0
  0
LINE
  5
D9
330
1F
100
AcDbEntity
  8
LAY-10
  6
CONTINUOUS
 62
     7
100
AcDbLine
 10
395.0000000000019
 20
237.5979797464395
 30
0.0
 11
399.4999999999989
 21
242.0979797464365
 31
0.0
  0
LINE
  5
DA
330
1F
100
AcDbEntity
  8
LAY-10
  6
CONTINUOUS
 62
     7
100
AcDbLine
 10
394.9999999999956
 20
234.7695526216869
 30
0.0
 11
399.4999999999963
 21
239.2695526216877
 31
0.0
  0
LINE
  5
DB
330
1F
100
AcDbEntity
  8
LAY-10
  6
CONTINUOUS
 62
     7
100
AcDbLine
 10
395.0000000000007
 20
231.9411254969459
 30
0.0
 11
399.4999999999976
 21
236.4411254969427
 31
0.0
  0
LINE
  5
DC
330
1F
100
AcDbEntity
  8
LAY-10
  6
CONTINUOUS
 62
     7
100
AcDbLine
 10
394.9999999999981
 20
229.1126983721971
 30
0.0
 11
399.4999999999951
 21
233.612698372194
 31
0.0
  0
LINE
  5
DD
330
1F
100
AcDbEntity
  8
LAY-10
  6
CONTINUOUS
 62
     7
100
AcDbLine
 10
394.9999999999956
 20
226.2842712474483
 30
0.0
 11
399.4999999999963
 21
230.784271247449
 31
0.0
  0
LINE
  5
DE
330
1F
100
AcDbEntity
  8
LAY-10
  6
CONTINUOUS
 62
     7
100
AcDbLine
 10
395.0000000000007
 20
223.4558441227073
 30
0.0
 11
399.4999999999976
 21
227.9558441227041
 31
0.0
  0
LINE
  5
DF
330
1F
100
AcDbEntity
  8
LAY-10
  6
CONTINUOUS
 62
     7
100
AcDbLine
 10
394.9999999999982
 20
220.6274169979585
 30
0.0
 11
399.4999999999951
 21
225.1274169979554
 31
0.0
  0
LINE
  5
E0
330
1F
100
AcDbEntity
  8
LAY-10
  6
CONTINUOUS
 62
     7
100
AcDbLine
 10
394.9999999999995
 20
217.7989898732135
 30
0.0
 11
399.5000000000002
 21
222.2989898732143
 31
0.0
  0
LINE
  5
E1
330
1F
100
AcDbEntity
  8
LAY-10
  6
CONTINUOUS
 62
     7
100
AcDbLine
 10
395.0000000000007
 20
214.9705627484687
 30
0.0
 11
399.4999999999977
 21
219.4705627484656
 31
0.0
  0
LINE
  5
E2
330
1F
100
AcDbEntity
  8
LAY-10
  6
CONTINUOUS
 62
     7
100
AcDbLine
 10
394.9999999999982
 20
212.1421356237199
 30
0.0
 11
399.4999999999951
 21
216.6421356237168
 31
0.0
  0
LINE
  5
E3
330
1F
100
AcDbEntity
  8
LAY-10
  6
CONTINUOUS
 62
     7
100
AcDbLine
 10
394.9999999999995
 20
209.313708498975
 30
0.0
 11
399.5000000000002
 21
213.8137084989757
 31
0.0
  0
LINE
  5
E4
330
1F
100
AcDbEntity
  8
LAY-10
  6
CONTINUOUS
 62
     7
100
AcDbLine
 10
395.0000000000007
 20
206.4852813742301
 30
0.0
 11
399.4999999999977
 21
210.985281374227
 31
0.0
  0
LINE
  5
E5
330
1F
100
AcDbEntity
  8
LAY-10
  6
CONTINUOUS
 62
     7
100
AcDbLine
 10
394.9999999999983
 20
203.6568542494813
 30
0.0
 11
399.4999999999951
 21
208.1568542494782
 31
0.0
  0
LINE
  5
E6
330
1F
100
AcDbEntity
  8
LAY-10
  6
CONTINUOUS
 62
     7
100
AcDbLine
 10
394.9999999999995
 20
200.8284271247364
 30
0.0
 11
399.4999999999964
 21
205.3284271247333
 31
0.0
  0
LINE
  5
E7
330
1F
100
AcDbEntity
  8
LAY-10
  6
CONTINUOUS
 62
     7
100
AcDbLine
 10
394.9999999999931
 20
197.9999999999837
 30
0.0
 11
399.4999999999939
 21
202.4999999999845
 31
0.0
  0
LINE
  5
E8
330
1F
100
AcDbEntity
  8
LAY-10
  6
CONTINUOUS
 62
     7
100
AcDbLine
 10
397.8284271247419
 20
197.9999999999863
 30
0.0
 11
399.499999999999
 21
199.6715728752434
 31
0.0
  0
LINE
  5
E9
330
1F
100
AcDbEntity
  8
LAY-10
  6
CONTINUOUS
 62
     7
100
AcDbLine
 10
530.4999999999974
 20
251.7401153701659
 30
0.0
 11
533.1683041239419
 21
254.4084194941105
 31
0.0
  0
LINE
  5
EA
330
1F
100
AcDbEntity
  8
LAY-10
  6
CONTINUOUS
 62
     7
100
AcDbLine
 10
530.5000000000025
 20
248.9116882454248
 30
0.0
 11
534.9999999999994
 21
253.4116882454218
 31
0.0
  0
LINE
  5
EB
330
1F
100
AcDbEntity
  8
LAY-10
  6
CONTINUOUS
 62
     7
100
AcDbLine
 10
530.4999999999999
 20
246.083261120676
 30
0.0
 11
535.0000000000007
 21
250.5832611206768
 31
0.0
  0
LINE
  5
EC
330
1F
100
AcDbEntity
  8
LAY-10
  6
CONTINUOUS
 62
     7
100
AcDbLine
 10
530.5000000000011
 20
243.2548339959312
 30
0.0
 11
534.9999999999981
 21
247.7548339959281
 31
0.0
  0
LINE
  5
ED
330
1F
100
AcDbEntity
  8
LAY-10
  6
CONTINUOUS
 62
     7
100
AcDbLine
 10
530.5000000000025
 20
240.4264068711863
 30
0.0
 11
534.9999999999994
 21
244.9264068711831
 31
0.0
  0
LINE
  5
EE
330
1F
100
AcDbEntity
  8
LAY-10
  6
CONTINUOUS
 62
     7
100
AcDbLine
 10
530.499999999996
 20
237.5979797464336
 30
0.0
 11
535.0000000000045
 21
242.0979797464421
 31
0.0
  0
LINE
  5
EF
330
1F
100
AcDbEntity
  8
LAY-10
  6
CONTINUOUS
 62
     7
100
AcDbLine
 10
530.5000000000011
 20
234.7695526216925
 30
0.0
 11
535.000000000002
 21
239.2695526216933
 31
0.0
  0
LINE
  5
F0
330
1F
100
AcDbEntity
  8
LAY-10
  6
CONTINUOUS
 62
     7
100
AcDbLine
 10
530.5000000000025
 20
231.9411254969476
 30
0.0
 11
534.9999999999994
 21
236.4411254969446
 31
0.0
  0
LINE
  5
F1
330
1F
100
AcDbEntity
  8
LAY-10
  6
CONTINUOUS
 62
     7
100
AcDbLine
 10
530.499999999996
 20
229.112698372195
 30
0.0
 11
534.9999999999969
 21
233.6126983721958
 31
0.0
  0
LINE
  5
F2
330
1F
100
AcDbEntity
  8
LAY-10
  6
CONTINUOUS
 62
     7
100
AcDbLine
 10
530.5000000000013
 20
226.284271247454
 30
0.0
 11
534.9999999999981
 21
230.7842712474509
 31
0.0
  0
LINE
  5
F3
330
1F
100
AcDbEntity
  8
LAY-10
  6
CONTINUOUS
 62
     7
100
AcDbLine
 10
530.5000000000025
 20
223.4558441227091
 30
0.0
 11
534.9999999999994
 21
227.9558441227059
 31
0.0
  0
LINE
  5
F4
330
1F
100
AcDbEntity
  8
LAY-10
  6
CONTINUOUS
 62
     7
100
AcDbLine
 10
530.5
 20
220.6274169979603
 30
0.0
 11
535.0000000000008
 21
225.1274169979611
 31
0.0
  0
LINE
  5
F5
330
1F
100
AcDbEntity
  8
LAY-10
  6
CONTINUOUS
 62
     7
100
AcDbLine
 10
530.5000000000014
 20
217.7989898732153
 30
0.0
 11
534.9999999999982
 21
222.2989898732123
 31
0.0
  0
LINE
  5
F6
330
1F
100
AcDbEntity
  8
LAY-10
  6
CONTINUOUS
 62
     7
100
AcDbLine
 10
530.5000000000025
 20
214.9705627484705
 30
0.0
 11
535.0000000000034
 21
219.4705627484712
 31
0.0
  0
LINE
  5
F7
330
1F
100
AcDbEntity
  8
LAY-10
  6
CONTINUOUS
 62
     7
100
AcDbLine
 10
530.5
 20
212.1421356237217
 30
0.0
 11
535.0000000000008
 21
216.6421356237224
 31
0.0
  0
LINE
  5
F8
330
1F
100
AcDbEntity
  8
LAY-10
  6
CONTINUOUS
 62
     7
100
AcDbLine
 10
530.5000000000014
 20
209.3137084989768
 30
0.0
 11
534.9999999999983
 21
213.8137084989736
 31
0.0
  0
LINE
  5
F9
330
1F
100
AcDbEntity
  8
LAY-10
  6
CONTINUOUS
 62
     7
100
AcDbLine
 10
530.5000000000025
 20
206.4852813742319
 30
0.0
 11
535.0000000000034
 21
210.9852813742326
 31
0.0
  0
LINE
  5
FA
330
1F
100
AcDbEntity
  8
LAY-10
  6
CONTINUOUS
 62
     7
100
AcDbLine
 10
530.5
 20
203.6568542494831
 30
0.0
 11
535.0000000000008
 21
208.1568542494839
 31
0.0
  0
LINE
  5
FB
330
1F
100
AcDbEntity
  8
LAY-10
  6
CONTINUOUS
 62
     7
100
AcDbLine
 10
530.5000000000014
 20
200.8284271247382
 30
0.0
 11
534.9999999999982
 21
205.3284271247351
 31
0.0
  0
LINE
  5
FC
330
1F
100
AcDbEntity
  8
LAY-10
  6
CONTINUOUS
 62
     7
100
AcDbLine
 10
530.4999999999949
 20
197.9999999999856
 30
0.0
 11
534.9999999999994
 21
202.4999999999902
 31
0.0
  0
LINE
  5
FD
330
1F
100
AcDbEntity
  8
LAY-10
  6
CONTINUOUS
 62
     7
100
AcDbLine
 10
533.3284271247397
 20
197.9999999999843
 30
0.0
 11
535.0000000000008
 21
199.6715728752453
 31
0.0
  0
CIRCLE
  5
FE
330
1F
100
AcDbEntity
  8
LAY-10
  6
CONTINUOUS
 62
     7
100
AcDbCircle
 10
464.9999999999988
 20
569.999999999995
 30
0.0
 40
104.9999999999999
  0
ARC
  5
FF
330
1F
100
AcDbEntity
  8
LAY-10
  6
CONTINUOUS
 62
     7
100
AcDbCircle
 10
464.9999999999988
 20
569.9999999999953
 30
0.0
 40
83.58073776571632
100
AcDbArc
 50
175.8833741047737
 51
184.1166258952267
  0
LINE
  5
100
330
1F
100
AcDbEntity
  8
LAY-10
  6
CONTINUOUS
 62
     7
100
AcDbLine
 10
381.634901034896
 20
575.9999999999953
 30
0.0
 11
382.223170793963
 21
576.6077535752908
 31
0.0
  0
LINE
  5
101
330
1F
100
AcDbEntity
  8
LAY-10
  6
CONTINUOUS
 62
     7
100
AcDbLine
 10
381.634901034896
 20
563.9999999999953
 30
0.0
 11
382.2231707939625
 21
563.3922464247064
 31
0.0
  0
ARC
  5
102
330
1F
100
AcDbEntity
  8
LAY-10
  6
CONTINUOUS
 62
     7
100
AcDbCircle
 10
464.9999999999988
 20
569.9999999999953
 30
0.0
 40
88.99999999995343
100
AcDbArc
 50
169.0696530385379
 51
190.9303469614621
  0
LINE
  5
103
330
1F
100
AcDbEntity
  8
LAY-10
  6
CONTINUOUS
 62
     7
100
AcDbLine
 10
378.4144283122849
 20
585.7142857142833
 30
0.0
 11
377.6146006438711
 21
586.8757808519066
 31
0.0
  0
LINE
  5
104
330
1F
100
AcDbEntity
  8
LAY-10
  6
CONTINUOUS
 62
     7
100
AcDbLine
 10
378.4144283122849
 20
554.2857142857073
 30
0.0
 11
377.6146006438711
 21
553.1242191480841
 31
0.0
  0
ARC
  5
105
330
1F
100
AcDbEntity
  8
LAY-10
  6
CONTINUOUS
 62
     7
100
AcDbCircle
 10
464.9999999999988
 20
569.9999999999953
 30
0.0
 40
87.99999999999181
100
AcDbArc
 50
170.3720260692195
 51
189.6279739307806
  0
ARC
  5
106
330
1F
100
AcDbEntity
  8
LAY-10
  6
CONTINUOUS
 62
     7
100
AcDbCircle
 10
464.9999999999988
 20
569.9999999999953
 30
0.0
 40
83.99999999998056
100
AcDbArc
 50
170.3875229331977
 51
189.6124770668026
  0
LINE
  5
107
330
1F
100
AcDbEntity
  8
LAY-10
  6
CONTINUOUS
 62
     7
100
AcDbLine
 10
381.3719971711644
 20
554.8224790279411
 30
0.0
 11
379.4040102026592
 21
554.4653120207563
 31
0.0
  0
LINE
  5
108
330
1F
100
AcDbEntity
  8
LAY-10
  6
CONTINUOUS
 62
     7
100
AcDbLine
 10
381.3719971711644
 20
585.1775209720495
 30
0.0
 11
379.4040102026592
 21
585.5346879792343
 31
0.0
  0
LINE
  5
109
330
1F
100
AcDbEntity
  8
LAY-10
  6
CONTINUOUS
 62
     7
100
AcDbLine
 10
382.3501361162834
 20
584.9999999999951
 30
0.0
 11
382.7447849483948
 21
585.9447113866729
 31
0.0
  0
LINE
  5
10A
330
1F
100
AcDbEntity
  8
LAY-10
  6
CONTINUOUS
 62
     7
100
AcDbLine
 10
382.7447849483946
 20
585.9447113866729
 30
0.0
 11
377.6146006438711
 21
586.8757808519066
 31
0.0
  0
LINE
  5
10B
330
1F
100
AcDbEntity
  8
LAY-10
  6
CONTINUOUS
 62
     7
100
AcDbLine
 10
382.7447849483948
 20
554.0552886133177
 30
0.0
 11
382.3501361162834
 21
554.9999999999952
 31
0.0
  0
LINE
  5
10C
330
1F
100
AcDbEntity
  8
LAY-10
  6
CONTINUOUS
 62
     7
100
AcDbLine
 10
377.6146006438711
 20
553.124219148084
 30
0.0
 11
382.7447849483946
 21
554.0552886133177
 31
0.0
  0
ARC
  5
10D
330
1F
100
AcDbEntity
  8
LAY-10
  6
CONTINUOUS
 62
     7
100
AcDbCircle
 10
464.9999999999988
 20
569.9999999999953
 30
0.0
 40
83.0401460783702
100
AcDbArc
 50
75.00000000000074
 51
86.81912292313315
  0
ARC
  5
10E
330
1F
100
AcDbEntity
  8
LAY-10
  6
CONTINUOUS
 62
     7
100
AcDbCircle
 10
464.9999999999988
 20
569.999999999995
 30
0.0
 40
88.99999999995343
100
AcDbArc
 50
139.0696530385378
 51
160.9303469614622
  0
LINE
  5
10F
330
1F
100
AcDbEntity
  8
LAY-10
  6
CONTINUOUS
 62
     7
100
AcDbLine
 10
397.8718381743839
 20
626.9017564747523
 30
0.0
 11
397.7599146636995
 21
628.3075546045134
 31
0.0
  0
LINE
  5
110
330
1F
100
AcDbEntity
  8
LAY-10
  6
CONTINUOUS
 62
     7
100
AcDbLine
 10
382.1575524600959
 20
599.6838152129518
 30
0.0
 11
380.8841338117884
 21
599.077844751605
 31
0.0
  0
ARC
  5
111
330
1F
100
AcDbEntity
  8
LAY-10
  6
CONTINUOUS
 62
     7
100
AcDbCircle
 10
464.9999999999988
 20
569.999999999995
 30
0.0
 40
87.99999999999181
100
AcDbArc
 50
140.3720260692196
 51
159.6279739307805
  0
ARC
  5
112
330
1F
100
AcDbEntity
  8
LAY-10
  6
CONTINUOUS
 62
     7
100
AcDbCircle
 10
464.9999999999988
 20
569.999999999995
 30
0.0
 40
83.99999999998056
100
AcDbArc
 50
140.3875229331974
 51
159.6124770668025
  0
LINE
  5
113
330
1F
100
AcDbEntity
  8
LAY-10
  6
CONTINUOUS
 62
     7
100
AcDbLine
 10
384.9872645964441
 20
598.6698826861424
 30
0.0
 11
383.1043543838098
 21
599.3445604687793
 31
0.0
  0
LINE
  5
114
330
1F
100
AcDbEntity
  8
LAY-10
  6
CONTINUOUS
 62
     7
100
AcDbLine
 10
400.1647855684984
 20
624.9581201426826
 30
0.0
 11
398.6390423630487
 21
626.2514293285507
 31
0.0
  0
LINE
  5
115
330
1F
100
AcDbEntity
  8
LAY-10
  6
CONTINUOUS
 62
     7
100
AcDbLine
 10
400.9231182573751
 20
624.3153129986194
 30
0.0
 11
401.7372498648963
 21
624.936132642671
 31
0.0
  0
LINE
  5
116
330
1F
100
AcDbEntity
  8
LAY-10
  6
CONTINUOUS
 62
     7
100
AcDbLine
 10
401.7372498648963
 20
624.936132642671
 30
0.0
 11
397.7599146636995
 21
628.3075546045134
 31
0.0
  0
LINE
  5
117
330
1F
100
AcDbEntity
  8
LAY-10
  6
CONTINUOUS
 62
     7
100
AcDbLine
 10
385.7925384782188
 20
597.3190824089235
 30
0.0
 11
385.9231182573754
 21
598.3345508850863
 31
0.0
  0
LINE
  5
118
330
1F
100
AcDbEntity
  8
LAY-10
  6
CONTINUOUS
 62
     7
100
AcDbLine
 10
380.8841338117882
 20
599.0778447516049
 30
0.0
 11
385.7925384782188
 21
597.3190824089235
 31
0.0
  0
ARC
  5
119
330
1F
100
AcDbEntity
  8
LAY-10
  6
CONTINUOUS
 62
     7
100
AcDbCircle
 10
464.9999999999988
 20
569.9999999999953
 30
0.0
 40
83.78636061072308
100
AcDbArc
 50
160.9704086680271
 51
169.0295913319731
  0
ARC
  5
11A
330
1F
100
AcDbEntity
  8
LAY-10
  6
CONTINUOUS
 62
     7
100
AcDbCircle
 10
464.9999999999988
 20
569.9999999999948
 30
0.0
 40
88.99999999995343
100
AcDbArc
 50
109.0696530385377
 51
130.930346961462
  0
LINE
  5
11B
330
1F
100
AcDbEntity
  8
LAY-10
  6
CONTINUOUS
 62
     7
100
AcDbLine
 10
435.3161847870422
 20
652.8424475398979
 30
0.0
 11
435.9221552483891
 21
654.1158661882056
 31
0.0
  0
LINE
  5
11C
330
1F
100
AcDbEntity
  8
LAY-10
  6
CONTINUOUS
 62
     7
100
AcDbLine
 10
408.0982435252416
 20
637.1281618256099
 30
0.0
 11
406.6924453954808
 21
637.2400853362943
 31
0.0
  0
ARC
  5
11D
330
1F
100
AcDbEntity
  8
LAY-10
  6
CONTINUOUS
 62
     7
100
AcDbCircle
 10
464.9999999999988
 20
569.9999999999948
 30
0.0
 40
87.99999999999181
100
AcDbArc
 50
110.3720260692194
 51
129.6279739307804
  0
ARC
  5
11E
330
1F
100
AcDbEntity
  8
LAY-10
  6
CONTINUOUS
 62
     7
100
AcDbCircle
 10
464.9999999999988
 20
569.9999999999948
 30
0.0
 40
83.99999999998056
100
AcDbArc
 50
110.3875229331974
 51
129.6124770668024
  0
LINE
  5
11F
330
1F
100
AcDbEntity
  8
LAY-10
  6
CONTINUOUS
 62
     7
100
AcDbLine
 10
410.0418798573118
 20
634.8352144314954
 30
0.0
 11
408.7485706714435
 21
636.3609576369453
 31
0.0
  0
LINE
  5
120
330
1F
100
AcDbEntity
  8
LAY-10
  6
CONTINUOUS
 62
     7
100
AcDbLine
 10
436.3301173138517
 20
650.0127354035495
 30
0.0
 11
435.6554395312147
 21
651.8956456161841
 31
0.0
  0
LINE
  5
121
330
1F
100
AcDbEntity
  8
LAY-10
  6
CONTINUOUS
 62
     7
100
AcDbLine
 10
436.6654491149075
 20
649.0768817426185
 30
0.0
 11
437.6809175910705
 21
649.2074615217751
 31
0.0
  0
LINE
  5
122
330
1F
100
AcDbEntity
  8
LAY-10
  6
CONTINUOUS
 62
     7
100
AcDbLine
 10
437.6809175910705
 20
649.2074615217751
 30
0.0
 11
435.9221552483891
 21
654.1158661882056
 31
0.0
  0
LINE
  5
123
330
1F
100
AcDbEntity
  8
LAY-10
  6
CONTINUOUS
 62
     7
100
AcDbLine
 10
410.0638673573231
 20
633.2627501350976
 30
0.0
 11
410.6846870013747
 21
634.0768817426185
 31
0.0
  0
LINE
  5
124
330
1F
100
AcDbEntity
  8
LAY-10
  6
CONTINUOUS
 62
     7
100
AcDbLine
 10
406.6924453954808
 20
637.2400853362943
 30
0.0
 11
410.0638673573231
 21
633.2627501350976
 31
0.0
  0
ARC
  5
125
330
1F
100
AcDbEntity
  8
LAY-10
  6
CONTINUOUS
 62
     7
100
AcDbCircle
 10
464.9999999999988
 20
569.9999999999951
 30
0.0
 40
88.99999999995343
100
AcDbArc
 50
79.06965303853761
 51
100.9303469614622
  0
LINE
  5
126
330
1F
100
AcDbEntity
  8
LAY-10
  6
CONTINUOUS
 62
     7
100
AcDbLine
 10
480.7142857142869
 20
656.5855716877093
 30
0.0
 11
481.8757808519102
 21
657.3853993561231
 31
0.0
  0
LINE
  5
127
330
1F
100
AcDbEntity
  8
LAY-10
  6
CONTINUOUS
 62
     7
100
AcDbLine
 10
449.2857142857106
 20
656.5855716877093
 30
0.0
 11
448.1242191480877
 21
657.3853993561231
 31
0.0
  0
ARC
  5
128
330
1F
100
AcDbEntity
  8
LAY-10
  6
CONTINUOUS
 62
     7
100
AcDbCircle
 10
464.9999999999988
 20
569.9999999999951
 30
0.0
 40
87.99999999999181
100
AcDbArc
 50
80.37202606921933
 51
99.62797393078058
  0
ARC
  5
129
330
1F
100
AcDbEntity
  8
LAY-10
  6
CONTINUOUS
 62
     7
100
AcDbCircle
 10
464.9999999999988
 20
569.9999999999951
 30
0.0
 40
83.99999999998056
100
AcDbArc
 50
80.38752293319767
 51
99.61247706680257
  0
LINE
  5
12A
330
1F
100
AcDbEntity
  8
LAY-10
  6
CONTINUOUS
 62
     7
100
AcDbLine
 10
449.8224790279445
 20
653.6280028288296
 30
0.0
 11
449.4653120207597
 21
655.5959897973348
 31
0.0
  0
LINE
  5
12B
330
1F
100
AcDbEntity
  8
LAY-10
  6
CONTINUOUS
 62
     7
100
AcDbLine
 10
480.1775209720531
 20
653.6280028288296
 30
0.0
 11
480.5346879792379
 21
655.5959897973346
 31
0.0
  0
LINE
  5
12C
330
1F
100
AcDbEntity
  8
LAY-10
  6
CONTINUOUS
 62
     7
100
AcDbLine
 10
479.9999999999988
 20
652.6498638837109
 30
0.0
 11
480.9447113866765
 21
652.2552150515995
 31
0.0
  0
LINE
  5
12D
330
1F
100
AcDbEntity
  8
LAY-10
  6
CONTINUOUS
 62
     7
100
AcDbLine
 10
480.9447113866765
 20
652.2552150515995
 30
0.0
 11
481.8757808519102
 21
657.3853993561231
 31
0.0
  0
LINE
  5
12E
330
1F
100
AcDbEntity
  8
LAY-10
  6
CONTINUOUS
 62
     7
100
AcDbLine
 10
449.055288613321
 20
652.2552150515994
 30
0.0
 11
449.9999999999986
 21
652.6498638837109
 31
0.0
  0
LINE
  5
12F
330
1F
100
AcDbEntity
  8
LAY-10
  6
CONTINUOUS
 62
     7
100
AcDbLine
 10
448.1242191480874
 20
657.3853993561231
 30
0.0
 11
449.055288613321
 21
652.2552150515994
 31
0.0
  0
ARC
  5
130
330
1F
100
AcDbEntity
  8
LAY-10
  6
CONTINUOUS
 62
     7
100
AcDbCircle
 10
464.9999999999993
 20
569.9999999999951
 30
0.0
 40
88.99999999995343
100
AcDbArc
 50
199.0696530385374
 51
220.9303469614618
  0
LINE
  5
131
330
1F
100
AcDbEntity
  8
LAY-10
  6
CONTINUOUS
 62
     7
100
AcDbLine
 10
382.1575524600961
 20
540.3161847870385
 30
0.0
 11
380.8841338117884
 21
540.9221552483855
 31
0.0
  0
LINE
  5
132
330
1F
100
AcDbEntity
  8
LAY-10
  6
CONTINUOUS
 62
     7
100
AcDbLine
 10
397.8718381743839
 20
513.0982435252379
 30
0.0
 11
397.7599146636995
 21
511.6924453954772
 31
0.0
  0
ARC
  5
133
330
1F
100
AcDbEntity
  8
LAY-10
  6
CONTINUOUS
 62
     7
100
AcDbCircle
 10
464.9999999999993
 20
569.9999999999951
 30
0.0
 40
87.99999999999181
100
AcDbArc
 50
200.3720260692196
 51
219.6279739307803
  0
ARC
  5
134
330
1F
100
AcDbEntity
  8
LAY-10
  6
CONTINUOUS
 62
     7
100
AcDbCircle
 10
464.9999999999993
 20
569.9999999999951
 30
0.0
 40
83.99999999998056
100
AcDbArc
 50
200.3875229331975
 51
219.6124770668023
  0
LINE
  5
135
330
1F
100
AcDbEntity
  8
LAY-10
  6
CONTINUOUS
 62
     7
100
AcDbLine
 10
400.1647855684986
 20
515.041879857308
 30
0.0
 11
398.6390423630489
 21
513.7485706714398
 31
0.0
  0
LINE
  5
136
330
1F
100
AcDbEntity
  8
LAY-10
  6
CONTINUOUS
 62
     7
100
AcDbLine
 10
384.9872645964444
 20
541.330117313848
 30
0.0
 11
383.1043543838099
 21
540.6554395312111
 31
0.0
  0
LINE
  5
137
330
1F
100
AcDbEntity
  8
LAY-10
  6
CONTINUOUS
 62
     7
100
AcDbLine
 10
385.9231182573754
 20
541.6654491149038
 30
0.0
 11
385.7925384782188
 21
542.6809175910669
 31
0.0
  0
LINE
  5
138
330
1F
100
AcDbEntity
  8
LAY-10
  6
CONTINUOUS
 62
     7
100
AcDbLine
 10
385.7925384782188
 20
542.6809175910669
 30
0.0
 11
380.8841338117884
 21
540.9221552483855
 31
0.0
  0
LINE
  5
139
330
1F
100
AcDbEntity
  8
LAY-10
  6
CONTINUOUS
 62
     7
100
AcDbLine
 10
401.7372498648966
 20
515.0638673573193
 30
0.0
 11
400.9231182573754
 21
515.6846870013708
 31
0.0
  0
LINE
  5
13A
330
1F
100
AcDbEntity
  8
LAY-10
  6
CONTINUOUS
 62
     7
100
AcDbLine
 10
397.7599146636995
 20
511.692445395477
 30
0.0
 11
401.7372498648966
 21
515.0638673573193
 31
0.0
  0
ARC
  5
13B
330
1F
100
AcDbEntity
  8
LAY-10
  6
CONTINUOUS
 62
     7
100
AcDbCircle
 10
464.9999999999993
 20
569.9999999999953
 30
0.0
 40
88.99999999995343
100
AcDbArc
 50
229.0696530385378
 51
250.9303469614621
  0
LINE
  5
13C
330
1F
100
AcDbEntity
  8
LAY-10
  6
CONTINUOUS
 62
     7
100
AcDbLine
 10
408.0982435252418
 20
502.8718381743803
 30
0.0
 11
406.6924453954808
 21
502.7599146636959
 31
0.0
  0
LINE
  5
13D
330
1F
100
AcDbEntity
  8
LAY-10
  6
CONTINUOUS
 62
     7
100
AcDbLine
 10
435.3161847870425
 20
487.1575524600922
 30
0.0
 11
435.9221552483891
 21
485.8841338117846
 31
0.0
  0
ARC
  5
13E
330
1F
100
AcDbEntity
  8
LAY-10
  6
CONTINUOUS
 62
     7
100
AcDbCircle
 10
464.9999999999993
 20
569.9999999999953
 30
0.0
 40
87.99999999999181
100
AcDbArc
 50
230.3720260692196
 51
249.6279739307807
  0
ARC
  5
13F
330
1F
100
AcDbEntity
  8
LAY-10
  6
CONTINUOUS
 62
     7
100
AcDbCircle
 10
464.9999999999993
 20
569.9999999999953
 30
0.0
 40
83.99999999998056
100
AcDbArc
 50
230.3875229331974
 51
249.6124770668024
  0
LINE
  5
140
330
1F
100
AcDbEntity
  8
LAY-10
  6
CONTINUOUS
 62
     7
100
AcDbLine
 10
436.3301173138519
 20
489.9872645964405
 30
0.0
 11
435.655439531215
 21
488.104354383806
 31
0.0
  0
LINE
  5
141
330
1F
100
AcDbEntity
  8
LAY-10
  6
CONTINUOUS
 62
     7
100
AcDbLine
 10
410.0418798573119
 20
505.1647855684948
 30
0.0
 11
408.7485706714436
 21
503.6390423630451
 31
0.0
  0
LINE
  5
142
330
1F
100
AcDbEntity
  8
LAY-10
  6
CONTINUOUS
 62
     7
100
AcDbLine
 10
410.6846870013747
 20
505.9231182573715
 30
0.0
 11
410.0638673573231
 21
506.7372498648926
 31
0.0
  0
LINE
  5
143
330
1F
100
AcDbEntity
  8
LAY-10
  6
CONTINUOUS
 62
     7
100
AcDbLine
 10
410.0638673573231
 20
506.7372498648926
 30
0.0
 11
406.6924453954808
 21
502.7599146636959
 31
0.0
  0
LINE
  5
144
330
1F
100
AcDbEntity
  8
LAY-10
  6
CONTINUOUS
 62
     7
100
AcDbLine
 10
437.6809175910708
 20
490.7925384782151
 30
0.0
 11
436.665449114908
 21
490.9231182573715
 31
0.0
  0
LINE
  5
145
330
1F
100
AcDbEntity
  8
LAY-10
  6
CONTINUOUS
 62
     7
100
AcDbLine
 10
435.9221552483891
 20
485.8841338117845
 30
0.0
 11
437.6809175910708
 21
490.7925384782151
 31
0.0
  0
ARC
  5
146
330
1F
100
AcDbEntity
  8
LAY-10
  6
CONTINUOUS
 62
     7
100
AcDbCircle
 10
464.9999999999988
 20
569.9999999999953
 30
0.0
 40
83.78636061072308
100
AcDbArc
 50
100.970408668027
 51
109.0295913319738
  0
ARC
  5
147
330
1F
100
AcDbEntity
  8
LAY-10
  6
CONTINUOUS
 62
     7
100
AcDbCircle
 10
464.9999999999988
 20
569.9999999999953
 30
0.0
 40
83.78636061072308
100
AcDbArc
 50
130.9704086680266
 51
139.0295913319734
  0
ARC
  5
148
330
1F
100
AcDbEntity
  8
LAY-10
  6
CONTINUOUS
 62
     7
100
AcDbCircle
 10
464.9999999999988
 20
569.9999999999953
 30
0.0
 40
83.78636061072308
100
AcDbArc
 50
190.9704086680277
 51
199.0295913319729
  0
ARC
  5
149
330
1F
100
AcDbEntity
  8
LAY-10
  6
CONTINUOUS
 62
     7
100
AcDbCircle
 10
464.9999999999988
 20
569.9999999999953
 30
0.0
 40
83.78636061072308
100
AcDbArc
 50
220.9704086680273
 51
229.0295913319734
  0
LINE
  5
14A
330
1F
100
AcDbEntity
  8
LAY-10
  6
CONTINUOUS
 62
     7
100
AcDbLine
 10
469.6077535752945
 20
652.9122094007007
 30
0.0
 11
468.9999999999993
 21
653.4849670627029
 31
0.0
  0
LINE
  5
14B
330
1F
100
AcDbEntity
  8
LAY-10
  6
CONTINUOUS
 62
     7
100
AcDbLine
 10
460.3922464247036
 20
652.9122094007007
 30
0.0
 11
460.9999999999992
 21
653.4849670627032
 31
0.0
  0
ARC
  5
14C
330
1F
100
AcDbEntity
  8
LAY-10
  6
CONTINUOUS
 62
     7
100
AcDbCircle
 10
464.9999999999988
 20
569.999999999995
 30
0.0
 40
83.58073776571632
100
AcDbArc
 50
87.25689554132575
 51
92.74310445867367
  0
ARC
  5
14D
330
1F
100
AcDbEntity
  8
LAY-10
  6
CONTINUOUS
 62
     7
100
AcDbCircle
 10
464.9999999999988
 20
569.9999999999953
 30
0.0
 40
83.0401460783702
100
AcDbArc
 50
93.18087707686658
 51
175.4359777859409
  0
ARC
  5
14E
330
1F
100
AcDbEntity
  8
LAY-10
  6
CONTINUOUS
 62
     7
100
AcDbCircle
 10
409.5113906921894
 20
502.9924314940136
 30
0.0
 40
1.0
100
AcDbArc
 50
139.7134393885255
 51
230.3720260692157
  0
ARC
  5
14F
330
1F
100
AcDbEntity
  8
LAY-10
  6
CONTINUOUS
 62
     7
100
AcDbCircle
 10
410.8046998780576
 20
504.5181746994634
 30
0.0
 40
1.0
100
AcDbArc
 50
50.38752293319824
 51
139.713439388523
  0
ARC
  5
150
330
1F
100
AcDbEntity
  8
LAY-10
  6
CONTINUOUS
 62
     7
100
AcDbCircle
 10
435.3887258645348
 20
490.3245806784061
 30
0.0
 40
1.0
100
AcDbArc
 50
340.2865606114734
 51
69.61247706679876
  0
ARC
  5
151
330
1F
100
AcDbEntity
  8
LAY-10
  6
CONTINUOUS
 62
     7
100
AcDbCircle
 10
434.7140480818978
 20
488.4416704657716
 30
0.0
 40
1.0
100
AcDbArc
 50
249.6279739307839
 51
340.2865606114722
  0
ARC
  5
152
330
1F
100
AcDbEntity
  8
LAY-10
  6
CONTINUOUS
 62
     7
100
AcDbCircle
 10
397.9924314940175
 20
514.5113906921855
 30
0.0
 40
1.0
100
AcDbArc
 50
219.6279739307731
 51
310.2865606114746
  0
ARC
  5
153
330
1F
100
AcDbEntity
  8
LAY-10
  6
CONTINUOUS
 62
     7
100
AcDbCircle
 10
399.5181746994672
 20
515.8046998780537
 30
0.0
 40
1.0
100
AcDbArc
 50
310.2865606114746
 51
39.61247706680179
  0
ARC
  5
154
330
1F
100
AcDbEntity
  8
LAY-10
  6
CONTINUOUS
 62
     7
100
AcDbCircle
 10
383.4416704657755
 20
539.7140480818939
 30
0.0
 40
1.0
100
AcDbArc
 50
109.7134393885289
 51
200.3720260692138
  0
ARC
  5
155
330
1F
100
AcDbEntity
  8
LAY-10
  6
CONTINUOUS
 62
     7
100
AcDbCircle
 10
385.32458067841
 20
540.3887258645308
 30
0.0
 40
1.0
100
AcDbArc
 50
20.38752293319703
 51
109.7134393885289
  0
ARC
  5
156
330
1F
100
AcDbEntity
  8
LAY-10
  6
CONTINUOUS
 62
     7
100
AcDbCircle
 10
379.2254387740878
 20
555.4492389717531
 30
0.0
 40
1.0
100
AcDbArc
 50
189.6279739307835
 51
280.2865606114725
  0
ARC
  5
157
330
1F
100
AcDbEntity
  8
LAY-10
  6
CONTINUOUS
 62
     7
100
AcDbCircle
 10
381.1934257425928
 20
555.8064059789378
 30
0.0
 40
1.0
100
AcDbArc
 50
280.2865606114821
 51
9.61247706680075
  0
ARC
  5
158
330
1F
100
AcDbEntity
  8
LAY-10
  6
CONTINUOUS
 62
     7
100
AcDbCircle
 10
379.2254387740878
 20
584.5507610282374
 30
0.0
 40
1.0
100
AcDbArc
 50
79.7134393885276
 51
170.3720260692166
  0
ARC
  5
159
330
1F
100
AcDbEntity
  8
LAY-10
  6
CONTINUOUS
 62
     7
100
AcDbCircle
 10
381.1934257425928
 20
584.1935940210526
 30
0.0
 40
1.0
100
AcDbArc
 50
350.3875229332058
 51
79.71343938851798
  0
ARC
  5
15A
330
1F
100
AcDbEntity
  8
LAY-10
  6
CONTINUOUS
 62
     7
100
AcDbCircle
 10
383.4416704657751
 20
600.2859519180964
 30
0.0
 40
1.0
100
AcDbArc
 50
159.6279739307768
 51
250.2865606114825
  0
ARC
  5
15B
330
1F
100
AcDbEntity
  8
LAY-10
  6
CONTINUOUS
 62
     7
100
AcDbCircle
 10
385.3245806784096
 20
599.6112741354597
 30
0.0
 40
1.0
100
AcDbArc
 50
250.2865606114734
 51
339.612477066803
  0
ARC
  5
15C
330
1F
100
AcDbEntity
  8
LAY-10
  6
CONTINUOUS
 62
     7
100
AcDbCircle
 10
397.9924314940173
 20
625.488609307805
 30
0.0
 40
1.0
100
AcDbArc
 50
49.71343938852296
 51
140.3720260692157
  0
ARC
  5
15D
330
1F
100
AcDbEntity
  8
LAY-10
  6
CONTINUOUS
 62
     7
100
AcDbCircle
 10
399.5181746994671
 20
624.1953001219368
 30
0.0
 40
1.0
100
AcDbArc
 50
320.3875229331983
 51
49.71343938852542
  0
ARC
  5
15E
330
1F
100
AcDbEntity
  8
LAY-10
  6
CONTINUOUS
 62
     7
100
AcDbCircle
 10
409.5113906921892
 20
637.0075685059767
 30
0.0
 40
1.0
100
AcDbArc
 50
129.6279739307844
 51
220.2865606114771
  0
ARC
  5
15F
330
1F
100
AcDbEntity
  8
LAY-10
  6
CONTINUOUS
 62
     7
100
AcDbCircle
 10
410.8046998780575
 20
635.4818253005269
 30
0.0
 40
1.0
100
AcDbArc
 50
220.2865606114771
 51
309.6124770668017
  0
ARC
  5
160
330
1F
100
AcDbEntity
  8
LAY-10
  6
CONTINUOUS
 62
     7
100
AcDbCircle
 10
434.7140480818976
 20
651.5583295342187
 30
0.0
 40
1.0
100
AcDbArc
 50
19.71343938851647
 51
110.3720260692191
  0
ARC
  5
161
330
1F
100
AcDbEntity
  8
LAY-10
  6
CONTINUOUS
 62
     7
100
AcDbCircle
 10
435.3887258645345
 20
649.6754193215842
 30
0.0
 40
1.0
100
AcDbArc
 50
290.3875229331982
 51
19.71343938851647
  0
ARC
  5
162
330
1F
100
AcDbEntity
  8
LAY-10
  6
CONTINUOUS
 62
     7
100
AcDbCircle
 10
450.4492389717566
 20
655.7745612259062
 30
0.0
 40
1.0
100
AcDbArc
 50
99.62797393078023
 51
190.2865606114692
  0
ARC
  5
163
330
1F
100
AcDbEntity
  8
LAY-10
  6
CONTINUOUS
 62
     7
100
AcDbCircle
 10
450.8064059789413
 20
653.8065742574012
 30
0.0
 40
1.0
100
AcDbArc
 50
190.2865606114826
 51
279.6124770667976
  0
ARC
  5
164
330
1F
100
AcDbEntity
  8
LAY-10
  6
CONTINUOUS
 62
     7
100
AcDbCircle
 10
479.550761028241
 20
655.7745612259062
 30
0.0
 40
1.0
100
AcDbArc
 50
349.7134393885174
 51
80.37202606921342
  0
ARC
  5
165
330
1F
100
AcDbEntity
  8
LAY-10
  6
CONTINUOUS
 62
     7
100
AcDbCircle
 10
479.1935940210562
 20
653.8065742574012
 30
0.0
 40
1.0
100
AcDbArc
 50
260.3875229331993
 51
349.7134393885169
  0
ARC
  5
166
330
1F
100
AcDbEntity
  8
LAY-10
  6
CONTINUOUS
 62
     7
100
AcDbCircle
 10
464.9999999999988
 20
569.9999999999851
 30
0.0
 40
88.99999999995343
100
AcDbArc
 50
259.0696530385381
 51
280.9303469614625
  0
LINE
  5
167
330
1F
100
AcDbEntity
  8
LAY-10
  6
CONTINUOUS
 62
     7
100
AcDbLine
 10
480.7142857142869
 20
483.414428312271
 30
0.0
 11
481.8757808519102
 21
482.6146006438571
 31
0.0
  0
LINE
  5
168
330
1F
100
AcDbEntity
  8
LAY-10
  6
CONTINUOUS
 62
     7
100
AcDbLine
 10
449.2857142857106
 20
483.414428312271
 30
0.0
 11
448.1242191480877
 21
482.6146006438571
 31
0.0
  0
ARC
  5
169
330
1F
100
AcDbEntity
  8
LAY-10
  6
CONTINUOUS
 62
     7
100
AcDbCircle
 10
464.9999999999988
 20
569.9999999999851
 30
0.0
 40
87.99999999999181
100
AcDbArc
 50
260.3720260692196
 51
279.6279739307806
  0
ARC
  5
16A
330
1F
100
AcDbEntity
  8
LAY-10
  6
CONTINUOUS
 62
     7
100
AcDbCircle
 10
464.9999999999988
 20
569.9999999999851
 30
0.0
 40
83.99999999998056
100
AcDbArc
 50
260.3875229331974
 51
279.6124770668025
  0
LINE
  5
16B
330
1F
100
AcDbEntity
  8
LAY-10
  6
CONTINUOUS
 62
     7
100
AcDbLine
 10
449.8224790279445
 20
486.3719971711505
 30
0.0
 11
449.4653120207597
 21
484.4040102026454
 31
0.0
  0
LINE
  5
16C
330
1F
100
AcDbEntity
  8
LAY-10
  6
CONTINUOUS
 62
     7
100
AcDbLine
 10
480.1775209720531
 20
486.3719971711506
 30
0.0
 11
480.5346879792379
 21
484.4040102026455
 31
0.0
  0
LINE
  5
16D
330
1F
100
AcDbEntity
  8
LAY-10
  6
CONTINUOUS
 62
     7
100
AcDbLine
 10
479.9999999999988
 20
487.3501361162694
 30
0.0
 11
480.9447113866765
 21
487.7447849483806
 31
0.0
  0
LINE
  5
16E
330
1F
100
AcDbEntity
  8
LAY-10
  6
CONTINUOUS
 62
     7
100
AcDbLine
 10
480.9447113866765
 20
487.7447849483806
 30
0.0
 11
481.8757808519102
 21
482.6146006438571
 31
0.0
  0
LINE
  5
16F
330
1F
100
AcDbEntity
  8
LAY-10
  6
CONTINUOUS
 62
     7
100
AcDbLine
 10
449.055288613321
 20
487.7447849483808
 30
0.0
 11
449.9999999999986
 21
487.3501361162694
 31
0.0
  0
LINE
  5
170
330
1F
100
AcDbEntity
  8
LAY-10
  6
CONTINUOUS
 62
     7
100
AcDbLine
 10
448.1242191480874
 20
482.6146006438571
 30
0.0
 11
449.055288613321
 21
487.7447849483808
 31
0.0
  0
LINE
  5
171
330
1F
100
AcDbEntity
  8
LAY-10
  6
CONTINUOUS
 62
     7
100
AcDbLine
 10
469.6077535752945
 20
487.0877905992795
 30
0.0
 11
468.9999999999993
 21
486.5150329372772
 31
0.0
  0
LINE
  5
172
330
1F
100
AcDbEntity
  8
LAY-10
  6
CONTINUOUS
 62
     7
100
AcDbLine
 10
460.3922464247036
 20
487.0877905992795
 30
0.0
 11
460.9999999999992
 21
486.5150329372771
 31
0.0
  0
ARC
  5
173
330
1F
100
AcDbEntity
  8
LAY-10
  6
CONTINUOUS
 62
     7
100
AcDbCircle
 10
464.9999999999988
 20
569.9999999999851
 30
0.0
 40
83.58073776571632
100
AcDbArc
 50
267.2568955413264
 51
272.7431044586743
  0
ARC
  5
174
330
1F
100
AcDbEntity
  8
LAY-10
  6
CONTINUOUS
 62
     7
100
AcDbCircle
 10
450.4492389717566
 20
484.225438774074
 30
0.0
 40
1.0
100
AcDbArc
 50
169.7134393885244
 51
260.3720260692199
  0
ARC
  5
175
330
1F
100
AcDbEntity
  8
LAY-10
  6
CONTINUOUS
 62
     7
100
AcDbCircle
 10
450.8064059789413
 20
486.193425742579
 30
0.0
 40
1.0
100
AcDbArc
 50
80.38752293320249
 51
169.7134393885206
  0
ARC
  5
176
330
1F
100
AcDbEntity
  8
LAY-10
  6
CONTINUOUS
 62
     7
100
AcDbCircle
 10
479.550761028241
 20
484.225438774074
 30
0.0
 40
1.0
100
AcDbArc
 50
279.6279739307872
 51
10.28656061148262
  0
ARC
  5
177
330
1F
100
AcDbEntity
  8
LAY-10
  6
CONTINUOUS
 62
     7
100
AcDbCircle
 10
479.1935940210562
 20
486.193425742579
 30
0.0
 40
1.0
100
AcDbArc
 50
10.2865606114832
 51
99.61247706680072
  0
ARC
  5
178
330
1F
100
AcDbEntity
  8
LAY-10
  6
CONTINUOUS
 62
     7
100
AcDbCircle
 10
464.9999999999988
 20
569.9999999999953
 30
0.0
 40
83.0401460783702
100
AcDbArc
 50
184.5640222140548
 51
266.8191229231234
  0
ARC
  5
179
330
1F
100
AcDbEntity
  8
LAY-10
  6
CONTINUOUS
 62
     7
100
AcDbCircle
 10
464.9999999999988
 20
569.9999999999953
 30
0.0
 40
83.78636061072308
100
AcDbArc
 50
250.9704086680273
 51
259.0295913319725
  0
CIRCLE
  5
17A
330
1F
100
AcDbEntity
  8
LAY-10
  6
CONTINUOUS
 62
     7
100
AcDbCircle
 10
464.9999999999988
 20
569.9999999999953
 30
0.0
 40
99.00000000005078
  0
CIRCLE
  5
17B
330
1F
100
AcDbEntity
  8
LAY-10
  6
CONTINUOUS
 62
     7
100
AcDbCircle
 10
464.9999999999988
 20
569.9999999999953
 30
0.0
 40
103.9999999999999
  0
ARC
  5
17C
330
1F
100
AcDbEntity
  8
LAY-10
  6
CONTINUOUS
 62
     7
100
AcDbCircle
 10
464.9999999999993
 20
569.9999999999953
 30
0.0
 40
83.58073776571632
100
AcDbArc
 50
355.8833741047735
 51
4.116625895226354
  0
LINE
  5
17D
330
1F
100
AcDbEntity
  8
LAY-10
  6
CONTINUOUS
 62
     7
100
AcDbLine
 10
548.3650989651022
 20
575.9999999999953
 30
0.0
 11
547.7768292060349
 21
576.6077535752908
 31
0.0
  0
LINE
  5
17E
330
1F
100
AcDbEntity
  8
LAY-10
  6
CONTINUOUS
 62
     7
100
AcDbLine
 10
548.3650989651022
 20
563.9999999999953
 30
0.0
 11
547.7768292060356
 21
563.3922464247064
 31
0.0
  0
ARC
  5
17F
330
1F
100
AcDbEntity
  8
LAY-10
  6
CONTINUOUS
 62
     7
100
AcDbCircle
 10
464.9999999999993
 20
569.9999999999953
 30
0.0
 40
88.99999999995343
100
AcDbArc
 50
349.0696530385379
 51
10.93034696146213
  0
LINE
  5
180
330
1F
100
AcDbEntity
  8
LAY-10
  6
CONTINUOUS
 62
     7
100
AcDbLine
 10
551.5855716877132
 20
585.7142857142833
 30
0.0
 11
552.3853993561271
 21
586.8757808519066
 31
0.0
  0
LINE
  5
181
330
1F
100
AcDbEntity
  8
LAY-10
  6
CONTINUOUS
 62
     7
100
AcDbLine
 10
551.5855716877132
 20
554.2857142857073
 30
0.0
 11
552.3853993561271
 21
553.1242191480841
 31
0.0
  0
ARC
  5
182
330
1F
100
AcDbEntity
  8
LAY-10
  6
CONTINUOUS
 62
     7
100
AcDbCircle
 10
464.9999999999993
 20
569.9999999999953
 30
0.0
 40
87.99999999999181
100
AcDbArc
 50
350.3720260692195
 51
9.627973930780538
  0
ARC
  5
183
330
1F
100
AcDbEntity
  8
LAY-10
  6
CONTINUOUS
 62
     7
100
AcDbCircle
 10
464.9999999999993
 20
569.9999999999953
 30
0.0
 40
83.99999999998056
100
AcDbArc
 50
350.3875229331977
 51
9.612477066802297
  0
LINE
  5
184
330
1F
100
AcDbEntity
  8
LAY-10
  6
CONTINUOUS
 62
     7
100
AcDbLine
 10
548.6280028288338
 20
554.8224790279411
 30
0.0
 11
550.5959897973388
 21
554.4653120207563
 31
0.0
  0
LINE
  5
185
330
1F
100
AcDbEntity
  8
LAY-10
  6
CONTINUOUS
 62
     7
100
AcDbLine
 10
548.6280028288338
 20
585.1775209720495
 30
0.0
 11
550.5959897973388
 21
585.5346879792343
 31
0.0
  0
LINE
  5
186
330
1F
100
AcDbEntity
  8
LAY-10
  6
CONTINUOUS
 62
     7
100
AcDbLine
 10
547.6498638837148
 20
584.9999999999951
 30
0.0
 11
547.2552150516034
 21
585.9447113866729
 31
0.0
  0
LINE
  5
187
330
1F
100
AcDbEntity
  8
LAY-10
  6
CONTINUOUS
 62
     7
100
AcDbLine
 10
547.2552150516035
 20
585.9447113866729
 30
0.0
 11
552.3853993561271
 21
586.8757808519066
 31
0.0
  0
LINE
  5
188
330
1F
100
AcDbEntity
  8
LAY-10
  6
CONTINUOUS
 62
     7
100
AcDbLine
 10
547.2552150516034
 20
554.0552886133177
 30
0.0
 11
547.6498638837148
 21
554.9999999999952
 31
0.0
  0
LINE
  5
189
330
1F
100
AcDbEntity
  8
LAY-10
  6
CONTINUOUS
 62
     7
100
AcDbLine
 10
552.3853993561271
 20
553.124219148084
 30
0.0
 11
547.2552150516035
 21
554.0552886133177
 31
0.0
  0
ARC
  5
18A
330
1F
100
AcDbEntity
  8
LAY-10
  6
CONTINUOUS
 62
     7
100
AcDbCircle
 10
464.9999999999993
 20
569.999999999995
 30
0.0
 40
88.99999999995343
100
AcDbArc
 50
19.06965303853793
 51
40.93034696146226
  0
LINE
  5
18B
330
1F
100
AcDbEntity
  8
LAY-10
  6
CONTINUOUS
 62
     7
100
AcDbLine
 10
532.1281618256143
 20
626.9017564747523
 30
0.0
 11
532.2400853362986
 21
628.3075546045134
 31
0.0
  0
LINE
  5
18C
330
1F
100
AcDbEntity
  8
LAY-10
  6
CONTINUOUS
 62
     7
100
AcDbLine
 10
547.8424475399022
 20
599.6838152129518
 30
0.0
 11
549.1158661882098
 21
599.077844751605
 31
0.0
  0
ARC
  5
18D
330
1F
100
AcDbEntity
  8
LAY-10
  6
CONTINUOUS
 62
     7
100
AcDbCircle
 10
464.9999999999993
 20
569.999999999995
 30
0.0
 40
87.99999999999181
100
AcDbArc
 50
20.37202606921959
 51
39.62797393078043
  0
ARC
  5
18E
330
1F
100
AcDbEntity
  8
LAY-10
  6
CONTINUOUS
 62
     7
100
AcDbCircle
 10
464.9999999999993
 20
569.999999999995
 30
0.0
 40
83.99999999998056
100
AcDbArc
 50
20.38752293319754
 51
39.61247706680265
  0
LINE
  5
18F
330
1F
100
AcDbEntity
  8
LAY-10
  6
CONTINUOUS
 62
     7
100
AcDbLine
 10
545.0127354035538
 20
598.6698826861424
 30
0.0
 11
546.8956456161884
 21
599.3445604687793
 31
0.0
  0
LINE
  5
190
330
1F
100
AcDbEntity
  8
LAY-10
  6
CONTINUOUS
 62
     7
100
AcDbLine
 10
529.8352144314996
 20
624.9581201426826
 30
0.0
 11
531.3609576369494
 21
626.2514293285507
 31
0.0
  0
LINE
  5
191
330
1F
100
AcDbEntity
  8
LAY-10
  6
CONTINUOUS
 62
     7
100
AcDbLine
 10
529.0768817426228
 20
624.3153129986194
 30
0.0
 11
528.2627501351018
 21
624.936132642671
 31
0.0
  0
LINE
  5
192
330
1F
100
AcDbEntity
  8
LAY-10
  6
CONTINUOUS
 62
     7
100
AcDbLine
 10
528.2627501351018
 20
624.936132642671
 30
0.0
 11
532.2400853362986
 21
628.3075546045134
 31
0.0
  0
LINE
  5
193
330
1F
100
AcDbEntity
  8
LAY-10
  6
CONTINUOUS
 62
     7
100
AcDbLine
 10
544.2074615217791
 20
597.3190824089235
 30
0.0
 11
544.0768817426227
 21
598.3345508850863
 31
0.0
  0
LINE
  5
194
330
1F
100
AcDbEntity
  8
LAY-10
  6
CONTINUOUS
 62
     7
100
AcDbLine
 10
549.1158661882099
 20
599.0778447516049
 30
0.0
 11
544.2074615217791
 21
597.3190824089235
 31
0.0
  0
ARC
  5
195
330
1F
100
AcDbEntity
  8
LAY-10
  6
CONTINUOUS
 62
     7
100
AcDbCircle
 10
464.9999999999993
 20
569.9999999999953
 30
0.0
 40
83.78636061072308
100
AcDbArc
 50
10.9704086680269
 51
19.02959133197294
  0
ARC
  5
196
330
1F
100
AcDbEntity
  8
LAY-10
  6
CONTINUOUS
 62
     7
100
AcDbCircle
 10
464.9999999999993
 20
569.9999999999948
 30
0.0
 40
88.99999999995343
100
AcDbArc
 50
49.06965303853811
 51
70.93034696146239
  0
LINE
  5
197
330
1F
100
AcDbEntity
  8
LAY-10
  6
CONTINUOUS
 62
     7
100
AcDbLine
 10
494.6838152129558
 20
652.8424475398979
 30
0.0
 11
494.0778447516088
 21
654.1158661882056
 31
0.0
  0
LINE
  5
198
330
1F
100
AcDbEntity
  8
LAY-10
  6
CONTINUOUS
 62
     7
100
AcDbLine
 10
521.9017564747566
 20
637.1281618256099
 30
0.0
 11
523.3075546045173
 21
637.2400853362943
 31
0.0
  0
ARC
  5
199
330
1F
100
AcDbEntity
  8
LAY-10
  6
CONTINUOUS
 62
     7
100
AcDbCircle
 10
464.9999999999993
 20
569.9999999999948
 30
0.0
 40
87.99999999999181
100
AcDbArc
 50
50.37202606921966
 51
69.62797393078067
  0
ARC
  5
19A
330
1F
100
AcDbEntity
  8
LAY-10
  6
CONTINUOUS
 62
     7
100
AcDbCircle
 10
464.9999999999993
 20
569.9999999999948
 30
0.0
 40
83.99999999998056
100
AcDbArc
 50
50.38752293319772
 51
69.61247706680255
  0
LINE
  5
19B
330
1F
100
AcDbEntity
  8
LAY-10
  6
CONTINUOUS
 62
     7
100
AcDbLine
 10
519.9581201426863
 20
634.8352144314954
 30
0.0
 11
521.2514293285545
 21
636.3609576369453
 31
0.0
  0
LINE
  5
19C
330
1F
100
AcDbEntity
  8
LAY-10
  6
CONTINUOUS
 62
     7
100
AcDbLine
 10
493.6698826861464
 20
650.0127354035495
 30
0.0
 11
494.3445604687832
 21
651.8956456161841
 31
0.0
  0
LINE
  5
19D
330
1F
100
AcDbEntity
  8
LAY-10
  6
CONTINUOUS
 62
     7
100
AcDbLine
 10
493.3345508850905
 20
649.0768817426185
 30
0.0
 11
492.3190824089274
 21
649.2074615217751
 31
0.0
  0
LINE
  5
19E
330
1F
100
AcDbEntity
  8
LAY-10
  6
CONTINUOUS
 62
     7
100
AcDbLine
 10
492.3190824089274
 20
649.2074615217751
 30
0.0
 11
494.0778447516088
 21
654.1158661882056
 31
0.0
  0
LINE
  5
19F
330
1F
100
AcDbEntity
  8
LAY-10
  6
CONTINUOUS
 62
     7
100
AcDbLine
 10
519.936132642675
 20
633.2627501350976
 30
0.0
 11
519.3153129986234
 21
634.0768817426185
 31
0.0
  0
LINE
  5
1A0
330
1F
100
AcDbEntity
  8
LAY-10
  6
CONTINUOUS
 62
     7
100
AcDbLine
 10
523.3075546045173
 20
637.2400853362943
 30
0.0
 11
519.936132642675
 21
633.2627501350976
 31
0.0
  0
ARC
  5
1A1
330
1F
100
AcDbEntity
  8
LAY-10
  6
CONTINUOUS
 62
     7
100
AcDbCircle
 10
464.9999999999988
 20
569.9999999999951
 30
0.0
 40
88.99999999995343
100
AcDbArc
 50
319.0696530385384
 51
340.9303469614628
  0
LINE
  5
1A2
330
1F
100
AcDbEntity
  8
LAY-10
  6
CONTINUOUS
 62
     7
100
AcDbLine
 10
547.8424475399019
 20
540.3161847870385
 30
0.0
 11
549.1158661882098
 21
540.9221552483855
 31
0.0
  0
LINE
  5
1A3
330
1F
100
AcDbEntity
  8
LAY-10
  6
CONTINUOUS
 62
     7
100
AcDbLine
 10
532.1281618256143
 20
513.0982435252379
 30
0.0
 11
532.2400853362986
 21
511.6924453954772
 31
0.0
  0
ARC
  5
1A4
330
1F
100
AcDbEntity
  8
LAY-10
  6
CONTINUOUS
 62
     7
100
AcDbCircle
 10
464.9999999999988
 20
569.9999999999951
 30
0.0
 40
87.99999999999181
100
AcDbArc
 50
320.3720260692198
 51
339.6279739307805
  0
ARC
  5
1A5
330
1F
100
AcDbEntity
  8
LAY-10
  6
CONTINUOUS
 62
     7
100
AcDbCircle
 10
464.9999999999988
 20
569.9999999999951
 30
0.0
 40
83.99999999998056
100
AcDbArc
 50
320.3875229331981
 51
339.6124770668026
  0
LINE
  5
1A6
330
1F
100
AcDbEntity
  8
LAY-10
  6
CONTINUOUS
 62
     7
100
AcDbLine
 10
529.8352144314994
 20
515.041879857308
 30
0.0
 11
531.3609576369491
 21
513.7485706714398
 31
0.0
  0
LINE
  5
1A7
330
1F
100
AcDbEntity
  8
LAY-10
  6
CONTINUOUS
 62
     7
100
AcDbLine
 10
545.0127354035535
 20
541.330117313848
 30
0.0
 11
546.8956456161881
 21
540.6554395312111
 31
0.0
  0
LINE
  5
1A8
330
1F
100
AcDbEntity
  8
LAY-10
  6
CONTINUOUS
 62
     7
100
AcDbLine
 10
544.0768817426227
 20
541.6654491149038
 30
0.0
 11
544.2074615217791
 21
542.6809175910669
 31
0.0
  0
LINE
  5
1A9
330
1F
100
AcDbEntity
  8
LAY-10
  6
CONTINUOUS
 62
     7
100
AcDbLine
 10
544.2074615217791
 20
542.6809175910669
 30
0.0
 11
549.1158661882098
 21
540.9221552483855
 31
0.0
  0
LINE
  5
1AA
330
1F
100
AcDbEntity
  8
LAY-10
  6
CONTINUOUS
 62
     7
100
AcDbLine
 10
528.2627501351016
 20
515.0638673573193
 30
0.0
 11
529.0768817426227
 21
515.6846870013708
 31
0.0
  0
LINE
  5
1AB
330
1F
100
AcDbEntity
  8
LAY-10
  6
CONTINUOUS
 62
     7
100
AcDbLine
 10
532.2400853362986
 20
511.692445395477
 30
0.0
 11
528.2627501351016
 21
515.0638673573193
 31
0.0
  0
ARC
  5
1AC
330
1F
100
AcDbEntity
  8
LAY-10
  6
CONTINUOUS
 62
     7
100
AcDbCircle
 10
464.9999999999988
 20
569.9999999999953
 30
0.0
 40
88.99999999995343
100
AcDbArc
 50
289.0696530385379
 51
310.9303469614626
  0
LINE
  5
1AD
330
1F
100
AcDbEntity
  8
LAY-10
  6
CONTINUOUS
 62
     7
100
AcDbLine
 10
521.9017564747563
 20
502.8718381743803
 30
0.0
 11
523.3075546045173
 21
502.7599146636959
 31
0.0
  0
LINE
  5
1AE
330
1F
100
AcDbEntity
  8
LAY-10
  6
CONTINUOUS
 62
     7
100
AcDbLine
 10
494.6838152129556
 20
487.1575524600922
 30
0.0
 11
494.0778447516088
 21
485.8841338117846
 31
0.0
  0
ARC
  5
1AF
330
1F
100
AcDbEntity
  8
LAY-10
  6
CONTINUOUS
 62
     7
100
AcDbCircle
 10
464.9999999999988
 20
569.9999999999953
 30
0.0
 40
87.99999999999181
100
AcDbArc
 50
290.3720260692194
 51
309.6279739307806
  0
ARC
  5
1B0
330
1F
100
AcDbEntity
  8
LAY-10
  6
CONTINUOUS
 62
     7
100
AcDbCircle
 10
464.9999999999988
 20
569.9999999999953
 30
0.0
 40
83.99999999998056
100
AcDbArc
 50
290.3875229331976
 51
309.6124770668025
  0
LINE
  5
1B1
330
1F
100
AcDbEntity
  8
LAY-10
  6
CONTINUOUS
 62
     7
100
AcDbLine
 10
493.6698826861461
 20
489.9872645964405
 30
0.0
 11
494.3445604687831
 21
488.104354383806
 31
0.0
  0
LINE
  5
1B2
330
1F
100
AcDbEntity
  8
LAY-10
  6
CONTINUOUS
 62
     7
100
AcDbLine
 10
519.9581201426862
 20
505.1647855684948
 30
0.0
 11
521.2514293285544
 21
503.6390423630451
 31
0.0
  0
LINE
  5
1B3
330
1F
100
AcDbEntity
  8
LAY-10
  6
CONTINUOUS
 62
     7
100
AcDbLine
 10
519.3153129986234
 20
505.9231182573715
 30
0.0
 11
519.936132642675
 21
506.7372498648926
 31
0.0
  0
LINE
  5
1B4
330
1F
100
AcDbEntity
  8
LAY-10
  6
CONTINUOUS
 62
     7
100
AcDbLine
 10
519.936132642675
 20
506.7372498648926
 30
0.0
 11
523.3075546045173
 21
502.7599146636959
 31
0.0
  0
LINE
  5
1B5
330
1F
100
AcDbEntity
  8
LAY-10
  6
CONTINUOUS
 62
     7
100
AcDbLine
 10
492.3190824089273
 20
490.7925384782151
 30
0.0
 11
493.3345508850901
 21
490.9231182573715
 31
0.0
  0
LINE
  5
1B6
330
1F
100
AcDbEntity
  8
LAY-10
  6
CONTINUOUS
 62
     7
100
AcDbLine
 10
494.0778447516088
 20
485.8841338117845
 30
0.0
 11
492.3190824089273
 21
490.7925384782151
 31
0.0
  0
ARC
  5
1B7
330
1F
100
AcDbEntity
  8
LAY-10
  6
CONTINUOUS
 62
     7
100
AcDbCircle
 10
464.9999999999993
 20
569.9999999999953
 30
0.0
 40
83.78636061072308
100
AcDbArc
 50
40.97040866802674
 51
49.02959133197346
  0
ARC
  5
1B8
330
1F
100
AcDbEntity
  8
LAY-10
  6
CONTINUOUS
 62
     7
100
AcDbCircle
 10
464.9999999999993
 20
569.9999999999953
 30
0.0
 40
83.78636061072308
100
AcDbArc
 50
340.9704086680271
 51
349.0295913319725
  0
ARC
  5
1B9
330
1F
100
AcDbEntity
  8
LAY-10
  6
CONTINUOUS
 62
     7
100
AcDbCircle
 10
464.9999999999993
 20
569.9999999999953
 30
0.0
 40
83.78636061072308
100
AcDbArc
 50
310.9704086680266
 51
319.0295913319728
  0
ARC
  5
1BA
330
1F
100
AcDbEntity
  8
LAY-10
  6
CONTINUOUS
 62
     7
100
AcDbCircle
 10
520.4886093078087
 20
502.9924314940136
 30
0.0
 40
1.0
100
AcDbArc
 50
309.6279739307772
 51
40.28656061147456
  0
ARC
  5
1BB
330
1F
100
AcDbEntity
  8
LAY-10
  6
CONTINUOUS
 62
     7
100
AcDbCircle
 10
519.1953001219405
 20
504.5181746994634
 30
0.0
 40
1.0
100
AcDbArc
 50
40.28656061147707
 51
129.6124770668018
  0
ARC
  5
1BC
330
1F
100
AcDbEntity
  8
LAY-10
  6
CONTINUOUS
 62
     7
100
AcDbCircle
 10
494.6112741354633
 20
490.3245806784061
 30
0.0
 40
1.0
100
AcDbArc
 50
110.3875229331982
 51
199.7134393885267
  0
ARC
  5
1BD
330
1F
100
AcDbEntity
  8
LAY-10
  6
CONTINUOUS
 62
     7
100
AcDbCircle
 10
495.2859519181002
 20
488.4416704657716
 30
0.0
 40
1.0
100
AcDbArc
 50
199.7134393885279
 51
290.3720260692161
  0
ARC
  5
1BE
330
1F
100
AcDbEntity
  8
LAY-10
  6
CONTINUOUS
 62
     7
100
AcDbCircle
 10
532.0075685059805
 20
514.5113906921855
 30
0.0
 40
1.0
100
AcDbArc
 50
229.7134393885322
 51
320.3720260692248
  0
ARC
  5
1BF
330
1F
100
AcDbEntity
  8
LAY-10
  6
CONTINUOUS
 62
     7
100
AcDbCircle
 10
530.4818253005308
 20
515.8046998780537
 30
0.0
 40
1.0
100
AcDbArc
 50
140.3875229331941
 51
229.713439388523
  0
ARC
  5
1C0
330
1F
100
AcDbEntity
  8
LAY-10
  6
CONTINUOUS
 62
     7
100
AcDbCircle
 10
546.5583295342226
 20
539.7140480818939
 30
0.0
 40
1.0
100
AcDbArc
 50
339.627973930784
 51
70.28656061147417
  0
ARC
  5
1C1
330
1F
100
AcDbEntity
  8
LAY-10
  6
CONTINUOUS
 62
     7
100
AcDbCircle
 10
544.675419321588
 20
540.3887258645308
 30
0.0
 40
1.0
100
AcDbArc
 50
70.28656061147417
 51
159.6124770668019
  0
ARC
  5
1C2
330
1F
100
AcDbEntity
  8
LAY-10
  6
CONTINUOUS
 62
     7
100
AcDbCircle
 10
550.7745612259104
 20
555.4492389717531
 30
0.0
 40
1.0
100
AcDbArc
 50
259.7134393885181
 51
350.3720260692166
  0
ARC
  5
1C3
330
1F
100
AcDbEntity
  8
LAY-10
  6
CONTINUOUS
 62
     7
100
AcDbCircle
 10
548.8065742574051
 20
555.8064059789378
 30
0.0
 40
1.0
100
AcDbArc
 50
170.3875229331993
 51
259.7134393885307
  0
ARC
  5
1C4
330
1F
100
AcDbEntity
  8
LAY-10
  6
CONTINUOUS
 62
     7
100
AcDbCircle
 10
550.7745612259104
 20
584.5507610282374
 30
0.0
 40
1.0
100
AcDbArc
 50
9.627973930783403
 51
100.286560611482
  0
ARC
  5
1C5
330
1F
100
AcDbEntity
  8
LAY-10
  6
CONTINUOUS
 62
     7
100
AcDbCircle
 10
548.8065742574051
 20
584.1935940210526
 30
0.0
 40
1.0
100
AcDbArc
 50
100.2865606114692
 51
189.6124770667943
  0
ARC
  5
1C6
330
1F
100
AcDbEntity
  8
LAY-10
  6
CONTINUOUS
 62
     7
100
AcDbCircle
 10
546.5583295342229
 20
600.2859519180964
 30
0.0
 40
1.0
100
AcDbArc
 50
289.7134393885237
 51
20.37202606922217
  0
ARC
  5
1C7
330
1F
100
AcDbEntity
  8
LAY-10
  6
CONTINUOUS
 62
     7
100
AcDbCircle
 10
544.6754193215885
 20
599.6112741354597
 30
0.0
 40
1.0
100
AcDbArc
 50
200.3875229331983
 51
289.7134393885177
  0
ARC
  5
1C8
330
1F
100
AcDbEntity
  8
LAY-10
  6
CONTINUOUS
 62
     7
100
AcDbCircle
 10
532.0075685059808
 20
625.488609307805
 30
0.0
 40
1.0
100
AcDbArc
 50
39.62797393078434
 51
130.2865606114721
  0
ARC
  5
1C9
330
1F
100
AcDbEntity
  8
LAY-10
  6
CONTINUOUS
 62
     7
100
AcDbCircle
 10
530.481825300531
 20
624.1953001219368
 30
0.0
 40
1.0
100
AcDbArc
 50
130.2865606114721
 51
219.612477066806
  0
ARC
  5
1CA
330
1F
100
AcDbEntity
  8
LAY-10
  6
CONTINUOUS
 62
     7
100
AcDbCircle
 10
520.4886093078088
 20
637.0075685059767
 30
0.0
 40
1.0
100
AcDbArc
 50
319.713439388523
 51
50.3720260692157
  0
ARC
  5
1CB
330
1F
100
AcDbEntity
  8
LAY-10
  6
CONTINUOUS
 62
     7
100
AcDbCircle
 10
519.1953001219406
 20
635.4818253005269
 30
0.0
 40
1.0
100
AcDbArc
 50
230.3875229332033
 51
319.7134393885138
  0
ARC
  5
1CC
330
1F
100
AcDbEntity
  8
LAY-10
  6
CONTINUOUS
 62
     7
100
AcDbCircle
 10
495.2859519181005
 20
651.5583295342187
 30
0.0
 40
1.0
100
AcDbArc
 50
69.6279739307809
 51
160.2865606114836
  0
ARC
  5
1CD
330
1F
100
AcDbEntity
  8
LAY-10
  6
CONTINUOUS
 62
     7
100
AcDbCircle
 10
494.6112741354635
 20
649.6754193215842
 30
0.0
 40
1.0
100
AcDbArc
 50
160.2865606114847
 51
249.6124770668019
  0
ARC
  5
1CE
330
1F
100
AcDbEntity
  8
LAY-10
  6
CONTINUOUS
 62
     7
100
AcDbCircle
 10
464.9999999999988
 20
569.9999999999849
 30
0.0
 40
83.78636061072308
100
AcDbArc
 50
280.970408668027
 51
289.029591331975
  0
ARC
  5
1CF
330
1F
100
AcDbEntity
  8
LAY-10
  6
CONTINUOUS
 62
     7
100
AcDbCircle
 10
464.9999999999988
 20
569.9999999999953
 30
0.0
 40
83.78636061072308
100
AcDbArc
 50
70.97040866802722
 51
79.02959133197301
  0
ARC
  5
1D0
330
1F
100
AcDbEntity
  8
LAY-10
  6
CONTINUOUS
 62
     7
100
AcDbCircle
 10
464.9999999999988
 20
569.9999999999953
 30
0.0
 40
83.0401460783702
100
AcDbArc
 50
273.1808770768769
 51
355.4359777859482
  0
ARC
  5
1D1
330
1F
100
AcDbEntity
  8
LAY-10
  6
CONTINUOUS
 62
     7
100
AcDbCircle
 10
464.9999999999988
 20
569.9999999999953
 30
0.0
 40
83.0401460783702
100
AcDbArc
 50
4.564022214058543
 51
75.0000000000008
  0
LINE
  5
1D2
330
1F
100
AcDbEntity
  8
LAY-10
  6
CONTINUOUS
 62
     7
100
AcDbLine
 10
384.2225278929908
 20
575.9999999999953
 30
0.0
 11
381.6349010348958
 21
575.9999999999953
 31
0.0
  0
LINE
  5
1D3
330
1F
100
AcDbEntity
  8
LAY-10
  6
CONTINUOUS
 62
     7
100
AcDbLine
 10
382.223170793963
 20
576.6077535752908
 30
0.0
 11
384.2699709359224
 21
576.6077535752908
 31
0.0
  0
LINE
  5
1D4
330
1F
100
AcDbEntity
  8
LAY-10
  6
CONTINUOUS
 62
     7
100
AcDbLine
 10
384.2225278929901
 20
563.9999999999953
 30
0.0
 11
381.6349010348958
 21
563.9999999999953
 31
0.0
  0
LINE
  5
1D5
330
1F
100
AcDbEntity
  8
LAY-10
  6
CONTINUOUS
 62
     7
100
AcDbLine
 10
382.2231707939624
 20
563.3922464247064
 30
0.0
 11
384.269970935921
 21
563.3922464247064
 31
0.0
  0
LINE
  5
1D6
330
1F
100
AcDbEntity
  8
LAY-10
  6
CONTINUOUS
 62
     7
100
AcDbLine
 10
545.777472107026
 20
563.9999999999953
 30
0.0
 11
548.3650989651023
 21
563.9999999999953
 31
0.0
  0
LINE
  5
1D7
330
1F
100
AcDbEntity
  8
LAY-10
  6
CONTINUOUS
 62
     7
100
AcDbLine
 10
547.7768292060356
 20
563.3922464247064
 30
0.0
 11
545.730029064095
 21
563.3922464247064
 31
0.0
  0
LINE
  5
1D8
330
1F
100
AcDbEntity
  8
LAY-10
  6
CONTINUOUS
 62
     7
100
AcDbLine
 10
545.7774721070252
 20
575.9999999999953
 30
0.0
 11
548.3650989651023
 21
575.9999999999953
 31
0.0
  0
LINE
  5
1D9
330
1F
100
AcDbEntity
  8
LAY-10
  6
CONTINUOUS
 62
     7
100
AcDbLine
 10
547.7768292060349
 20
576.6077535752908
 30
0.0
 11
545.7300290640936
 21
576.6077535752908
 31
0.0
  0
LINE
  5
1DA
330
1F
100
AcDbEntity
  8
LAY-10
  6
CONTINUOUS
 62
     7
100
AcDbLine
 10
469.6077535752945
 20
650.8688358206537
 30
0.0
 11
469.6077535752945
 21
652.9122094007007
 31
0.0
  0
LINE
  5
1DB
330
1F
100
AcDbEntity
  8
LAY-10
  6
CONTINUOUS
 62
     7
100
AcDbLine
 10
468.9999999999993
 20
653.4849670627029
 30
0.0
 11
468.9999999999993
 21
650.9011742807141
 31
0.0
  0
LINE
  5
1DC
330
1F
100
AcDbEntity
  8
LAY-10
  6
CONTINUOUS
 62
     7
100
AcDbLine
 10
460.9999999999992
 20
653.4849670627029
 30
0.0
 11
460.9999999999992
 21
650.9011742807132
 31
0.0
  0
LINE
  5
1DD
330
1F
100
AcDbEntity
  8
LAY-10
  6
CONTINUOUS
 62
     7
100
AcDbLine
 10
460.3922464247036
 20
650.8688358206526
 30
0.0
 11
460.3922464247036
 21
652.9122094007007
 31
0.0
  0
LINE
  5
1DE
330
1F
100
AcDbEntity
  8
LAY-10
  6
CONTINUOUS
 62
     7
100
AcDbLine
 10
469.6077535752945
 20
489.1311641793266
 30
0.0
 11
469.6077535752945
 21
487.0877905992795
 31
0.0
  0
LINE
  5
1DF
330
1F
100
AcDbEntity
  8
LAY-10
  6
CONTINUOUS
 62
     7
100
AcDbLine
 10
468.9999999999993
 20
486.5150329372772
 30
0.0
 11
468.9999999999993
 21
489.0988257192661
 31
0.0
  0
LINE
  5
1E0
330
1F
100
AcDbEntity
  8
LAY-10
  6
CONTINUOUS
 62
     7
100
AcDbLine
 10
460.9999999999992
 20
486.5150329372772
 30
0.0
 11
460.9999999999992
 21
489.0988257192669
 31
0.0
  0
LINE
  5
1E1
330
1F
100
AcDbEntity
  8
LAY-10
  6
CONTINUOUS
 62
     7
100
AcDbLine
 10
460.3922464247036
 20
489.1311641793276
 30
0.0
 11
460.3922464247036
 21
487.0877905992795
 31
0.0
  0
ARC
  5
1E2
330
1F
100
AcDbEntity
  8
LAY-10
  6
CONTINUOUS
 62
     7
100
AcDbCircle
 10
464.9999999999838
 20
569.9999999999706
 30
0.0
 40
81.0
100
AcDbArc
 50
182.8305724702753
 51
357.1694275297247
  0
ARC
  5
1E3
330
1F
100
AcDbEntity
  8
LAY-10
  6
CONTINUOUS
 62
     7
100
AcDbCircle
 10
464.9999999999838
 20
569.9999999999706
 30
0.0
 40
81.0
100
AcDbArc
 50
2.830572470275168
 51
177.1694275297246
  0
LINE
  5
1E4
330
1F
100
AcDbEntity
  8
LAY-10
  6
CONTINUOUS
 62
     7
100
AcDbLine
 10
453.5111271877396
 20
634.2827601875878
 30
0.0
 11
454.7017173982215
 21
625.2393296997492
 31
0.0
  0
LINE
  5
1E5
330
1F
100
AcDbEntity
  8
LAY-10
  6
CONTINUOUS
 62
     7
100
AcDbLine
 10
459.4597963559823
 20
635.065917340908
 30
0.0
 11
460.6503865664642
 21
626.0224868530694
 31
0.0
  0
LINE
  5
1E6
330
1F
100
AcDbEntity
  8
LAY-10
  6
CONTINUOUS
 62
     7
100
AcDbLine
 10
437.2649984273737
 20
629.1188391597653
 30
0.0
 11
440.7556323035184
 21
620.6917035146975
 31
0.0
  0
LINE
  5
1E7
330
1F
100
AcDbEntity
  8
LAY-10
  6
CONTINUOUS
 62
     7
100
AcDbLine
 10
442.8082756224414
 20
631.414939753956
 30
0.0
 11
446.2989094985861
 21
622.9878041088882
 31
0.0
  0
LINE
  5
1E8
330
1F
100
AcDbEntity
  8
LAY-10
  6
CONTINUOUS
 62
     7
100
AcDbLine
 10
422.9089641899243
 20
619.9260669417041
 30
0.0
 11
428.461760801618
 21
612.689521507118
 31
0.0
  0
LINE
  5
1E9
330
1F
100
AcDbEntity
  8
LAY-10
  6
CONTINUOUS
 62
     7
100
AcDbLine
 10
427.6690842316718
 20
623.5786355157564
 30
0.0
 11
433.2218808433655
 21
616.3420900811703
 31
0.0
  0
LINE
  5
1EA
330
1F
100
AcDbEntity
  8
LAY-10
  6
CONTINUOUS
 62
     7
100
AcDbLine
 10
411.4213644842054
 20
607.3309157682904
 30
0.0
 11
418.6579099187918
 21
601.7781191565965
 31
0.0
  0
LINE
  5
1EB
330
1F
100
AcDbEntity
  8
LAY-10
  6
CONTINUOUS
 62
     7
100
AcDbLine
 10
415.0739330582579
 20
612.0910358100377
 30
0.0
 11
422.3104784928438
 21
606.5382391983438
 31
0.0
  0
LINE
  5
1EC
330
1F
100
AcDbEntity
  8
LAY-10
  6
CONTINUOUS
 62
     7
100
AcDbLine
 10
403.585060246006
 20
592.1917243775209
 30
0.0
 11
412.0121958910738
 21
588.7010905013759
 31
0.0
  0
LINE
  5
1ED
330
1F
100
AcDbEntity
  8
LAY-10
  6
CONTINUOUS
 62
     7
100
AcDbLine
 10
405.8811608401968
 20
597.7350015725884
 30
0.0
 11
414.3082964852644
 21
594.2443676964434
 31
0.0
  0
LINE
  5
1EE
330
1F
100
AcDbEntity
  8
LAY-10
  6
CONTINUOUS
 62
     7
100
AcDbLine
 10
399.9340826590538
 20
575.5402036439797
 30
0.0
 11
408.9775131468925
 21
574.3496134334979
 31
0.0
  0
LINE
  5
1EF
330
1F
100
AcDbEntity
  8
LAY-10
  6
CONTINUOUS
 62
     7
100
AcDbLine
 10
400.717239812374
 20
581.4888728122224
 30
0.0
 11
409.7606703002127
 21
580.2982826017405
 31
0.0
  0
LINE
  5
1F0
330
1F
100
AcDbEntity
  8
LAY-10
  6
CONTINUOUS
 62
     7
100
AcDbLine
 10
400.717239812374
 20
558.511127187719
 30
0.0
 11
409.7606703002127
 21
559.7017173982009
 31
0.0
  0
LINE
  5
1F1
330
1F
100
AcDbEntity
  8
LAY-10
  6
CONTINUOUS
 62
     7
100
AcDbLine
 10
399.9340826590538
 20
564.4597963559618
 30
0.0
 11
408.9775131468925
 21
565.6503865664437
 31
0.0
  0
LINE
  5
1F2
330
1F
100
AcDbEntity
  8
LAY-10
  6
CONTINUOUS
 62
     7
100
AcDbLine
 10
405.8811608401963
 20
542.2649984273529
 30
0.0
 11
414.3082964852644
 21
545.755632303498
 31
0.0
  0
LINE
  5
1F3
330
1F
100
AcDbEntity
  8
LAY-10
  6
CONTINUOUS
 62
     7
100
AcDbLine
 10
403.585060246006
 20
547.8082756224206
 30
0.0
 11
412.0121958910738
 21
551.2989094985655
 31
0.0
  0
LINE
  5
1F4
330
1F
100
AcDbEntity
  8
LAY-10
  6
CONTINUOUS
 62
     7
100
AcDbLine
 10
415.0739330582576
 20
527.9089641899038
 30
0.0
 11
422.3104784928438
 21
533.4617608015976
 31
0.0
  0
LINE
  5
1F5
330
1F
100
AcDbEntity
  8
LAY-10
  6
CONTINUOUS
 62
     7
100
AcDbLine
 10
411.4213644842054
 20
532.669084231651
 30
0.0
 11
418.6579099187913
 21
538.2218808433449
 31
0.0
  0
LINE
  5
1F6
330
1F
100
AcDbEntity
  8
LAY-10
  6
CONTINUOUS
 62
     7
100
AcDbLine
 10
427.6690842316713
 20
516.4213644841851
 30
0.0
 11
433.2218808433652
 21
523.657909918771
 31
0.0
  0
LINE
  5
1F7
330
1F
100
AcDbEntity
  8
LAY-10
  6
CONTINUOUS
 62
     7
100
AcDbLine
 10
422.9089641899243
 20
520.0739330582375
 30
0.0
 11
428.461760801618
 21
527.3104784928233
 31
0.0
  0
LINE
  5
1F8
330
1F
100
AcDbEntity
  8
LAY-10
  6
CONTINUOUS
 62
     7
100
AcDbLine
 10
437.2649984273732
 20
510.881160840176
 30
0.0
 11
440.7556323035184
 21
519.3082964852438
 31
0.0
  0
LINE
  5
1F9
330
1F
100
AcDbEntity
  8
LAY-10
  6
CONTINUOUS
 62
     7
100
AcDbLine
 10
470.5402036440006
 20
635.065917340908
 30
0.0
 11
469.3496134335184
 21
626.0224868530694
 31
0.0
  0
ARC
  5
1FA
330
1F
100
AcDbEntity
  8
LAY-10
  6
CONTINUOUS
 62
     7
100
AcDbCircle
 10
464.9999999999911
 20
569.999999999971
 30
0.0
 40
56.19108621682528
100
AcDbArc
 50
85.56043383976474
 51
94.43956616023492
  0
ARC
  5
1FB
330
1F
100
AcDbEntity
  8
LAY-10
  6
CONTINUOUS
 62
     7
100
AcDbCircle
 10
464.9999999999911
 20
569.999999999971
 30
0.0
 40
56.19108621682528
100
AcDbArc
 50
100.560433839765
 51
109.4395661602352
  0
ARC
  5
1FC
330
1F
100
AcDbEntity
  8
LAY-10
  6
CONTINUOUS
 62
     7
100
AcDbCircle
 10
464.9999999999911
 20
569.999999999971
 30
0.0
 40
56.19108621682528
100
AcDbArc
 50
115.5604338397649
 51
124.4395661602353
  0
ARC
  5
1FD
330
1F
100
AcDbEntity
  8
LAY-10
  6
CONTINUOUS
 62
     7
100
AcDbCircle
 10
464.9999999999911
 20
569.999999999971
 30
0.0
 40
56.19108621682528
100
AcDbArc
 50
130.5604338397652
 51
139.4395661602354
  0
ARC
  5
1FE
330
1F
100
AcDbEntity
  8
LAY-10
  6
CONTINUOUS
 62
     7
100
AcDbCircle
 10
464.9999999999911
 20
569.999999999971
 30
0.0
 40
56.19108621682528
100
AcDbArc
 50
145.5604338397655
 51
154.4395661602354
  0
ARC
  5
1FF
330
1F
100
AcDbEntity
  8
LAY-10
  6
CONTINUOUS
 62
     7
100
AcDbCircle
 10
464.9999999999911
 20
569.999999999971
 30
0.0
 40
56.19108621682528
100
AcDbArc
 50
160.5604338397651
 51
169.4395661602352
  0
ARC
  5
200
330
1F
100
AcDbEntity
  8
LAY-10
  6
CONTINUOUS
 62
     7
100
AcDbCircle
 10
464.9999999999911
 20
569.999999999971
 30
0.0
 40
56.19108621682528
100
AcDbArc
 50
175.5604338397651
 51
184.4395661602351
  0
ARC
  5
201
330
1F
100
AcDbEntity
  8
LAY-10
  6
CONTINUOUS
 62
     7
100
AcDbCircle
 10
464.9999999999911
 20
569.999999999971
 30
0.0
 40
56.19108621682528
100
AcDbArc
 50
190.5604338397653
 51
199.4395661602351
  0
ARC
  5
202
330
1F
100
AcDbEntity
  8
LAY-10
  6
CONTINUOUS
 62
     7
100
AcDbCircle
 10
464.9999999999911
 20
569.999999999971
 30
0.0
 40
56.19108621682528
100
AcDbArc
 50
205.5604338397653
 51
214.4395661602352
  0
ARC
  5
203
330
1F
100
AcDbEntity
  8
LAY-10
  6
CONTINUOUS
 62
     7
100
AcDbCircle
 10
464.9999999999911
 20
569.999999999971
 30
0.0
 40
56.19108621682528
100
AcDbArc
 50
220.5604338397646
 51
229.4395661602356
  0
ARC
  5
204
330
1F
100
AcDbEntity
  8
LAY-10
  6
CONTINUOUS
 62
     7
100
AcDbCircle
 10
464.9999999999911
 20
569.999999999971
 30
0.0
 40
56.19108621682528
100
AcDbArc
 50
235.560433839765
 51
244.4395661602352
  0
ARC
  5
205
330
1F
100
AcDbEntity
  8
LAY-10
  6
CONTINUOUS
 62
     7
100
AcDbCircle
 10
442.1705978341789
 20
567.2038603840377
 30
0.0
 40
3.000000000000002
100
AcDbArc
 50
186.9827947321608
 51
284.4775121858158
  0
ARC
  5
206
330
1F
100
AcDbEntity
  8
LAY-10
  6
CONTINUOUS
 62
     7
100
AcDbCircle
 10
464.9999999999911
 20
569.9999999999403
 30
0.0
 40
26.00000000000001
100
AcDbArc
 50
173.0172052681143
 51
186.9827947321593
  0
LINE
  5
207
330
1F
100
AcDbEntity
  8
LAY-10
  6
CONTINUOUS
 62
     7
100
AcDbLine
 10
449.999999999956
 20
573.8729833461279
 30
0.0
 11
442.9205978341585
 21
575.7008771253912
 31
0.0
  0
ARC
  5
208
330
1F
100
AcDbEntity
  8
LAY-10
  6
CONTINUOUS
 62
     7
100
AcDbCircle
 10
442.1705978341658
 20
572.7961396157339
 30
0.0
 40
3.000000000000002
100
AcDbArc
 50
75.52248781421487
 51
173.0172052681193
  0
ARC
  5
209
330
1F
100
AcDbEntity
  8
LAY-10
  6
CONTINUOUS
 62
     7
100
AcDbCircle
 10
453.6862915010217
 20
558.6862915008928
 30
0.0
 40
4.000000000033422
100
AcDbArc
 50
329.4775121858071
 51
120.5224878142073
  0
LINE
  5
20A
330
1F
100
AcDbEntity
  8
LAY-10
  6
CONTINUOUS
 62
     7
100
AcDbLine
 10
453.4186338781907
 20
550.3563761297504
 30
0.0
 11
457.1320110697585
 21
556.6547854945292
 31
0.0
  0
ARC
  5
20B
330
1F
100
AcDbEntity
  8
LAY-10
  6
CONTINUOUS
 62
     7
100
AcDbCircle
 10
450.8343442016596
 20
551.8800056345107
 30
0.0
 40
3.000000000000002
100
AcDbArc
 50
231.982794732169
 51
329.4775121858136
  0
ARC
  5
20C
330
1F
100
AcDbEntity
  8
LAY-10
  6
CONTINUOUS
 62
     7
100
AcDbCircle
 10
464.9999999999911
 20
569.9999999999403
 30
0.0
 40
26.00000000000001
100
AcDbArc
 50
218.0172052681144
 51
231.9827947321589
  0
LINE
  5
20D
330
1F
100
AcDbEntity
  8
LAY-10
  6
CONTINUOUS
 62
     7
100
AcDbLine
 10
451.6547854946563
 20
562.1320110696291
 30
0.0
 11
445.3563761298684
 21
558.4186338780527
 31
0.0
  0
ARC
  5
20E
330
1F
100
AcDbEntity
  8
LAY-10
  6
CONTINUOUS
 62
     7
100
AcDbCircle
 10
446.8800056346296
 20
555.8343442015225
 30
0.0
 40
3.000000000000002
100
AcDbArc
 50
120.5224878142205
 51
218.0172052681072
  0
LINE
  5
20F
330
1F
100
AcDbEntity
  8
LAY-10
  6
CONTINUOUS
 62
     7
100
AcDbLine
 10
445.3563761298016
 20
581.5813661217408
 30
0.0
 11
451.6547854945804
 21
577.8679889301728
 31
0.0
  0
ARC
  5
210
330
1F
100
AcDbEntity
  8
LAY-10
  6
CONTINUOUS
 62
     7
100
AcDbCircle
 10
446.8800056345619
 20
584.1656557982719
 30
0.0
 40
3.000000000000002
100
AcDbArc
 50
141.9827947321628
 51
239.4775121857991
  0
ARC
  5
211
330
1F
100
AcDbEntity
  8
LAY-10
  6
CONTINUOUS
 62
     7
100
AcDbCircle
 10
464.9999999999911
 20
569.9999999999403
 30
0.0
 40
26.00000000000001
100
AcDbArc
 50
128.0172052681139
 51
141.9827947321592
  0
ARC
  5
212
330
1F
100
AcDbEntity
  8
LAY-10
  6
CONTINUOUS
 62
     7
100
AcDbCircle
 10
450.8343442015736
 20
588.1199943653022
 30
0.0
 40
3.000000000000002
100
AcDbArc
 50
30.52248781420876
 51
128.0172052681211
  0
LINE
  5
213
330
1F
100
AcDbEntity
  8
LAY-10
  6
CONTINUOUS
 62
     7
100
AcDbLine
 10
468.872983346179
 20
584.9999999999753
 30
0.0
 11
470.7008771254425
 21
592.0794021657729
 31
0.0
  0
ARC
  5
214
330
1F
100
AcDbEntity
  8
LAY-10
  6
CONTINUOUS
 62
     7
100
AcDbCircle
 10
467.796139615785
 20
592.8294021657657
 30
0.0
 40
3.000000000000002
100
AcDbArc
 50
345.5224878142112
 51
83.01720526811812
  0
ARC
  5
215
330
1F
100
AcDbEntity
  8
LAY-10
  6
CONTINUOUS
 62
     7
100
AcDbCircle
 10
448.9999999999579
 20
569.999999999885
 30
0.0
 40
4.000000000033422
100
AcDbArc
 50
284.4775121858054
 51
75.52248781421487
  0
LINE
  5
216
330
1F
100
AcDbEntity
  8
LAY-10
  6
CONTINUOUS
 62
     7
100
AcDbLine
 10
442.9205978341731
 20
564.2991228743804
 30
0.0
 11
449.9999999999579
 21
566.1270166536435
 31
0.0
  0
ARC
  5
217
330
1F
100
AcDbEntity
  8
LAY-10
  6
CONTINUOUS
 62
     7
100
AcDbCircle
 10
462.203860384089
 20
592.8294021657524
 30
0.0
 40
3.000000000000002
100
AcDbArc
 50
96.98279473215416
 51
194.4775121858134
  0
ARC
  5
218
330
1F
100
AcDbEntity
  8
LAY-10
  6
CONTINUOUS
 62
     7
100
AcDbCircle
 10
464.9999999999911
 20
569.9999999999403
 30
0.0
 40
26.00000000000001
100
AcDbArc
 50
83.01720526811354
 51
96.98279473215834
  0
LINE
  5
219
330
1F
100
AcDbEntity
  8
LAY-10
  6
CONTINUOUS
 62
     7
100
AcDbLine
 10
469.4956158957777
 20
603.9393939393661
 30
0.0
 11
470.6957847822416
 21
612.9999999999707
 31
0.0
  0
ARC
  5
21A
330
1F
100
AcDbEntity
  8
LAY-10
  6
CONTINUOUS
 62
     7
100
AcDbCircle
 10
447.2034560768395
 20
609.9716920997703
 30
0.0
 40
5.745535714285732
100
AcDbArc
 50
16.4545202650302
 51
211.5454797349692
  0
ARC
  5
21B
330
1F
100
AcDbEntity
  8
LAY-10
  6
CONTINUOUS
 62
     7
100
AcDbCircle
 10
450.9533973263261
 20
601.5491861534434
 30
0.0
 40
4.534883720930464
100
AcDbArc
 50
211.5454797349678
 51
16.45452026502929
  0
LINE
  5
21C
330
1F
100
AcDbEntity
  8
LAY-10
  6
CONTINUOUS
 62
     7
100
AcDbLine
 10
447.0886553601528
 20
599.1766474504378
 30
0.0
 11
442.3069660321973
 21
606.9657702965875
 31
0.0
  0
LINE
  5
21D
330
1F
100
AcDbEntity
  8
LAY-10
  6
CONTINUOUS
 62
     7
100
AcDbLine
 10
455.3025543219557
 20
602.8337108864586
 30
0.0
 11
452.7136826632665
 21
611.5991390606171
 31
0.0
  0
ARC
  5
21E
330
1F
100
AcDbEntity
  8
LAY-10
  6
CONTINUOUS
 62
     7
100
AcDbCircle
 10
432.4840962745272
 20
599.2774512183775
 30
0.0
 40
5.745535714285732
100
AcDbArc
 50
40.45452026503358
 51
235.5454797349635
  0
ARC
  5
21F
330
1F
100
AcDbEntity
  8
LAY-10
  6
CONTINUOUS
 62
     7
100
AcDbCircle
 10
439.3355798643166
 20
593.1083476846903
 30
0.0
 40
4.534883720930464
100
AcDbArc
 50
235.545479734967
 51
40.45452026502705
  0
LINE
  5
220
330
1F
100
AcDbEntity
  8
LAY-10
  6
CONTINUOUS
 62
     7
100
AcDbLine
 10
436.7699608237865
 20
589.368993555803
 30
0.0
 11
429.2335485794262
 21
594.539823085439
 31
0.0
  0
LINE
  5
221
330
1F
100
AcDbEntity
  8
LAY-10
  6
CONTINUOUS
 62
     7
100
AcDbLine
 10
442.7862692043943
 20
596.050780936378
 30
0.0
 11
436.8559964294998
 21
603.0054090613636
 31
0.0
  0
ARC
  5
222
330
1F
100
AcDbEntity
  8
LAY-10
  6
CONTINUOUS
 62
     7
100
AcDbCircle
 10
423.3870316240589
 20
583.5208730440279
 30
0.0
 40
5.745535714285732
100
AcDbArc
 50
64.4545202650314
 51
259.5454797349688
  0
LINE
  5
223
330
1F
100
AcDbEntity
  8
LAY-10
  6
CONTINUOUS
 62
     7
100
AcDbLine
 10
431.3324965228404
 20
576.2122647135819
 30
0.0
 11
422.3444755052817
 21
577.8707175255191
 31
0.0
  0
ARC
  5
224
330
1F
100
AcDbEntity
  8
LAY-10
  6
CONTINUOUS
 62
     7
100
AcDbCircle
 10
421.485227247739
 20
565.4264130870852
 30
0.0
 40
5.745535714285732
100
AcDbArc
 50
88.45452026503072
 51
283.5454797349678
  0
ARC
  5
225
330
1F
100
AcDbEntity
  8
LAY-10
  6
CONTINUOUS
 62
     7
100
AcDbCircle
 10
430.6543019855263
 20
566.390121675494
 30
0.0
 40
4.534883720930464
100
AcDbArc
 50
283.5454797349701
 51
88.45452026502608
  0
LINE
  5
226
330
1F
100
AcDbEntity
  8
LAY-10
  6
CONTINUOUS
 62
     7
100
AcDbLine
 10
431.716449432761
 20
561.9813788657244
 30
0.0
 11
422.8309301295469
 21
559.8406934022078
 31
0.0
  0
LINE
  5
227
330
1F
100
AcDbEntity
  8
LAY-10
  6
CONTINUOUS
 62
     7
100
AcDbLine
 10
430.7766097907044
 20
570.9233557487747
 30
0.0
 11
421.6401868687632
 21
571.1698587567146
 31
0.0
  0
ARC
  5
228
330
1F
100
AcDbEntity
  8
LAY-10
  6
CONTINUOUS
 62
     7
100
AcDbCircle
 10
427.1075223995832
 20
548.1227678571129
 30
0.0
 40
5.745535714285732
100
AcDbArc
 50
112.454520265027
 51
307.5454797349692
  0
ARC
  5
229
330
1F
100
AcDbEntity
  8
LAY-10
  6
CONTINUOUS
 62
     7
100
AcDbCircle
 10
435.0919133809222
 20
552.732558139504
 30
0.0
 40
4.534883720930464
100
AcDbArc
 50
307.5454797349719
 51
112.4545202650286
  0
LINE
  5
22A
330
1F
100
AcDbEntity
  8
LAY-10
  6
CONTINUOUS
 62
     7
100
AcDbLine
 10
437.8554306073199
 20
549.1369854588642
 30
0.0
 11
430.608800028385
 21
543.5673056840525
 31
0.0
  0
LINE
  5
22B
330
1F
100
AcDbEntity
  8
LAY-10
  6
CONTINUOUS
 62
     7
100
AcDbLine
 10
433.3598147115337
 20
556.9236206016802
 30
0.0
 11
424.913015246135
 21
553.4326943158878
 31
0.0
  0
ARC
  5
22C
330
1F
100
AcDbEntity
  8
LAY-10
  6
CONTINUOUS
 62
     7
100
AcDbCircle
 10
439.2817711708906
 20
534.6018948130553
 30
0.0
 40
5.745535714285732
100
AcDbArc
 50
136.45452026503
 51
331.5454797349682
  0
ARC
  5
22D
330
1F
100
AcDbEntity
  8
LAY-10
  6
CONTINUOUS
 62
     7
100
AcDbCircle
 10
444.7009046591917
 20
542.0606921709731
 30
0.0
 40
4.534883720930464
100
AcDbArc
 50
331.5454797349651
 51
136.4545202650304
  0
LINE
  5
22E
330
1F
100
AcDbEntity
  8
LAY-10
  6
CONTINUOUS
 62
     7
100
AcDbLine
 10
448.6879544305431
 20
539.899996800698
 30
0.0
 11
444.3332208365574
 21
531.8643709466087
 31
0.0
  0
LINE
  5
22F
330
1F
100
AcDbEntity
  8
LAY-10
  6
CONTINUOUS
 62
     7
100
AcDbLine
 10
441.4138951107963
 20
545.1849102477275
 30
0.0
 11
435.1172474662719
 21
538.5601675370858
 31
0.0
  0
LINE
  5
230
330
1F
100
AcDbEntity
  8
LAY-10
  6
CONTINUOUS
 62
     7
100
AcDbLine
 10
453.5462273184373
 20
537.7369543499507
 30
0.0
 11
450.4884790757731
 21
529.1238734130278
 31
0.0
  0
LINE
  5
231
330
1F
100
AcDbEntity
  8
LAY-10
  6
CONTINUOUS
 62
     7
100
AcDbLine
 10
384.6196541435494
 20
559.9999999999704
 30
0.0
 11
400.4688644464097
 21
559.9999999999704
 31
0.0
  0
ARC
  5
232
330
1F
100
AcDbEntity
  8
LAY-10
  6
CONTINUOUS
 62
     7
100
AcDbCircle
 10
464.9999999999911
 20
613.7544642856849
 30
0.0
 40
5.745535714285732
100
AcDbArc
 50
352.4545202650306
 51
187.5454797349728
  0
ARC
  5
233
330
1F
100
AcDbEntity
  8
LAY-10
  6
CONTINUOUS
 62
     7
100
AcDbCircle
 10
464.9999999999911
 20
604.5348837209025
 30
0.0
 40
4.534883720930464
100
AcDbArc
 50
187.5454797349703
 51
352.4545202650297
  0
LINE
  5
234
330
1F
100
AcDbEntity
  8
LAY-10
  6
CONTINUOUS
 62
     7
100
AcDbLine
 10
460.5043841042054
 20
603.9393939393661
 30
0.0
 11
459.304215217741
 21
612.9999999999707
 31
0.0
  0
ARC
  5
235
330
1F
100
AcDbEntity
  8
LAY-10
  6
CONTINUOUS
 62
     7
100
AcDbCircle
 10
464.9999999999361
 20
585.9999999999735
 30
0.0
 40
4.000000000033422
100
AcDbArc
 50
194.4775121858048
 51
345.5224878142154
  0
LINE
  5
236
330
1F
100
AcDbEntity
  8
LAY-10
  6
CONTINUOUS
 62
     7
100
AcDbLine
 10
459.2991228744315
 20
592.0794021657583
 30
0.0
 11
461.1270166536945
 21
584.9999999999736
 31
0.0
  0
ARC
  5
237
330
1F
100
AcDbEntity
  8
LAY-10
  6
CONTINUOUS
 62
     7
100
AcDbCircle
 10
453.6862915009439
 20
581.3137084989098
 30
0.0
 40
4.000000000033422
100
AcDbArc
 50
239.4775121858016
 51
30.52248781421604
  0
LINE
  5
238
330
1F
100
AcDbEntity
  8
LAY-10
  6
CONTINUOUS
 62
     7
100
AcDbLine
 10
457.1320110696813
 20
583.3452145052738
 30
0.0
 11
453.4186338781039
 21
589.6436238700629
 31
0.0
  0
CIRCLE
  5
239
330
1F
100
AcDbEntity
  8
LAY-10
  6
CONTINUOUS
 62
     7
100
AcDbCircle
 10
464.9999999999911
 20
569.999999999971
 30
0.0
 40
65.30135875948326
  0
CIRCLE
  5
23A
330
1F
100
AcDbEntity
  8
LAY-10
  6
CONTINUOUS
 62
     7
100
AcDbCircle
 10
464.9999999999911
 20
569.999999999971
 30
0.0
 40
54.58339106223874
  0
LINE
  5
23B
330
1F
100
AcDbEntity
  8
LAY-10
  6
CONTINUOUS
 62
     7
100
AcDbLine
 10
476.4888728122425
 20
634.2827601875878
 30
0.0
 11
475.2982826017608
 21
625.2393296997492
 31
0.0
  0
LINE
  5
23C
330
1F
100
AcDbEntity
  8
LAY-10
  6
CONTINUOUS
 62
     7
100
AcDbLine
 10
492.7350015726086
 20
629.1188391597653
 30
0.0
 11
489.2443676964637
 21
620.6917035146975
 31
0.0
  0
LINE
  5
23D
330
1F
100
AcDbEntity
  8
LAY-10
  6
CONTINUOUS
 62
     7
100
AcDbLine
 10
487.1917243775407
 20
631.414939753956
 30
0.0
 11
483.701090501396
 21
622.9878041088882
 31
0.0
  0
LINE
  5
23E
330
1F
100
AcDbEntity
  8
LAY-10
  6
CONTINUOUS
 62
     7
100
AcDbLine
 10
507.091035810058
 20
619.9260669417041
 30
0.0
 11
501.5382391983641
 21
612.689521507118
 31
0.0
  0
LINE
  5
23F
330
1F
100
AcDbEntity
  8
LAY-10
  6
CONTINUOUS
 62
     7
100
AcDbLine
 10
502.3309157683103
 20
623.5786355157564
 30
0.0
 11
496.7781191566166
 21
616.3420900811703
 31
0.0
  0
LINE
  5
240
330
1F
100
AcDbEntity
  8
LAY-10
  6
CONTINUOUS
 62
     7
100
AcDbLine
 10
518.5786355157767
 20
607.3309157682904
 30
0.0
 11
511.3420900811905
 21
601.7781191565965
 31
0.0
  0
LINE
  5
241
330
1F
100
AcDbEntity
  8
LAY-10
  6
CONTINUOUS
 62
     7
100
AcDbLine
 10
514.9260669417242
 20
612.0910358100377
 30
0.0
 11
507.6895215071383
 21
606.5382391983438
 31
0.0
  0
LINE
  5
242
330
1F
100
AcDbEntity
  8
LAY-10
  6
CONTINUOUS
 62
     7
100
AcDbLine
 10
526.4149397539761
 20
592.1917243775209
 30
0.0
 11
517.9878041089084
 21
588.7010905013759
 31
0.0
  0
LINE
  5
243
330
1F
100
AcDbEntity
  8
LAY-10
  6
CONTINUOUS
 62
     7
100
AcDbLine
 10
524.1188391597855
 20
597.7350015725884
 30
0.0
 11
515.6917035147177
 21
594.2443676964434
 31
0.0
  0
LINE
  5
244
330
1F
100
AcDbEntity
  8
LAY-10
  6
CONTINUOUS
 62
     7
100
AcDbLine
 10
530.0659173409283
 20
575.5402036439797
 30
0.0
 11
521.0224868530896
 21
574.3496134334979
 31
0.0
  0
LINE
  5
245
330
1F
100
AcDbEntity
  8
LAY-10
  6
CONTINUOUS
 62
     7
100
AcDbLine
 10
529.2827601876081
 20
581.4888728122224
 30
0.0
 11
520.2393296997694
 21
580.2982826017405
 31
0.0
  0
LINE
  5
246
330
1F
100
AcDbEntity
  8
LAY-10
  6
CONTINUOUS
 62
     7
100
AcDbLine
 10
530.0659173409283
 20
564.4597963559618
 30
0.0
 11
521.0224868530896
 21
565.6503865664437
 31
0.0
  0
ARC
  5
247
330
1F
100
AcDbEntity
  8
LAY-10
  6
CONTINUOUS
 62
     7
100
AcDbCircle
 10
464.9999999999911
 20
569.999999999971
 30
0.0
 40
56.19108621682528
100
AcDbArc
 50
70.56043383976517
 51
79.43956616023529
  0
ARC
  5
248
330
1F
100
AcDbEntity
  8
LAY-10
  6
CONTINUOUS
 62
     7
100
AcDbCircle
 10
464.9999999999911
 20
569.999999999971
 30
0.0
 40
56.19108621682528
100
AcDbArc
 50
55.56043383976553
 51
64.43956616023532
  0
ARC
  5
249
330
1F
100
AcDbEntity
  8
LAY-10
  6
CONTINUOUS
 62
     7
100
AcDbCircle
 10
464.9999999999911
 20
569.999999999971
 30
0.0
 40
56.19108621682528
100
AcDbArc
 50
40.56043383976493
 51
49.43956616023517
  0
ARC
  5
24A
330
1F
100
AcDbEntity
  8
LAY-10
  6
CONTINUOUS
 62
     7
100
AcDbCircle
 10
464.9999999999911
 20
569.999999999971
 30
0.0
 40
56.19108621682528
100
AcDbArc
 50
25.56043383976478
 51
34.43956616023554
  0
ARC
  5
24B
330
1F
100
AcDbEntity
  8
LAY-10
  6
CONTINUOUS
 62
     7
100
AcDbCircle
 10
464.9999999999911
 20
569.999999999971
 30
0.0
 40
56.19108621682528
100
AcDbArc
 50
10.56043383976474
 51
19.43956616023493
  0
ARC
  5
24C
330
1F
100
AcDbEntity
  8
LAY-10
  6
CONTINUOUS
 62
     7
100
AcDbCircle
 10
464.9999999999911
 20
569.999999999971
 30
0.0
 40
56.19108621682528
100
AcDbArc
 50
355.5604338397658
 51
4.439566160234891
  0
LINE
  5
24D
330
1F
100
AcDbEntity
  8
LAY-10
  6
CONTINUOUS
 62
     7
100
AcDbLine
 10
529.2827601876081
 20
558.511127187719
 30
0.0
 11
520.2393296997694
 21
559.7017173982009
 31
0.0
  0
LINE
  5
24E
330
1F
100
AcDbEntity
  8
LAY-10
  6
CONTINUOUS
 62
     7
100
AcDbLine
 10
524.1188391597858
 20
542.2649984273529
 30
0.0
 11
515.6917035147177
 21
545.755632303498
 31
0.0
  0
LINE
  5
24F
330
1F
100
AcDbEntity
  8
LAY-10
  6
CONTINUOUS
 62
     7
100
AcDbLine
 10
526.4149397539761
 20
547.8082756224206
 30
0.0
 11
517.9878041089084
 21
551.2989094985655
 31
0.0
  0
LINE
  5
250
330
1F
100
AcDbEntity
  8
LAY-10
  6
CONTINUOUS
 62
     7
100
AcDbLine
 10
514.9260669417247
 20
527.9089641899038
 30
0.0
 11
507.6895215071383
 21
533.4617608015976
 31
0.0
  0
LINE
  5
251
330
1F
100
AcDbEntity
  8
LAY-10
  6
CONTINUOUS
 62
     7
100
AcDbLine
 10
518.5786355157767
 20
532.669084231651
 30
0.0
 11
511.3420900811908
 21
538.2218808433449
 31
0.0
  0
LINE
  5
252
330
1F
100
AcDbEntity
  8
LAY-10
  6
CONTINUOUS
 62
     7
100
AcDbLine
 10
502.3309157683108
 20
516.4213644841851
 30
0.0
 11
496.7781191566171
 21
523.657909918771
 31
0.0
  0
LINE
  5
253
330
1F
100
AcDbEntity
  8
LAY-10
  6
CONTINUOUS
 62
     7
100
AcDbLine
 10
507.091035810058
 20
520.0739330582375
 30
0.0
 11
501.5382391983641
 21
527.3104784928233
 31
0.0
  0
LINE
  5
254
330
1F
100
AcDbEntity
  8
LAY-10
  6
CONTINUOUS
 62
     7
100
AcDbLine
 10
492.7350015726089
 20
510.881160840176
 30
0.0
 11
489.2443676964637
 21
519.3082964852438
 31
0.0
  0
ARC
  5
255
330
1F
100
AcDbEntity
  8
LAY-10
  6
CONTINUOUS
 62
     7
100
AcDbCircle
 10
464.9999999999911
 20
569.999999999971
 30
0.0
 40
56.19108621682528
100
AcDbArc
 50
340.5604338397652
 51
349.4395661602348
  0
ARC
  5
256
330
1F
100
AcDbEntity
  8
LAY-10
  6
CONTINUOUS
 62
     7
100
AcDbCircle
 10
464.9999999999911
 20
569.999999999971
 30
0.0
 40
56.19108621682528
100
AcDbArc
 50
325.5604338397648
 51
334.4395661602349
  0
ARC
  5
257
330
1F
100
AcDbEntity
  8
LAY-10
  6
CONTINUOUS
 62
     7
100
AcDbCircle
 10
464.9999999999911
 20
569.999999999971
 30
0.0
 40
56.19108621682528
100
AcDbArc
 50
310.5604338397645
 51
319.4395661602353
  0
ARC
  5
258
330
1F
100
AcDbEntity
  8
LAY-10
  6
CONTINUOUS
 62
     7
100
AcDbCircle
 10
464.9999999999911
 20
569.999999999971
 30
0.0
 40
56.19108621682528
100
AcDbArc
 50
295.5604338397652
 51
304.4395661602353
  0
LINE
  5
259
330
1F
100
AcDbEntity
  8
LAY-10
  6
CONTINUOUS
 62
     7
100
AcDbLine
 10
462.340979123028
 20
535.8675721455809
 30
0.0
 11
461.6311155138152
 21
526.7554329237618
 31
0.0
  0
ARC
  5
25A
330
1F
100
AcDbEntity
  8
LAY-10
  6
CONTINUOUS
 62
     7
100
AcDbCircle
 10
455.9029353495231
 20
527.2016757375054
 30
0.0
 40
5.745535714285732
100
AcDbArc
 50
160.4545202650324
 51
355.54547973441
  0
ARC
  5
25B
330
1F
100
AcDbEntity
  8
LAY-10
  6
CONTINUOUS
 62
     7
100
AcDbCircle
 10
457.8197939333775
 20
536.2197863467192
 30
0.0
 40
4.534883720930464
100
AcDbArc
 50
355.5454797344101
 51
160.4545202650311
  0
LINE
  5
25C
330
1F
100
AcDbEntity
  8
LAY-10
  6
CONTINUOUS
 62
     7
100
AcDbLine
 10
468.872983346179
 20
554.9999999999644
 30
0.0
 11
470.7008771254425
 21
547.9205978341669
 31
0.0
  0
ARC
  5
25D
330
1F
100
AcDbEntity
  8
LAY-10
  6
CONTINUOUS
 62
     7
100
AcDbCircle
 10
467.796139615785
 20
547.1705978341741
 30
0.0
 40
3.000000000000002
100
AcDbArc
 50
276.9827947318819
 51
14.47751218578676
  0
ARC
  5
25E
330
1F
100
AcDbEntity
  8
LAY-10
  6
CONTINUOUS
 62
     7
100
AcDbCircle
 10
462.203860384089
 20
547.1705978341873
 30
0.0
 40
3.000000000000002
100
AcDbArc
 50
165.5224878141846
 51
263.0172052678458
  0
ARC
  5
25F
330
1F
100
AcDbEntity
  8
LAY-10
  6
CONTINUOUS
 62
     7
100
AcDbCircle
 10
464.9999999999911
 20
569.9999999999995
 30
0.0
 40
26.00000000000001
100
AcDbArc
 50
263.0172052678417
 51
276.9827947318869
  0
ARC
  5
260
330
1F
100
AcDbEntity
  8
LAY-10
  6
CONTINUOUS
 62
     7
100
AcDbCircle
 10
464.9999999999361
 20
553.9999999999663
 30
0.0
 40
4.000000000033422
100
AcDbArc
 50
14.47751218578304
 51
165.5224878141953
  0
LINE
  5
261
330
1F
100
AcDbEntity
  8
LAY-10
  6
CONTINUOUS
 62
     7
100
AcDbLine
 10
459.2991228744315
 20
547.9205978341815
 30
0.0
 11
461.1270166536945
 21
554.9999999999661
 31
0.0
  0
LINE
  5
262
330
1F
100
AcDbEntity
  8
LAY-10
  6
CONTINUOUS
 62
     7
100
AcDbLine
 10
545.3803458564327
 20
559.9999999999704
 30
0.0
 11
529.5311355535724
 21
559.9999999999704
 31
0.0
  0
ARC
  5
263
330
1F
100
AcDbEntity
  8
LAY-10
  6
CONTINUOUS
 62
     7
100
AcDbCircle
 10
487.8294021658032
 20
567.2038603840377
 30
0.0
 40
3.000000000000002
100
AcDbArc
 50
255.522487814188
 51
353.0172052678393
  0
ARC
  5
264
330
1F
100
AcDbEntity
  8
LAY-10
  6
CONTINUOUS
 62
     7
100
AcDbCircle
 10
464.9999999999911
 20
569.9999999999403
 30
0.0
 40
26.00000000000001
100
AcDbArc
 50
353.0172052678408
 51
6.982794731885693
  0
LINE
  5
265
330
1F
100
AcDbEntity
  8
LAY-10
  6
CONTINUOUS
 62
     7
100
AcDbLine
 10
480.0000000000261
 20
573.8729833461279
 30
0.0
 11
487.0794021658236
 21
575.7008771253912
 31
0.0
  0
ARC
  5
266
330
1F
100
AcDbEntity
  8
LAY-10
  6
CONTINUOUS
 62
     7
100
AcDbCircle
 10
487.8294021658163
 20
572.7961396157339
 30
0.0
 40
3.000000000000002
100
AcDbArc
 50
6.982794731880937
 51
104.4775121857852
  0
ARC
  5
267
330
1F
100
AcDbEntity
  8
LAY-10
  6
CONTINUOUS
 62
     7
100
AcDbCircle
 10
476.3137084989604
 20
558.6862915008928
 30
0.0
 40
4.000000000033422
100
AcDbArc
 50
59.47751218578985
 51
210.5224878141952
  0
LINE
  5
268
330
1F
100
AcDbEntity
  8
LAY-10
  6
CONTINUOUS
 62
     7
100
AcDbLine
 10
476.5813661217913
 20
550.3563761297504
 30
0.0
 11
472.8679889302236
 21
556.6547854945292
 31
0.0
  0
ARC
  5
269
330
1F
100
AcDbEntity
  8
LAY-10
  6
CONTINUOUS
 62
     7
100
AcDbCircle
 10
479.1656557983225
 20
551.8800056345107
 30
0.0
 40
3.000000000000002
100
AcDbArc
 50
210.5224878141864
 51
308.0172052678349
  0
ARC
  5
26A
330
1F
100
AcDbEntity
  8
LAY-10
  6
CONTINUOUS
 62
     7
100
AcDbCircle
 10
464.9999999999911
 20
569.9999999999403
 30
0.0
 40
26.00000000000001
100
AcDbArc
 50
308.0172052678408
 51
321.9827947318855
  0
LINE
  5
26B
330
1F
100
AcDbEntity
  8
LAY-10
  6
CONTINUOUS
 62
     7
100
AcDbLine
 10
478.3452145053258
 20
562.1320110696291
 30
0.0
 11
484.6436238701137
 21
558.4186338780527
 31
0.0
  0
ARC
  5
26C
330
1F
100
AcDbEntity
  8
LAY-10
  6
CONTINUOUS
 62
     7
100
AcDbCircle
 10
483.1199943653525
 20
555.8343442015225
 30
0.0
 40
3.000000000000002
100
AcDbArc
 50
321.982794731893
 51
59.47751218577954
  0
LINE
  5
26D
330
1F
100
AcDbEntity
  8
LAY-10
  6
CONTINUOUS
 62
     7
100
AcDbLine
 10
484.6436238701805
 20
581.5813661217408
 30
0.0
 11
478.3452145054018
 21
577.8679889301728
 31
0.0
  0
ARC
  5
26E
330
1F
100
AcDbEntity
  8
LAY-10
  6
CONTINUOUS
 62
     7
100
AcDbCircle
 10
483.1199943654203
 20
584.1656557982719
 30
0.0
 40
3.000000000000002
100
AcDbArc
 50
300.522487814201
 51
38.01720526784099
  0
ARC
  5
26F
330
1F
100
AcDbEntity
  8
LAY-10
  6
CONTINUOUS
 62
     7
100
AcDbCircle
 10
464.9999999999911
 20
569.9999999999403
 30
0.0
 40
26.00000000000001
100
AcDbArc
 50
38.0172052678418
 51
51.98279473188643
  0
ARC
  5
270
330
1F
100
AcDbEntity
  8
LAY-10
  6
CONTINUOUS
 62
     7
100
AcDbCircle
 10
479.1656557984085
 20
588.1199943653022
 30
0.0
 40
3.000000000000002
100
AcDbArc
 50
51.98279473188065
 51
149.4775121857918
  0
ARC
  5
271
330
1F
100
AcDbEntity
  8
LAY-10
  6
CONTINUOUS
 62
     7
100
AcDbCircle
 10
481.0000000000243
 20
569.999999999885
 30
0.0
 40
4.000000000033422
100
AcDbArc
 50
104.4775121857879
 51
255.5224878141919
  0
LINE
  5
272
330
1F
100
AcDbEntity
  8
LAY-10
  6
CONTINUOUS
 62
     7
100
AcDbLine
 10
487.0794021658091
 20
564.2991228743804
 30
0.0
 11
480.0000000000242
 21
566.1270166536435
 31
0.0
  0
ARC
  5
273
330
1F
100
AcDbEntity
  8
LAY-10
  6
CONTINUOUS
 62
     7
100
AcDbCircle
 10
476.3137084990382
 20
581.3137084989098
 30
0.0
 40
4.000000000033422
100
AcDbArc
 50
149.477512185784
 51
300.5224878141985
  0
LINE
  5
274
330
1F
100
AcDbEntity
  8
LAY-10
  6
CONTINUOUS
 62
     7
100
AcDbLine
 10
472.8679889303008
 20
583.3452145052738
 30
0.0
 11
476.5813661218783
 21
589.6436238700629
 31
0.0
  0
ARC
  5
275
330
1F
100
AcDbEntity
  8
LAY-10
  6
CONTINUOUS
 62
     7
100
AcDbCircle
 10
482.7965439231427
 20
609.9716920997703
 30
0.0
 40
5.745535714285732
100
AcDbArc
 50
328.4545202650299
 51
163.5454797349698
  0
ARC
  5
276
330
1F
100
AcDbEntity
  8
LAY-10
  6
CONTINUOUS
 62
     7
100
AcDbCircle
 10
479.046602673656
 20
601.5491861534434
 30
0.0
 40
4.534883720930464
100
AcDbArc
 50
163.5454797349709
 51
328.4545202650298
  0
LINE
  5
277
330
1F
100
AcDbEntity
  8
LAY-10
  6
CONTINUOUS
 62
     7
100
AcDbLine
 10
482.9113446398293
 20
599.1766474504378
 30
0.0
 11
487.6930339677848
 21
606.9657702965875
 31
0.0
  0
LINE
  5
278
330
1F
100
AcDbEntity
  8
LAY-10
  6
CONTINUOUS
 62
     7
100
AcDbLine
 10
474.6974456780264
 20
602.8337108864586
 30
0.0
 11
477.2863173367156
 21
611.5991390606171
 31
0.0
  0
ARC
  5
279
330
1F
100
AcDbEntity
  8
LAY-10
  6
CONTINUOUS
 62
     7
100
AcDbCircle
 10
497.515903725455
 20
599.2774512183775
 30
0.0
 40
5.745535714285732
100
AcDbArc
 50
304.4545202650325
 51
139.5454797349664
  0
ARC
  5
27A
330
1F
100
AcDbEntity
  8
LAY-10
  6
CONTINUOUS
 62
     7
100
AcDbCircle
 10
490.6644201356655
 20
593.1083476846903
 30
0.0
 40
4.534883720930464
100
AcDbArc
 50
139.5454797349771
 51
304.4545202650312
  0
LINE
  5
27B
330
1F
100
AcDbEntity
  8
LAY-10
  6
CONTINUOUS
 62
     7
100
AcDbLine
 10
493.2300391761958
 20
589.368993555803
 30
0.0
 11
500.7664514205559
 21
594.539823085439
 31
0.0
  0
LINE
  5
27C
330
1F
100
AcDbEntity
  8
LAY-10
  6
CONTINUOUS
 62
     7
100
AcDbLine
 10
487.2137307955878
 20
596.050780936378
 30
0.0
 11
493.1440035704825
 21
603.0054090613636
 31
0.0
  0
ARC
  5
27D
330
1F
100
AcDbEntity
  8
LAY-10
  6
CONTINUOUS
 62
     7
100
AcDbCircle
 10
506.6129683759234
 20
583.5208730440279
 30
0.0
 40
5.745535714285732
100
AcDbArc
 50
280.4545202650313
 51
115.5454797349686
  0
LINE
  5
27E
330
1F
100
AcDbEntity
  8
LAY-10
  6
CONTINUOUS
 62
     7
100
AcDbLine
 10
498.6675034771417
 20
576.2122647135819
 30
0.0
 11
507.6555244947006
 21
577.8707175255191
 31
0.0
  0
ARC
  5
27F
330
1F
100
AcDbEntity
  8
LAY-10
  6
CONTINUOUS
 62
     7
100
AcDbCircle
 10
508.5147727522433
 20
565.4264130870852
 30
0.0
 40
5.745535714285732
100
AcDbArc
 50
256.4545202650324
 51
91.54547973497102
  0
ARC
  5
280
330
1F
100
AcDbEntity
  8
LAY-10
  6
CONTINUOUS
 62
     7
100
AcDbCircle
 10
499.3456980144558
 20
566.390121675494
 30
0.0
 40
4.534883720930464
100
AcDbArc
 50
91.545479734974
 51
256.4545202650301
  0
LINE
  5
281
330
1F
100
AcDbEntity
  8
LAY-10
  6
CONTINUOUS
 62
     7
100
AcDbLine
 10
498.2835505672211
 20
561.9813788657244
 30
0.0
 11
507.1690698704354
 21
559.8406934022078
 31
0.0
  0
LINE
  5
282
330
1F
100
AcDbEntity
  8
LAY-10
  6
CONTINUOUS
 62
     7
100
AcDbLine
 10
499.2233902092777
 20
570.9233557487747
 30
0.0
 11
508.3598131312189
 21
571.1698587567146
 31
0.0
  0
ARC
  5
283
330
1F
100
AcDbEntity
  8
LAY-10
  6
CONTINUOUS
 62
     7
100
AcDbCircle
 10
502.8924776003989
 20
548.1227678571129
 30
0.0
 40
5.745535714285732
100
AcDbArc
 50
232.4545202650309
 51
67.54547973497193
  0
ARC
  5
284
330
1F
100
AcDbEntity
  8
LAY-10
  6
CONTINUOUS
 62
     7
100
AcDbCircle
 10
494.9080866190599
 20
552.732558139504
 30
0.0
 40
4.534883720930464
100
AcDbArc
 50
67.54547973497148
 51
232.4545202650277
  0
LINE
  5
285
330
1F
100
AcDbEntity
  8
LAY-10
  6
CONTINUOUS
 62
     7
100
AcDbLine
 10
492.1445693926622
 20
549.1369854588642
 30
0.0
 11
499.3911999715971
 21
543.5673056840525
 31
0.0
  0
LINE
  5
286
330
1F
100
AcDbEntity
  8
LAY-10
  6
CONTINUOUS
 62
     7
100
AcDbLine
 10
496.6401852884484
 20
556.9236206016802
 30
0.0
 11
505.0869847538472
 21
553.4326943158878
 31
0.0
  0
ARC
  5
287
330
1F
100
AcDbEntity
  8
LAY-10
  6
CONTINUOUS
 62
     7
100
AcDbCircle
 10
490.7182288290917
 20
534.6018948130553
 30
0.0
 40
5.745535714285732
100
AcDbArc
 50
208.4545202650315
 51
43.54547973497125
  0
ARC
  5
288
330
1F
100
AcDbEntity
  8
LAY-10
  6
CONTINUOUS
 62
     7
100
AcDbCircle
 10
485.2990953407904
 20
542.0606921709731
 30
0.0
 40
4.534883720930464
100
AcDbArc
 50
43.54547973497365
 51
208.4545202650339
  0
LINE
  5
289
330
1F
100
AcDbEntity
  8
LAY-10
  6
CONTINUOUS
 62
     7
100
AcDbLine
 10
481.312045569439
 20
539.899996800698
 30
0.0
 11
485.6667791634247
 21
531.8643709466087
 31
0.0
  0
LINE
  5
28A
330
1F
100
AcDbEntity
  8
LAY-10
  6
CONTINUOUS
 62
     7
100
AcDbLine
 10
488.5861048891858
 20
545.1849102477275
 30
0.0
 11
494.8827525337102
 21
538.5601675370858
 31
0.0
  0
LINE
  5
28B
330
1F
100
AcDbEntity
  8
LAY-10
  6
CONTINUOUS
 62
     7
100
AcDbLine
 10
476.4537726815448
 20
537.7369543499507
 30
0.0
 11
479.5115209242092
 21
529.1238734130278
 31
0.0
  0
LINE
  5
28C
330
1F
100
AcDbEntity
  8
LAY-10
  6
CONTINUOUS
 62
     7
100
AcDbLine
 10
467.6590208769541
 20
535.8675721455809
 30
0.0
 11
468.3688844861668
 21
526.7554329237618
 31
0.0
  0
ARC
  5
28D
330
1F
100
AcDbEntity
  8
LAY-10
  6
CONTINUOUS
 62
     7
100
AcDbCircle
 10
474.097064650459
 20
527.2016757375054
 30
0.0
 40
5.745535714285732
100
AcDbArc
 50
184.4545202655901
 51
19.54547973496776
  0
ARC
  5
28E
330
1F
100
AcDbEntity
  8
LAY-10
  6
CONTINUOUS
 62
     7
100
AcDbCircle
 10
472.1802060666048
 20
536.2197863467192
 30
0.0
 40
4.534883720930464
100
AcDbArc
 50
19.54547973496896
 51
184.45452026559
  0
ARC
  5
28F
330
1F
100
AcDbEntity
  8
LAY-10
  6
CONTINUOUS
 62
     7
100
AcDbCircle
 10
432.155373797703
 20
580.6718659685012
 30
0.0
 40
4.534883720930464
100
AcDbArc
 50
259.5454797349689
 51
64.45452026503284
  0
LINE
  5
290
330
1F
100
AcDbEntity
  8
LAY-10
  6
CONTINUOUS
 62
     7
100
AcDbLine
 10
434.110939946792
 20
584.7634342984815
 30
0.0
 11
425.8646640933168
 21
588.7047439906671
 31
0.0
  0
ARC
  5
291
330
1F
100
AcDbEntity
  8
LAY-10
  6
CONTINUOUS
 62
     7
100
AcDbCircle
 10
497.8446262022791
 20
580.6718659685012
 30
0.0
 40
4.534883720930464
100
AcDbArc
 50
115.5454797349698
 51
280.4545202650334
  0
LINE
  5
292
330
1F
100
AcDbEntity
  8
LAY-10
  6
CONTINUOUS
 62
     7
100
AcDbLine
 10
495.8890600531901
 20
584.7634342984815
 30
0.0
 11
504.1353359066654
 21
588.7047439906671
 31
0.0
  0
LINE
  5
293
330
1F
100
AcDbEntity
  8
LAY-10
  6
CONTINUOUS
 62
     7
100
AcDbLine
 10
442.8082756225446
 20
508.5850602459481
 30
0.0
 11
446.2989094986753
 21
517.0121958910216
 31
0.0
  0
ARC
  5
294
330
1F
100
AcDbEntity
  8
LAY-10
  6
CONTINUOUS
 62
     7
100
AcDbCircle
 10
464.999999999992
 20
569.9999999999706
 30
0.0
 40
56.19108621682528
100
AcDbArc
 50
250.5604338398611
 51
259.4395661603317
  0
LINE
  5
295
330
1F
100
AcDbEntity
  8
LAY-10
  6
CONTINUOUS
 62
     7
100
AcDbLine
 10
453.5111271878479
 20
505.7172398123338
 30
0.0
 11
454.7017173983146
 21
514.760670300175
 31
0.0
  0
LINE
  5
296
330
1F
100
AcDbEntity
  8
LAY-10
  6
CONTINUOUS
 62
     7
100
AcDbLine
 10
459.459796356092
 20
504.9340826590238
 30
0.0
 11
460.6503865665587
 21
513.9775131468643
 31
0.0
  0
ARC
  5
297
330
1F
100
AcDbEntity
  8
LAY-10
  6
CONTINUOUS
 62
     7
100
AcDbCircle
 10
464.999999999992
 20
569.9999999999706
 30
0.0
 40
56.19108621682528
100
AcDbArc
 50
265.5604338398616
 51
274.4395661603314
  0
LINE
  5
298
330
1F
100
AcDbEntity
  8
LAY-10
  6
CONTINUOUS
 62
     7
100
AcDbLine
 10
470.5402036441102
 20
504.9340826590422
 30
0.0
 11
469.349613433613
 21
513.977513146879
 31
0.0
  0
LINE
  5
299
330
1F
100
AcDbEntity
  8
LAY-10
  6
CONTINUOUS
 62
     7
100
AcDbLine
 10
487.1917243774375
 20
508.5850602459481
 30
0.0
 11
483.7010905013068
 21
517.0121958910216
 31
0.0
  0
ARC
  5
29A
330
1F
100
AcDbEntity
  8
LAY-10
  6
CONTINUOUS
 62
     7
100
AcDbCircle
 10
464.9999999999901
 20
569.9999999999706
 30
0.0
 40
56.19108621682528
100
AcDbArc
 50
280.5604338396686
 51
289.4395661601396
  0
LINE
  5
29B
330
1F
100
AcDbEntity
  8
LAY-10
  6
CONTINUOUS
 62
     7
100
AcDbLine
 10
476.4888728121342
 20
505.7172398123338
 30
0.0
 11
475.2982826016675
 21
514.760670300175
 31
0.0
  0
LINE
  5
29C
330
1F
100
AcDbEntity
  8
LAY-10
  6
CONTINUOUS
 62
     7
100
AcDbLine
 10
545.3803458564182
 20
579.9999999999703
 30
0.0
 11
529.531135553573
 21
579.9999999999703
 31
0.0
  0
LINE
  5
29D
330
1F
100
AcDbEntity
  8
LAY-10
  6
CONTINUOUS
 62
     7
100
AcDbLine
 10
384.6196541435494
 20
579.9999999999703
 30
0.0
 11
400.4688644464092
 21
579.9999999999703
 31
0.0
  0
CIRCLE
  5
29E
330
1F
100
AcDbEntity
  8
LAY-10
  6
CONTINUOUS
 62
     7
100
AcDbCircle
 10
387.9999999999923
 20
569.9999999999699
 30
0.0
 40
5.250000000000004
  0
LINE
  5
29F
330
1F
100
AcDbEntity
  8
LAY-10
  6
CONTINUOUS
 62
     7
100
AcDbLine
 10
391.9633927678548
 20
573.4429664197393
 30
0.0
 11
383.0366072321615
 21
568.2890843877186
 31
0.0
  0
LINE
  5
2A0
330
1F
100
AcDbEntity
  8
LAY-10
  6
CONTINUOUS
 62
     7
100
AcDbLine
 10
392.9633927678524
 20
571.7109156121376
 30
0.0
 11
384.0366072321885
 21
566.557033580134
 31
0.0
  0
CIRCLE
  5
2A1
330
1F
100
AcDbEntity
  8
LAY-10
  6
CONTINUOUS
 62
     7
100
AcDbCircle
 10
541.9999999999923
 20
569.9999999999699
 30
0.0
 40
5.250000000000004
  0
LINE
  5
2A2
330
1F
100
AcDbEntity
  8
LAY-10
  6
CONTINUOUS
 62
     7
100
AcDbLine
 10
545.9633927678548
 20
573.4429664197393
 30
0.0
 11
537.0366072321615
 21
568.2890843877186
 31
0.0
  0
LINE
  5
2A3
330
1F
100
AcDbEntity
  8
LAY-10
  6
CONTINUOUS
 62
     7
100
AcDbLine
 10
546.9633927678524
 20
571.7109156121376
 30
0.0
 11
538.0366072321885
 21
566.557033580134
 31
0.0
  0
LINE
  5
2A4
330
1F
100
AcDbEntity
  8
LAY-10
  6
CONTINUOUS
 62
     7
100
AcDbLine
 10
384.5996323728092
 20
573.9999999999707
 30
0.0
 11
384.0988257192604
 21
573.9999999999707
 31
0.0
  0
LINE
  5
2A5
330
1F
100
AcDbEntity
  8
LAY-10
  6
CONTINUOUS
 62
     7
100
AcDbLine
 10
384.5996323728075
 20
565.9999999999706
 30
0.0
 11
384.0988257192604
 21
565.9999999999706
 31
0.0
  0
ARC
  5
2A6
330
1F
100
AcDbEntity
  8
LAY-10
  6
CONTINUOUS
 62
     7
100
AcDbCircle
 10
389.4999999999938
 20
569.9999999999706
 30
0.0
 40
4.0
100
AcDbArc
 50
320.8995693449532
 51
39.10043065504916
  0
ARC
  5
2A7
330
1F
100
AcDbEntity
  8
LAY-10
  6
CONTINUOUS
 62
     7
100
AcDbCircle
 10
540.4999999999883
 20
569.9999999999706
 30
0.0
 40
4.0
100
AcDbArc
 50
140.8995693447957
 51
219.1004306552066
  0
LINE
  5
2A8
330
1F
100
AcDbEntity
  8
LAY-10
  6
CONTINUOUS
 62
     7
100
AcDbLine
 10
545.400367627177
 20
565.9999999999706
 30
0.0
 11
545.9011742807216
 21
565.9999999999706
 31
0.0
  0
LINE
  5
2A9
330
1F
100
AcDbEntity
  8
LAY-10
  6
CONTINUOUS
 62
     7
100
AcDbLine
 10
545.4003676271751
 20
573.9999999999707
 30
0.0
 11
545.9011742807216
 21
573.9999999999707
 31
0.0
  0
LINE
  5
2AA
330
1F
100
AcDbEntity
  8
LAY-10
  6
CONTINUOUS
 62
     7
100
AcDbLine
 10
359.999999999999
 20
270.9999999999853
 30
0.0
 11
360.9999999999991
 21
277.9999999999853
 31
0.0
  0
ARC
  5
2AB
330
1F
100
AcDbEntity
  8
LAY-10
  6
CONTINUOUS
 62
     7
100
AcDbCircle
 10
366.1671379032158
 20
271.7435584513203
 30
0.0
 40
2.0
100
AcDbArc
 50
74.99999999999885
 51
171.8698976458466
  0
LINE
  5
2AC
330
1F
100
AcDbEntity
  8
LAY-10
  6
CONTINUOUS
 62
     7
100
AcDbLine
 10
364.0406101782064
 20
270.9999999999853
 30
0.0
 11
364.1872389158935
 21
272.0264011637948
 31
0.0
  0
LINE
  5
2AD
330
1F
100
AcDbEntity
  8
LAY-10
  6
CONTINUOUS
 62
     7
100
AcDbLine
 10
569.999999999999
 20
270.9999999999853
 30
0.0
 11
568.9999999999989
 21
277.9999999999853
 31
0.0
  0
LINE
  5
2AE
330
1F
100
AcDbEntity
  8
LAY-10
  6
CONTINUOUS
 62
     7
100
AcDbLine
 10
565.3829042496803
 20
259.9999999999853
 30
0.0
 11
565.9593898217939
 21
270.9999999999853
 31
0.0
  0
LINE
  5
2AF
330
1F
100
AcDbEntity
  8
LAY-10
  6
CONTINUOUS
 62
     7
100
AcDbLine
 10
569.999999999999
 20
270.9999999999853
 30
0.0
 11
565.9593898217939
 21
270.9999999999853
 31
0.0
  0
LINE
  5
2B0
330
1F
100
AcDbEntity
  8
LAY-10
  6
CONTINUOUS
 62
     7
100
AcDbLine
 10
555.7558221311932
 20
275.7909791977667
 30
0.0
 11
564.0000000000498
 21
277.9999999999853
 31
0.0
  0
LINE
  5
2B1
330
1F
100
AcDbEntity
  8
LAY-10
  6
CONTINUOUS
 62
     7
100
AcDbLine
 10
374.2441778688048
 20
275.7909791977667
 30
0.0
 11
365.9999999999482
 21
277.9999999999853
 31
0.0
  0
LINE
  5
2B2
330
1F
100
AcDbEntity
  8
LAY-10
  6
CONTINUOUS
 62
     7
100
AcDbLine
 10
417.9999999999977
 20
212.9999999999853
 30
0.0
 11
511.9999999999998
 21
212.9999999999853
 31
0.0
  0
LINE
  5
2B3
330
1F
100
AcDbEntity
  8
LAY-10
  6
CONTINUOUS
 62
     7
100
AcDbLine
 10
511.9999999999998
 20
212.9999999999853
 30
0.0
 11
513.4669320486876
 21
252.1181879650258
 31
0.0
  0
LINE
  5
2B4
330
1F
100
AcDbEntity
  8
LAY-10
  6
CONTINUOUS
 62
     7
100
AcDbLine
 10
507.9971884880745
 20
212.9999999999853
 30
0.0
 11
509.4697415858512
 21
252.2680826073834
 31
0.0
  0
LINE
  5
2B5
330
1F
100
AcDbEntity
  8
LAY-10
  6
CONTINUOUS
 62
     7
100
AcDbLine
 10
546.6753572785985
 20
255.9024676702826
 30
0.0
 11
530.8802580792488
 21
254.520575551072
 31
0.0
  0
ARC
  5
2B6
330
1F
100
AcDbEntity
  8
LAY-10
  6
CONTINUOUS
 62
     7
100
AcDbCircle
 10
514.4662296643968
 20
252.0807143044368
 30
0.0
 40
1.0
100
AcDbArc
 50
94.99999999999979
 51
177.8524145717037
  0
ARC
  5
2B7
330
1F
100
AcDbEntity
  8
LAY-10
  6
CONTINUOUS
 62
     7
100
AcDbCircle
 10
514.4662296643971
 20
252.080714304438
 30
0.0
 40
5.0
100
AcDbArc
 50
94.99999999999852
 51
177.8524145717023
  0
ARC
  5
2B8
330
1F
100
AcDbEntity
  8
LAY-10
  6
CONTINUOUS
 62
     7
100
AcDbCircle
 10
415.5337703356013
 20
252.0807143044368
 30
0.0
 40
1.0
100
AcDbArc
 50
2.147585428296413
 51
85.00000000000028
  0
ARC
  5
2B9
330
1F
100
AcDbEntity
  8
LAY-10
  6
CONTINUOUS
 62
     7
100
AcDbCircle
 10
415.5337703356008
 20
252.080714304438
 30
0.0
 40
5.0
100
AcDbArc
 50
2.147585428297731
 51
84.9999999999996
  0
LINE
  5
2BA
330
1F
100
AcDbEntity
  8
LAY-10
  6
CONTINUOUS
 62
     7
100
AcDbLine
 10
383.3246427213994
 20
255.9024676702826
 30
0.0
 11
415.620926078349
 21
253.0769090025285
 31
0.0
  0
ARC
  5
2BB
330
1F
100
AcDbEntity
  8
LAY-10
  6
CONTINUOUS
 62
     7
100
AcDbCircle
 10
383.8475771778853
 20
261.8796358588331
 30
0.0
 40
6.000000000000004
100
AcDbArc
 50
182.9999999999975
 51
265.0000000000003
  0
LINE
  5
2BC
330
1F
100
AcDbEntity
  8
LAY-10
  6
CONTINUOUS
 62
     7
100
AcDbLine
 10
420.3649186575922
 20
256.6771427821683
 30
0.0
 11
509.6350813424054
 21
256.6771427821683
 31
0.0
  0
LINE
  5
2BD
330
1F
100
AcDbEntity
  8
LAY-10
  6
CONTINUOUS
 62
     7
100
AcDbLine
 10
525.2551086741597
 20
247.9476640437263
 30
0.0
 11
525.062867372233
 21
252.9727671682535
 31
0.0
  0
LINE
  5
2BE
330
1F
100
AcDbEntity
  8
LAY-10
  6
CONTINUOUS
 62
     7
100
AcDbLine
 10
529.7448913258336
 20
247.9476640437264
 30
0.0
 11
529.9687842872418
 21
253.5767168092231
 31
0.0
  0
LINE
  5
2BF
330
1F
100
AcDbEntity
  8
LAY-10
  6
CONTINUOUS
 62
     7
100
AcDbLine
 10
523.9770820947307
 20
253.9166259101024
 30
0.0
 11
514.3790739216491
 21
253.0769090025285
 31
0.0
  0
ARC
  5
2C0
330
1F
100
AcDbEntity
  8
LAY-10
  6
CONTINUOUS
 62
     7
100
AcDbCircle
 10
374.7618159590101
 20
277.7228308503447
 30
0.0
 40
2.0
100
AcDbArc
 50
254.9999999999989
 51
339.5341701770186
  0
ARC
  5
2C1
330
1F
100
AcDbEntity
  8
LAY-10
  6
CONTINUOUS
 62
     7
100
AcDbCircle
 10
380.0510354333035
 20
276.9999999999853
 30
0.0
 40
1.0
100
AcDbArc
 50
2.99999999999909
 51
90.0
  0
LINE
  5
2C2
330
1F
100
AcDbEntity
  8
LAY-10
  6
CONTINUOUS
 62
     7
100
AcDbLine
 10
376.6355777191578
 20
277.0235334413634
 30
0.0
 11
376.7572855922579
 21
277.349648704476
 31
0.0
  0
ARC
  5
2C3
330
1F
100
AcDbEntity
  8
LAY-10
  6
CONTINUOUS
 62
     7
100
AcDbCircle
 10
377.6941664723316
 20
276.9999999999853
 30
0.0
 40
1.0
100
AcDbArc
 50
90.0
 51
159.5341701770154
  0
ARC
  5
2C4
330
1F
100
AcDbEntity
  8
LAY-10
  6
CONTINUOUS
 62
     7
100
AcDbCircle
 10
549.9489645666948
 20
276.9999999999853
 30
0.0
 40
1.0
100
AcDbArc
 50
90.0
 51
177.0000000000076
  0
ARC
  5
2C5
330
1F
100
AcDbEntity
  8
LAY-10
  6
CONTINUOUS
 62
     7
100
AcDbCircle
 10
555.2381840409882
 20
277.7228308503447
 30
0.0
 40
2.0
100
AcDbArc
 50
200.4658298229825
 51
284.999999999998
  0
LINE
  5
2C6
330
1F
100
AcDbEntity
  8
LAY-10
  6
CONTINUOUS
 62
     7
100
AcDbLine
 10
553.3644222808406
 20
277.0235334413634
 30
0.0
 11
553.2427144077404
 21
277.3496487044759
 31
0.0
  0
ARC
  5
2C7
330
1F
100
AcDbEntity
  8
LAY-10
  6
CONTINUOUS
 62
     7
100
AcDbCircle
 10
552.3058335276663
 20
276.9999999999853
 30
0.0
 40
1.0
100
AcDbArc
 50
20.46582982297632
 51
90.0
  0
ARC
  5
2C8
330
1F
100
AcDbEntity
  8
LAY-10
  6
CONTINUOUS
 62
     7
100
AcDbCircle
 10
524.0642378374785
 20
252.9204312120106
 30
0.0
 40
1.0
100
AcDbArc
 50
3.000000000002184
 51
95.00000000000642
  0
ARC
  5
2C9
330
1F
100
AcDbEntity
  8
LAY-10
  6
CONTINUOUS
 62
     7
100
AcDbCircle
 10
530.9674138219965
 20
253.5243808529802
 30
0.0
 40
1.0
100
AcDbArc
 50
94.99999999999979
 51
177.0000000000044
  0
ARC
  5
2CA
330
1F
100
AcDbEntity
  8
LAY-10
  6
CONTINUOUS
 62
     7
100
AcDbCircle
 10
526.2537382089142
 20
247.9999999999692
 30
0.0
 40
1.0
100
AcDbArc
 50
182.9999999999989
 51
270.0
  0
ARC
  5
2CB
330
1F
100
AcDbEntity
  8
LAY-10
  6
CONTINUOUS
 62
     7
100
AcDbCircle
 10
528.7462617910788
 20
247.9999999999692
 30
0.0
 40
1.0
100
AcDbArc
 50
270.0
 51
357.0000000000076
  0
ARC
  5
2CC
330
1F
100
AcDbEntity
  8
LAY-10
  6
CONTINUOUS
 62
     7
100
AcDbCircle
 10
546.1524228221126
 20
261.8796358588331
 30
0.0
 40
6.000000000000004
100
AcDbArc
 50
274.9999999999998
 51
341.7434337109818
  0
LINE
  5
2CD
330
1F
100
AcDbEntity
  8
LAY-10
  6
CONTINUOUS
 62
     7
100
AcDbLine
 10
377.4472670379857
 20
269.3608928263762
 30
0.0
 11
377.85579996936
 21
261.5656201213759
 31
0.0
  0
LINE
  5
2CE
330
1F
100
AcDbEntity
  8
LAY-10
  6
CONTINUOUS
 62
     7
100
AcDbLine
 10
366.6847759934209
 20
273.6754101038983
 30
0.0
 11
375.9676460586816
 21
271.1880725664685
 31
0.0
  0
ARC
  5
2CF
330
1F
100
AcDbEntity
  8
LAY-10
  6
CONTINUOUS
 62
     7
100
AcDbCircle
 10
375.4500079684765
 20
269.2562209138904
 30
0.0
 40
2.0
100
AcDbArc
 50
2.999999999997486
 51
74.99999999999885
  0
LINE
  5
2D0
330
1F
100
AcDbEntity
  8
LAY-10
  6
CONTINUOUS
 62
     7
100
AcDbLine
 10
359.999999999999
 20
270.9999999999853
 30
0.0
 11
376.4294131445389
 21
270.9999999999853
 31
0.0
  0
LINE
  5
2D1
330
1F
100
AcDbEntity
  8
LAY-10
  6
CONTINUOUS
 62
     7
100
AcDbLine
 10
394.5799952545449
 20
258.9330312698182
 30
0.0
 11
394.0000000000023
 21
269.9999999999852
 31
0.0
  0
LINE
  5
2D2
330
1F
100
AcDbEntity
  8
LAY-10
  6
CONTINUOUS
 62
     7
100
AcDbLine
 10
394.5799952545489
 20
258.9330312698189
 30
0.0
 11
415.9695490493392
 21
257.0616877948968
 31
0.0
  0
LINE
  5
2D3
330
1F
100
AcDbEntity
  8
LAY-10
  6
CONTINUOUS
 62
     7
100
AcDbLine
 10
537.4292171583065
 20
259.1088145785602
 30
0.0
 11
538.0000000000031
 21
269.9999999999853
 31
0.0
  0
LINE
  5
2D4
330
1F
100
AcDbEntity
  8
LAY-10
  6
CONTINUOUS
 62
     7
100
AcDbLine
 10
537.4292171583091
 20
259.1088145785597
 30
0.0
 11
514.030450950659
 21
257.0616877948968
 31
0.0
  0
LINE
  5
2D5
330
1F
100
AcDbEntity
  8
LAY-10
  6
CONTINUOUS
 62
     7
100
AcDbLine
 10
460.4501745933144
 20
259.5087062606501
 30
0.0
 11
460.9999999999988
 21
269.9999999999854
 31
0.0
  0
LINE
  5
2D6
330
1F
100
AcDbEntity
  8
LAY-10
  6
CONTINUOUS
 62
     7
100
AcDbLine
 10
471.5498254066836
 20
259.5087062606501
 30
0.0
 11
470.9999999999993
 21
269.9999999999854
 31
0.0
  0
ARC
  5
2D7
330
1F
100
AcDbEntity
  8
LAY-10
  6
CONTINUOUS
 62
     7
100
AcDbCircle
 10
464.999999999994
 20
296.4816613490909
 30
0.0
 40
37.54863007927072
100
AcDbArc
 50
270.0
 51
280.045826959191
  0
ARC
  5
2D8
330
1F
100
AcDbEntity
  8
LAY-10
  6
CONTINUOUS
 62
     7
100
AcDbCircle
 10
464.999999999999
 20
285.1919084799475
 30
0.0
 40
26.08309390138739
100
AcDbArc
 50
259.9541730407838
 51
270.0
  0
LINE
  5
2D9
330
1F
100
AcDbEntity
  8
LAY-10
  6
CONTINUOUS
 62
     7
100
AcDbLine
 10
471.5220457794389
 20
260.0387731252401
 30
0.0
 11
537.4779542205633
 21
260.0387731252401
 31
0.0
  0
LINE
  5
2DA
330
1F
100
AcDbEntity
  8
LAY-10
  6
CONTINUOUS
 62
     7
100
AcDbLine
 10
394.522045779442
 20
260.0387731252401
 30
0.0
 11
460.4779542205591
 21
260.0387731252401
 31
0.0
  0
LINE
  5
2DB
330
1F
100
AcDbEntity
  8
LAY-10
  6
CONTINUOUS
 62
     7
100
AcDbLine
 10
526.253738208919
 20
246.99999999997
 30
0.0
 11
528.7462617910788
 21
246.99999999997
 31
0.0
  0
LINE
  5
2DC
330
1F
100
AcDbEntity
  8
LAY-10
  6
CONTINUOUS
 62
     7
100
AcDbLine
 10
394.9999999999991
 20
197.9999999999853
 30
0.0
 11
534.9999999999991
 21
197.9999999999853
 31
0.0
  0
LINE
  5
2DD
330
1F
100
AcDbEntity
  8
LAY-10
  6
CONTINUOUS
 62
     7
100
AcDbLine
 10
530.4999999999991
 20
197.9999999999853
 30
0.0
 11
530.4999999999991
 21
254.4084194941073
 31
0.0
  0
LINE
  5
2DE
330
1F
100
AcDbEntity
  8
LAY-10
  6
CONTINUOUS
 62
     7
100
AcDbLine
 10
534.9999999999991
 20
254.40841949411
 30
0.0
 11
534.9999999999991
 21
197.9999999999853
 31
0.0
  0
LINE
  5
2DF
330
1F
100
AcDbEntity
  8
LAY-10
  6
CONTINUOUS
 62
     7
100
AcDbLine
 10
399.4999999999991
 20
197.9999999999853
 30
0.0
 11
399.4999999999991
 21
254.40841949411
 31
0.0
  0
LINE
  5
2E0
330
1F
100
AcDbEntity
  8
LAY-10
  6
CONTINUOUS
 62
     7
100
AcDbLine
 10
394.9999999999991
 20
254.40841949411
 30
0.0
 11
394.9999999999991
 21
197.9999999999853
 31
0.0
  0
LINE
  5
2E1
330
1F
100
AcDbEntity
  8
LAY-10
  6
CONTINUOUS
 62
     7
100
AcDbLine
 10
400.4016915178967
 20
254.40841949411
 30
0.0
 11
394.9999999999991
 21
254.40841949411
 31
0.0
  0
LINE
  5
2E2
330
1F
100
AcDbEntity
  8
LAY-10
  6
CONTINUOUS
 62
     7
100
AcDbLine
 10
534.9999999999991
 20
254.40841949411
 30
0.0
 11
530.5000000000042
 21
254.40841949411
 31
0.0
  0
LINE
  5
2E3
330
1F
100
AcDbEntity
  8
LAY-10
  6
CONTINUOUS
 62
     7
100
AcDbLine
 10
417.9999999999977
 20
212.9999999999853
 30
0.0
 11
416.5330679513098
 21
252.1181879650258
 31
0.0
  0
LINE
  5
2E4
330
1F
100
AcDbEntity
  8
LAY-10
  6
CONTINUOUS
 62
     7
100
AcDbLine
 10
422.0028115119231
 20
212.9999999999853
 30
0.0
 11
420.5302584141466
 21
252.2680826073833
 31
0.0
  0
ARC
  5
2E5
330
1F
100
AcDbEntity
  8
LAY-10
  6
CONTINUOUS
 62
     7
100
AcDbCircle
 10
381.4422719702965
 20
276.9999999999852
 30
0.0
 40
1.0
100
AcDbArc
 50
5.529636333246511
 51
90.0
  0
LINE
  5
2E6
330
1F
100
AcDbEntity
  8
LAY-10
  6
CONTINUOUS
 62
     7
100
AcDbLine
 10
410.1932315556277
 20
274.7729605716645
 30
0.0
 11
410.5094652430068
 21
276.8494429599743
 31
0.0
  0
ARC
  5
2E7
330
1F
100
AcDbEntity
  8
LAY-10
  6
CONTINUOUS
 62
     7
100
AcDbCircle
 10
435.8839937295957
 20
276.9999999999852
 30
0.0
 40
1.0
100
AcDbArc
 50
13.98792148729277
 51
90.0
  0
ARC
  5
2E8
330
1F
100
AcDbEntity
  8
LAY-10
  6
CONTINUOUS
 62
     7
100
AcDbCircle
 10
449.5395902041001
 20
277.6132492959084
 30
0.0
 40
0.386750704082061
100
AcDbArc
 50
350.0614634802103
 51
156.5644310923168
  0
LINE
  5
2E9
330
1F
100
AcDbEntity
  8
LAY-10
  6
CONTINUOUS
 62
     7
100
AcDbLine
 10
448.3852940666102
 20
275.9227905245068
 30
0.0
 11
449.1847433771568
 21
277.7670668388359
 31
0.0
  0
ARC
  5
2EA
330
1F
100
AcDbEntity
  8
LAY-10
  6
CONTINUOUS
 62
     7
100
AcDbCircle
 10
447.4677861650015
 20
276.3205080756478
 30
0.0
 40
1.0
100
AcDbArc
 50
270.0
 51
336.5644310923051
  0
LINE
  5
2EB
330
1F
100
AcDbEntity
  8
LAY-10
  6
CONTINUOUS
 62
     7
100
AcDbLine
 10
449.4306936867176
 20
274.7509259764873
 30
0.0
 11
449.920537120469
 21
277.5464993594816
 31
0.0
  0
ARC
  5
2EC
330
1F
100
AcDbEntity
  8
LAY-10
  6
CONTINUOUS
 62
     7
100
AcDbCircle
 10
494.1160062704042
 20
276.9999999999852
 30
0.0
 40
1.0
100
AcDbArc
 50
90.0
 51
166.0120785127073
  0
ARC
  5
2ED
330
1F
100
AcDbEntity
  8
LAY-10
  6
CONTINUOUS
 62
     7
100
AcDbCircle
 10
480.4604097958997
 20
277.6132492959084
 30
0.0
 40
0.386750704082061
100
AcDbArc
 50
23.43556890766447
 51
189.93853651978
  0
LINE
  5
2EE
330
1F
100
AcDbEntity
  8
LAY-10
  6
CONTINUOUS
 62
     7
100
AcDbLine
 10
481.6147059333896
 20
275.9227905245069
 30
0.0
 11
480.8152566228432
 21
277.7670668388359
 31
0.0
  0
ARC
  5
2EF
330
1F
100
AcDbEntity
  8
LAY-10
  6
CONTINUOUS
 62
     7
100
AcDbCircle
 10
482.5322138349988
 20
276.3205080756478
 30
0.0
 40
1.0
100
AcDbArc
 50
203.4355689076792
 51
270.0
  0
LINE
  5
2F0
330
1F
100
AcDbEntity
  8
LAY-10
  6
CONTINUOUS
 62
     7
100
AcDbLine
 10
480.5693063132825
 20
274.7509259764875
 30
0.0
 11
480.0794628795309
 21
277.5464993594815
 31
0.0
  0
ARC
  5
2F1
330
1F
100
AcDbEntity
  8
LAY-10
  6
CONTINUOUS
 62
     7
100
AcDbCircle
 10
548.5577280297033
 20
276.9999999999852
 30
0.0
 40
1.0
100
AcDbArc
 50
90.0
 51
174.4703636667532
  0
ARC
  5
2F2
330
1F
100
AcDbEntity
  8
LAY-10
  6
CONTINUOUS
 62
     7
100
AcDbCircle
 10
547.107173632155
 20
276.9999999999852
 30
0.0
 40
1.0
100
AcDbArc
 50
42.66963398004646
 51
90.0
  0
ARC
  5
2F3
330
1F
100
AcDbEntity
  8
LAY-10
  6
CONTINUOUS
 62
     7
100
AcDbCircle
 10
545.1094271154251
 20
276.9999999999852
 30
0.0
 40
1.0
100
AcDbArc
 50
90.0
 51
181.8346977048982
  0
LINE
  5
2F4
330
1F
100
AcDbEntity
  8
LAY-10
  6
CONTINUOUS
 62
     7
100
AcDbLine
 10
544.1764546096423
 20
274.8915015680223
 30
0.0
 11
544.1099397603529
 21
276.9679839563321
 31
0.0
  0
LINE
  5
2F5
330
1F
100
AcDbEntity
  8
LAY-10
  6
CONTINUOUS
 62
     7
100
AcDbLine
 10
547.3426973944587
 20
274.8271570017303
 30
0.0
 11
547.5623815408611
 21
277.0963606099303
 31
0.0
  0
ARC
  5
2F6
330
1F
100
AcDbEntity
  8
LAY-10
  6
CONTINUOUS
 62
     7
100
AcDbCircle
 10
546.3473509056165
 20
274.9235176116753
 30
0.0
 40
1.0
100
AcDbArc
 50
270.0
 51
354.4703636667533
  0
LINE
  5
2F7
330
1F
100
AcDbEntity
  8
LAY-10
  6
CONTINUOUS
 62
     7
100
AcDbLine
 10
385.5000000000015
 20
262.4999999999893
 30
0.0
 11
390.5000000000011
 21
262.4999999999893
 31
0.0
  0
LINE
  5
2F8
330
1F
100
AcDbEntity
  8
LAY-10
  6
CONTINUOUS
 62
     7
100
AcDbLine
 10
388.0000000000002
 20
261.0566243270157
 30
0.0
 11
385.500000000001
 21
262.4999999999893
 31
0.0
  0
LINE
  5
2F9
330
1F
100
AcDbEntity
  8
LAY-10
  6
CONTINUOUS
 62
     7
100
AcDbLine
 10
388.0000000000002
 20
261.0566243270159
 30
0.0
 11
390.4999999999993
 21
262.4999999999893
 31
0.0
  0
LINE
  5
2FA
330
1F
100
AcDbEntity
  8
LAY-10
  6
CONTINUOUS
 62
     7
100
AcDbLine
 10
382.6573026055412
 20
274.8271570017303
 30
0.0
 11
382.437618459139
 21
277.0963606099303
 31
0.0
  0
ARC
  5
2FB
330
1F
100
AcDbEntity
  8
LAY-10
  6
CONTINUOUS
 62
     7
100
AcDbCircle
 10
383.6526490943835
 20
274.9235176116753
 30
0.0
 40
1.0
100
AcDbArc
 50
185.5296363332378
 51
270.0
  0
LINE
  5
2FC
330
1F
100
AcDbEntity
  8
LAY-10
  6
CONTINUOUS
 62
     7
100
AcDbLine
 10
415.0205708656355
 20
314.999999999991
 30
0.0
 11
514.9794291343652
 21
314.999999999991
 31
0.0
  0
LINE
  5
2FD
330
1F
100
AcDbEntity
  8
LAY-10
  6
CONTINUOUS
 62
     7
100
AcDbLine
 10
514.9794291343649
 20
310.9999999999907
 30
0.0
 11
465.0
 21
310.9999999999907
 31
0.0
  0
ARC
  5
2FE
330
1F
100
AcDbEntity
  8
LAY-10
  6
CONTINUOUS
 62
     7
100
AcDbCircle
 10
514.9794291343649
 20
308.9999999999907
 30
0.0
 40
2.0
100
AcDbArc
 50
15.00000000000158
 51
90.0
  0
ARC
  5
2FF
330
1F
100
AcDbEntity
  8
LAY-10
  6
CONTINUOUS
 62
     7
100
AcDbCircle
 10
514.9794291343652
 20
308.999999999991
 30
0.0
 40
6.000000000000004
100
AcDbArc
 50
14.99999999999786
 51
90.0
  0
LINE
  5
300
330
1F
100
AcDbEntity
  8
LAY-10
  6
CONTINUOUS
 62
     7
100
AcDbLine
 10
469.3074326216403
 20
308.9999999999911
 30
0.0
 11
470.7152566930619
 21
269.99999999999
 31
0.0
  0
LINE
  5
301
330
1F
100
AcDbEntity
  8
LAY-10
  6
CONTINUOUS
 62
     7
100
AcDbLine
 10
474.2646569285055
 20
308.9999999999911
 30
0.0
 11
475.6299702449605
 21
269.99999999999
 31
0.0
  0
LINE
  5
302
330
1F
100
AcDbEntity
  8
LAY-10
  6
CONTINUOUS
 62
     7
100
AcDbLine
 10
475.2982826017703
 20
308.9999999999911
 30
0.0
 11
476.6639258613046
 21
269.99999999999
 31
0.0
  0
LINE
  5
303
330
1F
100
AcDbEntity
  8
LAY-10
  6
CONTINUOUS
 62
     7
100
AcDbLine
 10
482.5859777569899
 20
308.9999999999911
 30
0.0
 11
486.5888738601259
 21
269.99999999999
 31
0.0
  0
LINE
  5
304
330
1F
100
AcDbEntity
  8
LAY-10
  6
CONTINUOUS
 62
     7
100
AcDbLine
 10
487.2053754195423
 20
308.9999999999911
 30
0.0
 11
491.2082715226779
 21
269.99999999999
 31
0.0
  0
LINE
  5
305
330
1F
100
AcDbEntity
  8
LAY-10
  6
CONTINUOUS
 62
     7
100
AcDbLine
 10
489.2443676964729
 20
308.9999999999911
 30
0.0
 11
493.2482311437723
 21
269.99999999999
 31
0.0
  0
LINE
  5
306
330
1F
100
AcDbEntity
  8
LAY-10
  6
CONTINUOUS
 62
     7
100
AcDbLine
 10
494.6660675704029
 20
308.9999999999911
 30
0.0
 11
501.0337557058824
 21
269.99999999999
 31
0.0
  0
LINE
  5
307
330
1F
100
AcDbEntity
  8
LAY-10
  6
CONTINUOUS
 62
     7
100
AcDbLine
 10
498.6328342718557
 20
308.9999999999911
 30
0.0
 11
505.0005224073308
 21
269.99999999999
 31
0.0
  0
LINE
  5
308
330
1F
100
AcDbEntity
  8
LAY-10
  6
CONTINUOUS
 62
     7
100
AcDbLine
 10
501.5382391983733
 20
308.9999999999911
 30
0.0
 11
507.9074661562004
 21
269.99999999999
 31
0.0
  0
LINE
  5
309
330
1F
100
AcDbEntity
  8
LAY-10
  6
CONTINUOUS
 62
     7
100
AcDbLine
 10
487.2053754195423
 20
308.9999999999911
 30
0.0
 11
494.6660675704029
 21
308.9999999999911
 31
0.0
  0
LINE
  5
30A
330
1F
100
AcDbEntity
  8
LAY-10
  6
CONTINUOUS
 62
     7
100
AcDbLine
 10
498.6328342718557
 20
308.9999999999911
 30
0.0
 11
504.7244639043874
 21
308.9999999999911
 31
0.0
  0
LINE
  5
30B
330
1F
100
AcDbEntity
  8
LAY-10
  6
CONTINUOUS
 62
     7
100
AcDbLine
 10
474.2646569285055
 20
308.9999999999911
 30
0.0
 11
482.5859777569899
 21
308.9999999999911
 31
0.0
  0
LINE
  5
30C
330
1F
100
AcDbEntity
  8
LAY-10
  6
CONTINUOUS
 62
     7
100
AcDbLine
 10
513.0229966488928
 20
269.99999999999
 30
0.0
 11
504.7244639043874
 21
308.9999999999911
 31
0.0
  0
LINE
  5
30D
330
1F
100
AcDbEntity
  8
LAY-10
  6
CONTINUOUS
 62
     7
100
AcDbLine
 10
516.0668037939195
 20
269.99999999999
 30
0.0
 11
507.7682710494288
 21
308.9999999999911
 31
0.0
  0
LINE
  5
30E
330
1F
100
AcDbEntity
  8
LAY-10
  6
CONTINUOUS
 62
     7
100
AcDbLine
 10
507.7682710494288
 20
308.9999999999911
 30
0.0
 11
512.075703671069
 21
308.9999999999911
 31
0.0
  0
LINE
  5
30F
330
1F
100
AcDbEntity
  8
LAY-10
  6
CONTINUOUS
 62
     7
100
AcDbLine
 10
513.9891208328929
 20
308.9999999999911
 30
0.0
 11
521.1910862168259
 21
308.9999999999911
 31
0.0
  0
LINE
  5
310
330
1F
100
AcDbEntity
  8
LAY-10
  6
CONTINUOUS
 62
     7
100
AcDbLine
 10
460.6503865664731
 20
308.9999999999911
 30
0.0
 11
469.3074326216403
 21
308.9999999999911
 31
0.0
  0
LINE
  5
311
330
1F
100
AcDbEntity
  8
LAY-10
  6
CONTINUOUS
 62
     7
100
AcDbLine
 10
476.7903688828651
 20
310.9999999999909
 30
0.0
 11
476.9999999999973
 21
314.999999999991
 31
0.0
  0
LINE
  5
312
330
1F
100
AcDbEntity
  8
LAY-10
  6
CONTINUOUS
 62
     7
100
AcDbLine
 10
491.2096311171385
 20
310.9999999999909
 30
0.0
 11
491.0000000000064
 21
314.999999999991
 31
0.0
  0
LINE
  5
313
330
1F
100
AcDbEntity
  8
LAY-10
  6
CONTINUOUS
 62
     7
100
AcDbLine
 10
496.3912629253159
 20
310.9999999999902
 30
0.0
 11
496.6008940424481
 21
314.999999999991
 31
0.0
  0
LINE
  5
314
330
1F
100
AcDbEntity
  8
LAY-10
  6
CONTINUOUS
 62
     7
100
AcDbLine
 10
512.201972473235
 20
310.9999999999912
 30
0.0
 11
511.9923413561028
 21
314.999999999991
 31
0.0
  0
ARC
  5
315
330
1F
100
AcDbEntity
  8
LAY-10
  6
CONTINUOUS
 62
     7
100
AcDbCircle
 10
543.8924397494472
 20
271.99999999999
 30
0.0
 40
2.0
100
AcDbArc
 50
270.0
 51
357.0000000000025
  0
LINE
  5
316
330
1F
100
AcDbEntity
  8
LAY-10
  6
CONTINUOUS
 62
     7
100
AcDbLine
 10
545.8896988189564
 20
271.8953280875042
 30
0.0
 11
546.0000000000092
 21
273.9999999999901
 31
0.0
  0
LINE
  5
317
330
1F
100
AcDbEntity
  8
LAY-10
  6
CONTINUOUS
 62
     7
100
AcDbLine
 10
476.5238598859701
 20
273.9999999999901
 30
0.0
 11
486.1783204136501
 21
273.9999999999901
 31
0.0
  0
LINE
  5
318
330
1F
100
AcDbEntity
  8
LAY-10
  6
CONTINUOUS
 62
     7
100
AcDbLine
 10
492.8375784825105
 20
273.9999999999901
 30
0.0
 11
500.3806594868604
 21
273.9999999999901
 31
0.0
  0
LINE
  5
319
330
1F
100
AcDbEntity
  8
LAY-10
  6
CONTINUOUS
 62
     7
100
AcDbLine
 10
507.2542121092404
 20
273.9999999999901
 30
0.0
 11
512.1718650853502
 21
273.9999999999901
 31
0.0
  0
LINE
  5
31A
330
1F
100
AcDbEntity
  8
LAY-10
  6
CONTINUOUS
 62
     7
100
AcDbLine
 10
398.3588952783613
 20
269.99999999999
 30
0.0
 11
409.2250159079006
 21
310.5529142706059
 31
0.0
  0
LINE
  5
31B
330
1F
100
AcDbEntity
  8
LAY-10
  6
CONTINUOUS
 62
     7
100
AcDbLine
 10
402.5000000000019
 20
269.9999999999903
 30
0.0
 11
413.0887192130574
 21
309.5176380901958
 31
0.0
  0
LINE
  5
31C
330
1F
100
AcDbEntity
  8
LAY-10
  6
CONTINUOUS
 62
     7
100
AcDbLine
 10
415.0205708656355
 20
310.9999999999907
 30
0.0
 11
465.0
 21
310.9999999999907
 31
0.0
  0
ARC
  5
31D
330
1F
100
AcDbEntity
  8
LAY-10
  6
CONTINUOUS
 62
     7
100
AcDbCircle
 10
415.0205708656355
 20
308.9999999999907
 30
0.0
 40
2.0
100
AcDbArc
 50
90.0
 51
164.9999999999989
  0
ARC
  5
31E
330
1F
100
AcDbEntity
  8
LAY-10
  6
CONTINUOUS
 62
     7
100
AcDbCircle
 10
415.0205708656351
 20
308.999999999991
 30
0.0
 40
6.000000000000004
100
AcDbArc
 50
90.0
 51
165.0000000000022
  0
LINE
  5
31F
330
1F
100
AcDbEntity
  8
LAY-10
  6
CONTINUOUS
 62
     7
100
AcDbLine
 10
460.6925673783601
 20
308.9999999999911
 30
0.0
 11
459.2847433069385
 21
269.99999999999
 31
0.0
  0
LINE
  5
320
330
1F
100
AcDbEntity
  8
LAY-10
  6
CONTINUOUS
 62
     7
100
AcDbLine
 10
455.7353430714949
 20
308.9999999999911
 30
0.0
 11
454.3700297550395
 21
269.99999999999
 31
0.0
  0
LINE
  5
321
330
1F
100
AcDbEntity
  8
LAY-10
  6
CONTINUOUS
 62
     7
100
AcDbLine
 10
454.70171739823
 20
308.9999999999911
 30
0.0
 11
453.3360741386957
 21
269.99999999999
 31
0.0
  0
LINE
  5
322
330
1F
100
AcDbEntity
  8
LAY-10
  6
CONTINUOUS
 62
     7
100
AcDbLine
 10
447.4140222430101
 20
308.9999999999911
 30
0.0
 11
443.4111261398745
 21
269.99999999999
 31
0.0
  0
LINE
  5
323
330
1F
100
AcDbEntity
  8
LAY-10
  6
CONTINUOUS
 62
     7
100
AcDbLine
 10
442.794624580458
 20
308.9999999999911
 30
0.0
 11
438.7917284773221
 21
269.99999999999
 31
0.0
  0
LINE
  5
324
330
1F
100
AcDbEntity
  8
LAY-10
  6
CONTINUOUS
 62
     7
100
AcDbLine
 10
440.7556323035275
 20
308.9999999999911
 30
0.0
 11
436.7517688562281
 21
269.99999999999
 31
0.0
  0
LINE
  5
325
330
1F
100
AcDbEntity
  8
LAY-10
  6
CONTINUOUS
 62
     7
100
AcDbLine
 10
435.3339324295971
 20
308.9999999999911
 30
0.0
 11
428.9662442941176
 21
269.99999999999
 31
0.0
  0
LINE
  5
326
330
1F
100
AcDbEntity
  8
LAY-10
  6
CONTINUOUS
 62
     7
100
AcDbLine
 10
431.3671657281443
 20
308.9999999999911
 30
0.0
 11
424.9994775926696
 21
269.99999999999
 31
0.0
  0
LINE
  5
327
330
1F
100
AcDbEntity
  8
LAY-10
  6
CONTINUOUS
 62
     7
100
AcDbLine
 10
428.4617608016271
 20
308.9999999999911
 30
0.0
 11
422.0925338437996
 21
269.99999999999
 31
0.0
  0
LINE
  5
328
330
1F
100
AcDbEntity
  8
LAY-10
  6
CONTINUOUS
 62
     7
100
AcDbLine
 10
442.794624580458
 20
308.9999999999911
 30
0.0
 11
435.3339324295971
 21
308.9999999999911
 31
0.0
  0
LINE
  5
329
330
1F
100
AcDbEntity
  8
LAY-10
  6
CONTINUOUS
 62
     7
100
AcDbLine
 10
431.3671657281443
 20
308.9999999999911
 30
0.0
 11
425.2755360956126
 21
308.9999999999911
 31
0.0
  0
LINE
  5
32A
330
1F
100
AcDbEntity
  8
LAY-10
  6
CONTINUOUS
 62
     7
100
AcDbLine
 10
455.7353430714949
 20
308.9999999999911
 30
0.0
 11
447.4140222430101
 21
308.9999999999911
 31
0.0
  0
LINE
  5
32B
330
1F
100
AcDbEntity
  8
LAY-10
  6
CONTINUOUS
 62
     7
100
AcDbLine
 10
416.9770033511072
 20
269.99999999999
 30
0.0
 11
425.2755360956126
 21
308.9999999999911
 31
0.0
  0
LINE
  5
32C
330
1F
100
AcDbEntity
  8
LAY-10
  6
CONTINUOUS
 62
     7
100
AcDbLine
 10
413.9331962060805
 20
269.99999999999
 30
0.0
 11
422.2317289505716
 21
308.9999999999911
 31
0.0
  0
LINE
  5
32D
330
1F
100
AcDbEntity
  8
LAY-10
  6
CONTINUOUS
 62
     7
100
AcDbLine
 10
410.3573717419758
 20
269.99999999999
 30
0.0
 11
418.6579099188007
 21
308.9999999999911
 31
0.0
  0
LINE
  5
32E
330
1F
100
AcDbEntity
  8
LAY-10
  6
CONTINUOUS
 62
     7
100
AcDbLine
 10
422.2317289505716
 20
308.9999999999911
 30
0.0
 11
417.9242963289313
 21
308.9999999999911
 31
0.0
  0
LINE
  5
32F
330
1F
100
AcDbEntity
  8
LAY-10
  6
CONTINUOUS
 62
     7
100
AcDbLine
 10
408.2604502679815
 20
269.99999999999
 30
0.0
 11
417.9242963289313
 21
308.9999999999911
 31
0.0
  0
LINE
  5
330
330
1F
100
AcDbEntity
  8
LAY-10
  6
CONTINUOUS
 62
     7
100
AcDbLine
 10
406.3470331061641
 20
269.99999999999
 30
0.0
 11
416.0108791671074
 21
308.9999999999911
 31
0.0
  0
LINE
  5
331
330
1F
100
AcDbEntity
  8
LAY-10
  6
CONTINUOUS
 62
     7
100
AcDbLine
 10
416.0108791671074
 20
308.9999999999911
 30
0.0
 11
408.8089137831745
 21
308.9999999999911
 31
0.0
  0
LINE
  5
332
330
1F
100
AcDbEntity
  8
LAY-10
  6
CONTINUOUS
 62
     7
100
AcDbLine
 10
453.2096311171349
 20
310.9999999999909
 30
0.0
 11
453.0000000000027
 21
314.999999999991
 31
0.0
  0
LINE
  5
333
330
1F
100
AcDbEntity
  8
LAY-10
  6
CONTINUOUS
 62
     7
100
AcDbLine
 10
438.7903688828615
 20
310.9999999999909
 30
0.0
 11
438.9999999999936
 21
314.999999999991
 31
0.0
  0
LINE
  5
334
330
1F
100
AcDbEntity
  8
LAY-10
  6
CONTINUOUS
 62
     7
100
AcDbLine
 10
433.6087370746841
 20
310.9999999999902
 30
0.0
 11
433.3991059575519
 21
314.999999999991
 31
0.0
  0
LINE
  5
335
330
1F
100
AcDbEntity
  8
LAY-10
  6
CONTINUOUS
 62
     7
100
AcDbLine
 10
417.7980275267651
 20
310.9999999999912
 30
0.0
 11
418.0076586438972
 21
314.999999999991
 31
0.0
  0
LINE
  5
336
330
1F
100
AcDbEntity
  8
LAY-10
  6
CONTINUOUS
 62
     7
100
AcDbLine
 10
383.9999999999905
 20
273.9999999999901
 30
0.0
 11
384.1834272274809
 21
277.49999999999
 31
0.0
  0
LINE
  5
337
330
1F
100
AcDbEntity
  8
LAY-10
  6
CONTINUOUS
 62
     7
100
AcDbLine
 10
384.110301181044
 20
271.8953280875042
 30
0.0
 11
383.9999999999911
 21
273.9999999999901
 31
0.0
  0
LINE
  5
338
330
1F
100
AcDbEntity
  8
LAY-10
  6
CONTINUOUS
 62
     7
100
AcDbLine
 10
400.3685142215946
 20
277.4999999999898
 30
0.0
 11
384.1834272274803
 21
277.4999999999898
 31
0.0
  0
LINE
  5
339
330
1F
100
AcDbEntity
  8
LAY-10
  6
CONTINUOUS
 62
     7
100
AcDbLine
 10
453.4761401140299
 20
273.9999999999901
 30
0.0
 11
443.8216795863502
 21
273.9999999999901
 31
0.0
  0
LINE
  5
33A
330
1F
100
AcDbEntity
  8
LAY-10
  6
CONTINUOUS
 62
     7
100
AcDbLine
 10
437.1624215174899
 20
273.9999999999901
 30
0.0
 11
429.6193405131399
 21
273.9999999999901
 31
0.0
  0
LINE
  5
33B
330
1F
100
AcDbEntity
  8
LAY-10
  6
CONTINUOUS
 62
     7
100
AcDbLine
 10
422.74578789076
 20
273.9999999999901
 30
0.0
 11
417.8281349146501
 21
273.9999999999901
 31
0.0
  0
LINE
  5
33C
330
1F
100
AcDbEntity
  8
LAY-10
  6
CONTINUOUS
 62
     7
100
AcDbLine
 10
411.20870899088
 20
273.9999999999901
 30
0.0
 11
409.2516139665402
 21
273.9999999999901
 31
0.0
  0
LINE
  5
33D
330
1F
100
AcDbEntity
  8
LAY-10
  6
CONTINUOUS
 62
     7
100
AcDbLine
 10
393.893058344626
 20
269.9999999999898
 30
0.0
 11
393.5000000000033
 21
277.4999999999898
 31
0.0
  0
LINE
  5
33E
330
1F
100
AcDbEntity
  8
LAY-10
  6
CONTINUOUS
 62
     7
100
AcDbLine
 10
391.0000000000005
 20
265.9999999999919
 30
0.0
 11
385.0000000000001
 21
265.9999999999919
 31
0.0
  0
LINE
  5
33F
330
1F
100
AcDbEntity
  8
LAY-10
  6
CONTINUOUS
 62
     7
100
AcDbLine
 10
391.0000000000005
 20
277.4999999999896
 30
0.0
 11
391.0000000000005
 21
265.9999999999919
 31
0.0
  0
LINE
  5
340
330
1F
100
AcDbEntity
  8
LAY-10
  6
CONTINUOUS
 62
     7
100
AcDbLine
 10
385.5000000000007
 20
265.4999999999918
 30
0.0
 11
390.5000000000006
 21
265.4999999999918
 31
0.0
  0
LINE
  5
341
330
1F
100
AcDbEntity
  8
LAY-10
  6
CONTINUOUS
 62
     7
100
AcDbLine
 10
385.0000000000001
 20
277.4999999999896
 30
0.0
 11
385.0000000000001
 21
265.9999999999919
 31
0.0
  0
LINE
  5
342
330
1F
100
AcDbEntity
  8
LAY-10
  6
CONTINUOUS
 62
     7
100
AcDbLine
 10
390.5000000000006
 20
265.4999999999918
 30
0.0
 11
391.0000000000005
 21
265.9999999999919
 31
0.0
  0
LINE
  5
343
330
1F
100
AcDbEntity
  8
LAY-10
  6
CONTINUOUS
 62
     7
100
AcDbLine
 10
385.5000000000007
 20
265.4999999999918
 30
0.0
 11
385.0000000000001
 21
265.9999999999919
 31
0.0
  0
ARC
  5
344
330
1F
100
AcDbEntity
  8
LAY-10
  6
CONTINUOUS
 62
     7
100
AcDbCircle
 10
386.1075602505531
 20
271.99999999999
 30
0.0
 40
2.0
100
AcDbArc
 50
182.9999999999975
 51
236.3732661170021
  0
ARC
  5
345
330
1F
100
AcDbEntity
  8
LAY-10
  6
CONTINUOUS
 62
     7
100
AcDbCircle
 10
388.0000000000005
 20
275.1999999999898
 30
0.0
 40
6.300000000000004
100
AcDbArc
 50
95.46502379991026
 51
128.6821874534934
  0
ARC
  5
346
330
1F
100
AcDbEntity
  8
LAY-10
  6
CONTINUOUS
 62
     7
100
AcDbCircle
 10
388.0000000000005
 20
275.1999999999898
 30
0.0
 40
6.300000000000004
100
AcDbArc
 50
51.31781254649853
 51
84.53497620009915
  0
LINE
  5
347
330
1F
100
AcDbEntity
  8
LAY-10
  6
CONTINUOUS
 62
     7
100
AcDbLine
 10
387.4000000000003
 20
281.4713634880896
 30
0.0
 11
387.4000000000003
 21
278.9999999999896
 31
0.0
  0
LINE
  5
348
330
1F
100
AcDbEntity
  8
LAY-10
  6
CONTINUOUS
 62
     7
100
AcDbLine
 10
388.6000000000006
 20
278.9999999999896
 30
0.0
 11
387.4000000000003
 21
278.9999999999896
 31
0.0
  0
LINE
  5
349
330
1F
100
AcDbEntity
  8
LAY-10
  6
CONTINUOUS
 62
     7
100
AcDbLine
 10
388.6000000000006
 20
281.4713634880896
 30
0.0
 11
388.6000000000006
 21
278.9999999999896
 31
0.0
  0
LINE
  5
34A
330
1F
100
AcDbEntity
  8
LAY-10
  6
CONTINUOUS
 62
     7
100
AcDbLine
 10
393.2481347569003
 20
277.4999999999896
 30
0.0
 11
382.7518652431003
 21
277.4999999999896
 31
0.0
  0
ARC
  5
34B
330
1F
100
AcDbEntity
  8
LAY-10
  6
CONTINUOUS
 62
     7
100
AcDbCircle
 10
389.7500000000002
 20
277.3857492993893
 30
0.0
 40
3.500000000000003
100
AcDbArc
 50
1.870641730603566
 51
51.31781254649521
  0
ARC
  5
34C
330
1F
100
AcDbEntity
  8
LAY-10
  6
CONTINUOUS
 62
     7
100
AcDbCircle
 10
386.2500000000003
 20
277.3857492993893
 30
0.0
 40
3.500000000000003
100
AcDbArc
 50
128.6821874534976
 51
178.1293582694104
  0
LINE
  5
34D
330
1F
100
AcDbEntity
  8
LAY-10
  6
CONTINUOUS
 62
     7
100
AcDbLine
 10
530.5693079519145
 20
273.9999999999901
 30
0.0
 11
520.7749840920998
 21
310.5529142706059
 31
0.0
  0
LINE
  5
34E
330
1F
100
AcDbEntity
  8
LAY-10
  6
CONTINUOUS
 62
     7
100
AcDbLine
 10
527.4999999999991
 20
269.99999999999
 30
0.0
 11
516.9112807869429
 21
309.5176380901958
 31
0.0
  0
LINE
  5
34F
330
1F
100
AcDbEntity
  8
LAY-10
  6
CONTINUOUS
 62
     7
100
AcDbLine
 10
459.4291355193901
 20
273.99999999999
 30
0.0
 11
470.5708644806084
 21
273.99999999999
 31
0.0
  0
LINE
  5
350
330
1F
100
AcDbEntity
  8
LAY-10
  6
CONTINUOUS
 62
     7
100
AcDbLine
 10
519.6426282580242
 20
269.99999999999
 30
0.0
 11
511.3420900811993
 21
308.9999999999911
 31
0.0
  0
LINE
  5
351
330
1F
100
AcDbEntity
  8
LAY-10
  6
CONTINUOUS
 62
     7
100
AcDbLine
 10
521.7395497320184
 20
269.99999999999
 30
0.0
 11
512.075703671069
 21
308.9999999999911
 31
0.0
  0
LINE
  5
352
330
1F
100
AcDbEntity
  8
LAY-10
  6
CONTINUOUS
 62
     7
100
AcDbLine
 10
523.6529668938356
 20
269.99999999999
 30
0.0
 11
513.9891208328929
 21
308.9999999999911
 31
0.0
  0
LINE
  5
353
330
1F
100
AcDbEntity
  8
LAY-10
  6
CONTINUOUS
 62
     7
100
AcDbLine
 10
546.0000000000092
 20
273.9999999999901
 30
0.0
 11
526.4282032302746
 21
273.9999999999901
 31
0.0
  0
LINE
  5
354
330
1F
100
AcDbEntity
  8
LAY-10
  6
CONTINUOUS
 62
     7
100
AcDbLine
 10
522.6618031952775
 20
273.9999999999901
 30
0.0
 11
520.7483860334595
 21
273.9999999999901
 31
0.0
  0
LINE
  5
355
330
1F
100
AcDbEntity
  8
LAY-10
  6
CONTINUOUS
 62
     7
100
AcDbLine
 10
383.6526490943835
 20
273.9235176116754
 30
0.0
 11
383.9959917278646
 21
273.9235176116754
 31
0.0
  0
ARC
  5
356
330
1F
100
AcDbEntity
  8
LAY-10
  6
CONTINUOUS
 62
     7
100
AcDbCircle
 10
382.8928263678452
 20
276.9999999999852
 30
0.0
 40
1.0
100
AcDbArc
 50
95.11831556037421
 51
137.330366019963
  0
LINE
  5
357
330
1F
100
AcDbEntity
  8
LAY-10
  6
CONTINUOUS
 62
     7
100
AcDbLine
 10
360.9999999999991
 20
277.9999999999853
 30
0.0
 11
382.8043221165038
 21
277.9999999999853
 31
0.0
  0
ARC
  5
358
330
1F
100
AcDbEntity
  8
LAY-10
  6
CONTINUOUS
 62
     7
100
AcDbCircle
 10
400.1030846033291
 20
276.9999999999852
 30
0.0
 40
1.0
100
AcDbArc
 50
67.705129863889
 51
90.0
  0
LINE
  5
359
330
1F
100
AcDbEntity
  8
LAY-10
  6
CONTINUOUS
 62
     7
100
AcDbLine
 10
393.1956778834968
 20
277.9999999999853
 30
0.0
 11
400.5024888178089
 21
277.9999999999853
 31
0.0
  0
ARC
  5
35A
330
1F
100
AcDbEntity
  8
LAY-10
  6
CONTINUOUS
 62
     7
100
AcDbCircle
 10
409.2046302316841
 20
274.9235176116753
 30
0.0
 40
1.0
100
AcDbArc
 50
292.5541254675027
 51
351.3407907877454
  0
ARC
  5
35B
330
1F
100
AcDbEntity
  8
LAY-10
  6
CONTINUOUS
 62
     7
100
AcDbCircle
 10
409.5208639190631
 20
276.9999999999852
 30
0.0
 40
1.0
100
AcDbArc
 50
351.3407907877512
 51
48.6826128756686
  0
LINE
  5
35C
330
1F
100
AcDbEntity
  8
LAY-10
  6
CONTINUOUS
 62
     7
100
AcDbLine
 10
410.2427776650982
 20
277.9999999999853
 30
0.0
 11
412.060046239785
 21
277.9999999999853
 31
0.0
  0
LINE
  5
35D
330
1F
100
AcDbEntity
  8
LAY-10
  6
CONTINUOUS
 62
     7
100
AcDbLine
 10
418.6792664781842
 20
277.9999999999853
 30
0.0
 11
423.3990419377121
 21
277.9999999999853
 31
0.0
  0
LINE
  5
35E
330
1F
100
AcDbEntity
  8
LAY-10
  6
CONTINUOUS
 62
     7
100
AcDbLine
 10
430.2724367321638
 20
277.9999999999853
 30
0.0
 11
437.5730741787506
 21
277.9999999999853
 31
0.0
  0
LINE
  5
35F
330
1F
100
AcDbEntity
  8
LAY-10
  6
CONTINUOUS
 62
     7
100
AcDbLine
 10
437.3081840903783
 20
275.4198137417638
 30
0.0
 11
436.8543404338211
 21
277.2417173423477
 31
0.0
  0
LINE
  5
360
330
1F
100
AcDbEntity
  8
LAY-10
  6
CONTINUOUS
 62
     7
100
AcDbLine
 10
443.95721437174
 20
275.3205080756478
 30
0.0
 11
447.4677861650015
 21
275.3205080756478
 31
0.0
  0
ARC
  5
361
330
1F
100
AcDbEntity
  8
LAY-10
  6
CONTINUOUS
 62
     7
100
AcDbCircle
 10
448.445700221022
 20
274.9235176116753
 30
0.0
 40
1.0
100
AcDbArc
 50
292.5541254675027
 51
350.0614634802123
  0
LINE
  5
362
330
1F
100
AcDbEntity
  8
LAY-10
  6
CONTINUOUS
 62
     7
100
AcDbLine
 10
444.2322330328248
 20
277.9999999999853
 30
0.0
 11
453.6162060893693
 21
277.9999999999853
 31
0.0
  0
LINE
  5
363
330
1F
100
AcDbEntity
  8
LAY-10
  6
CONTINUOUS
 62
     7
100
AcDbLine
 10
459.5735277318453
 20
277.9999999999853
 30
0.0
 11
470.4264722681551
 21
277.9999999999853
 31
0.0
  0
ARC
  5
364
330
1F
100
AcDbEntity
  8
LAY-10
  6
CONTINUOUS
 62
     7
100
AcDbCircle
 10
481.554299778978
 20
274.9235176116753
 30
0.0
 40
1.0
100
AcDbArc
 50
189.9385365197872
 51
247.4458745324974
  0
LINE
  5
365
330
1F
100
AcDbEntity
  8
LAY-10
  6
CONTINUOUS
 62
     7
100
AcDbLine
 10
486.0427856282604
 20
275.3205080756478
 30
0.0
 11
482.5322138349988
 21
275.3205080756478
 31
0.0
  0
LINE
  5
366
330
1F
100
AcDbEntity
  8
LAY-10
  6
CONTINUOUS
 62
     7
100
AcDbLine
 10
476.3837939106311
 20
277.9999999999853
 30
0.0
 11
485.7677669671755
 21
277.9999999999853
 31
0.0
  0
LINE
  5
367
330
1F
100
AcDbEntity
  8
LAY-10
  6
CONTINUOUS
 62
     7
100
AcDbLine
 10
492.6918159096219
 20
275.419813741765
 30
0.0
 11
493.1456595661787
 21
277.2417173423477
 31
0.0
  0
LINE
  5
368
330
1F
100
AcDbEntity
  8
LAY-10
  6
CONTINUOUS
 62
     7
100
AcDbLine
 10
492.4269258212498
 20
277.9999999999853
 30
0.0
 11
499.7275632678362
 21
277.9999999999853
 31
0.0
  0
LINE
  5
369
330
1F
100
AcDbEntity
  8
LAY-10
  6
CONTINUOUS
 62
     7
100
AcDbLine
 10
506.600958062288
 20
277.9999999999853
 30
0.0
 11
511.3207335218158
 21
277.9999999999853
 31
0.0
  0
ARC
  5
36A
330
1F
100
AcDbEntity
  8
LAY-10
  6
CONTINUOUS
 62
     7
100
AcDbCircle
 10
520.4791360809371
 20
276.9999999999852
 30
0.0
 40
1.0
100
AcDbArc
 50
90.0
 51
131.3173871243498
  0
ARC
  5
36B
330
1F
100
AcDbEntity
  8
LAY-10
  6
CONTINUOUS
 62
     7
100
AcDbCircle
 10
520.7953697683159
 20
274.9235176116753
 30
0.0
 40
1.0
100
AcDbArc
 50
268.3880483922762
 51
270.0
  0
ARC
  5
36C
330
1F
100
AcDbEntity
  8
LAY-10
  6
CONTINUOUS
 62
     7
100
AcDbCircle
 10
521.2971339621348
 20
276.9999999999852
 30
0.0
 40
1.0
100
AcDbArc
 50
66.82781184989436
 51
90.0
  0
LINE
  5
36D
330
1F
100
AcDbEntity
  8
LAY-10
  6
CONTINUOUS
 62
     7
100
AcDbLine
 10
519.7572223349018
 20
277.9999999999853
 30
0.0
 11
521.6706394967204
 21
277.9999999999853
 31
0.0
  0
LINE
  5
36E
330
1F
100
AcDbEntity
  8
LAY-10
  6
CONTINUOUS
 62
     7
100
AcDbLine
 10
529.4975111821914
 20
277.9999999999853
 30
0.0
 11
568.9999999999989
 21
277.9999999999853
 31
0.0
  0
ARC
  5
36F
330
1F
100
AcDbEntity
  8
LAY-10
  6
CONTINUOUS
 62
     7
100
AcDbCircle
 10
545.1759419647141
 20
274.9235176116753
 30
0.0
 40
1.0
100
AcDbArc
 50
181.8346977048982
 51
247.4458745324974
  0
LINE
  5
370
330
1F
100
AcDbEntity
  8
LAY-10
  6
CONTINUOUS
 62
     7
100
AcDbLine
 10
546.3473509056165
 20
273.9235176116754
 30
0.0
 11
545.9959917278834
 21
273.9235176116754
 31
0.0
  0
LINE
  5
371
330
1F
100
AcDbEntity
  8
LAY-10
  6
CONTINUOUS
 62
     7
100
AcDbLine
 10
385.5000000000015
 20
262.49999999999
 30
0.0
 11
385.5000000000015
 21
265.49999999999
 31
0.0
  0
LINE
  5
372
330
1F
100
AcDbEntity
  8
LAY-10
  6
CONTINUOUS
 62
     7
100
AcDbLine
 10
390.5000000000011
 20
262.49999999999
 30
0.0
 11
390.5000000000011
 21
265.49999999999
 31
0.0
  0
LINE
  5
373
330
1F
100
AcDbEntity
  8
LAY-10
  6
CONTINUOUS
 62
     7
100
AcDbLine
 10
381.4192622342823
 20
269.9999999999901
 30
0.0
 11
385.5000000000007
 21
269.9999999999901
 31
0.0
  0
LINE
  5
374
330
1F
100
AcDbEntity
  8
LAY-10
  6
CONTINUOUS
 62
     7
100
AcDbLine
 10
548.5807377657155
 20
269.9999999999853
 30
0.0
 11
548.9503350319396
 21
277.0523359562283
 31
0.0
  0
LINE
  5
375
330
1F
100
AcDbEntity
  8
LAY-10
  6
CONTINUOUS
 62
     7
100
AcDbLine
 10
381.4192622342824
 20
269.9999999999852
 30
0.0
 11
381.0496649680581
 21
277.0523359562283
 31
0.0
  0
LINE
  5
376
330
1F
100
AcDbEntity
  8
LAY-10
  6
CONTINUOUS
 62
     7
100
AcDbLine
 10
551.850402204151
 20
259.9999999999853
 30
0.0
 11
565.3829042496803
 21
259.9999999999853
 31
0.0
  0
LINE
  5
377
330
1F
100
AcDbEntity
  8
LAY-10
  6
CONTINUOUS
 62
     7
100
AcDbLine
 10
561.4999999999924
 20
267.9999999999897
 30
0.0
 11
561.4999999999924
 21
268.9999999999879
 31
0.0
  0
LINE
  5
378
330
1F
100
AcDbEntity
  8
LAY-10
  6
CONTINUOUS
 62
     7
100
AcDbLine
 10
556.4999999999931
 20
267.9999999999897
 30
0.0
 11
556.4999999999931
 21
268.999999999989
 31
0.0
  0
LINE
  5
379
330
1F
100
AcDbEntity
  8
LAY-10
  6
CONTINUOUS
 62
     7
100
AcDbLine
 10
556.4999999999931
 20
268.999999999989
 30
0.0
 11
561.4999999999924
 21
268.999999999989
 31
0.0
  0
LINE
  5
37A
330
1F
100
AcDbEntity
  8
LAY-10
  6
CONTINUOUS
 62
     7
100
AcDbLine
 10
555.9999999999899
 20
267.499999999989
 30
0.0
 11
561.9999999999899
 21
267.499999999989
 31
0.0
  0
LINE
  5
37B
330
1F
100
AcDbEntity
  8
LAY-10
  6
CONTINUOUS
 62
     7
100
AcDbLine
 10
556.4999999999899
 20
267.9999999999897
 30
0.0
 11
561.4999999999899
 21
267.9999999999897
 31
0.0
  0
LINE
  5
37C
330
1F
100
AcDbEntity
  8
LAY-10
  6
CONTINUOUS
 62
     7
100
AcDbLine
 10
558.9999999999901
 20
270.4433756729647
 30
0.0
 11
561.499999999991
 21
268.9999999999901
 31
0.0
  0
LINE
  5
37D
330
1F
100
AcDbEntity
  8
LAY-10
  6
CONTINUOUS
 62
     7
100
AcDbLine
 10
558.9999999999897
 20
270.4433756729645
 30
0.0
 11
556.4999999999892
 21
268.9999999999901
 31
0.0
  0
LINE
  5
37E
330
1F
100
AcDbEntity
  8
LAY-10
  6
CONTINUOUS
 62
     7
100
AcDbLine
 10
573.4999999999894
 20
237.9999999999983
 30
0.0
 11
573.4999999999894
 21
242.9999999999982
 31
0.0
  0
LINE
  5
37F
330
1F
100
AcDbEntity
  8
LAY-10
  6
CONTINUOUS
 62
     7
100
AcDbLine
 10
563.499999999989
 20
242.9999999999982
 30
0.0
 11
573.4999999999894
 21
242.9999999999982
 31
0.0
  0
ARC
  5
380
330
1F
100
AcDbEntity
  8
LAY-10
  6
CONTINUOUS
 62
     7
100
AcDbCircle
 10
563.499999999989
 20
244.9999999999984
 30
0.0
 40
2.0
100
AcDbArc
 50
180.0
 51
270.0000000000002
  0
LINE
  5
381
330
1F
100
AcDbEntity
  8
LAY-10
  6
CONTINUOUS
 62
     7
100
AcDbLine
 10
563.499999999989
 20
237.9999999999983
 30
0.0
 11
573.4999999999894
 21
237.9999999999983
 31
0.0
  0
ARC
  5
382
330
1F
100
AcDbEntity
  8
LAY-10
  6
CONTINUOUS
 62
     7
100
AcDbCircle
 10
563.499999999989
 20
244.9999999999984
 30
0.0
 40
7.000000000000004
100
AcDbArc
 50
180.0
 51
270.0000000000002
  0
LINE
  5
383
330
1F
100
AcDbEntity
  8
LAY-10
  6
CONTINUOUS
 62
     7
100
AcDbLine
 10
561.4999999999899
 20
244.9999999999939
 30
0.0
 11
561.4999999999899
 21
259.9999999999936
 31
0.0
  0
LINE
  5
384
330
1F
100
AcDbEntity
  8
LAY-10
  6
CONTINUOUS
 62
     7
100
AcDbLine
 10
556.4999999999899
 20
244.9999999999939
 30
0.0
 11
556.4999999999899
 21
259.9999999999936
 31
0.0
  0
LINE
  5
385
330
1F
100
AcDbEntity
  8
LAY-10
  6
CONTINUOUS
 62
     7
100
AcDbLine
 10
556.4999999999931
 20
265.9999999999985
 30
0.0
 11
561.4999999999924
 21
265.9999999999985
 31
0.0
  0
LINE
  5
386
330
1F
100
AcDbEntity
  8
LAY-10
  6
CONTINUOUS
 62
     7
100
AcDbLine
 10
555.9999999999917
 20
265.4999999999999
 30
0.0
 11
561.9999999999908
 21
265.4999999999999
 31
0.0
  0
LINE
  5
387
330
1F
100
AcDbEntity
  8
LAY-10
  6
CONTINUOUS
 62
     7
100
AcDbLine
 10
561.4999999999924
 20
267.9999999999897
 30
0.0
 11
561.4999999999924
 21
265.9999999999985
 31
0.0
  0
LINE
  5
388
330
1F
100
AcDbEntity
  8
LAY-10
  6
CONTINUOUS
 62
     7
100
AcDbLine
 10
556.4999999999931
 20
267.9999999999897
 30
0.0
 11
556.4999999999931
 21
265.9999999999985
 31
0.0
  0
LINE
  5
389
330
1F
100
AcDbEntity
  8
LAY-10
  6
CONTINUOUS
 62
     7
100
AcDbLine
 10
561.9999999999899
 20
265.5000000000039
 30
0.0
 11
561.4999999999899
 21
265.9999999999939
 31
0.0
  0
LINE
  5
38A
330
1F
100
AcDbEntity
  8
LAY-10
  6
CONTINUOUS
 62
     7
100
AcDbLine
 10
556.4999999999899
 20
265.9999999999939
 30
0.0
 11
555.9999999999899
 21
265.5000000000039
 31
0.0
  0
LINE
  5
38B
330
1F
100
AcDbEntity
  8
LAY-10
  6
CONTINUOUS
 62
     7
100
AcDbLine
 10
555.9999999999899
 20
265.5000000000039
 30
0.0
 11
555.9999999999899
 21
259.9999999999939
 31
0.0
  0
LINE
  5
38C
330
1F
100
AcDbEntity
  8
LAY-10
  6
CONTINUOUS
 62
     7
100
AcDbLine
 10
561.9999999999899
 20
265.5000000000039
 30
0.0
 11
561.9999999999899
 21
259.9999999999939
 31
0.0
  0
LINE
  5
38D
330
1F
100
AcDbEntity
  8
LAY-10
  6
CONTINUOUS
 62
     7
100
AcDbLine
 10
548.5807377657155
 20
269.9999999999853
 30
0.0
 11
390.5000000000006
 21
269.9999999999853
 31
0.0
  0
LINE
  5
38E
330
1F
100
AcDbEntity
  8
LAY-10
  6
CENTER
 62
     2
100
AcDbLine
 10
354.9999999999989
 20
569.9999999999901
 30
0.0
 11
574.9999999999991
 21
569.9999999999901
 31
0.0
  0
LINE
  5
38F
330
1F
100
AcDbEntity
  8
LAY-10
  6
CENTER
 62
     2
100
AcDbLine
 10
464.999999999999
 20
679.9999999999901
 30
0.0
 11
464.999999999999
 21
459.99999999999
 31
0.0
  0
LINE
  5
390
330
1F
100
AcDbEntity
  8
LAY-10
  6
CENTER
 62
     2
100
AcDbLine
 10
387.9999999999911
 20
576.4986412404901
 30
0.0
 11
387.9999999999911
 21
563.6786412404898
 31
0.0
  0
LINE
  5
391
330
1F
100
AcDbEntity
  8
LAY-10
  6
CENTER
 62
     2
100
AcDbLine
 10
541.999999999991
 20
576.4986412404901
 30
0.0
 11
541.999999999991
 21
563.6786412404898
 31
0.0
  0
LINE
  5
392
330
1F
100
AcDbEntity
  8
LAY-10
  6
CENTER
 62
     2
100
AcDbLine
 10
387.9999999999998
 20
282.8
 30
0.0
 11
387.9999999999998
 21
257.80135875947
 31
0.0
  0
LINE
  5
393
330
1F
100
AcDbEntity
  8
LAY-10
  6
CENTER
 62
     2
100
AcDbLine
 10
464.9999999999988
 20
321.0
 30
0.0
 11
464.9999999999988
 21
192.59999999998
 31
0.0
  0
LINE
  5
394
330
1F
100
AcDbEntity
  8
LAY-10
  6
CENTER
 62
     2
100
AcDbLine
 10
574.6999999999888
 20
240.4999999999995
 30
0.0
 11
563.4999999999899
 21
240.4999999999995
 31
0.0
  0
ARC
  5
395
330
1F
100
AcDbEntity
  8
LAY-10
  6
CENTER
 62
     2
100
AcDbCircle
 10
563.4999999999899
 20
244.9999999999995
 30
0.0
 40
4.5
100
AcDbArc
 50
180.0
 51
270.0000000000002
  0
LINE
  5
396
330
1F
100
AcDbEntity
  8
LAY-10
  6
CENTER
 62
     2
100
AcDbLine
 10
558.9999999999901
 20
271.2013587594838
 30
0.0
 11
558.9999999999901
 21
244.9999999999995
 31
0.0
  0
LINE
  5
397
330
1F
100
AcDbEntity
  8
LAY-10
  6
CONTINUOUS
 62
     7
100
AcDbLine
 10
385.0000000000001
 20
263.9999999999893
 30
0.0
 11
390.9999999999998
 21
263.9999999999893
 31
0.0
  0
LINE
  5
398
330
1F
100
AcDbEntity
  8
LAY-10
  6
CONTINUOUS
 62
     7
100
AcDbLine
 10
390.5000000000006
 20
277.4999999999896
 30
0.0
 11
390.5000000000006
 21
265.4999999999918
 31
0.0
  0
LINE
  5
399
330
1F
100
AcDbEntity
  8
LAY-10
  6
CONTINUOUS
 62
     7
100
AcDbLine
 10
385.5000000000007
 20
277.4999999999896
 30
0.0
 11
385.5000000000007
 21
265.4999999999918
 31
0.0
  0
LINE
  5
39A
330
1F
100
AcDbEntity
  8
LAY-10
  6
CONTINUOUS
 62
     7
100
AcDbLine
 10
385.0000000000001
 20
263.9999999999893
 30
0.0
 11
385.0000000000001
 21
265.99999999999
 31
0.0
  0
LINE
  5
39B
330
1F
100
AcDbEntity
  8
LAY-10
  6
CONTINUOUS
 62
     7
100
AcDbLine
 10
390.9999999999998
 20
263.9999999999893
 30
0.0
 11
390.9999999999998
 21
265.99999999999
 31
0.0
  0
LINE
  5
39C
330
1F
100
AcDbEntity
  8
LAY-10
  6
CONTINUOUS
 62
     7
100
AcDbLine
 10
561.9999999999908
 20
267.499999999989
 30
0.0
 11
561.4999999999924
 21
267.9999999999897
 31
0.0
  0
LINE
  5
39D
330
1F
100
AcDbEntity
  8
LAY-10
  6
CONTINUOUS
 62
     7
100
AcDbLine
 10
555.9999999999917
 20
267.499999999989
 30
0.0
 11
556.4999999999931
 21
267.9999999999897
 31
0.0
  0
LINE
  5
39E
330
1F
100
AcDbEntity
  8
LAY-10
  6
CONTINUOUS
 62
     7
100
AcDbLine
 10
561.9999999999908
 20
267.499999999989
 30
0.0
 11
561.9999999999908
 21
265.4999999999999
 31
0.0
  0
LINE
  5
39F
330
1F
100
AcDbEntity
  8
LAY-10
  6
CONTINUOUS
 62
     7
100
AcDbLine
 10
555.9999999999917
 20
267.499999999989
 30
0.0
 11
555.9999999999917
 21
265.4999999999999
 31
0.0
  0
LINE
  5
3A0
330
1F
100
AcDbEntity
  8
LAY-10
  6
CONTINUOUS
 62
     7
100
AcDbLine
 10
561.4999999999899
 20
265.9999999999939
 30
0.0
 11
561.4999999999899
 21
259.9999999999939
 31
0.0
  0
LINE
  5
3A1
330
1F
100
AcDbEntity
  8
LAY-10
  6
CONTINUOUS
 62
     7
100
AcDbLine
 10
556.4999999999899
 20
265.9999999999939
 30
0.0
 11
556.4999999999899
 21
259.9999999999939
 31
0.0
  0
LINE
  5
3A2
330
1F
100
AcDbEntity
  8
LAY-10
  6
CONTINUOUS
 62
     7
100
AcDbLine
 10
556.4999999999717
 20
259.1339745961989
 30
0.0
 11
555.9999999999717
 21
259.9999999999835
 31
0.0
  0
LINE
  5
3A3
330
1F
100
AcDbEntity
  8
LAY-10
  6
CONTINUOUS
 62
     7
100
AcDbLine
 10
561.5000000000019
 20
259.1339745962024
 30
0.0
 11
562.0000000000019
 21
259.999999999987
 31
0.0
  0
DIMENSION
  5
3A5
330
1F
100
AcDbEntity
  8
LAY-20
  6
CONTINUOUS
 62
     4
100
AcDbDimension
  2
*D15
 10
329.999999999999
 20
277.99999999999
 30
0.0
 11
322.499999999999
 21
266.20420974705
 31
0.0
 70
   160
  1
23.5
  3
ISO-25
100
AcDbAlignedDimension
 13
394.999999999999
 23
254.40841949411
 33
0.0
 14
360.9999999999991
 24
277.99999999999
 34
0.0
 50
90.0
100
AcDbRotatedDimension
1001
ACAD
1000
DSTYLE
1002
{
1070
   270
1070
     2
1070
     6
1000
EX_BNORM
1070
     7
1000
EX_BNORM
1070
    41
1040
7.5
1070
    42
1040
4.5
1070
    44
1040
4.5
1070
    73
1070
     0
1070
    74
1070
     0
1070
    75
1070
     0
1070
    76
1070
     0
1070
    77
1070
     1
1070
    78
1070
     8
1070
   140
1040
9.3543312
1070
   147
1040
0.0
1070
   173
1070
     1
1070
   176
1070
     4
1070
   177
1070
     4
1070
   178
1070
     7
1070
   271
1070
     1
1070
   277
1070
     2
1070
   279
1070
     2
1070
   280
1070
     0
1070
   287
1070
     5
1070
   340
1005
3A4
1002
}
  0
DIMENSION
  5
3B3
330
1F
100
AcDbEntity
  8
LAY-20
  6
CONTINUOUS
 62
     4
100
AcDbDimension
  2
*D16
 10
600.0
 20
277.99999999999
 30
0.0
 11
592.5
 21
237.99999999999
 31
0.0
 70
   160
  3
ISO-25
100
AcDbAlignedDimension
 13
535.0
 23
197.99999999999
 33
0.0
 14
569.0
 24
277.99999999999
 34
0.0
 50
90.0
100
AcDbRotatedDimension
1001
ACAD
1000
DSTYLE
1002
{
1070
   270
1070
     2
1070
     6
1000
EX_BNORM
1070
     7
1000
EX_BNORM
1070
    41
1040
7.5
1070
    42
1040
4.5
1070
    44
1040
4.5
1070
    73
1070
     0
1070
    74
1070
     0
1070
    75
1070
     0
1070
    76
1070
     0
1070
    77
1070
     1
1070
    78
1070
     8
1070
   140
1040
9.3543312
1070
   147
1040
0.0
1070
   173
1070
     1
1070
   176
1070
     4
1070
   177
1070
     4
1070
   178
1070
     7
1070
   271
1070
     1
1070
   277
1070
     2
1070
   279
1070
     2
1070
   280
1070
     0
1070
   287
1070
     5
1070
   340
1005
3A4
1002
}
  0
DIMENSION
  5
3C0
330
1F
100
AcDbEntity
  8
LAY-20
  6
CONTINUOUS
 62
     4
100
AcDbDimension
  2
*D17
 10
600.0
 20
277.99999999999
 30
0.0
 11
592.5
 21
296.49999999999
 31
0.0
 70
   160
  3
ISO-25
100
AcDbAlignedDimension
 13
514.97942913437
 23
314.99999999999
 33
0.0
 14
600.0
 24
277.99999999999
 34
0.0
 50
90.0
100
AcDbRotatedDimension
1001
ACAD
1000
DSTYLE
1002
{
1070
   270
1070
     2
1070
     6
1000
EX_BNORM
1070
     7
1000
EX_BNORM
1070
    41
1040
7.5
1070
    42
1040
4.5
1070
    44
1040
4.5
1070
    73
1070
     0
1070
    74
1070
     0
1070
    75
1070
     0
1070
    76
1070
     1
1070
    77
1070
     1
1070
    78
1070
     8
1070
   140
1040
9.3543312
1070
   147
1040
0.0
1070
   173
1070
     1
1070
   176
1070
     4
1070
   177
1070
     4
1070
   178
1070
     7
1070
   271
1070
     1
1070
   277
1070
     2
1070
   279
1070
     2
1070
   280
1070
     0
1070
   287
1070
     5
1070
   340
1005
3A4
1002
}
  0
DIMENSION
  5
3CC
330
1F
100
AcDbEntity
  8
LAY-20
  6
CONTINUOUS
 62
     4
100
AcDbDimension
  2
*D18
 10
512.0
 20
167.99999999998
 30
0.0
 11
465.0
 21
175.49999999998
 31
0.0
 70
   160
  1
%%c<>
  3
ISO-25
100
AcDbAlignedDimension
 13
417.9999999999999
 23
212.99999999999
 33
0.0
 14
512.0
 24
212.99999999999
 34
0.0
100
AcDbRotatedDimension
1001
ACAD
1000
DSTYLE
1002
{
1070
   270
1070
     2
1070
     6
1000
EX_BNORM
1070
     7
1000
EX_BNORM
1070
    41
1040
9.0
1070
    42
1040
4.5
1070
    44
1040
4.5
1070
    73
1070
     0
1070
    74
1070
     0
1070
    75
1070
     0
1070
    76
1070
     0
1070
    77
1070
     1
1070
    78
1070
     8
1070
   140
1040
9.3543312
1070
   147
1040
0.0
1070
   173
1070
     1
1070
   176
1070
     4
1070
   177
1070
     4
1070
   178
1070
     7
1070
   271
1070
     1
1070
   277
1070
     2
1070
   279
1070
     2
1070
   280
1070
     0
1070
   287
1070
     5
1070
   340
1005
3A4
1002
}
  0
DIMENSION
  5
3D9
330
1F
100
AcDbEntity
  8
LAY-20
  6
CONTINUOUS
 62
     4
100
AcDbDimension
  2
*D19
 10
513.5
 20
146.99999999998
 30
0.0
 11
465.0
 21
154.49999999998
 31
0.0
 70
   160
  1
%%c<>
  3
ISO-25
100
AcDbAlignedDimension
 13
416.4999999999999
 23
248.49999999998
 33
0.0
 14
513.5
 24
248.49999999998
 34
0.0
100
AcDbRotatedDimension
1001
ACAD
1000
DSTYLE
1002
{
1070
   270
1070
     2
1070
     6
1000
EX_BNORM
1070
     7
1000
EX_BNORM
1070
    41
1040
9.0
1070
    42
1040
4.5
1070
    44
1040
4.5
1070
    73
1070
     0
1070
    74
1070
     0
1070
    75
1070
     0
1070
    76
1070
     0
1070
    77
1070
     1
1070
    78
1070
     8
1070
   140
1040
9.3543312
1070
   147
1040
0.0
1070
   173
1070
     1
1070
   176
1070
     4
1070
   177
1070
     4
1070
   178
1070
     7
1070
   271
1070
     1
1070
   277
1070
     2
1070
   279
1070
     2
1070
   280
1070
     0
1070
   287
1070
     5
1070
   340
1005
3A4
1002
}
  0
DIMENSION
  5
3E6
330
1F
100
AcDbEntity
  8
LAY-20
  6
CONTINUOUS
 62
     4
100
AcDbDimension
  2
*D20
 10
545.99999999999
 20
344.99999999999
 30
0.0
 11
464.9999999999899
 21
352.49999999999
 31
0.0
 70
   160
  1
%%c<>
  3
ISO-25
100
AcDbAlignedDimension
 13
383.99999999999
 23
280.06670062307
 33
0.0
 14
545.99999999999
 24
265.2
 34
0.0
100
AcDbRotatedDimension
1001
ACAD
1000
DSTYLE
1002
{
1070
   270
1070
     2
1070
     6
1000
EX_BNORM
1070
     7
1000
EX_BNORM
1070
    41
1040
9.0
1070
    42
1040
13.59000062942505
1070
    44
1040
4.5
1070
    73
1070
     0
1070
    74
1070
     0
1070
    75
1070
     0
1070
    76
1070
     0
1070
    77
1070
     1
1070
    78
1070
     8
1070
   140
1040
9.3543312
1070
   147
1040
0.0
1070
   173
1070
     1
1070
   176
1070
     4
1070
   177
1070
     4
1070
   178
1070
     7
1070
   271
1070
     1
1070
   277
1070
     2
1070
   279
1070
     2
1070
   280
1070
     0
1070
   287
1070
     5
1070
   340
1005
3A4
1002
}
  0
DIMENSION
  5
3F3
330
1F
100
AcDbEntity
  8
LAY-20
  6
CONTINUOUS
 62
     4
100
AcDbDimension
  2
*D21
 10
548.99999999998
 20
365.99999999999
 30
0.0
 11
465.0
 21
373.49999999999
 31
0.0
 70
   160
  1
%%c<>
  3
ISO-25
100
AcDbAlignedDimension
 13
381.00000000002
 23
280.8
 33
0.0
 14
548.99999999998
 24
279.6
 34
0.0
100
AcDbRotatedDimension
1001
ACAD
1000
DSTYLE
1002
{
1070
   270
1070
     2
1070
     6
1000
EX_BNORM
1070
     7
1000
EX_BNORM
1070
    41
1040
9.0
1070
    42
1040
0.5999999999999659
1070
    44
1040
4.5
1070
    73
1070
     0
1070
    74
1070
     0
1070
    75
1070
     0
1070
    76
1070
     0
1070
    77
1070
     1
1070
    78
1070
     8
1070
   140
1040
9.3543312
1070
   147
1040
0.0
1070
   173
1070
     1
1070
   176
1070
     4
1070
   177
1070
     4
1070
   178
1070
     7
1070
   271
1070
     1
1070
   277
1070
     2
1070
   279
1070
     2
1070
   280
1070
     0
1070
   287
1070
     5
1070
   340
1005
3A4
1002
}
  0
DIMENSION
  5
400
330
1F
100
AcDbEntity
  8
LAY-20
  6
CONTINUOUS
 62
     4
100
AcDbDimension
  2
*D22
 10
570.0
 20
386.9999999999899
 30
0.0
 11
465.0
 21
394.4999999999899
 31
0.0
 70
   160
  1
%%c<>
  3
ISO-25
100
AcDbAlignedDimension
 13
360.0
 23
275.49999999999
 33
0.0
 14
570.0
 24
275.49999999999
 34
0.0
100
AcDbRotatedDimension
1001
ACAD
1000
DSTYLE
1002
{
1070
   270
1070
     2
1070
     6
1000
EX_BNORM
1070
     7
1000
EX_BNORM
1070
    41
1040
9.0
1070
    42
1040
4.5
1070
    44
1040
4.5
1070
    73
1070
     0
1070
    74
1070
     0
1070
    75
1070
     0
1070
    76
1070
     0
1070
    77
1070
     1
1070
    78
1070
     8
1070
   140
1040
9.3543312
1070
   147
1040
0.0
1070
   173
1070
     1
1070
   176
1070
     4
1070
   177
1070
     4
1070
   178
1070
     7
1070
   271
1070
     1
1070
   277
1070
     2
1070
   279
1070
     2
1070
   280
1070
     0
1070
   287
1070
     5
1070
   340
1005
3A4
1002
}
  0
LINE
  5
40D
330
1F
100
AcDbEntity
  8
LAY-255
  6
CONTINUOUS
 62
     7
100
AcDbLine
 10
1155.0
 20
66.0
 30
0.0
 11
855.0
 21
66.0
 31
0.0
  0
LINE
  5
40E
330
1F
100
AcDbEntity
  8
LAY-255
  6
CONTINUOUS
 62
     7
100
AcDbLine
 10
866.4000000000001
 20
48.0
 30
0.0
 11
890.4000000000001
 21
63.0
 31
0.0
  0
LINE
  5
40F
330
1F
100
AcDbEntity
  8
LAY-255
  6
CONTINUOUS
 62
     7
100
AcDbLine
 10
890.4000000000001
 20
63.0
 30
0.0
 11
914.4000000000001
 21
48.0
 31
0.0
  0
LINE
  5
410
330
1F
100
AcDbEntity
  8
LAY-255
  6
CONTINUOUS
 62
     7
100
AcDbLine
 10
914.4000000000001
 20
48.0
 30
0.0
 11
890.4000000000001
 21
33.0
 31
0.0
  0
LINE
  5
411
330
1F
100
AcDbEntity
  8
LAY-255
  6
CONTINUOUS
 62
     7
100
AcDbLine
 10
890.4000000000001
 20
33.0
 30
0.0
 11
866.4000000000001
 21
48.0
 31
0.0
  0
LINE
  5
412
330
1F
100
AcDbEntity
  8
LAY-255
  6
CONTINUOUS
 62
     7
100
AcDbLine
 10
15.0
 20
30.0
 30
0.0
 11
1155.0
 21
30.0
 31
0.0
  0
LINE
  5
413
330
1F
100
AcDbEntity
  8
LAY-255
  6
CONTINUOUS
 62
     7
100
AcDbLine
 10
15.0
 20
840.0
 30
0.0
 11
1155.0
 21
840.0
 31
0.0
  0
LINE
  5
414
330
1F
100
AcDbEntity
  8
LAY-255
  6
CONTINUOUS
 62
     7
100
AcDbLine
 10
15.0
 20
30.0
 30
0.0
 11
15.0
 21
840.0
 31
0.0
  0
LINE
  5
415
330
1F
100
AcDbEntity
  8
LAY-255
  6
CONTINUOUS
 62
     7
100
AcDbLine
 10
1155.0
 20
30.0
 30
0.0
 11
1155.0
 21
840.0
 31
0.0
  0
LINE
  5
416
330
1F
100
AcDbEntity
  8
LAY-255
  6
CONTINUOUS
 62
     4
100
AcDbLine
 10
855.0
 20
84.0
 30
0.0
 11
1155.0
 21
84.0
 31
0.0
  0
LINE
  5
417
330
1F
100
AcDbEntity
  8
LAY-255
  6
CONTINUOUS
 62
     7
100
AcDbLine
 10
855.0
 20
30.0
 30
0.0
 11
855.0
 21
201.0
 31
0.0
  0
LINE
  5
418
330
1F
100
AcDbEntity
  8
LAY-255
  6
CONTINUOUS
 62
     4
100
AcDbLine
 10
1005.0
 20
84.0
 30
0.0
 11
1005.0
 21
66.0
 31
0.0
  0
LINE
  5
419
330
1F
100
AcDbEntity
  8
LAY-255
  6
CONTINUOUS
 62
     7
100
AcDbLine
 10
1155.0
 20
201.0
 30
0.0
 11
855.0
 21
201.0
 31
0.0
  0
LINE
  5
41A
330
1F
100
AcDbEntity
  8
LAY-255
  6
CONTINUOUS
 62
     4
100
AcDbLine
 10
1149.0
 20
165.0
 30
0.0
 11
861.0
 21
165.0
 31
0.0
  0
LINE
  5
41B
330
1F
100
AcDbEntity
  8
LAY-255
  6
CONTINUOUS
 62
     4
100
AcDbLine
 10
1149.0
 20
183.0
 30
0.0
 11
861.0
 21
183.0
 31
0.0
  0
POINT
  5
41C
330
1F
100
AcDbEntity
  8
LAY-255
  6
CONTINUOUS
 62
     7
100
AcDbPoint
 10
867.0
 20
150.0
 30
0.0
  0
POINT
  5
41D
330
1F
100
AcDbEntity
  8
LAY-255
  6
CONTINUOUS
 62
     7
100
AcDbPoint
 10
900.0
 20
168.0
 30
0.0
  0
POINT
  5
41E
330
1F
100
AcDbEntity
  8
LAY-255
  6
CONTINUOUS
 62
     7
100
AcDbPoint
 10
900.0
 20
186.0
 30
0.0
  0
POINT
  5
41F
330
1F
100
AcDbEntity
  8
LAY-255
  6
CONTINUOUS
 62
     7
100
AcDbPoint
 10
867.0
 20
120.0
 30
0.0
  0
POINT
  5
420
330
1F
100
AcDbEntity
  8
LAY-255
  6
CONTINUOUS
 62
     7
100
AcDbPoint
 10
867.0
 20
135.0
 30
0.0
  0
POINT
  5
421
330
1F
100
AcDbEntity
  8
LAY-255
  6
CONTINUOUS
 62
     7
100
AcDbPoint
 10
867.0
 20
105.0
 30
0.0
  0
POINT
  5
422
330
1F
100
AcDbEntity
  8
LAY-255
  6
CONTINUOUS
 62
     7
100
AcDbPoint
 10
867.0
 20
89.99999999999996
 30
0.0
  0
TEXT
  5
423
330
1F
100
AcDbEntity
  8
LAY-255
  6
CONTINUOUS
 62
     7
100
AcDbText
 10
924.415136826172
 20
46.63125
 30
0.0
 40
15.46875
  1
福西鋳物株式会社
 41
1.342692141742901
  7
EXCADSTD
100
AcDbText
  0
TEXT
  5
424
330
1F
100
AcDbEntity
  8
LAY-255
  6
CONTINUOUS
 62
     7
100
AcDbText
 10
925.528125
 20
35.94375
 30
0.0
 40
5.15625
  1
ＦＵＫＵＮＩＳＨＩ
 41
1.204799226045263
  7
EXCADSTD
100
AcDbText
  0
TEXT
  5
425
330
1F
100
AcDbEntity
  8
LAY-255
  6
CONTINUOUS
 62
     7
100
AcDbText
 10
998.1575892857143
 20
35.94375
 30
0.0
 40
5.15625
  1
ＦＯＵＮＤＲＹ
 41
1.243252752978497
  7
EXCADSTD
100
AcDbText
  0
TEXT
  5
426
330
1F
100
AcDbEntity
  8
LAY-255
  6
CONTINUOUS
 62
     7
100
AcDbText
 10
1055.983774651442
 20
35.94375
 30
0.0
 40
5.15625
  1
ＣＯ.,ＬＴＤ.
 41
1.243831271314936
  7
EXCADSTD
100
AcDbText
  0
TEXT
  5
427
330
1F
100
AcDbEntity
  8
LAY-255
  6
CONTINUOUS
 62
     7
100
AcDbText
 10
882.1031250000001
 20
41.15625
 30
0.0
 40
15.46875
  1
S
 41
0.7582677563636363
  7
EXCADSTD
100
AcDbText
  0
TEXT
  5
428
330
1F
100
AcDbEntity
  8
LAY-255
  6
CONTINUOUS
 62
     7
100
AcDbText
 10
891.3140625000001
 20
41.24823113208
 30
0.0
 40
15.46875
  1
F
 41
0.7440945272727273
  7
EXCADSTD
100
AcDbText
  0
TEXT
  5
429
330
1F
100
AcDbEntity
  8
LAY-255
  6
CONTINUOUS
 62
     7
100
AcDbText
 10
1011.31640625
 20
73.26562499999997
 30
0.0
 40
7.734375
  1
縮尺
 41
1.080708718181818
  7
EXCADSTD
100
AcDbText
  0
TEXT
  5
42A
330
1F
100
AcDbEntity
  8
LAY-255
  6
CONTINUOUS
 62
     7
100
AcDbText
 10
861.796875
 20
169.6875
 30
0.0
 40
10.3125
  1
型式
 41
1.056348480681818
  7
EXCADSTD
100
AcDbText
  0
TEXT
  5
42B
330
1F
100
AcDbEntity
  8
LAY-255
  6
CONTINUOUS
 62
     7
100
AcDbText
 10
862.265625
 20
187.6875
 30
0.0
 40
10.3125
  1
品名
 41
0.978838634090909
  7
EXCADSTD
100
AcDbText
  0
TEXT
  5
42C
330
1F
100
AcDbEntity
  8
LAY-255
  6
CONTINUOUS
 62
     7
100
AcDbText
 10
861.45703125
 20
73.26562499999997
 30
0.0
 40
7.734375
  1
作成日
 41
1.000629973818182
  7
EXCADSTD
100
AcDbText
  0
TEXT
  5
42D
330
1F
100
AcDbEntity
  8
LAY-255
  6
CONTINUOUS
 62
     7
100
AcDbText
 10
1044.84375
 20
70.68749999999997
 30
0.0
 40
10.3125
  1
１：３
 41
0.8844094952727272
  7
EXCADSTD
100
AcDbText
  0
TEXT
  5
42E
330
1F
100
AcDbEntity
  8
LAY-255
  6
CONTINUOUS
 62
     7
100
AcDbText
 10
867.5625
 20
106.6875
 30
0.0
 40
10.3125
  1
施工：打込用
 41
1.018700840909091
  7
EXCADSTD
100
AcDbText
  0
TEXT
  5
42F
330
1F
100
AcDbEntity
  8
LAY-255
  6
CONTINUOUS
 62
     7
100
AcDbText
 10
900.75
 20
187.6875
 30
0.0
 40
10.3125
  1
ルーフドレイン
 41
1.021169538599106
  7
EXCADSTD
100
AcDbText
  0
TEXT
  5
430
330
1F
100
AcDbEntity
  8
LAY-255
  6
CONTINUOUS
 62
     7
100
AcDbText
 10
868.125
 20
151.6875000000001
 30
0.0
 40
10.3125
  1
防水：モルタル・塗膜防水兼用
 41
1.008985320967742
  7
EXCADSTD
100
AcDbText
  0
TEXT
  5
431
330
1F
100
AcDbEntity
  8
LAY-255
  6
CONTINUOUS
 62
     7
100
AcDbText
 10
867.65625
 20
91.68750000000003
 30
0.0
 40
10.3125
  1
接続：差込用
 41
1.01733803041958
  7
EXCADSTD
100
AcDbText
  0
TEXT
  5
432
330
1F
100
AcDbEntity
  8
LAY-255
  6
CONTINUOUS
 62
     7
100
AcDbText
 10
867.421875
 20
136.6875
 30
0.0
 40
10.3125
  1
材質：ステンレス鋼鋳鋼
 41
1.017696295032802
  7
EXCADSTD
100
AcDbText
  0
TEXT
  5
433
330
1F
100
AcDbEntity
  8
LAY-255
  6
CONTINUOUS
 62
     7
100
AcDbText
 10
902.25
 20
169.6875
 30
0.0
 40
10.3125
  1
ＳＦ－ＳＵＭＶ－３１００型
 41
1.004758697075099
  7
EXCADSTD
100
AcDbText
  0
TEXT
  5
434
330
1F
100
AcDbEntity
  8
LAY-255
  6
CONTINUOUS
 62
     7
100
AcDbText
 10
867.703125
 20
121.6875
 30
0.0
 40
10.3125
  1
用途：屋上・庇・バルコニ－用
 41
1.011557076246334
  7
EXCADSTD
100
AcDbText
  0
TEXT
  5
435
330
1F
100
AcDbEntity
  8
LAY-255
  6
CONTINUOUS
 62
     7
100
AcDbText
 10
902.671875
 20
70.68749999999997
 30
0.0
 40
10.3125
  1
０７／０１／０５
 41
0.9779528072727272
  7
EXCADSTD
100
AcDbText
  0
ENDSEC
  0
SECTION
  2
OBJECTS
  0
DICTIONARY
  5
C
330
0
100
AcDbDictionary
  3
ACAD_GROUP
350
D
  3
ACAD_LAYOUT
350
1A
  3
ACAD_MATERIAL
350
43
  3
ACAD_MLEADERSTYLE
350
6B
  3
ACAD_MLINESTYLE
350
17
  3
ACAD_PLOTSETTINGS
350
19
  3
ACAD_SCALELIST
350
47
  3
ACAD_VISUALSTYLE
350
2A
  3
ACDBHEADERROUNDTRIPXREC
350
436
  3
ACDBVARIABLEDICTIONARY
350
457
  0
DICTIONARY
  5
462
330
8
100
AcDbDictionary
280
     1
  3
ACAD_XREC_ROUNDTRIP
360
463
  0
DICTIONARY
  5
D
102
{ACAD_REACTORS
330
C
102
}
330
C
100
AcDbDictionary
  0
DICTIONARY
  5
1A
102
{ACAD_REACTORS
330
C
102
}
330
C
100
AcDbDictionary
  0
DICTIONARY
  5
43
102
{ACAD_REACTORS
330
C
102
}
330
C
100
AcDbDictionary
  3
BYBLOCK
350
45
  3
BYLAYER
350
44
  3
GLOBAL
350
46
  0
DICTIONARY
  5
6B
102
{ACAD_REACTORS
330
C
102
}
330
C
100
AcDbDictionary
  3
STANDARD
350
6C
  0
DICTIONARY
  5
17
102
{ACAD_REACTORS
330
C
102
}
330
C
100
AcDbDictionary
  3
STANDARD
350
18
  0
DICTIONARY
  5
19
102
{ACAD_REACTORS
330
C
102
}
330
C
100
AcDbDictionary
  0
DICTIONARY
  5
47
102
{ACAD_REACTORS
330
C
102
}
330
C
100
AcDbDictionary
  3
A0
350
48
  3
A1
350
49
  3
A2
350
4A
  3
A3
350
4B
  3
A4
350
4C
  3
A5
350
4D
  3
A6
350
4E
  3
A7
350
4F
  3
A8
350
50
  3
A9
350
51
  3
B0
350
52
  3
B1
350
53
  3
B2
350
54
  3
B3
350
55
  3
B4
350
56
  3
B5
350
57
  3
B6
350
58
  3
B7
350
59
  3
B8
350
5A
  3
B9
350
5B
  3
C0
350
5C
  3
C1
350
5D
  3
C2
350
5E
  3
C3
350
5F
  3
C4
350
60
  3
C5
350
61
  3
C6
350
62
  3
C7
350
63
  3
C8
350
64
  3
C9
350
65
  3
D0
350
66
  3
D1
350
67
  3
D2
350
68
  0
DICTIONARY
  5
2A
102
{ACAD_REACTORS
330
C
102
}
330
C
100
AcDbDictionary
  3
2DWIREFRAME
350
2F
  3
BASIC
350
32
  3
BRIGHTEN
350
36
  3
COLORCHANGE
350
3A
  3
CONCEPTUAL
350
34
  3
DIM
350
35
  3
EDGECOLOROFF
350
3D
  3
FACEPATTERN
350
39
  3
FLAT
350
2B
  3
FLATWITHEDGES
350
2C
  3
GOURAUD
350
2D
  3
GOURAUDWITHEDGES
350
2E
  3
HIDDEN
350
31
  3
JITTEROFF
350
3B
  3
LINEPATTERN
350
38
  3
OVERHANGOFF
350
3C
  3
REALISTIC
350
33
  3
SHADED
350
42
  3
SHADED_WITH_EDGES
350
41
  3
SHADES_OF_GRAY
350
3E
  3
SKETCHY
350
3F
  3
THICKEN
350
37
  3
WIREFRAME
350
30
  3
X-RAY
350
40
  0
DICTIONARY
  5
436
102
{ACAD_REACTORS
330
C
102
}
330
C
100
AcDbDictionary
  3
CEPSNID
350
440
  3
CEPSNTYPE
350
43F
  3
DIMSTYLEDATA
350
456
  3
FINGERPRINTGUID
350
441
  3
HYPERLINKBASE
350
439
  3
INSUNITS
350
43E
  3
LAYOUTDICT
350
43B
  3
LWETCUNION
350
43D
  3
PLOTSETDICT
350
43C
  3
PSVPSCALE
350
443
  3
PUCSBASE
350
446
  3
PUCSORGBACK
350
44C
  3
PUCSORGBOTTOM
350
448
  3
PUCSORGFRONT
350
44B
  3
PUCSORGLEFT
350
449
  3
PUCSORGRIGHT
350
44A
  3
PUCSORGTOP
350
447
  3
PUCSORTHOREF
350
444
  3
PUCSORTHOVIEW
350
445
  3
STYLESHEET
350
43A
  3
TSTACKALIGN
350
437
  3
TSTACKSIZE
350
438
  3
UCSBASE
350
44F
  3
UCSORGBACK
350
455
  3
UCSORGBOTTOM
350
451
  3
UCSORGFRONT
350
454
  3
UCSORGLEFT
350
452
  3
UCSORGRIGHT
350
453
  3
UCSORGTOP
350
450
  3
UCSORTHOREF
350
44D
  3
UCSORTHOVIEW
350
44E
  3
VERSIONGUID
350
442
  0
DICTIONARY
  5
457
102
{ACAD_REACTORS
330
C
102
}
330
C
100
AcDbDictionary
  3
CANNOSCALE
350
464
  3
CENTEREXE
350
45E
  3
CENTERLTYPEFILE
350
45F
  3
CMLEADERSTYLE
350
459
  3
CTABLESTYLE
350
458
  3
DIMASSOC
350
460
  3
HIDETEXT
350
461
  3
MSLTSCALE
350
465
  3
PSOLHEIGHT
350
45B
  3
PSOLWIDTH
350
45A
  0
XRECORD
  5
463
102
{ACAD_REACTORS
330
462
102
}
330
462
100
AcDbXrecord
102
VTR_0.000_0.000_1.000_1.000_VISUALSTYLE
340
2F
102
VTR_0.000_0.000_1.000_1.000_GRIDDISPLAY
 70
     3
102
VTR_0.000_0.000_1.000_1.000_GRIDMAJOR
 70
     5
102
VTR_0.000_0.000_1.000_1.000_DEFAULTLIGHTING
280
     1
102
VTR_0.000_0.000_1.000_1.000_DEFAULTLIGHTINGTYPE
 70
     1
102
VTR_0.000_0.000_1.000_1.000_BRIGHTNESS
141
0.0
102
VTR_0.000_0.000_1.000_1.000_CONTRAST
142
0.0
  0
MATERIAL
  5
45
102
{ACAD_REACTORS
330
43
102
}
102
{ACAD_XDICTIONARY
360
468
102
}
330
43
100
AcDbMaterial
  1
BYBLOCK
  0
MATERIAL
  5
44
102
{ACAD_REACTORS
330
43
102
}
102
{ACAD_XDICTIONARY
360
466
102
}
330
43
100
AcDbMaterial
  1
BYLAYER
  0
MATERIAL
  5
46
102
{ACAD_REACTORS
330
43
102
}
102
{ACAD_XDICTIONARY
360
46A
102
}
330
43
100
AcDbMaterial
  1
GLOBAL
  0
ACAD_PROXY_OBJECT
  5
6C
102
{ACAD_REACTORS
330
6B
102
}
330
6B
100
AcDbProxyObject
 90
      499
 91
      505
 93
      610
310
40901902A4063FBFFFFFE0000000000000020400000000000020404214DD185B99185C990000000000000104090141901A00000000000004100000000000000041025764000000000000039000
340
14
340
0
340
11
340
0
 94
        0
1001
ACAD_MLEADERVER
1070
     2
  0
MLINESTYLE
  5
18
102
{ACAD_REACTORS
330
17
102
}
330
17
100
AcDbMlineStyle
  2
Standard
 70
     0
  3

 62
   256
 51
90.0
 52
90.0
 71
     2
 49
0.5
 62
   256
  6
BYLAYER
 49
-0.5
 62
   256
  6
BYLAYER
  0
ACAD_PROXY_OBJECT
  5
48
102
{ACAD_REACTORS
330
47
102
}
330
47
100
AcDbProxyObject
 90
      499
 91
      503
 93
       41
310
903313A31580
  0
ACAD_PROXY_OBJECT
  5
49
102
{ACAD_REACTORS
330
47
102
}
330
47
100
AcDbProxyObject
 90
      499
 91
      503
 93
      105
310
903313A324000000000000004000
  0
ACAD_PROXY_OBJECT
  5
4A
102
{ACAD_REACTORS
330
47
102
}
330
47
100
AcDbProxyObject
 90
      499
 91
      503
 93
      105
310
903313A344000000000000104000
  0
ACAD_PROXY_OBJECT
  5
4B
102
{ACAD_REACTORS
330
47
102
}
330
47
100
AcDbProxyObject
 90
      499
 91
      503
 93
      105
310
903313A354000000000000144000
  0
ACAD_PROXY_OBJECT
  5
4C
102
{ACAD_REACTORS
330
47
102
}
330
47
100
AcDbProxyObject
 90
      499
 91
      503
 93
      105
310
903313A384000000000000204000
  0
ACAD_PROXY_OBJECT
  5
4D
102
{ACAD_REACTORS
330
47
102
}
330
47
100
AcDbProxyObject
 90
      499
 91
      503
 93
      113
310
904313A31304000000000000244000
  0
ACAD_PROXY_OBJECT
  5
4E
102
{ACAD_REACTORS
330
47
102
}
330
47
100
AcDbProxyObject
 90
      499
 91
      503
 93
      113
310
904313A31364000000000000304000
  0
ACAD_PROXY_OBJECT
  5
4F
102
{ACAD_REACTORS
330
47
102
}
330
47
100
AcDbProxyObject
 90
      499
 91
      503
 93
      113
310
904313A32304000000000000344000
  0
ACAD_PROXY_OBJECT
  5
50
102
{ACAD_REACTORS
330
47
102
}
330
47
100
AcDbProxyObject
 90
      499
 91
      503
 93
      113
310
904313A333040000000000003E4000
  0
ACAD_PROXY_OBJECT
  5
51
102
{ACAD_REACTORS
330
47
102
}
330
47
100
AcDbProxyObject
 90
      499
 91
      503
 93
      113
310
904313A34304000000000000444000
  0
ACAD_PROXY_OBJECT
  5
52
102
{ACAD_REACTORS
330
47
102
}
330
47
100
AcDbProxyObject
 90
      499
 91
      503
 93
      113
310
904313A35304000000000000494000
  0
ACAD_PROXY_OBJECT
  5
53
102
{ACAD_REACTORS
330
47
102
}
330
47
100
AcDbProxyObject
 90
      499
 91
      503
 93
      121
310
905313A3130304000000000000594000
  0
ACAD_PROXY_OBJECT
  5
54
102
{ACAD_REACTORS
330
47
102
}
330
47
100
AcDbProxyObject
 90
      499
 91
      503
 93
      105
310
903323A310000000000000010100
  0
ACAD_PROXY_OBJECT
  5
55
102
{ACAD_REACTORS
330
47
102
}
330
47
100
AcDbProxyObject
 90
      499
 91
      503
 93
      105
310
903343A310000000000000410100
  0
ACAD_PROXY_OBJECT
  5
56
102
{ACAD_REACTORS
330
47
102
}
330
47
100
AcDbProxyObject
 90
      499
 91
      503
 93
      105
310
903383A310000000000000810100
  0
ACAD_PROXY_OBJECT
  5
57
102
{ACAD_REACTORS
330
47
102
}
330
47
100
AcDbProxyObject
 90
      499
 91
      503
 93
      113
310
90431303A310000000000000910100
  0
ACAD_PROXY_OBJECT
  5
58
102
{ACAD_REACTORS
330
47
102
}
330
47
100
AcDbProxyObject
 90
      499
 91
      503
 93
      121
310
9053130303A310000000000001650100
  0
ACAD_PROXY_OBJECT
  5
59
102
{ACAD_REACTORS
330
47
102
}
330
47
100
AcDbProxyObject
 90
      499
 91
      503
 93
      257
310
90E312F31323822203D2031272D3022000000000000200FC000000000000284000
  0
ACAD_PROXY_OBJECT
  5
5A
102
{ACAD_REACTORS
330
47
102
}
330
47
100
AcDbProxyObject
 90
      499
 91
      503
 93
      249
310
90D312F363422203D2031272D3022000000000000240FC000000000000284000
  0
ACAD_PROXY_OBJECT
  5
5B
102
{ACAD_REACTORS
330
47
102
}
330
47
100
AcDbProxyObject
 90
      499
 91
      503
 93
      249
310
90D312F333222203D2031272D3022000000000000280FC000000000000284000
  0
ACAD_PROXY_OBJECT
  5
5C
102
{ACAD_REACTORS
330
47
102
}
330
47
100
AcDbProxyObject
 90
      499
 91
      503
 93
      249
310
90D312F313622203D2031272D30220000000000002C0FC000000000000284000
  0
ACAD_PROXY_OBJECT
  5
5D
102
{ACAD_REACTORS
330
47
102
}
330
47
100
AcDbProxyObject
 90
      499
 91
      503
 93
      249
310
90D332F333222203D2031272D30220000000000002E0FC000000000000284000
  0
ACAD_PROXY_OBJECT
  5
5E
102
{ACAD_REACTORS
330
47
102
}
330
47
100
AcDbProxyObject
 90
      499
 91
      503
 93
      241
310
90C312F3822203D2031272D3022000000000000300FC000000000000284000
  0
ACAD_PROXY_OBJECT
  5
5F
102
{ACAD_REACTORS
330
47
102
}
330
47
100
AcDbProxyObject
 90
      499
 91
      503
 93
      249
310
90D332F313622203D2031272D3022000000000000320FC000000000000284000
  0
ACAD_PROXY_OBJECT
  5
60
102
{ACAD_REACTORS
330
47
102
}
330
47
100
AcDbProxyObject
 90
      499
 91
      503
 93
      241
310
90C312F3422203D2031272D3022000000000000340FC000000000000284000
  0
ACAD_PROXY_OBJECT
  5
61
102
{ACAD_REACTORS
330
47
102
}
330
47
100
AcDbProxyObject
 90
      499
 91
      503
 93
      241
310
90C332F3822203D2031272D3022000000000000360FC000000000000284000
  0
ACAD_PROXY_OBJECT
  5
62
102
{ACAD_REACTORS
330
47
102
}
330
47
100
AcDbProxyObject
 90
      499
 91
      503
 93
      241
310
90C312F3222203D2031272D3022000000000000380FC000000000000284000
  0
ACAD_PROXY_OBJECT
  5
63
102
{ACAD_REACTORS
330
47
102
}
330
47
100
AcDbProxyObject
 90
      499
 91
      503
 93
      241
310
90C332F3422203D2031272D30220000000000003A0FC000000000000284000
  0
ACAD_PROXY_OBJECT
  5
64
102
{ACAD_REACTORS
330
47
102
}
330
47
100
AcDbProxyObject
 90
      499
 91
      503
 93
      161
310
90A3122203D2031272D30224000000000000284000
  0
ACAD_PROXY_OBJECT
  5
65
102
{ACAD_REACTORS
330
47
102
}
330
47
100
AcDbProxyObject
 90
      499
 91
      503
 93
      257
310
90E312D312F3222203D2031272D30220000000000003E0FC000000000000284000
  0
ACAD_PROXY_OBJECT
  5
66
102
{ACAD_REACTORS
330
47
102
}
330
47
100
AcDbProxyObject
 90
      499
 91
      503
 93
      225
310
90A3322203D2031272D302200000000000002100000000000000284000
  0
ACAD_PROXY_OBJECT
  5
67
102
{ACAD_REACTORS
330
47
102
}
330
47
100
AcDbProxyObject
 90
      499
 91
      503
 93
      225
310
90A3622203D2031272D302200000000000006100000000000000284000
  0
ACAD_PROXY_OBJECT
  5
68
102
{ACAD_REACTORS
330
47
102
}
330
47
100
AcDbProxyObject
 90
      499
 91
      503
 93
      249
310
90D31272D3022203D2031272D30220000000000000A100000000000000284000
  0
ACAD_PROXY_OBJECT
  5
2F
102
{ACAD_REACTORS
330
2A
102
}
330
2A
100
AcDbProxyObject
 90
      499
 91
      501
 93
      436
310
42CC9915DA5C99599C985B595049028333333333333E33F0000000000000F90107901411070040501600405405064090741402480A0340
1001
ACAD
1000
AcDbSavedByObjectVersion
1070
     0
  0
ACAD_PROXY_OBJECT
  5
32
102
{ACAD_REACTORS
330
2A
102
}
330
2A
100
AcDbProxyObject
 90
      499
 91
      501
 93
      388
310
4150985CDA58D07406404333333333333E33F0000000000000F90107A41107004050150841D405064090741402480A0350
1001
ACAD
1000
AcDbSavedByObjectVersion
1070
     0
  0
ACAD_PROXY_OBJECT
  5
36
102
{ACAD_REACTORS
330
2A
102
}
330
2A
100
AcDbProxyObject
 90
      499
 91
      501
 93
      428
310
42109C9A59DA1D195B90C409028333333333333E33F0000000000000F9010790141107004050150841D405064090741402480A029950
1001
ACAD
1000
AcDbSavedByObjectVersion
1070
     0
  0
ACAD_PROXY_OBJECT
  5
3A
102
{ACAD_REACTORS
330
2A
102
}
330
2A
100
AcDbProxyObject
 90
      499
 91
      501
 93
      452
310
42D0DBDB1BDC90DA185B99D95104090240C333333333333E33F0000000000000F90108901411070040501508421405064090741402480A0350
1001
ACAD
1000
AcDbSavedByObjectVersion
1070
     0
  0
ACAD_PROXY_OBJECT
  5
34
102
{ACAD_REACTORS
330
2A
102
}
330
2A
100
AcDbProxyObject
 90
      499
 91
      501
 93
      500
310
4290DBDB98D95C1D1D585B10940D028333333333333E33F0000000000000F90107902409070040501000000000018199010841D405064090740C02480A0340
1001
ACAD
1000
AcDbSavedByObjectVersion
1070
     0
  0
ACAD_PROXY_OBJECT
  5
35
102
{ACAD_REACTORS
330
2A
102
}
330
2A
100
AcDbProxyObject
 90
      499
 91
      501
 93
      412
310
40D11A5B50B409028333333333333E33F0000000000000F9010790141107004050150841D405064090741402480A02677FFFFFD0
1001
ACAD
1000
AcDbSavedByObjectVersion
1070
     0
  0
ACAD_PROXY_OBJECT
  5
3D
102
{ACAD_REACTORS
330
2A
102
}
330
2A
100
AcDbProxyObject
 90
      499
 91
      501
 93
      452
310
43115919D950DBDB1BDC93D999916409028333333333333E33F0000000000000F9010790141107004050150841D405064090741402480A0350
1001
ACAD
1000
AcDbSavedByObjectVersion
1070
     0
  0
ACAD_PROXY_OBJECT
  5
39
102
{ACAD_REACTORS
330
2A
102
}
330
2A
100
AcDbProxyObject
 90
      499
 91
      501
 93
      444
310
42D19858D95C185D1D195C9B90F409028333333333333E33F0000000000000F9010790141107004050150841D405064090741402480A0350
1001
ACAD
1000
AcDbSavedByObjectVersion
1070
     0
  0
ACAD_PROXY_OBJECT
  5
2B
102
{ACAD_REACTORS
330
2A
102
}
330
2A
100
AcDbProxyObject
 90
      499
 91
      501
 93
      380
310
41119B185D240901404333333333333E33F0000000000000F9010740A907004050150841D405064090741402480A1B50
1001
ACAD
1000
AcDbSavedByObjectVersion
1070
     0
  0
ACAD_PROXY_OBJECT
  5
2C
102
{ACAD_REACTORS
330
2A
102
}
330
2A
100
AcDbProxyObject
 90
      499
 91
      501
 93
      468
310
43519B185D15DA5D1A115919D95CD0140901404333333333333E33F0000000000000F90107409019070040501600405405064090741402480A1B50
1001
ACAD
1000
AcDbSavedByObjectVersion
1070
     0
  0
ACAD_PROXY_OBJECT
  5
2D
102
{ACAD_REACTORS
330
2A
102
}
330
2A
100
AcDbProxyObject
 90
      499
 91
      501
 93
      404
310
41D1DBDD5C985D5910240902404333333333333E33F0000000000000F9010740A9070040501641D405064090741402480A1B50
1001
ACAD
1000
AcDbSavedByObjectVersion
1070
     0
  0
ACAD_PROXY_OBJECT
  5
2E
102
{ACAD_REACTORS
330
2A
102
}
330
2A
100
AcDbProxyObject
 90
      499
 91
      501
 93
      492
310
4411DBDD5C985D5915DA5D1A115919D95CD0340902404333333333333E33F0000000000000F90107409019070040501600405405064090741402480A1B50
1001
ACAD
1000
AcDbSavedByObjectVersion
1070
     0
  0
ACAD_PROXY_OBJECT
  5
31
102
{ACAD_REACTORS
330
2A
102
}
330
2A
100
AcDbProxyObject
 90
      499
 91
      501
 93
      476
310
41921A5919195B90640502408333333333333E33F0000000000000F901079024090700405020000000000001110200405405064090740C02480A0340
1001
ACAD
1000
AcDbSavedByObjectVersion
1070
     0
  0
ACAD_PROXY_OBJECT
  5
3B
102
{ACAD_REACTORS
330
2A
102
}
330
2A
100
AcDbProxyObject
 90
      499
 91
      501
 93
      428
310
42529A5D1D195C93D999914409028333333333333E33F0000000000000F9010790141107004050150A41D405064090741402480A0350
1001
ACAD
1000
AcDbSavedByObjectVersion
1070
     0
  0
ACAD_PROXY_OBJECT
  5
38
102
{ACAD_REACTORS
330
2A
102
}
330
2A
100
AcDbProxyObject
 90
      499
 91
      501
 93
      444
310
42D31A5B995C185D1D195C9B90E409028333333333333E33F0000000000000F9010790141107004050750841D405064090741402483A0350
1001
ACAD
1000
AcDbSavedByObjectVersion
1070
     0
  0
ACAD_PROXY_OBJECT
  5
3C
102
{ACAD_REACTORS
330
2A
102
}
330
2A
100
AcDbProxyObject
 90
      499
 91
      501
 93
      444
310
42D3DD995C9A185B99D3D999915409028333333333333E33F0000000000000F9010790141107004050150941D405064090741402480A0350
1001
ACAD
1000
AcDbSavedByObjectVersion
1070
     0
  0
ACAD_PROXY_OBJECT
  5
33
102
{ACAD_REACTORS
330
2A
102
}
330
2A
100
AcDbProxyObject
 90
      499
 91
      501
 93
      428
310
425499585B1A5CDD1A58D08409038333333333333E33F0000000000000F9010740A907004050150800405405064090740C02480A1B40
1001
ACAD
1000
AcDbSavedByObjectVersion
1070
     0
  0
ACAD_PROXY_OBJECT
  5
42
102
{ACAD_REACTORS
330
2A
102
}
330
2A
100
AcDbProxyObject
 90
      499
 91
      501
 93
      420
310
4194DA1859195911B40902404333333333333E33F0000000000000F9010740A41107004050150800405405064090840C02480A0B40
1001
ACAD
1000
AcDbSavedByObjectVersion
1070
     0
  0
ACAD_PROXY_OBJECT
  5
41
102
{ACAD_REACTORS
330
2A
102
}
330
2A
100
AcDbProxyObject
 90
      499
 91
      501
 93
      516
310
4454DA18591959081DDA5D1A08195919D95CD1A40902404333333333333E33F0000000000000F901074090142907004050250800405405064090740C02480A0B40
1001
ACAD
1000
AcDbSavedByObjectVersion
1070
     0
  0
ACAD_PROXY_OBJECT
  5
3E
102
{ACAD_REACTORS
330
2A
102
}
330
2A
100
AcDbProxyObject
 90
      499
 91
      501
 93
      532
310
4394DA1859195CC81BD98811DC985E5174090240C333333333333E33F0000000000000F901079024090741D01000000000000111010841D405064090740C02480A0340
1001
ACAD
1000
AcDbSavedByObjectVersion
1070
     0
  0
ACAD_PROXY_OBJECT
  5
3F
102
{ACAD_REACTORS
330
2A
102
}
330
2A
100
AcDbProxyObject
 90
      499
 91
      501
 93
      476
310
41D4DAD95D18DA1E51840502408333333333333E33F0000000000000F901079024090741D01000000000000111010B41D405064090741802480A0340
1001
ACAD
1000
AcDbSavedByObjectVersion
1070
     0
  0
ACAD_PROXY_OBJECT
  5
37
102
{ACAD_REACTORS
330
2A
102
}
330
2A
100
AcDbProxyObject
 90
      499
 91
      501
 93
      412
310
41D51A1A58DAD95B90D409028333333333333E33F0000000000000F9010790141107004050150C41D405064090741402480A0350
1001
ACAD
1000
AcDbSavedByObjectVersion
1070
     0
  0
ACAD_PROXY_OBJECT
  5
30
102
{ACAD_REACTORS
330
2A
102
}
330
2A
100
AcDbProxyObject
 90
      499
 91
      501
 93
      420
310
4255DA5C99599C985B595059028333333333333E33F0000000000000F90107901411070040501600405405064090740C02480A0340
1001
ACAD
1000
AcDbSavedByObjectVersion
1070
     0
  0
ACAD_PROXY_OBJECT
  5
40
102
{ACAD_REACTORS
330
2A
102
}
330
2A
100
AcDbProxyObject
 90
      499
 91
      501
 93
      404
310
41560B54985E51940902404000000000000E03F0000000000000F9010740501907004050150841D405064090740C02480A1B40
1001
ACAD
1000
AcDbSavedByObjectVersion
1070
     0
  0
XRECORD
  5
440
102
{ACAD_REACTORS
330
436
102
}
330
436
100
AcDbXrecord
340
0
  0
XRECORD
  5
43F
102
{ACAD_REACTORS
330
436
102
}
330
436
100
AcDbXrecord
 90
        0
  0
XRECORD
  5
456
102
{ACAD_REACTORS
330
436
102
}
330
436
100
AcDbXrecord
1000
DSTYLE
1002
{
1070
   340
340
11
1002
}
  0
XRECORD
  5
441
102
{ACAD_REACTORS
330
436
102
}
330
436
100
AcDbXrecord
  1
{a75e8c8e-95c8-436b-bc43-31bc94c44184}
  0
XRECORD
  5
439
102
{ACAD_REACTORS
330
436
102
}
330
436
100
AcDbXrecord
  1

  0
XRECORD
  5
43E
102
{ACAD_REACTORS
330
436
102
}
330
436
100
AcDbXrecord
 90
        4
  0
XRECORD
  5
43B
102
{ACAD_REACTORS
330
436
102
}
330
436
100
AcDbXrecord
340
1A
  0
XRECORD
  5
43D
102
{ACAD_REACTORS
330
436
102
}
330
436
100
AcDbXrecord
 90
    10781
  0
XRECORD
  5
43C
102
{ACAD_REACTORS
330
436
102
}
330
436
100
AcDbXrecord
340
19
  0
XRECORD
  5
443
102
{ACAD_REACTORS
330
436
102
}
330
436
100
AcDbXrecord
 40
0.0
  0
XRECORD
  5
446
102
{ACAD_REACTORS
330
436
102
}
330
436
100
AcDbXrecord
340
0
  0
XRECORD
  5
44C
102
{ACAD_REACTORS
330
436
102
}
330
436
100
AcDbXrecord
 10
0.0
 20
0.0
 30
0.0
  0
XRECORD
  5
448
102
{ACAD_REACTORS
330
436
102
}
330
436
100
AcDbXrecord
 10
0.0
 20
0.0
 30
0.0
  0
XRECORD
  5
44B
102
{ACAD_REACTORS
330
436
102
}
330
436
100
AcDbXrecord
 10
0.0
 20
0.0
 30
0.0
  0
XRECORD
  5
449
102
{ACAD_REACTORS
330
436
102
}
330
436
100
AcDbXrecord
 10
0.0
 20
0.0
 30
0.0
  0
XRECORD
  5
44A
102
{ACAD_REACTORS
330
436
102
}
330
436
100
AcDbXrecord
 10
0.0
 20
0.0
 30
0.0
  0
XRECORD
  5
447
102
{ACAD_REACTORS
330
436
102
}
330
436
100
AcDbXrecord
 10
0.0
 20
0.0
 30
0.0
  0
XRECORD
  5
444
102
{ACAD_REACTORS
330
436
102
}
330
436
100
AcDbXrecord
340
0
  0
XRECORD
  5
445
102
{ACAD_REACTORS
330
436
102
}
330
436
100
AcDbXrecord
 70
     0
  0
XRECORD
  5
43A
102
{ACAD_REACTORS
330
436
102
}
330
436
100
AcDbXrecord
  1

  0
XRECORD
  5
437
102
{ACAD_REACTORS
330
436
102
}
330
436
100
AcDbXrecord
 90
        1
  0
XRECORD
  5
438
102
{ACAD_REACTORS
330
436
102
}
330
436
100
AcDbXrecord
 90
       70
  0
XRECORD
  5
44F
102
{ACAD_REACTORS
330
436
102
}
330
436
100
AcDbXrecord
340
0
  0
XRECORD
  5
455
102
{ACAD_REACTORS
330
436
102
}
330
436
100
AcDbXrecord
 10
0.0
 20
0.0
 30
0.0
  0
XRECORD
  5
451
102
{ACAD_REACTORS
330
436
102
}
330
436
100
AcDbXrecord
 10
0.0
 20
0.0
 30
0.0
  0
XRECORD
  5
454
102
{ACAD_REACTORS
330
436
102
}
330
436
100
AcDbXrecord
 10
0.0
 20
0.0
 30
0.0
  0
XRECORD
  5
452
102
{ACAD_REACTORS
330
436
102
}
330
436
100
AcDbXrecord
 10
0.0
 20
0.0
 30
0.0
  0
XRECORD
  5
453
102
{ACAD_REACTORS
330
436
102
}
330
436
100
AcDbXrecord
 10
0.0
 20
0.0
 30
0.0
  0
XRECORD
  5
450
102
{ACAD_REACTORS
330
436
102
}
330
436
100
AcDbXrecord
 10
0.0
 20
0.0
 30
0.0
  0
XRECORD
  5
44D
102
{ACAD_REACTORS
330
436
102
}
330
436
100
AcDbXrecord
340
0
  0
XRECORD
  5
44E
102
{ACAD_REACTORS
330
436
102
}
330
436
100
AcDbXrecord
 70
     0
  0
XRECORD
  5
442
102
{ACAD_REACTORS
330
436
102
}
330
436
100
AcDbXrecord
  1
{FAEB1C32-E019-11D5-929B-00C0DF256EC4}
  0
DICTIONARYVAR
  5
464
102
{ACAD_REACTORS
330
457
102
}
330
457
100
DictionaryVariables
280
     0
  1
1:1
  0
DICTIONARYVAR
  5
45E
102
{ACAD_REACTORS
330
457
102
}
330
457
100
DictionaryVariables
280
     0
  1
3.500000
  0
DICTIONARYVAR
  5
45F
102
{ACAD_REACTORS
330
457
102
}
330
457
100
DictionaryVariables
280
     0
  1
acadiso.lin
  0
DICTIONARYVAR
  5
459
102
{ACAD_REACTORS
330
457
102
}
330
457
100
DictionaryVariables
280
     0
  1
Standard
  0
DICTIONARYVAR
  5
458
102
{ACAD_REACTORS
330
457
102
}
330
457
100
DictionaryVariables
280
     0
  1
Standard
  0
DICTIONARYVAR
  5
460
102
{ACAD_REACTORS
330
457
102
}
330
457
100
DictionaryVariables
280
     0
  1
2
  0
DICTIONARYVAR
  5
461
102
{ACAD_REACTORS
330
457
102
}
330
457
100
DictionaryVariables
280
     0
  1
1
  0
DICTIONARYVAR
  5
465
102
{ACAD_REACTORS
330
457
102
}
330
457
100
DictionaryVariables
280
     0
  1
1
  0
DICTIONARYVAR
  5
45B
102
{ACAD_REACTORS
330
457
102
}
330
457
100
DictionaryVariables
280
     0
  1
80.000000
  0
DICTIONARYVAR
  5
45A
102
{ACAD_REACTORS
330
457
102
}
330
457
100
DictionaryVariables
280
     0
  1
5.000000
  0
DICTIONARY
  5
468
330
45
100
AcDbDictionary
280
     1
  3
ACAD_XREC_ROUNDTRIP
360
469
  0
DICTIONARY
  5
466
330
44
100
AcDbDictionary
280
     1
  3
ACAD_XREC_ROUNDTRIP
360
467
  0
DICTIONARY
  5
46A
330
46
100
AcDbDictionary
280
     1
  3
ACAD_XREC_ROUNDTRIP
360
46B
  0
XRECORD
  5
469
102
{ACAD_REACTORS
330
468
102
}
330
468
100
AcDbXrecord
102
MATERIAL
148
0.0
149
0.0
149
0.0
 93
        0
 94
      127
282
     0
 72
     1
 77
     1
171
     1
175
     1
179
     1
273
     0
  0
XRECORD
  5
467
102
{ACAD_REACTORS
330
466
102
}
330
466
100
AcDbXrecord
102
MATERIAL
148
0.0
149
0.0
149
0.0
 93
        0
 94
      127
282
     0
 72
     1
 77
     1
171
     1
175
     1
179
     1
273
     0
  0
XRECORD
  5
46B
102
{ACAD_REACTORS
330
46A
102
}
330
46A
100
AcDbXrecord
102
MATERIAL
148
0.0
149
0.0
149
0.0
 93
        0
 94
      127
282
     0
 72
     1
 77
     1
171
     1
175
     1
179
     1
273
     0
  0
ENDSEC
  0
EOF
