  0
SECTION
  2
HEADER
  9
$ACADVER
  1
AC1014
  9
$ACADMAINTVER
 70
     9
  9
$DWGCODEPAGE
  3
ANSI_932
  9
$INSBASE
 10
0.0
 20
0.0
 30
0.0
  9
$EXTMIN
 10
15.0
 20
30.0
 30
0.0
  9
$EXTMAX
 10
1155.0
 20
840.0
 30
0.0
  9
$LIMMIN
 10
0.0
 20
0.0
  9
$LIMMAX
 10
420.0
 20
297.0
  9
$ORTHOMODE
 70
     0
  9
$REGENMODE
 70
     1
  9
$FILLMODE
 70
     1
  9
$QTEXTMODE
 70
     0
  9
$MIRRTEXT
 70
     1
  9
$DRAGMODE
 70
     2
  9
$LTSCALE
 40
0.2
  9
$OSMODE
 70
    37
  9
$ATTMODE
 70
     1
  9
$TEXTSIZE
 40
2.5
  9
$TRACEWID
 40
1.0
  9
$TEXTSTYLE
  7
STANDARD
  9
$CLAYER
  8
LAY-10
  9
$CELTYPE
  6
BYLAYER
  9
$CECOLOR
 62
   256
  9
$CELTSCALE
 40
1.0
  9
$DELOBJ
 70
     1
  9
$DISPSILH
 70
     0
  9
$DIMSCALE
 40
1.0
  9
$DIMASZ
 40
2.5
  9
$DIMEXO
 40
0.625
  9
$DIMDLI
 40
3.75
  9
$DIMRND
 40
0.0
  9
$DIMDLE
 40
0.0
  9
$DIMEXE
 40
1.25
  9
$DIMTP
 40
0.0
  9
$DIMTM
 40
0.0
  9
$DIMTXT
 40
2.5
  9
$DIMCEN
 40
2.5
  9
$DIMTSZ
 40
0.0
  9
$DIMTOL
 70
     0
  9
$DIMLIM
 70
     0
  9
$DIMTIH
 70
     0
  9
$DIMTOH
 70
     0
  9
$DIMSE1
 70
     0
  9
$DIMSE2
 70
     0
  9
$DIMTAD
 70
     1
  9
$DIMZIN
 70
     8
  9
$DIMBLK
  1

  9
$DIMASO
 70
     1
  9
$DIMSHO
 70
     1
  9
$DIMPOST
  1

  9
$DIMAPOST
  1

  9
$DIMALT
 70
     0
  9
$DIMALTD
 70
     3
  9
$DIMALTF
 40
0.03937007874016
  9
$DIMLFAC
 40
1.0
  9
$DIMTOFL
 70
     1
  9
$DIMTVP
 40
0.0
  9
$DIMTIX
 70
     0
  9
$DIMSOXD
 70
     0
  9
$DIMSAH
 70
     0
  9
$DIMBLK1
  1

  9
$DIMBLK2
  1

  9
$DIMSTYLE
  2
ISO-25
  9
$DIMCLRD
 70
     0
  9
$DIMCLRE
 70
     0
  9
$DIMCLRT
 70
     0
  9
$DIMTFAC
 40
1.0
  9
$DIMGAP
 40
0.625
  9
$DIMJUST
 70
     0
  9
$DIMSD1
 70
     0
  9
$DIMSD2
 70
     0
  9
$DIMTOLJ
 70
     0
  9
$DIMTZIN
 70
     8
  9
$DIMALTZ
 70
     0
  9
$DIMALTTZ
 70
     0
  9
$DIMFIT
 70
     3
  9
$DIMUPT
 70
     0
  9
$DIMUNIT
 70
     2
  9
$DIMDEC
 70
     2
  9
$DIMTDEC
 70
     2
  9
$DIMALTU
 70
     2
  9
$DIMALTTD
 70
     3
  9
$DIMTXSTY
  7
STANDARD
  9
$DIMAUNIT
 70
     0
  9
$LUNITS
 70
     2
  9
$LUPREC
 70
     4
  9
$SKETCHINC
 40
1.0
  9
$FILLETRAD
 40
10.0
  9
$AUNITS
 70
     0
  9
$AUPREC
 70
     0
  9
$MENU
  1
.
  9
$ELEVATION
 40
0.0
  9
$PELEVATION
 40
0.0
  9
$THICKNESS
 40
0.0
  9
$LIMCHECK
 70
     0
  9
$CHAMFERA
 40
0.0
  9
$CHAMFERB
 40
0.0
  9
$CHAMFERC
 40
0.0
  9
$CHAMFERD
 40
0.0
  9
$SKPOLY
 70
     0
  9
$TDCREATE
 40
2459229.338052627
  9
$TDUPDATE
 40
2459229.338053079
  9
$TDINDWG
 40
0.0000000116
  9
$TDUSRTIMER
 40
0.0000000116
  9
$USRTIMER
 70
     1
  9
$ANGBASE
 50
0.0
  9
$ANGDIR
 70
     0
  9
$PDMODE
 70
     0
  9
$PDSIZE
 40
0.0
  9
$PLINEWID
 40
0.0
  9
$COORDS
 70
     1
  9
$SPLFRAME
 70
     0
  9
$SPLINETYPE
 70
     6
  9
$SPLINESEGS
 70
     8
  9
$ATTDIA
 70
     0
  9
$ATTREQ
 70
     1
  9
$HANDLING
 70
     1
  9
$HANDSEED
  5
418
  9
$SURFTAB1
 70
     6
  9
$SURFTAB2
 70
     6
  9
$SURFTYPE
 70
     6
  9
$SURFU
 70
     6
  9
$SURFV
 70
     6
  9
$UCSNAME
  2

  9
$UCSORG
 10
0.0
 20
0.0
 30
0.0
  9
$UCSXDIR
 10
1.0
 20
0.0
 30
0.0
  9
$UCSYDIR
 10
0.0
 20
1.0
 30
0.0
  9
$PUCSNAME
  2

  9
$PUCSORG
 10
0.0
 20
0.0
 30
0.0
  9
$PUCSXDIR
 10
1.0
 20
0.0
 30
0.0
  9
$PUCSYDIR
 10
0.0
 20
1.0
 30
0.0
  9
$USERI1
 70
     0
  9
$USERI2
 70
     0
  9
$USERI3
 70
     0
  9
$USERI4
 70
     0
  9
$USERI5
 70
     0
  9
$USERR1
 40
0.0
  9
$USERR2
 40
0.0
  9
$USERR3
 40
0.0
  9
$USERR4
 40
0.0
  9
$USERR5
 40
0.0
  9
$WORLDVIEW
 70
     1
  9
$SHADEDGE
 70
     3
  9
$SHADEDIF
 70
    70
  9
$TILEMODE
 70
     1
  9
$MAXACTVP
 70
    64
  9
$PINSBASE
 10
0.0
 20
0.0
 30
0.0
  9
$PLIMCHECK
 70
     0
  9
$PEXTMIN
 10
1.000000000000000E+20
 20
1.000000000000000E+20
 30
1.000000000000000E+20
  9
$PEXTMAX
 10
-1.000000000000000E+20
 20
-1.000000000000000E+20
 30
-1.000000000000000E+20
  9
$PLIMMIN
 10
0.0
 20
0.0
  9
$PLIMMAX
 10
420.0
 20
297.0
  9
$UNITMODE
 70
     0
  9
$VISRETAIN
 70
     1
  9
$PLINEGEN
 70
     0
  9
$PSLTSCALE
 70
     1
  9
$TREEDEPTH
 70
  3020
  9
$PICKSTYLE
 70
     1
  9
$CMLSTYLE
  2
STANDARD
  9
$CMLJUST
 70
     0
  9
$CMLSCALE
 40
20.0
  9
$PROXYGRAPHICS
 70
     1
  9
$MEASUREMENT
 70
     1
  0
ENDSEC
  0
SECTION
  2
CLASSES
  0
CLASS
  1
ACDBDICTIONARYWDFLT
  2
AcDbDictionaryWithDefault
  3
ObjectDBX Classes
 90
        0
280
     0
281
     0
  0
CLASS
  1
VISUALSTYLE
  2
AcDbVisualStyle
  3
ObjectDBX Classes
 90
     4095
280
     0
281
     0
  0
CLASS
  1
MATERIAL
  2
AcDbMaterial
  3
ObjectDBX Classes
 90
     1153
280
     0
281
     0
  0
CLASS
  1
SCALE
  2
AcDbScale
  3
ObjectDBX Classes
 90
     1153
280
     0
281
     0
  0
CLASS
  1
TABLESTYLE
  2
AcDbTableStyle
  3
ObjectDBX Classes
 90
     4095
280
     0
281
     0
  0
CLASS
  1
MLEADERSTYLE
  2
AcDbMLeaderStyle
  3
ACDB_MLEADERSTYLE_CLASS
 90
     4095
280
     0
281
     0
  0
CLASS
  1
SUN
  2
AcDbSun
  3
SCENEOE
 90
     1153
280
     0
281
     0
  0
CLASS
  1
DICTIONARYVAR
  2
AcDbDictionaryVar
  3
ObjectDBX Classes
 90
        0
280
     0
281
     0
  0
CLASS
  1
XRECORD
  2
AcDbXrecord
  3
ObjectDBX Classes
 90
        0
280
     0
281
     0
  0
CLASS
  1
LWPOLYLINE
  2
AcDbPolyline
  3
ObjectDBX Classes
 90
        0
280
     0
281
     1
  0
CLASS
  1
HATCH
  2
AcDbHatch
  3
ObjectDBX Classes
 90
        0
280
     0
281
     1
  0
CLASS
  1
ACDBPLACEHOLDER
  2
AcDbPlaceHolder
  3
ObjectDBX Classes
 90
        0
280
     0
281
     0
  0
CLASS
  1
LAYOUT
  2
AcDbLayout
  3
ObjectDBX Classes
 90
        0
280
     0
281
     0
  0
ENDSEC
  0
SECTION
  2
TABLES
  0
TABLE
  2
VPORT
  5
8
102
{ACAD_XDICTIONARY
360
40D
102
}
330
0
100
AcDbSymbolTable
 70
     1
  0
VPORT
  5
29
330
8
100
AcDbSymbolTableRecord
100
AcDbViewportTableRecord
  2
*ACTIVE
 70
     0
 10
0.0
 20
0.0
 11
1.0
 21
1.0
 12
585.0000000000001
 22
435.0
 13
0.0
 23
0.0
 14
10.0
 24
10.0
 15
10.0
 25
10.0
 16
0.0
 26
0.0
 36
1.0
 17
0.0
 27
0.0
 37
0.0
 40
810.0
 41
1.407407407407408
 42
50.0
 43
0.0
 44
0.0
 50
0.0
 51
0.0
 71
     0
 72
  1000
 73
     1
 74
     3
 75
     0
 76
     0
 77
     0
 78
     0
  0
ENDTAB
  0
TABLE
  2
LTYPE
  5
5
330
0
100
AcDbSymbolTable
 70
     6
  0
LTYPE
  5
14
330
5
100
AcDbSymbolTableRecord
100
AcDbLinetypeTableRecord
  2
BYBLOCK
 70
     0
  3

 72
    65
 73
     0
 40
0.0
  0
LTYPE
  5
15
330
5
100
AcDbSymbolTableRecord
100
AcDbLinetypeTableRecord
  2
BYLAYER
 70
     0
  3

 72
    65
 73
     0
 40
0.0
  0
LTYPE
  5
16
330
5
100
AcDbSymbolTableRecord
100
AcDbLinetypeTableRecord
  2
CONTINUOUS
 70
     0
  3
Solid line
 72
    65
 73
     0
 40
0.0
  0
LTYPE
  5
6E
330
5
100
AcDbSymbolTableRecord
100
AcDbLinetypeTableRecord
  2
HIDDEN
 70
     0
  3
Hidden __ __ __ __ __ __ __ __ __ __ __ __ __ __
 72
    65
 73
     2
 40
9.524999999999999
 49
6.35
 74
     0
 49
-3.175
 74
     0
  0
LTYPE
  5
6F
330
5
100
AcDbSymbolTableRecord
100
AcDbLinetypeTableRecord
  2
CENTER
 70
     0
  3
Center ____ _ ____ _ ____ _ ____ _ ____ _ ____
 72
    65
 73
     4
 40
50.8
 49
31.75
 74
     0
 49
-6.35
 74
     0
 49
6.35
 74
     0
 49
-6.35
 74
     0
  0
LTYPE
  5
70
330
5
100
AcDbSymbolTableRecord
100
AcDbLinetypeTableRecord
  2
PHANTOM
 70
     0
  3
Phantom ______  __  __  ______  __  __  ______ 
 72
    65
 73
     6
 40
63.50000000000001
 49
31.75
 74
     0
 49
-6.35
 74
     0
 49
6.35
 74
     0
 49
-6.35
 74
     0
 49
6.35
 74
     0
 49
-6.35
 74
     0
  0
LTYPE
  5
71
330
5
100
AcDbSymbolTableRecord
100
AcDbLinetypeTableRecord
  2
ACAD_ISO06W100
 70
     0
  3
ISO long-dash triple-dot ____ ... ____ ... ____
 72
    65
 73
     8
 40
36.0
 49
24.0
 74
     0
 49
-3.0
 74
     0
 49
0.0
 74
     0
 49
-3.0
 74
     0
 49
0.0
 74
     0
 49
-3.0
 74
     0
 49
0.0
 74
     0
 49
-3.0
 74
     0
  0
LTYPE
  5
72
330
5
100
AcDbSymbolTableRecord
100
AcDbLinetypeTableRecord
  2
ACAD_ISO15W100
 70
     0
  3
ISO double-dash triple-dot __ __ . . . __ __ . .
 72
    65
 73
    10
 40
39.0
 49
12.0
 74
     0
 49
-3.0
 74
     0
 49
12.0
 74
     0
 49
-3.0
 74
     0
 49
0.0
 74
     0
 49
-3.0
 74
     0
 49
0.0
 74
     0
 49
-3.0
 74
     0
 49
0.0
 74
     0
 49
-3.0
 74
     0
  0
ENDTAB
  0
TABLE
  2
LAYER
  5
2
330
0
100
AcDbSymbolTable
 70
     5
  0
LAYER
  5
10
330
2
100
AcDbSymbolTableRecord
100
AcDbLayerTableRecord
  2
0
 70
     0
 62
     7
  6
CONTINUOUS
  0
LAYER
  5
75
330
2
100
AcDbSymbolTableRecord
100
AcDbLayerTableRecord
  2
LAY-10
 70
     0
 62
     7
  6
CONTINUOUS
  0
LAYER
  5
76
330
2
100
AcDbSymbolTableRecord
100
AcDbLayerTableRecord
  2
LAY-20
 70
     0
 62
     7
  6
CONTINUOUS
  0
LAYER
  5
77
330
2
100
AcDbSymbolTableRecord
100
AcDbLayerTableRecord
  2
LAY-255
 70
     0
 62
     7
  6
CONTINUOUS
  0
LAYER
  5
362
330
2
100
AcDbSymbolTableRecord
100
AcDbLayerTableRecord
  2
DEFPOINTS
 70
     0
 62
     7
  6
CONTINUOUS
  0
ENDTAB
  0
TABLE
  2
STYLE
  5
3
330
0
100
AcDbSymbolTable
 70
     4
  0
STYLE
  5
11
330
3
100
AcDbSymbolTableRecord
100
AcDbTextStyleTableRecord
  2
STANDARD
 70
     0
 40
0.0
 41
1.0
 50
0.0
 71
     0
 42
2.5
  3
simplex
  4
bigfont
  0
STYLE
  5
73
330
3
100
AcDbSymbolTableRecord
100
AcDbTextStyleTableRecord
  2
EXCADSTD
 70
     0
 40
0.0
 41
1.0
 50
0.0
 71
     0
 42
2.5
  3
simplex
  4
bigfont
  0
STYLE
  5
74
330
3
100
AcDbSymbolTableRecord
100
AcDbTextStyleTableRecord
  2
EXCADVERT
 70
     4
 40
0.0
 41
1.0
 50
0.0
 71
     0
 42
2.5
  3
simplex
  4
bigfont
  0
STYLE
  5
360
330
3
100
AcDbSymbolTableRecord
100
AcDbTextStyleTableRecord
  2
EXCADDIM1
 70
     0
 40
0.0
 41
0.84
 50
0.0
 71
     0
 42
2.5
  3
simplex
  4
bigfont
  0
ENDTAB
  0
TABLE
  2
VIEW
  5
6
330
0
100
AcDbSymbolTable
 70
     0
  0
ENDTAB
  0
TABLE
  2
UCS
  5
7
330
0
100
AcDbSymbolTable
 70
     0
  0
ENDTAB
  0
TABLE
  2
APPID
  5
9
330
0
100
AcDbSymbolTable
 70
     2
  0
APPID
  5
12
330
9
100
AcDbSymbolTableRecord
100
AcDbRegAppTableRecord
  2
ACAD
 70
     0
  0
APPID
  5
417
330
9
100
AcDbSymbolTableRecord
100
AcDbRegAppTableRecord
  2
ACAD_MLEADERVER
 70
     0
  0
ENDTAB
  0
TABLE
  2
DIMSTYLE
  5
A
330
0
100
AcDbSymbolTable
 70
     1
  0
DIMSTYLE
105
27
102
{ACAD_REACTORS
330
361
330
36F
330
37C
330
388
330
395
330
3A2
330
3AF
102
}
330
A
100
AcDbSymbolTableRecord
100
AcDbDimStyleTableRecord
  2
ISO-25
 70
     0
  3

  4

  5

  6

  7

 40
1.0
 41
2.5
 42
0.625
 43
3.75
 44
1.25
 45
0.0
 46
0.0
 47
0.0
 48
0.0
140
2.5
141
2.5
142
0.0
143
0.03937007874016
144
1.0
145
0.0
146
1.0
147
0.625
 71
     0
 72
     0
 73
     0
 74
     0
 75
     0
 76
     0
 77
     1
 78
     8
170
     0
171
     3
172
     1
173
     0
174
     0
175
     0
176
     0
177
     0
178
     0
270
     2
271
     2
272
     2
273
     2
274
     3
340
11
275
     0
280
     0
281
     0
282
     0
283
     0
284
     8
285
     0
286
     0
287
     5
288
     0
  0
ENDTAB
  0
TABLE
  2
BLOCK_RECORD
  5
1
330
0
100
AcDbSymbolTable
 70
    21
  0
BLOCK_RECORD
  5
1F
330
1
100
AcDbSymbolTableRecord
100
AcDbBlockTableRecord
  2
*MODEL_SPACE
  0
BLOCK_RECORD
  5
1B
330
1
100
AcDbSymbolTableRecord
100
AcDbBlockTableRecord
  2
*PAPER_SPACE
  0
BLOCK_RECORD
  5
78
330
1
100
AcDbSymbolTableRecord
100
AcDbBlockTableRecord
  2
EX_NORM
  0
BLOCK_RECORD
  5
7B
330
1
100
AcDbSymbolTableRecord
100
AcDbBlockTableRecord
  2
EX_BNORM
  0
BLOCK_RECORD
  5
7E
330
1
100
AcDbSymbolTableRecord
100
AcDbBlockTableRecord
  2
EX_BCIR
  0
BLOCK_RECORD
  5
81
330
1
100
AcDbSymbolTableRecord
100
AcDbBlockTableRecord
  2
EX_RCIVIL
  0
BLOCK_RECORD
  5
84
330
1
100
AcDbSymbolTableRecord
100
AcDbBlockTableRecord
  2
EX_SLANT
  0
BLOCK_RECORD
  5
87
330
1
100
AcDbSymbolTableRecord
100
AcDbBlockTableRecord
  2
EX_NONE
  0
BLOCK_RECORD
  5
8A
330
1
100
AcDbSymbolTableRecord
100
AcDbBlockTableRecord
  2
EX_CIVIL
  0
BLOCK_RECORD
  5
8D
330
1
100
AcDbSymbolTableRecord
100
AcDbBlockTableRecord
  2
EX_WCIR
  0
BLOCK_RECORD
  5
90
330
1
100
AcDbSymbolTableRecord
100
AcDbBlockTableRecord
  2
EX_WCIR2
  0
BLOCK_RECORD
  5
93
330
1
100
AcDbSymbolTableRecord
100
AcDbBlockTableRecord
  2
EX_WNORM
  0
BLOCK_RECORD
  5
96
330
1
100
AcDbSymbolTableRecord
100
AcDbBlockTableRecord
  2
EX_NNORM
  0
BLOCK_RECORD
  5
99
330
1
100
AcDbSymbolTableRecord
100
AcDbBlockTableRecord
  2
EX_BBOX
  0
BLOCK_RECORD
  5
9C
330
1
100
AcDbSymbolTableRecord
100
AcDbBlockTableRecord
  2
EX_WBOX
  0
BLOCK_RECORD
  5
9F
330
1
100
AcDbSymbolTableRecord
100
AcDbBlockTableRecord
  2
EX_INTEGRAL
  0
BLOCK_RECORD
  5
363
330
1
100
AcDbSymbolTableRecord
100
AcDbBlockTableRecord
  2
*D15
  0
BLOCK_RECORD
  5
370
330
1
100
AcDbSymbolTableRecord
100
AcDbBlockTableRecord
  2
*D16
  0
BLOCK_RECORD
  5
37D
330
1
100
AcDbSymbolTableRecord
100
AcDbBlockTableRecord
  2
*D17
  0
BLOCK_RECORD
  5
389
330
1
100
AcDbSymbolTableRecord
100
AcDbBlockTableRecord
  2
*D18
  0
BLOCK_RECORD
  5
396
330
1
100
AcDbSymbolTableRecord
100
AcDbBlockTableRecord
  2
*D19
  0
BLOCK_RECORD
  5
3A3
330
1
100
AcDbSymbolTableRecord
100
AcDbBlockTableRecord
  2
*D20
  0
BLOCK_RECORD
  5
3B0
330
1
100
AcDbSymbolTableRecord
100
AcDbBlockTableRecord
  2
*D21
  0
ENDTAB
  0
ENDSEC
  0
SECTION
  2
BLOCKS
  0
BLOCK
  5
20
330
1F
100
AcDbEntity
  8
0
100
AcDbBlockBegin
  2
*MODEL_SPACE
 70
     0
 10
0.0
 20
0.0
 30
0.0
  3
*MODEL_SPACE
  1

  0
ENDBLK
  5
21
330
1F
100
AcDbEntity
  8
0
100
AcDbBlockEnd
  0
BLOCK
  5
1C
330
1B
100
AcDbEntity
 67
     1
  8
0
100
AcDbBlockBegin
  2
*PAPER_SPACE
 70
     0
 10
0.0
 20
0.0
 30
0.0
  3
*PAPER_SPACE
  1

  0
ENDBLK
  5
1D
330
1B
100
AcDbEntity
 67
     1
  8
0
100
AcDbBlockEnd
  0
BLOCK
  5
79
330
78
100
AcDbEntity
  8
0
100
AcDbBlockBegin
  2
EX_NORM
 70
     0
 10
0.0
 20
0.0
 30
0.0
  3
EX_NORM
  1

  0
LINE
  5
A2
330
78
100
AcDbEntity
  8
0
  6
CONTINUOUS
 62
     0
100
AcDbLine
 10
0.0
 20
0.0
 30
0.0
 11
-1.0
 21
0.0
 31
0.0
  0
LINE
  5
A3
330
78
100
AcDbEntity
  8
0
  6
CONTINUOUS
 62
     0
100
AcDbLine
 10
0.0
 20
0.0
 30
0.0
 11
-1.0
 21
0.166666667
 31
0.0
  0
LINE
  5
A4
330
78
100
AcDbEntity
  8
0
  6
CONTINUOUS
 62
     0
100
AcDbLine
 10
0.0
 20
0.0
 30
0.0
 11
-1.0
 21
-0.166666667
 31
0.0
  0
ENDBLK
  5
7A
330
78
100
AcDbEntity
  8
0
100
AcDbBlockEnd
  0
BLOCK
  5
7C
330
7B
100
AcDbEntity
  8
0
100
AcDbBlockBegin
  2
EX_BNORM
 70
     0
 10
0.0
 20
0.0
 30
0.0
  3
EX_BNORM
  1

  0
LINE
  5
A5
330
7B
100
AcDbEntity
  8
0
  6
CONTINUOUS
 62
     0
100
AcDbLine
 10
0.0
 20
0.0
 30
0.0
 11
-1.0
 21
0.0
 31
0.0
  0
LINE
  5
A6
330
7B
100
AcDbEntity
  8
0
  6
CONTINUOUS
 62
     0
100
AcDbLine
 10
0.0
 20
0.0
 30
0.0
 11
-1.0
 21
0.166666667
 31
0.0
  0
LINE
  5
A7
330
7B
100
AcDbEntity
  8
0
  6
CONTINUOUS
 62
     0
100
AcDbLine
 10
0.0
 20
0.0
 30
0.0
 11
-1.0
 21
-0.166666667
 31
0.0
  0
LINE
  5
A8
330
7B
100
AcDbEntity
  8
0
  6
CONTINUOUS
 62
     0
100
AcDbLine
 10
0.0
 20
0.0
 30
0.0
 11
-1.0
 21
0.083333333
 31
0.0
  0
LINE
  5
A9
330
7B
100
AcDbEntity
  8
0
  6
CONTINUOUS
 62
     0
100
AcDbLine
 10
0.0
 20
0.0
 30
0.0
 11
-1.0
 21
-0.083333333
 31
0.0
  0
LINE
  5
AA
330
7B
100
AcDbEntity
  8
0
  6
CONTINUOUS
 62
     0
100
AcDbLine
 10
-1.0
 20
0.166666667
 30
0.0
 11
-1.0
 21
-0.166666667
 31
0.0
  0
ENDBLK
  5
7D
330
7B
100
AcDbEntity
  8
0
100
AcDbBlockEnd
  0
BLOCK
  5
7F
330
7E
100
AcDbEntity
  8
0
100
AcDbBlockBegin
  2
EX_BCIR
 70
     0
 10
0.0
 20
0.0
 30
0.0
  3
EX_BCIR
  1

  0
LINE
  5
AB
330
7E
100
AcDbEntity
  8
0
  6
CONTINUOUS
 62
     0
100
AcDbLine
 10
0.0
 20
0.0
 30
0.0
 11
-1.0
 21
0.0
 31
0.0
  0
CIRCLE
  5
AC
330
7E
100
AcDbEntity
  8
0
  6
CONTINUOUS
 62
     0
100
AcDbCircle
 10
0.0
 20
0.0
 30
0.0
 40
0.5
  0
CIRCLE
  5
AD
330
7E
100
AcDbEntity
  8
0
  6
CONTINUOUS
 62
     0
100
AcDbCircle
 10
0.0
 20
0.0
 30
0.0
 40
0.25
  0
ENDBLK
  5
80
330
7E
100
AcDbEntity
  8
0
100
AcDbBlockEnd
  0
BLOCK
  5
82
330
81
100
AcDbEntity
  8
0
100
AcDbBlockBegin
  2
EX_RCIVIL
 70
     0
 10
0.0
 20
0.0
 30
0.0
  3
EX_RCIVIL
  1

  0
LINE
  5
AE
330
81
100
AcDbEntity
  8
0
  6
CONTINUOUS
 62
     0
100
AcDbLine
 10
0.0
 20
0.0
 30
0.0
 11
-1.0
 21
0.0
 31
0.0
  0
LINE
  5
AF
330
81
100
AcDbEntity
  8
0
  6
CONTINUOUS
 62
     0
100
AcDbLine
 10
-1.0
 20
-0.25
 30
0.0
 11
0.0
 21
-0.25
 31
0.0
  0
LINE
  5
B0
330
81
100
AcDbEntity
  8
0
  6
CONTINUOUS
 62
     0
100
AcDbLine
 10
-1.0
 20
-0.125
 30
0.0
 11
0.0
 21
-0.125
 31
0.0
  0
ENDBLK
  5
83
330
81
100
AcDbEntity
  8
0
100
AcDbBlockEnd
  0
BLOCK
  5
85
330
84
100
AcDbEntity
  8
0
100
AcDbBlockBegin
  2
EX_SLANT
 70
     0
 10
0.0
 20
0.0
 30
0.0
  3
EX_SLANT
  1

  0
LINE
  5
B1
330
84
100
AcDbEntity
  8
0
  6
CONTINUOUS
 62
     0
100
AcDbLine
 10
0.0
 20
0.0
 30
0.0
 11
-1.0
 21
0.0
 31
0.0
  0
LINE
  5
B2
330
84
100
AcDbEntity
  8
0
  6
CONTINUOUS
 62
     0
100
AcDbLine
 10
0.707106781
 20
0.707106781
 30
0.0
 11
-0.707106781
 21
-0.707106781
 31
0.0
  0
ENDBLK
  5
86
330
84
100
AcDbEntity
  8
0
100
AcDbBlockEnd
  0
BLOCK
  5
88
330
87
100
AcDbEntity
  8
0
100
AcDbBlockBegin
  2
EX_NONE
 70
     0
 10
0.0
 20
0.0
 30
0.0
  3
EX_NONE
  1

  0
LINE
  5
B3
330
87
100
AcDbEntity
  8
0
  6
CONTINUOUS
 62
     0
100
AcDbLine
 10
0.0
 20
0.0
 30
0.0
 11
-1.0
 21
0.0
 31
0.0
  0
ENDBLK
  5
89
330
87
100
AcDbEntity
  8
0
100
AcDbBlockEnd
  0
BLOCK
  5
8B
330
8A
100
AcDbEntity
  8
0
100
AcDbBlockBegin
  2
EX_CIVIL
 70
     0
 10
0.0
 20
0.0
 30
0.0
  3
EX_CIVIL
  1

  0
LINE
  5
B4
330
8A
100
AcDbEntity
  8
0
  6
CONTINUOUS
 62
     0
100
AcDbLine
 10
0.0
 20
0.0
 30
0.0
 11
-1.0
 21
0.0
 31
0.0
  0
LINE
  5
B5
330
8A
100
AcDbEntity
  8
0
  6
CONTINUOUS
 62
     0
100
AcDbLine
 10
-1.0
 20
0.25
 30
0.0
 11
0.0
 21
0.25
 31
0.0
  0
LINE
  5
B6
330
8A
100
AcDbEntity
  8
0
  6
CONTINUOUS
 62
     0
100
AcDbLine
 10
-1.0
 20
0.125
 30
0.0
 11
0.0
 21
0.125
 31
0.0
  0
ENDBLK
  5
8C
330
8A
100
AcDbEntity
  8
0
100
AcDbBlockEnd
  0
BLOCK
  5
8E
330
8D
100
AcDbEntity
  8
0
100
AcDbBlockBegin
  2
EX_WCIR
 70
     0
 10
0.0
 20
0.0
 30
0.0
  3
EX_WCIR
  1

  0
LINE
  5
B7
330
8D
100
AcDbEntity
  8
0
  6
CONTINUOUS
 62
     0
100
AcDbLine
 10
0.0
 20
0.0
 30
0.0
 11
-1.0
 21
0.0
 31
0.0
  0
CIRCLE
  5
B8
330
8D
100
AcDbEntity
  8
0
  6
CONTINUOUS
 62
     0
100
AcDbCircle
 10
0.0
 20
0.0
 30
0.0
 40
0.5
  0
ENDBLK
  5
8F
330
8D
100
AcDbEntity
  8
0
100
AcDbBlockEnd
  0
BLOCK
  5
91
330
90
100
AcDbEntity
  8
0
100
AcDbBlockBegin
  2
EX_WCIR2
 70
     0
 10
0.0
 20
0.0
 30
0.0
  3
EX_WCIR2
  1

  0
LINE
  5
B9
330
90
100
AcDbEntity
  8
0
  6
CONTINUOUS
 62
     0
100
AcDbLine
 10
-0.5
 20
0.0
 30
0.0
 11
-1.0
 21
0.0
 31
0.0
  0
CIRCLE
  5
BA
330
90
100
AcDbEntity
  8
0
  6
CONTINUOUS
 62
     0
100
AcDbCircle
 10
0.0
 20
0.0
 30
0.0
 40
0.5
  0
ENDBLK
  5
92
330
90
100
AcDbEntity
  8
0
100
AcDbBlockEnd
  0
BLOCK
  5
94
330
93
100
AcDbEntity
  8
0
100
AcDbBlockBegin
  2
EX_WNORM
 70
     0
 10
0.0
 20
0.0
 30
0.0
  3
EX_WNORM
  1

  0
LINE
  5
BB
330
93
100
AcDbEntity
  8
0
  6
CONTINUOUS
 62
     0
100
AcDbLine
 10
-1.0
 20
0.0
 30
0.0
 11
-1.0
 21
0.0
 31
0.0
  0
LINE
  5
BC
330
93
100
AcDbEntity
  8
0
  6
CONTINUOUS
 62
     0
100
AcDbLine
 10
0.0
 20
0.0
 30
0.0
 11
-1.0
 21
0.166666667
 31
0.0
  0
LINE
  5
BD
330
93
100
AcDbEntity
  8
0
  6
CONTINUOUS
 62
     0
100
AcDbLine
 10
0.0
 20
0.0
 30
0.0
 11
-1.0
 21
-0.166666667
 31
0.0
  0
LINE
  5
BE
330
93
100
AcDbEntity
  8
0
  6
CONTINUOUS
 62
     0
100
AcDbLine
 10
-1.0
 20
0.166666667
 30
0.0
 11
-1.0
 21
-0.166666667
 31
0.0
  0
ENDBLK
  5
95
330
93
100
AcDbEntity
  8
0
100
AcDbBlockEnd
  0
BLOCK
  5
97
330
96
100
AcDbEntity
  8
0
100
AcDbBlockBegin
  2
EX_NNORM
 70
     0
 10
0.0
 20
0.0
 30
0.0
  3
EX_NNORM
  1

  0
LINE
  5
BF
330
96
100
AcDbEntity
  8
0
  6
CONTINUOUS
 62
     0
100
AcDbLine
 10
0.0
 20
0.0
 30
0.0
 11
-1.0
 21
0.0
 31
0.0
  0
LINE
  5
C0
330
96
100
AcDbEntity
  8
0
  6
CONTINUOUS
 62
     0
100
AcDbLine
 10
0.0
 20
0.0
 30
0.0
 11
-1.0
 21
0.166666667
 31
0.0
  0
LINE
  5
C1
330
96
100
AcDbEntity
  8
0
  6
CONTINUOUS
 62
     0
100
AcDbLine
 10
0.0
 20
0.0
 30
0.0
 11
-1.0
 21
-0.166666667
 31
0.0
  0
LINE
  5
C2
330
96
100
AcDbEntity
  8
0
  6
CONTINUOUS
 62
     0
100
AcDbLine
 10
-1.0
 20
0.166666667
 30
0.0
 11
-1.0
 21
-0.166666667
 31
0.0
  0
ENDBLK
  5
98
330
96
100
AcDbEntity
  8
0
100
AcDbBlockEnd
  0
BLOCK
  5
9A
330
99
100
AcDbEntity
  8
0
100
AcDbBlockBegin
  2
EX_BBOX
 70
     0
 10
0.0
 20
0.0
 30
0.0
  3
EX_BBOX
  1

  0
LINE
  5
C3
330
99
100
AcDbEntity
  8
0
  6
CONTINUOUS
 62
     0
100
AcDbLine
 10
0.0
 20
0.0
 30
0.0
 11
-1.0
 21
0.0
 31
0.0
  0
LINE
  5
C4
330
99
100
AcDbEntity
  8
0
  6
CONTINUOUS
 62
     0
100
AcDbLine
 10
-0.5
 20
0.5
 30
0.0
 11
0.5
 21
0.5
 31
0.0
  0
LINE
  5
C5
330
99
100
AcDbEntity
  8
0
  6
CONTINUOUS
 62
     0
100
AcDbLine
 10
0.5
 20
0.5
 30
0.0
 11
0.5
 21
-0.5
 31
0.0
  0
LINE
  5
C6
330
99
100
AcDbEntity
  8
0
  6
CONTINUOUS
 62
     0
100
AcDbLine
 10
0.5
 20
-0.5
 30
0.0
 11
-0.5
 21
-0.5
 31
0.0
  0
LINE
  5
C7
330
99
100
AcDbEntity
  8
0
  6
CONTINUOUS
 62
     0
100
AcDbLine
 10
-0.5
 20
-0.5
 30
0.0
 11
-0.5
 21
0.5
 31
0.0
  0
LINE
  5
C8
330
99
100
AcDbEntity
  8
0
  6
CONTINUOUS
 62
     0
100
AcDbLine
 10
-0.25
 20
0.25
 30
0.0
 11
0.25
 21
0.25
 31
0.0
  0
LINE
  5
C9
330
99
100
AcDbEntity
  8
0
  6
CONTINUOUS
 62
     0
100
AcDbLine
 10
0.25
 20
0.25
 30
0.0
 11
0.25
 21
-0.25
 31
0.0
  0
LINE
  5
CA
330
99
100
AcDbEntity
  8
0
  6
CONTINUOUS
 62
     0
100
AcDbLine
 10
0.25
 20
-0.25
 30
0.0
 11
-0.25
 21
-0.25
 31
0.0
  0
LINE
  5
CB
330
99
100
AcDbEntity
  8
0
  6
CONTINUOUS
 62
     0
100
AcDbLine
 10
-0.25
 20
-0.25
 30
0.0
 11
-0.25
 21
0.25
 31
0.0
  0
ENDBLK
  5
9B
330
99
100
AcDbEntity
  8
0
100
AcDbBlockEnd
  0
BLOCK
  5
9D
330
9C
100
AcDbEntity
  8
0
100
AcDbBlockBegin
  2
EX_WBOX
 70
     0
 10
0.0
 20
0.0
 30
0.0
  3
EX_WBOX
  1

  0
LINE
  5
CC
330
9C
100
AcDbEntity
  8
0
  6
CONTINUOUS
 62
     0
100
AcDbLine
 10
-0.5
 20
0.0
 30
0.0
 11
-1.0
 21
0.0
 31
0.0
  0
LINE
  5
CD
330
9C
100
AcDbEntity
  8
0
  6
CONTINUOUS
 62
     0
100
AcDbLine
 10
-0.5
 20
0.5
 30
0.0
 11
0.5
 21
0.5
 31
0.0
  0
LINE
  5
CE
330
9C
100
AcDbEntity
  8
0
  6
CONTINUOUS
 62
     0
100
AcDbLine
 10
0.5
 20
0.5
 30
0.0
 11
0.5
 21
-0.5
 31
0.0
  0
LINE
  5
CF
330
9C
100
AcDbEntity
  8
0
  6
CONTINUOUS
 62
     0
100
AcDbLine
 10
0.5
 20
-0.5
 30
0.0
 11
-0.5
 21
-0.5
 31
0.0
  0
LINE
  5
D0
330
9C
100
AcDbEntity
  8
0
  6
CONTINUOUS
 62
     0
100
AcDbLine
 10
-0.5
 20
-0.5
 30
0.0
 11
-0.5
 21
0.5
 31
0.0
  0
ENDBLK
  5
9E
330
9C
100
AcDbEntity
  8
0
100
AcDbBlockEnd
  0
BLOCK
  5
A0
330
9F
100
AcDbEntity
  8
0
100
AcDbBlockBegin
  2
EX_INTEGRAL
 70
     0
 10
0.0
 20
0.0
 30
0.0
  3
EX_INTEGRAL
  1

  0
LINE
  5
D1
330
9F
100
AcDbEntity
  8
0
  6
CONTINUOUS
 62
     0
100
AcDbLine
 10
0.0
 20
0.0
 30
0.0
 11
-1.0
 21
0.0
 31
0.0
  0
ARC
  5
D2
330
9F
100
AcDbEntity
  8
0
  6
CONTINUOUS
 62
     0
100
AcDbCircle
 10
0.542115
 20
0.164992
 30
0.0
 40
0.56667
100
AcDbArc
 50
73.07249033629006
 51
196.9275130221199
  0
ARC
  5
D3
330
9F
100
AcDbEntity
  8
0
  6
CONTINUOUS
 62
     0
100
AcDbCircle
 10
-0.542115
 20
-0.164992
 30
0.0
 40
0.56667
100
AcDbArc
 50
253.0724869220464
 51
16.9275130559125
  0
ENDBLK
  5
A1
330
9F
100
AcDbEntity
  8
0
100
AcDbBlockEnd
  0
BLOCK
  5
364
330
363
100
AcDbEntity
  8
0
100
AcDbBlockBegin
  2
*D15
 70
     1
 10
0.0
 20
0.0
 30
0.0
  3
*D15
  1

  0
LINE
  5
366
330
363
100
AcDbEntity
  8
LAY-20
  6
CONTINUOUS
 62
     4
100
AcDbLine
 10
433.4999999999951
 20
275.092190801443
 30
0.0
 11
364.4999999999951
 21
275.092190801443
 31
0.0
  0
LINE
  5
367
330
363
100
AcDbEntity
  8
LAY-20
  6
CONTINUOUS
 62
     4
100
AcDbLine
 10
395.499999999995
 20
300.198641240523
 30
0.0
 11
364.4999999999951
 21
300.198641240523
 31
0.0
  0
LINE
  5
368
330
363
100
AcDbEntity
  8
LAY-20
  6
CONTINUOUS
 62
     4
100
AcDbLine
 10
368.9999999999951
 20
282.592190801443
 30
0.0
 11
368.9999999999951
 21
292.698641240523
 31
0.0
  0
INSERT
  5
369
330
363
100
AcDbEntity
  8
LAY-20
 62
     4
100
AcDbBlockReference
  2
EX_BNORM
 10
368.9999999999951
 20
275.092190801443
 30
0.0
 41
7.5
 42
7.5
 43
7.5
 50
270.0
  0
INSERT
  5
36A
330
363
100
AcDbEntity
  8
LAY-20
 62
     4
100
AcDbBlockReference
  2
EX_BNORM
 10
368.9999999999951
 20
300.198641240523
 30
0.0
 41
7.5
 42
7.5
 43
7.5
 50
90.0
  0
MTEXT
  5
36B
330
363
100
AcDbEntity
  8
LAY-20
 62
     7
100
AcDbMText
 10
361.4999999999951
 20
287.645416020983
 30
0.0
 40
9.3543312
 41
0.0
 71
     5
 72
     1
  1
25
  7
EXCADDIM1
 11
0.0
 21
1.0
 31
0.0
  0
POINT
  5
36C
330
363
100
AcDbEntity
  8
DEFPOINTS
 62
     0
100
AcDbPoint
 10
437.9999999999951
 20
275.092190801443
 30
0.0
  0
POINT
  5
36D
330
363
100
AcDbEntity
  8
DEFPOINTS
 62
     0
100
AcDbPoint
 10
399.999999999995
 20
300.198641240523
 30
0.0
  0
POINT
  5
36E
330
363
100
AcDbEntity
  8
DEFPOINTS
 62
     0
100
AcDbPoint
 10
368.9999999999951
 20
300.198641240523
 30
0.0
  0
ENDBLK
  5
365
330
363
100
AcDbEntity
  8
0
100
AcDbBlockEnd
  0
BLOCK
  5
371
330
370
100
AcDbEntity
  8
0
100
AcDbBlockBegin
  2
*D16
 70
     1
 10
0.0
 20
0.0
 30
0.0
  3
*D16
  1

  0
LINE
  5
373
330
370
100
AcDbEntity
  8
LAY-20
  6
CONTINUOUS
 62
     4
100
AcDbLine
 10
556.5
 20
230.19864124052
 30
0.0
 11
625.5
 21
230.19864124052
 31
0.0
  0
LINE
  5
374
330
370
100
AcDbEntity
  8
LAY-20
  6
CONTINUOUS
 62
     4
100
AcDbLine
 10
594.5
 20
300.19864124052
 30
0.0
 11
625.5
 21
300.19864124052
 31
0.0
  0
LINE
  5
375
330
370
100
AcDbEntity
  8
LAY-20
  6
CONTINUOUS
 62
     4
100
AcDbLine
 10
621.0
 20
237.69864124052
 30
0.0
 11
621.0
 21
292.69864124052
 31
0.0
  0
INSERT
  5
376
330
370
100
AcDbEntity
  8
LAY-20
 62
     4
100
AcDbBlockReference
  2
EX_BNORM
 10
621.0
 20
230.19864124052
 30
0.0
 41
7.5
 42
7.5
 43
7.5
 50
270.0
  0
INSERT
  5
377
330
370
100
AcDbEntity
  8
LAY-20
 62
     4
100
AcDbBlockReference
  2
EX_BNORM
 10
621.0
 20
300.19864124052
 30
0.0
 41
7.5
 42
7.5
 43
7.5
 50
90.0
  0
MTEXT
  5
378
330
370
100
AcDbEntity
  8
LAY-20
 62
     7
100
AcDbMText
 10
613.5
 20
265.19864124052
 30
0.0
 40
9.3543312
 41
0.0
 71
     5
 72
     1
  1
70
  7
EXCADDIM1
 11
0.0
 21
1.0
 31
0.0
  0
POINT
  5
379
330
370
100
AcDbEntity
  8
DEFPOINTS
 62
     0
100
AcDbPoint
 10
552.0
 20
230.19864124052
 30
0.0
  0
POINT
  5
37A
330
370
100
AcDbEntity
  8
DEFPOINTS
 62
     0
100
AcDbPoint
 10
590.0
 20
300.19864124052
 30
0.0
  0
POINT
  5
37B
330
370
100
AcDbEntity
  8
DEFPOINTS
 62
     0
100
AcDbPoint
 10
621.0
 20
300.19864124052
 30
0.0
  0
ENDBLK
  5
372
330
370
100
AcDbEntity
  8
0
100
AcDbBlockEnd
  0
BLOCK
  5
37E
330
37D
100
AcDbEntity
  8
0
100
AcDbBlockBegin
  2
*D17
 70
     1
 10
0.0
 20
0.0
 30
0.0
  3
*D17
  1

  0
LINE
  5
380
330
37D
100
AcDbEntity
  8
LAY-20
  6
CONTINUOUS
 62
     4
100
AcDbLine
 10
535.97942913437
 20
345.0
 30
0.0
 11
625.5
 21
345.0
 31
0.0
  0
LINE
  5
381
330
37D
100
AcDbEntity
  8
LAY-20
  6
CONTINUOUS
 62
     4
100
AcDbLine
 10
621.0
 20
307.69864124052
 30
0.0
 11
621.0
 21
337.5
 31
0.0
  0
INSERT
  5
382
330
37D
100
AcDbEntity
  8
LAY-20
 62
     4
100
AcDbBlockReference
  2
EX_BNORM
 10
621.0
 20
300.19864124052
 30
0.0
 41
7.5
 42
7.5
 43
7.5
 50
270.0
  0
INSERT
  5
383
330
37D
100
AcDbEntity
  8
LAY-20
 62
     4
100
AcDbBlockReference
  2
EX_BNORM
 10
621.0
 20
345.0
 30
0.0
 41
7.5
 42
7.5
 43
7.5
 50
90.0
  0
MTEXT
  5
384
330
37D
100
AcDbEntity
  8
LAY-20
 62
     7
100
AcDbMText
 10
613.5
 20
322.59932062026
 30
0.0
 40
9.3543312
 41
0.0
 71
     5
 72
     1
  1
45
  7
EXCADDIM1
 11
0.0
 21
1.0
 31
0.0
  0
POINT
  5
385
330
37D
100
AcDbEntity
  8
DEFPOINTS
 62
     0
100
AcDbPoint
 10
621.0
 20
300.19864124052
 30
0.0
  0
POINT
  5
386
330
37D
100
AcDbEntity
  8
DEFPOINTS
 62
     0
100
AcDbPoint
 10
531.47942913437
 20
345.0
 30
0.0
  0
POINT
  5
387
330
37D
100
AcDbEntity
  8
DEFPOINTS
 62
     0
100
AcDbPoint
 10
621.0
 20
345.0
 30
0.0
  0
ENDBLK
  5
37F
330
37D
100
AcDbEntity
  8
0
100
AcDbBlockEnd
  0
BLOCK
  5
38A
330
389
100
AcDbEntity
  8
0
100
AcDbBlockBegin
  2
*D18
 70
     1
 10
0.0
 20
0.0
 30
0.0
  3
*D18
  1

  0
LINE
  5
38C
330
389
100
AcDbEntity
  8
LAY-20
  6
CONTINUOUS
 62
     4
100
AcDbLine
 10
399.0
 20
302.19864124052
 30
0.0
 11
399.0
 21
421.5
 31
0.0
  0
LINE
  5
38D
330
389
100
AcDbEntity
  8
LAY-20
  6
CONTINUOUS
 62
     4
100
AcDbLine
 10
591.0
 20
302.19864124051
 30
0.0
 11
591.0
 21
421.5
 31
0.0
  0
LINE
  5
38E
330
389
100
AcDbEntity
  8
LAY-20
  6
CONTINUOUS
 62
     4
100
AcDbLine
 10
408.0
 20
417.0
 30
0.0
 11
582.0
 21
417.0
 31
0.0
  0
INSERT
  5
38F
330
389
100
AcDbEntity
  8
LAY-20
 62
     4
100
AcDbBlockReference
  2
EX_BNORM
 10
399.0
 20
417.0
 30
0.0
 41
9.0
 42
9.0
 43
9.0
 50
180.0
  0
INSERT
  5
390
330
389
100
AcDbEntity
  8
LAY-20
 62
     4
100
AcDbBlockReference
  2
EX_BNORM
 10
591.0
 20
417.0
 30
0.0
 41
9.0
 42
9.0
 43
9.0
  0
MTEXT
  5
391
330
389
100
AcDbEntity
  8
LAY-20
 62
     7
100
AcDbMText
 10
495.0
 20
424.5
 30
0.0
 40
9.3543312
 41
0.0
 71
     5
 72
     1
  1
%%c192
  7
EXCADDIM1
  0
POINT
  5
392
330
389
100
AcDbEntity
  8
DEFPOINTS
 62
     0
100
AcDbPoint
 10
399.0
 20
297.69864124052
 30
0.0
  0
POINT
  5
393
330
389
100
AcDbEntity
  8
DEFPOINTS
 62
     0
100
AcDbPoint
 10
591.0
 20
297.69864124051
 30
0.0
  0
POINT
  5
394
330
389
100
AcDbEntity
  8
DEFPOINTS
 62
     0
100
AcDbPoint
 10
591.0
 20
417.0
 30
0.0
  0
ENDBLK
  5
38B
330
389
100
AcDbEntity
  8
0
100
AcDbBlockEnd
  0
BLOCK
  5
397
330
396
100
AcDbEntity
  8
0
100
AcDbBlockBegin
  2
*D19
 70
     1
 10
0.0
 20
0.0
 30
0.0
  3
*D19
  1

  0
LINE
  5
399
330
396
100
AcDbEntity
  8
LAY-20
  6
CONTINUOUS
 62
     4
100
AcDbLine
 10
408.99999999999
 20
307.5
 30
0.0
 11
408.99999999999
 21
400.5
 31
0.0
  0
LINE
  5
39A
330
396
100
AcDbEntity
  8
LAY-20
  6
CONTINUOUS
 62
     4
100
AcDbLine
 10
581.0
 20
307.5
 30
0.0
 11
581.0
 21
400.5
 31
0.0
  0
LINE
  5
39B
330
396
100
AcDbEntity
  8
LAY-20
  6
CONTINUOUS
 62
     4
100
AcDbLine
 10
417.99999999999
 20
396.0
 30
0.0
 11
572.0
 21
396.0
 31
0.0
  0
INSERT
  5
39C
330
396
100
AcDbEntity
  8
LAY-20
 62
     4
100
AcDbBlockReference
  2
EX_BNORM
 10
408.99999999999
 20
396.0
 30
0.0
 41
9.0
 42
9.0
 43
9.0
 50
180.0
  0
INSERT
  5
39D
330
396
100
AcDbEntity
  8
LAY-20
 62
     4
100
AcDbBlockReference
  2
EX_BNORM
 10
581.0
 20
396.0
 30
0.0
 41
9.0
 42
9.0
 43
9.0
  0
MTEXT
  5
39E
330
396
100
AcDbEntity
  8
LAY-20
 62
     7
100
AcDbMText
 10
494.999999999995
 20
403.5
 30
0.0
 40
9.3543312
 41
0.0
 71
     5
 72
     1
  1
%%c172
  7
EXCADDIM1
  0
POINT
  5
39F
330
396
100
AcDbEntity
  8
DEFPOINTS
 62
     0
100
AcDbPoint
 10
408.99999999999
 20
303.0
 30
0.0
  0
POINT
  5
3A0
330
396
100
AcDbEntity
  8
DEFPOINTS
 62
     0
100
AcDbPoint
 10
581.0
 20
303.0
 30
0.0
  0
POINT
  5
3A1
330
396
100
AcDbEntity
  8
DEFPOINTS
 62
     0
100
AcDbPoint
 10
581.0
 20
396.0
 30
0.0
  0
ENDBLK
  5
398
330
396
100
AcDbEntity
  8
0
100
AcDbBlockEnd
  0
BLOCK
  5
3A4
330
3A3
100
AcDbEntity
  8
0
100
AcDbBlockBegin
  2
*D20
 70
     1
 10
0.0
 20
0.0
 30
0.0
  3
*D20
  1

  0
LINE
  5
3A6
330
3A3
100
AcDbEntity
  8
LAY-20
  6
CONTINUOUS
 62
     4
100
AcDbLine
 10
428.0
 20
312.0
 30
0.0
 11
428.0
 21
379.5
 31
0.0
  0
LINE
  5
3A7
330
3A3
100
AcDbEntity
  8
LAY-20
  6
CONTINUOUS
 62
     4
100
AcDbLine
 10
561.99999999999
 20
313.0
 30
0.0
 11
561.99999999999
 21
379.5
 31
0.0
  0
LINE
  5
3A8
330
3A3
100
AcDbEntity
  8
LAY-20
  6
CONTINUOUS
 62
     4
100
AcDbLine
 10
437.0
 20
375.0
 30
0.0
 11
552.99999999999
 21
375.0
 31
0.0
  0
INSERT
  5
3A9
330
3A3
100
AcDbEntity
  8
LAY-20
 62
     4
100
AcDbBlockReference
  2
EX_BNORM
 10
428.0
 20
375.0
 30
0.0
 41
9.0
 42
9.0
 43
9.0
 50
180.0
  0
INSERT
  5
3AA
330
3A3
100
AcDbEntity
  8
LAY-20
 62
     4
100
AcDbBlockReference
  2
EX_BNORM
 10
561.99999999999
 20
375.0
 30
0.0
 41
9.0
 42
9.0
 43
9.0
  0
MTEXT
  5
3AB
330
3A3
100
AcDbEntity
  8
LAY-20
 62
     7
100
AcDbMText
 10
494.999999999995
 20
382.5
 30
0.0
 40
9.3543312
 41
0.0
 71
     5
 72
     1
  1
%%c134
  7
EXCADDIM1
  0
POINT
  5
3AC
330
3A3
100
AcDbEntity
  8
DEFPOINTS
 62
     0
100
AcDbPoint
 10
428.0
 20
307.5
 30
0.0
  0
POINT
  5
3AD
330
3A3
100
AcDbEntity
  8
DEFPOINTS
 62
     0
100
AcDbPoint
 10
561.99999999999
 20
308.5
 30
0.0
  0
POINT
  5
3AE
330
3A3
100
AcDbEntity
  8
DEFPOINTS
 62
     0
100
AcDbPoint
 10
561.99999999999
 20
375.0
 30
0.0
  0
ENDBLK
  5
3A5
330
3A3
100
AcDbEntity
  8
0
100
AcDbBlockEnd
  0
BLOCK
  5
3B1
330
3B0
100
AcDbEntity
  8
0
100
AcDbBlockBegin
  2
*D21
 70
     1
 10
0.0
 20
0.0
 30
0.0
  3
*D21
  1

  0
LINE
  5
3B3
330
3B0
100
AcDbEntity
  8
LAY-20
  6
CONTINUOUS
 62
     4
100
AcDbLine
 10
451.1
 20
238.19864124052
 30
0.0
 11
451.1
 21
195.69864124052
 31
0.0
  0
LINE
  5
3B4
330
3B0
100
AcDbEntity
  8
LAY-20
  6
CONTINUOUS
 62
     4
100
AcDbLine
 10
538.9
 20
238.19864124051
 30
0.0
 11
538.9
 21
195.69864124052
 31
0.0
  0
LINE
  5
3B5
330
3B0
100
AcDbEntity
  8
LAY-20
  6
CONTINUOUS
 62
     4
100
AcDbLine
 10
460.1
 20
200.19864124052
 30
0.0
 11
529.9
 21
200.19864124052
 31
0.0
  0
INSERT
  5
3B6
330
3B0
100
AcDbEntity
  8
LAY-20
 62
     4
100
AcDbBlockReference
  2
EX_BNORM
 10
451.1
 20
200.19864124052
 30
0.0
 41
9.0
 42
9.0
 43
9.0
 50
180.0
  0
INSERT
  5
3B7
330
3B0
100
AcDbEntity
  8
LAY-20
 62
     4
100
AcDbBlockReference
  2
EX_BNORM
 10
538.9
 20
200.19864124052
 30
0.0
 41
9.0
 42
9.0
 43
9.0
  0
MTEXT
  5
3B8
330
3B0
100
AcDbEntity
  8
LAY-20
 62
     7
100
AcDbMText
 10
495.0
 20
207.69864124052
 30
0.0
 40
9.3543312
 41
0.0
 71
     5
 72
     1
  1
Rｃ3(87.8)
  7
EXCADDIM1
  0
POINT
  5
3B9
330
3B0
100
AcDbEntity
  8
DEFPOINTS
 62
     0
100
AcDbPoint
 10
451.1
 20
242.69864124052
 30
0.0
  0
POINT
  5
3BA
330
3B0
100
AcDbEntity
  8
DEFPOINTS
 62
     0
100
AcDbPoint
 10
538.9
 20
242.69864124051
 30
0.0
  0
POINT
  5
3BB
330
3B0
100
AcDbEntity
  8
DEFPOINTS
 62
     0
100
AcDbPoint
 10
538.9
 20
200.19864124052
 30
0.0
  0
ENDBLK
  5
3B2
330
3B0
100
AcDbEntity
  8
0
100
AcDbBlockEnd
  0
ENDSEC
  0
SECTION
  2
ENTITIES
  0
LINE
  5
D4
330
1F
100
AcDbEntity
  8
LAY-10
  6
CONTINUOUS
 62
     7
100
AcDbLine
 10
548.4999999999974
 20
272.625048111718
 30
0.0
 11
550.9671426897157
 21
275.0921908014366
 31
0.0
  0
LINE
  5
D5
330
1F
100
AcDbEntity
  8
LAY-10
  6
CONTINUOUS
 62
     7
100
AcDbLine
 10
548.4999999999984
 20
269.7966209869732
 30
0.0
 11
551.9999999999952
 21
273.2966209869699
 31
0.0
  0
LINE
  5
D6
330
1F
100
AcDbEntity
  8
LAY-10
  6
CONTINUOUS
 62
     7
100
AcDbLine
 10
548.4999999999998
 20
266.9681938622284
 30
0.0
 11
552.0000000000005
 21
270.4681938622289
 31
0.0
  0
LINE
  5
D7
330
1F
100
AcDbEntity
  8
LAY-10
  6
CONTINUOUS
 62
     7
100
AcDbLine
 10
548.4999999999974
 20
264.1397667374794
 30
0.0
 11
552.0000000000017
 21
267.639766737484
 31
0.0
  0
LINE
  5
D8
330
1F
100
AcDbEntity
  8
LAY-10
  6
CONTINUOUS
 62
     7
100
AcDbLine
 10
548.4999999999985
 20
261.3113396127345
 30
0.0
 11
552.0000000000031
 21
264.811339612739
 31
0.0
  0
LINE
  5
D9
330
1F
100
AcDbEntity
  8
LAY-10
  6
CONTINUOUS
 62
     7
100
AcDbLine
 10
548.4999999999998
 20
258.4829124879897
 30
0.0
 11
551.9999999999966
 21
261.9829124879864
 31
0.0
  0
LINE
  5
DA
330
1F
100
AcDbEntity
  8
LAY-10
  6
CONTINUOUS
 62
     7
100
AcDbLine
 10
548.4999999999972
 20
255.654485363241
 30
0.0
 11
551.999999999998
 21
259.1544853632416
 31
0.0
  0
LINE
  5
DB
330
1F
100
AcDbEntity
  8
LAY-10
  6
CONTINUOUS
 62
     7
100
AcDbLine
 10
548.4999999999985
 20
252.826058238496
 30
0.0
 11
551.9999999999993
 21
256.3260582384966
 31
0.0
  0
LINE
  5
DC
330
1F
100
AcDbEntity
  8
LAY-10
  6
CONTINUOUS
 62
     7
100
AcDbLine
 10
548.4999999999998
 20
249.9976311137511
 30
0.0
 11
551.9999999999966
 21
253.4976311137477
 31
0.0
  0
LINE
  5
DD
330
1F
100
AcDbEntity
  8
LAY-10
  6
CONTINUOUS
 62
     7
100
AcDbLine
 10
548.5000000000011
 20
247.1692039890061
 30
0.0
 11
551.999999999998
 21
250.6692039890029
 31
0.0
  0
LINE
  5
DE
330
1F
100
AcDbEntity
  8
LAY-10
  6
CONTINUOUS
 62
     7
100
AcDbLine
 10
548.4999999999985
 20
244.3407768642574
 30
0.0
 11
551.9999999999991
 21
247.8407768642579
 31
0.0
  0
LINE
  5
DF
330
1F
100
AcDbEntity
  8
LAY-10
  6
CONTINUOUS
 62
     7
100
AcDbLine
 10
548.4999999999999
 20
241.5123497395125
 30
0.0
 11
551.9999999999966
 21
245.0123497395092
 31
0.0
  0
LINE
  5
E0
330
1F
100
AcDbEntity
  8
LAY-10
  6
CONTINUOUS
 62
     7
100
AcDbLine
 10
548.5000000000011
 20
238.6839226147675
 30
0.0
 11
551.999999999998
 21
242.1839226147643
 31
0.0
  0
LINE
  5
E1
330
1F
100
AcDbEntity
  8
LAY-10
  6
CONTINUOUS
 62
     7
100
AcDbLine
 10
548.4999999999985
 20
235.8554954900187
 30
0.0
 11
551.9999999999991
 21
239.3554954900194
 31
0.0
  0
LINE
  5
E2
330
1F
100
AcDbEntity
  8
LAY-10
  6
CONTINUOUS
 62
     7
100
AcDbLine
 10
548.4999999999998
 20
233.0270683652739
 30
0.0
 11
552.0000000000005
 21
236.5270683652744
 31
0.0
  0
LINE
  5
E3
330
1F
100
AcDbEntity
  8
LAY-10
  6
CONTINUOUS
 62
     7
100
AcDbLine
 10
548.4999999999974
 20
230.1986412405251
 30
0.0
 11
551.999999999998
 21
233.6986412405257
 31
0.0
  0
LINE
  5
E4
330
1F
100
AcDbEntity
  8
LAY-10
  6
CONTINUOUS
 62
     7
100
AcDbLine
 10
551.3284271247461
 20
230.1986412405278
 30
0.0
 11
551.9999999999993
 21
230.8702141157808
 31
0.0
  0
LINE
  5
E5
330
1F
100
AcDbEntity
  8
LAY-10
  6
CONTINUOUS
 62
     7
100
AcDbLine
 10
438.0000000000052
 20
272.6250481117261
 30
0.0
 11
440.4671426897161
 21
275.092190801437
 31
0.0
  0
LINE
  5
E6
330
1F
100
AcDbEntity
  8
LAY-10
  6
CONTINUOUS
 62
     7
100
AcDbLine
 10
438.0000000000027
 20
269.7966209869774
 30
0.0
 11
441.4999999999995
 21
273.2966209869741
 31
0.0
  0
LINE
  5
E7
330
1F
100
AcDbEntity
  8
LAY-10
  6
CONTINUOUS
 62
     7
100
AcDbLine
 10
438.0
 20
266.9681938622285
 30
0.0
 11
441.4999999999968
 21
270.4681938622252
 31
0.0
  0
LINE
  5
E8
330
1F
100
AcDbEntity
  8
LAY-10
  6
CONTINUOUS
 62
     7
100
AcDbLine
 10
438.0000000000014
 20
264.1397667374837
 30
0.0
 11
441.4999999999982
 21
267.6397667374804
 31
0.0
  0
LINE
  5
E9
330
1F
100
AcDbEntity
  8
LAY-10
  6
CONTINUOUS
 62
     7
100
AcDbLine
 10
437.9999999999987
 20
261.311339612735
 30
0.0
 11
441.4999999999995
 21
264.8113396127356
 31
0.0
  0
LINE
  5
EA
330
1F
100
AcDbEntity
  8
LAY-10
  6
CONTINUOUS
 62
     7
100
AcDbLine
 10
438.0
 20
258.4829124879901
 30
0.0
 11
441.4999999999968
 21
261.9829124879869
 31
0.0
  0
LINE
  5
EB
330
1F
100
AcDbEntity
  8
LAY-10
  6
CONTINUOUS
 62
     7
100
AcDbLine
 10
438.0000000000014
 20
255.6544853632451
 30
0.0
 11
441.4999999999982
 21
259.1544853632419
 31
0.0
  0
LINE
  5
EC
330
1F
100
AcDbEntity
  8
LAY-10
  6
CONTINUOUS
 62
     7
100
AcDbLine
 10
437.9999999999987
 20
252.8260582384964
 30
0.0
 11
441.4999999999993
 21
256.326058238497
 31
0.0
  0
LINE
  5
ED
330
1F
100
AcDbEntity
  8
LAY-10
  6
CONTINUOUS
 62
     7
100
AcDbLine
 10
438.0
 20
249.9976311137515
 30
0.0
 11
441.5000000000007
 21
253.497631113752
 31
0.0
  0
LINE
  5
EE
330
1F
100
AcDbEntity
  8
LAY-10
  6
CONTINUOUS
 62
     7
100
AcDbLine
 10
438.0000000000014
 20
247.1692039890065
 30
0.0
 11
441.4999999999981
 21
250.6692039890033
 31
0.0
  0
LINE
  5
EF
330
1F
100
AcDbEntity
  8
LAY-10
  6
CONTINUOUS
 62
     7
100
AcDbLine
 10
438.0000000000027
 20
244.3407768642616
 30
0.0
 11
441.4999999999993
 21
247.8407768642584
 31
0.0
  0
LINE
  5
F0
330
1F
100
AcDbEntity
  8
LAY-10
  6
CONTINUOUS
 62
     7
100
AcDbLine
 10
438.0
 20
241.5123497395128
 30
0.0
 11
441.5000000000007
 21
245.0123497395134
 31
0.0
  0
LINE
  5
F1
330
1F
100
AcDbEntity
  8
LAY-10
  6
CONTINUOUS
 62
     7
100
AcDbLine
 10
438.0000000000014
 20
238.683922614768
 30
0.0
 11
441.4999999999981
 21
242.1839226147647
 31
0.0
  0
LINE
  5
F2
330
1F
100
AcDbEntity
  8
LAY-10
  6
CONTINUOUS
 62
     7
100
AcDbLine
 10
438.0000000000027
 20
235.8554954900232
 30
0.0
 11
441.4999999999993
 21
239.3554954900198
 31
0.0
  0
LINE
  5
F3
330
1F
100
AcDbEntity
  8
LAY-10
  6
CONTINUOUS
 62
     7
100
AcDbLine
 10
438.0
 20
233.0270683652743
 30
0.0
 11
441.5000000000007
 21
236.527068365275
 31
0.0
  0
LINE
  5
F4
330
1F
100
AcDbEntity
  8
LAY-10
  6
CONTINUOUS
 62
     7
100
AcDbLine
 10
437.9999999999936
 20
230.1986412405217
 30
0.0
 11
441.4999999999942
 21
233.6986412405223
 31
0.0
  0
LINE
  5
F5
330
1F
100
AcDbEntity
  8
LAY-10
  6
CONTINUOUS
 62
     7
100
AcDbLine
 10
440.8284271247385
 20
230.1986412405204
 30
0.0
 11
441.4999999999955
 21
230.8702141157773
 31
0.0
  0
LINE
  5
F6
330
1F
100
AcDbEntity
  8
LAY-10
  6
CONTINUOUS
 62
     7
100
AcDbLine
 10
409.5376247012149
 20
293.1986412405213
 30
0.0
 11
398.999999999999
 21
293.1986412405213
 31
0.0
  0
LINE
  5
F7
330
1F
100
AcDbEntity
  8
LAY-10
  6
CONTINUOUS
 62
     7
100
AcDbLine
 10
398.999999999999
 20
293.1986412405213
 30
0.0
 11
399.9999999999989
 21
300.1986412405212
 31
0.0
  0
LINE
  5
F8
330
1F
100
AcDbEntity
  8
LAY-10
  6
CONTINUOUS
 62
     7
100
AcDbLine
 10
405.6847759934241
 20
295.8740513444462
 30
0.0
 11
408.0377293291291
 21
295.2435793983161
 31
0.0
  0
LINE
  5
F9
330
1F
100
AcDbEntity
  8
LAY-10
  6
CONTINUOUS
 62
     7
100
AcDbLine
 10
403.1872389158964
 20
294.2250424043429
 30
0.0
 11
403.0406101782079
 21
293.1986412405213
 31
0.0
  0
ARC
  5
FA
330
1F
100
AcDbEntity
  8
LAY-10
  6
CONTINUOUS
 62
     7
100
AcDbCircle
 10
405.167137903219
 20
293.9421996918682
 30
0.0
 40
2.0
100
AcDbArc
 50
74.99999999999885
 51
171.8698976458406
  0
LINE
  5
FB
330
1F
100
AcDbEntity
  8
LAY-10
  6
CONTINUOUS
 62
     7
100
AcDbLine
 10
410.5000000000001
 20
282.1986412405212
 30
0.0
 11
422.499999999994
 21
282.1986412405212
 31
0.0
  0
LINE
  5
FC
330
1F
100
AcDbEntity
  8
LAY-10
  6
CONTINUOUS
 62
     7
100
AcDbLine
 10
409.5124806351075
 20
293.4860392312331
 30
0.0
 11
410.5000000000001
 21
282.1986412405212
 31
0.0
  0
LINE
  5
FD
330
1F
100
AcDbEntity
  8
LAY-10
  6
CONTINUOUS
 62
     7
100
AcDbLine
 10
423.0761398140079
 20
288.7839494484041
 30
0.0
 11
422.499999999994
 21
282.1986412405212
 31
0.0
  0
ARC
  5
FE
330
1F
100
AcDbEntity
  8
LAY-10
  6
CONTINUOUS
 62
     7
100
AcDbCircle
 10
425.0685292101913
 20
288.6096379629088
 30
0.0
 40
2.0
100
AcDbArc
 50
74.99999999999885
 51
175.0000000000004
  0
ARC
  5
FF
330
1F
100
AcDbEntity
  8
LAY-10
  6
CONTINUOUS
 62
     7
100
AcDbCircle
 10
407.520091238924
 20
293.3117277457378
 30
0.0
 40
2.0
100
AcDbArc
 50
4.999999999999743
 51
74.99999999999885
  0
LINE
  5
100
330
1F
100
AcDbEntity
  8
LAY-10
  6
CONTINUOUS
 62
     7
100
AcDbLine
 10
454.7903688828538
 20
279.1986412405189
 30
0.0
 11
454.9999999999859
 21
275.1986412405195
 31
0.0
  0
LINE
  5
101
330
1F
100
AcDbEntity
  8
LAY-10
  6
CONTINUOUS
 62
     7
100
AcDbLine
 10
574.3304575676432
 20
293.1986412405213
 30
0.0
 11
590.9999999999987
 21
293.1986412405213
 31
0.0
  0
LINE
  5
102
330
1F
100
AcDbEntity
  8
LAY-10
  6
CONTINUOUS
 62
     7
100
AcDbLine
 10
590.9999999999987
 20
293.1986412405213
 30
0.0
 11
589.9999999999989
 21
300.1986412405212
 31
0.0
  0
LINE
  5
103
330
1F
100
AcDbEntity
  8
LAY-10
  6
CONTINUOUS
 62
     7
100
AcDbLine
 10
586.8127610841011
 20
294.2250424043429
 30
0.0
 11
586.95938982179
 21
293.1986412405213
 31
0.0
  0
ARC
  5
104
330
1F
100
AcDbEntity
  8
LAY-10
  6
CONTINUOUS
 62
     7
100
AcDbCircle
 10
584.8328620967789
 20
293.9421996918682
 30
0.0
 40
2.0
100
AcDbArc
 50
8.13010235415942
 51
104.9999999999981
  0
LINE
  5
105
330
1F
100
AcDbEntity
  8
LAY-10
  6
CONTINUOUS
 62
     7
100
AcDbLine
 10
528.6288933513952
 20
287.198641240521
 30
0.0
 11
527.999999999999
 21
275.1986412405195
 31
0.0
  0
LINE
  5
106
330
1F
100
AcDbEntity
  8
LAY-10
  6
CONTINUOUS
 62
     7
100
AcDbLine
 10
547.8695237675529
 20
275.1986412405195
 30
0.0
 11
551.5510354332848
 21
275.1986412405195
 31
0.0
  0
LINE
  5
107
330
1F
100
AcDbEntity
  8
LAY-10
  6
CONTINUOUS
 62
     7
100
AcDbLine
 10
425.5861673003964
 20
290.5414896154869
 30
0.0
 11
432.9352511106113
 21
288.5723085434309
 31
0.0
  0
LINE
  5
108
330
1F
100
AcDbEntity
  8
LAY-10
  6
CONTINUOUS
 62
     7
100
AcDbLine
 10
404.999999999999
 20
300.1986412405212
 30
0.0
 11
433.9705272910221
 21
292.436011848587
 31
0.0
  0
LINE
  5
109
330
1F
100
AcDbEntity
  8
LAY-10
  6
CONTINUOUS
 62
     7
100
AcDbLine
 10
584.3152240065738
 20
295.8740513444462
 30
0.0
 11
558.6063955119803
 21
288.9853915109691
 31
0.0
  0
LINE
  5
10A
330
1F
100
AcDbEntity
  8
LAY-10
  6
CONTINUOUS
 62
     7
100
AcDbLine
 10
584.9999999999987
 20
300.1986412405212
 30
0.0
 11
556.0294727089756
 21
292.4360118485871
 31
0.0
  0
LINE
  5
10B
330
1F
100
AcDbEntity
  8
LAY-10
  6
CONTINUOUS
 62
     7
100
AcDbLine
 10
455.0000000000027
 20
279.1986412405196
 30
0.0
 11
440.7036456396235
 21
279.1986412405196
 31
0.0
  0
LINE
  5
10C
330
1F
100
AcDbEntity
  8
LAY-10
  6
CONTINUOUS
 62
     7
100
AcDbLine
 10
444.4999999999986
 20
247.1986412405189
 30
0.0
 11
545.4999999999991
 21
247.1986412405189
 31
0.0
  0
LINE
  5
10D
330
1F
100
AcDbEntity
  8
LAY-10
  6
CONTINUOUS
 62
     7
100
AcDbLine
 10
539.999999999999
 20
265.1986412405195
 30
0.0
 11
449.9999999999987
 21
265.1986412405195
 31
0.0
  0
LINE
  5
10E
330
1F
100
AcDbEntity
  8
LAY-10
  6
CONTINUOUS
 62
     7
100
AcDbLine
 10
546.8708053068834
 20
274.2492518749509
 30
0.0
 11
545.4999999999991
 21
247.1986412405189
 31
0.0
  0
LINE
  5
10F
330
1F
100
AcDbEntity
  8
LAY-10
  6
CONTINUOUS
 62
     7
100
AcDbLine
 10
539.999999999999
 20
275.1986412405195
 30
0.0
 11
449.9999999999987
 21
275.1986412405195
 31
0.0
  0
ARC
  5
110
330
1F
100
AcDbEntity
  8
LAY-10
  6
CONTINUOUS
 62
     7
100
AcDbCircle
 10
547.8695237675529
 20
274.1986412405195
 30
0.0
 40
1.0
100
AcDbArc
 50
90.0
 51
177.0989848877044
  0
ARC
  5
111
330
1F
100
AcDbEntity
  8
LAY-10
  6
CONTINUOUS
 62
     7
100
AcDbCircle
 10
557.5823869795909
 20
286.6404568908528
 30
0.0
 40
6.000000000000004
100
AcDbArc
 50
105.0000000000012
 51
177.0989848876973
  0
LINE
  5
112
330
1F
100
AcDbEntity
  8
LAY-10
  6
CONTINUOUS
 62
     7
100
AcDbLine
 10
443.1291946931145
 20
274.2492518749509
 30
0.0
 11
444.4999999999986
 21
247.1986412405189
 31
0.0
  0
ARC
  5
113
330
1F
100
AcDbEntity
  8
LAY-10
  6
CONTINUOUS
 62
     7
100
AcDbCircle
 10
440.7036456396229
 20
281.1986412405195
 30
0.0
 40
6.000000000000004
100
AcDbArc
 50
182.9010151123039
 51
270.0
  0
ARC
  5
114
330
1F
100
AcDbEntity
  8
LAY-10
  6
CONTINUOUS
 62
     7
100
AcDbCircle
 10
442.1304762324448
 20
274.1986412405195
 30
0.0
 40
1.0
100
AcDbArc
 50
2.901015112295643
 51
90.0
  0
LINE
  5
115
330
1F
100
AcDbEntity
  8
LAY-10
  6
CONTINUOUS
 62
     7
100
AcDbLine
 10
440.7036456396229
 20
275.1986412405195
 30
0.0
 11
442.1304762324448
 21
275.1986412405195
 31
0.0
  0
ARC
  5
116
330
1F
100
AcDbEntity
  8
LAY-10
  6
CONTINUOUS
 62
     7
100
AcDbCircle
 10
432.4176130204062
 20
286.6404568908528
 30
0.0
 40
2.0
100
AcDbArc
 50
2.901015112302175
 51
74.99999999999885
  0
ARC
  5
117
330
1F
100
AcDbEntity
  8
LAY-10
  6
CONTINUOUS
 62
     7
100
AcDbCircle
 10
432.4176130204069
 20
286.6404568908528
 30
0.0
 40
6.000000000000004
100
AcDbArc
 50
2.90101511230269
 51
74.99999999999885
  0
LINE
  5
118
330
1F
100
AcDbEntity
  8
LAY-10
  6
CONTINUOUS
 62
     7
100
AcDbLine
 10
438.7062087182841
 20
281.0974199716564
 30
0.0
 11
438.409923784425
 21
286.9441206974419
 31
0.0
  0
ARC
  5
119
330
1F
100
AcDbEntity
  8
LAY-10
  6
CONTINUOUS
 62
     7
100
AcDbCircle
 10
440.7036456396235
 20
281.1986412405196
 30
0.0
 40
2.0
100
AcDbArc
 50
182.9010151123071
 51
270.0
  0
LINE
  5
11A
330
1F
100
AcDbEntity
  8
LAY-10
  6
CONTINUOUS
 62
     7
100
AcDbLine
 10
434.7113348756054
 20
280.8949774339303
 30
0.0
 11
434.4150499417462
 21
286.7416781597158
 31
0.0
  0
LINE
  5
11B
330
1F
100
AcDbEntity
  8
LAY-10
  6
CONTINUOUS
 62
     7
100
AcDbLine
 10
539.999999999999
 20
265.1986412405195
 30
0.0
 11
539.999999999999
 21
275.1986412405195
 31
0.0
  0
LINE
  5
11C
330
1F
100
AcDbEntity
  8
LAY-10
  6
CONTINUOUS
 62
     7
100
AcDbLine
 10
449.9999999999987
 20
265.1986412405195
 30
0.0
 11
449.9999999999987
 21
275.1986412405195
 31
0.0
  0
LINE
  5
11D
330
1F
100
AcDbEntity
  8
LAY-10
  6
CONTINUOUS
 62
     7
100
AcDbLine
 10
553.7634112424129
 20
269.1986412405194
 30
0.0
 11
555.2365887575878
 21
269.1986412405194
 31
0.0
  0
LINE
  5
11E
330
1F
100
AcDbEntity
  8
LAY-10
  6
CONTINUOUS
 62
     7
100
AcDbLine
 10
552.7647817076582
 20
270.1463052842766
 30
0.0
 11
552.5496649680393
 21
274.2509771967624
 31
0.0
  0
LINE
  5
11F
330
1F
100
AcDbEntity
  8
LAY-10
  6
CONTINUOUS
 62
     7
100
AcDbLine
 10
556.2352182923424
 20
270.1463052842766
 30
0.0
 11
557.1267745326762
 21
287.1582117708767
 31
0.0
  0
ARC
  5
120
330
1F
100
AcDbEntity
  8
LAY-10
  6
CONTINUOUS
 62
     7
100
AcDbCircle
 10
553.7634112424129
 20
270.1986412405194
 30
0.0
 40
1.0
100
AcDbArc
 50
182.9999999999925
 51
270.0
  0
ARC
  5
121
330
1F
100
AcDbEntity
  8
LAY-10
  6
CONTINUOUS
 62
     7
100
AcDbCircle
 10
555.2365887575878
 20
270.1986412405194
 30
0.0
 40
1.0
100
AcDbArc
 50
270.0
 51
357.0000000000076
  0
ARC
  5
122
330
1F
100
AcDbEntity
  8
LAY-10
  6
CONTINUOUS
 62
     7
100
AcDbCircle
 10
551.5510354332848
 20
274.1986412405195
 30
0.0
 40
1.0
100
AcDbArc
 50
2.999999999995652
 51
90.0
  0
ARC
  5
123
330
1F
100
AcDbEntity
  8
LAY-10
  6
CONTINUOUS
 62
     7
100
AcDbCircle
 10
559.1240336021854
 20
287.0535398583909
 30
0.0
 40
2.0
100
AcDbArc
 50
105.0000000000012
 51
177.000000000001
  0
LINE
  5
124
330
1F
100
AcDbEntity
  8
LAY-10
  6
CONTINUOUS
 62
     7
100
AcDbLine
 10
533.4999999999981
 20
278.6986412405141
 30
0.0
 11
540.4999999999934
 21
278.6986412405141
 31
0.0
  0
LINE
  5
125
330
1F
100
AcDbEntity
  8
LAY-10
  6
CONTINUOUS
 62
     7
100
AcDbLine
 10
533.4999999999981
 20
278.6986412405144
 30
0.0
 11
536.9999999999962
 21
276.6779152983517
 31
0.0
  0
LINE
  5
126
330
1F
100
AcDbEntity
  8
LAY-10
  6
CONTINUOUS
 62
     7
100
AcDbLine
 10
536.9999999999962
 20
276.6779152983521
 30
0.0
 11
540.4999999999931
 21
278.6986412405141
 31
0.0
  0
LINE
  5
127
330
1F
100
AcDbEntity
  8
LAY-10
  6
CONTINUOUS
 62
     7
100
AcDbLine
 10
485.9999999999945
 20
275.1986412405231
 30
0.0
 11
486.6288933513911
 21
287.1986412405195
 31
0.0
  0
LINE
  5
128
330
1F
100
AcDbEntity
  8
LAY-10
  6
CONTINUOUS
 62
     7
100
AcDbLine
 10
494.999999999999
 20
287.1986412405195
 30
0.0
 11
486.6288933513949
 21
287.1986412405195
 31
0.0
  0
LINE
  5
129
330
1F
100
AcDbEntity
  8
LAY-10
  6
CONTINUOUS
 62
     7
100
AcDbLine
 10
453.5999999999988
 20
279.1986412405196
 30
0.0
 11
486.2096311171267
 21
279.1986412405196
 31
0.0
  0
LINE
  5
12A
330
1F
100
AcDbEntity
  8
LAY-10
  6
CONTINUOUS
 62
     7
100
AcDbLine
 10
494.999999999999
 20
279.1986412405196
 30
0.0
 11
528.2096311171309
 21
279.1986412405196
 31
0.0
  0
LINE
  5
12B
330
1F
100
AcDbEntity
  8
LAY-10
  6
CONTINUOUS
 62
     7
100
AcDbLine
 10
551.999999999995
 20
275.0921908014431
 30
0.0
 11
547.4205592008294
 21
275.0921908014431
 31
0.0
  0
LINE
  5
12C
330
1F
100
AcDbEntity
  8
LAY-10
  6
CONTINUOUS
 62
     7
100
AcDbLine
 10
442.5794407991683
 20
275.0921908014431
 30
0.0
 11
437.9999999999987
 21
275.0921908014431
 31
0.0
  0
LINE
  5
12D
330
1F
100
AcDbEntity
  8
LAY-10
  6
CONTINUOUS
 62
     7
100
AcDbLine
 10
437.9999999999987
 20
230.1986412405213
 30
0.0
 11
551.9999999999987
 21
230.1986412405213
 31
0.0
  0
LINE
  5
12E
330
1F
100
AcDbEntity
  8
LAY-10
  6
CONTINUOUS
 62
     7
100
AcDbLine
 10
441.4999999999989
 20
275.0921908014431
 30
0.0
 11
441.4999999999989
 21
230.1986412405213
 31
0.0
  0
LINE
  5
12F
330
1F
100
AcDbEntity
  8
LAY-10
  6
CONTINUOUS
 62
     7
100
AcDbLine
 10
437.9999999999987
 20
275.0921908014431
 30
0.0
 11
437.9999999999987
 21
230.1986412405213
 31
0.0
  0
LINE
  5
130
330
1F
100
AcDbEntity
  8
LAY-10
  6
CONTINUOUS
 62
     7
100
AcDbLine
 10
551.9999999999987
 20
275.0921908014479
 30
0.0
 11
551.9999999999987
 21
230.1986412405213
 31
0.0
  0
LINE
  5
131
330
1F
100
AcDbEntity
  8
LAY-10
  6
CONTINUOUS
 62
     7
100
AcDbLine
 10
548.4999999999989
 20
275.0921908014431
 30
0.0
 11
548.4999999999989
 21
230.1986412405213
 31
0.0
  0
LINE
  5
132
330
1F
100
AcDbEntity
  8
LAY-10
  6
CONTINUOUS
 62
     7
100
AcDbLine
 10
409.12982590197
 20
300.5227742187847
 30
0.0
 11
408.9999999999937
 21
303.000000000003
 31
0.0
  0
ARC
  5
133
330
1F
100
AcDbEntity
  8
LAY-10
  6
CONTINUOUS
 62
     7
100
AcDbCircle
 10
411.1270849714793
 20
300.6274461312705
 30
0.0
 40
2.0
100
AcDbArc
 50
182.9999999999975
 51
254.9999999999989
  0
LINE
  5
134
330
1F
100
AcDbEntity
  8
LAY-10
  6
CONTINUOUS
 62
     7
100
AcDbLine
 10
420.6857827935775
 20
301.2665755298302
 30
0.0
 11
421.3571462766542
 21
305.1695246617408
 31
0.0
  0
LINE
  5
135
330
1F
100
AcDbEntity
  8
LAY-10
  6
CONTINUOUS
 62
     7
100
AcDbLine
 10
419.4414378030717
 20
300.4701743652793
 30
0.0
 11
409.9999999999932
 21
303.000000000003
 31
0.0
  0
LINE
  5
136
330
1F
100
AcDbEntity
  8
LAY-10
  6
CONTINUOUS
 62
     7
100
AcDbLine
 10
426.3084987583711
 20
300.0000000000029
 30
0.0
 11
425.6167549223797
 21
305.1335428446606
 31
0.0
  0
ARC
  5
137
330
1F
100
AcDbEntity
  8
LAY-10
  6
CONTINUOUS
 62
     7
100
AcDbCircle
 10
422.3426722220573
 20
305.0000000000026
 30
0.0
 40
1.0
100
AcDbArc
 50
90.0
 51
170.2398169556093
  0
ARC
  5
138
330
1F
100
AcDbEntity
  8
LAY-10
  6
CONTINUOUS
 62
     7
100
AcDbCircle
 10
424.6257118816188
 20
305.0000000000026
 30
0.0
 40
1.0
100
AcDbArc
 50
7.674368095125249
 51
90.0
  0
ARC
  5
139
330
1F
100
AcDbEntity
  8
LAY-10
  6
CONTINUOUS
 62
     7
100
AcDbCircle
 10
419.7002568481743
 20
301.4361001915684
 30
0.0
 40
1.0
100
AcDbArc
 50
254.9999999999984
 51
350.2398169556093
  0
LINE
  5
13A
330
1F
100
AcDbEntity
  8
LAY-10
  6
CONTINUOUS
 62
     7
100
AcDbLine
 10
422.3426722220573
 20
306.0000000000026
 30
0.0
 11
424.6257118816188
 21
306.0000000000026
 31
0.0
  0
LINE
  5
13B
330
1F
100
AcDbEntity
  8
LAY-10
  6
CONTINUOUS
 62
     7
100
AcDbLine
 10
408.9999999999937
 20
303.000000000003
 30
0.0
 11
420.9839567770482
 21
303.000000000003
 31
0.0
  0
LINE
  5
13C
330
1F
100
AcDbEntity
  8
LAY-10
  6
CONTINUOUS
 62
     7
100
AcDbLine
 10
426.7665142307964
 20
305.1558284589722
 30
0.0
 11
427.5798749413693
 21
300.0000000000029
 31
0.0
  0
ARC
  5
13D
330
1F
100
AcDbEntity
  8
LAY-10
  6
CONTINUOUS
 62
     7
100
AcDbCircle
 10
425.7787300988246
 20
305.0000000000026
 30
0.0
 40
1.0
100
AcDbArc
 50
8.964847306564156
 51
90.0
  0
LINE
  5
13E
330
1F
100
AcDbEntity
  8
LAY-10
  6
CONTINUOUS
 62
     7
100
AcDbLine
 10
494.9999999999989
 20
293.0000000000021
 30
0.0
 11
486.2620388964143
 21
293.0000000000021
 31
0.0
  0
LINE
  5
13F
330
1F
100
AcDbEntity
  8
LAY-10
  6
CONTINUOUS
 62
     7
100
AcDbLine
 10
486.2620388964143
 20
293.0000000000022
 30
0.0
 11
485.9999999999989
 21
288.000000000003
 31
0.0
  0
LINE
  5
140
330
1F
100
AcDbEntity
  8
LAY-10
  6
CONTINUOUS
 62
     7
100
AcDbLine
 10
580.8701740980279
 20
300.5227742187847
 30
0.0
 11
581.0000000000041
 21
303.000000000003
 31
0.0
  0
ARC
  5
141
330
1F
100
AcDbEntity
  8
LAY-10
  6
CONTINUOUS
 62
     7
100
AcDbCircle
 10
578.8729150285185
 20
300.6274461312705
 30
0.0
 40
2.0
100
AcDbArc
 50
285.0000000000048
 51
357.0000000000025
  0
LINE
  5
142
330
1F
100
AcDbEntity
  8
LAY-10
  6
CONTINUOUS
 62
     7
100
AcDbLine
 10
569.3142172064204
 20
301.2665755298302
 30
0.0
 11
568.6428537233436
 21
305.1695246617408
 31
0.0
  0
LINE
  5
143
330
1F
100
AcDbEntity
  8
LAY-10
  6
CONTINUOUS
 62
     7
100
AcDbLine
 10
581.0000000000041
 20
303.000000000003
 30
0.0
 11
569.0160432229496
 21
303.000000000003
 31
0.0
  0
LINE
  5
144
330
1F
100
AcDbEntity
  8
LAY-10
  6
CONTINUOUS
 62
     7
100
AcDbLine
 10
570.5585621969261
 20
300.4701743652793
 30
0.0
 11
580.0000000000047
 21
303.000000000003
 31
0.0
  0
ARC
  5
145
330
1F
100
AcDbEntity
  8
LAY-10
  6
CONTINUOUS
 62
     7
100
AcDbCircle
 10
567.6573277779406
 20
305.0000000000026
 30
0.0
 40
1.0
100
AcDbArc
 50
9.760183044390265
 51
90.0
  0
ARC
  5
146
330
1F
100
AcDbEntity
  8
LAY-10
  6
CONTINUOUS
 62
     7
100
AcDbCircle
 10
570.2997431518236
 20
301.4361001915684
 30
0.0
 40
1.0
100
AcDbArc
 50
189.7601830443914
 51
285.0000000000015
  0
ARC
  5
147
330
1F
100
AcDbEntity
  8
LAY-10
  6
CONTINUOUS
 62
     7
100
AcDbCircle
 10
565.374288118379
 20
305.0000000000026
 30
0.0
 40
1.0
100
AcDbArc
 50
90.0
 51
172.3256319048651
  0
LINE
  5
148
330
1F
100
AcDbEntity
  8
LAY-10
  6
CONTINUOUS
 62
     7
100
AcDbLine
 10
565.374288118379
 20
306.0000000000026
 30
0.0
 11
567.6573277779406
 21
306.0000000000026
 31
0.0
  0
LINE
  5
149
330
1F
100
AcDbEntity
  8
LAY-10
  6
CONTINUOUS
 62
     7
100
AcDbLine
 10
410.6094468812743
 20
298.6955944786924
 30
0.0
 11
450.525948892894
 21
288.000000000003
 31
0.0
  0
LINE
  5
14A
330
1F
100
AcDbEntity
  8
LAY-10
  6
CONTINUOUS
 62
     7
100
AcDbLine
 10
454.7903688828868
 20
292.000000000003
 30
0.0
 11
455.0000000000189
 21
288.000000000003
 31
0.0
  0
LINE
  5
14B
330
1F
100
AcDbEntity
  8
LAY-10
  6
CONTINUOUS
 62
     7
100
AcDbLine
 10
451.0525588832489
 20
292.0000000000023
 30
0.0
 11
486.2096311171311
 21
292.0000000000023
 31
0.0
  0
LINE
  5
14C
330
1F
100
AcDbEntity
  8
LAY-10
  6
CONTINUOUS
 62
     7
100
AcDbLine
 10
528.2620388964139
 20
293.0000000000034
 30
0.0
 11
527.9999999999984
 21
288.000000000003
 31
0.0
  0
LINE
  5
14D
330
1F
100
AcDbEntity
  8
LAY-10
  6
CONTINUOUS
 62
     7
100
AcDbLine
 10
494.9999999999989
 20
292.0000000000023
 30
0.0
 11
528.2096311171306
 21
292.0000000000023
 31
0.0
  0
LINE
  5
14E
330
1F
100
AcDbEntity
  8
LAY-10
  6
CONTINUOUS
 62
     7
100
AcDbLine
 10
528.2620388964139
 20
293.0000000000032
 30
0.0
 11
542.7195466395452
 21
293.0000000000032
 31
0.0
  0
LINE
  5
14F
330
1F
100
AcDbEntity
  8
LAY-10
  6
CONTINUOUS
 62
     7
100
AcDbLine
 10
531.7379611035825
 20
293.0000000000031
 30
0.0
 11
531.9999999999978
 21
288.000000000003
 31
0.0
  0
LINE
  5
150
330
1F
100
AcDbEntity
  8
LAY-10
  6
CONTINUOUS
 62
     7
100
AcDbLine
 10
542.2265679505771
 20
293.0000000000032
 30
0.0
 11
541.9999999999997
 21
288.6768259659768
 31
0.0
  0
LINE
  5
151
330
1F
100
AcDbEntity
  8
LAY-10
  6
CONTINUOUS
 62
     7
100
AcDbLine
 10
444.2852092737666
 20
298.5788383248875
 30
0.0
 11
448.8963769166022
 21
298.5788383248875
 31
0.0
  0
LINE
  5
152
330
1F
100
AcDbEntity
  8
LAY-10
  6
CONTINUOUS
 62
     7
100
AcDbLine
 10
473.7646036123639
 20
298.5788383248875
 30
0.0
 11
480.8728299205305
 21
298.5788383248875
 31
0.0
  0
ARC
  5
153
330
1F
100
AcDbEntity
  8
LAY-10
  6
CONTINUOUS
 62
     7
100
AcDbCircle
 10
444.2852092737666
 20
299.5788383248875
 30
0.0
 40
1.0
100
AcDbArc
 50
190.7961358376348
 51
270.0
  0
ARC
  5
154
330
1F
100
AcDbEntity
  8
LAY-10
  6
CONTINUOUS
 62
     7
100
AcDbCircle
 10
448.8963769166022
 20
299.5788383248875
 30
0.0
 40
1.0
100
AcDbArc
 50
270.0
 51
359.1535657794103
  0
ARC
  5
155
330
1F
100
AcDbEntity
  8
LAY-10
  6
CONTINUOUS
 62
     7
100
AcDbCircle
 10
482.0875374168784
 20
305.6255888971549
 30
0.0
 40
0.374411102849692
100
AcDbArc
 50
354.4629177400506
 51
168.6933976800028
  0
ARC
  5
156
330
1F
100
AcDbEntity
  8
LAY-10
  6
CONTINUOUS
 62
     7
100
AcDbCircle
 10
480.8728299205305
 20
299.5788383248875
 30
0.0
 40
1.0
100
AcDbArc
 50
270.0
 51
354.4629177400506
  0
ARC
  5
157
330
1F
100
AcDbEntity
  8
LAY-10
  6
CONTINUOUS
 62
     7
100
AcDbCircle
 10
473.7646036123639
 20
299.5788383248875
 30
0.0
 40
1.0
100
AcDbArc
 50
189.7888572352663
 51
270.0
  0
ARC
  5
158
330
1F
100
AcDbEntity
  8
LAY-10
  6
CONTINUOUS
 62
     7
100
AcDbCircle
 10
519.2002561185603
 20
305.0000000000026
 30
0.0
 40
1.0
100
AcDbArc
 50
90.0
 51
170.2111427647374
  0
ARC
  5
159
330
1F
100
AcDbEntity
  8
LAY-10
  6
CONTINUOUS
 62
     7
100
AcDbCircle
 10
507.9124625831196
 20
305.6255888971549
 30
0.0
 40
0.374411102849692
100
AcDbArc
 50
11.30660231999888
 51
185.5370822599581
  0
ARC
  5
15A
330
1F
100
AcDbEntity
  8
LAY-10
  6
CONTINUOUS
 62
     7
100
AcDbCircle
 10
509.1271700794673
 20
299.5788383248875
 30
0.0
 40
1.0
100
AcDbArc
 50
185.5370822599492
 51
270.0
  0
LINE
  5
15B
330
1F
100
AcDbEntity
  8
LAY-10
  6
CONTINUOUS
 62
     7
100
AcDbLine
 10
516.235396387634
 20
298.5788383248875
 30
0.0
 11
509.1271700794673
 21
298.5788383248875
 31
0.0
  0
ARC
  5
15C
330
1F
100
AcDbEntity
  8
LAY-10
  6
CONTINUOUS
 62
     7
100
AcDbCircle
 10
516.235396387634
 20
299.5788383248875
 30
0.0
 40
1.0
100
AcDbArc
 50
270.0
 51
350.2111427647374
  0
ARC
  5
15D
330
1F
100
AcDbEntity
  8
LAY-10
  6
CONTINUOUS
 62
     7
100
AcDbCircle
 10
545.7147907262313
 20
299.5788383248875
 30
0.0
 40
1.0
100
AcDbArc
 50
270.0
 51
349.2038641623653
  0
ARC
  5
15E
330
1F
100
AcDbEntity
  8
LAY-10
  6
CONTINUOUS
 62
     7
100
AcDbCircle
 10
548.7845918147663
 20
305.0000000000026
 30
0.0
 40
1.0
100
AcDbArc
 50
90.0
 51
169.2038641623589
  0
LINE
  5
15F
330
1F
100
AcDbEntity
  8
LAY-10
  6
CONTINUOUS
 62
     7
100
AcDbLine
 10
548.7845918147663
 20
306.0000000000026
 30
0.0
 11
565.374288118379
 21
306.0000000000026
 31
0.0
  0
ARC
  5
160
330
1F
100
AcDbEntity
  8
LAY-10
  6
CONTINUOUS
 62
     7
100
AcDbCircle
 10
564.2212699011733
 20
305.0000000000026
 30
0.0
 40
1.0
100
AcDbArc
 50
90.0
 51
171.0351526934364
  0
ARC
  5
161
330
1F
100
AcDbEntity
  8
LAY-10
  6
CONTINUOUS
 62
     7
100
AcDbCircle
 10
561.3781141912586
 20
305.0000000000026
 30
0.0
 40
1.0
100
AcDbArc
 50
90.0
 51
175.2809120873432
  0
LINE
  5
162
330
1F
100
AcDbEntity
  8
LAY-10
  6
CONTINUOUS
 62
     7
100
AcDbLine
 10
437.2250882896169
 20
295.7050595789331
 30
0.0
 11
436.9999999999957
 21
300.0000000000029
 31
0.0
  0
LINE
  5
163
330
1F
100
AcDbEntity
  8
LAY-10
  6
CONTINUOUS
 62
     7
100
AcDbLine
 10
451.0525588832516
 20
292.0000000000023
 30
0.0
 11
437.2250882896149
 21
295.7050595789326
 31
0.0
  0
LINE
  5
164
330
1F
100
AcDbEntity
  8
LAY-10
  6
CONTINUOUS
 62
     7
100
AcDbLine
 10
554.9999999999749
 20
300.0000000000042
 30
0.0
 11
554.803396962254
 21
296.2485905640298
 31
0.0
  0
LINE
  5
165
330
1F
100
AcDbEntity
  8
LAY-10
  6
CONTINUOUS
 62
     7
100
AcDbLine
 10
563.6915012416267
 20
300.0000000000018
 30
0.0
 11
554.9999999999751
 21
300.0000000000018
 31
0.0
  0
LINE
  5
166
330
1F
100
AcDbEntity
  8
LAY-10
  6
CONTINUOUS
 62
     7
100
AcDbLine
 10
563.2334857692015
 20
305.1558284589722
 30
0.0
 11
562.4201250586282
 21
300.0000000000018
 31
0.0
  0
LINE
  5
167
330
1F
100
AcDbEntity
  8
LAY-10
  6
CONTINUOUS
 62
     7
100
AcDbLine
 10
563.6915012416266
 20
300.0000000000028
 30
0.0
 11
564.3832450776182
 21
305.1335428446606
 31
0.0
  0
LINE
  5
168
330
1F
100
AcDbEntity
  8
LAY-10
  6
CONTINUOUS
 62
     7
100
AcDbLine
 10
501.1376717270074
 20
297.3730669589432
 30
0.0
 11
501.0000000000003
 21
300.0000000000028
 31
0.0
  0
ARC
  5
169
330
1F
100
AcDbEntity
  8
LAY-10
  6
CONTINUOUS
 62
     7
100
AcDbCircle
 10
495.0000000000001
 20
307.8312837590684
 30
0.0
 40
12.12622418013538
100
AcDbArc
 50
270.0
 51
300.4076305468068
  0
LINE
  5
16A
330
1F
100
AcDbEntity
  8
LAY-10
  6
CONTINUOUS
 62
     7
100
AcDbLine
 10
409.1735941561261
 20
300.1986412405212
 30
0.0
 11
399.9999999999989
 21
300.1986412405212
 31
0.0
  0
LINE
  5
16B
330
1F
100
AcDbEntity
  8
LAY-10
  6
CONTINUOUS
 62
     7
100
AcDbLine
 10
589.9999999999989
 20
300.1986412405212
 30
0.0
 11
580.8264058438717
 21
300.1986412405212
 31
0.0
  0
LINE
  5
16C
330
1F
100
AcDbEntity
  8
LAY-10
  6
CONTINUOUS
 62
     7
100
AcDbLine
 10
532.9999999999952
 20
280.6986412405114
 30
0.0
 11
540.9999999999955
 21
280.6986412405114
 31
0.0
  0
LINE
  5
16D
330
1F
100
AcDbEntity
  8
LAY-10
  6
CONTINUOUS
 62
     7
100
AcDbLine
 10
540.4999999999944
 20
280.1986412405129
 30
0.0
 11
540.9999999999943
 21
280.698641240512
 31
0.0
  0
LINE
  5
16E
330
1F
100
AcDbEntity
  8
LAY-10
  6
CONTINUOUS
 62
     7
100
AcDbLine
 10
532.9999999999942
 20
329.698641240516
 30
0.0
 11
540.9999999999943
 21
329.698641240516
 31
0.0
  0
LINE
  5
16F
330
1F
100
AcDbEntity
  8
LAY-10
  6
CONTINUOUS
 62
     7
100
AcDbLine
 10
533.4999999999937
 20
330.1986412405135
 30
0.0
 11
540.4999999999925
 21
330.1986412405135
 31
0.0
  0
LINE
  5
170
330
1F
100
AcDbEntity
  8
LAY-10
  6
CONTINUOUS
 62
     7
100
AcDbLine
 10
540.9999999999943
 20
329.698641240518
 30
0.0
 11
540.4999999999944
 21
330.1986412405179
 31
0.0
  0
LINE
  5
171
330
1F
100
AcDbEntity
  8
LAY-10
  6
CONTINUOUS
 62
     7
100
AcDbLine
 10
533.4999999999941
 20
330.1986412405179
 30
0.0
 11
532.9999999999942
 21
329.698641240518
 31
0.0
  0
LINE
  5
172
330
1F
100
AcDbEntity
  8
LAY-10
  6
CONTINUOUS
 62
     7
100
AcDbLine
 10
544.9999999999944
 20
293.0000000000029
 30
0.0
 11
544.9999999999944
 21
299.0520000000028
 31
0.0
  0
LINE
  5
173
330
1F
100
AcDbEntity
  8
LAY-10
  6
CONTINUOUS
 62
     7
100
AcDbLine
 10
540.9999999999943
 20
293.0000000000029
 30
0.0
 11
540.9999999999943
 21
299.0520000000028
 31
0.0
  0
LINE
  5
174
330
1F
100
AcDbEntity
  8
LAY-10
  6
CONTINUOUS
 62
     7
100
AcDbLine
 10
532.9999999999942
 20
293.0000000000029
 30
0.0
 11
532.9999999999942
 21
299.0520000000028
 31
0.0
  0
LINE
  5
175
330
1F
100
AcDbEntity
  8
LAY-10
  6
CONTINUOUS
 62
     7
100
AcDbLine
 10
528.9999999999941
 20
293.0000000000029
 30
0.0
 11
528.9999999999941
 21
299.0520000000028
 31
0.0
  0
ARC
  5
176
330
1F
100
AcDbEntity
  8
LAY-10
  6
CONTINUOUS
 62
     7
100
AcDbCircle
 10
542.9999999999943
 20
296.7522032085589
 30
0.0
 40
3.047796791443853
100
AcDbArc
 50
48.98840640771183
 51
131.0115935922936
  0
ARC
  5
177
330
1F
100
AcDbEntity
  8
LAY-10
  6
CONTINUOUS
 62
     7
100
AcDbCircle
 10
536.9999999999943
 20
288.7308128342274
 30
0.0
 40
11.06918716577541
100
AcDbArc
 50
68.81604434177244
 51
111.1839556582283
  0
ARC
  5
178
330
1F
100
AcDbEntity
  8
LAY-10
  6
CONTINUOUS
 62
     7
100
AcDbCircle
 10
530.9999999999943
 20
296.7522032085589
 30
0.0
 40
3.047796791443853
100
AcDbArc
 50
48.98840640771183
 51
131.0115935922936
  0
LINE
  5
179
330
1F
100
AcDbEntity
  8
LAY-10
  6
CONTINUOUS
 62
     7
100
AcDbLine
 10
542.9999999999943
 20
299.8000000000029
 30
0.0
 11
530.9999999999943
 21
299.8000000000029
 31
0.0
  0
LINE
  5
17A
330
1F
100
AcDbEntity
  8
LAY-10
  6
CONTINUOUS
 62
     7
100
AcDbLine
 10
528.9999999999941
 20
293.0000000000029
 30
0.0
 11
544.9999999999944
 21
293.0000000000029
 31
0.0
  0
LINE
  5
17B
330
1F
100
AcDbEntity
  8
LAY-10
  6
CONTINUOUS
 62
     7
100
AcDbLine
 10
532.9999999999942
 20
280.698641240512
 30
0.0
 11
532.9999999999942
 21
293.0000000000029
 31
0.0
  0
LINE
  5
17C
330
1F
100
AcDbEntity
  8
LAY-10
  6
CONTINUOUS
 62
     7
100
AcDbLine
 10
532.9999999999942
 20
299.8000000000079
 30
0.0
 11
532.9999999999942
 21
329.698641240516
 31
0.0
  0
LINE
  5
17D
330
1F
100
AcDbEntity
  8
LAY-10
  6
CONTINUOUS
 62
     7
100
AcDbLine
 10
540.9999999999943
 20
280.698641240512
 30
0.0
 11
540.9999999999943
 21
293.0000000000029
 31
0.0
  0
LINE
  5
17E
330
1F
100
AcDbEntity
  8
LAY-10
  6
CONTINUOUS
 62
     7
100
AcDbLine
 10
532.9999999999942
 20
280.698641240512
 30
0.0
 11
533.4999999999941
 21
280.1986412405129
 31
0.0
  0
LINE
  5
17F
330
1F
100
AcDbEntity
  8
LAY-10
  6
CONTINUOUS
 62
     7
100
AcDbLine
 10
533.4999999999981
 20
280.1986412405129
 30
0.0
 11
533.4999999999981
 21
278.698641240513
 31
0.0
  0
LINE
  5
180
330
1F
100
AcDbEntity
  8
LAY-10
  6
CONTINUOUS
 62
     7
100
AcDbLine
 10
540.4999999999931
 20
280.1986412405129
 30
0.0
 11
540.4999999999931
 21
278.698641240513
 31
0.0
  0
LINE
  5
181
330
1F
100
AcDbEntity
  8
LAY-10
  6
CONTINUOUS
 62
     7
100
AcDbLine
 10
579.3905531187236
 20
298.6955944786924
 30
0.0
 11
540.9999999999943
 21
288.4088767735442
 31
0.0
  0
LINE
  5
182
330
1F
100
AcDbEntity
  8
LAY-10
  6
CONTINUOUS
 62
     7
100
AcDbLine
 10
450.525948892895
 20
288.000000000003
 30
0.0
 11
532.9999999999942
 21
288.000000000003
 31
0.0
  0
LINE
  5
183
330
1F
100
AcDbEntity
  8
LAY-10
  6
CONTINUOUS
 62
     7
100
AcDbLine
 10
544.9999999999944
 20
293.6217782649105
 30
0.0
 11
554.8033969622556
 21
296.2485905640308
 31
0.0
  0
LINE
  5
184
330
1F
100
AcDbEntity
  8
LAY-10
  6
CONTINUOUS
 62
     7
100
AcDbLine
 10
545.7147907262313
 20
298.5788383248875
 30
0.0
 11
544.9999999999944
 21
298.5788383248875
 31
0.0
  0
LINE
  5
185
330
1F
100
AcDbEntity
  8
LAY-10
  6
CONTINUOUS
 62
     7
100
AcDbLine
 10
533.4999999999937
 20
287.1986412405196
 30
0.0
 11
528.6288933513952
 21
287.1986412405196
 31
0.0
  0
LINE
  5
186
330
1F
100
AcDbEntity
  8
LAY-10
  6
CONTINUOUS
 62
     7
100
AcDbLine
 10
551.6084075494467
 20
287.1986412405196
 30
0.0
 11
540.4999999999925
 21
287.1986412405196
 31
0.0
  0
LINE
  5
187
330
1F
100
AcDbEntity
  8
LAY-10
  6
CONTINUOUS
 62
     7
100
AcDbLine
 10
486.9999999999941
 20
293.0000000000029
 30
0.0
 11
486.9999999999941
 21
299.0520000000028
 31
0.0
  0
ARC
  5
188
330
1F
100
AcDbEntity
  8
LAY-10
  6
CONTINUOUS
 62
     7
100
AcDbCircle
 10
488.9999999999943
 20
296.7522032085589
 30
0.0
 40
3.047796791443853
100
AcDbArc
 50
48.98840640771183
 51
131.0115935922944
  0
LINE
  5
189
330
1F
100
AcDbEntity
  8
LAY-10
  6
CONTINUOUS
 62
     7
100
AcDbLine
 10
490.9999999999942
 20
293.0000000000029
 30
0.0
 11
490.9999999999942
 21
299.0520000000028
 31
0.0
  0
LINE
  5
18A
330
1F
100
AcDbEntity
  8
LAY-10
  6
CONTINUOUS
 62
     7
100
AcDbLine
 10
490.9999999999942
 20
299.8000000000079
 30
0.0
 11
490.9999999999942
 21
329.698641240516
 31
0.0
  0
LINE
  5
18B
330
1F
100
AcDbEntity
  8
LAY-10
  6
CONTINUOUS
 62
     7
100
AcDbLine
 10
491.4999999999941
 20
330.1986412405179
 30
0.0
 11
490.9999999999942
 21
329.698641240518
 31
0.0
  0
LINE
  5
18C
330
1F
100
AcDbEntity
  8
LAY-10
  6
CONTINUOUS
 62
     7
100
AcDbLine
 10
490.999999999999
 20
288.000000000003
 30
0.0
 11
490.999999999999
 21
287.1986412405195
 31
0.0
  0
LINE
  5
18D
330
1F
100
AcDbEntity
  8
LAY-10
  6
CONTINUOUS
 62
     7
100
AcDbLine
 10
494.999999999999
 20
299.8000000000029
 30
0.0
 11
488.9999999999943
 21
299.8000000000029
 31
0.0
  0
ARC
  5
18E
330
1F
100
AcDbEntity
  8
LAY-10
  6
CONTINUOUS
 62
     7
100
AcDbCircle
 10
494.9999999999943
 20
288.7308128342274
 30
0.0
 40
11.06918716577541
100
AcDbArc
 50
90.0
 51
111.1839556582283
  0
LINE
  5
18F
330
1F
100
AcDbEntity
  8
LAY-10
  6
CONTINUOUS
 62
     7
100
AcDbLine
 10
490.9999999999942
 20
329.698641240516
 30
0.0
 11
494.999999999999
 21
329.698641240516
 31
0.0
  0
LINE
  5
190
330
1F
100
AcDbEntity
  8
LAY-10
  6
CONTINUOUS
 62
     7
100
AcDbLine
 10
491.4999999999937
 20
330.1986412405135
 30
0.0
 11
494.999999999999
 21
330.1986412405135
 31
0.0
  0
LINE
  5
191
330
1F
100
AcDbEntity
  8
LAY-10
  6
CONTINUOUS
 62
     7
100
AcDbLine
 10
458.5205708656228
 20
345.0000000000027
 30
0.0
 11
531.4794291343748
 21
345.0000000000027
 31
0.0
  0
ARC
  5
192
330
1F
100
AcDbEntity
  8
LAY-10
  6
CONTINUOUS
 62
     7
100
AcDbCircle
 10
531.4794291343744
 20
339.0000000000027
 30
0.0
 40
2.0
100
AcDbArc
 50
15.00000000000158
 51
90.0
  0
ARC
  5
193
330
1F
100
AcDbEntity
  8
LAY-10
  6
CONTINUOUS
 62
     7
100
AcDbCircle
 10
531.4794291343748
 20
339.0000000000027
 30
0.0
 40
6.000000000000004
100
AcDbArc
 50
15.00000000000129
 51
90.0
  0
ARC
  5
194
330
1F
100
AcDbEntity
  8
LAY-10
  6
CONTINUOUS
 62
     7
100
AcDbCircle
 10
559.8924397494308
 20
302.0000000000027
 30
0.0
 40
2.0
100
AcDbArc
 50
270.0
 51
356.9999999999993
  0
LINE
  5
195
330
1F
100
AcDbEntity
  8
LAY-10
  6
CONTINUOUS
 62
     7
100
AcDbLine
 10
561.8896988189399
 20
301.8953280875168
 30
0.0
 11
561.9999999999927
 21
304.000000000003
 31
0.0
  0
LINE
  5
196
330
1F
100
AcDbEntity
  8
LAY-10
  6
CONTINUOUS
 62
     7
100
AcDbLine
 10
456.588719213045
 20
339.5176380902078
 30
0.0
 11
445.9999999999886
 21
300.0000000000027
 31
0.0
  0
LINE
  5
197
330
1F
100
AcDbEntity
  8
LAY-10
  6
CONTINUOUS
 62
     7
100
AcDbLine
 10
443.8685142215815
 20
307.500000000003
 30
0.0
 11
452.7250159078883
 21
340.5529142706179
 31
0.0
  0
LINE
  5
198
330
1F
100
AcDbEntity
  8
LAY-10
  6
CONTINUOUS
 62
     7
100
AcDbLine
 10
456.450018504803
 20
339.0000000000028
 30
0.0
 11
457.9266006043237
 21
339.0000000000028
 31
0.0
  0
ARC
  5
199
330
1F
100
AcDbEntity
  8
LAY-10
  6
CONTINUOUS
 62
     7
100
AcDbCircle
 10
458.5205708656231
 20
339.0000000000027
 30
0.0
 40
2.0
100
AcDbArc
 50
90.0
 51
164.9999999999993
  0
ARC
  5
19A
330
1F
100
AcDbEntity
  8
LAY-10
  6
CONTINUOUS
 62
     7
100
AcDbCircle
 10
458.5205708656227
 20
339.0000000000027
 30
0.0
 40
6.000000000000004
100
AcDbArc
 50
90.0
 51
164.9999999999989
  0
LINE
  5
19B
330
1F
100
AcDbEntity
  8
LAY-10
  6
CONTINUOUS
 62
     7
100
AcDbLine
 10
491.031141628987
 20
339.0000000000028
 30
0.0
 11
489.2128713298335
 21
300.0000000000027
 31
0.0
  0
LINE
  5
19C
330
1F
100
AcDbEntity
  8
LAY-10
  6
CONTINUOUS
 62
     7
100
AcDbLine
 10
485.6146989874181
 20
339.0000000000028
 30
0.0
 11
483.7964286882648
 21
300.0000000000027
 31
0.0
  0
LINE
  5
19D
330
1F
100
AcDbEntity
  8
LAY-10
  6
CONTINUOUS
 62
     7
100
AcDbLine
 10
484.407658448153
 20
339.0000000000028
 30
0.0
 11
482.5887924160399
 21
300.0000000000027
 31
0.0
  0
LINE
  5
19E
330
1F
100
AcDbEntity
  8
LAY-10
  6
CONTINUOUS
 62
     7
100
AcDbLine
 10
472.9201844744597
 20
300.0000000000027
 30
0.0
 11
478.1556851390307
 21
339.0000000000028
 31
0.0
  0
LINE
  5
19F
330
1F
100
AcDbEntity
  8
LAY-10
  6
CONTINUOUS
 62
     7
100
AcDbLine
 10
470.9018184564879
 20
339.0000000000028
 30
0.0
 11
465.664602447225
 21
300.0000000000027
 31
0.0
  0
LINE
  5
1A0
330
1F
100
AcDbEntity
  8
LAY-10
  6
CONTINUOUS
 62
     7
100
AcDbLine
 10
467.311901616918
 20
339.0000000000028
 30
0.0
 11
459.2906492348376
 21
300.0000000000027
 31
0.0
  0
LINE
  5
1A1
330
1F
100
AcDbEntity
  8
LAY-10
  6
CONTINUOUS
 62
     7
100
AcDbLine
 10
455.7553173815601
 20
300.0000000000027
 30
0.0
 11
463.7765697636401
 21
339.0000000000028
 31
0.0
  0
LINE
  5
1A2
330
1F
100
AcDbEntity
  8
LAY-10
  6
CONTINUOUS
 62
     7
100
AcDbLine
 10
452.2786943676327
 20
300.0000000000027
 30
0.0
 11
460.3025748102518
 21
339.0000000000028
 31
0.0
  0
LINE
  5
1A3
330
1F
100
AcDbEntity
  8
LAY-10
  6
CONTINUOUS
 62
     7
100
AcDbLine
 10
467.311901616918
 20
339.0000000000028
 30
0.0
 11
473.3925454182141
 21
339.0000000000028
 31
0.0
  0
LINE
  5
1A4
330
1F
100
AcDbEntity
  8
LAY-10
  6
CONTINUOUS
 62
     7
100
AcDbLine
 10
478.1556851390307
 20
339.0000000000028
 30
0.0
 11
485.6146989874181
 21
339.0000000000028
 31
0.0
  0
LINE
  5
1A5
330
1F
100
AcDbEntity
  8
LAY-10
  6
CONTINUOUS
 62
     7
100
AcDbLine
 10
449.9681887113823
 20
300.0000000000027
 30
0.0
 11
459.8077113926167
 21
339.0000000000028
 31
0.0
  0
LINE
  5
1A6
330
1F
100
AcDbEntity
  8
LAY-10
  6
CONTINUOUS
 62
     7
100
AcDbLine
 10
448.0870779230901
 20
300.0000000000027
 30
0.0
 11
457.9266006043237
 21
339.0000000000028
 31
0.0
  0
LINE
  5
1A7
330
1F
100
AcDbEntity
  8
LAY-10
  6
CONTINUOUS
 62
     7
100
AcDbLine
 10
459.8077113926167
 20
339.0000000000028
 30
0.0
 11
463.7765697636401
 21
339.0000000000028
 31
0.0
  0
LINE
  5
1A8
330
1F
100
AcDbEntity
  8
LAY-10
  6
CONTINUOUS
 62
     7
100
AcDbLine
 10
453.1016564643116
 20
304.0000000000028
 30
0.0
 11
450.9773705248423
 21
304.0000000000028
 31
0.0
  0
LINE
  5
1A9
330
1F
100
AcDbEntity
  8
LAY-10
  6
CONTINUOUS
 62
     7
100
AcDbLine
 10
468.1570447536434
 20
300.0000000000027
 30
0.0
 11
473.3925454182141
 21
339.0000000000028
 31
0.0
  0
LINE
  5
1AA
330
1F
100
AcDbEntity
  8
LAY-10
  6
CONTINUOUS
 62
     7
100
AcDbLine
 10
466.2017528071494
 20
304.0000000000028
 30
0.0
 11
460.1133417868459
 21
304.0000000000028
 31
0.0
  0
LINE
  5
1AB
330
1F
100
AcDbEntity
  8
LAY-10
  6
CONTINUOUS
 62
     7
100
AcDbLine
 10
482.7753427783079
 20
304.0000000000028
 30
0.0
 11
473.4571589015952
 21
304.0000000000028
 31
0.0
  0
LINE
  5
1AC
330
1F
100
AcDbEntity
  8
LAY-10
  6
CONTINUOUS
 62
     7
100
AcDbLine
 10
436.8930583446199
 20
300.0000000000028
 30
0.0
 11
436.4999999999971
 21
307.500000000003
 31
0.0
  0
LINE
  5
1AD
330
1F
100
AcDbEntity
  8
LAY-10
  6
CONTINUOUS
 62
     7
100
AcDbLine
 10
443.8685142215814
 20
307.500000000003
 30
0.0
 11
428.1834272274925
 21
307.500000000003
 31
0.0
  0
LINE
  5
1AE
330
1F
100
AcDbEntity
  8
LAY-10
  6
CONTINUOUS
 62
     7
100
AcDbLine
 10
458.5205708656231
 20
341.0000000000027
 30
0.0
 11
531.4794291343744
 21
341.0000000000027
 31
0.0
  0
LINE
  5
1AF
330
1F
100
AcDbEntity
  8
LAY-10
  6
CONTINUOUS
 62
     7
100
AcDbLine
 10
561.9999999999927
 20
304.0000000000027
 30
0.0
 11
547.0693079519251
 21
304.0000000000027
 31
0.0
  0
LINE
  5
1B0
330
1F
100
AcDbEntity
  8
LAY-10
  6
CONTINUOUS
 62
     7
100
AcDbLine
 10
533.5499814951945
 20
339.0000000000028
 30
0.0
 11
537.6910862168353
 21
339.0000000000028
 31
0.0
  0
LINE
  5
1B1
330
1F
100
AcDbEntity
  8
LAY-10
  6
CONTINUOUS
 62
     7
100
AcDbLine
 10
494.9999999999987
 20
339.0000000000028
 30
0.0
 11
490.8089088427326
 21
339.0000000000028
 31
0.0
  0
LINE
  5
1B2
330
1F
100
AcDbEntity
  8
LAY-10
  6
CONTINUOUS
 62
     7
100
AcDbLine
 10
507.0000000000049
 20
345.0000000000028
 30
0.0
 11
506.5000000000049
 21
341.0000000000028
 31
0.0
  0
LINE
  5
1B3
330
1F
100
AcDbEntity
  8
LAY-10
  6
CONTINUOUS
 62
     7
100
AcDbLine
 10
531.5000000000149
 20
340.9998942070728
 30
0.0
 11
531.000000000015
 21
345.0000000000028
 31
0.0
  0
LINE
  5
1B4
330
1F
100
AcDbEntity
  8
LAY-10
  6
CONTINUOUS
 62
     7
100
AcDbLine
 10
497.7499999999949
 20
339.0000000000028
 30
0.0
 11
505.5671249887749
 21
339.0000000000028
 31
0.0
  0
LINE
  5
1B5
330
1F
100
AcDbEntity
  8
LAY-10
  6
CONTINUOUS
 62
     7
100
AcDbLine
 10
505.5671249887749
 20
339.0000000000028
 30
0.0
 11
509.148418364135
 21
300.0000000000028
 31
0.0
  0
LINE
  5
1B6
330
1F
100
AcDbEntity
  8
LAY-10
  6
CONTINUOUS
 62
     7
100
AcDbLine
 10
497.7499999999949
 20
300.0000000000028
 30
0.0
 11
497.7499999999949
 21
339.0000000000028
 31
0.0
  0
LINE
  5
1B7
330
1F
100
AcDbEntity
  8
LAY-10
  6
CONTINUOUS
 62
     7
100
AcDbLine
 10
498.2499999999949
 20
304.0000000000028
 30
0.0
 11
508.7811062230724
 21
304.0000000000028
 31
0.0
  0
LINE
  5
1B8
330
1F
100
AcDbEntity
  8
LAY-10
  6
CONTINUOUS
 62
     7
100
AcDbLine
 10
510.7354344030949
 20
339.0000000000028
 30
0.0
 11
514.316727778455
 21
300.0000000000028
 31
0.0
  0
LINE
  5
1B9
330
1F
100
AcDbEntity
  8
LAY-10
  6
CONTINUOUS
 62
     7
100
AcDbLine
 10
524.340328665135
 20
300.0000000000028
 30
0.0
 11
517.609698749755
 21
339.0000000000028
 31
0.0
  0
LINE
  5
1BA
330
1F
100
AcDbEntity
  8
LAY-10
  6
CONTINUOUS
 62
     7
100
AcDbLine
 10
510.7354344030949
 20
339.0000000000028
 30
0.0
 11
517.609698749755
 21
339.0000000000028
 31
0.0
  0
LINE
  5
1BB
330
1F
100
AcDbEntity
  8
LAY-10
  6
CONTINUOUS
 62
     7
100
AcDbLine
 10
498.2499999999949
 20
304.0000000000028
 30
0.0
 11
498.2499999999949
 21
339.0000000000028
 31
0.0
  0
LINE
  5
1BC
330
1F
100
AcDbEntity
  8
LAY-10
  6
CONTINUOUS
 62
     7
100
AcDbLine
 10
515.736205159605
 20
304.0000000000028
 30
0.0
 11
523.650007648173
 21
304.0000000000028
 31
0.0
  0
LINE
  5
1BD
330
1F
100
AcDbEntity
  8
LAY-10
  6
CONTINUOUS
 62
     7
100
AcDbLine
 10
515.736205159605
 20
304.0000000000028
 30
0.0
 11
512.612840165635
 21
339.0000000000028
 31
0.0
  0
LINE
  5
1BE
330
1F
100
AcDbEntity
  8
LAY-10
  6
CONTINUOUS
 62
     7
100
AcDbLine
 10
515.736205159605
 20
304.0000000000028
 30
0.0
 11
516.195306905865
 21
300.0000000000028
 31
0.0
  0
LINE
  5
1BF
330
1F
100
AcDbEntity
  8
LAY-10
  6
CONTINUOUS
 62
     7
100
AcDbLine
 10
498.2499999999949
 20
300.0000000000028
 30
0.0
 11
498.2499999999949
 21
304.0000000000028
 31
0.0
  0
LINE
  5
1C0
330
1F
100
AcDbEntity
  8
LAY-10
  6
CONTINUOUS
 62
     7
100
AcDbLine
 10
521.8229431869049
 20
339.0000000000028
 30
0.0
 11
526.925209157895
 21
339.0000000000028
 31
0.0
  0
LINE
  5
1C1
330
1F
100
AcDbEntity
  8
LAY-10
  6
CONTINUOUS
 62
     7
100
AcDbLine
 10
521.8229431869049
 20
339.0000000000028
 30
0.0
 11
528.553573102295
 21
300.0000000000028
 31
0.0
  0
LINE
  5
1C2
330
1F
100
AcDbEntity
  8
LAY-10
  6
CONTINUOUS
 62
     7
100
AcDbLine
 10
530.7213179431749
 20
304.0000000000028
 30
0.0
 11
524.8513118694549
 21
339.0000000000028
 31
0.0
  0
LINE
  5
1C3
330
1F
100
AcDbEntity
  8
LAY-10
  6
CONTINUOUS
 62
     7
100
AcDbLine
 10
530.7213179431749
 20
304.0000000000028
 30
0.0
 11
531.584146989475
 21
300.0000000000028
 31
0.0
  0
LINE
  5
1C4
330
1F
100
AcDbEntity
  8
LAY-10
  6
CONTINUOUS
 62
     7
100
AcDbLine
 10
529.675209157895
 20
339.0000000000028
 30
0.0
 11
532.390068175685
 21
339.0000000000028
 31
0.0
  0
LINE
  5
1C5
330
1F
100
AcDbEntity
  8
LAY-10
  6
CONTINUOUS
 62
     7
100
AcDbLine
 10
541.3979125922849
 20
304.0000000000028
 30
0.0
 11
541.6443583084003
 21
304.0000000000028
 31
0.0
  0
LINE
  5
1C6
330
1F
100
AcDbEntity
  8
LAY-10
  6
CONTINUOUS
 62
     7
100
AcDbLine
 10
541.3979125922849
 20
304.0000000000028
 30
0.0
 11
542.5603990216349
 21
300.0000000000028
 31
0.0
  0
LINE
  5
1C7
330
1F
100
AcDbEntity
  8
LAY-10
  6
CONTINUOUS
 62
     7
100
AcDbLine
 10
443.1868787714549
 20
300.0000000000027
 30
0.0
 11
443.3029093878345
 21
299.3915232584944
 31
0.0
  0
LINE
  5
1C8
330
1F
100
AcDbEntity
  8
LAY-10
  6
CONTINUOUS
 62
     7
100
AcDbLine
 10
449.896267796876
 20
299.5640657981848
 30
0.0
 11
449.9027083493043
 21
300.0000000000027
 31
0.0
  0
LINE
  5
1C9
330
1F
100
AcDbEntity
  8
LAY-10
  6
CONTINUOUS
 62
     7
100
AcDbLine
 10
451.4819614315722
 20
306.0000000000026
 30
0.0
 11
453.5131375126509
 21
306.0000000000026
 31
0.0
  0
LINE
  5
1CA
330
1F
100
AcDbEntity
  8
LAY-10
  6
CONTINUOUS
 62
     7
100
AcDbLine
 10
460.52468806285
 20
306.0000000000026
 30
0.0
 11
466.4703279871117
 21
306.0000000000026
 31
0.0
  0
LINE
  5
1CB
330
1F
100
AcDbEntity
  8
LAY-10
  6
CONTINUOUS
 62
     7
100
AcDbLine
 10
472.779162630524
 20
299.4088204690297
 30
0.0
 11
472.6771665920648
 21
300.0000000000027
 31
0.0
  0
LINE
  5
1CC
330
1F
100
AcDbEntity
  8
LAY-10
  6
CONTINUOUS
 62
     7
100
AcDbLine
 10
481.3806964322475
 20
304.0000000000028
 30
0.0
 11
481.7203928574853
 21
305.6989956164901
 31
0.0
  0
LINE
  5
1CD
330
1F
100
AcDbEntity
  8
LAY-10
  6
CONTINUOUS
 62
     7
100
AcDbLine
 10
481.8681638783347
 20
299.482348364571
 30
0.0
 11
481.9183462170049
 21
300.0000000000027
 31
0.0
  0
LINE
  5
1CE
330
1F
100
AcDbEntity
  8
LAY-10
  6
CONTINUOUS
 62
     7
100
AcDbLine
 10
482.3061154056676
 20
304.0000000000028
 30
0.0
 11
482.4602015017216
 21
305.5894619846991
 31
0.0
  0
LINE
  5
1CF
330
1F
100
AcDbEntity
  8
LAY-10
  6
CONTINUOUS
 62
     7
100
AcDbLine
 10
482.0875374168784
 20
306.0000000000026
 30
0.0
 11
482.8686179594419
 21
306.0000000000026
 31
0.0
  0
LINE
  5
1D0
330
1F
100
AcDbEntity
  8
LAY-10
  6
CONTINUOUS
 62
     7
100
AcDbLine
 10
489.4926052220109
 20
306.0000000000026
 30
0.0
 11
490.9999999999942
 21
306.0000000000026
 31
0.0
  0
LINE
  5
1D1
330
1F
100
AcDbEntity
  8
LAY-10
  6
CONTINUOUS
 62
     7
100
AcDbLine
 10
490.9999999999942
 20
304.0000000000028
 30
0.0
 11
489.3993605912852
 21
304.0000000000028
 31
0.0
  0
LINE
  5
1D2
330
1F
100
AcDbEntity
  8
LAY-10
  6
CONTINUOUS
 62
     7
100
AcDbLine
 10
498.2499999999949
 20
306.0000000000026
 30
0.0
 11
507.9124625831196
 21
306.0000000000026
 31
0.0
  0
LINE
  5
1D3
330
1F
100
AcDbEntity
  8
LAY-10
  6
CONTINUOUS
 62
     7
100
AcDbLine
 10
508.6193035677504
 20
304.0000000000028
 30
0.0
 11
508.2796071425128
 21
305.6989956164901
 31
0.0
  0
LINE
  5
1D4
330
1F
100
AcDbEntity
  8
LAY-10
  6
CONTINUOUS
 62
     7
100
AcDbLine
 10
508.1318361216632
 20
299.482348364571
 30
0.0
 11
508.0816537829928
 21
300.0000000000027
 31
0.0
  0
LINE
  5
1D5
330
1F
100
AcDbEntity
  8
LAY-10
  6
CONTINUOUS
 62
     7
100
AcDbLine
 10
507.6938845943301
 20
304.0000000000028
 30
0.0
 11
507.5397984982762
 21
305.5894619846991
 31
0.0
  0
LINE
  5
1D6
330
1F
100
AcDbEntity
  8
LAY-10
  6
CONTINUOUS
 62
     7
100
AcDbLine
 10
517.2208373694739
 20
299.4088204690297
 30
0.0
 11
517.3228334079331
 21
300.0000000000027
 31
0.0
  0
LINE
  5
1D7
330
1F
100
AcDbEntity
  8
LAY-10
  6
CONTINUOUS
 62
     7
100
AcDbLine
 10
518.0129522846225
 20
304.0000000000028
 30
0.0
 11
518.2148151367204
 21
305.1700178558603
 31
0.0
  0
LINE
  5
1D8
330
1F
100
AcDbEntity
  8
LAY-10
  6
CONTINUOUS
 62
     7
100
AcDbLine
 10
519.2002561185603
 20
306.0000000000026
 30
0.0
 11
523.3048471396919
 21
306.0000000000026
 31
0.0
  0
LINE
  5
1D9
330
1F
100
AcDbEntity
  8
LAY-10
  6
CONTINUOUS
 62
     7
100
AcDbLine
 10
530.3858890246768
 20
306.0000000000026
 30
0.0
 11
532.9999999999942
 21
306.0000000000026
 31
0.0
  0
LINE
  5
1DA
330
1F
100
AcDbEntity
  8
LAY-10
  6
CONTINUOUS
 62
     7
100
AcDbLine
 10
530.7213179431749
 20
304.0000000000028
 30
0.0
 11
532.9999999999942
 21
304.0000000000028
 31
0.0
  0
LINE
  5
1DB
330
1F
100
AcDbEntity
  8
LAY-10
  6
CONTINUOUS
 62
     7
100
AcDbLine
 10
494.999999999999
 20
300.0000000000027
 30
0.0
 11
532.9999999999942
 21
300.0000000000027
 31
0.0
  0
LINE
  5
1DC
330
1F
100
AcDbEntity
  8
LAY-10
  6
CONTINUOUS
 62
     7
100
AcDbLine
 10
540.9999999999943
 20
300.0000000000027
 30
0.0
 11
559.8924397494308
 21
300.0000000000027
 31
0.0
  0
LINE
  5
1DD
330
1F
100
AcDbEntity
  8
LAY-10
  6
CONTINUOUS
 62
     7
100
AcDbLine
 10
560.3815041573092
 20
305.0822705307584
 30
0.0
 11
560.2921623205291
 21
304.0000000000027
 31
0.0
  0
LINE
  5
1DE
330
1F
100
AcDbEntity
  8
LAY-10
  6
CONTINUOUS
 62
     7
100
AcDbLine
 10
559.9620608885126
 20
300.0012121430772
 30
0.0
 11
559.9619608256487
 21
300.0000000000018
 31
0.0
  0
LINE
  5
1DF
330
1F
100
AcDbEntity
  8
LAY-10
  6
CONTINUOUS
 62
     7
100
AcDbLine
 10
547.802291928834
 20
305.1873150663957
 30
0.0
 11
547.5758824548273
 21
304.0000000000027
 31
0.0
  0
LINE
  5
1E0
330
1F
100
AcDbEntity
  8
LAY-10
  6
CONTINUOUS
 62
     7
100
AcDbLine
 10
546.8131212285432
 20
300.0000000000027
 30
0.0
 11
546.6970906121636
 21
299.3915232584944
 31
0.0
  0
LINE
  5
1E1
330
1F
100
AcDbEntity
  8
LAY-10
  6
CONTINUOUS
 62
     7
100
AcDbLine
 10
532.9999999999942
 20
312.8737492832277
 30
0.0
 11
526.925209157895
 21
339.0000000000028
 31
0.0
  0
LINE
  5
1E2
330
1F
100
AcDbEntity
  8
LAY-10
  6
CONTINUOUS
 62
     7
100
AcDbLine
 10
532.9999999999942
 20
324.7008543373178
 30
0.0
 11
529.675209157895
 21
339.0000000000028
 31
0.0
  0
LINE
  5
1E3
330
1F
100
AcDbEntity
  8
LAY-10
  6
CONTINUOUS
 62
     7
100
AcDbLine
 10
532.390068175685
 20
339.0000000000028
 30
0.0
 11
534.7172203906116
 21
330.1986412405135
 31
0.0
  0
LINE
  5
1E4
330
1F
100
AcDbEntity
  8
LAY-10
  6
CONTINUOUS
 62
     7
100
AcDbLine
 10
533.4112807869525
 20
339.5176380902078
 30
0.0
 11
535.9082984670964
 21
330.1986412405135
 31
0.0
  0
LINE
  5
1E5
330
1F
100
AcDbEntity
  8
LAY-10
  6
CONTINUOUS
 62
     7
100
AcDbLine
 10
540.0494031887372
 20
330.1986412405135
 30
0.0
 11
537.2749840921092
 21
340.5529142706179
 31
0.0
  0
LINE
  5
1E6
330
1F
100
AcDbEntity
  8
LAY-10
  6
CONTINUOUS
 62
     7
100
AcDbLine
 10
540.9999999999943
 20
299.8000000000079
 30
0.0
 11
540.9999999999943
 21
329.698641240516
 31
0.0
  0
LINE
  5
1E7
330
1F
100
AcDbEntity
  8
LAY-10
  6
CONTINUOUS
 62
     7
100
AcDbLine
 10
548.1411047216496
 20
300.0000000000027
 30
0.0
 11
540.9999999999943
 21
326.6509656433894
 31
0.0
  0
LINE
  5
1E8
330
1F
100
AcDbEntity
  8
LAY-10
  6
CONTINUOUS
 62
     7
100
AcDbLine
 10
540.9999999999943
 20
306.4369822504822
 30
0.0
 11
542.7019914664249
 21
300.0000000000028
 31
0.0
  0
LINE
  5
1E9
330
1F
100
AcDbEntity
  8
LAY-10
  6
CONTINUOUS
 62
     7
100
AcDbLine
 10
541.3979125922849
 20
304.0000000000028
 30
0.0
 11
540.9999999999943
 21
305.760978451908
 31
0.0
  0
LINE
  5
1EA
330
1F
100
AcDbEntity
  8
LAY-10
  6
CONTINUOUS
 62
     7
100
AcDbLine
 10
540.9999999999943
 20
311.1961524227634
 30
0.0
 11
544.0000000000089
 21
300.0000000000027
 31
0.0
  0
LINE
  5
1EB
330
1F
100
AcDbEntity
  8
LAY-10
  6
CONTINUOUS
 62
     7
100
AcDbLine
 10
540.9999999999943
 20
306.0000000000026
 30
0.0
 11
541.115541729388
 21
306.0000000000026
 31
0.0
  0
LINE
  5
1EC
330
1F
100
AcDbEntity
  8
LAY-10
  6
CONTINUOUS
 62
     7
100
AcDbLine
 10
433.9999999999952
 20
296.0000000000055
 30
0.0
 11
427.9999999999951
 21
296.0000000000055
 31
0.0
  0
LINE
  5
1ED
330
1F
100
AcDbEntity
  8
LAY-10
  6
CONTINUOUS
 62
     7
100
AcDbLine
 10
433.9999999999952
 20
307.5000000000035
 30
0.0
 11
433.9999999999952
 21
296.0000000000055
 31
0.0
  0
LINE
  5
1EE
330
1F
100
AcDbEntity
  8
LAY-10
  6
CONTINUOUS
 62
     7
100
AcDbLine
 10
428.4999999999955
 20
295.5000000000056
 30
0.0
 11
433.4999999999955
 21
295.5000000000056
 31
0.0
  0
LINE
  5
1EF
330
1F
100
AcDbEntity
  8
LAY-10
  6
CONTINUOUS
 62
     7
100
AcDbLine
 10
427.9999999999951
 20
307.5000000000035
 30
0.0
 11
427.9999999999951
 21
296.0000000000055
 31
0.0
  0
LINE
  5
1F0
330
1F
100
AcDbEntity
  8
LAY-10
  6
CONTINUOUS
 62
     7
100
AcDbLine
 10
433.4999999999955
 20
295.5000000000056
 30
0.0
 11
433.9999999999952
 21
296.0000000000055
 31
0.0
  0
LINE
  5
1F1
330
1F
100
AcDbEntity
  8
LAY-10
  6
CONTINUOUS
 62
     7
100
AcDbLine
 10
428.4999999999955
 20
295.5000000000056
 30
0.0
 11
427.9999999999951
 21
296.0000000000055
 31
0.0
  0
ARC
  5
1F2
330
1F
100
AcDbEntity
  8
LAY-10
  6
CONTINUOUS
 62
     7
100
AcDbCircle
 10
430.9999999999952
 20
305.2000000000036
 30
0.0
 40
6.300000000000004
100
AcDbArc
 50
95.46502379990869
 51
128.6821874534916
  0
ARC
  5
1F3
330
1F
100
AcDbEntity
  8
LAY-10
  6
CONTINUOUS
 62
     7
100
AcDbCircle
 10
430.9999999999952
 20
305.2000000000036
 30
0.0
 40
6.300000000000004
100
AcDbArc
 50
51.3178125464967
 51
84.53497620009915
  0
LINE
  5
1F4
330
1F
100
AcDbEntity
  8
LAY-10
  6
CONTINUOUS
 62
     7
100
AcDbLine
 10
430.3999999999954
 20
311.4713634881035
 30
0.0
 11
430.3999999999954
 21
309.0000000000035
 31
0.0
  0
LINE
  5
1F5
330
1F
100
AcDbEntity
  8
LAY-10
  6
CONTINUOUS
 62
     7
100
AcDbLine
 10
431.5999999999957
 20
309.0000000000035
 30
0.0
 11
430.3999999999954
 21
309.0000000000035
 31
0.0
  0
LINE
  5
1F6
330
1F
100
AcDbEntity
  8
LAY-10
  6
CONTINUOUS
 62
     7
100
AcDbLine
 10
431.5999999999957
 20
311.4713634881035
 30
0.0
 11
431.5999999999957
 21
309.0000000000035
 31
0.0
  0
LINE
  5
1F7
330
1F
100
AcDbEntity
  8
LAY-10
  6
CONTINUOUS
 62
     7
100
AcDbLine
 10
436.2481347568954
 20
307.5000000000035
 30
0.0
 11
425.7518652430952
 21
307.5000000000035
 31
0.0
  0
ARC
  5
1F8
330
1F
100
AcDbEntity
  8
LAY-10
  6
CONTINUOUS
 62
     7
100
AcDbCircle
 10
432.7499999999953
 20
307.3857492994032
 30
0.0
 40
3.500000000000003
100
AcDbArc
 50
1.870641730603623
 51
51.31781254649722
  0
ARC
  5
1F9
330
1F
100
AcDbEntity
  8
LAY-10
  6
CONTINUOUS
 62
     7
100
AcDbCircle
 10
429.2499999999953
 20
307.3857492994032
 30
0.0
 40
3.500000000000003
100
AcDbArc
 50
128.6821874534957
 51
178.1293582694104
  0
LINE
  5
1FA
330
1F
100
AcDbEntity
  8
LAY-10
  6
CONTINUOUS
 62
     7
100
AcDbLine
 10
424.6257118816188
 20
306.0000000000026
 30
0.0
 11
427.9999999999951
 21
306.0000000000026
 31
0.0
  0
LINE
  5
1FB
330
1F
100
AcDbEntity
  8
LAY-10
  6
CONTINUOUS
 62
     7
100
AcDbLine
 10
428.499999999998
 20
295.5000000000056
 30
0.0
 11
428.499999999998
 21
293.9018352183841
 31
0.0
  0
LINE
  5
1FC
330
1F
100
AcDbEntity
  8
LAY-10
  6
CONTINUOUS
 62
     7
100
AcDbLine
 10
433.4999999999981
 20
295.5000000000056
 30
0.0
 11
433.4999999999981
 21
292.5620892562284
 31
0.0
  0
LINE
  5
1FD
330
1F
100
AcDbEntity
  8
LAY-10
  6
CONTINUOUS
 62
     7
100
AcDbLine
 10
428.4999999999955
 20
300.0000000000029
 30
0.0
 11
426.3084987583713
 21
300.0000000000029
 31
0.0
  0
LINE
  5
1FE
330
1F
100
AcDbEntity
  8
LAY-10
  6
CONTINUOUS
 62
     7
100
AcDbLine
 10
433.4999999999955
 20
300.0000000000027
 30
0.0
 11
490.9999999999942
 21
300.0000000000027
 31
0.0
  0
CIRCLE
  5
1FF
330
1F
100
AcDbEntity
  8
LAY-10
  6
CONTINUOUS
 62
     7
100
AcDbCircle
 10
494.999999999999
 20
546.000000000013
 30
0.0
 40
95.99999999999997
  0
CIRCLE
  5
200
330
1F
100
AcDbEntity
  8
LAY-10
  6
CONTINUOUS
 62
     7
100
AcDbCircle
 10
494.999999999999
 20
546.0000000000108
 30
0.0
 40
94.99999999999997
  0
CIRCLE
  5
201
330
1F
100
AcDbEntity
  8
LAY-10
  6
CONTINUOUS
 62
     7
100
AcDbCircle
 10
494.999999999999
 20
546.0000000000108
 30
0.0
 40
89.99999999999994
  0
LINE
  5
202
330
1F
100
AcDbEntity
  8
LAY-10
  6
CONTINUOUS
 62
     7
100
AcDbLine
 10
425.7754124389515
 20
570.7023577214097
 30
0.0
 11
424.5038161150367
 21
570.0943573820448
 31
0.0
  0
LINE
  5
203
330
1F
100
AcDbEntity
  8
LAY-10
  6
CONTINUOUS
 62
     7
100
AcDbLine
 10
426.6333414594518
 20
533.500000000013
 30
0.0
 11
422.6985697449332
 21
532.7805755395896
 31
0.0
  0
LINE
  5
204
330
1F
100
AcDbEntity
  8
LAY-10
  6
CONTINUOUS
 62
     7
100
AcDbLine
 10
426.6333414594518
 20
558.5000000000131
 30
0.0
 11
422.6985697449332
 21
559.2194244604364
 31
0.0
  0
LINE
  5
205
330
1F
100
AcDbEntity
  8
LAY-10
  6
CONTINUOUS
 62
     7
100
AcDbLine
 10
421.9013351947467
 20
560.381766361794
 30
0.0
 11
427.8040711261552
 21
559.3025239252363
 31
0.0
  0
LINE
  5
206
330
1F
100
AcDbEntity
  8
LAY-10
  6
CONTINUOUS
 62
     7
100
AcDbLine
 10
421.9013351947465
 20
531.6182336382326
 30
0.0
 11
427.8040711261552
 21
532.6974760747903
 31
0.0
  0
LINE
  5
207
330
1F
100
AcDbEntity
  8
LAY-10
  6
CONTINUOUS
 62
     7
100
AcDbLine
 10
422.6985697449332
 20
559.2194244604364
 30
0.0
 11
421.9013351947467
 21
560.381766361794
 31
0.0
  0
LINE
  5
208
330
1F
100
AcDbEntity
  8
LAY-10
  6
CONTINUOUS
 62
     7
100
AcDbLine
 10
426.6333414594518
 20
558.5000000000131
 30
0.0
 11
427.8040711261552
 21
559.3025239252363
 31
0.0
  0
LINE
  5
209
330
1F
100
AcDbEntity
  8
LAY-10
  6
CONTINUOUS
 62
     7
100
AcDbLine
 10
426.6333414594518
 20
533.500000000013
 30
0.0
 11
427.8040711261552
 21
532.6974760747903
 31
0.0
  0
LINE
  5
20A
330
1F
100
AcDbEntity
  8
LAY-10
  6
CONTINUOUS
 62
     7
100
AcDbLine
 10
422.6985697449332
 20
532.7805755395896
 30
0.0
 11
421.9013351947465
 21
531.6182336382326
 31
0.0
  0
ARC
  5
20B
330
1F
100
AcDbEntity
  8
LAY-10
  6
CONTINUOUS
 62
     7
100
AcDbCircle
 10
494.9999999999989
 20
546.000000000013
 30
0.0
 40
73.49999999995217
100
AcDbArc
 50
169.6386209677109
 51
190.3613790322891
  0
ARC
  5
20C
330
1F
100
AcDbEntity
  8
LAY-10
  6
CONTINUOUS
 62
     7
100
AcDbCircle
 10
494.9999999999989
 20
546.000000000013
 30
0.0
 40
74.49999999996959
100
AcDbArc
 50
168.869527005708
 51
191.1304729942917
  0
ARC
  5
20D
330
1F
100
AcDbEntity
  8
LAY-10
  6
CONTINUOUS
 62
     7
100
AcDbCircle
 10
494.9999999999989
 20
546.000000000013
 30
0.0
 40
69.49999999999841
100
AcDbArc
 50
169.6386209677111
 51
190.3613790322889
  0
ARC
  5
20E
330
1F
100
AcDbEntity
  8
LAY-10
  6
CONTINUOUS
 62
     7
100
AcDbCircle
 10
494.9999999999989
 20
546.000000000013
 30
0.0
 40
68.49999999999858
100
AcDbArc
 50
168.8021565176467
 51
174.7230038887226
  0
LINE
  5
20F
330
1F
100
AcDbEntity
  8
LAY-10
  6
CONTINUOUS
 62
     7
100
AcDbLine
 10
425.7754124389515
 20
521.2976422786162
 30
0.0
 11
424.5038161150367
 21
521.9056426179817
 31
0.0
  0
ARC
  5
210
330
1F
100
AcDbEntity
  8
LAY-10
  6
CONTINUOUS
 62
     7
100
AcDbCircle
 10
494.9999999999989
 20
546.000000000013
 30
0.0
 40
68.49999999999858
100
AcDbArc
 50
185.2769961112774
 51
191.1978434823532
  0
LINE
  5
211
330
1F
100
AcDbEntity
  8
LAY-10
  6
CONTINUOUS
 62
     7
100
AcDbLine
 10
426.5710416356592
 20
552.000000000013
 30
0.0
 11
426.7903232671497
 21
552.3000000000129
 31
0.0
  0
LINE
  5
212
330
1F
100
AcDbEntity
  8
LAY-10
  6
CONTINUOUS
 62
     7
100
AcDbLine
 10
426.7903232671497
 20
539.7000000000131
 30
0.0
 11
426.5710416356592
 21
540.000000000013
 31
0.0
  0
CIRCLE
  5
213
330
1F
100
AcDbEntity
  8
LAY-10
  6
CONTINUOUS
 62
     7
100
AcDbCircle
 10
494.9999999999989
 20
546.000000000013
 30
0.0
 40
85.00000000000568
  0
CIRCLE
  5
214
330
1F
100
AcDbEntity
  8
LAY-10
  6
CONTINUOUS
 62
     7
100
AcDbCircle
 10
494.9999999999989
 20
546.000000000013
 30
0.0
 40
86.00000000000529
  0
LINE
  5
215
330
1F
100
AcDbEntity
  8
LAY-10
  6
CONTINUOUS
 62
     7
100
AcDbLine
 10
482.4999999999989
 20
614.3666585405603
 30
0.0
 11
481.7805755395756
 21
618.3014302550789
 31
0.0
  0
LINE
  5
216
330
1F
100
AcDbEntity
  8
LAY-10
  6
CONTINUOUS
 62
     7
100
AcDbLine
 10
507.499999999999
 20
614.3666585405603
 30
0.0
 11
508.2194244604223
 21
618.3014302550789
 31
0.0
  0
LINE
  5
217
330
1F
100
AcDbEntity
  8
LAY-10
  6
CONTINUOUS
 62
     7
100
AcDbLine
 10
509.3817663617799
 20
619.0986648052653
 30
0.0
 11
508.3025239252222
 21
613.1959288738569
 31
0.0
  0
LINE
  5
218
330
1F
100
AcDbEntity
  8
LAY-10
  6
CONTINUOUS
 62
     7
100
AcDbLine
 10
480.6182336382186
 20
619.0986648052656
 30
0.0
 11
481.6974760747763
 21
613.195928873857
 31
0.0
  0
LINE
  5
219
330
1F
100
AcDbEntity
  8
LAY-10
  6
CONTINUOUS
 62
     7
100
AcDbLine
 10
508.2194244604223
 20
618.3014302550787
 30
0.0
 11
509.3817663617799
 21
619.0986648052653
 31
0.0
  0
LINE
  5
21A
330
1F
100
AcDbEntity
  8
LAY-10
  6
CONTINUOUS
 62
     7
100
AcDbLine
 10
507.499999999999
 20
614.3666585405603
 30
0.0
 11
508.3025239252222
 21
613.1959288738569
 31
0.0
  0
LINE
  5
21B
330
1F
100
AcDbEntity
  8
LAY-10
  6
CONTINUOUS
 62
     7
100
AcDbLine
 10
482.4999999999989
 20
614.3666585405603
 30
0.0
 11
481.6974760747763
 21
613.195928873857
 31
0.0
  0
LINE
  5
21C
330
1F
100
AcDbEntity
  8
LAY-10
  6
CONTINUOUS
 62
     7
100
AcDbLine
 10
481.7805755395756
 20
618.3014302550787
 30
0.0
 11
480.6182336382186
 21
619.0986648052653
 31
0.0
  0
ARC
  5
21D
330
1F
100
AcDbEntity
  8
LAY-10
  6
CONTINUOUS
 62
     7
100
AcDbCircle
 10
494.9999999999989
 20
546.000000000013
 30
0.0
 40
73.49999999995217
100
AcDbArc
 50
79.63862096771102
 51
100.3613790322893
  0
ARC
  5
21E
330
1F
100
AcDbEntity
  8
LAY-10
  6
CONTINUOUS
 62
     7
100
AcDbCircle
 10
494.9999999999989
 20
546.000000000013
 30
0.0
 40
69.49999999999841
100
AcDbArc
 50
79.6386209677109
 51
100.3613790322894
  0
ARC
  5
21F
330
1F
100
AcDbEntity
  8
LAY-10
  6
CONTINUOUS
 62
     7
100
AcDbCircle
 10
494.9999999999989
 20
546.000000000013
 30
0.0
 40
68.49999999999858
100
AcDbArc
 50
78.80215651764621
 51
86.40096429387333
  0
ARC
  5
220
330
1F
100
AcDbEntity
  8
LAY-10
  6
CONTINUOUS
 62
     7
100
AcDbCircle
 10
494.9999999999989
 20
546.000000000013
 30
0.0
 40
74.49999999996959
100
AcDbArc
 50
78.86952700570788
 51
101.1304729942918
  0
LINE
  5
221
330
1F
100
AcDbEntity
  8
LAY-10
  6
CONTINUOUS
 62
     7
100
AcDbLine
 10
449.9913531824197
 20
598.9572630679835
 30
0.0
 11
447.40092746633
 21
602.0051631006372
 31
0.0
  0
LINE
  5
222
330
1F
100
AcDbEntity
  8
LAY-10
  6
CONTINUOUS
 62
     7
100
AcDbLine
 10
471.6419882770308
 20
611.4572630679834
 30
0.0
 11
470.2976422786022
 21
615.2245875610606
 31
0.0
  0
LINE
  5
223
330
1F
100
AcDbEntity
  8
LAY-10
  6
CONTINUOUS
 62
     7
100
AcDbLine
 10
470.9056426179678
 20
616.4961838849754
 30
0.0
 11
472.9223592167708
 21
610.8446433982657
 31
0.0
  0
LINE
  5
224
330
1F
100
AcDbEntity
  8
LAY-10
  6
CONTINUOUS
 62
     7
100
AcDbLine
 10
445.9956925767787
 20
602.1144175231949
 30
0.0
 11
449.881711909384
 21
597.5421194730429
 31
0.0
  0
LINE
  5
225
330
1F
100
AcDbEntity
  8
LAY-10
  6
CONTINUOUS
 62
     7
100
AcDbLine
 10
470.2976422786022
 20
615.2245875610604
 30
0.0
 11
470.9056426179678
 21
616.4961838849754
 31
0.0
  0
LINE
  5
226
330
1F
100
AcDbEntity
  8
LAY-10
  6
CONTINUOUS
 62
     7
100
AcDbLine
 10
471.6419882770308
 20
611.4572630679834
 30
0.0
 11
472.9223592167708
 21
610.8446433982658
 31
0.0
  0
LINE
  5
227
330
1F
100
AcDbEntity
  8
LAY-10
  6
CONTINUOUS
 62
     7
100
AcDbLine
 10
449.9913531824197
 20
598.9572630679835
 30
0.0
 11
449.881711909384
 21
597.5421194730429
 31
0.0
  0
LINE
  5
228
330
1F
100
AcDbEntity
  8
LAY-10
  6
CONTINUOUS
 62
     7
100
AcDbLine
 10
447.4009274663301
 20
602.0051631006371
 30
0.0
 11
445.9956925767787
 21
602.1144175231949
 31
0.0
  0
ARC
  5
229
330
1F
100
AcDbEntity
  8
LAY-10
  6
CONTINUOUS
 62
     7
100
AcDbCircle
 10
494.9999999999989
 20
546.000000000013
 30
0.0
 40
73.49999999995217
100
AcDbArc
 50
109.6386209677109
 51
130.3613790322894
  0
ARC
  5
22A
330
1F
100
AcDbEntity
  8
LAY-10
  6
CONTINUOUS
 62
     7
100
AcDbCircle
 10
494.9999999999989
 20
546.000000000013
 30
0.0
 40
74.49999999996959
100
AcDbArc
 50
108.8695270057078
 51
131.1304729942916
  0
ARC
  5
22B
330
1F
100
AcDbEntity
  8
LAY-10
  6
CONTINUOUS
 62
     7
100
AcDbCircle
 10
494.9999999999989
 20
546.000000000013
 30
0.0
 40
69.49999999999841
100
AcDbArc
 50
109.638620967711
 51
130.3613790322896
  0
ARC
  5
22C
330
1F
100
AcDbEntity
  8
LAY-10
  6
CONTINUOUS
 62
     7
100
AcDbCircle
 10
494.9999999999989
 20
546.000000000013
 30
0.0
 40
68.49999999999858
100
AcDbArc
 50
108.8021565176462
 51
131.1978434823535
  0
LINE
  5
22D
330
1F
100
AcDbEntity
  8
LAY-10
  6
CONTINUOUS
 62
     7
100
AcDbLine
 10
429.5427369320287
 20
569.3580117229811
 30
0.0
 11
425.7754124389515
 21
570.7023577214097
 31
0.0
  0
LINE
  5
22E
330
1F
100
AcDbEntity
  8
LAY-10
  6
CONTINUOUS
 62
     7
100
AcDbLine
 10
442.0427369320288
 20
591.0086468175922
 30
0.0
 11
438.9948368993748
 21
593.5990725336818
 31
0.0
  0
LINE
  5
22F
330
1F
100
AcDbEntity
  8
LAY-10
  6
CONTINUOUS
 62
     7
100
AcDbLine
 10
438.8855824768175
 20
595.004307423234
 30
0.0
 11
443.4578805269697
 21
591.1182880906287
 31
0.0
  0
LINE
  5
230
330
1F
100
AcDbEntity
  8
LAY-10
  6
CONTINUOUS
 62
     7
100
AcDbLine
 10
424.5038161150367
 20
570.0943573820448
 30
0.0
 11
430.1553566017466
 21
568.0776407832418
 31
0.0
  0
LINE
  5
231
330
1F
100
AcDbEntity
  8
LAY-10
  6
CONTINUOUS
 62
     7
100
AcDbLine
 10
438.9948368993748
 20
593.5990725336818
 30
0.0
 11
438.8855824768175
 21
595.004307423234
 31
0.0
  0
LINE
  5
232
330
1F
100
AcDbEntity
  8
LAY-10
  6
CONTINUOUS
 62
     7
100
AcDbLine
 10
442.0427369320288
 20
591.0086468175922
 30
0.0
 11
443.4578805269697
 21
591.1182880906287
 31
0.0
  0
LINE
  5
233
330
1F
100
AcDbEntity
  8
LAY-10
  6
CONTINUOUS
 62
     7
100
AcDbLine
 10
429.5427369320287
 20
569.3580117229811
 30
0.0
 11
430.1553566017466
 21
568.0776407832418
 31
0.0
  0
ARC
  5
234
330
1F
100
AcDbEntity
  8
LAY-10
  6
CONTINUOUS
 62
     7
100
AcDbCircle
 10
494.9999999999989
 20
546.000000000013
 30
0.0
 40
73.49999999995217
100
AcDbArc
 50
139.638620967711
 51
160.3613790322893
  0
ARC
  5
235
330
1F
100
AcDbEntity
  8
LAY-10
  6
CONTINUOUS
 62
     7
100
AcDbCircle
 10
494.9999999999989
 20
546.000000000013
 30
0.0
 40
74.49999999996959
100
AcDbArc
 50
138.8695270057079
 51
161.130472994292
  0
ARC
  5
236
330
1F
100
AcDbEntity
  8
LAY-10
  6
CONTINUOUS
 62
     7
100
AcDbCircle
 10
494.9999999999989
 20
546.000000000013
 30
0.0
 40
69.49999999999841
100
AcDbArc
 50
139.6386209677108
 51
160.3613790322892
  0
ARC
  5
237
330
1F
100
AcDbEntity
  8
LAY-10
  6
CONTINUOUS
 62
     7
100
AcDbCircle
 10
494.9999999999989
 20
546.000000000013
 30
0.0
 40
68.49999999999858
100
AcDbArc
 50
138.8021565176463
 51
161.1978434823534
  0
LINE
  5
238
330
1F
100
AcDbEntity
  8
LAY-10
  6
CONTINUOUS
 62
     7
100
AcDbLine
 10
442.0427369320288
 20
500.991353182434
 30
0.0
 11
438.9948368993748
 21
498.4009274663442
 31
0.0
  0
LINE
  5
239
330
1F
100
AcDbEntity
  8
LAY-10
  6
CONTINUOUS
 62
     7
100
AcDbLine
 10
429.5427369320287
 20
522.6419882770449
 30
0.0
 11
425.7754124389515
 21
521.2976422786162
 31
0.0
  0
LINE
  5
23A
330
1F
100
AcDbEntity
  8
LAY-10
  6
CONTINUOUS
 62
     7
100
AcDbLine
 10
424.5038161150367
 20
521.9056426179817
 30
0.0
 11
430.1553566017462
 21
523.9223592167847
 31
0.0
  0
LINE
  5
23B
330
1F
100
AcDbEntity
  8
LAY-10
  6
CONTINUOUS
 62
     7
100
AcDbLine
 10
438.8855824768171
 20
496.9956925767925
 30
0.0
 11
443.4578805269692
 21
500.881711909398
 31
0.0
  0
LINE
  5
23C
330
1F
100
AcDbEntity
  8
LAY-10
  6
CONTINUOUS
 62
     7
100
AcDbLine
 10
429.5427369320287
 20
522.6419882770449
 30
0.0
 11
430.1553566017462
 21
523.9223592167847
 31
0.0
  0
LINE
  5
23D
330
1F
100
AcDbEntity
  8
LAY-10
  6
CONTINUOUS
 62
     7
100
AcDbLine
 10
442.0427369320288
 20
500.991353182434
 30
0.0
 11
443.4578805269692
 21
500.881711909398
 31
0.0
  0
LINE
  5
23E
330
1F
100
AcDbEntity
  8
LAY-10
  6
CONTINUOUS
 62
     7
100
AcDbLine
 10
438.9948368993748
 20
498.4009274663442
 30
0.0
 11
438.8855824768171
 21
496.9956925767925
 31
0.0
  0
ARC
  5
23F
330
1F
100
AcDbEntity
  8
LAY-10
  6
CONTINUOUS
 62
     7
100
AcDbCircle
 10
494.9999999999989
 20
546.000000000013
 30
0.0
 40
73.49999999995217
100
AcDbArc
 50
199.6386209677109
 51
220.3613790322891
  0
ARC
  5
240
330
1F
100
AcDbEntity
  8
LAY-10
  6
CONTINUOUS
 62
     7
100
AcDbCircle
 10
494.9999999999989
 20
546.000000000013
 30
0.0
 40
74.49999999996959
100
AcDbArc
 50
198.8695270057076
 51
221.1304729942918
  0
ARC
  5
241
330
1F
100
AcDbEntity
  8
LAY-10
  6
CONTINUOUS
 62
     7
100
AcDbCircle
 10
494.9999999999989
 20
546.000000000013
 30
0.0
 40
69.49999999999841
100
AcDbArc
 50
199.638620967711
 51
220.3613790322891
  0
ARC
  5
242
330
1F
100
AcDbEntity
  8
LAY-10
  6
CONTINUOUS
 62
     7
100
AcDbCircle
 10
494.9999999999989
 20
546.000000000013
 30
0.0
 40
68.49999999999858
100
AcDbArc
 50
198.8021565176462
 51
221.1978434823535
  0
LINE
  5
243
330
1F
100
AcDbEntity
  8
LAY-10
  6
CONTINUOUS
 62
     7
100
AcDbLine
 10
471.6419882770308
 20
480.5427369320428
 30
0.0
 11
470.2976422786022
 21
476.7754124389655
 31
0.0
  0
LINE
  5
244
330
1F
100
AcDbEntity
  8
LAY-10
  6
CONTINUOUS
 62
     7
100
AcDbLine
 10
449.9913531824197
 20
493.0427369320428
 30
0.0
 11
447.40092746633
 21
489.994836899389
 31
0.0
  0
LINE
  5
245
330
1F
100
AcDbEntity
  8
LAY-10
  6
CONTINUOUS
 62
     7
100
AcDbLine
 10
445.9956925767781
 20
489.8855824768317
 30
0.0
 11
449.8817119093836
 21
494.4578805269837
 31
0.0
  0
LINE
  5
246
330
1F
100
AcDbEntity
  8
LAY-10
  6
CONTINUOUS
 62
     7
100
AcDbLine
 10
470.9056426179671
 20
475.5038161150508
 30
0.0
 11
472.9223592167701
 21
481.1553566017606
 31
0.0
  0
LINE
  5
247
330
1F
100
AcDbEntity
  8
LAY-10
  6
CONTINUOUS
 62
     7
100
AcDbLine
 10
447.40092746633
 20
489.994836899389
 30
0.0
 11
445.9956925767781
 21
489.8855824768317
 31
0.0
  0
LINE
  5
248
330
1F
100
AcDbEntity
  8
LAY-10
  6
CONTINUOUS
 62
     7
100
AcDbLine
 10
449.9913531824197
 20
493.0427369320428
 30
0.0
 11
449.8817119093836
 21
494.4578805269836
 31
0.0
  0
LINE
  5
249
330
1F
100
AcDbEntity
  8
LAY-10
  6
CONTINUOUS
 62
     7
100
AcDbLine
 10
471.6419882770308
 20
480.5427369320428
 30
0.0
 11
472.9223592167701
 21
481.1553566017606
 31
0.0
  0
LINE
  5
24A
330
1F
100
AcDbEntity
  8
LAY-10
  6
CONTINUOUS
 62
     7
100
AcDbLine
 10
470.2976422786022
 20
476.7754124389657
 30
0.0
 11
470.9056426179671
 21
475.5038161150508
 31
0.0
  0
ARC
  5
24B
330
1F
100
AcDbEntity
  8
LAY-10
  6
CONTINUOUS
 62
     7
100
AcDbCircle
 10
494.9999999999989
 20
546.000000000013
 30
0.0
 40
73.49999999995217
100
AcDbArc
 50
229.6386209677109
 51
250.361379032289
  0
ARC
  5
24C
330
1F
100
AcDbEntity
  8
LAY-10
  6
CONTINUOUS
 62
     7
100
AcDbCircle
 10
494.9999999999989
 20
546.000000000013
 30
0.0
 40
74.49999999996959
100
AcDbArc
 50
228.8695270057081
 51
251.1304729942922
  0
ARC
  5
24D
330
1F
100
AcDbEntity
  8
LAY-10
  6
CONTINUOUS
 62
     7
100
AcDbCircle
 10
494.9999999999989
 20
546.000000000013
 30
0.0
 40
69.49999999999841
100
AcDbArc
 50
229.6386209677108
 51
250.3613790322895
  0
ARC
  5
24E
330
1F
100
AcDbEntity
  8
LAY-10
  6
CONTINUOUS
 62
     7
100
AcDbCircle
 10
494.9999999999989
 20
546.000000000013
 30
0.0
 40
68.49999999999858
100
AcDbArc
 50
228.8021565176464
 51
251.1978434823534
  0
LINE
  5
24F
330
1F
100
AcDbEntity
  8
LAY-10
  6
CONTINUOUS
 62
     7
100
AcDbLine
 10
507.499999999999
 20
477.6333414594658
 30
0.0
 11
508.2194244604223
 21
473.6985697449472
 31
0.0
  0
LINE
  5
250
330
1F
100
AcDbEntity
  8
LAY-10
  6
CONTINUOUS
 62
     7
100
AcDbLine
 10
482.4999999999989
 20
477.6333414594658
 30
0.0
 11
481.7805755395756
 21
473.6985697449472
 31
0.0
  0
LINE
  5
251
330
1F
100
AcDbEntity
  8
LAY-10
  6
CONTINUOUS
 62
     7
100
AcDbLine
 10
480.6182336382181
 20
472.9013351947609
 30
0.0
 11
481.6974760747758
 21
478.8040711261692
 31
0.0
  0
LINE
  5
252
330
1F
100
AcDbEntity
  8
LAY-10
  6
CONTINUOUS
 62
     7
100
AcDbLine
 10
509.3817663617792
 20
472.9013351947606
 30
0.0
 11
508.3025239252215
 21
478.8040711261692
 31
0.0
  0
LINE
  5
253
330
1F
100
AcDbEntity
  8
LAY-10
  6
CONTINUOUS
 62
     7
100
AcDbLine
 10
481.7805755395756
 20
473.6985697449474
 30
0.0
 11
480.6182336382181
 21
472.9013351947609
 31
0.0
  0
LINE
  5
254
330
1F
100
AcDbEntity
  8
LAY-10
  6
CONTINUOUS
 62
     7
100
AcDbLine
 10
482.4999999999989
 20
477.6333414594658
 30
0.0
 11
481.6974760747758
 21
478.8040711261692
 31
0.0
  0
LINE
  5
255
330
1F
100
AcDbEntity
  8
LAY-10
  6
CONTINUOUS
 62
     7
100
AcDbLine
 10
507.499999999999
 20
477.6333414594658
 30
0.0
 11
508.3025239252215
 21
478.8040711261692
 31
0.0
  0
LINE
  5
256
330
1F
100
AcDbEntity
  8
LAY-10
  6
CONTINUOUS
 62
     7
100
AcDbLine
 10
508.2194244604223
 20
473.6985697449472
 30
0.0
 11
509.3817663617792
 21
472.9013351947606
 31
0.0
  0
ARC
  5
257
330
1F
100
AcDbEntity
  8
LAY-10
  6
CONTINUOUS
 62
     7
100
AcDbCircle
 10
494.9999999999989
 20
546.000000000013
 30
0.0
 40
73.49999999995217
100
AcDbArc
 50
259.6386209677109
 51
280.3613790322894
  0
ARC
  5
258
330
1F
100
AcDbEntity
  8
LAY-10
  6
CONTINUOUS
 62
     7
100
AcDbCircle
 10
494.9999999999989
 20
546.000000000013
 30
0.0
 40
74.49999999996959
100
AcDbArc
 50
258.8695270057082
 51
281.1304729942917
  0
ARC
  5
259
330
1F
100
AcDbEntity
  8
LAY-10
  6
CONTINUOUS
 62
     7
100
AcDbCircle
 10
494.9999999999989
 20
546.000000000013
 30
0.0
 40
69.49999999999841
100
AcDbArc
 50
259.6386209677112
 51
280.3613790322896
  0
ARC
  5
25A
330
1F
100
AcDbEntity
  8
LAY-10
  6
CONTINUOUS
 62
     7
100
AcDbCircle
 10
494.9999999999989
 20
546.000000000013
 30
0.0
 40
68.49999999999858
100
AcDbArc
 50
258.8021565176466
 51
266.4009642938738
  0
LINE
  5
25B
330
1F
100
AcDbEntity
  8
LAY-10
  6
CONTINUOUS
 62
     7
100
AcDbLine
 10
540.0086468175781
 20
493.0427369320427
 30
0.0
 11
542.5990725336679
 21
489.994836899389
 31
0.0
  0
LINE
  5
25C
330
1F
100
AcDbEntity
  8
LAY-10
  6
CONTINUOUS
 62
     7
100
AcDbLine
 10
518.358011722967
 20
480.5427369320428
 30
0.0
 11
519.7023577213957
 21
476.7754124389655
 31
0.0
  0
LINE
  5
25D
330
1F
100
AcDbEntity
  8
LAY-10
  6
CONTINUOUS
 62
     7
100
AcDbLine
 10
519.0943573820304
 20
475.5038161150507
 30
0.0
 11
517.0776407832274
 21
481.1553566017604
 31
0.0
  0
LINE
  5
25E
330
1F
100
AcDbEntity
  8
LAY-10
  6
CONTINUOUS
 62
     7
100
AcDbLine
 10
544.0043074232195
 20
489.8855824768312
 30
0.0
 11
540.1182880906141
 21
494.4578805269832
 31
0.0
  0
LINE
  5
25F
330
1F
100
AcDbEntity
  8
LAY-10
  6
CONTINUOUS
 62
     7
100
AcDbLine
 10
519.7023577213957
 20
476.7754124389655
 30
0.0
 11
519.0943573820304
 21
475.5038161150507
 31
0.0
  0
LINE
  5
260
330
1F
100
AcDbEntity
  8
LAY-10
  6
CONTINUOUS
 62
     7
100
AcDbLine
 10
518.358011722967
 20
480.5427369320428
 30
0.0
 11
517.0776407832274
 21
481.1553566017604
 31
0.0
  0
LINE
  5
261
330
1F
100
AcDbEntity
  8
LAY-10
  6
CONTINUOUS
 62
     7
100
AcDbLine
 10
540.0086468175781
 20
493.0427369320427
 30
0.0
 11
540.1182880906141
 21
494.4578805269832
 31
0.0
  0
LINE
  5
262
330
1F
100
AcDbEntity
  8
LAY-10
  6
CONTINUOUS
 62
     7
100
AcDbLine
 10
542.5990725336679
 20
489.994836899389
 30
0.0
 11
544.0043074232195
 21
489.8855824768312
 31
0.0
  0
ARC
  5
263
330
1F
100
AcDbEntity
  8
LAY-10
  6
CONTINUOUS
 62
     7
100
AcDbCircle
 10
494.9999999999989
 20
546.000000000013
 30
0.0
 40
73.49999999995217
100
AcDbArc
 50
289.6386209677109
 51
310.36137903229
  0
ARC
  5
264
330
1F
100
AcDbEntity
  8
LAY-10
  6
CONTINUOUS
 62
     7
100
AcDbCircle
 10
494.9999999999989
 20
546.000000000013
 30
0.0
 40
74.49999999996959
100
AcDbArc
 50
288.8695270057082
 51
311.1304729942923
  0
ARC
  5
265
330
1F
100
AcDbEntity
  8
LAY-10
  6
CONTINUOUS
 62
     7
100
AcDbCircle
 10
494.9999999999989
 20
546.000000000013
 30
0.0
 40
69.49999999999841
100
AcDbArc
 50
289.6386209677109
 51
310.3613790322897
  0
ARC
  5
266
330
1F
100
AcDbEntity
  8
LAY-10
  6
CONTINUOUS
 62
     7
100
AcDbCircle
 10
494.9999999999989
 20
546.000000000013
 30
0.0
 40
68.49999999999858
100
AcDbArc
 50
288.8021565176469
 51
311.1978434823536
  0
LINE
  5
267
330
1F
100
AcDbEntity
  8
LAY-10
  6
CONTINUOUS
 62
     7
100
AcDbLine
 10
560.4572630679692
 20
522.6419882770449
 30
0.0
 11
564.2245875610464
 21
521.297642278616
 31
0.0
  0
LINE
  5
268
330
1F
100
AcDbEntity
  8
LAY-10
  6
CONTINUOUS
 62
     7
100
AcDbLine
 10
547.957263067969
 20
500.991353182434
 30
0.0
 11
551.005163100623
 21
498.400927466344
 31
0.0
  0
LINE
  5
269
330
1F
100
AcDbEntity
  8
LAY-10
  6
CONTINUOUS
 62
     7
100
AcDbLine
 10
551.1144175231804
 20
496.9956925767922
 30
0.0
 11
546.5421194730282
 21
500.8817119093975
 31
0.0
  0
LINE
  5
26A
330
1F
100
AcDbEntity
  8
LAY-10
  6
CONTINUOUS
 62
     7
100
AcDbLine
 10
565.4961838849612
 20
521.905642617981
 30
0.0
 11
559.8446433982513
 21
523.9223592167841
 31
0.0
  0
LINE
  5
26B
330
1F
100
AcDbEntity
  8
LAY-10
  6
CONTINUOUS
 62
     7
100
AcDbLine
 10
551.005163100623
 20
498.400927466344
 30
0.0
 11
551.1144175231804
 21
496.9956925767922
 31
0.0
  0
LINE
  5
26C
330
1F
100
AcDbEntity
  8
LAY-10
  6
CONTINUOUS
 62
     7
100
AcDbLine
 10
547.957263067969
 20
500.991353182434
 30
0.0
 11
546.5421194730282
 21
500.8817119093975
 31
0.0
  0
LINE
  5
26D
330
1F
100
AcDbEntity
  8
LAY-10
  6
CONTINUOUS
 62
     7
100
AcDbLine
 10
560.4572630679692
 20
522.6419882770449
 30
0.0
 11
559.8446433982513
 21
523.9223592167841
 31
0.0
  0
LINE
  5
26E
330
1F
100
AcDbEntity
  8
LAY-10
  6
CONTINUOUS
 62
     7
100
AcDbLine
 10
564.2245875610464
 20
521.2976422786162
 30
0.0
 11
565.4961838849612
 21
521.905642617981
 31
0.0
  0
ARC
  5
26F
330
1F
100
AcDbEntity
  8
LAY-10
  6
CONTINUOUS
 62
     7
100
AcDbCircle
 10
494.9999999999989
 20
546.000000000013
 30
0.0
 40
73.49999999995217
100
AcDbArc
 50
319.6386209677111
 51
340.3613790322897
  0
ARC
  5
270
330
1F
100
AcDbEntity
  8
LAY-10
  6
CONTINUOUS
 62
     7
100
AcDbCircle
 10
494.9999999999989
 20
546.000000000013
 30
0.0
 40
74.49999999996959
100
AcDbArc
 50
318.8695270057082
 51
341.1304729942918
  0
ARC
  5
271
330
1F
100
AcDbEntity
  8
LAY-10
  6
CONTINUOUS
 62
     7
100
AcDbCircle
 10
494.9999999999989
 20
546.000000000013
 30
0.0
 40
69.49999999999841
100
AcDbArc
 50
319.6386209677111
 51
340.3613790322896
  0
ARC
  5
272
330
1F
100
AcDbEntity
  8
LAY-10
  6
CONTINUOUS
 62
     7
100
AcDbCircle
 10
494.9999999999989
 20
546.000000000013
 30
0.0
 40
68.49999999999858
100
AcDbArc
 50
318.8021565176464
 51
341.197843482354
  0
LINE
  5
273
330
1F
100
AcDbEntity
  8
LAY-10
  6
CONTINUOUS
 62
     7
100
AcDbLine
 10
563.366658540546
 20
558.5000000000131
 30
0.0
 11
567.3014302550647
 21
559.2194244604364
 31
0.0
  0
LINE
  5
274
330
1F
100
AcDbEntity
  8
LAY-10
  6
CONTINUOUS
 62
     7
100
AcDbLine
 10
563.366658540546
 20
533.500000000013
 30
0.0
 11
567.3014302550647
 21
532.7805755395896
 31
0.0
  0
LINE
  5
275
330
1F
100
AcDbEntity
  8
LAY-10
  6
CONTINUOUS
 62
     7
100
AcDbLine
 10
568.0986648052511
 20
531.6182336382319
 30
0.0
 11
562.1959288738427
 21
532.6974760747896
 31
0.0
  0
LINE
  5
276
330
1F
100
AcDbEntity
  8
LAY-10
  6
CONTINUOUS
 62
     7
100
AcDbLine
 10
568.0986648052514
 20
560.3817663617933
 30
0.0
 11
562.1959288738428
 21
559.3025239252356
 31
0.0
  0
LINE
  5
277
330
1F
100
AcDbEntity
  8
LAY-10
  6
CONTINUOUS
 62
     7
100
AcDbLine
 10
567.3014302550647
 20
532.7805755395896
 30
0.0
 11
568.0986648052511
 21
531.6182336382319
 31
0.0
  0
LINE
  5
278
330
1F
100
AcDbEntity
  8
LAY-10
  6
CONTINUOUS
 62
     7
100
AcDbLine
 10
563.366658540546
 20
533.500000000013
 30
0.0
 11
562.1959288738427
 21
532.6974760747896
 31
0.0
  0
LINE
  5
279
330
1F
100
AcDbEntity
  8
LAY-10
  6
CONTINUOUS
 62
     7
100
AcDbLine
 10
563.366658540546
 20
558.5000000000131
 30
0.0
 11
562.1959288738428
 21
559.3025239252356
 31
0.0
  0
LINE
  5
27A
330
1F
100
AcDbEntity
  8
LAY-10
  6
CONTINUOUS
 62
     7
100
AcDbLine
 10
567.3014302550647
 20
559.2194244604364
 30
0.0
 11
568.0986648052514
 21
560.3817663617933
 31
0.0
  0
ARC
  5
27B
330
1F
100
AcDbEntity
  8
LAY-10
  6
CONTINUOUS
 62
     7
100
AcDbCircle
 10
494.9999999999989
 20
546.000000000013
 30
0.0
 40
73.49999999995217
100
AcDbArc
 50
349.6386209677111
 51
10.36137903228895
  0
ARC
  5
27C
330
1F
100
AcDbEntity
  8
LAY-10
  6
CONTINUOUS
 62
     7
100
AcDbCircle
 10
494.9999999999989
 20
546.000000000013
 30
0.0
 40
74.49999999996959
100
AcDbArc
 50
348.8695270057081
 51
11.13047299429175
  0
ARC
  5
27D
330
1F
100
AcDbEntity
  8
LAY-10
  6
CONTINUOUS
 62
     7
100
AcDbCircle
 10
494.9999999999989
 20
546.000000000013
 30
0.0
 40
69.49999999999841
100
AcDbArc
 50
349.6386209677116
 51
10.36137903228929
  0
ARC
  5
27E
330
1F
100
AcDbEntity
  8
LAY-10
  6
CONTINUOUS
 62
     7
100
AcDbCircle
 10
494.9999999999989
 20
546.000000000013
 30
0.0
 40
68.49999999999858
100
AcDbArc
 50
348.8021565176462
 51
354.7230038887233
  0
LINE
  5
27F
330
1F
100
AcDbEntity
  8
LAY-10
  6
CONTINUOUS
 62
     7
100
AcDbLine
 10
547.957263067969
 20
591.0086468175922
 30
0.0
 11
551.005163100623
 21
593.5990725336818
 31
0.0
  0
LINE
  5
280
330
1F
100
AcDbEntity
  8
LAY-10
  6
CONTINUOUS
 62
     7
100
AcDbLine
 10
560.4572630679692
 20
569.3580117229811
 30
0.0
 11
564.2245875610464
 21
570.7023577214097
 31
0.0
  0
LINE
  5
281
330
1F
100
AcDbEntity
  8
LAY-10
  6
CONTINUOUS
 62
     7
100
AcDbLine
 10
565.4961838849614
 20
570.0943573820442
 30
0.0
 11
559.8446433982516
 21
568.0776407832412
 31
0.0
  0
LINE
  5
282
330
1F
100
AcDbEntity
  8
LAY-10
  6
CONTINUOUS
 62
     7
100
AcDbLine
 10
551.1144175231807
 20
595.0043074232336
 30
0.0
 11
546.5421194730287
 21
591.118288090628
 31
0.0
  0
LINE
  5
283
330
1F
100
AcDbEntity
  8
LAY-10
  6
CONTINUOUS
 62
     7
100
AcDbLine
 10
564.2245875610464
 20
570.7023577214097
 30
0.0
 11
565.4961838849614
 21
570.0943573820442
 31
0.0
  0
LINE
  5
284
330
1F
100
AcDbEntity
  8
LAY-10
  6
CONTINUOUS
 62
     7
100
AcDbLine
 10
560.4572630679692
 20
569.3580117229811
 30
0.0
 11
559.8446433982516
 21
568.0776407832412
 31
0.0
  0
LINE
  5
285
330
1F
100
AcDbEntity
  8
LAY-10
  6
CONTINUOUS
 62
     7
100
AcDbLine
 10
547.957263067969
 20
591.0086468175922
 30
0.0
 11
546.5421194730287
 21
591.118288090628
 31
0.0
  0
LINE
  5
286
330
1F
100
AcDbEntity
  8
LAY-10
  6
CONTINUOUS
 62
     7
100
AcDbLine
 10
551.005163100623
 20
593.5990725336818
 30
0.0
 11
551.1144175231807
 21
595.0043074232336
 31
0.0
  0
ARC
  5
287
330
1F
100
AcDbEntity
  8
LAY-10
  6
CONTINUOUS
 62
     7
100
AcDbCircle
 10
494.9999999999989
 20
546.000000000013
 30
0.0
 40
73.49999999995217
100
AcDbArc
 50
19.63862096771066
 51
40.36137903228914
  0
ARC
  5
288
330
1F
100
AcDbEntity
  8
LAY-10
  6
CONTINUOUS
 62
     7
100
AcDbCircle
 10
494.9999999999989
 20
546.000000000013
 30
0.0
 40
74.49999999996959
100
AcDbArc
 50
18.86952700570769
 51
41.13047299429152
  0
ARC
  5
289
330
1F
100
AcDbEntity
  8
LAY-10
  6
CONTINUOUS
 62
     7
100
AcDbCircle
 10
494.9999999999989
 20
546.000000000013
 30
0.0
 40
69.49999999999841
100
AcDbArc
 50
19.63862096771066
 51
40.36137903228908
  0
ARC
  5
28A
330
1F
100
AcDbEntity
  8
LAY-10
  6
CONTINUOUS
 62
     7
100
AcDbCircle
 10
494.9999999999989
 20
546.000000000013
 30
0.0
 40
68.49999999999858
100
AcDbArc
 50
18.80215651764623
 51
41.19784348235368
  0
LINE
  5
28B
330
1F
100
AcDbEntity
  8
LAY-10
  6
CONTINUOUS
 62
     7
100
AcDbLine
 10
518.358011722967
 20
611.4572630679835
 30
0.0
 11
519.7023577213957
 21
615.2245875610606
 31
0.0
  0
LINE
  5
28C
330
1F
100
AcDbEntity
  8
LAY-10
  6
CONTINUOUS
 62
     7
100
AcDbLine
 10
540.0086468175781
 20
598.9572630679835
 30
0.0
 11
542.5990725336679
 21
602.0051631006372
 31
0.0
  0
LINE
  5
28D
330
1F
100
AcDbEntity
  8
LAY-10
  6
CONTINUOUS
 62
     7
100
AcDbLine
 10
544.0043074232199
 20
602.1144175231946
 30
0.0
 11
540.1182880906146
 21
597.5421194730426
 31
0.0
  0
LINE
  5
28E
330
1F
100
AcDbEntity
  8
LAY-10
  6
CONTINUOUS
 62
     7
100
AcDbLine
 10
519.0943573820307
 20
616.4961838849754
 30
0.0
 11
517.0776407832277
 21
610.8446433982655
 31
0.0
  0
LINE
  5
28F
330
1F
100
AcDbEntity
  8
LAY-10
  6
CONTINUOUS
 62
     7
100
AcDbLine
 10
542.5990725336679
 20
602.0051631006372
 30
0.0
 11
544.0043074232199
 21
602.1144175231946
 31
0.0
  0
LINE
  5
290
330
1F
100
AcDbEntity
  8
LAY-10
  6
CONTINUOUS
 62
     7
100
AcDbLine
 10
540.0086468175781
 20
598.9572630679835
 30
0.0
 11
540.1182880906146
 21
597.5421194730426
 31
0.0
  0
LINE
  5
291
330
1F
100
AcDbEntity
  8
LAY-10
  6
CONTINUOUS
 62
     7
100
AcDbLine
 10
518.358011722967
 20
611.4572630679835
 30
0.0
 11
517.0776407832277
 21
610.8446433982655
 31
0.0
  0
LINE
  5
292
330
1F
100
AcDbEntity
  8
LAY-10
  6
CONTINUOUS
 62
     7
100
AcDbLine
 10
519.7023577213957
 20
615.2245875610604
 30
0.0
 11
519.0943573820307
 21
616.4961838849754
 31
0.0
  0
ARC
  5
293
330
1F
100
AcDbEntity
  8
LAY-10
  6
CONTINUOUS
 62
     7
100
AcDbCircle
 10
494.9999999999989
 20
546.000000000013
 30
0.0
 40
73.49999999995217
100
AcDbArc
 50
49.63862096771067
 51
70.36137903228914
  0
ARC
  5
294
330
1F
100
AcDbEntity
  8
LAY-10
  6
CONTINUOUS
 62
     7
100
AcDbCircle
 10
494.9999999999989
 20
546.000000000013
 30
0.0
 40
74.49999999996959
100
AcDbArc
 50
48.86952700570799
 51
71.13047299429194
  0
ARC
  5
295
330
1F
100
AcDbEntity
  8
LAY-10
  6
CONTINUOUS
 62
     7
100
AcDbCircle
 10
494.9999999999989
 20
546.000000000013
 30
0.0
 40
69.49999999999841
100
AcDbArc
 50
49.63862096771078
 51
70.36137903228936
  0
ARC
  5
296
330
1F
100
AcDbEntity
  8
LAY-10
  6
CONTINUOUS
 62
     7
100
AcDbCircle
 10
494.9999999999989
 20
546.000000000013
 30
0.0
 40
68.49999999999858
100
AcDbArc
 50
48.80215651764618
 51
71.19784348235346
  0
LINE
  5
297
330
1F
100
AcDbEntity
  8
LAY-10
  6
CONTINUOUS
 62
     7
100
AcDbLine
 10
563.4289583643388
 20
552.000000000013
 30
0.0
 11
563.2096767328483
 21
552.3000000000129
 31
0.0
  0
LINE
  5
298
330
1F
100
AcDbEntity
  8
LAY-10
  6
CONTINUOUS
 62
     7
100
AcDbLine
 10
563.2096767328483
 20
539.7000000000131
 30
0.0
 11
563.4289583643388
 21
540.000000000013
 31
0.0
  0
ARC
  5
299
330
1F
100
AcDbEntity
  8
LAY-10
  6
CONTINUOUS
 62
     7
100
AcDbCircle
 10
494.9999999999989
 20
546.000000000013
 30
0.0
 40
68.49999999999858
100
AcDbArc
 50
5.276996111277246
 51
11.19784348235326
  0
ARC
  5
29A
330
1F
100
AcDbEntity
  8
LAY-10
  6
CONTINUOUS
 62
     7
100
AcDbCircle
 10
494.9999999999991
 20
546.0000000000128
 30
0.0
 40
68.69150124162775
100
AcDbArc
 50
86.66169999953173
 51
93.33830000046868
  0
ARC
  5
29B
330
1F
100
AcDbEntity
  8
LAY-10
  6
CONTINUOUS
 62
     7
100
AcDbCircle
 10
494.9999999999989
 20
546.000000000013
 30
0.0
 40
68.49999999999858
100
AcDbArc
 50
93.59903570612691
 51
101.1978434823532
  0
LINE
  5
29C
330
1F
100
AcDbEntity
  8
LAY-10
  6
CONTINUOUS
 62
     7
100
AcDbLine
 10
490.6999999999991
 20
614.3649032764737
 30
0.0
 11
490.999999999999
 21
614.5749396122982
 31
0.0
  0
LINE
  5
29D
330
1F
100
AcDbEntity
  8
LAY-10
  6
CONTINUOUS
 62
     7
100
AcDbLine
 10
499.2999999999991
 20
614.3649032764737
 30
0.0
 11
498.9999999999992
 21
614.5749396122982
 31
0.0
  0
ARC
  5
29E
330
1F
100
AcDbEntity
  8
LAY-10
  6
CONTINUOUS
 62
     7
100
AcDbCircle
 10
494.9999999999989
 20
546.000000000013
 30
0.0
 40
68.49999999999858
100
AcDbArc
 50
273.599035706127
 51
281.1978434823536
  0
ARC
  5
29F
330
1F
100
AcDbEntity
  8
LAY-10
  6
CONTINUOUS
 62
     7
100
AcDbCircle
 10
494.9999999999991
 20
546.0000000000132
 30
0.0
 40
68.69150124162775
100
AcDbArc
 50
266.6616999995317
 51
273.3383000004683
  0
LINE
  5
2A0
330
1F
100
AcDbEntity
  8
LAY-10
  6
CONTINUOUS
 62
     7
100
AcDbLine
 10
490.6999999999991
 20
477.6350967235524
 30
0.0
 11
490.999999999999
 21
477.425060387728
 31
0.0
  0
LINE
  5
2A1
330
1F
100
AcDbEntity
  8
LAY-10
  6
CONTINUOUS
 62
     7
100
AcDbLine
 10
499.2999999999991
 20
477.6350967235524
 30
0.0
 11
498.9999999999992
 21
477.425060387728
 31
0.0
  0
LINE
  5
2A2
330
1F
100
AcDbEntity
  8
LAY-10
  6
CONTINUOUS
 62
     7
100
AcDbLine
 10
562.9633927678577
 20
549.4429664198126
 30
0.0
 11
554.0366072321644
 21
544.289084387792
 31
0.0
  0
LINE
  5
2A3
330
1F
100
AcDbEntity
  8
LAY-10
  6
CONTINUOUS
 62
     7
100
AcDbLine
 10
563.9633927678553
 20
547.7109156122107
 30
0.0
 11
555.0366072321915
 21
542.557033580207
 31
0.0
  0
CIRCLE
  5
2A4
330
1F
100
AcDbEntity
  8
LAY-10
  6
CONTINUOUS
 62
     7
100
AcDbCircle
 10
558.9999999999952
 20
546.0000000000429
 30
0.0
 40
5.250000000000004
  0
LINE
  5
2A5
330
1F
100
AcDbEntity
  8
LAY-10
  6
CONTINUOUS
 62
     7
100
AcDbLine
 10
434.9633927678577
 20
549.4429664198126
 30
0.0
 11
426.0366072321644
 21
544.289084387792
 31
0.0
  0
LINE
  5
2A6
330
1F
100
AcDbEntity
  8
LAY-10
  6
CONTINUOUS
 62
     7
100
AcDbLine
 10
435.9633927678553
 20
547.7109156122107
 30
0.0
 11
427.0366072321915
 21
542.557033580207
 31
0.0
  0
CIRCLE
  5
2A7
330
1F
100
AcDbEntity
  8
LAY-10
  6
CONTINUOUS
 62
     7
100
AcDbCircle
 10
430.9999999999952
 20
546.0000000000429
 30
0.0
 40
5.250000000000004
  0
ARC
  5
2A8
330
1F
100
AcDbEntity
  8
LAY-10
  6
CONTINUOUS
 62
     7
100
AcDbCircle
 10
494.9999999999989
 20
546.000000000013
 30
0.0
 40
68.69150124162775
100
AcDbArc
 50
2.036296851392168
 51
5.0110030656834
  0
ARC
  5
2A9
330
1F
100
AcDbEntity
  8
LAY-10
  6
CONTINUOUS
 62
     7
100
AcDbCircle
 10
494.9999999999989
 20
546.000000000013
 30
0.0
 40
68.69150124162775
100
AcDbArc
 50
354.988996934317
 51
357.9637031486578
  0
ARC
  5
2AA
330
1F
100
AcDbEntity
  8
LAY-10
  6
CONTINUOUS
 62
     7
100
AcDbCircle
 10
494.9999999999989
 20
546.000000000013
 30
0.0
 40
68.69150124162775
100
AcDbArc
 50
174.9889969343165
 51
177.9637031485956
  0
ARC
  5
2AB
330
1F
100
AcDbEntity
  8
LAY-10
  6
CONTINUOUS
 62
     7
100
AcDbCircle
 10
494.9999999999989
 20
546.000000000013
 30
0.0
 40
68.69150124162775
100
AcDbArc
 50
182.0362968513548
 51
185.0110030656834
  0
ARC
  5
2AC
330
1F
100
AcDbEntity
  8
LAY-10
  6
CONTINUOUS
 62
     7
100
AcDbCircle
 10
494.9999999999913
 20
546.0000000000135
 30
0.0
 40
64.2
100
AcDbArc
 50
183.5555081597419
 51
183.5721441938086
  0
LINE
  5
2AD
330
1F
100
AcDbEntity
  8
LAY-10
  6
CONTINUOUS
 62
     7
100
AcDbLine
 10
443.3006937248585
 20
549.250000000013
 30
0.0
 11
452.4328020375527
 21
549.250000000013
 31
0.0
  0
LINE
  5
2AE
330
1F
100
AcDbEntity
  8
LAY-10
  6
CONTINUOUS
 62
     7
100
AcDbLine
 10
443.3006937248596
 20
542.7500000000128
 30
0.0
 11
452.4328020375543
 21
542.7500000000128
 31
0.0
  0
ARC
  5
2AF
330
1F
100
AcDbEntity
  8
LAY-10
  6
CONTINUOUS
 62
     7
100
AcDbCircle
 10
494.9999999999913
 20
546.0000000000222
 30
0.0
 40
42.69108621683648
100
AcDbArc
 50
184.3660547390166
 51
195.6339452610069
  0
LINE
  5
2B0
330
1F
100
AcDbEntity
  8
LAY-10
  6
CONTINUOUS
 62
     7
100
AcDbLine
 10
445.30697792769
 20
531.3717968755094
 30
0.0
 11
453.8883527213463
 21
534.4951618694827
 31
0.0
  0
LINE
  5
2B1
330
1F
100
AcDbEntity
  8
LAY-10
  6
CONTINUOUS
 62
     7
100
AcDbLine
 10
447.5301088593077
 20
525.2637948404013
 30
0.0
 11
456.1114836529645
 21
528.3871598343746
 31
0.0
  0
LINE
  5
2B2
330
1F
100
AcDbEntity
  8
LAY-10
  6
CONTINUOUS
 62
     7
100
AcDbLine
 10
453.306973983338
 20
515.2579709371062
 30
0.0
 11
460.3025748102381
 21
521.1279770108216
 31
0.0
  0
LINE
  5
2B3
330
1F
100
AcDbEntity
  8
LAY-10
  6
CONTINUOUS
 62
     7
100
AcDbLine
 10
457.4850934463013
 20
510.2786820568336
 30
0.0
 11
464.4806942732018
 21
516.1486881305491
 31
0.0
  0
LINE
  5
2B4
330
1F
100
AcDbEntity
  8
LAY-10
  6
CONTINUOUS
 62
     7
100
AcDbLine
 10
466.3357643001243
 20
502.8520874077178
 30
0.0
 11
470.9018184564715
 21
510.760725196622
 31
0.0
  0
LINE
  5
2B5
330
1F
100
AcDbEntity
  8
LAY-10
  6
CONTINUOUS
 62
     7
100
AcDbLine
 10
489.2231348759577
 20
597.4782342225317
 30
0.0
 11
490.8089088427141
 21
588.4848631548431
 31
0.0
  0
LINE
  5
2B6
330
1F
100
AcDbEntity
  8
LAY-10
  6
CONTINUOUS
 62
     7
100
AcDbLine
 10
482.8218844813784
 20
596.3495210676955
 30
0.0
 11
484.4076584481349
 21
587.3561500000066
 31
0.0
  0
LINE
  5
2B7
330
1F
100
AcDbEntity
  8
LAY-10
  6
CONTINUOUS
 62
     7
100
AcDbLine
 10
471.9649294247233
 20
592.3979125923083
 30
0.0
 11
476.5309835810702
 21
584.489274803404
 31
0.0
  0
LINE
  5
2B8
330
1F
100
AcDbEntity
  8
LAY-10
  6
CONTINUOUS
 62
     7
100
AcDbLine
 10
466.3357643001248
 20
589.1479125923072
 30
0.0
 11
470.9018184564722
 21
581.2392748034026
 31
0.0
  0
LINE
  5
2B9
330
1F
100
AcDbEntity
  8
LAY-10
  6
CONTINUOUS
 62
     7
100
AcDbLine
 10
457.4850934463005
 20
581.7213179431932
 30
0.0
 11
464.4806942732006
 21
575.8513118694777
 31
0.0
  0
LINE
  5
2BA
330
1F
100
AcDbEntity
  8
LAY-10
  6
CONTINUOUS
 62
     7
100
AcDbLine
 10
453.3069739833387
 20
576.7420290629188
 30
0.0
 11
460.302574810239
 21
570.8720229892033
 31
0.0
  0
LINE
  5
2BB
330
1F
100
AcDbEntity
  8
LAY-10
  6
CONTINUOUS
 62
     7
100
AcDbLine
 10
447.5301088593068
 20
566.736205159625
 30
0.0
 11
456.1114836529632
 21
563.6128401656517
 31
0.0
  0
LINE
  5
2BC
330
1F
100
AcDbEntity
  8
LAY-10
  6
CONTINUOUS
 62
     7
100
AcDbLine
 10
445.3069779276909
 20
560.6282031245162
 30
0.0
 11
453.8883527213476
 21
557.5048381305428
 31
0.0
  0
LINE
  5
2BD
330
1F
100
AcDbEntity
  8
LAY-10
  6
CONTINUOUS
 62
     7
100
AcDbLine
 10
500.7768651240318
 20
597.4782342225416
 30
0.0
 11
499.1910911572743
 21
588.4848631548468
 31
0.0
  0
LINE
  5
2BE
330
1F
100
AcDbEntity
  8
LAY-10
  6
CONTINUOUS
 62
     7
100
AcDbLine
 10
489.9290744716195
 20
576.0000000000224
 30
0.0
 11
492.6335680867506
 21
560.0000000000128
 31
0.0
  0
LINE
  5
2BF
330
1F
100
AcDbEntity
  8
LAY-10
  6
CONTINUOUS
 62
     7
100
AcDbLine
 10
500.0709255283624
 20
576.0000000000218
 30
0.0
 11
497.3664319132296
 21
560.0000000000127
 31
0.0
  0
ARC
  5
2C0
330
1F
100
AcDbEntity
  8
LAY-10
  6
CONTINUOUS
 62
     7
100
AcDbCircle
 10
494.999999999991
 20
576.8571428571647
 30
0.0
 40
5.142857142857444
100
AcDbArc
 50
350.40593177314
 51
189.5940682268539
  0
ARC
  5
2C1
330
1F
100
AcDbEntity
  8
LAY-10
  6
CONTINUOUS
 62
     7
100
AcDbCircle
 10
494.9999999999901
 20
560.4000000000125
 30
0.0
 40
2.399999999999608
100
AcDbArc
 50
189.5940682268533
 51
350.4059317731441
  0
ARC
  5
2C2
330
1F
100
AcDbEntity
  8
LAY-10
  6
CONTINUOUS
 62
     7
100
AcDbCircle
 10
476.8626265006806
 20
570.9639529693059
 30
0.0
 40
5.142857142857444
100
AcDbArc
 50
26.4059317731386
 51
225.5940682268542
  0
ARC
  5
2C3
330
1F
100
AcDbEntity
  8
LAY-10
  6
CONTINUOUS
 62
     7
100
AcDbCircle
 10
486.5358923669843
 20
557.6498447190129
 30
0.0
 40
2.399999999999608
100
AcDbArc
 50
225.5940682268537
 51
26.40593177314141
  0
LINE
  5
2C4
330
1F
100
AcDbEntity
  8
LAY-10
  6
CONTINUOUS
 62
     7
100
AcDbLine
 10
481.4689073608793
 20
573.2511250723202
 30
0.0
 11
488.6854901017432
 21
558.7171917004194
 31
0.0
  0
LINE
  5
2C5
330
1F
100
AcDbEntity
  8
LAY-10
  6
CONTINUOUS
 62
     7
100
AcDbLine
 10
473.2639775015545
 20
567.2898945902205
 30
0.0
 11
484.8565228340591
 21
555.9352841421068
 31
0.0
  0
ARC
  5
2C6
330
1F
100
AcDbEntity
  8
LAY-10
  6
CONTINUOUS
 62
     7
100
AcDbCircle
 10
465.6531132114552
 20
555.5353815407343
 30
0.0
 40
5.142857142857444
100
AcDbArc
 50
62.40593177313903
 51
261.5940682268555
  0
ARC
  5
2C7
330
1F
100
AcDbEntity
  8
LAY-10
  6
CONTINUOUS
 62
     7
100
AcDbCircle
 10
481.3047861653499
 20
550.4498447190173
 30
0.0
 40
2.399999999999608
100
AcDbArc
 50
261.5940682268536
 51
62.40593177313492
  0
LINE
  5
2C8
330
1F
100
AcDbEntity
  8
LAY-10
  6
CONTINUOUS
 62
     7
100
AcDbLine
 10
468.0353066766135
 20
560.0932465986753
 30
0.0
 11
482.4164764490901
 21
552.5768484127226
 31
0.0
  0
LINE
  5
2C9
330
1F
100
AcDbEntity
  8
LAY-10
  6
CONTINUOUS
 62
     7
100
AcDbLine
 10
464.9013023456598
 20
550.4477730638652
 30
0.0
 11
480.9539410946454
 21
548.0756274298121
 31
0.0
  0
ARC
  5
2CA
330
1F
100
AcDbEntity
  8
LAY-10
  6
CONTINUOUS
 62
     7
100
AcDbCircle
 10
465.6531132114555
 20
536.4646184593092
 30
0.0
 40
5.142857142857444
100
AcDbArc
 50
98.40593177314119
 51
297.5940682268533
  0
LINE
  5
2CB
330
1F
100
AcDbEntity
  8
LAY-10
  6
CONTINUOUS
 62
     7
100
AcDbLine
 10
464.9013023456606
 20
541.5522269361785
 30
0.0
 11
480.9539410946463
 21
543.9243725702299
 31
0.0
  0
ARC
  5
2CC
330
1F
100
AcDbEntity
  8
LAY-10
  6
CONTINUOUS
 62
     7
100
AcDbCircle
 10
476.8626265006812
 20
521.036047030738
 30
0.0
 40
5.142857142857444
100
AcDbArc
 50
134.4059317731406
 51
333.5940682268546
  0
ARC
  5
2CD
330
1F
100
AcDbEntity
  8
LAY-10
  6
CONTINUOUS
 62
     7
100
AcDbCircle
 10
486.5358923669862
 20
534.35015528103
 30
0.0
 40
2.399999999999608
100
AcDbArc
 50
333.5940682268556
 51
134.4059317731416
  0
LINE
  5
2CE
330
1F
100
AcDbEntity
  8
LAY-10
  6
CONTINUOUS
 62
     7
100
AcDbLine
 10
473.2639775015552
 20
524.7101054098239
 30
0.0
 11
484.8565228340612
 21
536.0647158579362
 31
0.0
  0
LINE
  5
2CF
330
1F
100
AcDbEntity
  8
LAY-10
  6
CONTINUOUS
 62
     7
100
AcDbLine
 10
481.4689073608794
 20
518.7488749277231
 30
0.0
 11
488.6854901017451
 21
533.2828082996231
 31
0.0
  0
ARC
  5
2D0
330
1F
100
AcDbEntity
  8
LAY-10
  6
CONTINUOUS
 62
     7
100
AcDbCircle
 10
494.9999999999913
 20
546.0000000000222
 30
0.0
 40
42.69108621683648
100
AcDbArc
 50
204.3660547390147
 51
215.6339452610037
  0
ARC
  5
2D1
330
1F
100
AcDbEntity
  8
LAY-10
  6
CONTINUOUS
 62
     7
100
AcDbCircle
 10
494.9999999999913
 20
546.0000000000222
 30
0.0
 40
42.69108621683648
100
AcDbArc
 50
224.3660547390118
 51
235.6339452609994
  0
ARC
  5
2D2
330
1F
100
AcDbEntity
  8
LAY-10
  6
CONTINUOUS
 62
     7
100
AcDbCircle
 10
494.9999999999913
 20
546.0000000000222
 30
0.0
 40
42.69108621683648
100
AcDbArc
 50
164.3660547390167
 51
175.6339452610089
  0
ARC
  5
2D3
330
1F
100
AcDbEntity
  8
LAY-10
  6
CONTINUOUS
 62
     7
100
AcDbCircle
 10
494.9999999999913
 20
546.0000000000222
 30
0.0
 40
42.69108621683648
100
AcDbArc
 50
144.366054739016
 51
155.6339452610087
  0
ARC
  5
2D4
330
1F
100
AcDbEntity
  8
LAY-10
  6
CONTINUOUS
 62
     7
100
AcDbCircle
 10
494.9999999999913
 20
546.0000000000222
 30
0.0
 40
42.69108621683648
100
AcDbArc
 50
124.366054739013
 51
135.6339452610077
  0
ARC
  5
2D5
330
1F
100
AcDbEntity
  8
LAY-10
  6
CONTINUOUS
 62
     7
100
AcDbCircle
 10
494.9999999999913
 20
546.0000000000222
 30
0.0
 40
42.69108621683648
100
AcDbArc
 50
104.3660547390095
 51
115.6339452610051
  0
ARC
  5
2D6
330
1F
100
AcDbEntity
  8
LAY-10
  6
CONTINUOUS
 62
     7
100
AcDbCircle
 10
494.9999999999913
 20
546.0000000000222
 30
0.0
 40
42.69108621683648
100
AcDbArc
 50
84.36605473899198
 51
95.63394526100139
  0
LINE
  5
2D7
330
1F
100
AcDbEntity
  8
LAY-10
  6
CONTINUOUS
 62
     7
100
AcDbLine
 10
428.7504716997837
 20
536.0000000000128
 30
0.0
 11
444.1730310825973
 21
536.0000000000128
 31
0.0
  0
LINE
  5
2D8
330
1F
100
AcDbEntity
  8
LAY-10
  6
CONTINUOUS
 62
     7
100
AcDbLine
 10
428.7504716997837
 20
556.0000000000131
 30
0.0
 11
444.1730310825936
 21
556.0000000000131
 31
0.0
  0
LINE
  5
2D9
330
1F
100
AcDbEntity
  8
LAY-10
  6
CONTINUOUS
 62
     7
100
AcDbLine
 10
468.0353066766131
 20
531.9067534013682
 30
0.0
 11
482.4164764490906
 21
539.4231515873192
 31
0.0
  0
ARC
  5
2DA
330
1F
100
AcDbEntity
  8
LAY-10
  6
CONTINUOUS
 62
     7
100
AcDbCircle
 10
481.3047861653505
 20
541.5501552810248
 30
0.0
 40
2.399999999999608
100
AcDbArc
 50
297.5940682268555
 51
98.4059317731411
  0
CIRCLE
  5
2DB
330
1F
100
AcDbEntity
  8
LAY-10
  6
CONTINUOUS
 62
     7
100
AcDbCircle
 10
494.9999999999913
 20
546.0000000000222
 30
0.0
 40
41.08339106224975
  0
CIRCLE
  5
2DC
330
1F
100
AcDbEntity
  8
LAY-10
  6
CONTINUOUS
 62
     7
100
AcDbCircle
 10
494.9999999999913
 20
546.0000000000222
 30
0.0
 40
51.80135875949512
  0
ARC
  5
2DD
330
1F
100
AcDbEntity
  8
LAY-10
  6
CONTINUOUS
 62
     7
100
AcDbCircle
 10
513.1373734993094
 20
570.9639529693059
 30
0.0
 40
5.142857142857444
100
AcDbArc
 50
314.4059317731466
 51
153.594068226862
  0
ARC
  5
2DE
330
1F
100
AcDbEntity
  8
LAY-10
  6
CONTINUOUS
 62
     7
100
AcDbCircle
 10
503.4641076330056
 20
557.6498447190129
 30
0.0
 40
2.399999999999608
100
AcDbArc
 50
153.5940682268592
 51
314.4059317731466
  0
LINE
  5
2DF
330
1F
100
AcDbEntity
  8
LAY-10
  6
CONTINUOUS
 62
     7
100
AcDbLine
 10
508.5310926391107
 20
573.2511250723202
 30
0.0
 11
501.3145098982467
 21
558.7171917004194
 31
0.0
  0
LINE
  5
2E0
330
1F
100
AcDbEntity
  8
LAY-10
  6
CONTINUOUS
 62
     7
100
AcDbLine
 10
516.7360224984355
 20
567.2898945902205
 30
0.0
 11
505.1434771659308
 21
555.9352841421068
 31
0.0
  0
ARC
  5
2E1
330
1F
100
AcDbEntity
  8
LAY-10
  6
CONTINUOUS
 62
     7
100
AcDbCircle
 10
524.3468867885348
 20
555.5353815407343
 30
0.0
 40
5.142857142857444
100
AcDbArc
 50
278.4059317731451
 51
117.5940682268599
  0
ARC
  5
2E2
330
1F
100
AcDbEntity
  8
LAY-10
  6
CONTINUOUS
 62
     7
100
AcDbCircle
 10
508.6952138346401
 20
550.4498447190173
 30
0.0
 40
2.399999999999608
100
AcDbArc
 50
117.5940682268639
 51
278.4059317731467
  0
LINE
  5
2E3
330
1F
100
AcDbEntity
  8
LAY-10
  6
CONTINUOUS
 62
     7
100
AcDbLine
 10
521.9646933233765
 20
560.0932465986753
 30
0.0
 11
507.5835235508998
 21
552.5768484127226
 31
0.0
  0
LINE
  5
2E4
330
1F
100
AcDbEntity
  8
LAY-10
  6
CONTINUOUS
 62
     7
100
AcDbLine
 10
525.0986976543302
 20
550.4477730638652
 30
0.0
 11
509.0460589053446
 21
548.0756274298121
 31
0.0
  0
ARC
  5
2E5
330
1F
100
AcDbEntity
  8
LAY-10
  6
CONTINUOUS
 62
     7
100
AcDbCircle
 10
524.3468867885346
 20
536.4646184593092
 30
0.0
 40
5.142857142857444
100
AcDbArc
 50
242.405931773147
 51
81.59406822686016
  0
LINE
  5
2E6
330
1F
100
AcDbEntity
  8
LAY-10
  6
CONTINUOUS
 62
     7
100
AcDbLine
 10
525.0986976543294
 20
541.5522269361785
 30
0.0
 11
509.0460589053437
 21
543.9243725702299
 31
0.0
  0
ARC
  5
2E7
330
1F
100
AcDbEntity
  8
LAY-10
  6
CONTINUOUS
 62
     7
100
AcDbCircle
 10
513.1373734993089
 20
521.036047030738
 30
0.0
 40
5.142857142857444
100
AcDbArc
 50
206.4059317731449
 51
45.59406822685904
  0
ARC
  5
2E8
330
1F
100
AcDbEntity
  8
LAY-10
  6
CONTINUOUS
 62
     7
100
AcDbCircle
 10
503.4641076330037
 20
534.35015528103
 30
0.0
 40
2.399999999999608
100
AcDbArc
 50
45.59406822685845
 51
206.4059317731476
  0
LINE
  5
2E9
330
1F
100
AcDbEntity
  8
LAY-10
  6
CONTINUOUS
 62
     7
100
AcDbLine
 10
516.7360224984347
 20
524.7101054098239
 30
0.0
 11
505.1434771659287
 21
536.0647158579362
 31
0.0
  0
LINE
  5
2EA
330
1F
100
AcDbEntity
  8
LAY-10
  6
CONTINUOUS
 62
     7
100
AcDbLine
 10
508.5310926391105
 20
518.7488749277231
 30
0.0
 11
501.3145098982449
 21
533.2828082996231
 31
0.0
  0
LINE
  5
2EB
330
1F
100
AcDbEntity
  8
LAY-10
  6
CONTINUOUS
 62
     7
100
AcDbLine
 10
521.964693323377
 20
531.9067534013682
 30
0.0
 11
507.5835235508994
 21
539.4231515873192
 31
0.0
  0
ARC
  5
2EC
330
1F
100
AcDbEntity
  8
LAY-10
  6
CONTINUOUS
 62
     7
100
AcDbCircle
 10
508.6952138346394
 20
541.5501552810248
 30
0.0
 40
2.399999999999608
100
AcDbArc
 50
81.5940682268602
 51
242.4059317731507
  0
LINE
  5
2ED
330
1F
100
AcDbEntity
  8
LAY-10
  6
CONTINUOUS
 62
     7
100
AcDbLine
 10
489.9290744716195
 20
516.0000000000034
 30
0.0
 11
492.6335680867506
 21
532.000000000013
 31
0.0
  0
LINE
  5
2EE
330
1F
100
AcDbEntity
  8
LAY-10
  6
CONTINUOUS
 62
     7
100
AcDbLine
 10
500.0709255283624
 20
516.0000000000041
 30
0.0
 11
497.3664319132296
 21
532.0000000000132
 31
0.0
  0
ARC
  5
2EF
330
1F
100
AcDbEntity
  8
LAY-10
  6
CONTINUOUS
 62
     7
100
AcDbCircle
 10
494.999999999991
 20
515.1428571428611
 30
0.0
 40
5.142857142857444
100
AcDbArc
 50
170.4059317731462
 51
9.594068226859758
  0
ARC
  5
2F0
330
1F
100
AcDbEntity
  8
LAY-10
  6
CONTINUOUS
 62
     7
100
AcDbCircle
 10
494.9999999999901
 20
531.6000000000133
 30
0.0
 40
2.399999999999608
100
AcDbArc
 50
9.5940682268601
 51
170.4059317731469
  0
LINE
  5
2F1
330
1F
100
AcDbEntity
  8
LAY-10
  6
CONTINUOUS
 62
     7
100
AcDbLine
 10
489.2231348759577
 20
494.5217657774942
 30
0.0
 11
490.8089088427141
 21
503.5151368451828
 31
0.0
  0
LINE
  5
2F2
330
1F
100
AcDbEntity
  8
LAY-10
  6
CONTINUOUS
 62
     7
100
AcDbLine
 10
482.8218844813784
 20
495.6504789323304
 30
0.0
 11
484.4076584481349
 21
504.6438500000193
 31
0.0
  0
LINE
  5
2F3
330
1F
100
AcDbEntity
  8
LAY-10
  6
CONTINUOUS
 62
     7
100
AcDbLine
 10
471.9649294247233
 20
499.6020874077176
 30
0.0
 11
476.5309835810702
 21
507.510725196622
 31
0.0
  0
LINE
  5
2F4
330
1F
100
AcDbEntity
  8
LAY-10
  6
CONTINUOUS
 62
     7
100
AcDbLine
 10
500.7768651240318
 20
494.5217657774843
 30
0.0
 11
499.1910911572743
 21
503.515136845179
 31
0.0
  0
ARC
  5
2F5
330
1F
100
AcDbEntity
  8
LAY-10
  6
CONTINUOUS
 62
     7
100
AcDbCircle
 10
494.9999999999913
 20
546.0000000000038
 30
0.0
 40
42.69108621683648
100
AcDbArc
 50
244.3660547389955
 51
255.6339452609905
  0
ARC
  5
2F6
330
1F
100
AcDbEntity
  8
LAY-10
  6
CONTINUOUS
 62
     7
100
AcDbCircle
 10
494.9999999999913
 20
546.0000000000038
 30
0.0
 40
42.69108621683648
100
AcDbArc
 50
264.3660547389989
 51
275.6339452610085
  0
LINE
  5
2F7
330
1F
100
AcDbEntity
  8
LAY-10
  6
CONTINUOUS
 62
     7
100
AcDbLine
 10
546.6993062751316
 20
549.250000000013
 30
0.0
 11
537.5671979624373
 21
549.250000000013
 31
0.0
  0
LINE
  5
2F8
330
1F
100
AcDbEntity
  8
LAY-10
  6
CONTINUOUS
 62
     7
100
AcDbLine
 10
546.6993062751304
 20
542.7500000000128
 30
0.0
 11
537.5671979624357
 21
542.7500000000128
 31
0.0
  0
ARC
  5
2F9
330
1F
100
AcDbEntity
  8
LAY-10
  6
CONTINUOUS
 62
     7
100
AcDbCircle
 10
494.9999999999986
 20
546.0000000000222
 30
0.0
 40
42.69108621683648
100
AcDbArc
 50
344.3660547389936
 51
355.6339452609838
  0
LINE
  5
2FA
330
1F
100
AcDbEntity
  8
LAY-10
  6
CONTINUOUS
 62
     7
100
AcDbLine
 10
544.6930220723001
 20
531.3717968755094
 30
0.0
 11
536.1116472786437
 21
534.4951618694827
 31
0.0
  0
LINE
  5
2FB
330
1F
100
AcDbEntity
  8
LAY-10
  6
CONTINUOUS
 62
     7
100
AcDbLine
 10
542.4698911406823
 20
525.2637948404013
 30
0.0
 11
533.8885163470254
 21
528.3871598343746
 31
0.0
  0
LINE
  5
2FC
330
1F
100
AcDbEntity
  8
LAY-10
  6
CONTINUOUS
 62
     7
100
AcDbLine
 10
536.6930260166521
 20
515.2579709371062
 30
0.0
 11
529.6974251897519
 21
521.1279770108216
 31
0.0
  0
LINE
  5
2FD
330
1F
100
AcDbEntity
  8
LAY-10
  6
CONTINUOUS
 62
     7
100
AcDbLine
 10
532.5149065536887
 20
510.2786820568336
 30
0.0
 11
525.5193057267883
 21
516.1486881305491
 31
0.0
  0
LINE
  5
2FE
330
1F
100
AcDbEntity
  8
LAY-10
  6
CONTINUOUS
 62
     7
100
AcDbLine
 10
523.6642356998657
 20
502.8520874077178
 30
0.0
 11
519.0981815435185
 21
510.760725196622
 31
0.0
  0
LINE
  5
2FF
330
1F
100
AcDbEntity
  8
LAY-10
  6
CONTINUOUS
 62
     7
100
AcDbLine
 10
507.1781155186115
 20
596.3495210676955
 30
0.0
 11
505.5923415518551
 21
587.3561500000066
 31
0.0
  0
LINE
  5
300
330
1F
100
AcDbEntity
  8
LAY-10
  6
CONTINUOUS
 62
     7
100
AcDbLine
 10
518.0350705752668
 20
592.3979125923083
 30
0.0
 11
513.4690164189198
 21
584.489274803404
 31
0.0
  0
LINE
  5
301
330
1F
100
AcDbEntity
  8
LAY-10
  6
CONTINUOUS
 62
     7
100
AcDbLine
 10
523.6642356998651
 20
589.1479125923072
 30
0.0
 11
519.0981815435179
 21
581.2392748034026
 31
0.0
  0
LINE
  5
302
330
1F
100
AcDbEntity
  8
LAY-10
  6
CONTINUOUS
 62
     7
100
AcDbLine
 10
532.5149065536895
 20
581.7213179431932
 30
0.0
 11
525.5193057267893
 21
575.8513118694777
 31
0.0
  0
LINE
  5
303
330
1F
100
AcDbEntity
  8
LAY-10
  6
CONTINUOUS
 62
     7
100
AcDbLine
 10
536.6930260166513
 20
576.7420290629188
 30
0.0
 11
529.6974251897509
 21
570.8720229892033
 31
0.0
  0
LINE
  5
304
330
1F
100
AcDbEntity
  8
LAY-10
  6
CONTINUOUS
 62
     7
100
AcDbLine
 10
542.4698911406831
 20
566.736205159625
 30
0.0
 11
533.8885163470268
 21
563.6128401656517
 31
0.0
  0
LINE
  5
305
330
1F
100
AcDbEntity
  8
LAY-10
  6
CONTINUOUS
 62
     7
100
AcDbLine
 10
544.6930220722991
 20
560.6282031245162
 30
0.0
 11
536.1116472786424
 21
557.5048381305428
 31
0.0
  0
ARC
  5
306
330
1F
100
AcDbEntity
  8
LAY-10
  6
CONTINUOUS
 62
     7
100
AcDbCircle
 10
494.9999999999986
 20
546.0000000000222
 30
0.0
 40
42.69108621683648
100
AcDbArc
 50
324.366054738997
 51
335.6339452609853
  0
ARC
  5
307
330
1F
100
AcDbEntity
  8
LAY-10
  6
CONTINUOUS
 62
     7
100
AcDbCircle
 10
494.9999999999986
 20
546.0000000000222
 30
0.0
 40
42.69108621683648
100
AcDbArc
 50
304.3660547390011
 51
315.6339452609888
  0
ARC
  5
308
330
1F
100
AcDbEntity
  8
LAY-10
  6
CONTINUOUS
 62
     7
100
AcDbCircle
 10
494.9999999999986
 20
546.0000000000222
 30
0.0
 40
42.69108621683648
100
AcDbArc
 50
4.366054738991654
 51
15.63394526098343
  0
ARC
  5
309
330
1F
100
AcDbEntity
  8
LAY-10
  6
CONTINUOUS
 62
     7
100
AcDbCircle
 10
494.9999999999986
 20
546.0000000000222
 30
0.0
 40
42.69108621683648
100
AcDbArc
 50
24.36605473899126
 51
35.63394526098406
  0
ARC
  5
30A
330
1F
100
AcDbEntity
  8
LAY-10
  6
CONTINUOUS
 62
     7
100
AcDbCircle
 10
494.9999999999986
 20
546.0000000000222
 30
0.0
 40
42.69108621683648
100
AcDbArc
 50
44.36605473899269
 51
55.63394526098706
  0
ARC
  5
30B
330
1F
100
AcDbEntity
  8
LAY-10
  6
CONTINUOUS
 62
     7
100
AcDbCircle
 10
494.9999999999986
 20
546.0000000000222
 30
0.0
 40
42.69108621683648
100
AcDbArc
 50
64.36605473899517
 51
75.63394526099039
  0
LINE
  5
30C
330
1F
100
AcDbEntity
  8
LAY-10
  6
CONTINUOUS
 62
     7
100
AcDbLine
 10
507.1781155186115
 20
495.6504789323304
 30
0.0
 11
505.5923415518551
 21
504.6438500000193
 31
0.0
  0
LINE
  5
30D
330
1F
100
AcDbEntity
  8
LAY-10
  6
CONTINUOUS
 62
     7
100
AcDbLine
 10
518.0350705752668
 20
499.6020874077176
 30
0.0
 11
513.4690164189198
 21
507.510725196622
 31
0.0
  0
ARC
  5
30E
330
1F
100
AcDbEntity
  8
LAY-10
  6
CONTINUOUS
 62
     7
100
AcDbCircle
 10
494.9999999999986
 20
546.0000000000038
 30
0.0
 40
42.69108621683648
100
AcDbArc
 50
284.3660547390095
 51
295.633945261005
  0
LINE
  5
30F
330
1F
100
AcDbEntity
  8
LAY-10
  6
CONTINUOUS
 62
     7
100
AcDbLine
 10
428.296851648508
 20
552.3000000000129
 30
0.0
 11
426.7903232671496
 21
552.3000000000129
 31
0.0
  0
LINE
  5
310
330
1F
100
AcDbEntity
  8
LAY-10
  6
CONTINUOUS
 62
     7
100
AcDbLine
 10
428.2691975171798
 20
552.000000000013
 30
0.0
 11
426.5710416356592
 21
552.000000000013
 31
0.0
  0
ARC
  5
311
330
1F
100
AcDbEntity
  8
LAY-10
  6
CONTINUOUS
 62
     7
100
AcDbCircle
 10
432.499999999991
 20
546.0000000000135
 30
0.0
 40
4.0
100
AcDbArc
 50
320.899569345679
 51
39.10043065497158
  0
LINE
  5
312
330
1F
100
AcDbEntity
  8
LAY-10
  6
CONTINUOUS
 62
     7
100
AcDbLine
 10
430.9999999999949
 20
542.0000000000134
 30
0.0
 11
430.9247317602095
 21
542.0000000000134
 31
0.0
  0
LINE
  5
313
330
1F
100
AcDbEntity
  8
LAY-10
  6
CONTINUOUS
 62
     7
100
AcDbLine
 10
428.2691975171798
 20
540.000000000013
 30
0.0
 11
426.5710416356592
 21
540.000000000013
 31
0.0
  0
LINE
  5
314
330
1F
100
AcDbEntity
  8
LAY-10
  6
CONTINUOUS
 62
     7
100
AcDbLine
 10
428.296851648508
 20
539.7000000000131
 30
0.0
 11
426.7903232671496
 21
539.7000000000131
 31
0.0
  0
LINE
  5
315
330
1F
100
AcDbEntity
  8
LAY-10
  6
CONTINUOUS
 62
     7
100
AcDbLine
 10
490.6999999999989
 20
477.6350967235524
 30
0.0
 11
490.6999999999989
 21
479.1381274566863
 31
0.0
  0
LINE
  5
316
330
1F
100
AcDbEntity
  8
LAY-10
  6
CONTINUOUS
 62
     7
100
AcDbLine
 10
490.999999999999
 20
477.425060387728
 30
0.0
 11
490.999999999999
 21
479.1195095711886
 31
0.0
  0
LINE
  5
317
330
1F
100
AcDbEntity
  8
LAY-10
  6
CONTINUOUS
 62
     7
100
AcDbLine
 10
498.999999999999
 20
477.425060387728
 30
0.0
 11
498.999999999999
 21
479.1195095711896
 31
0.0
  0
LINE
  5
318
330
1F
100
AcDbEntity
  8
LAY-10
  6
CONTINUOUS
 62
     7
100
AcDbLine
 10
499.2999999999989
 20
479.1381274566872
 30
0.0
 11
499.2999999999989
 21
477.6350967235524
 31
0.0
  0
LINE
  5
319
330
1F
100
AcDbEntity
  8
LAY-10
  6
CONTINUOUS
 62
     7
100
AcDbLine
 10
561.7031483514747
 20
539.7000000000131
 30
0.0
 11
563.2096767328483
 21
539.7000000000131
 31
0.0
  0
LINE
  5
31A
330
1F
100
AcDbEntity
  8
LAY-10
  6
CONTINUOUS
 62
     7
100
AcDbLine
 10
561.7308024828029
 20
540.000000000013
 30
0.0
 11
563.4289583643388
 21
540.000000000013
 31
0.0
  0
ARC
  5
31B
330
1F
100
AcDbEntity
  8
LAY-10
  6
CONTINUOUS
 62
     7
100
AcDbCircle
 10
494.9999999999913
 20
546.000000000013
 30
0.0
 40
67.0
100
AcDbArc
 50
183.7704383432085
 51
356.2295616567874
  0
ARC
  5
31C
330
1F
100
AcDbEntity
  8
LAY-10
  6
CONTINUOUS
 62
     7
100
AcDbCircle
 10
557.4999999999917
 20
546.0000000000135
 30
0.0
 40
4.0
100
AcDbArc
 50
140.8995693444925
 51
219.100430654856
  0
ARC
  5
31D
330
1F
100
AcDbEntity
  8
LAY-10
  6
CONTINUOUS
 62
     7
100
AcDbCircle
 10
494.9999999999913
 20
546.000000000013
 30
0.0
 40
67.0
100
AcDbArc
 50
3.770438343263945
 51
176.2295616567409
  0
LINE
  5
31E
330
1F
100
AcDbEntity
  8
LAY-10
  6
CONTINUOUS
 62
     7
100
AcDbLine
 10
561.7308024828029
 20
552.000000000013
 30
0.0
 11
563.4289583643388
 21
552.000000000013
 31
0.0
  0
LINE
  5
31F
330
1F
100
AcDbEntity
  8
LAY-10
  6
CONTINUOUS
 62
     7
100
AcDbLine
 10
561.7031483514747
 20
552.3000000000129
 30
0.0
 11
563.2096767328483
 21
552.3000000000129
 31
0.0
  0
LINE
  5
320
330
1F
100
AcDbEntity
  8
LAY-10
  6
CONTINUOUS
 62
     7
100
AcDbLine
 10
499.2999999999989
 20
612.8618725433389
 30
0.0
 11
499.2999999999989
 21
614.3649032764739
 31
0.0
  0
LINE
  5
321
330
1F
100
AcDbEntity
  8
LAY-10
  6
CONTINUOUS
 62
     7
100
AcDbLine
 10
498.999999999999
 20
614.5749396122982
 30
0.0
 11
498.999999999999
 21
612.8804904288365
 31
0.0
  0
LINE
  5
322
330
1F
100
AcDbEntity
  8
LAY-10
  6
CONTINUOUS
 62
     7
100
AcDbLine
 10
490.999999999999
 20
614.5749396122982
 30
0.0
 11
490.999999999999
 21
612.8804904288374
 31
0.0
  0
LINE
  5
323
330
1F
100
AcDbEntity
  8
LAY-10
  6
CONTINUOUS
 62
     7
100
AcDbLine
 10
490.6999999999989
 20
614.3649032764737
 30
0.0
 11
490.6999999999989
 21
612.8618725433397
 31
0.0
  0
LINE
  5
324
330
1F
100
AcDbEntity
  8
LAY-10
  6
CONTINUOUS
 62
     7
100
AcDbLine
 10
413.9999999999969
 20
290.1986412405187
 30
0.0
 11
413.9999999999969
 21
291.1986412405168
 31
0.0
  0
LINE
  5
325
330
1F
100
AcDbEntity
  8
LAY-10
  6
CONTINUOUS
 62
     7
100
AcDbLine
 10
418.9999999999961
 20
290.1986412405187
 30
0.0
 11
418.9999999999961
 21
291.198641240518
 31
0.0
  0
LINE
  5
326
330
1F
100
AcDbEntity
  8
LAY-10
  6
CONTINUOUS
 62
     7
100
AcDbLine
 10
418.9999999999961
 20
291.198641240518
 30
0.0
 11
413.9999999999969
 21
291.198641240518
 31
0.0
  0
LINE
  5
327
330
1F
100
AcDbEntity
  8
LAY-10
  6
CONTINUOUS
 62
     7
100
AcDbLine
 10
419.4999999999994
 20
289.698641240518
 30
0.0
 11
413.4999999999994
 21
289.698641240518
 31
0.0
  0
LINE
  5
328
330
1F
100
AcDbEntity
  8
LAY-10
  6
CONTINUOUS
 62
     7
100
AcDbLine
 10
418.9999999999994
 20
290.1986412405187
 30
0.0
 11
413.9999999999993
 21
290.1986412405187
 31
0.0
  0
LINE
  5
329
330
1F
100
AcDbEntity
  8
LAY-10
  6
CONTINUOUS
 62
     7
100
AcDbLine
 10
416.4999999999991
 20
292.6420169134936
 30
0.0
 11
413.9999999999982
 21
291.198641240519
 31
0.0
  0
LINE
  5
32A
330
1F
100
AcDbEntity
  8
LAY-10
  6
CONTINUOUS
 62
     7
100
AcDbLine
 10
416.4999999999996
 20
292.6420169134934
 30
0.0
 11
419.0000000000001
 21
291.198641240519
 31
0.0
  0
LINE
  5
32B
330
1F
100
AcDbEntity
  8
LAY-10
  6
CONTINUOUS
 62
     7
100
AcDbLine
 10
401.9999999999998
 20
260.1986412405273
 30
0.0
 11
401.9999999999998
 21
265.1986412405272
 31
0.0
  0
LINE
  5
32C
330
1F
100
AcDbEntity
  8
LAY-10
  6
CONTINUOUS
 62
     7
100
AcDbLine
 10
412.0000000000003
 20
265.1986412405272
 30
0.0
 11
401.9999999999998
 21
265.1986412405272
 31
0.0
  0
ARC
  5
32D
330
1F
100
AcDbEntity
  8
LAY-10
  6
CONTINUOUS
 62
     7
100
AcDbCircle
 10
412.0000000000003
 20
267.1986412405273
 30
0.0
 40
2.0
100
AcDbArc
 50
270.0000000000002
 51
0.0
  0
LINE
  5
32E
330
1F
100
AcDbEntity
  8
LAY-10
  6
CONTINUOUS
 62
     7
100
AcDbLine
 10
412.0000000000003
 20
260.1986412405273
 30
0.0
 11
401.9999999999998
 21
260.1986412405273
 31
0.0
  0
ARC
  5
32F
330
1F
100
AcDbEntity
  8
LAY-10
  6
CONTINUOUS
 62
     7
100
AcDbCircle
 10
412.0000000000003
 20
267.1986412405273
 30
0.0
 40
7.000000000000004
100
AcDbArc
 50
270.0000000000002
 51
0.0
  0
LINE
  5
330
330
1F
100
AcDbEntity
  8
LAY-10
  6
CONTINUOUS
 62
     7
100
AcDbLine
 10
413.9999999999993
 20
267.1986412405229
 30
0.0
 11
413.9999999999993
 21
282.1986412405225
 31
0.0
  0
LINE
  5
331
330
1F
100
AcDbEntity
  8
LAY-10
  6
CONTINUOUS
 62
     7
100
AcDbLine
 10
418.9999999999994
 20
267.1986412405229
 30
0.0
 11
418.9999999999994
 21
282.1986412405225
 31
0.0
  0
LINE
  5
332
330
1F
100
AcDbEntity
  8
LAY-10
  6
CONTINUOUS
 62
     7
100
AcDbLine
 10
418.9999999999961
 20
288.1986412405274
 30
0.0
 11
413.9999999999969
 21
288.1986412405274
 31
0.0
  0
LINE
  5
333
330
1F
100
AcDbEntity
  8
LAY-10
  6
CONTINUOUS
 62
     7
100
AcDbLine
 10
419.4999999999976
 20
287.6986412405289
 30
0.0
 11
413.4999999999984
 21
287.6986412405289
 31
0.0
  0
LINE
  5
334
330
1F
100
AcDbEntity
  8
LAY-10
  6
CONTINUOUS
 62
     7
100
AcDbLine
 10
413.9999999999969
 20
290.1986412405187
 30
0.0
 11
413.9999999999969
 21
288.1986412405274
 31
0.0
  0
LINE
  5
335
330
1F
100
AcDbEntity
  8
LAY-10
  6
CONTINUOUS
 62
     7
100
AcDbLine
 10
418.9999999999961
 20
290.1986412405187
 30
0.0
 11
418.9999999999961
 21
288.1986412405274
 31
0.0
  0
LINE
  5
336
330
1F
100
AcDbEntity
  8
LAY-10
  6
CONTINUOUS
 62
     7
100
AcDbLine
 10
413.4999999999994
 20
287.6986412405329
 30
0.0
 11
413.9999999999993
 21
288.1986412405229
 31
0.0
  0
LINE
  5
337
330
1F
100
AcDbEntity
  8
LAY-10
  6
CONTINUOUS
 62
     7
100
AcDbLine
 10
418.9999999999994
 20
288.1986412405229
 30
0.0
 11
419.4999999999994
 21
287.6986412405329
 31
0.0
  0
LINE
  5
338
330
1F
100
AcDbEntity
  8
LAY-10
  6
CONTINUOUS
 62
     7
100
AcDbLine
 10
419.4999999999994
 20
287.6986412405329
 30
0.0
 11
419.4999999999994
 21
282.1986412405229
 31
0.0
  0
LINE
  5
339
330
1F
100
AcDbEntity
  8
LAY-10
  6
CONTINUOUS
 62
     7
100
AcDbLine
 10
413.4999999999994
 20
287.6986412405329
 30
0.0
 11
413.4999999999994
 21
282.1986412405229
 31
0.0
  0
LINE
  5
33A
330
1F
100
AcDbEntity
  8
LAY-10
  6
CONTINUOUS
 62
     7
100
AcDbLine
 10
452.1317381620984
 20
248.198641240521
 30
0.0
 11
537.8682618379096
 21
248.198641240521
 31
0.0
  0
LINE
  5
33B
330
1F
100
AcDbEntity
  8
LAY-10
  6
CONTINUOUS
 62
     7
100
AcDbLine
 10
537.3370118379097
 20
265.1986412405216
 30
0.0
 11
537.8682618379095
 21
248.198641240525
 31
0.0
  0
LINE
  5
33C
330
1F
100
AcDbEntity
  8
LAY-10
  6
CONTINUOUS
 62
     7
100
AcDbLine
 10
452.6629881620983
 20
265.1986412405216
 30
0.0
 11
452.1317381620985
 21
248.1986412405251
 31
0.0
  0
LINE
  5
33D
330
1F
100
AcDbEntity
  8
LAY-10
  6
CONTINUOUS
 62
     7
100
AcDbLine
 10
451.1
 20
247.198641240525
 30
0.0
 11
452.1317381621
 21
248.198641240525
 31
0.0
  0
LINE
  5
33E
330
1F
100
AcDbEntity
  8
LAY-10
  6
CONTINUOUS
 62
     7
100
AcDbLine
 10
538.90000000001
 20
247.198641240525
 30
0.0
 11
537.86826183791
 21
248.198641240525
 31
0.0
  0
LINE
  5
33F
330
1F
100
AcDbEntity
  8
LAY-10
  6
CENTER
 62
     2
100
AcDbLine
 10
536.999999999999
 20
332.019310715723
 30
0.0
 11
536.999999999999
 21
273.119310715723
 31
0.0
  0
LINE
  5
340
330
1F
100
AcDbEntity
  8
LAY-10
  6
CENTER
 62
     2
100
AcDbLine
 10
494.999999999999
 20
349.2193107157229
 30
0.0
 11
494.999999999999
 21
225.419310715723
 31
0.0
  0
LINE
  5
341
330
1F
100
AcDbEntity
  8
LAY-10
  6
CENTER
 62
     2
100
AcDbLine
 10
430.9999999999985
 20
313.9193107157229
 30
0.0
 11
430.9999999999985
 21
290.7193107157229
 31
0.0
  0
LINE
  5
342
330
1F
100
AcDbEntity
  8
LAY-10
  6
CENTER
 62
     2
100
AcDbLine
 10
494.999999999995
 20
445.000000000013
 30
0.0
 11
494.999999999995
 21
647.0000000000131
 31
0.0
  0
LINE
  5
343
330
1F
100
AcDbEntity
  8
LAY-10
  6
CENTER
 62
     2
100
AcDbLine
 10
393.9999999999951
 20
546.000000000013
 30
0.0
 11
595.9999999999951
 21
546.000000000013
 31
0.0
  0
LINE
  5
344
330
1F
100
AcDbEntity
  8
LAY-10
  6
CENTER
 62
     2
100
AcDbLine
 10
558.999999999995
 20
540.0000000000266
 30
0.0
 11
558.999999999995
 21
552.0000000000266
 31
0.0
  0
LINE
  5
345
330
1F
100
AcDbEntity
  8
LAY-10
  6
CENTER
 62
     2
100
AcDbLine
 10
430.9999999999949
 20
540.0000000000266
 30
0.0
 11
430.9999999999949
 21
552.0000000000266
 31
0.0
  0
LINE
  5
346
330
1F
100
AcDbEntity
  8
LAY-10
  6
CENTER
 62
     2
100
AcDbLine
 10
400.8000000000004
 20
262.6986412405284
 30
0.0
 11
411.9999999999994
 21
262.6986412405284
 31
0.0
  0
ARC
  5
347
330
1F
100
AcDbEntity
  8
LAY-10
  6
CENTER
 62
     2
100
AcDbCircle
 10
411.9999999999994
 20
267.1986412405284
 30
0.0
 40
4.5
100
AcDbArc
 50
270.0000000000002
 51
0.0
  0
LINE
  5
348
330
1F
100
AcDbEntity
  8
LAY-10
  6
CENTER
 62
     2
100
AcDbLine
 10
416.4999999999991
 20
293.4000000000127
 30
0.0
 11
416.4999999999991
 21
267.1986412405284
 31
0.0
  0
LINE
  5
349
330
1F
100
AcDbEntity
  8
LAY-10
  6
CONTINUOUS
 62
     7
100
AcDbLine
 10
532.9999999999962
 20
280.1986412405086
 30
0.0
 11
540.9999999999961
 21
280.1986412405086
 31
0.0
  0
LINE
  5
34A
330
1F
100
AcDbEntity
  8
LAY-10
  6
CONTINUOUS
 62
     7
100
AcDbLine
 10
533.4999999999937
 20
330.1986412405135
 30
0.0
 11
533.4999999999937
 21
299.8000000000079
 31
0.0
  0
LINE
  5
34B
330
1F
100
AcDbEntity
  8
LAY-10
  6
CONTINUOUS
 62
     7
100
AcDbLine
 10
533.4999999999937
 20
293.0000000000029
 30
0.0
 11
533.4999999999937
 21
280.1986412405129
 31
0.0
  0
LINE
  5
34C
330
1F
100
AcDbEntity
  8
LAY-10
  6
CONTINUOUS
 62
     7
100
AcDbLine
 10
540.4999999999925
 20
330.1986412405135
 30
0.0
 11
540.4999999999925
 21
299.8000000000079
 31
0.0
  0
LINE
  5
34D
330
1F
100
AcDbEntity
  8
LAY-10
  6
CONTINUOUS
 62
     7
100
AcDbLine
 10
540.4999999999925
 20
293.0000000000029
 30
0.0
 11
540.4999999999925
 21
280.1986412405129
 31
0.0
  0
LINE
  5
34E
330
1F
100
AcDbEntity
  8
LAY-10
  6
CONTINUOUS
 62
     7
100
AcDbLine
 10
532.9999999999961
 20
280.6986412405129
 30
0.0
 11
532.9999999999961
 21
280.198641240513
 31
0.0
  0
LINE
  5
34F
330
1F
100
AcDbEntity
  8
LAY-10
  6
CONTINUOUS
 62
     7
100
AcDbLine
 10
540.9999999999961
 20
280.6986412405129
 30
0.0
 11
540.9999999999961
 21
280.198641240513
 31
0.0
  0
LINE
  5
350
330
1F
100
AcDbEntity
  8
LAY-10
  6
CONTINUOUS
 62
     7
100
AcDbLine
 10
491.4999999999937
 20
330.1986412405135
 30
0.0
 11
491.4999999999937
 21
299.8000000000079
 31
0.0
  0
LINE
  5
351
330
1F
100
AcDbEntity
  8
LAY-10
  6
CONTINUOUS
 62
     7
100
AcDbLine
 10
491.499999999999
 20
287.1986412405195
 30
0.0
 11
491.499999999999
 21
288.000000000003
 31
0.0
  0
LINE
  5
352
330
1F
100
AcDbEntity
  8
LAY-10
  6
CONTINUOUS
 62
     7
100
AcDbLine
 10
433.4999999999955
 20
307.5000000000035
 30
0.0
 11
433.4999999999955
 21
295.5000000000056
 31
0.0
  0
LINE
  5
353
330
1F
100
AcDbEntity
  8
LAY-10
  6
CONTINUOUS
 62
     7
100
AcDbLine
 10
428.4999999999955
 20
307.5000000000035
 30
0.0
 11
428.4999999999955
 21
295.5000000000056
 31
0.0
  0
LINE
  5
354
330
1F
100
AcDbEntity
  8
LAY-10
  6
CONTINUOUS
 62
     7
100
AcDbLine
 10
427.9999999999978
 20
296.0000000000029
 30
0.0
 11
427.9999999999978
 21
294.0358098145996
 31
0.0
  0
LINE
  5
355
330
1F
100
AcDbEntity
  8
LAY-10
  6
CONTINUOUS
 62
     7
100
AcDbLine
 10
433.9999999999985
 20
296.0000000000029
 30
0.0
 11
433.9999999999985
 21
292.4281146600126
 31
0.0
  0
LINE
  5
356
330
1F
100
AcDbEntity
  8
LAY-10
  6
CONTINUOUS
 62
     7
100
AcDbLine
 10
413.4999999999984
 20
289.698641240518
 30
0.0
 11
413.9999999999969
 21
290.1986412405187
 31
0.0
  0
LINE
  5
357
330
1F
100
AcDbEntity
  8
LAY-10
  6
CONTINUOUS
 62
     7
100
AcDbLine
 10
419.4999999999976
 20
289.698641240518
 30
0.0
 11
418.9999999999961
 21
290.1986412405187
 31
0.0
  0
LINE
  5
358
330
1F
100
AcDbEntity
  8
LAY-10
  6
CONTINUOUS
 62
     7
100
AcDbLine
 10
413.4999999999984
 20
289.698641240518
 30
0.0
 11
413.4999999999984
 21
287.6986412405289
 31
0.0
  0
LINE
  5
359
330
1F
100
AcDbEntity
  8
LAY-10
  6
CONTINUOUS
 62
     7
100
AcDbLine
 10
419.4999999999976
 20
289.698641240518
 30
0.0
 11
419.4999999999976
 21
287.6986412405289
 31
0.0
  0
LINE
  5
35A
330
1F
100
AcDbEntity
  8
LAY-10
  6
CONTINUOUS
 62
     7
100
AcDbLine
 10
413.9999999999993
 20
288.1986412405229
 30
0.0
 11
413.9999999999993
 21
282.1986412405229
 31
0.0
  0
LINE
  5
35B
330
1F
100
AcDbEntity
  8
LAY-10
  6
CONTINUOUS
 62
     7
100
AcDbLine
 10
418.9999999999994
 20
288.1986412405229
 30
0.0
 11
418.9999999999994
 21
282.1986412405229
 31
0.0
  0
LINE
  5
35C
330
1F
100
AcDbEntity
  8
LAY-10
  6
CONTINUOUS
 62
     7
100
AcDbLine
 10
419.0000000000176
 20
281.3326158367279
 30
0.0
 11
419.5000000000175
 21
282.1986412405124
 31
0.0
  0
LINE
  5
35D
330
1F
100
AcDbEntity
  8
LAY-10
  6
CONTINUOUS
 62
     7
100
AcDbLine
 10
413.9999999999873
 20
281.3326158367314
 30
0.0
 11
413.4999999999873
 21
282.1986412405159
 31
0.0
  0
LINE
  5
35E
330
1F
100
AcDbEntity
  8
LAY-10
  6
CONTINUOUS
 62
     7
100
AcDbLine
 10
451.6624999999999
 20
265.1986412405216
 30
0.0
 11
451.1
 21
247.1986412405249
 31
0.0
  0
LINE
  5
35F
330
1F
100
AcDbEntity
  8
LAY-10
  6
CONTINUOUS
 62
     7
100
AcDbLine
 10
538.3375000000082
 20
265.1986412405216
 30
0.0
 11
538.900000000008
 21
247.1986412405249
 31
0.0
  0
DIMENSION
  5
361
330
1F
100
AcDbEntity
  8
LAY-20
  6
CONTINUOUS
 62
     4
100
AcDbDimension
  2
*D15
 10
368.9999999999951
 20
300.198641240523
 30
0.0
 11
361.4999999999951
 21
287.645416020983
 31
0.0
 70
   160
  1
25
  3
ISO-25
100
AcDbAlignedDimension
 13
437.9999999999951
 23
275.092190801443
 33
0.0
 14
399.999999999995
 24
300.198641240523
 34
0.0
 50
90.0
100
AcDbRotatedDimension
1001
ACAD
1000
DSTYLE
1002
{
1070
   270
1070
     2
1070
     6
1000
EX_BNORM
1070
     7
1000
EX_BNORM
1070
    41
1040
7.5
1070
    42
1040
4.5
1070
    44
1040
4.5
1070
    73
1070
     0
1070
    74
1070
     0
1070
    75
1070
     0
1070
    76
1070
     0
1070
    77
1070
     1
1070
    78
1070
     8
1070
   140
1040
9.3543312
1070
   147
1040
0.0
1070
   173
1070
     1
1070
   176
1070
     4
1070
   177
1070
     4
1070
   178
1070
     7
1070
   271
1070
     1
1070
   277
1070
     2
1070
   279
1070
     2
1070
   280
1070
     0
1070
   287
1070
     5
1070
   340
1005
360
1002
}
  0
DIMENSION
  5
36F
330
1F
100
AcDbEntity
  8
LAY-20
  6
CONTINUOUS
 62
     4
100
AcDbDimension
  2
*D16
 10
621.0
 20
300.19864124052
 30
0.0
 11
613.5
 21
265.19864124052
 31
0.0
 70
   160
  3
ISO-25
100
AcDbAlignedDimension
 13
552.0
 23
230.19864124052
 33
0.0
 14
590.0
 24
300.19864124052
 34
0.0
 50
90.0
100
AcDbRotatedDimension
1001
ACAD
1000
DSTYLE
1002
{
1070
   270
1070
     2
1070
     6
1000
EX_BNORM
1070
     7
1000
EX_BNORM
1070
    41
1040
7.5
1070
    42
1040
4.5
1070
    44
1040
4.5
1070
    73
1070
     0
1070
    74
1070
     0
1070
    75
1070
     0
1070
    76
1070
     0
1070
    77
1070
     1
1070
    78
1070
     8
1070
   140
1040
9.3543312
1070
   147
1040
0.0
1070
   173
1070
     1
1070
   176
1070
     4
1070
   177
1070
     4
1070
   178
1070
     7
1070
   271
1070
     1
1070
   277
1070
     2
1070
   279
1070
     2
1070
   280
1070
     0
1070
   287
1070
     5
1070
   340
1005
360
1002
}
  0
DIMENSION
  5
37C
330
1F
100
AcDbEntity
  8
LAY-20
  6
CONTINUOUS
 62
     4
100
AcDbDimension
  2
*D17
 10
621.0
 20
345.0
 30
0.0
 11
613.5
 21
322.59932062026
 31
0.0
 70
   160
  1
45
  3
ISO-25
100
AcDbAlignedDimension
 13
621.0
 23
300.19864124052
 33
0.0
 14
531.47942913437
 24
345.0
 34
0.0
 50
90.0
100
AcDbRotatedDimension
1001
ACAD
1000
DSTYLE
1002
{
1070
   270
1070
     2
1070
     6
1000
EX_BNORM
1070
     7
1000
EX_BNORM
1070
    41
1040
7.5
1070
    42
1040
4.5
1070
    44
1040
4.5
1070
    73
1070
     0
1070
    74
1070
     0
1070
    75
1070
     1
1070
    76
1070
     0
1070
    77
1070
     1
1070
    78
1070
     8
1070
   140
1040
9.3543312
1070
   147
1040
0.0
1070
   173
1070
     1
1070
   176
1070
     4
1070
   177
1070
     4
1070
   178
1070
     7
1070
   271
1070
     1
1070
   277
1070
     2
1070
   279
1070
     2
1070
   280
1070
     0
1070
   287
1070
     5
1070
   340
1005
360
1002
}
  0
DIMENSION
  5
388
330
1F
100
AcDbEntity
  8
LAY-20
  6
CONTINUOUS
 62
     4
100
AcDbDimension
  2
*D18
 10
591.0
 20
417.0
 30
0.0
 11
495.0
 21
424.5
 31
0.0
 70
   160
  1
%%c<>
  3
ISO-25
100
AcDbAlignedDimension
 13
399.0
 23
297.69864124052
 33
0.0
 14
591.0
 24
297.69864124051
 34
0.0
100
AcDbRotatedDimension
1001
ACAD
1000
DSTYLE
1002
{
1070
   270
1070
     2
1070
     6
1000
EX_BNORM
1070
     7
1000
EX_BNORM
1070
    41
1040
9.0
1070
    42
1040
4.5
1070
    44
1040
4.5
1070
    73
1070
     0
1070
    74
1070
     0
1070
    75
1070
     0
1070
    76
1070
     0
1070
    77
1070
     1
1070
    78
1070
     8
1070
   140
1040
9.3543312
1070
   147
1040
0.0
1070
   173
1070
     1
1070
   176
1070
     4
1070
   177
1070
     4
1070
   178
1070
     7
1070
   271
1070
     1
1070
   277
1070
     2
1070
   279
1070
     2
1070
   280
1070
     0
1070
   287
1070
     5
1070
   340
1005
360
1002
}
  0
DIMENSION
  5
395
330
1F
100
AcDbEntity
  8
LAY-20
  6
CONTINUOUS
 62
     4
100
AcDbDimension
  2
*D19
 10
581.0
 20
396.0
 30
0.0
 11
494.999999999995
 21
403.5
 31
0.0
 70
   160
  1
%%c<>
  3
ISO-25
100
AcDbAlignedDimension
 13
408.99999999999
 23
303.0
 33
0.0
 14
581.0
 24
303.0
 34
0.0
100
AcDbRotatedDimension
1001
ACAD
1000
DSTYLE
1002
{
1070
   270
1070
     2
1070
     6
1000
EX_BNORM
1070
     7
1000
EX_BNORM
1070
    41
1040
9.0
1070
    42
1040
4.5
1070
    44
1040
4.5
1070
    73
1070
     0
1070
    74
1070
     0
1070
    75
1070
     0
1070
    76
1070
     0
1070
    77
1070
     1
1070
    78
1070
     8
1070
   140
1040
9.3543312
1070
   147
1040
0.0
1070
   173
1070
     1
1070
   176
1070
     4
1070
   177
1070
     4
1070
   178
1070
     7
1070
   271
1070
     1
1070
   277
1070
     2
1070
   279
1070
     2
1070
   280
1070
     0
1070
   287
1070
     5
1070
   340
1005
360
1002
}
  0
DIMENSION
  5
3A2
330
1F
100
AcDbEntity
  8
LAY-20
  6
CONTINUOUS
 62
     4
100
AcDbDimension
  2
*D20
 10
561.99999999999
 20
375.0
 30
0.0
 11
494.999999999995
 21
382.5
 31
0.0
 70
   160
  1
%%c<>
  3
ISO-25
100
AcDbAlignedDimension
 13
428.0
 23
307.5
 33
0.0
 14
561.99999999999
 24
308.5
 34
0.0
100
AcDbRotatedDimension
1001
ACAD
1000
DSTYLE
1002
{
1070
   270
1070
     2
1070
     6
1000
EX_BNORM
1070
     7
1000
EX_BNORM
1070
    41
1040
9.0
1070
    42
1040
4.5
1070
    44
1040
4.5
1070
    73
1070
     0
1070
    74
1070
     0
1070
    75
1070
     0
1070
    76
1070
     0
1070
    77
1070
     1
1070
    78
1070
     8
1070
   140
1040
9.3543312
1070
   147
1040
0.0
1070
   173
1070
     1
1070
   176
1070
     4
1070
   177
1070
     4
1070
   178
1070
     7
1070
   271
1070
     1
1070
   277
1070
     2
1070
   279
1070
     2
1070
   280
1070
     0
1070
   287
1070
     5
1070
   340
1005
360
1002
}
  0
DIMENSION
  5
3AF
330
1F
100
AcDbEntity
  8
LAY-20
  6
CONTINUOUS
 62
     4
100
AcDbDimension
  2
*D21
 10
538.9
 20
200.19864124052
 30
0.0
 11
495.0
 21
207.69864124052
 31
0.0
 70
   160
  1
Rｃ3(<>)
  3
ISO-25
100
AcDbAlignedDimension
 13
451.1
 23
242.69864124052
 33
0.0
 14
538.9
 24
242.69864124051
 34
0.0
100
AcDbRotatedDimension
1001
ACAD
1000
DSTYLE
1002
{
1070
   270
1070
     2
1070
     6
1000
EX_BNORM
1070
     7
1000
EX_BNORM
1070
    41
1040
9.0
1070
    42
1040
4.5
1070
    44
1040
4.5
1070
    73
1070
     0
1070
    74
1070
     0
1070
    75
1070
     0
1070
    76
1070
     0
1070
    77
1070
     1
1070
    78
1070
     8
1070
   140
1040
9.3543312
1070
   147
1040
0.0
1070
   173
1070
     1
1070
   176
1070
     4
1070
   177
1070
     4
1070
   178
1070
     7
1070
   271
1070
     1
1070
   277
1070
     2
1070
   279
1070
     2
1070
   280
1070
     0
1070
   287
1070
     5
1070
   340
1005
360
1002
}
  0
LINE
  5
3BC
330
1F
100
AcDbEntity
  8
LAY-255
  6
CONTINUOUS
 62
     7
100
AcDbLine
 10
1155.0
 20
66.0
 30
0.0
 11
855.0
 21
66.0
 31
0.0
  0
LINE
  5
3BD
330
1F
100
AcDbEntity
  8
LAY-255
  6
CONTINUOUS
 62
     7
100
AcDbLine
 10
866.4000000000001
 20
48.0
 30
0.0
 11
890.4000000000001
 21
63.0
 31
0.0
  0
LINE
  5
3BE
330
1F
100
AcDbEntity
  8
LAY-255
  6
CONTINUOUS
 62
     7
100
AcDbLine
 10
890.4000000000001
 20
63.0
 30
0.0
 11
914.4000000000001
 21
48.0
 31
0.0
  0
LINE
  5
3BF
330
1F
100
AcDbEntity
  8
LAY-255
  6
CONTINUOUS
 62
     7
100
AcDbLine
 10
914.4000000000001
 20
48.0
 30
0.0
 11
890.4000000000001
 21
33.0
 31
0.0
  0
LINE
  5
3C0
330
1F
100
AcDbEntity
  8
LAY-255
  6
CONTINUOUS
 62
     7
100
AcDbLine
 10
890.4000000000001
 20
33.0
 30
0.0
 11
866.4000000000001
 21
48.0
 31
0.0
  0
LINE
  5
3C1
330
1F
100
AcDbEntity
  8
LAY-255
  6
CONTINUOUS
 62
     7
100
AcDbLine
 10
15.0
 20
30.0
 30
0.0
 11
1155.0
 21
30.0
 31
0.0
  0
LINE
  5
3C2
330
1F
100
AcDbEntity
  8
LAY-255
  6
CONTINUOUS
 62
     7
100
AcDbLine
 10
15.0
 20
840.0
 30
0.0
 11
1155.0
 21
840.0
 31
0.0
  0
LINE
  5
3C3
330
1F
100
AcDbEntity
  8
LAY-255
  6
CONTINUOUS
 62
     7
100
AcDbLine
 10
15.0
 20
30.0
 30
0.0
 11
15.0
 21
840.0
 31
0.0
  0
LINE
  5
3C4
330
1F
100
AcDbEntity
  8
LAY-255
  6
CONTINUOUS
 62
     4
100
AcDbLine
 10
855.0
 20
84.0
 30
0.0
 11
1155.0
 21
84.0
 31
0.0
  0
LINE
  5
3C5
330
1F
100
AcDbEntity
  8
LAY-255
  6
CONTINUOUS
 62
     4
100
AcDbLine
 10
1005.0
 20
84.0
 30
0.0
 11
1005.0
 21
66.0
 31
0.0
  0
LINE
  5
3C6
330
1F
100
AcDbEntity
  8
LAY-255
  6
CONTINUOUS
 62
     7
100
AcDbLine
 10
1155.0
 20
30.0
 30
0.0
 11
1155.0
 21
840.0
 31
0.0
  0
LINE
  5
3C7
330
1F
100
AcDbEntity
  8
LAY-255
  6
CONTINUOUS
 62
     7
100
AcDbLine
 10
855.0
 20
30.0
 30
0.0
 11
855.0
 21
216.0
 31
0.0
  0
LINE
  5
3C8
330
1F
100
AcDbEntity
  8
LAY-255
  6
CONTINUOUS
 62
     7
100
AcDbLine
 10
1155.0
 20
216.0
 30
0.0
 11
855.0
 21
216.0
 31
0.0
  0
LINE
  5
3C9
330
1F
100
AcDbEntity
  8
LAY-255
  6
CONTINUOUS
 62
     4
100
AcDbLine
 10
1149.0
 20
180.0
 30
0.0
 11
861.0
 21
180.0
 31
0.0
  0
LINE
  5
3CA
330
1F
100
AcDbEntity
  8
LAY-255
  6
CONTINUOUS
 62
     4
100
AcDbLine
 10
1149.0
 20
198.0
 30
0.0
 11
861.0
 21
198.0
 31
0.0
  0
POINT
  5
3CB
330
1F
100
AcDbEntity
  8
LAY-255
  6
CONTINUOUS
 62
     7
100
AcDbPoint
 10
900.0
 20
183.0
 30
0.0
  0
POINT
  5
3CC
330
1F
100
AcDbEntity
  8
LAY-255
  6
CONTINUOUS
 62
     7
100
AcDbPoint
 10
900.0
 20
201.0
 30
0.0
  0
TEXT
  5
3CD
330
1F
100
AcDbEntity
  8
LAY-255
  6
CONTINUOUS
 62
     7
100
AcDbText
 10
924.415136826172
 20
46.63125
 30
0.0
 40
15.46875
  1
福西鋳物株式会社
 41
1.342692141742901
  7
EXCADSTD
100
AcDbText
  0
TEXT
  5
3CE
330
1F
100
AcDbEntity
  8
LAY-255
  6
CONTINUOUS
 62
     7
100
AcDbText
 10
925.528125
 20
35.94375
 30
0.0
 40
5.15625
  1
ＦＵＫＵＮＩＳＨＩ
 41
1.204799226045263
  7
EXCADSTD
100
AcDbText
  0
TEXT
  5
3CF
330
1F
100
AcDbEntity
  8
LAY-255
  6
CONTINUOUS
 62
     7
100
AcDbText
 10
998.1575892857143
 20
35.94375
 30
0.0
 40
5.15625
  1
ＦＯＵＮＤＲＹ
 41
1.243252752978497
  7
EXCADSTD
100
AcDbText
  0
TEXT
  5
3D0
330
1F
100
AcDbEntity
  8
LAY-255
  6
CONTINUOUS
 62
     7
100
AcDbText
 10
1055.983774651442
 20
35.94375
 30
0.0
 40
5.15625
  1
ＣＯ.,ＬＴＤ.
 41
1.243831271314936
  7
EXCADSTD
100
AcDbText
  0
TEXT
  5
3D1
330
1F
100
AcDbEntity
  8
LAY-255
  6
CONTINUOUS
 62
     7
100
AcDbText
 10
882.1031250000001
 20
41.15625
 30
0.0
 40
15.46875
  1
S
 41
0.7582677563636363
  7
EXCADSTD
100
AcDbText
  0
TEXT
  5
3D2
330
1F
100
AcDbEntity
  8
LAY-255
  6
CONTINUOUS
 62
     7
100
AcDbText
 10
891.3140625000001
 20
41.24823113208
 30
0.0
 40
15.46875
  1
F
 41
0.7440945272727273
  7
EXCADSTD
100
AcDbText
  0
TEXT
  5
3D3
330
1F
100
AcDbEntity
  8
LAY-255
  6
CONTINUOUS
 62
     7
100
AcDbText
 10
1011.31640625
 20
73.26562499999997
 30
0.0
 40
7.734375
  1
縮尺
 41
1.080708718181818
  7
EXCADSTD
100
AcDbText
  0
TEXT
  5
3D4
330
1F
100
AcDbEntity
  8
LAY-255
  6
CONTINUOUS
 62
     7
100
AcDbText
 10
861.45703125
 20
73.26562499999997
 30
0.0
 40
7.734375
  1
作成日
 41
1.000629973818182
  7
EXCADSTD
100
AcDbText
  0
TEXT
  5
3D5
330
1F
100
AcDbEntity
  8
LAY-255
  6
CONTINUOUS
 62
     7
100
AcDbText
 10
861.796875
 20
184.6875
 30
0.0
 40
10.3125
  1
型式
 41
1.056348480681818
  7
EXCADSTD
100
AcDbText
  0
TEXT
  5
3D6
330
1F
100
AcDbEntity
  8
LAY-255
  6
CONTINUOUS
 62
     7
100
AcDbText
 10
862.265625
 20
202.6875
 30
0.0
 40
10.3125
  1
品名
 41
0.978838634090909
  7
EXCADSTD
100
AcDbText
  0
TEXT
  5
3D7
330
1F
100
AcDbEntity
  8
LAY-255
  6
CONTINUOUS
 62
     7
100
AcDbText
 10
900.75
 20
202.6875
 30
0.0
 40
10.3125
  1
ルーフドレイン
 41
1.021169538599106
  7
EXCADSTD
100
AcDbText
  0
TEXT
  5
3D8
330
1F
100
AcDbEntity
  8
LAY-255
  6
CONTINUOUS
 62
     7
100
AcDbText
 10
867.5625
 20
106.6875
 30
0.0
 40
10.3125
  1
施工：打込用
 41
1.018700840909091
  7
EXCADSTD
100
AcDbText
  0
TEXT
  5
3D9
330
1F
100
AcDbEntity
  8
LAY-255
  6
CONTINUOUS
 62
     7
100
AcDbText
 10
867.421875
 20
136.6875
 30
0.0
 40
10.3125
  1
材質：ステンレス鋼鋳鋼
 41
1.017696295032802
  7
EXCADSTD
100
AcDbText
  0
TEXT
  5
3DA
330
1F
100
AcDbEntity
  8
LAY-255
  6
CONTINUOUS
 62
     7
100
AcDbText
 10
867.0
 20
151.6875000000001
 30
0.0
 40
10.3125
  1
      露出アスファルト防水兼用
 41
0.894274438169777
  7
EXCADSTD
100
AcDbText
  0
TEXT
  5
3DB
330
1F
100
AcDbEntity
  8
LAY-255
  6
CONTINUOUS
 62
     7
100
AcDbText
 10
868.125
 20
166.6875000000001
 30
0.0
 40
10.3125
  1
防水：アスファルト・シート・
 41
0.9866967752199413
  7
EXCADSTD
100
AcDbText
  0
TEXT
  5
3DC
330
1F
100
AcDbEntity
  8
LAY-255
  6
CONTINUOUS
 62
     7
100
AcDbText
 10
867.65625
 20
91.68750000000003
 30
0.0
 40
10.3125
  1
接続：管用テーパねじ
 41
1.013063761157025
  7
EXCADSTD
100
AcDbText
  0
TEXT
  5
3DD
330
1F
100
AcDbEntity
  8
LAY-255
  6
CONTINUOUS
 62
     7
100
AcDbText
 10
867.703125
 20
121.6875
 30
0.0
 40
10.3125
  1
用途：屋上・庇・バルコニ－用
 41
1.011557076246334
  7
EXCADSTD
100
AcDbText
  0
TEXT
  5
3DE
330
1F
100
AcDbEntity
  8
LAY-255
  6
CONTINUOUS
 62
     7
100
AcDbText
 10
902.25
 20
184.6875
 30
0.0
 40
10.3125
  1
ＳＦ－ＳＵＳＧ－３０７５型
 41
1.004758697075099
  7
EXCADSTD
100
AcDbText
  0
TEXT
  5
3DF
330
1F
100
AcDbEntity
  8
LAY-255
  6
CONTINUOUS
 62
     7
100
AcDbText
 10
1044.84375
 20
70.68749999999997
 30
0.0
 40
10.3125
  1
１：３
 41
0.8844094952727272
  7
EXCADSTD
100
AcDbText
  0
TEXT
  5
3E0
330
1F
100
AcDbEntity
  8
LAY-255
  6
CONTINUOUS
 62
     7
100
AcDbText
 10
902.671875
 20
70.68749999999997
 30
0.0
 40
10.3125
  1
０７／０１／０５
 41
0.9779528072727272
  7
EXCADSTD
100
AcDbText
  0
ENDSEC
  0
SECTION
  2
OBJECTS
  0
DICTIONARY
  5
C
330
0
100
AcDbDictionary
  3
ACAD_GROUP
350
D
  3
ACAD_LAYOUT
350
1A
  3
ACAD_MATERIAL
350
43
  3
ACAD_MLEADERSTYLE
350
6B
  3
ACAD_MLINESTYLE
350
17
  3
ACAD_PLOTSETTINGS
350
19
  3
ACAD_SCALELIST
350
47
  3
ACAD_VISUALSTYLE
350
2A
  3
ACDBHEADERROUNDTRIPXREC
350
3E1
  3
ACDBVARIABLEDICTIONARY
350
402
  0
DICTIONARY
  5
40D
330
8
100
AcDbDictionary
280
     1
  3
ACAD_XREC_ROUNDTRIP
360
40E
  0
DICTIONARY
  5
D
102
{ACAD_REACTORS
330
C
102
}
330
C
100
AcDbDictionary
  0
DICTIONARY
  5
1A
102
{ACAD_REACTORS
330
C
102
}
330
C
100
AcDbDictionary
  0
DICTIONARY
  5
43
102
{ACAD_REACTORS
330
C
102
}
330
C
100
AcDbDictionary
  3
BYBLOCK
350
45
  3
BYLAYER
350
44
  3
GLOBAL
350
46
  0
DICTIONARY
  5
6B
102
{ACAD_REACTORS
330
C
102
}
330
C
100
AcDbDictionary
  3
STANDARD
350
6C
  0
DICTIONARY
  5
17
102
{ACAD_REACTORS
330
C
102
}
330
C
100
AcDbDictionary
  3
STANDARD
350
18
  0
DICTIONARY
  5
19
102
{ACAD_REACTORS
330
C
102
}
330
C
100
AcDbDictionary
  0
DICTIONARY
  5
47
102
{ACAD_REACTORS
330
C
102
}
330
C
100
AcDbDictionary
  3
A0
350
48
  3
A1
350
49
  3
A2
350
4A
  3
A3
350
4B
  3
A4
350
4C
  3
A5
350
4D
  3
A6
350
4E
  3
A7
350
4F
  3
A8
350
50
  3
A9
350
51
  3
B0
350
52
  3
B1
350
53
  3
B2
350
54
  3
B3
350
55
  3
B4
350
56
  3
B5
350
57
  3
B6
350
58
  3
B7
350
59
  3
B8
350
5A
  3
B9
350
5B
  3
C0
350
5C
  3
C1
350
5D
  3
C2
350
5E
  3
C3
350
5F
  3
C4
350
60
  3
C5
350
61
  3
C6
350
62
  3
C7
350
63
  3
C8
350
64
  3
C9
350
65
  3
D0
350
66
  3
D1
350
67
  3
D2
350
68
  0
DICTIONARY
  5
2A
102
{ACAD_REACTORS
330
C
102
}
330
C
100
AcDbDictionary
  3
2DWIREFRAME
350
2F
  3
BASIC
350
32
  3
BRIGHTEN
350
36
  3
COLORCHANGE
350
3A
  3
CONCEPTUAL
350
34
  3
DIM
350
35
  3
EDGECOLOROFF
350
3D
  3
FACEPATTERN
350
39
  3
FLAT
350
2B
  3
FLATWITHEDGES
350
2C
  3
GOURAUD
350
2D
  3
GOURAUDWITHEDGES
350
2E
  3
HIDDEN
350
31
  3
JITTEROFF
350
3B
  3
LINEPATTERN
350
38
  3
OVERHANGOFF
350
3C
  3
REALISTIC
350
33
  3
SHADED
350
42
  3
SHADED_WITH_EDGES
350
41
  3
SHADES_OF_GRAY
350
3E
  3
SKETCHY
350
3F
  3
THICKEN
350
37
  3
WIREFRAME
350
30
  3
X-RAY
350
40
  0
DICTIONARY
  5
3E1
102
{ACAD_REACTORS
330
C
102
}
330
C
100
AcDbDictionary
  3
CEPSNID
350
3EB
  3
CEPSNTYPE
350
3EA
  3
DIMSTYLEDATA
350
401
  3
FINGERPRINTGUID
350
3EC
  3
HYPERLINKBASE
350
3E4
  3
INSUNITS
350
3E9
  3
LAYOUTDICT
350
3E6
  3
LWETCUNION
350
3E8
  3
PLOTSETDICT
350
3E7
  3
PSVPSCALE
350
3EE
  3
PUCSBASE
350
3F1
  3
PUCSORGBACK
350
3F7
  3
PUCSORGBOTTOM
350
3F3
  3
PUCSORGFRONT
350
3F6
  3
PUCSORGLEFT
350
3F4
  3
PUCSORGRIGHT
350
3F5
  3
PUCSORGTOP
350
3F2
  3
PUCSORTHOREF
350
3EF
  3
PUCSORTHOVIEW
350
3F0
  3
STYLESHEET
350
3E5
  3
TSTACKALIGN
350
3E2
  3
TSTACKSIZE
350
3E3
  3
UCSBASE
350
3FA
  3
UCSORGBACK
350
400
  3
UCSORGBOTTOM
350
3FC
  3
UCSORGFRONT
350
3FF
  3
UCSORGLEFT
350
3FD
  3
UCSORGRIGHT
350
3FE
  3
UCSORGTOP
350
3FB
  3
UCSORTHOREF
350
3F8
  3
UCSORTHOVIEW
350
3F9
  3
VERSIONGUID
350
3ED
  0
DICTIONARY
  5
402
102
{ACAD_REACTORS
330
C
102
}
330
C
100
AcDbDictionary
  3
CANNOSCALE
350
40F
  3
CENTEREXE
350
409
  3
CENTERLTYPEFILE
350
40A
  3
CMLEADERSTYLE
350
404
  3
CTABLESTYLE
350
403
  3
DIMASSOC
350
40B
  3
HIDETEXT
350
40C
  3
MSLTSCALE
350
410
  3
PSOLHEIGHT
350
406
  3
PSOLWIDTH
350
405
  0
XRECORD
  5
40E
102
{ACAD_REACTORS
330
40D
102
}
330
40D
100
AcDbXrecord
102
VTR_0.000_0.000_1.000_1.000_VISUALSTYLE
340
2F
102
VTR_0.000_0.000_1.000_1.000_GRIDDISPLAY
 70
     3
102
VTR_0.000_0.000_1.000_1.000_GRIDMAJOR
 70
     5
102
VTR_0.000_0.000_1.000_1.000_DEFAULTLIGHTING
280
     1
102
VTR_0.000_0.000_1.000_1.000_DEFAULTLIGHTINGTYPE
 70
     1
102
VTR_0.000_0.000_1.000_1.000_BRIGHTNESS
141
0.0
102
VTR_0.000_0.000_1.000_1.000_CONTRAST
142
0.0
  0
MATERIAL
  5
45
102
{ACAD_REACTORS
330
43
102
}
102
{ACAD_XDICTIONARY
360
413
102
}
330
43
100
AcDbMaterial
  1
BYBLOCK
  0
MATERIAL
  5
44
102
{ACAD_REACTORS
330
43
102
}
102
{ACAD_XDICTIONARY
360
411
102
}
330
43
100
AcDbMaterial
  1
BYLAYER
  0
MATERIAL
  5
46
102
{ACAD_REACTORS
330
43
102
}
102
{ACAD_XDICTIONARY
360
415
102
}
330
43
100
AcDbMaterial
  1
GLOBAL
  0
ACAD_PROXY_OBJECT
  5
6C
102
{ACAD_REACTORS
330
6B
102
}
330
6B
100
AcDbProxyObject
 90
      499
 91
      505
 93
      610
310
40901902A4063FBFFFFFE0000000000000020400000000000020404214DD185B99185C990000000000000104090141901A00000000000004100000000000000041025764000000000000039000
340
14
340
0
340
11
340
0
 94
        0
1001
ACAD_MLEADERVER
1070
     2
  0
MLINESTYLE
  5
18
102
{ACAD_REACTORS
330
17
102
}
330
17
100
AcDbMlineStyle
  2
Standard
 70
     0
  3

 62
   256
 51
90.0
 52
90.0
 71
     2
 49
0.5
 62
   256
  6
BYLAYER
 49
-0.5
 62
   256
  6
BYLAYER
  0
ACAD_PROXY_OBJECT
  5
48
102
{ACAD_REACTORS
330
47
102
}
330
47
100
AcDbProxyObject
 90
      499
 91
      503
 93
       41
310
903313A31580
  0
ACAD_PROXY_OBJECT
  5
49
102
{ACAD_REACTORS
330
47
102
}
330
47
100
AcDbProxyObject
 90
      499
 91
      503
 93
      105
310
903313A324000000000000004000
  0
ACAD_PROXY_OBJECT
  5
4A
102
{ACAD_REACTORS
330
47
102
}
330
47
100
AcDbProxyObject
 90
      499
 91
      503
 93
      105
310
903313A344000000000000104000
  0
ACAD_PROXY_OBJECT
  5
4B
102
{ACAD_REACTORS
330
47
102
}
330
47
100
AcDbProxyObject
 90
      499
 91
      503
 93
      105
310
903313A354000000000000144000
  0
ACAD_PROXY_OBJECT
  5
4C
102
{ACAD_REACTORS
330
47
102
}
330
47
100
AcDbProxyObject
 90
      499
 91
      503
 93
      105
310
903313A384000000000000204000
  0
ACAD_PROXY_OBJECT
  5
4D
102
{ACAD_REACTORS
330
47
102
}
330
47
100
AcDbProxyObject
 90
      499
 91
      503
 93
      113
310
904313A31304000000000000244000
  0
ACAD_PROXY_OBJECT
  5
4E
102
{ACAD_REACTORS
330
47
102
}
330
47
100
AcDbProxyObject
 90
      499
 91
      503
 93
      113
310
904313A31364000000000000304000
  0
ACAD_PROXY_OBJECT
  5
4F
102
{ACAD_REACTORS
330
47
102
}
330
47
100
AcDbProxyObject
 90
      499
 91
      503
 93
      113
310
904313A32304000000000000344000
  0
ACAD_PROXY_OBJECT
  5
50
102
{ACAD_REACTORS
330
47
102
}
330
47
100
AcDbProxyObject
 90
      499
 91
      503
 93
      113
310
904313A333040000000000003E4000
  0
ACAD_PROXY_OBJECT
  5
51
102
{ACAD_REACTORS
330
47
102
}
330
47
100
AcDbProxyObject
 90
      499
 91
      503
 93
      113
310
904313A34304000000000000444000
  0
ACAD_PROXY_OBJECT
  5
52
102
{ACAD_REACTORS
330
47
102
}
330
47
100
AcDbProxyObject
 90
      499
 91
      503
 93
      113
310
904313A35304000000000000494000
  0
ACAD_PROXY_OBJECT
  5
53
102
{ACAD_REACTORS
330
47
102
}
330
47
100
AcDbProxyObject
 90
      499
 91
      503
 93
      121
310
905313A3130304000000000000594000
  0
ACAD_PROXY_OBJECT
  5
54
102
{ACAD_REACTORS
330
47
102
}
330
47
100
AcDbProxyObject
 90
      499
 91
      503
 93
      105
310
903323A310000000000000010100
  0
ACAD_PROXY_OBJECT
  5
55
102
{ACAD_REACTORS
330
47
102
}
330
47
100
AcDbProxyObject
 90
      499
 91
      503
 93
      105
310
903343A310000000000000410100
  0
ACAD_PROXY_OBJECT
  5
56
102
{ACAD_REACTORS
330
47
102
}
330
47
100
AcDbProxyObject
 90
      499
 91
      503
 93
      105
310
903383A310000000000000810100
  0
ACAD_PROXY_OBJECT
  5
57
102
{ACAD_REACTORS
330
47
102
}
330
47
100
AcDbProxyObject
 90
      499
 91
      503
 93
      113
310
90431303A310000000000000910100
  0
ACAD_PROXY_OBJECT
  5
58
102
{ACAD_REACTORS
330
47
102
}
330
47
100
AcDbProxyObject
 90
      499
 91
      503
 93
      121
310
9053130303A310000000000001650100
  0
ACAD_PROXY_OBJECT
  5
59
102
{ACAD_REACTORS
330
47
102
}
330
47
100
AcDbProxyObject
 90
      499
 91
      503
 93
      257
310
90E312F31323822203D2031272D3022000000000000200FC000000000000284000
  0
ACAD_PROXY_OBJECT
  5
5A
102
{ACAD_REACTORS
330
47
102
}
330
47
100
AcDbProxyObject
 90
      499
 91
      503
 93
      249
310
90D312F363422203D2031272D3022000000000000240FC000000000000284000
  0
ACAD_PROXY_OBJECT
  5
5B
102
{ACAD_REACTORS
330
47
102
}
330
47
100
AcDbProxyObject
 90
      499
 91
      503
 93
      249
310
90D312F333222203D2031272D3022000000000000280FC000000000000284000
  0
ACAD_PROXY_OBJECT
  5
5C
102
{ACAD_REACTORS
330
47
102
}
330
47
100
AcDbProxyObject
 90
      499
 91
      503
 93
      249
310
90D312F313622203D2031272D30220000000000002C0FC000000000000284000
  0
ACAD_PROXY_OBJECT
  5
5D
102
{ACAD_REACTORS
330
47
102
}
330
47
100
AcDbProxyObject
 90
      499
 91
      503
 93
      249
310
90D332F333222203D2031272D30220000000000002E0FC000000000000284000
  0
ACAD_PROXY_OBJECT
  5
5E
102
{ACAD_REACTORS
330
47
102
}
330
47
100
AcDbProxyObject
 90
      499
 91
      503
 93
      241
310
90C312F3822203D2031272D3022000000000000300FC000000000000284000
  0
ACAD_PROXY_OBJECT
  5
5F
102
{ACAD_REACTORS
330
47
102
}
330
47
100
AcDbProxyObject
 90
      499
 91
      503
 93
      249
310
90D332F313622203D2031272D3022000000000000320FC000000000000284000
  0
ACAD_PROXY_OBJECT
  5
60
102
{ACAD_REACTORS
330
47
102
}
330
47
100
AcDbProxyObject
 90
      499
 91
      503
 93
      241
310
90C312F3422203D2031272D3022000000000000340FC000000000000284000
  0
ACAD_PROXY_OBJECT
  5
61
102
{ACAD_REACTORS
330
47
102
}
330
47
100
AcDbProxyObject
 90
      499
 91
      503
 93
      241
310
90C332F3822203D2031272D3022000000000000360FC000000000000284000
  0
ACAD_PROXY_OBJECT
  5
62
102
{ACAD_REACTORS
330
47
102
}
330
47
100
AcDbProxyObject
 90
      499
 91
      503
 93
      241
310
90C312F3222203D2031272D3022000000000000380FC000000000000284000
  0
ACAD_PROXY_OBJECT
  5
63
102
{ACAD_REACTORS
330
47
102
}
330
47
100
AcDbProxyObject
 90
      499
 91
      503
 93
      241
310
90C332F3422203D2031272D30220000000000003A0FC000000000000284000
  0
ACAD_PROXY_OBJECT
  5
64
102
{ACAD_REACTORS
330
47
102
}
330
47
100
AcDbProxyObject
 90
      499
 91
      503
 93
      161
310
90A3122203D2031272D30224000000000000284000
  0
ACAD_PROXY_OBJECT
  5
65
102
{ACAD_REACTORS
330
47
102
}
330
47
100
AcDbProxyObject
 90
      499
 91
      503
 93
      257
310
90E312D312F3222203D2031272D30220000000000003E0FC000000000000284000
  0
ACAD_PROXY_OBJECT
  5
66
102
{ACAD_REACTORS
330
47
102
}
330
47
100
AcDbProxyObject
 90
      499
 91
      503
 93
      225
310
90A3322203D2031272D302200000000000002100000000000000284000
  0
ACAD_PROXY_OBJECT
  5
67
102
{ACAD_REACTORS
330
47
102
}
330
47
100
AcDbProxyObject
 90
      499
 91
      503
 93
      225
310
90A3622203D2031272D302200000000000006100000000000000284000
  0
ACAD_PROXY_OBJECT
  5
68
102
{ACAD_REACTORS
330
47
102
}
330
47
100
AcDbProxyObject
 90
      499
 91
      503
 93
      249
310
90D31272D3022203D2031272D30220000000000000A100000000000000284000
  0
ACAD_PROXY_OBJECT
  5
2F
102
{ACAD_REACTORS
330
2A
102
}
330
2A
100
AcDbProxyObject
 90
      499
 91
      501
 93
      436
310
42CC9915DA5C99599C985B595049028333333333333E33F0000000000000F90107901411070040501600405405064090741402480A0340
1001
ACAD
1000
AcDbSavedByObjectVersion
1070
     0
  0
ACAD_PROXY_OBJECT
  5
32
102
{ACAD_REACTORS
330
2A
102
}
330
2A
100
AcDbProxyObject
 90
      499
 91
      501
 93
      388
310
4150985CDA58D07406404333333333333E33F0000000000000F90107A41107004050150841D405064090741402480A0350
1001
ACAD
1000
AcDbSavedByObjectVersion
1070
     0
  0
ACAD_PROXY_OBJECT
  5
36
102
{ACAD_REACTORS
330
2A
102
}
330
2A
100
AcDbProxyObject
 90
      499
 91
      501
 93
      428
310
42109C9A59DA1D195B90C409028333333333333E33F0000000000000F9010790141107004050150841D405064090741402480A029950
1001
ACAD
1000
AcDbSavedByObjectVersion
1070
     0
  0
ACAD_PROXY_OBJECT
  5
3A
102
{ACAD_REACTORS
330
2A
102
}
330
2A
100
AcDbProxyObject
 90
      499
 91
      501
 93
      452
310
42D0DBDB1BDC90DA185B99D95104090240C333333333333E33F0000000000000F90108901411070040501508421405064090741402480A0350
1001
ACAD
1000
AcDbSavedByObjectVersion
1070
     0
  0
ACAD_PROXY_OBJECT
  5
34
102
{ACAD_REACTORS
330
2A
102
}
330
2A
100
AcDbProxyObject
 90
      499
 91
      501
 93
      500
310
4290DBDB98D95C1D1D585B10940D028333333333333E33F0000000000000F90107902409070040501000000000018199010841D405064090740C02480A0340
1001
ACAD
1000
AcDbSavedByObjectVersion
1070
     0
  0
ACAD_PROXY_OBJECT
  5
35
102
{ACAD_REACTORS
330
2A
102
}
330
2A
100
AcDbProxyObject
 90
      499
 91
      501
 93
      412
310
40D11A5B50B409028333333333333E33F0000000000000F9010790141107004050150841D405064090741402480A02677FFFFFD0
1001
ACAD
1000
AcDbSavedByObjectVersion
1070
     0
  0
ACAD_PROXY_OBJECT
  5
3D
102
{ACAD_REACTORS
330
2A
102
}
330
2A
100
AcDbProxyObject
 90
      499
 91
      501
 93
      452
310
43115919D950DBDB1BDC93D999916409028333333333333E33F0000000000000F9010790141107004050150841D405064090741402480A0350
1001
ACAD
1000
AcDbSavedByObjectVersion
1070
     0
  0
ACAD_PROXY_OBJECT
  5
39
102
{ACAD_REACTORS
330
2A
102
}
330
2A
100
AcDbProxyObject
 90
      499
 91
      501
 93
      444
310
42D19858D95C185D1D195C9B90F409028333333333333E33F0000000000000F9010790141107004050150841D405064090741402480A0350
1001
ACAD
1000
AcDbSavedByObjectVersion
1070
     0
  0
ACAD_PROXY_OBJECT
  5
2B
102
{ACAD_REACTORS
330
2A
102
}
330
2A
100
AcDbProxyObject
 90
      499
 91
      501
 93
      380
310
41119B185D240901404333333333333E33F0000000000000F9010740A907004050150841D405064090741402480A1B50
1001
ACAD
1000
AcDbSavedByObjectVersion
1070
     0
  0
ACAD_PROXY_OBJECT
  5
2C
102
{ACAD_REACTORS
330
2A
102
}
330
2A
100
AcDbProxyObject
 90
      499
 91
      501
 93
      468
310
43519B185D15DA5D1A115919D95CD0140901404333333333333E33F0000000000000F90107409019070040501600405405064090741402480A1B50
1001
ACAD
1000
AcDbSavedByObjectVersion
1070
     0
  0
ACAD_PROXY_OBJECT
  5
2D
102
{ACAD_REACTORS
330
2A
102
}
330
2A
100
AcDbProxyObject
 90
      499
 91
      501
 93
      404
310
41D1DBDD5C985D5910240902404333333333333E33F0000000000000F9010740A9070040501641D405064090741402480A1B50
1001
ACAD
1000
AcDbSavedByObjectVersion
1070
     0
  0
ACAD_PROXY_OBJECT
  5
2E
102
{ACAD_REACTORS
330
2A
102
}
330
2A
100
AcDbProxyObject
 90
      499
 91
      501
 93
      492
310
4411DBDD5C985D5915DA5D1A115919D95CD0340902404333333333333E33F0000000000000F90107409019070040501600405405064090741402480A1B50
1001
ACAD
1000
AcDbSavedByObjectVersion
1070
     0
  0
ACAD_PROXY_OBJECT
  5
31
102
{ACAD_REACTORS
330
2A
102
}
330
2A
100
AcDbProxyObject
 90
      499
 91
      501
 93
      476
310
41921A5919195B90640502408333333333333E33F0000000000000F901079024090700405020000000000001110200405405064090740C02480A0340
1001
ACAD
1000
AcDbSavedByObjectVersion
1070
     0
  0
ACAD_PROXY_OBJECT
  5
3B
102
{ACAD_REACTORS
330
2A
102
}
330
2A
100
AcDbProxyObject
 90
      499
 91
      501
 93
      428
310
42529A5D1D195C93D999914409028333333333333E33F0000000000000F9010790141107004050150A41D405064090741402480A0350
1001
ACAD
1000
AcDbSavedByObjectVersion
1070
     0
  0
ACAD_PROXY_OBJECT
  5
38
102
{ACAD_REACTORS
330
2A
102
}
330
2A
100
AcDbProxyObject
 90
      499
 91
      501
 93
      444
310
42D31A5B995C185D1D195C9B90E409028333333333333E33F0000000000000F9010790141107004050750841D405064090741402483A0350
1001
ACAD
1000
AcDbSavedByObjectVersion
1070
     0
  0
ACAD_PROXY_OBJECT
  5
3C
102
{ACAD_REACTORS
330
2A
102
}
330
2A
100
AcDbProxyObject
 90
      499
 91
      501
 93
      444
310
42D3DD995C9A185B99D3D999915409028333333333333E33F0000000000000F9010790141107004050150941D405064090741402480A0350
1001
ACAD
1000
AcDbSavedByObjectVersion
1070
     0
  0
ACAD_PROXY_OBJECT
  5
33
102
{ACAD_REACTORS
330
2A
102
}
330
2A
100
AcDbProxyObject
 90
      499
 91
      501
 93
      428
310
425499585B1A5CDD1A58D08409038333333333333E33F0000000000000F9010740A907004050150800405405064090740C02480A1B40
1001
ACAD
1000
AcDbSavedByObjectVersion
1070
     0
  0
ACAD_PROXY_OBJECT
  5
42
102
{ACAD_REACTORS
330
2A
102
}
330
2A
100
AcDbProxyObject
 90
      499
 91
      501
 93
      420
310
4194DA1859195911B40902404333333333333E33F0000000000000F9010740A41107004050150800405405064090840C02480A0B40
1001
ACAD
1000
AcDbSavedByObjectVersion
1070
     0
  0
ACAD_PROXY_OBJECT
  5
41
102
{ACAD_REACTORS
330
2A
102
}
330
2A
100
AcDbProxyObject
 90
      499
 91
      501
 93
      516
310
4454DA18591959081DDA5D1A08195919D95CD1A40902404333333333333E33F0000000000000F901074090142907004050250800405405064090740C02480A0B40
1001
ACAD
1000
AcDbSavedByObjectVersion
1070
     0
  0
ACAD_PROXY_OBJECT
  5
3E
102
{ACAD_REACTORS
330
2A
102
}
330
2A
100
AcDbProxyObject
 90
      499
 91
      501
 93
      532
310
4394DA1859195CC81BD98811DC985E5174090240C333333333333E33F0000000000000F901079024090741D01000000000000111010841D405064090740C02480A0340
1001
ACAD
1000
AcDbSavedByObjectVersion
1070
     0
  0
ACAD_PROXY_OBJECT
  5
3F
102
{ACAD_REACTORS
330
2A
102
}
330
2A
100
AcDbProxyObject
 90
      499
 91
      501
 93
      476
310
41D4DAD95D18DA1E51840502408333333333333E33F0000000000000F901079024090741D01000000000000111010B41D405064090741802480A0340
1001
ACAD
1000
AcDbSavedByObjectVersion
1070
     0
  0
ACAD_PROXY_OBJECT
  5
37
102
{ACAD_REACTORS
330
2A
102
}
330
2A
100
AcDbProxyObject
 90
      499
 91
      501
 93
      412
310
41D51A1A58DAD95B90D409028333333333333E33F0000000000000F9010790141107004050150C41D405064090741402480A0350
1001
ACAD
1000
AcDbSavedByObjectVersion
1070
     0
  0
ACAD_PROXY_OBJECT
  5
30
102
{ACAD_REACTORS
330
2A
102
}
330
2A
100
AcDbProxyObject
 90
      499
 91
      501
 93
      420
310
4255DA5C99599C985B595059028333333333333E33F0000000000000F90107901411070040501600405405064090740C02480A0340
1001
ACAD
1000
AcDbSavedByObjectVersion
1070
     0
  0
ACAD_PROXY_OBJECT
  5
40
102
{ACAD_REACTORS
330
2A
102
}
330
2A
100
AcDbProxyObject
 90
      499
 91
      501
 93
      404
310
41560B54985E51940902404000000000000E03F0000000000000F9010740501907004050150841D405064090740C02480A1B40
1001
ACAD
1000
AcDbSavedByObjectVersion
1070
     0
  0
XRECORD
  5
3EB
102
{ACAD_REACTORS
330
3E1
102
}
330
3E1
100
AcDbXrecord
340
0
  0
XRECORD
  5
3EA
102
{ACAD_REACTORS
330
3E1
102
}
330
3E1
100
AcDbXrecord
 90
        0
  0
XRECORD
  5
401
102
{ACAD_REACTORS
330
3E1
102
}
330
3E1
100
AcDbXrecord
1000
DSTYLE
1002
{
1070
   340
340
11
1002
}
  0
XRECORD
  5
3EC
102
{ACAD_REACTORS
330
3E1
102
}
330
3E1
100
AcDbXrecord
  1
{ff141ff8-158e-4fac-a0b5-c36c9a4cc29c}
  0
XRECORD
  5
3E4
102
{ACAD_REACTORS
330
3E1
102
}
330
3E1
100
AcDbXrecord
  1

  0
XRECORD
  5
3E9
102
{ACAD_REACTORS
330
3E1
102
}
330
3E1
100
AcDbXrecord
 90
        4
  0
XRECORD
  5
3E6
102
{ACAD_REACTORS
330
3E1
102
}
330
3E1
100
AcDbXrecord
340
1A
  0
XRECORD
  5
3E8
102
{ACAD_REACTORS
330
3E1
102
}
330
3E1
100
AcDbXrecord
 90
    10781
  0
XRECORD
  5
3E7
102
{ACAD_REACTORS
330
3E1
102
}
330
3E1
100
AcDbXrecord
340
19
  0
XRECORD
  5
3EE
102
{ACAD_REACTORS
330
3E1
102
}
330
3E1
100
AcDbXrecord
 40
0.0
  0
XRECORD
  5
3F1
102
{ACAD_REACTORS
330
3E1
102
}
330
3E1
100
AcDbXrecord
340
0
  0
XRECORD
  5
3F7
102
{ACAD_REACTORS
330
3E1
102
}
330
3E1
100
AcDbXrecord
 10
0.0
 20
0.0
 30
0.0
  0
XRECORD
  5
3F3
102
{ACAD_REACTORS
330
3E1
102
}
330
3E1
100
AcDbXrecord
 10
0.0
 20
0.0
 30
0.0
  0
XRECORD
  5
3F6
102
{ACAD_REACTORS
330
3E1
102
}
330
3E1
100
AcDbXrecord
 10
0.0
 20
0.0
 30
0.0
  0
XRECORD
  5
3F4
102
{ACAD_REACTORS
330
3E1
102
}
330
3E1
100
AcDbXrecord
 10
0.0
 20
0.0
 30
0.0
  0
XRECORD
  5
3F5
102
{ACAD_REACTORS
330
3E1
102
}
330
3E1
100
AcDbXrecord
 10
0.0
 20
0.0
 30
0.0
  0
XRECORD
  5
3F2
102
{ACAD_REACTORS
330
3E1
102
}
330
3E1
100
AcDbXrecord
 10
0.0
 20
0.0
 30
0.0
  0
XRECORD
  5
3EF
102
{ACAD_REACTORS
330
3E1
102
}
330
3E1
100
AcDbXrecord
340
0
  0
XRECORD
  5
3F0
102
{ACAD_REACTORS
330
3E1
102
}
330
3E1
100
AcDbXrecord
 70
     0
  0
XRECORD
  5
3E5
102
{ACAD_REACTORS
330
3E1
102
}
330
3E1
100
AcDbXrecord
  1

  0
XRECORD
  5
3E2
102
{ACAD_REACTORS
330
3E1
102
}
330
3E1
100
AcDbXrecord
 90
        1
  0
XRECORD
  5
3E3
102
{ACAD_REACTORS
330
3E1
102
}
330
3E1
100
AcDbXrecord
 90
       70
  0
XRECORD
  5
3FA
102
{ACAD_REACTORS
330
3E1
102
}
330
3E1
100
AcDbXrecord
340
0
  0
XRECORD
  5
400
102
{ACAD_REACTORS
330
3E1
102
}
330
3E1
100
AcDbXrecord
 10
0.0
 20
0.0
 30
0.0
  0
XRECORD
  5
3FC
102
{ACAD_REACTORS
330
3E1
102
}
330
3E1
100
AcDbXrecord
 10
0.0
 20
0.0
 30
0.0
  0
XRECORD
  5
3FF
102
{ACAD_REACTORS
330
3E1
102
}
330
3E1
100
AcDbXrecord
 10
0.0
 20
0.0
 30
0.0
  0
XRECORD
  5
3FD
102
{ACAD_REACTORS
330
3E1
102
}
330
3E1
100
AcDbXrecord
 10
0.0
 20
0.0
 30
0.0
  0
XRECORD
  5
3FE
102
{ACAD_REACTORS
330
3E1
102
}
330
3E1
100
AcDbXrecord
 10
0.0
 20
0.0
 30
0.0
  0
XRECORD
  5
3FB
102
{ACAD_REACTORS
330
3E1
102
}
330
3E1
100
AcDbXrecord
 10
0.0
 20
0.0
 30
0.0
  0
XRECORD
  5
3F8
102
{ACAD_REACTORS
330
3E1
102
}
330
3E1
100
AcDbXrecord
340
0
  0
XRECORD
  5
3F9
102
{ACAD_REACTORS
330
3E1
102
}
330
3E1
100
AcDbXrecord
 70
     0
  0
XRECORD
  5
3ED
102
{ACAD_REACTORS
330
3E1
102
}
330
3E1
100
AcDbXrecord
  1
{FAEB1C32-E019-11D5-929B-00C0DF256EC4}
  0
DICTIONARYVAR
  5
40F
102
{ACAD_REACTORS
330
402
102
}
330
402
100
DictionaryVariables
280
     0
  1
1:1
  0
DICTIONARYVAR
  5
409
102
{ACAD_REACTORS
330
402
102
}
330
402
100
DictionaryVariables
280
     0
  1
3.500000
  0
DICTIONARYVAR
  5
40A
102
{ACAD_REACTORS
330
402
102
}
330
402
100
DictionaryVariables
280
     0
  1
acadiso.lin
  0
DICTIONARYVAR
  5
404
102
{ACAD_REACTORS
330
402
102
}
330
402
100
DictionaryVariables
280
     0
  1
Standard
  0
DICTIONARYVAR
  5
403
102
{ACAD_REACTORS
330
402
102
}
330
402
100
DictionaryVariables
280
     0
  1
Standard
  0
DICTIONARYVAR
  5
40B
102
{ACAD_REACTORS
330
402
102
}
330
402
100
DictionaryVariables
280
     0
  1
2
  0
DICTIONARYVAR
  5
40C
102
{ACAD_REACTORS
330
402
102
}
330
402
100
DictionaryVariables
280
     0
  1
1
  0
DICTIONARYVAR
  5
410
102
{ACAD_REACTORS
330
402
102
}
330
402
100
DictionaryVariables
280
     0
  1
1
  0
DICTIONARYVAR
  5
406
102
{ACAD_REACTORS
330
402
102
}
330
402
100
DictionaryVariables
280
     0
  1
80.000000
  0
DICTIONARYVAR
  5
405
102
{ACAD_REACTORS
330
402
102
}
330
402
100
DictionaryVariables
280
     0
  1
5.000000
  0
DICTIONARY
  5
413
330
45
100
AcDbDictionary
280
     1
  3
ACAD_XREC_ROUNDTRIP
360
414
  0
DICTIONARY
  5
411
330
44
100
AcDbDictionary
280
     1
  3
ACAD_XREC_ROUNDTRIP
360
412
  0
DICTIONARY
  5
415
330
46
100
AcDbDictionary
280
     1
  3
ACAD_XREC_ROUNDTRIP
360
416
  0
XRECORD
  5
414
102
{ACAD_REACTORS
330
413
102
}
330
413
100
AcDbXrecord
102
MATERIAL
148
0.0
149
0.0
149
0.0
 93
        0
 94
      127
282
     0
 72
     1
 77
     1
171
     1
175
     1
179
     1
273
     0
  0
XRECORD
  5
412
102
{ACAD_REACTORS
330
411
102
}
330
411
100
AcDbXrecord
102
MATERIAL
148
0.0
149
0.0
149
0.0
 93
        0
 94
      127
282
     0
 72
     1
 77
     1
171
     1
175
     1
179
     1
273
     0
  0
XRECORD
  5
416
102
{ACAD_REACTORS
330
415
102
}
330
415
100
AcDbXrecord
102
MATERIAL
148
0.0
149
0.0
149
0.0
 93
        0
 94
      127
282
     0
 72
     1
 77
     1
171
     1
175
     1
179
     1
273
     0
  0
ENDSEC
  0
EOF
