  0
SECTION
  2
HEADER
  9
$ACADVER
  1
AC1014
  9
$ACADMAINTVER
 70
     9
  9
$DWGCODEPAGE
  3
ANSI_932
  9
$INSBASE
 10
0.0
 20
0.0
 30
0.0
  9
$EXTMIN
 10
10.0
 20
20.0
 30
0.0
  9
$EXTMAX
 10
770.0000000000001
 20
560.0
 30
0.0
  9
$LIMMIN
 10
0.0
 20
0.0
  9
$LIMMAX
 10
420.0
 20
297.0
  9
$ORTHOMODE
 70
     0
  9
$REGENMODE
 70
     1
  9
$FILLMODE
 70
     1
  9
$QTEXTMODE
 70
     0
  9
$MIRRTEXT
 70
     1
  9
$DRAGMODE
 70
     2
  9
$LTSCALE
 40
0.2
  9
$OSMODE
 70
    37
  9
$ATTMODE
 70
     1
  9
$TEXTSIZE
 40
2.5
  9
$TRACEWID
 40
1.0
  9
$TEXTSTYLE
  7
STANDARD
  9
$CLAYER
  8
LAY-10
  9
$CELTYPE
  6
BYLAYER
  9
$CECOLOR
 62
   256
  9
$CELTSCALE
 40
1.0
  9
$DELOBJ
 70
     1
  9
$DISPSILH
 70
     0
  9
$DIMSCALE
 40
1.0
  9
$DIMASZ
 40
2.5
  9
$DIMEXO
 40
0.625
  9
$DIMDLI
 40
3.75
  9
$DIMRND
 40
0.0
  9
$DIMDLE
 40
0.0
  9
$DIMEXE
 40
1.25
  9
$DIMTP
 40
0.0
  9
$DIMTM
 40
0.0
  9
$DIMTXT
 40
2.5
  9
$DIMCEN
 40
2.5
  9
$DIMTSZ
 40
0.0
  9
$DIMTOL
 70
     0
  9
$DIMLIM
 70
     0
  9
$DIMTIH
 70
     0
  9
$DIMTOH
 70
     0
  9
$DIMSE1
 70
     0
  9
$DIMSE2
 70
     0
  9
$DIMTAD
 70
     1
  9
$DIMZIN
 70
     8
  9
$DIMBLK
  1

  9
$DIMASO
 70
     1
  9
$DIMSHO
 70
     1
  9
$DIMPOST
  1

  9
$DIMAPOST
  1

  9
$DIMALT
 70
     0
  9
$DIMALTD
 70
     3
  9
$DIMALTF
 40
0.03937007874016
  9
$DIMLFAC
 40
1.0
  9
$DIMTOFL
 70
     1
  9
$DIMTVP
 40
0.0
  9
$DIMTIX
 70
     0
  9
$DIMSOXD
 70
     0
  9
$DIMSAH
 70
     0
  9
$DIMBLK1
  1

  9
$DIMBLK2
  1

  9
$DIMSTYLE
  2
ISO-25
  9
$DIMCLRD
 70
     0
  9
$DIMCLRE
 70
     0
  9
$DIMCLRT
 70
     0
  9
$DIMTFAC
 40
1.0
  9
$DIMGAP
 40
0.625
  9
$DIMJUST
 70
     0
  9
$DIMSD1
 70
     0
  9
$DIMSD2
 70
     0
  9
$DIMTOLJ
 70
     0
  9
$DIMTZIN
 70
     8
  9
$DIMALTZ
 70
     0
  9
$DIMALTTZ
 70
     0
  9
$DIMFIT
 70
     3
  9
$DIMUPT
 70
     0
  9
$DIMUNIT
 70
     2
  9
$DIMDEC
 70
     2
  9
$DIMTDEC
 70
     2
  9
$DIMALTU
 70
     2
  9
$DIMALTTD
 70
     3
  9
$DIMTXSTY
  7
STANDARD
  9
$DIMAUNIT
 70
     0
  9
$LUNITS
 70
     2
  9
$LUPREC
 70
     4
  9
$SKETCHINC
 40
1.0
  9
$FILLETRAD
 40
10.0
  9
$AUNITS
 70
     0
  9
$AUPREC
 70
     0
  9
$MENU
  1
.
  9
$ELEVATION
 40
0.0
  9
$PELEVATION
 40
0.0
  9
$THICKNESS
 40
0.0
  9
$LIMCHECK
 70
     0
  9
$CHAMFERA
 40
0.0
  9
$CHAMFERB
 40
0.0
  9
$CHAMFERC
 40
0.0
  9
$CHAMFERD
 40
0.0
  9
$SKPOLY
 70
     0
  9
$TDCREATE
 40
2459229.338056262
  9
$TDUPDATE
 40
2459229.338056713
  9
$TDINDWG
 40
0.0000000116
  9
$TDUSRTIMER
 40
0.0000000116
  9
$USRTIMER
 70
     1
  9
$ANGBASE
 50
0.0
  9
$ANGDIR
 70
     0
  9
$PDMODE
 70
     0
  9
$PDSIZE
 40
0.0
  9
$PLINEWID
 40
0.0
  9
$COORDS
 70
     1
  9
$SPLFRAME
 70
     0
  9
$SPLINETYPE
 70
     6
  9
$SPLINESEGS
 70
     8
  9
$ATTDIA
 70
     0
  9
$ATTREQ
 70
     1
  9
$HANDLING
 70
     1
  9
$HANDSEED
  5
40A
  9
$SURFTAB1
 70
     6
  9
$SURFTAB2
 70
     6
  9
$SURFTYPE
 70
     6
  9
$SURFU
 70
     6
  9
$SURFV
 70
     6
  9
$UCSNAME
  2

  9
$UCSORG
 10
0.0
 20
0.0
 30
0.0
  9
$UCSXDIR
 10
1.0
 20
0.0
 30
0.0
  9
$UCSYDIR
 10
0.0
 20
1.0
 30
0.0
  9
$PUCSNAME
  2

  9
$PUCSORG
 10
0.0
 20
0.0
 30
0.0
  9
$PUCSXDIR
 10
1.0
 20
0.0
 30
0.0
  9
$PUCSYDIR
 10
0.0
 20
1.0
 30
0.0
  9
$USERI1
 70
     0
  9
$USERI2
 70
     0
  9
$USERI3
 70
     0
  9
$USERI4
 70
     0
  9
$USERI5
 70
     0
  9
$USERR1
 40
0.0
  9
$USERR2
 40
0.0
  9
$USERR3
 40
0.0
  9
$USERR4
 40
0.0
  9
$USERR5
 40
0.0
  9
$WORLDVIEW
 70
     1
  9
$SHADEDGE
 70
     3
  9
$SHADEDIF
 70
    70
  9
$TILEMODE
 70
     1
  9
$MAXACTVP
 70
    64
  9
$PINSBASE
 10
0.0
 20
0.0
 30
0.0
  9
$PLIMCHECK
 70
     0
  9
$PEXTMIN
 10
1.000000000000000E+20
 20
1.000000000000000E+20
 30
1.000000000000000E+20
  9
$PEXTMAX
 10
-1.000000000000000E+20
 20
-1.000000000000000E+20
 30
-1.000000000000000E+20
  9
$PLIMMIN
 10
0.0
 20
0.0
  9
$PLIMMAX
 10
420.0
 20
297.0
  9
$UNITMODE
 70
     0
  9
$VISRETAIN
 70
     1
  9
$PLINEGEN
 70
     0
  9
$PSLTSCALE
 70
     1
  9
$TREEDEPTH
 70
  3020
  9
$PICKSTYLE
 70
     1
  9
$CMLSTYLE
  2
STANDARD
  9
$CMLJUST
 70
     0
  9
$CMLSCALE
 40
20.0
  9
$PROXYGRAPHICS
 70
     1
  9
$MEASUREMENT
 70
     1
  0
ENDSEC
  0
SECTION
  2
CLASSES
  0
CLASS
  1
ACDBDICTIONARYWDFLT
  2
AcDbDictionaryWithDefault
  3
ObjectDBX Classes
 90
        0
280
     0
281
     0
  0
CLASS
  1
VISUALSTYLE
  2
AcDbVisualStyle
  3
ObjectDBX Classes
 90
     4095
280
     0
281
     0
  0
CLASS
  1
MATERIAL
  2
AcDbMaterial
  3
ObjectDBX Classes
 90
     1153
280
     0
281
     0
  0
CLASS
  1
SCALE
  2
AcDbScale
  3
ObjectDBX Classes
 90
     1153
280
     0
281
     0
  0
CLASS
  1
TABLESTYLE
  2
AcDbTableStyle
  3
ObjectDBX Classes
 90
     4095
280
     0
281
     0
  0
CLASS
  1
MLEADERSTYLE
  2
AcDbMLeaderStyle
  3
ACDB_MLEADERSTYLE_CLASS
 90
     4095
280
     0
281
     0
  0
CLASS
  1
SUN
  2
AcDbSun
  3
SCENEOE
 90
     1153
280
     0
281
     0
  0
CLASS
  1
DICTIONARYVAR
  2
AcDbDictionaryVar
  3
ObjectDBX Classes
 90
        0
280
     0
281
     0
  0
CLASS
  1
XRECORD
  2
AcDbXrecord
  3
ObjectDBX Classes
 90
        0
280
     0
281
     0
  0
CLASS
  1
LWPOLYLINE
  2
AcDbPolyline
  3
ObjectDBX Classes
 90
        0
280
     0
281
     1
  0
CLASS
  1
HATCH
  2
AcDbHatch
  3
ObjectDBX Classes
 90
        0
280
     0
281
     1
  0
CLASS
  1
ACDBPLACEHOLDER
  2
AcDbPlaceHolder
  3
ObjectDBX Classes
 90
        0
280
     0
281
     0
  0
CLASS
  1
LAYOUT
  2
AcDbLayout
  3
ObjectDBX Classes
 90
        0
280
     0
281
     0
  0
ENDSEC
  0
SECTION
  2
TABLES
  0
TABLE
  2
VPORT
  5
8
102
{ACAD_XDICTIONARY
360
3FF
102
}
330
0
100
AcDbSymbolTable
 70
     1
  0
VPORT
  5
29
330
8
100
AcDbSymbolTableRecord
100
AcDbViewportTableRecord
  2
*ACTIVE
 70
     0
 10
0.0
 20
0.0
 11
1.0
 21
1.0
 12
390.0000000000001
 22
290.0
 13
0.0
 23
0.0
 14
10.0
 24
10.0
 15
10.0
 25
10.0
 16
0.0
 26
0.0
 36
1.0
 17
0.0
 27
0.0
 37
0.0
 40
540.0
 41
1.407407407407408
 42
50.0
 43
0.0
 44
0.0
 50
0.0
 51
0.0
 71
     0
 72
  1000
 73
     1
 74
     3
 75
     0
 76
     0
 77
     0
 78
     0
  0
ENDTAB
  0
TABLE
  2
LTYPE
  5
5
330
0
100
AcDbSymbolTable
 70
     6
  0
LTYPE
  5
14
330
5
100
AcDbSymbolTableRecord
100
AcDbLinetypeTableRecord
  2
BYBLOCK
 70
     0
  3

 72
    65
 73
     0
 40
0.0
  0
LTYPE
  5
15
330
5
100
AcDbSymbolTableRecord
100
AcDbLinetypeTableRecord
  2
BYLAYER
 70
     0
  3

 72
    65
 73
     0
 40
0.0
  0
LTYPE
  5
16
330
5
100
AcDbSymbolTableRecord
100
AcDbLinetypeTableRecord
  2
CONTINUOUS
 70
     0
  3
Solid line
 72
    65
 73
     0
 40
0.0
  0
LTYPE
  5
6E
330
5
100
AcDbSymbolTableRecord
100
AcDbLinetypeTableRecord
  2
HIDDEN
 70
     0
  3
Hidden __ __ __ __ __ __ __ __ __ __ __ __ __ __
 72
    65
 73
     2
 40
9.524999999999999
 49
6.35
 74
     0
 49
-3.175
 74
     0
  0
LTYPE
  5
6F
330
5
100
AcDbSymbolTableRecord
100
AcDbLinetypeTableRecord
  2
CENTER
 70
     0
  3
Center ____ _ ____ _ ____ _ ____ _ ____ _ ____
 72
    65
 73
     4
 40
50.8
 49
31.75
 74
     0
 49
-6.35
 74
     0
 49
6.35
 74
     0
 49
-6.35
 74
     0
  0
LTYPE
  5
70
330
5
100
AcDbSymbolTableRecord
100
AcDbLinetypeTableRecord
  2
PHANTOM
 70
     0
  3
Phantom ______  __  __  ______  __  __  ______ 
 72
    65
 73
     6
 40
63.50000000000001
 49
31.75
 74
     0
 49
-6.35
 74
     0
 49
6.35
 74
     0
 49
-6.35
 74
     0
 49
6.35
 74
     0
 49
-6.35
 74
     0
  0
LTYPE
  5
71
330
5
100
AcDbSymbolTableRecord
100
AcDbLinetypeTableRecord
  2
ACAD_ISO06W100
 70
     0
  3
ISO long-dash triple-dot ____ ... ____ ... ____
 72
    65
 73
     8
 40
36.0
 49
24.0
 74
     0
 49
-3.0
 74
     0
 49
0.0
 74
     0
 49
-3.0
 74
     0
 49
0.0
 74
     0
 49
-3.0
 74
     0
 49
0.0
 74
     0
 49
-3.0
 74
     0
  0
LTYPE
  5
72
330
5
100
AcDbSymbolTableRecord
100
AcDbLinetypeTableRecord
  2
ACAD_ISO15W100
 70
     0
  3
ISO double-dash triple-dot __ __ . . . __ __ . .
 72
    65
 73
    10
 40
39.0
 49
12.0
 74
     0
 49
-3.0
 74
     0
 49
12.0
 74
     0
 49
-3.0
 74
     0
 49
0.0
 74
     0
 49
-3.0
 74
     0
 49
0.0
 74
     0
 49
-3.0
 74
     0
 49
0.0
 74
     0
 49
-3.0
 74
     0
  0
ENDTAB
  0
TABLE
  2
LAYER
  5
2
330
0
100
AcDbSymbolTable
 70
     5
  0
LAYER
  5
10
330
2
100
AcDbSymbolTableRecord
100
AcDbLayerTableRecord
  2
0
 70
     0
 62
     7
  6
CONTINUOUS
  0
LAYER
  5
75
330
2
100
AcDbSymbolTableRecord
100
AcDbLayerTableRecord
  2
LAY-10
 70
     0
 62
     7
  6
CONTINUOUS
  0
LAYER
  5
76
330
2
100
AcDbSymbolTableRecord
100
AcDbLayerTableRecord
  2
LAY-20
 70
     0
 62
     7
  6
CONTINUOUS
  0
LAYER
  5
77
330
2
100
AcDbSymbolTableRecord
100
AcDbLayerTableRecord
  2
LAY-255
 70
     0
 62
     7
  6
CONTINUOUS
  0
LAYER
  5
354
330
2
100
AcDbSymbolTableRecord
100
AcDbLayerTableRecord
  2
DEFPOINTS
 70
     0
 62
     7
  6
CONTINUOUS
  0
ENDTAB
  0
TABLE
  2
STYLE
  5
3
330
0
100
AcDbSymbolTable
 70
     4
  0
STYLE
  5
11
330
3
100
AcDbSymbolTableRecord
100
AcDbTextStyleTableRecord
  2
STANDARD
 70
     0
 40
0.0
 41
1.0
 50
0.0
 71
     0
 42
2.5
  3
simplex
  4
bigfont
  0
STYLE
  5
73
330
3
100
AcDbSymbolTableRecord
100
AcDbTextStyleTableRecord
  2
EXCADSTD
 70
     0
 40
0.0
 41
1.0
 50
0.0
 71
     0
 42
2.5
  3
simplex
  4
bigfont
  0
STYLE
  5
74
330
3
100
AcDbSymbolTableRecord
100
AcDbTextStyleTableRecord
  2
EXCADVERT
 70
     4
 40
0.0
 41
1.0
 50
0.0
 71
     0
 42
2.5
  3
simplex
  4
bigfont
  0
STYLE
  5
352
330
3
100
AcDbSymbolTableRecord
100
AcDbTextStyleTableRecord
  2
EXCADDIM1
 70
     0
 40
0.0
 41
0.84
 50
0.0
 71
     0
 42
2.5
  3
simplex
  4
bigfont
  0
ENDTAB
  0
TABLE
  2
VIEW
  5
6
330
0
100
AcDbSymbolTable
 70
     0
  0
ENDTAB
  0
TABLE
  2
UCS
  5
7
330
0
100
AcDbSymbolTable
 70
     0
  0
ENDTAB
  0
TABLE
  2
APPID
  5
9
330
0
100
AcDbSymbolTable
 70
     2
  0
APPID
  5
12
330
9
100
AcDbSymbolTableRecord
100
AcDbRegAppTableRecord
  2
ACAD
 70
     0
  0
APPID
  5
409
330
9
100
AcDbSymbolTableRecord
100
AcDbRegAppTableRecord
  2
ACAD_MLEADERVER
 70
     0
  0
ENDTAB
  0
TABLE
  2
DIMSTYLE
  5
A
330
0
100
AcDbSymbolTable
 70
     1
  0
DIMSTYLE
105
27
102
{ACAD_REACTORS
330
353
330
361
330
36E
330
37A
330
387
330
394
330
3A1
102
}
330
A
100
AcDbSymbolTableRecord
100
AcDbDimStyleTableRecord
  2
ISO-25
 70
     0
  3

  4

  5

  6

  7

 40
1.0
 41
2.5
 42
0.625
 43
3.75
 44
1.25
 45
0.0
 46
0.0
 47
0.0
 48
0.0
140
2.5
141
2.5
142
0.0
143
0.03937007874016
144
1.0
145
0.0
146
1.0
147
0.625
 71
     0
 72
     0
 73
     0
 74
     0
 75
     0
 76
     0
 77
     1
 78
     8
170
     0
171
     3
172
     1
173
     0
174
     0
175
     0
176
     0
177
     0
178
     0
270
     2
271
     2
272
     2
273
     2
274
     3
340
11
275
     0
280
     0
281
     0
282
     0
283
     0
284
     8
285
     0
286
     0
287
     5
288
     0
  0
ENDTAB
  0
TABLE
  2
BLOCK_RECORD
  5
1
330
0
100
AcDbSymbolTable
 70
    21
  0
BLOCK_RECORD
  5
1F
330
1
100
AcDbSymbolTableRecord
100
AcDbBlockTableRecord
  2
*MODEL_SPACE
  0
BLOCK_RECORD
  5
1B
330
1
100
AcDbSymbolTableRecord
100
AcDbBlockTableRecord
  2
*PAPER_SPACE
  0
BLOCK_RECORD
  5
78
330
1
100
AcDbSymbolTableRecord
100
AcDbBlockTableRecord
  2
EX_NORM
  0
BLOCK_RECORD
  5
7B
330
1
100
AcDbSymbolTableRecord
100
AcDbBlockTableRecord
  2
EX_BNORM
  0
BLOCK_RECORD
  5
7E
330
1
100
AcDbSymbolTableRecord
100
AcDbBlockTableRecord
  2
EX_BCIR
  0
BLOCK_RECORD
  5
81
330
1
100
AcDbSymbolTableRecord
100
AcDbBlockTableRecord
  2
EX_RCIVIL
  0
BLOCK_RECORD
  5
84
330
1
100
AcDbSymbolTableRecord
100
AcDbBlockTableRecord
  2
EX_SLANT
  0
BLOCK_RECORD
  5
87
330
1
100
AcDbSymbolTableRecord
100
AcDbBlockTableRecord
  2
EX_NONE
  0
BLOCK_RECORD
  5
8A
330
1
100
AcDbSymbolTableRecord
100
AcDbBlockTableRecord
  2
EX_CIVIL
  0
BLOCK_RECORD
  5
8D
330
1
100
AcDbSymbolTableRecord
100
AcDbBlockTableRecord
  2
EX_WCIR
  0
BLOCK_RECORD
  5
90
330
1
100
AcDbSymbolTableRecord
100
AcDbBlockTableRecord
  2
EX_WCIR2
  0
BLOCK_RECORD
  5
93
330
1
100
AcDbSymbolTableRecord
100
AcDbBlockTableRecord
  2
EX_WNORM
  0
BLOCK_RECORD
  5
96
330
1
100
AcDbSymbolTableRecord
100
AcDbBlockTableRecord
  2
EX_NNORM
  0
BLOCK_RECORD
  5
99
330
1
100
AcDbSymbolTableRecord
100
AcDbBlockTableRecord
  2
EX_BBOX
  0
BLOCK_RECORD
  5
9C
330
1
100
AcDbSymbolTableRecord
100
AcDbBlockTableRecord
  2
EX_WBOX
  0
BLOCK_RECORD
  5
9F
330
1
100
AcDbSymbolTableRecord
100
AcDbBlockTableRecord
  2
EX_INTEGRAL
  0
BLOCK_RECORD
  5
355
330
1
100
AcDbSymbolTableRecord
100
AcDbBlockTableRecord
  2
*D15
  0
BLOCK_RECORD
  5
362
330
1
100
AcDbSymbolTableRecord
100
AcDbBlockTableRecord
  2
*D16
  0
BLOCK_RECORD
  5
36F
330
1
100
AcDbSymbolTableRecord
100
AcDbBlockTableRecord
  2
*D17
  0
BLOCK_RECORD
  5
37B
330
1
100
AcDbSymbolTableRecord
100
AcDbBlockTableRecord
  2
*D18
  0
BLOCK_RECORD
  5
388
330
1
100
AcDbSymbolTableRecord
100
AcDbBlockTableRecord
  2
*D19
  0
BLOCK_RECORD
  5
395
330
1
100
AcDbSymbolTableRecord
100
AcDbBlockTableRecord
  2
*D20
  0
BLOCK_RECORD
  5
3A2
330
1
100
AcDbSymbolTableRecord
100
AcDbBlockTableRecord
  2
*D21
  0
ENDTAB
  0
ENDSEC
  0
SECTION
  2
BLOCKS
  0
BLOCK
  5
20
330
1F
100
AcDbEntity
  8
0
100
AcDbBlockBegin
  2
*MODEL_SPACE
 70
     0
 10
0.0
 20
0.0
 30
0.0
  3
*MODEL_SPACE
  1

  0
ENDBLK
  5
21
330
1F
100
AcDbEntity
  8
0
100
AcDbBlockEnd
  0
BLOCK
  5
1C
330
1B
100
AcDbEntity
 67
     1
  8
0
100
AcDbBlockBegin
  2
*PAPER_SPACE
 70
     0
 10
0.0
 20
0.0
 30
0.0
  3
*PAPER_SPACE
  1

  0
ENDBLK
  5
1D
330
1B
100
AcDbEntity
 67
     1
  8
0
100
AcDbBlockEnd
  0
BLOCK
  5
79
330
78
100
AcDbEntity
  8
0
100
AcDbBlockBegin
  2
EX_NORM
 70
     0
 10
0.0
 20
0.0
 30
0.0
  3
EX_NORM
  1

  0
LINE
  5
A2
330
78
100
AcDbEntity
  8
0
  6
CONTINUOUS
 62
     0
100
AcDbLine
 10
0.0
 20
0.0
 30
0.0
 11
-1.0
 21
0.0
 31
0.0
  0
LINE
  5
A3
330
78
100
AcDbEntity
  8
0
  6
CONTINUOUS
 62
     0
100
AcDbLine
 10
0.0
 20
0.0
 30
0.0
 11
-1.0
 21
0.166666667
 31
0.0
  0
LINE
  5
A4
330
78
100
AcDbEntity
  8
0
  6
CONTINUOUS
 62
     0
100
AcDbLine
 10
0.0
 20
0.0
 30
0.0
 11
-1.0
 21
-0.166666667
 31
0.0
  0
ENDBLK
  5
7A
330
78
100
AcDbEntity
  8
0
100
AcDbBlockEnd
  0
BLOCK
  5
7C
330
7B
100
AcDbEntity
  8
0
100
AcDbBlockBegin
  2
EX_BNORM
 70
     0
 10
0.0
 20
0.0
 30
0.0
  3
EX_BNORM
  1

  0
LINE
  5
A5
330
7B
100
AcDbEntity
  8
0
  6
CONTINUOUS
 62
     0
100
AcDbLine
 10
0.0
 20
0.0
 30
0.0
 11
-1.0
 21
0.0
 31
0.0
  0
LINE
  5
A6
330
7B
100
AcDbEntity
  8
0
  6
CONTINUOUS
 62
     0
100
AcDbLine
 10
0.0
 20
0.0
 30
0.0
 11
-1.0
 21
0.166666667
 31
0.0
  0
LINE
  5
A7
330
7B
100
AcDbEntity
  8
0
  6
CONTINUOUS
 62
     0
100
AcDbLine
 10
0.0
 20
0.0
 30
0.0
 11
-1.0
 21
-0.166666667
 31
0.0
  0
LINE
  5
A8
330
7B
100
AcDbEntity
  8
0
  6
CONTINUOUS
 62
     0
100
AcDbLine
 10
0.0
 20
0.0
 30
0.0
 11
-1.0
 21
0.083333333
 31
0.0
  0
LINE
  5
A9
330
7B
100
AcDbEntity
  8
0
  6
CONTINUOUS
 62
     0
100
AcDbLine
 10
0.0
 20
0.0
 30
0.0
 11
-1.0
 21
-0.083333333
 31
0.0
  0
LINE
  5
AA
330
7B
100
AcDbEntity
  8
0
  6
CONTINUOUS
 62
     0
100
AcDbLine
 10
-1.0
 20
0.166666667
 30
0.0
 11
-1.0
 21
-0.166666667
 31
0.0
  0
ENDBLK
  5
7D
330
7B
100
AcDbEntity
  8
0
100
AcDbBlockEnd
  0
BLOCK
  5
7F
330
7E
100
AcDbEntity
  8
0
100
AcDbBlockBegin
  2
EX_BCIR
 70
     0
 10
0.0
 20
0.0
 30
0.0
  3
EX_BCIR
  1

  0
LINE
  5
AB
330
7E
100
AcDbEntity
  8
0
  6
CONTINUOUS
 62
     0
100
AcDbLine
 10
0.0
 20
0.0
 30
0.0
 11
-1.0
 21
0.0
 31
0.0
  0
CIRCLE
  5
AC
330
7E
100
AcDbEntity
  8
0
  6
CONTINUOUS
 62
     0
100
AcDbCircle
 10
0.0
 20
0.0
 30
0.0
 40
0.5
  0
CIRCLE
  5
AD
330
7E
100
AcDbEntity
  8
0
  6
CONTINUOUS
 62
     0
100
AcDbCircle
 10
0.0
 20
0.0
 30
0.0
 40
0.25
  0
ENDBLK
  5
80
330
7E
100
AcDbEntity
  8
0
100
AcDbBlockEnd
  0
BLOCK
  5
82
330
81
100
AcDbEntity
  8
0
100
AcDbBlockBegin
  2
EX_RCIVIL
 70
     0
 10
0.0
 20
0.0
 30
0.0
  3
EX_RCIVIL
  1

  0
LINE
  5
AE
330
81
100
AcDbEntity
  8
0
  6
CONTINUOUS
 62
     0
100
AcDbLine
 10
0.0
 20
0.0
 30
0.0
 11
-1.0
 21
0.0
 31
0.0
  0
LINE
  5
AF
330
81
100
AcDbEntity
  8
0
  6
CONTINUOUS
 62
     0
100
AcDbLine
 10
-1.0
 20
-0.25
 30
0.0
 11
0.0
 21
-0.25
 31
0.0
  0
LINE
  5
B0
330
81
100
AcDbEntity
  8
0
  6
CONTINUOUS
 62
     0
100
AcDbLine
 10
-1.0
 20
-0.125
 30
0.0
 11
0.0
 21
-0.125
 31
0.0
  0
ENDBLK
  5
83
330
81
100
AcDbEntity
  8
0
100
AcDbBlockEnd
  0
BLOCK
  5
85
330
84
100
AcDbEntity
  8
0
100
AcDbBlockBegin
  2
EX_SLANT
 70
     0
 10
0.0
 20
0.0
 30
0.0
  3
EX_SLANT
  1

  0
LINE
  5
B1
330
84
100
AcDbEntity
  8
0
  6
CONTINUOUS
 62
     0
100
AcDbLine
 10
0.0
 20
0.0
 30
0.0
 11
-1.0
 21
0.0
 31
0.0
  0
LINE
  5
B2
330
84
100
AcDbEntity
  8
0
  6
CONTINUOUS
 62
     0
100
AcDbLine
 10
0.707106781
 20
0.707106781
 30
0.0
 11
-0.707106781
 21
-0.707106781
 31
0.0
  0
ENDBLK
  5
86
330
84
100
AcDbEntity
  8
0
100
AcDbBlockEnd
  0
BLOCK
  5
88
330
87
100
AcDbEntity
  8
0
100
AcDbBlockBegin
  2
EX_NONE
 70
     0
 10
0.0
 20
0.0
 30
0.0
  3
EX_NONE
  1

  0
LINE
  5
B3
330
87
100
AcDbEntity
  8
0
  6
CONTINUOUS
 62
     0
100
AcDbLine
 10
0.0
 20
0.0
 30
0.0
 11
-1.0
 21
0.0
 31
0.0
  0
ENDBLK
  5
89
330
87
100
AcDbEntity
  8
0
100
AcDbBlockEnd
  0
BLOCK
  5
8B
330
8A
100
AcDbEntity
  8
0
100
AcDbBlockBegin
  2
EX_CIVIL
 70
     0
 10
0.0
 20
0.0
 30
0.0
  3
EX_CIVIL
  1

  0
LINE
  5
B4
330
8A
100
AcDbEntity
  8
0
  6
CONTINUOUS
 62
     0
100
AcDbLine
 10
0.0
 20
0.0
 30
0.0
 11
-1.0
 21
0.0
 31
0.0
  0
LINE
  5
B5
330
8A
100
AcDbEntity
  8
0
  6
CONTINUOUS
 62
     0
100
AcDbLine
 10
-1.0
 20
0.25
 30
0.0
 11
0.0
 21
0.25
 31
0.0
  0
LINE
  5
B6
330
8A
100
AcDbEntity
  8
0
  6
CONTINUOUS
 62
     0
100
AcDbLine
 10
-1.0
 20
0.125
 30
0.0
 11
0.0
 21
0.125
 31
0.0
  0
ENDBLK
  5
8C
330
8A
100
AcDbEntity
  8
0
100
AcDbBlockEnd
  0
BLOCK
  5
8E
330
8D
100
AcDbEntity
  8
0
100
AcDbBlockBegin
  2
EX_WCIR
 70
     0
 10
0.0
 20
0.0
 30
0.0
  3
EX_WCIR
  1

  0
LINE
  5
B7
330
8D
100
AcDbEntity
  8
0
  6
CONTINUOUS
 62
     0
100
AcDbLine
 10
0.0
 20
0.0
 30
0.0
 11
-1.0
 21
0.0
 31
0.0
  0
CIRCLE
  5
B8
330
8D
100
AcDbEntity
  8
0
  6
CONTINUOUS
 62
     0
100
AcDbCircle
 10
0.0
 20
0.0
 30
0.0
 40
0.5
  0
ENDBLK
  5
8F
330
8D
100
AcDbEntity
  8
0
100
AcDbBlockEnd
  0
BLOCK
  5
91
330
90
100
AcDbEntity
  8
0
100
AcDbBlockBegin
  2
EX_WCIR2
 70
     0
 10
0.0
 20
0.0
 30
0.0
  3
EX_WCIR2
  1

  0
LINE
  5
B9
330
90
100
AcDbEntity
  8
0
  6
CONTINUOUS
 62
     0
100
AcDbLine
 10
-0.5
 20
0.0
 30
0.0
 11
-1.0
 21
0.0
 31
0.0
  0
CIRCLE
  5
BA
330
90
100
AcDbEntity
  8
0
  6
CONTINUOUS
 62
     0
100
AcDbCircle
 10
0.0
 20
0.0
 30
0.0
 40
0.5
  0
ENDBLK
  5
92
330
90
100
AcDbEntity
  8
0
100
AcDbBlockEnd
  0
BLOCK
  5
94
330
93
100
AcDbEntity
  8
0
100
AcDbBlockBegin
  2
EX_WNORM
 70
     0
 10
0.0
 20
0.0
 30
0.0
  3
EX_WNORM
  1

  0
LINE
  5
BB
330
93
100
AcDbEntity
  8
0
  6
CONTINUOUS
 62
     0
100
AcDbLine
 10
-1.0
 20
0.0
 30
0.0
 11
-1.0
 21
0.0
 31
0.0
  0
LINE
  5
BC
330
93
100
AcDbEntity
  8
0
  6
CONTINUOUS
 62
     0
100
AcDbLine
 10
0.0
 20
0.0
 30
0.0
 11
-1.0
 21
0.166666667
 31
0.0
  0
LINE
  5
BD
330
93
100
AcDbEntity
  8
0
  6
CONTINUOUS
 62
     0
100
AcDbLine
 10
0.0
 20
0.0
 30
0.0
 11
-1.0
 21
-0.166666667
 31
0.0
  0
LINE
  5
BE
330
93
100
AcDbEntity
  8
0
  6
CONTINUOUS
 62
     0
100
AcDbLine
 10
-1.0
 20
0.166666667
 30
0.0
 11
-1.0
 21
-0.166666667
 31
0.0
  0
ENDBLK
  5
95
330
93
100
AcDbEntity
  8
0
100
AcDbBlockEnd
  0
BLOCK
  5
97
330
96
100
AcDbEntity
  8
0
100
AcDbBlockBegin
  2
EX_NNORM
 70
     0
 10
0.0
 20
0.0
 30
0.0
  3
EX_NNORM
  1

  0
LINE
  5
BF
330
96
100
AcDbEntity
  8
0
  6
CONTINUOUS
 62
     0
100
AcDbLine
 10
0.0
 20
0.0
 30
0.0
 11
-1.0
 21
0.0
 31
0.0
  0
LINE
  5
C0
330
96
100
AcDbEntity
  8
0
  6
CONTINUOUS
 62
     0
100
AcDbLine
 10
0.0
 20
0.0
 30
0.0
 11
-1.0
 21
0.166666667
 31
0.0
  0
LINE
  5
C1
330
96
100
AcDbEntity
  8
0
  6
CONTINUOUS
 62
     0
100
AcDbLine
 10
0.0
 20
0.0
 30
0.0
 11
-1.0
 21
-0.166666667
 31
0.0
  0
LINE
  5
C2
330
96
100
AcDbEntity
  8
0
  6
CONTINUOUS
 62
     0
100
AcDbLine
 10
-1.0
 20
0.166666667
 30
0.0
 11
-1.0
 21
-0.166666667
 31
0.0
  0
ENDBLK
  5
98
330
96
100
AcDbEntity
  8
0
100
AcDbBlockEnd
  0
BLOCK
  5
9A
330
99
100
AcDbEntity
  8
0
100
AcDbBlockBegin
  2
EX_BBOX
 70
     0
 10
0.0
 20
0.0
 30
0.0
  3
EX_BBOX
  1

  0
LINE
  5
C3
330
99
100
AcDbEntity
  8
0
  6
CONTINUOUS
 62
     0
100
AcDbLine
 10
0.0
 20
0.0
 30
0.0
 11
-1.0
 21
0.0
 31
0.0
  0
LINE
  5
C4
330
99
100
AcDbEntity
  8
0
  6
CONTINUOUS
 62
     0
100
AcDbLine
 10
-0.5
 20
0.5
 30
0.0
 11
0.5
 21
0.5
 31
0.0
  0
LINE
  5
C5
330
99
100
AcDbEntity
  8
0
  6
CONTINUOUS
 62
     0
100
AcDbLine
 10
0.5
 20
0.5
 30
0.0
 11
0.5
 21
-0.5
 31
0.0
  0
LINE
  5
C6
330
99
100
AcDbEntity
  8
0
  6
CONTINUOUS
 62
     0
100
AcDbLine
 10
0.5
 20
-0.5
 30
0.0
 11
-0.5
 21
-0.5
 31
0.0
  0
LINE
  5
C7
330
99
100
AcDbEntity
  8
0
  6
CONTINUOUS
 62
     0
100
AcDbLine
 10
-0.5
 20
-0.5
 30
0.0
 11
-0.5
 21
0.5
 31
0.0
  0
LINE
  5
C8
330
99
100
AcDbEntity
  8
0
  6
CONTINUOUS
 62
     0
100
AcDbLine
 10
-0.25
 20
0.25
 30
0.0
 11
0.25
 21
0.25
 31
0.0
  0
LINE
  5
C9
330
99
100
AcDbEntity
  8
0
  6
CONTINUOUS
 62
     0
100
AcDbLine
 10
0.25
 20
0.25
 30
0.0
 11
0.25
 21
-0.25
 31
0.0
  0
LINE
  5
CA
330
99
100
AcDbEntity
  8
0
  6
CONTINUOUS
 62
     0
100
AcDbLine
 10
0.25
 20
-0.25
 30
0.0
 11
-0.25
 21
-0.25
 31
0.0
  0
LINE
  5
CB
330
99
100
AcDbEntity
  8
0
  6
CONTINUOUS
 62
     0
100
AcDbLine
 10
-0.25
 20
-0.25
 30
0.0
 11
-0.25
 21
0.25
 31
0.0
  0
ENDBLK
  5
9B
330
99
100
AcDbEntity
  8
0
100
AcDbBlockEnd
  0
BLOCK
  5
9D
330
9C
100
AcDbEntity
  8
0
100
AcDbBlockBegin
  2
EX_WBOX
 70
     0
 10
0.0
 20
0.0
 30
0.0
  3
EX_WBOX
  1

  0
LINE
  5
CC
330
9C
100
AcDbEntity
  8
0
  6
CONTINUOUS
 62
     0
100
AcDbLine
 10
-0.5
 20
0.0
 30
0.0
 11
-1.0
 21
0.0
 31
0.0
  0
LINE
  5
CD
330
9C
100
AcDbEntity
  8
0
  6
CONTINUOUS
 62
     0
100
AcDbLine
 10
-0.5
 20
0.5
 30
0.0
 11
0.5
 21
0.5
 31
0.0
  0
LINE
  5
CE
330
9C
100
AcDbEntity
  8
0
  6
CONTINUOUS
 62
     0
100
AcDbLine
 10
0.5
 20
0.5
 30
0.0
 11
0.5
 21
-0.5
 31
0.0
  0
LINE
  5
CF
330
9C
100
AcDbEntity
  8
0
  6
CONTINUOUS
 62
     0
100
AcDbLine
 10
0.5
 20
-0.5
 30
0.0
 11
-0.5
 21
-0.5
 31
0.0
  0
LINE
  5
D0
330
9C
100
AcDbEntity
  8
0
  6
CONTINUOUS
 62
     0
100
AcDbLine
 10
-0.5
 20
-0.5
 30
0.0
 11
-0.5
 21
0.5
 31
0.0
  0
ENDBLK
  5
9E
330
9C
100
AcDbEntity
  8
0
100
AcDbBlockEnd
  0
BLOCK
  5
A0
330
9F
100
AcDbEntity
  8
0
100
AcDbBlockBegin
  2
EX_INTEGRAL
 70
     0
 10
0.0
 20
0.0
 30
0.0
  3
EX_INTEGRAL
  1

  0
LINE
  5
D1
330
9F
100
AcDbEntity
  8
0
  6
CONTINUOUS
 62
     0
100
AcDbLine
 10
0.0
 20
0.0
 30
0.0
 11
-1.0
 21
0.0
 31
0.0
  0
ARC
  5
D2
330
9F
100
AcDbEntity
  8
0
  6
CONTINUOUS
 62
     0
100
AcDbCircle
 10
0.542115
 20
0.164992
 30
0.0
 40
0.56667
100
AcDbArc
 50
73.07249033629006
 51
196.9275130221199
  0
ARC
  5
D3
330
9F
100
AcDbEntity
  8
0
  6
CONTINUOUS
 62
     0
100
AcDbCircle
 10
-0.542115
 20
-0.164992
 30
0.0
 40
0.56667
100
AcDbArc
 50
253.0724869220464
 51
16.9275130559125
  0
ENDBLK
  5
A1
330
9F
100
AcDbEntity
  8
0
100
AcDbBlockEnd
  0
BLOCK
  5
356
330
355
100
AcDbEntity
  8
0
100
AcDbBlockBegin
  2
*D15
 70
     1
 10
0.0
 20
0.0
 30
0.0
  3
*D15
  1

  0
LINE
  5
358
330
355
100
AcDbEntity
  8
LAY-20
  6
CONTINUOUS
 62
     4
100
AcDbLine
 10
289.0
 20
115.1986412405
 30
0.0
 11
224.5
 21
115.1986412405
 31
0.0
  0
LINE
  5
359
330
355
100
AcDbEntity
  8
LAY-20
  6
CONTINUOUS
 62
     4
100
AcDbLine
 10
246.3672954017
 20
155.1986412405
 30
0.0
 11
224.5
 21
155.1986412405001
 31
0.0
  0
LINE
  5
35A
330
355
100
AcDbEntity
  8
LAY-20
  6
CONTINUOUS
 62
     4
100
AcDbLine
 10
227.5
 20
120.1986412405
 30
0.0
 11
227.5
 21
150.1986412405001
 31
0.0
  0
INSERT
  5
35B
330
355
100
AcDbEntity
  8
LAY-20
 62
     4
100
AcDbBlockReference
  2
EX_BNORM
 10
227.5
 20
115.1986412405
 30
0.0
 41
5.0
 42
5.0
 43
5.0
 50
270.0
  0
INSERT
  5
35C
330
355
100
AcDbEntity
  8
LAY-20
 62
     4
100
AcDbBlockReference
  2
EX_BNORM
 10
227.5
 20
155.1986412405001
 30
0.0
 41
5.0
 42
5.0
 43
5.0
 50
90.0
  0
MTEXT
  5
35D
330
355
100
AcDbEntity
  8
LAY-20
 62
     7
100
AcDbMText
 10
222.5
 20
135.1986412405
 30
0.0
 40
6.2362208
 41
0.0
 71
     5
 72
     1
  1
40
  7
EXCADDIM1
 11
0.0
 21
1.0
 31
0.0
  0
POINT
  5
35E
330
355
100
AcDbEntity
  8
DEFPOINTS
 62
     0
100
AcDbPoint
 10
292.0
 20
115.1986412405
 30
0.0
  0
POINT
  5
35F
330
355
100
AcDbEntity
  8
DEFPOINTS
 62
     0
100
AcDbPoint
 10
249.3672954017
 20
155.1986412405
 30
0.0
  0
POINT
  5
360
330
355
100
AcDbEntity
  8
DEFPOINTS
 62
     0
100
AcDbPoint
 10
227.5
 20
155.1986412405001
 30
0.0
  0
ENDBLK
  5
357
330
355
100
AcDbEntity
  8
0
100
AcDbBlockEnd
  0
BLOCK
  5
363
330
362
100
AcDbEntity
  8
0
100
AcDbBlockBegin
  2
*D16
 70
     1
 10
0.0
 20
0.0
 30
0.0
  3
*D16
  1

  0
LINE
  5
365
330
362
100
AcDbEntity
  8
LAY-20
  6
CONTINUOUS
 62
     4
100
AcDbLine
 10
371.0
 20
95.1986412405
 30
0.0
 11
435.5
 21
95.1986412405
 31
0.0
  0
LINE
  5
366
330
362
100
AcDbEntity
  8
LAY-20
  6
CONTINUOUS
 62
     4
100
AcDbLine
 10
413.63270459831
 20
155.1986412405
 30
0.0
 11
435.5
 21
155.1986412405
 31
0.0
  0
LINE
  5
367
330
362
100
AcDbEntity
  8
LAY-20
  6
CONTINUOUS
 62
     4
100
AcDbLine
 10
432.5
 20
100.1986412405
 30
0.0
 11
432.5
 21
150.1986412405
 31
0.0
  0
INSERT
  5
368
330
362
100
AcDbEntity
  8
LAY-20
 62
     4
100
AcDbBlockReference
  2
EX_BNORM
 10
432.5
 20
95.1986412405
 30
0.0
 41
5.0
 42
5.0
 43
5.0
 50
270.0
  0
INSERT
  5
369
330
362
100
AcDbEntity
  8
LAY-20
 62
     4
100
AcDbBlockReference
  2
EX_BNORM
 10
432.5
 20
155.1986412405
 30
0.0
 41
5.0
 42
5.0
 43
5.0
 50
90.0
  0
MTEXT
  5
36A
330
362
100
AcDbEntity
  8
LAY-20
 62
     7
100
AcDbMText
 10
427.5
 20
125.1986412405
 30
0.0
 40
6.2362208
 41
0.0
 71
     5
 72
     1
  1
60
  7
EXCADDIM1
 11
0.0
 21
1.0
 31
0.0
  0
POINT
  5
36B
330
362
100
AcDbEntity
  8
DEFPOINTS
 62
     0
100
AcDbPoint
 10
368.0
 20
95.1986412405
 30
0.0
  0
POINT
  5
36C
330
362
100
AcDbEntity
  8
DEFPOINTS
 62
     0
100
AcDbPoint
 10
410.63270459831
 20
155.1986412405
 30
0.0
  0
POINT
  5
36D
330
362
100
AcDbEntity
  8
DEFPOINTS
 62
     0
100
AcDbPoint
 10
432.5
 20
155.1986412405
 30
0.0
  0
ENDBLK
  5
364
330
362
100
AcDbEntity
  8
0
100
AcDbBlockEnd
  0
BLOCK
  5
370
330
36F
100
AcDbEntity
  8
0
100
AcDbBlockBegin
  2
*D17
 70
     1
 10
0.0
 20
0.0
 30
0.0
  3
*D17
  1

  0
LINE
  5
372
330
36F
100
AcDbEntity
  8
LAY-20
  6
CONTINUOUS
 62
     4
100
AcDbLine
 10
333.0
 20
249.99999999999
 30
0.0
 11
435.5
 21
249.99999999999
 31
0.0
  0
LINE
  5
373
330
36F
100
AcDbEntity
  8
LAY-20
  6
CONTINUOUS
 62
     4
100
AcDbLine
 10
432.5
 20
160.1986412405
 30
0.0
 11
432.5
 21
244.99999999999
 31
0.0
  0
INSERT
  5
374
330
36F
100
AcDbEntity
  8
LAY-20
 62
     4
100
AcDbBlockReference
  2
EX_BNORM
 10
432.5
 20
155.1986412405
 30
0.0
 41
5.0
 42
5.0
 43
5.0
 50
270.0
  0
INSERT
  5
375
330
36F
100
AcDbEntity
  8
LAY-20
 62
     4
100
AcDbBlockReference
  2
EX_BNORM
 10
432.5
 20
249.99999999999
 30
0.0
 41
5.0
 42
5.0
 43
5.0
 50
90.0
  0
MTEXT
  5
376
330
36F
100
AcDbEntity
  8
LAY-20
 62
     7
100
AcDbMText
 10
427.5
 20
202.599320620245
 30
0.0
 40
6.2362208
 41
0.0
 71
     5
 72
     1
  1
95
  7
EXCADDIM1
 11
0.0
 21
1.0
 31
0.0
  0
POINT
  5
377
330
36F
100
AcDbEntity
  8
DEFPOINTS
 62
     0
100
AcDbPoint
 10
432.5
 20
155.1986412405
 30
0.0
  0
POINT
  5
378
330
36F
100
AcDbEntity
  8
DEFPOINTS
 62
     0
100
AcDbPoint
 10
330.0
 20
249.99999999999
 30
0.0
  0
POINT
  5
379
330
36F
100
AcDbEntity
  8
DEFPOINTS
 62
     0
100
AcDbPoint
 10
432.5
 20
249.99999999999
 30
0.0
  0
ENDBLK
  5
371
330
36F
100
AcDbEntity
  8
0
100
AcDbBlockEnd
  0
BLOCK
  5
37C
330
37B
100
AcDbEntity
  8
0
100
AcDbBlockBegin
  2
*D18
 70
     1
 10
0.0
 20
0.0
 30
0.0
  3
*D18
  1

  0
LINE
  5
37E
330
37B
100
AcDbEntity
  8
LAY-20
  6
CONTINUOUS
 62
     4
100
AcDbLine
 10
247.5
 20
151.1986412405
 30
0.0
 11
247.5
 21
301.0
 31
0.0
  0
LINE
  5
37F
330
37B
100
AcDbEntity
  8
LAY-20
  6
CONTINUOUS
 62
     4
100
AcDbLine
 10
412.5
 20
151.1986412405
 30
0.0
 11
412.5
 21
301.0
 31
0.0
  0
LINE
  5
380
330
37B
100
AcDbEntity
  8
LAY-20
  6
CONTINUOUS
 62
     4
100
AcDbLine
 10
253.5
 20
298.0
 30
0.0
 11
406.5
 21
298.0
 31
0.0
  0
INSERT
  5
381
330
37B
100
AcDbEntity
  8
LAY-20
 62
     4
100
AcDbBlockReference
  2
EX_BNORM
 10
247.5
 20
298.0
 30
0.0
 41
6.0
 42
6.0
 43
6.0
 50
180.0
  0
INSERT
  5
382
330
37B
100
AcDbEntity
  8
LAY-20
 62
     4
100
AcDbBlockReference
  2
EX_BNORM
 10
412.5
 20
298.0
 30
0.0
 41
6.0
 42
6.0
 43
6.0
  0
MTEXT
  5
383
330
37B
100
AcDbEntity
  8
LAY-20
 62
     7
100
AcDbMText
 10
330.0
 20
303.0
 30
0.0
 40
6.2362208
 41
0.0
 71
     5
 72
     1
  1
%%c165
  7
EXCADDIM1
  0
POINT
  5
384
330
37B
100
AcDbEntity
  8
DEFPOINTS
 62
     0
100
AcDbPoint
 10
247.5
 20
148.1986412405
 30
0.0
  0
POINT
  5
385
330
37B
100
AcDbEntity
  8
DEFPOINTS
 62
     0
100
AcDbPoint
 10
412.5
 20
148.1986412405
 30
0.0
  0
POINT
  5
386
330
37B
100
AcDbEntity
  8
DEFPOINTS
 62
     0
100
AcDbPoint
 10
412.5
 20
298.0
 30
0.0
  0
ENDBLK
  5
37D
330
37B
100
AcDbEntity
  8
0
100
AcDbBlockEnd
  0
BLOCK
  5
389
330
388
100
AcDbEntity
  8
0
100
AcDbBlockBegin
  2
*D19
 70
     1
 10
0.0
 20
0.0
 30
0.0
  3
*D19
  1

  0
LINE
  5
38B
330
388
100
AcDbEntity
  8
LAY-20
  6
CONTINUOUS
 62
     4
100
AcDbLine
 10
257.49999999999
 20
160.99999999999
 30
0.0
 11
257.49999999999
 21
287.0
 31
0.0
  0
LINE
  5
38C
330
388
100
AcDbEntity
  8
LAY-20
  6
CONTINUOUS
 62
     4
100
AcDbLine
 10
402.50000000001
 20
160.99999999999
 30
0.0
 11
402.50000000001
 21
287.0
 31
0.0
  0
LINE
  5
38D
330
388
100
AcDbEntity
  8
LAY-20
  6
CONTINUOUS
 62
     4
100
AcDbLine
 10
263.49999999999
 20
284.0
 30
0.0
 11
396.50000000001
 21
284.0
 31
0.0
  0
INSERT
  5
38E
330
388
100
AcDbEntity
  8
LAY-20
 62
     4
100
AcDbBlockReference
  2
EX_BNORM
 10
257.49999999999
 20
284.0
 30
0.0
 41
6.0
 42
6.0
 43
6.0
 50
180.0
  0
INSERT
  5
38F
330
388
100
AcDbEntity
  8
LAY-20
 62
     4
100
AcDbBlockReference
  2
EX_BNORM
 10
402.50000000001
 20
284.0
 30
0.0
 41
6.0
 42
6.0
 43
6.0
  0
MTEXT
  5
390
330
388
100
AcDbEntity
  8
LAY-20
 62
     7
100
AcDbMText
 10
330.0
 20
289.0
 30
0.0
 40
6.2362208
 41
0.0
 71
     5
 72
     1
  1
%%c145
  7
EXCADDIM1
  0
POINT
  5
391
330
388
100
AcDbEntity
  8
DEFPOINTS
 62
     0
100
AcDbPoint
 10
257.49999999999
 20
157.99999999999
 30
0.0
  0
POINT
  5
392
330
388
100
AcDbEntity
  8
DEFPOINTS
 62
     0
100
AcDbPoint
 10
402.50000000001
 20
157.99999999999
 30
0.0
  0
POINT
  5
393
330
388
100
AcDbEntity
  8
DEFPOINTS
 62
     0
100
AcDbPoint
 10
402.50000000001
 20
284.0
 30
0.0
  0
ENDBLK
  5
38A
330
388
100
AcDbEntity
  8
0
100
AcDbBlockEnd
  0
BLOCK
  5
396
330
395
100
AcDbEntity
  8
0
100
AcDbBlockBegin
  2
*D20
 70
     1
 10
0.0
 20
0.0
 30
0.0
  3
*D20
  1

  0
LINE
  5
398
330
395
100
AcDbEntity
  8
LAY-20
  6
CONTINUOUS
 62
     4
100
AcDbLine
 10
276.5
 20
165.49999999999
 30
0.0
 11
276.5
 21
273.0
 31
0.0
  0
LINE
  5
399
330
395
100
AcDbEntity
  8
LAY-20
  6
CONTINUOUS
 62
     4
100
AcDbLine
 10
383.50000000001
 20
164.99999999999
 30
0.0
 11
383.50000000001
 21
273.0
 31
0.0
  0
LINE
  5
39A
330
395
100
AcDbEntity
  8
LAY-20
  6
CONTINUOUS
 62
     4
100
AcDbLine
 10
282.5
 20
270.0
 30
0.0
 11
377.50000000001
 21
270.0
 31
0.0
  0
INSERT
  5
39B
330
395
100
AcDbEntity
  8
LAY-20
 62
     4
100
AcDbBlockReference
  2
EX_BNORM
 10
276.5
 20
270.0
 30
0.0
 41
6.0
 42
6.0
 43
6.0
 50
180.0
  0
INSERT
  5
39C
330
395
100
AcDbEntity
  8
LAY-20
 62
     4
100
AcDbBlockReference
  2
EX_BNORM
 10
383.50000000001
 20
270.0
 30
0.0
 41
6.0
 42
6.0
 43
6.0
  0
MTEXT
  5
39D
330
395
100
AcDbEntity
  8
LAY-20
 62
     7
100
AcDbMText
 10
330.000000000005
 20
275.0
 30
0.0
 40
6.2362208
 41
0.0
 71
     5
 72
     1
  1
%%c107
  7
EXCADDIM1
  0
POINT
  5
39E
330
395
100
AcDbEntity
  8
DEFPOINTS
 62
     0
100
AcDbPoint
 10
276.5
 20
162.49999999999
 30
0.0
  0
POINT
  5
39F
330
395
100
AcDbEntity
  8
DEFPOINTS
 62
     0
100
AcDbPoint
 10
383.50000000001
 20
161.99999999999
 30
0.0
  0
POINT
  5
3A0
330
395
100
AcDbEntity
  8
DEFPOINTS
 62
     0
100
AcDbPoint
 10
383.50000000001
 20
270.0
 30
0.0
  0
ENDBLK
  5
397
330
395
100
AcDbEntity
  8
0
100
AcDbBlockEnd
  0
BLOCK
  5
3A3
330
3A2
100
AcDbEntity
  8
0
100
AcDbBlockBegin
  2
*D21
 70
     1
 10
0.0
 20
0.0
 30
0.0
  3
*D21
  1

  0
LINE
  5
3A5
330
3A2
100
AcDbEntity
  8
LAY-20
  6
CONTINUOUS
 62
     4
100
AcDbLine
 10
300.2
 20
105.1986412405
 30
0.0
 11
300.2
 21
72.19864124049997
 31
0.0
  0
LINE
  5
3A6
330
3A2
100
AcDbEntity
  8
LAY-20
  6
CONTINUOUS
 62
     4
100
AcDbLine
 10
359.8
 20
105.1986412405
 30
0.0
 11
359.8
 21
72.19864124049997
 31
0.0
  0
LINE
  5
3A7
330
3A2
100
AcDbEntity
  8
LAY-20
  6
CONTINUOUS
 62
     4
100
AcDbLine
 10
306.2
 20
75.19864124049997
 30
0.0
 11
353.8
 21
75.19864124049997
 31
0.0
  0
INSERT
  5
3A8
330
3A2
100
AcDbEntity
  8
LAY-20
 62
     4
100
AcDbBlockReference
  2
EX_BNORM
 10
300.2
 20
75.19864124049997
 30
0.0
 41
6.0
 42
6.0
 43
6.0
 50
180.0
  0
INSERT
  5
3A9
330
3A2
100
AcDbEntity
  8
LAY-20
 62
     4
100
AcDbBlockReference
  2
EX_BNORM
 10
359.8
 20
75.19864124049997
 30
0.0
 41
6.0
 42
6.0
 43
6.0
  0
MTEXT
  5
3AA
330
3A2
100
AcDbEntity
  8
LAY-20
 62
     7
100
AcDbMText
 10
330.0
 20
80.19864124049997
 30
0.0
 40
6.2362208
 41
0.0
 71
     5
 72
     1
  1
Rｃ2(59.6)
  7
EXCADDIM1
  0
POINT
  5
3AB
330
3A2
100
AcDbEntity
  8
DEFPOINTS
 62
     0
100
AcDbPoint
 10
300.2
 20
108.1986412405
 30
0.0
  0
POINT
  5
3AC
330
3A2
100
AcDbEntity
  8
DEFPOINTS
 62
     0
100
AcDbPoint
 10
359.8
 20
108.1986412405
 30
0.0
  0
POINT
  5
3AD
330
3A2
100
AcDbEntity
  8
DEFPOINTS
 62
     0
100
AcDbPoint
 10
359.8
 20
75.19864124049997
 30
0.0
  0
ENDBLK
  5
3A4
330
3A2
100
AcDbEntity
  8
0
100
AcDbBlockEnd
  0
ENDSEC
  0
SECTION
  2
ENTITIES
  0
LINE
  5
D4
330
1F
100
AcDbEntity
  8
LAY-10
  6
CONTINUOUS
 62
     7
100
AcDbLine
 10
291.9999999999977
 20
114.9976311137211
 30
0.0
 11
292.2010101267753
 21
115.1986412404985
 31
0.0
  0
LINE
  5
D5
330
1F
100
AcDbEntity
  8
LAY-10
  6
CONTINUOUS
 62
     7
100
AcDbLine
 10
292.0000000000003
 20
112.1692039889775
 30
0.0
 11
294.4999999999995
 21
114.6692039889766
 31
0.0
  0
LINE
  5
D6
330
1F
100
AcDbEntity
  8
LAY-10
  6
CONTINUOUS
 62
     7
100
AcDbLine
 10
292.0000000000003
 20
109.3407768642313
 30
0.0
 11
294.4999999999995
 21
111.8407768642304
 31
0.0
  0
LINE
  5
D7
330
1F
100
AcDbEntity
  8
LAY-10
  6
CONTINUOUS
 62
     7
100
AcDbLine
 10
292.0000000000003
 20
106.5123497394851
 30
0.0
 11
294.4999999999995
 21
109.0123497394842
 31
0.0
  0
LINE
  5
D8
330
1F
100
AcDbEntity
  8
LAY-10
  6
CONTINUOUS
 62
     7
100
AcDbLine
 10
292.0000000000003
 20
103.6839226147389
 30
0.0
 11
294.4999999999995
 21
106.183922614738
 31
0.0
  0
LINE
  5
D9
330
1F
100
AcDbEntity
  8
LAY-10
  6
CONTINUOUS
 62
     7
100
AcDbLine
 10
292.0000000000003
 20
100.8554954899927
 30
0.0
 11
294.4999999999994
 21
103.3554954899918
 31
0.0
  0
LINE
  5
DA
330
1F
100
AcDbEntity
  8
LAY-10
  6
CONTINUOUS
 62
     7
100
AcDbLine
 10
292.0000000000003
 20
98.02706836524652
 30
0.0
 11
294.4999999999995
 21
100.5270683652457
 31
0.0
  0
LINE
  5
DB
330
1F
100
AcDbEntity
  8
LAY-10
  6
CONTINUOUS
 62
     7
100
AcDbLine
 10
292.0000000000003
 20
95.19864124050036
 30
0.0
 11
294.4999999999994
 21
97.69864124049946
 31
0.0
  0
LINE
  5
DC
330
1F
100
AcDbEntity
  8
LAY-10
  6
CONTINUOUS
 62
     7
100
AcDbLine
 10
365.4999999999994
 20
114.9976311137228
 30
0.0
 11
365.7010101267717
 21
115.1986412404951
 31
0.0
  0
LINE
  5
DD
330
1F
100
AcDbEntity
  8
LAY-10
  6
CONTINUOUS
 62
     7
100
AcDbLine
 10
365.4999999999994
 20
112.1692039889766
 30
0.0
 11
368.0000000000038
 21
114.6692039889809
 31
0.0
  0
LINE
  5
DE
330
1F
100
AcDbEntity
  8
LAY-10
  6
CONTINUOUS
 62
     7
100
AcDbLine
 10
365.4999999999994
 20
109.3407768642304
 30
0.0
 11
368.0000000000038
 21
111.8407768642347
 31
0.0
  0
LINE
  5
DF
330
1F
100
AcDbEntity
  8
LAY-10
  6
CONTINUOUS
 62
     7
100
AcDbLine
 10
365.4999999999994
 20
106.5123497394843
 30
0.0
 11
368.0000000000038
 21
109.0123497394885
 31
0.0
  0
LINE
  5
E0
330
1F
100
AcDbEntity
  8
LAY-10
  6
CONTINUOUS
 62
     7
100
AcDbLine
 10
365.4999999999969
 20
103.6839226147355
 30
0.0
 11
368.0000000000038
 21
106.1839226147423
 31
0.0
  0
LINE
  5
E1
330
1F
100
AcDbEntity
  8
LAY-10
  6
CONTINUOUS
 62
     7
100
AcDbLine
 10
365.4999999999969
 20
100.8554954899893
 30
0.0
 11
368.0000000000011
 21
103.3554954899936
 31
0.0
  0
LINE
  5
E2
330
1F
100
AcDbEntity
  8
LAY-10
  6
CONTINUOUS
 62
     7
100
AcDbLine
 10
365.4999999999969
 20
98.02706836524305
 30
0.0
 11
368.0000000000011
 21
100.5270683652474
 31
0.0
  0
LINE
  5
E3
330
1F
100
AcDbEntity
  8
LAY-10
  6
CONTINUOUS
 62
     7
100
AcDbLine
 10
365.4999999999969
 20
95.1986412404969
 30
0.0
 11
368.0000000000011
 21
97.69864124050116
 31
0.0
  0
LINE
  5
E4
330
1F
100
AcDbEntity
  8
LAY-10
  6
CONTINUOUS
 62
     7
100
AcDbLine
 10
253.5000000000001
 20
155.1986412405
 30
0.0
 11
290.2739938727367
 21
145.3450792798323
 31
0.0
  0
LINE
  5
E5
330
1F
100
AcDbEntity
  8
LAY-10
  6
CONTINUOUS
 62
     7
100
AcDbLine
 10
258.0376247012161
 20
148.1986412405002
 30
0.0
 11
247.5000000000002
 21
148.1986412405002
 31
0.0
  0
LINE
  5
E6
330
1F
100
AcDbEntity
  8
LAY-10
  6
CONTINUOUS
 62
     7
100
AcDbLine
 10
247.5000000000002
 20
148.1986412405002
 30
0.0
 11
248.377345908034
 21
154.3400625967373
 31
0.0
  0
LINE
  5
E7
330
1F
100
AcDbEntity
  8
LAY-10
  6
CONTINUOUS
 62
     7
100
AcDbLine
 10
254.1847759934253
 20
150.874051344425
 30
0.0
 11
256.5377293291303
 21
150.2435793982949
 31
0.0
  0
LINE
  5
E8
330
1F
100
AcDbEntity
  8
LAY-10
  6
CONTINUOUS
 62
     7
100
AcDbLine
 10
251.6872389158978
 20
149.2250424043218
 30
0.0
 11
251.5406101782091
 21
148.1986412405002
 31
0.0
  0
ARC
  5
E9
330
1F
100
AcDbEntity
  8
LAY-10
  6
CONTINUOUS
 62
     7
100
AcDbCircle
 10
253.6671379032202
 20
148.942199691847
 30
0.0
 40
2.0
100
AcDbArc
 50
74.99999999999885
 51
171.8698976458388
  0
LINE
  5
EA
330
1F
100
AcDbEntity
  8
LAY-10
  6
CONTINUOUS
 62
     7
100
AcDbLine
 10
406.5000000000002
 20
155.1986412405
 30
0.0
 11
369.7260061272637
 21
145.3450792798324
 31
0.0
  0
LINE
  5
EB
330
1F
100
AcDbEntity
  8
LAY-10
  6
CONTINUOUS
 62
     7
100
AcDbLine
 10
395.8304575676445
 20
148.1986412405002
 30
0.0
 11
412.5000000000002
 21
148.1986412405002
 31
0.0
  0
LINE
  5
EC
330
1F
100
AcDbEntity
  8
LAY-10
  6
CONTINUOUS
 62
     7
100
AcDbLine
 10
412.5000000000002
 20
148.1986412405002
 30
0.0
 11
411.6226540919663
 21
154.3400625967373
 31
0.0
  0
LINE
  5
ED
330
1F
100
AcDbEntity
  8
LAY-10
  6
CONTINUOUS
 62
     7
100
AcDbLine
 10
405.8152240065751
 20
150.874051344425
 30
0.0
 11
370.7612823076738
 21
141.481375974676
 31
0.0
  0
LINE
  5
EE
330
1F
100
AcDbEntity
  8
LAY-10
  6
CONTINUOUS
 62
     7
100
AcDbLine
 10
408.3127610841024
 20
149.2250424043218
 30
0.0
 11
408.4593898217913
 21
148.1986412405002
 31
0.0
  0
ARC
  5
EF
330
1F
100
AcDbEntity
  8
LAY-10
  6
CONTINUOUS
 62
     7
100
AcDbCircle
 10
406.3328620967802
 20
148.942199691847
 30
0.0
 40
2.0
100
AcDbArc
 50
8.130102354161254
 51
105.000000000003
  0
LINE
  5
F0
330
1F
100
AcDbEntity
  8
LAY-10
  6
CONTINUOUS
 62
     7
100
AcDbLine
 10
302.1000000000001
 20
134.1986412404984
 30
0.0
 11
321.209631117135
 21
134.1986412404984
 31
0.0
  0
LINE
  5
F1
330
1F
100
AcDbEntity
  8
LAY-10
  6
CONTINUOUS
 62
     7
100
AcDbLine
 10
303.5000000000041
 20
134.1986412404984
 30
0.0
 11
296.8028551524751
 21
134.1986412404984
 31
0.0
  0
LINE
  5
F2
330
1F
100
AcDbEntity
  8
LAY-10
  6
CONTINUOUS
 62
     7
100
AcDbLine
 10
259.0000000000014
 20
137.1986412405
 30
0.0
 11
270.9999999999952
 21
137.1986412405
 31
0.0
  0
LINE
  5
F3
330
1F
100
AcDbEntity
  8
LAY-10
  6
CONTINUOUS
 62
     7
100
AcDbLine
 10
258.0124806351088
 20
148.4860392312119
 30
0.0
 11
259.0000000000014
 21
137.1986412405
 31
0.0
  0
LINE
  5
F4
330
1F
100
AcDbEntity
  8
LAY-10
  6
CONTINUOUS
 62
     7
100
AcDbLine
 10
271.5761398140091
 20
143.7839494483829
 30
0.0
 11
270.9999999999952
 21
137.1986412405
 31
0.0
  0
ARC
  5
F5
330
1F
100
AcDbEntity
  8
LAY-10
  6
CONTINUOUS
 62
     7
100
AcDbCircle
 10
273.5685292101925
 20
143.6096379628876
 30
0.0
 40
2.0
100
AcDbArc
 50
74.99999999999885
 51
175.0000000000003
  0
ARC
  5
F6
330
1F
100
AcDbEntity
  8
LAY-10
  6
CONTINUOUS
 62
     7
100
AcDbCircle
 10
256.0200912389253
 20
148.3117277457166
 30
0.0
 40
2.0
100
AcDbArc
 50
4.999999999999743
 51
74.99999999999885
  0
LINE
  5
F7
330
1F
100
AcDbEntity
  8
LAY-10
  6
CONTINUOUS
 62
     7
100
AcDbLine
 10
274.0861673003976
 20
145.5414896154657
 30
0.0
 11
289.2387176923266
 21
141.481375974676
 31
0.0
  0
LINE
  5
F8
330
1F
100
AcDbEntity
  8
LAY-10
  6
CONTINUOUS
 62
     7
100
AcDbLine
 10
303.2903688828552
 20
134.1986412404977
 30
0.0
 11
303.4999999999872
 21
130.1986412404983
 31
0.0
  0
LINE
  5
F9
330
1F
100
AcDbEntity
  8
LAY-10
  6
CONTINUOUS
 62
     7
100
AcDbLine
 10
350.5792283833531
 20
141.2509771967413
 30
0.0
 11
349.9999999999964
 21
130.1986412404983
 31
0.0
  0
ARC
  5
FA
330
1F
100
AcDbEntity
  8
LAY-10
  6
CONTINUOUS
 62
     7
100
AcDbCircle
 10
371.2789203978788
 20
139.549524322098
 30
0.0
 40
2.0
100
AcDbArc
 50
105.0000000000012
 51
177.000000000001
  0
LINE
  5
FB
330
1F
100
AcDbEntity
  8
LAY-10
  6
CONTINUOUS
 62
     7
100
AcDbLine
 10
364.6331455450185
 20
108.1986412404985
 30
0.0
 11
364.9999999999998
 21
115.1986412404984
 31
0.0
  0
ARC
  5
FC
330
1F
100
AcDbEntity
  8
LAY-10
  6
CONTINUOUS
 62
     7
100
AcDbCircle
 10
371.2789203978789
 20
139.5495243220981
 30
0.0
 40
6.000000000000004
100
AcDbArc
 50
105.0000000000006
 51
153.7991294022296
  0
ARC
  5
FD
330
1F
100
AcDbEntity
  8
LAY-10
  6
CONTINUOUS
 62
     7
100
AcDbCircle
 10
288.7210796021214
 20
139.5495243220981
 30
0.0
 40
6.000000000000004
100
AcDbArc
 50
3.000000000001267
 51
74.99999999999936
  0
ARC
  5
FE
330
1F
100
AcDbEntity
  8
LAY-10
  6
CONTINUOUS
 62
     7
100
AcDbCircle
 10
288.7210796021216
 20
139.549524322098
 30
0.0
 40
2.0
100
AcDbArc
 50
2.99999999999909
 51
74.99999999999885
  0
LINE
  5
FF
330
1F
100
AcDbEntity
  8
LAY-10
  6
CONTINUOUS
 62
     7
100
AcDbLine
 10
295.3668544549819
 20
108.1986412404985
 30
0.0
 11
295.0000000000006
 21
115.1986412404984
 31
0.0
  0
LINE
  5
100
330
1F
100
AcDbEntity
  8
LAY-10
  6
CONTINUOUS
 62
     7
100
AcDbLine
 10
294.9104116415395
 20
136.0939693280125
 30
0.0
 11
294.7128568106489
 21
139.8635400595559
 31
0.0
  0
ARC
  5
101
330
1F
100
AcDbEntity
  8
LAY-10
  6
CONTINUOUS
 62
     7
100
AcDbCircle
 10
296.9076707110486
 20
136.1986412404985
 30
0.0
 40
2.0
100
AcDbArc
 50
183.0000000000024
 51
270.0
  0
LINE
  5
102
330
1F
100
AcDbEntity
  8
LAY-10
  6
CONTINUOUS
 62
     7
100
AcDbLine
 10
321.5792283833598
 20
141.250977196743
 30
0.0
 11
321.0000000000028
 21
130.1986412404983
 31
0.0
  0
LINE
  5
103
330
1F
100
AcDbEntity
  8
LAY-10
  6
CONTINUOUS
 62
     7
100
AcDbLine
 10
322.5778579181144
 20
142.1986412405001
 30
0.0
 11
330.0000000000002
 21
142.1986412405001
 31
0.0
  0
LINE
  5
104
330
1F
100
AcDbEntity
  8
LAY-10
  6
CONTINUOUS
 62
     7
100
AcDbLine
 10
330.0000000000002
 20
134.1986412404984
 30
0.0
 11
350.2096311171285
 21
134.1986412404984
 31
0.0
  0
ARC
  5
105
330
1F
100
AcDbEntity
  8
LAY-10
  6
CONTINUOUS
 62
     7
100
AcDbCircle
 10
410.6327045983051
 20
154.1986412405
 30
0.0
 40
1.0
100
AcDbArc
 50
8.130102354154609
 51
90.0
  0
ARC
  5
106
330
1F
100
AcDbEntity
  8
LAY-10
  6
CONTINUOUS
 62
     7
100
AcDbCircle
 10
249.3672954016952
 20
154.1986412405
 30
0.0
 40
1.0
100
AcDbArc
 50
90.0
 51
171.8698976458452
  0
ARC
  5
107
330
1F
100
AcDbEntity
  8
LAY-10
  6
CONTINUOUS
 62
     7
100
AcDbCircle
 10
351.5778579181076
 20
141.1986412404984
 30
0.0
 40
1.0
100
AcDbArc
 50
90.0
 51
177.000000000001
  0
ARC
  5
108
330
1F
100
AcDbEntity
  8
LAY-10
  6
CONTINUOUS
 62
     7
100
AcDbCircle
 10
322.5778579181144
 20
141.1986412405001
 30
0.0
 40
1.0
100
AcDbArc
 50
90.0
 51
177.000000000001
  0
LINE
  5
109
330
1F
100
AcDbEntity
  8
LAY-10
  6
CONTINUOUS
 62
     7
100
AcDbLine
 10
360.5
 20
130.1986412404983
 30
0.0
 11
299.5
 21
130.1986412404983
 31
0.0
  0
LINE
  5
10A
330
1F
100
AcDbEntity
  8
LAY-10
  6
CONTINUOUS
 62
     7
100
AcDbLine
 10
360.5
 20
122.1986412404984
 30
0.0
 11
299.5
 21
122.1986412404984
 31
0.0
  0
LINE
  5
10B
330
1F
100
AcDbEntity
  8
LAY-10
  6
CONTINUOUS
 62
     7
100
AcDbLine
 10
355.500000000003
 20
133.6986412404909
 30
0.0
 11
362.4999999999985
 21
133.6986412404909
 31
0.0
  0
LINE
  5
10C
330
1F
100
AcDbEntity
  8
LAY-10
  6
CONTINUOUS
 62
     7
100
AcDbLine
 10
355.500000000003
 20
133.6986412404913
 30
0.0
 11
359.0000000000012
 21
131.6779152983286
 31
0.0
  0
LINE
  5
10D
330
1F
100
AcDbEntity
  8
LAY-10
  6
CONTINUOUS
 62
     7
100
AcDbLine
 10
359.0000000000012
 20
131.6779152983291
 30
0.0
 11
362.499999999998
 21
133.6986412404909
 31
0.0
  0
LINE
  5
10E
330
1F
100
AcDbEntity
  8
LAY-10
  6
CONTINUOUS
 62
     7
100
AcDbLine
 10
295.0000000000009
 20
115.1986412404984
 30
0.0
 11
292.0000000000053
 21
115.1986412404984
 31
0.0
  0
LINE
  5
10F
330
1F
100
AcDbEntity
  8
LAY-10
  6
CONTINUOUS
 62
     7
100
AcDbLine
 10
290.7183386716307
 20
139.6541962345838
 30
0.0
 11
292.0000000000053
 21
115.1986412404984
 31
0.0
  0
LINE
  5
110
330
1F
100
AcDbEntity
  8
LAY-10
  6
CONTINUOUS
 62
     7
100
AcDbLine
 10
364.9999999999994
 20
115.1986412404984
 30
0.0
 11
367.9999999999951
 21
115.1986412404984
 31
0.0
  0
LINE
  5
111
330
1F
100
AcDbEntity
  8
LAY-10
  6
CONTINUOUS
 62
     7
100
AcDbLine
 10
369.2816613283697
 20
139.6541962345838
 30
0.0
 11
367.9999999999952
 21
115.1986412405002
 31
0.0
  0
LINE
  5
112
330
1F
100
AcDbEntity
  8
LAY-10
  6
CONTINUOUS
 62
     7
100
AcDbLine
 10
360.5000000000002
 20
122.1986412405
 30
0.0
 11
360.5000000000002
 21
130.1986412405
 31
0.0
  0
LINE
  5
113
330
1F
100
AcDbEntity
  8
LAY-10
  6
CONTINUOUS
 62
     7
100
AcDbLine
 10
299.5000000000002
 20
122.1986412405
 30
0.0
 11
299.5000000000002
 21
130.1986412405
 31
0.0
  0
LINE
  5
114
330
1F
100
AcDbEntity
  8
LAY-10
  6
CONTINUOUS
 62
     7
100
AcDbLine
 10
257.4999999999947
 20
157.9999999999873
 30
0.0
 11
269.4839567770493
 21
157.9999999999873
 31
0.0
  0
LINE
  5
115
330
1F
100
AcDbEntity
  8
LAY-10
  6
CONTINUOUS
 62
     7
100
AcDbLine
 10
259.1094468812751
 20
153.6955944786767
 30
0.0
 11
299.0259488928949
 21
142.9999999999873
 31
0.0
  0
LINE
  5
116
330
1F
100
AcDbEntity
  8
LAY-10
  6
CONTINUOUS
 62
     7
100
AcDbLine
 10
257.6298259019711
 20
155.5227742187689
 30
0.0
 11
257.4999999999947
 21
157.9999999999873
 31
0.0
  0
ARC
  5
117
330
1F
100
AcDbEntity
  8
LAY-10
  6
CONTINUOUS
 62
     7
100
AcDbCircle
 10
259.6270849714802
 20
155.6274461312548
 30
0.0
 40
2.0
100
AcDbArc
 50
182.9999999999991
 51
254.999999999997
  0
LINE
  5
118
330
1F
100
AcDbEntity
  8
LAY-10
  6
CONTINUOUS
 62
     7
100
AcDbLine
 10
269.1857827935783
 20
156.2665755298145
 30
0.0
 11
269.8571462766553
 21
160.1695246617251
 31
0.0
  0
LINE
  5
119
330
1F
100
AcDbEntity
  8
LAY-10
  6
CONTINUOUS
 62
     7
100
AcDbLine
 10
402.3701740980288
 20
155.5227742187689
 30
0.0
 11
402.5000000000052
 21
157.9999999999873
 31
0.0
  0
ARC
  5
11A
330
1F
100
AcDbEntity
  8
LAY-10
  6
CONTINUOUS
 62
     7
100
AcDbCircle
 10
400.3729150285196
 20
155.6274461312548
 30
0.0
 40
2.0
100
AcDbArc
 50
285.0000000000012
 51
357.000000000001
  0
LINE
  5
11B
330
1F
100
AcDbEntity
  8
LAY-10
  6
CONTINUOUS
 62
     7
100
AcDbLine
 10
402.5000000000052
 20
157.9999999999873
 30
0.0
 11
390.5160432229507
 21
157.9999999999873
 31
0.0
  0
LINE
  5
11C
330
1F
100
AcDbEntity
  8
LAY-10
  6
CONTINUOUS
 62
     7
100
AcDbLine
 10
303.2903688828878
 20
146.9999999999873
 30
0.0
 11
303.5000000000198
 21
142.9999999999873
 31
0.0
  0
LINE
  5
11D
330
1F
100
AcDbEntity
  8
LAY-10
  6
CONTINUOUS
 62
     7
100
AcDbLine
 10
267.9414378030726
 20
155.4701743652636
 30
0.0
 11
258.4999999999943
 21
157.9999999999873
 31
0.0
  0
LINE
  5
11E
330
1F
100
AcDbEntity
  8
LAY-10
  6
CONTINUOUS
 62
     7
100
AcDbLine
 10
274.8084987583722
 20
154.9999999999872
 30
0.0
 11
274.1167549223807
 21
160.1335428446449
 31
0.0
  0
LINE
  5
11F
330
1F
100
AcDbEntity
  8
LAY-10
  6
CONTINUOUS
 62
     7
100
AcDbLine
 10
392.0585621969273
 20
155.4701743652636
 30
0.0
 11
401.5000000000057
 21
157.9999999999873
 31
0.0
  0
LINE
  5
120
330
1F
100
AcDbEntity
  8
LAY-10
  6
CONTINUOUS
 62
     7
100
AcDbLine
 10
350.2620388964341
 20
147.9999999999866
 30
0.0
 11
350.000000000019
 21
142.9999999999873
 31
0.0
  0
LINE
  5
121
330
1F
100
AcDbEntity
  8
LAY-10
  6
CONTINUOUS
 62
     7
100
AcDbLine
 10
353.7379611036059
 20
147.9999999999887
 30
0.0
 11
354.0000000000211
 21
142.9999999999873
 31
0.0
  0
LINE
  5
122
330
1F
100
AcDbEntity
  8
LAY-10
  6
CONTINUOUS
 62
     7
100
AcDbLine
 10
299.5525588832498
 20
146.9999999999865
 30
0.0
 11
321.2096311171321
 21
146.9999999999865
 31
0.0
  0
LINE
  5
123
330
1F
100
AcDbEntity
  8
LAY-10
  6
CONTINUOUS
 62
     7
100
AcDbLine
 10
364.2201171238722
 20
148.0108854893877
 30
0.0
 11
364.0000000000375
 21
143.8108005621864
 31
0.0
  0
LINE
  5
124
330
1F
100
AcDbEntity
  8
LAY-10
  6
CONTINUOUS
 62
     7
100
AcDbLine
 10
350.2620388964341
 20
147.9999999999876
 30
0.0
 11
364.2195466395464
 21
147.9999999999876
 31
0.0
  0
LINE
  5
125
330
1F
100
AcDbEntity
  8
LAY-10
  6
CONTINUOUS
 62
     7
100
AcDbLine
 10
275.8472016904216
 20
154.9999999999872
 30
0.0
 11
275.0333301200263
 21
160.1559212167469
 31
0.0
  0
ARC
  5
126
330
1F
100
AcDbEntity
  8
LAY-10
  6
CONTINUOUS
 62
     7
100
AcDbCircle
 10
270.8426722220583
 20
159.9999999999869
 30
0.0
 40
1.0
100
AcDbArc
 50
90.0
 51
170.2398169556093
  0
ARC
  5
127
330
1F
100
AcDbEntity
  8
LAY-10
  6
CONTINUOUS
 62
     7
100
AcDbCircle
 10
273.1257118816197
 20
159.9999999999869
 30
0.0
 40
1.0
100
AcDbArc
 50
7.674368095125249
 51
90.0
  0
ARC
  5
128
330
1F
100
AcDbEntity
  8
LAY-10
  6
CONTINUOUS
 62
     7
100
AcDbCircle
 10
274.0455606255773
 20
159.9999999999869
 30
0.0
 40
1.0
100
AcDbArc
 50
8.970227702039434
 51
90.0
  0
ARC
  5
129
330
1F
100
AcDbEntity
  8
LAY-10
  6
CONTINUOUS
 62
     7
100
AcDbCircle
 10
292.6942174379319
 20
154.5788383248719
 30
0.0
 40
1.0
100
AcDbArc
 50
270.0
 51
359.148246592244
  0
ARC
  5
12A
330
1F
100
AcDbEntity
  8
LAY-10
  6
CONTINUOUS
 62
     7
100
AcDbCircle
 10
318.3773427992636
 20
154.5788383248719
 30
0.0
 40
1.0
100
AcDbArc
 50
270.0
 51
354.5022251437688
  0
ARC
  5
12B
330
1F
100
AcDbEntity
  8
LAY-10
  6
CONTINUOUS
 62
     7
100
AcDbCircle
 10
313.234161166129
 20
154.5788383248719
 30
0.0
 40
1.0
100
AcDbArc
 50
189.7993784458768
 51
270.0
  0
LINE
  5
12C
330
1F
100
AcDbEntity
  8
LAY-10
  6
CONTINUOUS
 62
     7
100
AcDbLine
 10
313.234161166129
 20
153.5788383248719
 30
0.0
 11
318.3773427992636
 21
153.5788383248719
 31
0.0
  0
ARC
  5
12D
330
1F
100
AcDbEntity
  8
LAY-10
  6
CONTINUOUS
 62
     7
100
AcDbCircle
 10
309.4261244867221
 20
158.9999999999869
 30
0.0
 40
2.0
100
AcDbArc
 50
9.799378445876794
 51
90.0
  0
ARC
  5
12E
330
1F
100
AcDbEntity
  8
LAY-10
  6
CONTINUOUS
 62
     7
100
AcDbCircle
 10
341.6226572007363
 20
154.5788383248719
 30
0.0
 40
1.0
100
AcDbArc
 50
185.4977748562312
 51
270.0
  0
ARC
  5
12F
330
1F
100
AcDbEntity
  8
LAY-10
  6
CONTINUOUS
 62
     7
100
AcDbCircle
 10
346.7658388338708
 20
154.5788383248719
 30
0.0
 40
1.0
100
AcDbArc
 50
270.0
 51
350.2006215541233
  0
LINE
  5
130
330
1F
100
AcDbEntity
  8
LAY-10
  6
CONTINUOUS
 62
     7
100
AcDbLine
 10
346.7658388338708
 20
153.5788383248719
 30
0.0
 11
341.6226572007363
 21
153.5788383248719
 31
0.0
  0
ARC
  5
131
330
1F
100
AcDbEntity
  8
LAY-10
  6
CONTINUOUS
 62
     7
100
AcDbCircle
 10
350.5738755132777
 20
158.9999999999869
 30
0.0
 40
2.0
100
AcDbArc
 50
90.0
 51
170.2006215541233
  0
ARC
  5
132
330
1F
100
AcDbEntity
  8
LAY-10
  6
CONTINUOUS
 62
     7
100
AcDbCircle
 10
373.5451160360529
 20
159.9999999999869
 30
0.0
 40
1.0
100
AcDbArc
 50
90.0
 51
169.1947564657618
  0
LINE
  5
133
330
1F
100
AcDbEntity
  8
LAY-10
  6
CONTINUOUS
 62
     7
100
AcDbLine
 10
370.4743600970169
 20
153.5788383248719
 30
0.0
 11
367.3057825620681
 21
153.5788383248719
 31
0.0
  0
ARC
  5
134
330
1F
100
AcDbEntity
  8
LAY-10
  6
CONTINUOUS
 62
     7
100
AcDbCircle
 10
370.4743600970169
 20
154.5788383248719
 30
0.0
 40
1.0
100
AcDbArc
 50
270.0
 51
349.1947564657618
  0
LINE
  5
135
330
1F
100
AcDbEntity
  8
LAY-10
  6
CONTINUOUS
 62
     7
100
AcDbLine
 10
373.5451160360529
 20
160.9999999999869
 30
0.0
 11
389.1573277779415
 21
160.9999999999869
 31
0.0
  0
ARC
  5
136
330
1F
100
AcDbEntity
  8
LAY-10
  6
CONTINUOUS
 62
     7
100
AcDbCircle
 10
386.8742881183802
 20
159.9999999999869
 30
0.0
 40
1.0
100
AcDbArc
 50
90.0
 51
172.3256319048747
  0
ARC
  5
137
330
1F
100
AcDbEntity
  8
LAY-10
  6
CONTINUOUS
 62
     7
100
AcDbCircle
 10
385.9544393744226
 20
159.9999999999869
 30
0.0
 40
1.0
100
AcDbArc
 50
90.0
 51
171.0297722979606
  0
ARC
  5
138
330
1F
100
AcDbEntity
  8
LAY-10
  6
CONTINUOUS
 62
     7
100
AcDbCircle
 10
383.6387704907986
 20
159.9999999999869
 30
0.0
 40
1.0
100
AcDbArc
 50
90.0
 51
175.2808008265496
  0
LINE
  5
139
330
1F
100
AcDbEntity
  8
LAY-10
  6
CONTINUOUS
 62
     7
100
AcDbLine
 10
329.9999999999999
 20
147.9999999999864
 30
0.0
 11
321.2620388964152
 21
147.9999999999864
 31
0.0
  0
LINE
  5
13A
330
1F
100
AcDbEntity
  8
LAY-10
  6
CONTINUOUS
 62
     7
100
AcDbLine
 10
321.2620388964152
 20
147.9999999999865
 30
0.0
 11
320.9999999999999
 21
142.9999999999873
 31
0.0
  0
LINE
  5
13B
330
1F
100
AcDbEntity
  8
LAY-10
  6
CONTINUOUS
 62
     7
100
AcDbLine
 10
329.9999999999999
 20
146.9999999999865
 30
0.0
 11
350.209631117151
 21
146.9999999999865
 31
0.0
  0
ARC
  5
13C
330
1F
100
AcDbEntity
  8
LAY-10
  6
CONTINUOUS
 62
     7
100
AcDbCircle
 10
268.2002568481752
 20
156.4361001915526
 30
0.0
 40
1.0
100
AcDbArc
 50
254.9999999999989
 51
350.2398169556157
  0
ARC
  5
13D
330
1F
100
AcDbEntity
  8
LAY-10
  6
CONTINUOUS
 62
     7
100
AcDbCircle
 10
391.7997431518247
 20
156.4361001915526
 30
0.0
 40
1.0
100
AcDbArc
 50
189.7601830443844
 51
285.0000000000012
  0
LINE
  5
13E
330
1F
100
AcDbEntity
  8
LAY-10
  6
CONTINUOUS
 62
     7
100
AcDbLine
 10
384.1527983095781
 20
154.9999999999858
 30
0.0
 11
384.9666698799736
 21
160.1559212167469
 31
0.0
  0
LINE
  5
13F
330
1F
100
AcDbEntity
  8
LAY-10
  6
CONTINUOUS
 62
     7
100
AcDbLine
 10
376.4999999999999
 20
154.9999999999858
 30
0.0
 11
385.1915012416275
 21
154.9999999999858
 31
0.0
  0
LINE
  5
140
330
1F
100
AcDbEntity
  8
LAY-10
  6
CONTINUOUS
 62
     7
100
AcDbLine
 10
376.5000000000016
 20
154.9999999999899
 30
0.0
 11
376.303396962281
 21
151.2485905640198
 31
0.0
  0
LINE
  5
141
330
1F
100
AcDbEntity
  8
LAY-10
  6
CONTINUOUS
 62
     7
100
AcDbLine
 10
325.8623282729928
 20
152.37306695893
 30
0.0
 11
325.9999999999998
 21
154.9999999999871
 31
0.0
  0
ARC
  5
142
330
1F
100
AcDbEntity
  8
LAY-10
  6
CONTINUOUS
 62
     7
100
AcDbCircle
 10
329.9999999999999
 20
159.4234062233022
 30
0.0
 40
8.174815659282258
100
AcDbArc
 50
239.5923694531414
 51
270.0
  0
LINE
  5
143
330
1F
100
AcDbEntity
  8
LAY-10
  6
CONTINUOUS
 62
     7
100
AcDbLine
 10
299.5525588832525
 20
146.9999999999865
 30
0.0
 11
285.7250882896188
 21
150.7050595789161
 31
0.0
  0
LINE
  5
144
330
1F
100
AcDbEntity
  8
LAY-10
  6
CONTINUOUS
 62
     7
100
AcDbLine
 10
285.7250882896178
 20
150.7050595789198
 30
0.0
 11
285.4999999999968
 21
154.9999999999872
 31
0.0
  0
LINE
  5
145
330
1F
100
AcDbEntity
  8
LAY-10
  6
CONTINUOUS
 62
     7
100
AcDbLine
 10
289.525639902983
 20
153.5788383248719
 30
0.0
 11
292.6942174379319
 21
153.5788383248719
 31
0.0
  0
ARC
  5
146
330
1F
100
AcDbEntity
  8
LAY-10
  6
CONTINUOUS
 62
     7
100
AcDbCircle
 10
289.525639902983
 20
154.5788383248719
 30
0.0
 40
1.0
100
AcDbArc
 50
190.8052435342383
 51
270.0
  0
LINE
  5
147
330
1F
100
AcDbEntity
  8
LAY-10
  6
CONTINUOUS
 62
     7
100
AcDbLine
 10
336.1376717270083
 20
152.37306695893
 30
0.0
 11
336.0000000000013
 21
154.9999999999871
 31
0.0
  0
ARC
  5
148
330
1F
100
AcDbEntity
  8
LAY-10
  6
CONTINUOUS
 62
     7
100
AcDbCircle
 10
329.9999999999999
 20
162.8312837590738
 30
0.0
 40
12.12622418015382
100
AcDbArc
 50
270.0
 51
300.4076305467834
  0
LINE
  5
149
330
1F
100
AcDbEntity
  8
LAY-10
  6
CONTINUOUS
 62
     7
100
AcDbLine
 10
410.6327045983051
 20
155.1986412405
 30
0.0
 11
402.32640584387
 21
155.1986412405
 31
0.0
  0
LINE
  5
14A
330
1F
100
AcDbEntity
  8
LAY-10
  6
CONTINUOUS
 62
     7
100
AcDbLine
 10
257.67359415613
 20
155.1986412405
 30
0.0
 11
249.3672954016952
 21
155.1986412405
 31
0.0
  0
LINE
  5
14B
330
1F
100
AcDbEntity
  8
LAY-10
  6
CONTINUOUS
 62
     7
100
AcDbLine
 10
385.1915012416288
 20
154.9999999999902
 30
0.0
 11
385.8832450776192
 21
160.1335428446446
 31
0.0
  0
ARC
  5
14C
330
1F
100
AcDbEntity
  8
LAY-10
  6
CONTINUOUS
 62
     7
100
AcDbCircle
 10
389.1573277779415
 20
159.9999999999869
 30
0.0
 40
1.0
100
AcDbArc
 50
9.76018304439084
 51
90.0
  0
LINE
  5
14D
330
1F
100
AcDbEntity
  8
LAY-10
  6
CONTINUOUS
 62
     7
100
AcDbLine
 10
390.8142172064215
 20
156.2665755298145
 30
0.0
 11
390.1428537233446
 21
160.1695246617251
 31
0.0
  0
LINE
  5
14E
330
1F
100
AcDbEntity
  8
LAY-10
  6
CONTINUOUS
 62
     7
100
AcDbLine
 10
355.0000000000011
 20
135.6986412404885
 30
0.0
 11
363.0000000000013
 21
135.6986412404885
 31
0.0
  0
LINE
  5
14F
330
1F
100
AcDbEntity
  8
LAY-10
  6
CONTINUOUS
 62
     7
100
AcDbLine
 10
355.0
 20
135.698641240489
 30
0.0
 11
355.5
 21
135.1986412404899
 31
0.0
  0
LINE
  5
150
330
1F
100
AcDbEntity
  8
LAY-10
  6
CONTINUOUS
 62
     7
100
AcDbLine
 10
362.5
 20
135.1986412404899
 30
0.0
 11
363.0000000000001
 21
135.698641240489
 31
0.0
  0
LINE
  5
151
330
1F
100
AcDbEntity
  8
LAY-10
  6
CONTINUOUS
 62
     7
100
AcDbLine
 10
355.0
 20
184.6986412404931
 30
0.0
 11
363.0000000000001
 21
184.6986412404931
 31
0.0
  0
LINE
  5
152
330
1F
100
AcDbEntity
  8
LAY-10
  6
CONTINUOUS
 62
     7
100
AcDbLine
 10
355.4999999999995
 20
185.1986412404906
 30
0.0
 11
362.4999999999983
 21
185.1986412404906
 31
0.0
  0
LINE
  5
153
330
1F
100
AcDbEntity
  8
LAY-10
  6
CONTINUOUS
 62
     7
100
AcDbLine
 10
363.0000000000001
 20
184.698641240495
 30
0.0
 11
362.5
 21
185.1986412404949
 31
0.0
  0
LINE
  5
154
330
1F
100
AcDbEntity
  8
LAY-10
  6
CONTINUOUS
 62
     7
100
AcDbLine
 10
355.5
 20
185.1986412404949
 30
0.0
 11
355.0
 21
184.698641240495
 31
0.0
  0
LINE
  5
155
330
1F
100
AcDbEntity
  8
LAY-10
  6
CONTINUOUS
 62
     7
100
AcDbLine
 10
367.0
 20
147.99999999998
 30
0.0
 11
367.0
 21
154.0519999999799
 31
0.0
  0
LINE
  5
156
330
1F
100
AcDbEntity
  8
LAY-10
  6
CONTINUOUS
 62
     7
100
AcDbLine
 10
363.0000000000001
 20
147.99999999998
 30
0.0
 11
363.0000000000001
 21
154.0519999999799
 31
0.0
  0
LINE
  5
157
330
1F
100
AcDbEntity
  8
LAY-10
  6
CONTINUOUS
 62
     7
100
AcDbLine
 10
355.0
 20
147.99999999998
 30
0.0
 11
355.0
 21
154.0519999999799
 31
0.0
  0
LINE
  5
158
330
1F
100
AcDbEntity
  8
LAY-10
  6
CONTINUOUS
 62
     7
100
AcDbLine
 10
351.0
 20
147.99999999998
 30
0.0
 11
351.0
 21
154.0519999999799
 31
0.0
  0
ARC
  5
159
330
1F
100
AcDbEntity
  8
LAY-10
  6
CONTINUOUS
 62
     7
100
AcDbCircle
 10
365.0000000000001
 20
151.752203208536
 30
0.0
 40
3.047796791443853
100
AcDbArc
 50
48.98840640770799
 51
131.0115935922931
  0
ARC
  5
15A
330
1F
100
AcDbEntity
  8
LAY-10
  6
CONTINUOUS
 62
     7
100
AcDbCircle
 10
359.0000000000001
 20
143.7308128342045
 30
0.0
 40
11.06918716577541
100
AcDbArc
 50
68.81604434177272
 51
111.1839556582283
  0
ARC
  5
15B
330
1F
100
AcDbEntity
  8
LAY-10
  6
CONTINUOUS
 62
     7
100
AcDbCircle
 10
353.0000000000001
 20
151.752203208536
 30
0.0
 40
3.047796791443853
100
AcDbArc
 50
48.98840640770953
 51
131.0115935922931
  0
LINE
  5
15C
330
1F
100
AcDbEntity
  8
LAY-10
  6
CONTINUOUS
 62
     7
100
AcDbLine
 10
365.0000000000001
 20
154.7999999999799
 30
0.0
 11
353.0000000000001
 21
154.7999999999799
 31
0.0
  0
LINE
  5
15D
330
1F
100
AcDbEntity
  8
LAY-10
  6
CONTINUOUS
 62
     7
100
AcDbLine
 10
351.0
 20
147.99999999998
 30
0.0
 11
367.0
 21
147.99999999998
 31
0.0
  0
LINE
  5
15E
330
1F
100
AcDbEntity
  8
LAY-10
  6
CONTINUOUS
 62
     7
100
AcDbLine
 10
355.0
 20
135.698641240489
 30
0.0
 11
355.0
 21
147.99999999998
 31
0.0
  0
LINE
  5
15F
330
1F
100
AcDbEntity
  8
LAY-10
  6
CONTINUOUS
 62
     7
100
AcDbLine
 10
355.0
 20
154.7999999999849
 30
0.0
 11
355.0
 21
184.6986412404931
 31
0.0
  0
LINE
  5
160
330
1F
100
AcDbEntity
  8
LAY-10
  6
CONTINUOUS
 62
     7
100
AcDbLine
 10
363.0000000000001
 20
135.698641240489
 30
0.0
 11
363.0000000000001
 21
147.99999999998
 31
0.0
  0
LINE
  5
161
330
1F
100
AcDbEntity
  8
LAY-10
  6
CONTINUOUS
 62
     7
100
AcDbLine
 10
363.0000000000001
 20
154.7999999999849
 30
0.0
 11
363.0000000000001
 21
184.6986412404931
 31
0.0
  0
LINE
  5
162
330
1F
100
AcDbEntity
  8
LAY-10
  6
CONTINUOUS
 62
     7
100
AcDbLine
 10
355.500000000003
 20
135.19864124049
 30
0.0
 11
355.500000000003
 21
133.69864124049
 31
0.0
  0
LINE
  5
163
330
1F
100
AcDbEntity
  8
LAY-10
  6
CONTINUOUS
 62
     7
100
AcDbLine
 10
362.499999999998
 20
135.19864124049
 30
0.0
 11
362.499999999998
 21
133.69864124049
 31
0.0
  0
LINE
  5
164
330
1F
100
AcDbEntity
  8
LAY-10
  6
CONTINUOUS
 62
     7
100
AcDbLine
 10
355.4999999999995
 20
142.1986412404985
 30
0.0
 11
351.5778579181076
 21
142.1986412404985
 31
0.0
  0
LINE
  5
165
330
1F
100
AcDbEntity
  8
LAY-10
  6
CONTINUOUS
 62
     7
100
AcDbLine
 10
365.8954104320068
 20
142.1986412404985
 30
0.0
 11
362.4999999999983
 21
142.1986412404985
 31
0.0
  0
LINE
  5
166
330
1F
100
AcDbEntity
  8
LAY-10
  6
CONTINUOUS
 62
     7
100
AcDbLine
 10
299.0259488928961
 20
142.9999999999873
 30
0.0
 11
355.0
 21
142.9999999999873
 31
0.0
  0
LINE
  5
167
330
1F
100
AcDbEntity
  8
LAY-10
  6
CONTINUOUS
 62
     7
100
AcDbLine
 10
400.8905531187247
 20
153.6955944786767
 30
0.0
 11
363.0000000000001
 21
143.5428513697453
 31
0.0
  0
LINE
  5
168
330
1F
100
AcDbEntity
  8
LAY-10
  6
CONTINUOUS
 62
     7
100
AcDbLine
 10
364.1794919243201
 20
147.9999999999876
 30
0.0
 11
364.2201171238729
 21
148.0108854894001
 31
0.0
  0
LINE
  5
169
330
1F
100
AcDbEntity
  8
LAY-10
  6
CONTINUOUS
 62
     7
100
AcDbLine
 10
367.0
 20
148.7557528611116
 30
0.0
 11
376.3033969622796
 21
151.2485905640211
 31
0.0
  0
ARC
  5
16A
330
1F
100
AcDbEntity
  8
LAY-10
  6
CONTINUOUS
 62
     7
100
AcDbCircle
 10
367.3057825620681
 20
154.5788383248719
 30
0.0
 40
1.0
100
AcDbArc
 50
180.8517534077561
 51
184.2456134493769
  0
ARC
  5
16B
330
1F
100
AcDbEntity
  8
LAY-10
  6
CONTINUOUS
 62
     7
100
AcDbCircle
 10
367.3057825620681
 20
154.5788383248719
 30
0.0
 40
1.0
100
AcDbArc
 50
252.1947490987606
 51
270.0
  0
LINE
  5
16C
330
1F
100
AcDbEntity
  8
LAY-10
  6
CONTINUOUS
 62
     7
100
AcDbLine
 10
368.0000000000002
 20
95.19864124050002
 30
0.0
 11
292.0000000000002
 21
95.19864124050002
 31
0.0
  0
LINE
  5
16D
330
1F
100
AcDbEntity
  8
LAY-10
  6
CONTINUOUS
 62
     7
100
AcDbLine
 10
292.0000000000002
 20
115.1986412405
 30
0.0
 11
292.0000000000002
 21
95.19864124050002
 31
0.0
  0
LINE
  5
16E
330
1F
100
AcDbEntity
  8
LAY-10
  6
CONTINUOUS
 62
     7
100
AcDbLine
 10
294.5000000000002
 20
95.19864124050002
 30
0.0
 11
294.5000000000002
 21
115.1986412404984
 31
0.0
  0
LINE
  5
16F
330
1F
100
AcDbEntity
  8
LAY-10
  6
CONTINUOUS
 62
     7
100
AcDbLine
 10
365.5000000000002
 20
95.19864124050002
 30
0.0
 11
365.5000000000002
 21
115.1986412404984
 31
0.0
  0
LINE
  5
170
330
1F
100
AcDbEntity
  8
LAY-10
  6
CONTINUOUS
 62
     7
100
AcDbLine
 10
368.0000000000002
 20
115.1986412405
 30
0.0
 11
368.0000000000002
 21
95.19864124050002
 31
0.0
  0
LINE
  5
171
330
1F
100
AcDbEntity
  8
LAY-10
  6
CONTINUOUS
 62
     7
100
AcDbLine
 10
304.2334406506153
 20
224.3792895532116
 30
0.0
 11
291.9999999999991
 21
154.9999999999905
 31
0.0
  0
LINE
  5
172
330
1F
100
AcDbEntity
  8
LAY-10
  6
CONTINUOUS
 62
     7
100
AcDbLine
 10
289.2607459077694
 20
162.4999999999905
 30
0.0
 11
300.2942096385663
 21
225.0738822638794
 31
0.0
  0
ARC
  5
173
330
1F
100
AcDbEntity
  8
LAY-10
  6
CONTINUOUS
 62
     7
100
AcDbCircle
 10
330.0000000000026
 20
219.8359499398894
 30
0.0
 40
30.16405006010154
100
AcDbArc
 50
9.999999999998629
 51
170.0000000000015
  0
ARC
  5
174
330
1F
100
AcDbEntity
  8
LAY-10
  6
CONTINUOUS
 62
     7
100
AcDbCircle
 10
330.0000000000026
 20
219.8359499398894
 30
0.0
 40
26.16405006010154
100
AcDbArc
 50
9.9999999999984
 51
170.0000000000014
  0
LINE
  5
175
330
1F
100
AcDbEntity
  8
LAY-10
  6
CONTINUOUS
 62
     7
100
AcDbLine
 10
312.0000000000026
 20
238.824302041836
 30
0.0
 11
312.9999999999963
 21
244.7532113469562
 31
0.0
  0
ARC
  5
176
330
1F
100
AcDbEntity
  8
LAY-10
  6
CONTINUOUS
 62
     7
100
AcDbCircle
 10
330.0000000000026
 20
235.0938096603787
 30
0.0
 40
3.730492381458874
100
AcDbArc
 50
1.349076965903709
 51
178.6509230340963
  0
ARC
  5
177
330
1F
100
AcDbEntity
  8
LAY-10
  6
CONTINUOUS
 62
     7
100
AcDbCircle
 10
317.5933456024785
 20
235.6138725967051
 30
0.0
 40
3.210429445133516
100
AcDbArc
 50
356.669406300782
 51
174.3469630849121
  0
ARC
  5
178
330
1F
100
AcDbEntity
  8
LAY-10
  6
CONTINUOUS
 62
     7
100
AcDbCircle
 10
308.6934620797841
 20
236.9979261404717
 30
0.0
 40
1.826375901364543
100
AcDbArc
 50
352.9117936058616
 51
8.831625653220806
  0
ARC
  5
179
330
1F
100
AcDbEntity
  8
LAY-10
  6
CONTINUOUS
 62
     7
100
AcDbCircle
 10
316.5916536820779
 20
235.6138725967051
 30
0.0
 40
3.210429445133516
100
AcDbArc
 50
356.669406300782
 51
81.02485973960056
  0
ARC
  5
17A
330
1F
100
AcDbEntity
  8
LAY-10
  6
CONTINUOUS
 62
     7
100
AcDbCircle
 10
342.4066543975267
 20
235.6138725967051
 30
0.0
 40
3.210429445133516
100
AcDbArc
 50
5.653036915087845
 51
183.3305936992181
  0
ARC
  5
17B
330
1F
100
AcDbEntity
  8
LAY-10
  6
CONTINUOUS
 62
     7
100
AcDbCircle
 10
351.306537920221
 20
236.9979261404717
 30
0.0
 40
1.826375901364543
100
AcDbArc
 50
171.1683743467793
 51
187.0882063941384
  0
ARC
  5
17C
330
1F
100
AcDbEntity
  8
LAY-10
  6
CONTINUOUS
 62
     7
100
AcDbCircle
 10
343.4083463179272
 20
235.6138725967051
 30
0.0
 40
3.210429445133516
100
AcDbArc
 50
98.9751402603995
 51
183.3305936992181
  0
LINE
  5
17D
330
1F
100
AcDbEntity
  8
LAY-10
  6
CONTINUOUS
 62
     7
100
AcDbLine
 10
348.0000000000026
 20
238.824302041836
 30
0.0
 11
347.0000000000088
 21
244.7532113469562
 31
0.0
  0
LINE
  5
17E
330
1F
100
AcDbEntity
  8
LAY-10
  6
CONTINUOUS
 62
     7
100
AcDbLine
 10
345.6014703818766
 20
235.9301130879554
 30
0.0
 11
353.21643690078
 21
158.99999999999
 31
0.0
  0
LINE
  5
17F
330
1F
100
AcDbEntity
  8
LAY-10
  6
CONTINUOUS
 62
     7
100
AcDbLine
 10
344.6510592587817
 20
158.99999999999
 30
0.0
 11
340.2033394892214
 21
235.4273559751142
 31
0.0
  0
LINE
  5
180
330
1F
100
AcDbEntity
  8
LAY-10
  6
CONTINUOUS
 62
     7
100
AcDbLine
 10
339.2016475688236
 20
235.4273559751143
 30
0.0
 11
343.6493673383839
 21
158.99999999999
 31
0.0
  0
LINE
  5
181
330
1F
100
AcDbEntity
  8
LAY-10
  6
CONTINUOUS
 62
     7
100
AcDbLine
 10
333.7294583249177
 20
235.1816391020964
 30
0.0
 11
335.5235501872088
 21
158.99999999999
 31
0.0
  0
LINE
  5
182
330
1F
100
AcDbEntity
  8
LAY-10
  6
CONTINUOUS
 62
     7
100
AcDbLine
 10
326.2705416750874
 20
235.1816391020964
 30
0.0
 11
324.4764498127963
 21
158.99999999999
 31
0.0
  0
LINE
  5
183
330
1F
100
AcDbEntity
  8
LAY-10
  6
CONTINUOUS
 62
     7
100
AcDbLine
 10
320.7983524311815
 20
235.4273559751143
 30
0.0
 11
316.3506326616212
 21
158.99999999999
 31
0.0
  0
LINE
  5
184
330
1F
100
AcDbEntity
  8
LAY-10
  6
CONTINUOUS
 62
     7
100
AcDbLine
 10
315.3489407412234
 20
158.99999999999
 30
0.0
 11
319.7966605107837
 21
235.4273559751142
 31
0.0
  0
LINE
  5
185
330
1F
100
AcDbEntity
  8
LAY-10
  6
CONTINUOUS
 62
     7
100
AcDbLine
 10
314.3985296181286
 20
235.9301130879554
 30
0.0
 11
306.7835630992251
 21
158.99999999999
 31
0.0
  0
LINE
  5
186
330
1F
100
AcDbEntity
  8
LAY-10
  6
CONTINUOUS
 62
     7
100
AcDbLine
 10
310.505879645167
 20
236.7725564402559
 30
0.0
 11
300.8350520915521
 21
158.99999999999
 31
0.0
  0
LINE
  5
187
330
1F
100
AcDbEntity
  8
LAY-10
  6
CONTINUOUS
 62
     7
100
AcDbLine
 10
298.8196490892333
 20
158.99999999999
 30
0.0
 11
308.1796734541542
 21
234.2730848696477
 31
0.0
  0
LINE
  5
188
330
1F
100
AcDbEntity
  8
LAY-10
  6
CONTINUOUS
 62
     7
100
AcDbLine
 10
305.7686026941059
 20
229.7049367243212
 30
0.0
 11
295.3115019043499
 21
158.99999999999
 31
0.0
  0
LINE
  5
189
330
1F
100
AcDbEntity
  8
LAY-10
  6
CONTINUOUS
 62
     7
100
AcDbLine
 10
353.2164369007799
 20
158.99999999999
 30
0.0
 11
343.6493673383799
 21
158.99999999999
 31
0.0
  0
LINE
  5
18A
330
1F
100
AcDbEntity
  8
LAY-10
  6
CONTINUOUS
 62
     7
100
AcDbLine
 10
335.5235501872099
 20
158.99999999999
 30
0.0
 11
324.4764498128
 21
158.99999999999
 31
0.0
  0
LINE
  5
18B
330
1F
100
AcDbEntity
  8
LAY-10
  6
CONTINUOUS
 62
     7
100
AcDbLine
 10
316.35063266162
 20
158.99999999999
 30
0.0
 11
306.7835630992299
 21
158.99999999999
 31
0.0
  0
LINE
  5
18C
330
1F
100
AcDbEntity
  8
LAY-10
  6
CONTINUOUS
 62
     7
100
AcDbLine
 10
300.8350520915499
 20
158.99999999999
 30
0.0
 11
295.3115019043499
 21
158.99999999999
 31
0.0
  0
LINE
  5
18D
330
1F
100
AcDbEntity
  8
LAY-10
  6
CONTINUOUS
 62
     7
100
AcDbLine
 10
285.3930583446232
 20
154.9999999999905
 30
0.0
 11
285.0000000000002
 21
162.4999999999905
 31
0.0
  0
ARC
  5
18E
330
1F
100
AcDbEntity
  8
LAY-10
  6
CONTINUOUS
 62
     7
100
AcDbCircle
 10
381.3924397494449
 20
156.9999999999904
 30
0.0
 40
2.0
100
AcDbArc
 50
270.0
 51
357.0000000000043
  0
LINE
  5
18F
330
1F
100
AcDbEntity
  8
LAY-10
  6
CONTINUOUS
 62
     7
100
AcDbLine
 10
383.3896988189539
 20
156.8953280875046
 30
0.0
 11
383.5000000000067
 21
158.9999999999903
 31
0.0
  0
LINE
  5
190
330
1F
100
AcDbEntity
  8
LAY-10
  6
CONTINUOUS
 62
     7
100
AcDbLine
 10
293.3224523553077
 20
162.4999999999905
 30
0.0
 11
276.6834272274889
 21
162.4999999999905
 31
0.0
  0
LINE
  5
191
330
1F
100
AcDbEntity
  8
LAY-10
  6
CONTINUOUS
 62
     7
100
AcDbLine
 10
366.6775476446927
 20
162.4999999999905
 30
0.0
 11
370.7392540922357
 21
162.4999999999905
 31
0.0
  0
LINE
  5
192
330
1F
100
AcDbEntity
  8
LAY-10
  6
CONTINUOUS
 62
     7
100
AcDbLine
 10
371.3563985247152
 20
158.9999999999905
 30
0.0
 11
359.7057903614388
 21
225.0738822638794
 31
0.0
  0
LINE
  5
193
330
1F
100
AcDbEntity
  8
LAY-10
  6
CONTINUOUS
 62
     7
100
AcDbLine
 10
383.5000000000099
 20
158.9999999999905
 30
0.0
 11
371.3563985247152
 21
158.9999999999905
 31
0.0
  0
LINE
  5
194
330
1F
100
AcDbEntity
  8
LAY-10
  6
CONTINUOUS
 62
     7
100
AcDbLine
 10
288.4272091446169
 20
154.9999999999905
 30
0.0
 11
288.5433698049317
 21
154.3913671151507
 31
0.0
  0
LINE
  5
195
330
1F
100
AcDbEntity
  8
LAY-10
  6
CONTINUOUS
 62
     7
100
AcDbLine
 10
293.6941069424549
 20
154.5639729710338
 30
0.0
 11
293.7005893548005
 21
154.9999999999905
 31
0.0
  0
LINE
  5
196
330
1F
100
AcDbEntity
  8
LAY-10
  6
CONTINUOUS
 62
     7
100
AcDbLine
 10
295.6072973968347
 20
160.9999999999869
 30
0.0
 11
299.0683442073121
 21
160.9999999999869
 31
0.0
  0
LINE
  5
197
330
1F
100
AcDbEntity
  8
LAY-10
  6
CONTINUOUS
 62
     7
100
AcDbLine
 10
306.9815341202786
 20
160.9999999999869
 30
0.0
 11
309.4261244867221
 21
160.9999999999869
 31
0.0
  0
LINE
  5
198
330
1F
100
AcDbEntity
  8
LAY-10
  6
CONTINUOUS
 62
     7
100
AcDbLine
 10
311.4557370518284
 20
158.99999999999
 30
0.0
 11
311.396943976495
 21
159.3403976185621
 31
0.0
  0
LINE
  5
199
330
1F
100
AcDbEntity
  8
LAY-10
  6
CONTINUOUS
 62
     7
100
AcDbLine
 10
312.2487514212426
 20
154.4086395155843
 30
0.0
 11
312.1466123356207
 21
154.9999999999905
 31
0.0
  0
LINE
  5
19A
330
1F
100
AcDbEntity
  8
LAY-10
  6
CONTINUOUS
 62
     7
100
AcDbLine
 10
319.372742719154
 20
154.4830312297154
 30
0.0
 11
319.4225008868783
 21
154.9999999999905
 31
0.0
  0
LINE
  5
19B
330
1F
100
AcDbEntity
  8
LAY-10
  6
CONTINUOUS
 62
     7
100
AcDbLine
 10
324.5235501872023
 20
160.9999999999869
 30
0.0
 11
335.4764498128028
 21
160.9999999999869
 31
0.0
  0
LINE
  5
19C
330
1F
100
AcDbEntity
  8
LAY-10
  6
CONTINUOUS
 62
     7
100
AcDbLine
 10
340.6272572808458
 20
154.4830312297154
 30
0.0
 11
340.5774991131216
 21
154.9999999999905
 31
0.0
  0
LINE
  5
19D
330
1F
100
AcDbEntity
  8
LAY-10
  6
CONTINUOUS
 62
     7
100
AcDbLine
 10
347.7512485787572
 20
154.4086395155843
 30
0.0
 11
347.8533876643791
 21
154.9999999999905
 31
0.0
  0
LINE
  5
19E
330
1F
100
AcDbEntity
  8
LAY-10
  6
CONTINUOUS
 62
     7
100
AcDbLine
 10
348.5442629481715
 20
158.99999999999
 30
0.0
 11
348.6030560235048
 21
159.3403976185621
 31
0.0
  0
LINE
  5
19F
330
1F
100
AcDbEntity
  8
LAY-10
  6
CONTINUOUS
 62
     7
100
AcDbLine
 10
350.5738755132777
 20
160.9999999999869
 30
0.0
 11
353.0184658797266
 21
160.9999999999869
 31
0.0
  0
LINE
  5
1A0
330
1F
100
AcDbEntity
  8
LAY-10
  6
CONTINUOUS
 62
     7
100
AcDbLine
 10
382.2226071888371
 20
154.9999999999858
 30
0.0
 11
382.2380922264189
 21
155.1875784463259
 31
0.0
  0
LINE
  5
1A1
330
1F
100
AcDbEntity
  8
LAY-10
  6
CONTINUOUS
 62
     7
100
AcDbLine
 10
382.5528165041196
 20
158.9999999999905
 30
0.0
 11
382.6421606166092
 21
160.0822724660268
 31
0.0
  0
LINE
  5
1A2
330
1F
100
AcDbEntity
  8
LAY-10
  6
CONTINUOUS
 62
     7
100
AcDbLine
 10
371.5727908553828
 20
154.9999999999905
 30
0.0
 11
371.4566301950681
 21
154.3913671151507
 31
0.0
  0
LINE
  5
1A3
330
1F
100
AcDbEntity
  8
LAY-10
  6
CONTINUOUS
 62
     7
100
AcDbLine
 10
372.5628459380017
 20
160.1874712097081
 30
0.0
 11
372.3362110596351
 21
158.9999999999905
 31
0.0
  0
LINE
  5
1A4
330
1F
100
AcDbEntity
  8
LAY-10
  6
CONTINUOUS
 62
     7
100
AcDbLine
 10
363.0000000000001
 20
160.9999999999869
 30
0.0
 11
364.3927026031704
 21
160.9999999999869
 31
0.0
  0
LINE
  5
1A5
330
1F
100
AcDbEntity
  8
LAY-10
  6
CONTINUOUS
 62
     7
100
AcDbLine
 10
366.3058930575451
 20
154.5639729710338
 30
0.0
 11
366.2994106451994
 21
154.9999999999905
 31
0.0
  0
LINE
  5
1A6
330
1F
100
AcDbEntity
  8
LAY-10
  6
CONTINUOUS
 62
     7
100
AcDbLine
 10
363.0000000000001
 20
154.9999999999905
 30
0.0
 11
381.3924397494399
 21
154.9999999999905
 31
0.0
  0
LINE
  5
1A7
330
1F
100
AcDbEntity
  8
LAY-10
  6
CONTINUOUS
 62
     7
100
AcDbLine
 10
364.68849809566
 20
158.99999999999
 30
0.0
 11
363.0000000000001
 21
158.99999999999
 31
0.0
  0
LINE
  5
1A8
330
1F
100
AcDbEntity
  8
LAY-10
  6
CONTINUOUS
 62
     7
100
AcDbLine
 10
363.0000000000001
 20
170.4166587290906
 30
0.0
 11
364.6884980956552
 21
158.99999999999
 31
0.0
  0
LINE
  5
1A9
330
1F
100
AcDbEntity
  8
LAY-10
  6
CONTINUOUS
 62
     7
100
AcDbLine
 10
363.0000000000001
 20
183.3564090981166
 30
0.0
 11
368.000000000006
 21
154.9999999999905
 31
0.0
  0
LINE
  5
1AA
330
1F
100
AcDbEntity
  8
LAY-10
  6
CONTINUOUS
 62
     7
100
AcDbLine
 10
355.7665593493899
 20
224.3792895532116
 30
0.0
 11
362.7126629918279
 21
184.9859782486671
 31
0.0
  0
LINE
  5
1AB
330
1F
100
AcDbEntity
  8
LAY-10
  6
CONTINUOUS
 62
     7
100
AcDbLine
 10
354.2313973058992
 20
229.7049367243212
 30
0.0
 11
360.8137781015661
 21
185.1986412404906
 31
0.0
  0
LINE
  5
1AC
330
1F
100
AcDbEntity
  8
LAY-10
  6
CONTINUOUS
 62
     7
100
AcDbLine
 10
357.9226138223619
 20
185.1986412404906
 30
0.0
 11
351.8203265458509
 21
234.2730848696477
 31
0.0
  0
LINE
  5
1AD
330
1F
100
AcDbEntity
  8
LAY-10
  6
CONTINUOUS
 62
     7
100
AcDbLine
 10
349.4941203548381
 20
236.7725564402559
 30
0.0
 11
355.9072108200431
 21
185.1986412404906
 31
0.0
  0
LINE
  5
1AE
330
1F
100
AcDbEntity
  8
LAY-10
  6
CONTINUOUS
 62
     7
100
AcDbLine
 10
282.5000000000002
 20
150.9999999999926
 30
0.0
 11
276.5
 21
150.9999999999926
 31
0.0
  0
LINE
  5
1AF
330
1F
100
AcDbEntity
  8
LAY-10
  6
CONTINUOUS
 62
     7
100
AcDbLine
 10
282.5000000000002
 20
162.4999999999905
 30
0.0
 11
282.5000000000002
 21
150.9999999999926
 31
0.0
  0
LINE
  5
1B0
330
1F
100
AcDbEntity
  8
LAY-10
  6
CONTINUOUS
 62
     7
100
AcDbLine
 10
277.0000000000005
 20
150.4999999999926
 30
0.0
 11
282.0000000000005
 21
150.4999999999926
 31
0.0
  0
LINE
  5
1B1
330
1F
100
AcDbEntity
  8
LAY-10
  6
CONTINUOUS
 62
     7
100
AcDbLine
 10
276.5
 20
162.4999999999905
 30
0.0
 11
276.5
 21
150.9999999999926
 31
0.0
  0
LINE
  5
1B2
330
1F
100
AcDbEntity
  8
LAY-10
  6
CONTINUOUS
 62
     7
100
AcDbLine
 10
282.0000000000005
 20
150.4999999999926
 30
0.0
 11
282.5000000000002
 21
150.9999999999926
 31
0.0
  0
LINE
  5
1B3
330
1F
100
AcDbEntity
  8
LAY-10
  6
CONTINUOUS
 62
     7
100
AcDbLine
 10
277.0000000000005
 20
150.4999999999926
 30
0.0
 11
276.5
 21
150.9999999999926
 31
0.0
  0
ARC
  5
1B4
330
1F
100
AcDbEntity
  8
LAY-10
  6
CONTINUOUS
 62
     7
100
AcDbCircle
 10
279.5000000000002
 20
160.1999999999906
 30
0.0
 40
6.300000000000004
100
AcDbArc
 50
95.46502379990922
 51
128.6821874534921
  0
ARC
  5
1B5
330
1F
100
AcDbEntity
  8
LAY-10
  6
CONTINUOUS
 62
     7
100
AcDbCircle
 10
279.5000000000002
 20
160.1999999999906
 30
0.0
 40
6.300000000000004
100
AcDbArc
 50
51.31781254649739
 51
84.53497620009915
  0
LINE
  5
1B6
330
1F
100
AcDbEntity
  8
LAY-10
  6
CONTINUOUS
 62
     7
100
AcDbLine
 10
278.9000000000003
 20
166.4713634880905
 30
0.0
 11
278.9000000000003
 21
163.9999999999905
 31
0.0
  0
LINE
  5
1B7
330
1F
100
AcDbEntity
  8
LAY-10
  6
CONTINUOUS
 62
     7
100
AcDbLine
 10
280.1000000000006
 20
163.9999999999905
 30
0.0
 11
278.9000000000003
 21
163.9999999999905
 31
0.0
  0
LINE
  5
1B8
330
1F
100
AcDbEntity
  8
LAY-10
  6
CONTINUOUS
 62
     7
100
AcDbLine
 10
280.1000000000006
 20
166.4713634880905
 30
0.0
 11
280.1000000000006
 21
163.9999999999905
 31
0.0
  0
LINE
  5
1B9
330
1F
100
AcDbEntity
  8
LAY-10
  6
CONTINUOUS
 62
     7
100
AcDbLine
 10
284.7481347569003
 20
162.4999999999905
 30
0.0
 11
274.2518652431002
 21
162.4999999999905
 31
0.0
  0
ARC
  5
1BA
330
1F
100
AcDbEntity
  8
LAY-10
  6
CONTINUOUS
 62
     7
100
AcDbCircle
 10
281.2500000000002
 20
162.3857492993903
 30
0.0
 40
3.500000000000003
100
AcDbArc
 50
1.870641730603566
 51
51.31781254649624
  0
ARC
  5
1BB
330
1F
100
AcDbEntity
  8
LAY-10
  6
CONTINUOUS
 62
     7
100
AcDbCircle
 10
277.7500000000002
 20
162.3857492993903
 30
0.0
 40
3.500000000000003
100
AcDbArc
 50
128.6821874534942
 51
178.1293582694113
  0
ARC
  5
1BC
330
1F
100
AcDbEntity
  8
LAY-10
  6
CONTINUOUS
 62
     7
100
AcDbCircle
 10
276.3612295092012
 20
159.9999999999869
 30
0.0
 40
1.0
100
AcDbArc
 50
82.02329389929048
 51
90.0
  0
LINE
  5
1BD
330
1F
100
AcDbEntity
  8
LAY-10
  6
CONTINUOUS
 62
     7
100
AcDbLine
 10
270.8426722220583
 20
160.9999999999869
 30
0.0
 11
276.5
 21
160.9999999999869
 31
0.0
  0
LINE
  5
1BE
330
1F
100
AcDbEntity
  8
LAY-10
  6
CONTINUOUS
 62
     7
100
AcDbLine
 10
276.9999999999994
 20
150.4999999999926
 30
0.0
 11
276.9999999999994
 21
148.9018352183681
 31
0.0
  0
LINE
  5
1BF
330
1F
100
AcDbEntity
  8
LAY-10
  6
CONTINUOUS
 62
     7
100
AcDbLine
 10
281.9999999999995
 20
150.4999999999926
 30
0.0
 11
281.9999999999995
 21
147.5620892562125
 31
0.0
  0
LINE
  5
1C0
330
1F
100
AcDbEntity
  8
LAY-10
  6
CONTINUOUS
 62
     7
100
AcDbLine
 10
277.0000000000005
 20
154.9999999999872
 30
0.0
 11
274.8084987583722
 21
154.9999999999872
 31
0.0
  0
LINE
  5
1C1
330
1F
100
AcDbEntity
  8
LAY-10
  6
CONTINUOUS
 62
     7
100
AcDbLine
 10
282.0000000000005
 20
154.9999999999905
 30
0.0
 11
355.0
 21
154.9999999999905
 31
0.0
  0
CIRCLE
  5
1C2
330
1F
100
AcDbEntity
  8
LAY-10
  6
CONTINUOUS
 62
     7
100
AcDbCircle
 10
330.0000000000002
 20
414.0000000000169
 30
0.0
 40
82.5
  0
CIRCLE
  5
1C3
330
1F
100
AcDbEntity
  8
LAY-10
  6
CONTINUOUS
 62
     7
100
AcDbCircle
 10
330.0000000000002
 20
414.0000000000169
 30
0.0
 40
76.50000000000007
  0
CIRCLE
  5
1C4
330
1F
100
AcDbEntity
  8
LAY-10
  6
CONTINUOUS
 62
     7
100
AcDbCircle
 10
330.0000000000002
 20
414.0000000000169
 30
0.0
 40
81.50000000000007
  0
CIRCLE
  5
1C5
330
1F
100
AcDbEntity
  8
LAY-10
  6
CONTINUOUS
 62
     7
100
AcDbCircle
 10
329.9999999999999
 20
414.0000000000137
 30
0.0
 40
71.49999999997883
  0
CIRCLE
  5
1C6
330
1F
100
AcDbEntity
  8
LAY-10
  6
CONTINUOUS
 62
     7
100
AcDbCircle
 10
329.9999999999999
 20
414.0000000000137
 30
0.0
 40
72.50000000000007
  0
LINE
  5
1C7
330
1F
100
AcDbEntity
  8
LAY-10
  6
CONTINUOUS
 62
     7
100
AcDbLine
 10
270.1670929346999
 20
425.8753202952799
 30
0.0
 11
276.0715346535693
 21
424.8037320116303
 31
0.0
  0
LINE
  5
1C8
330
1F
100
AcDbEntity
  8
LAY-10
  6
CONTINUOUS
 62
     7
100
AcDbLine
 10
270.1670929346999
 20
402.1246797047475
 30
0.0
 11
276.0715346535693
 21
403.196267988397
 31
0.0
  0
LINE
  5
1C9
330
1F
100
AcDbEntity
  8
LAY-10
  6
CONTINUOUS
 62
     7
100
AcDbLine
 10
274.9000907441764
 20
404.0000000000136
 30
0.0
 11
276.0715346535693
 21
403.196267988397
 31
0.0
  0
LINE
  5
1CA
330
1F
100
AcDbEntity
  8
LAY-10
  6
CONTINUOUS
 62
     7
100
AcDbLine
 10
270.9643829401886
 20
403.2857142857279
 30
0.0
 11
270.1670929346999
 21
402.1246797047475
 31
0.0
  0
LINE
  5
1CB
330
1F
100
AcDbEntity
  8
LAY-10
  6
CONTINUOUS
 62
     7
100
AcDbLine
 10
274.9000907441764
 20
424.0000000000137
 30
0.0
 11
276.0715346535693
 21
424.8037320116303
 31
0.0
  0
LINE
  5
1CC
330
1F
100
AcDbEntity
  8
LAY-10
  6
CONTINUOUS
 62
     7
100
AcDbLine
 10
270.9643829401886
 20
424.7142857142994
 30
0.0
 11
270.1670929346999
 21
425.8753202952799
 31
0.0
  0
ARC
  5
1CD
330
1F
100
AcDbEntity
  8
LAY-10
  6
CONTINUOUS
 62
     7
100
AcDbCircle
 10
329.9999999999999
 20
414.0000000000137
 30
0.0
 40
60.99999999999997
100
AcDbArc
 50
168.7741222385444
 51
191.2258777614561
  0
ARC
  5
1CE
330
1F
100
AcDbEntity
  8
LAY-10
  6
CONTINUOUS
 62
     7
100
AcDbCircle
 10
329.9999999999999
 20
414.0000000000137
 30
0.0
 40
60.00000000000036
100
AcDbArc
 50
170.6846007975119
 51
189.3153992024881
  0
ARC
  5
1CF
330
1F
100
AcDbEntity
  8
LAY-10
  6
CONTINUOUS
 62
     7
100
AcDbCircle
 10
329.9999999999999
 20
414.0000000000137
 30
0.0
 40
55.99999999999991
100
AcDbArc
 50
170.7186800739586
 51
189.2813199260419
  0
LINE
  5
1D0
330
1F
100
AcDbEntity
  8
LAY-10
  6
CONTINUOUS
 62
     7
100
AcDbLine
 10
273.924795395571
 20
424.1770048919958
 30
0.0
 11
271.9566488541112
 21
424.5342008598368
 31
0.0
  0
ARC
  5
1D1
330
1F
100
AcDbEntity
  8
LAY-10
  6
CONTINUOUS
 62
     7
100
AcDbCircle
 10
329.9999999999999
 20
414.0000000000137
 30
0.0
 40
55.00000000000004
100
AcDbArc
 50
168.6716405380696
 51
173.4488726909056
  0
LINE
  5
1D2
330
1F
100
AcDbEntity
  8
LAY-10
  6
CONTINUOUS
 62
     7
100
AcDbLine
 10
273.9247953955712
 20
403.8229951080314
 30
0.0
 11
271.9566488541112
 21
403.4657991401903
 31
0.0
  0
LINE
  5
1D3
330
1F
100
AcDbEntity
  8
LAY-10
  6
CONTINUOUS
 62
     7
100
AcDbLine
 10
272.2455223515436
 20
394.3678755211411
 30
0.0
 11
277.8947130170739
 21
396.3920737045375
 31
0.0
  0
LINE
  5
1D4
330
1F
100
AcDbEntity
  8
LAY-10
  6
CONTINUOUS
 62
     7
100
AcDbLine
 10
284.1208426468097
 20
373.7992174135861
 30
0.0
 11
288.6984450286905
 21
377.6794609490592
 31
0.0
  0
LINE
  5
1D5
330
1F
100
AcDbEntity
  8
LAY-10
  6
CONTINUOUS
 62
     7
100
AcDbLine
 10
287.2820788382394
 20
377.7897913342575
 30
0.0
 11
288.6984450286905
 21
377.6794609490592
 31
0.0
  0
LINE
  5
1D6
330
1F
100
AcDbEntity
  8
LAY-10
  6
CONTINUOUS
 62
     7
100
AcDbLine
 10
284.2307987552562
 20
375.2033478581318
 30
0.0
 11
284.1208426468097
 21
373.7992174135861
 31
0.0
  0
LINE
  5
1D7
330
1F
100
AcDbEntity
  8
LAY-10
  6
CONTINUOUS
 62
     7
100
AcDbLine
 10
277.2820788382394
 20
395.1102994099463
 30
0.0
 11
277.8947130170739
 21
396.3920737045376
 31
0.0
  0
LINE
  5
1D8
330
1F
100
AcDbEntity
  8
LAY-10
  6
CONTINUOUS
 62
     7
100
AcDbLine
 10
273.5165130409704
 20
393.7610350820842
 30
0.0
 11
272.2455223515436
 21
394.3678755211411
 31
0.0
  0
ARC
  5
1D9
330
1F
100
AcDbEntity
  8
LAY-10
  6
CONTINUOUS
 62
     7
100
AcDbCircle
 10
329.9999999999999
 20
414.0000000000137
 30
0.0
 40
55.00000000000004
100
AcDbArc
 50
198.6716405380695
 51
221.3283594619303
  0
ARC
  5
1DA
330
1F
100
AcDbEntity
  8
LAY-10
  6
CONTINUOUS
 62
     7
100
AcDbCircle
 10
329.9999999999999
 20
414.0000000000137
 30
0.0
 40
60.99999999999997
100
AcDbArc
 50
198.7741222385439
 51
221.2258777614558
  0
LINE
  5
1DB
330
1F
100
AcDbEntity
  8
LAY-10
  6
CONTINUOUS
 62
     7
100
AcDbLine
 10
286.5259507361455
 20
377.1488529269041
 30
0.0
 11
285.0000838167915
 21
375.8554388738945
 31
0.0
  0
LINE
  5
1DC
330
1F
100
AcDbEntity
  8
LAY-10
  6
CONTINUOUS
 62
     7
100
AcDbLine
 10
276.3489458441633
 20
394.7759424686943
 30
0.0
 11
274.4658829569681
 21
394.1012099802442
 31
0.0
  0
ARC
  5
1DD
330
1F
100
AcDbEntity
  8
LAY-10
  6
CONTINUOUS
 62
     7
100
AcDbCircle
 10
329.9999999999999
 20
414.0000000000137
 30
0.0
 40
55.99999999999991
100
AcDbArc
 50
200.7186800739586
 51
219.2813199260417
  0
ARC
  5
1DE
330
1F
100
AcDbEntity
  8
LAY-10
  6
CONTINUOUS
 62
     7
100
AcDbCircle
 10
329.9999999999999
 20
414.0000000000137
 30
0.0
 40
60.00000000000036
100
AcDbArc
 50
200.6846007975119
 51
219.3153992024884
  0
LINE
  5
1DF
330
1F
100
AcDbEntity
  8
LAY-10
  6
CONTINUOUS
 62
     7
100
AcDbLine
 10
289.7992174135725
 20
368.1208426468234
 30
0.0
 11
293.6794609490454
 21
372.6984450287043
 31
0.0
  0
LINE
  5
1E0
330
1F
100
AcDbEntity
  8
LAY-10
  6
CONTINUOUS
 62
     7
100
AcDbLine
 10
310.3678755211274
 20
356.2455223515572
 30
0.0
 11
312.3920737045237
 21
361.8947130170876
 31
0.0
  0
LINE
  5
1E1
330
1F
100
AcDbEntity
  8
LAY-10
  6
CONTINUOUS
 62
     7
100
AcDbLine
 10
311.1102994099326
 20
361.2820788382531
 30
0.0
 11
312.3920737045237
 21
361.8947130170876
 31
0.0
  0
LINE
  5
1E2
330
1F
100
AcDbEntity
  8
LAY-10
  6
CONTINUOUS
 62
     7
100
AcDbLine
 10
309.7610350820704
 20
357.5165130409841
 30
0.0
 11
310.3678755211274
 21
356.2455223515573
 31
0.0
  0
LINE
  5
1E3
330
1F
100
AcDbEntity
  8
LAY-10
  6
CONTINUOUS
 62
     7
100
AcDbLine
 10
293.7897913342438
 20
371.282078838253
 30
0.0
 11
293.6794609490454
 21
372.6984450287043
 31
0.0
  0
LINE
  5
1E4
330
1F
100
AcDbEntity
  8
LAY-10
  6
CONTINUOUS
 62
     7
100
AcDbLine
 10
291.203347858118
 20
368.23079875527
 30
0.0
 11
289.7992174135724
 21
368.1208426468235
 31
0.0
  0
ARC
  5
1E5
330
1F
100
AcDbEntity
  8
LAY-10
  6
CONTINUOUS
 62
     7
100
AcDbCircle
 10
329.9999999999999
 20
414.0000000000137
 30
0.0
 40
55.00000000000004
100
AcDbArc
 50
228.6716405380693
 51
251.3283594619303
  0
ARC
  5
1E6
330
1F
100
AcDbEntity
  8
LAY-10
  6
CONTINUOUS
 62
     7
100
AcDbCircle
 10
329.9999999999999
 20
414.0000000000137
 30
0.0
 40
60.99999999999997
100
AcDbArc
 50
228.7741222385444
 51
251.2258777614561
  0
LINE
  5
1E7
330
1F
100
AcDbEntity
  8
LAY-10
  6
CONTINUOUS
 62
     7
100
AcDbLine
 10
310.7759424686806
 20
360.348945844177
 30
0.0
 11
310.1012099802305
 21
358.4658829569817
 31
0.0
  0
LINE
  5
1E8
330
1F
100
AcDbEntity
  8
LAY-10
  6
CONTINUOUS
 62
     7
100
AcDbLine
 10
293.1488529268905
 20
370.5259507361591
 30
0.0
 11
291.8554388738807
 21
369.000083816805
 31
0.0
  0
ARC
  5
1E9
330
1F
100
AcDbEntity
  8
LAY-10
  6
CONTINUOUS
 62
     7
100
AcDbCircle
 10
329.9999999999999
 20
414.0000000000137
 30
0.0
 40
55.99999999999991
100
AcDbArc
 50
230.7186800739584
 51
249.2813199260414
  0
ARC
  5
1EA
330
1F
100
AcDbEntity
  8
LAY-10
  6
CONTINUOUS
 62
     7
100
AcDbCircle
 10
329.9999999999999
 20
414.0000000000137
 30
0.0
 40
60.00000000000036
100
AcDbArc
 50
230.684600797512
 51
249.3153992024882
  0
LINE
  5
1EB
330
1F
100
AcDbEntity
  8
LAY-10
  6
CONTINUOUS
 62
     7
100
AcDbLine
 10
318.1246797047337
 20
354.1670929347136
 30
0.0
 11
319.1962679883833
 21
360.071534653583
 31
0.0
  0
LINE
  5
1EC
330
1F
100
AcDbEntity
  8
LAY-10
  6
CONTINUOUS
 62
     7
100
AcDbLine
 10
341.8753202952662
 20
354.1670929347136
 30
0.0
 11
340.8037320116166
 21
360.071534653583
 31
0.0
  0
LINE
  5
1ED
330
1F
100
AcDbEntity
  8
LAY-10
  6
CONTINUOUS
 62
     7
100
AcDbLine
 10
340.0
 20
358.9000907441901
 30
0.0
 11
340.8037320116166
 21
360.071534653583
 31
0.0
  0
LINE
  5
1EE
330
1F
100
AcDbEntity
  8
LAY-10
  6
CONTINUOUS
 62
     7
100
AcDbLine
 10
340.7142857142857
 20
354.9643829402023
 30
0.0
 11
341.8753202952662
 21
354.1670929347136
 31
0.0
  0
LINE
  5
1EF
330
1F
100
AcDbEntity
  8
LAY-10
  6
CONTINUOUS
 62
     7
100
AcDbLine
 10
319.9999999999999
 20
358.9000907441901
 30
0.0
 11
319.1962679883832
 21
360.071534653583
 31
0.0
  0
LINE
  5
1F0
330
1F
100
AcDbEntity
  8
LAY-10
  6
CONTINUOUS
 62
     7
100
AcDbLine
 10
319.2857142857142
 20
354.9643829402023
 30
0.0
 11
318.1246797047337
 21
354.1670929347136
 31
0.0
  0
ARC
  5
1F1
330
1F
100
AcDbEntity
  8
LAY-10
  6
CONTINUOUS
 62
     7
100
AcDbCircle
 10
329.9999999999999
 20
414.0000000000137
 30
0.0
 40
55.00000000000004
100
AcDbArc
 50
258.6716405380695
 51
265.5159357841754
  0
ARC
  5
1F2
330
1F
100
AcDbEntity
  8
LAY-10
  6
CONTINUOUS
 62
     7
100
AcDbCircle
 10
329.9999999999999
 20
414.0000000000137
 30
0.0
 40
60.99999999999997
100
AcDbArc
 50
258.7741222385442
 51
281.2258777614562
  0
LINE
  5
1F3
330
1F
100
AcDbEntity
  8
LAY-10
  6
CONTINUOUS
 62
     7
100
AcDbLine
 10
340.1770048919821
 20
357.9247953955848
 30
0.0
 11
340.5342008598233
 21
355.956648854125
 31
0.0
  0
LINE
  5
1F4
330
1F
100
AcDbEntity
  8
LAY-10
  6
CONTINUOUS
 62
     7
100
AcDbLine
 10
319.8229951080179
 20
357.9247953955848
 30
0.0
 11
319.4657991401766
 21
355.956648854125
 31
0.0
  0
ARC
  5
1F5
330
1F
100
AcDbEntity
  8
LAY-10
  6
CONTINUOUS
 62
     7
100
AcDbCircle
 10
329.9999999999999
 20
414.0000000000137
 30
0.0
 40
55.99999999999991
100
AcDbArc
 50
260.7186800739585
 51
279.2813199260418
  0
ARC
  5
1F6
330
1F
100
AcDbEntity
  8
LAY-10
  6
CONTINUOUS
 62
     7
100
AcDbCircle
 10
329.9999999999999
 20
414.0000000000137
 30
0.0
 40
60.00000000000036
100
AcDbArc
 50
260.6846007975121
 51
279.3153992024882
  0
LINE
  5
1F7
330
1F
100
AcDbEntity
  8
LAY-10
  6
CONTINUOUS
 62
     7
100
AcDbLine
 10
349.6321244788725
 20
356.2455223515572
 30
0.0
 11
347.6079262954761
 21
361.8947130170876
 31
0.0
  0
LINE
  5
1F8
330
1F
100
AcDbEntity
  8
LAY-10
  6
CONTINUOUS
 62
     7
100
AcDbLine
 10
370.2007825864274
 20
368.1208426468234
 30
0.0
 11
366.3205390509544
 21
372.6984450287042
 31
0.0
  0
LINE
  5
1F9
330
1F
100
AcDbEntity
  8
LAY-10
  6
CONTINUOUS
 62
     7
100
AcDbLine
 10
366.2102086657561
 20
371.282078838253
 30
0.0
 11
366.3205390509544
 21
372.6984450287042
 31
0.0
  0
LINE
  5
1FA
330
1F
100
AcDbEntity
  8
LAY-10
  6
CONTINUOUS
 62
     7
100
AcDbLine
 10
368.7966521418819
 20
368.2307987552698
 30
0.0
 11
370.2007825864274
 21
368.1208426468234
 31
0.0
  0
LINE
  5
1FB
330
1F
100
AcDbEntity
  8
LAY-10
  6
CONTINUOUS
 62
     7
100
AcDbLine
 10
348.8897005900673
 20
361.2820788382531
 30
0.0
 11
347.6079262954761
 21
361.8947130170876
 31
0.0
  0
LINE
  5
1FC
330
1F
100
AcDbEntity
  8
LAY-10
  6
CONTINUOUS
 62
     7
100
AcDbLine
 10
350.2389649179294
 20
357.5165130409841
 30
0.0
 11
349.6321244788724
 21
356.2455223515572
 31
0.0
  0
ARC
  5
1FD
330
1F
100
AcDbEntity
  8
LAY-10
  6
CONTINUOUS
 62
     7
100
AcDbCircle
 10
329.9999999999999
 20
414.0000000000137
 30
0.0
 40
55.00000000000004
100
AcDbArc
 50
288.6716405380697
 51
311.3283594619303
  0
ARC
  5
1FE
330
1F
100
AcDbEntity
  8
LAY-10
  6
CONTINUOUS
 62
     7
100
AcDbCircle
 10
329.9999999999999
 20
414.0000000000137
 30
0.0
 40
60.99999999999997
100
AcDbArc
 50
288.7741222385443
 51
311.2258777614563
  0
LINE
  5
1FF
330
1F
100
AcDbEntity
  8
LAY-10
  6
CONTINUOUS
 62
     7
100
AcDbLine
 10
366.8511470731094
 20
370.5259507361591
 30
0.0
 11
368.1445611261191
 21
369.000083816805
 31
0.0
  0
LINE
  5
200
330
1F
100
AcDbEntity
  8
LAY-10
  6
CONTINUOUS
 62
     7
100
AcDbLine
 10
349.2240575313193
 20
360.348945844177
 30
0.0
 11
349.8987900197694
 21
358.4658829569817
 31
0.0
  0
ARC
  5
201
330
1F
100
AcDbEntity
  8
LAY-10
  6
CONTINUOUS
 62
     7
100
AcDbCircle
 10
329.9999999999999
 20
414.0000000000137
 30
0.0
 40
55.99999999999991
100
AcDbArc
 50
290.7186800739585
 51
309.2813199260416
  0
ARC
  5
202
330
1F
100
AcDbEntity
  8
LAY-10
  6
CONTINUOUS
 62
     7
100
AcDbCircle
 10
329.9999999999999
 20
414.0000000000137
 30
0.0
 40
60.00000000000036
100
AcDbArc
 50
290.6846007975118
 51
309.3153992024885
  0
LINE
  5
203
330
1F
100
AcDbEntity
  8
LAY-10
  6
CONTINUOUS
 62
     7
100
AcDbLine
 10
375.8791573531902
 20
373.7992174135861
 30
0.0
 11
371.3015549713093
 21
377.6794609490592
 31
0.0
  0
LINE
  5
204
330
1F
100
AcDbEntity
  8
LAY-10
  6
CONTINUOUS
 62
     7
100
AcDbLine
 10
387.7544776484561
 20
394.3678755211409
 30
0.0
 11
382.105286982926
 21
396.3920737045374
 31
0.0
  0
LINE
  5
205
330
1F
100
AcDbEntity
  8
LAY-10
  6
CONTINUOUS
 62
     7
100
AcDbLine
 10
382.7179211617604
 20
395.1102994099463
 30
0.0
 11
382.1052869829259
 21
396.3920737045374
 31
0.0
  0
LINE
  5
206
330
1F
100
AcDbEntity
  8
LAY-10
  6
CONTINUOUS
 62
     7
100
AcDbLine
 10
386.4834869590295
 20
393.7610350820839
 30
0.0
 11
387.7544776484561
 21
394.3678755211409
 31
0.0
  0
LINE
  5
207
330
1F
100
AcDbEntity
  8
LAY-10
  6
CONTINUOUS
 62
     7
100
AcDbLine
 10
372.7179211617605
 20
377.7897913342575
 30
0.0
 11
371.3015549713093
 21
377.6794609490591
 31
0.0
  0
LINE
  5
208
330
1F
100
AcDbEntity
  8
LAY-10
  6
CONTINUOUS
 62
     7
100
AcDbLine
 10
375.7692012447437
 20
375.2033478581316
 30
0.0
 11
375.8791573531901
 21
373.7992174135861
 31
0.0
  0
ARC
  5
209
330
1F
100
AcDbEntity
  8
LAY-10
  6
CONTINUOUS
 62
     7
100
AcDbCircle
 10
329.9999999999999
 20
414.0000000000137
 30
0.0
 40
55.00000000000004
100
AcDbArc
 50
318.6716405380697
 51
341.3283594619305
  0
ARC
  5
20A
330
1F
100
AcDbEntity
  8
LAY-10
  6
CONTINUOUS
 62
     7
100
AcDbCircle
 10
329.9999999999999
 20
414.0000000000137
 30
0.0
 40
60.99999999999997
100
AcDbArc
 50
318.774122238544
 51
341.2258777614559
  0
LINE
  5
20B
330
1F
100
AcDbEntity
  8
LAY-10
  6
CONTINUOUS
 62
     7
100
AcDbLine
 10
383.6510541558366
 20
394.7759424686943
 30
0.0
 11
385.5341170430319
 21
394.1012099802442
 31
0.0
  0
LINE
  5
20C
330
1F
100
AcDbEntity
  8
LAY-10
  6
CONTINUOUS
 62
     7
100
AcDbLine
 10
373.4740492638545
 20
377.1488529269041
 30
0.0
 11
374.9999161832085
 21
375.8554388738943
 31
0.0
  0
ARC
  5
20D
330
1F
100
AcDbEntity
  8
LAY-10
  6
CONTINUOUS
 62
     7
100
AcDbCircle
 10
329.9999999999999
 20
414.0000000000137
 30
0.0
 40
55.99999999999991
100
AcDbArc
 50
320.7186800739584
 51
339.2813199260416
  0
ARC
  5
20E
330
1F
100
AcDbEntity
  8
LAY-10
  6
CONTINUOUS
 62
     7
100
AcDbCircle
 10
329.9999999999999
 20
414.0000000000137
 30
0.0
 40
60.00000000000036
100
AcDbArc
 50
320.6846007975122
 51
339.3153992024884
  0
LINE
  5
20F
330
1F
100
AcDbEntity
  8
LAY-10
  6
CONTINUOUS
 62
     7
100
AcDbLine
 10
387.7544776484564
 20
433.6321244788861
 30
0.0
 11
382.105286982926
 21
431.6079262954898
 31
0.0
  0
LINE
  5
210
330
1F
100
AcDbEntity
  8
LAY-10
  6
CONTINUOUS
 62
     7
100
AcDbLine
 10
375.8791573531902
 20
454.200782586441
 30
0.0
 11
371.3015549713093
 21
450.3205390509679
 31
0.0
  0
LINE
  5
211
330
1F
100
AcDbEntity
  8
LAY-10
  6
CONTINUOUS
 62
     7
100
AcDbLine
 10
372.7179211617606
 20
450.2102086657696
 30
0.0
 11
371.3015549713093
 21
450.3205390509679
 31
0.0
  0
LINE
  5
212
330
1F
100
AcDbEntity
  8
LAY-10
  6
CONTINUOUS
 62
     7
100
AcDbLine
 10
375.7692012447437
 20
452.7966521418953
 30
0.0
 11
375.8791573531902
 21
454.200782586441
 31
0.0
  0
LINE
  5
213
330
1F
100
AcDbEntity
  8
LAY-10
  6
CONTINUOUS
 62
     7
100
AcDbLine
 10
382.7179211617604
 20
432.8897005900811
 30
0.0
 11
382.105286982926
 21
431.6079262954896
 31
0.0
  0
LINE
  5
214
330
1F
100
AcDbEntity
  8
LAY-10
  6
CONTINUOUS
 62
     7
100
AcDbLine
 10
386.4834869590295
 20
434.2389649179432
 30
0.0
 11
387.7544776484564
 21
433.6321244788861
 31
0.0
  0
ARC
  5
215
330
1F
100
AcDbEntity
  8
LAY-10
  6
CONTINUOUS
 62
     7
100
AcDbCircle
 10
329.9999999999999
 20
414.0000000000137
 30
0.0
 40
55.00000000000004
100
AcDbArc
 50
18.67164053806925
 51
41.32835946193043
  0
ARC
  5
216
330
1F
100
AcDbEntity
  8
LAY-10
  6
CONTINUOUS
 62
     7
100
AcDbCircle
 10
329.9999999999999
 20
414.0000000000137
 30
0.0
 40
60.99999999999997
100
AcDbArc
 50
18.77412223854388
 51
41.22587776145568
  0
LINE
  5
217
330
1F
100
AcDbEntity
  8
LAY-10
  6
CONTINUOUS
 62
     7
100
AcDbLine
 10
373.4740492638545
 20
450.8511470731231
 30
0.0
 11
374.9999161832086
 21
452.1445611261329
 31
0.0
  0
LINE
  5
218
330
1F
100
AcDbEntity
  8
LAY-10
  6
CONTINUOUS
 62
     7
100
AcDbLine
 10
383.6510541558366
 20
433.2240575313331
 30
0.0
 11
385.534117043032
 21
433.8987900197831
 31
0.0
  0
ARC
  5
219
330
1F
100
AcDbEntity
  8
LAY-10
  6
CONTINUOUS
 62
     7
100
AcDbCircle
 10
329.9999999999999
 20
414.0000000000137
 30
0.0
 40
55.99999999999991
100
AcDbArc
 50
20.71868007395838
 51
39.2813199260417
  0
ARC
  5
21A
330
1F
100
AcDbEntity
  8
LAY-10
  6
CONTINUOUS
 62
     7
100
AcDbCircle
 10
329.9999999999999
 20
414.0000000000137
 30
0.0
 40
60.00000000000036
100
AcDbArc
 50
20.68460079751181
 51
39.31539920248781
  0
LINE
  5
21B
330
1F
100
AcDbEntity
  8
LAY-10
  6
CONTINUOUS
 62
     7
100
AcDbLine
 10
370.2007825864275
 20
459.8791573532037
 30
0.0
 11
366.3205390509544
 21
455.301554971323
 31
0.0
  0
LINE
  5
21C
330
1F
100
AcDbEntity
  8
LAY-10
  6
CONTINUOUS
 62
     7
100
AcDbLine
 10
349.6321244788727
 20
471.75447764847
 30
0.0
 11
347.6079262954761
 21
466.1052869829396
 31
0.0
  0
LINE
  5
21D
330
1F
100
AcDbEntity
  8
LAY-10
  6
CONTINUOUS
 62
     7
100
AcDbLine
 10
348.8897005900673
 20
466.7179211617741
 30
0.0
 11
347.6079262954762
 21
466.1052869829396
 31
0.0
  0
LINE
  5
21E
330
1F
100
AcDbEntity
  8
LAY-10
  6
CONTINUOUS
 62
     7
100
AcDbLine
 10
350.2389649179295
 20
470.4834869590432
 30
0.0
 11
349.6321244788727
 21
471.75447764847
 31
0.0
  0
LINE
  5
21F
330
1F
100
AcDbEntity
  8
LAY-10
  6
CONTINUOUS
 62
     7
100
AcDbLine
 10
366.2102086657561
 20
456.7179211617741
 30
0.0
 11
366.3205390509544
 21
455.301554971323
 31
0.0
  0
LINE
  5
220
330
1F
100
AcDbEntity
  8
LAY-10
  6
CONTINUOUS
 62
     7
100
AcDbLine
 10
368.7966521418819
 20
459.7692012447574
 30
0.0
 11
370.2007825864275
 21
459.8791573532037
 31
0.0
  0
ARC
  5
221
330
1F
100
AcDbEntity
  8
LAY-10
  6
CONTINUOUS
 62
     7
100
AcDbCircle
 10
329.9999999999999
 20
414.0000000000137
 30
0.0
 40
55.00000000000004
100
AcDbArc
 50
48.67164053806921
 51
71.32835946193028
  0
ARC
  5
222
330
1F
100
AcDbEntity
  8
LAY-10
  6
CONTINUOUS
 62
     7
100
AcDbCircle
 10
329.9999999999999
 20
414.0000000000137
 30
0.0
 40
60.99999999999997
100
AcDbArc
 50
48.77412223854395
 51
71.22587776145575
  0
LINE
  5
223
330
1F
100
AcDbEntity
  8
LAY-10
  6
CONTINUOUS
 62
     7
100
AcDbLine
 10
349.2240575313193
 20
467.6510541558501
 30
0.0
 11
349.8987900197694
 21
469.5341170430457
 31
0.0
  0
LINE
  5
224
330
1F
100
AcDbEntity
  8
LAY-10
  6
CONTINUOUS
 62
     7
100
AcDbLine
 10
366.8511470731094
 20
457.474049263868
 30
0.0
 11
368.1445611261191
 21
458.9999161832221
 31
0.0
  0
ARC
  5
225
330
1F
100
AcDbEntity
  8
LAY-10
  6
CONTINUOUS
 62
     7
100
AcDbCircle
 10
329.9999999999999
 20
414.0000000000137
 30
0.0
 40
55.99999999999991
100
AcDbArc
 50
50.71868007395817
 51
69.28131992604176
  0
ARC
  5
226
330
1F
100
AcDbEntity
  8
LAY-10
  6
CONTINUOUS
 62
     7
100
AcDbCircle
 10
329.9999999999999
 20
414.0000000000137
 30
0.0
 40
60.00000000000036
100
AcDbArc
 50
50.68460079751159
 51
69.31539920248811
  0
LINE
  5
227
330
1F
100
AcDbEntity
  8
LAY-10
  6
CONTINUOUS
 62
     7
100
AcDbLine
 10
341.8753202952662
 20
473.8329070653135
 30
0.0
 11
340.8037320116166
 21
467.9284653464443
 31
0.0
  0
LINE
  5
228
330
1F
100
AcDbEntity
  8
LAY-10
  6
CONTINUOUS
 62
     7
100
AcDbLine
 10
318.1246797047339
 20
473.8329070653135
 30
0.0
 11
319.1962679883833
 21
467.9284653464443
 31
0.0
  0
LINE
  5
229
330
1F
100
AcDbEntity
  8
LAY-10
  6
CONTINUOUS
 62
     7
100
AcDbLine
 10
319.9999999999999
 20
469.0999092558373
 30
0.0
 11
319.1962679883835
 21
467.9284653464443
 31
0.0
  0
LINE
  5
22A
330
1F
100
AcDbEntity
  8
LAY-10
  6
CONTINUOUS
 62
     7
100
AcDbLine
 10
319.2857142857143
 20
473.035617059825
 30
0.0
 11
318.1246797047339
 21
473.8329070653135
 31
0.0
  0
LINE
  5
22B
330
1F
100
AcDbEntity
  8
LAY-10
  6
CONTINUOUS
 62
     7
100
AcDbLine
 10
340.0
 20
469.0999092558373
 30
0.0
 11
340.8037320116166
 21
467.9284653464443
 31
0.0
  0
LINE
  5
22C
330
1F
100
AcDbEntity
  8
LAY-10
  6
CONTINUOUS
 62
     7
100
AcDbLine
 10
340.7142857142857
 20
473.035617059825
 30
0.0
 11
341.8753202952662
 21
473.8329070653135
 31
0.0
  0
ARC
  5
22D
330
1F
100
AcDbEntity
  8
LAY-10
  6
CONTINUOUS
 62
     7
100
AcDbCircle
 10
329.9999999999999
 20
414.0000000000137
 30
0.0
 40
55.00000000000004
100
AcDbArc
 50
78.67164053806961
 51
85.5159357841752
  0
ARC
  5
22E
330
1F
100
AcDbEntity
  8
LAY-10
  6
CONTINUOUS
 62
     7
100
AcDbCircle
 10
329.9999999999999
 20
414.0000000000137
 30
0.0
 40
60.99999999999997
100
AcDbArc
 50
78.77412223854391
 51
101.2258777614558
  0
LINE
  5
22F
330
1F
100
AcDbEntity
  8
LAY-10
  6
CONTINUOUS
 62
     7
100
AcDbLine
 10
319.8229951080178
 20
470.0752046044425
 30
0.0
 11
319.4657991401766
 21
472.0433511459024
 31
0.0
  0
LINE
  5
230
330
1F
100
AcDbEntity
  8
LAY-10
  6
CONTINUOUS
 62
     7
100
AcDbLine
 10
340.1770048919819
 20
470.0752046044425
 30
0.0
 11
340.5342008598233
 21
472.0433511459024
 31
0.0
  0
LINE
  5
231
330
1F
100
AcDbEntity
  8
LAY-10
  6
CONTINUOUS
 62
     7
100
AcDbLine
 10
310.3678755211274
 20
471.75447764847
 30
0.0
 11
312.3920737045238
 21
466.1052869829396
 31
0.0
  0
LINE
  5
232
330
1F
100
AcDbEntity
  8
LAY-10
  6
CONTINUOUS
 62
     7
100
AcDbLine
 10
289.7992174135725
 20
459.8791573532037
 30
0.0
 11
293.6794609490454
 21
455.301554971323
 31
0.0
  0
LINE
  5
233
330
1F
100
AcDbEntity
  8
LAY-10
  6
CONTINUOUS
 62
     7
100
AcDbLine
 10
293.7897913342438
 20
456.7179211617741
 30
0.0
 11
293.6794609490455
 21
455.301554971323
 31
0.0
  0
LINE
  5
234
330
1F
100
AcDbEntity
  8
LAY-10
  6
CONTINUOUS
 62
     7
100
AcDbLine
 10
291.203347858118
 20
459.7692012447574
 30
0.0
 11
289.7992174135725
 21
459.8791573532037
 31
0.0
  0
LINE
  5
235
330
1F
100
AcDbEntity
  8
LAY-10
  6
CONTINUOUS
 62
     7
100
AcDbLine
 10
311.1102994099326
 20
466.7179211617741
 30
0.0
 11
312.3920737045238
 21
466.1052869829396
 31
0.0
  0
LINE
  5
236
330
1F
100
AcDbEntity
  8
LAY-10
  6
CONTINUOUS
 62
     7
100
AcDbLine
 10
309.7610350820705
 20
470.4834869590432
 30
0.0
 11
310.3678755211275
 21
471.75447764847
 31
0.0
  0
ARC
  5
237
330
1F
100
AcDbEntity
  8
LAY-10
  6
CONTINUOUS
 62
     7
100
AcDbCircle
 10
329.9999999999999
 20
414.0000000000137
 30
0.0
 40
55.00000000000004
100
AcDbArc
 50
108.6716405380695
 51
131.3283594619306
  0
ARC
  5
238
330
1F
100
AcDbEntity
  8
LAY-10
  6
CONTINUOUS
 62
     7
100
AcDbCircle
 10
329.9999999999999
 20
414.0000000000137
 30
0.0
 40
60.99999999999997
100
AcDbArc
 50
108.7741222385442
 51
131.225877761456
  0
LINE
  5
239
330
1F
100
AcDbEntity
  8
LAY-10
  6
CONTINUOUS
 62
     7
100
AcDbLine
 10
293.1488529268905
 20
457.474049263868
 30
0.0
 11
291.8554388738807
 21
458.9999161832221
 31
0.0
  0
LINE
  5
23A
330
1F
100
AcDbEntity
  8
LAY-10
  6
CONTINUOUS
 62
     7
100
AcDbLine
 10
310.7759424686805
 20
467.6510541558501
 30
0.0
 11
310.1012099802305
 21
469.5341170430455
 31
0.0
  0
LINE
  5
23B
330
1F
100
AcDbEntity
  8
LAY-10
  6
CONTINUOUS
 62
     7
100
AcDbLine
 10
284.1208426468097
 20
454.2007825864412
 30
0.0
 11
288.6984450286906
 21
450.3205390509682
 31
0.0
  0
LINE
  5
23C
330
1F
100
AcDbEntity
  8
LAY-10
  6
CONTINUOUS
 62
     7
100
AcDbLine
 10
272.2455223515436
 20
433.6321244788862
 30
0.0
 11
277.8947130170739
 21
431.6079262954898
 31
0.0
  0
LINE
  5
23D
330
1F
100
AcDbEntity
  8
LAY-10
  6
CONTINUOUS
 62
     7
100
AcDbLine
 10
277.2820788382394
 20
432.8897005900811
 30
0.0
 11
277.894713017074
 21
431.6079262954898
 31
0.0
  0
LINE
  5
23E
330
1F
100
AcDbEntity
  8
LAY-10
  6
CONTINUOUS
 62
     7
100
AcDbLine
 10
273.5165130409704
 20
434.2389649179432
 30
0.0
 11
272.2455223515437
 21
433.6321244788862
 31
0.0
  0
LINE
  5
23F
330
1F
100
AcDbEntity
  8
LAY-10
  6
CONTINUOUS
 62
     7
100
AcDbLine
 10
287.2820788382394
 20
450.2102086657696
 30
0.0
 11
288.6984450286906
 21
450.3205390509682
 31
0.0
  0
LINE
  5
240
330
1F
100
AcDbEntity
  8
LAY-10
  6
CONTINUOUS
 62
     7
100
AcDbLine
 10
284.2307987552562
 20
452.7966521418955
 30
0.0
 11
284.1208426468099
 21
454.2007825864412
 31
0.0
  0
ARC
  5
241
330
1F
100
AcDbEntity
  8
LAY-10
  6
CONTINUOUS
 62
     7
100
AcDbCircle
 10
329.9999999999999
 20
414.0000000000137
 30
0.0
 40
55.00000000000004
100
AcDbArc
 50
138.6716405380698
 51
161.3283594619305
  0
ARC
  5
242
330
1F
100
AcDbEntity
  8
LAY-10
  6
CONTINUOUS
 62
     7
100
AcDbCircle
 10
329.9999999999999
 20
414.0000000000137
 30
0.0
 40
60.99999999999997
100
AcDbArc
 50
138.7741222385442
 51
161.2258777614561
  0
LINE
  5
243
330
1F
100
AcDbEntity
  8
LAY-10
  6
CONTINUOUS
 62
     7
100
AcDbLine
 10
276.3489458441633
 20
433.2240575313331
 30
0.0
 11
274.4658829569681
 21
433.8987900197831
 31
0.0
  0
LINE
  5
244
330
1F
100
AcDbEntity
  8
LAY-10
  6
CONTINUOUS
 62
     7
100
AcDbLine
 10
286.5259507361455
 20
450.8511470731231
 30
0.0
 11
285.0000838167913
 21
452.1445611261329
 31
0.0
  0
ARC
  5
245
330
1F
100
AcDbEntity
  8
LAY-10
  6
CONTINUOUS
 62
     7
100
AcDbCircle
 10
329.9999999999999
 20
414.0000000000137
 30
0.0
 40
55.99999999999991
100
AcDbArc
 50
140.7186800739585
 51
159.2813199260416
  0
ARC
  5
246
330
1F
100
AcDbEntity
  8
LAY-10
  6
CONTINUOUS
 62
     7
100
AcDbCircle
 10
329.9999999999999
 20
414.0000000000137
 30
0.0
 40
60.00000000000036
100
AcDbArc
 50
140.6846007975121
 51
159.3153992024883
  0
ARC
  5
247
330
1F
100
AcDbEntity
  8
LAY-10
  6
CONTINUOUS
 62
     7
100
AcDbCircle
 10
329.9999999999999
 20
414.0000000000137
 30
0.0
 40
55.00000000000004
100
AcDbArc
 50
186.5511273090946
 51
191.3283594619303
  0
LINE
  5
248
330
1F
100
AcDbEntity
  8
LAY-10
  6
CONTINUOUS
 62
     7
100
AcDbLine
 10
275.1356052680374
 20
420.0000000000137
 30
0.0
 11
275.3591255595558
 21
420.2749374804685
 31
0.0
  0
LINE
  5
249
330
1F
100
AcDbEntity
  8
LAY-10
  6
CONTINUOUS
 62
     7
100
AcDbLine
 10
275.1356052680374
 20
408.0000000000137
 30
0.0
 11
275.3591255595558
 21
407.7250625195588
 31
0.0
  0
LINE
  5
24A
330
1F
100
AcDbEntity
  8
LAY-10
  6
CONTINUOUS
 62
     7
100
AcDbLine
 10
389.8329070653
 20
425.8753202952799
 30
0.0
 11
383.9284653464306
 21
424.8037320116303
 31
0.0
  0
LINE
  5
24B
330
1F
100
AcDbEntity
  8
LAY-10
  6
CONTINUOUS
 62
     7
100
AcDbLine
 10
389.8329070653
 20
402.1246797047475
 30
0.0
 11
383.9284653464306
 21
403.196267988397
 31
0.0
  0
LINE
  5
24C
330
1F
100
AcDbEntity
  8
LAY-10
  6
CONTINUOUS
 62
     7
100
AcDbLine
 10
385.0999092558235
 20
404.0000000000136
 30
0.0
 11
383.9284653464306
 21
403.196267988397
 31
0.0
  0
LINE
  5
24D
330
1F
100
AcDbEntity
  8
LAY-10
  6
CONTINUOUS
 62
     7
100
AcDbLine
 10
389.0356170598113
 20
403.2857142857279
 30
0.0
 11
389.8329070653
 21
402.1246797047475
 31
0.0
  0
LINE
  5
24E
330
1F
100
AcDbEntity
  8
LAY-10
  6
CONTINUOUS
 62
     7
100
AcDbLine
 10
385.0999092558235
 20
424.0000000000137
 30
0.0
 11
383.9284653464306
 21
424.8037320116303
 31
0.0
  0
LINE
  5
24F
330
1F
100
AcDbEntity
  8
LAY-10
  6
CONTINUOUS
 62
     7
100
AcDbLine
 10
389.0356170598113
 20
424.7142857142994
 30
0.0
 11
389.8329070653
 21
425.8753202952799
 31
0.0
  0
ARC
  5
250
330
1F
100
AcDbEntity
  8
LAY-10
  6
CONTINUOUS
 62
     7
100
AcDbCircle
 10
329.9999999999999
 20
414.0000000000137
 30
0.0
 40
60.99999999999997
100
AcDbArc
 50
348.774122238544
 51
11.22587776145556
  0
ARC
  5
251
330
1F
100
AcDbEntity
  8
LAY-10
  6
CONTINUOUS
 62
     7
100
AcDbCircle
 10
329.9999999999999
 20
414.0000000000137
 30
0.0
 40
60.00000000000036
100
AcDbArc
 50
350.6846007975124
 51
9.315399202487798
  0
ARC
  5
252
330
1F
100
AcDbEntity
  8
LAY-10
  6
CONTINUOUS
 62
     7
100
AcDbCircle
 10
329.9999999999999
 20
414.0000000000137
 30
0.0
 40
55.99999999999991
100
AcDbArc
 50
350.7186800739587
 51
9.281319926041341
  0
LINE
  5
253
330
1F
100
AcDbEntity
  8
LAY-10
  6
CONTINUOUS
 62
     7
100
AcDbLine
 10
386.0752046044289
 20
424.1770048919958
 30
0.0
 11
388.0433511458887
 21
424.5342008598371
 31
0.0
  0
LINE
  5
254
330
1F
100
AcDbEntity
  8
LAY-10
  6
CONTINUOUS
 62
     7
100
AcDbLine
 10
386.0752046044289
 20
403.8229951080314
 30
0.0
 11
388.0433511458887
 21
403.4657991401903
 31
0.0
  0
LINE
  5
255
330
1F
100
AcDbEntity
  8
LAY-10
  6
CONTINUOUS
 62
     7
100
AcDbLine
 10
384.8643947319624
 20
420.0000000000137
 30
0.0
 11
384.640874440444
 21
420.2749374804685
 31
0.0
  0
LINE
  5
256
330
1F
100
AcDbEntity
  8
LAY-10
  6
CONTINUOUS
 62
     7
100
AcDbLine
 10
384.8643947319624
 20
408.0000000000137
 30
0.0
 11
384.640874440444
 21
407.7250625195588
 31
0.0
  0
ARC
  5
257
330
1F
100
AcDbEntity
  8
LAY-10
  6
CONTINUOUS
 62
     7
100
AcDbCircle
 10
329.9999999999999
 20
414.0000000000137
 30
0.0
 40
55.00000000000004
100
AcDbArc
 50
348.6716405380699
 51
353.4488726909053
  0
ARC
  5
258
330
1F
100
AcDbEntity
  8
LAY-10
  6
CONTINUOUS
 62
     7
100
AcDbCircle
 10
329.9999999999999
 20
414.0000000000137
 30
0.0
 40
55.00000000000004
100
AcDbArc
 50
6.551127309094484
 51
11.32835946193053
  0
ARC
  5
259
330
1F
100
AcDbEntity
  8
LAY-10
  6
CONTINUOUS
 62
     7
100
AcDbCircle
 10
274.8031990389335
 20
434.8401814691002
 30
0.0
 40
1.0
100
AcDbArc
 50
159.3153992024882
 51
250.2865606114721
  0
ARC
  5
25A
330
1F
100
AcDbEntity
  8
LAY-10
  6
CONTINUOUS
 62
     7
100
AcDbCircle
 10
276.6862619261289
 20
434.1654489806502
 30
0.0
 40
1.0
100
AcDbArc
 50
250.2865606114691
 51
339.2813199260488
  0
ARC
  5
25B
330
1F
100
AcDbEntity
  8
LAY-10
  6
CONTINUOUS
 62
     7
100
AcDbCircle
 10
285.8793398671141
 20
450.0883270523773
 30
0.0
 40
1.0
100
AcDbArc
 50
320.7186800739656
 51
49.71343938852542
  0
ARC
  5
25C
330
1F
100
AcDbEntity
  8
LAY-10
  6
CONTINUOUS
 62
     7
100
AcDbCircle
 10
284.3534729477601
 20
451.3817411053872
 30
0.0
 40
1.0
100
AcDbArc
 50
49.71343938852542
 51
140.6846007975182
  0
ARC
  5
25D
330
1F
100
AcDbEntity
  8
LAY-10
  6
CONTINUOUS
 62
     7
100
AcDbCircle
 10
292.6182588946264
 20
459.6465270522536
 30
0.0
 40
1.0
100
AcDbArc
 50
129.3153992024983
 51
220.2865606114791
  0
ARC
  5
25E
330
1F
100
AcDbEntity
  8
LAY-10
  6
CONTINUOUS
 62
     7
100
AcDbCircle
 10
293.9116729476362
 20
458.1206601328996
 30
0.0
 40
1.0
100
AcDbArc
 50
220.2865606114862
 51
309.2813199260273
  0
ARC
  5
25F
330
1F
100
AcDbEntity
  8
LAY-10
  6
CONTINUOUS
 62
     7
100
AcDbCircle
 10
309.8345510193633
 20
467.3137380738847
 30
0.0
 40
1.0
100
AcDbArc
 50
290.718680073969
 51
19.71343938851647
  0
ARC
  5
260
330
1F
100
AcDbEntity
  8
LAY-10
  6
CONTINUOUS
 62
     7
100
AcDbCircle
 10
309.1598185309134
 20
469.1968009610801
 30
0.0
 40
1.0
100
AcDbArc
 50
19.71343938851647
 51
110.6846007975088
  0
ARC
  5
261
330
1F
100
AcDbEntity
  8
LAY-10
  6
CONTINUOUS
 62
     7
100
AcDbCircle
 10
320.4497260911734
 20
472.2219225744737
 30
0.0
 40
1.0
100
AcDbArc
 50
99.31539920249143
 51
190.2865606114693
  0
ARC
  5
262
330
1F
100
AcDbEntity
  8
LAY-10
  6
CONTINUOUS
 62
     7
100
AcDbCircle
 10
320.8069220590147
 20
470.2537760330138
 30
0.0
 40
1.0
100
AcDbArc
 50
190.2865606114661
 51
279.2813199260455
  0
ARC
  5
263
330
1F
100
AcDbEntity
  8
LAY-10
  6
CONTINUOUS
 62
     7
100
AcDbCircle
 10
339.1930779409852
 20
470.2537760330138
 30
0.0
 40
1.0
100
AcDbArc
 50
260.7186800739545
 51
349.7134393885342
  0
ARC
  5
264
330
1F
100
AcDbEntity
  8
LAY-10
  6
CONTINUOUS
 62
     7
100
AcDbCircle
 10
339.5502739088264
 20
472.2219225744737
 30
0.0
 40
1.0
100
AcDbArc
 50
349.713439388531
 51
80.68460079750541
  0
ARC
  5
265
330
1F
100
AcDbEntity
  8
LAY-10
  6
CONTINUOUS
 62
     7
100
AcDbCircle
 10
350.8401814690865
 20
469.1968009610801
 30
0.0
 40
1.0
100
AcDbArc
 50
69.31539920248518
 51
160.2865606114692
  0
ARC
  5
266
330
1F
100
AcDbEntity
  8
LAY-10
  6
CONTINUOUS
 62
     7
100
AcDbCircle
 10
350.1654489806365
 20
467.3137380738847
 30
0.0
 40
1.0
100
AcDbArc
 50
160.2865606114867
 51
249.2813199260487
  0
ARC
  5
267
330
1F
100
AcDbEntity
  8
LAY-10
  6
CONTINUOUS
 62
     7
100
AcDbCircle
 10
366.0883270523636
 20
458.1206601328996
 30
0.0
 40
1.0
100
AcDbArc
 50
230.7186800739727
 51
319.7134393885138
  0
ARC
  5
268
330
1F
100
AcDbEntity
  8
LAY-10
  6
CONTINUOUS
 62
     7
100
AcDbCircle
 10
367.3817411053734
 20
459.6465270522536
 30
0.0
 40
1.0
100
AcDbArc
 50
319.7134393885184
 51
50.68460079750179
  0
ARC
  5
269
330
1F
100
AcDbEntity
  8
LAY-10
  6
CONTINUOUS
 62
     7
100
AcDbCircle
 10
375.6465270522398
 20
451.3817411053872
 30
0.0
 40
1.0
100
AcDbArc
 50
39.31539920248196
 51
130.2865606114655
  0
ARC
  5
26A
330
1F
100
AcDbEntity
  8
LAY-10
  6
CONTINUOUS
 62
     7
100
AcDbCircle
 10
374.1206601328857
 20
450.0883270523773
 30
0.0
 40
1.0
100
AcDbArc
 50
130.2865606114725
 51
219.2813199260366
  0
ARC
  5
26B
330
1F
100
AcDbEntity
  8
LAY-10
  6
CONTINUOUS
 62
     7
100
AcDbCircle
 10
383.3137380738711
 20
434.1654489806502
 30
0.0
 40
1.0
100
AcDbArc
 50
200.7186800739514
 51
289.7134393885237
  0
ARC
  5
26C
330
1F
100
AcDbEntity
  8
LAY-10
  6
CONTINUOUS
 62
     7
100
AcDbCircle
 10
385.1968009610663
 20
434.8401814691002
 30
0.0
 40
1.0
100
AcDbArc
 50
289.7134393885309
 51
20.68460079751181
  0
ARC
  5
26D
330
1F
100
AcDbEntity
  8
LAY-10
  6
CONTINUOUS
 62
     7
100
AcDbCircle
 10
386.2537760330002
 20
423.1930779409989
 30
0.0
 40
1.0
100
AcDbArc
 50
100.2865606114692
 51
189.2813199260423
  0
ARC
  5
26E
330
1F
100
AcDbEntity
  8
LAY-10
  6
CONTINUOUS
 62
     7
100
AcDbCircle
 10
388.2219225744601
 20
423.5502739088402
 30
0.0
 40
1.0
100
AcDbArc
 50
9.3153992024882
 51
100.2865606114756
  0
ARC
  5
26F
330
1F
100
AcDbEntity
  8
LAY-10
  6
CONTINUOUS
 62
     7
100
AcDbCircle
 10
386.2537760330002
 20
404.8069220590282
 30
0.0
 40
1.0
100
AcDbArc
 50
170.7186800739547
 51
259.7134393885307
  0
ARC
  5
270
330
1F
100
AcDbEntity
  8
LAY-10
  6
CONTINUOUS
 62
     7
100
AcDbCircle
 10
388.2219225744601
 20
404.4497260911872
 30
0.0
 40
1.0
100
AcDbArc
 50
259.7134393885245
 51
350.6846007975087
  0
ARC
  5
271
330
1F
100
AcDbEntity
  8
LAY-10
  6
CONTINUOUS
 62
     7
100
AcDbCircle
 10
383.3137380738709
 20
393.8345510193771
 30
0.0
 40
1.0
100
AcDbArc
 50
70.28656061146299
 51
159.2813199260342
  0
ARC
  5
272
330
1F
100
AcDbEntity
  8
LAY-10
  6
CONTINUOUS
 62
     7
100
AcDbCircle
 10
385.1968009610663
 20
393.1598185309269
 30
0.0
 40
1.0
100
AcDbArc
 50
339.3153992024957
 51
70.2865606114733
  0
ARC
  5
273
330
1F
100
AcDbEntity
  8
LAY-10
  6
CONTINUOUS
 62
     7
100
AcDbCircle
 10
374.1206601328857
 20
377.9116729476498
 30
0.0
 40
1.0
100
AcDbArc
 50
140.7186800739518
 51
229.7134393885277
  0
ARC
  5
274
330
1F
100
AcDbEntity
  8
LAY-10
  6
CONTINUOUS
 62
     7
100
AcDbCircle
 10
375.6465270522398
 20
376.6182588946401
 30
0.0
 40
1.0
100
AcDbArc
 50
229.7134393885277
 51
320.6846007975136
  0
ARC
  5
275
330
1F
100
AcDbEntity
  8
LAY-10
  6
CONTINUOUS
 62
     7
100
AcDbCircle
 10
350.1654489806365
 20
360.6862619261425
 30
0.0
 40
1.0
100
AcDbArc
 50
110.7186800739555
 51
199.7134393885279
  0
ARC
  5
276
330
1F
100
AcDbEntity
  8
LAY-10
  6
CONTINUOUS
 62
     7
100
AcDbCircle
 10
350.8401814690865
 20
358.8031990389473
 30
0.0
 40
1.0
100
AcDbArc
 50
199.7134393885341
 51
290.6846007975089
  0
ARC
  5
277
330
1F
100
AcDbEntity
  8
LAY-10
  6
CONTINUOUS
 62
     7
100
AcDbCircle
 10
367.3817411053734
 20
368.3534729477738
 30
0.0
 40
1.0
100
AcDbArc
 50
309.3153992024893
 51
40.28656061147707
  0
ARC
  5
278
330
1F
100
AcDbEntity
  8
LAY-10
  6
CONTINUOUS
 62
     7
100
AcDbCircle
 10
366.0883270523636
 20
369.8793398671278
 30
0.0
 40
1.0
100
AcDbArc
 50
40.28656061147707
 51
129.2813199260412
  0
ARC
  5
279
330
1F
100
AcDbEntity
  8
LAY-10
  6
CONTINUOUS
 62
     7
100
AcDbCircle
 10
339.1930779409852
 20
357.7462239670133
 30
0.0
 40
1.0
100
AcDbArc
 50
10.28656061147563
 51
99.2813199260321
  0
ARC
  5
27A
330
1F
100
AcDbEntity
  8
LAY-10
  6
CONTINUOUS
 62
     7
100
AcDbCircle
 10
339.5502739088264
 20
355.7780774255534
 30
0.0
 40
1.0
100
AcDbArc
 50
279.3153992024946
 51
10.28656061148262
  0
ARC
  5
27B
330
1F
100
AcDbEntity
  8
LAY-10
  6
CONTINUOUS
 62
     7
100
AcDbCircle
 10
320.8069220590148
 20
357.7462239670133
 30
0.0
 40
1.0
100
AcDbArc
 50
80.7186800739615
 51
169.7134393885245
  0
ARC
  5
27C
330
1F
100
AcDbEntity
  8
LAY-10
  6
CONTINUOUS
 62
     7
100
AcDbCircle
 10
320.4497260911734
 20
355.7780774255534
 30
0.0
 40
1.0
100
AcDbArc
 50
169.7134393885175
 51
260.6846007975088
  0
ARC
  5
27D
330
1F
100
AcDbEntity
  8
LAY-10
  6
CONTINUOUS
 62
     7
100
AcDbCircle
 10
309.8345510193634
 20
360.6862619261425
 30
0.0
 40
1.0
100
AcDbArc
 50
340.2865606114764
 51
69.2813199260342
  0
ARC
  5
27E
330
1F
100
AcDbEntity
  8
LAY-10
  6
CONTINUOUS
 62
     7
100
AcDbCircle
 10
309.1598185309134
 20
358.8031990389473
 30
0.0
 40
1.0
100
AcDbArc
 50
249.3153992024914
 51
340.2865606114661
  0
ARC
  5
27F
330
1F
100
AcDbEntity
  8
LAY-10
  6
CONTINUOUS
 62
     7
100
AcDbCircle
 10
292.6182588946264
 20
368.3534729477738
 30
0.0
 40
1.0
100
AcDbArc
 50
139.7134393885209
 51
230.684600797518
  0
ARC
  5
280
330
1F
100
AcDbEntity
  8
LAY-10
  6
CONTINUOUS
 62
     7
100
AcDbCircle
 10
293.9116729476362
 20
369.8793398671278
 30
0.0
 40
1.0
100
AcDbArc
 50
50.71868007395432
 51
139.7134393885209
  0
ARC
  5
281
330
1F
100
AcDbEntity
  8
LAY-10
  6
CONTINUOUS
 62
     7
100
AcDbCircle
 10
284.3534729477601
 20
376.6182588946402
 30
0.0
 40
1.0
100
AcDbArc
 50
219.3153992024983
 51
310.2865606114746
  0
ARC
  5
282
330
1F
100
AcDbEntity
  8
LAY-10
  6
CONTINUOUS
 62
     7
100
AcDbCircle
 10
285.8793398671141
 20
377.9116729476498
 30
0.0
 40
1.0
100
AcDbArc
 50
310.2865606114772
 51
39.28131992604823
  0
ARC
  5
283
330
1F
100
AcDbEntity
  8
LAY-10
  6
CONTINUOUS
 62
     7
100
AcDbCircle
 10
274.8031990389335
 20
393.1598185309269
 30
0.0
 40
1.0
100
AcDbArc
 50
109.7134393885206
 51
200.6846007975046
  0
ARC
  5
284
330
1F
100
AcDbEntity
  8
LAY-10
  6
CONTINUOUS
 62
     7
100
AcDbCircle
 10
276.6862619261289
 20
393.834551019377
 30
0.0
 40
1.0
100
AcDbArc
 50
20.71868007396577
 51
109.7134393885237
  0
ARC
  5
285
330
1F
100
AcDbEntity
  8
LAY-10
  6
CONTINUOUS
 62
     7
100
AcDbCircle
 10
271.7780774255398
 20
423.5502739088402
 30
0.0
 40
1.0
100
AcDbArc
 50
79.7134393885276
 51
170.6846007975253
  0
ARC
  5
286
330
1F
100
AcDbEntity
  8
LAY-10
  6
CONTINUOUS
 62
     7
100
AcDbCircle
 10
273.7462239669996
 20
423.1930779409989
 30
0.0
 40
1.0
100
AcDbArc
 50
350.7186800739578
 51
79.71343938852439
  0
ARC
  5
287
330
1F
100
AcDbEntity
  8
LAY-10
  6
CONTINUOUS
 62
     7
100
AcDbCircle
 10
271.7780774255398
 20
404.4497260911872
 30
0.0
 40
1.0
100
AcDbArc
 50
189.3153992024914
 51
280.2865606114725
  0
ARC
  5
288
330
1F
100
AcDbEntity
  8
LAY-10
  6
CONTINUOUS
 62
     7
100
AcDbCircle
 10
273.7462239669996
 20
404.8069220590282
 30
0.0
 40
1.0
100
AcDbArc
 50
280.2865606114794
 51
9.281319926045468
  0
ARC
  5
289
330
1F
100
AcDbEntity
  8
LAY-10
  6
CONTINUOUS
 62
     7
100
AcDbCircle
 10
329.9999999999999
 20
414.0000000000137
 30
0.0
 40
60.00000000000036
100
AcDbArc
 50
80.68460079751183
 51
99.31539920248818
  0
ARC
  5
28A
330
1F
100
AcDbEntity
  8
LAY-10
  6
CONTINUOUS
 62
     7
100
AcDbCircle
 10
329.9999999999999
 20
414.0000000000137
 30
0.0
 40
55.99999999999991
100
AcDbArc
 50
80.71868007395847
 51
99.28131992604155
  0
ARC
  5
28B
330
1F
100
AcDbEntity
  8
LAY-10
  6
CONTINUOUS
 62
     7
100
AcDbCircle
 10
329.9999999999999
 20
414.0000000000137
 30
0.0
 40
55.19150124162775
100
AcDbArc
 50
85.84384871348325
 51
94.1561512865164
  0
ARC
  5
28C
330
1F
100
AcDbEntity
  8
LAY-10
  6
CONTINUOUS
 62
     7
100
AcDbCircle
 10
329.9999999999999
 20
414.0000000000137
 30
0.0
 40
55.00000000000004
100
AcDbArc
 50
94.48406421582492
 51
101.3283594619304
  0
LINE
  5
28D
330
1F
100
AcDbEntity
  8
LAY-10
  6
CONTINUOUS
 62
     7
100
AcDbLine
 10
334.3
 20
468.8316514433179
 30
0.0
 11
334.0000000000001
 21
469.0463605455084
 31
0.0
  0
LINE
  5
28E
330
1F
100
AcDbEntity
  8
LAY-10
  6
CONTINUOUS
 62
     7
100
AcDbLine
 10
325.7000000000002
 20
468.8316514433179
 30
0.0
 11
326.0000000000002
 21
469.0463605455085
 31
0.0
  0
ARC
  5
28F
330
1F
100
AcDbEntity
  8
LAY-10
  6
CONTINUOUS
 62
     7
100
AcDbCircle
 10
329.9999999999999
 20
414.0000000000137
 30
0.0
 40
55.19150124162775
100
AcDbArc
 50
265.8438487134836
 51
274.1561512865168
  0
LINE
  5
290
330
1F
100
AcDbEntity
  8
LAY-10
  6
CONTINUOUS
 62
     7
100
AcDbLine
 10
334.3
 20
359.1683485567095
 30
0.0
 11
334.0000000000001
 21
358.953639454519
 31
0.0
  0
LINE
  5
291
330
1F
100
AcDbEntity
  8
LAY-10
  6
CONTINUOUS
 62
     7
100
AcDbLine
 10
325.7000000000002
 20
359.1683485567094
 30
0.0
 11
326.0000000000002
 21
358.953639454519
 31
0.0
  0
ARC
  5
292
330
1F
100
AcDbEntity
  8
LAY-10
  6
CONTINUOUS
 62
     7
100
AcDbCircle
 10
329.9999999999999
 20
414.0000000000137
 30
0.0
 40
55.00000000000004
100
AcDbArc
 50
274.4840642158254
 51
281.3283594619307
  0
ARC
  5
293
330
1F
100
AcDbEntity
  8
LAY-10
  6
CONTINUOUS
 62
     7
100
AcDbCircle
 10
329.9999999999999
 20
414.0000000000137
 30
0.0
 40
60.00000000000036
100
AcDbArc
 50
110.6846007975148
 51
129.3153992024884
  0
ARC
  5
294
330
1F
100
AcDbEntity
  8
LAY-10
  6
CONTINUOUS
 62
     7
100
AcDbCircle
 10
329.9999999999999
 20
414.0000000000137
 30
0.0
 40
55.99999999999991
100
AcDbArc
 50
110.7186800739585
 51
129.2813199260418
  0
CIRCLE
  5
295
330
1F
100
AcDbEntity
  8
LAY-10
  6
CONTINUOUS
 62
     7
100
AcDbCircle
 10
279.5000000000002
 20
414.00000000003
 30
0.0
 40
5.250000000000004
  0
LINE
  5
296
330
1F
100
AcDbEntity
  8
LAY-10
  6
CONTINUOUS
 62
     7
100
AcDbLine
 10
284.4633927678603
 20
415.7109156121978
 30
0.0
 11
275.5366072321965
 21
410.5570335801941
 31
0.0
  0
LINE
  5
297
330
1F
100
AcDbEntity
  8
LAY-10
  6
CONTINUOUS
 62
     7
100
AcDbLine
 10
283.4633927678627
 20
417.4429664197997
 30
0.0
 11
274.5366072321694
 21
412.289084387779
 31
0.0
  0
CIRCLE
  5
298
330
1F
100
AcDbEntity
  8
LAY-10
  6
CONTINUOUS
 62
     7
100
AcDbCircle
 10
380.5000000000002
 20
414.00000000003
 30
0.0
 40
5.250000000000004
  0
LINE
  5
299
330
1F
100
AcDbEntity
  8
LAY-10
  6
CONTINUOUS
 62
     7
100
AcDbLine
 10
385.4633927678603
 20
415.7109156121978
 30
0.0
 11
376.5366072321965
 21
410.5570335801941
 31
0.0
  0
LINE
  5
29A
330
1F
100
AcDbEntity
  8
LAY-10
  6
CONTINUOUS
 62
     7
100
AcDbLine
 10
384.4633927678627
 20
417.4429664197997
 30
0.0
 11
375.5366072321694
 21
412.289084387779
 31
0.0
  0
ARC
  5
29B
330
1F
100
AcDbEntity
  8
LAY-10
  6
CONTINUOUS
 62
     7
100
AcDbCircle
 10
329.9999999999999
 20
414.0000000000137
 30
0.0
 40
55.19150124162775
100
AcDbArc
 50
173.758904186157
 51
177.442509754098
  0
ARC
  5
29C
330
1F
100
AcDbEntity
  8
LAY-10
  6
CONTINUOUS
 62
     7
100
AcDbCircle
 10
329.9999999999999
 20
414.0000000000137
 30
0.0
 40
55.19150124162775
100
AcDbArc
 50
182.5574902458686
 51
186.2410958138432
  0
ARC
  5
29D
330
1F
100
AcDbEntity
  8
LAY-10
  6
CONTINUOUS
 62
     7
100
AcDbCircle
 10
329.9999999999999
 20
414.0000000000137
 30
0.0
 40
55.19150124162775
100
AcDbArc
 50
353.758904186157
 51
357.4425097541301
  0
ARC
  5
29E
330
1F
100
AcDbEntity
  8
LAY-10
  6
CONTINUOUS
 62
     7
100
AcDbCircle
 10
329.9999999999999
 20
414.0000000000137
 30
0.0
 40
55.19150124162775
100
AcDbArc
 50
2.557490245903586
 51
6.241095813842975
  0
ARC
  5
29F
330
1F
100
AcDbEntity
  8
LAY-10
  6
CONTINUOUS
 62
     7
100
AcDbCircle
 10
319.4344541582377
 20
395.6999377923646
 30
0.0
 40
3.131091683519869
100
AcDbArc
 50
338.5211584630673
 51
141.4788415369345
  0
LINE
  5
2A0
330
1F
100
AcDbEntity
  8
LAY-10
  6
CONTINUOUS
 62
     7
100
AcDbLine
 10
314.9216033153324
 20
375.6797671485514
 30
0.0
 11
322.348100441331
 21
394.5534647365874
 31
0.0
  0
LINE
  5
2A1
330
1F
100
AcDbEntity
  8
LAY-10
  6
CONTINUOUS
 62
     7
100
AcDbLine
 10
304.3529032140481
 20
381.7816089970114
 30
0.0
 11
316.9847562256335
 21
397.6499929632771
 31
0.0
  0
ARC
  5
2A2
330
1F
100
AcDbEntity
  8
LAY-10
  6
CONTINUOUS
 62
     7
100
AcDbCircle
 10
319.4344541582377
 20
395.6999377923646
 30
0.0
 40
4.131091683519867
100
AcDbArc
 50
338.5211584630674
 51
141.478841536935
  0
LINE
  5
2A3
330
1F
100
AcDbEntity
  8
LAY-10
  6
CONTINUOUS
 62
     7
100
AcDbLine
 10
323.2786532892175
 20
394.1873071239531
 30
0.0
 11
315.8566026296155
 21
375.324909784295
 31
0.0
  0
LINE
  5
2A4
330
1F
100
AcDbEntity
  8
LAY-10
  6
CONTINUOUS
 62
     7
100
AcDbLine
 10
303.5780880647416
 20
382.4139134735748
 30
0.0
 11
316.2023780073597
 21
398.2727965627936
 31
0.0
  0
ARC
  5
2A5
330
1F
100
AcDbEntity
  8
LAY-10
  6
CONTINUOUS
 62
     7
100
AcDbCircle
 10
311.6999377923713
 20
403.4344541582309
 30
0.0
 40
3.131091683519869
100
AcDbArc
 50
308.5211584630655
 51
111.4788415369351
  0
LINE
  5
2A6
330
1F
100
AcDbEntity
  8
LAY-10
  6
CONTINUOUS
 62
     7
100
AcDbLine
 10
297.7816089970171
 20
388.3529032140406
 30
0.0
 11
313.6499929632836
 21
400.9847562256268
 31
0.0
  0
LINE
  5
2A7
330
1F
100
AcDbEntity
  8
LAY-10
  6
CONTINUOUS
 62
     7
100
AcDbLine
 10
291.679767148554
 20
398.9216033153241
 30
0.0
 11
310.553464736594
 21
406.3481004413244
 31
0.0
  0
ARC
  5
2A8
330
1F
100
AcDbEntity
  8
LAY-10
  6
CONTINUOUS
 62
     7
100
AcDbCircle
 10
311.6999377923713
 20
403.4344541582309
 30
0.0
 40
4.131091683519867
100
AcDbArc
 50
308.5211584630644
 51
111.478841536936
  0
LINE
  5
2A9
330
1F
100
AcDbEntity
  8
LAY-10
  6
CONTINUOUS
 62
     7
100
AcDbLine
 10
314.2727965628003
 20
400.2023780073532
 30
0.0
 11
298.4139134735806
 21
387.5780880647343
 31
0.0
  0
LINE
  5
2AA
330
1F
100
AcDbEntity
  8
LAY-10
  6
CONTINUOUS
 62
     7
100
AcDbLine
 10
291.3249097843026
 20
399.8566026296091
 30
0.0
 11
310.1873071239596
 21
407.2786532892109
 31
0.0
  0
ARC
  5
2AB
330
1F
100
AcDbEntity
  8
LAY-10
  6
CONTINUOUS
 62
     7
100
AcDbCircle
 10
308.8689083164776
 20
413.9999999999908
 30
0.0
 40
3.131091683519869
100
AcDbArc
 50
278.5211584630671
 51
81.47884153693715
  0
LINE
  5
2AC
330
1F
100
AcDbEntity
  8
LAY-10
  6
CONTINUOUS
 62
     7
100
AcDbLine
 10
289.274506529377
 20
407.8981581515292
 30
0.0
 11
309.332856666967
 21
410.9034717733012
 31
0.0
  0
LINE
  5
2AD
330
1F
100
AcDbEntity
  8
LAY-10
  6
CONTINUOUS
 62
     7
100
AcDbLine
 10
289.274506529374
 20
420.1018418484529
 30
0.0
 11
309.332856666967
 21
417.0965282266804
 31
0.0
  0
ARC
  5
2AE
330
1F
100
AcDbEntity
  8
LAY-10
  6
CONTINUOUS
 62
     7
100
AcDbCircle
 10
308.8689083164776
 20
413.9999999999908
 30
0.0
 40
4.131091683519867
100
AcDbArc
 50
278.5211584630657
 51
81.47884153693538
  0
LINE
  5
2AF
330
1F
100
AcDbEntity
  8
LAY-10
  6
CONTINUOUS
 62
     7
100
AcDbLine
 10
309.4810312965798
 20
409.9145105611503
 30
0.0
 11
289.4346906943587
 21
406.9109963107118
 31
0.0
  0
LINE
  5
2B0
330
1F
100
AcDbEntity
  8
LAY-10
  6
CONTINUOUS
 62
     7
100
AcDbLine
 10
289.4346906943599
 20
421.0890036892696
 30
0.0
 11
309.4810312965797
 21
418.0854894388314
 31
0.0
  0
ARC
  5
2B1
330
1F
100
AcDbEntity
  8
LAY-10
  6
CONTINUOUS
 62
     7
100
AcDbCircle
 10
311.6999377923712
 20
424.5655458417508
 30
0.0
 40
3.131091683519869
100
AcDbArc
 50
248.5211584630639
 51
51.47884153693444
  0
LINE
  5
2B2
330
1F
100
AcDbEntity
  8
LAY-10
  6
CONTINUOUS
 62
     7
100
AcDbLine
 10
291.6797671485469
 20
429.0783966846604
 30
0.0
 11
310.553464736594
 21
421.6518995586574
 31
0.0
  0
LINE
  5
2B3
330
1F
100
AcDbEntity
  8
LAY-10
  6
CONTINUOUS
 62
     7
100
AcDbLine
 10
297.7816089970068
 20
439.6470967859492
 30
0.0
 11
313.6499929632836
 21
427.015243774355
 31
0.0
  0
ARC
  5
2B4
330
1F
100
AcDbEntity
  8
LAY-10
  6
CONTINUOUS
 62
     7
100
AcDbCircle
 10
311.6999377923712
 20
424.5655458417508
 30
0.0
 40
4.131091683519867
100
AcDbArc
 50
248.5211584630658
 51
51.47884153693565
  0
LINE
  5
2B5
330
1F
100
AcDbEntity
  8
LAY-10
  6
CONTINUOUS
 62
     7
100
AcDbLine
 10
310.1873071239596
 20
420.7213467107708
 30
0.0
 11
291.3249097843016
 21
428.143397370373
 31
0.0
  0
LINE
  5
2B6
330
1F
100
AcDbEntity
  8
LAY-10
  6
CONTINUOUS
 62
     7
100
AcDbLine
 10
298.4139134735813
 20
440.4219119352466
 30
0.0
 11
314.2727965628
 21
427.7976219926287
 31
0.0
  0
ARC
  5
2B7
330
1F
100
AcDbEntity
  8
LAY-10
  6
CONTINUOUS
 62
     7
100
AcDbCircle
 10
319.4344541582374
 20
432.3000622076172
 30
0.0
 40
3.131091683519869
100
AcDbArc
 50
218.5211584630657
 51
21.47884153693511
  0
LINE
  5
2B8
330
1F
100
AcDbEntity
  8
LAY-10
  6
CONTINUOUS
 62
     7
100
AcDbLine
 10
304.3529032140377
 20
446.2183910029829
 30
0.0
 11
316.9847562256334
 21
430.3500070367048
 31
0.0
  0
LINE
  5
2B9
330
1F
100
AcDbEntity
  8
LAY-10
  6
CONTINUOUS
 62
     7
100
AcDbLine
 10
314.9216033153248
 20
452.3202328514495
 30
0.0
 11
322.348100441331
 21
433.4465352633944
 31
0.0
  0
ARC
  5
2BA
330
1F
100
AcDbEntity
  8
LAY-10
  6
CONTINUOUS
 62
     7
100
AcDbCircle
 10
319.4344541582374
 20
432.3000622076172
 30
0.0
 40
4.131091683519867
100
AcDbArc
 50
218.5211584630673
 51
21.4788415369342
  0
LINE
  5
2BB
330
1F
100
AcDbEntity
  8
LAY-10
  6
CONTINUOUS
 62
     7
100
AcDbLine
 10
316.2023780073597
 20
429.7272034371882
 30
0.0
 11
303.5780880647407
 21
445.5860865264077
 31
0.0
  0
LINE
  5
2BC
330
1F
100
AcDbEntity
  8
LAY-10
  6
CONTINUOUS
 62
     7
100
AcDbLine
 10
315.8566026296156
 20
452.6750902156858
 30
0.0
 11
323.2786532892175
 21
433.8126928760289
 31
0.0
  0
ARC
  5
2BD
330
1F
100
AcDbEntity
  8
LAY-10
  6
CONTINUOUS
 62
     7
100
AcDbCircle
 10
329.9999999999973
 20
435.1310916835108
 30
0.0
 40
3.131091683519869
100
AcDbArc
 50
188.5211584630672
 51
351.4788415369352
  0
LINE
  5
2BE
330
1F
100
AcDbEntity
  8
LAY-10
  6
CONTINUOUS
 62
     7
100
AcDbLine
 10
323.8999575228663
 20
454.7134839352622
 30
0.0
 11
326.9034717733078
 21
434.6671433330215
 31
0.0
  0
LINE
  5
2BF
330
1F
100
AcDbEntity
  8
LAY-10
  6
CONTINUOUS
 62
     7
100
AcDbLine
 10
336.1000424771284
 20
454.7134839352626
 30
0.0
 11
333.096528226687
 21
434.6671433330215
 31
0.0
  0
ARC
  5
2C0
330
1F
100
AcDbEntity
  8
LAY-10
  6
CONTINUOUS
 62
     7
100
AcDbCircle
 10
330.0000000000004
 20
414.0000000000014
 30
0.0
 40
41.18007154400722
100
AcDbArc
 50
128.5211584630794
 51
141.4788415369472
  0
ARC
  5
2C1
330
1F
100
AcDbEntity
  8
LAY-10
  6
CONTINUOUS
 62
     7
100
AcDbCircle
 10
330.0000000000004
 20
414.0000000000014
 30
0.0
 40
41.18007154400722
100
AcDbArc
 50
158.5211584630819
 51
171.4788415369485
  0
ARC
  5
2C2
330
1F
100
AcDbEntity
  8
LAY-10
  6
CONTINUOUS
 62
     7
100
AcDbCircle
 10
330.0000000000004
 20
414.0000000000014
 30
0.0
 40
41.18007154400722
100
AcDbArc
 50
188.5211584630808
 51
201.4788415369454
  0
ARC
  5
2C3
330
1F
100
AcDbEntity
  8
LAY-10
  6
CONTINUOUS
 62
     7
100
AcDbCircle
 10
330.0000000000004
 20
414.0000000000014
 30
0.0
 40
41.18007154400722
100
AcDbArc
 50
218.5211584630759
 51
231.4788415369391
  0
LINE
  5
2C4
330
1F
100
AcDbEntity
  8
LAY-10
  6
CONTINUOUS
 62
     7
100
AcDbLine
 10
337.0890036892761
 20
454.5653093056286
 30
0.0
 11
334.0854894388379
 21
434.5189687034087
 31
0.0
  0
ARC
  5
2C5
330
1F
100
AcDbEntity
  8
LAY-10
  6
CONTINUOUS
 62
     7
100
AcDbCircle
 10
329.9999999999973
 20
435.1310916835108
 30
0.0
 40
4.131091683519867
100
AcDbArc
 50
188.5211584630663
 51
351.4788415369356
  0
LINE
  5
2C6
330
1F
100
AcDbEntity
  8
LAY-10
  6
CONTINUOUS
 62
     7
100
AcDbLine
 10
325.9145105611569
 20
434.5189687034086
 30
0.0
 11
322.9109963107183
 21
454.5653093056297
 31
0.0
  0
ARC
  5
2C7
330
1F
100
AcDbEntity
  8
LAY-10
  6
CONTINUOUS
 62
     7
100
AcDbCircle
 10
329.9999999999975
 20
414.0000000000014
 30
0.0
 40
41.18007154400722
100
AcDbArc
 50
98.52115846306916
 51
111.4788415369388
  0
ARC
  5
2C8
330
1F
100
AcDbEntity
  8
LAY-10
  6
CONTINUOUS
 62
     7
100
AcDbCircle
 10
330.0000000000004
 20
414.0000000000014
 30
0.0
 40
37.11836509646413
100
AcDbArc
 50
81.47884153693548
 51
98.52115846307392
  0
ARC
  5
2C9
330
1F
100
AcDbEntity
  8
LAY-10
  6
CONTINUOUS
 62
     7
100
AcDbCircle
 10
330.0000000000004
 20
414.0000000000014
 30
0.0
 40
37.11836509646413
100
AcDbArc
 50
111.4788415369434
 51
128.5211584630807
  0
ARC
  5
2CA
330
1F
100
AcDbEntity
  8
LAY-10
  6
CONTINUOUS
 62
     7
100
AcDbCircle
 10
330.0000000000004
 20
414.0000000000014
 30
0.0
 40
37.11836509646413
100
AcDbArc
 50
141.4788415369491
 51
158.5211584630835
  0
ARC
  5
2CB
330
1F
100
AcDbEntity
  8
LAY-10
  6
CONTINUOUS
 62
     7
100
AcDbCircle
 10
330.0000000000004
 20
414.0000000000014
 30
0.0
 40
37.11836509646413
100
AcDbArc
 50
171.4788415369499
 51
188.5211584630824
  0
ARC
  5
2CC
330
1F
100
AcDbEntity
  8
LAY-10
  6
CONTINUOUS
 62
     7
100
AcDbCircle
 10
330.0000000000004
 20
414.0000000000014
 30
0.0
 40
37.11836509646413
100
AcDbArc
 50
231.4788415369395
 51
248.5211584630689
  0
ARC
  5
2CD
330
1F
100
AcDbEntity
  8
LAY-10
  6
CONTINUOUS
 62
     7
100
AcDbCircle
 10
330.0000000000004
 20
414.0000000000014
 30
0.0
 40
37.11836509646413
100
AcDbArc
 50
201.4788415369468
 51
218.5211584630768
  0
LINE
  5
2CE
330
1F
100
AcDbEntity
  8
LAY-10
  6
CONTINUOUS
 62
     7
100
AcDbLine
 10
277.4428882072085
 20
424.0000000000103
 30
0.0
 11
290.0525558718791
 21
424.0000000000103
 31
0.0
  0
LINE
  5
2CF
330
1F
100
AcDbEntity
  8
LAY-10
  6
CONTINUOUS
 62
     7
100
AcDbLine
 10
277.4428882072085
 20
404.0000000000103
 30
0.0
 11
290.0525558718746
 21
404.0000000000103
 31
0.0
  0
ARC
  5
2D0
330
1F
100
AcDbEntity
  8
LAY-10
  6
CONTINUOUS
 62
     7
100
AcDbCircle
 10
329.9999999999973
 20
392.8689083165099
 30
0.0
 40
3.131091683519869
100
AcDbArc
 50
8.52115846306495
 51
171.4788415369329
  0
ARC
  5
2D1
330
1F
100
AcDbEntity
  8
LAY-10
  6
CONTINUOUS
 62
     7
100
AcDbCircle
 10
329.9999999999973
 20
392.8689083165099
 30
0.0
 40
4.131091683519867
100
AcDbArc
 50
8.521158463064607
 51
171.4788415369337
  0
LINE
  5
2D2
330
1F
100
AcDbEntity
  8
LAY-10
  6
CONTINUOUS
 62
     7
100
AcDbLine
 10
323.8999575228663
 20
373.2865160647585
 30
0.0
 11
326.9034717733078
 21
393.3328566669992
 31
0.0
  0
LINE
  5
2D3
330
1F
100
AcDbEntity
  8
LAY-10
  6
CONTINUOUS
 62
     7
100
AcDbLine
 10
325.9145105611569
 20
393.4810312966121
 30
0.0
 11
322.9109963107183
 21
373.434690694391
 31
0.0
  0
LINE
  5
2D4
330
1F
100
AcDbEntity
  8
LAY-10
  6
CONTINUOUS
 62
     7
100
AcDbLine
 10
336.1000424771284
 20
373.2865160647581
 30
0.0
 11
333.096528226687
 21
393.3328566669992
 31
0.0
  0
LINE
  5
2D5
330
1F
100
AcDbEntity
  8
LAY-10
  6
CONTINUOUS
 62
     7
100
AcDbLine
 10
337.0890036892761
 20
373.4346906943921
 30
0.0
 11
334.0854894388379
 21
393.4810312966119
 31
0.0
  0
ARC
  5
2D6
330
1F
100
AcDbEntity
  8
LAY-10
  6
CONTINUOUS
 62
     7
100
AcDbCircle
 10
330.0000000000004
 20
414.0000000000193
 30
0.0
 40
37.11836509646413
100
AcDbArc
 50
261.4788415369261
 51
278.5211584630648
  0
ARC
  5
2D7
330
1F
100
AcDbEntity
  8
LAY-10
  6
CONTINUOUS
 62
     7
100
AcDbCircle
 10
330.0000000000004
 20
414.0000000000014
 30
0.0
 40
41.18007154400722
100
AcDbArc
 50
248.5211584630685
 51
261.4788415369332
  0
ARC
  5
2D8
330
1F
100
AcDbEntity
  8
LAY-10
  6
CONTINUOUS
 62
     7
100
AcDbCircle
 10
340.5655458417627
 20
395.6999377923646
 30
0.0
 40
3.131091683519869
100
AcDbArc
 50
38.52115846306553
 51
201.4788415369328
  0
LINE
  5
2D9
330
1F
100
AcDbEntity
  8
LAY-10
  6
CONTINUOUS
 62
     7
100
AcDbLine
 10
345.078396684668
 20
375.6797671485514
 30
0.0
 11
337.6518995586694
 21
394.5534647365874
 31
0.0
  0
LINE
  5
2DA
330
1F
100
AcDbEntity
  8
LAY-10
  6
CONTINUOUS
 62
     7
100
AcDbLine
 10
355.6470967859524
 20
381.7816089970114
 30
0.0
 11
343.0152437743669
 21
397.6499929632771
 31
0.0
  0
ARC
  5
2DB
330
1F
100
AcDbEntity
  8
LAY-10
  6
CONTINUOUS
 62
     7
100
AcDbCircle
 10
340.5655458417627
 20
395.6999377923646
 30
0.0
 40
4.131091683519867
100
AcDbArc
 50
38.52115846306553
 51
201.4788415369328
  0
LINE
  5
2DC
330
1F
100
AcDbEntity
  8
LAY-10
  6
CONTINUOUS
 62
     7
100
AcDbLine
 10
336.7213467107829
 20
394.1873071239531
 30
0.0
 11
344.1433973703849
 21
375.324909784295
 31
0.0
  0
LINE
  5
2DD
330
1F
100
AcDbEntity
  8
LAY-10
  6
CONTINUOUS
 62
     7
100
AcDbLine
 10
356.4219119352588
 20
382.4139134735748
 30
0.0
 11
343.7976219926408
 21
398.2727965627936
 31
0.0
  0
ARC
  5
2DE
330
1F
100
AcDbEntity
  8
LAY-10
  6
CONTINUOUS
 62
     7
100
AcDbCircle
 10
348.3000622076291
 20
403.4344541582309
 30
0.0
 40
3.131091683519869
100
AcDbArc
 50
68.52115846306492
 51
231.4788415369345
  0
LINE
  5
2DF
330
1F
100
AcDbEntity
  8
LAY-10
  6
CONTINUOUS
 62
     7
100
AcDbLine
 10
362.2183910029833
 20
388.3529032140406
 30
0.0
 11
346.3500070367168
 21
400.9847562256268
 31
0.0
  0
LINE
  5
2E0
330
1F
100
AcDbEntity
  8
LAY-10
  6
CONTINUOUS
 62
     7
100
AcDbLine
 10
368.3202328514463
 20
398.9216033153241
 30
0.0
 11
349.4465352634064
 21
406.3481004413244
 31
0.0
  0
ARC
  5
2E1
330
1F
100
AcDbEntity
  8
LAY-10
  6
CONTINUOUS
 62
     7
100
AcDbCircle
 10
348.3000622076291
 20
403.4344541582309
 30
0.0
 40
4.131091683519867
100
AcDbArc
 50
68.52115846306411
 51
231.478841536935
  0
LINE
  5
2E2
330
1F
100
AcDbEntity
  8
LAY-10
  6
CONTINUOUS
 62
     7
100
AcDbLine
 10
345.7272034372002
 20
400.2023780073532
 30
0.0
 11
361.5860865264198
 21
387.5780880647343
 31
0.0
  0
LINE
  5
2E3
330
1F
100
AcDbEntity
  8
LAY-10
  6
CONTINUOUS
 62
     7
100
AcDbLine
 10
368.6750902156978
 20
399.8566026296091
 30
0.0
 11
349.8126928760408
 21
407.2786532892109
 31
0.0
  0
ARC
  5
2E4
330
1F
100
AcDbEntity
  8
LAY-10
  6
CONTINUOUS
 62
     7
100
AcDbCircle
 10
351.1310916835228
 20
413.9999999999908
 30
0.0
 40
3.131091683519869
100
AcDbArc
 50
98.52115846306286
 51
261.4788415369328
  0
LINE
  5
2E5
330
1F
100
AcDbEntity
  8
LAY-10
  6
CONTINUOUS
 62
     7
100
AcDbLine
 10
370.7254934706234
 20
407.8981581515292
 30
0.0
 11
350.6671433330334
 21
410.9034717733012
 31
0.0
  0
LINE
  5
2E6
330
1F
100
AcDbEntity
  8
LAY-10
  6
CONTINUOUS
 62
     7
100
AcDbLine
 10
370.7254934706265
 20
420.1018418484529
 30
0.0
 11
350.6671433330334
 21
417.0965282266804
 31
0.0
  0
ARC
  5
2E7
330
1F
100
AcDbEntity
  8
LAY-10
  6
CONTINUOUS
 62
     7
100
AcDbCircle
 10
351.1310916835228
 20
413.9999999999908
 30
0.0
 40
4.131091683519867
100
AcDbArc
 50
98.52115846306464
 51
261.4788415369354
  0
LINE
  5
2E8
330
1F
100
AcDbEntity
  8
LAY-10
  6
CONTINUOUS
 62
     7
100
AcDbLine
 10
350.5189687034206
 20
409.9145105611503
 30
0.0
 11
370.5653093056417
 21
406.9109963107118
 31
0.0
  0
LINE
  5
2E9
330
1F
100
AcDbEntity
  8
LAY-10
  6
CONTINUOUS
 62
     7
100
AcDbLine
 10
370.5653093056405
 20
421.0890036892696
 30
0.0
 11
350.5189687034208
 21
418.0854894388314
 31
0.0
  0
ARC
  5
2EA
330
1F
100
AcDbEntity
  8
LAY-10
  6
CONTINUOUS
 62
     7
100
AcDbCircle
 10
348.3000622076293
 20
424.5655458417508
 30
0.0
 40
3.131091683519869
100
AcDbArc
 50
128.5211584630656
 51
291.4788415369351
  0
LINE
  5
2EB
330
1F
100
AcDbEntity
  8
LAY-10
  6
CONTINUOUS
 62
     7
100
AcDbLine
 10
368.3202328514535
 20
429.0783966846604
 30
0.0
 11
349.4465352634064
 21
421.6518995586574
 31
0.0
  0
LINE
  5
2EC
330
1F
100
AcDbEntity
  8
LAY-10
  6
CONTINUOUS
 62
     7
100
AcDbLine
 10
362.2183910029936
 20
439.6470967859492
 30
0.0
 11
346.3500070367169
 21
427.015243774355
 31
0.0
  0
ARC
  5
2ED
330
1F
100
AcDbEntity
  8
LAY-10
  6
CONTINUOUS
 62
     7
100
AcDbCircle
 10
348.3000622076293
 20
424.5655458417508
 30
0.0
 40
4.131091683519867
100
AcDbArc
 50
128.5211584630651
 51
291.4788415369346
  0
LINE
  5
2EE
330
1F
100
AcDbEntity
  8
LAY-10
  6
CONTINUOUS
 62
     7
100
AcDbLine
 10
349.8126928760408
 20
420.7213467107708
 30
0.0
 11
368.6750902156989
 21
428.143397370373
 31
0.0
  0
LINE
  5
2EF
330
1F
100
AcDbEntity
  8
LAY-10
  6
CONTINUOUS
 62
     7
100
AcDbLine
 10
361.5860865264191
 20
440.4219119352466
 30
0.0
 11
345.7272034372004
 21
427.7976219926287
 31
0.0
  0
ARC
  5
2F0
330
1F
100
AcDbEntity
  8
LAY-10
  6
CONTINUOUS
 62
     7
100
AcDbCircle
 10
340.565545841763
 20
432.3000622076172
 30
0.0
 40
3.131091683519869
100
AcDbArc
 50
158.5211584630649
 51
321.4788415369346
  0
LINE
  5
2F1
330
1F
100
AcDbEntity
  8
LAY-10
  6
CONTINUOUS
 62
     7
100
AcDbLine
 10
355.6470967859627
 20
446.2183910029829
 30
0.0
 11
343.015243774367
 21
430.3500070367048
 31
0.0
  0
LINE
  5
2F2
330
1F
100
AcDbEntity
  8
LAY-10
  6
CONTINUOUS
 62
     7
100
AcDbLine
 10
345.0783966846757
 20
452.3202328514495
 30
0.0
 11
337.6518995586695
 21
433.4465352633944
 31
0.0
  0
ARC
  5
2F3
330
1F
100
AcDbEntity
  8
LAY-10
  6
CONTINUOUS
 62
     7
100
AcDbCircle
 10
340.565545841763
 20
432.3000622076172
 30
0.0
 40
4.131091683519867
100
AcDbArc
 50
158.5211584630656
 51
321.4788415369329
  0
LINE
  5
2F4
330
1F
100
AcDbEntity
  8
LAY-10
  6
CONTINUOUS
 62
     7
100
AcDbLine
 10
343.7976219926408
 20
429.7272034371882
 30
0.0
 11
356.4219119352597
 21
445.5860865264077
 31
0.0
  0
LINE
  5
2F5
330
1F
100
AcDbEntity
  8
LAY-10
  6
CONTINUOUS
 62
     7
100
AcDbLine
 10
344.1433973703848
 20
452.6750902156858
 30
0.0
 11
336.721346710783
 21
433.8126928760289
 31
0.0
  0
ARC
  5
2F6
330
1F
100
AcDbEntity
  8
LAY-10
  6
CONTINUOUS
 62
     7
100
AcDbCircle
 10
330.0
 20
414.0000000000014
 30
0.0
 40
41.18007154400722
100
AcDbArc
 50
38.52115846305276
 51
51.47884153692086
  0
ARC
  5
2F7
330
1F
100
AcDbEntity
  8
LAY-10
  6
CONTINUOUS
 62
     7
100
AcDbCircle
 10
330.0
 20
414.0000000000014
 30
0.0
 40
41.18007154400722
100
AcDbArc
 50
8.521158463051716
 51
21.47884153691816
  0
ARC
  5
2F8
330
1F
100
AcDbEntity
  8
LAY-10
  6
CONTINUOUS
 62
     7
100
AcDbCircle
 10
330.0
 20
414.0000000000014
 30
0.0
 40
41.18007154400722
100
AcDbArc
 50
338.5211584630549
 51
351.4788415369194
  0
ARC
  5
2F9
330
1F
100
AcDbEntity
  8
LAY-10
  6
CONTINUOUS
 62
     7
100
AcDbCircle
 10
330.0
 20
414.0000000000014
 30
0.0
 40
41.18007154400722
100
AcDbArc
 50
308.5211584630609
 51
321.4788415369242
  0
ARC
  5
2FA
330
1F
100
AcDbEntity
  8
LAY-10
  6
CONTINUOUS
 62
     7
100
AcDbCircle
 10
330.000000000003
 20
414.0000000000014
 30
0.0
 40
41.18007154400722
100
AcDbArc
 50
68.52115846306147
 51
81.47884153693096
  0
ARC
  5
2FB
330
1F
100
AcDbEntity
  8
LAY-10
  6
CONTINUOUS
 62
     7
100
AcDbCircle
 10
330.0
 20
414.0000000000014
 30
0.0
 40
37.11836509646413
100
AcDbArc
 50
51.47884153691943
 51
68.52115846305666
  0
ARC
  5
2FC
330
1F
100
AcDbEntity
  8
LAY-10
  6
CONTINUOUS
 62
     7
100
AcDbCircle
 10
330.0
 20
414.0000000000014
 30
0.0
 40
37.11836509646413
100
AcDbArc
 50
21.47884153691655
 51
38.52115846305109
  0
ARC
  5
2FD
330
1F
100
AcDbEntity
  8
LAY-10
  6
CONTINUOUS
 62
     7
100
AcDbCircle
 10
330.0
 20
414.0000000000014
 30
0.0
 40
37.11836509646413
100
AcDbArc
 50
351.4788415369179
 51
8.521158463050169
  0
ARC
  5
2FE
330
1F
100
AcDbEntity
  8
LAY-10
  6
CONTINUOUS
 62
     7
100
AcDbCircle
 10
330.0
 20
414.0000000000014
 30
0.0
 40
37.11836509646413
100
AcDbArc
 50
291.4788415369311
 51
308.5211584630605
  0
ARC
  5
2FF
330
1F
100
AcDbEntity
  8
LAY-10
  6
CONTINUOUS
 62
     7
100
AcDbCircle
 10
330.0
 20
414.0000000000014
 30
0.0
 40
37.11836509646413
100
AcDbArc
 50
321.4788415369233
 51
338.5211584630535
  0
ARC
  5
300
330
1F
100
AcDbEntity
  8
LAY-10
  6
CONTINUOUS
 62
     7
100
AcDbCircle
 10
330.0
 20
414.0000000000014
 30
0.0
 40
41.18007154400722
100
AcDbArc
 50
278.5211584630672
 51
291.4788415369314
  0
LINE
  5
301
330
1F
100
AcDbEntity
  8
LAY-10
  6
CONTINUOUS
 62
     7
100
AcDbLine
 10
382.5571117927918
 20
424.0000000000103
 30
0.0
 11
369.9474441281212
 21
424.0000000000103
 31
0.0
  0
LINE
  5
302
330
1F
100
AcDbEntity
  8
LAY-10
  6
CONTINUOUS
 62
     7
100
AcDbLine
 10
382.5571117927918
 20
404.0000000000103
 30
0.0
 11
369.9474441281258
 21
404.0000000000103
 31
0.0
  0
LINE
  5
303
330
1F
100
AcDbEntity
  8
LAY-10
  6
CONTINUOUS
 62
     7
100
AcDbLine
 10
325.7000000000002
 20
468.8316514433179
 30
0.0
 11
325.7000000000002
 21
467.326916280628
 31
0.0
  0
LINE
  5
304
330
1F
100
AcDbEntity
  8
LAY-10
  6
CONTINUOUS
 62
     7
100
AcDbLine
 10
326.0000000000002
 20
469.0463605455084
 30
0.0
 11
326.0000000000002
 21
467.3502577313466
 31
0.0
  0
LINE
  5
305
330
1F
100
AcDbEntity
  8
LAY-10
  6
CONTINUOUS
 62
     7
100
AcDbLine
 10
334.0000000000001
 20
469.0463605455084
 30
0.0
 11
334.0000000000001
 21
467.3502577313466
 31
0.0
  0
LINE
  5
306
330
1F
100
AcDbEntity
  8
LAY-10
  6
CONTINUOUS
 62
     7
100
AcDbLine
 10
334.3
 20
467.326916280628
 30
0.0
 11
334.3
 21
468.8316514433179
 31
0.0
  0
LINE
  5
307
330
1F
100
AcDbEntity
  8
LAY-10
  6
CONTINUOUS
 62
     7
100
AcDbLine
 10
383.1307364866738
 20
420.2749374804685
 30
0.0
 11
384.640874440444
 21
420.2749374804685
 31
0.0
  0
LINE
  5
308
330
1F
100
AcDbEntity
  8
LAY-10
  6
CONTINUOUS
 62
     7
100
AcDbLine
 10
383.1624867740401
 20
420.0000000000137
 30
0.0
 11
384.8643947319624
 21
420.0000000000137
 31
0.0
  0
ARC
  5
309
330
1F
100
AcDbEntity
  8
LAY-10
  6
CONTINUOUS
 62
     7
100
AcDbCircle
 10
379.0000000000003
 20
414.0000000000103
 30
0.0
 40
3.999999999999887
100
AcDbArc
 50
140.8995693448584
 51
219.1004306547064
  0
LINE
  5
30A
330
1F
100
AcDbEntity
  8
LAY-10
  6
CONTINUOUS
 62
     7
100
AcDbLine
 10
383.1624867740408
 20
408.0000000000137
 30
0.0
 11
384.8643947319624
 21
408.0000000000137
 31
0.0
  0
LINE
  5
30B
330
1F
100
AcDbEntity
  8
LAY-10
  6
CONTINUOUS
 62
     7
100
AcDbLine
 10
383.1307364866746
 20
407.7250625195588
 30
0.0
 11
384.640874440444
 21
407.7250625195588
 31
0.0
  0
LINE
  5
30C
330
1F
100
AcDbEntity
  8
LAY-10
  6
CONTINUOUS
 62
     7
100
AcDbLine
 10
325.7000000000002
 20
359.1683485567094
 30
0.0
 11
325.7000000000002
 21
360.6730837193927
 31
0.0
  0
LINE
  5
30D
330
1F
100
AcDbEntity
  8
LAY-10
  6
CONTINUOUS
 62
     7
100
AcDbLine
 10
326.0000000000002
 20
358.953639454519
 30
0.0
 11
326.0000000000002
 21
360.6497422686741
 31
0.0
  0
LINE
  5
30E
330
1F
100
AcDbEntity
  8
LAY-10
  6
CONTINUOUS
 62
     7
100
AcDbLine
 10
334.3
 20
360.6730837193927
 30
0.0
 11
334.3
 21
359.1683485567095
 31
0.0
  0
LINE
  5
30F
330
1F
100
AcDbEntity
  8
LAY-10
  6
CONTINUOUS
 62
     7
100
AcDbLine
 10
334.0000000000001
 20
358.953639454519
 30
0.0
 11
334.0000000000001
 21
360.6497422686741
 31
0.0
  0
LINE
  5
310
330
1F
100
AcDbEntity
  8
LAY-10
  6
CONTINUOUS
 62
     7
100
AcDbLine
 10
276.8692635133258
 20
407.7250625195588
 30
0.0
 11
275.3591255595558
 21
407.7250625195588
 31
0.0
  0
LINE
  5
311
330
1F
100
AcDbEntity
  8
LAY-10
  6
CONTINUOUS
 62
     7
100
AcDbLine
 10
276.8375132259596
 20
408.0000000000137
 30
0.0
 11
275.1356052680374
 21
408.0000000000137
 31
0.0
  0
ARC
  5
312
330
1F
100
AcDbEntity
  8
LAY-10
  6
CONTINUOUS
 62
     7
100
AcDbCircle
 10
330.0000000000002
 20
414.0000000000103
 30
0.0
 40
53.50000000000004
100
AcDbArc
 50
184.7505368441338
 51
355.2494631558663
  0
ARC
  5
313
330
1F
100
AcDbEntity
  8
LAY-10
  6
CONTINUOUS
 62
     7
100
AcDbCircle
 10
330.0000000000002
 20
414.0000000000103
 30
0.0
 40
53.50000000000004
100
AcDbArc
 50
4.750536844175599
 51
175.2494631558245
  0
LINE
  5
314
330
1F
100
AcDbEntity
  8
LAY-10
  6
CONTINUOUS
 62
     7
100
AcDbLine
 10
276.8375132259603
 20
420.0000000000137
 30
0.0
 11
275.1356052680374
 21
420.0000000000137
 31
0.0
  0
LINE
  5
315
330
1F
100
AcDbEntity
  8
LAY-10
  6
CONTINUOUS
 62
     7
100
AcDbLine
 10
276.8692635133266
 20
420.2749374804685
 30
0.0
 11
275.3591255595558
 21
420.2749374804685
 31
0.0
  0
ARC
  5
316
330
1F
100
AcDbEntity
  8
LAY-10
  6
CONTINUOUS
 62
     7
100
AcDbCircle
 10
281.0000000000001
 20
414.0000000000103
 30
0.0
 40
3.999999999999887
100
AcDbArc
 50
320.8995693452985
 51
39.10043065513871
  0
LINE
  5
317
330
1F
100
AcDbEntity
  8
LAY-10
  6
CONTINUOUS
 62
     7
100
AcDbLine
 10
301.231738162099
 20
109.1986412405
 30
0.0
 11
301.6379881620989
 21
122.1986412404984
 31
0.0
  0
LINE
  5
318
330
1F
100
AcDbEntity
  8
LAY-10
  6
CONTINUOUS
 62
     7
100
AcDbLine
 10
358.7682618379014
 20
109.1986412405
 30
0.0
 11
358.3620118379015
 21
122.1986412404984
 31
0.0
  0
LINE
  5
319
330
1F
100
AcDbEntity
  8
LAY-10
  6
CONTINUOUS
 62
     7
100
AcDbLine
 10
301.2317381620989
 20
109.1986412404984
 30
0.0
 11
358.7682618379015
 21
109.1986412404984
 31
0.0
  0
LINE
  5
31A
330
1F
100
AcDbEntity
  8
LAY-10
  6
CONTINUOUS
 62
     7
100
AcDbLine
 10
359.8
 20
108.1986412405
 30
0.0
 11
358.7682618379
 21
109.1986412405
 31
0.0
  0
LINE
  5
31B
330
1F
100
AcDbEntity
  8
LAY-10
  6
CONTINUOUS
 62
     7
100
AcDbLine
 10
300.2
 20
108.1986412405
 30
0.0
 11
301.2317381621
 21
109.1986412405
 31
0.0
  0
LINE
  5
31C
330
1F
100
AcDbEntity
  8
LAY-10
  6
CONTINUOUS
 62
     7
100
AcDbLine
 10
262.4999999999969
 20
145.1986412404987
 30
0.0
 11
262.4999999999969
 21
146.1986412404968
 31
0.0
  0
LINE
  5
31D
330
1F
100
AcDbEntity
  8
LAY-10
  6
CONTINUOUS
 62
     7
100
AcDbLine
 10
267.4999999999962
 20
145.1986412404987
 30
0.0
 11
267.4999999999962
 21
146.198641240498
 31
0.0
  0
LINE
  5
31E
330
1F
100
AcDbEntity
  8
LAY-10
  6
CONTINUOUS
 62
     7
100
AcDbLine
 10
267.4999999999962
 20
146.198641240498
 30
0.0
 11
262.4999999999969
 21
146.198641240498
 31
0.0
  0
LINE
  5
31F
330
1F
100
AcDbEntity
  8
LAY-10
  6
CONTINUOUS
 62
     7
100
AcDbLine
 10
267.9999999999994
 20
144.698641240498
 30
0.0
 11
261.9999999999994
 21
144.698641240498
 31
0.0
  0
LINE
  5
320
330
1F
100
AcDbEntity
  8
LAY-10
  6
CONTINUOUS
 62
     7
100
AcDbLine
 10
267.4999999999994
 20
145.1986412404987
 30
0.0
 11
262.4999999999994
 21
145.1986412404987
 31
0.0
  0
LINE
  5
321
330
1F
100
AcDbEntity
  8
LAY-10
  6
CONTINUOUS
 62
     7
100
AcDbLine
 10
264.9999999999992
 20
147.6420169134736
 30
0.0
 11
262.4999999999983
 21
146.198641240499
 31
0.0
  0
LINE
  5
322
330
1F
100
AcDbEntity
  8
LAY-10
  6
CONTINUOUS
 62
     7
100
AcDbLine
 10
264.9999999999997
 20
147.6420169134734
 30
0.0
 11
267.5000000000001
 21
146.198641240499
 31
0.0
  0
LINE
  5
323
330
1F
100
AcDbEntity
  8
LAY-10
  6
CONTINUOUS
 62
     7
100
AcDbLine
 10
250.4999999999999
 20
115.1986412405073
 30
0.0
 11
250.4999999999999
 21
120.1986412405072
 31
0.0
  0
LINE
  5
324
330
1F
100
AcDbEntity
  8
LAY-10
  6
CONTINUOUS
 62
     7
100
AcDbLine
 10
260.5000000000003
 20
120.1986412405072
 30
0.0
 11
250.4999999999999
 21
120.1986412405072
 31
0.0
  0
ARC
  5
325
330
1F
100
AcDbEntity
  8
LAY-10
  6
CONTINUOUS
 62
     7
100
AcDbCircle
 10
260.5000000000003
 20
122.1986412405073
 30
0.0
 40
2.0
100
AcDbArc
 50
270.0000000000002
 51
0.0
  0
LINE
  5
326
330
1F
100
AcDbEntity
  8
LAY-10
  6
CONTINUOUS
 62
     7
100
AcDbLine
 10
260.5000000000003
 20
115.1986412405073
 30
0.0
 11
250.4999999999999
 21
115.1986412405073
 31
0.0
  0
ARC
  5
327
330
1F
100
AcDbEntity
  8
LAY-10
  6
CONTINUOUS
 62
     7
100
AcDbCircle
 10
260.5000000000003
 20
122.1986412405073
 30
0.0
 40
7.000000000000004
100
AcDbArc
 50
270.0000000000002
 51
0.0
  0
LINE
  5
328
330
1F
100
AcDbEntity
  8
LAY-10
  6
CONTINUOUS
 62
     7
100
AcDbLine
 10
262.4999999999994
 20
122.1986412405029
 30
0.0
 11
262.4999999999994
 21
137.1986412405026
 31
0.0
  0
LINE
  5
329
330
1F
100
AcDbEntity
  8
LAY-10
  6
CONTINUOUS
 62
     7
100
AcDbLine
 10
267.4999999999994
 20
122.1986412405029
 30
0.0
 11
267.4999999999994
 21
137.1986412405026
 31
0.0
  0
LINE
  5
32A
330
1F
100
AcDbEntity
  8
LAY-10
  6
CONTINUOUS
 62
     7
100
AcDbLine
 10
267.4999999999962
 20
143.1986412405074
 30
0.0
 11
262.4999999999969
 21
143.1986412405074
 31
0.0
  0
LINE
  5
32B
330
1F
100
AcDbEntity
  8
LAY-10
  6
CONTINUOUS
 62
     7
100
AcDbLine
 10
267.9999999999976
 20
142.6986412405089
 30
0.0
 11
261.9999999999985
 21
142.6986412405089
 31
0.0
  0
LINE
  5
32C
330
1F
100
AcDbEntity
  8
LAY-10
  6
CONTINUOUS
 62
     7
100
AcDbLine
 10
262.4999999999969
 20
145.1986412404987
 30
0.0
 11
262.4999999999969
 21
143.1986412405074
 31
0.0
  0
LINE
  5
32D
330
1F
100
AcDbEntity
  8
LAY-10
  6
CONTINUOUS
 62
     7
100
AcDbLine
 10
267.4999999999962
 20
145.1986412404987
 30
0.0
 11
267.4999999999962
 21
143.1986412405074
 31
0.0
  0
LINE
  5
32E
330
1F
100
AcDbEntity
  8
LAY-10
  6
CONTINUOUS
 62
     7
100
AcDbLine
 10
261.9999999999994
 20
142.6986412405129
 30
0.0
 11
262.4999999999994
 21
143.1986412405029
 31
0.0
  0
LINE
  5
32F
330
1F
100
AcDbEntity
  8
LAY-10
  6
CONTINUOUS
 62
     7
100
AcDbLine
 10
267.4999999999994
 20
143.1986412405029
 30
0.0
 11
267.9999999999994
 21
142.6986412405129
 31
0.0
  0
LINE
  5
330
330
1F
100
AcDbEntity
  8
LAY-10
  6
CONTINUOUS
 62
     7
100
AcDbLine
 10
267.9999999999994
 20
142.6986412405129
 30
0.0
 11
267.9999999999994
 21
137.1986412405029
 31
0.0
  0
LINE
  5
331
330
1F
100
AcDbEntity
  8
LAY-10
  6
CONTINUOUS
 62
     7
100
AcDbLine
 10
261.9999999999994
 20
142.6986412405129
 30
0.0
 11
261.9999999999994
 21
137.1986412405029
 31
0.0
  0
LINE
  5
332
330
1F
100
AcDbEntity
  8
LAY-10
  6
CONTINUOUS
 62
     7
100
AcDbLine
 10
295.36685445498
 20
108.1986412404984
 30
0.0
 11
364.6331455450185
 21
108.1986412404984
 31
0.0
  0
LINE
  5
333
330
1F
100
AcDbEntity
  8
LAY-10
  6
CENTER
 62
     2
100
AcDbLine
 10
279.4999999999998
 20
167.5986412405
 30
0.0
 11
279.4999999999998
 21
146.3986412405
 31
0.0
  0
LINE
  5
334
330
1F
100
AcDbEntity
  8
LAY-10
  6
CENTER
 62
     2
100
AcDbLine
 10
359.000000000001
 20
186.5986412405
 30
0.0
 11
359.000000000001
 21
130.5086412405
 31
0.0
  0
LINE
  5
335
330
1F
100
AcDbEntity
  8
LAY-10
  6
CENTER
 62
     2
100
AcDbLine
 10
330.0000000000002
 20
254.2986412405
 30
0.0
 11
330.0000000000002
 21
92.0986412405
 31
0.0
  0
LINE
  5
336
330
1F
100
AcDbEntity
  8
LAY-10
  6
CENTER
 62
     2
100
AcDbLine
 10
330.0
 20
501.4999999999999
 30
0.0
 11
330.0
 21
326.4999999999999
 31
0.0
  0
LINE
  5
337
330
1F
100
AcDbEntity
  8
LAY-10
  6
CENTER
 62
     2
100
AcDbLine
 10
242.5
 20
413.9999999999999
 30
0.0
 11
417.5000000000003
 21
414.0000000000169
 31
0.0
  0
LINE
  5
338
330
1F
100
AcDbEntity
  8
LAY-10
  6
CENTER
 62
     2
100
AcDbLine
 10
380.4999999999999
 20
408.0000000000137
 30
0.0
 11
380.4999999999999
 21
420.0000000000137
 31
0.0
  0
LINE
  5
339
330
1F
100
AcDbEntity
  8
LAY-10
  6
CENTER
 62
     2
100
AcDbLine
 10
279.5
 20
408.0000000000137
 30
0.0
 11
279.5
 21
420.0000000000137
 31
0.0
  0
LINE
  5
33A
330
1F
100
AcDbEntity
  8
LAY-10
  6
CENTER
 62
     2
100
AcDbLine
 10
249.3000000000005
 20
117.6986412405085
 30
0.0
 11
260.4999999999994
 21
117.6986412405085
 31
0.0
  0
ARC
  5
33B
330
1F
100
AcDbEntity
  8
LAY-10
  6
CENTER
 62
     2
100
AcDbCircle
 10
260.4999999999994
 20
122.1986412405085
 30
0.0
 40
4.5
100
AcDbArc
 50
270.0000000000002
 51
0.0
  0
LINE
  5
33C
330
1F
100
AcDbEntity
  8
LAY-10
  6
CENTER
 62
     2
100
AcDbLine
 10
264.9999999999992
 20
148.3999999999927
 30
0.0
 11
264.9999999999992
 21
122.1986412405085
 31
0.0
  0
LINE
  5
33D
330
1F
100
AcDbEntity
  8
LAY-10
  6
CONTINUOUS
 62
     7
100
AcDbLine
 10
355.0000000000013
 20
135.1986412404854
 30
0.0
 11
363.0000000000012
 21
135.1986412404854
 31
0.0
  0
LINE
  5
33E
330
1F
100
AcDbEntity
  8
LAY-10
  6
CONTINUOUS
 62
     7
100
AcDbLine
 10
355.4999999999995
 20
185.1986412404906
 30
0.0
 11
355.4999999999995
 21
154.7999999999849
 31
0.0
  0
LINE
  5
33F
330
1F
100
AcDbEntity
  8
LAY-10
  6
CONTINUOUS
 62
     7
100
AcDbLine
 10
355.4999999999995
 20
147.99999999998
 30
0.0
 11
355.4999999999995
 21
135.1986412404899
 31
0.0
  0
LINE
  5
340
330
1F
100
AcDbEntity
  8
LAY-10
  6
CONTINUOUS
 62
     7
100
AcDbLine
 10
362.4999999999983
 20
185.1986412404906
 30
0.0
 11
362.4999999999983
 21
154.7999999999849
 31
0.0
  0
LINE
  5
341
330
1F
100
AcDbEntity
  8
LAY-10
  6
CONTINUOUS
 62
     7
100
AcDbLine
 10
362.4999999999983
 20
147.99999999998
 30
0.0
 11
362.4999999999983
 21
135.1986412404899
 31
0.0
  0
LINE
  5
342
330
1F
100
AcDbEntity
  8
LAY-10
  6
CONTINUOUS
 62
     7
100
AcDbLine
 10
355.0000000000013
 20
135.6986412404885
 30
0.0
 11
355.0000000000013
 21
135.19864124049
 31
0.0
  0
LINE
  5
343
330
1F
100
AcDbEntity
  8
LAY-10
  6
CONTINUOUS
 62
     7
100
AcDbLine
 10
363.0000000000012
 20
135.6986412404885
 30
0.0
 11
363.0000000000012
 21
135.19864124049
 31
0.0
  0
LINE
  5
344
330
1F
100
AcDbEntity
  8
LAY-10
  6
CONTINUOUS
 62
     7
100
AcDbLine
 10
282.0000000000005
 20
162.4999999999905
 30
0.0
 11
282.0000000000005
 21
150.4999999999926
 31
0.0
  0
LINE
  5
345
330
1F
100
AcDbEntity
  8
LAY-10
  6
CONTINUOUS
 62
     7
100
AcDbLine
 10
277.0000000000005
 20
162.4999999999905
 30
0.0
 11
277.0000000000005
 21
150.4999999999926
 31
0.0
  0
LINE
  5
346
330
1F
100
AcDbEntity
  8
LAY-10
  6
CONTINUOUS
 62
     7
100
AcDbLine
 10
276.4999999999991
 20
150.99999999999
 30
0.0
 11
276.4999999999991
 21
149.0358098145838
 31
0.0
  0
LINE
  5
347
330
1F
100
AcDbEntity
  8
LAY-10
  6
CONTINUOUS
 62
     7
100
AcDbLine
 10
282.4999999999999
 20
150.99999999999
 30
0.0
 11
282.4999999999999
 21
147.4281146599968
 31
0.0
  0
LINE
  5
348
330
1F
100
AcDbEntity
  8
LAY-10
  6
CONTINUOUS
 62
     7
100
AcDbLine
 10
300.2
 20
108.1986412405
 30
0.0
 11
300.6374999999999
 21
122.1986412404984
 31
0.0
  0
LINE
  5
349
330
1F
100
AcDbEntity
  8
LAY-10
  6
CONTINUOUS
 62
     7
100
AcDbLine
 10
359.8000000000004
 20
108.1986412405
 30
0.0
 11
359.3625000000005
 21
122.1986412404984
 31
0.0
  0
LINE
  5
34A
330
1F
100
AcDbEntity
  8
LAY-10
  6
CONTINUOUS
 62
     7
100
AcDbLine
 10
261.9999999999985
 20
144.698641240498
 30
0.0
 11
262.4999999999969
 21
145.1986412404987
 31
0.0
  0
LINE
  5
34B
330
1F
100
AcDbEntity
  8
LAY-10
  6
CONTINUOUS
 62
     7
100
AcDbLine
 10
267.9999999999976
 20
144.698641240498
 30
0.0
 11
267.4999999999962
 21
145.1986412404987
 31
0.0
  0
LINE
  5
34C
330
1F
100
AcDbEntity
  8
LAY-10
  6
CONTINUOUS
 62
     7
100
AcDbLine
 10
261.9999999999985
 20
144.698641240498
 30
0.0
 11
261.9999999999985
 21
142.6986412405089
 31
0.0
  0
LINE
  5
34D
330
1F
100
AcDbEntity
  8
LAY-10
  6
CONTINUOUS
 62
     7
100
AcDbLine
 10
267.9999999999976
 20
144.698641240498
 30
0.0
 11
267.9999999999976
 21
142.6986412405089
 31
0.0
  0
LINE
  5
34E
330
1F
100
AcDbEntity
  8
LAY-10
  6
CONTINUOUS
 62
     7
100
AcDbLine
 10
262.4999999999994
 20
143.1986412405029
 30
0.0
 11
262.4999999999994
 21
137.1986412405029
 31
0.0
  0
LINE
  5
34F
330
1F
100
AcDbEntity
  8
LAY-10
  6
CONTINUOUS
 62
     7
100
AcDbLine
 10
267.4999999999994
 20
143.1986412405029
 30
0.0
 11
267.4999999999994
 21
137.1986412405029
 31
0.0
  0
LINE
  5
350
330
1F
100
AcDbEntity
  8
LAY-10
  6
CONTINUOUS
 62
     7
100
AcDbLine
 10
267.5000000000176
 20
136.3326158367079
 30
0.0
 11
268.0000000000176
 21
137.1986412404924
 31
0.0
  0
LINE
  5
351
330
1F
100
AcDbEntity
  8
LAY-10
  6
CONTINUOUS
 62
     7
100
AcDbLine
 10
262.4999999999874
 20
136.3326158367114
 30
0.0
 11
261.9999999999874
 21
137.198641240496
 31
0.0
  0
DIMENSION
  5
353
330
1F
100
AcDbEntity
  8
LAY-20
  6
CONTINUOUS
 62
     4
100
AcDbDimension
  2
*D15
 10
227.5
 20
155.1986412405001
 30
0.0
 11
222.5
 21
135.1986412405
 31
0.0
 70
   160
  3
ISO-25
100
AcDbAlignedDimension
 13
292.0
 23
115.1986412405
 33
0.0
 14
249.3672954017
 24
155.1986412405
 34
0.0
 50
90.0
100
AcDbRotatedDimension
1001
ACAD
1000
DSTYLE
1002
{
1070
   270
1070
     2
1070
     6
1000
EX_BNORM
1070
     7
1000
EX_BNORM
1070
    41
1040
5.0
1070
    42
1040
3.0
1070
    44
1040
3.0
1070
    73
1070
     0
1070
    74
1070
     0
1070
    75
1070
     0
1070
    76
1070
     0
1070
    77
1070
     1
1070
    78
1070
     8
1070
   140
1040
6.2362208
1070
   147
1040
0.0
1070
   173
1070
     1
1070
   176
1070
     4
1070
   177
1070
     4
1070
   178
1070
     7
1070
   271
1070
     1
1070
   277
1070
     2
1070
   279
1070
     2
1070
   280
1070
     0
1070
   287
1070
     5
1070
   340
1005
352
1002
}
  0
DIMENSION
  5
361
330
1F
100
AcDbEntity
  8
LAY-20
  6
CONTINUOUS
 62
     4
100
AcDbDimension
  2
*D16
 10
432.5
 20
155.1986412405
 30
0.0
 11
427.5
 21
125.1986412405
 31
0.0
 70
   160
  3
ISO-25
100
AcDbAlignedDimension
 13
368.0
 23
95.1986412405
 33
0.0
 14
410.63270459831
 24
155.1986412405
 34
0.0
 50
90.0
100
AcDbRotatedDimension
1001
ACAD
1000
DSTYLE
1002
{
1070
   270
1070
     2
1070
     6
1000
EX_BNORM
1070
     7
1000
EX_BNORM
1070
    41
1040
5.0
1070
    42
1040
3.0
1070
    44
1040
3.0
1070
    73
1070
     0
1070
    74
1070
     0
1070
    75
1070
     0
1070
    76
1070
     0
1070
    77
1070
     1
1070
    78
1070
     8
1070
   140
1040
6.2362208
1070
   147
1040
0.0
1070
   173
1070
     1
1070
   176
1070
     4
1070
   177
1070
     4
1070
   178
1070
     7
1070
   271
1070
     1
1070
   277
1070
     2
1070
   279
1070
     2
1070
   280
1070
     0
1070
   287
1070
     5
1070
   340
1005
352
1002
}
  0
DIMENSION
  5
36E
330
1F
100
AcDbEntity
  8
LAY-20
  6
CONTINUOUS
 62
     4
100
AcDbDimension
  2
*D17
 10
432.5
 20
249.99999999999
 30
0.0
 11
427.5
 21
202.599320620245
 31
0.0
 70
   160
  1
95
  3
ISO-25
100
AcDbAlignedDimension
 13
432.5
 23
155.1986412405
 33
0.0
 14
330.0
 24
249.99999999999
 34
0.0
 50
90.0
100
AcDbRotatedDimension
1001
ACAD
1000
DSTYLE
1002
{
1070
   270
1070
     2
1070
     6
1000
EX_BNORM
1070
     7
1000
EX_BNORM
1070
    41
1040
5.0
1070
    42
1040
3.0
1070
    44
1040
3.0
1070
    73
1070
     0
1070
    74
1070
     0
1070
    75
1070
     1
1070
    76
1070
     0
1070
    77
1070
     1
1070
    78
1070
     8
1070
   140
1040
6.2362208
1070
   147
1040
0.0
1070
   173
1070
     1
1070
   176
1070
     4
1070
   177
1070
     4
1070
   178
1070
     7
1070
   271
1070
     1
1070
   277
1070
     2
1070
   279
1070
     2
1070
   280
1070
     0
1070
   287
1070
     5
1070
   340
1005
352
1002
}
  0
DIMENSION
  5
37A
330
1F
100
AcDbEntity
  8
LAY-20
  6
CONTINUOUS
 62
     4
100
AcDbDimension
  2
*D18
 10
412.5
 20
298.0
 30
0.0
 11
330.0
 21
303.0
 31
0.0
 70
   160
  1
%%c<>
  3
ISO-25
100
AcDbAlignedDimension
 13
247.5
 23
148.1986412405
 33
0.0
 14
412.5
 24
148.1986412405
 34
0.0
100
AcDbRotatedDimension
1001
ACAD
1000
DSTYLE
1002
{
1070
   270
1070
     2
1070
     6
1000
EX_BNORM
1070
     7
1000
EX_BNORM
1070
    41
1040
6.0
1070
    42
1040
3.0
1070
    44
1040
3.0
1070
    73
1070
     0
1070
    74
1070
     0
1070
    75
1070
     0
1070
    76
1070
     0
1070
    77
1070
     1
1070
    78
1070
     8
1070
   140
1040
6.2362208
1070
   147
1040
0.0
1070
   173
1070
     1
1070
   176
1070
     4
1070
   177
1070
     4
1070
   178
1070
     7
1070
   271
1070
     1
1070
   277
1070
     2
1070
   279
1070
     2
1070
   280
1070
     0
1070
   287
1070
     5
1070
   340
1005
352
1002
}
  0
DIMENSION
  5
387
330
1F
100
AcDbEntity
  8
LAY-20
  6
CONTINUOUS
 62
     4
100
AcDbDimension
  2
*D19
 10
402.50000000001
 20
284.0
 30
0.0
 11
330.0
 21
289.0
 31
0.0
 70
   160
  1
%%c<>
  3
ISO-25
100
AcDbAlignedDimension
 13
257.49999999999
 23
157.99999999999
 33
0.0
 14
402.50000000001
 24
157.99999999999
 34
0.0
100
AcDbRotatedDimension
1001
ACAD
1000
DSTYLE
1002
{
1070
   270
1070
     2
1070
     6
1000
EX_BNORM
1070
     7
1000
EX_BNORM
1070
    41
1040
6.0
1070
    42
1040
3.0
1070
    44
1040
3.0
1070
    73
1070
     0
1070
    74
1070
     0
1070
    75
1070
     0
1070
    76
1070
     0
1070
    77
1070
     1
1070
    78
1070
     8
1070
   140
1040
6.2362208
1070
   147
1040
0.0
1070
   173
1070
     1
1070
   176
1070
     4
1070
   177
1070
     4
1070
   178
1070
     7
1070
   271
1070
     1
1070
   277
1070
     2
1070
   279
1070
     2
1070
   280
1070
     0
1070
   287
1070
     5
1070
   340
1005
352
1002
}
  0
DIMENSION
  5
394
330
1F
100
AcDbEntity
  8
LAY-20
  6
CONTINUOUS
 62
     4
100
AcDbDimension
  2
*D20
 10
383.50000000001
 20
270.0
 30
0.0
 11
330.000000000005
 21
275.0
 31
0.0
 70
   160
  1
%%c<>
  3
ISO-25
100
AcDbAlignedDimension
 13
276.5
 23
162.49999999999
 33
0.0
 14
383.50000000001
 24
161.99999999999
 34
0.0
100
AcDbRotatedDimension
1001
ACAD
1000
DSTYLE
1002
{
1070
   270
1070
     2
1070
     6
1000
EX_BNORM
1070
     7
1000
EX_BNORM
1070
    41
1040
6.0
1070
    42
1040
3.0
1070
    44
1040
3.0
1070
    73
1070
     0
1070
    74
1070
     0
1070
    75
1070
     0
1070
    76
1070
     0
1070
    77
1070
     1
1070
    78
1070
     8
1070
   140
1040
6.2362208
1070
   147
1040
0.0
1070
   173
1070
     1
1070
   176
1070
     4
1070
   177
1070
     4
1070
   178
1070
     7
1070
   271
1070
     1
1070
   277
1070
     2
1070
   279
1070
     2
1070
   280
1070
     0
1070
   287
1070
     5
1070
   340
1005
352
1002
}
  0
DIMENSION
  5
3A1
330
1F
100
AcDbEntity
  8
LAY-20
  6
CONTINUOUS
 62
     4
100
AcDbDimension
  2
*D21
 10
359.8
 20
75.19864124049997
 30
0.0
 11
330.0
 21
80.19864124049997
 31
0.0
 70
   160
  1
Rｃ2(<>)
  3
ISO-25
100
AcDbAlignedDimension
 13
300.2
 23
108.1986412405
 33
0.0
 14
359.8
 24
108.1986412405
 34
0.0
100
AcDbRotatedDimension
1001
ACAD
1000
DSTYLE
1002
{
1070
   270
1070
     2
1070
     6
1000
EX_BNORM
1070
     7
1000
EX_BNORM
1070
    41
1040
6.0
1070
    42
1040
3.0
1070
    44
1040
3.0
1070
    73
1070
     0
1070
    74
1070
     0
1070
    75
1070
     0
1070
    76
1070
     0
1070
    77
1070
     1
1070
    78
1070
     8
1070
   140
1040
6.2362208
1070
   147
1040
0.0
1070
   173
1070
     1
1070
   176
1070
     4
1070
   177
1070
     4
1070
   178
1070
     7
1070
   271
1070
     1
1070
   277
1070
     2
1070
   279
1070
     2
1070
   280
1070
     0
1070
   287
1070
     5
1070
   340
1005
352
1002
}
  0
LINE
  5
3AE
330
1F
100
AcDbEntity
  8
LAY-255
  6
CONTINUOUS
 62
     7
100
AcDbLine
 10
770.0
 20
43.99999999999999
 30
0.0
 11
570.0
 21
43.99999999999999
 31
0.0
  0
LINE
  5
3AF
330
1F
100
AcDbEntity
  8
LAY-255
  6
CONTINUOUS
 62
     7
100
AcDbLine
 10
577.6
 20
32.0
 30
0.0
 11
593.6
 21
42.0
 31
0.0
  0
LINE
  5
3B0
330
1F
100
AcDbEntity
  8
LAY-255
  6
CONTINUOUS
 62
     7
100
AcDbLine
 10
593.6
 20
42.0
 30
0.0
 11
609.6
 21
32.0
 31
0.0
  0
LINE
  5
3B1
330
1F
100
AcDbEntity
  8
LAY-255
  6
CONTINUOUS
 62
     7
100
AcDbLine
 10
609.6
 20
32.0
 30
0.0
 11
593.6
 21
22.0
 31
0.0
  0
LINE
  5
3B2
330
1F
100
AcDbEntity
  8
LAY-255
  6
CONTINUOUS
 62
     7
100
AcDbLine
 10
593.6
 20
22.0
 30
0.0
 11
577.6
 21
32.0
 31
0.0
  0
LINE
  5
3B3
330
1F
100
AcDbEntity
  8
LAY-255
  6
CONTINUOUS
 62
     7
100
AcDbLine
 10
10.0
 20
20.0
 30
0.0
 11
770.0000000000001
 21
20.0
 31
0.0
  0
LINE
  5
3B4
330
1F
100
AcDbEntity
  8
LAY-255
  6
CONTINUOUS
 62
     7
100
AcDbLine
 10
10.0
 20
560.0
 30
0.0
 11
770.0000000000001
 21
560.0
 31
0.0
  0
LINE
  5
3B5
330
1F
100
AcDbEntity
  8
LAY-255
  6
CONTINUOUS
 62
     7
100
AcDbLine
 10
10.0
 20
20.0
 30
0.0
 11
10.0
 21
560.0
 31
0.0
  0
LINE
  5
3B6
330
1F
100
AcDbEntity
  8
LAY-255
  6
CONTINUOUS
 62
     4
100
AcDbLine
 10
570.0
 20
55.99999999999999
 30
0.0
 11
770.0000000000001
 21
55.99999999999999
 31
0.0
  0
LINE
  5
3B7
330
1F
100
AcDbEntity
  8
LAY-255
  6
CONTINUOUS
 62
     4
100
AcDbLine
 10
670.0
 20
55.99999999999999
 30
0.0
 11
670.0
 21
44.0
 31
0.0
  0
LINE
  5
3B8
330
1F
100
AcDbEntity
  8
LAY-255
  6
CONTINUOUS
 62
     7
100
AcDbLine
 10
770.0
 20
20.0
 30
0.0
 11
770.0
 21
560.0
 31
0.0
  0
LINE
  5
3B9
330
1F
100
AcDbEntity
  8
LAY-255
  6
CONTINUOUS
 62
     7
100
AcDbLine
 10
570.0
 20
20.0
 30
0.0
 11
570.0
 21
144.0
 31
0.0
  0
LINE
  5
3BA
330
1F
100
AcDbEntity
  8
LAY-255
  6
CONTINUOUS
 62
     7
100
AcDbLine
 10
770.0000000000001
 20
144.0
 30
0.0
 11
570.0
 21
144.0
 31
0.0
  0
LINE
  5
3BB
330
1F
100
AcDbEntity
  8
LAY-255
  6
CONTINUOUS
 62
     4
100
AcDbLine
 10
766.0
 20
120.0
 30
0.0
 11
574.0
 21
120.0
 31
0.0
  0
LINE
  5
3BC
330
1F
100
AcDbEntity
  8
LAY-255
  6
CONTINUOUS
 62
     4
100
AcDbLine
 10
766.0
 20
132.0
 30
0.0
 11
574.0
 21
132.0
 31
0.0
  0
POINT
  5
3BD
330
1F
100
AcDbEntity
  8
LAY-255
  6
CONTINUOUS
 62
     7
100
AcDbPoint
 10
600.0
 20
122.0
 30
0.0
  0
POINT
  5
3BE
330
1F
100
AcDbEntity
  8
LAY-255
  6
CONTINUOUS
 62
     7
100
AcDbPoint
 10
600.0
 20
134.0
 30
0.0
  0
TEXT
  5
3BF
330
1F
100
AcDbEntity
  8
LAY-255
  6
CONTINUOUS
 62
     7
100
AcDbText
 10
616.2767579736328
 20
31.0875
 30
0.0
 40
10.3125
  1
福西鋳物株式会社
 41
1.342692319347662
  7
EXCADSTD
100
AcDbText
  0
TEXT
  5
3C0
330
1F
100
AcDbEntity
  8
LAY-255
  6
CONTINUOUS
 62
     7
100
AcDbText
 10
617.0187500000001
 20
23.9625
 30
0.0
 40
3.4375
  1
ＦＵＫＵＮＩＳＨＩ
 41
1.204799226045263
  7
EXCADSTD
100
AcDbText
  0
TEXT
  5
3C1
330
1F
100
AcDbEntity
  8
LAY-255
  6
CONTINUOUS
 62
     7
100
AcDbText
 10
665.4383928571428
 20
23.9625
 30
0.0
 40
3.4375
  1
ＦＯＵＮＤＲＹ
 41
1.243252752978497
  7
EXCADSTD
100
AcDbText
  0
TEXT
  5
3C2
330
1F
100
AcDbEntity
  8
LAY-255
  6
CONTINUOUS
 62
     7
100
AcDbText
 10
703.9891823858172
 20
23.9625
 30
0.0
 40
3.4375
  1
ＣＯ.,ＬＴＤ.
 41
1.243830523306697
  7
EXCADSTD
100
AcDbText
  0
TEXT
  5
3C3
330
1F
100
AcDbEntity
  8
LAY-255
  6
CONTINUOUS
 62
     7
100
AcDbText
 10
588.06875
 20
27.4375
 30
0.0
 40
10.3125
  1
S
 41
0.7582677563636363
  7
EXCADSTD
100
AcDbText
  0
TEXT
  5
3C4
330
1F
100
AcDbEntity
  8
LAY-255
  6
CONTINUOUS
 62
     7
100
AcDbText
 10
594.209375
 20
27.49882075472
 30
0.0
 40
10.3125
  1
F
 41
0.7440945272727272
  7
EXCADSTD
100
AcDbText
  0
TEXT
  5
3C5
330
1F
100
AcDbEntity
  8
LAY-255
  6
CONTINUOUS
 62
     7
100
AcDbText
 10
674.2109375
 20
48.84374999999998
 30
0.0
 40
5.15625
  1
縮尺
 41
1.080708718181818
  7
EXCADSTD
100
AcDbText
  0
TEXT
  5
3C6
330
1F
100
AcDbEntity
  8
LAY-255
  6
CONTINUOUS
 62
     7
100
AcDbText
 10
574.3046875
 20
48.84374999999998
 30
0.0
 40
5.15625
  1
作成日
 41
1.000629973818182
  7
EXCADSTD
100
AcDbText
  0
TEXT
  5
3C7
330
1F
100
AcDbEntity
  8
LAY-255
  6
CONTINUOUS
 62
     7
100
AcDbText
 10
574.53125
 20
123.125
 30
0.0
 40
6.875
  1
型式
 41
1.056348480681818
  7
EXCADSTD
100
AcDbText
  0
TEXT
  5
3C8
330
1F
100
AcDbEntity
  8
LAY-255
  6
CONTINUOUS
 62
     7
100
AcDbText
 10
574.84375
 20
135.125
 30
0.0
 40
6.875
  1
品名
 41
0.978838634090909
  7
EXCADSTD
100
AcDbText
  0
TEXT
  5
3C9
330
1F
100
AcDbEntity
  8
LAY-255
  6
CONTINUOUS
 62
     7
100
AcDbText
 10
600.5
 20
135.125
 30
0.0
 40
6.875
  1
ルーフドレイン
 41
1.021169538599106
  7
EXCADSTD
100
AcDbText
  0
TEXT
  5
3CA
330
1F
100
AcDbEntity
  8
LAY-255
  6
CONTINUOUS
 62
     7
100
AcDbText
 10
578.375
 20
71.12500000000001
 30
0.0
 40
6.875
  1
施工：打込用
 41
1.018700840909091
  7
EXCADSTD
100
AcDbText
  0
TEXT
  5
3CB
330
1F
100
AcDbEntity
  8
LAY-255
  6
CONTINUOUS
 62
     7
100
AcDbText
 10
578.46875
 20
81.12500000000001
 30
0.0
 40
6.875
  1
用途：屋上用
 41
1.016656625174825
  7
EXCADSTD
100
AcDbText
  0
TEXT
  5
3CC
330
1F
100
AcDbEntity
  8
LAY-255
  6
CONTINUOUS
 62
     7
100
AcDbText
 10
578.28125
 20
91.12500000000001
 30
0.0
 40
6.875
  1
材質：ステンレス鋼鋳鋼
 41
1.017696295032802
  7
EXCADSTD
100
AcDbText
  0
TEXT
  5
3CD
330
1F
100
AcDbEntity
  8
LAY-255
  6
CONTINUOUS
 62
     7
100
AcDbText
 10
578.0
 20
101.125
 30
0.0
 40
6.875
  1
      露出アスファルト防水兼用
 41
0.8942744381697771
  7
EXCADSTD
100
AcDbText
  0
TEXT
  5
3CE
330
1F
100
AcDbEntity
  8
LAY-255
  6
CONTINUOUS
 62
     7
100
AcDbText
 10
578.75
 20
111.125
 30
0.0
 40
6.875
  1
防水：アスファルト・シート・
 41
0.9866967752199411
  7
EXCADSTD
100
AcDbText
  0
TEXT
  5
3CF
330
1F
100
AcDbEntity
  8
LAY-255
  6
CONTINUOUS
 62
     7
100
AcDbText
 10
578.4375
 20
61.12500000000001
 30
0.0
 40
6.875
  1
接続：管用テーパねじ
 41
1.013063761157025
  7
EXCADSTD
100
AcDbText
  0
TEXT
  5
3D0
330
1F
100
AcDbEntity
  8
LAY-255
  6
CONTINUOUS
 62
     7
100
AcDbText
 10
601.5
 20
123.125
 30
0.0
 40
6.875
  1
ＳＦ－ＳＵＳＧ－９０５０型
 41
1.004758697075099
  7
EXCADSTD
100
AcDbText
  0
TEXT
  5
3D1
330
1F
100
AcDbEntity
  8
LAY-255
  6
CONTINUOUS
 62
     7
100
AcDbText
 10
696.5625
 20
47.12499999999998
 30
0.0
 40
6.875
  1
１：２
 41
0.888661464
  7
EXCADSTD
100
AcDbText
  0
TEXT
  5
3D2
330
1F
100
AcDbEntity
  8
LAY-255
  6
CONTINUOUS
 62
     7
100
AcDbText
 10
601.78125
 20
47.12499999999998
 30
0.0
 40
6.875
  1
０７／０１／０５
 41
0.9779528072727272
  7
EXCADSTD
100
AcDbText
  0
ENDSEC
  0
SECTION
  2
OBJECTS
  0
DICTIONARY
  5
C
330
0
100
AcDbDictionary
  3
ACAD_GROUP
350
D
  3
ACAD_LAYOUT
350
1A
  3
ACAD_MATERIAL
350
43
  3
ACAD_MLEADERSTYLE
350
6B
  3
ACAD_MLINESTYLE
350
17
  3
ACAD_PLOTSETTINGS
350
19
  3
ACAD_SCALELIST
350
47
  3
ACAD_VISUALSTYLE
350
2A
  3
ACDBHEADERROUNDTRIPXREC
350
3D3
  3
ACDBVARIABLEDICTIONARY
350
3F4
  0
DICTIONARY
  5
3FF
330
8
100
AcDbDictionary
280
     1
  3
ACAD_XREC_ROUNDTRIP
360
400
  0
DICTIONARY
  5
D
102
{ACAD_REACTORS
330
C
102
}
330
C
100
AcDbDictionary
  0
DICTIONARY
  5
1A
102
{ACAD_REACTORS
330
C
102
}
330
C
100
AcDbDictionary
  0
DICTIONARY
  5
43
102
{ACAD_REACTORS
330
C
102
}
330
C
100
AcDbDictionary
  3
BYBLOCK
350
45
  3
BYLAYER
350
44
  3
GLOBAL
350
46
  0
DICTIONARY
  5
6B
102
{ACAD_REACTORS
330
C
102
}
330
C
100
AcDbDictionary
  3
STANDARD
350
6C
  0
DICTIONARY
  5
17
102
{ACAD_REACTORS
330
C
102
}
330
C
100
AcDbDictionary
  3
STANDARD
350
18
  0
DICTIONARY
  5
19
102
{ACAD_REACTORS
330
C
102
}
330
C
100
AcDbDictionary
  0
DICTIONARY
  5
47
102
{ACAD_REACTORS
330
C
102
}
330
C
100
AcDbDictionary
  3
A0
350
48
  3
A1
350
49
  3
A2
350
4A
  3
A3
350
4B
  3
A4
350
4C
  3
A5
350
4D
  3
A6
350
4E
  3
A7
350
4F
  3
A8
350
50
  3
A9
350
51
  3
B0
350
52
  3
B1
350
53
  3
B2
350
54
  3
B3
350
55
  3
B4
350
56
  3
B5
350
57
  3
B6
350
58
  3
B7
350
59
  3
B8
350
5A
  3
B9
350
5B
  3
C0
350
5C
  3
C1
350
5D
  3
C2
350
5E
  3
C3
350
5F
  3
C4
350
60
  3
C5
350
61
  3
C6
350
62
  3
C7
350
63
  3
C8
350
64
  3
C9
350
65
  3
D0
350
66
  3
D1
350
67
  3
D2
350
68
  0
DICTIONARY
  5
2A
102
{ACAD_REACTORS
330
C
102
}
330
C
100
AcDbDictionary
  3
2DWIREFRAME
350
2F
  3
BASIC
350
32
  3
BRIGHTEN
350
36
  3
COLORCHANGE
350
3A
  3
CONCEPTUAL
350
34
  3
DIM
350
35
  3
EDGECOLOROFF
350
3D
  3
FACEPATTERN
350
39
  3
FLAT
350
2B
  3
FLATWITHEDGES
350
2C
  3
GOURAUD
350
2D
  3
GOURAUDWITHEDGES
350
2E
  3
HIDDEN
350
31
  3
JITTEROFF
350
3B
  3
LINEPATTERN
350
38
  3
OVERHANGOFF
350
3C
  3
REALISTIC
350
33
  3
SHADED
350
42
  3
SHADED_WITH_EDGES
350
41
  3
SHADES_OF_GRAY
350
3E
  3
SKETCHY
350
3F
  3
THICKEN
350
37
  3
WIREFRAME
350
30
  3
X-RAY
350
40
  0
DICTIONARY
  5
3D3
102
{ACAD_REACTORS
330
C
102
}
330
C
100
AcDbDictionary
  3
CEPSNID
350
3DD
  3
CEPSNTYPE
350
3DC
  3
DIMSTYLEDATA
350
3F3
  3
FINGERPRINTGUID
350
3DE
  3
HYPERLINKBASE
350
3D6
  3
INSUNITS
350
3DB
  3
LAYOUTDICT
350
3D8
  3
LWETCUNION
350
3DA
  3
PLOTSETDICT
350
3D9
  3
PSVPSCALE
350
3E0
  3
PUCSBASE
350
3E3
  3
PUCSORGBACK
350
3E9
  3
PUCSORGBOTTOM
350
3E5
  3
PUCSORGFRONT
350
3E8
  3
PUCSORGLEFT
350
3E6
  3
PUCSORGRIGHT
350
3E7
  3
PUCSORGTOP
350
3E4
  3
PUCSORTHOREF
350
3E1
  3
PUCSORTHOVIEW
350
3E2
  3
STYLESHEET
350
3D7
  3
TSTACKALIGN
350
3D4
  3
TSTACKSIZE
350
3D5
  3
UCSBASE
350
3EC
  3
UCSORGBACK
350
3F2
  3
UCSORGBOTTOM
350
3EE
  3
UCSORGFRONT
350
3F1
  3
UCSORGLEFT
350
3EF
  3
UCSORGRIGHT
350
3F0
  3
UCSORGTOP
350
3ED
  3
UCSORTHOREF
350
3EA
  3
UCSORTHOVIEW
350
3EB
  3
VERSIONGUID
350
3DF
  0
DICTIONARY
  5
3F4
102
{ACAD_REACTORS
330
C
102
}
330
C
100
AcDbDictionary
  3
CANNOSCALE
350
401
  3
CENTEREXE
350
3FB
  3
CENTERLTYPEFILE
350
3FC
  3
CMLEADERSTYLE
350
3F6
  3
CTABLESTYLE
350
3F5
  3
DIMASSOC
350
3FD
  3
HIDETEXT
350
3FE
  3
MSLTSCALE
350
402
  3
PSOLHEIGHT
350
3F8
  3
PSOLWIDTH
350
3F7
  0
XRECORD
  5
400
102
{ACAD_REACTORS
330
3FF
102
}
330
3FF
100
AcDbXrecord
102
VTR_0.000_0.000_1.000_1.000_VISUALSTYLE
340
2F
102
VTR_0.000_0.000_1.000_1.000_GRIDDISPLAY
 70
     3
102
VTR_0.000_0.000_1.000_1.000_GRIDMAJOR
 70
     5
102
VTR_0.000_0.000_1.000_1.000_DEFAULTLIGHTING
280
     1
102
VTR_0.000_0.000_1.000_1.000_DEFAULTLIGHTINGTYPE
 70
     1
102
VTR_0.000_0.000_1.000_1.000_BRIGHTNESS
141
0.0
102
VTR_0.000_0.000_1.000_1.000_CONTRAST
142
0.0
  0
MATERIAL
  5
45
102
{ACAD_REACTORS
330
43
102
}
102
{ACAD_XDICTIONARY
360
405
102
}
330
43
100
AcDbMaterial
  1
BYBLOCK
  0
MATERIAL
  5
44
102
{ACAD_REACTORS
330
43
102
}
102
{ACAD_XDICTIONARY
360
403
102
}
330
43
100
AcDbMaterial
  1
BYLAYER
  0
MATERIAL
  5
46
102
{ACAD_REACTORS
330
43
102
}
102
{ACAD_XDICTIONARY
360
407
102
}
330
43
100
AcDbMaterial
  1
GLOBAL
  0
ACAD_PROXY_OBJECT
  5
6C
102
{ACAD_REACTORS
330
6B
102
}
330
6B
100
AcDbProxyObject
 90
      499
 91
      505
 93
      610
310
40901902A4063FBFFFFFE0000000000000020400000000000020404214DD185B99185C990000000000000104090141901A00000000000004100000000000000041025764000000000000039000
340
14
340
0
340
11
340
0
 94
        0
1001
ACAD_MLEADERVER
1070
     2
  0
MLINESTYLE
  5
18
102
{ACAD_REACTORS
330
17
102
}
330
17
100
AcDbMlineStyle
  2
Standard
 70
     0
  3

 62
   256
 51
90.0
 52
90.0
 71
     2
 49
0.5
 62
   256
  6
BYLAYER
 49
-0.5
 62
   256
  6
BYLAYER
  0
ACAD_PROXY_OBJECT
  5
48
102
{ACAD_REACTORS
330
47
102
}
330
47
100
AcDbProxyObject
 90
      499
 91
      503
 93
       41
310
903313A31580
  0
ACAD_PROXY_OBJECT
  5
49
102
{ACAD_REACTORS
330
47
102
}
330
47
100
AcDbProxyObject
 90
      499
 91
      503
 93
      105
310
903313A324000000000000004000
  0
ACAD_PROXY_OBJECT
  5
4A
102
{ACAD_REACTORS
330
47
102
}
330
47
100
AcDbProxyObject
 90
      499
 91
      503
 93
      105
310
903313A344000000000000104000
  0
ACAD_PROXY_OBJECT
  5
4B
102
{ACAD_REACTORS
330
47
102
}
330
47
100
AcDbProxyObject
 90
      499
 91
      503
 93
      105
310
903313A354000000000000144000
  0
ACAD_PROXY_OBJECT
  5
4C
102
{ACAD_REACTORS
330
47
102
}
330
47
100
AcDbProxyObject
 90
      499
 91
      503
 93
      105
310
903313A384000000000000204000
  0
ACAD_PROXY_OBJECT
  5
4D
102
{ACAD_REACTORS
330
47
102
}
330
47
100
AcDbProxyObject
 90
      499
 91
      503
 93
      113
310
904313A31304000000000000244000
  0
ACAD_PROXY_OBJECT
  5
4E
102
{ACAD_REACTORS
330
47
102
}
330
47
100
AcDbProxyObject
 90
      499
 91
      503
 93
      113
310
904313A31364000000000000304000
  0
ACAD_PROXY_OBJECT
  5
4F
102
{ACAD_REACTORS
330
47
102
}
330
47
100
AcDbProxyObject
 90
      499
 91
      503
 93
      113
310
904313A32304000000000000344000
  0
ACAD_PROXY_OBJECT
  5
50
102
{ACAD_REACTORS
330
47
102
}
330
47
100
AcDbProxyObject
 90
      499
 91
      503
 93
      113
310
904313A333040000000000003E4000
  0
ACAD_PROXY_OBJECT
  5
51
102
{ACAD_REACTORS
330
47
102
}
330
47
100
AcDbProxyObject
 90
      499
 91
      503
 93
      113
310
904313A34304000000000000444000
  0
ACAD_PROXY_OBJECT
  5
52
102
{ACAD_REACTORS
330
47
102
}
330
47
100
AcDbProxyObject
 90
      499
 91
      503
 93
      113
310
904313A35304000000000000494000
  0
ACAD_PROXY_OBJECT
  5
53
102
{ACAD_REACTORS
330
47
102
}
330
47
100
AcDbProxyObject
 90
      499
 91
      503
 93
      121
310
905313A3130304000000000000594000
  0
ACAD_PROXY_OBJECT
  5
54
102
{ACAD_REACTORS
330
47
102
}
330
47
100
AcDbProxyObject
 90
      499
 91
      503
 93
      105
310
903323A310000000000000010100
  0
ACAD_PROXY_OBJECT
  5
55
102
{ACAD_REACTORS
330
47
102
}
330
47
100
AcDbProxyObject
 90
      499
 91
      503
 93
      105
310
903343A310000000000000410100
  0
ACAD_PROXY_OBJECT
  5
56
102
{ACAD_REACTORS
330
47
102
}
330
47
100
AcDbProxyObject
 90
      499
 91
      503
 93
      105
310
903383A310000000000000810100
  0
ACAD_PROXY_OBJECT
  5
57
102
{ACAD_REACTORS
330
47
102
}
330
47
100
AcDbProxyObject
 90
      499
 91
      503
 93
      113
310
90431303A310000000000000910100
  0
ACAD_PROXY_OBJECT
  5
58
102
{ACAD_REACTORS
330
47
102
}
330
47
100
AcDbProxyObject
 90
      499
 91
      503
 93
      121
310
9053130303A310000000000001650100
  0
ACAD_PROXY_OBJECT
  5
59
102
{ACAD_REACTORS
330
47
102
}
330
47
100
AcDbProxyObject
 90
      499
 91
      503
 93
      257
310
90E312F31323822203D2031272D3022000000000000200FC000000000000284000
  0
ACAD_PROXY_OBJECT
  5
5A
102
{ACAD_REACTORS
330
47
102
}
330
47
100
AcDbProxyObject
 90
      499
 91
      503
 93
      249
310
90D312F363422203D2031272D3022000000000000240FC000000000000284000
  0
ACAD_PROXY_OBJECT
  5
5B
102
{ACAD_REACTORS
330
47
102
}
330
47
100
AcDbProxyObject
 90
      499
 91
      503
 93
      249
310
90D312F333222203D2031272D3022000000000000280FC000000000000284000
  0
ACAD_PROXY_OBJECT
  5
5C
102
{ACAD_REACTORS
330
47
102
}
330
47
100
AcDbProxyObject
 90
      499
 91
      503
 93
      249
310
90D312F313622203D2031272D30220000000000002C0FC000000000000284000
  0
ACAD_PROXY_OBJECT
  5
5D
102
{ACAD_REACTORS
330
47
102
}
330
47
100
AcDbProxyObject
 90
      499
 91
      503
 93
      249
310
90D332F333222203D2031272D30220000000000002E0FC000000000000284000
  0
ACAD_PROXY_OBJECT
  5
5E
102
{ACAD_REACTORS
330
47
102
}
330
47
100
AcDbProxyObject
 90
      499
 91
      503
 93
      241
310
90C312F3822203D2031272D3022000000000000300FC000000000000284000
  0
ACAD_PROXY_OBJECT
  5
5F
102
{ACAD_REACTORS
330
47
102
}
330
47
100
AcDbProxyObject
 90
      499
 91
      503
 93
      249
310
90D332F313622203D2031272D3022000000000000320FC000000000000284000
  0
ACAD_PROXY_OBJECT
  5
60
102
{ACAD_REACTORS
330
47
102
}
330
47
100
AcDbProxyObject
 90
      499
 91
      503
 93
      241
310
90C312F3422203D2031272D3022000000000000340FC000000000000284000
  0
ACAD_PROXY_OBJECT
  5
61
102
{ACAD_REACTORS
330
47
102
}
330
47
100
AcDbProxyObject
 90
      499
 91
      503
 93
      241
310
90C332F3822203D2031272D3022000000000000360FC000000000000284000
  0
ACAD_PROXY_OBJECT
  5
62
102
{ACAD_REACTORS
330
47
102
}
330
47
100
AcDbProxyObject
 90
      499
 91
      503
 93
      241
310
90C312F3222203D2031272D3022000000000000380FC000000000000284000
  0
ACAD_PROXY_OBJECT
  5
63
102
{ACAD_REACTORS
330
47
102
}
330
47
100
AcDbProxyObject
 90
      499
 91
      503
 93
      241
310
90C332F3422203D2031272D30220000000000003A0FC000000000000284000
  0
ACAD_PROXY_OBJECT
  5
64
102
{ACAD_REACTORS
330
47
102
}
330
47
100
AcDbProxyObject
 90
      499
 91
      503
 93
      161
310
90A3122203D2031272D30224000000000000284000
  0
ACAD_PROXY_OBJECT
  5
65
102
{ACAD_REACTORS
330
47
102
}
330
47
100
AcDbProxyObject
 90
      499
 91
      503
 93
      257
310
90E312D312F3222203D2031272D30220000000000003E0FC000000000000284000
  0
ACAD_PROXY_OBJECT
  5
66
102
{ACAD_REACTORS
330
47
102
}
330
47
100
AcDbProxyObject
 90
      499
 91
      503
 93
      225
310
90A3322203D2031272D302200000000000002100000000000000284000
  0
ACAD_PROXY_OBJECT
  5
67
102
{ACAD_REACTORS
330
47
102
}
330
47
100
AcDbProxyObject
 90
      499
 91
      503
 93
      225
310
90A3622203D2031272D302200000000000006100000000000000284000
  0
ACAD_PROXY_OBJECT
  5
68
102
{ACAD_REACTORS
330
47
102
}
330
47
100
AcDbProxyObject
 90
      499
 91
      503
 93
      249
310
90D31272D3022203D2031272D30220000000000000A100000000000000284000
  0
ACAD_PROXY_OBJECT
  5
2F
102
{ACAD_REACTORS
330
2A
102
}
330
2A
100
AcDbProxyObject
 90
      499
 91
      501
 93
      436
310
42CC9915DA5C99599C985B595049028333333333333E33F0000000000000F90107901411070040501600405405064090741402480A0340
1001
ACAD
1000
AcDbSavedByObjectVersion
1070
     0
  0
ACAD_PROXY_OBJECT
  5
32
102
{ACAD_REACTORS
330
2A
102
}
330
2A
100
AcDbProxyObject
 90
      499
 91
      501
 93
      388
310
4150985CDA58D07406404333333333333E33F0000000000000F90107A41107004050150841D405064090741402480A0350
1001
ACAD
1000
AcDbSavedByObjectVersion
1070
     0
  0
ACAD_PROXY_OBJECT
  5
36
102
{ACAD_REACTORS
330
2A
102
}
330
2A
100
AcDbProxyObject
 90
      499
 91
      501
 93
      428
310
42109C9A59DA1D195B90C409028333333333333E33F0000000000000F9010790141107004050150841D405064090741402480A029950
1001
ACAD
1000
AcDbSavedByObjectVersion
1070
     0
  0
ACAD_PROXY_OBJECT
  5
3A
102
{ACAD_REACTORS
330
2A
102
}
330
2A
100
AcDbProxyObject
 90
      499
 91
      501
 93
      452
310
42D0DBDB1BDC90DA185B99D95104090240C333333333333E33F0000000000000F90108901411070040501508421405064090741402480A0350
1001
ACAD
1000
AcDbSavedByObjectVersion
1070
     0
  0
ACAD_PROXY_OBJECT
  5
34
102
{ACAD_REACTORS
330
2A
102
}
330
2A
100
AcDbProxyObject
 90
      499
 91
      501
 93
      500
310
4290DBDB98D95C1D1D585B10940D028333333333333E33F0000000000000F90107902409070040501000000000018199010841D405064090740C02480A0340
1001
ACAD
1000
AcDbSavedByObjectVersion
1070
     0
  0
ACAD_PROXY_OBJECT
  5
35
102
{ACAD_REACTORS
330
2A
102
}
330
2A
100
AcDbProxyObject
 90
      499
 91
      501
 93
      412
310
40D11A5B50B409028333333333333E33F0000000000000F9010790141107004050150841D405064090741402480A02677FFFFFD0
1001
ACAD
1000
AcDbSavedByObjectVersion
1070
     0
  0
ACAD_PROXY_OBJECT
  5
3D
102
{ACAD_REACTORS
330
2A
102
}
330
2A
100
AcDbProxyObject
 90
      499
 91
      501
 93
      452
310
43115919D950DBDB1BDC93D999916409028333333333333E33F0000000000000F9010790141107004050150841D405064090741402480A0350
1001
ACAD
1000
AcDbSavedByObjectVersion
1070
     0
  0
ACAD_PROXY_OBJECT
  5
39
102
{ACAD_REACTORS
330
2A
102
}
330
2A
100
AcDbProxyObject
 90
      499
 91
      501
 93
      444
310
42D19858D95C185D1D195C9B90F409028333333333333E33F0000000000000F9010790141107004050150841D405064090741402480A0350
1001
ACAD
1000
AcDbSavedByObjectVersion
1070
     0
  0
ACAD_PROXY_OBJECT
  5
2B
102
{ACAD_REACTORS
330
2A
102
}
330
2A
100
AcDbProxyObject
 90
      499
 91
      501
 93
      380
310
41119B185D240901404333333333333E33F0000000000000F9010740A907004050150841D405064090741402480A1B50
1001
ACAD
1000
AcDbSavedByObjectVersion
1070
     0
  0
ACAD_PROXY_OBJECT
  5
2C
102
{ACAD_REACTORS
330
2A
102
}
330
2A
100
AcDbProxyObject
 90
      499
 91
      501
 93
      468
310
43519B185D15DA5D1A115919D95CD0140901404333333333333E33F0000000000000F90107409019070040501600405405064090741402480A1B50
1001
ACAD
1000
AcDbSavedByObjectVersion
1070
     0
  0
ACAD_PROXY_OBJECT
  5
2D
102
{ACAD_REACTORS
330
2A
102
}
330
2A
100
AcDbProxyObject
 90
      499
 91
      501
 93
      404
310
41D1DBDD5C985D5910240902404333333333333E33F0000000000000F9010740A9070040501641D405064090741402480A1B50
1001
ACAD
1000
AcDbSavedByObjectVersion
1070
     0
  0
ACAD_PROXY_OBJECT
  5
2E
102
{ACAD_REACTORS
330
2A
102
}
330
2A
100
AcDbProxyObject
 90
      499
 91
      501
 93
      492
310
4411DBDD5C985D5915DA5D1A115919D95CD0340902404333333333333E33F0000000000000F90107409019070040501600405405064090741402480A1B50
1001
ACAD
1000
AcDbSavedByObjectVersion
1070
     0
  0
ACAD_PROXY_OBJECT
  5
31
102
{ACAD_REACTORS
330
2A
102
}
330
2A
100
AcDbProxyObject
 90
      499
 91
      501
 93
      476
310
41921A5919195B90640502408333333333333E33F0000000000000F901079024090700405020000000000001110200405405064090740C02480A0340
1001
ACAD
1000
AcDbSavedByObjectVersion
1070
     0
  0
ACAD_PROXY_OBJECT
  5
3B
102
{ACAD_REACTORS
330
2A
102
}
330
2A
100
AcDbProxyObject
 90
      499
 91
      501
 93
      428
310
42529A5D1D195C93D999914409028333333333333E33F0000000000000F9010790141107004050150A41D405064090741402480A0350
1001
ACAD
1000
AcDbSavedByObjectVersion
1070
     0
  0
ACAD_PROXY_OBJECT
  5
38
102
{ACAD_REACTORS
330
2A
102
}
330
2A
100
AcDbProxyObject
 90
      499
 91
      501
 93
      444
310
42D31A5B995C185D1D195C9B90E409028333333333333E33F0000000000000F9010790141107004050750841D405064090741402483A0350
1001
ACAD
1000
AcDbSavedByObjectVersion
1070
     0
  0
ACAD_PROXY_OBJECT
  5
3C
102
{ACAD_REACTORS
330
2A
102
}
330
2A
100
AcDbProxyObject
 90
      499
 91
      501
 93
      444
310
42D3DD995C9A185B99D3D999915409028333333333333E33F0000000000000F9010790141107004050150941D405064090741402480A0350
1001
ACAD
1000
AcDbSavedByObjectVersion
1070
     0
  0
ACAD_PROXY_OBJECT
  5
33
102
{ACAD_REACTORS
330
2A
102
}
330
2A
100
AcDbProxyObject
 90
      499
 91
      501
 93
      428
310
425499585B1A5CDD1A58D08409038333333333333E33F0000000000000F9010740A907004050150800405405064090740C02480A1B40
1001
ACAD
1000
AcDbSavedByObjectVersion
1070
     0
  0
ACAD_PROXY_OBJECT
  5
42
102
{ACAD_REACTORS
330
2A
102
}
330
2A
100
AcDbProxyObject
 90
      499
 91
      501
 93
      420
310
4194DA1859195911B40902404333333333333E33F0000000000000F9010740A41107004050150800405405064090840C02480A0B40
1001
ACAD
1000
AcDbSavedByObjectVersion
1070
     0
  0
ACAD_PROXY_OBJECT
  5
41
102
{ACAD_REACTORS
330
2A
102
}
330
2A
100
AcDbProxyObject
 90
      499
 91
      501
 93
      516
310
4454DA18591959081DDA5D1A08195919D95CD1A40902404333333333333E33F0000000000000F901074090142907004050250800405405064090740C02480A0B40
1001
ACAD
1000
AcDbSavedByObjectVersion
1070
     0
  0
ACAD_PROXY_OBJECT
  5
3E
102
{ACAD_REACTORS
330
2A
102
}
330
2A
100
AcDbProxyObject
 90
      499
 91
      501
 93
      532
310
4394DA1859195CC81BD98811DC985E5174090240C333333333333E33F0000000000000F901079024090741D01000000000000111010841D405064090740C02480A0340
1001
ACAD
1000
AcDbSavedByObjectVersion
1070
     0
  0
ACAD_PROXY_OBJECT
  5
3F
102
{ACAD_REACTORS
330
2A
102
}
330
2A
100
AcDbProxyObject
 90
      499
 91
      501
 93
      476
310
41D4DAD95D18DA1E51840502408333333333333E33F0000000000000F901079024090741D01000000000000111010B41D405064090741802480A0340
1001
ACAD
1000
AcDbSavedByObjectVersion
1070
     0
  0
ACAD_PROXY_OBJECT
  5
37
102
{ACAD_REACTORS
330
2A
102
}
330
2A
100
AcDbProxyObject
 90
      499
 91
      501
 93
      412
310
41D51A1A58DAD95B90D409028333333333333E33F0000000000000F9010790141107004050150C41D405064090741402480A0350
1001
ACAD
1000
AcDbSavedByObjectVersion
1070
     0
  0
ACAD_PROXY_OBJECT
  5
30
102
{ACAD_REACTORS
330
2A
102
}
330
2A
100
AcDbProxyObject
 90
      499
 91
      501
 93
      420
310
4255DA5C99599C985B595059028333333333333E33F0000000000000F90107901411070040501600405405064090740C02480A0340
1001
ACAD
1000
AcDbSavedByObjectVersion
1070
     0
  0
ACAD_PROXY_OBJECT
  5
40
102
{ACAD_REACTORS
330
2A
102
}
330
2A
100
AcDbProxyObject
 90
      499
 91
      501
 93
      404
310
41560B54985E51940902404000000000000E03F0000000000000F9010740501907004050150841D405064090740C02480A1B40
1001
ACAD
1000
AcDbSavedByObjectVersion
1070
     0
  0
XRECORD
  5
3DD
102
{ACAD_REACTORS
330
3D3
102
}
330
3D3
100
AcDbXrecord
340
0
  0
XRECORD
  5
3DC
102
{ACAD_REACTORS
330
3D3
102
}
330
3D3
100
AcDbXrecord
 90
        0
  0
XRECORD
  5
3F3
102
{ACAD_REACTORS
330
3D3
102
}
330
3D3
100
AcDbXrecord
1000
DSTYLE
1002
{
1070
   340
340
11
1002
}
  0
XRECORD
  5
3DE
102
{ACAD_REACTORS
330
3D3
102
}
330
3D3
100
AcDbXrecord
  1
{6ab38d47-5ba0-4c3e-9f02-f3dcfda88393}
  0
XRECORD
  5
3D6
102
{ACAD_REACTORS
330
3D3
102
}
330
3D3
100
AcDbXrecord
  1

  0
XRECORD
  5
3DB
102
{ACAD_REACTORS
330
3D3
102
}
330
3D3
100
AcDbXrecord
 90
        4
  0
XRECORD
  5
3D8
102
{ACAD_REACTORS
330
3D3
102
}
330
3D3
100
AcDbXrecord
340
1A
  0
XRECORD
  5
3DA
102
{ACAD_REACTORS
330
3D3
102
}
330
3D3
100
AcDbXrecord
 90
    10781
  0
XRECORD
  5
3D9
102
{ACAD_REACTORS
330
3D3
102
}
330
3D3
100
AcDbXrecord
340
19
  0
XRECORD
  5
3E0
102
{ACAD_REACTORS
330
3D3
102
}
330
3D3
100
AcDbXrecord
 40
0.0
  0
XRECORD
  5
3E3
102
{ACAD_REACTORS
330
3D3
102
}
330
3D3
100
AcDbXrecord
340
0
  0
XRECORD
  5
3E9
102
{ACAD_REACTORS
330
3D3
102
}
330
3D3
100
AcDbXrecord
 10
0.0
 20
0.0
 30
0.0
  0
XRECORD
  5
3E5
102
{ACAD_REACTORS
330
3D3
102
}
330
3D3
100
AcDbXrecord
 10
0.0
 20
0.0
 30
0.0
  0
XRECORD
  5
3E8
102
{ACAD_REACTORS
330
3D3
102
}
330
3D3
100
AcDbXrecord
 10
0.0
 20
0.0
 30
0.0
  0
XRECORD
  5
3E6
102
{ACAD_REACTORS
330
3D3
102
}
330
3D3
100
AcDbXrecord
 10
0.0
 20
0.0
 30
0.0
  0
XRECORD
  5
3E7
102
{ACAD_REACTORS
330
3D3
102
}
330
3D3
100
AcDbXrecord
 10
0.0
 20
0.0
 30
0.0
  0
XRECORD
  5
3E4
102
{ACAD_REACTORS
330
3D3
102
}
330
3D3
100
AcDbXrecord
 10
0.0
 20
0.0
 30
0.0
  0
XRECORD
  5
3E1
102
{ACAD_REACTORS
330
3D3
102
}
330
3D3
100
AcDbXrecord
340
0
  0
XRECORD
  5
3E2
102
{ACAD_REACTORS
330
3D3
102
}
330
3D3
100
AcDbXrecord
 70
     0
  0
XRECORD
  5
3D7
102
{ACAD_REACTORS
330
3D3
102
}
330
3D3
100
AcDbXrecord
  1

  0
XRECORD
  5
3D4
102
{ACAD_REACTORS
330
3D3
102
}
330
3D3
100
AcDbXrecord
 90
        1
  0
XRECORD
  5
3D5
102
{ACAD_REACTORS
330
3D3
102
}
330
3D3
100
AcDbXrecord
 90
       70
  0
XRECORD
  5
3EC
102
{ACAD_REACTORS
330
3D3
102
}
330
3D3
100
AcDbXrecord
340
0
  0
XRECORD
  5
3F2
102
{ACAD_REACTORS
330
3D3
102
}
330
3D3
100
AcDbXrecord
 10
0.0
 20
0.0
 30
0.0
  0
XRECORD
  5
3EE
102
{ACAD_REACTORS
330
3D3
102
}
330
3D3
100
AcDbXrecord
 10
0.0
 20
0.0
 30
0.0
  0
XRECORD
  5
3F1
102
{ACAD_REACTORS
330
3D3
102
}
330
3D3
100
AcDbXrecord
 10
0.0
 20
0.0
 30
0.0
  0
XRECORD
  5
3EF
102
{ACAD_REACTORS
330
3D3
102
}
330
3D3
100
AcDbXrecord
 10
0.0
 20
0.0
 30
0.0
  0
XRECORD
  5
3F0
102
{ACAD_REACTORS
330
3D3
102
}
330
3D3
100
AcDbXrecord
 10
0.0
 20
0.0
 30
0.0
  0
XRECORD
  5
3ED
102
{ACAD_REACTORS
330
3D3
102
}
330
3D3
100
AcDbXrecord
 10
0.0
 20
0.0
 30
0.0
  0
XRECORD
  5
3EA
102
{ACAD_REACTORS
330
3D3
102
}
330
3D3
100
AcDbXrecord
340
0
  0
XRECORD
  5
3EB
102
{ACAD_REACTORS
330
3D3
102
}
330
3D3
100
AcDbXrecord
 70
     0
  0
XRECORD
  5
3DF
102
{ACAD_REACTORS
330
3D3
102
}
330
3D3
100
AcDbXrecord
  1
{FAEB1C32-E019-11D5-929B-00C0DF256EC4}
  0
DICTIONARYVAR
  5
401
102
{ACAD_REACTORS
330
3F4
102
}
330
3F4
100
DictionaryVariables
280
     0
  1
1:1
  0
DICTIONARYVAR
  5
3FB
102
{ACAD_REACTORS
330
3F4
102
}
330
3F4
100
DictionaryVariables
280
     0
  1
3.500000
  0
DICTIONARYVAR
  5
3FC
102
{ACAD_REACTORS
330
3F4
102
}
330
3F4
100
DictionaryVariables
280
     0
  1
acadiso.lin
  0
DICTIONARYVAR
  5
3F6
102
{ACAD_REACTORS
330
3F4
102
}
330
3F4
100
DictionaryVariables
280
     0
  1
Standard
  0
DICTIONARYVAR
  5
3F5
102
{ACAD_REACTORS
330
3F4
102
}
330
3F4
100
DictionaryVariables
280
     0
  1
Standard
  0
DICTIONARYVAR
  5
3FD
102
{ACAD_REACTORS
330
3F4
102
}
330
3F4
100
DictionaryVariables
280
     0
  1
2
  0
DICTIONARYVAR
  5
3FE
102
{ACAD_REACTORS
330
3F4
102
}
330
3F4
100
DictionaryVariables
280
     0
  1
1
  0
DICTIONARYVAR
  5
402
102
{ACAD_REACTORS
330
3F4
102
}
330
3F4
100
DictionaryVariables
280
     0
  1
1
  0
DICTIONARYVAR
  5
3F8
102
{ACAD_REACTORS
330
3F4
102
}
330
3F4
100
DictionaryVariables
280
     0
  1
80.000000
  0
DICTIONARYVAR
  5
3F7
102
{ACAD_REACTORS
330
3F4
102
}
330
3F4
100
DictionaryVariables
280
     0
  1
5.000000
  0
DICTIONARY
  5
405
330
45
100
AcDbDictionary
280
     1
  3
ACAD_XREC_ROUNDTRIP
360
406
  0
DICTIONARY
  5
403
330
44
100
AcDbDictionary
280
     1
  3
ACAD_XREC_ROUNDTRIP
360
404
  0
DICTIONARY
  5
407
330
46
100
AcDbDictionary
280
     1
  3
ACAD_XREC_ROUNDTRIP
360
408
  0
XRECORD
  5
406
102
{ACAD_REACTORS
330
405
102
}
330
405
100
AcDbXrecord
102
MATERIAL
148
0.0
149
0.0
149
0.0
 93
        0
 94
      127
282
     0
 72
     1
 77
     1
171
     1
175
     1
179
     1
273
     0
  0
XRECORD
  5
404
102
{ACAD_REACTORS
330
403
102
}
330
403
100
AcDbXrecord
102
MATERIAL
148
0.0
149
0.0
149
0.0
 93
        0
 94
      127
282
     0
 72
     1
 77
     1
171
     1
175
     1
179
     1
273
     0
  0
XRECORD
  5
408
102
{ACAD_REACTORS
330
407
102
}
330
407
100
AcDbXrecord
102
MATERIAL
148
0.0
149
0.0
149
0.0
 93
        0
 94
      127
282
     0
 72
     1
 77
     1
171
     1
175
     1
179
     1
273
     0
  0
ENDSEC
  0
EOF
