  0
SECTION
  2
HEADER
  9
$ACADVER
  1
AC1014
  9
$ACADMAINTVER
 70
     9
  9
$DWGCODEPAGE
  3
ANSI_932
  9
$INSBASE
 10
0.0
 20
0.0
 30
0.0
  9
$EXTMIN
 10
10.0
 20
20.0
 30
0.0
  9
$EXTMAX
 10
770.0000000000001
 20
560.0
 30
0.0
  9
$LIMMIN
 10
0.0
 20
0.0
  9
$LIMMAX
 10
420.0
 20
297.0
  9
$ORTHOMODE
 70
     0
  9
$REGENMODE
 70
     1
  9
$FILLMODE
 70
     1
  9
$QTEXTMODE
 70
     0
  9
$MIRRTEXT
 70
     1
  9
$DRAGMODE
 70
     2
  9
$LTSCALE
 40
0.2
  9
$OSMODE
 70
    37
  9
$ATTMODE
 70
     1
  9
$TEXTSIZE
 40
2.5
  9
$TRACEWID
 40
1.0
  9
$TEXTSTYLE
  7
STANDARD
  9
$CLAYER
  8
LAY-10
  9
$CELTYPE
  6
BYLAYER
  9
$CECOLOR
 62
   256
  9
$CELTSCALE
 40
1.0
  9
$DELOBJ
 70
     1
  9
$DISPSILH
 70
     0
  9
$DIMSCALE
 40
1.0
  9
$DIMASZ
 40
2.5
  9
$DIMEXO
 40
0.625
  9
$DIMDLI
 40
3.75
  9
$DIMRND
 40
0.0
  9
$DIMDLE
 40
0.0
  9
$DIMEXE
 40
1.25
  9
$DIMTP
 40
0.0
  9
$DIMTM
 40
0.0
  9
$DIMTXT
 40
2.5
  9
$DIMCEN
 40
2.5
  9
$DIMTSZ
 40
0.0
  9
$DIMTOL
 70
     0
  9
$DIMLIM
 70
     0
  9
$DIMTIH
 70
     0
  9
$DIMTOH
 70
     0
  9
$DIMSE1
 70
     0
  9
$DIMSE2
 70
     0
  9
$DIMTAD
 70
     1
  9
$DIMZIN
 70
     8
  9
$DIMBLK
  1

  9
$DIMASO
 70
     1
  9
$DIMSHO
 70
     1
  9
$DIMPOST
  1

  9
$DIMAPOST
  1

  9
$DIMALT
 70
     0
  9
$DIMALTD
 70
     3
  9
$DIMALTF
 40
0.03937007874016
  9
$DIMLFAC
 40
1.0
  9
$DIMTOFL
 70
     1
  9
$DIMTVP
 40
0.0
  9
$DIMTIX
 70
     0
  9
$DIMSOXD
 70
     0
  9
$DIMSAH
 70
     0
  9
$DIMBLK1
  1

  9
$DIMBLK2
  1

  9
$DIMSTYLE
  2
ISO-25
  9
$DIMCLRD
 70
     0
  9
$DIMCLRE
 70
     0
  9
$DIMCLRT
 70
     0
  9
$DIMTFAC
 40
1.0
  9
$DIMGAP
 40
0.625
  9
$DIMJUST
 70
     0
  9
$DIMSD1
 70
     0
  9
$DIMSD2
 70
     0
  9
$DIMTOLJ
 70
     0
  9
$DIMTZIN
 70
     8
  9
$DIMALTZ
 70
     0
  9
$DIMALTTZ
 70
     0
  9
$DIMFIT
 70
     3
  9
$DIMUPT
 70
     0
  9
$DIMUNIT
 70
     2
  9
$DIMDEC
 70
     2
  9
$DIMTDEC
 70
     2
  9
$DIMALTU
 70
     2
  9
$DIMALTTD
 70
     3
  9
$DIMTXSTY
  7
STANDARD
  9
$DIMAUNIT
 70
     0
  9
$LUNITS
 70
     2
  9
$LUPREC
 70
     4
  9
$SKETCHINC
 40
1.0
  9
$FILLETRAD
 40
10.0
  9
$AUNITS
 70
     0
  9
$AUPREC
 70
     0
  9
$MENU
  1
.
  9
$ELEVATION
 40
0.0
  9
$PELEVATION
 40
0.0
  9
$THICKNESS
 40
0.0
  9
$LIMCHECK
 70
     0
  9
$CHAMFERA
 40
0.0
  9
$CHAMFERB
 40
0.0
  9
$CHAMFERC
 40
0.0
  9
$CHAMFERD
 40
0.0
  9
$SKPOLY
 70
     0
  9
$TDCREATE
 40
2459229.338079167
  9
$TDUPDATE
 40
2459229.338079607
  9
$TDINDWG
 40
0.0000000116
  9
$TDUSRTIMER
 40
0.0000000116
  9
$USRTIMER
 70
     1
  9
$ANGBASE
 50
0.0
  9
$ANGDIR
 70
     0
  9
$PDMODE
 70
     0
  9
$PDSIZE
 40
0.0
  9
$PLINEWID
 40
0.0
  9
$COORDS
 70
     1
  9
$SPLFRAME
 70
     0
  9
$SPLINETYPE
 70
     6
  9
$SPLINESEGS
 70
     8
  9
$ATTDIA
 70
     0
  9
$ATTREQ
 70
     1
  9
$HANDLING
 70
     1
  9
$HANDSEED
  5
42A
  9
$SURFTAB1
 70
     6
  9
$SURFTAB2
 70
     6
  9
$SURFTYPE
 70
     6
  9
$SURFU
 70
     6
  9
$SURFV
 70
     6
  9
$UCSNAME
  2

  9
$UCSORG
 10
0.0
 20
0.0
 30
0.0
  9
$UCSXDIR
 10
1.0
 20
0.0
 30
0.0
  9
$UCSYDIR
 10
0.0
 20
1.0
 30
0.0
  9
$PUCSNAME
  2

  9
$PUCSORG
 10
0.0
 20
0.0
 30
0.0
  9
$PUCSXDIR
 10
1.0
 20
0.0
 30
0.0
  9
$PUCSYDIR
 10
0.0
 20
1.0
 30
0.0
  9
$USERI1
 70
     0
  9
$USERI2
 70
     0
  9
$USERI3
 70
     0
  9
$USERI4
 70
     0
  9
$USERI5
 70
     0
  9
$USERR1
 40
0.0
  9
$USERR2
 40
0.0
  9
$USERR3
 40
0.0
  9
$USERR4
 40
0.0
  9
$USERR5
 40
0.0
  9
$WORLDVIEW
 70
     1
  9
$SHADEDGE
 70
     3
  9
$SHADEDIF
 70
    70
  9
$TILEMODE
 70
     1
  9
$MAXACTVP
 70
    64
  9
$PINSBASE
 10
0.0
 20
0.0
 30
0.0
  9
$PLIMCHECK
 70
     0
  9
$PEXTMIN
 10
1.000000000000000E+20
 20
1.000000000000000E+20
 30
1.000000000000000E+20
  9
$PEXTMAX
 10
-1.000000000000000E+20
 20
-1.000000000000000E+20
 30
-1.000000000000000E+20
  9
$PLIMMIN
 10
0.0
 20
0.0
  9
$PLIMMAX
 10
420.0
 20
297.0
  9
$UNITMODE
 70
     0
  9
$VISRETAIN
 70
     1
  9
$PLINEGEN
 70
     0
  9
$PSLTSCALE
 70
     1
  9
$TREEDEPTH
 70
  3020
  9
$PICKSTYLE
 70
     1
  9
$CMLSTYLE
  2
STANDARD
  9
$CMLJUST
 70
     0
  9
$CMLSCALE
 40
20.0
  9
$PROXYGRAPHICS
 70
     1
  9
$MEASUREMENT
 70
     1
  0
ENDSEC
  0
SECTION
  2
CLASSES
  0
CLASS
  1
ACDBDICTIONARYWDFLT
  2
AcDbDictionaryWithDefault
  3
ObjectDBX Classes
 90
        0
280
     0
281
     0
  0
CLASS
  1
VISUALSTYLE
  2
AcDbVisualStyle
  3
ObjectDBX Classes
 90
     4095
280
     0
281
     0
  0
CLASS
  1
MATERIAL
  2
AcDbMaterial
  3
ObjectDBX Classes
 90
     1153
280
     0
281
     0
  0
CLASS
  1
SCALE
  2
AcDbScale
  3
ObjectDBX Classes
 90
     1153
280
     0
281
     0
  0
CLASS
  1
TABLESTYLE
  2
AcDbTableStyle
  3
ObjectDBX Classes
 90
     4095
280
     0
281
     0
  0
CLASS
  1
MLEADERSTYLE
  2
AcDbMLeaderStyle
  3
ACDB_MLEADERSTYLE_CLASS
 90
     4095
280
     0
281
     0
  0
CLASS
  1
SUN
  2
AcDbSun
  3
SCENEOE
 90
     1153
280
     0
281
     0
  0
CLASS
  1
DICTIONARYVAR
  2
AcDbDictionaryVar
  3
ObjectDBX Classes
 90
        0
280
     0
281
     0
  0
CLASS
  1
XRECORD
  2
AcDbXrecord
  3
ObjectDBX Classes
 90
        0
280
     0
281
     0
  0
CLASS
  1
LWPOLYLINE
  2
AcDbPolyline
  3
ObjectDBX Classes
 90
        0
280
     0
281
     1
  0
CLASS
  1
HATCH
  2
AcDbHatch
  3
ObjectDBX Classes
 90
        0
280
     0
281
     1
  0
CLASS
  1
ACDBPLACEHOLDER
  2
AcDbPlaceHolder
  3
ObjectDBX Classes
 90
        0
280
     0
281
     0
  0
CLASS
  1
LAYOUT
  2
AcDbLayout
  3
ObjectDBX Classes
 90
        0
280
     0
281
     0
  0
ENDSEC
  0
SECTION
  2
TABLES
  0
TABLE
  2
VPORT
  5
8
102
{ACAD_XDICTIONARY
360
41F
102
}
330
0
100
AcDbSymbolTable
 70
     1
  0
VPORT
  5
29
330
8
100
AcDbSymbolTableRecord
100
AcDbViewportTableRecord
  2
*ACTIVE
 70
     0
 10
0.0
 20
0.0
 11
1.0
 21
1.0
 12
390.0000000000001
 22
290.0
 13
0.0
 23
0.0
 14
10.0
 24
10.0
 15
10.0
 25
10.0
 16
0.0
 26
0.0
 36
1.0
 17
0.0
 27
0.0
 37
0.0
 40
540.0
 41
1.407407407407408
 42
50.0
 43
0.0
 44
0.0
 50
0.0
 51
0.0
 71
     0
 72
  1000
 73
     1
 74
     3
 75
     0
 76
     0
 77
     0
 78
     0
  0
ENDTAB
  0
TABLE
  2
LTYPE
  5
5
330
0
100
AcDbSymbolTable
 70
     6
  0
LTYPE
  5
14
330
5
100
AcDbSymbolTableRecord
100
AcDbLinetypeTableRecord
  2
BYBLOCK
 70
     0
  3

 72
    65
 73
     0
 40
0.0
  0
LTYPE
  5
15
330
5
100
AcDbSymbolTableRecord
100
AcDbLinetypeTableRecord
  2
BYLAYER
 70
     0
  3

 72
    65
 73
     0
 40
0.0
  0
LTYPE
  5
16
330
5
100
AcDbSymbolTableRecord
100
AcDbLinetypeTableRecord
  2
CONTINUOUS
 70
     0
  3
Solid line
 72
    65
 73
     0
 40
0.0
  0
LTYPE
  5
6E
330
5
100
AcDbSymbolTableRecord
100
AcDbLinetypeTableRecord
  2
HIDDEN
 70
     0
  3
Hidden __ __ __ __ __ __ __ __ __ __ __ __ __ __
 72
    65
 73
     2
 40
9.524999999999999
 49
6.35
 74
     0
 49
-3.175
 74
     0
  0
LTYPE
  5
6F
330
5
100
AcDbSymbolTableRecord
100
AcDbLinetypeTableRecord
  2
CENTER
 70
     0
  3
Center ____ _ ____ _ ____ _ ____ _ ____ _ ____
 72
    65
 73
     4
 40
50.8
 49
31.75
 74
     0
 49
-6.35
 74
     0
 49
6.35
 74
     0
 49
-6.35
 74
     0
  0
LTYPE
  5
70
330
5
100
AcDbSymbolTableRecord
100
AcDbLinetypeTableRecord
  2
PHANTOM
 70
     0
  3
Phantom ______  __  __  ______  __  __  ______ 
 72
    65
 73
     6
 40
63.50000000000001
 49
31.75
 74
     0
 49
-6.35
 74
     0
 49
6.35
 74
     0
 49
-6.35
 74
     0
 49
6.35
 74
     0
 49
-6.35
 74
     0
  0
LTYPE
  5
71
330
5
100
AcDbSymbolTableRecord
100
AcDbLinetypeTableRecord
  2
ACAD_ISO06W100
 70
     0
  3
ISO long-dash triple-dot ____ ... ____ ... ____
 72
    65
 73
     8
 40
36.0
 49
24.0
 74
     0
 49
-3.0
 74
     0
 49
0.0
 74
     0
 49
-3.0
 74
     0
 49
0.0
 74
     0
 49
-3.0
 74
     0
 49
0.0
 74
     0
 49
-3.0
 74
     0
  0
LTYPE
  5
72
330
5
100
AcDbSymbolTableRecord
100
AcDbLinetypeTableRecord
  2
ACAD_ISO15W100
 70
     0
  3
ISO double-dash triple-dot __ __ . . . __ __ . .
 72
    65
 73
    10
 40
39.0
 49
12.0
 74
     0
 49
-3.0
 74
     0
 49
12.0
 74
     0
 49
-3.0
 74
     0
 49
0.0
 74
     0
 49
-3.0
 74
     0
 49
0.0
 74
     0
 49
-3.0
 74
     0
 49
0.0
 74
     0
 49
-3.0
 74
     0
  0
ENDTAB
  0
TABLE
  2
LAYER
  5
2
330
0
100
AcDbSymbolTable
 70
     5
  0
LAYER
  5
10
330
2
100
AcDbSymbolTableRecord
100
AcDbLayerTableRecord
  2
0
 70
     0
 62
     7
  6
CONTINUOUS
  0
LAYER
  5
75
330
2
100
AcDbSymbolTableRecord
100
AcDbLayerTableRecord
  2
LAY-10
 70
     0
 62
     7
  6
CONTINUOUS
  0
LAYER
  5
76
330
2
100
AcDbSymbolTableRecord
100
AcDbLayerTableRecord
  2
LAY-20
 70
     0
 62
     7
  6
CONTINUOUS
  0
LAYER
  5
77
330
2
100
AcDbSymbolTableRecord
100
AcDbLayerTableRecord
  2
LAY-255
 70
     0
 62
     7
  6
CONTINUOUS
  0
LAYER
  5
367
330
2
100
AcDbSymbolTableRecord
100
AcDbLayerTableRecord
  2
DEFPOINTS
 70
     0
 62
     7
  6
CONTINUOUS
  0
ENDTAB
  0
TABLE
  2
STYLE
  5
3
330
0
100
AcDbSymbolTable
 70
     4
  0
STYLE
  5
11
330
3
100
AcDbSymbolTableRecord
100
AcDbTextStyleTableRecord
  2
STANDARD
 70
     0
 40
0.0
 41
1.0
 50
0.0
 71
     0
 42
2.5
  3
simplex
  4
bigfont
  0
STYLE
  5
73
330
3
100
AcDbSymbolTableRecord
100
AcDbTextStyleTableRecord
  2
EXCADSTD
 70
     0
 40
0.0
 41
1.0
 50
0.0
 71
     0
 42
2.5
  3
simplex
  4
bigfont
  0
STYLE
  5
74
330
3
100
AcDbSymbolTableRecord
100
AcDbTextStyleTableRecord
  2
EXCADVERT
 70
     4
 40
0.0
 41
1.0
 50
0.0
 71
     0
 42
2.5
  3
simplex
  4
bigfont
  0
STYLE
  5
365
330
3
100
AcDbSymbolTableRecord
100
AcDbTextStyleTableRecord
  2
EXCADDIM1
 70
     0
 40
0.0
 41
0.84
 50
0.0
 71
     0
 42
2.5
  3
simplex
  4
bigfont
  0
ENDTAB
  0
TABLE
  2
VIEW
  5
6
330
0
100
AcDbSymbolTable
 70
     0
  0
ENDTAB
  0
TABLE
  2
UCS
  5
7
330
0
100
AcDbSymbolTable
 70
     0
  0
ENDTAB
  0
TABLE
  2
APPID
  5
9
330
0
100
AcDbSymbolTable
 70
     2
  0
APPID
  5
12
330
9
100
AcDbSymbolTableRecord
100
AcDbRegAppTableRecord
  2
ACAD
 70
     0
  0
APPID
  5
429
330
9
100
AcDbSymbolTableRecord
100
AcDbRegAppTableRecord
  2
ACAD_MLEADERVER
 70
     0
  0
ENDTAB
  0
TABLE
  2
DIMSTYLE
  5
A
330
0
100
AcDbSymbolTable
 70
     1
  0
DIMSTYLE
105
27
102
{ACAD_REACTORS
330
366
330
374
330
381
330
38D
330
39A
330
3A7
330
3B4
330
3C1
102
}
330
A
100
AcDbSymbolTableRecord
100
AcDbDimStyleTableRecord
  2
ISO-25
 70
     0
  3

  4

  5

  6

  7

 40
1.0
 41
2.5
 42
0.625
 43
3.75
 44
1.25
 45
0.0
 46
0.0
 47
0.0
 48
0.0
140
2.5
141
2.5
142
0.0
143
0.03937007874016
144
1.0
145
0.0
146
1.0
147
0.625
 71
     0
 72
     0
 73
     0
 74
     0
 75
     0
 76
     0
 77
     1
 78
     8
170
     0
171
     3
172
     1
173
     0
174
     0
175
     0
176
     0
177
     0
178
     0
270
     2
271
     2
272
     2
273
     2
274
     3
340
11
275
     0
280
     0
281
     0
282
     0
283
     0
284
     8
285
     0
286
     0
287
     5
288
     0
  0
ENDTAB
  0
TABLE
  2
BLOCK_RECORD
  5
1
330
0
100
AcDbSymbolTable
 70
    22
  0
BLOCK_RECORD
  5
1F
330
1
100
AcDbSymbolTableRecord
100
AcDbBlockTableRecord
  2
*MODEL_SPACE
  0
BLOCK_RECORD
  5
1B
330
1
100
AcDbSymbolTableRecord
100
AcDbBlockTableRecord
  2
*PAPER_SPACE
  0
BLOCK_RECORD
  5
78
330
1
100
AcDbSymbolTableRecord
100
AcDbBlockTableRecord
  2
EX_NORM
  0
BLOCK_RECORD
  5
7B
330
1
100
AcDbSymbolTableRecord
100
AcDbBlockTableRecord
  2
EX_BNORM
  0
BLOCK_RECORD
  5
7E
330
1
100
AcDbSymbolTableRecord
100
AcDbBlockTableRecord
  2
EX_BCIR
  0
BLOCK_RECORD
  5
81
330
1
100
AcDbSymbolTableRecord
100
AcDbBlockTableRecord
  2
EX_RCIVIL
  0
BLOCK_RECORD
  5
84
330
1
100
AcDbSymbolTableRecord
100
AcDbBlockTableRecord
  2
EX_SLANT
  0
BLOCK_RECORD
  5
87
330
1
100
AcDbSymbolTableRecord
100
AcDbBlockTableRecord
  2
EX_NONE
  0
BLOCK_RECORD
  5
8A
330
1
100
AcDbSymbolTableRecord
100
AcDbBlockTableRecord
  2
EX_CIVIL
  0
BLOCK_RECORD
  5
8D
330
1
100
AcDbSymbolTableRecord
100
AcDbBlockTableRecord
  2
EX_WCIR
  0
BLOCK_RECORD
  5
90
330
1
100
AcDbSymbolTableRecord
100
AcDbBlockTableRecord
  2
EX_WCIR2
  0
BLOCK_RECORD
  5
93
330
1
100
AcDbSymbolTableRecord
100
AcDbBlockTableRecord
  2
EX_WNORM
  0
BLOCK_RECORD
  5
96
330
1
100
AcDbSymbolTableRecord
100
AcDbBlockTableRecord
  2
EX_NNORM
  0
BLOCK_RECORD
  5
99
330
1
100
AcDbSymbolTableRecord
100
AcDbBlockTableRecord
  2
EX_BBOX
  0
BLOCK_RECORD
  5
9C
330
1
100
AcDbSymbolTableRecord
100
AcDbBlockTableRecord
  2
EX_WBOX
  0
BLOCK_RECORD
  5
9F
330
1
100
AcDbSymbolTableRecord
100
AcDbBlockTableRecord
  2
EX_INTEGRAL
  0
BLOCK_RECORD
  5
368
330
1
100
AcDbSymbolTableRecord
100
AcDbBlockTableRecord
  2
*D15
  0
BLOCK_RECORD
  5
375
330
1
100
AcDbSymbolTableRecord
100
AcDbBlockTableRecord
  2
*D16
  0
BLOCK_RECORD
  5
382
330
1
100
AcDbSymbolTableRecord
100
AcDbBlockTableRecord
  2
*D17
  0
BLOCK_RECORD
  5
38E
330
1
100
AcDbSymbolTableRecord
100
AcDbBlockTableRecord
  2
*D18
  0
BLOCK_RECORD
  5
39B
330
1
100
AcDbSymbolTableRecord
100
AcDbBlockTableRecord
  2
*D19
  0
BLOCK_RECORD
  5
3A8
330
1
100
AcDbSymbolTableRecord
100
AcDbBlockTableRecord
  2
*D20
  0
BLOCK_RECORD
  5
3B5
330
1
100
AcDbSymbolTableRecord
100
AcDbBlockTableRecord
  2
*D21
  0
BLOCK_RECORD
  5
3C2
330
1
100
AcDbSymbolTableRecord
100
AcDbBlockTableRecord
  2
*D22
  0
ENDTAB
  0
ENDSEC
  0
SECTION
  2
BLOCKS
  0
BLOCK
  5
20
330
1F
100
AcDbEntity
  8
0
100
AcDbBlockBegin
  2
*MODEL_SPACE
 70
     0
 10
0.0
 20
0.0
 30
0.0
  3
*MODEL_SPACE
  1

  0
ENDBLK
  5
21
330
1F
100
AcDbEntity
  8
0
100
AcDbBlockEnd
  0
BLOCK
  5
1C
330
1B
100
AcDbEntity
 67
     1
  8
0
100
AcDbBlockBegin
  2
*PAPER_SPACE
 70
     0
 10
0.0
 20
0.0
 30
0.0
  3
*PAPER_SPACE
  1

  0
ENDBLK
  5
1D
330
1B
100
AcDbEntity
 67
     1
  8
0
100
AcDbBlockEnd
  0
BLOCK
  5
79
330
78
100
AcDbEntity
  8
0
100
AcDbBlockBegin
  2
EX_NORM
 70
     0
 10
0.0
 20
0.0
 30
0.0
  3
EX_NORM
  1

  0
LINE
  5
A2
330
78
100
AcDbEntity
  8
0
  6
CONTINUOUS
 62
     0
100
AcDbLine
 10
0.0
 20
0.0
 30
0.0
 11
-1.0
 21
0.0
 31
0.0
  0
LINE
  5
A3
330
78
100
AcDbEntity
  8
0
  6
CONTINUOUS
 62
     0
100
AcDbLine
 10
0.0
 20
0.0
 30
0.0
 11
-1.0
 21
0.166666667
 31
0.0
  0
LINE
  5
A4
330
78
100
AcDbEntity
  8
0
  6
CONTINUOUS
 62
     0
100
AcDbLine
 10
0.0
 20
0.0
 30
0.0
 11
-1.0
 21
-0.166666667
 31
0.0
  0
ENDBLK
  5
7A
330
78
100
AcDbEntity
  8
0
100
AcDbBlockEnd
  0
BLOCK
  5
7C
330
7B
100
AcDbEntity
  8
0
100
AcDbBlockBegin
  2
EX_BNORM
 70
     0
 10
0.0
 20
0.0
 30
0.0
  3
EX_BNORM
  1

  0
LINE
  5
A5
330
7B
100
AcDbEntity
  8
0
  6
CONTINUOUS
 62
     0
100
AcDbLine
 10
0.0
 20
0.0
 30
0.0
 11
-1.0
 21
0.0
 31
0.0
  0
LINE
  5
A6
330
7B
100
AcDbEntity
  8
0
  6
CONTINUOUS
 62
     0
100
AcDbLine
 10
0.0
 20
0.0
 30
0.0
 11
-1.0
 21
0.166666667
 31
0.0
  0
LINE
  5
A7
330
7B
100
AcDbEntity
  8
0
  6
CONTINUOUS
 62
     0
100
AcDbLine
 10
0.0
 20
0.0
 30
0.0
 11
-1.0
 21
-0.166666667
 31
0.0
  0
LINE
  5
A8
330
7B
100
AcDbEntity
  8
0
  6
CONTINUOUS
 62
     0
100
AcDbLine
 10
0.0
 20
0.0
 30
0.0
 11
-1.0
 21
0.083333333
 31
0.0
  0
LINE
  5
A9
330
7B
100
AcDbEntity
  8
0
  6
CONTINUOUS
 62
     0
100
AcDbLine
 10
0.0
 20
0.0
 30
0.0
 11
-1.0
 21
-0.083333333
 31
0.0
  0
LINE
  5
AA
330
7B
100
AcDbEntity
  8
0
  6
CONTINUOUS
 62
     0
100
AcDbLine
 10
-1.0
 20
0.166666667
 30
0.0
 11
-1.0
 21
-0.166666667
 31
0.0
  0
ENDBLK
  5
7D
330
7B
100
AcDbEntity
  8
0
100
AcDbBlockEnd
  0
BLOCK
  5
7F
330
7E
100
AcDbEntity
  8
0
100
AcDbBlockBegin
  2
EX_BCIR
 70
     0
 10
0.0
 20
0.0
 30
0.0
  3
EX_BCIR
  1

  0
LINE
  5
AB
330
7E
100
AcDbEntity
  8
0
  6
CONTINUOUS
 62
     0
100
AcDbLine
 10
0.0
 20
0.0
 30
0.0
 11
-1.0
 21
0.0
 31
0.0
  0
CIRCLE
  5
AC
330
7E
100
AcDbEntity
  8
0
  6
CONTINUOUS
 62
     0
100
AcDbCircle
 10
0.0
 20
0.0
 30
0.0
 40
0.5
  0
CIRCLE
  5
AD
330
7E
100
AcDbEntity
  8
0
  6
CONTINUOUS
 62
     0
100
AcDbCircle
 10
0.0
 20
0.0
 30
0.0
 40
0.25
  0
ENDBLK
  5
80
330
7E
100
AcDbEntity
  8
0
100
AcDbBlockEnd
  0
BLOCK
  5
82
330
81
100
AcDbEntity
  8
0
100
AcDbBlockBegin
  2
EX_RCIVIL
 70
     0
 10
0.0
 20
0.0
 30
0.0
  3
EX_RCIVIL
  1

  0
LINE
  5
AE
330
81
100
AcDbEntity
  8
0
  6
CONTINUOUS
 62
     0
100
AcDbLine
 10
0.0
 20
0.0
 30
0.0
 11
-1.0
 21
0.0
 31
0.0
  0
LINE
  5
AF
330
81
100
AcDbEntity
  8
0
  6
CONTINUOUS
 62
     0
100
AcDbLine
 10
-1.0
 20
-0.25
 30
0.0
 11
0.0
 21
-0.25
 31
0.0
  0
LINE
  5
B0
330
81
100
AcDbEntity
  8
0
  6
CONTINUOUS
 62
     0
100
AcDbLine
 10
-1.0
 20
-0.125
 30
0.0
 11
0.0
 21
-0.125
 31
0.0
  0
ENDBLK
  5
83
330
81
100
AcDbEntity
  8
0
100
AcDbBlockEnd
  0
BLOCK
  5
85
330
84
100
AcDbEntity
  8
0
100
AcDbBlockBegin
  2
EX_SLANT
 70
     0
 10
0.0
 20
0.0
 30
0.0
  3
EX_SLANT
  1

  0
LINE
  5
B1
330
84
100
AcDbEntity
  8
0
  6
CONTINUOUS
 62
     0
100
AcDbLine
 10
0.0
 20
0.0
 30
0.0
 11
-1.0
 21
0.0
 31
0.0
  0
LINE
  5
B2
330
84
100
AcDbEntity
  8
0
  6
CONTINUOUS
 62
     0
100
AcDbLine
 10
0.707106781
 20
0.707106781
 30
0.0
 11
-0.707106781
 21
-0.707106781
 31
0.0
  0
ENDBLK
  5
86
330
84
100
AcDbEntity
  8
0
100
AcDbBlockEnd
  0
BLOCK
  5
88
330
87
100
AcDbEntity
  8
0
100
AcDbBlockBegin
  2
EX_NONE
 70
     0
 10
0.0
 20
0.0
 30
0.0
  3
EX_NONE
  1

  0
LINE
  5
B3
330
87
100
AcDbEntity
  8
0
  6
CONTINUOUS
 62
     0
100
AcDbLine
 10
0.0
 20
0.0
 30
0.0
 11
-1.0
 21
0.0
 31
0.0
  0
ENDBLK
  5
89
330
87
100
AcDbEntity
  8
0
100
AcDbBlockEnd
  0
BLOCK
  5
8B
330
8A
100
AcDbEntity
  8
0
100
AcDbBlockBegin
  2
EX_CIVIL
 70
     0
 10
0.0
 20
0.0
 30
0.0
  3
EX_CIVIL
  1

  0
LINE
  5
B4
330
8A
100
AcDbEntity
  8
0
  6
CONTINUOUS
 62
     0
100
AcDbLine
 10
0.0
 20
0.0
 30
0.0
 11
-1.0
 21
0.0
 31
0.0
  0
LINE
  5
B5
330
8A
100
AcDbEntity
  8
0
  6
CONTINUOUS
 62
     0
100
AcDbLine
 10
-1.0
 20
0.25
 30
0.0
 11
0.0
 21
0.25
 31
0.0
  0
LINE
  5
B6
330
8A
100
AcDbEntity
  8
0
  6
CONTINUOUS
 62
     0
100
AcDbLine
 10
-1.0
 20
0.125
 30
0.0
 11
0.0
 21
0.125
 31
0.0
  0
ENDBLK
  5
8C
330
8A
100
AcDbEntity
  8
0
100
AcDbBlockEnd
  0
BLOCK
  5
8E
330
8D
100
AcDbEntity
  8
0
100
AcDbBlockBegin
  2
EX_WCIR
 70
     0
 10
0.0
 20
0.0
 30
0.0
  3
EX_WCIR
  1

  0
LINE
  5
B7
330
8D
100
AcDbEntity
  8
0
  6
CONTINUOUS
 62
     0
100
AcDbLine
 10
0.0
 20
0.0
 30
0.0
 11
-1.0
 21
0.0
 31
0.0
  0
CIRCLE
  5
B8
330
8D
100
AcDbEntity
  8
0
  6
CONTINUOUS
 62
     0
100
AcDbCircle
 10
0.0
 20
0.0
 30
0.0
 40
0.5
  0
ENDBLK
  5
8F
330
8D
100
AcDbEntity
  8
0
100
AcDbBlockEnd
  0
BLOCK
  5
91
330
90
100
AcDbEntity
  8
0
100
AcDbBlockBegin
  2
EX_WCIR2
 70
     0
 10
0.0
 20
0.0
 30
0.0
  3
EX_WCIR2
  1

  0
LINE
  5
B9
330
90
100
AcDbEntity
  8
0
  6
CONTINUOUS
 62
     0
100
AcDbLine
 10
-0.5
 20
0.0
 30
0.0
 11
-1.0
 21
0.0
 31
0.0
  0
CIRCLE
  5
BA
330
90
100
AcDbEntity
  8
0
  6
CONTINUOUS
 62
     0
100
AcDbCircle
 10
0.0
 20
0.0
 30
0.0
 40
0.5
  0
ENDBLK
  5
92
330
90
100
AcDbEntity
  8
0
100
AcDbBlockEnd
  0
BLOCK
  5
94
330
93
100
AcDbEntity
  8
0
100
AcDbBlockBegin
  2
EX_WNORM
 70
     0
 10
0.0
 20
0.0
 30
0.0
  3
EX_WNORM
  1

  0
LINE
  5
BB
330
93
100
AcDbEntity
  8
0
  6
CONTINUOUS
 62
     0
100
AcDbLine
 10
-1.0
 20
0.0
 30
0.0
 11
-1.0
 21
0.0
 31
0.0
  0
LINE
  5
BC
330
93
100
AcDbEntity
  8
0
  6
CONTINUOUS
 62
     0
100
AcDbLine
 10
0.0
 20
0.0
 30
0.0
 11
-1.0
 21
0.166666667
 31
0.0
  0
LINE
  5
BD
330
93
100
AcDbEntity
  8
0
  6
CONTINUOUS
 62
     0
100
AcDbLine
 10
0.0
 20
0.0
 30
0.0
 11
-1.0
 21
-0.166666667
 31
0.0
  0
LINE
  5
BE
330
93
100
AcDbEntity
  8
0
  6
CONTINUOUS
 62
     0
100
AcDbLine
 10
-1.0
 20
0.166666667
 30
0.0
 11
-1.0
 21
-0.166666667
 31
0.0
  0
ENDBLK
  5
95
330
93
100
AcDbEntity
  8
0
100
AcDbBlockEnd
  0
BLOCK
  5
97
330
96
100
AcDbEntity
  8
0
100
AcDbBlockBegin
  2
EX_NNORM
 70
     0
 10
0.0
 20
0.0
 30
0.0
  3
EX_NNORM
  1

  0
LINE
  5
BF
330
96
100
AcDbEntity
  8
0
  6
CONTINUOUS
 62
     0
100
AcDbLine
 10
0.0
 20
0.0
 30
0.0
 11
-1.0
 21
0.0
 31
0.0
  0
LINE
  5
C0
330
96
100
AcDbEntity
  8
0
  6
CONTINUOUS
 62
     0
100
AcDbLine
 10
0.0
 20
0.0
 30
0.0
 11
-1.0
 21
0.166666667
 31
0.0
  0
LINE
  5
C1
330
96
100
AcDbEntity
  8
0
  6
CONTINUOUS
 62
     0
100
AcDbLine
 10
0.0
 20
0.0
 30
0.0
 11
-1.0
 21
-0.166666667
 31
0.0
  0
LINE
  5
C2
330
96
100
AcDbEntity
  8
0
  6
CONTINUOUS
 62
     0
100
AcDbLine
 10
-1.0
 20
0.166666667
 30
0.0
 11
-1.0
 21
-0.166666667
 31
0.0
  0
ENDBLK
  5
98
330
96
100
AcDbEntity
  8
0
100
AcDbBlockEnd
  0
BLOCK
  5
9A
330
99
100
AcDbEntity
  8
0
100
AcDbBlockBegin
  2
EX_BBOX
 70
     0
 10
0.0
 20
0.0
 30
0.0
  3
EX_BBOX
  1

  0
LINE
  5
C3
330
99
100
AcDbEntity
  8
0
  6
CONTINUOUS
 62
     0
100
AcDbLine
 10
0.0
 20
0.0
 30
0.0
 11
-1.0
 21
0.0
 31
0.0
  0
LINE
  5
C4
330
99
100
AcDbEntity
  8
0
  6
CONTINUOUS
 62
     0
100
AcDbLine
 10
-0.5
 20
0.5
 30
0.0
 11
0.5
 21
0.5
 31
0.0
  0
LINE
  5
C5
330
99
100
AcDbEntity
  8
0
  6
CONTINUOUS
 62
     0
100
AcDbLine
 10
0.5
 20
0.5
 30
0.0
 11
0.5
 21
-0.5
 31
0.0
  0
LINE
  5
C6
330
99
100
AcDbEntity
  8
0
  6
CONTINUOUS
 62
     0
100
AcDbLine
 10
0.5
 20
-0.5
 30
0.0
 11
-0.5
 21
-0.5
 31
0.0
  0
LINE
  5
C7
330
99
100
AcDbEntity
  8
0
  6
CONTINUOUS
 62
     0
100
AcDbLine
 10
-0.5
 20
-0.5
 30
0.0
 11
-0.5
 21
0.5
 31
0.0
  0
LINE
  5
C8
330
99
100
AcDbEntity
  8
0
  6
CONTINUOUS
 62
     0
100
AcDbLine
 10
-0.25
 20
0.25
 30
0.0
 11
0.25
 21
0.25
 31
0.0
  0
LINE
  5
C9
330
99
100
AcDbEntity
  8
0
  6
CONTINUOUS
 62
     0
100
AcDbLine
 10
0.25
 20
0.25
 30
0.0
 11
0.25
 21
-0.25
 31
0.0
  0
LINE
  5
CA
330
99
100
AcDbEntity
  8
0
  6
CONTINUOUS
 62
     0
100
AcDbLine
 10
0.25
 20
-0.25
 30
0.0
 11
-0.25
 21
-0.25
 31
0.0
  0
LINE
  5
CB
330
99
100
AcDbEntity
  8
0
  6
CONTINUOUS
 62
     0
100
AcDbLine
 10
-0.25
 20
-0.25
 30
0.0
 11
-0.25
 21
0.25
 31
0.0
  0
ENDBLK
  5
9B
330
99
100
AcDbEntity
  8
0
100
AcDbBlockEnd
  0
BLOCK
  5
9D
330
9C
100
AcDbEntity
  8
0
100
AcDbBlockBegin
  2
EX_WBOX
 70
     0
 10
0.0
 20
0.0
 30
0.0
  3
EX_WBOX
  1

  0
LINE
  5
CC
330
9C
100
AcDbEntity
  8
0
  6
CONTINUOUS
 62
     0
100
AcDbLine
 10
-0.5
 20
0.0
 30
0.0
 11
-1.0
 21
0.0
 31
0.0
  0
LINE
  5
CD
330
9C
100
AcDbEntity
  8
0
  6
CONTINUOUS
 62
     0
100
AcDbLine
 10
-0.5
 20
0.5
 30
0.0
 11
0.5
 21
0.5
 31
0.0
  0
LINE
  5
CE
330
9C
100
AcDbEntity
  8
0
  6
CONTINUOUS
 62
     0
100
AcDbLine
 10
0.5
 20
0.5
 30
0.0
 11
0.5
 21
-0.5
 31
0.0
  0
LINE
  5
CF
330
9C
100
AcDbEntity
  8
0
  6
CONTINUOUS
 62
     0
100
AcDbLine
 10
0.5
 20
-0.5
 30
0.0
 11
-0.5
 21
-0.5
 31
0.0
  0
LINE
  5
D0
330
9C
100
AcDbEntity
  8
0
  6
CONTINUOUS
 62
     0
100
AcDbLine
 10
-0.5
 20
-0.5
 30
0.0
 11
-0.5
 21
0.5
 31
0.0
  0
ENDBLK
  5
9E
330
9C
100
AcDbEntity
  8
0
100
AcDbBlockEnd
  0
BLOCK
  5
A0
330
9F
100
AcDbEntity
  8
0
100
AcDbBlockBegin
  2
EX_INTEGRAL
 70
     0
 10
0.0
 20
0.0
 30
0.0
  3
EX_INTEGRAL
  1

  0
LINE
  5
D1
330
9F
100
AcDbEntity
  8
0
  6
CONTINUOUS
 62
     0
100
AcDbLine
 10
0.0
 20
0.0
 30
0.0
 11
-1.0
 21
0.0
 31
0.0
  0
ARC
  5
D2
330
9F
100
AcDbEntity
  8
0
  6
CONTINUOUS
 62
     0
100
AcDbCircle
 10
0.542115
 20
0.164992
 30
0.0
 40
0.56667
100
AcDbArc
 50
73.07249033629006
 51
196.9275130221199
  0
ARC
  5
D3
330
9F
100
AcDbEntity
  8
0
  6
CONTINUOUS
 62
     0
100
AcDbCircle
 10
-0.542115
 20
-0.164992
 30
0.0
 40
0.56667
100
AcDbArc
 50
253.0724869220464
 51
16.9275130559125
  0
ENDBLK
  5
A1
330
9F
100
AcDbEntity
  8
0
100
AcDbBlockEnd
  0
BLOCK
  5
369
330
368
100
AcDbEntity
  8
0
100
AcDbBlockBegin
  2
*D15
 70
     1
 10
0.0
 20
0.0
 30
0.0
  3
*D15
  1

  0
LINE
  5
36B
330
368
100
AcDbEntity
  8
LAY-20
  6
CONTINUOUS
 62
     4
100
AcDbLine
 10
289.000000000008
 20
160.31860113495
 30
0.0
 11
224.500000000008
 21
160.31860113495
 31
0.0
  0
LINE
  5
36C
330
368
100
AcDbEntity
  8
LAY-20
  6
CONTINUOUS
 62
     4
100
AcDbLine
 10
246.367295401708
 20
185.1986412405
 30
0.0
 11
224.500000000008
 21
185.1986412405
 31
0.0
  0
LINE
  5
36D
330
368
100
AcDbEntity
  8
LAY-20
  6
CONTINUOUS
 62
     4
100
AcDbLine
 10
227.500000000008
 20
165.31860113495
 30
0.0
 11
227.500000000008
 21
180.1986412405
 31
0.0
  0
INSERT
  5
36E
330
368
100
AcDbEntity
  8
LAY-20
 62
     4
100
AcDbBlockReference
  2
EX_BNORM
 10
227.500000000008
 20
160.31860113495
 30
0.0
 41
5.0
 42
5.0
 43
5.0
 50
270.0
  0
INSERT
  5
36F
330
368
100
AcDbEntity
  8
LAY-20
 62
     4
100
AcDbBlockReference
  2
EX_BNORM
 10
227.500000000008
 20
185.1986412405
 30
0.0
 41
5.0
 42
5.0
 43
5.0
 50
90.0
  0
MTEXT
  5
370
330
368
100
AcDbEntity
  8
LAY-20
 62
     7
100
AcDbMText
 10
222.500000000008
 20
172.758621187725
 30
0.0
 40
6.2362208
 41
0.0
 71
     5
 72
     1
  1
25
  7
EXCADDIM1
 11
0.0
 21
1.0
 31
0.0
  0
POINT
  5
371
330
368
100
AcDbEntity
  8
DEFPOINTS
 62
     0
100
AcDbPoint
 10
292.000000000008
 20
160.31860113495
 30
0.0
  0
POINT
  5
372
330
368
100
AcDbEntity
  8
DEFPOINTS
 62
     0
100
AcDbPoint
 10
249.367295401708
 20
185.1986412405
 30
0.0
  0
POINT
  5
373
330
368
100
AcDbEntity
  8
DEFPOINTS
 62
     0
100
AcDbPoint
 10
227.500000000008
 20
185.1986412405
 30
0.0
  0
ENDBLK
  5
36A
330
368
100
AcDbEntity
  8
0
100
AcDbBlockEnd
  0
BLOCK
  5
376
330
375
100
AcDbEntity
  8
0
100
AcDbBlockBegin
  2
*D16
 70
     1
 10
0.0
 20
0.0
 30
0.0
  3
*D16
  1

  0
LINE
  5
378
330
375
100
AcDbEntity
  8
LAY-20
  6
CONTINUOUS
 62
     4
100
AcDbLine
 10
371.00000000001
 20
105.1986412405
 30
0.0
 11
435.50000000001
 21
105.1986412405
 31
0.0
  0
LINE
  5
379
330
375
100
AcDbEntity
  8
LAY-20
  6
CONTINUOUS
 62
     4
100
AcDbLine
 10
413.63270459831
 20
185.1986412405
 30
0.0
 11
435.50000000001
 21
185.1986412405
 31
0.0
  0
LINE
  5
37A
330
375
100
AcDbEntity
  8
LAY-20
  6
CONTINUOUS
 62
     4
100
AcDbLine
 10
432.50000000001
 20
110.1986412405
 30
0.0
 11
432.50000000001
 21
180.1986412405
 31
0.0
  0
INSERT
  5
37B
330
375
100
AcDbEntity
  8
LAY-20
 62
     4
100
AcDbBlockReference
  2
EX_BNORM
 10
432.50000000001
 20
105.1986412405
 30
0.0
 41
5.0
 42
5.0
 43
5.0
 50
270.0
  0
INSERT
  5
37C
330
375
100
AcDbEntity
  8
LAY-20
 62
     4
100
AcDbBlockReference
  2
EX_BNORM
 10
432.50000000001
 20
185.1986412405
 30
0.0
 41
5.0
 42
5.0
 43
5.0
 50
90.0
  0
MTEXT
  5
37D
330
375
100
AcDbEntity
  8
LAY-20
 62
     7
100
AcDbMText
 10
427.50000000001
 20
145.1986412405
 30
0.0
 40
6.2362208
 41
0.0
 71
     5
 72
     1
  1
80
  7
EXCADDIM1
 11
0.0
 21
1.0
 31
0.0
  0
POINT
  5
37E
330
375
100
AcDbEntity
  8
DEFPOINTS
 62
     0
100
AcDbPoint
 10
368.00000000001
 20
105.1986412405
 30
0.0
  0
POINT
  5
37F
330
375
100
AcDbEntity
  8
DEFPOINTS
 62
     0
100
AcDbPoint
 10
410.63270459831
 20
185.1986412405
 30
0.0
  0
POINT
  5
380
330
375
100
AcDbEntity
  8
DEFPOINTS
 62
     0
100
AcDbPoint
 10
432.50000000001
 20
185.1986412405
 30
0.0
  0
ENDBLK
  5
377
330
375
100
AcDbEntity
  8
0
100
AcDbBlockEnd
  0
BLOCK
  5
383
330
382
100
AcDbEntity
  8
0
100
AcDbBlockBegin
  2
*D17
 70
     1
 10
0.0
 20
0.0
 30
0.0
  3
*D17
  1

  0
LINE
  5
385
330
382
100
AcDbEntity
  8
LAY-20
  6
CONTINUOUS
 62
     4
100
AcDbLine
 10
333.00000000001
 20
279.99999999999
 30
0.0
 11
435.50000000001
 21
279.99999999999
 31
0.0
  0
LINE
  5
386
330
382
100
AcDbEntity
  8
LAY-20
  6
CONTINUOUS
 62
     4
100
AcDbLine
 10
432.50000000001
 20
190.1986412405
 30
0.0
 11
432.50000000001
 21
274.99999999999
 31
0.0
  0
INSERT
  5
387
330
382
100
AcDbEntity
  8
LAY-20
 62
     4
100
AcDbBlockReference
  2
EX_BNORM
 10
432.50000000001
 20
185.1986412405
 30
0.0
 41
5.0
 42
5.0
 43
5.0
 50
270.0
  0
INSERT
  5
388
330
382
100
AcDbEntity
  8
LAY-20
 62
     4
100
AcDbBlockReference
  2
EX_BNORM
 10
432.50000000001
 20
279.99999999999
 30
0.0
 41
5.0
 42
5.0
 43
5.0
 50
90.0
  0
MTEXT
  5
389
330
382
100
AcDbEntity
  8
LAY-20
 62
     7
100
AcDbMText
 10
427.50000000001
 20
232.599320620245
 30
0.0
 40
6.2362208
 41
0.0
 71
     5
 72
     1
  1
95
  7
EXCADDIM1
 11
0.0
 21
1.0
 31
0.0
  0
POINT
  5
38A
330
382
100
AcDbEntity
  8
DEFPOINTS
 62
     0
100
AcDbPoint
 10
432.50000000001
 20
185.1986412405
 30
0.0
  0
POINT
  5
38B
330
382
100
AcDbEntity
  8
DEFPOINTS
 62
     0
100
AcDbPoint
 10
330.00000000001
 20
279.99999999999
 30
0.0
  0
POINT
  5
38C
330
382
100
AcDbEntity
  8
DEFPOINTS
 62
     0
100
AcDbPoint
 10
432.50000000001
 20
279.99999999999
 30
0.0
  0
ENDBLK
  5
384
330
382
100
AcDbEntity
  8
0
100
AcDbBlockEnd
  0
BLOCK
  5
38F
330
38E
100
AcDbEntity
  8
0
100
AcDbBlockBegin
  2
*D18
 70
     1
 10
0.0
 20
0.0
 30
0.0
  3
*D18
  1

  0
LINE
  5
391
330
38E
100
AcDbEntity
  8
LAY-20
  6
CONTINUOUS
 62
     4
100
AcDbLine
 10
307.50000000001
 20
117.1986412405
 30
0.0
 11
307.50000000001
 21
82.19864124049997
 31
0.0
  0
LINE
  5
392
330
38E
100
AcDbEntity
  8
LAY-20
  6
CONTINUOUS
 62
     4
100
AcDbLine
 10
352.50000000001
 20
117.1986412405
 30
0.0
 11
352.50000000001
 21
82.19864124049997
 31
0.0
  0
LINE
  5
393
330
38E
100
AcDbEntity
  8
LAY-20
  6
CONTINUOUS
 62
     4
100
AcDbLine
 10
313.50000000001
 20
85.19864124049997
 30
0.0
 11
346.50000000001
 21
85.19864124049997
 31
0.0
  0
INSERT
  5
394
330
38E
100
AcDbEntity
  8
LAY-20
 62
     4
100
AcDbBlockReference
  2
EX_BNORM
 10
307.50000000001
 20
85.19864124049997
 30
0.0
 41
6.0
 42
6.0
 43
6.0
 50
180.0
  0
INSERT
  5
395
330
38E
100
AcDbEntity
  8
LAY-20
 62
     4
100
AcDbBlockReference
  2
EX_BNORM
 10
352.50000000001
 20
85.19864124049997
 30
0.0
 41
6.0
 42
6.0
 43
6.0
  0
MTEXT
  5
396
330
38E
100
AcDbEntity
  8
LAY-20
 62
     7
100
AcDbMText
 10
330.00000000001
 20
90.19864124049997
 30
0.0
 40
6.2362208
 41
0.0
 71
     5
 72
     1
  1
%%c45
  7
EXCADDIM1
  0
POINT
  5
397
330
38E
100
AcDbEntity
  8
DEFPOINTS
 62
     0
100
AcDbPoint
 10
307.50000000001
 20
120.1986412405
 30
0.0
  0
POINT
  5
398
330
38E
100
AcDbEntity
  8
DEFPOINTS
 62
     0
100
AcDbPoint
 10
352.50000000001
 20
120.1986412405
 30
0.0
  0
POINT
  5
399
330
38E
100
AcDbEntity
  8
DEFPOINTS
 62
     0
100
AcDbPoint
 10
352.50000000001
 20
85.19864124049997
 30
0.0
  0
ENDBLK
  5
390
330
38E
100
AcDbEntity
  8
0
100
AcDbBlockEnd
  0
BLOCK
  5
39C
330
39B
100
AcDbEntity
  8
0
100
AcDbBlockBegin
  2
*D19
 70
     1
 10
0.0
 20
0.0
 30
0.0
  3
*D19
  1

  0
LINE
  5
39E
330
39B
100
AcDbEntity
  8
LAY-20
  6
CONTINUOUS
 62
     4
100
AcDbLine
 10
354.00000000001
 20
154.1986412405
 30
0.0
 11
354.00000000001
 21
68.19864124049997
 31
0.0
  0
LINE
  5
39F
330
39B
100
AcDbEntity
  8
LAY-20
  6
CONTINUOUS
 62
     4
100
AcDbLine
 10
306.00000000001
 20
154.1986412405
 30
0.0
 11
306.00000000001
 21
68.19864124049997
 31
0.0
  0
LINE
  5
3A0
330
39B
100
AcDbEntity
  8
LAY-20
  6
CONTINUOUS
 62
     4
100
AcDbLine
 10
348.00000000001
 20
71.19864124049997
 30
0.0
 11
312.00000000001
 21
71.19864124049997
 31
0.0
  0
INSERT
  5
3A1
330
39B
100
AcDbEntity
  8
LAY-20
 62
     4
100
AcDbBlockReference
  2
EX_BNORM
 10
354.00000000001
 20
71.19864124049997
 30
0.0
 41
6.0
 42
6.0
 43
6.0
  0
INSERT
  5
3A2
330
39B
100
AcDbEntity
  8
LAY-20
 62
     4
100
AcDbBlockReference
  2
EX_BNORM
 10
306.00000000001
 20
71.19864124049997
 30
0.0
 41
6.0
 42
6.0
 43
6.0
 50
180.0
  0
MTEXT
  5
3A3
330
39B
100
AcDbEntity
  8
LAY-20
 62
     7
100
AcDbMText
 10
330.00000000001
 20
76.19864124049997
 30
0.0
 40
6.2362208
 41
0.0
 71
     5
 72
     1
  1
%%c48
  7
EXCADDIM1
  0
POINT
  5
3A4
330
39B
100
AcDbEntity
  8
DEFPOINTS
 62
     0
100
AcDbPoint
 10
354.00000000001
 20
157.1986412405
 30
0.0
  0
POINT
  5
3A5
330
39B
100
AcDbEntity
  8
DEFPOINTS
 62
     0
100
AcDbPoint
 10
306.00000000001
 20
157.1986412405
 30
0.0
  0
POINT
  5
3A6
330
39B
100
AcDbEntity
  8
DEFPOINTS
 62
     0
100
AcDbPoint
 10
306.00000000001
 20
71.19864124049997
 30
0.0
  0
ENDBLK
  5
39D
330
39B
100
AcDbEntity
  8
0
100
AcDbBlockEnd
  0
BLOCK
  5
3A9
330
3A8
100
AcDbEntity
  8
0
100
AcDbBlockBegin
  2
*D20
 70
     1
 10
0.0
 20
0.0
 30
0.0
  3
*D20
  1

  0
LINE
  5
3AB
330
3A8
100
AcDbEntity
  8
LAY-20
  6
CONTINUOUS
 62
     4
100
AcDbLine
 10
276.50000000001
 20
195.49999999999
 30
0.0
 11
276.50000000001
 21
303.0
 31
0.0
  0
LINE
  5
3AC
330
3A8
100
AcDbEntity
  8
LAY-20
  6
CONTINUOUS
 62
     4
100
AcDbLine
 10
383.50000000001
 20
194.99999999999
 30
0.0
 11
383.50000000001
 21
303.0
 31
0.0
  0
LINE
  5
3AD
330
3A8
100
AcDbEntity
  8
LAY-20
  6
CONTINUOUS
 62
     4
100
AcDbLine
 10
282.50000000001
 20
300.0
 30
0.0
 11
377.50000000001
 21
300.0
 31
0.0
  0
INSERT
  5
3AE
330
3A8
100
AcDbEntity
  8
LAY-20
 62
     4
100
AcDbBlockReference
  2
EX_BNORM
 10
276.50000000001
 20
300.0
 30
0.0
 41
6.0
 42
6.0
 43
6.0
 50
180.0
  0
INSERT
  5
3AF
330
3A8
100
AcDbEntity
  8
LAY-20
 62
     4
100
AcDbBlockReference
  2
EX_BNORM
 10
383.50000000001
 20
300.0
 30
0.0
 41
6.0
 42
6.0
 43
6.0
  0
MTEXT
  5
3B0
330
3A8
100
AcDbEntity
  8
LAY-20
 62
     7
100
AcDbMText
 10
330.00000000001
 20
305.0
 30
0.0
 40
6.2362208
 41
0.0
 71
     5
 72
     1
  1
%%c107
  7
EXCADDIM1
  0
POINT
  5
3B1
330
3A8
100
AcDbEntity
  8
DEFPOINTS
 62
     0
100
AcDbPoint
 10
276.50000000001
 20
192.49999999999
 30
0.0
  0
POINT
  5
3B2
330
3A8
100
AcDbEntity
  8
DEFPOINTS
 62
     0
100
AcDbPoint
 10
383.50000000001
 20
191.99999999999
 30
0.0
  0
POINT
  5
3B3
330
3A8
100
AcDbEntity
  8
DEFPOINTS
 62
     0
100
AcDbPoint
 10
383.50000000001
 20
300.0
 30
0.0
  0
ENDBLK
  5
3AA
330
3A8
100
AcDbEntity
  8
0
100
AcDbBlockEnd
  0
BLOCK
  5
3B6
330
3B5
100
AcDbEntity
  8
0
100
AcDbBlockBegin
  2
*D21
 70
     1
 10
0.0
 20
0.0
 30
0.0
  3
*D21
  1

  0
LINE
  5
3B8
330
3B5
100
AcDbEntity
  8
LAY-20
  6
CONTINUOUS
 62
     4
100
AcDbLine
 10
257.5
 20
193.99999999999
 30
0.0
 11
257.5
 21
317.0
 31
0.0
  0
LINE
  5
3B9
330
3B5
100
AcDbEntity
  8
LAY-20
  6
CONTINUOUS
 62
     4
100
AcDbLine
 10
402.50000000001
 20
193.99999999999
 30
0.0
 11
402.50000000001
 21
317.0
 31
0.0
  0
LINE
  5
3BA
330
3B5
100
AcDbEntity
  8
LAY-20
  6
CONTINUOUS
 62
     4
100
AcDbLine
 10
263.5
 20
314.0
 30
0.0
 11
396.50000000001
 21
314.0
 31
0.0
  0
INSERT
  5
3BB
330
3B5
100
AcDbEntity
  8
LAY-20
 62
     4
100
AcDbBlockReference
  2
EX_BNORM
 10
257.5
 20
314.0
 30
0.0
 41
6.0
 42
6.0
 43
6.0
 50
180.0
  0
INSERT
  5
3BC
330
3B5
100
AcDbEntity
  8
LAY-20
 62
     4
100
AcDbBlockReference
  2
EX_BNORM
 10
402.50000000001
 20
314.0
 30
0.0
 41
6.0
 42
6.0
 43
6.0
  0
MTEXT
  5
3BD
330
3B5
100
AcDbEntity
  8
LAY-20
 62
     7
100
AcDbMText
 10
330.000000000005
 20
319.0
 30
0.0
 40
6.2362208
 41
0.0
 71
     5
 72
     1
  1
%%c145
  7
EXCADDIM1
  0
POINT
  5
3BE
330
3B5
100
AcDbEntity
  8
DEFPOINTS
 62
     0
100
AcDbPoint
 10
257.5
 20
190.99999999999
 30
0.0
  0
POINT
  5
3BF
330
3B5
100
AcDbEntity
  8
DEFPOINTS
 62
     0
100
AcDbPoint
 10
402.50000000001
 20
190.99999999999
 30
0.0
  0
POINT
  5
3C0
330
3B5
100
AcDbEntity
  8
DEFPOINTS
 62
     0
100
AcDbPoint
 10
402.50000000001
 20
314.0
 30
0.0
  0
ENDBLK
  5
3B7
330
3B5
100
AcDbEntity
  8
0
100
AcDbBlockEnd
  0
BLOCK
  5
3C3
330
3C2
100
AcDbEntity
  8
0
100
AcDbBlockBegin
  2
*D22
 70
     1
 10
0.0
 20
0.0
 30
0.0
  3
*D22
  1

  0
LINE
  5
3C5
330
3C2
100
AcDbEntity
  8
LAY-20
  6
CONTINUOUS
 62
     4
100
AcDbLine
 10
412.50000000001
 20
184.1986412405
 30
0.0
 11
412.50000000001
 21
331.0
 31
0.0
  0
LINE
  5
3C6
330
3C2
100
AcDbEntity
  8
LAY-20
  6
CONTINUOUS
 62
     4
100
AcDbLine
 10
247.50000000001
 20
184.1986412405
 30
0.0
 11
247.50000000001
 21
331.0
 31
0.0
  0
LINE
  5
3C7
330
3C2
100
AcDbEntity
  8
LAY-20
  6
CONTINUOUS
 62
     4
100
AcDbLine
 10
406.50000000001
 20
328.0
 30
0.0
 11
253.50000000001
 21
328.0
 31
0.0
  0
INSERT
  5
3C8
330
3C2
100
AcDbEntity
  8
LAY-20
 62
     4
100
AcDbBlockReference
  2
EX_BNORM
 10
412.50000000001
 20
328.0
 30
0.0
 41
6.0
 42
6.0
 43
6.0
  0
INSERT
  5
3C9
330
3C2
100
AcDbEntity
  8
LAY-20
 62
     4
100
AcDbBlockReference
  2
EX_BNORM
 10
247.50000000001
 20
328.0
 30
0.0
 41
6.0
 42
6.0
 43
6.0
 50
180.0
  0
MTEXT
  5
3CA
330
3C2
100
AcDbEntity
  8
LAY-20
 62
     7
100
AcDbMText
 10
330.00000000001
 20
333.0
 30
0.0
 40
6.2362208
 41
0.0
 71
     5
 72
     1
  1
%%c165
  7
EXCADDIM1
  0
POINT
  5
3CB
330
3C2
100
AcDbEntity
  8
DEFPOINTS
 62
     0
100
AcDbPoint
 10
412.50000000001
 20
181.1986412405
 30
0.0
  0
POINT
  5
3CC
330
3C2
100
AcDbEntity
  8
DEFPOINTS
 62
     0
100
AcDbPoint
 10
247.50000000001
 20
181.1986412405
 30
0.0
  0
POINT
  5
3CD
330
3C2
100
AcDbEntity
  8
DEFPOINTS
 62
     0
100
AcDbPoint
 10
247.50000000001
 20
328.0
 30
0.0
  0
ENDBLK
  5
3C4
330
3C2
100
AcDbEntity
  8
0
100
AcDbBlockEnd
  0
ENDSEC
  0
SECTION
  2
ENTITIES
  0
LINE
  5
D4
330
1F
100
AcDbEntity
  8
LAY-10
  6
CONTINUOUS
 62
     7
100
AcDbLine
 10
292.0000000000055
 20
158.938756610675
 30
0.0
 11
293.3798445242795
 21
160.3186011349491
 31
0.0
  0
LINE
  5
D5
330
1F
100
AcDbEntity
  8
LAY-10
  6
CONTINUOUS
 62
     7
100
AcDbLine
 10
292.0000000000068
 20
156.1103294859302
 30
0.0
 11
294.5000000000072
 21
158.6103294859305
 31
0.0
  0
LINE
  5
D6
330
1F
100
AcDbEntity
  8
LAY-10
  6
CONTINUOUS
 62
     7
100
AcDbLine
 10
292.0000000000042
 20
153.2819023611813
 30
0.0
 11
294.5000000000085
 21
155.7819023611856
 31
0.0
  0
LINE
  5
D7
330
1F
100
AcDbEntity
  8
LAY-10
  6
CONTINUOUS
 62
     7
100
AcDbLine
 10
292.0000000000055
 20
150.4534752364364
 30
0.0
 11
294.5000000000059
 21
152.9534752364368
 31
0.0
  0
LINE
  5
D8
330
1F
100
AcDbEntity
  8
LAY-10
  6
CONTINUOUS
 62
     7
100
AcDbLine
 10
292.0000000000068
 20
147.6250481116915
 30
0.0
 11
294.5000000000111
 21
150.1250481116958
 31
0.0
  0
LINE
  5
D9
330
1F
100
AcDbEntity
  8
LAY-10
  6
CONTINUOUS
 62
     7
100
AcDbLine
 10
292.0000000000042
 20
144.7966209869427
 30
0.0
 11
294.5000000000085
 21
147.296620986947
 31
0.0
  0
LINE
  5
DA
330
1F
100
AcDbEntity
  8
LAY-10
  6
CONTINUOUS
 62
     7
100
AcDbLine
 10
292.0000000000056
 20
141.9681938621978
 30
0.0
 11
294.5000000000059
 21
144.4681938621983
 31
0.0
  0
LINE
  5
DB
330
1F
100
AcDbEntity
  8
LAY-10
  6
CONTINUOUS
 62
     7
100
AcDbLine
 10
292.000000000003
 20
139.1397667374491
 30
0.0
 11
294.5000000000073
 21
141.6397667374533
 31
0.0
  0
LINE
  5
DC
330
1F
100
AcDbEntity
  8
LAY-10
  6
CONTINUOUS
 62
     7
100
AcDbLine
 10
292.0000000000081
 20
136.311339612708
 30
0.0
 11
294.5000000000085
 21
138.8113396127084
 31
0.0
  0
LINE
  5
DD
330
1F
100
AcDbEntity
  8
LAY-10
  6
CONTINUOUS
 62
     7
100
AcDbLine
 10
292.0000000000056
 20
133.4829124879593
 30
0.0
 11
294.500000000006
 21
135.9829124879597
 31
0.0
  0
LINE
  5
DE
330
1F
100
AcDbEntity
  8
LAY-10
  6
CONTINUOUS
 62
     7
100
AcDbLine
 10
292.000000000003
 20
130.6544853632105
 30
0.0
 11
294.5000000000073
 21
133.1544853632147
 31
0.0
  0
LINE
  5
DF
330
1F
100
AcDbEntity
  8
LAY-10
  6
CONTINUOUS
 62
     7
100
AcDbLine
 10
292.0000000000043
 20
127.8260582384656
 30
0.0
 11
294.5000000000086
 21
130.3260582384698
 31
0.0
  0
LINE
  5
E0
330
1F
100
AcDbEntity
  8
LAY-10
  6
CONTINUOUS
 62
     7
100
AcDbLine
 10
292.0000000000056
 20
124.9976311137206
 30
0.0
 11
294.5000000000099
 21
127.4976311137249
 31
0.0
  0
LINE
  5
E1
330
1F
100
AcDbEntity
  8
LAY-10
  6
CONTINUOUS
 62
     7
100
AcDbLine
 10
292.0000000000069
 20
122.1692039889757
 30
0.0
 11
294.5000000000073
 21
124.6692039889762
 31
0.0
  0
LINE
  5
E2
330
1F
100
AcDbEntity
  8
LAY-10
  6
CONTINUOUS
 62
     7
100
AcDbLine
 10
292.0000000000043
 20
119.3407768642269
 30
0.0
 11
294.5000000000086
 21
121.8407768642313
 31
0.0
  0
LINE
  5
E3
330
1F
100
AcDbEntity
  8
LAY-10
  6
CONTINUOUS
 62
     7
100
AcDbLine
 10
292.0000000000056
 20
116.512349739482
 30
0.0
 11
294.5000000000099
 21
119.0123497394864
 31
0.0
  0
LINE
  5
E4
330
1F
100
AcDbEntity
  8
LAY-10
  6
CONTINUOUS
 62
     7
100
AcDbLine
 10
292.0000000000069
 20
113.6839226147371
 30
0.0
 11
294.5000000000074
 21
116.1839226147375
 31
0.0
  0
LINE
  5
E5
330
1F
100
AcDbEntity
  8
LAY-10
  6
CONTINUOUS
 62
     7
100
AcDbLine
 10
292.0000000000043
 20
110.8554954899884
 30
0.0
 11
294.5000000000086
 21
113.3554954899927
 31
0.0
  0
LINE
  5
E6
330
1F
100
AcDbEntity
  8
LAY-10
  6
CONTINUOUS
 62
     7
100
AcDbLine
 10
292.0000000000057
 20
108.0270683652435
 30
0.0
 11
294.5000000000099
 21
110.5270683652477
 31
0.0
  0
LINE
  5
E7
330
1F
100
AcDbEntity
  8
LAY-10
  6
CONTINUOUS
 62
     7
100
AcDbLine
 10
292.0000000000069
 20
105.1986412404985
 30
0.0
 11
294.5000000000074
 21
107.698641240499
 31
0.0
  0
LINE
  5
E8
330
1F
100
AcDbEntity
  8
LAY-10
  6
CONTINUOUS
 62
     7
100
AcDbLine
 10
365.5000000000059
 20
158.9387566106755
 30
0.0
 11
366.879844524276
 21
160.3186011349456
 31
0.0
  0
LINE
  5
E9
330
1F
100
AcDbEntity
  8
LAY-10
  6
CONTINUOUS
 62
     7
100
AcDbLine
 10
365.5000000000072
 20
156.1103294859305
 30
0.0
 11
368.0000000000076
 21
158.6103294859309
 31
0.0
  0
LINE
  5
EA
330
1F
100
AcDbEntity
  8
LAY-10
  6
CONTINUOUS
 62
     7
100
AcDbLine
 10
365.5000000000085
 20
153.2819023611856
 30
0.0
 11
368.0000000000089
 21
155.781902361186
 31
0.0
  0
LINE
  5
EB
330
1F
100
AcDbEntity
  8
LAY-10
  6
CONTINUOUS
 62
     7
100
AcDbLine
 10
365.5000000000098
 20
150.4534752364407
 30
0.0
 11
368.0000000000102
 21
152.9534752364411
 31
0.0
  0
LINE
  5
EC
330
1F
100
AcDbEntity
  8
LAY-10
  6
CONTINUOUS
 62
     7
100
AcDbLine
 10
365.5000000000072
 20
147.625048111692
 30
0.0
 11
368.0000000000076
 21
150.1250481116924
 31
0.0
  0
LINE
  5
ED
330
1F
100
AcDbEntity
  8
LAY-10
  6
CONTINUOUS
 62
     7
100
AcDbLine
 10
365.5000000000085
 20
144.7966209869471
 30
0.0
 11
368.0000000000089
 21
147.2966209869475
 31
0.0
  0
LINE
  5
EE
330
1F
100
AcDbEntity
  8
LAY-10
  6
CONTINUOUS
 62
     7
100
AcDbLine
 10
365.5000000000098
 20
141.9681938622022
 30
0.0
 11
368.0000000000102
 21
144.4681938622026
 31
0.0
  0
LINE
  5
EF
330
1F
100
AcDbEntity
  8
LAY-10
  6
CONTINUOUS
 62
     7
100
AcDbLine
 10
365.5000000000073
 20
139.1397667374533
 30
0.0
 11
368.0000000000076
 21
141.6397667374538
 31
0.0
  0
LINE
  5
F0
330
1F
100
AcDbEntity
  8
LAY-10
  6
CONTINUOUS
 62
     7
100
AcDbLine
 10
365.5000000000085
 20
136.3113396127085
 30
0.0
 11
368.0000000000089
 21
138.8113396127089
 31
0.0
  0
LINE
  5
F1
330
1F
100
AcDbEntity
  8
LAY-10
  6
CONTINUOUS
 62
     7
100
AcDbLine
 10
365.500000000006
 20
133.4829124879597
 30
0.0
 11
368.0000000000102
 21
135.982912487964
 31
0.0
  0
LINE
  5
F2
330
1F
100
AcDbEntity
  8
LAY-10
  6
CONTINUOUS
 62
     7
100
AcDbLine
 10
365.5000000000073
 20
130.6544853632148
 30
0.0
 11
368.0000000000115
 21
133.154485363219
 31
0.0
  0
LINE
  5
F3
330
1F
100
AcDbEntity
  8
LAY-10
  6
CONTINUOUS
 62
     7
100
AcDbLine
 10
365.5000000000047
 20
127.826058238466
 30
0.0
 11
368.000000000009
 21
130.3260582384703
 31
0.0
  0
LINE
  5
F4
330
1F
100
AcDbEntity
  8
LAY-10
  6
CONTINUOUS
 62
     7
100
AcDbLine
 10
365.5000000000099
 20
124.9976311137249
 30
0.0
 11
368.0000000000103
 21
127.4976311137253
 31
0.0
  0
LINE
  5
F5
330
1F
100
AcDbEntity
  8
LAY-10
  6
CONTINUOUS
 62
     7
100
AcDbLine
 10
365.5000000000034
 20
122.1692039889723
 30
0.0
 11
368.0000000000116
 21
124.6692039889804
 31
0.0
  0
LINE
  5
F6
330
1F
100
AcDbEntity
  8
LAY-10
  6
CONTINUOUS
 62
     7
100
AcDbLine
 10
365.5000000000086
 20
119.3407768642313
 30
0.0
 11
368.0000000000051
 21
121.8407768642278
 31
0.0
  0
LINE
  5
F7
330
1F
100
AcDbEntity
  8
LAY-10
  6
CONTINUOUS
 62
     7
100
AcDbLine
 10
365.500000000006
 20
116.5123497394825
 30
0.0
 11
368.0000000000103
 21
119.0123497394868
 31
0.0
  0
LINE
  5
F8
330
1F
100
AcDbEntity
  8
LAY-10
  6
CONTINUOUS
 62
     7
100
AcDbLine
 10
365.5000000000112
 20
113.6839226147414
 30
0.0
 11
368.0000000000077
 21
116.183922614738
 31
0.0
  0
LINE
  5
F9
330
1F
100
AcDbEntity
  8
LAY-10
  6
CONTINUOUS
 62
     7
100
AcDbLine
 10
365.5000000000048
 20
110.8554954899888
 30
0.0
 11
368.0000000000129
 21
113.3554954899969
 31
0.0
  0
LINE
  5
FA
330
1F
100
AcDbEntity
  8
LAY-10
  6
CONTINUOUS
 62
     7
100
AcDbLine
 10
365.5000000000099
 20
108.0270683652477
 30
0.0
 11
368.0000000000103
 21
110.5270683652482
 31
0.0
  0
LINE
  5
FB
330
1F
100
AcDbEntity
  8
LAY-10
  6
CONTINUOUS
 62
     7
100
AcDbLine
 10
365.5000000000074
 20
105.1986412404989
 30
0.0
 11
368.0000000000077
 21
107.6986412404994
 31
0.0
  0
LINE
  5
FC
330
1F
100
AcDbEntity
  8
LAY-10
  6
CONTINUOUS
 62
     7
100
AcDbLine
 10
258.0376247012243
 20
178.1986412405
 30
0.0
 11
247.5000000000083
 21
178.1986412405
 31
0.0
  0
LINE
  5
FD
330
1F
100
AcDbEntity
  8
LAY-10
  6
CONTINUOUS
 62
     7
100
AcDbLine
 10
247.5000000000083
 20
178.1986412405
 30
0.0
 11
248.377345908042
 21
184.3400625967372
 31
0.0
  0
LINE
  5
FE
330
1F
100
AcDbEntity
  8
LAY-10
  6
CONTINUOUS
 62
     7
100
AcDbLine
 10
254.1847759934335
 20
180.874051344425
 30
0.0
 11
256.5377293291384
 21
180.2435793982947
 31
0.0
  0
LINE
  5
FF
330
1F
100
AcDbEntity
  8
LAY-10
  6
CONTINUOUS
 62
     7
100
AcDbLine
 10
251.6872389159058
 20
179.2250424043216
 30
0.0
 11
251.5406101782173
 21
178.1986412405
 31
0.0
  0
ARC
  5
100
330
1F
100
AcDbEntity
  8
LAY-10
  6
CONTINUOUS
 62
     7
100
AcDbCircle
 10
253.6671379032284
 20
178.9421996918469
 30
0.0
 40
2.0
100
AcDbArc
 50
74.99999999999885
 51
171.8698976458436
  0
LINE
  5
101
330
1F
100
AcDbEntity
  8
LAY-10
  6
CONTINUOUS
 62
     7
100
AcDbLine
 10
406.5000000000082
 20
185.1986412404999
 30
0.0
 11
370.9571783239733
 21
175.6749708756822
 31
0.0
  0
LINE
  5
102
330
1F
100
AcDbEntity
  8
LAY-10
  6
CONTINUOUS
 62
     7
100
AcDbLine
 10
395.8304575676525
 20
178.1986412405
 30
0.0
 11
412.5000000000082
 21
178.1986412405
 31
0.0
  0
LINE
  5
103
330
1F
100
AcDbEntity
  8
LAY-10
  6
CONTINUOUS
 62
     7
100
AcDbLine
 10
412.5000000000082
 20
178.1986412405
 30
0.0
 11
411.6226540919743
 21
184.3400625967372
 31
0.0
  0
LINE
  5
104
330
1F
100
AcDbEntity
  8
LAY-10
  6
CONTINUOUS
 62
     7
100
AcDbLine
 10
405.8152240065831
 20
180.874051344425
 30
0.0
 11
375.5423036952168
 21
172.762446794462
 31
0.0
  0
LINE
  5
105
330
1F
100
AcDbEntity
  8
LAY-10
  6
CONTINUOUS
 62
     7
100
AcDbLine
 10
408.3127610841104
 20
179.2250424043216
 30
0.0
 11
408.4593898217993
 21
178.1986412405
 31
0.0
  0
ARC
  5
106
330
1F
100
AcDbEntity
  8
LAY-10
  6
CONTINUOUS
 62
     7
100
AcDbCircle
 10
406.3328620967882
 20
178.9421996918469
 30
0.0
 40
2.0
100
AcDbArc
 50
8.130102354156444
 51
105.0000000000012
  0
LINE
  5
107
330
1F
100
AcDbEntity
  8
LAY-10
  6
CONTINUOUS
 62
     7
100
AcDbLine
 10
259.0000000000094
 20
167.1986412404999
 30
0.0
 11
271.0000000000033
 21
167.1986412404999
 31
0.0
  0
LINE
  5
108
330
1F
100
AcDbEntity
  8
LAY-10
  6
CONTINUOUS
 62
     7
100
AcDbLine
 10
258.0124806351167
 20
178.4860392312119
 30
0.0
 11
259.0000000000094
 21
167.1986412404999
 31
0.0
  0
LINE
  5
109
330
1F
100
AcDbEntity
  8
LAY-10
  6
CONTINUOUS
 62
     7
100
AcDbLine
 10
271.5761398140172
 20
173.7839494483828
 30
0.0
 11
271.0000000000033
 21
167.1986412404999
 31
0.0
  0
ARC
  5
10A
330
1F
100
AcDbEntity
  8
LAY-10
  6
CONTINUOUS
 62
     7
100
AcDbCircle
 10
273.5685292102006
 20
173.6096379628874
 30
0.0
 40
2.0
100
AcDbArc
 50
74.99999999999908
 51
174.9999999999969
  0
ARC
  5
10B
330
1F
100
AcDbEntity
  8
LAY-10
  6
CONTINUOUS
 62
     7
100
AcDbCircle
 10
256.0200912389333
 20
178.3117277457166
 30
0.0
 40
2.0
100
AcDbArc
 50
4.999999999998139
 51
74.99999999999885
  0
LINE
  5
10C
330
1F
100
AcDbEntity
  8
LAY-10
  6
CONTINUOUS
 62
     7
100
AcDbLine
 10
253.5000000000082
 20
185.1986412404999
 30
0.0
 11
289.0428216760434
 21
175.674970875682
 31
0.0
  0
LINE
  5
10D
330
1F
100
AcDbEntity
  8
LAY-10
  6
CONTINUOUS
 62
     7
100
AcDbLine
 10
274.0861673004057
 20
175.5414896154655
 30
0.0
 11
288.0075454956334
 21
171.8112675705258
 31
0.0
  0
LINE
  5
10E
330
1F
100
AcDbEntity
  8
LAY-10
  6
CONTINUOUS
 62
     7
100
AcDbLine
 10
305.0367971220268
 20
164.1986412404982
 30
0.0
 11
295.6937874002979
 21
164.1986412404982
 31
0.0
  0
ARC
  5
10F
330
1F
100
AcDbEntity
  8
LAY-10
  6
CONTINUOUS
 62
     7
100
AcDbCircle
 10
372.5100925945886
 20
169.8794159179478
 30
0.0
 40
6.000000000000004
100
AcDbArc
 50
105.0000000000012
 51
157.2607733002354
  0
LINE
  5
110
330
1F
100
AcDbEntity
  8
LAY-10
  6
CONTINUOUS
 62
     7
100
AcDbLine
 10
289.4871664749375
 20
169.9840878304336
 30
0.0
 11
289.7020101917707
 21
165.8846255030405
 31
0.0
  0
ARC
  5
111
330
1F
100
AcDbEntity
  8
LAY-10
  6
CONTINUOUS
 62
     7
100
AcDbCircle
 10
295.6937874002982
 20
166.1986412404981
 30
0.0
 40
6.000000000000004
100
AcDbArc
 50
182.9999999999991
 51
270.0
  0
LINE
  5
112
330
1F
100
AcDbEntity
  8
LAY-10
  6
CONTINUOUS
 62
     7
100
AcDbLine
 10
293.4816846139556
 20
170.1934316554056
 30
0.0
 11
293.6965283307887
 21
166.0939693280123
 31
0.0
  0
ARC
  5
113
330
1F
100
AcDbEntity
  8
LAY-10
  6
CONTINUOUS
 62
     7
100
AcDbCircle
 10
287.4899074054282
 20
169.8794159179478
 30
0.0
 40
6.000000000000004
100
AcDbArc
 50
3.000000000001267
 51
74.99999999999885
  0
ARC
  5
114
330
1F
100
AcDbEntity
  8
LAY-10
  6
CONTINUOUS
 62
     7
100
AcDbCircle
 10
295.6937874002979
 20
166.1986412404983
 30
0.0
 40
2.0
100
AcDbArc
 50
183.0000000000024
 51
270.0
  0
ARC
  5
115
330
1F
100
AcDbEntity
  8
LAY-10
  6
CONTINUOUS
 62
     7
100
AcDbCircle
 10
287.4899074054283
 20
169.8794159179478
 30
0.0
 40
2.0
100
AcDbArc
 50
2.99999999999909
 51
74.99999999999926
  0
LINE
  5
116
330
1F
100
AcDbEntity
  8
LAY-10
  6
CONTINUOUS
 62
     7
100
AcDbLine
 10
307.5000000000078
 20
120.1986412404983
 30
0.0
 11
352.5000000000085
 21
120.1986412404983
 31
0.0
  0
LINE
  5
117
330
1F
100
AcDbEntity
  8
LAY-10
  6
CONTINUOUS
 62
     7
100
AcDbLine
 10
352.5000000000085
 20
120.1986412404983
 30
0.0
 11
353.9639052622803
 21
159.2361149010873
 31
0.0
  0
LINE
  5
118
330
1F
100
AcDbEntity
  8
LAY-10
  6
CONTINUOUS
 62
     7
100
AcDbLine
 10
350.4471884880833
 20
172.1986412404983
 30
0.0
 11
348.4971884880837
 21
120.1986412404983
 31
0.0
  0
ARC
  5
119
330
1F
100
AcDbEntity
  8
LAY-10
  6
CONTINUOUS
 62
     7
100
AcDbCircle
 10
354.9632028779895
 20
159.1986412404982
 30
0.0
 40
1.0
100
AcDbArc
 50
90.0
 51
177.8524145717036
  0
LINE
  5
11A
330
1F
100
AcDbEntity
  8
LAY-10
  6
CONTINUOUS
 62
     7
100
AcDbLine
 10
310.0332852005725
 20
159.3860095434436
 30
0.0
 11
311.5028115119327
 21
120.1986412404983
 31
0.0
  0
LINE
  5
11B
330
1F
100
AcDbEntity
  8
LAY-10
  6
CONTINUOUS
 62
     7
100
AcDbLine
 10
307.5000000000078
 20
120.1986412404983
 30
0.0
 11
306.0360947377361
 21
159.2361149010873
 31
0.0
  0
ARC
  5
11C
330
1F
100
AcDbEntity
  8
LAY-10
  6
CONTINUOUS
 62
     7
100
AcDbCircle
 10
305.0367971220268
 20
159.1986412404982
 30
0.0
 40
5.0
100
AcDbArc
 50
2.147585428297731
 51
90.0
  0
ARC
  5
11D
330
1F
100
AcDbEntity
  8
LAY-10
  6
CONTINUOUS
 62
     7
100
AcDbCircle
 10
305.0367971220271
 20
159.1986412404982
 30
0.0
 40
1.0
100
AcDbArc
 50
2.147585428296413
 51
90.0
  0
LINE
  5
11E
330
1F
100
AcDbEntity
  8
LAY-10
  6
CONTINUOUS
 62
     7
100
AcDbLine
 10
305.0367971220271
 20
160.1986412404981
 30
0.0
 11
295.6937874002982
 21
160.1986412404981
 31
0.0
  0
ARC
  5
11F
330
1F
100
AcDbEntity
  8
LAY-10
  6
CONTINUOUS
 62
     7
100
AcDbCircle
 10
249.3672954017032
 20
184.1986412405
 30
0.0
 40
1.0
100
AcDbArc
 50
90.0
 51
171.8698976458487
  0
ARC
  5
120
330
1F
100
AcDbEntity
  8
LAY-10
  6
CONTINUOUS
 62
     7
100
AcDbCircle
 10
410.6327045983131
 20
184.1986412405
 30
0.0
 40
1.0
100
AcDbArc
 50
8.130102354151399
 51
90.0
  0
LINE
  5
121
330
1F
100
AcDbEntity
  8
LAY-10
  6
CONTINUOUS
 62
     7
100
AcDbLine
 10
321.5792283833679
 20
171.2509771967428
 30
0.0
 11
321.2096311171431
 21
164.1986412404982
 31
0.0
  0
LINE
  5
122
330
1F
100
AcDbEntity
  8
LAY-10
  6
CONTINUOUS
 62
     7
100
AcDbLine
 10
322.5778579181225
 20
172.1986412405
 30
0.0
 11
330.0000000000083
 21
172.1986412405
 31
0.0
  0
ARC
  5
123
330
1F
100
AcDbEntity
  8
LAY-10
  6
CONTINUOUS
 62
     7
100
AcDbCircle
 10
322.5778579181225
 20
171.1986412405
 30
0.0
 40
1.0
100
AcDbArc
 50
90.0
 51
177.0000000000074
  0
LINE
  5
124
330
1F
100
AcDbEntity
  8
LAY-10
  6
CONTINUOUS
 62
     7
100
AcDbLine
 10
309.8528115119332
 20
164.1986412404982
 30
0.0
 11
350.2096311171366
 21
164.1986412404982
 31
0.0
  0
LINE
  5
125
330
1F
100
AcDbEntity
  8
LAY-10
  6
CONTINUOUS
 62
     7
100
AcDbLine
 10
355.500000000011
 20
163.6986412404908
 30
0.0
 11
362.5000000000065
 21
163.6986412404908
 31
0.0
  0
LINE
  5
126
330
1F
100
AcDbEntity
  8
LAY-10
  6
CONTINUOUS
 62
     7
100
AcDbLine
 10
355.500000000011
 20
163.6986412404913
 30
0.0
 11
359.0000000000092
 21
161.6779152983286
 31
0.0
  0
LINE
  5
127
330
1F
100
AcDbEntity
  8
LAY-10
  6
CONTINUOUS
 62
     7
100
AcDbLine
 10
359.0000000000092
 20
161.677915298329
 30
0.0
 11
362.500000000006
 21
163.6986412404908
 31
0.0
  0
LINE
  5
128
330
1F
100
AcDbEntity
  8
LAY-10
  6
CONTINUOUS
 62
     7
100
AcDbLine
 10
364.3062125997184
 20
160.1986412404981
 30
0.0
 11
354.9632028779894
 21
160.1986412404981
 31
0.0
  0
ARC
  5
129
330
1F
100
AcDbEntity
  8
LAY-10
  6
CONTINUOUS
 62
     7
100
AcDbCircle
 10
364.3062125997184
 20
166.1986412404981
 30
0.0
 40
6.000000000000004
100
AcDbArc
 50
270.0
 51
357.000000000001
  0
LINE
  5
12A
330
1F
100
AcDbEntity
  8
LAY-10
  6
CONTINUOUS
 62
     7
100
AcDbLine
 10
370.5128335250779
 20
169.9840878304337
 30
0.0
 11
370.2979898082446
 21
165.8846255030405
 31
0.0
  0
ARC
  5
12B
330
1F
100
AcDbEntity
  8
LAY-10
  6
CONTINUOUS
 62
     7
100
AcDbCircle
 10
372.5100925945882
 20
169.8794159179478
 30
0.0
 40
2.0
100
AcDbArc
 50
105.0000000000008
 51
177.000000000001
  0
LINE
  5
12C
330
1F
100
AcDbEntity
  8
LAY-10
  6
CONTINUOUS
 62
     7
100
AcDbLine
 10
375.5423036952168
 20
172.762446794462
 30
0.0
 11
371.9924545043831
 21
171.8112675705258
 31
0.0
  0
LINE
  5
12D
330
1F
100
AcDbEntity
  8
LAY-10
  6
CONTINUOUS
 62
     7
100
AcDbLine
 10
257.5000000000027
 20
187.9999999999873
 30
0.0
 11
269.4839567770573
 21
187.9999999999873
 31
0.0
  0
LINE
  5
12E
330
1F
100
AcDbEntity
  8
LAY-10
  6
CONTINUOUS
 62
     7
100
AcDbLine
 10
259.1094468812831
 20
183.6955944786766
 30
0.0
 11
299.0259488929029
 21
172.9999999999873
 31
0.0
  0
LINE
  5
12F
330
1F
100
AcDbEntity
  8
LAY-10
  6
CONTINUOUS
 62
     7
100
AcDbLine
 10
257.6298259019791
 20
185.5227742187689
 30
0.0
 11
257.5000000000027
 21
187.9999999999873
 31
0.0
  0
ARC
  5
130
330
1F
100
AcDbEntity
  8
LAY-10
  6
CONTINUOUS
 62
     7
100
AcDbCircle
 10
259.6270849714882
 20
185.6274461312547
 30
0.0
 40
2.0
100
AcDbArc
 50
182.9999999999975
 51
254.9999999999989
  0
LINE
  5
131
330
1F
100
AcDbEntity
  8
LAY-10
  6
CONTINUOUS
 62
     7
100
AcDbLine
 10
269.1857827935863
 20
186.2665755298144
 30
0.0
 11
269.8571462766633
 21
190.1695246617251
 31
0.0
  0
LINE
  5
132
330
1F
100
AcDbEntity
  8
LAY-10
  6
CONTINUOUS
 62
     7
100
AcDbLine
 10
402.3701740980368
 20
185.5227742187689
 30
0.0
 11
402.5000000000132
 21
187.9999999999873
 31
0.0
  0
ARC
  5
133
330
1F
100
AcDbEntity
  8
LAY-10
  6
CONTINUOUS
 62
     7
100
AcDbCircle
 10
400.3729150285277
 20
185.6274461312547
 30
0.0
 40
2.0
100
AcDbArc
 50
285.0000000000012
 51
357.0000000000025
  0
LINE
  5
134
330
1F
100
AcDbEntity
  8
LAY-10
  6
CONTINUOUS
 62
     7
100
AcDbLine
 10
402.5000000000132
 20
187.9999999999873
 30
0.0
 11
390.5160432229587
 21
187.9999999999873
 31
0.0
  0
LINE
  5
135
330
1F
100
AcDbEntity
  8
LAY-10
  6
CONTINUOUS
 62
     7
100
AcDbLine
 10
303.2903688828958
 20
176.9999999999873
 30
0.0
 11
303.5000000000279
 21
172.9999999999873
 31
0.0
  0
LINE
  5
136
330
1F
100
AcDbEntity
  8
LAY-10
  6
CONTINUOUS
 62
     7
100
AcDbLine
 10
267.9414378030807
 20
185.4701743652636
 30
0.0
 11
258.5000000000023
 21
187.9999999999873
 31
0.0
  0
LINE
  5
137
330
1F
100
AcDbEntity
  8
LAY-10
  6
CONTINUOUS
 62
     7
100
AcDbLine
 10
274.8084987583802
 20
184.9999999999872
 30
0.0
 11
274.1167549223887
 21
190.1335428446448
 31
0.0
  0
LINE
  5
138
330
1F
100
AcDbEntity
  8
LAY-10
  6
CONTINUOUS
 62
     7
100
AcDbLine
 10
392.0585621969353
 20
185.4701743652636
 30
0.0
 11
401.5000000000137
 21
187.9999999999873
 31
0.0
  0
LINE
  5
139
330
1F
100
AcDbEntity
  8
LAY-10
  6
CONTINUOUS
 62
     7
100
AcDbLine
 10
350.2620388964422
 20
177.9999999999866
 30
0.0
 11
350.0000000000271
 21
172.9999999999873
 31
0.0
  0
LINE
  5
13A
330
1F
100
AcDbEntity
  8
LAY-10
  6
CONTINUOUS
 62
     7
100
AcDbLine
 10
353.737961103614
 20
177.9999999999887
 30
0.0
 11
354.0000000000292
 21
172.9999999999873
 31
0.0
  0
LINE
  5
13B
330
1F
100
AcDbEntity
  8
LAY-10
  6
CONTINUOUS
 62
     7
100
AcDbLine
 10
299.5525588832578
 20
176.9999999999865
 30
0.0
 11
321.2096311171401
 21
176.9999999999865
 31
0.0
  0
LINE
  5
13C
330
1F
100
AcDbEntity
  8
LAY-10
  6
CONTINUOUS
 62
     7
100
AcDbLine
 10
364.2201171238803
 20
178.0108854893876
 30
0.0
 11
364.0000000000455
 21
173.8108005621864
 31
0.0
  0
LINE
  5
13D
330
1F
100
AcDbEntity
  8
LAY-10
  6
CONTINUOUS
 62
     7
100
AcDbLine
 10
350.2620388964422
 20
177.9999999999875
 30
0.0
 11
364.2195466395543
 21
177.9999999999875
 31
0.0
  0
LINE
  5
13E
330
1F
100
AcDbEntity
  8
LAY-10
  6
CONTINUOUS
 62
     7
100
AcDbLine
 10
275.8472016904296
 20
184.9999999999872
 30
0.0
 11
275.0333301200344
 21
190.1559212167469
 31
0.0
  0
ARC
  5
13F
330
1F
100
AcDbEntity
  8
LAY-10
  6
CONTINUOUS
 62
     7
100
AcDbCircle
 10
270.8426722220663
 20
189.9999999999868
 30
0.0
 40
1.0
100
AcDbArc
 50
90.0
 51
170.2398169556093
  0
ARC
  5
140
330
1F
100
AcDbEntity
  8
LAY-10
  6
CONTINUOUS
 62
     7
100
AcDbCircle
 10
273.1257118816278
 20
189.9999999999868
 30
0.0
 40
1.0
100
AcDbArc
 50
7.674368095125249
 51
90.0
  0
ARC
  5
141
330
1F
100
AcDbEntity
  8
LAY-10
  6
CONTINUOUS
 62
     7
100
AcDbCircle
 10
274.0455606255854
 20
189.9999999999868
 30
0.0
 40
1.0
100
AcDbArc
 50
8.970227702042646
 51
90.0
  0
ARC
  5
142
330
1F
100
AcDbEntity
  8
LAY-10
  6
CONTINUOUS
 62
     7
100
AcDbCircle
 10
292.6942174379399
 20
184.5788383248719
 30
0.0
 40
1.0
100
AcDbArc
 50
270.0
 51
359.148246592244
  0
ARC
  5
143
330
1F
100
AcDbEntity
  8
LAY-10
  6
CONTINUOUS
 62
     7
100
AcDbCircle
 10
318.3773427992717
 20
184.5788383248719
 30
0.0
 40
1.0
100
AcDbArc
 50
270.0
 51
354.5022251437688
  0
ARC
  5
144
330
1F
100
AcDbEntity
  8
LAY-10
  6
CONTINUOUS
 62
     7
100
AcDbCircle
 10
313.234161166137
 20
184.5788383248719
 30
0.0
 40
1.0
100
AcDbArc
 50
189.7993784458768
 51
270.0
  0
LINE
  5
145
330
1F
100
AcDbEntity
  8
LAY-10
  6
CONTINUOUS
 62
     7
100
AcDbLine
 10
313.234161166137
 20
183.5788383248719
 30
0.0
 11
318.3773427992717
 21
183.5788383248719
 31
0.0
  0
ARC
  5
146
330
1F
100
AcDbEntity
  8
LAY-10
  6
CONTINUOUS
 62
     7
100
AcDbCircle
 10
309.4261244867301
 20
188.9999999999869
 30
0.0
 40
2.0
100
AcDbArc
 50
9.799378445873586
 51
90.0
  0
ARC
  5
147
330
1F
100
AcDbEntity
  8
LAY-10
  6
CONTINUOUS
 62
     7
100
AcDbCircle
 10
341.6226572007442
 20
184.5788383248719
 30
0.0
 40
1.0
100
AcDbArc
 50
185.4977748562312
 51
270.0
  0
ARC
  5
148
330
1F
100
AcDbEntity
  8
LAY-10
  6
CONTINUOUS
 62
     7
100
AcDbCircle
 10
346.7658388338789
 20
184.5788383248719
 30
0.0
 40
1.0
100
AcDbArc
 50
270.0
 51
350.2006215541233
  0
LINE
  5
149
330
1F
100
AcDbEntity
  8
LAY-10
  6
CONTINUOUS
 62
     7
100
AcDbLine
 10
346.7658388338789
 20
183.5788383248719
 30
0.0
 11
341.6226572007442
 21
183.5788383248719
 31
0.0
  0
ARC
  5
14A
330
1F
100
AcDbEntity
  8
LAY-10
  6
CONTINUOUS
 62
     7
100
AcDbCircle
 10
350.5738755132857
 20
188.9999999999869
 30
0.0
 40
2.0
100
AcDbArc
 50
90.0
 51
170.2006215541249
  0
ARC
  5
14B
330
1F
100
AcDbEntity
  8
LAY-10
  6
CONTINUOUS
 62
     7
100
AcDbCircle
 10
373.545116036061
 20
189.9999999999868
 30
0.0
 40
1.0
100
AcDbArc
 50
90.0
 51
169.1947564657618
  0
LINE
  5
14C
330
1F
100
AcDbEntity
  8
LAY-10
  6
CONTINUOUS
 62
     7
100
AcDbLine
 10
370.4743600970249
 20
183.5788383248719
 30
0.0
 11
367.3057825620762
 21
183.5788383248719
 31
0.0
  0
ARC
  5
14D
330
1F
100
AcDbEntity
  8
LAY-10
  6
CONTINUOUS
 62
     7
100
AcDbCircle
 10
370.4743600970249
 20
184.5788383248719
 30
0.0
 40
1.0
100
AcDbArc
 50
270.0
 51
349.1947564657618
  0
LINE
  5
14E
330
1F
100
AcDbEntity
  8
LAY-10
  6
CONTINUOUS
 62
     7
100
AcDbLine
 10
373.545116036061
 20
190.9999999999868
 30
0.0
 11
389.1573277779496
 21
190.9999999999868
 31
0.0
  0
ARC
  5
14F
330
1F
100
AcDbEntity
  8
LAY-10
  6
CONTINUOUS
 62
     7
100
AcDbCircle
 10
386.8742881183882
 20
189.9999999999868
 30
0.0
 40
1.0
100
AcDbArc
 50
90.0
 51
172.3256319048747
  0
ARC
  5
150
330
1F
100
AcDbEntity
  8
LAY-10
  6
CONTINUOUS
 62
     7
100
AcDbCircle
 10
385.9544393744306
 20
189.9999999999868
 30
0.0
 40
1.0
100
AcDbArc
 50
90.0
 51
171.0297722979574
  0
ARC
  5
151
330
1F
100
AcDbEntity
  8
LAY-10
  6
CONTINUOUS
 62
     7
100
AcDbCircle
 10
383.6387704908067
 20
189.9999999999868
 30
0.0
 40
1.0
100
AcDbArc
 50
90.0
 51
175.2808008265496
  0
ARC
  5
152
330
1F
100
AcDbEntity
  8
LAY-10
  6
CONTINUOUS
 62
     7
100
AcDbCircle
 10
389.1573277779496
 20
189.9999999999868
 30
0.0
 40
1.0
100
AcDbArc
 50
9.76018304439084
 51
90.0
  0
LINE
  5
153
330
1F
100
AcDbEntity
  8
LAY-10
  6
CONTINUOUS
 62
     7
100
AcDbLine
 10
330.000000000008
 20
177.9999999999864
 30
0.0
 11
321.2620388964232
 21
177.9999999999864
 31
0.0
  0
LINE
  5
154
330
1F
100
AcDbEntity
  8
LAY-10
  6
CONTINUOUS
 62
     7
100
AcDbLine
 10
321.2620388964232
 20
177.9999999999865
 30
0.0
 11
321.000000000008
 21
172.9999999999873
 31
0.0
  0
LINE
  5
155
330
1F
100
AcDbEntity
  8
LAY-10
  6
CONTINUOUS
 62
     7
100
AcDbLine
 10
330.000000000008
 20
176.9999999999865
 30
0.0
 11
350.2096311171591
 21
176.9999999999865
 31
0.0
  0
ARC
  5
156
330
1F
100
AcDbEntity
  8
LAY-10
  6
CONTINUOUS
 62
     7
100
AcDbCircle
 10
268.2002568481832
 20
186.4361001915526
 30
0.0
 40
1.0
100
AcDbArc
 50
254.9999999999989
 51
350.2398169556125
  0
ARC
  5
157
330
1F
100
AcDbEntity
  8
LAY-10
  6
CONTINUOUS
 62
     7
100
AcDbCircle
 10
391.7997431518327
 20
186.4361001915526
 30
0.0
 40
1.0
100
AcDbArc
 50
189.7601830443876
 51
284.999999999998
  0
LINE
  5
158
330
1F
100
AcDbEntity
  8
LAY-10
  6
CONTINUOUS
 62
     7
100
AcDbLine
 10
384.1527983095861
 20
184.9999999999858
 30
0.0
 11
384.9666698799816
 21
190.1559212167469
 31
0.0
  0
LINE
  5
159
330
1F
100
AcDbEntity
  8
LAY-10
  6
CONTINUOUS
 62
     7
100
AcDbLine
 10
376.500000000008
 20
184.9999999999858
 30
0.0
 11
385.1915012416356
 21
184.9999999999858
 31
0.0
  0
LINE
  5
15A
330
1F
100
AcDbEntity
  8
LAY-10
  6
CONTINUOUS
 62
     7
100
AcDbLine
 10
376.5000000000096
 20
184.9999999999899
 30
0.0
 11
376.303396962289
 21
181.2485905640198
 31
0.0
  0
LINE
  5
15B
330
1F
100
AcDbEntity
  8
LAY-10
  6
CONTINUOUS
 62
     7
100
AcDbLine
 10
325.8623282730008
 20
182.37306695893
 30
0.0
 11
326.0000000000078
 21
184.9999999999871
 31
0.0
  0
ARC
  5
15C
330
1F
100
AcDbEntity
  8
LAY-10
  6
CONTINUOUS
 62
     7
100
AcDbCircle
 10
330.000000000008
 20
189.4234062233021
 30
0.0
 40
8.174815659282258
100
AcDbArc
 50
239.5923694531414
 51
270.0
  0
LINE
  5
15D
330
1F
100
AcDbEntity
  8
LAY-10
  6
CONTINUOUS
 62
     7
100
AcDbLine
 10
299.5525588832605
 20
176.9999999999865
 30
0.0
 11
285.7250882896269
 21
180.705059578916
 31
0.0
  0
LINE
  5
15E
330
1F
100
AcDbEntity
  8
LAY-10
  6
CONTINUOUS
 62
     7
100
AcDbLine
 10
285.7250882896258
 20
180.7050595789198
 30
0.0
 11
285.5000000000048
 21
184.9999999999872
 31
0.0
  0
LINE
  5
15F
330
1F
100
AcDbEntity
  8
LAY-10
  6
CONTINUOUS
 62
     7
100
AcDbLine
 10
289.525639902991
 20
183.5788383248719
 30
0.0
 11
292.6942174379399
 21
183.5788383248719
 31
0.0
  0
ARC
  5
160
330
1F
100
AcDbEntity
  8
LAY-10
  6
CONTINUOUS
 62
     7
100
AcDbCircle
 10
289.525639902991
 20
184.5788383248719
 30
0.0
 40
1.0
100
AcDbArc
 50
190.8052435342383
 51
270.0
  0
LINE
  5
161
330
1F
100
AcDbEntity
  8
LAY-10
  6
CONTINUOUS
 62
     7
100
AcDbLine
 10
336.1376717270164
 20
182.37306695893
 30
0.0
 11
336.0000000000093
 21
184.9999999999871
 31
0.0
  0
ARC
  5
162
330
1F
100
AcDbEntity
  8
LAY-10
  6
CONTINUOUS
 62
     7
100
AcDbCircle
 10
330.000000000008
 20
192.8312837590738
 30
0.0
 40
12.12622418015382
100
AcDbArc
 50
270.0
 51
300.4076305467834
  0
LINE
  5
163
330
1F
100
AcDbEntity
  8
LAY-10
  6
CONTINUOUS
 62
     7
100
AcDbLine
 10
390.8142172064296
 20
186.2665755298144
 30
0.0
 11
389.9999999999602
 21
190.9999999999868
 31
0.0
  0
LINE
  5
164
330
1F
100
AcDbEntity
  8
LAY-10
  6
CONTINUOUS
 62
     7
100
AcDbLine
 10
385.1915012416368
 20
184.9999999999902
 30
0.0
 11
386.0000000000064
 21
190.9999999999868
 31
0.0
  0
LINE
  5
165
330
1F
100
AcDbEntity
  8
LAY-10
  6
CONTINUOUS
 62
     7
100
AcDbLine
 10
410.6327045983131
 20
185.1986412404999
 30
0.0
 11
402.326405843878
 21
185.1986412404999
 31
0.0
  0
LINE
  5
166
330
1F
100
AcDbEntity
  8
LAY-10
  6
CONTINUOUS
 62
     7
100
AcDbLine
 10
257.6735941561381
 20
185.1986412404999
 30
0.0
 11
249.3672954017032
 21
185.1986412404999
 31
0.0
  0
LINE
  5
167
330
1F
100
AcDbEntity
  8
LAY-10
  6
CONTINUOUS
 62
     7
100
AcDbLine
 10
355.0000000000102
 20
165.6986412404935
 30
0.0
 11
363.0000000000101
 21
165.6986412404935
 31
0.0
  0
LINE
  5
168
330
1F
100
AcDbEntity
  8
LAY-10
  6
CONTINUOUS
 62
     7
100
AcDbLine
 10
355.000000000009
 20
165.698641240494
 30
0.0
 11
355.5000000000091
 21
165.1986412404949
 31
0.0
  0
LINE
  5
169
330
1F
100
AcDbEntity
  8
LAY-10
  6
CONTINUOUS
 62
     7
100
AcDbLine
 10
362.500000000009
 20
165.1986412404949
 30
0.0
 11
363.0000000000091
 21
165.698641240494
 31
0.0
  0
LINE
  5
16A
330
1F
100
AcDbEntity
  8
LAY-10
  6
CONTINUOUS
 62
     7
100
AcDbLine
 10
355.000000000009
 20
214.6986412404981
 30
0.0
 11
363.0000000000091
 21
214.6986412404981
 31
0.0
  0
LINE
  5
16B
330
1F
100
AcDbEntity
  8
LAY-10
  6
CONTINUOUS
 62
     7
100
AcDbLine
 10
355.5000000000086
 20
215.1986412404956
 30
0.0
 11
362.5000000000072
 21
215.1986412404956
 31
0.0
  0
LINE
  5
16C
330
1F
100
AcDbEntity
  8
LAY-10
  6
CONTINUOUS
 62
     7
100
AcDbLine
 10
363.0000000000091
 20
214.6986412404999
 30
0.0
 11
362.500000000009
 21
215.1986412404999
 31
0.0
  0
LINE
  5
16D
330
1F
100
AcDbEntity
  8
LAY-10
  6
CONTINUOUS
 62
     7
100
AcDbLine
 10
355.5000000000091
 20
215.1986412404999
 30
0.0
 11
355.000000000009
 21
214.6986412404999
 31
0.0
  0
LINE
  5
16E
330
1F
100
AcDbEntity
  8
LAY-10
  6
CONTINUOUS
 62
     7
100
AcDbLine
 10
367.000000000009
 20
177.999999999985
 30
0.0
 11
367.000000000009
 21
184.0519999999851
 31
0.0
  0
LINE
  5
16F
330
1F
100
AcDbEntity
  8
LAY-10
  6
CONTINUOUS
 62
     7
100
AcDbLine
 10
363.0000000000091
 20
177.999999999985
 30
0.0
 11
363.0000000000091
 21
184.0519999999851
 31
0.0
  0
LINE
  5
170
330
1F
100
AcDbEntity
  8
LAY-10
  6
CONTINUOUS
 62
     7
100
AcDbLine
 10
355.000000000009
 20
177.999999999985
 30
0.0
 11
355.000000000009
 21
184.0519999999851
 31
0.0
  0
LINE
  5
171
330
1F
100
AcDbEntity
  8
LAY-10
  6
CONTINUOUS
 62
     7
100
AcDbLine
 10
351.0000000000091
 20
177.999999999985
 30
0.0
 11
351.0000000000091
 21
184.0519999999851
 31
0.0
  0
ARC
  5
172
330
1F
100
AcDbEntity
  8
LAY-10
  6
CONTINUOUS
 62
     7
100
AcDbCircle
 10
365.000000000009
 20
181.7522032085412
 30
0.0
 40
3.047796791443853
100
AcDbArc
 50
48.98840640770536
 51
131.0115935922962
  0
ARC
  5
173
330
1F
100
AcDbEntity
  8
LAY-10
  6
CONTINUOUS
 62
     7
100
AcDbCircle
 10
359.000000000009
 20
173.7308128342097
 30
0.0
 40
11.06918716577541
100
AcDbArc
 50
68.81604434177181
 51
111.1839556582276
  0
ARC
  5
174
330
1F
100
AcDbEntity
  8
LAY-10
  6
CONTINUOUS
 62
     7
100
AcDbCircle
 10
353.000000000009
 20
181.7522032085412
 30
0.0
 40
3.047796791443853
100
AcDbArc
 50
48.98840640770536
 51
131.0115935922962
  0
LINE
  5
175
330
1F
100
AcDbEntity
  8
LAY-10
  6
CONTINUOUS
 62
     7
100
AcDbLine
 10
365.000000000009
 20
184.7999999999849
 30
0.0
 11
353.000000000009
 21
184.7999999999849
 31
0.0
  0
LINE
  5
176
330
1F
100
AcDbEntity
  8
LAY-10
  6
CONTINUOUS
 62
     7
100
AcDbLine
 10
351.0000000000091
 20
177.999999999985
 30
0.0
 11
367.000000000009
 21
177.999999999985
 31
0.0
  0
LINE
  5
177
330
1F
100
AcDbEntity
  8
LAY-10
  6
CONTINUOUS
 62
     7
100
AcDbLine
 10
355.000000000009
 20
165.698641240494
 30
0.0
 11
355.000000000009
 21
177.999999999985
 31
0.0
  0
LINE
  5
178
330
1F
100
AcDbEntity
  8
LAY-10
  6
CONTINUOUS
 62
     7
100
AcDbLine
 10
355.000000000009
 20
184.7999999999899
 30
0.0
 11
355.000000000009
 21
214.6986412404981
 31
0.0
  0
LINE
  5
179
330
1F
100
AcDbEntity
  8
LAY-10
  6
CONTINUOUS
 62
     7
100
AcDbLine
 10
363.0000000000091
 20
165.698641240494
 30
0.0
 11
363.0000000000091
 21
177.999999999985
 31
0.0
  0
LINE
  5
17A
330
1F
100
AcDbEntity
  8
LAY-10
  6
CONTINUOUS
 62
     7
100
AcDbLine
 10
363.0000000000091
 20
184.7999999999899
 30
0.0
 11
363.0000000000091
 21
214.6986412404981
 31
0.0
  0
LINE
  5
17B
330
1F
100
AcDbEntity
  8
LAY-10
  6
CONTINUOUS
 62
     7
100
AcDbLine
 10
362.500000000006
 20
165.1986412404949
 30
0.0
 11
362.500000000006
 21
163.6986412404899
 31
0.0
  0
LINE
  5
17C
330
1F
100
AcDbEntity
  8
LAY-10
  6
CONTINUOUS
 62
     7
100
AcDbLine
 10
355.500000000011
 20
165.1986412404949
 30
0.0
 11
355.500000000011
 21
163.6986412404899
 31
0.0
  0
LINE
  5
17D
330
1F
100
AcDbEntity
  8
LAY-10
  6
CONTINUOUS
 62
     7
100
AcDbLine
 10
355.5000000000086
 20
172.1986412404983
 30
0.0
 11
350.4471884880833
 21
172.1986412404983
 31
0.0
  0
LINE
  5
17E
330
1F
100
AcDbEntity
  8
LAY-10
  6
CONTINUOUS
 62
     7
100
AcDbLine
 10
366.9764505838292
 20
172.1986412404983
 30
0.0
 11
362.5000000000072
 21
172.1986412404983
 31
0.0
  0
LINE
  5
17F
330
1F
100
AcDbEntity
  8
LAY-10
  6
CONTINUOUS
 62
     7
100
AcDbLine
 10
400.8905531187328
 20
183.6955944786766
 30
0.0
 11
363.0000000000091
 21
173.5428513697454
 31
0.0
  0
LINE
  5
180
330
1F
100
AcDbEntity
  8
LAY-10
  6
CONTINUOUS
 62
     7
100
AcDbLine
 10
299.0259488929041
 20
172.9999999999873
 30
0.0
 11
355.000000000009
 21
172.9999999999873
 31
0.0
  0
LINE
  5
181
330
1F
100
AcDbEntity
  8
LAY-10
  6
CONTINUOUS
 62
     7
100
AcDbLine
 10
364.1794919243281
 20
177.9999999999875
 30
0.0
 11
364.2201171238809
 21
178.0108854894
 31
0.0
  0
LINE
  5
182
330
1F
100
AcDbEntity
  8
LAY-10
  6
CONTINUOUS
 62
     7
100
AcDbLine
 10
367.000000000009
 20
178.7557528611118
 30
0.0
 11
376.3033969622876
 21
181.248590564021
 31
0.0
  0
LINE
  5
183
330
1F
100
AcDbEntity
  8
LAY-10
  6
CONTINUOUS
 62
     7
100
AcDbLine
 10
294.5000000000083
 20
160.3186011349453
 30
0.0
 11
294.5000000000083
 21
105.1986412405
 31
0.0
  0
LINE
  5
184
330
1F
100
AcDbEntity
  8
LAY-10
  6
CONTINUOUS
 62
     7
100
AcDbLine
 10
292.0000000000083
 20
160.31860113495
 30
0.0
 11
292.0000000000083
 21
105.1986412405
 31
0.0
  0
LINE
  5
185
330
1F
100
AcDbEntity
  8
LAY-10
  6
CONTINUOUS
 62
     7
100
AcDbLine
 10
294.500000000008
 20
160.31860113495
 30
0.0
 11
292.000000000008
 21
160.31860113495
 31
0.0
  0
LINE
  5
186
330
1F
100
AcDbEntity
  8
LAY-10
  6
CONTINUOUS
 62
     7
100
AcDbLine
 10
365.5000000000083
 20
160.3186011349453
 30
0.0
 11
365.5000000000083
 21
105.1986412405
 31
0.0
  0
LINE
  5
187
330
1F
100
AcDbEntity
  8
LAY-10
  6
CONTINUOUS
 62
     7
100
AcDbLine
 10
368.0000000000083
 20
160.31860113495
 30
0.0
 11
368.0000000000083
 21
105.1986412405
 31
0.0
  0
LINE
  5
188
330
1F
100
AcDbEntity
  8
LAY-10
  6
CONTINUOUS
 62
     7
100
AcDbLine
 10
365.5000000000086
 20
160.31860113495
 30
0.0
 11
368.0000000000086
 21
160.31860113495
 31
0.0
  0
LINE
  5
189
330
1F
100
AcDbEntity
  8
LAY-10
  6
CONTINUOUS
 62
     7
100
AcDbLine
 10
292.0000000000083
 20
105.1986412405
 30
0.0
 11
368.0000000000083
 21
105.1986412405
 31
0.0
  0
LINE
  5
18A
330
1F
100
AcDbEntity
  8
LAY-10
  6
CONTINUOUS
 62
     7
100
AcDbLine
 10
304.2334406506233
 20
254.3792895532117
 30
0.0
 11
292.0000000000072
 21
184.9999999999905
 31
0.0
  0
LINE
  5
18B
330
1F
100
AcDbEntity
  8
LAY-10
  6
CONTINUOUS
 62
     7
100
AcDbLine
 10
289.2607459077775
 20
192.4999999999906
 30
0.0
 11
300.2942096385743
 21
255.0738822638793
 31
0.0
  0
ARC
  5
18C
330
1F
100
AcDbEntity
  8
LAY-10
  6
CONTINUOUS
 62
     7
100
AcDbCircle
 10
330.0000000000106
 20
249.8359499398895
 30
0.0
 40
30.16405006010154
100
AcDbArc
 50
9.999999999998629
 51
170.0000000000014
  0
ARC
  5
18D
330
1F
100
AcDbEntity
  8
LAY-10
  6
CONTINUOUS
 62
     7
100
AcDbCircle
 10
330.0000000000106
 20
249.8359499398895
 30
0.0
 40
26.16405006010154
100
AcDbArc
 50
9.999999999998112
 51
170.0000000000015
  0
LINE
  5
18E
330
1F
100
AcDbEntity
  8
LAY-10
  6
CONTINUOUS
 62
     7
100
AcDbLine
 10
312.0000000000106
 20
268.8243020418361
 30
0.0
 11
313.0000000000043
 21
274.7532113469563
 31
0.0
  0
ARC
  5
18F
330
1F
100
AcDbEntity
  8
LAY-10
  6
CONTINUOUS
 62
     7
100
AcDbCircle
 10
330.0000000000106
 20
265.0938096603787
 30
0.0
 40
3.730492381458874
100
AcDbArc
 50
1.349076965903709
 51
178.6509230340963
  0
ARC
  5
190
330
1F
100
AcDbEntity
  8
LAY-10
  6
CONTINUOUS
 62
     7
100
AcDbCircle
 10
317.5933456024865
 20
265.6138725967052
 30
0.0
 40
3.210429445133516
100
AcDbArc
 50
356.669406300782
 51
174.3469630849121
  0
ARC
  5
191
330
1F
100
AcDbEntity
  8
LAY-10
  6
CONTINUOUS
 62
     7
100
AcDbCircle
 10
308.6934620797921
 20
266.9979261404718
 30
0.0
 40
1.826375901364543
100
AcDbArc
 50
352.9117936058616
 51
8.831625653220806
  0
ARC
  5
192
330
1F
100
AcDbEntity
  8
LAY-10
  6
CONTINUOUS
 62
     7
100
AcDbCircle
 10
316.591653682086
 20
265.6138725967052
 30
0.0
 40
3.210429445133516
100
AcDbArc
 50
356.669406300782
 51
81.02485973960061
  0
ARC
  5
193
330
1F
100
AcDbEntity
  8
LAY-10
  6
CONTINUOUS
 62
     7
100
AcDbCircle
 10
342.4066543975347
 20
265.6138725967052
 30
0.0
 40
3.210429445133516
100
AcDbArc
 50
5.653036915087845
 51
183.3305936992181
  0
ARC
  5
194
330
1F
100
AcDbEntity
  8
LAY-10
  6
CONTINUOUS
 62
     7
100
AcDbCircle
 10
351.3065379202291
 20
266.9979261404718
 30
0.0
 40
1.826375901364543
100
AcDbArc
 50
171.1683743467793
 51
187.0882063941384
  0
ARC
  5
195
330
1F
100
AcDbEntity
  8
LAY-10
  6
CONTINUOUS
 62
     7
100
AcDbCircle
 10
343.4083463179352
 20
265.6138725967052
 30
0.0
 40
3.210429445133516
100
AcDbArc
 50
98.97514026039939
 51
183.3305936992181
  0
LINE
  5
196
330
1F
100
AcDbEntity
  8
LAY-10
  6
CONTINUOUS
 62
     7
100
AcDbLine
 10
348.0000000000106
 20
268.8243020418361
 30
0.0
 11
347.0000000000168
 21
274.7532113469563
 31
0.0
  0
LINE
  5
197
330
1F
100
AcDbEntity
  8
LAY-10
  6
CONTINUOUS
 62
     7
100
AcDbLine
 10
345.6014703818846
 20
265.9301130879554
 30
0.0
 11
353.216436900788
 21
188.9999999999901
 31
0.0
  0
LINE
  5
198
330
1F
100
AcDbEntity
  8
LAY-10
  6
CONTINUOUS
 62
     7
100
AcDbLine
 10
344.6510592587897
 20
188.9999999999901
 30
0.0
 11
340.2033394892294
 21
265.4273559751142
 31
0.0
  0
LINE
  5
199
330
1F
100
AcDbEntity
  8
LAY-10
  6
CONTINUOUS
 62
     7
100
AcDbLine
 10
339.2016475688316
 20
265.4273559751143
 30
0.0
 11
343.6493673383919
 21
188.9999999999901
 31
0.0
  0
LINE
  5
19A
330
1F
100
AcDbEntity
  8
LAY-10
  6
CONTINUOUS
 62
     7
100
AcDbLine
 10
333.7294583249258
 20
265.1816391020965
 30
0.0
 11
335.5235501872169
 21
188.9999999999901
 31
0.0
  0
LINE
  5
19B
330
1F
100
AcDbEntity
  8
LAY-10
  6
CONTINUOUS
 62
     7
100
AcDbLine
 10
326.2705416750954
 20
265.1816391020965
 30
0.0
 11
324.4764498128043
 21
188.9999999999901
 31
0.0
  0
LINE
  5
19C
330
1F
100
AcDbEntity
  8
LAY-10
  6
CONTINUOUS
 62
     7
100
AcDbLine
 10
320.7983524311895
 20
265.4273559751143
 30
0.0
 11
316.3506326616292
 21
188.9999999999901
 31
0.0
  0
LINE
  5
19D
330
1F
100
AcDbEntity
  8
LAY-10
  6
CONTINUOUS
 62
     7
100
AcDbLine
 10
315.3489407412314
 20
188.9999999999901
 30
0.0
 11
319.7966605107918
 21
265.4273559751142
 31
0.0
  0
LINE
  5
19E
330
1F
100
AcDbEntity
  8
LAY-10
  6
CONTINUOUS
 62
     7
100
AcDbLine
 10
314.3985296181366
 20
265.9301130879554
 30
0.0
 11
306.7835630992332
 21
188.9999999999901
 31
0.0
  0
LINE
  5
19F
330
1F
100
AcDbEntity
  8
LAY-10
  6
CONTINUOUS
 62
     7
100
AcDbLine
 10
310.505879645175
 20
266.7725564402559
 30
0.0
 11
300.8350520915602
 21
188.9999999999901
 31
0.0
  0
LINE
  5
1A0
330
1F
100
AcDbEntity
  8
LAY-10
  6
CONTINUOUS
 62
     7
100
AcDbLine
 10
298.8196490892414
 20
188.9999999999901
 30
0.0
 11
308.1796734541622
 21
264.2730848696476
 31
0.0
  0
LINE
  5
1A1
330
1F
100
AcDbEntity
  8
LAY-10
  6
CONTINUOUS
 62
     7
100
AcDbLine
 10
305.768602694114
 20
259.7049367243212
 30
0.0
 11
295.311501904358
 21
188.9999999999901
 31
0.0
  0
LINE
  5
1A2
330
1F
100
AcDbEntity
  8
LAY-10
  6
CONTINUOUS
 62
     7
100
AcDbLine
 10
353.2164369007879
 20
188.9999999999901
 30
0.0
 11
343.6493673383879
 21
188.9999999999901
 31
0.0
  0
LINE
  5
1A3
330
1F
100
AcDbEntity
  8
LAY-10
  6
CONTINUOUS
 62
     7
100
AcDbLine
 10
335.523550187218
 20
188.9999999999901
 30
0.0
 11
324.476449812808
 21
188.9999999999901
 31
0.0
  0
LINE
  5
1A4
330
1F
100
AcDbEntity
  8
LAY-10
  6
CONTINUOUS
 62
     7
100
AcDbLine
 10
316.350632661628
 20
188.9999999999901
 30
0.0
 11
306.783563099238
 21
188.9999999999901
 31
0.0
  0
LINE
  5
1A5
330
1F
100
AcDbEntity
  8
LAY-10
  6
CONTINUOUS
 62
     7
100
AcDbLine
 10
300.8350520915579
 20
188.9999999999901
 30
0.0
 11
295.311501904358
 21
188.9999999999901
 31
0.0
  0
LINE
  5
1A6
330
1F
100
AcDbEntity
  8
LAY-10
  6
CONTINUOUS
 62
     7
100
AcDbLine
 10
285.3930583446312
 20
184.9999999999905
 30
0.0
 11
285.0000000000083
 21
192.4999999999906
 31
0.0
  0
ARC
  5
1A7
330
1F
100
AcDbEntity
  8
LAY-10
  6
CONTINUOUS
 62
     7
100
AcDbCircle
 10
381.3924397494529
 20
186.9999999999905
 30
0.0
 40
2.0
100
AcDbArc
 50
270.0
 51
357.000000000001
  0
LINE
  5
1A8
330
1F
100
AcDbEntity
  8
LAY-10
  6
CONTINUOUS
 62
     7
100
AcDbLine
 10
383.389698818962
 20
186.8953280875046
 30
0.0
 11
383.5000000000147
 21
188.9999999999902
 31
0.0
  0
LINE
  5
1A9
330
1F
100
AcDbEntity
  8
LAY-10
  6
CONTINUOUS
 62
     7
100
AcDbLine
 10
293.3224523553158
 20
192.4999999999906
 30
0.0
 11
276.683427227497
 21
192.4999999999906
 31
0.0
  0
LINE
  5
1AA
330
1F
100
AcDbEntity
  8
LAY-10
  6
CONTINUOUS
 62
     7
100
AcDbLine
 10
366.6775476447007
 20
192.4999999999906
 30
0.0
 11
370.7392540922438
 21
192.4999999999906
 31
0.0
  0
LINE
  5
1AB
330
1F
100
AcDbEntity
  8
LAY-10
  6
CONTINUOUS
 62
     7
100
AcDbLine
 10
371.3563985247233
 20
188.9999999999905
 30
0.0
 11
359.7057903614468
 21
255.0738822638793
 31
0.0
  0
LINE
  5
1AC
330
1F
100
AcDbEntity
  8
LAY-10
  6
CONTINUOUS
 62
     7
100
AcDbLine
 10
383.500000000018
 20
188.9999999999905
 30
0.0
 11
371.3563985247233
 21
188.9999999999905
 31
0.0
  0
LINE
  5
1AD
330
1F
100
AcDbEntity
  8
LAY-10
  6
CONTINUOUS
 62
     7
100
AcDbLine
 10
288.427209144625
 20
184.9999999999905
 30
0.0
 11
288.5433698049397
 21
184.3913671151506
 31
0.0
  0
LINE
  5
1AE
330
1F
100
AcDbEntity
  8
LAY-10
  6
CONTINUOUS
 62
     7
100
AcDbLine
 10
293.6941069424629
 20
184.5639729710338
 30
0.0
 11
293.7005893548085
 21
184.9999999999905
 31
0.0
  0
LINE
  5
1AF
330
1F
100
AcDbEntity
  8
LAY-10
  6
CONTINUOUS
 62
     7
100
AcDbLine
 10
295.6072973968427
 20
190.9999999999868
 30
0.0
 11
299.0683442073201
 21
190.9999999999868
 31
0.0
  0
LINE
  5
1B0
330
1F
100
AcDbEntity
  8
LAY-10
  6
CONTINUOUS
 62
     7
100
AcDbLine
 10
306.9815341202866
 20
190.9999999999868
 30
0.0
 11
309.4261244867301
 21
190.9999999999868
 31
0.0
  0
LINE
  5
1B1
330
1F
100
AcDbEntity
  8
LAY-10
  6
CONTINUOUS
 62
     7
100
AcDbLine
 10
311.4557370518363
 20
188.9999999999901
 30
0.0
 11
311.3969439765031
 21
189.3403976185621
 31
0.0
  0
LINE
  5
1B2
330
1F
100
AcDbEntity
  8
LAY-10
  6
CONTINUOUS
 62
     7
100
AcDbLine
 10
312.2487514212506
 20
184.4086395155842
 30
0.0
 11
312.1466123356287
 21
184.9999999999905
 31
0.0
  0
LINE
  5
1B3
330
1F
100
AcDbEntity
  8
LAY-10
  6
CONTINUOUS
 62
     7
100
AcDbLine
 10
319.372742719162
 20
184.4830312297154
 30
0.0
 11
319.4225008868863
 21
184.9999999999905
 31
0.0
  0
LINE
  5
1B4
330
1F
100
AcDbEntity
  8
LAY-10
  6
CONTINUOUS
 62
     7
100
AcDbLine
 10
324.5235501872104
 20
190.9999999999868
 30
0.0
 11
335.4764498128108
 21
190.9999999999868
 31
0.0
  0
LINE
  5
1B5
330
1F
100
AcDbEntity
  8
LAY-10
  6
CONTINUOUS
 62
     7
100
AcDbLine
 10
340.6272572808539
 20
184.4830312297154
 30
0.0
 11
340.5774991131296
 21
184.9999999999905
 31
0.0
  0
LINE
  5
1B6
330
1F
100
AcDbEntity
  8
LAY-10
  6
CONTINUOUS
 62
     7
100
AcDbLine
 10
347.7512485787652
 20
184.4086395155842
 30
0.0
 11
347.8533876643871
 21
184.9999999999905
 31
0.0
  0
LINE
  5
1B7
330
1F
100
AcDbEntity
  8
LAY-10
  6
CONTINUOUS
 62
     7
100
AcDbLine
 10
348.5442629481796
 20
188.9999999999901
 30
0.0
 11
348.6030560235129
 21
189.3403976185621
 31
0.0
  0
LINE
  5
1B8
330
1F
100
AcDbEntity
  8
LAY-10
  6
CONTINUOUS
 62
     7
100
AcDbLine
 10
350.5738755132857
 20
190.9999999999868
 30
0.0
 11
353.0184658797346
 21
190.9999999999868
 31
0.0
  0
LINE
  5
1B9
330
1F
100
AcDbEntity
  8
LAY-10
  6
CONTINUOUS
 62
     7
100
AcDbLine
 10
382.2226071888451
 20
184.9999999999858
 30
0.0
 11
382.238092226427
 21
185.187578446326
 31
0.0
  0
LINE
  5
1BA
330
1F
100
AcDbEntity
  8
LAY-10
  6
CONTINUOUS
 62
     7
100
AcDbLine
 10
382.5528165041276
 20
188.9999999999905
 30
0.0
 11
382.6421606166173
 21
190.0822724660268
 31
0.0
  0
LINE
  5
1BB
330
1F
100
AcDbEntity
  8
LAY-10
  6
CONTINUOUS
 62
     7
100
AcDbLine
 10
372.5628459380097
 20
190.1874712097081
 30
0.0
 11
372.3362110596431
 21
188.9999999999905
 31
0.0
  0
LINE
  5
1BC
330
1F
100
AcDbEntity
  8
LAY-10
  6
CONTINUOUS
 62
     7
100
AcDbLine
 10
371.5727908553909
 20
184.9999999999905
 30
0.0
 11
371.4566301950761
 21
184.3913671151506
 31
0.0
  0
ARC
  5
1BD
330
1F
100
AcDbEntity
  8
LAY-10
  6
CONTINUOUS
 62
     7
100
AcDbCircle
 10
367.3057825620762
 20
184.5788383248719
 30
0.0
 40
1.0
100
AcDbArc
 50
180.8517534077561
 51
184.2456134490406
  0
ARC
  5
1BE
330
1F
100
AcDbEntity
  8
LAY-10
  6
CONTINUOUS
 62
     7
100
AcDbCircle
 10
367.3057825620762
 20
184.5788383248719
 30
0.0
 40
1.0
100
AcDbArc
 50
252.1947490988187
 51
270.0
  0
LINE
  5
1BF
330
1F
100
AcDbEntity
  8
LAY-10
  6
CONTINUOUS
 62
     7
100
AcDbLine
 10
366.3058930575531
 20
184.5639729710338
 30
0.0
 11
366.2994106452074
 21
184.9999999999905
 31
0.0
  0
LINE
  5
1C0
330
1F
100
AcDbEntity
  8
LAY-10
  6
CONTINUOUS
 62
     7
100
AcDbLine
 10
363.0000000000091
 20
190.9999999999868
 30
0.0
 11
364.3927026031785
 21
190.9999999999868
 31
0.0
  0
LINE
  5
1C1
330
1F
100
AcDbEntity
  8
LAY-10
  6
CONTINUOUS
 62
     7
100
AcDbLine
 10
364.688498095668
 20
188.9999999999901
 30
0.0
 11
363.0000000000091
 21
188.9999999999901
 31
0.0
  0
LINE
  5
1C2
330
1F
100
AcDbEntity
  8
LAY-10
  6
CONTINUOUS
 62
     7
100
AcDbLine
 10
349.4941203548461
 20
266.7725564402559
 30
0.0
 11
355.9072108200505
 21
215.1986412404956
 31
0.0
  0
LINE
  5
1C3
330
1F
100
AcDbEntity
  8
LAY-10
  6
CONTINUOUS
 62
     7
100
AcDbLine
 10
357.9226138223694
 20
215.1986412404956
 30
0.0
 11
351.820326545859
 21
264.2730848696476
 31
0.0
  0
LINE
  5
1C4
330
1F
100
AcDbEntity
  8
LAY-10
  6
CONTINUOUS
 62
     7
100
AcDbLine
 10
354.2313973059072
 20
259.7049367243212
 30
0.0
 11
360.8137781015734
 21
215.1986412404956
 31
0.0
  0
LINE
  5
1C5
330
1F
100
AcDbEntity
  8
LAY-10
  6
CONTINUOUS
 62
     7
100
AcDbLine
 10
355.7665593493979
 20
254.3792895532117
 30
0.0
 11
362.7126629918346
 21
214.9859782486743
 31
0.0
  0
LINE
  5
1C6
330
1F
100
AcDbEntity
  8
LAY-10
  6
CONTINUOUS
 62
     7
100
AcDbLine
 10
363.0000000000091
 20
213.3564090981109
 30
0.0
 11
368.000000000014
 21
184.9999999999905
 31
0.0
  0
LINE
  5
1C7
330
1F
100
AcDbEntity
  8
LAY-10
  6
CONTINUOUS
 62
     7
100
AcDbLine
 10
363.0000000000091
 20
200.416658729084
 30
0.0
 11
364.6884980956632
 21
188.9999999999901
 31
0.0
  0
LINE
  5
1C8
330
1F
100
AcDbEntity
  8
LAY-10
  6
CONTINUOUS
 62
     7
100
AcDbLine
 10
363.0000000000091
 20
184.9999999999905
 30
0.0
 11
381.392439749448
 21
184.9999999999905
 31
0.0
  0
LINE
  5
1C9
330
1F
100
AcDbEntity
  8
LAY-10
  6
CONTINUOUS
 62
     7
100
AcDbLine
 10
282.5000000000083
 20
180.9999999999918
 30
0.0
 11
276.500000000008
 21
180.9999999999918
 31
0.0
  0
LINE
  5
1CA
330
1F
100
AcDbEntity
  8
LAY-10
  6
CONTINUOUS
 62
     7
100
AcDbLine
 10
282.5000000000083
 20
192.4999999999895
 30
0.0
 11
282.5000000000083
 21
180.9999999999918
 31
0.0
  0
LINE
  5
1CB
330
1F
100
AcDbEntity
  8
LAY-10
  6
CONTINUOUS
 62
     7
100
AcDbLine
 10
277.0000000000085
 20
180.4999999999918
 30
0.0
 11
282.0000000000084
 21
180.4999999999918
 31
0.0
  0
LINE
  5
1CC
330
1F
100
AcDbEntity
  8
LAY-10
  6
CONTINUOUS
 62
     7
100
AcDbLine
 10
276.500000000008
 20
192.4999999999895
 30
0.0
 11
276.500000000008
 21
180.9999999999918
 31
0.0
  0
LINE
  5
1CD
330
1F
100
AcDbEntity
  8
LAY-10
  6
CONTINUOUS
 62
     7
100
AcDbLine
 10
282.0000000000084
 20
180.4999999999918
 30
0.0
 11
282.5000000000083
 21
180.9999999999918
 31
0.0
  0
LINE
  5
1CE
330
1F
100
AcDbEntity
  8
LAY-10
  6
CONTINUOUS
 62
     7
100
AcDbLine
 10
277.0000000000085
 20
180.4999999999918
 30
0.0
 11
276.500000000008
 21
180.9999999999918
 31
0.0
  0
ARC
  5
1CF
330
1F
100
AcDbEntity
  8
LAY-10
  6
CONTINUOUS
 62
     7
100
AcDbCircle
 10
279.5000000000083
 20
190.1999999999898
 30
0.0
 40
6.300000000000004
100
AcDbArc
 50
95.46502379991026
 51
128.6821874534934
  0
ARC
  5
1D0
330
1F
100
AcDbEntity
  8
LAY-10
  6
CONTINUOUS
 62
     7
100
AcDbCircle
 10
279.5000000000083
 20
190.1999999999898
 30
0.0
 40
6.300000000000004
100
AcDbArc
 50
51.31781254649871
 51
84.53497620009915
  0
LINE
  5
1D1
330
1F
100
AcDbEntity
  8
LAY-10
  6
CONTINUOUS
 62
     7
100
AcDbLine
 10
278.9000000000083
 20
196.4713634880895
 30
0.0
 11
278.9000000000083
 21
193.9999999999895
 31
0.0
  0
LINE
  5
1D2
330
1F
100
AcDbEntity
  8
LAY-10
  6
CONTINUOUS
 62
     7
100
AcDbLine
 10
280.1000000000085
 20
193.9999999999895
 30
0.0
 11
278.9000000000083
 21
193.9999999999895
 31
0.0
  0
LINE
  5
1D3
330
1F
100
AcDbEntity
  8
LAY-10
  6
CONTINUOUS
 62
     7
100
AcDbLine
 10
280.1000000000085
 20
196.4713634880895
 30
0.0
 11
280.1000000000085
 21
193.9999999999895
 31
0.0
  0
LINE
  5
1D4
330
1F
100
AcDbEntity
  8
LAY-10
  6
CONTINUOUS
 62
     7
100
AcDbLine
 10
284.7481347569083
 20
192.4999999999895
 30
0.0
 11
274.2518652431081
 21
192.4999999999895
 31
0.0
  0
ARC
  5
1D5
330
1F
100
AcDbEntity
  8
LAY-10
  6
CONTINUOUS
 62
     7
100
AcDbCircle
 10
281.2500000000082
 20
192.3857492993893
 30
0.0
 40
3.500000000000003
100
AcDbArc
 50
1.870641730603566
 51
51.3178125464939
  0
ARC
  5
1D6
330
1F
100
AcDbEntity
  8
LAY-10
  6
CONTINUOUS
 62
     7
100
AcDbCircle
 10
277.7500000000082
 20
192.3857492993893
 30
0.0
 40
3.500000000000003
100
AcDbArc
 50
128.6821874534942
 51
178.1293582694118
  0
ARC
  5
1D7
330
1F
100
AcDbEntity
  8
LAY-10
  6
CONTINUOUS
 62
     7
100
AcDbCircle
 10
276.3612295092092
 20
189.9999999999868
 30
0.0
 40
1.0
100
AcDbArc
 50
82.02329389929375
 51
90.0
  0
LINE
  5
1D8
330
1F
100
AcDbEntity
  8
LAY-10
  6
CONTINUOUS
 62
     7
100
AcDbLine
 10
270.8426722220663
 20
190.9999999999868
 30
0.0
 11
276.500000000008
 21
190.9999999999868
 31
0.0
  0
LINE
  5
1D9
330
1F
100
AcDbEntity
  8
LAY-10
  6
CONTINUOUS
 62
     7
100
AcDbLine
 10
277.0000000000085
 20
184.9999999999872
 30
0.0
 11
274.8084987583802
 21
184.9999999999872
 31
0.0
  0
LINE
  5
1DA
330
1F
100
AcDbEntity
  8
LAY-10
  6
CONTINUOUS
 62
     7
100
AcDbLine
 10
282.0000000000075
 20
184.9999999999905
 30
0.0
 11
355.0000000000091
 21
184.9999999999905
 31
0.0
  0
LINE
  5
1DB
330
1F
100
AcDbEntity
  8
LAY-10
  6
CONTINUOUS
 62
     7
100
AcDbLine
 10
277.0000000000075
 20
180.4999999999918
 30
0.0
 11
277.0000000000075
 21
178.9018352183681
 31
0.0
  0
LINE
  5
1DC
330
1F
100
AcDbEntity
  8
LAY-10
  6
CONTINUOUS
 62
     7
100
AcDbLine
 10
282.0000000000075
 20
180.4999999999918
 30
0.0
 11
282.0000000000075
 21
177.5620892562124
 31
0.0
  0
CIRCLE
  5
1DD
330
1F
100
AcDbEntity
  8
LAY-10
  6
CONTINUOUS
 62
     7
100
AcDbCircle
 10
330.0000000000039
 20
430.0000000000137
 30
0.0
 40
82.5
  0
CIRCLE
  5
1DE
330
1F
100
AcDbEntity
  8
LAY-10
  6
CONTINUOUS
 62
     7
100
AcDbCircle
 10
330.0000000000039
 20
430.0000000000137
 30
0.0
 40
76.50000000000007
  0
CIRCLE
  5
1DF
330
1F
100
AcDbEntity
  8
LAY-10
  6
CONTINUOUS
 62
     7
100
AcDbCircle
 10
330.0000000000039
 20
430.0000000000137
 30
0.0
 40
81.50000000000007
  0
CIRCLE
  5
1E0
330
1F
100
AcDbEntity
  8
LAY-10
  6
CONTINUOUS
 62
     7
100
AcDbCircle
 10
330.000000000008
 20
430.0000000000136
 30
0.0
 40
71.49999999997883
  0
CIRCLE
  5
1E1
330
1F
100
AcDbEntity
  8
LAY-10
  6
CONTINUOUS
 62
     7
100
AcDbCircle
 10
330.000000000008
 20
430.0000000000136
 30
0.0
 40
72.50000000000007
  0
LINE
  5
1E2
330
1F
100
AcDbEntity
  8
LAY-10
  6
CONTINUOUS
 62
     7
100
AcDbLine
 10
270.167092934708
 20
441.8753202952798
 30
0.0
 11
276.0715346535774
 21
440.8037320116302
 31
0.0
  0
LINE
  5
1E3
330
1F
100
AcDbEntity
  8
LAY-10
  6
CONTINUOUS
 62
     7
100
AcDbLine
 10
270.167092934708
 20
418.1246797047474
 30
0.0
 11
276.0715346535774
 21
419.196267988397
 31
0.0
  0
LINE
  5
1E4
330
1F
100
AcDbEntity
  8
LAY-10
  6
CONTINUOUS
 62
     7
100
AcDbLine
 10
274.9000907441845
 20
420.0000000000136
 30
0.0
 11
276.0715346535774
 21
419.196267988397
 31
0.0
  0
LINE
  5
1E5
330
1F
100
AcDbEntity
  8
LAY-10
  6
CONTINUOUS
 62
     7
100
AcDbLine
 10
270.9643829401966
 20
419.2857142857279
 30
0.0
 11
270.167092934708
 21
418.1246797047474
 31
0.0
  0
LINE
  5
1E6
330
1F
100
AcDbEntity
  8
LAY-10
  6
CONTINUOUS
 62
     7
100
AcDbLine
 10
274.9000907441845
 20
440.0000000000136
 30
0.0
 11
276.0715346535774
 21
440.8037320116302
 31
0.0
  0
LINE
  5
1E7
330
1F
100
AcDbEntity
  8
LAY-10
  6
CONTINUOUS
 62
     7
100
AcDbLine
 10
270.9643829401966
 20
440.7142857142994
 30
0.0
 11
270.167092934708
 21
441.8753202952798
 31
0.0
  0
ARC
  5
1E8
330
1F
100
AcDbEntity
  8
LAY-10
  6
CONTINUOUS
 62
     7
100
AcDbCircle
 10
330.000000000008
 20
430.0000000000136
 30
0.0
 40
60.99999999999997
100
AcDbArc
 50
168.7741222385444
 51
191.2258777614559
  0
ARC
  5
1E9
330
1F
100
AcDbEntity
  8
LAY-10
  6
CONTINUOUS
 62
     7
100
AcDbCircle
 10
330.000000000008
 20
430.0000000000136
 30
0.0
 40
60.00000000000036
100
AcDbArc
 50
170.6846007975119
 51
189.315399202488
  0
ARC
  5
1EA
330
1F
100
AcDbEntity
  8
LAY-10
  6
CONTINUOUS
 62
     7
100
AcDbCircle
 10
330.000000000008
 20
430.0000000000136
 30
0.0
 40
55.99999999999991
100
AcDbArc
 50
170.7186800739586
 51
189.2813199260419
  0
LINE
  5
1EB
330
1F
100
AcDbEntity
  8
LAY-10
  6
CONTINUOUS
 62
     7
100
AcDbLine
 10
273.9247953955791
 20
440.1770048919956
 30
0.0
 11
271.9566488541193
 21
440.5342008598367
 31
0.0
  0
ARC
  5
1EC
330
1F
100
AcDbEntity
  8
LAY-10
  6
CONTINUOUS
 62
     7
100
AcDbCircle
 10
330.000000000008
 20
430.0000000000136
 30
0.0
 40
55.00000000000004
100
AcDbArc
 50
168.6716405380696
 51
173.4488726909056
  0
LINE
  5
1ED
330
1F
100
AcDbEntity
  8
LAY-10
  6
CONTINUOUS
 62
     7
100
AcDbLine
 10
273.9247953955792
 20
419.8229951080313
 30
0.0
 11
271.9566488541193
 21
419.4657991401902
 31
0.0
  0
LINE
  5
1EE
330
1F
100
AcDbEntity
  8
LAY-10
  6
CONTINUOUS
 62
     7
100
AcDbLine
 10
272.2455223515516
 20
410.3678755211411
 30
0.0
 11
277.8947130170819
 21
412.3920737045374
 31
0.0
  0
LINE
  5
1EF
330
1F
100
AcDbEntity
  8
LAY-10
  6
CONTINUOUS
 62
     7
100
AcDbLine
 10
284.1208426468178
 20
389.7992174135861
 30
0.0
 11
288.6984450286985
 21
393.6794609490591
 31
0.0
  0
LINE
  5
1F0
330
1F
100
AcDbEntity
  8
LAY-10
  6
CONTINUOUS
 62
     7
100
AcDbLine
 10
287.2820788382475
 20
393.7897913342574
 30
0.0
 11
288.6984450286985
 21
393.6794609490591
 31
0.0
  0
LINE
  5
1F1
330
1F
100
AcDbEntity
  8
LAY-10
  6
CONTINUOUS
 62
     7
100
AcDbLine
 10
284.2307987552642
 20
391.2033478581317
 30
0.0
 11
284.1208426468178
 21
389.7992174135861
 31
0.0
  0
LINE
  5
1F2
330
1F
100
AcDbEntity
  8
LAY-10
  6
CONTINUOUS
 62
     7
100
AcDbLine
 10
277.2820788382475
 20
411.1102994099462
 30
0.0
 11
277.8947130170819
 21
412.3920737045375
 31
0.0
  0
LINE
  5
1F3
330
1F
100
AcDbEntity
  8
LAY-10
  6
CONTINUOUS
 62
     7
100
AcDbLine
 10
273.5165130409785
 20
409.7610350820841
 30
0.0
 11
272.2455223515516
 21
410.3678755211411
 31
0.0
  0
ARC
  5
1F4
330
1F
100
AcDbEntity
  8
LAY-10
  6
CONTINUOUS
 62
     7
100
AcDbCircle
 10
330.000000000008
 20
430.0000000000136
 30
0.0
 40
55.00000000000004
100
AcDbArc
 50
198.6716405380695
 51
221.3283594619304
  0
ARC
  5
1F5
330
1F
100
AcDbEntity
  8
LAY-10
  6
CONTINUOUS
 62
     7
100
AcDbCircle
 10
330.000000000008
 20
430.0000000000136
 30
0.0
 40
60.99999999999997
100
AcDbArc
 50
198.7741222385439
 51
221.2258777614558
  0
LINE
  5
1F6
330
1F
100
AcDbEntity
  8
LAY-10
  6
CONTINUOUS
 62
     7
100
AcDbLine
 10
286.5259507361535
 20
393.1488529269041
 30
0.0
 11
285.0000838167995
 21
391.8554388738943
 31
0.0
  0
LINE
  5
1F7
330
1F
100
AcDbEntity
  8
LAY-10
  6
CONTINUOUS
 62
     7
100
AcDbLine
 10
276.3489458441713
 20
410.7759424686942
 30
0.0
 11
274.4658829569761
 21
410.1012099802442
 31
0.0
  0
ARC
  5
1F8
330
1F
100
AcDbEntity
  8
LAY-10
  6
CONTINUOUS
 62
     7
100
AcDbCircle
 10
330.000000000008
 20
430.0000000000136
 30
0.0
 40
55.99999999999991
100
AcDbArc
 50
200.7186800739586
 51
219.2813199260417
  0
ARC
  5
1F9
330
1F
100
AcDbEntity
  8
LAY-10
  6
CONTINUOUS
 62
     7
100
AcDbCircle
 10
330.000000000008
 20
430.0000000000136
 30
0.0
 40
60.00000000000036
100
AcDbArc
 50
200.6846007975119
 51
219.3153992024884
  0
LINE
  5
1FA
330
1F
100
AcDbEntity
  8
LAY-10
  6
CONTINUOUS
 62
     7
100
AcDbLine
 10
289.7992174135805
 20
384.1208426468233
 30
0.0
 11
293.6794609490535
 21
388.6984450287042
 31
0.0
  0
LINE
  5
1FB
330
1F
100
AcDbEntity
  8
LAY-10
  6
CONTINUOUS
 62
     7
100
AcDbLine
 10
310.3678755211354
 20
372.2455223515571
 30
0.0
 11
312.3920737045318
 21
377.8947130170874
 31
0.0
  0
LINE
  5
1FC
330
1F
100
AcDbEntity
  8
LAY-10
  6
CONTINUOUS
 62
     7
100
AcDbLine
 10
311.1102994099406
 20
377.282078838253
 30
0.0
 11
312.3920737045318
 21
377.8947130170876
 31
0.0
  0
LINE
  5
1FD
330
1F
100
AcDbEntity
  8
LAY-10
  6
CONTINUOUS
 62
     7
100
AcDbLine
 10
309.7610350820784
 20
373.5165130409841
 30
0.0
 11
310.3678755211354
 21
372.2455223515573
 31
0.0
  0
LINE
  5
1FE
330
1F
100
AcDbEntity
  8
LAY-10
  6
CONTINUOUS
 62
     7
100
AcDbLine
 10
293.7897913342518
 20
387.282078838253
 30
0.0
 11
293.6794609490535
 21
388.6984450287043
 31
0.0
  0
LINE
  5
1FF
330
1F
100
AcDbEntity
  8
LAY-10
  6
CONTINUOUS
 62
     7
100
AcDbLine
 10
291.203347858126
 20
384.2307987552699
 30
0.0
 11
289.7992174135804
 21
384.1208426468234
 31
0.0
  0
ARC
  5
200
330
1F
100
AcDbEntity
  8
LAY-10
  6
CONTINUOUS
 62
     7
100
AcDbCircle
 10
330.000000000008
 20
430.0000000000136
 30
0.0
 40
55.00000000000004
100
AcDbArc
 50
228.6716405380694
 51
251.3283594619303
  0
ARC
  5
201
330
1F
100
AcDbEntity
  8
LAY-10
  6
CONTINUOUS
 62
     7
100
AcDbCircle
 10
330.000000000008
 20
430.0000000000136
 30
0.0
 40
60.99999999999997
100
AcDbArc
 50
228.7741222385444
 51
251.2258777614561
  0
LINE
  5
202
330
1F
100
AcDbEntity
  8
LAY-10
  6
CONTINUOUS
 62
     7
100
AcDbLine
 10
310.7759424686886
 20
376.348945844177
 30
0.0
 11
310.1012099802385
 21
374.4658829569816
 31
0.0
  0
LINE
  5
203
330
1F
100
AcDbEntity
  8
LAY-10
  6
CONTINUOUS
 62
     7
100
AcDbLine
 10
293.1488529268985
 20
386.525950736159
 30
0.0
 11
291.8554388738887
 21
385.000083816805
 31
0.0
  0
ARC
  5
204
330
1F
100
AcDbEntity
  8
LAY-10
  6
CONTINUOUS
 62
     7
100
AcDbCircle
 10
330.000000000008
 20
430.0000000000136
 30
0.0
 40
55.99999999999991
100
AcDbArc
 50
230.7186800739584
 51
249.2813199260414
  0
ARC
  5
205
330
1F
100
AcDbEntity
  8
LAY-10
  6
CONTINUOUS
 62
     7
100
AcDbCircle
 10
330.000000000008
 20
430.0000000000136
 30
0.0
 40
60.00000000000036
100
AcDbArc
 50
230.684600797512
 51
249.3153992024882
  0
LINE
  5
206
330
1F
100
AcDbEntity
  8
LAY-10
  6
CONTINUOUS
 62
     7
100
AcDbLine
 10
318.1246797047418
 20
370.1670929347135
 30
0.0
 11
319.1962679883914
 21
376.0715346535829
 31
0.0
  0
LINE
  5
207
330
1F
100
AcDbEntity
  8
LAY-10
  6
CONTINUOUS
 62
     7
100
AcDbLine
 10
341.8753202952742
 20
370.1670929347135
 30
0.0
 11
340.8037320116246
 21
376.0715346535829
 31
0.0
  0
LINE
  5
208
330
1F
100
AcDbEntity
  8
LAY-10
  6
CONTINUOUS
 62
     7
100
AcDbLine
 10
340.000000000008
 20
374.90009074419
 30
0.0
 11
340.8037320116246
 21
376.0715346535829
 31
0.0
  0
LINE
  5
209
330
1F
100
AcDbEntity
  8
LAY-10
  6
CONTINUOUS
 62
     7
100
AcDbLine
 10
340.7142857142937
 20
370.9643829402021
 30
0.0
 11
341.8753202952742
 21
370.1670929347135
 31
0.0
  0
LINE
  5
20A
330
1F
100
AcDbEntity
  8
LAY-10
  6
CONTINUOUS
 62
     7
100
AcDbLine
 10
320.000000000008
 20
374.90009074419
 30
0.0
 11
319.1962679883912
 21
376.0715346535829
 31
0.0
  0
LINE
  5
20B
330
1F
100
AcDbEntity
  8
LAY-10
  6
CONTINUOUS
 62
     7
100
AcDbLine
 10
319.2857142857222
 20
370.9643829402021
 30
0.0
 11
318.1246797047418
 21
370.1670929347135
 31
0.0
  0
ARC
  5
20C
330
1F
100
AcDbEntity
  8
LAY-10
  6
CONTINUOUS
 62
     7
100
AcDbCircle
 10
330.000000000008
 20
430.0000000000136
 30
0.0
 40
55.00000000000004
100
AcDbArc
 50
258.6716405380695
 51
265.5159357841754
  0
ARC
  5
20D
330
1F
100
AcDbEntity
  8
LAY-10
  6
CONTINUOUS
 62
     7
100
AcDbCircle
 10
330.000000000008
 20
430.0000000000136
 30
0.0
 40
60.99999999999997
100
AcDbArc
 50
258.7741222385442
 51
281.2258777614563
  0
LINE
  5
20E
330
1F
100
AcDbEntity
  8
LAY-10
  6
CONTINUOUS
 62
     7
100
AcDbLine
 10
340.1770048919901
 20
373.9247953955847
 30
0.0
 11
340.5342008598313
 21
371.9566488541249
 31
0.0
  0
LINE
  5
20F
330
1F
100
AcDbEntity
  8
LAY-10
  6
CONTINUOUS
 62
     7
100
AcDbLine
 10
319.8229951080259
 20
373.9247953955847
 30
0.0
 11
319.4657991401846
 21
371.9566488541249
 31
0.0
  0
ARC
  5
210
330
1F
100
AcDbEntity
  8
LAY-10
  6
CONTINUOUS
 62
     7
100
AcDbCircle
 10
330.000000000008
 20
430.0000000000136
 30
0.0
 40
55.99999999999991
100
AcDbArc
 50
260.7186800739586
 51
279.2813199260418
  0
ARC
  5
211
330
1F
100
AcDbEntity
  8
LAY-10
  6
CONTINUOUS
 62
     7
100
AcDbCircle
 10
330.000000000008
 20
430.0000000000136
 30
0.0
 40
60.00000000000036
100
AcDbArc
 50
260.6846007975121
 51
279.3153992024884
  0
LINE
  5
212
330
1F
100
AcDbEntity
  8
LAY-10
  6
CONTINUOUS
 62
     7
100
AcDbLine
 10
349.6321244788805
 20
372.2455223515571
 30
0.0
 11
347.607926295484
 21
377.8947130170874
 31
0.0
  0
LINE
  5
213
330
1F
100
AcDbEntity
  8
LAY-10
  6
CONTINUOUS
 62
     7
100
AcDbLine
 10
370.2007825864355
 20
384.1208426468233
 30
0.0
 11
366.3205390509625
 21
388.6984450287041
 31
0.0
  0
LINE
  5
214
330
1F
100
AcDbEntity
  8
LAY-10
  6
CONTINUOUS
 62
     7
100
AcDbLine
 10
366.2102086657641
 20
387.282078838253
 30
0.0
 11
366.3205390509623
 21
388.6984450287041
 31
0.0
  0
LINE
  5
215
330
1F
100
AcDbEntity
  8
LAY-10
  6
CONTINUOUS
 62
     7
100
AcDbLine
 10
368.7966521418898
 20
384.2307987552697
 30
0.0
 11
370.2007825864355
 21
384.1208426468233
 31
0.0
  0
LINE
  5
216
330
1F
100
AcDbEntity
  8
LAY-10
  6
CONTINUOUS
 62
     7
100
AcDbLine
 10
348.8897005900753
 20
377.282078838253
 30
0.0
 11
347.607926295484
 21
377.8947130170874
 31
0.0
  0
LINE
  5
217
330
1F
100
AcDbEntity
  8
LAY-10
  6
CONTINUOUS
 62
     7
100
AcDbLine
 10
350.2389649179374
 20
373.516513040984
 30
0.0
 11
349.6321244788804
 21
372.2455223515571
 31
0.0
  0
ARC
  5
218
330
1F
100
AcDbEntity
  8
LAY-10
  6
CONTINUOUS
 62
     7
100
AcDbCircle
 10
330.000000000008
 20
430.0000000000136
 30
0.0
 40
55.00000000000004
100
AcDbArc
 50
288.6716405380697
 51
311.3283594619303
  0
ARC
  5
219
330
1F
100
AcDbEntity
  8
LAY-10
  6
CONTINUOUS
 62
     7
100
AcDbCircle
 10
330.000000000008
 20
430.0000000000136
 30
0.0
 40
60.99999999999997
100
AcDbArc
 50
288.7741222385444
 51
311.2258777614563
  0
LINE
  5
21A
330
1F
100
AcDbEntity
  8
LAY-10
  6
CONTINUOUS
 62
     7
100
AcDbLine
 10
366.8511470731174
 20
386.525950736159
 30
0.0
 11
368.1445611261272
 21
385.000083816805
 31
0.0
  0
LINE
  5
21B
330
1F
100
AcDbEntity
  8
LAY-10
  6
CONTINUOUS
 62
     7
100
AcDbLine
 10
349.2240575313274
 20
376.348945844177
 30
0.0
 11
349.8987900197774
 21
374.4658829569816
 31
0.0
  0
ARC
  5
21C
330
1F
100
AcDbEntity
  8
LAY-10
  6
CONTINUOUS
 62
     7
100
AcDbCircle
 10
330.000000000008
 20
430.0000000000136
 30
0.0
 40
55.99999999999991
100
AcDbArc
 50
290.7186800739585
 51
309.2813199260416
  0
ARC
  5
21D
330
1F
100
AcDbEntity
  8
LAY-10
  6
CONTINUOUS
 62
     7
100
AcDbCircle
 10
330.000000000008
 20
430.0000000000136
 30
0.0
 40
60.00000000000036
100
AcDbArc
 50
290.6846007975118
 51
309.3153992024885
  0
LINE
  5
21E
330
1F
100
AcDbEntity
  8
LAY-10
  6
CONTINUOUS
 62
     7
100
AcDbLine
 10
375.8791573531981
 20
389.7992174135861
 30
0.0
 11
371.3015549713173
 21
393.6794609490591
 31
0.0
  0
LINE
  5
21F
330
1F
100
AcDbEntity
  8
LAY-10
  6
CONTINUOUS
 62
     7
100
AcDbLine
 10
387.7544776484642
 20
410.3678755211409
 30
0.0
 11
382.105286982934
 21
412.3920737045373
 31
0.0
  0
LINE
  5
220
330
1F
100
AcDbEntity
  8
LAY-10
  6
CONTINUOUS
 62
     7
100
AcDbLine
 10
382.7179211617685
 20
411.1102994099462
 30
0.0
 11
382.1052869829339
 21
412.3920737045373
 31
0.0
  0
LINE
  5
221
330
1F
100
AcDbEntity
  8
LAY-10
  6
CONTINUOUS
 62
     7
100
AcDbLine
 10
386.4834869590375
 20
409.7610350820839
 30
0.0
 11
387.7544776484642
 21
410.3678755211409
 31
0.0
  0
LINE
  5
222
330
1F
100
AcDbEntity
  8
LAY-10
  6
CONTINUOUS
 62
     7
100
AcDbLine
 10
372.7179211617686
 20
393.7897913342574
 30
0.0
 11
371.3015549713173
 21
393.679460949059
 31
0.0
  0
LINE
  5
223
330
1F
100
AcDbEntity
  8
LAY-10
  6
CONTINUOUS
 62
     7
100
AcDbLine
 10
375.7692012447518
 20
391.2033478581316
 30
0.0
 11
375.8791573531981
 21
389.7992174135861
 31
0.0
  0
ARC
  5
224
330
1F
100
AcDbEntity
  8
LAY-10
  6
CONTINUOUS
 62
     7
100
AcDbCircle
 10
330.000000000008
 20
430.0000000000136
 30
0.0
 40
55.00000000000004
100
AcDbArc
 50
318.6716405380697
 51
341.3283594619305
  0
ARC
  5
225
330
1F
100
AcDbEntity
  8
LAY-10
  6
CONTINUOUS
 62
     7
100
AcDbCircle
 10
330.000000000008
 20
430.0000000000136
 30
0.0
 40
60.99999999999997
100
AcDbArc
 50
318.774122238544
 51
341.2258777614563
  0
LINE
  5
226
330
1F
100
AcDbEntity
  8
LAY-10
  6
CONTINUOUS
 62
     7
100
AcDbLine
 10
383.6510541558446
 20
410.7759424686942
 30
0.0
 11
385.5341170430399
 21
410.1012099802441
 31
0.0
  0
LINE
  5
227
330
1F
100
AcDbEntity
  8
LAY-10
  6
CONTINUOUS
 62
     7
100
AcDbLine
 10
373.4740492638625
 20
393.1488529269041
 30
0.0
 11
374.9999161832166
 21
391.8554388738943
 31
0.0
  0
ARC
  5
228
330
1F
100
AcDbEntity
  8
LAY-10
  6
CONTINUOUS
 62
     7
100
AcDbCircle
 10
330.000000000008
 20
430.0000000000136
 30
0.0
 40
55.99999999999991
100
AcDbArc
 50
320.7186800739587
 51
339.281319926042
  0
ARC
  5
229
330
1F
100
AcDbEntity
  8
LAY-10
  6
CONTINUOUS
 62
     7
100
AcDbCircle
 10
330.000000000008
 20
430.0000000000136
 30
0.0
 40
60.00000000000036
100
AcDbArc
 50
320.6846007975124
 51
339.3153992024885
  0
LINE
  5
22A
330
1F
100
AcDbEntity
  8
LAY-10
  6
CONTINUOUS
 62
     7
100
AcDbLine
 10
387.7544776484644
 20
449.6321244788859
 30
0.0
 11
382.105286982934
 21
447.6079262954897
 31
0.0
  0
LINE
  5
22B
330
1F
100
AcDbEntity
  8
LAY-10
  6
CONTINUOUS
 62
     7
100
AcDbLine
 10
375.8791573531983
 20
470.2007825864409
 30
0.0
 11
371.3015549713174
 21
466.3205390509679
 31
0.0
  0
LINE
  5
22C
330
1F
100
AcDbEntity
  8
LAY-10
  6
CONTINUOUS
 62
     7
100
AcDbLine
 10
372.7179211617686
 20
466.2102086657696
 30
0.0
 11
371.3015549713174
 21
466.3205390509679
 31
0.0
  0
LINE
  5
22D
330
1F
100
AcDbEntity
  8
LAY-10
  6
CONTINUOUS
 62
     7
100
AcDbLine
 10
375.7692012447518
 20
468.7966521418953
 30
0.0
 11
375.8791573531981
 21
470.2007825864409
 31
0.0
  0
LINE
  5
22E
330
1F
100
AcDbEntity
  8
LAY-10
  6
CONTINUOUS
 62
     7
100
AcDbLine
 10
382.7179211617685
 20
448.889700590081
 30
0.0
 11
382.105286982934
 21
447.6079262954894
 31
0.0
  0
LINE
  5
22F
330
1F
100
AcDbEntity
  8
LAY-10
  6
CONTINUOUS
 62
     7
100
AcDbLine
 10
386.4834869590375
 20
450.2389649179431
 30
0.0
 11
387.7544776484644
 21
449.6321244788859
 31
0.0
  0
ARC
  5
230
330
1F
100
AcDbEntity
  8
LAY-10
  6
CONTINUOUS
 62
     7
100
AcDbCircle
 10
330.000000000008
 20
430.0000000000136
 30
0.0
 40
55.00000000000004
100
AcDbArc
 50
18.6716405380693
 51
41.32835946193031
  0
ARC
  5
231
330
1F
100
AcDbEntity
  8
LAY-10
  6
CONTINUOUS
 62
     7
100
AcDbCircle
 10
330.000000000008
 20
430.0000000000136
 30
0.0
 40
60.99999999999997
100
AcDbArc
 50
18.77412223854388
 51
41.22587776145574
  0
LINE
  5
232
330
1F
100
AcDbEntity
  8
LAY-10
  6
CONTINUOUS
 62
     7
100
AcDbLine
 10
373.4740492638625
 20
466.8511470731229
 30
0.0
 11
374.9999161832166
 21
468.1445611261329
 31
0.0
  0
LINE
  5
233
330
1F
100
AcDbEntity
  8
LAY-10
  6
CONTINUOUS
 62
     7
100
AcDbLine
 10
383.6510541558446
 20
449.224057531333
 30
0.0
 11
385.53411704304
 21
449.898790019783
 31
0.0
  0
ARC
  5
234
330
1F
100
AcDbEntity
  8
LAY-10
  6
CONTINUOUS
 62
     7
100
AcDbCircle
 10
330.000000000008
 20
430.0000000000136
 30
0.0
 40
55.99999999999991
100
AcDbArc
 50
20.71868007395844
 51
39.2813199260417
  0
ARC
  5
235
330
1F
100
AcDbEntity
  8
LAY-10
  6
CONTINUOUS
 62
     7
100
AcDbCircle
 10
330.000000000008
 20
430.0000000000136
 30
0.0
 40
60.00000000000036
100
AcDbArc
 50
20.68460079751181
 51
39.31539920248781
  0
LINE
  5
236
330
1F
100
AcDbEntity
  8
LAY-10
  6
CONTINUOUS
 62
     7
100
AcDbLine
 10
370.2007825864355
 20
475.8791573532037
 30
0.0
 11
366.3205390509625
 21
471.301554971323
 31
0.0
  0
LINE
  5
237
330
1F
100
AcDbEntity
  8
LAY-10
  6
CONTINUOUS
 62
     7
100
AcDbLine
 10
349.6321244788807
 20
487.7544776484699
 30
0.0
 11
347.6079262954842
 21
482.1052869829396
 31
0.0
  0
LINE
  5
238
330
1F
100
AcDbEntity
  8
LAY-10
  6
CONTINUOUS
 62
     7
100
AcDbLine
 10
348.8897005900753
 20
482.717921161774
 30
0.0
 11
347.6079262954843
 21
482.1052869829396
 31
0.0
  0
LINE
  5
239
330
1F
100
AcDbEntity
  8
LAY-10
  6
CONTINUOUS
 62
     7
100
AcDbLine
 10
350.2389649179376
 20
486.4834869590431
 30
0.0
 11
349.6321244788807
 21
487.7544776484699
 31
0.0
  0
LINE
  5
23A
330
1F
100
AcDbEntity
  8
LAY-10
  6
CONTINUOUS
 62
     7
100
AcDbLine
 10
366.2102086657642
 20
472.717921161774
 30
0.0
 11
366.3205390509625
 21
471.301554971323
 31
0.0
  0
LINE
  5
23B
330
1F
100
AcDbEntity
  8
LAY-10
  6
CONTINUOUS
 62
     7
100
AcDbLine
 10
368.7966521418898
 20
475.7692012447574
 30
0.0
 11
370.2007825864355
 21
475.8791573532037
 31
0.0
  0
ARC
  5
23C
330
1F
100
AcDbEntity
  8
LAY-10
  6
CONTINUOUS
 62
     7
100
AcDbCircle
 10
330.000000000008
 20
430.0000000000136
 30
0.0
 40
55.00000000000004
100
AcDbArc
 50
48.67164053806921
 51
71.32835946193028
  0
ARC
  5
23D
330
1F
100
AcDbEntity
  8
LAY-10
  6
CONTINUOUS
 62
     7
100
AcDbCircle
 10
330.000000000008
 20
430.0000000000136
 30
0.0
 40
60.99999999999997
100
AcDbArc
 50
48.77412223854395
 51
71.22587776145568
  0
LINE
  5
23E
330
1F
100
AcDbEntity
  8
LAY-10
  6
CONTINUOUS
 62
     7
100
AcDbLine
 10
349.2240575313274
 20
483.65105415585
 30
0.0
 11
349.8987900197774
 21
485.5341170430456
 31
0.0
  0
LINE
  5
23F
330
1F
100
AcDbEntity
  8
LAY-10
  6
CONTINUOUS
 62
     7
100
AcDbLine
 10
366.8511470731174
 20
473.474049263868
 30
0.0
 11
368.1445611261272
 21
474.999916183222
 31
0.0
  0
ARC
  5
240
330
1F
100
AcDbEntity
  8
LAY-10
  6
CONTINUOUS
 62
     7
100
AcDbCircle
 10
330.000000000008
 20
430.0000000000136
 30
0.0
 40
55.99999999999991
100
AcDbArc
 50
50.71868007395834
 51
69.28131992604182
  0
ARC
  5
241
330
1F
100
AcDbEntity
  8
LAY-10
  6
CONTINUOUS
 62
     7
100
AcDbCircle
 10
330.000000000008
 20
430.0000000000136
 30
0.0
 40
60.00000000000036
100
AcDbArc
 50
50.68460079751182
 51
69.315399202488
  0
LINE
  5
242
330
1F
100
AcDbEntity
  8
LAY-10
  6
CONTINUOUS
 62
     7
100
AcDbLine
 10
341.8753202952742
 20
489.8329070653135
 30
0.0
 11
340.8037320116246
 21
483.9284653464442
 31
0.0
  0
LINE
  5
243
330
1F
100
AcDbEntity
  8
LAY-10
  6
CONTINUOUS
 62
     7
100
AcDbLine
 10
318.1246797047419
 20
489.8329070653135
 30
0.0
 11
319.1962679883914
 21
483.9284653464442
 31
0.0
  0
LINE
  5
244
330
1F
100
AcDbEntity
  8
LAY-10
  6
CONTINUOUS
 62
     7
100
AcDbLine
 10
320.000000000008
 20
485.0999092558372
 30
0.0
 11
319.1962679883915
 21
483.9284653464442
 31
0.0
  0
LINE
  5
245
330
1F
100
AcDbEntity
  8
LAY-10
  6
CONTINUOUS
 62
     7
100
AcDbLine
 10
319.2857142857223
 20
489.035617059825
 30
0.0
 11
318.1246797047419
 21
489.8329070653135
 31
0.0
  0
LINE
  5
246
330
1F
100
AcDbEntity
  8
LAY-10
  6
CONTINUOUS
 62
     7
100
AcDbLine
 10
340.000000000008
 20
485.0999092558372
 30
0.0
 11
340.8037320116247
 21
483.9284653464442
 31
0.0
  0
LINE
  5
247
330
1F
100
AcDbEntity
  8
LAY-10
  6
CONTINUOUS
 62
     7
100
AcDbLine
 10
340.7142857142937
 20
489.035617059825
 30
0.0
 11
341.8753202952742
 21
489.8329070653135
 31
0.0
  0
ARC
  5
248
330
1F
100
AcDbEntity
  8
LAY-10
  6
CONTINUOUS
 62
     7
100
AcDbCircle
 10
330.000000000008
 20
430.0000000000136
 30
0.0
 40
55.00000000000004
100
AcDbArc
 50
78.67164053806968
 51
85.5159357841752
  0
ARC
  5
249
330
1F
100
AcDbEntity
  8
LAY-10
  6
CONTINUOUS
 62
     7
100
AcDbCircle
 10
330.000000000008
 20
430.0000000000136
 30
0.0
 40
60.99999999999997
100
AcDbArc
 50
78.77412223854401
 51
101.2258777614558
  0
LINE
  5
24A
330
1F
100
AcDbEntity
  8
LAY-10
  6
CONTINUOUS
 62
     7
100
AcDbLine
 10
319.8229951080258
 20
486.0752046044424
 30
0.0
 11
319.4657991401846
 21
488.0433511459023
 31
0.0
  0
LINE
  5
24B
330
1F
100
AcDbEntity
  8
LAY-10
  6
CONTINUOUS
 62
     7
100
AcDbLine
 10
340.17700489199
 20
486.0752046044424
 30
0.0
 11
340.5342008598313
 21
488.0433511459023
 31
0.0
  0
LINE
  5
24C
330
1F
100
AcDbEntity
  8
LAY-10
  6
CONTINUOUS
 62
     7
100
AcDbLine
 10
310.3678755211354
 20
487.7544776484699
 30
0.0
 11
312.3920737045319
 21
482.1052869829396
 31
0.0
  0
LINE
  5
24D
330
1F
100
AcDbEntity
  8
LAY-10
  6
CONTINUOUS
 62
     7
100
AcDbLine
 10
289.7992174135805
 20
475.8791573532037
 30
0.0
 11
293.6794609490535
 21
471.301554971323
 31
0.0
  0
LINE
  5
24E
330
1F
100
AcDbEntity
  8
LAY-10
  6
CONTINUOUS
 62
     7
100
AcDbLine
 10
293.7897913342518
 20
472.717921161774
 30
0.0
 11
293.6794609490536
 21
471.301554971323
 31
0.0
  0
LINE
  5
24F
330
1F
100
AcDbEntity
  8
LAY-10
  6
CONTINUOUS
 62
     7
100
AcDbLine
 10
291.2033478581261
 20
475.7692012447574
 30
0.0
 11
289.7992174135805
 21
475.8791573532037
 31
0.0
  0
LINE
  5
250
330
1F
100
AcDbEntity
  8
LAY-10
  6
CONTINUOUS
 62
     7
100
AcDbLine
 10
311.1102994099406
 20
482.717921161774
 30
0.0
 11
312.3920737045319
 21
482.1052869829396
 31
0.0
  0
LINE
  5
251
330
1F
100
AcDbEntity
  8
LAY-10
  6
CONTINUOUS
 62
     7
100
AcDbLine
 10
309.7610350820785
 20
486.4834869590431
 30
0.0
 11
310.3678755211355
 21
487.7544776484699
 31
0.0
  0
ARC
  5
252
330
1F
100
AcDbEntity
  8
LAY-10
  6
CONTINUOUS
 62
     7
100
AcDbCircle
 10
330.000000000008
 20
430.0000000000136
 30
0.0
 40
55.00000000000004
100
AcDbArc
 50
108.6716405380696
 51
131.3283594619306
  0
ARC
  5
253
330
1F
100
AcDbEntity
  8
LAY-10
  6
CONTINUOUS
 62
     7
100
AcDbCircle
 10
330.000000000008
 20
430.0000000000136
 30
0.0
 40
60.99999999999997
100
AcDbArc
 50
108.7741222385444
 51
131.225877761456
  0
LINE
  5
254
330
1F
100
AcDbEntity
  8
LAY-10
  6
CONTINUOUS
 62
     7
100
AcDbLine
 10
293.1488529268985
 20
473.474049263868
 30
0.0
 11
291.8554388738887
 21
474.999916183222
 31
0.0
  0
LINE
  5
255
330
1F
100
AcDbEntity
  8
LAY-10
  6
CONTINUOUS
 62
     7
100
AcDbLine
 10
310.7759424686885
 20
483.65105415585
 30
0.0
 11
310.1012099802385
 21
485.5341170430454
 31
0.0
  0
LINE
  5
256
330
1F
100
AcDbEntity
  8
LAY-10
  6
CONTINUOUS
 62
     7
100
AcDbLine
 10
284.1208426468178
 20
470.2007825864412
 30
0.0
 11
288.6984450286986
 21
466.3205390509681
 31
0.0
  0
LINE
  5
257
330
1F
100
AcDbEntity
  8
LAY-10
  6
CONTINUOUS
 62
     7
100
AcDbLine
 10
272.2455223515516
 20
449.6321244788862
 30
0.0
 11
277.8947130170819
 21
447.6079262954897
 31
0.0
  0
LINE
  5
258
330
1F
100
AcDbEntity
  8
LAY-10
  6
CONTINUOUS
 62
     7
100
AcDbLine
 10
277.2820788382475
 20
448.889700590081
 30
0.0
 11
277.894713017082
 21
447.6079262954897
 31
0.0
  0
LINE
  5
259
330
1F
100
AcDbEntity
  8
LAY-10
  6
CONTINUOUS
 62
     7
100
AcDbLine
 10
273.5165130409785
 20
450.2389649179431
 30
0.0
 11
272.2455223515517
 21
449.6321244788862
 31
0.0
  0
LINE
  5
25A
330
1F
100
AcDbEntity
  8
LAY-10
  6
CONTINUOUS
 62
     7
100
AcDbLine
 10
287.2820788382475
 20
466.2102086657696
 30
0.0
 11
288.6984450286986
 21
466.3205390509681
 31
0.0
  0
LINE
  5
25B
330
1F
100
AcDbEntity
  8
LAY-10
  6
CONTINUOUS
 62
     7
100
AcDbLine
 10
284.2307987552642
 20
468.7966521418955
 30
0.0
 11
284.1208426468179
 21
470.2007825864412
 31
0.0
  0
ARC
  5
25C
330
1F
100
AcDbEntity
  8
LAY-10
  6
CONTINUOUS
 62
     7
100
AcDbCircle
 10
330.000000000008
 20
430.0000000000136
 30
0.0
 40
55.00000000000004
100
AcDbArc
 50
138.6716405380697
 51
161.3283594619305
  0
ARC
  5
25D
330
1F
100
AcDbEntity
  8
LAY-10
  6
CONTINUOUS
 62
     7
100
AcDbCircle
 10
330.000000000008
 20
430.0000000000136
 30
0.0
 40
60.99999999999997
100
AcDbArc
 50
138.7741222385444
 51
161.2258777614561
  0
LINE
  5
25E
330
1F
100
AcDbEntity
  8
LAY-10
  6
CONTINUOUS
 62
     7
100
AcDbLine
 10
276.3489458441713
 20
449.224057531333
 30
0.0
 11
274.4658829569761
 21
449.898790019783
 31
0.0
  0
LINE
  5
25F
330
1F
100
AcDbEntity
  8
LAY-10
  6
CONTINUOUS
 62
     7
100
AcDbLine
 10
286.5259507361535
 20
466.8511470731229
 30
0.0
 11
285.0000838167994
 21
468.1445611261329
 31
0.0
  0
ARC
  5
260
330
1F
100
AcDbEntity
  8
LAY-10
  6
CONTINUOUS
 62
     7
100
AcDbCircle
 10
330.000000000008
 20
430.0000000000136
 30
0.0
 40
55.99999999999991
100
AcDbArc
 50
140.7186800739584
 51
159.2813199260416
  0
ARC
  5
261
330
1F
100
AcDbEntity
  8
LAY-10
  6
CONTINUOUS
 62
     7
100
AcDbCircle
 10
330.000000000008
 20
430.0000000000136
 30
0.0
 40
60.00000000000036
100
AcDbArc
 50
140.6846007975121
 51
159.3153992024884
  0
ARC
  5
262
330
1F
100
AcDbEntity
  8
LAY-10
  6
CONTINUOUS
 62
     7
100
AcDbCircle
 10
330.000000000008
 20
430.0000000000136
 30
0.0
 40
55.00000000000004
100
AcDbArc
 50
186.5511273090946
 51
191.3283594619303
  0
LINE
  5
263
330
1F
100
AcDbEntity
  8
LAY-10
  6
CONTINUOUS
 62
     7
100
AcDbLine
 10
275.1356052680454
 20
436.0000000000136
 30
0.0
 11
275.3591255595638
 21
436.2749374804684
 31
0.0
  0
LINE
  5
264
330
1F
100
AcDbEntity
  8
LAY-10
  6
CONTINUOUS
 62
     7
100
AcDbLine
 10
275.1356052680454
 20
424.0000000000136
 30
0.0
 11
275.3591255595638
 21
423.7250625195588
 31
0.0
  0
LINE
  5
265
330
1F
100
AcDbEntity
  8
LAY-10
  6
CONTINUOUS
 62
     7
100
AcDbLine
 10
389.8329070653081
 20
441.8753202952798
 30
0.0
 11
383.9284653464386
 21
440.8037320116302
 31
0.0
  0
LINE
  5
266
330
1F
100
AcDbEntity
  8
LAY-10
  6
CONTINUOUS
 62
     7
100
AcDbLine
 10
389.8329070653081
 20
418.1246797047474
 30
0.0
 11
383.9284653464386
 21
419.196267988397
 31
0.0
  0
LINE
  5
267
330
1F
100
AcDbEntity
  8
LAY-10
  6
CONTINUOUS
 62
     7
100
AcDbLine
 10
385.0999092558316
 20
420.0000000000136
 30
0.0
 11
383.9284653464386
 21
419.196267988397
 31
0.0
  0
LINE
  5
268
330
1F
100
AcDbEntity
  8
LAY-10
  6
CONTINUOUS
 62
     7
100
AcDbLine
 10
389.0356170598193
 20
419.2857142857279
 30
0.0
 11
389.8329070653081
 21
418.1246797047474
 31
0.0
  0
LINE
  5
269
330
1F
100
AcDbEntity
  8
LAY-10
  6
CONTINUOUS
 62
     7
100
AcDbLine
 10
385.0999092558316
 20
440.0000000000136
 30
0.0
 11
383.9284653464386
 21
440.8037320116302
 31
0.0
  0
LINE
  5
26A
330
1F
100
AcDbEntity
  8
LAY-10
  6
CONTINUOUS
 62
     7
100
AcDbLine
 10
389.0356170598193
 20
440.7142857142994
 30
0.0
 11
389.8329070653081
 21
441.8753202952798
 31
0.0
  0
ARC
  5
26B
330
1F
100
AcDbEntity
  8
LAY-10
  6
CONTINUOUS
 62
     7
100
AcDbCircle
 10
330.000000000008
 20
430.0000000000136
 30
0.0
 40
60.99999999999997
100
AcDbArc
 50
348.7741222385441
 51
11.22587776145567
  0
ARC
  5
26C
330
1F
100
AcDbEntity
  8
LAY-10
  6
CONTINUOUS
 62
     7
100
AcDbCircle
 10
330.000000000008
 20
430.0000000000136
 30
0.0
 40
60.00000000000036
100
AcDbArc
 50
350.684600797512
 51
9.315399202487912
  0
ARC
  5
26D
330
1F
100
AcDbEntity
  8
LAY-10
  6
CONTINUOUS
 62
     7
100
AcDbCircle
 10
330.000000000008
 20
430.0000000000136
 30
0.0
 40
55.99999999999991
100
AcDbArc
 50
350.7186800739588
 51
9.281319926041341
  0
LINE
  5
26E
330
1F
100
AcDbEntity
  8
LAY-10
  6
CONTINUOUS
 62
     7
100
AcDbLine
 10
386.0752046044369
 20
440.1770048919956
 30
0.0
 11
388.0433511458967
 21
440.534200859837
 31
0.0
  0
LINE
  5
26F
330
1F
100
AcDbEntity
  8
LAY-10
  6
CONTINUOUS
 62
     7
100
AcDbLine
 10
386.0752046044369
 20
419.8229951080313
 30
0.0
 11
388.0433511458967
 21
419.4657991401902
 31
0.0
  0
LINE
  5
270
330
1F
100
AcDbEntity
  8
LAY-10
  6
CONTINUOUS
 62
     7
100
AcDbLine
 10
384.8643947319704
 20
436.0000000000136
 30
0.0
 11
384.6408744404521
 21
436.2749374804684
 31
0.0
  0
LINE
  5
271
330
1F
100
AcDbEntity
  8
LAY-10
  6
CONTINUOUS
 62
     7
100
AcDbLine
 10
384.8643947319704
 20
424.0000000000136
 30
0.0
 11
384.6408744404521
 21
423.7250625195588
 31
0.0
  0
ARC
  5
272
330
1F
100
AcDbEntity
  8
LAY-10
  6
CONTINUOUS
 62
     7
100
AcDbCircle
 10
330.000000000008
 20
430.0000000000136
 30
0.0
 40
55.00000000000004
100
AcDbArc
 50
348.6716405380702
 51
353.4488726909055
  0
ARC
  5
273
330
1F
100
AcDbEntity
  8
LAY-10
  6
CONTINUOUS
 62
     7
100
AcDbCircle
 10
330.000000000008
 20
430.0000000000136
 30
0.0
 40
55.00000000000004
100
AcDbArc
 50
6.551127309094484
 51
11.32835946193053
  0
ARC
  5
274
330
1F
100
AcDbEntity
  8
LAY-10
  6
CONTINUOUS
 62
     7
100
AcDbCircle
 10
274.8031990389416
 20
450.8401814691001
 30
0.0
 40
1.0
100
AcDbArc
 50
159.3153992024841
 51
250.2865606114763
  0
ARC
  5
275
330
1F
100
AcDbEntity
  8
LAY-10
  6
CONTINUOUS
 62
     7
100
AcDbCircle
 10
276.6862619261369
 20
450.1654489806501
 30
0.0
 40
1.0
100
AcDbArc
 50
250.286560611466
 51
339.2813199260488
  0
ARC
  5
276
330
1F
100
AcDbEntity
  8
LAY-10
  6
CONTINUOUS
 62
     7
100
AcDbCircle
 10
285.8793398671221
 20
466.0883270523772
 30
0.0
 40
1.0
100
AcDbArc
 50
320.7186800739798
 51
49.71343938852296
  0
ARC
  5
277
330
1F
100
AcDbEntity
  8
LAY-10
  6
CONTINUOUS
 62
     7
100
AcDbCircle
 10
284.3534729477681
 20
467.3817411053871
 30
0.0
 40
1.0
100
AcDbArc
 50
49.71343938852753
 51
140.6846007975135
  0
ARC
  5
278
330
1F
100
AcDbEntity
  8
LAY-10
  6
CONTINUOUS
 62
     7
100
AcDbCircle
 10
292.6182588946344
 20
475.6465270522535
 30
0.0
 40
1.0
100
AcDbArc
 50
129.3153992024957
 51
220.2865606114862
  0
ARC
  5
279
330
1F
100
AcDbEntity
  8
LAY-10
  6
CONTINUOUS
 62
     7
100
AcDbCircle
 10
293.9116729476442
 20
474.1206601328995
 30
0.0
 40
1.0
100
AcDbArc
 50
220.2865606114884
 51
309.28131992603
  0
ARC
  5
27A
330
1F
100
AcDbEntity
  8
LAY-10
  6
CONTINUOUS
 62
     7
100
AcDbCircle
 10
309.8345510193714
 20
483.3137380738847
 30
0.0
 40
1.0
100
AcDbArc
 50
290.7186800739719
 51
19.71343938851647
  0
ARC
  5
27B
330
1F
100
AcDbEntity
  8
LAY-10
  6
CONTINUOUS
 62
     7
100
AcDbCircle
 10
309.1598185309214
 20
485.19680096108
 30
0.0
 40
1.0
100
AcDbArc
 50
19.71343938851647
 51
110.6846007975118
  0
ARC
  5
27C
330
1F
100
AcDbEntity
  8
LAY-10
  6
CONTINUOUS
 62
     7
100
AcDbCircle
 10
320.4497260911814
 20
488.2219225744736
 30
0.0
 40
1.0
100
AcDbArc
 50
99.31539920248822
 51
190.2865606114692
  0
ARC
  5
27D
330
1F
100
AcDbEntity
  8
LAY-10
  6
CONTINUOUS
 62
     7
100
AcDbCircle
 10
320.8069220590227
 20
486.2537760330138
 30
0.0
 40
1.0
100
AcDbArc
 50
190.2865606114692
 51
279.2813199260455
  0
ARC
  5
27E
330
1F
100
AcDbEntity
  8
LAY-10
  6
CONTINUOUS
 62
     7
100
AcDbCircle
 10
339.1930779409932
 20
486.2537760330138
 30
0.0
 40
1.0
100
AcDbArc
 50
260.7186800739545
 51
349.7134393885309
  0
ARC
  5
27F
330
1F
100
AcDbEntity
  8
LAY-10
  6
CONTINUOUS
 62
     7
100
AcDbCircle
 10
339.5502739088345
 20
488.2219225744736
 30
0.0
 40
1.0
100
AcDbArc
 50
349.7134393885309
 51
80.68460079751183
  0
ARC
  5
280
330
1F
100
AcDbEntity
  8
LAY-10
  6
CONTINUOUS
 62
     7
100
AcDbCircle
 10
350.8401814690945
 20
485.19680096108
 30
0.0
 40
1.0
100
AcDbArc
 50
69.31539920249126
 51
160.2865606114692
  0
ARC
  5
281
330
1F
100
AcDbEntity
  8
LAY-10
  6
CONTINUOUS
 62
     7
100
AcDbCircle
 10
350.1654489806446
 20
483.3137380738847
 30
0.0
 40
1.0
100
AcDbArc
 50
160.2865606114836
 51
249.2813199260445
  0
ARC
  5
282
330
1F
100
AcDbEntity
  8
LAY-10
  6
CONTINUOUS
 62
     7
100
AcDbCircle
 10
366.0883270523717
 20
474.1206601328995
 30
0.0
 40
1.0
100
AcDbArc
 50
230.7186800739727
 51
319.7134393885138
  0
ARC
  5
283
330
1F
100
AcDbEntity
  8
LAY-10
  6
CONTINUOUS
 62
     7
100
AcDbCircle
 10
367.3817411053815
 20
475.6465270522535
 30
0.0
 40
1.0
100
AcDbArc
 50
319.7134393885138
 51
50.68460079750179
  0
ARC
  5
284
330
1F
100
AcDbEntity
  8
LAY-10
  6
CONTINUOUS
 62
     7
100
AcDbCircle
 10
375.6465270522478
 20
467.3817411053871
 30
0.0
 40
1.0
100
AcDbArc
 50
39.31539920248655
 51
130.28656061147
  0
ARC
  5
285
330
1F
100
AcDbEntity
  8
LAY-10
  6
CONTINUOUS
 62
     7
100
AcDbCircle
 10
374.1206601328938
 20
466.0883270523772
 30
0.0
 40
1.0
100
AcDbArc
 50
130.2865606114746
 51
219.281319926032
  0
ARC
  5
286
330
1F
100
AcDbEntity
  8
LAY-10
  6
CONTINUOUS
 62
     7
100
AcDbCircle
 10
383.3137380738792
 20
450.1654489806501
 30
0.0
 40
1.0
100
AcDbArc
 50
200.7186800739514
 51
289.7134393885268
  0
ARC
  5
287
330
1F
100
AcDbEntity
  8
LAY-10
  6
CONTINUOUS
 62
     7
100
AcDbCircle
 10
385.1968009610744
 20
450.8401814691001
 30
0.0
 40
1.0
100
AcDbArc
 50
289.7134393885372
 51
20.68460079751485
  0
ARC
  5
288
330
1F
100
AcDbEntity
  8
LAY-10
  6
CONTINUOUS
 62
     7
100
AcDbCircle
 10
386.2537760330083
 20
439.1930779409988
 30
0.0
 40
1.0
100
AcDbArc
 50
100.2865606114724
 51
189.2813199260385
  0
ARC
  5
289
330
1F
100
AcDbEntity
  8
LAY-10
  6
CONTINUOUS
 62
     7
100
AcDbCircle
 10
388.2219225744681
 20
439.5502739088401
 30
0.0
 40
1.0
100
AcDbArc
 50
9.3153992024882
 51
100.2865606114756
  0
ARC
  5
28A
330
1F
100
AcDbEntity
  8
LAY-10
  6
CONTINUOUS
 62
     7
100
AcDbCircle
 10
386.2537760330083
 20
420.8069220590282
 30
0.0
 40
1.0
100
AcDbArc
 50
170.7186800739546
 51
259.7134393885277
  0
ARC
  5
28B
330
1F
100
AcDbEntity
  8
LAY-10
  6
CONTINUOUS
 62
     7
100
AcDbCircle
 10
388.2219225744681
 20
420.4497260911871
 30
0.0
 40
1.0
100
AcDbArc
 50
259.7134393885207
 51
350.6846007975118
  0
ARC
  5
28C
330
1F
100
AcDbEntity
  8
LAY-10
  6
CONTINUOUS
 62
     7
100
AcDbCircle
 10
383.313738073879
 20
409.834551019377
 30
0.0
 40
1.0
100
AcDbArc
 50
70.28656061146913
 51
159.2813199260312
  0
ARC
  5
28D
330
1F
100
AcDbEntity
  8
LAY-10
  6
CONTINUOUS
 62
     7
100
AcDbCircle
 10
385.1968009610744
 20
409.1598185309269
 30
0.0
 40
1.0
100
AcDbArc
 50
339.3153992024955
 51
70.2865606114733
  0
ARC
  5
28E
330
1F
100
AcDbEntity
  8
LAY-10
  6
CONTINUOUS
 62
     7
100
AcDbCircle
 10
374.1206601328938
 20
393.9116729476498
 30
0.0
 40
1.0
100
AcDbArc
 50
140.7186800739518
 51
229.7134393885254
  0
ARC
  5
28F
330
1F
100
AcDbEntity
  8
LAY-10
  6
CONTINUOUS
 62
     7
100
AcDbCircle
 10
375.6465270522478
 20
392.61825889464
 30
0.0
 40
1.0
100
AcDbArc
 50
229.7134393885254
 51
320.684600797511
  0
ARC
  5
290
330
1F
100
AcDbEntity
  8
LAY-10
  6
CONTINUOUS
 62
     7
100
AcDbCircle
 10
350.1654489806446
 20
376.6862619261425
 30
0.0
 40
1.0
100
AcDbArc
 50
110.7186800739586
 51
199.7134393885279
  0
ARC
  5
291
330
1F
100
AcDbEntity
  8
LAY-10
  6
CONTINUOUS
 62
     7
100
AcDbCircle
 10
350.8401814690945
 20
374.8031990389472
 30
0.0
 40
1.0
100
AcDbArc
 50
199.7134393885309
 51
290.6846007975088
  0
ARC
  5
292
330
1F
100
AcDbEntity
  8
LAY-10
  6
CONTINUOUS
 62
     7
100
AcDbCircle
 10
367.3817411053815
 20
384.3534729477737
 30
0.0
 40
1.0
100
AcDbArc
 50
309.3153992024865
 51
40.28656061148166
  0
ARC
  5
293
330
1F
100
AcDbEntity
  8
LAY-10
  6
CONTINUOUS
 62
     7
100
AcDbCircle
 10
366.0883270523717
 20
385.8793398671277
 30
0.0
 40
1.0
100
AcDbArc
 50
40.28656061148166
 51
129.2813199260345
  0
ARC
  5
294
330
1F
100
AcDbEntity
  8
LAY-10
  6
CONTINUOUS
 62
     7
100
AcDbCircle
 10
339.1930779409932
 20
373.7462239670132
 30
0.0
 40
1.0
100
AcDbArc
 50
10.28656061147942
 51
99.2813199260385
  0
ARC
  5
295
330
1F
100
AcDbEntity
  8
LAY-10
  6
CONTINUOUS
 62
     7
100
AcDbCircle
 10
339.5502739088345
 20
371.7780774255534
 30
0.0
 40
1.0
100
AcDbArc
 50
279.3153992024882
 51
10.28656061148262
  0
ARC
  5
296
330
1F
100
AcDbEntity
  8
LAY-10
  6
CONTINUOUS
 62
     7
100
AcDbCircle
 10
320.8069220590228
 20
373.7462239670132
 30
0.0
 40
1.0
100
AcDbArc
 50
80.7186800739615
 51
169.7134393885206
  0
ARC
  5
297
330
1F
100
AcDbEntity
  8
LAY-10
  6
CONTINUOUS
 62
     7
100
AcDbCircle
 10
320.4497260911814
 20
371.7780774255534
 30
0.0
 40
1.0
100
AcDbArc
 50
169.7134393885175
 51
260.6846007975119
  0
ARC
  5
298
330
1F
100
AcDbEntity
  8
LAY-10
  6
CONTINUOUS
 62
     7
100
AcDbCircle
 10
309.8345510193715
 20
376.6862619261425
 30
0.0
 40
1.0
100
AcDbArc
 50
340.2865606114722
 51
69.2813199260342
  0
ARC
  5
299
330
1F
100
AcDbEntity
  8
LAY-10
  6
CONTINUOUS
 62
     7
100
AcDbCircle
 10
309.1598185309214
 20
374.8031990389472
 30
0.0
 40
1.0
100
AcDbArc
 50
249.3153992024913
 51
340.2865606114722
  0
ARC
  5
29A
330
1F
100
AcDbEntity
  8
LAY-10
  6
CONTINUOUS
 62
     7
100
AcDbCircle
 10
292.6182588946344
 20
384.3534729477737
 30
0.0
 40
1.0
100
AcDbArc
 50
139.7134393885163
 51
230.6846007975135
  0
ARC
  5
29B
330
1F
100
AcDbEntity
  8
LAY-10
  6
CONTINUOUS
 62
     7
100
AcDbCircle
 10
293.9116729476442
 20
385.8793398671277
 30
0.0
 40
1.0
100
AcDbArc
 50
50.7186800739518
 51
139.7134393885163
  0
ARC
  5
29C
330
1F
100
AcDbEntity
  8
LAY-10
  6
CONTINUOUS
 62
     7
100
AcDbCircle
 10
284.3534729477681
 20
392.6182588946401
 30
0.0
 40
1.0
100
AcDbArc
 50
219.3153992024957
 51
310.2865606114771
  0
ARC
  5
29D
330
1F
100
AcDbEntity
  8
LAY-10
  6
CONTINUOUS
 62
     7
100
AcDbCircle
 10
285.8793398671222
 20
393.9116729476498
 30
0.0
 40
1.0
100
AcDbArc
 50
310.28656061147
 51
39.28131992604823
  0
ARC
  5
29E
330
1F
100
AcDbEntity
  8
LAY-10
  6
CONTINUOUS
 62
     7
100
AcDbCircle
 10
274.8031990389416
 20
409.1598185309269
 30
0.0
 40
1.0
100
AcDbArc
 50
109.7134393885237
 51
200.6846007975046
  0
ARC
  5
29F
330
1F
100
AcDbEntity
  8
LAY-10
  6
CONTINUOUS
 62
     7
100
AcDbCircle
 10
276.6862619261369
 20
409.8345510193769
 30
0.0
 40
1.0
100
AcDbArc
 50
20.71868007396159
 51
109.7134393885237
  0
ARC
  5
2A0
330
1F
100
AcDbEntity
  8
LAY-10
  6
CONTINUOUS
 62
     7
100
AcDbCircle
 10
271.7780774255478
 20
439.5502739088401
 30
0.0
 40
1.0
100
AcDbArc
 50
79.71343938852439
 51
170.6846007975252
  0
ARC
  5
2A1
330
1F
100
AcDbEntity
  8
LAY-10
  6
CONTINUOUS
 62
     7
100
AcDbCircle
 10
273.7462239670076
 20
439.1930779409988
 30
0.0
 40
1.0
100
AcDbArc
 50
350.7186800739615
 51
79.71343938852439
  0
ARC
  5
2A2
330
1F
100
AcDbEntity
  8
LAY-10
  6
CONTINUOUS
 62
     7
100
AcDbCircle
 10
271.7780774255478
 20
420.4497260911871
 30
0.0
 40
1.0
100
AcDbArc
 50
189.3153992024882
 51
280.2865606114756
  0
ARC
  5
2A3
330
1F
100
AcDbEntity
  8
LAY-10
  6
CONTINUOUS
 62
     7
100
AcDbCircle
 10
273.7462239670076
 20
420.8069220590282
 30
0.0
 40
1.0
100
AcDbArc
 50
280.2865606114826
 51
9.281319926045468
  0
ARC
  5
2A4
330
1F
100
AcDbEntity
  8
LAY-10
  6
CONTINUOUS
 62
     7
100
AcDbCircle
 10
330.000000000008
 20
430.0000000000136
 30
0.0
 40
60.00000000000036
100
AcDbArc
 50
80.68460079751178
 51
99.31539920248822
  0
ARC
  5
2A5
330
1F
100
AcDbEntity
  8
LAY-10
  6
CONTINUOUS
 62
     7
100
AcDbCircle
 10
330.000000000008
 20
430.0000000000136
 30
0.0
 40
55.99999999999991
100
AcDbArc
 50
80.71868007395847
 51
99.28131992604173
  0
ARC
  5
2A6
330
1F
100
AcDbEntity
  8
LAY-10
  6
CONTINUOUS
 62
     7
100
AcDbCircle
 10
330.000000000008
 20
430.0000000000136
 30
0.0
 40
55.19150124162775
100
AcDbArc
 50
85.84384871348325
 51
94.1561512865164
  0
ARC
  5
2A7
330
1F
100
AcDbEntity
  8
LAY-10
  6
CONTINUOUS
 62
     7
100
AcDbCircle
 10
330.000000000008
 20
430.0000000000136
 30
0.0
 40
55.00000000000004
100
AcDbArc
 50
94.48406421582492
 51
101.3283594619306
  0
LINE
  5
2A8
330
1F
100
AcDbEntity
  8
LAY-10
  6
CONTINUOUS
 62
     7
100
AcDbLine
 10
334.300000000008
 20
484.8316514433177
 30
0.0
 11
334.0000000000081
 21
485.0463605455084
 31
0.0
  0
LINE
  5
2A9
330
1F
100
AcDbEntity
  8
LAY-10
  6
CONTINUOUS
 62
     7
100
AcDbLine
 10
325.7000000000082
 20
484.8316514433179
 30
0.0
 11
326.0000000000082
 21
485.0463605455086
 31
0.0
  0
ARC
  5
2AA
330
1F
100
AcDbEntity
  8
LAY-10
  6
CONTINUOUS
 62
     7
100
AcDbCircle
 10
330.000000000008
 20
430.0000000000136
 30
0.0
 40
55.19150124162775
100
AcDbArc
 50
265.8438487134836
 51
274.1561512865172
  0
LINE
  5
2AB
330
1F
100
AcDbEntity
  8
LAY-10
  6
CONTINUOUS
 62
     7
100
AcDbLine
 10
334.300000000008
 20
375.1683485567094
 30
0.0
 11
334.0000000000081
 21
374.9536394545189
 31
0.0
  0
LINE
  5
2AC
330
1F
100
AcDbEntity
  8
LAY-10
  6
CONTINUOUS
 62
     7
100
AcDbLine
 10
325.7000000000082
 20
375.1683485567094
 30
0.0
 11
326.0000000000082
 21
374.9536394545189
 31
0.0
  0
ARC
  5
2AD
330
1F
100
AcDbEntity
  8
LAY-10
  6
CONTINUOUS
 62
     7
100
AcDbCircle
 10
330.000000000008
 20
430.0000000000136
 30
0.0
 40
55.00000000000004
100
AcDbArc
 50
274.4840642158254
 51
281.328359461931
  0
ARC
  5
2AE
330
1F
100
AcDbEntity
  8
LAY-10
  6
CONTINUOUS
 62
     7
100
AcDbCircle
 10
330.000000000008
 20
430.0000000000136
 30
0.0
 40
60.00000000000036
100
AcDbArc
 50
110.6846007975148
 51
129.3153992024884
  0
ARC
  5
2AF
330
1F
100
AcDbEntity
  8
LAY-10
  6
CONTINUOUS
 62
     7
100
AcDbCircle
 10
330.000000000008
 20
430.0000000000136
 30
0.0
 40
55.99999999999991
100
AcDbArc
 50
110.7186800739587
 51
129.2813199260419
  0
CIRCLE
  5
2B0
330
1F
100
AcDbEntity
  8
LAY-10
  6
CONTINUOUS
 62
     7
100
AcDbCircle
 10
380.5000000000082
 20
430.00000000001
 30
0.0
 40
5.250000000000004
  0
LINE
  5
2B1
330
1F
100
AcDbEntity
  8
LAY-10
  6
CONTINUOUS
 62
     7
100
AcDbLine
 10
385.4633927678683
 20
431.7109156121777
 30
0.0
 11
376.5366072322045
 21
426.5570335801741
 31
0.0
  0
LINE
  5
2B2
330
1F
100
AcDbEntity
  8
LAY-10
  6
CONTINUOUS
 62
     7
100
AcDbLine
 10
384.4633927678707
 20
433.4429664197794
 30
0.0
 11
375.5366072321774
 21
428.2890843877587
 31
0.0
  0
LINE
  5
2B3
330
1F
100
AcDbEntity
  8
LAY-10
  6
CONTINUOUS
 62
     7
100
AcDbLine
 10
284.4633927678683
 20
431.7109156121777
 30
0.0
 11
275.5366072322045
 21
426.5570335801741
 31
0.0
  0
LINE
  5
2B4
330
1F
100
AcDbEntity
  8
LAY-10
  6
CONTINUOUS
 62
     7
100
AcDbLine
 10
283.4633927678707
 20
433.4429664197794
 30
0.0
 11
274.5366072321774
 21
428.2890843877587
 31
0.0
  0
ARC
  5
2B5
330
1F
100
AcDbEntity
  8
LAY-10
  6
CONTINUOUS
 62
     7
100
AcDbCircle
 10
330.000000000008
 20
430.0000000000136
 30
0.0
 40
55.19150124162775
100
AcDbArc
 50
2.557490245882845
 51
6.241095813843032
  0
ARC
  5
2B6
330
1F
100
AcDbEntity
  8
LAY-10
  6
CONTINUOUS
 62
     7
100
AcDbCircle
 10
330.000000000008
 20
430.0000000000136
 30
0.0
 40
55.19150124162775
100
AcDbArc
 50
353.7589041861571
 51
357.4425097541099
  0
ARC
  5
2B7
330
1F
100
AcDbEntity
  8
LAY-10
  6
CONTINUOUS
 62
     7
100
AcDbCircle
 10
330.000000000008
 20
430.0000000000136
 30
0.0
 40
55.19150124162775
100
AcDbArc
 50
182.5574902458895
 51
186.2410958138434
  0
ARC
  5
2B8
330
1F
100
AcDbEntity
  8
LAY-10
  6
CONTINUOUS
 62
     7
100
AcDbCircle
 10
330.000000000008
 20
430.0000000000136
 30
0.0
 40
55.19150124162775
100
AcDbArc
 50
173.758904186157
 51
177.442509754118
  0
ARC
  5
2B9
330
1F
100
AcDbEntity
  8
LAY-10
  6
CONTINUOUS
 62
     7
100
AcDbCircle
 10
319.4344541582457
 20
411.6999377923647
 30
0.0
 40
3.131091683519869
100
AcDbArc
 50
338.521158463065
 51
141.4788415369368
  0
LINE
  5
2BA
330
1F
100
AcDbEntity
  8
LAY-10
  6
CONTINUOUS
 62
     7
100
AcDbLine
 10
314.9216033153405
 20
391.6797671485515
 30
0.0
 11
322.3481004413391
 21
410.5534647365874
 31
0.0
  0
LINE
  5
2BB
330
1F
100
AcDbEntity
  8
LAY-10
  6
CONTINUOUS
 62
     7
100
AcDbLine
 10
304.3529032140561
 20
397.7816089970115
 30
0.0
 11
316.9847562256415
 21
413.6499929632771
 31
0.0
  0
ARC
  5
2BC
330
1F
100
AcDbEntity
  8
LAY-10
  6
CONTINUOUS
 62
     7
100
AcDbCircle
 10
319.4344541582457
 20
411.6999377923647
 30
0.0
 40
4.131091683519867
100
AcDbArc
 50
338.5211584630674
 51
141.4788415369368
  0
LINE
  5
2BD
330
1F
100
AcDbEntity
  8
LAY-10
  6
CONTINUOUS
 62
     7
100
AcDbLine
 10
323.2786532892255
 20
410.1873071239531
 30
0.0
 11
315.8566026296235
 21
391.3249097842951
 31
0.0
  0
LINE
  5
2BE
330
1F
100
AcDbEntity
  8
LAY-10
  6
CONTINUOUS
 62
     7
100
AcDbLine
 10
303.5780880647496
 20
398.4139134735749
 30
0.0
 11
316.2023780073677
 21
414.2727965627936
 31
0.0
  0
ARC
  5
2BF
330
1F
100
AcDbEntity
  8
LAY-10
  6
CONTINUOUS
 62
     7
100
AcDbCircle
 10
311.6999377923793
 20
419.4344541582309
 30
0.0
 40
3.131091683519869
100
AcDbArc
 50
308.5211584630655
 51
111.4788415369351
  0
LINE
  5
2C0
330
1F
100
AcDbEntity
  8
LAY-10
  6
CONTINUOUS
 62
     7
100
AcDbLine
 10
297.7816089970252
 20
404.3529032140407
 30
0.0
 11
313.6499929632917
 21
416.9847562256269
 31
0.0
  0
LINE
  5
2C1
330
1F
100
AcDbEntity
  8
LAY-10
  6
CONTINUOUS
 62
     7
100
AcDbLine
 10
291.6797671485621
 20
414.9216033153241
 30
0.0
 11
310.553464736602
 21
422.3481004413245
 31
0.0
  0
ARC
  5
2C2
330
1F
100
AcDbEntity
  8
LAY-10
  6
CONTINUOUS
 62
     7
100
AcDbCircle
 10
311.6999377923793
 20
419.4344541582309
 30
0.0
 40
4.131091683519867
100
AcDbArc
 50
308.5211584630662
 51
111.4788415369345
  0
LINE
  5
2C3
330
1F
100
AcDbEntity
  8
LAY-10
  6
CONTINUOUS
 62
     7
100
AcDbLine
 10
314.2727965628083
 20
416.2023780073532
 30
0.0
 11
298.4139134735887
 21
403.5780880647344
 31
0.0
  0
LINE
  5
2C4
330
1F
100
AcDbEntity
  8
LAY-10
  6
CONTINUOUS
 62
     7
100
AcDbLine
 10
291.3249097843106
 20
415.8566026296091
 30
0.0
 11
310.1873071239676
 21
423.278653289211
 31
0.0
  0
ARC
  5
2C5
330
1F
100
AcDbEntity
  8
LAY-10
  6
CONTINUOUS
 62
     7
100
AcDbCircle
 10
308.8689083164857
 20
429.9999999999908
 30
0.0
 40
3.131091683519869
100
AcDbArc
 50
278.5211584630671
 51
81.47884153693715
  0
LINE
  5
2C6
330
1F
100
AcDbEntity
  8
LAY-10
  6
CONTINUOUS
 62
     7
100
AcDbLine
 10
289.2745065293851
 20
423.8981581515293
 30
0.0
 11
309.332856666975
 21
426.9034717733014
 31
0.0
  0
LINE
  5
2C7
330
1F
100
AcDbEntity
  8
LAY-10
  6
CONTINUOUS
 62
     7
100
AcDbLine
 10
289.274506529382
 20
436.1018418484529
 30
0.0
 11
309.332856666975
 21
433.0965282266804
 31
0.0
  0
ARC
  5
2C8
330
1F
100
AcDbEntity
  8
LAY-10
  6
CONTINUOUS
 62
     7
100
AcDbCircle
 10
308.8689083164857
 20
429.9999999999908
 30
0.0
 40
4.131091683519867
100
AcDbArc
 50
278.5211584630656
 51
81.47884153693538
  0
LINE
  5
2C9
330
1F
100
AcDbEntity
  8
LAY-10
  6
CONTINUOUS
 62
     7
100
AcDbLine
 10
309.4810312965878
 20
425.9145105611503
 30
0.0
 11
289.4346906943667
 21
422.9109963107118
 31
0.0
  0
LINE
  5
2CA
330
1F
100
AcDbEntity
  8
LAY-10
  6
CONTINUOUS
 62
     7
100
AcDbLine
 10
289.4346906943679
 20
437.0890036892696
 30
0.0
 11
309.4810312965877
 21
434.0854894388315
 31
0.0
  0
ARC
  5
2CB
330
1F
100
AcDbEntity
  8
LAY-10
  6
CONTINUOUS
 62
     7
100
AcDbCircle
 10
311.6999377923792
 20
440.5655458417509
 30
0.0
 40
3.131091683519869
100
AcDbArc
 50
248.5211584630639
 51
51.4788415369353
  0
LINE
  5
2CC
330
1F
100
AcDbEntity
  8
LAY-10
  6
CONTINUOUS
 62
     7
100
AcDbLine
 10
291.6797671485549
 20
445.0783966846604
 30
0.0
 11
310.553464736602
 21
437.6518995586575
 31
0.0
  0
LINE
  5
2CD
330
1F
100
AcDbEntity
  8
LAY-10
  6
CONTINUOUS
 62
     7
100
AcDbLine
 10
297.7816089970148
 20
455.6470967859493
 30
0.0
 11
313.6499929632916
 21
443.0152437743552
 31
0.0
  0
ARC
  5
2CE
330
1F
100
AcDbEntity
  8
LAY-10
  6
CONTINUOUS
 62
     7
100
AcDbCircle
 10
311.6999377923792
 20
440.5655458417509
 30
0.0
 40
4.131091683519867
100
AcDbArc
 50
248.5211584630656
 51
51.47884153693565
  0
LINE
  5
2CF
330
1F
100
AcDbEntity
  8
LAY-10
  6
CONTINUOUS
 62
     7
100
AcDbLine
 10
310.1873071239676
 20
436.7213467107708
 30
0.0
 11
291.3249097843096
 21
444.1433973703731
 31
0.0
  0
LINE
  5
2D0
330
1F
100
AcDbEntity
  8
LAY-10
  6
CONTINUOUS
 62
     7
100
AcDbLine
 10
298.4139134735893
 20
456.4219119352467
 30
0.0
 11
314.272796562808
 21
443.7976219926288
 31
0.0
  0
ARC
  5
2D1
330
1F
100
AcDbEntity
  8
LAY-10
  6
CONTINUOUS
 62
     7
100
AcDbCircle
 10
319.4344541582454
 20
448.3000622076174
 30
0.0
 40
3.131091683519869
100
AcDbArc
 50
218.5211584630686
 51
21.47884153693047
  0
LINE
  5
2D2
330
1F
100
AcDbEntity
  8
LAY-10
  6
CONTINUOUS
 62
     7
100
AcDbLine
 10
304.3529032140457
 20
462.218391002983
 30
0.0
 11
316.9847562256414
 21
446.3500070367049
 31
0.0
  0
LINE
  5
2D3
330
1F
100
AcDbEntity
  8
LAY-10
  6
CONTINUOUS
 62
     7
100
AcDbLine
 10
314.9216033153328
 20
468.3202328514496
 30
0.0
 11
322.348100441339
 21
449.4465352633944
 31
0.0
  0
ARC
  5
2D4
330
1F
100
AcDbEntity
  8
LAY-10
  6
CONTINUOUS
 62
     7
100
AcDbCircle
 10
319.4344541582454
 20
448.3000622076174
 30
0.0
 40
4.131091683519867
100
AcDbArc
 50
218.5211584630695
 51
21.47884153693093
  0
LINE
  5
2D5
330
1F
100
AcDbEntity
  8
LAY-10
  6
CONTINUOUS
 62
     7
100
AcDbLine
 10
316.2023780073677
 20
445.7272034371883
 30
0.0
 11
303.5780880647487
 21
461.5860865264078
 31
0.0
  0
LINE
  5
2D6
330
1F
100
AcDbEntity
  8
LAY-10
  6
CONTINUOUS
 62
     7
100
AcDbLine
 10
315.8566026296236
 20
468.6750902156859
 30
0.0
 11
323.2786532892255
 21
449.8126928760288
 31
0.0
  0
ARC
  5
2D7
330
1F
100
AcDbEntity
  8
LAY-10
  6
CONTINUOUS
 62
     7
100
AcDbCircle
 10
330.0000000000053
 20
451.1310916835109
 30
0.0
 40
3.131091683519869
100
AcDbArc
 50
188.5211584630672
 51
351.4788415369329
  0
LINE
  5
2D8
330
1F
100
AcDbEntity
  8
LAY-10
  6
CONTINUOUS
 62
     7
100
AcDbLine
 10
323.8999575228743
 20
470.7134839352623
 30
0.0
 11
326.9034717733158
 21
450.6671433330216
 31
0.0
  0
LINE
  5
2D9
330
1F
100
AcDbEntity
  8
LAY-10
  6
CONTINUOUS
 62
     7
100
AcDbLine
 10
336.1000424771364
 20
470.7134839352627
 30
0.0
 11
333.096528226695
 21
450.6671433330216
 31
0.0
  0
ARC
  5
2DA
330
1F
100
AcDbEntity
  8
LAY-10
  6
CONTINUOUS
 62
     7
100
AcDbCircle
 10
330.0000000000084
 20
430.0000000000014
 30
0.0
 40
41.18007154400722
100
AcDbArc
 50
128.5211584630792
 51
141.4788415369471
  0
ARC
  5
2DB
330
1F
100
AcDbEntity
  8
LAY-10
  6
CONTINUOUS
 62
     7
100
AcDbCircle
 10
330.0000000000084
 20
430.0000000000014
 30
0.0
 40
41.18007154400722
100
AcDbArc
 50
158.5211584630819
 51
171.4788415369482
  0
ARC
  5
2DC
330
1F
100
AcDbEntity
  8
LAY-10
  6
CONTINUOUS
 62
     7
100
AcDbCircle
 10
330.0000000000084
 20
430.0000000000014
 30
0.0
 40
41.18007154400722
100
AcDbArc
 50
188.5211584630806
 51
201.4788415369454
  0
ARC
  5
2DD
330
1F
100
AcDbEntity
  8
LAY-10
  6
CONTINUOUS
 62
     7
100
AcDbCircle
 10
330.0000000000084
 20
430.0000000000014
 30
0.0
 40
41.18007154400722
100
AcDbArc
 50
218.521158463076
 51
231.4788415369391
  0
LINE
  5
2DE
330
1F
100
AcDbEntity
  8
LAY-10
  6
CONTINUOUS
 62
     7
100
AcDbLine
 10
337.0890036892841
 20
470.5653093056287
 30
0.0
 11
334.0854894388459
 21
450.5189687034089
 31
0.0
  0
ARC
  5
2DF
330
1F
100
AcDbEntity
  8
LAY-10
  6
CONTINUOUS
 62
     7
100
AcDbCircle
 10
330.0000000000053
 20
451.1310916835109
 30
0.0
 40
4.131091683519867
100
AcDbArc
 50
188.5211584630647
 51
351.4788415369355
  0
LINE
  5
2E0
330
1F
100
AcDbEntity
  8
LAY-10
  6
CONTINUOUS
 62
     7
100
AcDbLine
 10
325.9145105611649
 20
450.5189687034087
 30
0.0
 11
322.9109963107263
 21
470.5653093056299
 31
0.0
  0
ARC
  5
2E1
330
1F
100
AcDbEntity
  8
LAY-10
  6
CONTINUOUS
 62
     7
100
AcDbCircle
 10
330.0000000000055
 20
430.0000000000014
 30
0.0
 40
41.18007154400722
100
AcDbArc
 50
98.52115846306911
 51
111.4788415369388
  0
ARC
  5
2E2
330
1F
100
AcDbEntity
  8
LAY-10
  6
CONTINUOUS
 62
     7
100
AcDbCircle
 10
330.0000000000084
 20
430.0000000000014
 30
0.0
 40
37.11836509646413
100
AcDbArc
 50
81.47884153693548
 51
98.52115846307392
  0
ARC
  5
2E3
330
1F
100
AcDbEntity
  8
LAY-10
  6
CONTINUOUS
 62
     7
100
AcDbCircle
 10
330.0000000000084
 20
430.0000000000014
 30
0.0
 40
37.11836509646413
100
AcDbArc
 50
111.4788415369434
 51
128.5211584630805
  0
ARC
  5
2E4
330
1F
100
AcDbEntity
  8
LAY-10
  6
CONTINUOUS
 62
     7
100
AcDbCircle
 10
330.0000000000084
 20
430.0000000000014
 30
0.0
 40
37.11836509646413
100
AcDbArc
 50
141.4788415369488
 51
158.5211584630835
  0
ARC
  5
2E5
330
1F
100
AcDbEntity
  8
LAY-10
  6
CONTINUOUS
 62
     7
100
AcDbCircle
 10
330.0000000000084
 20
430.0000000000014
 30
0.0
 40
37.11836509646413
100
AcDbArc
 50
171.4788415369499
 51
188.5211584630822
  0
ARC
  5
2E6
330
1F
100
AcDbEntity
  8
LAY-10
  6
CONTINUOUS
 62
     7
100
AcDbCircle
 10
330.0000000000084
 20
430.0000000000014
 30
0.0
 40
37.11836509646413
100
AcDbArc
 50
231.4788415369395
 51
248.5211584630689
  0
ARC
  5
2E7
330
1F
100
AcDbEntity
  8
LAY-10
  6
CONTINUOUS
 62
     7
100
AcDbCircle
 10
330.0000000000084
 20
430.0000000000014
 30
0.0
 40
37.11836509646413
100
AcDbArc
 50
201.4788415369468
 51
218.5211584630767
  0
LINE
  5
2E8
330
1F
100
AcDbEntity
  8
LAY-10
  6
CONTINUOUS
 62
     7
100
AcDbLine
 10
277.4428882072166
 20
440.0000000000104
 30
0.0
 11
290.0525558718872
 21
440.0000000000104
 31
0.0
  0
LINE
  5
2E9
330
1F
100
AcDbEntity
  8
LAY-10
  6
CONTINUOUS
 62
     7
100
AcDbLine
 10
277.4428882072166
 20
420.0000000000105
 30
0.0
 11
290.0525558718826
 21
420.0000000000105
 31
0.0
  0
ARC
  5
2EA
330
1F
100
AcDbEntity
  8
LAY-10
  6
CONTINUOUS
 62
     7
100
AcDbCircle
 10
330.0000000000053
 20
408.86890831651
 30
0.0
 40
3.131091683519869
100
AcDbArc
 50
8.521158463062887
 51
171.4788415369329
  0
ARC
  5
2EB
330
1F
100
AcDbEntity
  8
LAY-10
  6
CONTINUOUS
 62
     7
100
AcDbCircle
 10
330.0000000000053
 20
408.86890831651
 30
0.0
 40
4.131091683519867
100
AcDbArc
 50
8.52115846306306
 51
171.4788415369337
  0
LINE
  5
2EC
330
1F
100
AcDbEntity
  8
LAY-10
  6
CONTINUOUS
 62
     7
100
AcDbLine
 10
323.8999575228743
 20
389.2865160647586
 30
0.0
 11
326.9034717733158
 21
409.3328566669993
 31
0.0
  0
LINE
  5
2ED
330
1F
100
AcDbEntity
  8
LAY-10
  6
CONTINUOUS
 62
     7
100
AcDbLine
 10
325.9145105611649
 20
409.4810312966122
 30
0.0
 11
322.9109963107263
 21
389.4346906943911
 31
0.0
  0
LINE
  5
2EE
330
1F
100
AcDbEntity
  8
LAY-10
  6
CONTINUOUS
 62
     7
100
AcDbLine
 10
336.1000424771364
 20
389.2865160647582
 30
0.0
 11
333.096528226695
 21
409.3328566669993
 31
0.0
  0
LINE
  5
2EF
330
1F
100
AcDbEntity
  8
LAY-10
  6
CONTINUOUS
 62
     7
100
AcDbLine
 10
337.0890036892841
 20
389.4346906943922
 30
0.0
 11
334.0854894388459
 21
409.4810312966121
 31
0.0
  0
ARC
  5
2F0
330
1F
100
AcDbEntity
  8
LAY-10
  6
CONTINUOUS
 62
     7
100
AcDbCircle
 10
330.0000000000084
 20
430.0000000000193
 30
0.0
 40
37.11836509646413
100
AcDbArc
 50
261.4788415369261
 51
278.5211584630648
  0
ARC
  5
2F1
330
1F
100
AcDbEntity
  8
LAY-10
  6
CONTINUOUS
 62
     7
100
AcDbCircle
 10
330.0000000000084
 20
430.0000000000014
 30
0.0
 40
41.18007154400722
100
AcDbArc
 50
248.5211584630685
 51
261.4788415369333
  0
ARC
  5
2F2
330
1F
100
AcDbEntity
  8
LAY-10
  6
CONTINUOUS
 62
     7
100
AcDbCircle
 10
340.5655458417708
 20
411.6999377923647
 30
0.0
 40
3.131091683519869
100
AcDbArc
 50
38.52115846306329
 51
201.4788415369351
  0
LINE
  5
2F3
330
1F
100
AcDbEntity
  8
LAY-10
  6
CONTINUOUS
 62
     7
100
AcDbLine
 10
345.078396684676
 20
391.6797671485515
 30
0.0
 11
337.6518995586774
 21
410.5534647365874
 31
0.0
  0
LINE
  5
2F4
330
1F
100
AcDbEntity
  8
LAY-10
  6
CONTINUOUS
 62
     7
100
AcDbLine
 10
355.6470967859604
 20
397.7816089970115
 30
0.0
 11
343.015243774375
 21
413.6499929632771
 31
0.0
  0
ARC
  5
2F5
330
1F
100
AcDbEntity
  8
LAY-10
  6
CONTINUOUS
 62
     7
100
AcDbCircle
 10
340.5655458417708
 20
411.6999377923647
 30
0.0
 40
4.131091683519867
100
AcDbArc
 50
38.52115846306329
 51
201.4788415369327
  0
LINE
  5
2F6
330
1F
100
AcDbEntity
  8
LAY-10
  6
CONTINUOUS
 62
     7
100
AcDbLine
 10
336.721346710791
 20
410.1873071239531
 30
0.0
 11
344.143397370393
 21
391.3249097842951
 31
0.0
  0
LINE
  5
2F7
330
1F
100
AcDbEntity
  8
LAY-10
  6
CONTINUOUS
 62
     7
100
AcDbLine
 10
356.4219119352668
 20
398.4139134735749
 30
0.0
 11
343.7976219926488
 21
414.2727965627936
 31
0.0
  0
ARC
  5
2F8
330
1F
100
AcDbEntity
  8
LAY-10
  6
CONTINUOUS
 62
     7
100
AcDbCircle
 10
348.3000622076372
 20
419.4344541582309
 30
0.0
 40
3.131091683519869
100
AcDbArc
 50
68.52115846306492
 51
231.4788415369345
  0
LINE
  5
2F9
330
1F
100
AcDbEntity
  8
LAY-10
  6
CONTINUOUS
 62
     7
100
AcDbLine
 10
362.2183910029913
 20
404.3529032140407
 30
0.0
 11
346.3500070367248
 21
416.9847562256269
 31
0.0
  0
LINE
  5
2FA
330
1F
100
AcDbEntity
  8
LAY-10
  6
CONTINUOUS
 62
     7
100
AcDbLine
 10
368.3202328514544
 20
414.9216033153241
 30
0.0
 11
349.4465352634145
 21
422.3481004413245
 31
0.0
  0
ARC
  5
2FB
330
1F
100
AcDbEntity
  8
LAY-10
  6
CONTINUOUS
 62
     7
100
AcDbCircle
 10
348.3000622076372
 20
419.4344541582309
 30
0.0
 40
4.131091683519867
100
AcDbArc
 50
68.52115846306555
 51
231.478841536935
  0
LINE
  5
2FC
330
1F
100
AcDbEntity
  8
LAY-10
  6
CONTINUOUS
 62
     7
100
AcDbLine
 10
345.7272034372082
 20
416.2023780073532
 30
0.0
 11
361.5860865264278
 21
403.5780880647344
 31
0.0
  0
LINE
  5
2FD
330
1F
100
AcDbEntity
  8
LAY-10
  6
CONTINUOUS
 62
     7
100
AcDbLine
 10
368.6750902157058
 20
415.8566026296091
 30
0.0
 11
349.8126928760489
 21
423.278653289211
 31
0.0
  0
ARC
  5
2FE
330
1F
100
AcDbEntity
  8
LAY-10
  6
CONTINUOUS
 62
     7
100
AcDbCircle
 10
351.1310916835308
 20
429.9999999999908
 30
0.0
 40
3.131091683519869
100
AcDbArc
 50
98.52115846306286
 51
261.4788415369328
  0
LINE
  5
2FF
330
1F
100
AcDbEntity
  8
LAY-10
  6
CONTINUOUS
 62
     7
100
AcDbLine
 10
370.7254934706314
 20
423.8981581515293
 30
0.0
 11
350.6671433330415
 21
426.9034717733014
 31
0.0
  0
LINE
  5
300
330
1F
100
AcDbEntity
  8
LAY-10
  6
CONTINUOUS
 62
     7
100
AcDbLine
 10
370.7254934706345
 20
436.1018418484529
 30
0.0
 11
350.6671433330415
 21
433.0965282266804
 31
0.0
  0
ARC
  5
301
330
1F
100
AcDbEntity
  8
LAY-10
  6
CONTINUOUS
 62
     7
100
AcDbCircle
 10
351.1310916835308
 20
429.9999999999908
 30
0.0
 40
4.131091683519867
100
AcDbArc
 50
98.52115846306556
 51
261.4788415369345
  0
LINE
  5
302
330
1F
100
AcDbEntity
  8
LAY-10
  6
CONTINUOUS
 62
     7
100
AcDbLine
 10
350.5189687034286
 20
425.9145105611503
 30
0.0
 11
370.5653093056497
 21
422.9109963107118
 31
0.0
  0
LINE
  5
303
330
1F
100
AcDbEntity
  8
LAY-10
  6
CONTINUOUS
 62
     7
100
AcDbLine
 10
370.5653093056486
 20
437.0890036892696
 30
0.0
 11
350.5189687034288
 21
434.0854894388315
 31
0.0
  0
ARC
  5
304
330
1F
100
AcDbEntity
  8
LAY-10
  6
CONTINUOUS
 62
     7
100
AcDbCircle
 10
348.3000622076373
 20
440.5655458417509
 30
0.0
 40
3.131091683519869
100
AcDbArc
 50
128.5211584630648
 51
291.4788415369361
  0
LINE
  5
305
330
1F
100
AcDbEntity
  8
LAY-10
  6
CONTINUOUS
 62
     7
100
AcDbLine
 10
368.3202328514616
 20
445.0783966846604
 30
0.0
 11
349.4465352634145
 21
437.6518995586575
 31
0.0
  0
LINE
  5
306
330
1F
100
AcDbEntity
  8
LAY-10
  6
CONTINUOUS
 62
     7
100
AcDbLine
 10
362.2183910030017
 20
455.6470967859493
 30
0.0
 11
346.3500070367249
 21
443.0152437743552
 31
0.0
  0
ARC
  5
307
330
1F
100
AcDbEntity
  8
LAY-10
  6
CONTINUOUS
 62
     7
100
AcDbCircle
 10
348.3000622076373
 20
440.5655458417509
 30
0.0
 40
4.131091683519867
100
AcDbArc
 50
128.5211584630644
 51
291.4788415369345
  0
LINE
  5
308
330
1F
100
AcDbEntity
  8
LAY-10
  6
CONTINUOUS
 62
     7
100
AcDbLine
 10
349.8126928760489
 20
436.7213467107708
 30
0.0
 11
368.6750902157069
 21
444.1433973703731
 31
0.0
  0
LINE
  5
309
330
1F
100
AcDbEntity
  8
LAY-10
  6
CONTINUOUS
 62
     7
100
AcDbLine
 10
361.5860865264272
 20
456.4219119352467
 30
0.0
 11
345.7272034372085
 21
443.7976219926288
 31
0.0
  0
ARC
  5
30A
330
1F
100
AcDbEntity
  8
LAY-10
  6
CONTINUOUS
 62
     7
100
AcDbCircle
 10
340.565545841771
 20
448.3000622076174
 30
0.0
 40
3.131091683519869
100
AcDbArc
 50
158.5211584630696
 51
321.4788415369316
  0
LINE
  5
30B
330
1F
100
AcDbEntity
  8
LAY-10
  6
CONTINUOUS
 62
     7
100
AcDbLine
 10
355.6470967859708
 20
462.218391002983
 30
0.0
 11
343.0152437743751
 21
446.3500070367049
 31
0.0
  0
LINE
  5
30C
330
1F
100
AcDbEntity
  8
LAY-10
  6
CONTINUOUS
 62
     7
100
AcDbLine
 10
345.0783966846837
 20
468.3202328514496
 30
0.0
 11
337.6518995586775
 21
449.4465352633944
 31
0.0
  0
ARC
  5
30D
330
1F
100
AcDbEntity
  8
LAY-10
  6
CONTINUOUS
 62
     7
100
AcDbCircle
 10
340.565545841771
 20
448.3000622076174
 30
0.0
 40
4.131091683519867
100
AcDbArc
 50
158.5211584630691
 51
321.4788415369306
  0
LINE
  5
30E
330
1F
100
AcDbEntity
  8
LAY-10
  6
CONTINUOUS
 62
     7
100
AcDbLine
 10
343.7976219926488
 20
445.7272034371883
 30
0.0
 11
356.4219119352678
 21
461.5860865264078
 31
0.0
  0
LINE
  5
30F
330
1F
100
AcDbEntity
  8
LAY-10
  6
CONTINUOUS
 62
     7
100
AcDbLine
 10
344.1433973703928
 20
468.6750902156859
 30
0.0
 11
336.721346710791
 21
449.8126928760288
 31
0.0
  0
ARC
  5
310
330
1F
100
AcDbEntity
  8
LAY-10
  6
CONTINUOUS
 62
     7
100
AcDbCircle
 10
330.0000000000081
 20
430.0000000000014
 30
0.0
 40
41.18007154400722
100
AcDbArc
 50
38.52115846305293
 51
51.47884153692098
  0
ARC
  5
311
330
1F
100
AcDbEntity
  8
LAY-10
  6
CONTINUOUS
 62
     7
100
AcDbCircle
 10
330.0000000000081
 20
430.0000000000014
 30
0.0
 40
41.18007154400722
100
AcDbArc
 50
8.521158463051773
 51
21.4788415369181
  0
ARC
  5
312
330
1F
100
AcDbEntity
  8
LAY-10
  6
CONTINUOUS
 62
     7
100
AcDbCircle
 10
330.0000000000081
 20
430.0000000000014
 30
0.0
 40
41.18007154400722
100
AcDbArc
 50
338.5211584630547
 51
351.4788415369194
  0
ARC
  5
313
330
1F
100
AcDbEntity
  8
LAY-10
  6
CONTINUOUS
 62
     7
100
AcDbCircle
 10
330.0000000000081
 20
430.0000000000014
 30
0.0
 40
41.18007154400722
100
AcDbArc
 50
308.5211584630609
 51
321.4788415369242
  0
ARC
  5
314
330
1F
100
AcDbEntity
  8
LAY-10
  6
CONTINUOUS
 62
     7
100
AcDbCircle
 10
330.000000000011
 20
430.0000000000014
 30
0.0
 40
41.18007154400722
100
AcDbArc
 50
68.52115846306135
 51
81.47884153693096
  0
ARC
  5
315
330
1F
100
AcDbEntity
  8
LAY-10
  6
CONTINUOUS
 62
     7
100
AcDbCircle
 10
330.0000000000081
 20
430.0000000000014
 30
0.0
 40
37.11836509646413
100
AcDbArc
 50
51.47884153691954
 51
68.52115846305666
  0
ARC
  5
316
330
1F
100
AcDbEntity
  8
LAY-10
  6
CONTINUOUS
 62
     7
100
AcDbCircle
 10
330.0000000000081
 20
430.0000000000014
 30
0.0
 40
37.11836509646413
100
AcDbArc
 50
21.47884153691649
 51
38.52115846305121
  0
ARC
  5
317
330
1F
100
AcDbEntity
  8
LAY-10
  6
CONTINUOUS
 62
     7
100
AcDbCircle
 10
330.0000000000081
 20
430.0000000000014
 30
0.0
 40
37.11836509646413
100
AcDbArc
 50
351.4788415369179
 51
8.521158463050169
  0
ARC
  5
318
330
1F
100
AcDbEntity
  8
LAY-10
  6
CONTINUOUS
 62
     7
100
AcDbCircle
 10
330.0000000000081
 20
430.0000000000014
 30
0.0
 40
37.11836509646413
100
AcDbArc
 50
291.4788415369311
 51
308.5211584630605
  0
ARC
  5
319
330
1F
100
AcDbEntity
  8
LAY-10
  6
CONTINUOUS
 62
     7
100
AcDbCircle
 10
330.0000000000081
 20
430.0000000000014
 30
0.0
 40
37.11836509646413
100
AcDbArc
 50
321.4788415369233
 51
338.5211584630533
  0
ARC
  5
31A
330
1F
100
AcDbEntity
  8
LAY-10
  6
CONTINUOUS
 62
     7
100
AcDbCircle
 10
330.0000000000081
 20
430.0000000000014
 30
0.0
 40
41.18007154400722
100
AcDbArc
 50
278.5211584630671
 51
291.4788415369318
  0
LINE
  5
31B
330
1F
100
AcDbEntity
  8
LAY-10
  6
CONTINUOUS
 62
     7
100
AcDbLine
 10
382.5571117927999
 20
440.0000000000104
 30
0.0
 11
369.9474441281293
 21
440.0000000000104
 31
0.0
  0
LINE
  5
31C
330
1F
100
AcDbEntity
  8
LAY-10
  6
CONTINUOUS
 62
     7
100
AcDbLine
 10
382.5571117927999
 20
420.0000000000105
 30
0.0
 11
369.9474441281338
 21
420.0000000000105
 31
0.0
  0
LINE
  5
31D
330
1F
100
AcDbEntity
  8
LAY-10
  6
CONTINUOUS
 62
     7
100
AcDbLine
 10
276.8375132259677
 20
424.0000000000136
 30
0.0
 11
275.1356052680454
 21
424.0000000000136
 31
0.0
  0
LINE
  5
31E
330
1F
100
AcDbEntity
  8
LAY-10
  6
CONTINUOUS
 62
     7
100
AcDbLine
 10
276.8692635133339
 20
423.7250625195588
 30
0.0
 11
275.3591255595638
 21
423.7250625195588
 31
0.0
  0
LINE
  5
31F
330
1F
100
AcDbEntity
  8
LAY-10
  6
CONTINUOUS
 62
     7
100
AcDbLine
 10
276.8692635133347
 20
436.2749374804684
 30
0.0
 11
275.3591255595638
 21
436.2749374804684
 31
0.0
  0
LINE
  5
320
330
1F
100
AcDbEntity
  8
LAY-10
  6
CONTINUOUS
 62
     7
100
AcDbLine
 10
276.8375132259683
 20
436.0000000000136
 30
0.0
 11
275.1356052680454
 21
436.0000000000136
 31
0.0
  0
CIRCLE
  5
321
330
1F
100
AcDbEntity
  8
LAY-10
  6
CONTINUOUS
 62
     7
100
AcDbCircle
 10
279.5000000000082
 20
430.00000000001
 30
0.0
 40
5.250000000000004
  0
ARC
  5
322
330
1F
100
AcDbEntity
  8
LAY-10
  6
CONTINUOUS
 62
     7
100
AcDbCircle
 10
281.0000000000082
 20
430.0000000000105
 30
0.0
 40
3.999999999999887
100
AcDbArc
 50
320.8995693450668
 51
39.10043065492277
  0
LINE
  5
323
330
1F
100
AcDbEntity
  8
LAY-10
  6
CONTINUOUS
 62
     7
100
AcDbLine
 10
383.1624867740481
 20
436.0000000000136
 30
0.0
 11
384.8643947319704
 21
436.0000000000136
 31
0.0
  0
LINE
  5
324
330
1F
100
AcDbEntity
  8
LAY-10
  6
CONTINUOUS
 62
     7
100
AcDbLine
 10
383.1307364866818
 20
436.2749374804684
 30
0.0
 11
384.6408744404521
 21
436.2749374804684
 31
0.0
  0
LINE
  5
325
330
1F
100
AcDbEntity
  8
LAY-10
  6
CONTINUOUS
 62
     7
100
AcDbLine
 10
383.1624867740488
 20
424.0000000000136
 30
0.0
 11
384.8643947319704
 21
424.0000000000136
 31
0.0
  0
LINE
  5
326
330
1F
100
AcDbEntity
  8
LAY-10
  6
CONTINUOUS
 62
     7
100
AcDbLine
 10
383.1307364866826
 20
423.7250625195588
 30
0.0
 11
384.6408744404521
 21
423.7250625195588
 31
0.0
  0
ARC
  5
327
330
1F
100
AcDbEntity
  8
LAY-10
  6
CONTINUOUS
 62
     7
100
AcDbCircle
 10
330.0000000000082
 20
430.0000000000105
 30
0.0
 40
53.50000000000004
100
AcDbArc
 50
184.7505368441552
 51
355.249463155845
  0
ARC
  5
328
330
1F
100
AcDbEntity
  8
LAY-10
  6
CONTINUOUS
 62
     7
100
AcDbCircle
 10
379.0000000000083
 20
430.0000000000105
 30
0.0
 40
3.999999999999887
100
AcDbArc
 50
140.8995693450877
 51
219.1004306549228
  0
ARC
  5
329
330
1F
100
AcDbEntity
  8
LAY-10
  6
CONTINUOUS
 62
     7
100
AcDbCircle
 10
330.0000000000082
 20
430.0000000000105
 30
0.0
 40
53.50000000000004
100
AcDbArc
 50
4.750536844154055
 51
175.2494631558458
  0
LINE
  5
32A
330
1F
100
AcDbEntity
  8
LAY-10
  6
CONTINUOUS
 62
     7
100
AcDbLine
 10
325.7000000000082
 20
375.1683485567094
 30
0.0
 11
325.7000000000082
 21
376.6730837193928
 31
0.0
  0
LINE
  5
32B
330
1F
100
AcDbEntity
  8
LAY-10
  6
CONTINUOUS
 62
     7
100
AcDbLine
 10
326.0000000000082
 20
374.9536394545189
 30
0.0
 11
326.0000000000082
 21
376.6497422686742
 31
0.0
  0
LINE
  5
32C
330
1F
100
AcDbEntity
  8
LAY-10
  6
CONTINUOUS
 62
     7
100
AcDbLine
 10
334.0000000000081
 20
374.9536394545189
 30
0.0
 11
334.0000000000081
 21
376.6497422686742
 31
0.0
  0
LINE
  5
32D
330
1F
100
AcDbEntity
  8
LAY-10
  6
CONTINUOUS
 62
     7
100
AcDbLine
 10
334.300000000008
 20
376.6730837193928
 30
0.0
 11
334.300000000008
 21
375.1683485567094
 31
0.0
  0
LINE
  5
32E
330
1F
100
AcDbEntity
  8
LAY-10
  6
CONTINUOUS
 62
     7
100
AcDbLine
 10
325.7000000000082
 20
484.8316514433179
 30
0.0
 11
325.7000000000082
 21
483.3269162806282
 31
0.0
  0
LINE
  5
32F
330
1F
100
AcDbEntity
  8
LAY-10
  6
CONTINUOUS
 62
     7
100
AcDbLine
 10
326.0000000000082
 20
485.0463605455084
 30
0.0
 11
326.0000000000082
 21
483.3502577313468
 31
0.0
  0
LINE
  5
330
330
1F
100
AcDbEntity
  8
LAY-10
  6
CONTINUOUS
 62
     7
100
AcDbLine
 10
334.300000000008
 20
483.3269162806282
 30
0.0
 11
334.300000000008
 21
484.8316514433177
 31
0.0
  0
LINE
  5
331
330
1F
100
AcDbEntity
  8
LAY-10
  6
CONTINUOUS
 62
     7
100
AcDbLine
 10
334.0000000000081
 20
485.0463605455084
 30
0.0
 11
334.0000000000081
 21
483.3502577313468
 31
0.0
  0
LINE
  5
332
330
1F
100
AcDbEntity
  8
LAY-10
  6
CONTINUOUS
 62
     7
100
AcDbLine
 10
262.5000000000069
 20
175.1986412404987
 30
0.0
 11
262.5000000000069
 21
176.1986412404969
 31
0.0
  0
LINE
  5
333
330
1F
100
AcDbEntity
  8
LAY-10
  6
CONTINUOUS
 62
     7
100
AcDbLine
 10
267.5000000000063
 20
175.1986412404987
 30
0.0
 11
267.5000000000063
 21
176.198641240498
 31
0.0
  0
LINE
  5
334
330
1F
100
AcDbEntity
  8
LAY-10
  6
CONTINUOUS
 62
     7
100
AcDbLine
 10
267.5000000000063
 20
176.198641240498
 30
0.0
 11
262.5000000000069
 21
176.198641240498
 31
0.0
  0
LINE
  5
335
330
1F
100
AcDbEntity
  8
LAY-10
  6
CONTINUOUS
 62
     7
100
AcDbLine
 10
268.0000000000094
 20
174.698641240498
 30
0.0
 11
262.0000000000094
 21
174.698641240498
 31
0.0
  0
LINE
  5
336
330
1F
100
AcDbEntity
  8
LAY-10
  6
CONTINUOUS
 62
     7
100
AcDbLine
 10
267.5000000000094
 20
175.1986412404987
 30
0.0
 11
262.5000000000094
 21
175.1986412404987
 31
0.0
  0
LINE
  5
337
330
1F
100
AcDbEntity
  8
LAY-10
  6
CONTINUOUS
 62
     7
100
AcDbLine
 10
265.0000000000092
 20
177.6420169134737
 30
0.0
 11
262.5000000000083
 21
176.1986412404991
 31
0.0
  0
LINE
  5
338
330
1F
100
AcDbEntity
  8
LAY-10
  6
CONTINUOUS
 62
     7
100
AcDbLine
 10
265.0000000000097
 20
177.6420169134735
 30
0.0
 11
267.5000000000101
 21
176.1986412404991
 31
0.0
  0
LINE
  5
339
330
1F
100
AcDbEntity
  8
LAY-10
  6
CONTINUOUS
 62
     7
100
AcDbLine
 10
250.5000000000099
 20
145.1986412405074
 30
0.0
 11
250.5000000000099
 21
150.1986412405073
 31
0.0
  0
LINE
  5
33A
330
1F
100
AcDbEntity
  8
LAY-10
  6
CONTINUOUS
 62
     7
100
AcDbLine
 10
260.5000000000103
 20
150.1986412405073
 30
0.0
 11
250.5000000000099
 21
150.1986412405073
 31
0.0
  0
ARC
  5
33B
330
1F
100
AcDbEntity
  8
LAY-10
  6
CONTINUOUS
 62
     7
100
AcDbCircle
 10
260.5000000000103
 20
152.1986412405073
 30
0.0
 40
2.0
100
AcDbArc
 50
270.0000000000002
 51
0.0
  0
LINE
  5
33C
330
1F
100
AcDbEntity
  8
LAY-10
  6
CONTINUOUS
 62
     7
100
AcDbLine
 10
260.5000000000103
 20
145.1986412405074
 30
0.0
 11
250.5000000000099
 21
145.1986412405074
 31
0.0
  0
ARC
  5
33D
330
1F
100
AcDbEntity
  8
LAY-10
  6
CONTINUOUS
 62
     7
100
AcDbCircle
 10
260.5000000000103
 20
152.1986412405073
 30
0.0
 40
7.000000000000004
100
AcDbArc
 50
270.0000000000002
 51
0.0
  0
LINE
  5
33E
330
1F
100
AcDbEntity
  8
LAY-10
  6
CONTINUOUS
 62
     7
100
AcDbLine
 10
262.5000000000094
 20
152.198641240503
 30
0.0
 11
262.5000000000094
 21
167.1986412405026
 31
0.0
  0
LINE
  5
33F
330
1F
100
AcDbEntity
  8
LAY-10
  6
CONTINUOUS
 62
     7
100
AcDbLine
 10
267.5000000000094
 20
152.198641240503
 30
0.0
 11
267.5000000000094
 21
167.1986412405026
 31
0.0
  0
LINE
  5
340
330
1F
100
AcDbEntity
  8
LAY-10
  6
CONTINUOUS
 62
     7
100
AcDbLine
 10
267.5000000000063
 20
173.1986412405075
 30
0.0
 11
262.5000000000069
 21
173.1986412405075
 31
0.0
  0
LINE
  5
341
330
1F
100
AcDbEntity
  8
LAY-10
  6
CONTINUOUS
 62
     7
100
AcDbLine
 10
268.0000000000076
 20
172.6986412405089
 30
0.0
 11
262.0000000000085
 21
172.6986412405089
 31
0.0
  0
LINE
  5
342
330
1F
100
AcDbEntity
  8
LAY-10
  6
CONTINUOUS
 62
     7
100
AcDbLine
 10
262.5000000000069
 20
175.1986412404987
 30
0.0
 11
262.5000000000069
 21
173.1986412405075
 31
0.0
  0
LINE
  5
343
330
1F
100
AcDbEntity
  8
LAY-10
  6
CONTINUOUS
 62
     7
100
AcDbLine
 10
267.5000000000063
 20
175.1986412404987
 30
0.0
 11
267.5000000000063
 21
173.1986412405075
 31
0.0
  0
LINE
  5
344
330
1F
100
AcDbEntity
  8
LAY-10
  6
CONTINUOUS
 62
     7
100
AcDbLine
 10
262.0000000000094
 20
172.6986412405129
 30
0.0
 11
262.5000000000094
 21
173.1986412405029
 31
0.0
  0
LINE
  5
345
330
1F
100
AcDbEntity
  8
LAY-10
  6
CONTINUOUS
 62
     7
100
AcDbLine
 10
267.5000000000094
 20
173.1986412405029
 30
0.0
 11
268.0000000000094
 21
172.6986412405129
 31
0.0
  0
LINE
  5
346
330
1F
100
AcDbEntity
  8
LAY-10
  6
CONTINUOUS
 62
     7
100
AcDbLine
 10
268.0000000000094
 20
172.6986412405129
 30
0.0
 11
268.0000000000094
 21
167.198641240503
 31
0.0
  0
LINE
  5
347
330
1F
100
AcDbEntity
  8
LAY-10
  6
CONTINUOUS
 62
     7
100
AcDbLine
 10
262.0000000000094
 20
172.6986412405129
 30
0.0
 11
262.0000000000094
 21
167.198641240503
 31
0.0
  0
LINE
  5
348
330
1F
100
AcDbEntity
  8
LAY-10
  6
CENTER
 62
     2
100
AcDbLine
 10
359.000000000009
 20
216.9986412405
 30
0.0
 11
359.000000000009
 21
160.1986412404981
 31
0.0
  0
LINE
  5
349
330
1F
100
AcDbEntity
  8
LAY-10
  6
CENTER
 62
     2
100
AcDbLine
 10
330.0000000000083
 20
283.9986412405
 30
0.0
 11
330.0000000000083
 21
101.1986412405
 31
0.0
  0
LINE
  5
34A
330
1F
100
AcDbEntity
  8
LAY-10
  6
CENTER
 62
     2
100
AcDbLine
 10
279.5000000000078
 20
197.9986412405
 30
0.0
 11
279.5000000000078
 21
176.7986412405
 31
0.0
  0
LINE
  5
34B
330
1F
100
AcDbEntity
  8
LAY-10
  6
CENTER
 62
     2
100
AcDbLine
 10
242.500000000008
 20
430.0000000000099
 30
0.0
 11
417.500000000008
 21
430.0000000000099
 31
0.0
  0
LINE
  5
34C
330
1F
100
AcDbEntity
  8
LAY-10
  6
CENTER
 62
     2
100
AcDbLine
 10
330.0000000000083
 20
518.99999999998
 30
0.0
 11
330.0000000000038
 21
343.5999999999803
 31
0.0
  0
LINE
  5
34D
330
1F
100
AcDbEntity
  8
LAY-10
  6
CENTER
 62
     2
100
AcDbLine
 10
380.5000000000069
 20
436.4986412405302
 30
0.0
 11
380.5000000000069
 21
423.6786412405299
 31
0.0
  0
LINE
  5
34E
330
1F
100
AcDbEntity
  8
LAY-10
  6
CENTER
 62
     2
100
AcDbLine
 10
279.5000000000069
 20
436.4986412405302
 30
0.0
 11
279.5000000000069
 21
423.6786412405299
 31
0.0
  0
LINE
  5
34F
330
1F
100
AcDbEntity
  8
LAY-10
  6
CENTER
 62
     2
100
AcDbLine
 10
249.3000000000105
 20
147.6986412405085
 30
0.0
 11
260.5000000000094
 21
147.6986412405085
 31
0.0
  0
ARC
  5
350
330
1F
100
AcDbEntity
  8
LAY-10
  6
CENTER
 62
     2
100
AcDbCircle
 10
260.5000000000094
 20
152.1986412405085
 30
0.0
 40
4.5
100
AcDbArc
 50
270.0000000000002
 51
0.0
  0
LINE
  5
351
330
1F
100
AcDbEntity
  8
LAY-10
  6
CENTER
 62
     2
100
AcDbLine
 10
265.0000000000092
 20
178.3999999999928
 30
0.0
 11
265.0000000000092
 21
152.1986412405085
 31
0.0
  0
LINE
  5
352
330
1F
100
AcDbEntity
  8
LAY-10
  6
CONTINUOUS
 62
     7
100
AcDbLine
 10
262.4999999999974
 20
166.3326158367115
 30
0.0
 11
261.9999999999974
 21
167.198641240496
 31
0.0
  0
LINE
  5
353
330
1F
100
AcDbEntity
  8
LAY-10
  6
CONTINUOUS
 62
     7
100
AcDbLine
 10
267.5000000000276
 20
166.332615836708
 30
0.0
 11
268.0000000000276
 21
167.1986412404925
 31
0.0
  0
LINE
  5
354
330
1F
100
AcDbEntity
  8
LAY-10
  6
CONTINUOUS
 62
     7
100
AcDbLine
 10
267.5000000000094
 20
173.1986412405029
 30
0.0
 11
267.5000000000094
 21
167.198641240503
 31
0.0
  0
LINE
  5
355
330
1F
100
AcDbEntity
  8
LAY-10
  6
CONTINUOUS
 62
     7
100
AcDbLine
 10
262.5000000000094
 20
173.1986412405029
 30
0.0
 11
262.5000000000094
 21
167.198641240503
 31
0.0
  0
LINE
  5
356
330
1F
100
AcDbEntity
  8
LAY-10
  6
CONTINUOUS
 62
     7
100
AcDbLine
 10
268.0000000000076
 20
174.698641240498
 30
0.0
 11
268.0000000000076
 21
172.6986412405089
 31
0.0
  0
LINE
  5
357
330
1F
100
AcDbEntity
  8
LAY-10
  6
CONTINUOUS
 62
     7
100
AcDbLine
 10
262.0000000000085
 20
174.698641240498
 30
0.0
 11
262.0000000000085
 21
172.6986412405089
 31
0.0
  0
LINE
  5
358
330
1F
100
AcDbEntity
  8
LAY-10
  6
CONTINUOUS
 62
     7
100
AcDbLine
 10
268.0000000000076
 20
174.698641240498
 30
0.0
 11
267.5000000000063
 21
175.1986412404987
 31
0.0
  0
LINE
  5
359
330
1F
100
AcDbEntity
  8
LAY-10
  6
CONTINUOUS
 62
     7
100
AcDbLine
 10
262.0000000000085
 20
174.698641240498
 30
0.0
 11
262.5000000000069
 21
175.1986412404987
 31
0.0
  0
LINE
  5
35A
330
1F
100
AcDbEntity
  8
LAY-10
  6
CONTINUOUS
 62
     7
100
AcDbLine
 10
282.500000000008
 20
180.9999999999918
 30
0.0
 11
282.500000000008
 21
177.4281146599967
 31
0.0
  0
LINE
  5
35B
330
1F
100
AcDbEntity
  8
LAY-10
  6
CONTINUOUS
 62
     7
100
AcDbLine
 10
276.5000000000072
 20
180.9999999999918
 30
0.0
 11
276.5000000000072
 21
179.0358098145838
 31
0.0
  0
LINE
  5
35C
330
1F
100
AcDbEntity
  8
LAY-10
  6
CONTINUOUS
 62
     7
100
AcDbLine
 10
277.0000000000085
 20
192.4999999999895
 30
0.0
 11
277.0000000000085
 21
180.4999999999918
 31
0.0
  0
LINE
  5
35D
330
1F
100
AcDbEntity
  8
LAY-10
  6
CONTINUOUS
 62
     7
100
AcDbLine
 10
282.0000000000084
 20
192.4999999999895
 30
0.0
 11
282.0000000000084
 21
180.4999999999918
 31
0.0
  0
LINE
  5
35E
330
1F
100
AcDbEntity
  8
LAY-10
  6
CONTINUOUS
 62
     7
100
AcDbLine
 10
363.0000000000092
 20
165.69864124049
 30
0.0
 11
363.0000000000092
 21
165.1986412404899
 31
0.0
  0
LINE
  5
35F
330
1F
100
AcDbEntity
  8
LAY-10
  6
CONTINUOUS
 62
     7
100
AcDbLine
 10
355.0000000000092
 20
165.69864124049
 30
0.0
 11
355.0000000000092
 21
165.1986412404899
 31
0.0
  0
LINE
  5
360
330
1F
100
AcDbEntity
  8
LAY-10
  6
CONTINUOUS
 62
     7
100
AcDbLine
 10
362.5000000000072
 20
177.999999999985
 30
0.0
 11
362.5000000000072
 21
165.1986412404949
 31
0.0
  0
LINE
  5
361
330
1F
100
AcDbEntity
  8
LAY-10
  6
CONTINUOUS
 62
     7
100
AcDbLine
 10
362.5000000000072
 20
215.1986412404956
 30
0.0
 11
362.5000000000072
 21
184.7999999999899
 31
0.0
  0
LINE
  5
362
330
1F
100
AcDbEntity
  8
LAY-10
  6
CONTINUOUS
 62
     7
100
AcDbLine
 10
355.5000000000086
 20
177.999999999985
 30
0.0
 11
355.5000000000086
 21
165.1986412404949
 31
0.0
  0
LINE
  5
363
330
1F
100
AcDbEntity
  8
LAY-10
  6
CONTINUOUS
 62
     7
100
AcDbLine
 10
355.5000000000086
 20
215.1986412404956
 30
0.0
 11
355.5000000000086
 21
184.7999999999899
 31
0.0
  0
LINE
  5
364
330
1F
100
AcDbEntity
  8
LAY-10
  6
CONTINUOUS
 62
     7
100
AcDbLine
 10
355.0000000000092
 20
165.1986412404854
 30
0.0
 11
363.0000000000092
 21
165.1986412404854
 31
0.0
  0
DIMENSION
  5
366
330
1F
100
AcDbEntity
  8
LAY-20
  6
CONTINUOUS
 62
     4
100
AcDbDimension
  2
*D15
 10
227.500000000008
 20
185.1986412405
 30
0.0
 11
222.500000000008
 21
172.758621187725
 31
0.0
 70
   160
  1
25
  3
ISO-25
100
AcDbAlignedDimension
 13
292.000000000008
 23
160.31860113495
 33
0.0
 14
249.367295401708
 24
185.1986412405
 34
0.0
 50
90.0
100
AcDbRotatedDimension
1001
ACAD
1000
DSTYLE
1002
{
1070
   270
1070
     2
1070
     6
1000
EX_BNORM
1070
     7
1000
EX_BNORM
1070
    41
1040
5.0
1070
    42
1040
3.0
1070
    44
1040
3.0
1070
    73
1070
     0
1070
    74
1070
     0
1070
    75
1070
     0
1070
    76
1070
     0
1070
    77
1070
     1
1070
    78
1070
     8
1070
   140
1040
6.2362208
1070
   147
1040
0.0
1070
   173
1070
     1
1070
   176
1070
     4
1070
   177
1070
     4
1070
   178
1070
     7
1070
   271
1070
     1
1070
   277
1070
     2
1070
   279
1070
     2
1070
   280
1070
     0
1070
   287
1070
     5
1070
   340
1005
365
1002
}
  0
DIMENSION
  5
374
330
1F
100
AcDbEntity
  8
LAY-20
  6
CONTINUOUS
 62
     4
100
AcDbDimension
  2
*D16
 10
432.50000000001
 20
185.1986412405
 30
0.0
 11
427.50000000001
 21
145.1986412405
 31
0.0
 70
   160
  3
ISO-25
100
AcDbAlignedDimension
 13
368.00000000001
 23
105.1986412405
 33
0.0
 14
410.63270459831
 24
185.1986412405
 34
0.0
 50
90.0
100
AcDbRotatedDimension
1001
ACAD
1000
DSTYLE
1002
{
1070
   270
1070
     2
1070
     6
1000
EX_BNORM
1070
     7
1000
EX_BNORM
1070
    41
1040
5.0
1070
    42
1040
3.0
1070
    44
1040
3.0
1070
    73
1070
     0
1070
    74
1070
     0
1070
    75
1070
     0
1070
    76
1070
     0
1070
    77
1070
     1
1070
    78
1070
     8
1070
   140
1040
6.2362208
1070
   147
1040
0.0
1070
   173
1070
     1
1070
   176
1070
     4
1070
   177
1070
     4
1070
   178
1070
     7
1070
   271
1070
     1
1070
   277
1070
     2
1070
   279
1070
     2
1070
   280
1070
     0
1070
   287
1070
     5
1070
   340
1005
365
1002
}
  0
DIMENSION
  5
381
330
1F
100
AcDbEntity
  8
LAY-20
  6
CONTINUOUS
 62
     4
100
AcDbDimension
  2
*D17
 10
432.50000000001
 20
279.99999999999
 30
0.0
 11
427.50000000001
 21
232.599320620245
 31
0.0
 70
   160
  1
95
  3
ISO-25
100
AcDbAlignedDimension
 13
432.50000000001
 23
185.1986412405
 33
0.0
 14
330.00000000001
 24
279.99999999999
 34
0.0
 50
90.0
100
AcDbRotatedDimension
1001
ACAD
1000
DSTYLE
1002
{
1070
   270
1070
     2
1070
     6
1000
EX_BNORM
1070
     7
1000
EX_BNORM
1070
    41
1040
5.0
1070
    42
1040
3.0
1070
    44
1040
3.0
1070
    73
1070
     0
1070
    74
1070
     0
1070
    75
1070
     1
1070
    76
1070
     0
1070
    77
1070
     1
1070
    78
1070
     8
1070
   140
1040
6.2362208
1070
   147
1040
0.0
1070
   173
1070
     1
1070
   176
1070
     4
1070
   177
1070
     4
1070
   178
1070
     7
1070
   271
1070
     1
1070
   277
1070
     2
1070
   279
1070
     2
1070
   280
1070
     0
1070
   287
1070
     5
1070
   340
1005
365
1002
}
  0
DIMENSION
  5
38D
330
1F
100
AcDbEntity
  8
LAY-20
  6
CONTINUOUS
 62
     4
100
AcDbDimension
  2
*D18
 10
352.50000000001
 20
85.19864124049997
 30
0.0
 11
330.00000000001
 21
90.19864124049997
 31
0.0
 70
   160
  1
%%c<>
  3
ISO-25
100
AcDbAlignedDimension
 13
307.50000000001
 23
120.1986412405
 33
0.0
 14
352.50000000001
 24
120.1986412405
 34
0.0
100
AcDbRotatedDimension
1001
ACAD
1000
DSTYLE
1002
{
1070
   270
1070
     2
1070
     6
1000
EX_BNORM
1070
     7
1000
EX_BNORM
1070
    41
1040
6.0
1070
    42
1040
3.0
1070
    44
1040
3.0
1070
    73
1070
     0
1070
    74
1070
     0
1070
    75
1070
     0
1070
    76
1070
     0
1070
    77
1070
     1
1070
    78
1070
     8
1070
   140
1040
6.2362208
1070
   147
1040
0.0
1070
   173
1070
     1
1070
   176
1070
     4
1070
   177
1070
     4
1070
   178
1070
     7
1070
   271
1070
     1
1070
   277
1070
     2
1070
   279
1070
     2
1070
   280
1070
     0
1070
   287
1070
     5
1070
   340
1005
365
1002
}
  0
DIMENSION
  5
39A
330
1F
100
AcDbEntity
  8
LAY-20
  6
CONTINUOUS
 62
     4
100
AcDbDimension
  2
*D19
 10
306.00000000001
 20
71.19864124049997
 30
0.0
 11
330.00000000001
 21
76.19864124049997
 31
0.0
 70
   160
  1
%%c<>
  3
ISO-25
100
AcDbAlignedDimension
 13
354.00000000001
 23
157.1986412405
 33
0.0
 14
306.00000000001
 24
157.1986412405
 34
0.0
100
AcDbRotatedDimension
1001
ACAD
1000
DSTYLE
1002
{
1070
   270
1070
     2
1070
     6
1000
EX_BNORM
1070
     7
1000
EX_BNORM
1070
    41
1040
6.0
1070
    42
1040
3.0
1070
    44
1040
3.0
1070
    73
1070
     0
1070
    74
1070
     0
1070
    75
1070
     0
1070
    76
1070
     0
1070
    77
1070
     1
1070
    78
1070
     8
1070
   140
1040
6.2362208
1070
   147
1040
0.0
1070
   173
1070
     1
1070
   176
1070
     4
1070
   177
1070
     4
1070
   178
1070
     7
1070
   271
1070
     1
1070
   277
1070
     2
1070
   279
1070
     2
1070
   280
1070
     0
1070
   287
1070
     5
1070
   340
1005
365
1002
}
  0
DIMENSION
  5
3A7
330
1F
100
AcDbEntity
  8
LAY-20
  6
CONTINUOUS
 62
     4
100
AcDbDimension
  2
*D20
 10
383.50000000001
 20
300.0
 30
0.0
 11
330.00000000001
 21
305.0
 31
0.0
 70
   160
  1
%%c<>
  3
ISO-25
100
AcDbAlignedDimension
 13
276.50000000001
 23
192.49999999999
 33
0.0
 14
383.50000000001
 24
191.99999999999
 34
0.0
100
AcDbRotatedDimension
1001
ACAD
1000
DSTYLE
1002
{
1070
   270
1070
     2
1070
     6
1000
EX_BNORM
1070
     7
1000
EX_BNORM
1070
    41
1040
6.0
1070
    42
1040
3.0
1070
    44
1040
3.0
1070
    73
1070
     0
1070
    74
1070
     0
1070
    75
1070
     0
1070
    76
1070
     0
1070
    77
1070
     1
1070
    78
1070
     8
1070
   140
1040
6.2362208
1070
   147
1040
0.0
1070
   173
1070
     1
1070
   176
1070
     4
1070
   177
1070
     4
1070
   178
1070
     7
1070
   271
1070
     1
1070
   277
1070
     2
1070
   279
1070
     2
1070
   280
1070
     0
1070
   287
1070
     5
1070
   340
1005
365
1002
}
  0
DIMENSION
  5
3B4
330
1F
100
AcDbEntity
  8
LAY-20
  6
CONTINUOUS
 62
     4
100
AcDbDimension
  2
*D21
 10
402.50000000001
 20
314.0
 30
0.0
 11
330.000000000005
 21
319.0
 31
0.0
 70
   160
  1
%%c<>
  3
ISO-25
100
AcDbAlignedDimension
 13
257.5
 23
190.99999999999
 33
0.0
 14
402.50000000001
 24
190.99999999999
 34
0.0
100
AcDbRotatedDimension
1001
ACAD
1000
DSTYLE
1002
{
1070
   270
1070
     2
1070
     6
1000
EX_BNORM
1070
     7
1000
EX_BNORM
1070
    41
1040
6.0
1070
    42
1040
3.0
1070
    44
1040
3.0
1070
    73
1070
     0
1070
    74
1070
     0
1070
    75
1070
     0
1070
    76
1070
     0
1070
    77
1070
     1
1070
    78
1070
     8
1070
   140
1040
6.2362208
1070
   147
1040
0.0
1070
   173
1070
     1
1070
   176
1070
     4
1070
   177
1070
     4
1070
   178
1070
     7
1070
   271
1070
     1
1070
   277
1070
     2
1070
   279
1070
     2
1070
   280
1070
     0
1070
   287
1070
     5
1070
   340
1005
365
1002
}
  0
DIMENSION
  5
3C1
330
1F
100
AcDbEntity
  8
LAY-20
  6
CONTINUOUS
 62
     4
100
AcDbDimension
  2
*D22
 10
247.50000000001
 20
328.0
 30
0.0
 11
330.00000000001
 21
333.0
 31
0.0
 70
   160
  1
%%c<>
  3
ISO-25
100
AcDbAlignedDimension
 13
412.50000000001
 23
181.1986412405
 33
0.0
 14
247.50000000001
 24
181.1986412405
 34
0.0
100
AcDbRotatedDimension
1001
ACAD
1000
DSTYLE
1002
{
1070
   270
1070
     2
1070
     6
1000
EX_BNORM
1070
     7
1000
EX_BNORM
1070
    41
1040
6.0
1070
    42
1040
3.0
1070
    44
1040
3.0
1070
    73
1070
     0
1070
    74
1070
     0
1070
    75
1070
     0
1070
    76
1070
     0
1070
    77
1070
     1
1070
    78
1070
     8
1070
   140
1040
6.2362208
1070
   147
1040
0.0
1070
   173
1070
     1
1070
   176
1070
     4
1070
   177
1070
     4
1070
   178
1070
     7
1070
   271
1070
     1
1070
   277
1070
     2
1070
   279
1070
     2
1070
   280
1070
     0
1070
   287
1070
     5
1070
   340
1005
365
1002
}
  0
LINE
  5
3CE
330
1F
100
AcDbEntity
  8
LAY-255
  6
CONTINUOUS
 62
     7
100
AcDbLine
 10
770.0
 20
43.99999999999999
 30
0.0
 11
570.0
 21
43.99999999999999
 31
0.0
  0
LINE
  5
3CF
330
1F
100
AcDbEntity
  8
LAY-255
  6
CONTINUOUS
 62
     7
100
AcDbLine
 10
577.6
 20
32.0
 30
0.0
 11
593.6
 21
42.0
 31
0.0
  0
LINE
  5
3D0
330
1F
100
AcDbEntity
  8
LAY-255
  6
CONTINUOUS
 62
     7
100
AcDbLine
 10
593.6
 20
42.0
 30
0.0
 11
609.6
 21
32.0
 31
0.0
  0
LINE
  5
3D1
330
1F
100
AcDbEntity
  8
LAY-255
  6
CONTINUOUS
 62
     7
100
AcDbLine
 10
609.6
 20
32.0
 30
0.0
 11
593.6
 21
22.0
 31
0.0
  0
LINE
  5
3D2
330
1F
100
AcDbEntity
  8
LAY-255
  6
CONTINUOUS
 62
     7
100
AcDbLine
 10
593.6
 20
22.0
 30
0.0
 11
577.6
 21
32.0
 31
0.0
  0
LINE
  5
3D3
330
1F
100
AcDbEntity
  8
LAY-255
  6
CONTINUOUS
 62
     7
100
AcDbLine
 10
10.0
 20
20.0
 30
0.0
 11
770.0000000000001
 21
20.0
 31
0.0
  0
LINE
  5
3D4
330
1F
100
AcDbEntity
  8
LAY-255
  6
CONTINUOUS
 62
     7
100
AcDbLine
 10
10.0
 20
560.0
 30
0.0
 11
770.0000000000001
 21
560.0
 31
0.0
  0
LINE
  5
3D5
330
1F
100
AcDbEntity
  8
LAY-255
  6
CONTINUOUS
 62
     7
100
AcDbLine
 10
10.0
 20
20.0
 30
0.0
 11
10.0
 21
560.0
 31
0.0
  0
LINE
  5
3D6
330
1F
100
AcDbEntity
  8
LAY-255
  6
CONTINUOUS
 62
     4
100
AcDbLine
 10
570.0
 20
55.99999999999999
 30
0.0
 11
770.0000000000001
 21
55.99999999999999
 31
0.0
  0
LINE
  5
3D7
330
1F
100
AcDbEntity
  8
LAY-255
  6
CONTINUOUS
 62
     4
100
AcDbLine
 10
670.0
 20
55.99999999999999
 30
0.0
 11
670.0
 21
44.0
 31
0.0
  0
LINE
  5
3D8
330
1F
100
AcDbEntity
  8
LAY-255
  6
CONTINUOUS
 62
     7
100
AcDbLine
 10
770.0
 20
20.0
 30
0.0
 11
770.0
 21
560.0
 31
0.0
  0
LINE
  5
3D9
330
1F
100
AcDbEntity
  8
LAY-255
  6
CONTINUOUS
 62
     7
100
AcDbLine
 10
570.0
 20
20.0
 30
0.0
 11
570.0
 21
144.0
 31
0.0
  0
LINE
  5
3DA
330
1F
100
AcDbEntity
  8
LAY-255
  6
CONTINUOUS
 62
     7
100
AcDbLine
 10
770.0000000000001
 20
144.0
 30
0.0
 11
570.0
 21
144.0
 31
0.0
  0
LINE
  5
3DB
330
1F
100
AcDbEntity
  8
LAY-255
  6
CONTINUOUS
 62
     4
100
AcDbLine
 10
766.0
 20
120.0
 30
0.0
 11
574.0
 21
120.0
 31
0.0
  0
LINE
  5
3DC
330
1F
100
AcDbEntity
  8
LAY-255
  6
CONTINUOUS
 62
     4
100
AcDbLine
 10
766.0
 20
132.0
 30
0.0
 11
574.0
 21
132.0
 31
0.0
  0
POINT
  5
3DD
330
1F
100
AcDbEntity
  8
LAY-255
  6
CONTINUOUS
 62
     7
100
AcDbPoint
 10
600.0
 20
122.0
 30
0.0
  0
POINT
  5
3DE
330
1F
100
AcDbEntity
  8
LAY-255
  6
CONTINUOUS
 62
     7
100
AcDbPoint
 10
600.0
 20
134.0
 30
0.0
  0
TEXT
  5
3DF
330
1F
100
AcDbEntity
  8
LAY-255
  6
CONTINUOUS
 62
     7
100
AcDbText
 10
616.2767579736328
 20
31.0875
 30
0.0
 40
10.3125
  1
福西鋳物株式会社
 41
1.342692319347662
  7
EXCADSTD
100
AcDbText
  0
TEXT
  5
3E0
330
1F
100
AcDbEntity
  8
LAY-255
  6
CONTINUOUS
 62
     7
100
AcDbText
 10
617.0187500000001
 20
23.9625
 30
0.0
 40
3.4375
  1
ＦＵＫＵＮＩＳＨＩ
 41
1.204799226045263
  7
EXCADSTD
100
AcDbText
  0
TEXT
  5
3E1
330
1F
100
AcDbEntity
  8
LAY-255
  6
CONTINUOUS
 62
     7
100
AcDbText
 10
665.4383928571428
 20
23.9625
 30
0.0
 40
3.4375
  1
ＦＯＵＮＤＲＹ
 41
1.243252752978497
  7
EXCADSTD
100
AcDbText
  0
TEXT
  5
3E2
330
1F
100
AcDbEntity
  8
LAY-255
  6
CONTINUOUS
 62
     7
100
AcDbText
 10
703.9891823858172
 20
23.9625
 30
0.0
 40
3.4375
  1
ＣＯ.,ＬＴＤ.
 41
1.243830523306697
  7
EXCADSTD
100
AcDbText
  0
TEXT
  5
3E3
330
1F
100
AcDbEntity
  8
LAY-255
  6
CONTINUOUS
 62
     7
100
AcDbText
 10
588.06875
 20
27.4375
 30
0.0
 40
10.3125
  1
S
 41
0.7582677563636363
  7
EXCADSTD
100
AcDbText
  0
TEXT
  5
3E4
330
1F
100
AcDbEntity
  8
LAY-255
  6
CONTINUOUS
 62
     7
100
AcDbText
 10
594.209375
 20
27.49882075472
 30
0.0
 40
10.3125
  1
F
 41
0.7440945272727272
  7
EXCADSTD
100
AcDbText
  0
TEXT
  5
3E5
330
1F
100
AcDbEntity
  8
LAY-255
  6
CONTINUOUS
 62
     7
100
AcDbText
 10
674.2109375
 20
48.84374999999998
 30
0.0
 40
5.15625
  1
縮尺
 41
1.080708718181818
  7
EXCADSTD
100
AcDbText
  0
TEXT
  5
3E6
330
1F
100
AcDbEntity
  8
LAY-255
  6
CONTINUOUS
 62
     7
100
AcDbText
 10
574.3046875
 20
48.84374999999998
 30
0.0
 40
5.15625
  1
作成日
 41
1.000629973818182
  7
EXCADSTD
100
AcDbText
  0
TEXT
  5
3E7
330
1F
100
AcDbEntity
  8
LAY-255
  6
CONTINUOUS
 62
     7
100
AcDbText
 10
574.53125
 20
123.125
 30
0.0
 40
6.875
  1
型式
 41
1.056348480681818
  7
EXCADSTD
100
AcDbText
  0
TEXT
  5
3E8
330
1F
100
AcDbEntity
  8
LAY-255
  6
CONTINUOUS
 62
     7
100
AcDbText
 10
574.84375
 20
135.125
 30
0.0
 40
6.875
  1
品名
 41
0.978838634090909
  7
EXCADSTD
100
AcDbText
  0
TEXT
  5
3E9
330
1F
100
AcDbEntity
  8
LAY-255
  6
CONTINUOUS
 62
     7
100
AcDbText
 10
600.5
 20
135.125
 30
0.0
 40
6.875
  1
ルーフドレイン
 41
1.021169538599106
  7
EXCADSTD
100
AcDbText
  0
TEXT
  5
3EA
330
1F
100
AcDbEntity
  8
LAY-255
  6
CONTINUOUS
 62
     7
100
AcDbText
 10
578.375
 20
71.12500000000001
 30
0.0
 40
6.875
  1
施工：打込用
 41
1.018700840909091
  7
EXCADSTD
100
AcDbText
  0
TEXT
  5
3EB
330
1F
100
AcDbEntity
  8
LAY-255
  6
CONTINUOUS
 62
     7
100
AcDbText
 10
578.46875
 20
81.12500000000001
 30
0.0
 40
6.875
  1
用途：屋上用
 41
1.016656625174825
  7
EXCADSTD
100
AcDbText
  0
TEXT
  5
3EC
330
1F
100
AcDbEntity
  8
LAY-255
  6
CONTINUOUS
 62
     7
100
AcDbText
 10
578.28125
 20
91.12500000000001
 30
0.0
 40
6.875
  1
材質：ステンレス鋼鋳鋼
 41
1.017696295032802
  7
EXCADSTD
100
AcDbText
  0
TEXT
  5
3ED
330
1F
100
AcDbEntity
  8
LAY-255
  6
CONTINUOUS
 62
     7
100
AcDbText
 10
578.0
 20
101.125
 30
0.0
 40
6.875
  1
      露出アスファルト防水兼用
 41
0.8942744381697771
  7
EXCADSTD
100
AcDbText
  0
TEXT
  5
3EE
330
1F
100
AcDbEntity
  8
LAY-255
  6
CONTINUOUS
 62
     7
100
AcDbText
 10
578.75
 20
111.125
 30
0.0
 40
6.875
  1
防水：アスファルト・シート・
 41
0.9866967752199411
  7
EXCADSTD
100
AcDbText
  0
TEXT
  5
3EF
330
1F
100
AcDbEntity
  8
LAY-255
  6
CONTINUOUS
 62
     7
100
AcDbText
 10
578.4375
 20
61.12500000000001
 30
0.0
 40
6.875
  1
接続：差込用
 41
1.01733803041958
  7
EXCADSTD
100
AcDbText
  0
TEXT
  5
3F0
330
1F
100
AcDbEntity
  8
LAY-255
  6
CONTINUOUS
 62
     7
100
AcDbText
 10
601.5
 20
123.125
 30
0.0
 40
6.875
  1
ＳＦ－ＳＵＳＶ－９０５０型
 41
1.004758697075099
  7
EXCADSTD
100
AcDbText
  0
TEXT
  5
3F1
330
1F
100
AcDbEntity
  8
LAY-255
  6
CONTINUOUS
 62
     7
100
AcDbText
 10
696.5625
 20
47.12499999999998
 30
0.0
 40
6.875
  1
１：２
 41
0.888661464
  7
EXCADSTD
100
AcDbText
  0
TEXT
  5
3F2
330
1F
100
AcDbEntity
  8
LAY-255
  6
CONTINUOUS
 62
     7
100
AcDbText
 10
601.78125
 20
47.12499999999998
 30
0.0
 40
6.875
  1
０７／０１／０５
 41
0.9779528072727272
  7
EXCADSTD
100
AcDbText
  0
ENDSEC
  0
SECTION
  2
OBJECTS
  0
DICTIONARY
  5
C
330
0
100
AcDbDictionary
  3
ACAD_GROUP
350
D
  3
ACAD_LAYOUT
350
1A
  3
ACAD_MATERIAL
350
43
  3
ACAD_MLEADERSTYLE
350
6B
  3
ACAD_MLINESTYLE
350
17
  3
ACAD_PLOTSETTINGS
350
19
  3
ACAD_SCALELIST
350
47
  3
ACAD_VISUALSTYLE
350
2A
  3
ACDBHEADERROUNDTRIPXREC
350
3F3
  3
ACDBVARIABLEDICTIONARY
350
414
  0
DICTIONARY
  5
41F
330
8
100
AcDbDictionary
280
     1
  3
ACAD_XREC_ROUNDTRIP
360
420
  0
DICTIONARY
  5
D
102
{ACAD_REACTORS
330
C
102
}
330
C
100
AcDbDictionary
  0
DICTIONARY
  5
1A
102
{ACAD_REACTORS
330
C
102
}
330
C
100
AcDbDictionary
  0
DICTIONARY
  5
43
102
{ACAD_REACTORS
330
C
102
}
330
C
100
AcDbDictionary
  3
BYBLOCK
350
45
  3
BYLAYER
350
44
  3
GLOBAL
350
46
  0
DICTIONARY
  5
6B
102
{ACAD_REACTORS
330
C
102
}
330
C
100
AcDbDictionary
  3
STANDARD
350
6C
  0
DICTIONARY
  5
17
102
{ACAD_REACTORS
330
C
102
}
330
C
100
AcDbDictionary
  3
STANDARD
350
18
  0
DICTIONARY
  5
19
102
{ACAD_REACTORS
330
C
102
}
330
C
100
AcDbDictionary
  0
DICTIONARY
  5
47
102
{ACAD_REACTORS
330
C
102
}
330
C
100
AcDbDictionary
  3
A0
350
48
  3
A1
350
49
  3
A2
350
4A
  3
A3
350
4B
  3
A4
350
4C
  3
A5
350
4D
  3
A6
350
4E
  3
A7
350
4F
  3
A8
350
50
  3
A9
350
51
  3
B0
350
52
  3
B1
350
53
  3
B2
350
54
  3
B3
350
55
  3
B4
350
56
  3
B5
350
57
  3
B6
350
58
  3
B7
350
59
  3
B8
350
5A
  3
B9
350
5B
  3
C0
350
5C
  3
C1
350
5D
  3
C2
350
5E
  3
C3
350
5F
  3
C4
350
60
  3
C5
350
61
  3
C6
350
62
  3
C7
350
63
  3
C8
350
64
  3
C9
350
65
  3
D0
350
66
  3
D1
350
67
  3
D2
350
68
  0
DICTIONARY
  5
2A
102
{ACAD_REACTORS
330
C
102
}
330
C
100
AcDbDictionary
  3
2DWIREFRAME
350
2F
  3
BASIC
350
32
  3
BRIGHTEN
350
36
  3
COLORCHANGE
350
3A
  3
CONCEPTUAL
350
34
  3
DIM
350
35
  3
EDGECOLOROFF
350
3D
  3
FACEPATTERN
350
39
  3
FLAT
350
2B
  3
FLATWITHEDGES
350
2C
  3
GOURAUD
350
2D
  3
GOURAUDWITHEDGES
350
2E
  3
HIDDEN
350
31
  3
JITTEROFF
350
3B
  3
LINEPATTERN
350
38
  3
OVERHANGOFF
350
3C
  3
REALISTIC
350
33
  3
SHADED
350
42
  3
SHADED_WITH_EDGES
350
41
  3
SHADES_OF_GRAY
350
3E
  3
SKETCHY
350
3F
  3
THICKEN
350
37
  3
WIREFRAME
350
30
  3
X-RAY
350
40
  0
DICTIONARY
  5
3F3
102
{ACAD_REACTORS
330
C
102
}
330
C
100
AcDbDictionary
  3
CEPSNID
350
3FD
  3
CEPSNTYPE
350
3FC
  3
DIMSTYLEDATA
350
413
  3
FINGERPRINTGUID
350
3FE
  3
HYPERLINKBASE
350
3F6
  3
INSUNITS
350
3FB
  3
LAYOUTDICT
350
3F8
  3
LWETCUNION
350
3FA
  3
PLOTSETDICT
350
3F9
  3
PSVPSCALE
350
400
  3
PUCSBASE
350
403
  3
PUCSORGBACK
350
409
  3
PUCSORGBOTTOM
350
405
  3
PUCSORGFRONT
350
408
  3
PUCSORGLEFT
350
406
  3
PUCSORGRIGHT
350
407
  3
PUCSORGTOP
350
404
  3
PUCSORTHOREF
350
401
  3
PUCSORTHOVIEW
350
402
  3
STYLESHEET
350
3F7
  3
TSTACKALIGN
350
3F4
  3
TSTACKSIZE
350
3F5
  3
UCSBASE
350
40C
  3
UCSORGBACK
350
412
  3
UCSORGBOTTOM
350
40E
  3
UCSORGFRONT
350
411
  3
UCSORGLEFT
350
40F
  3
UCSORGRIGHT
350
410
  3
UCSORGTOP
350
40D
  3
UCSORTHOREF
350
40A
  3
UCSORTHOVIEW
350
40B
  3
VERSIONGUID
350
3FF
  0
DICTIONARY
  5
414
102
{ACAD_REACTORS
330
C
102
}
330
C
100
AcDbDictionary
  3
CANNOSCALE
350
421
  3
CENTEREXE
350
41B
  3
CENTERLTYPEFILE
350
41C
  3
CMLEADERSTYLE
350
416
  3
CTABLESTYLE
350
415
  3
DIMASSOC
350
41D
  3
HIDETEXT
350
41E
  3
MSLTSCALE
350
422
  3
PSOLHEIGHT
350
418
  3
PSOLWIDTH
350
417
  0
XRECORD
  5
420
102
{ACAD_REACTORS
330
41F
102
}
330
41F
100
AcDbXrecord
102
VTR_0.000_0.000_1.000_1.000_VISUALSTYLE
340
2F
102
VTR_0.000_0.000_1.000_1.000_GRIDDISPLAY
 70
     3
102
VTR_0.000_0.000_1.000_1.000_GRIDMAJOR
 70
     5
102
VTR_0.000_0.000_1.000_1.000_DEFAULTLIGHTING
280
     1
102
VTR_0.000_0.000_1.000_1.000_DEFAULTLIGHTINGTYPE
 70
     1
102
VTR_0.000_0.000_1.000_1.000_BRIGHTNESS
141
0.0
102
VTR_0.000_0.000_1.000_1.000_CONTRAST
142
0.0
  0
MATERIAL
  5
45
102
{ACAD_REACTORS
330
43
102
}
102
{ACAD_XDICTIONARY
360
425
102
}
330
43
100
AcDbMaterial
  1
BYBLOCK
  0
MATERIAL
  5
44
102
{ACAD_REACTORS
330
43
102
}
102
{ACAD_XDICTIONARY
360
423
102
}
330
43
100
AcDbMaterial
  1
BYLAYER
  0
MATERIAL
  5
46
102
{ACAD_REACTORS
330
43
102
}
102
{ACAD_XDICTIONARY
360
427
102
}
330
43
100
AcDbMaterial
  1
GLOBAL
  0
ACAD_PROXY_OBJECT
  5
6C
102
{ACAD_REACTORS
330
6B
102
}
330
6B
100
AcDbProxyObject
 90
      499
 91
      505
 93
      610
310
40901902A4063FBFFFFFE0000000000000020400000000000020404214DD185B99185C990000000000000104090141901A00000000000004100000000000000041025764000000000000039000
340
14
340
0
340
11
340
0
 94
        0
1001
ACAD_MLEADERVER
1070
     2
  0
MLINESTYLE
  5
18
102
{ACAD_REACTORS
330
17
102
}
330
17
100
AcDbMlineStyle
  2
Standard
 70
     0
  3

 62
   256
 51
90.0
 52
90.0
 71
     2
 49
0.5
 62
   256
  6
BYLAYER
 49
-0.5
 62
   256
  6
BYLAYER
  0
ACAD_PROXY_OBJECT
  5
48
102
{ACAD_REACTORS
330
47
102
}
330
47
100
AcDbProxyObject
 90
      499
 91
      503
 93
       41
310
903313A31580
  0
ACAD_PROXY_OBJECT
  5
49
102
{ACAD_REACTORS
330
47
102
}
330
47
100
AcDbProxyObject
 90
      499
 91
      503
 93
      105
310
903313A324000000000000004000
  0
ACAD_PROXY_OBJECT
  5
4A
102
{ACAD_REACTORS
330
47
102
}
330
47
100
AcDbProxyObject
 90
      499
 91
      503
 93
      105
310
903313A344000000000000104000
  0
ACAD_PROXY_OBJECT
  5
4B
102
{ACAD_REACTORS
330
47
102
}
330
47
100
AcDbProxyObject
 90
      499
 91
      503
 93
      105
310
903313A354000000000000144000
  0
ACAD_PROXY_OBJECT
  5
4C
102
{ACAD_REACTORS
330
47
102
}
330
47
100
AcDbProxyObject
 90
      499
 91
      503
 93
      105
310
903313A384000000000000204000
  0
ACAD_PROXY_OBJECT
  5
4D
102
{ACAD_REACTORS
330
47
102
}
330
47
100
AcDbProxyObject
 90
      499
 91
      503
 93
      113
310
904313A31304000000000000244000
  0
ACAD_PROXY_OBJECT
  5
4E
102
{ACAD_REACTORS
330
47
102
}
330
47
100
AcDbProxyObject
 90
      499
 91
      503
 93
      113
310
904313A31364000000000000304000
  0
ACAD_PROXY_OBJECT
  5
4F
102
{ACAD_REACTORS
330
47
102
}
330
47
100
AcDbProxyObject
 90
      499
 91
      503
 93
      113
310
904313A32304000000000000344000
  0
ACAD_PROXY_OBJECT
  5
50
102
{ACAD_REACTORS
330
47
102
}
330
47
100
AcDbProxyObject
 90
      499
 91
      503
 93
      113
310
904313A333040000000000003E4000
  0
ACAD_PROXY_OBJECT
  5
51
102
{ACAD_REACTORS
330
47
102
}
330
47
100
AcDbProxyObject
 90
      499
 91
      503
 93
      113
310
904313A34304000000000000444000
  0
ACAD_PROXY_OBJECT
  5
52
102
{ACAD_REACTORS
330
47
102
}
330
47
100
AcDbProxyObject
 90
      499
 91
      503
 93
      113
310
904313A35304000000000000494000
  0
ACAD_PROXY_OBJECT
  5
53
102
{ACAD_REACTORS
330
47
102
}
330
47
100
AcDbProxyObject
 90
      499
 91
      503
 93
      121
310
905313A3130304000000000000594000
  0
ACAD_PROXY_OBJECT
  5
54
102
{ACAD_REACTORS
330
47
102
}
330
47
100
AcDbProxyObject
 90
      499
 91
      503
 93
      105
310
903323A310000000000000010100
  0
ACAD_PROXY_OBJECT
  5
55
102
{ACAD_REACTORS
330
47
102
}
330
47
100
AcDbProxyObject
 90
      499
 91
      503
 93
      105
310
903343A310000000000000410100
  0
ACAD_PROXY_OBJECT
  5
56
102
{ACAD_REACTORS
330
47
102
}
330
47
100
AcDbProxyObject
 90
      499
 91
      503
 93
      105
310
903383A310000000000000810100
  0
ACAD_PROXY_OBJECT
  5
57
102
{ACAD_REACTORS
330
47
102
}
330
47
100
AcDbProxyObject
 90
      499
 91
      503
 93
      113
310
90431303A310000000000000910100
  0
ACAD_PROXY_OBJECT
  5
58
102
{ACAD_REACTORS
330
47
102
}
330
47
100
AcDbProxyObject
 90
      499
 91
      503
 93
      121
310
9053130303A310000000000001650100
  0
ACAD_PROXY_OBJECT
  5
59
102
{ACAD_REACTORS
330
47
102
}
330
47
100
AcDbProxyObject
 90
      499
 91
      503
 93
      257
310
90E312F31323822203D2031272D3022000000000000200FC000000000000284000
  0
ACAD_PROXY_OBJECT
  5
5A
102
{ACAD_REACTORS
330
47
102
}
330
47
100
AcDbProxyObject
 90
      499
 91
      503
 93
      249
310
90D312F363422203D2031272D3022000000000000240FC000000000000284000
  0
ACAD_PROXY_OBJECT
  5
5B
102
{ACAD_REACTORS
330
47
102
}
330
47
100
AcDbProxyObject
 90
      499
 91
      503
 93
      249
310
90D312F333222203D2031272D3022000000000000280FC000000000000284000
  0
ACAD_PROXY_OBJECT
  5
5C
102
{ACAD_REACTORS
330
47
102
}
330
47
100
AcDbProxyObject
 90
      499
 91
      503
 93
      249
310
90D312F313622203D2031272D30220000000000002C0FC000000000000284000
  0
ACAD_PROXY_OBJECT
  5
5D
102
{ACAD_REACTORS
330
47
102
}
330
47
100
AcDbProxyObject
 90
      499
 91
      503
 93
      249
310
90D332F333222203D2031272D30220000000000002E0FC000000000000284000
  0
ACAD_PROXY_OBJECT
  5
5E
102
{ACAD_REACTORS
330
47
102
}
330
47
100
AcDbProxyObject
 90
      499
 91
      503
 93
      241
310
90C312F3822203D2031272D3022000000000000300FC000000000000284000
  0
ACAD_PROXY_OBJECT
  5
5F
102
{ACAD_REACTORS
330
47
102
}
330
47
100
AcDbProxyObject
 90
      499
 91
      503
 93
      249
310
90D332F313622203D2031272D3022000000000000320FC000000000000284000
  0
ACAD_PROXY_OBJECT
  5
60
102
{ACAD_REACTORS
330
47
102
}
330
47
100
AcDbProxyObject
 90
      499
 91
      503
 93
      241
310
90C312F3422203D2031272D3022000000000000340FC000000000000284000
  0
ACAD_PROXY_OBJECT
  5
61
102
{ACAD_REACTORS
330
47
102
}
330
47
100
AcDbProxyObject
 90
      499
 91
      503
 93
      241
310
90C332F3822203D2031272D3022000000000000360FC000000000000284000
  0
ACAD_PROXY_OBJECT
  5
62
102
{ACAD_REACTORS
330
47
102
}
330
47
100
AcDbProxyObject
 90
      499
 91
      503
 93
      241
310
90C312F3222203D2031272D3022000000000000380FC000000000000284000
  0
ACAD_PROXY_OBJECT
  5
63
102
{ACAD_REACTORS
330
47
102
}
330
47
100
AcDbProxyObject
 90
      499
 91
      503
 93
      241
310
90C332F3422203D2031272D30220000000000003A0FC000000000000284000
  0
ACAD_PROXY_OBJECT
  5
64
102
{ACAD_REACTORS
330
47
102
}
330
47
100
AcDbProxyObject
 90
      499
 91
      503
 93
      161
310
90A3122203D2031272D30224000000000000284000
  0
ACAD_PROXY_OBJECT
  5
65
102
{ACAD_REACTORS
330
47
102
}
330
47
100
AcDbProxyObject
 90
      499
 91
      503
 93
      257
310
90E312D312F3222203D2031272D30220000000000003E0FC000000000000284000
  0
ACAD_PROXY_OBJECT
  5
66
102
{ACAD_REACTORS
330
47
102
}
330
47
100
AcDbProxyObject
 90
      499
 91
      503
 93
      225
310
90A3322203D2031272D302200000000000002100000000000000284000
  0
ACAD_PROXY_OBJECT
  5
67
102
{ACAD_REACTORS
330
47
102
}
330
47
100
AcDbProxyObject
 90
      499
 91
      503
 93
      225
310
90A3622203D2031272D302200000000000006100000000000000284000
  0
ACAD_PROXY_OBJECT
  5
68
102
{ACAD_REACTORS
330
47
102
}
330
47
100
AcDbProxyObject
 90
      499
 91
      503
 93
      249
310
90D31272D3022203D2031272D30220000000000000A100000000000000284000
  0
ACAD_PROXY_OBJECT
  5
2F
102
{ACAD_REACTORS
330
2A
102
}
330
2A
100
AcDbProxyObject
 90
      499
 91
      501
 93
      436
310
42CC9915DA5C99599C985B595049028333333333333E33F0000000000000F90107901411070040501600405405064090741402480A0340
1001
ACAD
1000
AcDbSavedByObjectVersion
1070
     0
  0
ACAD_PROXY_OBJECT
  5
32
102
{ACAD_REACTORS
330
2A
102
}
330
2A
100
AcDbProxyObject
 90
      499
 91
      501
 93
      388
310
4150985CDA58D07406404333333333333E33F0000000000000F90107A41107004050150841D405064090741402480A0350
1001
ACAD
1000
AcDbSavedByObjectVersion
1070
     0
  0
ACAD_PROXY_OBJECT
  5
36
102
{ACAD_REACTORS
330
2A
102
}
330
2A
100
AcDbProxyObject
 90
      499
 91
      501
 93
      428
310
42109C9A59DA1D195B90C409028333333333333E33F0000000000000F9010790141107004050150841D405064090741402480A029950
1001
ACAD
1000
AcDbSavedByObjectVersion
1070
     0
  0
ACAD_PROXY_OBJECT
  5
3A
102
{ACAD_REACTORS
330
2A
102
}
330
2A
100
AcDbProxyObject
 90
      499
 91
      501
 93
      452
310
42D0DBDB1BDC90DA185B99D95104090240C333333333333E33F0000000000000F90108901411070040501508421405064090741402480A0350
1001
ACAD
1000
AcDbSavedByObjectVersion
1070
     0
  0
ACAD_PROXY_OBJECT
  5
34
102
{ACAD_REACTORS
330
2A
102
}
330
2A
100
AcDbProxyObject
 90
      499
 91
      501
 93
      500
310
4290DBDB98D95C1D1D585B10940D028333333333333E33F0000000000000F90107902409070040501000000000018199010841D405064090740C02480A0340
1001
ACAD
1000
AcDbSavedByObjectVersion
1070
     0
  0
ACAD_PROXY_OBJECT
  5
35
102
{ACAD_REACTORS
330
2A
102
}
330
2A
100
AcDbProxyObject
 90
      499
 91
      501
 93
      412
310
40D11A5B50B409028333333333333E33F0000000000000F9010790141107004050150841D405064090741402480A02677FFFFFD0
1001
ACAD
1000
AcDbSavedByObjectVersion
1070
     0
  0
ACAD_PROXY_OBJECT
  5
3D
102
{ACAD_REACTORS
330
2A
102
}
330
2A
100
AcDbProxyObject
 90
      499
 91
      501
 93
      452
310
43115919D950DBDB1BDC93D999916409028333333333333E33F0000000000000F9010790141107004050150841D405064090741402480A0350
1001
ACAD
1000
AcDbSavedByObjectVersion
1070
     0
  0
ACAD_PROXY_OBJECT
  5
39
102
{ACAD_REACTORS
330
2A
102
}
330
2A
100
AcDbProxyObject
 90
      499
 91
      501
 93
      444
310
42D19858D95C185D1D195C9B90F409028333333333333E33F0000000000000F9010790141107004050150841D405064090741402480A0350
1001
ACAD
1000
AcDbSavedByObjectVersion
1070
     0
  0
ACAD_PROXY_OBJECT
  5
2B
102
{ACAD_REACTORS
330
2A
102
}
330
2A
100
AcDbProxyObject
 90
      499
 91
      501
 93
      380
310
41119B185D240901404333333333333E33F0000000000000F9010740A907004050150841D405064090741402480A1B50
1001
ACAD
1000
AcDbSavedByObjectVersion
1070
     0
  0
ACAD_PROXY_OBJECT
  5
2C
102
{ACAD_REACTORS
330
2A
102
}
330
2A
100
AcDbProxyObject
 90
      499
 91
      501
 93
      468
310
43519B185D15DA5D1A115919D95CD0140901404333333333333E33F0000000000000F90107409019070040501600405405064090741402480A1B50
1001
ACAD
1000
AcDbSavedByObjectVersion
1070
     0
  0
ACAD_PROXY_OBJECT
  5
2D
102
{ACAD_REACTORS
330
2A
102
}
330
2A
100
AcDbProxyObject
 90
      499
 91
      501
 93
      404
310
41D1DBDD5C985D5910240902404333333333333E33F0000000000000F9010740A9070040501641D405064090741402480A1B50
1001
ACAD
1000
AcDbSavedByObjectVersion
1070
     0
  0
ACAD_PROXY_OBJECT
  5
2E
102
{ACAD_REACTORS
330
2A
102
}
330
2A
100
AcDbProxyObject
 90
      499
 91
      501
 93
      492
310
4411DBDD5C985D5915DA5D1A115919D95CD0340902404333333333333E33F0000000000000F90107409019070040501600405405064090741402480A1B50
1001
ACAD
1000
AcDbSavedByObjectVersion
1070
     0
  0
ACAD_PROXY_OBJECT
  5
31
102
{ACAD_REACTORS
330
2A
102
}
330
2A
100
AcDbProxyObject
 90
      499
 91
      501
 93
      476
310
41921A5919195B90640502408333333333333E33F0000000000000F901079024090700405020000000000001110200405405064090740C02480A0340
1001
ACAD
1000
AcDbSavedByObjectVersion
1070
     0
  0
ACAD_PROXY_OBJECT
  5
3B
102
{ACAD_REACTORS
330
2A
102
}
330
2A
100
AcDbProxyObject
 90
      499
 91
      501
 93
      428
310
42529A5D1D195C93D999914409028333333333333E33F0000000000000F9010790141107004050150A41D405064090741402480A0350
1001
ACAD
1000
AcDbSavedByObjectVersion
1070
     0
  0
ACAD_PROXY_OBJECT
  5
38
102
{ACAD_REACTORS
330
2A
102
}
330
2A
100
AcDbProxyObject
 90
      499
 91
      501
 93
      444
310
42D31A5B995C185D1D195C9B90E409028333333333333E33F0000000000000F9010790141107004050750841D405064090741402483A0350
1001
ACAD
1000
AcDbSavedByObjectVersion
1070
     0
  0
ACAD_PROXY_OBJECT
  5
3C
102
{ACAD_REACTORS
330
2A
102
}
330
2A
100
AcDbProxyObject
 90
      499
 91
      501
 93
      444
310
42D3DD995C9A185B99D3D999915409028333333333333E33F0000000000000F9010790141107004050150941D405064090741402480A0350
1001
ACAD
1000
AcDbSavedByObjectVersion
1070
     0
  0
ACAD_PROXY_OBJECT
  5
33
102
{ACAD_REACTORS
330
2A
102
}
330
2A
100
AcDbProxyObject
 90
      499
 91
      501
 93
      428
310
425499585B1A5CDD1A58D08409038333333333333E33F0000000000000F9010740A907004050150800405405064090740C02480A1B40
1001
ACAD
1000
AcDbSavedByObjectVersion
1070
     0
  0
ACAD_PROXY_OBJECT
  5
42
102
{ACAD_REACTORS
330
2A
102
}
330
2A
100
AcDbProxyObject
 90
      499
 91
      501
 93
      420
310
4194DA1859195911B40902404333333333333E33F0000000000000F9010740A41107004050150800405405064090840C02480A0B40
1001
ACAD
1000
AcDbSavedByObjectVersion
1070
     0
  0
ACAD_PROXY_OBJECT
  5
41
102
{ACAD_REACTORS
330
2A
102
}
330
2A
100
AcDbProxyObject
 90
      499
 91
      501
 93
      516
310
4454DA18591959081DDA5D1A08195919D95CD1A40902404333333333333E33F0000000000000F901074090142907004050250800405405064090740C02480A0B40
1001
ACAD
1000
AcDbSavedByObjectVersion
1070
     0
  0
ACAD_PROXY_OBJECT
  5
3E
102
{ACAD_REACTORS
330
2A
102
}
330
2A
100
AcDbProxyObject
 90
      499
 91
      501
 93
      532
310
4394DA1859195CC81BD98811DC985E5174090240C333333333333E33F0000000000000F901079024090741D01000000000000111010841D405064090740C02480A0340
1001
ACAD
1000
AcDbSavedByObjectVersion
1070
     0
  0
ACAD_PROXY_OBJECT
  5
3F
102
{ACAD_REACTORS
330
2A
102
}
330
2A
100
AcDbProxyObject
 90
      499
 91
      501
 93
      476
310
41D4DAD95D18DA1E51840502408333333333333E33F0000000000000F901079024090741D01000000000000111010B41D405064090741802480A0340
1001
ACAD
1000
AcDbSavedByObjectVersion
1070
     0
  0
ACAD_PROXY_OBJECT
  5
37
102
{ACAD_REACTORS
330
2A
102
}
330
2A
100
AcDbProxyObject
 90
      499
 91
      501
 93
      412
310
41D51A1A58DAD95B90D409028333333333333E33F0000000000000F9010790141107004050150C41D405064090741402480A0350
1001
ACAD
1000
AcDbSavedByObjectVersion
1070
     0
  0
ACAD_PROXY_OBJECT
  5
30
102
{ACAD_REACTORS
330
2A
102
}
330
2A
100
AcDbProxyObject
 90
      499
 91
      501
 93
      420
310
4255DA5C99599C985B595059028333333333333E33F0000000000000F90107901411070040501600405405064090740C02480A0340
1001
ACAD
1000
AcDbSavedByObjectVersion
1070
     0
  0
ACAD_PROXY_OBJECT
  5
40
102
{ACAD_REACTORS
330
2A
102
}
330
2A
100
AcDbProxyObject
 90
      499
 91
      501
 93
      404
310
41560B54985E51940902404000000000000E03F0000000000000F9010740501907004050150841D405064090740C02480A1B40
1001
ACAD
1000
AcDbSavedByObjectVersion
1070
     0
  0
XRECORD
  5
3FD
102
{ACAD_REACTORS
330
3F3
102
}
330
3F3
100
AcDbXrecord
340
0
  0
XRECORD
  5
3FC
102
{ACAD_REACTORS
330
3F3
102
}
330
3F3
100
AcDbXrecord
 90
        0
  0
XRECORD
  5
413
102
{ACAD_REACTORS
330
3F3
102
}
330
3F3
100
AcDbXrecord
1000
DSTYLE
1002
{
1070
   340
340
11
1002
}
  0
XRECORD
  5
3FE
102
{ACAD_REACTORS
330
3F3
102
}
330
3F3
100
AcDbXrecord
  1
{e07703a1-30d3-4ec4-930a-3dbf5b0a3d46}
  0
XRECORD
  5
3F6
102
{ACAD_REACTORS
330
3F3
102
}
330
3F3
100
AcDbXrecord
  1

  0
XRECORD
  5
3FB
102
{ACAD_REACTORS
330
3F3
102
}
330
3F3
100
AcDbXrecord
 90
        4
  0
XRECORD
  5
3F8
102
{ACAD_REACTORS
330
3F3
102
}
330
3F3
100
AcDbXrecord
340
1A
  0
XRECORD
  5
3FA
102
{ACAD_REACTORS
330
3F3
102
}
330
3F3
100
AcDbXrecord
 90
    10781
  0
XRECORD
  5
3F9
102
{ACAD_REACTORS
330
3F3
102
}
330
3F3
100
AcDbXrecord
340
19
  0
XRECORD
  5
400
102
{ACAD_REACTORS
330
3F3
102
}
330
3F3
100
AcDbXrecord
 40
0.0
  0
XRECORD
  5
403
102
{ACAD_REACTORS
330
3F3
102
}
330
3F3
100
AcDbXrecord
340
0
  0
XRECORD
  5
409
102
{ACAD_REACTORS
330
3F3
102
}
330
3F3
100
AcDbXrecord
 10
0.0
 20
0.0
 30
0.0
  0
XRECORD
  5
405
102
{ACAD_REACTORS
330
3F3
102
}
330
3F3
100
AcDbXrecord
 10
0.0
 20
0.0
 30
0.0
  0
XRECORD
  5
408
102
{ACAD_REACTORS
330
3F3
102
}
330
3F3
100
AcDbXrecord
 10
0.0
 20
0.0
 30
0.0
  0
XRECORD
  5
406
102
{ACAD_REACTORS
330
3F3
102
}
330
3F3
100
AcDbXrecord
 10
0.0
 20
0.0
 30
0.0
  0
XRECORD
  5
407
102
{ACAD_REACTORS
330
3F3
102
}
330
3F3
100
AcDbXrecord
 10
0.0
 20
0.0
 30
0.0
  0
XRECORD
  5
404
102
{ACAD_REACTORS
330
3F3
102
}
330
3F3
100
AcDbXrecord
 10
0.0
 20
0.0
 30
0.0
  0
XRECORD
  5
401
102
{ACAD_REACTORS
330
3F3
102
}
330
3F3
100
AcDbXrecord
340
0
  0
XRECORD
  5
402
102
{ACAD_REACTORS
330
3F3
102
}
330
3F3
100
AcDbXrecord
 70
     0
  0
XRECORD
  5
3F7
102
{ACAD_REACTORS
330
3F3
102
}
330
3F3
100
AcDbXrecord
  1

  0
XRECORD
  5
3F4
102
{ACAD_REACTORS
330
3F3
102
}
330
3F3
100
AcDbXrecord
 90
        1
  0
XRECORD
  5
3F5
102
{ACAD_REACTORS
330
3F3
102
}
330
3F3
100
AcDbXrecord
 90
       70
  0
XRECORD
  5
40C
102
{ACAD_REACTORS
330
3F3
102
}
330
3F3
100
AcDbXrecord
340
0
  0
XRECORD
  5
412
102
{ACAD_REACTORS
330
3F3
102
}
330
3F3
100
AcDbXrecord
 10
0.0
 20
0.0
 30
0.0
  0
XRECORD
  5
40E
102
{ACAD_REACTORS
330
3F3
102
}
330
3F3
100
AcDbXrecord
 10
0.0
 20
0.0
 30
0.0
  0
XRECORD
  5
411
102
{ACAD_REACTORS
330
3F3
102
}
330
3F3
100
AcDbXrecord
 10
0.0
 20
0.0
 30
0.0
  0
XRECORD
  5
40F
102
{ACAD_REACTORS
330
3F3
102
}
330
3F3
100
AcDbXrecord
 10
0.0
 20
0.0
 30
0.0
  0
XRECORD
  5
410
102
{ACAD_REACTORS
330
3F3
102
}
330
3F3
100
AcDbXrecord
 10
0.0
 20
0.0
 30
0.0
  0
XRECORD
  5
40D
102
{ACAD_REACTORS
330
3F3
102
}
330
3F3
100
AcDbXrecord
 10
0.0
 20
0.0
 30
0.0
  0
XRECORD
  5
40A
102
{ACAD_REACTORS
330
3F3
102
}
330
3F3
100
AcDbXrecord
340
0
  0
XRECORD
  5
40B
102
{ACAD_REACTORS
330
3F3
102
}
330
3F3
100
AcDbXrecord
 70
     0
  0
XRECORD
  5
3FF
102
{ACAD_REACTORS
330
3F3
102
}
330
3F3
100
AcDbXrecord
  1
{FAEB1C32-E019-11D5-929B-00C0DF256EC4}
  0
DICTIONARYVAR
  5
421
102
{ACAD_REACTORS
330
414
102
}
330
414
100
DictionaryVariables
280
     0
  1
1:1
  0
DICTIONARYVAR
  5
41B
102
{ACAD_REACTORS
330
414
102
}
330
414
100
DictionaryVariables
280
     0
  1
3.500000
  0
DICTIONARYVAR
  5
41C
102
{ACAD_REACTORS
330
414
102
}
330
414
100
DictionaryVariables
280
     0
  1
acadiso.lin
  0
DICTIONARYVAR
  5
416
102
{ACAD_REACTORS
330
414
102
}
330
414
100
DictionaryVariables
280
     0
  1
Standard
  0
DICTIONARYVAR
  5
415
102
{ACAD_REACTORS
330
414
102
}
330
414
100
DictionaryVariables
280
     0
  1
Standard
  0
DICTIONARYVAR
  5
41D
102
{ACAD_REACTORS
330
414
102
}
330
414
100
DictionaryVariables
280
     0
  1
2
  0
DICTIONARYVAR
  5
41E
102
{ACAD_REACTORS
330
414
102
}
330
414
100
DictionaryVariables
280
     0
  1
1
  0
DICTIONARYVAR
  5
422
102
{ACAD_REACTORS
330
414
102
}
330
414
100
DictionaryVariables
280
     0
  1
1
  0
DICTIONARYVAR
  5
418
102
{ACAD_REACTORS
330
414
102
}
330
414
100
DictionaryVariables
280
     0
  1
80.000000
  0
DICTIONARYVAR
  5
417
102
{ACAD_REACTORS
330
414
102
}
330
414
100
DictionaryVariables
280
     0
  1
5.000000
  0
DICTIONARY
  5
425
330
45
100
AcDbDictionary
280
     1
  3
ACAD_XREC_ROUNDTRIP
360
426
  0
DICTIONARY
  5
423
330
44
100
AcDbDictionary
280
     1
  3
ACAD_XREC_ROUNDTRIP
360
424
  0
DICTIONARY
  5
427
330
46
100
AcDbDictionary
280
     1
  3
ACAD_XREC_ROUNDTRIP
360
428
  0
XRECORD
  5
426
102
{ACAD_REACTORS
330
425
102
}
330
425
100
AcDbXrecord
102
MATERIAL
148
0.0
149
0.0
149
0.0
 93
        0
 94
      127
282
     0
 72
     1
 77
     1
171
     1
175
     1
179
     1
273
     0
  0
XRECORD
  5
424
102
{ACAD_REACTORS
330
423
102
}
330
423
100
AcDbXrecord
102
MATERIAL
148
0.0
149
0.0
149
0.0
 93
        0
 94
      127
282
     0
 72
     1
 77
     1
171
     1
175
     1
179
     1
273
     0
  0
XRECORD
  5
428
102
{ACAD_REACTORS
330
427
102
}
330
427
100
AcDbXrecord
102
MATERIAL
148
0.0
149
0.0
149
0.0
 93
        0
 94
      127
282
     0
 72
     1
 77
     1
171
     1
175
     1
179
     1
273
     0
  0
ENDSEC
  0
EOF
