  0
SECTION
  2
HEADER
  9
$ACADVER
  1
AC1014
  9
$ACADMAINTVER
 70
     9
  9
$DWGCODEPAGE
  3
ANSI_932
  9
$INSBASE
 10
0.0
 20
0.0
 30
0.0
  9
$EXTMIN
 10
15.0
 20
30.0
 30
0.0
  9
$EXTMAX
 10
1155.0
 20
840.0
 30
0.0
  9
$LIMMIN
 10
0.0
 20
0.0
  9
$LIMMAX
 10
420.0
 20
297.0
  9
$ORTHOMODE
 70
     0
  9
$REGENMODE
 70
     1
  9
$FILLMODE
 70
     1
  9
$QTEXTMODE
 70
     0
  9
$MIRRTEXT
 70
     1
  9
$DRAGMODE
 70
     2
  9
$LTSCALE
 40
0.2
  9
$OSMODE
 70
    37
  9
$ATTMODE
 70
     1
  9
$TEXTSIZE
 40
2.5
  9
$TRACEWID
 40
1.0
  9
$TEXTSTYLE
  7
STANDARD
  9
$CLAYER
  8
LAY-10
  9
$CELTYPE
  6
BYLAYER
  9
$CECOLOR
 62
   256
  9
$CELTSCALE
 40
1.0
  9
$DELOBJ
 70
     1
  9
$DISPSILH
 70
     0
  9
$DIMSCALE
 40
1.0
  9
$DIMASZ
 40
2.5
  9
$DIMEXO
 40
0.625
  9
$DIMDLI
 40
3.75
  9
$DIMRND
 40
0.0
  9
$DIMDLE
 40
0.0
  9
$DIMEXE
 40
1.25
  9
$DIMTP
 40
0.0
  9
$DIMTM
 40
0.0
  9
$DIMTXT
 40
2.5
  9
$DIMCEN
 40
2.5
  9
$DIMTSZ
 40
0.0
  9
$DIMTOL
 70
     0
  9
$DIMLIM
 70
     0
  9
$DIMTIH
 70
     0
  9
$DIMTOH
 70
     0
  9
$DIMSE1
 70
     0
  9
$DIMSE2
 70
     0
  9
$DIMTAD
 70
     1
  9
$DIMZIN
 70
     8
  9
$DIMBLK
  1

  9
$DIMASO
 70
     1
  9
$DIMSHO
 70
     1
  9
$DIMPOST
  1

  9
$DIMAPOST
  1

  9
$DIMALT
 70
     0
  9
$DIMALTD
 70
     3
  9
$DIMALTF
 40
0.03937007874016
  9
$DIMLFAC
 40
1.0
  9
$DIMTOFL
 70
     1
  9
$DIMTVP
 40
0.0
  9
$DIMTIX
 70
     0
  9
$DIMSOXD
 70
     0
  9
$DIMSAH
 70
     0
  9
$DIMBLK1
  1

  9
$DIMBLK2
  1

  9
$DIMSTYLE
  2
ISO-25
  9
$DIMCLRD
 70
     0
  9
$DIMCLRE
 70
     0
  9
$DIMCLRT
 70
     0
  9
$DIMTFAC
 40
1.0
  9
$DIMGAP
 40
0.625
  9
$DIMJUST
 70
     0
  9
$DIMSD1
 70
     0
  9
$DIMSD2
 70
     0
  9
$DIMTOLJ
 70
     0
  9
$DIMTZIN
 70
     8
  9
$DIMALTZ
 70
     0
  9
$DIMALTTZ
 70
     0
  9
$DIMFIT
 70
     3
  9
$DIMUPT
 70
     0
  9
$DIMUNIT
 70
     2
  9
$DIMDEC
 70
     2
  9
$DIMTDEC
 70
     2
  9
$DIMALTU
 70
     2
  9
$DIMALTTD
 70
     3
  9
$DIMTXSTY
  7
STANDARD
  9
$DIMAUNIT
 70
     0
  9
$LUNITS
 70
     2
  9
$LUPREC
 70
     4
  9
$SKETCHINC
 40
1.0
  9
$FILLETRAD
 40
10.0
  9
$AUNITS
 70
     0
  9
$AUPREC
 70
     0
  9
$MENU
  1
.
  9
$ELEVATION
 40
0.0
  9
$PELEVATION
 40
0.0
  9
$THICKNESS
 40
0.0
  9
$LIMCHECK
 70
     0
  9
$CHAMFERA
 40
0.0
  9
$CHAMFERB
 40
0.0
  9
$CHAMFERC
 40
0.0
  9
$CHAMFERD
 40
0.0
  9
$SKPOLY
 70
     0
  9
$TDCREATE
 40
2459229.338084155
  9
$TDUPDATE
 40
2459229.338084641
  9
$TDINDWG
 40
0.0000000116
  9
$TDUSRTIMER
 40
0.0000000116
  9
$USRTIMER
 70
     1
  9
$ANGBASE
 50
0.0
  9
$ANGDIR
 70
     0
  9
$PDMODE
 70
     0
  9
$PDSIZE
 40
0.0
  9
$PLINEWID
 40
0.0
  9
$COORDS
 70
     1
  9
$SPLFRAME
 70
     0
  9
$SPLINETYPE
 70
     6
  9
$SPLINESEGS
 70
     8
  9
$ATTDIA
 70
     0
  9
$ATTREQ
 70
     1
  9
$HANDLING
 70
     1
  9
$HANDSEED
  5
46D
  9
$SURFTAB1
 70
     6
  9
$SURFTAB2
 70
     6
  9
$SURFTYPE
 70
     6
  9
$SURFU
 70
     6
  9
$SURFV
 70
     6
  9
$UCSNAME
  2

  9
$UCSORG
 10
0.0
 20
0.0
 30
0.0
  9
$UCSXDIR
 10
1.0
 20
0.0
 30
0.0
  9
$UCSYDIR
 10
0.0
 20
1.0
 30
0.0
  9
$PUCSNAME
  2

  9
$PUCSORG
 10
0.0
 20
0.0
 30
0.0
  9
$PUCSXDIR
 10
1.0
 20
0.0
 30
0.0
  9
$PUCSYDIR
 10
0.0
 20
1.0
 30
0.0
  9
$USERI1
 70
     0
  9
$USERI2
 70
     0
  9
$USERI3
 70
     0
  9
$USERI4
 70
     0
  9
$USERI5
 70
     0
  9
$USERR1
 40
0.0
  9
$USERR2
 40
0.0
  9
$USERR3
 40
0.0
  9
$USERR4
 40
0.0
  9
$USERR5
 40
0.0
  9
$WORLDVIEW
 70
     1
  9
$SHADEDGE
 70
     3
  9
$SHADEDIF
 70
    70
  9
$TILEMODE
 70
     1
  9
$MAXACTVP
 70
    64
  9
$PINSBASE
 10
0.0
 20
0.0
 30
0.0
  9
$PLIMCHECK
 70
     0
  9
$PEXTMIN
 10
1.000000000000000E+20
 20
1.000000000000000E+20
 30
1.000000000000000E+20
  9
$PEXTMAX
 10
-1.000000000000000E+20
 20
-1.000000000000000E+20
 30
-1.000000000000000E+20
  9
$PLIMMIN
 10
0.0
 20
0.0
  9
$PLIMMAX
 10
420.0
 20
297.0
  9
$UNITMODE
 70
     0
  9
$VISRETAIN
 70
     1
  9
$PLINEGEN
 70
     0
  9
$PSLTSCALE
 70
     1
  9
$TREEDEPTH
 70
  3020
  9
$PICKSTYLE
 70
     1
  9
$CMLSTYLE
  2
STANDARD
  9
$CMLJUST
 70
     0
  9
$CMLSCALE
 40
20.0
  9
$PROXYGRAPHICS
 70
     1
  9
$MEASUREMENT
 70
     1
  0
ENDSEC
  0
SECTION
  2
CLASSES
  0
CLASS
  1
ACDBDICTIONARYWDFLT
  2
AcDbDictionaryWithDefault
  3
ObjectDBX Classes
 90
        0
280
     0
281
     0
  0
CLASS
  1
VISUALSTYLE
  2
AcDbVisualStyle
  3
ObjectDBX Classes
 90
     4095
280
     0
281
     0
  0
CLASS
  1
MATERIAL
  2
AcDbMaterial
  3
ObjectDBX Classes
 90
     1153
280
     0
281
     0
  0
CLASS
  1
SCALE
  2
AcDbScale
  3
ObjectDBX Classes
 90
     1153
280
     0
281
     0
  0
CLASS
  1
TABLESTYLE
  2
AcDbTableStyle
  3
ObjectDBX Classes
 90
     4095
280
     0
281
     0
  0
CLASS
  1
MLEADERSTYLE
  2
AcDbMLeaderStyle
  3
ACDB_MLEADERSTYLE_CLASS
 90
     4095
280
     0
281
     0
  0
CLASS
  1
SUN
  2
AcDbSun
  3
SCENEOE
 90
     1153
280
     0
281
     0
  0
CLASS
  1
DICTIONARYVAR
  2
AcDbDictionaryVar
  3
ObjectDBX Classes
 90
        0
280
     0
281
     0
  0
CLASS
  1
XRECORD
  2
AcDbXrecord
  3
ObjectDBX Classes
 90
        0
280
     0
281
     0
  0
CLASS
  1
LWPOLYLINE
  2
AcDbPolyline
  3
ObjectDBX Classes
 90
        0
280
     0
281
     1
  0
CLASS
  1
HATCH
  2
AcDbHatch
  3
ObjectDBX Classes
 90
        0
280
     0
281
     1
  0
CLASS
  1
ACDBPLACEHOLDER
  2
AcDbPlaceHolder
  3
ObjectDBX Classes
 90
        0
280
     0
281
     0
  0
CLASS
  1
LAYOUT
  2
AcDbLayout
  3
ObjectDBX Classes
 90
        0
280
     0
281
     0
  0
ENDSEC
  0
SECTION
  2
TABLES
  0
TABLE
  2
VPORT
  5
8
102
{ACAD_XDICTIONARY
360
462
102
}
330
0
100
AcDbSymbolTable
 70
     1
  0
VPORT
  5
29
330
8
100
AcDbSymbolTableRecord
100
AcDbViewportTableRecord
  2
*ACTIVE
 70
     0
 10
0.0
 20
0.0
 11
1.0
 21
1.0
 12
585.0000000000001
 22
435.0
 13
0.0
 23
0.0
 14
10.0
 24
10.0
 15
10.0
 25
10.0
 16
0.0
 26
0.0
 36
1.0
 17
0.0
 27
0.0
 37
0.0
 40
810.0
 41
1.407407407407408
 42
50.0
 43
0.0
 44
0.0
 50
0.0
 51
0.0
 71
     0
 72
  1000
 73
     1
 74
     3
 75
     0
 76
     0
 77
     0
 78
     0
  0
ENDTAB
  0
TABLE
  2
LTYPE
  5
5
330
0
100
AcDbSymbolTable
 70
     6
  0
LTYPE
  5
14
330
5
100
AcDbSymbolTableRecord
100
AcDbLinetypeTableRecord
  2
BYBLOCK
 70
     0
  3

 72
    65
 73
     0
 40
0.0
  0
LTYPE
  5
15
330
5
100
AcDbSymbolTableRecord
100
AcDbLinetypeTableRecord
  2
BYLAYER
 70
     0
  3

 72
    65
 73
     0
 40
0.0
  0
LTYPE
  5
16
330
5
100
AcDbSymbolTableRecord
100
AcDbLinetypeTableRecord
  2
CONTINUOUS
 70
     0
  3
Solid line
 72
    65
 73
     0
 40
0.0
  0
LTYPE
  5
6E
330
5
100
AcDbSymbolTableRecord
100
AcDbLinetypeTableRecord
  2
HIDDEN
 70
     0
  3
Hidden __ __ __ __ __ __ __ __ __ __ __ __ __ __
 72
    65
 73
     2
 40
9.524999999999999
 49
6.35
 74
     0
 49
-3.175
 74
     0
  0
LTYPE
  5
6F
330
5
100
AcDbSymbolTableRecord
100
AcDbLinetypeTableRecord
  2
CENTER
 70
     0
  3
Center ____ _ ____ _ ____ _ ____ _ ____ _ ____
 72
    65
 73
     4
 40
50.8
 49
31.75
 74
     0
 49
-6.35
 74
     0
 49
6.35
 74
     0
 49
-6.35
 74
     0
  0
LTYPE
  5
70
330
5
100
AcDbSymbolTableRecord
100
AcDbLinetypeTableRecord
  2
PHANTOM
 70
     0
  3
Phantom ______  __  __  ______  __  __  ______ 
 72
    65
 73
     6
 40
63.50000000000001
 49
31.75
 74
     0
 49
-6.35
 74
     0
 49
6.35
 74
     0
 49
-6.35
 74
     0
 49
6.35
 74
     0
 49
-6.35
 74
     0
  0
LTYPE
  5
71
330
5
100
AcDbSymbolTableRecord
100
AcDbLinetypeTableRecord
  2
ACAD_ISO06W100
 70
     0
  3
ISO long-dash triple-dot ____ ... ____ ... ____
 72
    65
 73
     8
 40
36.0
 49
24.0
 74
     0
 49
-3.0
 74
     0
 49
0.0
 74
     0
 49
-3.0
 74
     0
 49
0.0
 74
     0
 49
-3.0
 74
     0
 49
0.0
 74
     0
 49
-3.0
 74
     0
  0
LTYPE
  5
72
330
5
100
AcDbSymbolTableRecord
100
AcDbLinetypeTableRecord
  2
ACAD_ISO15W100
 70
     0
  3
ISO double-dash triple-dot __ __ . . . __ __ . .
 72
    65
 73
    10
 40
39.0
 49
12.0
 74
     0
 49
-3.0
 74
     0
 49
12.0
 74
     0
 49
-3.0
 74
     0
 49
0.0
 74
     0
 49
-3.0
 74
     0
 49
0.0
 74
     0
 49
-3.0
 74
     0
 49
0.0
 74
     0
 49
-3.0
 74
     0
  0
ENDTAB
  0
TABLE
  2
LAYER
  5
2
330
0
100
AcDbSymbolTable
 70
     5
  0
LAYER
  5
10
330
2
100
AcDbSymbolTableRecord
100
AcDbLayerTableRecord
  2
0
 70
     0
 62
     7
  6
CONTINUOUS
  0
LAYER
  5
75
330
2
100
AcDbSymbolTableRecord
100
AcDbLayerTableRecord
  2
LAY-10
 70
     0
 62
     7
  6
CONTINUOUS
  0
LAYER
  5
76
330
2
100
AcDbSymbolTableRecord
100
AcDbLayerTableRecord
  2
LAY-20
 70
     0
 62
     7
  6
CONTINUOUS
  0
LAYER
  5
77
330
2
100
AcDbSymbolTableRecord
100
AcDbLayerTableRecord
  2
LAY-255
 70
     0
 62
     7
  6
CONTINUOUS
  0
LAYER
  5
3AA
330
2
100
AcDbSymbolTableRecord
100
AcDbLayerTableRecord
  2
DEFPOINTS
 70
     0
 62
     7
  6
CONTINUOUS
  0
ENDTAB
  0
TABLE
  2
STYLE
  5
3
330
0
100
AcDbSymbolTable
 70
     4
  0
STYLE
  5
11
330
3
100
AcDbSymbolTableRecord
100
AcDbTextStyleTableRecord
  2
STANDARD
 70
     0
 40
0.0
 41
1.0
 50
0.0
 71
     0
 42
2.5
  3
simplex
  4
bigfont
  0
STYLE
  5
73
330
3
100
AcDbSymbolTableRecord
100
AcDbTextStyleTableRecord
  2
EXCADSTD
 70
     0
 40
0.0
 41
1.0
 50
0.0
 71
     0
 42
2.5
  3
simplex
  4
bigfont
  0
STYLE
  5
74
330
3
100
AcDbSymbolTableRecord
100
AcDbTextStyleTableRecord
  2
EXCADVERT
 70
     4
 40
0.0
 41
1.0
 50
0.0
 71
     0
 42
2.5
  3
simplex
  4
bigfont
  0
STYLE
  5
3A8
330
3
100
AcDbSymbolTableRecord
100
AcDbTextStyleTableRecord
  2
EXCADDIM1
 70
     0
 40
0.0
 41
0.84
 50
0.0
 71
     0
 42
2.5
  3
simplex
  4
bigfont
  0
ENDTAB
  0
TABLE
  2
VIEW
  5
6
330
0
100
AcDbSymbolTable
 70
     0
  0
ENDTAB
  0
TABLE
  2
UCS
  5
7
330
0
100
AcDbSymbolTable
 70
     0
  0
ENDTAB
  0
TABLE
  2
APPID
  5
9
330
0
100
AcDbSymbolTable
 70
     2
  0
APPID
  5
12
330
9
100
AcDbSymbolTableRecord
100
AcDbRegAppTableRecord
  2
ACAD
 70
     0
  0
APPID
  5
46C
330
9
100
AcDbSymbolTableRecord
100
AcDbRegAppTableRecord
  2
ACAD_MLEADERVER
 70
     0
  0
ENDTAB
  0
TABLE
  2
DIMSTYLE
  5
A
330
0
100
AcDbSymbolTable
 70
     1
  0
DIMSTYLE
105
27
102
{ACAD_REACTORS
330
3A9
330
3B7
330
3C4
330
3D0
330
3DD
330
3EA
330
3F7
330
404
102
}
330
A
100
AcDbSymbolTableRecord
100
AcDbDimStyleTableRecord
  2
ISO-25
 70
     0
  3

  4

  5

  6

  7

 40
1.0
 41
2.5
 42
0.625
 43
3.75
 44
1.25
 45
0.0
 46
0.0
 47
0.0
 48
0.0
140
2.5
141
2.5
142
0.0
143
0.03937007874016
144
1.0
145
0.0
146
1.0
147
0.625
 71
     0
 72
     0
 73
     0
 74
     0
 75
     0
 76
     0
 77
     1
 78
     8
170
     0
171
     3
172
     1
173
     0
174
     0
175
     0
176
     0
177
     0
178
     0
270
     2
271
     2
272
     2
273
     2
274
     3
340
11
275
     0
280
     0
281
     0
282
     0
283
     0
284
     8
285
     0
286
     0
287
     5
288
     0
  0
ENDTAB
  0
TABLE
  2
BLOCK_RECORD
  5
1
330
0
100
AcDbSymbolTable
 70
    22
  0
BLOCK_RECORD
  5
1F
330
1
100
AcDbSymbolTableRecord
100
AcDbBlockTableRecord
  2
*MODEL_SPACE
  0
BLOCK_RECORD
  5
1B
330
1
100
AcDbSymbolTableRecord
100
AcDbBlockTableRecord
  2
*PAPER_SPACE
  0
BLOCK_RECORD
  5
78
330
1
100
AcDbSymbolTableRecord
100
AcDbBlockTableRecord
  2
EX_NORM
  0
BLOCK_RECORD
  5
7B
330
1
100
AcDbSymbolTableRecord
100
AcDbBlockTableRecord
  2
EX_BNORM
  0
BLOCK_RECORD
  5
7E
330
1
100
AcDbSymbolTableRecord
100
AcDbBlockTableRecord
  2
EX_BCIR
  0
BLOCK_RECORD
  5
81
330
1
100
AcDbSymbolTableRecord
100
AcDbBlockTableRecord
  2
EX_RCIVIL
  0
BLOCK_RECORD
  5
84
330
1
100
AcDbSymbolTableRecord
100
AcDbBlockTableRecord
  2
EX_SLANT
  0
BLOCK_RECORD
  5
87
330
1
100
AcDbSymbolTableRecord
100
AcDbBlockTableRecord
  2
EX_NONE
  0
BLOCK_RECORD
  5
8A
330
1
100
AcDbSymbolTableRecord
100
AcDbBlockTableRecord
  2
EX_CIVIL
  0
BLOCK_RECORD
  5
8D
330
1
100
AcDbSymbolTableRecord
100
AcDbBlockTableRecord
  2
EX_WCIR
  0
BLOCK_RECORD
  5
90
330
1
100
AcDbSymbolTableRecord
100
AcDbBlockTableRecord
  2
EX_WCIR2
  0
BLOCK_RECORD
  5
93
330
1
100
AcDbSymbolTableRecord
100
AcDbBlockTableRecord
  2
EX_WNORM
  0
BLOCK_RECORD
  5
96
330
1
100
AcDbSymbolTableRecord
100
AcDbBlockTableRecord
  2
EX_NNORM
  0
BLOCK_RECORD
  5
99
330
1
100
AcDbSymbolTableRecord
100
AcDbBlockTableRecord
  2
EX_BBOX
  0
BLOCK_RECORD
  5
9C
330
1
100
AcDbSymbolTableRecord
100
AcDbBlockTableRecord
  2
EX_WBOX
  0
BLOCK_RECORD
  5
9F
330
1
100
AcDbSymbolTableRecord
100
AcDbBlockTableRecord
  2
EX_INTEGRAL
  0
BLOCK_RECORD
  5
3AB
330
1
100
AcDbSymbolTableRecord
100
AcDbBlockTableRecord
  2
*D15
  0
BLOCK_RECORD
  5
3B8
330
1
100
AcDbSymbolTableRecord
100
AcDbBlockTableRecord
  2
*D16
  0
BLOCK_RECORD
  5
3C5
330
1
100
AcDbSymbolTableRecord
100
AcDbBlockTableRecord
  2
*D17
  0
BLOCK_RECORD
  5
3D1
330
1
100
AcDbSymbolTableRecord
100
AcDbBlockTableRecord
  2
*D18
  0
BLOCK_RECORD
  5
3DE
330
1
100
AcDbSymbolTableRecord
100
AcDbBlockTableRecord
  2
*D19
  0
BLOCK_RECORD
  5
3EB
330
1
100
AcDbSymbolTableRecord
100
AcDbBlockTableRecord
  2
*D20
  0
BLOCK_RECORD
  5
3F8
330
1
100
AcDbSymbolTableRecord
100
AcDbBlockTableRecord
  2
*D21
  0
BLOCK_RECORD
  5
405
330
1
100
AcDbSymbolTableRecord
100
AcDbBlockTableRecord
  2
*D22
  0
ENDTAB
  0
ENDSEC
  0
SECTION
  2
BLOCKS
  0
BLOCK
  5
20
330
1F
100
AcDbEntity
  8
0
100
AcDbBlockBegin
  2
*MODEL_SPACE
 70
     0
 10
0.0
 20
0.0
 30
0.0
  3
*MODEL_SPACE
  1

  0
ENDBLK
  5
21
330
1F
100
AcDbEntity
  8
0
100
AcDbBlockEnd
  0
BLOCK
  5
1C
330
1B
100
AcDbEntity
 67
     1
  8
0
100
AcDbBlockBegin
  2
*PAPER_SPACE
 70
     0
 10
0.0
 20
0.0
 30
0.0
  3
*PAPER_SPACE
  1

  0
ENDBLK
  5
1D
330
1B
100
AcDbEntity
 67
     1
  8
0
100
AcDbBlockEnd
  0
BLOCK
  5
79
330
78
100
AcDbEntity
  8
0
100
AcDbBlockBegin
  2
EX_NORM
 70
     0
 10
0.0
 20
0.0
 30
0.0
  3
EX_NORM
  1

  0
LINE
  5
A2
330
78
100
AcDbEntity
  8
0
  6
CONTINUOUS
 62
     0
100
AcDbLine
 10
0.0
 20
0.0
 30
0.0
 11
-1.0
 21
0.0
 31
0.0
  0
LINE
  5
A3
330
78
100
AcDbEntity
  8
0
  6
CONTINUOUS
 62
     0
100
AcDbLine
 10
0.0
 20
0.0
 30
0.0
 11
-1.0
 21
0.166666667
 31
0.0
  0
LINE
  5
A4
330
78
100
AcDbEntity
  8
0
  6
CONTINUOUS
 62
     0
100
AcDbLine
 10
0.0
 20
0.0
 30
0.0
 11
-1.0
 21
-0.166666667
 31
0.0
  0
ENDBLK
  5
7A
330
78
100
AcDbEntity
  8
0
100
AcDbBlockEnd
  0
BLOCK
  5
7C
330
7B
100
AcDbEntity
  8
0
100
AcDbBlockBegin
  2
EX_BNORM
 70
     0
 10
0.0
 20
0.0
 30
0.0
  3
EX_BNORM
  1

  0
LINE
  5
A5
330
7B
100
AcDbEntity
  8
0
  6
CONTINUOUS
 62
     0
100
AcDbLine
 10
0.0
 20
0.0
 30
0.0
 11
-1.0
 21
0.0
 31
0.0
  0
LINE
  5
A6
330
7B
100
AcDbEntity
  8
0
  6
CONTINUOUS
 62
     0
100
AcDbLine
 10
0.0
 20
0.0
 30
0.0
 11
-1.0
 21
0.166666667
 31
0.0
  0
LINE
  5
A7
330
7B
100
AcDbEntity
  8
0
  6
CONTINUOUS
 62
     0
100
AcDbLine
 10
0.0
 20
0.0
 30
0.0
 11
-1.0
 21
-0.166666667
 31
0.0
  0
LINE
  5
A8
330
7B
100
AcDbEntity
  8
0
  6
CONTINUOUS
 62
     0
100
AcDbLine
 10
0.0
 20
0.0
 30
0.0
 11
-1.0
 21
0.083333333
 31
0.0
  0
LINE
  5
A9
330
7B
100
AcDbEntity
  8
0
  6
CONTINUOUS
 62
     0
100
AcDbLine
 10
0.0
 20
0.0
 30
0.0
 11
-1.0
 21
-0.083333333
 31
0.0
  0
LINE
  5
AA
330
7B
100
AcDbEntity
  8
0
  6
CONTINUOUS
 62
     0
100
AcDbLine
 10
-1.0
 20
0.166666667
 30
0.0
 11
-1.0
 21
-0.166666667
 31
0.0
  0
ENDBLK
  5
7D
330
7B
100
AcDbEntity
  8
0
100
AcDbBlockEnd
  0
BLOCK
  5
7F
330
7E
100
AcDbEntity
  8
0
100
AcDbBlockBegin
  2
EX_BCIR
 70
     0
 10
0.0
 20
0.0
 30
0.0
  3
EX_BCIR
  1

  0
LINE
  5
AB
330
7E
100
AcDbEntity
  8
0
  6
CONTINUOUS
 62
     0
100
AcDbLine
 10
0.0
 20
0.0
 30
0.0
 11
-1.0
 21
0.0
 31
0.0
  0
CIRCLE
  5
AC
330
7E
100
AcDbEntity
  8
0
  6
CONTINUOUS
 62
     0
100
AcDbCircle
 10
0.0
 20
0.0
 30
0.0
 40
0.5
  0
CIRCLE
  5
AD
330
7E
100
AcDbEntity
  8
0
  6
CONTINUOUS
 62
     0
100
AcDbCircle
 10
0.0
 20
0.0
 30
0.0
 40
0.25
  0
ENDBLK
  5
80
330
7E
100
AcDbEntity
  8
0
100
AcDbBlockEnd
  0
BLOCK
  5
82
330
81
100
AcDbEntity
  8
0
100
AcDbBlockBegin
  2
EX_RCIVIL
 70
     0
 10
0.0
 20
0.0
 30
0.0
  3
EX_RCIVIL
  1

  0
LINE
  5
AE
330
81
100
AcDbEntity
  8
0
  6
CONTINUOUS
 62
     0
100
AcDbLine
 10
0.0
 20
0.0
 30
0.0
 11
-1.0
 21
0.0
 31
0.0
  0
LINE
  5
AF
330
81
100
AcDbEntity
  8
0
  6
CONTINUOUS
 62
     0
100
AcDbLine
 10
-1.0
 20
-0.25
 30
0.0
 11
0.0
 21
-0.25
 31
0.0
  0
LINE
  5
B0
330
81
100
AcDbEntity
  8
0
  6
CONTINUOUS
 62
     0
100
AcDbLine
 10
-1.0
 20
-0.125
 30
0.0
 11
0.0
 21
-0.125
 31
0.0
  0
ENDBLK
  5
83
330
81
100
AcDbEntity
  8
0
100
AcDbBlockEnd
  0
BLOCK
  5
85
330
84
100
AcDbEntity
  8
0
100
AcDbBlockBegin
  2
EX_SLANT
 70
     0
 10
0.0
 20
0.0
 30
0.0
  3
EX_SLANT
  1

  0
LINE
  5
B1
330
84
100
AcDbEntity
  8
0
  6
CONTINUOUS
 62
     0
100
AcDbLine
 10
0.0
 20
0.0
 30
0.0
 11
-1.0
 21
0.0
 31
0.0
  0
LINE
  5
B2
330
84
100
AcDbEntity
  8
0
  6
CONTINUOUS
 62
     0
100
AcDbLine
 10
0.707106781
 20
0.707106781
 30
0.0
 11
-0.707106781
 21
-0.707106781
 31
0.0
  0
ENDBLK
  5
86
330
84
100
AcDbEntity
  8
0
100
AcDbBlockEnd
  0
BLOCK
  5
88
330
87
100
AcDbEntity
  8
0
100
AcDbBlockBegin
  2
EX_NONE
 70
     0
 10
0.0
 20
0.0
 30
0.0
  3
EX_NONE
  1

  0
LINE
  5
B3
330
87
100
AcDbEntity
  8
0
  6
CONTINUOUS
 62
     0
100
AcDbLine
 10
0.0
 20
0.0
 30
0.0
 11
-1.0
 21
0.0
 31
0.0
  0
ENDBLK
  5
89
330
87
100
AcDbEntity
  8
0
100
AcDbBlockEnd
  0
BLOCK
  5
8B
330
8A
100
AcDbEntity
  8
0
100
AcDbBlockBegin
  2
EX_CIVIL
 70
     0
 10
0.0
 20
0.0
 30
0.0
  3
EX_CIVIL
  1

  0
LINE
  5
B4
330
8A
100
AcDbEntity
  8
0
  6
CONTINUOUS
 62
     0
100
AcDbLine
 10
0.0
 20
0.0
 30
0.0
 11
-1.0
 21
0.0
 31
0.0
  0
LINE
  5
B5
330
8A
100
AcDbEntity
  8
0
  6
CONTINUOUS
 62
     0
100
AcDbLine
 10
-1.0
 20
0.25
 30
0.0
 11
0.0
 21
0.25
 31
0.0
  0
LINE
  5
B6
330
8A
100
AcDbEntity
  8
0
  6
CONTINUOUS
 62
     0
100
AcDbLine
 10
-1.0
 20
0.125
 30
0.0
 11
0.0
 21
0.125
 31
0.0
  0
ENDBLK
  5
8C
330
8A
100
AcDbEntity
  8
0
100
AcDbBlockEnd
  0
BLOCK
  5
8E
330
8D
100
AcDbEntity
  8
0
100
AcDbBlockBegin
  2
EX_WCIR
 70
     0
 10
0.0
 20
0.0
 30
0.0
  3
EX_WCIR
  1

  0
LINE
  5
B7
330
8D
100
AcDbEntity
  8
0
  6
CONTINUOUS
 62
     0
100
AcDbLine
 10
0.0
 20
0.0
 30
0.0
 11
-1.0
 21
0.0
 31
0.0
  0
CIRCLE
  5
B8
330
8D
100
AcDbEntity
  8
0
  6
CONTINUOUS
 62
     0
100
AcDbCircle
 10
0.0
 20
0.0
 30
0.0
 40
0.5
  0
ENDBLK
  5
8F
330
8D
100
AcDbEntity
  8
0
100
AcDbBlockEnd
  0
BLOCK
  5
91
330
90
100
AcDbEntity
  8
0
100
AcDbBlockBegin
  2
EX_WCIR2
 70
     0
 10
0.0
 20
0.0
 30
0.0
  3
EX_WCIR2
  1

  0
LINE
  5
B9
330
90
100
AcDbEntity
  8
0
  6
CONTINUOUS
 62
     0
100
AcDbLine
 10
-0.5
 20
0.0
 30
0.0
 11
-1.0
 21
0.0
 31
0.0
  0
CIRCLE
  5
BA
330
90
100
AcDbEntity
  8
0
  6
CONTINUOUS
 62
     0
100
AcDbCircle
 10
0.0
 20
0.0
 30
0.0
 40
0.5
  0
ENDBLK
  5
92
330
90
100
AcDbEntity
  8
0
100
AcDbBlockEnd
  0
BLOCK
  5
94
330
93
100
AcDbEntity
  8
0
100
AcDbBlockBegin
  2
EX_WNORM
 70
     0
 10
0.0
 20
0.0
 30
0.0
  3
EX_WNORM
  1

  0
LINE
  5
BB
330
93
100
AcDbEntity
  8
0
  6
CONTINUOUS
 62
     0
100
AcDbLine
 10
-1.0
 20
0.0
 30
0.0
 11
-1.0
 21
0.0
 31
0.0
  0
LINE
  5
BC
330
93
100
AcDbEntity
  8
0
  6
CONTINUOUS
 62
     0
100
AcDbLine
 10
0.0
 20
0.0
 30
0.0
 11
-1.0
 21
0.166666667
 31
0.0
  0
LINE
  5
BD
330
93
100
AcDbEntity
  8
0
  6
CONTINUOUS
 62
     0
100
AcDbLine
 10
0.0
 20
0.0
 30
0.0
 11
-1.0
 21
-0.166666667
 31
0.0
  0
LINE
  5
BE
330
93
100
AcDbEntity
  8
0
  6
CONTINUOUS
 62
     0
100
AcDbLine
 10
-1.0
 20
0.166666667
 30
0.0
 11
-1.0
 21
-0.166666667
 31
0.0
  0
ENDBLK
  5
95
330
93
100
AcDbEntity
  8
0
100
AcDbBlockEnd
  0
BLOCK
  5
97
330
96
100
AcDbEntity
  8
0
100
AcDbBlockBegin
  2
EX_NNORM
 70
     0
 10
0.0
 20
0.0
 30
0.0
  3
EX_NNORM
  1

  0
LINE
  5
BF
330
96
100
AcDbEntity
  8
0
  6
CONTINUOUS
 62
     0
100
AcDbLine
 10
0.0
 20
0.0
 30
0.0
 11
-1.0
 21
0.0
 31
0.0
  0
LINE
  5
C0
330
96
100
AcDbEntity
  8
0
  6
CONTINUOUS
 62
     0
100
AcDbLine
 10
0.0
 20
0.0
 30
0.0
 11
-1.0
 21
0.166666667
 31
0.0
  0
LINE
  5
C1
330
96
100
AcDbEntity
  8
0
  6
CONTINUOUS
 62
     0
100
AcDbLine
 10
0.0
 20
0.0
 30
0.0
 11
-1.0
 21
-0.166666667
 31
0.0
  0
LINE
  5
C2
330
96
100
AcDbEntity
  8
0
  6
CONTINUOUS
 62
     0
100
AcDbLine
 10
-1.0
 20
0.166666667
 30
0.0
 11
-1.0
 21
-0.166666667
 31
0.0
  0
ENDBLK
  5
98
330
96
100
AcDbEntity
  8
0
100
AcDbBlockEnd
  0
BLOCK
  5
9A
330
99
100
AcDbEntity
  8
0
100
AcDbBlockBegin
  2
EX_BBOX
 70
     0
 10
0.0
 20
0.0
 30
0.0
  3
EX_BBOX
  1

  0
LINE
  5
C3
330
99
100
AcDbEntity
  8
0
  6
CONTINUOUS
 62
     0
100
AcDbLine
 10
0.0
 20
0.0
 30
0.0
 11
-1.0
 21
0.0
 31
0.0
  0
LINE
  5
C4
330
99
100
AcDbEntity
  8
0
  6
CONTINUOUS
 62
     0
100
AcDbLine
 10
-0.5
 20
0.5
 30
0.0
 11
0.5
 21
0.5
 31
0.0
  0
LINE
  5
C5
330
99
100
AcDbEntity
  8
0
  6
CONTINUOUS
 62
     0
100
AcDbLine
 10
0.5
 20
0.5
 30
0.0
 11
0.5
 21
-0.5
 31
0.0
  0
LINE
  5
C6
330
99
100
AcDbEntity
  8
0
  6
CONTINUOUS
 62
     0
100
AcDbLine
 10
0.5
 20
-0.5
 30
0.0
 11
-0.5
 21
-0.5
 31
0.0
  0
LINE
  5
C7
330
99
100
AcDbEntity
  8
0
  6
CONTINUOUS
 62
     0
100
AcDbLine
 10
-0.5
 20
-0.5
 30
0.0
 11
-0.5
 21
0.5
 31
0.0
  0
LINE
  5
C8
330
99
100
AcDbEntity
  8
0
  6
CONTINUOUS
 62
     0
100
AcDbLine
 10
-0.25
 20
0.25
 30
0.0
 11
0.25
 21
0.25
 31
0.0
  0
LINE
  5
C9
330
99
100
AcDbEntity
  8
0
  6
CONTINUOUS
 62
     0
100
AcDbLine
 10
0.25
 20
0.25
 30
0.0
 11
0.25
 21
-0.25
 31
0.0
  0
LINE
  5
CA
330
99
100
AcDbEntity
  8
0
  6
CONTINUOUS
 62
     0
100
AcDbLine
 10
0.25
 20
-0.25
 30
0.0
 11
-0.25
 21
-0.25
 31
0.0
  0
LINE
  5
CB
330
99
100
AcDbEntity
  8
0
  6
CONTINUOUS
 62
     0
100
AcDbLine
 10
-0.25
 20
-0.25
 30
0.0
 11
-0.25
 21
0.25
 31
0.0
  0
ENDBLK
  5
9B
330
99
100
AcDbEntity
  8
0
100
AcDbBlockEnd
  0
BLOCK
  5
9D
330
9C
100
AcDbEntity
  8
0
100
AcDbBlockBegin
  2
EX_WBOX
 70
     0
 10
0.0
 20
0.0
 30
0.0
  3
EX_WBOX
  1

  0
LINE
  5
CC
330
9C
100
AcDbEntity
  8
0
  6
CONTINUOUS
 62
     0
100
AcDbLine
 10
-0.5
 20
0.0
 30
0.0
 11
-1.0
 21
0.0
 31
0.0
  0
LINE
  5
CD
330
9C
100
AcDbEntity
  8
0
  6
CONTINUOUS
 62
     0
100
AcDbLine
 10
-0.5
 20
0.5
 30
0.0
 11
0.5
 21
0.5
 31
0.0
  0
LINE
  5
CE
330
9C
100
AcDbEntity
  8
0
  6
CONTINUOUS
 62
     0
100
AcDbLine
 10
0.5
 20
0.5
 30
0.0
 11
0.5
 21
-0.5
 31
0.0
  0
LINE
  5
CF
330
9C
100
AcDbEntity
  8
0
  6
CONTINUOUS
 62
     0
100
AcDbLine
 10
0.5
 20
-0.5
 30
0.0
 11
-0.5
 21
-0.5
 31
0.0
  0
LINE
  5
D0
330
9C
100
AcDbEntity
  8
0
  6
CONTINUOUS
 62
     0
100
AcDbLine
 10
-0.5
 20
-0.5
 30
0.0
 11
-0.5
 21
0.5
 31
0.0
  0
ENDBLK
  5
9E
330
9C
100
AcDbEntity
  8
0
100
AcDbBlockEnd
  0
BLOCK
  5
A0
330
9F
100
AcDbEntity
  8
0
100
AcDbBlockBegin
  2
EX_INTEGRAL
 70
     0
 10
0.0
 20
0.0
 30
0.0
  3
EX_INTEGRAL
  1

  0
LINE
  5
D1
330
9F
100
AcDbEntity
  8
0
  6
CONTINUOUS
 62
     0
100
AcDbLine
 10
0.0
 20
0.0
 30
0.0
 11
-1.0
 21
0.0
 31
0.0
  0
ARC
  5
D2
330
9F
100
AcDbEntity
  8
0
  6
CONTINUOUS
 62
     0
100
AcDbCircle
 10
0.542115
 20
0.164992
 30
0.0
 40
0.56667
100
AcDbArc
 50
73.07249033629006
 51
196.9275130221199
  0
ARC
  5
D3
330
9F
100
AcDbEntity
  8
0
  6
CONTINUOUS
 62
     0
100
AcDbCircle
 10
-0.542115
 20
-0.164992
 30
0.0
 40
0.56667
100
AcDbArc
 50
253.0724869220464
 51
16.9275130559125
  0
ENDBLK
  5
A1
330
9F
100
AcDbEntity
  8
0
100
AcDbBlockEnd
  0
BLOCK
  5
3AC
330
3AB
100
AcDbEntity
  8
0
100
AcDbBlockBegin
  2
*D15
 70
     1
 10
0.0
 20
0.0
 30
0.0
  3
*D15
  1

  0
LINE
  5
3AE
330
3AB
100
AcDbEntity
  8
LAY-20
  6
CONTINUOUS
 62
     4
100
AcDbLine
 10
393.65687182303
 20
215.19864124052
 30
0.0
 11
318.0
 21
215.19864124052
 31
0.0
  0
LINE
  5
3AF
330
3AB
100
AcDbEntity
  8
LAY-20
  6
CONTINUOUS
 62
     4
100
AcDbLine
 10
349.0
 20
240.19864124052
 30
0.0
 11
318.0
 21
240.19864124052
 31
0.0
  0
LINE
  5
3B0
330
3AB
100
AcDbEntity
  8
LAY-20
  6
CONTINUOUS
 62
     4
100
AcDbLine
 10
322.5
 20
222.69864124052
 30
0.0
 11
322.5
 21
232.69864124052
 31
0.0
  0
INSERT
  5
3B1
330
3AB
100
AcDbEntity
  8
LAY-20
 62
     4
100
AcDbBlockReference
  2
EX_BNORM
 10
322.5
 20
215.19864124052
 30
0.0
 41
7.5
 42
7.5
 43
7.5
 50
270.0
  0
INSERT
  5
3B2
330
3AB
100
AcDbEntity
  8
LAY-20
 62
     4
100
AcDbBlockReference
  2
EX_BNORM
 10
322.5
 20
240.19864124052
 30
0.0
 41
7.5
 42
7.5
 43
7.5
 50
90.0
  0
MTEXT
  5
3B3
330
3AB
100
AcDbEntity
  8
LAY-20
 62
     7
100
AcDbMText
 10
315.0
 20
227.69864124052
 30
0.0
 40
9.3543312
 41
0.0
 71
     5
 72
     1
  1
25
  7
EXCADDIM1
 11
0.0
 21
1.0
 31
0.0
  0
POINT
  5
3B4
330
3AB
100
AcDbEntity
  8
DEFPOINTS
 62
     0
100
AcDbPoint
 10
398.15687182303
 20
215.19864124052
 30
0.0
  0
POINT
  5
3B5
330
3AB
100
AcDbEntity
  8
DEFPOINTS
 62
     0
100
AcDbPoint
 10
353.5
 20
240.19864124052
 30
0.0
  0
POINT
  5
3B6
330
3AB
100
AcDbEntity
  8
DEFPOINTS
 62
     0
100
AcDbPoint
 10
322.5
 20
240.19864124052
 30
0.0
  0
ENDBLK
  5
3AD
330
3AB
100
AcDbEntity
  8
0
100
AcDbBlockEnd
  0
BLOCK
  5
3B9
330
3B8
100
AcDbEntity
  8
0
100
AcDbBlockBegin
  2
*D16
 70
     1
 10
0.0
 20
0.0
 30
0.0
  3
*D16
  1

  0
LINE
  5
3BB
330
3B8
100
AcDbEntity
  8
LAY-20
  6
CONTINUOUS
 62
     4
100
AcDbLine
 10
539.5
 20
160.19864124052
 30
0.0
 11
612.0
 21
160.19864124052
 31
0.0
  0
LINE
  5
3BC
330
3B8
100
AcDbEntity
  8
LAY-20
  6
CONTINUOUS
 62
     4
100
AcDbLine
 10
581.0
 20
240.19864124052
 30
0.0
 11
612.0
 21
240.19864124052
 31
0.0
  0
LINE
  5
3BD
330
3B8
100
AcDbEntity
  8
LAY-20
  6
CONTINUOUS
 62
     4
100
AcDbLine
 10
607.5
 20
167.69864124052
 30
0.0
 11
607.5
 21
232.69864124052
 31
0.0
  0
INSERT
  5
3BE
330
3B8
100
AcDbEntity
  8
LAY-20
 62
     4
100
AcDbBlockReference
  2
EX_BNORM
 10
607.5
 20
160.19864124052
 30
0.0
 41
7.5
 42
7.5
 43
7.5
 50
270.0
  0
INSERT
  5
3BF
330
3B8
100
AcDbEntity
  8
LAY-20
 62
     4
100
AcDbBlockReference
  2
EX_BNORM
 10
607.5
 20
240.19864124052
 30
0.0
 41
7.5
 42
7.5
 43
7.5
 50
90.0
  0
MTEXT
  5
3C0
330
3B8
100
AcDbEntity
  8
LAY-20
 62
     7
100
AcDbMText
 10
600.0
 20
200.19864124052
 30
0.0
 40
9.3543312
 41
0.0
 71
     5
 72
     1
  1
80
  7
EXCADDIM1
 11
0.0
 21
1.0
 31
0.0
  0
POINT
  5
3C1
330
3B8
100
AcDbEntity
  8
DEFPOINTS
 62
     0
100
AcDbPoint
 10
535.0
 20
160.19864124052
 30
0.0
  0
POINT
  5
3C2
330
3B8
100
AcDbEntity
  8
DEFPOINTS
 62
     0
100
AcDbPoint
 10
576.5
 20
240.19864124052
 30
0.0
  0
POINT
  5
3C3
330
3B8
100
AcDbEntity
  8
DEFPOINTS
 62
     0
100
AcDbPoint
 10
607.5
 20
240.19864124052
 30
0.0
  0
ENDBLK
  5
3BA
330
3B8
100
AcDbEntity
  8
0
100
AcDbBlockEnd
  0
BLOCK
  5
3C6
330
3C5
100
AcDbEntity
  8
0
100
AcDbBlockBegin
  2
*D17
 70
     1
 10
0.0
 20
0.0
 30
0.0
  3
*D17
  1

  0
LINE
  5
3C8
330
3C5
100
AcDbEntity
  8
LAY-20
  6
CONTINUOUS
 62
     4
100
AcDbLine
 10
469.5
 20
389.9999999999899
 30
0.0
 11
612.0
 21
389.9999999999899
 31
0.0
  0
LINE
  5
3C9
330
3C5
100
AcDbEntity
  8
LAY-20
  6
CONTINUOUS
 62
     4
100
AcDbLine
 10
607.5
 20
247.69864124052
 30
0.0
 11
607.5
 21
382.4999999999899
 31
0.0
  0
INSERT
  5
3CA
330
3C5
100
AcDbEntity
  8
LAY-20
 62
     4
100
AcDbBlockReference
  2
EX_BNORM
 10
607.5
 20
240.19864124052
 30
0.0
 41
7.5
 42
7.5
 43
7.5
 50
270.0
  0
INSERT
  5
3CB
330
3C5
100
AcDbEntity
  8
LAY-20
 62
     4
100
AcDbBlockReference
  2
EX_BNORM
 10
607.5
 20
389.9999999999899
 30
0.0
 41
7.5
 42
7.5
 43
7.5
 50
90.0
  0
MTEXT
  5
3CC
330
3C5
100
AcDbEntity
  8
LAY-20
 62
     7
100
AcDbMText
 10
600.0
 20
315.099320620255
 30
0.0
 40
9.3543312
 41
0.0
 71
     5
 72
     1
  1
150
  7
EXCADDIM1
 11
0.0
 21
1.0
 31
0.0
  0
POINT
  5
3CD
330
3C5
100
AcDbEntity
  8
DEFPOINTS
 62
     0
100
AcDbPoint
 10
607.5
 20
240.19864124052
 30
0.0
  0
POINT
  5
3CE
330
3C5
100
AcDbEntity
  8
DEFPOINTS
 62
     0
100
AcDbPoint
 10
465.0
 20
389.9999999999899
 30
0.0
  0
POINT
  5
3CF
330
3C5
100
AcDbEntity
  8
DEFPOINTS
 62
     0
100
AcDbPoint
 10
607.5
 20
389.9999999999899
 30
0.0
  0
ENDBLK
  5
3C7
330
3C5
100
AcDbEntity
  8
0
100
AcDbBlockEnd
  0
BLOCK
  5
3D2
330
3D1
100
AcDbEntity
  8
0
100
AcDbBlockBegin
  2
*D18
 70
     1
 10
0.0
 20
0.0
 30
0.0
  3
*D18
  1

  0
LINE
  5
3D4
330
3D1
100
AcDbEntity
  8
LAY-20
  6
CONTINUOUS
 62
     4
100
AcDbLine
 10
383.99999999999
 20
254.56670062307
 30
0.0
 11
383.99999999999
 21
424.4999999999899
 31
0.0
  0
LINE
  5
3D5
330
3D1
100
AcDbEntity
  8
LAY-20
  6
CONTINUOUS
 62
     4
100
AcDbLine
 10
546.00000000001
 20
252.99999999999
 30
0.0
 11
546.00000000001
 21
424.4999999999899
 31
0.0
  0
LINE
  5
3D6
330
3D1
100
AcDbEntity
  8
LAY-20
  6
CONTINUOUS
 62
     4
100
AcDbLine
 10
392.99999999999
 20
419.9999999999899
 30
0.0
 11
537.00000000001
 21
419.9999999999899
 31
0.0
  0
INSERT
  5
3D7
330
3D1
100
AcDbEntity
  8
LAY-20
 62
     4
100
AcDbBlockReference
  2
EX_BNORM
 10
383.99999999999
 20
419.9999999999899
 30
0.0
 41
9.0
 42
9.0
 43
9.0
 50
180.0
  0
INSERT
  5
3D8
330
3D1
100
AcDbEntity
  8
LAY-20
 62
     4
100
AcDbBlockReference
  2
EX_BNORM
 10
546.00000000001
 20
419.9999999999899
 30
0.0
 41
9.0
 42
9.0
 43
9.0
  0
MTEXT
  5
3D9
330
3D1
100
AcDbEntity
  8
LAY-20
 62
     7
100
AcDbMText
 10
465.0
 20
427.4999999999899
 30
0.0
 40
9.3543312
 41
0.0
 71
     5
 72
     1
  1
%%c162
  7
EXCADDIM1
  0
POINT
  5
3DA
330
3D1
100
AcDbEntity
  8
DEFPOINTS
 62
     0
100
AcDbPoint
 10
383.99999999999
 20
250.06670062307
 30
0.0
  0
POINT
  5
3DB
330
3D1
100
AcDbEntity
  8
DEFPOINTS
 62
     0
100
AcDbPoint
 10
546.00000000001
 20
248.49999999999
 30
0.0
  0
POINT
  5
3DC
330
3D1
100
AcDbEntity
  8
DEFPOINTS
 62
     0
100
AcDbPoint
 10
546.00000000001
 20
419.9999999999899
 30
0.0
  0
ENDBLK
  5
3D3
330
3D1
100
AcDbEntity
  8
0
100
AcDbBlockEnd
  0
BLOCK
  5
3DF
330
3DE
100
AcDbEntity
  8
0
100
AcDbBlockBegin
  2
*D19
 70
     1
 10
0.0
 20
0.0
 30
0.0
  3
*D19
  1

  0
LINE
  5
3E1
330
3DE
100
AcDbEntity
  8
LAY-20
  6
CONTINUOUS
 62
     4
100
AcDbLine
 10
362.5
 20
247.49999999999
 30
0.0
 11
362.5
 21
445.4999999999899
 31
0.0
  0
LINE
  5
3E2
330
3DE
100
AcDbEntity
  8
LAY-20
  6
CONTINUOUS
 62
     4
100
AcDbLine
 10
567.5
 20
247.49999999999
 30
0.0
 11
567.5
 21
445.4999999999899
 31
0.0
  0
LINE
  5
3E3
330
3DE
100
AcDbEntity
  8
LAY-20
  6
CONTINUOUS
 62
     4
100
AcDbLine
 10
371.5
 20
440.9999999999899
 30
0.0
 11
558.5
 21
440.9999999999899
 31
0.0
  0
INSERT
  5
3E4
330
3DE
100
AcDbEntity
  8
LAY-20
 62
     4
100
AcDbBlockReference
  2
EX_BNORM
 10
362.5
 20
440.9999999999899
 30
0.0
 41
9.0
 42
9.0
 43
9.0
 50
180.0
  0
INSERT
  5
3E5
330
3DE
100
AcDbEntity
  8
LAY-20
 62
     4
100
AcDbBlockReference
  2
EX_BNORM
 10
567.5
 20
440.9999999999899
 30
0.0
 41
9.0
 42
9.0
 43
9.0
  0
MTEXT
  5
3E6
330
3DE
100
AcDbEntity
  8
LAY-20
 62
     7
100
AcDbMText
 10
465.0
 20
448.4999999999899
 30
0.0
 40
9.3543312
 41
0.0
 71
     5
 72
     1
  1
%%c205
  7
EXCADDIM1
  0
POINT
  5
3E7
330
3DE
100
AcDbEntity
  8
DEFPOINTS
 62
     0
100
AcDbPoint
 10
362.5
 20
242.99999999999
 30
0.0
  0
POINT
  5
3E8
330
3DE
100
AcDbEntity
  8
DEFPOINTS
 62
     0
100
AcDbPoint
 10
567.5
 20
242.99999999999
 30
0.0
  0
POINT
  5
3E9
330
3DE
100
AcDbEntity
  8
DEFPOINTS
 62
     0
100
AcDbPoint
 10
567.5
 20
440.9999999999899
 30
0.0
  0
ENDBLK
  5
3E0
330
3DE
100
AcDbEntity
  8
0
100
AcDbBlockEnd
  0
BLOCK
  5
3EC
330
3EB
100
AcDbEntity
  8
0
100
AcDbBlockBegin
  2
*D20
 70
     1
 10
0.0
 20
0.0
 30
0.0
  3
*D20
  1

  0
LINE
  5
3EE
330
3EB
100
AcDbEntity
  8
LAY-20
  6
CONTINUOUS
 62
     4
100
AcDbLine
 10
352.5
 20
242.19864124052
 30
0.0
 11
352.5
 21
466.4999999999899
 31
0.0
  0
LINE
  5
3EF
330
3EB
100
AcDbEntity
  8
LAY-20
  6
CONTINUOUS
 62
     4
100
AcDbLine
 10
577.5
 20
242.19864124052
 30
0.0
 11
577.5
 21
466.4999999999899
 31
0.0
  0
LINE
  5
3F0
330
3EB
100
AcDbEntity
  8
LAY-20
  6
CONTINUOUS
 62
     4
100
AcDbLine
 10
361.5
 20
461.9999999999899
 30
0.0
 11
568.5
 21
461.9999999999899
 31
0.0
  0
INSERT
  5
3F1
330
3EB
100
AcDbEntity
  8
LAY-20
 62
     4
100
AcDbBlockReference
  2
EX_BNORM
 10
352.5
 20
461.9999999999899
 30
0.0
 41
9.0
 42
9.0
 43
9.0
 50
180.0
  0
INSERT
  5
3F2
330
3EB
100
AcDbEntity
  8
LAY-20
 62
     4
100
AcDbBlockReference
  2
EX_BNORM
 10
577.5
 20
461.9999999999899
 30
0.0
 41
9.0
 42
9.0
 43
9.0
  0
MTEXT
  5
3F3
330
3EB
100
AcDbEntity
  8
LAY-20
 62
     7
100
AcDbMText
 10
465.0
 20
469.4999999999899
 30
0.0
 40
9.3543312
 41
0.0
 71
     5
 72
     1
  1
%%c225
  7
EXCADDIM1
  0
POINT
  5
3F4
330
3EB
100
AcDbEntity
  8
DEFPOINTS
 62
     0
100
AcDbPoint
 10
352.5
 20
237.69864124052
 30
0.0
  0
POINT
  5
3F5
330
3EB
100
AcDbEntity
  8
DEFPOINTS
 62
     0
100
AcDbPoint
 10
577.5
 20
237.69864124052
 30
0.0
  0
POINT
  5
3F6
330
3EB
100
AcDbEntity
  8
DEFPOINTS
 62
     0
100
AcDbPoint
 10
577.5
 20
461.9999999999899
 30
0.0
  0
ENDBLK
  5
3ED
330
3EB
100
AcDbEntity
  8
0
100
AcDbBlockEnd
  0
BLOCK
  5
3F9
330
3F8
100
AcDbEntity
  8
0
100
AcDbBlockBegin
  2
*D21
 70
     1
 10
0.0
 20
0.0
 30
0.0
  3
*D21
  1

  0
LINE
  5
3FB
330
3F8
100
AcDbEntity
  8
LAY-20
  6
CONTINUOUS
 62
     4
100
AcDbLine
 10
417.9999999999999
 20
170.69864124052
 30
0.0
 11
417.9999999999999
 21
125.69864124052
 31
0.0
  0
LINE
  5
3FC
330
3F8
100
AcDbEntity
  8
LAY-20
  6
CONTINUOUS
 62
     4
100
AcDbLine
 10
512.0
 20
170.69864124052
 30
0.0
 11
512.0
 21
125.69864124052
 31
0.0
  0
LINE
  5
3FD
330
3F8
100
AcDbEntity
  8
LAY-20
  6
CONTINUOUS
 62
     4
100
AcDbLine
 10
426.9999999999999
 20
130.19864124052
 30
0.0
 11
503.0
 21
130.19864124052
 31
0.0
  0
INSERT
  5
3FE
330
3F8
100
AcDbEntity
  8
LAY-20
 62
     4
100
AcDbBlockReference
  2
EX_BNORM
 10
417.9999999999999
 20
130.19864124052
 30
0.0
 41
9.0
 42
9.0
 43
9.0
 50
180.0
  0
INSERT
  5
3FF
330
3F8
100
AcDbEntity
  8
LAY-20
 62
     4
100
AcDbBlockReference
  2
EX_BNORM
 10
512.0
 20
130.19864124052
 30
0.0
 41
9.0
 42
9.0
 43
9.0
  0
MTEXT
  5
400
330
3F8
100
AcDbEntity
  8
LAY-20
 62
     7
100
AcDbMText
 10
465.0
 20
137.69864124052
 30
0.0
 40
9.3543312
 41
0.0
 71
     5
 72
     1
  1
%%c94
  7
EXCADDIM1
  0
POINT
  5
401
330
3F8
100
AcDbEntity
  8
DEFPOINTS
 62
     0
100
AcDbPoint
 10
417.9999999999999
 20
175.19864124052
 30
0.0
  0
POINT
  5
402
330
3F8
100
AcDbEntity
  8
DEFPOINTS
 62
     0
100
AcDbPoint
 10
512.0
 20
175.19864124052
 30
0.0
  0
POINT
  5
403
330
3F8
100
AcDbEntity
  8
DEFPOINTS
 62
     0
100
AcDbPoint
 10
512.0
 20
130.19864124052
 30
0.0
  0
ENDBLK
  5
3FA
330
3F8
100
AcDbEntity
  8
0
100
AcDbBlockEnd
  0
BLOCK
  5
406
330
405
100
AcDbEntity
  8
0
100
AcDbBlockBegin
  2
*D22
 70
     1
 10
0.0
 20
0.0
 30
0.0
  3
*D22
  1

  0
LINE
  5
408
330
405
100
AcDbEntity
  8
LAY-20
  6
CONTINUOUS
 62
     4
100
AcDbLine
 10
416.4999999999999
 20
206.19864124052
 30
0.0
 11
416.4999999999999
 21
104.69864124052
 31
0.0
  0
LINE
  5
409
330
405
100
AcDbEntity
  8
LAY-20
  6
CONTINUOUS
 62
     4
100
AcDbLine
 10
513.5
 20
206.19864124052
 30
0.0
 11
513.5
 21
104.69864124052
 31
0.0
  0
LINE
  5
40A
330
405
100
AcDbEntity
  8
LAY-20
  6
CONTINUOUS
 62
     4
100
AcDbLine
 10
425.4999999999999
 20
109.19864124052
 30
0.0
 11
504.5
 21
109.19864124052
 31
0.0
  0
INSERT
  5
40B
330
405
100
AcDbEntity
  8
LAY-20
 62
     4
100
AcDbBlockReference
  2
EX_BNORM
 10
416.4999999999999
 20
109.19864124052
 30
0.0
 41
9.0
 42
9.0
 43
9.0
 50
180.0
  0
INSERT
  5
40C
330
405
100
AcDbEntity
  8
LAY-20
 62
     4
100
AcDbBlockReference
  2
EX_BNORM
 10
513.5
 20
109.19864124052
 30
0.0
 41
9.0
 42
9.0
 43
9.0
  0
MTEXT
  5
40D
330
405
100
AcDbEntity
  8
LAY-20
 62
     7
100
AcDbMText
 10
465.0
 20
116.69864124052
 30
0.0
 40
9.3543312
 41
0.0
 71
     5
 72
     1
  1
%%c97
  7
EXCADDIM1
  0
POINT
  5
40E
330
405
100
AcDbEntity
  8
DEFPOINTS
 62
     0
100
AcDbPoint
 10
416.4999999999999
 20
210.69864124052
 30
0.0
  0
POINT
  5
40F
330
405
100
AcDbEntity
  8
DEFPOINTS
 62
     0
100
AcDbPoint
 10
513.5
 20
210.69864124052
 30
0.0
  0
POINT
  5
410
330
405
100
AcDbEntity
  8
DEFPOINTS
 62
     0
100
AcDbPoint
 10
513.5
 20
109.19864124052
 30
0.0
  0
ENDBLK
  5
407
330
405
100
AcDbEntity
  8
0
100
AcDbBlockEnd
  0
ENDSEC
  0
SECTION
  2
ENTITIES
  0
LINE
  5
D4
330
1F
100
AcDbEntity
  8
LAY-10
  6
CONTINUOUS
 62
     7
100
AcDbLine
 10
394.9999999999999
 20
213.9387566106995
 30
0.0
 11
396.1534341907503
 21
215.09219080145
 31
0.0
  0
LINE
  5
D5
330
1F
100
AcDbEntity
  8
LAY-10
  6
CONTINUOUS
 62
     7
100
AcDbLine
 10
395.0000000000001
 20
211.1103294859533
 30
0.0
 11
398.9818613154966
 21
215.0921908014499
 31
0.0
  0
LINE
  5
D6
330
1F
100
AcDbEntity
  8
LAY-10
  6
CONTINUOUS
 62
     7
100
AcDbLine
 10
395.0000000000001
 20
208.2819023612071
 30
0.0
 11
399.5000000000001
 21
212.7819023612071
 31
0.0
  0
LINE
  5
D7
330
1F
100
AcDbEntity
  8
LAY-10
  6
CONTINUOUS
 62
     7
100
AcDbLine
 10
395.0000000000001
 20
205.4534752364609
 30
0.0
 11
399.5000000000001
 21
209.9534752364609
 31
0.0
  0
LINE
  5
D8
330
1F
100
AcDbEntity
  8
LAY-10
  6
CONTINUOUS
 62
     7
100
AcDbLine
 10
395.0000000000001
 20
202.6250481117147
 30
0.0
 11
399.5000000000001
 21
207.1250481117147
 31
0.0
  0
LINE
  5
D9
330
1F
100
AcDbEntity
  8
LAY-10
  6
CONTINUOUS
 62
     7
100
AcDbLine
 10
395.0000000000001
 20
199.7966209869685
 30
0.0
 11
399.5000000000001
 21
204.2966209869687
 31
0.0
  0
LINE
  5
DA
330
1F
100
AcDbEntity
  8
LAY-10
  6
CONTINUOUS
 62
     7
100
AcDbLine
 10
395.0000000000001
 20
196.9681938622223
 30
0.0
 11
399.5000000000001
 21
201.4681938622225
 31
0.0
  0
LINE
  5
DB
330
1F
100
AcDbEntity
  8
LAY-10
  6
CONTINUOUS
 62
     7
100
AcDbLine
 10
395.0000000000001
 20
194.1397667374761
 30
0.0
 11
399.5000000000001
 21
198.6397667374763
 31
0.0
  0
LINE
  5
DC
330
1F
100
AcDbEntity
  8
LAY-10
  6
CONTINUOUS
 62
     7
100
AcDbLine
 10
395.0000000000001
 20
191.3113396127301
 30
0.0
 11
399.5000000000001
 21
195.8113396127301
 31
0.0
  0
LINE
  5
DD
330
1F
100
AcDbEntity
  8
LAY-10
  6
CONTINUOUS
 62
     7
100
AcDbLine
 10
394.9999999999999
 20
188.4829124879839
 30
0.0
 11
399.5000000000001
 21
192.9829124879839
 31
0.0
  0
LINE
  5
DE
330
1F
100
AcDbEntity
  8
LAY-10
  6
CONTINUOUS
 62
     7
100
AcDbLine
 10
394.9999999999999
 20
185.6544853632376
 30
0.0
 11
399.5000000000001
 21
190.1544853632376
 31
0.0
  0
LINE
  5
DF
330
1F
100
AcDbEntity
  8
LAY-10
  6
CONTINUOUS
 62
     7
100
AcDbLine
 10
395.0000000000001
 20
182.8260582384914
 30
0.0
 11
399.5000000000001
 21
187.3260582384914
 31
0.0
  0
LINE
  5
E0
330
1F
100
AcDbEntity
  8
LAY-10
  6
CONTINUOUS
 62
     7
100
AcDbLine
 10
395.0000000000001
 20
179.9976311137452
 30
0.0
 11
399.5000000000001
 21
184.4976311137452
 31
0.0
  0
LINE
  5
E1
330
1F
100
AcDbEntity
  8
LAY-10
  6
CONTINUOUS
 62
     7
100
AcDbLine
 10
395.0000000000001
 20
177.169203988999
 30
0.0
 11
399.5000000000001
 21
181.669203988999
 31
0.0
  0
LINE
  5
E2
330
1F
100
AcDbEntity
  8
LAY-10
  6
CONTINUOUS
 62
     7
100
AcDbLine
 10
395.0000000000001
 20
174.3407768642528
 30
0.0
 11
399.5000000000001
 21
178.8407768642528
 31
0.0
  0
LINE
  5
E3
330
1F
100
AcDbEntity
  8
LAY-10
  6
CONTINUOUS
 62
     7
100
AcDbLine
 10
395.0000000000001
 20
171.5123497395066
 30
0.0
 11
399.5000000000001
 21
176.0123497395068
 31
0.0
  0
LINE
  5
E4
330
1F
100
AcDbEntity
  8
LAY-10
  6
CONTINUOUS
 62
     7
100
AcDbLine
 10
395.0000000000001
 20
168.6839226147603
 30
0.0
 11
399.5000000000001
 21
173.1839226147606
 31
0.0
  0
LINE
  5
E5
330
1F
100
AcDbEntity
  8
LAY-10
  6
CONTINUOUS
 62
     7
100
AcDbLine
 10
395.0000000000001
 20
165.8554954900142
 30
0.0
 11
399.5000000000001
 21
170.3554954900144
 31
0.0
  0
LINE
  5
E6
330
1F
100
AcDbEntity
  8
LAY-10
  6
CONTINUOUS
 62
     7
100
AcDbLine
 10
395.0000000000001
 20
163.0270683652682
 30
0.0
 11
399.5000000000001
 21
167.5270683652682
 31
0.0
  0
LINE
  5
E7
330
1F
100
AcDbEntity
  8
LAY-10
  6
CONTINUOUS
 62
     7
100
AcDbLine
 10
394.9999999999999
 20
160.198641240522
 30
0.0
 11
399.5000000000001
 21
164.698641240522
 31
0.0
  0
LINE
  5
E8
330
1F
100
AcDbEntity
  8
LAY-10
  6
CONTINUOUS
 62
     7
100
AcDbLine
 10
397.828427124746
 20
160.1986412405219
 30
0.0
 11
399.5000000000001
 21
161.8702141157757
 31
0.0
  0
LINE
  5
E9
330
1F
100
AcDbEntity
  8
LAY-10
  6
CONTINUOUS
 62
     7
100
AcDbLine
 10
530.5
 20
213.9387566106995
 30
0.0
 11
531.6534341907503
 21
215.09219080145
 31
0.0
  0
LINE
  5
EA
330
1F
100
AcDbEntity
  8
LAY-10
  6
CONTINUOUS
 62
     7
100
AcDbLine
 10
530.5
 20
211.1103294859533
 30
0.0
 11
534.4818613154966
 21
215.0921908014499
 31
0.0
  0
LINE
  5
EB
330
1F
100
AcDbEntity
  8
LAY-10
  6
CONTINUOUS
 62
     7
100
AcDbLine
 10
530.5
 20
208.2819023612071
 30
0.0
 11
535.0
 21
212.7819023612071
 31
0.0
  0
LINE
  5
EC
330
1F
100
AcDbEntity
  8
LAY-10
  6
CONTINUOUS
 62
     7
100
AcDbLine
 10
530.5
 20
205.4534752364609
 30
0.0
 11
535.0
 21
209.9534752364609
 31
0.0
  0
LINE
  5
ED
330
1F
100
AcDbEntity
  8
LAY-10
  6
CONTINUOUS
 62
     7
100
AcDbLine
 10
530.5
 20
202.6250481117147
 30
0.0
 11
535.0
 21
207.1250481117147
 31
0.0
  0
LINE
  5
EE
330
1F
100
AcDbEntity
  8
LAY-10
  6
CONTINUOUS
 62
     7
100
AcDbLine
 10
530.5
 20
199.7966209869685
 30
0.0
 11
535.0
 21
204.2966209869687
 31
0.0
  0
LINE
  5
EF
330
1F
100
AcDbEntity
  8
LAY-10
  6
CONTINUOUS
 62
     7
100
AcDbLine
 10
530.5
 20
196.9681938622223
 30
0.0
 11
535.0
 21
201.4681938622225
 31
0.0
  0
LINE
  5
F0
330
1F
100
AcDbEntity
  8
LAY-10
  6
CONTINUOUS
 62
     7
100
AcDbLine
 10
530.5
 20
194.1397667374761
 30
0.0
 11
535.0
 21
198.6397667374763
 31
0.0
  0
LINE
  5
F1
330
1F
100
AcDbEntity
  8
LAY-10
  6
CONTINUOUS
 62
     7
100
AcDbLine
 10
530.5
 20
191.3113396127301
 30
0.0
 11
535.0
 21
195.8113396127301
 31
0.0
  0
LINE
  5
F2
330
1F
100
AcDbEntity
  8
LAY-10
  6
CONTINUOUS
 62
     7
100
AcDbLine
 10
530.5
 20
188.4829124879839
 30
0.0
 11
535.0
 21
192.9829124879839
 31
0.0
  0
LINE
  5
F3
330
1F
100
AcDbEntity
  8
LAY-10
  6
CONTINUOUS
 62
     7
100
AcDbLine
 10
530.5
 20
185.6544853632376
 30
0.0
 11
535.0
 21
190.1544853632376
 31
0.0
  0
LINE
  5
F4
330
1F
100
AcDbEntity
  8
LAY-10
  6
CONTINUOUS
 62
     7
100
AcDbLine
 10
530.5
 20
182.8260582384914
 30
0.0
 11
535.0
 21
187.3260582384914
 31
0.0
  0
LINE
  5
F5
330
1F
100
AcDbEntity
  8
LAY-10
  6
CONTINUOUS
 62
     7
100
AcDbLine
 10
530.5
 20
179.9976311137452
 30
0.0
 11
535.0
 21
184.4976311137452
 31
0.0
  0
LINE
  5
F6
330
1F
100
AcDbEntity
  8
LAY-10
  6
CONTINUOUS
 62
     7
100
AcDbLine
 10
530.5
 20
177.169203988999
 30
0.0
 11
535.0
 21
181.669203988999
 31
0.0
  0
LINE
  5
F7
330
1F
100
AcDbEntity
  8
LAY-10
  6
CONTINUOUS
 62
     7
100
AcDbLine
 10
530.5
 20
174.3407768642528
 30
0.0
 11
535.0
 21
178.8407768642528
 31
0.0
  0
LINE
  5
F8
330
1F
100
AcDbEntity
  8
LAY-10
  6
CONTINUOUS
 62
     7
100
AcDbLine
 10
530.5
 20
171.5123497395066
 30
0.0
 11
535.0
 21
176.0123497395068
 31
0.0
  0
LINE
  5
F9
330
1F
100
AcDbEntity
  8
LAY-10
  6
CONTINUOUS
 62
     7
100
AcDbLine
 10
530.5
 20
168.6839226147603
 30
0.0
 11
535.0
 21
173.1839226147606
 31
0.0
  0
LINE
  5
FA
330
1F
100
AcDbEntity
  8
LAY-10
  6
CONTINUOUS
 62
     7
100
AcDbLine
 10
530.5
 20
165.8554954900142
 30
0.0
 11
535.0
 21
170.3554954900144
 31
0.0
  0
LINE
  5
FB
330
1F
100
AcDbEntity
  8
LAY-10
  6
CONTINUOUS
 62
     7
100
AcDbLine
 10
530.5
 20
163.0270683652682
 30
0.0
 11
535.0
 21
167.5270683652682
 31
0.0
  0
LINE
  5
FC
330
1F
100
AcDbEntity
  8
LAY-10
  6
CONTINUOUS
 62
     7
100
AcDbLine
 10
530.5
 20
160.198641240522
 30
0.0
 11
535.0
 21
164.698641240522
 31
0.0
  0
LINE
  5
FD
330
1F
100
AcDbEntity
  8
LAY-10
  6
CONTINUOUS
 62
     7
100
AcDbLine
 10
533.3284271247461
 20
160.1986412405219
 30
0.0
 11
535.0
 21
161.8702141157757
 31
0.0
  0
LINE
  5
FE
330
1F
100
AcDbEntity
  8
LAY-10
  6
HIDDEN
 62
     4
100
AcDbLine
 10
534.2072141771175
 20
227.2067951459294
 30
0.0
 11
534.206724942793
 21
227.1986412405208
 31
0.0
  0
LINE
  5
FF
330
1F
100
AcDbEntity
  8
LAY-10
  6
HIDDEN
 62
     4
100
AcDbLine
 10
395.7927858228823
 20
227.2067951459294
 30
0.0
 11
395.7932750572067
 21
227.1986412405208
 31
0.0
  0
LINE
  5
100
330
1F
100
AcDbEntity
  8
LAY-10
  6
CONTINUOUS
 62
     7
100
AcDbLine
 10
359.1847759934245
 20
235.8740513444461
 30
0.0
 11
366.6577556314201
 21
233.8716724853907
 31
0.0
  0
LINE
  5
101
330
1F
100
AcDbEntity
  8
LAY-10
  6
CONTINUOUS
 62
     7
100
AcDbLine
 10
352.5000000000001
 20
233.1986412405208
 30
0.0
 11
367.6942639889917
 21
233.1986412405208
 31
0.0
  0
LINE
  5
102
330
1F
100
AcDbEntity
  8
LAY-10
  6
CONTINUOUS
 62
     7
100
AcDbLine
 10
352.5000000000001
 20
233.1986412405208
 30
0.0
 11
353.5
 21
240.1986412405213
 31
0.0
  0
LINE
  5
103
330
1F
100
AcDbEntity
  8
LAY-10
  6
CONTINUOUS
 62
     7
100
AcDbLine
 10
356.6872389158971
 20
234.2250424043427
 30
0.0
 11
356.5406101782083
 21
233.1986412405208
 31
0.0
  0
ARC
  5
104
330
1F
100
AcDbEntity
  8
LAY-10
  6
CONTINUOUS
 62
     7
100
AcDbCircle
 10
358.6671379032191
 20
233.9421996918682
 30
0.0
 40
2.0
100
AcDbArc
 50
74.99999999999037
 51
171.869897645846
  0
LINE
  5
105
330
1F
100
AcDbEntity
  8
LAY-10
  6
CONTINUOUS
 62
     7
100
AcDbLine
 10
577.4999999999998
 20
233.1986412405208
 30
0.0
 11
576.4999999999998
 21
240.1986412405213
 31
0.0
  0
LINE
  5
106
330
1F
100
AcDbEntity
  8
LAY-10
  6
CONTINUOUS
 62
     7
100
AcDbLine
 10
573.3127610841027
 20
234.2250424043427
 30
0.0
 11
573.4593898217915
 21
233.1986412405208
 31
0.0
  0
ARC
  5
107
330
1F
100
AcDbEntity
  8
LAY-10
  6
CONTINUOUS
 62
     7
100
AcDbCircle
 10
571.3328620967804
 20
233.9421996918682
 30
0.0
 40
2.0
100
AcDbArc
 50
8.130102354153808
 51
105.0000000000048
  0
LINE
  5
108
330
1F
100
AcDbEntity
  8
LAY-10
  6
CONTINUOUS
 62
     7
100
AcDbLine
 10
577.4999999999998
 20
233.1986412405208
 30
0.0
 11
560.8304575676434
 21
233.1986412405208
 31
0.0
  0
LINE
  5
109
330
1F
100
AcDbEntity
  8
LAY-10
  6
CONTINUOUS
 62
     7
100
AcDbLine
 10
381.0000000000023
 20
222.1986412405199
 30
0.0
 11
368.9999999999973
 21
222.1986412405199
 31
0.0
  0
LINE
  5
10A
330
1F
100
AcDbEntity
  8
LAY-10
  6
CONTINUOUS
 62
     7
100
AcDbLine
 10
368.1325069373984
 20
232.1141323183081
 30
0.0
 11
368.9999999999973
 21
222.1986412405199
 31
0.0
  0
LINE
  5
10B
330
1F
100
AcDbEntity
  8
LAY-10
  6
CONTINUOUS
 62
     7
100
AcDbLine
 10
381.4616120493629
 20
227.4748911082959
 30
0.0
 11
381.0000000000023
 21
222.1986412405199
 31
0.0
  0
ARC
  5
10C
330
1F
100
AcDbEntity
  8
LAY-10
  6
CONTINUOUS
 62
     7
100
AcDbCircle
 10
383.4540014455466
 20
227.3005796228006
 30
0.0
 40
2.0
100
AcDbArc
 50
75.00000000000693
 51
175.0000000000003
  0
ARC
  5
10D
330
1F
100
AcDbEntity
  8
LAY-10
  6
CONTINUOUS
 62
     7
100
AcDbCircle
 10
366.1401175412147
 20
231.9398208328128
 30
0.0
 40
2.0
100
AcDbArc
 50
4.99999999999327
 51
74.99999999999037
  0
LINE
  5
10E
330
1F
100
AcDbEntity
  8
LAY-10
  6
CONTINUOUS
 62
     7
100
AcDbLine
 10
570.8152240065754
 20
235.8740513444461
 30
0.0
 11
539.602688231851
 21
227.5106775898805
 31
0.0
  0
ARC
  5
10F
330
1F
100
AcDbEntity
  8
LAY-10
  6
CONTINUOUS
 62
     7
100
AcDbCircle
 10
540.120326322056
 20
225.5788259373023
 30
0.0
 40
2.0
100
AcDbArc
 50
105.0000000000012
 51
176.5663696375439
  0
LINE
  5
110
330
1F
100
AcDbEntity
  8
LAY-10
  6
CONTINUOUS
 62
     7
100
AcDbLine
 10
571.5000000000005
 20
240.1986412405213
 30
0.0
 11
538.5674120514407
 21
231.3743808950371
 31
0.0
  0
ARC
  5
111
330
1F
100
AcDbEntity
  8
LAY-10
  6
CONTINUOUS
 62
     7
100
AcDbCircle
 10
540.1203263220559
 20
225.5788259373026
 30
0.0
 40
6.000000000000004
100
AcDbArc
 50
105.0000000000012
 51
164.3375648955603
  0
ARC
  5
112
330
1F
100
AcDbEntity
  8
LAY-10
  6
CONTINUOUS
 62
     7
100
AcDbCircle
 10
389.8796736779436
 20
225.5788259373023
 30
0.0
 40
2.0
100
AcDbArc
 50
3.433630362456086
 51
75.00000000000378
  0
LINE
  5
113
330
1F
100
AcDbEntity
  8
LAY-10
  6
CONTINUOUS
 62
     7
100
AcDbLine
 10
358.4999999999991
 20
240.1986412405213
 30
0.0
 11
391.432587948559
 21
231.3743808950371
 31
0.0
  0
LINE
  5
114
330
1F
100
AcDbEntity
  8
LAY-10
  6
CONTINUOUS
 62
     7
100
AcDbLine
 10
383.9716395357514
 20
229.2324312753787
 30
0.0
 11
390.3973117681485
 21
227.5106775898805
 31
0.0
  0
ARC
  5
115
330
1F
100
AcDbEntity
  8
LAY-10
  6
CONTINUOUS
 62
     7
100
AcDbCircle
 10
389.8796736779441
 20
225.5788259373026
 30
0.0
 40
6.000000000000004
100
AcDbArc
 50
3.433630362456086
 51
75.00000000000223
  0
LINE
  5
116
330
1F
100
AcDbEntity
  8
LAY-10
  6
CONTINUOUS
 62
     7
100
AcDbLine
 10
513.1288933513963
 20
227.1986412405208
 30
0.0
 11
512.6926519687977
 21
218.8746597903121
 31
0.0
  0
LINE
  5
117
330
1F
100
AcDbEntity
  8
LAY-10
  6
CONTINUOUS
 62
     7
100
AcDbLine
 10
395.8689027507378
 20
225.9381796816706
 30
0.0
 11
396.1604621320943
 21
221.0788566590652
 31
0.0
  0
ARC
  5
118
330
1F
100
AcDbEntity
  8
LAY-10
  6
CONTINUOUS
 62
     7
100
AcDbCircle
 10
398.1568718230261
 20
221.1986412405213
 30
0.0
 40
2.0
100
AcDbArc
 50
183.4336303624561
 51
270.0
  0
LINE
  5
119
330
1F
100
AcDbEntity
  8
LAY-10
  6
CONTINUOUS
 62
     7
100
AcDbLine
 10
538.1239166311246
 20
225.6986105187584
 30
0.0
 11
537.8323572497679
 21
220.8392874961532
 31
0.0
  0
ARC
  5
11A
330
1F
100
AcDbEntity
  8
LAY-10
  6
CONTINUOUS
 62
     7
100
AcDbCircle
 10
531.8431281769733
 20
221.1986412405213
 30
0.0
 40
6.000000000000004
100
AcDbArc
 50
270.0
 51
356.5663696375458
  0
LINE
  5
11B
330
1F
100
AcDbEntity
  8
LAY-10
  6
CONTINUOUS
 62
     7
100
AcDbLine
 10
417.9999999999991
 20
175.198641240521
 30
0.0
 11
512.0000000000009
 21
175.198641240521
 31
0.0
  0
LINE
  5
11C
330
1F
100
AcDbEntity
  8
LAY-10
  6
CONTINUOUS
 62
     7
100
AcDbLine
 10
507.9971884880756
 20
175.198641240521
 30
0.0
 11
509.466714799435
 21
214.3860095434666
 31
0.0
  0
ARC
  5
11D
330
1F
100
AcDbEntity
  8
LAY-10
  6
CONTINUOUS
 62
     7
100
AcDbCircle
 10
514.4632028779812
 20
214.1986412405206
 30
0.0
 40
1.0
100
AcDbArc
 50
90.0
 51
177.8524145717037
  0
ARC
  5
11E
330
1F
100
AcDbEntity
  8
LAY-10
  6
CONTINUOUS
 62
     7
100
AcDbCircle
 10
415.5367971220189
 20
214.198641240521
 30
0.0
 40
5.0
100
AcDbArc
 50
2.147585428299335
 51
90.0
  0
ARC
  5
11F
330
1F
100
AcDbEntity
  8
LAY-10
  6
CONTINUOUS
 62
     7
100
AcDbCircle
 10
514.4632028779812
 20
214.198641240521
 30
0.0
 40
5.0
100
AcDbArc
 50
110.7389193401431
 51
177.8524145717007
  0
LINE
  5
120
330
1F
100
AcDbEntity
  8
LAY-10
  6
CONTINUOUS
 62
     7
100
AcDbLine
 10
530.9489645667148
 20
215.1986412405213
 30
0.0
 11
531.8431281769733
 21
215.1986412405213
 31
0.0
  0
LINE
  5
121
330
1F
100
AcDbEntity
  8
LAY-10
  6
CONTINUOUS
 62
     7
100
AcDbLine
 10
526.2634112424112
 20
209.1986412405206
 30
0.0
 11
528.7365887575871
 21
209.1986412405206
 31
0.0
  0
LINE
  5
122
330
1F
100
AcDbEntity
  8
LAY-10
  6
CONTINUOUS
 62
     7
100
AcDbLine
 10
525.2647817076568
 20
210.1463052842778
 30
0.0
 11
525.0496649680379
 21
214.2509771967641
 31
0.0
  0
ARC
  5
123
330
1F
100
AcDbEntity
  8
LAY-10
  6
CONTINUOUS
 62
     7
100
AcDbCircle
 10
524.0510354332832
 20
214.1986412405213
 30
0.0
 40
1.0
100
AcDbArc
 50
2.999999999992387
 51
90.0
  0
ARC
  5
124
330
1F
100
AcDbEntity
  8
LAY-10
  6
CONTINUOUS
 62
     7
100
AcDbCircle
 10
530.9489645667148
 20
214.1986412405213
 30
0.0
 40
1.0
100
AcDbArc
 50
90.0
 51
177.0000000000076
  0
ARC
  5
125
330
1F
100
AcDbEntity
  8
LAY-10
  6
CONTINUOUS
 62
     7
100
AcDbCircle
 10
526.2634112424112
 20
210.1986412405206
 30
0.0
 40
1.0
100
AcDbArc
 50
182.9999999999925
 51
270.0
  0
ARC
  5
126
330
1F
100
AcDbEntity
  8
LAY-10
  6
CONTINUOUS
 62
     7
100
AcDbCircle
 10
528.7365887575871
 20
210.1986412405206
 30
0.0
 40
1.0
100
AcDbArc
 50
270.0
 51
357.0000000000076
  0
LINE
  5
127
330
1F
100
AcDbEntity
  8
LAY-10
  6
CONTINUOUS
 62
     7
100
AcDbLine
 10
455.9999999999991
 20
219.1986412405201
 30
0.0
 11
456.419262234263
 21
227.1986412405167
 31
0.0
  0
LINE
  5
128
330
1F
100
AcDbEntity
  8
LAY-10
  6
CONTINUOUS
 62
     7
100
AcDbLine
 10
465.0000000000039
 20
227.1986412405167
 30
0.0
 11
456.4192622342601
 21
227.1986412405167
 31
0.0
  0
LINE
  5
129
330
1F
100
AcDbEntity
  8
LAY-10
  6
CONTINUOUS
 62
     7
100
AcDbLine
 10
529.7352182923415
 20
210.1463052842778
 30
0.0
 11
529.9503350319604
 21
214.2509771967641
 31
0.0
  0
LINE
  5
12A
330
1F
100
AcDbEntity
  8
LAY-10
  6
CONTINUOUS
 62
     7
100
AcDbLine
 10
512.709631117132
 20
219.1986412405213
 30
0.0
 11
398.1568718230261
 21
219.1986412405213
 31
0.0
  0
LINE
  5
12B
330
1F
100
AcDbEntity
  8
LAY-10
  6
CONTINUOUS
 62
     7
100
AcDbLine
 10
362.5
 20
242.9999999999945
 30
0.0
 11
377.0372755045023
 21
242.9999999999945
 31
0.0
  0
LINE
  5
12C
330
1F
100
AcDbEntity
  8
LAY-10
  6
CONTINUOUS
 62
     7
100
AcDbLine
 10
378.3575838025565
 20
245.9999999999945
 30
0.0
 11
381.9924870000043
 21
245.9999999999945
 31
0.0
  0
LINE
  5
12D
330
1F
100
AcDbEntity
  8
LAY-10
  6
CONTINUOUS
 62
     7
100
AcDbLine
 10
364.6475976959442
 20
238.5513974025025
 30
0.0
 11
404.0259488929578
 21
227.9999999999943
 31
0.0
  0
LINE
  5
12E
330
1F
100
AcDbEntity
  8
LAY-10
  6
CONTINUOUS
 62
     7
100
AcDbLine
 10
376.6699905030609
 20
240.6187666418109
 30
0.0
 11
377.3692709001657
 21
245.1524388630451
 31
0.0
  0
LINE
  5
12F
330
1F
100
AcDbEntity
  8
LAY-10
  6
CONTINUOUS
 62
     7
100
AcDbLine
 10
404.5525588833057
 20
231.9999999999945
 30
0.0
 11
457.4593181805566
 21
231.9999999999945
 31
0.0
  0
LINE
  5
130
330
1F
100
AcDbEntity
  8
LAY-10
  6
CONTINUOUS
 62
     7
100
AcDbLine
 10
412.2903688828659
 20
231.9999999999943
 30
0.0
 11
412.4999999999981
 21
227.9999999999943
 31
0.0
  0
LINE
  5
131
330
1F
100
AcDbEntity
  8
LAY-10
  6
CONTINUOUS
 62
     7
100
AcDbLine
 10
375.4228585555675
 20
239.8052796785721
 30
0.0
 11
363.5000000000446
 21
242.9999999999945
 31
0.0
  0
LINE
  5
132
330
1F
100
AcDbEntity
  8
LAY-10
  6
CONTINUOUS
 62
     7
100
AcDbLine
 10
382.2415615251905
 20
239.9999999999948
 30
0.0
 11
381.6084335613653
 21
245.1226602970983
 31
0.0
  0
LINE
  5
133
330
1F
100
AcDbEntity
  8
LAY-10
  6
CONTINUOUS
 62
     7
100
AcDbLine
 10
565.3524023040557
 20
238.5513974025027
 30
0.0
 11
525.9740511070422
 21
227.9999999999943
 31
0.0
  0
LINE
  5
134
330
1F
100
AcDbEntity
  8
LAY-10
  6
CONTINUOUS
 62
     7
100
AcDbLine
 10
553.330009496939
 20
240.6187666418107
 30
0.0
 11
552.6307290998338
 21
245.1524388630451
 31
0.0
  0
LINE
  5
135
330
1F
100
AcDbEntity
  8
LAY-10
  6
CONTINUOUS
 62
     7
100
AcDbLine
 10
567.5000000000005
 20
242.9999999999945
 30
0.0
 11
552.9627244954977
 21
242.9999999999945
 31
0.0
  0
LINE
  5
136
330
1F
100
AcDbEntity
  8
LAY-10
  6
CONTINUOUS
 62
     7
100
AcDbLine
 10
512.7620388964152
 20
232.9999999999945
 30
0.0
 11
512.4999999999998
 21
227.9999999999943
 31
0.0
  0
LINE
  5
137
330
1F
100
AcDbEntity
  8
LAY-10
  6
CONTINUOUS
 62
     7
100
AcDbLine
 10
554.5771414444321
 20
239.8052796785718
 30
0.0
 11
566.499999999955
 21
242.9999999999945
 31
0.0
  0
LINE
  5
138
330
1F
100
AcDbEntity
  8
LAY-10
  6
CONTINUOUS
 62
     7
100
AcDbLine
 10
512.7620388964152
 20
232.9999999999945
 30
0.0
 11
529.1794919242639
 21
232.9999999999945
 31
0.0
  0
LINE
  5
139
330
1F
100
AcDbEntity
  8
LAY-10
  6
CONTINUOUS
 62
     7
100
AcDbLine
 10
516.2379611035777
 20
232.9999999999941
 30
0.0
 11
516.4999999999927
 21
227.9999999999943
 31
0.0
  0
LINE
  5
13A
330
1F
100
AcDbEntity
  8
LAY-10
  6
CONTINUOUS
 62
     7
100
AcDbLine
 10
526.7546531948566
 20
232.9999999999941
 30
0.0
 11
526.5000000000081
 21
228.1409275811247
 31
0.0
  0
LINE
  5
13B
330
1F
100
AcDbEntity
  8
LAY-10
  6
CONTINUOUS
 62
     7
100
AcDbLine
 10
383.7254880689694
 20
239.9999999999948
 30
0.0
 11
382.9822044460771
 21
245.1430362783981
 31
0.0
  0
ARC
  5
13C
330
1F
100
AcDbEntity
  8
LAY-10
  6
CONTINUOUS
 62
     7
100
AcDbCircle
 10
375.6816776006701
 20
240.771205504861
 30
0.0
 40
1.0
100
AcDbArc
 50
254.9999999999953
 51
351.2317112091407
  0
ARC
  5
13D
330
1F
100
AcDbEntity
  8
LAY-10
  6
CONTINUOUS
 62
     7
100
AcDbCircle
 10
378.3575838025565
 20
244.9999999999945
 30
0.0
 40
1.0
100
AcDbArc
 50
90.0
 51
171.2317112091257
  0
ARC
  5
13E
330
1F
100
AcDbEntity
  8
LAY-10
  6
CONTINUOUS
 62
     7
100
AcDbCircle
 10
380.6159848465623
 20
244.9999999999945
 30
0.0
 40
1.0
100
AcDbArc
 50
7.045660880123754
 51
90.0
  0
ARC
  5
13F
330
1F
100
AcDbEntity
  8
LAY-10
  6
CONTINUOUS
 62
     7
100
AcDbCircle
 10
381.9924870000043
 20
244.9999999999945
 30
0.0
 40
1.0
100
AcDbArc
 50
8.22358091056107
 51
90.0
  0
ARC
  5
140
330
1F
100
AcDbEntity
  8
LAY-10
  6
CONTINUOUS
 62
     7
100
AcDbCircle
 10
383.4512128964057
 20
244.9999999999945
 30
0.0
 40
1.0
100
AcDbArc
 50
90.0
 51
136.8330143113853
  0
ARC
  5
141
330
1F
100
AcDbEntity
  8
LAY-10
  6
CONTINUOUS
 62
     7
100
AcDbCircle
 10
436.0653308376664
 20
244.9999999999945
 30
0.0
 40
1.0
100
AcDbArc
 50
8.990290027311179
 51
90.0
  0
ARC
  5
142
330
1F
100
AcDbEntity
  8
LAY-10
  6
CONTINUOUS
 62
     7
100
AcDbCircle
 10
480.4069679601593
 20
245.6275730066911
 30
0.0
 40
0.372426993299797
100
AcDbArc
 50
10.16422400790555
 51
185.0751098174144
  0
ARC
  5
143
330
1F
100
AcDbEntity
  8
LAY-10
  6
CONTINUOUS
 62
     7
100
AcDbCircle
 10
551.6424161974435
 20
244.9999999999945
 30
0.0
 40
1.0
100
AcDbArc
 50
8.768288790874298
 51
90.0
  0
ARC
  5
144
330
1F
100
AcDbEntity
  8
LAY-10
  6
CONTINUOUS
 62
     7
100
AcDbCircle
 10
549.3840151534378
 20
244.9999999999945
 30
0.0
 40
1.0
100
AcDbArc
 50
90.0
 51
172.9543391198759
  0
ARC
  5
145
330
1F
100
AcDbEntity
  8
LAY-10
  6
CONTINUOUS
 62
     7
100
AcDbCircle
 10
548.0075129999956
 20
244.9999999999945
 30
0.0
 40
1.0
100
AcDbArc
 50
90.0
 51
171.7764190894395
  0
ARC
  5
146
330
1F
100
AcDbEntity
  8
LAY-10
  6
CONTINUOUS
 62
     7
100
AcDbCircle
 10
544.5640639499843
 20
244.9999999999945
 30
0.0
 40
1.0
100
AcDbArc
 50
90.0
 51
175.6802511898822
  0
ARC
  5
147
330
1F
100
AcDbEntity
  8
LAY-10
  6
CONTINUOUS
 62
     7
100
AcDbCircle
 10
546.5487871035942
 20
244.9999999999945
 30
0.0
 40
1.0
100
AcDbArc
 50
43.16698568860679
 51
90.0
  0
LINE
  5
148
330
1F
100
AcDbEntity
  8
LAY-10
  6
CONTINUOUS
 62
     7
100
AcDbLine
 10
551.6424161974435
 20
245.9999999999945
 30
0.0
 11
548.0075129999956
 21
245.9999999999945
 31
0.0
  0
ARC
  5
149
330
1F
100
AcDbEntity
  8
LAY-10
  6
CONTINUOUS
 62
     7
100
AcDbCircle
 10
554.3183223993296
 20
240.771205504861
 30
0.0
 40
1.0
100
AcDbArc
 50
188.7682887908743
 51
284.9999999999941
  0
LINE
  5
14A
330
1F
100
AcDbEntity
  8
LAY-10
  6
CONTINUOUS
 62
     7
100
AcDbLine
 10
465.0
 20
231.9999999999945
 30
0.0
 11
512.709631117132
 21
231.9999999999945
 31
0.0
  0
LINE
  5
14B
330
1F
100
AcDbEntity
  8
LAY-10
  6
CONTINUOUS
 62
     7
100
AcDbLine
 10
457.5117259598397
 20
232.9999999999943
 30
0.0
 11
457.2496870634245
 21
227.9999999999943
 31
0.0
  0
LINE
  5
14C
330
1F
100
AcDbEntity
  8
LAY-10
  6
CONTINUOUS
 62
     7
100
AcDbLine
 10
362.4999999999996
 20
242.9999999999945
 30
0.0
 11
363.2211166731599
 21
240.0137803399248
 31
0.0
  0
ARC
  5
14D
330
1F
100
AcDbEntity
  8
LAY-10
  6
CONTINUOUS
 62
     7
100
AcDbCircle
 10
365.1652357861493
 20
240.4832490550807
 30
0.0
 40
2.0
100
AcDbArc
 50
193.5759645851411
 51
254.9999999999989
  0
LINE
  5
14E
330
1F
100
AcDbEntity
  8
LAY-10
  6
CONTINUOUS
 62
     7
100
AcDbLine
 10
566.7788833268398
 20
240.0137803399248
 30
0.0
 11
567.5000000000005
 21
242.9999999999945
 31
0.0
  0
ARC
  5
14F
330
1F
100
AcDbEntity
  8
LAY-10
  6
CONTINUOUS
 62
     7
100
AcDbCircle
 10
564.8347642138506
 20
240.4832490550807
 30
0.0
 40
2.0
100
AcDbArc
 50
284.9999999999979
 51
346.4240354148657
  0
LINE
  5
150
330
1F
100
AcDbEntity
  8
LAY-10
  6
CONTINUOUS
 62
     7
100
AcDbLine
 10
394.2749374804457
 20
234.7538803549998
 30
0.0
 11
393.9999999999984
 21
239.9999999999948
 31
0.0
  0
LINE
  5
151
330
1F
100
AcDbEntity
  8
LAY-10
  6
CONTINUOUS
 62
     7
100
AcDbLine
 10
404.5525588833057
 20
231.9999999999945
 30
0.0
 11
394.2749374804508
 21
234.7538803550021
 31
0.0
  0
LINE
  5
152
330
1F
100
AcDbEntity
  8
LAY-10
  6
CONTINUOUS
 62
     7
100
AcDbLine
 10
546.2745119310307
 20
239.9999999999945
 30
0.0
 11
547.017795553923
 21
245.1430362783981
 31
0.0
  0
LINE
  5
153
330
1F
100
AcDbEntity
  8
LAY-10
  6
CONTINUOUS
 62
     7
100
AcDbLine
 10
547.7584384748101
 20
239.99999999999
 30
0.0
 11
548.3915664386341
 21
245.1226602970985
 31
0.0
  0
LINE
  5
154
330
1F
100
AcDbEntity
  8
LAY-10
  6
CONTINUOUS
 62
     7
100
AcDbLine
 10
537.999999999996
 20
239.9999999999902
 30
0.0
 11
537.75354777145
 21
235.2974113401074
 31
0.0
  0
LINE
  5
155
330
1F
100
AcDbEntity
  8
LAY-10
  6
CONTINUOUS
 62
     7
100
AcDbLine
 10
547.7584384748093
 20
239.9999999999945
 30
0.0
 11
538.0
 21
239.9999999999945
 31
0.0
  0
LINE
  5
156
330
1F
100
AcDbEntity
  8
LAY-10
  6
CONTINUOUS
 62
     7
100
AcDbLine
 10
471.1868209044684
 20
236.4352447854401
 30
0.0
 11
470.9999999999862
 21
239.9999999999948
 31
0.0
  0
ARC
  5
157
330
1F
100
AcDbEntity
  8
LAY-10
  6
CONTINUOUS
 62
     7
100
AcDbCircle
 10
465.0
 20
246.9772087744015
 30
0.0
 40
12.22332841940153
100
AcDbArc
 50
270.0
 51
300.4076305469396
  0
LINE
  5
158
330
1F
100
AcDbEntity
  8
LAY-10
  6
CONTINUOUS
 62
     7
100
AcDbLine
 10
363.1764761936207
 20
240.1986412405213
 30
0.0
 11
353.5
 21
240.1986412405213
 31
0.0
  0
LINE
  5
159
330
1F
100
AcDbEntity
  8
LAY-10
  6
CONTINUOUS
 62
     7
100
AcDbLine
 10
576.4999999999998
 20
240.1986412405213
 30
0.0
 11
566.8235238063792
 21
240.1986412405213
 31
0.0
  0
ARC
  5
15A
330
1F
100
AcDbEntity
  8
LAY-10
  6
CONTINUOUS
 62
     7
100
AcDbCircle
 10
465.0
 20
342.1955941215173
 30
0.0
 40
47.80440587847321
100
AcDbArc
 50
9.999999999998572
 51
170.0000000000014
  0
LINE
  5
15B
330
1F
100
AcDbEntity
  8
LAY-10
  6
CONTINUOUS
 62
     7
100
AcDbLine
 10
421.8610814747863
 20
349.8021493760957
 30
0.0
 11
402.5000000000004
 21
239.99999999999
 31
0.0
  0
LINE
  5
15C
330
1F
100
AcDbEntity
  8
LAY-10
  6
CONTINUOUS
 62
     7
100
AcDbLine
 10
399.7607459077707
 20
247.49999999999
 30
0.0
 11
417.9218504627379
 21
350.4967420867633
 31
0.0
  0
ARC
  5
15D
330
1F
100
AcDbEntity
  8
LAY-10
  6
CONTINUOUS
 62
     7
100
AcDbCircle
 10
465.0
 20
342.1955941215173
 30
0.0
 40
43.80440587847264
100
AcDbArc
 50
9.999999999998742
 51
170.0000000000016
  0
LINE
  5
15E
330
1F
100
AcDbEntity
  8
LAY-10
  6
CONTINUOUS
 62
     7
100
AcDbLine
 10
491.9999999999995
 20
381.6450709417977
 30
0.0
 11
492.9999999999999
 21
375.8827723109407
 31
0.0
  0
LINE
  5
15F
330
1F
100
AcDbEntity
  8
LAY-10
  6
CONTINUOUS
 62
     7
100
AcDbLine
 10
383.9999999999905
 20
243.99999999999
 30
0.0
 11
384.1834272274809
 21
247.49999999999
 31
0.0
  0
LINE
  5
160
330
1F
100
AcDbEntity
  8
LAY-10
  6
CONTINUOUS
 62
     7
100
AcDbLine
 10
403.8224523553139
 20
247.49999999999
 30
0.0
 11
384.1834272274809
 21
247.49999999999
 31
0.0
  0
LINE
  5
161
330
1F
100
AcDbEntity
  8
LAY-10
  6
CONTINUOUS
 62
     7
100
AcDbLine
 10
384.1103011810438
 20
241.8953280875041
 30
0.0
 11
383.999999999991
 21
243.99999999999
 31
0.0
  0
ARC
  5
162
330
1F
100
AcDbEntity
  8
LAY-10
  6
CONTINUOUS
 62
     7
100
AcDbCircle
 10
543.8924397494469
 20
241.99999999999
 30
0.0
 40
2.0
100
AcDbArc
 50
270.0
 51
357.0000000000001
  0
LINE
  5
163
330
1F
100
AcDbEntity
  8
LAY-10
  6
CONTINUOUS
 62
     7
100
AcDbLine
 10
545.8896988189563
 20
241.8953280875041
 30
0.0
 11
546.0000000000091
 21
243.99999999999
 31
0.0
  0
LINE
  5
164
330
1F
100
AcDbEntity
  8
LAY-10
  6
CONTINUOUS
 62
     7
100
AcDbLine
 10
393.8930583446231
 20
239.99999999999
 30
0.0
 11
393.5000000000004
 21
247.49999999999
 31
0.0
  0
LINE
  5
165
330
1F
100
AcDbEntity
  8
LAY-10
  6
CONTINUOUS
 62
     7
100
AcDbLine
 10
530.8563985247089
 20
243.99999999999
 30
0.0
 11
512.0781495372621
 21
350.4967420867633
 31
0.0
  0
LINE
  5
166
330
1F
100
AcDbEntity
  8
LAY-10
  6
CONTINUOUS
 62
     7
100
AcDbLine
 10
461.9945794467653
 20
372.9463376603712
 30
0.0
 11
459.0
 21
243.99999999999
 31
0.0
  0
ARC
  5
167
330
1F
100
AcDbEntity
  8
LAY-10
  6
CONTINUOUS
 62
     7
100
AcDbCircle
 10
465.0
 20
372.8765414119405
 30
0.0
 40
3.006230898999547
100
AcDbArc
 50
90.0
 51
178.669633187162
  0
LINE
  5
168
330
1F
100
AcDbEntity
  8
LAY-10
  6
CONTINUOUS
 62
     7
100
AcDbLine
 10
449.7748298628844
 20
373.4566891688187
 30
0.0
 11
434.5753794616999
 21
243.99999999999
 31
0.0
  0
LINE
  5
169
330
1F
100
AcDbEntity
  8
LAY-10
  6
CONTINUOUS
 62
     7
100
AcDbLine
 10
455.2410069714306
 20
372.9303424666093
 30
0.0
 11
445.5379249533998
 21
243.99999999999
 31
0.0
  0
ARC
  5
16A
330
1F
100
AcDbEntity
  8
LAY-10
  6
CONTINUOUS
 62
     7
100
AcDbCircle
 10
452.50242285685
 20
373.1364437284898
 30
0.0
 40
2.746328582450133
100
AcDbArc
 50
355.6961286345882
 51
173.3035865689384
  0
LINE
  5
16B
330
1F
100
AcDbEntity
  8
LAY-10
  6
CONTINUOUS
 62
     7
100
AcDbLine
 10
453.9581226304309
 20
372.9303424666093
 30
0.0
 11
444.2550406124001
 21
243.99999999999
 31
0.0
  0
ARC
  5
16C
330
1F
100
AcDbEntity
  8
LAY-10
  6
CONTINUOUS
 62
     7
100
AcDbCircle
 10
451.2195385158502
 20
373.1364437284898
 30
0.0
 40
2.746328582450133
100
AcDbArc
 50
355.6961286345882
 51
76.49303768979532
  0
LINE
  5
16D
330
1F
100
AcDbEntity
  8
LAY-10
  6
CONTINUOUS
 62
     7
100
AcDbLine
 10
440.1896705504337
 20
374.2471482480623
 30
0.0
 11
415.4114522134
 21
243.99999999999
 31
0.0
  0
LINE
  5
16E
330
1F
100
AcDbEntity
  8
LAY-10
  6
CONTINUOUS
 62
     7
100
AcDbLine
 10
444.1521292919834
 20
373.5536649280663
 30
0.0
 11
423.4410194897001
 21
243.99999999999
 31
0.0
  0
ARC
  5
16F
330
1F
100
AcDbEntity
  8
LAY-10
  6
CONTINUOUS
 62
     7
100
AcDbCircle
 10
442.1657903386504
 20
373.8712112065903
 30
0.0
 40
2.011561104349767
100
AcDbArc
 50
350.917259422206
 51
169.2287612607596
  0
LINE
  5
170
330
1F
100
AcDbEntity
  8
LAY-10
  6
CONTINUOUS
 62
     7
100
AcDbLine
 10
441.4126801224834
 20
373.5536649280663
 30
0.0
 11
420.7015703202001
 21
243.99999999999
 31
0.0
  0
ARC
  5
171
330
1F
100
AcDbEntity
  8
LAY-10
  6
CONTINUOUS
 62
     7
100
AcDbCircle
 10
439.4263411691504
 20
373.8712112065903
 30
0.0
 40
2.011561104349767
100
AcDbArc
 50
350.917259422206
 51
47.08394084012063
  0
LINE
  5
172
330
1F
100
AcDbEntity
  8
LAY-10
  6
CONTINUOUS
 62
     7
100
AcDbLine
 10
436.6855616911229
 20
374.7582459610398
 30
0.0
 11
408.5300393078001
 21
243.99999999999
 31
0.0
  0
ARC
  5
173
330
1F
100
AcDbEntity
  8
LAY-10
  6
CONTINUOUS
 62
     7
100
AcDbCircle
 10
435.7774001132003
 20
374.9537958741405
 30
0.0
 40
0.9289764367995301
100
AcDbArc
 50
347.8483213348073
 51
35.33120224666437
  0
LINE
  5
174
330
1F
100
AcDbEntity
  8
LAY-10
  6
CONTINUOUS
 62
     7
100
AcDbLine
 10
434.5292010084841
 20
373.6655223576063
 30
0.0
 11
404.8218353753001
 21
243.99999999999
 31
0.0
  0
LINE
  5
175
330
1F
100
AcDbEntity
  8
LAY-10
  6
CONTINUOUS
 62
     7
100
AcDbLine
 10
477.3412107852883
 20
373.2947881741472
 30
0.0
 11
489.6569758198002
 21
243.99999999999
 31
0.0
  0
LINE
  5
176
330
1F
100
AcDbEntity
  8
LAY-10
  6
CONTINUOUS
 62
     7
100
AcDbLine
 10
487.7607024854792
 20
374.0334404417079
 30
0.0
 11
510.4936705059999
 21
243.99999999999
 31
0.0
  0
LINE
  5
177
330
1F
100
AcDbEntity
  8
LAY-10
  6
CONTINUOUS
 62
     7
100
AcDbLine
 10
471.639649850124
 20
372.8773472251043
 30
0.0
 11
478.2442976243001
 21
243.99999999999
 31
0.0
  0
ARC
  5
178
330
1F
100
AcDbEntity
  8
LAY-10
  6
CONTINUOUS
 62
     7
100
AcDbCircle
 10
474.4949982783501
 20
373.0236768248908
 30
0.0
 40
2.85909548604923
100
AcDbArc
 50
0.0
 51
182.9337016187989
  0
LINE
  5
179
330
1F
100
AcDbEntity
  8
LAY-10
  6
CONTINUOUS
 62
     7
100
AcDbLine
 10
472.5126760813241
 20
372.8773472251043
 30
0.0
 11
479.1173238555002
 21
243.99999999999
 31
0.0
  0
ARC
  5
17A
330
1F
100
AcDbEntity
  8
LAY-10
  6
CONTINUOUS
 62
     7
100
AcDbCircle
 10
475.3680245095502
 20
373.0236768248908
 30
0.0
 40
2.85909548604923
100
AcDbArc
 50
98.78199312910287
 51
182.9337016187989
  0
LINE
  5
17B
330
1F
100
AcDbEntity
  8
LAY-10
  6
CONTINUOUS
 62
     7
100
AcDbLine
 10
483.3478119446918
 20
373.3369302261344
 30
0.0
 11
501.5759326001998
 21
243.99999999999
 31
0.0
  0
ARC
  5
17C
330
1F
100
AcDbEntity
  8
LAY-10
  6
CONTINUOUS
 62
     7
100
AcDbCircle
 10
485.5600147273999
 20
373.6487073741398
 30
0.0
 40
2.234064936800223
100
AcDbArc
 50
9.91646158657234
 51
188.0221542293401
  0
LINE
  5
17D
330
1F
100
AcDbEntity
  8
LAY-10
  6
CONTINUOUS
 62
     7
100
AcDbLine
 10
485.7587928435919
 20
373.3369302261344
 30
0.0
 11
503.9869134990999
 21
243.99999999999
 31
0.0
  0
ARC
  5
17E
330
1F
100
AcDbEntity
  8
LAY-10
  6
CONTINUOUS
 62
     7
100
AcDbCircle
 10
487.9709956263
 20
373.6487073741398
 30
0.0
 40
2.234064936800223
100
AcDbArc
 50
122.6560784776505
 51
188.0221542293401
  0
ARC
  5
17F
330
1F
100
AcDbEntity
  8
LAY-10
  6
CONTINUOUS
 62
     7
100
AcDbCircle
 10
493.0700178482502
 20
374.6600280467898
 30
0.0
 40
1.222744264150151
100
AcDbArc
 50
93.17663542891721
 51
191.5750516211322
  0
LINE
  5
180
330
1F
100
AcDbEntity
  8
LAY-10
  6
CONTINUOUS
 62
     7
100
AcDbLine
 10
383.4512128964057
 20
245.9999999999945
 30
0.0
 11
384.1048155585567
 21
245.9999999999945
 31
0.0
  0
LINE
  5
181
330
1F
100
AcDbEntity
  8
LAY-10
  6
CONTINUOUS
 62
     7
100
AcDbLine
 10
415.7919322265192
 20
245.9999999999945
 30
0.0
 11
421.0213005233376
 21
245.9999999999945
 31
0.0
  0
LINE
  5
182
330
1F
100
AcDbEntity
  8
LAY-10
  6
CONTINUOUS
 62
     7
100
AcDbLine
 10
434.8101985428739
 20
245.9999999999945
 30
0.0
 11
436.0653308376664
 21
245.9999999999945
 31
0.0
  0
LINE
  5
183
330
1F
100
AcDbEntity
  8
LAY-10
  6
CONTINUOUS
 62
     7
100
AcDbLine
 10
437.2359795252763
 20
243.99999999999
 30
0.0
 11
437.0530456751821
 21
245.1562670782646
 31
0.0
  0
LINE
  5
184
330
1F
100
AcDbEntity
  8
LAY-10
  6
CONTINUOUS
 62
     7
100
AcDbLine
 10
480.4069679601593
 20
245.9999999999945
 30
0.0
 11
479.0148287635946
 21
245.9999999999945
 31
0.0
  0
LINE
  5
185
330
1F
100
AcDbEntity
  8
LAY-10
  6
CONTINUOUS
 62
     7
100
AcDbLine
 10
480.1776195269923
 20
243.99999999999
 30
0.0
 11
480.0360010339246
 21
245.5946275217075
 31
0.0
  0
LINE
  5
186
330
1F
100
AcDbEntity
  8
LAY-10
  6
CONTINUOUS
 62
     7
100
AcDbLine
 10
481.0771305702513
 20
243.99999999999
 30
0.0
 11
480.7735500802746
 21
245.6932952597931
 31
0.0
  0
LINE
  5
187
330
1F
100
AcDbEntity
  8
LAY-10
  6
CONTINUOUS
 62
     7
100
AcDbLine
 10
510.1440224778719
 20
245.9999999999945
 30
0.0
 11
503.7050431837356
 21
245.9999999999945
 31
0.0
  0
LINE
  5
188
330
1F
100
AcDbEntity
  8
LAY-10
  6
CONTINUOUS
 62
     7
100
AcDbLine
 10
546.5487871035942
 20
245.9999999999945
 30
0.0
 11
530.5037445632912
 21
245.9999999999945
 31
0.0
  0
LINE
  5
189
330
1F
100
AcDbEntity
  8
LAY-10
  6
CONTINUOUS
 62
     7
100
AcDbLine
 10
543.4856780703658
 20
243.99999999999
 30
0.0
 11
543.5669047194938
 21
245.0753224338869
 31
0.0
  0
LINE
  5
18A
330
1F
100
AcDbEntity
  8
LAY-10
  6
CONTINUOUS
 62
     7
100
AcDbLine
 10
391.0000000000003
 20
235.9999999999918
 30
0.0
 11
384.9999999999999
 21
235.9999999999918
 31
0.0
  0
LINE
  5
18B
330
1F
100
AcDbEntity
  8
LAY-10
  6
CONTINUOUS
 62
     7
100
AcDbLine
 10
391.0000000000003
 20
247.4999999999895
 30
0.0
 11
391.0000000000003
 21
235.9999999999918
 31
0.0
  0
LINE
  5
18C
330
1F
100
AcDbEntity
  8
LAY-10
  6
CONTINUOUS
 62
     7
100
AcDbLine
 10
385.5000000000005
 20
235.4999999999918
 30
0.0
 11
390.5000000000004
 21
235.4999999999918
 31
0.0
  0
LINE
  5
18D
330
1F
100
AcDbEntity
  8
LAY-10
  6
CONTINUOUS
 62
     7
100
AcDbLine
 10
384.9999999999999
 20
247.4999999999895
 30
0.0
 11
384.9999999999999
 21
235.9999999999918
 31
0.0
  0
LINE
  5
18E
330
1F
100
AcDbEntity
  8
LAY-10
  6
CONTINUOUS
 62
     7
100
AcDbLine
 10
390.5000000000004
 20
235.4999999999918
 30
0.0
 11
391.0000000000003
 21
235.9999999999918
 31
0.0
  0
LINE
  5
18F
330
1F
100
AcDbEntity
  8
LAY-10
  6
CONTINUOUS
 62
     7
100
AcDbLine
 10
385.5000000000005
 20
235.4999999999918
 30
0.0
 11
384.9999999999999
 21
235.9999999999918
 31
0.0
  0
LINE
  5
190
330
1F
100
AcDbEntity
  8
LAY-10
  6
CONTINUOUS
 62
     7
100
AcDbLine
 10
385.5
 20
235.49999999999
 30
0.0
 11
385.5
 21
232.9640130448822
 31
0.0
  0
LINE
  5
191
330
1F
100
AcDbEntity
  8
LAY-10
  6
CONTINUOUS
 62
     7
100
AcDbLine
 10
390.5000000000001
 20
235.49999999999
 30
0.0
 11
390.5000000000001
 21
231.6242670827269
 31
0.0
  0
ARC
  5
192
330
1F
100
AcDbEntity
  8
LAY-10
  6
CONTINUOUS
 62
     7
100
AcDbCircle
 10
388.0000000000003
 20
245.1999999999898
 30
0.0
 40
6.300000000000004
100
AcDbArc
 50
95.46502379991026
 51
128.6821874534934
  0
ARC
  5
193
330
1F
100
AcDbEntity
  8
LAY-10
  6
CONTINUOUS
 62
     7
100
AcDbCircle
 10
388.0000000000003
 20
245.1999999999898
 30
0.0
 40
6.300000000000004
100
AcDbArc
 50
51.31781254649836
 51
84.53497620009911
  0
LINE
  5
194
330
1F
100
AcDbEntity
  8
LAY-10
  6
CONTINUOUS
 62
     7
100
AcDbLine
 10
387.4000000000003
 20
251.4713634880895
 30
0.0
 11
387.4000000000003
 21
248.9999999999895
 31
0.0
  0
LINE
  5
195
330
1F
100
AcDbEntity
  8
LAY-10
  6
CONTINUOUS
 62
     7
100
AcDbLine
 10
388.6000000000006
 20
248.9999999999895
 30
0.0
 11
387.4000000000003
 21
248.9999999999895
 31
0.0
  0
LINE
  5
196
330
1F
100
AcDbEntity
  8
LAY-10
  6
CONTINUOUS
 62
     7
100
AcDbLine
 10
388.6000000000006
 20
251.4713634880895
 30
0.0
 11
388.6000000000006
 21
248.9999999999895
 31
0.0
  0
LINE
  5
197
330
1F
100
AcDbEntity
  8
LAY-10
  6
CONTINUOUS
 62
     7
100
AcDbLine
 10
393.2481347569003
 20
247.4999999999895
 30
0.0
 11
382.7518652431002
 21
247.4999999999895
 31
0.0
  0
ARC
  5
198
330
1F
100
AcDbEntity
  8
LAY-10
  6
CONTINUOUS
 62
     7
100
AcDbCircle
 10
389.7500000000002
 20
247.3857492993893
 30
0.0
 40
3.500000000000003
100
AcDbArc
 50
1.870641730603566
 51
51.31781254649521
  0
ARC
  5
199
330
1F
100
AcDbEntity
  8
LAY-10
  6
CONTINUOUS
 62
     7
100
AcDbCircle
 10
386.2500000000002
 20
247.3857492993893
 30
0.0
 40
3.500000000000003
100
AcDbArc
 50
128.6821874534945
 51
178.1293582694118
  0
ARC
  5
19A
330
1F
100
AcDbEntity
  8
LAY-10
  6
CONTINUOUS
 62
     7
100
AcDbCircle
 10
386.1075602505529
 20
241.99999999999
 30
0.0
 40
2.0
100
AcDbArc
 50
182.9999999999999
 51
236.3732661170016
  0
LINE
  5
19B
330
1F
100
AcDbEntity
  8
LAY-10
  6
CONTINUOUS
 62
     7
100
AcDbLine
 10
382.2415615251905
 20
239.9999999999948
 30
0.0
 11
385.5000000000005
 21
239.9999999999948
 31
0.0
  0
LINE
  5
19C
330
1F
100
AcDbEntity
  8
LAY-10
  6
CONTINUOUS
 62
     7
100
AcDbLine
 10
518.000000000003
 20
218.6986412405108
 30
0.0
 11
524.9999999999985
 21
218.6986412405108
 31
0.0
  0
LINE
  5
19D
330
1F
100
AcDbEntity
  8
LAY-10
  6
CONTINUOUS
 62
     7
100
AcDbLine
 10
518.000000000003
 20
218.6986412405113
 30
0.0
 11
521.5000000000011
 21
216.6779152983486
 31
0.0
  0
LINE
  5
19E
330
1F
100
AcDbEntity
  8
LAY-10
  6
CONTINUOUS
 62
     7
100
AcDbLine
 10
521.5000000000011
 20
216.677915298349
 30
0.0
 11
524.999999999998
 21
218.6986412405108
 31
0.0
  0
LINE
  5
19F
330
1F
100
AcDbEntity
  8
LAY-10
  6
CONTINUOUS
 62
     7
100
AcDbLine
 10
518.0000000000001
 20
220.1986412405049
 30
0.0
 11
525.0
 21
220.1986412405049
 31
0.0
  0
LINE
  5
1A0
330
1F
100
AcDbEntity
  8
LAY-10
  6
CONTINUOUS
 62
     7
100
AcDbLine
 10
517.5000000000013
 20
220.6986412405035
 30
0.0
 11
525.5000000000011
 21
220.6986412405035
 31
0.0
  0
LINE
  5
1A1
330
1F
100
AcDbEntity
  8
LAY-10
  6
CONTINUOUS
 62
     7
100
AcDbLine
 10
518.000000000003
 20
220.1986412405049
 30
0.0
 11
518.000000000003
 21
218.6986412405099
 31
0.0
  0
LINE
  5
1A2
330
1F
100
AcDbEntity
  8
LAY-10
  6
CONTINUOUS
 62
     7
100
AcDbLine
 10
524.999999999998
 20
220.1986412405049
 30
0.0
 11
524.999999999998
 21
218.6986412405099
 31
0.0
  0
LINE
  5
1A3
330
1F
100
AcDbEntity
  8
LAY-10
  6
CONTINUOUS
 62
     7
100
AcDbLine
 10
517.5
 20
220.698641240504
 30
0.0
 11
518.0000000000001
 21
220.1986412405049
 31
0.0
  0
LINE
  5
1A4
330
1F
100
AcDbEntity
  8
LAY-10
  6
CONTINUOUS
 62
     7
100
AcDbLine
 10
525.0
 20
220.1986412405049
 30
0.0
 11
525.5000000000001
 21
220.698641240504
 31
0.0
  0
LINE
  5
1A5
330
1F
100
AcDbEntity
  8
LAY-10
  6
CONTINUOUS
 62
     7
100
AcDbLine
 10
517.5
 20
269.6986412405081
 30
0.0
 11
525.5000000000001
 21
269.6986412405081
 31
0.0
  0
LINE
  5
1A6
330
1F
100
AcDbEntity
  8
LAY-10
  6
CONTINUOUS
 62
     7
100
AcDbLine
 10
517.9999999999995
 20
270.1986412405056
 30
0.0
 11
524.9999999999982
 21
270.1986412405056
 31
0.0
  0
LINE
  5
1A7
330
1F
100
AcDbEntity
  8
LAY-10
  6
CONTINUOUS
 62
     7
100
AcDbLine
 10
525.5000000000001
 20
269.6986412405099
 30
0.0
 11
525.0
 21
270.1986412405099
 31
0.0
  0
LINE
  5
1A8
330
1F
100
AcDbEntity
  8
LAY-10
  6
CONTINUOUS
 62
     7
100
AcDbLine
 10
518.0000000000001
 20
270.1986412405099
 30
0.0
 11
517.5
 21
269.6986412405099
 31
0.0
  0
LINE
  5
1A9
330
1F
100
AcDbEntity
  8
LAY-10
  6
CONTINUOUS
 62
     7
100
AcDbLine
 10
529.5
 20
232.999999999995
 30
0.0
 11
529.5
 21
239.0519999999951
 31
0.0
  0
LINE
  5
1AA
330
1F
100
AcDbEntity
  8
LAY-10
  6
CONTINUOUS
 62
     7
100
AcDbLine
 10
525.5000000000001
 20
232.999999999995
 30
0.0
 11
525.5000000000001
 21
239.0519999999951
 31
0.0
  0
LINE
  5
1AB
330
1F
100
AcDbEntity
  8
LAY-10
  6
CONTINUOUS
 62
     7
100
AcDbLine
 10
517.5
 20
232.999999999995
 30
0.0
 11
517.5
 21
239.0519999999951
 31
0.0
  0
LINE
  5
1AC
330
1F
100
AcDbEntity
  8
LAY-10
  6
CONTINUOUS
 62
     7
100
AcDbLine
 10
513.5000000000001
 20
232.999999999995
 30
0.0
 11
513.5000000000001
 21
239.0519999999951
 31
0.0
  0
ARC
  5
1AD
330
1F
100
AcDbEntity
  8
LAY-10
  6
CONTINUOUS
 62
     7
100
AcDbCircle
 10
527.5
 20
236.7522032085512
 30
0.0
 40
3.047796791443853
100
AcDbArc
 50
48.98840640770651
 51
131.0115935922962
  0
ARC
  5
1AE
330
1F
100
AcDbEntity
  8
LAY-10
  6
CONTINUOUS
 62
     7
100
AcDbCircle
 10
521.5
 20
228.7308128342197
 30
0.0
 40
11.06918716577541
100
AcDbArc
 50
68.81604434177176
 51
111.1839556582276
  0
ARC
  5
1AF
330
1F
100
AcDbEntity
  8
LAY-10
  6
CONTINUOUS
 62
     7
100
AcDbCircle
 10
515.5
 20
236.7522032085512
 30
0.0
 40
3.047796791443853
100
AcDbArc
 50
48.98840640770651
 51
131.0115935922962
  0
LINE
  5
1B0
330
1F
100
AcDbEntity
  8
LAY-10
  6
CONTINUOUS
 62
     7
100
AcDbLine
 10
527.5
 20
239.799999999995
 30
0.0
 11
515.5
 21
239.799999999995
 31
0.0
  0
LINE
  5
1B1
330
1F
100
AcDbEntity
  8
LAY-10
  6
CONTINUOUS
 62
     7
100
AcDbLine
 10
513.5000000000001
 20
232.999999999995
 30
0.0
 11
529.5
 21
232.999999999995
 31
0.0
  0
LINE
  5
1B2
330
1F
100
AcDbEntity
  8
LAY-10
  6
CONTINUOUS
 62
     7
100
AcDbLine
 10
517.5
 20
220.698641240504
 30
0.0
 11
517.5
 21
232.999999999995
 31
0.0
  0
LINE
  5
1B3
330
1F
100
AcDbEntity
  8
LAY-10
  6
CONTINUOUS
 62
     7
100
AcDbLine
 10
517.5
 20
239.7999999999999
 30
0.0
 11
517.5
 21
269.6986412405081
 31
0.0
  0
LINE
  5
1B4
330
1F
100
AcDbEntity
  8
LAY-10
  6
CONTINUOUS
 62
     7
100
AcDbLine
 10
525.5000000000001
 20
220.698641240504
 30
0.0
 11
525.5000000000001
 21
232.999999999995
 31
0.0
  0
LINE
  5
1B5
330
1F
100
AcDbEntity
  8
LAY-10
  6
CONTINUOUS
 62
     7
100
AcDbLine
 10
525.5000000000001
 20
239.7999999999999
 30
0.0
 11
525.5000000000001
 21
269.6986412405081
 31
0.0
  0
LINE
  5
1B6
330
1F
100
AcDbEntity
  8
LAY-10
  6
CONTINUOUS
 62
     7
100
AcDbLine
 10
529.5
 20
233.0858798800557
 30
0.0
 11
537.7535477714505
 21
235.2974113401085
 31
0.0
  0
LINE
  5
1B7
330
1F
100
AcDbEntity
  8
LAY-10
  6
CONTINUOUS
 62
     7
100
AcDbLine
 10
517.9999999999995
 20
227.1986412405208
 30
0.0
 11
513.1288933513963
 21
227.1986412405208
 31
0.0
  0
LINE
  5
1B8
330
1F
100
AcDbEntity
  8
LAY-10
  6
CONTINUOUS
 62
     7
100
AcDbLine
 10
534.3431126005928
 20
227.1986412405208
 30
0.0
 11
524.9999999999982
 21
227.1986412405208
 31
0.0
  0
LINE
  5
1B9
330
1F
100
AcDbEntity
  8
LAY-10
  6
CONTINUOUS
 62
     7
100
AcDbLine
 10
404.0259488929578
 20
227.9999999999943
 30
0.0
 11
517.5
 21
227.9999999999943
 31
0.0
  0
LINE
  5
1BA
330
1F
100
AcDbEntity
  8
LAY-10
  6
CONTINUOUS
 62
     7
100
AcDbLine
 10
525.5000000000001
 20
227.9999999999943
 30
0.0
 11
525.9740511070422
 21
227.9999999999943
 31
0.0
  0
LINE
  5
1BB
330
1F
100
AcDbEntity
  8
LAY-10
  6
CONTINUOUS
 62
     7
100
AcDbLine
 10
525.5000000000001
 20
239.99999999999
 30
0.0
 11
543.8924397494502
 21
239.99999999999
 31
0.0
  0
LINE
  5
1BC
330
1F
100
AcDbEntity
  8
LAY-10
  6
CONTINUOUS
 62
     7
100
AcDbLine
 10
491.872140885905
 20
374.414682741974
 30
0.0
 11
517.5
 21
249.2889052177725
 31
0.0
  0
LINE
  5
1BD
330
1F
100
AcDbEntity
  8
LAY-10
  6
CONTINUOUS
 62
     7
100
AcDbLine
 10
525.5000000000001
 20
251.3425636392244
 30
0.0
 11
527.4999999999997
 21
239.99999999999
 31
0.0
  0
LINE
  5
1BE
330
1F
100
AcDbEntity
  8
LAY-10
  6
CONTINUOUS
 62
     7
100
AcDbLine
 10
494.3010830710031
 20
374.7574200106185
 30
0.0
 11
517.6900946995333
 21
269.8887359400474
 31
0.0
  0
LINE
  5
1BF
330
1F
100
AcDbEntity
  8
LAY-10
  6
CONTINUOUS
 62
     7
100
AcDbLine
 10
508.1389185252137
 20
349.8021493760957
 30
0.0
 11
522.1751647685625
 21
270.1986412405033
 31
0.0
  0
LINE
  5
1C0
330
1F
100
AcDbEntity
  8
LAY-10
  6
CONTINUOUS
 62
     7
100
AcDbLine
 10
461.0000000000001
 20
269.6986412405117
 30
0.0
 11
465.0
 21
269.6986412405117
 31
0.0
  0
LINE
  5
1C1
330
1F
100
AcDbEntity
  8
LAY-10
  6
CONTINUOUS
 62
     7
100
AcDbLine
 10
465.0
 20
270.1986412405099
 30
0.0
 11
461.4999999999999
 21
270.1986412405099
 31
0.0
  0
LINE
  5
1C2
330
1F
100
AcDbEntity
  8
LAY-10
  6
CONTINUOUS
 62
     7
100
AcDbLine
 10
461.0000000000001
 20
269.6986412405099
 30
0.0
 11
461.4999999999999
 21
270.1986412405099
 31
0.0
  0
LINE
  5
1C3
330
1F
100
AcDbEntity
  8
LAY-10
  6
CONTINUOUS
 62
     7
100
AcDbLine
 10
459.0464469096386
 20
245.9999999999945
 30
0.0
 11
461.0000000000001
 21
245.9999999999945
 31
0.0
  0
LINE
  5
1C4
330
1F
100
AcDbEntity
  8
LAY-10
  6
CONTINUOUS
 62
     7
100
AcDbLine
 10
390.5000000000004
 20
239.99999999999
 30
0.0
 11
461.0000000000002
 21
239.99999999999
 31
0.0
  0
LINE
  5
1C5
330
1F
100
AcDbEntity
  8
LAY-10
  6
CONTINUOUS
 62
     7
100
AcDbLine
 10
465.0
 20
239.99999999999
 30
0.0
 11
517.5
 21
239.99999999999
 31
0.0
  0
LINE
  5
1C6
330
1F
100
AcDbEntity
  8
LAY-10
  6
CONTINUOUS
 62
     7
100
AcDbLine
 10
461.0000000000001
 20
227.9999999999943
 30
0.0
 11
461.0000000000001
 21
227.1986412405167
 31
0.0
  0
LINE
  5
1C7
330
1F
100
AcDbEntity
  8
LAY-10
  6
CONTINUOUS
 62
     7
100
AcDbLine
 10
526.7946920771999
 20
243.99999999999
 30
0.0
 11
546.0000000000091
 21
243.99999999999
 31
0.0
  0
LINE
  5
1C8
330
1F
100
AcDbEntity
  8
LAY-10
  6
CONTINUOUS
 62
     7
100
AcDbLine
 10
478.2442976243001
 20
243.99999999999
 30
0.0
 11
489.6569758198002
 21
243.99999999999
 31
0.0
  0
LINE
  5
1C9
330
1F
100
AcDbEntity
  8
LAY-10
  6
CONTINUOUS
 62
     7
100
AcDbLine
 10
459.0
 20
243.99999999999
 30
0.0
 11
461.0000000000001
 21
243.99999999999
 31
0.0
  0
LINE
  5
1CA
330
1F
100
AcDbEntity
  8
LAY-10
  6
CONTINUOUS
 62
     7
100
AcDbLine
 10
434.5753794616999
 20
243.99999999999
 30
0.0
 11
445.5379249533998
 21
243.99999999999
 31
0.0
  0
LINE
  5
1CB
330
1F
100
AcDbEntity
  8
LAY-10
  6
CONTINUOUS
 62
     7
100
AcDbLine
 10
415.4114522134
 20
243.99999999999
 30
0.0
 11
423.4410194897001
 21
243.99999999999
 31
0.0
  0
LINE
  5
1CC
330
1F
100
AcDbEntity
  8
LAY-10
  6
CONTINUOUS
 62
     7
100
AcDbLine
 10
404.8218353753001
 20
243.99999999999
 30
0.0
 11
408.5300393078001
 21
243.99999999999
 31
0.0
  0
LINE
  5
1CD
330
1F
100
AcDbEntity
  8
LAY-10
  6
CONTINUOUS
 62
     7
100
AcDbLine
 10
501.5759326001998
 20
243.99999999999
 30
0.0
 11
510.4936705059999
 21
243.99999999999
 31
0.0
  0
LINE
  5
1CE
330
1F
100
AcDbEntity
  8
LAY-10
  6
CONTINUOUS
 62
     7
100
AcDbLine
 10
456.9999999999999
 20
232.999999999985
 30
0.0
 11
456.9999999999999
 21
239.0519999999849
 31
0.0
  0
ARC
  5
1CF
330
1F
100
AcDbEntity
  8
LAY-10
  6
CONTINUOUS
 62
     7
100
AcDbCircle
 10
459.0
 20
236.752203208541
 30
0.0
 40
3.047796791443853
100
AcDbArc
 50
48.98840640770914
 51
131.0115935922944
  0
LINE
  5
1D0
330
1F
100
AcDbEntity
  8
LAY-10
  6
CONTINUOUS
 62
     7
100
AcDbLine
 10
461.0000000000001
 20
232.999999999985
 30
0.0
 11
461.0000000000001
 21
239.0519999999849
 31
0.0
  0
LINE
  5
1D1
330
1F
100
AcDbEntity
  8
LAY-10
  6
CONTINUOUS
 62
     7
100
AcDbLine
 10
461.0000000000001
 20
239.7999999999849
 30
0.0
 11
461.0000000000001
 21
269.6986412405117
 31
0.0
  0
LINE
  5
1D2
330
1F
100
AcDbEntity
  8
LAY-10
  6
CONTINUOUS
 62
     7
100
AcDbLine
 10
465.0
 20
232.9999999999941
 30
0.0
 11
456.9999999999999
 21
232.9999999999941
 31
0.0
  0
ARC
  5
1D3
330
1F
100
AcDbEntity
  8
LAY-10
  6
CONTINUOUS
 62
     7
100
AcDbCircle
 10
465.0
 20
228.7308128342095
 30
0.0
 40
11.06918716577541
100
AcDbArc
 50
90.0
 51
111.1839556582273
  0
LINE
  5
1D4
330
1F
100
AcDbEntity
  8
LAY-10
  6
CONTINUOUS
 62
     7
100
AcDbLine
 10
465.0
 20
239.7999999999849
 30
0.0
 11
459.0
 21
239.7999999999849
 31
0.0
  0
LINE
  5
1D5
330
1F
100
AcDbEntity
  8
LAY-10
  6
CONTINUOUS
 62
     7
100
AcDbLine
 10
530.5
 20
215.09219080145
 30
0.0
 11
535.0
 21
215.09219080145
 31
0.0
  0
LINE
  5
1D6
330
1F
100
AcDbEntity
  8
LAY-10
  6
CONTINUOUS
 62
     7
100
AcDbLine
 10
530.5
 20
160.198641240522
 30
0.0
 11
530.5
 21
215.09219080145
 31
0.0
  0
LINE
  5
1D7
330
1F
100
AcDbEntity
  8
LAY-10
  6
CONTINUOUS
 62
     7
100
AcDbLine
 10
535.0
 20
215.09219080145
 30
0.0
 11
535.0
 21
160.198641240522
 31
0.0
  0
LINE
  5
1D8
330
1F
100
AcDbEntity
  8
LAY-10
  6
CONTINUOUS
 62
     7
100
AcDbLine
 10
399.5000000000001
 20
160.198641240522
 30
0.0
 11
399.5000000000001
 21
215.09219080145
 31
0.0
  0
LINE
  5
1D9
330
1F
100
AcDbEntity
  8
LAY-10
  6
CONTINUOUS
 62
     7
100
AcDbLine
 10
395.0000000000001
 20
215.09219080145
 30
0.0
 11
395.0000000000001
 21
160.198641240522
 31
0.0
  0
LINE
  5
1DA
330
1F
100
AcDbEntity
  8
LAY-10
  6
CONTINUOUS
 62
     7
100
AcDbLine
 10
399.5000000000001
 20
215.09219080145
 30
0.0
 11
395.0000000000001
 21
215.09219080145
 31
0.0
  0
LINE
  5
1DB
330
1F
100
AcDbEntity
  8
LAY-10
  6
CONTINUOUS
 62
     7
100
AcDbLine
 10
395.0000000000001
 20
160.198641240522
 30
0.0
 11
535.0
 21
160.198641240522
 31
0.0
  0
LINE
  5
1DC
330
1F
100
AcDbEntity
  8
LAY-10
  6
CONTINUOUS
 62
     7
100
AcDbLine
 10
514.4632028779812
 20
215.1986412405213
 30
0.0
 11
524.0510354332832
 21
215.1986412405213
 31
0.0
  0
LINE
  5
1DD
330
1F
100
AcDbEntity
  8
LAY-10
  6
CONTINUOUS
 62
     7
100
AcDbLine
 10
391.8760833688752
 20
225.6986105187584
 30
0.0
 11
392.1676427502319
 21
220.8392874961519
 31
0.0
  0
ARC
  5
1DE
330
1F
100
AcDbEntity
  8
LAY-10
  6
CONTINUOUS
 62
     7
100
AcDbCircle
 10
398.1568718230266
 20
221.1986412405199
 30
0.0
 40
6.000000000000004
100
AcDbArc
 50
183.4336303624542
 51
270.0
  0
LINE
  5
1DF
330
1F
100
AcDbEntity
  8
LAY-10
  6
CONTINUOUS
 62
     7
100
AcDbLine
 10
415.5367971220189
 20
215.1986412405199
 30
0.0
 11
398.1568718230266
 21
215.1986412405199
 31
0.0
  0
ARC
  5
1E0
330
1F
100
AcDbEntity
  8
LAY-10
  6
CONTINUOUS
 62
     7
100
AcDbCircle
 10
415.5367971220189
 20
214.1986412405199
 30
0.0
 40
1.0
100
AcDbArc
 50
2.147585428296413
 51
90.0
  0
LINE
  5
1E1
330
1F
100
AcDbEntity
  8
LAY-10
  6
CONTINUOUS
 62
     7
100
AcDbLine
 10
422.0028115119241
 20
175.198641240521
 30
0.0
 11
420.5332852005646
 21
214.3860095434666
 31
0.0
  0
LINE
  5
1E2
330
1F
100
AcDbEntity
  8
LAY-10
  6
CONTINUOUS
 62
     7
100
AcDbLine
 10
417.9999999999991
 20
175.198641240521
 30
0.0
 11
416.5360947377279
 21
214.236114901109
 31
0.0
  0
LINE
  5
1E3
330
1F
100
AcDbEntity
  8
LAY-10
  6
CONTINUOUS
 62
     7
100
AcDbLine
 10
512.0000000000009
 20
175.198641240521
 30
0.0
 11
513.4639052622721
 21
214.2361149011097
 31
0.0
  0
LINE
  5
1E4
330
1F
100
AcDbEntity
  8
LAY-10
  6
CONTINUOUS
 62
     7
100
AcDbLine
 10
438.0000000000005
 20
381.6450709417977
 30
0.0
 11
437.0000000000001
 21
375.8827723109407
 31
0.0
  0
LINE
  5
1E5
330
1F
100
AcDbEntity
  8
LAY-10
  6
CONTINUOUS
 62
     7
100
AcDbLine
 10
416.069564686189
 20
604.059401076769
 30
0.0
 11
414.0695646861877
 21
602.9047005383891
 31
0.0
  0
LINE
  5
1E6
330
1F
100
AcDbEntity
  8
LAY-10
  6
CONTINUOUS
 62
     7
100
AcDbLine
 10
414.0695646861881
 20
602.9047005383889
 30
0.0
 11
414.0695646861881
 21
600.5952994616302
 31
0.0
  0
LINE
  5
1E7
330
1F
100
AcDbEntity
  8
LAY-10
  6
CONTINUOUS
 62
     7
100
AcDbLine
 10
416.0695646861877
 20
599.4405989232519
 30
0.0
 11
414.0695646861877
 21
600.595299461631
 31
0.0
  0
LINE
  5
1E8
330
1F
100
AcDbEntity
  8
LAY-10
  6
CONTINUOUS
 62
     7
100
AcDbLine
 10
418.0695646861886
 20
602.9047005383891
 30
0.0
 11
416.0695646861886
 21
604.0594010767683
 31
0.0
  0
LINE
  5
1E9
330
1F
100
AcDbEntity
  8
LAY-10
  6
CONTINUOUS
 62
     7
100
AcDbLine
 10
418.069564686189
 20
600.5952994616313
 30
0.0
 11
416.0695646861877
 21
599.4405989232512
 31
0.0
  0
LINE
  5
1EA
330
1F
100
AcDbEntity
  8
LAY-10
  6
CONTINUOUS
 62
     7
100
AcDbLine
 10
418.0695646861886
 20
602.9047005383899
 30
0.0
 11
418.0695646861881
 21
600.5952994616313
 31
0.0
  0
CIRCLE
  5
1EB
330
1F
100
AcDbEntity
  8
LAY-10
  6
CONTINUOUS
 62
     7
100
AcDbCircle
 10
416.0695646861881
 20
601.75000000001
 30
0.0
 40
3.500000000000002
  0
CIRCLE
  5
1EC
330
1F
100
AcDbEntity
  8
LAY-10
  6
CONTINUOUS
 62
     7
100
AcDbCircle
 10
416.0695646861881
 20
601.75000000001
 30
0.0
 40
4.0
  0
LINE
  5
1ED
330
1F
100
AcDbEntity
  8
LAY-10
  6
CONTINUOUS
 62
     7
100
AcDbLine
 10
511.930435313829
 20
600.5952994616313
 30
0.0
 11
513.9304353138303
 21
599.4405989232512
 31
0.0
  0
LINE
  5
1EE
330
1F
100
AcDbEntity
  8
LAY-10
  6
CONTINUOUS
 62
     7
100
AcDbLine
 10
513.9304353138303
 20
599.4405989232519
 30
0.0
 11
515.9304353138305
 21
600.595299461631
 31
0.0
  0
LINE
  5
1EF
330
1F
100
AcDbEntity
  8
LAY-10
  6
CONTINUOUS
 62
     7
100
AcDbLine
 10
515.9304353138299
 20
602.9047005383889
 30
0.0
 11
515.9304353138299
 21
600.5952994616302
 31
0.0
  0
LINE
  5
1F0
330
1F
100
AcDbEntity
  8
LAY-10
  6
CONTINUOUS
 62
     7
100
AcDbLine
 10
511.9304353138299
 20
602.9047005383899
 30
0.0
 11
511.9304353138299
 21
600.5952994616313
 31
0.0
  0
LINE
  5
1F1
330
1F
100
AcDbEntity
  8
LAY-10
  6
CONTINUOUS
 62
     7
100
AcDbLine
 10
513.930435313829
 20
604.0594010767688
 30
0.0
 11
515.9304353138305
 21
602.9047005383889
 31
0.0
  0
LINE
  5
1F2
330
1F
100
AcDbEntity
  8
LAY-10
  6
CONTINUOUS
 62
     7
100
AcDbLine
 10
511.930435313829
 20
602.9047005383891
 30
0.0
 11
513.9304353138295
 21
604.0594010767683
 31
0.0
  0
CIRCLE
  5
1F3
330
1F
100
AcDbEntity
  8
LAY-10
  6
CONTINUOUS
 62
     7
100
AcDbCircle
 10
513.93043531383
 20
601.75000000001
 30
0.0
 40
3.500000000000002
  0
CIRCLE
  5
1F4
330
1F
100
AcDbEntity
  8
LAY-10
  6
CONTINUOUS
 62
     7
100
AcDbCircle
 10
513.93043531383
 20
601.75000000001
 30
0.0
 40
4.0
  0
LINE
  5
1F5
330
1F
100
AcDbEntity
  8
LAY-10
  6
CONTINUOUS
 62
     7
100
AcDbLine
 10
467.000000000009
 20
685.34529946163
 30
0.0
 11
467.000000000009
 21
687.6547005383901
 31
0.0
  0
LINE
  5
1F6
330
1F
100
AcDbEntity
  8
LAY-10
  6
CONTINUOUS
 62
     7
100
AcDbLine
 10
467.0000000000086
 20
687.6547005383894
 30
0.0
 11
465.0000000000085
 21
688.8094010767688
 31
0.0
  0
LINE
  5
1F7
330
1F
100
AcDbEntity
  8
LAY-10
  6
CONTINUOUS
 62
     7
100
AcDbLine
 10
463.0000000000095
 20
687.6547005383894
 30
0.0
 11
465.0000000000095
 21
688.8094010767688
 31
0.0
  0
LINE
  5
1F8
330
1F
100
AcDbEntity
  8
LAY-10
  6
CONTINUOUS
 62
     7
100
AcDbLine
 10
465.0000000000085
 20
684.1905989232512
 30
0.0
 11
467.0000000000086
 21
685.3452994616306
 31
0.0
  0
LINE
  5
1F9
330
1F
100
AcDbEntity
  8
LAY-10
  6
CONTINUOUS
 62
     7
100
AcDbLine
 10
463.000000000009
 20
685.34529946163
 30
0.0
 11
463.000000000009
 21
687.6547005383901
 31
0.0
  0
LINE
  5
1FA
330
1F
100
AcDbEntity
  8
LAY-10
  6
CONTINUOUS
 62
     7
100
AcDbLine
 10
465.0000000000095
 20
684.1905989232512
 30
0.0
 11
463.0000000000095
 21
685.3452994616306
 31
0.0
  0
CIRCLE
  5
1FB
330
1F
100
AcDbEntity
  8
LAY-10
  6
CONTINUOUS
 62
     7
100
AcDbCircle
 10
465.000000000009
 20
686.50000000001
 30
0.0
 40
3.500000000000002
  0
CIRCLE
  5
1FC
330
1F
100
AcDbEntity
  8
LAY-10
  6
CONTINUOUS
 62
     7
100
AcDbCircle
 10
465.000000000009
 20
686.50000000001
 30
0.0
 40
4.0
  0
LINE
  5
1FD
330
1F
100
AcDbEntity
  8
LAY-10
  6
CONTINUOUS
 62
     7
100
AcDbLine
 10
384.5996323728262
 20
626.0000000000101
 30
0.0
 11
384.0988257192857
 21
626.0000000000101
 31
0.0
  0
LINE
  5
1FE
330
1F
100
AcDbEntity
  8
LAY-10
  6
CONTINUOUS
 62
     7
100
AcDbLine
 10
384.5996323728262
 20
634.00000000001
 30
0.0
 11
384.0988257192857
 21
634.00000000001
 31
0.0
  0
ARC
  5
1FF
330
1F
100
AcDbEntity
  8
LAY-10
  6
CONTINUOUS
 62
     7
100
AcDbCircle
 10
389.500000000009
 20
630.00000000001
 30
0.0
 40
4.0
100
AcDbArc
 50
320.8995693451415
 51
39.10043065485871
  0
LINE
  5
200
330
1F
100
AcDbEntity
  8
LAY-10
  6
CONTINUOUS
 62
     7
100
AcDbLine
 10
545.400367627194
 20
634.00000000001
 30
0.0
 11
545.9011742807323
 21
634.00000000001
 31
0.0
  0
LINE
  5
201
330
1F
100
AcDbEntity
  8
LAY-10
  6
CONTINUOUS
 62
     7
100
AcDbLine
 10
545.400367627194
 20
626.0000000000101
 30
0.0
 11
545.9011742807323
 21
626.0000000000101
 31
0.0
  0
ARC
  5
202
330
1F
100
AcDbEntity
  8
LAY-10
  6
CONTINUOUS
 62
     7
100
AcDbCircle
 10
540.500000000009
 20
630.00000000001
 30
0.0
 40
4.0
100
AcDbArc
 50
140.8995693449845
 51
219.100430655012
  0
LINE
  5
203
330
1F
100
AcDbEntity
  8
LAY-10
  6
CONTINUOUS
 62
     7
100
AcDbLine
 10
392.9633927678703
 20
631.7109156121777
 30
0.0
 11
384.0366072322064
 21
626.5570335801741
 31
0.0
  0
LINE
  5
204
330
1F
100
AcDbEntity
  8
LAY-10
  6
CONTINUOUS
 62
     7
100
AcDbLine
 10
391.9633927678727
 20
633.4429664197794
 30
0.0
 11
383.0366072321794
 21
628.2890843877587
 31
0.0
  0
CIRCLE
  5
205
330
1F
100
AcDbEntity
  8
LAY-10
  6
CONTINUOUS
 62
     7
100
AcDbCircle
 10
388.0000000000102
 20
630.00000000001
 30
0.0
 40
5.250000000000004
  0
LINE
  5
206
330
1F
100
AcDbEntity
  8
LAY-10
  6
CONTINUOUS
 62
     7
100
AcDbLine
 10
546.9633927678702
 20
631.7109156121777
 30
0.0
 11
538.0366072322064
 21
626.5570335801741
 31
0.0
  0
LINE
  5
207
330
1F
100
AcDbEntity
  8
LAY-10
  6
CONTINUOUS
 62
     7
100
AcDbLine
 10
545.9633927678727
 20
633.4429664197794
 30
0.0
 11
537.0366072321793
 21
628.2890843877587
 31
0.0
  0
CIRCLE
  5
208
330
1F
100
AcDbEntity
  8
LAY-10
  6
CONTINUOUS
 62
     7
100
AcDbCircle
 10
542.0000000000101
 20
630.00000000001
 30
0.0
 40
5.250000000000004
  0
LINE
  5
209
330
1F
100
AcDbEntity
  8
LAY-10
  6
CONTINUOUS
 62
     7
100
AcDbLine
 10
460.700000000009
 20
710.8857836705662
 30
0.0
 11
460.700000000009
 21
712.3878631838545
 31
0.0
  0
LINE
  5
20A
330
1F
100
AcDbEntity
  8
LAY-10
  6
CONTINUOUS
 62
     7
100
AcDbLine
 10
461.000000000009
 20
712.661715072883
 30
0.0
 11
461.000000000009
 21
710.9011742807336
 31
0.0
  0
LINE
  5
20B
330
1F
100
AcDbEntity
  8
LAY-10
  6
CONTINUOUS
 62
     7
100
AcDbLine
 10
469.000000000009
 20
712.661715072883
 30
0.0
 11
469.000000000009
 21
710.9011742807336
 31
0.0
  0
LINE
  5
20C
330
1F
100
AcDbEntity
  8
LAY-10
  6
CONTINUOUS
 62
     7
100
AcDbLine
 10
469.3000000000087
 20
712.3878631838545
 30
0.0
 11
469.3000000000087
 21
710.8857836705662
 31
0.0
  0
LINE
  5
20D
330
1F
100
AcDbEntity
  8
LAY-10
  6
CONTINUOUS
 62
     7
100
AcDbLine
 10
460.700000000009
 20
549.114216329454
 30
0.0
 11
460.700000000009
 21
547.6121368161657
 31
0.0
  0
LINE
  5
20E
330
1F
100
AcDbEntity
  8
LAY-10
  6
CONTINUOUS
 62
     7
100
AcDbLine
 10
461.000000000009
 20
547.3382849271372
 30
0.0
 11
461.000000000009
 21
549.0988257192865
 31
0.0
  0
LINE
  5
20F
330
1F
100
AcDbEntity
  8
LAY-10
  6
CONTINUOUS
 62
     7
100
AcDbLine
 10
469.000000000009
 20
547.3382849271372
 30
0.0
 11
469.000000000009
 21
549.0988257192865
 31
0.0
  0
LINE
  5
210
330
1F
100
AcDbEntity
  8
LAY-10
  6
CONTINUOUS
 62
     7
100
AcDbLine
 10
469.3000000000087
 20
547.6121368161657
 30
0.0
 11
469.3000000000087
 21
549.114216329454
 31
0.0
  0
LINE
  5
211
330
1F
100
AcDbEntity
  8
LAY-10
  6
CONTINUOUS
 62
     7
100
AcDbLine
 10
545.7543612559642
 20
636.3034227323569
 30
0.0
 11
547.258840630407
 21
636.3034227323569
 31
0.0
  0
LINE
  5
212
330
1F
100
AcDbEntity
  8
LAY-10
  6
CONTINUOUS
 62
     7
100
AcDbLine
 10
545.7774721070267
 20
636.000000000009
 30
0.0
 11
547.5406514318269
 21
636.000000000009
 31
0.0
  0
LINE
  5
213
330
1F
100
AcDbEntity
  8
LAY-10
  6
CONTINUOUS
 62
     7
100
AcDbLine
 10
545.7774721070267
 20
624.0000000000113
 30
0.0
 11
547.5406514318269
 21
624.0000000000113
 31
0.0
  0
LINE
  5
214
330
1F
100
AcDbEntity
  8
LAY-10
  6
CONTINUOUS
 62
     7
100
AcDbLine
 10
545.7543612559642
 20
623.6965772676633
 30
0.0
 11
547.258840630407
 21
623.6965772676633
 31
0.0
  0
LINE
  5
215
330
1F
100
AcDbEntity
  8
LAY-10
  6
CONTINUOUS
 62
     7
100
AcDbLine
 10
384.2456387440537
 20
636.3034227323569
 30
0.0
 11
382.7411593696112
 21
636.3034227323569
 31
0.0
  0
LINE
  5
216
330
1F
100
AcDbEntity
  8
LAY-10
  6
CONTINUOUS
 62
     7
100
AcDbLine
 10
384.2225278929913
 20
636.000000000009
 30
0.0
 11
382.4593485681914
 21
636.000000000009
 31
0.0
  0
LINE
  5
217
330
1F
100
AcDbEntity
  8
LAY-10
  6
CONTINUOUS
 62
     7
100
AcDbLine
 10
384.2225278929913
 20
624.0000000000113
 30
0.0
 11
382.4593485681914
 21
624.0000000000113
 31
0.0
  0
LINE
  5
218
330
1F
100
AcDbEntity
  8
LAY-10
  6
CONTINUOUS
 62
     7
100
AcDbLine
 10
384.2456387440537
 20
623.6965772676633
 30
0.0
 11
382.7411593696112
 21
623.6965772676633
 31
0.0
  0
ARC
  5
219
330
1F
100
AcDbEntity
  8
LAY-10
  6
CONTINUOUS
 62
     7
100
AcDbCircle
 10
465.0000000000363
 20
630.000000000001
 30
0.0
 40
61.6183650964572
100
AcDbArc
 50
276.412051277889
 51
287.5879487219901
  0
ARC
  5
21A
330
1F
100
AcDbEntity
  8
LAY-10
  6
CONTINUOUS
 62
     7
100
AcDbCircle
 10
471.4495422799864
 20
599.6572891972005
 30
0.0
 40
4.0205850119601
100
AcDbArc
 50
17.58794872205077
 51
186.4120512778995
  0
ARC
  5
21B
330
1F
100
AcDbEntity
  8
LAY-10
  6
CONTINUOUS
 62
     7
100
AcDbCircle
 10
471.4495422799864
 20
599.6572891972005
 30
0.0
 40
3.0205850119601
100
AcDbArc
 50
17.58794872204653
 51
186.4120512779017
  0
LINE
  5
21C
330
1F
100
AcDbEntity
  8
LAY-10
  6
CONTINUOUS
 62
     7
100
AcDbLine
 10
472.3350159689598
 20
564.7307933343918
 30
0.0
 11
468.4478526843126
 21
599.3199564450107
 31
0.0
  0
LINE
  5
21D
330
1F
100
AcDbEntity
  8
LAY-10
  6
CONTINUOUS
 62
     7
100
AcDbLine
 10
467.4541082328937
 20
599.2082784916148
 30
0.0
 11
471.3412715175413
 21
564.6191153809959
 31
0.0
  0
ARC
  5
21E
330
1F
100
AcDbEntity
  8
LAY-10
  6
CONTINUOUS
 62
     7
100
AcDbCircle
 10
465.000000000009
 20
630.00000000001
 30
0.0
 40
65.68007154400004
100
AcDbArc
 50
263.5879487220877
 51
276.4120512779918
  0
ARC
  5
21F
330
1F
100
AcDbEntity
  8
LAY-10
  6
CONTINUOUS
 62
     7
100
AcDbCircle
 10
464.9999999999818
 20
630.0000000000014
 30
0.0
 40
61.6183650964572
100
AcDbArc
 50
252.4120512780102
 51
263.5879487221113
  0
ARC
  5
220
330
1F
100
AcDbEntity
  8
LAY-10
  6
CONTINUOUS
 62
     7
100
AcDbCircle
 10
458.5504577200317
 20
599.6572891972005
 30
0.0
 40
3.0205850119601
100
AcDbArc
 50
353.5879487220984
 51
162.4120512779559
  0
ARC
  5
221
330
1F
100
AcDbEntity
  8
LAY-10
  6
CONTINUOUS
 62
     7
100
AcDbCircle
 10
458.5504577200317
 20
599.6572891972005
 30
0.0
 40
4.0205850119601
100
AcDbArc
 50
353.5879487220746
 51
162.4120512779494
  0
LINE
  5
222
330
1F
100
AcDbEntity
  8
LAY-10
  6
CONTINUOUS
 62
     7
100
AcDbLine
 10
462.5458917671244
 20
599.2082784916148
 30
0.0
 11
458.6587284824768
 21
564.6191153809959
 31
0.0
  0
LINE
  5
223
330
1F
100
AcDbEntity
  8
LAY-10
  6
CONTINUOUS
 62
     7
100
AcDbLine
 10
457.6649840310582
 20
564.7307933343918
 30
0.0
 11
461.5521473157054
 21
599.3199564450107
 31
0.0
  0
LINE
  5
224
330
1F
100
AcDbEntity
  8
LAY-10
  6
CONTINUOUS
 62
     7
100
AcDbLine
 10
475.2821820121162
 20
600.8721869386172
 30
0.0
 11
485.7997617406981
 21
567.6923623497578
 31
0.0
  0
LINE
  5
225
330
1F
100
AcDbEntity
  8
LAY-10
  6
CONTINUOUS
 62
     7
100
AcDbLine
 10
484.8465074951768
 20
567.3901929545573
 30
0.0
 11
474.3289277665953
 21
600.5700175434163
 31
0.0
  0
ARC
  5
226
330
1F
100
AcDbEntity
  8
LAY-10
  6
CONTINUOUS
 62
     7
100
AcDbCircle
 10
465.000000000009
 20
630.00000000001
 30
0.0
 40
65.68007154400004
100
AcDbArc
 50
287.5879487220357
 51
300.412051277939
  0
ARC
  5
227
330
1F
100
AcDbEntity
  8
LAY-10
  6
CONTINUOUS
 62
     7
100
AcDbCircle
 10
465.000000000009
 20
629.9999999999814
 30
0.0
 40
61.6183650964572
100
AcDbArc
 50
84.41205127795449
 51
95.58794872204614
  0
LINE
  5
228
330
1F
100
AcDbEntity
  8
LAY-10
  6
CONTINUOUS
 62
     7
100
AcDbLine
 10
471.3955028447744
 20
695.3679534740754
 30
0.0
 11
468.0062308990418
 21
660.7264598750339
 31
0.0
  0
LINE
  5
229
330
1F
100
AcDbEntity
  8
LAY-10
  6
CONTINUOUS
 62
     7
100
AcDbLine
 10
472.3907507477897
 20
695.27057990711
 30
0.0
 11
469.0014788020575
 21
660.6290863080691
 31
0.0
  0
ARC
  5
22A
330
1F
100
AcDbEntity
  8
LAY-10
  6
CONTINUOUS
 62
     7
100
AcDbCircle
 10
465.000000000009
 20
630.00000000001
 30
0.0
 40
65.68007154400004
100
AcDbArc
 50
71.58794872204878
 51
84.41205127795133
  0
ARC
  5
22B
330
1F
100
AcDbEntity
  8
LAY-10
  6
CONTINUOUS
 62
     7
100
AcDbCircle
 10
495.8506510015276
 20
626.7574659190386
 30
0.0
 40
3.0205850119601
100
AcDbArc
 50
89.58794872204017
 51
258.4120512779556
  0
LINE
  5
22C
330
1F
100
AcDbEntity
  8
LAY-10
  6
CONTINUOUS
 62
     7
100
AcDbLine
 10
530.6783730695606
 20
629.5276558874161
 30
0.0
 11
495.8723738089706
 21
629.7779728192318
 31
0.0
  0
LINE
  5
22D
330
1F
100
AcDbEntity
  8
LAY-10
  6
CONTINUOUS
 62
     7
100
AcDbLine
 10
529.3413489011859
 20
616.8067206653977
 30
0.0
 11
495.2439004167631
 21
623.79844791599
 31
0.0
  0
LINE
  5
22E
330
1F
100
AcDbEntity
  8
LAY-10
  6
CONTINUOUS
 62
     7
100
AcDbLine
 10
529.1404770229365
 20
615.8271031438471
 30
0.0
 11
495.0430285385136
 21
622.8188303944395
 31
0.0
  0
ARC
  5
22F
330
1F
100
AcDbEntity
  8
LAY-10
  6
CONTINUOUS
 62
     7
100
AcDbCircle
 10
491.8646146606097
 20
614.4897074940233
 30
0.0
 40
3.0205850119601
100
AcDbArc
 50
65.58794872204132
 51
234.4120512779523
  0
LINE
  5
230
330
1F
100
AcDbEntity
  8
LAY-10
  6
CONTINUOUS
 62
     7
100
AcDbLine
 10
524.8080597243201
 20
602.8546911965132
 30
0.0
 11
493.1130102696483
 21
617.2402423906956
 31
0.0
  0
LINE
  5
231
330
1F
100
AcDbEntity
  8
LAY-10
  6
CONTINUOUS
 62
     7
100
AcDbLine
 10
518.4125568795547
 20
591.7773553294282
 30
0.0
 11
490.1067793706151
 21
612.0332977342869
 31
0.0
  0
ARC
  5
232
330
1F
100
AcDbEntity
  8
LAY-10
  6
CONTINUOUS
 62
     7
100
AcDbCircle
 10
491.8646146606097
 20
614.4897074940233
 30
0.0
 40
4.0205850119601
100
AcDbArc
 50
65.58794872204543
 51
234.41205127795
  0
LINE
  5
233
330
1F
100
AcDbEntity
  8
LAY-10
  6
CONTINUOUS
 62
     7
100
AcDbLine
 10
493.5263062385069
 20
618.1508391412527
 30
0.0
 11
525.2213556931787
 21
603.7652879470702
 31
0.0
  0
LINE
  5
234
330
1F
100
AcDbEntity
  8
LAY-10
  6
CONTINUOUS
 62
     7
100
AcDbLine
 10
517.8306049453981
 20
590.9641321458363
 30
0.0
 11
489.5248274364585
 21
611.2200745506952
 31
0.0
  0
ARC
  5
235
330
1F
100
AcDbEntity
  8
LAY-10
  6
CONTINUOUS
 62
     7
100
AcDbCircle
 10
483.2334423875104
 20
604.9038195498771
 30
0.0
 40
3.0205850119601
100
AcDbArc
 50
41.58794872204573
 51
210.4120512779524
  0
LINE
  5
236
330
1F
100
AcDbEntity
  8
LAY-10
  6
CONTINUOUS
 62
     7
100
AcDbLine
 10
508.59638951358
 20
580.8753970051234
 30
0.0
 11
485.4926518560236
 21
606.9087899715687
 31
0.0
  0
LINE
  5
237
330
1F
100
AcDbEntity
  8
LAY-10
  6
CONTINUOUS
 62
     7
100
AcDbLine
 10
498.2482485356031
 20
573.3570324988283
 30
0.0
 11
480.6284680833581
 21
603.3747535966936
 31
0.0
  0
ARC
  5
238
330
1F
100
AcDbEntity
  8
LAY-10
  6
CONTINUOUS
 62
     7
100
AcDbCircle
 10
483.2334423875104
 20
604.9038195498771
 30
0.0
 40
4.0205850119601
100
AcDbArc
 50
41.58794872205353
 51
210.4120512779483
  0
LINE
  5
239
330
1F
100
AcDbEntity
  8
LAY-10
  6
CONTINUOUS
 62
     7
100
AcDbLine
 10
486.2405895765541
 20
607.5725588818136
 30
0.0
 11
509.34432723411
 21
581.5391659153684
 31
0.0
  0
LINE
  5
23A
330
1F
100
AcDbEntity
  8
LAY-10
  6
CONTINUOUS
 62
     7
100
AcDbLine
 10
497.3858413218221
 20
572.8508173295386
 30
0.0
 11
479.7660608695773
 21
602.8685384274036
 31
0.0
  0
ARC
  5
23B
330
1F
100
AcDbEntity
  8
LAY-10
  6
CONTINUOUS
 62
     7
100
AcDbCircle
 10
465.000000000009
 20
630.00000000001
 30
0.0
 40
65.68007154400004
100
AcDbArc
 50
335.5879487220395
 51
348.4120512779436
  0
ARC
  5
23C
330
1F
100
AcDbEntity
  8
LAY-10
  6
CONTINUOUS
 62
     7
100
AcDbCircle
 10
465.000000000009
 20
630.00000000001
 30
0.0
 40
65.68007154400004
100
AcDbArc
 50
311.5879487220374
 51
324.412051277941
  0
ARC
  5
23D
330
1F
100
AcDbEntity
  8
LAY-10
  6
CONTINUOUS
 62
     7
100
AcDbCircle
 10
465.000000000009
 20
629.9999999999814
 30
0.0
 40
61.6183650964572
100
AcDbArc
 50
300.4120512779521
 51
311.5879487220539
  0
ARC
  5
23E
330
1F
100
AcDbEntity
  8
LAY-10
  6
CONTINUOUS
 62
     7
100
AcDbCircle
 10
465.000000000009
 20
629.9999999999814
 30
0.0
 40
61.6183650964572
100
AcDbArc
 50
324.4120512779616
 51
335.5879487220632
  0
ARC
  5
23F
330
1F
100
AcDbEntity
  8
LAY-10
  6
CONTINUOUS
 62
     7
100
AcDbCircle
 10
465.000000000009
 20
629.9999999999814
 30
0.0
 40
61.6183650964572
100
AcDbArc
 50
348.4120512779691
 51
359.5879487220682
  0
LINE
  5
240
330
1F
100
AcDbEntity
  8
LAY-10
  6
CONTINUOUS
 62
     7
100
AcDbLine
 10
545.3803458564433
 20
620.0000000000101
 30
0.0
 11
525.8015042343685
 21
620.0000000000101
 31
0.0
  0
LINE
  5
241
330
1F
100
AcDbEntity
  8
LAY-10
  6
CONTINUOUS
 62
     7
100
AcDbLine
 10
545.3803458564433
 20
640.00000000001
 30
0.0
 11
529.9143420056471
 21
640.00000000001
 31
0.0
  0
ARC
  5
242
330
1F
100
AcDbEntity
  8
LAY-10
  6
CONTINUOUS
 62
     7
100
AcDbCircle
 10
465.000000000009
 20
629.9999999999814
 30
0.0
 40
61.6183650964572
100
AcDbArc
 50
60.41205127796413
 51
71.58794872205708
  0
ARC
  5
243
330
1F
100
AcDbEntity
  8
LAY-10
  6
CONTINUOUS
 62
     7
100
AcDbCircle
 10
465.000000000009
 20
629.9999999999814
 30
0.0
 40
61.6183650964572
100
AcDbArc
 50
36.41205127797015
 51
47.58794872206488
  0
ARC
  5
244
330
1F
100
AcDbEntity
  8
LAY-10
  6
CONTINUOUS
 62
     7
100
AcDbCircle
 10
465.000000000009
 20
629.9999999999814
 30
0.0
 40
61.6183650964572
100
AcDbArc
 50
12.41205127797198
 51
23.58794872206895
  0
ARC
  5
245
330
1F
100
AcDbEntity
  8
LAY-10
  6
CONTINUOUS
 62
     7
100
AcDbCircle
 10
465.000000000009
 20
630.00000000001
 30
0.0
 40
65.68007154400004
100
AcDbArc
 50
359.5879487220421
 51
12.41205127794574
  0
ARC
  5
246
330
1F
100
AcDbEntity
  8
LAY-10
  6
CONTINUOUS
 62
     7
100
AcDbCircle
 10
465.000000000009
 20
630.00000000001
 30
0.0
 40
65.68007154400004
100
AcDbArc
 50
23.58794872204454
 51
36.41205127794866
  0
ARC
  5
247
330
1F
100
AcDbEntity
  8
LAY-10
  6
CONTINUOUS
 62
     7
100
AcDbCircle
 10
465.000000000009
 20
630.00000000001
 30
0.0
 40
65.68007154400004
100
AcDbArc
 50
47.58794872204673
 51
60.412051277951
  0
LINE
  5
248
330
1F
100
AcDbEntity
  8
LAY-10
  6
CONTINUOUS
 62
     7
100
AcDbLine
 10
495.8795653984661
 20
630.7779469594179
 30
0.0
 11
530.685564659056
 21
630.5276300276018
 31
0.0
  0
ARC
  5
249
330
1F
100
AcDbEntity
  8
LAY-10
  6
CONTINUOUS
 62
     7
100
AcDbCircle
 10
495.8506510015276
 20
626.7574659190386
 30
0.0
 40
4.0205850119601
100
AcDbArc
 50
89.58794872204447
 51
258.4120512779484
  0
LINE
  5
24A
330
1F
100
AcDbEntity
  8
LAY-10
  6
CONTINUOUS
 62
     7
100
AcDbLine
 10
529.3598779252683
 20
643.1406967650147
 30
0.0
 11
495.3665170739141
 21
635.6592757018648
 31
0.0
  0
LINE
  5
24B
330
1F
100
AcDbEntity
  8
LAY-10
  6
CONTINUOUS
 62
     7
100
AcDbLine
 10
492.8934671689858
 20
643.270540680875
 30
0.0
 11
524.7921427607612
 21
657.198740082995
 31
0.0
  0
ARC
  5
24C
330
1F
100
AcDbEntity
  8
LAY-10
  6
CONTINUOUS
 62
     7
100
AcDbCircle
 10
494.5023295149161
 20
639.5858879441513
 30
0.0
 40
4.0205850119601
100
AcDbArc
 50
113.5879487220496
 51
282.4120512779457
  0
LINE
  5
24D
330
1F
100
AcDbEntity
  8
LAY-10
  6
CONTINUOUS
 62
     7
100
AcDbLine
 10
529.1449371749976
 20
644.1173238555016
 30
0.0
 11
495.1515763236434
 21
636.6359027923518
 31
0.0
  0
LINE
  5
24E
330
1F
100
AcDbEntity
  8
LAY-10
  6
CONTINUOUS
 62
     7
100
AcDbLine
 10
525.1922990417861
 20
656.2822931664982
 30
0.0
 11
493.2936234500107
 21
642.3540937643784
 31
0.0
  0
ARC
  5
24F
330
1F
100
AcDbEntity
  8
LAY-10
  6
CONTINUOUS
 62
     7
100
AcDbCircle
 10
494.5023295149161
 20
639.5858879441513
 30
0.0
 40
3.0205850119601
100
AcDbArc
 50
113.5879487220494
 51
282.4120512779539
  0
LINE
  5
250
330
1F
100
AcDbEntity
  8
LAY-10
  6
CONTINUOUS
 62
     7
100
AcDbLine
 10
518.4508712431866
 20
668.1821445360303
 30
0.0
 11
490.4393589360879
 21
647.5211808275341
 31
0.0
  0
LINE
  5
251
330
1F
100
AcDbEntity
  8
LAY-10
  6
CONTINUOUS
 62
     7
100
AcDbLine
 10
485.0843350617941
 20
653.4685373595335
 30
0.0
 11
508.5601161845669
 21
679.1669408852432
 31
0.0
  0
ARC
  5
252
330
1F
100
AcDbEntity
  8
LAY-10
  6
CONTINUOUS
 62
     7
100
AcDbCircle
 10
488.0527872349261
 20
650.7568228586639
 30
0.0
 40
4.0205850119601
100
AcDbArc
 50
137.5879487220494
 51
306.4120512779492
  0
LINE
  5
253
330
1F
100
AcDbEntity
  8
LAY-10
  6
CONTINUOUS
 62
     7
100
AcDbLine
 10
517.8572830727926
 20
668.9869134991301
 30
0.0
 11
489.8457707656943
 21
648.3259497906339
 31
0.0
  0
LINE
  5
254
330
1F
100
AcDbEntity
  8
LAY-10
  6
CONTINUOUS
 62
     7
100
AcDbLine
 10
509.2984296798176
 20
678.4924831899566
 30
0.0
 11
485.8226485570448
 21
652.7940796642471
 31
0.0
  0
ARC
  5
255
330
1F
100
AcDbEntity
  8
LAY-10
  6
CONTINUOUS
 62
     7
100
AcDbCircle
 10
488.0527872349261
 20
650.7568228586639
 30
0.0
 40
3.0205850119601
100
AcDbArc
 50
137.5879487220438
 51
306.4120512779491
  0
LINE
  5
256
330
1F
100
AcDbEntity
  8
LAY-10
  6
CONTINUOUS
 62
     7
100
AcDbLine
 10
498.2997233372366
 20
686.6215526428741
 30
0.0
 11
481.113504528892
 21
656.353514613193
 31
0.0
  0
LINE
  5
257
330
1F
100
AcDbEntity
  8
LAY-10
  6
CONTINUOUS
 62
     7
100
AcDbLine
 10
473.8024389619627
 20
659.6086107237616
 30
0.0
 11
484.796149788829
 21
692.6337309407992
 31
0.0
  0
ARC
  5
258
330
1F
100
AcDbEntity
  8
LAY-10
  6
CONTINUOUS
 62
     7
100
AcDbCircle
 10
477.6172086140204
 20
658.3387145310991
 30
0.0
 40
4.0205850119601
100
AcDbArc
 50
161.587948722043
 51
330.4120512779504
  0
LINE
  5
259
330
1F
100
AcDbEntity
  8
LAY-10
  6
CONTINUOUS
 62
     7
100
AcDbLine
 10
497.4301245339601
 20
687.1153116137707
 30
0.0
 11
480.2439057256151
 21
656.8472735840892
 31
0.0
  0
LINE
  5
25A
330
1F
100
AcDbEntity
  8
LAY-10
  6
CONTINUOUS
 62
     7
100
AcDbLine
 10
485.744959387609
 20
692.317882329494
 30
0.0
 11
474.7512485607426
 21
659.2927621124563
 31
0.0
  0
ARC
  5
25B
330
1F
100
AcDbEntity
  8
LAY-10
  6
CONTINUOUS
 62
     7
100
AcDbCircle
 10
477.6172086140204
 20
658.3387145310991
 30
0.0
 40
3.0205850119601
100
AcDbArc
 50
161.5879487220434
 51
330.412051277949
  0
ARC
  5
25C
330
1F
100
AcDbEntity
  8
LAY-10
  6
CONTINUOUS
 62
     7
100
AcDbCircle
 10
434.1493489984904
 20
626.7574659190386
 30
0.0
 40
3.0205850119601
100
AcDbArc
 50
281.5879487220446
 51
90.4120512779599
  0
LINE
  5
25D
330
1F
100
AcDbEntity
  8
LAY-10
  6
CONTINUOUS
 62
     7
100
AcDbLine
 10
399.3216269304575
 20
629.5276558874161
 30
0.0
 11
434.1276261910474
 21
629.7779728192318
 31
0.0
  0
LINE
  5
25E
330
1F
100
AcDbEntity
  8
LAY-10
  6
CONTINUOUS
 62
     7
100
AcDbLine
 10
400.6586510988322
 20
616.8067206653977
 30
0.0
 11
434.7560995832549
 21
623.79844791599
 31
0.0
  0
LINE
  5
25F
330
1F
100
AcDbEntity
  8
LAY-10
  6
CONTINUOUS
 62
     7
100
AcDbLine
 10
400.8595229770816
 20
615.8271031438471
 30
0.0
 11
434.9569714615045
 21
622.8188303944395
 31
0.0
  0
ARC
  5
260
330
1F
100
AcDbEntity
  8
LAY-10
  6
CONTINUOUS
 62
     7
100
AcDbCircle
 10
438.1353853394083
 20
614.4897074940233
 30
0.0
 40
3.0205850119601
100
AcDbArc
 50
305.587948722046
 51
114.4120512779587
  0
LINE
  5
261
330
1F
100
AcDbEntity
  8
LAY-10
  6
CONTINUOUS
 62
     7
100
AcDbLine
 10
405.191940275698
 20
602.8546911965132
 30
0.0
 11
436.8869897303697
 21
617.2402423906956
 31
0.0
  0
LINE
  5
262
330
1F
100
AcDbEntity
  8
LAY-10
  6
CONTINUOUS
 62
     7
100
AcDbLine
 10
411.5874431204633
 20
591.7773553294282
 30
0.0
 11
439.8932206294029
 21
612.0332977342869
 31
0.0
  0
ARC
  5
263
330
1F
100
AcDbEntity
  8
LAY-10
  6
CONTINUOUS
 62
     7
100
AcDbCircle
 10
438.1353853394083
 20
614.4897074940233
 30
0.0
 40
4.0205850119601
100
AcDbArc
 50
305.5879487220481
 51
114.4120512779546
  0
LINE
  5
264
330
1F
100
AcDbEntity
  8
LAY-10
  6
CONTINUOUS
 62
     7
100
AcDbLine
 10
436.4736937615111
 20
618.1508391412527
 30
0.0
 11
404.7786443068393
 21
603.7652879470702
 31
0.0
  0
LINE
  5
265
330
1F
100
AcDbEntity
  8
LAY-10
  6
CONTINUOUS
 62
     7
100
AcDbLine
 10
412.1693950546199
 20
590.9641321458363
 30
0.0
 11
440.4751725635596
 21
611.2200745506952
 31
0.0
  0
ARC
  5
266
330
1F
100
AcDbEntity
  8
LAY-10
  6
CONTINUOUS
 62
     7
100
AcDbCircle
 10
446.7665576125077
 20
604.9038195498771
 30
0.0
 40
3.0205850119601
100
AcDbArc
 50
329.5879487220471
 51
138.4120512779566
  0
LINE
  5
267
330
1F
100
AcDbEntity
  8
LAY-10
  6
CONTINUOUS
 62
     7
100
AcDbLine
 10
421.403610486438
 20
580.8753970051234
 30
0.0
 11
444.5073481439944
 21
606.9087899715687
 31
0.0
  0
LINE
  5
268
330
1F
100
AcDbEntity
  8
LAY-10
  6
CONTINUOUS
 62
     7
100
AcDbLine
 10
431.751751464415
 20
573.3570324988283
 30
0.0
 11
449.3715319166599
 21
603.3747535966936
 31
0.0
  0
ARC
  5
269
330
1F
100
AcDbEntity
  8
LAY-10
  6
CONTINUOUS
 62
     7
100
AcDbCircle
 10
446.7665576125077
 20
604.9038195498771
 30
0.0
 40
4.0205850119601
100
AcDbArc
 50
329.5879487220517
 51
138.4120512779493
  0
LINE
  5
26A
330
1F
100
AcDbEntity
  8
LAY-10
  6
CONTINUOUS
 62
     7
100
AcDbLine
 10
443.759410423464
 20
607.5725588818136
 30
0.0
 11
420.655672765908
 21
581.5391659153684
 31
0.0
  0
LINE
  5
26B
330
1F
100
AcDbEntity
  8
LAY-10
  6
CONTINUOUS
 62
     7
100
AcDbLine
 10
432.6141586781959
 20
572.8508173295386
 30
0.0
 11
450.2339391304407
 21
602.8685384274036
 31
0.0
  0
LINE
  5
26C
330
1F
100
AcDbEntity
  8
LAY-10
  6
CONTINUOUS
 62
     7
100
AcDbLine
 10
445.1534925048412
 20
567.3901929545573
 30
0.0
 11
455.6710722334228
 21
600.5700175434163
 31
0.0
  0
LINE
  5
26D
330
1F
100
AcDbEntity
  8
LAY-10
  6
CONTINUOUS
 62
     7
100
AcDbLine
 10
454.7178179879019
 20
600.8721869386172
 30
0.0
 11
444.20023825932
 21
567.6923623497578
 31
0.0
  0
ARC
  5
26E
330
1F
100
AcDbEntity
  8
LAY-10
  6
CONTINUOUS
 62
     7
100
AcDbCircle
 10
465.000000000009
 20
630.00000000001
 30
0.0
 40
65.68007154400004
100
AcDbArc
 50
191.5879487220567
 51
204.4120512779608
  0
ARC
  5
26F
330
1F
100
AcDbEntity
  8
LAY-10
  6
CONTINUOUS
 62
     7
100
AcDbCircle
 10
465.000000000009
 20
630.00000000001
 30
0.0
 40
65.68007154400004
100
AcDbArc
 50
215.5879487220595
 51
228.4120512779629
  0
ARC
  5
270
330
1F
100
AcDbEntity
  8
LAY-10
  6
CONTINUOUS
 62
     7
100
AcDbCircle
 10
465.000000000009
 20
630.00000000001
 30
0.0
 40
65.68007154400004
100
AcDbArc
 50
239.587948722061
 51
252.4120512779643
  0
ARC
  5
271
330
1F
100
AcDbEntity
  8
LAY-10
  6
CONTINUOUS
 62
     7
100
AcDbCircle
 10
465.000000000009
 20
629.9999999999814
 30
0.0
 40
61.6183650964572
100
AcDbArc
 50
228.4120512779462
 51
239.5879487220479
  0
ARC
  5
272
330
1F
100
AcDbEntity
  8
LAY-10
  6
CONTINUOUS
 62
     7
100
AcDbCircle
 10
465.000000000009
 20
629.9999999999814
 30
0.0
 40
61.6183650964572
100
AcDbArc
 50
204.4120512779371
 51
215.5879487220379
  0
ARC
  5
273
330
1F
100
AcDbEntity
  8
LAY-10
  6
CONTINUOUS
 62
     7
100
AcDbCircle
 10
465.000000000009
 20
629.9999999999814
 30
0.0
 40
61.6183650964572
100
AcDbArc
 50
180.4120512779319
 51
191.5879487220316
  0
LINE
  5
274
330
1F
100
AcDbEntity
  8
LAY-10
  6
CONTINUOUS
 62
     7
100
AcDbLine
 10
384.6196541435747
 20
620.0000000000101
 30
0.0
 11
404.1984957656495
 21
620.0000000000101
 31
0.0
  0
LINE
  5
275
330
1F
100
AcDbEntity
  8
LAY-10
  6
CONTINUOUS
 62
     7
100
AcDbLine
 10
384.6196541435747
 20
640.00000000001
 30
0.0
 11
400.085657994371
 21
640.00000000001
 31
0.0
  0
ARC
  5
276
330
1F
100
AcDbEntity
  8
LAY-10
  6
CONTINUOUS
 62
     7
100
AcDbCircle
 10
465.000000000009
 20
629.9999999999814
 30
0.0
 40
61.6183650964572
100
AcDbArc
 50
108.4120512779432
 51
119.5879487220361
  0
ARC
  5
277
330
1F
100
AcDbEntity
  8
LAY-10
  6
CONTINUOUS
 62
     7
100
AcDbCircle
 10
465.000000000009
 20
629.9999999999814
 30
0.0
 40
61.6183650964572
100
AcDbArc
 50
132.4120512779353
 51
143.5879487220299
  0
ARC
  5
278
330
1F
100
AcDbEntity
  8
LAY-10
  6
CONTINUOUS
 62
     7
100
AcDbCircle
 10
465.000000000009
 20
629.9999999999814
 30
0.0
 40
61.6183650964572
100
AcDbArc
 50
156.4120512779309
 51
167.5879487220281
  0
ARC
  5
279
330
1F
100
AcDbEntity
  8
LAY-10
  6
CONTINUOUS
 62
     7
100
AcDbCircle
 10
465.000000000009
 20
630.00000000001
 30
0.0
 40
65.68007154400004
100
AcDbArc
 50
167.5879487220541
 51
180.412051277958
  0
ARC
  5
27A
330
1F
100
AcDbEntity
  8
LAY-10
  6
CONTINUOUS
 62
     7
100
AcDbCircle
 10
465.000000000009
 20
630.00000000001
 30
0.0
 40
65.68007154400004
100
AcDbArc
 50
143.5879487220517
 51
156.4120512779556
  0
ARC
  5
27B
330
1F
100
AcDbEntity
  8
LAY-10
  6
CONTINUOUS
 62
     7
100
AcDbCircle
 10
465.000000000009
 20
630.00000000001
 30
0.0
 40
65.68007154400004
100
AcDbArc
 50
119.5879487220491
 51
132.4120512779534
  0
ARC
  5
27C
330
1F
100
AcDbEntity
  8
LAY-10
  6
CONTINUOUS
 62
     7
100
AcDbCircle
 10
465.000000000009
 20
630.00000000001
 30
0.0
 40
65.68007154400004
100
AcDbArc
 50
95.58794872204889
 51
108.4120512779515
  0
LINE
  5
27D
330
1F
100
AcDbEntity
  8
LAY-10
  6
CONTINUOUS
 62
     7
100
AcDbLine
 10
434.1204346015519
 20
630.7779469594179
 30
0.0
 11
399.314435340962
 21
630.5276300276018
 31
0.0
  0
ARC
  5
27E
330
1F
100
AcDbEntity
  8
LAY-10
  6
CONTINUOUS
 62
     7
100
AcDbCircle
 10
434.1493489984904
 20
626.7574659190386
 30
0.0
 40
4.0205850119601
100
AcDbArc
 50
281.5879487220519
 51
90.41205127795554
  0
LINE
  5
27F
330
1F
100
AcDbEntity
  8
LAY-10
  6
CONTINUOUS
 62
     7
100
AcDbLine
 10
400.6401220747497
 20
643.1406967650147
 30
0.0
 11
434.633482926104
 21
635.6592757018648
 31
0.0
  0
LINE
  5
280
330
1F
100
AcDbEntity
  8
LAY-10
  6
CONTINUOUS
 62
     7
100
AcDbLine
 10
437.1065328310323
 20
643.270540680875
 30
0.0
 11
405.207857239257
 21
657.198740082995
 31
0.0
  0
ARC
  5
281
330
1F
100
AcDbEntity
  8
LAY-10
  6
CONTINUOUS
 62
     7
100
AcDbCircle
 10
435.4976704851019
 20
639.5858879441513
 30
0.0
 40
4.0205850119601
100
AcDbArc
 50
257.5879487220543
 51
66.4120512779497
  0
LINE
  5
282
330
1F
100
AcDbEntity
  8
LAY-10
  6
CONTINUOUS
 62
     7
100
AcDbLine
 10
400.8550628250204
 20
644.1173238555016
 30
0.0
 11
434.8484236763747
 21
636.6359027923518
 31
0.0
  0
LINE
  5
283
330
1F
100
AcDbEntity
  8
LAY-10
  6
CONTINUOUS
 62
     7
100
AcDbLine
 10
404.807700958232
 20
656.2822931664982
 30
0.0
 11
436.7063765500074
 21
642.3540937643784
 31
0.0
  0
ARC
  5
284
330
1F
100
AcDbEntity
  8
LAY-10
  6
CONTINUOUS
 62
     7
100
AcDbCircle
 10
435.4976704851019
 20
639.5858879441513
 30
0.0
 40
3.0205850119601
100
AcDbArc
 50
257.5879487220461
 51
66.41205127794966
  0
LINE
  5
285
330
1F
100
AcDbEntity
  8
LAY-10
  6
CONTINUOUS
 62
     7
100
AcDbLine
 10
411.5491287568315
 20
668.1821445360303
 30
0.0
 11
439.5606410639301
 21
647.5211808275341
 31
0.0
  0
LINE
  5
286
330
1F
100
AcDbEntity
  8
LAY-10
  6
CONTINUOUS
 62
     7
100
AcDbLine
 10
444.9156649382239
 20
653.4685373595335
 30
0.0
 11
421.4398838154511
 21
679.1669408852432
 31
0.0
  0
ARC
  5
287
330
1F
100
AcDbEntity
  8
LAY-10
  6
CONTINUOUS
 62
     7
100
AcDbCircle
 10
441.9472127650919
 20
650.7568228586639
 30
0.0
 40
4.0205850119601
100
AcDbArc
 50
233.5879487220508
 51
42.41205127795177
  0
LINE
  5
288
330
1F
100
AcDbEntity
  8
LAY-10
  6
CONTINUOUS
 62
     7
100
AcDbLine
 10
412.1427169272255
 20
668.9869134991301
 30
0.0
 11
440.1542292343237
 21
648.3259497906339
 31
0.0
  0
LINE
  5
289
330
1F
100
AcDbEntity
  8
LAY-10
  6
CONTINUOUS
 62
     7
100
AcDbLine
 10
420.7015703202004
 20
678.4924831899566
 30
0.0
 11
444.1773514429732
 21
652.7940796642471
 31
0.0
  0
ARC
  5
28A
330
1F
100
AcDbEntity
  8
LAY-10
  6
CONTINUOUS
 62
     7
100
AcDbCircle
 10
441.9472127650919
 20
650.7568228586639
 30
0.0
 40
3.0205850119601
100
AcDbArc
 50
233.5879487220512
 51
42.4120512779547
  0
LINE
  5
28B
330
1F
100
AcDbEntity
  8
LAY-10
  6
CONTINUOUS
 62
     7
100
AcDbLine
 10
431.7002766627814
 20
686.6215526428741
 30
0.0
 11
448.8864954711261
 21
656.353514613193
 31
0.0
  0
LINE
  5
28C
330
1F
100
AcDbEntity
  8
LAY-10
  6
CONTINUOUS
 62
     7
100
AcDbLine
 10
456.1975610380554
 20
659.6086107237616
 30
0.0
 11
445.203850211189
 21
692.6337309407992
 31
0.0
  0
ARC
  5
28D
330
1F
100
AcDbEntity
  8
LAY-10
  6
CONTINUOUS
 62
     7
100
AcDbCircle
 10
452.3827913859976
 20
658.3387145310991
 30
0.0
 40
4.0205850119601
100
AcDbArc
 50
209.5879487220489
 51
18.41205127795521
  0
LINE
  5
28E
330
1F
100
AcDbEntity
  8
LAY-10
  6
CONTINUOUS
 62
     7
100
AcDbLine
 10
432.5698754660579
 20
687.1153116137707
 30
0.0
 11
449.756094274403
 21
656.8472735840892
 31
0.0
  0
LINE
  5
28F
330
1F
100
AcDbEntity
  8
LAY-10
  6
CONTINUOUS
 62
     7
100
AcDbLine
 10
444.2550406124091
 20
692.317882329494
 30
0.0
 11
455.2487514392755
 21
659.2927621124563
 31
0.0
  0
ARC
  5
290
330
1F
100
AcDbEntity
  8
LAY-10
  6
CONTINUOUS
 62
     7
100
AcDbCircle
 10
452.3827913859976
 20
658.3387145310991
 30
0.0
 40
3.0205850119601
100
AcDbArc
 50
209.5879487220502
 51
18.41205127795664
  0
LINE
  5
291
330
1F
100
AcDbEntity
  8
LAY-10
  6
CONTINUOUS
 62
     7
100
AcDbLine
 10
457.6092492522283
 20
695.27057990711
 30
0.0
 11
460.9985211979605
 21
660.6290863080691
 31
0.0
  0
ARC
  5
292
330
1F
100
AcDbEntity
  8
LAY-10
  6
CONTINUOUS
 62
     7
100
AcDbCircle
 10
465.000000000009
 20
661.0205850119702
 30
0.0
 40
4.0205850119601
100
AcDbArc
 50
185.587948722056
 51
354.4120512779521
  0
ARC
  5
293
330
1F
100
AcDbEntity
  8
LAY-10
  6
CONTINUOUS
 62
     7
100
AcDbCircle
 10
465.000000000009
 20
661.0205850119702
 30
0.0
 40
3.0205850119601
100
AcDbArc
 50
185.5879487220533
 51
354.4120512779467
  0
LINE
  5
294
330
1F
100
AcDbEntity
  8
LAY-10
  6
CONTINUOUS
 62
     7
100
AcDbLine
 10
458.6044971552437
 20
695.3679534740754
 30
0.0
 11
461.9937691009763
 21
660.7264598750339
 31
0.0
  0
ARC
  5
295
330
1F
100
AcDbEntity
  8
LAY-10
  6
CONTINUOUS
 62
     7
100
AcDbCircle
 10
465.000000000009
 20
630.00000000001
 30
0.0
 40
81.0
100
AcDbArc
 50
2.83057247027534
 51
177.1694275297247
  0
ARC
  5
296
330
1F
100
AcDbEntity
  8
LAY-10
  6
CONTINUOUS
 62
     7
100
AcDbCircle
 10
465.000000000009
 20
630.00000000001
 30
0.0
 40
81.0
100
AcDbArc
 50
182.8305724702753
 51
357.1694275297249
  0
LINE
  5
297
330
1F
100
AcDbEntity
  8
LAY-10
  6
CONTINUOUS
 62
     7
100
AcDbLine
 10
469.3000000000087
 20
712.3878631838545
 30
0.0
 11
469.000000000009
 21
712.6617150728832
 31
0.0
  0
LINE
  5
298
330
1F
100
AcDbEntity
  8
LAY-10
  6
CONTINUOUS
 62
     7
100
AcDbLine
 10
460.700000000009
 20
712.3878631838545
 30
0.0
 11
461.000000000009
 21
712.6617150728832
 31
0.0
  0
ARC
  5
299
330
1F
100
AcDbEntity
  8
LAY-10
  6
CONTINUOUS
 62
     7
100
AcDbCircle
 10
465.000000000009
 20
630.0000000000102
 30
0.0
 40
82.75843847480951
100
AcDbArc
 50
87.22961852012209
 51
92.77038147987827
  0
ARC
  5
29A
330
1F
100
AcDbEntity
  8
LAY-10
  6
CONTINUOUS
 62
     7
100
AcDbCircle
 10
465.000000000009
 20
630.0000000000102
 30
0.0
 40
83.49999999999932
100
AcDbArc
 50
290.3292390068953
 51
309.6707609931038
  0
ARC
  5
29B
330
1F
100
AcDbEntity
  8
LAY-10
  6
CONTINUOUS
 62
     7
100
AcDbCircle
 10
465.000000000009
 20
630.0000000000102
 30
0.0
 40
87.50000000000159
100
AcDbArc
 50
290.3135603257683
 51
309.6864396742359
  0
ARC
  5
29C
330
1F
100
AcDbEntity
  8
LAY-10
  6
CONTINUOUS
 62
     7
100
AcDbCircle
 10
465.000000000009
 20
630.0000000000102
 30
0.0
 40
82.4999999999992
100
AcDbArc
 50
92.98767925222833
 51
101.0433446880298
  0
ARC
  5
29D
330
1F
100
AcDbEntity
  8
LAY-10
  6
CONTINUOUS
 62
     7
100
AcDbCircle
 10
465.000000000009
 20
630.0000000000102
 30
0.0
 40
82.4999999999992
100
AcDbArc
 50
272.987679252228
 51
281.0433446880296
  0
LINE
  5
29E
330
1F
100
AcDbEntity
  8
LAY-10
  6
CONTINUOUS
 62
     7
100
AcDbLine
 10
469.3000000000087
 20
547.6121368161657
 30
0.0
 11
469.000000000009
 21
547.3382849271372
 31
0.0
  0
LINE
  5
29F
330
1F
100
AcDbEntity
  8
LAY-10
  6
CONTINUOUS
 62
     7
100
AcDbLine
 10
460.700000000009
 20
547.6121368161657
 30
0.0
 11
461.000000000009
 21
547.3382849271372
 31
0.0
  0
ARC
  5
2A0
330
1F
100
AcDbEntity
  8
LAY-10
  6
CONTINUOUS
 62
     7
100
AcDbCircle
 10
465.000000000009
 20
630.0000000000102
 30
0.0
 40
82.75843847480951
100
AcDbArc
 50
267.229618520122
 51
272.7703814798783
  0
ARC
  5
2A1
330
1F
100
AcDbEntity
  8
LAY-10
  6
CONTINUOUS
 62
     7
100
AcDbCircle
 10
465.000000000009
 20
630.0000000000102
 30
0.0
 40
83.49999999999932
100
AcDbArc
 50
260.3292390068966
 51
270.0000000000001
  0
ARC
  5
2A2
330
1F
100
AcDbEntity
  8
LAY-10
  6
CONTINUOUS
 62
     7
100
AcDbCircle
 10
465.000000000009
 20
630.0000000000102
 30
0.0
 40
83.49999999999932
100
AcDbArc
 50
270.0000000000001
 51
279.6707609931037
  0
ARC
  5
2A3
330
1F
100
AcDbEntity
  8
LAY-10
  6
CONTINUOUS
 62
     7
100
AcDbCircle
 10
546.1202880508425
 20
660.0291336297049
 30
0.0
 40
1.0
100
AcDbArc
 50
289.6511666165086
 51
20.31356032575829
  0
ARC
  5
2A4
330
1F
100
AcDbEntity
  8
LAY-10
  6
CONTINUOUS
 62
     7
100
AcDbCircle
 10
544.2366441725288
 20
659.3565021805728
 30
0.0
 40
1.0
100
AcDbArc
 50
200.3292390068964
 51
289.6511666165086
  0
ARC
  5
2A5
330
1F
100
AcDbEntity
  8
LAY-10
  6
CONTINUOUS
 62
     7
100
AcDbCircle
 10
530.0417987408896
 20
683.9426956737591
 30
0.0
 40
1.0
100
AcDbArc
 50
130.3488333834936
 51
219.6707609930939
  0
ARC
  5
2A6
330
1F
100
AcDbEntity
  8
LAY-10
  6
CONTINUOUS
 62
     7
100
AcDbCircle
 10
531.5661366023791
 20
685.2376633994958
 30
0.0
 40
1.0
100
AcDbArc
 50
39.68643967423125
 51
130.3488333834752
  0
ARC
  5
2A7
330
1F
100
AcDbEntity
  8
LAY-10
  6
CONTINUOUS
 62
     7
100
AcDbCircle
 10
494.3565021805718
 20
709.2366441725299
 30
0.0
 40
1.0
100
AcDbArc
 50
160.3488333834832
 51
249.670760993086
  0
ARC
  5
2A8
330
1F
100
AcDbEntity
  8
LAY-10
  6
CONTINUOUS
 62
     7
100
AcDbCircle
 10
495.0291336297041
 20
711.1202880508436
 30
0.0
 40
1.0
100
AcDbArc
 50
69.68643967424174
 51
160.3488333834771
  0
ARC
  5
2A9
330
1F
100
AcDbEntity
  8
LAY-10
  6
CONTINUOUS
 62
     7
100
AcDbCircle
 10
520.2376633994947
 20
696.5661366023801
 30
0.0
 40
1.0
100
AcDbArc
 50
319.6511666165117
 51
50.31356032576879
  0
ARC
  5
2AA
330
1F
100
AcDbEntity
  8
LAY-10
  6
CONTINUOUS
 62
     7
100
AcDbCircle
 10
518.9426956737582
 20
695.0417987408904
 30
0.0
 40
1.0
100
AcDbArc
 50
230.3292390068879
 51
319.6511666165117
  0
ARC
  5
2AB
330
1F
100
AcDbEntity
  8
LAY-10
  6
CONTINUOUS
 62
     7
100
AcDbCircle
 10
479.1948454316483
 20
713.2991978543217
 30
0.0
 40
1.0
100
AcDbArc
 50
260.3292390069012
 51
349.6511666165258
  0
ARC
  5
2AC
330
1F
100
AcDbEntity
  8
LAY-10
  6
CONTINUOUS
 62
     7
100
AcDbCircle
 10
479.5541514484725
 20
715.2667970291908
 30
0.0
 40
1.0
100
AcDbArc
 50
349.6511666165064
 51
80.3135603257602
  0
ARC
  5
2AD
330
1F
100
AcDbEntity
  8
LAY-10
  6
CONTINUOUS
 62
     7
100
AcDbCircle
 10
450.4458485515458
 20
715.2667970291908
 30
0.0
 40
1.0
100
AcDbArc
 50
99.68643967423338
 51
190.3488333834936
  0
ARC
  5
2AE
330
1F
100
AcDbEntity
  8
LAY-10
  6
CONTINUOUS
 62
     7
100
AcDbCircle
 10
450.8051545683697
 20
713.2991978543217
 30
0.0
 40
1.0
100
AcDbArc
 50
190.3488333834733
 51
279.6707609931161
  0
ARC
  5
2AF
330
1F
100
AcDbEntity
  8
LAY-10
  6
CONTINUOUS
 62
     7
100
AcDbCircle
 10
434.9708663703145
 20
711.1202880508438
 30
0.0
 40
1.0
100
AcDbArc
 50
19.65116661652304
 51
110.3135603257697
  0
ARC
  5
2B0
330
1F
100
AcDbEntity
  8
LAY-10
  6
CONTINUOUS
 62
     7
100
AcDbCircle
 10
435.6434978194465
 20
709.2366441725299
 30
0.0
 40
1.0
100
AcDbArc
 50
290.3292390068903
 51
19.65116661652413
  0
ARC
  5
2B1
330
1F
100
AcDbEntity
  8
LAY-10
  6
CONTINUOUS
 62
     7
100
AcDbCircle
 10
409.7623366005236
 20
696.5661366023804
 30
0.0
 40
1.0
100
AcDbArc
 50
129.6864396742521
 51
220.3488333834793
  0
ARC
  5
2B2
330
1F
100
AcDbEntity
  8
LAY-10
  6
CONTINUOUS
 62
     7
100
AcDbCircle
 10
411.0573043262601
 20
695.0417987408906
 30
0.0
 40
1.0
100
AcDbArc
 50
220.3488333834659
 51
309.670760993098
  0
ARC
  5
2B3
330
1F
100
AcDbEntity
  8
LAY-10
  6
CONTINUOUS
 62
     7
100
AcDbCircle
 10
398.433863397639
 20
685.2376633994959
 30
0.0
 40
1.0
100
AcDbArc
 50
49.65116661649738
 51
140.3135603257687
  0
ARC
  5
2B4
330
1F
100
AcDbEntity
  8
LAY-10
  6
CONTINUOUS
 62
     7
100
AcDbCircle
 10
399.9582012591285
 20
683.9426956737591
 30
0.0
 40
1.0
100
AcDbArc
 50
320.3292390069203
 51
49.65116661651154
  0
ARC
  5
2B5
330
1F
100
AcDbEntity
  8
LAY-10
  6
CONTINUOUS
 62
     7
100
AcDbCircle
 10
383.8797119491755
 20
660.0291336297049
 30
0.0
 40
1.0
100
AcDbArc
 50
159.6864396742418
 51
250.3488333834863
  0
ARC
  5
2B6
330
1F
100
AcDbEntity
  8
LAY-10
  6
CONTINUOUS
 62
     7
100
AcDbCircle
 10
385.7633558274892
 20
659.3565021805728
 30
0.0
 40
1.0
100
AcDbArc
 50
250.3488333834832
 51
339.6707609931036
  0
ARC
  5
2B7
330
1F
100
AcDbEntity
  8
LAY-10
  6
CONTINUOUS
 62
     7
100
AcDbCircle
 10
379.7332029708286
 20
644.5541514484736
 30
0.0
 40
1.0
100
AcDbArc
 50
79.65116661651223
 51
170.313560325764
  0
ARC
  5
2B8
330
1F
100
AcDbEntity
  8
LAY-10
  6
CONTINUOUS
 62
     7
100
AcDbCircle
 10
381.7008021456974
 20
644.1948454316497
 30
0.0
 40
1.0
100
AcDbArc
 50
350.3292390068909
 51
79.65116661652621
  0
ARC
  5
2B9
330
1F
100
AcDbEntity
  8
LAY-10
  6
CONTINUOUS
 62
     7
100
AcDbCircle
 10
379.7332029708286
 20
615.4458485515466
 30
0.0
 40
1.0
100
AcDbArc
 50
189.6864396742361
 51
280.3488333834878
  0
ARC
  5
2BA
330
1F
100
AcDbEntity
  8
LAY-10
  6
CONTINUOUS
 62
     7
100
AcDbCircle
 10
381.7008021456974
 20
615.8051545683708
 30
0.0
 40
1.0
100
AcDbArc
 50
280.3488333834738
 51
9.670760993095668
  0
ARC
  5
2BB
330
1F
100
AcDbEntity
  8
LAY-10
  6
CONTINUOUS
 62
     7
100
AcDbCircle
 10
383.8797119491755
 20
599.9708663703153
 30
0.0
 40
1.0
100
AcDbArc
 50
109.6511666165138
 51
200.3135603257595
  0
ARC
  5
2BC
330
1F
100
AcDbEntity
  8
LAY-10
  6
CONTINUOUS
 62
     7
100
AcDbCircle
 10
385.7633558274892
 20
600.6434978194476
 30
0.0
 40
1.0
100
AcDbArc
 50
20.32923900690366
 51
109.6511666165138
  0
ARC
  5
2BD
330
1F
100
AcDbEntity
  8
LAY-10
  6
CONTINUOUS
 62
     7
100
AcDbCircle
 10
398.433863397639
 20
574.7623366005245
 30
0.0
 40
1.0
100
AcDbArc
 50
219.6864396742313
 51
310.3488333834885
  0
ARC
  5
2BE
330
1F
100
AcDbEntity
  8
LAY-10
  6
CONTINUOUS
 62
     7
100
AcDbCircle
 10
399.9582012591285
 20
576.0573043262611
 30
0.0
 40
1.0
100
AcDbArc
 50
310.3488333835002
 51
39.67076099309602
  0
ARC
  5
2BF
330
1F
100
AcDbEntity
  8
LAY-10
  6
CONTINUOUS
 62
     7
100
AcDbCircle
 10
409.7623366005236
 20
563.43386339764
 30
0.0
 40
1.0
100
AcDbArc
 50
139.6511666165391
 51
230.313560325748
  0
ARC
  5
2C0
330
1F
100
AcDbEntity
  8
LAY-10
  6
CONTINUOUS
 62
     7
100
AcDbCircle
 10
411.0573043262601
 20
564.9582012591296
 30
0.0
 40
1.0
100
AcDbArc
 50
50.32923900690195
 51
139.6511666165229
  0
ARC
  5
2C1
330
1F
100
AcDbEntity
  8
LAY-10
  6
CONTINUOUS
 62
     7
100
AcDbCircle
 10
435.6434978194465
 20
550.7633558274904
 30
0.0
 40
1.0
100
AcDbArc
 50
340.348833383482
 51
69.67076099310968
  0
ARC
  5
2C2
330
1F
100
AcDbEntity
  8
LAY-10
  6
CONTINUOUS
 62
     7
100
AcDbCircle
 10
434.9708663703142
 20
548.8797119491767
 30
0.0
 40
1.0
100
AcDbArc
 50
249.6864396742272
 51
340.348833383482
  0
ARC
  5
2C3
330
1F
100
AcDbEntity
  8
LAY-10
  6
CONTINUOUS
 62
     7
100
AcDbCircle
 10
450.4458485515458
 20
544.7332029708297
 30
0.0
 40
1.0
100
AcDbArc
 50
169.6511666165193
 51
260.3135603257666
  0
ARC
  5
2C4
330
1F
100
AcDbEntity
  8
LAY-10
  6
CONTINUOUS
 62
     7
100
AcDbCircle
 10
450.8051545683697
 20
546.7008021456985
 30
0.0
 40
1.0
100
AcDbArc
 50
80.32923900688397
 51
169.6511666165128
  0
ARC
  5
2C5
330
1F
100
AcDbEntity
  8
LAY-10
  6
CONTINUOUS
 62
     7
100
AcDbCircle
 10
479.1948454316483
 20
546.7008021456985
 30
0.0
 40
1.0
100
AcDbArc
 50
10.34883338348717
 51
99.67076099309892
  0
ARC
  5
2C6
330
1F
100
AcDbEntity
  8
LAY-10
  6
CONTINUOUS
 62
     7
100
AcDbCircle
 10
479.5541514484725
 20
544.7332029708297
 30
0.0
 40
1.0
100
AcDbArc
 50
279.68643967424
 51
10.34883338348081
  0
ARC
  5
2C7
330
1F
100
AcDbEntity
  8
LAY-10
  6
CONTINUOUS
 62
     7
100
AcDbCircle
 10
494.3565021805718
 20
550.7633558274904
 30
0.0
 40
1.0
100
AcDbArc
 50
110.3292390068995
 51
199.6511666165169
  0
ARC
  5
2C8
330
1F
100
AcDbEntity
  8
LAY-10
  6
CONTINUOUS
 62
     7
100
AcDbCircle
 10
495.0291336297041
 20
548.8797119491767
 30
0.0
 40
1.0
100
AcDbArc
 50
199.6511666165231
 51
290.3135603257584
  0
ARC
  5
2C9
330
1F
100
AcDbEntity
  8
LAY-10
  6
CONTINUOUS
 62
     7
100
AcDbCircle
 10
520.2376633994947
 20
563.4338633976402
 30
0.0
 40
1.0
100
AcDbArc
 50
309.6864396742315
 51
40.34883338348849
  0
ARC
  5
2CA
330
1F
100
AcDbEntity
  8
LAY-10
  6
CONTINUOUS
 62
     7
100
AcDbCircle
 10
518.9426956737582
 20
564.9582012591299
 30
0.0
 40
1.0
100
AcDbArc
 50
40.34883338348849
 51
129.6707609931123
  0
ARC
  5
2CB
330
1F
100
AcDbEntity
  8
LAY-10
  6
CONTINUOUS
 62
     7
100
AcDbCircle
 10
530.0417987408896
 20
576.0573043262613
 30
0.0
 40
1.0
100
AcDbArc
 50
140.3292390068928
 51
229.6511666165066
  0
ARC
  5
2CC
330
1F
100
AcDbEntity
  8
LAY-10
  6
CONTINUOUS
 62
     7
100
AcDbCircle
 10
531.5661366023791
 20
574.7623366005247
 30
0.0
 40
1.0
100
AcDbArc
 50
229.6511666165115
 51
320.3135603257688
  0
ARC
  5
2CD
330
1F
100
AcDbEntity
  8
LAY-10
  6
CONTINUOUS
 62
     7
100
AcDbCircle
 10
544.2366441725288
 20
600.6434978194475
 30
0.0
 40
1.0
100
AcDbArc
 50
70.34883338348313
 51
159.6707609931036
  0
ARC
  5
2CE
330
1F
100
AcDbEntity
  8
LAY-10
  6
CONTINUOUS
 62
     7
100
AcDbCircle
 10
546.1202880508425
 20
599.9708663703153
 30
0.0
 40
1.0
100
AcDbArc
 50
339.6864396742479
 51
70.34883338349142
  0
ARC
  5
2CF
330
1F
100
AcDbEntity
  8
LAY-10
  6
CONTINUOUS
 62
     7
100
AcDbCircle
 10
548.2991978543206
 20
644.1948454316495
 30
0.0
 40
1.0
100
AcDbArc
 50
100.3488333834738
 51
189.6707609931022
  0
ARC
  5
2D0
330
1F
100
AcDbEntity
  8
LAY-10
  6
CONTINUOUS
 62
     7
100
AcDbCircle
 10
550.2667970291894
 20
644.5541514484736
 30
0.0
 40
1.0
100
AcDbArc
 50
9.686439674236565
 51
100.3488333834942
  0
ARC
  5
2D1
330
1F
100
AcDbEntity
  8
LAY-10
  6
CONTINUOUS
 62
     7
100
AcDbCircle
 10
548.2991978543206
 20
615.8051545683708
 30
0.0
 40
1.0
100
AcDbArc
 50
170.3292390068979
 51
259.6511666165263
  0
ARC
  5
2D2
330
1F
100
AcDbEntity
  8
LAY-10
  6
CONTINUOUS
 62
     7
100
AcDbCircle
 10
550.2667970291894
 20
615.4458485515469
 30
0.0
 40
1.0
100
AcDbArc
 50
259.651166616506
 51
350.3135603257506
  0
ARC
  5
2D3
330
1F
100
AcDbEntity
  8
LAY-10
  6
CONTINUOUS
 62
     7
100
AcDbCircle
 10
465.000000000009
 20
630.0000000000102
 30
0.0
 40
82.4999999999992
100
AcDbArc
 50
184.3819616741212
 51
191.0433446880295
  0
LINE
  5
2D4
330
1F
100
AcDbEntity
  8
LAY-10
  6
CONTINUOUS
 62
     7
100
AcDbLine
 10
382.7411593696112
 20
636.3034227323569
 30
0.0
 11
382.4593485681911
 21
636.000000000009
 31
0.0
  0
LINE
  5
2D5
330
1F
100
AcDbEntity
  8
LAY-10
  6
CONTINUOUS
 62
     7
100
AcDbLine
 10
382.4593485681911
 20
624.0000000000113
 30
0.0
 11
382.7411593696112
 21
623.6965772676633
 31
0.0
  0
ARC
  5
2D6
330
1F
100
AcDbEntity
  8
LAY-10
  6
CONTINUOUS
 62
     7
100
AcDbCircle
 10
465.000000000009
 20
630.0000000000102
 30
0.0
 40
82.75843847480951
100
AcDbArc
 50
175.842399152648
 51
184.1576008473525
  0
LINE
  5
2D7
330
1F
100
AcDbEntity
  8
LAY-10
  6
CONTINUOUS
 62
     7
100
AcDbLine
 10
547.258840630407
 20
636.3034227323569
 30
0.0
 11
547.5406514318269
 21
636.000000000009
 31
0.0
  0
LINE
  5
2D8
330
1F
100
AcDbEntity
  8
LAY-10
  6
CONTINUOUS
 62
     7
100
AcDbLine
 10
547.5406514318269
 20
624.0000000000113
 30
0.0
 11
547.258840630407
 21
623.6965772676633
 31
0.0
  0
ARC
  5
2D9
330
1F
100
AcDbEntity
  8
LAY-10
  6
CONTINUOUS
 62
     7
100
AcDbCircle
 10
465.000000000009
 20
630.0000000000102
 30
0.0
 40
82.4999999999992
100
AcDbArc
 50
4.381961674120814
 51
11.04334468802923
  0
ARC
  5
2DA
330
1F
100
AcDbEntity
  8
LAY-10
  6
CONTINUOUS
 62
     7
100
AcDbCircle
 10
465.000000000009
 20
630.0000000000102
 30
0.0
 40
82.75843847480951
100
AcDbArc
 50
355.8423991526478
 51
4.157600847352197
  0
ARC
  5
2DB
330
1F
100
AcDbEntity
  8
LAY-10
  6
CONTINUOUS
 62
     7
100
AcDbCircle
 10
465.000000000009
 20
630.0000000000102
 30
0.0
 40
87.50000000000159
100
AcDbArc
 50
320.3135603257646
 51
339.6864396742361
  0
ARC
  5
2DC
330
1F
100
AcDbEntity
  8
LAY-10
  6
CONTINUOUS
 62
     7
100
AcDbCircle
 10
465.000000000009
 20
630.0000000000102
 30
0.0
 40
83.49999999999932
100
AcDbArc
 50
320.3292390068967
 51
339.670760993104
  0
LINE
  5
2DD
330
1F
100
AcDbEntity
  8
LAY-10
  6
CONTINUOUS
 62
     7
100
AcDbLine
 10
547.4037821456135
 20
600.574387209449
 30
0.0
 11
548.6765115397169
 21
601.1817520215913
 31
0.0
  0
LINE
  5
2DE
330
1F
100
AcDbEntity
  8
LAY-10
  6
CONTINUOUS
 62
     7
100
AcDbLine
 10
543.6367521046694
 20
601.9195580798754
 30
0.0
 11
543.0255794811072
 21
603.1996465202759
 31
0.0
  0
LINE
  5
2DF
330
1F
100
AcDbEntity
  8
LAY-10
  6
CONTINUOUS
 62
     7
100
AcDbLine
 10
531.6852192713617
 20
573.3490376892787
 30
0.0
 11
531.7955906117423
 21
571.9431392957813
 31
0.0
  0
LINE
  5
2E0
330
1F
100
AcDbEntity
  8
LAY-10
  6
CONTINUOUS
 62
     7
100
AcDbLine
 10
528.6367521046698
 20
575.9387959663421
 30
0.0
 11
527.2225766844198
 21
575.8280427642549
 31
0.0
  0
ARC
  5
2E1
330
1F
100
AcDbEntity
  8
LAY-10
  6
CONTINUOUS
 62
     7
100
AcDbCircle
 10
465.000000000009
 20
630.0000000000102
 30
0.0
 40
88.50000000000287
100
AcDbArc
 50
319.0037429011437
 51
340.996257098866
  0
ARC
  5
2E2
330
1F
100
AcDbEntity
  8
LAY-10
  6
CONTINUOUS
 62
     7
100
AcDbCircle
 10
465.000000000009
 20
630.0000000000102
 30
0.0
 40
82.4999999999992
100
AcDbArc
 50
318.95665531198
 51
341.0433446880299
  0
LINE
  5
2E3
330
1F
100
AcDbEntity
  8
LAY-10
  6
CONTINUOUS
 62
     7
100
AcDbLine
 10
548.6765115397171
 20
601.1817520215911
 30
0.0
 11
543.0255794811072
 21
603.1996465202759
 31
0.0
  0
LINE
  5
2E4
330
1F
100
AcDbEntity
  8
LAY-10
  6
CONTINUOUS
 62
     7
100
AcDbLine
 10
531.7955906117423
 20
571.9431392957815
 30
0.0
 11
527.2225766844198
 21
575.8280427642549
 31
0.0
  0
LINE
  5
2E5
330
1F
100
AcDbEntity
  8
LAY-10
  6
CONTINUOUS
 62
     7
100
AcDbLine
 10
544.5729368901351
 20
601.585255329683
 30
0.0
 11
546.4565807684488
 21
600.9126238805508
 31
0.0
  0
LINE
  5
2E6
330
1F
100
AcDbEntity
  8
LAY-10
  6
CONTINUOUS
 62
     7
100
AcDbLine
 10
529.394359171624
 20
575.2951875345886
 30
0.0
 11
530.9186970331139
 21
574.000219808852
 31
0.0
  0
LINE
  5
2E7
330
1F
100
AcDbEntity
  8
LAY-10
  6
CONTINUOUS
 62
     7
100
AcDbLine
 10
521.6509623107405
 20
563.3147807286575
 30
0.0
 11
523.0568607042485
 21
563.204409388286
 31
0.0
  0
LINE
  5
2E8
330
1F
100
AcDbEntity
  8
LAY-10
  6
CONTINUOUS
 62
     7
100
AcDbLine
 10
519.0612040336773
 20
566.3632478953497
 30
0.0
 11
519.1719572357747
 21
567.7774233156085
 31
0.0
  0
LINE
  5
2E9
330
1F
100
AcDbEntity
  8
LAY-10
  6
CONTINUOUS
 62
     7
100
AcDbLine
 10
494.4256127905704
 20
547.5962178544056
 30
0.0
 11
493.8182479784409
 21
546.3234884603067
 31
0.0
  0
LINE
  5
2EA
330
1F
100
AcDbEntity
  8
LAY-10
  6
CONTINUOUS
 62
     7
100
AcDbLine
 10
493.080441920144
 20
551.3632478953497
 30
0.0
 11
491.8003534797567
 21
551.9744205189165
 31
0.0
  0
ARC
  5
2EB
330
1F
100
AcDbEntity
  8
LAY-10
  6
CONTINUOUS
 62
     7
100
AcDbCircle
 10
465.000000000009
 20
630.0000000000102
 30
0.0
 40
88.50000000000287
100
AcDbArc
 50
289.0037429011433
 51
310.9962570988656
  0
ARC
  5
2EC
330
1F
100
AcDbEntity
  8
LAY-10
  6
CONTINUOUS
 62
     7
100
AcDbCircle
 10
465.000000000009
 20
630.0000000000102
 30
0.0
 40
82.4999999999992
100
AcDbArc
 50
288.9566553119803
 51
311.0433446880298
  0
LINE
  5
2ED
330
1F
100
AcDbEntity
  8
LAY-10
  6
CONTINUOUS
 62
     7
100
AcDbLine
 10
523.0568607042487
 20
563.2044093882857
 30
0.0
 11
519.1719572357747
 21
567.7774233156085
 31
0.0
  0
LINE
  5
2EE
330
1F
100
AcDbEntity
  8
LAY-10
  6
CONTINUOUS
 62
     7
100
AcDbLine
 10
493.8182479784411
 20
546.3234884603067
 30
0.0
 11
491.8003534797567
 21
551.9744205189165
 31
0.0
  0
LINE
  5
2EF
330
1F
100
AcDbEntity
  8
LAY-10
  6
CONTINUOUS
 62
     7
100
AcDbLine
 10
519.7048124654307
 20
565.6056408283954
 30
0.0
 11
520.9997801911672
 21
564.0813029669056
 31
0.0
  0
LINE
  5
2F0
330
1F
100
AcDbEntity
  8
LAY-10
  6
CONTINUOUS
 62
     7
100
AcDbLine
 10
493.4147446703363
 20
550.427063109884
 30
0.0
 11
494.0873761194686
 21
548.5434192315702
 31
0.0
  0
ARC
  5
2F1
330
1F
100
AcDbEntity
  8
LAY-10
  6
CONTINUOUS
 62
     7
100
AcDbCircle
 10
465.000000000009
 20
630.0000000000102
 30
0.0
 40
87.50000000000159
100
AcDbArc
 50
260.3135603257645
 51
279.6864396742359
  0
LINE
  5
2F2
330
1F
100
AcDbEntity
  8
LAY-10
  6
CONTINUOUS
 62
     7
100
AcDbLine
 10
480.7185628742611
 20
543.9234248987174
 30
0.0
 11
481.8809209279929
 21
543.1248913173519
 31
0.0
  0
LINE
  5
2F3
330
1F
100
AcDbEntity
  8
LAY-10
  6
CONTINUOUS
 62
     7
100
AcDbLine
 10
480.000000000009
 20
547.8583540462073
 30
0.0
 11
480.8030027967056
 21
549.0276892845101
 31
0.0
  0
LINE
  5
2F4
330
1F
100
AcDbEntity
  8
LAY-10
  6
CONTINUOUS
 62
     7
100
AcDbLine
 10
449.2814371257572
 20
543.9234248987174
 30
0.0
 11
448.119079072039
 21
543.1248913173495
 31
0.0
  0
LINE
  5
2F5
330
1F
100
AcDbEntity
  8
LAY-10
  6
CONTINUOUS
 62
     7
100
AcDbLine
 10
450.000000000009
 20
547.8583540462073
 30
0.0
 11
449.1969972033261
 21
549.0276892845073
 31
0.0
  0
ARC
  5
2F6
330
1F
100
AcDbEntity
  8
LAY-10
  6
CONTINUOUS
 62
     7
100
AcDbCircle
 10
465.000000000009
 20
630.0000000000102
 30
0.0
 40
88.50000000000287
100
AcDbArc
 50
259.0037429011433
 51
280.9962570988655
  0
ARC
  5
2F7
330
1F
100
AcDbEntity
  8
LAY-10
  6
CONTINUOUS
 62
     7
100
AcDbCircle
 10
465.000000000009
 20
630.0000000000102
 30
0.0
 40
82.4999999999992
100
AcDbArc
 50
258.9566553119802
 51
267.0123207477721
  0
LINE
  5
2F8
330
1F
100
AcDbEntity
  8
LAY-10
  6
CONTINUOUS
 62
     7
100
AcDbLine
 10
481.8809209279929
 20
543.1248913173516
 30
0.0
 11
480.8030027967056
 21
549.0276892845101
 31
0.0
  0
LINE
  5
2F9
330
1F
100
AcDbEntity
  8
LAY-10
  6
CONTINUOUS
 62
     7
100
AcDbLine
 10
448.1190790720393
 20
543.1248913173495
 30
0.0
 11
449.1969972033261
 21
549.0276892845073
 31
0.0
  0
LINE
  5
2FA
330
1F
100
AcDbEntity
  8
LAY-10
  6
CONTINUOUS
 62
     7
100
AcDbLine
 10
480.1785777185204
 20
546.8804428642615
 30
0.0
 11
480.5378837353446
 21
544.9128436893925
 31
0.0
  0
LINE
  5
2FB
330
1F
100
AcDbEntity
  8
LAY-10
  6
CONTINUOUS
 62
     7
100
AcDbLine
 10
449.8214222814979
 20
546.8804428642615
 30
0.0
 11
449.462116264674
 21
544.9128436893925
 31
0.0
  0
ARC
  5
2FC
330
1F
100
AcDbEntity
  8
LAY-10
  6
CONTINUOUS
 62
     7
100
AcDbCircle
 10
465.000000000009
 20
630.0000000000102
 30
0.0
 40
87.50000000000159
100
AcDbArc
 50
230.3135603257644
 51
249.6864396742359
  0
ARC
  5
2FD
330
1F
100
AcDbEntity
  8
LAY-10
  6
CONTINUOUS
 62
     7
100
AcDbCircle
 10
465.000000000009
 20
630.0000000000102
 30
0.0
 40
83.49999999999932
100
AcDbArc
 50
230.3292390068966
 51
249.6707609931038
  0
LINE
  5
2FE
330
1F
100
AcDbEntity
  8
LAY-10
  6
CONTINUOUS
 62
     7
100
AcDbLine
 10
435.5743872094478
 20
547.5962178544056
 30
0.0
 11
436.1817520215904
 21
546.3234884603022
 31
0.0
  0
LINE
  5
2FF
330
1F
100
AcDbEntity
  8
LAY-10
  6
CONTINUOUS
 62
     7
100
AcDbLine
 10
436.919558079874
 20
551.3632478953497
 30
0.0
 11
438.1996465202745
 21
551.9744205189121
 31
0.0
  0
LINE
  5
300
330
1F
100
AcDbEntity
  8
LAY-10
  6
CONTINUOUS
 62
     7
100
AcDbLine
 10
408.3490376892777
 20
563.3147807286576
 30
0.0
 11
406.9431392957803
 21
563.2044093882771
 31
0.0
  0
LINE
  5
301
330
1F
100
AcDbEntity
  8
LAY-10
  6
CONTINUOUS
 62
     7
100
AcDbLine
 10
410.9387959663413
 20
566.3632478953497
 30
0.0
 11
410.8280427642538
 21
567.7774233155994
 31
0.0
  0
ARC
  5
302
330
1F
100
AcDbEntity
  8
LAY-10
  6
CONTINUOUS
 62
     7
100
AcDbCircle
 10
465.000000000009
 20
630.0000000000102
 30
0.0
 40
88.50000000000287
100
AcDbArc
 50
229.0037429011436
 51
250.9962570988654
  0
ARC
  5
303
330
1F
100
AcDbEntity
  8
LAY-10
  6
CONTINUOUS
 62
     7
100
AcDbCircle
 10
465.000000000009
 20
630.0000000000102
 30
0.0
 40
82.4999999999992
100
AcDbArc
 50
228.95665531198
 51
251.0433446880297
  0
LINE
  5
304
330
1F
100
AcDbEntity
  8
LAY-10
  6
CONTINUOUS
 62
     7
100
AcDbLine
 10
436.1817520215901
 20
546.323488460302
 30
0.0
 11
438.1996465202745
 21
551.9744205189121
 31
0.0
  0
LINE
  5
305
330
1F
100
AcDbEntity
  8
LAY-10
  6
CONTINUOUS
 62
     7
100
AcDbLine
 10
406.9431392957803
 20
563.2044093882769
 30
0.0
 11
410.8280427642538
 21
567.7774233155994
 31
0.0
  0
LINE
  5
306
330
1F
100
AcDbEntity
  8
LAY-10
  6
CONTINUOUS
 62
     7
100
AcDbLine
 10
436.5852553296817
 20
550.4270631098842
 30
0.0
 11
435.9126238805497
 21
548.5434192315703
 31
0.0
  0
LINE
  5
307
330
1F
100
AcDbEntity
  8
LAY-10
  6
CONTINUOUS
 62
     7
100
AcDbLine
 10
410.2951875345875
 20
565.6056408283952
 30
0.0
 11
409.0002198088508
 21
564.0813029669056
 31
0.0
  0
ARC
  5
308
330
1F
100
AcDbEntity
  8
LAY-10
  6
CONTINUOUS
 62
     7
100
AcDbCircle
 10
465.000000000009
 20
630.0000000000102
 30
0.0
 40
87.50000000000159
100
AcDbArc
 50
200.3135603257643
 51
219.6864396742358
  0
ARC
  5
309
330
1F
100
AcDbEntity
  8
LAY-10
  6
CONTINUOUS
 62
     7
100
AcDbCircle
 10
465.000000000009
 20
630.0000000000102
 30
0.0
 40
83.49999999999932
100
AcDbArc
 50
200.3292390068964
 51
219.6707609931037
  0
LINE
  5
30A
330
1F
100
AcDbEntity
  8
LAY-10
  6
CONTINUOUS
 62
     7
100
AcDbLine
 10
398.3147807286565
 20
573.3490376892787
 30
0.0
 11
398.2044093882849
 21
571.943139295771
 31
0.0
  0
LINE
  5
30B
330
1F
100
AcDbEntity
  8
LAY-10
  6
CONTINUOUS
 62
     7
100
AcDbLine
 10
401.3632478953485
 20
575.9387959663421
 30
0.0
 11
402.7774233156073
 21
575.8280427642446
 31
0.0
  0
LINE
  5
30C
330
1F
100
AcDbEntity
  8
LAY-10
  6
CONTINUOUS
 62
     7
100
AcDbLine
 10
382.5962178544045
 20
600.574387209449
 30
0.0
 11
381.3234884603056
 21
601.1817520215783
 31
0.0
  0
LINE
  5
30D
330
1F
100
AcDbEntity
  8
LAY-10
  6
CONTINUOUS
 62
     7
100
AcDbLine
 10
386.3632478953485
 20
601.9195580798754
 30
0.0
 11
386.9744205189153
 21
603.1996465202627
 31
0.0
  0
ARC
  5
30E
330
1F
100
AcDbEntity
  8
LAY-10
  6
CONTINUOUS
 62
     7
100
AcDbCircle
 10
465.000000000009
 20
630.0000000000102
 30
0.0
 40
88.50000000000287
100
AcDbArc
 50
199.0037429011435
 51
220.9962570988656
  0
ARC
  5
30F
330
1F
100
AcDbEntity
  8
LAY-10
  6
CONTINUOUS
 62
     7
100
AcDbCircle
 10
465.000000000009
 20
630.0000000000102
 30
0.0
 40
82.4999999999992
100
AcDbArc
 50
198.9566553119798
 51
221.0433446880298
  0
LINE
  5
310
330
1F
100
AcDbEntity
  8
LAY-10
  6
CONTINUOUS
 62
     7
100
AcDbLine
 10
398.2044093882845
 20
571.9431392957707
 30
0.0
 11
402.7774233156073
 21
575.8280427642446
 31
0.0
  0
LINE
  5
311
330
1F
100
AcDbEntity
  8
LAY-10
  6
CONTINUOUS
 62
     7
100
AcDbLine
 10
381.3234884603056
 20
601.1817520215782
 30
0.0
 11
386.9744205189153
 21
603.1996465202627
 31
0.0
  0
LINE
  5
312
330
1F
100
AcDbEntity
  8
LAY-10
  6
CONTINUOUS
 62
     7
100
AcDbLine
 10
400.6056408283943
 20
575.2951875345886
 30
0.0
 11
399.0813029669045
 21
574.0002198088519
 31
0.0
  0
LINE
  5
313
330
1F
100
AcDbEntity
  8
LAY-10
  6
CONTINUOUS
 62
     7
100
AcDbLine
 10
385.4270631098829
 20
601.585255329683
 30
0.0
 11
383.5434192315691
 21
600.9126238805508
 31
0.0
  0
ARC
  5
314
330
1F
100
AcDbEntity
  8
LAY-10
  6
CONTINUOUS
 62
     7
100
AcDbCircle
 10
465.000000000009
 20
630.0000000000102
 30
0.0
 40
87.50000000000159
100
AcDbArc
 50
170.3135603257643
 51
189.686439674236
  0
ARC
  5
315
330
1F
100
AcDbEntity
  8
LAY-10
  6
CONTINUOUS
 62
     7
100
AcDbCircle
 10
465.000000000009
 20
630.0000000000102
 30
0.0
 40
83.49999999999932
100
AcDbArc
 50
170.3292390068968
 51
189.6707609931036
  0
LINE
  5
316
330
1F
100
AcDbEntity
  8
LAY-10
  6
CONTINUOUS
 62
     7
100
AcDbLine
 10
378.9234248987165
 20
614.2814371257583
 30
0.0
 11
378.124891317351
 21
613.1190790720265
 31
0.0
  0
LINE
  5
317
330
1F
100
AcDbEntity
  8
LAY-10
  6
CONTINUOUS
 62
     7
100
AcDbLine
 10
382.8583540462063
 20
615.0000000000102
 30
0.0
 11
384.0276892845092
 21
614.1969972033138
 31
0.0
  0
LINE
  5
318
330
1F
100
AcDbEntity
  8
LAY-10
  6
CONTINUOUS
 62
     7
100
AcDbLine
 10
378.9234248987165
 20
645.7185628742621
 30
0.0
 11
378.1248913173484
 21
646.8809209279804
 31
0.0
  0
LINE
  5
319
330
1F
100
AcDbEntity
  8
LAY-10
  6
CONTINUOUS
 62
     7
100
AcDbLine
 10
382.8583540462063
 20
645.0000000000102
 30
0.0
 11
384.0276892845065
 21
645.803002796693
 31
0.0
  0
ARC
  5
31A
330
1F
100
AcDbEntity
  8
LAY-10
  6
CONTINUOUS
 62
     7
100
AcDbCircle
 10
465.000000000009
 20
630.0000000000102
 30
0.0
 40
88.50000000000287
100
AcDbArc
 50
169.0037429011438
 51
190.9962570988654
  0
ARC
  5
31B
330
1F
100
AcDbEntity
  8
LAY-10
  6
CONTINUOUS
 62
     7
100
AcDbCircle
 10
465.000000000009
 20
630.0000000000102
 30
0.0
 40
82.4999999999992
100
AcDbArc
 50
168.9566553119801
 51
175.6180383258793
  0
LINE
  5
31C
330
1F
100
AcDbEntity
  8
LAY-10
  6
CONTINUOUS
 62
     7
100
AcDbLine
 10
378.1248913173508
 20
613.1190790720265
 30
0.0
 11
384.0276892845092
 21
614.1969972033138
 31
0.0
  0
LINE
  5
31D
330
1F
100
AcDbEntity
  8
LAY-10
  6
CONTINUOUS
 62
     7
100
AcDbLine
 10
378.1248913173484
 20
646.8809209279801
 30
0.0
 11
384.0276892845065
 21
645.803002796693
 31
0.0
  0
LINE
  5
31E
330
1F
100
AcDbEntity
  8
LAY-10
  6
CONTINUOUS
 62
     7
100
AcDbLine
 10
381.8804428642601
 20
614.8214222814988
 30
0.0
 11
379.9128436893915
 21
614.4621162646748
 31
0.0
  0
LINE
  5
31F
330
1F
100
AcDbEntity
  8
LAY-10
  6
CONTINUOUS
 62
     7
100
AcDbLine
 10
381.8804428642601
 20
645.1785777185214
 30
0.0
 11
379.9128436893915
 21
645.5378837353456
 31
0.0
  0
ARC
  5
320
330
1F
100
AcDbEntity
  8
LAY-10
  6
CONTINUOUS
 62
     7
100
AcDbCircle
 10
465.000000000009
 20
630.0000000000102
 30
0.0
 40
87.50000000000159
100
AcDbArc
 50
140.3135603257643
 51
159.6864396742363
  0
ARC
  5
321
330
1F
100
AcDbEntity
  8
LAY-10
  6
CONTINUOUS
 62
     7
100
AcDbCircle
 10
465.000000000009
 20
630.0000000000102
 30
0.0
 40
83.49999999999932
100
AcDbArc
 50
140.3292390068967
 51
159.670760993104
  0
LINE
  5
322
330
1F
100
AcDbEntity
  8
LAY-10
  6
CONTINUOUS
 62
     7
100
AcDbLine
 10
382.5962178544045
 20
659.4256127905714
 30
0.0
 11
381.3234884603013
 21
658.818247978429
 31
0.0
  0
LINE
  5
323
330
1F
100
AcDbEntity
  8
LAY-10
  6
CONTINUOUS
 62
     7
100
AcDbLine
 10
386.3632478953485
 20
658.0804419201451
 30
0.0
 11
386.9744205189112
 21
656.8003534797446
 31
0.0
  0
LINE
  5
324
330
1F
100
AcDbEntity
  8
LAY-10
  6
CONTINUOUS
 62
     7
100
AcDbLine
 10
398.3147807286568
 20
686.6509623107415
 30
0.0
 11
398.2044093882759
 21
688.056860704239
 31
0.0
  0
LINE
  5
325
330
1F
100
AcDbEntity
  8
LAY-10
  6
CONTINUOUS
 62
     7
100
AcDbLine
 10
401.3632478953485
 20
684.0612040336781
 30
0.0
 11
402.7774233155985
 21
684.1719572357654
 31
0.0
  0
ARC
  5
326
330
1F
100
AcDbEntity
  8
LAY-10
  6
CONTINUOUS
 62
     7
100
AcDbCircle
 10
465.000000000009
 20
630.0000000000102
 30
0.0
 40
88.50000000000287
100
AcDbArc
 50
139.0037429011438
 51
160.996257098866
  0
ARC
  5
327
330
1F
100
AcDbEntity
  8
LAY-10
  6
CONTINUOUS
 62
     7
100
AcDbCircle
 10
465.000000000009
 20
630.0000000000102
 30
0.0
 40
82.4999999999992
100
AcDbArc
 50
138.9566553119801
 51
161.0433446880301
  0
LINE
  5
328
330
1F
100
AcDbEntity
  8
LAY-10
  6
CONTINUOUS
 62
     7
100
AcDbLine
 10
381.3234884603011
 20
658.8182479784291
 30
0.0
 11
386.9744205189112
 21
656.8003534797446
 31
0.0
  0
LINE
  5
329
330
1F
100
AcDbEntity
  8
LAY-10
  6
CONTINUOUS
 62
     7
100
AcDbLine
 10
398.2044093882759
 20
688.0568607042389
 30
0.0
 11
402.7774233155985
 21
684.1719572357654
 31
0.0
  0
LINE
  5
32A
330
1F
100
AcDbEntity
  8
LAY-10
  6
CONTINUOUS
 62
     7
100
AcDbLine
 10
385.4270631098829
 20
658.4147446703374
 30
0.0
 11
383.5434192315691
 21
659.0873761194697
 31
0.0
  0
LINE
  5
32B
330
1F
100
AcDbEntity
  8
LAY-10
  6
CONTINUOUS
 62
     7
100
AcDbLine
 10
400.6056408283943
 20
684.7048124654318
 30
0.0
 11
399.0813029669047
 21
685.9997801911684
 31
0.0
  0
ARC
  5
32C
330
1F
100
AcDbEntity
  8
LAY-10
  6
CONTINUOUS
 62
     7
100
AcDbCircle
 10
465.000000000009
 20
630.0000000000102
 30
0.0
 40
87.50000000000159
100
AcDbArc
 50
110.3135603257643
 51
129.6864396742358
  0
ARC
  5
32D
330
1F
100
AcDbEntity
  8
LAY-10
  6
CONTINUOUS
 62
     7
100
AcDbCircle
 10
465.000000000009
 20
630.0000000000102
 30
0.0
 40
83.49999999999932
100
AcDbArc
 50
110.3292390068968
 51
129.6707609931038
  0
LINE
  5
32E
330
1F
100
AcDbEntity
  8
LAY-10
  6
CONTINUOUS
 62
     7
100
AcDbLine
 10
408.3490376892777
 20
696.6852192713627
 30
0.0
 11
406.9431392957699
 21
696.7955906117343
 31
0.0
  0
LINE
  5
32F
330
1F
100
AcDbEntity
  8
LAY-10
  6
CONTINUOUS
 62
     7
100
AcDbLine
 10
410.9387959663413
 20
693.6367521046706
 30
0.0
 11
410.8280427642434
 21
692.2225766844119
 31
0.0
  0
LINE
  5
330
330
1F
100
AcDbEntity
  8
LAY-10
  6
CONTINUOUS
 62
     7
100
AcDbLine
 10
435.574387209448
 20
712.4037821456146
 30
0.0
 11
436.1817520215772
 21
713.6765115397135
 31
0.0
  0
LINE
  5
331
330
1F
100
AcDbEntity
  8
LAY-10
  6
CONTINUOUS
 62
     7
100
AcDbLine
 10
436.9195580798743
 20
708.6367521046706
 30
0.0
 11
438.1996465202619
 21
708.0255794811039
 31
0.0
  0
ARC
  5
332
330
1F
100
AcDbEntity
  8
LAY-10
  6
CONTINUOUS
 62
     7
100
AcDbCircle
 10
465.000000000009
 20
630.0000000000102
 30
0.0
 40
88.50000000000287
100
AcDbArc
 50
109.0037429011435
 51
130.9962570988656
  0
ARC
  5
333
330
1F
100
AcDbEntity
  8
LAY-10
  6
CONTINUOUS
 62
     7
100
AcDbCircle
 10
465.000000000009
 20
630.0000000000102
 30
0.0
 40
82.4999999999992
100
AcDbArc
 50
108.9566553119799
 51
131.0433446880298
  0
LINE
  5
334
330
1F
100
AcDbEntity
  8
LAY-10
  6
CONTINUOUS
 62
     7
100
AcDbLine
 10
406.9431392957699
 20
696.7955906117345
 30
0.0
 11
410.8280427642434
 21
692.2225766844119
 31
0.0
  0
LINE
  5
335
330
1F
100
AcDbEntity
  8
LAY-10
  6
CONTINUOUS
 62
     7
100
AcDbLine
 10
436.1817520215772
 20
713.6765115397135
 30
0.0
 11
438.1996465202619
 21
708.0255794811039
 31
0.0
  0
LINE
  5
336
330
1F
100
AcDbEntity
  8
LAY-10
  6
CONTINUOUS
 62
     7
100
AcDbLine
 10
410.2951875345875
 20
694.3943591716252
 30
0.0
 11
409.0002198088508
 21
695.9186970331149
 31
0.0
  0
LINE
  5
337
330
1F
100
AcDbEntity
  8
LAY-10
  6
CONTINUOUS
 62
     7
100
AcDbLine
 10
436.585255329682
 20
709.5729368901364
 30
0.0
 11
435.9126238805497
 21
711.4565807684501
 31
0.0
  0
ARC
  5
338
330
1F
100
AcDbEntity
  8
LAY-10
  6
CONTINUOUS
 62
     7
100
AcDbCircle
 10
465.000000000009
 20
630.0000000000102
 30
0.0
 40
87.50000000000159
100
AcDbArc
 50
80.3135603257645
 51
99.68643967423597
  0
ARC
  5
339
330
1F
100
AcDbEntity
  8
LAY-10
  6
CONTINUOUS
 62
     7
100
AcDbCircle
 10
465.000000000009
 20
630.0000000000102
 30
0.0
 40
83.49999999999932
100
AcDbArc
 50
80.32923900689657
 51
99.6707609931038
  0
LINE
  5
33A
330
1F
100
AcDbEntity
  8
LAY-10
  6
CONTINUOUS
 62
     7
100
AcDbLine
 10
449.2814371257572
 20
716.0765751013028
 30
0.0
 11
448.1190790720256
 21
716.8751086826683
 31
0.0
  0
LINE
  5
33B
330
1F
100
AcDbEntity
  8
LAY-10
  6
CONTINUOUS
 62
     7
100
AcDbLine
 10
450.000000000009
 20
712.1416459538129
 30
0.0
 11
449.1969972033127
 21
710.9723107155102
 31
0.0
  0
LINE
  5
33C
330
1F
100
AcDbEntity
  8
LAY-10
  6
CONTINUOUS
 62
     7
100
AcDbLine
 10
480.7185628742611
 20
716.0765751013028
 30
0.0
 11
481.8809209279793
 21
716.875108682671
 31
0.0
  0
LINE
  5
33D
330
1F
100
AcDbEntity
  8
LAY-10
  6
CONTINUOUS
 62
     7
100
AcDbLine
 10
480.000000000009
 20
712.1416459538129
 30
0.0
 11
480.8030027966919
 21
710.9723107155129
 31
0.0
  0
ARC
  5
33E
330
1F
100
AcDbEntity
  8
LAY-10
  6
CONTINUOUS
 62
     7
100
AcDbCircle
 10
465.000000000009
 20
630.0000000000102
 30
0.0
 40
88.50000000000287
100
AcDbArc
 50
79.00374290114368
 51
100.9962570988655
  0
ARC
  5
33F
330
1F
100
AcDbEntity
  8
LAY-10
  6
CONTINUOUS
 62
     7
100
AcDbCircle
 10
465.000000000009
 20
630.0000000000102
 30
0.0
 40
82.4999999999992
100
AcDbArc
 50
78.95665531198026
 51
87.01232074777214
  0
LINE
  5
340
330
1F
100
AcDbEntity
  8
LAY-10
  6
CONTINUOUS
 62
     7
100
AcDbLine
 10
448.1190790720256
 20
716.8751086826686
 30
0.0
 11
449.1969972033127
 21
710.9723107155102
 31
0.0
  0
LINE
  5
341
330
1F
100
AcDbEntity
  8
LAY-10
  6
CONTINUOUS
 62
     7
100
AcDbLine
 10
481.8809209279793
 20
716.875108682671
 30
0.0
 11
480.8030027966919
 21
710.9723107155129
 31
0.0
  0
LINE
  5
342
330
1F
100
AcDbEntity
  8
LAY-10
  6
CONTINUOUS
 62
     7
100
AcDbLine
 10
449.8214222814979
 20
713.119557135759
 30
0.0
 11
449.462116264674
 21
715.0871563106277
 31
0.0
  0
LINE
  5
343
330
1F
100
AcDbEntity
  8
LAY-10
  6
CONTINUOUS
 62
     7
100
AcDbLine
 10
480.1785777185204
 20
713.119557135759
 30
0.0
 11
480.5378837353446
 21
715.0871563106277
 31
0.0
  0
ARC
  5
344
330
1F
100
AcDbEntity
  8
LAY-10
  6
CONTINUOUS
 62
     7
100
AcDbCircle
 10
465.000000000009
 20
630.0000000000102
 30
0.0
 40
87.50000000000159
100
AcDbArc
 50
50.31356032576426
 51
69.68643967423588
  0
ARC
  5
345
330
1F
100
AcDbEntity
  8
LAY-10
  6
CONTINUOUS
 62
     7
100
AcDbCircle
 10
465.000000000009
 20
630.0000000000102
 30
0.0
 40
83.49999999999932
100
AcDbArc
 50
50.3292390068965
 51
69.67076099310383
  0
LINE
  5
346
330
1F
100
AcDbEntity
  8
LAY-10
  6
CONTINUOUS
 62
     7
100
AcDbLine
 10
494.4256127905704
 20
712.4037821456146
 30
0.0
 11
493.8182479784281
 21
713.6765115397179
 31
0.0
  0
LINE
  5
347
330
1F
100
AcDbEntity
  8
LAY-10
  6
CONTINUOUS
 62
     7
100
AcDbLine
 10
493.080441920144
 20
708.6367521046706
 30
0.0
 11
491.8003534797435
 21
708.0255794811081
 31
0.0
  0
LINE
  5
348
330
1F
100
AcDbEntity
  8
LAY-10
  6
CONTINUOUS
 62
     7
100
AcDbLine
 10
521.6509623107405
 20
696.6852192713627
 30
0.0
 11
523.0568607042383
 21
696.7955906117434
 31
0.0
  0
LINE
  5
349
330
1F
100
AcDbEntity
  8
LAY-10
  6
CONTINUOUS
 62
     7
100
AcDbLine
 10
519.0612040336773
 20
693.6367521046706
 30
0.0
 11
519.1719572357645
 21
692.2225766844209
 31
0.0
  0
ARC
  5
34A
330
1F
100
AcDbEntity
  8
LAY-10
  6
CONTINUOUS
 62
     7
100
AcDbCircle
 10
465.000000000009
 20
630.0000000000102
 30
0.0
 40
88.50000000000287
100
AcDbArc
 50
49.00374290114332
 51
70.99625709886543
  0
ARC
  5
34B
330
1F
100
AcDbEntity
  8
LAY-10
  6
CONTINUOUS
 62
     7
100
AcDbCircle
 10
465.000000000009
 20
630.0000000000102
 30
0.0
 40
82.4999999999992
100
AcDbArc
 50
48.95665531197968
 51
71.04334468802959
  0
LINE
  5
34C
330
1F
100
AcDbEntity
  8
LAY-10
  6
CONTINUOUS
 62
     7
100
AcDbLine
 10
493.8182479784281
 20
713.6765115397183
 30
0.0
 11
491.8003534797435
 21
708.0255794811081
 31
0.0
  0
LINE
  5
34D
330
1F
100
AcDbEntity
  8
LAY-10
  6
CONTINUOUS
 62
     7
100
AcDbLine
 10
523.0568607042379
 20
696.7955906117434
 30
0.0
 11
519.1719572357645
 21
692.2225766844209
 31
0.0
  0
LINE
  5
34E
330
1F
100
AcDbEntity
  8
LAY-10
  6
CONTINUOUS
 62
     7
100
AcDbLine
 10
493.4147446703363
 20
709.5729368901362
 30
0.0
 11
494.0873761194686
 21
711.4565807684501
 31
0.0
  0
LINE
  5
34F
330
1F
100
AcDbEntity
  8
LAY-10
  6
CONTINUOUS
 62
     7
100
AcDbLine
 10
519.7048124654307
 20
694.3943591716251
 30
0.0
 11
520.9997801911672
 21
695.9186970331147
 31
0.0
  0
ARC
  5
350
330
1F
100
AcDbEntity
  8
LAY-10
  6
CONTINUOUS
 62
     7
100
AcDbCircle
 10
465.000000000009
 20
630.0000000000102
 30
0.0
 40
87.50000000000159
100
AcDbArc
 50
20.31356032576419
 51
39.68643967423566
  0
ARC
  5
351
330
1F
100
AcDbEntity
  8
LAY-10
  6
CONTINUOUS
 62
     7
100
AcDbCircle
 10
465.000000000009
 20
630.0000000000102
 30
0.0
 40
83.49999999999932
100
AcDbArc
 50
20.32923900689632
 51
39.67076099310382
  0
LINE
  5
352
330
1F
100
AcDbEntity
  8
LAY-10
  6
CONTINUOUS
 62
     7
100
AcDbLine
 10
531.6852192713617
 20
686.6509623107415
 30
0.0
 11
531.7955906117332
 21
688.0568607042495
 31
0.0
  0
LINE
  5
353
330
1F
100
AcDbEntity
  8
LAY-10
  6
CONTINUOUS
 62
     7
100
AcDbLine
 10
528.6367521046695
 20
684.0612040336781
 30
0.0
 11
527.2225766844108
 21
684.1719572357758
 31
0.0
  0
LINE
  5
354
330
1F
100
AcDbEntity
  8
LAY-10
  6
CONTINUOUS
 62
     7
100
AcDbLine
 10
547.4037821456135
 20
659.4256127905714
 30
0.0
 11
548.6765115397124
 21
658.818247978442
 31
0.0
  0
LINE
  5
355
330
1F
100
AcDbEntity
  8
LAY-10
  6
CONTINUOUS
 62
     7
100
AcDbLine
 10
543.6367521046694
 20
658.0804419201451
 30
0.0
 11
543.0255794811027
 21
656.8003534797575
 31
0.0
  0
ARC
  5
356
330
1F
100
AcDbEntity
  8
LAY-10
  6
CONTINUOUS
 62
     7
100
AcDbCircle
 10
465.000000000009
 20
630.0000000000102
 30
0.0
 40
88.50000000000287
100
AcDbArc
 50
19.00374290114325
 51
40.99625709886536
  0
ARC
  5
357
330
1F
100
AcDbEntity
  8
LAY-10
  6
CONTINUOUS
 62
     7
100
AcDbCircle
 10
465.000000000009
 20
630.0000000000102
 30
0.0
 40
82.4999999999992
100
AcDbArc
 50
18.95665531197967
 51
41.04334468802958
  0
LINE
  5
358
330
1F
100
AcDbEntity
  8
LAY-10
  6
CONTINUOUS
 62
     7
100
AcDbLine
 10
531.7955906117335
 20
688.0568607042495
 30
0.0
 11
527.2225766844108
 21
684.1719572357758
 31
0.0
  0
LINE
  5
359
330
1F
100
AcDbEntity
  8
LAY-10
  6
CONTINUOUS
 62
     7
100
AcDbLine
 10
548.6765115397124
 20
658.8182479784421
 30
0.0
 11
543.0255794811027
 21
656.8003534797575
 31
0.0
  0
LINE
  5
35A
330
1F
100
AcDbEntity
  8
LAY-10
  6
CONTINUOUS
 62
     7
100
AcDbLine
 10
529.394359171624
 20
684.7048124654318
 30
0.0
 11
530.9186970331139
 21
685.9997801911683
 31
0.0
  0
LINE
  5
35B
330
1F
100
AcDbEntity
  8
LAY-10
  6
CONTINUOUS
 62
     7
100
AcDbLine
 10
544.5729368901351
 20
658.4147446703374
 30
0.0
 11
546.4565807684488
 21
659.0873761194697
 31
0.0
  0
LINE
  5
35C
330
1F
100
AcDbEntity
  8
LAY-10
  6
CONTINUOUS
 62
     7
100
AcDbLine
 10
551.0765751013017
 20
645.7185628742621
 30
0.0
 11
551.8751086826672
 21
646.8809209279938
 31
0.0
  0
LINE
  5
35D
330
1F
100
AcDbEntity
  8
LAY-10
  6
CONTINUOUS
 62
     7
100
AcDbLine
 10
547.1416459538119
 20
645.0000000000102
 30
0.0
 11
545.972310715509
 21
645.8030027967067
 31
0.0
  0
LINE
  5
35E
330
1F
100
AcDbEntity
  8
LAY-10
  6
CONTINUOUS
 62
     7
100
AcDbLine
 10
551.0765751013017
 20
614.2814371257583
 30
0.0
 11
551.87510868267
 21
613.1190790720401
 31
0.0
  0
LINE
  5
35F
330
1F
100
AcDbEntity
  8
LAY-10
  6
CONTINUOUS
 62
     7
100
AcDbLine
 10
547.1416459538119
 20
615.0000000000102
 30
0.0
 11
545.9723107155118
 21
614.1969972033272
 31
0.0
  0
ARC
  5
360
330
1F
100
AcDbEntity
  8
LAY-10
  6
CONTINUOUS
 62
     7
100
AcDbCircle
 10
465.000000000009
 20
630.0000000000102
 30
0.0
 40
88.50000000000287
100
AcDbArc
 50
349.0037429011434
 51
10.99625709886518
  0
ARC
  5
361
330
1F
100
AcDbEntity
  8
LAY-10
  6
CONTINUOUS
 62
     7
100
AcDbCircle
 10
465.000000000009
 20
630.0000000000102
 30
0.0
 40
87.50000000000159
100
AcDbArc
 50
350.3135603257643
 51
9.686439674235764
  0
ARC
  5
362
330
1F
100
AcDbEntity
  8
LAY-10
  6
CONTINUOUS
 62
     7
100
AcDbCircle
 10
465.000000000009
 20
630.0000000000102
 30
0.0
 40
83.49999999999932
100
AcDbArc
 50
350.3292390068963
 51
9.670760993103517
  0
ARC
  5
363
330
1F
100
AcDbEntity
  8
LAY-10
  6
CONTINUOUS
 62
     7
100
AcDbCircle
 10
465.000000000009
 20
630.0000000000102
 30
0.0
 40
82.4999999999992
100
AcDbArc
 50
348.9566553119801
 51
355.618038325879
  0
LINE
  5
364
330
1F
100
AcDbEntity
  8
LAY-10
  6
CONTINUOUS
 62
     7
100
AcDbLine
 10
551.8751086826676
 20
646.8809209279938
 30
0.0
 11
545.972310715509
 21
645.8030027967067
 31
0.0
  0
LINE
  5
365
330
1F
100
AcDbEntity
  8
LAY-10
  6
CONTINUOUS
 62
     7
100
AcDbLine
 10
551.87510868267
 20
613.1190790720401
 30
0.0
 11
545.9723107155118
 21
614.1969972033272
 31
0.0
  0
LINE
  5
366
330
1F
100
AcDbEntity
  8
LAY-10
  6
CONTINUOUS
 62
     7
100
AcDbLine
 10
548.1195571357579
 20
645.1785777185214
 30
0.0
 11
550.0871563106266
 21
645.5378837353454
 31
0.0
  0
LINE
  5
367
330
1F
100
AcDbEntity
  8
LAY-10
  6
CONTINUOUS
 62
     7
100
AcDbLine
 10
548.1195571357579
 20
614.8214222814988
 30
0.0
 11
550.0871563106266
 21
614.4621162646748
 31
0.0
  0
CIRCLE
  5
368
330
1F
100
AcDbEntity
  8
LAY-10
  6
CONTINUOUS
 62
     7
100
AcDbCircle
 10
465.000000000009
 20
630.0000000000102
 30
0.0
 40
102.5000000000003
  0
CIRCLE
  5
369
330
1F
100
AcDbEntity
  8
LAY-10
  6
CONTINUOUS
 62
     7
100
AcDbCircle
 10
465.000000000009
 20
630.0000000000102
 30
0.0
 40
101.4999999999552
  0
CIRCLE
  5
36A
330
1F
100
AcDbEntity
  8
LAY-10
  6
CONTINUOUS
 62
     7
100
AcDbCircle
 10
465.000000000009
 20
630.000000000015
 30
0.0
 40
106.5000000000007
  0
CIRCLE
  5
36B
330
1F
100
AcDbEntity
  8
LAY-10
  6
CONTINUOUS
 62
     7
100
AcDbCircle
 10
465.000000000009
 20
630.000000000015
 30
0.0
 40
111.5000000000001
  0
CIRCLE
  5
36C
330
1F
100
AcDbEntity
  8
LAY-10
  6
CONTINUOUS
 62
     7
100
AcDbCircle
 10
465.000000000009
 20
630.000000000015
 30
0.0
 40
112.5000000000001
  0
LINE
  5
36D
330
1F
100
AcDbEntity
  8
LAY-10
  6
CONTINUOUS
 62
     7
100
AcDbLine
 10
372.4999999999969
 20
230.1986412405187
 30
0.0
 11
372.4999999999969
 21
231.1986412405169
 31
0.0
  0
LINE
  5
36E
330
1F
100
AcDbEntity
  8
LAY-10
  6
CONTINUOUS
 62
     7
100
AcDbLine
 10
377.4999999999962
 20
230.1986412405187
 30
0.0
 11
377.4999999999962
 21
231.198641240518
 31
0.0
  0
LINE
  5
36F
330
1F
100
AcDbEntity
  8
LAY-10
  6
CONTINUOUS
 62
     7
100
AcDbLine
 10
377.4999999999962
 20
231.198641240518
 30
0.0
 11
372.4999999999969
 21
231.198641240518
 31
0.0
  0
LINE
  5
370
330
1F
100
AcDbEntity
  8
LAY-10
  6
CONTINUOUS
 62
     7
100
AcDbLine
 10
377.9999999999994
 20
229.698641240518
 30
0.0
 11
371.9999999999994
 21
229.698641240518
 31
0.0
  0
LINE
  5
371
330
1F
100
AcDbEntity
  8
LAY-10
  6
CONTINUOUS
 62
     7
100
AcDbLine
 10
377.4999999999994
 20
230.1986412405187
 30
0.0
 11
372.4999999999994
 21
230.1986412405187
 31
0.0
  0
LINE
  5
372
330
1F
100
AcDbEntity
  8
LAY-10
  6
CONTINUOUS
 62
     7
100
AcDbLine
 10
374.9999999999992
 20
232.6420169134936
 30
0.0
 11
372.4999999999983
 21
231.198641240519
 31
0.0
  0
LINE
  5
373
330
1F
100
AcDbEntity
  8
LAY-10
  6
CONTINUOUS
 62
     7
100
AcDbLine
 10
374.9999999999997
 20
232.6420169134934
 30
0.0
 11
377.5000000000001
 21
231.198641240519
 31
0.0
  0
LINE
  5
374
330
1F
100
AcDbEntity
  8
LAY-10
  6
CONTINUOUS
 62
     7
100
AcDbLine
 10
360.4999999999999
 20
200.1986412405274
 30
0.0
 11
360.4999999999999
 21
205.1986412405273
 31
0.0
  0
LINE
  5
375
330
1F
100
AcDbEntity
  8
LAY-10
  6
CONTINUOUS
 62
     7
100
AcDbLine
 10
370.5000000000003
 20
205.1986412405273
 30
0.0
 11
360.4999999999999
 21
205.1986412405273
 31
0.0
  0
ARC
  5
376
330
1F
100
AcDbEntity
  8
LAY-10
  6
CONTINUOUS
 62
     7
100
AcDbCircle
 10
370.5000000000003
 20
207.1986412405273
 30
0.0
 40
2.0
100
AcDbArc
 50
270.0000000000002
 51
0.0
  0
LINE
  5
377
330
1F
100
AcDbEntity
  8
LAY-10
  6
CONTINUOUS
 62
     7
100
AcDbLine
 10
370.5000000000003
 20
200.1986412405274
 30
0.0
 11
360.4999999999999
 21
200.1986412405274
 31
0.0
  0
ARC
  5
378
330
1F
100
AcDbEntity
  8
LAY-10
  6
CONTINUOUS
 62
     7
100
AcDbCircle
 10
370.5000000000003
 20
207.1986412405273
 30
0.0
 40
7.000000000000004
100
AcDbArc
 50
270.0000000000002
 51
0.0
  0
LINE
  5
379
330
1F
100
AcDbEntity
  8
LAY-10
  6
CONTINUOUS
 62
     7
100
AcDbLine
 10
372.4999999999994
 20
207.1986412405229
 30
0.0
 11
372.4999999999994
 21
222.1986412405226
 31
0.0
  0
LINE
  5
37A
330
1F
100
AcDbEntity
  8
LAY-10
  6
CONTINUOUS
 62
     7
100
AcDbLine
 10
377.4999999999994
 20
207.1986412405229
 30
0.0
 11
377.4999999999994
 21
222.1986412405226
 31
0.0
  0
LINE
  5
37B
330
1F
100
AcDbEntity
  8
LAY-10
  6
CONTINUOUS
 62
     7
100
AcDbLine
 10
377.4999999999962
 20
228.1986412405275
 30
0.0
 11
372.4999999999969
 21
228.1986412405275
 31
0.0
  0
LINE
  5
37C
330
1F
100
AcDbEntity
  8
LAY-10
  6
CONTINUOUS
 62
     7
100
AcDbLine
 10
377.9999999999976
 20
227.6986412405289
 30
0.0
 11
371.9999999999985
 21
227.6986412405289
 31
0.0
  0
LINE
  5
37D
330
1F
100
AcDbEntity
  8
LAY-10
  6
CONTINUOUS
 62
     7
100
AcDbLine
 10
372.4999999999969
 20
230.1986412405187
 30
0.0
 11
372.4999999999969
 21
228.1986412405275
 31
0.0
  0
LINE
  5
37E
330
1F
100
AcDbEntity
  8
LAY-10
  6
CONTINUOUS
 62
     7
100
AcDbLine
 10
377.4999999999962
 20
230.1986412405187
 30
0.0
 11
377.4999999999962
 21
228.1986412405275
 31
0.0
  0
LINE
  5
37F
330
1F
100
AcDbEntity
  8
LAY-10
  6
CONTINUOUS
 62
     7
100
AcDbLine
 10
371.9999999999994
 20
227.6986412405329
 30
0.0
 11
372.4999999999994
 21
228.1986412405229
 31
0.0
  0
LINE
  5
380
330
1F
100
AcDbEntity
  8
LAY-10
  6
CONTINUOUS
 62
     7
100
AcDbLine
 10
377.4999999999994
 20
228.1986412405229
 30
0.0
 11
377.9999999999994
 21
227.6986412405329
 31
0.0
  0
LINE
  5
381
330
1F
100
AcDbEntity
  8
LAY-10
  6
CONTINUOUS
 62
     7
100
AcDbLine
 10
377.9999999999994
 20
227.6986412405329
 30
0.0
 11
377.9999999999994
 21
222.1986412405229
 31
0.0
  0
LINE
  5
382
330
1F
100
AcDbEntity
  8
LAY-10
  6
CONTINUOUS
 62
     7
100
AcDbLine
 10
371.9999999999994
 20
227.6986412405329
 30
0.0
 11
371.9999999999994
 21
222.1986412405229
 31
0.0
  0
LINE
  5
383
330
1F
100
AcDbEntity
  8
LAY-10
  6
CENTER
 62
     2
100
AcDbLine
 10
387.9999999999999
 20
229.1999999999948
 30
0.0
 11
387.9999999999999
 21
253.1000000000099
 31
0.0
  0
LINE
  5
384
330
1F
100
AcDbEntity
  8
LAY-10
  6
CENTER
 62
     2
100
AcDbLine
 10
521.499999999999
 20
216.0000000000052
 30
0.0
 11
521.499999999999
 21
271.40135875949
 31
0.0
  0
LINE
  5
385
330
1F
100
AcDbEntity
  8
LAY-10
  6
CENTER
 62
     2
100
AcDbLine
 10
465.0
 20
395.70000000001
 30
0.0
 11
465.0
 21
154.4000000000099
 31
0.0
  0
LINE
  5
386
330
1F
100
AcDbEntity
  8
LAY-10
  6
CENTER
 62
     2
100
AcDbLine
 10
582.4999999999991
 20
630.00000000001
 30
0.0
 11
345.8512485607091
 21
630.00000000001
 31
0.0
  0
LINE
  5
387
330
1F
100
AcDbEntity
  8
LAY-10
  6
CENTER
 62
     2
100
AcDbLine
 10
464.999999999999
 20
512.50000000001
 30
0.0
 11
464.999999999999
 21
749.6927621124601
 31
0.0
  0
LINE
  5
388
330
1F
100
AcDbEntity
  8
LAY-10
  6
CENTER
 62
     2
100
AcDbLine
 10
418.7411792845789
 20
597.1226277774006
 30
0.0
 11
413.3979500878337
 21
606.3773722226492
 31
0.0
  0
LINE
  5
389
330
1F
100
AcDbEntity
  8
LAY-10
  6
CENTER
 62
     2
100
AcDbLine
 10
410.9738494277835
 20
598.8079874238571
 30
0.0
 11
421.3425027757311
 21
604.7943322254284
 31
0.0
  0
LINE
  5
38A
330
1F
100
AcDbEntity
  8
LAY-10
  6
CENTER
 62
     2
100
AcDbLine
 10
511.2588207154192
 20
597.1226277774006
 30
0.0
 11
516.6020499121644
 21
606.3773722226492
 31
0.0
  0
LINE
  5
38B
330
1F
100
AcDbEntity
  8
LAY-10
  6
CENTER
 62
     2
100
AcDbLine
 10
519.0640670846947
 20
598.7860963151817
 30
0.0
 11
508.4842921435301
 21
604.8943322254285
 31
0.0
  0
ARC
  5
38C
330
1F
100
AcDbEntity
  8
LAY-10
  6
CENTER
 62
     2
100
AcDbCircle
 10
465.00000000002
 20
630.0000000000099
 30
0.0
 40
56.50000000000003
100
AcDbArc
 50
84.60208626784636
 51
95.39791373217565
  0
LINE
  5
38D
330
1F
100
AcDbEntity
  8
LAY-10
  6
CENTER
 62
     2
100
AcDbLine
 10
541.999999999989
 20
636.4986412405301
 30
0.0
 11
541.999999999989
 21
623.6786412405299
 31
0.0
  0
LINE
  5
38E
330
1F
100
AcDbEntity
  8
LAY-10
  6
CENTER
 62
     2
100
AcDbLine
 10
388.000000000009
 20
636.4986412405301
 30
0.0
 11
388.000000000009
 21
623.6786412405299
 31
0.0
  0
LINE
  5
38F
330
1F
100
AcDbEntity
  8
LAY-10
  6
CENTER
 62
     2
100
AcDbLine
 10
359.3000000000005
 20
202.6986412405285
 30
0.0
 11
370.4999999999994
 21
202.6986412405285
 31
0.0
  0
ARC
  5
390
330
1F
100
AcDbEntity
  8
LAY-10
  6
CENTER
 62
     2
100
AcDbCircle
 10
370.4999999999994
 20
207.1986412405285
 30
0.0
 40
4.5
100
AcDbArc
 50
270.0000000000002
 51
0.0
  0
LINE
  5
391
330
1F
100
AcDbEntity
  8
LAY-10
  6
CENTER
 62
     2
100
AcDbLine
 10
374.9999999999992
 20
233.4000000000127
 30
0.0
 11
374.9999999999992
 21
207.1986412405285
 31
0.0
  0
LINE
  5
392
330
1F
100
AcDbEntity
  8
LAY-10
  6
CONTINUOUS
 62
     7
100
AcDbLine
 10
390.5000000000004
 20
247.4999999999895
 30
0.0
 11
390.5000000000004
 21
235.4999999999918
 31
0.0
  0
LINE
  5
393
330
1F
100
AcDbEntity
  8
LAY-10
  6
CONTINUOUS
 62
     7
100
AcDbLine
 10
385.5000000000005
 20
247.4999999999895
 30
0.0
 11
385.5000000000005
 21
235.4999999999918
 31
0.0
  0
LINE
  5
394
330
1F
100
AcDbEntity
  8
LAY-10
  6
CONTINUOUS
 62
     7
100
AcDbLine
 10
384.9999999999996
 20
233.0979876410979
 30
0.0
 11
384.9999999999996
 21
235.99999999999
 31
0.0
  0
LINE
  5
395
330
1F
100
AcDbEntity
  8
LAY-10
  6
CONTINUOUS
 62
     7
100
AcDbLine
 10
390.9999999999999
 20
235.99999999999
 30
0.0
 11
390.9999999999999
 21
231.4902924865114
 31
0.0
  0
LINE
  5
396
330
1F
100
AcDbEntity
  8
LAY-10
  6
CONTINUOUS
 62
     7
100
AcDbLine
 10
517.5000000000014
 20
220.1986412405053
 30
0.0
 11
518.000000000003
 21
220.1986412405053
 31
0.0
  0
LINE
  5
397
330
1F
100
AcDbEntity
  8
LAY-10
  6
CONTINUOUS
 62
     7
100
AcDbLine
 10
524.999999999998
 20
220.1986412405053
 30
0.0
 11
525.5000000000011
 21
220.1986412405053
 31
0.0
  0
LINE
  5
398
330
1F
100
AcDbEntity
  8
LAY-10
  6
CONTINUOUS
 62
     7
100
AcDbLine
 10
517.5000000000013
 20
220.6986412405035
 30
0.0
 11
517.5000000000013
 21
220.1986412405099
 31
0.0
  0
LINE
  5
399
330
1F
100
AcDbEntity
  8
LAY-10
  6
CONTINUOUS
 62
     7
100
AcDbLine
 10
525.5000000000011
 20
220.6986412405035
 30
0.0
 11
525.5000000000011
 21
220.1986412405099
 31
0.0
  0
LINE
  5
39A
330
1F
100
AcDbEntity
  8
LAY-10
  6
CONTINUOUS
 62
     7
100
AcDbLine
 10
517.9999999999995
 20
270.1986412405056
 30
0.0
 11
517.9999999999995
 21
239.7999999999999
 31
0.0
  0
LINE
  5
39B
330
1F
100
AcDbEntity
  8
LAY-10
  6
CONTINUOUS
 62
     7
100
AcDbLine
 10
517.9999999999995
 20
232.999999999995
 30
0.0
 11
517.9999999999995
 21
220.1986412405049
 31
0.0
  0
LINE
  5
39C
330
1F
100
AcDbEntity
  8
LAY-10
  6
CONTINUOUS
 62
     7
100
AcDbLine
 10
524.9999999999982
 20
270.1986412405056
 30
0.0
 11
524.9999999999982
 21
239.7999999999999
 31
0.0
  0
LINE
  5
39D
330
1F
100
AcDbEntity
  8
LAY-10
  6
CONTINUOUS
 62
     7
100
AcDbLine
 10
524.9999999999982
 20
232.999999999995
 30
0.0
 11
524.9999999999982
 21
220.1986412405049
 31
0.0
  0
LINE
  5
39E
330
1F
100
AcDbEntity
  8
LAY-10
  6
CONTINUOUS
 62
     7
100
AcDbLine
 10
461.4999999999999
 20
227.9999999999943
 30
0.0
 11
461.4999999999999
 21
227.1986412405167
 31
0.0
  0
LINE
  5
39F
330
1F
100
AcDbEntity
  8
LAY-10
  6
CONTINUOUS
 62
     7
100
AcDbLine
 10
461.4999999999999
 20
239.7999999999799
 30
0.0
 11
461.4999999999999
 21
270.1986412405099
 31
0.0
  0
LINE
  5
3A0
330
1F
100
AcDbEntity
  8
LAY-10
  6
CONTINUOUS
 62
     7
100
AcDbLine
 10
371.9999999999985
 20
229.698641240518
 30
0.0
 11
372.4999999999969
 21
230.1986412405187
 31
0.0
  0
LINE
  5
3A1
330
1F
100
AcDbEntity
  8
LAY-10
  6
CONTINUOUS
 62
     7
100
AcDbLine
 10
377.9999999999976
 20
229.698641240518
 30
0.0
 11
377.4999999999962
 21
230.1986412405187
 31
0.0
  0
LINE
  5
3A2
330
1F
100
AcDbEntity
  8
LAY-10
  6
CONTINUOUS
 62
     7
100
AcDbLine
 10
371.9999999999985
 20
229.698641240518
 30
0.0
 11
371.9999999999985
 21
227.6986412405289
 31
0.0
  0
LINE
  5
3A3
330
1F
100
AcDbEntity
  8
LAY-10
  6
CONTINUOUS
 62
     7
100
AcDbLine
 10
377.9999999999976
 20
229.698641240518
 30
0.0
 11
377.9999999999976
 21
227.6986412405289
 31
0.0
  0
LINE
  5
3A4
330
1F
100
AcDbEntity
  8
LAY-10
  6
CONTINUOUS
 62
     7
100
AcDbLine
 10
372.4999999999994
 20
228.1986412405229
 30
0.0
 11
372.4999999999994
 21
222.1986412405229
 31
0.0
  0
LINE
  5
3A5
330
1F
100
AcDbEntity
  8
LAY-10
  6
CONTINUOUS
 62
     7
100
AcDbLine
 10
377.4999999999994
 20
228.1986412405229
 30
0.0
 11
377.4999999999994
 21
222.1986412405229
 31
0.0
  0
LINE
  5
3A6
330
1F
100
AcDbEntity
  8
LAY-10
  6
CONTINUOUS
 62
     7
100
AcDbLine
 10
377.5000000000176
 20
221.3326158367279
 30
0.0
 11
378.0000000000176
 21
222.1986412405125
 31
0.0
  0
LINE
  5
3A7
330
1F
100
AcDbEntity
  8
LAY-10
  6
CONTINUOUS
 62
     7
100
AcDbLine
 10
372.4999999999874
 20
221.3326158367315
 30
0.0
 11
371.9999999999874
 21
222.198641240516
 31
0.0
  0
DIMENSION
  5
3A9
330
1F
100
AcDbEntity
  8
LAY-20
  6
CONTINUOUS
 62
     4
100
AcDbDimension
  2
*D15
 10
322.5
 20
240.19864124052
 30
0.0
 11
315.0
 21
227.69864124052
 31
0.0
 70
   160
  3
ISO-25
100
AcDbAlignedDimension
 13
398.15687182303
 23
215.19864124052
 33
0.0
 14
353.5
 24
240.19864124052
 34
0.0
 50
90.0
100
AcDbRotatedDimension
1001
ACAD
1000
DSTYLE
1002
{
1070
   270
1070
     2
1070
     6
1000
EX_BNORM
1070
     7
1000
EX_BNORM
1070
    41
1040
7.5
1070
    42
1040
4.5
1070
    44
1040
4.5
1070
    73
1070
     0
1070
    74
1070
     0
1070
    75
1070
     0
1070
    76
1070
     0
1070
    77
1070
     1
1070
    78
1070
     8
1070
   140
1040
9.3543312
1070
   147
1040
0.0
1070
   173
1070
     1
1070
   176
1070
     4
1070
   177
1070
     4
1070
   178
1070
     7
1070
   271
1070
     1
1070
   277
1070
     2
1070
   279
1070
     2
1070
   280
1070
     0
1070
   287
1070
     5
1070
   340
1005
3A8
1002
}
  0
DIMENSION
  5
3B7
330
1F
100
AcDbEntity
  8
LAY-20
  6
CONTINUOUS
 62
     4
100
AcDbDimension
  2
*D16
 10
607.5
 20
240.19864124052
 30
0.0
 11
600.0
 21
200.19864124052
 31
0.0
 70
   160
  3
ISO-25
100
AcDbAlignedDimension
 13
535.0
 23
160.19864124052
 33
0.0
 14
576.5
 24
240.19864124052
 34
0.0
 50
90.0
100
AcDbRotatedDimension
1001
ACAD
1000
DSTYLE
1002
{
1070
   270
1070
     2
1070
     6
1000
EX_BNORM
1070
     7
1000
EX_BNORM
1070
    41
1040
7.5
1070
    42
1040
4.5
1070
    44
1040
4.5
1070
    73
1070
     0
1070
    74
1070
     0
1070
    75
1070
     0
1070
    76
1070
     0
1070
    77
1070
     1
1070
    78
1070
     8
1070
   140
1040
9.3543312
1070
   147
1040
0.0
1070
   173
1070
     1
1070
   176
1070
     4
1070
   177
1070
     4
1070
   178
1070
     7
1070
   271
1070
     1
1070
   277
1070
     2
1070
   279
1070
     2
1070
   280
1070
     0
1070
   287
1070
     5
1070
   340
1005
3A8
1002
}
  0
DIMENSION
  5
3C4
330
1F
100
AcDbEntity
  8
LAY-20
  6
CONTINUOUS
 62
     4
100
AcDbDimension
  2
*D17
 10
607.5
 20
389.9999999999899
 30
0.0
 11
600.0
 21
315.099320620255
 31
0.0
 70
   160
  1
150
  3
ISO-25
100
AcDbAlignedDimension
 13
607.5
 23
240.19864124052
 33
0.0
 14
465.0
 24
389.9999999999899
 34
0.0
 50
90.0
100
AcDbRotatedDimension
1001
ACAD
1000
DSTYLE
1002
{
1070
   270
1070
     2
1070
     6
1000
EX_BNORM
1070
     7
1000
EX_BNORM
1070
    41
1040
7.5
1070
    42
1040
4.5
1070
    44
1040
4.5
1070
    73
1070
     0
1070
    74
1070
     0
1070
    75
1070
     1
1070
    76
1070
     0
1070
    77
1070
     1
1070
    78
1070
     8
1070
   140
1040
9.3543312
1070
   147
1040
0.0
1070
   173
1070
     1
1070
   176
1070
     4
1070
   177
1070
     4
1070
   178
1070
     7
1070
   271
1070
     1
1070
   277
1070
     2
1070
   279
1070
     2
1070
   280
1070
     0
1070
   287
1070
     5
1070
   340
1005
3A8
1002
}
  0
DIMENSION
  5
3D0
330
1F
100
AcDbEntity
  8
LAY-20
  6
CONTINUOUS
 62
     4
100
AcDbDimension
  2
*D18
 10
546.00000000001
 20
419.9999999999899
 30
0.0
 11
465.0
 21
427.4999999999899
 31
0.0
 70
   160
  1
%%c<>
  3
ISO-25
100
AcDbAlignedDimension
 13
383.99999999999
 23
250.06670062307
 33
0.0
 14
546.00000000001
 24
248.49999999999
 34
0.0
100
AcDbRotatedDimension
1001
ACAD
1000
DSTYLE
1002
{
1070
   270
1070
     2
1070
     6
1000
EX_BNORM
1070
     7
1000
EX_BNORM
1070
    41
1040
9.0
1070
    42
1040
4.5
1070
    44
1040
4.5
1070
    73
1070
     0
1070
    74
1070
     0
1070
    75
1070
     0
1070
    76
1070
     0
1070
    77
1070
     1
1070
    78
1070
     8
1070
   140
1040
9.3543312
1070
   147
1040
0.0
1070
   173
1070
     1
1070
   176
1070
     4
1070
   177
1070
     4
1070
   178
1070
     7
1070
   271
1070
     1
1070
   277
1070
     2
1070
   279
1070
     2
1070
   280
1070
     0
1070
   287
1070
     5
1070
   340
1005
3A8
1002
}
  0
DIMENSION
  5
3DD
330
1F
100
AcDbEntity
  8
LAY-20
  6
CONTINUOUS
 62
     4
100
AcDbDimension
  2
*D19
 10
567.5
 20
440.9999999999899
 30
0.0
 11
465.0
 21
448.4999999999899
 31
0.0
 70
   160
  1
%%c<>
  3
ISO-25
100
AcDbAlignedDimension
 13
362.5
 23
242.99999999999
 33
0.0
 14
567.5
 24
242.99999999999
 34
0.0
100
AcDbRotatedDimension
1001
ACAD
1000
DSTYLE
1002
{
1070
   270
1070
     2
1070
     6
1000
EX_BNORM
1070
     7
1000
EX_BNORM
1070
    41
1040
9.0
1070
    42
1040
4.5
1070
    44
1040
4.5
1070
    73
1070
     0
1070
    74
1070
     0
1070
    75
1070
     0
1070
    76
1070
     0
1070
    77
1070
     1
1070
    78
1070
     8
1070
   140
1040
9.3543312
1070
   147
1040
0.0
1070
   173
1070
     1
1070
   176
1070
     4
1070
   177
1070
     4
1070
   178
1070
     7
1070
   271
1070
     1
1070
   277
1070
     2
1070
   279
1070
     2
1070
   280
1070
     0
1070
   287
1070
     5
1070
   340
1005
3A8
1002
}
  0
DIMENSION
  5
3EA
330
1F
100
AcDbEntity
  8
LAY-20
  6
CONTINUOUS
 62
     4
100
AcDbDimension
  2
*D20
 10
577.5
 20
461.9999999999899
 30
0.0
 11
465.0
 21
469.4999999999899
 31
0.0
 70
   160
  1
%%c<>
  3
ISO-25
100
AcDbAlignedDimension
 13
352.5
 23
237.69864124052
 33
0.0
 14
577.5
 24
237.69864124052
 34
0.0
100
AcDbRotatedDimension
1001
ACAD
1000
DSTYLE
1002
{
1070
   270
1070
     2
1070
     6
1000
EX_BNORM
1070
     7
1000
EX_BNORM
1070
    41
1040
9.0
1070
    42
1040
4.5
1070
    44
1040
4.5
1070
    73
1070
     0
1070
    74
1070
     0
1070
    75
1070
     0
1070
    76
1070
     0
1070
    77
1070
     1
1070
    78
1070
     8
1070
   140
1040
9.3543312
1070
   147
1040
0.0
1070
   173
1070
     1
1070
   176
1070
     4
1070
   177
1070
     4
1070
   178
1070
     7
1070
   271
1070
     1
1070
   277
1070
     2
1070
   279
1070
     2
1070
   280
1070
     0
1070
   287
1070
     5
1070
   340
1005
3A8
1002
}
  0
DIMENSION
  5
3F7
330
1F
100
AcDbEntity
  8
LAY-20
  6
CONTINUOUS
 62
     4
100
AcDbDimension
  2
*D21
 10
512.0
 20
130.19864124052
 30
0.0
 11
465.0
 21
137.69864124052
 31
0.0
 70
   160
  1
%%c<>
  3
ISO-25
100
AcDbAlignedDimension
 13
417.9999999999999
 23
175.19864124052
 33
0.0
 14
512.0
 24
175.19864124052
 34
0.0
100
AcDbRotatedDimension
1001
ACAD
1000
DSTYLE
1002
{
1070
   270
1070
     2
1070
     6
1000
EX_BNORM
1070
     7
1000
EX_BNORM
1070
    41
1040
9.0
1070
    42
1040
4.5
1070
    44
1040
4.5
1070
    73
1070
     0
1070
    74
1070
     0
1070
    75
1070
     0
1070
    76
1070
     0
1070
    77
1070
     1
1070
    78
1070
     8
1070
   140
1040
9.3543312
1070
   147
1040
0.0
1070
   173
1070
     1
1070
   176
1070
     4
1070
   177
1070
     4
1070
   178
1070
     7
1070
   271
1070
     1
1070
   277
1070
     2
1070
   279
1070
     2
1070
   280
1070
     0
1070
   287
1070
     5
1070
   340
1005
3A8
1002
}
  0
DIMENSION
  5
404
330
1F
100
AcDbEntity
  8
LAY-20
  6
CONTINUOUS
 62
     4
100
AcDbDimension
  2
*D22
 10
513.5
 20
109.19864124052
 30
0.0
 11
465.0
 21
116.69864124052
 31
0.0
 70
   160
  1
%%c<>
  3
ISO-25
100
AcDbAlignedDimension
 13
416.4999999999999
 23
210.69864124052
 33
0.0
 14
513.5
 24
210.69864124052
 34
0.0
100
AcDbRotatedDimension
1001
ACAD
1000
DSTYLE
1002
{
1070
   270
1070
     2
1070
     6
1000
EX_BNORM
1070
     7
1000
EX_BNORM
1070
    41
1040
9.0
1070
    42
1040
4.5
1070
    44
1040
4.5
1070
    73
1070
     0
1070
    74
1070
     0
1070
    75
1070
     0
1070
    76
1070
     0
1070
    77
1070
     1
1070
    78
1070
     8
1070
   140
1040
9.3543312
1070
   147
1040
0.0
1070
   173
1070
     1
1070
   176
1070
     4
1070
   177
1070
     4
1070
   178
1070
     7
1070
   271
1070
     1
1070
   277
1070
     2
1070
   279
1070
     2
1070
   280
1070
     0
1070
   287
1070
     5
1070
   340
1005
3A8
1002
}
  0
LINE
  5
411
330
1F
100
AcDbEntity
  8
LAY-255
  6
CONTINUOUS
 62
     7
100
AcDbLine
 10
1155.0
 20
66.0
 30
0.0
 11
855.0
 21
66.0
 31
0.0
  0
LINE
  5
412
330
1F
100
AcDbEntity
  8
LAY-255
  6
CONTINUOUS
 62
     7
100
AcDbLine
 10
866.4000000000001
 20
48.0
 30
0.0
 11
890.4000000000001
 21
63.0
 31
0.0
  0
LINE
  5
413
330
1F
100
AcDbEntity
  8
LAY-255
  6
CONTINUOUS
 62
     7
100
AcDbLine
 10
890.4000000000001
 20
63.0
 30
0.0
 11
914.4000000000001
 21
48.0
 31
0.0
  0
LINE
  5
414
330
1F
100
AcDbEntity
  8
LAY-255
  6
CONTINUOUS
 62
     7
100
AcDbLine
 10
914.4000000000001
 20
48.0
 30
0.0
 11
890.4000000000001
 21
33.0
 31
0.0
  0
LINE
  5
415
330
1F
100
AcDbEntity
  8
LAY-255
  6
CONTINUOUS
 62
     7
100
AcDbLine
 10
890.4000000000001
 20
33.0
 30
0.0
 11
866.4000000000001
 21
48.0
 31
0.0
  0
LINE
  5
416
330
1F
100
AcDbEntity
  8
LAY-255
  6
CONTINUOUS
 62
     7
100
AcDbLine
 10
15.0
 20
30.0
 30
0.0
 11
1155.0
 21
30.0
 31
0.0
  0
LINE
  5
417
330
1F
100
AcDbEntity
  8
LAY-255
  6
CONTINUOUS
 62
     7
100
AcDbLine
 10
15.0
 20
840.0
 30
0.0
 11
1155.0
 21
840.0
 31
0.0
  0
LINE
  5
418
330
1F
100
AcDbEntity
  8
LAY-255
  6
CONTINUOUS
 62
     7
100
AcDbLine
 10
15.0
 20
30.0
 30
0.0
 11
15.0
 21
840.0
 31
0.0
  0
LINE
  5
419
330
1F
100
AcDbEntity
  8
LAY-255
  6
CONTINUOUS
 62
     4
100
AcDbLine
 10
855.0
 20
84.0
 30
0.0
 11
1155.0
 21
84.0
 31
0.0
  0
LINE
  5
41A
330
1F
100
AcDbEntity
  8
LAY-255
  6
CONTINUOUS
 62
     4
100
AcDbLine
 10
1005.0
 20
84.0
 30
0.0
 11
1005.0
 21
66.0
 31
0.0
  0
LINE
  5
41B
330
1F
100
AcDbEntity
  8
LAY-255
  6
CONTINUOUS
 62
     7
100
AcDbLine
 10
1155.0
 20
30.0
 30
0.0
 11
1155.0
 21
840.0
 31
0.0
  0
LINE
  5
41C
330
1F
100
AcDbEntity
  8
LAY-255
  6
CONTINUOUS
 62
     7
100
AcDbLine
 10
855.0
 20
30.0
 30
0.0
 11
855.0
 21
216.0
 31
0.0
  0
LINE
  5
41D
330
1F
100
AcDbEntity
  8
LAY-255
  6
CONTINUOUS
 62
     7
100
AcDbLine
 10
1155.0
 20
216.0
 30
0.0
 11
855.0
 21
216.0
 31
0.0
  0
LINE
  5
41E
330
1F
100
AcDbEntity
  8
LAY-255
  6
CONTINUOUS
 62
     4
100
AcDbLine
 10
1149.0
 20
180.0
 30
0.0
 11
861.0
 21
180.0
 31
0.0
  0
LINE
  5
41F
330
1F
100
AcDbEntity
  8
LAY-255
  6
CONTINUOUS
 62
     4
100
AcDbLine
 10
1149.0
 20
198.0
 30
0.0
 11
861.0
 21
198.0
 31
0.0
  0
POINT
  5
420
330
1F
100
AcDbEntity
  8
LAY-255
  6
CONTINUOUS
 62
     7
100
AcDbPoint
 10
900.0
 20
183.0
 30
0.0
  0
POINT
  5
421
330
1F
100
AcDbEntity
  8
LAY-255
  6
CONTINUOUS
 62
     7
100
AcDbPoint
 10
900.0
 20
201.0
 30
0.0
  0
TEXT
  5
422
330
1F
100
AcDbEntity
  8
LAY-255
  6
CONTINUOUS
 62
     7
100
AcDbText
 10
924.415136826172
 20
46.63125
 30
0.0
 40
15.46875
  1
福西鋳物株式会社
 41
1.342692141742901
  7
EXCADSTD
100
AcDbText
  0
TEXT
  5
423
330
1F
100
AcDbEntity
  8
LAY-255
  6
CONTINUOUS
 62
     7
100
AcDbText
 10
925.528125
 20
35.94375
 30
0.0
 40
5.15625
  1
ＦＵＫＵＮＩＳＨＩ
 41
1.204799226045263
  7
EXCADSTD
100
AcDbText
  0
TEXT
  5
424
330
1F
100
AcDbEntity
  8
LAY-255
  6
CONTINUOUS
 62
     7
100
AcDbText
 10
998.1575892857143
 20
35.94375
 30
0.0
 40
5.15625
  1
ＦＯＵＮＤＲＹ
 41
1.243252752978497
  7
EXCADSTD
100
AcDbText
  0
TEXT
  5
425
330
1F
100
AcDbEntity
  8
LAY-255
  6
CONTINUOUS
 62
     7
100
AcDbText
 10
1055.983774651442
 20
35.94375
 30
0.0
 40
5.15625
  1
ＣＯ.,ＬＴＤ.
 41
1.243831271314936
  7
EXCADSTD
100
AcDbText
  0
TEXT
  5
426
330
1F
100
AcDbEntity
  8
LAY-255
  6
CONTINUOUS
 62
     7
100
AcDbText
 10
882.1031250000001
 20
41.15625
 30
0.0
 40
15.46875
  1
S
 41
0.7582677563636363
  7
EXCADSTD
100
AcDbText
  0
TEXT
  5
427
330
1F
100
AcDbEntity
  8
LAY-255
  6
CONTINUOUS
 62
     7
100
AcDbText
 10
891.3140625000001
 20
41.24823113208
 30
0.0
 40
15.46875
  1
F
 41
0.7440945272727273
  7
EXCADSTD
100
AcDbText
  0
TEXT
  5
428
330
1F
100
AcDbEntity
  8
LAY-255
  6
CONTINUOUS
 62
     7
100
AcDbText
 10
1011.31640625
 20
73.26562499999997
 30
0.0
 40
7.734375
  1
縮尺
 41
1.080708718181818
  7
EXCADSTD
100
AcDbText
  0
TEXT
  5
429
330
1F
100
AcDbEntity
  8
LAY-255
  6
CONTINUOUS
 62
     7
100
AcDbText
 10
861.45703125
 20
73.26562499999997
 30
0.0
 40
7.734375
  1
作成日
 41
1.000629973818182
  7
EXCADSTD
100
AcDbText
  0
TEXT
  5
42A
330
1F
100
AcDbEntity
  8
LAY-255
  6
CONTINUOUS
 62
     7
100
AcDbText
 10
1044.84375
 20
70.68749999999997
 30
0.0
 40
10.3125
  1
１：３
 41
0.8844094952727272
  7
EXCADSTD
100
AcDbText
  0
TEXT
  5
42B
330
1F
100
AcDbEntity
  8
LAY-255
  6
CONTINUOUS
 62
     7
100
AcDbText
 10
861.796875
 20
184.6875
 30
0.0
 40
10.3125
  1
型式
 41
1.056348480681818
  7
EXCADSTD
100
AcDbText
  0
TEXT
  5
42C
330
1F
100
AcDbEntity
  8
LAY-255
  6
CONTINUOUS
 62
     7
100
AcDbText
 10
862.265625
 20
202.6875
 30
0.0
 40
10.3125
  1
品名
 41
0.978838634090909
  7
EXCADSTD
100
AcDbText
  0
TEXT
  5
42D
330
1F
100
AcDbEntity
  8
LAY-255
  6
CONTINUOUS
 62
     7
100
AcDbText
 10
900.75
 20
202.6875
 30
0.0
 40
10.3125
  1
ルーフドレイン
 41
1.021169538599106
  7
EXCADSTD
100
AcDbText
  0
TEXT
  5
42E
330
1F
100
AcDbEntity
  8
LAY-255
  6
CONTINUOUS
 62
     7
100
AcDbText
 10
902.25
 20
184.6875
 30
0.0
 40
10.3125
  1
ＳＦ－ＳＵＳＶ－９１００型
 41
1.004758697075099
  7
EXCADSTD
100
AcDbText
  0
TEXT
  5
42F
330
1F
100
AcDbEntity
  8
LAY-255
  6
CONTINUOUS
 62
     7
100
AcDbText
 10
867.5625
 20
106.6875
 30
0.0
 40
10.3125
  1
施工：打込用
 41
1.018700840909091
  7
EXCADSTD
100
AcDbText
  0
TEXT
  5
430
330
1F
100
AcDbEntity
  8
LAY-255
  6
CONTINUOUS
 62
     7
100
AcDbText
 10
867.703125
 20
121.6875
 30
0.0
 40
10.3125
  1
用途：屋上用
 41
1.016656625174825
  7
EXCADSTD
100
AcDbText
  0
TEXT
  5
431
330
1F
100
AcDbEntity
  8
LAY-255
  6
CONTINUOUS
 62
     7
100
AcDbText
 10
867.421875
 20
136.6875
 30
0.0
 40
10.3125
  1
材質：ステンレス鋼鋳鋼
 41
1.017696295032802
  7
EXCADSTD
100
AcDbText
  0
TEXT
  5
432
330
1F
100
AcDbEntity
  8
LAY-255
  6
CONTINUOUS
 62
     7
100
AcDbText
 10
867.0
 20
151.6875000000001
 30
0.0
 40
10.3125
  1
      露出アスファルト防水兼用
 41
0.894274438169777
  7
EXCADSTD
100
AcDbText
  0
TEXT
  5
433
330
1F
100
AcDbEntity
  8
LAY-255
  6
CONTINUOUS
 62
     7
100
AcDbText
 10
868.125
 20
166.6875000000001
 30
0.0
 40
10.3125
  1
防水：アスファルト・シート・
 41
0.9866967752199413
  7
EXCADSTD
100
AcDbText
  0
TEXT
  5
434
330
1F
100
AcDbEntity
  8
LAY-255
  6
CONTINUOUS
 62
     7
100
AcDbText
 10
867.65625
 20
91.68750000000003
 30
0.0
 40
10.3125
  1
接続：差込用
 41
1.01733803041958
  7
EXCADSTD
100
AcDbText
  0
TEXT
  5
435
330
1F
100
AcDbEntity
  8
LAY-255
  6
CONTINUOUS
 62
     7
100
AcDbText
 10
902.671875
 20
70.68749999999997
 30
0.0
 40
10.3125
  1
０７／０１／０５
 41
0.9779528072727272
  7
EXCADSTD
100
AcDbText
  0
ENDSEC
  0
SECTION
  2
OBJECTS
  0
DICTIONARY
  5
C
330
0
100
AcDbDictionary
  3
ACAD_GROUP
350
D
  3
ACAD_LAYOUT
350
1A
  3
ACAD_MATERIAL
350
43
  3
ACAD_MLEADERSTYLE
350
6B
  3
ACAD_MLINESTYLE
350
17
  3
ACAD_PLOTSETTINGS
350
19
  3
ACAD_SCALELIST
350
47
  3
ACAD_VISUALSTYLE
350
2A
  3
ACDBHEADERROUNDTRIPXREC
350
436
  3
ACDBVARIABLEDICTIONARY
350
457
  0
DICTIONARY
  5
462
330
8
100
AcDbDictionary
280
     1
  3
ACAD_XREC_ROUNDTRIP
360
463
  0
DICTIONARY
  5
D
102
{ACAD_REACTORS
330
C
102
}
330
C
100
AcDbDictionary
  0
DICTIONARY
  5
1A
102
{ACAD_REACTORS
330
C
102
}
330
C
100
AcDbDictionary
  0
DICTIONARY
  5
43
102
{ACAD_REACTORS
330
C
102
}
330
C
100
AcDbDictionary
  3
BYBLOCK
350
45
  3
BYLAYER
350
44
  3
GLOBAL
350
46
  0
DICTIONARY
  5
6B
102
{ACAD_REACTORS
330
C
102
}
330
C
100
AcDbDictionary
  3
STANDARD
350
6C
  0
DICTIONARY
  5
17
102
{ACAD_REACTORS
330
C
102
}
330
C
100
AcDbDictionary
  3
STANDARD
350
18
  0
DICTIONARY
  5
19
102
{ACAD_REACTORS
330
C
102
}
330
C
100
AcDbDictionary
  0
DICTIONARY
  5
47
102
{ACAD_REACTORS
330
C
102
}
330
C
100
AcDbDictionary
  3
A0
350
48
  3
A1
350
49
  3
A2
350
4A
  3
A3
350
4B
  3
A4
350
4C
  3
A5
350
4D
  3
A6
350
4E
  3
A7
350
4F
  3
A8
350
50
  3
A9
350
51
  3
B0
350
52
  3
B1
350
53
  3
B2
350
54
  3
B3
350
55
  3
B4
350
56
  3
B5
350
57
  3
B6
350
58
  3
B7
350
59
  3
B8
350
5A
  3
B9
350
5B
  3
C0
350
5C
  3
C1
350
5D
  3
C2
350
5E
  3
C3
350
5F
  3
C4
350
60
  3
C5
350
61
  3
C6
350
62
  3
C7
350
63
  3
C8
350
64
  3
C9
350
65
  3
D0
350
66
  3
D1
350
67
  3
D2
350
68
  0
DICTIONARY
  5
2A
102
{ACAD_REACTORS
330
C
102
}
330
C
100
AcDbDictionary
  3
2DWIREFRAME
350
2F
  3
BASIC
350
32
  3
BRIGHTEN
350
36
  3
COLORCHANGE
350
3A
  3
CONCEPTUAL
350
34
  3
DIM
350
35
  3
EDGECOLOROFF
350
3D
  3
FACEPATTERN
350
39
  3
FLAT
350
2B
  3
FLATWITHEDGES
350
2C
  3
GOURAUD
350
2D
  3
GOURAUDWITHEDGES
350
2E
  3
HIDDEN
350
31
  3
JITTEROFF
350
3B
  3
LINEPATTERN
350
38
  3
OVERHANGOFF
350
3C
  3
REALISTIC
350
33
  3
SHADED
350
42
  3
SHADED_WITH_EDGES
350
41
  3
SHADES_OF_GRAY
350
3E
  3
SKETCHY
350
3F
  3
THICKEN
350
37
  3
WIREFRAME
350
30
  3
X-RAY
350
40
  0
DICTIONARY
  5
436
102
{ACAD_REACTORS
330
C
102
}
330
C
100
AcDbDictionary
  3
CEPSNID
350
440
  3
CEPSNTYPE
350
43F
  3
DIMSTYLEDATA
350
456
  3
FINGERPRINTGUID
350
441
  3
HYPERLINKBASE
350
439
  3
INSUNITS
350
43E
  3
LAYOUTDICT
350
43B
  3
LWETCUNION
350
43D
  3
PLOTSETDICT
350
43C
  3
PSVPSCALE
350
443
  3
PUCSBASE
350
446
  3
PUCSORGBACK
350
44C
  3
PUCSORGBOTTOM
350
448
  3
PUCSORGFRONT
350
44B
  3
PUCSORGLEFT
350
449
  3
PUCSORGRIGHT
350
44A
  3
PUCSORGTOP
350
447
  3
PUCSORTHOREF
350
444
  3
PUCSORTHOVIEW
350
445
  3
STYLESHEET
350
43A
  3
TSTACKALIGN
350
437
  3
TSTACKSIZE
350
438
  3
UCSBASE
350
44F
  3
UCSORGBACK
350
455
  3
UCSORGBOTTOM
350
451
  3
UCSORGFRONT
350
454
  3
UCSORGLEFT
350
452
  3
UCSORGRIGHT
350
453
  3
UCSORGTOP
350
450
  3
UCSORTHOREF
350
44D
  3
UCSORTHOVIEW
350
44E
  3
VERSIONGUID
350
442
  0
DICTIONARY
  5
457
102
{ACAD_REACTORS
330
C
102
}
330
C
100
AcDbDictionary
  3
CANNOSCALE
350
464
  3
CENTEREXE
350
45E
  3
CENTERLTYPEFILE
350
45F
  3
CMLEADERSTYLE
350
459
  3
CTABLESTYLE
350
458
  3
DIMASSOC
350
460
  3
HIDETEXT
350
461
  3
MSLTSCALE
350
465
  3
PSOLHEIGHT
350
45B
  3
PSOLWIDTH
350
45A
  0
XRECORD
  5
463
102
{ACAD_REACTORS
330
462
102
}
330
462
100
AcDbXrecord
102
VTR_0.000_0.000_1.000_1.000_VISUALSTYLE
340
2F
102
VTR_0.000_0.000_1.000_1.000_GRIDDISPLAY
 70
     3
102
VTR_0.000_0.000_1.000_1.000_GRIDMAJOR
 70
     5
102
VTR_0.000_0.000_1.000_1.000_DEFAULTLIGHTING
280
     1
102
VTR_0.000_0.000_1.000_1.000_DEFAULTLIGHTINGTYPE
 70
     1
102
VTR_0.000_0.000_1.000_1.000_BRIGHTNESS
141
0.0
102
VTR_0.000_0.000_1.000_1.000_CONTRAST
142
0.0
  0
MATERIAL
  5
45
102
{ACAD_REACTORS
330
43
102
}
102
{ACAD_XDICTIONARY
360
468
102
}
330
43
100
AcDbMaterial
  1
BYBLOCK
  0
MATERIAL
  5
44
102
{ACAD_REACTORS
330
43
102
}
102
{ACAD_XDICTIONARY
360
466
102
}
330
43
100
AcDbMaterial
  1
BYLAYER
  0
MATERIAL
  5
46
102
{ACAD_REACTORS
330
43
102
}
102
{ACAD_XDICTIONARY
360
46A
102
}
330
43
100
AcDbMaterial
  1
GLOBAL
  0
ACAD_PROXY_OBJECT
  5
6C
102
{ACAD_REACTORS
330
6B
102
}
330
6B
100
AcDbProxyObject
 90
      499
 91
      505
 93
      610
310
40901902A4063FBFFFFFE0000000000000020400000000000020404214DD185B99185C990000000000000104090141901A00000000000004100000000000000041025764000000000000039000
340
14
340
0
340
11
340
0
 94
        0
1001
ACAD_MLEADERVER
1070
     2
  0
MLINESTYLE
  5
18
102
{ACAD_REACTORS
330
17
102
}
330
17
100
AcDbMlineStyle
  2
Standard
 70
     0
  3

 62
   256
 51
90.0
 52
90.0
 71
     2
 49
0.5
 62
   256
  6
BYLAYER
 49
-0.5
 62
   256
  6
BYLAYER
  0
ACAD_PROXY_OBJECT
  5
48
102
{ACAD_REACTORS
330
47
102
}
330
47
100
AcDbProxyObject
 90
      499
 91
      503
 93
       41
310
903313A31580
  0
ACAD_PROXY_OBJECT
  5
49
102
{ACAD_REACTORS
330
47
102
}
330
47
100
AcDbProxyObject
 90
      499
 91
      503
 93
      105
310
903313A324000000000000004000
  0
ACAD_PROXY_OBJECT
  5
4A
102
{ACAD_REACTORS
330
47
102
}
330
47
100
AcDbProxyObject
 90
      499
 91
      503
 93
      105
310
903313A344000000000000104000
  0
ACAD_PROXY_OBJECT
  5
4B
102
{ACAD_REACTORS
330
47
102
}
330
47
100
AcDbProxyObject
 90
      499
 91
      503
 93
      105
310
903313A354000000000000144000
  0
ACAD_PROXY_OBJECT
  5
4C
102
{ACAD_REACTORS
330
47
102
}
330
47
100
AcDbProxyObject
 90
      499
 91
      503
 93
      105
310
903313A384000000000000204000
  0
ACAD_PROXY_OBJECT
  5
4D
102
{ACAD_REACTORS
330
47
102
}
330
47
100
AcDbProxyObject
 90
      499
 91
      503
 93
      113
310
904313A31304000000000000244000
  0
ACAD_PROXY_OBJECT
  5
4E
102
{ACAD_REACTORS
330
47
102
}
330
47
100
AcDbProxyObject
 90
      499
 91
      503
 93
      113
310
904313A31364000000000000304000
  0
ACAD_PROXY_OBJECT
  5
4F
102
{ACAD_REACTORS
330
47
102
}
330
47
100
AcDbProxyObject
 90
      499
 91
      503
 93
      113
310
904313A32304000000000000344000
  0
ACAD_PROXY_OBJECT
  5
50
102
{ACAD_REACTORS
330
47
102
}
330
47
100
AcDbProxyObject
 90
      499
 91
      503
 93
      113
310
904313A333040000000000003E4000
  0
ACAD_PROXY_OBJECT
  5
51
102
{ACAD_REACTORS
330
47
102
}
330
47
100
AcDbProxyObject
 90
      499
 91
      503
 93
      113
310
904313A34304000000000000444000
  0
ACAD_PROXY_OBJECT
  5
52
102
{ACAD_REACTORS
330
47
102
}
330
47
100
AcDbProxyObject
 90
      499
 91
      503
 93
      113
310
904313A35304000000000000494000
  0
ACAD_PROXY_OBJECT
  5
53
102
{ACAD_REACTORS
330
47
102
}
330
47
100
AcDbProxyObject
 90
      499
 91
      503
 93
      121
310
905313A3130304000000000000594000
  0
ACAD_PROXY_OBJECT
  5
54
102
{ACAD_REACTORS
330
47
102
}
330
47
100
AcDbProxyObject
 90
      499
 91
      503
 93
      105
310
903323A310000000000000010100
  0
ACAD_PROXY_OBJECT
  5
55
102
{ACAD_REACTORS
330
47
102
}
330
47
100
AcDbProxyObject
 90
      499
 91
      503
 93
      105
310
903343A310000000000000410100
  0
ACAD_PROXY_OBJECT
  5
56
102
{ACAD_REACTORS
330
47
102
}
330
47
100
AcDbProxyObject
 90
      499
 91
      503
 93
      105
310
903383A310000000000000810100
  0
ACAD_PROXY_OBJECT
  5
57
102
{ACAD_REACTORS
330
47
102
}
330
47
100
AcDbProxyObject
 90
      499
 91
      503
 93
      113
310
90431303A310000000000000910100
  0
ACAD_PROXY_OBJECT
  5
58
102
{ACAD_REACTORS
330
47
102
}
330
47
100
AcDbProxyObject
 90
      499
 91
      503
 93
      121
310
9053130303A310000000000001650100
  0
ACAD_PROXY_OBJECT
  5
59
102
{ACAD_REACTORS
330
47
102
}
330
47
100
AcDbProxyObject
 90
      499
 91
      503
 93
      257
310
90E312F31323822203D2031272D3022000000000000200FC000000000000284000
  0
ACAD_PROXY_OBJECT
  5
5A
102
{ACAD_REACTORS
330
47
102
}
330
47
100
AcDbProxyObject
 90
      499
 91
      503
 93
      249
310
90D312F363422203D2031272D3022000000000000240FC000000000000284000
  0
ACAD_PROXY_OBJECT
  5
5B
102
{ACAD_REACTORS
330
47
102
}
330
47
100
AcDbProxyObject
 90
      499
 91
      503
 93
      249
310
90D312F333222203D2031272D3022000000000000280FC000000000000284000
  0
ACAD_PROXY_OBJECT
  5
5C
102
{ACAD_REACTORS
330
47
102
}
330
47
100
AcDbProxyObject
 90
      499
 91
      503
 93
      249
310
90D312F313622203D2031272D30220000000000002C0FC000000000000284000
  0
ACAD_PROXY_OBJECT
  5
5D
102
{ACAD_REACTORS
330
47
102
}
330
47
100
AcDbProxyObject
 90
      499
 91
      503
 93
      249
310
90D332F333222203D2031272D30220000000000002E0FC000000000000284000
  0
ACAD_PROXY_OBJECT
  5
5E
102
{ACAD_REACTORS
330
47
102
}
330
47
100
AcDbProxyObject
 90
      499
 91
      503
 93
      241
310
90C312F3822203D2031272D3022000000000000300FC000000000000284000
  0
ACAD_PROXY_OBJECT
  5
5F
102
{ACAD_REACTORS
330
47
102
}
330
47
100
AcDbProxyObject
 90
      499
 91
      503
 93
      249
310
90D332F313622203D2031272D3022000000000000320FC000000000000284000
  0
ACAD_PROXY_OBJECT
  5
60
102
{ACAD_REACTORS
330
47
102
}
330
47
100
AcDbProxyObject
 90
      499
 91
      503
 93
      241
310
90C312F3422203D2031272D3022000000000000340FC000000000000284000
  0
ACAD_PROXY_OBJECT
  5
61
102
{ACAD_REACTORS
330
47
102
}
330
47
100
AcDbProxyObject
 90
      499
 91
      503
 93
      241
310
90C332F3822203D2031272D3022000000000000360FC000000000000284000
  0
ACAD_PROXY_OBJECT
  5
62
102
{ACAD_REACTORS
330
47
102
}
330
47
100
AcDbProxyObject
 90
      499
 91
      503
 93
      241
310
90C312F3222203D2031272D3022000000000000380FC000000000000284000
  0
ACAD_PROXY_OBJECT
  5
63
102
{ACAD_REACTORS
330
47
102
}
330
47
100
AcDbProxyObject
 90
      499
 91
      503
 93
      241
310
90C332F3422203D2031272D30220000000000003A0FC000000000000284000
  0
ACAD_PROXY_OBJECT
  5
64
102
{ACAD_REACTORS
330
47
102
}
330
47
100
AcDbProxyObject
 90
      499
 91
      503
 93
      161
310
90A3122203D2031272D30224000000000000284000
  0
ACAD_PROXY_OBJECT
  5
65
102
{ACAD_REACTORS
330
47
102
}
330
47
100
AcDbProxyObject
 90
      499
 91
      503
 93
      257
310
90E312D312F3222203D2031272D30220000000000003E0FC000000000000284000
  0
ACAD_PROXY_OBJECT
  5
66
102
{ACAD_REACTORS
330
47
102
}
330
47
100
AcDbProxyObject
 90
      499
 91
      503
 93
      225
310
90A3322203D2031272D302200000000000002100000000000000284000
  0
ACAD_PROXY_OBJECT
  5
67
102
{ACAD_REACTORS
330
47
102
}
330
47
100
AcDbProxyObject
 90
      499
 91
      503
 93
      225
310
90A3622203D2031272D302200000000000006100000000000000284000
  0
ACAD_PROXY_OBJECT
  5
68
102
{ACAD_REACTORS
330
47
102
}
330
47
100
AcDbProxyObject
 90
      499
 91
      503
 93
      249
310
90D31272D3022203D2031272D30220000000000000A100000000000000284000
  0
ACAD_PROXY_OBJECT
  5
2F
102
{ACAD_REACTORS
330
2A
102
}
330
2A
100
AcDbProxyObject
 90
      499
 91
      501
 93
      436
310
42CC9915DA5C99599C985B595049028333333333333E33F0000000000000F90107901411070040501600405405064090741402480A0340
1001
ACAD
1000
AcDbSavedByObjectVersion
1070
     0
  0
ACAD_PROXY_OBJECT
  5
32
102
{ACAD_REACTORS
330
2A
102
}
330
2A
100
AcDbProxyObject
 90
      499
 91
      501
 93
      388
310
4150985CDA58D07406404333333333333E33F0000000000000F90107A41107004050150841D405064090741402480A0350
1001
ACAD
1000
AcDbSavedByObjectVersion
1070
     0
  0
ACAD_PROXY_OBJECT
  5
36
102
{ACAD_REACTORS
330
2A
102
}
330
2A
100
AcDbProxyObject
 90
      499
 91
      501
 93
      428
310
42109C9A59DA1D195B90C409028333333333333E33F0000000000000F9010790141107004050150841D405064090741402480A029950
1001
ACAD
1000
AcDbSavedByObjectVersion
1070
     0
  0
ACAD_PROXY_OBJECT
  5
3A
102
{ACAD_REACTORS
330
2A
102
}
330
2A
100
AcDbProxyObject
 90
      499
 91
      501
 93
      452
310
42D0DBDB1BDC90DA185B99D95104090240C333333333333E33F0000000000000F90108901411070040501508421405064090741402480A0350
1001
ACAD
1000
AcDbSavedByObjectVersion
1070
     0
  0
ACAD_PROXY_OBJECT
  5
34
102
{ACAD_REACTORS
330
2A
102
}
330
2A
100
AcDbProxyObject
 90
      499
 91
      501
 93
      500
310
4290DBDB98D95C1D1D585B10940D028333333333333E33F0000000000000F90107902409070040501000000000018199010841D405064090740C02480A0340
1001
ACAD
1000
AcDbSavedByObjectVersion
1070
     0
  0
ACAD_PROXY_OBJECT
  5
35
102
{ACAD_REACTORS
330
2A
102
}
330
2A
100
AcDbProxyObject
 90
      499
 91
      501
 93
      412
310
40D11A5B50B409028333333333333E33F0000000000000F9010790141107004050150841D405064090741402480A02677FFFFFD0
1001
ACAD
1000
AcDbSavedByObjectVersion
1070
     0
  0
ACAD_PROXY_OBJECT
  5
3D
102
{ACAD_REACTORS
330
2A
102
}
330
2A
100
AcDbProxyObject
 90
      499
 91
      501
 93
      452
310
43115919D950DBDB1BDC93D999916409028333333333333E33F0000000000000F9010790141107004050150841D405064090741402480A0350
1001
ACAD
1000
AcDbSavedByObjectVersion
1070
     0
  0
ACAD_PROXY_OBJECT
  5
39
102
{ACAD_REACTORS
330
2A
102
}
330
2A
100
AcDbProxyObject
 90
      499
 91
      501
 93
      444
310
42D19858D95C185D1D195C9B90F409028333333333333E33F0000000000000F9010790141107004050150841D405064090741402480A0350
1001
ACAD
1000
AcDbSavedByObjectVersion
1070
     0
  0
ACAD_PROXY_OBJECT
  5
2B
102
{ACAD_REACTORS
330
2A
102
}
330
2A
100
AcDbProxyObject
 90
      499
 91
      501
 93
      380
310
41119B185D240901404333333333333E33F0000000000000F9010740A907004050150841D405064090741402480A1B50
1001
ACAD
1000
AcDbSavedByObjectVersion
1070
     0
  0
ACAD_PROXY_OBJECT
  5
2C
102
{ACAD_REACTORS
330
2A
102
}
330
2A
100
AcDbProxyObject
 90
      499
 91
      501
 93
      468
310
43519B185D15DA5D1A115919D95CD0140901404333333333333E33F0000000000000F90107409019070040501600405405064090741402480A1B50
1001
ACAD
1000
AcDbSavedByObjectVersion
1070
     0
  0
ACAD_PROXY_OBJECT
  5
2D
102
{ACAD_REACTORS
330
2A
102
}
330
2A
100
AcDbProxyObject
 90
      499
 91
      501
 93
      404
310
41D1DBDD5C985D5910240902404333333333333E33F0000000000000F9010740A9070040501641D405064090741402480A1B50
1001
ACAD
1000
AcDbSavedByObjectVersion
1070
     0
  0
ACAD_PROXY_OBJECT
  5
2E
102
{ACAD_REACTORS
330
2A
102
}
330
2A
100
AcDbProxyObject
 90
      499
 91
      501
 93
      492
310
4411DBDD5C985D5915DA5D1A115919D95CD0340902404333333333333E33F0000000000000F90107409019070040501600405405064090741402480A1B50
1001
ACAD
1000
AcDbSavedByObjectVersion
1070
     0
  0
ACAD_PROXY_OBJECT
  5
31
102
{ACAD_REACTORS
330
2A
102
}
330
2A
100
AcDbProxyObject
 90
      499
 91
      501
 93
      476
310
41921A5919195B90640502408333333333333E33F0000000000000F901079024090700405020000000000001110200405405064090740C02480A0340
1001
ACAD
1000
AcDbSavedByObjectVersion
1070
     0
  0
ACAD_PROXY_OBJECT
  5
3B
102
{ACAD_REACTORS
330
2A
102
}
330
2A
100
AcDbProxyObject
 90
      499
 91
      501
 93
      428
310
42529A5D1D195C93D999914409028333333333333E33F0000000000000F9010790141107004050150A41D405064090741402480A0350
1001
ACAD
1000
AcDbSavedByObjectVersion
1070
     0
  0
ACAD_PROXY_OBJECT
  5
38
102
{ACAD_REACTORS
330
2A
102
}
330
2A
100
AcDbProxyObject
 90
      499
 91
      501
 93
      444
310
42D31A5B995C185D1D195C9B90E409028333333333333E33F0000000000000F9010790141107004050750841D405064090741402483A0350
1001
ACAD
1000
AcDbSavedByObjectVersion
1070
     0
  0
ACAD_PROXY_OBJECT
  5
3C
102
{ACAD_REACTORS
330
2A
102
}
330
2A
100
AcDbProxyObject
 90
      499
 91
      501
 93
      444
310
42D3DD995C9A185B99D3D999915409028333333333333E33F0000000000000F9010790141107004050150941D405064090741402480A0350
1001
ACAD
1000
AcDbSavedByObjectVersion
1070
     0
  0
ACAD_PROXY_OBJECT
  5
33
102
{ACAD_REACTORS
330
2A
102
}
330
2A
100
AcDbProxyObject
 90
      499
 91
      501
 93
      428
310
425499585B1A5CDD1A58D08409038333333333333E33F0000000000000F9010740A907004050150800405405064090740C02480A1B40
1001
ACAD
1000
AcDbSavedByObjectVersion
1070
     0
  0
ACAD_PROXY_OBJECT
  5
42
102
{ACAD_REACTORS
330
2A
102
}
330
2A
100
AcDbProxyObject
 90
      499
 91
      501
 93
      420
310
4194DA1859195911B40902404333333333333E33F0000000000000F9010740A41107004050150800405405064090840C02480A0B40
1001
ACAD
1000
AcDbSavedByObjectVersion
1070
     0
  0
ACAD_PROXY_OBJECT
  5
41
102
{ACAD_REACTORS
330
2A
102
}
330
2A
100
AcDbProxyObject
 90
      499
 91
      501
 93
      516
310
4454DA18591959081DDA5D1A08195919D95CD1A40902404333333333333E33F0000000000000F901074090142907004050250800405405064090740C02480A0B40
1001
ACAD
1000
AcDbSavedByObjectVersion
1070
     0
  0
ACAD_PROXY_OBJECT
  5
3E
102
{ACAD_REACTORS
330
2A
102
}
330
2A
100
AcDbProxyObject
 90
      499
 91
      501
 93
      532
310
4394DA1859195CC81BD98811DC985E5174090240C333333333333E33F0000000000000F901079024090741D01000000000000111010841D405064090740C02480A0340
1001
ACAD
1000
AcDbSavedByObjectVersion
1070
     0
  0
ACAD_PROXY_OBJECT
  5
3F
102
{ACAD_REACTORS
330
2A
102
}
330
2A
100
AcDbProxyObject
 90
      499
 91
      501
 93
      476
310
41D4DAD95D18DA1E51840502408333333333333E33F0000000000000F901079024090741D01000000000000111010B41D405064090741802480A0340
1001
ACAD
1000
AcDbSavedByObjectVersion
1070
     0
  0
ACAD_PROXY_OBJECT
  5
37
102
{ACAD_REACTORS
330
2A
102
}
330
2A
100
AcDbProxyObject
 90
      499
 91
      501
 93
      412
310
41D51A1A58DAD95B90D409028333333333333E33F0000000000000F9010790141107004050150C41D405064090741402480A0350
1001
ACAD
1000
AcDbSavedByObjectVersion
1070
     0
  0
ACAD_PROXY_OBJECT
  5
30
102
{ACAD_REACTORS
330
2A
102
}
330
2A
100
AcDbProxyObject
 90
      499
 91
      501
 93
      420
310
4255DA5C99599C985B595059028333333333333E33F0000000000000F90107901411070040501600405405064090740C02480A0340
1001
ACAD
1000
AcDbSavedByObjectVersion
1070
     0
  0
ACAD_PROXY_OBJECT
  5
40
102
{ACAD_REACTORS
330
2A
102
}
330
2A
100
AcDbProxyObject
 90
      499
 91
      501
 93
      404
310
41560B54985E51940902404000000000000E03F0000000000000F9010740501907004050150841D405064090740C02480A1B40
1001
ACAD
1000
AcDbSavedByObjectVersion
1070
     0
  0
XRECORD
  5
440
102
{ACAD_REACTORS
330
436
102
}
330
436
100
AcDbXrecord
340
0
  0
XRECORD
  5
43F
102
{ACAD_REACTORS
330
436
102
}
330
436
100
AcDbXrecord
 90
        0
  0
XRECORD
  5
456
102
{ACAD_REACTORS
330
436
102
}
330
436
100
AcDbXrecord
1000
DSTYLE
1002
{
1070
   340
340
11
1002
}
  0
XRECORD
  5
441
102
{ACAD_REACTORS
330
436
102
}
330
436
100
AcDbXrecord
  1
{5523d1d9-22bb-4c6c-bb0d-3827284d2acf}
  0
XRECORD
  5
439
102
{ACAD_REACTORS
330
436
102
}
330
436
100
AcDbXrecord
  1

  0
XRECORD
  5
43E
102
{ACAD_REACTORS
330
436
102
}
330
436
100
AcDbXrecord
 90
        4
  0
XRECORD
  5
43B
102
{ACAD_REACTORS
330
436
102
}
330
436
100
AcDbXrecord
340
1A
  0
XRECORD
  5
43D
102
{ACAD_REACTORS
330
436
102
}
330
436
100
AcDbXrecord
 90
    10781
  0
XRECORD
  5
43C
102
{ACAD_REACTORS
330
436
102
}
330
436
100
AcDbXrecord
340
19
  0
XRECORD
  5
443
102
{ACAD_REACTORS
330
436
102
}
330
436
100
AcDbXrecord
 40
0.0
  0
XRECORD
  5
446
102
{ACAD_REACTORS
330
436
102
}
330
436
100
AcDbXrecord
340
0
  0
XRECORD
  5
44C
102
{ACAD_REACTORS
330
436
102
}
330
436
100
AcDbXrecord
 10
0.0
 20
0.0
 30
0.0
  0
XRECORD
  5
448
102
{ACAD_REACTORS
330
436
102
}
330
436
100
AcDbXrecord
 10
0.0
 20
0.0
 30
0.0
  0
XRECORD
  5
44B
102
{ACAD_REACTORS
330
436
102
}
330
436
100
AcDbXrecord
 10
0.0
 20
0.0
 30
0.0
  0
XRECORD
  5
449
102
{ACAD_REACTORS
330
436
102
}
330
436
100
AcDbXrecord
 10
0.0
 20
0.0
 30
0.0
  0
XRECORD
  5
44A
102
{ACAD_REACTORS
330
436
102
}
330
436
100
AcDbXrecord
 10
0.0
 20
0.0
 30
0.0
  0
XRECORD
  5
447
102
{ACAD_REACTORS
330
436
102
}
330
436
100
AcDbXrecord
 10
0.0
 20
0.0
 30
0.0
  0
XRECORD
  5
444
102
{ACAD_REACTORS
330
436
102
}
330
436
100
AcDbXrecord
340
0
  0
XRECORD
  5
445
102
{ACAD_REACTORS
330
436
102
}
330
436
100
AcDbXrecord
 70
     0
  0
XRECORD
  5
43A
102
{ACAD_REACTORS
330
436
102
}
330
436
100
AcDbXrecord
  1

  0
XRECORD
  5
437
102
{ACAD_REACTORS
330
436
102
}
330
436
100
AcDbXrecord
 90
        1
  0
XRECORD
  5
438
102
{ACAD_REACTORS
330
436
102
}
330
436
100
AcDbXrecord
 90
       70
  0
XRECORD
  5
44F
102
{ACAD_REACTORS
330
436
102
}
330
436
100
AcDbXrecord
340
0
  0
XRECORD
  5
455
102
{ACAD_REACTORS
330
436
102
}
330
436
100
AcDbXrecord
 10
0.0
 20
0.0
 30
0.0
  0
XRECORD
  5
451
102
{ACAD_REACTORS
330
436
102
}
330
436
100
AcDbXrecord
 10
0.0
 20
0.0
 30
0.0
  0
XRECORD
  5
454
102
{ACAD_REACTORS
330
436
102
}
330
436
100
AcDbXrecord
 10
0.0
 20
0.0
 30
0.0
  0
XRECORD
  5
452
102
{ACAD_REACTORS
330
436
102
}
330
436
100
AcDbXrecord
 10
0.0
 20
0.0
 30
0.0
  0
XRECORD
  5
453
102
{ACAD_REACTORS
330
436
102
}
330
436
100
AcDbXrecord
 10
0.0
 20
0.0
 30
0.0
  0
XRECORD
  5
450
102
{ACAD_REACTORS
330
436
102
}
330
436
100
AcDbXrecord
 10
0.0
 20
0.0
 30
0.0
  0
XRECORD
  5
44D
102
{ACAD_REACTORS
330
436
102
}
330
436
100
AcDbXrecord
340
0
  0
XRECORD
  5
44E
102
{ACAD_REACTORS
330
436
102
}
330
436
100
AcDbXrecord
 70
     0
  0
XRECORD
  5
442
102
{ACAD_REACTORS
330
436
102
}
330
436
100
AcDbXrecord
  1
{FAEB1C32-E019-11D5-929B-00C0DF256EC4}
  0
DICTIONARYVAR
  5
464
102
{ACAD_REACTORS
330
457
102
}
330
457
100
DictionaryVariables
280
     0
  1
1:1
  0
DICTIONARYVAR
  5
45E
102
{ACAD_REACTORS
330
457
102
}
330
457
100
DictionaryVariables
280
     0
  1
3.500000
  0
DICTIONARYVAR
  5
45F
102
{ACAD_REACTORS
330
457
102
}
330
457
100
DictionaryVariables
280
     0
  1
acadiso.lin
  0
DICTIONARYVAR
  5
459
102
{ACAD_REACTORS
330
457
102
}
330
457
100
DictionaryVariables
280
     0
  1
Standard
  0
DICTIONARYVAR
  5
458
102
{ACAD_REACTORS
330
457
102
}
330
457
100
DictionaryVariables
280
     0
  1
Standard
  0
DICTIONARYVAR
  5
460
102
{ACAD_REACTORS
330
457
102
}
330
457
100
DictionaryVariables
280
     0
  1
2
  0
DICTIONARYVAR
  5
461
102
{ACAD_REACTORS
330
457
102
}
330
457
100
DictionaryVariables
280
     0
  1
1
  0
DICTIONARYVAR
  5
465
102
{ACAD_REACTORS
330
457
102
}
330
457
100
DictionaryVariables
280
     0
  1
1
  0
DICTIONARYVAR
  5
45B
102
{ACAD_REACTORS
330
457
102
}
330
457
100
DictionaryVariables
280
     0
  1
80.000000
  0
DICTIONARYVAR
  5
45A
102
{ACAD_REACTORS
330
457
102
}
330
457
100
DictionaryVariables
280
     0
  1
5.000000
  0
DICTIONARY
  5
468
330
45
100
AcDbDictionary
280
     1
  3
ACAD_XREC_ROUNDTRIP
360
469
  0
DICTIONARY
  5
466
330
44
100
AcDbDictionary
280
     1
  3
ACAD_XREC_ROUNDTRIP
360
467
  0
DICTIONARY
  5
46A
330
46
100
AcDbDictionary
280
     1
  3
ACAD_XREC_ROUNDTRIP
360
46B
  0
XRECORD
  5
469
102
{ACAD_REACTORS
330
468
102
}
330
468
100
AcDbXrecord
102
MATERIAL
148
0.0
149
0.0
149
0.0
 93
        0
 94
      127
282
     0
 72
     1
 77
     1
171
     1
175
     1
179
     1
273
     0
  0
XRECORD
  5
467
102
{ACAD_REACTORS
330
466
102
}
330
466
100
AcDbXrecord
102
MATERIAL
148
0.0
149
0.0
149
0.0
 93
        0
 94
      127
282
     0
 72
     1
 77
     1
171
     1
175
     1
179
     1
273
     0
  0
XRECORD
  5
46B
102
{ACAD_REACTORS
330
46A
102
}
330
46A
100
AcDbXrecord
102
MATERIAL
148
0.0
149
0.0
149
0.0
 93
        0
 94
      127
282
     0
 72
     1
 77
     1
171
     1
175
     1
179
     1
273
     0
  0
ENDSEC
  0
EOF
