  0
SECTION
  2
HEADER
  9
$ACADVER
  1
AC1014
  9
$ACADMAINTVER
 70
     9
  9
$DWGCODEPAGE
  3
ANSI_932
  9
$INSBASE
 10
0.0
 20
0.0
 30
0.0
  9
$EXTMIN
 10
25.0
 20
50.0
 30
0.0
  9
$EXTMAX
 10
1925.0
 20
1400.0
 30
0.0
  9
$LIMMIN
 10
0.0
 20
0.0
  9
$LIMMAX
 10
420.0
 20
297.0
  9
$ORTHOMODE
 70
     0
  9
$REGENMODE
 70
     1
  9
$FILLMODE
 70
     1
  9
$QTEXTMODE
 70
     0
  9
$MIRRTEXT
 70
     1
  9
$DRAGMODE
 70
     2
  9
$LTSCALE
 40
0.2
  9
$OSMODE
 70
    37
  9
$ATTMODE
 70
     1
  9
$TEXTSIZE
 40
2.5
  9
$TRACEWID
 40
1.0
  9
$TEXTSTYLE
  7
STANDARD
  9
$CLAYER
  8
LAY-10
  9
$CELTYPE
  6
BYLAYER
  9
$CECOLOR
 62
   256
  9
$CELTSCALE
 40
1.0
  9
$DELOBJ
 70
     1
  9
$DISPSILH
 70
     0
  9
$DIMSCALE
 40
1.0
  9
$DIMASZ
 40
2.5
  9
$DIMEXO
 40
0.625
  9
$DIMDLI
 40
3.75
  9
$DIMRND
 40
0.0
  9
$DIMDLE
 40
0.0
  9
$DIMEXE
 40
1.25
  9
$DIMTP
 40
0.0
  9
$DIMTM
 40
0.0
  9
$DIMTXT
 40
2.5
  9
$DIMCEN
 40
2.5
  9
$DIMTSZ
 40
0.0
  9
$DIMTOL
 70
     0
  9
$DIMLIM
 70
     0
  9
$DIMTIH
 70
     0
  9
$DIMTOH
 70
     0
  9
$DIMSE1
 70
     0
  9
$DIMSE2
 70
     0
  9
$DIMTAD
 70
     1
  9
$DIMZIN
 70
     8
  9
$DIMBLK
  1

  9
$DIMASO
 70
     1
  9
$DIMSHO
 70
     1
  9
$DIMPOST
  1

  9
$DIMAPOST
  1

  9
$DIMALT
 70
     0
  9
$DIMALTD
 70
     3
  9
$DIMALTF
 40
0.03937007874016
  9
$DIMLFAC
 40
1.0
  9
$DIMTOFL
 70
     1
  9
$DIMTVP
 40
0.0
  9
$DIMTIX
 70
     0
  9
$DIMSOXD
 70
     0
  9
$DIMSAH
 70
     0
  9
$DIMBLK1
  1

  9
$DIMBLK2
  1

  9
$DIMSTYLE
  2
ISO-25
  9
$DIMCLRD
 70
     0
  9
$DIMCLRE
 70
     0
  9
$DIMCLRT
 70
     0
  9
$DIMTFAC
 40
1.0
  9
$DIMGAP
 40
0.625
  9
$DIMJUST
 70
     0
  9
$DIMSD1
 70
     0
  9
$DIMSD2
 70
     0
  9
$DIMTOLJ
 70
     0
  9
$DIMTZIN
 70
     8
  9
$DIMALTZ
 70
     0
  9
$DIMALTTZ
 70
     0
  9
$DIMFIT
 70
     3
  9
$DIMUPT
 70
     0
  9
$DIMUNIT
 70
     2
  9
$DIMDEC
 70
     2
  9
$DIMTDEC
 70
     2
  9
$DIMALTU
 70
     2
  9
$DIMALTTD
 70
     3
  9
$DIMTXSTY
  7
STANDARD
  9
$DIMAUNIT
 70
     0
  9
$LUNITS
 70
     2
  9
$LUPREC
 70
     4
  9
$SKETCHINC
 40
1.0
  9
$FILLETRAD
 40
10.0
  9
$AUNITS
 70
     0
  9
$AUPREC
 70
     0
  9
$MENU
  1
.
  9
$ELEVATION
 40
0.0
  9
$PELEVATION
 40
0.0
  9
$THICKNESS
 40
0.0
  9
$LIMCHECK
 70
     0
  9
$CHAMFERA
 40
0.0
  9
$CHAMFERB
 40
0.0
  9
$CHAMFERC
 40
0.0
  9
$CHAMFERD
 40
0.0
  9
$SKPOLY
 70
     0
  9
$TDCREATE
 40
2459416.734014167
  9
$TDUPDATE
 40
2459416.73401441
  9
$TDINDWG
 40
0.0000000116
  9
$TDUSRTIMER
 40
0.0000000116
  9
$USRTIMER
 70
     1
  9
$ANGBASE
 50
0.0
  9
$ANGDIR
 70
     0
  9
$PDMODE
 70
     0
  9
$PDSIZE
 40
0.0
  9
$PLINEWID
 40
0.0
  9
$COORDS
 70
     1
  9
$SPLFRAME
 70
     0
  9
$SPLINETYPE
 70
     6
  9
$SPLINESEGS
 70
     8
  9
$ATTDIA
 70
     0
  9
$ATTREQ
 70
     1
  9
$HANDLING
 70
     1
  9
$HANDSEED
  5
6F9
  9
$SURFTAB1
 70
     6
  9
$SURFTAB2
 70
     6
  9
$SURFTYPE
 70
     6
  9
$SURFU
 70
     6
  9
$SURFV
 70
     6
  9
$UCSNAME
  2

  9
$UCSORG
 10
0.0
 20
0.0
 30
0.0
  9
$UCSXDIR
 10
1.0
 20
0.0
 30
0.0
  9
$UCSYDIR
 10
0.0
 20
1.0
 30
0.0
  9
$PUCSNAME
  2

  9
$PUCSORG
 10
0.0
 20
0.0
 30
0.0
  9
$PUCSXDIR
 10
1.0
 20
0.0
 30
0.0
  9
$PUCSYDIR
 10
0.0
 20
1.0
 30
0.0
  9
$USERI1
 70
     0
  9
$USERI2
 70
     0
  9
$USERI3
 70
     0
  9
$USERI4
 70
     0
  9
$USERI5
 70
     0
  9
$USERR1
 40
0.0
  9
$USERR2
 40
0.0
  9
$USERR3
 40
0.0
  9
$USERR4
 40
0.0
  9
$USERR5
 40
0.0
  9
$WORLDVIEW
 70
     1
  9
$SHADEDGE
 70
     3
  9
$SHADEDIF
 70
    70
  9
$TILEMODE
 70
     1
  9
$MAXACTVP
 70
    64
  9
$PINSBASE
 10
0.0
 20
0.0
 30
0.0
  9
$PLIMCHECK
 70
     0
  9
$PEXTMIN
 10
1.000000000000000E+20
 20
1.000000000000000E+20
 30
1.000000000000000E+20
  9
$PEXTMAX
 10
-1.000000000000000E+20
 20
-1.000000000000000E+20
 30
-1.000000000000000E+20
  9
$PLIMMIN
 10
0.0
 20
0.0
  9
$PLIMMAX
 10
420.0
 20
297.0
  9
$UNITMODE
 70
     0
  9
$VISRETAIN
 70
     1
  9
$PLINEGEN
 70
     0
  9
$PSLTSCALE
 70
     1
  9
$TREEDEPTH
 70
  3020
  9
$PICKSTYLE
 70
     1
  9
$CMLSTYLE
  2
STANDARD
  9
$CMLJUST
 70
     0
  9
$CMLSCALE
 40
20.0
  9
$PROXYGRAPHICS
 70
     1
  9
$MEASUREMENT
 70
     1
  0
ENDSEC
  0
SECTION
  2
CLASSES
  0
CLASS
  1
ACDBDICTIONARYWDFLT
  2
AcDbDictionaryWithDefault
  3
ObjectDBX Classes
 90
        0
280
     0
281
     0
  0
CLASS
  1
VISUALSTYLE
  2
AcDbVisualStyle
  3
ObjectDBX Classes
 90
     4095
280
     0
281
     0
  0
CLASS
  1
MATERIAL
  2
AcDbMaterial
  3
ObjectDBX Classes
 90
     1153
280
     0
281
     0
  0
CLASS
  1
SCALE
  2
AcDbScale
  3
ObjectDBX Classes
 90
     1153
280
     0
281
     0
  0
CLASS
  1
TABLESTYLE
  2
AcDbTableStyle
  3
ObjectDBX Classes
 90
     4095
280
     0
281
     0
  0
CLASS
  1
MLEADERSTYLE
  2
AcDbMLeaderStyle
  3
ACDB_MLEADERSTYLE_CLASS
 90
     4095
280
     0
281
     0
  0
CLASS
  1
SUN
  2
AcDbSun
  3
SCENEOE
 90
     1153
280
     0
281
     0
  0
CLASS
  1
DICTIONARYVAR
  2
AcDbDictionaryVar
  3
ObjectDBX Classes
 90
        0
280
     0
281
     0
  0
CLASS
  1
XRECORD
  2
AcDbXrecord
  3
ObjectDBX Classes
 90
        0
280
     0
281
     0
  0
CLASS
  1
LWPOLYLINE
  2
AcDbPolyline
  3
ObjectDBX Classes
 90
        0
280
     0
281
     1
  0
CLASS
  1
HATCH
  2
AcDbHatch
  3
ObjectDBX Classes
 90
        0
280
     0
281
     1
  0
CLASS
  1
ACDBPLACEHOLDER
  2
AcDbPlaceHolder
  3
ObjectDBX Classes
 90
        0
280
     0
281
     0
  0
CLASS
  1
LAYOUT
  2
AcDbLayout
  3
ObjectDBX Classes
 90
        0
280
     0
281
     0
  0
ENDSEC
  0
SECTION
  2
TABLES
  0
TABLE
  2
VPORT
  5
8
102
{ACAD_XDICTIONARY
360
6EE
102
}
330
0
100
AcDbSymbolTable
 70
     1
  0
VPORT
  5
29
330
8
100
AcDbSymbolTableRecord
100
AcDbViewportTableRecord
  2
*ACTIVE
 70
     0
 10
0.0
 20
0.0
 11
1.0
 21
1.0
 12
975.0000000000001
 22
725.0
 13
0.0
 23
0.0
 14
10.0
 24
10.0
 15
10.0
 25
10.0
 16
0.0
 26
0.0
 36
1.0
 17
0.0
 27
0.0
 37
0.0
 40
1350.0
 41
1.407407407407408
 42
50.0
 43
0.0
 44
0.0
 50
0.0
 51
0.0
 71
     0
 72
  1000
 73
     1
 74
     3
 75
     0
 76
     0
 77
     0
 78
     0
  0
ENDTAB
  0
TABLE
  2
LTYPE
  5
5
330
0
100
AcDbSymbolTable
 70
     6
  0
LTYPE
  5
14
330
5
100
AcDbSymbolTableRecord
100
AcDbLinetypeTableRecord
  2
BYBLOCK
 70
     0
  3

 72
    65
 73
     0
 40
0.0
  0
LTYPE
  5
15
330
5
100
AcDbSymbolTableRecord
100
AcDbLinetypeTableRecord
  2
BYLAYER
 70
     0
  3

 72
    65
 73
     0
 40
0.0
  0
LTYPE
  5
16
330
5
100
AcDbSymbolTableRecord
100
AcDbLinetypeTableRecord
  2
CONTINUOUS
 70
     0
  3
Solid line
 72
    65
 73
     0
 40
0.0
  0
LTYPE
  5
6E
330
5
100
AcDbSymbolTableRecord
100
AcDbLinetypeTableRecord
  2
HIDDEN
 70
     0
  3
Hidden __ __ __ __ __ __ __ __ __ __ __ __ __ __
 72
    65
 73
     2
 40
9.524999999999999
 49
6.35
 74
     0
 49
-3.175
 74
     0
  0
LTYPE
  5
6F
330
5
100
AcDbSymbolTableRecord
100
AcDbLinetypeTableRecord
  2
CENTER
 70
     0
  3
Center ____ _ ____ _ ____ _ ____ _ ____ _ ____
 72
    65
 73
     4
 40
50.8
 49
31.75
 74
     0
 49
-6.35
 74
     0
 49
6.35
 74
     0
 49
-6.35
 74
     0
  0
LTYPE
  5
70
330
5
100
AcDbSymbolTableRecord
100
AcDbLinetypeTableRecord
  2
PHANTOM
 70
     0
  3
Phantom ______  __  __  ______  __  __  ______ 
 72
    65
 73
     6
 40
63.50000000000001
 49
31.75
 74
     0
 49
-6.35
 74
     0
 49
6.35
 74
     0
 49
-6.35
 74
     0
 49
6.35
 74
     0
 49
-6.35
 74
     0
  0
LTYPE
  5
71
330
5
100
AcDbSymbolTableRecord
100
AcDbLinetypeTableRecord
  2
ACAD_ISO06W100
 70
     0
  3
ISO long-dash triple-dot ____ ... ____ ... ____
 72
    65
 73
     8
 40
36.0
 49
24.0
 74
     0
 49
-3.0
 74
     0
 49
0.0
 74
     0
 49
-3.0
 74
     0
 49
0.0
 74
     0
 49
-3.0
 74
     0
 49
0.0
 74
     0
 49
-3.0
 74
     0
  0
LTYPE
  5
72
330
5
100
AcDbSymbolTableRecord
100
AcDbLinetypeTableRecord
  2
ACAD_ISO15W100
 70
     0
  3
ISO double-dash triple-dot __ __ . . . __ __ . .
 72
    65
 73
    10
 40
39.0
 49
12.0
 74
     0
 49
-3.0
 74
     0
 49
12.0
 74
     0
 49
-3.0
 74
     0
 49
0.0
 74
     0
 49
-3.0
 74
     0
 49
0.0
 74
     0
 49
-3.0
 74
     0
 49
0.0
 74
     0
 49
-3.0
 74
     0
  0
ENDTAB
  0
TABLE
  2
LAYER
  5
2
330
0
100
AcDbSymbolTable
 70
     5
  0
LAYER
  5
10
330
2
100
AcDbSymbolTableRecord
100
AcDbLayerTableRecord
  2
0
 70
     0
 62
     7
  6
CONTINUOUS
  0
LAYER
  5
75
330
2
100
AcDbSymbolTableRecord
100
AcDbLayerTableRecord
  2
LAY-10
 70
     0
 62
     7
  6
CONTINUOUS
  0
LAYER
  5
76
330
2
100
AcDbSymbolTableRecord
100
AcDbLayerTableRecord
  2
LAY-20
 70
     0
 62
     7
  6
CONTINUOUS
  0
LAYER
  5
77
330
2
100
AcDbSymbolTableRecord
100
AcDbLayerTableRecord
  2
LAY-255
 70
     0
 62
     7
  6
CONTINUOUS
  0
LAYER
  5
23C
330
2
100
AcDbSymbolTableRecord
100
AcDbLayerTableRecord
  2
DEFPOINTS
 70
     0
 62
     7
  6
CONTINUOUS
  0
ENDTAB
  0
TABLE
  2
STYLE
  5
3
330
0
100
AcDbSymbolTable
 70
     4
  0
STYLE
  5
11
330
3
100
AcDbSymbolTableRecord
100
AcDbTextStyleTableRecord
  2
STANDARD
 70
     0
 40
0.0
 41
1.0
 50
0.0
 71
     0
 42
2.5
  3
simplex
  4
bigfont
  0
STYLE
  5
73
330
3
100
AcDbSymbolTableRecord
100
AcDbTextStyleTableRecord
  2
EXCADSTD
 70
     0
 40
0.0
 41
1.0
 50
0.0
 71
     0
 42
2.5
  3
simplex
  4
bigfont
  0
STYLE
  5
74
330
3
100
AcDbSymbolTableRecord
100
AcDbTextStyleTableRecord
  2
EXCADVERT
 70
     4
 40
0.0
 41
1.0
 50
0.0
 71
     0
 42
2.5
  3
simplex
  4
bigfont
  0
STYLE
  5
23A
330
3
100
AcDbSymbolTableRecord
100
AcDbTextStyleTableRecord
  2
EXCADDIM1
 70
     0
 40
0.0
 41
0.84
 50
0.0
 71
     0
 42
2.5
  3
simplex
  4
bigfont
  0
ENDTAB
  0
TABLE
  2
VIEW
  5
6
330
0
100
AcDbSymbolTable
 70
     0
  0
ENDTAB
  0
TABLE
  2
UCS
  5
7
330
0
100
AcDbSymbolTable
 70
     0
  0
ENDTAB
  0
TABLE
  2
APPID
  5
9
330
0
100
AcDbSymbolTable
 70
     2
  0
APPID
  5
12
330
9
100
AcDbSymbolTableRecord
100
AcDbRegAppTableRecord
  2
ACAD
 70
     0
  0
APPID
  5
6F8
330
9
100
AcDbSymbolTableRecord
100
AcDbRegAppTableRecord
  2
ACAD_MLEADERVER
 70
     0
  0
ENDTAB
  0
TABLE
  2
DIMSTYLE
  5
A
330
0
100
AcDbSymbolTable
 70
     1
  0
DIMSTYLE
105
27
102
{ACAD_REACTORS
330
23B
330
247
330
253
330
25F
330
26B
330
278
330
285
330
292
330
29F
330
2AC
330
2B9
330
2C5
330
2D1
330
2DE
330
2EB
330
2F6
330
303
102
}
330
A
100
AcDbSymbolTableRecord
100
AcDbDimStyleTableRecord
  2
ISO-25
 70
     0
  3

  4

  5

  6

  7

 40
1.0
 41
2.5
 42
0.625
 43
3.75
 44
1.25
 45
0.0
 46
0.0
 47
0.0
 48
0.0
140
2.5
141
2.5
142
0.0
143
0.03937007874016
144
1.0
145
0.0
146
1.0
147
0.625
 71
     0
 72
     0
 73
     0
 74
     0
 75
     0
 76
     0
 77
     1
 78
     8
170
     0
171
     3
172
     1
173
     0
174
     0
175
     0
176
     0
177
     0
178
     0
270
     2
271
     2
272
     2
273
     2
274
     3
340
11
275
     0
280
     0
281
     0
282
     0
283
     0
284
     8
285
     0
286
     0
287
     5
288
     0
  0
ENDTAB
  0
TABLE
  2
BLOCK_RECORD
  5
1
330
0
100
AcDbSymbolTable
 70
    31
  0
BLOCK_RECORD
  5
1F
330
1
100
AcDbSymbolTableRecord
100
AcDbBlockTableRecord
  2
*MODEL_SPACE
  0
BLOCK_RECORD
  5
1B
330
1
100
AcDbSymbolTableRecord
100
AcDbBlockTableRecord
  2
*PAPER_SPACE
  0
BLOCK_RECORD
  5
78
330
1
100
AcDbSymbolTableRecord
100
AcDbBlockTableRecord
  2
EX_NORM
  0
BLOCK_RECORD
  5
7B
330
1
100
AcDbSymbolTableRecord
100
AcDbBlockTableRecord
  2
EX_BNORM
  0
BLOCK_RECORD
  5
7E
330
1
100
AcDbSymbolTableRecord
100
AcDbBlockTableRecord
  2
EX_BCIR
  0
BLOCK_RECORD
  5
81
330
1
100
AcDbSymbolTableRecord
100
AcDbBlockTableRecord
  2
EX_RCIVIL
  0
BLOCK_RECORD
  5
84
330
1
100
AcDbSymbolTableRecord
100
AcDbBlockTableRecord
  2
EX_SLANT
  0
BLOCK_RECORD
  5
87
330
1
100
AcDbSymbolTableRecord
100
AcDbBlockTableRecord
  2
EX_NONE
  0
BLOCK_RECORD
  5
8A
330
1
100
AcDbSymbolTableRecord
100
AcDbBlockTableRecord
  2
EX_CIVIL
  0
BLOCK_RECORD
  5
8D
330
1
100
AcDbSymbolTableRecord
100
AcDbBlockTableRecord
  2
EX_WCIR
  0
BLOCK_RECORD
  5
90
330
1
100
AcDbSymbolTableRecord
100
AcDbBlockTableRecord
  2
EX_WCIR2
  0
BLOCK_RECORD
  5
93
330
1
100
AcDbSymbolTableRecord
100
AcDbBlockTableRecord
  2
EX_WNORM
  0
BLOCK_RECORD
  5
96
330
1
100
AcDbSymbolTableRecord
100
AcDbBlockTableRecord
  2
EX_NNORM
  0
BLOCK_RECORD
  5
99
330
1
100
AcDbSymbolTableRecord
100
AcDbBlockTableRecord
  2
EX_BBOX
  0
BLOCK_RECORD
  5
9C
330
1
100
AcDbSymbolTableRecord
100
AcDbBlockTableRecord
  2
EX_WBOX
  0
BLOCK_RECORD
  5
9F
330
1
100
AcDbSymbolTableRecord
100
AcDbBlockTableRecord
  2
EX_INTEGRAL
  0
BLOCK_RECORD
  5
23D
330
1
100
AcDbSymbolTableRecord
100
AcDbBlockTableRecord
  2
*D15
  0
BLOCK_RECORD
  5
248
330
1
100
AcDbSymbolTableRecord
100
AcDbBlockTableRecord
  2
*D16
  0
BLOCK_RECORD
  5
254
330
1
100
AcDbSymbolTableRecord
100
AcDbBlockTableRecord
  2
*D17
  0
BLOCK_RECORD
  5
260
330
1
100
AcDbSymbolTableRecord
100
AcDbBlockTableRecord
  2
*D18
  0
BLOCK_RECORD
  5
26C
330
1
100
AcDbSymbolTableRecord
100
AcDbBlockTableRecord
  2
*D19
  0
BLOCK_RECORD
  5
279
330
1
100
AcDbSymbolTableRecord
100
AcDbBlockTableRecord
  2
*D20
  0
BLOCK_RECORD
  5
286
330
1
100
AcDbSymbolTableRecord
100
AcDbBlockTableRecord
  2
*D21
  0
BLOCK_RECORD
  5
293
330
1
100
AcDbSymbolTableRecord
100
AcDbBlockTableRecord
  2
*D22
  0
BLOCK_RECORD
  5
2A0
330
1
100
AcDbSymbolTableRecord
100
AcDbBlockTableRecord
  2
*D23
  0
BLOCK_RECORD
  5
2AD
330
1
100
AcDbSymbolTableRecord
100
AcDbBlockTableRecord
  2
*D24
  0
BLOCK_RECORD
  5
2BA
330
1
100
AcDbSymbolTableRecord
100
AcDbBlockTableRecord
  2
*D25
  0
BLOCK_RECORD
  5
2C6
330
1
100
AcDbSymbolTableRecord
100
AcDbBlockTableRecord
  2
*D26
  0
BLOCK_RECORD
  5
2D2
330
1
100
AcDbSymbolTableRecord
100
AcDbBlockTableRecord
  2
*D27
  0
BLOCK_RECORD
  5
2DF
330
1
100
AcDbSymbolTableRecord
100
AcDbBlockTableRecord
  2
*D28
  0
BLOCK_RECORD
  5
2EC
330
1
100
AcDbSymbolTableRecord
100
AcDbBlockTableRecord
  2
*D29
  0
BLOCK_RECORD
  5
2F7
330
1
100
AcDbSymbolTableRecord
100
AcDbBlockTableRecord
  2
*D30
  0
BLOCK_RECORD
  5
304
330
1
100
AcDbSymbolTableRecord
100
AcDbBlockTableRecord
  2
*D31
  0
ENDTAB
  0
ENDSEC
  0
SECTION
  2
BLOCKS
  0
BLOCK
  5
20
330
1F
100
AcDbEntity
  8
0
100
AcDbBlockBegin
  2
*MODEL_SPACE
 70
     0
 10
0.0
 20
0.0
 30
0.0
  3
*MODEL_SPACE
  1

  0
ENDBLK
  5
21
330
1F
100
AcDbEntity
  8
0
100
AcDbBlockEnd
  0
BLOCK
  5
1C
330
1B
100
AcDbEntity
 67
     1
  8
0
100
AcDbBlockBegin
  2
*PAPER_SPACE
 70
     0
 10
0.0
 20
0.0
 30
0.0
  3
*PAPER_SPACE
  1

  0
ENDBLK
  5
1D
330
1B
100
AcDbEntity
 67
     1
  8
0
100
AcDbBlockEnd
  0
BLOCK
  5
79
330
78
100
AcDbEntity
  8
0
100
AcDbBlockBegin
  2
EX_NORM
 70
     0
 10
0.0
 20
0.0
 30
0.0
  3
EX_NORM
  1

  0
LINE
  5
A2
330
78
100
AcDbEntity
  8
0
  6
CONTINUOUS
 62
     0
100
AcDbLine
 10
0.0
 20
0.0
 30
0.0
 11
-1.0
 21
0.0
 31
0.0
  0
LINE
  5
A3
330
78
100
AcDbEntity
  8
0
  6
CONTINUOUS
 62
     0
100
AcDbLine
 10
0.0
 20
0.0
 30
0.0
 11
-1.0
 21
0.166666667
 31
0.0
  0
LINE
  5
A4
330
78
100
AcDbEntity
  8
0
  6
CONTINUOUS
 62
     0
100
AcDbLine
 10
0.0
 20
0.0
 30
0.0
 11
-1.0
 21
-0.166666667
 31
0.0
  0
ENDBLK
  5
7A
330
78
100
AcDbEntity
  8
0
100
AcDbBlockEnd
  0
BLOCK
  5
7C
330
7B
100
AcDbEntity
  8
0
100
AcDbBlockBegin
  2
EX_BNORM
 70
     0
 10
0.0
 20
0.0
 30
0.0
  3
EX_BNORM
  1

  0
LINE
  5
A5
330
7B
100
AcDbEntity
  8
0
  6
CONTINUOUS
 62
     0
100
AcDbLine
 10
0.0
 20
0.0
 30
0.0
 11
-1.0
 21
0.0
 31
0.0
  0
LINE
  5
A6
330
7B
100
AcDbEntity
  8
0
  6
CONTINUOUS
 62
     0
100
AcDbLine
 10
0.0
 20
0.0
 30
0.0
 11
-1.0
 21
0.166666667
 31
0.0
  0
LINE
  5
A7
330
7B
100
AcDbEntity
  8
0
  6
CONTINUOUS
 62
     0
100
AcDbLine
 10
0.0
 20
0.0
 30
0.0
 11
-1.0
 21
-0.166666667
 31
0.0
  0
LINE
  5
A8
330
7B
100
AcDbEntity
  8
0
  6
CONTINUOUS
 62
     0
100
AcDbLine
 10
0.0
 20
0.0
 30
0.0
 11
-1.0
 21
0.083333333
 31
0.0
  0
LINE
  5
A9
330
7B
100
AcDbEntity
  8
0
  6
CONTINUOUS
 62
     0
100
AcDbLine
 10
0.0
 20
0.0
 30
0.0
 11
-1.0
 21
-0.083333333
 31
0.0
  0
LINE
  5
AA
330
7B
100
AcDbEntity
  8
0
  6
CONTINUOUS
 62
     0
100
AcDbLine
 10
-1.0
 20
0.166666667
 30
0.0
 11
-1.0
 21
-0.166666667
 31
0.0
  0
ENDBLK
  5
7D
330
7B
100
AcDbEntity
  8
0
100
AcDbBlockEnd
  0
BLOCK
  5
7F
330
7E
100
AcDbEntity
  8
0
100
AcDbBlockBegin
  2
EX_BCIR
 70
     0
 10
0.0
 20
0.0
 30
0.0
  3
EX_BCIR
  1

  0
LINE
  5
AB
330
7E
100
AcDbEntity
  8
0
  6
CONTINUOUS
 62
     0
100
AcDbLine
 10
0.0
 20
0.0
 30
0.0
 11
-1.0
 21
0.0
 31
0.0
  0
CIRCLE
  5
AC
330
7E
100
AcDbEntity
  8
0
  6
CONTINUOUS
 62
     0
100
AcDbCircle
 10
0.0
 20
0.0
 30
0.0
 40
0.5
  0
CIRCLE
  5
AD
330
7E
100
AcDbEntity
  8
0
  6
CONTINUOUS
 62
     0
100
AcDbCircle
 10
0.0
 20
0.0
 30
0.0
 40
0.25
  0
ENDBLK
  5
80
330
7E
100
AcDbEntity
  8
0
100
AcDbBlockEnd
  0
BLOCK
  5
82
330
81
100
AcDbEntity
  8
0
100
AcDbBlockBegin
  2
EX_RCIVIL
 70
     0
 10
0.0
 20
0.0
 30
0.0
  3
EX_RCIVIL
  1

  0
LINE
  5
AE
330
81
100
AcDbEntity
  8
0
  6
CONTINUOUS
 62
     0
100
AcDbLine
 10
0.0
 20
0.0
 30
0.0
 11
-1.0
 21
0.0
 31
0.0
  0
LINE
  5
AF
330
81
100
AcDbEntity
  8
0
  6
CONTINUOUS
 62
     0
100
AcDbLine
 10
-1.0
 20
-0.25
 30
0.0
 11
0.0
 21
-0.25
 31
0.0
  0
LINE
  5
B0
330
81
100
AcDbEntity
  8
0
  6
CONTINUOUS
 62
     0
100
AcDbLine
 10
-1.0
 20
-0.125
 30
0.0
 11
0.0
 21
-0.125
 31
0.0
  0
ENDBLK
  5
83
330
81
100
AcDbEntity
  8
0
100
AcDbBlockEnd
  0
BLOCK
  5
85
330
84
100
AcDbEntity
  8
0
100
AcDbBlockBegin
  2
EX_SLANT
 70
     0
 10
0.0
 20
0.0
 30
0.0
  3
EX_SLANT
  1

  0
LINE
  5
B1
330
84
100
AcDbEntity
  8
0
  6
CONTINUOUS
 62
     0
100
AcDbLine
 10
0.0
 20
0.0
 30
0.0
 11
-1.0
 21
0.0
 31
0.0
  0
LINE
  5
B2
330
84
100
AcDbEntity
  8
0
  6
CONTINUOUS
 62
     0
100
AcDbLine
 10
0.707106781
 20
0.707106781
 30
0.0
 11
-0.707106781
 21
-0.707106781
 31
0.0
  0
ENDBLK
  5
86
330
84
100
AcDbEntity
  8
0
100
AcDbBlockEnd
  0
BLOCK
  5
88
330
87
100
AcDbEntity
  8
0
100
AcDbBlockBegin
  2
EX_NONE
 70
     0
 10
0.0
 20
0.0
 30
0.0
  3
EX_NONE
  1

  0
LINE
  5
B3
330
87
100
AcDbEntity
  8
0
  6
CONTINUOUS
 62
     0
100
AcDbLine
 10
0.0
 20
0.0
 30
0.0
 11
-1.0
 21
0.0
 31
0.0
  0
ENDBLK
  5
89
330
87
100
AcDbEntity
  8
0
100
AcDbBlockEnd
  0
BLOCK
  5
8B
330
8A
100
AcDbEntity
  8
0
100
AcDbBlockBegin
  2
EX_CIVIL
 70
     0
 10
0.0
 20
0.0
 30
0.0
  3
EX_CIVIL
  1

  0
LINE
  5
B4
330
8A
100
AcDbEntity
  8
0
  6
CONTINUOUS
 62
     0
100
AcDbLine
 10
0.0
 20
0.0
 30
0.0
 11
-1.0
 21
0.0
 31
0.0
  0
LINE
  5
B5
330
8A
100
AcDbEntity
  8
0
  6
CONTINUOUS
 62
     0
100
AcDbLine
 10
-1.0
 20
0.25
 30
0.0
 11
0.0
 21
0.25
 31
0.0
  0
LINE
  5
B6
330
8A
100
AcDbEntity
  8
0
  6
CONTINUOUS
 62
     0
100
AcDbLine
 10
-1.0
 20
0.125
 30
0.0
 11
0.0
 21
0.125
 31
0.0
  0
ENDBLK
  5
8C
330
8A
100
AcDbEntity
  8
0
100
AcDbBlockEnd
  0
BLOCK
  5
8E
330
8D
100
AcDbEntity
  8
0
100
AcDbBlockBegin
  2
EX_WCIR
 70
     0
 10
0.0
 20
0.0
 30
0.0
  3
EX_WCIR
  1

  0
LINE
  5
B7
330
8D
100
AcDbEntity
  8
0
  6
CONTINUOUS
 62
     0
100
AcDbLine
 10
0.0
 20
0.0
 30
0.0
 11
-1.0
 21
0.0
 31
0.0
  0
CIRCLE
  5
B8
330
8D
100
AcDbEntity
  8
0
  6
CONTINUOUS
 62
     0
100
AcDbCircle
 10
0.0
 20
0.0
 30
0.0
 40
0.5
  0
ENDBLK
  5
8F
330
8D
100
AcDbEntity
  8
0
100
AcDbBlockEnd
  0
BLOCK
  5
91
330
90
100
AcDbEntity
  8
0
100
AcDbBlockBegin
  2
EX_WCIR2
 70
     0
 10
0.0
 20
0.0
 30
0.0
  3
EX_WCIR2
  1

  0
LINE
  5
B9
330
90
100
AcDbEntity
  8
0
  6
CONTINUOUS
 62
     0
100
AcDbLine
 10
-0.5
 20
0.0
 30
0.0
 11
-1.0
 21
0.0
 31
0.0
  0
CIRCLE
  5
BA
330
90
100
AcDbEntity
  8
0
  6
CONTINUOUS
 62
     0
100
AcDbCircle
 10
0.0
 20
0.0
 30
0.0
 40
0.5
  0
ENDBLK
  5
92
330
90
100
AcDbEntity
  8
0
100
AcDbBlockEnd
  0
BLOCK
  5
94
330
93
100
AcDbEntity
  8
0
100
AcDbBlockBegin
  2
EX_WNORM
 70
     0
 10
0.0
 20
0.0
 30
0.0
  3
EX_WNORM
  1

  0
LINE
  5
BB
330
93
100
AcDbEntity
  8
0
  6
CONTINUOUS
 62
     0
100
AcDbLine
 10
-1.0
 20
0.0
 30
0.0
 11
-1.0
 21
0.0
 31
0.0
  0
LINE
  5
BC
330
93
100
AcDbEntity
  8
0
  6
CONTINUOUS
 62
     0
100
AcDbLine
 10
0.0
 20
0.0
 30
0.0
 11
-1.0
 21
0.166666667
 31
0.0
  0
LINE
  5
BD
330
93
100
AcDbEntity
  8
0
  6
CONTINUOUS
 62
     0
100
AcDbLine
 10
0.0
 20
0.0
 30
0.0
 11
-1.0
 21
-0.166666667
 31
0.0
  0
LINE
  5
BE
330
93
100
AcDbEntity
  8
0
  6
CONTINUOUS
 62
     0
100
AcDbLine
 10
-1.0
 20
0.166666667
 30
0.0
 11
-1.0
 21
-0.166666667
 31
0.0
  0
ENDBLK
  5
95
330
93
100
AcDbEntity
  8
0
100
AcDbBlockEnd
  0
BLOCK
  5
97
330
96
100
AcDbEntity
  8
0
100
AcDbBlockBegin
  2
EX_NNORM
 70
     0
 10
0.0
 20
0.0
 30
0.0
  3
EX_NNORM
  1

  0
LINE
  5
BF
330
96
100
AcDbEntity
  8
0
  6
CONTINUOUS
 62
     0
100
AcDbLine
 10
0.0
 20
0.0
 30
0.0
 11
-1.0
 21
0.0
 31
0.0
  0
LINE
  5
C0
330
96
100
AcDbEntity
  8
0
  6
CONTINUOUS
 62
     0
100
AcDbLine
 10
0.0
 20
0.0
 30
0.0
 11
-1.0
 21
0.166666667
 31
0.0
  0
LINE
  5
C1
330
96
100
AcDbEntity
  8
0
  6
CONTINUOUS
 62
     0
100
AcDbLine
 10
0.0
 20
0.0
 30
0.0
 11
-1.0
 21
-0.166666667
 31
0.0
  0
LINE
  5
C2
330
96
100
AcDbEntity
  8
0
  6
CONTINUOUS
 62
     0
100
AcDbLine
 10
-1.0
 20
0.166666667
 30
0.0
 11
-1.0
 21
-0.166666667
 31
0.0
  0
ENDBLK
  5
98
330
96
100
AcDbEntity
  8
0
100
AcDbBlockEnd
  0
BLOCK
  5
9A
330
99
100
AcDbEntity
  8
0
100
AcDbBlockBegin
  2
EX_BBOX
 70
     0
 10
0.0
 20
0.0
 30
0.0
  3
EX_BBOX
  1

  0
LINE
  5
C3
330
99
100
AcDbEntity
  8
0
  6
CONTINUOUS
 62
     0
100
AcDbLine
 10
0.0
 20
0.0
 30
0.0
 11
-1.0
 21
0.0
 31
0.0
  0
LINE
  5
C4
330
99
100
AcDbEntity
  8
0
  6
CONTINUOUS
 62
     0
100
AcDbLine
 10
-0.5
 20
0.5
 30
0.0
 11
0.5
 21
0.5
 31
0.0
  0
LINE
  5
C5
330
99
100
AcDbEntity
  8
0
  6
CONTINUOUS
 62
     0
100
AcDbLine
 10
0.5
 20
0.5
 30
0.0
 11
0.5
 21
-0.5
 31
0.0
  0
LINE
  5
C6
330
99
100
AcDbEntity
  8
0
  6
CONTINUOUS
 62
     0
100
AcDbLine
 10
0.5
 20
-0.5
 30
0.0
 11
-0.5
 21
-0.5
 31
0.0
  0
LINE
  5
C7
330
99
100
AcDbEntity
  8
0
  6
CONTINUOUS
 62
     0
100
AcDbLine
 10
-0.5
 20
-0.5
 30
0.0
 11
-0.5
 21
0.5
 31
0.0
  0
LINE
  5
C8
330
99
100
AcDbEntity
  8
0
  6
CONTINUOUS
 62
     0
100
AcDbLine
 10
-0.25
 20
0.25
 30
0.0
 11
0.25
 21
0.25
 31
0.0
  0
LINE
  5
C9
330
99
100
AcDbEntity
  8
0
  6
CONTINUOUS
 62
     0
100
AcDbLine
 10
0.25
 20
0.25
 30
0.0
 11
0.25
 21
-0.25
 31
0.0
  0
LINE
  5
CA
330
99
100
AcDbEntity
  8
0
  6
CONTINUOUS
 62
     0
100
AcDbLine
 10
0.25
 20
-0.25
 30
0.0
 11
-0.25
 21
-0.25
 31
0.0
  0
LINE
  5
CB
330
99
100
AcDbEntity
  8
0
  6
CONTINUOUS
 62
     0
100
AcDbLine
 10
-0.25
 20
-0.25
 30
0.0
 11
-0.25
 21
0.25
 31
0.0
  0
ENDBLK
  5
9B
330
99
100
AcDbEntity
  8
0
100
AcDbBlockEnd
  0
BLOCK
  5
9D
330
9C
100
AcDbEntity
  8
0
100
AcDbBlockBegin
  2
EX_WBOX
 70
     0
 10
0.0
 20
0.0
 30
0.0
  3
EX_WBOX
  1

  0
LINE
  5
CC
330
9C
100
AcDbEntity
  8
0
  6
CONTINUOUS
 62
     0
100
AcDbLine
 10
-0.5
 20
0.0
 30
0.0
 11
-1.0
 21
0.0
 31
0.0
  0
LINE
  5
CD
330
9C
100
AcDbEntity
  8
0
  6
CONTINUOUS
 62
     0
100
AcDbLine
 10
-0.5
 20
0.5
 30
0.0
 11
0.5
 21
0.5
 31
0.0
  0
LINE
  5
CE
330
9C
100
AcDbEntity
  8
0
  6
CONTINUOUS
 62
     0
100
AcDbLine
 10
0.5
 20
0.5
 30
0.0
 11
0.5
 21
-0.5
 31
0.0
  0
LINE
  5
CF
330
9C
100
AcDbEntity
  8
0
  6
CONTINUOUS
 62
     0
100
AcDbLine
 10
0.5
 20
-0.5
 30
0.0
 11
-0.5
 21
-0.5
 31
0.0
  0
LINE
  5
D0
330
9C
100
AcDbEntity
  8
0
  6
CONTINUOUS
 62
     0
100
AcDbLine
 10
-0.5
 20
-0.5
 30
0.0
 11
-0.5
 21
0.5
 31
0.0
  0
ENDBLK
  5
9E
330
9C
100
AcDbEntity
  8
0
100
AcDbBlockEnd
  0
BLOCK
  5
A0
330
9F
100
AcDbEntity
  8
0
100
AcDbBlockBegin
  2
EX_INTEGRAL
 70
     0
 10
0.0
 20
0.0
 30
0.0
  3
EX_INTEGRAL
  1

  0
LINE
  5
D1
330
9F
100
AcDbEntity
  8
0
  6
CONTINUOUS
 62
     0
100
AcDbLine
 10
0.0
 20
0.0
 30
0.0
 11
-1.0
 21
0.0
 31
0.0
  0
ARC
  5
D2
330
9F
100
AcDbEntity
  8
0
  6
CONTINUOUS
 62
     0
100
AcDbCircle
 10
0.542115
 20
0.164992
 30
0.0
 40
0.56667
100
AcDbArc
 50
73.07249033629006
 51
196.9275130221199
  0
ARC
  5
D3
330
9F
100
AcDbEntity
  8
0
  6
CONTINUOUS
 62
     0
100
AcDbCircle
 10
-0.542115
 20
-0.164992
 30
0.0
 40
0.56667
100
AcDbArc
 50
253.0724869220464
 51
16.9275130559125
  0
ENDBLK
  5
A1
330
9F
100
AcDbEntity
  8
0
100
AcDbBlockEnd
  0
BLOCK
  5
23E
330
23D
100
AcDbEntity
  8
0
100
AcDbBlockBegin
  2
*D15
 70
     1
 10
0.0
 20
0.0
 30
0.0
  3
*D15
  1

  0
LINE
  5
240
330
23D
100
AcDbEntity
  8
LAY-10
  6
CONTINUOUS
 62
     4
100
AcDbLine
 10
429.9999999999102
 20
408.4999999999998
 30
0.0
 11
429.9999999999102
 21
462.4999999999999
 31
0.0
  0
INSERT
  5
241
330
23D
100
AcDbEntity
  8
LAY-10
 62
     4
100
AcDbBlockReference
  2
EX_BNORM
 10
429.9999999999102
 20
395.9999999999998
 30
0.0
 41
12.5
 42
12.5
 43
12.5
 50
270.0
  0
INSERT
  5
242
330
23D
100
AcDbEntity
  8
LAY-10
 62
     4
100
AcDbBlockReference
  2
EX_BNORM
 10
429.9999999999102
 20
474.9999999999999
 30
0.0
 41
12.5
 42
12.5
 43
12.5
 50
90.0
  0
MTEXT
  5
243
330
23D
100
AcDbEntity
  8
LAY-10
 62
     7
100
AcDbMText
 10
417.4999999999102
 20
435.4999999999999
 30
0.0
 40
15.590552
 41
0.0
 71
     5
 72
     1
  1
79
  7
EXCADDIM1
 11
0.0
 21
1.0
 31
0.0
  0
POINT
  5
244
330
23D
100
AcDbEntity
  8
DEFPOINTS
 62
     0
100
AcDbPoint
 10
429.9999999999102
 20
395.9999999999998
 30
0.0
  0
POINT
  5
245
330
23D
100
AcDbEntity
  8
DEFPOINTS
 62
     0
100
AcDbPoint
 10
429.9999999999102
 20
474.9999999999999
 30
0.0
  0
POINT
  5
246
330
23D
100
AcDbEntity
  8
DEFPOINTS
 62
     0
100
AcDbPoint
 10
429.9999999999102
 20
474.9999999999999
 30
0.0
  0
ENDBLK
  5
23F
330
23D
100
AcDbEntity
  8
0
100
AcDbBlockEnd
  0
BLOCK
  5
249
330
248
100
AcDbEntity
  8
0
100
AcDbBlockBegin
  2
*D16
 70
     1
 10
0.0
 20
0.0
 30
0.0
  3
*D16
  1

  0
LINE
  5
24B
330
248
100
AcDbEntity
  8
LAY-10
  6
CONTINUOUS
 62
     4
100
AcDbLine
 10
352.4999999999104
 20
405.9999999999999
 30
0.0
 11
402.4999999999105
 21
405.9999999999999
 31
0.0
  0
LINE
  5
24C
330
248
100
AcDbEntity
  8
LAY-10
  6
CONTINUOUS
 62
     4
100
AcDbLine
 10
394.9999999999105
 20
418.4999999999999
 30
0.0
 11
394.9999999999105
 21
462.4999999999999
 31
0.0
  0
INSERT
  5
24D
330
248
100
AcDbEntity
  8
LAY-10
 62
     4
100
AcDbBlockReference
  2
EX_BNORM
 10
394.9999999999105
 20
405.9999999999999
 30
0.0
 41
12.5
 42
12.5
 43
12.5
 50
270.0
  0
INSERT
  5
24E
330
248
100
AcDbEntity
  8
LAY-10
 62
     4
100
AcDbBlockReference
  2
EX_BNORM
 10
394.9999999999105
 20
474.9999999999999
 30
0.0
 41
12.5
 42
12.5
 43
12.5
 50
90.0
  0
MTEXT
  5
24F
330
248
100
AcDbEntity
  8
LAY-10
 62
     7
100
AcDbMText
 10
382.4999999999105
 20
440.4999999999999
 30
0.0
 40
15.590552
 41
0.0
 71
     5
 72
     1
  1
69
  7
EXCADDIM1
 11
0.0
 21
1.0
 31
0.0
  0
POINT
  5
250
330
248
100
AcDbEntity
  8
DEFPOINTS
 62
     0
100
AcDbPoint
 10
344.9999999999104
 20
405.9999999999999
 30
0.0
  0
POINT
  5
251
330
248
100
AcDbEntity
  8
DEFPOINTS
 62
     0
100
AcDbPoint
 10
394.9999999999105
 20
474.9999999999999
 30
0.0
  0
POINT
  5
252
330
248
100
AcDbEntity
  8
DEFPOINTS
 62
     0
100
AcDbPoint
 10
394.9999999999105
 20
474.9999999999999
 30
0.0
  0
ENDBLK
  5
24A
330
248
100
AcDbEntity
  8
0
100
AcDbBlockEnd
  0
BLOCK
  5
255
330
254
100
AcDbEntity
  8
0
100
AcDbBlockBegin
  2
*D17
 70
     1
 10
0.0
 20
0.0
 30
0.0
  3
*D17
  1

  0
LINE
  5
257
330
254
100
AcDbEntity
  8
LAY-10
  6
CONTINUOUS
 62
     4
100
AcDbLine
 10
750.0000000000003
 20
346.4999999999999
 30
0.0
 11
750.0000000000003
 21
242.5000000000999
 31
0.0
  0
LINE
  5
258
330
254
100
AcDbEntity
  8
LAY-10
  6
CONTINUOUS
 62
     4
100
AcDbLine
 10
737.5000000000003
 20
250.0000000000999
 30
0.0
 11
712.5000000000302
 21
250.0000000000999
 31
0.0
  0
INSERT
  5
259
330
254
100
AcDbEntity
  8
LAY-10
 62
     4
100
AcDbBlockReference
  2
EX_BNORM
 10
750.0000000000003
 20
250.0000000000999
 30
0.0
 41
12.5
 42
12.5
 43
12.5
  0
INSERT
  5
25A
330
254
100
AcDbEntity
  8
LAY-10
 62
     4
100
AcDbBlockReference
  2
EX_BNORM
 10
700.0000000000302
 20
250.0000000000999
 30
0.0
 41
12.5
 42
12.5
 43
12.5
 50
180.0
  0
MTEXT
  5
25B
330
254
100
AcDbEntity
  8
LAY-10
 62
     7
100
AcDbMText
 10
725.0000000000153
 20
262.5000000000999
 30
0.0
 40
15.590552
 41
0.0
 71
     5
 72
     1
  1
50
  7
EXCADDIM1
  0
POINT
  5
25C
330
254
100
AcDbEntity
  8
DEFPOINTS
 62
     0
100
AcDbPoint
 10
750.0000000000003
 20
353.9999999999999
 30
0.0
  0
POINT
  5
25D
330
254
100
AcDbEntity
  8
DEFPOINTS
 62
     0
100
AcDbPoint
 10
700.0000000000302
 20
250.0000000000999
 30
0.0
  0
POINT
  5
25E
330
254
100
AcDbEntity
  8
DEFPOINTS
 62
     0
100
AcDbPoint
 10
700.0000000000302
 20
250.0000000000999
 30
0.0
  0
ENDBLK
  5
256
330
254
100
AcDbEntity
  8
0
100
AcDbBlockEnd
  0
BLOCK
  5
261
330
260
100
AcDbEntity
  8
0
100
AcDbBlockBegin
  2
*D18
 70
     1
 10
0.0
 20
0.0
 30
0.0
  3
*D18
  1

  0
LINE
  5
263
330
260
100
AcDbEntity
  8
LAY-10
  6
CONTINUOUS
 62
     4
100
AcDbLine
 10
200.0000000000002
 20
346.4999999999999
 30
0.0
 11
200.0000000000002
 21
242.5000000000999
 31
0.0
  0
LINE
  5
264
330
260
100
AcDbEntity
  8
LAY-10
  6
CONTINUOUS
 62
     4
100
AcDbLine
 10
212.5000000000002
 20
250.0000000000999
 30
0.0
 11
237.5000000000303
 21
250.0000000000999
 31
0.0
  0
INSERT
  5
265
330
260
100
AcDbEntity
  8
LAY-10
 62
     4
100
AcDbBlockReference
  2
EX_BNORM
 10
200.0000000000002
 20
250.0000000000999
 30
0.0
 41
12.5
 42
12.5
 43
12.5
 50
180.0
  0
INSERT
  5
266
330
260
100
AcDbEntity
  8
LAY-10
 62
     4
100
AcDbBlockReference
  2
EX_BNORM
 10
250.0000000000303
 20
250.0000000000999
 30
0.0
 41
12.5
 42
12.5
 43
12.5
  0
MTEXT
  5
267
330
260
100
AcDbEntity
  8
LAY-10
 62
     7
100
AcDbMText
 10
225.0000000000153
 20
262.5000000000999
 30
0.0
 40
15.590552
 41
0.0
 71
     5
 72
     1
  1
50
  7
EXCADDIM1
  0
POINT
  5
268
330
260
100
AcDbEntity
  8
DEFPOINTS
 62
     0
100
AcDbPoint
 10
200.0000000000002
 20
353.9999999999999
 30
0.0
  0
POINT
  5
269
330
260
100
AcDbEntity
  8
DEFPOINTS
 62
     0
100
AcDbPoint
 10
250.0000000000303
 20
250.0000000000999
 30
0.0
  0
POINT
  5
26A
330
260
100
AcDbEntity
  8
DEFPOINTS
 62
     0
100
AcDbPoint
 10
250.0000000000303
 20
250.0000000000999
 30
0.0
  0
ENDBLK
  5
262
330
260
100
AcDbEntity
  8
0
100
AcDbBlockEnd
  0
BLOCK
  5
26D
330
26C
100
AcDbEntity
  8
0
100
AcDbBlockBegin
  2
*D19
 70
     1
 10
0.0
 20
0.0
 30
0.0
  3
*D19
  1

  0
LINE
  5
26F
330
26C
100
AcDbEntity
  8
LAY-10
  6
CONTINUOUS
 62
     4
100
AcDbLine
 10
200.0000000000002
 20
482.4999999999999
 30
0.0
 11
200.0000000000002
 21
602.4999999999999
 31
0.0
  0
LINE
  5
270
330
26C
100
AcDbEntity
  8
LAY-10
  6
CONTINUOUS
 62
     4
100
AcDbLine
 10
750.0000000000003
 20
482.4999999999999
 30
0.0
 11
750.0000000000003
 21
602.4999999999999
 31
0.0
  0
LINE
  5
271
330
26C
100
AcDbEntity
  8
LAY-10
  6
CONTINUOUS
 62
     4
100
AcDbLine
 10
212.5000000000002
 20
594.9999999999999
 30
0.0
 11
737.5000000000003
 21
594.9999999999999
 31
0.0
  0
INSERT
  5
272
330
26C
100
AcDbEntity
  8
LAY-10
 62
     4
100
AcDbBlockReference
  2
EX_BNORM
 10
200.0000000000002
 20
594.9999999999999
 30
0.0
 41
12.5
 42
12.5
 43
12.5
 50
180.0
  0
INSERT
  5
273
330
26C
100
AcDbEntity
  8
LAY-10
 62
     4
100
AcDbBlockReference
  2
EX_BNORM
 10
750.0000000000003
 20
594.9999999999999
 30
0.0
 41
12.5
 42
12.5
 43
12.5
  0
MTEXT
  5
274
330
26C
100
AcDbEntity
  8
LAY-10
 62
     7
100
AcDbMText
 10
475.0000000000004
 20
607.4999999999999
 30
0.0
 40
15.590552
 41
0.0
 71
     5
 72
     1
  1
550
  7
EXCADDIM1
  0
POINT
  5
275
330
26C
100
AcDbEntity
  8
DEFPOINTS
 62
     0
100
AcDbPoint
 10
200.0000000000002
 20
474.9999999999999
 30
0.0
  0
POINT
  5
276
330
26C
100
AcDbEntity
  8
DEFPOINTS
 62
     0
100
AcDbPoint
 10
750.0000000000003
 20
474.9999999999999
 30
0.0
  0
POINT
  5
277
330
26C
100
AcDbEntity
  8
DEFPOINTS
 62
     0
100
AcDbPoint
 10
750.0000000000003
 20
594.9999999999999
 30
0.0
  0
ENDBLK
  5
26E
330
26C
100
AcDbEntity
  8
0
100
AcDbBlockEnd
  0
BLOCK
  5
27A
330
279
100
AcDbEntity
  8
0
100
AcDbBlockBegin
  2
*D20
 70
     1
 10
0.0
 20
0.0
 30
0.0
  3
*D20
  1

  0
LINE
  5
27C
330
279
100
AcDbEntity
  8
LAY-10
  6
CONTINUOUS
 62
     4
100
AcDbLine
 10
206.4999999999964
 20
482.4999999999865
 30
0.0
 11
206.4999999999964
 21
567.4999999999999
 31
0.0
  0
LINE
  5
27D
330
279
100
AcDbEntity
  8
LAY-10
  6
CONTINUOUS
 62
     4
100
AcDbLine
 10
743.5000000000026
 20
482.4999999999865
 30
0.0
 11
743.5000000000026
 21
567.4999999999999
 31
0.0
  0
LINE
  5
27E
330
279
100
AcDbEntity
  8
LAY-10
  6
CONTINUOUS
 62
     4
100
AcDbLine
 10
218.9999999999964
 20
559.9999999999999
 30
0.0
 11
731.0000000000026
 21
559.9999999999999
 31
0.0
  0
INSERT
  5
27F
330
279
100
AcDbEntity
  8
LAY-10
 62
     4
100
AcDbBlockReference
  2
EX_BNORM
 10
206.4999999999964
 20
559.9999999999999
 30
0.0
 41
12.5
 42
12.5
 43
12.5
 50
180.0
  0
INSERT
  5
280
330
279
100
AcDbEntity
  8
LAY-10
 62
     4
100
AcDbBlockReference
  2
EX_BNORM
 10
743.5000000000026
 20
559.9999999999999
 30
0.0
 41
12.5
 42
12.5
 43
12.5
  0
MTEXT
  5
281
330
279
100
AcDbEntity
  8
LAY-10
 62
     7
100
AcDbMText
 10
474.9999999999995
 20
572.4999999999999
 30
0.0
 40
15.590552
 41
0.0
 71
     5
 72
     1
  1
537
  7
EXCADDIM1
  0
POINT
  5
282
330
279
100
AcDbEntity
  8
DEFPOINTS
 62
     0
100
AcDbPoint
 10
206.4999999999964
 20
474.9999999999865
 30
0.0
  0
POINT
  5
283
330
279
100
AcDbEntity
  8
DEFPOINTS
 62
     0
100
AcDbPoint
 10
743.5000000000026
 20
474.9999999999865
 30
0.0
  0
POINT
  5
284
330
279
100
AcDbEntity
  8
DEFPOINTS
 62
     0
100
AcDbPoint
 10
743.5000000000026
 20
559.9999999999999
 30
0.0
  0
ENDBLK
  5
27B
330
279
100
AcDbEntity
  8
0
100
AcDbBlockEnd
  0
BLOCK
  5
287
330
286
100
AcDbEntity
  8
0
100
AcDbBlockBegin
  2
*D21
 70
     1
 10
0.0
 20
0.0
 30
0.0
  3
*D21
  1

  0
LINE
  5
289
330
286
100
AcDbEntity
  8
LAY-10
  6
CONTINUOUS
 62
     4
100
AcDbLine
 10
211.0000000000002
 20
482.4999999999999
 30
0.0
 11
211.0000000000002
 21
532.4999999999999
 31
0.0
  0
LINE
  5
28A
330
286
100
AcDbEntity
  8
LAY-10
  6
CONTINUOUS
 62
     4
100
AcDbLine
 10
739.0000000000001
 20
482.4999999999999
 30
0.0
 11
739.0000000000001
 21
532.4999999999999
 31
0.0
  0
LINE
  5
28B
330
286
100
AcDbEntity
  8
LAY-10
  6
CONTINUOUS
 62
     4
100
AcDbLine
 10
223.5000000000002
 20
524.9999999999999
 30
0.0
 11
726.5000000000001
 21
524.9999999999999
 31
0.0
  0
INSERT
  5
28C
330
286
100
AcDbEntity
  8
LAY-10
 62
     4
100
AcDbBlockReference
  2
EX_BNORM
 10
211.0000000000002
 20
524.9999999999999
 30
0.0
 41
12.5
 42
12.5
 43
12.5
 50
180.0
  0
INSERT
  5
28D
330
286
100
AcDbEntity
  8
LAY-10
 62
     4
100
AcDbBlockReference
  2
EX_BNORM
 10
739.0000000000001
 20
524.9999999999999
 30
0.0
 41
12.5
 42
12.5
 43
12.5
  0
MTEXT
  5
28E
330
286
100
AcDbEntity
  8
LAY-10
 62
     7
100
AcDbMText
 10
475.0000000000002
 20
537.4999999999999
 30
0.0
 40
15.590552
 41
0.0
 71
     5
 72
     1
  1
528
  7
EXCADDIM1
  0
POINT
  5
28F
330
286
100
AcDbEntity
  8
DEFPOINTS
 62
     0
100
AcDbPoint
 10
211.0000000000002
 20
474.9999999999999
 30
0.0
  0
POINT
  5
290
330
286
100
AcDbEntity
  8
DEFPOINTS
 62
     0
100
AcDbPoint
 10
739.0000000000001
 20
474.9999999999999
 30
0.0
  0
POINT
  5
291
330
286
100
AcDbEntity
  8
DEFPOINTS
 62
     0
100
AcDbPoint
 10
739.0000000000001
 20
524.9999999999999
 30
0.0
  0
ENDBLK
  5
288
330
286
100
AcDbEntity
  8
0
100
AcDbBlockEnd
  0
BLOCK
  5
294
330
293
100
AcDbEntity
  8
0
100
AcDbBlockBegin
  2
*D22
 70
     1
 10
0.0
 20
0.0
 30
0.0
  3
*D22
  1

  0
LINE
  5
296
330
293
100
AcDbEntity
  8
LAY-10
  6
CONTINUOUS
 62
     4
100
AcDbLine
 10
748.5000000000002
 20
344.9999999999998
 30
0.0
 11
807.5000000000001
 21
344.9999999999998
 31
0.0
  0
LINE
  5
297
330
293
100
AcDbEntity
  8
LAY-10
  6
CONTINUOUS
 62
     4
100
AcDbLine
 10
757.5000000000003
 20
474.9999999999999
 30
0.0
 11
807.5000000000001
 21
474.9999999999999
 31
0.0
  0
LINE
  5
298
330
293
100
AcDbEntity
  8
LAY-10
  6
CONTINUOUS
 62
     4
100
AcDbLine
 10
800.0000000000001
 20
357.4999999999998
 30
0.0
 11
800.0000000000001
 21
462.4999999999999
 31
0.0
  0
INSERT
  5
299
330
293
100
AcDbEntity
  8
LAY-10
 62
     4
100
AcDbBlockReference
  2
EX_BNORM
 10
800.0000000000001
 20
344.9999999999998
 30
0.0
 41
12.5
 42
12.5
 43
12.5
 50
270.0
  0
INSERT
  5
29A
330
293
100
AcDbEntity
  8
LAY-10
 62
     4
100
AcDbBlockReference
  2
EX_BNORM
 10
800.0000000000001
 20
474.9999999999999
 30
0.0
 41
12.5
 42
12.5
 43
12.5
 50
90.0
  0
MTEXT
  5
29B
330
293
100
AcDbEntity
  8
LAY-10
 62
     7
100
AcDbMText
 10
787.5000000000001
 20
409.9999999999998
 30
0.0
 40
15.590552
 41
0.0
 71
     5
 72
     1
  1
130
  7
EXCADDIM1
 11
0.0
 21
1.0
 31
0.0
  0
POINT
  5
29C
330
293
100
AcDbEntity
  8
DEFPOINTS
 62
     0
100
AcDbPoint
 10
741.0000000000002
 20
344.9999999999998
 30
0.0
  0
POINT
  5
29D
330
293
100
AcDbEntity
  8
DEFPOINTS
 62
     0
100
AcDbPoint
 10
750.0000000000003
 20
474.9999999999999
 30
0.0
  0
POINT
  5
29E
330
293
100
AcDbEntity
  8
DEFPOINTS
 62
     0
100
AcDbPoint
 10
800.0000000000001
 20
474.9999999999999
 30
0.0
  0
ENDBLK
  5
295
330
293
100
AcDbEntity
  8
0
100
AcDbBlockEnd
  0
BLOCK
  5
2A1
330
2A0
100
AcDbEntity
  8
0
100
AcDbBlockBegin
  2
*D23
 70
     1
 10
0.0
 20
0.0
 30
0.0
  3
*D23
  1

  0
LINE
  5
2A3
330
2A0
100
AcDbEntity
  8
LAY-10
  6
CONTINUOUS
 62
     4
100
AcDbLine
 10
992.5000000000003
 20
674.9999999999997
 30
0.0
 11
837.5000000000006
 21
674.9999999999998
 31
0.0
  0
LINE
  5
2A4
330
2A0
100
AcDbEntity
  8
LAY-10
  6
CONTINUOUS
 62
     4
100
AcDbLine
 10
992.5000000000002
 20
1225.0
 30
0.0
 11
837.5000000000006
 21
1225.0
 31
0.0
  0
LINE
  5
2A5
330
2A0
100
AcDbEntity
  8
LAY-10
  6
CONTINUOUS
 62
     4
100
AcDbLine
 10
845.0000000000006
 20
687.4999999999998
 30
0.0
 11
845.0000000000006
 21
1212.5
 31
0.0
  0
INSERT
  5
2A6
330
2A0
100
AcDbEntity
  8
LAY-10
 62
     4
100
AcDbBlockReference
  2
EX_BNORM
 10
845.0000000000006
 20
674.9999999999998
 30
0.0
 41
12.5
 42
12.5
 43
12.5
 50
270.0
  0
INSERT
  5
2A7
330
2A0
100
AcDbEntity
  8
LAY-10
 62
     4
100
AcDbBlockReference
  2
EX_BNORM
 10
845.0000000000006
 20
1225.0
 30
0.0
 41
12.5
 42
12.5
 43
12.5
 50
90.0
  0
MTEXT
  5
2A8
330
2A0
100
AcDbEntity
  8
LAY-10
 62
     7
100
AcDbMText
 10
832.5000000000008
 20
949.9999999999994
 30
0.0
 40
15.590552
 41
0.0
 71
     5
 72
     1
  1
550
  7
EXCADDIM1
 11
0.0
 21
1.0
 31
0.0
  0
POINT
  5
2A9
330
2A0
100
AcDbEntity
  8
DEFPOINTS
 62
     0
100
AcDbPoint
 10
1000.0
 20
674.9999999999997
 30
0.0
  0
POINT
  5
2AA
330
2A0
100
AcDbEntity
  8
DEFPOINTS
 62
     0
100
AcDbPoint
 10
1000.0
 20
1225.0
 30
0.0
  0
POINT
  5
2AB
330
2A0
100
AcDbEntity
  8
DEFPOINTS
 62
     0
100
AcDbPoint
 10
845.0000000000006
 20
1225.0
 30
0.0
  0
ENDBLK
  5
2A2
330
2A0
100
AcDbEntity
  8
0
100
AcDbBlockEnd
  0
BLOCK
  5
2AE
330
2AD
100
AcDbEntity
  8
0
100
AcDbBlockBegin
  2
*D24
 70
     1
 10
0.0
 20
0.0
 30
0.0
  3
*D24
  1

  0
LINE
  5
2B0
330
2AD
100
AcDbEntity
  8
LAY-10
  6
CONTINUOUS
 62
     4
100
AcDbLine
 10
992.5000000000024
 20
681.5000000000009
 30
0.0
 11
872.5000000000002
 21
681.500000000001
 31
0.0
  0
LINE
  5
2B1
330
2AD
100
AcDbEntity
  8
LAY-10
  6
CONTINUOUS
 62
     4
100
AcDbLine
 10
992.5000000000025
 20
1218.500000000077
 30
0.0
 11
872.5000000000002
 21
1218.500000000077
 31
0.0
  0
LINE
  5
2B2
330
2AD
100
AcDbEntity
  8
LAY-10
  6
CONTINUOUS
 62
     4
100
AcDbLine
 10
880.0000000000002
 20
694.000000000001
 30
0.0
 11
880.0000000000002
 21
1206.000000000077
 31
0.0
  0
INSERT
  5
2B3
330
2AD
100
AcDbEntity
  8
LAY-10
 62
     4
100
AcDbBlockReference
  2
EX_BNORM
 10
880.0000000000002
 20
681.500000000001
 30
0.0
 41
12.5
 42
12.5
 43
12.5
 50
270.0
  0
INSERT
  5
2B4
330
2AD
100
AcDbEntity
  8
LAY-10
 62
     4
100
AcDbBlockReference
  2
EX_BNORM
 10
880.0000000000002
 20
1218.500000000077
 30
0.0
 41
12.5
 42
12.5
 43
12.5
 50
90.0
  0
MTEXT
  5
2B5
330
2AD
100
AcDbEntity
  8
LAY-10
 62
     7
100
AcDbMText
 10
867.5000000000002
 20
950.0000000000389
 30
0.0
 40
15.590552
 41
0.0
 71
     5
 72
     1
  1
537
  7
EXCADDIM1
 11
0.0
 21
1.0
 31
0.0
  0
POINT
  5
2B6
330
2AD
100
AcDbEntity
  8
DEFPOINTS
 62
     0
100
AcDbPoint
 10
1000.000000000002
 20
681.5000000000009
 30
0.0
  0
POINT
  5
2B7
330
2AD
100
AcDbEntity
  8
DEFPOINTS
 62
     0
100
AcDbPoint
 10
1000.000000000003
 20
1218.500000000077
 30
0.0
  0
POINT
  5
2B8
330
2AD
100
AcDbEntity
  8
DEFPOINTS
 62
     0
100
AcDbPoint
 10
880.0000000000002
 20
1218.500000000077
 30
0.0
  0
ENDBLK
  5
2AF
330
2AD
100
AcDbEntity
  8
0
100
AcDbBlockEnd
  0
BLOCK
  5
2BB
330
2BA
100
AcDbEntity
  8
0
100
AcDbBlockBegin
  2
*D25
 70
     1
 10
0.0
 20
0.0
 30
0.0
  3
*D25
  1

  0
LINE
  5
2BD
330
2BA
100
AcDbEntity
  8
LAY-10
  6
CONTINUOUS
 62
     4
100
AcDbLine
 10
1182.5
 20
1225.0
 30
0.0
 11
1232.5
 21
1225.0
 31
0.0
  0
LINE
  5
2BE
330
2BA
100
AcDbEntity
  8
LAY-10
  6
CONTINUOUS
 62
     4
100
AcDbLine
 10
1225.0
 20
1212.5
 30
0.0
 11
1225.0
 21
1187.5
 31
0.0
  0
INSERT
  5
2BF
330
2BA
100
AcDbEntity
  8
LAY-10
 62
     4
100
AcDbBlockReference
  2
EX_BNORM
 10
1225.0
 20
1225.0
 30
0.0
 41
12.5
 42
12.5
 43
12.5
 50
90.0
  0
INSERT
  5
2C0
330
2BA
100
AcDbEntity
  8
LAY-10
 62
     4
100
AcDbBlockReference
  2
EX_BNORM
 10
1225.0
 20
1175.0
 30
0.0
 41
12.5
 42
12.5
 43
12.5
 50
270.0
  0
MTEXT
  5
2C1
330
2BA
100
AcDbEntity
  8
LAY-10
 62
     7
100
AcDbMText
 10
1212.5
 20
1200.0
 30
0.0
 40
15.590552
 41
0.0
 71
     5
 72
     1
  1
50
  7
EXCADDIM1
 11
0.0
 21
1.0
 31
0.0
  0
POINT
  5
2C2
330
2BA
100
AcDbEntity
  8
DEFPOINTS
 62
     0
100
AcDbPoint
 10
1175.0
 20
1225.0
 30
0.0
  0
POINT
  5
2C3
330
2BA
100
AcDbEntity
  8
DEFPOINTS
 62
     0
100
AcDbPoint
 10
1225.0
 20
1175.0
 30
0.0
  0
POINT
  5
2C4
330
2BA
100
AcDbEntity
  8
DEFPOINTS
 62
     0
100
AcDbPoint
 10
1225.0
 20
1175.0
 30
0.0
  0
ENDBLK
  5
2BC
330
2BA
100
AcDbEntity
  8
0
100
AcDbBlockEnd
  0
BLOCK
  5
2C7
330
2C6
100
AcDbEntity
  8
0
100
AcDbBlockBegin
  2
*D26
 70
     1
 10
0.0
 20
0.0
 30
0.0
  3
*D26
  1

  0
LINE
  5
2C9
330
2C6
100
AcDbEntity
  8
LAY-10
  6
CONTINUOUS
 62
     4
100
AcDbLine
 10
1182.5
 20
675.0
 30
0.0
 11
1232.5
 21
675.0
 31
0.0
  0
LINE
  5
2CA
330
2C6
100
AcDbEntity
  8
LAY-10
  6
CONTINUOUS
 62
     4
100
AcDbLine
 10
1225.0
 20
687.5
 30
0.0
 11
1225.0
 21
712.4999999999998
 31
0.0
  0
INSERT
  5
2CB
330
2C6
100
AcDbEntity
  8
LAY-10
 62
     4
100
AcDbBlockReference
  2
EX_BNORM
 10
1225.0
 20
675.0
 30
0.0
 41
12.5
 42
12.5
 43
12.5
 50
270.0
  0
INSERT
  5
2CC
330
2C6
100
AcDbEntity
  8
LAY-10
 62
     4
100
AcDbBlockReference
  2
EX_BNORM
 10
1225.0
 20
724.9999999999998
 30
0.0
 41
12.5
 42
12.5
 43
12.5
 50
90.0
  0
MTEXT
  5
2CD
330
2C6
100
AcDbEntity
  8
LAY-10
 62
     7
100
AcDbMText
 10
1212.5
 20
700.0
 30
0.0
 40
15.590552
 41
0.0
 71
     5
 72
     1
  1
50
  7
EXCADDIM1
 11
0.0
 21
1.0
 31
0.0
  0
POINT
  5
2CE
330
2C6
100
AcDbEntity
  8
DEFPOINTS
 62
     0
100
AcDbPoint
 10
1175.0
 20
675.0
 30
0.0
  0
POINT
  5
2CF
330
2C6
100
AcDbEntity
  8
DEFPOINTS
 62
     0
100
AcDbPoint
 10
1225.0
 20
724.9999999999998
 30
0.0
  0
POINT
  5
2D0
330
2C6
100
AcDbEntity
  8
DEFPOINTS
 62
     0
100
AcDbPoint
 10
1225.0
 20
724.9999999999998
 30
0.0
  0
ENDBLK
  5
2C8
330
2C6
100
AcDbEntity
  8
0
100
AcDbBlockEnd
  0
BLOCK
  5
2D3
330
2D2
100
AcDbEntity
  8
0
100
AcDbBlockBegin
  2
*D27
 70
     1
 10
0.0
 20
0.0
 30
0.0
  3
*D27
  1

  0
LINE
  5
2D5
330
2D2
100
AcDbEntity
  8
LAY-10
  6
CONTINUOUS
 62
     4
100
AcDbLine
 10
274.99999999996
 20
1235.5
 30
0.0
 11
274.99999999996
 21
1282.5
 31
0.0
  0
LINE
  5
2D6
330
2D2
100
AcDbEntity
  8
LAY-10
  6
CONTINUOUS
 62
     4
100
AcDbLine
 10
675.00000000005
 20
1235.5
 30
0.0
 11
675.00000000005
 21
1282.5
 31
0.0
  0
LINE
  5
2D7
330
2D2
100
AcDbEntity
  8
LAY-10
  6
CONTINUOUS
 62
     4
100
AcDbLine
 10
287.49999999996
 20
1275.0
 30
0.0
 11
662.50000000005
 21
1275.0
 31
0.0
  0
INSERT
  5
2D8
330
2D2
100
AcDbEntity
  8
LAY-10
 62
     4
100
AcDbBlockReference
  2
EX_BNORM
 10
274.99999999996
 20
1275.0
 30
0.0
 41
12.5
 42
12.5
 43
12.5
 50
180.0
  0
INSERT
  5
2D9
330
2D2
100
AcDbEntity
  8
LAY-10
 62
     4
100
AcDbBlockReference
  2
EX_BNORM
 10
675.00000000005
 20
1275.0
 30
0.0
 41
12.5
 42
12.5
 43
12.5
  0
MTEXT
  5
2DA
330
2D2
100
AcDbEntity
  8
LAY-10
 62
     7
100
AcDbMText
 10
475.000000000005
 20
1287.5
 30
0.0
 40
15.590552
 41
0.0
 71
     5
 72
     1
  1
400
  7
EXCADDIM1
  0
POINT
  5
2DB
330
2D2
100
AcDbEntity
  8
DEFPOINTS
 62
     0
100
AcDbPoint
 10
274.99999999996
 20
1228.0
 30
0.0
  0
POINT
  5
2DC
330
2D2
100
AcDbEntity
  8
DEFPOINTS
 62
     0
100
AcDbPoint
 10
675.00000000005
 20
1228.0
 30
0.0
  0
POINT
  5
2DD
330
2D2
100
AcDbEntity
  8
DEFPOINTS
 62
     0
100
AcDbPoint
 10
675.00000000005
 20
1275.0
 30
0.0
  0
ENDBLK
  5
2D4
330
2D2
100
AcDbEntity
  8
0
100
AcDbBlockEnd
  0
BLOCK
  5
2E0
330
2DF
100
AcDbEntity
  8
0
100
AcDbBlockBegin
  2
*D28
 70
     1
 10
0.0
 20
0.0
 30
0.0
  3
*D28
  1

  0
LINE
  5
2E2
330
2DF
100
AcDbEntity
  8
LAY-10
  6
CONTINUOUS
 62
     4
100
AcDbLine
 10
992.5
 20
685.99999999996
 30
0.0
 11
907.5
 21
685.9999999999601
 31
0.0
  0
LINE
  5
2E3
330
2DF
100
AcDbEntity
  8
LAY-10
  6
CONTINUOUS
 62
     4
100
AcDbLine
 10
992.5
 20
1145.5
 30
0.0
 11
907.5
 21
1145.5
 31
0.0
  0
LINE
  5
2E4
330
2DF
100
AcDbEntity
  8
LAY-10
  6
CONTINUOUS
 62
     4
100
AcDbLine
 10
915.0
 20
698.4999999999601
 30
0.0
 11
915.0
 21
1133.0
 31
0.0
  0
INSERT
  5
2E5
330
2DF
100
AcDbEntity
  8
LAY-10
 62
     4
100
AcDbBlockReference
  2
EX_BNORM
 10
915.0
 20
685.9999999999601
 30
0.0
 41
12.5
 42
12.5
 43
12.5
 50
270.0
  0
INSERT
  5
2E6
330
2DF
100
AcDbEntity
  8
LAY-10
 62
     4
100
AcDbBlockReference
  2
EX_BNORM
 10
915.0
 20
1145.5
 30
0.0
 41
12.5
 42
12.5
 43
12.5
 50
90.0
  0
MTEXT
  5
2E7
330
2DF
100
AcDbEntity
  8
LAY-10
 62
     7
100
AcDbMText
 10
902.5
 20
915.74999999998
 30
0.0
 40
15.590552
 41
0.0
 71
     5
 72
     1
  1
459.5
  7
EXCADDIM1
 11
0.0
 21
1.0
 31
0.0
  0
POINT
  5
2E8
330
2DF
100
AcDbEntity
  8
DEFPOINTS
 62
     0
100
AcDbPoint
 10
1000.0
 20
685.99999999996
 30
0.0
  0
POINT
  5
2E9
330
2DF
100
AcDbEntity
  8
DEFPOINTS
 62
     0
100
AcDbPoint
 10
1000.0
 20
1145.5
 30
0.0
  0
POINT
  5
2EA
330
2DF
100
AcDbEntity
  8
DEFPOINTS
 62
     0
100
AcDbPoint
 10
915.0
 20
1145.5
 30
0.0
  0
ENDBLK
  5
2E1
330
2DF
100
AcDbEntity
  8
0
100
AcDbBlockEnd
  0
BLOCK
  5
2ED
330
2EC
100
AcDbEntity
  8
0
100
AcDbBlockBegin
  2
*D29
 70
     1
 10
0.0
 20
0.0
 30
0.0
  3
*D29
  1

  0
LINE
  5
2EF
330
2EC
100
AcDbEntity
  8
LAY-10
  6
CONTINUOUS
 62
     4
100
AcDbLine
 10
915.0
 20
1158.0
 30
0.0
 11
915.0
 21
1206.0000000001
 31
0.0
  0
INSERT
  5
2F0
330
2EC
100
AcDbEntity
  8
LAY-10
 62
     4
100
AcDbBlockReference
  2
EX_BNORM
 10
915.0
 20
1145.5
 30
0.0
 41
12.5
 42
12.5
 43
12.5
 50
270.0
  0
INSERT
  5
2F1
330
2EC
100
AcDbEntity
  8
LAY-10
 62
     4
100
AcDbBlockReference
  2
EX_BNORM
 10
915.0
 20
1218.5000000001
 30
0.0
 41
12.5
 42
12.5
 43
12.5
 50
90.0
  0
MTEXT
  5
2F2
330
2EC
100
AcDbEntity
  8
LAY-10
 62
     7
100
AcDbMText
 10
902.5000000000001
 20
1182.00000000005
 30
0.0
 40
15.590552
 41
0.0
 71
     5
 72
     1
  1
73
  7
EXCADDIM1
 11
0.0
 21
1.0
 31
0.0
  0
POINT
  5
2F3
330
2EC
100
AcDbEntity
  8
DEFPOINTS
 62
     0
100
AcDbPoint
 10
915.0
 20
1145.5
 30
0.0
  0
POINT
  5
2F4
330
2EC
100
AcDbEntity
  8
DEFPOINTS
 62
     0
100
AcDbPoint
 10
915.0
 20
1218.5000000001
 30
0.0
  0
POINT
  5
2F5
330
2EC
100
AcDbEntity
  8
DEFPOINTS
 62
     0
100
AcDbPoint
 10
915.0
 20
1218.5000000001
 30
0.0
  0
ENDBLK
  5
2EE
330
2EC
100
AcDbEntity
  8
0
100
AcDbBlockEnd
  0
BLOCK
  5
2F8
330
2F7
100
AcDbEntity
  8
0
100
AcDbBlockBegin
  2
*D30
 70
     1
 10
0.0
 20
0.0
 30
0.0
  3
*D30
  1

  0
LINE
  5
2FA
330
2F7
100
AcDbEntity
  8
LAY-10
  6
CONTINUOUS
 62
     4
100
AcDbLine
 10
1137.5
 20
1175.0
 30
0.0
 11
1232.5
 21
1175.0
 31
0.0
  0
LINE
  5
2FB
330
2F7
100
AcDbEntity
  8
LAY-10
  6
CONTINUOUS
 62
     4
100
AcDbLine
 10
1137.5
 20
725.0000000000299
 30
0.0
 11
1232.5
 21
725.0000000000299
 31
0.0
  0
LINE
  5
2FC
330
2F7
100
AcDbEntity
  8
LAY-10
  6
CONTINUOUS
 62
     4
100
AcDbLine
 10
1225.0
 20
1160.0
 30
0.0
 11
1225.0
 21
740.0000000000299
 31
0.0
  0
INSERT
  5
2FD
330
2F7
100
AcDbEntity
  8
LAY-10
 62
     4
100
AcDbBlockReference
  2
EX_BNORM
 10
1225.0
 20
1175.0
 30
0.0
 41
15.0
 42
15.0
 43
15.0
 50
90.0
  0
INSERT
  5
2FE
330
2F7
100
AcDbEntity
  8
LAY-10
 62
     4
100
AcDbBlockReference
  2
EX_BNORM
 10
1225.0
 20
725.0000000000299
 30
0.0
 41
15.0
 42
15.0
 43
15.0
 50
270.0
  0
MTEXT
  5
2FF
330
2F7
100
AcDbEntity
  8
LAY-10
 62
     7
100
AcDbMText
 10
1212.5
 20
950.000000000015
 30
0.0
 40
15.590552
 41
0.0
 71
     5
 72
     1
  1
桝径450
  7
EXCADDIM1
 11
0.0
 21
1.0
 31
0.0
  0
POINT
  5
300
330
2F7
100
AcDbEntity
  8
DEFPOINTS
 62
     0
100
AcDbPoint
 10
1130.0
 20
1175.0
 30
0.0
  0
POINT
  5
301
330
2F7
100
AcDbEntity
  8
DEFPOINTS
 62
     0
100
AcDbPoint
 10
1130.0
 20
725.0000000000299
 30
0.0
  0
POINT
  5
302
330
2F7
100
AcDbEntity
  8
DEFPOINTS
 62
     0
100
AcDbPoint
 10
1225.0
 20
725.0000000000299
 30
0.0
  0
ENDBLK
  5
2F9
330
2F7
100
AcDbEntity
  8
0
100
AcDbBlockEnd
  0
BLOCK
  5
305
330
304
100
AcDbEntity
  8
0
100
AcDbBlockBegin
  2
*D31
 70
     1
 10
0.0
 20
0.0
 30
0.0
  3
*D31
  1

  0
LINE
  5
307
330
304
100
AcDbEntity
  8
LAY-10
  6
CONTINUOUS
 62
     4
100
AcDbLine
 10
250.00000000003
 20
337.4999999999899
 30
0.0
 11
250.00000000003
 21
242.5000000001
 31
0.0
  0
LINE
  5
308
330
304
100
AcDbEntity
  8
LAY-10
  6
CONTINUOUS
 62
     4
100
AcDbLine
 10
700.0000000000299
 20
337.4999999999899
 30
0.0
 11
700.0000000000299
 21
242.5000000001
 31
0.0
  0
LINE
  5
309
330
304
100
AcDbEntity
  8
LAY-10
  6
CONTINUOUS
 62
     4
100
AcDbLine
 10
265.00000000003
 20
250.0000000001
 30
0.0
 11
685.0000000000299
 21
250.0000000001
 31
0.0
  0
INSERT
  5
30A
330
304
100
AcDbEntity
  8
LAY-10
 62
     4
100
AcDbBlockReference
  2
EX_BNORM
 10
250.00000000003
 20
250.0000000001
 30
0.0
 41
15.0
 42
15.0
 43
15.0
 50
180.0
  0
INSERT
  5
30B
330
304
100
AcDbEntity
  8
LAY-10
 62
     4
100
AcDbBlockReference
  2
EX_BNORM
 10
700.0000000000299
 20
250.0000000001
 30
0.0
 41
15.0
 42
15.0
 43
15.0
  0
MTEXT
  5
30C
330
304
100
AcDbEntity
  8
LAY-10
 62
     7
100
AcDbMText
 10
475.0000000000299
 20
262.5000000001
 30
0.0
 40
15.590552
 41
0.0
 71
     5
 72
     1
  1
桝径450
  7
EXCADDIM1
  0
POINT
  5
30D
330
304
100
AcDbEntity
  8
DEFPOINTS
 62
     0
100
AcDbPoint
 10
250.00000000003
 20
344.9999999999899
 30
0.0
  0
POINT
  5
30E
330
304
100
AcDbEntity
  8
DEFPOINTS
 62
     0
100
AcDbPoint
 10
700.0000000000299
 20
344.9999999999899
 30
0.0
  0
POINT
  5
30F
330
304
100
AcDbEntity
  8
DEFPOINTS
 62
     0
100
AcDbPoint
 10
700.0000000000299
 20
250.0000000001
 30
0.0
  0
ENDBLK
  5
306
330
304
100
AcDbEntity
  8
0
100
AcDbBlockEnd
  0
ENDSEC
  0
SECTION
  2
ENTITIES
  0
LINE
  5
D4
330
1F
100
AcDbEntity
  8
LAY-10
  6
CONTINUOUS
 62
     7
100
AcDbLine
 10
1123.500000000003
 20
724.0416305604947
 30
0.0
 11
1124.458369439576
 21
725.0000000000684
 31
0.0
  0
LINE
  5
D5
330
1F
100
AcDbEntity
  8
LAY-10
  6
CONTINUOUS
 62
     7
100
AcDbLine
 10
1123.5
 20
722.6274169981186
 30
0.0
 11
1125.500000000003
 21
724.6274169981214
 31
0.0
  0
LINE
  5
D6
330
1F
100
AcDbEntity
  8
LAY-10
  6
CONTINUOUS
 62
     7
100
AcDbLine
 10
1123.499999999997
 20
721.2132034357429
 30
0.0
 11
1125.5
 21
723.2132034357462
 31
0.0
  0
LINE
  5
D7
330
1F
100
AcDbEntity
  8
LAY-10
  6
CONTINUOUS
 62
     7
100
AcDbLine
 10
1123.500000000001
 20
719.7989898733738
 30
0.0
 11
1125.500000000004
 21
721.7989898733765
 31
0.0
  0
LINE
  5
D8
330
1F
100
AcDbEntity
  8
LAY-10
  6
CONTINUOUS
 62
     7
100
AcDbLine
 10
1123.499999999999
 20
718.3847763109986
 30
0.0
 11
1125.500000000001
 21
720.3847763110014
 31
0.0
  0
LINE
  5
D9
330
1F
100
AcDbEntity
  8
LAY-10
  6
CONTINUOUS
 62
     7
100
AcDbLine
 10
1123.499999999996
 20
716.9705627486226
 30
0.0
 11
1125.499999999999
 21
718.9705627486253
 31
0.0
  0
LINE
  5
DA
330
1F
100
AcDbEntity
  8
LAY-10
  6
CONTINUOUS
 62
     7
100
AcDbLine
 10
1123.5
 20
715.5563491862529
 30
0.0
 11
1125.500000000003
 21
717.5563491862562
 31
0.0
  0
LINE
  5
DB
330
1F
100
AcDbEntity
  8
LAY-10
  6
CONTINUOUS
 62
     7
100
AcDbLine
 10
1123.499999999997
 20
714.1421356238777
 30
0.0
 11
1125.5
 21
716.1421356238804
 31
0.0
  0
LINE
  5
DC
330
1F
100
AcDbEntity
  8
LAY-10
  6
CONTINUOUS
 62
     7
100
AcDbLine
 10
1123.500000000001
 20
712.7279220615079
 30
0.0
 11
1125.500000000004
 21
714.7279220615112
 31
0.0
  0
LINE
  5
DD
330
1F
100
AcDbEntity
  8
LAY-10
  6
CONTINUOUS
 62
     7
100
AcDbLine
 10
1123.499999999999
 20
711.3137084991328
 30
0.0
 11
1125.500000000001
 21
713.3137084991355
 31
0.0
  0
LINE
  5
DE
330
1F
100
AcDbEntity
  8
LAY-10
  6
CONTINUOUS
 62
     7
100
AcDbLine
 10
1123.499999999996
 20
709.8994949367568
 30
0.0
 11
1125.499999999999
 21
711.8994949367595
 31
0.0
  0
LINE
  5
DF
330
1F
100
AcDbEntity
  8
LAY-10
  6
CONTINUOUS
 62
     7
100
AcDbLine
 10
1123.5
 20
708.485281374388
 30
0.0
 11
1125.500000000003
 21
710.4852813743908
 31
0.0
  0
LINE
  5
E0
330
1F
100
AcDbEntity
  8
LAY-10
  6
CONTINUOUS
 62
     7
100
AcDbLine
 10
1123.499999999997
 20
707.0710678120118
 30
0.0
 11
1125.5
 21
709.0710678120146
 31
0.0
  0
LINE
  5
E1
330
1F
100
AcDbEntity
  8
LAY-10
  6
CONTINUOUS
 62
     7
100
AcDbLine
 10
1123.499999999995
 20
705.6568542496365
 30
0.0
 11
1125.499999999998
 21
707.6568542496392
 31
0.0
  0
LINE
  5
E2
330
1F
100
AcDbEntity
  8
LAY-10
  6
CONTINUOUS
 62
     7
100
AcDbLine
 10
1123.499999999999
 20
704.2426406872671
 30
0.0
 11
1125.500000000001
 21
706.2426406872698
 31
0.0
  0
LINE
  5
E3
330
1F
100
AcDbEntity
  8
LAY-10
  6
CONTINUOUS
 62
     7
100
AcDbLine
 10
1123.499999999996
 20
702.8284271248909
 30
0.0
 11
1125.499999999999
 21
704.8284271248942
 31
0.0
  0
LINE
  5
E4
330
1F
100
AcDbEntity
  8
LAY-10
  6
CONTINUOUS
 62
     7
100
AcDbLine
 10
1123.5
 20
701.4142135625224
 30
0.0
 11
1125.500000000003
 21
703.4142135625251
 31
0.0
  0
LINE
  5
E5
330
1F
100
AcDbEntity
  8
LAY-10
  6
CONTINUOUS
 62
     7
100
AcDbLine
 10
1123.499999999997
 20
700.0000000001462
 30
0.0
 11
1125.5
 21
702.0000000001494
 31
0.0
  0
LINE
  5
E6
330
1F
100
AcDbEntity
  8
LAY-10
  6
CONTINUOUS
 62
     7
100
AcDbLine
 10
1124.914213562373
 20
700.0000000001489
 30
0.0
 11
1125.499999999998
 21
700.5857864377738
 31
0.0
  0
LINE
  5
E7
330
1F
100
AcDbEntity
  8
LAY-10
  6
CONTINUOUS
 62
     7
100
AcDbLine
 10
1123.499999999998
 20
1199.04163056039
 30
0.0
 11
1124.458369439559
 21
1199.999999999951
 31
0.0
  0
LINE
  5
E8
330
1F
100
AcDbEntity
  8
LAY-10
  6
CONTINUOUS
 62
     7
100
AcDbLine
 10
1123.500000000001
 20
1197.627416998021
 30
0.0
 11
1125.500000000004
 21
1199.627416998024
 31
0.0
  0
LINE
  5
E9
330
1F
100
AcDbEntity
  8
LAY-10
  6
CONTINUOUS
 62
     7
100
AcDbLine
 10
1123.499999999999
 20
1196.213203435645
 30
0.0
 11
1125.500000000002
 21
1198.213203435648
 31
0.0
  0
LINE
  5
EA
330
1F
100
AcDbEntity
  8
LAY-10
  6
CONTINUOUS
 62
     7
100
AcDbLine
 10
1123.500000000003
 20
1194.798989873276
 30
0.0
 11
1125.500000000006
 21
1196.798989873279
 31
0.0
  0
LINE
  5
EB
330
1F
100
AcDbEntity
  8
LAY-10
  6
CONTINUOUS
 62
     7
100
AcDbLine
 10
1123.5
 20
1193.384776310901
 30
0.0
 11
1125.500000000003
 21
1195.384776310904
 31
0.0
  0
LINE
  5
EC
330
1F
100
AcDbEntity
  8
LAY-10
  6
CONTINUOUS
 62
     7
100
AcDbLine
 10
1123.499999999997
 20
1191.970562748525
 30
0.0
 11
1125.5
 21
1193.970562748528
 31
0.0
  0
LINE
  5
ED
330
1F
100
AcDbEntity
  8
LAY-10
  6
CONTINUOUS
 62
     7
100
AcDbLine
 10
1123.500000000001
 20
1190.556349186156
 30
0.0
 11
1125.500000000004
 21
1192.556349186159
 31
0.0
  0
LINE
  5
EE
330
1F
100
AcDbEntity
  8
LAY-10
  6
CONTINUOUS
 62
     7
100
AcDbLine
 10
1123.499999999999
 20
1189.14213562378
 30
0.0
 11
1125.500000000002
 21
1191.142135623783
 31
0.0
  0
LINE
  5
EF
330
1F
100
AcDbEntity
  8
LAY-10
  6
CONTINUOUS
 62
     7
100
AcDbLine
 10
1123.500000000003
 20
1187.727922061411
 30
0.0
 11
1125.500000000005
 21
1189.727922061413
 31
0.0
  0
LINE
  5
F0
330
1F
100
AcDbEntity
  8
LAY-10
  6
CONTINUOUS
 62
     7
100
AcDbLine
 10
1123.5
 20
1186.313708499035
 30
0.0
 11
1125.500000000003
 21
1188.313708499038
 31
0.0
  0
LINE
  5
F1
330
1F
100
AcDbEntity
  8
LAY-10
  6
CONTINUOUS
 62
     7
100
AcDbLine
 10
1123.500000000004
 20
1184.899494936666
 30
0.0
 11
1125.500000000007
 21
1186.899494936669
 31
0.0
  0
LINE
  5
F2
330
1F
100
AcDbEntity
  8
LAY-10
  6
CONTINUOUS
 62
     7
100
AcDbLine
 10
1123.500000000001
 20
1183.485281374291
 30
0.0
 11
1125.500000000004
 21
1185.485281374293
 31
0.0
  0
LINE
  5
F3
330
1F
100
AcDbEntity
  8
LAY-10
  6
CONTINUOUS
 62
     7
100
AcDbLine
 10
1123.499999999999
 20
1182.071067811915
 30
0.0
 11
1125.500000000002
 21
1184.071067811917
 31
0.0
  0
LINE
  5
F4
330
1F
100
AcDbEntity
  8
LAY-10
  6
CONTINUOUS
 62
     7
100
AcDbLine
 10
1123.500000000002
 20
1180.656854249545
 30
0.0
 11
1125.500000000005
 21
1182.656854249549
 31
0.0
  0
LINE
  5
F5
330
1F
100
AcDbEntity
  8
LAY-10
  6
CONTINUOUS
 62
     7
100
AcDbLine
 10
1123.5
 20
1179.24264068717
 30
0.0
 11
1125.500000000003
 21
1181.242640687173
 31
0.0
  0
LINE
  5
F6
330
1F
100
AcDbEntity
  8
LAY-10
  6
CONTINUOUS
 62
     7
100
AcDbLine
 10
1123.500000000004
 20
1177.828427124801
 30
0.0
 11
1125.500000000007
 21
1179.828427124804
 31
0.0
  0
LINE
  5
F7
330
1F
100
AcDbEntity
  8
LAY-10
  6
CONTINUOUS
 62
     7
100
AcDbLine
 10
1123.500000000001
 20
1176.414213562425
 30
0.0
 11
1125.500000000004
 21
1178.414213562428
 31
0.0
  0
LINE
  5
F8
330
1F
100
AcDbEntity
  8
LAY-10
  6
CONTINUOUS
 62
     7
100
AcDbLine
 10
1123.500000000018
 20
1175.000000000068
 30
0.0
 11
1125.500000000008
 21
1177.000000000059
 31
0.0
  0
LINE
  5
F9
330
1F
100
AcDbEntity
  8
LAY-10
  6
CONTINUOUS
 62
     7
100
AcDbLine
 10
1124.914213562393
 20
1175.000000000072
 30
0.0
 11
1125.500000000005
 21
1175.585786437683
 31
0.0
  0
LINE
  5
FA
330
1F
100
AcDbEntity
  8
LAY-10
  6
CONTINUOUS
 62
     7
100
AcDbLine
 10
225.0000000000507
 20
350.9142135623732
 30
0.0
 11
225.5857864376751
 21
351.4999999999978
 31
0.0
  0
LINE
  5
FB
330
1F
100
AcDbEntity
  8
LAY-10
  6
CONTINUOUS
 62
     7
100
AcDbLine
 10
225.0000000000352
 20
349.4999999999849
 30
0.0
 11
227.0000000000509
 21
351.5000000000007
 31
0.0
  0
LINE
  5
FC
330
1F
100
AcDbEntity
  8
LAY-10
  6
CONTINUOUS
 62
     7
100
AcDbLine
 10
226.4142135624043
 20
349.499999999981
 30
0.0
 11
228.4142135624202
 21
351.4999999999967
 31
0.0
  0
LINE
  5
FD
330
1F
100
AcDbEntity
  8
LAY-10
  6
CONTINUOUS
 62
     7
100
AcDbLine
 10
227.8284271247801
 20
349.4999999999837
 30
0.0
 11
229.8284271247956
 21
351.4999999999996
 31
0.0
  0
LINE
  5
FE
330
1F
100
AcDbEntity
  8
LAY-10
  6
CONTINUOUS
 62
     7
100
AcDbLine
 10
229.2426406871557
 20
349.4999999999862
 30
0.0
 11
231.2426406871648
 21
351.4999999999956
 31
0.0
  0
LINE
  5
FF
330
1F
100
AcDbEntity
  8
LAY-10
  6
CONTINUOUS
 62
     7
100
AcDbLine
 10
230.6568542495247
 20
349.4999999999826
 30
0.0
 11
232.6568542495406
 21
351.4999999999985
 31
0.0
  0
LINE
  5
100
330
1F
100
AcDbEntity
  8
LAY-10
  6
CONTINUOUS
 62
     7
100
AcDbLine
 10
232.0710678119003
 20
349.4999999999851
 30
0.0
 11
234.0710678119162
 21
351.500000000001
 31
0.0
  0
LINE
  5
101
330
1F
100
AcDbEntity
  8
LAY-10
  6
CONTINUOUS
 62
     7
100
AcDbLine
 10
233.4852813742762
 20
349.4999999999878
 30
0.0
 11
235.4852813742853
 21
351.4999999999969
 31
0.0
  0
LINE
  5
102
330
1F
100
AcDbEntity
  8
LAY-10
  6
CONTINUOUS
 62
     7
100
AcDbLine
 10
234.8994949366452
 20
349.4999999999837
 30
0.0
 11
236.8994949366609
 21
351.4999999999996
 31
0.0
  0
LINE
  5
103
330
1F
100
AcDbEntity
  8
LAY-10
  6
CONTINUOUS
 62
     7
100
AcDbLine
 10
236.3137084990208
 20
349.4999999999866
 30
0.0
 11
238.3137084990303
 21
351.4999999999958
 31
0.0
  0
LINE
  5
104
330
1F
100
AcDbEntity
  8
LAY-10
  6
CONTINUOUS
 62
     7
100
AcDbLine
 10
237.7279220613964
 20
349.4999999999892
 30
0.0
 11
239.7279220614057
 21
351.4999999999985
 31
0.0
  0
LINE
  5
105
330
1F
100
AcDbEntity
  8
LAY-10
  6
CONTINUOUS
 62
     7
100
AcDbLine
 10
239.1421356237659
 20
349.4999999999855
 30
0.0
 11
241.1421356237749
 21
351.4999999999944
 31
0.0
  0
LINE
  5
106
330
1F
100
AcDbEntity
  8
LAY-10
  6
CONTINUOUS
 62
     7
100
AcDbLine
 10
240.5563491861415
 20
349.4999999999881
 30
0.0
 11
242.5563491861506
 21
351.4999999999973
 31
0.0
  0
LINE
  5
107
330
1F
100
AcDbEntity
  8
LAY-10
  6
CONTINUOUS
 62
     7
100
AcDbLine
 10
241.9705627485102
 20
349.499999999984
 30
0.0
 11
243.9705627485262
 21
351.4999999999999
 31
0.0
  0
LINE
  5
108
330
1F
100
AcDbEntity
  8
LAY-10
  6
CONTINUOUS
 62
     7
100
AcDbLine
 10
243.3847763108861
 20
349.4999999999866
 30
0.0
 11
245.3847763108956
 21
351.4999999999962
 31
0.0
  0
LINE
  5
109
330
1F
100
AcDbEntity
  8
LAY-10
  6
CONTINUOUS
 62
     7
100
AcDbLine
 10
244.7989898732617
 20
349.4999999999894
 30
0.0
 11
246.798989873271
 21
351.4999999999985
 31
0.0
  0
LINE
  5
10A
330
1F
100
AcDbEntity
  8
LAY-10
  6
CONTINUOUS
 62
     7
100
AcDbLine
 10
246.2132034356309
 20
349.4999999999855
 30
0.0
 11
248.2132034356403
 21
351.4999999999951
 31
0.0
  0
LINE
  5
10B
330
1F
100
AcDbEntity
  8
LAY-10
  6
CONTINUOUS
 62
     7
100
AcDbLine
 10
247.6274169980063
 20
349.4999999999881
 30
0.0
 11
249.6274169980159
 21
351.4999999999973
 31
0.0
  0
LINE
  5
10C
330
1F
100
AcDbEntity
  8
LAY-10
  6
CONTINUOUS
 62
     7
100
AcDbLine
 10
249.0416305603821
 20
349.4999999999906
 30
0.0
 11
250.0000000000334
 21
350.458369439642
 31
0.0
  0
LINE
  5
10D
330
1F
100
AcDbEntity
  8
LAY-10
  6
CONTINUOUS
 62
     7
100
AcDbLine
 10
700.0000000000663
 20
350.9142135623788
 30
0.0
 11
700.5857864376907
 21
351.5000000000035
 31
0.0
  0
LINE
  5
10E
330
1F
100
AcDbEntity
  8
LAY-10
  6
CONTINUOUS
 62
     7
100
AcDbLine
 10
700.0000000000508
 20
349.4999999999903
 30
0.0
 11
702.0000000000599
 21
351.4999999999996
 31
0.0
  0
LINE
  5
10F
330
1F
100
AcDbEntity
  8
LAY-10
  6
CONTINUOUS
 62
     7
100
AcDbLine
 10
701.4142135624201
 20
349.4999999999866
 30
0.0
 11
703.4142135624359
 21
351.5000000000024
 31
0.0
  0
LINE
  5
110
330
1F
100
AcDbEntity
  8
LAY-10
  6
CONTINUOUS
 62
     7
100
AcDbLine
 10
702.8284271247958
 20
349.4999999999889
 30
0.0
 11
704.8284271248114
 21
351.5000000000047
 31
0.0
  0
LINE
  5
111
330
1F
100
AcDbEntity
  8
LAY-10
  6
CONTINUOUS
 62
     7
100
AcDbLine
 10
704.2426406871649
 20
349.4999999999851
 30
0.0
 11
706.2426406871806
 21
351.500000000001
 31
0.0
  0
LINE
  5
112
330
1F
100
AcDbEntity
  8
LAY-10
  6
CONTINUOUS
 62
     7
100
AcDbLine
 10
705.6568542495405
 20
349.4999999999878
 30
0.0
 11
707.6568542495564
 21
351.5000000000035
 31
0.0
  0
LINE
  5
113
330
1F
100
AcDbEntity
  8
LAY-10
  6
CONTINUOUS
 62
     7
100
AcDbLine
 10
707.0710678119161
 20
349.4999999999903
 30
0.0
 11
709.0710678119254
 21
351.4999999999996
 31
0.0
  0
LINE
  5
114
330
1F
100
AcDbEntity
  8
LAY-10
  6
CONTINUOUS
 62
     7
100
AcDbLine
 10
708.4852813742854
 20
349.4999999999866
 30
0.0
 11
710.485281374301
 21
351.5000000000024
 31
0.0
  0
LINE
  5
115
330
1F
100
AcDbEntity
  8
LAY-10
  6
CONTINUOUS
 62
     7
100
AcDbLine
 10
709.899494936661
 20
349.4999999999889
 30
0.0
 11
711.8994949366769
 21
351.5000000000047
 31
0.0
  0
LINE
  5
116
330
1F
100
AcDbEntity
  8
LAY-10
  6
CONTINUOUS
 62
     7
100
AcDbLine
 10
711.3137084990304
 20
349.4999999999851
 30
0.0
 11
713.3137084990461
 21
351.500000000001
 31
0.0
  0
LINE
  5
117
330
1F
100
AcDbEntity
  8
LAY-10
  6
CONTINUOUS
 62
     7
100
AcDbLine
 10
712.727922061406
 20
349.4999999999878
 30
0.0
 11
714.7279220614217
 21
351.5000000000035
 31
0.0
  0
LINE
  5
118
330
1F
100
AcDbEntity
  8
LAY-10
  6
CONTINUOUS
 62
     7
100
AcDbLine
 10
714.1421356237751
 20
349.4999999999837
 30
0.0
 11
716.142135623791
 21
351.4999999999996
 31
0.0
  0
LINE
  5
119
330
1F
100
AcDbEntity
  8
LAY-10
  6
CONTINUOUS
 62
     7
100
AcDbLine
 10
715.5563491861511
 20
349.4999999999866
 30
0.0
 11
717.5563491861666
 21
351.5000000000024
 31
0.0
  0
LINE
  5
11A
330
1F
100
AcDbEntity
  8
LAY-10
  6
CONTINUOUS
 62
     7
100
AcDbLine
 10
716.9705627485268
 20
349.4999999999889
 30
0.0
 11
718.9705627485358
 21
351.4999999999981
 31
0.0
  0
LINE
  5
11B
330
1F
100
AcDbEntity
  8
LAY-10
  6
CONTINUOUS
 62
     7
100
AcDbLine
 10
718.384776310896
 20
349.4999999999851
 30
0.0
 11
720.3847763109119
 21
351.500000000001
 31
0.0
  0
LINE
  5
11C
330
1F
100
AcDbEntity
  8
LAY-10
  6
CONTINUOUS
 62
     7
100
AcDbLine
 10
719.7989898732716
 20
349.4999999999874
 30
0.0
 11
721.7989898732875
 21
351.5000000000033
 31
0.0
  0
LINE
  5
11D
330
1F
100
AcDbEntity
  8
LAY-10
  6
CONTINUOUS
 62
     7
100
AcDbLine
 10
721.2132034356409
 20
349.4999999999837
 30
0.0
 11
723.2132034356565
 21
351.4999999999996
 31
0.0
  0
LINE
  5
11E
330
1F
100
AcDbEntity
  8
LAY-10
  6
CONTINUOUS
 62
     7
100
AcDbLine
 10
722.6274169980164
 20
349.4999999999866
 30
0.0
 11
724.6274169980325
 21
351.5000000000024
 31
0.0
  0
LINE
  5
11F
330
1F
100
AcDbEntity
  8
LAY-10
  6
CONTINUOUS
 62
     7
100
AcDbLine
 10
724.041630560392
 20
349.4999999999889
 30
0.0
 11
725.00000000005
 21
350.4583694396466
 31
0.0
  0
LINE
  5
120
330
1F
100
AcDbEntity
  8
LAY-10
  6
CONTINUOUS
 62
     7
100
AcDbLine
 10
204.5000000000032
 20
679.4999999999916
 30
0.0
 11
200.000000000003
 21
674.9999999999917
 31
0.0
  0
LINE
  5
121
330
1F
100
AcDbEntity
  8
LAY-10
  6
CONTINUOUS
 62
     7
100
AcDbLine
 10
199.9999999999962
 20
474.9999999999865
 30
0.0
 11
204.4999999999964
 21
474.9999999999865
 31
0.0
  0
LINE
  5
122
330
1F
100
AcDbEntity
  8
LAY-10
  6
CONTINUOUS
 62
     7
100
AcDbLine
 10
750.000000000003
 20
674.9999999999917
 30
0.0
 11
745.500000000003
 21
679.4999999999916
 31
0.0
  0
LINE
  5
123
330
1F
100
AcDbEntity
  8
LAY-10
  6
CONTINUOUS
 62
     7
100
AcDbLine
 10
745.4999999999957
 20
474.9999999999865
 30
0.0
 11
749.9999999999958
 21
474.9999999999865
 31
0.0
  0
LINE
  5
124
330
1F
100
AcDbEntity
  8
LAY-10
  6
CONTINUOUS
 62
     7
100
AcDbLine
 10
1000.000000000002
 20
674.9999999999917
 30
0.0
 11
1000.000000000002
 21
679.4999999999916
 31
0.0
  0
LINE
  5
125
330
1F
100
AcDbEntity
  8
LAY-10
  6
CONTINUOUS
 62
     7
100
AcDbLine
 10
204.5000000000032
 20
679.4999999999916
 30
0.0
 11
745.500000000003
 21
679.4999999999916
 31
0.0
  0
LINE
  5
126
330
1F
100
AcDbEntity
  8
LAY-10
  6
CONTINUOUS
 62
     7
100
AcDbLine
 10
750.000000000003
 20
674.9999999999917
 30
0.0
 11
200.000000000003
 21
674.9999999999917
 31
0.0
  0
LINE
  5
127
330
1F
100
AcDbEntity
  8
LAY-10
  6
CONTINUOUS
 62
     7
100
AcDbLine
 10
206.4999999999961
 20
474.9999999999865
 30
0.0
 11
743.5000000000025
 21
474.9999999999865
 31
0.0
  0
LINE
  5
128
330
1F
100
AcDbEntity
  8
LAY-10
  6
CONTINUOUS
 62
     7
100
AcDbLine
 10
211.0000000000032
 20
685.9999999999918
 30
0.0
 11
739.0000000000026
 21
685.9999999999918
 31
0.0
  0
LINE
  5
129
330
1F
100
AcDbEntity
  8
LAY-10
  6
CONTINUOUS
 62
     7
100
AcDbLine
 10
206.5000000000032
 20
681.4999999999918
 30
0.0
 11
743.5000000000026
 21
681.4999999999918
 31
0.0
  0
LINE
  5
12A
330
1F
100
AcDbEntity
  8
LAY-10
  6
CONTINUOUS
 62
     7
100
AcDbLine
 10
211.0000000000032
 20
685.9999999999918
 30
0.0
 11
206.5000000000032
 21
681.4999999999918
 31
0.0
  0
LINE
  5
12B
330
1F
100
AcDbEntity
  8
LAY-10
  6
CONTINUOUS
 62
     7
100
AcDbLine
 10
743.5000000000026
 20
681.4999999999918
 30
0.0
 11
739.0000000000026
 21
685.9999999999918
 31
0.0
  0
LINE
  5
12C
330
1F
100
AcDbEntity
  8
LAY-10
  6
CONTINUOUS
 62
     7
100
AcDbLine
 10
1000.000000000002
 20
705.6999999999599
 30
0.0
 11
1000.000000000002
 21
771.69999999996
 31
0.0
  0
ARC
  5
12D
330
1F
100
AcDbEntity
  8
LAY-10
  6
CONTINUOUS
 62
     7
100
AcDbCircle
 10
215.4999999999961
 20
400.499999999972
 30
0.0
 40
4.5
100
AcDbArc
 50
180.0
 51
270.0
  0
LINE
  5
12E
330
1F
100
AcDbEntity
  8
LAY-10
  6
CONTINUOUS
 62
     7
100
AcDbLine
 10
210.9999999999964
 20
474.9999999999862
 30
0.0
 11
210.9999999999964
 21
400.499999999972
 31
0.0
  0
ARC
  5
12F
330
1F
100
AcDbEntity
  8
LAY-10
  6
CONTINUOUS
 62
     7
100
AcDbCircle
 10
215.4999999999961
 20
400.499999999972
 30
0.0
 40
9.0
100
AcDbArc
 50
180.0
 51
270.0
  0
LINE
  5
130
330
1F
100
AcDbEntity
  8
LAY-10
  6
CONTINUOUS
 62
     7
100
AcDbLine
 10
206.4999999999961
 20
474.9999999999862
 30
0.0
 11
206.4999999999961
 21
400.499999999972
 31
0.0
  0
LINE
  5
131
330
1F
100
AcDbEntity
  8
LAY-10
  6
CONTINUOUS
 62
     7
100
AcDbLine
 10
344.9999999999081
 20
405.9999999999781
 30
0.0
 11
344.9999999999081
 21
395.9999999999736
 31
0.0
  0
LINE
  5
132
330
1F
100
AcDbEntity
  8
LAY-10
  6
CONTINUOUS
 62
     7
100
AcDbLine
 10
304.9999999999081
 20
405.9999999999781
 30
0.0
 11
304.9999999999081
 21
395.9999999999736
 31
0.0
  0
LINE
  5
133
330
1F
100
AcDbEntity
  8
LAY-10
  6
CONTINUOUS
 62
     7
100
AcDbLine
 10
344.9999999999081
 20
405.9999999999735
 30
0.0
 11
304.9999999999081
 21
405.9999999999735
 31
0.0
  0
LINE
  5
134
330
1F
100
AcDbEntity
  8
LAY-10
  6
CONTINUOUS
 62
     7
100
AcDbLine
 10
344.9999999999081
 20
403.9999999999735
 30
0.0
 11
304.9999999999081
 21
403.9999999999735
 31
0.0
  0
LINE
  5
135
330
1F
100
AcDbEntity
  8
LAY-10
  6
CONTINUOUS
 62
     7
100
AcDbLine
 10
743.5000000000025
 20
474.9999999999862
 30
0.0
 11
743.5000000000025
 21
400.4999999999862
 31
0.0
  0
LINE
  5
136
330
1F
100
AcDbEntity
  8
LAY-10
  6
CONTINUOUS
 62
     7
100
AcDbLine
 10
739.0000000000024
 20
400.4999999999862
 30
0.0
 11
739.0000000000024
 21
474.9999999999862
 31
0.0
  0
ARC
  5
137
330
1F
100
AcDbEntity
  8
LAY-10
  6
CONTINUOUS
 62
     7
100
AcDbCircle
 10
734.5000000000024
 20
400.499999999972
 30
0.0
 40
4.5
100
AcDbArc
 50
270.0
 51
0.0
  0
ARC
  5
138
330
1F
100
AcDbEntity
  8
LAY-10
  6
CONTINUOUS
 62
     7
100
AcDbCircle
 10
734.5000000000024
 20
400.499999999972
 30
0.0
 40
9.0
100
AcDbArc
 50
270.0
 51
0.0
  0
LINE
  5
139
330
1F
100
AcDbEntity
  8
LAY-10
  6
CONTINUOUS
 62
     7
100
AcDbLine
 10
605.000000000089
 20
405.9999999999781
 30
0.0
 11
605.000000000089
 21
395.9999999999736
 31
0.0
  0
LINE
  5
13A
330
1F
100
AcDbEntity
  8
LAY-10
  6
CONTINUOUS
 62
     7
100
AcDbLine
 10
645.000000000089
 20
405.9999999999781
 30
0.0
 11
645.000000000089
 21
395.9999999999736
 31
0.0
  0
LINE
  5
13B
330
1F
100
AcDbEntity
  8
LAY-10
  6
CONTINUOUS
 62
     7
100
AcDbLine
 10
605.000000000089
 20
405.9999999999735
 30
0.0
 11
645.000000000089
 21
405.9999999999735
 31
0.0
  0
LINE
  5
13C
330
1F
100
AcDbEntity
  8
LAY-10
  6
CONTINUOUS
 62
     7
100
AcDbLine
 10
605.000000000089
 20
403.9999999999735
 30
0.0
 11
645.000000000089
 21
403.9999999999735
 31
0.0
  0
LINE
  5
13D
330
1F
100
AcDbEntity
  8
LAY-10
  6
CONTINUOUS
 62
     7
100
AcDbLine
 10
215.4999999999961
 20
395.9999999999717
 30
0.0
 11
734.5000000000258
 21
395.9999999999717
 31
0.0
  0
ARC
  5
13E
330
1F
100
AcDbEntity
  8
LAY-10
  6
CONTINUOUS
 62
     7
100
AcDbCircle
 10
1074.500000000017
 20
690.4999999999618
 30
0.0
 40
9.0
100
AcDbArc
 50
270.0
 51
0.0
  0
ARC
  5
13F
330
1F
100
AcDbEntity
  8
LAY-10
  6
CONTINUOUS
 62
     7
100
AcDbCircle
 10
1074.500000000017
 20
690.4999999999618
 30
0.0
 40
4.5
100
AcDbArc
 50
270.0
 51
0.0
  0
LINE
  5
140
330
1F
100
AcDbEntity
  8
LAY-10
  6
CONTINUOUS
 62
     7
100
AcDbLine
 10
1000.000000000002
 20
685.9999999999618
 30
0.0
 11
1074.500000000017
 21
685.9999999999618
 31
0.0
  0
LINE
  5
141
330
1F
100
AcDbEntity
  8
LAY-10
  6
CONTINUOUS
 62
     7
100
AcDbLine
 10
1000.000000000002
 20
681.4999999999618
 30
0.0
 11
1074.500000000017
 21
681.4999999999618
 31
0.0
  0
LINE
  5
142
330
1F
100
AcDbEntity
  8
LAY-10
  6
CONTINUOUS
 62
     7
100
AcDbLine
 10
1079.000000000017
 20
705.6999999999599
 30
0.0
 11
1079.000000000017
 21
771.69999999996
 31
0.0
  0
LINE
  5
143
330
1F
100
AcDbEntity
  8
LAY-10
  6
CONTINUOUS
 62
     7
100
AcDbLine
 10
1083.500000000017
 20
705.6999999999599
 30
0.0
 11
1083.500000000017
 21
771.69999999996
 31
0.0
  0
LINE
  5
144
330
1F
100
AcDbEntity
  8
LAY-10
  6
CONTINUOUS
 62
     7
100
AcDbLine
 10
1069.000000000007
 20
755.9999999999618
 30
0.0
 11
1071.000000000007
 21
755.9999999999618
 31
0.0
  0
LINE
  5
145
330
1F
100
AcDbEntity
  8
LAY-10
  6
CONTINUOUS
 62
     7
100
AcDbLine
 10
1069.000000000007
 20
715.9999999999527
 30
0.0
 11
1071.000000000007
 21
715.9999999999527
 31
0.0
  0
ARC
  5
146
330
1F
100
AcDbEntity
  8
LAY-10
  6
CONTINUOUS
 62
     7
100
AcDbCircle
 10
1077.0
 20
748.4999999999895
 30
0.0
 40
2.0
100
AcDbArc
 50
0.0000000000001719
 51
90.00000000000001
  0
ARC
  5
147
330
1F
100
AcDbEntity
  8
LAY-10
  6
CONTINUOUS
 62
     7
100
AcDbCircle
 10
1077.0
 20
723.4999999999562
 30
0.0
 40
2.0
100
AcDbArc
 50
270.0
 51
0.0000000000001719
  0
LINE
  5
148
330
1F
100
AcDbEntity
  8
LAY-10
  6
CONTINUOUS
 62
     7
100
AcDbLine
 10
1077.0
 20
748.499999999975
 30
0.0
 11
1077.0
 21
723.4999999999744
 31
0.0
  0
LINE
  5
149
330
1F
100
AcDbEntity
  8
LAY-10
  6
CONTINUOUS
 62
     7
100
AcDbLine
 10
1071.0
 20
750.4999999999895
 30
0.0
 11
1077.0
 21
750.4999999999895
 31
0.0
  0
LINE
  5
14A
330
1F
100
AcDbEntity
  8
LAY-10
  6
CONTINUOUS
 62
     7
100
AcDbLine
 10
1071.0
 20
748.499999999975
 30
0.0
 11
1077.0
 21
748.499999999975
 31
0.0
  0
ARC
  5
14B
330
1F
100
AcDbEntity
  8
LAY-10
  6
CONTINUOUS
 62
     7
100
AcDbCircle
 10
1071.0
 20
750.4999999999749
 30
0.0
 40
2.0
100
AcDbArc
 50
180.0
 51
270.0
  0
LINE
  5
14C
330
1F
100
AcDbEntity
  8
LAY-10
  6
CONTINUOUS
 62
     7
100
AcDbLine
 10
1071.0
 20
721.4999999999568
 30
0.0
 11
1077.0
 21
721.4999999999568
 31
0.0
  0
LINE
  5
14D
330
1F
100
AcDbEntity
  8
LAY-10
  6
CONTINUOUS
 62
     7
100
AcDbLine
 10
1071.0
 20
723.4999999999704
 30
0.0
 11
1077.0
 21
723.4999999999704
 31
0.0
  0
ARC
  5
14E
330
1F
100
AcDbEntity
  8
LAY-10
  6
CONTINUOUS
 62
     7
100
AcDbCircle
 10
1071.0
 20
721.4999999999714
 30
0.0
 40
2.0
100
AcDbArc
 50
90.00000000000001
 51
180.0
  0
LINE
  5
14F
330
1F
100
AcDbEntity
  8
LAY-10
  6
CONTINUOUS
 62
     7
100
AcDbLine
 10
1071.000000000007
 20
750.4999999999499
 30
0.0
 11
1071.000000000007
 21
755.9999999999618
 31
0.0
  0
LINE
  5
150
330
1F
100
AcDbEntity
  8
LAY-10
  6
CONTINUOUS
 62
     7
100
AcDbLine
 10
1069.000000000007
 20
750.4999999999499
 30
0.0
 11
1069.000000000007
 21
755.9999999999618
 31
0.0
  0
LINE
  5
151
330
1F
100
AcDbEntity
  8
LAY-10
  6
CONTINUOUS
 62
     7
100
AcDbLine
 10
1071.000000000007
 20
721.49999999995
 30
0.0
 11
1071.000000000007
 21
715.9999999999536
 31
0.0
  0
LINE
  5
152
330
1F
100
AcDbEntity
  8
LAY-10
  6
CONTINUOUS
 62
     7
100
AcDbLine
 10
1069.000000000007
 20
721.49999999995
 30
0.0
 11
1069.000000000007
 21
715.9999999999536
 31
0.0
  0
LINE
  5
153
330
1F
100
AcDbEntity
  8
LAY-10
  6
CONTINUOUS
 62
     7
100
AcDbLine
 10
270.500000000038
 20
300.000000000089
 30
0.0
 11
279.5000000000382
 21
300.000000000089
 31
0.0
  0
CIRCLE
  5
154
330
1F
100
AcDbEntity
  8
LAY-10
  6
CONTINUOUS
 62
     7
100
AcDbCircle
 10
275.0000000000452
 20
340.4999999999678
 30
0.0
 40
4.5
  0
LINE
  5
155
330
1F
100
AcDbEntity
  8
LAY-10
  6
CONTINUOUS
 62
     7
100
AcDbLine
 10
279.5000000000382
 20
340.4999999999678
 30
0.0
 11
279.5000000000382
 21
300.000000000089
 31
0.0
  0
LINE
  5
156
330
1F
100
AcDbEntity
  8
LAY-10
  6
CONTINUOUS
 62
     7
100
AcDbLine
 10
270.5000000000362
 20
340.4999999999678
 30
0.0
 11
270.5000000000362
 21
300.000000000089
 31
0.0
  0
LINE
  5
157
330
1F
100
AcDbEntity
  8
LAY-10
  6
CONTINUOUS
 62
     7
100
AcDbLine
 10
679.5000000000391
 20
300.000000000089
 30
0.0
 11
670.500000000039
 21
300.000000000089
 31
0.0
  0
LINE
  5
158
330
1F
100
AcDbEntity
  8
LAY-10
  6
CONTINUOUS
 62
     7
100
AcDbLine
 10
670.500000000039
 20
340.4999999999678
 30
0.0
 11
670.500000000039
 21
300.000000000089
 31
0.0
  0
LINE
  5
159
330
1F
100
AcDbEntity
  8
LAY-10
  6
CONTINUOUS
 62
     7
100
AcDbLine
 10
679.5000000000408
 20
340.4999999999678
 30
0.0
 11
679.5000000000408
 21
300.000000000089
 31
0.0
  0
CIRCLE
  5
15A
330
1F
100
AcDbEntity
  8
LAY-10
  6
CONTINUOUS
 62
     7
100
AcDbCircle
 10
675.0000000000316
 20
340.4999999999678
 30
0.0
 40
4.5
  0
LINE
  5
15B
330
1F
100
AcDbEntity
  8
LAY-10
  6
CONTINUOUS
 62
     7
100
AcDbLine
 10
204.4999999999964
 20
474.9999999999865
 30
0.0
 11
204.4999999999964
 21
353.999999999986
 31
0.0
  0
LINE
  5
15C
330
1F
100
AcDbEntity
  8
LAY-10
  6
CONTINUOUS
 62
     7
100
AcDbLine
 10
199.9999999999962
 20
474.9999999999865
 30
0.0
 11
199.9999999999962
 21
353.999999999986
 31
0.0
  0
LINE
  5
15D
330
1F
100
AcDbEntity
  8
LAY-10
  6
CONTINUOUS
 62
     7
100
AcDbLine
 10
745.4999999999957
 20
353.999999999986
 30
0.0
 11
745.4999999999957
 21
474.9999999999865
 31
0.0
  0
LINE
  5
15E
330
1F
100
AcDbEntity
  8
LAY-10
  6
CONTINUOUS
 62
     7
100
AcDbLine
 10
749.9999999999956
 20
474.9999999999865
 30
0.0
 11
749.9999999999956
 21
353.999999999986
 31
0.0
  0
LINE
  5
15F
330
1F
100
AcDbEntity
  8
LAY-10
  6
CONTINUOUS
 62
     7
100
AcDbLine
 10
1138.000000000043
 20
674.9999999999735
 30
0.0
 11
1175.000000000045
 21
674.9999999999735
 31
0.0
  0
LINE
  5
160
330
1F
100
AcDbEntity
  8
LAY-10
  6
CONTINUOUS
 62
     7
100
AcDbLine
 10
1175.000000000045
 20
682.9999999999735
 30
0.0
 11
1138.000000000043
 21
682.9999999999735
 31
0.0
  0
LINE
  5
161
330
1F
100
AcDbEntity
  8
LAY-10
  6
CONTINUOUS
 62
     7
100
AcDbLine
 10
1175.000000000045
 20
682.9999999999735
 30
0.0
 11
1175.000000000045
 21
674.9999999999735
 31
0.0
  0
LINE
  5
162
330
1F
100
AcDbEntity
  8
LAY-10
  6
CONTINUOUS
 62
     7
100
AcDbLine
 10
1138.000000000045
 20
1225.000000000003
 30
0.0
 11
1175.000000000046
 21
1225.000000000003
 31
0.0
  0
LINE
  5
163
330
1F
100
AcDbEntity
  8
LAY-10
  6
CONTINUOUS
 62
     7
100
AcDbLine
 10
1175.000000000046
 20
1217.000000000003
 30
0.0
 11
1138.000000000045
 21
1217.000000000003
 31
0.0
  0
LINE
  5
164
330
1F
100
AcDbEntity
  8
LAY-10
  6
CONTINUOUS
 62
     7
100
AcDbLine
 10
1175.000000000046
 20
1217.000000000003
 30
0.0
 11
1175.000000000046
 21
1225.000000000003
 31
0.0
  0
LINE
  5
165
330
1F
100
AcDbEntity
  8
LAY-10
  6
CONTINUOUS
 62
     7
100
AcDbLine
 10
1000.000000000002
 20
674.9999999999917
 30
0.0
 11
1121.000000000003
 21
674.9999999999917
 31
0.0
  0
LINE
  5
166
330
1F
100
AcDbEntity
  8
LAY-10
  6
CONTINUOUS
 62
     7
100
AcDbLine
 10
1000.000000000002
 20
679.4999999999916
 30
0.0
 11
1121.000000000003
 21
679.4999999999916
 31
0.0
  0
POLYLINE
  5
167
330
1F
100
AcDbEntity
  8
LAY-10
  6
CONTINUOUS
 62
     7
100
AcDb2dPolyline
 66
     1
 10
0.0
 20
0.0
 30
0.0
 70
   128
  0
VERTEX
  5
168
330
167
100
AcDbEntity
  8
LAY-10
  6
CONTINUOUS
 62
     7
100
AcDbVertex
100
AcDb2dVertex
 10
1083.5
 20
690.5000000000337
 30
0.0
  0
VERTEX
  5
169
330
167
100
AcDbEntity
  8
LAY-10
  6
CONTINUOUS
 62
     7
100
AcDbVertex
100
AcDb2dVertex
 10
1123.5
 20
690.5000000000337
 30
0.0
  0
SEQEND
  5
16A
330
167
100
AcDbEntity
  8
LAY-10
  6
CONTINUOUS
 62
     7
  0
LINE
  5
16B
330
1F
100
AcDbEntity
  8
LAY-10
  6
CONTINUOUS
 62
     7
100
AcDbLine
 10
1000.000000000004
 20
1224.999999999991
 30
0.0
 11
1121.000000000004
 21
1224.999999999991
 31
0.0
  0
LINE
  5
16C
330
1F
100
AcDbEntity
  8
LAY-10
  6
CONTINUOUS
 62
     7
100
AcDbLine
 10
1121.000000000004
 20
1220.499999999991
 30
0.0
 11
1000.000000000004
 21
1220.499999999991
 31
0.0
  0
POLYLINE
  5
16D
330
1F
100
AcDbEntity
  8
LAY-10
  6
CONTINUOUS
 62
     7
100
AcDb2dPolyline
 66
     1
 10
0.0
 20
0.0
 30
0.0
 70
   128
  0
VERTEX
  5
16E
330
16D
100
AcDbEntity
  8
LAY-10
  6
CONTINUOUS
 62
     7
100
AcDbVertex
100
AcDb2dVertex
 10
1123.5
 20
1209.500000000133
 30
0.0
  0
VERTEX
  5
16F
330
16D
100
AcDbEntity
  8
LAY-10
  6
CONTINUOUS
 62
     7
100
AcDbVertex
100
AcDb2dVertex
 10
1083.5
 20
1209.500000000133
 30
0.0
  0
SEQEND
  5
170
330
16D
100
AcDbEntity
  8
LAY-10
  6
CONTINUOUS
 62
     7
  0
ARC
  5
171
330
1F
100
AcDbEntity
  8
LAY-10
  6
CONTINUOUS
 62
     7
100
AcDbCircle
 10
219.1999999999948
 20
387.3000000001153
 30
0.0
 40
1.0
100
AcDbArc
 50
90.00000000000001
 51
180.0
  0
LINE
  5
172
330
1F
100
AcDbEntity
  8
LAY-10
  6
CONTINUOUS
 62
     7
100
AcDbLine
 10
250.7999999999947
 20
388.3000000001152
 30
0.0
 11
219.1999999999948
 21
388.3000000001152
 31
0.0
  0
ARC
  5
173
330
1F
100
AcDbEntity
  8
LAY-10
  6
CONTINUOUS
 62
     7
100
AcDbCircle
 10
250.7999999999947
 20
387.3000000001153
 30
0.0
 40
1.0
100
AcDbArc
 50
0.0
 51
90.00000000000001
  0
LINE
  5
174
330
1F
100
AcDbEntity
  8
LAY-10
  6
CONTINUOUS
 62
     7
100
AcDbLine
 10
251.7999999999947
 20
387.300000000115
 30
0.0
 11
251.7999999999947
 21
355.7000000001151
 31
0.0
  0
LINE
  5
175
330
1F
100
AcDbEntity
  8
LAY-10
  6
CONTINUOUS
 62
     7
100
AcDbLine
 10
218.1999999999948
 20
387.300000000115
 30
0.0
 11
218.1999999999948
 21
355.7000000001151
 31
0.0
  0
ARC
  5
176
330
1F
100
AcDbEntity
  8
LAY-10
  6
CONTINUOUS
 62
     7
100
AcDbCircle
 10
218.9999999999948
 20
387.5000000001151
 30
0.0
 40
4.0
100
AcDbArc
 50
90.00000000000001
 51
180.0
  0
ARC
  5
177
330
1F
100
AcDbEntity
  8
LAY-10
  6
CONTINUOUS
 62
     7
100
AcDbCircle
 10
250.9999999999948
 20
387.5000000001151
 30
0.0
 40
4.0
100
AcDbArc
 50
0.0
 51
90.00000000000001
  0
LINE
  5
178
330
1F
100
AcDbEntity
  8
LAY-10
  6
CONTINUOUS
 62
     7
100
AcDbLine
 10
214.9999999999948
 20
387.5000000001151
 30
0.0
 11
214.9999999999948
 21
355.5000000001151
 31
0.0
  0
LINE
  5
179
330
1F
100
AcDbEntity
  8
LAY-10
  6
CONTINUOUS
 62
     7
100
AcDbLine
 10
254.9999999999948
 20
387.5000000001151
 30
0.0
 11
254.9999999999948
 21
355.5000000001151
 31
0.0
  0
ARC
  5
17A
330
1F
100
AcDbEntity
  8
LAY-10
  6
CONTINUOUS
 62
     7
100
AcDbCircle
 10
379.1999999999948
 20
387.3000000001153
 30
0.0
 40
1.0
100
AcDbArc
 50
90.00000000000001
 51
180.0
  0
LINE
  5
17B
330
1F
100
AcDbEntity
  8
LAY-10
  6
CONTINUOUS
 62
     7
100
AcDbLine
 10
410.7999999999948
 20
388.3000000001152
 30
0.0
 11
379.1999999999948
 21
388.3000000001152
 31
0.0
  0
ARC
  5
17C
330
1F
100
AcDbEntity
  8
LAY-10
  6
CONTINUOUS
 62
     7
100
AcDbCircle
 10
410.7999999999948
 20
387.3000000001153
 30
0.0
 40
1.0
100
AcDbArc
 50
0.0
 51
90.00000000000001
  0
LINE
  5
17D
330
1F
100
AcDbEntity
  8
LAY-10
  6
CONTINUOUS
 62
     7
100
AcDbLine
 10
411.7999999999948
 20
387.300000000115
 30
0.0
 11
411.7999999999948
 21
355.7000000001151
 31
0.0
  0
LINE
  5
17E
330
1F
100
AcDbEntity
  8
LAY-10
  6
CONTINUOUS
 62
     7
100
AcDbLine
 10
378.1999999999948
 20
387.300000000115
 30
0.0
 11
378.1999999999948
 21
355.7000000001151
 31
0.0
  0
ARC
  5
17F
330
1F
100
AcDbEntity
  8
LAY-10
  6
CONTINUOUS
 62
     7
100
AcDbCircle
 10
378.9999999999948
 20
387.5000000001151
 30
0.0
 40
4.0
100
AcDbArc
 50
90.00000000000001
 51
180.0
  0
ARC
  5
180
330
1F
100
AcDbEntity
  8
LAY-10
  6
CONTINUOUS
 62
     7
100
AcDbCircle
 10
410.9999999999949
 20
387.5000000001151
 30
0.0
 40
4.0
100
AcDbArc
 50
0.0
 51
90.00000000000001
  0
LINE
  5
181
330
1F
100
AcDbEntity
  8
LAY-10
  6
CONTINUOUS
 62
     7
100
AcDbLine
 10
374.9999999999948
 20
387.5000000001151
 30
0.0
 11
374.9999999999948
 21
355.5000000001151
 31
0.0
  0
LINE
  5
182
330
1F
100
AcDbEntity
  8
LAY-10
  6
CONTINUOUS
 62
     7
100
AcDbLine
 10
414.9999999999949
 20
387.5000000001151
 30
0.0
 11
414.9999999999949
 21
355.5000000001151
 31
0.0
  0
ARC
  5
183
330
1F
100
AcDbEntity
  8
LAY-10
  6
CONTINUOUS
 62
     7
100
AcDbCircle
 10
539.2000000000049
 20
387.3000000001153
 30
0.0
 40
1.0
100
AcDbArc
 50
90.00000000000001
 51
180.0
  0
LINE
  5
184
330
1F
100
AcDbEntity
  8
LAY-10
  6
CONTINUOUS
 62
     7
100
AcDbLine
 10
570.8000000000048
 20
388.3000000001152
 30
0.0
 11
539.2000000000049
 21
388.3000000001152
 31
0.0
  0
ARC
  5
185
330
1F
100
AcDbEntity
  8
LAY-10
  6
CONTINUOUS
 62
     7
100
AcDbCircle
 10
570.8000000000048
 20
387.3000000001153
 30
0.0
 40
1.0
100
AcDbArc
 50
0.0
 51
90.00000000000001
  0
LINE
  5
186
330
1F
100
AcDbEntity
  8
LAY-10
  6
CONTINUOUS
 62
     7
100
AcDbLine
 10
571.8000000000048
 20
387.300000000115
 30
0.0
 11
571.8000000000048
 21
355.7000000001151
 31
0.0
  0
LINE
  5
187
330
1F
100
AcDbEntity
  8
LAY-10
  6
CONTINUOUS
 62
     7
100
AcDbLine
 10
538.2000000000049
 20
387.300000000115
 30
0.0
 11
538.2000000000049
 21
355.7000000001151
 31
0.0
  0
ARC
  5
188
330
1F
100
AcDbEntity
  8
LAY-10
  6
CONTINUOUS
 62
     7
100
AcDbCircle
 10
539.0000000000049
 20
387.5000000001151
 30
0.0
 40
4.0
100
AcDbArc
 50
90.00000000000001
 51
180.0
  0
ARC
  5
189
330
1F
100
AcDbEntity
  8
LAY-10
  6
CONTINUOUS
 62
     7
100
AcDbCircle
 10
571.0000000000049
 20
387.5000000001151
 30
0.0
 40
4.0
100
AcDbArc
 50
0.0
 51
90.00000000000001
  0
LINE
  5
18A
330
1F
100
AcDbEntity
  8
LAY-10
  6
CONTINUOUS
 62
     7
100
AcDbLine
 10
535.0000000000049
 20
387.5000000001151
 30
0.0
 11
535.0000000000049
 21
355.5000000001151
 31
0.0
  0
LINE
  5
18B
330
1F
100
AcDbEntity
  8
LAY-10
  6
CONTINUOUS
 62
     7
100
AcDbLine
 10
575.0000000000049
 20
387.5000000001151
 30
0.0
 11
575.0000000000049
 21
355.5000000001151
 31
0.0
  0
ARC
  5
18C
330
1F
100
AcDbEntity
  8
LAY-10
  6
CONTINUOUS
 62
     7
100
AcDbCircle
 10
699.2000000000049
 20
387.3000000001153
 30
0.0
 40
1.0
100
AcDbArc
 50
90.00000000000001
 51
180.0
  0
LINE
  5
18D
330
1F
100
AcDbEntity
  8
LAY-10
  6
CONTINUOUS
 62
     7
100
AcDbLine
 10
730.8000000000047
 20
388.3000000001152
 30
0.0
 11
699.2000000000049
 21
388.3000000001152
 31
0.0
  0
ARC
  5
18E
330
1F
100
AcDbEntity
  8
LAY-10
  6
CONTINUOUS
 62
     7
100
AcDbCircle
 10
730.8000000000047
 20
387.3000000001153
 30
0.0
 40
1.0
100
AcDbArc
 50
0.0
 51
90.00000000000001
  0
LINE
  5
18F
330
1F
100
AcDbEntity
  8
LAY-10
  6
CONTINUOUS
 62
     7
100
AcDbLine
 10
731.8000000000048
 20
387.300000000115
 30
0.0
 11
731.8000000000048
 21
355.7000000001151
 31
0.0
  0
LINE
  5
190
330
1F
100
AcDbEntity
  8
LAY-10
  6
CONTINUOUS
 62
     7
100
AcDbLine
 10
698.2000000000048
 20
387.300000000115
 30
0.0
 11
698.2000000000048
 21
355.7000000001151
 31
0.0
  0
ARC
  5
191
330
1F
100
AcDbEntity
  8
LAY-10
  6
CONTINUOUS
 62
     7
100
AcDbCircle
 10
699.0000000000049
 20
387.5000000001151
 30
0.0
 40
4.0
100
AcDbArc
 50
90.00000000000001
 51
180.0
  0
ARC
  5
192
330
1F
100
AcDbEntity
  8
LAY-10
  6
CONTINUOUS
 62
     7
100
AcDbCircle
 10
731.0000000000049
 20
387.5000000001151
 30
0.0
 40
4.0
100
AcDbArc
 50
0.0
 51
90.00000000000001
  0
LINE
  5
193
330
1F
100
AcDbEntity
  8
LAY-10
  6
CONTINUOUS
 62
     7
100
AcDbLine
 10
695.0000000000049
 20
387.5000000001151
 30
0.0
 11
695.0000000000049
 21
355.5000000001151
 31
0.0
  0
LINE
  5
194
330
1F
100
AcDbEntity
  8
LAY-10
  6
CONTINUOUS
 62
     7
100
AcDbLine
 10
735.0000000000049
 20
387.5000000001151
 30
0.0
 11
735.0000000000049
 21
355.5000000001151
 31
0.0
  0
LINE
  5
195
330
1F
100
AcDbEntity
  8
LAY-10
  6
CONTINUOUS
 62
     7
100
AcDbLine
 10
734.5
 20
391.49999999997
 30
0.0
 11
215.5
 21
391.49999999997
 31
0.0
  0
LINE
  5
196
330
1F
100
AcDbEntity
  8
LAY-10
  6
CONTINUOUS
 62
     7
100
AcDbLine
 10
204.500000000003
 20
1220.499999999991
 30
0.0
 11
204.5000000000032
 21
679.4999999999916
 31
0.0
  0
LINE
  5
197
330
1F
100
AcDbEntity
  8
LAY-10
  6
CONTINUOUS
 62
     7
100
AcDbLine
 10
200.000000000003
 20
674.9999999999917
 30
0.0
 11
200.000000000003
 21
1224.999999999991
 31
0.0
  0
LINE
  5
198
330
1F
100
AcDbEntity
  8
LAY-10
  6
CONTINUOUS
 62
     7
100
AcDbLine
 10
745.500000000003
 20
679.4999999999916
 30
0.0
 11
745.5000000000036
 21
1220.499999999991
 31
0.0
  0
LINE
  5
199
330
1F
100
AcDbEntity
  8
LAY-10
  6
CONTINUOUS
 62
     7
100
AcDbLine
 10
750.000000000003
 20
674.9999999999917
 30
0.0
 11
750.0000000000034
 21
1224.999999999991
 31
0.0
  0
LINE
  5
19A
330
1F
100
AcDbEntity
  8
LAY-10
  6
CONTINUOUS
 62
     7
100
AcDbLine
 10
206.5000000000032
 20
1218.499999999991
 30
0.0
 11
206.5000000000032
 21
681.4999999999918
 31
0.0
  0
LINE
  5
19B
330
1F
100
AcDbEntity
  8
LAY-10
  6
CONTINUOUS
 62
     7
100
AcDbLine
 10
743.5000000000026
 20
681.4999999999918
 30
0.0
 11
743.5000000000034
 21
1218.499999999991
 31
0.0
  0
LINE
  5
19C
330
1F
100
AcDbEntity
  8
LAY-10
  6
CONTINUOUS
 62
     7
100
AcDbLine
 10
1079.000000000017
 20
690.4999999999618
 30
0.0
 11
1079.000000000018
 21
1209.500000000061
 31
0.0
  0
LINE
  5
19D
330
1F
100
AcDbEntity
  8
LAY-10
  6
CONTINUOUS
 62
     7
100
AcDbLine
 10
1083.500000000017
 20
690.4999999999618
 30
0.0
 11
1083.500000000018
 21
1209.500000000061
 31
0.0
  0
LINE
  5
19E
330
1F
100
AcDbEntity
  8
LAY-10
  6
CONTINUOUS
 62
     7
100
AcDbLine
 10
1069.000000000007
 20
1115.499999999982
 30
0.0
 11
1071.000000000007
 21
1115.499999999982
 31
0.0
  0
LINE
  5
19F
330
1F
100
AcDbEntity
  8
LAY-10
  6
CONTINUOUS
 62
     7
100
AcDbLine
 10
1069.000000000007
 20
1075.499999999973
 30
0.0
 11
1071.000000000007
 21
1075.499999999973
 31
0.0
  0
ARC
  5
1A0
330
1F
100
AcDbEntity
  8
LAY-10
  6
CONTINUOUS
 62
     7
100
AcDbCircle
 10
1077.0
 20
1108.00000000001
 30
0.0
 40
2.0
100
AcDbArc
 50
0.0000000000001719
 51
90.00000000000001
  0
ARC
  5
1A1
330
1F
100
AcDbEntity
  8
LAY-10
  6
CONTINUOUS
 62
     7
100
AcDbCircle
 10
1077.0
 20
1082.999999999976
 30
0.0
 40
2.0
100
AcDbArc
 50
270.0
 51
0.0000000000001719
  0
LINE
  5
1A2
330
1F
100
AcDbEntity
  8
LAY-10
  6
CONTINUOUS
 62
     7
100
AcDbLine
 10
1077.0
 20
1107.999999999995
 30
0.0
 11
1077.0
 21
1082.999999999995
 31
0.0
  0
LINE
  5
1A3
330
1F
100
AcDbEntity
  8
LAY-10
  6
CONTINUOUS
 62
     7
100
AcDbLine
 10
1071.0
 20
1110.00000000001
 30
0.0
 11
1077.0
 21
1110.00000000001
 31
0.0
  0
LINE
  5
1A4
330
1F
100
AcDbEntity
  8
LAY-10
  6
CONTINUOUS
 62
     7
100
AcDbLine
 10
1071.0
 20
1107.999999999995
 30
0.0
 11
1077.0
 21
1107.999999999995
 31
0.0
  0
ARC
  5
1A5
330
1F
100
AcDbEntity
  8
LAY-10
  6
CONTINUOUS
 62
     7
100
AcDbCircle
 10
1071.0
 20
1109.999999999995
 30
0.0
 40
2.0
100
AcDbArc
 50
180.0
 51
270.0
  0
LINE
  5
1A6
330
1F
100
AcDbEntity
  8
LAY-10
  6
CONTINUOUS
 62
     7
100
AcDbLine
 10
1071.0
 20
1080.999999999977
 30
0.0
 11
1077.0
 21
1080.999999999977
 31
0.0
  0
LINE
  5
1A7
330
1F
100
AcDbEntity
  8
LAY-10
  6
CONTINUOUS
 62
     7
100
AcDbLine
 10
1071.0
 20
1082.99999999999
 30
0.0
 11
1077.0
 21
1082.99999999999
 31
0.0
  0
ARC
  5
1A8
330
1F
100
AcDbEntity
  8
LAY-10
  6
CONTINUOUS
 62
     7
100
AcDbCircle
 10
1071.0
 20
1080.999999999992
 30
0.0
 40
2.0
100
AcDbArc
 50
90.00000000000001
 51
180.0
  0
LINE
  5
1A9
330
1F
100
AcDbEntity
  8
LAY-10
  6
CONTINUOUS
 62
     7
100
AcDbLine
 10
1071.000000000007
 20
1109.99999999997
 30
0.0
 11
1071.000000000007
 21
1115.499999999982
 31
0.0
  0
LINE
  5
1AA
330
1F
100
AcDbEntity
  8
LAY-10
  6
CONTINUOUS
 62
     7
100
AcDbLine
 10
1069.000000000007
 20
1109.99999999997
 30
0.0
 11
1069.000000000007
 21
1115.499999999982
 31
0.0
  0
LINE
  5
1AB
330
1F
100
AcDbEntity
  8
LAY-10
  6
CONTINUOUS
 62
     7
100
AcDbLine
 10
1071.000000000007
 20
1080.99999999997
 30
0.0
 11
1071.000000000007
 21
1075.499999999974
 31
0.0
  0
LINE
  5
1AC
330
1F
100
AcDbEntity
  8
LAY-10
  6
CONTINUOUS
 62
     7
100
AcDbLine
 10
1069.000000000007
 20
1080.99999999997
 30
0.0
 11
1069.000000000007
 21
1075.499999999974
 31
0.0
  0
LINE
  5
1AD
330
1F
100
AcDbEntity
  8
LAY-10
  6
CONTINUOUS
 62
     7
100
AcDbLine
 10
1000.000000000002
 20
681.4999999999618
 30
0.0
 11
1000.000000000002
 21
1149.997416355475
 31
0.0
  0
LINE
  5
1AE
330
1F
100
AcDbEntity
  8
LAY-10
  6
CONTINUOUS
 62
     7
100
AcDbLine
 10
1000.000000000002
 20
1220.499999999991
 30
0.0
 11
1000.000000000002
 21
1224.99999999999
 31
0.0
  0
LINE
  5
1AF
330
1F
100
AcDbEntity
  8
LAY-10
  6
CONTINUOUS
 62
     7
100
AcDbLine
 10
1030.000000000018
 20
1197.000000000039
 30
0.0
 11
1061.981501724723
 21
1197.000000000039
 31
0.0
  0
LINE
  5
1B0
330
1F
100
AcDbEntity
  8
LAY-10
  6
CONTINUOUS
 62
     7
100
AcDbLine
 10
1030.000000000017
 20
1196.99999999996
 30
0.0
 11
1029.000000000017
 21
1197.99999999996
 31
0.0
  0
LINE
  5
1B1
330
1F
100
AcDbEntity
  8
LAY-10
  6
CONTINUOUS
 62
     7
100
AcDbLine
 10
1029.000000000017
 20
1208.99999999996
 30
0.0
 11
1061.970679488375
 21
1208.99999999996
 31
0.0
  0
LINE
  5
1B2
330
1F
100
AcDbEntity
  8
LAY-10
  6
CONTINUOUS
 62
     7
100
AcDbLine
 10
1061.981501724755
 20
1196.999999999962
 30
0.0
 11
1063.000000000017
 21
1198.018498275224
 31
0.0
  0
LINE
  5
1B3
330
1F
100
AcDbEntity
  8
LAY-10
  6
CONTINUOUS
 62
     7
100
AcDbLine
 10
1063.000000000017
 20
1207.970679488318
 30
0.0
 11
1063.000000000017
 21
1198.018498275224
 31
0.0
  0
LINE
  5
1B4
330
1F
100
AcDbEntity
  8
LAY-10
  6
CONTINUOUS
 62
     7
100
AcDbLine
 10
1063.000000000016
 20
1207.970679488319
 30
0.0
 11
1061.970679488375
 21
1208.99999999996
 31
0.0
  0
LINE
  5
1B5
330
1F
100
AcDbEntity
  8
LAY-10
  6
CONTINUOUS
 62
     7
100
AcDbLine
 10
1044.000000000017
 20
1177.000000000039
 30
0.0
 11
1044.000000000017
 21
1193.999999999999
 31
0.0
  0
LINE
  5
1B6
330
1F
100
AcDbEntity
  8
LAY-10
  6
CONTINUOUS
 62
     7
100
AcDbLine
 10
1042.000000000017
 20
1177.000000000039
 30
0.0
 11
1042.000000000017
 21
1194.000000000039
 31
0.0
  0
ARC
  5
1B7
330
1F
100
AcDbEntity
  8
LAY-10
  6
CONTINUOUS
 62
     7
100
AcDbCircle
 10
1068.200000000023
 20
1185.500000000042
 30
0.0
 40
4.5
100
AcDbArc
 50
291.7867892982638
 51
68.21321070173653
  0
LINE
  5
1B8
330
1F
100
AcDbEntity
  8
LAY-10
  6
CONTINUOUS
 62
     7
100
AcDbLine
 10
1063.200000000023
 20
1182.636751345992
 30
0.0
 11
1067.828000000022
 21
1182.636751345992
 31
0.0
  0
ARC
  5
1B9
330
1F
100
AcDbEntity
  8
LAY-10
  6
CONTINUOUS
 62
     7
100
AcDbCircle
 10
1066.292904428925
 20
1181.193375673017
 30
0.0
 40
2.107095571097882
100
AcDbArc
 50
316.763825277331
 51
43.23617472266933
  0
LINE
  5
1BA
330
1F
100
AcDbEntity
  8
LAY-10
  6
CONTINUOUS
 62
     7
100
AcDbLine
 10
1063.200000000023
 20
1179.750000000042
 30
0.0
 11
1067.828000000022
 21
1179.750000000042
 31
0.0
  0
LINE
  5
1BB
330
1F
100
AcDbEntity
  8
LAY-10
  6
CONTINUOUS
 62
     7
100
AcDbLine
 10
1063.200000000023
 20
1188.363248654092
 30
0.0
 11
1067.828000000022
 21
1188.363248654092
 31
0.0
  0
ARC
  5
1BC
330
1F
100
AcDbEntity
  8
LAY-10
  6
CONTINUOUS
 62
     7
100
AcDbCircle
 10
1060.947747504464
 20
1185.500000000042
 30
0.0
 40
7.4522524955587
100
AcDbArc
 50
337.4051392327526
 51
22.59486076724778
  0
LINE
  5
1BD
330
1F
100
AcDbEntity
  8
LAY-10
  6
CONTINUOUS
 62
     7
100
AcDbLine
 10
1063.200000000023
 20
1191.250000000042
 30
0.0
 11
1067.828000000022
 21
1191.250000000042
 31
0.0
  0
ARC
  5
1BE
330
1F
100
AcDbEntity
  8
LAY-10
  6
CONTINUOUS
 62
     7
100
AcDbCircle
 10
1068.862022045822
 20
1190.250000000042
 30
0.0
 40
0.5
100
AcDbArc
 50
189.7915975264292
 51
270.0000000000002
  0
LINE
  5
1BF
330
1F
100
AcDbEntity
  8
LAY-10
  6
CONTINUOUS
 62
     7
100
AcDbLine
 10
1068.400000000022
 20
1189.750000000042
 30
0.0
 11
1068.399239025167
 21
1189.750000000042
 31
0.0
  0
ARC
  5
1C0
330
1F
100
AcDbEntity
  8
LAY-10
  6
CONTINUOUS
 62
     7
100
AcDbCircle
 10
1068.862022045822
 20
1180.750000000042
 30
0.0
 40
0.5
100
AcDbArc
 50
90.00000000000026
 51
170.2084024735711
  0
LINE
  5
1C1
330
1F
100
AcDbEntity
  8
LAY-10
  6
CONTINUOUS
 62
     7
100
AcDbLine
 10
1068.400000000022
 20
1181.250000000042
 30
0.0
 11
1068.399239025167
 21
1181.250000000042
 31
0.0
  0
ARC
  5
1C2
330
1F
100
AcDbEntity
  8
LAY-10
  6
CONTINUOUS
 62
     7
100
AcDbCircle
 10
1066.292904428925
 20
1189.806624327067
 30
0.0
 40
2.107095571097882
100
AcDbArc
 50
316.763825277331
 51
43.23617472266933
  0
LINE
  5
1C3
330
1F
100
AcDbEntity
  8
LAY-10
  6
CONTINUOUS
 62
     7
100
AcDbLine
 10
1069.499038105699
 20
1181.250000000042
 30
0.0
 11
1068.862022045822
 21
1181.250000000042
 31
0.0
  0
ARC
  5
1C4
330
1F
100
AcDbEntity
  8
LAY-10
  6
CONTINUOUS
 62
     7
100
AcDbCircle
 10
1069.499038105699
 20
1182.250000000042
 30
0.0
 40
1.0
100
AcDbArc
 50
270.0000000000002
 51
291.7867892982636
  0
LINE
  5
1C5
330
1F
100
AcDbEntity
  8
LAY-10
  6
CONTINUOUS
 62
     7
100
AcDbLine
 10
1069.499038105699
 20
1189.750000000042
 30
0.0
 11
1068.862022045822
 21
1189.750000000042
 31
0.0
  0
ARC
  5
1C6
330
1F
100
AcDbEntity
  8
LAY-10
  6
CONTINUOUS
 62
     7
100
AcDbCircle
 10
1069.499038105699
 20
1188.750000000042
 30
0.0
 40
1.0
100
AcDbArc
 50
68.21321070173653
 51
90.00000000000026
  0
POLYLINE
  5
1C7
330
1F
100
AcDbEntity
  8
LAY-10
  6
CONTINUOUS
 62
     7
100
AcDb2dPolyline
 66
     1
 10
0.0
 20
0.0
 30
0.0
 70
   128
  0
VERTEX
  5
1C8
330
1C7
100
AcDbEntity
  8
LAY-10
  6
CONTINUOUS
 62
     7
100
AcDbVertex
100
AcDb2dVertex
 10
1040.000000000067
 20
1190.653882032073
 30
0.0
  0
VERTEX
  5
1C9
330
1C7
100
AcDbEntity
  8
LAY-10
  6
CONTINUOUS
 62
     7
100
AcDbVertex
100
AcDb2dVertex
 10
1040.000000000067
 20
1195.000000000039
 30
0.0
  0
SEQEND
  5
1CA
330
1C7
100
AcDbEntity
  8
LAY-10
  6
CONTINUOUS
 62
     7
  0
LINE
  5
1CB
330
1F
100
AcDbEntity
  8
LAY-10
  6
CONTINUOUS
 62
     7
100
AcDbLine
 10
1061.981501724755
 20
1174.000000000037
 30
0.0
 11
1063.000000000017
 21
1172.981501724774
 31
0.0
  0
LINE
  5
1CC
330
1F
100
AcDbEntity
  8
LAY-10
  6
CONTINUOUS
 62
     7
100
AcDbLine
 10
1063.000000000017
 20
1163.029320511681
 30
0.0
 11
1063.000000000017
 21
1172.981501724774
 31
0.0
  0
LINE
  5
1CD
330
1F
100
AcDbEntity
  8
LAY-10
  6
CONTINUOUS
 62
     7
100
AcDbLine
 10
1063.000000000016
 20
1163.02932051168
 30
0.0
 11
1061.970679488375
 21
1162.000000000039
 31
0.0
  0
LINE
  5
1CE
330
1F
100
AcDbEntity
  8
LAY-10
  6
CONTINUOUS
 62
     7
100
AcDbLine
 10
1030.000000000017
 20
1174.000000000039
 30
0.0
 11
1029.000000000017
 21
1173.000000000039
 31
0.0
  0
LINE
  5
1CF
330
1F
100
AcDbEntity
  8
LAY-10
  6
CONTINUOUS
 62
     7
100
AcDbLine
 10
1029.000000000017
 20
1210.500000000038
 30
0.0
 11
1029.000000000017
 21
1199.000000000039
 31
0.0
  0
LINE
  5
1D0
330
1F
100
AcDbEntity
  8
LAY-10
  6
CONTINUOUS
 62
     7
100
AcDbLine
 10
1029.000000000017
 20
1210.500000000038
 30
0.0
 11
1027.000000000017
 21
1210.500000000038
 31
0.0
  0
LINE
  5
1D1
330
1F
100
AcDbEntity
  8
LAY-10
  6
CONTINUOUS
 62
     7
100
AcDbLine
 10
1029.000000000017
 20
1160.500000000042
 30
0.0
 11
1029.000000000017
 21
1172.000000000039
 31
0.0
  0
LINE
  5
1D2
330
1F
100
AcDbEntity
  8
LAY-10
  6
CONTINUOUS
 62
     7
100
AcDbLine
 10
1029.000000000017
 20
1160.500000000038
 30
0.0
 11
1027.000000000017
 21
1160.500000000038
 31
0.0
  0
LINE
  5
1D3
330
1F
100
AcDbEntity
  8
LAY-10
  6
CONTINUOUS
 62
     7
100
AcDbLine
 10
1029.000000000017
 20
1198.000000000039
 30
0.0
 11
1029.000000000017
 21
1208.000000000039
 31
0.0
  0
ARC
  5
1D4
330
1F
100
AcDbEntity
  8
LAY-10
  6
CONTINUOUS
 62
     7
100
AcDbCircle
 10
1041.000000000017
 20
1194.000000000039
 30
0.0
 40
3.000000000000001
100
AcDbArc
 50
0.0
 51
90.00000000000001
  0
ARC
  5
1D5
330
1F
100
AcDbEntity
  8
LAY-10
  6
CONTINUOUS
 62
     7
100
AcDbCircle
 10
1030.000000000017
 20
1198.000000000039
 30
0.0
 40
3.000000000000001
100
AcDbArc
 50
180.0000000000001
 51
270.0
  0
LINE
  5
1D6
330
1F
100
AcDbEntity
  8
LAY-10
  6
CONTINUOUS
 62
     7
100
AcDbLine
 10
1030.000000000017
 20
1195.000000000039
 30
0.0
 11
1041.000000000017
 21
1195.000000000039
 31
0.0
  0
ARC
  5
1D7
330
1F
100
AcDbEntity
  8
LAY-10
  6
CONTINUOUS
 62
     7
100
AcDbCircle
 10
1030.000000000017
 20
1198.000000000039
 30
0.0
 40
1.0
100
AcDbArc
 50
180.0000000000001
 51
270.0
  0
ARC
  5
1D8
330
1F
100
AcDbEntity
  8
LAY-10
  6
CONTINUOUS
 62
     7
100
AcDbCircle
 10
1041.000000000017
 20
1194.000000000039
 30
0.0
 40
1.0
100
AcDbArc
 50
0.0
 51
90.00000000000001
  0
LINE
  5
1D9
330
1F
100
AcDbEntity
  8
LAY-10
  6
CONTINUOUS
 62
     7
100
AcDbLine
 10
1029.000000000017
 20
1173.000000000039
 30
0.0
 11
1029.000000000017
 21
1163.000000000039
 31
0.0
  0
LINE
  5
1DA
330
1F
100
AcDbEntity
  8
LAY-10
  6
CONTINUOUS
 62
     7
100
AcDbLine
 10
1029.912491872576
 20
1172.000000000039
 30
0.0
 11
1029.000000000017
 21
1172.000000000039
 31
0.0
  0
ARC
  5
1DB
330
1F
100
AcDbEntity
  8
LAY-10
  6
CONTINUOUS
 62
     7
100
AcDbCircle
 10
1041.000000000017
 20
1177.000000000038
 30
0.0
 40
3.000000000000001
100
AcDbArc
 50
270.0000000000006
 51
0.0
  0
ARC
  5
1DC
330
1F
100
AcDbEntity
  8
LAY-10
  6
CONTINUOUS
 62
     7
100
AcDbCircle
 10
1030.000000000017
 20
1173.000000000038
 30
0.0
 40
3.000000000000001
100
AcDbArc
 50
90.00000000000001
 51
180.0000000000006
  0
ARC
  5
1DD
330
1F
100
AcDbEntity
  8
LAY-10
  6
CONTINUOUS
 62
     7
100
AcDbCircle
 10
1030.000000000017
 20
1173.000000000038
 30
0.0
 40
1.0
100
AcDbArc
 50
90.00000000000001
 51
180.0000000000001
  0
ARC
  5
1DE
330
1F
100
AcDbEntity
  8
LAY-10
  6
CONTINUOUS
 62
     7
100
AcDbCircle
 10
1029.912491872576
 20
1170.100000000039
 30
0.0
 40
1.9
100
AcDbArc
 50
17.8743567990519
 51
90.00000000000001
  0
ARC
  5
1DF
330
1F
100
AcDbEntity
  8
LAY-10
  6
CONTINUOUS
 62
     7
100
AcDbCircle
 10
1023.746117180505
 20
1167.588164359474
 30
0.0
 40
8.554199858777181
100
AcDbArc
 50
3.430309015425389
 51
21.21145999021581
  0
LINE
  5
1E0
330
1F
100
AcDbEntity
  8
LAY-10
  6
CONTINUOUS
 62
     7
100
AcDbLine
 10
1027.000000000022
 20
1171.000000000039
 30
0.0
 11
1027.002885682992
 21
1171.000000000039
 31
0.0
  0
ARC
  5
1E1
330
1F
100
AcDbEntity
  8
LAY-10
  6
CONTINUOUS
 62
     7
100
AcDbCircle
 10
1029.912491872576
 20
1164.900000000039
 30
0.0
 40
1.9
100
AcDbArc
 50
270.0
 51
342.1256432009552
  0
ARC
  5
1E2
330
1F
100
AcDbEntity
  8
LAY-10
  6
CONTINUOUS
 62
     7
100
AcDbCircle
 10
1023.746117180503
 20
1167.411835640604
 30
0.0
 40
8.554199858779192
100
AcDbArc
 50
338.7885400097917
 51
356.5696909845707
  0
LINE
  5
1E3
330
1F
100
AcDbEntity
  8
LAY-10
  6
CONTINUOUS
 62
     7
100
AcDbLine
 10
1029.912491872576
 20
1163.000000000039
 30
0.0
 11
1029.000000000017
 21
1163.000000000039
 31
0.0
  0
LINE
  5
1E4
330
1F
100
AcDbEntity
  8
LAY-10
  6
CONTINUOUS
 62
     7
100
AcDbLine
 10
1032.28499061328
 20
1166.900000000039
 30
0.0
 11
1030.700000000017
 21
1166.900000000039
 31
0.0
  0
LINE
  5
1E5
330
1F
100
AcDbEntity
  8
LAY-10
  6
CONTINUOUS
 62
     7
100
AcDbLine
 10
1032.28499061328
 20
1168.100000000039
 30
0.0
 11
1030.700000000017
 21
1168.100000000039
 31
0.0
  0
LINE
  5
1E6
330
1F
100
AcDbEntity
  8
LAY-10
  6
CONTINUOUS
 62
     7
100
AcDbLine
 10
1030.700000000017
 20
1166.900000000039
 30
0.0
 11
1030.700000000017
 21
1168.100000000039
 31
0.0
  0
LINE
  5
1E7
330
1F
100
AcDbEntity
  8
LAY-10
  6
CONTINUOUS
 62
     7
100
AcDbLine
 10
1027.000000000067
 20
1215.500000000014
 30
0.0
 11
1027.000000000067
 21
1155.500000000015
 31
0.0
  0
LINE
  5
1E8
330
1F
100
AcDbEntity
  8
LAY-10
  6
CONTINUOUS
 62
     7
100
AcDbLine
 10
1000.000000000067
 20
1164.500000000014
 30
0.0
 11
1000.000000000067
 21
1161.500000000014
 31
0.0
  0
LINE
  5
1E9
330
1F
100
AcDbEntity
  8
LAY-10
  6
CONTINUOUS
 62
     7
100
AcDbLine
 10
1000.000000000067
 20
1173.500000000014
 30
0.0
 11
1000.000000000067
 21
1170.500000000014
 31
0.0
  0
LINE
  5
1EA
330
1F
100
AcDbEntity
  8
LAY-10
  6
CONTINUOUS
 62
     7
100
AcDbLine
 10
1000.000000000067
 20
1182.500000000014
 30
0.0
 11
1000.000000000067
 21
1179.500000000014
 31
0.0
  0
LINE
  5
1EB
330
1F
100
AcDbEntity
  8
LAY-10
  6
CONTINUOUS
 62
     7
100
AcDbLine
 10
1000.000000000067
 20
1191.500000000014
 30
0.0
 11
1000.000000000067
 21
1188.500000000014
 31
0.0
  0
LINE
  5
1EC
330
1F
100
AcDbEntity
  8
LAY-10
  6
CONTINUOUS
 62
     7
100
AcDbLine
 10
1000.000000000067
 20
1200.500000000014
 30
0.0
 11
1000.000000000067
 21
1197.500000000014
 31
0.0
  0
LINE
  5
1ED
330
1F
100
AcDbEntity
  8
LAY-10
  6
CONTINUOUS
 62
     7
100
AcDbLine
 10
1021.000000000067
 20
1164.500000000014
 30
0.0
 11
1000.000000000067
 21
1164.500000000014
 31
0.0
  0
LINE
  5
1EE
330
1F
100
AcDbEntity
  8
LAY-10
  6
CONTINUOUS
 62
     7
100
AcDbLine
 10
1000.000000000067
 20
1161.500000000014
 30
0.0
 11
1021.000000000067
 21
1161.500000000014
 31
0.0
  0
LINE
  5
1EF
330
1F
100
AcDbEntity
  8
LAY-10
  6
CONTINUOUS
 62
     7
100
AcDbLine
 10
1021.000000000067
 20
1173.500000000014
 30
0.0
 11
1000.000000000067
 21
1173.500000000014
 31
0.0
  0
LINE
  5
1F0
330
1F
100
AcDbEntity
  8
LAY-10
  6
CONTINUOUS
 62
     7
100
AcDbLine
 10
1000.000000000067
 20
1170.500000000014
 30
0.0
 11
1021.000000000067
 21
1170.500000000014
 31
0.0
  0
LINE
  5
1F1
330
1F
100
AcDbEntity
  8
LAY-10
  6
CONTINUOUS
 62
     7
100
AcDbLine
 10
1021.000000000067
 20
1182.500000000014
 30
0.0
 11
1000.000000000067
 21
1182.500000000014
 31
0.0
  0
LINE
  5
1F2
330
1F
100
AcDbEntity
  8
LAY-10
  6
CONTINUOUS
 62
     7
100
AcDbLine
 10
1000.000000000067
 20
1179.500000000014
 30
0.0
 11
1021.000000000067
 21
1179.500000000014
 31
0.0
  0
LINE
  5
1F3
330
1F
100
AcDbEntity
  8
LAY-10
  6
CONTINUOUS
 62
     7
100
AcDbLine
 10
1021.000000000067
 20
1191.500000000014
 30
0.0
 11
1000.000000000067
 21
1191.500000000014
 31
0.0
  0
LINE
  5
1F4
330
1F
100
AcDbEntity
  8
LAY-10
  6
CONTINUOUS
 62
     7
100
AcDbLine
 10
1000.000000000067
 20
1188.500000000014
 30
0.0
 11
1021.000000000067
 21
1188.500000000014
 31
0.0
  0
LINE
  5
1F5
330
1F
100
AcDbEntity
  8
LAY-10
  6
CONTINUOUS
 62
     7
100
AcDbLine
 10
1021.000000000067
 20
1200.500000000014
 30
0.0
 11
1000.000000000067
 21
1200.500000000014
 31
0.0
  0
LINE
  5
1F6
330
1F
100
AcDbEntity
  8
LAY-10
  6
CONTINUOUS
 62
     7
100
AcDbLine
 10
1000.000000000067
 20
1197.500000000014
 30
0.0
 11
1021.000000000067
 21
1197.500000000014
 31
0.0
  0
LINE
  5
1F7
330
1F
100
AcDbEntity
  8
LAY-10
  6
CONTINUOUS
 62
     7
100
AcDbLine
 10
1021.000000000067
 20
1209.500000000014
 30
0.0
 11
1000.000000000067
 21
1209.500000000014
 31
0.0
  0
LINE
  5
1F8
330
1F
100
AcDbEntity
  8
LAY-10
  6
CONTINUOUS
 62
     7
100
AcDbLine
 10
1000.000000000067
 20
1206.500000000014
 30
0.0
 11
1021.000000000067
 21
1206.500000000014
 31
0.0
  0
LINE
  5
1F9
330
1F
100
AcDbEntity
  8
LAY-10
  6
CONTINUOUS
 62
     7
100
AcDbLine
 10
1000.000000000067
 20
1209.500000000014
 30
0.0
 11
1000.000000000067
 21
1206.500000000014
 31
0.0
  0
LINE
  5
1FA
330
1F
100
AcDbEntity
  8
LAY-10
  6
CONTINUOUS
 62
     7
100
AcDbLine
 10
1002.000000000067
 20
1164.500000000014
 30
0.0
 11
1002.000000000067
 21
1161.500000000014
 31
0.0
  0
LINE
  5
1FB
330
1F
100
AcDbEntity
  8
LAY-10
  6
CONTINUOUS
 62
     7
100
AcDbLine
 10
1002.000000000067
 20
1155.500000000014
 30
0.0
 11
1002.000000000067
 21
1152.500000000014
 31
0.0
  0
LINE
  5
1FC
330
1F
100
AcDbEntity
  8
LAY-10
  6
CONTINUOUS
 62
     7
100
AcDbLine
 10
1002.000000000067
 20
1173.500000000014
 30
0.0
 11
1002.000000000067
 21
1170.500000000014
 31
0.0
  0
LINE
  5
1FD
330
1F
100
AcDbEntity
  8
LAY-10
  6
CONTINUOUS
 62
     7
100
AcDbLine
 10
1002.000000000067
 20
1182.500000000014
 30
0.0
 11
1002.000000000067
 21
1179.500000000014
 31
0.0
  0
LINE
  5
1FE
330
1F
100
AcDbEntity
  8
LAY-10
  6
CONTINUOUS
 62
     7
100
AcDbLine
 10
1002.000000000067
 20
1191.500000000014
 30
0.0
 11
1002.000000000067
 21
1188.500000000014
 31
0.0
  0
LINE
  5
1FF
330
1F
100
AcDbEntity
  8
LAY-10
  6
CONTINUOUS
 62
     7
100
AcDbLine
 10
1002.000000000067
 20
1200.500000000014
 30
0.0
 11
1002.000000000067
 21
1197.500000000014
 31
0.0
  0
LINE
  5
200
330
1F
100
AcDbEntity
  8
LAY-10
  6
CONTINUOUS
 62
     7
100
AcDbLine
 10
1002.000000000067
 20
1209.500000000014
 30
0.0
 11
1002.000000000067
 21
1206.500000000014
 31
0.0
  0
LINE
  5
201
330
1F
100
AcDbEntity
  8
LAY-10
  6
CONTINUOUS
 62
     7
100
AcDbLine
 10
1002.000000000067
 20
1218.500000000014
 30
0.0
 11
1002.000000000067
 21
1215.500000000014
 31
0.0
  0
LINE
  5
202
330
1F
100
AcDbEntity
  8
LAY-10
  6
CONTINUOUS
 62
     7
100
AcDbLine
 10
1021.000000000067
 20
1215.500000000014
 30
0.0
 11
1021.000000000067
 21
1155.500000000015
 31
0.0
  0
LINE
  5
203
330
1F
100
AcDbEntity
  8
LAY-10
  6
CONTINUOUS
 62
     7
100
AcDbLine
 10
1008.000000000067
 20
1161.500000000014
 30
0.0
 11
1008.000000000067
 21
1155.500000000014
 31
0.0
  0
LINE
  5
204
330
1F
100
AcDbEntity
  8
LAY-10
  6
CONTINUOUS
 62
     7
100
AcDbLine
 10
1008.000000000067
 20
1170.500000000014
 30
0.0
 11
1008.000000000067
 21
1164.500000000014
 31
0.0
  0
LINE
  5
205
330
1F
100
AcDbEntity
  8
LAY-10
  6
CONTINUOUS
 62
     7
100
AcDbLine
 10
1008.000000000067
 20
1179.500000000014
 30
0.0
 11
1008.000000000067
 21
1173.500000000014
 31
0.0
  0
LINE
  5
206
330
1F
100
AcDbEntity
  8
LAY-10
  6
CONTINUOUS
 62
     7
100
AcDbLine
 10
1008.000000000067
 20
1188.500000000014
 30
0.0
 11
1008.000000000067
 21
1182.500000000014
 31
0.0
  0
LINE
  5
207
330
1F
100
AcDbEntity
  8
LAY-10
  6
CONTINUOUS
 62
     7
100
AcDbLine
 10
1008.000000000067
 20
1197.500000000014
 30
0.0
 11
1008.000000000067
 21
1191.500000000014
 31
0.0
  0
LINE
  5
208
330
1F
100
AcDbEntity
  8
LAY-10
  6
CONTINUOUS
 62
     7
100
AcDbLine
 10
1008.000000000067
 20
1206.500000000014
 30
0.0
 11
1008.000000000067
 21
1200.500000000014
 31
0.0
  0
LINE
  5
209
330
1F
100
AcDbEntity
  8
LAY-10
  6
CONTINUOUS
 62
     7
100
AcDbLine
 10
1008.000000000067
 20
1215.500000000014
 30
0.0
 11
1008.000000000067
 21
1209.500000000014
 31
0.0
  0
LINE
  5
20A
330
1F
100
AcDbEntity
  8
LAY-10
  6
CONTINUOUS
 62
     7
100
AcDbLine
 10
1002.000000000067
 20
1155.500000000014
 30
0.0
 11
1040.000000000067
 21
1155.500000000014
 31
0.0
  0
LINE
  5
20B
330
1F
100
AcDbEntity
  8
LAY-10
  6
CONTINUOUS
 62
     7
100
AcDbLine
 10
1040.000000000067
 20
1215.500000000014
 30
0.0
 11
1002.000000000067
 21
1215.500000000014
 31
0.0
  0
POLYLINE
  5
20C
330
1F
100
AcDbEntity
  8
LAY-10
  6
CONTINUOUS
 62
     7
100
AcDb2dPolyline
 66
     1
 10
0.0
 20
0.0
 30
0.0
 70
   128
  0
VERTEX
  5
20D
330
20C
100
AcDbEntity
  8
LAY-10
  6
CONTINUOUS
 62
     7
100
AcDbVertex
100
AcDb2dVertex
 10
1002.000000000067
 20
1152.500000000014
 30
0.0
  0
VERTEX
  5
20E
330
20C
100
AcDbEntity
  8
LAY-10
  6
CONTINUOUS
 62
     7
100
AcDbVertex
100
AcDb2dVertex
 10
1040.000000000067
 20
1152.500000000014
 30
0.0
  0
SEQEND
  5
20F
330
20C
100
AcDbEntity
  8
LAY-10
  6
CONTINUOUS
 62
     7
  0
LINE
  5
210
330
1F
100
AcDbEntity
  8
LAY-10
  6
CONTINUOUS
 62
     7
100
AcDbLine
 10
1040.000000000023
 20
1162.000000000039
 30
0.0
 11
1040.000000000023
 21
1150.000000000013
 31
0.0
  0
LINE
  5
211
330
1F
100
AcDbEntity
  8
LAY-10
  6
CONTINUOUS
 62
     7
100
AcDbLine
 10
1049.000000000022
 20
1197.000000000029
 30
0.0
 11
1049.000000000022
 21
1150.000000000009
 31
0.0
  0
LINE
  5
212
330
1F
100
AcDbEntity
  8
LAY-10
  6
CONTINUOUS
 62
     7
100
AcDbLine
 10
1029.000000000017
 20
1162.000000000039
 30
0.0
 11
1049.000000000022
 21
1162.000000000039
 31
0.0
  0
LINE
  5
213
330
1F
100
AcDbEntity
  8
LAY-10
  6
CONTINUOUS
 62
     7
100
AcDbLine
 10
1052.997114317046
 20
1162.000000000039
 30
0.0
 11
1061.970679488375
 21
1162.000000000039
 31
0.0
  0
LINE
  5
214
330
1F
100
AcDbEntity
  8
LAY-10
  6
CONTINUOUS
 62
     7
100
AcDbLine
 10
1030.000000000017
 20
1174.000000000038
 30
0.0
 11
1049.000000000022
 21
1174.000000000038
 31
0.0
  0
LINE
  5
215
330
1F
100
AcDbEntity
  8
LAY-10
  6
CONTINUOUS
 62
     7
100
AcDbLine
 10
1052.997114317046
 20
1174.000000000038
 30
0.0
 11
1061.981501724723
 21
1174.000000000038
 31
0.0
  0
LINE
  5
216
330
1F
100
AcDbEntity
  8
LAY-10
  6
CONTINUOUS
 62
     7
100
AcDbLine
 10
1040.000000000023
 20
1218.500000000014
 30
0.0
 11
1040.000000000023
 21
1208.99999999996
 31
0.0
  0
LINE
  5
217
330
1F
100
AcDbEntity
  8
LAY-10
  6
CONTINUOUS
 62
     7
100
AcDbLine
 10
1049.000000000023
 20
1218.500000000014
 30
0.0
 11
1049.000000000023
 21
1208.99999999996
 31
0.0
  0
LINE
  5
218
330
1F
100
AcDbEntity
  8
LAY-10
  6
CONTINUOUS
 62
     7
100
AcDbLine
 10
1052.997114317046
 20
1212.82698032922
 30
0.0
 11
1049.000000000023
 21
1212.82698032922
 31
0.0
  0
LINE
  5
219
330
1F
100
AcDbEntity
  8
LAY-10
  6
CONTINUOUS
 62
     7
100
AcDbLine
 10
1052.997114317046
 20
1157.00595685751
 30
0.0
 11
1049.000000000022
 21
1157.00595685751
 31
0.0
  0
LINE
  5
21A
330
1F
100
AcDbEntity
  8
LAY-10
  6
CONTINUOUS
 62
     7
100
AcDbLine
 10
1052.997114317046
 20
1159.90947163606
 30
0.0
 11
1049.000000000022
 21
1159.90947163606
 31
0.0
  0
LINE
  5
21B
330
1F
100
AcDbEntity
  8
LAY-10
  6
CONTINUOUS
 62
     7
100
AcDbLine
 10
1052.997114317046
 20
1157.00595685751
 30
0.0
 11
1052.997114317046
 21
1197.00000000004
 31
0.0
  0
LINE
  5
21C
330
1F
100
AcDbEntity
  8
LAY-10
  6
CONTINUOUS
 62
     7
100
AcDbLine
 10
1052.997114317046
 20
1208.99999999996
 30
0.0
 11
1052.997114317046
 21
1214.000000000014
 31
0.0
  0
LINE
  5
21D
330
1F
100
AcDbEntity
  8
LAY-10
  6
CONTINUOUS
 62
     7
100
AcDbLine
 10
1049.000000000023
 20
1209.500000000014
 30
0.0
 11
1040.000000000023
 21
1209.500000000014
 31
0.0
  0
LINE
  5
21E
330
1F
100
AcDbEntity
  8
LAY-10
  6
CONTINUOUS
 62
     7
100
AcDbLine
 10
1049.000000000022
 20
1159.000000000012
 30
0.0
 11
1040.000000000068
 21
1159.000000000012
 31
0.0
  0
ARC
  5
21F
330
1F
100
AcDbEntity
  8
LAY-10
  6
CONTINUOUS
 62
     7
100
AcDbCircle
 10
1074.500000000018
 20
1209.500000000037
 30
0.0
 40
4.5
100
AcDbArc
 50
0.0
 51
90.00000000000001
  0
ARC
  5
220
330
1F
100
AcDbEntity
  8
LAY-10
  6
CONTINUOUS
 62
     7
100
AcDbCircle
 10
1074.500000000018
 20
1209.500000000037
 30
0.0
 40
9.0
100
AcDbArc
 50
0.0
 51
90.00000000000001
  0
LINE
  5
221
330
1F
100
AcDbEntity
  8
LAY-10
  6
CONTINUOUS
 62
     7
100
AcDbLine
 10
1079.000000000001
 20
1206.999999999998
 30
0.0
 11
1083.500000000001
 21
1206.999999999998
 31
0.0
  0
LINE
  5
222
330
1F
100
AcDbEntity
  8
LAY-10
  6
CONTINUOUS
 62
     7
100
AcDbLine
 10
1079.000000000001
 20
1156.999999999998
 30
0.0
 11
1083.500000000001
 21
1156.999999999998
 31
0.0
  0
LINE
  5
223
330
1F
100
AcDbEntity
  8
LAY-10
  6
CONTINUOUS
 62
     7
100
AcDbLine
 10
1000.000000000004
 20
1145.50000000004
 30
0.0
 11
1079.000000000018
 21
1145.50000000004
 31
0.0
  0
LINE
  5
224
330
1F
100
AcDbEntity
  8
LAY-10
  6
CONTINUOUS
 62
     7
100
AcDbLine
 10
1000.000000000004
 20
1150.000000000075
 30
0.0
 11
1079.000000000018
 21
1150.000000000075
 31
0.0
  0
LINE
  5
225
330
1F
100
AcDbEntity
  8
LAY-10
  6
CONTINUOUS
 62
     7
100
AcDbLine
 10
1074.500000000018
 20
1214.000000000037
 30
0.0
 11
1049.000000000027
 21
1214.000000000037
 31
0.0
  0
LINE
  5
226
330
1F
100
AcDbEntity
  8
LAY-10
  6
CONTINUOUS
 62
     7
100
AcDbLine
 10
1074.500000000018
 20
1218.5
 30
0.0
 11
1002.000000000071
 21
1218.5
 31
0.0
  0
LINE
  5
227
330
1F
100
AcDbEntity
  8
LAY-10
  6
CONTINUOUS
 62
     7
100
AcDbLine
 10
211.0000000000032
 20
1150.0000000001
 30
0.0
 11
211.0000000000032
 21
685.9999999999918
 31
0.0
  0
LINE
  5
228
330
1F
100
AcDbEntity
  8
LAY-10
  6
CONTINUOUS
 62
     7
100
AcDbLine
 10
739.0000000000026
 20
685.9999999999918
 30
0.0
 11
739.0000000000024
 21
1150.0000000001
 31
0.0
  0
LINE
  5
229
330
1F
100
AcDbEntity
  8
LAY-10
  6
CONTINUOUS
 62
     7
100
AcDbLine
 10
1049.0
 20
1153.000000000076
 30
0.0
 11
1079.0
 21
1153.000000000076
 31
0.0
  0
LINE
  5
22A
330
1F
100
AcDbEntity
  8
LAY-10
  6
CONTINUOUS
 62
     7
100
AcDbLine
 10
276.0000000000018
 20
691.9999999999959
 30
0.0
 11
211.0000000000021
 21
691.9999999999959
 31
0.0
  0
LINE
  5
22B
330
1F
100
AcDbEntity
  8
LAY-10
  6
CONTINUOUS
 62
     7
100
AcDbLine
 10
270.0000000000041
 20
685.9999999999959
 30
0.0
 11
270.0000000000041
 21
691.9999999999959
 31
0.0
  0
LINE
  5
22C
330
1F
100
AcDbEntity
  8
LAY-10
  6
CONTINUOUS
 62
     7
100
AcDbLine
 10
232.0000000000059
 20
691.9999999999959
 30
0.0
 11
232.0000000000059
 21
685.9999999999959
 31
0.0
  0
LINE
  5
22D
330
1F
100
AcDbEntity
  8
LAY-10
  6
CONTINUOUS
 62
     7
100
AcDbLine
 10
226.0000000000082
 20
691.9999999999959
 30
0.0
 11
226.0000000000082
 21
685.9999999999959
 31
0.0
  0
LINE
  5
22E
330
1F
100
AcDbEntity
  8
LAY-10
  6
CONTINUOUS
 62
     7
100
AcDbLine
 10
276.0
 20
696.4999999999964
 30
0.0
 11
211.0000000000021
 21
696.4999999999964
 31
0.0
  0
LINE
  5
22F
330
1F
100
AcDbEntity
  8
LAY-10
  6
CONTINUOUS
 62
     7
100
AcDbLine
 10
276.0000000000018
 20
685.9999999999959
 30
0.0
 11
276.0000000000018
 21
696.4999999999995
 31
0.0
  0
LINE
  5
230
330
1F
100
AcDbEntity
  8
LAY-10
  6
CONTINUOUS
 62
     7
100
AcDbLine
 10
674.0000000000032
 20
691.9999999999955
 30
0.0
 11
739.0000000000028
 21
691.9999999999953
 31
0.0
  0
LINE
  5
231
330
1F
100
AcDbEntity
  8
LAY-10
  6
CONTINUOUS
 62
     7
100
AcDbLine
 10
680.0000000000009
 20
685.9999999999955
 30
0.0
 11
680.0000000000009
 21
691.9999999999955
 31
0.0
  0
LINE
  5
232
330
1F
100
AcDbEntity
  8
LAY-10
  6
CONTINUOUS
 62
     7
100
AcDbLine
 10
717.999999999999
 20
691.9999999999955
 30
0.0
 11
717.999999999999
 21
685.9999999999955
 31
0.0
  0
LINE
  5
233
330
1F
100
AcDbEntity
  8
LAY-10
  6
CONTINUOUS
 62
     7
100
AcDbLine
 10
723.9999999999967
 20
691.9999999999955
 30
0.0
 11
723.9999999999967
 21
685.9999999999955
 31
0.0
  0
LINE
  5
234
330
1F
100
AcDbEntity
  8
LAY-10
  6
CONTINUOUS
 62
     7
100
AcDbLine
 10
674.000000000005
 20
696.4999999999959
 30
0.0
 11
739.0000000000028
 21
696.4999999999958
 31
0.0
  0
LINE
  5
235
330
1F
100
AcDbEntity
  8
LAY-10
  6
CONTINUOUS
 62
     7
100
AcDbLine
 10
674.0000000000032
 20
685.9999999999955
 30
0.0
 11
674.0000000000032
 21
696.499999999999
 31
0.0
  0
LINE
  5
236
330
1F
100
AcDbEntity
  8
LAY-10
  6
CONTINUOUS
 62
     7
100
AcDbLine
 10
1000.000000000002
 20
696.500000000001
 30
0.0
 11
1079.0
 21
696.5
 31
0.0
  0
LINE
  5
237
330
1F
100
AcDbEntity
  8
LAY-10
  6
CONTINUOUS
 62
     7
100
AcDbLine
 10
1000.000000000002
 20
1135.0
 30
0.0
 11
1079.000000000018
 21
1135.0
 31
0.0
  0
LINE
  5
238
330
1F
100
AcDbEntity
  8
LAY-10
  6
CONTINUOUS
 62
     7
100
AcDbLine
 10
674.0
 20
474.9999999999865
 30
0.0
 11
674.0
 21
395.9999999999717
 31
0.0
  0
LINE
  5
239
330
1F
100
AcDbEntity
  8
LAY-10
  6
CONTINUOUS
 62
     7
100
AcDbLine
 10
276.0
 20
474.9999999999865
 30
0.0
 11
276.0
 21
395.9999999999717
 31
0.0
  0
DIMENSION
  5
23B
330
1F
100
AcDbEntity
  8
LAY-10
  6
CONTINUOUS
 62
     4
100
AcDbDimension
  2
*D15
 10
429.9999999999102
 20
474.9999999999999
 30
0.0
 11
417.4999999999102
 21
435.4999999999999
 31
0.0
 70
   160
  3
ISO-25
100
AcDbAlignedDimension
 13
429.9999999999102
 23
395.9999999999998
 33
0.0
 14
429.9999999999102
 24
474.9999999999999
 34
0.0
 50
90.0
100
AcDbRotatedDimension
1001
ACAD
1000
DSTYLE
1002
{
1070
   270
1070
     2
1070
     6
1000
EX_BNORM
1070
     7
1000
EX_BNORM
1070
    41
1040
12.5
1070
    42
1040
0.0
1070
    44
1040
0.0
1070
    73
1070
     0
1070
    74
1070
     0
1070
    75
1070
     1
1070
    76
1070
     1
1070
    77
1070
     1
1070
    78
1070
     8
1070
   140
1040
15.590552
1070
   147
1040
0.0
1070
   173
1070
     1
1070
   176
1070
     4
1070
   177
1070
     4
1070
   178
1070
     7
1070
   271
1070
     1
1070
   277
1070
     2
1070
   279
1070
     2
1070
   280
1070
     0
1070
   287
1070
     5
1070
   340
1005
23A
1002
}
  0
DIMENSION
  5
247
330
1F
100
AcDbEntity
  8
LAY-10
  6
CONTINUOUS
 62
     4
100
AcDbDimension
  2
*D16
 10
394.9999999999105
 20
474.9999999999999
 30
0.0
 11
382.4999999999105
 21
440.4999999999999
 31
0.0
 70
   160
  3
ISO-25
100
AcDbAlignedDimension
 13
344.9999999999104
 23
405.9999999999999
 33
0.0
 14
394.9999999999105
 24
474.9999999999999
 34
0.0
 50
90.0
100
AcDbRotatedDimension
1001
ACAD
1000
DSTYLE
1002
{
1070
   270
1070
     2
1070
     6
1000
EX_BNORM
1070
     7
1000
EX_BNORM
1070
    41
1040
12.5
1070
    42
1040
7.5
1070
    44
1040
7.5
1070
    73
1070
     0
1070
    74
1070
     0
1070
    75
1070
     0
1070
    76
1070
     1
1070
    77
1070
     1
1070
    78
1070
     8
1070
   140
1040
15.590552
1070
   147
1040
0.0
1070
   173
1070
     1
1070
   176
1070
     4
1070
   177
1070
     4
1070
   178
1070
     7
1070
   271
1070
     1
1070
   277
1070
     2
1070
   279
1070
     2
1070
   280
1070
     0
1070
   287
1070
     5
1070
   340
1005
23A
1002
}
  0
DIMENSION
  5
253
330
1F
100
AcDbEntity
  8
LAY-10
  6
CONTINUOUS
 62
     4
100
AcDbDimension
  2
*D17
 10
700.0000000000302
 20
250.0000000000999
 30
0.0
 11
725.0000000000153
 21
262.5000000000999
 31
0.0
 70
   160
  3
ISO-25
100
AcDbAlignedDimension
 13
750.0000000000003
 23
353.9999999999999
 33
0.0
 14
700.0000000000302
 24
250.0000000000999
 34
0.0
100
AcDbRotatedDimension
1001
ACAD
1000
DSTYLE
1002
{
1070
   270
1070
     2
1070
     6
1000
EX_BNORM
1070
     7
1000
EX_BNORM
1070
    41
1040
12.5
1070
    42
1040
7.5
1070
    44
1040
7.5
1070
    73
1070
     0
1070
    74
1070
     0
1070
    75
1070
     0
1070
    76
1070
     1
1070
    77
1070
     1
1070
    78
1070
     8
1070
   140
1040
15.590552
1070
   147
1040
0.0
1070
   173
1070
     1
1070
   176
1070
     4
1070
   177
1070
     4
1070
   178
1070
     7
1070
   271
1070
     1
1070
   277
1070
     2
1070
   279
1070
     2
1070
   280
1070
     0
1070
   287
1070
     5
1070
   340
1005
23A
1002
}
  0
DIMENSION
  5
25F
330
1F
100
AcDbEntity
  8
LAY-10
  6
CONTINUOUS
 62
     4
100
AcDbDimension
  2
*D18
 10
250.0000000000303
 20
250.0000000000999
 30
0.0
 11
225.0000000000153
 21
262.5000000000999
 31
0.0
 70
   160
  3
ISO-25
100
AcDbAlignedDimension
 13
200.0000000000002
 23
353.9999999999999
 33
0.0
 14
250.0000000000303
 24
250.0000000000999
 34
0.0
100
AcDbRotatedDimension
1001
ACAD
1000
DSTYLE
1002
{
1070
   270
1070
     2
1070
     6
1000
EX_BNORM
1070
     7
1000
EX_BNORM
1070
    41
1040
12.5
1070
    42
1040
7.5
1070
    44
1040
7.5
1070
    73
1070
     0
1070
    74
1070
     0
1070
    75
1070
     0
1070
    76
1070
     1
1070
    77
1070
     1
1070
    78
1070
     8
1070
   140
1040
15.590552
1070
   147
1040
0.0
1070
   173
1070
     1
1070
   176
1070
     4
1070
   177
1070
     4
1070
   178
1070
     7
1070
   271
1070
     1
1070
   277
1070
     2
1070
   279
1070
     2
1070
   280
1070
     0
1070
   287
1070
     5
1070
   340
1005
23A
1002
}
  0
DIMENSION
  5
26B
330
1F
100
AcDbEntity
  8
LAY-10
  6
CONTINUOUS
 62
     4
100
AcDbDimension
  2
*D19
 10
750.0000000000003
 20
594.9999999999999
 30
0.0
 11
475.0000000000004
 21
607.4999999999999
 31
0.0
 70
   160
  3
ISO-25
100
AcDbAlignedDimension
 13
200.0000000000002
 23
474.9999999999999
 33
0.0
 14
750.0000000000003
 24
474.9999999999999
 34
0.0
100
AcDbRotatedDimension
1001
ACAD
1000
DSTYLE
1002
{
1070
   270
1070
     2
1070
     6
1000
EX_BNORM
1070
     7
1000
EX_BNORM
1070
    41
1040
12.5
1070
    42
1040
7.5
1070
    44
1040
7.5
1070
    73
1070
     0
1070
    74
1070
     0
1070
    75
1070
     0
1070
    76
1070
     0
1070
    77
1070
     1
1070
    78
1070
     8
1070
   140
1040
15.590552
1070
   147
1040
0.0
1070
   173
1070
     1
1070
   176
1070
     4
1070
   177
1070
     4
1070
   178
1070
     7
1070
   271
1070
     1
1070
   277
1070
     2
1070
   279
1070
     2
1070
   280
1070
     0
1070
   287
1070
     5
1070
   340
1005
23A
1002
}
  0
DIMENSION
  5
278
330
1F
100
AcDbEntity
  8
LAY-10
  6
CONTINUOUS
 62
     4
100
AcDbDimension
  2
*D20
 10
743.5000000000026
 20
559.9999999999999
 30
0.0
 11
474.9999999999995
 21
572.4999999999999
 31
0.0
 70
   160
  3
ISO-25
100
AcDbAlignedDimension
 13
206.4999999999964
 23
474.9999999999865
 33
0.0
 14
743.5000000000026
 24
474.9999999999865
 34
0.0
100
AcDbRotatedDimension
1001
ACAD
1000
DSTYLE
1002
{
1070
   270
1070
     2
1070
     6
1000
EX_BNORM
1070
     7
1000
EX_BNORM
1070
    41
1040
12.5
1070
    42
1040
7.5
1070
    44
1040
7.5
1070
    73
1070
     0
1070
    74
1070
     0
1070
    75
1070
     0
1070
    76
1070
     0
1070
    77
1070
     1
1070
    78
1070
     8
1070
   140
1040
15.590552
1070
   147
1040
0.0
1070
   173
1070
     1
1070
   176
1070
     4
1070
   177
1070
     4
1070
   178
1070
     7
1070
   271
1070
     1
1070
   277
1070
     2
1070
   279
1070
     2
1070
   280
1070
     0
1070
   287
1070
     5
1070
   340
1005
23A
1002
}
  0
DIMENSION
  5
285
330
1F
100
AcDbEntity
  8
LAY-10
  6
CONTINUOUS
 62
     4
100
AcDbDimension
  2
*D21
 10
739.0000000000001
 20
524.9999999999999
 30
0.0
 11
475.0000000000002
 21
537.4999999999999
 31
0.0
 70
   160
  3
ISO-25
100
AcDbAlignedDimension
 13
211.0000000000002
 23
474.9999999999999
 33
0.0
 14
739.0000000000001
 24
474.9999999999999
 34
0.0
100
AcDbRotatedDimension
1001
ACAD
1000
DSTYLE
1002
{
1070
   270
1070
     2
1070
     6
1000
EX_BNORM
1070
     7
1000
EX_BNORM
1070
    41
1040
12.5
1070
    42
1040
7.5
1070
    44
1040
7.5
1070
    73
1070
     0
1070
    74
1070
     0
1070
    75
1070
     0
1070
    76
1070
     0
1070
    77
1070
     1
1070
    78
1070
     8
1070
   140
1040
15.590552
1070
   147
1040
0.0
1070
   173
1070
     1
1070
   176
1070
     4
1070
   177
1070
     4
1070
   178
1070
     7
1070
   271
1070
     1
1070
   277
1070
     2
1070
   279
1070
     2
1070
   280
1070
     0
1070
   287
1070
     5
1070
   340
1005
23A
1002
}
  0
DIMENSION
  5
292
330
1F
100
AcDbEntity
  8
LAY-10
  6
CONTINUOUS
 62
     4
100
AcDbDimension
  2
*D22
 10
800.0000000000001
 20
474.9999999999999
 30
0.0
 11
787.5000000000001
 21
409.9999999999998
 31
0.0
 70
   160
  3
ISO-25
100
AcDbAlignedDimension
 13
741.0000000000002
 23
344.9999999999998
 33
0.0
 14
750.0000000000003
 24
474.9999999999999
 34
0.0
 50
90.0
100
AcDbRotatedDimension
1001
ACAD
1000
DSTYLE
1002
{
1070
   270
1070
     2
1070
     6
1000
EX_BNORM
1070
     7
1000
EX_BNORM
1070
    41
1040
12.5
1070
    42
1040
7.5
1070
    44
1040
7.5
1070
    73
1070
     0
1070
    74
1070
     0
1070
    75
1070
     0
1070
    76
1070
     0
1070
    77
1070
     1
1070
    78
1070
     8
1070
   140
1040
15.590552
1070
   147
1040
0.0
1070
   173
1070
     1
1070
   176
1070
     4
1070
   177
1070
     4
1070
   178
1070
     7
1070
   271
1070
     1
1070
   277
1070
     2
1070
   279
1070
     2
1070
   280
1070
     0
1070
   287
1070
     5
1070
   340
1005
23A
1002
}
  0
DIMENSION
  5
29F
330
1F
100
AcDbEntity
  8
LAY-10
  6
CONTINUOUS
 62
     4
100
AcDbDimension
  2
*D23
 10
845.0000000000006
 20
1225.0
 30
0.0
 11
832.5000000000008
 21
949.9999999999994
 31
0.0
 70
   160
  3
ISO-25
100
AcDbAlignedDimension
 13
1000.0
 23
674.9999999999997
 33
0.0
 14
1000.0
 24
1225.0
 34
0.0
 50
90.0
100
AcDbRotatedDimension
1001
ACAD
1000
DSTYLE
1002
{
1070
   270
1070
     2
1070
     6
1000
EX_BNORM
1070
     7
1000
EX_BNORM
1070
    41
1040
12.5
1070
    42
1040
7.5
1070
    44
1040
7.5
1070
    73
1070
     0
1070
    74
1070
     0
1070
    75
1070
     0
1070
    76
1070
     0
1070
    77
1070
     1
1070
    78
1070
     8
1070
   140
1040
15.590552
1070
   147
1040
0.0
1070
   173
1070
     1
1070
   176
1070
     4
1070
   177
1070
     4
1070
   178
1070
     7
1070
   271
1070
     1
1070
   277
1070
     2
1070
   279
1070
     2
1070
   280
1070
     0
1070
   287
1070
     5
1070
   340
1005
23A
1002
}
  0
DIMENSION
  5
2AC
330
1F
100
AcDbEntity
  8
LAY-10
  6
CONTINUOUS
 62
     4
100
AcDbDimension
  2
*D24
 10
880.0000000000002
 20
1218.500000000077
 30
0.0
 11
867.5000000000002
 21
950.0000000000389
 31
0.0
 70
   160
  3
ISO-25
100
AcDbAlignedDimension
 13
1000.000000000002
 23
681.5000000000009
 33
0.0
 14
1000.000000000003
 24
1218.500000000077
 34
0.0
 50
90.0
100
AcDbRotatedDimension
1001
ACAD
1000
DSTYLE
1002
{
1070
   270
1070
     2
1070
     6
1000
EX_BNORM
1070
     7
1000
EX_BNORM
1070
    41
1040
12.5
1070
    42
1040
7.5
1070
    44
1040
7.5
1070
    73
1070
     0
1070
    74
1070
     0
1070
    75
1070
     0
1070
    76
1070
     0
1070
    77
1070
     1
1070
    78
1070
     8
1070
   140
1040
15.590552
1070
   147
1040
0.0
1070
   173
1070
     1
1070
   176
1070
     4
1070
   177
1070
     4
1070
   178
1070
     7
1070
   271
1070
     1
1070
   277
1070
     2
1070
   279
1070
     2
1070
   280
1070
     0
1070
   287
1070
     5
1070
   340
1005
23A
1002
}
  0
DIMENSION
  5
2B9
330
1F
100
AcDbEntity
  8
LAY-10
  6
CONTINUOUS
 62
     4
100
AcDbDimension
  2
*D25
 10
1225.0
 20
1175.0
 30
0.0
 11
1212.5
 21
1200.0
 31
0.0
 70
   160
  3
ISO-25
100
AcDbAlignedDimension
 13
1175.0
 23
1225.0
 33
0.0
 14
1225.0
 24
1175.0
 34
0.0
 50
90.0
100
AcDbRotatedDimension
1001
ACAD
1000
DSTYLE
1002
{
1070
   270
1070
     2
1070
     6
1000
EX_BNORM
1070
     7
1000
EX_BNORM
1070
    41
1040
12.5
1070
    42
1040
7.5
1070
    44
1040
7.5
1070
    73
1070
     0
1070
    74
1070
     0
1070
    75
1070
     0
1070
    76
1070
     1
1070
    77
1070
     1
1070
    78
1070
     8
1070
   140
1040
15.590552
1070
   147
1040
0.0
1070
   173
1070
     1
1070
   176
1070
     4
1070
   177
1070
     4
1070
   178
1070
     7
1070
   271
1070
     1
1070
   277
1070
     2
1070
   279
1070
     2
1070
   280
1070
     0
1070
   287
1070
     5
1070
   340
1005
23A
1002
}
  0
DIMENSION
  5
2C5
330
1F
100
AcDbEntity
  8
LAY-10
  6
CONTINUOUS
 62
     4
100
AcDbDimension
  2
*D26
 10
1225.0
 20
724.9999999999998
 30
0.0
 11
1212.5
 21
700.0
 31
0.0
 70
   160
  3
ISO-25
100
AcDbAlignedDimension
 13
1175.0
 23
675.0
 33
0.0
 14
1225.0
 24
724.9999999999998
 34
0.0
 50
90.0
100
AcDbRotatedDimension
1001
ACAD
1000
DSTYLE
1002
{
1070
   270
1070
     2
1070
     6
1000
EX_BNORM
1070
     7
1000
EX_BNORM
1070
    41
1040
12.5
1070
    42
1040
7.5
1070
    44
1040
7.5
1070
    73
1070
     0
1070
    74
1070
     0
1070
    75
1070
     0
1070
    76
1070
     1
1070
    77
1070
     1
1070
    78
1070
     8
1070
   140
1040
15.590552
1070
   147
1040
0.0
1070
   173
1070
     1
1070
   176
1070
     4
1070
   177
1070
     4
1070
   178
1070
     7
1070
   271
1070
     1
1070
   277
1070
     2
1070
   279
1070
     2
1070
   280
1070
     0
1070
   287
1070
     5
1070
   340
1005
23A
1002
}
  0
DIMENSION
  5
2D1
330
1F
100
AcDbEntity
  8
LAY-10
  6
CONTINUOUS
 62
     4
100
AcDbDimension
  2
*D27
 10
675.00000000005
 20
1275.0
 30
0.0
 11
475.000000000005
 21
1287.5
 31
0.0
 70
   160
  3
ISO-25
100
AcDbAlignedDimension
 13
274.99999999996
 23
1228.0
 33
0.0
 14
675.00000000005
 24
1228.0
 34
0.0
100
AcDbRotatedDimension
1001
ACAD
1000
DSTYLE
1002
{
1070
   270
1070
     2
1070
     6
1000
EX_BNORM
1070
     7
1000
EX_BNORM
1070
    41
1040
12.5
1070
    42
1040
7.5
1070
    44
1040
7.5
1070
    73
1070
     0
1070
    74
1070
     0
1070
    75
1070
     0
1070
    76
1070
     0
1070
    77
1070
     1
1070
    78
1070
     8
1070
   140
1040
15.590552
1070
   147
1040
0.0
1070
   173
1070
     1
1070
   176
1070
     4
1070
   177
1070
     4
1070
   178
1070
     7
1070
   271
1070
     1
1070
   277
1070
     2
1070
   279
1070
     2
1070
   280
1070
     0
1070
   287
1070
     5
1070
   340
1005
23A
1002
}
  0
DIMENSION
  5
2DE
330
1F
100
AcDbEntity
  8
LAY-10
  6
CONTINUOUS
 62
     4
100
AcDbDimension
  2
*D28
 10
915.0
 20
1145.5
 30
0.0
 11
902.5
 21
915.74999999998
 31
0.0
 70
   160
  3
ISO-25
100
AcDbAlignedDimension
 13
1000.0
 23
685.99999999996
 33
0.0
 14
1000.0
 24
1145.5
 34
0.0
 50
90.0
100
AcDbRotatedDimension
1001
ACAD
1000
DSTYLE
1002
{
1070
   270
1070
     2
1070
     6
1000
EX_BNORM
1070
     7
1000
EX_BNORM
1070
    41
1040
12.5
1070
    42
1040
7.5
1070
    44
1040
7.5
1070
    73
1070
     0
1070
    74
1070
     0
1070
    75
1070
     0
1070
    76
1070
     0
1070
    77
1070
     1
1070
    78
1070
     8
1070
   140
1040
15.590552
1070
   147
1040
0.0
1070
   173
1070
     1
1070
   176
1070
     4
1070
   177
1070
     4
1070
   178
1070
     7
1070
   271
1070
     1
1070
   277
1070
     2
1070
   279
1070
     2
1070
   280
1070
     0
1070
   287
1070
     5
1070
   340
1005
23A
1002
}
  0
DIMENSION
  5
2EB
330
1F
100
AcDbEntity
  8
LAY-10
  6
CONTINUOUS
 62
     4
100
AcDbDimension
  2
*D29
 10
915.0
 20
1218.5000000001
 30
0.0
 11
902.5000000000001
 21
1182.00000000005
 31
0.0
 70
   160
  3
ISO-25
100
AcDbAlignedDimension
 13
915.0
 23
1145.5
 33
0.0
 14
915.0
 24
1218.5000000001
 34
0.0
 50
90.0
100
AcDbRotatedDimension
1001
ACAD
1000
DSTYLE
1002
{
1070
   270
1070
     2
1070
     6
1000
EX_BNORM
1070
     7
1000
EX_BNORM
1070
    41
1040
12.5
1070
    42
1040
0.0
1070
    44
1040
0.0
1070
    73
1070
     0
1070
    74
1070
     0
1070
    75
1070
     1
1070
    76
1070
     1
1070
    77
1070
     1
1070
    78
1070
     8
1070
   140
1040
15.590552
1070
   147
1040
0.0
1070
   173
1070
     1
1070
   176
1070
     4
1070
   177
1070
     4
1070
   178
1070
     7
1070
   271
1070
     1
1070
   277
1070
     2
1070
   279
1070
     2
1070
   280
1070
     0
1070
   287
1070
     5
1070
   340
1005
23A
1002
}
  0
DIMENSION
  5
2F6
330
1F
100
AcDbEntity
  8
LAY-10
  6
CONTINUOUS
 62
     4
100
AcDbDimension
  2
*D30
 10
1225.0
 20
725.0000000000299
 30
0.0
 11
1212.5
 21
950.000000000015
 31
0.0
 70
   160
  1
桝径<>
  3
ISO-25
100
AcDbAlignedDimension
 13
1130.0
 23
1175.0
 33
0.0
 14
1130.0
 24
725.0000000000299
 34
0.0
 50
90.0
100
AcDbRotatedDimension
1001
ACAD
1000
DSTYLE
1002
{
1070
   270
1070
     2
1070
     6
1000
EX_BNORM
1070
     7
1000
EX_BNORM
1070
    41
1040
15.0
1070
    42
1040
7.5
1070
    44
1040
7.5
1070
    73
1070
     0
1070
    74
1070
     0
1070
    75
1070
     0
1070
    76
1070
     0
1070
    77
1070
     1
1070
    78
1070
     8
1070
   140
1040
15.590552
1070
   147
1040
0.0
1070
   173
1070
     1
1070
   176
1070
     4
1070
   177
1070
     4
1070
   178
1070
     7
1070
   271
1070
     1
1070
   277
1070
     2
1070
   279
1070
     2
1070
   280
1070
     0
1070
   287
1070
     5
1070
   340
1005
23A
1002
}
  0
DIMENSION
  5
303
330
1F
100
AcDbEntity
  8
LAY-10
  6
CONTINUOUS
 62
     4
100
AcDbDimension
  2
*D31
 10
700.0000000000299
 20
250.0000000001
 30
0.0
 11
475.0000000000299
 21
262.5000000001
 31
0.0
 70
   160
  1
桝径<>
  3
ISO-25
100
AcDbAlignedDimension
 13
250.00000000003
 23
344.9999999999899
 33
0.0
 14
700.0000000000299
 24
344.9999999999899
 34
0.0
100
AcDbRotatedDimension
1001
ACAD
1000
DSTYLE
1002
{
1070
   270
1070
     2
1070
     6
1000
EX_BNORM
1070
     7
1000
EX_BNORM
1070
    41
1040
15.0
1070
    42
1040
7.5
1070
    44
1040
7.5
1070
    73
1070
     0
1070
    74
1070
     0
1070
    75
1070
     0
1070
    76
1070
     0
1070
    77
1070
     1
1070
    78
1070
     8
1070
   140
1040
15.590552
1070
   147
1040
0.0
1070
   173
1070
     1
1070
   176
1070
     4
1070
   177
1070
     4
1070
   178
1070
     7
1070
   271
1070
     1
1070
   277
1070
     2
1070
   279
1070
     2
1070
   280
1070
     0
1070
   287
1070
     5
1070
   340
1005
23A
1002
}
  0
LINE
  5
310
330
1F
100
AcDbEntity
  8
LAY-10
  6
CENTER
 62
     7
100
AcDbLine
 10
274.999999999955
 20
1182.000000000046
 30
0.0
 11
274.9999999999552
 21
1227.999999999992
 31
0.0
  0
LINE
  5
311
330
1F
100
AcDbEntity
  8
LAY-10
  6
CONTINUOUS
 62
     7
100
AcDbLine
 10
204.500000000003
 20
1220.499999999991
 30
0.0
 11
200.000000000003
 21
1224.999999999991
 31
0.0
  0
LINE
  5
312
330
1F
100
AcDbEntity
  8
LAY-10
  6
CENTER
 62
     7
100
AcDbLine
 10
675.0000000000512
 20
1182.000000000045
 30
0.0
 11
675.0000000000512
 21
1227.999999999991
 31
0.0
  0
LINE
  5
313
330
1F
100
AcDbEntity
  8
LAY-10
  6
CONTINUOUS
 62
     7
100
AcDbLine
 10
745.5000000000035
 20
1220.499999999991
 30
0.0
 11
750.0000000000034
 21
1224.999999999991
 31
0.0
  0
LINE
  5
314
330
1F
100
AcDbEntity
  8
LAY-10
  6
CONTINUOUS
 62
     7
100
AcDbLine
 10
745.5000000000036
 20
1220.499999999991
 30
0.0
 11
204.500000000003
 21
1220.499999999991
 31
0.0
  0
LINE
  5
315
330
1F
100
AcDbEntity
  8
LAY-10
  6
CONTINUOUS
 62
     7
100
AcDbLine
 10
750.0000000000034
 20
1224.999999999991
 30
0.0
 11
200.000000000003
 21
1224.999999999991
 31
0.0
  0
LINE
  5
316
330
1F
100
AcDbEntity
  8
LAY-10
  6
CONTINUOUS
 62
     7
100
AcDbLine
 10
743.5000000000034
 20
1218.499999999991
 30
0.0
 11
206.5000000000032
 21
1218.499999999991
 31
0.0
  0
LINE
  5
317
330
1F
100
AcDbEntity
  8
LAY-10
  6
CONTINUOUS
 62
     7
100
AcDbLine
 10
739.0000000000024
 20
1145.5
 30
0.0
 11
211.0000000000032
 21
1145.5
 31
0.0
  0
LINE
  5
318
330
1F
100
AcDbEntity
  8
LAY-10
  6
CONTINUOUS
 62
     7
100
AcDbLine
 10
743.5000000000033
 20
1150.0000000001
 30
0.0
 11
206.5000000000032
 21
1150.0000000001
 31
0.0
  0
LINE
  5
319
330
1F
100
AcDbEntity
  8
LAY-10
  6
CONTINUOUS
 62
     7
100
AcDbLine
 10
316.0000000000041
 20
1191.499999999955
 30
0.0
 11
316.0000000000041
 21
1197.499999999956
 31
0.0
  0
LINE
  5
31A
330
1F
100
AcDbEntity
  8
LAY-10
  6
CONTINUOUS
 62
     7
100
AcDbLine
 10
297.0000000000041
 20
1191.499999999955
 30
0.0
 11
297.0000000000041
 21
1197.499999999956
 31
0.0
  0
LINE
  5
31B
330
1F
100
AcDbEntity
  8
LAY-10
  6
CONTINUOUS
 62
     7
100
AcDbLine
 10
316.0000000000041
 20
1200.499999999956
 30
0.0
 11
316.0000000000041
 21
1206.499999999955
 31
0.0
  0
LINE
  5
31C
330
1F
100
AcDbEntity
  8
LAY-10
  6
CONTINUOUS
 62
     7
100
AcDbLine
 10
297.0000000000041
 20
1200.499999999956
 30
0.0
 11
297.0000000000041
 21
1206.499999999955
 31
0.0
  0
LINE
  5
31D
330
1F
100
AcDbEntity
  8
LAY-10
  6
CONTINUOUS
 62
     7
100
AcDbLine
 10
233.5000000000041
 20
1191.499999999955
 30
0.0
 11
233.5000000000041
 21
1197.499999999956
 31
0.0
  0
LINE
  5
31E
330
1F
100
AcDbEntity
  8
LAY-10
  6
CONTINUOUS
 62
     7
100
AcDbLine
 10
239.5000000000041
 20
1191.499999999955
 30
0.0
 11
239.5000000000041
 21
1197.499999999956
 31
0.0
  0
LINE
  5
31F
330
1F
100
AcDbEntity
  8
LAY-10
  6
CONTINUOUS
 62
     7
100
AcDbLine
 10
233.5000000000041
 20
1200.499999999956
 30
0.0
 11
233.5000000000041
 21
1206.499999999955
 31
0.0
  0
LINE
  5
320
330
1F
100
AcDbEntity
  8
LAY-10
  6
CONTINUOUS
 62
     7
100
AcDbLine
 10
239.5000000000041
 20
1200.499999999956
 30
0.0
 11
239.5000000000041
 21
1206.499999999955
 31
0.0
  0
LINE
  5
321
330
1F
100
AcDbEntity
  8
LAY-10
  6
CONTINUOUS
 62
     7
100
AcDbLine
 10
233.5000000000041
 20
1209.499999999956
 30
0.0
 11
233.5000000000041
 21
1215.499999999956
 31
0.0
  0
LINE
  5
322
330
1F
100
AcDbEntity
  8
LAY-10
  6
CONTINUOUS
 62
     7
100
AcDbLine
 10
239.5000000000041
 20
1209.499999999956
 30
0.0
 11
239.5000000000041
 21
1215.499999999956
 31
0.0
  0
LINE
  5
323
330
1F
100
AcDbEntity
  8
LAY-10
  6
CONTINUOUS
 62
     7
100
AcDbLine
 10
697.5000000000042
 20
1191.499999999955
 30
0.0
 11
697.5000000000042
 21
1197.499999999956
 31
0.0
  0
LINE
  5
324
330
1F
100
AcDbEntity
  8
LAY-10
  6
CONTINUOUS
 62
     7
100
AcDbLine
 10
703.5000000000033
 20
1191.499999999955
 30
0.0
 11
703.5000000000033
 21
1197.499999999956
 31
0.0
  0
LINE
  5
325
330
1F
100
AcDbEntity
  8
LAY-10
  6
CONTINUOUS
 62
     7
100
AcDbLine
 10
697.5000000000042
 20
1200.499999999956
 30
0.0
 11
697.5000000000042
 21
1206.499999999955
 31
0.0
  0
LINE
  5
326
330
1F
100
AcDbEntity
  8
LAY-10
  6
CONTINUOUS
 62
     7
100
AcDbLine
 10
703.5000000000033
 20
1200.499999999956
 30
0.0
 11
703.5000000000033
 21
1206.499999999955
 31
0.0
  0
LINE
  5
327
330
1F
100
AcDbEntity
  8
LAY-10
  6
CONTINUOUS
 62
     7
100
AcDbLine
 10
697.5000000000042
 20
1209.499999999956
 30
0.0
 11
697.5000000000042
 21
1215.499999999956
 31
0.0
  0
LINE
  5
328
330
1F
100
AcDbEntity
  8
LAY-10
  6
CONTINUOUS
 62
     7
100
AcDbLine
 10
703.5000000000033
 20
1209.499999999956
 30
0.0
 11
703.5000000000033
 21
1215.499999999956
 31
0.0
  0
LINE
  5
329
330
1F
100
AcDbEntity
  8
LAY-10
  6
CONTINUOUS
 62
     7
100
AcDbLine
 10
621.0000000000033
 20
1191.499999999955
 30
0.0
 11
621.0000000000033
 21
1197.499999999956
 31
0.0
  0
LINE
  5
32A
330
1F
100
AcDbEntity
  8
LAY-10
  6
CONTINUOUS
 62
     7
100
AcDbLine
 10
640.0000000000042
 20
1191.499999999955
 30
0.0
 11
640.0000000000042
 21
1197.499999999956
 31
0.0
  0
LINE
  5
32B
330
1F
100
AcDbEntity
  8
LAY-10
  6
CONTINUOUS
 62
     7
100
AcDbLine
 10
621.0000000000033
 20
1200.499999999956
 30
0.0
 11
621.0000000000033
 21
1206.499999999955
 31
0.0
  0
LINE
  5
32C
330
1F
100
AcDbEntity
  8
LAY-10
  6
CONTINUOUS
 62
     7
100
AcDbLine
 10
640.0000000000042
 20
1200.499999999956
 30
0.0
 11
640.0000000000042
 21
1206.499999999955
 31
0.0
  0
LINE
  5
32D
330
1F
100
AcDbEntity
  8
LAY-10
  6
CONTINUOUS
 62
     7
100
AcDbLine
 10
388.0000000000039
 20
1191.499999999956
 30
0.0
 11
388.0000000000039
 21
1197.499999999956
 31
0.0
  0
LINE
  5
32E
330
1F
100
AcDbEntity
  8
LAY-10
  6
CONTINUOUS
 62
     7
100
AcDbLine
 10
394.0000000000041
 20
1191.499999999956
 30
0.0
 11
394.0000000000041
 21
1197.499999999956
 31
0.0
  0
LINE
  5
32F
330
1F
100
AcDbEntity
  8
LAY-10
  6
CONTINUOUS
 62
     7
100
AcDbLine
 10
388.0000000000039
 20
1200.499999999956
 30
0.0
 11
388.0000000000039
 21
1206.499999999956
 31
0.0
  0
LINE
  5
330
330
1F
100
AcDbEntity
  8
LAY-10
  6
CONTINUOUS
 62
     7
100
AcDbLine
 10
394.0000000000041
 20
1200.499999999956
 30
0.0
 11
394.0000000000041
 21
1206.499999999956
 31
0.0
  0
LINE
  5
331
330
1F
100
AcDbEntity
  8
LAY-10
  6
CONTINUOUS
 62
     7
100
AcDbLine
 10
388.0000000000039
 20
1209.499999999956
 30
0.0
 11
388.0000000000039
 21
1215.499999999956
 31
0.0
  0
LINE
  5
332
330
1F
100
AcDbEntity
  8
LAY-10
  6
CONTINUOUS
 62
     7
100
AcDbLine
 10
394.0000000000041
 20
1209.499999999956
 30
0.0
 11
394.0000000000041
 21
1215.499999999956
 31
0.0
  0
LINE
  5
333
330
1F
100
AcDbEntity
  8
LAY-10
  6
CONTINUOUS
 62
     7
100
AcDbLine
 10
543.000000000004
 20
1191.499999999956
 30
0.0
 11
543.000000000004
 21
1197.499999999956
 31
0.0
  0
LINE
  5
334
330
1F
100
AcDbEntity
  8
LAY-10
  6
CONTINUOUS
 62
     7
100
AcDbLine
 10
549.0000000000042
 20
1191.499999999956
 30
0.0
 11
549.0000000000042
 21
1197.499999999956
 31
0.0
  0
LINE
  5
335
330
1F
100
AcDbEntity
  8
LAY-10
  6
CONTINUOUS
 62
     7
100
AcDbLine
 10
543.000000000004
 20
1200.499999999956
 30
0.0
 11
543.000000000004
 21
1206.499999999956
 31
0.0
  0
LINE
  5
336
330
1F
100
AcDbEntity
  8
LAY-10
  6
CONTINUOUS
 62
     7
100
AcDbLine
 10
549.0000000000042
 20
1200.499999999956
 30
0.0
 11
549.0000000000042
 21
1206.499999999956
 31
0.0
  0
LINE
  5
337
330
1F
100
AcDbEntity
  8
LAY-10
  6
CONTINUOUS
 62
     7
100
AcDbLine
 10
543.000000000004
 20
1209.499999999956
 30
0.0
 11
543.000000000004
 21
1215.499999999956
 31
0.0
  0
LINE
  5
338
330
1F
100
AcDbEntity
  8
LAY-10
  6
CONTINUOUS
 62
     7
100
AcDbLine
 10
549.0000000000042
 20
1209.499999999956
 30
0.0
 11
549.0000000000042
 21
1215.499999999956
 31
0.0
  0
LINE
  5
339
330
1F
100
AcDbEntity
  8
LAY-10
  6
CONTINUOUS
 62
     7
100
AcDbLine
 10
206.5000000000045
 20
1152.499999999956
 30
0.0
 11
743.5000000000033
 21
1152.499999999955
 31
0.0
  0
LINE
  5
33A
330
1F
100
AcDbEntity
  8
LAY-10
  6
CONTINUOUS
 62
     7
100
AcDbLine
 10
206.5000000000045
 20
1155.499999999956
 30
0.0
 11
743.5000000000033
 21
1155.499999999955
 31
0.0
  0
LINE
  5
33B
330
1F
100
AcDbEntity
  8
LAY-10
  6
CONTINUOUS
 62
     7
100
AcDbLine
 10
206.5000000000045
 20
1161.499999999955
 30
0.0
 11
743.5000000000033
 21
1161.499999999955
 31
0.0
  0
LINE
  5
33C
330
1F
100
AcDbEntity
  8
LAY-10
  6
CONTINUOUS
 62
     7
100
AcDbLine
 10
206.5000000000045
 20
1164.499999999956
 30
0.0
 11
743.5000000000033
 21
1164.499999999955
 31
0.0
  0
LINE
  5
33D
330
1F
100
AcDbEntity
  8
LAY-10
  6
CONTINUOUS
 62
     7
100
AcDbLine
 10
206.5000000000045
 20
1170.499999999956
 30
0.0
 11
743.5000000000033
 21
1170.499999999955
 31
0.0
  0
LINE
  5
33E
330
1F
100
AcDbEntity
  8
LAY-10
  6
CONTINUOUS
 62
     7
100
AcDbLine
 10
206.5000000000045
 20
1173.499999999956
 30
0.0
 11
743.5000000000033
 21
1173.499999999955
 31
0.0
  0
LINE
  5
33F
330
1F
100
AcDbEntity
  8
LAY-10
  6
CONTINUOUS
 62
     7
100
AcDbLine
 10
206.5000000000045
 20
1179.499999999956
 30
0.0
 11
743.5000000000033
 21
1179.499999999955
 31
0.0
  0
LINE
  5
340
330
1F
100
AcDbEntity
  8
LAY-10
  6
CONTINUOUS
 62
     7
100
AcDbLine
 10
206.5000000000045
 20
1182.499999999956
 30
0.0
 11
743.5000000000033
 21
1182.499999999955
 31
0.0
  0
LINE
  5
341
330
1F
100
AcDbEntity
  8
LAY-10
  6
CONTINUOUS
 62
     7
100
AcDbLine
 10
206.5000000000045
 20
1188.499999999956
 30
0.0
 11
743.5000000000033
 21
1188.499999999955
 31
0.0
  0
LINE
  5
342
330
1F
100
AcDbEntity
  8
LAY-10
  6
CONTINUOUS
 62
     7
100
AcDbLine
 10
206.5000000000045
 20
1191.499999999955
 30
0.0
 11
743.5000000000033
 21
1191.499999999955
 31
0.0
  0
LINE
  5
343
330
1F
100
AcDbEntity
  8
LAY-10
  6
CONTINUOUS
 62
     7
100
AcDbLine
 10
743.5000000000034
 20
1215.499999999956
 30
0.0
 11
206.5000000000045
 21
1215.499999999956
 31
0.0
  0
LINE
  5
344
330
1F
100
AcDbEntity
  8
LAY-10
  6
CONTINUOUS
 62
     7
100
AcDbLine
 10
206.5000000000045
 20
1197.499999999956
 30
0.0
 11
743.5000000000033
 21
1197.499999999955
 31
0.0
  0
LINE
  5
345
330
1F
100
AcDbEntity
  8
LAY-10
  6
CONTINUOUS
 62
     7
100
AcDbLine
 10
206.5000000000045
 20
1200.499999999956
 30
0.0
 11
743.5000000000033
 21
1200.499999999955
 31
0.0
  0
LINE
  5
346
330
1F
100
AcDbEntity
  8
LAY-10
  6
CONTINUOUS
 62
     7
100
AcDbLine
 10
206.5000000000045
 20
1206.499999999955
 30
0.0
 11
743.5000000000033
 21
1206.499999999955
 31
0.0
  0
LINE
  5
347
330
1F
100
AcDbEntity
  8
LAY-10
  6
CONTINUOUS
 62
     7
100
AcDbLine
 10
206.5000000000045
 20
1209.499999999956
 30
0.0
 11
743.5000000000033
 21
1209.499999999955
 31
0.0
  0
LINE
  5
348
330
1F
100
AcDbEntity
  8
LAY-10
  6
CONTINUOUS
 62
     7
100
AcDbLine
 10
212.5000000000045
 20
1161.500000000005
 30
0.0
 11
212.5000000000045
 21
1164.500000000005
 31
0.0
  0
LINE
  5
349
330
1F
100
AcDbEntity
  8
LAY-10
  6
CONTINUOUS
 62
     7
100
AcDbLine
 10
212.5000000000045
 20
1170.500000000005
 30
0.0
 11
212.5000000000045
 21
1173.500000000005
 31
0.0
  0
LINE
  5
34A
330
1F
100
AcDbEntity
  8
LAY-10
  6
CONTINUOUS
 62
     7
100
AcDbLine
 10
212.5000000000045
 20
1179.500000000005
 30
0.0
 11
212.5000000000045
 21
1182.500000000005
 31
0.0
  0
LINE
  5
34B
330
1F
100
AcDbEntity
  8
LAY-10
  6
CONTINUOUS
 62
     7
100
AcDbLine
 10
212.5000000000045
 20
1188.500000000005
 30
0.0
 11
212.5000000000045
 21
1191.500000000005
 31
0.0
  0
LINE
  5
34C
330
1F
100
AcDbEntity
  8
LAY-10
  6
CONTINUOUS
 62
     7
100
AcDbLine
 10
212.5000000000045
 20
1197.500000000005
 30
0.0
 11
212.5000000000045
 21
1200.500000000005
 31
0.0
  0
LINE
  5
34D
330
1F
100
AcDbEntity
  8
LAY-10
  6
CONTINUOUS
 62
     7
100
AcDbLine
 10
212.5000000000045
 20
1206.500000000005
 30
0.0
 11
212.5000000000045
 21
1209.500000000005
 31
0.0
  0
LINE
  5
34E
330
1F
100
AcDbEntity
  8
LAY-10
  6
CONTINUOUS
 62
     7
100
AcDbLine
 10
217.5000000000045
 20
1209.500000000005
 30
0.0
 11
217.5000000000045
 21
1206.500000000005
 31
0.0
  0
LINE
  5
34F
330
1F
100
AcDbEntity
  8
LAY-10
  6
CONTINUOUS
 62
     7
100
AcDbLine
 10
217.5000000000045
 20
1200.500000000005
 30
0.0
 11
217.5000000000045
 21
1197.500000000005
 31
0.0
  0
LINE
  5
350
330
1F
100
AcDbEntity
  8
LAY-10
  6
CONTINUOUS
 62
     7
100
AcDbLine
 10
217.5000000000045
 20
1191.500000000005
 30
0.0
 11
217.5000000000045
 21
1188.500000000005
 31
0.0
  0
LINE
  5
351
330
1F
100
AcDbEntity
  8
LAY-10
  6
CONTINUOUS
 62
     7
100
AcDbLine
 10
217.5000000000045
 20
1182.500000000005
 30
0.0
 11
217.5000000000045
 21
1179.500000000005
 31
0.0
  0
LINE
  5
352
330
1F
100
AcDbEntity
  8
LAY-10
  6
CONTINUOUS
 62
     7
100
AcDbLine
 10
217.5000000000045
 20
1173.500000000005
 30
0.0
 11
217.5000000000045
 21
1170.500000000005
 31
0.0
  0
LINE
  5
353
330
1F
100
AcDbEntity
  8
LAY-10
  6
CONTINUOUS
 62
     7
100
AcDbLine
 10
217.5000000000045
 20
1164.500000000005
 30
0.0
 11
217.5000000000045
 21
1161.500000000005
 31
0.0
  0
LINE
  5
354
330
1F
100
AcDbEntity
  8
LAY-10
  6
CONTINUOUS
 62
     7
100
AcDbLine
 10
222.5000000000043
 20
1161.500000000005
 30
0.0
 11
222.5000000000043
 21
1164.500000000005
 31
0.0
  0
LINE
  5
355
330
1F
100
AcDbEntity
  8
LAY-10
  6
CONTINUOUS
 62
     7
100
AcDbLine
 10
222.5000000000043
 20
1170.500000000005
 30
0.0
 11
222.5000000000043
 21
1173.500000000005
 31
0.0
  0
LINE
  5
356
330
1F
100
AcDbEntity
  8
LAY-10
  6
CONTINUOUS
 62
     7
100
AcDbLine
 10
222.5000000000043
 20
1179.500000000005
 30
0.0
 11
222.5000000000043
 21
1182.500000000005
 31
0.0
  0
LINE
  5
357
330
1F
100
AcDbEntity
  8
LAY-10
  6
CONTINUOUS
 62
     7
100
AcDbLine
 10
222.5000000000043
 20
1188.500000000005
 30
0.0
 11
222.5000000000043
 21
1191.500000000005
 31
0.0
  0
LINE
  5
358
330
1F
100
AcDbEntity
  8
LAY-10
  6
CONTINUOUS
 62
     7
100
AcDbLine
 10
222.5000000000043
 20
1197.500000000005
 30
0.0
 11
222.5000000000043
 21
1200.500000000005
 31
0.0
  0
LINE
  5
359
330
1F
100
AcDbEntity
  8
LAY-10
  6
CONTINUOUS
 62
     7
100
AcDbLine
 10
222.5000000000043
 20
1206.500000000005
 30
0.0
 11
222.5000000000043
 21
1209.500000000005
 31
0.0
  0
LINE
  5
35A
330
1F
100
AcDbEntity
  8
LAY-10
  6
CONTINUOUS
 62
     7
100
AcDbLine
 10
227.5000000000043
 20
1209.500000000005
 30
0.0
 11
227.5000000000043
 21
1206.500000000005
 31
0.0
  0
LINE
  5
35B
330
1F
100
AcDbEntity
  8
LAY-10
  6
CONTINUOUS
 62
     7
100
AcDbLine
 10
227.5000000000043
 20
1200.500000000005
 30
0.0
 11
227.5000000000043
 21
1197.500000000005
 31
0.0
  0
LINE
  5
35C
330
1F
100
AcDbEntity
  8
LAY-10
  6
CONTINUOUS
 62
     7
100
AcDbLine
 10
227.5000000000043
 20
1191.500000000005
 30
0.0
 11
227.5000000000043
 21
1188.500000000005
 31
0.0
  0
LINE
  5
35D
330
1F
100
AcDbEntity
  8
LAY-10
  6
CONTINUOUS
 62
     7
100
AcDbLine
 10
227.5000000000043
 20
1182.500000000005
 30
0.0
 11
227.5000000000043
 21
1179.500000000005
 31
0.0
  0
LINE
  5
35E
330
1F
100
AcDbEntity
  8
LAY-10
  6
CONTINUOUS
 62
     7
100
AcDbLine
 10
227.5000000000043
 20
1173.500000000005
 30
0.0
 11
227.5000000000043
 21
1170.500000000005
 31
0.0
  0
LINE
  5
35F
330
1F
100
AcDbEntity
  8
LAY-10
  6
CONTINUOUS
 62
     7
100
AcDbLine
 10
227.5000000000043
 20
1164.500000000005
 30
0.0
 11
227.5000000000043
 21
1161.500000000005
 31
0.0
  0
LINE
  5
360
330
1F
100
AcDbEntity
  8
LAY-10
  6
CONTINUOUS
 62
     7
100
AcDbLine
 10
232.5000000000043
 20
1161.500000000005
 30
0.0
 11
232.5000000000043
 21
1164.500000000005
 31
0.0
  0
LINE
  5
361
330
1F
100
AcDbEntity
  8
LAY-10
  6
CONTINUOUS
 62
     7
100
AcDbLine
 10
232.5000000000043
 20
1170.500000000005
 30
0.0
 11
232.5000000000043
 21
1173.500000000005
 31
0.0
  0
LINE
  5
362
330
1F
100
AcDbEntity
  8
LAY-10
  6
CONTINUOUS
 62
     7
100
AcDbLine
 10
232.5000000000043
 20
1179.500000000005
 30
0.0
 11
232.5000000000043
 21
1182.500000000005
 31
0.0
  0
LINE
  5
363
330
1F
100
AcDbEntity
  8
LAY-10
  6
CONTINUOUS
 62
     7
100
AcDbLine
 10
232.5000000000043
 20
1188.500000000005
 30
0.0
 11
232.5000000000043
 21
1191.500000000005
 31
0.0
  0
LINE
  5
364
330
1F
100
AcDbEntity
  8
LAY-10
  6
CONTINUOUS
 62
     7
100
AcDbLine
 10
232.5000000000043
 20
1197.500000000005
 30
0.0
 11
232.5000000000043
 21
1200.500000000005
 31
0.0
  0
LINE
  5
365
330
1F
100
AcDbEntity
  8
LAY-10
  6
CONTINUOUS
 62
     7
100
AcDbLine
 10
232.5000000000043
 20
1206.500000000005
 30
0.0
 11
232.5000000000043
 21
1209.500000000005
 31
0.0
  0
LINE
  5
366
330
1F
100
AcDbEntity
  8
LAY-10
  6
CONTINUOUS
 62
     7
100
AcDbLine
 10
237.5000000000043
 20
1209.500000000005
 30
0.0
 11
237.5000000000043
 21
1206.500000000005
 31
0.0
  0
LINE
  5
367
330
1F
100
AcDbEntity
  8
LAY-10
  6
CONTINUOUS
 62
     7
100
AcDbLine
 10
237.5000000000043
 20
1200.500000000005
 30
0.0
 11
237.5000000000043
 21
1197.500000000005
 31
0.0
  0
LINE
  5
368
330
1F
100
AcDbEntity
  8
LAY-10
  6
CONTINUOUS
 62
     7
100
AcDbLine
 10
237.5000000000043
 20
1191.500000000005
 30
0.0
 11
237.5000000000043
 21
1188.500000000005
 31
0.0
  0
LINE
  5
369
330
1F
100
AcDbEntity
  8
LAY-10
  6
CONTINUOUS
 62
     7
100
AcDbLine
 10
242.5000000000043
 20
1188.500000000005
 30
0.0
 11
242.5000000000043
 21
1191.500000000005
 31
0.0
  0
LINE
  5
36A
330
1F
100
AcDbEntity
  8
LAY-10
  6
CONTINUOUS
 62
     7
100
AcDbLine
 10
242.5000000000043
 20
1197.500000000005
 30
0.0
 11
242.5000000000043
 21
1200.500000000005
 31
0.0
  0
LINE
  5
36B
330
1F
100
AcDbEntity
  8
LAY-10
  6
CONTINUOUS
 62
     7
100
AcDbLine
 10
242.5000000000043
 20
1206.500000000005
 30
0.0
 11
242.5000000000043
 21
1209.500000000005
 31
0.0
  0
LINE
  5
36C
330
1F
100
AcDbEntity
  8
LAY-10
  6
CONTINUOUS
 62
     7
100
AcDbLine
 10
247.5000000000043
 20
1209.500000000005
 30
0.0
 11
247.5000000000043
 21
1206.500000000005
 31
0.0
  0
LINE
  5
36D
330
1F
100
AcDbEntity
  8
LAY-10
  6
CONTINUOUS
 62
     7
100
AcDbLine
 10
247.5000000000043
 20
1200.500000000005
 30
0.0
 11
247.5000000000043
 21
1197.500000000005
 31
0.0
  0
LINE
  5
36E
330
1F
100
AcDbEntity
  8
LAY-10
  6
CONTINUOUS
 62
     7
100
AcDbLine
 10
247.5000000000043
 20
1191.500000000005
 30
0.0
 11
247.5000000000043
 21
1188.500000000005
 31
0.0
  0
LINE
  5
36F
330
1F
100
AcDbEntity
  8
LAY-10
  6
CONTINUOUS
 62
     7
100
AcDbLine
 10
252.5000000000043
 20
1188.500000000005
 30
0.0
 11
252.5000000000043
 21
1191.500000000005
 31
0.0
  0
LINE
  5
370
330
1F
100
AcDbEntity
  8
LAY-10
  6
CONTINUOUS
 62
     7
100
AcDbLine
 10
252.5000000000043
 20
1197.500000000005
 30
0.0
 11
252.5000000000043
 21
1200.500000000005
 31
0.0
  0
LINE
  5
371
330
1F
100
AcDbEntity
  8
LAY-10
  6
CONTINUOUS
 62
     7
100
AcDbLine
 10
252.5000000000043
 20
1206.500000000005
 30
0.0
 11
252.5000000000043
 21
1209.500000000005
 31
0.0
  0
LINE
  5
372
330
1F
100
AcDbEntity
  8
LAY-10
  6
CONTINUOUS
 62
     7
100
AcDbLine
 10
257.5000000000043
 20
1209.500000000005
 30
0.0
 11
257.5000000000043
 21
1206.500000000005
 31
0.0
  0
LINE
  5
373
330
1F
100
AcDbEntity
  8
LAY-10
  6
CONTINUOUS
 62
     7
100
AcDbLine
 10
257.5000000000043
 20
1200.500000000005
 30
0.0
 11
257.5000000000043
 21
1197.500000000005
 31
0.0
  0
LINE
  5
374
330
1F
100
AcDbEntity
  8
LAY-10
  6
CONTINUOUS
 62
     7
100
AcDbLine
 10
257.5000000000043
 20
1191.500000000005
 30
0.0
 11
257.5000000000043
 21
1188.500000000005
 31
0.0
  0
LINE
  5
375
330
1F
100
AcDbEntity
  8
LAY-10
  6
CONTINUOUS
 62
     7
100
AcDbLine
 10
262.5000000000043
 20
1188.500000000005
 30
0.0
 11
262.5000000000043
 21
1191.500000000005
 31
0.0
  0
LINE
  5
376
330
1F
100
AcDbEntity
  8
LAY-10
  6
CONTINUOUS
 62
     7
100
AcDbLine
 10
262.5000000000043
 20
1197.500000000005
 30
0.0
 11
262.5000000000043
 21
1200.500000000005
 31
0.0
  0
LINE
  5
377
330
1F
100
AcDbEntity
  8
LAY-10
  6
CONTINUOUS
 62
     7
100
AcDbLine
 10
262.5000000000043
 20
1206.500000000005
 30
0.0
 11
262.5000000000043
 21
1209.500000000005
 31
0.0
  0
LINE
  5
378
330
1F
100
AcDbEntity
  8
LAY-10
  6
CONTINUOUS
 62
     7
100
AcDbLine
 10
267.5000000000043
 20
1209.500000000005
 30
0.0
 11
267.5000000000043
 21
1206.500000000005
 31
0.0
  0
LINE
  5
379
330
1F
100
AcDbEntity
  8
LAY-10
  6
CONTINUOUS
 62
     7
100
AcDbLine
 10
267.5000000000043
 20
1200.500000000005
 30
0.0
 11
267.5000000000043
 21
1197.500000000005
 31
0.0
  0
LINE
  5
37A
330
1F
100
AcDbEntity
  8
LAY-10
  6
CONTINUOUS
 62
     7
100
AcDbLine
 10
267.5000000000043
 20
1191.500000000005
 30
0.0
 11
267.5000000000043
 21
1188.500000000005
 31
0.0
  0
LINE
  5
37B
330
1F
100
AcDbEntity
  8
LAY-10
  6
CONTINUOUS
 62
     7
100
AcDbLine
 10
272.5000000000043
 20
1188.500000000005
 30
0.0
 11
272.5000000000043
 21
1191.500000000005
 31
0.0
  0
LINE
  5
37C
330
1F
100
AcDbEntity
  8
LAY-10
  6
CONTINUOUS
 62
     7
100
AcDbLine
 10
272.5000000000043
 20
1197.500000000005
 30
0.0
 11
272.5000000000043
 21
1200.500000000005
 31
0.0
  0
LINE
  5
37D
330
1F
100
AcDbEntity
  8
LAY-10
  6
CONTINUOUS
 62
     7
100
AcDbLine
 10
272.5000000000043
 20
1206.500000000005
 30
0.0
 11
272.5000000000043
 21
1209.500000000005
 31
0.0
  0
LINE
  5
37E
330
1F
100
AcDbEntity
  8
LAY-10
  6
CONTINUOUS
 62
     7
100
AcDbLine
 10
277.5000000000043
 20
1209.500000000005
 30
0.0
 11
277.5000000000043
 21
1206.500000000005
 31
0.0
  0
LINE
  5
37F
330
1F
100
AcDbEntity
  8
LAY-10
  6
CONTINUOUS
 62
     7
100
AcDbLine
 10
277.5000000000043
 20
1200.500000000005
 30
0.0
 11
277.5000000000043
 21
1197.500000000005
 31
0.0
  0
LINE
  5
380
330
1F
100
AcDbEntity
  8
LAY-10
  6
CONTINUOUS
 62
     7
100
AcDbLine
 10
277.5000000000043
 20
1191.500000000005
 30
0.0
 11
277.5000000000043
 21
1188.500000000005
 31
0.0
  0
LINE
  5
381
330
1F
100
AcDbEntity
  8
LAY-10
  6
CONTINUOUS
 62
     7
100
AcDbLine
 10
282.5000000000043
 20
1188.500000000005
 30
0.0
 11
282.5000000000043
 21
1191.500000000005
 31
0.0
  0
LINE
  5
382
330
1F
100
AcDbEntity
  8
LAY-10
  6
CONTINUOUS
 62
     7
100
AcDbLine
 10
282.5000000000043
 20
1197.500000000005
 30
0.0
 11
282.5000000000043
 21
1200.500000000005
 31
0.0
  0
LINE
  5
383
330
1F
100
AcDbEntity
  8
LAY-10
  6
CONTINUOUS
 62
     7
100
AcDbLine
 10
282.5000000000043
 20
1206.500000000005
 30
0.0
 11
282.5000000000043
 21
1209.500000000005
 31
0.0
  0
LINE
  5
384
330
1F
100
AcDbEntity
  8
LAY-10
  6
CONTINUOUS
 62
     7
100
AcDbLine
 10
287.5000000000043
 20
1209.500000000005
 30
0.0
 11
287.5000000000043
 21
1206.500000000005
 31
0.0
  0
LINE
  5
385
330
1F
100
AcDbEntity
  8
LAY-10
  6
CONTINUOUS
 62
     7
100
AcDbLine
 10
287.5000000000043
 20
1200.500000000005
 30
0.0
 11
287.5000000000043
 21
1197.500000000005
 31
0.0
  0
LINE
  5
386
330
1F
100
AcDbEntity
  8
LAY-10
  6
CONTINUOUS
 62
     7
100
AcDbLine
 10
287.5000000000043
 20
1191.500000000005
 30
0.0
 11
287.5000000000043
 21
1188.500000000005
 31
0.0
  0
LINE
  5
387
330
1F
100
AcDbEntity
  8
LAY-10
  6
CONTINUOUS
 62
     7
100
AcDbLine
 10
292.5000000000043
 20
1188.500000000005
 30
0.0
 11
292.5000000000043
 21
1191.500000000005
 31
0.0
  0
LINE
  5
388
330
1F
100
AcDbEntity
  8
LAY-10
  6
CONTINUOUS
 62
     7
100
AcDbLine
 10
292.5000000000043
 20
1197.500000000005
 30
0.0
 11
292.5000000000043
 21
1200.500000000005
 31
0.0
  0
LINE
  5
389
330
1F
100
AcDbEntity
  8
LAY-10
  6
CONTINUOUS
 62
     7
100
AcDbLine
 10
292.5000000000043
 20
1206.500000000005
 30
0.0
 11
292.5000000000043
 21
1209.500000000005
 31
0.0
  0
LINE
  5
38A
330
1F
100
AcDbEntity
  8
LAY-10
  6
CONTINUOUS
 62
     7
100
AcDbLine
 10
297.5000000000043
 20
1209.500000000005
 30
0.0
 11
297.5000000000043
 21
1206.500000000005
 31
0.0
  0
LINE
  5
38B
330
1F
100
AcDbEntity
  8
LAY-10
  6
CONTINUOUS
 62
     7
100
AcDbLine
 10
297.5000000000043
 20
1200.500000000005
 30
0.0
 11
297.5000000000043
 21
1197.500000000005
 31
0.0
  0
LINE
  5
38C
330
1F
100
AcDbEntity
  8
LAY-10
  6
CONTINUOUS
 62
     7
100
AcDbLine
 10
297.5000000000043
 20
1191.500000000005
 30
0.0
 11
297.5000000000043
 21
1188.500000000005
 31
0.0
  0
LINE
  5
38D
330
1F
100
AcDbEntity
  8
LAY-10
  6
CONTINUOUS
 62
     7
100
AcDbLine
 10
302.5000000000043
 20
1188.500000000005
 30
0.0
 11
302.5000000000043
 21
1191.500000000005
 31
0.0
  0
LINE
  5
38E
330
1F
100
AcDbEntity
  8
LAY-10
  6
CONTINUOUS
 62
     7
100
AcDbLine
 10
302.5000000000043
 20
1197.500000000005
 30
0.0
 11
302.5000000000043
 21
1200.500000000005
 31
0.0
  0
LINE
  5
38F
330
1F
100
AcDbEntity
  8
LAY-10
  6
CONTINUOUS
 62
     7
100
AcDbLine
 10
302.5000000000043
 20
1206.500000000005
 30
0.0
 11
302.5000000000043
 21
1209.500000000005
 31
0.0
  0
LINE
  5
390
330
1F
100
AcDbEntity
  8
LAY-10
  6
CONTINUOUS
 62
     7
100
AcDbLine
 10
307.5000000000043
 20
1209.500000000005
 30
0.0
 11
307.5000000000043
 21
1206.500000000005
 31
0.0
  0
LINE
  5
391
330
1F
100
AcDbEntity
  8
LAY-10
  6
CONTINUOUS
 62
     7
100
AcDbLine
 10
307.5000000000043
 20
1200.500000000005
 30
0.0
 11
307.5000000000043
 21
1197.500000000005
 31
0.0
  0
LINE
  5
392
330
1F
100
AcDbEntity
  8
LAY-10
  6
CONTINUOUS
 62
     7
100
AcDbLine
 10
307.5000000000043
 20
1191.500000000005
 30
0.0
 11
307.5000000000043
 21
1188.500000000005
 31
0.0
  0
LINE
  5
393
330
1F
100
AcDbEntity
  8
LAY-10
  6
CONTINUOUS
 62
     7
100
AcDbLine
 10
312.5000000000043
 20
1188.500000000005
 30
0.0
 11
312.5000000000043
 21
1191.500000000005
 31
0.0
  0
LINE
  5
394
330
1F
100
AcDbEntity
  8
LAY-10
  6
CONTINUOUS
 62
     7
100
AcDbLine
 10
312.5000000000043
 20
1197.500000000005
 30
0.0
 11
312.5000000000043
 21
1200.500000000005
 31
0.0
  0
LINE
  5
395
330
1F
100
AcDbEntity
  8
LAY-10
  6
CONTINUOUS
 62
     7
100
AcDbLine
 10
312.5000000000043
 20
1206.500000000005
 30
0.0
 11
312.5000000000043
 21
1209.500000000005
 31
0.0
  0
LINE
  5
396
330
1F
100
AcDbEntity
  8
LAY-10
  6
CONTINUOUS
 62
     7
100
AcDbLine
 10
317.5000000000043
 20
1209.500000000005
 30
0.0
 11
317.5000000000043
 21
1206.500000000005
 31
0.0
  0
LINE
  5
397
330
1F
100
AcDbEntity
  8
LAY-10
  6
CONTINUOUS
 62
     7
100
AcDbLine
 10
317.5000000000043
 20
1200.500000000005
 30
0.0
 11
317.5000000000043
 21
1197.500000000005
 31
0.0
  0
LINE
  5
398
330
1F
100
AcDbEntity
  8
LAY-10
  6
CONTINUOUS
 62
     7
100
AcDbLine
 10
317.5000000000043
 20
1191.500000000005
 30
0.0
 11
317.5000000000043
 21
1188.500000000005
 31
0.0
  0
LINE
  5
399
330
1F
100
AcDbEntity
  8
LAY-10
  6
CONTINUOUS
 62
     7
100
AcDbLine
 10
322.5000000000043
 20
1188.500000000005
 30
0.0
 11
322.5000000000043
 21
1191.500000000005
 31
0.0
  0
LINE
  5
39A
330
1F
100
AcDbEntity
  8
LAY-10
  6
CONTINUOUS
 62
     7
100
AcDbLine
 10
322.5000000000043
 20
1197.500000000005
 30
0.0
 11
322.5000000000043
 21
1200.500000000005
 31
0.0
  0
LINE
  5
39B
330
1F
100
AcDbEntity
  8
LAY-10
  6
CONTINUOUS
 62
     7
100
AcDbLine
 10
322.5000000000043
 20
1206.500000000005
 30
0.0
 11
322.5000000000043
 21
1209.500000000005
 31
0.0
  0
LINE
  5
39C
330
1F
100
AcDbEntity
  8
LAY-10
  6
CONTINUOUS
 62
     7
100
AcDbLine
 10
327.5000000000043
 20
1209.500000000005
 30
0.0
 11
327.5000000000043
 21
1206.500000000005
 31
0.0
  0
LINE
  5
39D
330
1F
100
AcDbEntity
  8
LAY-10
  6
CONTINUOUS
 62
     7
100
AcDbLine
 10
327.5000000000043
 20
1200.500000000005
 30
0.0
 11
327.5000000000043
 21
1197.500000000005
 31
0.0
  0
LINE
  5
39E
330
1F
100
AcDbEntity
  8
LAY-10
  6
CONTINUOUS
 62
     7
100
AcDbLine
 10
327.5000000000043
 20
1191.500000000005
 30
0.0
 11
327.5000000000043
 21
1188.500000000005
 31
0.0
  0
LINE
  5
39F
330
1F
100
AcDbEntity
  8
LAY-10
  6
CONTINUOUS
 62
     7
100
AcDbLine
 10
332.5000000000043
 20
1188.500000000005
 30
0.0
 11
332.5000000000043
 21
1191.500000000005
 31
0.0
  0
LINE
  5
3A0
330
1F
100
AcDbEntity
  8
LAY-10
  6
CONTINUOUS
 62
     7
100
AcDbLine
 10
332.5000000000043
 20
1197.500000000005
 30
0.0
 11
332.5000000000043
 21
1200.500000000005
 31
0.0
  0
LINE
  5
3A1
330
1F
100
AcDbEntity
  8
LAY-10
  6
CONTINUOUS
 62
     7
100
AcDbLine
 10
332.5000000000043
 20
1206.500000000005
 30
0.0
 11
332.5000000000043
 21
1209.500000000005
 31
0.0
  0
LINE
  5
3A2
330
1F
100
AcDbEntity
  8
LAY-10
  6
CONTINUOUS
 62
     7
100
AcDbLine
 10
337.5000000000043
 20
1209.500000000005
 30
0.0
 11
337.5000000000043
 21
1206.500000000005
 31
0.0
  0
LINE
  5
3A3
330
1F
100
AcDbEntity
  8
LAY-10
  6
CONTINUOUS
 62
     7
100
AcDbLine
 10
337.5000000000043
 20
1200.500000000005
 30
0.0
 11
337.5000000000043
 21
1197.500000000005
 31
0.0
  0
LINE
  5
3A4
330
1F
100
AcDbEntity
  8
LAY-10
  6
CONTINUOUS
 62
     7
100
AcDbLine
 10
337.5000000000043
 20
1191.500000000005
 30
0.0
 11
337.5000000000043
 21
1188.500000000005
 31
0.0
  0
LINE
  5
3A5
330
1F
100
AcDbEntity
  8
LAY-10
  6
CONTINUOUS
 62
     7
100
AcDbLine
 10
342.5000000000043
 20
1188.500000000005
 30
0.0
 11
342.5000000000043
 21
1191.500000000005
 31
0.0
  0
LINE
  5
3A6
330
1F
100
AcDbEntity
  8
LAY-10
  6
CONTINUOUS
 62
     7
100
AcDbLine
 10
342.5000000000043
 20
1197.500000000005
 30
0.0
 11
342.5000000000043
 21
1200.500000000005
 31
0.0
  0
LINE
  5
3A7
330
1F
100
AcDbEntity
  8
LAY-10
  6
CONTINUOUS
 62
     7
100
AcDbLine
 10
342.5000000000043
 20
1206.500000000005
 30
0.0
 11
342.5000000000043
 21
1209.500000000005
 31
0.0
  0
LINE
  5
3A8
330
1F
100
AcDbEntity
  8
LAY-10
  6
CONTINUOUS
 62
     7
100
AcDbLine
 10
347.5000000000043
 20
1209.500000000005
 30
0.0
 11
347.5000000000043
 21
1206.500000000005
 31
0.0
  0
LINE
  5
3A9
330
1F
100
AcDbEntity
  8
LAY-10
  6
CONTINUOUS
 62
     7
100
AcDbLine
 10
347.5000000000043
 20
1200.500000000005
 30
0.0
 11
347.5000000000043
 21
1197.500000000005
 31
0.0
  0
LINE
  5
3AA
330
1F
100
AcDbEntity
  8
LAY-10
  6
CONTINUOUS
 62
     7
100
AcDbLine
 10
347.5000000000043
 20
1191.500000000005
 30
0.0
 11
347.5000000000043
 21
1188.500000000005
 31
0.0
  0
LINE
  5
3AB
330
1F
100
AcDbEntity
  8
LAY-10
  6
CONTINUOUS
 62
     7
100
AcDbLine
 10
352.5000000000043
 20
1188.500000000005
 30
0.0
 11
352.5000000000043
 21
1191.500000000005
 31
0.0
  0
LINE
  5
3AC
330
1F
100
AcDbEntity
  8
LAY-10
  6
CONTINUOUS
 62
     7
100
AcDbLine
 10
352.5000000000043
 20
1197.500000000005
 30
0.0
 11
352.5000000000043
 21
1200.500000000005
 31
0.0
  0
LINE
  5
3AD
330
1F
100
AcDbEntity
  8
LAY-10
  6
CONTINUOUS
 62
     7
100
AcDbLine
 10
352.5000000000043
 20
1206.500000000005
 30
0.0
 11
352.5000000000043
 21
1209.500000000005
 31
0.0
  0
LINE
  5
3AE
330
1F
100
AcDbEntity
  8
LAY-10
  6
CONTINUOUS
 62
     7
100
AcDbLine
 10
357.5000000000043
 20
1209.500000000005
 30
0.0
 11
357.5000000000043
 21
1206.500000000005
 31
0.0
  0
LINE
  5
3AF
330
1F
100
AcDbEntity
  8
LAY-10
  6
CONTINUOUS
 62
     7
100
AcDbLine
 10
357.5000000000043
 20
1200.500000000005
 30
0.0
 11
357.5000000000043
 21
1197.500000000005
 31
0.0
  0
LINE
  5
3B0
330
1F
100
AcDbEntity
  8
LAY-10
  6
CONTINUOUS
 62
     7
100
AcDbLine
 10
357.5000000000043
 20
1191.500000000005
 30
0.0
 11
357.5000000000043
 21
1188.500000000005
 31
0.0
  0
LINE
  5
3B1
330
1F
100
AcDbEntity
  8
LAY-10
  6
CONTINUOUS
 62
     7
100
AcDbLine
 10
362.5000000000043
 20
1188.500000000005
 30
0.0
 11
362.5000000000043
 21
1191.500000000005
 31
0.0
  0
LINE
  5
3B2
330
1F
100
AcDbEntity
  8
LAY-10
  6
CONTINUOUS
 62
     7
100
AcDbLine
 10
362.5000000000043
 20
1197.500000000005
 30
0.0
 11
362.5000000000043
 21
1200.500000000005
 31
0.0
  0
LINE
  5
3B3
330
1F
100
AcDbEntity
  8
LAY-10
  6
CONTINUOUS
 62
     7
100
AcDbLine
 10
362.5000000000043
 20
1206.500000000005
 30
0.0
 11
362.5000000000043
 21
1209.500000000005
 31
0.0
  0
LINE
  5
3B4
330
1F
100
AcDbEntity
  8
LAY-10
  6
CONTINUOUS
 62
     7
100
AcDbLine
 10
367.5000000000043
 20
1209.500000000005
 30
0.0
 11
367.5000000000043
 21
1206.500000000005
 31
0.0
  0
LINE
  5
3B5
330
1F
100
AcDbEntity
  8
LAY-10
  6
CONTINUOUS
 62
     7
100
AcDbLine
 10
367.5000000000043
 20
1200.500000000005
 30
0.0
 11
367.5000000000043
 21
1197.500000000005
 31
0.0
  0
LINE
  5
3B6
330
1F
100
AcDbEntity
  8
LAY-10
  6
CONTINUOUS
 62
     7
100
AcDbLine
 10
367.5000000000043
 20
1191.500000000005
 30
0.0
 11
367.5000000000043
 21
1188.500000000005
 31
0.0
  0
LINE
  5
3B7
330
1F
100
AcDbEntity
  8
LAY-10
  6
CONTINUOUS
 62
     7
100
AcDbLine
 10
372.5000000000043
 20
1188.500000000005
 30
0.0
 11
372.5000000000043
 21
1191.500000000005
 31
0.0
  0
LINE
  5
3B8
330
1F
100
AcDbEntity
  8
LAY-10
  6
CONTINUOUS
 62
     7
100
AcDbLine
 10
372.5000000000043
 20
1197.500000000005
 30
0.0
 11
372.5000000000043
 21
1200.500000000005
 31
0.0
  0
LINE
  5
3B9
330
1F
100
AcDbEntity
  8
LAY-10
  6
CONTINUOUS
 62
     7
100
AcDbLine
 10
372.5000000000043
 20
1206.500000000005
 30
0.0
 11
372.5000000000043
 21
1209.500000000005
 31
0.0
  0
LINE
  5
3BA
330
1F
100
AcDbEntity
  8
LAY-10
  6
CONTINUOUS
 62
     7
100
AcDbLine
 10
377.5000000000043
 20
1209.500000000005
 30
0.0
 11
377.5000000000043
 21
1206.500000000005
 31
0.0
  0
LINE
  5
3BB
330
1F
100
AcDbEntity
  8
LAY-10
  6
CONTINUOUS
 62
     7
100
AcDbLine
 10
377.5000000000043
 20
1200.500000000005
 30
0.0
 11
377.5000000000043
 21
1197.500000000005
 31
0.0
  0
LINE
  5
3BC
330
1F
100
AcDbEntity
  8
LAY-10
  6
CONTINUOUS
 62
     7
100
AcDbLine
 10
377.5000000000043
 20
1191.500000000005
 30
0.0
 11
377.5000000000043
 21
1188.500000000005
 31
0.0
  0
LINE
  5
3BD
330
1F
100
AcDbEntity
  8
LAY-10
  6
CONTINUOUS
 62
     7
100
AcDbLine
 10
382.5000000000043
 20
1188.500000000005
 30
0.0
 11
382.5000000000043
 21
1191.500000000005
 31
0.0
  0
LINE
  5
3BE
330
1F
100
AcDbEntity
  8
LAY-10
  6
CONTINUOUS
 62
     7
100
AcDbLine
 10
382.5000000000043
 20
1197.500000000005
 30
0.0
 11
382.5000000000043
 21
1200.500000000005
 31
0.0
  0
LINE
  5
3BF
330
1F
100
AcDbEntity
  8
LAY-10
  6
CONTINUOUS
 62
     7
100
AcDbLine
 10
382.5000000000043
 20
1206.500000000005
 30
0.0
 11
382.5000000000043
 21
1209.500000000005
 31
0.0
  0
LINE
  5
3C0
330
1F
100
AcDbEntity
  8
LAY-10
  6
CONTINUOUS
 62
     7
100
AcDbLine
 10
387.5000000000043
 20
1209.500000000005
 30
0.0
 11
387.5000000000043
 21
1206.500000000005
 31
0.0
  0
LINE
  5
3C1
330
1F
100
AcDbEntity
  8
LAY-10
  6
CONTINUOUS
 62
     7
100
AcDbLine
 10
387.5000000000043
 20
1200.500000000005
 30
0.0
 11
387.5000000000043
 21
1197.500000000005
 31
0.0
  0
LINE
  5
3C2
330
1F
100
AcDbEntity
  8
LAY-10
  6
CONTINUOUS
 62
     7
100
AcDbLine
 10
387.5000000000043
 20
1191.500000000005
 30
0.0
 11
387.5000000000043
 21
1188.500000000005
 31
0.0
  0
LINE
  5
3C3
330
1F
100
AcDbEntity
  8
LAY-10
  6
CONTINUOUS
 62
     7
100
AcDbLine
 10
392.5000000000043
 20
1188.500000000005
 30
0.0
 11
392.5000000000043
 21
1191.500000000005
 31
0.0
  0
LINE
  5
3C4
330
1F
100
AcDbEntity
  8
LAY-10
  6
CONTINUOUS
 62
     7
100
AcDbLine
 10
392.5000000000043
 20
1197.500000000005
 30
0.0
 11
392.5000000000043
 21
1200.500000000005
 31
0.0
  0
LINE
  5
3C5
330
1F
100
AcDbEntity
  8
LAY-10
  6
CONTINUOUS
 62
     7
100
AcDbLine
 10
392.5000000000043
 20
1206.500000000005
 30
0.0
 11
392.5000000000043
 21
1209.500000000005
 31
0.0
  0
LINE
  5
3C6
330
1F
100
AcDbEntity
  8
LAY-10
  6
CONTINUOUS
 62
     7
100
AcDbLine
 10
397.5000000000043
 20
1209.500000000005
 30
0.0
 11
397.5000000000043
 21
1206.500000000005
 31
0.0
  0
LINE
  5
3C7
330
1F
100
AcDbEntity
  8
LAY-10
  6
CONTINUOUS
 62
     7
100
AcDbLine
 10
397.5000000000043
 20
1200.500000000005
 30
0.0
 11
397.5000000000043
 21
1197.500000000005
 31
0.0
  0
LINE
  5
3C8
330
1F
100
AcDbEntity
  8
LAY-10
  6
CONTINUOUS
 62
     7
100
AcDbLine
 10
397.5000000000043
 20
1191.500000000005
 30
0.0
 11
397.5000000000043
 21
1188.500000000005
 31
0.0
  0
LINE
  5
3C9
330
1F
100
AcDbEntity
  8
LAY-10
  6
CONTINUOUS
 62
     7
100
AcDbLine
 10
402.5000000000043
 20
1188.500000000005
 30
0.0
 11
402.5000000000043
 21
1191.500000000005
 31
0.0
  0
LINE
  5
3CA
330
1F
100
AcDbEntity
  8
LAY-10
  6
CONTINUOUS
 62
     7
100
AcDbLine
 10
402.5000000000043
 20
1197.500000000005
 30
0.0
 11
402.5000000000043
 21
1200.500000000005
 31
0.0
  0
LINE
  5
3CB
330
1F
100
AcDbEntity
  8
LAY-10
  6
CONTINUOUS
 62
     7
100
AcDbLine
 10
402.5000000000043
 20
1206.500000000005
 30
0.0
 11
402.5000000000043
 21
1209.500000000005
 31
0.0
  0
LINE
  5
3CC
330
1F
100
AcDbEntity
  8
LAY-10
  6
CONTINUOUS
 62
     7
100
AcDbLine
 10
407.5000000000043
 20
1209.500000000005
 30
0.0
 11
407.5000000000043
 21
1206.500000000005
 31
0.0
  0
LINE
  5
3CD
330
1F
100
AcDbEntity
  8
LAY-10
  6
CONTINUOUS
 62
     7
100
AcDbLine
 10
407.5000000000043
 20
1200.500000000005
 30
0.0
 11
407.5000000000043
 21
1197.500000000005
 31
0.0
  0
LINE
  5
3CE
330
1F
100
AcDbEntity
  8
LAY-10
  6
CONTINUOUS
 62
     7
100
AcDbLine
 10
407.5000000000043
 20
1191.500000000005
 30
0.0
 11
407.5000000000043
 21
1188.500000000005
 31
0.0
  0
LINE
  5
3CF
330
1F
100
AcDbEntity
  8
LAY-10
  6
CONTINUOUS
 62
     7
100
AcDbLine
 10
412.5000000000043
 20
1188.500000000005
 30
0.0
 11
412.5000000000043
 21
1191.500000000005
 31
0.0
  0
LINE
  5
3D0
330
1F
100
AcDbEntity
  8
LAY-10
  6
CONTINUOUS
 62
     7
100
AcDbLine
 10
412.5000000000043
 20
1197.500000000005
 30
0.0
 11
412.5000000000043
 21
1200.500000000005
 31
0.0
  0
LINE
  5
3D1
330
1F
100
AcDbEntity
  8
LAY-10
  6
CONTINUOUS
 62
     7
100
AcDbLine
 10
412.5000000000043
 20
1206.500000000005
 30
0.0
 11
412.5000000000043
 21
1209.500000000005
 31
0.0
  0
LINE
  5
3D2
330
1F
100
AcDbEntity
  8
LAY-10
  6
CONTINUOUS
 62
     7
100
AcDbLine
 10
417.5000000000043
 20
1209.500000000005
 30
0.0
 11
417.5000000000043
 21
1206.500000000005
 31
0.0
  0
LINE
  5
3D3
330
1F
100
AcDbEntity
  8
LAY-10
  6
CONTINUOUS
 62
     7
100
AcDbLine
 10
417.5000000000043
 20
1200.500000000005
 30
0.0
 11
417.5000000000043
 21
1197.500000000005
 31
0.0
  0
LINE
  5
3D4
330
1F
100
AcDbEntity
  8
LAY-10
  6
CONTINUOUS
 62
     7
100
AcDbLine
 10
417.5000000000043
 20
1191.500000000005
 30
0.0
 11
417.5000000000043
 21
1188.500000000005
 31
0.0
  0
LINE
  5
3D5
330
1F
100
AcDbEntity
  8
LAY-10
  6
CONTINUOUS
 62
     7
100
AcDbLine
 10
422.5000000000043
 20
1188.500000000005
 30
0.0
 11
422.5000000000043
 21
1191.500000000005
 31
0.0
  0
LINE
  5
3D6
330
1F
100
AcDbEntity
  8
LAY-10
  6
CONTINUOUS
 62
     7
100
AcDbLine
 10
422.5000000000043
 20
1197.500000000005
 30
0.0
 11
422.5000000000043
 21
1200.500000000005
 31
0.0
  0
LINE
  5
3D7
330
1F
100
AcDbEntity
  8
LAY-10
  6
CONTINUOUS
 62
     7
100
AcDbLine
 10
422.5000000000043
 20
1206.500000000005
 30
0.0
 11
422.5000000000043
 21
1209.500000000005
 31
0.0
  0
LINE
  5
3D8
330
1F
100
AcDbEntity
  8
LAY-10
  6
CONTINUOUS
 62
     7
100
AcDbLine
 10
427.5000000000043
 20
1209.500000000005
 30
0.0
 11
427.5000000000043
 21
1206.500000000005
 31
0.0
  0
LINE
  5
3D9
330
1F
100
AcDbEntity
  8
LAY-10
  6
CONTINUOUS
 62
     7
100
AcDbLine
 10
427.5000000000043
 20
1200.500000000005
 30
0.0
 11
427.5000000000043
 21
1197.500000000005
 31
0.0
  0
LINE
  5
3DA
330
1F
100
AcDbEntity
  8
LAY-10
  6
CONTINUOUS
 62
     7
100
AcDbLine
 10
427.5000000000043
 20
1191.500000000005
 30
0.0
 11
427.5000000000043
 21
1188.500000000005
 31
0.0
  0
LINE
  5
3DB
330
1F
100
AcDbEntity
  8
LAY-10
  6
CONTINUOUS
 62
     7
100
AcDbLine
 10
432.5000000000043
 20
1188.500000000005
 30
0.0
 11
432.5000000000043
 21
1191.500000000005
 31
0.0
  0
LINE
  5
3DC
330
1F
100
AcDbEntity
  8
LAY-10
  6
CONTINUOUS
 62
     7
100
AcDbLine
 10
432.5000000000043
 20
1197.500000000005
 30
0.0
 11
432.5000000000043
 21
1200.500000000005
 31
0.0
  0
LINE
  5
3DD
330
1F
100
AcDbEntity
  8
LAY-10
  6
CONTINUOUS
 62
     7
100
AcDbLine
 10
432.5000000000043
 20
1206.500000000005
 30
0.0
 11
432.5000000000043
 21
1209.500000000005
 31
0.0
  0
LINE
  5
3DE
330
1F
100
AcDbEntity
  8
LAY-10
  6
CONTINUOUS
 62
     7
100
AcDbLine
 10
437.5000000000043
 20
1209.500000000005
 30
0.0
 11
437.5000000000043
 21
1206.500000000005
 31
0.0
  0
LINE
  5
3DF
330
1F
100
AcDbEntity
  8
LAY-10
  6
CONTINUOUS
 62
     7
100
AcDbLine
 10
437.5000000000043
 20
1200.500000000005
 30
0.0
 11
437.5000000000043
 21
1197.500000000005
 31
0.0
  0
LINE
  5
3E0
330
1F
100
AcDbEntity
  8
LAY-10
  6
CONTINUOUS
 62
     7
100
AcDbLine
 10
437.5000000000043
 20
1191.500000000005
 30
0.0
 11
437.5000000000043
 21
1188.500000000005
 31
0.0
  0
LINE
  5
3E1
330
1F
100
AcDbEntity
  8
LAY-10
  6
CONTINUOUS
 62
     7
100
AcDbLine
 10
442.5000000000043
 20
1188.500000000005
 30
0.0
 11
442.5000000000043
 21
1191.500000000005
 31
0.0
  0
LINE
  5
3E2
330
1F
100
AcDbEntity
  8
LAY-10
  6
CONTINUOUS
 62
     7
100
AcDbLine
 10
442.5000000000043
 20
1197.500000000005
 30
0.0
 11
442.5000000000043
 21
1200.500000000005
 31
0.0
  0
LINE
  5
3E3
330
1F
100
AcDbEntity
  8
LAY-10
  6
CONTINUOUS
 62
     7
100
AcDbLine
 10
442.5000000000043
 20
1206.500000000005
 30
0.0
 11
442.5000000000043
 21
1209.500000000005
 31
0.0
  0
LINE
  5
3E4
330
1F
100
AcDbEntity
  8
LAY-10
  6
CONTINUOUS
 62
     7
100
AcDbLine
 10
447.5000000000043
 20
1209.500000000005
 30
0.0
 11
447.5000000000043
 21
1206.500000000005
 31
0.0
  0
LINE
  5
3E5
330
1F
100
AcDbEntity
  8
LAY-10
  6
CONTINUOUS
 62
     7
100
AcDbLine
 10
447.5000000000043
 20
1200.500000000005
 30
0.0
 11
447.5000000000043
 21
1197.500000000005
 31
0.0
  0
LINE
  5
3E6
330
1F
100
AcDbEntity
  8
LAY-10
  6
CONTINUOUS
 62
     7
100
AcDbLine
 10
447.5000000000043
 20
1191.500000000005
 30
0.0
 11
447.5000000000043
 21
1188.500000000005
 31
0.0
  0
LINE
  5
3E7
330
1F
100
AcDbEntity
  8
LAY-10
  6
CONTINUOUS
 62
     7
100
AcDbLine
 10
452.5000000000043
 20
1188.500000000005
 30
0.0
 11
452.5000000000043
 21
1191.500000000005
 31
0.0
  0
LINE
  5
3E8
330
1F
100
AcDbEntity
  8
LAY-10
  6
CONTINUOUS
 62
     7
100
AcDbLine
 10
452.5000000000043
 20
1197.500000000005
 30
0.0
 11
452.5000000000043
 21
1200.500000000005
 31
0.0
  0
LINE
  5
3E9
330
1F
100
AcDbEntity
  8
LAY-10
  6
CONTINUOUS
 62
     7
100
AcDbLine
 10
452.5000000000043
 20
1206.500000000005
 30
0.0
 11
452.5000000000043
 21
1209.500000000005
 31
0.0
  0
LINE
  5
3EA
330
1F
100
AcDbEntity
  8
LAY-10
  6
CONTINUOUS
 62
     7
100
AcDbLine
 10
457.5000000000043
 20
1209.500000000005
 30
0.0
 11
457.5000000000043
 21
1206.500000000005
 31
0.0
  0
LINE
  5
3EB
330
1F
100
AcDbEntity
  8
LAY-10
  6
CONTINUOUS
 62
     7
100
AcDbLine
 10
457.5000000000043
 20
1200.500000000005
 30
0.0
 11
457.5000000000043
 21
1197.500000000005
 31
0.0
  0
LINE
  5
3EC
330
1F
100
AcDbEntity
  8
LAY-10
  6
CONTINUOUS
 62
     7
100
AcDbLine
 10
457.5000000000043
 20
1191.500000000005
 30
0.0
 11
457.5000000000043
 21
1188.500000000005
 31
0.0
  0
LINE
  5
3ED
330
1F
100
AcDbEntity
  8
LAY-10
  6
CONTINUOUS
 62
     7
100
AcDbLine
 10
462.5000000000043
 20
1188.500000000005
 30
0.0
 11
462.5000000000043
 21
1191.500000000005
 31
0.0
  0
LINE
  5
3EE
330
1F
100
AcDbEntity
  8
LAY-10
  6
CONTINUOUS
 62
     7
100
AcDbLine
 10
462.5000000000043
 20
1197.500000000005
 30
0.0
 11
462.5000000000043
 21
1200.500000000005
 31
0.0
  0
LINE
  5
3EF
330
1F
100
AcDbEntity
  8
LAY-10
  6
CONTINUOUS
 62
     7
100
AcDbLine
 10
462.5000000000043
 20
1206.500000000005
 30
0.0
 11
462.5000000000043
 21
1209.500000000005
 31
0.0
  0
LINE
  5
3F0
330
1F
100
AcDbEntity
  8
LAY-10
  6
CONTINUOUS
 62
     7
100
AcDbLine
 10
467.5000000000043
 20
1209.500000000005
 30
0.0
 11
467.5000000000043
 21
1206.500000000005
 31
0.0
  0
LINE
  5
3F1
330
1F
100
AcDbEntity
  8
LAY-10
  6
CONTINUOUS
 62
     7
100
AcDbLine
 10
467.5000000000043
 20
1200.500000000005
 30
0.0
 11
467.5000000000043
 21
1197.500000000005
 31
0.0
  0
LINE
  5
3F2
330
1F
100
AcDbEntity
  8
LAY-10
  6
CONTINUOUS
 62
     7
100
AcDbLine
 10
467.5000000000043
 20
1191.500000000005
 30
0.0
 11
467.5000000000043
 21
1188.500000000005
 31
0.0
  0
LINE
  5
3F3
330
1F
100
AcDbEntity
  8
LAY-10
  6
CONTINUOUS
 62
     7
100
AcDbLine
 10
472.5000000000043
 20
1188.500000000005
 30
0.0
 11
472.5000000000043
 21
1191.500000000005
 31
0.0
  0
LINE
  5
3F4
330
1F
100
AcDbEntity
  8
LAY-10
  6
CONTINUOUS
 62
     7
100
AcDbLine
 10
472.5000000000043
 20
1197.500000000005
 30
0.0
 11
472.5000000000043
 21
1200.500000000005
 31
0.0
  0
LINE
  5
3F5
330
1F
100
AcDbEntity
  8
LAY-10
  6
CONTINUOUS
 62
     7
100
AcDbLine
 10
472.5000000000043
 20
1206.500000000005
 30
0.0
 11
472.5000000000043
 21
1209.500000000005
 31
0.0
  0
LINE
  5
3F6
330
1F
100
AcDbEntity
  8
LAY-10
  6
CONTINUOUS
 62
     7
100
AcDbLine
 10
477.5000000000043
 20
1209.500000000005
 30
0.0
 11
477.5000000000043
 21
1206.500000000005
 31
0.0
  0
LINE
  5
3F7
330
1F
100
AcDbEntity
  8
LAY-10
  6
CONTINUOUS
 62
     7
100
AcDbLine
 10
477.5000000000043
 20
1200.500000000005
 30
0.0
 11
477.5000000000043
 21
1197.500000000005
 31
0.0
  0
LINE
  5
3F8
330
1F
100
AcDbEntity
  8
LAY-10
  6
CONTINUOUS
 62
     7
100
AcDbLine
 10
477.5000000000043
 20
1191.500000000005
 30
0.0
 11
477.5000000000043
 21
1188.500000000005
 31
0.0
  0
LINE
  5
3F9
330
1F
100
AcDbEntity
  8
LAY-10
  6
CONTINUOUS
 62
     7
100
AcDbLine
 10
482.5000000000043
 20
1188.500000000005
 30
0.0
 11
482.5000000000043
 21
1191.500000000005
 31
0.0
  0
LINE
  5
3FA
330
1F
100
AcDbEntity
  8
LAY-10
  6
CONTINUOUS
 62
     7
100
AcDbLine
 10
482.5000000000043
 20
1197.500000000005
 30
0.0
 11
482.5000000000043
 21
1200.500000000005
 31
0.0
  0
LINE
  5
3FB
330
1F
100
AcDbEntity
  8
LAY-10
  6
CONTINUOUS
 62
     7
100
AcDbLine
 10
482.5000000000043
 20
1206.500000000005
 30
0.0
 11
482.5000000000043
 21
1209.500000000005
 31
0.0
  0
LINE
  5
3FC
330
1F
100
AcDbEntity
  8
LAY-10
  6
CONTINUOUS
 62
     7
100
AcDbLine
 10
487.5000000000043
 20
1209.500000000005
 30
0.0
 11
487.5000000000043
 21
1206.500000000005
 31
0.0
  0
LINE
  5
3FD
330
1F
100
AcDbEntity
  8
LAY-10
  6
CONTINUOUS
 62
     7
100
AcDbLine
 10
487.5000000000043
 20
1200.500000000005
 30
0.0
 11
487.5000000000043
 21
1197.500000000005
 31
0.0
  0
LINE
  5
3FE
330
1F
100
AcDbEntity
  8
LAY-10
  6
CONTINUOUS
 62
     7
100
AcDbLine
 10
487.5000000000043
 20
1191.500000000005
 30
0.0
 11
487.5000000000043
 21
1188.500000000005
 31
0.0
  0
LINE
  5
3FF
330
1F
100
AcDbEntity
  8
LAY-10
  6
CONTINUOUS
 62
     7
100
AcDbLine
 10
492.5000000000043
 20
1188.500000000005
 30
0.0
 11
492.5000000000043
 21
1191.500000000005
 31
0.0
  0
LINE
  5
400
330
1F
100
AcDbEntity
  8
LAY-10
  6
CONTINUOUS
 62
     7
100
AcDbLine
 10
492.5000000000043
 20
1197.500000000005
 30
0.0
 11
492.5000000000043
 21
1200.500000000005
 31
0.0
  0
LINE
  5
401
330
1F
100
AcDbEntity
  8
LAY-10
  6
CONTINUOUS
 62
     7
100
AcDbLine
 10
492.5000000000043
 20
1206.500000000005
 30
0.0
 11
492.5000000000043
 21
1209.500000000005
 31
0.0
  0
LINE
  5
402
330
1F
100
AcDbEntity
  8
LAY-10
  6
CONTINUOUS
 62
     7
100
AcDbLine
 10
497.5000000000043
 20
1209.500000000005
 30
0.0
 11
497.5000000000043
 21
1206.500000000005
 31
0.0
  0
LINE
  5
403
330
1F
100
AcDbEntity
  8
LAY-10
  6
CONTINUOUS
 62
     7
100
AcDbLine
 10
497.5000000000043
 20
1200.500000000005
 30
0.0
 11
497.5000000000043
 21
1197.500000000005
 31
0.0
  0
LINE
  5
404
330
1F
100
AcDbEntity
  8
LAY-10
  6
CONTINUOUS
 62
     7
100
AcDbLine
 10
497.5000000000043
 20
1191.500000000005
 30
0.0
 11
497.5000000000043
 21
1188.500000000005
 31
0.0
  0
LINE
  5
405
330
1F
100
AcDbEntity
  8
LAY-10
  6
CONTINUOUS
 62
     7
100
AcDbLine
 10
502.5000000000043
 20
1188.500000000005
 30
0.0
 11
502.5000000000043
 21
1191.500000000005
 31
0.0
  0
LINE
  5
406
330
1F
100
AcDbEntity
  8
LAY-10
  6
CONTINUOUS
 62
     7
100
AcDbLine
 10
502.5000000000043
 20
1197.500000000005
 30
0.0
 11
502.5000000000043
 21
1200.500000000005
 31
0.0
  0
LINE
  5
407
330
1F
100
AcDbEntity
  8
LAY-10
  6
CONTINUOUS
 62
     7
100
AcDbLine
 10
502.5000000000043
 20
1206.500000000005
 30
0.0
 11
502.5000000000043
 21
1209.500000000005
 31
0.0
  0
LINE
  5
408
330
1F
100
AcDbEntity
  8
LAY-10
  6
CONTINUOUS
 62
     7
100
AcDbLine
 10
507.5000000000043
 20
1209.500000000005
 30
0.0
 11
507.5000000000043
 21
1206.500000000005
 31
0.0
  0
LINE
  5
409
330
1F
100
AcDbEntity
  8
LAY-10
  6
CONTINUOUS
 62
     7
100
AcDbLine
 10
507.5000000000043
 20
1200.500000000005
 30
0.0
 11
507.5000000000043
 21
1197.500000000005
 31
0.0
  0
LINE
  5
40A
330
1F
100
AcDbEntity
  8
LAY-10
  6
CONTINUOUS
 62
     7
100
AcDbLine
 10
507.5000000000043
 20
1191.500000000005
 30
0.0
 11
507.5000000000043
 21
1188.500000000005
 31
0.0
  0
LINE
  5
40B
330
1F
100
AcDbEntity
  8
LAY-10
  6
CONTINUOUS
 62
     7
100
AcDbLine
 10
512.5000000000043
 20
1188.500000000005
 30
0.0
 11
512.5000000000043
 21
1191.500000000005
 31
0.0
  0
LINE
  5
40C
330
1F
100
AcDbEntity
  8
LAY-10
  6
CONTINUOUS
 62
     7
100
AcDbLine
 10
512.5000000000043
 20
1197.500000000005
 30
0.0
 11
512.5000000000043
 21
1200.500000000005
 31
0.0
  0
LINE
  5
40D
330
1F
100
AcDbEntity
  8
LAY-10
  6
CONTINUOUS
 62
     7
100
AcDbLine
 10
512.5000000000043
 20
1206.500000000005
 30
0.0
 11
512.5000000000043
 21
1209.500000000005
 31
0.0
  0
LINE
  5
40E
330
1F
100
AcDbEntity
  8
LAY-10
  6
CONTINUOUS
 62
     7
100
AcDbLine
 10
517.5000000000043
 20
1209.500000000005
 30
0.0
 11
517.5000000000043
 21
1206.500000000005
 31
0.0
  0
LINE
  5
40F
330
1F
100
AcDbEntity
  8
LAY-10
  6
CONTINUOUS
 62
     7
100
AcDbLine
 10
517.5000000000043
 20
1200.500000000005
 30
0.0
 11
517.5000000000043
 21
1197.500000000005
 31
0.0
  0
LINE
  5
410
330
1F
100
AcDbEntity
  8
LAY-10
  6
CONTINUOUS
 62
     7
100
AcDbLine
 10
517.5000000000043
 20
1191.500000000005
 30
0.0
 11
517.5000000000043
 21
1188.500000000005
 31
0.0
  0
LINE
  5
411
330
1F
100
AcDbEntity
  8
LAY-10
  6
CONTINUOUS
 62
     7
100
AcDbLine
 10
522.5000000000043
 20
1188.500000000005
 30
0.0
 11
522.5000000000043
 21
1191.500000000005
 31
0.0
  0
LINE
  5
412
330
1F
100
AcDbEntity
  8
LAY-10
  6
CONTINUOUS
 62
     7
100
AcDbLine
 10
522.5000000000043
 20
1197.500000000005
 30
0.0
 11
522.5000000000043
 21
1200.500000000005
 31
0.0
  0
LINE
  5
413
330
1F
100
AcDbEntity
  8
LAY-10
  6
CONTINUOUS
 62
     7
100
AcDbLine
 10
522.5000000000043
 20
1206.500000000005
 30
0.0
 11
522.5000000000043
 21
1209.500000000005
 31
0.0
  0
LINE
  5
414
330
1F
100
AcDbEntity
  8
LAY-10
  6
CONTINUOUS
 62
     7
100
AcDbLine
 10
527.5000000000043
 20
1209.500000000005
 30
0.0
 11
527.5000000000043
 21
1206.500000000005
 31
0.0
  0
LINE
  5
415
330
1F
100
AcDbEntity
  8
LAY-10
  6
CONTINUOUS
 62
     7
100
AcDbLine
 10
527.5000000000043
 20
1200.500000000005
 30
0.0
 11
527.5000000000043
 21
1197.500000000005
 31
0.0
  0
LINE
  5
416
330
1F
100
AcDbEntity
  8
LAY-10
  6
CONTINUOUS
 62
     7
100
AcDbLine
 10
527.5000000000043
 20
1191.500000000005
 30
0.0
 11
527.5000000000043
 21
1188.500000000005
 31
0.0
  0
LINE
  5
417
330
1F
100
AcDbEntity
  8
LAY-10
  6
CONTINUOUS
 62
     7
100
AcDbLine
 10
532.5000000000043
 20
1188.500000000005
 30
0.0
 11
532.5000000000043
 21
1191.500000000005
 31
0.0
  0
LINE
  5
418
330
1F
100
AcDbEntity
  8
LAY-10
  6
CONTINUOUS
 62
     7
100
AcDbLine
 10
532.5000000000043
 20
1197.500000000005
 30
0.0
 11
532.5000000000043
 21
1200.500000000005
 31
0.0
  0
LINE
  5
419
330
1F
100
AcDbEntity
  8
LAY-10
  6
CONTINUOUS
 62
     7
100
AcDbLine
 10
532.5000000000043
 20
1206.500000000005
 30
0.0
 11
532.5000000000043
 21
1209.500000000005
 31
0.0
  0
LINE
  5
41A
330
1F
100
AcDbEntity
  8
LAY-10
  6
CONTINUOUS
 62
     7
100
AcDbLine
 10
537.5000000000043
 20
1209.500000000005
 30
0.0
 11
537.5000000000043
 21
1206.500000000005
 31
0.0
  0
LINE
  5
41B
330
1F
100
AcDbEntity
  8
LAY-10
  6
CONTINUOUS
 62
     7
100
AcDbLine
 10
537.5000000000043
 20
1200.500000000005
 30
0.0
 11
537.5000000000043
 21
1197.500000000005
 31
0.0
  0
LINE
  5
41C
330
1F
100
AcDbEntity
  8
LAY-10
  6
CONTINUOUS
 62
     7
100
AcDbLine
 10
537.5000000000043
 20
1191.500000000005
 30
0.0
 11
537.5000000000043
 21
1188.500000000005
 31
0.0
  0
LINE
  5
41D
330
1F
100
AcDbEntity
  8
LAY-10
  6
CONTINUOUS
 62
     7
100
AcDbLine
 10
542.5000000000043
 20
1188.500000000005
 30
0.0
 11
542.5000000000043
 21
1191.500000000005
 31
0.0
  0
LINE
  5
41E
330
1F
100
AcDbEntity
  8
LAY-10
  6
CONTINUOUS
 62
     7
100
AcDbLine
 10
542.5000000000043
 20
1197.500000000005
 30
0.0
 11
542.5000000000043
 21
1200.500000000005
 31
0.0
  0
LINE
  5
41F
330
1F
100
AcDbEntity
  8
LAY-10
  6
CONTINUOUS
 62
     7
100
AcDbLine
 10
542.5000000000043
 20
1206.500000000005
 30
0.0
 11
542.5000000000043
 21
1209.500000000005
 31
0.0
  0
LINE
  5
420
330
1F
100
AcDbEntity
  8
LAY-10
  6
CONTINUOUS
 62
     7
100
AcDbLine
 10
547.5000000000043
 20
1209.500000000005
 30
0.0
 11
547.5000000000043
 21
1206.500000000005
 31
0.0
  0
LINE
  5
421
330
1F
100
AcDbEntity
  8
LAY-10
  6
CONTINUOUS
 62
     7
100
AcDbLine
 10
547.5000000000043
 20
1200.500000000005
 30
0.0
 11
547.5000000000043
 21
1197.500000000005
 31
0.0
  0
LINE
  5
422
330
1F
100
AcDbEntity
  8
LAY-10
  6
CONTINUOUS
 62
     7
100
AcDbLine
 10
547.5000000000043
 20
1191.500000000005
 30
0.0
 11
547.5000000000043
 21
1188.500000000005
 31
0.0
  0
LINE
  5
423
330
1F
100
AcDbEntity
  8
LAY-10
  6
CONTINUOUS
 62
     7
100
AcDbLine
 10
552.5000000000043
 20
1188.500000000005
 30
0.0
 11
552.5000000000043
 21
1191.500000000005
 31
0.0
  0
LINE
  5
424
330
1F
100
AcDbEntity
  8
LAY-10
  6
CONTINUOUS
 62
     7
100
AcDbLine
 10
552.5000000000043
 20
1197.500000000005
 30
0.0
 11
552.5000000000043
 21
1200.500000000005
 31
0.0
  0
LINE
  5
425
330
1F
100
AcDbEntity
  8
LAY-10
  6
CONTINUOUS
 62
     7
100
AcDbLine
 10
552.5000000000043
 20
1206.500000000005
 30
0.0
 11
552.5000000000043
 21
1209.500000000005
 31
0.0
  0
LINE
  5
426
330
1F
100
AcDbEntity
  8
LAY-10
  6
CONTINUOUS
 62
     7
100
AcDbLine
 10
557.5000000000043
 20
1209.500000000005
 30
0.0
 11
557.5000000000043
 21
1206.500000000005
 31
0.0
  0
LINE
  5
427
330
1F
100
AcDbEntity
  8
LAY-10
  6
CONTINUOUS
 62
     7
100
AcDbLine
 10
557.5000000000043
 20
1200.500000000005
 30
0.0
 11
557.5000000000043
 21
1197.500000000005
 31
0.0
  0
LINE
  5
428
330
1F
100
AcDbEntity
  8
LAY-10
  6
CONTINUOUS
 62
     7
100
AcDbLine
 10
557.5000000000043
 20
1191.500000000005
 30
0.0
 11
557.5000000000043
 21
1188.500000000005
 31
0.0
  0
LINE
  5
429
330
1F
100
AcDbEntity
  8
LAY-10
  6
CONTINUOUS
 62
     7
100
AcDbLine
 10
562.5000000000043
 20
1188.500000000005
 30
0.0
 11
562.5000000000043
 21
1191.500000000005
 31
0.0
  0
LINE
  5
42A
330
1F
100
AcDbEntity
  8
LAY-10
  6
CONTINUOUS
 62
     7
100
AcDbLine
 10
562.5000000000043
 20
1197.500000000005
 30
0.0
 11
562.5000000000043
 21
1200.500000000005
 31
0.0
  0
LINE
  5
42B
330
1F
100
AcDbEntity
  8
LAY-10
  6
CONTINUOUS
 62
     7
100
AcDbLine
 10
562.5000000000043
 20
1206.500000000005
 30
0.0
 11
562.5000000000043
 21
1209.500000000005
 31
0.0
  0
LINE
  5
42C
330
1F
100
AcDbEntity
  8
LAY-10
  6
CONTINUOUS
 62
     7
100
AcDbLine
 10
567.5000000000043
 20
1209.500000000005
 30
0.0
 11
567.5000000000043
 21
1206.500000000005
 31
0.0
  0
LINE
  5
42D
330
1F
100
AcDbEntity
  8
LAY-10
  6
CONTINUOUS
 62
     7
100
AcDbLine
 10
567.5000000000043
 20
1200.500000000005
 30
0.0
 11
567.5000000000043
 21
1197.500000000005
 31
0.0
  0
LINE
  5
42E
330
1F
100
AcDbEntity
  8
LAY-10
  6
CONTINUOUS
 62
     7
100
AcDbLine
 10
567.5000000000043
 20
1191.500000000005
 30
0.0
 11
567.5000000000043
 21
1188.500000000005
 31
0.0
  0
LINE
  5
42F
330
1F
100
AcDbEntity
  8
LAY-10
  6
CONTINUOUS
 62
     7
100
AcDbLine
 10
572.5000000000043
 20
1188.500000000005
 30
0.0
 11
572.5000000000043
 21
1191.500000000005
 31
0.0
  0
LINE
  5
430
330
1F
100
AcDbEntity
  8
LAY-10
  6
CONTINUOUS
 62
     7
100
AcDbLine
 10
572.5000000000043
 20
1197.500000000005
 30
0.0
 11
572.5000000000043
 21
1200.500000000005
 31
0.0
  0
LINE
  5
431
330
1F
100
AcDbEntity
  8
LAY-10
  6
CONTINUOUS
 62
     7
100
AcDbLine
 10
572.5000000000043
 20
1206.500000000005
 30
0.0
 11
572.5000000000043
 21
1209.500000000005
 31
0.0
  0
LINE
  5
432
330
1F
100
AcDbEntity
  8
LAY-10
  6
CONTINUOUS
 62
     7
100
AcDbLine
 10
577.5000000000043
 20
1209.500000000005
 30
0.0
 11
577.5000000000043
 21
1206.500000000005
 31
0.0
  0
LINE
  5
433
330
1F
100
AcDbEntity
  8
LAY-10
  6
CONTINUOUS
 62
     7
100
AcDbLine
 10
577.5000000000043
 20
1200.500000000005
 30
0.0
 11
577.5000000000043
 21
1197.500000000005
 31
0.0
  0
LINE
  5
434
330
1F
100
AcDbEntity
  8
LAY-10
  6
CONTINUOUS
 62
     7
100
AcDbLine
 10
577.5000000000043
 20
1191.500000000005
 30
0.0
 11
577.5000000000043
 21
1188.500000000005
 31
0.0
  0
LINE
  5
435
330
1F
100
AcDbEntity
  8
LAY-10
  6
CONTINUOUS
 62
     7
100
AcDbLine
 10
582.5000000000041
 20
1188.500000000005
 30
0.0
 11
582.5000000000041
 21
1191.500000000005
 31
0.0
  0
LINE
  5
436
330
1F
100
AcDbEntity
  8
LAY-10
  6
CONTINUOUS
 62
     7
100
AcDbLine
 10
582.5000000000041
 20
1197.500000000005
 30
0.0
 11
582.5000000000041
 21
1200.500000000005
 31
0.0
  0
LINE
  5
437
330
1F
100
AcDbEntity
  8
LAY-10
  6
CONTINUOUS
 62
     7
100
AcDbLine
 10
582.5000000000041
 20
1206.500000000005
 30
0.0
 11
582.5000000000041
 21
1209.500000000005
 31
0.0
  0
LINE
  5
438
330
1F
100
AcDbEntity
  8
LAY-10
  6
CONTINUOUS
 62
     7
100
AcDbLine
 10
587.5000000000041
 20
1209.500000000005
 30
0.0
 11
587.5000000000041
 21
1206.500000000005
 31
0.0
  0
LINE
  5
439
330
1F
100
AcDbEntity
  8
LAY-10
  6
CONTINUOUS
 62
     7
100
AcDbLine
 10
587.5000000000041
 20
1200.500000000005
 30
0.0
 11
587.5000000000041
 21
1197.500000000005
 31
0.0
  0
LINE
  5
43A
330
1F
100
AcDbEntity
  8
LAY-10
  6
CONTINUOUS
 62
     7
100
AcDbLine
 10
587.5000000000041
 20
1191.500000000005
 30
0.0
 11
587.5000000000041
 21
1188.500000000005
 31
0.0
  0
LINE
  5
43B
330
1F
100
AcDbEntity
  8
LAY-10
  6
CONTINUOUS
 62
     7
100
AcDbLine
 10
592.5000000000041
 20
1188.500000000005
 30
0.0
 11
592.5000000000041
 21
1191.500000000005
 31
0.0
  0
LINE
  5
43C
330
1F
100
AcDbEntity
  8
LAY-10
  6
CONTINUOUS
 62
     7
100
AcDbLine
 10
592.5000000000041
 20
1197.500000000005
 30
0.0
 11
592.5000000000041
 21
1200.500000000005
 31
0.0
  0
LINE
  5
43D
330
1F
100
AcDbEntity
  8
LAY-10
  6
CONTINUOUS
 62
     7
100
AcDbLine
 10
592.5000000000041
 20
1206.500000000005
 30
0.0
 11
592.5000000000041
 21
1209.500000000005
 31
0.0
  0
LINE
  5
43E
330
1F
100
AcDbEntity
  8
LAY-10
  6
CONTINUOUS
 62
     7
100
AcDbLine
 10
597.5000000000041
 20
1209.500000000005
 30
0.0
 11
597.5000000000041
 21
1206.500000000005
 31
0.0
  0
LINE
  5
43F
330
1F
100
AcDbEntity
  8
LAY-10
  6
CONTINUOUS
 62
     7
100
AcDbLine
 10
597.5000000000041
 20
1200.500000000005
 30
0.0
 11
597.5000000000041
 21
1197.500000000005
 31
0.0
  0
LINE
  5
440
330
1F
100
AcDbEntity
  8
LAY-10
  6
CONTINUOUS
 62
     7
100
AcDbLine
 10
597.5000000000041
 20
1191.500000000005
 30
0.0
 11
597.5000000000041
 21
1188.500000000005
 31
0.0
  0
LINE
  5
441
330
1F
100
AcDbEntity
  8
LAY-10
  6
CONTINUOUS
 62
     7
100
AcDbLine
 10
602.5000000000041
 20
1188.500000000005
 30
0.0
 11
602.5000000000041
 21
1191.500000000005
 31
0.0
  0
LINE
  5
442
330
1F
100
AcDbEntity
  8
LAY-10
  6
CONTINUOUS
 62
     7
100
AcDbLine
 10
602.5000000000041
 20
1197.500000000005
 30
0.0
 11
602.5000000000041
 21
1200.500000000005
 31
0.0
  0
LINE
  5
443
330
1F
100
AcDbEntity
  8
LAY-10
  6
CONTINUOUS
 62
     7
100
AcDbLine
 10
602.5000000000041
 20
1206.500000000005
 30
0.0
 11
602.5000000000041
 21
1209.500000000005
 31
0.0
  0
LINE
  5
444
330
1F
100
AcDbEntity
  8
LAY-10
  6
CONTINUOUS
 62
     7
100
AcDbLine
 10
607.5000000000041
 20
1209.500000000005
 30
0.0
 11
607.5000000000041
 21
1206.500000000005
 31
0.0
  0
LINE
  5
445
330
1F
100
AcDbEntity
  8
LAY-10
  6
CONTINUOUS
 62
     7
100
AcDbLine
 10
607.5000000000041
 20
1200.500000000005
 30
0.0
 11
607.5000000000041
 21
1197.500000000005
 31
0.0
  0
LINE
  5
446
330
1F
100
AcDbEntity
  8
LAY-10
  6
CONTINUOUS
 62
     7
100
AcDbLine
 10
607.5000000000041
 20
1191.500000000005
 30
0.0
 11
607.5000000000041
 21
1188.500000000005
 31
0.0
  0
LINE
  5
447
330
1F
100
AcDbEntity
  8
LAY-10
  6
CONTINUOUS
 62
     7
100
AcDbLine
 10
612.5000000000041
 20
1188.500000000005
 30
0.0
 11
612.5000000000041
 21
1191.500000000005
 31
0.0
  0
LINE
  5
448
330
1F
100
AcDbEntity
  8
LAY-10
  6
CONTINUOUS
 62
     7
100
AcDbLine
 10
612.5000000000041
 20
1197.500000000005
 30
0.0
 11
612.5000000000041
 21
1200.500000000005
 31
0.0
  0
LINE
  5
449
330
1F
100
AcDbEntity
  8
LAY-10
  6
CONTINUOUS
 62
     7
100
AcDbLine
 10
612.5000000000041
 20
1206.500000000005
 30
0.0
 11
612.5000000000041
 21
1209.500000000005
 31
0.0
  0
LINE
  5
44A
330
1F
100
AcDbEntity
  8
LAY-10
  6
CONTINUOUS
 62
     7
100
AcDbLine
 10
617.5000000000043
 20
1209.500000000005
 30
0.0
 11
617.5000000000043
 21
1206.500000000005
 31
0.0
  0
LINE
  5
44B
330
1F
100
AcDbEntity
  8
LAY-10
  6
CONTINUOUS
 62
     7
100
AcDbLine
 10
617.5000000000043
 20
1200.500000000005
 30
0.0
 11
617.5000000000043
 21
1197.500000000005
 31
0.0
  0
LINE
  5
44C
330
1F
100
AcDbEntity
  8
LAY-10
  6
CONTINUOUS
 62
     7
100
AcDbLine
 10
617.5000000000043
 20
1191.500000000005
 30
0.0
 11
617.5000000000043
 21
1188.500000000005
 31
0.0
  0
LINE
  5
44D
330
1F
100
AcDbEntity
  8
LAY-10
  6
CONTINUOUS
 62
     7
100
AcDbLine
 10
622.5000000000043
 20
1188.500000000005
 30
0.0
 11
622.5000000000043
 21
1191.500000000005
 31
0.0
  0
LINE
  5
44E
330
1F
100
AcDbEntity
  8
LAY-10
  6
CONTINUOUS
 62
     7
100
AcDbLine
 10
622.5000000000043
 20
1197.500000000005
 30
0.0
 11
622.5000000000043
 21
1200.500000000005
 31
0.0
  0
LINE
  5
44F
330
1F
100
AcDbEntity
  8
LAY-10
  6
CONTINUOUS
 62
     7
100
AcDbLine
 10
622.5000000000043
 20
1206.500000000005
 30
0.0
 11
622.5000000000043
 21
1209.500000000005
 31
0.0
  0
LINE
  5
450
330
1F
100
AcDbEntity
  8
LAY-10
  6
CONTINUOUS
 62
     7
100
AcDbLine
 10
627.5000000000043
 20
1209.500000000005
 30
0.0
 11
627.5000000000043
 21
1206.500000000005
 31
0.0
  0
LINE
  5
451
330
1F
100
AcDbEntity
  8
LAY-10
  6
CONTINUOUS
 62
     7
100
AcDbLine
 10
627.5000000000043
 20
1200.500000000005
 30
0.0
 11
627.5000000000043
 21
1197.500000000005
 31
0.0
  0
LINE
  5
452
330
1F
100
AcDbEntity
  8
LAY-10
  6
CONTINUOUS
 62
     7
100
AcDbLine
 10
627.5000000000043
 20
1191.500000000005
 30
0.0
 11
627.5000000000043
 21
1188.500000000005
 31
0.0
  0
LINE
  5
453
330
1F
100
AcDbEntity
  8
LAY-10
  6
CONTINUOUS
 62
     7
100
AcDbLine
 10
632.5000000000043
 20
1188.500000000005
 30
0.0
 11
632.5000000000043
 21
1191.500000000005
 31
0.0
  0
LINE
  5
454
330
1F
100
AcDbEntity
  8
LAY-10
  6
CONTINUOUS
 62
     7
100
AcDbLine
 10
632.5000000000043
 20
1197.500000000005
 30
0.0
 11
632.5000000000043
 21
1200.500000000005
 31
0.0
  0
LINE
  5
455
330
1F
100
AcDbEntity
  8
LAY-10
  6
CONTINUOUS
 62
     7
100
AcDbLine
 10
632.5000000000043
 20
1206.500000000005
 30
0.0
 11
632.5000000000043
 21
1209.500000000005
 31
0.0
  0
LINE
  5
456
330
1F
100
AcDbEntity
  8
LAY-10
  6
CONTINUOUS
 62
     7
100
AcDbLine
 10
637.5000000000043
 20
1209.500000000005
 30
0.0
 11
637.5000000000043
 21
1206.500000000005
 31
0.0
  0
LINE
  5
457
330
1F
100
AcDbEntity
  8
LAY-10
  6
CONTINUOUS
 62
     7
100
AcDbLine
 10
637.5000000000043
 20
1200.500000000005
 30
0.0
 11
637.5000000000043
 21
1197.500000000005
 31
0.0
  0
LINE
  5
458
330
1F
100
AcDbEntity
  8
LAY-10
  6
CONTINUOUS
 62
     7
100
AcDbLine
 10
637.5000000000043
 20
1191.500000000005
 30
0.0
 11
637.5000000000043
 21
1188.500000000005
 31
0.0
  0
LINE
  5
459
330
1F
100
AcDbEntity
  8
LAY-10
  6
CONTINUOUS
 62
     7
100
AcDbLine
 10
642.5000000000043
 20
1188.500000000005
 30
0.0
 11
642.5000000000043
 21
1191.500000000005
 31
0.0
  0
LINE
  5
45A
330
1F
100
AcDbEntity
  8
LAY-10
  6
CONTINUOUS
 62
     7
100
AcDbLine
 10
642.5000000000043
 20
1197.500000000005
 30
0.0
 11
642.5000000000043
 21
1200.500000000005
 31
0.0
  0
LINE
  5
45B
330
1F
100
AcDbEntity
  8
LAY-10
  6
CONTINUOUS
 62
     7
100
AcDbLine
 10
642.5000000000043
 20
1206.500000000005
 30
0.0
 11
642.5000000000043
 21
1209.500000000005
 31
0.0
  0
LINE
  5
45C
330
1F
100
AcDbEntity
  8
LAY-10
  6
CONTINUOUS
 62
     7
100
AcDbLine
 10
647.5000000000043
 20
1209.500000000005
 30
0.0
 11
647.5000000000043
 21
1206.500000000005
 31
0.0
  0
LINE
  5
45D
330
1F
100
AcDbEntity
  8
LAY-10
  6
CONTINUOUS
 62
     7
100
AcDbLine
 10
647.5000000000043
 20
1200.500000000005
 30
0.0
 11
647.5000000000043
 21
1197.500000000005
 31
0.0
  0
LINE
  5
45E
330
1F
100
AcDbEntity
  8
LAY-10
  6
CONTINUOUS
 62
     7
100
AcDbLine
 10
647.5000000000043
 20
1191.500000000005
 30
0.0
 11
647.5000000000043
 21
1188.500000000005
 31
0.0
  0
LINE
  5
45F
330
1F
100
AcDbEntity
  8
LAY-10
  6
CONTINUOUS
 62
     7
100
AcDbLine
 10
652.5000000000043
 20
1188.500000000005
 30
0.0
 11
652.5000000000043
 21
1191.500000000005
 31
0.0
  0
LINE
  5
460
330
1F
100
AcDbEntity
  8
LAY-10
  6
CONTINUOUS
 62
     7
100
AcDbLine
 10
652.5000000000043
 20
1197.500000000005
 30
0.0
 11
652.5000000000043
 21
1200.500000000005
 31
0.0
  0
LINE
  5
461
330
1F
100
AcDbEntity
  8
LAY-10
  6
CONTINUOUS
 62
     7
100
AcDbLine
 10
652.5000000000043
 20
1206.500000000005
 30
0.0
 11
652.5000000000043
 21
1209.500000000005
 31
0.0
  0
LINE
  5
462
330
1F
100
AcDbEntity
  8
LAY-10
  6
CONTINUOUS
 62
     7
100
AcDbLine
 10
657.5000000000043
 20
1209.500000000005
 30
0.0
 11
657.5000000000043
 21
1206.500000000005
 31
0.0
  0
LINE
  5
463
330
1F
100
AcDbEntity
  8
LAY-10
  6
CONTINUOUS
 62
     7
100
AcDbLine
 10
657.5000000000043
 20
1200.500000000005
 30
0.0
 11
657.5000000000043
 21
1197.500000000005
 31
0.0
  0
LINE
  5
464
330
1F
100
AcDbEntity
  8
LAY-10
  6
CONTINUOUS
 62
     7
100
AcDbLine
 10
657.5000000000043
 20
1191.500000000005
 30
0.0
 11
657.5000000000043
 21
1188.500000000005
 31
0.0
  0
LINE
  5
465
330
1F
100
AcDbEntity
  8
LAY-10
  6
CONTINUOUS
 62
     7
100
AcDbLine
 10
662.5000000000043
 20
1188.500000000005
 30
0.0
 11
662.5000000000043
 21
1191.500000000005
 31
0.0
  0
LINE
  5
466
330
1F
100
AcDbEntity
  8
LAY-10
  6
CONTINUOUS
 62
     7
100
AcDbLine
 10
662.5000000000043
 20
1197.500000000005
 30
0.0
 11
662.5000000000043
 21
1200.500000000005
 31
0.0
  0
LINE
  5
467
330
1F
100
AcDbEntity
  8
LAY-10
  6
CONTINUOUS
 62
     7
100
AcDbLine
 10
662.5000000000043
 20
1206.500000000005
 30
0.0
 11
662.5000000000043
 21
1209.500000000005
 31
0.0
  0
LINE
  5
468
330
1F
100
AcDbEntity
  8
LAY-10
  6
CONTINUOUS
 62
     7
100
AcDbLine
 10
667.5000000000043
 20
1209.500000000005
 30
0.0
 11
667.5000000000043
 21
1206.500000000005
 31
0.0
  0
LINE
  5
469
330
1F
100
AcDbEntity
  8
LAY-10
  6
CONTINUOUS
 62
     7
100
AcDbLine
 10
667.5000000000043
 20
1200.500000000005
 30
0.0
 11
667.5000000000043
 21
1197.500000000005
 31
0.0
  0
LINE
  5
46A
330
1F
100
AcDbEntity
  8
LAY-10
  6
CONTINUOUS
 62
     7
100
AcDbLine
 10
667.5000000000043
 20
1191.500000000005
 30
0.0
 11
667.5000000000043
 21
1188.500000000005
 31
0.0
  0
LINE
  5
46B
330
1F
100
AcDbEntity
  8
LAY-10
  6
CONTINUOUS
 62
     7
100
AcDbLine
 10
672.5000000000043
 20
1188.500000000005
 30
0.0
 11
672.5000000000043
 21
1191.500000000005
 31
0.0
  0
LINE
  5
46C
330
1F
100
AcDbEntity
  8
LAY-10
  6
CONTINUOUS
 62
     7
100
AcDbLine
 10
672.5000000000043
 20
1197.500000000005
 30
0.0
 11
672.5000000000043
 21
1200.500000000005
 31
0.0
  0
LINE
  5
46D
330
1F
100
AcDbEntity
  8
LAY-10
  6
CONTINUOUS
 62
     7
100
AcDbLine
 10
672.5000000000043
 20
1206.500000000005
 30
0.0
 11
672.5000000000043
 21
1209.500000000005
 31
0.0
  0
LINE
  5
46E
330
1F
100
AcDbEntity
  8
LAY-10
  6
CONTINUOUS
 62
     7
100
AcDbLine
 10
677.5000000000043
 20
1209.500000000005
 30
0.0
 11
677.5000000000043
 21
1206.500000000005
 31
0.0
  0
LINE
  5
46F
330
1F
100
AcDbEntity
  8
LAY-10
  6
CONTINUOUS
 62
     7
100
AcDbLine
 10
677.5000000000043
 20
1200.500000000005
 30
0.0
 11
677.5000000000043
 21
1197.500000000005
 31
0.0
  0
LINE
  5
470
330
1F
100
AcDbEntity
  8
LAY-10
  6
CONTINUOUS
 62
     7
100
AcDbLine
 10
677.5000000000043
 20
1191.500000000005
 30
0.0
 11
677.5000000000043
 21
1188.500000000005
 31
0.0
  0
LINE
  5
471
330
1F
100
AcDbEntity
  8
LAY-10
  6
CONTINUOUS
 62
     7
100
AcDbLine
 10
682.5000000000043
 20
1188.500000000005
 30
0.0
 11
682.5000000000043
 21
1191.500000000005
 31
0.0
  0
LINE
  5
472
330
1F
100
AcDbEntity
  8
LAY-10
  6
CONTINUOUS
 62
     7
100
AcDbLine
 10
682.5000000000043
 20
1197.500000000005
 30
0.0
 11
682.5000000000043
 21
1200.500000000005
 31
0.0
  0
LINE
  5
473
330
1F
100
AcDbEntity
  8
LAY-10
  6
CONTINUOUS
 62
     7
100
AcDbLine
 10
682.5000000000043
 20
1206.500000000005
 30
0.0
 11
682.5000000000043
 21
1209.500000000005
 31
0.0
  0
LINE
  5
474
330
1F
100
AcDbEntity
  8
LAY-10
  6
CONTINUOUS
 62
     7
100
AcDbLine
 10
687.5000000000043
 20
1209.500000000005
 30
0.0
 11
687.5000000000043
 21
1206.500000000005
 31
0.0
  0
LINE
  5
475
330
1F
100
AcDbEntity
  8
LAY-10
  6
CONTINUOUS
 62
     7
100
AcDbLine
 10
687.5000000000043
 20
1200.500000000005
 30
0.0
 11
687.5000000000043
 21
1197.500000000005
 31
0.0
  0
LINE
  5
476
330
1F
100
AcDbEntity
  8
LAY-10
  6
CONTINUOUS
 62
     7
100
AcDbLine
 10
687.5000000000043
 20
1191.500000000005
 30
0.0
 11
687.5000000000043
 21
1188.500000000005
 31
0.0
  0
LINE
  5
477
330
1F
100
AcDbEntity
  8
LAY-10
  6
CONTINUOUS
 62
     7
100
AcDbLine
 10
692.5000000000043
 20
1188.500000000005
 30
0.0
 11
692.5000000000043
 21
1191.500000000005
 31
0.0
  0
LINE
  5
478
330
1F
100
AcDbEntity
  8
LAY-10
  6
CONTINUOUS
 62
     7
100
AcDbLine
 10
692.5000000000043
 20
1197.500000000005
 30
0.0
 11
692.5000000000043
 21
1200.500000000005
 31
0.0
  0
LINE
  5
479
330
1F
100
AcDbEntity
  8
LAY-10
  6
CONTINUOUS
 62
     7
100
AcDbLine
 10
692.5000000000043
 20
1206.500000000005
 30
0.0
 11
692.5000000000043
 21
1209.500000000005
 31
0.0
  0
LINE
  5
47A
330
1F
100
AcDbEntity
  8
LAY-10
  6
CONTINUOUS
 62
     7
100
AcDbLine
 10
697.5000000000043
 20
1209.500000000005
 30
0.0
 11
697.5000000000043
 21
1206.500000000005
 31
0.0
  0
LINE
  5
47B
330
1F
100
AcDbEntity
  8
LAY-10
  6
CONTINUOUS
 62
     7
100
AcDbLine
 10
697.5000000000043
 20
1200.500000000005
 30
0.0
 11
697.5000000000043
 21
1197.500000000005
 31
0.0
  0
LINE
  5
47C
330
1F
100
AcDbEntity
  8
LAY-10
  6
CONTINUOUS
 62
     7
100
AcDbLine
 10
697.5000000000043
 20
1191.500000000005
 30
0.0
 11
697.5000000000043
 21
1188.500000000005
 31
0.0
  0
LINE
  5
47D
330
1F
100
AcDbEntity
  8
LAY-10
  6
CONTINUOUS
 62
     7
100
AcDbLine
 10
702.5000000000043
 20
1188.500000000005
 30
0.0
 11
702.5000000000043
 21
1191.500000000005
 31
0.0
  0
LINE
  5
47E
330
1F
100
AcDbEntity
  8
LAY-10
  6
CONTINUOUS
 62
     7
100
AcDbLine
 10
702.5000000000043
 20
1197.500000000005
 30
0.0
 11
702.5000000000043
 21
1200.500000000005
 31
0.0
  0
LINE
  5
47F
330
1F
100
AcDbEntity
  8
LAY-10
  6
CONTINUOUS
 62
     7
100
AcDbLine
 10
702.5000000000043
 20
1206.500000000005
 30
0.0
 11
702.5000000000043
 21
1209.500000000005
 31
0.0
  0
LINE
  5
480
330
1F
100
AcDbEntity
  8
LAY-10
  6
CONTINUOUS
 62
     7
100
AcDbLine
 10
707.5000000000043
 20
1209.500000000005
 30
0.0
 11
707.5000000000043
 21
1206.500000000005
 31
0.0
  0
LINE
  5
481
330
1F
100
AcDbEntity
  8
LAY-10
  6
CONTINUOUS
 62
     7
100
AcDbLine
 10
707.5000000000043
 20
1200.500000000005
 30
0.0
 11
707.5000000000043
 21
1197.500000000005
 31
0.0
  0
LINE
  5
482
330
1F
100
AcDbEntity
  8
LAY-10
  6
CONTINUOUS
 62
     7
100
AcDbLine
 10
707.5000000000043
 20
1191.500000000005
 30
0.0
 11
707.5000000000043
 21
1188.500000000005
 31
0.0
  0
LINE
  5
483
330
1F
100
AcDbEntity
  8
LAY-10
  6
CONTINUOUS
 62
     7
100
AcDbLine
 10
712.5000000000043
 20
1161.500000000005
 30
0.0
 11
712.5000000000043
 21
1164.500000000005
 31
0.0
  0
LINE
  5
484
330
1F
100
AcDbEntity
  8
LAY-10
  6
CONTINUOUS
 62
     7
100
AcDbLine
 10
712.5000000000043
 20
1170.500000000005
 30
0.0
 11
712.5000000000043
 21
1173.500000000005
 31
0.0
  0
LINE
  5
485
330
1F
100
AcDbEntity
  8
LAY-10
  6
CONTINUOUS
 62
     7
100
AcDbLine
 10
712.5000000000043
 20
1179.500000000005
 30
0.0
 11
712.5000000000043
 21
1182.500000000005
 31
0.0
  0
LINE
  5
486
330
1F
100
AcDbEntity
  8
LAY-10
  6
CONTINUOUS
 62
     7
100
AcDbLine
 10
712.5000000000043
 20
1188.500000000005
 30
0.0
 11
712.5000000000043
 21
1191.500000000005
 31
0.0
  0
LINE
  5
487
330
1F
100
AcDbEntity
  8
LAY-10
  6
CONTINUOUS
 62
     7
100
AcDbLine
 10
712.5000000000043
 20
1197.500000000005
 30
0.0
 11
712.5000000000043
 21
1200.500000000005
 31
0.0
  0
LINE
  5
488
330
1F
100
AcDbEntity
  8
LAY-10
  6
CONTINUOUS
 62
     7
100
AcDbLine
 10
712.5000000000043
 20
1206.500000000005
 30
0.0
 11
712.5000000000043
 21
1209.500000000005
 31
0.0
  0
LINE
  5
489
330
1F
100
AcDbEntity
  8
LAY-10
  6
CONTINUOUS
 62
     7
100
AcDbLine
 10
717.5000000000043
 20
1209.500000000005
 30
0.0
 11
717.5000000000043
 21
1206.500000000005
 31
0.0
  0
LINE
  5
48A
330
1F
100
AcDbEntity
  8
LAY-10
  6
CONTINUOUS
 62
     7
100
AcDbLine
 10
717.5000000000043
 20
1200.500000000005
 30
0.0
 11
717.5000000000043
 21
1197.500000000005
 31
0.0
  0
LINE
  5
48B
330
1F
100
AcDbEntity
  8
LAY-10
  6
CONTINUOUS
 62
     7
100
AcDbLine
 10
717.5000000000043
 20
1191.500000000005
 30
0.0
 11
717.5000000000043
 21
1188.500000000005
 31
0.0
  0
LINE
  5
48C
330
1F
100
AcDbEntity
  8
LAY-10
  6
CONTINUOUS
 62
     7
100
AcDbLine
 10
717.5000000000043
 20
1182.500000000005
 30
0.0
 11
717.5000000000043
 21
1179.500000000005
 31
0.0
  0
LINE
  5
48D
330
1F
100
AcDbEntity
  8
LAY-10
  6
CONTINUOUS
 62
     7
100
AcDbLine
 10
717.5000000000043
 20
1173.500000000005
 30
0.0
 11
717.5000000000043
 21
1170.500000000005
 31
0.0
  0
LINE
  5
48E
330
1F
100
AcDbEntity
  8
LAY-10
  6
CONTINUOUS
 62
     7
100
AcDbLine
 10
717.5000000000043
 20
1164.500000000005
 30
0.0
 11
717.5000000000043
 21
1161.500000000005
 31
0.0
  0
LINE
  5
48F
330
1F
100
AcDbEntity
  8
LAY-10
  6
CONTINUOUS
 62
     7
100
AcDbLine
 10
722.5000000000041
 20
1161.500000000005
 30
0.0
 11
722.5000000000041
 21
1164.500000000005
 31
0.0
  0
LINE
  5
490
330
1F
100
AcDbEntity
  8
LAY-10
  6
CONTINUOUS
 62
     7
100
AcDbLine
 10
722.5000000000041
 20
1170.500000000005
 30
0.0
 11
722.5000000000041
 21
1173.500000000005
 31
0.0
  0
LINE
  5
491
330
1F
100
AcDbEntity
  8
LAY-10
  6
CONTINUOUS
 62
     7
100
AcDbLine
 10
722.5000000000041
 20
1179.500000000005
 30
0.0
 11
722.5000000000041
 21
1182.500000000005
 31
0.0
  0
LINE
  5
492
330
1F
100
AcDbEntity
  8
LAY-10
  6
CONTINUOUS
 62
     7
100
AcDbLine
 10
722.5000000000041
 20
1188.500000000005
 30
0.0
 11
722.5000000000041
 21
1191.500000000005
 31
0.0
  0
LINE
  5
493
330
1F
100
AcDbEntity
  8
LAY-10
  6
CONTINUOUS
 62
     7
100
AcDbLine
 10
722.5000000000041
 20
1197.500000000005
 30
0.0
 11
722.5000000000041
 21
1200.500000000005
 31
0.0
  0
LINE
  5
494
330
1F
100
AcDbEntity
  8
LAY-10
  6
CONTINUOUS
 62
     7
100
AcDbLine
 10
722.5000000000041
 20
1206.500000000005
 30
0.0
 11
722.5000000000041
 21
1209.500000000005
 31
0.0
  0
LINE
  5
495
330
1F
100
AcDbEntity
  8
LAY-10
  6
CONTINUOUS
 62
     7
100
AcDbLine
 10
727.5000000000041
 20
1209.500000000005
 30
0.0
 11
727.5000000000041
 21
1206.500000000005
 31
0.0
  0
LINE
  5
496
330
1F
100
AcDbEntity
  8
LAY-10
  6
CONTINUOUS
 62
     7
100
AcDbLine
 10
727.5000000000041
 20
1200.500000000005
 30
0.0
 11
727.5000000000041
 21
1197.500000000005
 31
0.0
  0
LINE
  5
497
330
1F
100
AcDbEntity
  8
LAY-10
  6
CONTINUOUS
 62
     7
100
AcDbLine
 10
727.5000000000041
 20
1191.500000000005
 30
0.0
 11
727.5000000000041
 21
1188.500000000005
 31
0.0
  0
LINE
  5
498
330
1F
100
AcDbEntity
  8
LAY-10
  6
CONTINUOUS
 62
     7
100
AcDbLine
 10
727.5000000000041
 20
1182.500000000005
 30
0.0
 11
727.5000000000041
 21
1179.500000000005
 31
0.0
  0
LINE
  5
499
330
1F
100
AcDbEntity
  8
LAY-10
  6
CONTINUOUS
 62
     7
100
AcDbLine
 10
727.5000000000041
 20
1173.500000000005
 30
0.0
 11
727.5000000000041
 21
1170.500000000005
 31
0.0
  0
LINE
  5
49A
330
1F
100
AcDbEntity
  8
LAY-10
  6
CONTINUOUS
 62
     7
100
AcDbLine
 10
727.5000000000041
 20
1164.500000000005
 30
0.0
 11
727.5000000000041
 21
1161.500000000005
 31
0.0
  0
LINE
  5
49B
330
1F
100
AcDbEntity
  8
LAY-10
  6
CONTINUOUS
 62
     7
100
AcDbLine
 10
732.5000000000041
 20
1209.500000000005
 30
0.0
 11
732.5000000000041
 21
1206.500000000005
 31
0.0
  0
LINE
  5
49C
330
1F
100
AcDbEntity
  8
LAY-10
  6
CONTINUOUS
 62
     7
100
AcDbLine
 10
732.5000000000041
 20
1200.500000000005
 30
0.0
 11
732.5000000000041
 21
1197.500000000005
 31
0.0
  0
LINE
  5
49D
330
1F
100
AcDbEntity
  8
LAY-10
  6
CONTINUOUS
 62
     7
100
AcDbLine
 10
732.5000000000041
 20
1191.500000000005
 30
0.0
 11
732.5000000000041
 21
1188.500000000005
 31
0.0
  0
LINE
  5
49E
330
1F
100
AcDbEntity
  8
LAY-10
  6
CONTINUOUS
 62
     7
100
AcDbLine
 10
732.5000000000041
 20
1182.500000000005
 30
0.0
 11
732.5000000000041
 21
1179.500000000005
 31
0.0
  0
LINE
  5
49F
330
1F
100
AcDbEntity
  8
LAY-10
  6
CONTINUOUS
 62
     7
100
AcDbLine
 10
732.5000000000041
 20
1173.500000000005
 30
0.0
 11
732.5000000000041
 21
1170.500000000005
 31
0.0
  0
LINE
  5
4A0
330
1F
100
AcDbEntity
  8
LAY-10
  6
CONTINUOUS
 62
     7
100
AcDbLine
 10
732.5000000000041
 20
1164.500000000005
 30
0.0
 11
732.5000000000041
 21
1161.500000000005
 31
0.0
  0
LINE
  5
4A1
330
1F
100
AcDbEntity
  8
LAY-10
  6
CONTINUOUS
 62
     7
100
AcDbLine
 10
737.5000000000041
 20
1209.500000000005
 30
0.0
 11
737.5000000000041
 21
1206.500000000005
 31
0.0
  0
LINE
  5
4A2
330
1F
100
AcDbEntity
  8
LAY-10
  6
CONTINUOUS
 62
     7
100
AcDbLine
 10
737.5000000000041
 20
1200.500000000005
 30
0.0
 11
737.5000000000041
 21
1197.500000000005
 31
0.0
  0
LINE
  5
4A3
330
1F
100
AcDbEntity
  8
LAY-10
  6
CONTINUOUS
 62
     7
100
AcDbLine
 10
737.5000000000041
 20
1191.500000000005
 30
0.0
 11
737.5000000000041
 21
1188.500000000005
 31
0.0
  0
LINE
  5
4A4
330
1F
100
AcDbEntity
  8
LAY-10
  6
CONTINUOUS
 62
     7
100
AcDbLine
 10
737.5000000000041
 20
1182.500000000005
 30
0.0
 11
737.5000000000041
 21
1179.500000000005
 31
0.0
  0
LINE
  5
4A5
330
1F
100
AcDbEntity
  8
LAY-10
  6
CONTINUOUS
 62
     7
100
AcDbLine
 10
737.5000000000041
 20
1173.500000000005
 30
0.0
 11
737.5000000000041
 21
1170.500000000005
 31
0.0
  0
LINE
  5
4A6
330
1F
100
AcDbEntity
  8
LAY-10
  6
CONTINUOUS
 62
     7
100
AcDbLine
 10
737.5000000000041
 20
1164.500000000005
 30
0.0
 11
737.5000000000041
 21
1161.500000000005
 31
0.0
  0
LINE
  5
4A7
330
1F
100
AcDbEntity
  8
LAY-10
  6
CONTINUOUS
 62
     7
100
AcDbLine
 10
742.5000000000041
 20
1209.500000000005
 30
0.0
 11
742.5000000000041
 21
1206.500000000005
 31
0.0
  0
LINE
  5
4A8
330
1F
100
AcDbEntity
  8
LAY-10
  6
CONTINUOUS
 62
     7
100
AcDbLine
 10
742.5000000000041
 20
1200.500000000005
 30
0.0
 11
742.5000000000041
 21
1197.500000000005
 31
0.0
  0
LINE
  5
4A9
330
1F
100
AcDbEntity
  8
LAY-10
  6
CONTINUOUS
 62
     7
100
AcDbLine
 10
742.5000000000041
 20
1191.500000000005
 30
0.0
 11
742.5000000000041
 21
1188.500000000005
 31
0.0
  0
LINE
  5
4AA
330
1F
100
AcDbEntity
  8
LAY-10
  6
CONTINUOUS
 62
     7
100
AcDbLine
 10
742.5000000000041
 20
1182.500000000005
 30
0.0
 11
742.5000000000041
 21
1179.500000000005
 31
0.0
  0
LINE
  5
4AB
330
1F
100
AcDbEntity
  8
LAY-10
  6
CONTINUOUS
 62
     7
100
AcDbLine
 10
742.5000000000041
 20
1173.500000000005
 30
0.0
 11
742.5000000000041
 21
1170.500000000005
 31
0.0
  0
LINE
  5
4AC
330
1F
100
AcDbEntity
  8
LAY-10
  6
CONTINUOUS
 62
     7
100
AcDbLine
 10
742.5000000000041
 20
1164.500000000005
 30
0.0
 11
742.5000000000041
 21
1161.500000000005
 31
0.0
  0
LINE
  5
4AD
330
1F
100
AcDbEntity
  8
LAY-10
  6
CONTINUOUS
 62
     7
100
AcDbLine
 10
207.5000000000045
 20
1161.500000000005
 30
0.0
 11
207.5000000000045
 21
1164.500000000005
 31
0.0
  0
LINE
  5
4AE
330
1F
100
AcDbEntity
  8
LAY-10
  6
CONTINUOUS
 62
     7
100
AcDbLine
 10
207.5000000000045
 20
1170.500000000005
 30
0.0
 11
207.5000000000045
 21
1173.500000000005
 31
0.0
  0
LINE
  5
4AF
330
1F
100
AcDbEntity
  8
LAY-10
  6
CONTINUOUS
 62
     7
100
AcDbLine
 10
207.5000000000045
 20
1179.500000000005
 30
0.0
 11
207.5000000000045
 21
1182.500000000005
 31
0.0
  0
LINE
  5
4B0
330
1F
100
AcDbEntity
  8
LAY-10
  6
CONTINUOUS
 62
     7
100
AcDbLine
 10
207.5000000000045
 20
1188.500000000005
 30
0.0
 11
207.5000000000045
 21
1191.500000000005
 31
0.0
  0
LINE
  5
4B1
330
1F
100
AcDbEntity
  8
LAY-10
  6
CONTINUOUS
 62
     7
100
AcDbLine
 10
207.5000000000045
 20
1197.500000000005
 30
0.0
 11
207.5000000000045
 21
1200.500000000005
 31
0.0
  0
LINE
  5
4B2
330
1F
100
AcDbEntity
  8
LAY-10
  6
CONTINUOUS
 62
     7
100
AcDbLine
 10
207.5000000000045
 20
1206.500000000005
 30
0.0
 11
207.5000000000045
 21
1209.500000000005
 31
0.0
  0
LINE
  5
4B3
330
1F
100
AcDbEntity
  8
LAY-10
  6
CONTINUOUS
 62
     7
100
AcDbLine
 10
640.0
 20
1195.00000000005
 30
0.0
 11
621.0
 21
1195.00000000005
 31
0.0
  0
LINE
  5
4B4
330
1F
100
AcDbEntity
  8
LAY-10
  6
CONTINUOUS
 62
     7
100
AcDbLine
 10
621.0
 20
1210.499999999981
 30
0.0
 11
640.0
 21
1210.499999999981
 31
0.0
  0
LINE
  5
4B5
330
1F
100
AcDbEntity
  8
LAY-10
  6
CONTINUOUS
 62
     7
100
AcDbLine
 10
316.0
 20
1195.00000000005
 30
0.0
 11
297.0
 21
1195.00000000005
 31
0.0
  0
LINE
  5
4B6
330
1F
100
AcDbEntity
  8
LAY-10
  6
CONTINUOUS
 62
     7
100
AcDbLine
 10
297.0
 20
1210.499999999981
 30
0.0
 11
316.0
 21
1210.499999999981
 31
0.0
  0
LINE
  5
4B7
330
1F
100
AcDbEntity
  8
LAY-10
  6
CONTINUOUS
 62
     7
100
AcDbLine
 10
316.0000000000041
 20
1209.499999999956
 30
0.0
 11
316.0000000000041
 21
1210.499999999981
 31
0.0
  0
LINE
  5
4B8
330
1F
100
AcDbEntity
  8
LAY-10
  6
CONTINUOUS
 62
     7
100
AcDbLine
 10
297.0000000000041
 20
1209.499999999956
 30
0.0
 11
297.0000000000041
 21
1210.499999999981
 31
0.0
  0
LINE
  5
4B9
330
1F
100
AcDbEntity
  8
LAY-10
  6
CONTINUOUS
 62
     7
100
AcDbLine
 10
621.0000000000033
 20
1209.499999999956
 30
0.0
 11
621.0000000000033
 21
1210.499999999981
 31
0.0
  0
LINE
  5
4BA
330
1F
100
AcDbEntity
  8
LAY-10
  6
CONTINUOUS
 62
     7
100
AcDbLine
 10
640.0000000000042
 20
1209.499999999956
 30
0.0
 11
640.0000000000042
 21
1210.499999999981
 31
0.0
  0
LINE
  5
4BB
330
1F
100
AcDbEntity
  8
LAY-10
  6
CONTINUOUS
 62
     7
100
AcDbLine
 10
673.9999999999983
 20
1139.499999999994
 30
0.0
 11
738.9999999999978
 21
1139.499999999994
 31
0.0
  0
LINE
  5
4BC
330
1F
100
AcDbEntity
  8
LAY-10
  6
CONTINUOUS
 62
     7
100
AcDbLine
 10
717.9999999999941
 20
1139.499999999994
 30
0.0
 11
717.9999999999941
 21
1145.499999999994
 31
0.0
  0
LINE
  5
4BD
330
1F
100
AcDbEntity
  8
LAY-10
  6
CONTINUOUS
 62
     7
100
AcDbLine
 10
723.9999999999918
 20
1139.499999999994
 30
0.0
 11
723.9999999999918
 21
1145.499999999994
 31
0.0
  0
LINE
  5
4BE
330
1F
100
AcDbEntity
  8
LAY-10
  6
CONTINUOUS
 62
     7
100
AcDbLine
 10
674.0000000000001
 20
1134.999999999994
 30
0.0
 11
738.9999999999978
 21
1134.999999999994
 31
0.0
  0
LINE
  5
4BF
330
1F
100
AcDbEntity
  8
LAY-10
  6
CONTINUOUS
 62
     7
100
AcDbLine
 10
276.0000000000075
 20
1139.499999999995
 30
0.0
 11
211.000000000008
 21
1139.499999999995
 31
0.0
  0
LINE
  5
4C0
330
1F
100
AcDbEntity
  8
LAY-10
  6
CONTINUOUS
 62
     7
100
AcDbLine
 10
232.0000000000118
 20
1139.499999999995
 30
0.0
 11
232.0000000000118
 21
1145.499999999995
 31
0.0
  0
LINE
  5
4C1
330
1F
100
AcDbEntity
  8
LAY-10
  6
CONTINUOUS
 62
     7
100
AcDbLine
 10
226.0000000000141
 20
1139.499999999995
 30
0.0
 11
226.0000000000141
 21
1145.499999999995
 31
0.0
  0
LINE
  5
4C2
330
1F
100
AcDbEntity
  8
LAY-10
  6
CONTINUOUS
 62
     7
100
AcDbLine
 10
276.0000000000057
 20
1134.999999999994
 30
0.0
 11
211.0000000000078
 21
1134.999999999994
 31
0.0
  0
LINE
  5
4C3
330
1F
100
AcDbEntity
  8
LAY-10
  6
HIDDEN
 62
     7
100
AcDbLine
 10
700.0000000000036
 20
724.9999999999822
 30
0.0
 11
249.9999999999998
 21
724.9999999999822
 31
0.0
  0
LINE
  5
4C4
330
1F
100
AcDbEntity
  8
LAY-10
  6
CONTINUOUS
 62
     7
100
AcDbLine
 10
604.9999999998668
 20
715.9999999999616
 30
0.0
 11
604.9999999998668
 21
755.9999999999616
 31
0.0
  0
LINE
  5
4C5
330
1F
100
AcDbEntity
  8
LAY-10
  6
CONTINUOUS
 62
     7
100
AcDbLine
 10
644.9999999998668
 20
715.9999999999616
 30
0.0
 11
644.9999999998668
 21
755.9999999999616
 31
0.0
  0
LINE
  5
4C6
330
1F
100
AcDbEntity
  8
LAY-10
  6
CONTINUOUS
 62
     7
100
AcDbLine
 10
644.9999999998668
 20
748.4999999999616
 30
0.0
 11
604.9999999998668
 21
748.4999999999616
 31
0.0
  0
LINE
  5
4C7
330
1F
100
AcDbEntity
  8
LAY-10
  6
CONTINUOUS
 62
     7
100
AcDbLine
 10
644.9999999998668
 20
755.9999999999616
 30
0.0
 11
604.9999999998668
 21
755.9999999999616
 31
0.0
  0
LINE
  5
4C8
330
1F
100
AcDbEntity
  8
LAY-10
  6
CONTINUOUS
 62
     7
100
AcDbLine
 10
644.9999999998668
 20
715.9999999999616
 30
0.0
 11
604.9999999998668
 21
715.9999999999616
 31
0.0
  0
LINE
  5
4C9
330
1F
100
AcDbEntity
  8
LAY-10
  6
CONTINUOUS
 62
     7
100
AcDbLine
 10
644.9999999998668
 20
723.4999999999616
 30
0.0
 11
604.9999999998668
 21
723.4999999999616
 31
0.0
  0
LINE
  5
4CA
330
1F
100
AcDbEntity
  8
LAY-10
  6
CONTINUOUS
 62
     7
100
AcDbLine
 10
344.9999999998658
 20
715.9999999999607
 30
0.0
 11
344.9999999998658
 21
755.9999999999607
 31
0.0
  0
LINE
  5
4CB
330
1F
100
AcDbEntity
  8
LAY-10
  6
CONTINUOUS
 62
     7
100
AcDbLine
 10
304.9999999998668
 20
715.9999999999607
 30
0.0
 11
304.9999999998668
 21
755.9999999999607
 31
0.0
  0
LINE
  5
4CC
330
1F
100
AcDbEntity
  8
LAY-10
  6
CONTINUOUS
 62
     7
100
AcDbLine
 10
304.9999999998668
 20
748.4999999999607
 30
0.0
 11
344.9999999998658
 21
748.4999999999607
 31
0.0
  0
LINE
  5
4CD
330
1F
100
AcDbEntity
  8
LAY-10
  6
CONTINUOUS
 62
     7
100
AcDbLine
 10
304.9999999998668
 20
755.9999999999607
 30
0.0
 11
344.9999999998658
 21
755.9999999999607
 31
0.0
  0
LINE
  5
4CE
330
1F
100
AcDbEntity
  8
LAY-10
  6
CONTINUOUS
 62
     7
100
AcDbLine
 10
304.9999999998668
 20
715.9999999999607
 30
0.0
 11
344.9999999998658
 21
715.9999999999607
 31
0.0
  0
LINE
  5
4CF
330
1F
100
AcDbEntity
  8
LAY-10
  6
CONTINUOUS
 62
     7
100
AcDbLine
 10
304.9999999998668
 20
723.4999999999607
 30
0.0
 11
344.9999999998658
 21
723.4999999999607
 31
0.0
  0
LINE
  5
4D0
330
1F
100
AcDbEntity
  8
LAY-10
  6
HIDDEN
 62
     7
100
AcDbLine
 10
249.9999999999998
 20
724.9999999999822
 30
0.0
 11
249.9999999999998
 21
1175.0
 31
0.0
  0
LINE
  5
4D1
330
1F
100
AcDbEntity
  8
LAY-10
  6
HIDDEN
 62
     7
100
AcDbLine
 10
700.0000000000036
 20
724.9999999999822
 30
0.0
 11
700.0000000000034
 21
1175.0
 31
0.0
  0
LINE
  5
4D2
330
1F
100
AcDbEntity
  8
LAY-10
  6
CONTINUOUS
 62
     7
100
AcDbLine
 10
604.9999999998668
 20
1075.499999999751
 30
0.0
 11
604.9999999998668
 21
1115.499999999751
 31
0.0
  0
LINE
  5
4D3
330
1F
100
AcDbEntity
  8
LAY-10
  6
CONTINUOUS
 62
     7
100
AcDbLine
 10
644.9999999998668
 20
1075.499999999751
 30
0.0
 11
644.9999999998668
 21
1115.499999999751
 31
0.0
  0
LINE
  5
4D4
330
1F
100
AcDbEntity
  8
LAY-10
  6
CONTINUOUS
 62
     7
100
AcDbLine
 10
644.9999999998668
 20
1075.499999999751
 30
0.0
 11
604.9999999998668
 21
1075.499999999751
 31
0.0
  0
LINE
  5
4D5
330
1F
100
AcDbEntity
  8
LAY-10
  6
CONTINUOUS
 62
     7
100
AcDbLine
 10
644.9999999998668
 20
1082.999999999751
 30
0.0
 11
604.9999999998668
 21
1082.999999999751
 31
0.0
  0
LINE
  5
4D6
330
1F
100
AcDbEntity
  8
LAY-10
  6
CONTINUOUS
 62
     7
100
AcDbLine
 10
344.9999999998658
 20
1075.499999999751
 30
0.0
 11
344.9999999998658
 21
1115.499999999751
 31
0.0
  0
LINE
  5
4D7
330
1F
100
AcDbEntity
  8
LAY-10
  6
CONTINUOUS
 62
     7
100
AcDbLine
 10
304.9999999998668
 20
1075.499999999751
 30
0.0
 11
304.9999999998668
 21
1115.499999999751
 31
0.0
  0
LINE
  5
4D8
330
1F
100
AcDbEntity
  8
LAY-10
  6
CONTINUOUS
 62
     7
100
AcDbLine
 10
304.9999999998668
 20
1075.499999999751
 30
0.0
 11
344.9999999998658
 21
1075.499999999751
 31
0.0
  0
LINE
  5
4D9
330
1F
100
AcDbEntity
  8
LAY-10
  6
CONTINUOUS
 62
     7
100
AcDbLine
 10
304.9999999998668
 20
1082.999999999751
 30
0.0
 11
344.9999999998658
 21
1082.999999999751
 31
0.0
  0
LINE
  5
4DA
330
1F
100
AcDbEntity
  8
LAY-10
  6
CONTINUOUS
 62
     7
100
AcDbLine
 10
644.9999999998668
 20
1107.999999999751
 30
0.0
 11
604.9999999998668
 21
1107.999999999751
 31
0.0
  0
LINE
  5
4DB
330
1F
100
AcDbEntity
  8
LAY-10
  6
CONTINUOUS
 62
     7
100
AcDbLine
 10
644.9999999998668
 20
1115.499999999751
 30
0.0
 11
604.9999999998668
 21
1115.499999999751
 31
0.0
  0
LINE
  5
4DC
330
1F
100
AcDbEntity
  8
LAY-10
  6
CONTINUOUS
 62
     7
100
AcDbLine
 10
304.9999999998668
 20
1107.999999999751
 30
0.0
 11
344.9999999998658
 21
1107.999999999751
 31
0.0
  0
LINE
  5
4DD
330
1F
100
AcDbEntity
  8
LAY-10
  6
CONTINUOUS
 62
     7
100
AcDbLine
 10
304.9999999998668
 20
1115.499999999751
 30
0.0
 11
344.9999999998658
 21
1115.499999999751
 31
0.0
  0
LINE
  5
4DE
330
1F
100
AcDbEntity
  8
LAY-10
  6
CONTINUOUS
 62
     7
100
AcDbLine
 10
316.0000000000041
 20
1164.499999999956
 30
0.0
 11
316.0000000000041
 21
1170.499999999956
 31
0.0
  0
LINE
  5
4DF
330
1F
100
AcDbEntity
  8
LAY-10
  6
CONTINUOUS
 62
     7
100
AcDbLine
 10
297.0000000000041
 20
1164.499999999956
 30
0.0
 11
297.0000000000041
 21
1170.499999999956
 31
0.0
  0
LINE
  5
4E0
330
1F
100
AcDbEntity
  8
LAY-10
  6
CONTINUOUS
 62
     7
100
AcDbLine
 10
316.0000000000041
 20
1173.499999999956
 30
0.0
 11
316.0000000000041
 21
1179.499999999956
 31
0.0
  0
LINE
  5
4E1
330
1F
100
AcDbEntity
  8
LAY-10
  6
CONTINUOUS
 62
     7
100
AcDbLine
 10
297.0000000000041
 20
1173.499999999956
 30
0.0
 11
297.0000000000041
 21
1179.499999999956
 31
0.0
  0
LINE
  5
4E2
330
1F
100
AcDbEntity
  8
LAY-10
  6
CONTINUOUS
 62
     7
100
AcDbLine
 10
316.0000000000041
 20
1182.499999999956
 30
0.0
 11
316.0000000000041
 21
1188.499999999956
 31
0.0
  0
LINE
  5
4E3
330
1F
100
AcDbEntity
  8
LAY-10
  6
CONTINUOUS
 62
     7
100
AcDbLine
 10
297.0000000000041
 20
1182.499999999956
 30
0.0
 11
297.0000000000041
 21
1188.499999999956
 31
0.0
  0
LINE
  5
4E4
330
1F
100
AcDbEntity
  8
LAY-10
  6
CONTINUOUS
 62
     7
100
AcDbLine
 10
233.5000000000041
 20
1155.499999999956
 30
0.0
 11
233.5000000000041
 21
1161.499999999955
 31
0.0
  0
LINE
  5
4E5
330
1F
100
AcDbEntity
  8
LAY-10
  6
CONTINUOUS
 62
     7
100
AcDbLine
 10
239.5000000000041
 20
1155.499999999956
 30
0.0
 11
239.5000000000041
 21
1161.499999999955
 31
0.0
  0
LINE
  5
4E6
330
1F
100
AcDbEntity
  8
LAY-10
  6
CONTINUOUS
 62
     7
100
AcDbLine
 10
233.5000000000041
 20
1164.499999999956
 30
0.0
 11
233.5000000000041
 21
1170.499999999956
 31
0.0
  0
LINE
  5
4E7
330
1F
100
AcDbEntity
  8
LAY-10
  6
CONTINUOUS
 62
     7
100
AcDbLine
 10
239.5000000000041
 20
1164.499999999956
 30
0.0
 11
239.5000000000041
 21
1170.499999999956
 31
0.0
  0
LINE
  5
4E8
330
1F
100
AcDbEntity
  8
LAY-10
  6
CONTINUOUS
 62
     7
100
AcDbLine
 10
233.5000000000041
 20
1173.499999999956
 30
0.0
 11
233.5000000000041
 21
1179.499999999956
 31
0.0
  0
LINE
  5
4E9
330
1F
100
AcDbEntity
  8
LAY-10
  6
CONTINUOUS
 62
     7
100
AcDbLine
 10
239.5000000000041
 20
1173.499999999956
 30
0.0
 11
239.5000000000041
 21
1179.499999999956
 31
0.0
  0
LINE
  5
4EA
330
1F
100
AcDbEntity
  8
LAY-10
  6
CONTINUOUS
 62
     7
100
AcDbLine
 10
233.5000000000041
 20
1182.499999999956
 30
0.0
 11
233.5000000000041
 21
1188.499999999956
 31
0.0
  0
LINE
  5
4EB
330
1F
100
AcDbEntity
  8
LAY-10
  6
CONTINUOUS
 62
     7
100
AcDbLine
 10
239.5000000000041
 20
1182.499999999956
 30
0.0
 11
239.5000000000041
 21
1188.499999999956
 31
0.0
  0
ARC
  5
4EC
330
1F
100
AcDbEntity
  8
LAY-10
  6
CONTINUOUS
 62
     7
100
AcDbCircle
 10
306.5000000000045
 20
1185.499999999956
 30
0.0
 40
4.0
100
AcDbArc
 50
311.409622
 51
48.59037799999999
  0
ARC
  5
4ED
330
1F
100
AcDbEntity
  8
LAY-10
  6
CONTINUOUS
 62
     7
100
AcDbCircle
 10
306.5000000000045
 20
1185.499999999956
 30
0.0
 40
4.0
100
AcDbArc
 50
131.4096220000001
 51
228.590378
  0
LINE
  5
4EE
330
1F
100
AcDbEntity
  8
LAY-10
  6
CONTINUOUS
 62
     7
100
AcDbLine
 10
697.5000000000042
 20
1155.499999999956
 30
0.0
 11
697.5000000000042
 21
1161.499999999955
 31
0.0
  0
LINE
  5
4EF
330
1F
100
AcDbEntity
  8
LAY-10
  6
CONTINUOUS
 62
     7
100
AcDbLine
 10
703.5000000000033
 20
1155.499999999956
 30
0.0
 11
703.5000000000033
 21
1161.499999999955
 31
0.0
  0
LINE
  5
4F0
330
1F
100
AcDbEntity
  8
LAY-10
  6
CONTINUOUS
 62
     7
100
AcDbLine
 10
697.5000000000042
 20
1164.499999999956
 30
0.0
 11
697.5000000000042
 21
1170.499999999956
 31
0.0
  0
LINE
  5
4F1
330
1F
100
AcDbEntity
  8
LAY-10
  6
CONTINUOUS
 62
     7
100
AcDbLine
 10
703.5000000000033
 20
1164.499999999956
 30
0.0
 11
703.5000000000033
 21
1170.499999999956
 31
0.0
  0
LINE
  5
4F2
330
1F
100
AcDbEntity
  8
LAY-10
  6
CONTINUOUS
 62
     7
100
AcDbLine
 10
697.5000000000042
 20
1173.499999999956
 30
0.0
 11
697.5000000000042
 21
1179.499999999956
 31
0.0
  0
LINE
  5
4F3
330
1F
100
AcDbEntity
  8
LAY-10
  6
CONTINUOUS
 62
     7
100
AcDbLine
 10
703.5000000000033
 20
1173.499999999956
 30
0.0
 11
703.5000000000033
 21
1179.499999999956
 31
0.0
  0
LINE
  5
4F4
330
1F
100
AcDbEntity
  8
LAY-10
  6
CONTINUOUS
 62
     7
100
AcDbLine
 10
697.5000000000042
 20
1182.499999999956
 30
0.0
 11
697.5000000000042
 21
1188.499999999956
 31
0.0
  0
LINE
  5
4F5
330
1F
100
AcDbEntity
  8
LAY-10
  6
CONTINUOUS
 62
     7
100
AcDbLine
 10
703.5000000000033
 20
1182.499999999956
 30
0.0
 11
703.5000000000033
 21
1188.499999999956
 31
0.0
  0
LINE
  5
4F6
330
1F
100
AcDbEntity
  8
LAY-10
  6
CONTINUOUS
 62
     7
100
AcDbLine
 10
621.0000000000033
 20
1164.499999999956
 30
0.0
 11
621.0000000000033
 21
1170.499999999956
 31
0.0
  0
LINE
  5
4F7
330
1F
100
AcDbEntity
  8
LAY-10
  6
CONTINUOUS
 62
     7
100
AcDbLine
 10
640.0000000000042
 20
1164.499999999956
 30
0.0
 11
640.0000000000042
 21
1170.499999999956
 31
0.0
  0
LINE
  5
4F8
330
1F
100
AcDbEntity
  8
LAY-10
  6
CONTINUOUS
 62
     7
100
AcDbLine
 10
621.0000000000033
 20
1173.499999999956
 30
0.0
 11
621.0000000000033
 21
1179.499999999956
 31
0.0
  0
LINE
  5
4F9
330
1F
100
AcDbEntity
  8
LAY-10
  6
CONTINUOUS
 62
     7
100
AcDbLine
 10
640.0000000000042
 20
1173.499999999956
 30
0.0
 11
640.0000000000042
 21
1179.499999999956
 31
0.0
  0
LINE
  5
4FA
330
1F
100
AcDbEntity
  8
LAY-10
  6
CONTINUOUS
 62
     7
100
AcDbLine
 10
621.0000000000033
 20
1182.499999999956
 30
0.0
 11
621.0000000000033
 21
1188.499999999956
 31
0.0
  0
LINE
  5
4FB
330
1F
100
AcDbEntity
  8
LAY-10
  6
CONTINUOUS
 62
     7
100
AcDbLine
 10
640.0000000000042
 20
1182.499999999956
 30
0.0
 11
640.0000000000042
 21
1188.499999999956
 31
0.0
  0
ARC
  5
4FC
330
1F
100
AcDbEntity
  8
LAY-10
  6
CONTINUOUS
 62
     7
100
AcDbCircle
 10
630.5000000000038
 20
1185.499999999956
 30
0.0
 40
4.0
100
AcDbArc
 50
131.4096220000001
 51
228.590378
  0
ARC
  5
4FD
330
1F
100
AcDbEntity
  8
LAY-10
  6
CONTINUOUS
 62
     7
100
AcDbCircle
 10
630.5000000000038
 20
1185.499999999956
 30
0.0
 40
4.0
100
AcDbArc
 50
311.409622
 51
48.59037799999999
  0
LINE
  5
4FE
330
1F
100
AcDbEntity
  8
LAY-10
  6
CONTINUOUS
 62
     7
100
AcDbLine
 10
388.0000000000039
 20
1155.499999999956
 30
0.0
 11
388.0000000000039
 21
1161.499999999956
 31
0.0
  0
LINE
  5
4FF
330
1F
100
AcDbEntity
  8
LAY-10
  6
CONTINUOUS
 62
     7
100
AcDbLine
 10
394.0000000000041
 20
1155.499999999956
 30
0.0
 11
394.0000000000041
 21
1161.499999999956
 31
0.0
  0
LINE
  5
500
330
1F
100
AcDbEntity
  8
LAY-10
  6
CONTINUOUS
 62
     7
100
AcDbLine
 10
388.0000000000039
 20
1164.499999999956
 30
0.0
 11
388.0000000000039
 21
1170.499999999956
 31
0.0
  0
LINE
  5
501
330
1F
100
AcDbEntity
  8
LAY-10
  6
CONTINUOUS
 62
     7
100
AcDbLine
 10
394.0000000000041
 20
1164.499999999956
 30
0.0
 11
394.0000000000041
 21
1170.499999999956
 31
0.0
  0
LINE
  5
502
330
1F
100
AcDbEntity
  8
LAY-10
  6
CONTINUOUS
 62
     7
100
AcDbLine
 10
388.0000000000039
 20
1173.499999999956
 30
0.0
 11
388.0000000000039
 21
1179.499999999956
 31
0.0
  0
LINE
  5
503
330
1F
100
AcDbEntity
  8
LAY-10
  6
CONTINUOUS
 62
     7
100
AcDbLine
 10
394.0000000000041
 20
1173.499999999956
 30
0.0
 11
394.0000000000041
 21
1179.499999999956
 31
0.0
  0
LINE
  5
504
330
1F
100
AcDbEntity
  8
LAY-10
  6
CONTINUOUS
 62
     7
100
AcDbLine
 10
388.0000000000039
 20
1182.499999999956
 30
0.0
 11
388.0000000000039
 21
1188.499999999956
 31
0.0
  0
LINE
  5
505
330
1F
100
AcDbEntity
  8
LAY-10
  6
CONTINUOUS
 62
     7
100
AcDbLine
 10
394.0000000000041
 20
1182.499999999956
 30
0.0
 11
394.0000000000041
 21
1188.499999999956
 31
0.0
  0
LINE
  5
506
330
1F
100
AcDbEntity
  8
LAY-10
  6
CONTINUOUS
 62
     7
100
AcDbLine
 10
543.000000000004
 20
1155.499999999956
 30
0.0
 11
543.000000000004
 21
1161.499999999956
 31
0.0
  0
LINE
  5
507
330
1F
100
AcDbEntity
  8
LAY-10
  6
CONTINUOUS
 62
     7
100
AcDbLine
 10
549.0000000000042
 20
1155.499999999956
 30
0.0
 11
549.0000000000042
 21
1161.499999999956
 31
0.0
  0
LINE
  5
508
330
1F
100
AcDbEntity
  8
LAY-10
  6
CONTINUOUS
 62
     7
100
AcDbLine
 10
543.000000000004
 20
1164.499999999956
 30
0.0
 11
543.000000000004
 21
1170.499999999956
 31
0.0
  0
LINE
  5
509
330
1F
100
AcDbEntity
  8
LAY-10
  6
CONTINUOUS
 62
     7
100
AcDbLine
 10
549.0000000000042
 20
1164.499999999956
 30
0.0
 11
549.0000000000042
 21
1170.499999999956
 31
0.0
  0
LINE
  5
50A
330
1F
100
AcDbEntity
  8
LAY-10
  6
CONTINUOUS
 62
     7
100
AcDbLine
 10
543.000000000004
 20
1173.499999999956
 30
0.0
 11
543.000000000004
 21
1179.499999999956
 31
0.0
  0
LINE
  5
50B
330
1F
100
AcDbEntity
  8
LAY-10
  6
CONTINUOUS
 62
     7
100
AcDbLine
 10
549.0000000000042
 20
1173.499999999956
 30
0.0
 11
549.0000000000042
 21
1179.499999999956
 31
0.0
  0
LINE
  5
50C
330
1F
100
AcDbEntity
  8
LAY-10
  6
CONTINUOUS
 62
     7
100
AcDbLine
 10
543.000000000004
 20
1182.499999999956
 30
0.0
 11
543.000000000004
 21
1188.499999999956
 31
0.0
  0
LINE
  5
50D
330
1F
100
AcDbEntity
  8
LAY-10
  6
CONTINUOUS
 62
     7
100
AcDbLine
 10
549.0000000000042
 20
1182.499999999956
 30
0.0
 11
549.0000000000042
 21
1188.499999999956
 31
0.0
  0
LINE
  5
50E
330
1F
100
AcDbEntity
  8
LAY-10
  6
CONTINUOUS
 62
     7
100
AcDbLine
 10
237.5000000000043
 20
1182.500000000005
 30
0.0
 11
237.5000000000043
 21
1179.500000000005
 31
0.0
  0
LINE
  5
50F
330
1F
100
AcDbEntity
  8
LAY-10
  6
CONTINUOUS
 62
     7
100
AcDbLine
 10
237.5000000000043
 20
1173.500000000005
 30
0.0
 11
237.5000000000043
 21
1170.500000000005
 31
0.0
  0
LINE
  5
510
330
1F
100
AcDbEntity
  8
LAY-10
  6
CONTINUOUS
 62
     7
100
AcDbLine
 10
237.5000000000043
 20
1164.500000000005
 30
0.0
 11
237.5000000000043
 21
1161.500000000005
 31
0.0
  0
LINE
  5
511
330
1F
100
AcDbEntity
  8
LAY-10
  6
CONTINUOUS
 62
     7
100
AcDbLine
 10
242.5000000000043
 20
1161.500000000005
 30
0.0
 11
242.5000000000043
 21
1164.500000000005
 31
0.0
  0
LINE
  5
512
330
1F
100
AcDbEntity
  8
LAY-10
  6
CONTINUOUS
 62
     7
100
AcDbLine
 10
242.5000000000043
 20
1170.500000000005
 30
0.0
 11
242.5000000000043
 21
1173.500000000005
 31
0.0
  0
LINE
  5
513
330
1F
100
AcDbEntity
  8
LAY-10
  6
CONTINUOUS
 62
     7
100
AcDbLine
 10
242.5000000000043
 20
1179.500000000005
 30
0.0
 11
242.5000000000043
 21
1182.500000000005
 31
0.0
  0
LINE
  5
514
330
1F
100
AcDbEntity
  8
LAY-10
  6
CONTINUOUS
 62
     7
100
AcDbLine
 10
247.5000000000043
 20
1182.500000000005
 30
0.0
 11
247.5000000000043
 21
1179.500000000005
 31
0.0
  0
LINE
  5
515
330
1F
100
AcDbEntity
  8
LAY-10
  6
CONTINUOUS
 62
     7
100
AcDbLine
 10
247.5000000000043
 20
1173.500000000005
 30
0.0
 11
247.5000000000043
 21
1170.500000000005
 31
0.0
  0
LINE
  5
516
330
1F
100
AcDbEntity
  8
LAY-10
  6
CONTINUOUS
 62
     7
100
AcDbLine
 10
247.5000000000043
 20
1164.500000000005
 30
0.0
 11
247.5000000000043
 21
1161.500000000005
 31
0.0
  0
LINE
  5
517
330
1F
100
AcDbEntity
  8
LAY-10
  6
CONTINUOUS
 62
     7
100
AcDbLine
 10
252.5000000000043
 20
1161.500000000005
 30
0.0
 11
252.5000000000043
 21
1164.500000000005
 31
0.0
  0
LINE
  5
518
330
1F
100
AcDbEntity
  8
LAY-10
  6
CONTINUOUS
 62
     7
100
AcDbLine
 10
252.5000000000043
 20
1170.500000000005
 30
0.0
 11
252.5000000000043
 21
1173.500000000005
 31
0.0
  0
LINE
  5
519
330
1F
100
AcDbEntity
  8
LAY-10
  6
CONTINUOUS
 62
     7
100
AcDbLine
 10
252.5000000000043
 20
1179.500000000005
 30
0.0
 11
252.5000000000043
 21
1182.500000000005
 31
0.0
  0
LINE
  5
51A
330
1F
100
AcDbEntity
  8
LAY-10
  6
CONTINUOUS
 62
     7
100
AcDbLine
 10
257.5000000000043
 20
1182.500000000005
 30
0.0
 11
257.5000000000043
 21
1179.500000000005
 31
0.0
  0
LINE
  5
51B
330
1F
100
AcDbEntity
  8
LAY-10
  6
CONTINUOUS
 62
     7
100
AcDbLine
 10
257.5000000000043
 20
1173.500000000005
 30
0.0
 11
257.5000000000043
 21
1170.500000000005
 31
0.0
  0
LINE
  5
51C
330
1F
100
AcDbEntity
  8
LAY-10
  6
CONTINUOUS
 62
     7
100
AcDbLine
 10
257.5000000000043
 20
1164.500000000005
 30
0.0
 11
257.5000000000043
 21
1161.500000000005
 31
0.0
  0
LINE
  5
51D
330
1F
100
AcDbEntity
  8
LAY-10
  6
CONTINUOUS
 62
     7
100
AcDbLine
 10
262.5000000000043
 20
1161.500000000005
 30
0.0
 11
262.5000000000043
 21
1164.500000000005
 31
0.0
  0
LINE
  5
51E
330
1F
100
AcDbEntity
  8
LAY-10
  6
CONTINUOUS
 62
     7
100
AcDbLine
 10
262.5000000000043
 20
1170.500000000005
 30
0.0
 11
262.5000000000043
 21
1173.500000000005
 31
0.0
  0
LINE
  5
51F
330
1F
100
AcDbEntity
  8
LAY-10
  6
CONTINUOUS
 62
     7
100
AcDbLine
 10
262.5000000000043
 20
1179.500000000005
 30
0.0
 11
262.5000000000043
 21
1182.500000000005
 31
0.0
  0
LINE
  5
520
330
1F
100
AcDbEntity
  8
LAY-10
  6
CONTINUOUS
 62
     7
100
AcDbLine
 10
267.5000000000043
 20
1182.500000000005
 30
0.0
 11
267.5000000000043
 21
1179.500000000005
 31
0.0
  0
LINE
  5
521
330
1F
100
AcDbEntity
  8
LAY-10
  6
CONTINUOUS
 62
     7
100
AcDbLine
 10
267.5000000000043
 20
1173.500000000005
 30
0.0
 11
267.5000000000043
 21
1170.500000000005
 31
0.0
  0
LINE
  5
522
330
1F
100
AcDbEntity
  8
LAY-10
  6
CONTINUOUS
 62
     7
100
AcDbLine
 10
267.5000000000043
 20
1164.500000000005
 30
0.0
 11
267.5000000000043
 21
1161.500000000005
 31
0.0
  0
LINE
  5
523
330
1F
100
AcDbEntity
  8
LAY-10
  6
CONTINUOUS
 62
     7
100
AcDbLine
 10
272.5000000000043
 20
1161.500000000005
 30
0.0
 11
272.5000000000043
 21
1164.500000000005
 31
0.0
  0
LINE
  5
524
330
1F
100
AcDbEntity
  8
LAY-10
  6
CONTINUOUS
 62
     7
100
AcDbLine
 10
272.5000000000043
 20
1170.500000000005
 30
0.0
 11
272.5000000000043
 21
1173.500000000005
 31
0.0
  0
LINE
  5
525
330
1F
100
AcDbEntity
  8
LAY-10
  6
CONTINUOUS
 62
     7
100
AcDbLine
 10
272.5000000000043
 20
1179.500000000005
 30
0.0
 11
272.5000000000043
 21
1182.500000000005
 31
0.0
  0
LINE
  5
526
330
1F
100
AcDbEntity
  8
LAY-10
  6
CONTINUOUS
 62
     7
100
AcDbLine
 10
277.5000000000043
 20
1182.500000000005
 30
0.0
 11
277.5000000000043
 21
1179.500000000005
 31
0.0
  0
LINE
  5
527
330
1F
100
AcDbEntity
  8
LAY-10
  6
CONTINUOUS
 62
     7
100
AcDbLine
 10
277.5000000000043
 20
1173.500000000005
 30
0.0
 11
277.5000000000043
 21
1170.500000000005
 31
0.0
  0
LINE
  5
528
330
1F
100
AcDbEntity
  8
LAY-10
  6
CONTINUOUS
 62
     7
100
AcDbLine
 10
277.5000000000043
 20
1164.500000000005
 30
0.0
 11
277.5000000000043
 21
1161.500000000005
 31
0.0
  0
LINE
  5
529
330
1F
100
AcDbEntity
  8
LAY-10
  6
CONTINUOUS
 62
     7
100
AcDbLine
 10
282.5000000000043
 20
1161.500000000005
 30
0.0
 11
282.5000000000043
 21
1164.500000000005
 31
0.0
  0
LINE
  5
52A
330
1F
100
AcDbEntity
  8
LAY-10
  6
CONTINUOUS
 62
     7
100
AcDbLine
 10
282.5000000000043
 20
1170.500000000005
 30
0.0
 11
282.5000000000043
 21
1173.500000000005
 31
0.0
  0
LINE
  5
52B
330
1F
100
AcDbEntity
  8
LAY-10
  6
CONTINUOUS
 62
     7
100
AcDbLine
 10
282.5000000000043
 20
1179.500000000005
 30
0.0
 11
282.5000000000043
 21
1182.500000000005
 31
0.0
  0
LINE
  5
52C
330
1F
100
AcDbEntity
  8
LAY-10
  6
CONTINUOUS
 62
     7
100
AcDbLine
 10
287.5000000000043
 20
1182.500000000005
 30
0.0
 11
287.5000000000043
 21
1179.500000000005
 31
0.0
  0
LINE
  5
52D
330
1F
100
AcDbEntity
  8
LAY-10
  6
CONTINUOUS
 62
     7
100
AcDbLine
 10
287.5000000000043
 20
1173.500000000005
 30
0.0
 11
287.5000000000043
 21
1170.500000000005
 31
0.0
  0
LINE
  5
52E
330
1F
100
AcDbEntity
  8
LAY-10
  6
CONTINUOUS
 62
     7
100
AcDbLine
 10
287.5000000000043
 20
1164.500000000005
 30
0.0
 11
287.5000000000043
 21
1161.500000000005
 31
0.0
  0
LINE
  5
52F
330
1F
100
AcDbEntity
  8
LAY-10
  6
CONTINUOUS
 62
     7
100
AcDbLine
 10
292.5000000000043
 20
1161.500000000005
 30
0.0
 11
292.5000000000043
 21
1164.500000000005
 31
0.0
  0
LINE
  5
530
330
1F
100
AcDbEntity
  8
LAY-10
  6
CONTINUOUS
 62
     7
100
AcDbLine
 10
292.5000000000043
 20
1170.500000000005
 30
0.0
 11
292.5000000000043
 21
1173.500000000005
 31
0.0
  0
LINE
  5
531
330
1F
100
AcDbEntity
  8
LAY-10
  6
CONTINUOUS
 62
     7
100
AcDbLine
 10
292.5000000000043
 20
1179.500000000005
 30
0.0
 11
292.5000000000043
 21
1182.500000000005
 31
0.0
  0
LINE
  5
532
330
1F
100
AcDbEntity
  8
LAY-10
  6
CONTINUOUS
 62
     7
100
AcDbLine
 10
297.5000000000043
 20
1182.500000000005
 30
0.0
 11
297.5000000000043
 21
1179.500000000005
 31
0.0
  0
LINE
  5
533
330
1F
100
AcDbEntity
  8
LAY-10
  6
CONTINUOUS
 62
     7
100
AcDbLine
 10
297.5000000000043
 20
1173.500000000005
 30
0.0
 11
297.5000000000043
 21
1170.500000000005
 31
0.0
  0
LINE
  5
534
330
1F
100
AcDbEntity
  8
LAY-10
  6
CONTINUOUS
 62
     7
100
AcDbLine
 10
297.5000000000043
 20
1164.500000000005
 30
0.0
 11
297.5000000000043
 21
1161.500000000005
 31
0.0
  0
LINE
  5
535
330
1F
100
AcDbEntity
  8
LAY-10
  6
CONTINUOUS
 62
     7
100
AcDbLine
 10
302.5000000000043
 20
1161.500000000005
 30
0.0
 11
302.5000000000043
 21
1164.500000000005
 31
0.0
  0
LINE
  5
536
330
1F
100
AcDbEntity
  8
LAY-10
  6
CONTINUOUS
 62
     7
100
AcDbLine
 10
302.5000000000043
 20
1170.500000000005
 30
0.0
 11
302.5000000000043
 21
1173.500000000005
 31
0.0
  0
LINE
  5
537
330
1F
100
AcDbEntity
  8
LAY-10
  6
CONTINUOUS
 62
     7
100
AcDbLine
 10
302.5000000000043
 20
1179.500000000005
 30
0.0
 11
302.5000000000043
 21
1182.500000000005
 31
0.0
  0
LINE
  5
538
330
1F
100
AcDbEntity
  8
LAY-10
  6
CONTINUOUS
 62
     7
100
AcDbLine
 10
307.5000000000043
 20
1182.500000000005
 30
0.0
 11
307.5000000000043
 21
1179.500000000005
 31
0.0
  0
LINE
  5
539
330
1F
100
AcDbEntity
  8
LAY-10
  6
CONTINUOUS
 62
     7
100
AcDbLine
 10
307.5000000000043
 20
1173.500000000005
 30
0.0
 11
307.5000000000043
 21
1170.500000000005
 31
0.0
  0
LINE
  5
53A
330
1F
100
AcDbEntity
  8
LAY-10
  6
CONTINUOUS
 62
     7
100
AcDbLine
 10
307.5000000000043
 20
1164.500000000005
 30
0.0
 11
307.5000000000043
 21
1161.500000000005
 31
0.0
  0
LINE
  5
53B
330
1F
100
AcDbEntity
  8
LAY-10
  6
CONTINUOUS
 62
     7
100
AcDbLine
 10
312.5000000000043
 20
1161.500000000005
 30
0.0
 11
312.5000000000043
 21
1164.500000000005
 31
0.0
  0
LINE
  5
53C
330
1F
100
AcDbEntity
  8
LAY-10
  6
CONTINUOUS
 62
     7
100
AcDbLine
 10
312.5000000000043
 20
1170.500000000005
 30
0.0
 11
312.5000000000043
 21
1173.500000000005
 31
0.0
  0
LINE
  5
53D
330
1F
100
AcDbEntity
  8
LAY-10
  6
CONTINUOUS
 62
     7
100
AcDbLine
 10
312.5000000000043
 20
1179.500000000005
 30
0.0
 11
312.5000000000043
 21
1182.500000000005
 31
0.0
  0
LINE
  5
53E
330
1F
100
AcDbEntity
  8
LAY-10
  6
CONTINUOUS
 62
     7
100
AcDbLine
 10
317.5000000000043
 20
1182.500000000005
 30
0.0
 11
317.5000000000043
 21
1179.500000000005
 31
0.0
  0
LINE
  5
53F
330
1F
100
AcDbEntity
  8
LAY-10
  6
CONTINUOUS
 62
     7
100
AcDbLine
 10
317.5000000000043
 20
1173.500000000005
 30
0.0
 11
317.5000000000043
 21
1170.500000000005
 31
0.0
  0
LINE
  5
540
330
1F
100
AcDbEntity
  8
LAY-10
  6
CONTINUOUS
 62
     7
100
AcDbLine
 10
317.5000000000043
 20
1164.500000000005
 30
0.0
 11
317.5000000000043
 21
1161.500000000005
 31
0.0
  0
LINE
  5
541
330
1F
100
AcDbEntity
  8
LAY-10
  6
CONTINUOUS
 62
     7
100
AcDbLine
 10
322.5000000000043
 20
1161.500000000005
 30
0.0
 11
322.5000000000043
 21
1164.500000000005
 31
0.0
  0
LINE
  5
542
330
1F
100
AcDbEntity
  8
LAY-10
  6
CONTINUOUS
 62
     7
100
AcDbLine
 10
322.5000000000043
 20
1170.500000000005
 30
0.0
 11
322.5000000000043
 21
1173.500000000005
 31
0.0
  0
LINE
  5
543
330
1F
100
AcDbEntity
  8
LAY-10
  6
CONTINUOUS
 62
     7
100
AcDbLine
 10
322.5000000000043
 20
1179.500000000005
 30
0.0
 11
322.5000000000043
 21
1182.500000000005
 31
0.0
  0
LINE
  5
544
330
1F
100
AcDbEntity
  8
LAY-10
  6
CONTINUOUS
 62
     7
100
AcDbLine
 10
327.5000000000043
 20
1182.500000000005
 30
0.0
 11
327.5000000000043
 21
1179.500000000005
 31
0.0
  0
LINE
  5
545
330
1F
100
AcDbEntity
  8
LAY-10
  6
CONTINUOUS
 62
     7
100
AcDbLine
 10
327.5000000000043
 20
1173.500000000005
 30
0.0
 11
327.5000000000043
 21
1170.500000000005
 31
0.0
  0
LINE
  5
546
330
1F
100
AcDbEntity
  8
LAY-10
  6
CONTINUOUS
 62
     7
100
AcDbLine
 10
327.5000000000043
 20
1164.500000000005
 30
0.0
 11
327.5000000000043
 21
1161.500000000005
 31
0.0
  0
LINE
  5
547
330
1F
100
AcDbEntity
  8
LAY-10
  6
CONTINUOUS
 62
     7
100
AcDbLine
 10
332.5000000000043
 20
1161.500000000005
 30
0.0
 11
332.5000000000043
 21
1164.500000000005
 31
0.0
  0
LINE
  5
548
330
1F
100
AcDbEntity
  8
LAY-10
  6
CONTINUOUS
 62
     7
100
AcDbLine
 10
332.5000000000043
 20
1170.500000000005
 30
0.0
 11
332.5000000000043
 21
1173.500000000005
 31
0.0
  0
LINE
  5
549
330
1F
100
AcDbEntity
  8
LAY-10
  6
CONTINUOUS
 62
     7
100
AcDbLine
 10
332.5000000000043
 20
1179.500000000005
 30
0.0
 11
332.5000000000043
 21
1182.500000000005
 31
0.0
  0
LINE
  5
54A
330
1F
100
AcDbEntity
  8
LAY-10
  6
CONTINUOUS
 62
     7
100
AcDbLine
 10
337.5000000000043
 20
1182.500000000005
 30
0.0
 11
337.5000000000043
 21
1179.500000000005
 31
0.0
  0
LINE
  5
54B
330
1F
100
AcDbEntity
  8
LAY-10
  6
CONTINUOUS
 62
     7
100
AcDbLine
 10
337.5000000000043
 20
1173.500000000005
 30
0.0
 11
337.5000000000043
 21
1170.500000000005
 31
0.0
  0
LINE
  5
54C
330
1F
100
AcDbEntity
  8
LAY-10
  6
CONTINUOUS
 62
     7
100
AcDbLine
 10
337.5000000000043
 20
1164.500000000005
 30
0.0
 11
337.5000000000043
 21
1161.500000000005
 31
0.0
  0
LINE
  5
54D
330
1F
100
AcDbEntity
  8
LAY-10
  6
CONTINUOUS
 62
     7
100
AcDbLine
 10
342.5000000000043
 20
1161.500000000005
 30
0.0
 11
342.5000000000043
 21
1164.500000000005
 31
0.0
  0
LINE
  5
54E
330
1F
100
AcDbEntity
  8
LAY-10
  6
CONTINUOUS
 62
     7
100
AcDbLine
 10
342.5000000000043
 20
1170.500000000005
 30
0.0
 11
342.5000000000043
 21
1173.500000000005
 31
0.0
  0
LINE
  5
54F
330
1F
100
AcDbEntity
  8
LAY-10
  6
CONTINUOUS
 62
     7
100
AcDbLine
 10
342.5000000000043
 20
1179.500000000005
 30
0.0
 11
342.5000000000043
 21
1182.500000000005
 31
0.0
  0
LINE
  5
550
330
1F
100
AcDbEntity
  8
LAY-10
  6
CONTINUOUS
 62
     7
100
AcDbLine
 10
347.5000000000043
 20
1182.500000000005
 30
0.0
 11
347.5000000000043
 21
1179.500000000005
 31
0.0
  0
LINE
  5
551
330
1F
100
AcDbEntity
  8
LAY-10
  6
CONTINUOUS
 62
     7
100
AcDbLine
 10
347.5000000000043
 20
1173.500000000005
 30
0.0
 11
347.5000000000043
 21
1170.500000000005
 31
0.0
  0
LINE
  5
552
330
1F
100
AcDbEntity
  8
LAY-10
  6
CONTINUOUS
 62
     7
100
AcDbLine
 10
347.5000000000043
 20
1164.500000000005
 30
0.0
 11
347.5000000000043
 21
1161.500000000005
 31
0.0
  0
LINE
  5
553
330
1F
100
AcDbEntity
  8
LAY-10
  6
CONTINUOUS
 62
     7
100
AcDbLine
 10
352.5000000000043
 20
1161.500000000005
 30
0.0
 11
352.5000000000043
 21
1164.500000000005
 31
0.0
  0
LINE
  5
554
330
1F
100
AcDbEntity
  8
LAY-10
  6
CONTINUOUS
 62
     7
100
AcDbLine
 10
352.5000000000043
 20
1170.500000000005
 30
0.0
 11
352.5000000000043
 21
1173.500000000005
 31
0.0
  0
LINE
  5
555
330
1F
100
AcDbEntity
  8
LAY-10
  6
CONTINUOUS
 62
     7
100
AcDbLine
 10
352.5000000000043
 20
1179.500000000005
 30
0.0
 11
352.5000000000043
 21
1182.500000000005
 31
0.0
  0
LINE
  5
556
330
1F
100
AcDbEntity
  8
LAY-10
  6
CONTINUOUS
 62
     7
100
AcDbLine
 10
357.5000000000043
 20
1182.500000000005
 30
0.0
 11
357.5000000000043
 21
1179.500000000005
 31
0.0
  0
LINE
  5
557
330
1F
100
AcDbEntity
  8
LAY-10
  6
CONTINUOUS
 62
     7
100
AcDbLine
 10
357.5000000000043
 20
1173.500000000005
 30
0.0
 11
357.5000000000043
 21
1170.500000000005
 31
0.0
  0
LINE
  5
558
330
1F
100
AcDbEntity
  8
LAY-10
  6
CONTINUOUS
 62
     7
100
AcDbLine
 10
357.5000000000043
 20
1164.500000000005
 30
0.0
 11
357.5000000000043
 21
1161.500000000005
 31
0.0
  0
LINE
  5
559
330
1F
100
AcDbEntity
  8
LAY-10
  6
CONTINUOUS
 62
     7
100
AcDbLine
 10
362.5000000000043
 20
1161.500000000005
 30
0.0
 11
362.5000000000043
 21
1164.500000000005
 31
0.0
  0
LINE
  5
55A
330
1F
100
AcDbEntity
  8
LAY-10
  6
CONTINUOUS
 62
     7
100
AcDbLine
 10
362.5000000000043
 20
1170.500000000005
 30
0.0
 11
362.5000000000043
 21
1173.500000000005
 31
0.0
  0
LINE
  5
55B
330
1F
100
AcDbEntity
  8
LAY-10
  6
CONTINUOUS
 62
     7
100
AcDbLine
 10
362.5000000000043
 20
1179.500000000005
 30
0.0
 11
362.5000000000043
 21
1182.500000000005
 31
0.0
  0
LINE
  5
55C
330
1F
100
AcDbEntity
  8
LAY-10
  6
CONTINUOUS
 62
     7
100
AcDbLine
 10
367.5000000000043
 20
1182.500000000005
 30
0.0
 11
367.5000000000043
 21
1179.500000000005
 31
0.0
  0
LINE
  5
55D
330
1F
100
AcDbEntity
  8
LAY-10
  6
CONTINUOUS
 62
     7
100
AcDbLine
 10
367.5000000000043
 20
1173.500000000005
 30
0.0
 11
367.5000000000043
 21
1170.500000000005
 31
0.0
  0
LINE
  5
55E
330
1F
100
AcDbEntity
  8
LAY-10
  6
CONTINUOUS
 62
     7
100
AcDbLine
 10
367.5000000000043
 20
1164.500000000005
 30
0.0
 11
367.5000000000043
 21
1161.500000000005
 31
0.0
  0
LINE
  5
55F
330
1F
100
AcDbEntity
  8
LAY-10
  6
CONTINUOUS
 62
     7
100
AcDbLine
 10
372.5000000000043
 20
1161.500000000005
 30
0.0
 11
372.5000000000043
 21
1164.500000000005
 31
0.0
  0
LINE
  5
560
330
1F
100
AcDbEntity
  8
LAY-10
  6
CONTINUOUS
 62
     7
100
AcDbLine
 10
372.5000000000043
 20
1170.500000000005
 30
0.0
 11
372.5000000000043
 21
1173.500000000005
 31
0.0
  0
LINE
  5
561
330
1F
100
AcDbEntity
  8
LAY-10
  6
CONTINUOUS
 62
     7
100
AcDbLine
 10
372.5000000000043
 20
1179.500000000005
 30
0.0
 11
372.5000000000043
 21
1182.500000000005
 31
0.0
  0
LINE
  5
562
330
1F
100
AcDbEntity
  8
LAY-10
  6
CONTINUOUS
 62
     7
100
AcDbLine
 10
377.5000000000043
 20
1182.500000000005
 30
0.0
 11
377.5000000000043
 21
1179.500000000005
 31
0.0
  0
LINE
  5
563
330
1F
100
AcDbEntity
  8
LAY-10
  6
CONTINUOUS
 62
     7
100
AcDbLine
 10
377.5000000000043
 20
1173.500000000005
 30
0.0
 11
377.5000000000043
 21
1170.500000000005
 31
0.0
  0
LINE
  5
564
330
1F
100
AcDbEntity
  8
LAY-10
  6
CONTINUOUS
 62
     7
100
AcDbLine
 10
377.5000000000043
 20
1164.500000000005
 30
0.0
 11
377.5000000000043
 21
1161.500000000005
 31
0.0
  0
LINE
  5
565
330
1F
100
AcDbEntity
  8
LAY-10
  6
CONTINUOUS
 62
     7
100
AcDbLine
 10
382.5000000000043
 20
1161.500000000005
 30
0.0
 11
382.5000000000043
 21
1164.500000000005
 31
0.0
  0
LINE
  5
566
330
1F
100
AcDbEntity
  8
LAY-10
  6
CONTINUOUS
 62
     7
100
AcDbLine
 10
382.5000000000043
 20
1170.500000000005
 30
0.0
 11
382.5000000000043
 21
1173.500000000005
 31
0.0
  0
LINE
  5
567
330
1F
100
AcDbEntity
  8
LAY-10
  6
CONTINUOUS
 62
     7
100
AcDbLine
 10
382.5000000000043
 20
1179.500000000005
 30
0.0
 11
382.5000000000043
 21
1182.500000000005
 31
0.0
  0
LINE
  5
568
330
1F
100
AcDbEntity
  8
LAY-10
  6
CONTINUOUS
 62
     7
100
AcDbLine
 10
387.5000000000043
 20
1182.500000000005
 30
0.0
 11
387.5000000000043
 21
1179.500000000005
 31
0.0
  0
LINE
  5
569
330
1F
100
AcDbEntity
  8
LAY-10
  6
CONTINUOUS
 62
     7
100
AcDbLine
 10
387.5000000000043
 20
1173.500000000005
 30
0.0
 11
387.5000000000043
 21
1170.500000000005
 31
0.0
  0
LINE
  5
56A
330
1F
100
AcDbEntity
  8
LAY-10
  6
CONTINUOUS
 62
     7
100
AcDbLine
 10
387.5000000000043
 20
1164.500000000005
 30
0.0
 11
387.5000000000043
 21
1161.500000000005
 31
0.0
  0
LINE
  5
56B
330
1F
100
AcDbEntity
  8
LAY-10
  6
CONTINUOUS
 62
     7
100
AcDbLine
 10
392.5000000000043
 20
1161.500000000005
 30
0.0
 11
392.5000000000043
 21
1164.500000000005
 31
0.0
  0
LINE
  5
56C
330
1F
100
AcDbEntity
  8
LAY-10
  6
CONTINUOUS
 62
     7
100
AcDbLine
 10
392.5000000000043
 20
1170.500000000005
 30
0.0
 11
392.5000000000043
 21
1173.500000000005
 31
0.0
  0
LINE
  5
56D
330
1F
100
AcDbEntity
  8
LAY-10
  6
CONTINUOUS
 62
     7
100
AcDbLine
 10
392.5000000000043
 20
1179.500000000005
 30
0.0
 11
392.5000000000043
 21
1182.500000000005
 31
0.0
  0
LINE
  5
56E
330
1F
100
AcDbEntity
  8
LAY-10
  6
CONTINUOUS
 62
     7
100
AcDbLine
 10
397.5000000000043
 20
1182.500000000005
 30
0.0
 11
397.5000000000043
 21
1179.500000000005
 31
0.0
  0
LINE
  5
56F
330
1F
100
AcDbEntity
  8
LAY-10
  6
CONTINUOUS
 62
     7
100
AcDbLine
 10
397.5000000000043
 20
1173.500000000005
 30
0.0
 11
397.5000000000043
 21
1170.500000000005
 31
0.0
  0
LINE
  5
570
330
1F
100
AcDbEntity
  8
LAY-10
  6
CONTINUOUS
 62
     7
100
AcDbLine
 10
397.5000000000043
 20
1164.500000000005
 30
0.0
 11
397.5000000000043
 21
1161.500000000005
 31
0.0
  0
LINE
  5
571
330
1F
100
AcDbEntity
  8
LAY-10
  6
CONTINUOUS
 62
     7
100
AcDbLine
 10
402.5000000000043
 20
1161.500000000005
 30
0.0
 11
402.5000000000043
 21
1164.500000000005
 31
0.0
  0
LINE
  5
572
330
1F
100
AcDbEntity
  8
LAY-10
  6
CONTINUOUS
 62
     7
100
AcDbLine
 10
402.5000000000043
 20
1170.500000000005
 30
0.0
 11
402.5000000000043
 21
1173.500000000005
 31
0.0
  0
LINE
  5
573
330
1F
100
AcDbEntity
  8
LAY-10
  6
CONTINUOUS
 62
     7
100
AcDbLine
 10
402.5000000000043
 20
1179.500000000005
 30
0.0
 11
402.5000000000043
 21
1182.500000000005
 31
0.0
  0
LINE
  5
574
330
1F
100
AcDbEntity
  8
LAY-10
  6
CONTINUOUS
 62
     7
100
AcDbLine
 10
407.5000000000043
 20
1182.500000000005
 30
0.0
 11
407.5000000000043
 21
1179.500000000005
 31
0.0
  0
LINE
  5
575
330
1F
100
AcDbEntity
  8
LAY-10
  6
CONTINUOUS
 62
     7
100
AcDbLine
 10
407.5000000000043
 20
1173.500000000005
 30
0.0
 11
407.5000000000043
 21
1170.500000000005
 31
0.0
  0
LINE
  5
576
330
1F
100
AcDbEntity
  8
LAY-10
  6
CONTINUOUS
 62
     7
100
AcDbLine
 10
407.5000000000043
 20
1164.500000000005
 30
0.0
 11
407.5000000000043
 21
1161.500000000005
 31
0.0
  0
LINE
  5
577
330
1F
100
AcDbEntity
  8
LAY-10
  6
CONTINUOUS
 62
     7
100
AcDbLine
 10
412.5000000000043
 20
1161.500000000005
 30
0.0
 11
412.5000000000043
 21
1164.500000000005
 31
0.0
  0
LINE
  5
578
330
1F
100
AcDbEntity
  8
LAY-10
  6
CONTINUOUS
 62
     7
100
AcDbLine
 10
412.5000000000043
 20
1170.500000000005
 30
0.0
 11
412.5000000000043
 21
1173.500000000005
 31
0.0
  0
LINE
  5
579
330
1F
100
AcDbEntity
  8
LAY-10
  6
CONTINUOUS
 62
     7
100
AcDbLine
 10
412.5000000000043
 20
1179.500000000005
 30
0.0
 11
412.5000000000043
 21
1182.500000000005
 31
0.0
  0
LINE
  5
57A
330
1F
100
AcDbEntity
  8
LAY-10
  6
CONTINUOUS
 62
     7
100
AcDbLine
 10
417.5000000000043
 20
1182.500000000005
 30
0.0
 11
417.5000000000043
 21
1179.500000000005
 31
0.0
  0
LINE
  5
57B
330
1F
100
AcDbEntity
  8
LAY-10
  6
CONTINUOUS
 62
     7
100
AcDbLine
 10
417.5000000000043
 20
1173.500000000005
 30
0.0
 11
417.5000000000043
 21
1170.500000000005
 31
0.0
  0
LINE
  5
57C
330
1F
100
AcDbEntity
  8
LAY-10
  6
CONTINUOUS
 62
     7
100
AcDbLine
 10
417.5000000000043
 20
1164.500000000005
 30
0.0
 11
417.5000000000043
 21
1161.500000000005
 31
0.0
  0
LINE
  5
57D
330
1F
100
AcDbEntity
  8
LAY-10
  6
CONTINUOUS
 62
     7
100
AcDbLine
 10
422.5000000000043
 20
1161.500000000005
 30
0.0
 11
422.5000000000043
 21
1164.500000000005
 31
0.0
  0
LINE
  5
57E
330
1F
100
AcDbEntity
  8
LAY-10
  6
CONTINUOUS
 62
     7
100
AcDbLine
 10
422.5000000000043
 20
1170.500000000005
 30
0.0
 11
422.5000000000043
 21
1173.500000000005
 31
0.0
  0
LINE
  5
57F
330
1F
100
AcDbEntity
  8
LAY-10
  6
CONTINUOUS
 62
     7
100
AcDbLine
 10
422.5000000000043
 20
1179.500000000005
 30
0.0
 11
422.5000000000043
 21
1182.500000000005
 31
0.0
  0
LINE
  5
580
330
1F
100
AcDbEntity
  8
LAY-10
  6
CONTINUOUS
 62
     7
100
AcDbLine
 10
427.5000000000043
 20
1182.500000000005
 30
0.0
 11
427.5000000000043
 21
1179.500000000005
 31
0.0
  0
LINE
  5
581
330
1F
100
AcDbEntity
  8
LAY-10
  6
CONTINUOUS
 62
     7
100
AcDbLine
 10
427.5000000000043
 20
1173.500000000005
 30
0.0
 11
427.5000000000043
 21
1170.500000000005
 31
0.0
  0
LINE
  5
582
330
1F
100
AcDbEntity
  8
LAY-10
  6
CONTINUOUS
 62
     7
100
AcDbLine
 10
427.5000000000043
 20
1164.500000000005
 30
0.0
 11
427.5000000000043
 21
1161.500000000005
 31
0.0
  0
LINE
  5
583
330
1F
100
AcDbEntity
  8
LAY-10
  6
CONTINUOUS
 62
     7
100
AcDbLine
 10
432.5000000000043
 20
1161.500000000005
 30
0.0
 11
432.5000000000043
 21
1164.500000000005
 31
0.0
  0
LINE
  5
584
330
1F
100
AcDbEntity
  8
LAY-10
  6
CONTINUOUS
 62
     7
100
AcDbLine
 10
432.5000000000043
 20
1170.500000000005
 30
0.0
 11
432.5000000000043
 21
1173.500000000005
 31
0.0
  0
LINE
  5
585
330
1F
100
AcDbEntity
  8
LAY-10
  6
CONTINUOUS
 62
     7
100
AcDbLine
 10
432.5000000000043
 20
1179.500000000005
 30
0.0
 11
432.5000000000043
 21
1182.500000000005
 31
0.0
  0
LINE
  5
586
330
1F
100
AcDbEntity
  8
LAY-10
  6
CONTINUOUS
 62
     7
100
AcDbLine
 10
437.5000000000043
 20
1182.500000000005
 30
0.0
 11
437.5000000000043
 21
1179.500000000005
 31
0.0
  0
LINE
  5
587
330
1F
100
AcDbEntity
  8
LAY-10
  6
CONTINUOUS
 62
     7
100
AcDbLine
 10
437.5000000000043
 20
1173.500000000005
 30
0.0
 11
437.5000000000043
 21
1170.500000000005
 31
0.0
  0
LINE
  5
588
330
1F
100
AcDbEntity
  8
LAY-10
  6
CONTINUOUS
 62
     7
100
AcDbLine
 10
437.5000000000043
 20
1164.500000000005
 30
0.0
 11
437.5000000000043
 21
1161.500000000005
 31
0.0
  0
LINE
  5
589
330
1F
100
AcDbEntity
  8
LAY-10
  6
CONTINUOUS
 62
     7
100
AcDbLine
 10
442.5000000000043
 20
1161.500000000005
 30
0.0
 11
442.5000000000043
 21
1164.500000000005
 31
0.0
  0
LINE
  5
58A
330
1F
100
AcDbEntity
  8
LAY-10
  6
CONTINUOUS
 62
     7
100
AcDbLine
 10
442.5000000000043
 20
1170.500000000005
 30
0.0
 11
442.5000000000043
 21
1173.500000000005
 31
0.0
  0
LINE
  5
58B
330
1F
100
AcDbEntity
  8
LAY-10
  6
CONTINUOUS
 62
     7
100
AcDbLine
 10
442.5000000000043
 20
1179.500000000005
 30
0.0
 11
442.5000000000043
 21
1182.500000000005
 31
0.0
  0
LINE
  5
58C
330
1F
100
AcDbEntity
  8
LAY-10
  6
CONTINUOUS
 62
     7
100
AcDbLine
 10
447.5000000000043
 20
1182.500000000005
 30
0.0
 11
447.5000000000043
 21
1179.500000000005
 31
0.0
  0
LINE
  5
58D
330
1F
100
AcDbEntity
  8
LAY-10
  6
CONTINUOUS
 62
     7
100
AcDbLine
 10
447.5000000000043
 20
1173.500000000005
 30
0.0
 11
447.5000000000043
 21
1170.500000000005
 31
0.0
  0
LINE
  5
58E
330
1F
100
AcDbEntity
  8
LAY-10
  6
CONTINUOUS
 62
     7
100
AcDbLine
 10
447.5000000000043
 20
1164.500000000005
 30
0.0
 11
447.5000000000043
 21
1161.500000000005
 31
0.0
  0
LINE
  5
58F
330
1F
100
AcDbEntity
  8
LAY-10
  6
CONTINUOUS
 62
     7
100
AcDbLine
 10
452.5000000000043
 20
1161.500000000005
 30
0.0
 11
452.5000000000043
 21
1164.500000000005
 31
0.0
  0
LINE
  5
590
330
1F
100
AcDbEntity
  8
LAY-10
  6
CONTINUOUS
 62
     7
100
AcDbLine
 10
452.5000000000043
 20
1170.500000000005
 30
0.0
 11
452.5000000000043
 21
1173.500000000005
 31
0.0
  0
LINE
  5
591
330
1F
100
AcDbEntity
  8
LAY-10
  6
CONTINUOUS
 62
     7
100
AcDbLine
 10
452.5000000000043
 20
1179.500000000005
 30
0.0
 11
452.5000000000043
 21
1182.500000000005
 31
0.0
  0
LINE
  5
592
330
1F
100
AcDbEntity
  8
LAY-10
  6
CONTINUOUS
 62
     7
100
AcDbLine
 10
457.5000000000043
 20
1182.500000000005
 30
0.0
 11
457.5000000000043
 21
1179.500000000005
 31
0.0
  0
LINE
  5
593
330
1F
100
AcDbEntity
  8
LAY-10
  6
CONTINUOUS
 62
     7
100
AcDbLine
 10
457.5000000000043
 20
1173.500000000005
 30
0.0
 11
457.5000000000043
 21
1170.500000000005
 31
0.0
  0
LINE
  5
594
330
1F
100
AcDbEntity
  8
LAY-10
  6
CONTINUOUS
 62
     7
100
AcDbLine
 10
457.5000000000043
 20
1164.500000000005
 30
0.0
 11
457.5000000000043
 21
1161.500000000005
 31
0.0
  0
LINE
  5
595
330
1F
100
AcDbEntity
  8
LAY-10
  6
CONTINUOUS
 62
     7
100
AcDbLine
 10
462.5000000000043
 20
1161.500000000005
 30
0.0
 11
462.5000000000043
 21
1164.500000000005
 31
0.0
  0
LINE
  5
596
330
1F
100
AcDbEntity
  8
LAY-10
  6
CONTINUOUS
 62
     7
100
AcDbLine
 10
462.5000000000043
 20
1170.500000000005
 30
0.0
 11
462.5000000000043
 21
1173.500000000005
 31
0.0
  0
LINE
  5
597
330
1F
100
AcDbEntity
  8
LAY-10
  6
CONTINUOUS
 62
     7
100
AcDbLine
 10
462.5000000000043
 20
1179.500000000005
 30
0.0
 11
462.5000000000043
 21
1182.500000000005
 31
0.0
  0
LINE
  5
598
330
1F
100
AcDbEntity
  8
LAY-10
  6
CONTINUOUS
 62
     7
100
AcDbLine
 10
467.5000000000043
 20
1182.500000000005
 30
0.0
 11
467.5000000000043
 21
1179.500000000005
 31
0.0
  0
LINE
  5
599
330
1F
100
AcDbEntity
  8
LAY-10
  6
CONTINUOUS
 62
     7
100
AcDbLine
 10
467.5000000000043
 20
1173.500000000005
 30
0.0
 11
467.5000000000043
 21
1170.500000000005
 31
0.0
  0
LINE
  5
59A
330
1F
100
AcDbEntity
  8
LAY-10
  6
CONTINUOUS
 62
     7
100
AcDbLine
 10
467.5000000000043
 20
1164.500000000005
 30
0.0
 11
467.5000000000043
 21
1161.500000000005
 31
0.0
  0
LINE
  5
59B
330
1F
100
AcDbEntity
  8
LAY-10
  6
CONTINUOUS
 62
     7
100
AcDbLine
 10
472.5000000000043
 20
1161.500000000005
 30
0.0
 11
472.5000000000043
 21
1164.500000000005
 31
0.0
  0
LINE
  5
59C
330
1F
100
AcDbEntity
  8
LAY-10
  6
CONTINUOUS
 62
     7
100
AcDbLine
 10
472.5000000000043
 20
1170.500000000005
 30
0.0
 11
472.5000000000043
 21
1173.500000000005
 31
0.0
  0
LINE
  5
59D
330
1F
100
AcDbEntity
  8
LAY-10
  6
CONTINUOUS
 62
     7
100
AcDbLine
 10
472.5000000000043
 20
1179.500000000005
 30
0.0
 11
472.5000000000043
 21
1182.500000000005
 31
0.0
  0
LINE
  5
59E
330
1F
100
AcDbEntity
  8
LAY-10
  6
CONTINUOUS
 62
     7
100
AcDbLine
 10
477.5000000000043
 20
1182.500000000005
 30
0.0
 11
477.5000000000043
 21
1179.500000000005
 31
0.0
  0
LINE
  5
59F
330
1F
100
AcDbEntity
  8
LAY-10
  6
CONTINUOUS
 62
     7
100
AcDbLine
 10
477.5000000000043
 20
1173.500000000005
 30
0.0
 11
477.5000000000043
 21
1170.500000000005
 31
0.0
  0
LINE
  5
5A0
330
1F
100
AcDbEntity
  8
LAY-10
  6
CONTINUOUS
 62
     7
100
AcDbLine
 10
477.5000000000043
 20
1164.500000000005
 30
0.0
 11
477.5000000000043
 21
1161.500000000005
 31
0.0
  0
LINE
  5
5A1
330
1F
100
AcDbEntity
  8
LAY-10
  6
CONTINUOUS
 62
     7
100
AcDbLine
 10
482.5000000000043
 20
1161.500000000005
 30
0.0
 11
482.5000000000043
 21
1164.500000000005
 31
0.0
  0
LINE
  5
5A2
330
1F
100
AcDbEntity
  8
LAY-10
  6
CONTINUOUS
 62
     7
100
AcDbLine
 10
482.5000000000043
 20
1170.500000000005
 30
0.0
 11
482.5000000000043
 21
1173.500000000005
 31
0.0
  0
LINE
  5
5A3
330
1F
100
AcDbEntity
  8
LAY-10
  6
CONTINUOUS
 62
     7
100
AcDbLine
 10
482.5000000000043
 20
1179.500000000005
 30
0.0
 11
482.5000000000043
 21
1182.500000000005
 31
0.0
  0
LINE
  5
5A4
330
1F
100
AcDbEntity
  8
LAY-10
  6
CONTINUOUS
 62
     7
100
AcDbLine
 10
487.5000000000043
 20
1182.500000000005
 30
0.0
 11
487.5000000000043
 21
1179.500000000005
 31
0.0
  0
LINE
  5
5A5
330
1F
100
AcDbEntity
  8
LAY-10
  6
CONTINUOUS
 62
     7
100
AcDbLine
 10
487.5000000000043
 20
1173.500000000005
 30
0.0
 11
487.5000000000043
 21
1170.500000000005
 31
0.0
  0
LINE
  5
5A6
330
1F
100
AcDbEntity
  8
LAY-10
  6
CONTINUOUS
 62
     7
100
AcDbLine
 10
487.5000000000043
 20
1164.500000000005
 30
0.0
 11
487.5000000000043
 21
1161.500000000005
 31
0.0
  0
LINE
  5
5A7
330
1F
100
AcDbEntity
  8
LAY-10
  6
CONTINUOUS
 62
     7
100
AcDbLine
 10
492.5000000000043
 20
1161.500000000005
 30
0.0
 11
492.5000000000043
 21
1164.500000000005
 31
0.0
  0
LINE
  5
5A8
330
1F
100
AcDbEntity
  8
LAY-10
  6
CONTINUOUS
 62
     7
100
AcDbLine
 10
492.5000000000043
 20
1170.500000000005
 30
0.0
 11
492.5000000000043
 21
1173.500000000005
 31
0.0
  0
LINE
  5
5A9
330
1F
100
AcDbEntity
  8
LAY-10
  6
CONTINUOUS
 62
     7
100
AcDbLine
 10
492.5000000000043
 20
1179.500000000005
 30
0.0
 11
492.5000000000043
 21
1182.500000000005
 31
0.0
  0
LINE
  5
5AA
330
1F
100
AcDbEntity
  8
LAY-10
  6
CONTINUOUS
 62
     7
100
AcDbLine
 10
497.5000000000043
 20
1182.500000000005
 30
0.0
 11
497.5000000000043
 21
1179.500000000005
 31
0.0
  0
LINE
  5
5AB
330
1F
100
AcDbEntity
  8
LAY-10
  6
CONTINUOUS
 62
     7
100
AcDbLine
 10
497.5000000000043
 20
1173.500000000005
 30
0.0
 11
497.5000000000043
 21
1170.500000000005
 31
0.0
  0
LINE
  5
5AC
330
1F
100
AcDbEntity
  8
LAY-10
  6
CONTINUOUS
 62
     7
100
AcDbLine
 10
497.5000000000043
 20
1164.500000000005
 30
0.0
 11
497.5000000000043
 21
1161.500000000005
 31
0.0
  0
LINE
  5
5AD
330
1F
100
AcDbEntity
  8
LAY-10
  6
CONTINUOUS
 62
     7
100
AcDbLine
 10
502.5000000000043
 20
1161.500000000005
 30
0.0
 11
502.5000000000043
 21
1164.500000000005
 31
0.0
  0
LINE
  5
5AE
330
1F
100
AcDbEntity
  8
LAY-10
  6
CONTINUOUS
 62
     7
100
AcDbLine
 10
502.5000000000043
 20
1170.500000000005
 30
0.0
 11
502.5000000000043
 21
1173.500000000005
 31
0.0
  0
LINE
  5
5AF
330
1F
100
AcDbEntity
  8
LAY-10
  6
CONTINUOUS
 62
     7
100
AcDbLine
 10
502.5000000000043
 20
1179.500000000005
 30
0.0
 11
502.5000000000043
 21
1182.500000000005
 31
0.0
  0
LINE
  5
5B0
330
1F
100
AcDbEntity
  8
LAY-10
  6
CONTINUOUS
 62
     7
100
AcDbLine
 10
507.5000000000043
 20
1182.500000000005
 30
0.0
 11
507.5000000000043
 21
1179.500000000005
 31
0.0
  0
LINE
  5
5B1
330
1F
100
AcDbEntity
  8
LAY-10
  6
CONTINUOUS
 62
     7
100
AcDbLine
 10
507.5000000000043
 20
1173.500000000005
 30
0.0
 11
507.5000000000043
 21
1170.500000000005
 31
0.0
  0
LINE
  5
5B2
330
1F
100
AcDbEntity
  8
LAY-10
  6
CONTINUOUS
 62
     7
100
AcDbLine
 10
507.5000000000043
 20
1164.500000000005
 30
0.0
 11
507.5000000000043
 21
1161.500000000005
 31
0.0
  0
LINE
  5
5B3
330
1F
100
AcDbEntity
  8
LAY-10
  6
CONTINUOUS
 62
     7
100
AcDbLine
 10
512.5000000000043
 20
1161.500000000005
 30
0.0
 11
512.5000000000043
 21
1164.500000000005
 31
0.0
  0
LINE
  5
5B4
330
1F
100
AcDbEntity
  8
LAY-10
  6
CONTINUOUS
 62
     7
100
AcDbLine
 10
512.5000000000043
 20
1170.500000000005
 30
0.0
 11
512.5000000000043
 21
1173.500000000005
 31
0.0
  0
LINE
  5
5B5
330
1F
100
AcDbEntity
  8
LAY-10
  6
CONTINUOUS
 62
     7
100
AcDbLine
 10
512.5000000000043
 20
1179.500000000005
 30
0.0
 11
512.5000000000043
 21
1182.500000000005
 31
0.0
  0
LINE
  5
5B6
330
1F
100
AcDbEntity
  8
LAY-10
  6
CONTINUOUS
 62
     7
100
AcDbLine
 10
517.5000000000043
 20
1182.500000000005
 30
0.0
 11
517.5000000000043
 21
1179.500000000005
 31
0.0
  0
LINE
  5
5B7
330
1F
100
AcDbEntity
  8
LAY-10
  6
CONTINUOUS
 62
     7
100
AcDbLine
 10
517.5000000000043
 20
1173.500000000005
 30
0.0
 11
517.5000000000043
 21
1170.500000000005
 31
0.0
  0
LINE
  5
5B8
330
1F
100
AcDbEntity
  8
LAY-10
  6
CONTINUOUS
 62
     7
100
AcDbLine
 10
517.5000000000043
 20
1164.500000000005
 30
0.0
 11
517.5000000000043
 21
1161.500000000005
 31
0.0
  0
LINE
  5
5B9
330
1F
100
AcDbEntity
  8
LAY-10
  6
CONTINUOUS
 62
     7
100
AcDbLine
 10
522.5000000000043
 20
1161.500000000005
 30
0.0
 11
522.5000000000043
 21
1164.500000000005
 31
0.0
  0
LINE
  5
5BA
330
1F
100
AcDbEntity
  8
LAY-10
  6
CONTINUOUS
 62
     7
100
AcDbLine
 10
522.5000000000043
 20
1170.500000000005
 30
0.0
 11
522.5000000000043
 21
1173.500000000005
 31
0.0
  0
LINE
  5
5BB
330
1F
100
AcDbEntity
  8
LAY-10
  6
CONTINUOUS
 62
     7
100
AcDbLine
 10
522.5000000000043
 20
1179.500000000005
 30
0.0
 11
522.5000000000043
 21
1182.500000000005
 31
0.0
  0
LINE
  5
5BC
330
1F
100
AcDbEntity
  8
LAY-10
  6
CONTINUOUS
 62
     7
100
AcDbLine
 10
527.5000000000043
 20
1182.500000000005
 30
0.0
 11
527.5000000000043
 21
1179.500000000005
 31
0.0
  0
LINE
  5
5BD
330
1F
100
AcDbEntity
  8
LAY-10
  6
CONTINUOUS
 62
     7
100
AcDbLine
 10
527.5000000000043
 20
1173.500000000005
 30
0.0
 11
527.5000000000043
 21
1170.500000000005
 31
0.0
  0
LINE
  5
5BE
330
1F
100
AcDbEntity
  8
LAY-10
  6
CONTINUOUS
 62
     7
100
AcDbLine
 10
527.5000000000043
 20
1164.500000000005
 30
0.0
 11
527.5000000000043
 21
1161.500000000005
 31
0.0
  0
LINE
  5
5BF
330
1F
100
AcDbEntity
  8
LAY-10
  6
CONTINUOUS
 62
     7
100
AcDbLine
 10
532.5000000000043
 20
1161.500000000005
 30
0.0
 11
532.5000000000043
 21
1164.500000000005
 31
0.0
  0
LINE
  5
5C0
330
1F
100
AcDbEntity
  8
LAY-10
  6
CONTINUOUS
 62
     7
100
AcDbLine
 10
532.5000000000043
 20
1170.500000000005
 30
0.0
 11
532.5000000000043
 21
1173.500000000005
 31
0.0
  0
LINE
  5
5C1
330
1F
100
AcDbEntity
  8
LAY-10
  6
CONTINUOUS
 62
     7
100
AcDbLine
 10
532.5000000000043
 20
1179.500000000005
 30
0.0
 11
532.5000000000043
 21
1182.500000000005
 31
0.0
  0
LINE
  5
5C2
330
1F
100
AcDbEntity
  8
LAY-10
  6
CONTINUOUS
 62
     7
100
AcDbLine
 10
537.5000000000043
 20
1182.500000000005
 30
0.0
 11
537.5000000000043
 21
1179.500000000005
 31
0.0
  0
LINE
  5
5C3
330
1F
100
AcDbEntity
  8
LAY-10
  6
CONTINUOUS
 62
     7
100
AcDbLine
 10
537.5000000000043
 20
1173.500000000005
 30
0.0
 11
537.5000000000043
 21
1170.500000000005
 31
0.0
  0
LINE
  5
5C4
330
1F
100
AcDbEntity
  8
LAY-10
  6
CONTINUOUS
 62
     7
100
AcDbLine
 10
537.5000000000043
 20
1164.500000000005
 30
0.0
 11
537.5000000000043
 21
1161.500000000005
 31
0.0
  0
LINE
  5
5C5
330
1F
100
AcDbEntity
  8
LAY-10
  6
CONTINUOUS
 62
     7
100
AcDbLine
 10
542.5000000000043
 20
1161.500000000005
 30
0.0
 11
542.5000000000043
 21
1164.500000000005
 31
0.0
  0
LINE
  5
5C6
330
1F
100
AcDbEntity
  8
LAY-10
  6
CONTINUOUS
 62
     7
100
AcDbLine
 10
542.5000000000043
 20
1170.500000000005
 30
0.0
 11
542.5000000000043
 21
1173.500000000005
 31
0.0
  0
LINE
  5
5C7
330
1F
100
AcDbEntity
  8
LAY-10
  6
CONTINUOUS
 62
     7
100
AcDbLine
 10
542.5000000000043
 20
1179.500000000005
 30
0.0
 11
542.5000000000043
 21
1182.500000000005
 31
0.0
  0
LINE
  5
5C8
330
1F
100
AcDbEntity
  8
LAY-10
  6
CONTINUOUS
 62
     7
100
AcDbLine
 10
547.5000000000043
 20
1182.500000000005
 30
0.0
 11
547.5000000000043
 21
1179.500000000005
 31
0.0
  0
LINE
  5
5C9
330
1F
100
AcDbEntity
  8
LAY-10
  6
CONTINUOUS
 62
     7
100
AcDbLine
 10
547.5000000000043
 20
1173.500000000005
 30
0.0
 11
547.5000000000043
 21
1170.500000000005
 31
0.0
  0
LINE
  5
5CA
330
1F
100
AcDbEntity
  8
LAY-10
  6
CONTINUOUS
 62
     7
100
AcDbLine
 10
547.5000000000043
 20
1164.500000000005
 30
0.0
 11
547.5000000000043
 21
1161.500000000005
 31
0.0
  0
LINE
  5
5CB
330
1F
100
AcDbEntity
  8
LAY-10
  6
CONTINUOUS
 62
     7
100
AcDbLine
 10
552.5000000000043
 20
1161.500000000005
 30
0.0
 11
552.5000000000043
 21
1164.500000000005
 31
0.0
  0
LINE
  5
5CC
330
1F
100
AcDbEntity
  8
LAY-10
  6
CONTINUOUS
 62
     7
100
AcDbLine
 10
552.5000000000043
 20
1170.500000000005
 30
0.0
 11
552.5000000000043
 21
1173.500000000005
 31
0.0
  0
LINE
  5
5CD
330
1F
100
AcDbEntity
  8
LAY-10
  6
CONTINUOUS
 62
     7
100
AcDbLine
 10
552.5000000000043
 20
1179.500000000005
 30
0.0
 11
552.5000000000043
 21
1182.500000000005
 31
0.0
  0
LINE
  5
5CE
330
1F
100
AcDbEntity
  8
LAY-10
  6
CONTINUOUS
 62
     7
100
AcDbLine
 10
557.5000000000043
 20
1182.500000000005
 30
0.0
 11
557.5000000000043
 21
1179.500000000005
 31
0.0
  0
LINE
  5
5CF
330
1F
100
AcDbEntity
  8
LAY-10
  6
CONTINUOUS
 62
     7
100
AcDbLine
 10
557.5000000000043
 20
1173.500000000005
 30
0.0
 11
557.5000000000043
 21
1170.500000000005
 31
0.0
  0
LINE
  5
5D0
330
1F
100
AcDbEntity
  8
LAY-10
  6
CONTINUOUS
 62
     7
100
AcDbLine
 10
557.5000000000043
 20
1164.500000000005
 30
0.0
 11
557.5000000000043
 21
1161.500000000005
 31
0.0
  0
LINE
  5
5D1
330
1F
100
AcDbEntity
  8
LAY-10
  6
CONTINUOUS
 62
     7
100
AcDbLine
 10
562.5000000000043
 20
1161.500000000005
 30
0.0
 11
562.5000000000043
 21
1164.500000000005
 31
0.0
  0
LINE
  5
5D2
330
1F
100
AcDbEntity
  8
LAY-10
  6
CONTINUOUS
 62
     7
100
AcDbLine
 10
562.5000000000043
 20
1170.500000000005
 30
0.0
 11
562.5000000000043
 21
1173.500000000005
 31
0.0
  0
LINE
  5
5D3
330
1F
100
AcDbEntity
  8
LAY-10
  6
CONTINUOUS
 62
     7
100
AcDbLine
 10
562.5000000000043
 20
1179.500000000005
 30
0.0
 11
562.5000000000043
 21
1182.500000000005
 31
0.0
  0
LINE
  5
5D4
330
1F
100
AcDbEntity
  8
LAY-10
  6
CONTINUOUS
 62
     7
100
AcDbLine
 10
567.5000000000043
 20
1182.500000000005
 30
0.0
 11
567.5000000000043
 21
1179.500000000005
 31
0.0
  0
LINE
  5
5D5
330
1F
100
AcDbEntity
  8
LAY-10
  6
CONTINUOUS
 62
     7
100
AcDbLine
 10
567.5000000000043
 20
1173.500000000005
 30
0.0
 11
567.5000000000043
 21
1170.500000000005
 31
0.0
  0
LINE
  5
5D6
330
1F
100
AcDbEntity
  8
LAY-10
  6
CONTINUOUS
 62
     7
100
AcDbLine
 10
567.5000000000043
 20
1164.500000000005
 30
0.0
 11
567.5000000000043
 21
1161.500000000005
 31
0.0
  0
LINE
  5
5D7
330
1F
100
AcDbEntity
  8
LAY-10
  6
CONTINUOUS
 62
     7
100
AcDbLine
 10
572.5000000000043
 20
1161.500000000005
 30
0.0
 11
572.5000000000043
 21
1164.500000000005
 31
0.0
  0
LINE
  5
5D8
330
1F
100
AcDbEntity
  8
LAY-10
  6
CONTINUOUS
 62
     7
100
AcDbLine
 10
572.5000000000043
 20
1170.500000000005
 30
0.0
 11
572.5000000000043
 21
1173.500000000005
 31
0.0
  0
LINE
  5
5D9
330
1F
100
AcDbEntity
  8
LAY-10
  6
CONTINUOUS
 62
     7
100
AcDbLine
 10
572.5000000000043
 20
1179.500000000005
 30
0.0
 11
572.5000000000043
 21
1182.500000000005
 31
0.0
  0
LINE
  5
5DA
330
1F
100
AcDbEntity
  8
LAY-10
  6
CONTINUOUS
 62
     7
100
AcDbLine
 10
577.5000000000043
 20
1182.500000000005
 30
0.0
 11
577.5000000000043
 21
1179.500000000005
 31
0.0
  0
LINE
  5
5DB
330
1F
100
AcDbEntity
  8
LAY-10
  6
CONTINUOUS
 62
     7
100
AcDbLine
 10
577.5000000000043
 20
1173.500000000005
 30
0.0
 11
577.5000000000043
 21
1170.500000000005
 31
0.0
  0
LINE
  5
5DC
330
1F
100
AcDbEntity
  8
LAY-10
  6
CONTINUOUS
 62
     7
100
AcDbLine
 10
577.5000000000043
 20
1164.500000000005
 30
0.0
 11
577.5000000000043
 21
1161.500000000005
 31
0.0
  0
LINE
  5
5DD
330
1F
100
AcDbEntity
  8
LAY-10
  6
CONTINUOUS
 62
     7
100
AcDbLine
 10
582.5000000000041
 20
1161.500000000005
 30
0.0
 11
582.5000000000041
 21
1164.500000000005
 31
0.0
  0
LINE
  5
5DE
330
1F
100
AcDbEntity
  8
LAY-10
  6
CONTINUOUS
 62
     7
100
AcDbLine
 10
582.5000000000041
 20
1170.500000000005
 30
0.0
 11
582.5000000000041
 21
1173.500000000005
 31
0.0
  0
LINE
  5
5DF
330
1F
100
AcDbEntity
  8
LAY-10
  6
CONTINUOUS
 62
     7
100
AcDbLine
 10
582.5000000000041
 20
1179.500000000005
 30
0.0
 11
582.5000000000041
 21
1182.500000000005
 31
0.0
  0
LINE
  5
5E0
330
1F
100
AcDbEntity
  8
LAY-10
  6
CONTINUOUS
 62
     7
100
AcDbLine
 10
587.5000000000041
 20
1182.500000000005
 30
0.0
 11
587.5000000000041
 21
1179.500000000005
 31
0.0
  0
LINE
  5
5E1
330
1F
100
AcDbEntity
  8
LAY-10
  6
CONTINUOUS
 62
     7
100
AcDbLine
 10
587.5000000000041
 20
1173.500000000005
 30
0.0
 11
587.5000000000041
 21
1170.500000000005
 31
0.0
  0
LINE
  5
5E2
330
1F
100
AcDbEntity
  8
LAY-10
  6
CONTINUOUS
 62
     7
100
AcDbLine
 10
587.5000000000041
 20
1164.500000000005
 30
0.0
 11
587.5000000000041
 21
1161.500000000005
 31
0.0
  0
LINE
  5
5E3
330
1F
100
AcDbEntity
  8
LAY-10
  6
CONTINUOUS
 62
     7
100
AcDbLine
 10
592.5000000000041
 20
1161.500000000005
 30
0.0
 11
592.5000000000041
 21
1164.500000000005
 31
0.0
  0
LINE
  5
5E4
330
1F
100
AcDbEntity
  8
LAY-10
  6
CONTINUOUS
 62
     7
100
AcDbLine
 10
592.5000000000041
 20
1170.500000000005
 30
0.0
 11
592.5000000000041
 21
1173.500000000005
 31
0.0
  0
LINE
  5
5E5
330
1F
100
AcDbEntity
  8
LAY-10
  6
CONTINUOUS
 62
     7
100
AcDbLine
 10
592.5000000000041
 20
1179.500000000005
 30
0.0
 11
592.5000000000041
 21
1182.500000000005
 31
0.0
  0
LINE
  5
5E6
330
1F
100
AcDbEntity
  8
LAY-10
  6
CONTINUOUS
 62
     7
100
AcDbLine
 10
597.5000000000041
 20
1182.500000000005
 30
0.0
 11
597.5000000000041
 21
1179.500000000005
 31
0.0
  0
LINE
  5
5E7
330
1F
100
AcDbEntity
  8
LAY-10
  6
CONTINUOUS
 62
     7
100
AcDbLine
 10
597.5000000000041
 20
1173.500000000005
 30
0.0
 11
597.5000000000041
 21
1170.500000000005
 31
0.0
  0
LINE
  5
5E8
330
1F
100
AcDbEntity
  8
LAY-10
  6
CONTINUOUS
 62
     7
100
AcDbLine
 10
597.5000000000041
 20
1164.500000000005
 30
0.0
 11
597.5000000000041
 21
1161.500000000005
 31
0.0
  0
LINE
  5
5E9
330
1F
100
AcDbEntity
  8
LAY-10
  6
CONTINUOUS
 62
     7
100
AcDbLine
 10
602.5000000000041
 20
1161.500000000005
 30
0.0
 11
602.5000000000041
 21
1164.500000000005
 31
0.0
  0
LINE
  5
5EA
330
1F
100
AcDbEntity
  8
LAY-10
  6
CONTINUOUS
 62
     7
100
AcDbLine
 10
602.5000000000041
 20
1170.500000000005
 30
0.0
 11
602.5000000000041
 21
1173.500000000005
 31
0.0
  0
LINE
  5
5EB
330
1F
100
AcDbEntity
  8
LAY-10
  6
CONTINUOUS
 62
     7
100
AcDbLine
 10
602.5000000000041
 20
1179.500000000005
 30
0.0
 11
602.5000000000041
 21
1182.500000000005
 31
0.0
  0
LINE
  5
5EC
330
1F
100
AcDbEntity
  8
LAY-10
  6
CONTINUOUS
 62
     7
100
AcDbLine
 10
607.5000000000041
 20
1182.500000000005
 30
0.0
 11
607.5000000000041
 21
1179.500000000005
 31
0.0
  0
LINE
  5
5ED
330
1F
100
AcDbEntity
  8
LAY-10
  6
CONTINUOUS
 62
     7
100
AcDbLine
 10
607.5000000000041
 20
1173.500000000005
 30
0.0
 11
607.5000000000041
 21
1170.500000000005
 31
0.0
  0
LINE
  5
5EE
330
1F
100
AcDbEntity
  8
LAY-10
  6
CONTINUOUS
 62
     7
100
AcDbLine
 10
607.5000000000041
 20
1164.500000000005
 30
0.0
 11
607.5000000000041
 21
1161.500000000005
 31
0.0
  0
LINE
  5
5EF
330
1F
100
AcDbEntity
  8
LAY-10
  6
CONTINUOUS
 62
     7
100
AcDbLine
 10
612.5000000000041
 20
1161.500000000005
 30
0.0
 11
612.5000000000041
 21
1164.500000000005
 31
0.0
  0
LINE
  5
5F0
330
1F
100
AcDbEntity
  8
LAY-10
  6
CONTINUOUS
 62
     7
100
AcDbLine
 10
612.5000000000041
 20
1170.500000000005
 30
0.0
 11
612.5000000000041
 21
1173.500000000005
 31
0.0
  0
LINE
  5
5F1
330
1F
100
AcDbEntity
  8
LAY-10
  6
CONTINUOUS
 62
     7
100
AcDbLine
 10
612.5000000000041
 20
1179.500000000005
 30
0.0
 11
612.5000000000041
 21
1182.500000000005
 31
0.0
  0
LINE
  5
5F2
330
1F
100
AcDbEntity
  8
LAY-10
  6
CONTINUOUS
 62
     7
100
AcDbLine
 10
617.5000000000043
 20
1182.500000000005
 30
0.0
 11
617.5000000000043
 21
1179.500000000005
 31
0.0
  0
LINE
  5
5F3
330
1F
100
AcDbEntity
  8
LAY-10
  6
CONTINUOUS
 62
     7
100
AcDbLine
 10
617.5000000000043
 20
1173.500000000005
 30
0.0
 11
617.5000000000043
 21
1170.500000000005
 31
0.0
  0
LINE
  5
5F4
330
1F
100
AcDbEntity
  8
LAY-10
  6
CONTINUOUS
 62
     7
100
AcDbLine
 10
617.5000000000043
 20
1164.500000000005
 30
0.0
 11
617.5000000000043
 21
1161.500000000005
 31
0.0
  0
LINE
  5
5F5
330
1F
100
AcDbEntity
  8
LAY-10
  6
CONTINUOUS
 62
     7
100
AcDbLine
 10
622.5000000000043
 20
1161.500000000005
 30
0.0
 11
622.5000000000043
 21
1164.500000000005
 31
0.0
  0
LINE
  5
5F6
330
1F
100
AcDbEntity
  8
LAY-10
  6
CONTINUOUS
 62
     7
100
AcDbLine
 10
622.5000000000043
 20
1170.500000000005
 30
0.0
 11
622.5000000000043
 21
1173.500000000005
 31
0.0
  0
LINE
  5
5F7
330
1F
100
AcDbEntity
  8
LAY-10
  6
CONTINUOUS
 62
     7
100
AcDbLine
 10
622.5000000000043
 20
1179.500000000005
 30
0.0
 11
622.5000000000043
 21
1182.500000000005
 31
0.0
  0
LINE
  5
5F8
330
1F
100
AcDbEntity
  8
LAY-10
  6
CONTINUOUS
 62
     7
100
AcDbLine
 10
627.5000000000043
 20
1182.500000000005
 30
0.0
 11
627.5000000000043
 21
1179.500000000005
 31
0.0
  0
LINE
  5
5F9
330
1F
100
AcDbEntity
  8
LAY-10
  6
CONTINUOUS
 62
     7
100
AcDbLine
 10
627.5000000000043
 20
1173.500000000005
 30
0.0
 11
627.5000000000043
 21
1170.500000000005
 31
0.0
  0
LINE
  5
5FA
330
1F
100
AcDbEntity
  8
LAY-10
  6
CONTINUOUS
 62
     7
100
AcDbLine
 10
627.5000000000043
 20
1164.500000000005
 30
0.0
 11
627.5000000000043
 21
1161.500000000005
 31
0.0
  0
LINE
  5
5FB
330
1F
100
AcDbEntity
  8
LAY-10
  6
CONTINUOUS
 62
     7
100
AcDbLine
 10
632.5000000000043
 20
1161.500000000005
 30
0.0
 11
632.5000000000043
 21
1164.500000000005
 31
0.0
  0
LINE
  5
5FC
330
1F
100
AcDbEntity
  8
LAY-10
  6
CONTINUOUS
 62
     7
100
AcDbLine
 10
632.5000000000043
 20
1170.500000000005
 30
0.0
 11
632.5000000000043
 21
1173.500000000005
 31
0.0
  0
LINE
  5
5FD
330
1F
100
AcDbEntity
  8
LAY-10
  6
CONTINUOUS
 62
     7
100
AcDbLine
 10
632.5000000000043
 20
1179.500000000005
 30
0.0
 11
632.5000000000043
 21
1182.500000000005
 31
0.0
  0
LINE
  5
5FE
330
1F
100
AcDbEntity
  8
LAY-10
  6
CONTINUOUS
 62
     7
100
AcDbLine
 10
637.5000000000043
 20
1182.500000000005
 30
0.0
 11
637.5000000000043
 21
1179.500000000005
 31
0.0
  0
LINE
  5
5FF
330
1F
100
AcDbEntity
  8
LAY-10
  6
CONTINUOUS
 62
     7
100
AcDbLine
 10
637.5000000000043
 20
1173.500000000005
 30
0.0
 11
637.5000000000043
 21
1170.500000000005
 31
0.0
  0
LINE
  5
600
330
1F
100
AcDbEntity
  8
LAY-10
  6
CONTINUOUS
 62
     7
100
AcDbLine
 10
637.5000000000043
 20
1164.500000000005
 30
0.0
 11
637.5000000000043
 21
1161.500000000005
 31
0.0
  0
LINE
  5
601
330
1F
100
AcDbEntity
  8
LAY-10
  6
CONTINUOUS
 62
     7
100
AcDbLine
 10
642.5000000000043
 20
1161.500000000005
 30
0.0
 11
642.5000000000043
 21
1164.500000000005
 31
0.0
  0
LINE
  5
602
330
1F
100
AcDbEntity
  8
LAY-10
  6
CONTINUOUS
 62
     7
100
AcDbLine
 10
642.5000000000043
 20
1170.500000000005
 30
0.0
 11
642.5000000000043
 21
1173.500000000005
 31
0.0
  0
LINE
  5
603
330
1F
100
AcDbEntity
  8
LAY-10
  6
CONTINUOUS
 62
     7
100
AcDbLine
 10
642.5000000000043
 20
1179.500000000005
 30
0.0
 11
642.5000000000043
 21
1182.500000000005
 31
0.0
  0
LINE
  5
604
330
1F
100
AcDbEntity
  8
LAY-10
  6
CONTINUOUS
 62
     7
100
AcDbLine
 10
647.5000000000043
 20
1182.500000000005
 30
0.0
 11
647.5000000000043
 21
1179.500000000005
 31
0.0
  0
LINE
  5
605
330
1F
100
AcDbEntity
  8
LAY-10
  6
CONTINUOUS
 62
     7
100
AcDbLine
 10
647.5000000000043
 20
1173.500000000005
 30
0.0
 11
647.5000000000043
 21
1170.500000000005
 31
0.0
  0
LINE
  5
606
330
1F
100
AcDbEntity
  8
LAY-10
  6
CONTINUOUS
 62
     7
100
AcDbLine
 10
647.5000000000043
 20
1164.500000000005
 30
0.0
 11
647.5000000000043
 21
1161.500000000005
 31
0.0
  0
LINE
  5
607
330
1F
100
AcDbEntity
  8
LAY-10
  6
CONTINUOUS
 62
     7
100
AcDbLine
 10
652.5000000000043
 20
1161.500000000005
 30
0.0
 11
652.5000000000043
 21
1164.500000000005
 31
0.0
  0
LINE
  5
608
330
1F
100
AcDbEntity
  8
LAY-10
  6
CONTINUOUS
 62
     7
100
AcDbLine
 10
652.5000000000043
 20
1170.500000000005
 30
0.0
 11
652.5000000000043
 21
1173.500000000005
 31
0.0
  0
LINE
  5
609
330
1F
100
AcDbEntity
  8
LAY-10
  6
CONTINUOUS
 62
     7
100
AcDbLine
 10
652.5000000000043
 20
1179.500000000005
 30
0.0
 11
652.5000000000043
 21
1182.500000000005
 31
0.0
  0
LINE
  5
60A
330
1F
100
AcDbEntity
  8
LAY-10
  6
CONTINUOUS
 62
     7
100
AcDbLine
 10
657.5000000000043
 20
1182.500000000005
 30
0.0
 11
657.5000000000043
 21
1179.500000000005
 31
0.0
  0
LINE
  5
60B
330
1F
100
AcDbEntity
  8
LAY-10
  6
CONTINUOUS
 62
     7
100
AcDbLine
 10
657.5000000000043
 20
1173.500000000005
 30
0.0
 11
657.5000000000043
 21
1170.500000000005
 31
0.0
  0
LINE
  5
60C
330
1F
100
AcDbEntity
  8
LAY-10
  6
CONTINUOUS
 62
     7
100
AcDbLine
 10
657.5000000000043
 20
1164.500000000005
 30
0.0
 11
657.5000000000043
 21
1161.500000000005
 31
0.0
  0
LINE
  5
60D
330
1F
100
AcDbEntity
  8
LAY-10
  6
CONTINUOUS
 62
     7
100
AcDbLine
 10
662.5000000000043
 20
1161.500000000005
 30
0.0
 11
662.5000000000043
 21
1164.500000000005
 31
0.0
  0
LINE
  5
60E
330
1F
100
AcDbEntity
  8
LAY-10
  6
CONTINUOUS
 62
     7
100
AcDbLine
 10
662.5000000000043
 20
1170.500000000005
 30
0.0
 11
662.5000000000043
 21
1173.500000000005
 31
0.0
  0
LINE
  5
60F
330
1F
100
AcDbEntity
  8
LAY-10
  6
CONTINUOUS
 62
     7
100
AcDbLine
 10
662.5000000000043
 20
1179.500000000005
 30
0.0
 11
662.5000000000043
 21
1182.500000000005
 31
0.0
  0
LINE
  5
610
330
1F
100
AcDbEntity
  8
LAY-10
  6
CONTINUOUS
 62
     7
100
AcDbLine
 10
667.5000000000043
 20
1182.500000000005
 30
0.0
 11
667.5000000000043
 21
1179.500000000005
 31
0.0
  0
LINE
  5
611
330
1F
100
AcDbEntity
  8
LAY-10
  6
CONTINUOUS
 62
     7
100
AcDbLine
 10
667.5000000000043
 20
1173.500000000005
 30
0.0
 11
667.5000000000043
 21
1170.500000000005
 31
0.0
  0
LINE
  5
612
330
1F
100
AcDbEntity
  8
LAY-10
  6
CONTINUOUS
 62
     7
100
AcDbLine
 10
667.5000000000043
 20
1164.500000000005
 30
0.0
 11
667.5000000000043
 21
1161.500000000005
 31
0.0
  0
LINE
  5
613
330
1F
100
AcDbEntity
  8
LAY-10
  6
CONTINUOUS
 62
     7
100
AcDbLine
 10
672.5000000000043
 20
1161.500000000005
 30
0.0
 11
672.5000000000043
 21
1164.500000000005
 31
0.0
  0
LINE
  5
614
330
1F
100
AcDbEntity
  8
LAY-10
  6
CONTINUOUS
 62
     7
100
AcDbLine
 10
672.5000000000043
 20
1170.500000000005
 30
0.0
 11
672.5000000000043
 21
1173.500000000005
 31
0.0
  0
LINE
  5
615
330
1F
100
AcDbEntity
  8
LAY-10
  6
CONTINUOUS
 62
     7
100
AcDbLine
 10
672.5000000000043
 20
1179.500000000005
 30
0.0
 11
672.5000000000043
 21
1182.500000000005
 31
0.0
  0
LINE
  5
616
330
1F
100
AcDbEntity
  8
LAY-10
  6
CONTINUOUS
 62
     7
100
AcDbLine
 10
677.5000000000043
 20
1182.500000000005
 30
0.0
 11
677.5000000000043
 21
1179.500000000005
 31
0.0
  0
LINE
  5
617
330
1F
100
AcDbEntity
  8
LAY-10
  6
CONTINUOUS
 62
     7
100
AcDbLine
 10
677.5000000000043
 20
1173.500000000005
 30
0.0
 11
677.5000000000043
 21
1170.500000000005
 31
0.0
  0
LINE
  5
618
330
1F
100
AcDbEntity
  8
LAY-10
  6
CONTINUOUS
 62
     7
100
AcDbLine
 10
677.5000000000043
 20
1164.500000000005
 30
0.0
 11
677.5000000000043
 21
1161.500000000005
 31
0.0
  0
LINE
  5
619
330
1F
100
AcDbEntity
  8
LAY-10
  6
CONTINUOUS
 62
     7
100
AcDbLine
 10
682.5000000000043
 20
1161.500000000005
 30
0.0
 11
682.5000000000043
 21
1164.500000000005
 31
0.0
  0
LINE
  5
61A
330
1F
100
AcDbEntity
  8
LAY-10
  6
CONTINUOUS
 62
     7
100
AcDbLine
 10
682.5000000000043
 20
1170.500000000005
 30
0.0
 11
682.5000000000043
 21
1173.500000000005
 31
0.0
  0
LINE
  5
61B
330
1F
100
AcDbEntity
  8
LAY-10
  6
CONTINUOUS
 62
     7
100
AcDbLine
 10
682.5000000000043
 20
1179.500000000005
 30
0.0
 11
682.5000000000043
 21
1182.500000000005
 31
0.0
  0
LINE
  5
61C
330
1F
100
AcDbEntity
  8
LAY-10
  6
CONTINUOUS
 62
     7
100
AcDbLine
 10
687.5000000000043
 20
1182.500000000005
 30
0.0
 11
687.5000000000043
 21
1179.500000000005
 31
0.0
  0
LINE
  5
61D
330
1F
100
AcDbEntity
  8
LAY-10
  6
CONTINUOUS
 62
     7
100
AcDbLine
 10
687.5000000000043
 20
1173.500000000005
 30
0.0
 11
687.5000000000043
 21
1170.500000000005
 31
0.0
  0
LINE
  5
61E
330
1F
100
AcDbEntity
  8
LAY-10
  6
CONTINUOUS
 62
     7
100
AcDbLine
 10
687.5000000000043
 20
1164.500000000005
 30
0.0
 11
687.5000000000043
 21
1161.500000000005
 31
0.0
  0
LINE
  5
61F
330
1F
100
AcDbEntity
  8
LAY-10
  6
CONTINUOUS
 62
     7
100
AcDbLine
 10
692.5000000000043
 20
1161.500000000005
 30
0.0
 11
692.5000000000043
 21
1164.500000000005
 31
0.0
  0
LINE
  5
620
330
1F
100
AcDbEntity
  8
LAY-10
  6
CONTINUOUS
 62
     7
100
AcDbLine
 10
692.5000000000043
 20
1170.500000000005
 30
0.0
 11
692.5000000000043
 21
1173.500000000005
 31
0.0
  0
LINE
  5
621
330
1F
100
AcDbEntity
  8
LAY-10
  6
CONTINUOUS
 62
     7
100
AcDbLine
 10
692.5000000000043
 20
1179.500000000005
 30
0.0
 11
692.5000000000043
 21
1182.500000000005
 31
0.0
  0
LINE
  5
622
330
1F
100
AcDbEntity
  8
LAY-10
  6
CONTINUOUS
 62
     7
100
AcDbLine
 10
697.5000000000043
 20
1182.500000000005
 30
0.0
 11
697.5000000000043
 21
1179.500000000005
 31
0.0
  0
LINE
  5
623
330
1F
100
AcDbEntity
  8
LAY-10
  6
CONTINUOUS
 62
     7
100
AcDbLine
 10
697.5000000000043
 20
1173.500000000005
 30
0.0
 11
697.5000000000043
 21
1170.500000000005
 31
0.0
  0
LINE
  5
624
330
1F
100
AcDbEntity
  8
LAY-10
  6
CONTINUOUS
 62
     7
100
AcDbLine
 10
697.5000000000043
 20
1164.500000000005
 30
0.0
 11
697.5000000000043
 21
1161.500000000005
 31
0.0
  0
LINE
  5
625
330
1F
100
AcDbEntity
  8
LAY-10
  6
CONTINUOUS
 62
     7
100
AcDbLine
 10
702.5000000000043
 20
1161.500000000005
 30
0.0
 11
702.5000000000043
 21
1164.500000000005
 31
0.0
  0
LINE
  5
626
330
1F
100
AcDbEntity
  8
LAY-10
  6
CONTINUOUS
 62
     7
100
AcDbLine
 10
702.5000000000043
 20
1170.500000000005
 30
0.0
 11
702.5000000000043
 21
1173.500000000005
 31
0.0
  0
LINE
  5
627
330
1F
100
AcDbEntity
  8
LAY-10
  6
CONTINUOUS
 62
     7
100
AcDbLine
 10
702.5000000000043
 20
1179.500000000005
 30
0.0
 11
702.5000000000043
 21
1182.500000000005
 31
0.0
  0
LINE
  5
628
330
1F
100
AcDbEntity
  8
LAY-10
  6
CONTINUOUS
 62
     7
100
AcDbLine
 10
707.5000000000043
 20
1182.500000000005
 30
0.0
 11
707.5000000000043
 21
1179.500000000005
 31
0.0
  0
LINE
  5
629
330
1F
100
AcDbEntity
  8
LAY-10
  6
CONTINUOUS
 62
     7
100
AcDbLine
 10
707.5000000000043
 20
1173.500000000005
 30
0.0
 11
707.5000000000043
 21
1170.500000000005
 31
0.0
  0
LINE
  5
62A
330
1F
100
AcDbEntity
  8
LAY-10
  6
CONTINUOUS
 62
     7
100
AcDbLine
 10
707.5000000000043
 20
1164.500000000005
 30
0.0
 11
707.5000000000043
 21
1161.500000000005
 31
0.0
  0
LINE
  5
62B
330
1F
100
AcDbEntity
  8
LAY-10
  6
HIDDEN
 62
     7
100
AcDbLine
 10
700.0
 20
1175.0
 30
0.0
 11
250.0
 21
1175.0
 31
0.0
  0
LINE
  5
62C
330
1F
100
AcDbEntity
  8
LAY-10
  6
CONTINUOUS
 62
     7
100
AcDbLine
 10
621.0
 20
1160.499999999981
 30
0.0
 11
640.0
 21
1160.499999999981
 31
0.0
  0
LINE
  5
62D
330
1F
100
AcDbEntity
  8
LAY-10
  6
CONTINUOUS
 62
     7
100
AcDbLine
 10
640.0
 20
1175.999999999912
 30
0.0
 11
621.0
 21
1175.999999999912
 31
0.0
  0
LINE
  5
62E
330
1F
100
AcDbEntity
  8
LAY-10
  6
CONTINUOUS
 62
     7
100
AcDbLine
 10
297.0
 20
1160.499999999981
 30
0.0
 11
316.0
 21
1160.499999999981
 31
0.0
  0
LINE
  5
62F
330
1F
100
AcDbEntity
  8
LAY-10
  6
CONTINUOUS
 62
     7
100
AcDbLine
 10
316.0
 20
1175.999999999912
 30
0.0
 11
297.0
 21
1175.999999999912
 31
0.0
  0
LINE
  5
630
330
1F
100
AcDbEntity
  8
LAY-10
  6
CONTINUOUS
 62
     7
100
AcDbLine
 10
297.0000000000041
 20
1160.499999999981
 30
0.0
 11
297.0000000000041
 21
1161.499999999955
 31
0.0
  0
LINE
  5
631
330
1F
100
AcDbEntity
  8
LAY-10
  6
CONTINUOUS
 62
     7
100
AcDbLine
 10
316.0000000000041
 20
1160.499999999981
 30
0.0
 11
316.0000000000041
 21
1161.499999999955
 31
0.0
  0
LINE
  5
632
330
1F
100
AcDbEntity
  8
LAY-10
  6
CONTINUOUS
 62
     7
100
AcDbLine
 10
621.0000000000033
 20
1160.499999999981
 30
0.0
 11
621.0000000000033
 21
1161.499999999955
 31
0.0
  0
LINE
  5
633
330
1F
100
AcDbEntity
  8
LAY-10
  6
CONTINUOUS
 62
     7
100
AcDbLine
 10
640.0000000000042
 20
1160.499999999981
 30
0.0
 11
640.0000000000042
 21
1161.499999999955
 31
0.0
  0
LINE
  5
634
330
1F
100
AcDbEntity
  8
LAY-10
  6
CONTINUOUS
 62
     7
100
AcDbLine
 10
679.999999999996
 20
1145.499999999994
 30
0.0
 11
679.999999999996
 21
1139.499999999994
 31
0.0
  0
LINE
  5
635
330
1F
100
AcDbEntity
  8
LAY-10
  6
CONTINUOUS
 62
     7
100
AcDbLine
 10
673.9999999999983
 20
1145.499999999994
 30
0.0
 11
673.9999999999983
 21
1134.99999999999
 31
0.0
  0
LINE
  5
636
330
1F
100
AcDbEntity
  8
LAY-10
  6
CONTINUOUS
 62
     7
100
AcDbLine
 10
270.0000000000098
 20
1145.499999999995
 30
0.0
 11
270.0000000000098
 21
1139.499999999995
 31
0.0
  0
LINE
  5
637
330
1F
100
AcDbEntity
  8
LAY-10
  6
CONTINUOUS
 62
     7
100
AcDbLine
 10
276.0000000000075
 20
1145.499999999995
 30
0.0
 11
276.0000000000075
 21
1134.999999999991
 31
0.0
  0
LINE
  5
638
330
1F
100
AcDbEntity
  8
LAY-10
  6
CONTINUOUS
 62
     7
100
AcDbLine
 10
250.0000000000325
 20
349.499999999986
 30
0.0
 11
250.0000000000325
 21
344.9999999999862
 31
0.0
  0
ARC
  5
639
330
1F
100
AcDbEntity
  8
LAY-10
  6
CONTINUOUS
 62
     7
100
AcDbCircle
 10
208.9999999999961
 20
353.999999999986
 30
0.0
 40
4.5
100
AcDbArc
 50
180.0
 51
270.0
  0
ARC
  5
63A
330
1F
100
AcDbEntity
  8
LAY-10
  6
CONTINUOUS
 62
     7
100
AcDbCircle
 10
208.9999999999961
 20
353.999999999986
 30
0.0
 40
9.0
100
AcDbArc
 50
180.0
 51
270.0
  0
LINE
  5
63B
330
1F
100
AcDbEntity
  8
LAY-10
  6
CONTINUOUS
 62
     7
100
AcDbLine
 10
700.0000000000344
 20
349.499999999986
 30
0.0
 11
700.0000000000344
 21
344.9999999999862
 31
0.0
  0
ARC
  5
63C
330
1F
100
AcDbEntity
  8
LAY-10
  6
CONTINUOUS
 62
     7
100
AcDbCircle
 10
740.9999999999958
 20
353.999999999986
 30
0.0
 40
4.5
100
AcDbArc
 50
270.0
 51
0.0
  0
ARC
  5
63D
330
1F
100
AcDbEntity
  8
LAY-10
  6
CONTINUOUS
 62
     7
100
AcDbCircle
 10
740.9999999999958
 20
353.999999999986
 30
0.0
 40
9.0
100
AcDbArc
 50
270.0
 51
0.0
  0
LINE
  5
63E
330
1F
100
AcDbEntity
  8
LAY-10
  6
CONTINUOUS
 62
     7
100
AcDbLine
 10
208.9999999999961
 20
349.499999999986
 30
0.0
 11
740.9999999999958
 21
349.499999999986
 31
0.0
  0
LINE
  5
63F
330
1F
100
AcDbEntity
  8
LAY-10
  6
CONTINUOUS
 62
     7
100
AcDbLine
 10
208.9999999999961
 20
344.9999999999862
 30
0.0
 11
740.9999999999958
 21
344.9999999999862
 31
0.0
  0
LINE
  5
640
330
1F
100
AcDbEntity
  8
LAY-10
  6
CONTINUOUS
 62
     7
100
AcDbLine
 10
250.0000000000327
 20
349.499999999986
 30
0.0
 11
250.0000000000327
 21
351.4999999999999
 31
0.0
  0
LINE
  5
641
330
1F
100
AcDbEntity
  8
LAY-10
  6
CONTINUOUS
 62
     7
100
AcDbLine
 10
225.0000000000514
 20
349.499999999986
 30
0.0
 11
225.0000000000514
 21
351.4999999999999
 31
0.0
  0
LINE
  5
642
330
1F
100
AcDbEntity
  8
LAY-10
  6
CONTINUOUS
 62
     7
100
AcDbLine
 10
725.000000000046
 20
349.499999999986
 30
0.0
 11
725.000000000046
 21
351.4999999999999
 31
0.0
  0
LINE
  5
643
330
1F
100
AcDbEntity
  8
LAY-10
  6
CONTINUOUS
 62
     7
100
AcDbLine
 10
700.0000000000648
 20
349.499999999986
 30
0.0
 11
700.0000000000648
 21
351.4999999999999
 31
0.0
  0
ARC
  5
644
330
1F
100
AcDbEntity
  8
LAY-10
  6
CONTINUOUS
 62
     7
100
AcDbCircle
 10
250.7999999999947
 20
355.7000000001153
 30
0.0
 40
1.0
100
AcDbArc
 50
270.0
 51
0.0
  0
LINE
  5
645
330
1F
100
AcDbEntity
  8
LAY-10
  6
CONTINUOUS
 62
     7
100
AcDbLine
 10
250.7999999999947
 20
354.7000000001153
 30
0.0
 11
219.1999999999948
 21
354.7000000001153
 31
0.0
  0
ARC
  5
646
330
1F
100
AcDbEntity
  8
LAY-10
  6
CONTINUOUS
 62
     7
100
AcDbCircle
 10
219.1999999999948
 20
355.7000000001153
 30
0.0
 40
1.0
100
AcDbArc
 50
180.0
 51
270.0
  0
ARC
  5
647
330
1F
100
AcDbEntity
  8
LAY-10
  6
CONTINUOUS
 62
     7
100
AcDbCircle
 10
218.9999999999948
 20
355.5000000001151
 30
0.0
 40
4.0
100
AcDbArc
 50
180.0
 51
270.0
  0
ARC
  5
648
330
1F
100
AcDbEntity
  8
LAY-10
  6
CONTINUOUS
 62
     7
100
AcDbCircle
 10
250.9999999999948
 20
355.5000000001151
 30
0.0
 40
4.0
100
AcDbArc
 50
270.0
 51
0.0
  0
ARC
  5
649
330
1F
100
AcDbEntity
  8
LAY-10
  6
CONTINUOUS
 62
     7
100
AcDbCircle
 10
410.7999999999948
 20
355.7000000001153
 30
0.0
 40
1.0
100
AcDbArc
 50
270.0
 51
0.0
  0
LINE
  5
64A
330
1F
100
AcDbEntity
  8
LAY-10
  6
CONTINUOUS
 62
     7
100
AcDbLine
 10
410.7999999999948
 20
354.7000000001153
 30
0.0
 11
379.1999999999948
 21
354.7000000001153
 31
0.0
  0
ARC
  5
64B
330
1F
100
AcDbEntity
  8
LAY-10
  6
CONTINUOUS
 62
     7
100
AcDbCircle
 10
379.1999999999948
 20
355.7000000001153
 30
0.0
 40
1.0
100
AcDbArc
 50
180.0
 51
270.0
  0
ARC
  5
64C
330
1F
100
AcDbEntity
  8
LAY-10
  6
CONTINUOUS
 62
     7
100
AcDbCircle
 10
378.9999999999948
 20
355.5000000001151
 30
0.0
 40
4.0
100
AcDbArc
 50
180.0
 51
270.0
  0
ARC
  5
64D
330
1F
100
AcDbEntity
  8
LAY-10
  6
CONTINUOUS
 62
     7
100
AcDbCircle
 10
410.9999999999949
 20
355.5000000001151
 30
0.0
 40
4.0
100
AcDbArc
 50
270.0
 51
0.0
  0
ARC
  5
64E
330
1F
100
AcDbEntity
  8
LAY-10
  6
CONTINUOUS
 62
     7
100
AcDbCircle
 10
570.8000000000048
 20
355.7000000001153
 30
0.0
 40
1.0
100
AcDbArc
 50
270.0
 51
0.0
  0
LINE
  5
64F
330
1F
100
AcDbEntity
  8
LAY-10
  6
CONTINUOUS
 62
     7
100
AcDbLine
 10
570.8000000000048
 20
354.7000000001153
 30
0.0
 11
539.2000000000049
 21
354.7000000001153
 31
0.0
  0
ARC
  5
650
330
1F
100
AcDbEntity
  8
LAY-10
  6
CONTINUOUS
 62
     7
100
AcDbCircle
 10
539.2000000000049
 20
355.7000000001153
 30
0.0
 40
1.0
100
AcDbArc
 50
180.0
 51
270.0
  0
ARC
  5
651
330
1F
100
AcDbEntity
  8
LAY-10
  6
CONTINUOUS
 62
     7
100
AcDbCircle
 10
539.0000000000049
 20
355.5000000001151
 30
0.0
 40
4.0
100
AcDbArc
 50
180.0
 51
270.0
  0
ARC
  5
652
330
1F
100
AcDbEntity
  8
LAY-10
  6
CONTINUOUS
 62
     7
100
AcDbCircle
 10
571.0000000000049
 20
355.5000000001151
 30
0.0
 40
4.0
100
AcDbArc
 50
270.0
 51
0.0
  0
ARC
  5
653
330
1F
100
AcDbEntity
  8
LAY-10
  6
CONTINUOUS
 62
     7
100
AcDbCircle
 10
730.8000000000047
 20
355.7000000001153
 30
0.0
 40
1.0
100
AcDbArc
 50
270.0
 51
0.0
  0
LINE
  5
654
330
1F
100
AcDbEntity
  8
LAY-10
  6
CONTINUOUS
 62
     7
100
AcDbLine
 10
730.8000000000047
 20
354.7000000001153
 30
0.0
 11
699.2000000000049
 21
354.7000000001153
 31
0.0
  0
ARC
  5
655
330
1F
100
AcDbEntity
  8
LAY-10
  6
CONTINUOUS
 62
     7
100
AcDbCircle
 10
699.2000000000049
 20
355.7000000001153
 30
0.0
 40
1.0
100
AcDbArc
 50
180.0
 51
270.0
  0
ARC
  5
656
330
1F
100
AcDbEntity
  8
LAY-10
  6
CONTINUOUS
 62
     7
100
AcDbCircle
 10
699.0000000000049
 20
355.5000000001151
 30
0.0
 40
4.0
100
AcDbArc
 50
180.0
 51
270.0
  0
ARC
  5
657
330
1F
100
AcDbEntity
  8
LAY-10
  6
CONTINUOUS
 62
     7
100
AcDbCircle
 10
731.0000000000049
 20
355.5000000001151
 30
0.0
 40
4.0
100
AcDbArc
 50
270.0
 51
0.0
  0
LINE
  5
658
330
1F
100
AcDbEntity
  8
LAY-10
  6
CONTINUOUS
 62
     7
100
AcDbLine
 10
219.0
 20
351.50000000011
 30
0.0
 11
731.0000000000049
 21
351.50000000011
 31
0.0
  0
ARC
  5
659
330
1F
100
AcDbEntity
  8
LAY-10
  6
CONTINUOUS
 62
     7
100
AcDbCircle
 10
1121.000000000003
 20
683.999999999992
 30
0.0
 40
9.0
100
AcDbArc
 50
270.0
 51
0.0
  0
ARC
  5
65A
330
1F
100
AcDbEntity
  8
LAY-10
  6
CONTINUOUS
 62
     7
100
AcDbCircle
 10
1121.000000000003
 20
683.999999999992
 30
0.0
 40
4.5
100
AcDbArc
 50
270.0
 51
0.0
  0
LINE
  5
65B
330
1F
100
AcDbEntity
  8
LAY-10
  6
CONTINUOUS
 62
     7
100
AcDbLine
 10
1125.500000000002
 20
725.0000000000281
 30
0.0
 11
1130.000000000002
 21
725.0000000000281
 31
0.0
  0
ARC
  5
65C
330
1F
100
AcDbEntity
  8
LAY-10
  6
CONTINUOUS
 62
     7
100
AcDbCircle
 10
1138.000000000043
 20
682.9999999999735
 30
0.0
 40
8.0
100
AcDbArc
 50
180.0000000000001
 51
270.0
  0
LINE
  5
65D
330
1F
100
AcDbEntity
  8
LAY-10
  6
CONTINUOUS
 62
     7
100
AcDbLine
 10
1138.000000000043
 20
714.9999999999752
 30
0.0
 11
1130.000000000043
 21
714.9999999999752
 31
0.0
  0
LINE
  5
65E
330
1F
100
AcDbEntity
  8
LAY-10
  6
CONTINUOUS
 62
     7
100
AcDbLine
 10
1138.000000000043
 20
682.9999999999793
 30
0.0
 11
1138.000000000043
 21
714.9999999999752
 31
0.0
  0
ARC
  5
65F
330
1F
100
AcDbEntity
  8
LAY-10
  6
CONTINUOUS
 62
     7
100
AcDbCircle
 10
1121.000000000004
 20
1215.999999999991
 30
0.0
 40
9.0
100
AcDbArc
 50
0.0
 51
90.00000000000001
  0
ARC
  5
660
330
1F
100
AcDbEntity
  8
LAY-10
  6
CONTINUOUS
 62
     7
100
AcDbCircle
 10
1121.000000000004
 20
1215.999999999991
 30
0.0
 40
4.5
100
AcDbArc
 50
0.0
 51
90.00000000000001
  0
LINE
  5
661
330
1F
100
AcDbEntity
  8
LAY-10
  6
CONTINUOUS
 62
     7
100
AcDbLine
 10
1125.500000000004
 20
1175.00000000003
 30
0.0
 11
1130.000000000004
 21
1175.00000000003
 31
0.0
  0
ARC
  5
662
330
1F
100
AcDbEntity
  8
LAY-10
  6
CONTINUOUS
 62
     7
100
AcDbCircle
 10
1138.000000000043
 20
1217.000000000003
 30
0.0
 40
8.0
100
AcDbArc
 50
90.00000000000001
 51
180.0000000000001
  0
LINE
  5
663
330
1F
100
AcDbEntity
  8
LAY-10
  6
CONTINUOUS
 62
     7
100
AcDbLine
 10
1138.000000000045
 20
1185.000000000001
 30
0.0
 11
1130.000000000043
 21
1185.000000000001
 31
0.0
  0
LINE
  5
664
330
1F
100
AcDbEntity
  8
LAY-10
  6
CONTINUOUS
 62
     7
100
AcDbLine
 10
1138.000000000043
 20
1216.999999999997
 30
0.0
 11
1138.000000000043
 21
1185.000000000001
 31
0.0
  0
LINE
  5
665
330
1F
100
AcDbEntity
  8
LAY-10
  6
CONTINUOUS
 62
     7
100
AcDbLine
 10
1125.500000000002
 20
683.999999999992
 30
0.0
 11
1125.500000000004
 21
1215.999999999991
 31
0.0
  0
LINE
  5
666
330
1F
100
AcDbEntity
  8
LAY-10
  6
CONTINUOUS
 62
     7
100
AcDbLine
 10
1123.5
 20
690.4999999999998
 30
0.0
 11
1123.5
 21
1209.5000000001
 31
0.0
  0
LINE
  5
667
330
1F
100
AcDbEntity
  8
LAY-10
  6
CONTINUOUS
 62
     7
100
AcDbLine
 10
1123.5
 20
700.0000000001497
 30
0.0
 11
1125.500000000002
 21
700.0000000001497
 31
0.0
  0
LINE
  5
668
330
1F
100
AcDbEntity
  8
LAY-10
  6
CONTINUOUS
 62
     7
100
AcDbLine
 10
1123.5
 20
725.0000000000716
 30
0.0
 11
1125.500000000002
 21
725.0000000000716
 31
0.0
  0
LINE
  5
669
330
1F
100
AcDbEntity
  8
LAY-10
  6
CONTINUOUS
 62
     7
100
AcDbLine
 10
1123.5
 20
1199.99999999995
 30
0.0
 11
1125.500000000004
 21
1199.99999999995
 31
0.0
  0
LINE
  5
66A
330
1F
100
AcDbEntity
  8
LAY-10
  6
CONTINUOUS
 62
     7
100
AcDbLine
 10
1123.5
 20
1175.000000000069
 30
0.0
 11
1125.500000000004
 21
1175.000000000069
 31
0.0
  0
LINE
  5
66B
330
1F
100
AcDbEntity
  8
LAY-10
  6
CONTINUOUS
 62
     7
100
AcDbLine
 10
1130.000000000002
 20
682.9999999999735
 30
0.0
 11
1130.000000000004
 21
1217.000000000003
 31
0.0
  0
LINE
  5
66C
330
1F
100
AcDbEntity
  8
LAY-10
  6
CONTINUOUS
 62
     7
100
AcDbLine
 10
1038.000000000022
 20
1189.250000000042
 30
0.0
 11
1038.000000000022
 21
1181.750000000042
 31
0.0
  0
ARC
  5
66D
330
1F
100
AcDbEntity
  8
LAY-10
  6
CONTINUOUS
 62
     7
100
AcDbCircle
 10
1041.000000000022
 20
1185.500000000042
 30
0.0
 40
5.25
100
AcDbArc
 50
90.00000000000107
 51
118.072486935858
  0
LINE
  5
66E
330
1F
100
AcDbEntity
  8
LAY-10
  6
HIDDEN
 62
     7
100
AcDbLine
 10
1021.000000000067
 20
1189.500000000014
 30
0.0
 11
1027.000000000067
 21
1189.500000000014
 31
0.0
  0
LINE
  5
66F
330
1F
100
AcDbEntity
  8
LAY-10
  6
HIDDEN
 62
     7
100
AcDbLine
 10
1021.000000000067
 20
1181.500000000014
 30
0.0
 11
1027.000000000067
 21
1181.500000000014
 31
0.0
  0
LINE
  5
670
330
1F
100
AcDbEntity
  8
LAY-10
  6
CONTINUOUS
 62
     7
100
AcDbLine
 10
1041.250000000022
 20
1182.500000000042
 30
0.0
 11
1042.000000000017
 21
1182.500000000042
 31
0.0
  0
LINE
  5
671
330
1F
100
AcDbEntity
  8
LAY-10
  6
CONTINUOUS
 62
     7
100
AcDbLine
 10
1041.250000000022
 20
1188.500000000042
 30
0.0
 11
1042.000000000017
 21
1188.500000000042
 31
0.0
  0
LINE
  5
672
330
1F
100
AcDbEntity
  8
LAY-10
  6
CONTINUOUS
 62
     7
100
AcDbLine
 10
1063.200000000023
 20
1191.250000000042
 30
0.0
 11
1063.200000000023
 21
1179.750000000042
 31
0.0
  0
POLYLINE
  5
673
330
1F
100
AcDbEntity
  8
LAY-10
  6
CONTINUOUS
 62
     7
100
AcDb2dPolyline
 66
     1
 10
0.0
 20
0.0
 30
0.0
 70
   128
  0
VERTEX
  5
674
330
673
100
AcDbEntity
  8
LAY-10
  6
CONTINUOUS
 62
     7
100
AcDbVertex
100
AcDb2dVertex
 10
1040.000000000067
 20
1176.000000000038
 30
0.0
  0
VERTEX
  5
675
330
673
100
AcDbEntity
  8
LAY-10
  6
CONTINUOUS
 62
     7
100
AcDbVertex
100
AcDb2dVertex
 10
1040.000000000067
 20
1180.346117968011
 30
0.0
  0
SEQEND
  5
676
330
673
100
AcDbEntity
  8
LAY-10
  6
CONTINUOUS
 62
     7
  0
ARC
  5
677
330
1F
100
AcDbEntity
  8
LAY-10
  6
CONTINUOUS
 62
     7
100
AcDbCircle
 10
1041.250000000022
 20
1188.750000000042
 30
0.0
 40
0.25
100
AcDbArc
 50
180.0000000000001
 51
270.0000000000003
  0
LINE
  5
678
330
1F
100
AcDbEntity
  8
LAY-10
  6
CONTINUOUS
 62
     7
100
AcDbLine
 10
1041.000000000022
 20
1180.250000000042
 30
0.0
 11
1041.000000000022
 21
1190.750000000042
 31
0.0
  0
ARC
  5
679
330
1F
100
AcDbEntity
  8
LAY-10
  6
CONTINUOUS
 62
     7
100
AcDbCircle
 10
1041.250000000022
 20
1182.250000000042
 30
0.0
 40
0.25
100
AcDbArc
 50
90.00000000000009
 51
180.0000000000001
  0
ARC
  5
67A
330
1F
100
AcDbEntity
  8
LAY-10
  6
CONTINUOUS
 62
     7
100
AcDbCircle
 10
1039.000000000022
 20
1181.750000000042
 30
0.0
 40
1.0
100
AcDbArc
 50
180.0000000000001
 51
241.927513064142
  0
ARC
  5
67B
330
1F
100
AcDbEntity
  8
LAY-10
  6
CONTINUOUS
 62
     7
100
AcDbCircle
 10
1041.000000000022
 20
1185.500000000042
 30
0.0
 40
5.25
100
AcDbArc
 50
241.9275130641421
 51
269.9999999999997
  0
ARC
  5
67C
330
1F
100
AcDbEntity
  8
LAY-10
  6
CONTINUOUS
 62
     7
100
AcDbCircle
 10
1039.000000000022
 20
1189.250000000042
 30
0.0
 40
1.0
100
AcDbArc
 50
118.0724869358582
 51
180.0000000000001
  0
LINE
  5
67D
330
1F
100
AcDbEntity
  8
LAY-10
  6
CONTINUOUS
 62
     7
100
AcDbLine
 10
1042.000000000022
 20
1183.100000000042
 30
0.0
 11
1041.400000000022
 21
1182.500000000042
 31
0.0
  0
LINE
  5
67E
330
1F
100
AcDbEntity
  8
LAY-10
  6
CONTINUOUS
 62
     7
100
AcDbLine
 10
1042.000000000022
 20
1187.900000000042
 30
0.0
 11
1041.400000000022
 21
1188.500000000042
 31
0.0
  0
LINE
  5
67F
330
1F
100
AcDbEntity
  8
LAY-10
  6
CONTINUOUS
 62
     7
100
AcDbLine
 10
1030.000000000017
 20
1176.000000000038
 30
0.0
 11
1041.000000000017
 21
1176.000000000038
 31
0.0
  0
ARC
  5
680
330
1F
100
AcDbEntity
  8
LAY-10
  6
CONTINUOUS
 62
     7
100
AcDbCircle
 10
1041.000000000017
 20
1177.000000000038
 30
0.0
 40
1.0
100
AcDbArc
 50
270.0000000000016
 51
0.0
  0
LINE
  5
681
330
1F
100
AcDbEntity
  8
LAY-10
  6
CONTINUOUS
 62
     7
100
AcDbLine
 10
1063.200000000023
 20
1183.100000000042
 30
0.0
 11
1052.997114317046
 21
1183.100000000042
 31
0.0
  0
LINE
  5
682
330
1F
100
AcDbEntity
  8
LAY-10
  6
CONTINUOUS
 62
     7
100
AcDbLine
 10
1049.000000000022
 20
1183.100000000042
 30
0.0
 11
1044.000000000017
 21
1183.100000000042
 31
0.0
  0
LINE
  5
683
330
1F
100
AcDbEntity
  8
LAY-10
  6
CONTINUOUS
 62
     7
100
AcDbLine
 10
1044.000000000017
 20
1182.500000000042
 30
0.0
 11
1049.000000000022
 21
1182.500000000042
 31
0.0
  0
LINE
  5
684
330
1F
100
AcDbEntity
  8
LAY-10
  6
CONTINUOUS
 62
     7
100
AcDbLine
 10
1052.997114317046
 20
1182.500000000042
 30
0.0
 11
1063.200000000023
 21
1182.500000000042
 31
0.0
  0
LINE
  5
685
330
1F
100
AcDbEntity
  8
LAY-10
  6
CONTINUOUS
 62
     7
100
AcDbLine
 10
1063.200000000023
 20
1187.900000000042
 30
0.0
 11
1052.997114317046
 21
1187.900000000042
 31
0.0
  0
LINE
  5
686
330
1F
100
AcDbEntity
  8
LAY-10
  6
CONTINUOUS
 62
     7
100
AcDbLine
 10
1049.000000000022
 20
1187.900000000042
 30
0.0
 11
1044.000000000017
 21
1187.900000000042
 31
0.0
  0
LINE
  5
687
330
1F
100
AcDbEntity
  8
LAY-10
  6
CONTINUOUS
 62
     7
100
AcDbLine
 10
1044.000000000017
 20
1188.500000000042
 30
0.0
 11
1049.000000000022
 21
1188.500000000042
 31
0.0
  0
LINE
  5
688
330
1F
100
AcDbEntity
  8
LAY-10
  6
CONTINUOUS
 62
     7
100
AcDbLine
 10
1052.997114317046
 20
1188.500000000042
 30
0.0
 11
1063.200000000023
 21
1188.500000000042
 31
0.0
  0
LINE
  5
689
330
1F
100
AcDbEntity
  8
LAY-10
  6
CENTER
 62
     2
100
AcDbLine
 10
190.0000000000002
 20
949.9999999999909
 30
0.0
 11
760.0000000000002
 21
949.9999999999909
 31
0.0
  0
LINE
  5
68A
330
1F
100
AcDbEntity
  8
LAY-10
  6
CENTER
 62
     2
100
AcDbLine
 10
274.9999999999552
 20
717.9999999999357
 30
0.0
 11
274.9999999999552
 21
671.9999999999899
 31
0.0
  0
LINE
  5
68B
330
1F
100
AcDbEntity
  8
LAY-10
  6
CENTER
 62
     2
100
AcDbLine
 10
675.0000000000513
 20
717.9999999999362
 30
0.0
 11
675.0000000000513
 21
671.9999999999903
 31
0.0
  0
LINE
  5
68C
330
1F
100
AcDbEntity
  8
LAY-10
  6
CENTER
 62
     2
100
AcDbLine
 10
274.9999999999638
 20
347.9999999999999
 30
0.0
 11
274.9999999999638
 21
297.0000000000997
 31
0.0
  0
LINE
  5
68D
330
1F
100
AcDbEntity
  8
LAY-10
  6
CENTER
 62
     2
100
AcDbLine
 10
675.0000000000435
 20
347.9999999999999
 30
0.0
 11
675.0000000000435
 21
297.0000000000997
 31
0.0
  0
LINE
  5
68E
330
1F
100
AcDbEntity
  8
LAY-10
  6
CENTER
 62
     2
100
AcDbLine
 10
475.0000000000035
 20
290.0000000000983
 30
0.0
 11
475.0000000000035
 21
484.9999999999862
 31
0.0
  0
LINE
  5
68F
330
1F
100
AcDbEntity
  8
LAY-10
  6
CENTER
 62
     2
100
AcDbLine
 10
1185.0
 20
950.000000000029
 30
0.0
 11
990.0000000000032
 21
950.000000000029
 31
0.0
  0
LINE
  5
690
330
1F
100
AcDbEntity
  8
LAY-10
  6
CENTER
 62
     2
100
AcDbLine
 10
475.000000000003
 20
1235.0
 30
0.0
 11
475.0000000000024
 21
665.0000000000002
 31
0.0
  0
LINE
  5
691
330
1F
100
AcDbEntity
  8
LAY-10
  6
CENTER
 62
     2
100
AcDbLine
 10
995.0000000000023
 20
1185.498708177599
 30
0.0
 11
1075.000000000004
 21
1185.498708177599
 31
0.0
  0
LINE
  5
692
330
1F
100
AcDbEntity
  8
LAY-10
  6
CENTER
 62
     2
100
AcDbLine
 10
995.0000000000779
 20
1185.499999999979
 30
0.0
 11
1077.69999964772
 21
1185.499999999979
 31
0.0
  0
LINE
  5
693
330
1F
100
AcDbEntity
  8
LAY-10
  6
CENTER
 62
     2
100
AcDbLine
 10
1064.8
 20
1095.499999999977
 30
0.0
 11
1082.0
 21
1095.499999999977
 31
0.0
  0
LINE
  5
694
330
1F
100
AcDbEntity
  8
LAY-10
  6
CENTER
 62
     2
100
AcDbLine
 10
1062.95
 20
735.9999999999573
 30
0.0
 11
1082.0
 21
735.9999999999573
 31
0.0
  0
LINE
  5
695
330
1F
100
AcDbEntity
  8
LAY-255
  6
CONTINUOUS
 62
     7
100
AcDbLine
 10
1925.0
 20
110.0
 30
0.0
 11
1425.0
 21
110.0
 31
0.0
  0
LINE
  5
696
330
1F
100
AcDbEntity
  8
LAY-255
  6
CONTINUOUS
 62
     7
100
AcDbLine
 10
1444.0
 20
79.99999999999999
 30
0.0
 11
1484.0
 21
105.0
 31
0.0
  0
LINE
  5
697
330
1F
100
AcDbEntity
  8
LAY-255
  6
CONTINUOUS
 62
     7
100
AcDbLine
 10
1484.0
 20
105.0
 30
0.0
 11
1524.0
 21
79.99999999999999
 31
0.0
  0
LINE
  5
698
330
1F
100
AcDbEntity
  8
LAY-255
  6
CONTINUOUS
 62
     7
100
AcDbLine
 10
1524.0
 20
79.99999999999999
 30
0.0
 11
1484.0
 21
55.0
 31
0.0
  0
LINE
  5
699
330
1F
100
AcDbEntity
  8
LAY-255
  6
CONTINUOUS
 62
     7
100
AcDbLine
 10
1484.0
 20
55.0
 30
0.0
 11
1444.0
 21
79.99999999999999
 31
0.0
  0
LINE
  5
69A
330
1F
100
AcDbEntity
  8
LAY-255
  6
CONTINUOUS
 62
     7
100
AcDbLine
 10
25.0
 20
50.0
 30
0.0
 11
1925.0
 21
50.0
 31
0.0
  0
LINE
  5
69B
330
1F
100
AcDbEntity
  8
LAY-255
  6
CONTINUOUS
 62
     7
100
AcDbLine
 10
25.0
 20
1400.0
 30
0.0
 11
1925.0
 21
1400.0
 31
0.0
  0
LINE
  5
69C
330
1F
100
AcDbEntity
  8
LAY-255
  6
CONTINUOUS
 62
     7
100
AcDbLine
 10
25.0
 20
50.0
 30
0.0
 11
25.0
 21
1400.0
 31
0.0
  0
LINE
  5
69D
330
1F
100
AcDbEntity
  8
LAY-255
  6
CONTINUOUS
 62
     4
100
AcDbLine
 10
1425.0
 20
140.0
 30
0.0
 11
1925.0
 21
140.0
 31
0.0
  0
LINE
  5
69E
330
1F
100
AcDbEntity
  8
LAY-255
  6
CONTINUOUS
 62
     4
100
AcDbLine
 10
1675.0
 20
140.0
 30
0.0
 11
1675.0
 21
110.0
 31
0.0
  0
POINT
  5
69F
330
1F
100
AcDbEntity
  8
LAY-255
  6
CONTINUOUS
 62
     7
100
AcDbPoint
 10
1445.0
 20
150.0000000000001
 30
0.0
  0
LINE
  5
6A0
330
1F
100
AcDbEntity
  8
LAY-255
  6
CONTINUOUS
 62
     7
100
AcDbLine
 10
1925.0
 20
50.0
 30
0.0
 11
1925.0
 21
1400.0
 31
0.0
  0
LINE
  5
6A1
330
1F
100
AcDbEntity
  8
LAY-255
  6
CONTINUOUS
 62
     7
100
AcDbLine
 10
1925.0
 20
385.0000000000003
 30
0.0
 11
1425.0
 21
385.0000000000003
 31
0.0
  0
LINE
  5
6A2
330
1F
100
AcDbEntity
  8
LAY-255
  6
CONTINUOUS
 62
     4
100
AcDbLine
 10
1915.0
 20
325.0000000000003
 30
0.0
 11
1435.0
 21
325.0000000000003
 31
0.0
  0
LINE
  5
6A3
330
1F
100
AcDbEntity
  8
LAY-255
  6
CONTINUOUS
 62
     4
100
AcDbLine
 10
1915.0
 20
355.0000000000003
 30
0.0
 11
1435.0
 21
355.0000000000003
 31
0.0
  0
POINT
  5
6A4
330
1F
100
AcDbEntity
  8
LAY-255
  6
CONTINUOUS
 62
     7
100
AcDbPoint
 10
1500.0
 20
330.0000000000003
 30
0.0
  0
POINT
  5
6A5
330
1F
100
AcDbEntity
  8
LAY-255
  6
CONTINUOUS
 62
     7
100
AcDbPoint
 10
1500.0
 20
360.0000000000003
 30
0.0
  0
LINE
  5
6A6
330
1F
100
AcDbEntity
  8
LAY-255
  6
CONTINUOUS
 62
     7
100
AcDbLine
 10
1425.0
 20
50.0
 30
0.0
 11
1425.0
 21
385.0000000000003
 31
0.0
  0
POINT
  5
6A7
330
1F
100
AcDbEntity
  8
LAY-255
  6
CONTINUOUS
 62
     7
100
AcDbPoint
 10
1445.0
 20
275.0000000000003
 30
0.0
  0
POINT
  5
6A8
330
1F
100
AcDbEntity
  8
LAY-255
  6
CONTINUOUS
 62
     7
100
AcDbPoint
 10
1445.0
 20
225.0000000000002
 30
0.0
  0
POINT
  5
6A9
330
1F
100
AcDbEntity
  8
LAY-255
  6
CONTINUOUS
 62
     7
100
AcDbPoint
 10
1445.0
 20
250.0000000000002
 30
0.0
  0
POINT
  5
6AA
330
1F
100
AcDbEntity
  8
LAY-255
  6
CONTINUOUS
 62
     7
100
AcDbPoint
 10
1445.0
 20
200.0000000000002
 30
0.0
  0
POINT
  5
6AB
330
1F
100
AcDbEntity
  8
LAY-255
  6
CONTINUOUS
 62
     7
100
AcDbPoint
 10
1445.0
 20
300.0000000000003
 30
0.0
  0
POINT
  5
6AC
330
1F
100
AcDbEntity
  8
LAY-255
  6
CONTINUOUS
 62
     7
100
AcDbPoint
 10
1445.0
 20
175.0000000000001
 30
0.0
  0
TEXT
  5
6AD
330
1F
100
AcDbEntity
  8
LAY-255
  6
CONTINUOUS
 62
     7
100
AcDbText
 10
1540.691894370117
 20
77.71874999999999
 30
0.0
 40
25.78125
  1
福西鋳物株式会社
 41
1.342691871783662
  7
EXCADSTD
100
AcDbText
  0
TEXT
  5
6AE
330
1F
100
AcDbEntity
  8
LAY-255
  6
CONTINUOUS
 62
     7
100
AcDbText
 10
1542.546875
 20
59.90624999999999
 30
0.0
 40
8.59375
  1
ＦＵＫＵＮＩＳＨＩ
 41
1.204799226045263
  7
EXCADSTD
100
AcDbText
  0
TEXT
  5
6AF
330
1F
100
AcDbEntity
  8
LAY-255
  6
CONTINUOUS
 62
     7
100
AcDbText
 10
1663.595982142857
 20
59.90624999999999
 30
0.0
 40
8.59375
  1
ＦＯＵＮＤＲＹ
 41
1.243252752978497
  7
EXCADSTD
100
AcDbText
  0
TEXT
  5
6B0
330
1F
100
AcDbEntity
  8
LAY-255
  6
CONTINUOUS
 62
     7
100
AcDbText
 10
1759.97295734375
 20
59.90624999999999
 30
0.0
 40
8.59375
  1
ＣＯ.,ＬＴＤ.
 41
1.243831100341625
  7
EXCADSTD
100
AcDbText
  0
TEXT
  5
6B1
330
1F
100
AcDbEntity
  8
LAY-255
  6
CONTINUOUS
 62
     7
100
AcDbText
 10
1470.171875
 20
68.59375
 30
0.0
 40
25.78125
  1
S
 41
0.7582677563636363
  7
EXCADSTD
100
AcDbText
  0
TEXT
  5
6B2
330
1F
100
AcDbEntity
  8
LAY-255
  6
CONTINUOUS
 62
     7
100
AcDbText
 10
1485.5234375
 20
68.7470518868
 30
0.0
 40
25.78125
  1
F
 41
0.7440945272727272
  7
EXCADSTD
100
AcDbText
  0
TEXT
  5
6B3
330
1F
100
AcDbEntity
  8
LAY-255
  6
CONTINUOUS
 62
     7
100
AcDbText
 10
1685.52734375
 20
122.1093749999999
 30
0.0
 40
12.890625
  1
縮尺
 41
1.080708718181818
  7
EXCADSTD
100
AcDbText
  0
TEXT
  5
6B4
330
1F
100
AcDbEntity
  8
LAY-255
  6
CONTINUOUS
 62
     7
100
AcDbText
 10
1435.76171875
 20
122.1093749999999
 30
0.0
 40
12.890625
  1
作成日
 41
1.000629973818182
  7
EXCADSTD
100
AcDbText
  0
TEXT
  5
6B5
330
1F
100
AcDbEntity
  8
LAY-255
  6
CONTINUOUS
 62
     7
100
AcDbText
 10
1728.40625
 20
117.8124999999999
 30
0.0
 40
17.1875
  1
１：５,１：１
 41
0.8819559783040489
  7
EXCADSTD
100
AcDbText
  0
TEXT
  5
6B6
330
1F
100
AcDbEntity
  8
LAY-255
  6
CONTINUOUS
 62
     7
100
AcDbText
 10
1436.328125
 20
332.8125000000003
 30
0.0
 40
17.1875
  1
型式
 41
1.056348480681818
  7
EXCADSTD
100
AcDbText
  0
TEXT
  5
6B7
330
1F
100
AcDbEntity
  8
LAY-255
  6
CONTINUOUS
 62
     7
100
AcDbText
 10
1437.109375
 20
362.8125000000003
 30
0.0
 40
17.1875
  1
品名
 41
0.9788386340909091
  7
EXCADSTD
100
AcDbText
  0
TEXT
  5
6B8
330
1F
100
AcDbEntity
  8
LAY-255
  6
CONTINUOUS
 62
     7
100
AcDbText
 10
1446.171875
 20
277.8125000000003
 30
0.0
 40
17.1875
  1
用途：集水桝用
 41
1.015360838152012
  7
EXCADSTD
100
AcDbText
  0
TEXT
  5
6B9
330
1F
100
AcDbEntity
  8
LAY-255
  6
CONTINUOUS
 62
     7
100
AcDbText
 10
1445.859375
 20
252.8125000000003
 30
0.0
 40
17.1875
  1
仕上：インターロッキングブロック用
 41
1.011837149668874
  7
EXCADSTD
100
AcDbText
  0
TEXT
  5
6BA
330
1F
100
AcDbEntity
  8
LAY-255
  6
CONTINUOUS
 62
     7
100
AcDbText
 10
1446.015625
 20
302.8125000000003
 30
0.0
 40
17.1875
  1
適用桝径：４５０用
 41
1.014552031760644
  7
EXCADSTD
100
AcDbText
  0
TEXT
  5
6BB
330
1F
100
AcDbEntity
  8
LAY-255
  6
CONTINUOUS
 62
     7
100
AcDbText
 10
1446.015625
 20
227.8125000000002
 30
0.0
 40
17.1875
  1
貼代：６９
 41
0.9937740862579282
  7
EXCADSTD
100
AcDbText
  0
TEXT
  5
6BC
330
1F
100
AcDbEntity
  8
LAY-255
  6
CONTINUOUS
 62
     7
100
AcDbText
 10
1504.296875
 20
332.8125000000003
 30
0.0
 40
17.1875
  1
Ｚ０９－４５ＺＰＣ－ＴＳ型
 41
1.002601901343873
  7
EXCADSTD
100
AcDbText
  0
TEXT
  5
6BD
330
1F
100
AcDbEntity
  8
LAY-255
  6
CONTINUOUS
 62
     7
100
AcDbText
 10
1501.5625
 20
362.8125000000003
 30
0.0
 40
17.1875
  1
スチール製ライナー側溝グレーチング
 41
1.014653022998194
  7
EXCADSTD
100
AcDbText
  0
TEXT
  5
6BE
330
1F
100
AcDbEntity
  8
LAY-255
  6
CONTINUOUS
 62
     7
100
AcDbText
 10
1445.703125
 20
177.8124999999999
 30
0.0
 40
17.1875
  1
材質：スチール（溶融亜鉛めっき）
 41
0.9761562007682457
  7
EXCADSTD
100
AcDbText
  0
TEXT
  5
6BF
330
1F
100
AcDbEntity
  8
LAY-255
  6
CONTINUOUS
 62
     7
100
AcDbText
 10
1446.171875
 20
202.8125
 30
0.0
 40
17.1875
  1
表面：すべり止め凹凸模様
 41
1.017865155231561
  7
EXCADSTD
100
AcDbText
  0
TEXT
  5
6C0
330
1F
100
AcDbEntity
  8
LAY-255
  6
CONTINUOUS
 62
     7
100
AcDbText
 10
1446.015625
 20
152.8124999999999
 30
0.0
 40
17.1875
  1
適用荷重：Ｔ－１４（レベルＤ）
 41
0.9729442225563909
  7
EXCADSTD
100
AcDbText
  0
TEXT
  5
6C1
330
1F
100
AcDbEntity
  8
LAY-255
  6
CONTINUOUS
 62
     7
100
AcDbText
 10
1504.921875
 20
117.8124999999999
 30
0.0
 40
17.1875
  1
２１／０４／１９
 41
0.9739033132467532
  7
EXCADSTD
100
AcDbText
  0
ENDSEC
  0
SECTION
  2
OBJECTS
  0
DICTIONARY
  5
C
330
0
100
AcDbDictionary
  3
ACAD_GROUP
350
D
  3
ACAD_LAYOUT
350
1A
  3
ACAD_MATERIAL
350
43
  3
ACAD_MLEADERSTYLE
350
6B
  3
ACAD_MLINESTYLE
350
17
  3
ACAD_PLOTSETTINGS
350
19
  3
ACAD_SCALELIST
350
47
  3
ACAD_VISUALSTYLE
350
2A
  3
ACDBHEADERROUNDTRIPXREC
350
6C2
  3
ACDBVARIABLEDICTIONARY
350
6E3
  0
DICTIONARY
  5
6EE
330
8
100
AcDbDictionary
280
     1
  3
ACAD_XREC_ROUNDTRIP
360
6EF
  0
DICTIONARY
  5
D
102
{ACAD_REACTORS
330
C
102
}
330
C
100
AcDbDictionary
  0
DICTIONARY
  5
1A
102
{ACAD_REACTORS
330
C
102
}
330
C
100
AcDbDictionary
  0
DICTIONARY
  5
43
102
{ACAD_REACTORS
330
C
102
}
330
C
100
AcDbDictionary
  3
BYBLOCK
350
45
  3
BYLAYER
350
44
  3
GLOBAL
350
46
  0
DICTIONARY
  5
6B
102
{ACAD_REACTORS
330
C
102
}
330
C
100
AcDbDictionary
  3
STANDARD
350
6C
  0
DICTIONARY
  5
17
102
{ACAD_REACTORS
330
C
102
}
330
C
100
AcDbDictionary
  3
STANDARD
350
18
  0
DICTIONARY
  5
19
102
{ACAD_REACTORS
330
C
102
}
330
C
100
AcDbDictionary
  0
DICTIONARY
  5
47
102
{ACAD_REACTORS
330
C
102
}
330
C
100
AcDbDictionary
  3
A0
350
48
  3
A1
350
49
  3
A2
350
4A
  3
A3
350
4B
  3
A4
350
4C
  3
A5
350
4D
  3
A6
350
4E
  3
A7
350
4F
  3
A8
350
50
  3
A9
350
51
  3
B0
350
52
  3
B1
350
53
  3
B2
350
54
  3
B3
350
55
  3
B4
350
56
  3
B5
350
57
  3
B6
350
58
  3
B7
350
59
  3
B8
350
5A
  3
B9
350
5B
  3
C0
350
5C
  3
C1
350
5D
  3
C2
350
5E
  3
C3
350
5F
  3
C4
350
60
  3
C5
350
61
  3
C6
350
62
  3
C7
350
63
  3
C8
350
64
  3
C9
350
65
  3
D0
350
66
  3
D1
350
67
  3
D2
350
68
  0
DICTIONARY
  5
2A
102
{ACAD_REACTORS
330
C
102
}
330
C
100
AcDbDictionary
  3
2DWIREFRAME
350
2F
  3
BASIC
350
32
  3
BRIGHTEN
350
36
  3
COLORCHANGE
350
3A
  3
CONCEPTUAL
350
34
  3
DIM
350
35
  3
EDGECOLOROFF
350
3D
  3
FACEPATTERN
350
39
  3
FLAT
350
2B
  3
FLATWITHEDGES
350
2C
  3
GOURAUD
350
2D
  3
GOURAUDWITHEDGES
350
2E
  3
HIDDEN
350
31
  3
JITTEROFF
350
3B
  3
LINEPATTERN
350
38
  3
OVERHANGOFF
350
3C
  3
REALISTIC
350
33
  3
SHADED
350
42
  3
SHADED_WITH_EDGES
350
41
  3
SHADES_OF_GRAY
350
3E
  3
SKETCHY
350
3F
  3
THICKEN
350
37
  3
WIREFRAME
350
30
  3
X-RAY
350
40
  0
DICTIONARY
  5
6C2
102
{ACAD_REACTORS
330
C
102
}
330
C
100
AcDbDictionary
  3
CEPSNID
350
6CC
  3
CEPSNTYPE
350
6CB
  3
DIMSTYLEDATA
350
6E2
  3
FINGERPRINTGUID
350
6CD
  3
HYPERLINKBASE
350
6C5
  3
INSUNITS
350
6CA
  3
LAYOUTDICT
350
6C7
  3
LWETCUNION
350
6C9
  3
PLOTSETDICT
350
6C8
  3
PSVPSCALE
350
6CF
  3
PUCSBASE
350
6D2
  3
PUCSORGBACK
350
6D8
  3
PUCSORGBOTTOM
350
6D4
  3
PUCSORGFRONT
350
6D7
  3
PUCSORGLEFT
350
6D5
  3
PUCSORGRIGHT
350
6D6
  3
PUCSORGTOP
350
6D3
  3
PUCSORTHOREF
350
6D0
  3
PUCSORTHOVIEW
350
6D1
  3
STYLESHEET
350
6C6
  3
TSTACKALIGN
350
6C3
  3
TSTACKSIZE
350
6C4
  3
UCSBASE
350
6DB
  3
UCSORGBACK
350
6E1
  3
UCSORGBOTTOM
350
6DD
  3
UCSORGFRONT
350
6E0
  3
UCSORGLEFT
350
6DE
  3
UCSORGRIGHT
350
6DF
  3
UCSORGTOP
350
6DC
  3
UCSORTHOREF
350
6D9
  3
UCSORTHOVIEW
350
6DA
  3
VERSIONGUID
350
6CE
  0
DICTIONARY
  5
6E3
102
{ACAD_REACTORS
330
C
102
}
330
C
100
AcDbDictionary
  3
CANNOSCALE
350
6F0
  3
CENTEREXE
350
6EA
  3
CENTERLTYPEFILE
350
6EB
  3
CMLEADERSTYLE
350
6E5
  3
CTABLESTYLE
350
6E4
  3
DIMASSOC
350
6EC
  3
HIDETEXT
350
6ED
  3
MSLTSCALE
350
6F1
  3
PSOLHEIGHT
350
6E7
  3
PSOLWIDTH
350
6E6
  0
XRECORD
  5
6EF
102
{ACAD_REACTORS
330
6EE
102
}
330
6EE
100
AcDbXrecord
102
VTR_0.000_0.000_1.000_1.000_VISUALSTYLE
340
2F
102
VTR_0.000_0.000_1.000_1.000_GRIDDISPLAY
 70
     3
102
VTR_0.000_0.000_1.000_1.000_GRIDMAJOR
 70
     5
102
VTR_0.000_0.000_1.000_1.000_DEFAULTLIGHTING
280
     1
102
VTR_0.000_0.000_1.000_1.000_DEFAULTLIGHTINGTYPE
 70
     1
102
VTR_0.000_0.000_1.000_1.000_BRIGHTNESS
141
0.0
102
VTR_0.000_0.000_1.000_1.000_CONTRAST
142
0.0
  0
MATERIAL
  5
45
102
{ACAD_REACTORS
330
43
102
}
102
{ACAD_XDICTIONARY
360
6F4
102
}
330
43
100
AcDbMaterial
  1
BYBLOCK
  0
MATERIAL
  5
44
102
{ACAD_REACTORS
330
43
102
}
102
{ACAD_XDICTIONARY
360
6F2
102
}
330
43
100
AcDbMaterial
  1
BYLAYER
  0
MATERIAL
  5
46
102
{ACAD_REACTORS
330
43
102
}
102
{ACAD_XDICTIONARY
360
6F6
102
}
330
43
100
AcDbMaterial
  1
GLOBAL
  0
ACAD_PROXY_OBJECT
  5
6C
102
{ACAD_REACTORS
330
6B
102
}
330
6B
100
AcDbProxyObject
 90
      499
 91
      505
 93
      610
310
40901902A4063FBFFFFFE0000000000000020400000000000020404214DD185B99185C990000000000000104090141901A00000000000004100000000000000041025764000000000000039000
340
14
340
0
340
11
340
0
 94
        0
1001
ACAD_MLEADERVER
1070
     2
  0
MLINESTYLE
  5
18
102
{ACAD_REACTORS
330
17
102
}
330
17
100
AcDbMlineStyle
  2
Standard
 70
     0
  3

 62
   256
 51
90.0
 52
90.0
 71
     2
 49
0.5
 62
   256
  6
BYLAYER
 49
-0.5
 62
   256
  6
BYLAYER
  0
ACAD_PROXY_OBJECT
  5
48
102
{ACAD_REACTORS
330
47
102
}
330
47
100
AcDbProxyObject
 90
      499
 91
      503
 93
       41
310
903313A31580
  0
ACAD_PROXY_OBJECT
  5
49
102
{ACAD_REACTORS
330
47
102
}
330
47
100
AcDbProxyObject
 90
      499
 91
      503
 93
      105
310
903313A324000000000000004000
  0
ACAD_PROXY_OBJECT
  5
4A
102
{ACAD_REACTORS
330
47
102
}
330
47
100
AcDbProxyObject
 90
      499
 91
      503
 93
      105
310
903313A344000000000000104000
  0
ACAD_PROXY_OBJECT
  5
4B
102
{ACAD_REACTORS
330
47
102
}
330
47
100
AcDbProxyObject
 90
      499
 91
      503
 93
      105
310
903313A354000000000000144000
  0
ACAD_PROXY_OBJECT
  5
4C
102
{ACAD_REACTORS
330
47
102
}
330
47
100
AcDbProxyObject
 90
      499
 91
      503
 93
      105
310
903313A384000000000000204000
  0
ACAD_PROXY_OBJECT
  5
4D
102
{ACAD_REACTORS
330
47
102
}
330
47
100
AcDbProxyObject
 90
      499
 91
      503
 93
      113
310
904313A31304000000000000244000
  0
ACAD_PROXY_OBJECT
  5
4E
102
{ACAD_REACTORS
330
47
102
}
330
47
100
AcDbProxyObject
 90
      499
 91
      503
 93
      113
310
904313A31364000000000000304000
  0
ACAD_PROXY_OBJECT
  5
4F
102
{ACAD_REACTORS
330
47
102
}
330
47
100
AcDbProxyObject
 90
      499
 91
      503
 93
      113
310
904313A32304000000000000344000
  0
ACAD_PROXY_OBJECT
  5
50
102
{ACAD_REACTORS
330
47
102
}
330
47
100
AcDbProxyObject
 90
      499
 91
      503
 93
      113
310
904313A333040000000000003E4000
  0
ACAD_PROXY_OBJECT
  5
51
102
{ACAD_REACTORS
330
47
102
}
330
47
100
AcDbProxyObject
 90
      499
 91
      503
 93
      113
310
904313A34304000000000000444000
  0
ACAD_PROXY_OBJECT
  5
52
102
{ACAD_REACTORS
330
47
102
}
330
47
100
AcDbProxyObject
 90
      499
 91
      503
 93
      113
310
904313A35304000000000000494000
  0
ACAD_PROXY_OBJECT
  5
53
102
{ACAD_REACTORS
330
47
102
}
330
47
100
AcDbProxyObject
 90
      499
 91
      503
 93
      121
310
905313A3130304000000000000594000
  0
ACAD_PROXY_OBJECT
  5
54
102
{ACAD_REACTORS
330
47
102
}
330
47
100
AcDbProxyObject
 90
      499
 91
      503
 93
      105
310
903323A310000000000000010100
  0
ACAD_PROXY_OBJECT
  5
55
102
{ACAD_REACTORS
330
47
102
}
330
47
100
AcDbProxyObject
 90
      499
 91
      503
 93
      105
310
903343A310000000000000410100
  0
ACAD_PROXY_OBJECT
  5
56
102
{ACAD_REACTORS
330
47
102
}
330
47
100
AcDbProxyObject
 90
      499
 91
      503
 93
      105
310
903383A310000000000000810100
  0
ACAD_PROXY_OBJECT
  5
57
102
{ACAD_REACTORS
330
47
102
}
330
47
100
AcDbProxyObject
 90
      499
 91
      503
 93
      113
310
90431303A310000000000000910100
  0
ACAD_PROXY_OBJECT
  5
58
102
{ACAD_REACTORS
330
47
102
}
330
47
100
AcDbProxyObject
 90
      499
 91
      503
 93
      121
310
9053130303A310000000000001650100
  0
ACAD_PROXY_OBJECT
  5
59
102
{ACAD_REACTORS
330
47
102
}
330
47
100
AcDbProxyObject
 90
      499
 91
      503
 93
      257
310
90E312F31323822203D2031272D3022000000000000200FC000000000000284000
  0
ACAD_PROXY_OBJECT
  5
5A
102
{ACAD_REACTORS
330
47
102
}
330
47
100
AcDbProxyObject
 90
      499
 91
      503
 93
      249
310
90D312F363422203D2031272D3022000000000000240FC000000000000284000
  0
ACAD_PROXY_OBJECT
  5
5B
102
{ACAD_REACTORS
330
47
102
}
330
47
100
AcDbProxyObject
 90
      499
 91
      503
 93
      249
310
90D312F333222203D2031272D3022000000000000280FC000000000000284000
  0
ACAD_PROXY_OBJECT
  5
5C
102
{ACAD_REACTORS
330
47
102
}
330
47
100
AcDbProxyObject
 90
      499
 91
      503
 93
      249
310
90D312F313622203D2031272D30220000000000002C0FC000000000000284000
  0
ACAD_PROXY_OBJECT
  5
5D
102
{ACAD_REACTORS
330
47
102
}
330
47
100
AcDbProxyObject
 90
      499
 91
      503
 93
      249
310
90D332F333222203D2031272D30220000000000002E0FC000000000000284000
  0
ACAD_PROXY_OBJECT
  5
5E
102
{ACAD_REACTORS
330
47
102
}
330
47
100
AcDbProxyObject
 90
      499
 91
      503
 93
      241
310
90C312F3822203D2031272D3022000000000000300FC000000000000284000
  0
ACAD_PROXY_OBJECT
  5
5F
102
{ACAD_REACTORS
330
47
102
}
330
47
100
AcDbProxyObject
 90
      499
 91
      503
 93
      249
310
90D332F313622203D2031272D3022000000000000320FC000000000000284000
  0
ACAD_PROXY_OBJECT
  5
60
102
{ACAD_REACTORS
330
47
102
}
330
47
100
AcDbProxyObject
 90
      499
 91
      503
 93
      241
310
90C312F3422203D2031272D3022000000000000340FC000000000000284000
  0
ACAD_PROXY_OBJECT
  5
61
102
{ACAD_REACTORS
330
47
102
}
330
47
100
AcDbProxyObject
 90
      499
 91
      503
 93
      241
310
90C332F3822203D2031272D3022000000000000360FC000000000000284000
  0
ACAD_PROXY_OBJECT
  5
62
102
{ACAD_REACTORS
330
47
102
}
330
47
100
AcDbProxyObject
 90
      499
 91
      503
 93
      241
310
90C312F3222203D2031272D3022000000000000380FC000000000000284000
  0
ACAD_PROXY_OBJECT
  5
63
102
{ACAD_REACTORS
330
47
102
}
330
47
100
AcDbProxyObject
 90
      499
 91
      503
 93
      241
310
90C332F3422203D2031272D30220000000000003A0FC000000000000284000
  0
ACAD_PROXY_OBJECT
  5
64
102
{ACAD_REACTORS
330
47
102
}
330
47
100
AcDbProxyObject
 90
      499
 91
      503
 93
      161
310
90A3122203D2031272D30224000000000000284000
  0
ACAD_PROXY_OBJECT
  5
65
102
{ACAD_REACTORS
330
47
102
}
330
47
100
AcDbProxyObject
 90
      499
 91
      503
 93
      257
310
90E312D312F3222203D2031272D30220000000000003E0FC000000000000284000
  0
ACAD_PROXY_OBJECT
  5
66
102
{ACAD_REACTORS
330
47
102
}
330
47
100
AcDbProxyObject
 90
      499
 91
      503
 93
      225
310
90A3322203D2031272D302200000000000002100000000000000284000
  0
ACAD_PROXY_OBJECT
  5
67
102
{ACAD_REACTORS
330
47
102
}
330
47
100
AcDbProxyObject
 90
      499
 91
      503
 93
      225
310
90A3622203D2031272D302200000000000006100000000000000284000
  0
ACAD_PROXY_OBJECT
  5
68
102
{ACAD_REACTORS
330
47
102
}
330
47
100
AcDbProxyObject
 90
      499
 91
      503
 93
      249
310
90D31272D3022203D2031272D30220000000000000A100000000000000284000
  0
ACAD_PROXY_OBJECT
  5
2F
102
{ACAD_REACTORS
330
2A
102
}
330
2A
100
AcDbProxyObject
 90
      499
 91
      501
 93
      436
310
42CC9915DA5C99599C985B595049028333333333333E33F0000000000000F90107901411070040501600405405064090741402480A0340
1001
ACAD
1000
AcDbSavedByObjectVersion
1070
     0
  0
ACAD_PROXY_OBJECT
  5
32
102
{ACAD_REACTORS
330
2A
102
}
330
2A
100
AcDbProxyObject
 90
      499
 91
      501
 93
      388
310
4150985CDA58D07406404333333333333E33F0000000000000F90107A41107004050150841D405064090741402480A0350
1001
ACAD
1000
AcDbSavedByObjectVersion
1070
     0
  0
ACAD_PROXY_OBJECT
  5
36
102
{ACAD_REACTORS
330
2A
102
}
330
2A
100
AcDbProxyObject
 90
      499
 91
      501
 93
      428
310
42109C9A59DA1D195B90C409028333333333333E33F0000000000000F9010790141107004050150841D405064090741402480A029950
1001
ACAD
1000
AcDbSavedByObjectVersion
1070
     0
  0
ACAD_PROXY_OBJECT
  5
3A
102
{ACAD_REACTORS
330
2A
102
}
330
2A
100
AcDbProxyObject
 90
      499
 91
      501
 93
      452
310
42D0DBDB1BDC90DA185B99D95104090240C333333333333E33F0000000000000F90108901411070040501508421405064090741402480A0350
1001
ACAD
1000
AcDbSavedByObjectVersion
1070
     0
  0
ACAD_PROXY_OBJECT
  5
34
102
{ACAD_REACTORS
330
2A
102
}
330
2A
100
AcDbProxyObject
 90
      499
 91
      501
 93
      500
310
4290DBDB98D95C1D1D585B10940D028333333333333E33F0000000000000F90107902409070040501000000000018199010841D405064090740C02480A0340
1001
ACAD
1000
AcDbSavedByObjectVersion
1070
     0
  0
ACAD_PROXY_OBJECT
  5
35
102
{ACAD_REACTORS
330
2A
102
}
330
2A
100
AcDbProxyObject
 90
      499
 91
      501
 93
      412
310
40D11A5B50B409028333333333333E33F0000000000000F9010790141107004050150841D405064090741402480A02677FFFFFD0
1001
ACAD
1000
AcDbSavedByObjectVersion
1070
     0
  0
ACAD_PROXY_OBJECT
  5
3D
102
{ACAD_REACTORS
330
2A
102
}
330
2A
100
AcDbProxyObject
 90
      499
 91
      501
 93
      452
310
43115919D950DBDB1BDC93D999916409028333333333333E33F0000000000000F9010790141107004050150841D405064090741402480A0350
1001
ACAD
1000
AcDbSavedByObjectVersion
1070
     0
  0
ACAD_PROXY_OBJECT
  5
39
102
{ACAD_REACTORS
330
2A
102
}
330
2A
100
AcDbProxyObject
 90
      499
 91
      501
 93
      444
310
42D19858D95C185D1D195C9B90F409028333333333333E33F0000000000000F9010790141107004050150841D405064090741402480A0350
1001
ACAD
1000
AcDbSavedByObjectVersion
1070
     0
  0
ACAD_PROXY_OBJECT
  5
2B
102
{ACAD_REACTORS
330
2A
102
}
330
2A
100
AcDbProxyObject
 90
      499
 91
      501
 93
      380
310
41119B185D240901404333333333333E33F0000000000000F9010740A907004050150841D405064090741402480A1B50
1001
ACAD
1000
AcDbSavedByObjectVersion
1070
     0
  0
ACAD_PROXY_OBJECT
  5
2C
102
{ACAD_REACTORS
330
2A
102
}
330
2A
100
AcDbProxyObject
 90
      499
 91
      501
 93
      468
310
43519B185D15DA5D1A115919D95CD0140901404333333333333E33F0000000000000F90107409019070040501600405405064090741402480A1B50
1001
ACAD
1000
AcDbSavedByObjectVersion
1070
     0
  0
ACAD_PROXY_OBJECT
  5
2D
102
{ACAD_REACTORS
330
2A
102
}
330
2A
100
AcDbProxyObject
 90
      499
 91
      501
 93
      404
310
41D1DBDD5C985D5910240902404333333333333E33F0000000000000F9010740A9070040501641D405064090741402480A1B50
1001
ACAD
1000
AcDbSavedByObjectVersion
1070
     0
  0
ACAD_PROXY_OBJECT
  5
2E
102
{ACAD_REACTORS
330
2A
102
}
330
2A
100
AcDbProxyObject
 90
      499
 91
      501
 93
      492
310
4411DBDD5C985D5915DA5D1A115919D95CD0340902404333333333333E33F0000000000000F90107409019070040501600405405064090741402480A1B50
1001
ACAD
1000
AcDbSavedByObjectVersion
1070
     0
  0
ACAD_PROXY_OBJECT
  5
31
102
{ACAD_REACTORS
330
2A
102
}
330
2A
100
AcDbProxyObject
 90
      499
 91
      501
 93
      476
310
41921A5919195B90640502408333333333333E33F0000000000000F901079024090700405020000000000001110200405405064090740C02480A0340
1001
ACAD
1000
AcDbSavedByObjectVersion
1070
     0
  0
ACAD_PROXY_OBJECT
  5
3B
102
{ACAD_REACTORS
330
2A
102
}
330
2A
100
AcDbProxyObject
 90
      499
 91
      501
 93
      428
310
42529A5D1D195C93D999914409028333333333333E33F0000000000000F9010790141107004050150A41D405064090741402480A0350
1001
ACAD
1000
AcDbSavedByObjectVersion
1070
     0
  0
ACAD_PROXY_OBJECT
  5
38
102
{ACAD_REACTORS
330
2A
102
}
330
2A
100
AcDbProxyObject
 90
      499
 91
      501
 93
      444
310
42D31A5B995C185D1D195C9B90E409028333333333333E33F0000000000000F9010790141107004050750841D405064090741402483A0350
1001
ACAD
1000
AcDbSavedByObjectVersion
1070
     0
  0
ACAD_PROXY_OBJECT
  5
3C
102
{ACAD_REACTORS
330
2A
102
}
330
2A
100
AcDbProxyObject
 90
      499
 91
      501
 93
      444
310
42D3DD995C9A185B99D3D999915409028333333333333E33F0000000000000F9010790141107004050150941D405064090741402480A0350
1001
ACAD
1000
AcDbSavedByObjectVersion
1070
     0
  0
ACAD_PROXY_OBJECT
  5
33
102
{ACAD_REACTORS
330
2A
102
}
330
2A
100
AcDbProxyObject
 90
      499
 91
      501
 93
      428
310
425499585B1A5CDD1A58D08409038333333333333E33F0000000000000F9010740A907004050150800405405064090740C02480A1B40
1001
ACAD
1000
AcDbSavedByObjectVersion
1070
     0
  0
ACAD_PROXY_OBJECT
  5
42
102
{ACAD_REACTORS
330
2A
102
}
330
2A
100
AcDbProxyObject
 90
      499
 91
      501
 93
      420
310
4194DA1859195911B40902404333333333333E33F0000000000000F9010740A41107004050150800405405064090840C02480A0B40
1001
ACAD
1000
AcDbSavedByObjectVersion
1070
     0
  0
ACAD_PROXY_OBJECT
  5
41
102
{ACAD_REACTORS
330
2A
102
}
330
2A
100
AcDbProxyObject
 90
      499
 91
      501
 93
      516
310
4454DA18591959081DDA5D1A08195919D95CD1A40902404333333333333E33F0000000000000F901074090142907004050250800405405064090740C02480A0B40
1001
ACAD
1000
AcDbSavedByObjectVersion
1070
     0
  0
ACAD_PROXY_OBJECT
  5
3E
102
{ACAD_REACTORS
330
2A
102
}
330
2A
100
AcDbProxyObject
 90
      499
 91
      501
 93
      532
310
4394DA1859195CC81BD98811DC985E5174090240C333333333333E33F0000000000000F901079024090741D01000000000000111010841D405064090740C02480A0340
1001
ACAD
1000
AcDbSavedByObjectVersion
1070
     0
  0
ACAD_PROXY_OBJECT
  5
3F
102
{ACAD_REACTORS
330
2A
102
}
330
2A
100
AcDbProxyObject
 90
      499
 91
      501
 93
      476
310
41D4DAD95D18DA1E51840502408333333333333E33F0000000000000F901079024090741D01000000000000111010B41D405064090741802480A0340
1001
ACAD
1000
AcDbSavedByObjectVersion
1070
     0
  0
ACAD_PROXY_OBJECT
  5
37
102
{ACAD_REACTORS
330
2A
102
}
330
2A
100
AcDbProxyObject
 90
      499
 91
      501
 93
      412
310
41D51A1A58DAD95B90D409028333333333333E33F0000000000000F9010790141107004050150C41D405064090741402480A0350
1001
ACAD
1000
AcDbSavedByObjectVersion
1070
     0
  0
ACAD_PROXY_OBJECT
  5
30
102
{ACAD_REACTORS
330
2A
102
}
330
2A
100
AcDbProxyObject
 90
      499
 91
      501
 93
      420
310
4255DA5C99599C985B595059028333333333333E33F0000000000000F90107901411070040501600405405064090740C02480A0340
1001
ACAD
1000
AcDbSavedByObjectVersion
1070
     0
  0
ACAD_PROXY_OBJECT
  5
40
102
{ACAD_REACTORS
330
2A
102
}
330
2A
100
AcDbProxyObject
 90
      499
 91
      501
 93
      404
310
41560B54985E51940902404000000000000E03F0000000000000F9010740501907004050150841D405064090740C02480A1B40
1001
ACAD
1000
AcDbSavedByObjectVersion
1070
     0
  0
XRECORD
  5
6CC
102
{ACAD_REACTORS
330
6C2
102
}
330
6C2
100
AcDbXrecord
340
0
  0
XRECORD
  5
6CB
102
{ACAD_REACTORS
330
6C2
102
}
330
6C2
100
AcDbXrecord
 90
        0
  0
XRECORD
  5
6E2
102
{ACAD_REACTORS
330
6C2
102
}
330
6C2
100
AcDbXrecord
1000
DSTYLE
1002
{
1070
   340
340
11
1002
}
  0
XRECORD
  5
6CD
102
{ACAD_REACTORS
330
6C2
102
}
330
6C2
100
AcDbXrecord
  1
{7c81be3b-8501-44e2-ab25-fab3d3335582}
  0
XRECORD
  5
6C5
102
{ACAD_REACTORS
330
6C2
102
}
330
6C2
100
AcDbXrecord
  1

  0
XRECORD
  5
6CA
102
{ACAD_REACTORS
330
6C2
102
}
330
6C2
100
AcDbXrecord
 90
        4
  0
XRECORD
  5
6C7
102
{ACAD_REACTORS
330
6C2
102
}
330
6C2
100
AcDbXrecord
340
1A
  0
XRECORD
  5
6C9
102
{ACAD_REACTORS
330
6C2
102
}
330
6C2
100
AcDbXrecord
 90
    10781
  0
XRECORD
  5
6C8
102
{ACAD_REACTORS
330
6C2
102
}
330
6C2
100
AcDbXrecord
340
19
  0
XRECORD
  5
6CF
102
{ACAD_REACTORS
330
6C2
102
}
330
6C2
100
AcDbXrecord
 40
0.0
  0
XRECORD
  5
6D2
102
{ACAD_REACTORS
330
6C2
102
}
330
6C2
100
AcDbXrecord
340
0
  0
XRECORD
  5
6D8
102
{ACAD_REACTORS
330
6C2
102
}
330
6C2
100
AcDbXrecord
 10
0.0
 20
0.0
 30
0.0
  0
XRECORD
  5
6D4
102
{ACAD_REACTORS
330
6C2
102
}
330
6C2
100
AcDbXrecord
 10
0.0
 20
0.0
 30
0.0
  0
XRECORD
  5
6D7
102
{ACAD_REACTORS
330
6C2
102
}
330
6C2
100
AcDbXrecord
 10
0.0
 20
0.0
 30
0.0
  0
XRECORD
  5
6D5
102
{ACAD_REACTORS
330
6C2
102
}
330
6C2
100
AcDbXrecord
 10
0.0
 20
0.0
 30
0.0
  0
XRECORD
  5
6D6
102
{ACAD_REACTORS
330
6C2
102
}
330
6C2
100
AcDbXrecord
 10
0.0
 20
0.0
 30
0.0
  0
XRECORD
  5
6D3
102
{ACAD_REACTORS
330
6C2
102
}
330
6C2
100
AcDbXrecord
 10
0.0
 20
0.0
 30
0.0
  0
XRECORD
  5
6D0
102
{ACAD_REACTORS
330
6C2
102
}
330
6C2
100
AcDbXrecord
340
0
  0
XRECORD
  5
6D1
102
{ACAD_REACTORS
330
6C2
102
}
330
6C2
100
AcDbXrecord
 70
     0
  0
XRECORD
  5
6C6
102
{ACAD_REACTORS
330
6C2
102
}
330
6C2
100
AcDbXrecord
  1

  0
XRECORD
  5
6C3
102
{ACAD_REACTORS
330
6C2
102
}
330
6C2
100
AcDbXrecord
 90
        1
  0
XRECORD
  5
6C4
102
{ACAD_REACTORS
330
6C2
102
}
330
6C2
100
AcDbXrecord
 90
       70
  0
XRECORD
  5
6DB
102
{ACAD_REACTORS
330
6C2
102
}
330
6C2
100
AcDbXrecord
340
0
  0
XRECORD
  5
6E1
102
{ACAD_REACTORS
330
6C2
102
}
330
6C2
100
AcDbXrecord
 10
0.0
 20
0.0
 30
0.0
  0
XRECORD
  5
6DD
102
{ACAD_REACTORS
330
6C2
102
}
330
6C2
100
AcDbXrecord
 10
0.0
 20
0.0
 30
0.0
  0
XRECORD
  5
6E0
102
{ACAD_REACTORS
330
6C2
102
}
330
6C2
100
AcDbXrecord
 10
0.0
 20
0.0
 30
0.0
  0
XRECORD
  5
6DE
102
{ACAD_REACTORS
330
6C2
102
}
330
6C2
100
AcDbXrecord
 10
0.0
 20
0.0
 30
0.0
  0
XRECORD
  5
6DF
102
{ACAD_REACTORS
330
6C2
102
}
330
6C2
100
AcDbXrecord
 10
0.0
 20
0.0
 30
0.0
  0
XRECORD
  5
6DC
102
{ACAD_REACTORS
330
6C2
102
}
330
6C2
100
AcDbXrecord
 10
0.0
 20
0.0
 30
0.0
  0
XRECORD
  5
6D9
102
{ACAD_REACTORS
330
6C2
102
}
330
6C2
100
AcDbXrecord
340
0
  0
XRECORD
  5
6DA
102
{ACAD_REACTORS
330
6C2
102
}
330
6C2
100
AcDbXrecord
 70
     0
  0
XRECORD
  5
6CE
102
{ACAD_REACTORS
330
6C2
102
}
330
6C2
100
AcDbXrecord
  1
{FAEB1C32-E019-11D5-929B-00C0DF256EC4}
  0
DICTIONARYVAR
  5
6F0
102
{ACAD_REACTORS
330
6E3
102
}
330
6E3
100
DictionaryVariables
280
     0
  1
1:1
  0
DICTIONARYVAR
  5
6EA
102
{ACAD_REACTORS
330
6E3
102
}
330
6E3
100
DictionaryVariables
280
     0
  1
3.500000
  0
DICTIONARYVAR
  5
6EB
102
{ACAD_REACTORS
330
6E3
102
}
330
6E3
100
DictionaryVariables
280
     0
  1
acadiso.lin
  0
DICTIONARYVAR
  5
6E5
102
{ACAD_REACTORS
330
6E3
102
}
330
6E3
100
DictionaryVariables
280
     0
  1
Standard
  0
DICTIONARYVAR
  5
6E4
102
{ACAD_REACTORS
330
6E3
102
}
330
6E3
100
DictionaryVariables
280
     0
  1
Standard
  0
DICTIONARYVAR
  5
6EC
102
{ACAD_REACTORS
330
6E3
102
}
330
6E3
100
DictionaryVariables
280
     0
  1
2
  0
DICTIONARYVAR
  5
6ED
102
{ACAD_REACTORS
330
6E3
102
}
330
6E3
100
DictionaryVariables
280
     0
  1
1
  0
DICTIONARYVAR
  5
6F1
102
{ACAD_REACTORS
330
6E3
102
}
330
6E3
100
DictionaryVariables
280
     0
  1
1
  0
DICTIONARYVAR
  5
6E7
102
{ACAD_REACTORS
330
6E3
102
}
330
6E3
100
DictionaryVariables
280
     0
  1
80.000000
  0
DICTIONARYVAR
  5
6E6
102
{ACAD_REACTORS
330
6E3
102
}
330
6E3
100
DictionaryVariables
280
     0
  1
5.000000
  0
DICTIONARY
  5
6F4
330
45
100
AcDbDictionary
280
     1
  3
ACAD_XREC_ROUNDTRIP
360
6F5
  0
DICTIONARY
  5
6F2
330
44
100
AcDbDictionary
280
     1
  3
ACAD_XREC_ROUNDTRIP
360
6F3
  0
DICTIONARY
  5
6F6
330
46
100
AcDbDictionary
280
     1
  3
ACAD_XREC_ROUNDTRIP
360
6F7
  0
XRECORD
  5
6F5
102
{ACAD_REACTORS
330
6F4
102
}
330
6F4
100
AcDbXrecord
102
MATERIAL
148
0.0
149
0.0
149
0.0
 93
        0
 94
      127
282
     0
 72
     1
 77
     1
171
     1
175
     1
179
     1
273
     0
  0
XRECORD
  5
6F3
102
{ACAD_REACTORS
330
6F2
102
}
330
6F2
100
AcDbXrecord
102
MATERIAL
148
0.0
149
0.0
149
0.0
 93
        0
 94
      127
282
     0
 72
     1
 77
     1
171
     1
175
     1
179
     1
273
     0
  0
XRECORD
  5
6F7
102
{ACAD_REACTORS
330
6F6
102
}
330
6F6
100
AcDbXrecord
102
MATERIAL
148
0.0
149
0.0
149
0.0
 93
        0
 94
      127
282
     0
 72
     1
 77
     1
171
     1
175
     1
179
     1
273
     0
  0
ENDSEC
  0
EOF
